  0
SECTION
  2
HEADER
  9
$ACADVER
  1
AC1015
  9
$ACADMAINTVER
 70
    20
  9
$DWGCODEPAGE
  3
ANSI_932
  9
$INSBASE
 10
0.0
 20
0.0
 30
0.0
  9
$EXTMIN
 10
-211.0116263101944
 20
-100.0083306632102
 30
-0.0015258207003583
  9
$EXTMAX
 10
170.011628084364
 20
173.0083319344654
 30
0.0000000349246037
  9
$LIMMIN
 10
-211.0
 20
-100.0
  9
$LIMMAX
 10
170.0
 20
173.0
  9
$ORTHOMODE
 70
     0
  9
$REGENMODE
 70
     1
  9
$FILLMODE
 70
     1
  9
$QTEXTMODE
 70
     0
  9
$MIRRTEXT
 70
     0
  9
$LTSCALE
 40
1.0
  9
$ATTMODE
 70
     1
  9
$TEXTSIZE
 40
0.2
  9
$TRACEWID
 40
0.05
  9
$TEXTSTYLE
  7
STANDARD
  9
$CLAYER
  8
0
  9
$CELTYPE
  6
CONTINUOUS
  9
$CECOLOR
 62
   256
  9
$CELTSCALE
 40
1.0
  9
$DISPSILH
 70
     0
  9
$DIMSCALE
 40
1.0
  9
$DIMASZ
 40
1.0
  9
$DIMEXO
 40
2.54
  9
$DIMDLI
 40
0.38
  9
$DIMRND
 40
0.0
  9
$DIMDLE
 40
0.0
  9
$DIMEXE
 40
2.54
  9
$DIMTP
 40
0.0
  9
$DIMTM
 40
0.0
  9
$DIMTXT
 40
3.2
  9
$DIMCEN
 40
0.09
  9
$DIMTSZ
 40
0.0
  9
$DIMTOL
 70
     0
  9
$DIMLIM
 70
     0
  9
$DIMTIH
 70
     0
  9
$DIMTOH
 70
     0
  9
$DIMSE1
 70
     0
  9
$DIMSE2
 70
     0
  9
$DIMTAD
 70
     1
  9
$DIMZIN
 70
     0
  9
$DIMBLK
  1

  9
$DIMASO
 70
     1
  9
$DIMSHO
 70
     0
  9
$DIMPOST
  1

  9
$DIMAPOST
  1

  9
$DIMALT
 70
     0
  9
$DIMALTD
 70
     2
  9
$DIMALTF
 40
25.4
  9
$DIMLFAC
 40
1.0
  9
$DIMTOFL
 70
     0
  9
$DIMTVP
 40
1.0
  9
$DIMTIX
 70
     0
  9
$DIMSOXD
 70
     0
  9
$DIMSAH
 70
     1
  9
$DIMBLK1
  1

  9
$DIMBLK2
  1

  9
$DIMSTYLE
  2
DIMSTYLE
  9
$DIMCLRD
 70
     0
  9
$DIMCLRE
 70
     0
  9
$DIMCLRT
 70
     0
  9
$DIMTFAC
 40
1.0
  9
$DIMGAP
 40
1.6
  9
$DIMJUST
 70
     0
  9
$DIMSD1
 70
     0
  9
$DIMSD2
 70
     0
  9
$DIMTOLJ
 70
     1
  9
$DIMTZIN
 70
     0
  9
$DIMALTZ
 70
     0
  9
$DIMALTTZ
 70
     0
  9
$DIMUPT
 70
     0
  9
$DIMDEC
 70
     4
  9
$DIMTDEC
 70
     4
  9
$DIMALTU
 70
     2
  9
$DIMALTTD
 70
     2
  9
$DIMTXSTY
  7
STANDARD
  9
$DIMAUNIT
 70
     0
  9
$DIMADEC
 70
     0
  9
$DIMALTRND
 40
0.0
  9
$DIMAZIN
 70
     0
  9
$DIMDSEP
 70
    46
  9
$DIMATFIT
 70
     3
  9
$DIMFRAC
 70
     0
  9
$DIMLDRBLK
  1

  9
$DIMLUNIT
 70
     2
  9
$DIMLWD
 70
    -2
  9
$DIMLWE
 70
    -2
  9
$DIMTMOVE
 70
     0
  9
$LUNITS
 70
     2
  9
$LUPREC
 70
     4
  9
$SKETCHINC
 40
0.1
  9
$FILLETRAD
 40
0.0
  9
$AUNITS
 70
     0
  9
$AUPREC
 70
     0
  9
$MENU
  1
.
  9
$ELEVATION
 40
0.0
  9
$PELEVATION
 40
0.0
  9
$THICKNESS
 40
0.0
  9
$LIMCHECK
 70
     0
  9
$CHAMFERA
 40
0.0
  9
$CHAMFERB
 40
0.0
  9
$CHAMFERC
 40
0.0
  9
$CHAMFERD
 40
0.0
  9
$SKPOLY
 70
     0
  9
$TDCREATE
 40
2454260.793510556
  9
$TDUCREATE
 40
2454260.418510556
  9
$TDUPDATE
 40
2454260.807525498
  9
$TDUUPDATE
 40
2454260.432525498
  9
$TDINDWG
 40
0.0140158449
  9
$TDUSRTIMER
 40
0.0140158449
  9
$USRTIMER
 70
     1
  9
$ANGBASE
 50
0.0
  9
$ANGDIR
 70
     0
  9
$PDMODE
 70
     0
  9
$PDSIZE
 40
0.0
  9
$PLINEWID
 40
0.0
  9
$SPLFRAME
 70
     0
  9
$SPLINETYPE
 70
     6
  9
$SPLINESEGS
 70
     8
  9
$HANDSEED
  5
2EC
  9
$SURFTAB1
 70
     6
  9
$SURFTAB2
 70
     6
  9
$SURFTYPE
 70
     6
  9
$SURFU
 70
     6
  9
$SURFV
 70
     6
  9
$UCSBASE
  2

  9
$UCSNAME
  2

  9
$UCSORG
 10
0.0
 20
0.0
 30
0.0
  9
$UCSXDIR
 10
1.0
 20
0.0
 30
0.0
  9
$UCSYDIR
 10
0.0
 20
1.0
 30
0.0
  9
$UCSORTHOREF
  2

  9
$UCSORTHOVIEW
 70
     0
  9
$UCSORGTOP
 10
0.0
 20
0.0
 30
0.0
  9
$UCSORGBOTTOM
 10
0.0
 20
0.0
 30
0.0
  9
$UCSORGLEFT
 10
0.0
 20
0.0
 30
0.0
  9
$UCSORGRIGHT
 10
0.0
 20
0.0
 30
0.0
  9
$UCSORGFRONT
 10
0.0
 20
0.0
 30
0.0
  9
$UCSORGBACK
 10
0.0
 20
0.0
 30
0.0
  9
$PUCSBASE
  2

  9
$PUCSNAME
  2

  9
$PUCSORG
 10
0.0
 20
0.0
 30
0.0
  9
$PUCSXDIR
 10
1.0
 20
0.0
 30
0.0
  9
$PUCSYDIR
 10
0.0
 20
1.0
 30
0.0
  9
$PUCSORTHOREF
  2

  9
$PUCSORTHOVIEW
 70
     0
  9
$PUCSORGTOP
 10
0.0
 20
0.0
 30
0.0
  9
$PUCSORGBOTTOM
 10
0.0
 20
0.0
 30
0.0
  9
$PUCSORGLEFT
 10
0.0
 20
0.0
 30
0.0
  9
$PUCSORGRIGHT
 10
0.0
 20
0.0
 30
0.0
  9
$PUCSORGFRONT
 10
0.0
 20
0.0
 30
0.0
  9
$PUCSORGBACK
 10
0.0
 20
0.0
 30
0.0
  9
$USERI1
 70
     0
  9
$USERI2
 70
     0
  9
$USERI3
 70
     0
  9
$USERI4
 70
     0
  9
$USERI5
 70
     0
  9
$USERR1
 40
0.0
  9
$USERR2
 40
0.0
  9
$USERR3
 40
0.0
  9
$USERR4
 40
0.0
  9
$USERR5
 40
0.0
  9
$WORLDVIEW
 70
     1
  9
$SHADEDGE
 70
     3
  9
$SHADEDIF
 70
    70
  9
$TILEMODE
 70
     1
  9
$MAXACTVP
 70
    64
  9
$PINSBASE
 10
0.0
 20
0.0
 30
0.0
  9
$PLIMCHECK
 70
     0
  9
$PEXTMIN
 10
1.000000000000000E+20
 20
1.000000000000000E+20
 30
1.000000000000000E+20
  9
$PEXTMAX
 10
-1.000000000000000E+20
 20
-1.000000000000000E+20
 30
-1.000000000000000E+20
  9
$PLIMMIN
 10
-211.0
 20
-100.0
  9
$PLIMMAX
 10
170.0
 20
173.0
  9
$UNITMODE
 70
     0
  9
$VISRETAIN
 70
     1
  9
$PLINEGEN
 70
     0
  9
$PSLTSCALE
 70
     1
  9
$TREEDEPTH
 70
  3020
  9
$CMLSTYLE
  2
Standard
  9
$CMLJUST
 70
     0
  9
$CMLSCALE
 40
1.0
  9
$PROXYGRAPHICS
 70
     1
  9
$MEASUREMENT
 70
     0
  9
$CELWEIGHT
370
    -1
  9
$ENDCAPS
280
     0
  9
$JOINSTYLE
280
     0
  9
$LWDISPLAY
290
     0
  9
$INSUNITS
 70
     0
  9
$HYPERLINKBASE
  1

  9
$STYLESHEET
  1

  9
$XEDIT
290
     1
  9
$CEPSNTYPE
380
     0
  9
$PSTYLEMODE
290
     1
  9
$FINGERPRINTGUID
  2
{8DE3D4BD-6738-4876-8091-05C2E1E4ECFC}
  9
$VERSIONGUID
  2
{DD3E3C22-7384-4BD6-B41E-14D93CEB7EA4}
  9
$EXTNAMES
290
     1
  9
$PSVPSCALE
 40
0.0
  9
$OLESTARTUP
290
     0
  0
ENDSEC
  0
SECTION
  2
CLASSES
  0
CLASS
  1
ACDBDICTIONARYWDFLT
  2
AcDbDictionaryWithDefault
  3
ObjectDBX Classes
 90
        0
280
     0
281
     0
  0
CLASS
  1
MATERIAL
  2
AcDbMaterial
  3
ObjectDBX Classes
 90
     1153
280
     0
281
     0
  0
CLASS
  1
VISUALSTYLE
  2
AcDbVisualStyle
  3
ObjectDBX Classes
 90
     4095
280
     0
281
     0
  0
CLASS
  1
TABLESTYLE
  2
AcDbTableStyle
  3
ObjectDBX Classes
 90
     4095
280
     0
281
     0
  0
CLASS
  1
AMGSETTINGSOBJ
  2
AmgSettingsObj
  3
"AcadM|Product Description: AutoCAD Mechanical|Company: Autodesk"
 90
        0
280
     0
281
     0
  0
CLASS
  1
ACME_DOCUMENT
  2
AcMeDbDoc
  3
AcMeServices
 90
        0
280
     0
281
     0
  0
CLASS
  1
ACMESCOPE
  2
AcMeScope
  3
AcMeServices
 90
        0
280
     0
281
     0
  0
CLASS
  1
ACMECOMMANDHISTORY
  2
AcMeCommandHistory
  3
AcMeServices
 90
        0
280
     0
281
     0
  0
CLASS
  1
ACIMSYSVARMAN
  2
AcImSysVarManager
  3
AcMeServices
 90
        0
280
     0
281
     0
  0
CLASS
  1
ACIMINTSYSVAR
  2
AcImIntSysVar
  3
AcMeServices
 90
        0
280
     0
281
     0
  0
CLASS
  1
ACMEDRAWINGMAN
  2
AcMeDrawingMan
  3
AcMeServices
 90
        0
280
     0
281
     0
  0
CLASS
  1
ACMEVIEW
  2
AcMeView
  3
AcMeServices
 90
        0
280
     0
281
     0
  0
CLASS
  1
ACDBENTITYCACHE
  2
AcMeEntityCache
  3
AcMeServices
 90
        0
280
     0
281
     0
  0
CLASS
  1
GSMANAGER
  2
AcMeGSManager
  3
AcMeServices
 90
        0
280
     0
281
     0
  0
CLASS
  1
AMDTINTERNALREACTOR
  2
AmdtInternalReactor
  3
AcMeServices
 90
        0
280
     0
281
     0
  0
CLASS
  1
ACMESTATEMGR
  2
AcMeStateMgr
  3
AcMeServices
 90
        0
280
     0
281
     0
  0
CLASS
  1
ACGREFMASTER
  2
AcGrefMaster
  3
AcAttribServices
 90
        0
280
     0
281
     0
  0
CLASS
  1
AM_DRAWING_MGR
  2
AcDmDwgMgr
  3
AcMechDwgViewMgmt
 90
        0
280
     0
281
     0
  0
CLASS
  1
AM_DWG_DOCUMENT
  2
AcDmDwgDocument
  3
AcMechDwgViewMgmt
 90
        0
280
     0
281
     0
  0
CLASS
  1
AM_DWG_SHEET
  2
AcDmSheet
  3
AcMechDwgViewMgmt
 90
        0
280
     0
281
     0
  0
CLASS
  1
AM_VIEWDIMPARMAP
  2
AcDmViewDimParMap
  3
AcMechDwgViewMgmt
 90
        0
280
     0
281
     0
  0
CLASS
  1
ACIMREALSYSVAR
  2
AcImRealSysVar
  3
AcMeServices
 90
        0
280
     0
281
     0
  0
CLASS
  1
AM_DWGMGR_NAME
  2
AcDmDwgMgrName
  3
AcMechDwgViewMgmt
 90
        0
280
     0
281
     0
  0
CLASS
  1
ACME_DATABASE
  2
AcMeDbDatabase
  3
AcMeServices
 90
        0
280
     0
281
     0
  0
CLASS
  1
ACRFINSADJUSTERMGR
  2
AcRfInsAdjusterMgr
  3
AcMeServices
 90
        0
280
     0
281
     0
  0
CLASS
  1
ACGREFACADMASTER
  2
AcGrefacadMaster
  3
AcGrefServices
 90
        0
280
     0
281
     0
  0
CLASS
  1
AMDTMENUSTATEMGR
  2
AmdtMenuStateMgr
  3
McadcomServices
 90
        0
280
     0
281
     0
  0
CLASS
  1
AMDTMCOMMENUSTATE
  2
AmdtMcomMenuState
  3
McadcomServices
 90
        0
280
     0
281
     0
  0
CLASS
  1
AMIMASTER
  2
AmiMaster
  3
AmiServices
 90
        0
280
     0
281
     0
  0
CLASS
  1
MAPIAMMOUDLE
  2
MApiAmModule
  3
MApiAmServices
 90
        0
280
     0
281
     0
  0
CLASS
  1
ACIMSTRSYSVAR
  2
AcImStrSysVar
  3
AcMeServices
 90
        0
280
     0
281
     0
  0
CLASS
  1
AMDTADMENUSTATE
  2
AmdtAdMenuState
  3
DesignerServices
 90
        0
280
     0
281
     0
  0
CLASS
  1
ADAPPL
  2
AcAdAppl
  3
DesignerServices
 90
        0
280
     0
281
     0
  0
CLASS
  1
DEPMGR
  2
AcAdDepMgr
  3
DesignerServices
 90
        0
280
     0
281
     0
  0
CLASS
  1
PARAMMGR
  2
AcAdParamMgr
  3
DesignerServices
 90
        0
280
     0
281
     0
  0
CLASS
  1
PARAMSCOPE
  2
AcAdParamScope
  3
DesignerServices
 90
        0
280
     0
281
     0
  0
CLASS
  1
NAMEDAPPL
  2
AcAdNamedAppl
  3
DesignerServices
 90
        0
280
     0
281
     0
  0
CLASS
  1
AMDTDMMENUSTATE
  2
AmdtDmMenuState
  3
AcMechDwgViewMgmt
 90
        0
280
     0
281
     0
  0
CLASS
  1
AMDTAMMENUSTATE
  2
AmdtAmMenuState
  3
DesignerAssemblies
 90
        0
280
     0
281
     0
  0
CLASS
  1
ACAMPROJECT
  2
AcAmProject
  3
DesignerAssemblies
 90
        0
280
     0
281
     0
  0
CLASS
  1
ACAMGRCOMPDEF
  2
AcAmGrCompDef
  3
DesignerAssemblies
 90
        0
280
     0
281
     0
  0
CLASS
  1
ACCMCONTEXT
  2
AcCmContext
  3
DesignerAssemblies
 90
        0
280
     0
281
     0
  0
CLASS
  1
ACAMCOMPDEF
  2
AcAmCompDef
  3
DesignerAssemblies
 90
        0
280
     0
281
     0
  0
CLASS
  1
ACAMCOMPDEFMGR
  2
AcAmCompDefMgr
  3
DesignerAssemblies
 90
        0
280
     0
281
     0
  0
CLASS
  1
AMCONTEXTMGR
  2
AcAmContextMgr
  3
DesignerAssemblies
 90
        0
280
     0
281
     0
  0
CLASS
  1
ACAMCONTEXTMODELER
  2
AcAmContextModeler
  3
DesignerAssemblies
 90
        0
280
     0
281
     0
  0
CLASS
  1
ACMDATADICTIONARY
  2
AcmDataDictionary
  3
"AcmSymBB|Product Description: AutoCAD Mechanical|Company: Autodesk"
 90
        0
280
     0
281
     0
  0
CLASS
  1
CATALOGSTATE
  2
AcAmCatalogState
  3
DesignerAssemblies
 90
        0
280
     0
281
     0
  0
CLASS
  1
ACAMGRCOMPDEFSET
  2
AcAmGrCompDefSet
  3
DesignerAssemblies
 90
        0
280
     0
281
     0
  0
CLASS
  1
AMDTBROWSERDBTAB
  2
AmdtBrowserDbTab
  3
McadcomServices
 90
        0
280
     0
281
     0
  0
CLASS
  1
CBROWSERAPPOBJECT
  2
CBrowserAppObject
  3
McadcomServices
 90
        0
280
     0
281
     0
  0
CLASS
  1
DM_PLACEHOLDER
  2
AcDmSelsetPlaceholder
  3
AcMechDwgViewMgmt
 90
        0
280
     0
281
     0
  0
CLASS
  1
ACMSTANDARDANSI
  2
AcmStandardANSI
  3
"Amdt_StdImp|Product Description: AutoCAD Mechanical|Company: Autodesk"
 90
        0
280
     0
281
     0
  0
CLASS
  1
AMGOBJPROPCFG
  2
AmgObjPropCfg
  3
"AmgLay|Product Description: AutoCAD Mechanical|Company: Autodesk"
 90
        1
280
     0
281
     0
  0
CLASS
  1
ACMSURFSTANDARDANSI
  2
AcmSurfTextStdANSI
  3
"Amdt_StdImp|Product Description: AutoCAD Mechanical|Company: Autodesk"
 90
        0
280
     0
281
     0
  0
CLASS
  1
ACMFCFSTANDARDANSI
  2
AcmFCFStdANSI
  3
"Amdt_StdImp|Product Description: AutoCAD Mechanical|Company: Autodesk"
 90
        0
280
     0
281
     0
  0
CLASS
  1
ACMWELDSTANDARDANSI
  2
AcmWeldingStdANSI
  3
"Amdt_StdImp|Product Description: AutoCAD Mechanical|Company: Autodesk"
 90
        0
280
     0
281
     0
  0
CLASS
  1
ACMIDSTANDARDANSI
  2
AcmIdStdANSI
  3
"Amdt_StdImp|Product Description: AutoCAD Mechanical|Company: Autodesk"
 90
        0
280
     0
281
     0
  0
CLASS
  1
ACMDATUMSTANDARDANSI
  2
AcmDatumStdANSI
  3
"Amdt_StdImp|Product Description: AutoCAD Mechanical|Company: Autodesk"
 90
        0
280
     0
281
     0
  0
CLASS
  1
ACMBOMSTANDARDANSI
  2
AcmBOMStdANSI
  3
"Amdt_StdImp|Product Description: AutoCAD Mechanical|Company: Autodesk"
 90
        0
280
     0
281
     0
  0
CLASS
  1
ACMDETAILSTANDARDANSI
  2
AmdtDetailSymStdANSI
  3
"Amdt_StdImp|Product Description: AutoCAD Mechanical|Company: Autodesk"
 90
        0
280
     0
281
     0
  0
CLASS
  1
ACMSECTIONSTANDARDANSI
  2
AmdtSectionSymStdANSI
  3
"Amdt_StdImp|Product Description: AutoCAD Mechanical|Company: Autodesk"
 90
        0
280
     0
281
     0
  0
CLASS
  1
ACMCENTERLINESTANDARDANSI
  2
AmdtCenterLineStdANSI
  3
"Amdt_StdImp|Product Description: AutoCAD Mechanical|Company: Autodesk"
 90
        0
280
     0
281
     0
  0
CLASS
  1
ACMTHREADLINESTANDARDANSI
  2
AmdtThreadLineStdANSI
  3
"Amdt_StdImp|Product Description: AutoCAD Mechanical|Company: Autodesk"
 90
        0
280
     0
281
     0
  0
CLASS
  1
ACMNOTESTANDARDANSI
  2
AmdtNoteStdANSI
  3
"Amdt_StdImp|Product Description: AutoCAD Mechanical|Company: Autodesk"
 90
        0
280
     0
281
     0
  0
CLASS
  1
ACMTAPERSTANDARDANSI
  2
AcmTaperStdANSI
  3
"Amdt_StdImp|Product Description: AutoCAD Mechanical|Company: Autodesk"
 90
        0
280
     0
281
     0
  0
CLASS
  1
AMDTNOTETEMPLATEDB
  2
AmdtNoteTemplateDB
  3
AMDT_STDIMP_MODULE_NAME
 90
        0
280
     0
281
     0
  0
CLASS
  1
ACAMGLAYSTD
  2
AcAmgLayStd
  3
"AmgLay|Product Description: AutoCAD Mechanical|Company: Autodesk"
 90
        0
280
     0
281
     0
  0
CLASS
  1
ACAMGDIMSTD
  2
AcAmgDimStd
  3
"AmgDim|Product Description: AutoCAD Mechanical|Company: Autodesk"
 90
        0
280
     0
281
     0
  0
CLASS
  1
ACAMGHOLECHARTSTDANSI
  2
AcAmgHoleChartStdANSI
  3
ACMSYMBB_MODULE_NAME
 90
        0
280
     0
281
     0
  0
CLASS
  1
ACAMGTITLESTD
  2
AcAmgTitleStd
  3
"AmgTitle|Product Description: AutoCAD Mechanical|Company: Autodesk"
 90
        0
280
     0
281
     0
  0
CLASS
  1
ACAMGFILTERDAT
  2
AcAmgFilterDat
  3
"AcadM|Product Description: AutoCAD Mechanical|Company: Autodesk"
 90
        0
280
     0
281
     0
  0
CLASS
  1
DICTIONARYVAR
  2
AcDbDictionaryVar
  3
ObjectDBX Classes
 90
        0
280
     0
281
     0
  0
CLASS
  1
ACDBPLACEHOLDER
  2
AcDbPlaceHolder
  3
ObjectDBX Classes
 90
        0
280
     0
281
     0
  0
CLASS
  1
LAYOUT
  2
AcDbLayout
  3
ObjectDBX Classes
 90
        0
280
     0
281
     0
  0
ENDSEC
  0
SECTION
  2
TABLES
  0
TABLE
  2
VPORT
  5
8
330
0
100
AcDbSymbolTable
 70
     1
  0
VPORT
  5
45
330
8
100
AcDbSymbolTableRecord
100
AcDbViewportTableRecord
  2
*Active
 70
     0
 10
0.0
 20
0.0
 11
1.0
 21
1.0
 12
35.40379386828681
 22
-39.66310083742212
 13
0.0
 23
0.0
 14
1.0
 24
1.0
 15
0.0
 25
0.0
 16
0.0
 26
0.0
 36
1.0
 17
0.0
 27
0.0
 37
0.0
 40
351.1027149071012
 41
1.206493506493506
 42
50.0
 43
0.0
 44
0.0
 50
0.0
 51
0.0
 71
     0
 72
   100
 73
     1
 74
     1
 75
     0
 76
     0
 77
     0
 78
     0
281
     0
 65
     0
110
0.0
120
0.0
130
0.0
111
1.0
121
0.0
131
0.0
112
0.0
122
1.0
132
0.0
 79
     0
146
0.0
  0
ENDTAB
  0
TABLE
  2
LTYPE
  5
5
330
0
100
AcDbSymbolTable
 70
    19
  0
LTYPE
  5
28
330
5
100
AcDbSymbolTableRecord
100
AcDbLinetypeTableRecord
  2
ByBlock
 70
     0
  3

 72
    65
 73
     0
 40
0.0
  0
LTYPE
  5
29
330
5
100
AcDbSymbolTableRecord
100
AcDbLinetypeTableRecord
  2
ByLayer
 70
     0
  3

 72
    65
 73
     0
 40
0.0
  0
LTYPE
  5
2A
330
5
100
AcDbSymbolTableRecord
100
AcDbLinetypeTableRecord
  2
CONTINUOUS
 70
     0
  3
Solid line
 72
    65
 73
     0
 40
0.0
  0
LTYPE
  5
3A
330
5
100
AcDbSymbolTableRecord
100
AcDbLinetypeTableRecord
  2
DASHED
 70
     0
  3
__ __ __ __ __ __ __ __ __ __ __ __ __ __ __
 72
    65
 73
     2
 40
3.5
 49
2.0
 74
     0
 49
-1.5
 74
     0
  0
LTYPE
  5
3B
330
5
100
AcDbSymbolTableRecord
100
AcDbLinetypeTableRecord
  2
CENTER
 70
     0
  3
____ _ ____ _ ____ _ ____ _ ____ _ ____ _ ____
 72
    65
 73
     4
 40
17.5
 49
13.0
 74
     0
 49
-1.5
 74
     0
 49
1.5
 74
     0
 49
-1.5
 74
     0
  0
LTYPE
  5
3C
330
5
100
AcDbSymbolTableRecord
100
AcDbLinetypeTableRecord
  2
PHANTOM
 70
     0
  3
_____ _ _ _____ _ _ _____ _ _ _____ _ _ ____  
 72
    65
 73
     6
 40
15.5
 49
8.0
 74
     0
 49
-1.5
 74
     0
 49
1.5
 74
     0
 49
-1.5
 74
     0
 49
1.5
 74
     0
 49
-1.5
 74
     0
  0
LTYPE
  5
3D
330
5
100
AcDbSymbolTableRecord
100
AcDbLinetypeTableRecord
  2
DOT
 70
     0
  3
. . . . . . . . . . . . . . . . . . . . . . . .
 72
    65
 73
     2
 40
0.25
 49
0.0
 74
     0
 49
-0.25
 74
     0
  0
LTYPE
  5
3E
330
5
100
AcDbSymbolTableRecord
100
AcDbLinetypeTableRecord
  2
HIDDEN
 70
     0
  3
__ __ __ __ __ __ __ __ __ __ __ __ __ __ __
 72
    65
 73
     2
 40
3.5
 49
2.0
 74
     0
 49
-1.5
 74
     0
  0
LTYPE
  5
234
330
5
100
AcDbSymbolTableRecord
100
AcDbLinetypeTableRecord
  2
PHANTOM2
 70
     0
  3
Phantom (.5x) ___ _ _ ___ _ _ ___ _ _ ___ _ _
 72
    65
 73
     6
 40
1.25
 49
0.625
 74
     0
 49
-0.125
 74
     0
 49
0.125
 74
     0
 49
-0.125
 74
     0
 49
0.125
 74
     0
 49
-0.125
 74
     0
  0
LTYPE
  5
269
330
5
100
AcDbSymbolTableRecord
100
AcDbLinetypeTableRecord
  2
AM_ISO02W050
 70
     0
  3
__ __ __ __ __ __ __ __ __ __ __ __ __ __ __
 72
    65
 73
     2
 40
7.5
 49
6.0
 74
     0
 49
-1.5
 74
     0
  0
LTYPE
  5
26A
330
5
100
AcDbSymbolTableRecord
100
AcDbLinetypeTableRecord
  2
AM_ISO08W050
 70
     0
  3
____ . ____ . ____ . ____ . ____ . ____ . ____
 72
    65
 73
     4
 40
18.0
 49
12.0
 74
     0
 49
-1.5
 74
     0
 49
3.0
 74
     0
 49
-1.5
 74
     0
  0
LTYPE
  5
26B
330
5
100
AcDbSymbolTableRecord
100
AcDbLinetypeTableRecord
  2
AM_ISO09W050
 70
     0
  3
_____ . . _____ . . _____ . . ____ .. ____
 72
    65
 73
     6
 40
22.5
 49
12.0
 74
     0
 49
-1.5
 74
     0
 49
3.0
 74
     0
 49
-1.5
 74
     0
 49
3.0
 74
     0
 49
-1.5
 74
     0
  0
LTYPE
  5
26C
330
5
100
AcDbSymbolTableRecord
100
AcDbLinetypeTableRecord
  2
Amconstr
 70
     0
  3
_______________________
 72
    65
 73
     2
 40
9999.0
 49
9999.0
 74
     0
 49
0.0
 74
     0
  0
LTYPE
  5
26D
330
5
100
AcDbSymbolTableRecord
100
AcDbLinetypeTableRecord
  2
AM_ISO08W050x2
 70
     0
  3
__ . __ . __ . __ . __ . __
 72
    65
 73
     4
 40
9.0
 49
6.0
 74
     0
 49
-0.75
 74
     0
 49
1.5
 74
     0
 49
-0.75
 74
     0
  0
LTYPE
  5
26E
330
5
100
AcDbSymbolTableRecord
100
AcDbLinetypeTableRecord
  2
AM_ISO02W050x2
 70
     0
  3
 _ _ _ _ _ _ _ _ _ _ _ _
 72
    65
 73
     2
 40
3.75
 49
3.0
 74
     0
 49
-0.75
 74
     0
  0
LTYPE
  5
271
330
5
100
AcDbSymbolTableRecord
100
AcDbLinetypeTableRecord
  2
Amzigzag
 70
     0
  3
/\/-/\/-/\/-/\/-/\/-/\/
 72
    65
 73
     2
 40
11.0001
 49
0.0001
 74
     4
 75
   136
340
270
 46
0.04
 50
0.0
 44
0.0
 45
0.0
 49
-11.0
 74
     0
  0
LTYPE
  5
272
330
5
100
AcDbSymbolTableRecord
100
AcDbLinetypeTableRecord
  2
CENTER2
 70
     0
  3
Center (.5x) ___ _ ___ _ ___ _ ___ _ ___ _ ___
 72
    65
 73
     4
 40
1.125
 49
0.75
 74
     0
 49
-0.125
 74
     0
 49
0.125
 74
     0
 49
-0.125
 74
     0
  0
LTYPE
  5
273
330
5
100
AcDbSymbolTableRecord
100
AcDbLinetypeTableRecord
  2
HIDDEN2
 70
     0
  3
Hidden (.5x) _ _ _ _ _ _ _ _ _ _ _ _ _ _ _ _ _
 72
    65
 73
     2
 40
0.1875
 49
0.125
 74
     0
 49
-0.0625
 74
     0
  0
LTYPE
  5
274
330
5
100
AcDbSymbolTableRecord
100
AcDbLinetypeTableRecord
  2
Amzigzag2
 70
     0
  3
/\/-/\/-/\/-/\/-/\/-/\/
 72
    65
 73
     2
 40
0.4401
 49
0.0001
 74
     4
 75
   136
340
270
 46
0.0016
 50
0.0
 44
0.0
 45
0.0
 49
-0.4400000000000001
 74
     0
  0
LTYPE
  5
283
330
5
100
AcDbSymbolTableRecord
100
AcDbLinetypeTableRecord
  2
ACANSTGB
 70
     0
  3
__ . . __ . .
 72
    65
 73
     6
 40
0.35433070866
 49
0.15748031496
 74
     0
 49
-0.03937007874
 74
     0
 49
0.03937007874
 74
     0
 49
-0.03937007874
 74
     0
 49
0.03937007874
 74
     0
 49
-0.03937007874
 74
     0
  0
LTYPE
  5
284
330
5
100
AcDbSymbolTableRecord
100
AcDbLinetypeTableRecord
  2
ACANSTGL
 70
     0
  3
_ _ _ _ _
 72
    65
 73
     2
 40
0.11811023622
 49
0.07874015748
 74
     0
 49
-0.03937007874
 74
     0
  0
ENDTAB
  0
TABLE
  2
LAYER
  5
2
330
0
100
AcDbSymbolTable
 70
     4
  0
LAYER
  5
25
330
2
100
AcDbSymbolTableRecord
100
AcDbLayerTableRecord
  2
0
 70
     0
 62
     7
  6
CONTINUOUS
370
    -3
390
F
  0
LAYER
  5
3F
330
2
100
AcDbSymbolTableRecord
100
AcDbLayerTableRecord
  2
1
 70
     0
 62
     7
  6
CONTINUOUS
370
    -3
390
F
  0
LAYER
  5
40
330
2
100
AcDbSymbolTableRecord
100
AcDbLayerTableRecord
  2
2
 70
     0
 62
     7
  6
CONTINUOUS
370
    -3
390
F
  0
LAYER
  5
41
330
2
100
AcDbSymbolTableRecord
100
AcDbLayerTableRecord
  2
DEFPOINTS
 70
     0
 62
     7
  6
CONTINUOUS
290
     0
370
    -3
390
F
  0
ENDTAB
  0
TABLE
  2
STYLE
  5
3
330
0
100
AcDbSymbolTable
 70
     5
  0
STYLE
  5
26
330
3
100
AcDbSymbolTableRecord
100
AcDbTextStyleTableRecord
  2
STANDARD
 70
     0
 40
0.0
 41
1.0
 50
0.0
 71
     0
 42
0.2
  3
txt
  4
BIGFONT
  0
STYLE
  5
270
330
3
100
AcDbSymbolTableRecord
100
AcDbTextStyleTableRecord
  2

 70
     1
 40
0.0
 41
1.0
 50
0.0
 71
     0
 42
3.2
  3
genltshp.shx
  4

  0
STYLE
  5
275
330
3
100
AcDbSymbolTableRecord
100
AcDbTextStyleTableRecord
  2
ACANSTS
 70
     0
 40
1.0
 41
1.0
 50
0.0
 71
     0
 42
3.2
  3
romans.shx
  4
extfont.shx
  0
STYLE
  5
282
330
3
100
AcDbSymbolTableRecord
100
AcDbTextStyleTableRecord
  2
ACANSGDT
 70
     0
 40
0.0
 41
1.0
 50
0.0
 71
     0
 42
3.2
  3
amgdt.shx
  4

  0
ENDTAB
  0
TABLE
  2
VIEW
  5
6
330
0
100
AcDbSymbolTable
 70
     0
  0
ENDTAB
  0
TABLE
  2
UCS
  5
7
330
0
100
AcDbSymbolTable
 70
     0
  0
ENDTAB
  0
TABLE
  2
APPID
  5
9
330
0
100
AcDbSymbolTable
 70
    10
  0
APPID
  5
27
330
9
100
AcDbSymbolTableRecord
100
AcDbRegAppTableRecord
  2
ACAD
 70
     0
  0
APPID
  5
207
330
9
100
AcDbSymbolTableRecord
100
AcDbRegAppTableRecord
  2
MCAD_NO_VIS
 70
     0
  0
APPID
  5
208
330
9
100
AcDbSymbolTableRecord
100
AcDbRegAppTableRecord
  2
ACAD_TEMP_GRAPHIC
 70
     0
  0
APPID
  5
236
330
9
100
AcDbSymbolTableRecord
100
AcDbRegAppTableRecord
  2
AD_DRAW
 70
     0
  0
APPID
  5
239
330
9
100
AcDbSymbolTableRecord
100
AcDbRegAppTableRecord
  2
ACATTRIBSERVICES
 70
     0
  0
APPID
  5
25A
330
9
100
AcDbSymbolTableRecord
100
AcDbRegAppTableRecord
  2
DESIGNERASSEMBLIES
 70
     0
  0
APPID
  5
260
330
9
100
AcDbSymbolTableRecord
100
AcDbRegAppTableRecord
  2
ACADM_DIM_EDIT
 70
     0
  0
APPID
  5
261
330
9
100
AcDbSymbolTableRecord
100
AcDbRegAppTableRecord
  2
AMDT_DM_ADJ
 70
     0
  0
APPID
  5
2D0
330
9
100
AcDbSymbolTableRecord
100
AcDbRegAppTableRecord
  2
ACAD_PSEXT
 70
     0
  0
APPID
  5
2EB
330
9
100
AcDbSymbolTableRecord
100
AcDbRegAppTableRecord
  2
ACAD_DSTYLE_DIMARC_LENGTH_SYMBOL
 70
     0
  0
ENDTAB
  0
TABLE
  2
DIMSTYLE
  5
A
330
0
100
AcDbSymbolTable
 70
     8
100
AcDbDimStyleTable
 71
     1
340
42
  0
DIMSTYLE
105
42
102
{ACAD_REACTORS
330
1E5
330
1E6
330
1E7
330
1E8
330
1E9
330
1EA
330
1EB
330
1EC
330
1ED
330
1EE
330
1EF
330
1F0
330
1F1
330
1F2
330
1F3
330
1F4
330
1F5
330
1F6
330
1F7
330
1F8
330
1F9
102
}
330
A
100
AcDbSymbolTableRecord
100
AcDbDimStyleTableRecord
  2
DIMSTYLE
 70
     0
 41
1.0
 42
2.54
 44
2.54
 73
     0
 74
     0
140
3.2
147
1.6
173
     1
279
     2
340
26
  0
DIMSTYLE
105
290
330
A
100
AcDbSymbolTableRecord
100
AcDbDimStyleTableRecord
  2
AM_ANSI
 70
     0
  4
mm
 41
0.1
 42
0.05
 43
0.5
 44
0.1
 47
0.1
 48
0.1
 78
     7
 79
     2
140
0.12
141
0.0
146
0.71
147
0.06
176
   256
177
   256
178
     2
274
     4
284
     7
340
26
371
    -1
372
    -1
1001
ACAD_DSTYLE_DIMARC_LENGTH_SYMBOL
1070
   379
1070
     1
  0
DIMSTYLE
105
291
330
A
100
AcDbSymbolTableRecord
100
AcDbDimStyleTableRecord
  2
AM_ANSI$3
 70
     0
  4
mm
 41
0.1
 42
0.05
 43
0.5
 44
0.1
 47
0.1
 48
0.1
 78
     7
 79
     2
140
0.12
141
0.0
146
0.71
147
0.06
176
   256
177
   256
178
     2
274
     4
284
     7
288
     1
289
     0
340
26
371
    -1
372
    -1
1001
ACAD_DSTYLE_DIMARC_LENGTH_SYMBOL
1070
   379
1070
     1
  0
DIMSTYLE
105
292
330
A
100
AcDbSymbolTableRecord
100
AcDbDimStyleTableRecord
  2
AM_ANSI$4
 70
     0
  4
mm
 41
0.1
 42
0.05
 43
0.5
 44
0.1
 47
0.1
 48
0.1
 78
     7
 79
     2
140
0.12
141
0.0
146
0.71
147
0.06
176
   256
177
   256
178
     2
274
     4
284
     7
288
     1
289
     0
340
26
371
    -1
372
    -1
1001
ACAD_DSTYLE_DIMARC_LENGTH_SYMBOL
1070
   379
1070
     1
  0
DIMSTYLE
105
293
330
A
100
AcDbSymbolTableRecord
100
AcDbDimStyleTableRecord
  2
AM_ANSI$7
 70
     0
  4
mm
 41
0.1
 42
0.05
 43
0.5
 44
0.1
 47
0.1
 48
0.1
 78
     7
 79
     2
140
0.24
141
0.0
146
0.71
147
0.06
176
   256
177
   256
178
     2
274
     4
284
     7
340
26
371
    -1
372
    -1
1001
ACAD_DSTYLE_DIMARC_LENGTH_SYMBOL
1070
   379
1070
     1
  0
DIMSTYLE
105
294
330
A
100
AcDbSymbolTableRecord
100
AcDbDimStyleTableRecord
  2
AM_ANSI$SF
 70
     0
  4
mm
 41
0.1
 42
0.05
 43
0.5
 44
0.1
 47
0.1
 48
0.1
 75
     1
 76
     1
 78
     7
 79
     2
140
0.12
141
0.0
146
0.71
147
0.06
176
   256
177
   256
178
     2
274
     4
284
     7
340
26
371
    -1
372
    -1
1001
ACAD_DSTYLE_DIMARC_LENGTH_SYMBOL
1070
   379
1070
     1
  0
DIMSTYLE
105
299
330
A
100
AcDbSymbolTableRecord
100
AcDbDimStyleTableRecord
  2
AM_ANSI$SH
 70
     0
  4
mm
 41
0.1
 42
0.05
 43
0.5
 44
0.1
 47
0.1
 48
0.1
 75
     1
 76
     1
 78
     7
 79
     2
140
0.12
141
0.0
146
0.71
147
0.06
173
     1
176
   256
177
   256
178
     2
274
     4
284
     7
340
26
343
295
371
    -1
372
    -1
1001
ACAD_DSTYLE_DIMARC_LENGTH_SYMBOL
1070
   379
1070
     1
  0
ENDTAB
  0
TABLE
  2
BLOCK_RECORD
  5
1
330
0
100
AcDbSymbolTable
 70
    26
  0
BLOCK_RECORD
  5
36
330
1
100
AcDbSymbolTableRecord
100
AcDbBlockTableRecord
  2
*Model_Space
340
39
  0
BLOCK_RECORD
  5
32
330
1
100
AcDbSymbolTableRecord
100
AcDbBlockTableRecord
  2
*Paper_Space
340
35
  0
BLOCK_RECORD
  5
46
330
1
100
AcDbSymbolTableRecord
100
AcDbBlockTableRecord
  2
_DOT
340
0
102
{BLKREFS
331
51
331
52
331
5D
331
5E
331
69
331
6A
331
75
331
76
331
81
331
82
331
8D
331
8E
331
99
331
9A
331
A5
331
A6
331
B0
331
B1
331
BC
331
BD
331
C8
331
C9
331
D5
331
D6
331
E1
331
E2
331
ED
331
EE
331
FA
331
FB
331
106
331
107
331
111
331
112
331
11D
331
11E
331
128
331
129
331
134
331
135
331
140
331
141
331
14C
331
14D
102
}
  0
BLOCK_RECORD
  5
4E
330
1
100
AcDbSymbolTableRecord
100
AcDbBlockTableRecord
  2
*D1
340
0
  0
BLOCK_RECORD
  5
5A
330
1
100
AcDbSymbolTableRecord
100
AcDbBlockTableRecord
  2
*D2
340
0
  0
BLOCK_RECORD
  5
66
330
1
100
AcDbSymbolTableRecord
100
AcDbBlockTableRecord
  2
*D3
340
0
  0
BLOCK_RECORD
  5
72
330
1
100
AcDbSymbolTableRecord
100
AcDbBlockTableRecord
  2
*D4
340
0
  0
BLOCK_RECORD
  5
7E
330
1
100
AcDbSymbolTableRecord
100
AcDbBlockTableRecord
  2
*D5
340
0
  0
BLOCK_RECORD
  5
8A
330
1
100
AcDbSymbolTableRecord
100
AcDbBlockTableRecord
  2
*D6
340
0
  0
BLOCK_RECORD
  5
96
330
1
100
AcDbSymbolTableRecord
100
AcDbBlockTableRecord
  2
*D7
340
0
  0
BLOCK_RECORD
  5
A2
330
1
100
AcDbSymbolTableRecord
100
AcDbBlockTableRecord
  2
*D8
340
0
  0
BLOCK_RECORD
  5
AD
330
1
100
AcDbSymbolTableRecord
100
AcDbBlockTableRecord
  2
*D9
340
0
  0
BLOCK_RECORD
  5
B9
330
1
100
AcDbSymbolTableRecord
100
AcDbBlockTableRecord
  2
*D10
340
0
  0
BLOCK_RECORD
  5
C5
330
1
100
AcDbSymbolTableRecord
100
AcDbBlockTableRecord
  2
*D11
340
0
  0
BLOCK_RECORD
  5
D1
330
1
100
AcDbSymbolTableRecord
100
AcDbBlockTableRecord
  2
*D12
340
0
  0
BLOCK_RECORD
  5
DE
330
1
100
AcDbSymbolTableRecord
100
AcDbBlockTableRecord
  2
*D13
340
0
  0
BLOCK_RECORD
  5
EA
330
1
100
AcDbSymbolTableRecord
100
AcDbBlockTableRecord
  2
*D14
340
0
  0
BLOCK_RECORD
  5
F6
330
1
100
AcDbSymbolTableRecord
100
AcDbBlockTableRecord
  2
*D15
340
0
  0
BLOCK_RECORD
  5
103
330
1
100
AcDbSymbolTableRecord
100
AcDbBlockTableRecord
  2
*D16
340
0
  0
BLOCK_RECORD
  5
10E
330
1
100
AcDbSymbolTableRecord
100
AcDbBlockTableRecord
  2
*D17
340
0
  0
BLOCK_RECORD
  5
11A
330
1
100
AcDbSymbolTableRecord
100
AcDbBlockTableRecord
  2
*D18
340
0
  0
BLOCK_RECORD
  5
125
330
1
100
AcDbSymbolTableRecord
100
AcDbBlockTableRecord
  2
*D19
340
0
  0
BLOCK_RECORD
  5
131
330
1
100
AcDbSymbolTableRecord
100
AcDbBlockTableRecord
  2
*D20
340
0
  0
BLOCK_RECORD
  5
13D
330
1
100
AcDbSymbolTableRecord
100
AcDbBlockTableRecord
  2
*D21
340
0
  0
BLOCK_RECORD
  5
149
330
1
100
AcDbSymbolTableRecord
100
AcDbBlockTableRecord
  2
*D22
340
0
102
{BLKREFS
331
200
102
}
  0
BLOCK_RECORD
  5
295
330
1
100
AcDbSymbolTableRecord
100
AcDbBlockTableRecord
  2
GENAXEH
340
0
  0
ENDTAB
  0
ENDSEC
  0
SECTION
  2
BLOCKS
  0
BLOCK
  5
37
330
36
100
AcDbEntity
  8
0
100
AcDbBlockBegin
  2
*Model_Space
 70
     0
 10
0.0
 20
0.0
 30
0.0
  3
*Model_Space
  1

  0
ENDBLK
  5
38
330
36
100
AcDbEntity
  8
0
100
AcDbBlockEnd
  0
BLOCK
  5
33
330
32
100
AcDbEntity
 67
     1
  8
0
100
AcDbBlockBegin
  2
*Paper_Space
 70
     0
 10
0.0
 20
0.0
 30
0.0
  3
*Paper_Space
  1

  0
ENDBLK
  5
34
330
32
100
AcDbEntity
 67
     1
  8
0
100
AcDbBlockEnd
  0
BLOCK
  5
47
330
46
100
AcDbEntity
  8
0
100
AcDbBlockBegin
  2
_DOT
 70
     0
 10
0.0
 20
0.0
 30
0.0
  3
_DOT
  1

  0
POLYLINE
  5
48
330
46
100
AcDbEntity
  8
0
  6
ByBlock
 62
     0
100
AcDb2dPolyline
 66
     1
 10
0.0
 20
0.0
 30
0.0
 70
     1
 40
0.4000000100000001
 41
0.4000000100000001
  0
VERTEX
  5
49
330
48
100
AcDbEntity
  8
0
  6
ByBlock
 62
     0
100
AcDbVertex
100
AcDb2dVertex
 10
-0.2
 20
0.0
 30
0.0
 42
1.0
  0
VERTEX
  5
4A
330
48
100
AcDbEntity
  8
0
  6
ByBlock
 62
     0
100
AcDbVertex
100
AcDb2dVertex
 10
0.2
 20
0.0
 30
0.0
 42
1.0
  0
SEQEND
  5
4B
330
48
100
AcDbEntity
  8
0
  6
ByBlock
 62
     0
  0
LINE
  5
4C
330
46
100
AcDbEntity
  8
0
  6
ByBlock
 62
     0
100
AcDbLine
 10
-0.4000000100000001
 20
0.0
 30
0.0
 11
-3.0
 21
0.0
 31
0.0
  0
ENDBLK
  5
4D
330
46
100
AcDbEntity
  8
0
100
AcDbBlockEnd
  0
BLOCK
  5
4F
330
4E
100
AcDbEntity
  8
0
100
AcDbBlockBegin
  2
*D1
 70
     1
 10
0.0
 20
0.0
 30
0.0
  3
*D1
  1

  0
LINE
  5
50
330
4E
100
AcDbEntity
  8
0
  6
Continuous
 62
     7
100
AcDbLine
 10
-80.625
 20
-14.225
 30
0.0
 11
-80.625
 21
-4.2249999
 31
0.0
  0
INSERT
  5
51
330
4E
100
AcDbEntity
  8
0
  6
Continuous
 62
     7
100
AcDbBlockReference
  2
_DOT
 10
-80.625
 20
-14.225
 30
0.0
 50
270.0
  0
INSERT
  5
52
330
4E
100
AcDbEntity
  8
0
  6
Continuous
 62
     7
100
AcDbBlockReference
  2
_DOT
 10
-80.625
 20
-4.2249999
 30
0.0
 50
90.0
  0
LINE
  5
53
330
4E
100
AcDbEntity
  8
0
  6
Continuous
 62
     7
100
AcDbLine
 10
-73.16500000000001
 20
-14.225
 30
0.0
 11
-81.82499699999999
 21
-14.225
 31
0.0
  0
LINE
  5
54
330
4E
100
AcDbEntity
  8
0
  6
Continuous
 62
     7
100
AcDbLine
 10
-58.165
 20
-4.2249999
 30
0.0
 11
-81.82499699999999
 21
-4.2249999
 31
0.0
  0
TEXT
  5
55
330
4E
100
AcDbEntity
  8
0
  6
Continuous
 62
     7
100
AcDbText
 10
-81.425
 20
-11.968
 30
0.0
 40
3.2
  1
10
 50
90.00000300000001
 41
1.402670399999999
100
AcDbText
  0
POINT
  5
56
330
4E
100
AcDbEntity
  8
DEFPOINTS
  6
Continuous
 62
     7
100
AcDbPoint
 10
-70.625
 20
-14.225
 30
0.0
  0
POINT
  5
57
330
4E
100
AcDbEntity
  8
DEFPOINTS
  6
Continuous
 62
     7
100
AcDbPoint
 10
-55.625
 20
-4.2249999
 30
0.0
  0
POINT
  5
58
330
4E
100
AcDbEntity
  8
DEFPOINTS
  6
Continuous
 62
     7
100
AcDbPoint
 10
-80.625
 20
-4.2249999
 30
0.0
  0
ENDBLK
  5
59
330
4E
100
AcDbEntity
  8
0
100
AcDbBlockEnd
  0
BLOCK
  5
5B
330
5A
100
AcDbEntity
  8
0
100
AcDbBlockBegin
  2
*D2
 70
     1
 10
0.0
 20
0.0
 30
0.0
  3
*D2
  1

  0
LINE
  5
5C
330
5A
100
AcDbEntity
  8
0
  6
Continuous
 62
     7
100
AcDbLine
 10
-90.625
 20
0.7749999800000001
 30
0.0
 11
-90.625
 21
-14.225
 31
0.0
  0
INSERT
  5
5D
330
5A
100
AcDbEntity
  8
0
  6
Continuous
 62
     7
100
AcDbBlockReference
  2
_DOT
 10
-90.625
 20
0.7749999800000001
 30
0.0
 50
90.0
  0
INSERT
  5
5E
330
5A
100
AcDbEntity
  8
0
  6
Continuous
 62
     7
100
AcDbBlockReference
  2
_DOT
 10
-90.625
 20
-14.225
 30
0.0
 50
270.0
  0
LINE
  5
5F
330
5A
100
AcDbEntity
  8
0
  6
Continuous
 62
     7
100
AcDbLine
 10
-65.66500000000001
 20
0.7749999800000001
 30
0.0
 11
-91.82499699999999
 21
0.7749999800000001
 31
0.0
  0
LINE
  5
60
330
5A
100
AcDbEntity
  8
0
  6
Continuous
 62
     7
100
AcDbLine
 10
-73.16500000000001
 20
-14.225
 30
0.0
 11
-91.82499699999999
 21
-14.225
 31
0.0
  0
TEXT
  5
61
330
5A
100
AcDbEntity
  8
0
  6
Continuous
 62
     7
100
AcDbText
 10
-91.425
 20
-9.4679999
 30
0.0
 40
3.2
  1
15
 50
90.00000300000001
 41
1.285781199999999
100
AcDbText
  0
POINT
  5
62
330
5A
100
AcDbEntity
  8
DEFPOINTS
  6
Continuous
 62
     7
100
AcDbPoint
 10
-63.125
 20
0.7749999800000001
 30
0.0
  0
POINT
  5
63
330
5A
100
AcDbEntity
  8
DEFPOINTS
  6
Continuous
 62
     7
100
AcDbPoint
 10
-70.625
 20
-14.225
 30
0.0
  0
POINT
  5
64
330
5A
100
AcDbEntity
  8
DEFPOINTS
  6
Continuous
 62
     7
100
AcDbPoint
 10
-90.625
 20
-14.225
 30
0.0
  0
ENDBLK
  5
65
330
5A
100
AcDbEntity
  8
0
100
AcDbBlockEnd
  0
BLOCK
  5
67
330
66
100
AcDbEntity
  8
0
100
AcDbBlockBegin
  2
*D3
 70
     1
 10
0.0
 20
0.0
 30
0.0
  3
*D3
  1

  0
LINE
  5
68
330
66
100
AcDbEntity
  8
0
  6
Continuous
 62
     7
100
AcDbLine
 10
-90.625
 20
25.775002
 30
0.0
 11
-90.625
 21
0.7749999800000001
 31
0.0
  0
INSERT
  5
69
330
66
100
AcDbEntity
  8
0
  6
Continuous
 62
     7
100
AcDbBlockReference
  2
_DOT
 10
-90.625
 20
25.775002
 30
0.0
 50
90.0
  0
INSERT
  5
6A
330
66
100
AcDbEntity
  8
0
  6
Continuous
 62
     7
100
AcDbBlockReference
  2
_DOT
 10
-90.625
 20
0.7749999800000001
 30
0.0
 50
270.0
  0
LINE
  5
6B
330
66
100
AcDbEntity
  8
0
  6
Continuous
 62
     7
100
AcDbLine
 10
-65.66500000000001
 20
25.775002
 30
0.0
 11
-91.82499699999999
 21
25.775002
 31
0.0
  0
LINE
  5
6C
330
66
100
AcDbEntity
  8
0
  6
Continuous
 62
     7
100
AcDbLine
 10
-65.66500000000001
 20
0.7749999800000001
 30
0.0
 11
-91.82499699999999
 21
0.7749999800000001
 31
0.0
  0
TEXT
  5
6D
330
66
100
AcDbEntity
  8
0
  6
Continuous
 62
     7
100
AcDbText
 10
-91.425
 20
10.532001
 30
0.0
 40
3.2
  1
25
 50
90.00000300000001
 41
1.028624999999999
100
AcDbText
  0
POINT
  5
6E
330
66
100
AcDbEntity
  8
DEFPOINTS
  6
Continuous
 62
     7
100
AcDbPoint
 10
-63.125
 20
25.775002
 30
0.0
  0
POINT
  5
6F
330
66
100
AcDbEntity
  8
DEFPOINTS
  6
Continuous
 62
     7
100
AcDbPoint
 10
-63.125
 20
0.7749999800000001
 30
0.0
  0
POINT
  5
70
330
66
100
AcDbEntity
  8
DEFPOINTS
  6
Continuous
 62
     7
100
AcDbPoint
 10
-90.625
 20
0.7749999800000001
 30
0.0
  0
ENDBLK
  5
71
330
66
100
AcDbEntity
  8
0
100
AcDbBlockEnd
  0
BLOCK
  5
73
330
72
100
AcDbEntity
  8
0
100
AcDbBlockBegin
  2
*D4
 70
     1
 10
0.0
 20
0.0
 30
0.0
  3
*D4
  1

  0
LINE
  5
74
330
72
100
AcDbEntity
  8
0
  6
Continuous
 62
     7
100
AcDbLine
 10
-100.625
 20
25.775002
 30
0.0
 11
-100.625
 21
-14.225
 31
0.0
  0
INSERT
  5
75
330
72
100
AcDbEntity
  8
0
  6
Continuous
 62
     7
100
AcDbBlockReference
  2
_DOT
 10
-100.625
 20
25.775002
 30
0.0
 50
90.0
  0
INSERT
  5
76
330
72
100
AcDbEntity
  8
0
  6
Continuous
 62
     7
100
AcDbBlockReference
  2
_DOT
 10
-100.625
 20
-14.225
 30
0.0
 50
270.0
  0
LINE
  5
77
330
72
100
AcDbEntity
  8
0
  6
Continuous
 62
     7
100
AcDbLine
 10
-65.66500000000001
 20
25.775002
 30
0.0
 11
-101.825
 21
25.775002
 31
0.0
  0
LINE
  5
78
330
72
100
AcDbEntity
  8
0
  6
Continuous
 62
     7
100
AcDbLine
 10
-73.16500000000001
 20
-14.225
 30
0.0
 11
-101.825
 21
-14.225
 31
0.0
  0
TEXT
  5
79
330
72
100
AcDbEntity
  8
0
  6
Continuous
 62
     7
100
AcDbText
 10
-101.425
 20
3.032000999999999
 30
0.0
 40
3.2
  1
40
 50
90.00000300000001
 41
1.102098199999999
100
AcDbText
  0
POINT
  5
7A
330
72
100
AcDbEntity
  8
DEFPOINTS
  6
Continuous
 62
     7
100
AcDbPoint
 10
-63.125
 20
25.775002
 30
0.0
  0
POINT
  5
7B
330
72
100
AcDbEntity
  8
DEFPOINTS
  6
Continuous
 62
     7
100
AcDbPoint
 10
-70.625
 20
-14.225
 30
0.0
  0
POINT
  5
7C
330
72
100
AcDbEntity
  8
DEFPOINTS
  6
Continuous
 62
     7
100
AcDbPoint
 10
-100.625
 20
-14.225
 30
0.0
  0
ENDBLK
  5
7D
330
72
100
AcDbEntity
  8
0
100
AcDbBlockEnd
  0
BLOCK
  5
7F
330
7E
100
AcDbEntity
  8
0
100
AcDbBlockBegin
  2
*D5
 70
     1
 10
0.0
 20
0.0
 30
0.0
  3
*D5
  1

  0
LINE
  5
80
330
7E
100
AcDbEntity
  8
0
  6
Continuous
 62
     7
100
AcDbLine
 10
12.375004
 20
-8.2250004
 30
0.0
 11
12.375004
 21
3.7750001
 31
0.0
  0
INSERT
  5
81
330
7E
100
AcDbEntity
  8
0
  6
Continuous
 62
     7
100
AcDbBlockReference
  2
_DOT
 10
12.375004
 20
-8.2250004
 30
0.0
 50
270.0
  0
INSERT
  5
82
330
7E
100
AcDbEntity
  8
0
  6
Continuous
 62
     7
100
AcDbBlockReference
  2
_DOT
 10
12.375004
 20
3.7750001
 30
0.0
 50
90.0
  0
LINE
  5
83
330
7E
100
AcDbEntity
  8
0
  6
Continuous
 62
     7
100
AcDbLine
 10
-2.084996299999999
 20
-8.2250004
 30
0.0
 11
13.575004
 21
-8.2250004
 31
0.0
  0
LINE
  5
84
330
7E
100
AcDbEntity
  8
0
  6
Continuous
 62
     7
100
AcDbLine
 10
-10.084996
 20
3.7750001
 30
0.0
 11
13.575004
 21
3.7750001
 31
0.0
  0
TEXT
  5
85
330
7E
100
AcDbEntity
  8
0
  6
Continuous
 62
     7
100
AcDbText
 10
11.575004
 20
-4.9679999
 30
0.0
 40
3.2
  1
12
 50
90.00000300000001
 41
1.285781199999999
100
AcDbText
  0
POINT
  5
86
330
7E
100
AcDbEntity
  8
DEFPOINTS
  6
Continuous
 62
     7
100
AcDbPoint
 10
-4.6249962
 20
-8.2250004
 30
0.0
  0
POINT
  5
87
330
7E
100
AcDbEntity
  8
DEFPOINTS
  6
Continuous
 62
     7
100
AcDbPoint
 10
-12.624996
 20
3.7750001
 30
0.0
  0
POINT
  5
88
330
7E
100
AcDbEntity
  8
DEFPOINTS
  6
Continuous
 62
     7
100
AcDbPoint
 10
12.375004
 20
3.7750001
 30
0.0
  0
ENDBLK
  5
89
330
7E
100
AcDbEntity
  8
0
100
AcDbBlockEnd
  0
BLOCK
  5
8B
330
8A
100
AcDbEntity
  8
0
100
AcDbBlockBegin
  2
*D6
 70
     1
 10
0.0
 20
0.0
 30
0.0
  3
*D6
  1

  0
LINE
  5
8C
330
8A
100
AcDbEntity
  8
0
  6
Continuous
 62
     7
100
AcDbLine
 10
22.375004
 20
21.775002
 30
0.0
 11
22.375004
 21
-8.2250004
 31
0.0
  0
INSERT
  5
8D
330
8A
100
AcDbEntity
  8
0
  6
Continuous
 62
     7
100
AcDbBlockReference
  2
_DOT
 10
22.375004
 20
21.775002
 30
0.0
 50
90.0
  0
INSERT
  5
8E
330
8A
100
AcDbEntity
  8
0
  6
Continuous
 62
     7
100
AcDbBlockReference
  2
_DOT
 10
22.375004
 20
-8.2250004
 30
0.0
 50
270.0
  0
LINE
  5
8F
330
8A
100
AcDbEntity
  8
0
  6
Continuous
 62
     7
100
AcDbLine
 10
-0.084996262
 20
21.775002
 30
0.0
 11
23.575005
 21
21.775002
 31
0.0
  0
LINE
  5
90
330
8A
100
AcDbEntity
  8
0
  6
Continuous
 62
     7
100
AcDbLine
 10
-2.084996299999999
 20
-8.2250004
 30
0.0
 11
23.575005
 21
-8.2250004
 31
0.0
  0
TEXT
  5
91
330
8A
100
AcDbEntity
  8
0
  6
Continuous
 62
     7
100
AcDbText
 10
21.575004
 20
4.032001
 30
0.0
 40
3.2
  1
30
 50
90.00000300000001
 41
1.102098199999999
100
AcDbText
  0
POINT
  5
92
330
8A
100
AcDbEntity
  8
DEFPOINTS
  6
Continuous
 62
     7
100
AcDbPoint
 10
-2.6249962
 20
21.775002
 30
0.0
  0
POINT
  5
93
330
8A
100
AcDbEntity
  8
DEFPOINTS
  6
Continuous
 62
     7
100
AcDbPoint
 10
-4.6249962
 20
-8.2250004
 30
0.0
  0
POINT
  5
94
330
8A
100
AcDbEntity
  8
DEFPOINTS
  6
Continuous
 62
     7
100
AcDbPoint
 10
22.375004
 20
-8.2250004
 30
0.0
  0
ENDBLK
  5
95
330
8A
100
AcDbEntity
  8
0
100
AcDbBlockEnd
  0
BLOCK
  5
97
330
96
100
AcDbEntity
  8
0
100
AcDbBlockBegin
  2
*D7
 70
     1
 10
0.0
 20
0.0
 30
0.0
  3
*D7
  1

  0
LINE
  5
98
330
96
100
AcDbEntity
  8
0
  6
Continuous
 62
     7
100
AcDbLine
 10
-2.6249962
 20
35.775002
 30
0.0
 11
-4.6249962
 21
35.775002
 31
0.0
  0
INSERT
  5
99
330
96
100
AcDbEntity
  8
0
  6
Continuous
 62
     7
100
AcDbBlockReference
  2
_DOT
 10
-2.6249962
 20
35.775002
 30
0.0
  0
INSERT
  5
9A
330
96
100
AcDbEntity
  8
0
  6
Continuous
 62
     7
100
AcDbBlockReference
  2
_DOT
 10
-4.6249962
 20
35.775002
 30
0.0
 50
180.0
  0
LINE
  5
9B
330
96
100
AcDbEntity
  8
0
  6
Continuous
 62
     7
100
AcDbLine
 10
-2.6249962
 20
24.315001
 30
0.0
 11
-2.6249962
 21
36.975002
 31
0.0
  0
LINE
  5
9C
330
96
100
AcDbEntity
  8
0
  6
Continuous
 62
     7
100
AcDbLine
 10
-4.6249962
 20
24.315001
 30
0.0
 11
-4.6249962
 21
36.975002
 31
0.0
  0
TEXT
  5
9D
330
96
100
AcDbEntity
  8
0
  6
Continuous
 62
     7
100
AcDbText
 10
-4.767996199999999
 20
36.57500200000001
 30
0.0
 40
3.2
  1
2
100
AcDbText
  0
POINT
  5
9E
330
96
100
AcDbEntity
  8
DEFPOINTS
  6
Continuous
 62
     7
100
AcDbPoint
 10
-2.6249962
 20
21.775002
 30
0.0
  0
POINT
  5
9F
330
96
100
AcDbEntity
  8
DEFPOINTS
  6
Continuous
 62
     7
100
AcDbPoint
 10
-4.6249962
 20
21.775002
 30
0.0
  0
POINT
  5
A0
330
96
100
AcDbEntity
  8
DEFPOINTS
  6
Continuous
 62
     7
100
AcDbPoint
 10
-4.6249962
 20
35.775002
 30
0.0
  0
ENDBLK
  5
A1
330
96
100
AcDbEntity
  8
0
100
AcDbBlockEnd
  0
BLOCK
  5
A3
330
A2
100
AcDbEntity
  8
0
100
AcDbBlockBegin
  2
*D8
 70
     1
 10
0.0
 20
0.0
 30
0.0
  3
*D8
  1

  0
LINE
  5
A4
330
A2
100
AcDbEntity
  8
0
  6
Continuous
 62
     7
100
AcDbLine
 10
-4.6249962
 20
35.775002
 30
0.0
 11
-12.624996
 21
35.775002
 31
0.0
  0
INSERT
  5
A5
330
A2
100
AcDbEntity
  8
0
  6
Continuous
 62
     7
100
AcDbBlockReference
  2
_DOT
 10
-4.6249962
 20
35.775002
 30
0.0
  0
INSERT
  5
A6
330
A2
100
AcDbEntity
  8
0
  6
Continuous
 62
     7
100
AcDbBlockReference
  2
_DOT
 10
-12.624996
 20
35.775002
 30
0.0
 50
180.0
  0
LINE
  5
A7
330
A2
100
AcDbEntity
  8
0
  6
Continuous
 62
     7
100
AcDbLine
 10
-12.624996
 20
6.315
 30
0.0
 11
-12.624996
 21
36.975002
 31
0.0
  0
TEXT
  5
A8
330
A2
100
AcDbEntity
  8
0
  6
Continuous
 62
     7
100
AcDbText
 10
-9.7679962
 20
36.57500200000001
 30
0.0
 40
3.2
  1
8
100
AcDbText
  0
POINT
  5
A9
330
A2
100
AcDbEntity
  8
DEFPOINTS
  6
Continuous
 62
     7
100
AcDbPoint
 10
-4.6249962
 20
21.775002
 30
0.0
  0
POINT
  5
AA
330
A2
100
AcDbEntity
  8
DEFPOINTS
  6
Continuous
 62
     7
100
AcDbPoint
 10
-12.624996
 20
3.7750001
 30
0.0
  0
POINT
  5
AB
330
A2
100
AcDbEntity
  8
DEFPOINTS
  6
Continuous
 62
     7
100
AcDbPoint
 10
-12.624996
 20
35.775002
 30
0.0
  0
ENDBLK
  5
AC
330
A2
100
AcDbEntity
  8
0
100
AcDbBlockEnd
  0
BLOCK
  5
AE
330
AD
100
AcDbEntity
  8
0
100
AcDbBlockBegin
  2
*D9
 70
     1
 10
0.0
 20
0.0
 30
0.0
  3
*D9
  1

  0
LINE
  5
AF
330
AD
100
AcDbEntity
  8
0
  6
Continuous
 62
     7
100
AcDbLine
 10
-2.6249962
 20
45.775002
 30
0.0
 11
-14.624996
 21
45.775002
 31
0.0
  0
INSERT
  5
B0
330
AD
100
AcDbEntity
  8
0
  6
Continuous
 62
     7
100
AcDbBlockReference
  2
_DOT
 10
-2.6249962
 20
45.775002
 30
0.0
  0
INSERT
  5
B1
330
AD
100
AcDbEntity
  8
0
  6
Continuous
 62
     7
100
AcDbBlockReference
  2
_DOT
 10
-14.624996
 20
45.775002
 30
0.0
 50
180.0
  0
LINE
  5
B2
330
AD
100
AcDbEntity
  8
0
  6
Continuous
 62
     7
100
AcDbLine
 10
-2.6249962
 20
24.315001
 30
0.0
 11
-2.6249962
 21
46.975002
 31
0.0
  0
LINE
  5
B3
330
AD
100
AcDbEntity
  8
0
  6
Continuous
 62
     7
100
AcDbLine
 10
-14.624996
 20
6.315
 30
0.0
 11
-14.624996
 21
46.975002
 31
0.0
  0
TEXT
  5
B4
330
AD
100
AcDbEntity
  8
0
  6
Continuous
 62
     7
100
AcDbText
 10
-11.367996
 20
46.575002
 30
0.0
 40
3.2
  1
12
 41
1.285781199999999
100
AcDbText
  0
POINT
  5
B5
330
AD
100
AcDbEntity
  8
DEFPOINTS
  6
Continuous
 62
     7
100
AcDbPoint
 10
-2.6249962
 20
21.775002
 30
0.0
  0
POINT
  5
B6
330
AD
100
AcDbEntity
  8
DEFPOINTS
  6
Continuous
 62
     7
100
AcDbPoint
 10
-14.624996
 20
3.7750001
 30
0.0
  0
POINT
  5
B7
330
AD
100
AcDbEntity
  8
DEFPOINTS
  6
Continuous
 62
     7
100
AcDbPoint
 10
-14.624996
 20
45.775002
 30
0.0
  0
ENDBLK
  5
B8
330
AD
100
AcDbEntity
  8
0
100
AcDbBlockEnd
  0
BLOCK
  5
BA
330
B9
100
AcDbEntity
  8
0
100
AcDbBlockBegin
  2
*D10
 70
     1
 10
0.0
 20
0.0
 30
0.0
  3
*D10
  1

  0
LINE
  5
BB
330
B9
100
AcDbEntity
  8
0
  6
Continuous
 62
     7
100
AcDbLine
 10
-63.125
 20
45.775002
 30
0.0
 11
-38.125
 21
45.775002
 31
0.0
  0
INSERT
  5
BC
330
B9
100
AcDbEntity
  8
0
  6
Continuous
 62
     7
100
AcDbBlockReference
  2
_DOT
 10
-63.125
 20
45.775002
 30
0.0
 50
180.0
  0
INSERT
  5
BD
330
B9
100
AcDbEntity
  8
0
  6
Continuous
 62
     7
100
AcDbBlockReference
  2
_DOT
 10
-38.125
 20
45.775002
 30
0.0
  0
LINE
  5
BE
330
B9
100
AcDbEntity
  8
0
  6
Continuous
 62
     7
100
AcDbLine
 10
-63.125
 20
28.315001
 30
0.0
 11
-63.125
 21
46.975002
 31
0.0
  0
LINE
  5
BF
330
B9
100
AcDbEntity
  8
0
  6
Continuous
 62
     7
100
AcDbLine
 10
-38.125
 20
28.315001
 30
0.0
 11
-38.125
 21
46.975002
 31
0.0
  0
TEXT
  5
C0
330
B9
100
AcDbEntity
  8
0
  6
Continuous
 62
     7
100
AcDbText
 10
-53.368
 20
46.575002
 30
0.0
 40
3.2
  1
25
 41
1.028624999999999
100
AcDbText
  0
POINT
  5
C1
330
B9
100
AcDbEntity
  8
DEFPOINTS
  6
Continuous
 62
     7
100
AcDbPoint
 10
-63.125
 20
25.775002
 30
0.0
  0
POINT
  5
C2
330
B9
100
AcDbEntity
  8
DEFPOINTS
  6
Continuous
 62
     7
100
AcDbPoint
 10
-38.125
 20
25.775002
 30
0.0
  0
POINT
  5
C3
330
B9
100
AcDbEntity
  8
DEFPOINTS
  6
Continuous
 62
     7
100
AcDbPoint
 10
-38.125
 20
45.775002
 30
0.0
  0
ENDBLK
  5
C4
330
B9
100
AcDbEntity
  8
0
100
AcDbBlockEnd
  0
BLOCK
  5
C6
330
C5
100
AcDbEntity
  8
0
100
AcDbBlockBegin
  2
*D11
 70
     1
 10
0.0
 20
0.0
 30
0.0
  3
*D11
  1

  0
LINE
  5
C7
330
C5
100
AcDbEntity
  8
0
  6
Continuous
 62
     7
100
AcDbLine
 10
-50.625
 20
158.27501
 30
0.0
 11
-10.624996
 21
158.27501
 31
0.0
  0
INSERT
  5
C8
330
C5
100
AcDbEntity
  8
0
  6
Continuous
 62
     7
100
AcDbBlockReference
  2
_DOT
 10
-50.625
 20
158.27501
 30
0.0
 50
180.0
  0
INSERT
  5
C9
330
C5
100
AcDbEntity
  8
0
  6
Continuous
 62
     7
100
AcDbBlockReference
  2
_DOT
 10
-10.624996
 20
158.27501
 30
0.0
  0
LINE
  5
CA
330
C5
100
AcDbEntity
  8
0
  6
Continuous
 62
     7
100
AcDbLine
 10
-50.625
 20
145.81501
 30
0.0
 11
-50.625
 21
159.47501
 31
0.0
  0
LINE
  5
CB
330
C5
100
AcDbEntity
  8
0
  6
Continuous
 62
     7
100
AcDbLine
 10
-10.624996
 20
140.52322
 30
0.0
 11
-10.624996
 21
159.47501
 31
0.0
  0
TEXT
  5
CC
330
C5
100
AcDbEntity
  8
0
  6
Continuous
 62
     7
100
AcDbText
 10
-33.367998
 20
159.07501
 30
0.0
 40
3.2
  1
40
 41
1.102098199999999
100
AcDbText
  0
POINT
  5
CD
330
C5
100
AcDbEntity
  8
DEFPOINTS
  6
Continuous
 62
     7
100
AcDbPoint
 10
-50.625
 20
143.27501
 30
0.0
  0
POINT
  5
CE
330
C5
100
AcDbEntity
  8
DEFPOINTS
  6
Continuous
 62
     7
100
AcDbPoint
 10
-10.624996
 20
137.98322
 30
0.0
  0
POINT
  5
CF
330
C5
100
AcDbEntity
  8
DEFPOINTS
  6
Continuous
 62
     7
100
AcDbPoint
 10
-10.624996
 20
158.27501
 30
0.0
  0
ENDBLK
  5
D0
330
C5
100
AcDbEntity
  8
0
100
AcDbBlockEnd
  0
BLOCK
  5
D2
330
D1
100
AcDbEntity
  8
0
100
AcDbBlockBegin
  2
*D12
 70
     1
 10
0.0
 20
0.0
 30
0.0
  3
*D12
  1

  0
LINE
  5
D3
330
D1
100
AcDbEntity
  8
0
  6
Continuous
 62
     7
100
AcDbLine
 10
-8.6249962
 20
148.27501
 30
0.0
 11
1.4705902
 21
148.27501
 31
0.0
  0
LINE
  5
D4
330
D1
100
AcDbEntity
  8
0
  6
Continuous
 62
     7
100
AcDbLine
 10
-12.624996
 20
148.27501
 30
0.0
 11
-8.6249962
 21
148.27501
 31
0.0
  0
INSERT
  5
D5
330
D1
100
AcDbEntity
  8
0
  6
Continuous
 62
     7
100
AcDbBlockReference
  2
_DOT
 10
-12.624996
 20
148.27501
 30
0.0
 50
180.0
  0
INSERT
  5
D6
330
D1
100
AcDbEntity
  8
0
  6
Continuous
 62
     7
100
AcDbBlockReference
  2
_DOT
 10
-8.6249962
 20
148.27501
 30
0.0
  0
LINE
  5
D7
330
D1
100
AcDbEntity
  8
0
  6
Continuous
 62
     7
100
AcDbLine
 10
-12.624996
 20
132.81501
 30
0.0
 11
-12.624996
 21
149.47501
 31
0.0
  0
LINE
  5
D8
330
D1
100
AcDbEntity
  8
0
  6
Continuous
 62
     7
100
AcDbLine
 10
-8.6249962
 20
133.81501
 30
0.0
 11
-8.6249962
 21
149.47501
 31
0.0
  0
TEXT
  5
D9
330
D1
100
AcDbEntity
  8
0
  6
Continuous
 62
     7
100
AcDbText
 10
-4.015409799999999
 20
149.07501
 30
0.0
 40
3.2
  1
%%C4
 41
0.92336176
100
AcDbText
  0
POINT
  5
DA
330
D1
100
AcDbEntity
  8
DEFPOINTS
  6
Continuous
 62
     7
100
AcDbPoint
 10
-12.624996
 20
130.27501
 30
0.0
  0
POINT
  5
DB
330
D1
100
AcDbEntity
  8
DEFPOINTS
  6
Continuous
 62
     7
100
AcDbPoint
 10
-8.6249962
 20
131.27501
 30
0.0
  0
POINT
  5
DC
330
D1
100
AcDbEntity
  8
DEFPOINTS
  6
Continuous
 62
     7
100
AcDbPoint
 10
-8.6249962
 20
148.27501
 30
0.0
  0
ENDBLK
  5
DD
330
D1
100
AcDbEntity
  8
0
100
AcDbBlockEnd
  0
BLOCK
  5
DF
330
DE
100
AcDbEntity
  8
0
100
AcDbBlockBegin
  2
*D13
 70
     1
 10
0.0
 20
0.0
 30
0.0
  3
*D13
  1

  0
LINE
  5
E0
330
DE
100
AcDbEntity
  8
0
  6
Continuous
 62
     7
100
AcDbLine
 10
-70.625
 20
-80.61311299999999
 30
0.0
 11
-30.62499600000001
 21
-80.61311299999999
 31
0.0
  0
INSERT
  5
E1
330
DE
100
AcDbEntity
  8
0
  6
Continuous
 62
     7
100
AcDbBlockReference
  2
_DOT
 10
-70.625
 20
-80.61311299999999
 30
0.0
 50
180.0
  0
INSERT
  5
E2
330
DE
100
AcDbEntity
  8
0
  6
Continuous
 62
     7
100
AcDbBlockReference
  2
_DOT
 10
-30.62499600000001
 20
-80.61311299999999
 30
0.0
  0
LINE
  5
E3
330
DE
100
AcDbEntity
  8
0
  6
Continuous
 62
     7
100
AcDbLine
 10
-70.625
 20
-16.765
 30
0.0
 11
-70.625
 21
-81.81310999999999
 31
0.0
  0
LINE
  5
E4
330
DE
100
AcDbEntity
  8
0
  6
Continuous
 62
     7
100
AcDbLine
 10
-30.62499600000001
 20
-16.765
 30
0.0
 11
-30.62499600000001
 21
-81.81310999999999
 31
0.0
  0
TEXT
  5
E5
330
DE
100
AcDbEntity
  8
0
  6
Continuous
 62
     7
100
AcDbText
 10
-54.968
 20
-79.813113
 30
0.0
 40
3.2
  1
%%C40
 41
0.98864326
100
AcDbText
  0
POINT
  5
E6
330
DE
100
AcDbEntity
  8
DEFPOINTS
  6
Continuous
 62
     7
100
AcDbPoint
 10
-70.625
 20
-14.225
 30
0.0
  0
POINT
  5
E7
330
DE
100
AcDbEntity
  8
DEFPOINTS
  6
Continuous
 62
     7
100
AcDbPoint
 10
-30.62499600000001
 20
-14.225
 30
0.0
  0
POINT
  5
E8
330
DE
100
AcDbEntity
  8
DEFPOINTS
  6
Continuous
 62
     7
100
AcDbPoint
 10
-30.62499600000001
 20
-80.61311299999999
 30
0.0
  0
ENDBLK
  5
E9
330
DE
100
AcDbEntity
  8
0
100
AcDbBlockEnd
  0
BLOCK
  5
EB
330
EA
100
AcDbEntity
  8
0
100
AcDbBlockBegin
  2
*D14
 70
     1
 10
0.0
 20
0.0
 30
0.0
  3
*D14
  1

  0
LINE
  5
EC
330
EA
100
AcDbEntity
  8
0
  6
Continuous
 62
     7
100
AcDbLine
 10
-62.625
 20
-70.61311299999999
 30
0.0
 11
-38.625
 21
-70.61311299999999
 31
0.0
  0
INSERT
  5
ED
330
EA
100
AcDbEntity
  8
0
  6
Continuous
 62
     7
100
AcDbBlockReference
  2
_DOT
 10
-62.625
 20
-70.61311299999999
 30
0.0
 50
180.0
  0
INSERT
  5
EE
330
EA
100
AcDbEntity
  8
0
  6
Continuous
 62
     7
100
AcDbBlockReference
  2
_DOT
 10
-38.625
 20
-70.61311299999999
 30
0.0
  0
LINE
  5
EF
330
EA
100
AcDbEntity
  8
0
  6
Continuous
 62
     7
100
AcDbLine
 10
-62.625
 20
-13.765
 30
0.0
 11
-62.625
 21
-71.81310999999999
 31
0.0
  0
LINE
  5
F0
330
EA
100
AcDbEntity
  8
0
  6
Continuous
 62
     7
100
AcDbLine
 10
-38.625
 20
-13.765
 30
0.0
 11
-38.625
 21
-71.81310999999999
 31
0.0
  0
TEXT
  5
F1
330
EA
100
AcDbEntity
  8
0
  6
Continuous
 62
     7
100
AcDbText
 10
-54.968
 20
-69.813113
 30
0.0
 40
3.2
  1
%%C24
 41
0.9501896099999999
100
AcDbText
  0
POINT
  5
F2
330
EA
100
AcDbEntity
  8
DEFPOINTS
  6
Continuous
 62
     7
100
AcDbPoint
 10
-62.625
 20
-11.225
 30
0.0
  0
POINT
  5
F3
330
EA
100
AcDbEntity
  8
DEFPOINTS
  6
Continuous
 62
     7
100
AcDbPoint
 10
-38.625
 20
-11.225
 30
0.0
  0
POINT
  5
F4
330
EA
100
AcDbEntity
  8
DEFPOINTS
  6
Continuous
 62
     7
100
AcDbPoint
 10
-38.625
 20
-70.61311299999999
 30
0.0
  0
ENDBLK
  5
F5
330
EA
100
AcDbEntity
  8
0
100
AcDbBlockEnd
  0
BLOCK
  5
F7
330
F6
100
AcDbEntity
  8
0
100
AcDbBlockBegin
  2
*D15
 70
     1
 10
0.0
 20
0.0
 30
0.0
  3
*D15
  1

  0
LINE
  5
F8
330
F6
100
AcDbEntity
  8
0
  6
Continuous
 62
     7
100
AcDbLine
 10
-45.625
 20
-60.61311299999999
 30
0.0
 11
12.067796
 21
-60.61311299999999
 31
0.0
  0
LINE
  5
F9
330
F6
100
AcDbEntity
  8
0
  6
Continuous
 62
     7
100
AcDbLine
 10
-55.625
 20
-60.61311299999999
 30
0.0
 11
-45.625
 21
-60.61311299999999
 31
0.0
  0
INSERT
  5
FA
330
F6
100
AcDbEntity
  8
0
  6
Continuous
 62
     7
100
AcDbBlockReference
  2
_DOT
 10
-55.625
 20
-60.61311299999999
 30
0.0
 50
180.0
  0
INSERT
  5
FB
330
F6
100
AcDbEntity
  8
0
  6
Continuous
 62
     7
100
AcDbBlockReference
  2
_DOT
 10
-45.625
 20
-60.61311299999999
 30
0.0
  0
LINE
  5
FC
330
F6
100
AcDbEntity
  8
0
  6
Continuous
 62
     7
100
AcDbLine
 10
-55.625
 20
-36.41504600000001
 30
0.0
 11
-55.625
 21
-61.813114
 31
0.0
  0
LINE
  5
FD
330
F6
100
AcDbEntity
  8
0
  6
Continuous
 62
     7
100
AcDbLine
 10
-45.625
 20
-36.41504600000001
 30
0.0
 11
-45.625
 21
-61.813114
 31
0.0
  0
TEXT
  5
FE
330
F6
100
AcDbEntity
  8
0
  6
Continuous
 62
     7
100
AcDbText
 10
-25.418204
 20
-59.813113
 30
0.0
 40
3.2
  1
（ドリル径：%%C１０．５）
 41
0.8437725099999999
100
AcDbText
  0
POINT
  5
FF
330
F6
100
AcDbEntity
  8
DEFPOINTS
  6
Continuous
 62
     7
100
AcDbPoint
 10
-55.625
 20
-33.87504600000001
 30
0.0
  0
POINT
  5
100
330
F6
100
AcDbEntity
  8
DEFPOINTS
  6
Continuous
 62
     7
100
AcDbPoint
 10
-45.625
 20
-33.87504600000001
 30
0.0
  0
POINT
  5
101
330
F6
100
AcDbEntity
  8
DEFPOINTS
  6
Continuous
 62
     7
100
AcDbPoint
 10
-45.625
 20
-60.61311299999999
 30
0.0
  0
ENDBLK
  5
102
330
F6
100
AcDbEntity
  8
0
100
AcDbBlockEnd
  0
BLOCK
  5
104
330
103
100
AcDbEntity
  8
0
100
AcDbBlockBegin
  2
*D16
 70
     1
 10
0.0
 20
0.0
 30
0.0
  3
*D16
  1

  0
LINE
  5
105
330
103
100
AcDbEntity
  8
0
  6
Continuous
 62
     7
100
AcDbLine
 10
-100.625
 20
-44.31049699999999
 30
0.0
 11
-100.625
 21
-14.225
 31
0.0
  0
INSERT
  5
106
330
103
100
AcDbEntity
  8
0
  6
Continuous
 62
     7
100
AcDbBlockReference
  2
_DOT
 10
-100.625
 20
-44.31049699999999
 30
0.0
 50
270.0
  0
INSERT
  5
107
330
103
100
AcDbEntity
  8
0
  6
Continuous
 62
     7
100
AcDbBlockReference
  2
_DOT
 10
-100.625
 20
-14.225
 30
0.0
 50
90.0
  0
LINE
  5
108
330
103
100
AcDbEntity
  8
0
  6
Continuous
 62
     7
100
AcDbLine
 10
-55.443351
 20
-44.31049699999999
 30
0.0
 11
-101.825
 21
-44.31049699999999
 31
0.0
  0
TEXT
  5
109
330
103
100
AcDbEntity
  8
0
  6
Continuous
 62
     7
100
AcDbText
 10
-101.425
 20
-32.010748
 30
0.0
 40
3.2
  1
30
 50
90.00000300000001
 41
1.102098199999999
100
AcDbText
  0
POINT
  5
10A
330
103
100
AcDbEntity
  8
DEFPOINTS
  6
Continuous
 62
     7
100
AcDbPoint
 10
-52.903351
 20
-44.31049699999999
 30
0.0
  0
POINT
  5
10B
330
103
100
AcDbEntity
  8
DEFPOINTS
  6
Continuous
 62
     7
100
AcDbPoint
 10
-70.625
 20
-14.225
 30
0.0
  0
POINT
  5
10C
330
103
100
AcDbEntity
  8
DEFPOINTS
  6
Continuous
 62
     7
100
AcDbPoint
 10
-100.625
 20
-14.225
 30
0.0
  0
ENDBLK
  5
10D
330
103
100
AcDbEntity
  8
0
100
AcDbBlockEnd
  0
BLOCK
  5
10F
330
10E
100
AcDbEntity
  8
0
100
AcDbBlockBegin
  2
*D17
 70
     1
 10
0.0
 20
0.0
 30
0.0
  3
*D17
  1

  0
LINE
  5
110
330
10E
100
AcDbEntity
  8
0
  6
Continuous
 62
     7
100
AcDbLine
 10
127.82632
 20
10.204574
 30
0.0
 11
127.82632
 21
30.204575
 31
0.0
  0
INSERT
  5
111
330
10E
100
AcDbEntity
  8
0
  6
Continuous
 62
     7
100
AcDbBlockReference
  2
_DOT
 10
127.82632
 20
10.204574
 30
0.0
 50
270.0
  0
INSERT
  5
112
330
10E
100
AcDbEntity
  8
0
  6
Continuous
 62
     7
100
AcDbBlockReference
  2
_DOT
 10
127.82632
 20
30.204575
 30
0.0
 50
90.0
  0
LINE
  5
113
330
10E
100
AcDbEntity
  8
0
  6
Continuous
 62
     7
100
AcDbLine
 10
115.75174
 20
10.204574
 30
0.0
 11
129.02632
 21
10.204574
 31
0.0
  0
LINE
  5
114
330
10E
100
AcDbEntity
  8
0
  6
Continuous
 62
     7
100
AcDbLine
 10
118.24761
 20
30.204575
 30
0.0
 11
129.02632
 21
30.204575
 31
0.0
  0
TEXT
  5
115
330
10E
100
AcDbEntity
  8
0
  6
Continuous
 62
     7
100
AcDbText
 10
127.02632
 20
17.461717
 30
0.0
 40
3.2
  1
20
 50
90.00000300000001
 41
1.102041
100
AcDbText
  0
POINT
  5
116
330
10E
100
AcDbEntity
  8
DEFPOINTS
  6
Continuous
 62
     7
100
AcDbPoint
 10
113.21174
 20
10.204574
 30
0.0
  0
POINT
  5
117
330
10E
100
AcDbEntity
  8
DEFPOINTS
  6
Continuous
 62
     7
100
AcDbPoint
 10
115.70761
 20
30.204575
 30
0.0
  0
POINT
  5
118
330
10E
100
AcDbEntity
  8
DEFPOINTS
  6
Continuous
 62
     7
100
AcDbPoint
 10
127.82632
 20
30.204575
 30
0.0
  0
ENDBLK
  5
119
330
10E
100
AcDbEntity
  8
0
100
AcDbBlockEnd
  0
BLOCK
  5
11B
330
11A
100
AcDbEntity
  8
0
100
AcDbBlockBegin
  2
*D18
 70
     1
 10
0.0
 20
0.0
 30
0.0
  3
*D18
  1

  0
LINE
  5
11C
330
11A
100
AcDbEntity
  8
0
  6
Continuous
 62
     7
100
AcDbLine
 10
127.82632
 20
30.204575
 30
0.0
 11
127.82632
 21
40.20456699999999
 31
0.0
  0
INSERT
  5
11D
330
11A
100
AcDbEntity
  8
0
  6
Continuous
 62
     7
100
AcDbBlockReference
  2
_DOT
 10
127.82632
 20
30.204575
 30
0.0
 50
270.0
  0
INSERT
  5
11E
330
11A
100
AcDbEntity
  8
0
  6
Continuous
 62
     7
100
AcDbBlockReference
  2
_DOT
 10
127.82632
 20
40.20456699999999
 30
0.0
 50
90.0
  0
LINE
  5
11F
330
11A
100
AcDbEntity
  8
0
  6
Continuous
 62
     7
100
AcDbLine
 10
115.45762
 20
40.20456699999999
 30
0.0
 11
129.02632
 21
40.20456699999999
 31
0.0
  0
TEXT
  5
120
330
11A
100
AcDbEntity
  8
0
  6
Continuous
 62
     7
100
AcDbText
 10
127.02632
 20
32.461724
 30
0.0
 40
3.2
  1
10
 50
90.00000300000001
 41
1.402597699999999
100
AcDbText
  0
POINT
  5
121
330
11A
100
AcDbEntity
  8
DEFPOINTS
  6
Continuous
 62
     7
100
AcDbPoint
 10
121.91762
 20
30.204575
 30
0.0
  0
POINT
  5
122
330
11A
100
AcDbEntity
  8
DEFPOINTS
  6
Continuous
 62
     7
100
AcDbPoint
 10
112.91762
 20
40.20456699999999
 30
0.0
  0
POINT
  5
123
330
11A
100
AcDbEntity
  8
DEFPOINTS
  6
Continuous
 62
     7
100
AcDbPoint
 10
127.82632
 20
40.20456699999999
 30
0.0
  0
ENDBLK
  5
124
330
11A
100
AcDbEntity
  8
0
100
AcDbBlockEnd
  0
BLOCK
  5
126
330
125
100
AcDbEntity
  8
0
100
AcDbBlockBegin
  2
*D19
 70
     1
 10
0.0
 20
0.0
 30
0.0
  3
*D19
  1

  0
LINE
  5
127
330
125
100
AcDbEntity
  8
0
  6
Continuous
 62
     7
100
AcDbLine
 10
95.917618
 20
52.717537
 30
0.0
 11
110.91762
 21
52.717537
 31
0.0
  0
INSERT
  5
128
330
125
100
AcDbEntity
  8
0
  6
Continuous
 62
     7
100
AcDbBlockReference
  2
_DOT
 10
95.917618
 20
52.717537
 30
0.0
 50
180.0
  0
INSERT
  5
129
330
125
100
AcDbEntity
  8
0
  6
Continuous
 62
     7
100
AcDbBlockReference
  2
_DOT
 10
110.91762
 20
52.717537
 30
0.0
  0
LINE
  5
12A
330
125
100
AcDbEntity
  8
0
  6
Continuous
 62
     7
100
AcDbLine
 10
95.917618
 20
37.534575
 30
0.0
 11
95.917618
 21
53.91753399999999
 31
0.0
  0
LINE
  5
12B
330
125
100
AcDbEntity
  8
0
  6
Continuous
 62
     7
100
AcDbLine
 10
110.91762
 20
37.534575
 30
0.0
 11
110.91762
 21
53.91753399999999
 31
0.0
  0
TEXT
  5
12C
330
125
100
AcDbEntity
  8
0
  6
Continuous
 62
     7
100
AcDbText
 10
100.67476
 20
53.51753699999999
 30
0.0
 40
3.2
  1
15
 41
1.2857145
100
AcDbText
  0
POINT
  5
12D
330
125
100
AcDbEntity
  8
DEFPOINTS
  6
Continuous
 62
     7
100
AcDbPoint
 10
95.917618
 20
34.994576
 30
0.0
  0
POINT
  5
12E
330
125
100
AcDbEntity
  8
DEFPOINTS
  6
Continuous
 62
     7
100
AcDbPoint
 10
110.91762
 20
34.994576
 30
0.0
  0
POINT
  5
12F
330
125
100
AcDbEntity
  8
DEFPOINTS
  6
Continuous
 62
     7
100
AcDbPoint
 10
110.91762
 20
52.717537
 30
0.0
  0
ENDBLK
  5
130
330
125
100
AcDbEntity
  8
0
100
AcDbBlockEnd
  0
BLOCK
  5
132
330
131
100
AcDbEntity
  8
0
100
AcDbBlockBegin
  2
*D20
 70
     1
 10
0.0
 20
0.0
 30
0.0
  3
*D20
  1

  0
LINE
  5
133
330
131
100
AcDbEntity
  8
0
  6
Continuous
 62
     7
100
AcDbLine
 10
97.417618
 20
-3.457466799999999
 30
0.0
 11
109.41762
 21
-3.457466799999999
 31
0.0
  0
INSERT
  5
134
330
131
100
AcDbEntity
  8
0
  6
Continuous
 62
     7
100
AcDbBlockReference
  2
_DOT
 10
97.417618
 20
-3.457466799999999
 30
0.0
 50
180.0
  0
INSERT
  5
135
330
131
100
AcDbEntity
  8
0
  6
Continuous
 62
     7
100
AcDbBlockReference
  2
_DOT
 10
109.41762
 20
-3.457466799999999
 30
0.0
  0
LINE
  5
136
330
131
100
AcDbEntity
  8
0
  6
Continuous
 62
     7
100
AcDbLine
 10
97.417618
 20
19.664575
 30
0.0
 11
97.417618
 21
-4.657464
 31
0.0
  0
LINE
  5
137
330
131
100
AcDbEntity
  8
0
  6
Continuous
 62
     7
100
AcDbLine
 10
109.41762
 20
19.664575
 30
0.0
 11
109.41762
 21
-4.657464
 31
0.0
  0
TEXT
  5
138
330
131
100
AcDbEntity
  8
0
  6
Continuous
 62
     7
100
AcDbText
 10
100.67476
 20
-2.657466799999999
 30
0.0
 40
3.2
  1
12
 41
1.2857145
100
AcDbText
  0
POINT
  5
139
330
131
100
AcDbEntity
  8
DEFPOINTS
  6
Continuous
 62
     7
100
AcDbPoint
 10
97.417618
 20
22.204575
 30
0.0
  0
POINT
  5
13A
330
131
100
AcDbEntity
  8
DEFPOINTS
  6
Continuous
 62
     7
100
AcDbPoint
 10
109.41762
 20
22.204575
 30
0.0
  0
POINT
  5
13B
330
131
100
AcDbEntity
  8
DEFPOINTS
  6
Continuous
 62
     7
100
AcDbPoint
 10
109.41762
 20
-3.457466799999999
 30
0.0
  0
ENDBLK
  5
13C
330
131
100
AcDbEntity
  8
0
100
AcDbBlockEnd
  0
BLOCK
  5
13E
330
13D
100
AcDbEntity
  8
0
100
AcDbBlockBegin
  2
*D21
 70
     1
 10
0.0
 20
0.0
 30
0.0
  3
*D21
  1

  0
LINE
  5
13F
330
13D
100
AcDbEntity
  8
0
  6
Continuous
 62
     7
100
AcDbLine
 10
89.917618
 20
-11.3929
 30
0.0
 11
116.91762
 21
-11.3929
 31
0.0
  0
INSERT
  5
140
330
13D
100
AcDbEntity
  8
0
  6
Continuous
 62
     7
100
AcDbBlockReference
  2
_DOT
 10
89.917618
 20
-11.3929
 30
0.0
 50
180.0
  0
INSERT
  5
141
330
13D
100
AcDbEntity
  8
0
  6
Continuous
 62
     7
100
AcDbBlockReference
  2
_DOT
 10
116.91762
 20
-11.3929
 30
0.0
  0
LINE
  5
142
330
13D
100
AcDbEntity
  8
0
  6
Continuous
 62
     7
100
AcDbLine
 10
89.917618
 20
19.664575
 30
0.0
 11
89.917618
 21
-12.8929
 31
0.0
  0
LINE
  5
143
330
13D
100
AcDbEntity
  8
0
  6
Continuous
 62
     7
100
AcDbLine
 10
116.91762
 20
19.664575
 30
0.0
 11
116.91762
 21
-12.8929
 31
0.0
  0
TEXT
  5
144
330
13D
100
AcDbEntity
  8
0
  6
Continuous
 62
     7
100
AcDbText
 10
100.86854
 20
-10.5929
 30
0.0
 40
3.2
  1
27
 41
1.0285716
100
AcDbText
  0
POINT
  5
145
330
13D
100
AcDbEntity
  8
DEFPOINTS
  6
Continuous
 62
     7
100
AcDbPoint
 10
89.917618
 20
22.204575
 30
0.0
  0
POINT
  5
146
330
13D
100
AcDbEntity
  8
DEFPOINTS
  6
Continuous
 62
     7
100
AcDbPoint
 10
116.91762
 20
22.204575
 30
0.0
  0
POINT
  5
147
330
13D
100
AcDbEntity
  8
DEFPOINTS
  6
Continuous
 62
     7
100
AcDbPoint
 10
116.91762
 20
-11.3929
 30
0.0
  0
ENDBLK
  5
148
330
13D
100
AcDbEntity
  8
0
100
AcDbBlockEnd
  0
BLOCK
  5
14A
330
149
100
AcDbEntity
  8
0
100
AcDbBlockBegin
  2
*D22
 70
     1
 10
0.0
 20
0.0
 30
0.0
  3
*D22
  1

  0
LINE
  5
14B
330
149
100
AcDbEntity
  8
0
  6
Continuous
 62
     7
100
AcDbLine
 10
109.89993
 20
28.197876
 30
0.0
 11
111.93532
 21
32.21125
 31
0.0
  0
INSERT
  5
14C
330
149
100
AcDbEntity
  8
0
  6
Continuous
 62
     7
100
AcDbBlockReference
  2
_DOT
 10
109.89993
 20
28.197876
 30
0.0
 50
243.10813
  0
INSERT
  5
14D
330
149
100
AcDbEntity
  8
0
  6
Continuous
 62
     7
100
AcDbBlockReference
  2
_DOT
 10
111.93532
 20
32.21125
 30
0.0
 50
63.108129
  0
TEXT
  5
14E
330
149
100
AcDbEntity
  8
0
  6
Continuous
 62
     7
100
AcDbText
 10
121.30059
 20
46.21910599999999
 30
0.0
 40
3.2
  1
  
 41
3.085714899999999
100
AcDbText
  0
ENDBLK
  5
14F
330
149
100
AcDbEntity
  8
0
100
AcDbBlockEnd
  0
BLOCK
  5
297
330
295
100
AcDbEntity
  8
0
100
AcDbBlockBegin
  2
GENAXEH
 70
     0
 10
0.0
 20
0.0
 30
0.0
  3
GENAXEH
  1

  0
LINE
  5
296
330
295
100
AcDbEntity
  8
0
100
AcDbLine
 10
-1.0
 20
0.0
 30
0.0
 11
1.0
 21
0.0
 31
0.0
  0
ENDBLK
  5
298
330
295
100
AcDbEntity
  8
0
100
AcDbBlockEnd
  0
ENDSEC
  0
SECTION
  2
ENTITIES
  0
LINE
  5
150
330
36
100
AcDbEntity
  8
0
  6
Continuous
 62
     7
100
AcDbLine
 10
170.0
 20
173.0
 30
0.0
 11
170.0
 21
-100.0
 31
0.0
  0
LINE
  5
151
330
36
100
AcDbEntity
  8
0
  6
Continuous
 62
     7
100
AcDbLine
 10
-211.0
 20
-100.0
 30
0.0
 11
170.0
 21
-100.0
 31
0.0
  0
LINE
  5
152
330
36
100
AcDbEntity
  8
0
  6
Continuous
 62
     7
100
AcDbLine
 10
-211.0
 20
173.0
 30
0.0
 11
170.0
 21
173.0
 31
0.0
  0
LINE
  5
153
330
36
100
AcDbEntity
  8
0
  6
Continuous
 62
     7
100
AcDbLine
 10
-211.0
 20
173.0
 30
0.0
 11
-211.0
 21
-100.0
 31
0.0
  0
LINE
  5
154
330
36
100
AcDbEntity
  8
0
  6
Continuous
 62
     7
100
AcDbLine
 10
-191.0
 20
173.0
 30
0.0
 11
-191.0
 21
77.0
 31
0.0
  0
LINE
  5
155
330
36
100
AcDbEntity
  8
0
  6
Continuous
 62
     7
100
AcDbLine
 10
-211.0
 20
165.0
 30
0.0
 11
-101.0
 21
165.0
 31
0.0
  0
LINE
  5
156
330
36
100
AcDbEntity
  8
0
  6
Continuous
 62
     7
100
AcDbLine
 10
-211.0
 20
157.0
 30
0.0
 11
-101.0
 21
157.0
 31
0.0
  0
LINE
  5
157
330
36
100
AcDbEntity
  8
0
  6
Continuous
 62
     7
100
AcDbLine
 10
-211.0
 20
149.0
 30
0.0
 11
-101.0
 21
149.0
 31
0.0
  0
LINE
  5
158
330
36
100
AcDbEntity
  8
0
  6
Continuous
 62
     7
100
AcDbLine
 10
-211.0
 20
141.0
 30
0.0
 11
-101.0
 21
141.0
 31
0.0
  0
LINE
  5
159
330
36
100
AcDbEntity
  8
0
  6
Continuous
 62
     7
100
AcDbLine
 10
-191.0
 20
117.0
 30
0.0
 11
-101.0
 21
117.0
 31
0.0
  0
LINE
  5
15A
330
36
100
AcDbEntity
  8
0
  6
Continuous
 62
     7
100
AcDbLine
 10
-191.0
 20
109.0
 30
0.0
 11
-101.0
 21
109.0
 31
0.0
  0
LINE
  5
15B
330
36
100
AcDbEntity
  8
0
  6
Continuous
 62
     7
100
AcDbLine
 10
-211.0
 20
101.0
 30
0.0
 11
-101.0
 21
101.0
 31
0.0
  0
LINE
  5
15C
330
36
100
AcDbEntity
  8
0
  6
Continuous
 62
     7
100
AcDbLine
 10
-191.0
 20
93.0
 30
0.0
 11
-101.0
 21
93.0
 31
0.0
  0
LINE
  5
15D
330
36
100
AcDbEntity
  8
0
  6
Continuous
 62
     7
100
AcDbLine
 10
-191.0
 20
85.0
 30
0.0
 11
-101.0
 21
85.0
 31
0.0
  0
LINE
  5
15E
330
36
100
AcDbEntity
  8
0
  6
Continuous
 62
     7
100
AcDbLine
 10
-211.0
 20
77.0
 30
0.0
 11
-101.0
 21
77.0
 31
0.0
  0
LINE
  5
15F
330
36
100
AcDbEntity
  8
0
  6
Continuous
 62
     7
100
AcDbLine
 10
-211.0
 20
173.0
 30
0.0
 11
-211.0
 21
77.0
 31
0.0
  0
LINE
  5
160
330
36
100
AcDbEntity
  8
0
  6
Continuous
 62
     7
100
AcDbLine
 10
-211.0
 20
173.0
 30
0.0
 11
-101.0
 21
173.0
 31
0.0
  0
LINE
  5
161
330
36
100
AcDbEntity
  8
0
  6
Continuous
 62
     7
100
AcDbLine
 10
-101.0
 20
173.0
 30
0.0
 11
-101.0
 21
77.0
 31
0.0
  0
LINE
  5
162
330
36
100
AcDbEntity
  8
0
  6
Continuous
 62
     7
100
AcDbLine
 10
-211.0
 20
133.0
 30
0.0
 11
-101.0
 21
133.0
 31
0.0
  0
LINE
  5
163
330
36
100
AcDbEntity
  8
0
  6
Continuous
 62
     7
100
AcDbLine
 10
-211.0
 20
125.0
 30
0.0
 11
-101.0
 21
125.0
 31
0.0
  0
LINE
  5
164
330
36
100
AcDbEntity
  8
0
  6
Continuous
 62
     7
100
AcDbLine
 10
-191.0
 20
117.0
 30
0.0
 11
-101.0
 21
117.0
 31
0.0
  0
LINE
  5
165
330
36
100
AcDbEntity
  8
0
  6
CENTER
 62
     7
100
AcDbLine
 10
-50.625
 20
143.27501
 30
0.0
 11
-50.625
 21
93.27500200000001
 31
0.0
  0
LINE
  5
166
330
36
100
AcDbEntity
  8
0
  6
CENTER
 62
     7
100
AcDbLine
 10
-75.625
 20
118.275
 30
0.0
 11
-25.624996
 21
118.275
 31
0.0
  0
LINE
  5
167
330
36
100
AcDbEntity
  8
0
  6
Continuous
 62
     3
100
AcDbLine
 10
-70.625
 20
-14.225
 30
0.0
 11
-30.62499600000001
 21
-14.225
 31
0.0
  0
LINE
  5
168
330
36
100
AcDbEntity
  8
0
  6
Continuous
 62
     3
100
AcDbLine
 10
-69.625
 20
-11.225
 30
0.0
 11
-31.624996
 21
-11.225
 31
0.0
  0
LINE
  5
169
330
36
100
AcDbEntity
  8
0
  6
Continuous
 62
     3
100
AcDbLine
 10
-63.125
 20
0.7749999800000001
 30
0.0
 11
-38.125
 21
0.7749999800000001
 31
0.0
  0
LINE
  5
16A
330
36
100
AcDbEntity
  8
0
  6
Continuous
 62
     3
100
AcDbLine
 10
-63.125
 20
25.775002
 30
0.0
 11
-38.125
 21
25.775002
 31
0.0
  0
LINE
  5
16B
330
36
100
AcDbEntity
  8
0
  6
Continuous
 62
     3
100
AcDbLine
 10
-30.62499600000001
 20
-12.225
 30
0.0
 11
-30.62499600000001
 21
-14.225
 31
0.0
  0
LINE
  5
16C
330
36
100
AcDbEntity
  8
0
  6
Continuous
 62
     3
100
AcDbLine
 10
-70.625
 20
-12.225
 30
0.0
 11
-70.625
 21
-14.225
 31
0.0
  0
LINE
  5
16D
330
36
100
AcDbEntity
  8
0
  6
CENTER
 62
     7
100
AcDbLine
 10
-55.625
 20
-4.2249999
 30
0.0
 11
-5.6249962
 21
-4.2249999
 31
0.0
  0
LINE
  5
16E
330
36
100
AcDbEntity
  8
0
  6
Continuous
 62
     3
100
AcDbLine
 10
-63.125
 20
25.775002
 30
0.0
 11
-63.125
 21
0.7749999800000001
 31
0.0
  0
LINE
  5
16F
330
36
100
AcDbEntity
  8
0
  6
Continuous
 62
     3
100
AcDbLine
 10
-38.125
 20
25.775002
 30
0.0
 11
-38.125
 21
0.7749999800000001
 31
0.0
  0
LINE
  5
170
330
36
100
AcDbEntity
  8
0
  6
Continuous
 62
     3
100
AcDbLine
 10
-31.625008
 20
-11.225012
 30
0.0
 11
-30.62501
 21
-12.225011
 31
0.0
  0
LINE
  5
171
330
36
100
AcDbEntity
  8
0
  6
CENTER
 62
     7
100
AcDbLine
 10
-50.625
 20
30.775002
 30
0.0
 11
-50.625
 21
-50.61311299999999
 31
0.0
  0
LINE
  5
172
330
36
100
AcDbEntity
  8
0
  6
Continuous
 62
     3
100
AcDbLine
 10
-70.625
 20
-12.225
 30
0.0
 11
-30.62499600000001
 21
-12.225
 31
0.0
  0
LINE
  5
173
330
36
100
AcDbEntity
  8
0
  6
Continuous
 62
     3
100
AcDbLine
 10
-69.62500799999999
 20
-11.224986
 30
0.0
 11
-70.62500799999999
 21
-12.224987
 31
0.0
  0
LINE
  5
174
330
36
100
AcDbEntity
  8
0
  6
Continuous
 62
     3
100
AcDbLine
 10
-48.625
 20
135.27501
 30
0.0
 11
-12.624996
 21
135.27501
 31
0.0
  0
LINE
  5
175
330
36
100
AcDbEntity
  8
0
  6
PHANTOM
 62
     7
100
AcDbLine
 10
-45.625
 20
-14.225
 30
0.0
 11
-45.625
 21
-33.87504600000001
 31
0.0
  0
LINE
  5
176
330
36
100
AcDbEntity
  8
0
  6
PHANTOM
 62
     7
100
AcDbLine
 10
-55.625
 20
-14.225
 30
0.0
 11
-55.625
 21
-33.87504600000001
 31
0.0
  0
LINE
  5
177
330
36
100
AcDbEntity
  8
0
  6
PHANTOM
 62
     7
100
AcDbLine
 10
-50.125
 20
-29.225002
 30
0.0
 11
-50.125
 21
-34.225002
 31
0.0
  0
LINE
  5
178
330
36
100
AcDbEntity
  8
0
  6
PHANTOM
 62
     7
100
AcDbLine
 10
-51.125
 20
-29.225002
 30
0.0
 11
-50.125
 21
-29.225002
 31
0.0
  0
LINE
  5
179
330
36
100
AcDbEntity
  8
0
  6
PHANTOM
 62
     7
100
AcDbLine
 10
-51.125
 20
-29.225002
 30
0.0
 11
-51.125
 21
-34.225002
 31
0.0
  0
LINE
  5
17A
330
36
100
AcDbEntity
  8
0
  6
PHANTOM
 62
     7
100
AcDbLine
 10
-52.90331999999999
 20
-44.31051599999999
 30
0.0
 11
-51.124973
 21
-34.225006
 31
0.0
  0
LINE
  5
17B
330
36
100
AcDbEntity
  8
0
  6
PHANTOM
 62
     7
100
AcDbLine
 10
-50.12497299999999
 20
-34.224995
 30
0.0
 11
-48.346626
 21
-44.310501
 31
0.0
  0
LINE
  5
17C
330
36
100
AcDbEntity
  8
0
  6
PHANTOM
 62
     7
100
AcDbLine
 10
-43.922501
 20
-43.53039899999999
 30
0.0
 11
-48.34666099999999
 21
-44.31049699999999
 31
0.0
  0
LINE
  5
17D
330
36
100
AcDbEntity
  8
0
  6
PHANTOM
 62
     7
100
AcDbLine
 10
-57.327492
 20
-43.53039899999999
 30
0.0
 11
-52.903339
 21
-44.31049699999999
 31
0.0
  0
LINE
  5
17E
330
36
100
AcDbEntity
  8
0
  6
Continuous
 62
     3
100
AcDbLine
 10
-52.625
 20
131.27501
 30
0.0
 11
-52.625
 21
130.61397
 31
0.0
  0
LINE
  5
17F
330
36
100
AcDbEntity
  8
0
  6
PHANTOM
 62
     7
100
AcDbLine
 10
-57.32747299999999
 20
-43.530415
 30
0.0
 11
-55.62496899999999
 21
-33.875053
 31
0.0
  0
LINE
  5
180
330
36
100
AcDbEntity
  8
0
  6
PHANTOM
 62
     7
100
AcDbLine
 10
-45.62498499999999
 20
-33.875042
 30
0.0
 11
-43.92248499999999
 21
-43.53040299999999
 31
0.0
  0
LINE
  5
181
330
36
100
AcDbEntity
  8
0
  6
Continuous
 62
     3
100
AcDbLine
 10
-12.624996
 20
130.27501
 30
0.0
 11
-12.624996
 21
106.275
 31
0.0
  0
LINE
  5
182
330
36
100
AcDbEntity
  8
0
  6
CENTER
 62
     7
100
AcDbLine
 10
-53.625
 20
103.275
 30
0.0
 11
-47.625
 21
103.275
 31
0.0
  0
LINE
  5
183
330
36
100
AcDbEntity
  8
0
  6
CENTER
 62
     7
100
AcDbLine
 10
-53.625
 20
133.27501
 30
0.0
 11
-47.625
 21
133.27501
 31
0.0
  0
LINE
  5
184
330
36
100
AcDbEntity
  8
0
  6
Continuous
 62
     3
100
AcDbLine
 10
-48.625
 20
101.275
 30
0.0
 11
-12.624996
 21
101.275
 31
0.0
  0
LINE
  5
185
330
36
100
AcDbEntity
  8
0
  6
Continuous
 62
     3
100
AcDbLine
 10
-47.625
 20
131.27501
 30
0.0
 11
-13.624996
 21
131.27501
 31
0.0
  0
LINE
  5
186
330
36
100
AcDbEntity
  8
0
  6
Continuous
 62
     3
100
AcDbLine
 10
-14.624996
 20
3.7750001
 30
0.0
 11
-12.624996
 21
3.7750001
 31
0.0
  0
LINE
  5
187
330
36
100
AcDbEntity
  8
0
  6
Continuous
 62
     3
100
AcDbLine
 10
-4.6249962
 20
21.775002
 30
0.0
 11
-4.6249962
 21
-6.2249999
 31
0.0
  0
LINE
  5
188
330
36
100
AcDbEntity
  8
0
  6
Continuous
 62
     3
100
AcDbLine
 10
-52.625
 20
105.93604
 30
0.0
 11
-52.625
 21
105.275
 31
0.0
  0
LINE
  5
189
330
36
100
AcDbEntity
  8
0
  6
Continuous
 62
     3
100
AcDbLine
 10
-38.625
 20
0.7749999800000001
 30
0.0
 11
-38.625
 21
-2.224999899999999
 31
0.0
  0
LINE
  5
18A
330
36
100
AcDbEntity
  8
0
  6
Continuous
 62
     3
100
AcDbLine
 10
-62.625
 20
0.7749999800000001
 30
0.0
 11
-62.625
 21
-11.225
 31
0.0
  0
LINE
  5
18B
330
36
100
AcDbEntity
  8
0
  6
CENTER
 62
     7
100
AcDbLine
 10
-10.624996
 20
0.7749999800000001
 30
0.0
 11
-10.624996
 21
-9.2250004
 31
0.0
  0
LINE
  5
18C
330
36
100
AcDbEntity
  8
0
  6
Continuous
 62
     3
100
AcDbLine
 10
-47.625
 20
105.275
 30
0.0
 11
-13.624996
 21
105.275
 31
0.0
  0
LINE
  5
18D
330
36
100
AcDbEntity
  8
0
  6
Continuous
 62
     3
100
AcDbLine
 10
-12.624996
 20
3.7750001
 30
0.0
 11
-12.624996
 21
-2.224999899999999
 31
0.0
  0
LINE
  5
18E
330
36
100
AcDbEntity
  8
0
  6
Continuous
 62
     3
100
AcDbLine
 10
-50.625
 20
-6.2249999
 30
0.0
 11
-4.6249962
 21
-6.2249999
 31
0.0
  0
LINE
  5
18F
330
36
100
AcDbEntity
  8
0
  6
Continuous
 62
     3
100
AcDbLine
 10
-50.625
 20
-2.224999899999999
 30
0.0
 11
-10.624996
 21
-2.224999899999999
 31
0.0
  0
LINE
  5
190
330
36
100
AcDbEntity
  8
0
  6
Continuous
 62
     3
100
AcDbLine
 10
-8.6249962
 20
131.27501
 30
0.0
 11
-8.6249962
 21
105.275
 31
0.0
  0
LINE
  5
191
330
36
100
AcDbEntity
  8
0
  6
CENTER
 62
     7
100
AcDbLine
 10
-10.624996
 20
137.98322
 30
0.0
 11
-10.624996
 21
98.566795
 31
0.0
  0
LINE
  5
192
330
36
100
AcDbEntity
  8
0
  6
Continuous
 62
     3
100
AcDbLine
 10
-38.625
 20
-6.2249999
 30
0.0
 11
-38.625
 21
-11.225
 31
0.0
  0
LINE
  5
193
330
36
100
AcDbEntity
  8
0
  6
Continuous
 62
     3
100
AcDbLine
 10
-14.624996
 20
3.7750001
 30
0.0
 11
-14.624996
 21
-2.224999899999999
 31
0.0
  0
LINE
  5
194
330
36
100
AcDbEntity
  8
0
  6
Continuous
 62
     3
100
AcDbLine
 10
-14.624996
 20
106.775
 30
0.0
 11
-12.624996
 21
106.775
 31
0.0
  0
LINE
  5
195
330
36
100
AcDbEntity
  8
0
  6
Continuous
 62
     3
100
AcDbLine
 10
-12.624996
 20
-8.2250004
 30
0.0
 11
-4.6249962
 21
-8.2250004
 31
0.0
  0
LINE
  5
196
330
36
100
AcDbEntity
  8
0
  6
Continuous
 62
     3
100
AcDbLine
 10
-14.624996
 20
129.77501
 30
0.0
 11
-12.624996
 21
129.77501
 31
0.0
  0
LINE
  5
197
330
36
100
AcDbEntity
  8
0
  6
Continuous
 62
     3
100
AcDbLine
 10
-4.6249962
 20
21.775002
 30
0.0
 11
-2.6249962
 21
21.775002
 31
0.0
  0
LINE
  5
198
330
36
100
AcDbEntity
  8
0
  6
Continuous
 62
     3
100
AcDbLine
 10
-14.624996
 20
129.77501
 30
0.0
 11
-14.624996
 21
106.775
 31
0.0
  0
LINE
  5
199
330
36
100
AcDbEntity
  8
0
  6
Continuous
 62
     3
100
AcDbLine
 10
-4.4249954
 20
131.6175199999999
 30
0.0
 11
-4.4249954
 21
104.93248
 31
0.0
  0
LINE
  5
19A
330
36
100
AcDbEntity
  8
0
  6
Continuous
 62
     3
100
AcDbLine
 10
-14.624996
 20
110.775
 30
0.0
 11
-12.624996
 21
110.775
 31
0.0
  0
LINE
  5
19B
330
36
100
AcDbEntity
  8
0
  6
Continuous
 62
     3
100
AcDbLine
 10
-14.624996
 20
125.775
 30
0.0
 11
-12.624996
 21
125.775
 31
0.0
  0
LINE
  5
19C
330
36
100
AcDbEntity
  8
0
  6
Continuous
 62
     3
100
AcDbLine
 10
-2.6249962
 20
131.77501
 30
0.0
 11
-2.6249962
 21
104.775
 31
0.0
  0
LINE
  5
19D
330
36
100
AcDbEntity
  8
0
  6
Continuous
 62
     3
100
AcDbLine
 10
-8.624999
 20
131.25011
 30
0.0
 11
-2.6249959
 21
131.77504
 31
0.0
  0
LINE
  5
19E
330
36
100
AcDbEntity
  8
0
  6
Continuous
 62
     3
100
AcDbLine
 10
-8.6249914
 20
105.29995
 30
0.0
 11
-2.6249931
 21
104.77502
 31
0.0
  0
LINE
  5
19F
330
36
100
AcDbEntity
  8
0
  6
Continuous
 62
     3
100
AcDbLine
 10
-2.6249962
 20
21.775002
 30
0.0
 11
-2.6249962
 21
-6.2249999
 31
0.0
  0
LINE
  5
1A0
330
36
100
AcDbEntity
  8
0
  6
Continuous
 62
     7
100
AcDbLine
 10
115.09311
 20
11.857273
 30
0.0
 11
116.91762
 21
22.204567
 31
0.0
  0
LINE
  5
1A1
330
36
100
AcDbEntity
  8
0
  6
Continuous
 62
     7
100
AcDbLine
 10
116.91762
 20
36.204582
 30
0.0
 11
116.91762
 21
22.204575
 31
0.0
  0
LINE
  5
1A2
330
36
100
AcDbEntity
  8
0
  6
Continuous
 62
     7
100
AcDbLine
 10
93.91761800000001
 20
40.20456699999999
 30
0.0
 11
112.91762
 21
40.20456699999999
 31
0.0
  0
LINE
  5
1A3
330
36
100
AcDbEntity
  8
0
  6
Continuous
 62
     7
100
AcDbLine
 10
93.623489
 20
10.204574
 30
0.0
 11
93.71174599999999
 21
10.204574
 31
0.0
  0
LINE
  5
1A4
330
36
100
AcDbEntity
  8
0
  6
Continuous
 62
     7
100
AcDbLine
 10
89.917618
 20
36.204582
 30
0.0
 11
89.917618
 21
22.204575
 31
0.0
  0
LINE
  5
1A5
330
36
100
AcDbEntity
  8
0
  6
Continuous
 62
     7
100
AcDbLine
 10
99.934921
 20
22.204575
 30
0.0
 11
106.90031
 21
22.204575
 31
0.0
  0
LINE
  5
1A6
330
36
100
AcDbEntity
  8
0
  6
Continuous
 62
     7
100
AcDbLine
 10
89.917618
 20
22.204559
 30
0.0
 11
91.742126
 21
11.85727
 31
0.0
  0
LINE
  5
1A7
330
36
100
AcDbEntity
  8
0
  6
Continuous
 62
     7
100
AcDbLine
 10
95.59310899999999
 20
11.857266
 30
0.0
 11
96.98049199999999
 21
19.725508
 31
0.0
  0
LINE
  5
1A8
330
36
100
AcDbEntity
  8
0
  6
Continuous
 62
     7
100
AcDbLine
 10
109.85474
 20
19.725513
 30
0.0
 11
111.24213
 21
11.85727
 31
0.0
  0
LINE
  5
1A9
330
36
100
AcDbEntity
  8
0
  6
Continuous
 62
     7
100
AcDbLine
 10
113.1235
 20
10.204574
 30
0.0
 11
113.21174
 21
10.204574
 31
0.0
  0
LINE
  5
1AA
330
36
100
AcDbEntity
  8
0
  6
Continuous
 62
     7
100
AcDbLine
 10
93.623489
 20
10.204574
 30
0.0
 11
113.21174
 21
10.204574
 31
0.0
  0
LINE
  5
1AB
330
36
100
AcDbEntity
  8
0
  6
CENTER
 62
     7
100
AcDbLine
 10
100.70761
 20
30.204575
 30
0.0
 11
91.127617
 21
30.204575
 31
0.0
  0
LINE
  5
1AC
330
36
100
AcDbEntity
  8
0
  6
CENTER
 62
     7
100
AcDbLine
 10
95.917618
 20
34.994576
 30
0.0
 11
95.917618
 21
25.414574
 31
0.0
  0
LINE
  5
1AD
330
36
100
AcDbEntity
  8
0
  6
CENTER
 62
     7
100
AcDbLine
 10
115.70761
 20
30.204575
 30
0.0
 11
106.12762
 21
30.204575
 31
0.0
  0
LINE
  5
1AE
330
36
100
AcDbEntity
  8
0
  6
CENTER
 62
     7
100
AcDbLine
 10
110.91762
 20
34.994576
 30
0.0
 11
110.91762
 21
25.414574
 31
0.0
  0
ARC
  5
1AF
330
36
100
AcDbEntity
  8
0
  6
Continuous
 62
     3
100
AcDbCircle
 10
-50.625
 20
-4.2249999
 30
0.0
 40
2.0
100
AcDbArc
 50
90.0
 51
270.0
  0
ARC
  5
1B0
330
36
100
AcDbEntity
  8
0
  6
Continuous
 62
     3
100
AcDbCircle
 10
-50.625
 20
118.275
 30
0.0
 40
20.0
100
AcDbArc
 50
0.0
 51
40.54161699999999
  0
ARC
  5
1B1
330
36
100
AcDbEntity
  8
0
  6
Continuous
 62
     3
100
AcDbCircle
 10
-50.625
 20
118.275
 30
0.0
 40
19.0
100
AcDbArc
 50
0.0
 51
43.17353299999999
  0
CIRCLE
  5
1B2
330
36
100
AcDbEntity
  8
0
  6
Continuous
 62
     3
100
AcDbCircle
 10
-50.625
 20
118.275
 30
0.0
 40
12.5
  0
ARC
  5
1B3
330
36
100
AcDbEntity
  8
0
  6
Continuous
 62
     3
100
AcDbCircle
 10
-13.624996
 20
130.27501
 30
0.0
 40
1.0
100
AcDbArc
 50
0.0
 51
90.0
  0
ARC
  5
1B4
330
36
100
AcDbEntity
  8
0
  6
PHANTOM
 62
     7
100
AcDbCircle
 10
-50.625
 20
-42.96932199999999
 30
0.0
 40
2.6437922
100
AcDbArc
 50
210.48382
 51
329.51618
  0
ARC
  5
1B5
330
36
100
AcDbEntity
  8
0
  6
Continuous
 62
     3
100
AcDbCircle
 10
-50.625
 20
118.275
 30
0.0
 40
20.0
100
AcDbArc
 50
319.4584
 51
0.0
  0
ARC
  5
1B6
330
36
100
AcDbEntity
  8
0
  6
Continuous
 62
     3
100
AcDbCircle
 10
-50.625
 20
118.275
 30
0.0
 40
19.0
100
AcDbArc
 50
316.82645
 51
0.0
  0
ARC
  5
1B7
330
36
100
AcDbEntity
  8
0
  6
Continuous
 62
     3
100
AcDbCircle
 10
-48.625
 20
131.27501
 30
0.0
 40
4.0
100
AcDbArc
 50
90.0
 51
180.0
  0
ARC
  5
1B8
330
36
100
AcDbEntity
  8
0
  6
Continuous
 62
     3
100
AcDbCircle
 10
-47.625
 20
130.27501
 30
0.0
 40
1.0
100
AcDbArc
 50
90.0
 51
160.74502
  0
ARC
  5
1B9
330
36
100
AcDbEntity
  8
0
  6
Continuous
 62
     3
100
AcDbCircle
 10
-50.625
 20
118.275
 30
0.0
 40
19.0
100
AcDbArc
 50
63.474654
 51
296.52535
  0
ARC
  5
1BA
330
36
100
AcDbEntity
  8
0
  6
Continuous
 62
     3
100
AcDbCircle
 10
-50.625
 20
118.275
 30
0.0
 40
20.0
100
AcDbArc
 50
58.211652
 51
301.78833
  0
ARC
  5
1BB
330
36
100
AcDbEntity
  8
0
  6
Continuous
 62
     3
100
AcDbCircle
 10
-10.624996
 20
-4.2249999
 30
0.0
 40
2.0
100
AcDbArc
 50
270.0
 51
90.0
  0
ARC
  5
1BC
330
36
100
AcDbEntity
  8
0
  6
Continuous
 62
     3
100
AcDbCircle
 10
-47.625
 20
106.275
 30
0.0
 40
1.0
100
AcDbArc
 50
199.2545599999999
 51
270.0
  0
ARC
  5
1BD
330
36
100
AcDbEntity
  8
0
  6
Continuous
 62
     3
100
AcDbCircle
 10
-48.625
 20
105.275
 30
0.0
 40
4.0
100
AcDbArc
 50
180.0
 51
270.0
  0
ARC
  5
1BE
330
36
100
AcDbEntity
  8
0
  6
Continuous
 62
     3
100
AcDbCircle
 10
-12.624996
 20
105.275
 30
0.0
 40
4.0
100
AcDbArc
 50
270.0
 51
0.0
  0
ARC
  5
1BF
330
36
100
AcDbEntity
  8
0
  6
Continuous
 62
     3
100
AcDbCircle
 10
-12.624996
 20
131.27501
 30
0.0
 40
4.0
100
AcDbArc
 50
0.0
 51
90.0
  0
ARC
  5
1C0
330
36
100
AcDbEntity
  8
0
  6
Continuous
 62
     3
100
AcDbCircle
 10
-13.624996
 20
106.275
 30
0.0
 40
1.0
100
AcDbArc
 50
270.0
 51
0.0
  0
ARC
  5
1C1
330
36
100
AcDbEntity
  8
0
  6
Continuous
 62
     3
100
AcDbCircle
 10
-4.6249962
 20
-6.2249999
 30
0.0
 40
2.0
100
AcDbArc
 50
270.0
 51
0.0
  0
ARC
  5
1C2
330
36
100
AcDbEntity
  8
0
  6
Continuous
 62
     3
100
AcDbCircle
 10
-12.624996
 20
-6.2249999
 30
0.0
 40
2.0
100
AcDbArc
 50
179.99999
 51
270.0
  0
CIRCLE
  5
1C3
330
36
100
AcDbEntity
  8
0
  6
Continuous
 62
     7
100
AcDbCircle
 10
-125.95438
 20
112.89864
 30
0.0
 40
1.8
  0
ARC
  5
1C4
330
36
100
AcDbEntity
  8
0
  6
Continuous
 62
     7
100
AcDbCircle
 10
112.91762
 20
36.204582
 30
0.0
 40
4.0
100
AcDbArc
 50
0.0
 51
90.0
  0
ARC
  5
1C5
330
36
100
AcDbEntity
  8
0
  6
Continuous
 62
     7
100
AcDbCircle
 10
93.91761800000001
 20
36.204582
 30
0.0
 40
4.0
100
AcDbArc
 50
90.0
 51
180.0
  0
ARC
  5
1C6
330
36
100
AcDbEntity
  8
0
  6
Continuous
 62
     7
100
AcDbCircle
 10
93.97615100000001
 20
14.204574
 30
0.0
 40
2.0
100
AcDbArc
 50
270.0
 51
349.99997
  0
CIRCLE
  5
1C7
330
36
100
AcDbEntity
  8
0
  6
Continuous
 62
     7
100
AcDbCircle
 10
95.917618
 20
30.204575
 30
0.0
 40
2.25
  0
ARC
  5
1C8
330
36
100
AcDbEntity
  8
0
  6
Continuous
 62
     7
100
AcDbCircle
 10
93.359085
 20
14.204574
 30
0.0
 40
2.0
100
AcDbArc
 50
190.00003
 51
270.0
  0
ARC
  5
1C9
330
36
100
AcDbEntity
  8
0
  6
Continuous
 62
     7
100
AcDbCircle
 10
93.623489
 20
12.204574
 30
0.0
 40
2.0
100
AcDbArc
 50
270.0
 51
349.99997
  0
CIRCLE
  5
1CA
330
36
100
AcDbEntity
  8
0
  6
Continuous
 62
     7
100
AcDbCircle
 10
110.91762
 20
30.204575
 30
0.0
 40
2.25
  0
ARC
  5
1CB
330
36
100
AcDbEntity
  8
0
  6
Continuous
 62
     7
100
AcDbCircle
 10
99.934921
 20
19.204575
 30
0.0
 40
3.0
100
AcDbArc
 50
90.0
 51
169.99999
  0
ARC
  5
1CC
330
36
100
AcDbEntity
  8
0
  6
Continuous
 62
     7
100
AcDbCircle
 10
106.90031
 20
19.204575
 30
0.0
 40
3.0
100
AcDbArc
 50
10.000005
 51
90.0
  0
ARC
  5
1CD
330
36
100
AcDbEntity
  8
0
  6
Continuous
 62
     7
100
AcDbCircle
 10
112.85909
 20
14.204574
 30
0.0
 40
2.0
100
AcDbArc
 50
190.00003
 51
270.0
  0
ARC
  5
1CE
330
36
100
AcDbEntity
  8
0
  6
Continuous
 62
     7
100
AcDbCircle
 10
113.47615
 20
14.204574
 30
0.0
 40
2.0
100
AcDbArc
 50
270.0
 51
349.99997
  0
ARC
  5
1CF
330
36
100
AcDbEntity
  8
0
  6
Continuous
 62
     7
100
AcDbCircle
 10
93.71174599999999
 20
12.204574
 30
0.0
 40
2.0
100
AcDbArc
 50
190.00003
 51
270.0
  0
ARC
  5
1D0
330
36
100
AcDbEntity
  8
0
  6
Continuous
 62
     7
100
AcDbCircle
 10
113.21174
 20
12.204574
 30
0.0
 40
2.0
100
AcDbArc
 50
190.00003
 51
270.0
  0
ARC
  5
1D1
330
36
100
AcDbEntity
  8
0
  6
Continuous
 62
     7
100
AcDbCircle
 10
113.1235
 20
12.204574
 30
0.0
 40
2.0
100
AcDbArc
 50
270.0
 51
349.99997
  0
TEXT
  5
1D2
330
36
100
AcDbEntity
  8
0
  6
Continuous
 62
     7
100
AcDbText
 10
-188.143
 20
95.4
 30
0.0
 40
3.2
  1
＊
 41
0.90047268
100
AcDbText
  0
TEXT
  5
1D3
330
36
100
AcDbEntity
  8
0
  6
Continuous
 62
     7
100
AcDbText
 10
-205.343
 20
167.4
 30
0.0
 40
3.2
  1
品　名
 41
0.85537027
100
AcDbText
  0
TEXT
  5
1D4
330
36
100
AcDbEntity
  8
0
  6
Continuous
 62
     7
100
AcDbText
 10
-205.343
 20
159.4
 30
0.0
 40
3.2
  1
品　番
 41
0.85537027
100
AcDbText
  0
TEXT
  5
1D5
330
36
100
AcDbEntity
  8
0
  6
Continuous
 62
     7
100
AcDbText
 10
-188.143
 20
87.4
 30
0.0
 40
3.2
  1
＊
 41
0.90047268
100
AcDbText
  0
TEXT
  5
1D6
330
36
100
AcDbEntity
  8
0
  6
Continuous
 62
     7
100
AcDbText
 10
-188.143
 20
79.40000000000001
 30
0.0
 40
3.2
  1
＊
 41
0.90047268
100
AcDbText
  0
TEXT
  5
1D7
330
36
100
AcDbEntity
  8
0
  6
Continuous
 62
     7
100
AcDbText
 10
-205.343
 20
151.4
 30
0.0
 40
3.2
  1
材　質
 41
0.85537027
100
AcDbText
  0
TEXT
  5
1D8
330
36
100
AcDbEntity
  8
0
  6
Continuous
 62
     7
100
AcDbText
 10
-205.343
 20
143.4
 30
0.0
 40
3.2
  1
仕上げ
 41
0.85537027
100
AcDbText
  0
TEXT
  5
1D9
330
36
100
AcDbEntity
  8
0
  6
Continuous
 62
     7
100
AcDbText
 10
-188.143
 20
103.4
 30
0.0
 40
3.2
  1
＊
 41
0.90047268
100
AcDbText
  0
TEXT
  5
1DA
330
36
100
AcDbEntity
  8
0
  6
Continuous
 62
     7
100
AcDbText
 10
-188.143
 20
111.4
 30
0.0
 40
3.2
  1
呼び３．５×１６トラスタッピンネジ１種＋ＳＵＳ　２本付
 41
0.8418395499999999
100
AcDbText
  0
TEXT
  5
1DB
330
36
100
AcDbEntity
  8
0
  6
Continuous
 62
     7
100
AcDbText
 10
-208.543
 20
119.4
 30
0.0
 40
3.2
  1
セットビス
 41
0.84892707
100
AcDbText
  0
TEXT
  5
1DC
330
36
100
AcDbEntity
  8
0
  6
Continuous
 62
     7
100
AcDbText
 10
-188.143
 20
119.4
 30
0.0
 40
3.2
  1
オールアンカーＭ１０×５０　１本付
 41
0.8427415999999999
100
AcDbText
  0
TEXT
  5
1DD
330
36
100
AcDbEntity
  8
0
  6
Continuous
 62
     7
100
AcDbText
 10
-203.743
 20
95.4
 30
0.0
 40
3.2
  1
備考
 41
0.8643907499999999
100
AcDbText
  0
TEXT
  5
1DE
330
36
100
AcDbEntity
  8
0
  6
Continuous
 62
     7
100
AcDbText
 10
-205.343
 20
135.4
 30
0.0
 40
3.2
  1
定　尺
 41
0.85537027
100
AcDbText
  0
TEXT
  5
1DF
330
36
100
AcDbEntity
  8
0
  6
Continuous
 62
     7
100
AcDbText
 10
-206.943
 20
127.4
 30
0.0
 40
3.2
  1
左右勝手
 41
0.8512700499999999
100
AcDbText
  0
TEXT
  5
1E0
330
36
100
AcDbEntity
  8
0
  6
Continuous
 62
     7
100
AcDbText
 10
-188.143
 20
167.4
 30
0.0
 40
3.2
  1
ドアーストップ（フック付）
 41
0.84350122
100
AcDbText
  0
TEXT
  5
1E1
330
36
100
AcDbEntity
  8
0
  6
Continuous
 62
     7
100
AcDbText
 10
-188.143
 20
159.4
 30
0.0
 40
3.2
  1
ＤＣ－５３Ｚ
 41
0.84892707
100
AcDbText
  0
TEXT
  5
1E2
330
36
100
AcDbEntity
  8
0
  6
Continuous
 62
     7
100
AcDbText
 10
-188.143
 20
151.4
 30
0.0
 40
3.2
  1
亜鉛ダイキャスト
 41
0.8455654
100
AcDbText
  0
TEXT
  5
1E3
330
36
100
AcDbEntity
  8
0
  6
Continuous
 62
     7
100
AcDbText
 10
-188.143
 20
143.4
 30
0.0
 40
3.2
  1
パールニッケルクロム
 41
0.84350122
100
AcDbText
  0
TEXT
  5
1E4
330
36
100
AcDbEntity
  8
0
  6
Continuous
 62
     7
100
AcDbText
 10
-188.37855
 20
127.36617
 30
0.0
 40
3.2
  1
無し
 41
0.8643907499999999
100
AcDbText
  0
DIMENSION
  5
1E5
330
36
100
AcDbEntity
  8
0
  6
Continuous
 62
     7
100
AcDbDimension
  2
*D1
 10
-80.625
 20
-4.2249999
 30
0.0
 11
-80.625
 21
-9.2250004
 31
0.0
 71
     5
 42
-1.0
  3
DIMSTYLE
100
AcDbAlignedDimension
 13
-70.625
 23
-14.225
 33
0.0
 14
-55.625
 24
-4.2249999
 34
0.0
 50
90.0
100
AcDbRotatedDimension
1001
ACAD
1000
DSTYLE
1002
{
1070
    77
1070
     1
1070
   172
1070
     1
1002
}
  0
DIMENSION
  5
1E6
330
36
100
AcDbEntity
  8
0
  6
Continuous
 62
     7
100
AcDbDimension
  2
*D2
 10
-90.625
 20
-14.225
 30
0.0
 11
-90.625
 21
-6.724999900000001
 31
0.0
 71
     5
 42
-1.0
  3
DIMSTYLE
100
AcDbAlignedDimension
 13
-63.125
 23
0.7749999800000001
 33
0.0
 14
-70.625
 24
-14.225
 34
0.0
 50
90.0
100
AcDbRotatedDimension
1001
ACAD
1000
DSTYLE
1002
{
1070
    77
1070
     1
1070
   172
1070
     1
1002
}
  0
DIMENSION
  5
1E7
330
36
100
AcDbEntity
  8
0
  6
Continuous
 62
     7
100
AcDbDimension
  2
*D3
 10
-90.625
 20
0.7749999800000001
 30
0.0
 11
-90.625
 21
13.275001
 31
0.0
 71
     5
 42
-1.0
  3
DIMSTYLE
100
AcDbAlignedDimension
 13
-63.125
 23
25.775002
 33
0.0
 14
-63.125
 24
0.7749999800000001
 34
0.0
 50
90.0
100
AcDbRotatedDimension
1001
ACAD
1000
DSTYLE
1002
{
1070
    77
1070
     1
1070
   172
1070
     1
1002
}
  0
DIMENSION
  5
1E8
330
36
100
AcDbEntity
  8
0
  6
Continuous
 62
     7
100
AcDbDimension
  2
*D4
 10
-100.625
 20
-14.225
 30
0.0
 11
-100.625
 21
5.775001
 31
0.0
 71
     5
 42
-1.0
  3
DIMSTYLE
100
AcDbAlignedDimension
 13
-63.125
 23
25.775002
 33
0.0
 14
-70.625
 24
-14.225
 34
0.0
 50
90.0
100
AcDbRotatedDimension
1001
ACAD
1000
DSTYLE
1002
{
1070
    77
1070
     1
1070
   172
1070
     1
1002
}
  0
DIMENSION
  5
1E9
330
36
100
AcDbEntity
  8
0
  6
Continuous
 62
     7
100
AcDbDimension
  2
*D5
 10
12.375004
 20
3.7750001
 30
0.0
 11
12.375004
 21
-2.224999899999999
 31
0.0
 71
     5
 42
-1.0
  3
DIMSTYLE
100
AcDbAlignedDimension
 13
-4.6249962
 23
-8.2250004
 33
0.0
 14
-12.624996
 24
3.7750001
 34
0.0
 50
90.0
100
AcDbRotatedDimension
1001
ACAD
1000
DSTYLE
1002
{
1070
    77
1070
     1
1070
   172
1070
     1
1002
}
  0
DIMENSION
  5
1EA
330
36
100
AcDbEntity
  8
0
  6
Continuous
 62
     7
100
AcDbDimension
  2
*D6
 10
22.375004
 20
-8.2250004
 30
0.0
 11
22.375004
 21
6.775000999999999
 31
0.0
 71
     5
 42
-1.0
  3
DIMSTYLE
100
AcDbAlignedDimension
 13
-2.6249962
 23
21.775002
 33
0.0
 14
-4.6249962
 24
-8.2250004
 34
0.0
 50
90.0
100
AcDbRotatedDimension
1001
ACAD
1000
DSTYLE
1002
{
1070
    77
1070
     1
1070
   172
1070
     1
1002
}
  0
DIMENSION
  5
1EB
330
36
100
AcDbEntity
  8
0
  6
Continuous
 62
     7
100
AcDbDimension
  2
*D7
 10
-4.6249962
 20
35.775002
 30
0.0
 11
-3.6249962
 21
35.775002
 31
0.0
 71
     5
 42
-1.0
  3
DIMSTYLE
100
AcDbAlignedDimension
 13
-2.6249962
 23
21.775002
 33
0.0
 14
-4.6249962
 24
21.775002
 34
0.0
100
AcDbRotatedDimension
1001
ACAD
1000
DSTYLE
1002
{
1070
    77
1070
     1
1070
   172
1070
     1
1002
}
  0
DIMENSION
  5
1EC
330
36
100
AcDbEntity
  8
0
  6
Continuous
 62
     7
100
AcDbDimension
  2
*D8
 10
-12.624996
 20
35.775002
 30
0.0
 11
-8.6249962
 21
35.775002
 31
0.0
 71
     5
 42
-1.0
  3
DIMSTYLE
100
AcDbAlignedDimension
 13
-4.6249962
 23
21.775002
 33
0.0
 14
-12.624996
 24
3.7750001
 34
0.0
100
AcDbRotatedDimension
1001
ACAD
1000
DSTYLE
1002
{
1070
    77
1070
     1
1070
   172
1070
     1
1070
    75
1070
     1
1002
}
  0
DIMENSION
  5
1ED
330
36
100
AcDbEntity
  8
0
  6
Continuous
 62
     7
100
AcDbDimension
  2
*D9
 10
-14.624996
 20
45.775002
 30
0.0
 11
-8.6249962
 21
45.775002
 31
0.0
 71
     5
 42
-1.0
  3
DIMSTYLE
100
AcDbAlignedDimension
 13
-2.6249962
 23
21.775002
 33
0.0
 14
-14.624996
 24
3.7750001
 34
0.0
100
AcDbRotatedDimension
1001
ACAD
1000
DSTYLE
1002
{
1070
    77
1070
     1
1070
   172
1070
     1
1002
}
  0
DIMENSION
  5
1EE
330
36
100
AcDbEntity
  8
0
  6
Continuous
 62
     7
100
AcDbDimension
  2
*D10
 10
-38.125
 20
45.775002
 30
0.0
 11
-50.625
 21
45.775002
 31
0.0
 71
     5
 42
-1.0
  3
DIMSTYLE
100
AcDbAlignedDimension
 13
-63.125
 23
25.775002
 33
0.0
 14
-38.125
 24
25.775002
 34
0.0
100
AcDbRotatedDimension
1001
ACAD
1000
DSTYLE
1002
{
1070
    77
1070
     1
1070
   172
1070
     1
1002
}
  0
DIMENSION
  5
1EF
330
36
100
AcDbEntity
  8
0
  6
Continuous
 62
     7
100
AcDbDimension
  2
*D11
 10
-10.624996
 20
158.27501
 30
0.0
 11
-30.624998
 21
158.27501
 31
0.0
 71
     5
 42
-1.0
  3
DIMSTYLE
100
AcDbAlignedDimension
 13
-50.625
 23
143.27501
 33
0.0
 14
-10.624996
 24
137.98322
 34
0.0
100
AcDbRotatedDimension
1001
ACAD
1000
DSTYLE
1002
{
1070
    77
1070
     1
1070
   172
1070
     1
1002
}
  0
DIMENSION
  5
1F0
330
36
100
AcDbEntity
  8
0
  6
Continuous
 62
     7
100
AcDbDimension
  2
*D12
 10
-8.6249962
 20
148.27501
 30
0.0
 11
-1.272409799999999
 21
148.27501
 31
0.0
 71
     5
 42
-1.0
  3
DIMSTYLE
100
AcDbAlignedDimension
 13
-12.624996
 23
130.27501
 33
0.0
 14
-8.6249962
 24
131.27501
 34
0.0
100
AcDbRotatedDimension
1001
ACAD
1000
DSTYLE
1002
{
1070
    77
1070
     1
1070
   172
1070
     1
1002
}
  0
DIMENSION
  5
1F1
330
36
100
AcDbEntity
  8
0
  6
Continuous
 62
     7
100
AcDbDimension
  2
*D13
 10
-30.62499600000001
 20
-80.61311299999999
 30
0.0
 11
-50.625
 21
-80.61311299999999
 31
0.0
 71
     5
 42
-1.0
  3
DIMSTYLE
100
AcDbAlignedDimension
 13
-70.625
 23
-14.225
 33
0.0
 14
-30.62499600000001
 24
-14.225
 34
0.0
100
AcDbRotatedDimension
1001
ACAD
1000
DSTYLE
1002
{
1070
    77
1070
     1
1070
   172
1070
     1
1002
}
  0
DIMENSION
  5
1F2
330
36
100
AcDbEntity
  8
0
  6
Continuous
 62
     7
100
AcDbDimension
  2
*D14
 10
-38.625
 20
-70.61311299999999
 30
0.0
 11
-50.625
 21
-70.61311299999999
 31
0.0
 71
     5
 42
-1.0
  3
DIMSTYLE
100
AcDbAlignedDimension
 13
-62.625
 23
-11.225
 33
0.0
 14
-38.625
 24
-11.225
 34
0.0
100
AcDbRotatedDimension
1001
ACAD
1000
DSTYLE
1002
{
1070
    77
1070
     1
1070
   172
1070
     1
1002
}
  0
DIMENSION
  5
1F3
330
36
100
AcDbEntity
  8
0
  6
Continuous
 62
     7
100
AcDbDimension
  2
*D15
 10
-45.625
 20
-60.61311299999999
 30
0.0
 11
-6.6752038
 21
-60.61311299999999
 31
0.0
 71
     5
 42
-1.0
  3
DIMSTYLE
100
AcDbAlignedDimension
 13
-55.625
 23
-33.87504600000001
 33
0.0
 14
-45.625
 24
-33.87504600000001
 34
0.0
100
AcDbRotatedDimension
1001
ACAD
1000
DSTYLE
1002
{
1070
    77
1070
     1
1070
   172
1070
     1
1002
}
  0
DIMENSION
  5
1F4
330
36
100
AcDbEntity
  8
0
  6
Continuous
 62
     7
100
AcDbDimension
  2
*D16
 10
-100.625
 20
-14.225
 30
0.0
 11
-100.625
 21
-29.267748
 31
0.0
 71
     5
 42
-1.0
  3
DIMSTYLE
100
AcDbAlignedDimension
 13
-52.903351
 23
-44.31049699999999
 33
0.0
 14
-70.625
 24
-14.225
 34
0.0
 50
90.0
100
AcDbRotatedDimension
1001
ACAD
1000
DSTYLE
1002
{
1070
    77
1070
     1
1070
   172
1070
     1
1070
    76
1070
     1
1002
}
  0
DIMENSION
  5
1F5
330
36
100
AcDbEntity
  8
0
  6
Continuous
 62
     7
100
AcDbDimension
  2
*D17
 10
127.82632
 20
30.204575
 30
0.0
 11
127.82632
 21
20.204575
 31
0.0
 71
     5
 42
-1.0
  3
DIMSTYLE
100
AcDbAlignedDimension
 13
113.21174
 23
10.204574
 33
0.0
 14
115.70761
 24
30.204575
 34
0.0
 50
90.0
100
AcDbRotatedDimension
1001
ACAD
1000
DSTYLE
1002
{
1070
    77
1070
     1
1070
   172
1070
     1
1002
}
  0
DIMENSION
  5
1F6
330
36
100
AcDbEntity
  8
0
  6
Continuous
 62
     7
100
AcDbDimension
  2
*D18
 10
127.82632
 20
40.20456699999999
 30
0.0
 11
127.82632
 21
35.204582
 31
0.0
 71
     5
 42
-1.0
  3
DIMSTYLE
100
AcDbAlignedDimension
 13
121.91762
 23
30.204575
 33
0.0
 14
112.91762
 24
40.20456699999999
 34
0.0
 50
90.0
100
AcDbRotatedDimension
1001
ACAD
1000
DSTYLE
1002
{
1070
    77
1070
     1
1070
   172
1070
     1
1070
    75
1070
     1
1002
}
  0
DIMENSION
  5
1F7
330
36
100
AcDbEntity
  8
0
  6
Continuous
 62
     7
100
AcDbDimension
  2
*D19
 10
110.91762
 20
52.717537
 30
0.0
 11
103.41762
 21
52.717537
 31
0.0
 71
     5
 42
-1.0
  3
DIMSTYLE
100
AcDbAlignedDimension
 13
95.917618
 23
34.994576
 33
0.0
 14
110.91762
 24
34.994576
 34
0.0
100
AcDbRotatedDimension
1001
ACAD
1000
DSTYLE
1002
{
1070
    77
1070
     1
1070
   172
1070
     1
1002
}
  0
DIMENSION
  5
1F8
330
36
100
AcDbEntity
  8
0
  6
Continuous
 62
     7
100
AcDbDimension
  2
*D20
 10
109.41762
 20
-3.457466799999999
 30
0.0
 11
103.41762
 21
-3.457466799999999
 31
0.0
 71
     5
 42
-1.0
  3
DIMSTYLE
100
AcDbAlignedDimension
 13
97.417618
 23
22.204575
 33
0.0
 14
109.41762
 24
22.204575
 34
0.0
100
AcDbRotatedDimension
1001
ACAD
1000
DSTYLE
1002
{
1070
    77
1070
     1
1070
   172
1070
     1
1002
}
  0
DIMENSION
  5
1F9
330
36
100
AcDbEntity
  8
0
  6
Continuous
 62
     7
100
AcDbDimension
  2
*D21
 10
116.91762
 20
-11.3929
 30
0.0
 11
103.6114
 21
-11.3929
 31
0.0
 71
     5
 42
-1.0
  3
DIMSTYLE
100
AcDbAlignedDimension
 13
89.917618
 23
22.204575
 33
0.0
 14
116.91762
 24
22.204575
 34
0.0
100
AcDbRotatedDimension
1001
ACAD
1000
DSTYLE
1002
{
1070
    77
1070
     1
1070
   172
1070
     1
1002
}
  0
POLYLINE
  5
1FA
330
36
100
AcDbEntity
  8
0
  6
Continuous
 62
     7
100
AcDb2dPolyline
 66
     1
 10
0.0
 20
0.0
 30
0.0
  0
VERTEX
  5
1FB
330
1FA
100
AcDbEntity
  8
0
  6
Continuous
 62
     7
100
AcDbVertex
100
AcDb2dVertex
 10
111.93532
 20
32.21125
 30
0.0
  0
VERTEX
  5
1FC
330
1FA
100
AcDbEntity
  8
0
  6
Continuous
 62
     7
100
AcDbVertex
100
AcDb2dVertex
 10
118.63369
 20
45.41909
 30
0.0
  0
VERTEX
  5
1FD
330
1FA
100
AcDbEntity
  8
0
  6
Continuous
 62
     7
100
AcDbVertex
100
AcDb2dVertex
 10
139.5863
 20
45.419106
 30
0.0
  0
SEQEND
  5
1FE
330
1FA
100
AcDbEntity
  8
0
  6
Continuous
 62
     7
  0
TEXT
  5
1FF
330
36
100
AcDbEntity
  8
0
  6
Continuous
 62
     7
100
AcDbText
 10
121.30059
 20
46.21910599999999
 30
0.0
 40
3.2
  1
２－%%C４．５
 41
0.84739783
100
AcDbText
  0
INSERT
  5
200
330
36
100
AcDbEntity
  8
0
  6
Continuous
 62
     7
100
AcDbBlockReference
  2
*D22
 10
0.0
 20
0.0
 30
0.0
  0
ENDSEC
  0
SECTION
  2
OBJECTS
  0
DICTIONARY
  5
C
330
0
100
AcDbDictionary
281
     1
  3
ACAD_COLOR
350
2F
  3
ACAD_GROUP
350
D
  3
ACAD_LAYOUT
350
2E
  3
ACAD_MATERIAL
350
10
  3
ACAD_MLINESTYLE
350
2B
  3
ACAD_PLOTSETTINGS
350
2D
  3
ACAD_PLOTSTYLENAME
350
E
  3
ACAD_TABLESTYLE
350
30
  3
ACAD_VISUALSTYLE
350
14
  3
AcDbVariableDictionary
350
2D9
  3
AcmDictionary
350
25B
  3
AMG
350
202
  3
AMGSNAPSETTINGS
350
2B6
  3
DWGPROPS
350
2DE
  0
DICTIONARY
  5
2F
102
{ACAD_REACTORS
330
C
102
}
330
C
100
AcDbDictionary
281
     1
  0
DICTIONARY
  5
D
102
{ACAD_REACTORS
330
C
102
}
330
C
100
AcDbDictionary
281
     1
  0
DICTIONARY
  5
2E
102
{ACAD_REACTORS
330
C
102
}
330
C
100
AcDbDictionary
281
     1
  3
Model
350
39
  3
レイアウト1
350
35
  0
DICTIONARY
  5
10
102
{ACAD_REACTORS
330
C
102
}
330
C
100
AcDbDictionary
281
     1
  3
ByBlock
350
12
  3
ByLayer
350
11
  3
Global
350
13
  0
DICTIONARY
  5
2B
102
{ACAD_REACTORS
330
C
102
}
330
C
100
AcDbDictionary
281
     1
  3
Standard
350
2C
  0
DICTIONARY
  5
2D
102
{ACAD_REACTORS
330
C
102
}
330
C
100
AcDbDictionary
281
     1
  0
ACDBDICTIONARYWDFLT
  5
E
102
{ACAD_REACTORS
330
C
102
}
330
C
100
AcDbDictionary
281
     1
  3
Normal
350
F
100
AcDbDictionaryWithDefault
340
F
  0
DICTIONARY
  5
30
102
{ACAD_REACTORS
330
C
102
}
330
C
100
AcDbDictionary
281
     1
  3
Standard
350
31
  0
DICTIONARY
  5
14
102
{ACAD_REACTORS
330
C
102
}
330
C
100
AcDbDictionary
281
     1
  3
2dWireframe
350
1A
  3
3D Hidden
350
1C
  3
3dWireframe
350
1B
  3
Basic
350
19
  3
Brighten
350
20
  3
ColorChange
350
24
  3
Conceptual
350
1D
  3
Dim
350
1F
  3
Facepattern
350
23
  3
Flat
350
15
  3
FlatWithEdges
350
16
  3
Gouraud
350
17
  3
GouraudWithEdges
350
18
  3
Linepattern
350
22
  3
Realistic
350
1E
  3
Thicken
350
21
  0
DICTIONARY
  5
2D9
102
{ACAD_REACTORS
330
C
102
}
330
C
100
AcDbDictionary
281
     1
  3
CTABLESTYLE
350
2DA
  3
DIMASSOC
350
2DD
  3
INDEXCTL
350
2DC
  3
SORTENTS
350
2DB
  0
DICTIONARY
  5
25B
102
{ACAD_REACTORS
330
C
102
}
330
C
100
AcDbDictionary
281
     1
  3
AcmStdDictionary
350
266
  3
AMDTSECTSYM_ARROWCOLOR
350
287
  0
DICTIONARY
  5
202
102
{ACAD_REACTORS
330
C
102
}
330
C
100
AcDbDictionary
281
     1
  0
DICTIONARY
  5
2B6
102
{ACAD_REACTORS
330
C
102
}
330
C
100
AcDbDictionary
281
     1
  0
XRECORD
  5
2DE
102
{ACAD_REACTORS
330
C
102
}
330
C
100
AcDbXrecord
280
     1
  1
DWGPROPS COOKIE
  2

  3

  4

  6

  7

  8
Administrator
  9

300
=
301
=
302
=
303
=
304
=
305
=
306
=
307
=
308
=
309
=
 40
0.0140156712962963
 41
2454260.793510556
 42
2454260.807525498
  1

 90
        0
  0
LAYOUT
  5
39
102
{ACAD_XDICTIONARY
360
2E9
102
}
102
{ACAD_REACTORS
330
2E
102
}
330
2E
100
AcDbPlotSettings
  1

  2
\\CAD-SRV01\FX DocuColor 1250 PLW
  4
A4
  6

 40
4.773083209991455
 41
4.815417766571044
 42
4.815399169921875
 43
4.7730712890625
 44
209.9733276367187
 45
296.9683227539062
 46
0.0
 47
0.0
 48
-211.0
 49
-100.0
140
170.0
141
173.0
142
1.0
143
35.0
 70
 11936
 72
     0
 73
     1
 74
     4
  7

 75
     0
147
0.028898048117563
148
5359.399999999999
149
2540.0
100
AcDbLayout
  1
Model
 70
     1
 71
     0
 10
0.0
 20
0.0
 11
12.0
 21
9.0
 12
0.0
 22
0.0
 32
0.0
 14
0.0
 24
0.0
 34
0.0
 15
0.0
 25
0.0
 35
0.0
146
0.0
 13
0.0
 23
0.0
 33
0.0
 16
1.0
 26
0.0
 36
0.0
 17
0.0
 27
1.0
 37
0.0
 76
     0
330
36
331
45
1001
ACAD_PSEXT
1000
\\CAD-SRV01\FX DocuColor 1250 PLW
1000
FX DocuColor 1250 PLW
1000
\\CAD-SRV01
1000

1070
     0
  0
LAYOUT
  5
35
102
{ACAD_XDICTIONARY
360
2E7
102
}
102
{ACAD_REACTORS
330
2E
102
}
330
2E
100
AcDbPlotSettings
  1

  2
\\CAD-SRV01\FX DocuColor 1250 PLW
  4

  6

 40
0.0
 41
0.0
 42
0.0
 43
0.0
 44
0.0
 45
0.0
 46
0.0
 47
0.0
 48
0.0
 49
0.0
140
0.0
141
0.0
142
1.0
143
1.0
 70
   688
 72
     0
 73
     0
 74
     5
  7

 75
    16
147
1.0
148
0.0
149
0.0
100
AcDbLayout
  1
レイアウト1
 70
     1
 71
     1
 10
-211.0
 20
-100.0
 11
170.0
 21
173.0
 12
0.0
 22
0.0
 32
0.0
 14
1.000000000000000E+20
 24
1.000000000000000E+20
 34
1.000000000000000E+20
 15
-1.000000000000000E+20
 25
-1.000000000000000E+20
 35
-1.000000000000000E+20
146
0.0
 13
0.0
 23
0.0
 33
0.0
 16
1.0
 26
0.0
 36
0.0
 17
0.0
 27
1.0
 37
0.0
 76
     0
330
32
  0
MATERIAL
  5
12
102
{ACAD_XDICTIONARY
360
2E1
102
}
102
{ACAD_REACTORS
330
10
102
}
330
10
100
AcDbMaterial
  1
ByBlock
  0
MATERIAL
  5
11
102
{ACAD_XDICTIONARY
360
2DF
102
}
102
{ACAD_REACTORS
330
10
102
}
330
10
100
AcDbMaterial
  1
ByLayer
  0
MATERIAL
  5
13
102
{ACAD_XDICTIONARY
360
2E3
102
}
102
{ACAD_REACTORS
330
10
102
}
330
10
100
AcDbMaterial
  1
Global
  0
MLINESTYLE
  5
2C
102
{ACAD_REACTORS
330
2B
102
}
330
2B
100
AcDbMlineStyle
  2
STANDARD
 70
     0
  3

 62
   256
 51
90.0
 52
90.0
 71
     2
 49
0.5
 62
   256
  6
BYLAYER
 49
-0.5
 62
   256
  6
BYLAYER
  0
ACDBPLACEHOLDER
  5
F
102
{ACAD_REACTORS
330
E
102
}
330
E
  0
TABLESTYLE
  5
31
102
{ACAD_XDICTIONARY
360
2E5
102
}
102
{ACAD_REACTORS
330
30
102
}
330
30
100
AcDbTableStyle
  3
Standard
 70
     0
 71
     0
 40
0.06
 41
0.06
280
     0
281
     0
  7
STANDARD
140
0.18
170
     2
 62
     0
 63
     7
283
     0
274
    -2
284
     1
 64
     0
275
    -2
285
     1
 65
     0
276
    -2
286
     1
 66
     0
277
    -2
287
     1
 67
     0
278
    -2
288
     1
 68
     0
279
    -2
289
     1
 69
     0
  7
STANDARD
140
0.25
170
     5
 62
     0
 63
     7
283
     0
274
    -2
284
     1
 64
     0
275
    -2
285
     1
 65
     0
276
    -2
286
     1
 66
     0
277
    -2
287
     1
 67
     0
278
    -2
288
     1
 68
     0
279
    -2
289
     1
 69
     0
  7
STANDARD
140
0.18
170
     5
 62
     0
 63
     7
283
     0
274
    -2
284
     1
 64
     0
275
    -2
285
     1
 65
     0
276
    -2
286
     1
 66
     0
277
    -2
287
     1
 67
     0
278
    -2
288
     1
 68
     0
279
    -2
289
     1
 69
     0
  0
VISUALSTYLE
  5
1A
102
{ACAD_REACTORS
330
14
102
}
330
14
100
AcDbVisualStyle
  2
2dWireframe
 70
     4
 71
     0
 72
     2
 73
     0
 90
        0
 40
-0.6
 41
-30.0
 62
     5
 63
     7
 74
     1
 91
        4
 64
     7
 65
   257
 75
     1
175
     1
 42
1.0
 92
        0
 66
   257
 43
1.0
 76
     1
 77
     6
 78
     2
 67
     7
 79
     5
170
     0
171
     0
290
     0
174
     0
 93
        1
 44
0.0
173
     0
291
     0
 45
0.0
1001
ACAD
1000
AcDbSavedByObjectVersion
1070
     0
  0
VISUALSTYLE
  5
1C
102
{ACAD_REACTORS
330
14
102
}
330
14
100
AcDbVisualStyle
  2
3D Hidden
 70
     6
 71
     1
 72
     2
 73
     2
 90
        0
 40
-0.6
 41
-30.0
 62
     5
 63
     7
 74
     2
 91
        2
 64
     7
 65
   257
 75
     2
175
     1
 42
40.0
 92
        0
 66
   257
 43
1.0
 76
     1
 77
     6
 78
     2
 67
     7
 79
     3
170
     0
171
     0
290
     0
174
     0
 93
        1
 44
0.0
173
     0
291
     0
 45
0.0
1001
ACAD
1000
AcDbSavedByObjectVersion
1070
     0
  0
VISUALSTYLE
  5
1B
102
{ACAD_REACTORS
330
14
102
}
330
14
100
AcDbVisualStyle
  2
3dWireframe
 70
     5
 71
     0
 72
     2
 73
     0
 90
        0
 40
-0.6
 41
-30.0
 62
     5
 63
     7
 74
     1
 91
        4
 64
     7
 65
   257
 75
     1
175
     1
 42
1.0
 92
        0
 66
   257
 43
1.0
 76
     1
 77
     6
 78
     2
 67
     7
 79
     5
170
     0
171
     0
290
     0
174
     0
 93
        1
 44
0.0
173
     0
291
     0
 45
0.0
1001
ACAD
1000
AcDbSavedByObjectVersion
1070
     0
  0
VISUALSTYLE
  5
19
102
{ACAD_REACTORS
330
14
102
}
330
14
100
AcDbVisualStyle
  2
Basic
 70
     7
 71
     1
 72
     0
 73
     1
 90
        0
 40
-0.6
 41
-30.0
 62
     5
 63
     7
 74
     0
 91
        4
 64
     7
 65
   257
 75
     1
175
     1
 42
1.0
 92
        8
 66
     7
 43
1.0
 76
     1
 77
     6
 78
     2
 67
     7
 79
     5
170
     0
171
     0
290
     0
174
     0
 93
        1
 44
0.0
173
     0
291
     1
 45
0.0
1001
ACAD
1000
AcDbSavedByObjectVersion
1070
     0
  0
VISUALSTYLE
  5
20
102
{ACAD_REACTORS
330
14
102
}
330
14
100
AcDbVisualStyle
  2
Brighten
 70
    12
 71
     2
 72
     2
 73
     0
 90
        0
 40
-0.6
 41
-30.0
 62
     5
 63
     7
 74
     1
 91
        4
 64
     7
 65
   257
 75
     1
175
     1
 42
1.0
 92
        8
 66
     7
 43
1.0
 76
     1
 77
     6
 78
     2
 67
     7
 79
     5
170
     0
171
     0
290
     0
174
     0
 93
        1
 44
50.0
173
     0
291
     1
 45
0.0
1001
ACAD
1000
AcDbSavedByObjectVersion
1070
     0
  0
VISUALSTYLE
  5
24
102
{ACAD_REACTORS
330
14
102
}
330
14
100
AcDbVisualStyle
  2
ColorChange
 70
    16
 71
     2
 72
     2
 73
     3
 90
        0
 40
-0.6
 41
-30.0
 62
     5
 63
     8
 74
     1
 91
        4
 64
     7
 65
   257
 75
     1
175
     1
 42
1.0
 92
        8
 66
     8
 43
1.0
 76
     1
 77
     6
 78
     2
 67
     7
 79
     5
170
     0
171
     0
290
     0
174
     0
 93
        1
 44
0.0
173
     0
291
     1
 45
0.0
1001
ACAD
1000
AcDbSavedByObjectVersion
1070
     0
  0
VISUALSTYLE
  5
1D
102
{ACAD_REACTORS
330
14
102
}
330
14
100
AcDbVisualStyle
  2
Conceptual
 70
     9
 71
     3
 72
     2
 73
     0
 90
        0
 40
-0.6
 41
-30.0
 62
     5
 63
     7
 74
     2
 91
        2
 64
     7
 65
   257
 75
     1
175
     1
 42
40.0
 92
        8
 66
     7
 43
1.0
 76
     1
 77
     6
 78
     2
 67
     7
 79
     3
170
     0
171
     0
290
     0
174
     0
 93
        1
 44
0.0
173
     0
291
     0
 45
0.0
1001
ACAD
1000
AcDbSavedByObjectVersion
1070
     0
  0
VISUALSTYLE
  5
1F
102
{ACAD_REACTORS
330
14
102
}
330
14
100
AcDbVisualStyle
  2
Dim
 70
    11
 71
     2
 72
     2
 73
     0
 90
        0
 40
-0.6
 41
-30.0
 62
     5
 63
     7
 74
     1
 91
        4
 64
     7
 65
   257
 75
     1
175
     1
 42
1.0
 92
        8
 66
     7
 43
1.0
 76
     1
 77
     6
 78
     2
 67
     7
 79
     5
170
     0
171
     0
290
     0
174
     0
 93
        1
 44
-50.0
173
     0
291
     1
 45
0.0
1001
ACAD
1000
AcDbSavedByObjectVersion
1070
     0
  0
VISUALSTYLE
  5
23
102
{ACAD_REACTORS
330
14
102
}
330
14
100
AcDbVisualStyle
  2
Facepattern
 70
    15
 71
     2
 72
     2
 73
     0
 90
        0
 40
-0.6
 41
-30.0
 62
     5
 63
     7
 74
     1
 91
        4
 64
     7
 65
   257
 75
     1
175
     1
 42
1.0
 92
        8
 66
     7
 43
1.0
 76
     1
 77
     6
 78
     2
 67
     7
 79
     5
170
     0
171
     0
290
     0
174
     0
 93
        1
 44
0.0
173
     0
291
     1
 45
0.0
1001
ACAD
1000
AcDbSavedByObjectVersion
1070
     0
  0
VISUALSTYLE
  5
15
102
{ACAD_REACTORS
330
14
102
}
330
14
100
AcDbVisualStyle
  2
Flat
 70
     0
 71
     2
 72
     1
 73
     1
 90
        2
 40
-0.6
 41
30.0
 62
     5
 63
     7
 74
     0
 91
        4
 64
     7
 65
   257
 75
     1
175
     1
 42
1.0
 92
        8
 66
     7
 43
1.0
 76
     1
 77
     6
 78
     2
 67
     7
 79
     5
170
     0
171
     0
290
     0
174
     0
 93
       13
 44
0.0
173
     0
291
     1
 45
0.0
1001
ACAD
1000
AcDbSavedByObjectVersion
1070
     0
  0
VISUALSTYLE
  5
16
102
{ACAD_REACTORS
330
14
102
}
330
14
100
AcDbVisualStyle
  2
FlatWithEdges
 70
     1
 71
     2
 72
     1
 73
     1
 90
        2
 40
-0.6
 41
30.0
 62
     5
 63
     7
 74
     1
 91
        4
 64
     7
 65
   257
 75
     1
175
     1
 42
1.0
 92
        0
 66
   257
 43
1.0
 76
     1
 77
     6
 78
     2
 67
     7
 79
     5
170
     0
171
     0
290
     0
174
     0
 93
       13
 44
0.0
173
     0
291
     1
 45
0.0
1001
ACAD
1000
AcDbSavedByObjectVersion
1070
     0
  0
VISUALSTYLE
  5
17
102
{ACAD_REACTORS
330
14
102
}
330
14
100
AcDbVisualStyle
  2
Gouraud
 70
     2
 71
     2
 72
     2
 73
     1
 90
        2
 40
-0.6
 41
30.0
 62
     5
 63
     7
 74
     0
 91
        4
 64
     7
 65
   257
 75
     1
175
     1
 42
1.0
 92
        0
 66
     7
 43
1.0
 76
     1
 77
     6
 78
     2
 67
     7
 79
     5
170
     0
171
     0
290
     0
174
     0
 93
       13
 44
0.0
173
     0
291
     1
 45
0.0
1001
ACAD
1000
AcDbSavedByObjectVersion
1070
     0
  0
VISUALSTYLE
  5
18
102
{ACAD_REACTORS
330
14
102
}
330
14
100
AcDbVisualStyle
  2
GouraudWithEdges
 70
     3
 71
     2
 72
     2
 73
     1
 90
        2
 40
-0.6
 41
30.0
 62
     5
 63
     7
 74
     1
 91
        4
 64
     7
 65
   257
 75
     1
175
     1
 42
1.0
 92
        0
 66
   257
 43
1.0
 76
     1
 77
     6
 78
     2
 67
     7
 79
     5
170
     0
171
     0
290
     0
174
     0
 93
       13
 44
0.0
173
     0
291
     1
 45
0.0
1001
ACAD
1000
AcDbSavedByObjectVersion
1070
     0
  0
VISUALSTYLE
  5
22
102
{ACAD_REACTORS
330
14
102
}
330
14
100
AcDbVisualStyle
  2
Linepattern
 70
    14
 71
     2
 72
     2
 73
     0
 90
        0
 40
-0.6
 41
-30.0
 62
     5
 63
     7
 74
     1
 91
        4
 64
     7
 65
   257
 75
     7
175
     7
 42
1.0
 92
        8
 66
     7
 43
1.0
 76
     1
 77
     6
 78
     2
 67
     7
 79
     5
170
     0
171
     0
290
     0
174
     0
 93
        1
 44
0.0
173
     0
291
     1
 45
0.0
1001
ACAD
1000
AcDbSavedByObjectVersion
1070
     0
  0
VISUALSTYLE
  5
1E
102
{ACAD_REACTORS
330
14
102
}
330
14
100
AcDbVisualStyle
  2
Realistic
 70
     8
 71
     2
 72
     2
 73
     0
 90
        0
 40
-0.6
 41
-30.0
 62
     5
 63
     7
 74
     1
 91
        0
 64
     7
 65
   257
 75
     1
175
     1
 42
1.0
 92
        8
 66
     8
 43
1.0
 76
     1
 77
     6
 78
     2
 67
     7
 79
     5
170
     0
171
     0
290
     0
174
     0
 93
       13
 44
0.0
173
     0
291
     0
 45
0.0
1001
ACAD
1000
AcDbSavedByObjectVersion
1070
     0
  0
VISUALSTYLE
  5
21
102
{ACAD_REACTORS
330
14
102
}
330
14
100
AcDbVisualStyle
  2
Thicken
 70
    13
 71
     2
 72
     2
 73
     0
 90
        0
 40
-0.6
 41
-30.0
 62
     5
 63
     7
 74
     1
 91
        4
 64
     7
 65
   257
 75
     1
175
     1
 42
1.0
 92
       12
 66
     7
 43
1.0
 76
     1
 77
     6
 78
     2
 67
     7
 79
     5
170
     0
171
     0
290
     0
174
     0
 93
        1
 44
0.0
173
     0
291
     1
 45
0.0
1001
ACAD
1000
AcDbSavedByObjectVersion
1070
     0
  0
DICTIONARYVAR
  5
2DA
102
{ACAD_REACTORS
330
2D9
102
}
330
2D9
100
DictionaryVariables
280
     0
  1
STANDARD
  0
DICTIONARYVAR
  5
2DD
102
{ACAD_REACTORS
330
2D9
102
}
330
2D9
100
DictionaryVariables
280
     0
  1
1
  0
DICTIONARYVAR
  5
2DC
102
{ACAD_REACTORS
330
2D9
102
}
330
2D9
100
DictionaryVariables
280
     0
  1
0
  0
DICTIONARYVAR
  5
2DB
102
{ACAD_REACTORS
330
2D9
102
}
330
2D9
100
DictionaryVariables
280
     0
  1
127
  0
DICTIONARY
  5
266
102
{ACAD_REACTORS
330
25B
102
}
330
25B
100
AcDbDictionary
281
     1
  0
XRECORD
  5
287
102
{ACAD_REACTORS
330
25B
102
}
330
25B
100
AcDbXrecord
280
     1
 90
-1023410169
  0
DICTIONARY
  5
2E9
330
39
100
AcDbDictionary
280
     1
281
     1
  3
ACAD_XREC_ROUNDTRIP
360
2EA
  0
DICTIONARY
  5
2E7
330
35
100
AcDbDictionary
280
     1
281
     1
  3
ACAD_XREC_ROUNDTRIP
360
2E8
  0
DICTIONARY
  5
2E1
330
12
100
AcDbDictionary
280
     1
281
     1
  3
ACAD_XREC_ROUNDTRIP
360
2E2
  0
DICTIONARY
  5
2DF
330
11
100
AcDbDictionary
280
     1
281
     1
  3
ACAD_XREC_ROUNDTRIP
360
2E0
  0
DICTIONARY
  5
2E3
330
13
100
AcDbDictionary
280
     1
281
     1
  3
ACAD_XREC_ROUNDTRIP
360
2E4
  0
DICTIONARY
  5
2E5
330
31
100
AcDbDictionary
280
     1
281
     1
  3
ACAD_XREC_ROUNDTRIP
360
2E6
  0
XRECORD
  5
2EA
102
{ACAD_REACTORS
330
2E9
102
}
330
2E9
100
AcDbXrecord
280
     1
102
SHADEPLOT
 70
     0
102
SHADEPLOTRESLEVEL
 70
     2
102
SHADEPLOTCUSTOMDPI
 70
   300
  0
XRECORD
  5
2E8
102
{ACAD_REACTORS
330
2E7
102
}
330
2E7
100
AcDbXrecord
280
     1
102
SHADEPLOT
 70
     0
102
SHADEPLOTRESLEVEL
 70
     2
102
SHADEPLOTCUSTOMDPI
 70
   300
  0
XRECORD
  5
2E2
102
{ACAD_REACTORS
330
2E1
102
}
330
2E1
100
AcDbXrecord
280
     1
102
MATERIAL
148
0.0
149
0.0
149
0.0
 93
        0
 94
       63
282
     0
 72
     1
 77
     1
171
     1
175
     1
179
     1
273
     0
  0
XRECORD
  5
2E0
102
{ACAD_REACTORS
330
2DF
102
}
330
2DF
100
AcDbXrecord
280
     1
102
MATERIAL
148
0.0
149
0.0
149
0.0
 93
        0
 94
       63
282
     0
 72
     1
 77
     1
171
     1
175
     1
179
     1
273
     0
  0
XRECORD
  5
2E4
102
{ACAD_REACTORS
330
2E3
102
}
330
2E3
100
AcDbXrecord
280
     1
102
MATERIAL
148
0.0
149
0.0
149
0.0
 93
        0
 94
       63
282
     0
 72
     1
 77
     1
171
     1
175
     1
179
     1
273
     0
  0
XRECORD
  5
2E6
102
{ACAD_REACTORS
330
2E5
102
}
330
2E5
100
AcDbXrecord
280
     1
102
ACAD_ROUNDTRIP_PRE2007_TABLESTYLE
 90
      512
 91
        0
  1

 92
      512
 93
        0
  2

 94
      512
 95
        0
  3

  0
ENDSEC
  0
EOF
