  0
SECTION
  2
HEADER
  9
$ACADVER
  1
AC1018
  9
$ACADMAINTVER
 70
     0
  9
$DWGCODEPAGE
  3
ANSI_932
  9
$LASTSAVEDBY
  1
G1033U
  9
$CUSTOMPROPERTYTAG
  1
AmdtFileType
  9
$CUSTOMPROPERTY
  1
84
  9
$INSBASE
 10
0.0
 20
0.0
 30
0.0
  9
$EXTMIN
 10
3055.916311966651
 20
2073.921458965712
 30
0.0
  9
$EXTMAX
 10
3352.916311966652
 20
2283.921458965711
 30
0.0
  9
$LIMMIN
 10
3096.415096459086
 20
1336.511481743025
  9
$LIMMAX
 10
3244.915096459087
 20
1441.511481743025
  9
$ORTHOMODE
 70
     0
  9
$REGENMODE
 70
     1
  9
$FILLMODE
 70
     1
  9
$QTEXTMODE
 70
     0
  9
$MIRRTEXT
 70
     0
  9
$LTSCALE
 40
1.0
  9
$ATTMODE
 70
     1
  9
$TEXTSIZE
 40
3.2
  9
$TRACEWID
 40
1.0
  9
$TEXTSTYLE
  7
STANDARD
  9
$CLAYER
  8
AM_CL
  9
$CELTYPE
  6
ByLayer
  9
$CECOLOR
 62
   256
  9
$CELTSCALE
 40
1.0
  9
$DISPSILH
 70
     0
  9
$DIMSCALE
 40
1.0
  9
$DIMASZ
 40
1.0
  9
$DIMEXO
 40
1.0
  9
$DIMDLI
 40
10.0
  9
$DIMRND
 40
0.0
  9
$DIMDLE
 40
0.0
  9
$DIMEXE
 40
1.0
  9
$DIMTP
 40
0.1
  9
$DIMTM
 40
0.1
  9
$DIMTXT
 40
3.5
  9
$DIMCEN
 40
0.0
  9
$DIMTSZ
 40
0.0
  9
$DIMTOL
 70
     0
  9
$DIMLIM
 70
     0
  9
$DIMTIH
 70
     0
  9
$DIMTOH
 70
     0
  9
$DIMSE1
 70
     0
  9
$DIMSE2
 70
     0
  9
$DIMTAD
 70
     1
  9
$DIMZIN
 70
     8
  9
$DIMBLK
  1

  9
$DIMASO
 70
     1
  9
$DIMSHO
 70
     1
  9
$DIMPOST
  1

  9
$DIMAPOST
  1
"
  9
$DIMALT
 70
     0
  9
$DIMALTD
 70
     2
  9
$DIMALTF
 40
0.0393701
  9
$DIMLFAC
 40
1.0
  9
$DIMTOFL
 70
     1
  9
$DIMTVP
 40
0.0
  9
$DIMTIX
 70
     0
  9
$DIMSOXD
 70
     0
  9
$DIMSAH
 70
     0
  9
$DIMBLK1
  1

  9
$DIMBLK2
  1

  9
$DIMSTYLE
  2
SYS
  9
$DIMCLRD
 70
   256
  9
$DIMCLRE
 70
   256
  9
$DIMCLRT
 70
     7
  9
$DIMTFAC
 40
0.71
  9
$DIMGAP
 40
1.5
  9
$DIMJUST
 70
     0
  9
$DIMSD1
 70
     0
  9
$DIMSD2
 70
     0
  9
$DIMTOLJ
 70
     0
  9
$DIMTZIN
 70
     8
  9
$DIMALTZ
 70
     0
  9
$DIMALTTZ
 70
     0
  9
$DIMUPT
 70
     0
  9
$DIMDEC
 70
     2
  9
$DIMTDEC
 70
     2
  9
$DIMALTU
 70
     2
  9
$DIMALTTD
 70
     2
  9
$DIMTXSTY
  7
STANDARD
  9
$DIMAUNIT
 70
     0
  9
$DIMADEC
 70
     0
  9
$DIMALTRND
 40
0.0
  9
$DIMAZIN
 70
     2
  9
$DIMDSEP
 70
    46
  9
$DIMATFIT
 70
     3
  9
$DIMFRAC
 70
     0
  9
$DIMLDRBLK
  1

  9
$DIMLUNIT
 70
     2
  9
$DIMLWD
 70
    -1
  9
$DIMLWE
 70
    -1
  9
$DIMTMOVE
 70
     0
  9
$LUNITS
 70
     2
  9
$LUPREC
 70
     2
  9
$SKETCHINC
 40
1.0
  9
$FILLETRAD
 40
0.5
  9
$AUNITS
 70
     0
  9
$AUPREC
 70
     0
  9
$MENU
  1
.
  9
$ELEVATION
 40
0.0
  9
$PELEVATION
 40
0.0
  9
$THICKNESS
 40
0.0
  9
$LIMCHECK
 70
     0
  9
$CHAMFERA
 40
5.0
  9
$CHAMFERB
 40
5.0
  9
$CHAMFERC
 40
20.0
  9
$CHAMFERD
 40
0.0
  9
$SKPOLY
 70
     0
  9
$TDCREATE
 40
2455567.680725058
  9
$TDUCREATE
 40
2455567.305725058
  9
$TDUPDATE
 40
2459933.686282697
  9
$TDUUPDATE
 40
2459933.311282697
  9
$TDINDWG
 40
15.5253866088
  9
$TDUSRTIMER
 40
15.5253842824
  9
$USRTIMER
 70
     1
  9
$ANGBASE
 50
0.0
  9
$ANGDIR
 70
     0
  9
$PDMODE
 70
     0
  9
$PDSIZE
 40
-3.0
  9
$PLINEWID
 40
0.0
  9
$SPLFRAME
 70
     0
  9
$SPLINETYPE
 70
     6
  9
$SPLINESEGS
 70
     8
  9
$HANDSEED
  5
44A03
  9
$SURFTAB1
 70
     6
  9
$SURFTAB2
 70
     6
  9
$SURFTYPE
 70
     6
  9
$SURFU
 70
     6
  9
$SURFV
 70
     6
  9
$UCSBASE
  2

  9
$UCSNAME
  2

  9
$UCSORG
 10
0.0
 20
0.0
 30
0.0
  9
$UCSXDIR
 10
1.0
 20
0.0
 30
0.0
  9
$UCSYDIR
 10
0.0
 20
1.0
 30
0.0
  9
$UCSORTHOREF
  2

  9
$UCSORTHOVIEW
 70
     0
  9
$UCSORGTOP
 10
0.0
 20
0.0
 30
0.0
  9
$UCSORGBOTTOM
 10
0.0
 20
0.0
 30
0.0
  9
$UCSORGLEFT
 10
0.0
 20
0.0
 30
0.0
  9
$UCSORGRIGHT
 10
0.0
 20
0.0
 30
0.0
  9
$UCSORGFRONT
 10
0.0
 20
0.0
 30
0.0
  9
$UCSORGBACK
 10
0.0
 20
0.0
 30
0.0
  9
$PUCSBASE
  2

  9
$PUCSNAME
  2

  9
$PUCSORG
 10
0.0
 20
0.0
 30
0.0
  9
$PUCSXDIR
 10
1.0
 20
0.0
 30
0.0
  9
$PUCSYDIR
 10
0.0
 20
1.0
 30
0.0
  9
$PUCSORTHOREF
  2

  9
$PUCSORTHOVIEW
 70
     0
  9
$PUCSORGTOP
 10
0.0
 20
0.0
 30
0.0
  9
$PUCSORGBOTTOM
 10
0.0
 20
0.0
 30
0.0
  9
$PUCSORGLEFT
 10
0.0
 20
0.0
 30
0.0
  9
$PUCSORGRIGHT
 10
0.0
 20
0.0
 30
0.0
  9
$PUCSORGFRONT
 10
0.0
 20
0.0
 30
0.0
  9
$PUCSORGBACK
 10
0.0
 20
0.0
 30
0.0
  9
$USERI1
 70
     0
  9
$USERI2
 70
     0
  9
$USERI3
 70
     0
  9
$USERI4
 70
     0
  9
$USERI5
 70
     0
  9
$USERR1
 40
0.0
  9
$USERR2
 40
0.0
  9
$USERR3
 40
0.0
  9
$USERR4
 40
0.0
  9
$USERR5
 40
0.0
  9
$WORLDVIEW
 70
     1
  9
$SHADEDGE
 70
     3
  9
$SHADEDIF
 70
    70
  9
$TILEMODE
 70
     1
  9
$MAXACTVP
 70
    64
  9
$PINSBASE
 10
0.0
 20
0.0
 30
0.0
  9
$PLIMCHECK
 70
     0
  9
$PEXTMIN
 10
1.000000000000000E+20
 20
1.000000000000000E+20
 30
1.000000000000000E+20
  9
$PEXTMAX
 10
-1.000000000000000E+20
 20
-1.000000000000000E+20
 30
-1.000000000000000E+20
  9
$PLIMMIN
 10
-3.17498779296875
 20
-3.174999952316284
  9
$PLIMMAX
 10
293.4970092773438
 20
206.692492723465
  9
$UNITMODE
 70
     0
  9
$VISRETAIN
 70
     1
  9
$PLINEGEN
 70
     0
  9
$PSLTSCALE
 70
     1
  9
$TREEDEPTH
 70
  3020
  9
$CMLSTYLE
  2
Standard
  9
$CMLJUST
 70
     0
  9
$CMLSCALE
 40
20.0
  9
$PROXYGRAPHICS
 70
     1
  9
$MEASUREMENT
 70
     1
  9
$CELWEIGHT
370
    -1
  9
$ENDCAPS
280
     0
  9
$JOINSTYLE
280
     0
  9
$LWDISPLAY
290
     1
  9
$INSUNITS
 70
     4
  9
$HYPERLINKBASE
  1

  9
$STYLESHEET
  1
monochrome.ctb
  9
$XEDIT
290
     1
  9
$CEPSNTYPE
380
     0
  9
$PSTYLEMODE
290
     1
  9
$FINGERPRINTGUID
  2
{487E49EE-344A-43F6-800E-CE119D8346FF}
  9
$VERSIONGUID
  2
{B51DB4F3-A0C0-4102-8DE6-E63255B69B79}
  9
$EXTNAMES
290
     1
  9
$PSVPSCALE
 40
0.0
  9
$OLESTARTUP
290
     0
  9
$SORTENTS
280
   127
  9
$INDEXCTL
280
     0
  9
$HIDETEXT
280
     1
  9
$XCLIPFRAME
290
     0
  9
$HALOGAP
280
     0
  9
$OBSCOLOR
 70
   257
  9
$OBSLTYPE
280
     0
  9
$INTERSECTIONDISPLAY
280
     0
  9
$INTERSECTIONCOLOR
 70
   257
  9
$DIMASSOC
280
     1
  9
$PROJECTNAME
  1

  0
ENDSEC
  0
SECTION
  2
CLASSES
  0
CLASS
  1
ACDBDICTIONARYWDFLT
  2
AcDbDictionaryWithDefault
  3
ObjectDBX Classes
 90
        0
 91
        8
280
     0
281
     0
  0
CLASS
  1
ACDBPLACEHOLDER
  2
AcDbPlaceHolder
  3
ObjectDBX Classes
 90
        0
 91
        1
280
     0
281
     0
  0
CLASS
  1
LAYOUT
  2
AcDbLayout
  3
ObjectDBX Classes
 90
        0
 91
        1
280
     0
281
     0
  0
CLASS
  1
AMGSETTINGSOBJ
  2
AmgSettingsObj
  3
AmgSettingsObj|...|...
 90
        0
 91
        8
280
     0
281
     0
  0
CLASS
  1
ACME_DOCUMENT
  2
AcMeDbDoc
  3
AcMeServices
 90
        0
 91
        1
280
     1
281
     0
  0
CLASS
  1
ACMESCOPE
  2
AcMeScope
  3
AcMeScope|...|...
 90
        0
 91
        8
280
     0
281
     0
  0
CLASS
  1
ACMECOMMANDHISTORY
  2
AcMeCommandHistory
  3
AcMeServices
 90
        0
 91
        1
280
     1
281
     0
  0
CLASS
  1
DICTIONARYVAR
  2
AcDbDictionaryVar
  3
ObjectDBX Classes
 90
        0
 91
        8
280
     0
281
     0
  0
CLASS
  1
ACIMSYSVARMAN
  2
AcImSysVarManager
  3
AcImSysVarManager|...|...
 90
        0
 91
        8
280
     0
281
     0
  0
CLASS
  1
ACIMREALSYSVAR
  2
AcImRealSysVar
  3
AcMeServices
 90
        0
 91
        1
280
     1
281
     0
  0
CLASS
  1
ACIMINTSYSVAR
  2
AcImIntSysVar
  3
AcImIntSysVar|...|...
 90
        0
 91
        8
280
     0
281
     0
  0
CLASS
  1
ACMEDRAWINGMAN
  2
AcMeDrawingMan
  3
AcMeServices
 90
        0
 91
        1
280
     1
281
     0
  0
CLASS
  1
ACMEVIEW
  2
AcMeView
  3
AcMeServices
 90
        0
 91
        1
280
     1
281
     0
  0
CLASS
  1
ACDBENTITYCACHE
  2
AcMeEntityCache
  3
AcMeServices
 90
        0
 91
        1
280
     1
281
     0
  0
CLASS
  1
GSMANAGER
  2
AcMeGSManager
  3
AcMeServices
 90
        0
 91
        1
280
     1
281
     0
  0
CLASS
  1
AMDTINTERNALREACTOR
  2
AmdtInternalReactor
  3
AcMeServices
 90
        0
 91
        1
280
     1
281
     0
  0
CLASS
  1
ACMESTATEMGR
  2
AcMeStateMgr
  3
AcMeStateMgr|...|...
 90
        0
 91
        8
280
     0
281
     0
  0
CLASS
  1
ACGREFMASTER
  2
AcGrefMaster
  3
AcAttribServices
 90
        0
 91
        1
280
     1
281
     0
  0
CLASS
  1
ACME_DATABASE
  2
AcMeDbDatabase
  3
AcMeServices
 90
        0
 91
        1
280
     1
281
     0
  0
CLASS
  1
ACRFINSADJUSTERMGR
  2
AcRfInsAdjusterMgr
  3
AcMeServices
 90
        0
 91
        1
280
     1
281
     0
  0
CLASS
  1
ACGREFACADMASTER
  2
AcGrefacadMaster
  3
AcGrefServices
 90
        0
 91
        1
280
     1
281
     0
  0
CLASS
  1
AMIMASTER
  2
AmiMaster
  3
AmiServices
 90
        0
 91
        1
280
     1
281
     0
  0
CLASS
  1
ACMDATADICTIONARY
  2
AcmDataDictionary
  3
AcmDataDictionary|...|...
 90
        0
 91
        8
280
     0
281
     0
  0
CLASS
  1
ACMDATAENTRYBLOCK
  2
AcmDataEntryBlock
  3
AcmDataEntryBlock|...|...
 90
        0
 91
        8
280
     0
281
     0
  0
CLASS
  1
ACIMSTRSYSVAR
  2
AcImStrSysVar
  3
AcImStrSysVar|...|...
 90
        0
 91
        8
280
     0
281
     0
  0
CLASS
  1
ACMSTANDARDISO
  2
AcmStandardISO
  3
AcmStandardISO|...|...
 90
        0
 91
       10
280
     0
281
     0
  0
CLASS
  1
AMGOBJPROPCFG
  2
AmgObjPropCfg
  3
AmgObjPropCfg|...|...
 90
        0
 91
        8
280
     0
281
     0
  0
CLASS
  1
AMDTEDGESTANDARDISO
  2
AmdtEdgeStdISO
  3
AmdtEdgeStdISO|...|...
 90
        0
 91
       10
280
     0
281
     0
  0
CLASS
  1
ACMSURFSTANDARDISO
  2
AcmSurfTextStdISO
  3
AcmSurfTextStdISO|...|...
 90
        0
 91
       12
280
     0
281
     0
  0
CLASS
  1
ACMFCFSTANDARDISO
  2
AcmFCFStdISO
  3
AcmFCFStdISO|...|...
 90
        0
 91
       11
280
     0
281
     0
  0
CLASS
  1
ACMWELDSTANDARDISO
  2
AcmWeldingStdISO
  3
AcmWeldingStdISO|...|...
 90
        0
 91
       12
280
     0
281
     0
  0
CLASS
  1
ACMIDSTANDARDISO
  2
AcmIdStdISO
  3
AcmIdStdISO|...|...
 90
        0
 91
       12
280
     0
281
     0
  0
CLASS
  1
ACMDATUMSTANDARDISO
  2
AcmDatumStdISO
  3
AcmDatumStdISO|...|...
 90
        0
 91
       13
280
     0
281
     0
  0
CLASS
  1
ACMBOMSTANDARDISO
  2
AcmBOMStdISO
  3
AcmBOMStdISO|...|...
 90
        0
 91
       10
280
     0
281
     0
  0
CLASS
  1
ACMDETAILSTANDARDISO
  2
AmdtDetailSymStdISO
  3
AmdtDetailSymStdISO|...|...
 90
        0
 91
        8
280
     0
281
     0
  0
CLASS
  1
ACMSECTIONSTANDARDISO
  2
AmdtSectionSymStdISO
  3
AmdtSectionSymStdISO|...|...
 90
        0
 91
        9
280
     0
281
     0
  0
CLASS
  1
ACMCENTERLINESTANDARDISO
  2
AmdtCenterLineStdISO
  3
AmdtCenterLineStdISO|...|...
 90
        0
 91
        8
280
     0
281
     0
  0
CLASS
  1
ACAMGLAYSTD
  2
AcAmgLayStd
  3
AcAmgLayStd|...|...
 90
        0
 91
        8
280
     0
281
     0
  0
CLASS
  1
ACAMGDIMSTD
  2
AcAmgDimStd
  3
AcAmgDimStd|...|...
 90
        0
 91
        8
280
     0
281
     0
  0
CLASS
  1
ACAMGTITLESTD
  2
AcAmgTitleStd
  3
AcAmgTitleStd|...|...
 90
        0
 91
        8
280
     0
281
     0
  0
CLASS
  1
ACAMGFILTERDAT
  2
AcAmgFilterDat
  3
"AcadM|Product Description: AutoCAD Mechanical|Company: Autodesk"
 90
        0
 91
        1
280
     1
281
     0
  0
CLASS
  1
LAYER_INDEX
  2
AcDbLayerIndex
  3
ObjectDBX Classes
 90
        0
 91
        8
280
     0
281
     0
  0
CLASS
  1
IDBUFFER
  2
AcDbIdBuffer
  3
ObjectDBX Classes
 90
        0
 91
        8
280
     0
281
     0
  0
CLASS
  1
PLOTSETTINGS
  2
AcDbPlotSettings
  3
ObjectDBX Classes
 90
        0
 91
        7
280
     0
281
     0
  0
CLASS
  1
AMDTFORMULAUPDATEDISPATCHER
  2
AmdtFormulaUpdateDispatcher
  3
AcMeServices
 90
        0
 91
        1
280
     1
281
     0
  0
CLASS
  1
ACMSTANDARDANSI
  2
AcmStandardANSI
  3
AcmStandardANSI|...|...
 90
        0
 91
        7
280
     0
281
     0
  0
CLASS
  1
ACMSURFSTANDARDANSI
  2
AcmSurfTextStdANSI
  3
AcmSurfTextStdANSI|...|...
 90
        0
 91
        7
280
     0
281
     0
  0
CLASS
  1
ACMFCFSTANDARDANSI
  2
AcmFCFStdANSI
  3
AcmFCFStdANSI|...|...
 90
        0
 91
        8
280
     0
281
     0
  0
CLASS
  1
ACMWELDSTANDARDANSI
  2
AcmWeldingStdANSI
  3
AcmWeldingStdANSI|...|...
 90
        0
 91
        7
280
     0
281
     0
  0
CLASS
  1
ACMIDSTANDARDANSI
  2
AcmIdStdANSI
  3
AcmIdStdANSI|...|...
 90
        0
 91
        8
280
     0
281
     0
  0
CLASS
  1
ACMDATUMSTANDARDANSI
  2
AcmDatumStdANSI
  3
AcmDatumStdANSI|...|...
 90
        0
 91
        7
280
     0
281
     0
  0
CLASS
  1
ACMBOMSTANDARDANSI
  2
AcmBOMStdANSI
  3
AcmBOMStdANSI|...|...
 90
        0
 91
        7
280
     0
281
     0
  0
CLASS
  1
ACMDETAILSTANDARDANSI
  2
AmdtDetailSymStdANSI
  3
AmdtDetailSymStdANSI|...|...
 90
        0
 91
        7
280
     0
281
     0
  0
CLASS
  1
ACMSECTIONSTANDARDANSI
  2
AmdtSectionSymStdANSI
  3
AmdtSectionSymStdANSI|...|...
 90
        0
 91
        7
280
     0
281
     0
  0
CLASS
  1
ACMCENTERLINESTANDARDANSI
  2
AmdtCenterLineStdANSI
  3
AmdtCenterLineStdANSI|...|...
 90
        0
 91
        7
280
     0
281
     0
  0
CLASS
  1
ACMBOM
  2
AcmBom
  3
AcmBom|...|...
 90
        0
 91
        7
280
     0
281
     0
  0
CLASS
  1
ACMDATAENTRYPART
  2
AcmDataEntryPart
  3
AcmDataEntryPart|...|...
 90
        0
 91
        7
280
     0
281
     0
  0
CLASS
  1
ACMPARTREF
  2
AcmPartRef
  3
AcmPartRef|...|...
 90
        0
 91
        7
280
     0
281
     1
  0
CLASS
  1
ACDBCIRCARCRES
  2
AcDbCircArcRes
  3
AcDbCircArcRes|...|...
 90
        0
 91
        8
280
     0
281
     0
  0
CLASS
  1
ACMBOMROW
  2
AcmBomRow
  3
AcmBomRow|...|...
 90
        0
 91
        7
280
     0
281
     0
  0
CLASS
  1
ACMBALLOON
  2
AcmBalloon
  3
AcmBalloon|...|...
 90
        0
 91
        7
280
     0
281
     1
  0
CLASS
  1
AMDTNOTE
  2
AmdtNote
  3
AmdtNote|...|...
 90
        0
 91
        8
280
     0
281
     1
  0
CLASS
  1
STDPART2D
  2
AmgStdPart
  3
AmgStdPart|...|...
 90
        0
 91
        7
280
     0
281
     1
  0
CLASS
  1
ACDBSTDPARTRES_LINE
  2
AcDbStdPartRes_Line
  3
AcDbStdPartRes_Line|...|...
 90
        0
 91
        7
280
     0
281
     0
  0
CLASS
  1
ACMDATAENTRY
  2
AcmDataEntry
  3
AcmDataEntry|...|...
 90
        0
 91
        9
280
     0
281
     0
  0
CLASS
  1
ACDBOPPOLYLINERES
  2
AcDbOpPolylineRes
  3
AcDbOpPolylineRes|...|...
 90
        0
 91
        7
280
     0
281
     0
  0
CLASS
  1
ACMPARTLIST
  2
AcmPartList
  3
AcmPartList|...|...
 90
        0
 91
        7
280
     0
281
     1
  0
CLASS
  1
ACDBLINERES
  2
AcDbLineRes
  3
AcDbLineRes|...|...
 90
        0
 91
        9
280
     0
281
     0
  0
CLASS
  1
ACRFINSADJ
  2
AcRfInsAdjuster
  3
AcRfInsAdjuster|...|...
 90
        0
 91
        9
280
     0
281
     0
  0
CLASS
  1
AM_DRAWING_MGR
  2
AcDmDwgMgr
  3
AcMechDwgViewMgmt
 90
        0
 91
        1
280
     1
281
     0
  0
CLASS
  1
AM_DWG_DOCUMENT
  2
AcDmDwgDocument
  3
AcMechDwgViewMgmt
 90
        0
 91
        1
280
     1
281
     0
  0
CLASS
  1
AM_DWG_SHEET
  2
AcDmSheet
  3
AcMechDwgViewMgmt
 90
        0
 91
        1
280
     1
281
     0
  0
CLASS
  1
AM_VIEWDIMPARMAP
  2
AcDmViewDimParMap
  3
AcMechDwgViewMgmt
 90
        0
 91
        1
280
     1
281
     0
  0
CLASS
  1
AM_DWGMGR_NAME
  2
AcDmDwgMgrName
  3
AcMechDwgViewMgmt
 90
        0
 91
        1
280
     1
281
     0
  0
CLASS
  1
AMDTMENUSTATEMGR
  2
AmdtMenuStateMgr
  3
McadcomServices
 90
        0
 91
        1
280
     1
281
     0
  0
CLASS
  1
AMDTMCOMMENUSTATE
  2
AmdtMcomMenuState
  3
McadcomServices
 90
        0
 91
        1
280
     1
281
     0
  0
CLASS
  1
ASAPP
  2
AcAsAppObject
  3
AutoSurfServices
 90
        0
 91
        2
280
     1
281
     0
  0
CLASS
  1
IM_STATIC_MAN
  2
AcImStaticVarManager
  3
AcMeServices
 90
        0
 91
        1
280
     1
281
     0
  0
CLASS
  1
ACIMDBLSTATICVAR
  2
AcImDblStaticVar
  3
AcMeServices
 90
        0
 91
        1
280
     1
281
     0
  0
CLASS
  1
ACIMSTRSTATICVAR
  2
AcImStrStaticVar
  3
AcMeServices
 90
        0
 91
        1
280
     1
281
     0
  0
CLASS
  1
ACIMINTSTATICVAR
  2
AcImIntStaticVar
  3
AcMeServices
 90
        0
 91
        1
280
     1
281
     0
  0
CLASS
  1
ACASGREFMASTER
  2
AcAsGrefMaster
  3
AutoSurfResolverServices
 90
        0
 91
        2
280
     1
281
     0
  0
CLASS
  1
ACADGREFMODULE
  2
AcAdGrefModule
  3
AdGrefServices
 90
        0
 91
        2
280
     1
281
     0
  0
CLASS
  1
AMDTMAPISURFMOUDULE
  2
AmdtMApiSurfModule
  3
MApiSurfServices
 90
        0
 91
        2
280
     1
281
     0
  0
CLASS
  1
MAPIAMMOUDLE
  2
MApiAmModule
  3
MApiAmServices
 90
        0
 91
        1
280
     1
281
     0
  0
CLASS
  1
AMDTADMENUSTATE
  2
AmdtAdMenuState
  3
DesignerServices
 90
        0
 91
        1
280
     1
281
     0
  0
CLASS
  1
ADAPPL
  2
AcAdAppl
  3
DesignerServices
 90
        0
 91
        1
280
     1
281
     0
  0
CLASS
  1
DEPMGR
  2
AcAdDepMgr
  3
DesignerServices
 90
        0
 91
        1
280
     1
281
     0
  0
CLASS
  1
PARAMMGR
  2
AcAdParamMgr
  3
DesignerServices
 90
        0
 91
        1
280
     1
281
     0
  0
CLASS
  1
PARAMSCOPE
  2
AcAdParamScope
  3
DesignerServices
 90
        0
 91
        1
280
     1
281
     0
  0
CLASS
  1
NAMEDAPPL
  2
AcAdNamedAppl
  3
DesignerServices
 90
        0
 91
        1
280
     1
281
     0
  0
CLASS
  1
ADHNTMPLT
  2
AdHoleNoteTemplateMgr
  3
DesignerServices
 90
        0
 91
        1
280
     1
281
     0
  0
CLASS
  1
AM_HNTEMPLATE_MGR_NAME
  2
AdHoleNoteTemplateMgrName
  3
DesignerServices
 90
        0
 91
        1
280
     1
281
     0
  0
CLASS
  1
AMDTDMMENUSTATE
  2
AmdtDmMenuState
  3
AcMechDwgViewMgmt
 90
        0
 91
        1
280
     1
281
     0
  0
CLASS
  1
MAPIADMODULE
  2
MApiAdModule
  3
MApiAdServices
 90
        0
 91
        2
280
     1
281
     0
  0
CLASS
  1
AMDTAMMENUSTATE
  2
AmdtAmMenuState
  3
DesignerAssemblies
 90
        0
 91
        1
280
     1
281
     0
  0
CLASS
  1
ACAMPROJECT
  2
AcAmProject
  3
AcAmProject|...|...
 90
        0
 91
        8
280
     0
281
     0
  0
CLASS
  1
ACAMGRCOMPDEF
  2
AcAmGrCompDef
  3
AcAmGrCompDef|...|...
 90
        0
 91
        8
280
     0
281
     0
  0
CLASS
  1
ACCMCONTEXT
  2
AcCmContext
  3
DesignerAssemblies
 90
        0
 91
        1
280
     1
281
     0
  0
CLASS
  1
ACAMCOMPDEF
  2
AcAmCompDef
  3
AcAmCompDef|...|...
 90
        0
 91
        8
280
     0
281
     0
  0
CLASS
  1
ACAMCOMPDEFMGR
  2
AcAmCompDefMgr
  3
AcAmCompDefMgr|...|...
 90
        0
 91
        8
280
     0
281
     0
  0
CLASS
  1
ACAMCONTEXTMGR
  2
AcAmContextMgr
  3
AcAmContextMgr|...|...
 90
        0
 91
        8
280
     0
281
     0
  0
CLASS
  1
ACAMCONTEXTMODELER
  2
AcAmContextModeler
  3
AcAmContextModeler|...|...
 90
        0
 91
        8
280
     0
281
     0
  0
CLASS
  1
CATALOGSTATE
  2
AcAmCatalogState
  3
DesignerAssemblies
 90
        0
 91
        1
280
     1
281
     0
  0
CLASS
  1
ACAMGRCOMPDEFSET
  2
AcAmGrCompDefSet
  3
DesignerAssemblies
 90
        0
 91
        1
280
     1
281
     0
  0
CLASS
  1
AMDTBROWSERDBTAB
  2
AmdtBrowserDbTab
  3
McadcomServices
 90
        0
 91
        1
280
     1
281
     0
  0
CLASS
  1
CBROWSERAPPOBJECT
  2
CBrowserAppObject
  3
McadcomServices
 90
        0
 91
        1
280
     1
281
     0
  0
CLASS
  1
DM_PLACEHOLDER
  2
AcDmSelsetPlaceholder
  3
AcMechDwgViewMgmt
 90
        0
 91
        1
280
     1
281
     0
  0
CLASS
  1
ACMPICKOBJ
  2
AcmPickEnt
  3
"AcmSymBB|Product Description: AutoCAD Mechanical|Company: Autodesk"
 90
        0
 91
        1
280
     1
281
     1
  0
CLASS
  1
ACMNOTESTANDARDISO
  2
AmdtNoteStdISO
  3
AmdtNoteStdISO|...|...
 90
        0
 91
        8
280
     0
281
     0
  0
CLASS
  1
ACMNOTESTANDARDANSI
  2
AmdtNoteStdANSI
  3
AmdtNoteStdANSI|...|...
 90
        0
 91
        7
280
     0
281
     0
  0
CLASS
  1
ACMTHREADLINESTANDARDISO
  2
AmdtThreadLineStdISO
  3
AmdtThreadLineStdISO|...|...
 90
        0
 91
        8
280
     0
281
     0
  0
CLASS
  1
ACMTHREADLINESTANDARDANSI
  2
AmdtThreadLineStdANSI
  3
AmdtThreadLineStdANSI|...|...
 90
        0
 91
        7
280
     0
281
     0
  0
CLASS
  1
TABLESTYLE
  2
AcDbTableStyle
  3
ObjectDBX Classes
 90
     4095
 91
        8
280
     0
281
     0
  0
CLASS
  1
SORTENTSTABLE
  2
AcDbSortentsTable
  3
ObjectDBX Classes
 90
        0
 91
        8
280
     0
281
     0
  0
CLASS
  1
MATERIAL
  2
AcDbMaterial
  3
ObjectDBX Classes
 90
     1153
 91
        8
280
     0
281
     0
  0
CLASS
  1
VISUALSTYLE
  2
AcDbVisualStyle
  3
ObjectDBX Classes
 90
     4095
 91
        8
280
     0
281
     0
  0
CLASS
  1
ACRFATTGENMGR
  2
AcRfAttGeneralMgr
  3
AcAttribServices
 90
        0
 91
        1
280
     1
281
     0
  0
CLASS
  1
ACRFOBJATTMGR
  2
AcRfObjAttGroupMgr
  3
AcAttribServices
 90
        0
 91
        1
280
     1
281
     0
  0
CLASS
  1
ACRFMCADAPIATTHOLDER
  2
AcRfMCADAPIAttHolder
  3
AcAttribServices
 90
        0
 91
        1
280
     1
281
     0
  0
CLASS
  1
AMDTSYSATTR
  2
AmdtSystemAttribute
  3
AmdtSystemAttribute|...|...
 90
        0
 91
        8
280
     0
281
     0
  0
CLASS
  1
ACMTAPERSTANDARDISO
  2
AcmTaperStdISO
  3
AcmTaperStdISO|...|...
 90
        0
 91
       11
280
     0
281
     0
  0
CLASS
  1
CAMSSTRUCTBTNSTATE
  2
StructBtnState
  3
L"DesignerAssemblies"
 90
        0
 91
        1
280
     1
281
     0
  0
CLASS
  1
DIMASSOC
  2
AcDbDimAssoc
  3
"AcDbDimAssoc|Product Desc:     AcDim ARX App For Dimension|Company:          Autodesk, Inc.|WEB Address:      www.autodesk.com"
 90
        0
 91
        7
280
     0
281
     0
  0
CLASS
  1
EXACXREFPANELOBJECT
  2
ExAcXREFPanelObject
  3
EXAC_ESW
 90
     1025
 91
        1
280
     1
281
     0
  0
CLASS
  1
NPOCOLLECTION
  2
AcDbImpNonPersistentObjectsCollection
  3
ObjectDBX Classes
 90
     1153
 91
        1
280
     1
281
     0
  0
CLASS
  1
AMDTNOTETEMPLATEDB
  2
AmdtNoteTemplateDB
  3
AmdtNoteTemplateDB|...|...
 90
        0
 91
        8
280
     0
281
     0
  0
CLASS
  1
AMDTEDGESTANDARDISO13715
  2
AmdtEdgeStdISO13715
  3
AmdtEdgeStdISO13715|...|...
 90
        0
 91
        6
280
     0
281
     0
  0
CLASS
  1
ACAMGHOLECHARTSTDISO
  2
AcAmgHoleChartStdISO
  3
AcAmgHoleChartStdISO|...|...
 90
        0
 91
        5
280
     0
281
     0
  0
CLASS
  1
ACAMSTDPCOMPDEF
  2
AcAmStdpCompDef
  3
DesignerAssemblies
 90
        0
 91
        1
280
     1
281
     0
  0
CLASS
  1
ACAMCOMP
  2
AcAmComp
  3
DesignerAssemblies
 90
        0
 91
        1
280
     1
281
     0
  0
CLASS
  1
AC_AM_STDP_VIEW_DEF
  2
AcAmStdpViewDef
  3
DesignerAssemblies
 90
        0
 91
        1
280
     1
281
     0
  0
CLASS
  1
ACAMMVDDEPMGR
  2
AcAmMVDdepMgr
  3
AcAmMVDdepMgr|...|...
 90
        0
 91
        5
280
     0
281
     0
  0
CLASS
  1
ACAMMASTERVIEWDEF
  2
AcAmMasterViewDef
  3
AcAmMasterViewDef|...|...
 90
        0
 91
        5
280
     0
281
     0
  0
CLASS
  1
AC_AM_DIRTY_NODES
  2
AcAmDirtyNodes
  3
DesignerAssemblies
 90
        0
 91
        1
280
     1
281
     0
  0
CLASS
  1
ACAMMAPPERCACHE
  2
AcAmMapperCache
  3
AcAmMapperCache|...|...
 90
        0
 91
        5
280
     0
281
     0
  0
CLASS
  1
ACAMMVDBACKUPOBJECT
  2
AcAmMVDBackupObject
  3
DesignerAssemblies
 90
        0
 91
        1
280
     1
281
     0
  0
CLASS
  1
AC_AM_COMP_VIEW_INST
  2
AcAmCompView
  3
DesignerAssemblies
 90
        0
 91
        1
280
     1
281
     0
  0
CLASS
  1
ACAMXREFMGR2D
  2
AcAmXrefMgr2d
  3
AcAmXrefMgr2d|...|...
 90
        0
 91
        5
280
     0
281
     0
  0
CLASS
  1
ACAMHIDESITUATION
  2
AcAmHideSituation
  3
AcAmHideSituation|...|...
 90
        0
 91
        5
280
     0
281
     0
  0
CLASS
  1
AC_AM_TRANSFORM_GHOST
  2
AcDbTransformGhost
  3
DesignerAssemblies
 90
        0
 91
        1
280
     1
281
     1
  0
CLASS
  1
L"OBJCLONER"
  2
ObjCloner
  3
DesignerAssemblies
 90
        0
 91
        1
280
     1
281
     1
  0
CLASS
  1
SCALE
  2
AcDbScale
  3
ObjectDBX Classes
 90
     1153
 91
        8
280
     0
281
     0
  0
CLASS
  1
ACMSTANDARDJIS
  2
AcmStandardJIS
  3
AcmStandardJIS|...|...
 90
        0
 91
        6
280
     0
281
     0
  0
CLASS
  1
ACMSURFSTANDARDJIS2003
  2
AcmSurfTextStdJIS2003
  3
AcmSurfTextStdJIS2003|...|...
 90
        0
 91
        5
280
     0
281
     0
  0
CLASS
  1
ACMFCFSTANDARDJIS98
  2
AcmFCFStdJIS98
  3
AcmFCFStdJIS98|...|...
 90
        0
 91
        5
280
     0
281
     0
  0
CLASS
  1
ACMWELDSTANDARDJIS
  2
AcmWeldingStdJIS
  3
AcmWeldingStdJIS|...|...
 90
        0
 91
        6
280
     0
281
     0
  0
CLASS
  1
ACMIDSTANDARDJIS1998
  2
AcmIdStdJIS1998
  3
AcmIdStdJIS1998|...|...
 90
        0
 91
        5
280
     0
281
     0
  0
CLASS
  1
ACMDATUMSTANDARDJIS
  2
AcmDatumStdJIS
  3
AcmDatumStdJIS|...|...
 90
        0
 91
        6
280
     0
281
     0
  0
CLASS
  1
ACMBOMSTANDARDJIS
  2
AcmBOMStdJIS
  3
AcmBOMStdJIS|...|...
 90
        0
 91
        6
280
     0
281
     0
  0
CLASS
  1
ACMDETAILSTANDARDJIS
  2
AmdtDetailSymStdJIS
  3
AmdtDetailSymStdJIS|...|...
 90
        0
 91
        6
280
     0
281
     0
  0
CLASS
  1
ACDBDETAILVIEWSTYLE
  2
AcDbDetailViewStyle
  3
ObjectDBX Classes
 90
     1025
 91
        8
280
     0
281
     0
  0
CLASS
  1
ACMDETAILSTANDARDCUSTOM
  2
AmdtDetailSymStdCustom
  3
AmdtDetailSymStdCustom|...|...
 90
        0
 91
        8
280
     0
281
     0
  0
CLASS
  1
ACMSECTIONSTANDARDJIS
  2
AmdtSectionSymStdJIS
  3
AmdtSectionSymStdJIS|...|...
 90
        0
 91
        6
280
     0
281
     0
  0
CLASS
  1
ACDBSECTIONVIEWSTYLE
  2
AcDbSectionViewStyle
  3
ObjectDBX Classes
 90
     1025
 91
        8
280
     0
281
     0
  0
CLASS
  1
FIELD
  2
AcDbField
  3
ObjectDBX Classes
 90
     1152
 91
        6
280
     0
281
     0
  0
CLASS
  1
ACMSECTIONSTANDARDCUSTOM
  2
AmdtSectionSymStdCustom
  3
AmdtSectionSymStdCustom|...|...
 90
        0
 91
        8
280
     0
281
     0
  0
CLASS
  1
ACMCENTERLINESTANDARDJIS
  2
AmdtCenterLineStdJIS
  3
AmdtCenterLineStdJIS|...|...
 90
        0
 91
        6
280
     0
281
     0
  0
CLASS
  1
ACMTHREADLINESTANDARDJIS
  2
AmdtThreadLineStdJIS
  3
AmdtThreadLineStdJIS|...|...
 90
        0
 91
        6
280
     0
281
     0
  0
CLASS
  1
ACMNOTESTANDARDJIS
  2
AmdtNoteStdJIS
  3
AmdtNoteStdJIS|...|...
 90
        0
 91
        6
280
     0
281
     0
  0
CLASS
  1
ACMTAPERSTANDARDJIS
  2
AcmTaperStdJIS
  3
AcmTaperStdJIS|...|...
 90
        0
 91
        6
280
     0
281
     0
  0
CLASS
  1
ACMANOOTATIONVIEWSTANDARDJIS
  2
AmdtAnViewStdJIS
  3
AmdtAnViewStdJIS|...|...
 90
        0
 91
        6
280
     0
281
     0
  0
CLASS
  1
AMDTEDGESTANDARDJIS
  2
AmdtEdgeStdJIS
  3
AmdtEdgeStdJIS|...|...
 90
        0
 91
        6
280
     0
281
     0
  0
CLASS
  1
ACAMGHOLECHARTSTDJIS
  2
AcAmgHoleChartStdJIS
  3
AcAmgHoleChartStdJIS|...|...
 90
        0
 91
        5
280
     0
281
     0
  0
CLASS
  1
FIELDLIST
  2
AcDbFieldList
  3
ObjectDBX Classes
 90
     1152
 91
        6
280
     0
281
     0
  0
CLASS
  1
AMDTEDGELIBRARY
  2
AmdtEdgeLibrary
  3
AmdtEdgeLibrary|...|...
 90
        0
 91
        5
280
     0
281
     0
  0
CLASS
  1
AMDTFCFLIBRARY
  2
AmdtFCFLibrary
  3
AmdtFCFLibrary|...|...
 90
        0
 91
        5
280
     0
281
     0
  0
CLASS
  1
AMDTSURFTEXTLIBRARY
  2
AmdtSurfTextLibrary
  3
AmdtSurfTextLibrary|...|...
 90
        0
 91
        5
280
     0
281
     0
  0
CLASS
  1
AMDTWELDINGLIBRARY
  2
AmdtWeldingLibrary
  3
AmdtWeldingLibrary|...|...
 90
        0
 91
        6
280
     0
281
     0
  0
CLASS
  1
AMDTEDGELIBOBJECT
  2
AmdtEdgeLibObject
  3
AmdtEdgeLibObject|...|...
 90
        0
 91
        5
280
     0
281
     0
  0
CLASS
  1
AMDTFCFLIBOBJECT
  2
AmdtFCFLibObject
  3
AmdtFCFLibObject|...|...
 90
        0
 91
        5
280
     0
281
     0
  0
CLASS
  1
AMDTSURFTEXTLIBOBJECT
  2
AmdtSurfTextLibObject
  3
AmdtSurfTextLibObject|...|...
 90
        0
 91
        5
280
     0
281
     0
  0
CLASS
  1
AMDTWELDINGLIBOBJECT
  2
AmdtWeldingLibObject
  3
AmdtWeldingLibObject|...|...
 90
        0
 91
        5
280
     0
281
     0
  0
CLASS
  1
MLEADERSTYLE
  2
AcDbMLeaderStyle
  3
ACDB_MLEADERSTYLE_CLASS
 90
     4095
 91
        8
280
     0
281
     0
  0
CLASS
  1
CELLSTYLEMAP
  2
AcDbCellStyleMap
  3
ObjectDBX Classes
 90
     1152
 91
        5
280
     0
281
     0
  0
ENDSEC
  0
SECTION
  2
TABLES
  0
TABLE
  2
VPORT
  5
8
102
{ACAD_XDICTIONARY
360
449BF
102
}
330
0
100
AcDbSymbolTable
 70
     1
  0
VPORT
  5
B0EC
330
8
100
AcDbSymbolTableRecord
100
AcDbViewportTableRecord
  2
*Active
 70
     0
 10
0.0
 20
0.0
 11
1.0
 21
1.0
 12
3232.65823752065
 22
2170.819260306507
 13
0.0
 23
0.0
 14
2.5
 24
2.5
 15
10.0
 25
10.0
 16
0.0
 26
0.0
 36
1.0
 17
0.0
 27
0.0
 37
0.0
 40
284.1587453552111
 41
1.826975476839237
 42
50.0
 43
-1370.695619172058
 44
-1370.695619172058
 50
0.0
 51
0.0
 71
     0
 72
   100
 73
     1
 74
     3
 75
     0
 76
     0
 77
     0
 78
     0
281
     0
 65
     0
110
0.0
120
0.0
130
0.0
111
1.0
121
0.0
131
0.0
112
0.0
122
1.0
132
0.0
 79
     0
146
0.0
  0
ENDTAB
  0
TABLE
  2
LTYPE
  5
5
330
0
100
AcDbSymbolTable
 70
    18
  0
LTYPE
  5
14
330
5
100
AcDbSymbolTableRecord
100
AcDbLinetypeTableRecord
  2
ByBlock
 70
     0
  3

 72
    65
 73
     0
 40
0.0
  0
LTYPE
  5
15
330
5
100
AcDbSymbolTableRecord
100
AcDbLinetypeTableRecord
  2
ByLayer
 70
     0
  3

 72
    65
 73
     0
 40
0.0
  0
LTYPE
  5
16
330
5
100
AcDbSymbolTableRecord
100
AcDbLinetypeTableRecord
  2
Continuous
 70
     0
  3
Solid line
 72
    65
 73
     0
 40
0.0
  0
LTYPE
  5
4F
330
5
100
AcDbSymbolTableRecord
100
AcDbLinetypeTableRecord
  2
AM_ISO02W050
 70
     0
  3
__ __ __ __ __ __ __ __ __ __ __ __ __ __ __
 72
    65
 73
     2
 40
7.5
 49
6.0
 74
     0
 49
-1.5
 74
     0
  0
LTYPE
  5
52
330
5
100
AcDbSymbolTableRecord
100
AcDbLinetypeTableRecord
  2
Amconstr
 70
     0
  3
_______________________
 72
    65
 73
     2
 40
9999.0
 49
9999.0
 74
     0
 49
0.0
 74
     0
  0
LTYPE
  5
4DED
330
5
100
AcDbSymbolTableRecord
100
AcDbLinetypeTableRecord
  2
中線
 70
     0
  3
___________________
 72
    65
 73
     2
 40
2.0
 49
1.0
 74
     0
 49
1.0
 74
     0
  0
LTYPE
  5
4DF6
330
5
100
AcDbSymbolTableRecord
100
AcDbLinetypeTableRecord
  2
細線
 70
     0
  3
___________________
 72
    65
 73
     2
 40
2.0
 49
1.0
 74
     0
 49
1.0
 74
     0
  0
LTYPE
  5
4EA7
330
5
100
AcDbSymbolTableRecord
100
AcDbLinetypeTableRecord
  2
文字
 70
     0
  3
_________________
 72
    65
 73
     2
 40
2.0
 49
1.0
 74
     0
 49
1.0
 74
     0
  0
LTYPE
  5
4EA9
330
5
100
AcDbSymbolTableRecord
100
AcDbLinetypeTableRecord
  2
寸法線
 70
     0
  3
________________
 72
    65
 73
     2
 40
2.0
 49
1.0
 74
     0
 49
1.0
 74
     0
  0
LTYPE
  5
5180
330
5
100
AcDbSymbolTableRecord
100
AcDbLinetypeTableRecord
  2
陰線1
 70
     0
  3
__ __ __ __
 72
    65
 73
     2
 40
4.0
 49
2.2
 74
     0
 49
-1.8
 74
     0
  0
LTYPE
  5
5183
330
5
100
AcDbSymbolTableRecord
100
AcDbLinetypeTableRecord
  2
想像線1
 70
     0
  3
__ __ __ _____ __ __ ____
 72
    65
 73
     6
 40
14.5
 49
6.0
 74
     0
 49
-1.5
 74
     0
 49
2.0
 74
     0
 49
-1.5
 74
     0
 49
2.0
 74
     0
 49
-1.5
 74
     0
  0
LTYPE
  5
5185
330
5
100
AcDbSymbolTableRecord
100
AcDbLinetypeTableRecord
  2
中心線1
 70
     0
  3
___ _ ___ _ ___
 72
    65
 73
     4
 40
18.0
 49
12.0
 74
     0
 49
-2.0
 74
     0
 49
2.0
 74
     0
 49
-2.0
 74
     0
  0
LTYPE
  5
AF95
330
5
100
AcDbSymbolTableRecord
100
AcDbLinetypeTableRecord
  2
AM_ISO08W050
 70
     0
  3
____ . ____ . ____ . ____ . ____ . ____ . ____
 72
    65
 73
     4
 40
18.0
 49
12.0
 74
     0
 49
-1.5
 74
     0
 49
3.0
 74
     0
 49
-1.5
 74
     0
  0
LTYPE
  5
44186
330
5
100
AcDbSymbolTableRecord
100
AcDbLinetypeTableRecord
  2
ACJISWELD
 70
     0
  3
_ _ _ _ _
 72
    65
 73
     2
 40
2.0
 49
2.0
 74
     0
 49
-1.0
 74
     0
  0
LTYPE
  5
44188
330
5
100
AcDbSymbolTableRecord
100
AcDbLinetypeTableRecord
  2
ACJISTGL
 70
     0
  3
_ _ _ _ _
 72
    65
 73
     2
 40
3.0
 49
2.0
 74
     0
 49
-1.0
 74
     0
  0
LTYPE
  5
4418A
330
5
100
AcDbSymbolTableRecord
100
AcDbLinetypeTableRecord
  2
ACJISTGB
 70
     0
  3
__ . . __ . .
 72
    65
 73
     6
 40
9.0
 49
4.0
 74
     0
 49
-1.0
 74
     0
 49
1.0
 74
     0
 49
-1.0
 74
     0
 49
1.0
 74
     0
 49
-1.0
 74
     0
  0
LTYPE
  5
441B7
330
5
100
AcDbSymbolTableRecord
100
AcDbLinetypeTableRecord
  2
AM_ISO09W050
 70
     0
  3
_____ . . _____ . . _____ . . ____ .. ____
 72
    65
 73
     6
 40
22.5
 49
12.0
 74
     0
 49
-1.5
 74
     0
 49
3.0
 74
     0
 49
-1.5
 74
     0
 49
3.0
 74
     0
 49
-1.5
 74
     0
  0
LTYPE
  5
441B9
330
5
100
AcDbSymbolTableRecord
100
AcDbLinetypeTableRecord
  2
AM_ISO08W050x2
 70
     0
  3
__ . __ . __ . __ . __ . __
 72
    65
 73
     4
 40
9.0
 49
6.0
 74
     0
 49
-0.75
 74
     0
 49
1.5
 74
     0
 49
-0.75
 74
     0
  0
LTYPE
  5
441BA
330
5
100
AcDbSymbolTableRecord
100
AcDbLinetypeTableRecord
  2
AM_ISO02W050x2
 70
     0
  3
 _ _ _ _ _ _ _ _ _ _ _ _
 72
    65
 73
     2
 40
3.75
 49
3.0
 74
     0
 49
-0.75
 74
     0
  0
LTYPE
  5
441BB
330
5
100
AcDbSymbolTableRecord
100
AcDbLinetypeTableRecord
  2
Amzigzag
 70
     0
  3
/\/-/\/-/\/-/\/-/\/-/\/
 72
    65
 73
     2
 40
11.0001
 49
0.0001
 74
     4
 75
   136
340
0
 46
0.04
 50
0.0
 44
0.0
 45
0.0
 49
-11.0
 74
     0
  0
ENDTAB
  0
TABLE
  2
LAYER
  5
2
102
{ACAD_XDICTIONARY
360
3F95
102
}
330
0
100
AcDbSymbolTable
 70
    13
  0
LAYER
  5
10
330
2
100
AcDbSymbolTableRecord
100
AcDbLayerTableRecord
  2
0
 70
     0
 62
     7
  6
Continuous
370
    -3
390
F
  0
LAYER
  5
6D1
330
2
100
AcDbSymbolTableRecord
100
AcDbLayerTableRecord
  2
Defpoints
 70
     0
 62
     7
  6
Continuous
290
     0
370
    -3
390
F
  0
LAYER
  5
5F85
330
2
100
AcDbSymbolTableRecord
100
AcDbLayerTableRecord
  2
AM_0
 70
     0
 62
     7
  6
中線
370
    25
390
F
1001
AcAecLayerStandard
1000

1000

  0
LAYER
  5
AC9F
330
2
100
AcDbSymbolTableRecord
100
AcDbLayerTableRecord
  2
size
 70
     0
 62
     5
  6
Continuous
290
     0
370
    25
390
F
  0
LAYER
  5
ACA0
330
2
100
AcDbSymbolTableRecord
100
AcDbLayerTableRecord
  2
waku
 70
     0
 62
     7
  6
Continuous
370
    35
390
F
  0
LAYER
  5
ACA1
330
2
100
AcDbSymbolTableRecord
100
AcDbLayerTableRecord
  2
AM_6
 70
     0
 62
     2
  6
文字
370
    15
390
F
1001
AcAecLayerStandard
1000

1000

  0
LAYER
  5
AD64
330
2
100
AcDbSymbolTableRecord
100
AcDbLayerTableRecord
  2
AM_2
 70
     0
 62
     1
  6
細線
370
    15
390
F
1001
AcAecLayerStandard
1000

1000

  0
LAYER
  5
AD68
330
2
100
AcDbSymbolTableRecord
100
AcDbLayerTableRecord
  2
AM_5
 70
     0
 62
     3
  6
寸法線
370
    15
390
F
1001
AcAecLayerStandard
1000

1000

  0
LAYER
  5
AD6F
330
2
100
AcDbSymbolTableRecord
100
AcDbLayerTableRecord
  2
AM_11
 70
     0
 62
     2
  6
想像線1
370
    15
390
F
1001
AcAecLayerStandard
1000

1000

  0
LAYER
  5
2B2CB
330
2
100
AcDbSymbolTableRecord
100
AcDbLayerTableRecord
  2
AM_CL
 70
     0
 62
     1
  6
Amconstr
370
    15
390
F
1001
AcAecLayerStandard
1000

1000

  0
LAYER
  5
2C543
330
2
100
AcDbSymbolTableRecord
100
AcDbLayerTableRecord
  2
AM_7N
 70
     0
 62
     4
  6
中心線1
370
    15
390
F
1001
AcAecLayerStandard
1000

1000

  0
LAYER
  5
2C545
330
2
100
AcDbSymbolTableRecord
100
AcDbLayerTableRecord
  2
AM_3
 70
     0
 62
     6
  6
陰線1
370
    15
390
F
1001
AcAecLayerStandard
1000

1000

  0
ENDTAB
  0
TABLE
  2
STYLE
  5
3
330
0
100
AcDbSymbolTable
 70
     4
  0
STYLE
  5
11
330
3
100
AcDbSymbolTableRecord
100
AcDbTextStyleTableRecord
  2
STANDARD
 70
     0
 40
0.0
 41
0.7
 50
0.0
 71
     0
 42
3.2
  3
romans.shx
  4
extfont.shx
  0
STYLE
  5
A74
330
3
100
AcDbSymbolTableRecord
100
AcDbTextStyleTableRecord
  2
DIM
 70
     0
 40
0.0
 41
1.0
 50
0.0
 71
     0
 42
2.5
  3
monotxt.shx
  4
extfont.shx
  0
STYLE
  5
44184
330
3
100
AcDbSymbolTableRecord
100
AcDbTextStyleTableRecord
  2
ACJISGDT
 70
     0
 40
0.0
 41
1.0
 50
0.0
 71
     0
 42
2.5
  3
amgdt.shx
  4
extfont2.shx
  0
ENDTAB
  0
TABLE
  2
VIEW
  5
6
330
0
100
AcDbSymbolTable
 70
     6
  0
VIEW
  5
AE1
330
6
100
AcDbSymbolTableRecord
100
AcDbViewTableRecord
  2
AM_VIEW1
 70
     0
 40
55.0974114441417
 10
3133.540096459086
 20
1413.962776020954
 41
74.25
 11
0.0
 21
0.0
 31
1.0
 12
0.0
 22
0.0
 32
0.0
 42
50.0
 43
-1370.695619172058
 44
-1370.695619172058
 50
0.0
 71
     0
281
     0
 72
     0
  0
VIEW
  5
AE2
330
6
100
AcDbSymbolTableRecord
100
AcDbViewTableRecord
  2
AM_VIEW2
 70
     0
 40
55.0974114441417
 10
3207.790096459086
 20
1413.962776020954
 41
74.25
 11
0.0
 21
0.0
 31
1.0
 12
0.0
 22
0.0
 32
0.0
 42
50.0
 43
-1370.695619172058
 44
-1370.695619172058
 50
0.0
 71
     0
281
     0
 72
     0
  0
VIEW
  5
AE3
330
6
100
AcDbSymbolTableRecord
100
AcDbViewTableRecord
  2
AM_VIEW3
 70
     0
 40
55.0974114441417
 10
3133.540096459086
 20
1364.060187465095
 41
74.25
 11
0.0
 21
0.0
 31
1.0
 12
0.0
 22
0.0
 32
0.0
 42
50.0
 43
-1370.695619172058
 44
-1370.695619172058
 50
0.0
 71
     0
281
     0
 72
     0
  0
VIEW
  5
AE4
330
6
100
AcDbSymbolTableRecord
100
AcDbViewTableRecord
  2
AM_VIEW4
 70
     0
 40
55.0974114441417
 10
3207.790096459086
 20
1364.060187465095
 41
74.25
 11
0.0
 21
0.0
 31
1.0
 12
0.0
 22
0.0
 32
0.0
 42
50.0
 43
-1370.695619172058
 44
-1370.695619172058
 50
0.0
 71
     0
281
     0
 72
     0
  0
VIEW
  5
AE5
330
6
100
AcDbSymbolTableRecord
100
AcDbViewTableRecord
  2
AM_VIEW5
 70
     0
 40
55.09741144414147
 10
3170.665096459087
 20
1389.011481743025
 41
74.25
 11
0.0
 21
0.0
 31
1.0
 12
0.0
 22
0.0
 32
0.0
 42
50.0
 43
-1370.695619172058
 44
-1370.695619172058
 50
0.0
 71
     0
281
     0
 72
     0
  0
VIEW
  5
AE6
330
6
100
AcDbSymbolTableRecord
100
AcDbViewTableRecord
  2
AM_VIEW6
 70
     0
 40
110.1937209400544
 10
3170.665096459087
 20
1389.011481743025
 41
148.4985150000002
 11
0.0
 21
0.0
 31
1.0
 12
0.0
 22
0.0
 32
0.0
 42
50.0
 43
-1370.695619172058
 44
-1370.695619172058
 50
0.0
 71
     0
281
     0
 72
     0
  0
ENDTAB
  0
TABLE
  2
UCS
  5
7
330
0
100
AcDbSymbolTable
 70
     0
  0
ENDTAB
  0
TABLE
  2
APPID
  5
9
330
0
100
AcDbSymbolTable
 70
    94
  0
APPID
  5
12
330
9
100
AcDbSymbolTableRecord
100
AcDbRegAppTableRecord
  2
ACAD
 70
     0
  0
APPID
  5
30
330
9
100
AcDbSymbolTableRecord
100
AcDbRegAppTableRecord
  2
MCAD_NO_VIS
 70
     0
  0
APPID
  5
31
330
9
100
AcDbSymbolTableRecord
100
AcDbRegAppTableRecord
  2
ACAD_TEMP_GRAPHIC
 70
     0
  0
APPID
  5
44
330
9
100
AcDbSymbolTableRecord
100
AcDbRegAppTableRecord
  2
ACATTRIBSERVICES
 70
     0
  0
APPID
  5
7A1
330
9
100
AcDbSymbolTableRecord
100
AcDbRegAppTableRecord
  2
GENIUS_GENDIMSH_14
 70
     0
  0
APPID
  5
A49
330
9
100
AcDbSymbolTableRecord
100
AcDbRegAppTableRecord
  2
GENIUS_GENREC_14
 70
     0
  0
APPID
  5
A4A
330
9
100
AcDbSymbolTableRecord
100
AcDbRegAppTableRecord
  2
GENIUS_GENOBJ-N-REC_13
 70
     0
  0
APPID
  5
A4B
330
9
100
AcDbSymbolTableRecord
100
AcDbRegAppTableRecord
  2
GENIUS_GENODEF_13
 70
     0
  0
APPID
  5
A4C
330
9
100
AcDbSymbolTableRecord
100
AcDbRegAppTableRecord
  2
DCO15
 70
     0
  0
APPID
  5
ADC
330
9
100
AcDbSymbolTableRecord
100
AcDbRegAppTableRecord
  2
GENIUS_GENOLIS_13
 70
     0
  0
APPID
  5
ADD
330
9
100
AcDbSymbolTableRecord
100
AcDbRegAppTableRecord
  2
GENIUS_GENOENT_13
 70
     0
  0
APPID
  5
ADE
330
9
100
AcDbSymbolTableRecord
100
AcDbRegAppTableRecord
  2
GENIUS_GENOBJ-N-TIT_13
 70
     0
  0
APPID
  5
ADF
330
9
100
AcDbSymbolTableRecord
100
AcDbRegAppTableRecord
  2
GENIUS_GENTITLE_13
 70
     0
  0
APPID
  5
AE0
330
9
100
AcDbSymbolTableRecord
100
AcDbRegAppTableRecord
  2
GENIUS_GENOREF_13
 70
     0
  0
APPID
  5
AE7
330
9
100
AcDbSymbolTableRecord
100
AcDbRegAppTableRecord
  2
GENIUS_GENSCREG_15
 70
     0
  0
APPID
  5
AE8
330
9
100
AcDbSymbolTableRecord
100
AcDbRegAppTableRecord
  2
GENIUS_GENOBJ-N-SDF_13
 70
     0
  0
APPID
  5
FAF
330
9
100
AcDbSymbolTableRecord
100
AcDbRegAppTableRecord
  2
GENIUS_GENBLLY_14
 70
     0
  0
APPID
  5
FB0
330
9
100
AcDbSymbolTableRecord
100
AcDbRegAppTableRecord
  2
GENIUS_GENTRA_14
 70
     0
  0
APPID
  5
1285
330
9
100
AcDbSymbolTableRecord
100
AcDbRegAppTableRecord
  2
GENIUS_GENDTOL_13
 70
     0
  0
APPID
  5
142D
330
9
100
AcDbSymbolTableRecord
100
AcDbRegAppTableRecord
  2
GENIUS_GENOBJ-N-CEN_13
 70
     0
  0
APPID
  5
1AB5
330
9
100
AcDbSymbolTableRecord
100
AcDbRegAppTableRecord
  2
GENIUS_GENOBJ-N-CRS_13
 70
     0
  0
APPID
  5
1B36
330
9
100
AcDbSymbolTableRecord
100
AcDbRegAppTableRecord
  2
GENIUS_GENOBJ-N-HTC_13
 70
     0
  0
APPID
  5
1B37
330
9
100
AcDbSymbolTableRecord
100
AcDbRegAppTableRecord
  2
GENIUS_GENHATCH_13
 70
     0
  0
APPID
  5
216D
330
9
100
AcDbSymbolTableRecord
100
AcDbRegAppTableRecord
  2
GENIUS_GENOBJ-N-FIL_13
 70
     0
  0
APPID
  5
2356
330
9
100
AcDbSymbolTableRecord
100
AcDbRegAppTableRecord
  2
GEVID990412420
 70
     0
  0
APPID
  5
2357
330
9
100
AcDbSymbolTableRecord
100
AcDbRegAppTableRecord
  2
GEVDC
 70
     0
  0
APPID
  5
2358
330
9
100
AcDbSymbolTableRecord
100
AcDbRegAppTableRecord
  2
GEVCON
 70
     0
  0
APPID
  5
235B
330
9
100
AcDbSymbolTableRecord
100
AcDbRegAppTableRecord
  2
GEVRADREF
 70
     0
  0
APPID
  5
2360
330
9
100
AcDbSymbolTableRecord
100
AcDbRegAppTableRecord
  2
GENIUS_GENBH_13
 70
     0
  0
APPID
  5
2362
330
9
100
AcDbSymbolTableRecord
100
AcDbRegAppTableRecord
  2
GENIUS_GENOBJ-NBEHI-BHF_13
 70
     0
  0
APPID
  5
2364
330
9
100
AcDbSymbolTableRecord
100
AcDbRegAppTableRecord
  2
GENIUS_GENOBJ-NBEHI-BHB_13
 70
     0
  0
APPID
  5
2379
330
9
100
AcDbSymbolTableRecord
100
AcDbRegAppTableRecord
  2
GENIUS_GENOBJ-F-SCPASSM_13
 70
     0
  0
APPID
  5
3D74
330
9
100
AcDbSymbolTableRecord
100
AcDbRegAppTableRecord
  2
GENIUS_GENDIM_13
 70
     0
  0
APPID
  5
3D76
330
9
100
AcDbSymbolTableRecord
100
AcDbRegAppTableRecord
  2
GENIUS_GE3DTOL_13
 70
     0
  0
APPID
  5
3D9C
330
9
100
AcDbSymbolTableRecord
100
AcDbRegAppTableRecord
  2
AD_DRAW
 70
     0
  0
APPID
  5
3DE8
330
9
100
AcDbSymbolTableRecord
100
AcDbRegAppTableRecord
  2
ASURF_PCURVE_APPNAME
 70
     0
  0
APPID
  5
3DED
330
9
100
AcDbSymbolTableRecord
100
AcDbRegAppTableRecord
  2
AMG_3D2D_5.0
 70
     0
  0
APPID
  5
3E1B
330
9
100
AcDbSymbolTableRecord
100
AcDbRegAppTableRecord
  2
DESIGNERASSEMBLIES
 70
     0
  0
APPID
  5
3E20
330
9
100
AcDbSymbolTableRecord
100
AcDbRegAppTableRecord
  2
ACADM_DIM_EDIT
 70
     0
  0
APPID
  5
3E21
330
9
100
AcDbSymbolTableRecord
100
AcDbRegAppTableRecord
  2
AMDT_DM_ADJ
 70
     0
  0
APPID
  5
4143
330
9
100
AcDbSymbolTableRecord
100
AcDbRegAppTableRecord
  2
GENIUS_GENFIL_13
 70
     0
  0
APPID
  5
4144
330
9
100
AcDbSymbolTableRecord
100
AcDbRegAppTableRecord
  2
GENIUS_GENOBJ-N-CHA_13
 70
     0
  0
APPID
  5
4E17
330
9
100
AcDbSymbolTableRecord
100
AcDbRegAppTableRecord
  2
GEVID1008153417
 70
     0
  0
APPID
  5
4E58
330
9
100
AcDbSymbolTableRecord
100
AcDbRegAppTableRecord
  2
GEVID1008153418
 70
     0
  0
APPID
  5
4E5E
330
9
100
AcDbSymbolTableRecord
100
AcDbRegAppTableRecord
  2
GEVID1008153419
 70
     0
  0
APPID
  5
4E64
330
9
100
AcDbSymbolTableRecord
100
AcDbRegAppTableRecord
  2
GEVID1008153420
 70
     0
  0
APPID
  5
4E75
330
9
100
AcDbSymbolTableRecord
100
AcDbRegAppTableRecord
  2
GEVID1008153421
 70
     0
  0
APPID
  5
4EB7
330
9
100
AcDbSymbolTableRecord
100
AcDbRegAppTableRecord
  2
GENIUS_AMGTXT_16
 70
     0
  0
APPID
  5
7645
330
9
100
AcDbSymbolTableRecord
100
AcDbRegAppTableRecord
  2
GENIUS_GENOBJ-N-DIM_13
 70
     0
  0
APPID
  5
AAD0
330
9
100
AcDbSymbolTableRecord
100
AcDbRegAppTableRecord
  2
ACAD_DSTYLE_DIMARC_LENGTH_SYMBOL
 70
     0
  0
APPID
  5
AAD1
330
9
100
AcDbSymbolTableRecord
100
AcDbRegAppTableRecord
  2
ACAD_DSTYLE_DIMJOGGED_JOGANGLE_SYMBOL
 70
     0
  0
APPID
  5
AAFD
330
9
100
AcDbSymbolTableRecord
100
AcDbRegAppTableRecord
  2
ACAD_PSEXT
 70
     0
  0
APPID
  5
AD61
330
9
100
AcDbSymbolTableRecord
100
AcDbRegAppTableRecord
  2
AcAecLayerStandard
 70
     0
  0
APPID
  5
AEE3
330
9
100
AcDbSymbolTableRecord
100
AcDbRegAppTableRecord
  2
ACAD_EXEMPT_FROM_CAD_STANDARDS
 70
     0
  0
APPID
  5
B1BE
330
9
100
AcDbSymbolTableRecord
100
AcDbRegAppTableRecord
  2
GENIUS_GENCEN_19
 70
     0
  0
APPID
  5
B4E1
330
9
100
AcDbSymbolTableRecord
100
AcDbRegAppTableRecord
  2
ACAD_MLEADERVER
 70
     0
  0
APPID
  5
163FC
330
9
100
AcDbSymbolTableRecord
100
AcDbRegAppTableRecord
  2
GEVID1298948540
 70
     0
  0
APPID
  5
16416
330
9
100
AcDbSymbolTableRecord
100
AcDbRegAppTableRecord
  2
AMG_2DHIDE
 70
     0
  0
APPID
  5
16417
330
9
100
AcDbSymbolTableRecord
100
AcDbRegAppTableRecord
  2
AMG_2DSTRUCT_BTR
 70
     0
  0
APPID
  5
16428
330
9
100
AcDbSymbolTableRecord
100
AcDbRegAppTableRecord
  2
ACADM_2DVIEW_IGN_NOTIFY
 70
     0
  0
APPID
  5
167FF
330
9
100
AcDbSymbolTableRecord
100
AcDbRegAppTableRecord
  2
GEVID1298948541
 70
     0
  0
APPID
  5
18F52
330
9
100
AcDbSymbolTableRecord
100
AcDbRegAppTableRecord
  2
GEVID1299645686
 70
     0
  0
APPID
  5
2C539
330
9
100
AcDbSymbolTableRecord
100
AcDbRegAppTableRecord
  2
GEVID1310640499
 70
     0
  0
APPID
  5
2DF56
330
9
100
AcDbSymbolTableRecord
100
AcDbRegAppTableRecord
  2
GEVID1311293488
 70
     0
  0
APPID
  5
2DF58
330
9
100
AcDbSymbolTableRecord
100
AcDbRegAppTableRecord
  2
GEVID1311293489
 70
     0
  0
APPID
  5
44148
330
9
100
AcDbSymbolTableRecord
100
AcDbRegAppTableRecord
  2
AcDbAttr
 70
     0
  0
APPID
  5
44165
330
9
100
AcDbSymbolTableRecord
100
AcDbRegAppTableRecord
  2
HC_SUPERPART
 70
     0
  0
APPID
  5
44166
330
9
100
AcDbSymbolTableRecord
100
AcDbRegAppTableRecord
  2
HC_SP4BLOCK
 70
     0
  0
APPID
  5
44167
330
9
100
AcDbSymbolTableRecord
100
AcDbRegAppTableRecord
  2
HC_XDATA_SPRING
 70
     0
  0
APPID
  5
44168
330
9
100
AcDbSymbolTableRecord
100
AcDbRegAppTableRecord
  2
HCCAD_FRAME
 70
     0
  0
APPID
  5
44169
330
9
100
AcDbSymbolTableRecord
100
AcDbRegAppTableRecord
  2
GENIUS_GENOBJ-N-ZOO_13
 70
     0
  0
APPID
  5
4416A
330
9
100
AcDbSymbolTableRecord
100
AcDbRegAppTableRecord
  2
GENIUS_GENSYMENT_13
 70
     0
  0
APPID
  5
4416B
330
9
100
AcDbSymbolTableRecord
100
AcDbRegAppTableRecord
  2
GENIUS_GENSCSYM_13
 70
     0
  0
APPID
  5
4416C
330
9
100
AcDbSymbolTableRecord
100
AcDbRegAppTableRecord
  2
GENIUS_GENOBJ-N-REV_13
 70
     0
  0
APPID
  5
4416D
330
9
100
AcDbSymbolTableRecord
100
AcDbRegAppTableRecord
  2
GENIUS_GENOBJ-N-RSSYM_13
 70
     0
  0
APPID
  5
4416E
330
9
100
AcDbSymbolTableRecord
100
AcDbRegAppTableRecord
  2
GENIUS_GENREV_15
 70
     0
  0
APPID
  5
4416F
330
9
100
AcDbSymbolTableRecord
100
AcDbRegAppTableRecord
  2
HRA
 70
     0
  0
APPID
  5
44170
330
9
100
AcDbSymbolTableRecord
100
AcDbRegAppTableRecord
  2
HTIT
 70
     0
  0
APPID
  5
44171
330
9
100
AcDbSymbolTableRecord
100
AcDbRegAppTableRecord
  2
GENIUS_GENZOO_17
 70
     0
  0
APPID
  5
44172
330
9
100
AcDbSymbolTableRecord
100
AcDbRegAppTableRecord
  2
GENIUS_GENCRS_20
 70
     0
  0
APPID
  5
44173
330
9
100
AcDbSymbolTableRecord
100
AcDbRegAppTableRecord
  2
GENIUS_GENOBJ-N-CRC_13
 70
     0
  0
APPID
  5
44174
330
9
100
AcDbSymbolTableRecord
100
AcDbRegAppTableRecord
  2
GENIUS_GENCRC_14
 70
     0
  0
APPID
  5
44175
330
9
100
AcDbSymbolTableRecord
100
AcDbRegAppTableRecord
  2
GENIUS_GENOBJ-N-DIMLI_13
 70
     0
  0
APPID
  5
44176
330
9
100
AcDbSymbolTableRecord
100
AcDbRegAppTableRecord
  2
GENIUS_GENOBJ-N-FITL_13
 70
     0
  0
APPID
  5
44177
330
9
100
AcDbSymbolTableRecord
100
AcDbRegAppTableRecord
  2
GENIUS_GENFITL_13
 70
     0
  0
APPID
  5
44178
330
9
100
AcDbSymbolTableRecord
100
AcDbRegAppTableRecord
  2
GENLAYCOLOR
 70
     0
  0
APPID
  5
441BE
330
9
100
AcDbSymbolTableRecord
100
AcDbRegAppTableRecord
  2
ACAD_DSTYLE_DIMJAG
 70
     0
  0
APPID
  5
441BF
330
9
100
AcDbSymbolTableRecord
100
AcDbRegAppTableRecord
  2
ACAD_DSTYLE_DIMBREAK
 70
     0
  0
APPID
  5
4424B
330
9
100
AcDbSymbolTableRecord
100
AcDbRegAppTableRecord
  2
ACAD_NAV_VCDISPLAY
 70
     0
  0
APPID
  5
4424C
330
9
100
AcDbSymbolTableRecord
100
AcDbRegAppTableRecord
  2
ACAD_DSTYLE_DIMINSPECT
 70
     0
  0
APPID
  5
4486A
330
9
100
AcDbSymbolTableRecord
100
AcDbRegAppTableRecord
  2
PLOTTRANSPARENCY
 70
     0
  0
APPID
  5
44871
330
9
100
AcDbSymbolTableRecord
100
AcDbRegAppTableRecord
  2
ACAD_DSTYLE_DIM_LINETYPE
 70
     0
  0
APPID
  5
44872
330
9
100
AcDbSymbolTableRecord
100
AcDbRegAppTableRecord
  2
ACAD_DSTYLE_DIM_EXT1_LINETYPE
 70
     0
  0
APPID
  5
44873
330
9
100
AcDbSymbolTableRecord
100
AcDbRegAppTableRecord
  2
ACAD_DSTYLE_DIM_EXT2_LINETYPE
 70
     0
  0
ENDTAB
  0
TABLE
  2
DIMSTYLE
  5
A
330
0
100
AcDbSymbolTable
 70
    11
100
AcDbDimStyleTable
  0
DIMSTYLE
105
A76
330
A
100
AcDbSymbolTableRecord
100
AcDbDimStyleTableRecord
  2
STANDARD
 70
     0
 41
3.0
 42
1.0
 43
7.0
 44
2.0
 73
     0
 74
     0
 77
     1
140
2.799999999999999
141
0.0
143
0.0394
147
0.7
171
     4
172
     1
173
     1
176
     3
177
     3
271
     3
178
     2
271
     3
272
     3
273
     8
274
     4
289
     0
340
A74
341
A66
343
A66
344
A66
  0
DIMSTYLE
105
2515
330
A
100
AcDbSymbolTableRecord
100
AcDbDimStyleTableRecord
  2
SYS
 70
     0
  4
"
 41
1.0
 42
1.0
 43
10.0
 44
1.0
 47
0.1
 48
0.1
 73
     0
 74
     0
 77
     1
 78
     8
 79
     2
140
3.5
141
0.0
143
0.0393701
146
0.71
147
1.5
172
     1
176
   256
177
   256
271
     2
178
     7
271
     2
272
     2
283
     0
284
     8
340
11
371
    -1
372
    -1
1001
ACAD_DSTYLE_DIMARC_LENGTH_SYMBOL
1070
   379
1070
     1
  0
DIMSTYLE
105
2516
102
{ACAD_REACTORS
330
43D6E
330
4499D
330
449B5
102
}
330
A
100
AcDbSymbolTableRecord
100
AcDbDimStyleTableRecord
  2
SYS$3
 70
     0
  4
"
 41
2.0
 42
1.0
 43
10.0
 44
1.0
 47
0.1
 48
0.1
 73
     0
 77
     1
 78
     8
 79
     2
140
3.2
141
0.0
143
0.0393701
146
0.71
147
1.0
176
   256
177
   256
271
     2
178
     2
271
     2
272
     2
283
     0
284
     8
288
     1
340
11
342
A66
371
    -1
372
    -1
1001
ACAD_DSTYLE_DIMARC_LENGTH_SYMBOL
1070
   379
1070
     1
  0
DIMSTYLE
105
2AAB
102
{ACAD_REACTORS
330
26851
330
26854
330
2685D
330
2685E
330
2685F
330
2B1E3
330
2B1E9
330
2B34E
330
2E587
330
2E5E1
330
2E5E2
330
2E5E3
330
401E8
330
43633
330
436E4
102
}
330
A
100
AcDbSymbolTableRecord
100
AcDbDimStyleTableRecord
  2
SYS$0
 70
     0
  4
"
 41
1.0
 42
1.0
 43
10.0
 44
1.0
 47
0.1
 48
0.1
 73
     0
 74
     0
 77
     1
 78
     8
 79
     2
140
3.200000000000001
141
0.0
143
0.0393701
146
0.71
147
1.0
172
     1
176
   256
177
   256
271
     2
178
     2
271
     2
272
     2
283
     0
284
     8
340
11
341
A66
342
6C4
371
    -1
372
    -1
1001
ACAD_DSTYLE_DIMARC_LENGTH_SYMBOL
1070
   379
1070
     1
  0
DIMSTYLE
105
441BD
330
A
100
AcDbSymbolTableRecord
100
AcDbDimStyleTableRecord
  2
AM_JIS
 70
     0
  4
"
 41
2.5
 42
1.0
 43
10.0
 44
1.0
 47
0.1
 48
0.1
 73
     0
 74
     0
 77
     3
 78
     8
 79
     2
140
3.5
141
0.0
143
0.0393701
146
0.71
147
1.5
172
     1
176
   256
177
   256
271
     2
178
     2
271
     2
272
     3
274
     4
283
     0
284
     8
340
11
341
A66
342
A66
343
A66
344
A66
371
    -1
372
    -1
1001
ACAD_DSTYLE_DIMJAG
1070
   388
1040
1.5
1001
ACAD_DSTYLE_DIMBREAK
1070
   391
1040
3.75
1001
ACAD_DSTYLE_DIMARC_LENGTH_SYMBOL
1070
   379
1070
     1
1001
ACAD_DSTYLE_DIM_LINETYPE
1070
   380
1005
14
1001
ACAD_DSTYLE_DIM_EXT1_LINETYPE
1070
   381
1005
14
1001
ACAD_DSTYLE_DIM_EXT2_LINETYPE
1070
   382
1005
14
  0
DIMSTYLE
105
441C0
330
A
100
AcDbSymbolTableRecord
100
AcDbDimStyleTableRecord
  2
AM_JIS$3
 70
     0
  4
"
 41
2.5
 42
1.0
 43
10.0
 44
1.0
 47
0.1
 48
0.1
 73
     0
 77
     3
 78
     8
 79
     2
140
3.5
141
0.0
143
0.0393701
146
0.71
147
1.5
176
   256
177
   256
271
     2
178
     2
271
     2
272
     3
274
     4
283
     0
284
     8
288
     1
289
     0
340
11
341
A66
342
A66
343
A66
344
A66
371
    -1
372
    -1
1001
ACAD_DSTYLE_DIMBREAK
1070
   391
1040
3.75
1001
ACAD_DSTYLE_DIMJAG
1070
   388
1040
1.5
1001
ACAD_DSTYLE_DIMARC_LENGTH_SYMBOL
1070
   379
1070
     1
1001
ACAD_DSTYLE_DIM_LINETYPE
1070
   380
1005
14
1001
ACAD_DSTYLE_DIM_EXT1_LINETYPE
1070
   381
1005
14
1001
ACAD_DSTYLE_DIM_EXT2_LINETYPE
1070
   382
1005
14
  0
DIMSTYLE
105
441C1
330
A
100
AcDbSymbolTableRecord
100
AcDbDimStyleTableRecord
  2
AM_JIS$4
 70
     0
  4
"
 41
2.5
 42
1.0
 43
10.0
 44
1.0
 47
0.1
 48
0.1
 73
     0
 74
     0
 77
     3
 78
     8
 79
     2
140
3.5
141
0.0
143
0.0393701
146
0.71
147
1.5
172
     1
176
   256
177
   256
271
     2
178
     2
271
     2
272
     3
274
     4
283
     0
284
     8
340
11
341
A66
342
A66
343
A66
344
A66
371
    -1
372
    -1
1001
ACAD_DSTYLE_DIMBREAK
1070
   391
1040
3.75
1001
ACAD_DSTYLE_DIMJAG
1070
   388
1040
1.5
1001
ACAD_DSTYLE_DIMARC_LENGTH_SYMBOL
1070
   379
1070
     1
1001
ACAD_DSTYLE_DIM_LINETYPE
1070
   380
1005
14
1001
ACAD_DSTYLE_DIM_EXT1_LINETYPE
1070
   381
1005
14
1001
ACAD_DSTYLE_DIM_EXT2_LINETYPE
1070
   382
1005
14
  0
DIMSTYLE
105
441C2
330
A
100
AcDbSymbolTableRecord
100
AcDbDimStyleTableRecord
  2
AM_JIS$6
 70
     0
  4
"
 41
2.5
 42
1.0
 43
10.0
 44
1.0
 47
0.1
 48
0.1
 73
     0
 74
     0
 78
     8
 79
     2
140
3.5
141
0.0
143
0.0393701
146
0.71
147
1.5
172
     1
176
   256
177
   256
271
     2
178
     2
271
     2
272
     3
274
     4
283
     0
284
     8
340
11
341
A66
342
A66
343
A66
344
A66
371
    -1
372
    -1
1001
ACAD_DSTYLE_DIMBREAK
1070
   391
1040
3.75
1001
ACAD_DSTYLE_DIMJAG
1070
   388
1040
1.5
1001
ACAD_DSTYLE_DIMARC_LENGTH_SYMBOL
1070
   379
1070
     1
1001
ACAD_DSTYLE_DIM_LINETYPE
1070
   380
1005
14
1001
ACAD_DSTYLE_DIM_EXT1_LINETYPE
1070
   381
1005
14
1001
ACAD_DSTYLE_DIM_EXT2_LINETYPE
1070
   382
1005
14
  0
DIMSTYLE
105
441C3
330
A
100
AcDbSymbolTableRecord
100
AcDbDimStyleTableRecord
  2
AM_JIS$7
 70
     0
  4
"
 41
2.5
 42
1.0
 43
10.0
 44
1.0
 47
0.1
 48
0.1
 73
     0
 74
     0
 77
     3
 78
     8
 79
     2
140
3.5
141
0.0
143
0.0393701
146
0.71
147
1.5
172
     1
176
   256
177
   256
271
     2
178
     2
271
     2
272
     3
274
     4
283
     0
284
     8
340
11
341
A66
342
A66
343
A66
344
A66
371
    -1
372
    -1
1001
ACAD_DSTYLE_DIMBREAK
1070
   391
1040
3.75
1001
ACAD_DSTYLE_DIMJAG
1070
   388
1040
1.5
1001
ACAD_DSTYLE_DIMARC_LENGTH_SYMBOL
1070
   379
1070
     1
1001
ACAD_DSTYLE_DIM_LINETYPE
1070
   380
1005
14
1001
ACAD_DSTYLE_DIM_EXT1_LINETYPE
1070
   381
1005
14
1001
ACAD_DSTYLE_DIM_EXT2_LINETYPE
1070
   382
1005
14
  0
DIMSTYLE
105
441C4
330
A
100
AcDbSymbolTableRecord
100
AcDbDimStyleTableRecord
  2
AM_JIS$SF
 70
     0
  4
"
 41
2.5
 42
1.0
 43
10.0
 44
1.0
 47
0.1
 48
0.1
 73
     0
 74
     0
 75
     1
 76
     1
 77
     3
 78
     8
 79
     2
140
3.5
141
0.0
143
0.0393701
146
0.71
147
1.5
172
     1
176
   256
177
   256
271
     2
178
     2
271
     2
272
     3
274
     4
283
     0
284
     8
340
11
341
A66
342
A66
343
A66
344
A66
371
    -1
372
    -1
1001
ACAD_DSTYLE_DIMBREAK
1070
   391
1040
3.75
1001
ACAD_DSTYLE_DIMJAG
1070
   388
1040
1.5
1001
ACAD_DSTYLE_DIMARC_LENGTH_SYMBOL
1070
   379
1070
     1
1001
ACAD_DSTYLE_DIM_LINETYPE
1070
   380
1005
14
1001
ACAD_DSTYLE_DIM_EXT1_LINETYPE
1070
   381
1005
14
1001
ACAD_DSTYLE_DIM_EXT2_LINETYPE
1070
   382
1005
14
  0
DIMSTYLE
105
441C5
330
A
100
AcDbSymbolTableRecord
100
AcDbDimStyleTableRecord
  2
AM_JIS$SH
 70
     0
  4
"
 41
2.5
 42
1.0
 43
10.0
 44
1.0
 47
0.1
 48
0.1
 73
     0
 74
     0
 75
     1
 76
     1
 77
     3
 78
     8
 79
     2
140
3.5
141
0.0
143
0.0393701
144
2.0
146
0.71
147
1.5
172
     1
173
     1
176
   256
177
   256
271
     2
178
     2
271
     2
272
     3
274
     4
283
     0
284
     8
340
11
341
A66
342
A66
343
72
344
A66
371
    -1
372
    -1
1001
ACAD_DSTYLE_DIMBREAK
1070
   391
1040
3.75
1001
ACAD_DSTYLE_DIMJAG
1070
   388
1040
1.5
1001
ACAD_DSTYLE_DIMARC_LENGTH_SYMBOL
1070
   379
1070
     1
1001
ACAD_DSTYLE_DIM_LINETYPE
1070
   380
1005
14
1001
ACAD_DSTYLE_DIM_EXT1_LINETYPE
1070
   381
1005
14
1001
ACAD_DSTYLE_DIM_EXT2_LINETYPE
1070
   382
1005
14
  0
ENDTAB
  0
TABLE
  2
BLOCK_RECORD
  5
1
330
0
100
AcDbSymbolTable
 70
    26
  0
BLOCK_RECORD
  5
1F
102
{ACAD_XDICTIONARY
360
8A
102
}
330
1
100
AcDbSymbolTableRecord
100
AcDbBlockTableRecord
  2
*Model_Space
340
22
  0
BLOCK_RECORD
  5
1B
330
1
100
AcDbSymbolTableRecord
100
AcDbBlockTableRecord
  2
*Paper_Space
340
1E
  0
BLOCK_RECORD
  5
23
330
1
100
AcDbSymbolTableRecord
100
AcDbBlockTableRecord
  2
*Paper_Space0
340
26
  0
BLOCK_RECORD
  5
72
330
1
100
AcDbSymbolTableRecord
100
AcDbBlockTableRecord
  2
GENAXEH
340
0
  0
BLOCK_RECORD
  5
6C4
330
1
100
AcDbSymbolTableRecord
100
AcDbBlockTableRecord
  2
_Dot
340
0
102
{BLKREFS
331
44056
331
44057
331
4405F
331
44060
331
44068
331
44069
331
44071
331
44072
331
4407A
331
4407B
331
44083
331
44084
331
4408C
331
4408D
331
44095
331
44096
331
4409E
331
4409F
331
440A7
331
440A8
331
440B0
331
440B1
331
440B9
331
440BA
331
440C3
331
440C4
331
44113
331
44114
331
440D7
331
440D8
102
}
  0
BLOCK_RECORD
  5
A66
330
1
100
AcDbSymbolTableRecord
100
AcDbBlockTableRecord
  2
_OPEN30
340
0
102
{BLKREFS
331
449A3
331
449AD
331
449BA
102
}
  0
BLOCK_RECORD
  5
26C1F
330
1
100
AcDbSymbolTableRecord
100
AcDbBlockTableRecord
  2
*D4
340
0
  0
BLOCK_RECORD
  5
26C44
330
1
100
AcDbSymbolTableRecord
100
AcDbBlockTableRecord
  2
*D5
340
0
  0
BLOCK_RECORD
  5
26CB0
330
1
100
AcDbSymbolTableRecord
100
AcDbBlockTableRecord
  2
*D6
340
0
  0
BLOCK_RECORD
  5
26CBC
330
1
100
AcDbSymbolTableRecord
100
AcDbBlockTableRecord
  2
*D7
340
0
  0
BLOCK_RECORD
  5
26CC8
330
1
100
AcDbSymbolTableRecord
100
AcDbBlockTableRecord
  2
*D8
340
0
  0
BLOCK_RECORD
  5
2B236
330
1
100
AcDbSymbolTableRecord
100
AcDbBlockTableRecord
  2
*D9
340
0
  0
BLOCK_RECORD
  5
2B27F
330
1
100
AcDbSymbolTableRecord
100
AcDbBlockTableRecord
  2
*D10
340
0
  0
BLOCK_RECORD
  5
2B34F
330
1
100
AcDbSymbolTableRecord
100
AcDbBlockTableRecord
  2
*D11
340
0
  0
BLOCK_RECORD
  5
2E588
330
1
100
AcDbSymbolTableRecord
100
AcDbBlockTableRecord
  2
*D12
340
0
  0
BLOCK_RECORD
  5
2E5E4
330
1
100
AcDbSymbolTableRecord
100
AcDbBlockTableRecord
  2
*D13
340
0
  0
BLOCK_RECORD
  5
2E5F0
330
1
100
AcDbSymbolTableRecord
100
AcDbBlockTableRecord
  2
*D14
340
0
  0
BLOCK_RECORD
  5
2E5FC
330
1
100
AcDbSymbolTableRecord
100
AcDbBlockTableRecord
  2
*D15
340
0
  0
BLOCK_RECORD
  5
401E9
330
1
100
AcDbSymbolTableRecord
100
AcDbBlockTableRecord
  2
*D16
340
0
  0
BLOCK_RECORD
  5
43634
330
1
100
AcDbSymbolTableRecord
100
AcDbBlockTableRecord
  2
*D17
340
0
  0
BLOCK_RECORD
  5
436E5
330
1
100
AcDbSymbolTableRecord
100
AcDbBlockTableRecord
  2
*D18
340
0
  0
BLOCK_RECORD
  5
43D6F
330
1
100
AcDbSymbolTableRecord
100
AcDbBlockTableRecord
  2
*D19
340
0
  0
BLOCK_RECORD
  5
43D9F
330
1
100
AcDbSymbolTableRecord
100
AcDbBlockTableRecord
  2
_DotSmall
340
0
102
{BLKREFS
331
440E7
331
440E8
102
}
  0
BLOCK_RECORD
  5
449B6
330
1
100
AcDbSymbolTableRecord
100
AcDbBlockTableRecord
  2
*D25
340
0
  0
ENDTAB
  0
ENDSEC
  0
SECTION
  2
BLOCKS
  0
BLOCK
  5
20
330
1F
100
AcDbEntity
  8
0
100
AcDbBlockBegin
  2
*Model_Space
 70
     0
 10
0.0
 20
0.0
 30
0.0
  3
*Model_Space
  1

  0
ENDBLK
  5
21
330
1F
100
AcDbEntity
  8
0
100
AcDbBlockEnd
  0
BLOCK
  5
1C
330
1B
100
AcDbEntity
 67
     1
  8
0
100
AcDbBlockBegin
  2
*Paper_Space
 70
     0
 10
0.0
 20
0.0
 30
0.0
  3
*Paper_Space
  1

  0
ENDBLK
  5
1D
330
1B
100
AcDbEntity
 67
     1
  8
0
100
AcDbBlockEnd
  0
BLOCK
  5
24
330
23
100
AcDbEntity
  8
0
100
AcDbBlockBegin
  2
*Paper_Space0
 70
     0
 10
0.0
 20
0.0
 30
0.0
  3
*Paper_Space0
  1

  0
ENDBLK
  5
25
330
23
100
AcDbEntity
  8
0
100
AcDbBlockEnd
  0
BLOCK
  5
74
330
72
100
AcDbEntity
  8
0
100
AcDbBlockBegin
  2
GENAXEH
 70
     0
 10
0.0
 20
0.0
 30
0.0
  3
GENAXEH
  1

  0
LINE
  5
73
330
72
100
AcDbEntity
  8
0
100
AcDbLine
 10
-1.0
 20
0.0
 30
0.0
 11
1.0
 21
0.0
 31
0.0
  0
ENDBLK
  5
75
330
72
100
AcDbEntity
  8
0
100
AcDbBlockEnd
  0
BLOCK
  5
6C7
330
6C4
100
AcDbEntity
  8
0
100
AcDbBlockBegin
  2
_Dot
 70
     0
 10
0.0
 20
0.0
 30
0.0
  3
_Dot
  1

  0
LWPOLYLINE
  5
6C5
330
6C4
100
AcDbEntity
  8
0
  6
ByBlock
 62
     0
100
AcDbPolyline
 90
        2
 70
     1
 43
0.5
 10
-0.25
 20
0.0
 42
1.0
 10
0.25
 20
0.0
 42
1.0
  0
LINE
  5
6C6
330
6C4
100
AcDbEntity
  8
0
  6
ByBlock
 62
     0
370
    -2
100
AcDbLine
 10
-0.5
 20
0.0
 30
0.0
 11
-1.0
 21
0.0
 31
0.0
  0
ENDBLK
  5
6C8
330
6C4
100
AcDbEntity
  8
0
100
AcDbBlockEnd
  0
BLOCK
  5
A6A
330
A66
100
AcDbEntity
  8
0
100
AcDbBlockBegin
  2
_OPEN30
 70
     0
 10
0.0
 20
0.0
 30
0.0
  3
_OPEN30
  1

  0
LINE
  5
A67
330
A66
100
AcDbEntity
  8
0
  6
ByBlock
 62
     0
100
AcDbLine
 10
-1.0
 20
0.26794919
 30
0.0
 11
0.0
 21
0.0
 31
0.0
  0
LINE
  5
A68
330
A66
100
AcDbEntity
  8
0
  6
ByBlock
 62
     0
100
AcDbLine
 10
0.0
 20
0.0
 30
0.0
 11
-1.0
 21
-0.26794919
 31
0.0
  0
LINE
  5
A69
330
A66
100
AcDbEntity
  8
0
  6
ByBlock
 62
     0
100
AcDbLine
 10
0.0
 20
0.0
 30
0.0
 11
-1.0
 21
0.0
 31
0.0
  0
ENDBLK
  5
A6B
330
A66
100
AcDbEntity
  8
0
100
AcDbBlockEnd
  0
BLOCK
  5
26C2A
330
26C1F
100
AcDbEntity
  8
0
100
AcDbBlockBegin
  2
*D4
 70
     1
 10
0.0
 20
0.0
 30
0.0
  3
*D4
  1

  0
LINE
  5
44053
330
26C1F
100
AcDbEntity
  8
AM_5
100
AcDbLine
 10
3233.034284153291
 20
2109.950450000106
 30
0.0
 11
3225.034284153291
 21
2109.950450000106
 31
0.0
  0
LINE
  5
44054
330
26C1F
100
AcDbEntity
  8
AM_5
100
AcDbLine
 10
3234.534284153291
 20
2114.950450000106
 30
0.0
 11
3225.034284153291
 21
2114.950450000106
 31
0.0
  0
LINE
  5
44055
330
26C1F
100
AcDbEntity
  8
AM_5
100
AcDbLine
 10
3226.034284153291
 20
2110.950450000106
 30
0.0
 11
3226.034284153291
 21
2113.950450000106
 31
0.0
  0
INSERT
  5
44056
330
26C1F
100
AcDbEntity
  8
AM_5
  6
ByBlock
100
AcDbBlockReference
  2
_Dot
 10
3226.034284153291
 20
2109.950450000106
 30
0.0
 50
270.0
  0
INSERT
  5
44057
330
26C1F
100
AcDbEntity
  8
AM_5
  6
ByBlock
100
AcDbBlockReference
  2
_Dot
 10
3226.034284153291
 20
2114.950450000106
 30
0.0
 50
90.0
  0
MTEXT
  5
44058
330
26C1F
100
AcDbEntity
  8
AM_5
 62
     2
100
AcDbMText
 10
3223.434284153291
 20
2112.700450000107
 30
0.0
 40
3.200000000000001
 41
0.0
 71
     5
 72
     1
  1
5
 11
0.0
 21
1.0
 31
0.0
 73
     1
 44
1.0
  0
POINT
  5
44059
330
26C1F
100
AcDbEntity
  8
Defpoints
 62
     0
100
AcDbPoint
 10
3234.034284153291
 20
2109.950450000106
 30
0.0
  0
POINT
  5
4405A
330
26C1F
100
AcDbEntity
  8
Defpoints
 62
     0
100
AcDbPoint
 10
3235.534284153291
 20
2114.950450000106
 30
0.0
  0
POINT
  5
4405B
330
26C1F
100
AcDbEntity
  8
Defpoints
 62
     0
100
AcDbPoint
 10
3226.034284153291
 20
2114.950450000106
 30
0.0
  0
ENDBLK
  5
26C2B
330
26C1F
100
AcDbEntity
  8
0
100
AcDbBlockEnd
  0
BLOCK
  5
26C4E
330
26C44
100
AcDbEntity
  8
0
100
AcDbBlockBegin
  2
*D5
 70
     1
 10
0.0
 20
0.0
 30
0.0
  3
*D5
  1

  0
LINE
  5
4405C
330
26C44
100
AcDbEntity
  8
AM_5
100
AcDbLine
 10
3241.534284153291
 20
2119.453653912
 30
0.0
 11
3225.034284153291
 21
2119.453653912
 31
0.0
  0
LINE
  5
4405D
330
26C44
100
AcDbEntity
  8
AM_5
100
AcDbLine
 10
3241.534284153291
 20
2140.453653912004
 30
0.0
 11
3225.034284153291
 21
2140.453653912004
 31
0.0
  0
LINE
  5
4405E
330
26C44
100
AcDbEntity
  8
AM_5
100
AcDbLine
 10
3226.034284153291
 20
2120.453653912
 30
0.0
 11
3226.034284153291
 21
2139.453653912004
 31
0.0
  0
INSERT
  5
4405F
330
26C44
100
AcDbEntity
  8
AM_5
  6
ByBlock
100
AcDbBlockReference
  2
_Dot
 10
3226.034284153291
 20
2119.453653912
 30
0.0
 50
270.0
  0
INSERT
  5
44060
330
26C44
100
AcDbEntity
  8
AM_5
  6
ByBlock
100
AcDbBlockReference
  2
_Dot
 10
3226.034284153291
 20
2140.453653912004
 30
0.0
 50
90.0
  0
MTEXT
  5
44061
330
26C44
100
AcDbEntity
  8
AM_5
 62
     2
100
AcDbMText
 10
3223.434284153291
 20
2129.953653912002
 30
0.0
 40
3.200000000000001
 41
0.0
 71
     5
 72
     1
  1
21
 11
0.0
 21
1.0
 31
0.0
 73
     1
 44
1.0
  0
POINT
  5
44062
330
26C44
100
AcDbEntity
  8
Defpoints
 62
     0
100
AcDbPoint
 10
3242.534284153291
 20
2119.453653912
 30
0.0
  0
POINT
  5
44063
330
26C44
100
AcDbEntity
  8
Defpoints
 62
     0
100
AcDbPoint
 10
3242.534284153291
 20
2140.453653912004
 30
0.0
  0
POINT
  5
44064
330
26C44
100
AcDbEntity
  8
Defpoints
 62
     0
100
AcDbPoint
 10
3226.034284153291
 20
2140.453653912004
 30
0.0
  0
ENDBLK
  5
26C4F
330
26C44
100
AcDbEntity
  8
0
100
AcDbBlockEnd
  0
BLOCK
  5
26CBA
330
26CB0
100
AcDbEntity
  8
0
100
AcDbBlockBegin
  2
*D6
 70
     1
 10
0.0
 20
0.0
 30
0.0
  3
*D6
  1

  0
LINE
  5
44065
330
26CB0
100
AcDbEntity
  8
AM_5
100
AcDbLine
 10
3234.534284153291
 20
2107.953653911747
 30
0.0
 11
3234.534284153291
 21
2099.653653911748
 31
0.0
  0
LINE
  5
44066
330
26CB0
100
AcDbEntity
  8
AM_5
100
AcDbLine
 10
3291.534284153291
 20
2107.953653911747
 30
0.0
 11
3291.534284153291
 21
2099.653653911748
 31
0.0
  0
LINE
  5
44067
330
26CB0
100
AcDbEntity
  8
AM_5
100
AcDbLine
 10
3235.534284153291
 20
2100.653653911748
 30
0.0
 11
3290.534284153291
 21
2100.653653911748
 31
0.0
  0
INSERT
  5
44068
330
26CB0
100
AcDbEntity
  8
AM_5
  6
ByBlock
100
AcDbBlockReference
  2
_Dot
 10
3234.534284153291
 20
2100.653653911748
 30
0.0
 50
180.0
  0
INSERT
  5
44069
330
26CB0
100
AcDbEntity
  8
AM_5
  6
ByBlock
100
AcDbBlockReference
  2
_Dot
 10
3291.534284153291
 20
2100.653653911748
 30
0.0
  0
MTEXT
  5
4406A
330
26CB0
100
AcDbEntity
  8
AM_5
 62
     2
100
AcDbMText
 10
3263.034284153291
 20
2103.253653911748
 30
0.0
 40
3.200000000000001
 41
0.0
 71
     5
 72
     1
  1
%%c57
 73
     1
 44
1.0
  0
POINT
  5
4406B
330
26CB0
100
AcDbEntity
  8
Defpoints
 62
     0
100
AcDbPoint
 10
3234.534284153291
 20
2108.953653911747
 30
0.0
  0
POINT
  5
4406C
330
26CB0
100
AcDbEntity
  8
Defpoints
 62
     0
100
AcDbPoint
 10
3291.534284153291
 20
2108.953653911747
 30
0.0
  0
POINT
  5
4406D
330
26CB0
100
AcDbEntity
  8
Defpoints
 62
     0
100
AcDbPoint
 10
3291.534284153291
 20
2100.653653911748
 30
0.0
  0
ENDBLK
  5
26CBB
330
26CB0
100
AcDbEntity
  8
0
100
AcDbBlockEnd
  0
BLOCK
  5
26CC6
330
26CBC
100
AcDbEntity
  8
0
100
AcDbBlockBegin
  2
*D7
 70
     1
 10
0.0
 20
0.0
 30
0.0
  3
*D7
  1

  0
LINE
  5
4406E
330
26CBC
100
AcDbEntity
  8
AM_5
100
AcDbLine
 10
3241.534284153291
 20
2140.453653912003
 30
0.0
 11
3241.534284153291
 21
2157.453653912004
 31
0.0
  0
LINE
  5
4406F
330
26CBC
100
AcDbEntity
  8
AM_5
100
AcDbLine
 10
3284.534284153292
 20
2140.453653912005
 30
0.0
 11
3284.534284153292
 21
2157.453653912004
 31
0.0
  0
LINE
  5
44070
330
26CBC
100
AcDbEntity
  8
AM_5
100
AcDbLine
 10
3242.534284153291
 20
2156.453653912004
 30
0.0
 11
3283.534284153292
 21
2156.453653912004
 31
0.0
  0
INSERT
  5
44071
330
26CBC
100
AcDbEntity
  8
AM_5
  6
ByBlock
100
AcDbBlockReference
  2
_Dot
 10
3241.534284153291
 20
2156.453653912004
 30
0.0
 50
180.0
  0
INSERT
  5
44072
330
26CBC
100
AcDbEntity
  8
AM_5
  6
ByBlock
100
AcDbBlockReference
  2
_Dot
 10
3284.534284153292
 20
2156.453653912004
 30
0.0
  0
MTEXT
  5
44073
330
26CBC
100
AcDbEntity
  8
AM_5
 62
     2
100
AcDbMText
 10
3263.034284153291
 20
2159.053653912004
 30
0.0
 40
3.200000000000001
 41
0.0
 71
     5
 72
     1
  1
43
 73
     1
 44
1.0
  0
POINT
  5
44074
330
26CBC
100
AcDbEntity
  8
Defpoints
 62
     0
100
AcDbPoint
 10
3241.534284153291
 20
2139.453653912003
 30
0.0
  0
POINT
  5
44075
330
26CBC
100
AcDbEntity
  8
Defpoints
 62
     0
100
AcDbPoint
 10
3284.534284153292
 20
2139.453653912005
 30
0.0
  0
POINT
  5
44076
330
26CBC
100
AcDbEntity
  8
Defpoints
 62
     0
100
AcDbPoint
 10
3284.534284153292
 20
2156.453653912004
 30
0.0
  0
ENDBLK
  5
26CC7
330
26CBC
100
AcDbEntity
  8
0
100
AcDbBlockEnd
  0
BLOCK
  5
26CD2
330
26CC8
100
AcDbEntity
  8
0
100
AcDbBlockBegin
  2
*D8
 70
     1
 10
0.0
 20
0.0
 30
0.0
  3
*D8
  1

  0
LINE
  5
44077
330
26CC8
100
AcDbEntity
  8
AM_5
100
AcDbLine
 10
3247.034284153291
 20
2140.953653912009
 30
0.0
 11
3247.034284153291
 21
2149.453653912004
 31
0.0
  0
LINE
  5
44078
330
26CC8
100
AcDbEntity
  8
AM_5
100
AcDbLine
 10
3279.034284153291
 20
2140.953653912009
 30
0.0
 11
3279.034284153291
 21
2149.453653912004
 31
0.0
  0
LINE
  5
44079
330
26CC8
100
AcDbEntity
  8
AM_5
100
AcDbLine
 10
3248.034284153291
 20
2148.453653912004
 30
0.0
 11
3278.034284153291
 21
2148.453653912004
 31
0.0
  0
INSERT
  5
4407A
330
26CC8
100
AcDbEntity
  8
AM_5
  6
ByBlock
100
AcDbBlockReference
  2
_Dot
 10
3247.034284153291
 20
2148.453653912004
 30
0.0
 50
180.0
  0
INSERT
  5
4407B
330
26CC8
100
AcDbEntity
  8
AM_5
  6
ByBlock
100
AcDbBlockReference
  2
_Dot
 10
3279.034284153291
 20
2148.453653912004
 30
0.0
  0
MTEXT
  5
4407C
330
26CC8
100
AcDbEntity
  8
AM_5
 62
     2
100
AcDbMText
 10
3263.034284153291
 20
2151.053653912004
 30
0.0
 40
3.200000000000001
 41
0.0
 71
     5
 72
     1
  1
32
 73
     1
 44
1.0
  0
POINT
  5
4407D
330
26CC8
100
AcDbEntity
  8
Defpoints
 62
     0
100
AcDbPoint
 10
3247.034284153291
 20
2139.953653912009
 30
0.0
  0
POINT
  5
4407E
330
26CC8
100
AcDbEntity
  8
Defpoints
 62
     0
100
AcDbPoint
 10
3279.034284153291
 20
2139.953653912009
 30
0.0
  0
POINT
  5
4407F
330
26CC8
100
AcDbEntity
  8
Defpoints
 62
     0
100
AcDbPoint
 10
3279.034284153291
 20
2148.453653912004
 30
0.0
  0
ENDBLK
  5
26CD3
330
26CC8
100
AcDbEntity
  8
0
100
AcDbBlockEnd
  0
BLOCK
  5
2B240
330
2B236
100
AcDbEntity
  8
0
100
AcDbBlockBegin
  2
*D9
 70
     1
 10
0.0
 20
0.0
 30
0.0
  3
*D9
  1

  0
LINE
  5
44080
330
2B236
100
AcDbEntity
  8
AM_5
100
AcDbLine
 10
3108.64497932807
 20
2157.453653911996
 30
0.0
 11
3108.64497932807
 21
2173.453653911996
 31
0.0
  0
LINE
  5
44081
330
2B236
100
AcDbEntity
  8
AM_5
100
AcDbLine
 10
3146.644979328069
 20
2157.453653911996
 30
0.0
 11
3146.644979328069
 21
2173.453653911996
 31
0.0
  0
LINE
  5
44082
330
2B236
100
AcDbEntity
  8
AM_5
100
AcDbLine
 10
3109.64497932807
 20
2172.453653911996
 30
0.0
 11
3145.644979328069
 21
2172.453653911996
 31
0.0
  0
INSERT
  5
44083
330
2B236
100
AcDbEntity
  8
AM_5
  6
ByBlock
100
AcDbBlockReference
  2
_Dot
 10
3108.64497932807
 20
2172.453653911996
 30
0.0
 50
180.0
  0
INSERT
  5
44084
330
2B236
100
AcDbEntity
  8
AM_5
  6
ByBlock
100
AcDbBlockReference
  2
_Dot
 10
3146.644979328069
 20
2172.453653911996
 30
0.0
  0
MTEXT
  5
44085
330
2B236
100
AcDbEntity
  8
AM_5
 62
     2
100
AcDbMText
 10
3127.644979328069
 20
2175.053653911996
 30
0.0
 40
3.200000000000001
 41
0.0
 71
     5
 72
     1
  1
Dt
 73
     1
 44
1.0
  0
POINT
  5
44086
330
2B236
100
AcDbEntity
  8
Defpoints
 62
     0
100
AcDbPoint
 10
3108.64497932807
 20
2156.453653911996
 30
0.0
  0
POINT
  5
44087
330
2B236
100
AcDbEntity
  8
Defpoints
 62
     0
100
AcDbPoint
 10
3146.644979328069
 20
2156.453653911996
 30
0.0
  0
POINT
  5
44088
330
2B236
100
AcDbEntity
  8
Defpoints
 62
     0
100
AcDbPoint
 10
3146.644979328069
 20
2172.453653911996
 30
0.0
  0
ENDBLK
  5
2B241
330
2B236
100
AcDbEntity
  8
0
100
AcDbBlockEnd
  0
BLOCK
  5
2B289
330
2B27F
100
AcDbEntity
  8
0
100
AcDbBlockBegin
  2
*D10
 70
     1
 10
0.0
 20
0.0
 30
0.0
  3
*D10
  1

  0
LINE
  5
44089
330
2B27F
100
AcDbEntity
  8
AM_5
100
AcDbLine
 10
3170.944979328071
 20
2133.217585934501
 30
0.0
 11
3170.944979328071
 21
2173.453653911996
 31
0.0
  0
LINE
  5
4408A
330
2B27F
100
AcDbEntity
  8
AM_5
100
AcDbLine
 10
3146.644979328069
 20
2157.453653911996
 30
0.0
 11
3146.644979328069
 21
2173.453653911996
 31
0.0
  0
LINE
  5
4408B
330
2B27F
100
AcDbEntity
  8
AM_5
100
AcDbLine
 10
3169.944979328071
 20
2172.453653911996
 30
0.0
 11
3147.644979328069
 21
2172.453653911996
 31
0.0
  0
INSERT
  5
4408C
330
2B27F
100
AcDbEntity
  8
AM_5
  6
ByBlock
100
AcDbBlockReference
  2
_Dot
 10
3170.944979328071
 20
2172.453653911996
 30
0.0
  0
INSERT
  5
4408D
330
2B27F
100
AcDbEntity
  8
AM_5
  6
ByBlock
100
AcDbBlockReference
  2
_Dot
 10
3146.644979328069
 20
2172.453653911996
 30
0.0
 50
180.0
  0
MTEXT
  5
4408E
330
2B27F
100
AcDbEntity
  8
AM_5
 62
     2
100
AcDbMText
 10
3158.944979328071
 20
2175.053653911996
 30
0.0
 40
3.200000000000001
 41
0.0
 71
     5
 72
     1
  1
（24）
 73
     1
 44
1.0
  0
POINT
  5
4408F
330
2B27F
100
AcDbEntity
  8
Defpoints
 62
     0
100
AcDbPoint
 10
3170.944979328071
 20
2132.217585934501
 30
0.0
  0
POINT
  5
44090
330
2B27F
100
AcDbEntity
  8
Defpoints
 62
     0
100
AcDbPoint
 10
3146.644979328069
 20
2156.453653911996
 30
0.0
  0
POINT
  5
44091
330
2B27F
100
AcDbEntity
  8
Defpoints
 62
     0
100
AcDbPoint
 10
3146.644979328069
 20
2172.453653911996
 30
0.0
  0
ENDBLK
  5
2B28A
330
2B27F
100
AcDbEntity
  8
0
100
AcDbBlockEnd
  0
BLOCK
  5
2B359
330
2B34F
100
AcDbEntity
  8
0
100
AcDbBlockBegin
  2
*D11
 70
     1
 10
0.0
 20
0.0
 30
0.0
  3
*D11
  1

  0
LINE
  5
44092
330
2B34F
100
AcDbEntity
  8
AM_5
100
AcDbLine
 10
3156.944979328072
 20
2140.453653911997
 30
0.0
 11
3156.944979328072
 21
2165.453653911996
 31
0.0
  0
LINE
  5
44093
330
2B34F
100
AcDbEntity
  8
AM_5
100
AcDbLine
 10
3146.644979328069
 20
2157.453653911996
 30
0.0
 11
3146.644979328069
 21
2165.453653911996
 31
0.0
  0
LINE
  5
44094
330
2B34F
100
AcDbEntity
  8
AM_5
100
AcDbLine
 10
3155.944979328072
 20
2164.453653911996
 30
0.0
 11
3147.644979328069
 21
2164.453653911996
 31
0.0
  0
INSERT
  5
44095
330
2B34F
100
AcDbEntity
  8
AM_5
  6
ByBlock
100
AcDbBlockReference
  2
_Dot
 10
3156.944979328072
 20
2164.453653911996
 30
0.0
  0
INSERT
  5
44096
330
2B34F
100
AcDbEntity
  8
AM_5
  6
ByBlock
100
AcDbBlockReference
  2
_Dot
 10
3146.644979328069
 20
2164.453653911996
 30
0.0
 50
180.0
  0
MTEXT
  5
44097
330
2B34F
100
AcDbEntity
  8
AM_5
 62
     2
100
AcDbMText
 10
3151.794979328071
 20
2167.053653911996
 30
0.0
 40
3.200000000000001
 41
0.0
 71
     5
 72
     1
  1
（10）
 73
     1
 44
1.0
  0
POINT
  5
44098
330
2B34F
100
AcDbEntity
  8
Defpoints
 62
     0
100
AcDbPoint
 10
3156.944979328072
 20
2139.453653911997
 30
0.0
  0
POINT
  5
44099
330
2B34F
100
AcDbEntity
  8
Defpoints
 62
     0
100
AcDbPoint
 10
3146.644979328069
 20
2156.453653911996
 30
0.0
  0
POINT
  5
4409A
330
2B34F
100
AcDbEntity
  8
Defpoints
 62
     0
100
AcDbPoint
 10
3146.644979328069
 20
2164.453653911996
 30
0.0
  0
ENDBLK
  5
2B35A
330
2B34F
100
AcDbEntity
  8
0
100
AcDbBlockEnd
  0
BLOCK
  5
2E592
330
2E588
100
AcDbEntity
  8
0
100
AcDbBlockBegin
  2
*D12
 70
     1
 10
0.0
 20
0.0
 30
0.0
  3
*D12
  1

  0
LINE
  5
4409B
330
2E588
100
AcDbEntity
  8
AM_5
100
AcDbLine
 10
3241.534284153291
 20
2119.453653912
 30
0.0
 11
3233.034284153291
 21
2119.453653912
 31
0.0
  0
LINE
  5
4409C
330
2E588
100
AcDbEntity
  8
AM_5
100
AcDbLine
 10
3239.534284153291
 20
2132.453653912006
 30
0.0
 11
3233.034284153291
 21
2132.453653912006
 31
0.0
  0
LINE
  5
4409D
330
2E588
100
AcDbEntity
  8
AM_5
100
AcDbLine
 10
3234.034284153291
 20
2120.453653912
 30
0.0
 11
3234.034284153291
 21
2131.453653912006
 31
0.0
  0
INSERT
  5
4409E
330
2E588
100
AcDbEntity
  8
AM_5
  6
ByBlock
100
AcDbBlockReference
  2
_Dot
 10
3234.034284153291
 20
2119.453653912
 30
0.0
 50
270.0
  0
INSERT
  5
4409F
330
2E588
100
AcDbEntity
  8
AM_5
  6
ByBlock
100
AcDbBlockReference
  2
_Dot
 10
3234.034284153291
 20
2132.453653912006
 30
0.0
 50
90.0
  0
MTEXT
  5
440A0
330
2E588
100
AcDbEntity
  8
AM_5
 62
     2
100
AcDbMText
 10
3231.434284153291
 20
2125.953653912002
 30
0.0
 40
3.200000000000001
 41
0.0
 71
     5
 72
     1
  1
13
 11
0.0
 21
1.0
 31
0.0
 73
     1
 44
1.0
  0
POINT
  5
440A1
330
2E588
100
AcDbEntity
  8
Defpoints
 62
     0
100
AcDbPoint
 10
3242.534284153291
 20
2119.453653912
 30
0.0
  0
POINT
  5
440A2
330
2E588
100
AcDbEntity
  8
Defpoints
 62
     0
100
AcDbPoint
 10
3240.534284153291
 20
2132.453653912006
 30
0.0
  0
POINT
  5
440A3
330
2E588
100
AcDbEntity
  8
Defpoints
 62
     0
100
AcDbPoint
 10
3234.034284153291
 20
2132.453653912006
 30
0.0
  0
ENDBLK
  5
2E593
330
2E588
100
AcDbEntity
  8
0
100
AcDbBlockEnd
  0
BLOCK
  5
2E5EE
330
2E5E4
100
AcDbEntity
  8
0
100
AcDbBlockBegin
  2
*D13
 70
     1
 10
0.0
 20
0.0
 30
0.0
  3
*D13
  1

  0
LINE
  5
440A4
330
2E5E4
100
AcDbEntity
  8
AM_5
100
AcDbLine
 10
3150.675968364263
 20
2207.601175326906
 30
0.0
 11
3134.775968364262
 21
2207.601175326906
 31
0.0
  0
LINE
  5
440A5
330
2E5E4
100
AcDbEntity
  8
AM_5
100
AcDbLine
 10
3150.675968364263
 20
2233.601175326905
 30
0.0
 11
3134.775968364262
 21
2233.601175326905
 31
0.0
  0
LINE
  5
440A6
330
2E5E4
100
AcDbEntity
  8
AM_5
100
AcDbLine
 10
3135.775968364262
 20
2208.601175326906
 30
0.0
 11
3135.775968364262
 21
2232.601175326905
 31
0.0
  0
INSERT
  5
440A7
330
2E5E4
100
AcDbEntity
  8
AM_5
100
AcDbBlockReference
  2
_Dot
 10
3135.775968364262
 20
2207.601175326906
 30
0.0
 50
270.0
  0
INSERT
  5
440A8
330
2E5E4
100
AcDbEntity
  8
AM_5
100
AcDbBlockReference
  2
_Dot
 10
3135.775968364262
 20
2233.601175326905
 30
0.0
 50
90.0
  0
MTEXT
  5
440A9
330
2E5E4
100
AcDbEntity
  8
AM_5
 62
     2
100
AcDbMText
 10
3133.175968364261
 20
2220.601175326902
 30
0.0
 40
3.200000000000001
 41
0.0
 71
     5
 72
     1
  1
26
 11
1.000000000000000E-16
 21
1.0
 31
0.0
 73
     1
 44
1.0
  0
POINT
  5
440AA
330
2E5E4
100
AcDbEntity
  8
Defpoints
 62
     0
100
AcDbPoint
 10
3151.675968364263
 20
2207.601175326906
 30
0.0
  0
POINT
  5
440AB
330
2E5E4
100
AcDbEntity
  8
Defpoints
 62
     0
100
AcDbPoint
 10
3151.675968364263
 20
2233.601175326905
 30
0.0
  0
POINT
  5
440AC
330
2E5E4
100
AcDbEntity
  8
Defpoints
 62
     0
100
AcDbPoint
 10
3135.775968364262
 20
2233.601175326905
 30
0.0
  0
ENDBLK
  5
2E5EF
330
2E5E4
100
AcDbEntity
  8
0
100
AcDbBlockEnd
  0
BLOCK
  5
2E5FA
330
2E5F0
100
AcDbEntity
  8
0
100
AcDbBlockBegin
  2
*D14
 70
     1
 10
0.0
 20
0.0
 30
0.0
  3
*D14
  1

  0
LINE
  5
440AD
330
2E5F0
100
AcDbEntity
  8
AM_5
100
AcDbLine
 10
3190.27276445262
 20
2240.3511753269
 30
0.0
 11
3190.27276445262
 21
2258.6011753269
 31
0.0
  0
LINE
  5
440AE
330
2E5F0
100
AcDbEntity
  8
AM_5
100
AcDbLine
 10
3172.77276445262
 20
2253.601175326899
 30
0.0
 11
3172.77276445262
 21
2258.6011753269
 31
0.0
  0
LINE
  5
440AF
330
2E5F0
100
AcDbEntity
  8
AM_5
100
AcDbLine
 10
3189.27276445262
 20
2257.6011753269
 30
0.0
 11
3173.77276445262
 21
2257.6011753269
 31
0.0
  0
INSERT
  5
440B0
330
2E5F0
100
AcDbEntity
  8
AM_5
100
AcDbBlockReference
  2
_Dot
 10
3190.27276445262
 20
2257.6011753269
 30
0.0
  0
INSERT
  5
440B1
330
2E5F0
100
AcDbEntity
  8
AM_5
100
AcDbBlockReference
  2
_Dot
 10
3172.77276445262
 20
2257.6011753269
 30
0.0
 50
180.0
  0
MTEXT
  5
440B2
330
2E5F0
100
AcDbEntity
  8
AM_5
 62
     2
100
AcDbMText
 10
3181.522764452621
 20
2260.2011753269
 30
0.0
 40
3.200000000000001
 41
0.0
 71
     5
 72
     1
  1
17.5
 73
     1
 44
1.0
  0
POINT
  5
440B3
330
2E5F0
100
AcDbEntity
  8
Defpoints
 62
     0
100
AcDbPoint
 10
3190.27276445262
 20
2239.3511753269
 30
0.0
  0
POINT
  5
440B4
330
2E5F0
100
AcDbEntity
  8
Defpoints
 62
     0
100
AcDbPoint
 10
3172.77276445262
 20
2252.601175326899
 30
0.0
  0
POINT
  5
440B5
330
2E5F0
100
AcDbEntity
  8
Defpoints
 62
     0
100
AcDbPoint
 10
3172.77276445262
 20
2257.6011753269
 30
0.0
  0
ENDBLK
  5
2E5FB
330
2E5F0
100
AcDbEntity
  8
0
100
AcDbBlockEnd
  0
BLOCK
  5
2E606
330
2E5FC
100
AcDbEntity
  8
0
100
AcDbBlockBegin
  2
*D15
 70
     1
 10
0.0
 20
0.0
 30
0.0
  3
*D15
  1

  0
LINE
  5
440B6
330
2E5FC
100
AcDbEntity
  8
AM_5
100
AcDbLine
 10
3172.77276445262
 20
2253.601175326899
 30
0.0
 11
3172.77276445262
 21
2258.6011753269
 31
0.0
  0
LINE
  5
440B7
330
2E5FC
100
AcDbEntity
  8
AM_5
100
AcDbLine
 10
3156.772764452622
 20
2239.701175326899
 30
0.0
 11
3156.772764452622
 21
2258.6011753269
 31
0.0
  0
LINE
  5
440B8
330
2E5FC
100
AcDbEntity
  8
AM_5
100
AcDbLine
 10
3171.77276445262
 20
2257.6011753269
 30
0.0
 11
3157.772764452622
 21
2257.6011753269
 31
0.0
  0
INSERT
  5
440B9
330
2E5FC
100
AcDbEntity
  8
AM_5
100
AcDbBlockReference
  2
_Dot
 10
3172.77276445262
 20
2257.6011753269
 30
0.0
  0
INSERT
  5
440BA
330
2E5FC
100
AcDbEntity
  8
AM_5
100
AcDbBlockReference
  2
_Dot
 10
3156.772764452622
 20
2257.6011753269
 30
0.0
 50
180.0
  0
MTEXT
  5
440BB
330
2E5FC
100
AcDbEntity
  8
AM_5
 62
     2
100
AcDbMText
 10
3164.772764452622
 20
2260.2011753269
 30
0.0
 40
3.200000000000001
 41
0.0
 71
     5
 72
     1
  1
16
 73
     1
 44
1.0
  0
POINT
  5
440BC
330
2E5FC
100
AcDbEntity
  8
Defpoints
 62
     0
100
AcDbPoint
 10
3172.77276445262
 20
2252.601175326899
 30
0.0
  0
POINT
  5
440BD
330
2E5FC
100
AcDbEntity
  8
Defpoints
 62
     0
100
AcDbPoint
 10
3156.772764452622
 20
2238.701175326899
 30
0.0
  0
POINT
  5
440BE
330
2E5FC
100
AcDbEntity
  8
Defpoints
 62
     0
100
AcDbPoint
 10
3156.772764452622
 20
2257.6011753269
 30
0.0
  0
ENDBLK
  5
2E607
330
2E5FC
100
AcDbEntity
  8
0
100
AcDbBlockEnd
  0
BLOCK
  5
401F3
330
401E9
100
AcDbEntity
  8
0
100
AcDbBlockBegin
  2
*D16
 70
     1
 10
0.0
 20
0.0
 30
0.0
  3
*D16
  1

  0
LINE
  5
440BF
330
401E9
100
AcDbEntity
  8
AM_5
100
AcDbLine
 10
3143.275968364262
 20
2108.953653911747
 30
0.0
 11
3133.525697549913
 21
2108.953653911747
 31
0.0
  0
LINE
  5
440C0
330
401E9
100
AcDbEntity
  8
AM_5
100
AcDbLine
 10
3140.04497932807
 20
2119.453653911998
 30
0.0
 11
3133.525697549913
 21
2119.453653911998
 31
0.0
  0
LINE
  5
440C1
330
401E9
100
AcDbEntity
  8
AM_5
100
AcDbLine
 10
3134.525697549913
 20
2108.953653911747
 30
0.0
 11
3134.525697549913
 21
2090.145653911747
 31
0.0
  0
LINE
  5
440C2
330
401E9
100
AcDbEntity
  8
AM_5
100
AcDbLine
 10
3134.525697549913
 20
2109.953653911747
 30
0.0
 11
3134.525697549913
 21
2118.453653911998
 31
0.0
  0
INSERT
  5
440C3
330
401E9
100
AcDbEntity
  8
AM_5
  6
ByBlock
100
AcDbBlockReference
  2
_Dot
 10
3134.525697549913
 20
2108.953653911747
 30
0.0
 50
270.0
  0
INSERT
  5
440C4
330
401E9
100
AcDbEntity
  8
AM_5
  6
ByBlock
100
AcDbBlockReference
  2
_Dot
 10
3134.525697549913
 20
2119.453653911998
 30
0.0
 50
90.0
  0
MTEXT
  5
440C5
330
401E9
100
AcDbEntity
  8
AM_5
 62
     2
100
AcDbMText
 10
3129.259030883246
 20
2098.516320578414
 30
0.0
 40
3.200000000000001
 41
0.0
 71
     5
 72
     1
  1
A寸法\P8～11mm
 11
0.0
 21
1.0
 31
0.0
 73
     1
 44
1.0
  0
POINT
  5
440C6
330
401E9
100
AcDbEntity
  8
Defpoints
 62
     0
100
AcDbPoint
 10
3144.275968364262
 20
2108.953653911747
 30
0.0
  0
POINT
  5
440C7
330
401E9
100
AcDbEntity
  8
Defpoints
 62
     0
100
AcDbPoint
 10
3141.04497932807
 20
2119.453653911998
 30
0.0
  0
POINT
  5
440C8
330
401E9
100
AcDbEntity
  8
Defpoints
 62
     0
100
AcDbPoint
 10
3134.525697549913
 20
2119.453653911998
 30
0.0
  0
ENDBLK
  5
401F4
330
401E9
100
AcDbEntity
  8
0
100
AcDbBlockEnd
  0
BLOCK
  5
4363E
330
43634
100
AcDbEntity
  8
0
100
AcDbBlockBegin
  2
*D17
 70
     1
 10
0.0
 20
0.0
 30
0.0
  3
*D17
  1

  0
LINE
  5
4410E
330
43634
100
AcDbEntity
  8
AM_5
100
AcDbLine
 10
3233.534284153291
 20
2108.953653911747
 30
0.0
 11
3225.034284153291
 21
2108.953653911747
 31
0.0
  0
LINE
  5
4410F
330
43634
100
AcDbEntity
  8
AM_5
100
AcDbLine
 10
3233.034284153291
 20
2109.953653911747
 30
0.0
 11
3225.034284153291
 21
2109.953653911747
 31
0.0
  0
LINE
  5
44110
330
43634
100
AcDbEntity
  8
AM_5
100
AcDbLine
 10
3226.034284153291
 20
2107.953653911747
 30
0.0
 11
3226.034284153291
 21
2084.345653911747
 31
0.0
  0
LINE
  5
44111
330
43634
100
AcDbEntity
  8
AM_5
100
AcDbLine
 10
3226.034284153291
 20
2108.953653911747
 30
0.0
 11
3226.034284153291
 21
2109.953653911747
 31
0.0
  0
LINE
  5
44112
330
43634
100
AcDbEntity
  8
AM_5
100
AcDbLine
 10
3226.034284153291
 20
2110.953653911747
 30
0.0
 11
3226.034284153291
 21
2111.953653911747
 31
0.0
  0
INSERT
  5
44113
330
43634
100
AcDbEntity
  8
AM_5
  6
ByBlock
100
AcDbBlockReference
  2
_Dot
 10
3226.034284153291
 20
2108.953653911747
 30
0.0
 50
90.0
  0
INSERT
  5
44114
330
43634
100
AcDbEntity
  8
AM_5
  6
ByBlock
100
AcDbBlockReference
  2
_Dot
 10
3226.034284153291
 20
2109.953653911747
 30
0.0
 50
270.0
  0
MTEXT
  5
44115
330
43634
100
AcDbEntity
  8
AM_5
 62
     2
100
AcDbMText
 10
3220.767617486624
 20
2095.649653911747
 30
0.0
 40
3.200000000000001
 41
0.0
 71
     5
 72
     1
  1
受け用スペーサー\Pt=1.0
 11
0.0
 21
1.0
 31
0.0
 73
     1
 44
1.0
  0
POINT
  5
44116
330
43634
100
AcDbEntity
  8
Defpoints
 62
     0
100
AcDbPoint
 10
3234.534284153291
 20
2108.953653911747
 30
0.0
  0
POINT
  5
44117
330
43634
100
AcDbEntity
  8
Defpoints
 62
     0
100
AcDbPoint
 10
3234.034284153291
 20
2109.953653911747
 30
0.0
  0
POINT
  5
44118
330
43634
100
AcDbEntity
  8
Defpoints
 62
     0
100
AcDbPoint
 10
3226.034284153291
 20
2109.953653911747
 30
0.0
  0
ENDBLK
  5
4363F
330
43634
100
AcDbEntity
  8
0
100
AcDbBlockEnd
  0
BLOCK
  5
436EF
330
436E5
100
AcDbEntity
  8
0
100
AcDbBlockBegin
  2
*D18
 70
     1
 10
0.0
 20
0.0
 30
0.0
  3
*D18
  1

  0
LINE
  5
440D4
330
436E5
100
AcDbEntity
  8
AM_5
100
AcDbLine
 10
3234.034284153291
 20
2108.953653911747
 30
0.0
 11
3234.034284153291
 21
2091.653653911748
 31
0.0
  0
LINE
  5
440D5
330
436E5
100
AcDbEntity
  8
AM_5
100
AcDbLine
 10
3292.034284153292
 20
2108.953653911747
 30
0.0
 11
3292.034284153292
 21
2091.653653911748
 31
0.0
  0
LINE
  5
440D6
330
436E5
100
AcDbEntity
  8
AM_5
100
AcDbLine
 10
3235.034284153291
 20
2092.653653911748
 30
0.0
 11
3291.034284153292
 21
2092.653653911748
 31
0.0
  0
INSERT
  5
440D7
330
436E5
100
AcDbEntity
  8
AM_5
  6
ByBlock
100
AcDbBlockReference
  2
_Dot
 10
3234.034284153291
 20
2092.653653911748
 30
0.0
 50
180.0
  0
INSERT
  5
440D8
330
436E5
100
AcDbEntity
  8
AM_5
  6
ByBlock
100
AcDbBlockReference
  2
_Dot
 10
3292.034284153292
 20
2092.653653911748
 30
0.0
  0
MTEXT
  5
440D9
330
436E5
100
AcDbEntity
  8
AM_5
 62
     2
100
AcDbMText
 10
3263.034284153291
 20
2095.253653911748
 30
0.0
 40
3.200000000000001
 41
0.0
 71
     5
 72
     1
  1
%%c58
 73
     1
 44
1.0
  0
POINT
  5
440DA
330
436E5
100
AcDbEntity
  8
Defpoints
 62
     0
100
AcDbPoint
 10
3234.034284153291
 20
2109.953653911747
 30
0.0
  0
POINT
  5
440DB
330
436E5
100
AcDbEntity
  8
Defpoints
 62
     0
100
AcDbPoint
 10
3292.034284153292
 20
2109.953653911747
 30
0.0
  0
POINT
  5
440DC
330
436E5
100
AcDbEntity
  8
Defpoints
 62
     0
100
AcDbPoint
 10
3292.034284153292
 20
2092.653653911748
 30
0.0
  0
ENDBLK
  5
436F0
330
436E5
100
AcDbEntity
  8
0
100
AcDbBlockEnd
  0
BLOCK
  5
43D76
330
43D6F
100
AcDbEntity
  8
0
100
AcDbBlockBegin
  2
*D19
 70
     1
 10
0.0
 20
0.0
 30
0.0
  3
*D19
  1

  0
LINE
  5
440E3
330
43D6F
100
AcDbEntity
  8
AM_5
100
AcDbLine
 10
3118.681456181402
 20
2247.195043096831
 30
0.0
 11
3146.156122848069
 21
2247.195043096831
 31
0.0
  0
LINE
  5
440E4
330
43D6F
100
AcDbEntity
  8
AM_5
100
AcDbLine
 10
3146.156122848069
 20
2247.195043096831
 30
0.0
 11
3154.775167776526
 21
2236.162287782091
 31
0.0
  0
MTEXT
  5
440E5
330
43D6F
100
AcDbEntity
  8
AM_5
 62
     2
100
AcDbMText
 10
3131.918789514736
 20
2249.795043096832
 30
0.0
 40
3.2
 41
0.0
 71
     5
 72
     1
  1
4-%%c4.5×\U+22056.5サラ
 73
     1
 44
1.0
  0
LINE
  5
440E6
330
43D6F
100
AcDbEntity
  8
AM_5
100
AcDbLine
 10
3158.776768951998
 20
2231.040062871718
 30
0.0
 11
3154.775167776526
 21
2236.162287782091
 31
0.0
  0
INSERT
  5
440E7
330
43D6F
100
AcDbEntity
  8
AM_5
100
AcDbBlockReference
  2
_DotSmall
 10
3158.776768951998
 20
2231.040062871718
 30
0.0
 41
2.0
 42
2.0
 43
2.0
 50
127.9977805611324
  0
INSERT
  5
440E8
330
43D6F
100
AcDbEntity
  8
AM_5
100
AcDbBlockReference
  2
_DotSmall
 10
3154.775167776526
 20
2236.162287782091
 30
0.0
 41
2.0
 42
2.0
 43
2.0
 50
307.9977805611325
  0
POINT
  5
440E9
330
43D6F
100
AcDbEntity
  8
Defpoints
 62
     0
100
AcDbPoint
 10
3154.775167776526
 20
2236.162287782091
 30
0.0
  0
POINT
  5
440EA
330
43D6F
100
AcDbEntity
  8
Defpoints
 62
     0
100
AcDbPoint
 10
3158.776768951998
 20
2231.040062871718
 30
0.0
  0
ENDBLK
  5
43D77
330
43D6F
100
AcDbEntity
  8
0
100
AcDbBlockEnd
  0
BLOCK
  5
43DA1
330
43D9F
100
AcDbEntity
  8
0
100
AcDbBlockBegin
  2
_DotSmall
 70
     0
 10
0.0
 20
0.0
 30
0.0
  3
_DotSmall
  1

  0
LWPOLYLINE
  5
43DA0
330
43D9F
100
AcDbEntity
  8
0
  6
ByBlock
 62
     0
100
AcDbPolyline
 90
        2
 70
     1
 43
0.5
 10
-0.0625
 20
0.0
 42
1.0
 10
0.0625
 20
0.0
 42
1.0
  0
ENDBLK
  5
43DA2
330
43D9F
100
AcDbEntity
  8
0
100
AcDbBlockEnd
  0
BLOCK
  5
449BD
330
449B6
100
AcDbEntity
  8
AM_CL
100
AcDbBlockBegin
  2
*D25
 70
     1
 10
0.0
 20
0.0
 30
0.0
  3
*D25
  1
Acad:XRef
  0
MTEXT
  5
449B7
330
449B6
100
AcDbEntity
  8
AM_5
 62
     2
100
AcDbMText
 10
3303.603737044723
 20
2140.921109760966
 30
0.0
 40
3.2
 41
0.0
 71
     5
 72
     1
  1
2-\U+22054.5×6.5スロット
 73
     1
 44
1.0
  0
LINE
  5
449B8
330
449B6
100
AcDbEntity
  8
AM_5
100
AcDbLine
 10
3318.441070378056
 20
2138.321109760966
 30
0.0
 11
3287.766403711385
 21
2138.321109760966
 31
0.0
  0
LINE
  5
449B9
330
449B6
100
AcDbEntity
  8
AM_5
100
AcDbLine
 10
3282.746510954101
 20
2135.522922425117
 30
0.0
 11
3287.766403711385
 21
2138.321109760966
 31
0.0
  0
INSERT
  5
449BA
330
449B6
100
AcDbEntity
  8
AM_5
  6
ByBlock
100
AcDbBlockReference
  2
_OPEN30
 10
3280.999580694896
 20
2134.549149007183
 30
0.0
 41
2.0
 42
2.0
 43
2.0
 50
209.1361585649057
  0
POINT
  5
449BB
330
449B6
100
AcDbEntity
  8
Defpoints
 62
     0
100
AcDbPoint
 10
3280.999580694896
 20
2134.549149007183
 30
0.0
  0
POINT
  5
449BC
330
449B6
100
AcDbEntity
  8
Defpoints
 62
     0
100
AcDbPoint
 10
3277.068987611686
 20
2132.358158816833
 30
0.0
  0
ENDBLK
  5
449BE
330
449B6
100
AcDbEntity
  8
AM_CL
100
AcDbBlockEnd
  0
ENDSEC
  0
SECTION
  2
ENTITIES
  0
LINE
  5
266FA
330
1F
100
AcDbEntity
  8
AM_0
100
AcDbLine
 10
3292.034284153292
 20
2109.953653911747
 30
0.0
 11
3234.034284153291
 21
2109.953653911747
 31
0.0
  0
LINE
  5
266FB
330
1F
100
AcDbEntity
  8
AM_0
100
AcDbLine
 10
3234.034284153291
 20
2109.953653911747
 30
0.0
 11
3234.034284153291
 21
2113.453653911747
 31
0.0
  0
LINE
  5
266FC
330
1F
100
AcDbEntity
  8
AM_0
100
AcDbLine
 10
3235.534284153291
 20
2114.953653911747
 30
0.0
 11
3290.534284153292
 21
2114.953653911747
 31
0.0
  0
LINE
  5
266FD
330
1F
100
AcDbEntity
  8
AM_0
100
AcDbLine
 10
3234.034284153291
 20
2113.453653911747
 30
0.0
 11
3235.534284153291
 21
2114.953653911747
 31
0.0
1001
GENIUS_GENFIL_13
1070
     0
1040
2.0
1040
2.0
1040
20.0
1040
0.0
1002
{
1002
}
1001
GENIUS_GENOBJ-N-CHA_13
1002
{
1000
OWNER
1000
GEN
1002
}
1001
GENIUS_GENODEF_13
1002
{
1000
HIER
1070
     0
1002
}
1002
{
1000
MANEDIT
1070
     0
1002
}
1002
{
1000
NOSEL
1070
     0
1002
}
1002
{
1000
BEHIND
1070
     0
1002
}
1002
{
1000
OTHER
1070
     0
1002
}
1002
{
1000
REACTOR
1002
}
  0
LINE
  5
266FE
330
1F
100
AcDbEntity
  8
AM_7N
  6
中心線1
 48
0.5
370
    13
100
AcDbLine
 10
3263.034284153291
 20
2105.953653911747
 30
0.0
 11
3263.034284153291
 21
2143.453653912004
 31
0.0
1001
GENIUS_GENODEF_13
1002
{
1000
HIER
1070
     0
1002
}
1002
{
1000
MANEDIT
1070
     0
1002
}
1002
{
1000
NOSEL
1070
     0
1002
}
1002
{
1000
BEHIND
1070
     0
1002
}
1002
{
1000
OTHER
1070
     0
1002
}
1002
{
1000
REACTOR
1002
}
1001
GENIUS_GENOBJ-N-CEN_13
1002
{
1000
OWNER
1000
GEN
1002
}
1001
GENIUS_GENCEN_19
1002
{
1040
3.0
1002
}
  0
LINE
  5
266FF
330
1F
100
AcDbEntity
  8
AM_7N
  6
中心線1
 48
0.5
370
    13
100
AcDbLine
 10
3250.034284153291
 20
2116.953653911747
 30
0.0
 11
3250.034284153291
 21
2106.953653911747
 31
0.0
1001
GENIUS_GENOBJ-N-CEN_13
1002
{
1000
OWNER
1000
GEN
1002
}
1001
GENIUS_GENODEF_13
1002
{
1000
HIER
1070
     0
1002
}
1002
{
1000
MANEDIT
1070
     0
1002
}
1002
{
1000
NOSEL
1070
     0
1002
}
1002
{
1000
BEHIND
1070
     0
1002
}
1002
{
1000
OTHER
1070
     0
1002
}
1002
{
1000
REACTOR
1002
}
1001
GENIUS_GENCEN_19
1002
{
1040
3.0
1002
}
  0
LINE
  5
26700
330
1F
100
AcDbEntity
  8
AM_0
100
AcDbLine
 10
3292.034284153292
 20
2109.953653911747
 30
0.0
 11
3292.034284153292
 21
2113.453653911747
 31
0.0
  0
LINE
  5
26701
330
1F
100
AcDbEntity
  8
AM_0
100
AcDbLine
 10
3292.034284153292
 20
2113.453653911747
 30
0.0
 11
3290.534284153292
 21
2114.953653911747
 31
0.0
1001
GENIUS_GENFIL_13
1070
     0
1040
2.0
1040
2.0
1040
20.0
1040
0.0
1002
{
1002
}
1001
GENIUS_GENOBJ-N-CHA_13
1002
{
1000
OWNER
1000
GEN
1002
}
1001
GENIUS_GENODEF_13
1002
{
1000
HIER
1070
     0
1002
}
1002
{
1000
MANEDIT
1070
     0
1002
}
1002
{
1000
NOSEL
1070
     0
1002
}
1002
{
1000
BEHIND
1070
     0
1002
}
1002
{
1000
OTHER
1070
     0
1002
}
1002
{
1000
REACTOR
1002
}
  0
LINE
  5
26702
330
1F
100
AcDbEntity
  8
AM_7N
  6
中心線1
 48
0.5
370
    13
100
AcDbLine
 10
3276.034284153291
 20
2106.953653911747
 30
0.0
 11
3276.034284153291
 21
2116.953653911747
 31
0.0
1001
GENIUS_GENODEF_13
1002
{
1000
HIER
1070
     0
1002
}
1002
{
1000
MANEDIT
1070
     0
1002
}
1002
{
1000
NOSEL
1070
     0
1002
}
1002
{
1000
BEHIND
1070
     0
1002
}
1002
{
1000
OTHER
1070
     0
1002
}
1002
{
1000
REACTOR
1002
}
1001
GENIUS_GENOBJ-N-CEN_13
1002
{
1000
OWNER
1000
GEN
1002
}
1001
GENIUS_GENCEN_19
1002
{
1040
3.0
1002
}
  0
LINE
  5
26703
330
1F
100
AcDbEntity
  8
AM_0
100
AcDbLine
 10
3292.034284153292
 20
2113.453653911747
 30
0.0
 11
3234.034284153291
 21
2113.453653911747
 31
0.0
  0
LINE
  5
26762
330
1F
100
AcDbEntity
  8
AM_0
100
AcDbLine
 10
3246.534284153294
 20
2114.953653911747
 30
0.0
 11
3246.534284153294
 21
2121.66447341599
 31
0.0
  0
LINE
  5
26763
330
1F
100
AcDbEntity
  8
AM_0
100
AcDbLine
 10
3279.534284153294
 20
2121.664473415983
 30
0.0
 11
3279.534284153294
 21
2114.953653911747
 31
0.0
  0
ARC
  5
26764
330
1F
100
AcDbEntity
  8
AM_0
100
AcDbCircle
 10
3263.034284153291
 20
1965.279057613429
 30
0.0
 40
159.174596298565
100
AcDbArc
 50
85.56039212200861
 51
94.43960787799122
  0
ARC
  5
26765
330
1F
100
AcDbEntity
  8
AM_0
100
AcDbCircle
 10
3251.773400877436
 20
2117.126393240638
 30
0.0
 40
6.931270859453088
100
AcDbArc
 50
98.80133021868052
 51
139.1011564782838
  0
ARC
  5
26766
330
1F
100
AcDbEntity
  8
AM_0
100
AcDbCircle
 10
3274.295167429146
 20
2117.126393240638
 30
0.0
 40
6.931270859453088
100
AcDbArc
 50
40.89884352171092
 51
81.19866978129289
  0
ARC
  5
26767
330
1F
100
AcDbEntity
  8
AM_0
100
AcDbCircle
 10
3263.034284153293
 20
2122.074530099964
 30
0.0
 40
3.645608405178187
100
AcDbArc
 50
196.2480801139465
 51
343.7519198860534
  0
LINE
  5
26768
330
1F
100
AcDbEntity
  8
AM_0
100
AcDbLine
 10
3266.534284153293
 20
2121.054500372992
 30
0.0
 11
3266.534284153293
 21
2124.41516950137
 31
0.0
  0
LINE
  5
26769
330
1F
100
AcDbEntity
  8
AM_0
100
AcDbLine
 10
3259.534284153293
 20
2121.054500372992
 30
0.0
 11
3259.534284153293
 21
2124.41516950137
 31
0.0
  0
LINE
  5
267E3
330
1F
100
AcDbEntity
  8
AM_0
100
AcDbLine
 10
3241.534284153291
 20
2139.453653912003
 30
0.0
 11
3241.534284153291
 21
2120.453653912001
 31
0.0
  0
ARC
  5
267E4
330
1F
100
AcDbEntity
  8
AM_0
100
AcDbCircle
 10
3242.534284153291
 20
2139.453653912003
 30
0.0
 40
1.0
100
AcDbArc
 50
90.0
 51
180.0
1001
GENIUS_GENOBJ-N-FIL_13
1002
{
1000
OWNER
1000
GEN
1002
}
1001
GENIUS_GENODEF_13
1002
{
1000
HIER
1070
     0
1002
}
1002
{
1000
MANEDIT
1070
     0
1002
}
1002
{
1000
NOSEL
1070
     0
1002
}
1002
{
1000
BEHIND
1070
     0
1002
}
1002
{
1000
OTHER
1070
     0
1002
}
1002
{
1000
REACTOR
1002
}
  0
ARC
  5
267E5
330
1F
100
AcDbEntity
  8
AM_0
100
AcDbCircle
 10
3242.534284153291
 20
2120.453653912001
 30
0.0
 40
1.0
100
AcDbArc
 50
180.0
 51
270.0
1001
GENIUS_GENOBJ-N-FIL_13
1002
{
1000
OWNER
1000
GEN
1002
}
1001
GENIUS_GENODEF_13
1002
{
1000
HIER
1070
     0
1002
}
1002
{
1000
MANEDIT
1070
     0
1002
}
1002
{
1000
NOSEL
1070
     0
1002
}
1002
{
1000
BEHIND
1070
     0
1002
}
1002
{
1000
OTHER
1070
     0
1002
}
1002
{
1000
REACTOR
1002
}
  0
LINE
  5
267E6
330
1F
100
AcDbEntity
  8
AM_0
100
AcDbLine
 10
3244.034284153291
 20
2124.453653911994
 30
0.0
 11
3244.034284153291
 21
2119.453653912001
 31
0.0
  0
LINE
  5
267E7
330
1F
100
AcDbEntity
  8
AM_0
100
AcDbLine
 10
3282.034284153291
 20
2124.453653911994
 30
0.0
 11
3244.034284153291
 21
2124.453653911994
 31
0.0
  0
LINE
  5
267E8
330
1F
100
AcDbEntity
  8
AM_0
100
AcDbLine
 10
3282.034284153291
 20
2124.453653911994
 30
0.0
 11
3282.034284153291
 21
2119.453653912002
 31
0.0
  0
LINE
  5
267E9
330
1F
100
AcDbEntity
  8
AM_0
100
AcDbLine
 10
3283.534284153291
 20
2140.453653912005
 30
0.0
 11
3242.534284153291
 21
2140.453653912004
 31
0.0
  0
ARC
  5
267EA
330
1F
100
AcDbEntity
  8
AM_0
100
AcDbCircle
 10
3283.534284153291
 20
2139.453653912005
 30
0.0
 40
1.0
100
AcDbArc
 50
0.0
 51
90.0
1001
GENIUS_GENODEF_13
1002
{
1000
HIER
1070
     0
1002
}
1002
{
1000
MANEDIT
1070
     0
1002
}
1002
{
1000
NOSEL
1070
     0
1002
}
1002
{
1000
BEHIND
1070
     0
1002
}
1002
{
1000
OTHER
1070
     0
1002
}
1002
{
1000
REACTOR
1002
}
1001
GENIUS_GENOBJ-N-FIL_13
1002
{
1000
OWNER
1000
GEN
1002
}
  0
LINE
  5
267EB
330
1F
100
AcDbEntity
  8
AM_0
100
AcDbLine
 10
3284.534284153291
 20
2139.453653912005
 30
0.0
 11
3284.534284153291
 21
2120.453653912001
 31
0.0
  0
ARC
  5
267EC
330
1F
100
AcDbEntity
  8
AM_0
100
AcDbCircle
 10
3283.534284153291
 20
2120.453653912001
 30
0.0
 40
1.0
100
AcDbArc
 50
269.999999999974
 51
0.0
1001
GENIUS_GENOBJ-N-FIL_13
1002
{
1000
OWNER
1000
GEN
1002
}
1001
GENIUS_GENODEF_13
1002
{
1000
HIER
1070
     0
1002
}
1002
{
1000
MANEDIT
1070
     0
1002
}
1002
{
1000
NOSEL
1070
     0
1002
}
1002
{
1000
BEHIND
1070
     0
1002
}
1002
{
1000
OTHER
1070
     0
1002
}
1002
{
1000
REACTOR
1002
}
  0
LINE
  5
267F0
330
1F
100
AcDbEntity
  8
AM_7N
  6
中心線1
 48
0.5
370
    13
100
AcDbLine
 10
3279.034284153291
 20
2124.953653912003
 30
0.0
 11
3279.034284153291
 21
2139.953653912009
 31
0.0
1001
GENIUS_GENODEF_13
1002
{
1000
HIER
1070
     0
1002
}
1002
{
1000
MANEDIT
1070
     0
1002
}
1002
{
1000
NOSEL
1070
     0
1002
}
1002
{
1000
BEHIND
1070
     0
1002
}
1002
{
1000
OTHER
1070
     0
1002
}
1002
{
1000
REACTOR
1002
}
1001
GENIUS_GENOBJ-N-CEN_13
1002
{
1000
OWNER
1000
GEN
1002
}
1001
GENIUS_GENCEN_19
1002
{
1040
3.0
1002
}
  0
LINE
  5
267F6
330
1F
100
AcDbEntity
  8
AM_0
100
AcDbLine
 10
3242.534284153291
 20
2119.453653912
 30
0.0
 11
3246.534284153294
 21
2119.453653912
 31
0.0
  0
LINE
  5
267F7
330
1F
100
AcDbEntity
  8
AM_0
100
AcDbLine
 10
3279.534284153293
 20
2119.453653912001
 30
0.0
 11
3283.534284153291
 21
2119.453653912001
 31
0.0
  0
LINE
  5
267F8
330
1F
100
AcDbEntity
  8
AM_7N
  6
中心線1
 48
0.5
370
    13
100
AcDbLine
 10
3272.534284153291
 20
2132.453653912006
 30
0.0
 11
3285.534284153291
 21
2132.453653912006
 31
0.0
1001
GENIUS_GENOBJ-N-CEN_13
1002
{
1000
OWNER
1000
GEN
1002
}
1001
GENIUS_GENODEF_13
1002
{
1000
HIER
1070
     0
1002
}
1002
{
1000
MANEDIT
1070
     0
1002
}
1002
{
1000
NOSEL
1070
     0
1002
}
1002
{
1000
BEHIND
1070
     0
1002
}
1002
{
1000
OTHER
1070
     0
1002
}
1002
{
1000
REACTOR
1002
}
1001
GENIUS_GENCEN_19
1002
{
1040
3.0
1002
}
  0
LINE
  5
267F9
330
1F
100
AcDbEntity
  8
AM_0
100
AcDbLine
 10
3274.534284153291
 20
2126.703653912002
 30
0.0
 11
3274.534284153291
 21
2138.203653912003
 31
0.0
  0
ARC
  5
267FA
330
1F
100
AcDbEntity
  8
AM_0
100
AcDbCircle
 10
3275.034284153291
 20
2127.453653912002
 30
0.0
 40
0.5
100
AcDbArc
 50
143.1301023549272
 51
180.0
1001
GENIUS_GENODEF_13
1002
{
1000
HIER
1070
     0
1002
}
1002
{
1000
MANEDIT
1070
     0
1002
}
1002
{
1000
NOSEL
1070
     0
1002
}
1002
{
1000
BEHIND
1070
     0
1002
}
1002
{
1000
OTHER
1070
     0
1002
}
1002
{
1000
REACTOR
1002
}
1001
GENIUS_GENOBJ-N-FIL_13
1002
{
1000
OWNER
1000
GEN
1002
}
  0
ARC
  5
267FB
330
1F
100
AcDbEntity
  8
AM_0
100
AcDbCircle
 10
3275.034284153291
 20
2137.453653912007
 30
0.0
 40
0.5
100
AcDbArc
 50
180.0
 51
216.8698976450728
1001
GENIUS_GENOBJ-N-FIL_13
1002
{
1000
OWNER
1000
GEN
1002
}
1001
GENIUS_GENODEF_13
1002
{
1000
HIER
1070
     0
1002
}
1002
{
1000
MANEDIT
1070
     0
1002
}
1002
{
1000
NOSEL
1070
     0
1002
}
1002
{
1000
BEHIND
1070
     0
1002
}
1002
{
1000
OTHER
1070
     0
1002
}
1002
{
1000
REACTOR
1002
}
  0
LINE
  5
267FC
330
1F
100
AcDbEntity
  8
AM_0
100
AcDbLine
 10
3274.534284153291
 20
2126.703653912002
 30
0.0
 11
3284.534284153291
 21
2126.703653912002
 31
0.0
  0
LINE
  5
267FD
330
1F
100
AcDbEntity
  8
AM_0
100
AcDbLine
 10
3274.534284153291
 20
2138.203653912003
 30
0.0
 11
3284.534284153291
 21
2138.203653912002
 31
0.0
  0
LINE
  5
267FE
330
1F
100
AcDbEntity
  8
AM_0
100
AcDbLine
 10
3283.034284153291
 20
2126.703653912002
 30
0.0
 11
3283.034284153291
 21
2126.803653912
 31
0.0
  0
LINE
  5
267FF
330
1F
100
AcDbEntity
  8
AM_0
100
AcDbLine
 10
3283.034284153291
 20
2138.203653912007
 30
0.0
 11
3283.034284153291
 21
2138.103653912005
 31
0.0
  0
LINE
  5
26800
330
1F
100
AcDbEntity
  8
AM_0
100
AcDbLine
 10
3279.534284153291
 20
2138.203653912002
 30
0.0
 11
3279.674284153287
 21
2138.103653912005
 31
0.0
  0
LINE
  5
26801
330
1F
100
AcDbEntity
  8
AM_0
100
AcDbLine
 10
3278.034284153291
 20
2138.203653912002
 30
0.0
 11
3277.894284153295
 21
2138.103653912005
 31
0.0
  0
LINE
  5
26802
330
1F
100
AcDbEntity
  8
AM_0
100
AcDbLine
 10
3279.534284153291
 20
2126.703653912007
 30
0.0
 11
3279.674284153281
 21
2126.803653912
 31
0.0
  0
LINE
  5
26803
330
1F
100
AcDbEntity
  8
AM_0
100
AcDbLine
 10
3278.034284153291
 20
2126.703653912007
 30
0.0
 11
3277.894284153301
 21
2126.803653912
 31
0.0
  0
LINE
  5
26804
330
1F
100
AcDbEntity
  8
AM_0
100
AcDbLine
 10
3284.534284153291
 20
2138.103653912005
 30
0.0
 11
3274.634284153288
 21
2138.103653912005
 31
0.0
  0
LINE
  5
26805
330
1F
100
AcDbEntity
  8
AM_0
100
AcDbLine
 10
3274.634284153288
 20
2126.803653912
 30
0.0
 11
3284.534284153291
 21
2126.803653912
 31
0.0
  0
LINE
  5
26806
330
1F
100
AcDbEntity
  8
AM_0
100
AcDbLine
 10
3274.634284153288
 20
2138.103653912005
 30
0.0
 11
3274.634284153288
 21
2126.803653912
 31
0.0
  0
LINE
  5
26807
330
1F
100
AcDbEntity
  8
AM_0
100
AcDbLine
 10
3284.534284153291
 20
2138.103653912005
 30
0.0
 11
3284.534284153291
 21
2126.803653912
 31
0.0
  0
LINE
  5
26808
330
1F
100
AcDbEntity
  8
AM_0
100
AcDbLine
 10
3282.984284153616
 20
2126.703653912002
 30
0.0
 11
3282.984284153616
 21
2126.803653912
 31
0.0
  0
LINE
  5
26809
330
1F
100
AcDbEntity
  8
AM_0
100
AcDbLine
 10
3279.784284153565
 20
2126.803653912
 30
0.0
 11
3280.184277232724
 21
2126.703653912002
 31
0.0
  0
LINE
  5
2680A
330
1F
100
AcDbEntity
  8
AM_0
100
AcDbLine
 10
3274.834284153378
 20
2126.803653912
 30
0.0
 11
3274.834284153378
 21
2126.703653912002
 31
0.0
  0
LINE
  5
2680B
330
1F
100
AcDbEntity
  8
AM_0
100
AcDbLine
 10
3275.83428415338
 20
2126.703653912002
 30
0.0
 11
3275.83428415338
 21
2126.803653912
 31
0.0
  0
LINE
  5
2680C
330
1F
100
AcDbEntity
  8
AM_0
100
AcDbLine
 10
3282.984284153616
 20
2138.203653912002
 30
0.0
 11
3282.984284153616
 21
2138.103653912005
 31
0.0
  0
LINE
  5
2680D
330
1F
100
AcDbEntity
  8
AM_0
100
AcDbLine
 10
3279.784284153565
 20
2138.103653912005
 30
0.0
 11
3280.184277232724
 21
2138.203653912002
 31
0.0
  0
LINE
  5
2680E
330
1F
100
AcDbEntity
  8
AM_0
100
AcDbLine
 10
3274.834284153378
 20
2138.103653912005
 30
0.0
 11
3274.834284153378
 21
2138.203653912002
 31
0.0
  0
LINE
  5
2680F
330
1F
100
AcDbEntity
  8
AM_0
100
AcDbLine
 10
3275.83428415338
 20
2138.203653912002
 30
0.0
 11
3275.83428415338
 21
2138.103653912005
 31
0.0
  0
LINE
  5
26810
330
1F
100
AcDbEntity
  8
AM_7N
  6
中心線1
 48
0.5
370
    13
100
AcDbLine
 10
3247.034284153291
 20
2124.953653912003
 30
0.0
 11
3247.034284153291
 21
2139.953653912009
 31
0.0
1001
GENIUS_GENODEF_13
1002
{
1000
HIER
1070
     0
1002
}
1002
{
1000
MANEDIT
1070
     0
1002
}
1002
{
1000
NOSEL
1070
     0
1002
}
1002
{
1000
BEHIND
1070
     0
1002
}
1002
{
1000
OTHER
1070
     0
1002
}
1002
{
1000
REACTOR
1002
}
1001
GENIUS_GENOBJ-N-CEN_13
1002
{
1000
OWNER
1000
GEN
1002
}
1001
GENIUS_GENCEN_19
1002
{
1040
3.0
1002
}
  0
LINE
  5
26811
330
1F
100
AcDbEntity
  8
AM_7N
  6
中心線1
 48
0.5
370
    13
100
AcDbLine
 10
3253.534284153291
 20
2132.453653912006
 30
0.0
 11
3240.534284153291
 21
2132.453653912006
 31
0.0
1001
GENIUS_GENOBJ-N-CEN_13
1002
{
1000
OWNER
1000
GEN
1002
}
1001
GENIUS_GENODEF_13
1002
{
1000
HIER
1070
     0
1002
}
1002
{
1000
MANEDIT
1070
     0
1002
}
1002
{
1000
NOSEL
1070
     0
1002
}
1002
{
1000
BEHIND
1070
     0
1002
}
1002
{
1000
OTHER
1070
     0
1002
}
1002
{
1000
REACTOR
1002
}
1001
GENIUS_GENCEN_19
1002
{
1040
3.0
1002
}
  0
LINE
  5
26812
330
1F
100
AcDbEntity
  8
AM_0
100
AcDbLine
 10
3251.534284153291
 20
2126.703653912002
 30
0.0
 11
3251.534284153291
 21
2138.203653912003
 31
0.0
  0
ARC
  5
26813
330
1F
100
AcDbEntity
  8
AM_0
100
AcDbCircle
 10
3251.034284153291
 20
2127.453653912002
 30
0.0
 40
0.5
100
AcDbArc
 50
0.0
 51
36.86989764507279
1001
GENIUS_GENODEF_13
1002
{
1000
HIER
1070
     0
1002
}
1002
{
1000
MANEDIT
1070
     0
1002
}
1002
{
1000
NOSEL
1070
     0
1002
}
1002
{
1000
BEHIND
1070
     0
1002
}
1002
{
1000
OTHER
1070
     0
1002
}
1002
{
1000
REACTOR
1002
}
1001
GENIUS_GENOBJ-N-FIL_13
1002
{
1000
OWNER
1000
GEN
1002
}
  0
ARC
  5
26814
330
1F
100
AcDbEntity
  8
AM_0
100
AcDbCircle
 10
3251.034284153291
 20
2137.453653912007
 30
0.0
 40
0.5
100
AcDbArc
 50
323.1301023549272
 51
0.0
1001
GENIUS_GENOBJ-N-FIL_13
1002
{
1000
OWNER
1000
GEN
1002
}
1001
GENIUS_GENODEF_13
1002
{
1000
HIER
1070
     0
1002
}
1002
{
1000
MANEDIT
1070
     0
1002
}
1002
{
1000
NOSEL
1070
     0
1002
}
1002
{
1000
BEHIND
1070
     0
1002
}
1002
{
1000
OTHER
1070
     0
1002
}
1002
{
1000
REACTOR
1002
}
  0
LINE
  5
26815
330
1F
100
AcDbEntity
  8
AM_0
100
AcDbLine
 10
3251.534284153291
 20
2126.703653912002
 30
0.0
 11
3241.534284153291
 21
2126.703653912002
 31
0.0
  0
LINE
  5
26816
330
1F
100
AcDbEntity
  8
AM_0
100
AcDbLine
 10
3251.534284153291
 20
2138.203653912003
 30
0.0
 11
3241.534284153291
 21
2138.203653912002
 31
0.0
  0
LINE
  5
26817
330
1F
100
AcDbEntity
  8
AM_0
100
AcDbLine
 10
3243.034284153291
 20
2126.703653912002
 30
0.0
 11
3243.034284153291
 21
2126.803653912
 31
0.0
  0
LINE
  5
26818
330
1F
100
AcDbEntity
  8
AM_0
100
AcDbLine
 10
3243.034284153291
 20
2138.203653912007
 30
0.0
 11
3243.034284153291
 21
2138.103653912005
 31
0.0
  0
LINE
  5
26819
330
1F
100
AcDbEntity
  8
AM_0
100
AcDbLine
 10
3246.534284153291
 20
2138.203653912002
 30
0.0
 11
3246.394284153296
 21
2138.103653912005
 31
0.0
  0
LINE
  5
2681A
330
1F
100
AcDbEntity
  8
AM_0
100
AcDbLine
 10
3248.034284153291
 20
2138.203653912002
 30
0.0
 11
3248.174284153287
 21
2138.103653912005
 31
0.0
  0
LINE
  5
2681B
330
1F
100
AcDbEntity
  8
AM_0
100
AcDbLine
 10
3246.534284153291
 20
2126.703653912007
 30
0.0
 11
3246.394284153301
 21
2126.803653912
 31
0.0
  0
LINE
  5
2681C
330
1F
100
AcDbEntity
  8
AM_0
100
AcDbLine
 10
3248.034284153291
 20
2126.703653912007
 30
0.0
 11
3248.174284153281
 21
2126.803653912
 31
0.0
  0
LINE
  5
2681D
330
1F
100
AcDbEntity
  8
AM_0
100
AcDbLine
 10
3241.534284153291
 20
2138.103653912005
 30
0.0
 11
3251.434284153294
 21
2138.103653912005
 31
0.0
  0
LINE
  5
2681E
330
1F
100
AcDbEntity
  8
AM_0
100
AcDbLine
 10
3251.434284153294
 20
2126.803653912
 30
0.0
 11
3241.534284153291
 21
2126.803653912
 31
0.0
  0
LINE
  5
2681F
330
1F
100
AcDbEntity
  8
AM_0
100
AcDbLine
 10
3251.434284153294
 20
2138.103653912005
 30
0.0
 11
3251.434284153294
 21
2126.803653912
 31
0.0
  0
LINE
  5
26820
330
1F
100
AcDbEntity
  8
AM_0
100
AcDbLine
 10
3241.534284153291
 20
2138.103653912005
 30
0.0
 11
3241.534284153291
 21
2126.803653912
 31
0.0
  0
LINE
  5
26821
330
1F
100
AcDbEntity
  8
AM_0
100
AcDbLine
 10
3243.084284152966
 20
2126.703653912002
 30
0.0
 11
3243.084284152966
 21
2126.803653912
 31
0.0
  0
LINE
  5
26822
330
1F
100
AcDbEntity
  8
AM_0
100
AcDbLine
 10
3246.284284153018
 20
2126.803653912
 30
0.0
 11
3245.88429107386
 21
2126.703653912002
 31
0.0
  0
LINE
  5
26823
330
1F
100
AcDbEntity
  8
AM_0
100
AcDbLine
 10
3251.234284153204
 20
2126.803653912
 30
0.0
 11
3251.234284153204
 21
2126.703653912002
 31
0.0
  0
LINE
  5
26824
330
1F
100
AcDbEntity
  8
AM_0
100
AcDbLine
 10
3250.234284153202
 20
2126.703653912002
 30
0.0
 11
3250.234284153202
 21
2126.803653912
 31
0.0
  0
LINE
  5
26825
330
1F
100
AcDbEntity
  8
AM_0
100
AcDbLine
 10
3243.084284152966
 20
2138.203653912002
 30
0.0
 11
3243.084284152966
 21
2138.103653912005
 31
0.0
  0
LINE
  5
26826
330
1F
100
AcDbEntity
  8
AM_0
100
AcDbLine
 10
3246.284284153018
 20
2138.103653912005
 30
0.0
 11
3245.884291073859
 21
2138.203653912002
 31
0.0
  0
LINE
  5
26827
330
1F
100
AcDbEntity
  8
AM_0
100
AcDbLine
 10
3251.234284153204
 20
2138.103653912005
 30
0.0
 11
3251.234284153204
 21
2138.203653912002
 31
0.0
  0
LINE
  5
26828
330
1F
100
AcDbEntity
  8
AM_0
100
AcDbLine
 10
3250.234284153202
 20
2138.203653912002
 30
0.0
 11
3250.234284153202
 21
2138.103653912005
 31
0.0
  0
DIMENSION
  5
26851
330
1F
100
AcDbEntity
  8
AM_5
100
AcDbDimension
  2
*D4
 10
3226.034284153291
 20
2114.950450000106
 30
0.0
 11
3226.034284153291
 21
2112.700450000107
 31
0.0
 70
   160
 71
     5
 42
5.0
  3
SYS$0
100
AcDbAlignedDimension
 13
3234.034284153291
 23
2109.950450000106
 33
0.0
 14
3235.534284153291
 24
2114.950450000106
 34
0.0
 50
90.0
100
AcDbRotatedDimension
  0
DIMENSION
  5
26854
330
1F
100
AcDbEntity
  8
AM_5
100
AcDbDimension
  2
*D5
 10
3226.034284153291
 20
2140.453653912004
 30
0.0
 11
3226.034284153291
 21
2129.953653912002
 31
0.0
 70
   160
 71
     5
 42
21.00000000000409
  3
SYS$0
100
AcDbAlignedDimension
 13
3242.534284153291
 23
2119.453653912
 33
0.0
 14
3242.534284153291
 24
2140.453653912004
 34
0.0
 50
90.0
100
AcDbRotatedDimension
  0
DIMENSION
  5
2685D
330
1F
100
AcDbEntity
  8
AM_5
100
AcDbDimension
  2
*D6
 10
3291.534284153291
 20
2100.653653911748
 30
0.0
 11
3263.034284153291
 21
2100.653653911748
 31
0.0
 70
   160
  1
%%c<>
 71
     5
 42
57.0
  3
SYS$0
100
AcDbAlignedDimension
 13
3234.534284153291
 23
2108.953653911747
 33
0.0
 14
3291.534284153291
 24
2108.953653911747
 34
0.0
100
AcDbRotatedDimension
  0
DIMENSION
  5
2685E
330
1F
100
AcDbEntity
  8
AM_5
100
AcDbDimension
  2
*D7
 10
3284.534284153292
 20
2156.453653912004
 30
0.0
 11
3263.034284153291
 21
2156.453653912004
 31
0.0
 70
   160
 71
     5
 42
43.00000000000091
  3
SYS$0
100
AcDbAlignedDimension
 13
3241.534284153291
 23
2139.453653912003
 33
0.0
 14
3284.534284153292
 24
2139.453653912005
 34
0.0
100
AcDbRotatedDimension
  0
DIMENSION
  5
2685F
330
1F
100
AcDbEntity
  8
AM_5
100
AcDbDimension
  2
*D8
 10
3279.034284153291
 20
2148.453653912004
 30
0.0
 11
3263.034284153291
 21
2148.453653912004
 31
0.0
 70
   160
 71
     5
 42
32.0
  3
SYS$0
100
AcDbAlignedDimension
 13
3247.034284153291
 23
2139.953653912009
 33
0.0
 14
3279.034284153291
 24
2139.953653912009
 34
0.0
100
AcDbRotatedDimension
  0
LINE
  5
29F51
330
1F
100
AcDbEntity
  8
AM_0
100
AcDbLine
 10
3170.944979324261
 20
2226.799003720537
 30
0.0
 11
3170.944979324261
 21
2214.403346933267
 31
0.0
  0
LINE
  5
29F52
330
1F
100
AcDbEntity
  8
AM_7N
  6
中心線1
 48
0.5
370
    13
100
AcDbLine
 10
3190.275968364261
 20
2239.351175326902
 30
0.0
 11
3190.275968364261
 21
2227.851175326902
 31
0.0
1001
GENIUS_GENODEF_13
1002
{
1000
HIER
1070
     0
1002
}
1002
{
1000
MANEDIT
1070
     0
1002
}
1002
{
1000
NOSEL
1070
     0
1002
}
1002
{
1000
BEHIND
1070
     0
1002
}
1002
{
1000
OTHER
1070
     0
1002
}
1002
{
1000
REACTOR
1002
}
1001
GENIUS_GENOBJ-N-CEN_13
1002
{
1000
OWNER
1000
GEN
1002
}
1001
GENIUS_GENCEN_19
1002
{
1040
3.0
1002
}
  0
LINE
  5
29F53
330
1F
100
AcDbEntity
  8
AM_0
100
AcDbLine
 10
3181.725697544262
 20
2237.601175326902
 30
0.0
 11
3156.94497932426
 21
2237.601175326901
 31
0.0
  0
LINE
  5
29F54
330
1F
100
AcDbEntity
  8
AM_0
100
AcDbLine
 10
3156.944979324263
 20
2203.601175326901
 30
0.0
 11
3181.725697544262
 21
2203.601175326902
 31
0.0
  0
LINE
  5
29F55
330
1F
100
AcDbEntity
  8
AM_7N
  6
中心線1
 48
0.5
370
    13
100
AcDbLine
 10
3204.775968364261
 20
2220.601175326902
 30
0.0
 11
3139.832323764261
 21
2220.601175326902
 31
0.0
1001
GENIUS_GENODEF_13
1002
{
1000
HIER
1070
     0
1002
}
1002
{
1000
MANEDIT
1070
     0
1002
}
1002
{
1000
NOSEL
1070
     0
1002
}
1002
{
1000
BEHIND
1070
     0
1002
}
1002
{
1000
OTHER
1070
     0
1002
}
1002
{
1000
REACTOR
1002
}
1001
GENIUS_GENOBJ-N-CEN_13
1002
{
1000
OWNER
1000
GEN
1002
}
1001
GENIUS_GENCEN_19
1002
{
1040
3.0
1002
}
  0
LINE
  5
29F56
330
1F
100
AcDbEntity
  8
AM_0
100
AcDbLine
 10
3181.725697544262
 20
2215.601175326902
 30
0.0
 11
3178.525697544262
 21
2215.601175326902
 31
0.0
1001
GENIUS_GENODEF_13
1002
{
1000
HIER
1070
     0
1002
}
1002
{
1000
MANEDIT
1070
     0
1002
}
1002
{
1000
NOSEL
1070
     0
1002
}
1002
{
1000
BEHIND
1070
     0
1002
}
1002
{
1000
OTHER
1070
     0
1002
}
1002
{
1000
REACTOR
1002
}
1001
GENIUS_GENOBJ-N-CEN_13
1002
{
1000
OWNER
1000
GEN
1002
}
1001
GENIUS_GENCEN_19
1002
{
1040
3.0
1002
}
  0
ARC
  5
29F57
330
1F
100
AcDbEntity
  8
AM_0
100
AcDbCircle
 10
3181.725697544262
 20
2215.301175326902
 30
0.0
 40
0.3
100
AcDbArc
 50
0.0
 51
90.0
1001
GENIUS_GENOBJ-N-CEN_13
1002
{
1000
OWNER
1000
GEN
1002
}
1001
GENIUS_GENCEN_19
1002
{
1040
3.0
1002
}
1001
GENIUS_GENOBJ-N-FIL_13
1002
{
1000
OWNER
1000
GEN
1002
}
1001
GENIUS_GENODEF_13
1002
{
1000
HIER
1070
     0
1002
}
1002
{
1000
MANEDIT
1070
     0
1002
}
1002
{
1000
NOSEL
1070
     0
1002
}
1002
{
1000
BEHIND
1070
     0
1002
}
1002
{
1000
OTHER
1070
     0
1002
}
1002
{
1000
REACTOR
1002
}
  0
ARC
  5
29F58
330
1F
100
AcDbEntity
  8
AM_0
100
AcDbCircle
 10
3178.525697544262
 20
2216.601175326902
 30
0.0
 40
1.0
100
AcDbArc
 50
180.0
 51
270.0
1001
GENIUS_GENOBJ-N-CEN_13
1002
{
1000
OWNER
1000
GEN
1002
}
1001
GENIUS_GENCEN_19
1002
{
1040
3.0
1002
}
1001
GENIUS_GENODEF_13
1002
{
1000
HIER
1070
     0
1002
}
1002
{
1000
MANEDIT
1070
     0
1002
}
1002
{
1000
NOSEL
1070
     0
1002
}
1002
{
1000
BEHIND
1070
     0
1002
}
1002
{
1000
OTHER
1070
     0
1002
}
1002
{
1000
REACTOR
1002
}
1001
GENIUS_GENOBJ-N-FIL_13
1002
{
1000
OWNER
1000
GEN
1002
}
  0
LINE
  5
29F59
330
1F
100
AcDbEntity
  8
AM_0
100
AcDbLine
 10
3181.725697544262
 20
2225.601175326902
 30
0.0
 11
3178.525697544263
 21
2225.601175326902
 31
0.0
1001
GENIUS_GENODEF_13
1002
{
1000
HIER
1070
     0
1002
}
1002
{
1000
MANEDIT
1070
     0
1002
}
1002
{
1000
NOSEL
1070
     0
1002
}
1002
{
1000
BEHIND
1070
     0
1002
}
1002
{
1000
OTHER
1070
     0
1002
}
1002
{
1000
REACTOR
1002
}
1001
GENIUS_GENOBJ-N-CEN_13
1002
{
1000
OWNER
1000
GEN
1002
}
1001
GENIUS_GENCEN_19
1002
{
1040
3.0
1002
}
  0
ARC
  5
29F5A
330
1F
100
AcDbEntity
  8
AM_0
100
AcDbCircle
 10
3181.725697544262
 20
2225.901175326903
 30
0.0
 40
0.3
100
AcDbArc
 50
270.0
 51
0.0
1001
GENIUS_GENOBJ-N-CEN_13
1002
{
1000
OWNER
1000
GEN
1002
}
1001
GENIUS_GENCEN_19
1002
{
1040
3.0
1002
}
1001
GENIUS_GENODEF_13
1002
{
1000
HIER
1070
     0
1002
}
1002
{
1000
MANEDIT
1070
     0
1002
}
1002
{
1000
NOSEL
1070
     0
1002
}
1002
{
1000
BEHIND
1070
     0
1002
}
1002
{
1000
OTHER
1070
     0
1002
}
1002
{
1000
REACTOR
1002
}
1001
GENIUS_GENOBJ-N-FIL_13
1002
{
1000
OWNER
1000
GEN
1002
}
  0
ARC
  5
29F5B
330
1F
100
AcDbEntity
  8
AM_0
100
AcDbCircle
 10
3178.525697544263
 20
2224.601175326903
 30
0.0
 40
1.0
100
AcDbArc
 50
90.0
 51
180.0
1001
GENIUS_GENOBJ-N-CEN_13
1002
{
1000
OWNER
1000
GEN
1002
}
1001
GENIUS_GENCEN_19
1002
{
1040
3.0
1002
}
1001
GENIUS_GENODEF_13
1002
{
1000
HIER
1070
     0
1002
}
1002
{
1000
MANEDIT
1070
     0
1002
}
1002
{
1000
NOSEL
1070
     0
1002
}
1002
{
1000
BEHIND
1070
     0
1002
}
1002
{
1000
OTHER
1070
     0
1002
}
1002
{
1000
REACTOR
1002
}
1001
GENIUS_GENOBJ-N-FIL_13
1002
{
1000
OWNER
1000
GEN
1002
}
  0
LINE
  5
29F5C
330
1F
100
AcDbEntity
  8
AM_7N
  6
中心線1
 48
0.5
370
    13
100
AcDbLine
 10
3172.775968364261
 20
2188.601175326903
 30
0.0
 11
3172.775968364261
 21
2252.601175326902
 31
0.0
1001
GENIUS_GENODEF_13
1002
{
1000
HIER
1070
     0
1002
}
1002
{
1000
MANEDIT
1070
     0
1002
}
1002
{
1000
NOSEL
1070
     0
1002
}
1002
{
1000
BEHIND
1070
     0
1002
}
1002
{
1000
OTHER
1070
     0
1002
}
1002
{
1000
REACTOR
1002
}
1001
GENIUS_GENOBJ-N-CEN_13
1002
{
1000
OWNER
1000
GEN
1002
}
1001
GENIUS_GENCEN_19
1002
{
1040
3.0
1002
}
  0
CIRCLE
  5
29F5D
330
1F
100
AcDbEntity
  8
AM_0
100
AcDbCircle
 10
3190.275968364261
 20
2233.601175326902
 30
0.0
 40
4.25
  0
ARC
  5
29F5E
330
1F
100
AcDbEntity
  8
AM_0
100
AcDbCircle
 10
3181.725697544262
 20
2237.301175326901
 30
0.0
 40
0.3
100
AcDbArc
 50
0.0
 51
90.0
1001
GENIUS_GENODEF_13
1002
{
1000
HIER
1070
     0
1002
}
1002
{
1000
MANEDIT
1070
     0
1002
}
1002
{
1000
NOSEL
1070
     0
1002
}
1002
{
1000
BEHIND
1070
     0
1002
}
1002
{
1000
OTHER
1070
     0
1002
}
1002
{
1000
REACTOR
1002
}
1001
GENIUS_GENOBJ-N-FIL_13
1002
{
1000
OWNER
1000
GEN
1002
}
  0
ARC
  5
29F5F
330
1F
100
AcDbEntity
  8
AM_0
100
AcDbCircle
 10
3181.725697544262
 20
2203.901175326901
 30
0.0
 40
0.3
100
AcDbArc
 50
270.0
 51
0.0
1001
GENIUS_GENODEF_13
1002
{
1000
HIER
1070
     0
1002
}
1002
{
1000
MANEDIT
1070
     0
1002
}
1002
{
1000
NOSEL
1070
     0
1002
}
1002
{
1000
BEHIND
1070
     0
1002
}
1002
{
1000
OTHER
1070
     0
1002
}
1002
{
1000
REACTOR
1002
}
1001
GENIUS_GENOBJ-N-FIL_13
1002
{
1000
OWNER
1000
GEN
1002
}
  0
LINE
  5
29F60
330
1F
100
AcDbEntity
  8
AM_0
100
AcDbLine
 10
3182.025697544262
 20
2237.301175326901
 30
0.0
 11
3182.025697544262
 21
2225.901175326903
 31
0.0
  0
LINE
  5
29F61
330
1F
100
AcDbEntity
  8
AM_0
100
AcDbLine
 10
3182.025697544262
 20
2215.301175326902
 30
0.0
 11
3182.025697544263
 21
2203.901175326901
 31
0.0
  0
LINE
  5
29F62
330
1F
100
AcDbEntity
  8
AM_0
100
AcDbLine
 10
3174.02569754426
 20
2237.601175326902
 30
0.0
 11
3173.525697544258
 21
2237.101175326901
 31
0.0
  0
LINE
  5
29F63
330
1F
100
AcDbEntity
  8
AM_0
100
AcDbLine
 10
3174.025697544261
 20
2203.601175326902
 30
0.0
 11
3173.525697544262
 21
2204.101175326901
 31
0.0
  0
LINE
  5
29F64
330
1F
100
AcDbEntity
  8
AM_0
100
AcDbLine
 10
3179.759941056518
 20
2237.101175326901
 30
0.0
 11
3179.759941056518
 21
2237.601175326902
 31
0.0
  0
LINE
  5
29F65
330
1F
100
AcDbEntity
  8
AM_0
100
AcDbLine
 10
3179.759941056519
 20
2204.101175326901
 30
0.0
 11
3179.759941056518
 21
2203.601175326901
 31
0.0
  0
LINE
  5
29F66
330
1F
100
AcDbEntity
  8
AM_7N
  6
中心線1
 48
0.5
370
    13
100
AcDbLine
 10
3190.275968364261
 20
2213.351175326902
 30
0.0
 11
3190.275968364261
 21
2201.851175326902
 31
0.0
1001
GENIUS_GENODEF_13
1002
{
1000
HIER
1070
     0
1002
}
1002
{
1000
MANEDIT
1070
     0
1002
}
1002
{
1000
NOSEL
1070
     0
1002
}
1002
{
1000
BEHIND
1070
     0
1002
}
1002
{
1000
OTHER
1070
     0
1002
}
1002
{
1000
REACTOR
1002
}
1001
GENIUS_GENOBJ-N-CEN_13
1002
{
1000
OWNER
1000
GEN
1002
}
1001
GENIUS_GENCEN_19
1002
{
1040
3.0
1002
}
  0
CIRCLE
  5
29F67
330
1F
100
AcDbEntity
  8
AM_0
100
AcDbCircle
 10
3190.275968364261
 20
2207.601175326902
 30
0.0
 40
4.25
  0
LINE
  5
29F68
330
1F
100
AcDbEntity
  8
AM_7N
  6
中心線1
 48
0.5
370
    13
100
AcDbLine
 10
3184.525968364261
 20
2233.601175326902
 30
0.0
 11
3196.025968364261
 21
2233.601175326902
 31
0.0
1001
GENIUS_GENODEF_13
1002
{
1000
HIER
1070
     0
1002
}
1002
{
1000
MANEDIT
1070
     0
1002
}
1002
{
1000
NOSEL
1070
     0
1002
}
1002
{
1000
BEHIND
1070
     0
1002
}
1002
{
1000
OTHER
1070
     0
1002
}
1002
{
1000
REACTOR
1002
}
1001
GENIUS_GENOBJ-N-CEN_13
1002
{
1000
OWNER
1000
GEN
1002
}
1001
GENIUS_GENCEN_19
1002
{
1040
3.0
1002
}
  0
LINE
  5
29F69
330
1F
100
AcDbEntity
  8
AM_7N
  6
中心線1
 48
0.5
370
    13
100
AcDbLine
 10
3184.525968364261
 20
2207.601175326902
 30
0.0
 11
3196.025968364261
 21
2207.601175326902
 31
0.0
1001
GENIUS_GENODEF_13
1002
{
1000
HIER
1070
     0
1002
}
1002
{
1000
MANEDIT
1070
     0
1002
}
1002
{
1000
NOSEL
1070
     0
1002
}
1002
{
1000
BEHIND
1070
     0
1002
}
1002
{
1000
OTHER
1070
     0
1002
}
1002
{
1000
REACTOR
1002
}
1001
GENIUS_GENOBJ-N-CEN_13
1002
{
1000
OWNER
1000
GEN
1002
}
1001
GENIUS_GENCEN_19
1002
{
1040
3.0
1002
}
  0
LINE
  5
29F6A
330
1F
100
AcDbEntity
  8
AM_0
100
AcDbLine
 10
3179.77569754426
 20
2226.1011753269
 30
0.0
 11
3179.77569754426
 21
2225.601175326902
 31
0.0
  0
LINE
  5
29F6B
330
1F
100
AcDbEntity
  8
AM_0
100
AcDbLine
 10
3179.775697544262
 20
2215.601175326902
 30
0.0
 11
3179.775697544261
 21
2215.1011753269
 31
0.0
  0
LINE
  5
29F6C
330
1F
100
AcDbEntity
  8
AM_0
100
AcDbLine
 10
3179.925697545809
 20
2204.101175326904
 30
0.0
 11
3156.944979324263
 21
2204.101175326906
 31
0.0
  0
LINE
  5
29F6D
330
1F
100
AcDbEntity
  8
AM_0
100
AcDbLine
 10
3156.94497932426
 20
2237.101175326905
 30
0.0
 11
3179.925697545809
 21
2237.101175326905
 31
0.0
  0
LINE
  5
29F6E
330
1F
100
AcDbEntity
  8
AM_0
100
AcDbLine
 10
3182.025697544262
 20
2226.101175326904
 30
0.0
 11
3176.425697515695
 21
2226.101175326906
 31
0.0
  0
ARC
  5
29F6F
330
1F
100
AcDbEntity
  8
AM_0
100
AcDbCircle
 10
3176.425697515694
 20
2225.101175326906
 30
0.0
 40
1.0
100
AcDbArc
 50
89.99999999994789
 51
180.0
1001
GENIUS_GENODEF_13
1002
{
1000
HIER
1070
     0
1002
}
1002
{
1000
MANEDIT
1070
     0
1002
}
1002
{
1000
NOSEL
1070
     0
1002
}
1002
{
1000
BEHIND
1070
     0
1002
}
1002
{
1000
OTHER
1070
     0
1002
}
1002
{
1000
REACTOR
1002
}
1001
GENIUS_GENOBJ-N-FIL_13
1002
{
1000
OWNER
1000
GEN
1002
}
  0
LINE
  5
29F70
330
1F
100
AcDbEntity
  8
AM_0
100
AcDbLine
 10
3175.425697515694
 20
2225.101175326906
 30
0.0
 11
3175.425697515694
 21
2216.101175326905
 31
0.0
  0
ARC
  5
29F71
330
1F
100
AcDbEntity
  8
AM_0
100
AcDbCircle
 10
3176.425697515694
 20
2216.101175326905
 30
0.0
 40
1.0
100
AcDbArc
 50
180.0
 51
270.0
1001
GENIUS_GENOBJ-N-FIL_13
1002
{
1000
OWNER
1000
GEN
1002
}
1001
GENIUS_GENODEF_13
1002
{
1000
HIER
1070
     0
1002
}
1002
{
1000
MANEDIT
1070
     0
1002
}
1002
{
1000
NOSEL
1070
     0
1002
}
1002
{
1000
BEHIND
1070
     0
1002
}
1002
{
1000
OTHER
1070
     0
1002
}
1002
{
1000
REACTOR
1002
}
  0
LINE
  5
29F72
330
1F
100
AcDbEntity
  8
AM_0
100
AcDbLine
 10
3176.425697515694
 20
2215.101175326905
 30
0.0
 11
3182.025697544263
 21
2215.101175326905
 31
0.0
  0
LINE
  5
29F73
330
1F
100
AcDbEntity
  8
AM_0
100
AcDbLine
 10
3179.925697545809
 20
2215.101175326905
 30
0.0
 11
3179.925697545809
 21
2203.601175326902
 31
0.0
  0
LINE
  5
29F74
330
1F
100
AcDbEntity
  8
AM_0
100
AcDbLine
 10
3179.925697545809
 20
2226.101175326905
 30
0.0
 11
3179.925697545808
 21
2237.601175326902
 31
0.0
  0
LINE
  5
29F75
330
1F
100
AcDbEntity
  8
AM_2
  6
細線
370
    13
100
AcDbLine
 10
3175.89456864287
 20
2237.101175326905
 30
0.0
 11
3175.89456864287
 21
2225.947318061672
 31
0.0
  0
LINE
  5
29F76
330
1F
100
AcDbEntity
  8
AM_2
  6
細線
370
    13
100
AcDbLine
 10
3175.89456864287
 20
2215.25388427865
 30
0.0
 11
3175.89456864287
 21
2204.101175326905
 31
0.0
  0
LINE
  5
29F77
330
1F
100
AcDbEntity
  8
AM_0
100
AcDbLine
 10
3177.525697544262
 20
2216.601175326902
 30
0.0
 11
3177.525697544263
 21
2224.601175326903
 31
0.0
  0
ARC
  5
29F78
330
1F
100
AcDbEntity
  8
AM_0
100
AcDbCircle
 10
3190.275968364261
 20
2233.601175326902
 30
0.0
 40
4.2
100
AcDbArc
 50
19.47122063389829
 51
340.5287793661017
  0
ARC
  5
29F79
330
1F
100
AcDbEntity
  8
AM_0
100
AcDbCircle
 10
3192.449342683433
 20
2233.601175326902
 30
0.0
 40
1.0
100
AcDbArc
 50
90.0
 51
270.0
  0
LINE
  5
29F7A
330
1F
100
AcDbEntity
  8
AM_0
100
AcDbLine
 10
3192.449342683433
 20
2234.601175326902
 30
0.0
 11
3193.952923626553
 21
2234.601175326902
 31
0.0
  0
LINE
  5
29F7B
330
1F
100
AcDbEntity
  8
AM_0
100
AcDbLine
 10
3192.449342683433
 20
2232.601175326902
 30
0.0
 11
3193.952923626552
 21
2232.601175326902
 31
0.0
  0
ARC
  5
29F7C
330
1F
100
AcDbEntity
  8
AM_0
100
AcDbCircle
 10
3190.275968364261
 20
2207.601175326902
 30
0.0
 40
4.2
100
AcDbArc
 50
19.47122063389829
 51
340.5287793661017
  0
ARC
  5
29F7D
330
1F
100
AcDbEntity
  8
AM_0
100
AcDbCircle
 10
3192.449342683433
 20
2207.601175326902
 30
0.0
 40
1.0
100
AcDbArc
 50
90.0
 51
270.0
  0
LINE
  5
29F7E
330
1F
100
AcDbEntity
  8
AM_0
100
AcDbLine
 10
3192.449342683433
 20
2208.601175326903
 30
0.0
 11
3193.952923626553
 21
2208.601175326903
 31
0.0
  0
LINE
  5
29F7F
330
1F
100
AcDbEntity
  8
AM_0
100
AcDbLine
 10
3192.449342683433
 20
2206.601175326902
 30
0.0
 11
3193.952923626552
 21
2206.601175326902
 31
0.0
  0
ARC
  5
29F80
330
1F
100
AcDbEntity
  8
AM_0
100
AcDbCircle
 10
3157.944979324262
 20
2210.733879925209
 30
0.0
 40
1.0
100
AcDbArc
 50
98.13010235416698
 51
180.0
1001
GENIUS_GENODEF_13
1002
{
1000
HIER
1070
     0
1002
}
1002
{
1000
MANEDIT
1070
     0
1002
}
1002
{
1000
NOSEL
1070
     0
1002
}
1002
{
1000
BEHIND
1070
     0
1002
}
1002
{
1000
OTHER
1070
     0
1002
}
1002
{
1000
REACTOR
1002
}
1001
GENIUS_GENOBJ-N-FIL_13
1002
{
1000
OWNER
1000
GEN
1002
}
  0
ARC
  5
29F81
330
1F
100
AcDbEntity
  8
AM_0
100
AcDbCircle
 10
3157.944979324254
 20
2230.468470728598
 30
0.0
 40
1.0
100
AcDbArc
 50
179.9999999999479
 51
261.8698976458329
1001
GENIUS_GENODEF_13
1002
{
1000
HIER
1070
     0
1002
}
1002
{
1000
MANEDIT
1070
     0
1002
}
1002
{
1000
NOSEL
1070
     0
1002
}
1002
{
1000
BEHIND
1070
     0
1002
}
1002
{
1000
OTHER
1070
     0
1002
}
1002
{
1000
REACTOR
1002
}
1001
GENIUS_GENOBJ-N-FIL_13
1002
{
1000
OWNER
1000
GEN
1002
}
  0
LINE
  5
29F82
330
1F
100
AcDbEntity
  8
AM_0
100
AcDbLine
 10
3170.086400680498
 20
2213.478521234936
 30
0.0
 11
3157.803557968025
 21
2211.723829418871
 31
0.0
  0
ARC
  5
29F83
330
1F
100
AcDbEntity
  8
AM_0
100
AcDbCircle
 10
3169.944979324261
 20
2214.468470728597
 30
0.0
 40
1.0
100
AcDbArc
 50
278.130102354167
 51
0.0
1001
GENIUS_GENODEF_13
1002
{
1000
HIER
1070
     0
1002
}
1002
{
1000
MANEDIT
1070
     0
1002
}
1002
{
1000
NOSEL
1070
     0
1002
}
1002
{
1000
BEHIND
1070
     0
1002
}
1002
{
1000
OTHER
1070
     0
1002
}
1002
{
1000
REACTOR
1002
}
1001
GENIUS_GENOBJ-N-FIL_13
1002
{
1000
OWNER
1000
GEN
1002
}
  0
LINE
  5
29F84
330
1F
100
AcDbEntity
  8
AM_0
100
AcDbLine
 10
3170.086400680499
 20
2227.723829418867
 30
0.0
 11
3157.803557968017
 21
2229.478521234937
 31
0.0
  0
ARC
  5
29F85
330
1F
100
AcDbEntity
  8
AM_0
100
AcDbCircle
 10
3169.944979324261
 20
2226.733879925207
 30
0.0
 40
1.0
100
AcDbArc
 50
0.0
 51
81.86989764583294
1001
GENIUS_GENODEF_13
1002
{
1000
HIER
1070
     0
1002
}
1002
{
1000
MANEDIT
1070
     0
1002
}
1002
{
1000
NOSEL
1070
     0
1002
}
1002
{
1000
BEHIND
1070
     0
1002
}
1002
{
1000
OTHER
1070
     0
1002
}
1002
{
1000
REACTOR
1002
}
1001
GENIUS_GENOBJ-N-FIL_13
1002
{
1000
OWNER
1000
GEN
1002
}
  0
ARC
  5
29F86
330
1F
100
AcDbEntity
  8
AM_0
100
AcDbCircle
 10
3172.775968364261
 20
2220.601175326902
 30
0.0
 40
29.0
100
AcDbArc
 50
227.8490445649333
 51
132.1509554350666
  0
ARC
  5
29F87
330
1F
100
AcDbEntity
  8
AM_0
100
AcDbCircle
 10
3172.775968364261
 20
2220.601175326902
 30
0.0
 40
29.0
100
AcDbArc
 50
152.9643355849964
 51
153.3668812508367
  0
ARC
  5
29F88
330
1F
100
AcDbEntity
  8
AM_0
100
AcDbCircle
 10
3172.775968364261
 20
2220.601175326902
 30
0.0
 40
27.5
100
AcDbArc
 50
231.4273491777703
 51
128.5726508222297
  0
LINE
  5
29F8A
330
1F
100
AcDbEntity
  8
AM_0
100
AcDbLine
 10
3155.944979324263
 20
2199.101175326902
 30
0.0
 11
3146.944979324262
 21
2199.101175326903
 31
0.0
  0
ARC
  5
29F8B
330
1F
100
AcDbEntity
  8
AM_0
100
AcDbCircle
 10
3155.944979324263
 20
2200.101175326901
 30
0.0
 40
1.0
100
AcDbArc
 50
270.0
 51
0.0
1001
GENIUS_GENOBJ-N-FIL_13
1002
{
1000
OWNER
1000
GEN
1002
}
1001
GENIUS_GENODEF_13
1002
{
1000
HIER
1070
     0
1002
}
1002
{
1000
MANEDIT
1070
     0
1002
}
1002
{
1000
NOSEL
1070
     0
1002
}
1002
{
1000
BEHIND
1070
     0
1002
}
1002
{
1000
OTHER
1070
     0
1002
}
1002
{
1000
REACTOR
1002
}
  0
LINE
  5
29F8C
330
1F
100
AcDbEntity
  8
AM_0
100
AcDbLine
 10
3146.944979324262
 20
2242.101175326903
 30
0.0
 11
3155.944979324262
 21
2242.101175326903
 31
0.0
  0
ARC
  5
29F8D
330
1F
100
AcDbEntity
  8
AM_0
100
AcDbCircle
 10
3155.944979324262
 20
2241.101175326903
 30
0.0
 40
1.0
100
AcDbArc
 50
0.0
 51
90.0
1001
GENIUS_GENOBJ-N-FIL_13
1002
{
1000
OWNER
1000
GEN
1002
}
1001
GENIUS_GENODEF_13
1002
{
1000
HIER
1070
     0
1002
}
1002
{
1000
MANEDIT
1070
     0
1002
}
1002
{
1000
NOSEL
1070
     0
1002
}
1002
{
1000
BEHIND
1070
     0
1002
}
1002
{
1000
OTHER
1070
     0
1002
}
1002
{
1000
REACTOR
1002
}
  0
LINE
  5
29F8E
330
1F
100
AcDbEntity
  8
AM_0
100
AcDbLine
 10
3156.944979324262
 20
2210.73387992521
 30
0.0
 11
3156.944979324263
 21
2200.101175326901
 31
0.0
  0
LINE
  5
29F8F
330
1F
100
AcDbEntity
  8
AM_0
100
AcDbLine
 10
3156.944979324254
 20
2230.468470728598
 30
0.0
 11
3156.944979324263
 21
2241.101175326903
 31
0.0
  0
LINE
  5
29F90
330
1F
100
AcDbEntity
  8
AM_0
100
AcDbLine
 10
3146.944979324262
 20
2199.101175326903
 30
0.0
 11
3146.944979324262
 21
2242.101175326905
 31
0.0
  0
LINE
  5
29F91
330
1F
100
AcDbEntity
  8
AM_2
  6
細線
370
    13
100
AcDbLine
 10
3156.944979324262
 20
2212.611327871456
 30
0.0
 11
3156.944979324262
 21
2228.591022782349
 31
0.0
  0
LINE
  5
2B1CA
330
1F
100
AcDbEntity
  8
AM_11
 48
0.5
370
    13
100
AcDbLine
 10
3108.64497932807
 20
2156.453653911996
 30
0.0
 11
3108.64497932807
 21
2119.453653911998
 31
0.0
  0
LINE
  5
2B1CB
330
1F
100
AcDbEntity
  8
AM_11
 48
0.5
370
    13
100
AcDbLine
 10
3109.24497932807
 20
2156.453653911996
 30
0.0
 11
3109.24497932807
 21
2119.453653911998
 31
0.0
  0
LINE
  5
2B1CC
330
1F
100
AcDbEntity
  8
AM_11
 48
0.5
370
    13
100
AcDbLine
 10
3146.644979328069
 20
2156.453653911996
 30
0.0
 11
3146.644979328069
 21
2119.453653911998
 31
0.0
  0
LINE
  5
2B1CD
330
1F
100
AcDbEntity
  8
AM_11
 48
0.5
370
    13
100
AcDbLine
 10
3146.044979328069
 20
2156.453653911996
 30
0.0
 11
3146.044979328069
 21
2119.453653911998
 31
0.0
  0
LINE
  5
2B1CE
330
1F
100
AcDbEntity
  8
AM_11
 48
0.5
370
    13
100
AcDbLine
 10
3110.74497932807
 20
2119.453653911998
 30
0.0
 11
3114.544979328069
 21
2119.453653911998
 31
0.0
  0
ARC
  5
2B1CF
330
1F
100
AcDbEntity
  8
AM_11
 48
0.5
370
    13
100
AcDbCircle
 10
3110.74497932807
 20
2120.653653911999
 30
0.0
 40
1.199999999999999
100
AcDbArc
 50
180.0
 51
270.0
  0
LINE
  5
2B1D0
330
1F
100
AcDbEntity
  8
AM_11
 48
0.5
370
    13
100
AcDbLine
 10
3110.74497932807
 20
2120.653653911999
 30
0.0
 11
3114.544979328069
 21
2120.653653911999
 31
0.0
  0
LINE
  5
2B1D1
330
1F
100
AcDbEntity
  8
AM_11
 48
0.5
370
    13
100
AcDbLine
 10
3108.64497932807
 20
2119.453653911998
 30
0.0
 11
3109.24497932807
 21
2119.453653911998
 31
0.0
  0
LINE
  5
2B1D2
330
1F
100
AcDbEntity
  8
AM_11
 48
0.5
370
    13
100
AcDbLine
 10
3114.544979328069
 20
2120.653653911999
 30
0.0
 11
3114.544979328069
 21
2119.453653911998
 31
0.0
  0
LINE
  5
2B1D3
330
1F
100
AcDbEntity
  8
AM_11
 48
0.5
370
    13
100
AcDbLine
 10
3140.74497932807
 20
2119.453653911998
 30
0.0
 11
3144.544979326714
 21
2119.453653911998
 31
0.0
  0
LINE
  5
2B1D4
330
1F
100
AcDbEntity
  8
AM_11
 48
0.5
370
    13
100
AcDbLine
 10
3140.74497932807
 20
2120.653653911999
 30
0.0
 11
3144.544979326712
 21
2120.653653911999
 31
0.0
  0
LINE
  5
2B1D5
330
1F
100
AcDbEntity
  8
AM_11
 48
0.5
370
    13
100
AcDbLine
 10
3146.044979328069
 20
2119.453653911998
 30
0.0
 11
3146.644979328069
 21
2119.453653911998
 31
0.0
  0
LINE
  5
2B1D6
330
1F
100
AcDbEntity
  8
AM_11
 48
0.5
370
    13
100
AcDbLine
 10
3140.74497932807
 20
2120.653653911999
 30
0.0
 11
3140.74497932807
 21
2119.453653911998
 31
0.0
  0
LINE
  5
2B1D7
330
1F
100
AcDbEntity
  8
AM_11
 48
0.5
370
    13
100
AcDbLine
 10
3146.044979328069
 20
2150.453653911998
 30
0.0
 11
3109.24497932807
 21
2150.453653911998
 31
0.0
  0
LINE
  5
2B1D8
330
1F
100
AcDbEntity
  8
AM_11
 48
0.5
370
    13
100
AcDbLine
 10
3110.744979328072
 20
2144.453653911998
 30
0.0
 11
3144.544979328058
 21
2144.453653911998
 31
0.0
  0
LINE
  5
2B1D9
330
1F
100
AcDbEntity
  8
AM_11
 48
0.5
370
    13
100
AcDbLine
 10
3110.744979328072
 20
2143.253653911998
 30
0.0
 11
3144.544979328058
 21
2143.253653912001
 31
0.0
  0
LINE
  5
2B1DB
330
1F
100
AcDbEntity
  8
AM_11
 48
0.5
370
    13
100
AcDbLine
 10
3109.544979328069
 20
2120.653653911999
 30
0.0
 11
3109.544979328071
 21
2143.253653911998
 31
0.0
  0
ARC
  5
2B1DC
330
1F
100
AcDbEntity
  8
AM_11
 48
0.5
370
    13
100
AcDbCircle
 10
3110.744979328072
 20
2143.253653911998
 30
0.0
 40
1.199999999999999
100
AcDbArc
 50
90.0
 51
180.0
  0
LINE
  5
2B1DD
330
1F
100
AcDbEntity
  8
AM_11
 48
0.5
370
    13
100
AcDbLine
 10
3110.74497932807
 20
2120.653653911999
 30
0.0
 11
3110.744979328072
 21
2143.253653911998
 31
0.0
  0
LINE
  5
2B1DE
330
1F
100
AcDbEntity
  8
AM_11
 48
0.5
370
    13
100
AcDbLine
 10
3145.744979328059
 20
2143.253653911925
 30
0.0
 11
3145.744979326715
 21
2120.653653911926
 31
0.0
  0
ARC
  5
2B1DF
330
1F
100
AcDbEntity
  8
AM_11
 48
0.5
370
    13
100
AcDbCircle
 10
3144.544979328058
 20
2143.253653911998
 30
0.0
 40
1.199999999999999
100
AcDbArc
 50
0.0
 51
90.0
  0
ARC
  5
2B1E0
330
1F
100
AcDbEntity
  8
AM_11
 48
0.5
370
    13
100
AcDbCircle
 10
3144.544979326714
 20
2120.653653911999
 30
0.0
 40
1.199999999999999
100
AcDbArc
 50
270.0
 51
0.0
  0
LINE
  5
2B1E1
330
1F
100
AcDbEntity
  8
AM_11
 48
0.5
370
    13
100
AcDbLine
 10
3144.544979328058
 20
2143.253653912001
 30
0.0
 11
3144.544979326712
 21
2120.653653911999
 31
0.0
  0
LINE
  5
2B1E2
330
1F
100
AcDbEntity
  8
AM_11
 48
0.5
370
    13
100
AcDbLine
 10
3144.544979326714
 20
2120.653653911999
 30
0.0
 11
3144.544979326714
 21
2119.453653911999
 31
0.0
  0
DIMENSION
  5
2B1E3
330
1F
100
AcDbEntity
  8
AM_5
100
AcDbDimension
  2
*D9
 10
3146.644979328069
 20
2172.453653911996
 30
0.0
 11
3127.644979328069
 21
2172.453653911996
 31
0.0
 70
   160
  1
Dt
 71
     5
 42
37.99999999999909
  3
SYS$0
100
AcDbAlignedDimension
 13
3108.64497932807
 23
2156.453653911996
 33
0.0
 14
3146.644979328069
 24
2156.453653911996
 34
0.0
100
AcDbRotatedDimension
  0
DIMENSION
  5
2B1E9
330
1F
100
AcDbEntity
  8
AM_5
100
AcDbDimension
  2
*D10
 10
3146.644979328069
 20
2172.453653911996
 30
0.0
 11
3158.944979328071
 21
2172.453653911996
 31
0.0
 70
   160
  1
（<>）
 71
     5
 42
24.300000000002
  3
SYS$0
100
AcDbAlignedDimension
 13
3170.944979328071
 23
2132.217585934501
 33
0.0
 14
3146.644979328069
 24
2156.453653911996
 34
0.0
100
AcDbRotatedDimension
1001
ACAD
1000
DSTYLE
1002
{
1070
   271
1070
     0
1002
}
  0
LINE
  5
2B1EA
330
1F
100
AcDbEntity
  8
AM_7N
  6
中心線1
 48
0.5
370
    13
100
AcDbLine
 10
3141.544979327415
 20
2132.453653911785
 30
0.0
 11
3159.944979328071
 21
2132.453653912
 31
0.0
1001
GENIUS_GENOBJ-N-CEN_13
1002
{
1000
OWNER
1000
GEN
1002
}
1001
GENIUS_GENODEF_13
1002
{
1000
HIER
1070
     0
1002
}
1002
{
1000
MANEDIT
1070
     0
1002
}
1002
{
1000
NOSEL
1070
     0
1002
}
1002
{
1000
BEHIND
1070
     0
1002
}
1002
{
1000
OTHER
1070
     0
1002
}
1002
{
1000
REACTOR
1002
}
1001
GENIUS_GENCEN_19
1002
{
1040
3.0
1002
}
  0
LINE
  5
2B1EB
330
1F
100
AcDbEntity
  8
AM_0
100
AcDbLine
 10
3143.775968364261
 20
2109.953653911747
 30
0.0
 11
3201.775968364261
 21
2109.953653911747
 31
0.0
  0
LINE
  5
2B1EC
330
1F
100
AcDbEntity
  8
AM_0
100
AcDbLine
 10
3201.775968364261
 20
2109.953653911747
 30
0.0
 11
3201.775968364261
 21
2113.453653911747
 31
0.0
  0
LINE
  5
2B1ED
330
1F
100
AcDbEntity
  8
AM_0
100
AcDbLine
 10
3200.275968364262
 20
2114.953653911747
 30
0.0
 11
3145.275968364261
 21
2114.953653911747
 31
0.0
  0
LINE
  5
2B1EE
330
1F
100
AcDbEntity
  8
AM_0
100
AcDbLine
 10
3201.775968364261
 20
2113.453653911747
 30
0.0
 11
3200.275968364262
 21
2114.953653911747
 31
0.0
1001
GENIUS_GENFIL_13
1070
     0
1040
2.0
1040
2.0
1040
20.0
1040
0.0
1002
{
1002
}
1001
GENIUS_GENOBJ-N-CHA_13
1002
{
1000
OWNER
1000
GEN
1002
}
1001
GENIUS_GENODEF_13
1002
{
1000
HIER
1070
     0
1002
}
1002
{
1000
MANEDIT
1070
     0
1002
}
1002
{
1000
NOSEL
1070
     0
1002
}
1002
{
1000
BEHIND
1070
     0
1002
}
1002
{
1000
OTHER
1070
     0
1002
}
1002
{
1000
REACTOR
1002
}
  0
LINE
  5
2B1EF
330
1F
100
AcDbEntity
  8
AM_7N
  6
中心線1
 48
0.5
370
    13
100
AcDbLine
 10
3172.775968364261
 20
2105.953653911747
 30
0.0
 11
3172.775968364261
 21
2117.953653911747
 31
0.0
1001
GENIUS_GENODEF_13
1002
{
1000
HIER
1070
     0
1002
}
1002
{
1000
MANEDIT
1070
     0
1002
}
1002
{
1000
NOSEL
1070
     0
1002
}
1002
{
1000
BEHIND
1070
     0
1002
}
1002
{
1000
OTHER
1070
     0
1002
}
1002
{
1000
REACTOR
1002
}
1001
GENIUS_GENOBJ-N-CEN_13
1002
{
1000
OWNER
1000
GEN
1002
}
1001
GENIUS_GENCEN_19
1002
{
1040
3.0
1002
}
  0
LINE
  5
2B1F0
330
1F
100
AcDbEntity
  8
AM_0
100
AcDbLine
 10
3143.775968364261
 20
2109.953653911747
 30
0.0
 11
3143.775968364261
 21
2113.453653911747
 31
0.0
  0
LINE
  5
2B1F1
330
1F
100
AcDbEntity
  8
AM_0
100
AcDbLine
 10
3143.775968364261
 20
2113.453653911747
 30
0.0
 11
3145.275968364261
 21
2114.953653911747
 31
0.0
1001
GENIUS_GENFIL_13
1070
     0
1040
2.0
1040
2.0
1040
20.0
1040
0.0
1002
{
1002
}
1001
GENIUS_GENOBJ-N-CHA_13
1002
{
1000
OWNER
1000
GEN
1002
}
1001
GENIUS_GENODEF_13
1002
{
1000
HIER
1070
     0
1002
}
1002
{
1000
MANEDIT
1070
     0
1002
}
1002
{
1000
NOSEL
1070
     0
1002
}
1002
{
1000
BEHIND
1070
     0
1002
}
1002
{
1000
OTHER
1070
     0
1002
}
1002
{
1000
REACTOR
1002
}
  0
LINE
  5
2B1F2
330
1F
100
AcDbEntity
  8
AM_7N
  6
中心線1
 48
0.5
370
    13
100
AcDbLine
 10
3156.775968363524
 20
2116.953653911747
 30
0.0
 11
3156.775968364037
 21
2106.953653911747
 31
0.0
1001
GENIUS_GENOBJ-N-CEN_13
1002
{
1000
OWNER
1000
GEN
1002
}
1001
GENIUS_GENODEF_13
1002
{
1000
HIER
1070
     0
1002
}
1002
{
1000
MANEDIT
1070
     0
1002
}
1002
{
1000
NOSEL
1070
     0
1002
}
1002
{
1000
BEHIND
1070
     0
1002
}
1002
{
1000
OTHER
1070
     0
1002
}
1002
{
1000
REACTOR
1002
}
1001
GENIUS_GENCEN_19
1002
{
1040
3.0
1002
}
  0
LINE
  5
2B1F3
330
1F
100
AcDbEntity
  8
AM_0
100
AcDbLine
 10
3201.775968364261
 20
2113.453653911747
 30
0.0
 11
3143.775968364261
 21
2113.453653911747
 31
0.0
  0
LINE
  5
2B1F4
330
1F
100
AcDbEntity
  8
AM_7N
  6
中心線1
 48
0.5
370
    13
100
AcDbLine
 10
3190.275968363895
 20
2116.953653911747
 30
0.0
 11
3190.275968364408
 21
2106.953653911747
 31
0.0
1001
GENIUS_GENOBJ-N-CEN_13
1002
{
1000
OWNER
1000
GEN
1002
}
1001
GENIUS_GENODEF_13
1002
{
1000
HIER
1070
     0
1002
}
1002
{
1000
MANEDIT
1070
     0
1002
}
1002
{
1000
NOSEL
1070
     0
1002
}
1002
{
1000
BEHIND
1070
     0
1002
}
1002
{
1000
OTHER
1070
     0
1002
}
1002
{
1000
REACTOR
1002
}
1001
GENIUS_GENCEN_19
1002
{
1040
3.0
1002
}
  0
LINE
  5
2B20F
330
1F
100
AcDbEntity
  8
AM_0
100
AcDbLine
 10
3170.94497932807
 20
2132.35500196171
 30
0.0
 11
3170.94497932807
 21
2125.453653911989
 31
0.0
  0
ARC
  5
2B210
330
1F
100
AcDbEntity
  8
AM_0
100
AcDbCircle
 10
3169.94497932807
 20
2132.35500196171
 30
0.0
 40
1.0
100
AcDbArc
 50
0.0
 51
61.8138608635151
1001
GENIUS_GENODEF_13
1002
{
1000
HIER
1070
     0
1002
}
1002
{
1000
MANEDIT
1070
     0
1002
}
1002
{
1000
NOSEL
1070
     0
1002
}
1002
{
1000
BEHIND
1070
     0
1002
}
1002
{
1000
OTHER
1070
     0
1002
}
1002
{
1000
REACTOR
1002
}
1001
GENIUS_GENOBJ-N-FIL_13
1002
{
1000
OWNER
1000
GEN
1002
}
  0
ARC
  5
2B211
330
1F
100
AcDbEntity
  8
AM_0
100
AcDbCircle
 10
3169.94497932807
 20
2125.453653911989
 30
0.0
 40
1.0
100
AcDbArc
 50
270.0
 51
0.0
1001
GENIUS_GENODEF_13
1002
{
1000
HIER
1070
     0
1002
}
1002
{
1000
MANEDIT
1070
     0
1002
}
1002
{
1000
NOSEL
1070
     0
1002
}
1002
{
1000
BEHIND
1070
     0
1002
}
1002
{
1000
OTHER
1070
     0
1002
}
1002
{
1000
REACTOR
1002
}
1001
GENIUS_GENOBJ-N-FIL_13
1002
{
1000
OWNER
1000
GEN
1002
}
  0
LINE
  5
2B212
330
1F
100
AcDbEntity
  8
AM_0
100
AcDbLine
 10
3146.94497932807
 20
2119.453653911994
 30
0.0
 11
3146.944979328072
 21
2140.453653911997
 31
0.0
  0
LINE
  5
2B213
330
1F
100
AcDbEntity
  8
AM_0
100
AcDbLine
 10
3155.94497932807
 20
2119.453653911993
 30
0.0
 11
3146.94497932807
 21
2119.453653911994
 31
0.0
  0
LINE
  5
2B214
330
1F
100
AcDbEntity
  8
AM_0
100
AcDbLine
 10
3156.698431817933
 20
2140.453653911997
 30
0.0
 11
3146.944979328072
 21
2140.453653911997
 31
0.0
  0
ARC
  5
2B215
330
1F
100
AcDbEntity
  8
AM_0
100
AcDbCircle
 10
3156.698431817933
 20
2139.453653911997
 30
0.0
 40
1.0
100
AcDbArc
 50
62.30016854508067
 51
90.0
1001
GENIUS_GENODEF_13
1002
{
1000
HIER
1070
     0
1002
}
1002
{
1000
MANEDIT
1070
     0
1002
}
1002
{
1000
NOSEL
1070
     0
1002
}
1002
{
1000
BEHIND
1070
     0
1002
}
1002
{
1000
OTHER
1070
     0
1002
}
1002
{
1000
REACTOR
1002
}
1001
GENIUS_GENOBJ-N-FIL_13
1002
{
1000
OWNER
1000
GEN
1002
}
  0
ARC
  5
2B216
330
1F
100
AcDbEntity
  8
AM_0
100
AcDbCircle
 10
3155.944979328072
 20
2139.453653911997
 30
0.0
 40
1.0
100
AcDbArc
 50
0.0
 51
90.0
1001
GENIUS_GENODEF_13
1002
{
1000
HIER
1070
     0
1002
}
1002
{
1000
MANEDIT
1070
     0
1002
}
1002
{
1000
NOSEL
1070
     0
1002
}
1002
{
1000
BEHIND
1070
     0
1002
}
1002
{
1000
OTHER
1070
     0
1002
}
1002
{
1000
REACTOR
1002
}
1001
GENIUS_GENOBJ-N-FIL_13
1002
{
1000
OWNER
1000
GEN
1002
}
  0
LINE
  5
2B217
330
1F
100
AcDbEntity
  8
AM_0
100
AcDbLine
 10
3157.163271259124
 20
2140.339048905158
 30
0.0
 11
3170.417316876203
 21
2133.236419706382
 31
0.0
  0
LINE
  5
2B218
330
1F
100
AcDbEntity
  8
AM_0
100
AcDbLine
 10
3156.94497932807
 20
2124.453653911992
 30
0.0
 11
3169.94497932807
 21
2124.453653911989
 31
0.0
  0
LINE
  5
2B21E
330
1F
100
AcDbEntity
  8
AM_0
100
AcDbLine
 10
3156.94497932807
 20
2120.453653911993
 30
0.0
 11
3156.944979328072
 21
2139.453653911997
 31
0.0
  0
ARC
  5
2B21F
330
1F
100
AcDbEntity
  8
AM_0
100
AcDbCircle
 10
3155.94497932807
 20
2120.453653911993
 30
0.0
 40
1.0
100
AcDbArc
 50
270.0
 51
0.0
1001
GENIUS_GENOBJ-N-FIL_13
1002
{
1000
OWNER
1000
GEN
1002
}
1001
GENIUS_GENODEF_13
1002
{
1000
HIER
1070
     0
1002
}
1002
{
1000
MANEDIT
1070
     0
1002
}
1002
{
1000
NOSEL
1070
     0
1002
}
1002
{
1000
BEHIND
1070
     0
1002
}
1002
{
1000
OTHER
1070
     0
1002
}
1002
{
1000
REACTOR
1002
}
  0
LINE
  5
2B220
330
1F
100
AcDbEntity
  8
AM_0
100
AcDbLine
 10
3156.944979328066
 20
2138.203653912002
 30
0.0
 11
3153.444979328066
 21
2138.203653912002
 31
0.0
  0
LINE
  5
2B221
330
1F
100
AcDbEntity
  8
AM_0
100
AcDbLine
 10
3152.944979328066
 20
2137.703653912002
 30
0.0
 11
3152.944979328072
 21
2127.203653911997
 31
0.0
  0
ARC
  5
2B222
330
1F
100
AcDbEntity
  8
AM_0
100
AcDbCircle
 10
3153.444979328066
 20
2137.703653912002
 30
0.0
 40
0.5
100
AcDbArc
 50
90.0
 51
180.0
1001
GENIUS_GENOBJ-N-FIL_13
1002
{
1000
OWNER
1000
GEN
1002
}
1001
GENIUS_GENODEF_13
1002
{
1000
HIER
1070
     0
1002
}
1002
{
1000
MANEDIT
1070
     0
1002
}
1002
{
1000
NOSEL
1070
     0
1002
}
1002
{
1000
BEHIND
1070
     0
1002
}
1002
{
1000
OTHER
1070
     0
1002
}
1002
{
1000
REACTOR
1002
}
  0
ARC
  5
2B223
330
1F
100
AcDbEntity
  8
AM_0
100
AcDbCircle
 10
3153.444979328071
 20
2127.203653911997
 30
0.0
 40
0.5
100
AcDbArc
 50
180.0
 51
270.0
1001
GENIUS_GENODEF_13
1002
{
1000
HIER
1070
     0
1002
}
1002
{
1000
MANEDIT
1070
     0
1002
}
1002
{
1000
NOSEL
1070
     0
1002
}
1002
{
1000
BEHIND
1070
     0
1002
}
1002
{
1000
OTHER
1070
     0
1002
}
1002
{
1000
REACTOR
1002
}
1001
GENIUS_GENOBJ-N-FIL_13
1002
{
1000
OWNER
1000
GEN
1002
}
  0
LINE
  5
2B224
330
1F
100
AcDbEntity
  8
AM_0
100
AcDbLine
 10
3153.444979328071
 20
2126.703653911998
 30
0.0
 11
3156.944979328072
 21
2126.703653911998
 31
0.0
  0
LINE
  5
2B225
330
1F
100
AcDbEntity
  8
AM_0
100
AcDbLine
 10
3152.94497932807
 20
2129.953653912
 30
0.0
 11
3154.144979328072
 21
2129.953653911999
 31
0.0
1001
GENIUS_GENOBJ-N-CEN_13
1002
{
1000
OWNER
1000
GEN
1002
}
1001
GENIUS_GENODEF_13
1002
{
1000
HIER
1070
     0
1002
}
1002
{
1000
MANEDIT
1070
     0
1002
}
1002
{
1000
NOSEL
1070
     0
1002
}
1002
{
1000
BEHIND
1070
     0
1002
}
1002
{
1000
OTHER
1070
     0
1002
}
1002
{
1000
REACTOR
1002
}
1001
GENIUS_GENCEN_19
1002
{
1040
3.0
1002
}
  0
LINE
  5
2B226
330
1F
100
AcDbEntity
  8
AM_0
100
AcDbLine
 10
3152.94497932807
 20
2134.953653912
 30
0.0
 11
3154.144979328072
 21
2134.953653911999
 31
0.0
1001
GENIUS_GENOBJ-N-CEN_13
1002
{
1000
OWNER
1000
GEN
1002
}
1001
GENIUS_GENODEF_13
1002
{
1000
HIER
1070
     0
1002
}
1002
{
1000
MANEDIT
1070
     0
1002
}
1002
{
1000
NOSEL
1070
     0
1002
}
1002
{
1000
BEHIND
1070
     0
1002
}
1002
{
1000
OTHER
1070
     0
1002
}
1002
{
1000
REACTOR
1002
}
1001
GENIUS_GENCEN_19
1002
{
1040
3.0
1002
}
  0
LINE
  5
2B227
330
1F
100
AcDbEntity
  8
AM_0
100
AcDbLine
 10
3156.844979328066
 20
2138.103653912002
 30
0.0
 11
3153.444979328066
 21
2138.103653912
 31
0.0
  0
LINE
  5
2B229
330
1F
100
AcDbEntity
  8
AM_0
100
AcDbLine
 10
3152.944979328066
 20
2137.603653912
 30
0.0
 11
3152.94497932807
 21
2134.953653912
 31
0.0
  0
ARC
  5
2B22A
330
1F
100
AcDbEntity
  8
AM_0
100
AcDbCircle
 10
3153.444979328066
 20
2137.603653912
 30
0.0
 40
0.5
100
AcDbArc
 50
90.00000000005214
 51
180.0
1001
GENIUS_GENODEF_13
1002
{
1000
HIER
1070
     0
1002
}
1002
{
1000
MANEDIT
1070
     0
1002
}
1002
{
1000
NOSEL
1070
     0
1002
}
1002
{
1000
BEHIND
1070
     0
1002
}
1002
{
1000
OTHER
1070
     0
1002
}
1002
{
1000
REACTOR
1002
}
1001
GENIUS_GENOBJ-N-FIL_13
1002
{
1000
OWNER
1000
GEN
1002
}
  0
LINE
  5
2B22B
330
1F
100
AcDbEntity
  8
AM_0
100
AcDbLine
 10
3152.94497932807
 20
2129.953653912
 30
0.0
 11
3152.944979328072
 21
2127.303653911996
 31
0.0
  0
LINE
  5
2B22C
330
1F
100
AcDbEntity
  8
AM_0
100
AcDbLine
 10
3154.144979328072
 20
2134.953653911999
 30
0.0
 11
3154.144979328072
 21
2129.953653911999
 31
0.0
  0
LINE
  5
2B22D
330
1F
100
AcDbEntity
  8
AM_0
100
AcDbLine
 10
3153.444979328071
 20
2126.803653911996
 30
0.0
 11
3156.844979328071
 21
2126.803653911997
 31
0.0
  0
ARC
  5
2B22E
330
1F
100
AcDbEntity
  8
AM_0
100
AcDbCircle
 10
3153.444979328071
 20
2127.303653911996
 30
0.0
 40
0.5
100
AcDbArc
 50
180.0
 51
270.0
1001
GENIUS_GENOBJ-N-FIL_13
1002
{
1000
OWNER
1000
GEN
1002
}
1001
GENIUS_GENODEF_13
1002
{
1000
HIER
1070
     0
1002
}
1002
{
1000
MANEDIT
1070
     0
1002
}
1002
{
1000
NOSEL
1070
     0
1002
}
1002
{
1000
BEHIND
1070
     0
1002
}
1002
{
1000
OTHER
1070
     0
1002
}
1002
{
1000
REACTOR
1002
}
  0
LINE
  5
2B230
330
1F
100
AcDbEntity
  8
AM_0
100
AcDbLine
 10
3156.844979328071
 20
2126.803653911997
 30
0.0
 11
3156.844979328062
 21
2138.103653912002
 31
0.0
  0
LINE
  5
2B232
330
1F
100
AcDbEntity
  8
AM_0
100
AcDbLine
 10
3154.04497732535
 20
2138.203653912002
 30
0.0
 11
3153.944977802181
 21
2138.103653912002
 31
0.0
  0
LINE
  5
2B233
330
1F
100
AcDbEntity
  8
AM_0
100
AcDbLine
 10
3155.34497932806
 20
2138.103653912002
 30
0.0
 11
3155.219982362741
 21
2138.203653912002
 31
0.0
  0
LINE
  5
2B234
330
1F
100
AcDbEntity
  8
AM_0
100
AcDbLine
 10
3154.04497732535
 20
2126.703653911998
 30
0.0
 11
3153.944977802181
 21
2126.803653911996
 31
0.0
  0
LINE
  5
2B235
330
1F
100
AcDbEntity
  8
AM_0
100
AcDbLine
 10
3155.34497932806
 20
2126.803653911996
 30
0.0
 11
3155.219982362742
 21
2126.703653911998
 31
0.0
  0
DIMENSION
  5
2B34E
330
1F
100
AcDbEntity
  8
AM_5
100
AcDbDimension
  2
*D11
 10
3146.644979328069
 20
2164.453653911996
 30
0.0
 11
3151.794979328071
 21
2164.453653911996
 31
0.0
 70
   160
  1
（<>）
 71
     5
 42
10.30000000000291
  3
SYS$0
100
AcDbAlignedDimension
 13
3156.944979328072
 23
2139.453653911997
 33
0.0
 14
3146.644979328069
 24
2156.453653911996
 34
0.0
100
AcDbRotatedDimension
1001
ACAD
1000
DSTYLE
1002
{
1070
   271
1070
     0
1002
}
  0
ARC
  5
2B559
330
1F
100
AcDbEntity
  8
AM_0
100
AcDbCircle
 10
3172.775968364261
 20
2220.601175326902
 30
0.0
 40
27.50000000000012
100
AcDbArc
 50
161.8451319357952
 51
198.1548680642048
  0
DIMENSION
  5
2E587
330
1F
100
AcDbEntity
  8
AM_5
100
AcDbDimension
  2
*D12
 10
3234.034284153291
 20
2132.453653912006
 30
0.0
 11
3234.034284153291
 21
2125.953653912002
 31
0.0
 70
   160
 71
     5
 42
13.00000000000637
  3
SYS$0
100
AcDbAlignedDimension
 13
3242.534284153291
 23
2119.453653912
 33
0.0
 14
3240.534284153291
 24
2132.453653912006
 34
0.0
 50
90.0
100
AcDbRotatedDimension
  0
CIRCLE
  5
2E5CF
330
1F
100
AcDbEntity
  8
AM_3
 48
0.5
100
AcDbCircle
 10
3156.775968364261
 20
2233.601175326905
 30
0.0
 40
2.25
  0
CIRCLE
  5
2E5D0
330
1F
100
AcDbEntity
  8
AM_3
 48
0.5
100
AcDbCircle
 10
3156.775968364261
 20
2233.601175326905
 30
0.0
 40
3.25
  0
LINE
  5
2E5D3
330
1F
100
AcDbEntity
  8
AM_7N
  6
中心線1
 48
0.5
370
    13
100
AcDbLine
 10
3156.775968364261
 20
2228.501175326906
 30
0.0
 11
3156.775968364261
 21
2238.701175326905
 31
0.0
1001
GENIUS_GENODEF_13
1002
{
1000
HIER
1070
     0
1002
}
1002
{
1000
MANEDIT
1070
     0
1002
}
1002
{
1000
NOSEL
1070
     0
1002
}
1002
{
1000
BEHIND
1070
     0
1002
}
1002
{
1000
OTHER
1070
     0
1002
}
1002
{
1000
REACTOR
1002
}
1001
GENIUS_GENOBJ-N-CEN_13
1002
{
1000
OWNER
1000
GEN
1002
}
1001
GENIUS_GENCEN_19
1002
{
1040
3.0
1002
}
  0
LINE
  5
2E5D4
330
1F
100
AcDbEntity
  8
AM_7N
  6
中心線1
 48
0.5
370
    13
100
AcDbLine
 10
3151.675968364263
 20
2233.601175326905
 30
0.0
 11
3161.875968364264
 21
2233.601175326905
 31
0.0
1001
GENIUS_GENODEF_13
1002
{
1000
HIER
1070
     0
1002
}
1002
{
1000
MANEDIT
1070
     0
1002
}
1002
{
1000
NOSEL
1070
     0
1002
}
1002
{
1000
BEHIND
1070
     0
1002
}
1002
{
1000
OTHER
1070
     0
1002
}
1002
{
1000
REACTOR
1002
}
1001
GENIUS_GENOBJ-N-CEN_13
1002
{
1000
OWNER
1000
GEN
1002
}
1001
GENIUS_GENCEN_19
1002
{
1040
3.0
1002
}
  0
LINE
  5
2E5DA
330
1F
100
AcDbEntity
  8
AM_7N
  6
中心線1
 48
0.5
370
    13
100
AcDbLine
 10
3156.775968364263
 20
2202.501175326906
 30
0.0
 11
3156.775968364263
 21
2212.701175326905
 31
0.0
1001
GENIUS_GENODEF_13
1002
{
1000
HIER
1070
     0
1002
}
1002
{
1000
MANEDIT
1070
     0
1002
}
1002
{
1000
NOSEL
1070
     0
1002
}
1002
{
1000
BEHIND
1070
     0
1002
}
1002
{
1000
OTHER
1070
     0
1002
}
1002
{
1000
REACTOR
1002
}
1001
GENIUS_GENOBJ-N-CEN_13
1002
{
1000
OWNER
1000
GEN
1002
}
1001
GENIUS_GENCEN_19
1002
{
1040
3.0
1002
}
  0
LINE
  5
2E5DB
330
1F
100
AcDbEntity
  8
AM_7N
  6
中心線1
 48
0.5
370
    13
100
AcDbLine
 10
3151.675968364263
 20
2207.601175326906
 30
0.0
 11
3161.875968364264
 21
2207.601175326906
 31
0.0
1001
GENIUS_GENODEF_13
1002
{
1000
HIER
1070
     0
1002
}
1002
{
1000
MANEDIT
1070
     0
1002
}
1002
{
1000
NOSEL
1070
     0
1002
}
1002
{
1000
BEHIND
1070
     0
1002
}
1002
{
1000
OTHER
1070
     0
1002
}
1002
{
1000
REACTOR
1002
}
1001
GENIUS_GENOBJ-N-CEN_13
1002
{
1000
OWNER
1000
GEN
1002
}
1001
GENIUS_GENCEN_19
1002
{
1040
3.0
1002
}
  0
DIMENSION
  5
2E5E1
330
1F
100
AcDbEntity
  8
AM_5
100
AcDbDimension
  2
*D13
 10
3135.775968364262
 20
2233.601175326905
 30
0.0
 11
3135.775968364261
 21
2220.601175326902
 31
0.0
 70
   160
 71
     5
 42
25.99999999999909
  3
SYS$0
100
AcDbAlignedDimension
 13
3151.675968364263
 23
2207.601175326906
 33
0.0
 14
3151.675968364263
 24
2233.601175326905
 34
0.0
 50
90.0
100
AcDbRotatedDimension
  0
DIMENSION
  5
2E5E2
330
1F
100
AcDbEntity
  8
AM_5
100
AcDbDimension
  2
*D14
 10
3172.77276445262
 20
2257.6011753269
 30
0.0
 11
3181.522764452621
 21
2257.6011753269
 31
0.0
 70
   160
 71
     5
 42
17.5
  3
SYS$0
100
AcDbAlignedDimension
 13
3190.27276445262
 23
2239.3511753269
 33
0.0
 14
3172.77276445262
 24
2252.601175326899
 34
0.0
100
AcDbRotatedDimension
  0
DIMENSION
  5
2E5E3
330
1F
100
AcDbEntity
  8
AM_5
100
AcDbDimension
  2
*D15
 10
3156.772764452622
 20
2257.6011753269
 30
0.0
 11
3164.772764452622
 21
2257.6011753269
 31
0.0
 70
   160
 71
     5
 42
15.99999999999818
  3
SYS$0
100
AcDbAlignedDimension
 13
3172.77276445262
 23
2252.601175326899
 33
0.0
 14
3156.772764452622
 24
2238.701175326899
 34
0.0
100
AcDbRotatedDimension
  0
ARC
  5
317DF
330
1F
100
AcDbEntity
  8
AM_0
100
AcDbCircle
 10
3193.952923626552
 20
2206.301175326902
 30
0.0
 40
0.3
100
AcDbArc
 50
340.5287793661017
 51
90.0
1001
GENIUS_GENOBJ-N-FIL_13
1002
{
1000
OWNER
1000
GEN
1002
}
1001
GENIUS_GENODEF_13
1002
{
1000
HIER
1070
     0
1002
}
1002
{
1000
MANEDIT
1070
     0
1002
}
1002
{
1000
NOSEL
1070
     0
1002
}
1002
{
1000
BEHIND
1070
     0
1002
}
1002
{
1000
OTHER
1070
     0
1002
}
1002
{
1000
REACTOR
1002
}
  0
ARC
  5
317E0
330
1F
100
AcDbEntity
  8
AM_0
100
AcDbCircle
 10
3193.952923626553
 20
2208.901175326902
 30
0.0
 40
0.3
100
AcDbArc
 50
270.0
 51
19.47122063394017
1001
GENIUS_GENODEF_13
1002
{
1000
HIER
1070
     0
1002
}
1002
{
1000
MANEDIT
1070
     0
1002
}
1002
{
1000
NOSEL
1070
     0
1002
}
1002
{
1000
BEHIND
1070
     0
1002
}
1002
{
1000
OTHER
1070
     0
1002
}
1002
{
1000
REACTOR
1002
}
1001
GENIUS_GENOBJ-N-FIL_13
1002
{
1000
OWNER
1000
GEN
1002
}
  0
ARC
  5
317E1
330
1F
100
AcDbEntity
  8
AM_0
100
AcDbCircle
 10
3193.952923626552
 20
2232.301175326901
 30
0.0
 40
0.3
100
AcDbArc
 50
340.5287793661017
 51
90.0
1001
GENIUS_GENODEF_13
1002
{
1000
HIER
1070
     0
1002
}
1002
{
1000
MANEDIT
1070
     0
1002
}
1002
{
1000
NOSEL
1070
     0
1002
}
1002
{
1000
BEHIND
1070
     0
1002
}
1002
{
1000
OTHER
1070
     0
1002
}
1002
{
1000
REACTOR
1002
}
1001
GENIUS_GENOBJ-N-FIL_13
1002
{
1000
OWNER
1000
GEN
1002
}
  0
ARC
  5
317E2
330
1F
100
AcDbEntity
  8
AM_0
100
AcDbCircle
 10
3193.952923626553
 20
2234.901175326903
 30
0.0
 40
0.3
100
AcDbArc
 50
270.0
 51
19.47122063394017
1001
GENIUS_GENODEF_13
1002
{
1000
HIER
1070
     0
1002
}
1002
{
1000
MANEDIT
1070
     0
1002
}
1002
{
1000
NOSEL
1070
     0
1002
}
1002
{
1000
BEHIND
1070
     0
1002
}
1002
{
1000
OTHER
1070
     0
1002
}
1002
{
1000
REACTOR
1002
}
1001
GENIUS_GENOBJ-N-FIL_13
1002
{
1000
OWNER
1000
GEN
1002
}
  0
DIMENSION
  5
401E8
330
1F
100
AcDbEntity
  8
AM_5
100
AcDbDimension
  2
*D16
 10
3134.525697549913
 20
2119.453653911998
 30
0.0
 11
3134.525697549913
 21
2098.516320578414
 31
0.0
 70
   160
  1
A寸法\P8～11mm
 71
     5
 42
10.50000000025102
  3
SYS$0
100
AcDbAlignedDimension
 13
3144.275968364262
 23
2108.953653911747
 33
0.0
 14
3141.04497932807
 24
2119.453653911998
 34
0.0
 50
90.0
100
AcDbRotatedDimension
1001
ACAD
1000
DSTYLE
1002
{
1070
    72
1070
     0
1070
    71
1070
     0
1002
}
  0
ARC
  5
42E80
330
1F
100
AcDbEntity
  8
AM_0
100
AcDbCircle
 10
3271.03428415329
 20
2125.453653911995
 30
0.0
 40
1.0
100
AcDbArc
 50
270.0
 51
0.0
1001
GENIUS_GENOBJ-N-FIL_13
1002
{
1000
OWNER
1000
GEN
1002
}
1001
GENIUS_GENODEF_13
1002
{
1000
HIER
1070
     0
1002
}
1002
{
1000
MANEDIT
1070
     0
1002
}
1002
{
1000
NOSEL
1070
     0
1002
}
1002
{
1000
BEHIND
1070
     0
1002
}
1002
{
1000
OTHER
1070
     0
1002
}
1002
{
1000
REACTOR
1002
}
  0
ARC
  5
42E81
330
1F
100
AcDbEntity
  8
AM_0
100
AcDbCircle
 10
3255.034284153293
 20
2125.453653911995
 30
0.0
 40
1.0
100
AcDbArc
 50
180.0
 51
270.0
1001
GENIUS_GENODEF_13
1002
{
1000
HIER
1070
     0
1002
}
1002
{
1000
MANEDIT
1070
     0
1002
}
1002
{
1000
NOSEL
1070
     0
1002
}
1002
{
1000
BEHIND
1070
     0
1002
}
1002
{
1000
OTHER
1070
     0
1002
}
1002
{
1000
REACTOR
1002
}
1001
GENIUS_GENOBJ-N-FIL_13
1002
{
1000
OWNER
1000
GEN
1002
}
  0
LINE
  5
42E82
330
1F
100
AcDbEntity
  8
AM_2
  6
細線
370
    13
100
AcDbLine
 10
3256.034284153292
 20
2131.953653912001
 30
0.0
 11
3256.034284153292
 21
2125.453653911995
 31
0.0
  0
LINE
  5
42E83
330
1F
100
AcDbEntity
  8
AM_2
  6
細線
370
    13
100
AcDbLine
 10
3257.034284153291
 20
2132.953653912002
 30
0.0
 11
3269.034284153291
 21
2132.953653912002
 31
0.0
  0
ARC
  5
42E84
330
1F
100
AcDbEntity
  8
AM_0
100
AcDbCircle
 10
3255.034284153291
 20
2139.453653912004
 30
0.0
 40
1.0
100
AcDbArc
 50
90.0
 51
180.0
1001
GENIUS_GENOBJ-N-FIL_13
1002
{
1000
OWNER
1000
GEN
1002
}
1001
GENIUS_GENODEF_13
1002
{
1000
HIER
1070
     0
1002
}
1002
{
1000
MANEDIT
1070
     0
1002
}
1002
{
1000
NOSEL
1070
     0
1002
}
1002
{
1000
BEHIND
1070
     0
1002
}
1002
{
1000
OTHER
1070
     0
1002
}
1002
{
1000
REACTOR
1002
}
  0
LINE
  5
42E85
330
1F
100
AcDbEntity
  8
AM_0
100
AcDbLine
 10
3254.034284153291
 20
2139.453653912004
 30
0.0
 11
3254.034284153294
 21
2125.453653911995
 31
0.0
  0
LINE
  5
42E86
330
1F
100
AcDbEntity
  8
AM_2
  6
細線
370
    13
100
AcDbLine
 10
3270.034284153291
 20
2131.953653912001
 30
0.0
 11
3270.03428415329
 21
2125.453653911995
 31
0.0
  0
ARC
  5
42E87
330
1F
100
AcDbEntity
  8
AM_0
100
AcDbCircle
 10
3271.034284153291
 20
2139.453653912004
 30
0.0
 40
1.0
100
AcDbArc
 50
0.0
 51
90.0
1001
GENIUS_GENOBJ-N-FIL_13
1002
{
1000
OWNER
1000
GEN
1002
}
1001
GENIUS_GENODEF_13
1002
{
1000
HIER
1070
     0
1002
}
1002
{
1000
MANEDIT
1070
     0
1002
}
1002
{
1000
NOSEL
1070
     0
1002
}
1002
{
1000
BEHIND
1070
     0
1002
}
1002
{
1000
OTHER
1070
     0
1002
}
1002
{
1000
REACTOR
1002
}
  0
LINE
  5
42E88
330
1F
100
AcDbEntity
  8
AM_0
100
AcDbLine
 10
3272.034284153291
 20
2139.453653912004
 30
0.0
 11
3272.034284153289
 21
2125.453653911995
 31
0.0
  0
LINE
  5
42E8A
330
1F
100
AcDbEntity
  8
AM_2
  6
細線
370
    13
100
AcDbLine
 10
3255.798153059679
 20
2133.925375120285
 30
0.0
 11
3254.534284153293
 21
2139.282846363009
 31
0.0
  0
LINE
  5
42E8B
330
1F
100
AcDbEntity
  8
AM_2
  6
細線
370
    13
100
AcDbLine
 10
3270.270415246904
 20
2133.925375120285
 30
0.0
 11
3271.53428415329
 21
2139.282846363009
 31
0.0
  0
LINE
  5
434D1
330
1F
100
AcDbEntity
  8
AM_0
100
AcDbLine
 10
3156.94497932807
 20
2123.505522243421
 30
0.0
 11
3178.278749645844
 21
2116.575157953984
 31
0.0
  0
ARC
  5
434D2
330
1F
100
AcDbEntity
  8
AM_0
100
AcDbCircle
 10
3177.660828393538
 20
2114.673008294796
 30
0.0
 40
1.999999999999999
100
AcDbArc
 50
45.61559580945507
 51
72.00339583402365
1001
GENIUS_GENOBJ-N-FIL_13
1002
{
1000
OWNER
1000
GEN
1002
}
1001
GENIUS_GENODEF_13
1002
{
1000
HIER
1070
     0
1002
}
1002
{
1000
MANEDIT
1070
     0
1002
}
1002
{
1000
NOSEL
1070
     0
1002
}
1002
{
1000
BEHIND
1070
     0
1002
}
1002
{
1000
OTHER
1070
     0
1002
}
1002
{
1000
REACTOR
1002
}
  0
LINE
  5
434D4
330
1F
100
AcDbEntity
  8
AM_0
100
AcDbLine
 10
3156.94497932807
 20
2121.402638261206
 30
0.0
 11
3176.796915697298
 21
2114.953653911747
 31
0.0
  0
LINE
  5
434D6
330
1F
100
AcDbEntity
  8
AM_0
100
AcDbLine
 10
3156.766488613081
 20
2119.883458774659
 30
0.0
 11
3169.113251434913
 21
2115.872561364952
 31
0.0
  0
ARC
  5
434D7
330
1F
100
AcDbEntity
  8
AM_0
100
AcDbCircle
 10
3169.731172686934
 20
2117.774711024233
 30
0.0
 40
1.999999999999999
100
AcDbArc
 50
252.0033958426257
 51
292.3646447304161
1001
GENIUS_GENOBJ-N-FIL_13
1002
{
1000
OWNER
1000
GEN
1002
}
1001
GENIUS_GENODEF_13
1002
{
1000
HIER
1070
     0
1002
}
1002
{
1000
MANEDIT
1070
     0
1002
}
1002
{
1000
NOSEL
1070
     0
1002
}
1002
{
1000
BEHIND
1070
     0
1002
}
1002
{
1000
OTHER
1070
     0
1002
}
1002
{
1000
REACTOR
1002
}
  0
LINE
  5
434DA
330
1F
100
AcDbEntity
  8
AM_0
100
AcDbLine
 10
3171.954379438013
 20
2116.526772024246
 30
0.0
 11
3170.492172283017
 21
2115.925149018037
 31
0.0
  0
LINE
  5
434DB
330
1F
100
AcDbEntity
  8
AM_0
100
AcDbLine
 10
3179.059766066339
 20
2116.102334495358
 30
0.0
 11
3180.233398949458
 21
2114.953653911747
 31
0.0
  0
LINE
  5
434DD
330
1F
100
AcDbEntity
  8
AM_0
100
AcDbLine
 10
3177.751997293086
 20
2114.953653911747
 30
0.0
 11
3178.278749645408
 21
2116.575157954049
 31
0.0
  0
LINE
  5
4356A
330
1F
100
AcDbEntity
  8
AM_0
100
AcDbLine
 10
3146.944979324262
 20
2207.601175326902
 30
0.0
 11
3146.644979324262
 21
2207.601175326902
 31
0.0
  0
LINE
  5
4356B
330
1F
100
AcDbEntity
  8
AM_0
100
AcDbLine
 10
3146.644979324262
 20
2207.601175326902
 30
0.0
 11
3146.644979324262
 21
2233.601175326903
 31
0.0
  0
LINE
  5
4356C
330
1F
100
AcDbEntity
  8
AM_0
100
AcDbLine
 10
3146.644979324262
 20
2233.601175326903
 30
0.0
 11
3146.944979324262
 21
2233.601175326903
 31
0.0
  0
LINE
  5
43570
330
1F
100
AcDbEntity
  8
AM_0
100
AcDbLine
 10
3146.944979328069
 20
2139.953653911997
 30
0.0
 11
3146.644979328069
 21
2139.953653911997
 31
0.0
  0
LINE
  5
43571
330
1F
100
AcDbEntity
  8
AM_0
100
AcDbLine
 10
3146.644979328069
 20
2139.953653911997
 30
0.0
 11
3146.644979328069
 21
2119.953653911997
 31
0.0
  0
LINE
  5
43572
330
1F
100
AcDbEntity
  8
AM_0
100
AcDbLine
 10
3146.644979328069
 20
2119.953653911997
 30
0.0
 11
3146.944979328069
 21
2119.953653911997
 31
0.0
  0
LINE
  5
435D6
330
1F
100
AcDbEntity
  8
AM_0
100
AcDbLine
 10
3144.275968364262
 20
2109.953653911747
 30
0.0
 11
3144.275968364262
 21
2108.953653911747
 31
0.0
  0
LINE
  5
435D7
330
1F
100
AcDbEntity
  8
AM_0
100
AcDbLine
 10
3144.275968364262
 20
2108.953653911747
 30
0.0
 11
3201.275968364261
 21
2108.953653911747
 31
0.0
  0
LINE
  5
435D8
330
1F
100
AcDbEntity
  8
AM_0
100
AcDbLine
 10
3201.275968364261
 20
2108.953653911747
 30
0.0
 11
3201.275968364261
 21
2109.953653911747
 31
0.0
  0
LINE
  5
435D9
330
1F
100
AcDbEntity
  8
AM_0
100
AcDbLine
 10
3234.534284153291
 20
2109.953653911747
 30
0.0
 11
3234.534284153291
 21
2108.953653911747
 31
0.0
  0
LINE
  5
435DA
330
1F
100
AcDbEntity
  8
AM_0
100
AcDbLine
 10
3234.534284153291
 20
2108.953653911747
 30
0.0
 11
3291.534284153291
 21
2108.953653911747
 31
0.0
  0
LINE
  5
435DB
330
1F
100
AcDbEntity
  8
AM_0
100
AcDbLine
 10
3291.534284153291
 20
2108.953653911747
 30
0.0
 11
3291.534284153291
 21
2109.953653911747
 31
0.0
  0
DIMENSION
  5
43633
330
1F
100
AcDbEntity
  8
AM_5
100
AcDbDimension
  2
*D17
 10
3226.034284153291
 20
2109.953653911747
 30
0.0
 11
3226.034284153291
 21
2095.649653911747
 31
0.0
 70
   160
  1
受け用スペーサー\Pt=<>.0
 71
     5
 42
1.0
  3
SYS$0
100
AcDbAlignedDimension
 13
3234.534284153291
 23
2108.953653911747
 33
0.0
 14
3234.034284153291
 24
2109.953653911747
 34
0.0
 50
90.0
100
AcDbRotatedDimension
  0
DIMENSION
  5
436E4
330
1F
100
AcDbEntity
  8
AM_5
100
AcDbDimension
  2
*D18
 10
3292.034284153292
 20
2092.653653911748
 30
0.0
 11
3263.034284153291
 21
2092.653653911748
 31
0.0
 70
   160
  1
%%c<>
 71
     5
 42
58.00000000000091
  3
SYS$0
100
AcDbAlignedDimension
 13
3234.034284153291
 23
2109.953653911747
 33
0.0
 14
3292.034284153292
 24
2109.953653911747
 34
0.0
100
AcDbRotatedDimension
  0
ARC
  5
439FE
330
1F
100
AcDbEntity
  8
AM_0
100
AcDbCircle
 10
3172.775968364261
 20
2220.601175326902
 30
0.0
 40
29.0
100
AcDbArc
 50
154.2988857429143
 51
205.7011142570856
  0
ARC
  5
439FF
330
1F
100
AcDbEntity
  8
AM_0
100
AcDbCircle
 10
3172.775968364261
 20
2220.601175326902
 30
0.0
 40
29.0
100
AcDbArc
 50
206.6331187491633
 51
207.0356644150036
  0
LINE
  5
43A6E
330
1F
100
AcDbEntity
  8
AM_0
100
AcDbLine
 10
3251.416311966651
 20
2275.421458965711
 30
0.0
 11
3251.416311966652
 21
2164.921458965711
 31
0.0
  0
LINE
  5
43A6F
330
1F
100
AcDbEntity
  8
AM_0
100
AcDbLine
 10
3231.416311966652
 20
2268.921458965711
 30
0.0
 11
3341.416311966651
 21
2268.921458965711
 31
0.0
  0
LINE
  5
43A70
330
1F
100
AcDbEntity
  8
AM_0
100
AcDbLine
 10
3231.416311966652
 20
2262.421458965711
 30
0.0
 11
3341.416311966651
 21
2262.421458965711
 31
0.0
  0
LINE
  5
43A72
330
1F
100
AcDbEntity
  8
AM_0
100
AcDbLine
 10
3231.416311966652
 20
2242.921458965711
 30
0.0
 11
3341.416311966651
 21
2242.921458965711
 31
0.0
  0
LINE
  5
43A74
330
1F
100
AcDbEntity
  8
AM_0
100
AcDbLine
 10
3231.416311966652
 20
2210.421458965711
 30
0.0
 11
3341.416311966651
 21
2210.421458965711
 31
0.0
  0
LINE
  5
43A79
330
1F
100
AcDbEntity
  8
AM_0
100
AcDbLine
 10
3231.416311966652
 20
2275.421458965711
 30
0.0
 11
3231.416311966652
 21
2164.921458965711
 31
0.0
  0
LINE
  5
43A7A
330
1F
100
AcDbEntity
  8
AM_0
100
AcDbLine
 10
3231.416311966652
 20
2275.421458965711
 30
0.0
 11
3341.416311966651
 21
2275.421458965711
 31
0.0
  0
LINE
  5
43A7B
330
1F
100
AcDbEntity
  8
AM_0
100
AcDbLine
 10
3341.416311966651
 20
2275.421458965711
 30
0.0
 11
3341.416311966652
 21
2171.421458965711
 31
0.0
  0
LINE
  5
43A7C
330
1F
100
AcDbEntity
  8
AM_0
100
AcDbLine
 10
3231.416311966652
 20
2229.921458965711
 30
0.0
 11
3341.416311966651
 21
2229.921458965711
 31
0.0
  0
TEXT
  5
43A7F
330
1F
100
AcDbEntity
  8
AM_6
100
AcDbText
 10
3237.073311966652
 20
2270.571458965711
 30
0.0
 40
3.2
  1
品　名
 41
0.85537027
100
AcDbText
  0
TEXT
  5
43A80
330
1F
100
AcDbEntity
  8
AM_6
100
AcDbText
 10
3237.073311966652
 20
2264.071458965711
 30
0.0
 40
3.2
  1
品　番
 41
0.85537027
100
AcDbText
  0
TEXT
  5
43A81
330
1F
100
AcDbEntity
  8
AM_6
100
AcDbText
 10
3237.073311966652
 20
2257.571458965711
 30
0.0
 40
3.2
  1
材　質
 41
0.85537027
100
AcDbText
  0
TEXT
  5
43A83
330
1F
100
AcDbEntity
  8
AM_6
100
AcDbText
 10
3233.873311966652
 20
2225.071458965711
 30
0.0
 40
3.2
  1
セットビス
 41
0.84892707
100
AcDbText
  0
TEXT
  5
43A84
330
1F
100
AcDbEntity
  8
AM_6
100
AcDbText
 10
3238.673311966652
 20
2192.571458965711
 30
0.0
 40
3.2
  1
備考
 41
0.8643907499999999
100
AcDbText
  0
LINE
  5
43A87
330
1F
100
AcDbEntity
  8
size
100
AcDbLine
 10
3055.916311966652
 20
2073.921458965712
 30
0.0
 11
3352.916311966652
 21
2073.921458965712
 31
0.0
1001
GENIUS_GENREC_14
1002
{
1000
PYDIR
1011
3055.916311966652
1021
2222.421458965711
1031
0.0
1002
}
1002
{
1000
PXDIR
1011
3352.916311966652
1021
2073.921458965712
1031
0.0
1002
}
1002
{
1000
PORI
1011
3055.916311966652
1021
2073.921458965712
1031
0.0
1002
}
1002
{
1000
PINS
1011
3160.916311966652
1021
2148.171458965711
1031
0.0
1002
}
1002
{
1000
HVAL
1000
297
1002
}
1002
{
1000
H
1070
     2
1002
}
1002
{
1000
WVAL
1000
420
1002
}
1002
{
1000
W
1070
     2
1002
}
1002
{
1000
C
1070
     4
1002
}
1001
GENIUS_GENOBJ-N-REC_13
1002
{
1000
OWNER
1000
GEN
1002
}
1001
GENIUS_GENODEF_13
1002
{
1000
HIER
1070
     0
1002
}
1002
{
1000
MANEDIT
1070
     0
1002
}
1002
{
1000
NOSEL
1070
     0
1002
}
1002
{
1000
BEHIND
1070
     0
1002
}
1002
{
1000
OTHER
1070
     0
1002
}
1002
{
1000
REACTOR
1002
}
  0
LINE
  5
43A88
330
1F
100
AcDbEntity
  8
size
100
AcDbLine
 10
3352.916311966652
 20
2073.921458965712
 30
0.0
 11
3352.916311966652
 21
2283.921458965711
 31
0.0
1001
GENIUS_GENREC_14
1002
{
1000
PYDIR
1011
3055.916311966651
1021
2283.921458965711
1031
0.0
1002
}
1002
{
1000
PXDIR
1011
3352.916311966652
1021
2073.921458965712
1031
0.0
1002
}
1002
{
1000
PORI
1011
3055.916311966652
1021
2073.921458965712
1031
0.0
1002
}
1002
{
1000
PINS
1011
3160.916311966652
1021
2148.171458965711
1031
0.0
1002
}
1002
{
1000
HVAL
1000
297
1002
}
1002
{
1000
H
1070
     2
1002
}
1002
{
1000
WVAL
1000
420
1002
}
1002
{
1000
W
1070
     2
1002
}
1002
{
1000
C
1070
     4
1002
}
1001
GENIUS_GENOBJ-N-REC_13
1002
{
1000
OWNER
1000
GEN
1002
}
1001
GENIUS_GENODEF_13
1002
{
1000
HIER
1070
     0
1002
}
1002
{
1000
MANEDIT
1070
     0
1002
}
1002
{
1000
NOSEL
1070
     0
1002
}
1002
{
1000
BEHIND
1070
     0
1002
}
1002
{
1000
OTHER
1070
     0
1002
}
1002
{
1000
REACTOR
1002
}
  0
LINE
  5
43A89
330
1F
100
AcDbEntity
  8
size
100
AcDbLine
 10
3352.916311966652
 20
2283.921458965711
 30
0.0
 11
3055.916311966651
 21
2283.921458965711
 31
0.0
1001
GENIUS_GENREC_14
1002
{
1000
PYDIR
1011
3055.916311966651
1021
2283.921458965711
1031
0.0
1002
}
1002
{
1000
PXDIR
1011
3352.916311966652
1021
2073.921458965712
1031
0.0
1002
}
1002
{
1000
PORI
1011
3055.916311966652
1021
2073.921458965712
1031
0.0
1002
}
1002
{
1000
PINS
1011
3160.916311966652
1021
2148.171458965711
1031
0.0
1002
}
1002
{
1000
HVAL
1000
297
1002
}
1002
{
1000
H
1070
     2
1002
}
1002
{
1000
WVAL
1000
420
1002
}
1002
{
1000
W
1070
     2
1002
}
1002
{
1000
C
1070
     4
1002
}
1001
GENIUS_GENOBJ-N-REC_13
1002
{
1000
OWNER
1000
GEN
1002
}
1001
GENIUS_GENODEF_13
1002
{
1000
HIER
1070
     0
1002
}
1002
{
1000
MANEDIT
1070
     0
1002
}
1002
{
1000
NOSEL
1070
     0
1002
}
1002
{
1000
BEHIND
1070
     0
1002
}
1002
{
1000
OTHER
1070
     0
1002
}
1002
{
1000
REACTOR
1002
}
  0
LINE
  5
43A8A
330
1F
100
AcDbEntity
  8
size
100
AcDbLine
 10
3055.916311966651
 20
2283.921458965711
 30
0.0
 11
3055.916311966652
 21
2073.921458965712
 31
0.0
1001
GENIUS_GENREC_14
1002
{
1000
PYDIR
1011
3055.916311966651
1021
2283.921458965711
1031
0.0
1002
}
1002
{
1000
PXDIR
1011
3265.916311966652
1021
2073.921458965712
1031
0.0
1002
}
1002
{
1000
PORI
1011
3055.916311966652
1021
2073.921458965712
1031
0.0
1002
}
1002
{
1000
PINS
1011
3160.916311966652
1021
2148.171458965711
1031
0.0
1002
}
1002
{
1000
HVAL
1000
297
1002
}
1002
{
1000
H
1070
     2
1002
}
1002
{
1000
WVAL
1000
420
1002
}
1002
{
1000
W
1070
     2
1002
}
1002
{
1000
C
1070
     4
1002
}
1001
GENIUS_GENOBJ-N-REC_13
1002
{
1000
OWNER
1000
GEN
1002
}
1001
GENIUS_GENODEF_13
1002
{
1000
HIER
1070
     0
1002
}
1002
{
1000
MANEDIT
1070
     0
1002
}
1002
{
1000
NOSEL
1070
     0
1002
}
1002
{
1000
BEHIND
1070
     0
1002
}
1002
{
1000
OTHER
1070
     0
1002
}
1002
{
1000
REACTOR
1002
}
  0
LINE
  5
43A8B
330
1F
100
AcDbEntity
  8
waku
100
AcDbLine
 10
3341.416311966652
 20
2082.421458965711
 30
0.0
 11
3341.416311966651
 21
2275.421458965711
 31
0.0
1001
GENIUS_GENREC_14
1002
{
1000
PYDIR
1011
3055.916311966651
1021
2283.921458965711
1031
0.0
1002
}
1002
{
1000
PXDIR
1011
3347.166311966652
1021
2073.921458965712
1031
0.0
1002
}
1002
{
1000
PORI
1011
3055.916311966652
1021
2073.921458965712
1031
0.0
1002
}
1002
{
1000
PINS
1011
3160.916311966652
1021
2148.171458965711
1031
0.0
1002
}
1002
{
1000
HVAL
1000
297
1002
}
1002
{
1000
H
1070
     2
1002
}
1002
{
1000
WVAL
1000
420
1002
}
1002
{
1000
W
1070
     2
1002
}
1002
{
1000
C
1070
     4
1002
}
1001
GENIUS_GENOBJ-N-REC_13
1002
{
1000
OWNER
1000
GEN
1002
}
1001
GENIUS_GENODEF_13
1002
{
1000
HIER
1070
     0
1002
}
1002
{
1000
MANEDIT
1070
     0
1002
}
1002
{
1000
NOSEL
1070
     0
1002
}
1002
{
1000
BEHIND
1070
     0
1002
}
1002
{
1000
OTHER
1070
     0
1002
}
1002
{
1000
REACTOR
1002
}
  0
LINE
  5
43A8C
330
1F
100
AcDbEntity
  8
waku
100
AcDbLine
 10
3067.416311966651
 20
2275.421458965711
 30
0.0
 11
3067.416311966652
 21
2082.421458965711
 31
0.0
1001
GENIUS_GENREC_14
1002
{
1000
PYDIR
1011
3055.916311966651
1021
2283.921458965711
1031
0.0
1002
}
1002
{
1000
PXDIR
1011
3265.916311966652
1021
2073.921458965712
1031
0.0
1002
}
1002
{
1000
PORI
1011
3055.916311966652
1021
2073.921458965712
1031
0.0
1002
}
1002
{
1000
PINS
1011
3160.916311966652
1021
2148.171458965711
1031
0.0
1002
}
1002
{
1000
HVAL
1000
297
1002
}
1002
{
1000
H
1070
     2
1002
}
1002
{
1000
WVAL
1000
420
1002
}
1002
{
1000
W
1070
     2
1002
}
1002
{
1000
C
1070
     4
1002
}
1001
GENIUS_GENOBJ-N-REC_13
1002
{
1000
OWNER
1000
GEN
1002
}
1001
GENIUS_GENODEF_13
1002
{
1000
HIER
1070
     0
1002
}
1002
{
1000
MANEDIT
1070
     0
1002
}
1002
{
1000
NOSEL
1070
     0
1002
}
1002
{
1000
BEHIND
1070
     0
1002
}
1002
{
1000
OTHER
1070
     0
1002
}
1002
{
1000
REACTOR
1002
}
  0
LINE
  5
43A8D
330
1F
100
AcDbEntity
  8
waku
100
AcDbLine
 10
3341.416311966651
 20
2275.421458965711
 30
0.0
 11
3067.416311966651
 21
2275.421458965711
 31
0.0
1001
GENIUS_GENREC_14
1002
{
1000
PYDIR
1011
3055.916311966651
1021
2283.921458965711
1031
0.0
1002
}
1002
{
1000
PXDIR
1011
3347.166311966652
1021
2073.921458965712
1031
0.0
1002
}
1002
{
1000
PORI
1011
3055.916311966652
1021
2073.921458965712
1031
0.0
1002
}
1002
{
1000
PINS
1011
3160.916311966652
1021
2148.171458965711
1031
0.0
1002
}
1002
{
1000
HVAL
1000
297
1002
}
1002
{
1000
H
1070
     2
1002
}
1002
{
1000
WVAL
1000
420
1002
}
1002
{
1000
W
1070
     2
1002
}
1002
{
1000
C
1070
     4
1002
}
1001
GENIUS_GENOBJ-N-REC_13
1002
{
1000
OWNER
1000
GEN
1002
}
1001
GENIUS_GENODEF_13
1002
{
1000
HIER
1070
     0
1002
}
1002
{
1000
MANEDIT
1070
     0
1002
}
1002
{
1000
NOSEL
1070
     0
1002
}
1002
{
1000
BEHIND
1070
     0
1002
}
1002
{
1000
OTHER
1070
     0
1002
}
1002
{
1000
REACTOR
1002
}
  0
LINE
  5
43A8E
330
1F
100
AcDbEntity
  8
waku
100
AcDbLine
 10
3067.416311966652
 20
2082.421458965711
 30
0.0
 11
3341.416311966652
 21
2082.421458965711
 31
0.0
  0
CIRCLE
  5
43B1E
330
1F
100
AcDbEntity
  8
AM_3
 48
0.5
100
AcDbCircle
 10
3156.775968364263
 20
2207.601175326905
 30
0.0
 40
2.250000000002023
  0
CIRCLE
  5
43B1F
330
1F
100
AcDbEntity
  8
AM_3
 48
0.5
100
AcDbCircle
 10
3156.775968364263
 20
2207.601175326906
 30
0.0
 40
3.250000000001818
  0
MTEXT
  5
43B40
330
1F
100
AcDbEntity
  8
AM_6
100
AcDbMText
 10
3251.416311966651
 20
2272.171458965711
 30
0.0
 40
3.2
 41
90.0
 71
     4
 72
     5
  1
　フラット戸当り
 73
     1
 44
1.0
  0
MTEXT
  5
43B41
330
1F
100
AcDbEntity
  8
AM_6
100
AcDbMText
 10
3251.416311966651
 20
2265.671458965711
 30
0.0
 40
3.2
 41
90.0
 71
     4
 72
     5
  1
　DC-150
 73
     1
 44
1.0
  0
MTEXT
  5
43B42
330
1F
100
AcDbEntity
  8
AM_6
100
AcDbMText
 10
3251.416311966651
 20
2259.171458965711
 30
0.0
 40
3.2
 41
90.0
 71
     4
 72
     5
  1
　戸当り：ポリカーボネイト樹脂
 73
     1
 44
1.0
  0
MTEXT
  5
43B43
330
1F
100
AcDbEntity
  8
AM_6
100
AcDbMText
 10
3251.416311966651
 20
2246.171458965711
 30
0.0
 40
3.2
 41
90.0
 71
     4
 72
     5
  1
　ストッパー：スチール
 73
     1
 44
1.0
  0
MTEXT
  5
43B45
330
1F
100
AcDbEntity
  8
AM_6
100
AcDbMText
 10
3251.416311966651
 20
2226.671458965711
 30
0.0
 40
3.2
 41
90.0
 71
     4
 72
     5
  1
　M4×8 ナベ小ネジ + Fe　（メック加工　固着タイプ）：2本
 73
     1
 44
1.0
  0
TEXT
  5
43B46
330
1F
100
AcDbEntity
  8
AM_6
100
AcDbText
 10
3237.073311966652
 20
2238.071458965711
 30
0.0
 40
3.2
  1
仕上げ
 41
0.85537027
100
AcDbText
  0
MTEXT
  5
43B47
330
1F
100
AcDbEntity
  8
AM_6
100
AcDbMText
 10
3251.416311966651
 20
2239.671458965711
 30
0.0
 40
3.2
 41
90.0
 71
     4
 72
     5
  1
　戸当り、受け：焼付塗装（シルバー）
 73
     1
 44
1.0
  0
MTEXT
  5
43B48
330
1F
100
AcDbEntity
  8
AM_6
100
AcDbMText
 10
3251.416311966651
 20
2220.171458965711
 30
0.0
 40
3.2
 41
90.0
 71
     4
 72
     5
  1
　M4×10 ナベテクスネジ + Fe ：2本
 73
     1
 44
1.0
  0
MTEXT
  5
43B49
330
1F
100
AcDbEntity
  8
AM_6
100
AcDbMText
 10
3251.416311966651
 20
2213.671458965711
 30
0.0
 40
3.2
 41
90.0
 71
     4
 72
     5
  1
　呼び4×D6×30 サラタッピンネジ + Fe ：4本
 73
     1
 44
1.0
  0
CIRCLE
  5
43B4B
330
1F
100
AcDbEntity
  8
AM_CL
100
AcDbCircle
 10
3281.140716856638
 20
2226.411811395903
 30
0.0
 40
2.005304078350239
  0
CIRCLE
  5
43B4C
330
1F
100
AcDbEntity
  8
AM_CL
100
AcDbCircle
 10
3288.649197544216
 20
2219.932685719415
 30
0.0
 40
2.005304078350239
  0
CIRCLE
  5
43B4D
330
1F
100
AcDbEntity
  8
AM_CL
100
AcDbCircle
 10
3301.132491745856
 20
2213.428745226062
 30
0.0
 40
2.005304078350239
  0
MTEXT
  5
43B4F
330
1F
100
AcDbEntity
  8
AM_6
100
AcDbMText
 10
3251.416311966651
 20
2187.671458965711
 30
0.0
 40
3.2
 41
90.0
 71
     4
 72
     5
  1
　受け用スペーサーは常時1枚を使用し残りの4枚は高さ調整に使用の事。
 73
     1
 44
1.0
  0
MTEXT
  5
43B50
330
1F
100
AcDbEntity
  8
AM_6
100
AcDbMText
 10
3251.416311966651
 20
2181.171458965711
 30
0.0
 40
3.2
 41
90.0
 71
     4
 72
     5
  1
　適応扉下チリはA寸法をもとに選定の事。
 73
     1
 44
1.0
  0
MTEXT
  5
43B51
330
1F
100
AcDbEntity
  8
AM_6
100
AcDbMText
 10
3251.416311966651
 20
2194.171458965711
 30
0.0
 40
3.2
 41
90.0
 71
     4
 72
     5
  1
　ドアチェック使用扉に限る。
 73
     1
 44
1.0
  0
DIMENSION
  5
43D6E
330
1F
100
AcDbEntity
  8
AM_5
100
AcDbDimension
  2
*D19
 10
3158.776768951998
 20
2231.040062871718
 30
0.0
 11
3131.918789514736
 21
2247.195043096832
 31
0.0
 70
   163
  1
4-%%c4.5×<>サラ
 71
     5
 42
6.49999999999909
  3
SYS$3
100
AcDbDiametricDimension
 15
3154.775167776526
 25
2236.162287782091
 35
0.0
 40
0.0
1001
ACAD
1000
DSTYLE
1002
{
1070
   172
1070
     1
1070
   342
1005
43D9F
1002
}
  0
MTEXT
  5
43EFE
330
1F
100
AcDbEntity
  8
AM_6
100
AcDbMText
 10
3251.416311966651
 20
2233.171458965711
 30
0.0
 40
3.2
 41
90.0
 71
     4
 72
     5
  1
　ストッパー：有色クロメート
 73
     1
 44
1.0
  0
MTEXT
  5
43EFF
330
1F
100
AcDbEntity
  8
AM_6
100
AcDbMText
 10
3251.416311966651
 20
2252.671458965711
 30
0.0
 40
3.2
 41
90.0
 71
     4
 72
     5
  1
　受け：亜鉛ダイキャスト
 73
     1
 44
1.0
  0
MTEXT
  5
43F00
330
1F
100
AcDbEntity
  8
AM_6
100
AcDbMText
 10
3251.416311966651
 20
2168.171458965711
 30
0.0
 40
3.2
 41
90.0
 71
     4
 72
     5
  1
　扉の開放状態を保持する機能は付いておりません。
 73
     1
 44
1.0
  0
TEXT
  5
43F99
330
1F
100
AcDbEntity
  8
AM_6
100
AcDbText
 10
3233.5675665515
 20
2205.571458965711
 30
0.0
 40
3.2
  1
　付属品
 41
0.8643907499999999
100
AcDbText
  0
LINE
  5
43F9A
330
1F
100
AcDbEntity
  8
AM_0
100
AcDbLine
 10
3231.416311966652
 20
2197.421458965711
 30
0.0
 11
3341.416311966651
 21
2197.421458965711
 31
0.0
  0
MTEXT
  5
43F9B
330
1F
100
AcDbEntity
  8
AM_6
100
AcDbMText
 10
3251.416311966651
 20
2200.671458965711
 30
0.0
 40
3.2
 41
90.0
 71
     4
 72
     5
  1
　取付治具：1枚
 73
     1
 44
1.0
  0
MTEXT
  5
43F9C
330
1F
100
AcDbEntity
  8
AM_6
100
AcDbMText
 10
3251.416311966651
 20
2207.171458965711
 30
0.0
 40
3.2
 41
90.0
 71
     4
 72
     5
  1
　受け用スペーサー t=1.0：5枚 
 73
     1
 44
1.0
  0
LINE
  5
440EB
330
1F
100
AcDbEntity
  8
AM_0
100
AcDbLine
 10
3231.416311966652
 20
2164.921458965711
 30
0.0
 11
3341.416311966651
 21
2164.921458965711
 31
0.0
  0
MTEXT
  5
440EC
330
1F
100
AcDbEntity
  8
AM_6
100
AcDbMText
 10
3251.416311966651
 20
2174.671458965711
 30
0.0
 40
3.2
 41
90.0
 71
     4
 72
     5
  1
　扉の開く速度が速すぎると作動不良や破損の恐れがあります。
 73
     1
 44
1.0
  0
ARC
  5
44962
330
1F
100
AcDbEntity
  8
AM_3
 48
0.5
100
AcDbCircle
 10
3247.034284153291
 20
2133.453653912008
 30
0.0
 40
2.25
100
AcDbArc
 50
0.0
 51
180.0
  0
ARC
  5
44963
330
1F
100
AcDbEntity
  8
AM_3
 48
0.5
100
AcDbCircle
 10
3247.034284153291
 20
2131.453653912006
 30
0.0
 40
2.250000000000909
100
AcDbArc
 50
180.0
 51
0.0
  0
LINE
  5
44964
330
1F
100
AcDbEntity
  8
AM_3
 48
0.5
100
AcDbLine
 10
3249.284284153292
 20
2131.453653912006
 30
0.0
 11
3249.284284153292
 21
2133.453653912009
 31
0.0
  0
LINE
  5
44965
330
1F
100
AcDbEntity
  8
AM_3
 48
0.5
100
AcDbLine
 10
3244.78428415329
 20
2131.453653912006
 30
0.0
 11
3244.784284153291
 21
2133.453653912008
 31
0.0
  0
ARC
  5
44966
330
1F
100
AcDbEntity
  8
AM_3
 48
0.5
100
AcDbCircle
 10
3279.034284153291
 20
2133.453653912008
 30
0.0
 40
2.25
100
AcDbArc
 50
0.0
 51
180.0
  0
ARC
  5
44967
330
1F
100
AcDbEntity
  8
AM_3
 48
0.5
100
AcDbCircle
 10
3279.034284153291
 20
2131.453653912006
 30
0.0
 40
2.250000000000909
100
AcDbArc
 50
180.0
 51
0.0
  0
LINE
  5
44968
330
1F
100
AcDbEntity
  8
AM_3
 48
0.5
100
AcDbLine
 10
3276.78428415329
 20
2131.453653912006
 30
0.0
 11
3276.78428415329
 21
2133.453653912009
 31
0.0
  0
LINE
  5
44969
330
1F
100
AcDbEntity
  8
AM_3
 48
0.5
100
AcDbLine
 10
3281.284284153292
 20
2131.453653912006
 30
0.0
 11
3281.284284153291
 21
2133.453653912008
 31
0.0
  0
DIMENSION
  5
449B5
330
1F
100
AcDbEntity
  8
AM_5
100
AcDbDimension
  2
*D25
 10
3277.068987611686
 20
2132.358158816833
 30
0.0
 11
3303.603737044723
 21
2138.321109760966
 31
0.0
 70
   163
  1
2-<>×6.5スロット
 71
     5
 42
4.499999999998453
 51
360.0
  3
SYS$3
100
AcDbDiametricDimension
 15
3280.999580694896
 25
2134.549149007183
 35
0.0
 40
0.0
  0
ENDSEC
  0
SECTION
  2
OBJECTS
  0
DICTIONARY
  5
C
330
0
100
AcDbDictionary
281
     1
  3
ACAD_2007HEADERVARS_RT
350
44138
  3
ACAD_BGPLOT_KEY
350
AB06
  3
ACAD_COLOR
350
A91D
  3
ACAD_DETAILVIEWSTYLE
350
4417B
  3
ACAD_DGNDEFINITIONS
350
4417F
  3
ACAD_DWFDEFINITIONS
350
4417E
  3
ACAD_FIELDLIST
350
441CC
  3
ACAD_GROUP
350
D
  3
ACAD_LAYOUT
350
1A
  3
ACAD_MATERIAL
350
A91C
  3
ACAD_MLEADERSTYLE
350
4417A
  3
ACAD_MLINESTYLE
350
17
  3
ACAD_PDFDEFINITIONS
350
4417D
  3
ACAD_PLOTSETTINGS
350
19
  3
ACAD_PLOTSTYLENAME
350
E
  3
ACAD_SCALELIST
350
44149
  3
ACAD_SECTIONVIEWSTYLE
350
4417C
  3
ACAD_TABLESTYLE
350
AAB9
  3
ACAD_VISUALSTYLE
350
B0F1
  3
AcAsAppObject
350
3DA1
  3
ACASGREF_MASTER
350
3DE9
  3
ACDB_RECOMPOSE_DATA
350
44A02
  3
AcDbVariableDictionary
350
34
  3
AD_GREF_MODULE
350
3DEA
  3
AD_MAPI_MODULE
350
3E06
  3
ASE_INDEX_DICTIONARY
350
43333
  3
gmRefExt
350
441F0
  3
HCJX_INFO
350
44860
  3
MAPISURF_MODULE
350
3DEB
  0
DICTIONARY
  5
449BF
330
8
100
AcDbDictionary
280
     1
281
     1
  3
ACAD_XREC_ROUNDTRIP
360
449C0
  0
DICTIONARY
  5
3F95
330
2
100
AcDbDictionary
280
     1
281
     1
  3
ACAD_LAYERFILTERS
360
43B23
  3
ACAD_LAYERSTATES
360
3F96
  3
ACLYDICTIONARY
360
43B22
  3
AMLAYER_GROUPCOLORS
360
AAB4
  0
DICTIONARY
  5
8A
330
1F
100
AcDbDictionary
280
     1
281
     1
  3
ACAD_SORTENTS
360
B1BA
  0
DICTIONARY
  5
44138
102
{ACAD_REACTORS
330
C
102
}
330
C
100
AcDbDictionary
281
     1
  3
DIMARCSYM
350
44139
  0
DICTIONARY
  5
AB06
102
{ACAD_REACTORS
330
C
102
}
330
C
100
AcDbDictionary
280
     1
281
     1
  0
DICTIONARY
  5
A91D
102
{ACAD_REACTORS
330
C
102
}
330
C
100
AcDbDictionary
281
     1
  0
DICTIONARY
  5
4417B
102
{ACAD_REACTORS
330
C
102
}
330
C
100
AcDbDictionary
281
     1
  3
Metric50
350
44196
  0
DICTIONARY
  5
4417F
102
{ACAD_REACTORS
330
C
102
}
330
C
100
AcDbDictionary
281
     1
  0
DICTIONARY
  5
4417E
102
{ACAD_REACTORS
330
C
102
}
330
C
100
AcDbDictionary
281
     1
  0
FIELDLIST
  5
441CC
102
{ACAD_REACTORS
330
C
102
}
330
C
100
AcDbIdSet
 90
        1
330
448D5
100
AcDbFieldList
  0
DICTIONARY
  5
D
102
{ACAD_REACTORS
330
C
102
}
330
C
100
AcDbDictionary
281
     1
  0
DICTIONARY
  5
1A
102
{ACAD_REACTORS
330
C
102
}
330
C
100
AcDbDictionary
281
     1
  3
Model
350
22
  3
ﾚｲｱｳﾄ1
350
1E
  3
ﾚｲｱｳﾄ2
350
26
  0
DICTIONARY
  5
A91C
102
{ACAD_REACTORS
330
C
102
}
330
C
100
AcDbDictionary
281
     1
  3
ByBlock
350
B0EF
  3
ByLayer
350
B0EE
  3
Global
350
B0F0
  0
DICTIONARY
  5
4417A
102
{ACAD_REACTORS
330
C
102
}
330
C
100
AcDbDictionary
281
     1
  3
Standard
350
441F1
  0
DICTIONARY
  5
17
102
{ACAD_REACTORS
330
C
102
}
330
C
100
AcDbDictionary
281
     1
  3
Standard
350
18
  0
DICTIONARY
  5
4417D
102
{ACAD_REACTORS
330
C
102
}
330
C
100
AcDbDictionary
281
     1
  0
DICTIONARY
  5
19
102
{ACAD_REACTORS
330
C
102
}
330
C
100
AcDbDictionary
281
     1
  0
ACDBDICTIONARYWDFLT
  5
E
102
{ACAD_REACTORS
330
C
102
}
330
C
100
AcDbDictionary
281
     1
  3
Normal
350
F
100
AcDbDictionaryWithDefault
340
F
  0
DICTIONARY
  5
44149
102
{ACAD_REACTORS
330
C
102
}
330
C
100
AcDbDictionary
281
     1
  3
A0
350
4414A
  3
A1
350
4414B
  3
A2
350
4414C
  3
A3
350
4414D
  3
A4
350
4414E
  3
A5
350
4414F
  3
A6
350
44150
  3
A7
350
44151
  3
A8
350
44152
  3
A9
350
44153
  3
B0
350
44154
  3
B1
350
44155
  3
B2
350
44156
  3
B3
350
44157
  3
B4
350
44158
  3
B5
350
44159
  3
B6
350
4415A
  0
DICTIONARY
  5
4417C
102
{ACAD_REACTORS
330
C
102
}
330
C
100
AcDbDictionary
281
     1
  3
Metric50
350
441A1
  0
DICTIONARY
  5
AAB9
102
{ACAD_REACTORS
330
C
102
}
330
C
100
AcDbDictionary
281
     1
  3
Standard
350
AABA
  0
DICTIONARY
  5
B0F1
102
{ACAD_REACTORS
330
C
102
}
330
C
100
AcDbDictionary
281
     1
  3
2dWireframe
350
B0F7
  3
3D Hidden
350
B0F9
  3
3dWireframe
350
B0F8
  3
Basic
350
B0F6
  3
Brighten
350
B0FD
  3
ColorChange
350
B101
  3
Conceptual
350
B0FA
  3
Dim
350
B0FC
  3
EdgeColorOff
350
4415F
  3
Facepattern
350
B100
  3
Flat
350
B0F2
  3
FlatWithEdges
350
B0F3
  3
Gouraud
350
B0F4
  3
GouraudWithEdges
350
B0F5
  3
Hidden
350
4415C
  3
JitterOff
350
4415D
  3
Linepattern
350
B0FF
  3
OverhangOff
350
4415E
  3
Realistic
350
B0FB
  3
Shaded
350
44164
  3
Shaded with edges
350
44163
  3
Shades of Gray
350
44160
  3
Sketchy
350
44161
  3
Thicken
350
B0FE
  3
Wireframe
350
4415B
  3
X-Ray
350
44162
  0
ACAD_PROXY_OBJECT
  5
3DA1
102
{ACAD_REACTORS
330
C
102
}
330
C
100
AcDbProxyObject
 90
      499
 91
      576
 95
   917527
 70
     0
 93
       10
310
407F
1001
ACAD
1000
AcRTDxfName
1000
ASAPP
  0
ACAD_PROXY_OBJECT
  5
3DE9
102
{ACAD_REACTORS
330
C
102
}
330
C
100
AcDbProxyObject
 90
      499
 91
      581
 95
   917527
 70
     0
 93
       34
310
010000407F
1001
ACAD
1000
AcRTDxfName
1000
ACASGREFMASTER
  0
XRECORD
  5
44A02
102
{ACAD_REACTORS
330
C
102
}
330
C
100
AcDbXrecord
280
     1
 90
        1
330
AABA
  0
DICTIONARY
  5
34
102
{ACAD_REACTORS
330
C
102
}
330
C
100
AcDbDictionary
281
     1
  3
CANNOSCALE
350
44863
  3
CMLEADERSTYLE
350
44868
  3
CTABLESTYLE
350
AAF3
  3
DIMASSOC
350
A10C
  3
FIELDEVAL
350
AB07
  3
INDEXCTL
350
35
  3
MSLTSCALE
350
44869
  3
SORTENTS
350
194C
  0
ACAD_PROXY_OBJECT
  5
3DEA
102
{ACAD_REACTORS
330
C
102
}
330
C
100
AcDbProxyObject
 90
      499
 91
      582
 95
   917527
 70
     0
 93
      114
310
00000043800000000000000000003F
1001
ACAD
1000
AcRTDxfName
1000
ACADGREFMODULE
  0
ACAD_PROXY_OBJECT
  5
3E06
102
{ACAD_REACTORS
330
C
102
}
330
C
100
AcDbProxyObject
 90
      499
 91
      594
 95
   917527
 70
     0
 93
       34
310
05000044FF
1001
ACAD
1000
AcRTDxfName
1000
MAPIADMODULE
  0
DICTIONARY
  5
43333
102
{ACAD_REACTORS
330
C
102
}
330
C
100
AcDbDictionary
281
     1
  3
ASEBlockHierarchyIndexRecord
350
43334
1001
DCO15
1040
1737290688.662
  0
XRECORD
  5
441F0
102
{ACAD_REACTORS
330
C
102
}
330
C
100
AcDbXrecord
280
     1
  0
DICTIONARY
  5
44860
102
{ACAD_REACTORS
330
C
102
}
330
C
100
AcDbDictionary
281
     1
  3
GmRelease
350
44861
  3
GmTimeStamp
350
44862
  0
ACAD_PROXY_OBJECT
  5
3DEB
102
{ACAD_REACTORS
330
C
102
}
330
C
100
AcDbProxyObject
 90
      499
 91
      583
 95
   917527
 70
     0
 93
        8
310
04
1001
ACAD
1000
AcRTDxfName
1000
AMDTMAPISURFMOUDULE
  0
XRECORD
  5
449C0
102
{ACAD_REACTORS
330
449BF
102
}
330
449BF
100
AcDbXrecord
280
     1
102
VTR_0.000_0.000_1.000_1.000_VISUALSTYLE
340
B0F7
102
VTR_0.000_0.000_1.000_1.000_GRIDDISPLAY
 70
     3
102
VTR_0.000_0.000_1.000_1.000_GRIDMAJOR
 70
     5
102
VTR_0.000_0.000_1.000_1.000_DEFAULTLIGHTING
280
     1
102
VTR_0.000_0.000_1.000_1.000_DEFAULTLIGHTINGTYPE
 70
     1
102
VTR_0.000_0.000_1.000_1.000_BRIGHTNESS
141
0.0
102
VTR_0.000_0.000_1.000_1.000_CONTRAST
142
0.0
  0
DICTIONARY
  5
43B23
102
{ACAD_REACTORS
330
3F95
102
}
330
3F95
100
AcDbDictionary
281
     1
  0
DICTIONARY
  5
3F96
102
{ACAD_REACTORS
330
3F95
102
}
330
3F95
100
AcDbDictionary
281
     1
  3
20011210
350
3FB7
  0
DICTIONARY
  5
43B22
102
{ACAD_REACTORS
330
3F95
102
}
330
3F95
100
AcDbDictionary
281
     1
1001
ACAD
1000
<All
  0
DICTIONARY
  5
AAB4
102
{ACAD_REACTORS
330
3F95
102
}
330
3F95
100
AcDbDictionary
280
     1
281
     1
  0
SORTENTSTABLE
  5
B1BA
102
{ACAD_REACTORS
330
8A
102
}
330
8A
100
AcDbSortentsTable
330
1F
331
0
  5
43D2D
331
266FA
  5
266FF
331
266FB
  5
26700
331
266FC
  5
26701
331
266FD
  5
26702
331
266FE
  5
26703
331
266FF
  5
2670E
331
26700
  5
2670F
331
26701
  5
26710
331
26702
  5
2673D
331
26703
  5
26766
331
26762
  5
26767
331
26763
  5
26768
331
26764
  5
26769
331
26765
  5
26781
331
26766
  5
26782
331
26767
  5
26783
331
26768
  5
267C6
331
26769
  5
267ED
331
267E3
  5
267EE
331
267E4
  5
267EF
331
267E5
  5
267F0
331
267E6
  5
267F1
331
267E7
  5
267F2
331
267E8
  5
267F3
331
267E9
  5
267F4
331
267EA
  5
267F5
331
267EB
  5
267F8
331
267EC
  5
267FC
331
267F0
  5
26800
331
267F6
  5
26801
331
267F7
  5
26802
331
267F8
  5
26803
331
267F9
  5
26804
331
267FA
  5
26805
331
267FB
  5
26806
331
267FC
  5
26807
331
267FD
  5
26808
331
267FE
  5
26809
331
267FF
  5
2680A
331
26800
  5
2680B
331
26801
  5
2680C
331
26802
  5
2680D
331
26803
  5
2680E
331
26804
  5
2680F
331
26805
  5
26810
331
26806
  5
26811
331
26807
  5
26812
331
26808
  5
26813
331
26809
  5
26814
331
2680A
  5
26815
331
2680B
  5
26816
331
2680C
  5
26817
331
2680D
  5
26818
331
2680E
  5
26819
331
2680F
  5
2681A
331
26810
  5
2681B
331
26811
  5
2681C
331
26812
  5
2681D
331
26813
  5
2681E
331
26814
  5
2681F
331
26815
  5
26820
331
26816
  5
26821
331
26817
  5
26822
331
26818
  5
26823
331
26819
  5
26824
331
2681A
  5
26825
331
2681B
  5
26826
331
2681C
  5
26827
331
2681D
  5
26828
331
2681E
  5
26829
331
2681F
  5
2682A
331
26820
  5
2682B
331
26821
  5
2682C
331
26822
  5
2682D
331
26823
  5
2685D
331
26824
  5
2685E
331
26825
  5
269F6
331
26826
  5
269F7
331
26827
  5
269F8
331
26828
  5
269F9
331
26851
  5
269FA
331
26854
  5
269FB
331
2685D
  5
269FC
331
2685E
  5
269FD
331
2685F
  5
2B218
331
29F51
  5
2B219
331
29F52
  5
2B21A
331
29F53
  5
2B21B
331
29F54
  5
2B21C
331
29F55
  5
2B21D
331
29F56
  5
2B21E
331
29F57
  5
2B21F
331
29F58
  5
2B220
331
29F59
  5
2B221
331
29F5A
  5
2B222
331
29F5B
  5
2B223
331
29F5C
  5
2B224
331
29F5D
  5
2B225
331
29F5E
  5
2B226
331
29F5F
  5
2B227
331
29F60
  5
2B228
331
29F61
  5
2B229
331
29F62
  5
2B22A
331
29F63
  5
2B22B
331
29F64
  5
2B22C
331
29F65
  5
2B22D
331
29F66
  5
2B22E
331
29F67
  5
2B22F
331
29F68
  5
2B230
331
29F69
  5
2B231
331
29F6A
  5
2B232
331
29F6B
  5
2B233
331
29F6C
  5
2B234
331
29F6D
  5
2B235
331
29F6E
  5
2B34E
331
29F6F
  5
2B50A
331
29F70
  5
2B50B
331
29F71
  5
2B50C
331
29F72
  5
2B50D
331
29F73
  5
2B50E
331
29F74
  5
2B50F
331
29F75
  5
2B510
331
29F76
  5
2B511
331
29F77
  5
2B512
331
29F78
  5
2B513
331
29F79
  5
2B559
331
29F7A
  5
2B55B
331
29F7B
  5
2B55C
331
29F7C
  5
2B55D
331
29F7D
  5
2B560
331
29F7E
  5
2B561
331
29F7F
  5
2B562
331
29F80
  5
2B563
331
29F81
  5
2B564
331
29F82
  5
2B565
331
29F83
  5
2B566
331
29F84
  5
2B567
331
29F85
  5
2B568
331
29F86
  5
2B569
331
29F87
  5
2B639
331
29F88
  5
2B63C
331
29F8A
  5
2B63D
331
29F8B
  5
2B63E
331
29F8C
  5
2B63F
331
29F8D
  5
2B640
331
29F8E
  5
2B641
331
29F8F
  5
2B646
331
29F90
  5
2B647
331
29F91
  5
2B648
331
2B1CA
  5
2B649
331
2B1CB
  5
2B64A
331
2B1CC
  5
2B64B
331
2B1CD
  5
2B64C
331
2B1CE
  5
2B64D
331
2B1CF
  5
2B64E
331
2B1D0
  5
2B64F
331
2B1D1
  5
2B650
331
2B1D2
  5
2B651
331
2B1D3
  5
2B652
331
2B1D4
  5
2B653
331
2B1D5
  5
2B654
331
2B1D6
  5
2B655
331
2B1D7
  5
2B657
331
2B1D8
  5
2B658
331
2B1D9
  5
2B659
331
2B1DB
  5
2B65A
331
2B1DC
  5
2B65B
331
2B1DD
  5
2B65C
331
2B1DE
  5
2B65D
331
2B1DF
  5
2B65E
331
2B1E0
  5
2B65F
331
2B1E1
  5
2B661
331
2B1E2
  5
2B662
331
2B1E3
  5
2B663
331
2B1E9
  5
2B664
331
2B1EA
  5
2B665
331
2B1EB
  5
2B666
331
2B1EC
  5
2B667
331
2B1ED
  5
2B668
331
2B1EE
  5
2B669
331
2B1EF
  5
2B66A
331
2B1F0
  5
2B66B
331
2B1F1
  5
2B66C
331
2B1F2
  5
2B679
331
2B1F3
  5
2B67A
331
2B1F4
  5
2B689
331
2B20F
  5
2B68A
331
2B210
  5
2B68B
331
2B211
  5
2B68C
331
2B212
  5
2B68D
331
2B213
  5
2B68E
331
2B214
  5
2B68F
331
2B215
  5
2B690
331
2B216
  5
2B691
331
2B217
  5
2B692
331
2B218
  5
2B698
331
2B21E
  5
2B69C
331
2B21F
  5
2B69D
331
2B220
  5
2B69E
331
2B221
  5
2B69F
331
2B222
  5
2B6A0
331
2B223
  5
2B6A1
331
2B224
  5
2B6A2
331
2B225
  5
2B6A3
331
2B226
  5
2B6A4
331
2B227
  5
2B6A6
331
2B229
  5
2B6A7
331
2B22A
  5
2B6A8
331
2B22B
  5
2B6A9
331
2B22C
  5
2B6AA
331
2B22D
  5
2B6AB
331
2B22E
  5
2B6AD
331
2B230
  5
2B6AF
331
2B232
  5
2B6B0
331
2B233
  5
2B6B1
331
2B234
  5
2B6B2
331
2B235
  5
30E70
331
2B34E
  5
30E71
331
2B559
  5
30E72
331
2E587
  5
30EA1
331
2E5CF
  5
30F34
331
2E5D0
  5
30F35
331
2E5D3
  5
30F36
331
2E5D4
  5
30F39
331
2E5DA
  5
30F3A
331
2E5DB
  5
30F3B
331
2E5E1
  5
30F3C
331
2E5E2
  5
30F3D
331
2E5E3
  5
4043C
331
317DF
  5
2B55F
331
317E0
  5
2B55E
331
317E1
  5
2B515
331
317E2
  5
2B514
331
401E8
  5
42E82
331
42E80
  5
42E83
331
42E81
  5
42E84
331
42E82
  5
42E85
331
42E83
  5
42E86
331
42E84
  5
42E87
331
42E85
  5
42E88
331
42E86
  5
42E8A
331
42E87
  5
42E8B
331
42E88
  5
43393
331
42E8A
  5
4339A
331
42E8B
  5
434D3
331
434D1
  5
434D4
331
434D2
  5
434D6
331
434D4
  5
434D9
331
434D6
  5
434DA
331
434D7
  5
434DD
331
434DA
  5
4356A
331
434DB
  5
4356B
331
434DD
  5
4356C
331
4356A
  5
43570
331
4356B
  5
43571
331
4356C
  5
43572
331
43570
  5
435D6
331
43571
  5
435D7
331
43572
  5
435D8
331
435D6
  5
435D9
331
435D7
  5
435DA
331
435D8
  5
435DB
331
435D9
  5
4361E
331
435DA
  5
43628
331
435DB
  5
4393D
331
43633
  5
439FE
331
436E4
  5
43A6E
331
439FE
  5
2B63A
331
439FF
  5
2B63B
331
43A6E
  5
43A6F
331
43A6F
  5
43A70
331
43A70
  5
43A72
331
43A72
  5
43A74
331
43A74
  5
43A79
331
43A79
  5
43A7A
331
43A7A
  5
43A7B
331
43A7B
  5
43A7C
331
43A7C
  5
43A7F
331
43A7F
  5
43A80
331
43A80
  5
43A81
331
43A81
  5
43A83
331
43A83
  5
43A84
331
43A84
  5
43A87
331
43A87
  5
43A88
331
43A88
  5
43A89
331
43A89
  5
43A8A
331
43A8A
  5
43A8B
331
43A8B
  5
43A8C
331
43A8C
  5
43A8D
331
43A8D
  5
43A8E
331
43A8E
  5
43B1E
331
43B1E
  5
43B1F
331
43B1F
  5
43B40
331
43B40
  5
43B41
331
43B41
  5
43B42
331
43B42
  5
43B43
331
43B43
  5
43B45
331
43B45
  5
43B46
331
43B46
  5
43B47
331
43B47
  5
43B48
331
43B48
  5
43B49
331
43B49
  5
43B4B
331
43B4B
  5
43B4C
331
43B4C
  5
43B4D
331
43B4D
  5
43B4F
331
43B4F
  5
43B50
331
43B50
  5
43B51
331
43B51
  5
43D2C
331
43D6E
  5
43EFE
331
43EFE
  5
43EFF
331
43EFF
  5
43F00
331
43F00
  5
43F99
331
43F99
  5
43F9A
331
43F9A
  5
43F9B
331
43F9B
  5
43F9C
331
43F9C
  5
440EB
331
440EB
  5
440EC
331
440EC
  5
445EA
  0
XRECORD
  5
44139
102
{ACAD_REACTORS
330
44138
102
}
330
44138
100
AcDbXrecord
280
     1
 70
     1
  0
ACDBDETAILVIEWSTYLE
  5
44196
102
{ACAD_REACTORS
330
4417B
102
}
102
{ACAD_XDICTIONARY
360
44197
102
}
330
4417B
100
AcDbModelDocViewStyle
 70
     0
  3
Metric50
290
     1
100
AcDbDetailViewStyle
 70
     0
 71
     0
 90
        3
 71
     1
340
11
 62
   256
 40
5.0
340
0
 62
   256
 40
5.0
300

 40
0.0
280
     1
 71
     2
340
16
 90
       25
 62
   256
 71
     3
340
11
 62
   256
 40
5.0
 90
        0
 40
15.0
 90
        1
300
%<\AcVar ViewDetailId>% (%<\AcVar ViewScale \f "%sn">%)
 71
     4
340
16
 90
       25
 62
   256
340
16
 90
       25
 62
   256
280
     0
  0
LAYOUT
  5
22
102
{ACAD_REACTORS
330
1A
102
}
330
1A
100
AcDbPlotSettings
  1

  2
Adobe PDF
  4
A4
  6

 40
0.0
 41
0.0
 42
0.1
 43
0.0
 44
210.0
 45
297.0
 46
-0.049999999999315
 47
0.0
 48
3055.916311966651
 49
2073.921458965712
140
3352.916311966652
141
2283.921458965711
142
1.0
143
1.0
 70
  3748
 72
     1
 73
     1
 74
     4
  7
monochrome.ctb
 75
    16
 76
     1
 77
     2
 78
   300
147
1.0
148
-3055.916311966651
149
-2073.921458965712
100
AcDbLayout
  1
Model
 70
     1
 71
     0
 10
0.0
 20
0.0
 11
12.0
 21
9.0
 12
0.0
 22
0.0
 32
0.0
 14
3055.916311966651
 24
2073.921458965712
 34
0.0
 15
3352.916311966652
 25
2283.921458965711
 35
0.0
146
0.0
 13
0.0
 23
0.0
 33
0.0
 16
1.0
 26
0.0
 36
0.0
 17
0.0
 27
1.0
 37
0.0
 76
     0
330
1F
331
B0EC
1001
ACAD_PSEXT
1000
Adobe PDF
1000
Adobe PDF Converter
1000
Documents\*.pdf
1000

1070
     0
1001
PLOTTRANSPARENCY
1071
        0
  0
LAYOUT
  5
1E
102
{ACAD_REACTORS
330
1A
102
}
330
1A
100
AcDbPlotSettings
  1

  2
\\ML370\XEROX
  4
A4
  6

 40
3.174999952316284
 41
3.174999952316284
 42
3.175003051757812
 43
3.17498779296875
 44
209.8674926757813
 45
296.6719970703125
 46
0.0
 47
0.0
 48
0.0
 49
0.0
140
0.0
141
0.0
142
1.0
143
1.0
 70
   688
 72
     1
 73
     1
 74
     5
  7
monochrome.ctb
 75
    16
 76
     0
 77
     2
 78
   300
147
1.0
148
0.0
149
0.0
100
AcDbLayout
  1
ﾚｲｱｳﾄ1
 70
     1
 71
     1
 10
-3.17498779296875
 20
-3.174999952316284
 11
293.4970092773438
 21
206.692492723465
 12
0.0
 22
0.0
 32
0.0
 14
1.000000000000000E+20
 24
1.000000000000000E+20
 34
1.000000000000000E+20
 15
-1.000000000000000E+20
 25
-1.000000000000000E+20
 35
-1.000000000000000E+20
146
0.0
 13
0.0
 23
0.0
 33
0.0
 16
1.0
 26
0.0
 36
0.0
 17
0.0
 27
1.0
 37
0.0
 76
     0
330
1B
  0
LAYOUT
  5
26
102
{ACAD_REACTORS
330
1A
102
}
330
1A
100
AcDbPlotSettings
  1

  2
\\ML370\XEROX
  4

  6

 40
0.0
 41
0.0
 42
0.0
 43
0.0
 44
0.0
 45
0.0
 46
0.0
 47
0.0
 48
0.0
 49
0.0
140
0.0
141
0.0
142
1.0
143
1.0
 70
   688
 72
     0
 73
     0
 74
     5
  7
monochrome.ctb
 75
    16
 76
     0
 77
     2
 78
   300
147
1.0
148
0.0
149
0.0
100
AcDbLayout
  1
ﾚｲｱｳﾄ2
 70
     1
 71
     2
 10
0.0
 20
0.0
 11
12.0
 21
9.0
 12
0.0
 22
0.0
 32
0.0
 14
0.0
 24
0.0
 34
0.0
 15
0.0
 25
0.0
 35
0.0
146
0.0
 13
0.0
 23
0.0
 33
0.0
 16
1.0
 26
0.0
 36
0.0
 17
0.0
 27
1.0
 37
0.0
 76
     0
330
23
  0
MATERIAL
  5
B0EF
102
{ACAD_REACTORS
330
A91C
102
}
102
{ACAD_XDICTIONARY
360
449C2
102
}
330
A91C
100
AcDbMaterial
  1
ByBlock
  0
MATERIAL
  5
B0EE
102
{ACAD_REACTORS
330
A91C
102
}
102
{ACAD_XDICTIONARY
360
449C4
102
}
330
A91C
100
AcDbMaterial
  1
ByLayer
  0
MATERIAL
  5
B0F0
102
{ACAD_REACTORS
330
A91C
102
}
102
{ACAD_XDICTIONARY
360
449C6
102
}
330
A91C
100
AcDbMaterial
  1
Global
  0
MLEADERSTYLE
  5
441F1
102
{ACAD_REACTORS
330
4417A
102
}
102
{ACAD_XDICTIONARY
360
449C8
102
}
330
4417A
100
AcDbMLeaderStyle
170
     2
171
     1
172
     0
 90
        2
 40
0.0
 41
0.0
173
     1
 91
-1056964608
340
15
 92
       -2
290
     1
 42
2.0
291
     1
 43
8.0
  3
Standard
341
0
 44
4.0
300

342
11
174
     1
178
     6
175
     1
176
     0
 93
-1056964608
 45
4.0
292
     0
297
     0
 46
4.0
343
0
 94
-1056964608
 47
1.0
 49
1.0
140
1.0
293
     1
141
0.0
294
     1
177
     0
142
1.0
295
     0
296
     0
143
3.75
1001
ACAD_MLEADERVER
1070
     2
  0
MLINESTYLE
  5
18
102
{ACAD_REACTORS
330
17
102
}
330
17
100
AcDbMlineStyle
  2
STANDARD
 70
     0
  3

 62
   256
 51
90.0
 52
90.0
 71
     2
 49
0.5
 62
   256
  6
BYLAYER
 49
-0.5
 62
   256
  6
BYLAYER
  0
ACDBPLACEHOLDER
  5
F
102
{ACAD_REACTORS
330
E
102
}
330
E
  0
SCALE
  5
4414A
102
{ACAD_REACTORS
330
44149
102
}
330
44149
100
AcDbScale
 70
     0
300
1:1
140
1.0
141
1.0
290
     1
  0
SCALE
  5
4414B
102
{ACAD_REACTORS
330
44149
102
}
330
44149
100
AcDbScale
 70
     0
300
1:2
140
1.0
141
2.0
290
     0
  0
SCALE
  5
4414C
102
{ACAD_REACTORS
330
44149
102
}
330
44149
100
AcDbScale
 70
     0
300
1:4
140
1.0
141
4.0
290
     0
  0
SCALE
  5
4414D
102
{ACAD_REACTORS
330
44149
102
}
330
44149
100
AcDbScale
 70
     0
300
1:5
140
1.0
141
5.0
290
     0
  0
SCALE
  5
4414E
102
{ACAD_REACTORS
330
44149
102
}
330
44149
100
AcDbScale
 70
     0
300
1:8
140
1.0
141
8.0
290
     0
  0
SCALE
  5
4414F
102
{ACAD_REACTORS
330
44149
102
}
330
44149
100
AcDbScale
 70
     0
300
1:10
140
1.0
141
10.0
290
     0
  0
SCALE
  5
44150
102
{ACAD_REACTORS
330
44149
102
}
330
44149
100
AcDbScale
 70
     0
300
1:16
140
1.0
141
16.0
290
     0
  0
SCALE
  5
44151
102
{ACAD_REACTORS
330
44149
102
}
330
44149
100
AcDbScale
 70
     0
300
1:20
140
1.0
141
20.0
290
     0
  0
SCALE
  5
44152
102
{ACAD_REACTORS
330
44149
102
}
330
44149
100
AcDbScale
 70
     0
300
1:30
140
1.0
141
30.0
290
     0
  0
SCALE
  5
44153
102
{ACAD_REACTORS
330
44149
102
}
330
44149
100
AcDbScale
 70
     0
300
1:40
140
1.0
141
40.0
290
     0
  0
SCALE
  5
44154
102
{ACAD_REACTORS
330
44149
102
}
330
44149
100
AcDbScale
 70
     0
300
1:50
140
1.0
141
50.0
290
     0
  0
SCALE
  5
44155
102
{ACAD_REACTORS
330
44149
102
}
330
44149
100
AcDbScale
 70
     0
300
1:100
140
1.0
141
100.0
290
     0
  0
SCALE
  5
44156
102
{ACAD_REACTORS
330
44149
102
}
330
44149
100
AcDbScale
 70
     0
300
2:1
140
2.0
141
1.0
290
     0
  0
SCALE
  5
44157
102
{ACAD_REACTORS
330
44149
102
}
330
44149
100
AcDbScale
 70
     0
300
4:1
140
4.0
141
1.0
290
     0
  0
SCALE
  5
44158
102
{ACAD_REACTORS
330
44149
102
}
330
44149
100
AcDbScale
 70
     0
300
8:1
140
8.0
141
1.0
290
     0
  0
SCALE
  5
44159
102
{ACAD_REACTORS
330
44149
102
}
330
44149
100
AcDbScale
 70
     0
300
10:1
140
10.0
141
1.0
290
     0
  0
SCALE
  5
4415A
102
{ACAD_REACTORS
330
44149
102
}
330
44149
100
AcDbScale
 70
     0
300
100:1
140
100.0
141
1.0
290
     0
  0
ACDBSECTIONVIEWSTYLE
  5
441A1
102
{ACAD_REACTORS
330
4417C
102
}
102
{ACAD_XDICTIONARY
360
441A2
102
}
330
4417C
100
AcDbModelDocViewStyle
 70
     0
  3
Metric50
290
     1
100
AcDbSectionViewStyle
 70
     0
 71
     0
 90
      102
 71
     1
340
11
 62
   256
 40
5.0
340
0
340
0
 62
   256
 40
5.0
300
I, O, Q, S, X, Z
 40
10.0
 90
        0
 40
2.5
 90
        0
 71
     2
340
16
 90
       25
 62
   256
340
16
 90
       50
 62
   256
 40
5.0
 40
2.5
 40
5.0
 71
     3
340
11
 62
   256
 40
5.0
 90
        0
 40
15.0
 90
        1
300
%<\AcVar ViewSectionStartId>%-%<\AcVar ViewSectionEndId>% (%<\AcVar ViewScale \f "%sn">%)
 71
     4
 62
   256
 62
   257
300
ANSI31
 40
1.0
 90
        0
290
     0
290
     0
 90
        6
 40
0.0
 40
1.570796326794897
 40
0.2617993877991494
 40
1.308996938995747
 40
-0.2617993877991494
 40
1.832595714594046
  0
TABLESTYLE
  5
AABA
102
{ACAD_REACTORS
330
AAB9
102
}
102
{ACAD_XDICTIONARY
360
449CB
102
}
330
AAB9
100
AcDbTableStyle
  3
Standard
 70
     0
 71
     0
 40
1.5
 41
1.5
280
     0
281
     0
  7
STANDARD
140
4.5
170
     2
 62
     0
 63
   257
283
     0
274
    -2
284
     1
 64
     0
275
    -2
285
     1
 65
     0
276
    -2
286
     1
 66
     0
277
    -2
287
     1
 67
     0
278
    -2
288
     1
 68
     0
279
    -2
289
     1
 69
     0
  7
STANDARD
140
6.0
170
     5
 62
     0
 63
   257
283
     0
274
    -2
284
     1
 64
     0
275
    -2
285
     1
 65
     0
276
    -2
286
     1
 66
     0
277
    -2
287
     1
 67
     0
278
    -2
288
     1
 68
     0
279
    -2
289
     1
 69
     0
  7
STANDARD
140
4.5
170
     5
 62
     0
 63
   257
283
     0
274
    -2
284
     1
 64
     0
275
    -2
285
     1
 65
     0
276
    -2
286
     1
 66
     0
277
    -2
287
     1
 67
     0
278
    -2
288
     1
 68
     0
279
    -2
289
     1
 69
     0
  0
VISUALSTYLE
  5
B0F7
102
{ACAD_REACTORS
330
B0F1
102
}
102
{ACAD_XDICTIONARY
360
449CE
102
}
330
B0F1
100
AcDbVisualStyle
  2
2dWireframe
 70
     4
 71
     0
 72
     2
 73
     0
 90
        0
 40
-0.6
 41
-30.0
 62
     5
 63
     7
 74
     1
 91
        4
 64
     7
 65
   257
 75
     1
175
     1
 42
1.0
 92
        0
 66
   257
 43
1.0
 76
     1
 77
     6
 78
     2
 67
     7
 79
     5
170
     0
171
     0
290
     0
174
     0
 93
        1
 44
0.0
173
     0
291
     0
 45
0.0
1001
ACAD
1000
AcDbSavedByObjectVersion
1070
     0
  0
VISUALSTYLE
  5
B0F9
102
{ACAD_REACTORS
330
B0F1
102
}
102
{ACAD_XDICTIONARY
360
449D0
102
}
330
B0F1
100
AcDbVisualStyle
  2
3D Hidden
 70
     6
 71
     1
 72
     2
 73
     2
 90
        0
 40
-0.6
 41
-30.0
 62
     5
 63
     7
 74
     2
 91
        2
 64
     7
 65
   257
 75
     2
175
     1
 42
40.0
 92
        0
 66
   257
 43
1.0
 76
     1
 77
     6
 78
     2
 67
     7
 79
     3
170
     0
171
     0
290
     0
174
     0
 93
        1
 44
0.0
173
     0
291
     0
 45
0.0
1001
ACAD
1000
AcDbSavedByObjectVersion
1070
     0
  0
VISUALSTYLE
  5
B0F8
102
{ACAD_REACTORS
330
B0F1
102
}
102
{ACAD_XDICTIONARY
360
449D2
102
}
330
B0F1
100
AcDbVisualStyle
  2
3dWireframe
 70
     5
 71
     0
 72
     2
 73
     0
 90
        0
 40
-0.6
 41
-30.0
 62
     5
 63
     7
 74
     1
 91
        4
 64
     7
 65
   257
 75
     1
175
     1
 42
1.0
 92
        0
 66
   257
 43
1.0
 76
     1
 77
     6
 78
     2
 67
     7
 79
     5
170
     0
171
     0
290
     0
174
     0
 93
        1
 44
0.0
173
     0
291
     0
 45
0.0
1001
ACAD
1000
AcDbSavedByObjectVersion
1070
     0
  0
VISUALSTYLE
  5
B0F6
102
{ACAD_REACTORS
330
B0F1
102
}
102
{ACAD_XDICTIONARY
360
449D4
102
}
330
B0F1
100
AcDbVisualStyle
  2
Basic
 70
     7
 71
     1
 72
     0
 73
     1
 90
        0
 40
-0.6
 41
-30.0
 62
     5
 63
     7
 74
     0
 91
        4
 64
     7
 65
   257
 75
     1
175
     1
 42
1.0
 92
        8
 66
     7
 43
1.0
 76
     1
 77
     6
 78
     2
 67
     7
 79
     5
170
     0
171
     0
290
     0
174
     0
 93
        1
 44
0.0
173
     0
291
     1
 45
0.0
1001
ACAD
1000
AcDbSavedByObjectVersion
1070
     0
  0
VISUALSTYLE
  5
B0FD
102
{ACAD_REACTORS
330
B0F1
102
}
102
{ACAD_XDICTIONARY
360
449D6
102
}
330
B0F1
100
AcDbVisualStyle
  2
Brighten
 70
    12
 71
     2
 72
     2
 73
     0
 90
        0
 40
-0.6
 41
-30.0
 62
     5
 63
     7
 74
     1
 91
        4
 64
     7
 65
   257
 75
     1
175
     1
 42
1.0
 92
        8
 66
     7
 43
1.0
 76
     1
 77
     6
 78
     2
 67
     7
 79
     5
170
     0
171
     0
290
     0
174
     0
 93
        1
 44
50.0
173
     0
291
     1
 45
0.0
1001
ACAD
1000
AcDbSavedByObjectVersion
1070
     0
  0
VISUALSTYLE
  5
B101
102
{ACAD_REACTORS
330
B0F1
102
}
102
{ACAD_XDICTIONARY
360
449D8
102
}
330
B0F1
100
AcDbVisualStyle
  2
ColorChange
 70
    16
 71
     2
 72
     2
 73
     3
 90
        0
 40
-0.6
 41
-30.0
 62
     5
 63
     8
 74
     1
 91
        4
 64
     7
 65
   257
 75
     1
175
     1
 42
1.0
 92
        8
 66
     8
 43
1.0
 76
     1
 77
     6
 78
     2
 67
     7
 79
     5
170
     0
171
     0
290
     0
174
     0
 93
        1
 44
0.0
173
     0
291
     1
 45
0.0
1001
ACAD
1000
AcDbSavedByObjectVersion
1070
     0
  0
VISUALSTYLE
  5
B0FA
102
{ACAD_REACTORS
330
B0F1
102
}
102
{ACAD_XDICTIONARY
360
449DA
102
}
330
B0F1
100
AcDbVisualStyle
  2
Conceptual
 70
     9
 71
     3
 72
     2
 73
     0
 90
        0
 40
-0.6
 41
-30.0
 62
     5
 63
     7
 74
     2
 91
        2
 64
     7
 65
   257
 75
     1
175
     1
 42
40.0
 92
        8
 66
     7
 43
1.0
 76
     1
 77
     6
 78
     2
 67
     7
 79
     3
170
     0
171
     0
290
     0
174
     0
 93
        1
 44
0.0
173
     0
291
     0
 45
0.0
1001
ACAD
1000
AcDbSavedByObjectVersion
1070
     0
  0
VISUALSTYLE
  5
B0FC
102
{ACAD_REACTORS
330
B0F1
102
}
102
{ACAD_XDICTIONARY
360
449DC
102
}
330
B0F1
100
AcDbVisualStyle
  2
Dim
 70
    11
 71
     2
 72
     2
 73
     0
 90
        0
 40
-0.6
 41
-30.0
 62
     5
 63
     7
 74
     1
 91
        4
 64
     7
 65
   257
 75
     1
175
     1
 42
1.0
 92
        8
 66
     7
 43
1.0
 76
     1
 77
     6
 78
     2
 67
     7
 79
     5
170
     0
171
     0
290
     0
174
     0
 93
        1
 44
-50.0
173
     0
291
     1
 45
0.0
1001
ACAD
1000
AcDbSavedByObjectVersion
1070
     0
  0
VISUALSTYLE
  5
4415F
102
{ACAD_REACTORS
330
B0F1
102
}
102
{ACAD_XDICTIONARY
360
449DE
102
}
330
B0F1
100
AcDbVisualStyle
  2
EdgeColorOff
 70
    22
 71
     2
 72
     2
 73
     0
 90
        0
 40
0.6
 41
30.0
 62
     5
 63
     7
421
 16777215
 74
     1
 91
        4
 64
     7
 65
   257
 75
     1
175
     1
 42
1.0
 92
        8
 66
     7
 43
1.0
 76
     1
 77
     6
 78
     2
 67
     7
 79
     5
170
     0
171
     0
290
     0
174
     0
 93
        1
 44
0.0
173
     0
291
     1
 45
0.0
1001
ACAD
1000
AcDbSavedByObjectVersion
1070
     0
  0
VISUALSTYLE
  5
B100
102
{ACAD_REACTORS
330
B0F1
102
}
102
{ACAD_XDICTIONARY
360
449E0
102
}
330
B0F1
100
AcDbVisualStyle
  2
Facepattern
 70
    15
 71
     2
 72
     2
 73
     0
 90
        0
 40
-0.6
 41
-30.0
 62
     5
 63
     7
 74
     1
 91
        4
 64
     7
 65
   257
 75
     1
175
     1
 42
1.0
 92
        8
 66
     7
 43
1.0
 76
     1
 77
     6
 78
     2
 67
     7
 79
     5
170
     0
171
     0
290
     0
174
     0
 93
        1
 44
0.0
173
     0
291
     1
 45
0.0
1001
ACAD
1000
AcDbSavedByObjectVersion
1070
     0
  0
VISUALSTYLE
  5
B0F2
102
{ACAD_REACTORS
330
B0F1
102
}
102
{ACAD_XDICTIONARY
360
449E2
102
}
330
B0F1
100
AcDbVisualStyle
  2
Flat
 70
     0
 71
     2
 72
     1
 73
     1
 90
        2
 40
-0.6
 41
30.0
 62
     5
 63
     7
 74
     0
 91
        4
 64
     7
 65
   257
 75
     1
175
     1
 42
1.0
 92
        8
 66
     7
 43
1.0
 76
     1
 77
     6
 78
     2
 67
     7
 79
     5
170
     0
171
     0
290
     0
174
     0
 93
       13
 44
0.0
173
     0
291
     1
 45
0.0
1001
ACAD
1000
AcDbSavedByObjectVersion
1070
     0
  0
VISUALSTYLE
  5
B0F3
102
{ACAD_REACTORS
330
B0F1
102
}
102
{ACAD_XDICTIONARY
360
449E4
102
}
330
B0F1
100
AcDbVisualStyle
  2
FlatWithEdges
 70
     1
 71
     2
 72
     1
 73
     1
 90
        2
 40
-0.6
 41
30.0
 62
     5
 63
     7
 74
     1
 91
        4
 64
     7
 65
   257
 75
     1
175
     1
 42
1.0
 92
        0
 66
   257
 43
1.0
 76
     1
 77
     6
 78
     2
 67
     7
 79
     5
170
     0
171
     0
290
     0
174
     0
 93
       13
 44
0.0
173
     0
291
     1
 45
0.0
1001
ACAD
1000
AcDbSavedByObjectVersion
1070
     0
  0
VISUALSTYLE
  5
B0F4
102
{ACAD_REACTORS
330
B0F1
102
}
102
{ACAD_XDICTIONARY
360
449E6
102
}
330
B0F1
100
AcDbVisualStyle
  2
Gouraud
 70
     2
 71
     2
 72
     2
 73
     1
 90
        2
 40
-0.6
 41
30.0
 62
     5
 63
     7
 74
     0
 91
        4
 64
     7
 65
   257
 75
     1
175
     1
 42
1.0
 92
        0
 66
     7
 43
1.0
 76
     1
 77
     6
 78
     2
 67
     7
 79
     5
170
     0
171
     0
290
     0
174
     0
 93
       13
 44
0.0
173
     0
291
     1
 45
0.0
1001
ACAD
1000
AcDbSavedByObjectVersion
1070
     0
  0
VISUALSTYLE
  5
B0F5
102
{ACAD_REACTORS
330
B0F1
102
}
102
{ACAD_XDICTIONARY
360
449E8
102
}
330
B0F1
100
AcDbVisualStyle
  2
GouraudWithEdges
 70
     3
 71
     2
 72
     2
 73
     1
 90
        2
 40
-0.6
 41
30.0
 62
     5
 63
     7
 74
     1
 91
        4
 64
     7
 65
   257
 75
     1
175
     1
 42
1.0
 92
        0
 66
   257
 43
1.0
 76
     1
 77
     6
 78
     2
 67
     7
 79
     5
170
     0
171
     0
290
     0
174
     0
 93
       13
 44
0.0
173
     0
291
     1
 45
0.0
1001
ACAD
1000
AcDbSavedByObjectVersion
1070
     0
  0
VISUALSTYLE
  5
4415C
102
{ACAD_REACTORS
330
B0F1
102
}
102
{ACAD_XDICTIONARY
360
449EA
102
}
330
B0F1
100
AcDbVisualStyle
  2
Hidden
 70
     6
 71
     1
 72
     2
 73
     2
 90
        0
 40
0.6
 41
30.0
 62
     5
 63
     7
421
 16777215
 74
     2
 91
        2
 64
     7
 65
   257
 75
     2
175
     1
 42
40.0
 92
        0
 66
   257
 43
1.0
 76
     1
 77
     6
 78
     2
 67
     7
 79
     3
170
     0
171
     0
290
     0
174
     0
 93
        1
 44
0.0
173
     0
291
     0
 45
0.0
1001
ACAD
1000
AcDbSavedByObjectVersion
1070
     0
  0
VISUALSTYLE
  5
4415D
102
{ACAD_REACTORS
330
B0F1
102
}
102
{ACAD_XDICTIONARY
360
449EC
102
}
330
B0F1
100
AcDbVisualStyle
  2
JitterOff
 70
    20
 71
     2
 72
     2
 73
     0
 90
        0
 40
0.6
 41
30.0
 62
     5
 63
     7
421
 16777215
 74
     1
 91
        4
 64
     7
 65
   257
 75
     1
175
     1
 42
1.0
 92
       10
 66
     7
 43
1.0
 76
     1
 77
     6
 78
     2
 67
     7
 79
     5
170
     0
171
     0
290
     0
174
     0
 93
        1
 44
0.0
173
     0
291
     1
 45
0.0
1001
ACAD
1000
AcDbSavedByObjectVersion
1070
     0
  0
VISUALSTYLE
  5
B0FF
102
{ACAD_REACTORS
330
B0F1
102
}
102
{ACAD_XDICTIONARY
360
449EE
102
}
330
B0F1
100
AcDbVisualStyle
  2
Linepattern
 70
    14
 71
     2
 72
     2
 73
     0
 90
        0
 40
-0.6
 41
-30.0
 62
     5
 63
     7
 74
     1
 91
        4
 64
     7
 65
   257
 75
     7
175
     7
 42
1.0
 92
        8
 66
     7
 43
1.0
 76
     1
 77
     6
 78
     2
 67
     7
 79
     5
170
     0
171
     0
290
     0
174
     0
 93
        1
 44
0.0
173
     0
291
     1
 45
0.0
1001
ACAD
1000
AcDbSavedByObjectVersion
1070
     0
  0
VISUALSTYLE
  5
4415E
102
{ACAD_REACTORS
330
B0F1
102
}
102
{ACAD_XDICTIONARY
360
449F0
102
}
330
B0F1
100
AcDbVisualStyle
  2
OverhangOff
 70
    21
 71
     2
 72
     2
 73
     0
 90
        0
 40
0.6
 41
30.0
 62
     5
 63
     7
421
 16777215
 74
     1
 91
        4
 64
     7
 65
   257
 75
     1
175
     1
 42
1.0
 92
        9
 66
     7
 43
1.0
 76
     1
 77
     6
 78
     2
 67
     7
 79
     5
170
     0
171
     0
290
     0
174
     0
 93
        1
 44
0.0
173
     0
291
     1
 45
0.0
1001
ACAD
1000
AcDbSavedByObjectVersion
1070
     0
  0
VISUALSTYLE
  5
B0FB
102
{ACAD_REACTORS
330
B0F1
102
}
102
{ACAD_XDICTIONARY
360
449F2
102
}
330
B0F1
100
AcDbVisualStyle
  2
Realistic
 70
     8
 71
     2
 72
     2
 73
     0
 90
        0
 40
-0.6
 41
-30.0
 62
     5
 63
     7
 74
     1
 91
        0
 64
     7
 65
   257
 75
     1
175
     1
 42
1.0
 92
        8
 66
     8
 43
1.0
 76
     1
 77
     6
 78
     2
 67
     7
 79
     5
170
     0
171
     0
290
     0
174
     0
 93
       13
 44
0.0
173
     0
291
     0
 45
0.0
1001
ACAD
1000
AcDbSavedByObjectVersion
1070
     0
  0
VISUALSTYLE
  5
44164
102
{ACAD_REACTORS
330
B0F1
102
}
102
{ACAD_XDICTIONARY
360
449F4
102
}
330
B0F1
100
AcDbVisualStyle
  2
Shaded
 70
    27
 71
     2
 72
     2
 73
     1
 90
        2
 40
0.6
 41
30.0
 62
     5
 63
     7
421
 16777215
 74
     0
 91
        4
 64
     7
 65
   257
 75
     1
175
     1
 42
1.0
 92
        8
 66
   257
 43
1.0
 76
     1
 77
     6
 78
     2
 67
   251
425
  5131854
 79
     3
170
     0
171
     0
290
     0
174
     0
 93
        5
 44
0.0
173
     0
291
     0
 45
0.0
1001
ACAD
1000
AcDbSavedByObjectVersion
1070
     0
  0
VISUALSTYLE
  5
44163
102
{ACAD_REACTORS
330
B0F1
102
}
102
{ACAD_XDICTIONARY
360
449F6
102
}
330
B0F1
100
AcDbVisualStyle
  2
Shaded with edges
 70
    26
 71
     2
 72
     2
 73
     1
 90
        2
 40
0.6
 41
30.0
 62
     5
 63
     7
421
 16777215
 74
     1
 91
       10
 64
     7
 65
   257
 75
     2
175
     1
 42
1.0
 92
        8
 66
   257
 43
1.0
 76
     1
 77
     6
 78
     2
 67
     7
 79
     3
170
     0
171
     0
290
     0
174
     0
 93
        5
 44
0.0
173
     0
291
     0
 45
0.0
1001
ACAD
1000
AcDbSavedByObjectVersion
1070
     0
  0
VISUALSTYLE
  5
44160
102
{ACAD_REACTORS
330
B0F1
102
}
102
{ACAD_XDICTIONARY
360
449F8
102
}
330
B0F1
100
AcDbVisualStyle
  2
Shades of Gray
 70
    23
 71
     2
 72
     2
 73
     3
 90
        0
 40
0.6
 41
30.0
 62
     5
 63
     7
421
 16777215
 74
     2
 91
        2
 64
     7
 65
     7
 75
     1
175
     1
 42
40.0
 92
        8
 66
     7
 43
1.0
 76
     1
 77
     6
 78
     2
 67
     7
 79
     3
170
     0
171
     0
290
     0
174
     0
 93
        1
 44
0.0
173
     0
291
     0
 45
0.0
1001
ACAD
1000
AcDbSavedByObjectVersion
1070
     0
  0
VISUALSTYLE
  5
44161
102
{ACAD_REACTORS
330
B0F1
102
}
102
{ACAD_XDICTIONARY
360
449FA
102
}
330
B0F1
100
AcDbVisualStyle
  2
Sketchy
 70
    24
 71
     1
 72
     2
 73
     2
 90
        0
 40
0.6
 41
30.0
 62
     5
 63
     7
421
 16777215
 74
     2
 91
        2
 64
     7
 65
     7
 75
     1
175
     1
 42
40.0
 92
       11
 66
     7
 43
1.0
 76
     1
 77
     6
 78
     2
 67
     7
 79
     6
170
     0
171
     0
290
     0
174
     0
 93
        1
 44
0.0
173
     0
291
     0
 45
0.0
1001
ACAD
1000
AcDbSavedByObjectVersion
1070
     0
  0
VISUALSTYLE
  5
B0FE
102
{ACAD_REACTORS
330
B0F1
102
}
102
{ACAD_XDICTIONARY
360
449FC
102
}
330
B0F1
100
AcDbVisualStyle
  2
Thicken
 70
    13
 71
     2
 72
     2
 73
     0
 90
        0
 40
-0.6
 41
-30.0
 62
     5
 63
     7
 74
     1
 91
        4
 64
     7
 65
   257
 75
     1
175
     1
 42
1.0
 92
       12
 66
     7
 43
1.0
 76
     1
 77
     6
 78
     2
 67
     7
 79
     5
170
     0
171
     0
290
     0
174
     0
 93
        1
 44
0.0
173
     0
291
     1
 45
0.0
1001
ACAD
1000
AcDbSavedByObjectVersion
1070
     0
  0
VISUALSTYLE
  5
4415B
102
{ACAD_REACTORS
330
B0F1
102
}
102
{ACAD_XDICTIONARY
360
449FE
102
}
330
B0F1
100
AcDbVisualStyle
  2
Wireframe
 70
     5
 71
     0
 72
     2
 73
     0
 90
        0
 40
0.6
 41
30.0
 62
     5
 63
     7
421
 16777215
 74
     1
 91
        4
 64
     7
 65
   257
 75
     1
175
     1
 42
1.0
 92
        0
 66
   257
 43
1.0
 76
     1
 77
     6
 78
     2
 67
     7
 79
     5
170
     0
171
     0
290
     0
174
     0
 93
        1
 44
0.0
173
     0
291
     0
 45
0.0
1001
ACAD
1000
AcDbSavedByObjectVersion
1070
     0
  0
VISUALSTYLE
  5
44162
102
{ACAD_REACTORS
330
B0F1
102
}
102
{ACAD_XDICTIONARY
360
44A00
102
}
330
B0F1
100
AcDbVisualStyle
  2
X-Ray
 70
    25
 71
     2
 72
     2
 73
     1
 90
        1
 40
0.5
 41
30.0
 62
     5
 63
     7
421
 16777215
 74
     1
 91
        0
 64
     7
 65
   257
 75
     1
175
     1
 42
1.0
 92
        8
 66
     7
 43
1.0
 76
     1
 77
     6
 78
     2
 67
     7
 79
     3
170
     0
171
     0
290
     0
174
     0
 93
       13
 44
0.0
173
     0
291
     0
 45
0.0
1001
ACAD
1000
AcDbSavedByObjectVersion
1070
     0
  0
DICTIONARYVAR
  5
44863
102
{ACAD_REACTORS
330
34
102
}
330
34
100
DictionaryVariables
280
     0
  1
1:1
  0
DICTIONARYVAR
  5
44868
102
{ACAD_REACTORS
330
34
102
}
330
34
100
DictionaryVariables
280
     0
  1
Standard
  0
DICTIONARYVAR
  5
AAF3
102
{ACAD_REACTORS
330
34
102
}
330
34
100
DictionaryVariables
280
     0
  1
Standard
  0
DICTIONARYVAR
  5
A10C
102
{ACAD_REACTORS
330
34
102
}
330
34
100
DictionaryVariables
280
     0
  1
1
  0
DICTIONARYVAR
  5
AB07
102
{ACAD_REACTORS
330
34
102
}
330
34
100
DictionaryVariables
280
     0
  1
4
  0
DICTIONARYVAR
  5
35
102
{ACAD_REACTORS
330
34
102
}
330
34
100
DictionaryVariables
280
     0
  1
0
  0
DICTIONARYVAR
  5
44869
102
{ACAD_REACTORS
330
34
102
}
330
34
100
DictionaryVariables
280
     0
  1
0
  0
DICTIONARYVAR
  5
194C
102
{ACAD_REACTORS
330
34
102
}
330
34
100
DictionaryVariables
280
     0
  1
127
  0
XRECORD
  5
43334
102
{ACAD_REACTORS
330
43333
102
}
330
43333
100
AcDbXrecord
280
     1
330
0
330
0
330
0
330
0
330
0
330
0
330
0
330
0
330
0
330
0
330
0
330
0
330
0
330
0
330
0
330
0
330
0
330
0
330
0
330
0
330
0
330
0
330
0
330
0
330
0
330
0
330
0
330
0
330
0
330
0
  0
AMDTSYSATTR
  5
44861
102
{ACAD_REACTORS
330
44860
102
}
330
44860
  0
AMDTSYSATTR
  5
44862
102
{ACAD_REACTORS
330
44860
102
}
330
44860
  0
XRECORD
  5
3FB7
102
{ACAD_REACTORS
330
3F96
102
}
330
3F96
100
AcDbXrecord
280
     1
 91
        3
330
0
 90
        8
 62
     7
370
    40
331
16
  1
Color_7
330
0
 90
        0
 62
    14
370
    -3
331
16
  1
Color_14
330
0
 90
        8
 62
     7
370
    20
331
16
  1
Color_7
330
6D1
 90
        0
 62
     7
370
    -3
331
16
  1
Color_7
330
0
 90
        8
 62
     7
370
    50
331
16
  1
Color_7
330
0
 90
        8
 62
     2
370
    35
331
16
  1
Color_2
330
0
 90
        8
 62
     7
370
    -3
331
16
  1
Color_7
330
10
 90
        8
 62
     7
370
    -3
331
16
  1
Color_7
  0
DICTIONARY
  5
44197
330
44196
100
AcDbDictionary
280
     1
281
     1
  3
ACAD_XREC_ROUNDTRIP
360
449C1
  0
DICTIONARY
  5
449C2
330
B0EF
100
AcDbDictionary
280
     1
281
     1
  3
ACAD_XREC_ROUNDTRIP
360
449C3
  0
DICTIONARY
  5
449C4
330
B0EE
100
AcDbDictionary
280
     1
281
     1
  3
ACAD_XREC_ROUNDTRIP
360
449C5
  0
DICTIONARY
  5
449C6
330
B0F0
100
AcDbDictionary
280
     1
281
     1
  3
ACAD_XREC_ROUNDTRIP
360
449C7
  0
DICTIONARY
  5
449C8
330
441F1
100
AcDbDictionary
280
     1
281
     1
  3
ACAD_XREC_ROUNDTRIP
360
449C9
  0
DICTIONARY
  5
441A2
330
441A1
100
AcDbDictionary
280
     1
281
     1
  3
ACAD_XREC_ROUNDTRIP
360
449CA
  0
DICTIONARY
  5
449CB
330
AABA
100
AcDbDictionary
280
     1
281
     1
  3
ACAD_ROUNDTRIP_2008_TABLESTYLE_CELLSTYLEMAP
360
449CD
  3
ACAD_XREC_ROUNDTRIP
360
449CC
  0
DICTIONARY
  5
449CE
330
B0F7
100
AcDbDictionary
280
     1
281
     1
  3
ACAD_XREC_ROUNDTRIP
360
449CF
  0
DICTIONARY
  5
449D0
330
B0F9
100
AcDbDictionary
280
     1
281
     1
  3
ACAD_XREC_ROUNDTRIP
360
449D1
  0
DICTIONARY
  5
449D2
330
B0F8
100
AcDbDictionary
280
     1
281
     1
  3
ACAD_XREC_ROUNDTRIP
360
449D3
  0
DICTIONARY
  5
449D4
330
B0F6
100
AcDbDictionary
280
     1
281
     1
  3
ACAD_XREC_ROUNDTRIP
360
449D5
  0
DICTIONARY
  5
449D6
330
B0FD
100
AcDbDictionary
280
     1
281
     1
  3
ACAD_XREC_ROUNDTRIP
360
449D7
  0
DICTIONARY
  5
449D8
330
B101
100
AcDbDictionary
280
     1
281
     1
  3
ACAD_XREC_ROUNDTRIP
360
449D9
  0
DICTIONARY
  5
449DA
330
B0FA
100
AcDbDictionary
280
     1
281
     1
  3
ACAD_XREC_ROUNDTRIP
360
449DB
  0
DICTIONARY
  5
449DC
330
B0FC
100
AcDbDictionary
280
     1
281
     1
  3
ACAD_XREC_ROUNDTRIP
360
449DD
  0
DICTIONARY
  5
449DE
330
4415F
100
AcDbDictionary
280
     1
281
     1
  3
ACAD_XREC_ROUNDTRIP
360
449DF
  0
DICTIONARY
  5
449E0
330
B100
100
AcDbDictionary
280
     1
281
     1
  3
ACAD_XREC_ROUNDTRIP
360
449E1
  0
DICTIONARY
  5
449E2
330
B0F2
100
AcDbDictionary
280
     1
281
     1
  3
ACAD_XREC_ROUNDTRIP
360
449E3
  0
DICTIONARY
  5
449E4
330
B0F3
100
AcDbDictionary
280
     1
281
     1
  3
ACAD_XREC_ROUNDTRIP
360
449E5
  0
DICTIONARY
  5
449E6
330
B0F4
100
AcDbDictionary
280
     1
281
     1
  3
ACAD_XREC_ROUNDTRIP
360
449E7
  0
DICTIONARY
  5
449E8
330
B0F5
100
AcDbDictionary
280
     1
281
     1
  3
ACAD_XREC_ROUNDTRIP
360
449E9
  0
DICTIONARY
  5
449EA
330
4415C
100
AcDbDictionary
280
     1
281
     1
  3
ACAD_XREC_ROUNDTRIP
360
449EB
  0
DICTIONARY
  5
449EC
330
4415D
100
AcDbDictionary
280
     1
281
     1
  3
ACAD_XREC_ROUNDTRIP
360
449ED
  0
DICTIONARY
  5
449EE
330
B0FF
100
AcDbDictionary
280
     1
281
     1
  3
ACAD_XREC_ROUNDTRIP
360
449EF
  0
DICTIONARY
  5
449F0
330
4415E
100
AcDbDictionary
280
     1
281
     1
  3
ACAD_XREC_ROUNDTRIP
360
449F1
  0
DICTIONARY
  5
449F2
330
B0FB
100
AcDbDictionary
280
     1
281
     1
  3
ACAD_XREC_ROUNDTRIP
360
449F3
  0
DICTIONARY
  5
449F4
330
44164
100
AcDbDictionary
280
     1
281
     1
  3
ACAD_XREC_ROUNDTRIP
360
449F5
  0
DICTIONARY
  5
449F6
330
44163
100
AcDbDictionary
280
     1
281
     1
  3
ACAD_XREC_ROUNDTRIP
360
449F7
  0
DICTIONARY
  5
449F8
330
44160
100
AcDbDictionary
280
     1
281
     1
  3
ACAD_XREC_ROUNDTRIP
360
449F9
  0
DICTIONARY
  5
449FA
330
44161
100
AcDbDictionary
280
     1
281
     1
  3
ACAD_XREC_ROUNDTRIP
360
449FB
  0
DICTIONARY
  5
449FC
330
B0FE
100
AcDbDictionary
280
     1
281
     1
  3
ACAD_XREC_ROUNDTRIP
360
449FD
  0
DICTIONARY
  5
449FE
330
4415B
100
AcDbDictionary
280
     1
281
     1
  3
ACAD_XREC_ROUNDTRIP
360
449FF
  0
DICTIONARY
  5
44A00
330
44162
100
AcDbDictionary
280
     1
281
     1
  3
ACAD_XREC_ROUNDTRIP
360
44A01
  0
XRECORD
  5
449C1
102
{ACAD_REACTORS
330
44197
102
}
330
44197
100
AcDbXrecord
280
     1
102
DISPLAYNAME
  1
Metric50
102
FLAGS
 90
        0
  0
XRECORD
  5
449C3
102
{ACAD_REACTORS
330
449C2
102
}
330
449C2
100
AcDbXrecord
280
     1
102
MATERIAL
148
0.0
149
0.0
149
0.0
 93
        0
 94
       63
282
     0
 72
     1
 77
     1
171
     1
175
     1
179
     1
273
     0
  0
XRECORD
  5
449C5
102
{ACAD_REACTORS
330
449C4
102
}
330
449C4
100
AcDbXrecord
280
     1
102
MATERIAL
148
0.0
149
0.0
149
0.0
 93
        0
 94
       63
282
     0
 72
     1
 77
     1
171
     1
175
     1
179
     1
273
     0
  0
XRECORD
  5
449C7
102
{ACAD_REACTORS
330
449C6
102
}
330
449C6
100
AcDbXrecord
280
     1
102
MATERIAL
148
0.0
149
0.0
149
0.0
 93
        0
 94
       63
282
     0
 72
     1
 77
     1
171
     1
175
     1
179
     1
273
     0
  0
XRECORD
  5
449C9
102
{ACAD_REACTORS
330
449C8
102
}
330
449C8
100
AcDbXrecord
280
     1
102
ACAD_ROUNDTRIP_2010_MLEADER_STYLE
  0
XRECORD
  5
449CA
102
{ACAD_REACTORS
330
441A2
102
}
330
441A2
100
AcDbXrecord
280
     1
102
DISPLAYNAME
  1
Metric50
102
FLAGS
 90
        0
  0
CELLSTYLEMAP
  5
449CD
102
{ACAD_REACTORS
330
449CB
102
}
330
449CB
100
AcDbCellStyleMap
 90
        3
300
CELLSTYLE
  1
TABLEFORMAT_BEGIN
 90
        5
170
     1
 91
        0
 92
    32768
 62
   257
 93
        1
300
CONTENTFORMAT
  1
CONTENTFORMAT_BEGIN
 90
        0
 91
        0
 92
        4
 93
        0
300

 40
0.0
140
1.0
 94
        5
 62
     0
340
11
144
6.0
309
CONTENTFORMAT_END
171
     1
301
MARGIN
  1
CELLMARGIN_BEGIN
 40
1.5
 40
1.5
 40
1.5
 40
1.5
 40
0.18
 40
0.18
309
CELLMARGIN_END
 94
        6
 95
        1
302
GRIDFORMAT
  1
GRIDFORMAT_BEGIN
 90
        0
 91
        1
 62
     0
 92
       -2
340
0
 93
        0
 40
0.045
309
GRIDFORMAT_END
 95
        2
302
GRIDFORMAT
  1
GRIDFORMAT_BEGIN
 90
        0
 91
        1
 62
     0
 92
       -2
340
0
 93
        0
 40
0.045
309
GRIDFORMAT_END
 95
        4
302
GRIDFORMAT
  1
GRIDFORMAT_BEGIN
 90
        0
 91
        1
 62
     0
 92
       -2
340
0
 93
        0
 40
0.045
309
GRIDFORMAT_END
 95
        8
302
GRIDFORMAT
  1
GRIDFORMAT_BEGIN
 90
        0
 91
        1
 62
     0
 92
       -2
340
0
 93
        0
 40
0.045
309
GRIDFORMAT_END
 95
       16
302
GRIDFORMAT
  1
GRIDFORMAT_BEGIN
 90
        0
 91
        1
 62
     0
 92
       -2
340
0
 93
        0
 40
0.045
309
GRIDFORMAT_END
 95
       32
302
GRIDFORMAT
  1
GRIDFORMAT_BEGIN
 90
        0
 91
        1
 62
     0
 92
       -2
340
0
 93
        0
 40
0.045
309
GRIDFORMAT_END
309
TABLEFORMAT_END
  1
CELLSTYLE_BEGIN
 90
        1
 91
        1
300
_TITLE
309
CELLSTYLE_END
300
CELLSTYLE
  1
TABLEFORMAT_BEGIN
 90
        5
170
     1
 91
        0
 92
        0
 62
   257
 93
        1
300
CONTENTFORMAT
  1
CONTENTFORMAT_BEGIN
 90
        0
 91
        0
 92
        4
 93
        0
300

 40
0.0
140
1.0
 94
        5
 62
     0
340
11
144
4.5
309
CONTENTFORMAT_END
171
     1
301
MARGIN
  1
CELLMARGIN_BEGIN
 40
1.5
 40
1.5
 40
1.5
 40
1.5
 40
0.18
 40
0.18
309
CELLMARGIN_END
 94
        6
 95
        1
302
GRIDFORMAT
  1
GRIDFORMAT_BEGIN
 90
        0
 91
        1
 62
     0
 92
       -2
340
0
 93
        0
 40
0.045
309
GRIDFORMAT_END
 95
        2
302
GRIDFORMAT
  1
GRIDFORMAT_BEGIN
 90
        0
 91
        1
 62
     0
 92
       -2
340
0
 93
        0
 40
0.045
309
GRIDFORMAT_END
 95
        4
302
GRIDFORMAT
  1
GRIDFORMAT_BEGIN
 90
        0
 91
        1
 62
     0
 92
       -2
340
0
 93
        0
 40
0.045
309
GRIDFORMAT_END
 95
        8
302
GRIDFORMAT
  1
GRIDFORMAT_BEGIN
 90
        0
 91
        1
 62
     0
 92
       -2
340
0
 93
        0
 40
0.045
309
GRIDFORMAT_END
 95
       16
302
GRIDFORMAT
  1
GRIDFORMAT_BEGIN
 90
        0
 91
        1
 62
     0
 92
       -2
340
0
 93
        0
 40
0.045
309
GRIDFORMAT_END
 95
       32
302
GRIDFORMAT
  1
GRIDFORMAT_BEGIN
 90
        0
 91
        1
 62
     0
 92
       -2
340
0
 93
        0
 40
0.045
309
GRIDFORMAT_END
309
TABLEFORMAT_END
  1
CELLSTYLE_BEGIN
 90
        2
 91
        1
300
_HEADER
309
CELLSTYLE_END
300
CELLSTYLE
  1
TABLEFORMAT_BEGIN
 90
        5
170
     1
 91
        0
 92
        0
 62
   257
 93
        1
300
CONTENTFORMAT
  1
CONTENTFORMAT_BEGIN
 90
        0
 91
        0
 92
        4
 93
        0
300

 40
0.0
140
1.0
 94
        2
 62
     0
340
11
144
4.5
309
CONTENTFORMAT_END
171
     1
301
MARGIN
  1
CELLMARGIN_BEGIN
 40
1.5
 40
1.5
 40
1.5
 40
1.5
 40
0.18
 40
0.18
309
CELLMARGIN_END
 94
        6
 95
        1
302
GRIDFORMAT
  1
GRIDFORMAT_BEGIN
 90
        0
 91
        1
 62
     0
 92
       -2
340
0
 93
        0
 40
0.045
309
GRIDFORMAT_END
 95
        2
302
GRIDFORMAT
  1
GRIDFORMAT_BEGIN
 90
        0
 91
        1
 62
     0
 92
       -2
340
0
 93
        0
 40
0.045
309
GRIDFORMAT_END
 95
        4
302
GRIDFORMAT
  1
GRIDFORMAT_BEGIN
 90
        0
 91
        1
 62
     0
 92
       -2
340
0
 93
        0
 40
0.045
309
GRIDFORMAT_END
 95
        8
302
GRIDFORMAT
  1
GRIDFORMAT_BEGIN
 90
        0
 91
        1
 62
     0
 92
       -2
340
0
 93
        0
 40
0.045
309
GRIDFORMAT_END
 95
       16
302
GRIDFORMAT
  1
GRIDFORMAT_BEGIN
 90
        0
 91
        1
 62
     0
 92
       -2
340
0
 93
        0
 40
0.045
309
GRIDFORMAT_END
 95
       32
302
GRIDFORMAT
  1
GRIDFORMAT_BEGIN
 90
        0
 91
        1
 62
     0
 92
       -2
340
0
 93
        0
 40
0.045
309
GRIDFORMAT_END
309
TABLEFORMAT_END
  1
CELLSTYLE_BEGIN
 90
        3
 91
        2
300
_DATA
309
CELLSTYLE_END
  0
XRECORD
  5
449CC
102
{ACAD_REACTORS
330
449CB
102
}
330
449CB
100
AcDbXrecord
280
     1
102
ACAD_ROUNDTRIP_PRE2007_TABLESTYLE
 90
        4
 91
        0
  1

 92
        4
 93
        0
  2

 94
        4
 95
        0
  3

  0
XRECORD
  5
449CF
102
{ACAD_REACTORS
330
449CE
102
}
330
449CE
100
AcDbXrecord
280
     1
102
RTVSPropertyOp0
 70
     1
102
RTVSPropertyOp1
 70
     1
102
RTVSPropertyOp2
 70
     1
102
RTVSPropertyOp3
 70
     1
102
RTVSPropertyOp4
 70
     1
102
RTVSPropertyOp5
 70
     1
102
RTVSPropertyOp6
 70
     1
102
RTVSPropertyOp7
 70
     1
102
RTVSPropertyOp8
 70
     1
102
RTVSPropertyOp9
 70
     1
102
RTVSPropertyOp10
 70
     1
102
RTVSPropertyOp11
 70
     1
102
RTVSPropertyOp12
 70
     1
102
RTVSPropertyOp13
 70
     1
102
RTVSPropertyOp14
 70
     1
102
RTVSPropertyOp15
 70
     1
102
RTVSPropertyOp16
 70
     1
102
RTVSPropertyOp17
 70
     1
102
RTVSPropertyOp18
 70
     1
102
RTVSPropertyOp19
 70
     1
102
RTVSPropertyOp20
 70
     1
102
RTVSPropertyOp21
 70
     1
102
RTVSPropertyOp22
 70
     1
102
RTVSPropertyOp23
 70
     1
102
RTVSPropertyOp24
 70
     1
102
RTVSPropertyOp25
 70
     1
102
RTVSPropertyOp26
 70
     1
102
RTVSPropertyOp27
 70
     1
102
RTVSPropertyOp28
 70
     1
102
RTVSPropertyOp29
 70
     1
102
RTVSPropertyOp30
 70
     1
102
RTVSPropertyOp31
 70
     1
102
RTVSPropertyOp32
 70
     1
102
RTVSPropertyOp33
 70
     1
102
RTVSPropertyOp34
 70
     1
102
RTVSPropertyOp35
 70
     1
102
RTVSPropertyOp36
 70
     1
102
RTVSPropertyOp37
 70
     1
102
RTVSPropertyOp38
 70
     1
102
RTVSPropertyOp39
 70
     1
102
RTVSPropertyOp40
 70
     1
102
RTVSPropertyOp41
 70
     1
102
RTVSPropertyOp42
 70
     1
102
RTVSPropertyOp43
 70
     1
102
RTVSPropertyOp44
 70
     1
102
RTVSPropertyOp45
 70
     1
102
RTVSPropertyOp46
 70
     1
102
RTVSPropertyOp47
 70
     1
102
RTVSPropertyOp48
 70
     1
102
RTVSPropertyOp49
 70
     1
102
RTVSPropertyOp50
 70
     1
102
RTVSPropertyOp51
 70
     0
102
RTVSPropertyOp52
 70
     0
102
RTVSPropertyOp53
 70
     1
102
RTVSPropertyOp54
 70
     1
102
RTVSPropertyOp55
 70
     1
102
RTVSPropertyOp56
 70
     1
102
RTVSPropertyOp57
 70
     1
102
RTVSPost2010Prop28
280
     1
102
RTVSPost2010PropOp28
 70
     1
102
RTVSPost2010Prop29
280
     1
102
RTVSPost2010PropOp29
 70
     1
102
RTVSPost2010Prop30
280
     0
102
RTVSPost2010PropOp30
 70
     1
102
RTVSPost2010Prop31
280
     0
102
RTVSPost2010PropOp31
 70
     1
102
RTVSPost2010Prop32
280
     0
102
RTVSPost2010PropOp32
 70
     1
102
RTVSPost2010Prop33
280
     0
102
RTVSPost2010PropOp33
 70
     1
102
RTVSPost2010Prop34
280
     0
102
RTVSPost2010PropOp34
 70
     1
102
RTVSPost2010Prop35
280
     0
102
RTVSPost2010PropOp35
 70
     1
102
RTVSPost2010Prop36
280
     0
102
RTVSPost2010PropOp36
 70
     1
102
RTVSPost2010Prop37
 90
       50
102
RTVSPost2010PropOp37
 70
     1
102
RTVSPost2010Prop38
140
0.0
102
RTVSPost2010PropOp38
 70
     1
102
RTVSPost2010Prop39
140
1.0
102
RTVSPost2010PropOp39
 70
     1
102
RTVSPost2010Prop40
 90
        0
102
RTVSPost2010PropOp40
 70
     1
102
RTVSPost2010Prop41ColorIndex
 90
       18
102
RTVSPost2010Prop41ColorRGB
 90
        0
102
RTVSPost2010PropOp41
 70
     1
102
RTVSPost2010Prop42
 90
       50
102
RTVSPost2010PropOp42
 70
     1
102
RTVSPost2010Prop43
 90
        3
102
RTVSPost2010PropOp43
 70
     1
102
RTVSPost2010Prop44ColorIndex
 90
        5
102
RTVSPost2010Prop44ColorRGB
 90
      255
102
RTVSPost2010PropOp44
 70
     1
102
RTVSPost2010Prop45
280
     0
102
RTVSPost2010PropOp45
 70
     1
102
RTVSPost2010Prop46
 90
       50
102
RTVSPost2010PropOp46
 70
     1
102
RTVSPost2010Prop47
 90
       50
102
RTVSPost2010PropOp47
 70
     1
102
RTVSPost2010Prop48
 90
       50
102
RTVSPost2010PropOp48
 70
     1
102
RTVSPost2010Prop49
280
     0
102
RTVSPost2010PropOp49
 70
     1
102
RTVSPost2010Prop50
 90
       50
102
RTVSPost2010PropOp50
 70
     1
102
RTVSPost2010Prop51ColorIndex
 90
      256
102
RTVSPost2010Prop51ColorRGB
 90
-16777216
102
RTVSPost2010PropOp51
 70
     0
102
RTVSPost2010Prop52
140
1.0
102
RTVSPost2010PropOp52
 70
     0
102
RTVSPost2010Prop53
 90
        2
102
RTVSPost2010PropOp53
 70
     1
102
RTVSPost2010Prop54
  1
strokes_ogs.tif
102
RTVSPost2010PropOp54
 70
     1
102
RTVSPost2010Prop55
280
     0
102
RTVSPost2010PropOp55
 70
     1
102
RTVSPost2010Prop56
140
1.0
102
RTVSPost2010PropOp56
 70
     1
102
RTVSPost2010Prop57
140
1.0
102
RTVSPost2010PropOp57
 70
     1
  0
XRECORD
  5
449D1
102
{ACAD_REACTORS
330
449D0
102
}
330
449D0
100
AcDbXrecord
280
     1
102
RTVSPropertyOp0
 70
     1
102
RTVSPropertyOp1
 70
     1
102
RTVSPropertyOp2
 70
     1
102
RTVSPropertyOp3
 70
     1
102
RTVSPropertyOp4
 70
     1
102
RTVSPropertyOp5
 70
     1
102
RTVSPropertyOp6
 70
     1
102
RTVSPropertyOp7
 70
     1
102
RTVSPropertyOp8
 70
     1
102
RTVSPropertyOp9
 70
     1
102
RTVSPropertyOp10
 70
     1
102
RTVSPropertyOp11
 70
     1
102
RTVSPropertyOp12
 70
     1
102
RTVSPropertyOp13
 70
     1
102
RTVSPropertyOp14
 70
     1
102
RTVSPropertyOp15
 70
     1
102
RTVSPropertyOp16
 70
     1
102
RTVSPropertyOp17
 70
     1
102
RTVSPropertyOp18
 70
     1
102
RTVSPropertyOp19
 70
     1
102
RTVSPropertyOp20
 70
     1
102
RTVSPropertyOp21
 70
     1
102
RTVSPropertyOp22
 70
     1
102
RTVSPropertyOp23
 70
     1
102
RTVSPropertyOp24
 70
     1
102
RTVSPropertyOp25
 70
     1
102
RTVSPropertyOp26
 70
     1
102
RTVSPropertyOp27
 70
     1
102
RTVSPropertyOp28
 70
     1
102
RTVSPropertyOp29
 70
     1
102
RTVSPropertyOp30
 70
     1
102
RTVSPropertyOp31
 70
     1
102
RTVSPropertyOp32
 70
     1
102
RTVSPropertyOp33
 70
     1
102
RTVSPropertyOp34
 70
     1
102
RTVSPropertyOp35
 70
     1
102
RTVSPropertyOp36
 70
     1
102
RTVSPropertyOp37
 70
     1
102
RTVSPropertyOp38
 70
     1
102
RTVSPropertyOp39
 70
     1
102
RTVSPropertyOp40
 70
     1
102
RTVSPropertyOp41
 70
     1
102
RTVSPropertyOp42
 70
     1
102
RTVSPropertyOp43
 70
     1
102
RTVSPropertyOp44
 70
     1
102
RTVSPropertyOp45
 70
     1
102
RTVSPropertyOp46
 70
     1
102
RTVSPropertyOp47
 70
     1
102
RTVSPropertyOp48
 70
     1
102
RTVSPropertyOp49
 70
     1
102
RTVSPropertyOp50
 70
     1
102
RTVSPropertyOp51
 70
     0
102
RTVSPropertyOp52
 70
     0
102
RTVSPropertyOp53
 70
     1
102
RTVSPropertyOp54
 70
     1
102
RTVSPropertyOp55
 70
     1
102
RTVSPropertyOp56
 70
     1
102
RTVSPropertyOp57
 70
     1
102
RTVSPost2010Prop28
280
     0
102
RTVSPost2010PropOp28
 70
     1
102
RTVSPost2010Prop29
280
     1
102
RTVSPost2010PropOp29
 70
     1
102
RTVSPost2010Prop30
280
     1
102
RTVSPost2010PropOp30
 70
     1
102
RTVSPost2010Prop31
280
     0
102
RTVSPost2010PropOp31
 70
     1
102
RTVSPost2010Prop32
280
     0
102
RTVSPost2010PropOp32
 70
     1
102
RTVSPost2010Prop33
280
     0
102
RTVSPost2010PropOp33
 70
     1
102
RTVSPost2010Prop34
280
     0
102
RTVSPost2010PropOp34
 70
     1
102
RTVSPost2010Prop35
280
     0
102
RTVSPost2010PropOp35
 70
     1
102
RTVSPost2010Prop36
280
     0
102
RTVSPost2010PropOp36
 70
     1
102
RTVSPost2010Prop37
 90
       50
102
RTVSPost2010PropOp37
 70
     1
102
RTVSPost2010Prop38
140
0.0
102
RTVSPost2010PropOp38
 70
     1
102
RTVSPost2010Prop39
140
1.0
102
RTVSPost2010PropOp39
 70
     1
102
RTVSPost2010Prop40
 90
        0
102
RTVSPost2010PropOp40
 70
     1
102
RTVSPost2010Prop41ColorIndex
 90
       18
102
RTVSPost2010Prop41ColorRGB
 90
        0
102
RTVSPost2010PropOp41
 70
     1
102
RTVSPost2010Prop42
 90
       50
102
RTVSPost2010PropOp42
 70
     1
102
RTVSPost2010Prop43
 90
        3
102
RTVSPost2010PropOp43
 70
     1
102
RTVSPost2010Prop44ColorIndex
 90
        5
102
RTVSPost2010Prop44ColorRGB
 90
      255
102
RTVSPost2010PropOp44
 70
     1
102
RTVSPost2010Prop45
280
     0
102
RTVSPost2010PropOp45
 70
     1
102
RTVSPost2010Prop46
 90
       50
102
RTVSPost2010PropOp46
 70
     1
102
RTVSPost2010Prop47
 90
       50
102
RTVSPost2010PropOp47
 70
     1
102
RTVSPost2010Prop48
 90
       50
102
RTVSPost2010PropOp48
 70
     1
102
RTVSPost2010Prop49
280
     0
102
RTVSPost2010PropOp49
 70
     1
102
RTVSPost2010Prop50
 90
       50
102
RTVSPost2010PropOp50
 70
     1
102
RTVSPost2010Prop51ColorIndex
 90
      256
102
RTVSPost2010Prop51ColorRGB
 90
-16777216
102
RTVSPost2010PropOp51
 70
     0
102
RTVSPost2010Prop52
140
1.0
102
RTVSPost2010PropOp52
 70
     0
102
RTVSPost2010Prop53
 90
        2
102
RTVSPost2010PropOp53
 70
     1
102
RTVSPost2010Prop54
  1
strokes_ogs.tif
102
RTVSPost2010PropOp54
 70
     1
102
RTVSPost2010Prop55
280
     0
102
RTVSPost2010PropOp55
 70
     1
102
RTVSPost2010Prop56
140
1.0
102
RTVSPost2010PropOp56
 70
     1
102
RTVSPost2010Prop57
140
1.0
102
RTVSPost2010PropOp57
 70
     1
  0
XRECORD
  5
449D3
102
{ACAD_REACTORS
330
449D2
102
}
330
449D2
100
AcDbXrecord
280
     1
102
RTVSPropertyOp0
 70
     1
102
RTVSPropertyOp1
 70
     1
102
RTVSPropertyOp2
 70
     1
102
RTVSPropertyOp3
 70
     1
102
RTVSPropertyOp4
 70
     1
102
RTVSPropertyOp5
 70
     1
102
RTVSPropertyOp6
 70
     1
102
RTVSPropertyOp7
 70
     1
102
RTVSPropertyOp8
 70
     1
102
RTVSPropertyOp9
 70
     1
102
RTVSPropertyOp10
 70
     1
102
RTVSPropertyOp11
 70
     1
102
RTVSPropertyOp12
 70
     1
102
RTVSPropertyOp13
 70
     1
102
RTVSPropertyOp14
 70
     1
102
RTVSPropertyOp15
 70
     1
102
RTVSPropertyOp16
 70
     1
102
RTVSPropertyOp17
 70
     1
102
RTVSPropertyOp18
 70
     1
102
RTVSPropertyOp19
 70
     1
102
RTVSPropertyOp20
 70
     1
102
RTVSPropertyOp21
 70
     1
102
RTVSPropertyOp22
 70
     1
102
RTVSPropertyOp23
 70
     1
102
RTVSPropertyOp24
 70
     1
102
RTVSPropertyOp25
 70
     1
102
RTVSPropertyOp26
 70
     1
102
RTVSPropertyOp27
 70
     1
102
RTVSPropertyOp28
 70
     1
102
RTVSPropertyOp29
 70
     1
102
RTVSPropertyOp30
 70
     1
102
RTVSPropertyOp31
 70
     1
102
RTVSPropertyOp32
 70
     1
102
RTVSPropertyOp33
 70
     1
102
RTVSPropertyOp34
 70
     1
102
RTVSPropertyOp35
 70
     1
102
RTVSPropertyOp36
 70
     1
102
RTVSPropertyOp37
 70
     1
102
RTVSPropertyOp38
 70
     1
102
RTVSPropertyOp39
 70
     1
102
RTVSPropertyOp40
 70
     1
102
RTVSPropertyOp41
 70
     1
102
RTVSPropertyOp42
 70
     1
102
RTVSPropertyOp43
 70
     1
102
RTVSPropertyOp44
 70
     1
102
RTVSPropertyOp45
 70
     1
102
RTVSPropertyOp46
 70
     1
102
RTVSPropertyOp47
 70
     1
102
RTVSPropertyOp48
 70
     1
102
RTVSPropertyOp49
 70
     1
102
RTVSPropertyOp50
 70
     1
102
RTVSPropertyOp51
 70
     0
102
RTVSPropertyOp52
 70
     0
102
RTVSPropertyOp53
 70
     1
102
RTVSPropertyOp54
 70
     1
102
RTVSPropertyOp55
 70
     1
102
RTVSPropertyOp56
 70
     1
102
RTVSPropertyOp57
 70
     1
102
RTVSPost2010Prop28
280
     0
102
RTVSPost2010PropOp28
 70
     1
102
RTVSPost2010Prop29
280
     1
102
RTVSPost2010PropOp29
 70
     1
102
RTVSPost2010Prop30
280
     1
102
RTVSPost2010PropOp30
 70
     1
102
RTVSPost2010Prop31
280
     0
102
RTVSPost2010PropOp31
 70
     1
102
RTVSPost2010Prop32
280
     0
102
RTVSPost2010PropOp32
 70
     1
102
RTVSPost2010Prop33
280
     0
102
RTVSPost2010PropOp33
 70
     1
102
RTVSPost2010Prop34
280
     0
102
RTVSPost2010PropOp34
 70
     1
102
RTVSPost2010Prop35
280
     0
102
RTVSPost2010PropOp35
 70
     1
102
RTVSPost2010Prop36
280
     0
102
RTVSPost2010PropOp36
 70
     1
102
RTVSPost2010Prop37
 90
       50
102
RTVSPost2010PropOp37
 70
     1
102
RTVSPost2010Prop38
140
0.0
102
RTVSPost2010PropOp38
 70
     1
102
RTVSPost2010Prop39
140
1.0
102
RTVSPost2010PropOp39
 70
     1
102
RTVSPost2010Prop40
 90
        0
102
RTVSPost2010PropOp40
 70
     1
102
RTVSPost2010Prop41ColorIndex
 90
       18
102
RTVSPost2010Prop41ColorRGB
 90
        0
102
RTVSPost2010PropOp41
 70
     1
102
RTVSPost2010Prop42
 90
       50
102
RTVSPost2010PropOp42
 70
     1
102
RTVSPost2010Prop43
 90
        3
102
RTVSPost2010PropOp43
 70
     1
102
RTVSPost2010Prop44ColorIndex
 90
        5
102
RTVSPost2010Prop44ColorRGB
 90
      255
102
RTVSPost2010PropOp44
 70
     1
102
RTVSPost2010Prop45
280
     0
102
RTVSPost2010PropOp45
 70
     1
102
RTVSPost2010Prop46
 90
       50
102
RTVSPost2010PropOp46
 70
     1
102
RTVSPost2010Prop47
 90
       50
102
RTVSPost2010PropOp47
 70
     1
102
RTVSPost2010Prop48
 90
       50
102
RTVSPost2010PropOp48
 70
     1
102
RTVSPost2010Prop49
280
     0
102
RTVSPost2010PropOp49
 70
     1
102
RTVSPost2010Prop50
 90
       50
102
RTVSPost2010PropOp50
 70
     1
102
RTVSPost2010Prop51ColorIndex
 90
      256
102
RTVSPost2010Prop51ColorRGB
 90
-16777216
102
RTVSPost2010PropOp51
 70
     0
102
RTVSPost2010Prop52
140
1.0
102
RTVSPost2010PropOp52
 70
     0
102
RTVSPost2010Prop53
 90
        2
102
RTVSPost2010PropOp53
 70
     1
102
RTVSPost2010Prop54
  1
strokes_ogs.tif
102
RTVSPost2010PropOp54
 70
     1
102
RTVSPost2010Prop55
280
     0
102
RTVSPost2010PropOp55
 70
     1
102
RTVSPost2010Prop56
140
1.0
102
RTVSPost2010PropOp56
 70
     1
102
RTVSPost2010Prop57
140
1.0
102
RTVSPost2010PropOp57
 70
     1
  0
XRECORD
  5
449D5
102
{ACAD_REACTORS
330
449D4
102
}
330
449D4
100
AcDbXrecord
280
     1
102
RTVSPropertyOp0
 70
     1
102
RTVSPropertyOp1
 70
     1
102
RTVSPropertyOp2
 70
     1
102
RTVSPropertyOp3
 70
     1
102
RTVSPropertyOp4
 70
     1
102
RTVSPropertyOp5
 70
     1
102
RTVSPropertyOp6
 70
     1
102
RTVSPropertyOp7
 70
     1
102
RTVSPropertyOp8
 70
     1
102
RTVSPropertyOp9
 70
     1
102
RTVSPropertyOp10
 70
     1
102
RTVSPropertyOp11
 70
     1
102
RTVSPropertyOp12
 70
     1
102
RTVSPropertyOp13
 70
     1
102
RTVSPropertyOp14
 70
     1
102
RTVSPropertyOp15
 70
     1
102
RTVSPropertyOp16
 70
     1
102
RTVSPropertyOp17
 70
     1
102
RTVSPropertyOp18
 70
     1
102
RTVSPropertyOp19
 70
     1
102
RTVSPropertyOp20
 70
     1
102
RTVSPropertyOp21
 70
     1
102
RTVSPropertyOp22
 70
     1
102
RTVSPropertyOp23
 70
     1
102
RTVSPropertyOp24
 70
     1
102
RTVSPropertyOp25
 70
     1
102
RTVSPropertyOp26
 70
     1
102
RTVSPropertyOp27
 70
     1
102
RTVSPropertyOp28
 70
     1
102
RTVSPropertyOp29
 70
     1
102
RTVSPropertyOp30
 70
     1
102
RTVSPropertyOp31
 70
     1
102
RTVSPropertyOp32
 70
     1
102
RTVSPropertyOp33
 70
     1
102
RTVSPropertyOp34
 70
     1
102
RTVSPropertyOp35
 70
     1
102
RTVSPropertyOp36
 70
     1
102
RTVSPropertyOp37
 70
     1
102
RTVSPropertyOp38
 70
     1
102
RTVSPropertyOp39
 70
     1
102
RTVSPropertyOp40
 70
     1
102
RTVSPropertyOp41
 70
     1
102
RTVSPropertyOp42
 70
     1
102
RTVSPropertyOp43
 70
     1
102
RTVSPropertyOp44
 70
     1
102
RTVSPropertyOp45
 70
     1
102
RTVSPropertyOp46
 70
     1
102
RTVSPropertyOp47
 70
     1
102
RTVSPropertyOp48
 70
     1
102
RTVSPropertyOp49
 70
     1
102
RTVSPropertyOp50
 70
     1
102
RTVSPropertyOp51
 70
     0
102
RTVSPropertyOp52
 70
     0
102
RTVSPropertyOp53
 70
     1
102
RTVSPropertyOp54
 70
     1
102
RTVSPropertyOp55
 70
     1
102
RTVSPropertyOp56
 70
     1
102
RTVSPropertyOp57
 70
     1
102
RTVSPost2010Prop28
280
     0
102
RTVSPost2010PropOp28
 70
     1
102
RTVSPost2010Prop29
280
     1
102
RTVSPost2010PropOp29
 70
     1
102
RTVSPost2010Prop30
280
     1
102
RTVSPost2010PropOp30
 70
     1
102
RTVSPost2010Prop31
280
     0
102
RTVSPost2010PropOp31
 70
     1
102
RTVSPost2010Prop32
280
     0
102
RTVSPost2010PropOp32
 70
     1
102
RTVSPost2010Prop33
280
     0
102
RTVSPost2010PropOp33
 70
     1
102
RTVSPost2010Prop34
280
     0
102
RTVSPost2010PropOp34
 70
     1
102
RTVSPost2010Prop35
280
     0
102
RTVSPost2010PropOp35
 70
     1
102
RTVSPost2010Prop36
280
     0
102
RTVSPost2010PropOp36
 70
     1
102
RTVSPost2010Prop37
 90
       50
102
RTVSPost2010PropOp37
 70
     1
102
RTVSPost2010Prop38
140
0.0
102
RTVSPost2010PropOp38
 70
     1
102
RTVSPost2010Prop39
140
1.0
102
RTVSPost2010PropOp39
 70
     1
102
RTVSPost2010Prop40
 90
        0
102
RTVSPost2010PropOp40
 70
     1
102
RTVSPost2010Prop41ColorIndex
 90
       18
102
RTVSPost2010Prop41ColorRGB
 90
        0
102
RTVSPost2010PropOp41
 70
     1
102
RTVSPost2010Prop42
 90
       50
102
RTVSPost2010PropOp42
 70
     1
102
RTVSPost2010Prop43
 90
        3
102
RTVSPost2010PropOp43
 70
     1
102
RTVSPost2010Prop44ColorIndex
 90
        5
102
RTVSPost2010Prop44ColorRGB
 90
      255
102
RTVSPost2010PropOp44
 70
     1
102
RTVSPost2010Prop45
280
     0
102
RTVSPost2010PropOp45
 70
     1
102
RTVSPost2010Prop46
 90
       50
102
RTVSPost2010PropOp46
 70
     1
102
RTVSPost2010Prop47
 90
       50
102
RTVSPost2010PropOp47
 70
     1
102
RTVSPost2010Prop48
 90
       50
102
RTVSPost2010PropOp48
 70
     1
102
RTVSPost2010Prop49
280
     0
102
RTVSPost2010PropOp49
 70
     1
102
RTVSPost2010Prop50
 90
       50
102
RTVSPost2010PropOp50
 70
     1
102
RTVSPost2010Prop51ColorIndex
 90
      256
102
RTVSPost2010Prop51ColorRGB
 90
-16777216
102
RTVSPost2010PropOp51
 70
     0
102
RTVSPost2010Prop52
140
1.0
102
RTVSPost2010PropOp52
 70
     0
102
RTVSPost2010Prop53
 90
        2
102
RTVSPost2010PropOp53
 70
     1
102
RTVSPost2010Prop54
  1
strokes_ogs.tif
102
RTVSPost2010PropOp54
 70
     1
102
RTVSPost2010Prop55
280
     0
102
RTVSPost2010PropOp55
 70
     1
102
RTVSPost2010Prop56
140
1.0
102
RTVSPost2010PropOp56
 70
     1
102
RTVSPost2010Prop57
140
1.0
102
RTVSPost2010PropOp57
 70
     1
  0
XRECORD
  5
449D7
102
{ACAD_REACTORS
330
449D6
102
}
330
449D6
100
AcDbXrecord
280
     1
102
RTVSPropertyOp0
 70
     1
102
RTVSPropertyOp1
 70
     1
102
RTVSPropertyOp2
 70
     1
102
RTVSPropertyOp3
 70
     1
102
RTVSPropertyOp4
 70
     1
102
RTVSPropertyOp5
 70
     1
102
RTVSPropertyOp6
 70
     1
102
RTVSPropertyOp7
 70
     1
102
RTVSPropertyOp8
 70
     1
102
RTVSPropertyOp9
 70
     1
102
RTVSPropertyOp10
 70
     1
102
RTVSPropertyOp11
 70
     1
102
RTVSPropertyOp12
 70
     1
102
RTVSPropertyOp13
 70
     1
102
RTVSPropertyOp14
 70
     1
102
RTVSPropertyOp15
 70
     1
102
RTVSPropertyOp16
 70
     1
102
RTVSPropertyOp17
 70
     1
102
RTVSPropertyOp18
 70
     1
102
RTVSPropertyOp19
 70
     1
102
RTVSPropertyOp20
 70
     1
102
RTVSPropertyOp21
 70
     1
102
RTVSPropertyOp22
 70
     1
102
RTVSPropertyOp23
 70
     1
102
RTVSPropertyOp24
 70
     1
102
RTVSPropertyOp25
 70
     1
102
RTVSPropertyOp26
 70
     1
102
RTVSPropertyOp27
 70
     1
102
RTVSPropertyOp28
 70
     1
102
RTVSPropertyOp29
 70
     1
102
RTVSPropertyOp30
 70
     1
102
RTVSPropertyOp31
 70
     1
102
RTVSPropertyOp32
 70
     1
102
RTVSPropertyOp33
 70
     1
102
RTVSPropertyOp34
 70
     1
102
RTVSPropertyOp35
 70
     1
102
RTVSPropertyOp36
 70
     1
102
RTVSPropertyOp37
 70
     1
102
RTVSPropertyOp38
 70
     1
102
RTVSPropertyOp39
 70
     1
102
RTVSPropertyOp40
 70
     1
102
RTVSPropertyOp41
 70
     1
102
RTVSPropertyOp42
 70
     1
102
RTVSPropertyOp43
 70
     1
102
RTVSPropertyOp44
 70
     1
102
RTVSPropertyOp45
 70
     1
102
RTVSPropertyOp46
 70
     1
102
RTVSPropertyOp47
 70
     1
102
RTVSPropertyOp48
 70
     1
102
RTVSPropertyOp49
 70
     1
102
RTVSPropertyOp50
 70
     1
102
RTVSPropertyOp51
 70
     0
102
RTVSPropertyOp52
 70
     0
102
RTVSPropertyOp53
 70
     1
102
RTVSPropertyOp54
 70
     1
102
RTVSPropertyOp55
 70
     1
102
RTVSPropertyOp56
 70
     1
102
RTVSPropertyOp57
 70
     1
102
RTVSPost2010Prop28
280
     0
102
RTVSPost2010PropOp28
 70
     1
102
RTVSPost2010Prop29
280
     1
102
RTVSPost2010PropOp29
 70
     1
102
RTVSPost2010Prop30
280
     1
102
RTVSPost2010PropOp30
 70
     1
102
RTVSPost2010Prop31
280
     0
102
RTVSPost2010PropOp31
 70
     1
102
RTVSPost2010Prop32
280
     0
102
RTVSPost2010PropOp32
 70
     1
102
RTVSPost2010Prop33
280
     0
102
RTVSPost2010PropOp33
 70
     1
102
RTVSPost2010Prop34
280
     0
102
RTVSPost2010PropOp34
 70
     1
102
RTVSPost2010Prop35
280
     0
102
RTVSPost2010PropOp35
 70
     1
102
RTVSPost2010Prop36
280
     0
102
RTVSPost2010PropOp36
 70
     1
102
RTVSPost2010Prop37
 90
       50
102
RTVSPost2010PropOp37
 70
     1
102
RTVSPost2010Prop38
140
0.0
102
RTVSPost2010PropOp38
 70
     1
102
RTVSPost2010Prop39
140
1.0
102
RTVSPost2010PropOp39
 70
     1
102
RTVSPost2010Prop40
 90
        0
102
RTVSPost2010PropOp40
 70
     1
102
RTVSPost2010Prop41ColorIndex
 90
       18
102
RTVSPost2010Prop41ColorRGB
 90
        0
102
RTVSPost2010PropOp41
 70
     1
102
RTVSPost2010Prop42
 90
       50
102
RTVSPost2010PropOp42
 70
     1
102
RTVSPost2010Prop43
 90
        3
102
RTVSPost2010PropOp43
 70
     1
102
RTVSPost2010Prop44ColorIndex
 90
        5
102
RTVSPost2010Prop44ColorRGB
 90
      255
102
RTVSPost2010PropOp44
 70
     1
102
RTVSPost2010Prop45
280
     0
102
RTVSPost2010PropOp45
 70
     1
102
RTVSPost2010Prop46
 90
       50
102
RTVSPost2010PropOp46
 70
     1
102
RTVSPost2010Prop47
 90
       50
102
RTVSPost2010PropOp47
 70
     1
102
RTVSPost2010Prop48
 90
       50
102
RTVSPost2010PropOp48
 70
     1
102
RTVSPost2010Prop49
280
     0
102
RTVSPost2010PropOp49
 70
     1
102
RTVSPost2010Prop50
 90
       50
102
RTVSPost2010PropOp50
 70
     1
102
RTVSPost2010Prop51ColorIndex
 90
      256
102
RTVSPost2010Prop51ColorRGB
 90
-16777216
102
RTVSPost2010PropOp51
 70
     0
102
RTVSPost2010Prop52
140
1.0
102
RTVSPost2010PropOp52
 70
     0
102
RTVSPost2010Prop53
 90
        2
102
RTVSPost2010PropOp53
 70
     1
102
RTVSPost2010Prop54
  1
strokes_ogs.tif
102
RTVSPost2010PropOp54
 70
     1
102
RTVSPost2010Prop55
280
     0
102
RTVSPost2010PropOp55
 70
     1
102
RTVSPost2010Prop56
140
1.0
102
RTVSPost2010PropOp56
 70
     1
102
RTVSPost2010Prop57
140
1.0
102
RTVSPost2010PropOp57
 70
     1
  0
XRECORD
  5
449D9
102
{ACAD_REACTORS
330
449D8
102
}
330
449D8
100
AcDbXrecord
280
     1
102
RTVSPropertyOp0
 70
     1
102
RTVSPropertyOp1
 70
     1
102
RTVSPropertyOp2
 70
     1
102
RTVSPropertyOp3
 70
     1
102
RTVSPropertyOp4
 70
     1
102
RTVSPropertyOp5
 70
     1
102
RTVSPropertyOp6
 70
     1
102
RTVSPropertyOp7
 70
     1
102
RTVSPropertyOp8
 70
     1
102
RTVSPropertyOp9
 70
     1
102
RTVSPropertyOp10
 70
     1
102
RTVSPropertyOp11
 70
     1
102
RTVSPropertyOp12
 70
     1
102
RTVSPropertyOp13
 70
     1
102
RTVSPropertyOp14
 70
     1
102
RTVSPropertyOp15
 70
     1
102
RTVSPropertyOp16
 70
     1
102
RTVSPropertyOp17
 70
     1
102
RTVSPropertyOp18
 70
     1
102
RTVSPropertyOp19
 70
     1
102
RTVSPropertyOp20
 70
     1
102
RTVSPropertyOp21
 70
     1
102
RTVSPropertyOp22
 70
     1
102
RTVSPropertyOp23
 70
     1
102
RTVSPropertyOp24
 70
     1
102
RTVSPropertyOp25
 70
     1
102
RTVSPropertyOp26
 70
     1
102
RTVSPropertyOp27
 70
     1
102
RTVSPropertyOp28
 70
     1
102
RTVSPropertyOp29
 70
     1
102
RTVSPropertyOp30
 70
     1
102
RTVSPropertyOp31
 70
     1
102
RTVSPropertyOp32
 70
     1
102
RTVSPropertyOp33
 70
     1
102
RTVSPropertyOp34
 70
     1
102
RTVSPropertyOp35
 70
     1
102
RTVSPropertyOp36
 70
     1
102
RTVSPropertyOp37
 70
     1
102
RTVSPropertyOp38
 70
     1
102
RTVSPropertyOp39
 70
     1
102
RTVSPropertyOp40
 70
     1
102
RTVSPropertyOp41
 70
     1
102
RTVSPropertyOp42
 70
     1
102
RTVSPropertyOp43
 70
     1
102
RTVSPropertyOp44
 70
     1
102
RTVSPropertyOp45
 70
     1
102
RTVSPropertyOp46
 70
     1
102
RTVSPropertyOp47
 70
     1
102
RTVSPropertyOp48
 70
     1
102
RTVSPropertyOp49
 70
     1
102
RTVSPropertyOp50
 70
     1
102
RTVSPropertyOp51
 70
     0
102
RTVSPropertyOp52
 70
     0
102
RTVSPropertyOp53
 70
     1
102
RTVSPropertyOp54
 70
     1
102
RTVSPropertyOp55
 70
     1
102
RTVSPropertyOp56
 70
     1
102
RTVSPropertyOp57
 70
     1
102
RTVSPost2010Prop28
280
     0
102
RTVSPost2010PropOp28
 70
     1
102
RTVSPost2010Prop29
280
     1
102
RTVSPost2010PropOp29
 70
     1
102
RTVSPost2010Prop30
280
     1
102
RTVSPost2010PropOp30
 70
     1
102
RTVSPost2010Prop31
280
     0
102
RTVSPost2010PropOp31
 70
     1
102
RTVSPost2010Prop32
280
     0
102
RTVSPost2010PropOp32
 70
     1
102
RTVSPost2010Prop33
280
     0
102
RTVSPost2010PropOp33
 70
     1
102
RTVSPost2010Prop34
280
     0
102
RTVSPost2010PropOp34
 70
     1
102
RTVSPost2010Prop35
280
     0
102
RTVSPost2010PropOp35
 70
     1
102
RTVSPost2010Prop36
280
     0
102
RTVSPost2010PropOp36
 70
     1
102
RTVSPost2010Prop37
 90
       50
102
RTVSPost2010PropOp37
 70
     1
102
RTVSPost2010Prop38
140
0.0
102
RTVSPost2010PropOp38
 70
     1
102
RTVSPost2010Prop39
140
1.0
102
RTVSPost2010PropOp39
 70
     1
102
RTVSPost2010Prop40
 90
        0
102
RTVSPost2010PropOp40
 70
     1
102
RTVSPost2010Prop41ColorIndex
 90
       18
102
RTVSPost2010Prop41ColorRGB
 90
        0
102
RTVSPost2010PropOp41
 70
     1
102
RTVSPost2010Prop42
 90
       50
102
RTVSPost2010PropOp42
 70
     1
102
RTVSPost2010Prop43
 90
        3
102
RTVSPost2010PropOp43
 70
     1
102
RTVSPost2010Prop44ColorIndex
 90
        5
102
RTVSPost2010Prop44ColorRGB
 90
      255
102
RTVSPost2010PropOp44
 70
     1
102
RTVSPost2010Prop45
280
     0
102
RTVSPost2010PropOp45
 70
     1
102
RTVSPost2010Prop46
 90
       50
102
RTVSPost2010PropOp46
 70
     1
102
RTVSPost2010Prop47
 90
       50
102
RTVSPost2010PropOp47
 70
     1
102
RTVSPost2010Prop48
 90
       50
102
RTVSPost2010PropOp48
 70
     1
102
RTVSPost2010Prop49
280
     0
102
RTVSPost2010PropOp49
 70
     1
102
RTVSPost2010Prop50
 90
       50
102
RTVSPost2010PropOp50
 70
     1
102
RTVSPost2010Prop51ColorIndex
 90
      256
102
RTVSPost2010Prop51ColorRGB
 90
-16777216
102
RTVSPost2010PropOp51
 70
     0
102
RTVSPost2010Prop52
140
1.0
102
RTVSPost2010PropOp52
 70
     0
102
RTVSPost2010Prop53
 90
        2
102
RTVSPost2010PropOp53
 70
     1
102
RTVSPost2010Prop54
  1
strokes_ogs.tif
102
RTVSPost2010PropOp54
 70
     1
102
RTVSPost2010Prop55
280
     0
102
RTVSPost2010PropOp55
 70
     1
102
RTVSPost2010Prop56
140
1.0
102
RTVSPost2010PropOp56
 70
     1
102
RTVSPost2010Prop57
140
1.0
102
RTVSPost2010PropOp57
 70
     1
  0
XRECORD
  5
449DB
102
{ACAD_REACTORS
330
449DA
102
}
330
449DA
100
AcDbXrecord
280
     1
102
RTVSPropertyOp0
 70
     1
102
RTVSPropertyOp1
 70
     1
102
RTVSPropertyOp2
 70
     1
102
RTVSPropertyOp3
 70
     1
102
RTVSPropertyOp4
 70
     1
102
RTVSPropertyOp5
 70
     1
102
RTVSPropertyOp6
 70
     1
102
RTVSPropertyOp7
 70
     1
102
RTVSPropertyOp8
 70
     1
102
RTVSPropertyOp9
 70
     1
102
RTVSPropertyOp10
 70
     1
102
RTVSPropertyOp11
 70
     1
102
RTVSPropertyOp12
 70
     1
102
RTVSPropertyOp13
 70
     1
102
RTVSPropertyOp14
 70
     1
102
RTVSPropertyOp15
 70
     1
102
RTVSPropertyOp16
 70
     1
102
RTVSPropertyOp17
 70
     1
102
RTVSPropertyOp18
 70
     1
102
RTVSPropertyOp19
 70
     1
102
RTVSPropertyOp20
 70
     1
102
RTVSPropertyOp21
 70
     1
102
RTVSPropertyOp22
 70
     1
102
RTVSPropertyOp23
 70
     1
102
RTVSPropertyOp24
 70
     1
102
RTVSPropertyOp25
 70
     1
102
RTVSPropertyOp26
 70
     1
102
RTVSPropertyOp27
 70
     1
102
RTVSPropertyOp28
 70
     1
102
RTVSPropertyOp29
 70
     1
102
RTVSPropertyOp30
 70
     1
102
RTVSPropertyOp31
 70
     1
102
RTVSPropertyOp32
 70
     1
102
RTVSPropertyOp33
 70
     1
102
RTVSPropertyOp34
 70
     1
102
RTVSPropertyOp35
 70
     1
102
RTVSPropertyOp36
 70
     1
102
RTVSPropertyOp37
 70
     1
102
RTVSPropertyOp38
 70
     1
102
RTVSPropertyOp39
 70
     1
102
RTVSPropertyOp40
 70
     1
102
RTVSPropertyOp41
 70
     1
102
RTVSPropertyOp42
 70
     1
102
RTVSPropertyOp43
 70
     1
102
RTVSPropertyOp44
 70
     1
102
RTVSPropertyOp45
 70
     1
102
RTVSPropertyOp46
 70
     1
102
RTVSPropertyOp47
 70
     1
102
RTVSPropertyOp48
 70
     1
102
RTVSPropertyOp49
 70
     1
102
RTVSPropertyOp50
 70
     1
102
RTVSPropertyOp51
 70
     0
102
RTVSPropertyOp52
 70
     0
102
RTVSPropertyOp53
 70
     1
102
RTVSPropertyOp54
 70
     1
102
RTVSPropertyOp55
 70
     1
102
RTVSPropertyOp56
 70
     1
102
RTVSPropertyOp57
 70
     1
102
RTVSPost2010Prop28
280
     0
102
RTVSPost2010PropOp28
 70
     1
102
RTVSPost2010Prop29
280
     1
102
RTVSPost2010PropOp29
 70
     1
102
RTVSPost2010Prop30
280
     1
102
RTVSPost2010PropOp30
 70
     1
102
RTVSPost2010Prop31
280
     0
102
RTVSPost2010PropOp31
 70
     1
102
RTVSPost2010Prop32
280
     0
102
RTVSPost2010PropOp32
 70
     1
102
RTVSPost2010Prop33
280
     0
102
RTVSPost2010PropOp33
 70
     1
102
RTVSPost2010Prop34
280
     0
102
RTVSPost2010PropOp34
 70
     1
102
RTVSPost2010Prop35
280
     0
102
RTVSPost2010PropOp35
 70
     1
102
RTVSPost2010Prop36
280
     0
102
RTVSPost2010PropOp36
 70
     1
102
RTVSPost2010Prop37
 90
       50
102
RTVSPost2010PropOp37
 70
     1
102
RTVSPost2010Prop38
140
0.0
102
RTVSPost2010PropOp38
 70
     1
102
RTVSPost2010Prop39
140
1.0
102
RTVSPost2010PropOp39
 70
     1
102
RTVSPost2010Prop40
 90
        0
102
RTVSPost2010PropOp40
 70
     1
102
RTVSPost2010Prop41ColorIndex
 90
       18
102
RTVSPost2010Prop41ColorRGB
 90
        0
102
RTVSPost2010PropOp41
 70
     1
102
RTVSPost2010Prop42
 90
       50
102
RTVSPost2010PropOp42
 70
     1
102
RTVSPost2010Prop43
 90
        3
102
RTVSPost2010PropOp43
 70
     1
102
RTVSPost2010Prop44ColorIndex
 90
        5
102
RTVSPost2010Prop44ColorRGB
 90
      255
102
RTVSPost2010PropOp44
 70
     1
102
RTVSPost2010Prop45
280
     0
102
RTVSPost2010PropOp45
 70
     1
102
RTVSPost2010Prop46
 90
       50
102
RTVSPost2010PropOp46
 70
     1
102
RTVSPost2010Prop47
 90
       50
102
RTVSPost2010PropOp47
 70
     1
102
RTVSPost2010Prop48
 90
       50
102
RTVSPost2010PropOp48
 70
     1
102
RTVSPost2010Prop49
280
     0
102
RTVSPost2010PropOp49
 70
     1
102
RTVSPost2010Prop50
 90
       50
102
RTVSPost2010PropOp50
 70
     1
102
RTVSPost2010Prop51ColorIndex
 90
      256
102
RTVSPost2010Prop51ColorRGB
 90
-16777216
102
RTVSPost2010PropOp51
 70
     0
102
RTVSPost2010Prop52
140
1.0
102
RTVSPost2010PropOp52
 70
     0
102
RTVSPost2010Prop53
 90
        2
102
RTVSPost2010PropOp53
 70
     1
102
RTVSPost2010Prop54
  1
strokes_ogs.tif
102
RTVSPost2010PropOp54
 70
     1
102
RTVSPost2010Prop55
280
     0
102
RTVSPost2010PropOp55
 70
     1
102
RTVSPost2010Prop56
140
1.0
102
RTVSPost2010PropOp56
 70
     1
102
RTVSPost2010Prop57
140
1.0
102
RTVSPost2010PropOp57
 70
     1
  0
XRECORD
  5
449DD
102
{ACAD_REACTORS
330
449DC
102
}
330
449DC
100
AcDbXrecord
280
     1
102
RTVSPropertyOp0
 70
     1
102
RTVSPropertyOp1
 70
     1
102
RTVSPropertyOp2
 70
     1
102
RTVSPropertyOp3
 70
     1
102
RTVSPropertyOp4
 70
     1
102
RTVSPropertyOp5
 70
     1
102
RTVSPropertyOp6
 70
     1
102
RTVSPropertyOp7
 70
     1
102
RTVSPropertyOp8
 70
     1
102
RTVSPropertyOp9
 70
     1
102
RTVSPropertyOp10
 70
     1
102
RTVSPropertyOp11
 70
     1
102
RTVSPropertyOp12
 70
     1
102
RTVSPropertyOp13
 70
     1
102
RTVSPropertyOp14
 70
     1
102
RTVSPropertyOp15
 70
     1
102
RTVSPropertyOp16
 70
     1
102
RTVSPropertyOp17
 70
     1
102
RTVSPropertyOp18
 70
     1
102
RTVSPropertyOp19
 70
     1
102
RTVSPropertyOp20
 70
     1
102
RTVSPropertyOp21
 70
     1
102
RTVSPropertyOp22
 70
     1
102
RTVSPropertyOp23
 70
     1
102
RTVSPropertyOp24
 70
     1
102
RTVSPropertyOp25
 70
     1
102
RTVSPropertyOp26
 70
     1
102
RTVSPropertyOp27
 70
     1
102
RTVSPropertyOp28
 70
     1
102
RTVSPropertyOp29
 70
     1
102
RTVSPropertyOp30
 70
     1
102
RTVSPropertyOp31
 70
     1
102
RTVSPropertyOp32
 70
     1
102
RTVSPropertyOp33
 70
     1
102
RTVSPropertyOp34
 70
     1
102
RTVSPropertyOp35
 70
     1
102
RTVSPropertyOp36
 70
     1
102
RTVSPropertyOp37
 70
     1
102
RTVSPropertyOp38
 70
     1
102
RTVSPropertyOp39
 70
     1
102
RTVSPropertyOp40
 70
     1
102
RTVSPropertyOp41
 70
     1
102
RTVSPropertyOp42
 70
     1
102
RTVSPropertyOp43
 70
     1
102
RTVSPropertyOp44
 70
     1
102
RTVSPropertyOp45
 70
     1
102
RTVSPropertyOp46
 70
     1
102
RTVSPropertyOp47
 70
     1
102
RTVSPropertyOp48
 70
     1
102
RTVSPropertyOp49
 70
     1
102
RTVSPropertyOp50
 70
     1
102
RTVSPropertyOp51
 70
     0
102
RTVSPropertyOp52
 70
     0
102
RTVSPropertyOp53
 70
     1
102
RTVSPropertyOp54
 70
     1
102
RTVSPropertyOp55
 70
     1
102
RTVSPropertyOp56
 70
     1
102
RTVSPropertyOp57
 70
     1
102
RTVSPost2010Prop28
280
     0
102
RTVSPost2010PropOp28
 70
     1
102
RTVSPost2010Prop29
280
     1
102
RTVSPost2010PropOp29
 70
     1
102
RTVSPost2010Prop30
280
     1
102
RTVSPost2010PropOp30
 70
     1
102
RTVSPost2010Prop31
280
     0
102
RTVSPost2010PropOp31
 70
     1
102
RTVSPost2010Prop32
280
     0
102
RTVSPost2010PropOp32
 70
     1
102
RTVSPost2010Prop33
280
     0
102
RTVSPost2010PropOp33
 70
     1
102
RTVSPost2010Prop34
280
     0
102
RTVSPost2010PropOp34
 70
     1
102
RTVSPost2010Prop35
280
     0
102
RTVSPost2010PropOp35
 70
     1
102
RTVSPost2010Prop36
280
     0
102
RTVSPost2010PropOp36
 70
     1
102
RTVSPost2010Prop37
 90
       50
102
RTVSPost2010PropOp37
 70
     1
102
RTVSPost2010Prop38
140
0.0
102
RTVSPost2010PropOp38
 70
     1
102
RTVSPost2010Prop39
140
1.0
102
RTVSPost2010PropOp39
 70
     1
102
RTVSPost2010Prop40
 90
        0
102
RTVSPost2010PropOp40
 70
     1
102
RTVSPost2010Prop41ColorIndex
 90
       18
102
RTVSPost2010Prop41ColorRGB
 90
        0
102
RTVSPost2010PropOp41
 70
     1
102
RTVSPost2010Prop42
 90
       50
102
RTVSPost2010PropOp42
 70
     1
102
RTVSPost2010Prop43
 90
        3
102
RTVSPost2010PropOp43
 70
     1
102
RTVSPost2010Prop44ColorIndex
 90
        5
102
RTVSPost2010Prop44ColorRGB
 90
      255
102
RTVSPost2010PropOp44
 70
     1
102
RTVSPost2010Prop45
280
     0
102
RTVSPost2010PropOp45
 70
     1
102
RTVSPost2010Prop46
 90
       50
102
RTVSPost2010PropOp46
 70
     1
102
RTVSPost2010Prop47
 90
       50
102
RTVSPost2010PropOp47
 70
     1
102
RTVSPost2010Prop48
 90
       50
102
RTVSPost2010PropOp48
 70
     1
102
RTVSPost2010Prop49
280
     0
102
RTVSPost2010PropOp49
 70
     1
102
RTVSPost2010Prop50
 90
       50
102
RTVSPost2010PropOp50
 70
     1
102
RTVSPost2010Prop51ColorIndex
 90
      256
102
RTVSPost2010Prop51ColorRGB
 90
-16777216
102
RTVSPost2010PropOp51
 70
     0
102
RTVSPost2010Prop52
140
1.0
102
RTVSPost2010PropOp52
 70
     0
102
RTVSPost2010Prop53
 90
        2
102
RTVSPost2010PropOp53
 70
     1
102
RTVSPost2010Prop54
  1
strokes_ogs.tif
102
RTVSPost2010PropOp54
 70
     1
102
RTVSPost2010Prop55
280
     0
102
RTVSPost2010PropOp55
 70
     1
102
RTVSPost2010Prop56
140
1.0
102
RTVSPost2010PropOp56
 70
     1
102
RTVSPost2010Prop57
140
1.0
102
RTVSPost2010PropOp57
 70
     1
  0
XRECORD
  5
449DF
102
{ACAD_REACTORS
330
449DE
102
}
330
449DE
100
AcDbXrecord
280
     1
102
RTVSPropertyOp0
 70
     0
102
RTVSPropertyOp1
 70
     0
102
RTVSPropertyOp2
 70
     0
102
RTVSPropertyOp3
 70
     0
102
RTVSPropertyOp4
 70
     0
102
RTVSPropertyOp5
 70
     0
102
RTVSPropertyOp6
 70
     0
102
RTVSPropertyOp7
 70
     0
102
RTVSPropertyOp8
 70
     0
102
RTVSPropertyOp9
 70
     0
102
RTVSPropertyOp10
 70
     0
102
RTVSPropertyOp11
 70
     0
102
RTVSPropertyOp12
 70
     0
102
RTVSPropertyOp13
 70
     0
102
RTVSPropertyOp14
 70
     0
102
RTVSPropertyOp15
 70
     0
102
RTVSPropertyOp16
 70
     0
102
RTVSPropertyOp17
 70
     0
102
RTVSPropertyOp18
 70
     0
102
RTVSPropertyOp19
 70
     0
102
RTVSPropertyOp20
 70
     0
102
RTVSPropertyOp21
 70
     0
102
RTVSPropertyOp22
 70
     0
102
RTVSPropertyOp23
 70
     0
102
RTVSPropertyOp24
 70
     0
102
RTVSPropertyOp25
 70
     0
102
RTVSPropertyOp26
 70
     0
102
RTVSPropertyOp27
 70
     0
102
RTVSPropertyOp28
 70
     1
102
RTVSPropertyOp29
 70
     1
102
RTVSPropertyOp30
 70
     1
102
RTVSPropertyOp31
 70
     1
102
RTVSPropertyOp32
 70
     1
102
RTVSPropertyOp33
 70
     1
102
RTVSPropertyOp34
 70
     1
102
RTVSPropertyOp35
 70
     1
102
RTVSPropertyOp36
 70
     1
102
RTVSPropertyOp37
 70
     1
102
RTVSPropertyOp38
 70
     1
102
RTVSPropertyOp39
 70
     1
102
RTVSPropertyOp40
 70
     1
102
RTVSPropertyOp41
 70
     1
102
RTVSPropertyOp42
 70
     1
102
RTVSPropertyOp43
 70
     1
102
RTVSPropertyOp44
 70
     1
102
RTVSPropertyOp45
 70
     1
102
RTVSPropertyOp46
 70
     1
102
RTVSPropertyOp47
 70
     1
102
RTVSPropertyOp48
 70
     1
102
RTVSPropertyOp49
 70
     1
102
RTVSPropertyOp50
 70
     1
102
RTVSPropertyOp51
 70
     0
102
RTVSPropertyOp52
 70
     0
102
RTVSPropertyOp53
 70
     1
102
RTVSPropertyOp54
 70
     1
102
RTVSPropertyOp55
 70
     1
102
RTVSPropertyOp56
 70
     1
102
RTVSPropertyOp57
 70
     1
102
RTVSPost2010Prop28
280
     0
102
RTVSPost2010PropOp28
 70
     1
102
RTVSPost2010Prop29
280
     1
102
RTVSPost2010PropOp29
 70
     1
102
RTVSPost2010Prop30
280
     1
102
RTVSPost2010PropOp30
 70
     1
102
RTVSPost2010Prop31
280
     0
102
RTVSPost2010PropOp31
 70
     1
102
RTVSPost2010Prop32
280
     0
102
RTVSPost2010PropOp32
 70
     1
102
RTVSPost2010Prop33
280
     0
102
RTVSPost2010PropOp33
 70
     1
102
RTVSPost2010Prop34
280
     0
102
RTVSPost2010PropOp34
 70
     1
102
RTVSPost2010Prop35
280
     0
102
RTVSPost2010PropOp35
 70
     1
102
RTVSPost2010Prop36
280
     0
102
RTVSPost2010PropOp36
 70
     1
102
RTVSPost2010Prop37
 90
       50
102
RTVSPost2010PropOp37
 70
     1
102
RTVSPost2010Prop38
140
0.0
102
RTVSPost2010PropOp38
 70
     1
102
RTVSPost2010Prop39
140
1.0
102
RTVSPost2010PropOp39
 70
     1
102
RTVSPost2010Prop40
 90
        0
102
RTVSPost2010PropOp40
 70
     1
102
RTVSPost2010Prop41ColorIndex
 90
       18
102
RTVSPost2010Prop41ColorRGB
 90
        0
102
RTVSPost2010PropOp41
 70
     1
102
RTVSPost2010Prop42
 90
       50
102
RTVSPost2010PropOp42
 70
     1
102
RTVSPost2010Prop43
 90
        3
102
RTVSPost2010PropOp43
 70
     1
102
RTVSPost2010Prop44ColorIndex
 90
        5
102
RTVSPost2010Prop44ColorRGB
 90
      255
102
RTVSPost2010PropOp44
 70
     1
102
RTVSPost2010Prop45
280
     0
102
RTVSPost2010PropOp45
 70
     1
102
RTVSPost2010Prop46
 90
       50
102
RTVSPost2010PropOp46
 70
     1
102
RTVSPost2010Prop47
 90
       50
102
RTVSPost2010PropOp47
 70
     1
102
RTVSPost2010Prop48
 90
       50
102
RTVSPost2010PropOp48
 70
     1
102
RTVSPost2010Prop49
280
     0
102
RTVSPost2010PropOp49
 70
     1
102
RTVSPost2010Prop50
 90
       50
102
RTVSPost2010PropOp50
 70
     1
102
RTVSPost2010Prop51ColorIndex
 90
      256
102
RTVSPost2010Prop51ColorRGB
 90
-16777216
102
RTVSPost2010PropOp51
 70
     0
102
RTVSPost2010Prop52
140
1.0
102
RTVSPost2010PropOp52
 70
     0
102
RTVSPost2010Prop53
 90
        2
102
RTVSPost2010PropOp53
 70
     1
102
RTVSPost2010Prop54
  1
strokes_ogs.tif
102
RTVSPost2010PropOp54
 70
     1
102
RTVSPost2010Prop55
280
     0
102
RTVSPost2010PropOp55
 70
     1
102
RTVSPost2010Prop56
140
1.0
102
RTVSPost2010PropOp56
 70
     1
102
RTVSPost2010Prop57
140
1.0
102
RTVSPost2010PropOp57
 70
     1
  0
XRECORD
  5
449E1
102
{ACAD_REACTORS
330
449E0
102
}
330
449E0
100
AcDbXrecord
280
     1
102
RTVSPropertyOp0
 70
     1
102
RTVSPropertyOp1
 70
     1
102
RTVSPropertyOp2
 70
     1
102
RTVSPropertyOp3
 70
     1
102
RTVSPropertyOp4
 70
     1
102
RTVSPropertyOp5
 70
     1
102
RTVSPropertyOp6
 70
     1
102
RTVSPropertyOp7
 70
     1
102
RTVSPropertyOp8
 70
     1
102
RTVSPropertyOp9
 70
     1
102
RTVSPropertyOp10
 70
     1
102
RTVSPropertyOp11
 70
     1
102
RTVSPropertyOp12
 70
     1
102
RTVSPropertyOp13
 70
     1
102
RTVSPropertyOp14
 70
     1
102
RTVSPropertyOp15
 70
     1
102
RTVSPropertyOp16
 70
     1
102
RTVSPropertyOp17
 70
     1
102
RTVSPropertyOp18
 70
     1
102
RTVSPropertyOp19
 70
     1
102
RTVSPropertyOp20
 70
     1
102
RTVSPropertyOp21
 70
     1
102
RTVSPropertyOp22
 70
     1
102
RTVSPropertyOp23
 70
     1
102
RTVSPropertyOp24
 70
     1
102
RTVSPropertyOp25
 70
     1
102
RTVSPropertyOp26
 70
     1
102
RTVSPropertyOp27
 70
     1
102
RTVSPropertyOp28
 70
     1
102
RTVSPropertyOp29
 70
     1
102
RTVSPropertyOp30
 70
     1
102
RTVSPropertyOp31
 70
     1
102
RTVSPropertyOp32
 70
     1
102
RTVSPropertyOp33
 70
     1
102
RTVSPropertyOp34
 70
     1
102
RTVSPropertyOp35
 70
     1
102
RTVSPropertyOp36
 70
     1
102
RTVSPropertyOp37
 70
     1
102
RTVSPropertyOp38
 70
     1
102
RTVSPropertyOp39
 70
     1
102
RTVSPropertyOp40
 70
     1
102
RTVSPropertyOp41
 70
     1
102
RTVSPropertyOp42
 70
     1
102
RTVSPropertyOp43
 70
     1
102
RTVSPropertyOp44
 70
     1
102
RTVSPropertyOp45
 70
     1
102
RTVSPropertyOp46
 70
     1
102
RTVSPropertyOp47
 70
     1
102
RTVSPropertyOp48
 70
     1
102
RTVSPropertyOp49
 70
     1
102
RTVSPropertyOp50
 70
     1
102
RTVSPropertyOp51
 70
     0
102
RTVSPropertyOp52
 70
     0
102
RTVSPropertyOp53
 70
     1
102
RTVSPropertyOp54
 70
     1
102
RTVSPropertyOp55
 70
     1
102
RTVSPropertyOp56
 70
     1
102
RTVSPropertyOp57
 70
     1
102
RTVSPost2010Prop28
280
     0
102
RTVSPost2010PropOp28
 70
     1
102
RTVSPost2010Prop29
280
     1
102
RTVSPost2010PropOp29
 70
     1
102
RTVSPost2010Prop30
280
     1
102
RTVSPost2010PropOp30
 70
     1
102
RTVSPost2010Prop31
280
     0
102
RTVSPost2010PropOp31
 70
     1
102
RTVSPost2010Prop32
280
     0
102
RTVSPost2010PropOp32
 70
     1
102
RTVSPost2010Prop33
280
     0
102
RTVSPost2010PropOp33
 70
     1
102
RTVSPost2010Prop34
280
     0
102
RTVSPost2010PropOp34
 70
     1
102
RTVSPost2010Prop35
280
     0
102
RTVSPost2010PropOp35
 70
     1
102
RTVSPost2010Prop36
280
     0
102
RTVSPost2010PropOp36
 70
     1
102
RTVSPost2010Prop37
 90
       50
102
RTVSPost2010PropOp37
 70
     1
102
RTVSPost2010Prop38
140
0.0
102
RTVSPost2010PropOp38
 70
     1
102
RTVSPost2010Prop39
140
1.0
102
RTVSPost2010PropOp39
 70
     1
102
RTVSPost2010Prop40
 90
        0
102
RTVSPost2010PropOp40
 70
     1
102
RTVSPost2010Prop41ColorIndex
 90
       18
102
RTVSPost2010Prop41ColorRGB
 90
        0
102
RTVSPost2010PropOp41
 70
     1
102
RTVSPost2010Prop42
 90
       50
102
RTVSPost2010PropOp42
 70
     1
102
RTVSPost2010Prop43
 90
        3
102
RTVSPost2010PropOp43
 70
     1
102
RTVSPost2010Prop44ColorIndex
 90
        5
102
RTVSPost2010Prop44ColorRGB
 90
      255
102
RTVSPost2010PropOp44
 70
     1
102
RTVSPost2010Prop45
280
     0
102
RTVSPost2010PropOp45
 70
     1
102
RTVSPost2010Prop46
 90
       50
102
RTVSPost2010PropOp46
 70
     1
102
RTVSPost2010Prop47
 90
       50
102
RTVSPost2010PropOp47
 70
     1
102
RTVSPost2010Prop48
 90
       50
102
RTVSPost2010PropOp48
 70
     1
102
RTVSPost2010Prop49
280
     0
102
RTVSPost2010PropOp49
 70
     1
102
RTVSPost2010Prop50
 90
       50
102
RTVSPost2010PropOp50
 70
     1
102
RTVSPost2010Prop51ColorIndex
 90
      256
102
RTVSPost2010Prop51ColorRGB
 90
-16777216
102
RTVSPost2010PropOp51
 70
     0
102
RTVSPost2010Prop52
140
1.0
102
RTVSPost2010PropOp52
 70
     0
102
RTVSPost2010Prop53
 90
        2
102
RTVSPost2010PropOp53
 70
     1
102
RTVSPost2010Prop54
  1
strokes_ogs.tif
102
RTVSPost2010PropOp54
 70
     1
102
RTVSPost2010Prop55
280
     0
102
RTVSPost2010PropOp55
 70
     1
102
RTVSPost2010Prop56
140
1.0
102
RTVSPost2010PropOp56
 70
     1
102
RTVSPost2010Prop57
140
1.0
102
RTVSPost2010PropOp57
 70
     1
  0
XRECORD
  5
449E3
102
{ACAD_REACTORS
330
449E2
102
}
330
449E2
100
AcDbXrecord
280
     1
102
RTVSPropertyOp0
 70
     1
102
RTVSPropertyOp1
 70
     1
102
RTVSPropertyOp2
 70
     1
102
RTVSPropertyOp3
 70
     1
102
RTVSPropertyOp4
 70
     1
102
RTVSPropertyOp5
 70
     1
102
RTVSPropertyOp6
 70
     1
102
RTVSPropertyOp7
 70
     1
102
RTVSPropertyOp8
 70
     1
102
RTVSPropertyOp9
 70
     1
102
RTVSPropertyOp10
 70
     1
102
RTVSPropertyOp11
 70
     1
102
RTVSPropertyOp12
 70
     1
102
RTVSPropertyOp13
 70
     1
102
RTVSPropertyOp14
 70
     1
102
RTVSPropertyOp15
 70
     1
102
RTVSPropertyOp16
 70
     1
102
RTVSPropertyOp17
 70
     1
102
RTVSPropertyOp18
 70
     1
102
RTVSPropertyOp19
 70
     1
102
RTVSPropertyOp20
 70
     1
102
RTVSPropertyOp21
 70
     1
102
RTVSPropertyOp22
 70
     1
102
RTVSPropertyOp23
 70
     1
102
RTVSPropertyOp24
 70
     1
102
RTVSPropertyOp25
 70
     1
102
RTVSPropertyOp26
 70
     1
102
RTVSPropertyOp27
 70
     1
102
RTVSPropertyOp28
 70
     1
102
RTVSPropertyOp29
 70
     1
102
RTVSPropertyOp30
 70
     1
102
RTVSPropertyOp31
 70
     1
102
RTVSPropertyOp32
 70
     1
102
RTVSPropertyOp33
 70
     1
102
RTVSPropertyOp34
 70
     1
102
RTVSPropertyOp35
 70
     1
102
RTVSPropertyOp36
 70
     1
102
RTVSPropertyOp37
 70
     1
102
RTVSPropertyOp38
 70
     1
102
RTVSPropertyOp39
 70
     1
102
RTVSPropertyOp40
 70
     1
102
RTVSPropertyOp41
 70
     1
102
RTVSPropertyOp42
 70
     1
102
RTVSPropertyOp43
 70
     1
102
RTVSPropertyOp44
 70
     1
102
RTVSPropertyOp45
 70
     1
102
RTVSPropertyOp46
 70
     1
102
RTVSPropertyOp47
 70
     1
102
RTVSPropertyOp48
 70
     1
102
RTVSPropertyOp49
 70
     1
102
RTVSPropertyOp50
 70
     1
102
RTVSPropertyOp51
 70
     0
102
RTVSPropertyOp52
 70
     0
102
RTVSPropertyOp53
 70
     1
102
RTVSPropertyOp54
 70
     1
102
RTVSPropertyOp55
 70
     1
102
RTVSPropertyOp56
 70
     1
102
RTVSPropertyOp57
 70
     1
102
RTVSPost2010Prop28
280
     0
102
RTVSPost2010PropOp28
 70
     1
102
RTVSPost2010Prop29
280
     1
102
RTVSPost2010PropOp29
 70
     1
102
RTVSPost2010Prop30
280
     1
102
RTVSPost2010PropOp30
 70
     1
102
RTVSPost2010Prop31
280
     0
102
RTVSPost2010PropOp31
 70
     1
102
RTVSPost2010Prop32
280
     0
102
RTVSPost2010PropOp32
 70
     1
102
RTVSPost2010Prop33
280
     0
102
RTVSPost2010PropOp33
 70
     1
102
RTVSPost2010Prop34
280
     0
102
RTVSPost2010PropOp34
 70
     1
102
RTVSPost2010Prop35
280
     0
102
RTVSPost2010PropOp35
 70
     1
102
RTVSPost2010Prop36
280
     0
102
RTVSPost2010PropOp36
 70
     1
102
RTVSPost2010Prop37
 90
       50
102
RTVSPost2010PropOp37
 70
     1
102
RTVSPost2010Prop38
140
0.0
102
RTVSPost2010PropOp38
 70
     1
102
RTVSPost2010Prop39
140
1.0
102
RTVSPost2010PropOp39
 70
     1
102
RTVSPost2010Prop40
 90
        0
102
RTVSPost2010PropOp40
 70
     1
102
RTVSPost2010Prop41ColorIndex
 90
       18
102
RTVSPost2010Prop41ColorRGB
 90
        0
102
RTVSPost2010PropOp41
 70
     1
102
RTVSPost2010Prop42
 90
       50
102
RTVSPost2010PropOp42
 70
     1
102
RTVSPost2010Prop43
 90
        3
102
RTVSPost2010PropOp43
 70
     1
102
RTVSPost2010Prop44ColorIndex
 90
        5
102
RTVSPost2010Prop44ColorRGB
 90
      255
102
RTVSPost2010PropOp44
 70
     1
102
RTVSPost2010Prop45
280
     0
102
RTVSPost2010PropOp45
 70
     1
102
RTVSPost2010Prop46
 90
       50
102
RTVSPost2010PropOp46
 70
     1
102
RTVSPost2010Prop47
 90
       50
102
RTVSPost2010PropOp47
 70
     1
102
RTVSPost2010Prop48
 90
       50
102
RTVSPost2010PropOp48
 70
     1
102
RTVSPost2010Prop49
280
     0
102
RTVSPost2010PropOp49
 70
     1
102
RTVSPost2010Prop50
 90
       50
102
RTVSPost2010PropOp50
 70
     1
102
RTVSPost2010Prop51ColorIndex
 90
      256
102
RTVSPost2010Prop51ColorRGB
 90
-16777216
102
RTVSPost2010PropOp51
 70
     0
102
RTVSPost2010Prop52
140
1.0
102
RTVSPost2010PropOp52
 70
     0
102
RTVSPost2010Prop53
 90
        2
102
RTVSPost2010PropOp53
 70
     1
102
RTVSPost2010Prop54
  1
strokes_ogs.tif
102
RTVSPost2010PropOp54
 70
     1
102
RTVSPost2010Prop55
280
     0
102
RTVSPost2010PropOp55
 70
     1
102
RTVSPost2010Prop56
140
1.0
102
RTVSPost2010PropOp56
 70
     1
102
RTVSPost2010Prop57
140
1.0
102
RTVSPost2010PropOp57
 70
     1
  0
XRECORD
  5
449E5
102
{ACAD_REACTORS
330
449E4
102
}
330
449E4
100
AcDbXrecord
280
     1
102
RTVSPropertyOp0
 70
     1
102
RTVSPropertyOp1
 70
     1
102
RTVSPropertyOp2
 70
     1
102
RTVSPropertyOp3
 70
     1
102
RTVSPropertyOp4
 70
     1
102
RTVSPropertyOp5
 70
     1
102
RTVSPropertyOp6
 70
     1
102
RTVSPropertyOp7
 70
     1
102
RTVSPropertyOp8
 70
     1
102
RTVSPropertyOp9
 70
     1
102
RTVSPropertyOp10
 70
     1
102
RTVSPropertyOp11
 70
     1
102
RTVSPropertyOp12
 70
     1
102
RTVSPropertyOp13
 70
     1
102
RTVSPropertyOp14
 70
     1
102
RTVSPropertyOp15
 70
     1
102
RTVSPropertyOp16
 70
     1
102
RTVSPropertyOp17
 70
     1
102
RTVSPropertyOp18
 70
     1
102
RTVSPropertyOp19
 70
     1
102
RTVSPropertyOp20
 70
     1
102
RTVSPropertyOp21
 70
     1
102
RTVSPropertyOp22
 70
     1
102
RTVSPropertyOp23
 70
     1
102
RTVSPropertyOp24
 70
     1
102
RTVSPropertyOp25
 70
     1
102
RTVSPropertyOp26
 70
     1
102
RTVSPropertyOp27
 70
     1
102
RTVSPropertyOp28
 70
     1
102
RTVSPropertyOp29
 70
     1
102
RTVSPropertyOp30
 70
     1
102
RTVSPropertyOp31
 70
     1
102
RTVSPropertyOp32
 70
     1
102
RTVSPropertyOp33
 70
     1
102
RTVSPropertyOp34
 70
     1
102
RTVSPropertyOp35
 70
     1
102
RTVSPropertyOp36
 70
     1
102
RTVSPropertyOp37
 70
     1
102
RTVSPropertyOp38
 70
     1
102
RTVSPropertyOp39
 70
     1
102
RTVSPropertyOp40
 70
     1
102
RTVSPropertyOp41
 70
     1
102
RTVSPropertyOp42
 70
     1
102
RTVSPropertyOp43
 70
     1
102
RTVSPropertyOp44
 70
     1
102
RTVSPropertyOp45
 70
     1
102
RTVSPropertyOp46
 70
     1
102
RTVSPropertyOp47
 70
     1
102
RTVSPropertyOp48
 70
     1
102
RTVSPropertyOp49
 70
     1
102
RTVSPropertyOp50
 70
     1
102
RTVSPropertyOp51
 70
     0
102
RTVSPropertyOp52
 70
     0
102
RTVSPropertyOp53
 70
     1
102
RTVSPropertyOp54
 70
     1
102
RTVSPropertyOp55
 70
     1
102
RTVSPropertyOp56
 70
     1
102
RTVSPropertyOp57
 70
     1
102
RTVSPost2010Prop28
280
     0
102
RTVSPost2010PropOp28
 70
     1
102
RTVSPost2010Prop29
280
     1
102
RTVSPost2010PropOp29
 70
     1
102
RTVSPost2010Prop30
280
     1
102
RTVSPost2010PropOp30
 70
     1
102
RTVSPost2010Prop31
280
     0
102
RTVSPost2010PropOp31
 70
     1
102
RTVSPost2010Prop32
280
     0
102
RTVSPost2010PropOp32
 70
     1
102
RTVSPost2010Prop33
280
     0
102
RTVSPost2010PropOp33
 70
     1
102
RTVSPost2010Prop34
280
     0
102
RTVSPost2010PropOp34
 70
     1
102
RTVSPost2010Prop35
280
     0
102
RTVSPost2010PropOp35
 70
     1
102
RTVSPost2010Prop36
280
     0
102
RTVSPost2010PropOp36
 70
     1
102
RTVSPost2010Prop37
 90
       50
102
RTVSPost2010PropOp37
 70
     1
102
RTVSPost2010Prop38
140
0.0
102
RTVSPost2010PropOp38
 70
     1
102
RTVSPost2010Prop39
140
1.0
102
RTVSPost2010PropOp39
 70
     1
102
RTVSPost2010Prop40
 90
        0
102
RTVSPost2010PropOp40
 70
     1
102
RTVSPost2010Prop41ColorIndex
 90
       18
102
RTVSPost2010Prop41ColorRGB
 90
        0
102
RTVSPost2010PropOp41
 70
     1
102
RTVSPost2010Prop42
 90
       50
102
RTVSPost2010PropOp42
 70
     1
102
RTVSPost2010Prop43
 90
        3
102
RTVSPost2010PropOp43
 70
     1
102
RTVSPost2010Prop44ColorIndex
 90
        5
102
RTVSPost2010Prop44ColorRGB
 90
      255
102
RTVSPost2010PropOp44
 70
     1
102
RTVSPost2010Prop45
280
     0
102
RTVSPost2010PropOp45
 70
     1
102
RTVSPost2010Prop46
 90
       50
102
RTVSPost2010PropOp46
 70
     1
102
RTVSPost2010Prop47
 90
       50
102
RTVSPost2010PropOp47
 70
     1
102
RTVSPost2010Prop48
 90
       50
102
RTVSPost2010PropOp48
 70
     1
102
RTVSPost2010Prop49
280
     0
102
RTVSPost2010PropOp49
 70
     1
102
RTVSPost2010Prop50
 90
       50
102
RTVSPost2010PropOp50
 70
     1
102
RTVSPost2010Prop51ColorIndex
 90
      256
102
RTVSPost2010Prop51ColorRGB
 90
-16777216
102
RTVSPost2010PropOp51
 70
     0
102
RTVSPost2010Prop52
140
1.0
102
RTVSPost2010PropOp52
 70
     0
102
RTVSPost2010Prop53
 90
        2
102
RTVSPost2010PropOp53
 70
     1
102
RTVSPost2010Prop54
  1
strokes_ogs.tif
102
RTVSPost2010PropOp54
 70
     1
102
RTVSPost2010Prop55
280
     0
102
RTVSPost2010PropOp55
 70
     1
102
RTVSPost2010Prop56
140
1.0
102
RTVSPost2010PropOp56
 70
     1
102
RTVSPost2010Prop57
140
1.0
102
RTVSPost2010PropOp57
 70
     1
  0
XRECORD
  5
449E7
102
{ACAD_REACTORS
330
449E6
102
}
330
449E6
100
AcDbXrecord
280
     1
102
RTVSPropertyOp0
 70
     1
102
RTVSPropertyOp1
 70
     1
102
RTVSPropertyOp2
 70
     1
102
RTVSPropertyOp3
 70
     1
102
RTVSPropertyOp4
 70
     1
102
RTVSPropertyOp5
 70
     1
102
RTVSPropertyOp6
 70
     1
102
RTVSPropertyOp7
 70
     1
102
RTVSPropertyOp8
 70
     1
102
RTVSPropertyOp9
 70
     1
102
RTVSPropertyOp10
 70
     1
102
RTVSPropertyOp11
 70
     1
102
RTVSPropertyOp12
 70
     1
102
RTVSPropertyOp13
 70
     1
102
RTVSPropertyOp14
 70
     1
102
RTVSPropertyOp15
 70
     1
102
RTVSPropertyOp16
 70
     1
102
RTVSPropertyOp17
 70
     1
102
RTVSPropertyOp18
 70
     1
102
RTVSPropertyOp19
 70
     1
102
RTVSPropertyOp20
 70
     1
102
RTVSPropertyOp21
 70
     1
102
RTVSPropertyOp22
 70
     1
102
RTVSPropertyOp23
 70
     1
102
RTVSPropertyOp24
 70
     1
102
RTVSPropertyOp25
 70
     1
102
RTVSPropertyOp26
 70
     1
102
RTVSPropertyOp27
 70
     1
102
RTVSPropertyOp28
 70
     1
102
RTVSPropertyOp29
 70
     1
102
RTVSPropertyOp30
 70
     1
102
RTVSPropertyOp31
 70
     1
102
RTVSPropertyOp32
 70
     1
102
RTVSPropertyOp33
 70
     1
102
RTVSPropertyOp34
 70
     1
102
RTVSPropertyOp35
 70
     1
102
RTVSPropertyOp36
 70
     1
102
RTVSPropertyOp37
 70
     1
102
RTVSPropertyOp38
 70
     1
102
RTVSPropertyOp39
 70
     1
102
RTVSPropertyOp40
 70
     1
102
RTVSPropertyOp41
 70
     1
102
RTVSPropertyOp42
 70
     1
102
RTVSPropertyOp43
 70
     1
102
RTVSPropertyOp44
 70
     1
102
RTVSPropertyOp45
 70
     1
102
RTVSPropertyOp46
 70
     1
102
RTVSPropertyOp47
 70
     1
102
RTVSPropertyOp48
 70
     1
102
RTVSPropertyOp49
 70
     1
102
RTVSPropertyOp50
 70
     1
102
RTVSPropertyOp51
 70
     0
102
RTVSPropertyOp52
 70
     0
102
RTVSPropertyOp53
 70
     1
102
RTVSPropertyOp54
 70
     1
102
RTVSPropertyOp55
 70
     1
102
RTVSPropertyOp56
 70
     1
102
RTVSPropertyOp57
 70
     1
102
RTVSPost2010Prop28
280
     0
102
RTVSPost2010PropOp28
 70
     1
102
RTVSPost2010Prop29
280
     1
102
RTVSPost2010PropOp29
 70
     1
102
RTVSPost2010Prop30
280
     1
102
RTVSPost2010PropOp30
 70
     1
102
RTVSPost2010Prop31
280
     0
102
RTVSPost2010PropOp31
 70
     1
102
RTVSPost2010Prop32
280
     0
102
RTVSPost2010PropOp32
 70
     1
102
RTVSPost2010Prop33
280
     0
102
RTVSPost2010PropOp33
 70
     1
102
RTVSPost2010Prop34
280
     0
102
RTVSPost2010PropOp34
 70
     1
102
RTVSPost2010Prop35
280
     0
102
RTVSPost2010PropOp35
 70
     1
102
RTVSPost2010Prop36
280
     0
102
RTVSPost2010PropOp36
 70
     1
102
RTVSPost2010Prop37
 90
       50
102
RTVSPost2010PropOp37
 70
     1
102
RTVSPost2010Prop38
140
0.0
102
RTVSPost2010PropOp38
 70
     1
102
RTVSPost2010Prop39
140
1.0
102
RTVSPost2010PropOp39
 70
     1
102
RTVSPost2010Prop40
 90
        0
102
RTVSPost2010PropOp40
 70
     1
102
RTVSPost2010Prop41ColorIndex
 90
       18
102
RTVSPost2010Prop41ColorRGB
 90
        0
102
RTVSPost2010PropOp41
 70
     1
102
RTVSPost2010Prop42
 90
       50
102
RTVSPost2010PropOp42
 70
     1
102
RTVSPost2010Prop43
 90
        3
102
RTVSPost2010PropOp43
 70
     1
102
RTVSPost2010Prop44ColorIndex
 90
        5
102
RTVSPost2010Prop44ColorRGB
 90
      255
102
RTVSPost2010PropOp44
 70
     1
102
RTVSPost2010Prop45
280
     0
102
RTVSPost2010PropOp45
 70
     1
102
RTVSPost2010Prop46
 90
       50
102
RTVSPost2010PropOp46
 70
     1
102
RTVSPost2010Prop47
 90
       50
102
RTVSPost2010PropOp47
 70
     1
102
RTVSPost2010Prop48
 90
       50
102
RTVSPost2010PropOp48
 70
     1
102
RTVSPost2010Prop49
280
     0
102
RTVSPost2010PropOp49
 70
     1
102
RTVSPost2010Prop50
 90
       50
102
RTVSPost2010PropOp50
 70
     1
102
RTVSPost2010Prop51ColorIndex
 90
      256
102
RTVSPost2010Prop51ColorRGB
 90
-16777216
102
RTVSPost2010PropOp51
 70
     0
102
RTVSPost2010Prop52
140
1.0
102
RTVSPost2010PropOp52
 70
     0
102
RTVSPost2010Prop53
 90
        2
102
RTVSPost2010PropOp53
 70
     1
102
RTVSPost2010Prop54
  1
strokes_ogs.tif
102
RTVSPost2010PropOp54
 70
     1
102
RTVSPost2010Prop55
280
     0
102
RTVSPost2010PropOp55
 70
     1
102
RTVSPost2010Prop56
140
1.0
102
RTVSPost2010PropOp56
 70
     1
102
RTVSPost2010Prop57
140
1.0
102
RTVSPost2010PropOp57
 70
     1
  0
XRECORD
  5
449E9
102
{ACAD_REACTORS
330
449E8
102
}
330
449E8
100
AcDbXrecord
280
     1
102
RTVSPropertyOp0
 70
     1
102
RTVSPropertyOp1
 70
     1
102
RTVSPropertyOp2
 70
     1
102
RTVSPropertyOp3
 70
     1
102
RTVSPropertyOp4
 70
     1
102
RTVSPropertyOp5
 70
     1
102
RTVSPropertyOp6
 70
     1
102
RTVSPropertyOp7
 70
     1
102
RTVSPropertyOp8
 70
     1
102
RTVSPropertyOp9
 70
     1
102
RTVSPropertyOp10
 70
     1
102
RTVSPropertyOp11
 70
     1
102
RTVSPropertyOp12
 70
     1
102
RTVSPropertyOp13
 70
     1
102
RTVSPropertyOp14
 70
     1
102
RTVSPropertyOp15
 70
     1
102
RTVSPropertyOp16
 70
     1
102
RTVSPropertyOp17
 70
     1
102
RTVSPropertyOp18
 70
     1
102
RTVSPropertyOp19
 70
     1
102
RTVSPropertyOp20
 70
     1
102
RTVSPropertyOp21
 70
     1
102
RTVSPropertyOp22
 70
     1
102
RTVSPropertyOp23
 70
     1
102
RTVSPropertyOp24
 70
     1
102
RTVSPropertyOp25
 70
     1
102
RTVSPropertyOp26
 70
     1
102
RTVSPropertyOp27
 70
     1
102
RTVSPropertyOp28
 70
     1
102
RTVSPropertyOp29
 70
     1
102
RTVSPropertyOp30
 70
     1
102
RTVSPropertyOp31
 70
     1
102
RTVSPropertyOp32
 70
     1
102
RTVSPropertyOp33
 70
     1
102
RTVSPropertyOp34
 70
     1
102
RTVSPropertyOp35
 70
     1
102
RTVSPropertyOp36
 70
     1
102
RTVSPropertyOp37
 70
     1
102
RTVSPropertyOp38
 70
     1
102
RTVSPropertyOp39
 70
     1
102
RTVSPropertyOp40
 70
     1
102
RTVSPropertyOp41
 70
     1
102
RTVSPropertyOp42
 70
     1
102
RTVSPropertyOp43
 70
     1
102
RTVSPropertyOp44
 70
     1
102
RTVSPropertyOp45
 70
     1
102
RTVSPropertyOp46
 70
     1
102
RTVSPropertyOp47
 70
     1
102
RTVSPropertyOp48
 70
     1
102
RTVSPropertyOp49
 70
     1
102
RTVSPropertyOp50
 70
     1
102
RTVSPropertyOp51
 70
     0
102
RTVSPropertyOp52
 70
     0
102
RTVSPropertyOp53
 70
     1
102
RTVSPropertyOp54
 70
     1
102
RTVSPropertyOp55
 70
     1
102
RTVSPropertyOp56
 70
     1
102
RTVSPropertyOp57
 70
     1
102
RTVSPost2010Prop28
280
     0
102
RTVSPost2010PropOp28
 70
     1
102
RTVSPost2010Prop29
280
     1
102
RTVSPost2010PropOp29
 70
     1
102
RTVSPost2010Prop30
280
     1
102
RTVSPost2010PropOp30
 70
     1
102
RTVSPost2010Prop31
280
     0
102
RTVSPost2010PropOp31
 70
     1
102
RTVSPost2010Prop32
280
     0
102
RTVSPost2010PropOp32
 70
     1
102
RTVSPost2010Prop33
280
     0
102
RTVSPost2010PropOp33
 70
     1
102
RTVSPost2010Prop34
280
     0
102
RTVSPost2010PropOp34
 70
     1
102
RTVSPost2010Prop35
280
     0
102
RTVSPost2010PropOp35
 70
     1
102
RTVSPost2010Prop36
280
     0
102
RTVSPost2010PropOp36
 70
     1
102
RTVSPost2010Prop37
 90
       50
102
RTVSPost2010PropOp37
 70
     1
102
RTVSPost2010Prop38
140
0.0
102
RTVSPost2010PropOp38
 70
     1
102
RTVSPost2010Prop39
140
1.0
102
RTVSPost2010PropOp39
 70
     1
102
RTVSPost2010Prop40
 90
        0
102
RTVSPost2010PropOp40
 70
     1
102
RTVSPost2010Prop41ColorIndex
 90
       18
102
RTVSPost2010Prop41ColorRGB
 90
        0
102
RTVSPost2010PropOp41
 70
     1
102
RTVSPost2010Prop42
 90
       50
102
RTVSPost2010PropOp42
 70
     1
102
RTVSPost2010Prop43
 90
        3
102
RTVSPost2010PropOp43
 70
     1
102
RTVSPost2010Prop44ColorIndex
 90
        5
102
RTVSPost2010Prop44ColorRGB
 90
      255
102
RTVSPost2010PropOp44
 70
     1
102
RTVSPost2010Prop45
280
     0
102
RTVSPost2010PropOp45
 70
     1
102
RTVSPost2010Prop46
 90
       50
102
RTVSPost2010PropOp46
 70
     1
102
RTVSPost2010Prop47
 90
       50
102
RTVSPost2010PropOp47
 70
     1
102
RTVSPost2010Prop48
 90
       50
102
RTVSPost2010PropOp48
 70
     1
102
RTVSPost2010Prop49
280
     0
102
RTVSPost2010PropOp49
 70
     1
102
RTVSPost2010Prop50
 90
       50
102
RTVSPost2010PropOp50
 70
     1
102
RTVSPost2010Prop51ColorIndex
 90
      256
102
RTVSPost2010Prop51ColorRGB
 90
-16777216
102
RTVSPost2010PropOp51
 70
     0
102
RTVSPost2010Prop52
140
1.0
102
RTVSPost2010PropOp52
 70
     0
102
RTVSPost2010Prop53
 90
        2
102
RTVSPost2010PropOp53
 70
     1
102
RTVSPost2010Prop54
  1
strokes_ogs.tif
102
RTVSPost2010PropOp54
 70
     1
102
RTVSPost2010Prop55
280
     0
102
RTVSPost2010PropOp55
 70
     1
102
RTVSPost2010Prop56
140
1.0
102
RTVSPost2010PropOp56
 70
     1
102
RTVSPost2010Prop57
140
1.0
102
RTVSPost2010PropOp57
 70
     1
  0
XRECORD
  5
449EB
102
{ACAD_REACTORS
330
449EA
102
}
330
449EA
100
AcDbXrecord
280
     1
102
RTVSPropertyOp0
 70
     1
102
RTVSPropertyOp1
 70
     1
102
RTVSPropertyOp2
 70
     1
102
RTVSPropertyOp3
 70
     1
102
RTVSPropertyOp4
 70
     1
102
RTVSPropertyOp5
 70
     1
102
RTVSPropertyOp6
 70
     1
102
RTVSPropertyOp7
 70
     1
102
RTVSPropertyOp8
 70
     1
102
RTVSPropertyOp9
 70
     1
102
RTVSPropertyOp10
 70
     1
102
RTVSPropertyOp11
 70
     1
102
RTVSPropertyOp12
 70
     1
102
RTVSPropertyOp13
 70
     1
102
RTVSPropertyOp14
 70
     1
102
RTVSPropertyOp15
 70
     1
102
RTVSPropertyOp16
 70
     1
102
RTVSPropertyOp17
 70
     1
102
RTVSPropertyOp18
 70
     1
102
RTVSPropertyOp19
 70
     1
102
RTVSPropertyOp20
 70
     1
102
RTVSPropertyOp21
 70
     1
102
RTVSPropertyOp22
 70
     1
102
RTVSPropertyOp23
 70
     1
102
RTVSPropertyOp24
 70
     1
102
RTVSPropertyOp25
 70
     1
102
RTVSPropertyOp26
 70
     1
102
RTVSPropertyOp27
 70
     1
102
RTVSPropertyOp28
 70
     1
102
RTVSPropertyOp29
 70
     1
102
RTVSPropertyOp30
 70
     1
102
RTVSPropertyOp31
 70
     1
102
RTVSPropertyOp32
 70
     1
102
RTVSPropertyOp33
 70
     1
102
RTVSPropertyOp34
 70
     1
102
RTVSPropertyOp35
 70
     1
102
RTVSPropertyOp36
 70
     1
102
RTVSPropertyOp37
 70
     1
102
RTVSPropertyOp38
 70
     1
102
RTVSPropertyOp39
 70
     1
102
RTVSPropertyOp40
 70
     1
102
RTVSPropertyOp41
 70
     1
102
RTVSPropertyOp42
 70
     1
102
RTVSPropertyOp43
 70
     1
102
RTVSPropertyOp44
 70
     1
102
RTVSPropertyOp45
 70
     1
102
RTVSPropertyOp46
 70
     1
102
RTVSPropertyOp47
 70
     1
102
RTVSPropertyOp48
 70
     1
102
RTVSPropertyOp49
 70
     1
102
RTVSPropertyOp50
 70
     1
102
RTVSPropertyOp51
 70
     0
102
RTVSPropertyOp52
 70
     0
102
RTVSPropertyOp53
 70
     1
102
RTVSPropertyOp54
 70
     1
102
RTVSPropertyOp55
 70
     1
102
RTVSPropertyOp56
 70
     1
102
RTVSPropertyOp57
 70
     1
102
RTVSPost2010Prop28
280
     0
102
RTVSPost2010PropOp28
 70
     1
102
RTVSPost2010Prop29
280
     1
102
RTVSPost2010PropOp29
 70
     1
102
RTVSPost2010Prop30
280
     1
102
RTVSPost2010PropOp30
 70
     1
102
RTVSPost2010Prop31
280
     0
102
RTVSPost2010PropOp31
 70
     1
102
RTVSPost2010Prop32
280
     0
102
RTVSPost2010PropOp32
 70
     1
102
RTVSPost2010Prop33
280
     0
102
RTVSPost2010PropOp33
 70
     1
102
RTVSPost2010Prop34
280
     0
102
RTVSPost2010PropOp34
 70
     1
102
RTVSPost2010Prop35
280
     0
102
RTVSPost2010PropOp35
 70
     1
102
RTVSPost2010Prop36
280
     0
102
RTVSPost2010PropOp36
 70
     1
102
RTVSPost2010Prop37
 90
       50
102
RTVSPost2010PropOp37
 70
     1
102
RTVSPost2010Prop38
140
0.0
102
RTVSPost2010PropOp38
 70
     1
102
RTVSPost2010Prop39
140
1.0
102
RTVSPost2010PropOp39
 70
     1
102
RTVSPost2010Prop40
 90
        0
102
RTVSPost2010PropOp40
 70
     1
102
RTVSPost2010Prop41ColorIndex
 90
       18
102
RTVSPost2010Prop41ColorRGB
 90
        0
102
RTVSPost2010PropOp41
 70
     1
102
RTVSPost2010Prop42
 90
       50
102
RTVSPost2010PropOp42
 70
     1
102
RTVSPost2010Prop43
 90
        3
102
RTVSPost2010PropOp43
 70
     1
102
RTVSPost2010Prop44ColorIndex
 90
        5
102
RTVSPost2010Prop44ColorRGB
 90
      255
102
RTVSPost2010PropOp44
 70
     1
102
RTVSPost2010Prop45
280
     0
102
RTVSPost2010PropOp45
 70
     1
102
RTVSPost2010Prop46
 90
       50
102
RTVSPost2010PropOp46
 70
     1
102
RTVSPost2010Prop47
 90
       50
102
RTVSPost2010PropOp47
 70
     1
102
RTVSPost2010Prop48
 90
       50
102
RTVSPost2010PropOp48
 70
     1
102
RTVSPost2010Prop49
280
     0
102
RTVSPost2010PropOp49
 70
     1
102
RTVSPost2010Prop50
 90
       50
102
RTVSPost2010PropOp50
 70
     1
102
RTVSPost2010Prop51ColorIndex
 90
      256
102
RTVSPost2010Prop51ColorRGB
 90
-16777216
102
RTVSPost2010PropOp51
 70
     0
102
RTVSPost2010Prop52
140
1.0
102
RTVSPost2010PropOp52
 70
     0
102
RTVSPost2010Prop53
 90
        2
102
RTVSPost2010PropOp53
 70
     1
102
RTVSPost2010Prop54
  1
strokes_ogs.tif
102
RTVSPost2010PropOp54
 70
     1
102
RTVSPost2010Prop55
280
     0
102
RTVSPost2010PropOp55
 70
     1
102
RTVSPost2010Prop56
140
1.0
102
RTVSPost2010PropOp56
 70
     1
102
RTVSPost2010Prop57
140
1.0
102
RTVSPost2010PropOp57
 70
     1
  0
XRECORD
  5
449ED
102
{ACAD_REACTORS
330
449EC
102
}
330
449EC
100
AcDbXrecord
280
     1
102
RTVSPropertyOp0
 70
     0
102
RTVSPropertyOp1
 70
     0
102
RTVSPropertyOp2
 70
     0
102
RTVSPropertyOp3
 70
     0
102
RTVSPropertyOp4
 70
     0
102
RTVSPropertyOp5
 70
     0
102
RTVSPropertyOp6
 70
     0
102
RTVSPropertyOp7
 70
     0
102
RTVSPropertyOp8
 70
     0
102
RTVSPropertyOp9
 70
     0
102
RTVSPropertyOp10
 70
     0
102
RTVSPropertyOp11
 70
     0
102
RTVSPropertyOp12
 70
     0
102
RTVSPropertyOp13
 70
     0
102
RTVSPropertyOp14
 70
     0
102
RTVSPropertyOp15
 70
     0
102
RTVSPropertyOp16
 70
     0
102
RTVSPropertyOp17
 70
     0
102
RTVSPropertyOp18
 70
     0
102
RTVSPropertyOp19
 70
     0
102
RTVSPropertyOp20
 70
     0
102
RTVSPropertyOp21
 70
     0
102
RTVSPropertyOp22
 70
     0
102
RTVSPropertyOp23
 70
     0
102
RTVSPropertyOp24
 70
     0
102
RTVSPropertyOp25
 70
     0
102
RTVSPropertyOp26
 70
     0
102
RTVSPropertyOp27
 70
     0
102
RTVSPropertyOp28
 70
     1
102
RTVSPropertyOp29
 70
     1
102
RTVSPropertyOp30
 70
     1
102
RTVSPropertyOp31
 70
     1
102
RTVSPropertyOp32
 70
     1
102
RTVSPropertyOp33
 70
     1
102
RTVSPropertyOp34
 70
     1
102
RTVSPropertyOp35
 70
     1
102
RTVSPropertyOp36
 70
     1
102
RTVSPropertyOp37
 70
     1
102
RTVSPropertyOp38
 70
     1
102
RTVSPropertyOp39
 70
     1
102
RTVSPropertyOp40
 70
     1
102
RTVSPropertyOp41
 70
     1
102
RTVSPropertyOp42
 70
     1
102
RTVSPropertyOp43
 70
     1
102
RTVSPropertyOp44
 70
     1
102
RTVSPropertyOp45
 70
     1
102
RTVSPropertyOp46
 70
     1
102
RTVSPropertyOp47
 70
     1
102
RTVSPropertyOp48
 70
     1
102
RTVSPropertyOp49
 70
     1
102
RTVSPropertyOp50
 70
     1
102
RTVSPropertyOp51
 70
     0
102
RTVSPropertyOp52
 70
     0
102
RTVSPropertyOp53
 70
     1
102
RTVSPropertyOp54
 70
     1
102
RTVSPropertyOp55
 70
     1
102
RTVSPropertyOp56
 70
     1
102
RTVSPropertyOp57
 70
     1
102
RTVSPost2010Prop28
280
     0
102
RTVSPost2010PropOp28
 70
     1
102
RTVSPost2010Prop29
280
     1
102
RTVSPost2010PropOp29
 70
     1
102
RTVSPost2010Prop30
280
     1
102
RTVSPost2010PropOp30
 70
     1
102
RTVSPost2010Prop31
280
     0
102
RTVSPost2010PropOp31
 70
     1
102
RTVSPost2010Prop32
280
     0
102
RTVSPost2010PropOp32
 70
     1
102
RTVSPost2010Prop33
280
     0
102
RTVSPost2010PropOp33
 70
     1
102
RTVSPost2010Prop34
280
     0
102
RTVSPost2010PropOp34
 70
     1
102
RTVSPost2010Prop35
280
     0
102
RTVSPost2010PropOp35
 70
     1
102
RTVSPost2010Prop36
280
     0
102
RTVSPost2010PropOp36
 70
     1
102
RTVSPost2010Prop37
 90
       50
102
RTVSPost2010PropOp37
 70
     1
102
RTVSPost2010Prop38
140
0.0
102
RTVSPost2010PropOp38
 70
     1
102
RTVSPost2010Prop39
140
1.0
102
RTVSPost2010PropOp39
 70
     1
102
RTVSPost2010Prop40
 90
        0
102
RTVSPost2010PropOp40
 70
     1
102
RTVSPost2010Prop41ColorIndex
 90
       18
102
RTVSPost2010Prop41ColorRGB
 90
        0
102
RTVSPost2010PropOp41
 70
     1
102
RTVSPost2010Prop42
 90
       50
102
RTVSPost2010PropOp42
 70
     1
102
RTVSPost2010Prop43
 90
        3
102
RTVSPost2010PropOp43
 70
     1
102
RTVSPost2010Prop44ColorIndex
 90
        5
102
RTVSPost2010Prop44ColorRGB
 90
      255
102
RTVSPost2010PropOp44
 70
     1
102
RTVSPost2010Prop45
280
     0
102
RTVSPost2010PropOp45
 70
     1
102
RTVSPost2010Prop46
 90
       50
102
RTVSPost2010PropOp46
 70
     1
102
RTVSPost2010Prop47
 90
       50
102
RTVSPost2010PropOp47
 70
     1
102
RTVSPost2010Prop48
 90
       50
102
RTVSPost2010PropOp48
 70
     1
102
RTVSPost2010Prop49
280
     0
102
RTVSPost2010PropOp49
 70
     1
102
RTVSPost2010Prop50
 90
       50
102
RTVSPost2010PropOp50
 70
     1
102
RTVSPost2010Prop51ColorIndex
 90
      256
102
RTVSPost2010Prop51ColorRGB
 90
-16777216
102
RTVSPost2010PropOp51
 70
     0
102
RTVSPost2010Prop52
140
1.0
102
RTVSPost2010PropOp52
 70
     0
102
RTVSPost2010Prop53
 90
        2
102
RTVSPost2010PropOp53
 70
     1
102
RTVSPost2010Prop54
  1
strokes_ogs.tif
102
RTVSPost2010PropOp54
 70
     1
102
RTVSPost2010Prop55
280
     0
102
RTVSPost2010PropOp55
 70
     1
102
RTVSPost2010Prop56
140
1.0
102
RTVSPost2010PropOp56
 70
     1
102
RTVSPost2010Prop57
140
1.0
102
RTVSPost2010PropOp57
 70
     1
  0
XRECORD
  5
449EF
102
{ACAD_REACTORS
330
449EE
102
}
330
449EE
100
AcDbXrecord
280
     1
102
RTVSPropertyOp0
 70
     1
102
RTVSPropertyOp1
 70
     1
102
RTVSPropertyOp2
 70
     1
102
RTVSPropertyOp3
 70
     1
102
RTVSPropertyOp4
 70
     1
102
RTVSPropertyOp5
 70
     1
102
RTVSPropertyOp6
 70
     1
102
RTVSPropertyOp7
 70
     1
102
RTVSPropertyOp8
 70
     1
102
RTVSPropertyOp9
 70
     1
102
RTVSPropertyOp10
 70
     1
102
RTVSPropertyOp11
 70
     1
102
RTVSPropertyOp12
 70
     1
102
RTVSPropertyOp13
 70
     1
102
RTVSPropertyOp14
 70
     1
102
RTVSPropertyOp15
 70
     1
102
RTVSPropertyOp16
 70
     1
102
RTVSPropertyOp17
 70
     1
102
RTVSPropertyOp18
 70
     1
102
RTVSPropertyOp19
 70
     1
102
RTVSPropertyOp20
 70
     1
102
RTVSPropertyOp21
 70
     1
102
RTVSPropertyOp22
 70
     1
102
RTVSPropertyOp23
 70
     1
102
RTVSPropertyOp24
 70
     1
102
RTVSPropertyOp25
 70
     1
102
RTVSPropertyOp26
 70
     1
102
RTVSPropertyOp27
 70
     1
102
RTVSPropertyOp28
 70
     1
102
RTVSPropertyOp29
 70
     1
102
RTVSPropertyOp30
 70
     1
102
RTVSPropertyOp31
 70
     1
102
RTVSPropertyOp32
 70
     1
102
RTVSPropertyOp33
 70
     1
102
RTVSPropertyOp34
 70
     1
102
RTVSPropertyOp35
 70
     1
102
RTVSPropertyOp36
 70
     1
102
RTVSPropertyOp37
 70
     1
102
RTVSPropertyOp38
 70
     1
102
RTVSPropertyOp39
 70
     1
102
RTVSPropertyOp40
 70
     1
102
RTVSPropertyOp41
 70
     1
102
RTVSPropertyOp42
 70
     1
102
RTVSPropertyOp43
 70
     1
102
RTVSPropertyOp44
 70
     1
102
RTVSPropertyOp45
 70
     1
102
RTVSPropertyOp46
 70
     1
102
RTVSPropertyOp47
 70
     1
102
RTVSPropertyOp48
 70
     1
102
RTVSPropertyOp49
 70
     1
102
RTVSPropertyOp50
 70
     1
102
RTVSPropertyOp51
 70
     0
102
RTVSPropertyOp52
 70
     0
102
RTVSPropertyOp53
 70
     1
102
RTVSPropertyOp54
 70
     1
102
RTVSPropertyOp55
 70
     1
102
RTVSPropertyOp56
 70
     1
102
RTVSPropertyOp57
 70
     1
102
RTVSPost2010Prop28
280
     0
102
RTVSPost2010PropOp28
 70
     1
102
RTVSPost2010Prop29
280
     1
102
RTVSPost2010PropOp29
 70
     1
102
RTVSPost2010Prop30
280
     1
102
RTVSPost2010PropOp30
 70
     1
102
RTVSPost2010Prop31
280
     0
102
RTVSPost2010PropOp31
 70
     1
102
RTVSPost2010Prop32
280
     0
102
RTVSPost2010PropOp32
 70
     1
102
RTVSPost2010Prop33
280
     0
102
RTVSPost2010PropOp33
 70
     1
102
RTVSPost2010Prop34
280
     0
102
RTVSPost2010PropOp34
 70
     1
102
RTVSPost2010Prop35
280
     0
102
RTVSPost2010PropOp35
 70
     1
102
RTVSPost2010Prop36
280
     0
102
RTVSPost2010PropOp36
 70
     1
102
RTVSPost2010Prop37
 90
       50
102
RTVSPost2010PropOp37
 70
     1
102
RTVSPost2010Prop38
140
0.0
102
RTVSPost2010PropOp38
 70
     1
102
RTVSPost2010Prop39
140
1.0
102
RTVSPost2010PropOp39
 70
     1
102
RTVSPost2010Prop40
 90
        0
102
RTVSPost2010PropOp40
 70
     1
102
RTVSPost2010Prop41ColorIndex
 90
       18
102
RTVSPost2010Prop41ColorRGB
 90
        0
102
RTVSPost2010PropOp41
 70
     1
102
RTVSPost2010Prop42
 90
       50
102
RTVSPost2010PropOp42
 70
     1
102
RTVSPost2010Prop43
 90
        3
102
RTVSPost2010PropOp43
 70
     1
102
RTVSPost2010Prop44ColorIndex
 90
        5
102
RTVSPost2010Prop44ColorRGB
 90
      255
102
RTVSPost2010PropOp44
 70
     1
102
RTVSPost2010Prop45
280
     0
102
RTVSPost2010PropOp45
 70
     1
102
RTVSPost2010Prop46
 90
       50
102
RTVSPost2010PropOp46
 70
     1
102
RTVSPost2010Prop47
 90
       50
102
RTVSPost2010PropOp47
 70
     1
102
RTVSPost2010Prop48
 90
       50
102
RTVSPost2010PropOp48
 70
     1
102
RTVSPost2010Prop49
280
     0
102
RTVSPost2010PropOp49
 70
     1
102
RTVSPost2010Prop50
 90
       50
102
RTVSPost2010PropOp50
 70
     1
102
RTVSPost2010Prop51ColorIndex
 90
      256
102
RTVSPost2010Prop51ColorRGB
 90
-16777216
102
RTVSPost2010PropOp51
 70
     0
102
RTVSPost2010Prop52
140
1.0
102
RTVSPost2010PropOp52
 70
     0
102
RTVSPost2010Prop53
 90
        2
102
RTVSPost2010PropOp53
 70
     1
102
RTVSPost2010Prop54
  1
strokes_ogs.tif
102
RTVSPost2010PropOp54
 70
     1
102
RTVSPost2010Prop55
280
     0
102
RTVSPost2010PropOp55
 70
     1
102
RTVSPost2010Prop56
140
1.0
102
RTVSPost2010PropOp56
 70
     1
102
RTVSPost2010Prop57
140
1.0
102
RTVSPost2010PropOp57
 70
     1
  0
XRECORD
  5
449F1
102
{ACAD_REACTORS
330
449F0
102
}
330
449F0
100
AcDbXrecord
280
     1
102
RTVSPropertyOp0
 70
     0
102
RTVSPropertyOp1
 70
     0
102
RTVSPropertyOp2
 70
     0
102
RTVSPropertyOp3
 70
     0
102
RTVSPropertyOp4
 70
     0
102
RTVSPropertyOp5
 70
     0
102
RTVSPropertyOp6
 70
     0
102
RTVSPropertyOp7
 70
     0
102
RTVSPropertyOp8
 70
     0
102
RTVSPropertyOp9
 70
     0
102
RTVSPropertyOp10
 70
     0
102
RTVSPropertyOp11
 70
     0
102
RTVSPropertyOp12
 70
     0
102
RTVSPropertyOp13
 70
     0
102
RTVSPropertyOp14
 70
     0
102
RTVSPropertyOp15
 70
     0
102
RTVSPropertyOp16
 70
     0
102
RTVSPropertyOp17
 70
     0
102
RTVSPropertyOp18
 70
     0
102
RTVSPropertyOp19
 70
     0
102
RTVSPropertyOp20
 70
     0
102
RTVSPropertyOp21
 70
     0
102
RTVSPropertyOp22
 70
     0
102
RTVSPropertyOp23
 70
     0
102
RTVSPropertyOp24
 70
     0
102
RTVSPropertyOp25
 70
     0
102
RTVSPropertyOp26
 70
     0
102
RTVSPropertyOp27
 70
     0
102
RTVSPropertyOp28
 70
     1
102
RTVSPropertyOp29
 70
     1
102
RTVSPropertyOp30
 70
     1
102
RTVSPropertyOp31
 70
     1
102
RTVSPropertyOp32
 70
     1
102
RTVSPropertyOp33
 70
     1
102
RTVSPropertyOp34
 70
     1
102
RTVSPropertyOp35
 70
     1
102
RTVSPropertyOp36
 70
     1
102
RTVSPropertyOp37
 70
     1
102
RTVSPropertyOp38
 70
     1
102
RTVSPropertyOp39
 70
     1
102
RTVSPropertyOp40
 70
     1
102
RTVSPropertyOp41
 70
     1
102
RTVSPropertyOp42
 70
     1
102
RTVSPropertyOp43
 70
     1
102
RTVSPropertyOp44
 70
     1
102
RTVSPropertyOp45
 70
     1
102
RTVSPropertyOp46
 70
     1
102
RTVSPropertyOp47
 70
     1
102
RTVSPropertyOp48
 70
     1
102
RTVSPropertyOp49
 70
     1
102
RTVSPropertyOp50
 70
     1
102
RTVSPropertyOp51
 70
     0
102
RTVSPropertyOp52
 70
     0
102
RTVSPropertyOp53
 70
     1
102
RTVSPropertyOp54
 70
     1
102
RTVSPropertyOp55
 70
     1
102
RTVSPropertyOp56
 70
     1
102
RTVSPropertyOp57
 70
     1
102
RTVSPost2010Prop28
280
     0
102
RTVSPost2010PropOp28
 70
     1
102
RTVSPost2010Prop29
280
     1
102
RTVSPost2010PropOp29
 70
     1
102
RTVSPost2010Prop30
280
     1
102
RTVSPost2010PropOp30
 70
     1
102
RTVSPost2010Prop31
280
     0
102
RTVSPost2010PropOp31
 70
     1
102
RTVSPost2010Prop32
280
     0
102
RTVSPost2010PropOp32
 70
     1
102
RTVSPost2010Prop33
280
     0
102
RTVSPost2010PropOp33
 70
     1
102
RTVSPost2010Prop34
280
     0
102
RTVSPost2010PropOp34
 70
     1
102
RTVSPost2010Prop35
280
     0
102
RTVSPost2010PropOp35
 70
     1
102
RTVSPost2010Prop36
280
     0
102
RTVSPost2010PropOp36
 70
     1
102
RTVSPost2010Prop37
 90
       50
102
RTVSPost2010PropOp37
 70
     1
102
RTVSPost2010Prop38
140
0.0
102
RTVSPost2010PropOp38
 70
     1
102
RTVSPost2010Prop39
140
1.0
102
RTVSPost2010PropOp39
 70
     1
102
RTVSPost2010Prop40
 90
        0
102
RTVSPost2010PropOp40
 70
     1
102
RTVSPost2010Prop41ColorIndex
 90
       18
102
RTVSPost2010Prop41ColorRGB
 90
        0
102
RTVSPost2010PropOp41
 70
     1
102
RTVSPost2010Prop42
 90
       50
102
RTVSPost2010PropOp42
 70
     1
102
RTVSPost2010Prop43
 90
        3
102
RTVSPost2010PropOp43
 70
     1
102
RTVSPost2010Prop44ColorIndex
 90
        5
102
RTVSPost2010Prop44ColorRGB
 90
      255
102
RTVSPost2010PropOp44
 70
     1
102
RTVSPost2010Prop45
280
     0
102
RTVSPost2010PropOp45
 70
     1
102
RTVSPost2010Prop46
 90
       50
102
RTVSPost2010PropOp46
 70
     1
102
RTVSPost2010Prop47
 90
       50
102
RTVSPost2010PropOp47
 70
     1
102
RTVSPost2010Prop48
 90
       50
102
RTVSPost2010PropOp48
 70
     1
102
RTVSPost2010Prop49
280
     0
102
RTVSPost2010PropOp49
 70
     1
102
RTVSPost2010Prop50
 90
       50
102
RTVSPost2010PropOp50
 70
     1
102
RTVSPost2010Prop51ColorIndex
 90
      256
102
RTVSPost2010Prop51ColorRGB
 90
-16777216
102
RTVSPost2010PropOp51
 70
     0
102
RTVSPost2010Prop52
140
1.0
102
RTVSPost2010PropOp52
 70
     0
102
RTVSPost2010Prop53
 90
        2
102
RTVSPost2010PropOp53
 70
     1
102
RTVSPost2010Prop54
  1
strokes_ogs.tif
102
RTVSPost2010PropOp54
 70
     1
102
RTVSPost2010Prop55
280
     0
102
RTVSPost2010PropOp55
 70
     1
102
RTVSPost2010Prop56
140
1.0
102
RTVSPost2010PropOp56
 70
     1
102
RTVSPost2010Prop57
140
1.0
102
RTVSPost2010PropOp57
 70
     1
  0
XRECORD
  5
449F3
102
{ACAD_REACTORS
330
449F2
102
}
330
449F2
100
AcDbXrecord
280
     1
102
RTVSPropertyOp0
 70
     1
102
RTVSPropertyOp1
 70
     1
102
RTVSPropertyOp2
 70
     1
102
RTVSPropertyOp3
 70
     1
102
RTVSPropertyOp4
 70
     1
102
RTVSPropertyOp5
 70
     1
102
RTVSPropertyOp6
 70
     1
102
RTVSPropertyOp7
 70
     1
102
RTVSPropertyOp8
 70
     1
102
RTVSPropertyOp9
 70
     1
102
RTVSPropertyOp10
 70
     1
102
RTVSPropertyOp11
 70
     1
102
RTVSPropertyOp12
 70
     1
102
RTVSPropertyOp13
 70
     1
102
RTVSPropertyOp14
 70
     1
102
RTVSPropertyOp15
 70
     1
102
RTVSPropertyOp16
 70
     1
102
RTVSPropertyOp17
 70
     1
102
RTVSPropertyOp18
 70
     1
102
RTVSPropertyOp19
 70
     1
102
RTVSPropertyOp20
 70
     1
102
RTVSPropertyOp21
 70
     1
102
RTVSPropertyOp22
 70
     1
102
RTVSPropertyOp23
 70
     1
102
RTVSPropertyOp24
 70
     1
102
RTVSPropertyOp25
 70
     1
102
RTVSPropertyOp26
 70
     1
102
RTVSPropertyOp27
 70
     1
102
RTVSPropertyOp28
 70
     1
102
RTVSPropertyOp29
 70
     1
102
RTVSPropertyOp30
 70
     1
102
RTVSPropertyOp31
 70
     1
102
RTVSPropertyOp32
 70
     1
102
RTVSPropertyOp33
 70
     1
102
RTVSPropertyOp34
 70
     1
102
RTVSPropertyOp35
 70
     1
102
RTVSPropertyOp36
 70
     1
102
RTVSPropertyOp37
 70
     1
102
RTVSPropertyOp38
 70
     1
102
RTVSPropertyOp39
 70
     1
102
RTVSPropertyOp40
 70
     1
102
RTVSPropertyOp41
 70
     1
102
RTVSPropertyOp42
 70
     1
102
RTVSPropertyOp43
 70
     1
102
RTVSPropertyOp44
 70
     1
102
RTVSPropertyOp45
 70
     1
102
RTVSPropertyOp46
 70
     1
102
RTVSPropertyOp47
 70
     1
102
RTVSPropertyOp48
 70
     1
102
RTVSPropertyOp49
 70
     1
102
RTVSPropertyOp50
 70
     1
102
RTVSPropertyOp51
 70
     0
102
RTVSPropertyOp52
 70
     0
102
RTVSPropertyOp53
 70
     1
102
RTVSPropertyOp54
 70
     1
102
RTVSPropertyOp55
 70
     1
102
RTVSPropertyOp56
 70
     1
102
RTVSPropertyOp57
 70
     1
102
RTVSPost2010Prop28
280
     0
102
RTVSPost2010PropOp28
 70
     1
102
RTVSPost2010Prop29
280
     1
102
RTVSPost2010PropOp29
 70
     1
102
RTVSPost2010Prop30
280
     1
102
RTVSPost2010PropOp30
 70
     1
102
RTVSPost2010Prop31
280
     0
102
RTVSPost2010PropOp31
 70
     1
102
RTVSPost2010Prop32
280
     0
102
RTVSPost2010PropOp32
 70
     1
102
RTVSPost2010Prop33
280
     0
102
RTVSPost2010PropOp33
 70
     1
102
RTVSPost2010Prop34
280
     0
102
RTVSPost2010PropOp34
 70
     1
102
RTVSPost2010Prop35
280
     0
102
RTVSPost2010PropOp35
 70
     1
102
RTVSPost2010Prop36
280
     0
102
RTVSPost2010PropOp36
 70
     1
102
RTVSPost2010Prop37
 90
       50
102
RTVSPost2010PropOp37
 70
     1
102
RTVSPost2010Prop38
140
0.0
102
RTVSPost2010PropOp38
 70
     1
102
RTVSPost2010Prop39
140
1.0
102
RTVSPost2010PropOp39
 70
     1
102
RTVSPost2010Prop40
 90
        0
102
RTVSPost2010PropOp40
 70
     1
102
RTVSPost2010Prop41ColorIndex
 90
       18
102
RTVSPost2010Prop41ColorRGB
 90
        0
102
RTVSPost2010PropOp41
 70
     1
102
RTVSPost2010Prop42
 90
       50
102
RTVSPost2010PropOp42
 70
     1
102
RTVSPost2010Prop43
 90
        3
102
RTVSPost2010PropOp43
 70
     1
102
RTVSPost2010Prop44ColorIndex
 90
        5
102
RTVSPost2010Prop44ColorRGB
 90
      255
102
RTVSPost2010PropOp44
 70
     1
102
RTVSPost2010Prop45
280
     0
102
RTVSPost2010PropOp45
 70
     1
102
RTVSPost2010Prop46
 90
       50
102
RTVSPost2010PropOp46
 70
     1
102
RTVSPost2010Prop47
 90
       50
102
RTVSPost2010PropOp47
 70
     1
102
RTVSPost2010Prop48
 90
       50
102
RTVSPost2010PropOp48
 70
     1
102
RTVSPost2010Prop49
280
     0
102
RTVSPost2010PropOp49
 70
     1
102
RTVSPost2010Prop50
 90
       50
102
RTVSPost2010PropOp50
 70
     1
102
RTVSPost2010Prop51ColorIndex
 90
      256
102
RTVSPost2010Prop51ColorRGB
 90
-16777216
102
RTVSPost2010PropOp51
 70
     0
102
RTVSPost2010Prop52
140
1.0
102
RTVSPost2010PropOp52
 70
     0
102
RTVSPost2010Prop53
 90
        2
102
RTVSPost2010PropOp53
 70
     1
102
RTVSPost2010Prop54
  1
strokes_ogs.tif
102
RTVSPost2010PropOp54
 70
     1
102
RTVSPost2010Prop55
280
     0
102
RTVSPost2010PropOp55
 70
     1
102
RTVSPost2010Prop56
140
1.0
102
RTVSPost2010PropOp56
 70
     1
102
RTVSPost2010Prop57
140
1.0
102
RTVSPost2010PropOp57
 70
     1
  0
XRECORD
  5
449F5
102
{ACAD_REACTORS
330
449F4
102
}
330
449F4
100
AcDbXrecord
280
     1
102
RTVSPropertyOp0
 70
     1
102
RTVSPropertyOp1
 70
     1
102
RTVSPropertyOp2
 70
     1
102
RTVSPropertyOp3
 70
     1
102
RTVSPropertyOp4
 70
     1
102
RTVSPropertyOp5
 70
     1
102
RTVSPropertyOp6
 70
     1
102
RTVSPropertyOp7
 70
     1
102
RTVSPropertyOp8
 70
     1
102
RTVSPropertyOp9
 70
     1
102
RTVSPropertyOp10
 70
     1
102
RTVSPropertyOp11
 70
     1
102
RTVSPropertyOp12
 70
     1
102
RTVSPropertyOp13
 70
     1
102
RTVSPropertyOp14
 70
     1
102
RTVSPropertyOp15
 70
     1
102
RTVSPropertyOp16
 70
     1
102
RTVSPropertyOp17
 70
     1
102
RTVSPropertyOp18
 70
     1
102
RTVSPropertyOp19
 70
     1
102
RTVSPropertyOp20
 70
     1
102
RTVSPropertyOp21
 70
     1
102
RTVSPropertyOp22
 70
     1
102
RTVSPropertyOp23
 70
     1
102
RTVSPropertyOp24
 70
     1
102
RTVSPropertyOp25
 70
     1
102
RTVSPropertyOp26
 70
     1
102
RTVSPropertyOp27
 70
     1
102
RTVSPropertyOp28
 70
     1
102
RTVSPropertyOp29
 70
     1
102
RTVSPropertyOp30
 70
     1
102
RTVSPropertyOp31
 70
     1
102
RTVSPropertyOp32
 70
     1
102
RTVSPropertyOp33
 70
     1
102
RTVSPropertyOp34
 70
     1
102
RTVSPropertyOp35
 70
     1
102
RTVSPropertyOp36
 70
     1
102
RTVSPropertyOp37
 70
     1
102
RTVSPropertyOp38
 70
     1
102
RTVSPropertyOp39
 70
     1
102
RTVSPropertyOp40
 70
     1
102
RTVSPropertyOp41
 70
     1
102
RTVSPropertyOp42
 70
     1
102
RTVSPropertyOp43
 70
     1
102
RTVSPropertyOp44
 70
     1
102
RTVSPropertyOp45
 70
     1
102
RTVSPropertyOp46
 70
     1
102
RTVSPropertyOp47
 70
     1
102
RTVSPropertyOp48
 70
     1
102
RTVSPropertyOp49
 70
     1
102
RTVSPropertyOp50
 70
     1
102
RTVSPropertyOp51
 70
     0
102
RTVSPropertyOp52
 70
     0
102
RTVSPropertyOp53
 70
     1
102
RTVSPropertyOp54
 70
     1
102
RTVSPropertyOp55
 70
     1
102
RTVSPropertyOp56
 70
     1
102
RTVSPropertyOp57
 70
     1
102
RTVSPost2010Prop28
280
     0
102
RTVSPost2010PropOp28
 70
     1
102
RTVSPost2010Prop29
280
     1
102
RTVSPost2010PropOp29
 70
     1
102
RTVSPost2010Prop30
280
     1
102
RTVSPost2010PropOp30
 70
     1
102
RTVSPost2010Prop31
280
     0
102
RTVSPost2010PropOp31
 70
     1
102
RTVSPost2010Prop32
280
     0
102
RTVSPost2010PropOp32
 70
     1
102
RTVSPost2010Prop33
280
     0
102
RTVSPost2010PropOp33
 70
     1
102
RTVSPost2010Prop34
280
     0
102
RTVSPost2010PropOp34
 70
     1
102
RTVSPost2010Prop35
280
     0
102
RTVSPost2010PropOp35
 70
     1
102
RTVSPost2010Prop36
280
     0
102
RTVSPost2010PropOp36
 70
     1
102
RTVSPost2010Prop37
 90
       50
102
RTVSPost2010PropOp37
 70
     1
102
RTVSPost2010Prop38
140
0.0
102
RTVSPost2010PropOp38
 70
     1
102
RTVSPost2010Prop39
140
1.0
102
RTVSPost2010PropOp39
 70
     1
102
RTVSPost2010Prop40
 90
        0
102
RTVSPost2010PropOp40
 70
     1
102
RTVSPost2010Prop41ColorIndex
 90
       18
102
RTVSPost2010Prop41ColorRGB
 90
        0
102
RTVSPost2010PropOp41
 70
     1
102
RTVSPost2010Prop42
 90
       50
102
RTVSPost2010PropOp42
 70
     1
102
RTVSPost2010Prop43
 90
        3
102
RTVSPost2010PropOp43
 70
     1
102
RTVSPost2010Prop44ColorIndex
 90
        5
102
RTVSPost2010Prop44ColorRGB
 90
      255
102
RTVSPost2010PropOp44
 70
     1
102
RTVSPost2010Prop45
280
     0
102
RTVSPost2010PropOp45
 70
     1
102
RTVSPost2010Prop46
 90
       50
102
RTVSPost2010PropOp46
 70
     1
102
RTVSPost2010Prop47
 90
       50
102
RTVSPost2010PropOp47
 70
     1
102
RTVSPost2010Prop48
 90
       50
102
RTVSPost2010PropOp48
 70
     1
102
RTVSPost2010Prop49
280
     0
102
RTVSPost2010PropOp49
 70
     1
102
RTVSPost2010Prop50
 90
       50
102
RTVSPost2010PropOp50
 70
     1
102
RTVSPost2010Prop51ColorIndex
 90
      256
102
RTVSPost2010Prop51ColorRGB
 90
-16777216
102
RTVSPost2010PropOp51
 70
     0
102
RTVSPost2010Prop52
140
1.0
102
RTVSPost2010PropOp52
 70
     0
102
RTVSPost2010Prop53
 90
        2
102
RTVSPost2010PropOp53
 70
     1
102
RTVSPost2010Prop54
  1
strokes_ogs.tif
102
RTVSPost2010PropOp54
 70
     1
102
RTVSPost2010Prop55
280
     0
102
RTVSPost2010PropOp55
 70
     1
102
RTVSPost2010Prop56
140
1.0
102
RTVSPost2010PropOp56
 70
     1
102
RTVSPost2010Prop57
140
1.0
102
RTVSPost2010PropOp57
 70
     1
  0
XRECORD
  5
449F7
102
{ACAD_REACTORS
330
449F6
102
}
330
449F6
100
AcDbXrecord
280
     1
102
RTVSPropertyOp0
 70
     1
102
RTVSPropertyOp1
 70
     1
102
RTVSPropertyOp2
 70
     1
102
RTVSPropertyOp3
 70
     1
102
RTVSPropertyOp4
 70
     1
102
RTVSPropertyOp5
 70
     1
102
RTVSPropertyOp6
 70
     1
102
RTVSPropertyOp7
 70
     1
102
RTVSPropertyOp8
 70
     1
102
RTVSPropertyOp9
 70
     1
102
RTVSPropertyOp10
 70
     1
102
RTVSPropertyOp11
 70
     1
102
RTVSPropertyOp12
 70
     1
102
RTVSPropertyOp13
 70
     1
102
RTVSPropertyOp14
 70
     1
102
RTVSPropertyOp15
 70
     1
102
RTVSPropertyOp16
 70
     1
102
RTVSPropertyOp17
 70
     1
102
RTVSPropertyOp18
 70
     1
102
RTVSPropertyOp19
 70
     1
102
RTVSPropertyOp20
 70
     1
102
RTVSPropertyOp21
 70
     1
102
RTVSPropertyOp22
 70
     1
102
RTVSPropertyOp23
 70
     1
102
RTVSPropertyOp24
 70
     1
102
RTVSPropertyOp25
 70
     1
102
RTVSPropertyOp26
 70
     1
102
RTVSPropertyOp27
 70
     1
102
RTVSPropertyOp28
 70
     1
102
RTVSPropertyOp29
 70
     1
102
RTVSPropertyOp30
 70
     1
102
RTVSPropertyOp31
 70
     1
102
RTVSPropertyOp32
 70
     1
102
RTVSPropertyOp33
 70
     1
102
RTVSPropertyOp34
 70
     1
102
RTVSPropertyOp35
 70
     1
102
RTVSPropertyOp36
 70
     1
102
RTVSPropertyOp37
 70
     1
102
RTVSPropertyOp38
 70
     1
102
RTVSPropertyOp39
 70
     1
102
RTVSPropertyOp40
 70
     1
102
RTVSPropertyOp41
 70
     1
102
RTVSPropertyOp42
 70
     1
102
RTVSPropertyOp43
 70
     1
102
RTVSPropertyOp44
 70
     1
102
RTVSPropertyOp45
 70
     1
102
RTVSPropertyOp46
 70
     1
102
RTVSPropertyOp47
 70
     1
102
RTVSPropertyOp48
 70
     1
102
RTVSPropertyOp49
 70
     1
102
RTVSPropertyOp50
 70
     1
102
RTVSPropertyOp51
 70
     0
102
RTVSPropertyOp52
 70
     0
102
RTVSPropertyOp53
 70
     1
102
RTVSPropertyOp54
 70
     1
102
RTVSPropertyOp55
 70
     1
102
RTVSPropertyOp56
 70
     1
102
RTVSPropertyOp57
 70
     1
102
RTVSPost2010Prop28
280
     0
102
RTVSPost2010PropOp28
 70
     1
102
RTVSPost2010Prop29
280
     1
102
RTVSPost2010PropOp29
 70
     1
102
RTVSPost2010Prop30
280
     1
102
RTVSPost2010PropOp30
 70
     1
102
RTVSPost2010Prop31
280
     0
102
RTVSPost2010PropOp31
 70
     1
102
RTVSPost2010Prop32
280
     0
102
RTVSPost2010PropOp32
 70
     1
102
RTVSPost2010Prop33
280
     0
102
RTVSPost2010PropOp33
 70
     1
102
RTVSPost2010Prop34
280
     0
102
RTVSPost2010PropOp34
 70
     1
102
RTVSPost2010Prop35
280
     0
102
RTVSPost2010PropOp35
 70
     1
102
RTVSPost2010Prop36
280
     0
102
RTVSPost2010PropOp36
 70
     1
102
RTVSPost2010Prop37
 90
       50
102
RTVSPost2010PropOp37
 70
     1
102
RTVSPost2010Prop38
140
0.0
102
RTVSPost2010PropOp38
 70
     1
102
RTVSPost2010Prop39
140
1.0
102
RTVSPost2010PropOp39
 70
     1
102
RTVSPost2010Prop40
 90
        0
102
RTVSPost2010PropOp40
 70
     1
102
RTVSPost2010Prop41ColorIndex
 90
       18
102
RTVSPost2010Prop41ColorRGB
 90
        0
102
RTVSPost2010PropOp41
 70
     1
102
RTVSPost2010Prop42
 90
       50
102
RTVSPost2010PropOp42
 70
     1
102
RTVSPost2010Prop43
 90
        3
102
RTVSPost2010PropOp43
 70
     1
102
RTVSPost2010Prop44ColorIndex
 90
        5
102
RTVSPost2010Prop44ColorRGB
 90
      255
102
RTVSPost2010PropOp44
 70
     1
102
RTVSPost2010Prop45
280
     0
102
RTVSPost2010PropOp45
 70
     1
102
RTVSPost2010Prop46
 90
       50
102
RTVSPost2010PropOp46
 70
     1
102
RTVSPost2010Prop47
 90
       50
102
RTVSPost2010PropOp47
 70
     1
102
RTVSPost2010Prop48
 90
       50
102
RTVSPost2010PropOp48
 70
     1
102
RTVSPost2010Prop49
280
     0
102
RTVSPost2010PropOp49
 70
     1
102
RTVSPost2010Prop50
 90
       50
102
RTVSPost2010PropOp50
 70
     1
102
RTVSPost2010Prop51ColorIndex
 90
      256
102
RTVSPost2010Prop51ColorRGB
 90
-16777216
102
RTVSPost2010PropOp51
 70
     0
102
RTVSPost2010Prop52
140
1.0
102
RTVSPost2010PropOp52
 70
     0
102
RTVSPost2010Prop53
 90
        2
102
RTVSPost2010PropOp53
 70
     1
102
RTVSPost2010Prop54
  1
strokes_ogs.tif
102
RTVSPost2010PropOp54
 70
     1
102
RTVSPost2010Prop55
280
     0
102
RTVSPost2010PropOp55
 70
     1
102
RTVSPost2010Prop56
140
1.0
102
RTVSPost2010PropOp56
 70
     1
102
RTVSPost2010Prop57
140
1.0
102
RTVSPost2010PropOp57
 70
     1
  0
XRECORD
  5
449F9
102
{ACAD_REACTORS
330
449F8
102
}
330
449F8
100
AcDbXrecord
280
     1
102
RTVSPropertyOp0
 70
     1
102
RTVSPropertyOp1
 70
     1
102
RTVSPropertyOp2
 70
     1
102
RTVSPropertyOp3
 70
     1
102
RTVSPropertyOp4
 70
     1
102
RTVSPropertyOp5
 70
     1
102
RTVSPropertyOp6
 70
     1
102
RTVSPropertyOp7
 70
     1
102
RTVSPropertyOp8
 70
     1
102
RTVSPropertyOp9
 70
     1
102
RTVSPropertyOp10
 70
     1
102
RTVSPropertyOp11
 70
     1
102
RTVSPropertyOp12
 70
     1
102
RTVSPropertyOp13
 70
     1
102
RTVSPropertyOp14
 70
     1
102
RTVSPropertyOp15
 70
     1
102
RTVSPropertyOp16
 70
     1
102
RTVSPropertyOp17
 70
     1
102
RTVSPropertyOp18
 70
     1
102
RTVSPropertyOp19
 70
     1
102
RTVSPropertyOp20
 70
     1
102
RTVSPropertyOp21
 70
     1
102
RTVSPropertyOp22
 70
     1
102
RTVSPropertyOp23
 70
     1
102
RTVSPropertyOp24
 70
     1
102
RTVSPropertyOp25
 70
     1
102
RTVSPropertyOp26
 70
     1
102
RTVSPropertyOp27
 70
     1
102
RTVSPropertyOp28
 70
     1
102
RTVSPropertyOp29
 70
     1
102
RTVSPropertyOp30
 70
     1
102
RTVSPropertyOp31
 70
     1
102
RTVSPropertyOp32
 70
     1
102
RTVSPropertyOp33
 70
     1
102
RTVSPropertyOp34
 70
     1
102
RTVSPropertyOp35
 70
     1
102
RTVSPropertyOp36
 70
     1
102
RTVSPropertyOp37
 70
     1
102
RTVSPropertyOp38
 70
     1
102
RTVSPropertyOp39
 70
     1
102
RTVSPropertyOp40
 70
     1
102
RTVSPropertyOp41
 70
     1
102
RTVSPropertyOp42
 70
     1
102
RTVSPropertyOp43
 70
     1
102
RTVSPropertyOp44
 70
     1
102
RTVSPropertyOp45
 70
     1
102
RTVSPropertyOp46
 70
     1
102
RTVSPropertyOp47
 70
     1
102
RTVSPropertyOp48
 70
     1
102
RTVSPropertyOp49
 70
     1
102
RTVSPropertyOp50
 70
     1
102
RTVSPropertyOp51
 70
     0
102
RTVSPropertyOp52
 70
     0
102
RTVSPropertyOp53
 70
     1
102
RTVSPropertyOp54
 70
     1
102
RTVSPropertyOp55
 70
     1
102
RTVSPropertyOp56
 70
     1
102
RTVSPropertyOp57
 70
     1
102
RTVSPost2010Prop28
280
     0
102
RTVSPost2010PropOp28
 70
     1
102
RTVSPost2010Prop29
280
     1
102
RTVSPost2010PropOp29
 70
     1
102
RTVSPost2010Prop30
280
     1
102
RTVSPost2010PropOp30
 70
     1
102
RTVSPost2010Prop31
280
     0
102
RTVSPost2010PropOp31
 70
     1
102
RTVSPost2010Prop32
280
     0
102
RTVSPost2010PropOp32
 70
     1
102
RTVSPost2010Prop33
280
     0
102
RTVSPost2010PropOp33
 70
     1
102
RTVSPost2010Prop34
280
     0
102
RTVSPost2010PropOp34
 70
     1
102
RTVSPost2010Prop35
280
     0
102
RTVSPost2010PropOp35
 70
     1
102
RTVSPost2010Prop36
280
     0
102
RTVSPost2010PropOp36
 70
     1
102
RTVSPost2010Prop37
 90
       50
102
RTVSPost2010PropOp37
 70
     1
102
RTVSPost2010Prop38
140
0.0
102
RTVSPost2010PropOp38
 70
     1
102
RTVSPost2010Prop39
140
1.0
102
RTVSPost2010PropOp39
 70
     1
102
RTVSPost2010Prop40
 90
        0
102
RTVSPost2010PropOp40
 70
     1
102
RTVSPost2010Prop41ColorIndex
 90
       18
102
RTVSPost2010Prop41ColorRGB
 90
        0
102
RTVSPost2010PropOp41
 70
     1
102
RTVSPost2010Prop42
 90
       50
102
RTVSPost2010PropOp42
 70
     1
102
RTVSPost2010Prop43
 90
        3
102
RTVSPost2010PropOp43
 70
     1
102
RTVSPost2010Prop44ColorIndex
 90
        5
102
RTVSPost2010Prop44ColorRGB
 90
      255
102
RTVSPost2010PropOp44
 70
     1
102
RTVSPost2010Prop45
280
     0
102
RTVSPost2010PropOp45
 70
     1
102
RTVSPost2010Prop46
 90
       50
102
RTVSPost2010PropOp46
 70
     1
102
RTVSPost2010Prop47
 90
       50
102
RTVSPost2010PropOp47
 70
     1
102
RTVSPost2010Prop48
 90
       50
102
RTVSPost2010PropOp48
 70
     1
102
RTVSPost2010Prop49
280
     0
102
RTVSPost2010PropOp49
 70
     1
102
RTVSPost2010Prop50
 90
       50
102
RTVSPost2010PropOp50
 70
     1
102
RTVSPost2010Prop51ColorIndex
 90
      256
102
RTVSPost2010Prop51ColorRGB
 90
-16777216
102
RTVSPost2010PropOp51
 70
     0
102
RTVSPost2010Prop52
140
1.0
102
RTVSPost2010PropOp52
 70
     0
102
RTVSPost2010Prop53
 90
        2
102
RTVSPost2010PropOp53
 70
     1
102
RTVSPost2010Prop54
  1
strokes_ogs.tif
102
RTVSPost2010PropOp54
 70
     1
102
RTVSPost2010Prop55
280
     0
102
RTVSPost2010PropOp55
 70
     1
102
RTVSPost2010Prop56
140
1.0
102
RTVSPost2010PropOp56
 70
     1
102
RTVSPost2010Prop57
140
1.0
102
RTVSPost2010PropOp57
 70
     1
  0
XRECORD
  5
449FB
102
{ACAD_REACTORS
330
449FA
102
}
330
449FA
100
AcDbXrecord
280
     1
102
RTVSPropertyOp0
 70
     1
102
RTVSPropertyOp1
 70
     1
102
RTVSPropertyOp2
 70
     1
102
RTVSPropertyOp3
 70
     1
102
RTVSPropertyOp4
 70
     1
102
RTVSPropertyOp5
 70
     1
102
RTVSPropertyOp6
 70
     1
102
RTVSPropertyOp7
 70
     1
102
RTVSPropertyOp8
 70
     1
102
RTVSPropertyOp9
 70
     1
102
RTVSPropertyOp10
 70
     1
102
RTVSPropertyOp11
 70
     1
102
RTVSPropertyOp12
 70
     1
102
RTVSPropertyOp13
 70
     1
102
RTVSPropertyOp14
 70
     1
102
RTVSPropertyOp15
 70
     1
102
RTVSPropertyOp16
 70
     1
102
RTVSPropertyOp17
 70
     1
102
RTVSPropertyOp18
 70
     1
102
RTVSPropertyOp19
 70
     1
102
RTVSPropertyOp20
 70
     1
102
RTVSPropertyOp21
 70
     1
102
RTVSPropertyOp22
 70
     1
102
RTVSPropertyOp23
 70
     1
102
RTVSPropertyOp24
 70
     1
102
RTVSPropertyOp25
 70
     1
102
RTVSPropertyOp26
 70
     1
102
RTVSPropertyOp27
 70
     1
102
RTVSPropertyOp28
 70
     1
102
RTVSPropertyOp29
 70
     1
102
RTVSPropertyOp30
 70
     1
102
RTVSPropertyOp31
 70
     1
102
RTVSPropertyOp32
 70
     1
102
RTVSPropertyOp33
 70
     1
102
RTVSPropertyOp34
 70
     1
102
RTVSPropertyOp35
 70
     1
102
RTVSPropertyOp36
 70
     1
102
RTVSPropertyOp37
 70
     1
102
RTVSPropertyOp38
 70
     1
102
RTVSPropertyOp39
 70
     1
102
RTVSPropertyOp40
 70
     1
102
RTVSPropertyOp41
 70
     1
102
RTVSPropertyOp42
 70
     1
102
RTVSPropertyOp43
 70
     1
102
RTVSPropertyOp44
 70
     1
102
RTVSPropertyOp45
 70
     1
102
RTVSPropertyOp46
 70
     1
102
RTVSPropertyOp47
 70
     1
102
RTVSPropertyOp48
 70
     1
102
RTVSPropertyOp49
 70
     1
102
RTVSPropertyOp50
 70
     1
102
RTVSPropertyOp51
 70
     0
102
RTVSPropertyOp52
 70
     0
102
RTVSPropertyOp53
 70
     1
102
RTVSPropertyOp54
 70
     1
102
RTVSPropertyOp55
 70
     1
102
RTVSPropertyOp56
 70
     1
102
RTVSPropertyOp57
 70
     1
102
RTVSPost2010Prop28
280
     0
102
RTVSPost2010PropOp28
 70
     1
102
RTVSPost2010Prop29
280
     1
102
RTVSPost2010PropOp29
 70
     1
102
RTVSPost2010Prop30
280
     1
102
RTVSPost2010PropOp30
 70
     1
102
RTVSPost2010Prop31
280
     0
102
RTVSPost2010PropOp31
 70
     1
102
RTVSPost2010Prop32
280
     0
102
RTVSPost2010PropOp32
 70
     1
102
RTVSPost2010Prop33
280
     0
102
RTVSPost2010PropOp33
 70
     1
102
RTVSPost2010Prop34
280
     0
102
RTVSPost2010PropOp34
 70
     1
102
RTVSPost2010Prop35
280
     0
102
RTVSPost2010PropOp35
 70
     1
102
RTVSPost2010Prop36
280
     0
102
RTVSPost2010PropOp36
 70
     1
102
RTVSPost2010Prop37
 90
       50
102
RTVSPost2010PropOp37
 70
     1
102
RTVSPost2010Prop38
140
0.0
102
RTVSPost2010PropOp38
 70
     1
102
RTVSPost2010Prop39
140
1.0
102
RTVSPost2010PropOp39
 70
     1
102
RTVSPost2010Prop40
 90
        0
102
RTVSPost2010PropOp40
 70
     1
102
RTVSPost2010Prop41ColorIndex
 90
       18
102
RTVSPost2010Prop41ColorRGB
 90
        0
102
RTVSPost2010PropOp41
 70
     1
102
RTVSPost2010Prop42
 90
       50
102
RTVSPost2010PropOp42
 70
     1
102
RTVSPost2010Prop43
 90
        3
102
RTVSPost2010PropOp43
 70
     1
102
RTVSPost2010Prop44ColorIndex
 90
        5
102
RTVSPost2010Prop44ColorRGB
 90
      255
102
RTVSPost2010PropOp44
 70
     1
102
RTVSPost2010Prop45
280
     0
102
RTVSPost2010PropOp45
 70
     1
102
RTVSPost2010Prop46
 90
       50
102
RTVSPost2010PropOp46
 70
     1
102
RTVSPost2010Prop47
 90
       50
102
RTVSPost2010PropOp47
 70
     1
102
RTVSPost2010Prop48
 90
       50
102
RTVSPost2010PropOp48
 70
     1
102
RTVSPost2010Prop49
280
     0
102
RTVSPost2010PropOp49
 70
     1
102
RTVSPost2010Prop50
 90
       50
102
RTVSPost2010PropOp50
 70
     1
102
RTVSPost2010Prop51ColorIndex
 90
      256
102
RTVSPost2010Prop51ColorRGB
 90
-16777216
102
RTVSPost2010PropOp51
 70
     0
102
RTVSPost2010Prop52
140
1.0
102
RTVSPost2010PropOp52
 70
     0
102
RTVSPost2010Prop53
 90
        2
102
RTVSPost2010PropOp53
 70
     1
102
RTVSPost2010Prop54
  1
strokes_ogs.tif
102
RTVSPost2010PropOp54
 70
     1
102
RTVSPost2010Prop55
280
     0
102
RTVSPost2010PropOp55
 70
     1
102
RTVSPost2010Prop56
140
1.0
102
RTVSPost2010PropOp56
 70
     1
102
RTVSPost2010Prop57
140
1.0
102
RTVSPost2010PropOp57
 70
     1
  0
XRECORD
  5
449FD
102
{ACAD_REACTORS
330
449FC
102
}
330
449FC
100
AcDbXrecord
280
     1
102
RTVSPropertyOp0
 70
     1
102
RTVSPropertyOp1
 70
     1
102
RTVSPropertyOp2
 70
     1
102
RTVSPropertyOp3
 70
     1
102
RTVSPropertyOp4
 70
     1
102
RTVSPropertyOp5
 70
     1
102
RTVSPropertyOp6
 70
     1
102
RTVSPropertyOp7
 70
     1
102
RTVSPropertyOp8
 70
     1
102
RTVSPropertyOp9
 70
     1
102
RTVSPropertyOp10
 70
     1
102
RTVSPropertyOp11
 70
     1
102
RTVSPropertyOp12
 70
     1
102
RTVSPropertyOp13
 70
     1
102
RTVSPropertyOp14
 70
     1
102
RTVSPropertyOp15
 70
     1
102
RTVSPropertyOp16
 70
     1
102
RTVSPropertyOp17
 70
     1
102
RTVSPropertyOp18
 70
     1
102
RTVSPropertyOp19
 70
     1
102
RTVSPropertyOp20
 70
     1
102
RTVSPropertyOp21
 70
     1
102
RTVSPropertyOp22
 70
     1
102
RTVSPropertyOp23
 70
     1
102
RTVSPropertyOp24
 70
     1
102
RTVSPropertyOp25
 70
     1
102
RTVSPropertyOp26
 70
     1
102
RTVSPropertyOp27
 70
     1
102
RTVSPropertyOp28
 70
     1
102
RTVSPropertyOp29
 70
     1
102
RTVSPropertyOp30
 70
     1
102
RTVSPropertyOp31
 70
     1
102
RTVSPropertyOp32
 70
     1
102
RTVSPropertyOp33
 70
     1
102
RTVSPropertyOp34
 70
     1
102
RTVSPropertyOp35
 70
     1
102
RTVSPropertyOp36
 70
     1
102
RTVSPropertyOp37
 70
     1
102
RTVSPropertyOp38
 70
     1
102
RTVSPropertyOp39
 70
     1
102
RTVSPropertyOp40
 70
     1
102
RTVSPropertyOp41
 70
     1
102
RTVSPropertyOp42
 70
     1
102
RTVSPropertyOp43
 70
     1
102
RTVSPropertyOp44
 70
     1
102
RTVSPropertyOp45
 70
     1
102
RTVSPropertyOp46
 70
     1
102
RTVSPropertyOp47
 70
     1
102
RTVSPropertyOp48
 70
     1
102
RTVSPropertyOp49
 70
     1
102
RTVSPropertyOp50
 70
     1
102
RTVSPropertyOp51
 70
     0
102
RTVSPropertyOp52
 70
     0
102
RTVSPropertyOp53
 70
     1
102
RTVSPropertyOp54
 70
     1
102
RTVSPropertyOp55
 70
     1
102
RTVSPropertyOp56
 70
     1
102
RTVSPropertyOp57
 70
     1
102
RTVSPost2010Prop28
280
     0
102
RTVSPost2010PropOp28
 70
     1
102
RTVSPost2010Prop29
280
     1
102
RTVSPost2010PropOp29
 70
     1
102
RTVSPost2010Prop30
280
     1
102
RTVSPost2010PropOp30
 70
     1
102
RTVSPost2010Prop31
280
     0
102
RTVSPost2010PropOp31
 70
     1
102
RTVSPost2010Prop32
280
     0
102
RTVSPost2010PropOp32
 70
     1
102
RTVSPost2010Prop33
280
     0
102
RTVSPost2010PropOp33
 70
     1
102
RTVSPost2010Prop34
280
     0
102
RTVSPost2010PropOp34
 70
     1
102
RTVSPost2010Prop35
280
     0
102
RTVSPost2010PropOp35
 70
     1
102
RTVSPost2010Prop36
280
     0
102
RTVSPost2010PropOp36
 70
     1
102
RTVSPost2010Prop37
 90
       50
102
RTVSPost2010PropOp37
 70
     1
102
RTVSPost2010Prop38
140
0.0
102
RTVSPost2010PropOp38
 70
     1
102
RTVSPost2010Prop39
140
1.0
102
RTVSPost2010PropOp39
 70
     1
102
RTVSPost2010Prop40
 90
        0
102
RTVSPost2010PropOp40
 70
     1
102
RTVSPost2010Prop41ColorIndex
 90
       18
102
RTVSPost2010Prop41ColorRGB
 90
        0
102
RTVSPost2010PropOp41
 70
     1
102
RTVSPost2010Prop42
 90
       50
102
RTVSPost2010PropOp42
 70
     1
102
RTVSPost2010Prop43
 90
        3
102
RTVSPost2010PropOp43
 70
     1
102
RTVSPost2010Prop44ColorIndex
 90
        5
102
RTVSPost2010Prop44ColorRGB
 90
      255
102
RTVSPost2010PropOp44
 70
     1
102
RTVSPost2010Prop45
280
     0
102
RTVSPost2010PropOp45
 70
     1
102
RTVSPost2010Prop46
 90
       50
102
RTVSPost2010PropOp46
 70
     1
102
RTVSPost2010Prop47
 90
       50
102
RTVSPost2010PropOp47
 70
     1
102
RTVSPost2010Prop48
 90
       50
102
RTVSPost2010PropOp48
 70
     1
102
RTVSPost2010Prop49
280
     0
102
RTVSPost2010PropOp49
 70
     1
102
RTVSPost2010Prop50
 90
       50
102
RTVSPost2010PropOp50
 70
     1
102
RTVSPost2010Prop51ColorIndex
 90
      256
102
RTVSPost2010Prop51ColorRGB
 90
-16777216
102
RTVSPost2010PropOp51
 70
     0
102
RTVSPost2010Prop52
140
1.0
102
RTVSPost2010PropOp52
 70
     0
102
RTVSPost2010Prop53
 90
        2
102
RTVSPost2010PropOp53
 70
     1
102
RTVSPost2010Prop54
  1
strokes_ogs.tif
102
RTVSPost2010PropOp54
 70
     1
102
RTVSPost2010Prop55
280
     0
102
RTVSPost2010PropOp55
 70
     1
102
RTVSPost2010Prop56
140
1.0
102
RTVSPost2010PropOp56
 70
     1
102
RTVSPost2010Prop57
140
1.0
102
RTVSPost2010PropOp57
 70
     1
  0
XRECORD
  5
449FF
102
{ACAD_REACTORS
330
449FE
102
}
330
449FE
100
AcDbXrecord
280
     1
102
RTVSPropertyOp0
 70
     1
102
RTVSPropertyOp1
 70
     1
102
RTVSPropertyOp2
 70
     1
102
RTVSPropertyOp3
 70
     1
102
RTVSPropertyOp4
 70
     1
102
RTVSPropertyOp5
 70
     1
102
RTVSPropertyOp6
 70
     1
102
RTVSPropertyOp7
 70
     1
102
RTVSPropertyOp8
 70
     1
102
RTVSPropertyOp9
 70
     1
102
RTVSPropertyOp10
 70
     1
102
RTVSPropertyOp11
 70
     1
102
RTVSPropertyOp12
 70
     1
102
RTVSPropertyOp13
 70
     1
102
RTVSPropertyOp14
 70
     1
102
RTVSPropertyOp15
 70
     1
102
RTVSPropertyOp16
 70
     1
102
RTVSPropertyOp17
 70
     1
102
RTVSPropertyOp18
 70
     1
102
RTVSPropertyOp19
 70
     1
102
RTVSPropertyOp20
 70
     1
102
RTVSPropertyOp21
 70
     1
102
RTVSPropertyOp22
 70
     1
102
RTVSPropertyOp23
 70
     1
102
RTVSPropertyOp24
 70
     1
102
RTVSPropertyOp25
 70
     1
102
RTVSPropertyOp26
 70
     1
102
RTVSPropertyOp27
 70
     1
102
RTVSPropertyOp28
 70
     1
102
RTVSPropertyOp29
 70
     1
102
RTVSPropertyOp30
 70
     1
102
RTVSPropertyOp31
 70
     1
102
RTVSPropertyOp32
 70
     1
102
RTVSPropertyOp33
 70
     1
102
RTVSPropertyOp34
 70
     1
102
RTVSPropertyOp35
 70
     1
102
RTVSPropertyOp36
 70
     1
102
RTVSPropertyOp37
 70
     1
102
RTVSPropertyOp38
 70
     1
102
RTVSPropertyOp39
 70
     1
102
RTVSPropertyOp40
 70
     1
102
RTVSPropertyOp41
 70
     1
102
RTVSPropertyOp42
 70
     1
102
RTVSPropertyOp43
 70
     1
102
RTVSPropertyOp44
 70
     1
102
RTVSPropertyOp45
 70
     1
102
RTVSPropertyOp46
 70
     1
102
RTVSPropertyOp47
 70
     1
102
RTVSPropertyOp48
 70
     1
102
RTVSPropertyOp49
 70
     1
102
RTVSPropertyOp50
 70
     1
102
RTVSPropertyOp51
 70
     0
102
RTVSPropertyOp52
 70
     0
102
RTVSPropertyOp53
 70
     1
102
RTVSPropertyOp54
 70
     1
102
RTVSPropertyOp55
 70
     1
102
RTVSPropertyOp56
 70
     1
102
RTVSPropertyOp57
 70
     1
102
RTVSPost2010Prop28
280
     0
102
RTVSPost2010PropOp28
 70
     1
102
RTVSPost2010Prop29
280
     1
102
RTVSPost2010PropOp29
 70
     1
102
RTVSPost2010Prop30
280
     1
102
RTVSPost2010PropOp30
 70
     1
102
RTVSPost2010Prop31
280
     0
102
RTVSPost2010PropOp31
 70
     1
102
RTVSPost2010Prop32
280
     0
102
RTVSPost2010PropOp32
 70
     1
102
RTVSPost2010Prop33
280
     0
102
RTVSPost2010PropOp33
 70
     1
102
RTVSPost2010Prop34
280
     0
102
RTVSPost2010PropOp34
 70
     1
102
RTVSPost2010Prop35
280
     0
102
RTVSPost2010PropOp35
 70
     1
102
RTVSPost2010Prop36
280
     0
102
RTVSPost2010PropOp36
 70
     1
102
RTVSPost2010Prop37
 90
       50
102
RTVSPost2010PropOp37
 70
     1
102
RTVSPost2010Prop38
140
0.0
102
RTVSPost2010PropOp38
 70
     1
102
RTVSPost2010Prop39
140
1.0
102
RTVSPost2010PropOp39
 70
     1
102
RTVSPost2010Prop40
 90
        0
102
RTVSPost2010PropOp40
 70
     1
102
RTVSPost2010Prop41ColorIndex
 90
       18
102
RTVSPost2010Prop41ColorRGB
 90
        0
102
RTVSPost2010PropOp41
 70
     1
102
RTVSPost2010Prop42
 90
       50
102
RTVSPost2010PropOp42
 70
     1
102
RTVSPost2010Prop43
 90
        3
102
RTVSPost2010PropOp43
 70
     1
102
RTVSPost2010Prop44ColorIndex
 90
        5
102
RTVSPost2010Prop44ColorRGB
 90
      255
102
RTVSPost2010PropOp44
 70
     1
102
RTVSPost2010Prop45
280
     0
102
RTVSPost2010PropOp45
 70
     1
102
RTVSPost2010Prop46
 90
       50
102
RTVSPost2010PropOp46
 70
     1
102
RTVSPost2010Prop47
 90
       50
102
RTVSPost2010PropOp47
 70
     1
102
RTVSPost2010Prop48
 90
       50
102
RTVSPost2010PropOp48
 70
     1
102
RTVSPost2010Prop49
280
     0
102
RTVSPost2010PropOp49
 70
     1
102
RTVSPost2010Prop50
 90
       50
102
RTVSPost2010PropOp50
 70
     1
102
RTVSPost2010Prop51ColorIndex
 90
      256
102
RTVSPost2010Prop51ColorRGB
 90
-16777216
102
RTVSPost2010PropOp51
 70
     0
102
RTVSPost2010Prop52
140
1.0
102
RTVSPost2010PropOp52
 70
     0
102
RTVSPost2010Prop53
 90
        2
102
RTVSPost2010PropOp53
 70
     1
102
RTVSPost2010Prop54
  1
strokes_ogs.tif
102
RTVSPost2010PropOp54
 70
     1
102
RTVSPost2010Prop55
280
     0
102
RTVSPost2010PropOp55
 70
     1
102
RTVSPost2010Prop56
140
1.0
102
RTVSPost2010PropOp56
 70
     1
102
RTVSPost2010Prop57
140
1.0
102
RTVSPost2010PropOp57
 70
     1
  0
XRECORD
  5
44A01
102
{ACAD_REACTORS
330
44A00
102
}
330
44A00
100
AcDbXrecord
280
     1
102
RTVSPropertyOp0
 70
     1
102
RTVSPropertyOp1
 70
     1
102
RTVSPropertyOp2
 70
     1
102
RTVSPropertyOp3
 70
     1
102
RTVSPropertyOp4
 70
     1
102
RTVSPropertyOp5
 70
     1
102
RTVSPropertyOp6
 70
     1
102
RTVSPropertyOp7
 70
     1
102
RTVSPropertyOp8
 70
     1
102
RTVSPropertyOp9
 70
     1
102
RTVSPropertyOp10
 70
     1
102
RTVSPropertyOp11
 70
     1
102
RTVSPropertyOp12
 70
     1
102
RTVSPropertyOp13
 70
     1
102
RTVSPropertyOp14
 70
     1
102
RTVSPropertyOp15
 70
     1
102
RTVSPropertyOp16
 70
     1
102
RTVSPropertyOp17
 70
     1
102
RTVSPropertyOp18
 70
     1
102
RTVSPropertyOp19
 70
     1
102
RTVSPropertyOp20
 70
     1
102
RTVSPropertyOp21
 70
     1
102
RTVSPropertyOp22
 70
     1
102
RTVSPropertyOp23
 70
     1
102
RTVSPropertyOp24
 70
     1
102
RTVSPropertyOp25
 70
     1
102
RTVSPropertyOp26
 70
     1
102
RTVSPropertyOp27
 70
     1
102
RTVSPropertyOp28
 70
     1
102
RTVSPropertyOp29
 70
     1
102
RTVSPropertyOp30
 70
     1
102
RTVSPropertyOp31
 70
     1
102
RTVSPropertyOp32
 70
     1
102
RTVSPropertyOp33
 70
     1
102
RTVSPropertyOp34
 70
     1
102
RTVSPropertyOp35
 70
     1
102
RTVSPropertyOp36
 70
     1
102
RTVSPropertyOp37
 70
     1
102
RTVSPropertyOp38
 70
     1
102
RTVSPropertyOp39
 70
     1
102
RTVSPropertyOp40
 70
     1
102
RTVSPropertyOp41
 70
     1
102
RTVSPropertyOp42
 70
     1
102
RTVSPropertyOp43
 70
     1
102
RTVSPropertyOp44
 70
     1
102
RTVSPropertyOp45
 70
     1
102
RTVSPropertyOp46
 70
     1
102
RTVSPropertyOp47
 70
     1
102
RTVSPropertyOp48
 70
     1
102
RTVSPropertyOp49
 70
     1
102
RTVSPropertyOp50
 70
     1
102
RTVSPropertyOp51
 70
     0
102
RTVSPropertyOp52
 70
     0
102
RTVSPropertyOp53
 70
     1
102
RTVSPropertyOp54
 70
     1
102
RTVSPropertyOp55
 70
     1
102
RTVSPropertyOp56
 70
     1
102
RTVSPropertyOp57
 70
     1
102
RTVSPost2010Prop28
280
     0
102
RTVSPost2010PropOp28
 70
     1
102
RTVSPost2010Prop29
280
     1
102
RTVSPost2010PropOp29
 70
     1
102
RTVSPost2010Prop30
280
     1
102
RTVSPost2010PropOp30
 70
     1
102
RTVSPost2010Prop31
280
     0
102
RTVSPost2010PropOp31
 70
     1
102
RTVSPost2010Prop32
280
     0
102
RTVSPost2010PropOp32
 70
     1
102
RTVSPost2010Prop33
280
     0
102
RTVSPost2010PropOp33
 70
     1
102
RTVSPost2010Prop34
280
     0
102
RTVSPost2010PropOp34
 70
     1
102
RTVSPost2010Prop35
280
     0
102
RTVSPost2010PropOp35
 70
     1
102
RTVSPost2010Prop36
280
     0
102
RTVSPost2010PropOp36
 70
     1
102
RTVSPost2010Prop37
 90
       50
102
RTVSPost2010PropOp37
 70
     1
102
RTVSPost2010Prop38
140
0.0
102
RTVSPost2010PropOp38
 70
     1
102
RTVSPost2010Prop39
140
1.0
102
RTVSPost2010PropOp39
 70
     1
102
RTVSPost2010Prop40
 90
        0
102
RTVSPost2010PropOp40
 70
     1
102
RTVSPost2010Prop41ColorIndex
 90
       18
102
RTVSPost2010Prop41ColorRGB
 90
        0
102
RTVSPost2010PropOp41
 70
     1
102
RTVSPost2010Prop42
 90
       50
102
RTVSPost2010PropOp42
 70
     1
102
RTVSPost2010Prop43
 90
        3
102
RTVSPost2010PropOp43
 70
     1
102
RTVSPost2010Prop44ColorIndex
 90
        5
102
RTVSPost2010Prop44ColorRGB
 90
      255
102
RTVSPost2010PropOp44
 70
     1
102
RTVSPost2010Prop45
280
     0
102
RTVSPost2010PropOp45
 70
     1
102
RTVSPost2010Prop46
 90
       50
102
RTVSPost2010PropOp46
 70
     1
102
RTVSPost2010Prop47
 90
       50
102
RTVSPost2010PropOp47
 70
     1
102
RTVSPost2010Prop48
 90
       50
102
RTVSPost2010PropOp48
 70
     1
102
RTVSPost2010Prop49
280
     0
102
RTVSPost2010PropOp49
 70
     1
102
RTVSPost2010Prop50
 90
       50
102
RTVSPost2010PropOp50
 70
     1
102
RTVSPost2010Prop51ColorIndex
 90
      256
102
RTVSPost2010Prop51ColorRGB
 90
-16777216
102
RTVSPost2010PropOp51
 70
     0
102
RTVSPost2010Prop52
140
1.0
102
RTVSPost2010PropOp52
 70
     0
102
RTVSPost2010Prop53
 90
        2
102
RTVSPost2010PropOp53
 70
     1
102
RTVSPost2010Prop54
  1
strokes_ogs.tif
102
RTVSPost2010PropOp54
 70
     1
102
RTVSPost2010Prop55
280
     0
102
RTVSPost2010PropOp55
 70
     1
102
RTVSPost2010Prop56
140
1.0
102
RTVSPost2010PropOp56
 70
     1
102
RTVSPost2010Prop57
140
1.0
102
RTVSPost2010PropOp57
 70
     1
  0
ENDSEC
  0
EOF
