  0
SECTION
  2
HEADER
  9
$ACADVER
  1
AC1015
  9
$ACADMAINTVER
 70
    20
  9
$DWGCODEPAGE
  3
ANSI_932
  9
$INSBASE
 10
0.0
 20
0.0
 30
0.0
  9
$EXTMIN
 10
-0.0027956834525185
 20
-0.0024994308923851
 30
-0.0000000000000053
  9
$EXTMAX
 10
420.0140690546903
 20
297.0033885298853
 30
0.0000000000000099
  9
$LIMMIN
 10
0.0
 20
0.0
  9
$LIMMAX
 10
420.0
 20
297.0
  9
$ORTHOMODE
 70
     0
  9
$REGENMODE
 70
     1
  9
$FILLMODE
 70
     1
  9
$QTEXTMODE
 70
     0
  9
$MIRRTEXT
 70
     0
  9
$LTSCALE
 40
1.0
  9
$ATTMODE
 70
     1
  9
$TEXTSIZE
 40
3.2
  9
$TRACEWID
 40
1.0
  9
$TEXTSTYLE
  7
STANDARD
  9
$CLAYER
  8
AM_1
  9
$CELTYPE
  6
ByLayer
  9
$CECOLOR
 62
   256
  9
$CELTSCALE
 40
1.0
  9
$DISPSILH
 70
     0
  9
$DIMSCALE
 40
1.0
  9
$DIMASZ
 40
1.0
  9
$DIMEXO
 40
1.0
  9
$DIMDLI
 40
10.0
  9
$DIMRND
 40
0.0
  9
$DIMDLE
 40
0.0
  9
$DIMEXE
 40
1.0
  9
$DIMTP
 40
0.1
  9
$DIMTM
 40
0.1
  9
$DIMTXT
 40
3.5
  9
$DIMCEN
 40
0.0
  9
$DIMTSZ
 40
0.0
  9
$DIMTOL
 70
     0
  9
$DIMLIM
 70
     0
  9
$DIMTIH
 70
     0
  9
$DIMTOH
 70
     0
  9
$DIMSE1
 70
     0
  9
$DIMSE2
 70
     0
  9
$DIMTAD
 70
     1
  9
$DIMZIN
 70
     8
  9
$DIMBLK
  1

  9
$DIMASO
 70
     1
  9
$DIMSHO
 70
     1
  9
$DIMPOST
  1

  9
$DIMAPOST
  1
"
  9
$DIMALT
 70
     0
  9
$DIMALTD
 70
     2
  9
$DIMALTF
 40
0.0393701
  9
$DIMLFAC
 40
1.0
  9
$DIMTOFL
 70
     1
  9
$DIMTVP
 40
0.0
  9
$DIMTIX
 70
     0
  9
$DIMSOXD
 70
     0
  9
$DIMSAH
 70
     0
  9
$DIMBLK1
  1

  9
$DIMBLK2
  1

  9
$DIMSTYLE
  2
SYS
  9
$DIMCLRD
 70
   256
  9
$DIMCLRE
 70
   256
  9
$DIMCLRT
 70
     7
  9
$DIMTFAC
 40
0.71
  9
$DIMGAP
 40
1.5
  9
$DIMJUST
 70
     0
  9
$DIMSD1
 70
     0
  9
$DIMSD2
 70
     0
  9
$DIMTOLJ
 70
     0
  9
$DIMTZIN
 70
     8
  9
$DIMALTZ
 70
     0
  9
$DIMALTTZ
 70
     0
  9
$DIMUPT
 70
     0
  9
$DIMDEC
 70
     2
  9
$DIMTDEC
 70
     2
  9
$DIMALTU
 70
     2
  9
$DIMALTTD
 70
     2
  9
$DIMTXSTY
  7
STANDARD
  9
$DIMAUNIT
 70
     0
  9
$DIMADEC
 70
     0
  9
$DIMALTRND
 40
0.0
  9
$DIMAZIN
 70
     2
  9
$DIMDSEP
 70
    46
  9
$DIMATFIT
 70
     3
  9
$DIMFRAC
 70
     0
  9
$DIMLDRBLK
  1

  9
$DIMLUNIT
 70
     2
  9
$DIMLWD
 70
    -1
  9
$DIMLWE
 70
    -1
  9
$DIMTMOVE
 70
     0
  9
$LUNITS
 70
     2
  9
$LUPREC
 70
     2
  9
$SKETCHINC
 40
1.0
  9
$FILLETRAD
 40
1.6
  9
$AUNITS
 70
     0
  9
$AUPREC
 70
     0
  9
$MENU
  1
.
  9
$ELEVATION
 40
0.0
  9
$PELEVATION
 40
0.0
  9
$THICKNESS
 40
0.0
  9
$LIMCHECK
 70
     0
  9
$CHAMFERA
 40
0.0
  9
$CHAMFERB
 40
0.0
  9
$CHAMFERC
 40
20.0
  9
$CHAMFERD
 40
0.0
  9
$SKPOLY
 70
     0
  9
$TDCREATE
 40
2455831.751787465
  9
$TDUCREATE
 40
2455831.376787465
  9
$TDUPDATE
 40
2455868.414272280
  9
$TDUUPDATE
 40
2455868.039272280
  9
$TDINDWG
 40
0.0612830903
  9
$TDUSRTIMER
 40
0.0612830903
  9
$USRTIMER
 70
     1
  9
$ANGBASE
 50
0.0
  9
$ANGDIR
 70
     0
  9
$PDMODE
 70
     0
  9
$PDSIZE
 40
-3.0
  9
$PLINEWID
 40
0.0
  9
$SPLFRAME
 70
     0
  9
$SPLINETYPE
 70
     6
  9
$SPLINESEGS
 70
     8
  9
$HANDSEED
  5
DCC6
  9
$SURFTAB1
 70
     6
  9
$SURFTAB2
 70
     6
  9
$SURFTYPE
 70
     6
  9
$SURFU
 70
     6
  9
$SURFV
 70
     6
  9
$UCSBASE
  2

  9
$UCSNAME
  2

  9
$UCSORG
 10
0.0
 20
0.0
 30
0.0
  9
$UCSXDIR
 10
1.0
 20
0.0
 30
0.0
  9
$UCSYDIR
 10
0.0
 20
1.0
 30
0.0
  9
$UCSORTHOREF
  2

  9
$UCSORTHOVIEW
 70
     0
  9
$UCSORGTOP
 10
0.0
 20
0.0
 30
0.0
  9
$UCSORGBOTTOM
 10
0.0
 20
0.0
 30
0.0
  9
$UCSORGLEFT
 10
0.0
 20
0.0
 30
0.0
  9
$UCSORGRIGHT
 10
0.0
 20
0.0
 30
0.0
  9
$UCSORGFRONT
 10
0.0
 20
0.0
 30
0.0
  9
$UCSORGBACK
 10
0.0
 20
0.0
 30
0.0
  9
$PUCSBASE
  2

  9
$PUCSNAME
  2

  9
$PUCSORG
 10
0.0
 20
0.0
 30
0.0
  9
$PUCSXDIR
 10
1.0
 20
0.0
 30
0.0
  9
$PUCSYDIR
 10
0.0
 20
1.0
 30
0.0
  9
$PUCSORTHOREF
  2

  9
$PUCSORTHOVIEW
 70
     0
  9
$PUCSORGTOP
 10
0.0
 20
0.0
 30
0.0
  9
$PUCSORGBOTTOM
 10
0.0
 20
0.0
 30
0.0
  9
$PUCSORGLEFT
 10
0.0
 20
0.0
 30
0.0
  9
$PUCSORGRIGHT
 10
0.0
 20
0.0
 30
0.0
  9
$PUCSORGFRONT
 10
0.0
 20
0.0
 30
0.0
  9
$PUCSORGBACK
 10
0.0
 20
0.0
 30
0.0
  9
$USERI1
 70
     0
  9
$USERI2
 70
     0
  9
$USERI3
 70
     0
  9
$USERI4
 70
     0
  9
$USERI5
 70
     0
  9
$USERR1
 40
0.0
  9
$USERR2
 40
0.0
  9
$USERR3
 40
0.0
  9
$USERR4
 40
0.0
  9
$USERR5
 40
0.0
  9
$WORLDVIEW
 70
     1
  9
$SHADEDGE
 70
     3
  9
$SHADEDIF
 70
    70
  9
$TILEMODE
 70
     1
  9
$MAXACTVP
 70
    64
  9
$PINSBASE
 10
0.0
 20
0.0
 30
0.0
  9
$PLIMCHECK
 70
     0
  9
$PEXTMIN
 10
1.000000000000000E+20
 20
1.000000000000000E+20
 30
1.000000000000000E+20
  9
$PEXTMAX
 10
-1.000000000000000E+20
 20
-1.000000000000000E+20
 30
-1.000000000000000E+20
  9
$PLIMMIN
 10
-3.17498779296875
 20
-3.174999952316284
  9
$PLIMMAX
 10
293.4970092773438
 20
206.692492723465
  9
$UNITMODE
 70
     0
  9
$VISRETAIN
 70
     1
  9
$PLINEGEN
 70
     0
  9
$PSLTSCALE
 70
     1
  9
$TREEDEPTH
 70
  3020
  9
$CMLSTYLE
  2
Standard
  9
$CMLJUST
 70
     0
  9
$CMLSCALE
 40
20.0
  9
$PROXYGRAPHICS
 70
     1
  9
$MEASUREMENT
 70
     1
  9
$CELWEIGHT
370
    -1
  9
$ENDCAPS
280
     0
  9
$JOINSTYLE
280
     0
  9
$LWDISPLAY
290
     0
  9
$INSUNITS
 70
     4
  9
$HYPERLINKBASE
  1

  9
$STYLESHEET
  1
monochrome.ctb
  9
$XEDIT
290
     1
  9
$CEPSNTYPE
380
     0
  9
$PSTYLEMODE
290
     1
  9
$FINGERPRINTGUID
  2
{E935F462-9313-4160-B5D2-4171B9D813FF}
  9
$VERSIONGUID
  2
{04CC559C-46F8-4763-882C-E8D426AEDD61}
  9
$EXTNAMES
290
     1
  9
$PSVPSCALE
 40
0.0
  9
$OLESTARTUP
290
     0
  0
ENDSEC
  0
SECTION
  2
CLASSES
  0
CLASS
  1
ACDBDICTIONARYWDFLT
  2
AcDbDictionaryWithDefault
  3
ObjectDBX Classes
 90
        0
280
     0
281
     0
  0
CLASS
  1
ACDBPLACEHOLDER
  2
AcDbPlaceHolder
  3
ObjectDBX Classes
 90
        0
280
     0
281
     0
  0
CLASS
  1
LAYOUT
  2
AcDbLayout
  3
ObjectDBX Classes
 90
        0
280
     0
281
     0
  0
CLASS
  1
AMGSETTINGSOBJ
  2
AmgSettingsObj
  3
"AcadM|Product Description: AutoCAD Mechanical|Company: Autodesk"
 90
        0
280
     0
281
     0
  0
CLASS
  1
ACME_DOCUMENT
  2
AcMeDbDoc
  3
AcMeServices
 90
        0
280
     0
281
     0
  0
CLASS
  1
ACMESCOPE
  2
AcMeScope
  3
AcMeServices
 90
        0
280
     0
281
     0
  0
CLASS
  1
ACMECOMMANDHISTORY
  2
AcMeCommandHistory
  3
AcMeServices
 90
        0
280
     0
281
     0
  0
CLASS
  1
DICTIONARYVAR
  2
AcDbDictionaryVar
  3
ObjectDBX Classes
 90
        0
280
     0
281
     0
  0
CLASS
  1
ACIMSYSVARMAN
  2
AcImSysVarManager
  3
AcMeServices
 90
        0
280
     0
281
     0
  0
CLASS
  1
ACIMREALSYSVAR
  2
AcImRealSysVar
  3
AcMeServices
 90
        0
280
     0
281
     0
  0
CLASS
  1
ACIMINTSYSVAR
  2
AcImIntSysVar
  3
AcMeServices
 90
        0
280
     0
281
     0
  0
CLASS
  1
ACMEDRAWINGMAN
  2
AcMeDrawingMan
  3
AcMeServices
 90
        0
280
     0
281
     0
  0
CLASS
  1
ACMEVIEW
  2
AcMeView
  3
AcMeServices
 90
        0
280
     0
281
     0
  0
CLASS
  1
ACDBENTITYCACHE
  2
AcMeEntityCache
  3
AcMeServices
 90
        0
280
     0
281
     0
  0
CLASS
  1
GSMANAGER
  2
AcMeGSManager
  3
AcMeServices
 90
        0
280
     0
281
     0
  0
CLASS
  1
AMDTINTERNALREACTOR
  2
AmdtInternalReactor
  3
AcMeServices
 90
        0
280
     0
281
     0
  0
CLASS
  1
ACMESTATEMGR
  2
AcMeStateMgr
  3
AcMeServices
 90
        0
280
     0
281
     0
  0
CLASS
  1
ACGREFMASTER
  2
AcGrefMaster
  3
AcAttribServices
 90
        0
280
     0
281
     0
  0
CLASS
  1
ACME_DATABASE
  2
AcMeDbDatabase
  3
AcMeServices
 90
        0
280
     0
281
     0
  0
CLASS
  1
ACRFINSADJUSTERMGR
  2
AcRfInsAdjusterMgr
  3
AcMeServices
 90
        0
280
     0
281
     0
  0
CLASS
  1
ACGREFACADMASTER
  2
AcGrefacadMaster
  3
AcGrefServices
 90
        0
280
     0
281
     0
  0
CLASS
  1
AMIMASTER
  2
AmiMaster
  3
AmiServices
 90
        0
280
     0
281
     0
  0
CLASS
  1
ACMDATADICTIONARY
  2
AcmDataDictionary
  3
"AcmSymBB|Product Description: AutoCAD Mechanical|Company: Autodesk"
 90
        0
280
     0
281
     0
  0
CLASS
  1
ACMDATAENTRYBLOCK
  2
AcmDataEntryBlock
  3
"AcmSymBB|Product Description: AutoCAD Mechanical|Company: Autodesk"
 90
        0
280
     0
281
     0
  0
CLASS
  1
ACIMSTRSYSVAR
  2
AcImStrSysVar
  3
AcMeServices
 90
        0
280
     0
281
     0
  0
CLASS
  1
ACMSTANDARDISO
  2
AcmStandardISO
  3
"Amdt_StdImp|Product Description: AutoCAD Mechanical|Company: Autodesk"
 90
        0
280
     0
281
     0
  0
CLASS
  1
AMGOBJPROPCFG
  2
AmgObjPropCfg
  3
"AmgLay|Product Description: AutoCAD Mechanical|Company: Autodesk"
 90
        1
280
     0
281
     0
  0
CLASS
  1
AMDTEDGESTANDARDISO
  2
AmdtEdgeStdISO
  3
"Amdt_StdImp|Product Description: AutoCAD Mechanical|Company: Autodesk"
 90
        0
280
     0
281
     0
  0
CLASS
  1
ACMSURFSTANDARDISO
  2
AcmSurfTextStdISO
  3
"Amdt_StdImp|Product Description: AutoCAD Mechanical|Company: Autodesk"
 90
        0
280
     0
281
     0
  0
CLASS
  1
ACMFCFSTANDARDISO
  2
AcmFCFStdISO
  3
"Amdt_StdImp|Product Description: AutoCAD Mechanical|Company: Autodesk"
 90
        0
280
     0
281
     0
  0
CLASS
  1
ACMWELDSTANDARDISO
  2
AcmWeldingStdISO
  3
"Amdt_StdImp|Product Description: AutoCAD Mechanical|Company: Autodesk"
 90
        0
280
     0
281
     0
  0
CLASS
  1
ACMIDSTANDARDISO
  2
AcmIdStdISO
  3
"Amdt_StdImp|Product Description: AutoCAD Mechanical|Company: Autodesk"
 90
        0
280
     0
281
     0
  0
CLASS
  1
ACMDATUMSTANDARDISO
  2
AcmDatumStdISO
  3
"Amdt_StdImp|Product Description: AutoCAD Mechanical|Company: Autodesk"
 90
        0
280
     0
281
     0
  0
CLASS
  1
ACMBOMSTANDARDISO
  2
AcmBOMStdISO
  3
"Amdt_StdImp|Product Description: AutoCAD Mechanical|Company: Autodesk"
 90
        0
280
     0
281
     0
  0
CLASS
  1
ACMDETAILSTANDARDISO
  2
AmdtDetailSymStdISO
  3
"Amdt_StdImp|Product Description: AutoCAD Mechanical|Company: Autodesk"
 90
        0
280
     0
281
     0
  0
CLASS
  1
ACMSECTIONSTANDARDISO
  2
AmdtSectionSymStdISO
  3
"Amdt_StdImp|Product Description: AutoCAD Mechanical|Company: Autodesk"
 90
        0
280
     0
281
     0
  0
CLASS
  1
ACMCENTERLINESTANDARDISO
  2
AmdtCenterLineStdISO
  3
"Amdt_StdImp|Product Description: AutoCAD Mechanical|Company: Autodesk"
 90
        0
280
     0
281
     0
  0
CLASS
  1
ACAMGLAYSTD
  2
AcAmgLayStd
  3
"AmgLay|Product Description: AutoCAD Mechanical|Company: Autodesk"
 90
        0
280
     0
281
     0
  0
CLASS
  1
ACAMGDIMSTD
  2
AcAmgDimStd
  3
"AmgDim|Product Description: AutoCAD Mechanical|Company: Autodesk"
 90
        0
280
     0
281
     0
  0
CLASS
  1
ACAMGTITLESTD
  2
AcAmgTitleStd
  3
"AmgTitle|Product Description: AutoCAD Mechanical|Company: Autodesk"
 90
        0
280
     0
281
     0
  0
CLASS
  1
ACAMGFILTERDAT
  2
AcAmgFilterDat
  3
"AcadM|Product Description: AutoCAD Mechanical|Company: Autodesk"
 90
        0
280
     0
281
     0
  0
CLASS
  1
LAYER_INDEX
  2
AcDbLayerIndex
  3
ObjectDBX Classes
 90
    32768
280
     0
281
     0
  0
CLASS
  1
IDBUFFER
  2
AcDbIdBuffer
  3
ObjectDBX Classes
 90
    32768
280
     0
281
     0
  0
CLASS
  1
PLOTSETTINGS
  2
AcDbPlotSettings
  3
ObjectDBX Classes
 90
    32768
280
     0
281
     0
  0
CLASS
  1
AMDTFORMULAUPDATEDISPATCHER
  2
AmdtFormulaUpdateDispatcher
  3
AcMeServices
 90
        0
280
     0
281
     0
  0
CLASS
  1
ACMSTANDARDANSI
  2
AcmStandardANSI
  3
"Amdt_StdImp|Product Description: AutoCAD Mechanical|Company: Autodesk"
 90
        0
280
     0
281
     0
  0
CLASS
  1
ACMSURFSTANDARDANSI
  2
AcmSurfTextStdANSI
  3
"Amdt_StdImp|Product Description: AutoCAD Mechanical|Company: Autodesk"
 90
        0
280
     0
281
     0
  0
CLASS
  1
ACMFCFSTANDARDANSI
  2
AcmFCFStdANSI
  3
"Amdt_StdImp|Product Description: AutoCAD Mechanical|Company: Autodesk"
 90
        0
280
     0
281
     0
  0
CLASS
  1
ACMWELDSTANDARDANSI
  2
AcmWeldingStdANSI
  3
"Amdt_StdImp|Product Description: AutoCAD Mechanical|Company: Autodesk"
 90
        0
280
     0
281
     0
  0
CLASS
  1
ACMIDSTANDARDANSI
  2
AcmIdStdANSI
  3
"Amdt_StdImp|Product Description: AutoCAD Mechanical|Company: Autodesk"
 90
        0
280
     0
281
     0
  0
CLASS
  1
ACMDATUMSTANDARDANSI
  2
AcmDatumStdANSI
  3
"Amdt_StdImp|Product Description: AutoCAD Mechanical|Company: Autodesk"
 90
        0
280
     0
281
     0
  0
CLASS
  1
ACMBOMSTANDARDANSI
  2
AcmBOMStdANSI
  3
"Amdt_StdImp|Product Description: AutoCAD Mechanical|Company: Autodesk"
 90
        0
280
     0
281
     0
  0
CLASS
  1
ACMDETAILSTANDARDANSI
  2
AmdtDetailSymStdANSI
  3
"Amdt_StdImp|Product Description: AutoCAD Mechanical|Company: Autodesk"
 90
        0
280
     0
281
     0
  0
CLASS
  1
ACMSECTIONSTANDARDANSI
  2
AmdtSectionSymStdANSI
  3
"Amdt_StdImp|Product Description: AutoCAD Mechanical|Company: Autodesk"
 90
        0
280
     0
281
     0
  0
CLASS
  1
ACMCENTERLINESTANDARDANSI
  2
AmdtCenterLineStdANSI
  3
"Amdt_StdImp|Product Description: AutoCAD Mechanical|Company: Autodesk"
 90
        0
280
     0
281
     0
  0
CLASS
  1
ACMBOM
  2
AcmBom
  3
"AcmSymBB|Product Description: AutoCAD Mechanical|Company: Autodesk"
 90
        0
280
     0
281
     0
  0
CLASS
  1
ACMDATAENTRYPART
  2
AcmDataEntryPart
  3
"AcmSymBB|Product Description: AutoCAD Mechanical|Company: Autodesk"
 90
    32768
280
     0
281
     0
  0
CLASS
  1
ACMPARTREF
  2
AcmPartRef
  3
"AcmSymBB|Product Description: AutoCAD Mechanical|Company: Autodesk"
 90
    35839
280
     0
281
     1
  0
CLASS
  1
ACDBCIRCARCRES
  2
AcDbCircArcRes
  3
AcGrefServices
 90
    32768
280
     0
281
     0
  0
CLASS
  1
ACMBOMROW
  2
AcmBomRow
  3
"AcmSymBB|Product Description: AutoCAD Mechanical|Company: Autodesk"
 90
    32768
280
     0
281
     0
  0
CLASS
  1
ACMBALLOON
  2
AcmBalloon
  3
"AcmSymBB|Product Description: AutoCAD Mechanical|Company: Autodesk"
 90
    35839
280
     0
281
     1
  0
CLASS
  1
AMDTNOTE
  2
AmdtNote
  3
"AcmSymBB|Product Description: AutoCAD Mechanical|Company: Autodesk"
 90
    35839
280
     0
281
     1
  0
CLASS
  1
STDPART2D
  2
AmgStdPart
  3
"g3vace|Class: AmgStdPart|Product Description: AutoCAD Mechanical|Company: Autodesk"
 90
    35839
280
     0
281
     1
  0
CLASS
  1
ACDBSTDPARTRES_LINE
  2
AcDbStdPartRes_Line
  3
"g3vace|Class: AcDbStdPartRes_Line|Product Description: AutoCAD Mechanical|Company: Autodesk"
 90
    32768
280
     0
281
     0
  0
CLASS
  1
ACMDATAENTRY
  2
AcmDataEntry
  3
"AcmSymBB|Product Description: AutoCAD Mechanical|Company: Autodesk"
 90
        0
280
     0
281
     0
  0
CLASS
  1
ACDBOPPOLYLINERES
  2
AcDbOpPolylineRes
  3
AcGrefServices
 90
    32768
280
     0
281
     0
  0
CLASS
  1
ACMPARTLIST
  2
AcmPartList
  3
"AcmSymBB|Product Description: AutoCAD Mechanical|Company: Autodesk"
 90
    35839
280
     0
281
     1
  0
CLASS
  1
ACDBLINERES
  2
AcDbLineRes
  3
AcGrefServices
 90
    32768
280
     0
281
     0
  0
CLASS
  1
ACRFINSADJ
  2
AcRfInsAdjuster
  3
AcMeServices
 90
    32768
280
     0
281
     0
  0
CLASS
  1
AM_DRAWING_MGR
  2
AcDmDwgMgr
  3
AcMechDwgViewMgmt
 90
        0
280
     0
281
     0
  0
CLASS
  1
AM_DWG_DOCUMENT
  2
AcDmDwgDocument
  3
AcMechDwgViewMgmt
 90
        0
280
     0
281
     0
  0
CLASS
  1
AM_DWG_SHEET
  2
AcDmSheet
  3
AcMechDwgViewMgmt
 90
        0
280
     0
281
     0
  0
CLASS
  1
AM_VIEWDIMPARMAP
  2
AcDmViewDimParMap
  3
AcMechDwgViewMgmt
 90
        0
280
     0
281
     0
  0
CLASS
  1
AM_DWGMGR_NAME
  2
AcDmDwgMgrName
  3
AcMechDwgViewMgmt
 90
        0
280
     0
281
     0
  0
CLASS
  1
AMDTMENUSTATEMGR
  2
AmdtMenuStateMgr
  3
McadcomServices
 90
        0
280
     0
281
     0
  0
CLASS
  1
AMDTMCOMMENUSTATE
  2
AmdtMcomMenuState
  3
McadcomServices
 90
        0
280
     0
281
     0
  0
CLASS
  1
ASAPP
  2
AcAsAppObject
  3
AutoSurfServices
 90
        0
280
     0
281
     0
  0
CLASS
  1
IM_STATIC_MAN
  2
AcImStaticVarManager
  3
AcMeServices
 90
        0
280
     0
281
     0
  0
CLASS
  1
ACIMDBLSTATICVAR
  2
AcImDblStaticVar
  3
AcMeServices
 90
        0
280
     0
281
     0
  0
CLASS
  1
ACIMSTRSTATICVAR
  2
AcImStrStaticVar
  3
AcMeServices
 90
        0
280
     0
281
     0
  0
CLASS
  1
ACIMINTSTATICVAR
  2
AcImIntStaticVar
  3
AcMeServices
 90
        0
280
     0
281
     0
  0
CLASS
  1
ACASGREFMASTER
  2
AcAsGrefMaster
  3
AutoSurfResolverServices
 90
        0
280
     0
281
     0
  0
CLASS
  1
ACADGREFMODULE
  2
AcAdGrefModule
  3
AdGrefServices
 90
        0
280
     0
281
     0
  0
CLASS
  1
AMDTMAPISURFMOUDULE
  2
AmdtMApiSurfModule
  3
MApiSurfServices
 90
        0
280
     0
281
     0
  0
CLASS
  1
MAPIAMMOUDLE
  2
MApiAmModule
  3
MApiAmServices
 90
        0
280
     0
281
     0
  0
CLASS
  1
AMDTADMENUSTATE
  2
AmdtAdMenuState
  3
DesignerServices
 90
        0
280
     0
281
     0
  0
CLASS
  1
ADAPPL
  2
AcAdAppl
  3
DesignerServices
 90
        0
280
     0
281
     0
  0
CLASS
  1
DEPMGR
  2
AcAdDepMgr
  3
DesignerServices
 90
        0
280
     0
281
     0
  0
CLASS
  1
PARAMMGR
  2
AcAdParamMgr
  3
DesignerServices
 90
        0
280
     0
281
     0
  0
CLASS
  1
PARAMSCOPE
  2
AcAdParamScope
  3
DesignerServices
 90
        0
280
     0
281
     0
  0
CLASS
  1
NAMEDAPPL
  2
AcAdNamedAppl
  3
DesignerServices
 90
        0
280
     0
281
     0
  0
CLASS
  1
ADHNTMPLT
  2
AdHoleNoteTemplateMgr
  3
DesignerServices
 90
    32768
280
     0
281
     0
  0
CLASS
  1
AM_HNTEMPLATE_MGR_NAME
  2
AdHoleNoteTemplateMgrName
  3
DesignerServices
 90
    32768
280
     0
281
     0
  0
CLASS
  1
AMDTDMMENUSTATE
  2
AmdtDmMenuState
  3
AcMechDwgViewMgmt
 90
        0
280
     0
281
     0
  0
CLASS
  1
MAPIADMODULE
  2
MApiAdModule
  3
MApiAdServices
 90
        0
280
     0
281
     0
  0
CLASS
  1
AMDTAMMENUSTATE
  2
AmdtAmMenuState
  3
DesignerAssemblies
 90
        0
280
     0
281
     0
  0
CLASS
  1
ACAMPROJECT
  2
AcAmProject
  3
DesignerAssemblies
 90
        0
280
     0
281
     0
  0
CLASS
  1
ACAMGRCOMPDEF
  2
AcAmGrCompDef
  3
DesignerAssemblies
 90
        0
280
     0
281
     0
  0
CLASS
  1
ACCMCONTEXT
  2
AcCmContext
  3
DesignerAssemblies
 90
        0
280
     0
281
     0
  0
CLASS
  1
ACAMCOMPDEF
  2
AcAmCompDef
  3
DesignerAssemblies
 90
        0
280
     0
281
     0
  0
CLASS
  1
ACAMCOMPDEFMGR
  2
AcAmCompDefMgr
  3
DesignerAssemblies
 90
        0
280
     0
281
     0
  0
CLASS
  1
AMCONTEXTMGR
  2
AcAmContextMgr
  3
DesignerAssemblies
 90
        0
280
     0
281
     0
  0
CLASS
  1
ACAMCONTEXTMODELER
  2
AcAmContextModeler
  3
DesignerAssemblies
 90
        0
280
     0
281
     0
  0
CLASS
  1
CATALOGSTATE
  2
AcAmCatalogState
  3
DesignerAssemblies
 90
        0
280
     0
281
     0
  0
CLASS
  1
ACAMGRCOMPDEFSET
  2
AcAmGrCompDefSet
  3
DesignerAssemblies
 90
        0
280
     0
281
     0
  0
CLASS
  1
AMDTBROWSERDBTAB
  2
AmdtBrowserDbTab
  3
McadcomServices
 90
        0
280
     0
281
     0
  0
CLASS
  1
CBROWSERAPPOBJECT
  2
CBrowserAppObject
  3
McadcomServices
 90
        0
280
     0
281
     0
  0
CLASS
  1
DM_PLACEHOLDER
  2
AcDmSelsetPlaceholder
  3
AcMechDwgViewMgmt
 90
        0
280
     0
281
     0
  0
CLASS
  1
ACMPICKOBJ
  2
AcmPickEnt
  3
"AcmSymBB|Product Description: AutoCAD Mechanical|Company: Autodesk"
 90
    32768
280
     0
281
     1
  0
CLASS
  1
ACMNOTESTANDARDISO
  2
AmdtNoteStdISO
  3
"Amdt_StdImp|Product Description: AutoCAD Mechanical|Company: Autodesk"
 90
        0
280
     0
281
     0
  0
CLASS
  1
ACMNOTESTANDARDANSI
  2
AmdtNoteStdANSI
  3
"Amdt_StdImp|Product Description: AutoCAD Mechanical|Company: Autodesk"
 90
        0
280
     0
281
     0
  0
CLASS
  1
ACMTHREADLINESTANDARDISO
  2
AmdtThreadLineStdISO
  3
"Amdt_StdImp|Product Description: AutoCAD Mechanical|Company: Autodesk"
 90
        0
280
     0
281
     0
  0
CLASS
  1
ACMTHREADLINESTANDARDANSI
  2
AmdtThreadLineStdANSI
  3
"Amdt_StdImp|Product Description: AutoCAD Mechanical|Company: Autodesk"
 90
        0
280
     0
281
     0
  0
CLASS
  1
TABLESTYLE
  2
AcDbTableStyle
  3
ObjectDBX Classes
 90
     4095
280
     0
281
     0
  0
CLASS
  1
SORTENTSTABLE
  2
AcDbSortentsTable
  3
ObjectDBX Classes
 90
        0
280
     0
281
     0
  0
CLASS
  1
MATERIAL
  2
AcDbMaterial
  3
ObjectDBX Classes
 90
     1024
280
     0
281
     0
  0
CLASS
  1
VISUALSTYLE
  2
AcDbVisualStyle
  3
ObjectDBX Classes
 90
     4095
280
     0
281
     0
  0
CLASS
  1
ACRFATTGENMGR
  2
AcRfAttGeneralMgr
  3
AcAttribServices
 90
        0
280
     0
281
     0
  0
CLASS
  1
ACRFOBJATTMGR
  2
AcRfObjAttGroupMgr
  3
AcAttribServices
 90
        0
280
     0
281
     0
  0
CLASS
  1
ACRFMCADAPIATTHOLDER
  2
AcRfMCADAPIAttHolder
  3
AcAttribServices
 90
        0
280
     0
281
     0
  0
CLASS
  1
AMDTSYSATTR
  2
AmdtSystemAttribute
  3
AcAttribServices
 90
        0
280
     0
281
     0
  0
CLASS
  1
ACMTAPERSTANDARDISO
  2
AcmTaperStdISO
  3
"Amdt_StdImp|Product Description: AutoCAD Mechanical|Company: Autodesk"
 90
        0
280
     0
281
     0
  0
CLASS
  1
CAMSSTRUCTBTNSTATE
  2
StructBtnState
  3
L"DesignerAssemblies"
 90
        0
280
     0
281
     0
  0
CLASS
  1
DIMASSOC
  2
AcDbDimAssoc
  3
"AcDbDimAssoc|Product Desc:     AcDim ARX App For Dimension|Company:          Autodesk, Inc.|WEB Address:      www.autodesk.com"
 90
    32768
280
     0
281
     0
  0
CLASS
  1
AMDTNOTETEMPLATEDB
  2
AmdtNoteTemplateDB
  3
AMDT_STDIMP_MODULE_NAME
 90
        0
280
     0
281
     0
  0
CLASS
  1
ACMTAPERSTANDARDANSI
  2
AcmTaperStdANSI
  3
"Amdt_StdImp|Product Description: AutoCAD Mechanical|Company: Autodesk"
 90
        0
280
     0
281
     0
  0
CLASS
  1
ACAMGHOLECHARTSTDANSI
  2
AcAmgHoleChartStdANSI
  3
ACMSYMBB_MODULE_NAME
 90
        0
280
     0
281
     0
  0
ENDSEC
  0
SECTION
  2
TABLES
  0
TABLE
  2
VPORT
  5
8
330
0
100
AcDbSymbolTable
 70
     1
  0
VPORT
  5
B0EC
330
8
100
AcDbSymbolTableRecord
100
AcDbViewportTableRecord
  2
*Active
 70
     0
 10
0.0
 20
0.0
 11
1.0
 21
1.0
 12
210.0056366856189
 22
148.5004445494964
 13
0.0
 23
0.0
 14
2.5
 24
2.5
 15
10.0
 25
10.0
 16
0.0
 26
0.0
 36
1.0
 17
0.0
 27
0.0
 37
0.0
 40
329.5794538929121
 41
1.28072033898305
 42
50.0
 43
-1370.695619172058
 44
-1370.695619172058
 50
0.0
 51
0.0
 71
     0
 72
   100
 73
     1
 74
     3
 75
     0
 76
     0
 77
     0
 78
     0
281
     0
 65
     0
110
0.0
120
0.0
130
0.0
111
1.0
121
0.0
131
0.0
112
0.0
122
1.0
132
0.0
 79
     0
146
0.0
  0
ENDTAB
  0
TABLE
  2
LTYPE
  5
5
330
0
100
AcDbSymbolTable
 70
    34
  0
LTYPE
  5
14
330
5
100
AcDbSymbolTableRecord
100
AcDbLinetypeTableRecord
  2
ByBlock
 70
     0
  3

 72
    65
 73
     0
 40
0.0
  0
LTYPE
  5
15
330
5
100
AcDbSymbolTableRecord
100
AcDbLinetypeTableRecord
  2
ByLayer
 70
     0
  3

 72
    65
 73
     0
 40
0.0
  0
LTYPE
  5
16
330
5
100
AcDbSymbolTableRecord
100
AcDbLinetypeTableRecord
  2
Continuous
 70
     0
  3
Solid line
 72
    65
 73
     0
 40
0.0
  0
LTYPE
  5
4F
330
5
100
AcDbSymbolTableRecord
100
AcDbLinetypeTableRecord
  2
AM_ISO02W050
 70
     0
  3
__ __ __ __ __ __ __ __ __ __ __ __ __ __ __
 72
    65
 73
     2
 40
7.5
 49
6.0
 74
     0
 49
-1.5
 74
     0
  0
LTYPE
  5
52
330
5
100
AcDbSymbolTableRecord
100
AcDbLinetypeTableRecord
  2
Amconstr
 70
     0
  3
_______________________
 72
    65
 73
     2
 40
9999.0
 49
9999.0
 74
     0
 49
0.0
 74
     0
  0
LTYPE
  5
64
330
5
100
AcDbSymbolTableRecord
100
AcDbLinetypeTableRecord
  2
ACISOWELD
 70
     0
  3
_ _ _ _ _
 72
    65
 73
     2
 40
2.0
 49
2.0
 74
     0
 49
-1.0
 74
     0
  0
LTYPE
  5
65
330
5
100
AcDbSymbolTableRecord
100
AcDbLinetypeTableRecord
  2
ACISOTGB
 70
     0
  3
__ . . __ . .
 72
    65
 73
     6
 40
9.0
 49
4.0
 74
     0
 49
-1.0
 74
     0
 49
1.0
 74
     0
 49
-1.0
 74
     0
 49
1.0
 74
     0
 49
-1.0
 74
     0
  0
LTYPE
  5
66
330
5
100
AcDbSymbolTableRecord
100
AcDbLinetypeTableRecord
  2
ACISOTGL
 70
     0
  3
_ _ _ _ _
 72
    65
 73
     2
 40
3.0
 49
2.0
 74
     0
 49
-1.0
 74
     0
  0
LTYPE
  5
69
330
5
100
AcDbSymbolTableRecord
100
AcDbLinetypeTableRecord
  2
CENTER
 70
     0
  3
__ . __
 72
    65
 73
     4
 40
7.0
 49
4.0
 74
     0
 49
-1.0
 74
     0
 49
1.0
 74
     0
 49
-1.0
 74
     0
  0
LTYPE
  5
A6E
330
5
100
AcDbSymbolTableRecord
100
AcDbLinetypeTableRecord
  2
PHANTOM2
 70
     0
  3
Phantom (.5x) ___ _ _ ___ _ _ ___ _ _ ___ _ _
 72
    65
 73
     6
 40
31.75
 49
15.875
 74
     0
 49
-3.174999999999999
 74
     0
 49
3.174999999999999
 74
     0
 49
-3.174999999999999
 74
     0
 49
3.174999999999999
 74
     0
 49
-3.174999999999999
 74
     0
  0
LTYPE
  5
4DED
330
5
100
AcDbSymbolTableRecord
100
AcDbLinetypeTableRecord
  2
中線
 70
     0
  3
___________________
 72
    65
 73
     2
 40
2.0
 49
1.0
 74
     0
 49
1.0
 74
     0
  0
LTYPE
  5
4DF6
330
5
100
AcDbSymbolTableRecord
100
AcDbLinetypeTableRecord
  2
細線
 70
     0
  3
___________________
 72
    65
 73
     2
 40
2.0
 49
1.0
 74
     0
 49
1.0
 74
     0
  0
LTYPE
  5
4DF7
330
5
100
AcDbSymbolTableRecord
100
AcDbLinetypeTableRecord
  2
太線
 70
     0
  3
___________________
 72
    65
 73
     2
 40
2.0
 49
1.0
 74
     0
 49
1.0
 74
     0
  0
LTYPE
  5
4EA7
330
5
100
AcDbSymbolTableRecord
100
AcDbLinetypeTableRecord
  2
文字
 70
     0
  3
_________________
 72
    65
 73
     2
 40
2.0
 49
1.0
 74
     0
 49
1.0
 74
     0
  0
LTYPE
  5
4EA9
330
5
100
AcDbSymbolTableRecord
100
AcDbLinetypeTableRecord
  2
寸法線
 70
     0
  3
________________
 72
    65
 73
     2
 40
2.0
 49
1.0
 74
     0
 49
1.0
 74
     0
  0
LTYPE
  5
4F12
330
5
100
AcDbSymbolTableRecord
100
AcDbLinetypeTableRecord
  2
ハッチング
 70
     0
  3
_________________
 72
    65
 73
     2
 40
2.0
 49
1.0
 74
     0
 49
1.0
 74
     0
  0
LTYPE
  5
5180
330
5
100
AcDbSymbolTableRecord
100
AcDbLinetypeTableRecord
  2
陰線1
 70
     0
  3
__ __ __ __
 72
    65
 73
     2
 40
4.0
 49
2.2
 74
     0
 49
-1.8
 74
     0
  0
LTYPE
  5
5182
330
5
100
AcDbSymbolTableRecord
100
AcDbLinetypeTableRecord
  2
切断線
 70
     0
  3
/\/-/\/-/\/-/\/-/\/-/\/
 72
    65
 73
     2
 40
11.0001
 49
0.0001
 74
     4
 75
   135
340
56
 46
0.04
 50
0.0
 44
0.0
 45
0.0
 49
-11.0
 74
     0
  0
LTYPE
  5
5183
330
5
100
AcDbSymbolTableRecord
100
AcDbLinetypeTableRecord
  2
想像線1
 70
     0
  3
__ __ __ _____ __ __ ____
 72
    65
 73
     6
 40
14.5
 49
6.0
 74
     0
 49
-1.5
 74
     0
 49
2.0
 74
     0
 49
-1.5
 74
     0
 49
2.0
 74
     0
 49
-1.5
 74
     0
  0
LTYPE
  5
5185
330
5
100
AcDbSymbolTableRecord
100
AcDbLinetypeTableRecord
  2
中心線1
 70
     0
  3
___ _ ___ _ ___
 72
    65
 73
     4
 40
18.0
 49
12.0
 74
     0
 49
-2.0
 74
     0
 49
2.0
 74
     0
 49
-2.0
 74
     0
  0
LTYPE
  5
5188
330
5
100
AcDbSymbolTableRecord
100
AcDbLinetypeTableRecord
  2
補助線
 70
     0
  3
______________
 72
    65
 73
     2
 40
2.0
 49
1.0
 74
     0
 49
1.0
 74
     0
  0
LTYPE
  5
6427
330
5
100
AcDbSymbolTableRecord
100
AcDbLinetypeTableRecord
  2
HIDDEN
 70
     0
  3
Hidden __ __ __ __ __ __ __ __ __ __ __ __ __ _
 72
    65
 73
     2
 40
0.375
 49
0.25
 74
     0
 49
-0.125
 74
     0
  0
LTYPE
  5
AC81
330
5
100
AcDbSymbolTableRecord
100
AcDbLinetypeTableRecord
  2
破断線
 70
     0
  3
/\/-/\/-/\/-/\/-/\/-/\/
 72
    65
 73
     2
 40
0.4401
 49
0.0001
 74
     4
 75
   136
340
AC80
 46
0.0016
 50
0.0
 44
0.0
 45
0.0
 49
-0.4400000000000001
 74
     0
  0
LTYPE
  5
AC9E
330
5
100
AcDbSymbolTableRecord
100
AcDbLinetypeTableRecord
  2
Amzigzag
 70
     0
  3
/\/-/\/-/\/-/\/-/\/-/\/
 72
    65
 73
     2
 40
11.0001
 49
0.0001
 74
     4
 75
   135
340
56
 46
0.04
 50
0.0
 44
0.0
 45
0.0
 49
-11.0
 74
     0
  0
LTYPE
  5
AF0F
330
5
100
AcDbSymbolTableRecord
100
AcDbLinetypeTableRecord
  2
genzigzag
 70
     0
  3
/\/-/\/-/\/-/\/-/\/-/\/
 72
    65
 73
     2
 40
12.0001
 49
0.0001
 74
     4
 75
   135
340
AC80
 46
2.0
 50
0.0
 44
0.0
 45
0.0
 49
-12.0
 74
     0
  0
LTYPE
  5
AF95
330
5
100
AcDbSymbolTableRecord
100
AcDbLinetypeTableRecord
  2
AM_ISO08W050
 70
     0
  3
____ . ____ . ____ . ____ . ____ . ____ . ____
 72
    65
 73
     4
 40
18.0
 49
12.0
 74
     0
 49
-1.5
 74
     0
 49
3.0
 74
     0
 49
-1.5
 74
     0
  0
LTYPE
  5
AF96
330
5
100
AcDbSymbolTableRecord
100
AcDbLinetypeTableRecord
  2
AM_ISO09W050
 70
     0
  3
_____ . . _____ . . _____ . . ____ .. ____
 72
    65
 73
     6
 40
22.5
 49
12.0
 74
     0
 49
-1.5
 74
     0
 49
3.0
 74
     0
 49
-1.5
 74
     0
 49
3.0
 74
     0
 49
-1.5
 74
     0
  0
LTYPE
  5
AF97
330
5
100
AcDbSymbolTableRecord
100
AcDbLinetypeTableRecord
  2
AM_ISO08W050x2
 70
     0
  3
__ . __ . __ . __ . __ . __
 72
    65
 73
     4
 40
9.0
 49
6.0
 74
     0
 49
-0.75
 74
     0
 49
1.5
 74
     0
 49
-0.75
 74
     0
  0
LTYPE
  5
AF98
330
5
100
AcDbSymbolTableRecord
100
AcDbLinetypeTableRecord
  2
AM_ISO02W050x2
 70
     0
  3
 _ _ _ _ _ _ _ _ _ _ _ _
 72
    65
 73
     2
 40
3.75
 49
3.0
 74
     0
 49
-0.75
 74
     0
  0
LTYPE
  5
B6FC
330
5
100
AcDbSymbolTableRecord
100
AcDbLinetypeTableRecord
  2
CENTER2
 70
     0
  3
Center (.5x) ___ _ ___ _ ___ _ ___ _ ___ _ ___
 72
    65
 73
     4
 40
1.125
 49
0.75
 74
     0
 49
-0.125
 74
     0
 49
0.125
 74
     0
 49
-0.125
 74
     0
  0
LTYPE
  5
B6FD
330
5
100
AcDbSymbolTableRecord
100
AcDbLinetypeTableRecord
  2
HIDDEN2
 70
     0
  3
Hidden (.5x) _ _ _ _ _ _ _ _ _ _ _ _ _ _ _ _ _
 72
    65
 73
     2
 40
0.1875
 49
0.125
 74
     0
 49
-0.0625
 74
     0
  0
LTYPE
  5
B6FE
330
5
100
AcDbSymbolTableRecord
100
AcDbLinetypeTableRecord
  2
Amzigzag2
 70
     0
  3
/\/-/\/-/\/-/\/-/\/-/\/
 72
    65
 73
     2
 40
0.4401
 49
0.0001
 74
     4
 75
   136
340
AC80
 46
0.0016
 50
0.0
 44
0.0
 45
0.0
 49
-0.4400000000000001
 74
     0
  0
LTYPE
  5
B6FF
330
5
100
AcDbSymbolTableRecord
100
AcDbLinetypeTableRecord
  2
ACANSTGB
 70
     0
  3
__ . . __ . .
 72
    65
 73
     6
 40
0.35433070866
 49
0.15748031496
 74
     0
 49
-0.03937007874
 74
     0
 49
0.03937007874
 74
     0
 49
-0.03937007874
 74
     0
 49
0.03937007874
 74
     0
 49
-0.03937007874
 74
     0
  0
LTYPE
  5
B700
330
5
100
AcDbSymbolTableRecord
100
AcDbLinetypeTableRecord
  2
ACANSTGL
 70
     0
  3
_ _ _ _ _
 72
    65
 73
     2
 40
0.11811023622
 49
0.07874015748
 74
     0
 49
-0.03937007874
 74
     0
  0
LTYPE
  5
D1F0
330
5
100
AcDbSymbolTableRecord
100
AcDbLinetypeTableRecord
  2
DASHED3
 70
     0
  3
------  ------  ------  ------  
 72
    65
 73
     2
 40
5.0
 49
3.75
 74
     0
 49
-1.25
 74
     0
  0
LTYPE
  5
D1F1
330
5
100
AcDbSymbolTableRecord
100
AcDbLinetypeTableRecord
  2
CENTER1
 70
     0
  3
----- - ----- - ----- - ----- - 
 72
    65
 73
     4
 40
10.0
 49
6.25
 74
     0
 49
-1.25
 74
     0
 49
1.25
 74
     0
 49
-1.25
 74
     0
  0
ENDTAB
  0
TABLE
  2
LAYER
  5
2
102
{ACAD_XDICTIONARY
360
3F95
102
}
330
0
100
AcDbSymbolTable
 70
    22
  0
LAYER
  5
10
330
2
100
AcDbSymbolTableRecord
100
AcDbLayerTableRecord
  2
0
 70
     0
 62
     7
  6
Continuous
370
    -3
390
F
  0
LAYER
  5
6D1
330
2
100
AcDbSymbolTableRecord
100
AcDbLayerTableRecord
  2
Defpoints
 70
     0
 62
     7
  6
Continuous
290
     0
370
    -3
390
F
  0
LAYER
  5
5F85
330
2
100
AcDbSymbolTableRecord
100
AcDbLayerTableRecord
  2
AM_0
 70
     0
 62
     7
  6
中線
370
    30
390
F
1001
AcAecLayerStandard
1000

1000

  0
LAYER
  5
AC9F
330
2
100
AcDbSymbolTableRecord
100
AcDbLayerTableRecord
  2
size
 70
     0
 62
     5
  6
Continuous
290
     0
370
    25
390
F
  0
LAYER
  5
ACA0
330
2
100
AcDbSymbolTableRecord
100
AcDbLayerTableRecord
  2
waku
 70
     0
 62
     7
  6
Continuous
370
    35
390
F
  0
LAYER
  5
ACA1
330
2
100
AcDbSymbolTableRecord
100
AcDbLayerTableRecord
  2
AM_6
 70
     0
 62
     2
  6
文字
370
    13
390
F
1001
AcAecLayerStandard
1000

1000

  0
LAYER
  5
ACC8
330
2
100
AcDbSymbolTableRecord
100
AcDbLayerTableRecord
  2
hyomoji
 70
     0
 62
     2
  6
Continuous
370
    13
390
F
  0
LAYER
  5
ACC9
330
2
100
AcDbSymbolTableRecord
100
AcDbLayerTableRecord
  2
hyosen1
 70
     0
 62
     1
  6
Continuous
370
    25
390
F
  0
LAYER
  5
ACCA
330
2
100
AcDbSymbolTableRecord
100
AcDbLayerTableRecord
  2
hyosen2
 70
     0
 62
     1
  6
Continuous
370
    13
390
F
  0
LAYER
  5
AD60
330
2
100
AcDbSymbolTableRecord
100
AcDbLayerTableRecord
  2
AM_1
 70
     0
 62
    30
  6
太線
370
    40
390
F
1001
AcAecLayerStandard
1000

1000

  0
LAYER
  5
AD64
330
2
100
AcDbSymbolTableRecord
100
AcDbLayerTableRecord
  2
AM_2
 70
     0
 62
     1
  6
細線
370
    13
390
F
1001
AcAecLayerStandard
1000

1000

  0
LAYER
  5
AD67
330
2
100
AcDbSymbolTableRecord
100
AcDbLayerTableRecord
  2
AM_3
 70
     0
 62
     6
  6
陰線1
370
    13
390
F
1001
AcAecLayerStandard
1000

1000

  0
LAYER
  5
AD68
330
2
100
AcDbSymbolTableRecord
100
AcDbLayerTableRecord
  2
AM_5
 70
     0
 62
     3
  6
寸法線
370
    13
390
F
1001
AcAecLayerStandard
1000

1000

  0
LAYER
  5
AD69
330
2
100
AcDbSymbolTableRecord
100
AcDbLayerTableRecord
  2
AM_7
 70
     0
 62
     4
  6
中心線1
370
    13
390
F
1001
AcAecLayerStandard
1000

1000

  0
LAYER
  5
AD6A
330
2
100
AcDbSymbolTableRecord
100
AcDbLayerTableRecord
  2
AM_8
 70
     0
 62
     1
  6
ハッチング
370
    13
390
F
1001
AcAecLayerStandard
1000

1000

  0
LAYER
  5
AD6E
330
2
100
AcDbSymbolTableRecord
100
AcDbLayerTableRecord
  2
AM_10
 70
     0
 62
     7
  6
切断線
370
    13
390
F
1001
AcAecLayerStandard
1000

1000

  0
LAYER
  5
AD6F
330
2
100
AcDbSymbolTableRecord
100
AcDbLayerTableRecord
  2
AM_11
 70
     0
 62
     2
  6
想像線1
370
    13
390
F
1001
AcAecLayerStandard
1000

1000

  0
LAYER
  5
B1B6
330
2
100
AcDbSymbolTableRecord
100
AcDbLayerTableRecord
  2
AM_CL
 70
     1
 62
    -1
  6
Amconstr
370
    15
390
F
1001
AcAecLayerStandard
1000

1000

  0
LAYER
  5
B2EB
330
2
100
AcDbSymbolTableRecord
100
AcDbLayerTableRecord
  2
AM_14
 70
     0
 62
     5
  6
細線
370
     9
390
F
1001
AcAecLayerStandard
1000

1000

  0
LAYER
  5
B2EC
330
2
100
AcDbSymbolTableRecord
100
AcDbLayerTableRecord
  2
AM_15
 70
     0
 62
     6
  6
陰線1
370
     9
390
F
1001
AcAecLayerStandard
1000

1000

  0
LAYER
  5
BAA3
330
2
100
AcDbSymbolTableRecord
100
AcDbLayerTableRecord
  2
0文字
 70
     0
 62
     2
  6
Continuous
370
    13
390
F
1001
AcAecLayerStandard
1000

1000

  0
LAYER
  5
D1F2
330
2
100
AcDbSymbolTableRecord
100
AcDbLayerTableRecord
  2
_0-0_0
 70
     0
 62
     7
  6
Continuous
370
    -3
390
F
  0
ENDTAB
  0
TABLE
  2
STYLE
  5
3
330
0
100
AcDbSymbolTable
 70
    11
  0
STYLE
  5
11
330
3
100
AcDbSymbolTableRecord
100
AcDbTextStyleTableRecord
  2
STANDARD
 70
     0
 40
0.0
 41
0.7
 50
0.0
 71
     0
 42
3.2
  3
romans.shx
  4
extfont.shx
  0
STYLE
  5
56
330
3
100
AcDbSymbolTableRecord
100
AcDbTextStyleTableRecord
  2

 70
     1
 40
0.0
 41
1.0
 50
0.0
 71
     0
 42
2.5
  3
ltypeshp.shx
  4

  0
STYLE
  5
58
330
3
100
AcDbSymbolTableRecord
100
AcDbTextStyleTableRecord
  2
ACISOTS
 70
     0
 40
1.0
 41
1.0
 50
0.0
 71
     0
 42
2.5
  3
isocp.shx
  4
extfont.shx
  0
STYLE
  5
63
330
3
100
AcDbSymbolTableRecord
100
AcDbTextStyleTableRecord
  2
ACISOGDT
 70
     0
 40
0.0
 41
1.0
 50
0.0
 71
     0
 42
2.5
  3
amgdt.shx
  4

  0
STYLE
  5
A74
330
3
100
AcDbSymbolTableRecord
100
AcDbTextStyleTableRecord
  2
DIM
 70
     0
 40
0.0
 41
1.0
 50
0.0
 71
     0
 42
2.5
  3
monotxt.shx
  4
extfont.shx
  0
STYLE
  5
AC80
330
3
100
AcDbSymbolTableRecord
100
AcDbTextStyleTableRecord
  2

 70
     1
 40
0.0
 41
1.0
 50
0.0
 71
     0
 42
3.2
  3
genltshp.shx
  4

  0
STYLE
  5
B701
330
3
100
AcDbSymbolTableRecord
100
AcDbTextStyleTableRecord
  2
ACANSTS
 70
     0
 40
1.0
 41
1.0
 50
0.0
 71
     0
 42
3.2
  3
romans.shx
  4
extfont.shx
  0
STYLE
  5
B702
330
3
100
AcDbSymbolTableRecord
100
AcDbTextStyleTableRecord
  2
ACANSGDT
 70
     0
 40
0.0
 41
1.0
 50
0.0
 71
     0
 42
3.2
  3
amgdt.shx
  4

  0
ENDTAB
  0
TABLE
  2
VIEW
  5
6
330
0
100
AcDbSymbolTable
 70
     6
  0
VIEW
  5
AE1
330
6
100
AcDbSymbolTableRecord
100
AcDbViewTableRecord
  2
AM_VIEW1
 70
     0
 40
163.702163061564
 10
105.0
 20
215.1489184692179
 41
210.0
 11
0.0
 21
0.0
 31
1.0
 12
0.0
 22
0.0
 32
0.0
 42
50.0
 43
-1370.695619172058
 44
-1370.695619172058
 50
0.0
 71
     0
281
     0
 72
     0
  0
VIEW
  5
AE2
330
6
100
AcDbSymbolTableRecord
100
AcDbViewTableRecord
  2
AM_VIEW2
 70
     0
 40
163.702163061564
 10
315.0
 20
215.1489184692179
 41
210.0
 11
0.0
 21
0.0
 31
1.0
 12
0.0
 22
0.0
 32
0.0
 42
50.0
 43
-1370.695619172058
 44
-1370.695619172058
 50
0.0
 71
     0
281
     0
 72
     0
  0
VIEW
  5
AE3
330
6
100
AcDbSymbolTableRecord
100
AcDbViewTableRecord
  2
AM_VIEW3
 70
     0
 40
163.702163061564
 10
105.0
 20
81.85108153078202
 41
210.0
 11
0.0
 21
0.0
 31
1.0
 12
0.0
 22
0.0
 32
0.0
 42
50.0
 43
-1370.695619172058
 44
-1370.695619172058
 50
0.0
 71
     0
281
     0
 72
     0
  0
VIEW
  5
AE4
330
6
100
AcDbSymbolTableRecord
100
AcDbViewTableRecord
  2
AM_VIEW4
 70
     0
 40
163.702163061564
 10
315.0
 20
81.85108153078202
 41
210.0
 11
0.0
 21
0.0
 31
1.0
 12
0.0
 22
0.0
 32
0.0
 42
50.0
 43
-1370.695619172058
 44
-1370.695619172058
 50
0.0
 71
     0
281
     0
 72
     0
  0
VIEW
  5
AE5
330
6
100
AcDbSymbolTableRecord
100
AcDbViewTableRecord
  2
AM_VIEW5
 70
     0
 40
163.7021630615641
 10
210.0
 20
148.5
 41
210.0
 11
0.0
 21
0.0
 31
1.0
 12
0.0
 22
0.0
 32
0.0
 42
50.0
 43
-1370.695619172058
 44
-1370.695619172058
 50
0.0
 71
     0
281
     0
 72
     0
  0
VIEW
  5
AE6
330
6
100
AcDbSymbolTableRecord
100
AcDbViewTableRecord
  2
AM_VIEW6
 70
     0
 40
327.4010520798669
 10
210.0
 20
148.5
 41
419.9958
 11
0.0
 21
0.0
 31
1.0
 12
0.0
 22
0.0
 32
0.0
 42
50.0
 43
-1370.695619172058
 44
-1370.695619172058
 50
0.0
 71
     0
281
     0
 72
     0
  0
ENDTAB
  0
TABLE
  2
UCS
  5
7
330
0
100
AcDbSymbolTable
 70
     0
  0
ENDTAB
  0
TABLE
  2
APPID
  5
9
330
0
100
AcDbSymbolTable
 70
    60
  0
APPID
  5
12
330
9
100
AcDbSymbolTableRecord
100
AcDbRegAppTableRecord
  2
ACAD
 70
     0
  0
APPID
  5
30
330
9
100
AcDbSymbolTableRecord
100
AcDbRegAppTableRecord
  2
MCAD_NO_VIS
 70
     0
  0
APPID
  5
31
330
9
100
AcDbSymbolTableRecord
100
AcDbRegAppTableRecord
  2
ACAD_TEMP_GRAPHIC
 70
     0
  0
APPID
  5
44
330
9
100
AcDbSymbolTableRecord
100
AcDbRegAppTableRecord
  2
ACATTRIBSERVICES
 70
     0
  0
APPID
  5
7A1
330
9
100
AcDbSymbolTableRecord
100
AcDbRegAppTableRecord
  2
GENIUS_GENDIMSH_14
 70
     0
  0
APPID
  5
A49
330
9
100
AcDbSymbolTableRecord
100
AcDbRegAppTableRecord
  2
GENIUS_GENREC_14
 70
     0
  0
APPID
  5
A4A
330
9
100
AcDbSymbolTableRecord
100
AcDbRegAppTableRecord
  2
GENIUS_GENOBJ-N-REC_13
 70
     0
  0
APPID
  5
A4B
330
9
100
AcDbSymbolTableRecord
100
AcDbRegAppTableRecord
  2
GENIUS_GENODEF_13
 70
     0
  0
APPID
  5
A4C
330
9
100
AcDbSymbolTableRecord
100
AcDbRegAppTableRecord
  2
DCO15
 70
     0
  0
APPID
  5
ADC
330
9
100
AcDbSymbolTableRecord
100
AcDbRegAppTableRecord
  2
GENIUS_GENOLIS_13
 70
     0
  0
APPID
  5
ADD
330
9
100
AcDbSymbolTableRecord
100
AcDbRegAppTableRecord
  2
GENIUS_GENOENT_13
 70
     0
  0
APPID
  5
ADE
330
9
100
AcDbSymbolTableRecord
100
AcDbRegAppTableRecord
  2
GENIUS_GENOBJ-N-TIT_13
 70
     0
  0
APPID
  5
ADF
330
9
100
AcDbSymbolTableRecord
100
AcDbRegAppTableRecord
  2
GENIUS_GENTITLE_13
 70
     0
  0
APPID
  5
AE0
330
9
100
AcDbSymbolTableRecord
100
AcDbRegAppTableRecord
  2
GENIUS_GENOREF_13
 70
     0
  0
APPID
  5
AE7
330
9
100
AcDbSymbolTableRecord
100
AcDbRegAppTableRecord
  2
GENIUS_GENSCREG_15
 70
     0
  0
APPID
  5
AE8
330
9
100
AcDbSymbolTableRecord
100
AcDbRegAppTableRecord
  2
GENIUS_GENOBJ-N-SDF_13
 70
     0
  0
APPID
  5
FAF
330
9
100
AcDbSymbolTableRecord
100
AcDbRegAppTableRecord
  2
GENIUS_GENBLLY_14
 70
     0
  0
APPID
  5
FB0
330
9
100
AcDbSymbolTableRecord
100
AcDbRegAppTableRecord
  2
GENIUS_GENTRA_14
 70
     0
  0
APPID
  5
1285
330
9
100
AcDbSymbolTableRecord
100
AcDbRegAppTableRecord
  2
GENIUS_GENDTOL_13
 70
     0
  0
APPID
  5
142D
330
9
100
AcDbSymbolTableRecord
100
AcDbRegAppTableRecord
  2
GENIUS_GENOBJ-N-CEN_13
 70
     0
  0
APPID
  5
1AB5
330
9
100
AcDbSymbolTableRecord
100
AcDbRegAppTableRecord
  2
GENIUS_GENOBJ-N-CRS_13
 70
     0
  0
APPID
  5
1B36
330
9
100
AcDbSymbolTableRecord
100
AcDbRegAppTableRecord
  2
GENIUS_GENOBJ-N-HTC_13
 70
     0
  0
APPID
  5
1B37
330
9
100
AcDbSymbolTableRecord
100
AcDbRegAppTableRecord
  2
GENIUS_GENHATCH_13
 70
     0
  0
APPID
  5
216D
330
9
100
AcDbSymbolTableRecord
100
AcDbRegAppTableRecord
  2
GENIUS_GENOBJ-N-FIL_13
 70
     0
  0
APPID
  5
2356
330
9
100
AcDbSymbolTableRecord
100
AcDbRegAppTableRecord
  2
GEVID990412420
 70
     0
  0
APPID
  5
2357
330
9
100
AcDbSymbolTableRecord
100
AcDbRegAppTableRecord
  2
GEVDC
 70
     0
  0
APPID
  5
2358
330
9
100
AcDbSymbolTableRecord
100
AcDbRegAppTableRecord
  2
GEVCON
 70
     0
  0
APPID
  5
235B
330
9
100
AcDbSymbolTableRecord
100
AcDbRegAppTableRecord
  2
GEVRADREF
 70
     0
  0
APPID
  5
2360
330
9
100
AcDbSymbolTableRecord
100
AcDbRegAppTableRecord
  2
GENIUS_GENBH_13
 70
     0
  0
APPID
  5
2362
330
9
100
AcDbSymbolTableRecord
100
AcDbRegAppTableRecord
  2
GENIUS_GENOBJ-NBEHI-BHF_13
 70
     0
  0
APPID
  5
2364
330
9
100
AcDbSymbolTableRecord
100
AcDbRegAppTableRecord
  2
GENIUS_GENOBJ-NBEHI-BHB_13
 70
     0
  0
APPID
  5
2379
330
9
100
AcDbSymbolTableRecord
100
AcDbRegAppTableRecord
  2
GENIUS_GENOBJ-F-SCPASSM_13
 70
     0
  0
APPID
  5
3D74
330
9
100
AcDbSymbolTableRecord
100
AcDbRegAppTableRecord
  2
GENIUS_GENDIM_13
 70
     0
  0
APPID
  5
3D76
330
9
100
AcDbSymbolTableRecord
100
AcDbRegAppTableRecord
  2
GENIUS_GE3DTOL_13
 70
     0
  0
APPID
  5
3D9C
330
9
100
AcDbSymbolTableRecord
100
AcDbRegAppTableRecord
  2
AD_DRAW
 70
     0
  0
APPID
  5
3DE8
330
9
100
AcDbSymbolTableRecord
100
AcDbRegAppTableRecord
  2
ASURF_PCURVE_APPNAME
 70
     0
  0
APPID
  5
3DED
330
9
100
AcDbSymbolTableRecord
100
AcDbRegAppTableRecord
  2
AMG_3D2D_5.0
 70
     0
  0
APPID
  5
3E1B
330
9
100
AcDbSymbolTableRecord
100
AcDbRegAppTableRecord
  2
DESIGNERASSEMBLIES
 70
     0
  0
APPID
  5
3E20
330
9
100
AcDbSymbolTableRecord
100
AcDbRegAppTableRecord
  2
ACADM_DIM_EDIT
 70
     0
  0
APPID
  5
3E21
330
9
100
AcDbSymbolTableRecord
100
AcDbRegAppTableRecord
  2
AMDT_DM_ADJ
 70
     0
  0
APPID
  5
4143
330
9
100
AcDbSymbolTableRecord
100
AcDbRegAppTableRecord
  2
GENIUS_GENFIL_13
 70
     0
  0
APPID
  5
4144
330
9
100
AcDbSymbolTableRecord
100
AcDbRegAppTableRecord
  2
GENIUS_GENOBJ-N-CHA_13
 70
     0
  0
APPID
  5
4E17
330
9
100
AcDbSymbolTableRecord
100
AcDbRegAppTableRecord
  2
GEVID1008153417
 70
     0
  0
APPID
  5
4E58
330
9
100
AcDbSymbolTableRecord
100
AcDbRegAppTableRecord
  2
GEVID1008153418
 70
     0
  0
APPID
  5
4E5E
330
9
100
AcDbSymbolTableRecord
100
AcDbRegAppTableRecord
  2
GEVID1008153419
 70
     0
  0
APPID
  5
4E64
330
9
100
AcDbSymbolTableRecord
100
AcDbRegAppTableRecord
  2
GEVID1008153420
 70
     0
  0
APPID
  5
4E75
330
9
100
AcDbSymbolTableRecord
100
AcDbRegAppTableRecord
  2
GEVID1008153421
 70
     0
  0
APPID
  5
4EB7
330
9
100
AcDbSymbolTableRecord
100
AcDbRegAppTableRecord
  2
GENIUS_AMGTXT_16
 70
     0
  0
APPID
  5
7645
330
9
100
AcDbSymbolTableRecord
100
AcDbRegAppTableRecord
  2
GENIUS_GENOBJ-N-DIM_13
 70
     0
  0
APPID
  5
AAD0
330
9
100
AcDbSymbolTableRecord
100
AcDbRegAppTableRecord
  2
ACAD_DSTYLE_DIMARC_LENGTH_SYMBOL
 70
     0
  0
APPID
  5
AAD1
330
9
100
AcDbSymbolTableRecord
100
AcDbRegAppTableRecord
  2
ACAD_DSTYLE_DIMJOGGED_JOGANGLE_SYMBOL
 70
     0
  0
APPID
  5
AAFD
330
9
100
AcDbSymbolTableRecord
100
AcDbRegAppTableRecord
  2
ACAD_PSEXT
 70
     0
  0
APPID
  5
AD61
330
9
100
AcDbSymbolTableRecord
100
AcDbRegAppTableRecord
  2
AcAecLayerStandard
 70
     0
  0
APPID
  5
AEE3
330
9
100
AcDbSymbolTableRecord
100
AcDbRegAppTableRecord
  2
ACAD_EXEMPT_FROM_CAD_STANDARDS
 70
     0
  0
APPID
  5
B1BE
330
9
100
AcDbSymbolTableRecord
100
AcDbRegAppTableRecord
  2
GENIUS_GENCEN_19
 70
     0
  0
APPID
  5
B505
330
9
100
AcDbSymbolTableRecord
100
AcDbRegAppTableRecord
  2
ACAD_MLEADERVER
 70
     0
  0
APPID
  5
B530
330
9
100
AcDbSymbolTableRecord
100
AcDbRegAppTableRecord
  2
ACAUTHENVIRON
 70
     0
  0
APPID
  5
B531
330
9
100
AcDbSymbolTableRecord
100
AcDbRegAppTableRecord
  2
AcDbDynamicBlockTrueName
 70
     0
  0
APPID
  5
B532
330
9
100
AcDbSymbolTableRecord
100
AcDbRegAppTableRecord
  2
AcDbDynamicBlockGUID
 70
     0
  0
APPID
  5
B533
330
9
100
AcDbSymbolTableRecord
100
AcDbRegAppTableRecord
  2
ACDBBLOCKREPETAG
 70
     0
  0
ENDTAB
  0
TABLE
  2
DIMSTYLE
  5
A
330
0
100
AcDbSymbolTable
 70
    27
100
AcDbDimStyleTable
 71
     1
340
2515
  0
DIMSTYLE
105
A76
330
A
100
AcDbSymbolTableRecord
100
AcDbDimStyleTableRecord
  2
STANDARD
 70
     0
 41
3.0
 42
1.0
 43
7.0
 44
2.0
 73
     0
 74
     0
 77
     1
140
2.799999999999999
141
0.0
143
0.0394
147
0.7
171
     4
172
     1
173
     1
176
     3
177
     3
178
     2
271
     3
272
     3
273
     8
274
     4
289
     0
340
A74
341
A66
343
A66
344
A66
  0
DIMSTYLE
105
2515
330
A
100
AcDbSymbolTableRecord
100
AcDbDimStyleTableRecord
  2
SYS
 70
     0
  4
"
 41
1.0
 42
1.0
 43
10.0
 44
1.0
 47
0.1
 48
0.1
 73
     0
 74
     0
 77
     1
 78
     8
 79
     2
140
3.5
141
0.0
143
0.0393701
146
0.71
147
1.5
172
     1
176
   256
177
   256
178
     7
271
     2
272
     2
283
     0
284
     8
340
11
371
    -1
372
    -1
1001
ACAD_DSTYLE_DIMJOGGED_JOGANGLE_SYMBOL
1070
   384
1040
0.7853981633974483
1001
ACAD_DSTYLE_DIMARC_LENGTH_SYMBOL
1070
   379
1070
     1
  0
DIMSTYLE
105
2516
330
A
100
AcDbSymbolTableRecord
100
AcDbDimStyleTableRecord
  2
SYS$3
 70
     0
  4
"
 41
2.0
 42
1.0
 43
10.0
 44
1.0
 47
0.1
 48
0.1
 73
     0
 77
     1
 78
     8
 79
     2
140
3.5
141
0.0
143
0.0393701
146
0.71
147
1.5
176
   256
177
   256
178
     2
271
     2
272
     2
283
     0
284
     8
288
     1
340
11
342
A66
371
    -1
372
    -1
1001
ACAD_DSTYLE_DIMJOGGED_JOGANGLE_SYMBOL
1070
   384
1040
0.7853981633974483
1001
ACAD_DSTYLE_DIMARC_LENGTH_SYMBOL
1070
   379
1070
     1
  0
DIMSTYLE
105
2517
330
A
100
AcDbSymbolTableRecord
100
AcDbDimStyleTableRecord
  2
SYS$4
 70
     0
  4
"
 41
2.0
 42
1.0
 43
10.0
 44
1.0
 47
0.1
 48
0.1
 73
     0
 77
     1
 78
     8
 79
     2
140
3.5
141
0.0
143
0.0393701
146
0.71
147
1.5
173
     1
176
   256
177
   256
178
     2
271
     2
272
     2
283
     0
284
     8
288
     1
340
11
344
A66
371
    -1
372
    -1
1001
ACAD_DSTYLE_DIMJOGGED_JOGANGLE_SYMBOL
1070
   384
1040
0.7853981633974483
1001
ACAD_DSTYLE_DIMARC_LENGTH_SYMBOL
1070
   379
1070
     1
  0
DIMSTYLE
105
2518
330
A
100
AcDbSymbolTableRecord
100
AcDbDimStyleTableRecord
  2
SYS$6
 70
     0
  4
"
 41
2.0
 42
1.0
 43
10.0
 44
1.0
 47
0.1
 48
0.1
 73
     0
 74
     0
 78
     8
 79
     2
140
3.5
141
0.0
143
0.0393701
146
0.71
147
1.5
172
     1
176
   256
177
   256
178
     2
271
     2
272
     2
283
     0
284
     8
340
11
341
A66
371
    -1
372
    -1
1001
ACAD_DSTYLE_DIMJOGGED_JOGANGLE_SYMBOL
1070
   384
1040
0.7853981633974483
1001
ACAD_DSTYLE_DIMARC_LENGTH_SYMBOL
1070
   379
1070
     1
  0
DIMSTYLE
105
2519
330
A
100
AcDbSymbolTableRecord
100
AcDbDimStyleTableRecord
  2
SYS$7
 70
     0
  4
"
 41
2.0
 42
1.0
 43
10.0
 44
1.0
 47
0.1
 48
0.1
 73
     0
 74
     0
 77
     1
 78
     8
 79
     2
140
5.0
141
0.0
143
0.0393701
146
0.71
147
1.5
172
     1
176
   256
177
   256
178
     2
271
     2
272
     2
283
     0
284
     8
340
11
341
A66
342
A66
371
    -1
372
    -1
1001
ACAD_DSTYLE_DIMJOGGED_JOGANGLE_SYMBOL
1070
   384
1040
0.7853981633974483
1001
ACAD_DSTYLE_DIMARC_LENGTH_SYMBOL
1070
   379
1070
     1
  0
DIMSTYLE
105
251A
330
A
100
AcDbSymbolTableRecord
100
AcDbDimStyleTableRecord
  2
SYS$SF
 70
     0
  4
"
 41
2.5
 42
1.0
 43
10.0
 44
1.0
 47
0.1
 48
0.1
 73
     0
 74
     0
 75
     1
 76
     1
 77
     1
 78
     8
 79
     2
140
3.5
141
0.0
143
0.0393701
146
0.71
147
1.5
172
     1
176
   256
177
   256
178
     2
271
     2
272
     3
283
     0
284
     8
340
11
341
6C4
342
6C4
371
    -1
372
    -1
1001
ACAD_DSTYLE_DIMJOGGED_JOGANGLE_SYMBOL
1070
   384
1040
0.7853981633974483
1001
ACAD_DSTYLE_DIMARC_LENGTH_SYMBOL
1070
   379
1070
     1
  0
DIMSTYLE
105
251B
330
A
100
AcDbSymbolTableRecord
100
AcDbDimStyleTableRecord
  2
SYS$SH
 70
     0
  4
"
 41
2.5
 42
1.0
 43
10.0
 44
1.0
 47
0.1
 48
0.1
 73
     0
 74
     0
 75
     1
 76
     1
 77
     1
 78
     8
 79
     2
140
3.5
141
0.0
143
0.0393701
144
2.0
146
0.71
147
1.5
172
     1
173
     1
176
   256
177
   256
178
     2
271
     2
272
     3
283
     0
284
     8
340
11
341
6C4
343
72
344
6C4
371
    -1
372
    -1
1001
ACAD_DSTYLE_DIMJOGGED_JOGANGLE_SYMBOL
1070
   384
1040
0.7853981633974483
1001
ACAD_DSTYLE_DIMARC_LENGTH_SYMBOL
1070
   379
1070
     1
  0
DIMSTYLE
105
2A59
330
A
100
AcDbSymbolTableRecord
100
AcDbDimStyleTableRecord
  2
SYS$2
 70
     0
  4
"
 41
1.0
 42
1.0
 43
10.0
 44
1.0
 47
0.1
 48
0.1
 73
     0
 74
     0
 77
     1
 78
     8
 79
     2
140
3.5
141
0.0
143
0.0393701
146
0.71
147
1.5
172
     1
176
   256
177
   256
178
     2
271
     2
272
     2
283
     0
284
     8
340
11
342
6C4
371
    -1
372
    -1
1001
ACAD_DSTYLE_DIMJOGGED_JOGANGLE_SYMBOL
1070
   384
1040
0.7853981633974483
1001
ACAD_DSTYLE_DIMARC_LENGTH_SYMBOL
1070
   379
1070
     1
  0
DIMSTYLE
105
2AAB
102
{ACAD_REACTORS
330
BEE6
330
BF0D
330
BF2C
330
CCEE
330
CCEF
330
CCF0
330
CCF1
330
CCF2
330
CCF3
330
CCF4
330
CCF5
330
CCF6
330
CCF7
330
CE29
330
CE78
330
CF23
330
CF42
330
CF58
330
CF6E
330
CF84
330
CF9A
330
CFC6
330
CFED
330
D059
330
D05A
330
D05B
330
D05C
330
D05D
102
}
330
A
100
AcDbSymbolTableRecord
100
AcDbDimStyleTableRecord
  2
SYS$0
 70
     0
  4
"
 41
1.0
 42
1.0
 43
10.0
 44
1.0
 47
0.1
 48
0.1
 73
     0
 74
     0
 77
     1
 78
     8
 79
     2
140
3.200000000000001
141
0.0
143
0.0393701
146
0.71
147
1.5
172
     1
176
   256
177
   256
178
     2
271
     2
272
     2
283
     0
284
     8
340
11
341
A66
342
6C4
371
    -1
372
    -1
1001
ACAD_DSTYLE_DIMJOGGED_JOGANGLE_SYMBOL
1070
   384
1040
0.7853981633974483
1001
ACAD_DSTYLE_DIMARC_LENGTH_SYMBOL
1070
   379
1070
     1
  0
DIMSTYLE
105
AF99
330
A
100
AcDbSymbolTableRecord
100
AcDbDimStyleTableRecord
  2
AM_ISO
 70
     0
  4
"
 41
2.5
 42
1.0
 43
10.0
 44
1.0
 47
0.1
 48
0.1
 73
     0
 74
     0
 77
     1
 78
     8
 79
     2
140
3.5
141
0.0
143
0.0393701
146
0.71
147
1.5
172
     1
176
   256
177
   256
178
     2
271
     2
272
     3
274
     4
283
     0
284
     8
340
11
371
    -1
372
    -1
  0
DIMSTYLE
105
AF9A
330
A
100
AcDbSymbolTableRecord
100
AcDbDimStyleTableRecord
  2
AM_ISO$3
 70
     0
  4
"
 41
2.5
 42
1.0
 43
10.0
 44
1.0
 47
0.1
 48
0.1
 73
     0
 77
     1
 78
     8
 79
     2
140
3.5
141
0.0
143
0.0393701
146
0.71
147
1.5
176
   256
177
   256
178
     2
271
     2
272
     3
274
     4
283
     0
284
     8
288
     1
289
     0
340
11
371
    -1
372
    -1
  0
DIMSTYLE
105
AF9B
330
A
100
AcDbSymbolTableRecord
100
AcDbDimStyleTableRecord
  2
AM_ISO$4
 70
     0
  4
"
 41
2.5
 42
1.0
 43
10.0
 44
1.0
 47
0.1
 48
0.1
 73
     0
 77
     1
 78
     8
 79
     2
140
3.5
141
0.0
143
0.0393701
146
0.71
147
1.5
176
   256
177
   256
178
     2
271
     2
272
     3
274
     4
283
     0
284
     8
288
     1
289
     0
340
11
371
    -1
372
    -1
  0
DIMSTYLE
105
AF9C
330
A
100
AcDbSymbolTableRecord
100
AcDbDimStyleTableRecord
  2
AM_ISO$6
 70
     0
  4
"
 41
2.5
 42
1.0
 43
10.0
 44
1.0
 47
0.1
 48
0.1
 73
     0
 74
     0
 78
     8
 79
     2
140
3.5
141
0.0
143
0.0393701
146
0.71
147
1.5
172
     1
176
   256
177
   256
178
     2
271
     2
272
     3
274
     4
283
     0
284
     8
340
11
371
    -1
372
    -1
  0
DIMSTYLE
105
AF9D
330
A
100
AcDbSymbolTableRecord
100
AcDbDimStyleTableRecord
  2
AM_ISO$7
 70
     0
  4
"
 41
2.5
 42
1.0
 43
10.0
 44
1.0
 47
0.1
 48
0.1
 73
     0
 74
     0
 77
     1
 78
     8
 79
     2
140
5.0
141
0.0
143
0.0393701
146
0.71
147
1.5
172
     1
176
   256
177
   256
178
     2
271
     2
272
     3
274
     4
283
     0
284
     8
340
11
371
    -1
372
    -1
  0
DIMSTYLE
105
AF9E
330
A
100
AcDbSymbolTableRecord
100
AcDbDimStyleTableRecord
  2
AM_ISO$SF
 70
     0
  4
"
 41
2.5
 42
1.0
 43
10.0
 44
1.0
 47
0.1
 48
0.1
 73
     0
 74
     0
 75
     1
 76
     1
 77
     1
 78
     8
 79
     2
140
3.5
141
0.0
143
0.0393701
146
0.71
147
1.5
172
     1
176
   256
177
   256
178
     2
271
     2
272
     3
274
     4
283
     0
284
     8
340
11
371
    -1
372
    -1
  0
DIMSTYLE
105
AF9F
330
A
100
AcDbSymbolTableRecord
100
AcDbDimStyleTableRecord
  2
AM_ISO$SH
 70
     0
  4
"
 41
2.5
 42
1.0
 43
10.0
 44
1.0
 47
0.1
 48
0.1
 73
     0
 74
     0
 75
     1
 76
     1
 77
     1
 78
     8
 79
     2
140
3.5
141
0.0
143
0.0393701
144
2.0
146
0.71
147
1.5
172
     1
173
     1
176
   256
177
   256
178
     2
271
     2
272
     3
274
     4
283
     0
284
     8
340
11
343
72
371
    -1
372
    -1
  0
DIMSTYLE
105
B703
330
A
100
AcDbSymbolTableRecord
100
AcDbDimStyleTableRecord
  2
DIMSTYLE
 70
     0
 41
1.0
 42
2.54
 44
2.54
 73
     0
 74
     0
140
3.2
147
1.6
173
     1
279
     2
340
11
  0
DIMSTYLE
105
B704
330
A
100
AcDbSymbolTableRecord
100
AcDbDimStyleTableRecord
  2
AM_ANSI
 70
     0
  4
mm
 41
0.1
 42
0.05
 43
0.5
 44
0.1
 47
0.1
 48
0.1
 78
     7
 79
     2
140
0.12
141
0.0
146
0.71
147
0.06
176
   256
177
   256
178
     2
274
     4
284
     7
340
11
371
    -1
372
    -1
1001
ACAD_DSTYLE_DIMARC_LENGTH_SYMBOL
1070
   379
1070
     1
  0
DIMSTYLE
105
B705
330
A
100
AcDbSymbolTableRecord
100
AcDbDimStyleTableRecord
  2
AM_ANSI$3
 70
     0
  4
mm
 41
0.1
 42
0.05
 43
0.5
 44
0.1
 47
0.1
 48
0.1
 78
     7
 79
     2
140
0.12
141
0.0
146
0.71
147
0.06
176
   256
177
   256
178
     2
274
     4
284
     7
288
     1
289
     0
340
11
371
    -1
372
    -1
1001
ACAD_DSTYLE_DIMARC_LENGTH_SYMBOL
1070
   379
1070
     1
  0
DIMSTYLE
105
B706
330
A
100
AcDbSymbolTableRecord
100
AcDbDimStyleTableRecord
  2
AM_ANSI$4
 70
     0
  4
mm
 41
0.1
 42
0.05
 43
0.5
 44
0.1
 47
0.1
 48
0.1
 78
     7
 79
     2
140
0.12
141
0.0
146
0.71
147
0.06
176
   256
177
   256
178
     2
274
     4
284
     7
288
     1
289
     0
340
11
371
    -1
372
    -1
1001
ACAD_DSTYLE_DIMARC_LENGTH_SYMBOL
1070
   379
1070
     1
  0
DIMSTYLE
105
B707
330
A
100
AcDbSymbolTableRecord
100
AcDbDimStyleTableRecord
  2
AM_ANSI$7
 70
     0
  4
mm
 41
0.1
 42
0.05
 43
0.5
 44
0.1
 47
0.1
 48
0.1
 78
     7
 79
     2
140
0.24
141
0.0
146
0.71
147
0.06
176
   256
177
   256
178
     2
274
     4
284
     7
340
11
371
    -1
372
    -1
1001
ACAD_DSTYLE_DIMARC_LENGTH_SYMBOL
1070
   379
1070
     1
  0
DIMSTYLE
105
B708
330
A
100
AcDbSymbolTableRecord
100
AcDbDimStyleTableRecord
  2
AM_ANSI$SF
 70
     0
  4
mm
 41
0.1
 42
0.05
 43
0.5
 44
0.1
 47
0.1
 48
0.1
 75
     1
 76
     1
 78
     7
 79
     2
140
0.12
141
0.0
146
0.71
147
0.06
176
   256
177
   256
178
     2
274
     4
284
     7
340
11
371
    -1
372
    -1
1001
ACAD_DSTYLE_DIMARC_LENGTH_SYMBOL
1070
   379
1070
     1
  0
DIMSTYLE
105
B709
330
A
100
AcDbSymbolTableRecord
100
AcDbDimStyleTableRecord
  2
AM_ANSI$SH
 70
     0
  4
mm
 41
0.1
 42
0.05
 43
0.5
 44
0.1
 47
0.1
 48
0.1
 75
     1
 76
     1
 78
     7
 79
     2
140
0.12
141
0.0
146
0.71
147
0.06
173
     1
176
   256
177
   256
178
     2
274
     4
284
     7
340
11
343
72
371
    -1
372
    -1
1001
ACAD_DSTYLE_DIMARC_LENGTH_SYMBOL
1070
   379
1070
     1
  0
ENDTAB
  0
TABLE
  2
BLOCK_RECORD
  5
1
330
0
100
AcDbSymbolTable
 70
    37
  0
BLOCK_RECORD
  5
1F
102
{ACAD_XDICTIONARY
360
8A
102
}
330
1
100
AcDbSymbolTableRecord
100
AcDbBlockTableRecord
  2
*Model_Space
340
22
  0
BLOCK_RECORD
  5
1B
330
1
100
AcDbSymbolTableRecord
100
AcDbBlockTableRecord
  2
*Paper_Space
340
1E
  0
BLOCK_RECORD
  5
23
330
1
100
AcDbSymbolTableRecord
100
AcDbBlockTableRecord
  2
*Paper_Space0
340
26
  0
BLOCK_RECORD
  5
72
330
1
100
AcDbSymbolTableRecord
100
AcDbBlockTableRecord
  2
GENAXEH
340
0
  0
BLOCK_RECORD
  5
6C4
330
1
100
AcDbSymbolTableRecord
100
AcDbBlockTableRecord
  2
_Dot
340
0
102
{BLKREFS
331
BF4E
331
BF4F
331
BF60
331
BF61
331
BF72
331
BF73
331
CD94
331
CD95
331
CDC3
331
CDC4
331
CDCC
331
CDCD
331
CE1A
331
CE1B
331
CEA7
331
CEA8
331
D0C9
331
D0CA
331
D105
331
D106
331
D122
331
D123
331
D12D
331
D12E
331
D187
331
D188
331
D67D
331
D67E
331
D68F
331
D690
331
D69A
331
D69B
331
D6A3
331
D6A4
331
DB16
331
DB17
331
DB36
331
DB37
331
DB88
331
DB89
331
DB91
331
DB92
331
DB9A
331
DB9B
331
DBA3
331
DBA4
331
DBAC
331
DBAD
331
DBBF
331
DBC0
331
DBDA
331
DBDB
331
DBE3
331
DBE4
331
DC00
331
DC01
102
}
  0
BLOCK_RECORD
  5
A66
330
1
100
AcDbSymbolTableRecord
100
AcDbBlockTableRecord
  2
_OPEN30
340
0
  0
BLOCK_RECORD
  5
BEE7
330
1
100
AcDbSymbolTableRecord
100
AcDbBlockTableRecord
  2
*D5
340
0
  0
BLOCK_RECORD
  5
BF0E
330
1
100
AcDbSymbolTableRecord
100
AcDbBlockTableRecord
  2
*D6
340
0
  0
BLOCK_RECORD
  5
BF2D
330
1
100
AcDbSymbolTableRecord
100
AcDbBlockTableRecord
  2
*D7
340
0
  0
BLOCK_RECORD
  5
CCF8
330
1
100
AcDbSymbolTableRecord
100
AcDbBlockTableRecord
  2
*D8
340
0
  0
BLOCK_RECORD
  5
CD06
330
1
100
AcDbSymbolTableRecord
100
AcDbBlockTableRecord
  2
*D9
340
0
  0
BLOCK_RECORD
  5
CD12
330
1
100
AcDbSymbolTableRecord
100
AcDbBlockTableRecord
  2
*D10
340
0
  0
BLOCK_RECORD
  5
CD1E
330
1
100
AcDbSymbolTableRecord
100
AcDbBlockTableRecord
  2
*D11
340
0
  0
BLOCK_RECORD
  5
CD2A
330
1
100
AcDbSymbolTableRecord
100
AcDbBlockTableRecord
  2
*D12
340
0
  0
BLOCK_RECORD
  5
CD38
330
1
100
AcDbSymbolTableRecord
100
AcDbBlockTableRecord
  2
*D13
340
0
  0
BLOCK_RECORD
  5
CD44
330
1
100
AcDbSymbolTableRecord
100
AcDbBlockTableRecord
  2
*D14
340
0
  0
BLOCK_RECORD
  5
CD50
330
1
100
AcDbSymbolTableRecord
100
AcDbBlockTableRecord
  2
*D15
340
0
  0
BLOCK_RECORD
  5
CD5C
330
1
100
AcDbSymbolTableRecord
100
AcDbBlockTableRecord
  2
*D16
340
0
  0
BLOCK_RECORD
  5
CD68
330
1
100
AcDbSymbolTableRecord
100
AcDbBlockTableRecord
  2
*D17
340
0
  0
BLOCK_RECORD
  5
CE2A
330
1
100
AcDbSymbolTableRecord
100
AcDbBlockTableRecord
  2
*D18
340
0
  0
BLOCK_RECORD
  5
CE79
330
1
100
AcDbSymbolTableRecord
100
AcDbBlockTableRecord
  2
*D19
340
0
  0
BLOCK_RECORD
  5
CF24
330
1
100
AcDbSymbolTableRecord
100
AcDbBlockTableRecord
  2
*D20
340
0
  0
BLOCK_RECORD
  5
CF43
330
1
100
AcDbSymbolTableRecord
100
AcDbBlockTableRecord
  2
*D21
340
0
  0
BLOCK_RECORD
  5
CF59
330
1
100
AcDbSymbolTableRecord
100
AcDbBlockTableRecord
  2
*D22
340
0
  0
BLOCK_RECORD
  5
CF6F
330
1
100
AcDbSymbolTableRecord
100
AcDbBlockTableRecord
  2
*D23
340
0
  0
BLOCK_RECORD
  5
CF85
330
1
100
AcDbSymbolTableRecord
100
AcDbBlockTableRecord
  2
*D24
340
0
  0
BLOCK_RECORD
  5
CF9B
330
1
100
AcDbSymbolTableRecord
100
AcDbBlockTableRecord
  2
*D25
340
0
  0
BLOCK_RECORD
  5
CFC7
330
1
100
AcDbSymbolTableRecord
100
AcDbBlockTableRecord
  2
*D26
340
0
  0
BLOCK_RECORD
  5
CFEE
330
1
100
AcDbSymbolTableRecord
100
AcDbBlockTableRecord
  2
*D27
340
0
  0
BLOCK_RECORD
  5
D05E
330
1
100
AcDbSymbolTableRecord
100
AcDbBlockTableRecord
  2
*D28
340
0
  0
BLOCK_RECORD
  5
D06A
330
1
100
AcDbSymbolTableRecord
100
AcDbBlockTableRecord
  2
*D29
340
0
  0
BLOCK_RECORD
  5
D078
330
1
100
AcDbSymbolTableRecord
100
AcDbBlockTableRecord
  2
*D30
340
0
  0
BLOCK_RECORD
  5
D084
330
1
100
AcDbSymbolTableRecord
100
AcDbBlockTableRecord
  2
*D31
340
0
  0
BLOCK_RECORD
  5
D092
330
1
100
AcDbSymbolTableRecord
100
AcDbBlockTableRecord
  2
*D32
340
0
  0
ENDTAB
  0
ENDSEC
  0
SECTION
  2
BLOCKS
  0
BLOCK
  5
20
330
1F
100
AcDbEntity
  8
0
100
AcDbBlockBegin
  2
*Model_Space
 70
     0
 10
0.0
 20
0.0
 30
0.0
  3
*Model_Space
  1

  0
ENDBLK
  5
21
330
1F
100
AcDbEntity
  8
0
100
AcDbBlockEnd
  0
BLOCK
  5
1C
330
1B
100
AcDbEntity
 67
     1
  8
0
100
AcDbBlockBegin
  2
*Paper_Space
 70
     0
 10
0.0
 20
0.0
 30
0.0
  3
*Paper_Space
  1

  0
ENDBLK
  5
1D
330
1B
100
AcDbEntity
 67
     1
  8
0
100
AcDbBlockEnd
  0
BLOCK
  5
24
330
23
100
AcDbEntity
 67
     1
  8
0
100
AcDbBlockBegin
  2
*Paper_Space0
 70
     0
 10
0.0
 20
0.0
 30
0.0
  3
*Paper_Space0
  1

  0
ENDBLK
  5
25
330
23
100
AcDbEntity
 67
     1
  8
0
100
AcDbBlockEnd
  0
BLOCK
  5
74
330
72
100
AcDbEntity
  8
0
100
AcDbBlockBegin
  2
GENAXEH
 70
     0
 10
0.0
 20
0.0
 30
0.0
  3
GENAXEH
  1

  0
LINE
  5
73
330
72
100
AcDbEntity
  8
0
100
AcDbLine
 10
-1.0
 20
0.0
 30
0.0
 11
1.0
 21
0.0
 31
0.0
  0
ENDBLK
  5
75
330
72
100
AcDbEntity
  8
0
100
AcDbBlockEnd
  0
BLOCK
  5
6C7
330
6C4
100
AcDbEntity
  8
0
100
AcDbBlockBegin
  2
_Dot
 70
     0
 10
0.0
 20
0.0
 30
0.0
  3
_Dot
  1

  0
LWPOLYLINE
  5
6C5
330
6C4
100
AcDbEntity
  8
0
  6
ByBlock
 62
     0
100
AcDbPolyline
 90
        2
 70
     1
 43
0.5
 10
-0.25
 20
0.0
 42
1.0
 10
0.25
 20
0.0
 42
1.0
  0
LINE
  5
6C6
330
6C4
100
AcDbEntity
  8
0
  6
ByBlock
 62
     0
370
    -2
100
AcDbLine
 10
-0.5
 20
0.0
 30
0.0
 11
-1.0
 21
0.0
 31
0.0
  0
ENDBLK
  5
6C8
330
6C4
100
AcDbEntity
  8
0
100
AcDbBlockEnd
  0
BLOCK
  5
A6A
330
A66
100
AcDbEntity
  8
0
100
AcDbBlockBegin
  2
_OPEN30
 70
     0
 10
0.0
 20
0.0
 30
0.0
  3
_OPEN30
  1

  0
LINE
  5
A67
330
A66
100
AcDbEntity
  8
0
  6
ByBlock
 62
     0
100
AcDbLine
 10
-1.0
 20
0.26794919
 30
0.0
 11
0.0
 21
0.0
 31
0.0
  0
LINE
  5
A68
330
A66
100
AcDbEntity
  8
0
  6
ByBlock
 62
     0
100
AcDbLine
 10
0.0
 20
0.0
 30
0.0
 11
-1.0
 21
-0.26794919
 31
0.0
  0
LINE
  5
A69
330
A66
100
AcDbEntity
  8
0
  6
ByBlock
 62
     0
100
AcDbLine
 10
0.0
 20
0.0
 30
0.0
 11
-1.0
 21
0.0
 31
0.0
  0
ENDBLK
  5
A6B
330
A66
100
AcDbEntity
  8
0
100
AcDbBlockEnd
  0
BLOCK
  5
BEF1
330
BEE7
100
AcDbEntity
  8
0
100
AcDbBlockBegin
  2
*D5
 70
     1
 10
0.0
 20
0.0
 30
0.0
  3
*D5
  1

  0
LINE
  5
BF6F
330
BEE7
100
AcDbEntity
  8
AM_5
100
AcDbLine
 10
151.7463915837943
 20
172.93085628209
 30
0.0
 11
151.7463915837943
 21
160.9308562820899
 31
0.0
  0
LINE
  5
BF70
330
BEE7
100
AcDbEntity
  8
AM_5
100
AcDbLine
 10
187.7863915837943
 20
172.93085628209
 30
0.0
 11
187.7863915837943
 21
160.9308562820899
 31
0.0
  0
LINE
  5
BF71
330
BEE7
100
AcDbEntity
  8
AM_5
100
AcDbLine
 10
152.7463915837943
 20
161.9308562820899
 30
0.0
 11
186.7863915837943
 21
161.9308562820899
 31
0.0
  0
INSERT
  5
BF72
330
BEE7
100
AcDbEntity
  8
AM_5
100
AcDbBlockReference
  2
_Dot
 10
151.7463915837943
 20
161.9308562820899
 30
0.0
 50
180.0
  0
INSERT
  5
BF73
330
BEE7
100
AcDbEntity
  8
AM_5
100
AcDbBlockReference
  2
_Dot
 10
187.7863915837943
 20
161.9308562820899
 30
0.0
  0
MTEXT
  5
BF74
330
BEE7
100
AcDbEntity
  8
AM_5
 62
     2
100
AcDbMText
 10
169.7663915837943
 20
165.0308562820899
 30
0.0
 40
3.200000000000001
 41
0.0
 71
     5
 72
     1
  1
W
 73
     1
 44
1.0
1001
ACAD
1000
MTEXTBEGIN
1070
    73
1070
     1
1070
    44
1040
1.0
1070
    74
1070
     0
1000
MTEXTEND
  0
POINT
  5
BF75
330
BEE7
100
AcDbEntity
  8
Defpoints
 62
     0
100
AcDbPoint
 10
151.7463915837943
 20
173.93085628209
 30
0.0
  0
POINT
  5
BF76
330
BEE7
100
AcDbEntity
  8
Defpoints
 62
     0
100
AcDbPoint
 10
187.7863915837943
 20
173.93085628209
 30
0.0
  0
POINT
  5
BF77
330
BEE7
100
AcDbEntity
  8
Defpoints
 62
     0
100
AcDbPoint
 10
187.7863915837943
 20
161.9308562820899
 30
0.0
  0
ENDBLK
  5
BEF2
330
BEE7
100
AcDbEntity
  8
0
100
AcDbBlockEnd
  0
BLOCK
  5
BF18
330
BF0E
100
AcDbEntity
  8
0
100
AcDbBlockBegin
  2
*D6
 70
     1
 10
0.0
 20
0.0
 30
0.0
  3
*D6
  1

  0
LINE
  5
BF4B
330
BF0E
100
AcDbEntity
  8
AM_5
100
AcDbLine
 10
148.7463915837943
 20
175.93085628209
 30
0.0
 11
136.7463915837943
 21
175.93085628209
 31
0.0
  0
LINE
  5
BF4C
330
BF0E
100
AcDbEntity
  8
AM_5
100
AcDbLine
 10
150.7483915837942
 20
201.10085628209
 30
0.0
 11
136.7463915837943
 21
201.10085628209
 31
0.0
  0
LINE
  5
BF4D
330
BF0E
100
AcDbEntity
  8
AM_5
100
AcDbLine
 10
137.7463915837943
 20
176.93085628209
 30
0.0
 11
137.7463915837943
 21
200.10085628209
 31
0.0
  0
INSERT
  5
BF4E
330
BF0E
100
AcDbEntity
  8
AM_5
100
AcDbBlockReference
  2
_Dot
 10
137.7463915837943
 20
175.93085628209
 30
0.0
 50
270.0
  0
INSERT
  5
BF4F
330
BF0E
100
AcDbEntity
  8
AM_5
100
AcDbBlockReference
  2
_Dot
 10
137.7463915837943
 20
201.10085628209
 30
0.0
 50
90.0
  0
MTEXT
  5
BF50
330
BF0E
100
AcDbEntity
  8
AM_5
 62
     2
100
AcDbMText
 10
134.6463915837943
 20
188.51585628209
 30
0.0
 40
3.200000000000001
 41
0.0
 71
     5
 72
     1
  1
A
 11
0.0000000000000001
 21
1.0
 31
0.0
 73
     1
 44
1.0
1001
ACAD
1000
MTEXTBEGIN
1070
    73
1070
     1
1070
    44
1040
1.0
1070
    74
1070
     0
1000
MTEXTEND
  0
POINT
  5
BF51
330
BF0E
100
AcDbEntity
  8
Defpoints
 62
     0
100
AcDbPoint
 10
149.7463915837943
 20
175.93085628209
 30
0.0
  0
POINT
  5
BF52
330
BF0E
100
AcDbEntity
  8
Defpoints
 62
     0
100
AcDbPoint
 10
151.7483915837942
 20
201.10085628209
 30
0.0
  0
POINT
  5
BF53
330
BF0E
100
AcDbEntity
  8
Defpoints
 62
     0
100
AcDbPoint
 10
137.7463915837943
 20
201.10085628209
 30
0.0
  0
ENDBLK
  5
BF19
330
BF0E
100
AcDbEntity
  8
0
100
AcDbBlockEnd
  0
BLOCK
  5
BF37
330
BF2D
100
AcDbEntity
  8
0
100
AcDbBlockBegin
  2
*D7
 70
     1
 10
0.0
 20
0.0
 30
0.0
  3
*D7
  1

  0
LINE
  5
BF5D
330
BF2D
100
AcDbEntity
  8
AM_5
100
AcDbLine
 10
148.7463915837943
 20
175.93085628209
 30
0.0
 11
126.7463915837943
 21
175.93085628209
 31
0.0
  0
LINE
  5
BF5E
330
BF2D
100
AcDbEntity
  8
AM_5
100
AcDbLine
 10
148.7463915837943
 20
226.27085628209
 30
0.0
 11
126.7463915837943
 21
226.27085628209
 31
0.0
  0
LINE
  5
BF5F
330
BF2D
100
AcDbEntity
  8
AM_5
100
AcDbLine
 10
127.7463915837943
 20
176.93085628209
 30
0.0
 11
127.7463915837943
 21
225.27085628209
 31
0.0
  0
INSERT
  5
BF60
330
BF2D
100
AcDbEntity
  8
AM_5
100
AcDbBlockReference
  2
_Dot
 10
127.7463915837943
 20
175.93085628209
 30
0.0
 50
270.0
  0
INSERT
  5
BF61
330
BF2D
100
AcDbEntity
  8
AM_5
100
AcDbBlockReference
  2
_Dot
 10
127.7463915837943
 20
226.27085628209
 30
0.0
 50
90.0
  0
MTEXT
  5
BF62
330
BF2D
100
AcDbEntity
  8
AM_5
 62
     2
100
AcDbMText
 10
124.6463915837943
 20
201.10085628209
 30
0.0
 40
3.200000000000001
 41
0.0
 71
     5
 72
     1
  1
H
 11
0.0000000000000001
 21
1.0
 31
0.0
 73
     1
 44
1.0
1001
ACAD
1000
MTEXTBEGIN
1070
    73
1070
     1
1070
    44
1040
1.0
1070
    74
1070
     0
1000
MTEXTEND
  0
POINT
  5
BF63
330
BF2D
100
AcDbEntity
  8
Defpoints
 62
     0
100
AcDbPoint
 10
149.7463915837943
 20
175.93085628209
 30
0.0
  0
POINT
  5
BF64
330
BF2D
100
AcDbEntity
  8
Defpoints
 62
     0
100
AcDbPoint
 10
149.7463915837943
 20
226.27085628209
 30
0.0
  0
POINT
  5
BF65
330
BF2D
100
AcDbEntity
  8
Defpoints
 62
     0
100
AcDbPoint
 10
127.7463915837943
 20
226.27085628209
 30
0.0
  0
ENDBLK
  5
BF38
330
BF2D
100
AcDbEntity
  8
0
100
AcDbBlockEnd
  0
BLOCK
  5
CD04
330
CCF8
100
AcDbEntity
  8
0
100
AcDbBlockBegin
  2
*D8
 70
     1
 10
0.0
 20
0.0
 30
0.0
  3
*D8
  1

  0
LINE
  5
D678
330
CCF8
100
AcDbEntity
  8
AM_5
100
AcDbLine
 10
81.5465761177675
 20
98.48292421227599
 30
0.0
 11
81.5465761177675
 21
121.7996101863483
 31
0.0
  0
LINE
  5
D679
330
CCF8
100
AcDbEntity
  8
AM_5
100
AcDbLine
 10
85.54657332351826
 20
96.47560919682973
 30
0.0
 11
85.54657332351826
 21
121.7996101863483
 31
0.0
  0
LINE
  5
D67A
330
CCF8
100
AcDbEntity
  8
AM_5
100
AcDbLine
 10
80.5465761177675
 20
120.7996101863483
 30
0.0
 11
79.5465761177675
 21
120.7996101863483
 31
0.0
  0
LINE
  5
D67B
330
CCF8
100
AcDbEntity
  8
AM_5
100
AcDbLine
 10
86.54657332351826
 20
120.7996101863483
 30
0.0
 11
87.54657332351825
 21
120.7996101863483
 31
0.0
  0
LINE
  5
D67C
330
CCF8
100
AcDbEntity
  8
AM_5
100
AcDbLine
 10
81.5465761177675
 20
120.7996101863483
 30
0.0
 11
85.54657332351826
 21
120.7996101863483
 31
0.0
  0
INSERT
  5
D67D
330
CCF8
100
AcDbEntity
  8
AM_5
100
AcDbBlockReference
  2
_Dot
 10
81.5465761177675
 20
120.7996101863483
 30
0.0
  0
INSERT
  5
D67E
330
CCF8
100
AcDbEntity
  8
AM_5
100
AcDbBlockReference
  2
_Dot
 10
85.54657332351826
 20
120.7996101863483
 30
0.0
 50
180.0
  0
MTEXT
  5
D67F
330
CCF8
100
AcDbEntity
  8
AM_5
 62
     2
100
AcDbMText
 10
83.54657472064287
 20
123.8996101863483
 30
0.0
 40
3.200000000000001
 41
0.0
 71
     5
 72
     1
  1
4
 73
     1
 44
1.0
1001
ACAD
1000
MTEXTBEGIN
1070
    73
1070
     1
1070
    44
1040
1.0
1070
    74
1070
     0
1000
MTEXTEND
  0
POINT
  5
D680
330
CCF8
100
AcDbEntity
  8
Defpoints
 62
     0
100
AcDbPoint
 10
81.5465761177675
 20
97.48292421227599
 30
0.0
  0
POINT
  5
D681
330
CCF8
100
AcDbEntity
  8
Defpoints
 62
     0
100
AcDbPoint
 10
85.54657332351826
 20
95.47560919682974
 30
0.0
  0
POINT
  5
D682
330
CCF8
100
AcDbEntity
  8
Defpoints
 62
     0
100
AcDbPoint
 10
85.54657332351826
 20
120.7996101863483
 30
0.0
  0
ENDBLK
  5
CD05
330
CCF8
100
AcDbEntity
  8
0
100
AcDbBlockEnd
  0
BLOCK
  5
CD10
330
CD06
100
AcDbEntity
  8
0
100
AcDbBlockBegin
  2
*D9
 70
     1
 10
0.0
 20
0.0
 30
0.0
  3
*D9
  1

  0
LINE
  5
D68C
330
CD06
100
AcDbEntity
  8
AM_5
100
AcDbLine
 10
81.54657167391951
 20
98.48383973013644
 30
0.0
 11
81.54657167391951
 21
121.7996101863483
 31
0.0
  0
LINE
  5
D68D
330
CD06
100
AcDbEntity
  8
AM_5
100
AcDbLine
 10
61.54658167391962
 20
98.47560917634835
 30
0.0
 11
61.54658167391962
 21
121.7996101863483
 31
0.0
  0
LINE
  5
D68E
330
CD06
100
AcDbEntity
  8
AM_5
100
AcDbLine
 10
80.54657167391951
 20
120.7996101863483
 30
0.0
 11
62.54658167391962
 21
120.7996101863483
 31
0.0
  0
INSERT
  5
D68F
330
CD06
100
AcDbEntity
  8
AM_5
100
AcDbBlockReference
  2
_Dot
 10
81.54657167391951
 20
120.7996101863483
 30
0.0
  0
INSERT
  5
D690
330
CD06
100
AcDbEntity
  8
AM_5
100
AcDbBlockReference
  2
_Dot
 10
61.54658167391962
 20
120.7996101863483
 30
0.0
 50
180.0
  0
MTEXT
  5
D691
330
CD06
100
AcDbEntity
  8
AM_5
 62
     2
100
AcDbMText
 10
71.54657667391957
 20
123.8996101863482
 30
0.0
 40
3.200000000000001
 41
0.0
 71
     5
 72
     1
  1
20
 73
     1
 44
1.0
1001
ACAD
1000
MTEXTBEGIN
1070
    73
1070
     1
1070
    44
1040
1.0
1070
    74
1070
     0
1000
MTEXTEND
  0
POINT
  5
D692
330
CD06
100
AcDbEntity
  8
Defpoints
 62
     0
100
AcDbPoint
 10
81.54657167391951
 20
97.48383973013645
 30
0.0
  0
POINT
  5
D693
330
CD06
100
AcDbEntity
  8
Defpoints
 62
     0
100
AcDbPoint
 10
61.54658167391962
 20
97.47560917634835
 30
0.0
  0
POINT
  5
D694
330
CD06
100
AcDbEntity
  8
Defpoints
 62
     0
100
AcDbPoint
 10
61.54658167391962
 20
120.7996101863483
 30
0.0
  0
ENDBLK
  5
CD11
330
CD06
100
AcDbEntity
  8
0
100
AcDbBlockEnd
  0
BLOCK
  5
CD1C
330
CD12
100
AcDbEntity
  8
0
100
AcDbBlockBegin
  2
*D10
 70
     1
 10
0.0
 20
0.0
 30
0.0
  3
*D10
  1

  0
LINE
  5
D6A0
330
CD12
100
AcDbEntity
  8
AM_5
100
AcDbLine
 10
85.54657332351826
 20
96.47560919682973
 30
0.0
 11
85.54657332351826
 21
121.7996101863483
 31
0.0
  0
LINE
  5
D6A1
330
CD12
100
AcDbEntity
  8
AM_5
100
AcDbLine
 10
205.5265848253462
 20
96.47560919682973
 30
0.0
 11
205.5265848253462
 21
121.7996101863483
 31
0.0
  0
LINE
  5
D6A2
330
CD12
100
AcDbEntity
  8
AM_5
100
AcDbLine
 10
86.54657332351826
 20
120.7996101863483
 30
0.0
 11
204.5265848253462
 21
120.7996101863483
 31
0.0
  0
INSERT
  5
D6A3
330
CD12
100
AcDbEntity
  8
AM_5
100
AcDbBlockReference
  2
_Dot
 10
85.54657332351826
 20
120.7996101863483
 30
0.0
 50
180.0
  0
INSERT
  5
D6A4
330
CD12
100
AcDbEntity
  8
AM_5
100
AcDbBlockReference
  2
_Dot
 10
205.5265848253462
 20
120.7996101863483
 30
0.0
  0
MTEXT
  5
D6A5
330
CD12
100
AcDbEntity
  8
AM_5
 62
     2
100
AcDbMText
 10
145.5365790744322
 20
123.8996101863482
 30
0.0
 40
3.200000000000001
 41
0.0
 71
     5
 72
     1
  1
DW
 73
     1
 44
1.0
1001
ACAD
1000
MTEXTBEGIN
1070
    73
1070
     1
1070
    44
1040
1.0
1070
    74
1070
     0
1000
MTEXTEND
  0
POINT
  5
D6A6
330
CD12
100
AcDbEntity
  8
Defpoints
 62
     0
100
AcDbPoint
 10
85.54657332351826
 20
95.47560919682974
 30
0.0
  0
POINT
  5
D6A7
330
CD12
100
AcDbEntity
  8
Defpoints
 62
     0
100
AcDbPoint
 10
205.5265848253462
 20
95.47560919682974
 30
0.0
  0
POINT
  5
D6A8
330
CD12
100
AcDbEntity
  8
Defpoints
 62
     0
100
AcDbPoint
 10
205.5265848253462
 20
120.7996101863483
 30
0.0
  0
ENDBLK
  5
CD1D
330
CD12
100
AcDbEntity
  8
0
100
AcDbBlockEnd
  0
BLOCK
  5
CD28
330
CD1E
100
AcDbEntity
  8
0
100
AcDbBlockBegin
  2
*D11
 70
     1
 10
0.0
 20
0.0
 30
0.0
  3
*D11
  1

  0
LINE
  5
CD91
330
CD1E
100
AcDbEntity
  8
AM_5
100
AcDbLine
 10
208.5265836739194
 20
98.47560917634835
 30
0.0
 11
208.5265836739194
 21
121.799610186348
 31
0.0
  0
LINE
  5
CD92
330
CD1E
100
AcDbEntity
  8
AM_5
100
AcDbLine
 10
228.5265846739194
 20
98.47560917634835
 30
0.0
 11
228.5265846739194
 21
121.799610186348
 31
0.0
  0
LINE
  5
CD93
330
CD1E
100
AcDbEntity
  8
AM_5
100
AcDbLine
 10
209.5265836739194
 20
120.799610186348
 30
0.0
 11
227.5265846739194
 21
120.799610186348
 31
0.0
  0
INSERT
  5
CD94
330
CD1E
100
AcDbEntity
  8
AM_5
100
AcDbBlockReference
  2
_Dot
 10
208.5265836739194
 20
120.799610186348
 30
0.0
 50
180.0
  0
INSERT
  5
CD95
330
CD1E
100
AcDbEntity
  8
AM_5
100
AcDbBlockReference
  2
_Dot
 10
228.5265846739194
 20
120.799610186348
 30
0.0
  0
MTEXT
  5
CD96
330
CD1E
100
AcDbEntity
  8
AM_5
 62
     2
100
AcDbMText
 10
218.5265841739194
 20
123.899610186348
 30
0.0
 40
3.200000000000001
 41
0.0
 71
     5
 72
     1
  1
20
 73
     1
 44
1.0
1001
ACAD
1000
MTEXTBEGIN
1070
    73
1070
     1
1070
    44
1040
1.0
1070
    74
1070
     0
1000
MTEXTEND
  0
POINT
  5
CD97
330
CD1E
100
AcDbEntity
  8
Defpoints
 62
     0
100
AcDbPoint
 10
208.5265836739194
 20
97.47560917634835
 30
0.0
  0
POINT
  5
CD98
330
CD1E
100
AcDbEntity
  8
Defpoints
 62
     0
100
AcDbPoint
 10
228.5265846739194
 20
97.47560917634835
 30
0.0
  0
POINT
  5
CD99
330
CD1E
100
AcDbEntity
  8
Defpoints
 62
     0
100
AcDbPoint
 10
228.5265846739194
 20
120.799610186348
 30
0.0
  0
ENDBLK
  5
CD29
330
CD1E
100
AcDbEntity
  8
0
100
AcDbBlockEnd
  0
BLOCK
  5
CD36
330
CD2A
100
AcDbEntity
  8
0
100
AcDbBlockBegin
  2
*D12
 70
     1
 10
0.0
 20
0.0
 30
0.0
  3
*D12
  1

  0
LINE
  5
D695
330
CD2A
100
AcDbEntity
  8
AM_5
100
AcDbLine
 10
208.5265836739196
 20
98.47560917634833
 30
0.0
 11
208.5265836739196
 21
121.799610186348
 31
0.0
  0
LINE
  5
D696
330
CD2A
100
AcDbEntity
  8
AM_5
100
AcDbLine
 10
205.5265848253462
 20
96.47560919682973
 30
0.0
 11
205.5265848253462
 21
121.799610186348
 31
0.0
  0
LINE
  5
D697
330
CD2A
100
AcDbEntity
  8
AM_5
100
AcDbLine
 10
209.5265836739196
 20
120.799610186348
 30
0.0
 11
210.5265836739196
 21
120.799610186348
 31
0.0
  0
LINE
  5
D698
330
CD2A
100
AcDbEntity
  8
AM_5
100
AcDbLine
 10
204.5265848253462
 20
120.799610186348
 30
0.0
 11
203.5265848253462
 21
120.799610186348
 31
0.0
  0
LINE
  5
D699
330
CD2A
100
AcDbEntity
  8
AM_5
100
AcDbLine
 10
208.5265836739196
 20
120.799610186348
 30
0.0
 11
205.5265848253462
 21
120.799610186348
 31
0.0
  0
INSERT
  5
D69A
330
CD2A
100
AcDbEntity
  8
AM_5
100
AcDbBlockReference
  2
_Dot
 10
208.5265836739196
 20
120.799610186348
 30
0.0
 50
180.0
  0
INSERT
  5
D69B
330
CD2A
100
AcDbEntity
  8
AM_5
100
AcDbBlockReference
  2
_Dot
 10
205.5265848253462
 20
120.799610186348
 30
0.0
  0
MTEXT
  5
D69C
330
CD2A
100
AcDbEntity
  8
AM_5
 62
     2
100
AcDbMText
 10
207.0265842496329
 20
123.899610186348
 30
0.0
 40
3.200000000000001
 41
0.0
 71
     5
 72
     1
  1
3
 73
     1
 44
1.0
1001
ACAD
1000
MTEXTBEGIN
1070
    73
1070
     1
1070
    44
1040
1.0
1070
    74
1070
     0
1000
MTEXTEND
  0
POINT
  5
D69D
330
CD2A
100
AcDbEntity
  8
Defpoints
 62
     0
100
AcDbPoint
 10
208.5265836739196
 20
97.47560917634833
 30
0.0
  0
POINT
  5
D69E
330
CD2A
100
AcDbEntity
  8
Defpoints
 62
     0
100
AcDbPoint
 10
205.5265848253462
 20
95.47560919682974
 30
0.0
  0
POINT
  5
D69F
330
CD2A
100
AcDbEntity
  8
Defpoints
 62
     0
100
AcDbPoint
 10
205.5265848253462
 20
120.799610186348
 30
0.0
  0
ENDBLK
  5
CD37
330
CD2A
100
AcDbEntity
  8
0
100
AcDbBlockEnd
  0
BLOCK
  5
CD42
330
CD38
100
AcDbEntity
  8
0
100
AcDbBlockBegin
  2
*D13
 70
     1
 10
0.0
 20
0.0
 30
0.0
  3
*D13
  1

  0
LINE
  5
CEA4
330
CD38
100
AcDbEntity
  8
AM_5
100
AcDbLine
 10
166.8288940924115
 20
96.07560717634834
 30
0.0
 11
166.8288940924115
 21
95.07560717634834
 31
0.0
  0
LINE
  5
CEA5
330
CD38
100
AcDbEntity
  8
AM_5
100
AcDbLine
 10
166.8288940924115
 20
100.0756071763483
 30
0.0
 11
166.8288940924115
 21
105.5689405096817
 31
0.0
  0
LINE
  5
CEA6
330
CD38
100
AcDbEntity
  8
AM_5
100
AcDbLine
 10
166.8288940924115
 20
97.07560717634834
 30
0.0
 11
166.8288940924115
 21
99.07560717634835
 31
0.0
  0
INSERT
  5
CEA7
330
CD38
100
AcDbEntity
  8
AM_5
100
AcDbBlockReference
  2
_Dot
 10
166.8288940924115
 20
97.07560717634834
 30
0.0
 50
90.0
  0
INSERT
  5
CEA8
330
CD38
100
AcDbEntity
  8
AM_5
100
AcDbBlockReference
  2
_Dot
 10
166.8288940924115
 20
99.07560717634835
 30
0.0
 50
270.0
  0
MTEXT
  5
CEA9
330
CD38
100
AcDbEntity
  8
AM_5
 62
     2
100
AcDbMText
 10
163.7288940924115
 20
103.322273843015
 30
0.0
 40
3.200000000000001
 41
0.0
 71
     5
 72
     1
  1
2
 11
0.0000000000000001
 21
1.0
 31
0.0
 73
     1
 44
1.0
1001
ACAD
1000
MTEXTBEGIN
1070
    73
1070
     1
1070
    44
1040
1.0
1070
    74
1070
     0
1000
MTEXTEND
  0
POINT
  5
CEAA
330
CD38
100
AcDbEntity
  8
Defpoints
 62
     0
100
AcDbPoint
 10
175.4465781739195
 20
97.07560717634834
 30
0.0
  0
POINT
  5
CEAB
330
CD38
100
AcDbEntity
  8
Defpoints
 62
     0
100
AcDbPoint
 10
175.4465781739195
 20
99.07560717634835
 30
0.0
  0
POINT
  5
CEAC
330
CD38
100
AcDbEntity
  8
Defpoints
 62
     0
100
AcDbPoint
 10
166.8288940924115
 20
99.07560717634835
 30
0.0
  0
ENDBLK
  5
CD43
330
CD38
100
AcDbEntity
  8
0
100
AcDbBlockEnd
  0
BLOCK
  5
CD4E
330
CD44
100
AcDbEntity
  8
0
100
AcDbBlockBegin
  2
*D14
 70
     1
 10
0.0
 20
0.0
 30
0.0
  3
*D14
  1

  0
LINE
  5
CE17
330
CD44
100
AcDbEntity
  8
AM_5
100
AcDbLine
 10
229.5265846739196
 20
84.07561117634836
 30
0.0
 11
241.5265846739194
 21
84.07561117634836
 31
0.0
  0
LINE
  5
CE18
330
CD44
100
AcDbEntity
  8
AM_5
100
AcDbLine
 10
227.9265786739195
 20
99.07560717634835
 30
0.0
 11
241.5265846739194
 21
99.07560717634835
 31
0.0
  0
LINE
  5
CE19
330
CD44
100
AcDbEntity
  8
AM_5
100
AcDbLine
 10
240.5265846739194
 20
85.07561117634836
 30
0.0
 11
240.5265846739194
 21
98.07560717634835
 31
0.0
  0
INSERT
  5
CE1A
330
CD44
100
AcDbEntity
  8
AM_5
100
AcDbBlockReference
  2
_Dot
 10
240.5265846739194
 20
84.07561117634836
 30
0.0
 50
270.0
  0
INSERT
  5
CE1B
330
CD44
100
AcDbEntity
  8
AM_5
100
AcDbBlockReference
  2
_Dot
 10
240.5265846739194
 20
99.07560717634835
 30
0.0
 50
90.0
  0
MTEXT
  5
CE1C
330
CD44
100
AcDbEntity
  8
AM_5
 62
     2
100
AcDbMText
 10
237.4265846739194
 20
91.57560917634839
 30
0.0
 40
3.200000000000001
 41
0.0
 71
     5
 72
     1
  1
15
 11
0.0000000000000001
 21
1.0
 31
0.0
 73
     1
 44
1.0
1001
ACAD
1000
MTEXTBEGIN
1070
    73
1070
     1
1070
    44
1040
1.0
1070
    74
1070
     0
1000
MTEXTEND
  0
POINT
  5
CE1D
330
CD44
100
AcDbEntity
  8
Defpoints
 62
     0
100
AcDbPoint
 10
228.5265846739196
 20
84.07561117634836
 30
0.0
  0
POINT
  5
CE1E
330
CD44
100
AcDbEntity
  8
Defpoints
 62
     0
100
AcDbPoint
 10
226.9265786739195
 20
99.07560717634835
 30
0.0
  0
POINT
  5
CE1F
330
CD44
100
AcDbEntity
  8
Defpoints
 62
     0
100
AcDbPoint
 10
240.5265846739194
 20
99.07560717634835
 30
0.0
  0
ENDBLK
  5
CD4F
330
CD44
100
AcDbEntity
  8
0
100
AcDbBlockEnd
  0
BLOCK
  5
CD5A
330
CD50
100
AcDbEntity
  8
0
100
AcDbBlockBegin
  2
*D15
 70
     1
 10
0.0
 20
0.0
 30
0.0
  3
*D15
  1

  0
LINE
  5
DB33
330
CD50
100
AcDbEntity
  8
AM_5
100
AcDbLine
 10
227.9265786739195
 20
99.07560917634834
 30
0.0
 11
251.5265846739194
 21
99.07560917634834
 31
0.0
  0
LINE
  5
DB34
330
CD50
100
AcDbEntity
  8
AM_5
100
AcDbLine
 10
219.5266016306339
 20
49.07561942434242
 30
0.0
 11
251.5265846739194
 21
49.07561942434242
 31
0.0
  0
LINE
  5
DB35
330
CD50
100
AcDbEntity
  8
AM_5
100
AcDbLine
 10
250.5265846739194
 20
98.07560917634834
 30
0.0
 11
250.5265846739193
 21
50.07561942434241
 31
0.0
  0
INSERT
  5
DB36
330
CD50
100
AcDbEntity
  8
AM_5
100
AcDbBlockReference
  2
_Dot
 10
250.5265846739194
 20
99.07560917634834
 30
0.0
 50
90.0
  0
INSERT
  5
DB37
330
CD50
100
AcDbEntity
  8
AM_5
100
AcDbBlockReference
  2
_Dot
 10
250.5265846739193
 20
49.07561942434242
 30
0.0
 50
270.0
  0
MTEXT
  5
DB38
330
CD50
100
AcDbEntity
  8
AM_5
 62
     2
100
AcDbMText
 10
247.4265846739194
 20
74.07561430034542
 30
0.0
 40
3.200000000000001
 41
0.0
 71
     5
 72
     1
  1
50
 11
0.0000000000000001
 21
1.0
 31
0.0
 73
     1
 44
1.0
1001
ACAD
1000
MTEXTBEGIN
1070
    73
1070
     1
1070
    44
1040
1.0
1070
    74
1070
     0
1000
MTEXTEND
  0
POINT
  5
DB39
330
CD50
100
AcDbEntity
  8
Defpoints
 62
     0
100
AcDbPoint
 10
226.9265786739195
 20
99.07560917634834
 30
0.0
  0
POINT
  5
DB3A
330
CD50
100
AcDbEntity
  8
Defpoints
 62
     0
100
AcDbPoint
 10
218.5266016306339
 20
49.07561942434242
 30
0.0
  0
POINT
  5
DB3B
330
CD50
100
AcDbEntity
  8
Defpoints
 62
     0
100
AcDbPoint
 10
250.5265846739193
 20
49.07561942434242
 30
0.0
  0
ENDBLK
  5
CD5B
330
CD50
100
AcDbEntity
  8
0
100
AcDbBlockEnd
  0
BLOCK
  5
CD66
330
CD5C
100
AcDbEntity
  8
0
100
AcDbBlockBegin
  2
*D16
 70
     1
 10
0.0
 20
0.0
 30
0.0
  3
*D16
  1

  0
LINE
  5
CDC0
330
CD5C
100
AcDbEntity
  8
AM_5
100
AcDbLine
 10
218.5265846739195
 20
96.47560917634834
 30
0.0
 11
218.5265846739195
 21
95.47560917634834
 31
0.0
  0
LINE
  5
CDC1
330
CD5C
100
AcDbEntity
  8
AM_5
100
AcDbLine
 10
218.5265846739195
 20
100.0756071763483
 30
0.0
 11
218.5265846739195
 21
108.4489405096817
 31
0.0
  0
LINE
  5
CDC2
330
CD5C
100
AcDbEntity
  8
AM_5
100
AcDbLine
 10
218.5265846739195
 20
97.47560917634835
 30
0.0
 11
218.5265846739195
 21
99.07560717634835
 31
0.0
  0
INSERT
  5
CDC3
330
CD5C
100
AcDbEntity
  8
AM_5
100
AcDbBlockReference
  2
_Dot
 10
218.5265846739195
 20
97.47560917634835
 30
0.0
 50
90.0
  0
INSERT
  5
CDC4
330
CD5C
100
AcDbEntity
  8
AM_5
100
AcDbBlockReference
  2
_Dot
 10
218.5265846739195
 20
99.07560717634835
 30
0.0
 50
270.0
  0
MTEXT
  5
CDC5
330
CD5C
100
AcDbEntity
  8
AM_5
 62
     2
100
AcDbMText
 10
215.4265846739195
 20
104.762273843015
 30
0.0
 40
3.200000000000001
 41
0.0
 71
     5
 72
     1
  1
1.6
 11
0.0000000000000001
 21
1.0
 31
0.0
 73
     1
 44
1.0
1001
ACAD
1000
MTEXTBEGIN
1070
    73
1070
     1
1070
    44
1040
1.0
1070
    74
1070
     0
1000
MTEXTEND
  0
POINT
  5
CDC6
330
CD5C
100
AcDbEntity
  8
Defpoints
 62
     0
100
AcDbPoint
 10
218.5265846739195
 20
97.47560917634835
 30
0.0
  0
POINT
  5
CDC7
330
CD5C
100
AcDbEntity
  8
Defpoints
 62
     0
100
AcDbPoint
 10
218.5265846739195
 20
99.07560717634835
 30
0.0
  0
POINT
  5
CDC8
330
CD5C
100
AcDbEntity
  8
Defpoints
 62
     0
100
AcDbPoint
 10
218.5265846739195
 20
99.07560717634835
 30
0.0
  0
ENDBLK
  5
CD67
330
CD5C
100
AcDbEntity
  8
0
100
AcDbBlockEnd
  0
BLOCK
  5
CD72
330
CD68
100
AcDbEntity
  8
0
100
AcDbBlockBegin
  2
*D17
 70
     1
 10
0.0
 20
0.0
 30
0.0
  3
*D17
  1

  0
LINE
  5
CDC9
330
CD68
100
AcDbEntity
  8
AM_5
100
AcDbLine
 10
186.2052367318185
 20
94.47560917634834
 30
0.0
 11
186.2052367318185
 21
93.47560917634835
 31
0.0
  0
LINE
  5
CDCA
330
CD68
100
AcDbEntity
  8
AM_5
100
AcDbLine
 10
186.2052367318185
 20
98.07560717634835
 30
0.0
 11
186.2052367318185
 21
108.0370380969983
 31
0.0
  0
LINE
  5
CDCB
330
CD68
100
AcDbEntity
  8
AM_5
100
AcDbLine
 10
186.2052367318185
 20
95.47560917634834
 30
0.0
 11
186.2052367318185
 21
97.07560717634834
 31
0.0
  0
INSERT
  5
CDCC
330
CD68
100
AcDbEntity
  8
AM_5
100
AcDbBlockReference
  2
_Dot
 10
186.2052367318185
 20
95.47560917634834
 30
0.0
 50
90.0
  0
INSERT
  5
CDCD
330
CD68
100
AcDbEntity
  8
AM_5
100
AcDbBlockReference
  2
_Dot
 10
186.2052367318185
 20
97.07560717634834
 30
0.0
 50
270.0
  0
MTEXT
  5
CDCE
330
CD68
100
AcDbEntity
  8
AM_5
 62
     2
100
AcDbMText
 10
183.1052367318184
 20
104.3503714303317
 30
0.0
 40
3.200000000000001
 41
0.0
 71
     5
 72
     1
  1
1.6
 11
0.0000000000000001
 21
1.0
 31
0.0
 73
     1
 44
1.0
1001
ACAD
1000
MTEXTBEGIN
1070
    73
1070
     1
1070
    44
1040
1.0
1070
    74
1070
     0
1000
MTEXTEND
  0
POINT
  5
CDCF
330
CD68
100
AcDbEntity
  8
Defpoints
 62
     0
100
AcDbPoint
 10
175.4465781739195
 20
95.47560917634834
 30
0.0
  0
POINT
  5
CDD0
330
CD68
100
AcDbEntity
  8
Defpoints
 62
     0
100
AcDbPoint
 10
175.4465781739195
 20
97.07560717634834
 30
0.0
  0
POINT
  5
CDD1
330
CD68
100
AcDbEntity
  8
Defpoints
 62
     0
100
AcDbPoint
 10
186.2052367318185
 20
97.07560717634834
 30
0.0
  0
ENDBLK
  5
CD73
330
CD68
100
AcDbEntity
  8
0
100
AcDbBlockEnd
  0
BLOCK
  5
CE34
330
CE2A
100
AcDbEntity
  8
0
100
AcDbBlockBegin
  2
*D18
 70
     1
 10
0.0
 20
0.0
 30
0.0
  3
*D18
  1

  0
LINE
  5
DB15
330
CE2A
100
AcDbEntity
  8
AM_5
100
AcDbLine
 10
166.8288940924115
 20
96.07561117634837
 30
0.0
 11
166.8288940924115
 21
78.07561282594716
 31
0.0
  0
INSERT
  5
DB16
330
CE2A
100
AcDbEntity
  8
AM_5
100
AcDbBlockReference
  2
_Dot
 10
166.8288940924115
 20
97.07561117634837
 30
0.0
 50
90.0
  0
INSERT
  5
DB17
330
CE2A
100
AcDbEntity
  8
AM_5
100
AcDbBlockReference
  2
_Dot
 10
166.8288940924115
 20
77.07561282594716
 30
0.0
 50
270.0
  0
MTEXT
  5
DB18
330
CE2A
100
AcDbEntity
  8
AM_5
 62
     2
100
AcDbMText
 10
163.7288940924115
 20
87.07561200114779
 30
0.0
 40
3.200000000000001
 41
0.0
 71
     5
 72
     1
  1
20
 11
0.0000000000000001
 21
1.0
 31
0.0
 73
     1
 44
1.0
1001
ACAD
1000
MTEXTBEGIN
1070
    73
1070
     1
1070
    44
1040
1.0
1070
    74
1070
     0
1000
MTEXTEND
  0
POINT
  5
DB19
330
CE2A
100
AcDbEntity
  8
Defpoints
 62
     0
100
AcDbPoint
 10
174.4465801739195
 20
97.07561117634837
 30
0.0
  0
POINT
  5
DB1A
330
CE2A
100
AcDbEntity
  8
Defpoints
 62
     0
100
AcDbPoint
 10
174.4465581472092
 20
77.07561282594716
 30
0.0
  0
POINT
  5
DB1B
330
CE2A
100
AcDbEntity
  8
Defpoints
 62
     0
100
AcDbPoint
 10
166.8288940924115
 20
77.07561282594716
 30
0.0
  0
ENDBLK
  5
CE35
330
CE2A
100
AcDbEntity
  8
0
100
AcDbBlockEnd
  0
BLOCK
  5
CE85
330
CE79
100
AcDbEntity
  8
0
100
AcDbBlockBegin
  2
*D19
 70
     1
 10
0.0
 20
0.0
 30
0.0
  3
*D19
  1

  0
LINE
  5
DBFD
330
CE79
100
AcDbEntity
  8
AM_5
100
AcDbLine
 10
166.8288940924115
 20
78.07561282594716
 30
0.0
 11
166.8288940924115
 21
79.07561282594716
 31
0.0
  0
LINE
  5
DBFE
330
CE79
100
AcDbEntity
  8
AM_5
100
AcDbLine
 10
166.8288940924115
 20
73.07562767233651
 30
0.0
 11
166.8288940924115
 21
67.58229433900317
 31
0.0
  0
LINE
  5
DBFF
330
CE79
100
AcDbEntity
  8
AM_5
100
AcDbLine
 10
166.8288940924115
 20
77.07561282594716
 30
0.0
 11
166.8288940924115
 21
74.07562767233651
 31
0.0
  0
INSERT
  5
DC00
330
CE79
100
AcDbEntity
  8
AM_5
100
AcDbBlockReference
  2
_Dot
 10
166.8288940924115
 20
77.07561282594716
 30
0.0
 50
270.0
  0
INSERT
  5
DC01
330
CE79
100
AcDbEntity
  8
AM_5
100
AcDbBlockReference
  2
_Dot
 10
166.8288940924115
 20
74.07562767233651
 30
0.0
 50
90.0
  0
MTEXT
  5
DC02
330
CE79
100
AcDbEntity
  8
AM_5
 62
     2
100
AcDbMText
 10
163.7288940924115
 20
69.82896100566986
 30
0.0
 40
3.200000000000001
 41
0.0
 71
     5
 72
     1
  1
3
 11
0.0000000000000001
 21
1.0
 31
0.0
 73
     1
 44
1.0
1001
ACAD
1000
MTEXTBEGIN
1070
    73
1070
     1
1070
    44
1040
1.0
1070
    74
1070
     0
1000
MTEXTEND
  0
POINT
  5
DC03
330
CE79
100
AcDbEntity
  8
Defpoints
 62
     0
100
AcDbPoint
 10
174.4465581472092
 20
77.07561282594716
 30
0.0
  0
POINT
  5
DC04
330
CE79
100
AcDbEntity
  8
Defpoints
 62
     0
100
AcDbPoint
 10
166.8288940924115
 20
74.07562767233651
 30
0.0
  0
POINT
  5
DC05
330
CE79
100
AcDbEntity
  8
Defpoints
 62
     0
100
AcDbPoint
 10
166.8288940924115
 20
74.07562767233651
 30
0.0
  0
ENDBLK
  5
CE86
330
CE79
100
AcDbEntity
  8
0
100
AcDbBlockEnd
  0
BLOCK
  5
CF2E
330
CF24
100
AcDbEntity
  8
0
100
AcDbBlockBegin
  2
*D20
 70
     1
 10
0.0
 20
0.0
 30
0.0
  3
*D20
  1

  0
LINE
  5
DBA9
330
CF24
100
AcDbEntity
  8
AM_5
100
AcDbLine
 10
96.5465783109772
 20
51.07562932193534
 30
0.0
 11
96.5465783109772
 21
36.07561942434242
 31
0.0
  0
LINE
  5
DBAA
330
CF24
100
AcDbEntity
  8
AM_5
100
AcDbLine
 10
193.5266279855525
 20
51.07562932193534
 30
0.0
 11
193.5266279855525
 21
36.07561942434242
 31
0.0
  0
LINE
  5
DBAB
330
CF24
100
AcDbEntity
  8
AM_5
100
AcDbLine
 10
97.5465783109772
 20
37.07561942434242
 30
0.0
 11
192.5266279855525
 21
37.07561942434242
 31
0.0
  0
INSERT
  5
DBAC
330
CF24
100
AcDbEntity
  8
AM_5
100
AcDbBlockReference
  2
_Dot
 10
96.5465783109772
 20
37.07561942434242
 30
0.0
 50
180.0
  0
INSERT
  5
DBAD
330
CF24
100
AcDbEntity
  8
AM_5
100
AcDbBlockReference
  2
_Dot
 10
193.5266279855525
 20
37.07561942434242
 30
0.0
  0
MTEXT
  5
DBAE
330
CF24
100
AcDbEntity
  8
AM_5
 62
     2
100
AcDbMText
 10
145.0366031482649
 20
40.17561942434242
 30
0.0
 40
3.200000000000001
 41
0.0
 71
     5
 72
     1
  1
W
 73
     1
 44
1.0
1001
ACAD
1000
MTEXTBEGIN
1070
    73
1070
     1
1070
    44
1040
1.0
1070
    74
1070
     0
1000
MTEXTEND
  0
POINT
  5
DBAF
330
CF24
100
AcDbEntity
  8
Defpoints
 62
     0
100
AcDbPoint
 10
96.5465783109772
 20
52.07562932193534
 30
0.0
  0
POINT
  5
DBB0
330
CF24
100
AcDbEntity
  8
Defpoints
 62
     0
100
AcDbPoint
 10
193.5266279855525
 20
52.07562932193534
 30
0.0
  0
POINT
  5
DBB1
330
CF24
100
AcDbEntity
  8
Defpoints
 62
     0
100
AcDbPoint
 10
193.5266279855525
 20
37.07561942434242
 30
0.0
  0
ENDBLK
  5
CF2F
330
CF24
100
AcDbEntity
  8
0
100
AcDbBlockEnd
  0
BLOCK
  5
CF4D
330
CF43
100
AcDbEntity
  8
0
100
AcDbBlockBegin
  2
*D21
 70
     1
 10
0.0
 20
0.0
 30
0.0
  3
*D21
  1

  0
LINE
  5
DB97
330
CF43
100
AcDbEntity
  8
AM_5
100
AcDbLine
 10
193.5266181266222
 20
51.07562932193534
 30
0.0
 11
193.5266181266222
 21
36.07561942434247
 31
0.0
  0
LINE
  5
DB98
330
CF43
100
AcDbEntity
  8
AM_5
100
AcDbLine
 10
218.5266016306339
 20
48.07561942434242
 30
0.0
 11
218.5266016306339
 21
36.07561942434247
 31
0.0
  0
LINE
  5
DB99
330
CF43
100
AcDbEntity
  8
AM_5
100
AcDbLine
 10
194.5266181266222
 20
37.07561942434247
 30
0.0
 11
217.5266016306339
 21
37.07561942434247
 31
0.0
  0
INSERT
  5
DB9A
330
CF43
100
AcDbEntity
  8
AM_5
100
AcDbBlockReference
  2
_Dot
 10
193.5266181266222
 20
37.07561942434247
 30
0.0
 50
180.0
  0
INSERT
  5
DB9B
330
CF43
100
AcDbEntity
  8
AM_5
100
AcDbBlockReference
  2
_Dot
 10
218.5266016306339
 20
37.07561942434247
 30
0.0
  0
MTEXT
  5
DB9C
330
CF43
100
AcDbEntity
  8
AM_5
 62
     2
100
AcDbMText
 10
206.026609878628
 20
40.17561942434247
 30
0.0
 40
3.200000000000001
 41
0.0
 71
     5
 72
     1
  1
25
 73
     1
 44
1.0
1001
ACAD
1000
MTEXTBEGIN
1070
    73
1070
     1
1070
    44
1040
1.0
1070
    74
1070
     0
1000
MTEXTEND
  0
POINT
  5
DB9D
330
CF43
100
AcDbEntity
  8
Defpoints
 62
     0
100
AcDbPoint
 10
193.5266181266222
 20
52.07562932193534
 30
0.0
  0
POINT
  5
DB9E
330
CF43
100
AcDbEntity
  8
Defpoints
 62
     0
100
AcDbPoint
 10
218.5266016306339
 20
49.07561942434242
 30
0.0
  0
POINT
  5
DB9F
330
CF43
100
AcDbEntity
  8
Defpoints
 62
     0
100
AcDbPoint
 10
218.5266016306339
 20
37.07561942434247
 30
0.0
  0
ENDBLK
  5
CF4E
330
CF43
100
AcDbEntity
  8
0
100
AcDbBlockEnd
  0
BLOCK
  5
CF63
330
CF59
100
AcDbEntity
  8
0
100
AcDbBlockBegin
  2
*D22
 70
     1
 10
0.0
 20
0.0
 30
0.0
  3
*D22
  1

  0
LINE
  5
DBA0
330
CF59
100
AcDbEntity
  8
AM_5
100
AcDbLine
 10
218.5266016306339
 20
48.07561942434242
 30
0.0
 11
218.5266016306339
 21
36.07561942434244
 31
0.0
  0
LINE
  5
DBA1
330
CF59
100
AcDbEntity
  8
AM_5
100
AcDbLine
 10
228.5265846739196
 20
83.07561117634836
 30
0.0
 11
228.5265846739196
 21
36.07561942434244
 31
0.0
  0
LINE
  5
DBA2
330
CF59
100
AcDbEntity
  8
AM_5
100
AcDbLine
 10
219.5266016306339
 20
37.07561942434244
 30
0.0
 11
227.5265846739196
 21
37.07561942434244
 31
0.0
  0
INSERT
  5
DBA3
330
CF59
100
AcDbEntity
  8
AM_5
100
AcDbBlockReference
  2
_Dot
 10
218.5266016306339
 20
37.07561942434244
 30
0.0
 50
180.0
  0
INSERT
  5
DBA4
330
CF59
100
AcDbEntity
  8
AM_5
100
AcDbBlockReference
  2
_Dot
 10
228.5265846739196
 20
37.07561942434244
 30
0.0
  0
MTEXT
  5
DBA5
330
CF59
100
AcDbEntity
  8
AM_5
 62
     2
100
AcDbMText
 10
223.5265931522767
 20
40.17561942434244
 30
0.0
 40
3.200000000000001
 41
0.0
 71
     5
 72
     1
  1
10
 73
     1
 44
1.0
1001
ACAD
1000
MTEXTBEGIN
1070
    73
1070
     1
1070
    44
1040
1.0
1070
    74
1070
     0
1000
MTEXTEND
  0
POINT
  5
DBA6
330
CF59
100
AcDbEntity
  8
Defpoints
 62
     0
100
AcDbPoint
 10
218.5266016306339
 20
49.07561942434242
 30
0.0
  0
POINT
  5
DBA7
330
CF59
100
AcDbEntity
  8
Defpoints
 62
     0
100
AcDbPoint
 10
228.5265846739196
 20
84.07561117634836
 30
0.0
  0
POINT
  5
DBA8
330
CF59
100
AcDbEntity
  8
Defpoints
 62
     0
100
AcDbPoint
 10
228.5265846739196
 20
37.07561942434244
 30
0.0
  0
ENDBLK
  5
CF64
330
CF59
100
AcDbEntity
  8
0
100
AcDbBlockEnd
  0
BLOCK
  5
CF79
330
CF6F
100
AcDbEntity
  8
0
100
AcDbBlockBegin
  2
*D23
 70
     1
 10
0.0
 20
0.0
 30
0.0
  3
*D23
  1

  0
LINE
  5
DB85
330
CF6F
100
AcDbEntity
  8
AM_5
100
AcDbLine
 10
71.54655517793139
 20
48.07561157634836
 30
0.0
 11
71.54655517793139
 21
36.07561942434251
 31
0.0
  0
LINE
  5
DB86
330
CF6F
100
AcDbEntity
  8
AM_5
100
AcDbLine
 10
96.5465783109772
 20
51.07562932193534
 30
0.0
 11
96.5465783109772
 21
36.07561942434251
 31
0.0
  0
LINE
  5
DB87
330
CF6F
100
AcDbEntity
  8
AM_5
100
AcDbLine
 10
72.54655517793139
 20
37.07561942434251
 30
0.0
 11
95.54657831097719
 21
37.07561942434251
 31
0.0
  0
INSERT
  5
DB88
330
CF6F
100
AcDbEntity
  8
AM_5
100
AcDbBlockReference
  2
_Dot
 10
71.54655517793139
 20
37.07561942434251
 30
0.0
 50
180.0
  0
INSERT
  5
DB89
330
CF6F
100
AcDbEntity
  8
AM_5
100
AcDbBlockReference
  2
_Dot
 10
96.5465783109772
 20
37.07561942434251
 30
0.0
  0
MTEXT
  5
DB8A
330
CF6F
100
AcDbEntity
  8
AM_5
 62
     2
100
AcDbMText
 10
84.0465667444543
 20
40.17561942434251
 30
0.0
 40
3.200000000000001
 41
0.0
 71
     5
 72
     1
  1
25
 73
     1
 44
1.0
1001
ACAD
1000
MTEXTBEGIN
1070
    73
1070
     1
1070
    44
1040
1.0
1070
    74
1070
     0
1000
MTEXTEND
  0
POINT
  5
DB8B
330
CF6F
100
AcDbEntity
  8
Defpoints
 62
     0
100
AcDbPoint
 10
71.54655517793139
 20
49.07561157634836
 30
0.0
  0
POINT
  5
DB8C
330
CF6F
100
AcDbEntity
  8
Defpoints
 62
     0
100
AcDbPoint
 10
96.5465783109772
 20
52.07562932193534
 30
0.0
  0
POINT
  5
DB8D
330
CF6F
100
AcDbEntity
  8
Defpoints
 62
     0
100
AcDbPoint
 10
96.5465783109772
 20
37.07561942434251
 30
0.0
  0
ENDBLK
  5
CF7A
330
CF6F
100
AcDbEntity
  8
0
100
AcDbBlockEnd
  0
BLOCK
  5
CF8F
330
CF85
100
AcDbEntity
  8
0
100
AcDbBlockBegin
  2
*D24
 70
     1
 10
0.0
 20
0.0
 30
0.0
  3
*D24
  1

  0
LINE
  5
DB8E
330
CF85
100
AcDbEntity
  8
AM_5
100
AcDbLine
 10
71.54655517793139
 20
48.07561157634836
 30
0.0
 11
71.54655517793139
 21
36.0756194243424
 31
0.0
  0
LINE
  5
DB8F
330
CF85
100
AcDbEntity
  8
AM_5
100
AcDbLine
 10
61.54657167391952
 20
83.07561117634836
 30
0.0
 11
61.54657167391952
 21
36.0756194243424
 31
0.0
  0
LINE
  5
DB90
330
CF85
100
AcDbEntity
  8
AM_5
100
AcDbLine
 10
70.5465551779314
 20
37.0756194243424
 30
0.0
 11
62.54657167391951
 21
37.0756194243424
 31
0.0
  0
INSERT
  5
DB91
330
CF85
100
AcDbEntity
  8
AM_5
100
AcDbBlockReference
  2
_Dot
 10
71.54655517793139
 20
37.0756194243424
 30
0.0
  0
INSERT
  5
DB92
330
CF85
100
AcDbEntity
  8
AM_5
100
AcDbBlockReference
  2
_Dot
 10
61.54657167391952
 20
37.0756194243424
 30
0.0
 50
180.0
  0
MTEXT
  5
DB93
330
CF85
100
AcDbEntity
  8
AM_5
 62
     2
100
AcDbMText
 10
66.54656342592545
 20
40.1756194243424
 30
0.0
 40
3.200000000000001
 41
0.0
 71
     5
 72
     1
  1
10
 73
     1
 44
1.0
1001
ACAD
1000
MTEXTBEGIN
1070
    73
1070
     1
1070
    44
1040
1.0
1070
    74
1070
     0
1000
MTEXTEND
  0
POINT
  5
DB94
330
CF85
100
AcDbEntity
  8
Defpoints
 62
     0
100
AcDbPoint
 10
71.54655517793139
 20
49.07561157634836
 30
0.0
  0
POINT
  5
DB95
330
CF85
100
AcDbEntity
  8
Defpoints
 62
     0
100
AcDbPoint
 10
61.54657167391952
 20
84.07561117634836
 30
0.0
  0
POINT
  5
DB96
330
CF85
100
AcDbEntity
  8
Defpoints
 62
     0
100
AcDbPoint
 10
61.54657167391952
 20
37.0756194243424
 30
0.0
  0
ENDBLK
  5
CF90
330
CF85
100
AcDbEntity
  8
0
100
AcDbBlockEnd
  0
BLOCK
  5
CFA5
330
CF9B
100
AcDbEntity
  8
0
100
AcDbBlockBegin
  2
*D25
 70
     1
 10
0.0
 20
0.0
 30
0.0
  3
*D25
  1

  0
LINE
  5
DBE0
330
CF9B
100
AcDbEntity
  8
AM_5
100
AcDbLine
 10
352.426572075524
 20
75.67558468437198
 30
0.0
 11
378.9265704259256
 21
75.67558468437198
 31
0.0
  0
LINE
  5
DBE1
330
CF9B
100
AcDbEntity
  8
AM_5
100
AcDbLine
 10
363.92653578435
 20
90.6756243134061
 30
0.0
 11
378.9265704259256
 21
90.6756243134061
 31
0.0
  0
LINE
  5
DBE2
330
CF9B
100
AcDbEntity
  8
AM_5
100
AcDbLine
 10
377.9265704259255
 20
76.67558468437198
 30
0.0
 11
377.9265704259255
 21
89.67562431340608
 31
0.0
  0
INSERT
  5
DBE3
330
CF9B
100
AcDbEntity
  8
AM_5
100
AcDbBlockReference
  2
_Dot
 10
377.9265704259255
 20
75.67558468437198
 30
0.0
 50
270.0
  0
INSERT
  5
DBE4
330
CF9B
100
AcDbEntity
  8
AM_5
100
AcDbBlockReference
  2
_Dot
 10
377.9265704259255
 20
90.6756243134061
 30
0.0
 50
90.0
  0
MTEXT
  5
DBE5
330
CF9B
100
AcDbEntity
  8
AM_5
 62
     2
100
AcDbMText
 10
374.8265704259255
 20
83.1756044988891
 30
0.0
 40
3.200000000000001
 41
0.0
 71
     5
 72
     1
  1
15
 11
0.0000000000000001
 21
1.0
 31
0.0
 73
     1
 44
1.0
1001
ACAD
1000
MTEXTBEGIN
1070
    73
1070
     1
1070
    44
1040
1.0
1070
    74
1070
     0
1000
MTEXTEND
  0
POINT
  5
DBE6
330
CF9B
100
AcDbEntity
  8
Defpoints
 62
     0
100
AcDbPoint
 10
351.4265720755239
 20
75.675584684372
 30
0.0
  0
POINT
  5
DBE7
330
CF9B
100
AcDbEntity
  8
Defpoints
 62
     0
100
AcDbPoint
 10
362.92653578435
 20
90.6756243134061
 30
0.0
  0
POINT
  5
DBE8
330
CF9B
100
AcDbEntity
  8
Defpoints
 62
     0
100
AcDbPoint
 10
377.9265704259255
 20
90.6756243134061
 30
0.0
  0
ENDBLK
  5
CFA6
330
CF9B
100
AcDbEntity
  8
0
100
AcDbBlockEnd
  0
BLOCK
  5
CFD1
330
CFC7
100
AcDbEntity
  8
0
100
AcDbBlockBegin
  2
*D26
 70
     1
 10
0.0
 20
0.0
 30
0.0
  3
*D26
  1

  0
LINE
  5
DBBC
330
CFC7
100
AcDbEntity
  8
AM_5
100
AcDbLine
 10
363.92653578435
 20
187.655664129051
 30
0.0
 11
378.9265704259256
 21
187.655664129051
 31
0.0
  0
LINE
  5
DBBD
330
CFC7
100
AcDbEntity
  8
AM_5
100
AcDbLine
 10
352.4393899794718
 20
202.6556291763483
 30
0.0
 11
378.9265704259256
 21
202.6556291763483
 31
0.0
  0
LINE
  5
DBBE
330
CFC7
100
AcDbEntity
  8
AM_5
100
AcDbLine
 10
377.9265704259255
 20
188.655664129051
 30
0.0
 11
377.9265704259255
 21
201.6556291763484
 31
0.0
  0
INSERT
  5
DBBF
330
CFC7
100
AcDbEntity
  8
AM_5
100
AcDbBlockReference
  2
_Dot
 10
377.9265704259255
 20
187.655664129051
 30
0.0
 50
270.0
  0
INSERT
  5
DBC0
330
CFC7
100
AcDbEntity
  8
AM_5
100
AcDbBlockReference
  2
_Dot
 10
377.9265704259255
 20
202.6556291763483
 30
0.0
 50
90.0
  0
MTEXT
  5
DBC1
330
CFC7
100
AcDbEntity
  8
AM_5
 62
     2
100
AcDbMText
 10
374.8265704259255
 20
195.1556466526997
 30
0.0
 40
3.200000000000001
 41
0.0
 71
     5
 72
     1
  1
15
 11
0.0000000000000001
 21
1.0
 31
0.0
 73
     1
 44
1.0
1001
ACAD
1000
MTEXTBEGIN
1070
    73
1070
     1
1070
    44
1040
1.0
1070
    74
1070
     0
1000
MTEXTEND
  0
POINT
  5
DBC2
330
CFC7
100
AcDbEntity
  8
Defpoints
 62
     0
100
AcDbPoint
 10
362.92653578435
 20
187.655664129051
 30
0.0
  0
POINT
  5
DBC3
330
CFC7
100
AcDbEntity
  8
Defpoints
 62
     0
100
AcDbPoint
 10
351.4393899794718
 20
202.6556291763483
 30
0.0
  0
POINT
  5
DBC4
330
CFC7
100
AcDbEntity
  8
Defpoints
 62
     0
100
AcDbPoint
 10
377.9265704259255
 20
202.6556291763483
 30
0.0
  0
ENDBLK
  5
CFD2
330
CFC7
100
AcDbEntity
  8
0
100
AcDbBlockEnd
  0
BLOCK
  5
CFF8
330
CFEE
100
AcDbEntity
  8
0
100
AcDbBlockBegin
  2
*D27
 70
     1
 10
0.0
 20
0.0
 30
0.0
  3
*D27
  1

  0
LINE
  5
DBD7
330
CFEE
100
AcDbEntity
  8
AM_5
100
AcDbLine
 10
363.92653578435
 20
90.6756243134061
 30
0.0
 11
378.9265704259256
 21
90.6756243134061
 31
0.0
  0
LINE
  5
DBD8
330
CFEE
100
AcDbEntity
  8
AM_5
100
AcDbLine
 10
363.92653578435
 20
187.655664129051
 30
0.0
 11
378.9265704259257
 21
187.655664129051
 31
0.0
  0
LINE
  5
DBD9
330
CFEE
100
AcDbEntity
  8
AM_5
100
AcDbLine
 10
377.9265704259256
 20
91.67562431340609
 30
0.0
 11
377.9265704259257
 21
186.655664129051
 31
0.0
  0
INSERT
  5
DBDA
330
CFEE
100
AcDbEntity
  8
AM_5
100
AcDbBlockReference
  2
_Dot
 10
377.9265704259256
 20
90.6756243134061
 30
0.0
 50
270.0
  0
INSERT
  5
DBDB
330
CFEE
100
AcDbEntity
  8
AM_5
100
AcDbBlockReference
  2
_Dot
 10
377.9265704259257
 20
187.655664129051
 30
0.0
 50
90.0
  0
MTEXT
  5
DBDC
330
CFEE
100
AcDbEntity
  8
AM_5
 62
     2
100
AcDbMText
 10
374.8265704259256
 20
139.1656442212286
 30
0.0
 40
3.200000000000001
 41
0.0
 71
     5
 72
     1
  1
H
 11
0.0000000000000001
 21
1.0
 31
0.0
 73
     1
 44
1.0
1001
ACAD
1000
MTEXTBEGIN
1070
    73
1070
     1
1070
    44
1040
1.0
1070
    74
1070
     0
1000
MTEXTEND
  0
POINT
  5
DBDD
330
CFEE
100
AcDbEntity
  8
Defpoints
 62
     0
100
AcDbPoint
 10
362.92653578435
 20
90.6756243134061
 30
0.0
  0
POINT
  5
DBDE
330
CFEE
100
AcDbEntity
  8
Defpoints
 62
     0
100
AcDbPoint
 10
362.92653578435
 20
187.655664129051
 30
0.0
  0
POINT
  5
DBDF
330
CFEE
100
AcDbEntity
  8
Defpoints
 62
     0
100
AcDbPoint
 10
377.9265704259257
 20
187.655664129051
 30
0.0
  0
ENDBLK
  5
CFF9
330
CFEE
100
AcDbEntity
  8
0
100
AcDbBlockEnd
  0
BLOCK
  5
D068
330
D05E
100
AcDbEntity
  8
0
100
AcDbBlockBegin
  2
*D28
 70
     1
 10
0.0
 20
0.0
 30
0.0
  3
*D28
  1

  0
LINE
  5
D184
330
D05E
100
AcDbEntity
  8
AM_5
100
AcDbLine
 10
316.5265776739195
 20
75.67562717634834
 30
0.0
 11
304.5265766739195
 21
75.67562717634834
 31
0.0
  0
LINE
  5
D185
330
D05E
100
AcDbEntity
  8
AM_5
100
AcDbLine
 10
316.5265846739195
 20
55.67562757634835
 30
0.0
 11
304.5265766739195
 21
55.67562757634835
 31
0.0
  0
LINE
  5
D186
330
D05E
100
AcDbEntity
  8
AM_5
100
AcDbLine
 10
305.5265766739195
 20
74.67562717634834
 30
0.0
 11
305.5265766739195
 21
56.67562757634835
 31
0.0
  0
INSERT
  5
D187
330
D05E
100
AcDbEntity
  8
AM_5
100
AcDbBlockReference
  2
_Dot
 10
305.5265766739195
 20
75.67562717634834
 30
0.0
 50
90.0
  0
INSERT
  5
D188
330
D05E
100
AcDbEntity
  8
AM_5
100
AcDbBlockReference
  2
_Dot
 10
305.5265766739195
 20
55.67562757634835
 30
0.0
 50
270.0
  0
MTEXT
  5
D189
330
D05E
100
AcDbEntity
  8
AM_5
 62
     2
100
AcDbMText
 10
302.4265766739195
 20
65.6756273763484
 30
0.0
 40
3.200000000000001
 41
0.0
 71
     5
 72
     1
  1
20
 11
0.0000000000000001
 21
1.0
 31
0.0
 73
     1
 44
1.0
1001
ACAD
1000
MTEXTBEGIN
1070
    73
1070
     1
1070
    44
1040
1.0
1070
    74
1070
     0
1000
MTEXTEND
  0
POINT
  5
D18A
330
D05E
100
AcDbEntity
  8
Defpoints
 62
     0
100
AcDbPoint
 10
317.5265776739195
 20
75.67562717634834
 30
0.0
  0
POINT
  5
D18B
330
D05E
100
AcDbEntity
  8
Defpoints
 62
     0
100
AcDbPoint
 10
317.5265846739195
 20
55.67562757634835
 30
0.0
  0
POINT
  5
D18C
330
D05E
100
AcDbEntity
  8
Defpoints
 62
     0
100
AcDbPoint
 10
305.5265766739195
 20
55.67562757634835
 30
0.0
  0
ENDBLK
  5
D069
330
D05E
100
AcDbEntity
  8
0
100
AcDbBlockEnd
  0
BLOCK
  5
D076
330
D06A
100
AcDbEntity
  8
0
100
AcDbBlockBegin
  2
*D29
 70
     1
 10
0.0
 20
0.0
 30
0.0
  3
*D29
  1

  0
LINE
  5
D100
330
D06A
100
AcDbEntity
  8
AM_5
100
AcDbLine
 10
316.5265776739195
 20
75.67562717634834
 30
0.0
 11
304.5265766739195
 21
75.67562717634834
 31
0.0
  0
LINE
  5
D101
330
D06A
100
AcDbEntity
  8
AM_5
100
AcDbLine
 10
318.5265846739196
 20
78.67562717634836
 30
0.0
 11
304.5265766739195
 21
78.67562717634836
 31
0.0
  0
LINE
  5
D102
330
D06A
100
AcDbEntity
  8
AM_5
100
AcDbLine
 10
305.5265766739195
 20
74.67562717634834
 30
0.0
 11
305.5265766739195
 21
73.67562717634834
 31
0.0
  0
LINE
  5
D103
330
D06A
100
AcDbEntity
  8
AM_5
100
AcDbLine
 10
305.5265766739195
 20
79.67562717634836
 30
0.0
 11
305.5265766739195
 21
80.67562717634835
 31
0.0
  0
LINE
  5
D104
330
D06A
100
AcDbEntity
  8
AM_5
100
AcDbLine
 10
305.5265766739195
 20
75.67562717634834
 30
0.0
 11
305.5265766739195
 21
78.67562717634836
 31
0.0
  0
INSERT
  5
D105
330
D06A
100
AcDbEntity
  8
AM_5
100
AcDbBlockReference
  2
_Dot
 10
305.5265766739195
 20
75.67562717634834
 30
0.0
 50
90.0
  0
INSERT
  5
D106
330
D06A
100
AcDbEntity
  8
AM_5
100
AcDbBlockReference
  2
_Dot
 10
305.5265766739195
 20
78.67562717634836
 30
0.0
 50
270.0
  0
MTEXT
  5
D107
330
D06A
100
AcDbEntity
  8
AM_5
 62
     2
100
AcDbMText
 10
302.4265766739195
 20
77.17562717634841
 30
0.0
 40
3.200000000000001
 41
0.0
 71
     5
 72
     1
  1
3
 11
0.0000000000000001
 21
1.0
 31
0.0
 73
     1
 44
1.0
1001
ACAD
1000
MTEXTBEGIN
1070
    73
1070
     1
1070
    44
1040
1.0
1070
    74
1070
     0
1000
MTEXTEND
  0
POINT
  5
D108
330
D06A
100
AcDbEntity
  8
Defpoints
 62
     0
100
AcDbPoint
 10
317.5265776739195
 20
75.67562717634834
 30
0.0
  0
POINT
  5
D109
330
D06A
100
AcDbEntity
  8
Defpoints
 62
     0
100
AcDbPoint
 10
319.5265846739196
 20
78.67562717634836
 30
0.0
  0
POINT
  5
D10A
330
D06A
100
AcDbEntity
  8
Defpoints
 62
     0
100
AcDbPoint
 10
305.5265766739195
 20
78.67562717634836
 30
0.0
  0
ENDBLK
  5
D077
330
D06A
100
AcDbEntity
  8
0
100
AcDbBlockEnd
  0
BLOCK
  5
D082
330
D078
100
AcDbEntity
  8
0
100
AcDbBlockBegin
  2
*D30
 70
     1
 10
0.0
 20
0.0
 30
0.0
  3
*D30
  1

  0
LINE
  5
D11F
330
D078
100
AcDbEntity
  8
AM_5
100
AcDbLine
 10
318.5265846739196
 20
78.67562717634836
 30
0.0
 11
304.5265766739195
 21
78.67562717634836
 31
0.0
  0
LINE
  5
D120
330
D078
100
AcDbEntity
  8
AM_5
100
AcDbLine
 10
318.5265926739196
 20
199.6556291763483
 30
0.0
 11
304.5265766739195
 21
199.6556291763483
 31
0.0
  0
LINE
  5
D121
330
D078
100
AcDbEntity
  8
AM_5
100
AcDbLine
 10
305.5265766739195
 20
79.67562717634836
 30
0.0
 11
305.5265766739195
 21
198.6556291763483
 31
0.0
  0
INSERT
  5
D122
330
D078
100
AcDbEntity
  8
AM_5
100
AcDbBlockReference
  2
_Dot
 10
305.5265766739195
 20
78.67562717634836
 30
0.0
 50
270.0
  0
INSERT
  5
D123
330
D078
100
AcDbEntity
  8
AM_5
100
AcDbBlockReference
  2
_Dot
 10
305.5265766739195
 20
199.6556291763483
 30
0.0
 50
90.0
  0
MTEXT
  5
D124
330
D078
100
AcDbEntity
  8
AM_5
 62
     2
100
AcDbMText
 10
302.4265766739195
 20
139.1656281763484
 30
0.0
 40
3.200000000000001
 41
0.0
 71
     5
 72
     1
  1
DH
 11
0.0000000000000001
 21
1.0
 31
0.0
 73
     1
 44
1.0
1001
ACAD
1000
MTEXTBEGIN
1070
    73
1070
     1
1070
    44
1040
1.0
1070
    74
1070
     0
1000
MTEXTEND
  0
POINT
  5
D125
330
D078
100
AcDbEntity
  8
Defpoints
 62
     0
100
AcDbPoint
 10
319.5265846739196
 20
78.67562717634836
 30
0.0
  0
POINT
  5
D126
330
D078
100
AcDbEntity
  8
Defpoints
 62
     0
100
AcDbPoint
 10
319.5265926739196
 20
199.6556291763483
 30
0.0
  0
POINT
  5
D127
330
D078
100
AcDbEntity
  8
Defpoints
 62
     0
100
AcDbPoint
 10
305.5265766739195
 20
199.6556291763483
 30
0.0
  0
ENDBLK
  5
D083
330
D078
100
AcDbEntity
  8
0
100
AcDbBlockEnd
  0
BLOCK
  5
D090
330
D084
100
AcDbEntity
  8
0
100
AcDbBlockBegin
  2
*D31
 70
     1
 10
0.0
 20
0.0
 30
0.0
  3
*D31
  1

  0
LINE
  5
D128
330
D084
100
AcDbEntity
  8
AM_5
100
AcDbLine
 10
318.5265926739196
 20
199.6556291763483
 30
0.0
 11
304.5265766739196
 21
199.6556291763483
 31
0.0
  0
LINE
  5
D129
330
D084
100
AcDbEntity
  8
AM_5
100
AcDbLine
 10
316.5265996739196
 20
202.6556291763483
 30
0.0
 11
304.5265766739196
 21
202.6556291763483
 31
0.0
  0
LINE
  5
D12A
330
D084
100
AcDbEntity
  8
AM_5
100
AcDbLine
 10
305.5265766739196
 20
198.6556291763483
 30
0.0
 11
305.5265766739196
 21
197.6556291763483
 31
0.0
  0
LINE
  5
D12B
330
D084
100
AcDbEntity
  8
AM_5
100
AcDbLine
 10
305.5265766739196
 20
203.6556291763484
 30
0.0
 11
305.5265766739196
 21
204.6556291763483
 31
0.0
  0
LINE
  5
D12C
330
D084
100
AcDbEntity
  8
AM_5
100
AcDbLine
 10
305.5265766739196
 20
199.6556291763483
 30
0.0
 11
305.5265766739196
 21
202.6556291763483
 31
0.0
  0
INSERT
  5
D12D
330
D084
100
AcDbEntity
  8
AM_5
100
AcDbBlockReference
  2
_Dot
 10
305.5265766739196
 20
199.6556291763483
 30
0.0
 50
90.0
  0
INSERT
  5
D12E
330
D084
100
AcDbEntity
  8
AM_5
100
AcDbBlockReference
  2
_Dot
 10
305.5265766739196
 20
202.6556291763483
 30
0.0
 50
270.0
  0
MTEXT
  5
D12F
330
D084
100
AcDbEntity
  8
AM_5
 62
     2
100
AcDbMText
 10
302.4265766739195
 20
201.1556291763484
 30
0.0
 40
3.200000000000001
 41
0.0
 71
     5
 72
     1
  1
3
 11
0.0000000000000001
 21
1.0
 31
0.0
 73
     1
 44
1.0
1001
ACAD
1000
MTEXTBEGIN
1070
    73
1070
     1
1070
    44
1040
1.0
1070
    74
1070
     0
1000
MTEXTEND
  0
POINT
  5
D130
330
D084
100
AcDbEntity
  8
Defpoints
 62
     0
100
AcDbPoint
 10
319.5265926739196
 20
199.6556291763483
 30
0.0
  0
POINT
  5
D131
330
D084
100
AcDbEntity
  8
Defpoints
 62
     0
100
AcDbPoint
 10
317.5265996739196
 20
202.6556291763483
 30
0.0
  0
POINT
  5
D132
330
D084
100
AcDbEntity
  8
Defpoints
 62
     0
100
AcDbPoint
 10
305.5265766739196
 20
202.6556291763483
 30
0.0
  0
ENDBLK
  5
D091
330
D084
100
AcDbEntity
  8
0
100
AcDbBlockEnd
  0
BLOCK
  5
D09C
330
D092
100
AcDbEntity
  8
0
100
AcDbBlockBegin
  2
*D32
 70
     1
 10
0.0
 20
0.0
 30
0.0
  3
*D32
  1

  0
LINE
  5
D0C6
330
D092
100
AcDbEntity
  8
AM_5
100
AcDbLine
 10
316.5265996739196
 20
202.6556291763483
 30
0.0
 11
304.5265996739195
 21
202.6556291763483
 31
0.0
  0
LINE
  5
D0C7
330
D092
100
AcDbEntity
  8
AM_5
100
AcDbLine
 10
316.5265996739196
 20
222.6556291763484
 30
0.0
 11
304.5265996739195
 21
222.6556291763484
 31
0.0
  0
LINE
  5
D0C8
330
D092
100
AcDbEntity
  8
AM_5
100
AcDbLine
 10
305.5265996739195
 20
203.6556291763484
 30
0.0
 11
305.5265996739195
 21
221.6556291763484
 31
0.0
  0
INSERT
  5
D0C9
330
D092
100
AcDbEntity
  8
AM_5
100
AcDbBlockReference
  2
_Dot
 10
305.5265996739195
 20
202.6556291763483
 30
0.0
 50
270.0
  0
INSERT
  5
D0CA
330
D092
100
AcDbEntity
  8
AM_5
100
AcDbBlockReference
  2
_Dot
 10
305.5265996739195
 20
222.6556291763484
 30
0.0
 50
90.0
  0
MTEXT
  5
D0CB
330
D092
100
AcDbEntity
  8
AM_5
 62
     2
100
AcDbMText
 10
302.4265996739194
 20
212.6556291763484
 30
0.0
 40
3.200000000000001
 41
0.0
 71
     5
 72
     1
  1
20
 11
0.0000000000000001
 21
1.0
 31
0.0
 73
     1
 44
1.0
1001
ACAD
1000
MTEXTBEGIN
1070
    73
1070
     1
1070
    44
1040
1.0
1070
    74
1070
     0
1000
MTEXTEND
  0
POINT
  5
D0CC
330
D092
100
AcDbEntity
  8
Defpoints
 62
     0
100
AcDbPoint
 10
317.5265996739196
 20
202.6556291763483
 30
0.0
  0
POINT
  5
D0CD
330
D092
100
AcDbEntity
  8
Defpoints
 62
     0
100
AcDbPoint
 10
317.5265996739196
 20
222.6556291763484
 30
0.0
  0
POINT
  5
D0CE
330
D092
100
AcDbEntity
  8
Defpoints
 62
     0
100
AcDbPoint
 10
305.5265996739195
 20
222.6556291763484
 30
0.0
  0
ENDBLK
  5
D09D
330
D092
100
AcDbEntity
  8
0
100
AcDbBlockEnd
  0
ENDSEC
  0
SECTION
  2
ENTITIES
  0
TEXT
  5
B5B3
330
1F
100
AcDbEntity
  8
AM_6
 60
     1
100
AcDbText
 10
408.4999999999999
 20
8.5
 30
0.0
 40
2.5
  1
!GENTITLE-INSERT
100
AcDbText
  0
TEXT
  5
B5B4
330
1F
100
AcDbEntity
  8
AM_6
 60
     1
100
AcDbText
 10
0.0
 20
0.0
 30
0.0
 40
2.5
  1
!GENTITLE-LL
100
AcDbText
  0
TEXT
  5
B5B5
330
1F
100
AcDbEntity
  8
AM_6
 60
     1
100
AcDbText
 10
420.0
 20
297.0
 30
0.0
 40
2.5
  1
!GENTITLE-RU
100
AcDbText
  0
TEXT
  5
B5B6
330
1F
100
AcDbEntity
  8
AM_6
 60
     1
100
AcDbText
 10
420.0
 20
297.0
 30
0.0
 40
2.5
  1
!GENTITLE-MAX
100
AcDbText
  0
LINE
  5
B5B7
330
1F
100
AcDbEntity
  8
size
100
AcDbLine
 10
0.0
 20
0.0
 30
0.0
 11
420.0
 21
0.0
 31
0.0
1001
GENIUS_GENREC_14
1002
{
1000
PYDIR
1011
0.0000000000000178
1021
297.0
1031
0.0
1002
}
1002
{
1000
PXDIR
1011
420.0
1021
0.0
1031
0.0
1002
}
1002
{
1000
PORI
1011
0.0
1021
0.0
1031
0.0
1002
}
1002
{
1000
PINS
1011
210.0
1021
148.4999999999999
1031
0.0
1002
}
1002
{
1000
HVAL
1000
297
1002
}
1002
{
1000
H
1070
     2
1002
}
1002
{
1000
WVAL
1000
420
1002
}
1002
{
1000
W
1070
     2
1002
}
1002
{
1000
C
1070
     4
1002
}
1001
GENIUS_GENOBJ-N-REC_13
1002
{
1000
OWNER
1000
GEN
1002
}
1001
GENIUS_GENODEF_13
1002
{
1000
HIER
1070
     0
1002
}
1002
{
1000
MANEDIT
1070
     0
1002
}
1002
{
1000
NOSEL
1070
     0
1002
}
1002
{
1000
BEHIND
1070
     0
1002
}
1002
{
1000
OTHER
1070
     0
1002
}
1002
{
1000
REACTOR
1002
}
  0
LINE
  5
B5B8
330
1F
100
AcDbEntity
  8
size
100
AcDbLine
 10
420.0
 20
0.0
 30
0.0
 11
420.0
 21
297.0
 31
0.0
1001
GENIUS_GENREC_14
1002
{
1000
PYDIR
1011
0.0000000000000178
1021
297.0
1031
0.0
1002
}
1002
{
1000
PXDIR
1011
420.0
1021
0.0
1031
0.0
1002
}
1002
{
1000
PORI
1011
0.0
1021
0.0
1031
0.0
1002
}
1002
{
1000
PINS
1011
210.0
1021
148.4999999999999
1031
0.0
1002
}
1002
{
1000
HVAL
1000
297
1002
}
1002
{
1000
H
1070
     2
1002
}
1002
{
1000
WVAL
1000
420
1002
}
1002
{
1000
W
1070
     2
1002
}
1002
{
1000
C
1070
     4
1002
}
1001
GENIUS_GENOBJ-N-REC_13
1002
{
1000
OWNER
1000
GEN
1002
}
1001
GENIUS_GENODEF_13
1002
{
1000
HIER
1070
     0
1002
}
1002
{
1000
MANEDIT
1070
     0
1002
}
1002
{
1000
NOSEL
1070
     0
1002
}
1002
{
1000
BEHIND
1070
     0
1002
}
1002
{
1000
OTHER
1070
     0
1002
}
1002
{
1000
REACTOR
1002
}
  0
LINE
  5
B5B9
330
1F
100
AcDbEntity
  8
size
100
AcDbLine
 10
420.0
 20
297.0
 30
0.0
 11
0.0000000000000275
 21
297.0
 31
0.0
1001
GENIUS_GENREC_14
1002
{
1000
PYDIR
1011
0.0000000000000178
1021
297.0
1031
0.0
1002
}
1002
{
1000
PXDIR
1011
420.0
1021
0.0
1031
0.0
1002
}
1002
{
1000
PORI
1011
0.0
1021
0.0
1031
0.0
1002
}
1002
{
1000
PINS
1011
210.0
1021
148.4999999999999
1031
0.0
1002
}
1002
{
1000
HVAL
1000
297
1002
}
1002
{
1000
H
1070
     2
1002
}
1002
{
1000
WVAL
1000
420
1002
}
1002
{
1000
W
1070
     2
1002
}
1002
{
1000
C
1070
     4
1002
}
1001
GENIUS_GENOBJ-N-REC_13
1002
{
1000
OWNER
1000
GEN
1002
}
1001
GENIUS_GENODEF_13
1002
{
1000
HIER
1070
     0
1002
}
1002
{
1000
MANEDIT
1070
     0
1002
}
1002
{
1000
NOSEL
1070
     0
1002
}
1002
{
1000
BEHIND
1070
     0
1002
}
1002
{
1000
OTHER
1070
     0
1002
}
1002
{
1000
REACTOR
1002
}
  0
LINE
  5
B5BA
330
1F
100
AcDbEntity
  8
size
100
AcDbLine
 10
0.0000000000000275
 20
297.0
 30
0.0
 11
0.0
 21
0.0
 31
0.0
1001
GENIUS_GENREC_14
1002
{
1000
PYDIR
1011
0.0000000000000178
1021
297.0
1031
0.0
1002
}
1002
{
1000
PXDIR
1011
420.0
1021
0.0
1031
0.0
1002
}
1002
{
1000
PORI
1011
0.0
1021
0.0
1031
0.0
1002
}
1002
{
1000
PINS
1011
210.0
1021
148.4999999999999
1031
0.0
1002
}
1002
{
1000
HVAL
1000
297
1002
}
1002
{
1000
H
1070
     2
1002
}
1002
{
1000
WVAL
1000
420
1002
}
1002
{
1000
W
1070
     2
1002
}
1002
{
1000
C
1070
     4
1002
}
1001
GENIUS_GENOBJ-N-REC_13
1002
{
1000
OWNER
1000
GEN
1002
}
1001
GENIUS_GENODEF_13
1002
{
1000
HIER
1070
     0
1002
}
1002
{
1000
MANEDIT
1070
     0
1002
}
1002
{
1000
NOSEL
1070
     0
1002
}
1002
{
1000
BEHIND
1070
     0
1002
}
1002
{
1000
OTHER
1070
     0
1002
}
1002
{
1000
REACTOR
1002
}
  0
LINE
  5
B5BB
330
1F
100
AcDbEntity
  8
waku
100
AcDbLine
 10
408.4999999999999
 20
8.5
 30
0.0
 11
408.4999999999999
 21
288.5
 31
0.0
1001
GENIUS_GENREC_14
1002
{
1000
PYDIR
1011
0.0000000000000178
1021
297.0
1031
0.0
1002
}
1002
{
1000
PXDIR
1011
420.0
1021
0.0
1031
0.0
1002
}
1002
{
1000
PORI
1011
0.0
1021
0.0
1031
0.0
1002
}
1002
{
1000
PINS
1011
210.0
1021
148.4999999999999
1031
0.0
1002
}
1002
{
1000
HVAL
1000
297
1002
}
1002
{
1000
H
1070
     2
1002
}
1002
{
1000
WVAL
1000
420
1002
}
1002
{
1000
W
1070
     2
1002
}
1002
{
1000
C
1070
     4
1002
}
1001
GENIUS_GENOBJ-N-REC_13
1002
{
1000
OWNER
1000
GEN
1002
}
1001
GENIUS_GENODEF_13
1002
{
1000
HIER
1070
     0
1002
}
1002
{
1000
MANEDIT
1070
     0
1002
}
1002
{
1000
NOSEL
1070
     0
1002
}
1002
{
1000
BEHIND
1070
     0
1002
}
1002
{
1000
OTHER
1070
     0
1002
}
1002
{
1000
REACTOR
1002
}
  0
LINE
  5
B5BC
330
1F
100
AcDbEntity
  8
waku
100
AcDbLine
 10
11.50000000000002
 20
288.5
 30
0.0
 11
11.5
 21
8.5
 31
0.0
1001
GENIUS_GENREC_14
1002
{
1000
PYDIR
1011
0.0000000000000178
1021
297.0
1031
0.0
1002
}
1002
{
1000
PXDIR
1011
420.0
1021
0.0
1031
0.0
1002
}
1002
{
1000
PORI
1011
0.0
1021
0.0
1031
0.0
1002
}
1002
{
1000
PINS
1011
210.0
1021
148.4999999999999
1031
0.0
1002
}
1002
{
1000
HVAL
1000
297
1002
}
1002
{
1000
H
1070
     2
1002
}
1002
{
1000
WVAL
1000
420
1002
}
1002
{
1000
W
1070
     2
1002
}
1002
{
1000
C
1070
     4
1002
}
1001
GENIUS_GENOBJ-N-REC_13
1002
{
1000
OWNER
1000
GEN
1002
}
1001
GENIUS_GENODEF_13
1002
{
1000
HIER
1070
     0
1002
}
1002
{
1000
MANEDIT
1070
     0
1002
}
1002
{
1000
NOSEL
1070
     0
1002
}
1002
{
1000
BEHIND
1070
     0
1002
}
1002
{
1000
OTHER
1070
     0
1002
}
1002
{
1000
REACTOR
1002
}
  0
LINE
  5
B5BD
330
1F
100
AcDbEntity
  8
waku
100
AcDbLine
 10
408.4999999999999
 20
288.5
 30
0.0
 11
11.50000000000002
 21
288.5
 31
0.0
1001
GENIUS_GENREC_14
1002
{
1000
PYDIR
1011
0.0000000000000178
1021
297.0
1031
0.0
1002
}
1002
{
1000
PXDIR
1011
420.0
1021
0.0
1031
0.0
1002
}
1002
{
1000
PORI
1011
0.0
1021
0.0
1031
0.0
1002
}
1002
{
1000
PINS
1011
210.0
1021
148.4999999999999
1031
0.0
1002
}
1002
{
1000
HVAL
1000
297
1002
}
1002
{
1000
H
1070
     2
1002
}
1002
{
1000
WVAL
1000
420
1002
}
1002
{
1000
W
1070
     2
1002
}
1002
{
1000
C
1070
     4
1002
}
1001
GENIUS_GENOBJ-N-REC_13
1002
{
1000
OWNER
1000
GEN
1002
}
1001
GENIUS_GENODEF_13
1002
{
1000
HIER
1070
     0
1002
}
1002
{
1000
MANEDIT
1070
     0
1002
}
1002
{
1000
NOSEL
1070
     0
1002
}
1002
{
1000
BEHIND
1070
     0
1002
}
1002
{
1000
OTHER
1070
     0
1002
}
1002
{
1000
REACTOR
1002
}
  0
TEXT
  5
B5BE
330
1F
100
AcDbEntity
  8
AM_6
 60
     1
100
AcDbText
 10
0.0
 20
0.0
 30
0.0
 40
2.5
  1
!GENTITLE-LL
100
AcDbText
  0
TEXT
  5
B5BF
330
1F
100
AcDbEntity
  8
AM_6
 60
     1
100
AcDbText
 10
408.4999999999999
 20
288.5
 30
0.0
 40
2.5
  1
!GENTITLE-RU
100
AcDbText
  0
TEXT
  5
B5C0
330
1F
100
AcDbEntity
  8
AM_6
 60
     1
100
AcDbText
 10
420.0
 20
297.0
 30
0.0
 40
2.5
  1
!GENTITLE-MAX
100
AcDbText
  0
TEXT
  5
B5C1
330
1F
100
AcDbEntity
  8
AM_6
 60
     1
100
AcDbText
 10
408.4999999999999
 20
8.5
 30
0.0
 40
2.5
  1
!GENTITLE-INSERT
100
AcDbText
  0
LINE
  5
B5C2
330
1F
100
AcDbEntity
  8
waku
100
AcDbLine
 10
11.5
 20
8.5
 30
0.0
 11
408.4999999999999
 21
8.5
 31
0.0
  0
POINT
  5
BAC2
330
1F
100
AcDbEntity
  8
AM_0
100
AcDbPoint
 10
11.50000000000002
 20
288.5
 30
0.0
  0
LINE
  5
BAC3
330
1F
100
AcDbEntity
  8
AM_2
100
AcDbLine
 10
31.50000000000003
 20
288.5
 30
0.0
 11
31.50000000000003
 21
240.5000000000001
 31
0.0
  0
LINE
  5
BAC4
330
1F
100
AcDbEntity
  8
AM_2
100
AcDbLine
 10
11.50000000000002
 20
280.5
 30
0.0
 11
109.4999999999999
 21
280.5
 31
0.0
  0
LINE
  5
BAC5
330
1F
100
AcDbEntity
  8
AM_2
100
AcDbLine
 10
11.50000000000002
 20
272.5
 30
0.0
 11
109.4999999999999
 21
272.5
 31
0.0
  0
LINE
  5
BAC6
330
1F
100
AcDbEntity
  8
AM_2
100
AcDbLine
 10
11.50000000000002
 20
264.5
 30
0.0
 11
109.4999999999999
 21
264.5
 31
0.0
  0
LINE
  5
BAC7
330
1F
100
AcDbEntity
  8
AM_0
100
AcDbLine
 10
109.4999999999999
 20
288.5
 30
0.0
 11
109.4999999999999
 21
240.5000000000001
 31
0.0
  0
LINE
  5
BAC8
330
1F
100
AcDbEntity
  8
AM_2
100
AcDbLine
 10
11.50000000000002
 20
256.5000000000001
 30
0.0
 11
109.4999999999999
 21
256.5
 31
0.0
  0
MTEXT
  5
BAC9
330
1F
100
AcDbEntity
  8
0文字
100
AcDbMText
 10
21.50000000000003
 20
284.5
 30
0.0
 40
3.2
 41
20.0
 71
     5
 72
     5
  1
品名
 73
     1
 44
1.0
1001
ACAD
1000
MTEXTBEGIN
1070
    73
1070
     1
1070
    44
1040
1.0
1070
    74
1070
     0
1000
MTEXTEND
1000
ACAD_MTEXT_DEFINED_HEIGHT_BEGIN
1070
    46
1040
8.000000000000012
1000
ACAD_MTEXT_DEFINED_HEIGHT_END
  0
MTEXT
  5
BACA
330
1F
100
AcDbEntity
  8
0文字
100
AcDbMText
 10
31.50000000000003
 20
284.5
 30
0.0
 40
3.2
 41
90.0
 71
     4
 72
     5
  1
　点検口
 73
     1
 44
1.0
1001
ACAD
1000
MTEXTBEGIN
1070
    73
1070
     1
1070
    44
1040
1.0
1070
    74
1070
     0
1000
MTEXTEND
1000
ACAD_MTEXT_DEFINED_HEIGHT_BEGIN
1070
    46
1040
8.000000000000012
1000
ACAD_MTEXT_DEFINED_HEIGHT_END
  0
MTEXT
  5
BACB
330
1F
100
AcDbEntity
  8
0文字
100
AcDbMText
 10
21.50000000000003
 20
276.5
 30
0.0
 40
3.2
 41
20.0
 71
     5
 72
     5
  1
品番
 73
     1
 44
1.0
1001
ACAD
1000
MTEXTBEGIN
1070
    73
1070
     1
1070
    44
1040
1.0
1070
    74
1070
     0
1000
MTEXTEND
1000
ACAD_MTEXT_DEFINED_HEIGHT_BEGIN
1070
    46
1040
8.000000000000012
1000
ACAD_MTEXT_DEFINED_HEIGHT_END
  0
MTEXT
  5
BACC
330
1F
100
AcDbEntity
  8
0文字
100
AcDbMText
 10
31.50000000000003
 20
276.5
 30
0.0
 40
3.2
 41
90.0
 71
     4
 72
     5
  1
　C型
 73
     1
 44
1.0
1001
ACAD
1000
MTEXTBEGIN
1070
    73
1070
     1
1070
    44
1040
1.0
1070
    74
1070
     0
1000
MTEXTEND
1000
ACAD_MTEXT_DEFINED_HEIGHT_BEGIN
1070
    46
1040
8.000000000000012
1000
ACAD_MTEXT_DEFINED_HEIGHT_END
  0
MTEXT
  5
BACD
330
1F
100
AcDbEntity
  8
0文字
100
AcDbMText
 10
21.50000000000003
 20
268.5
 30
0.0
 40
3.2
 41
20.0
 71
     5
 72
     5
  1
材質
 73
     1
 44
1.0
1001
ACAD
1000
MTEXTBEGIN
1070
    73
1070
     1
1070
    44
1040
1.0
1070
    74
1070
     0
1000
MTEXTEND
1000
ACAD_MTEXT_DEFINED_HEIGHT_BEGIN
1070
    46
1040
8.000000000000012
1000
ACAD_MTEXT_DEFINED_HEIGHT_END
  0
MTEXT
  5
BACE
330
1F
100
AcDbEntity
  8
0文字
100
AcDbMText
 10
31.50000000000003
 20
268.5
 30
0.0
 40
3.2
 41
90.0
 71
     4
 72
     5
  1
　スチール
 73
     1
 44
1.0
1001
ACAD
1000
MTEXTBEGIN
1070
    73
1070
     1
1070
    44
1040
1.0
1070
    74
1070
     0
1000
MTEXTEND
1000
ACAD_MTEXT_DEFINED_HEIGHT_BEGIN
1070
    46
1040
8.000000000000012
1000
ACAD_MTEXT_DEFINED_HEIGHT_END
  0
MTEXT
  5
BACF
330
1F
100
AcDbEntity
  8
0文字
100
AcDbMText
 10
21.50000000000002
 20
260.4999999999999
 30
0.0
 40
3.2
 41
20.0
 71
     5
 72
     5
  1
仕上
 73
     1
 44
1.0
1001
ACAD
1000
MTEXTBEGIN
1070
    73
1070
     1
1070
    44
1040
1.0
1070
    74
1070
     0
1000
MTEXTEND
1000
ACAD_MTEXT_DEFINED_HEIGHT_BEGIN
1070
    46
1040
8.000000000000012
1000
ACAD_MTEXT_DEFINED_HEIGHT_END
  0
MTEXT
  5
BAD0
330
1F
100
AcDbEntity
  8
0文字
100
AcDbMText
 10
31.50000000000002
 20
260.4999999999999
 30
0.0
 40
3.2
 41
90.0
 71
     4
 72
     5
  1
　防錆塗装
 73
     1
 44
1.0
1001
ACAD
1000
MTEXTBEGIN
1070
    73
1070
     1
1070
    44
1040
1.0
1070
    74
1070
     0
1000
MTEXTEND
1000
ACAD_MTEXT_DEFINED_HEIGHT_BEGIN
1070
    46
1040
8.000000000000012
1000
ACAD_MTEXT_DEFINED_HEIGHT_END
  0
LINE
  5
BAD1
330
1F
100
AcDbEntity
  8
AM_0
100
AcDbLine
 10
11.50000000000002
 20
240.5000000000001
 30
0.0
 11
109.4999999999999
 21
240.5000000000001
 31
0.0
  0
MTEXT
  5
BAD5
330
1F
100
AcDbEntity
  8
0文字
100
AcDbMText
 10
31.5
 20
244.5
 30
0.0
 40
3.2
 41
90.0
 71
     4
 72
     5
  1
　W×Hをご指示下さい
 73
     1
 44
1.0
1001
ACAD
1000
MTEXTBEGIN
1070
    73
1070
     1
1070
    44
1040
1.0
1070
    74
1070
     0
1000
MTEXTEND
1000
ACAD_MTEXT_DEFINED_HEIGHT_BEGIN
1070
    46
1040
8.000000000000012
1000
ACAD_MTEXT_DEFINED_HEIGHT_END
  0
LINE
  5
BAD7
330
1F
100
AcDbEntity
  8
AM_0
100
AcDbLine
 10
31.50000000000003
 20
240.5000000000002
 30
0.0
 11
109.4999999999999
 21
240.5000000000001
 31
0.0
  0
LINE
  5
BC6C
330
1F
100
AcDbEntity
  8
AM_0
100
AcDbLine
 10
146.8863915837943
 20
231.13086628209
 30
0.0
 11
192.6463915837943
 21
231.13086628209
 31
0.0
  0
LINE
  5
BC6F
330
1F
100
AcDbEntity
  8
AM_0
100
AcDbLine
 10
146.8863915837943
 20
171.07085628209
 30
0.0
 11
192.6463915837943
 21
171.07085628209
 31
0.0
  0
LINE
  5
BC70
330
1F
100
AcDbEntity
  8
AM_0
100
AcDbLine
 10
146.8863915837943
 20
231.13086628209
 30
0.0
 11
146.8863915837943
 21
171.07085628209
 31
0.0
  0
LINE
  5
BC72
330
1F
100
AcDbEntity
  8
AM_0
100
AcDbLine
 10
192.6463915837943
 20
231.13086628209
 30
0.0
 11
192.6463915837943
 21
171.07085628209
 31
0.0
  0
LINE
  5
BC74
330
1F
100
AcDbEntity
  8
AM_0
100
AcDbLine
 10
149.7463915837943
 20
228.27085628209
 30
0.0
 11
189.7863915837943
 21
228.27085628209
 31
0.0
  0
LINE
  5
BC75
330
1F
100
AcDbEntity
  8
AM_0
100
AcDbLine
 10
189.7863915837943
 20
228.27085628209
 30
0.0
 11
189.7863915837943
 21
173.93085628209
 31
0.0
  0
LINE
  5
BC76
330
1F
100
AcDbEntity
  8
AM_0
100
AcDbLine
 10
149.7463915837943
 20
173.93085628209
 30
0.0
 11
189.7863915837943
 21
173.93085628209
 31
0.0
  0
LINE
  5
BC77
330
1F
100
AcDbEntity
  8
AM_0
100
AcDbLine
 10
149.7463915837943
 20
228.27085628209
 30
0.0
 11
149.7463915837943
 21
173.93085628209
 31
0.0
  0
LINE
  5
BC78
330
1F
100
AcDbEntity
  8
AM_0
100
AcDbLine
 10
151.7483915837942
 20
201.10085628209
 30
0.0
 11
158.0404015837943
 21
201.10085628209
 31
0.0
  0
LINE
  5
BC79
330
1F
100
AcDbEntity
  8
AM_0
100
AcDbLine
 10
154.8943915837943
 20
204.24686628209
 30
0.0
 11
154.8943915837943
 21
197.95485628209
 31
0.0
  0
TEXT
  5
BCD1
330
1F
100
AcDbEntity
  8
AM_6
100
AcDbText
 10
115.7701615837943
 20
142.65400628209
 30
0.0
 40
3.2
  1
　ハンドルは別途御指示下さい。
 41
0.8430671699999999
100
AcDbText
  0
TEXT
  5
BCD2
330
1F
100
AcDbEntity
  8
AM_6
100
AcDbText
 10
115.7701615837943
 20
147.15400628209
 30
0.0
 40
3.2
  1
※Ａはハンドル取付位置を示します。
 41
0.84273944
100
AcDbText
  0
DIMENSION
  5
BEE6
330
1F
100
AcDbEntity
  8
AM_5
100
AcDbDimension
  2
*D5
 10
187.7863915837943
 20
161.9308562820899
 30
0.0
 11
169.7663915837943
 21
165.0308562820899
 31
0.0
 70
    32
  1
W
 71
     5
 42
36.03999999999996
  3
SYS$0
100
AcDbAlignedDimension
 13
151.7463915837943
 23
173.93085628209
 33
0.0
 14
187.7863915837943
 24
173.93085628209
 34
0.0
 50
0.0000000000001132
100
AcDbRotatedDimension
  0
DIMENSION
  5
BF0D
330
1F
100
AcDbEntity
  8
AM_5
100
AcDbDimension
  2
*D6
 10
137.7463915837943
 20
201.10085628209
 30
0.0
 11
134.6463915837943
 21
188.51585628209
 31
0.0
 70
    32
  1
A
 71
     5
 42
25.16999999999999
  3
SYS$0
100
AcDbAlignedDimension
 13
149.7463915837943
 23
175.93085628209
 33
0.0
 14
151.7483915837942
 24
201.10085628209
 34
0.0
 50
90.0
100
AcDbRotatedDimension
  0
DIMENSION
  5
BF2C
330
1F
100
AcDbEntity
  8
AM_5
100
AcDbDimension
  2
*D7
 10
127.7463915837943
 20
226.27085628209
 30
0.0
 11
124.6463915837943
 21
201.10085628209
 31
0.0
 70
    32
  1
H
 71
     5
 42
50.34
  3
SYS$0
100
AcDbAlignedDimension
 13
149.7463915837943
 23
175.93085628209
 33
0.0
 14
149.7463915837943
 24
226.27085628209
 34
0.0
 50
90.0
100
AcDbRotatedDimension
  0
LINE
  5
CC5D
330
1F
100
AcDbEntity
  8
AM_7
 48
0.5
100
AcDbLine
 10
87.75657827231471
 20
88.07562437313885
 30
0.0
 11
101.3365782723147
 21
88.07562437313885
 31
0.0
1001
GENIUS_GENODEF_13
1002
{
1000
HIER
1070
     0
1002
}
1002
{
1000
MANEDIT
1070
     0
1002
}
1002
{
1000
NOSEL
1070
     0
1002
}
1002
{
1000
BEHIND
1070
     0
1002
}
1002
{
1000
OTHER
1070
     0
1002
}
1002
{
1000
REACTOR
1002
}
1001
GENIUS_GENOBJ-N-CEN_13
1002
{
1000
OWNER
1000
GEN
1002
}
1001
GENIUS_GENCEN_19
1002
{
1040
3.0
1002
}
  0
LINE
  5
CC5E
330
1F
100
AcDbEntity
  8
AM_7
 48
0.5
100
AcDbLine
 10
94.54657827231471
 20
81.28562437313885
 30
0.0
 11
94.54657827231471
 21
94.86562437313885
 31
0.0
1001
GENIUS_GENOBJ-N-CEN_13
1002
{
1000
OWNER
1000
GEN
1002
}
1001
GENIUS_GENODEF_13
1002
{
1000
HIER
1070
     0
1002
}
1002
{
1000
MANEDIT
1070
     0
1002
}
1002
{
1000
NOSEL
1070
     0
1002
}
1002
{
1000
BEHIND
1070
     0
1002
}
1002
{
1000
OTHER
1070
     0
1002
}
1002
{
1000
REACTOR
1002
}
1001
GENIUS_GENCEN_19
1002
{
1040
3.0
1002
}
  0
DIMENSION
  5
CCEE
330
1F
100
AcDbEntity
  8
AM_5
100
AcDbDimension
  2
*D8
 10
85.54657332351826
 20
120.7996101863483
 30
0.0
 11
83.54657472064287
 21
120.7996101863483
 31
0.0
 70
   160
 71
     5
 42
3.999997205750759
  3
SYS$0
100
AcDbAlignedDimension
 13
81.5465761177675
 23
97.48292421227599
 33
0.0
 14
85.54657332351826
 24
95.47560919682974
 34
0.0
100
AcDbRotatedDimension
  0
DIMENSION
  5
CCEF
330
1F
100
AcDbEntity
  8
AM_5
100
AcDbDimension
  2
*D9
 10
61.54658167391962
 20
120.7996101863483
 30
0.0
 11
71.54657667391957
 21
123.8996101863482
 31
0.0
 70
    32
 71
     5
 42
19.99998999999989
  3
SYS$0
100
AcDbAlignedDimension
 13
81.54657167391951
 23
97.48383973013645
 33
0.0
 14
61.54658167391962
 24
97.47560917634835
 34
0.0
100
AcDbRotatedDimension
  0
DIMENSION
  5
CCF0
330
1F
100
AcDbEntity
  8
AM_5
100
AcDbDimension
  2
*D10
 10
205.5265848253462
 20
120.7996101863483
 30
0.0
 11
145.5365790744322
 21
123.8996101863482
 31
0.0
 70
    32
  1
DW
 71
     5
 42
119.9800115018279
  3
SYS$0
100
AcDbAlignedDimension
 13
85.54657332351826
 23
95.47560919682974
 33
0.0
 14
205.5265848253462
 24
95.47560919682974
 34
0.0
100
AcDbRotatedDimension
  0
DIMENSION
  5
CCF1
330
1F
100
AcDbEntity
  8
AM_5
100
AcDbDimension
  2
*D11
 10
228.5265846739194
 20
120.799610186348
 30
0.0
 11
218.5265841739194
 21
123.899610186348
 31
0.0
 70
    32
 71
     5
 42
20.00000099999997
  3
SYS$0
100
AcDbAlignedDimension
 13
208.5265836739194
 23
97.47560917634835
 33
0.0
 14
228.5265846739194
 24
97.47560917634835
 34
0.0
100
AcDbRotatedDimension
  0
DIMENSION
  5
CCF2
330
1F
100
AcDbEntity
  8
AM_5
100
AcDbDimension
  2
*D12
 10
205.5265848253462
 20
120.799610186348
 30
0.0
 11
207.0265842496329
 21
120.799610186348
 31
0.0
 70
   160
 71
     5
 42
2.999998848573483
  3
SYS$0
100
AcDbAlignedDimension
 13
208.5265836739196
 23
97.47560917634833
 33
0.0
 14
205.5265848253462
 24
95.47560919682974
 34
0.0
100
AcDbRotatedDimension
  0
DIMENSION
  5
CCF3
330
1F
100
AcDbEntity
  8
AM_5
100
AcDbDimension
  2
*D13
 10
166.8288940924115
 20
99.07560717634835
 30
0.0
 11
163.7288940924115
 21
103.322273843015
 31
0.0
 70
    32
 71
     5
 42
2.0
  3
SYS$0
100
AcDbAlignedDimension
 13
175.4465781739195
 23
97.07560717634834
 33
0.0
 14
175.4465781739195
 24
99.07560717634835
 34
0.0
 50
90.0
100
AcDbRotatedDimension
1001
ACAD
1000
DSTYLE
1002
{
1070
    75
1070
     1
1070
    76
1070
     1
1002
}
  0
DIMENSION
  5
CCF4
330
1F
100
AcDbEntity
  8
AM_5
100
AcDbDimension
  2
*D14
 10
240.5265846739194
 20
99.07560717634835
 30
0.0
 11
237.4265846739194
 21
91.57560917634839
 31
0.0
 70
    32
 71
     5
 42
14.99999599999998
  3
SYS$0
100
AcDbAlignedDimension
 13
228.5265846739196
 23
84.07561117634836
 33
0.0
 14
226.9265786739195
 24
99.07560717634835
 34
0.0
 50
90.0
100
AcDbRotatedDimension
  0
DIMENSION
  5
CCF5
330
1F
100
AcDbEntity
  8
AM_5
100
AcDbDimension
  2
*D15
 10
250.5265846739193
 20
49.07561942434242
 30
0.0
 11
247.4265846739194
 21
74.07561430034542
 31
0.0
 70
    32
 71
     5
 42
49.99998975200592
  3
SYS$0
100
AcDbAlignedDimension
 13
226.9265786739195
 23
99.07560917634834
 33
0.0
 14
218.5266016306339
 24
49.07561942434242
 34
0.0
 50
90.0
100
AcDbRotatedDimension
  0
DIMENSION
  5
CCF6
330
1F
100
AcDbEntity
  8
AM_5
100
AcDbDimension
  2
*D16
 10
218.5265846739195
 20
99.07560717634835
 30
0.0
 11
215.4265846739195
 21
104.762273843015
 31
0.0
 70
    32
 71
     5
 42
1.599997999999999
  3
SYS$0
100
AcDbAlignedDimension
 13
218.5265846739195
 23
97.47560917634835
 33
0.0
 14
218.5265846739195
 24
99.07560717634835
 34
0.0
 50
90.0
100
AcDbRotatedDimension
  0
DIMENSION
  5
CCF7
330
1F
100
AcDbEntity
  8
AM_5
100
AcDbDimension
  2
*D17
 10
186.2052367318185
 20
97.07560717634834
 30
0.0
 11
186.2052367318184
 21
104.3503714303317
 31
0.0
 70
   160
 71
     5
 42
1.599997999999999
  3
SYS$0
100
AcDbAlignedDimension
 13
175.4465781739195
 23
95.47560917634834
 33
0.0
 14
175.4465781739195
 24
97.07560717634834
 34
0.0
 50
90.0
100
AcDbRotatedDimension
1001
ACAD
1000
DSTYLE
1002
{
1070
    75
1070
     1
1070
    76
1070
     1
1002
}
  0
DIMENSION
  5
CE29
330
1F
100
AcDbEntity
  8
AM_5
100
AcDbDimension
  2
*D18
 10
166.8288940924115
 20
77.07561282594716
 30
0.0
 11
163.7288940924115
 21
87.07561200114779
 31
0.0
 70
    32
 71
     5
 42
19.9999983504012
  3
SYS$0
100
AcDbAlignedDimension
 13
174.4465801739195
 23
97.07561117634837
 33
0.0
 14
174.4465581472092
 24
77.07561282594716
 34
0.0
 50
90.00000000000003
100
AcDbRotatedDimension
1001
ACAD
1000
DSTYLE
1002
{
1070
    75
1070
     1
1070
    76
1070
     1
1002
}
  0
DIMENSION
  5
CE78
330
1F
100
AcDbEntity
  8
AM_5
100
AcDbDimension
  2
*D19
 10
166.8288940924115
 20
74.07562767233651
 30
0.0
 11
166.8288940924115
 21
69.82896100566986
 31
0.0
 70
   160
 71
     5
 42
2.999985153610651
  3
SYS$0
100
AcDbAlignedDimension
 13
174.4465581472092
 23
77.07561282594716
 33
0.0
 14
166.8288940924115
 24
74.07562767233651
 34
0.0
 50
90.0
100
AcDbRotatedDimension
1001
ACAD
1000
DSTYLE
1002
{
1070
    75
1070
     1
1070
    76
1070
     1
1002
}
  0
DIMENSION
  5
CF23
330
1F
100
AcDbEntity
  8
AM_5
100
AcDbDimension
  2
*D20
 10
193.5266279855525
 20
37.07561942434242
 30
0.0
 11
145.0366031482649
 21
40.17561942434242
 31
0.0
 70
    32
  1
W
 71
     5
 42
96.98004967457535
  3
SYS$0
100
AcDbAlignedDimension
 13
96.5465783109772
 23
52.07562932193534
 33
0.0
 14
193.5266279855525
 24
52.07562932193534
 34
0.0
 50
0.0000000000001132
100
AcDbRotatedDimension
  0
DIMENSION
  5
CF42
330
1F
100
AcDbEntity
  8
AM_5
100
AcDbDimension
  2
*D21
 10
218.5266016306339
 20
37.07561942434247
 30
0.0
 11
206.026609878628
 21
40.17561942434247
 31
0.0
 70
    32
 71
     5
 42
24.99998350401166
  3
SYS$0
100
AcDbAlignedDimension
 13
193.5266181266222
 23
52.07562932193534
 33
0.0
 14
218.5266016306339
 24
49.07561942434242
 34
0.0
 50
0.0000000000001132
100
AcDbRotatedDimension
  0
DIMENSION
  5
CF58
330
1F
100
AcDbEntity
  8
AM_5
100
AcDbDimension
  2
*D22
 10
228.5265846739196
 20
37.07561942434244
 30
0.0
 11
223.5265931522767
 21
40.17561942434244
 31
0.0
 70
    32
 71
     5
 42
9.999983043285737
  3
SYS$0
100
AcDbAlignedDimension
 13
218.5266016306339
 23
49.07561942434242
 33
0.0
 14
228.5265846739196
 24
84.07561117634836
 34
0.0
 50
0.0000000000001132
100
AcDbRotatedDimension
  0
DIMENSION
  5
CF6E
330
1F
100
AcDbEntity
  8
AM_5
100
AcDbDimension
  2
*D23
 10
96.5465783109772
 20
37.07561942434251
 30
0.0
 11
84.0465667444543
 21
40.17561942434251
 31
0.0
 70
    32
 71
     5
 42
25.0000231330458
  3
SYS$0
100
AcDbAlignedDimension
 13
71.54655517793139
 23
49.07561157634836
 33
0.0
 14
96.5465783109772
 24
52.07562932193534
 34
0.0
 50
0.0000000000001132
100
AcDbRotatedDimension
  0
DIMENSION
  5
CF84
330
1F
100
AcDbEntity
  8
AM_5
100
AcDbDimension
  2
*D24
 10
61.54657167391952
 20
37.0756194243424
 30
0.0
 11
66.54656342592545
 21
40.1756194243424
 31
0.0
 70
    32
 71
     5
 42
9.999983504011879
  3
SYS$0
100
AcDbAlignedDimension
 13
71.54655517793139
 23
49.07561157634836
 33
0.0
 14
61.54657167391952
 24
84.07561117634836
 34
0.0
 50
0.0000000000001132
100
AcDbRotatedDimension
  0
DIMENSION
  5
CF9A
330
1F
100
AcDbEntity
  8
AM_5
100
AcDbDimension
  2
*D25
 10
377.9265704259255
 20
90.6756243134061
 30
0.0
 11
374.8265704259255
 21
83.1756044988891
 31
0.0
 70
    32
 71
     5
 42
15.0000396290341
  3
SYS$0
100
AcDbAlignedDimension
 13
351.4265720755239
 23
75.675584684372
 33
0.0
 14
362.92653578435
 24
90.6756243134061
 34
0.0
 50
90.0
100
AcDbRotatedDimension
  0
DIMENSION
  5
CFC6
330
1F
100
AcDbEntity
  8
AM_5
100
AcDbDimension
  2
*D26
 10
377.9265704259255
 20
202.6556291763483
 30
0.0
 11
374.8265704259255
 21
195.1556466526997
 31
0.0
 70
    32
 71
     5
 42
14.99996504729736
  3
SYS$0
100
AcDbAlignedDimension
 13
362.92653578435
 23
187.655664129051
 33
0.0
 14
351.4393899794718
 24
202.6556291763483
 34
0.0
 50
90.00000000000003
100
AcDbRotatedDimension
  0
DIMENSION
  5
CFED
330
1F
100
AcDbEntity
  8
AM_5
100
AcDbDimension
  2
*D27
 10
377.9265704259257
 20
187.655664129051
 30
0.0
 11
374.8265704259256
 21
139.1656442212286
 31
0.0
 70
    32
  1
H
 71
     5
 42
96.9800398156449
  3
SYS$0
100
AcDbAlignedDimension
 13
362.92653578435
 23
90.6756243134061
 33
0.0
 14
362.92653578435
 24
187.655664129051
 34
0.0
 50
90.00000000000003
100
AcDbRotatedDimension
  0
DIMENSION
  5
D059
330
1F
100
AcDbEntity
  8
AM_5
100
AcDbDimension
  2
*D28
 10
305.5265766739195
 20
55.67562757634835
 30
0.0
 11
302.4265766739195
 21
65.6756273763484
 31
0.0
 70
    32
 71
     5
 42
19.99999959999999
  3
SYS$0
100
AcDbAlignedDimension
 13
317.5265776739195
 23
75.67562717634834
 33
0.0
 14
317.5265846739195
 24
55.67562757634835
 34
0.0
 50
90.0
100
AcDbRotatedDimension
  0
DIMENSION
  5
D05A
330
1F
100
AcDbEntity
  8
AM_5
100
AcDbDimension
  2
*D29
 10
305.5265766739195
 20
78.67562717634836
 30
0.0
 11
305.5265766739195
 21
77.17562717634841
 31
0.0
 70
   160
 71
     5
 42
3.000000000000014
  3
SYS$0
100
AcDbAlignedDimension
 13
317.5265776739195
 23
75.67562717634834
 33
0.0
 14
319.5265846739196
 24
78.67562717634836
 34
0.0
 50
90.0
100
AcDbRotatedDimension
  0
DIMENSION
  5
D05B
330
1F
100
AcDbEntity
  8
AM_5
100
AcDbDimension
  2
*D30
 10
305.5265766739195
 20
199.6556291763483
 30
0.0
 11
302.4265766739195
 21
139.1656281763484
 31
0.0
 70
    32
  1
DH
 71
     5
 42
120.980002
  3
SYS$0
100
AcDbAlignedDimension
 13
319.5265846739196
 23
78.67562717634836
 33
0.0
 14
319.5265926739196
 24
199.6556291763483
 34
0.0
 50
90.0
100
AcDbRotatedDimension
  0
DIMENSION
  5
D05C
330
1F
100
AcDbEntity
  8
AM_5
100
AcDbDimension
  2
*D31
 10
305.5265766739196
 20
202.6556291763483
 30
0.0
 11
305.5265766739195
 21
201.1556291763484
 31
0.0
 70
   160
 71
     5
 42
3.0
  3
SYS$0
100
AcDbAlignedDimension
 13
319.5265926739196
 23
199.6556291763483
 33
0.0
 14
317.5265996739196
 24
202.6556291763483
 34
0.0
 50
90.0
100
AcDbRotatedDimension
  0
DIMENSION
  5
D05D
330
1F
100
AcDbEntity
  8
AM_5
100
AcDbDimension
  2
*D32
 10
305.5265996739195
 20
222.6556291763484
 30
0.0
 11
302.4265996739194
 21
212.6556291763484
 31
0.0
 70
    32
 71
     5
 42
20.00000000000003
  3
SYS$0
100
AcDbAlignedDimension
 13
317.5265996739196
 23
202.6556291763483
 33
0.0
 14
317.5265996739196
 24
222.6556291763484
 34
0.0
 50
90.0
100
AcDbRotatedDimension
  0
SPLINE
  5
D197
330
1F
100
AcDbEntity
  8
AM_2
100
AcDbSpline
210
0.0
220
0.0
230
1.0
 70
     8
 71
     3
 72
    10
 73
     6
 74
     4
 42
0.0000000001
 43
0.0000000001
 44
0.0000000001
 40
0.0
 40
0.0
 40
0.0
 40
0.0
 40
9.555467916821276
 40
28.63017683910337
 40
37.66958909205282
 40
37.66958909205282
 40
37.66958909205282
 40
37.66958909205282
 10
348.4798761385198
 20
139.8950380589771
 30
0.0
 10
345.316924974151
 20
140.5393719864167
 30
0.0
 10
335.8400629347823
 20
142.4699309550209
 30
0.0
 10
323.4324988339026
 20
135.9896188776694
 30
0.0
 10
314.3190000652952
 20
138.9408640031381
 30
0.0
 10
311.3887760713554
 20
139.889765133013
 30
0.0
 11
348.4798761385198
 21
139.8950380589771
 31
0.0
 11
338.9962234165064
 21
141.0643533105874
 31
0.0
 11
320.1946133842365
 21
137.8481473681399
 31
0.0
 11
311.3887760713554
 21
139.889765133013
 31
0.0
  0
XLINE
  5
D19C
330
1F
100
AcDbEntity
  8
AM_CL
100
AcDbXline
 10
321.6791565517209
 20
135.8700094634057
 30
0.0
 11
1.0
 21
0.0
 31
0.0
  0
SPLINE
  5
D19F
330
1F
100
AcDbEntity
  8
AM_2
100
AcDbSpline
210
0.0
220
0.0
230
1.0
 70
     8
 71
     3
 72
    34
 73
    30
 74
     0
 42
0.0000000001
 43
0.0000000001
 40
0.0
 40
0.0
 40
0.0
 40
0.0
 40
1.465711579679695
 40
1.465711579679695
 40
4.397134739039087
 40
4.397134739039087
 40
7.42020996398506
 40
7.42020996398506
 40
9.260933158878671
 40
9.260933158878671
 40
10.78705719106249
 40
10.78705719106249
 40
12.31318122324631
 40
12.31318122324631
 40
15.36542928761394
 40
15.36542928761394
 40
20.91373474733984
 40
20.91373474733984
 40
26.46204020706574
 40
26.46204020706574
 40
28.34672615754188
 40
28.34672615754188
 40
29.99535582753819
 40
29.99535582753819
 40
31.64398549753451
 40
31.64398549753451
 40
34.94124483752715
 40
34.94124483752715
 40
37.66958909205282
 40
37.66958909205282
 40
37.66958909205282
 40
37.66958909205282
 10
348.0806498858091
 20
137.9352884833561
 30
0.0
 10
347.5954853509132
 20
138.0341227536241
 30
0.0
 10
347.1138731121593
 20
138.1322232138602
 30
0.0
 10
345.6798570947546
 20
138.4162152744242
 30
0.0
 10
344.7382389248637
 20
138.5916682751542
 30
0.0
 10
342.8570479884312
 20
138.8788096860395
 30
0.0
 10
341.9186159877328
 20
138.9882851886923
 30
0.0
 10
340.4369282780673
 20
139.0744809071863
 30
0.0
 10
339.8826544743706
 20
139.0864413303429
 30
0.0
 10
338.8799512283648
 20
139.0632637767326
 30
0.0
 10
338.4266147725861
 20
139.0351476362149
 30
0.0
 10
337.5058400688868
 20
138.946938391939
 30
0.0
 10
337.0407731950952
 20
138.8870655998221
 30
0.0
 10
335.6318976543753
 20
138.6678669211073
 30
0.0
 10
334.6744474454379
 20
138.4687528678075
 30
0.0
 10
331.9310085038646
 20
137.8241182410864
 30
0.0
 10
330.1093505625158
 20
137.3090866598535
 30
0.0
 10
326.364854375705
 20
136.4048157320347
 30
0.0
 10
324.4398581102577
 20
136.0143499660713
 30
0.0
 10
321.7780111637909
 20
135.8324004658992
 30
0.0
 10
321.096055483401
 20
135.8160312315699
 30
0.0
 10
319.8060242764154
 20
135.8571965971754
 30
0.0
 10
319.2041424276717
 20
135.9069811560248
 30
0.0
 10
318.0206399837799
 20
136.0553152110179
 30
0.0
 10
317.4360838505647
 20
136.1536860589532
 30
0.0
 10
315.703061276701
 20
136.5025166098885
 30
0.0
 10
314.5751283423953
 20
136.8063073916956
 30
0.0
 10
312.5557689355363
 20
137.4094124318115
 30
0.0
 10
311.6570363701336
 20
137.7006403790808
 30
0.0
 10
310.7726138463428
 20
137.9870449453691
 30
0.0
  0
SPLINE
  5
D1A2
330
1F
100
AcDbEntity
  8
AM_2
100
AcDbSpline
210
0.0
220
0.0
230
1.0
 70
     8
 71
     3
 72
    10
 73
     6
 74
     0
 42
0.0000000001
 43
0.0000000001
 40
0.0
 40
0.0
 40
0.0
 40
0.0
 40
16.21267573675022
 40
33.92517391849315
 40
42.90411216687167
 40
42.90411216687167
 40
42.90411216687167
 40
42.90411216687167
 10
146.4544416418806
 20
106.6349285370007
 30
0.0
 10
144.2306286492111
 20
101.4090117297571
 30
0.0
 10
139.5772793956077
 20
90.47373247986479
 30
0.0
 10
148.1975453766912
 20
76.53118493949486
 30
0.0
 10
145.4381475743769
 20
67.81768906887184
 30
0.0
 10
144.4832308991605
 20
64.88926687966238
 30
0.0
  0
SPLINE
  5
D1A3
330
1F
100
AcDbEntity
  8
AM_2
100
AcDbSpline
210
0.0
220
0.0
230
1.0
 70
     8
 71
     3
 72
    34
 73
    30
 74
     0
 42
0.0000000001
 43
0.0000000001
 40
0.0
 40
0.0
 40
0.0
 40
0.0
 40
1.599726757168958
 40
1.599726757168958
 40
4.799180271506876
 40
4.799180271506876
 40
10.5374345700384
 40
10.5374345700384
 40
14.60247433073853
 40
14.60247433073853
 40
16.26969645208612
 40
16.26969645208612
 40
17.93691857343371
 40
17.93691857343371
 40
21.2713628161289
 40
21.2713628161289
 40
26.20238528439608
 40
26.20238528439608
 40
31.13340775266327
 40
31.13340775266327
 40
33.30125395333017
 40
33.30125395333017
 40
34.87835647243547
 40
34.87835647243547
 40
36.45545899154078
 40
36.45545899154078
 40
39.60966402975138
 40
39.60966402975138
 40
42.2750199005983
 40
42.2750199005983
 40
42.2750199005983
 40
42.2750199005983
 10
148.2947485523862
 20
105.8518126610631
 30
0.0
 10
148.075321900976
 20
105.3361643447068
 30
0.0
 10
147.8569808955245
 20
104.8230524931233
 30
0.0
 10
147.2127019872018
 20
103.2913866479307
 30
0.0
 10
146.7975685183751
 20
102.2804296717417
 30
0.0
 10
145.7321850496478
 20
99.48769275279055
 30
0.0
 10
145.1582305226273
 20
97.73097551481294
 30
0.0
 10
144.5350975662235
 20
94.81149451750857
 30
0.0
 10
144.3811191566469
 20
93.6257051161629
 30
0.0
 10
144.3501749606878
 20
91.98421526440494
 30
0.0
 10
144.3632772217543
 20
91.51095016823067
 30
0.0
 10
144.4378031263207
 20
90.56654014010984
 30
0.0
 10
144.4998015768741
 20
90.08633545835738
 30
0.0
 10
144.7493492032532
 20
88.62180745470448
 30
0.0
 10
145.0010410185586
 20
87.61365156244753
 30
0.0
 10
145.7473468575463
 20
85.04834638609739
 30
0.0
 10
146.3008864130098
 20
83.46137460554812
 30
0.0
 10
147.3413695681568
 20
80.18223192856785
 30
0.0
 10
147.8294527660061
 20
78.48874316865607
 30
0.0
 10
148.2441279146029
 20
75.95240369142707
 30
0.0
 10
148.3315655399246
 20
75.16450266440546
 30
0.0
 10
148.3856467817429
 20
73.78127091043642
 30
0.0
 10
148.3766788904549
 20
73.19071516692303
 30
0.0
 10
148.2997670164171
 20
72.0312937823348
 30
0.0
 10
148.2331331291121
 20
71.4584362504704
 30
0.0
 10
147.9686497625747
 20
69.76080407130982
 30
0.0
 10
147.7067314135761
 20
68.65696666233708
 30
0.0
 10
147.1523737942804
 20
66.6648525257733
 30
0.0
 10
146.8711007283019
 20
65.76908614085086
 30
0.0
 10
146.5866115489506
 20
64.88926687966724
 30
0.0
  0
SPLINE
  5
D1BE
330
1F
100
AcDbEntity
  8
AM_2
100
AcDbSpline
210
0.0
220
0.0
230
1.0
 70
     8
 71
     3
 72
    10
 73
     6
 74
     4
 42
0.0000000001
 43
0.0000000001
 44
0.0000000001
 40
0.0
 40
0.0
 40
0.0
 40
0.0
 40
3.381884880612694
 40
6.740119657655925
 40
9.870735618263569
 40
9.870735618263569
 40
9.870735618263569
 40
9.870735618263569
 10
360.5410066577994
 20
138.5685743212975
 30
0.0
 10
361.6174781244853
 20
139.0708335185592
 30
0.0
 10
363.7628931074463
 20
140.0718395279917
 30
0.0
 10
367.0495771042104
 20
138.1253103441349
 30
0.0
 10
369.0129159682308
 20
139.3661601252348
 30
0.0
 10
369.9601499596246
 20
139.9648214732124
 30
0.0
 11
360.5410066577994
 21
138.5685743212975
 31
0.0
 11
363.7953097641431
 21
139.4887137877689
 31
0.0
 11
367.0725296922711
 21
138.7555218889981
 31
0.0
 11
369.9601499596246
 21
139.9648214732124
 31
0.0
  0
SPLINE
  5
D1C0
330
1F
100
AcDbEntity
  8
AM_2
100
AcDbSpline
210
0.0
220
0.0
230
1.0
 70
     8
 71
     3
 72
    36
 73
    32
 74
     0
 42
0.0000000001
 43
0.0000000001
 40
0.0
 40
0.0
 40
0.0
 40
0.0
 40
0.7208217931923416
 40
0.7208217931923416
 40
1.941330042446495
 40
1.941330042446495
 40
2.941657611848282
 40
2.941657611848282
 40
3.304314543357595
 40
3.304314543357595
 40
3.578684027485289
 40
3.578684027485289
 40
3.853053511612984
 40
3.853053511612984
 40
4.401792479868372
 40
4.401792479868372
 40
5.337878648139198
 40
5.337878648139198
 40
6.273964816410023
 40
6.273964816410023
 40
6.632604952682845
 40
6.632604952682845
 40
6.908232079326104
 40
6.908232079326104
 40
7.183859205969364
 40
7.183859205969364
 40
7.735113459255883
 40
7.735113459255883
 40
8.927185549564793
 40
8.927185549564793
 40
9.870735618263569
 40
9.870735618263569
 40
9.870735618263569
 40
9.870735618263569
 10
361.3866474111309
 20
136.7561472975791
 30
0.0
 10
361.6160887198476
 20
136.8631998401695
 30
0.0
 10
361.8331699517667
 20
136.9643192065886
 30
0.0
 10
362.3824794942208
 20
137.2067614583074
 30
0.0
 10
362.6904447305594
 20
137.3258721340355
 30
0.0
 10
363.1579920062703
 20
137.4590449830918
 30
0.0
 10
363.3323107195281
 20
137.4884770881135
 30
0.0
 10
363.52389926024
 20
137.4986938136542
 30
0.0
 10
363.5707140577715
 20
137.498661940465
 30
0.0
 10
363.647946379151
 20
137.4946062640169
 30
0.0
 10
363.6805410617572
 20
137.4915893164892
 30
0.0
 10
363.7624879142087
 20
137.4805798933968
 30
0.0
 10
363.8093937679443
 20
137.472715898698
 30
0.0
 10
363.9667629726441
 20
137.4410089799932
 30
0.0
 10
364.0937688435038
 20
137.4087920753007
 30
0.0
 10
364.4871404818927
 20
137.2946737941372
 30
0.0
 10
364.7868474974735
 20
137.1931074764194
 30
0.0
 10
365.4842980604823
 20
136.9815983490522
 30
0.0
 10
365.8833531662037
 20
136.8700639757904
 30
0.0
 10
366.5284791412925
 20
136.7800913578038
 30
0.0
 10
366.7171610381367
 20
136.7624663842711
 30
0.0
 10
367.0681365746124
 20
136.7529111104088
 30
0.0
 10
367.2272479610979
 20
136.7565815620338
 30
0.0
 10
367.532841811574
 20
136.7792438233603
 30
0.0
 10
367.6819826177725
 20
136.7979132091178
 30
0.0
 10
368.1166207011052
 20
136.8716801624181
 30
0.0
 10
368.3890358650217
 20
136.9443184740994
 30
0.0
 10
369.1965554591259
 20
137.2158045369029
 30
0.0
 10
369.6703880815077
 20
137.4598717505581
 30
0.0
 10
370.4347520931211
 20
137.8980231497057
 30
0.0
 10
370.7431658317833
 20
138.0937395973466
 30
0.0
 10
371.0286568370358
 20
138.2741727654896
 30
0.0
  0
SPLINE
  5
D1D0
330
1F
100
AcDbEntity
  8
AM_2
100
AcDbSpline
210
0.0
220
0.0
230
1.0
 70
     8
 71
     3
 72
    10
 73
     6
 74
     4
 42
0.0000000001
 43
0.0000000001
 44
0.0000000001
 40
0.0
 40
0.0
 40
0.0
 40
0.0
 40
3.381884880612694
 40
6.740119657655927
 40
9.870735618263561
 40
9.870735618263561
 40
9.870735618263561
 40
9.870735618263561
 10
145.6957916735631
 20
44.60552056418987
 30
0.0
 10
146.0871502288014
 20
45.72707912310008
 30
0.0
 10
146.8671305014816
 20
47.96235298870651
 30
0.0
 10
144.5996723061755
 20
51.03642209832826
 30
0.0
 10
145.6366048170263
 20
53.1146854700329
 30
0.0
 10
146.1368840806109
 20
54.11736602855661
 30
0.0
 11
145.6957916735631
 21
44.60552056418987
 31
0.0
 11
146.2837032753459
 21
47.93591172653189
 31
0.0
 11
145.2243731417008
 21
51.12269074078656
 31
0.0
 11
146.1368840806109
 21
54.11736602855661
 31
0.0
  0
SPLINE
  5
D1D1
330
1F
100
AcDbEntity
  8
AM_2
100
AcDbSpline
210
0.0
220
0.0
230
1.0
 70
     8
 71
     3
 72
    36
 73
    32
 74
     0
 42
0.0000000001
 43
0.0000000001
 40
0.0
 40
0.0
 40
0.0
 40
0.0
 40
0.7208217931923416
 40
0.7208217931923416
 40
1.941330042446495
 40
1.941330042446495
 40
2.941657611848282
 40
2.941657611848282
 40
3.304314543357595
 40
3.304314543357595
 40
3.578684027485289
 40
3.578684027485289
 40
3.853053511612984
 40
3.853053511612984
 40
4.401792479868372
 40
4.401792479868372
 40
5.337878648139198
 40
5.337878648139198
 40
6.273964816410023
 40
6.273964816410023
 40
6.632604952682845
 40
6.632604952682845
 40
6.908232079326104
 40
6.908232079326104
 40
7.183859205969364
 40
7.183859205969364
 40
7.735113459255883
 40
7.735113459255883
 40
8.927185549564793
 40
8.927185549564793
 40
9.870735618263569
 40
9.870735618263569
 40
9.870735618263569
 40
9.870735618263569
 10
143.8074526847838
 20
45.26444078960094
 30
0.0
 10
143.8908676399128
 20
45.5034920524746
 30
0.0
 10
143.9696236274175
 20
45.72964881657574
 30
0.0
 10
144.1555450649763
 20
46.30057126131375
 30
0.0
 10
144.2430532565656
 20
46.61896136208677
 30
0.0
 10
144.328489813841
 20
47.09753847962522
 30
0.0
 10
144.3402267676971
 20
47.27393435971331
 30
0.0
 10
144.3311076672743
 20
47.46557828061973
 30
0.0
 10
144.3263639110259
 20
47.51215212586004
 30
0.0
 10
144.3145551741428
 20
47.58858401521475
 30
0.0
 10
144.3082727986924
 20
47.62070950455402
 30
0.0
 10
144.2890710978529
 20
47.7011320679825
 30
0.0
 10
144.2765258296526
 20
47.7470081812994
 30
0.0
 10
144.2291402651765
 20
47.9003868094094
 30
0.0
 10
144.1843034620925
 20
48.02350496919912
 30
0.0
 10
144.031170724539
 20
48.40339257451658
 30
0.0
 10
143.89995382206
 20
48.69135461470055
 30
0.0
 10
143.6193184035328
 20
49.36397424024605
 30
0.0
 10
143.4681843943254
 20
49.74977652780038
 30
0.0
 10
143.3137348957233
 20
50.38257029207361
 30
0.0
 10
143.2772080495704
 20
50.56851998257863
 30
0.0
 10
143.2323745971928
 20
50.91675135969861
 30
0.0
 10
143.2200113870474
 20
51.07542415686105
 30
0.0
 10
143.2117996544991
 20
51.3817471024362
 30
0.0
 10
143.2153627757086
 20
51.53200964003404
 30
0.0
 10
143.2450075294967
 20
51.97186531574497
 30
0.0
 10
143.2898575799126
 20
52.25020830350161
 30
0.0
 10
143.4786857431851
 20
53.0809528502269
 30
0.0
 10
143.6738208610262
 20
53.57694523383761
 30
0.0
 10
144.0328117021087
 20
54.38152870796787
 30
0.0
 10
144.1964914879736
 20
54.70807562614652
 30
0.0
 10
144.3472728484035
 20
55.01027791533898
 30
0.0
  0
LINE
  5
D55E
330
1F
100
AcDbEntity
  8
AM_11
 48
0.5
100
AcDbLine
 10
226.9265897535226
 20
94.07561117634836
 30
0.0
 11
224.6265897535224
 21
94.07561117634836
 31
0.0
  0
ARC
  5
D55F
330
1F
100
AcDbEntity
  8
AM_11
 48
0.5
100
AcDbCircle
 10
213.1410897286328
 20
55.27561480546572
 30
0.0
 40
4.599999999999999
100
AcDbArc
 50
270.0
 51
342.704606434959
  0
ARC
  5
D560
330
1F
100
AcDbEntity
  8
AM_11
 48
0.5
100
AcDbCircle
 10
213.1410897286328
 20
55.27561480546572
 30
0.0
 40
2.299999999999999
100
AcDbArc
 50
270.0
 51
342.704606434959
  0
LINE
  5
D562
330
1F
100
AcDbEntity
  8
AM_11
 48
0.5
100
AcDbLine
 10
224.5225945741042
 20
84.09142753223974
 30
0.0
 11
215.3370945492145
 21
54.59182914607945
 31
0.0
  0
LINE
  5
D563
330
1F
100
AcDbEntity
  8
AM_11
 48
0.5
100
AcDbLine
 10
224.6265897535224
 20
84.77521319162596
 30
0.0
 11
224.6265897535224
 21
94.07561117634836
 31
0.0
  0
ARC
  5
D564
330
1F
100
AcDbEntity
  8
AM_11
 48
0.5
100
AcDbCircle
 10
222.3265897535225
 20
84.77521319162596
 30
0.0
 40
2.299999999999999
100
AcDbArc
 50
342.704606434959
 51
0.0
  0
LINE
  5
D565
330
1F
100
AcDbEntity
  8
AM_11
 48
0.5
100
AcDbLine
 10
226.7185993946857
 20
83.40764187285344
 30
0.0
 11
217.5330993697961
 21
53.90804348669323
 31
0.0
  0
ARC
  5
D566
330
1F
100
AcDbEntity
  8
AM_11
 48
0.5
100
AcDbCircle
 10
222.3265897535225
 20
84.77521319162596
 30
0.0
 40
4.599999999999999
100
AcDbArc
 50
342.704606434959
 51
0.0
  0
LINE
  5
D568
330
1F
100
AcDbEntity
  8
AM_11
 48
0.4
100
AcDbLine
 10
213.1410897286328
 20
52.97561480546574
 30
0.0
 11
206.5265950322388
 21
52.97561480546574
 31
0.0
  0
LINE
  5
D569
330
1F
100
AcDbEntity
  8
AM_11
 48
0.5
100
AcDbLine
 10
206.5265950322388
 20
52.97561480546574
 30
0.0
 11
206.5265950322388
 21
50.67561480546572
 31
0.0
  0
LINE
  5
D56A
330
1F
100
AcDbEntity
  8
AM_11
 48
0.5
100
AcDbLine
 10
63.14659179902503
 20
94.07561117634836
 30
0.0
 11
65.44659179902499
 21
94.07561117634836
 31
0.0
  0
ARC
  5
D56B
330
1F
100
AcDbEntity
  8
AM_11
 48
0.5
100
AcDbCircle
 10
76.93209182391467
 20
55.27561480546572
 30
0.0
 40
4.599999999999999
100
AcDbArc
 50
197.295393565041
 51
270.0
  0
ARC
  5
D56C
330
1F
100
AcDbEntity
  8
AM_11
 48
0.5
100
AcDbCircle
 10
76.93209182391467
 20
55.27561480546572
 30
0.0
 40
2.299999999999999
100
AcDbArc
 50
197.295393565041
 51
270.0
  0
LINE
  5
D56D
330
1F
100
AcDbEntity
  8
AM_11
 48
0.5
100
AcDbLine
 10
65.55058697844334
 20
84.09142753223974
 30
0.0
 11
74.73608700333307
 21
54.59182914607945
 31
0.0
  0
LINE
  5
D56E
330
1F
100
AcDbEntity
  8
AM_11
 48
0.5
100
AcDbLine
 10
65.44659179902499
 20
84.77521319162596
 30
0.0
 11
65.44659179902499
 21
94.07561117634836
 31
0.0
  0
ARC
  5
D56F
330
1F
100
AcDbEntity
  8
AM_11
 48
0.5
100
AcDbCircle
 10
67.74659179902505
 20
84.77521319162596
 30
0.0
 40
2.299999999999999
100
AcDbArc
 50
180.0
 51
197.295393565041
  0
LINE
  5
D570
330
1F
100
AcDbEntity
  8
AM_11
 48
0.5
100
AcDbLine
 10
63.35458215786172
 20
83.40764187285344
 30
0.0
 11
72.54008218275146
 21
53.90804348669323
 31
0.0
  0
ARC
  5
D571
330
1F
100
AcDbEntity
  8
AM_11
 48
0.5
100
AcDbCircle
 10
67.74659179902505
 20
84.77521319162596
 30
0.0
 40
4.599999999999999
100
AcDbArc
 50
180.0
 51
197.295393565041
  0
LINE
  5
D572
330
1F
100
AcDbEntity
  8
AM_11
 48
0.4
100
AcDbLine
 10
76.93209182391467
 20
52.97561480546574
 30
0.0
 11
83.5465865203089
 21
52.97561480546574
 31
0.0
  0
LINE
  5
D573
330
1F
100
AcDbEntity
  8
AM_11
 48
0.5
100
AcDbLine
 10
83.5465865203089
 20
52.97561480546574
 30
0.0
 11
83.5465865203089
 21
50.67561480546572
 31
0.0
  0
XLINE
  5
D6A9
330
1F
100
AcDbEntity
  8
AM_CL
100
AcDbXline
 10
377.9265704259255
 20
210.6556410346676
 30
0.0
 11
0.0
 21
1.0
 31
0.0
  0
LINE
  5
DA0F
330
1F
100
AcDbEntity
  8
AM_0
100
AcDbLine
 10
85.54655187873379
 20
95.47560919682974
 30
0.0
 11
85.54655187873379
 21
78.67560820707047
 31
0.0
  0
LINE
  5
DA10
330
1F
100
AcDbEntity
  8
AM_0
100
AcDbLine
 10
94.68653353519494
 20
78.67560820707047
 30
0.0
 11
94.68653353519494
 21
77.07561282594716
 31
0.0
  0
LINE
  5
DA11
330
1F
100
AcDbEntity
  8
AM_0
100
AcDbLine
 10
87.14654725985701
 20
95.47560919682974
 30
0.0
 11
87.14654725985701
 21
78.67560820707047
 31
0.0
  0
LINE
  5
DA12
330
1F
100
AcDbEntity
  8
AM_0
100
AcDbLine
 10
79.94654330081994
 20
99.07561117634836
 30
0.0
 11
143.5320262493319
 21
99.07561117634836
 31
0.0
  0
LINE
  5
DA13
330
1F
100
AcDbEntity
  8
AM_0
100
AcDbLine
 10
203.926612847906
 20
77.07561282594716
 30
0.0
 11
148.0577682151823
 21
77.07561282594716
 31
0.0
  0
LINE
  5
DA14
330
1F
100
AcDbEntity
  8
AM_0
100
AcDbLine
 10
63.14656705504285
 20
97.47561579522496
 30
0.0
 11
79.94654330081994
 21
97.47561579522496
 31
0.0
  0
LINE
  5
DA15
330
1F
100
AcDbEntity
  8
AM_0
100
AcDbLine
 10
205.5266082290294
 20
95.47560919682974
 30
0.0
 11
205.5266082290294
 21
78.67560820707047
 31
0.0
  0
LINE
  5
DA16
330
1F
100
AcDbEntity
  8
AM_0
100
AcDbLine
 10
203.926612847906
 20
95.47560919682974
 30
0.0
 11
144.6837172253696
 21
95.47560919682974
 31
0.0
  0
LINE
  5
DA17
330
1F
100
AcDbEntity
  8
AM_0
100
AcDbLine
 10
203.926612847906
 20
97.0756045779531
 30
0.0
 11
145.0424530109174
 21
97.0756045779531
 31
0.0
  0
LINE
  5
DA18
330
1F
100
AcDbEntity
  8
AM_0
100
AcDbLine
 10
226.9265897535226
 20
97.47561579522496
 30
0.0
 11
210.1266135077457
 21
97.47561579522496
 31
0.0
  0
LINE
  5
DA19
330
1F
100
AcDbEntity
  8
AM_0
100
AcDbLine
 10
226.9265897535226
 20
99.07561117634836
 30
0.0
 11
145.6310460616537
 21
99.07561117634836
 31
0.0
  0
LINE
  5
DA1A
330
1F
100
AcDbEntity
  8
AM_0
100
AcDbLine
 10
203.926612847906
 20
95.47560919682974
 30
0.0
 11
203.926612847906
 21
78.67560820707047
 31
0.0
  0
LINE
  5
DA1B
330
1F
100
AcDbEntity
  8
AM_0
100
AcDbLine
 10
203.926612847906
 20
78.67560820707047
 30
0.0
 11
147.7191908868355
 21
78.67560820707047
 31
0.0
  0
LINE
  5
DA1C
330
1F
100
AcDbEntity
  8
AM_0
100
AcDbLine
 10
196.3866265725679
 20
78.67560820707047
 30
0.0
 11
196.3866265725679
 21
77.07561282594716
 31
0.0
  0
LINE
  5
DA1D
330
1F
100
AcDbEntity
  8
AM_0
100
AcDbLine
 10
79.94654330081994
 20
99.07561117634836
 30
0.0
 11
63.14656705504285
 21
99.07561117634836
 31
0.0
  0
LINE
  5
DA1F
330
1F
100
AcDbEntity
  8
AM_0
100
AcDbLine
 10
87.14654725985701
 20
97.0756045779531
 30
0.0
 11
142.9815193431112
 21
97.0756045779531
 31
0.0
  0
LINE
  5
DA20
330
1F
100
AcDbEntity
  8
AM_0
100
AcDbLine
 10
87.14654725985701
 20
95.47560919682974
 30
0.0
 11
142.6516746910591
 21
95.47560919682974
 31
0.0
  0
LINE
  5
DA21
330
1F
100
AcDbEntity
  8
AM_0
100
AcDbLine
 10
87.14654725985701
 20
77.07561282594716
 30
0.0
 11
146.022929706751
 21
77.07561282594716
 31
0.0
  0
LINE
  5
DA22
330
1F
100
AcDbEntity
  8
AM_0
100
AcDbLine
 10
87.14654725985701
 20
78.67560820707047
 30
0.0
 11
145.6569801219721
 21
78.67560820707047
 31
0.0
  0
LINE
  5
DA23
330
1F
100
AcDbEntity
  8
AM_0
100
AcDbLine
 10
95.046558477129
 20
74.07562767233651
 30
0.0
 11
146.3711236651454
 21
74.07562767233651
 31
0.0
  0
LINE
  5
DA24
330
1F
100
AcDbEntity
  8
AM_0
100
AcDbLine
 10
195.0265983314364
 20
74.07562767233651
 30
0.0
 11
148.3715468393655
 21
74.07562767233651
 31
0.0
  0
LINE
  5
DA25
330
1F
100
AcDbEntity
  8
AM_0
100
AcDbLine
 10
96.54653868194316
 20
52.07562932193534
 30
0.0
 11
96.54653868194316
 21
72.57562272354005
 31
0.0
  0
LINE
  5
DA29
330
1F
100
AcDbEntity
  8
AM_0
100
AcDbLine
 10
79.94654330081994
 20
63.57561777474359
 30
0.0
 11
79.94654330081994
 21
97.47561579522496
 31
0.0
  0
LINE
  5
DA2A
330
1F
100
AcDbEntity
  8
AM_0
100
AcDbLine
 10
210.1266135077457
 20
63.57561777474359
 30
0.0
 11
210.1266135077457
 21
97.47561579522496
 31
0.0
  0
LINE
  5
DA2B
330
1F
100
AcDbEntity
  8
AM_0
100
AcDbLine
 10
208.5266181266222
 20
63.57561777474359
 30
0.0
 11
208.5266181266222
 21
97.47561579522496
 31
0.0
  0
LINE
  5
DA2C
330
1F
100
AcDbEntity
  8
AM_0
100
AcDbLine
 10
193.5266181266222
 20
52.07562932193534
 30
0.0
 11
193.5266181266222
 21
72.57562272354005
 31
0.0
  0
LINE
  5
DA2D
330
1F
100
AcDbEntity
  8
AM_0
100
AcDbLine
 10
228.5266346226103
 20
84.07561117634836
 30
0.0
 11
226.9265897535226
 21
84.07561117634836
 31
0.0
  0
LINE
  5
DA2E
330
1F
100
AcDbEntity
  8
AM_0
100
AcDbLine
 10
61.54657167391952
 20
84.07561117634836
 30
0.0
 11
63.14656705504285
 21
84.07561117634836
 31
0.0
  0
LINE
  5
DA2F
330
1F
100
AcDbEntity
  8
AM_0
100
AcDbLine
 10
61.54657167391952
 20
97.47561579522496
 30
0.0
 11
61.54657167391952
 21
84.07561117634836
 31
0.0
  0
LINE
  5
DA30
330
1F
100
AcDbEntity
  8
AM_0
100
AcDbLine
 10
63.14656705504285
 20
97.47561579522496
 30
0.0
 11
63.14656705504285
 21
84.07561117634836
 31
0.0
  0
LINE
  5
DA31
330
1F
100
AcDbEntity
  8
AM_0
100
AcDbLine
 10
226.9265897535226
 20
97.47561579522496
 30
0.0
 11
226.9265897535226
 21
84.07561117634836
 31
0.0
  0
LINE
  5
DA32
330
1F
100
AcDbEntity
  8
AM_0
100
AcDbLine
 10
228.5266346226103
 20
97.47561579522496
 30
0.0
 11
228.5266346226103
 21
84.07561117634836
 31
0.0
  0
LINE
  5
DA33
330
1F
100
AcDbEntity
  8
AM_0
100
AcDbLine
 10
81.54653868194316
 20
97.47561579522496
 30
0.0
 11
81.54653868194316
 21
63.57561777474359
 31
0.0
  0
CIRCLE
  5
DA34
330
1F
100
AcDbEntity
  8
AM_0
100
AcDbCircle
 10
94.54653208354796
 20
88.07562437313885
 30
0.0
 40
4.000000051549963
  0
ARC
  5
DA35
330
1F
100
AcDbEntity
  8
AM_0
100
AcDbCircle
 10
87.14654725985701
 20
95.47560919682974
 30
0.0
 40
1.600000020619985
100
AcDbArc
 50
89.99996948241884
 51
179.9999542236331
  0
ARC
  5
DA36
330
1F
100
AcDbEntity
  8
AM_0
100
AcDbCircle
 10
87.14654725985701
 20
78.67560820707047
 30
0.0
 40
1.600000020619985
100
AcDbArc
 50
179.9999694824221
 51
270.0000152587873
  0
ARC
  5
DA37
330
1F
100
AcDbEntity
  8
AM_0
100
AcDbCircle
 10
210.1266135077457
 20
97.47561579522496
 30
0.0
 40
1.600000020619985
100
AcDbArc
 50
89.99996948241884
 51
179.9999542236331
  0
ARC
  5
DA38
330
1F
100
AcDbEntity
  8
AM_0
100
AcDbCircle
 10
203.926612847906
 20
78.67560820707047
 30
0.0
 40
1.600000020619985
100
AcDbArc
 50
269.9999542236316
 51
0.0
  0
ARC
  5
DA39
330
1F
100
AcDbEntity
  8
AM_0
100
AcDbCircle
 10
203.926612847906
 20
95.47560919682974
 30
0.0
 40
1.600000020619985
100
AcDbArc
 50
0.0
 51
89.99996948241884
  0
ARC
  5
DA3A
330
1F
100
AcDbEntity
  8
AM_0
100
AcDbCircle
 10
226.9265897535226
 20
97.47561579522496
 30
0.0
 40
1.600000020619985
100
AcDbArc
 50
0.0
 51
89.99996948241884
  0
ARC
  5
DA3B
330
1F
100
AcDbEntity
  8
AM_0
100
AcDbCircle
 10
63.14656705504285
 20
97.47561579522496
 30
0.0
 40
1.600000020619985
100
AcDbArc
 50
89.99996948241884
 51
179.9999542236331
  0
ARC
  5
DA3C
330
1F
100
AcDbEntity
  8
AM_0
100
AcDbCircle
 10
79.94654330081994
 20
97.47561579522496
 30
0.0
 40
1.600000020619985
100
AcDbArc
 50
0.0
 51
90.0
  0
LINE
  5
DA53
330
1F
100
AcDbEntity
  8
AM_0
100
AcDbLine
 10
193.5266181266222
 20
52.91281085978636
 30
0.0
 11
193.5266181266222
 21
58.26993369205104
 31
0.0
  0
LINE
  5
DA58
330
1F
100
AcDbEntity
  8
AM_0
100
AcDbLine
 10
93.54657827231472
 20
49.07561942434242
 30
0.0
 11
71.54655517793139
 21
49.07561942434242
 31
0.0
  0
LINE
  5
DA59
330
1F
100
AcDbEntity
  8
AM_0
100
AcDbLine
 10
93.54657827231472
 20
50.57562437313885
 30
0.0
 11
71.54655517793139
 21
50.57562437313885
 31
0.0
  0
LINE
  5
DA5A
330
1F
100
AcDbEntity
  8
AM_0
100
AcDbLine
 10
71.54655517793139
 20
49.07561942434242
 30
0.0
 11
71.54655517793139
 21
50.57562437313885
 31
0.0
  0
LINE
  5
DA5B
330
1F
100
AcDbEntity
  8
AM_0
100
AcDbLine
 10
196.526628024215
 20
50.57562437313885
 30
0.0
 11
218.5266016306339
 21
50.57562437313885
 31
0.0
  0
LINE
  5
DA5C
330
1F
100
AcDbEntity
  8
AM_0
100
AcDbLine
 10
196.526628024215
 20
49.07561942434242
 30
0.0
 11
218.5266016306339
 21
49.07561942434242
 31
0.0
  0
LINE
  5
DA5D
330
1F
100
AcDbEntity
  8
AM_0
100
AcDbLine
 10
218.5266016306339
 20
49.07561942434242
 30
0.0
 11
218.5266016306339
 21
50.57562437313885
 31
0.0
  0
LINE
  5
DA5E
330
1F
100
AcDbEntity
  8
AM_0
100
AcDbLine
 10
93.54657827231472
 20
49.07562928327287
 30
0.0
 11
143.7396999529729
 21
49.07561942434242
 31
0.0
  0
LINE
  5
DA5F
330
1F
100
AcDbEntity
  8
AM_0
100
AcDbLine
 10
198.0266082290294
 20
62.07561282594716
 30
0.0
 11
207.0266379218081
 21
62.07561282594716
 31
0.0
  0
LINE
  5
DA60
330
1F
100
AcDbEntity
  8
AM_0
100
AcDbLine
 10
196.526628024215
 20
63.57561777474359
 30
0.0
 11
196.526628024215
 21
72.57562272354005
 31
0.0
  0
LINE
  5
DA61
330
1F
100
AcDbEntity
  8
AM_0
100
AcDbLine
 10
92.04654857953618
 20
62.07561282594716
 30
0.0
 11
83.04656837472192
 21
62.07561282594716
 31
0.0
  0
LINE
  5
DA62
330
1F
100
AcDbEntity
  8
AM_0
100
AcDbLine
 10
92.04654857953618
 20
60.57563262113297
 30
0.0
 11
82.94655319841286
 21
60.57563262113297
 31
0.0
  0
LINE
  5
DA63
330
1F
100
AcDbEntity
  8
AM_0
100
AcDbLine
 10
198.0266082290294
 20
60.57563262113297
 30
0.0
 11
207.1266036101528
 21
60.57563262113297
 31
0.0
  0
LINE
  5
DA64
330
1F
100
AcDbEntity
  8
AM_0
100
AcDbLine
 10
195.0265983314364
 20
52.07562932193534
 30
0.0
 11
195.0265983314364
 21
72.57562272354005
 31
0.0
  0
LINE
  5
DA65
330
1F
100
AcDbEntity
  8
AM_0
100
AcDbLine
 10
95.046558477129
 20
52.07562932193534
 30
0.0
 11
95.046558477129
 21
72.57562272354005
 31
0.0
  0
LINE
  5
DA66
330
1F
100
AcDbEntity
  8
AM_0
100
AcDbLine
 10
92.96078923620848
 20
71.62396916568531
 30
0.0
 11
88.02005932172347
 21
76.56467433618786
 31
0.0
  0
LINE
  5
DA67
330
1F
100
AcDbEntity
  8
AM_0
100
AcDbLine
 10
93.54657827231472
 20
72.57562272354005
 30
0.0
 11
93.54657827231472
 21
63.57561777474359
 31
0.0
  0
LINE
  5
DA68
330
1F
100
AcDbEntity
  8
AM_0
100
AcDbLine
 10
82.54654198114076
 20
70.20975160339649
 30
0.0
 11
89.13235081243305
 21
70.20975160339649
 31
0.0
  0
LINE
  5
DA69
330
1F
100
AcDbEntity
  8
AM_0
100
AcDbLine
 10
89.83943484959501
 20
71.91686368373854
 30
0.0
 11
88.63549164858159
 21
73.12080688475202
 31
0.0
  0
LINE
  5
DA6A
330
1F
100
AcDbEntity
  8
AM_0
100
AcDbLine
 10
83.54654528033847
 20
65.07562272354005
 30
0.0
 11
83.54654528033847
 21
67.20976644978583
 31
0.0
  0
LINE
  5
DA6B
330
1F
100
AcDbEntity
  8
AM_0
100
AcDbLine
 10
90.54656837472192
 20
64.07561942434245
 30
0.0
 11
84.54654857953618
 21
64.07561942434245
 31
0.0
  0
LINE
  5
DA6C
330
1F
100
AcDbEntity
  8
AM_0
100
AcDbLine
 10
91.54657167391951
 20
67.20976644978583
 30
0.0
 11
91.54657167391951
 21
65.07562272354005
 31
0.0
  0
LINE
  5
DA6D
330
1F
100
AcDbEntity
  8
AM_0
100
AcDbLine
 10
90.54656837472192
 20
68.2097450050012
 30
0.0
 11
84.54654857953618
 21
68.2097450050012
 31
0.0
  0
LINE
  5
DA6E
330
1F
100
AcDbEntity
  8
AM_0
100
AcDbLine
 10
197.1124170603214
 20
71.62396916568531
 30
0.0
 11
202.0530974868419
 21
76.56467433618786
 31
0.0
  0
LINE
  5
DA6F
330
1F
100
AcDbEntity
  8
AM_0
100
AcDbLine
 10
207.5266148274245
 20
70.20975160339649
 30
0.0
 11
200.9408554840968
 21
70.20975160339649
 31
0.0
  0
LINE
  5
DA70
330
1F
100
AcDbEntity
  8
AM_0
100
AcDbLine
 10
200.2337219589703
 20
71.91686368373854
 30
0.0
 11
201.4376651599838
 21
73.12080688475202
 31
0.0
  0
LINE
  5
DA71
330
1F
100
AcDbEntity
  8
AM_0
100
AcDbLine
 10
206.5266115282267
 20
65.07562272354005
 30
0.0
 11
206.5266115282267
 21
67.20976644978583
 31
0.0
  0
LINE
  5
DA72
330
1F
100
AcDbEntity
  8
AM_0
100
AcDbLine
 10
199.526637921808
 20
64.07561942434245
 30
0.0
 11
205.5266082290294
 21
64.07561942434245
 31
0.0
  0
LINE
  5
DA73
330
1F
100
AcDbEntity
  8
AM_0
100
AcDbLine
 10
198.5266346226103
 20
67.20976644978583
 30
0.0
 11
198.5266346226103
 21
65.07562272354005
 31
0.0
  0
LINE
  5
DA74
330
1F
100
AcDbEntity
  8
AM_0
100
AcDbLine
 10
199.526637921808
 20
68.2097450050012
 30
0.0
 11
205.5266082290294
 21
68.2097450050012
 31
0.0
  0
ARC
  5
DA75
330
1F
100
AcDbEntity
  8
AM_0
100
AcDbCircle
 10
196.526628024215
 20
52.07562932193534
 30
0.0
 40
3.000000038662472
100
AcDbArc
 50
180.0
 51
270.0
  0
ARC
  5
DA76
330
1F
100
AcDbEntity
  8
AM_0
100
AcDbCircle
 10
93.54657827231472
 20
52.07562932193534
 30
0.0
 40
3.000000038662472
100
AcDbArc
 50
270.0
 51
0.0
  0
ARC
  5
DA77
330
1F
100
AcDbEntity
  8
AM_0
100
AcDbCircle
 10
93.54657827231472
 20
52.07562932193534
 30
0.0
 40
1.500000019331236
100
AcDbArc
 50
270.0
 51
0.0
  0
ARC
  5
DA78
330
1F
100
AcDbEntity
  8
AM_0
100
AcDbCircle
 10
196.526628024215
 20
52.07562932193534
 30
0.0
 40
1.500000019331236
100
AcDbArc
 50
180.0
 51
270.0
  0
ARC
  5
DA79
330
1F
100
AcDbEntity
  8
AM_0
100
AcDbCircle
 10
95.046558477129
 20
72.57562272354005
 30
0.0
 40
1.500000019331236
100
AcDbArc
 50
0.0
 51
180.0
  0
ARC
  5
DA7A
330
1F
100
AcDbEntity
  8
AM_0
100
AcDbCircle
 10
195.0265983314364
 20
72.57562272354005
 30
0.0
 40
1.500000019331236
100
AcDbArc
 50
0.0
 51
180.0
  0
ARC
  5
DA7B
330
1F
100
AcDbEntity
  8
AM_0
100
AcDbCircle
 10
83.04656837472192
 20
63.57561777474359
 30
0.0
 40
1.500000019331236
100
AcDbArc
 50
180.0
 51
270.0
  0
ARC
  5
DA7C
330
1F
100
AcDbEntity
  8
AM_0
100
AcDbCircle
 10
82.94655319841286
 20
63.57561777474359
 30
0.0
 40
3.000000038662472
100
AcDbArc
 50
180.0
 51
270.0
  0
ARC
  5
DA7D
330
1F
100
AcDbEntity
  8
AM_0
100
AcDbCircle
 10
207.1266036101528
 20
63.57561777474359
 30
0.0
 40
3.000000038662472
100
AcDbArc
 50
270.0
 51
0.0
  0
ARC
  5
DA7E
330
1F
100
AcDbEntity
  8
AM_0
100
AcDbCircle
 10
207.0266379218081
 20
63.57561777474359
 30
0.0
 40
1.500000019331236
100
AcDbArc
 50
270.0
 51
0.0
  0
ARC
  5
DA7F
330
1F
100
AcDbEntity
  8
AM_0
100
AcDbCircle
 10
198.0266082290294
 20
63.57561777474359
 30
0.0
 40
1.500000019331236
100
AcDbArc
 50
180.0
 51
270.0
  0
ARC
  5
DA80
330
1F
100
AcDbEntity
  8
AM_0
100
AcDbCircle
 10
92.04654857953618
 20
63.57561777474359
 30
0.0
 40
1.500000019331236
100
AcDbArc
 50
270.0
 51
0.0
  0
ARC
  5
DA81
330
1F
100
AcDbEntity
  8
AM_0
100
AcDbCircle
 10
92.04654857953618
 20
63.57561777474359
 30
0.0
 40
3.000000038662472
100
AcDbArc
 50
270.0
 51
0.0
  0
ARC
  5
DA82
330
1F
100
AcDbEntity
  8
AM_0
100
AcDbCircle
 10
198.0266082290294
 20
63.57561777474359
 30
0.0
 40
3.000000038662472
100
AcDbArc
 50
180.0
 51
270.0
  0
ARC
  5
DA83
330
1F
100
AcDbEntity
  8
AM_0
100
AcDbCircle
 10
91.54657167391951
 20
70.20975160339649
 30
0.0
 40
2.000000025774981
100
AcDbArc
 50
0.0
 51
44.99999999999964
  0
ARC
  5
DA84
330
1F
100
AcDbEntity
  8
AM_0
100
AcDbCircle
 10
89.13235081243305
 20
71.20975490259408
 30
0.0
 40
1.00000001288749
100
AcDbArc
 50
270.0
 51
44.99999999999964
  0
ARC
  5
DA85
330
1F
100
AcDbEntity
  8
AM_0
100
AcDbCircle
 10
82.54654198114076
 20
69.20974830419888
 30
0.0
 40
1.00000001288749
100
AcDbArc
 50
90.0
 51
180.0
  0
ARC
  5
DA86
330
1F
100
AcDbEntity
  8
AM_0
100
AcDbCircle
 10
86.71837739076909
 20
75.15884498388635
 30
0.0
 40
2.000000025774981
100
AcDbArc
 50
28.18812561035144
 51
293.7875518798825
  0
ARC
  5
DA87
330
1F
100
AcDbEntity
  8
AM_0
100
AcDbCircle
 10
87.92840761141951
 20
72.4136981036076
 30
0.0
 40
1.00000001288749
100
AcDbArc
 50
44.99998474120722
 51
113.7875518798824
  0
ARC
  5
DA88
330
1F
100
AcDbEntity
  8
AM_0
100
AcDbCircle
 10
84.54654857953618
 20
67.20976644978583
 30
0.0
 40
1.00000001288749
100
AcDbArc
 50
90.0
 51
180.0
  0
ARC
  5
DA89
330
1F
100
AcDbEntity
  8
AM_0
100
AcDbCircle
 10
84.54654857953618
 20
65.07562272354005
 30
0.0
 40
1.00000001288749
100
AcDbArc
 50
180.0
 51
270.0
  0
ARC
  5
DA8A
330
1F
100
AcDbEntity
  8
AM_0
100
AcDbCircle
 10
90.54656837472192
 20
65.07562272354005
 30
0.0
 40
1.00000001288749
100
AcDbArc
 50
270.0
 51
0.0
  0
ARC
  5
DA8B
330
1F
100
AcDbEntity
  8
AM_0
100
AcDbCircle
 10
90.54656837472192
 20
67.20976644978583
 30
0.0
 40
1.00000001288749
100
AcDbArc
 50
0.0
 51
90.0
  0
ARC
  5
DA8C
330
1F
100
AcDbEntity
  8
AM_0
100
AcDbCircle
 10
198.5266346226103
 20
70.20975160339649
 30
0.0
 40
2.000000025774981
100
AcDbArc
 50
135.0000000000003
 51
180.0
  0
ARC
  5
DA8D
330
1F
100
AcDbEntity
  8
AM_0
100
AcDbCircle
 10
200.9408554840968
 20
71.20975490259408
 30
0.0
 40
1.00000001288749
100
AcDbArc
 50
135.0000000000003
 51
270.0
  0
ARC
  5
DA8E
330
1F
100
AcDbEntity
  8
AM_0
100
AcDbCircle
 10
207.5266148274245
 20
69.20974830419888
 30
0.0
 40
1.00000001288749
100
AcDbArc
 50
0.0
 51
90.0
  0
ARC
  5
DA8F
330
1F
100
AcDbEntity
  8
AM_0
100
AcDbCircle
 10
203.3548289057608
 20
75.15884498388635
 30
0.0
 40
2.000000025774981
100
AcDbArc
 50
246.2124328613283
 51
151.81185913086
  0
ARC
  5
DA90
330
1F
100
AcDbEntity
  8
AM_0
100
AcDbCircle
 10
202.1447986851103
 20
72.4136981036076
 30
0.0
 40
1.00000001288749
100
AcDbArc
 50
66.21243286132838
 51
135.0000000000003
  0
ARC
  5
DA91
330
1F
100
AcDbEntity
  8
AM_0
100
AcDbCircle
 10
205.5266082290294
 20
67.20976644978583
 30
0.0
 40
1.00000001288749
100
AcDbArc
 50
0.0
 51
90.0
  0
ARC
  5
DA92
330
1F
100
AcDbEntity
  8
AM_0
100
AcDbCircle
 10
205.5266082290294
 20
65.07562272354005
 30
0.0
 40
1.00000001288749
100
AcDbArc
 50
270.0
 51
0.0
  0
ARC
  5
DA93
330
1F
100
AcDbEntity
  8
AM_0
100
AcDbCircle
 10
199.526637921808
 20
65.07562272354005
 30
0.0
 40
1.00000001288749
100
AcDbArc
 50
180.0
 51
270.0
  0
ARC
  5
DA94
330
1F
100
AcDbEntity
  8
AM_0
100
AcDbCircle
 10
199.526637921808
 20
67.20976644978583
 30
0.0
 40
1.00000001288749
100
AcDbArc
 50
90.0
 51
180.0
  0
LINE
  5
DA95
330
1F
100
AcDbEntity
  8
AM_0
100
AcDbLine
 10
330.9265786739195
 20
55.67561767634835
 30
0.0
 11
330.9265786739195
 21
57.27561305747163
 31
0.0
  0
LINE
  5
DA96
330
1F
100
AcDbEntity
  8
AM_0
100
AcDbLine
 10
319.526580653438
 20
78.67559458196492
 30
0.0
 11
336.3265568992149
 21
78.67559458196492
 31
0.0
  0
LINE
  5
DA97
330
1F
100
AcDbEntity
  8
AM_0
100
AcDbLine
 10
336.3265568992149
 20
87.81557623842607
 30
0.0
 11
337.9265522803382
 21
87.81557623842607
 31
0.0
  0
LINE
  5
DA98
330
1F
100
AcDbEntity
  8
AM_0
100
AcDbLine
 10
319.526580653438
 20
80.27558996308814
 30
0.0
 11
336.3265568992149
 21
80.27558996308814
 31
0.0
  0
LINE
  5
DA99
330
1F
100
AcDbEntity
  8
AM_0
100
AcDbLine
 10
315.9265786739195
 20
73.07558600405112
 30
0.0
 11
315.9265786739195
 21
136.4734725383788
 31
0.0
  0
LINE
  5
DA9A
330
1F
100
AcDbEntity
  8
AM_0
100
AcDbLine
 10
337.9265522803382
 20
198.0556588503348
 30
0.0
 11
337.9265522803382
 21
140.9958938497801
 31
0.0
  0
LINE
  5
DA9B
330
1F
100
AcDbEntity
  8
AM_0
100
AcDbLine
 10
319.526580653438
 20
199.655654231458
 30
0.0
 11
336.3265568992149
 21
199.655654231458
 31
0.0
  0
LINE
  5
DA9C
330
1F
100
AcDbEntity
  8
AM_0
100
AcDbLine
 10
319.526580653438
 20
198.0556588503348
 30
0.0
 11
319.526580653438
 21
137.8942450341374
 31
0.0
  0
LINE
  5
DA9D
330
1F
100
AcDbEntity
  8
AM_0
100
AcDbLine
 10
317.9265852723148
 20
198.0556588503348
 30
0.0
 11
317.9265852723148
 21
138.1048679063059
 31
0.0
  0
LINE
  5
DA9E
330
1F
100
AcDbEntity
  8
AM_0
100
AcDbLine
 10
317.5265740550426
 20
221.0556357559513
 30
0.0
 11
317.5265740550426
 21
204.2556595101743
 31
0.0
  0
LINE
  5
DA9F
330
1F
100
AcDbEntity
  8
AM_0
100
AcDbLine
 10
315.9265786739195
 20
221.0556357559513
 30
0.0
 11
315.9265786739195
 21
138.5315423743364
 31
0.0
  0
LINE
  5
DAA0
330
1F
100
AcDbEntity
  8
AM_0
100
AcDbLine
 10
319.526580653438
 20
198.0556588503348
 30
0.0
 11
336.3265568992149
 21
198.0556588503348
 31
0.0
  0
LINE
  5
DAA1
330
1F
100
AcDbEntity
  8
AM_0
100
AcDbLine
 10
336.3265568992149
 20
198.0556588503348
 30
0.0
 11
336.3265568992149
 21
140.7999368694536
 31
0.0
  0
LINE
  5
DAA2
330
1F
100
AcDbEntity
  8
AM_0
100
AcDbLine
 10
336.3265568992149
 20
190.515672574997
 30
0.0
 11
337.9265522803382
 21
190.515672574997
 31
0.0
  0
LINE
  5
DAA3
330
1F
100
AcDbEntity
  8
AM_0
100
AcDbLine
 10
317.9265852723148
 20
80.27558996308814
 30
0.0
 11
317.9265852723148
 21
136.0780794322905
 31
0.0
  0
LINE
  5
DAA4
330
1F
100
AcDbEntity
  8
AM_0
100
AcDbLine
 10
319.526580653438
 20
80.27558996308814
 30
0.0
 11
319.526580653438
 21
135.8873416417692
 31
0.0
  0
LINE
  5
DAA5
330
1F
100
AcDbEntity
  8
AM_0
100
AcDbLine
 10
337.9265522803382
 20
80.27558996308814
 30
0.0
 11
337.9265522803382
 21
138.9872043354737
 31
0.0
  0
LINE
  5
DAA6
330
1F
100
AcDbEntity
  8
AM_0
100
AcDbLine
 10
336.3265568992149
 20
80.27558996308814
 30
0.0
 11
336.3265568992149
 21
138.7748300119108
 31
0.0
  0
LINE
  5
DAA7
330
1F
100
AcDbEntity
  8
AM_0
100
AcDbLine
 10
340.9265621779312
 20
88.17560118036018
 30
0.0
 11
340.9265621779312
 21
139.0458877796922
 31
0.0
  0
LINE
  5
DAA8
330
1F
100
AcDbEntity
  8
AM_0
100
AcDbLine
 10
340.9265621779312
 20
189.1556443338652
 30
0.0
 11
340.9265621779312
 21
141.0486783251003
 31
0.0
  0
LINE
  5
DAA9
330
1F
100
AcDbEntity
  8
AM_0
100
AcDbLine
 10
351.4265720755239
 20
204.2556595101743
 30
0.0
 11
317.5265740550426
 21
204.2556595101743
 31
0.0
  0
LINE
  5
DAAA
330
1F
100
AcDbEntity
  8
AM_0
100
AcDbLine
 10
351.4265720755239
 20
202.655664129051
 30
0.0
 11
317.5265740550426
 21
202.655664129051
 31
0.0
  0
LINE
  5
DAAB
330
1F
100
AcDbEntity
  8
AM_0
100
AcDbLine
 10
362.92653578435
 20
187.655664129051
 30
0.0
 11
342.4265423827452
 21
187.655664129051
 31
0.0
  0
LINE
  5
DAAC
330
1F
100
AcDbEntity
  8
AM_0
100
AcDbLine
 10
330.9265786739195
 20
222.6556806250392
 30
0.0
 11
330.9265786739195
 21
221.0556357559513
 31
0.0
  0
LINE
  5
DAAD
330
1F
100
AcDbEntity
  8
AM_0
100
AcDbLine
 10
317.5265740550426
 20
222.6556806250392
 30
0.0
 11
330.9265786739195
 21
222.6556806250392
 31
0.0
  0
LINE
  5
DAAE
330
1F
100
AcDbEntity
  8
AM_0
100
AcDbLine
 10
317.5265740550426
 20
57.27561305747163
 30
0.0
 11
317.5265740550426
 21
74.07558930324866
 31
0.0
  0
LINE
  5
DAAF
330
1F
100
AcDbEntity
  8
AM_0
100
AcDbLine
 10
315.9265786739195
 20
74.07558930324866
 30
0.0
 11
315.9265786739195
 21
57.27561305747163
 31
0.0
  0
LINE
  5
DAB0
330
1F
100
AcDbEntity
  8
AM_0
100
AcDbLine
 10
362.92653578435
 20
90.675584684372
 30
0.0
 11
342.4265423827452
 21
90.675584684372
 31
0.0
  0
LINE
  5
DAB1
330
1F
100
AcDbEntity
  8
AM_0
100
AcDbLine
 10
351.4265720755239
 20
74.07558930324866
 30
0.0
 11
317.5265740550426
 21
74.07558930324866
 31
0.0
  0
LINE
  5
DAB2
330
1F
100
AcDbEntity
  8
AM_0
100
AcDbLine
 10
317.5265740550426
 20
55.67561767634835
 30
0.0
 11
330.9265786739195
 21
55.67561767634835
 31
0.0
  0
LINE
  5
DAB3
330
1F
100
AcDbEntity
  8
AM_0
100
AcDbLine
 10
317.5265740550426
 20
75.675584684372
 30
0.0
 11
351.4265720755239
 21
75.675584684372
 31
0.0
  0
ARC
  5
DAB4
330
1F
100
AcDbEntity
  8
AM_0
100
AcDbCircle
 10
319.526580653438
 20
80.27558996308814
 30
0.0
 40
1.600000020619985
100
AcDbArc
 50
179.9999694824221
 51
269.9999542236316
  0
ARC
  5
DAB5
330
1F
100
AcDbEntity
  8
AM_0
100
AcDbCircle
 10
336.3265568992149
 20
80.27558996308814
 30
0.0
 40
1.600000020619985
100
AcDbArc
 50
269.9999694824189
 51
0.0000152587889443
  0
ARC
  5
DAB6
330
1F
100
AcDbEntity
  8
AM_0
100
AcDbCircle
 10
317.5265740550426
 20
204.2556595101743
 30
0.0
 40
1.600000020619985
100
AcDbArc
 50
179.9999694824221
 51
269.9999542236316
  0
ARC
  5
DAB7
330
1F
100
AcDbEntity
  8
AM_0
100
AcDbCircle
 10
336.3265568992149
 20
198.0556588503348
 30
0.0
 40
1.600000020619985
100
AcDbArc
 50
359.9999542236331
 51
90.0
  0
ARC
  5
DAB8
330
1F
100
AcDbEntity
  8
AM_0
100
AcDbCircle
 10
319.526580653438
 20
198.0556588503348
 30
0.0
 40
1.600000020619985
100
AcDbArc
 50
90.0
 51
179.9999694824221
  0
ARC
  5
DAB9
330
1F
100
AcDbEntity
  8
AM_0
100
AcDbCircle
 10
317.5265740550426
 20
221.0556357559513
 30
0.0
 40
1.600000020619985
100
AcDbArc
 50
90.0
 51
179.9999694824221
  0
ARC
  5
DABA
330
1F
100
AcDbEntity
  8
AM_0
100
AcDbCircle
 10
317.5265740550426
 20
57.27561305747163
 30
0.0
 40
1.600000020619985
100
AcDbArc
 50
179.9999694824221
 51
269.9999542236316
  0
ARC
  5
DABB
330
1F
100
AcDbEntity
  8
AM_0
100
AcDbCircle
 10
317.5265740550426
 20
74.07558930324866
 30
0.0
 40
1.600000020619985
100
AcDbArc
 50
90.0
 51
180.0
  0
LINE
  5
DAC2
330
1F
100
AcDbEntity
  8
AM_0
100
AcDbLine
 10
365.926545681943
 20
190.6556740266439
 30
0.0
 11
365.926545681943
 21
212.6556476330628
 31
0.0
  0
LINE
  5
DAC3
330
1F
100
AcDbEntity
  8
AM_0
100
AcDbLine
 10
365.926545681943
 20
212.6556476330628
 30
0.0
 11
364.4265654771289
 21
212.6556476330628
 31
0.0
  0
LINE
  5
DAC4
330
1F
100
AcDbEntity
  8
AM_0
100
AcDbLine
 10
365.9265456819431
 20
65.67560118036017
 30
0.0
 11
365.926545681943
 21
136.8791054233308
 31
0.0
  0
LINE
  5
DAC5
330
1F
100
AcDbEntity
  8
AM_0
100
AcDbLine
 10
352.9265522803382
 20
192.1556542314581
 30
0.0
 11
352.9265522803382
 21
201.1556839242368
 31
0.0
  0
LINE
  5
DAC6
330
1F
100
AcDbEntity
  8
AM_0
100
AcDbLine
 10
351.4265720755239
 20
190.6556740266439
 30
0.0
 11
342.4265423827452
 21
190.6556740266439
 31
0.0
  0
LINE
  5
DAC7
330
1F
100
AcDbEntity
  8
AM_0
100
AcDbLine
 10
354.4265324851524
 20
192.1556542314581
 30
0.0
 11
354.4265324851524
 21
201.2556496125814
 31
0.0
  0
LINE
  5
DAC8
330
1F
100
AcDbEntity
  8
AM_0
100
AcDbLine
 10
362.92653578435
 20
189.1556443338652
 30
0.0
 11
342.4265423827452
 21
189.1556443338652
 31
0.0
  0
LINE
  5
DAC9
330
1F
100
AcDbEntity
  8
AM_0
100
AcDbLine
 10
343.3781959406001
 20
191.2414630627504
 30
0.0
 11
338.4375155140799
 21
196.1821434892705
 31
0.0
  0
LINE
  5
DACA
330
1F
100
AcDbEntity
  8
AM_0
100
AcDbLine
 10
344.7924135028891
 20
201.6556608298534
 30
0.0
 11
344.7924135028891
 21
195.0699014865256
 31
0.0
  0
LINE
  5
DACB
330
1F
100
AcDbEntity
  8
AM_0
100
AcDbLine
 10
343.0853261665293
 20
194.362767961399
 30
0.0
 11
341.8813829655156
 21
195.5667111624125
 31
0.0
  0
LINE
  5
DACC
330
1F
100
AcDbEntity
  8
AM_0
100
AcDbLine
 10
349.9265423827452
 20
200.6556575306557
 30
0.0
 11
347.792423400482
 21
200.6556575306557
 31
0.0
  0
LINE
  5
DACD
330
1F
100
AcDbEntity
  8
AM_0
100
AcDbLine
 10
350.926545681943
 20
193.6556839242367
 30
0.0
 11
350.926545681943
 21
199.655654231458
 31
0.0
  0
LINE
  5
DACE
330
1F
100
AcDbEntity
  8
AM_0
100
AcDbLine
 10
347.792423400482
 20
192.6556806250392
 30
0.0
 11
349.9265423827452
 21
192.6556806250392
 31
0.0
  0
LINE
  5
DACF
330
1F
100
AcDbEntity
  8
AM_0
100
AcDbLine
 10
346.7924201012843
 20
193.6556839242367
 30
0.0
 11
346.7924201012843
 21
199.655654231458
 31
0.0
  0
LINE
  5
DAD0
330
1F
100
AcDbEntity
  8
AM_0
100
AcDbLine
 10
365.926545681943
 20
87.67562427474361
 30
0.0
 11
365.926545681943
 21
65.67560118036017
 31
0.0
  0
LINE
  5
DAD1
330
1F
100
AcDbEntity
  8
AM_0
100
AcDbLine
 10
365.926545681943
 20
65.67560118036017
 30
0.0
 11
364.4265654771289
 21
65.67560118036017
 31
0.0
  0
LINE
  5
DAD2
330
1F
100
AcDbEntity
  8
AM_0
100
AcDbLine
 10
352.9265522803382
 20
86.17559458196492
 30
0.0
 11
352.9265522803382
 21
77.17561437715075
 31
0.0
  0
LINE
  5
DAD3
330
1F
100
AcDbEntity
  8
AM_0
100
AcDbLine
 10
354.4265324851524
 20
86.17559458196492
 30
0.0
 11
354.4265324851524
 21
77.07559920084158
 31
0.0
  0
LINE
  5
DAD4
330
1F
100
AcDbEntity
  8
AM_0
100
AcDbLine
 10
362.92653578435
 20
89.17560447955777
 30
0.0
 11
342.4265423827452
 21
89.17560447955777
 31
0.0
  0
LINE
  5
DAD5
330
1F
100
AcDbEntity
  8
AM_0
100
AcDbLine
 10
343.3781959406001
 20
87.08983523863714
 30
0.0
 11
338.4375155140799
 21
82.14910532415242
 31
0.0
  0
LINE
  5
DAD6
330
1F
100
AcDbEntity
  8
AM_0
100
AcDbLine
 10
342.4265423827452
 20
87.67562427474361
 30
0.0
 11
351.4265720755239
 21
87.67562427474361
 31
0.0
  0
LINE
  5
DAD7
330
1F
100
AcDbEntity
  8
AM_0
100
AcDbLine
 10
344.7924135028891
 20
76.6755879835696
 30
0.0
 11
344.7924135028891
 21
83.26139681486184
 31
0.0
  0
LINE
  5
DAD8
330
1F
100
AcDbEntity
  8
AM_0
100
AcDbLine
 10
343.0853261665293
 20
83.96848085202403
 30
0.0
 11
341.8813829655156
 21
82.76453765101049
 31
0.0
  0
LINE
  5
DAD9
330
1F
100
AcDbEntity
  8
AM_0
100
AcDbLine
 10
349.9265423827452
 20
77.67559128276726
 30
0.0
 11
347.792423400482
 21
77.67559128276726
 31
0.0
  0
LINE
  5
DADA
330
1F
100
AcDbEntity
  8
AM_0
100
AcDbLine
 10
350.926545681943
 20
84.67561437715074
 30
0.0
 11
350.926545681943
 21
78.67559458196492
 31
0.0
  0
LINE
  5
DADB
330
1F
100
AcDbEntity
  8
AM_0
100
AcDbLine
 10
347.792423400482
 20
85.67561767634835
 30
0.0
 11
349.9265423827452
 21
85.67561767634835
 31
0.0
  0
LINE
  5
DADC
330
1F
100
AcDbEntity
  8
AM_0
100
AcDbLine
 10
346.7924201012843
 20
84.67561437715074
 30
0.0
 11
346.7924201012843
 21
78.67559458196492
 31
0.0
  0
ARC
  5
DADD
330
1F
100
AcDbEntity
  8
AM_0
100
AcDbCircle
 10
362.92653578435
 20
190.6556740266439
 30
0.0
 40
3.000000038662472
100
AcDbArc
 50
270.0
 51
0.0
  0
ARC
  5
DADE
330
1F
100
AcDbEntity
  8
AM_0
100
AcDbCircle
 10
362.92653578435
 20
190.6556740266439
 30
0.0
 40
1.500000019331236
100
AcDbArc
 50
270.0
 51
0.0
  0
ARC
  5
DADF
330
1F
100
AcDbEntity
  8
AM_0
100
AcDbCircle
 10
342.4265423827452
 20
189.1556443338652
 30
0.0
 40
1.500000019331236
100
AcDbArc
 50
90.0
 51
270.0
  0
ARC
  5
DAE0
330
1F
100
AcDbEntity
  8
AM_0
100
AcDbCircle
 10
351.4265720755239
 20
201.2556496125814
 30
0.0
 40
3.000000038662472
100
AcDbArc
 50
0.0
 51
90.0
  0
ARC
  5
DAE1
330
1F
100
AcDbEntity
  8
AM_0
100
AcDbCircle
 10
351.4265720755239
 20
201.1556839242368
 30
0.0
 40
1.500000019331236
100
AcDbArc
 50
0.0
 51
90.0
  0
ARC
  5
DAE2
330
1F
100
AcDbEntity
  8
AM_0
100
AcDbCircle
 10
351.4265720755239
 20
192.1556542314581
 30
0.0
 40
1.500000019331236
100
AcDbArc
 50
270.0
 51
0.0
  0
ARC
  5
DAE3
330
1F
100
AcDbEntity
  8
AM_0
100
AcDbCircle
 10
351.4265720755239
 20
192.1556542314581
 30
0.0
 40
3.000000038662472
100
AcDbArc
 50
270.0
 51
0.0
  0
ARC
  5
DAE4
330
1F
100
AcDbEntity
  8
AM_0
100
AcDbCircle
 10
344.7924135028891
 20
192.6556806250392
 30
0.0
 40
2.000000025774981
100
AcDbArc
 50
224.9999999999994
 51
270.0
  0
ARC
  5
DAE5
330
1F
100
AcDbEntity
  8
AM_0
100
AcDbCircle
 10
343.7924102036914
 20
195.0699014865256
 30
0.0
 40
1.00000001288749
100
AcDbArc
 50
224.9999999999994
 51
0.0
  0
ARC
  5
DAE6
330
1F
100
AcDbEntity
  8
AM_0
100
AcDbCircle
 10
345.7924168020867
 20
201.6556608298534
 30
0.0
 40
1.00000001288749
100
AcDbArc
 50
90.0
 51
180.0
  0
ARC
  5
DAE7
330
1F
100
AcDbEntity
  8
AM_0
100
AcDbCircle
 10
339.8433201223992
 20
197.4838749081896
 30
0.0
 40
2.000000025774981
100
AcDbArc
 50
336.2124328613272
 51
241.8118591308586
  0
ARC
  5
DAE8
330
1F
100
AcDbEntity
  8
AM_0
100
AcDbCircle
 10
342.5884670026778
 20
196.2738446875392
 30
0.0
 40
1.00000001288749
100
AcDbArc
 50
156.2124328613277
 51
224.9999999999994
  0
ARC
  5
DAE9
330
1F
100
AcDbEntity
  8
AM_0
100
AcDbCircle
 10
347.792423400482
 20
199.655654231458
 30
0.0
 40
1.00000001288749
100
AcDbArc
 50
90.0
 51
180.0
  0
ARC
  5
DAEA
330
1F
100
AcDbEntity
  8
AM_0
100
AcDbCircle
 10
349.9265423827452
 20
199.655654231458
 30
0.0
 40
1.00000001288749
100
AcDbArc
 50
0.0
 51
90.0
  0
ARC
  5
DAEB
330
1F
100
AcDbEntity
  8
AM_0
100
AcDbCircle
 10
349.9265423827452
 20
193.6556839242367
 30
0.0
 40
1.00000001288749
100
AcDbArc
 50
270.0
 51
0.0
  0
ARC
  5
DAEC
330
1F
100
AcDbEntity
  8
AM_0
100
AcDbCircle
 10
347.792423400482
 20
193.6556839242367
 30
0.0
 40
1.00000001288749
100
AcDbArc
 50
180.0
 51
270.0
  0
ARC
  5
DAED
330
1F
100
AcDbEntity
  8
AM_0
100
AcDbCircle
 10
362.92653578435
 20
87.67562427474361
 30
0.0
 40
3.000000038662472
100
AcDbArc
 50
0.0
 51
90.0
  0
ARC
  5
DAEE
330
1F
100
AcDbEntity
  8
AM_0
100
AcDbCircle
 10
362.92653578435
 20
87.67562427474361
 30
0.0
 40
1.500000019331236
100
AcDbArc
 50
0.0
 51
90.0
  0
ARC
  5
DAEF
330
1F
100
AcDbEntity
  8
AM_0
100
AcDbCircle
 10
342.4265423827452
 20
89.17560447955777
 30
0.0
 40
1.500000019331236
100
AcDbArc
 50
90.0
 51
270.0
  0
ARC
  5
DAF0
330
1F
100
AcDbEntity
  8
AM_0
100
AcDbCircle
 10
351.4265720755239
 20
77.17561437715075
 30
0.0
 40
1.500000019331236
100
AcDbArc
 50
270.0
 51
0.0
  0
ARC
  5
DAF1
330
1F
100
AcDbEntity
  8
AM_0
100
AcDbCircle
 10
351.4265720755239
 20
77.07559920084158
 30
0.0
 40
3.000000038662472
100
AcDbArc
 50
270.0
 51
0.0
  0
ARC
  5
DAF2
330
1F
100
AcDbEntity
  8
AM_0
100
AcDbCircle
 10
351.4265720755239
 20
86.17559458196492
 30
0.0
 40
1.500000019331236
100
AcDbArc
 50
0.0
 51
90.0
  0
ARC
  5
DAF3
330
1F
100
AcDbEntity
  8
AM_0
100
AcDbCircle
 10
351.4265720755239
 20
86.17559458196492
 30
0.0
 40
3.000000038662472
100
AcDbArc
 50
0.0
 51
90.0
  0
ARC
  5
DAF4
330
1F
100
AcDbEntity
  8
AM_0
100
AcDbCircle
 10
344.7924135028891
 20
85.67561767634835
 30
0.0
 40
2.000000025774981
100
AcDbArc
 50
90.0
 51
135.0000000000005
  0
ARC
  5
DAF5
330
1F
100
AcDbEntity
  8
AM_0
100
AcDbCircle
 10
343.7924102036914
 20
83.26139681486184
 30
0.0
 40
1.00000001288749
100
AcDbArc
 50
0.0
 51
135.0000000000005
  0
ARC
  5
DAF6
330
1F
100
AcDbEntity
  8
AM_0
100
AcDbCircle
 10
345.7924168020867
 20
76.6755879835696
 30
0.0
 40
1.00000001288749
100
AcDbArc
 50
180.0
 51
270.0
  0
ARC
  5
DAF7
330
1F
100
AcDbEntity
  8
AM_0
100
AcDbCircle
 10
339.8433201223992
 20
80.84742339319799
 30
0.0
 40
2.000000025774981
100
AcDbArc
 50
118.1881256103517
 51
23.78755187988409
  0
ARC
  5
DAF8
330
1F
100
AcDbEntity
  8
AM_0
100
AcDbCircle
 10
342.5884670026778
 20
82.05745361384835
 30
0.0
 40
1.00000001288749
100
AcDbArc
 50
134.9999847412115
 51
203.7875518798826
  0
ARC
  5
DAF9
330
1F
100
AcDbEntity
  8
AM_0
100
AcDbCircle
 10
347.792423400482
 20
78.67559458196492
 30
0.0
 40
1.00000001288749
100
AcDbArc
 50
180.0
 51
270.0
  0
ARC
  5
DAFA
330
1F
100
AcDbEntity
  8
AM_0
100
AcDbCircle
 10
349.9265423827452
 20
78.67559458196492
 30
0.0
 40
1.00000001288749
100
AcDbArc
 50
270.0
 51
0.0
  0
ARC
  5
DAFB
330
1F
100
AcDbEntity
  8
AM_0
100
AcDbCircle
 10
349.9265423827452
 20
84.67561437715074
 30
0.0
 40
1.00000001288749
100
AcDbArc
 50
0.0
 51
90.0
  0
ARC
  5
DAFC
330
1F
100
AcDbEntity
  8
AM_0
100
AcDbCircle
 10
347.792423400482
 20
84.67561437715074
 30
0.0
 40
1.00000001288749
100
AcDbArc
 50
90.0
 51
180.0
  0
LINE
  5
DAFD
330
1F
100
AcDbEntity
  8
AM_11
100
AcDbLine
 10
364.4265654771289
 20
75.67560118036017
 30
0.0
 11
362.1265654771288
 21
75.67560118036017
 31
0.0
  0
LINE
  5
DAFE
330
1F
100
AcDbEntity
  8
AM_11
100
AcDbLine
 10
320.9265786739195
 20
57.27561305747163
 30
0.0
 11
320.9265786739195
 21
59.57561305747164
 31
0.0
  0
ARC
  5
DAFF
330
1F
100
AcDbEntity
  8
AM_11
100
AcDbCircle
 10
330.3586536408864
 20
61.87561305747159
 30
0.0
 40
4.599999999999999
100
AcDbArc
 50
270.0
 51
284.0764654742319
  0
LINE
  5
DB00
330
1F
100
AcDbEntity
  8
AM_11
100
AcDbLine
 10
360.945361890041
 20
64.80270326082747
 30
0.0
 11
331.4774500537985
 21
57.41374185959348
 31
0.0
  0
ARC
  5
DB01
330
1F
100
AcDbEntity
  8
AM_11
100
AcDbCircle
 10
359.8265654771287
 20
69.26457445870564
 30
0.0
 40
4.599999999999999
100
AcDbArc
 50
284.0764654742319
 51
0.0
  0
LINE
  5
DB02
330
1F
100
AcDbEntity
  8
AM_11
 48
0.4
100
AcDbLine
 10
362.1265654771288
 20
69.26457445870564
 30
0.0
 11
362.1265654771288
 21
75.67560118036017
 31
0.0
  0
ARC
  5
DB03
330
1F
100
AcDbEntity
  8
AM_11
100
AcDbCircle
 10
359.8265654771287
 20
69.26457445870564
 30
0.0
 40
2.299999999999999
100
AcDbArc
 50
284.0764654742319
 51
0.0
  0
LINE
  5
DB04
330
1F
100
AcDbEntity
  8
AM_11
100
AcDbLine
 10
330.9180518473423
 20
59.64467745853257
 30
0.0
 11
360.3859636835848
 21
67.03363885976656
 31
0.0
  0
LINE
  5
DB05
330
1F
100
AcDbEntity
  8
AM_11
 48
0.5
100
AcDbLine
 10
330.3586536408864
 20
59.57561305747164
 30
0.0
 11
320.9265786739195
 21
59.57561305747164
 31
0.0
  0
ARC
  5
DB06
330
1F
100
AcDbEntity
  8
AM_11
100
AcDbCircle
 10
330.3586536408864
 20
61.87561305747159
 30
0.0
 40
2.299999999999999
100
AcDbArc
 50
270.0
 51
284.0764654742319
  0
LINE
  5
DB07
330
1F
100
AcDbEntity
  8
AM_0
100
AcDbLine
 10
364.4265654771289
 20
65.67560118036017
 30
0.0
 11
364.4265654771289
 21
87.67562427474361
 31
0.0
  0
LINE
  5
DB08
330
1F
100
AcDbEntity
  8
AM_0
100
AcDbLine
 10
330.9265786739195
 20
57.27561305747163
 30
0.0
 11
317.5265740550426
 21
57.27561305747163
 31
0.0
  0
LINE
  5
DB09
330
1F
100
AcDbEntity
  8
AM_11
100
AcDbLine
 10
364.4265654771289
 20
202.6556476330628
 30
0.0
 11
362.1265654771288
 21
202.6556476330628
 31
0.0
  0
LINE
  5
DB0A
330
1F
100
AcDbEntity
  8
AM_11
100
AcDbLine
 10
320.9265786739195
 20
221.0556357559513
 30
0.0
 11
320.9265786739195
 21
218.7556357559514
 31
0.0
  0
LINE
  5
DB0B
330
1F
100
AcDbEntity
  8
AM_11
 48
0.4
100
AcDbLine
 10
362.1265654771288
 20
209.0666743547174
 30
0.0
 11
362.1265654771288
 21
202.6556476330628
 31
0.0
  0
ARC
  5
DB0C
330
1F
100
AcDbEntity
  8
AM_11
100
AcDbCircle
 10
359.8265654771287
 20
209.0666743547174
 30
0.0
 40
2.299999999999999
100
AcDbArc
 50
0.0
 51
75.92353452576813
  0
LINE
  5
DB0D
330
1F
100
AcDbEntity
  8
AM_11
100
AcDbLine
 10
330.9180518473425
 20
218.6865713548905
 30
0.0
 11
360.3859636835848
 21
211.2976099536565
 31
0.0
  0
LINE
  5
DB0E
330
1F
100
AcDbEntity
  8
AM_11
 48
0.5
100
AcDbLine
 10
330.3586536408865
 20
218.7556357559514
 30
0.0
 11
320.9265786739195
 21
218.7556357559514
 31
0.0
  0
ARC
  5
DB0F
330
1F
100
AcDbEntity
  8
AM_11
100
AcDbCircle
 10
330.3586536408865
 20
216.4556357559513
 30
0.0
 40
2.299999999999999
100
AcDbArc
 50
75.92353452576813
 51
90.0
  0
ARC
  5
DB10
330
1F
100
AcDbEntity
  8
AM_11
100
AcDbCircle
 10
330.3586536408864
 20
216.4556357559513
 30
0.0
 40
4.599999999999999
100
AcDbArc
 50
75.92353452576813
 51
90.0
  0
LINE
  5
DB11
330
1F
100
AcDbEntity
  8
AM_11
100
AcDbLine
 10
360.945361890041
 20
213.5285455525956
 30
0.0
 11
331.4774500537985
 21
220.9175069538296
 31
0.0
  0
ARC
  5
DB12
330
1F
100
AcDbEntity
  8
AM_11
100
AcDbCircle
 10
359.8265654771287
 20
209.0666743547174
 30
0.0
 40
4.599999999999999
100
AcDbArc
 50
0.0
 51
75.92353452576813
  0
LINE
  5
DB13
330
1F
100
AcDbEntity
  8
AM_0
100
AcDbLine
 10
364.4265654771289
 20
212.6556476330628
 30
0.0
 11
364.4265654771289
 21
190.6556740266439
 31
0.0
  0
LINE
  5
DB14
330
1F
100
AcDbEntity
  8
AM_0
100
AcDbLine
 10
330.9265786739195
 20
221.0556357559513
 30
0.0
 11
317.5265740550426
 21
221.0556357559513
 31
0.0
  0
XLINE
  5
DB84
330
1F
100
AcDbEntity
  8
AM_CL
100
AcDbXline
 10
143.7396999529729
 20
37.07561942434242
 30
0.0
 11
1.0
 21
0.0
 31
0.0
  0
LINE
  5
DBB2
330
1F
100
AcDbEntity
  8
AM_0
100
AcDbLine
 10
145.9151231022712
 20
49.07561942434242
 30
0.0
 11
196.526628024215
 21
49.07561942434242
 31
0.0
  0
LINE
  5
DBE9
330
1F
100
AcDbEntity
  8
AM_0
100
AcDbLine
 10
365.926545681943
 20
138.9395448041547
 30
0.0
 11
365.926545681943
 21
190.6556740266439
 31
0.0
  0
MTEXT
  5
DC98
330
1F
100
AcDbEntity
  8
0文字
100
AcDbMText
 10
21.50000000000003
 20
244.5000000000001
 30
0.0
 40
3.2
 41
19.99999999999997
 71
     5
 72
     5
  1
備考
 73
     1
 44
1.0
1001
ACAD
1000
MTEXTBEGIN
1070
    73
1070
     1
1070
    44
1040
1.0
1070
    74
1070
     0
1000
MTEXTEND
1000
ACAD_MTEXT_DEFINED_HEIGHT_BEGIN
1070
    46
1040
8.000000000000042
1000
ACAD_MTEXT_DEFINED_HEIGHT_END
  0
MTEXT
  5
DC99
330
1F
100
AcDbEntity
  8
0文字
100
AcDbMText
 10
31.50000000000002
 20
252.5
 30
0.0
 40
3.2
 41
90.0
 71
     4
 72
     5
  1
　有り（本図は右勝手）
 73
     1
 44
1.0
1001
ACAD
1000
MTEXTBEGIN
1070
    73
1070
     1
1070
    44
1040
1.0
1070
    74
1070
     0
1000
MTEXTEND
1000
ACAD_MTEXT_DEFINED_HEIGHT_BEGIN
1070
    46
1040
8.000000000000012
1000
ACAD_MTEXT_DEFINED_HEIGHT_END
  0
LINE
  5
DC9A
330
1F
100
AcDbEntity
  8
AM_2
100
AcDbLine
 10
11.50000000000002
 20
248.5000000000002
 30
0.0
 11
109.4999999999999
 21
248.5000000000001
 31
0.0
  0
MTEXT
  5
DC9B
330
1F
100
AcDbEntity
  8
0文字
100
AcDbMText
 10
21.50000000000002
 20
252.5000000000001
 30
0.0
 40
3.2
 41
20.0
 71
     5
 72
     5
  1
左右勝手
 73
     1
 44
1.0
1001
ACAD
1000
MTEXTBEGIN
1070
    73
1070
     1
1070
    44
1040
1.0
1070
    74
1070
     0
1000
MTEXTEND
1000
ACAD_MTEXT_DEFINED_HEIGHT_BEGIN
1070
    46
1040
8.000000000000012
1000
ACAD_MTEXT_DEFINED_HEIGHT_END
  0
ENDSEC
  0
SECTION
  2
OBJECTS
  0
DICTIONARY
  5
C
330
0
100
AcDbDictionary
281
     1
  3
ACAD_2007HEADERVARS_RT
350
DCB6
  3
ACAD_BGPLOT_KEY
350
AB06
  3
ACAD_COLOR
350
A91D
  3
ACAD_GROUP
350
D
  3
ACAD_LAYOUT
350
1A
  3
ACAD_MATERIAL
350
A91C
  3
ACAD_MLINESTYLE
350
17
  3
ACAD_PLOTSETTINGS
350
19
  3
ACAD_PLOTSTYLENAME
350
E
  3
ACAD_TABLESTYLE
350
AAB9
  3
ACAD_VISUALSTYLE
350
B0F1
  3
AcAsAppObject
350
3DA1
  3
ACASGREF_MASTER
350
3DE9
  3
AcDbVariableDictionary
350
34
  3
AcmDictionary
350
47
  3
AD_GREF_MODULE
350
3DEA
  3
AD_MAPI_MODULE
350
3E06
  3
AMG
350
2B
  3
AMGSNAPSETTINGS
350
7D
  3
ASE_INDEX_DICTIONARY
350
B331
  3
DWGPROPS
350
DCB5
  3
MAPISURF_MODULE
350
3DEB
  0
DICTIONARY
  5
3F95
330
2
100
AcDbDictionary
280
     1
281
     1
  3
ACAD_LAYERFILTERS
360
B466
  3
ACAD_LAYERSTATES
360
3F96
  3
ACLYDICTIONARY
360
B465
  3
AMLAYER_GROUPCOLORS
360
AAB4
  0
DICTIONARY
  5
8A
330
1F
100
AcDbDictionary
280
     1
281
     1
  3
ACAD_SORTENTS
360
B1BA
  0
DICTIONARY
  5
DCB6
102
{ACAD_REACTORS
330
C
102
}
330
C
100
AcDbDictionary
281
     1
  3
DIMARCSYM
350
DCB7
  0
DICTIONARY
  5
AB06
102
{ACAD_REACTORS
330
C
102
}
330
C
100
AcDbDictionary
280
     1
281
     1
  0
DICTIONARY
  5
A91D
102
{ACAD_REACTORS
330
C
102
}
330
C
100
AcDbDictionary
281
     1
  0
DICTIONARY
  5
D
102
{ACAD_REACTORS
330
C
102
}
330
C
100
AcDbDictionary
281
     1
  0
DICTIONARY
  5
1A
102
{ACAD_REACTORS
330
C
102
}
330
C
100
AcDbDictionary
281
     1
  3
Model
350
22
  3
ﾚｲｱｳﾄ1
350
1E
  3
ﾚｲｱｳﾄ2
350
26
  0
DICTIONARY
  5
A91C
102
{ACAD_REACTORS
330
C
102
}
330
C
100
AcDbDictionary
281
     1
  3
ByBlock
350
B0EF
  3
ByLayer
350
B0EE
  3
Global
350
B0F0
  0
DICTIONARY
  5
17
102
{ACAD_REACTORS
330
C
102
}
330
C
100
AcDbDictionary
281
     1
  3
Standard
350
18
  0
DICTIONARY
  5
19
102
{ACAD_REACTORS
330
C
102
}
330
C
100
AcDbDictionary
281
     1
  0
ACDBDICTIONARYWDFLT
  5
E
102
{ACAD_REACTORS
330
C
102
}
330
C
100
AcDbDictionary
281
     1
  3
Normal
350
F
100
AcDbDictionaryWithDefault
340
F
  0
DICTIONARY
  5
AAB9
102
{ACAD_REACTORS
330
C
102
}
330
C
100
AcDbDictionary
281
     1
  3
Standard
350
AABA
  0
DICTIONARY
  5
B0F1
102
{ACAD_REACTORS
330
C
102
}
330
C
100
AcDbDictionary
281
     1
  3
2dWireframe
350
B0F7
  3
3D Hidden
350
B0F9
  3
3dWireframe
350
B0F8
  3
Basic
350
B0F6
  3
Brighten
350
B0FD
  3
ColorChange
350
B101
  3
Conceptual
350
B0FA
  3
Dim
350
B0FC
  3
Facepattern
350
B100
  3
Flat
350
B0F2
  3
FlatWithEdges
350
B0F3
  3
Gouraud
350
B0F4
  3
GouraudWithEdges
350
B0F5
  3
Linepattern
350
B0FF
  3
Realistic
350
B0FB
  3
Thicken
350
B0FE
  0
ACAD_PROXY_OBJECT
  5
3DA1
102
{ACAD_REACTORS
330
C
102
}
330
C
100
AcDbProxyObject
 90
      499
 91
      576
 95
       23
 70
     0
 93
       10
310
407F
 94
        0
1001
ACAD
1000
AcRTDxfName
1000
ASAPP
  0
ACAD_PROXY_OBJECT
  5
3DE9
102
{ACAD_REACTORS
330
C
102
}
330
C
100
AcDbProxyObject
 90
      499
 91
      581
 95
       23
 70
     0
 93
       34
310
010000407F
 94
        0
1001
ACAD
1000
AcRTDxfName
1000
ACASGREFMASTER
  0
DICTIONARY
  5
34
102
{ACAD_REACTORS
330
C
102
}
330
C
100
AcDbDictionary
281
     1
  3
CTABLESTYLE
350
AAF3
  3
DIMASSOC
350
A10C
  3
FIELDEVAL
350
AB07
  3
INDEXCTL
350
35
  3
SORTENTS
350
194C
  0
DICTIONARY
  5
47
102
{ACAD_REACTORS
330
C
102
}
330
C
100
AcDbDictionary
281
     1
  3
AcmBOM
350
7E8
  3
AcmStdDictionary
350
4C
  3
AMDTSECTSYM_ARROWCOLOR
350
A929
  0
ACAD_PROXY_OBJECT
  5
3DEA
102
{ACAD_REACTORS
330
C
102
}
330
C
100
AcDbProxyObject
 90
      499
 91
      582
 95
       23
 70
     0
 93
      114
310
00000043800000000000000000003F
 94
        0
1001
ACAD
1000
AcRTDxfName
1000
ACADGREFMODULE
  0
ACAD_PROXY_OBJECT
  5
3E06
102
{ACAD_REACTORS
330
C
102
}
330
C
100
AcDbProxyObject
 90
      499
 91
      594
 95
       23
 70
     0
 93
       34
310
05000044FF
 94
        0
1001
ACAD
1000
AcRTDxfName
1000
MAPIADMODULE
  0
DICTIONARY
  5
2B
102
{ACAD_REACTORS
330
C
102
}
330
C
100
AcDbDictionary
281
     1
  0
DICTIONARY
  5
7D
102
{ACAD_REACTORS
330
C
102
}
330
C
100
AcDbDictionary
281
     1
  0
DICTIONARY
  5
B331
102
{ACAD_REACTORS
330
C
102
}
330
C
100
AcDbDictionary
281
     1
  3
ASEBlockHierarchyIndexRecord
350
B332
1001
DCO15
1040
1594111214.218
  0
XRECORD
  5
DCB5
102
{ACAD_REACTORS
330
C
102
}
330
C
100
AcDbXrecord
280
     1
  1
DWGPROPS COOKIE
  2

  3

  4

  6

  7

  8
Administrator
  9

300
AmdtFileType=84
301
=
302
=
303
=
304
=
305
=
306
=
307
=
308
=
309
=
 40
0.0612829050925926
 41
2455831.751787465
 42
2455868.41427228
  1

 90
        1
  0
ACAD_PROXY_OBJECT
  5
3DEB
102
{ACAD_REACTORS
330
C
102
}
330
C
100
AcDbProxyObject
 90
      499
 91
      583
 95
       23
 70
     0
 93
        8
310
047D
 94
        0
1001
ACAD
1000
AcRTDxfName
1000
AMDTMAPISURFMOUDULE
  0
DICTIONARY
  5
B466
102
{ACAD_REACTORS
330
3F95
102
}
330
3F95
100
AcDbDictionary
281
     1
  0
DICTIONARY
  5
3F96
102
{ACAD_REACTORS
330
3F95
102
}
330
3F95
100
AcDbDictionary
281
     1
  3
20011210
350
3FB7
  0
DICTIONARY
  5
B465
102
{ACAD_REACTORS
330
3F95
102
}
330
3F95
100
AcDbDictionary
281
     1
1001
ACAD
1000
<All
  0
DICTIONARY
  5
AAB4
102
{ACAD_REACTORS
330
3F95
102
}
330
3F95
100
AcDbDictionary
280
     1
281
     1
  0
SORTENTSTABLE
  5
B1BA
102
{ACAD_REACTORS
330
8A
102
}
330
8A
100
AcDbSortentsTable
330
1F
331
CF42
  5
CF58
331
B5C2
  5
B5C2
331
DAD8
  5
DADA
331
DA13
  5
DA13
331
DA62
  5
DA63
331
DA99
  5
DA9A
331
CCEE
  5
CCEF
331
DAE0
  5
DAE2
331
DA1B
  5
DA1B
331
DA6A
  5
DA6B
331
DAA1
  5
DAA2
331
CCF6
  5
CCF7
331
DAE8
  5
DAEA
331
DA23
  5
DA23
331
DA72
  5
DA73
331
DAA9
  5
DAAA
331
BAC9
  5
BACB
331
DAF0
  5
DAF2
331
DA2B
  5
DA2B
331
DA7A
  5
DA7B
331
DAB1
  5
DAB2
331
D565
  5
D565
331
BAD1
  5
BAD4
331
DAF8
  5
DAFA
331
D56D
  5
D56D
331
DA33
  5
DA33
331
DA82
  5
DA83
331
DAB9
  5
DABA
331
DB00
  5
DB02
331
DA3B
  5
DA3B
331
DA8A
  5
DA8B
331
CF23
  5
CF42
331
D1BE
  5
D1C1
331
B5B3
  5
B5B3
331
DAC9
  5
DACB
331
DA53
  5
DA53
331
DA92
  5
DA93
331
DB08
  5
DB0A
331
B5BB
  5
B5BB
331
BC79
  5
BC79
331
DA5B
  5
DA5B
331
DAD1
  5
DAD3
331
D059
  5
D05A
331
BCD1
  5
BCD1
331
DB10
  5
DB12
331
DAD9
  5
DADB
331
DA14
  5
DA14
331
DA63
  5
DA64
331
DA9A
  5
DA9B
331
CCEF
  5
CCF0
331
DAE1
  5
DAE3
331
DA1C
  5
DA1C
331
DA6B
  5
DA6C
331
DAA2
  5
DAA3
331
CF9A
  5
CFC6
331
BAC2
  5
BAC2
331
CCF7
  5
CE29
331
DAE9
  5
DAEB
331
DA24
  5
DA24
331
DA73
  5
DA74
331
DAAA
  5
DAAB
331
D197
  5
D197
331
D55E
  5
D55E
331
BACA
  5
BACC
331
DAF1
  5
DAF3
331
DA2C
  5
DA2C
331
DA7B
  5
DA7C
331
DAB2
  5
DAB3
331
D19F
  5
D19A
331
D566
  5
D566
331
DAF9
  5
DAFB
331
D56E
  5
D56E
331
DA34
  5
DA34
331
DA83
  5
DA84
331
DABA
  5
DABB
331
DAC2
  5
DAC3
331
DA3C
  5
DA3C
331
DA8B
  5
DA8C
331
DB01
  5
DB03
331
B5B4
  5
B5B4
331
BC72
  5
BC72
331
DACA
  5
DACC
331
DA93
  5
DA94
331
DB09
  5
DB0B
331
B5BC
  5
B5BC
331
DA5C
  5
DA5C
331
DAD2
  5
DAD4
331
D05A
  5
D05B
331
BCD2
  5
BCD2
331
DB11
  5
DB13
331
DADA
  5
DADC
331
DA15
  5
DA15
331
DA64
  5
DA65
331
DA9B
  5
DA9C
331
CCF0
  5
CCF1
331
DAE2
  5
DAE4
331
DA1D
  5
DA1D
331
DA6C
  5
DA6D
331
DAA3
  5
DAA4
331
BAC3
  5
BAC3
331
DAEA
  5
DAEC
331
DA25
  5
DA25
331
DA74
  5
DA75
331
DAAB
  5
DAAC
331
D55F
  5
D55F
331
BACB
  5
BACD
331
DAF2
  5
DAF4
331
DA2D
  5
DA2D
331
DA7C
  5
DA7D
331
DAB3
  5
DAB4
331
DAFA
  5
DAFC
331
D56F
  5
D56F
331
DA35
  5
DA35
331
DA84
  5
DA85
331
DABB
  5
DABC
331
DAC3
  5
DAC4
331
DA8C
  5
DA8D
331
DB02
  5
DB04
331
B5B5
  5
B5B5
331
DACB
  5
DACD
331
DA94
  5
DA95
331
DB0A
  5
DB0C
331
B5BD
  5
B5BD
331
DA5D
  5
DA5D
331
DAD3
  5
DAD5
331
D1C0
  5
D1C2
331
CF84
  5
CF9A
331
D1D0
  5
D1D0
331
D05B
  5
D05C
331
DB12
  5
DB14
331
DADB
  5
DADD
331
DA16
  5
DA16
331
DA65
  5
DA66
331
DA9C
  5
DA9D
331
CCF1
  5
CCF2
331
DAE3
  5
DAE5
331
DA6D
  5
DA6E
331
DAA4
  5
DAA5
331
BAC4
  5
BAC5
331
DAEB
  5
DAED
331
DA75
  5
DA76
331
DAAC
  5
DAAD
331
BACC
  5
BACE
331
DAF3
  5
DAF5
331
DA2E
  5
DA2E
331
DA7D
  5
DA7E
331
DAB4
  5
DAB5
331
D560
  5
D560
331
D568
  5
D568
331
DA36
  5
DA36
331
DA85
  5
DA86
331
DAFB
  5
DAFD
331
D570
  5
D570
331
BC6C
  5
BC6C
331
DB03
  5
DB05
331
DA8D
  5
DA8E
331
DAC4
  5
DAC5
331
DA0F
  5
DA0F
331
B5B6
  5
B5B6
331
BC74
  5
BC74
331
DACC
  5
DACE
331
DA95
  5
DA96
331
DB0B
  5
DB0D
331
B5BE
  5
B5BE
331
DAD4
  5
DAD6
331
DA5E
  5
DA5E
331
D05C
  5
D05D
331
D1D1
  5
D1D1
331
DB13
  5
DB84
331
DADC
  5
DADE
331
DA9D
  5
DA9E
331
DA17
  5
DA17
331
DA66
  5
DA67
331
CCF2
  5
CCF3
331
DAE4
  5
DAE6
331
DAA5
  5
DAA6
331
DA1F
  5
DA1F
331
DA6E
  5
DA6F
331
DBE9
  5
DAC6
331
BAC5
  5
BAC6
331
DAEC
  5
DAEE
331
DAAD
  5
DAAE
331
DA76
  5
DA77
331
DBB2
  5
DA5F
331
BACD
  5
BACF
331
DAF4
  5
DAF6
331
DAB5
  5
DAB6
331
DA2F
  5
DA2F
331
DA7E
  5
DA7F
331
CF6E
  5
CF84
331
D1A2
  5
D1A2
331
D569
  5
D569
331
BAD5
  5
BAD7
331
DAFC
  5
DAFE
331
DA37
  5
DA37
331
DA86
  5
DA87
331
D571
  5
D571
331
BF2C
  5
BF2C
331
DAC5
  5
DAC7
331
DA8E
  5
DA8F
331
DB04
  5
DB06
331
CFED
  5
D059
331
B5B7
  5
B5B7
331
BC75
  5
BC75
331
DACD
  5
DACF
331
DA96
  5
DA97
331
DB0C
  5
DB0E
331
B5BF
  5
B5BF
331
DAD5
  5
DAD7
331
DA5F
  5
DA60
331
D05D
  5
D162
331
DA10
  5
DA10
331
DB14
  5
DBB2
331
DADD
  5
DADF
331
DA9E
  5
DA9F
331
DA18
  5
DA18
331
DA67
  5
DA68
331
CE78
  5
CF23
331
CCF3
  5
CCF4
331
DAE5
  5
DAE7
331
DAA6
  5
DAA7
331
DA20
  5
DA20
331
DA6F
  5
DA70
331
BAC6
  5
BAC7
331
DAED
  5
DAEF
331
DAAE
  5
DAAF
331
DA77
  5
DA78
331
BACE
  5
BAD0
331
BF0D
  5
BF0D
331
DAF5
  5
DAF7
331
DAB6
  5
DAB7
331
DA7F
  5
DA80
331
D562
  5
D562
331
DA30
  5
DA30
331
CFC6
  5
CFED
331
D1A3
  5
D1BE
331
D56A
  5
D56A
331
D6A9
  5
D6A9
331
DAFD
  5
DAFF
331
D572
  5
D572
331
DA38
  5
DA38
331
DA87
  5
DA88
331
DB84
  5
DBE9
331
DAC6
  5
DAC8
331
DA8F
  5
DA90
331
DB05
  5
DB07
331
B5B8
  5
B5B8
331
BC76
  5
BC76
331
DACE
  5
DAD0
331
DA58
  5
DA58
331
DA97
  5
DA98
331
DB0D
  5
DB0F
331
DAD6
  5
DAD8
331
CE29
  5
CE62
331
B5C0
  5
B5C0
331
DA11
  5
DA11
331
DA60
  5
DA61
331
DADE
  5
DAE0
331
DA19
  5
DA19
331
DA68
  5
DA69
331
DA9F
  5
DAA0
331
CF58
  5
CF6E
331
BEE6
  5
BEE6
331
CCF4
  5
CCF5
331
DAE6
  5
DAE8
331
DA21
  5
DA21
331
DA70
  5
DA71
331
DAA7
  5
DAA8
331
BAC7
  5
BAC8
331
DAEE
  5
DAF0
331
DA29
  5
DA29
331
DA78
  5
DA79
331
DAAF
  5
DAB0
331
BACF
  5
BAD1
331
DAF6
  5
DAF8
331
DAB7
  5
DAB8
331
D19C
  5
D19F
331
D563
  5
D563
331
DA31
  5
DA31
331
DA80
  5
DA81
331
D56B
  5
D56B
331
BAD7
  5
BAE0
331
DAFE
  5
DB00
331
DA39
  5
DA39
331
DA88
  5
DA89
331
D573
  5
D573
331
BC6F
  5
BC6F
331
DAC7
  5
DAC9
331
DA90
  5
DA91
331
DB06
  5
DB08
331
B5B9
  5
B5B9
331
BC77
  5
BC77
331
DA59
  5
DA59
331
DACF
  5
DAD1
331
DB0E
  5
DB10
331
CC5D
  5
CC5E
331
DAD7
  5
DAD9
331
B5C1
  5
B5C1
331
DA12
  5
DA12
331
DA61
  5
DA62
331
DA98
  5
DA99
331
DADF
  5
DAE1
331
DA1A
  5
DA1A
331
DA69
  5
DA6A
331
DAA0
  5
DAA1
331
CCF5
  5
CCF6
331
DAE7
  5
DAE9
331
DA22
  5
DA22
331
DA71
  5
DA72
331
DAA8
  5
DAA9
331
BAC8
  5
BACA
331
DAEF
  5
DAF1
331
DA2A
  5
DA2A
331
DA79
  5
DA7A
331
DAB0
  5
DAB1
331
DAF7
  5
DAF9
331
D564
  5
D564
331
BAD0
  5
BAD3
331
D56C
  5
D56C
331
DA32
  5
DA32
331
DA81
  5
DA82
331
DAB8
  5
DAB9
331
DAFF
  5
DB01
331
DA3A
  5
DA3A
331
DA89
  5
DA8A
331
BC70
  5
BC70
331
DAC8
  5
DACA
331
DA91
  5
DA92
331
DB07
  5
DB09
331
B5BA
  5
B5BA
331
BC78
  5
BC78
331
DA5A
  5
DA5A
331
DAD0
  5
DAD2
331
DB0F
  5
DB11
331
CC5E
  5
CCEE
  0
XRECORD
  5
DCB7
102
{ACAD_REACTORS
330
DCB6
102
}
330
DCB6
100
AcDbXrecord
280
     1
 70
     1
  0
LAYOUT
  5
22
102
{ACAD_XDICTIONARY
360
DCBA
102
}
102
{ACAD_REACTORS
330
1A
102
}
330
1A
100
AcDbPlotSettings
  1

  2
Adobe PDF
  4
A3
  6
AM_VIEW1
 40
3.174999952316284
 41
3.174999952316284
 42
3.17498779296875
 43
3.17498779296875
 44
297.0318298339844
 45
420.1583251953125
 46
-3.159078955650329
 47
-3.095831274986267
 48
214.3704939521119
 49
367.5855324241176
140
275.6727856380065
141
407.629191407817
142
1.0
143
1.0
 70
  3748
 72
     1
 73
     1
 74
     2
  7
monochrome.ctb
 75
     0
147
0.9787267410393917
148
0.0
149
0.0
100
AcDbLayout
  1
Model
 70
     1
 71
     0
 10
0.0
 20
0.0
 11
12.0
 21
9.0
 12
0.0
 22
0.0
 32
0.0
 14
0.0
 24
0.0
 34
0.0
 15
0.0
 25
0.0
 35
0.0
146
0.0
 13
0.0
 23
0.0
 33
0.0
 16
1.0
 26
0.0
 36
0.0
 17
0.0
 27
1.0
 37
0.0
 76
     0
330
1F
331
B0EC
1001
ACAD_PSEXT
1000
Adobe PDF
1000
Adobe PDF Converter
1000
My Documents\*.pdf
1000

1070
     0
  0
LAYOUT
  5
1E
102
{ACAD_XDICTIONARY
360
DCB8
102
}
102
{ACAD_REACTORS
330
1A
102
}
330
1A
100
AcDbPlotSettings
  1

  2
\\ML370\XEROX
  4
A4
  6

 40
3.174999952316284
 41
3.174999952316284
 42
3.175003051757812
 43
3.17498779296875
 44
209.8674926757813
 45
296.6719970703125
 46
0.0
 47
0.0
 48
0.0
 49
0.0
140
0.0
141
0.0
142
1.0
143
1.0
 70
   688
 72
     1
 73
     1
 74
     5
  7
monochrome.ctb
 75
    16
147
1.0
148
0.0
149
0.0
100
AcDbLayout
  1
ﾚｲｱｳﾄ1
 70
     1
 71
     1
 10
-3.17498779296875
 20
-3.174999952316284
 11
293.4970092773438
 21
206.692492723465
 12
0.0
 22
0.0
 32
0.0
 14
1.000000000000000E+20
 24
1.000000000000000E+20
 34
1.000000000000000E+20
 15
-1.000000000000000E+20
 25
-1.000000000000000E+20
 35
-1.000000000000000E+20
146
0.0
 13
0.0
 23
0.0
 33
0.0
 16
1.0
 26
0.0
 36
0.0
 17
0.0
 27
1.0
 37
0.0
 76
     0
330
1B
  0
LAYOUT
  5
26
102
{ACAD_XDICTIONARY
360
DCBC
102
}
102
{ACAD_REACTORS
330
1A
102
}
330
1A
100
AcDbPlotSettings
  1

  2
\\ML370\XEROX
  4

  6

 40
0.0
 41
0.0
 42
0.0
 43
0.0
 44
0.0
 45
0.0
 46
0.0
 47
0.0
 48
0.0
 49
0.0
140
0.0
141
0.0
142
1.0
143
1.0
 70
   688
 72
     0
 73
     0
 74
     5
  7
monochrome.ctb
 75
    16
147
1.0
148
0.0
149
0.0
100
AcDbLayout
  1
ﾚｲｱｳﾄ2
 70
     1
 71
     2
 10
0.0
 20
0.0
 11
12.0
 21
9.0
 12
0.0
 22
0.0
 32
0.0
 14
0.0
 24
0.0
 34
0.0
 15
0.0
 25
0.0
 35
0.0
146
0.0
 13
0.0
 23
0.0
 33
0.0
 16
1.0
 26
0.0
 36
0.0
 17
0.0
 27
1.0
 37
0.0
 76
     0
330
23
  0
MATERIAL
  5
B0EF
102
{ACAD_XDICTIONARY
360
DCC2
102
}
102
{ACAD_REACTORS
330
A91C
102
}
330
A91C
100
AcDbMaterial
  1
ByBlock
  0
MATERIAL
  5
B0EE
102
{ACAD_XDICTIONARY
360
DCC0
102
}
102
{ACAD_REACTORS
330
A91C
102
}
330
A91C
100
AcDbMaterial
  1
ByLayer
  0
MATERIAL
  5
B0F0
102
{ACAD_XDICTIONARY
360
DCC4
102
}
102
{ACAD_REACTORS
330
A91C
102
}
330
A91C
100
AcDbMaterial
  1
Global
  0
MLINESTYLE
  5
18
102
{ACAD_REACTORS
330
17
102
}
330
17
100
AcDbMlineStyle
  2
STANDARD
 70
     0
  3

 62
   256
 51
90.0
 52
90.0
 71
     2
 49
0.5
 62
   256
  6
BYLAYER
 49
-0.5
 62
   256
  6
BYLAYER
  0
ACDBPLACEHOLDER
  5
F
102
{ACAD_REACTORS
330
E
102
}
330
E
  0
TABLESTYLE
  5
AABA
102
{ACAD_XDICTIONARY
360
DCBE
102
}
102
{ACAD_REACTORS
330
AAB9
102
}
330
AAB9
100
AcDbTableStyle
  3
Standard
 70
     0
 71
     0
 40
1.5
 41
1.5
280
     0
281
     0
  7
STANDARD
140
4.5
170
     2
 62
     0
 63
     7
283
     0
274
    -2
284
     1
 64
     0
275
    -2
285
     1
 65
     0
276
    -2
286
     1
 66
     0
277
    -2
287
     1
 67
     0
278
    -2
288
     1
 68
     0
279
    -2
289
     1
 69
     0
  7
STANDARD
140
6.0
170
     5
 62
     0
 63
     7
283
     0
274
    -2
284
     1
 64
     0
275
    -2
285
     1
 65
     0
276
    -2
286
     1
 66
     0
277
    -2
287
     1
 67
     0
278
    -2
288
     1
 68
     0
279
    -2
289
     1
 69
     0
  7
STANDARD
140
4.5
170
     5
 62
     0
 63
     7
283
     0
274
    -2
284
     1
 64
     0
275
    -2
285
     1
 65
     0
276
    -2
286
     1
 66
     0
277
    -2
287
     1
 67
     0
278
    -2
288
     1
 68
     0
279
    -2
289
     1
 69
     0
  0
VISUALSTYLE
  5
B0F7
102
{ACAD_REACTORS
330
B0F1
102
}
330
B0F1
100
AcDbVisualStyle
  2
2dWireframe
 70
     4
 71
     0
 72
     2
 73
     0
 90
        0
 40
-0.6
 41
-30.0
 62
     5
 63
     7
 74
     1
 91
        4
 64
     7
 65
   257
 75
     1
175
     1
 42
1.0
 92
        0
 66
   257
 43
1.0
 76
     1
 77
     6
 78
     2
 67
     7
 79
     5
170
     0
171
     0
290
     0
174
     0
 93
        1
 44
0.0
173
     0
291
     0
 45
0.0
1001
ACAD
1000
AcDbSavedByObjectVersion
1070
     0
  0
VISUALSTYLE
  5
B0F9
102
{ACAD_REACTORS
330
B0F1
102
}
330
B0F1
100
AcDbVisualStyle
  2
3D Hidden
 70
     6
 71
     1
 72
     2
 73
     2
 90
        0
 40
-0.6
 41
-30.0
 62
     5
 63
     7
 74
     2
 91
        2
 64
     7
 65
   257
 75
     2
175
     1
 42
40.0
 92
        0
 66
   257
 43
1.0
 76
     1
 77
     6
 78
     2
 67
     7
 79
     3
170
     0
171
     0
290
     0
174
     0
 93
        1
 44
0.0
173
     0
291
     0
 45
0.0
1001
ACAD
1000
AcDbSavedByObjectVersion
1070
     0
  0
VISUALSTYLE
  5
B0F8
102
{ACAD_REACTORS
330
B0F1
102
}
330
B0F1
100
AcDbVisualStyle
  2
3dWireframe
 70
     5
 71
     0
 72
     2
 73
     0
 90
        0
 40
-0.6
 41
-30.0
 62
     5
 63
     7
 74
     1
 91
        4
 64
     7
 65
   257
 75
     1
175
     1
 42
1.0
 92
        0
 66
   257
 43
1.0
 76
     1
 77
     6
 78
     2
 67
     7
 79
     5
170
     0
171
     0
290
     0
174
     0
 93
        1
 44
0.0
173
     0
291
     0
 45
0.0
1001
ACAD
1000
AcDbSavedByObjectVersion
1070
     0
  0
VISUALSTYLE
  5
B0F6
102
{ACAD_REACTORS
330
B0F1
102
}
330
B0F1
100
AcDbVisualStyle
  2
Basic
 70
     7
 71
     1
 72
     0
 73
     1
 90
        0
 40
-0.6
 41
-30.0
 62
     5
 63
     7
 74
     0
 91
        4
 64
     7
 65
   257
 75
     1
175
     1
 42
1.0
 92
        8
 66
     7
 43
1.0
 76
     1
 77
     6
 78
     2
 67
     7
 79
     5
170
     0
171
     0
290
     0
174
     0
 93
        1
 44
0.0
173
     0
291
     1
 45
0.0
1001
ACAD
1000
AcDbSavedByObjectVersion
1070
     0
  0
VISUALSTYLE
  5
B0FD
102
{ACAD_REACTORS
330
B0F1
102
}
330
B0F1
100
AcDbVisualStyle
  2
Brighten
 70
    12
 71
     2
 72
     2
 73
     0
 90
        0
 40
-0.6
 41
-30.0
 62
     5
 63
     7
 74
     1
 91
        4
 64
     7
 65
   257
 75
     1
175
     1
 42
1.0
 92
        8
 66
     7
 43
1.0
 76
     1
 77
     6
 78
     2
 67
     7
 79
     5
170
     0
171
     0
290
     0
174
     0
 93
        1
 44
50.0
173
     0
291
     1
 45
0.0
1001
ACAD
1000
AcDbSavedByObjectVersion
1070
     0
  0
VISUALSTYLE
  5
B101
102
{ACAD_REACTORS
330
B0F1
102
}
330
B0F1
100
AcDbVisualStyle
  2
ColorChange
 70
    16
 71
     2
 72
     2
 73
     3
 90
        0
 40
-0.6
 41
-30.0
 62
     5
 63
     8
 74
     1
 91
        4
 64
     7
 65
   257
 75
     1
175
     1
 42
1.0
 92
        8
 66
     8
 43
1.0
 76
     1
 77
     6
 78
     2
 67
     7
 79
     5
170
     0
171
     0
290
     0
174
     0
 93
        1
 44
0.0
173
     0
291
     1
 45
0.0
1001
ACAD
1000
AcDbSavedByObjectVersion
1070
     0
  0
VISUALSTYLE
  5
B0FA
102
{ACAD_REACTORS
330
B0F1
102
}
330
B0F1
100
AcDbVisualStyle
  2
Conceptual
 70
     9
 71
     3
 72
     2
 73
     0
 90
        0
 40
-0.6
 41
-30.0
 62
     5
 63
     7
 74
     2
 91
        2
 64
     7
 65
   257
 75
     1
175
     1
 42
40.0
 92
        8
 66
     7
 43
1.0
 76
     1
 77
     6
 78
     2
 67
     7
 79
     3
170
     0
171
     0
290
     0
174
     0
 93
        1
 44
0.0
173
     0
291
     0
 45
0.0
1001
ACAD
1000
AcDbSavedByObjectVersion
1070
     0
  0
VISUALSTYLE
  5
B0FC
102
{ACAD_REACTORS
330
B0F1
102
}
330
B0F1
100
AcDbVisualStyle
  2
Dim
 70
    11
 71
     2
 72
     2
 73
     0
 90
        0
 40
-0.6
 41
-30.0
 62
     5
 63
     7
 74
     1
 91
        4
 64
     7
 65
   257
 75
     1
175
     1
 42
1.0
 92
        8
 66
     7
 43
1.0
 76
     1
 77
     6
 78
     2
 67
     7
 79
     5
170
     0
171
     0
290
     0
174
     0
 93
        1
 44
-50.0
173
     0
291
     1
 45
0.0
1001
ACAD
1000
AcDbSavedByObjectVersion
1070
     0
  0
VISUALSTYLE
  5
B100
102
{ACAD_REACTORS
330
B0F1
102
}
330
B0F1
100
AcDbVisualStyle
  2
Facepattern
 70
    15
 71
     2
 72
     2
 73
     0
 90
        0
 40
-0.6
 41
-30.0
 62
     5
 63
     7
 74
     1
 91
        4
 64
     7
 65
   257
 75
     1
175
     1
 42
1.0
 92
        8
 66
     7
 43
1.0
 76
     1
 77
     6
 78
     2
 67
     7
 79
     5
170
     0
171
     0
290
     0
174
     0
 93
        1
 44
0.0
173
     0
291
     1
 45
0.0
1001
ACAD
1000
AcDbSavedByObjectVersion
1070
     0
  0
VISUALSTYLE
  5
B0F2
102
{ACAD_REACTORS
330
B0F1
102
}
330
B0F1
100
AcDbVisualStyle
  2
Flat
 70
     0
 71
     2
 72
     1
 73
     1
 90
        2
 40
-0.6
 41
30.0
 62
     5
 63
     7
 74
     0
 91
        4
 64
     7
 65
   257
 75
     1
175
     1
 42
1.0
 92
        8
 66
     7
 43
1.0
 76
     1
 77
     6
 78
     2
 67
     7
 79
     5
170
     0
171
     0
290
     0
174
     0
 93
       13
 44
0.0
173
     0
291
     1
 45
0.0
1001
ACAD
1000
AcDbSavedByObjectVersion
1070
     0
  0
VISUALSTYLE
  5
B0F3
102
{ACAD_REACTORS
330
B0F1
102
}
330
B0F1
100
AcDbVisualStyle
  2
FlatWithEdges
 70
     1
 71
     2
 72
     1
 73
     1
 90
        2
 40
-0.6
 41
30.0
 62
     5
 63
     7
 74
     1
 91
        4
 64
     7
 65
   257
 75
     1
175
     1
 42
1.0
 92
        0
 66
   257
 43
1.0
 76
     1
 77
     6
 78
     2
 67
     7
 79
     5
170
     0
171
     0
290
     0
174
     0
 93
       13
 44
0.0
173
     0
291
     1
 45
0.0
1001
ACAD
1000
AcDbSavedByObjectVersion
1070
     0
  0
VISUALSTYLE
  5
B0F4
102
{ACAD_REACTORS
330
B0F1
102
}
330
B0F1
100
AcDbVisualStyle
  2
Gouraud
 70
     2
 71
     2
 72
     2
 73
     1
 90
        2
 40
-0.6
 41
30.0
 62
     5
 63
     7
 74
     0
 91
        4
 64
     7
 65
   257
 75
     1
175
     1
 42
1.0
 92
        0
 66
     7
 43
1.0
 76
     1
 77
     6
 78
     2
 67
     7
 79
     5
170
     0
171
     0
290
     0
174
     0
 93
       13
 44
0.0
173
     0
291
     1
 45
0.0
1001
ACAD
1000
AcDbSavedByObjectVersion
1070
     0
  0
VISUALSTYLE
  5
B0F5
102
{ACAD_REACTORS
330
B0F1
102
}
330
B0F1
100
AcDbVisualStyle
  2
GouraudWithEdges
 70
     3
 71
     2
 72
     2
 73
     1
 90
        2
 40
-0.6
 41
30.0
 62
     5
 63
     7
 74
     1
 91
        4
 64
     7
 65
   257
 75
     1
175
     1
 42
1.0
 92
        0
 66
   257
 43
1.0
 76
     1
 77
     6
 78
     2
 67
     7
 79
     5
170
     0
171
     0
290
     0
174
     0
 93
       13
 44
0.0
173
     0
291
     1
 45
0.0
1001
ACAD
1000
AcDbSavedByObjectVersion
1070
     0
  0
VISUALSTYLE
  5
B0FF
102
{ACAD_REACTORS
330
B0F1
102
}
330
B0F1
100
AcDbVisualStyle
  2
Linepattern
 70
    14
 71
     2
 72
     2
 73
     0
 90
        0
 40
-0.6
 41
-30.0
 62
     5
 63
     7
 74
     1
 91
        4
 64
     7
 65
   257
 75
     7
175
     7
 42
1.0
 92
        8
 66
     7
 43
1.0
 76
     1
 77
     6
 78
     2
 67
     7
 79
     5
170
     0
171
     0
290
     0
174
     0
 93
        1
 44
0.0
173
     0
291
     1
 45
0.0
1001
ACAD
1000
AcDbSavedByObjectVersion
1070
     0
  0
VISUALSTYLE
  5
B0FB
102
{ACAD_REACTORS
330
B0F1
102
}
330
B0F1
100
AcDbVisualStyle
  2
Realistic
 70
     8
 71
     2
 72
     2
 73
     0
 90
        0
 40
-0.6
 41
-30.0
 62
     5
 63
     7
 74
     1
 91
        0
 64
     7
 65
   257
 75
     1
175
     1
 42
1.0
 92
        8
 66
     8
 43
1.0
 76
     1
 77
     6
 78
     2
 67
     7
 79
     5
170
     0
171
     0
290
     0
174
     0
 93
       13
 44
0.0
173
     0
291
     0
 45
0.0
1001
ACAD
1000
AcDbSavedByObjectVersion
1070
     0
  0
VISUALSTYLE
  5
B0FE
102
{ACAD_REACTORS
330
B0F1
102
}
330
B0F1
100
AcDbVisualStyle
  2
Thicken
 70
    13
 71
     2
 72
     2
 73
     0
 90
        0
 40
-0.6
 41
-30.0
 62
     5
 63
     7
 74
     1
 91
        4
 64
     7
 65
   257
 75
     1
175
     1
 42
1.0
 92
       12
 66
     7
 43
1.0
 76
     1
 77
     6
 78
     2
 67
     7
 79
     5
170
     0
171
     0
290
     0
174
     0
 93
        1
 44
0.0
173
     0
291
     1
 45
0.0
1001
ACAD
1000
AcDbSavedByObjectVersion
1070
     0
  0
DICTIONARYVAR
  5
AAF3
102
{ACAD_REACTORS
330
34
102
}
330
34
100
DictionaryVariables
280
     0
  1
STANDARD
  0
DICTIONARYVAR
  5
A10C
102
{ACAD_REACTORS
330
34
102
}
330
34
100
DictionaryVariables
280
     0
  1
1
  0
DICTIONARYVAR
  5
AB07
102
{ACAD_REACTORS
330
34
102
}
330
34
100
DictionaryVariables
280
     0
  1
4
  0
DICTIONARYVAR
  5
35
102
{ACAD_REACTORS
330
34
102
}
330
34
100
DictionaryVariables
280
     0
  1
0
  0
DICTIONARYVAR
  5
194C
102
{ACAD_REACTORS
330
34
102
}
330
34
100
DictionaryVariables
280
     0
  1
96
  0
DICTIONARY
  5
7E8
102
{ACAD_REACTORS
330
47
102
}
330
47
100
AcDbDictionary
281
     1
  0
DICTIONARY
  5
4C
102
{ACAD_REACTORS
330
47
102
}
330
47
100
AcDbDictionary
281
     1
  0
XRECORD
  5
A929
102
{ACAD_REACTORS
330
47
102
}
330
47
100
AcDbXrecord
280
     1
 90
-1023410169
  0
XRECORD
  5
B332
102
{ACAD_REACTORS
330
B331
102
}
330
B331
100
AcDbXrecord
280
     1
  0
XRECORD
  5
3FB7
102
{ACAD_REACTORS
330
3F96
102
}
330
3F96
100
AcDbXrecord
280
     1
 91
        3
330
0
 90
        8
 62
     7
370
    40
331
16
  1
Color_7
330
0
 90
        0
 62
    14
370
    -3
331
16
  1
Color_14
330
0
 90
        8
 62
     7
370
    20
331
16
  1
Color_7
330
6D1
 90
        0
 62
     7
370
    -3
331
16
  1
Color_7
330
0
 90
        8
 62
     7
370
    50
331
16
  1
Color_7
330
0
 90
        8
 62
     2
370
    35
331
16
  1
Color_2
330
0
 90
        8
 62
     7
370
    -3
331
16
  1
Color_7
330
10
 90
        8
 62
     7
370
    -3
331
16
  1
Color_7
  0
DICTIONARY
  5
DCBA
330
22
100
AcDbDictionary
280
     1
281
     1
  3
ACAD_XREC_ROUNDTRIP
360
DCBB
  0
DICTIONARY
  5
DCB8
330
1E
100
AcDbDictionary
280
     1
281
     1
  3
ACAD_XREC_ROUNDTRIP
360
DCB9
  0
DICTIONARY
  5
DCBC
330
26
100
AcDbDictionary
280
     1
281
     1
  3
ACAD_XREC_ROUNDTRIP
360
DCBD
  0
DICTIONARY
  5
DCC2
330
B0EF
100
AcDbDictionary
280
     1
281
     1
  3
ACAD_XREC_ROUNDTRIP
360
DCC3
  0
DICTIONARY
  5
DCC0
330
B0EE
100
AcDbDictionary
280
     1
281
     1
  3
ACAD_XREC_ROUNDTRIP
360
DCC1
  0
DICTIONARY
  5
DCC4
330
B0F0
100
AcDbDictionary
280
     1
281
     1
  3
ACAD_XREC_ROUNDTRIP
360
DCC5
  0
DICTIONARY
  5
DCBE
330
AABA
100
AcDbDictionary
280
     1
281
     1
  3
ACAD_XREC_ROUNDTRIP
360
DCBF
  0
XRECORD
  5
DCBB
102
{ACAD_REACTORS
330
DCBA
102
}
330
DCBA
100
AcDbXrecord
280
     1
102
SHADEPLOT
 70
     0
102
SHADEPLOTRESLEVEL
 70
     2
102
SHADEPLOTCUSTOMDPI
 70
   200
  0
XRECORD
  5
DCB9
102
{ACAD_REACTORS
330
DCB8
102
}
330
DCB8
100
AcDbXrecord
280
     1
102
SHADEPLOT
 70
     0
102
SHADEPLOTRESLEVEL
 70
     2
102
SHADEPLOTCUSTOMDPI
 70
   300
  0
XRECORD
  5
DCBD
102
{ACAD_REACTORS
330
DCBC
102
}
330
DCBC
100
AcDbXrecord
280
     1
102
SHADEPLOT
 70
     0
102
SHADEPLOTRESLEVEL
 70
     2
102
SHADEPLOTCUSTOMDPI
 70
   300
  0
XRECORD
  5
DCC3
102
{ACAD_REACTORS
330
DCC2
102
}
330
DCC2
100
AcDbXrecord
280
     1
102
MATERIAL
148
0.0
149
0.0
149
0.0
 93
        0
 94
       63
282
     0
 72
     1
 77
     1
171
     1
175
     1
179
     1
273
     0
  0
XRECORD
  5
DCC1
102
{ACAD_REACTORS
330
DCC0
102
}
330
DCC0
100
AcDbXrecord
280
     1
102
MATERIAL
148
0.0
149
0.0
149
0.0
 93
        0
 94
       63
282
     0
 72
     1
 77
     1
171
     1
175
     1
179
     1
273
     0
  0
XRECORD
  5
DCC5
102
{ACAD_REACTORS
330
DCC4
102
}
330
DCC4
100
AcDbXrecord
280
     1
102
MATERIAL
148
0.0
149
0.0
149
0.0
 93
        0
 94
       63
282
     0
 72
     1
 77
     1
171
     1
175
     1
179
     1
273
     0
  0
XRECORD
  5
DCBF
102
{ACAD_REACTORS
330
DCBE
102
}
330
DCBE
100
AcDbXrecord
280
     1
102
ACAD_ROUNDTRIP_PRE2007_TABLESTYLE
 90
        4
 91
        0
  1

 92
        4
 93
        0
  2

 94
        4
 95
        0
  3

  0
ENDSEC
  0
EOF
