  0
SECTION
  2
HEADER
  9
$ACADVER
  1
AC1015
  9
$ACADMAINTVER
 70
    20
  9
$DWGCODEPAGE
  3
ANSI_932
  9
$INSBASE
 10
0.0
 20
0.0
 30
0.0
  9
$EXTMIN
 10
0.0
 20
0.0
 30
0.0
  9
$EXTMAX
 10
594.0
 20
420.0
 30
0.0
  9
$LIMMIN
 10
209.1693648837317
 20
1130.886483692677
  9
$LIMMAX
 10
803.1693648837316
 20
1550.886483692677
  9
$ORTHOMODE
 70
     0
  9
$REGENMODE
 70
     1
  9
$FILLMODE
 70
     1
  9
$QTEXTMODE
 70
     0
  9
$MIRRTEXT
 70
     0
  9
$LTSCALE
 40
1.0
  9
$ATTMODE
 70
     1
  9
$TEXTSIZE
 40
3.2
  9
$TRACEWID
 40
1.0
  9
$TEXTSTYLE
  7
STANDARD
  9
$CLAYER
  8
AM_0
  9
$CELTYPE
  6
ByLayer
  9
$CECOLOR
 62
   256
  9
$CELTSCALE
 40
1.0
  9
$DISPSILH
 70
     0
  9
$DIMSCALE
 40
1.0
  9
$DIMASZ
 40
2.5
  9
$DIMEXO
 40
1.0
  9
$DIMDLI
 40
10.0
  9
$DIMRND
 40
0.0
  9
$DIMDLE
 40
0.0
  9
$DIMEXE
 40
1.0
  9
$DIMTP
 40
0.1
  9
$DIMTM
 40
0.1
  9
$DIMTXT
 40
3.5
  9
$DIMCEN
 40
0.0
  9
$DIMTSZ
 40
0.0
  9
$DIMTOL
 70
     0
  9
$DIMLIM
 70
     0
  9
$DIMTIH
 70
     0
  9
$DIMTOH
 70
     0
  9
$DIMSE1
 70
     0
  9
$DIMSE2
 70
     0
  9
$DIMTAD
 70
     1
  9
$DIMZIN
 70
     8
  9
$DIMBLK
  1

  9
$DIMASO
 70
     1
  9
$DIMSHO
 70
     1
  9
$DIMPOST
  1

  9
$DIMAPOST
  1
"
  9
$DIMALT
 70
     0
  9
$DIMALTD
 70
     2
  9
$DIMALTF
 40
0.0393701
  9
$DIMLFAC
 40
1.0
  9
$DIMTOFL
 70
     1
  9
$DIMTVP
 40
0.0
  9
$DIMTIX
 70
     0
  9
$DIMSOXD
 70
     0
  9
$DIMSAH
 70
     0
  9
$DIMBLK1
  1

  9
$DIMBLK2
  1

  9
$DIMSTYLE
  2
SYS
  9
$DIMCLRD
 70
   256
  9
$DIMCLRE
 70
   256
  9
$DIMCLRT
 70
     7
  9
$DIMTFAC
 40
0.71
  9
$DIMGAP
 40
1.5
  9
$DIMJUST
 70
     0
  9
$DIMSD1
 70
     0
  9
$DIMSD2
 70
     0
  9
$DIMTOLJ
 70
     0
  9
$DIMTZIN
 70
     8
  9
$DIMALTZ
 70
     0
  9
$DIMALTTZ
 70
     0
  9
$DIMUPT
 70
     0
  9
$DIMDEC
 70
     0
  9
$DIMTDEC
 70
     3
  9
$DIMALTU
 70
     2
  9
$DIMALTTD
 70
     4
  9
$DIMTXSTY
  7
STANDARD
  9
$DIMAUNIT
 70
     0
  9
$DIMADEC
 70
     0
  9
$DIMALTRND
 40
0.0
  9
$DIMAZIN
 70
     2
  9
$DIMDSEP
 70
    46
  9
$DIMATFIT
 70
     3
  9
$DIMFRAC
 70
     0
  9
$DIMLDRBLK
  1

  9
$DIMLUNIT
 70
     2
  9
$DIMLWD
 70
    -1
  9
$DIMLWE
 70
    -1
  9
$DIMTMOVE
 70
     0
  9
$LUNITS
 70
     2
  9
$LUPREC
 70
     2
  9
$SKETCHINC
 40
1.0
  9
$FILLETRAD
 40
1.0
  9
$AUNITS
 70
     0
  9
$AUPREC
 70
     0
  9
$MENU
  1
.
  9
$ELEVATION
 40
0.0
  9
$PELEVATION
 40
0.0
  9
$THICKNESS
 40
0.0
  9
$LIMCHECK
 70
     0
  9
$CHAMFERA
 40
0.0
  9
$CHAMFERB
 40
0.0
  9
$CHAMFERC
 40
20.0
  9
$CHAMFERD
 40
0.0
  9
$SKPOLY
 70
     0
  9
$TDCREATE
 40
2452685.852405590
  9
$TDUCREATE
 40
2452685.477405591
  9
$TDUPDATE
 40
2454330.579990231
  9
$TDUUPDATE
 40
2454330.204990232
  9
$TDINDWG
 40
1.0145139120
  9
$TDUSRTIMER
 40
1.0145104745
  9
$USRTIMER
 70
     1
  9
$ANGBASE
 50
0.0
  9
$ANGDIR
 70
     0
  9
$PDMODE
 70
     0
  9
$PDSIZE
 40
-3.0
  9
$PLINEWID
 40
0.0
  9
$SPLFRAME
 70
     0
  9
$SPLINETYPE
 70
     6
  9
$SPLINESEGS
 70
     8
  9
$HANDSEED
  5
E606
  9
$SURFTAB1
 70
     6
  9
$SURFTAB2
 70
     6
  9
$SURFTYPE
 70
     6
  9
$SURFU
 70
     6
  9
$SURFV
 70
     6
  9
$UCSBASE
  2

  9
$UCSNAME
  2

  9
$UCSORG
 10
0.0
 20
0.0
 30
0.0
  9
$UCSXDIR
 10
1.0
 20
0.0
 30
0.0
  9
$UCSYDIR
 10
0.0
 20
1.0
 30
0.0
  9
$UCSORTHOREF
  2

  9
$UCSORTHOVIEW
 70
     0
  9
$UCSORGTOP
 10
0.0
 20
0.0
 30
0.0
  9
$UCSORGBOTTOM
 10
0.0
 20
0.0
 30
0.0
  9
$UCSORGLEFT
 10
0.0
 20
0.0
 30
0.0
  9
$UCSORGRIGHT
 10
0.0
 20
0.0
 30
0.0
  9
$UCSORGFRONT
 10
0.0
 20
0.0
 30
0.0
  9
$UCSORGBACK
 10
0.0
 20
0.0
 30
0.0
  9
$PUCSBASE
  2

  9
$PUCSNAME
  2

  9
$PUCSORG
 10
0.0
 20
0.0
 30
0.0
  9
$PUCSXDIR
 10
1.0
 20
0.0
 30
0.0
  9
$PUCSYDIR
 10
0.0
 20
1.0
 30
0.0
  9
$PUCSORTHOREF
  2

  9
$PUCSORTHOVIEW
 70
     0
  9
$PUCSORGTOP
 10
0.0
 20
0.0
 30
0.0
  9
$PUCSORGBOTTOM
 10
0.0
 20
0.0
 30
0.0
  9
$PUCSORGLEFT
 10
0.0
 20
0.0
 30
0.0
  9
$PUCSORGRIGHT
 10
0.0
 20
0.0
 30
0.0
  9
$PUCSORGFRONT
 10
0.0
 20
0.0
 30
0.0
  9
$PUCSORGBACK
 10
0.0
 20
0.0
 30
0.0
  9
$USERI1
 70
     0
  9
$USERI2
 70
     0
  9
$USERI3
 70
     0
  9
$USERI4
 70
     0
  9
$USERI5
 70
     0
  9
$USERR1
 40
0.0
  9
$USERR2
 40
0.0
  9
$USERR3
 40
0.0
  9
$USERR4
 40
0.0
  9
$USERR5
 40
0.0
  9
$WORLDVIEW
 70
     1
  9
$SHADEDGE
 70
     3
  9
$SHADEDIF
 70
    70
  9
$TILEMODE
 70
     1
  9
$MAXACTVP
 70
    64
  9
$PINSBASE
 10
0.0
 20
0.0
 30
0.0
  9
$PLIMCHECK
 70
     0
  9
$PEXTMIN
 10
1.000000000000000E+20
 20
1.000000000000000E+20
 30
1.000000000000000E+20
  9
$PEXTMAX
 10
-1.000000000000000E+20
 20
-1.000000000000000E+20
 30
-1.000000000000000E+20
  9
$PLIMMIN
 10
-3.17498779296875
 20
-3.174999952316284
  9
$PLIMMAX
 10
293.4970092773438
 20
206.692492723465
  9
$UNITMODE
 70
     0
  9
$VISRETAIN
 70
     1
  9
$PLINEGEN
 70
     0
  9
$PSLTSCALE
 70
     1
  9
$TREEDEPTH
 70
  3020
  9
$CMLSTYLE
  2
Standard
  9
$CMLJUST
 70
     0
  9
$CMLSCALE
 40
20.0
  9
$PROXYGRAPHICS
 70
     1
  9
$MEASUREMENT
 70
     1
  9
$CELWEIGHT
370
    -1
  9
$ENDCAPS
280
     0
  9
$JOINSTYLE
280
     0
  9
$LWDISPLAY
290
     0
  9
$INSUNITS
 70
     4
  9
$HYPERLINKBASE
  1

  9
$STYLESHEET
  1
monochrome.ctb
  9
$XEDIT
290
     1
  9
$CEPSNTYPE
380
     0
  9
$PSTYLEMODE
290
     1
  9
$FINGERPRINTGUID
  2
{83FB3AA1-FF18-4BFE-AFE0-611B71DE056D}
  9
$VERSIONGUID
  2
{C1F7C76F-9D4B-4F2D-9CCE-DD2DB0D1A63F}
  9
$EXTNAMES
290
     1
  9
$PSVPSCALE
 40
0.0
  9
$OLESTARTUP
290
     0
  0
ENDSEC
  0
SECTION
  2
CLASSES
  0
CLASS
  1
ACDBDICTIONARYWDFLT
  2
AcDbDictionaryWithDefault
  3
ObjectDBX Classes
 90
        0
280
     0
281
     0
  0
CLASS
  1
ACDBPLACEHOLDER
  2
AcDbPlaceHolder
  3
ObjectDBX Classes
 90
        0
280
     0
281
     0
  0
CLASS
  1
LAYOUT
  2
AcDbLayout
  3
ObjectDBX Classes
 90
        0
280
     0
281
     0
  0
CLASS
  1
AMGSETTINGSOBJ
  2
AmgSettingsObj
  3
"AcadM|Product Description: AutoCAD Mechanical|Company: Autodesk"
 90
        0
280
     0
281
     0
  0
CLASS
  1
ACME_DOCUMENT
  2
AcMeDbDoc
  3
AcMeServices
 90
        0
280
     0
281
     0
  0
CLASS
  1
ACMESCOPE
  2
AcMeScope
  3
AcMeServices
 90
        0
280
     0
281
     0
  0
CLASS
  1
ACMECOMMANDHISTORY
  2
AcMeCommandHistory
  3
AcMeServices
 90
        0
280
     0
281
     0
  0
CLASS
  1
DICTIONARYVAR
  2
AcDbDictionaryVar
  3
ObjectDBX Classes
 90
        0
280
     0
281
     0
  0
CLASS
  1
ACIMSYSVARMAN
  2
AcImSysVarManager
  3
AcMeServices
 90
        0
280
     0
281
     0
  0
CLASS
  1
ACIMREALSYSVAR
  2
AcImRealSysVar
  3
AcMeServices
 90
        0
280
     0
281
     0
  0
CLASS
  1
ACIMINTSYSVAR
  2
AcImIntSysVar
  3
AcMeServices
 90
        0
280
     0
281
     0
  0
CLASS
  1
ACMEDRAWINGMAN
  2
AcMeDrawingMan
  3
AcMeServices
 90
        0
280
     0
281
     0
  0
CLASS
  1
ACMEVIEW
  2
AcMeView
  3
AcMeServices
 90
        0
280
     0
281
     0
  0
CLASS
  1
ACDBENTITYCACHE
  2
AcMeEntityCache
  3
AcMeServices
 90
        0
280
     0
281
     0
  0
CLASS
  1
GSMANAGER
  2
AcMeGSManager
  3
AcMeServices
 90
        0
280
     0
281
     0
  0
CLASS
  1
AMDTINTERNALREACTOR
  2
AmdtInternalReactor
  3
AcMeServices
 90
        0
280
     0
281
     0
  0
CLASS
  1
ACMESTATEMGR
  2
AcMeStateMgr
  3
AcMeServices
 90
        0
280
     0
281
     0
  0
CLASS
  1
ACGREFMASTER
  2
AcGrefMaster
  3
AcAttribServices
 90
        0
280
     0
281
     0
  0
CLASS
  1
ACME_DATABASE
  2
AcMeDbDatabase
  3
AcMeServices
 90
        0
280
     0
281
     0
  0
CLASS
  1
ACRFINSADJUSTERMGR
  2
AcRfInsAdjusterMgr
  3
AcMeServices
 90
        0
280
     0
281
     0
  0
CLASS
  1
ACGREFACADMASTER
  2
AcGrefacadMaster
  3
AcGrefServices
 90
        0
280
     0
281
     0
  0
CLASS
  1
AMIMASTER
  2
AmiMaster
  3
AmiServices
 90
        0
280
     0
281
     0
  0
CLASS
  1
ACMDATADICTIONARY
  2
AcmDataDictionary
  3
"AcmSymBB|Product Description: AutoCAD Mechanical|Company: Autodesk"
 90
        0
280
     0
281
     0
  0
CLASS
  1
ACMDATAENTRYBLOCK
  2
AcmDataEntryBlock
  3
"AcmSymBB|Product Description: AutoCAD Mechanical|Company: Autodesk"
 90
        0
280
     0
281
     0
  0
CLASS
  1
ACIMSTRSYSVAR
  2
AcImStrSysVar
  3
AcMeServices
 90
        0
280
     0
281
     0
  0
CLASS
  1
ACMSTANDARDISO
  2
AcmStandardISO
  3
"Amdt_StdImp|Product Description: AutoCAD Mechanical|Company: Autodesk"
 90
        0
280
     0
281
     0
  0
CLASS
  1
AMGOBJPROPCFG
  2
AmgObjPropCfg
  3
"AmgLay|Product Description: AutoCAD Mechanical|Company: Autodesk"
 90
        1
280
     0
281
     0
  0
CLASS
  1
AMDTEDGESTANDARDISO
  2
AmdtEdgeStdISO
  3
"Amdt_StdImp|Product Description: AutoCAD Mechanical|Company: Autodesk"
 90
        0
280
     0
281
     0
  0
CLASS
  1
ACMSURFSTANDARDISO
  2
AcmSurfTextStdISO
  3
"Amdt_StdImp|Product Description: AutoCAD Mechanical|Company: Autodesk"
 90
        0
280
     0
281
     0
  0
CLASS
  1
ACMFCFSTANDARDISO
  2
AcmFCFStdISO
  3
"Amdt_StdImp|Product Description: AutoCAD Mechanical|Company: Autodesk"
 90
        0
280
     0
281
     0
  0
CLASS
  1
ACMWELDSTANDARDISO
  2
AcmWeldingStdISO
  3
"Amdt_StdImp|Product Description: AutoCAD Mechanical|Company: Autodesk"
 90
        0
280
     0
281
     0
  0
CLASS
  1
ACMIDSTANDARDISO
  2
AcmIdStdISO
  3
"Amdt_StdImp|Product Description: AutoCAD Mechanical|Company: Autodesk"
 90
        0
280
     0
281
     0
  0
CLASS
  1
ACMDATUMSTANDARDISO
  2
AcmDatumStdISO
  3
"Amdt_StdImp|Product Description: AutoCAD Mechanical|Company: Autodesk"
 90
        0
280
     0
281
     0
  0
CLASS
  1
ACMBOMSTANDARDISO
  2
AcmBOMStdISO
  3
"Amdt_StdImp|Product Description: AutoCAD Mechanical|Company: Autodesk"
 90
        0
280
     0
281
     0
  0
CLASS
  1
ACMDETAILSTANDARDISO
  2
AmdtDetailSymStdISO
  3
"Amdt_StdImp|Product Description: AutoCAD Mechanical|Company: Autodesk"
 90
        0
280
     0
281
     0
  0
CLASS
  1
ACMSECTIONSTANDARDISO
  2
AmdtSectionSymStdISO
  3
"Amdt_StdImp|Product Description: AutoCAD Mechanical|Company: Autodesk"
 90
        0
280
     0
281
     0
  0
CLASS
  1
ACMCENTERLINESTANDARDISO
  2
AmdtCenterLineStdISO
  3
"Amdt_StdImp|Product Description: AutoCAD Mechanical|Company: Autodesk"
 90
        0
280
     0
281
     0
  0
CLASS
  1
ACAMGLAYSTD
  2
AcAmgLayStd
  3
"AmgLay|Product Description: AutoCAD Mechanical|Company: Autodesk"
 90
        0
280
     0
281
     0
  0
CLASS
  1
ACAMGDIMSTD
  2
AcAmgDimStd
  3
"AmgDim|Product Description: AutoCAD Mechanical|Company: Autodesk"
 90
        0
280
     0
281
     0
  0
CLASS
  1
ACAMGTITLESTD
  2
AcAmgTitleStd
  3
"AmgTitle|Product Description: AutoCAD Mechanical|Company: Autodesk"
 90
        0
280
     0
281
     0
  0
CLASS
  1
ACAMGFILTERDAT
  2
AcAmgFilterDat
  3
"AcadM|Product Description: AutoCAD Mechanical|Company: Autodesk"
 90
        0
280
     0
281
     0
  0
CLASS
  1
LAYER_INDEX
  2
AcDbLayerIndex
  3
ObjectDBX Classes
 90
    32768
280
     0
281
     0
  0
CLASS
  1
IDBUFFER
  2
AcDbIdBuffer
  3
ObjectDBX Classes
 90
    32768
280
     0
281
     0
  0
CLASS
  1
PLOTSETTINGS
  2
AcDbPlotSettings
  3
ObjectDBX Classes
 90
        0
280
     0
281
     0
  0
CLASS
  1
AMDTFORMULAUPDATEDISPATCHER
  2
AmdtFormulaUpdateDispatcher
  3
AcMeServices
 90
        0
280
     0
281
     0
  0
CLASS
  1
ACMSTANDARDANSI
  2
AcmStandardANSI
  3
"Amdt_StdImp|Product Description: AutoCAD Mechanical|Company: Autodesk"
 90
        0
280
     0
281
     0
  0
CLASS
  1
ACMSURFSTANDARDANSI
  2
AcmSurfTextStdANSI
  3
"Amdt_StdImp|Product Description: AutoCAD Mechanical|Company: Autodesk"
 90
        0
280
     0
281
     0
  0
CLASS
  1
ACMFCFSTANDARDANSI
  2
AcmFCFStdANSI
  3
"Amdt_StdImp|Product Description: AutoCAD Mechanical|Company: Autodesk"
 90
        0
280
     0
281
     0
  0
CLASS
  1
ACMWELDSTANDARDANSI
  2
AcmWeldingStdANSI
  3
"Amdt_StdImp|Product Description: AutoCAD Mechanical|Company: Autodesk"
 90
        0
280
     0
281
     0
  0
CLASS
  1
ACMIDSTANDARDANSI
  2
AcmIdStdANSI
  3
"Amdt_StdImp|Product Description: AutoCAD Mechanical|Company: Autodesk"
 90
        0
280
     0
281
     0
  0
CLASS
  1
ACMDATUMSTANDARDANSI
  2
AcmDatumStdANSI
  3
"Amdt_StdImp|Product Description: AutoCAD Mechanical|Company: Autodesk"
 90
        0
280
     0
281
     0
  0
CLASS
  1
ACMBOMSTANDARDANSI
  2
AcmBOMStdANSI
  3
"Amdt_StdImp|Product Description: AutoCAD Mechanical|Company: Autodesk"
 90
        0
280
     0
281
     0
  0
CLASS
  1
ACMDETAILSTANDARDANSI
  2
AmdtDetailSymStdANSI
  3
"Amdt_StdImp|Product Description: AutoCAD Mechanical|Company: Autodesk"
 90
        0
280
     0
281
     0
  0
CLASS
  1
ACMSECTIONSTANDARDANSI
  2
AmdtSectionSymStdANSI
  3
"Amdt_StdImp|Product Description: AutoCAD Mechanical|Company: Autodesk"
 90
        0
280
     0
281
     0
  0
CLASS
  1
ACMCENTERLINESTANDARDANSI
  2
AmdtCenterLineStdANSI
  3
"Amdt_StdImp|Product Description: AutoCAD Mechanical|Company: Autodesk"
 90
        0
280
     0
281
     0
  0
CLASS
  1
ACMBOM
  2
AcmBom
  3
"AcmSymBB|Product Description: AutoCAD Mechanical|Company: Autodesk"
 90
        0
280
     0
281
     0
  0
CLASS
  1
ACMDATAENTRYPART
  2
AcmDataEntryPart
  3
"AcmSymBB|Product Description: AutoCAD Mechanical|Company: Autodesk"
 90
    32768
280
     0
281
     0
  0
CLASS
  1
ACMPARTREF
  2
AcmPartRef
  3
"AcmSymBB|Product Description: AutoCAD Mechanical|Company: Autodesk"
 90
    35839
280
     0
281
     1
  0
CLASS
  1
ACDBCIRCARCRES
  2
AcDbCircArcRes
  3
AcGrefServices
 90
    32768
280
     0
281
     0
  0
CLASS
  1
ACMBOMROW
  2
AcmBomRow
  3
"AcmSymBB|Product Description: AutoCAD Mechanical|Company: Autodesk"
 90
    32768
280
     0
281
     0
  0
CLASS
  1
ACMBALLOON
  2
AcmBalloon
  3
"AcmSymBB|Product Description: AutoCAD Mechanical|Company: Autodesk"
 90
    35839
280
     0
281
     1
  0
CLASS
  1
AMDTNOTE
  2
AmdtNote
  3
"AcmSymBB|Product Description: AutoCAD Mechanical|Company: Autodesk"
 90
    35839
280
     0
281
     1
  0
CLASS
  1
STDPART2D
  2
AmgStdPart
  3
"g3vace|Class: AmgStdPart|Product Description: AutoCAD Mechanical|Company: Autodesk"
 90
    35839
280
     0
281
     1
  0
CLASS
  1
ACDBSTDPARTRES_LINE
  2
AcDbStdPartRes_Line
  3
"g3vace|Class: AcDbStdPartRes_Line|Product Description: AutoCAD Mechanical|Company: Autodesk"
 90
    32768
280
     0
281
     0
  0
CLASS
  1
ACMDATAENTRY
  2
AcmDataEntry
  3
"AcmSymBB|Product Description: AutoCAD Mechanical|Company: Autodesk"
 90
        0
280
     0
281
     0
  0
CLASS
  1
ACDBOPPOLYLINERES
  2
AcDbOpPolylineRes
  3
AcGrefServices
 90
    32768
280
     0
281
     0
  0
CLASS
  1
ACMPARTLIST
  2
AcmPartList
  3
"AcmSymBB|Product Description: AutoCAD Mechanical|Company: Autodesk"
 90
    35839
280
     0
281
     1
  0
CLASS
  1
ACDBLINERES
  2
AcDbLineRes
  3
AcGrefServices
 90
    32768
280
     0
281
     0
  0
CLASS
  1
ACRFINSADJ
  2
AcRfInsAdjuster
  3
AcMeServices
 90
    32768
280
     0
281
     0
  0
CLASS
  1
AM_DRAWING_MGR
  2
AcDmDwgMgr
  3
AcMechDwgViewMgmt
 90
        0
280
     0
281
     0
  0
CLASS
  1
AM_DWG_DOCUMENT
  2
AcDmDwgDocument
  3
AcMechDwgViewMgmt
 90
        0
280
     0
281
     0
  0
CLASS
  1
AM_DWG_SHEET
  2
AcDmSheet
  3
AcMechDwgViewMgmt
 90
        0
280
     0
281
     0
  0
CLASS
  1
AM_VIEWDIMPARMAP
  2
AcDmViewDimParMap
  3
AcMechDwgViewMgmt
 90
        0
280
     0
281
     0
  0
CLASS
  1
AM_DWGMGR_NAME
  2
AcDmDwgMgrName
  3
AcMechDwgViewMgmt
 90
        0
280
     0
281
     0
  0
CLASS
  1
AMDTMENUSTATEMGR
  2
AmdtMenuStateMgr
  3
McadcomServices
 90
        0
280
     0
281
     0
  0
CLASS
  1
AMDTMCOMMENUSTATE
  2
AmdtMcomMenuState
  3
McadcomServices
 90
        0
280
     0
281
     0
  0
CLASS
  1
ASAPP
  2
AcAsAppObject
  3
AutoSurfServices
 90
        0
280
     0
281
     0
  0
CLASS
  1
IM_STATIC_MAN
  2
AcImStaticVarManager
  3
AcMeServices
 90
        0
280
     0
281
     0
  0
CLASS
  1
ACIMDBLSTATICVAR
  2
AcImDblStaticVar
  3
AcMeServices
 90
        0
280
     0
281
     0
  0
CLASS
  1
ACIMSTRSTATICVAR
  2
AcImStrStaticVar
  3
AcMeServices
 90
        0
280
     0
281
     0
  0
CLASS
  1
ACIMINTSTATICVAR
  2
AcImIntStaticVar
  3
AcMeServices
 90
        0
280
     0
281
     0
  0
CLASS
  1
ACASGREFMASTER
  2
AcAsGrefMaster
  3
AutoSurfResolverServices
 90
        0
280
     0
281
     0
  0
CLASS
  1
ACADGREFMODULE
  2
AcAdGrefModule
  3
AdGrefServices
 90
        0
280
     0
281
     0
  0
CLASS
  1
AMDTMAPISURFMOUDULE
  2
AmdtMApiSurfModule
  3
MApiSurfServices
 90
        0
280
     0
281
     0
  0
CLASS
  1
MAPIAMMOUDLE
  2
MApiAmModule
  3
MApiAmServices
 90
        0
280
     0
281
     0
  0
CLASS
  1
AMDTADMENUSTATE
  2
AmdtAdMenuState
  3
DesignerServices
 90
        0
280
     0
281
     0
  0
CLASS
  1
ADAPPL
  2
AcAdAppl
  3
DesignerServices
 90
        0
280
     0
281
     0
  0
CLASS
  1
DEPMGR
  2
AcAdDepMgr
  3
DesignerServices
 90
        0
280
     0
281
     0
  0
CLASS
  1
PARAMMGR
  2
AcAdParamMgr
  3
DesignerServices
 90
        0
280
     0
281
     0
  0
CLASS
  1
PARAMSCOPE
  2
AcAdParamScope
  3
DesignerServices
 90
        0
280
     0
281
     0
  0
CLASS
  1
NAMEDAPPL
  2
AcAdNamedAppl
  3
DesignerServices
 90
        0
280
     0
281
     0
  0
CLASS
  1
ADHNTMPLT
  2
AdHoleNoteTemplateMgr
  3
DesignerServices
 90
    32768
280
     0
281
     0
  0
CLASS
  1
AM_HNTEMPLATE_MGR_NAME
  2
AdHoleNoteTemplateMgrName
  3
DesignerServices
 90
    32768
280
     0
281
     0
  0
CLASS
  1
AMDTDMMENUSTATE
  2
AmdtDmMenuState
  3
AcMechDwgViewMgmt
 90
        0
280
     0
281
     0
  0
CLASS
  1
MAPIADMODULE
  2
MApiAdModule
  3
MApiAdServices
 90
        0
280
     0
281
     0
  0
CLASS
  1
AMDTAMMENUSTATE
  2
AmdtAmMenuState
  3
DesignerAssemblies
 90
        0
280
     0
281
     0
  0
CLASS
  1
ACAMPROJECT
  2
AcAmProject
  3
DesignerAssemblies
 90
        0
280
     0
281
     0
  0
CLASS
  1
ACAMGRCOMPDEF
  2
AcAmGrCompDef
  3
DesignerAssemblies
 90
        0
280
     0
281
     0
  0
CLASS
  1
ACCMCONTEXT
  2
AcCmContext
  3
DesignerAssemblies
 90
        0
280
     0
281
     0
  0
CLASS
  1
ACAMCOMPDEF
  2
AcAmCompDef
  3
DesignerAssemblies
 90
        0
280
     0
281
     0
  0
CLASS
  1
ACAMCOMPDEFMGR
  2
AcAmCompDefMgr
  3
DesignerAssemblies
 90
        0
280
     0
281
     0
  0
CLASS
  1
AMCONTEXTMGR
  2
AcAmContextMgr
  3
DesignerAssemblies
 90
        0
280
     0
281
     0
  0
CLASS
  1
ACAMCONTEXTMODELER
  2
AcAmContextModeler
  3
DesignerAssemblies
 90
        0
280
     0
281
     0
  0
CLASS
  1
CATALOGSTATE
  2
AcAmCatalogState
  3
DesignerAssemblies
 90
        0
280
     0
281
     0
  0
CLASS
  1
ACAMGRCOMPDEFSET
  2
AcAmGrCompDefSet
  3
DesignerAssemblies
 90
        0
280
     0
281
     0
  0
CLASS
  1
AMDTBROWSERDBTAB
  2
AmdtBrowserDbTab
  3
McadcomServices
 90
        0
280
     0
281
     0
  0
CLASS
  1
CBROWSERAPPOBJECT
  2
CBrowserAppObject
  3
McadcomServices
 90
        0
280
     0
281
     0
  0
CLASS
  1
DM_PLACEHOLDER
  2
AcDmSelsetPlaceholder
  3
AcMechDwgViewMgmt
 90
        0
280
     0
281
     0
  0
CLASS
  1
ACMPICKOBJ
  2
AcmPickEnt
  3
"AcmSymBB|Product Description: AutoCAD Mechanical|Company: Autodesk"
 90
    32768
280
     0
281
     1
  0
CLASS
  1
ACMNOTESTANDARDISO
  2
AmdtNoteStdISO
  3
"Amdt_StdImp|Product Description: AutoCAD Mechanical|Company: Autodesk"
 90
        0
280
     0
281
     0
  0
CLASS
  1
ACMNOTESTANDARDANSI
  2
AmdtNoteStdANSI
  3
"Amdt_StdImp|Product Description: AutoCAD Mechanical|Company: Autodesk"
 90
        0
280
     0
281
     0
  0
CLASS
  1
TABLESTYLE
  2
AcDbTableStyle
  3
ObjectDBX Classes
 90
     4095
280
     0
281
     0
  0
CLASS
  1
ACMTHREADLINESTANDARDISO
  2
AmdtThreadLineStdISO
  3
"Amdt_StdImp|Product Description: AutoCAD Mechanical|Company: Autodesk"
 90
        0
280
     0
281
     0
  0
CLASS
  1
ACMTHREADLINESTANDARDANSI
  2
AmdtThreadLineStdANSI
  3
"Amdt_StdImp|Product Description: AutoCAD Mechanical|Company: Autodesk"
 90
        0
280
     0
281
     0
  0
CLASS
  1
SORTENTSTABLE
  2
AcDbSortentsTable
  3
ObjectDBX Classes
 90
        0
280
     0
281
     0
  0
CLASS
  1
MATERIAL
  2
AcDbMaterial
  3
ObjectDBX Classes
 90
     1024
280
     0
281
     0
  0
CLASS
  1
VISUALSTYLE
  2
AcDbVisualStyle
  3
ObjectDBX Classes
 90
     4095
280
     0
281
     0
  0
CLASS
  1
ACRFATTGENMGR
  2
AcRfAttGeneralMgr
  3
AcAttribServices
 90
        0
280
     0
281
     0
  0
CLASS
  1
ACRFOBJATTMGR
  2
AcRfObjAttGroupMgr
  3
AcAttribServices
 90
        0
280
     0
281
     0
  0
CLASS
  1
ACRFMCADAPIATTHOLDER
  2
AcRfMCADAPIAttHolder
  3
AcAttribServices
 90
        0
280
     0
281
     0
  0
CLASS
  1
AMDTSYSATTR
  2
AmdtSystemAttribute
  3
AcAttribServices
 90
        0
280
     0
281
     0
  0
CLASS
  1
ACMTAPERSTANDARDISO
  2
AcmTaperStdISO
  3
"Amdt_StdImp|Product Description: AutoCAD Mechanical|Company: Autodesk"
 90
        0
280
     0
281
     0
  0
CLASS
  1
ACMTAPERSTANDARDANSI
  2
AcmTaperStdANSI
  3
"Amdt_StdImp|Product Description: AutoCAD Mechanical|Company: Autodesk"
 90
        0
280
     0
281
     0
  0
CLASS
  1
CAMSSTRUCTBTNSTATE
  2
StructBtnState
  3
L"DesignerAssemblies"
 90
        0
280
     0
281
     0
  0
ENDSEC
  0
SECTION
  2
TABLES
  0
TABLE
  2
VPORT
  5
8
330
0
100
AcDbSymbolTable
 70
     1
  0
VPORT
  5
E582
330
8
100
AcDbSymbolTableRecord
100
AcDbViewportTableRecord
  2
*Active
 70
     0
 10
0.0
 20
0.0
 11
1.0
 21
1.0
 12
339.5288660545873
 22
185.1828679498048
 13
0.0
 23
0.0
 14
2.5
 24
2.5
 15
10.0
 25
10.0
 16
0.0
 26
0.0
 36
1.0
 17
0.0
 27
0.0
 37
0.0
 40
610.5241660437444
 41
1.219298245614035
 42
50.0
 43
-1370.695619172058
 44
-1370.695619172058
 50
0.0
 51
0.0
 71
     0
 72
   100
 73
     1
 74
     3
 75
     0
 76
     0
 77
     0
 78
     0
281
     0
 65
     0
110
0.0
120
0.0
130
0.0
111
1.0
121
0.0
131
0.0
112
0.0
122
1.0
132
0.0
 79
     0
146
0.0
  0
ENDTAB
  0
TABLE
  2
LTYPE
  5
5
330
0
100
AcDbSymbolTable
 70
    36
  0
LTYPE
  5
14
330
5
100
AcDbSymbolTableRecord
100
AcDbLinetypeTableRecord
  2
ByBlock
 70
     0
  3

 72
    65
 73
     0
 40
0.0
  0
LTYPE
  5
15
330
5
100
AcDbSymbolTableRecord
100
AcDbLinetypeTableRecord
  2
ByLayer
 70
     0
  3

 72
    65
 73
     0
 40
0.0
  0
LTYPE
  5
16
330
5
100
AcDbSymbolTableRecord
100
AcDbLinetypeTableRecord
  2
Continuous
 70
     0
  3
Solid line
 72
    65
 73
     0
 40
0.0
  0
LTYPE
  5
4F
330
5
100
AcDbSymbolTableRecord
100
AcDbLinetypeTableRecord
  2
AM_ISO02W050
 70
     0
  3
__ __ __ __ __ __ __ __ __ __ __ __ __ __ __
 72
    65
 73
     2
 40
7.5
 49
6.0
 74
     0
 49
-1.5
 74
     0
  0
LTYPE
  5
52
330
5
100
AcDbSymbolTableRecord
100
AcDbLinetypeTableRecord
  2
Amconstr
 70
     0
  3
_______________________
 72
    65
 73
     2
 40
9999.0
 49
9999.0
 74
     0
 49
0.0
 74
     0
  0
LTYPE
  5
64
330
5
100
AcDbSymbolTableRecord
100
AcDbLinetypeTableRecord
  2
ACISOWELD
 70
     0
  3
_ _ _ _ _
 72
    65
 73
     2
 40
2.0
 49
2.0
 74
     0
 49
-1.0
 74
     0
  0
LTYPE
  5
65
330
5
100
AcDbSymbolTableRecord
100
AcDbLinetypeTableRecord
  2
ACISOTGB
 70
     0
  3
__ . . __ . .
 72
    65
 73
     6
 40
9.0
 49
4.0
 74
     0
 49
-1.0
 74
     0
 49
1.0
 74
     0
 49
-1.0
 74
     0
 49
1.0
 74
     0
 49
-1.0
 74
     0
  0
LTYPE
  5
66
330
5
100
AcDbSymbolTableRecord
100
AcDbLinetypeTableRecord
  2
ACISOTGL
 70
     0
  3
_ _ _ _ _
 72
    65
 73
     2
 40
3.0
 49
2.0
 74
     0
 49
-1.0
 74
     0
  0
LTYPE
  5
69
330
5
100
AcDbSymbolTableRecord
100
AcDbLinetypeTableRecord
  2
CENTER
 70
     0
  3
__ . __
 72
    65
 73
     4
 40
7.0
 49
4.0
 74
     0
 49
-1.0
 74
     0
 49
1.0
 74
     0
 49
-1.0
 74
     0
  0
LTYPE
  5
A6E
330
5
100
AcDbSymbolTableRecord
100
AcDbLinetypeTableRecord
  2
PHANTOM2
 70
     0
  3
Phantom (.5x) ___ _ _ ___ _ _ ___ _ _ ___ _ _
 72
    65
 73
     6
 40
31.75
 49
15.875
 74
     0
 49
-3.174999999999999
 74
     0
 49
3.174999999999999
 74
     0
 49
-3.174999999999999
 74
     0
 49
3.174999999999999
 74
     0
 49
-3.174999999999999
 74
     0
  0
LTYPE
  5
FA3
330
5
100
AcDbSymbolTableRecord
100
AcDbLinetypeTableRecord
  2
ACANSTGB
 70
     0
  3
__ . . __ . .
 72
    65
 73
     6
 40
0.35433070866
 49
0.15748031496
 74
     0
 49
-0.03937007874
 74
     0
 49
0.03937007874
 74
     0
 49
-0.03937007874
 74
     0
 49
0.03937007874
 74
     0
 49
-0.03937007874
 74
     0
  0
LTYPE
  5
FA4
330
5
100
AcDbSymbolTableRecord
100
AcDbLinetypeTableRecord
  2
ACANSTGL
 70
     0
  3
_ _ _ _ _
 72
    65
 73
     2
 40
0.11811023622
 49
0.07874015748
 74
     0
 49
-0.03937007874
 74
     0
  0
LTYPE
  5
4DED
330
5
100
AcDbSymbolTableRecord
100
AcDbLinetypeTableRecord
  2
中線
 70
     0
  3
___________________
 72
    65
 73
     2
 40
2.0
 49
1.0
 74
     0
 49
1.0
 74
     0
  0
LTYPE
  5
4DF6
330
5
100
AcDbSymbolTableRecord
100
AcDbLinetypeTableRecord
  2
細線
 70
     0
  3
___________________
 72
    65
 73
     2
 40
2.0
 49
1.0
 74
     0
 49
1.0
 74
     0
  0
LTYPE
  5
4DF7
330
5
100
AcDbSymbolTableRecord
100
AcDbLinetypeTableRecord
  2
太線
 70
     0
  3
___________________
 72
    65
 73
     2
 40
2.0
 49
1.0
 74
     0
 49
1.0
 74
     0
  0
LTYPE
  5
4EA7
330
5
100
AcDbSymbolTableRecord
100
AcDbLinetypeTableRecord
  2
文字
 70
     0
  3
_________________
 72
    65
 73
     2
 40
2.0
 49
1.0
 74
     0
 49
1.0
 74
     0
  0
LTYPE
  5
4EA9
330
5
100
AcDbSymbolTableRecord
100
AcDbLinetypeTableRecord
  2
寸法線
 70
     0
  3
________________
 72
    65
 73
     2
 40
2.0
 49
1.0
 74
     0
 49
1.0
 74
     0
  0
LTYPE
  5
4F12
330
5
100
AcDbSymbolTableRecord
100
AcDbLinetypeTableRecord
  2
ハッチング
 70
     0
  3
_________________
 72
    65
 73
     2
 40
2.0
 49
1.0
 74
     0
 49
1.0
 74
     0
  0
LTYPE
  5
5180
330
5
100
AcDbSymbolTableRecord
100
AcDbLinetypeTableRecord
  2
陰線1
 70
     0
  3
__ __ __ __
 72
    65
 73
     2
 40
4.0
 49
2.2
 74
     0
 49
-1.8
 74
     0
  0
LTYPE
  5
5181
330
5
100
AcDbSymbolTableRecord
100
AcDbLinetypeTableRecord
  2
陰線2
 70
     0
  3
_ _ _ _
 72
    65
 73
     2
 40
1.199999999999999
 49
0.7
 74
     0
 49
-0.5
 74
     0
  0
LTYPE
  5
5182
330
5
100
AcDbSymbolTableRecord
100
AcDbLinetypeTableRecord
  2
切断線
 70
     0
  3
/\/-/\/-/\/-/\/-/\/-/\/
 72
    65
 73
     2
 40
11.0001
 49
0.0001
 74
     4
 75
   135
340
56
 46
0.04
 50
0.0
 44
0.0
 45
0.0
 49
-11.0
 74
     0
  0
LTYPE
  5
5183
330
5
100
AcDbSymbolTableRecord
100
AcDbLinetypeTableRecord
  2
想像線1
 70
     0
  3
__ __ __ _____ __ __ ____
 72
    65
 73
     6
 40
14.5
 49
6.0
 74
     0
 49
-1.5
 74
     0
 49
2.0
 74
     0
 49
-1.5
 74
     0
 49
2.0
 74
     0
 49
-1.5
 74
     0
  0
LTYPE
  5
5184
330
5
100
AcDbSymbolTableRecord
100
AcDbLinetypeTableRecord
  2
想像線2
 70
     0
  3
__ _ _ __ _ _ __
 72
    65
 73
     6
 40
6.9
 49
2.5
 74
     0
 49
-0.8
 74
     0
 49
1.0
 74
     0
 49
-0.8
 74
     0
 49
1.0
 74
     0
 49
-0.8
 74
     0
  0
LTYPE
  5
5185
330
5
100
AcDbSymbolTableRecord
100
AcDbLinetypeTableRecord
  2
中心線1
 70
     0
  3
___ _ ___ _ ___
 72
    65
 73
     4
 40
18.0
 49
12.0
 74
     0
 49
-2.0
 74
     0
 49
2.0
 74
     0
 49
-2.0
 74
     0
  0
LTYPE
  5
5186
330
5
100
AcDbSymbolTableRecord
100
AcDbLinetypeTableRecord
  2
中心線2
 70
     0
  3
 -+-
 72
    65
 73
     4
 40
9.5
 49
6.0
 74
     0
 49
-1.0
 74
     0
 49
1.5
 74
     0
 49
-1.0
 74
     0
  0
LTYPE
  5
5187
330
5
100
AcDbSymbolTableRecord
100
AcDbLinetypeTableRecord
  2
中心線3
 70
     0
  3
 +
 72
    65
 73
     4
 40
3.799999999999999
 49
2.0
 74
     0
 49
-0.6
 74
     0
 49
0.6
 74
     0
 49
-0.6
 74
     0
  0
LTYPE
  5
5188
330
5
100
AcDbSymbolTableRecord
100
AcDbLinetypeTableRecord
  2
補助線
 70
     0
  3
______________
 72
    65
 73
     2
 40
2.0
 49
1.0
 74
     0
 49
1.0
 74
     0
  0
LTYPE
  5
5F93
330
5
100
AcDbSymbolTableRecord
100
AcDbLinetypeTableRecord
  2
AM_ISO08W050
 70
     0
  3
____ . ____ . ____ . ____ . ____ . ____ . ____
 72
    65
 73
     4
 40
18.0
 49
12.0
 74
     0
 49
-1.5
 74
     0
 49
3.0
 74
     0
 49
-1.5
 74
     0
  0
LTYPE
  5
5F94
330
5
100
AcDbSymbolTableRecord
100
AcDbLinetypeTableRecord
  2
AM_ISO09W050
 70
     0
  3
_____ . . _____ . . _____ . . ____ .. ____
 72
    65
 73
     6
 40
22.5
 49
12.0
 74
     0
 49
-1.5
 74
     0
 49
3.0
 74
     0
 49
-1.5
 74
     0
 49
3.0
 74
     0
 49
-1.5
 74
     0
  0
LTYPE
  5
5F95
330
5
100
AcDbSymbolTableRecord
100
AcDbLinetypeTableRecord
  2
AM_ISO08W050x2
 70
     0
  3
__ . __ . __ . __ . __ . __
 72
    65
 73
     4
 40
9.0
 49
6.0
 74
     0
 49
-0.75
 74
     0
 49
1.5
 74
     0
 49
-0.75
 74
     0
  0
LTYPE
  5
5F96
330
5
100
AcDbSymbolTableRecord
100
AcDbLinetypeTableRecord
  2
AM_ISO02W050x2
 70
     0
  3
 _ _ _ _ _ _ _ _ _ _ _ _
 72
    65
 73
     2
 40
3.75
 49
3.0
 74
     0
 49
-0.75
 74
     0
  0
LTYPE
  5
5F97
330
5
100
AcDbSymbolTableRecord
100
AcDbLinetypeTableRecord
  2
Amzigzag
 70
     0
  3
/\/-/\/-/\/-/\/-/\/-/\/
 72
    65
 73
     2
 40
11.0001
 49
0.0001
 74
     4
 75
   135
340
56
 46
0.04
 50
0.0
 44
0.0
 45
0.0
 49
-11.0
 74
     0
  0
LTYPE
  5
6427
330
5
100
AcDbSymbolTableRecord
100
AcDbLinetypeTableRecord
  2
HIDDEN
 70
     0
  3
Hidden __ __ __ __ __ __ __ __ __ __ __ __ __ _
 72
    65
 73
     2
 40
0.375
 49
0.25
 74
     0
 49
-0.125
 74
     0
  0
LTYPE
  5
6428
330
5
100
AcDbSymbolTableRecord
100
AcDbLinetypeTableRecord
  2
CENTER2
 70
     0
  3
Center (.5x) ___ _ ___ _ ___ _ ___ _ ___ _ ___
 72
    65
 73
     4
 40
1.125
 49
0.75
 74
     0
 49
-0.125
 74
     0
 49
0.125
 74
     0
 49
-0.125
 74
     0
  0
LTYPE
  5
6429
330
5
100
AcDbSymbolTableRecord
100
AcDbLinetypeTableRecord
  2
HIDDEN2
 70
     0
  3
Hidden (.5x) _ _ _ _ _ _ _ _ _ _ _ _ _ _ _ _ _
 72
    65
 73
     2
 40
0.1875
 49
0.125
 74
     0
 49
-0.0625
 74
     0
  0
LTYPE
  5
642A
330
5
100
AcDbSymbolTableRecord
100
AcDbLinetypeTableRecord
  2
Amzigzag2
 70
     0
  3
/\/-/\/-/\/-/\/-/\/-/\/
 72
    65
 73
     2
 40
0.4401
 49
0.0001
 74
     4
 75
   135
340
56
 46
0.0016
 50
0.0
 44
0.0
 45
0.0
 49
-0.4400000000000001
 74
     0
  0
LTYPE
  5
CC07
330
5
100
AcDbSymbolTableRecord
100
AcDbLinetypeTableRecord
  2
DASHED
 70
     0
  3
__ __ __ __ __ __ __ __ __ __ __ __ __ __ __
 72
    65
 73
     2
 40
3.5
 49
2.0
 74
     0
 49
-1.5
 74
     0
  0
LTYPE
  5
CC08
330
5
100
AcDbSymbolTableRecord
100
AcDbLinetypeTableRecord
  2
PHANTOM
 70
     0
  3
_____ _ _ _____ _ _ _____ _ _ _____ _ _ ____  
 72
    65
 73
     6
 40
15.5
 49
8.0
 74
     0
 49
-1.5
 74
     0
 49
1.5
 74
     0
 49
-1.5
 74
     0
 49
1.5
 74
     0
 49
-1.5
 74
     0
  0
ENDTAB
  0
TABLE
  2
LAYER
  5
2
102
{ACAD_XDICTIONARY
360
3F95
102
}
330
0
100
AcDbSymbolTable
 70
    36
  0
LAYER
  5
10
330
2
100
AcDbSymbolTableRecord
100
AcDbLayerTableRecord
  2
0
 70
     0
 62
     7
  6
Continuous
370
    -3
390
F
  0
LAYER
  5
6D1
330
2
100
AcDbSymbolTableRecord
100
AcDbLayerTableRecord
  2
Defpoints
 70
     0
 62
     7
  6
Continuous
290
     0
370
    -3
390
F
  0
LAYER
  5
A46
330
2
100
AcDbSymbolTableRecord
100
AcDbLayerTableRecord
  2
size
 70
     0
 62
     5
  6
Continuous
290
     0
370
    30
390
F
  0
LAYER
  5
A47
330
2
100
AcDbSymbolTableRecord
100
AcDbLayerTableRecord
  2
waku
 70
     0
 62
     7
  6
Continuous
370
    40
390
F
  0
LAYER
  5
A48
330
2
100
AcDbSymbolTableRecord
100
AcDbLayerTableRecord
  2
AM_6
 70
     0
 62
     2
  6
文字
370
    20
390
F
  0
LAYER
  5
FA5
330
2
100
AcDbSymbolTableRecord
100
AcDbLayerTableRecord
  2
1
 70
     0
 62
     7
  6
Continuous
370
    -3
390
F
  0
LAYER
  5
FA6
330
2
100
AcDbSymbolTableRecord
100
AcDbLayerTableRecord
  2
AM_BOR
 70
     0
 62
     7
  6
Continuous
370
    30
390
F
  0
LAYER
  5
3A31
330
2
100
AcDbSymbolTableRecord
100
AcDbLayerTableRecord
  2
hyosen1
 70
     0
 62
     1
  6
Continuous
370
    30
390
F
  0
LAYER
  5
5765
330
2
100
AcDbSymbolTableRecord
100
AcDbLayerTableRecord
  2
hyomoji
 70
     0
 62
     2
  6
Continuous
370
    20
390
F
  0
LAYER
  5
591A
330
2
100
AcDbSymbolTableRecord
100
AcDbLayerTableRecord
  2
hyosen2
 70
     0
 62
     1
  6
Continuous
370
    20
390
F
  0
LAYER
  5
5F85
330
2
100
AcDbSymbolTableRecord
100
AcDbLayerTableRecord
  2
AM_0
 70
     0
 62
     7
  6
中線
370
    30
390
F
  0
LAYER
  5
5F86
330
2
100
AcDbSymbolTableRecord
100
AcDbLayerTableRecord
  2
AM_1
 70
     0
 62
    30
  6
太線
370
    40
390
F
  0
LAYER
  5
5F87
330
2
100
AcDbSymbolTableRecord
100
AcDbLayerTableRecord
  2
AM_2
 70
     0
 62
     1
  6
細線
370
    20
390
F
  0
LAYER
  5
5F88
330
2
100
AcDbSymbolTableRecord
100
AcDbLayerTableRecord
  2
AM_3
 70
     0
 62
     6
  6
陰線1
370
    20
390
F
  0
LAYER
  5
5F89
330
2
100
AcDbSymbolTableRecord
100
AcDbLayerTableRecord
  2
AM_4
 70
     0
 62
     3
  6
補助線
370
    20
390
F
  0
LAYER
  5
5F8A
330
2
100
AcDbSymbolTableRecord
100
AcDbLayerTableRecord
  2
AM_5
 70
     0
 62
     3
  6
寸法線
370
    20
390
F
  0
LAYER
  5
5F8B
330
2
100
AcDbSymbolTableRecord
100
AcDbLayerTableRecord
  2
AM_7
 70
     0
 62
     4
  6
中心線1
370
    20
390
F
  0
LAYER
  5
5F8C
330
2
100
AcDbSymbolTableRecord
100
AcDbLayerTableRecord
  2
AM_8
 70
     0
 62
     1
  6
ハッチング
370
    20
390
F
  0
LAYER
  5
5F8D
330
2
100
AcDbSymbolTableRecord
100
AcDbLayerTableRecord
  2
AM_10
 70
     0
 62
     7
  6
切断線
370
    30
390
F
  0
LAYER
  5
5F98
330
2
100
AcDbSymbolTableRecord
100
AcDbLayerTableRecord
  2
AM_FEA-AM_1
 70
     0
 62
    30
  6
太線
370
    40
390
F
  0
LAYER
  5
5F99
330
2
100
AcDbSymbolTableRecord
100
AcDbLayerTableRecord
  2
AM_FEA-AM_6
 70
     0
 62
     2
  6
文字
370
    20
390
F
  0
LAYER
  5
642B
330
2
100
AcDbSymbolTableRecord
100
AcDbLayerTableRecord
  2
AM_CL
 70
     0
 62
     1
  6
Amconstr
370
    20
390
F
  0
LAYER
  5
65AF
330
2
100
AcDbSymbolTableRecord
100
AcDbLayerTableRecord
  2
AM_11
 70
     0
 62
     2
  6
想像線1
370
    20
390
F
  0
LAYER
  5
73C2
330
2
100
AcDbSymbolTableRecord
100
AcDbLayerTableRecord
  2
AM_12
 70
     0
 62
     7
  6
Continuous
290
     0
370
    20
390
F
  0
LAYER
  5
73C3
330
2
100
AcDbSymbolTableRecord
100
AcDbLayerTableRecord
  2
AM_PAREF
 70
     0
 62
     4
  6
Continuous
290
     0
370
    20
390
F
  0
LAYER
  5
75AE
330
2
100
AcDbSymbolTableRecord
100
AcDbLayerTableRecord
  2
busen1
 70
     0
 62
    30
  6
Continuous
370
    40
390
F
  0
LAYER
  5
75AF
330
2
100
AcDbSymbolTableRecord
100
AcDbLayerTableRecord
  2
busen2
 70
     0
 62
     2
  6
Continuous
370
    20
390
F
  0
LAYER
  5
75B0
330
2
100
AcDbSymbolTableRecord
100
AcDbLayerTableRecord
  2
PV0001_1
 70
     0
 62
     7
  6
Continuous
370
    -3
390
F
  0
LAYER
  5
A1E3
330
2
100
AcDbSymbolTableRecord
100
AcDbLayerTableRecord
  2
点-AM_0
 70
     0
 62
     7
  6
中線
290
     0
370
    30
390
F
  0
LAYER
  5
A1E4
330
2
100
AcDbSymbolTableRecord
100
AcDbLayerTableRecord
  2
点-AM_1
 70
     0
 62
    30
  6
太線
290
     0
370
    40
390
F
  0
LAYER
  5
A1E5
330
2
100
AcDbSymbolTableRecord
100
AcDbLayerTableRecord
  2
点-AM_2
 70
     0
 62
     1
  6
細線
290
     0
370
    20
390
F
  0
LAYER
  5
A1E6
330
2
100
AcDbSymbolTableRecord
100
AcDbLayerTableRecord
  2
点-AM_7
 70
     0
 62
     4
  6
中心線1
290
     0
370
    20
390
F
  0
LAYER
  5
A1E9
330
2
100
AcDbSymbolTableRecord
100
AcDbLayerTableRecord
  2
点-AM_11
 70
     0
 62
     2
  6
想像線1
290
     0
370
    20
390
F
  0
LAYER
  5
A204
330
2
100
AcDbSymbolTableRecord
100
AcDbLayerTableRecord
  2
子図情報-AM_0
 70
     0
 62
     7
  6
中線
370
    30
390
F
  0
LAYER
  5
B251
330
2
100
AcDbSymbolTableRecord
100
AcDbLayerTableRecord
  2
ベース-AM_2
 70
     0
 62
     1
  6
細線
370
    20
390
F
  0
LAYER
  5
BFFB
330
2
100
AcDbSymbolTableRecord
100
AcDbLayerTableRecord
  2
990001_1
 70
     0
 62
     7
  6
Continuous
370
    -3
390
F
  0
ENDTAB
  0
TABLE
  2
STYLE
  5
3
330
0
100
AcDbSymbolTable
 70
    10
  0
STYLE
  5
11
330
3
100
AcDbSymbolTableRecord
100
AcDbTextStyleTableRecord
  2
STANDARD
 70
     0
 40
0.0
 41
0.7
 50
0.0
 71
     0
 42
3.2
  3
romans.shx
  4
extfont.shx
  0
STYLE
  5
56
330
3
100
AcDbSymbolTableRecord
100
AcDbTextStyleTableRecord
  2

 70
     1
 40
0.0
 41
1.0
 50
0.0
 71
     0
 42
2.5
  3
ltypeshp.shx
  4

  0
STYLE
  5
58
330
3
100
AcDbSymbolTableRecord
100
AcDbTextStyleTableRecord
  2
ACISOTS
 70
     0
 40
1.0
 41
1.0
 50
0.0
 71
     0
 42
2.5
  3
isocp.shx
  4
extfont.shx
  0
STYLE
  5
63
330
3
100
AcDbSymbolTableRecord
100
AcDbTextStyleTableRecord
  2
ACISOGDT
 70
     0
 40
0.0
 41
1.0
 50
0.0
 71
     0
 42
2.5
  3
amgdt.shx
  4

  0
STYLE
  5
A74
330
3
100
AcDbSymbolTableRecord
100
AcDbTextStyleTableRecord
  2
DIM
 70
     0
 40
0.0
 41
1.0
 50
0.0
 71
     0
 42
2.5
  3
monotxt.shx
  4
extfont.shx
  0
STYLE
  5
FA7
330
3
100
AcDbSymbolTableRecord
100
AcDbTextStyleTableRecord
  2
ACANSTS
 70
     0
 40
1.0
 41
1.0
 50
0.0
 71
     0
 42
0.2
  3
romans.shx
  4
extfont.shx
  0
STYLE
  5
FA8
330
3
100
AcDbSymbolTableRecord
100
AcDbTextStyleTableRecord
  2
ACANSGDT
 70
     0
 40
0.0
 41
1.0
 50
0.0
 71
     0
 42
0.2
  3
amgdtans.shx
  4

  0
STYLE
  5
5F9A
330
3
100
AcDbSymbolTableRecord
100
AcDbTextStyleTableRecord
  2
USER1
 70
     0
 40
0.0
 41
1.0
 50
0.0
 71
     0
 42
2.5
  3
TXT.SHX
  4

  0
STYLE
  5
5F9B
330
3
100
AcDbSymbolTableRecord
100
AcDbTextStyleTableRecord
  2
USER2
 70
     0
 40
0.0
 41
1.0
 50
0.0
 71
     0
 42
2.5
  3
SIMPLEX.SHX
  4

  0
STYLE
  5
5F9C
330
3
100
AcDbSymbolTableRecord
100
AcDbTextStyleTableRecord
  2
USER3
 70
     0
 40
0.0
 41
1.0
 50
0.0
 71
     0
 42
2.5
  3
ITALIC.SHX
  4

  0
ENDTAB
  0
TABLE
  2
VIEW
  5
6
330
0
100
AcDbSymbolTable
 70
     6
  0
VIEW
  5
AE1
330
6
100
AcDbSymbolTableRecord
100
AcDbViewTableRecord
  2
AM_VIEW1
 70
     0
 40
244.8243243243244
 10
357.6693648837318
 20
1428.474321530515
 41
297.0
 11
0.0
 21
0.0
 31
1.0
 12
0.0
 22
0.0
 32
0.0
 42
50.0
 43
-1370.695619172058
 44
-1370.695619172058
 50
0.0
 71
     0
281
     0
 72
     0
  0
VIEW
  5
AE2
330
6
100
AcDbSymbolTableRecord
100
AcDbViewTableRecord
  2
AM_VIEW2
 70
     0
 40
244.8243243243244
 10
654.6693648837317
 20
1428.474321530515
 41
297.0
 11
0.0
 21
0.0
 31
1.0
 12
0.0
 22
0.0
 32
0.0
 42
50.0
 43
-1370.695619172058
 44
-1370.695619172058
 50
0.0
 71
     0
281
     0
 72
     0
  0
VIEW
  5
AE3
330
6
100
AcDbSymbolTableRecord
100
AcDbViewTableRecord
  2
AM_VIEW3
 70
     0
 40
244.8243243243244
 10
357.6693648837318
 20
1253.298645854839
 41
297.0
 11
0.0
 21
0.0
 31
1.0
 12
0.0
 22
0.0
 32
0.0
 42
50.0
 43
-1370.695619172058
 44
-1370.695619172058
 50
0.0
 71
     0
281
     0
 72
     0
  0
VIEW
  5
AE4
330
6
100
AcDbSymbolTableRecord
100
AcDbViewTableRecord
  2
AM_VIEW4
 70
     0
 40
244.8243243243244
 10
654.6693648837317
 20
1253.298645854839
 41
297.0
 11
0.0
 21
0.0
 31
1.0
 12
0.0
 22
0.0
 32
0.0
 42
50.0
 43
-1370.695619172058
 44
-1370.695619172058
 50
0.0
 71
     0
281
     0
 72
     0
  0
VIEW
  5
AE5
330
6
100
AcDbSymbolTableRecord
100
AcDbViewTableRecord
  2
AM_VIEW5
 70
     0
 40
244.8243243243242
 10
506.1693648837318
 20
1340.886483692677
 41
297.0
 11
0.0
 21
0.0
 31
1.0
 12
0.0
 22
0.0
 32
0.0
 42
50.0
 43
-1370.695619172058
 44
-1370.695619172058
 50
0.0
 71
     0
281
     0
 72
     0
  0
VIEW
  5
AE6
330
6
100
AcDbSymbolTableRecord
100
AcDbViewTableRecord
  2
AM_VIEW6
 70
     0
 40
489.6437521621619
 10
506.1693648837318
 20
1340.886483692677
 41
593.9940599999999
 11
0.0
 21
0.0
 31
1.0
 12
0.0
 22
0.0
 32
0.0
 42
50.0
 43
-1370.695619172058
 44
-1370.695619172058
 50
0.0
 71
     0
281
     0
 72
     0
  0
ENDTAB
  0
TABLE
  2
UCS
  5
7
330
0
100
AcDbSymbolTable
 70
     0
  0
ENDTAB
  0
TABLE
  2
APPID
  5
9
330
0
100
AcDbSymbolTable
 70
    55
  0
APPID
  5
12
330
9
100
AcDbSymbolTableRecord
100
AcDbRegAppTableRecord
  2
ACAD
 70
     0
  0
APPID
  5
30
330
9
100
AcDbSymbolTableRecord
100
AcDbRegAppTableRecord
  2
MCAD_NO_VIS
 70
     0
  0
APPID
  5
31
330
9
100
AcDbSymbolTableRecord
100
AcDbRegAppTableRecord
  2
ACAD_TEMP_GRAPHIC
 70
     0
  0
APPID
  5
44
330
9
100
AcDbSymbolTableRecord
100
AcDbRegAppTableRecord
  2
ACATTRIBSERVICES
 70
     0
  0
APPID
  5
7A1
330
9
100
AcDbSymbolTableRecord
100
AcDbRegAppTableRecord
  2
GENIUS_GENDIMSH_14
 70
     0
  0
APPID
  5
A49
330
9
100
AcDbSymbolTableRecord
100
AcDbRegAppTableRecord
  2
GENIUS_GENREC_14
 70
     0
  0
APPID
  5
A4A
330
9
100
AcDbSymbolTableRecord
100
AcDbRegAppTableRecord
  2
GENIUS_GENOBJ-N-REC_13
 70
     0
  0
APPID
  5
A4B
330
9
100
AcDbSymbolTableRecord
100
AcDbRegAppTableRecord
  2
GENIUS_GENODEF_13
 70
     0
  0
APPID
  5
A4C
330
9
100
AcDbSymbolTableRecord
100
AcDbRegAppTableRecord
  2
DCO15
 70
     0
  0
APPID
  5
ADC
330
9
100
AcDbSymbolTableRecord
100
AcDbRegAppTableRecord
  2
GENIUS_GENOLIS_13
 70
     0
  0
APPID
  5
ADD
330
9
100
AcDbSymbolTableRecord
100
AcDbRegAppTableRecord
  2
GENIUS_GENOENT_13
 70
     0
  0
APPID
  5
ADE
330
9
100
AcDbSymbolTableRecord
100
AcDbRegAppTableRecord
  2
GENIUS_GENOBJ-N-TIT_13
 70
     0
  0
APPID
  5
ADF
330
9
100
AcDbSymbolTableRecord
100
AcDbRegAppTableRecord
  2
GENIUS_GENTITLE_13
 70
     0
  0
APPID
  5
AE0
330
9
100
AcDbSymbolTableRecord
100
AcDbRegAppTableRecord
  2
GENIUS_GENOREF_13
 70
     0
  0
APPID
  5
AE7
330
9
100
AcDbSymbolTableRecord
100
AcDbRegAppTableRecord
  2
GENIUS_GENSCREG_15
 70
     0
  0
APPID
  5
AE8
330
9
100
AcDbSymbolTableRecord
100
AcDbRegAppTableRecord
  2
GENIUS_GENOBJ-N-SDF_13
 70
     0
  0
APPID
  5
FAF
330
9
100
AcDbSymbolTableRecord
100
AcDbRegAppTableRecord
  2
GENIUS_GENBLLY_14
 70
     0
  0
APPID
  5
FB0
330
9
100
AcDbSymbolTableRecord
100
AcDbRegAppTableRecord
  2
GENIUS_GENTRA_14
 70
     0
  0
APPID
  5
1285
330
9
100
AcDbSymbolTableRecord
100
AcDbRegAppTableRecord
  2
GENIUS_GENDTOL_13
 70
     0
  0
APPID
  5
142D
330
9
100
AcDbSymbolTableRecord
100
AcDbRegAppTableRecord
  2
GENIUS_GENOBJ-N-CEN_13
 70
     0
  0
APPID
  5
1AB5
330
9
100
AcDbSymbolTableRecord
100
AcDbRegAppTableRecord
  2
GENIUS_GENOBJ-N-CRS_13
 70
     0
  0
APPID
  5
1B36
330
9
100
AcDbSymbolTableRecord
100
AcDbRegAppTableRecord
  2
GENIUS_GENOBJ-N-HTC_13
 70
     0
  0
APPID
  5
1B37
330
9
100
AcDbSymbolTableRecord
100
AcDbRegAppTableRecord
  2
GENIUS_GENHATCH_13
 70
     0
  0
APPID
  5
216D
330
9
100
AcDbSymbolTableRecord
100
AcDbRegAppTableRecord
  2
GENIUS_GENOBJ-N-FIL_13
 70
     0
  0
APPID
  5
2356
330
9
100
AcDbSymbolTableRecord
100
AcDbRegAppTableRecord
  2
GEVID990412420
 70
     0
  0
APPID
  5
2357
330
9
100
AcDbSymbolTableRecord
100
AcDbRegAppTableRecord
  2
GEVDC
 70
     0
  0
APPID
  5
2358
330
9
100
AcDbSymbolTableRecord
100
AcDbRegAppTableRecord
  2
GEVCON
 70
     0
  0
APPID
  5
235B
330
9
100
AcDbSymbolTableRecord
100
AcDbRegAppTableRecord
  2
GEVRADREF
 70
     0
  0
APPID
  5
2360
330
9
100
AcDbSymbolTableRecord
100
AcDbRegAppTableRecord
  2
GENIUS_GENBH_13
 70
     0
  0
APPID
  5
2362
330
9
100
AcDbSymbolTableRecord
100
AcDbRegAppTableRecord
  2
GENIUS_GENOBJ-NBEHI-BHF_13
 70
     0
  0
APPID
  5
2364
330
9
100
AcDbSymbolTableRecord
100
AcDbRegAppTableRecord
  2
GENIUS_GENOBJ-NBEHI-BHB_13
 70
     0
  0
APPID
  5
2379
330
9
100
AcDbSymbolTableRecord
100
AcDbRegAppTableRecord
  2
GENIUS_GENOBJ-F-SCPASSM_13
 70
     0
  0
APPID
  5
3D74
330
9
100
AcDbSymbolTableRecord
100
AcDbRegAppTableRecord
  2
GENIUS_GENDIM_13
 70
     0
  0
APPID
  5
3D76
330
9
100
AcDbSymbolTableRecord
100
AcDbRegAppTableRecord
  2
GENIUS_GE3DTOL_13
 70
     0
  0
APPID
  5
3D9C
330
9
100
AcDbSymbolTableRecord
100
AcDbRegAppTableRecord
  2
AD_DRAW
 70
     0
  0
APPID
  5
3DE8
330
9
100
AcDbSymbolTableRecord
100
AcDbRegAppTableRecord
  2
ASURF_PCURVE_APPNAME
 70
     0
  0
APPID
  5
3DED
330
9
100
AcDbSymbolTableRecord
100
AcDbRegAppTableRecord
  2
AMG_3D2D_5.0
 70
     0
  0
APPID
  5
3E1B
330
9
100
AcDbSymbolTableRecord
100
AcDbRegAppTableRecord
  2
DESIGNERASSEMBLIES
 70
     0
  0
APPID
  5
3E20
330
9
100
AcDbSymbolTableRecord
100
AcDbRegAppTableRecord
  2
ACADM_DIM_EDIT
 70
     0
  0
APPID
  5
3E21
330
9
100
AcDbSymbolTableRecord
100
AcDbRegAppTableRecord
  2
AMDT_DM_ADJ
 70
     0
  0
APPID
  5
4143
330
9
100
AcDbSymbolTableRecord
100
AcDbRegAppTableRecord
  2
GENIUS_GENFIL_13
 70
     0
  0
APPID
  5
4144
330
9
100
AcDbSymbolTableRecord
100
AcDbRegAppTableRecord
  2
GENIUS_GENOBJ-N-CHA_13
 70
     0
  0
APPID
  5
4E17
330
9
100
AcDbSymbolTableRecord
100
AcDbRegAppTableRecord
  2
GEVID1008153417
 70
     0
  0
APPID
  5
4E58
330
9
100
AcDbSymbolTableRecord
100
AcDbRegAppTableRecord
  2
GEVID1008153418
 70
     0
  0
APPID
  5
4E5E
330
9
100
AcDbSymbolTableRecord
100
AcDbRegAppTableRecord
  2
GEVID1008153419
 70
     0
  0
APPID
  5
4E64
330
9
100
AcDbSymbolTableRecord
100
AcDbRegAppTableRecord
  2
GEVID1008153420
 70
     0
  0
APPID
  5
4E75
330
9
100
AcDbSymbolTableRecord
100
AcDbRegAppTableRecord
  2
GEVID1008153421
 70
     0
  0
APPID
  5
4EB7
330
9
100
AcDbSymbolTableRecord
100
AcDbRegAppTableRecord
  2
GENIUS_AMGTXT_16
 70
     0
  0
APPID
  5
7645
330
9
100
AcDbSymbolTableRecord
100
AcDbRegAppTableRecord
  2
GENIUS_GENOBJ-N-DIM_13
 70
     0
  0
APPID
  5
B57E
330
9
100
AcDbSymbolTableRecord
100
AcDbRegAppTableRecord
  2
ACAD_DSTYLE_DIMARC_LENGTH_SYMBOL
 70
     0
  0
APPID
  5
B57F
330
9
100
AcDbSymbolTableRecord
100
AcDbRegAppTableRecord
  2
ACAD_DSTYLE_DIMJOGGED_JOGANGLE_SYMBOL
 70
     0
  0
APPID
  5
B606
330
9
100
AcDbSymbolTableRecord
100
AcDbRegAppTableRecord
  2
ACAD_EXEMPT_FROM_CAD_STANDARDS
 70
     0
  0
APPID
  5
B618
330
9
100
AcDbSymbolTableRecord
100
AcDbRegAppTableRecord
  2
ACAD_PSEXT
 70
     0
  0
APPID
  5
B7EF
330
9
100
AcDbSymbolTableRecord
100
AcDbRegAppTableRecord
  2
GENIUS_GENCEN_19
 70
     0
  0
APPID
  5
BD70
330
9
100
AcDbSymbolTableRecord
100
AcDbRegAppTableRecord
  2
AcAecLayerStandard
 70
     0
  0
ENDTAB
  0
TABLE
  2
DIMSTYLE
  5
A
330
0
100
AcDbSymbolTable
 70
    32
100
AcDbDimStyleTable
 71
     3
340
2515
340
6C
340
FA9
  0
DIMSTYLE
105
6C
330
A
100
AcDbSymbolTableRecord
100
AcDbDimStyleTableRecord
  2
AM_ISO
 70
     0
  4
"
 41
2.5
 42
1.0
 43
10.0
 44
1.0
 47
0.1
 48
0.1
 73
     0
 74
     0
 77
     1
 78
     8
 79
     2
140
3.5
141
0.0
143
0.0393701
146
0.71
147
1.5
172
     1
176
   256
177
   256
178
     2
271
     2
272
     3
274
     4
283
     0
284
     8
340
11
371
    -1
372
    -1
1001
ACAD_DSTYLE_DIMJOGGED_JOGANGLE_SYMBOL
1070
   384
1040
0.7853981633974483
1001
ACAD_DSTYLE_DIMARC_LENGTH_SYMBOL
1070
   379
1070
     1
  0
DIMSTYLE
105
6D
330
A
100
AcDbSymbolTableRecord
100
AcDbDimStyleTableRecord
  2
AM_ISO$3
 70
     0
  4
"
 41
0.8
 42
1.0
 43
10.0
 44
1.0
 47
0.1
 48
0.1
 73
     0
 77
     1
 78
     8
 79
     2
140
3.2
141
0.0
143
0.0393701
146
0.71
147
0.9999999999999996
176
   256
177
   256
178
     2
271
     2
272
     2
283
     0
284
     8
288
     1
289
     0
340
11
342
6C4
371
    -1
372
    -1
1001
ACAD_DSTYLE_DIMJOGGED_JOGANGLE_SYMBOL
1070
   384
1040
0.7853981633974483
1001
ACAD_DSTYLE_DIMARC_LENGTH_SYMBOL
1070
   379
1070
     1
  0
DIMSTYLE
105
6E
330
A
100
AcDbSymbolTableRecord
100
AcDbDimStyleTableRecord
  2
AM_ISO$4
 70
     0
  4
"
 41
0.8
 42
1.0
 43
10.0
 44
1.0
 47
0.1
 48
0.1
 73
     0
 77
     1
 78
     8
 79
     2
140
3.2
141
0.0
143
0.0393701
146
0.71
147
1.0
173
     1
176
   256
177
   256
178
     2
271
     2
272
     2
283
     0
284
     8
288
     1
289
     0
340
11
344
6C4
371
    -1
372
    -1
1001
ACAD_DSTYLE_DIMJOGGED_JOGANGLE_SYMBOL
1070
   384
1040
0.7853981633974483
1001
ACAD_DSTYLE_DIMARC_LENGTH_SYMBOL
1070
   379
1070
     1
  0
DIMSTYLE
105
6F
330
A
100
AcDbSymbolTableRecord
100
AcDbDimStyleTableRecord
  2
AM_ISO$6
 70
     0
  4
"
 41
0.8
 42
1.0
 43
10.0
 44
1.0
 47
0.1
 48
0.1
 73
     0
 74
     0
 78
     8
 79
     2
140
3.2
141
0.0
143
0.0393701
146
0.71
147
1.0
172
     1
176
   256
177
   256
178
     2
271
     2
272
     2
283
     0
284
     8
340
11
341
6C4
371
    -1
372
    -1
1001
ACAD_DSTYLE_DIMJOGGED_JOGANGLE_SYMBOL
1070
   384
1040
0.7853981633974483
1001
ACAD_DSTYLE_DIMARC_LENGTH_SYMBOL
1070
   379
1070
     1
  0
DIMSTYLE
105
70
330
A
100
AcDbSymbolTableRecord
100
AcDbDimStyleTableRecord
  2
AM_ISO$7
 70
     0
  4
"
 41
0.8
 42
1.0
 43
10.0
 44
1.0
 47
0.1
 48
0.1
 73
     0
 74
     0
 77
     1
 78
     8
 79
     2
140
3.2
141
0.0
143
0.0393701
146
0.71
147
1.0
172
     1
176
   256
177
   256
178
     2
271
     2
272
     2
283
     0
284
     8
340
11
341
6C4
342
6C4
371
    -1
372
    -1
1001
ACAD_DSTYLE_DIMJOGGED_JOGANGLE_SYMBOL
1070
   384
1040
0.7853981633974483
1001
ACAD_DSTYLE_DIMARC_LENGTH_SYMBOL
1070
   379
1070
     1
  0
DIMSTYLE
105
71
330
A
100
AcDbSymbolTableRecord
100
AcDbDimStyleTableRecord
  2
AM_ISO$SF
 70
     0
  4
"
 41
0.8
 42
1.0
 43
10.0
 44
1.0
 47
0.1
 48
0.1
 73
     0
 74
     0
 75
     1
 76
     1
 77
     1
 78
     8
 79
     2
140
3.2
141
0.0
143
0.0393701
146
0.71
147
1.0
172
     1
176
   256
177
   256
178
     2
271
     2
272
     2
283
     0
284
     8
340
11
341
6C4
342
6C4
371
    -1
372
    -1
1001
ACAD_DSTYLE_DIMJOGGED_JOGANGLE_SYMBOL
1070
   384
1040
0.7853981633974483
1001
ACAD_DSTYLE_DIMARC_LENGTH_SYMBOL
1070
   379
1070
     1
  0
DIMSTYLE
105
76
330
A
100
AcDbSymbolTableRecord
100
AcDbDimStyleTableRecord
  2
AM_ISO$SH
 70
     0
  4
"
 41
0.8
 42
1.0
 43
10.0
 44
1.0
 47
0.1
 48
0.1
 73
     0
 74
     0
 75
     1
 76
     1
 77
     1
 78
     8
 79
     2
140
3.2
141
0.0
143
0.0393701
144
2.0
146
0.71
147
1.0
172
     1
176
   256
177
   256
178
     2
271
     2
272
     2
283
     0
284
     8
340
11
341
6C4
342
6C4
371
    -1
372
    -1
1001
ACAD_DSTYLE_DIMJOGGED_JOGANGLE_SYMBOL
1070
   384
1040
0.7853981633974483
1001
ACAD_DSTYLE_DIMARC_LENGTH_SYMBOL
1070
   379
1070
     1
  0
DIMSTYLE
105
6BE
330
A
100
AcDbSymbolTableRecord
100
AcDbDimStyleTableRecord
  2
AM_ISO$0
 70
     0
  4
"
 41
0.8
 42
1.0
 43
10.0
 44
1.0
 47
0.1
 48
0.1
 73
     0
 74
     0
 77
     1
 78
     8
 79
     2
140
3.2
141
0.0
143
0.0393701
146
0.71
147
0.9999999999999996
172
     1
176
   256
177
   256
178
     2
271
     2
272
     2
283
     0
284
     8
340
11
341
6C4
342
6C4
371
    -1
372
    -1
1001
ACAD_DSTYLE_DIMJOGGED_JOGANGLE_SYMBOL
1070
   384
1040
0.7853981633974483
1001
ACAD_DSTYLE_DIMARC_LENGTH_SYMBOL
1070
   379
1070
     1
  0
DIMSTYLE
105
6BF
330
A
100
AcDbSymbolTableRecord
100
AcDbDimStyleTableRecord
  2
AM_ISO$2
 70
     0
  4
"
 41
0.8
 42
1.0
 43
10.0
 44
1.0
 47
0.1
 48
0.1
 73
     0
 74
     0
 77
     3
 78
     8
 79
     2
140
3.200000000000001
141
0.0
143
0.0393701
146
0.71
147
0.9999999999999996
172
     1
176
   256
177
   256
178
     2
271
     2
272
     2
283
     0
284
     8
340
11
342
6C4
371
    -1
372
    -1
1001
ACAD_DSTYLE_DIMJOGGED_JOGANGLE_SYMBOL
1070
   384
1040
0.7853981633974483
1001
ACAD_DSTYLE_DIMARC_LENGTH_SYMBOL
1070
   379
1070
     1
  0
DIMSTYLE
105
A76
330
A
100
AcDbSymbolTableRecord
100
AcDbDimStyleTableRecord
  2
STANDARD
 70
     0
 41
3.0
 42
1.0
 43
7.0
 44
2.0
 73
     0
 74
     0
 77
     1
140
2.799999999999999
141
0.0
143
0.0394
147
0.7
171
     4
172
     1
173
     1
176
     3
177
     3
178
     2
271
     3
272
     3
273
     8
274
     4
289
     0
340
A74
341
A66
343
A66
344
A66
  0
DIMSTYLE
105
FA9
330
A
100
AcDbSymbolTableRecord
100
AcDbDimStyleTableRecord
  2
AM_ANSI
 70
     0
  4
mm
 41
0.1
 42
0.05
 43
0.5
 44
0.1
 47
0.1
 48
0.1
 78
     7
 79
     2
140
0.12
141
0.0
146
0.71
147
0.06
176
   256
177
   256
178
     2
274
     4
284
     7
340
11
371
    -1
372
    -1
1001
ACAD_DSTYLE_DIMJOGGED_JOGANGLE_SYMBOL
1070
   384
1040
0.7853981633974483
1001
ACAD_DSTYLE_DIMARC_LENGTH_SYMBOL
1070
   379
1070
     1
  0
DIMSTYLE
105
FAA
330
A
100
AcDbSymbolTableRecord
100
AcDbDimStyleTableRecord
  2
AM_ANSI$3
 70
     0
  4
mm
 41
0.1
 42
0.05
 43
0.5
 44
0.1
 47
0.1
 48
0.1
 78
     7
 79
     2
140
0.12
141
0.0
146
0.71
147
0.06
176
   256
177
   256
178
     2
274
     4
284
     7
288
     1
289
     0
340
11
371
    -1
372
    -1
1001
ACAD_DSTYLE_DIMJOGGED_JOGANGLE_SYMBOL
1070
   384
1040
0.7853981633974483
1001
ACAD_DSTYLE_DIMARC_LENGTH_SYMBOL
1070
   379
1070
     1
  0
DIMSTYLE
105
FAB
330
A
100
AcDbSymbolTableRecord
100
AcDbDimStyleTableRecord
  2
AM_ANSI$4
 70
     0
  4
mm
 41
0.1
 42
0.05
 43
0.5
 44
0.1
 47
0.1
 48
0.1
 78
     7
 79
     2
140
0.12
141
0.0
146
0.71
147
0.06
176
   256
177
   256
178
     2
274
     4
284
     7
288
     1
289
     0
340
11
371
    -1
372
    -1
1001
ACAD_DSTYLE_DIMJOGGED_JOGANGLE_SYMBOL
1070
   384
1040
0.7853981633974483
1001
ACAD_DSTYLE_DIMARC_LENGTH_SYMBOL
1070
   379
1070
     1
  0
DIMSTYLE
105
FAC
330
A
100
AcDbSymbolTableRecord
100
AcDbDimStyleTableRecord
  2
AM_ANSI$7
 70
     0
  4
mm
 41
0.1
 42
0.05
 43
0.5
 44
0.1
 47
0.1
 48
0.1
 78
     7
 79
     2
140
0.24
141
0.0
146
0.71
147
0.06
176
   256
177
   256
178
     2
274
     4
284
     7
340
11
371
    -1
372
    -1
1001
ACAD_DSTYLE_DIMJOGGED_JOGANGLE_SYMBOL
1070
   384
1040
0.7853981633974483
1001
ACAD_DSTYLE_DIMARC_LENGTH_SYMBOL
1070
   379
1070
     1
  0
DIMSTYLE
105
FAD
330
A
100
AcDbSymbolTableRecord
100
AcDbDimStyleTableRecord
  2
AM_ANSI$SF
 70
     0
  4
mm
 41
0.1
 42
0.05
 43
0.5
 44
0.1
 47
0.1
 48
0.1
 75
     1
 76
     1
 78
     7
 79
     2
140
0.12
141
0.0
146
0.71
147
0.06
176
   256
177
   256
178
     2
274
     4
284
     7
340
11
371
    -1
372
    -1
1001
ACAD_DSTYLE_DIMJOGGED_JOGANGLE_SYMBOL
1070
   384
1040
0.7853981633974483
1001
ACAD_DSTYLE_DIMARC_LENGTH_SYMBOL
1070
   379
1070
     1
  0
DIMSTYLE
105
FAE
330
A
100
AcDbSymbolTableRecord
100
AcDbDimStyleTableRecord
  2
AM_ANSI$SH
 70
     0
  4
mm
 41
0.1
 42
0.05
 43
0.5
 44
0.1
 47
0.1
 48
0.1
 75
     1
 76
     1
 78
     7
 79
     2
140
0.12
141
0.0
146
0.71
147
0.06
173
     1
176
   256
177
   256
178
     2
274
     4
284
     7
340
11
343
72
371
    -1
372
    -1
1001
ACAD_DSTYLE_DIMJOGGED_JOGANGLE_SYMBOL
1070
   384
1040
0.7853981633974483
1001
ACAD_DSTYLE_DIMARC_LENGTH_SYMBOL
1070
   379
1070
     1
  0
DIMSTYLE
105
2515
330
A
100
AcDbSymbolTableRecord
100
AcDbDimStyleTableRecord
  2
SYS
 70
     0
  4
"
 41
2.5
 42
1.0
 43
10.0
 44
1.0
 47
0.1
 48
0.1
 73
     0
 74
     0
 77
     1
 78
     8
 79
     2
140
3.5
141
0.0
143
0.0393701
146
0.71
147
1.5
172
     1
176
   256
177
   256
178
     7
271
     2
272
     3
274
     4
283
     0
284
     8
340
11
371
    -1
372
    -1
1001
ACAD_DSTYLE_DIMJOGGED_JOGANGLE_SYMBOL
1070
   384
1040
0.7853981633974483
1001
ACAD_DSTYLE_DIMARC_LENGTH_SYMBOL
1070
   379
1070
     1
  0
DIMSTYLE
105
2516
102
{ACAD_REACTORS
330
BDC9
102
}
330
A
100
AcDbSymbolTableRecord
100
AcDbDimStyleTableRecord
  2
SYS$3
 70
     0
  4
"
 41
2.0
 42
1.0
 43
10.0
 44
1.0
 47
0.1
 48
0.1
 73
     0
 77
     1
 78
     8
 79
     2
140
3.200000000000001
141
0.0
143
0.0393701
146
0.71
147
1.5
176
   256
177
   256
178
     2
271
     1
272
     1
283
     0
284
     8
288
     1
340
11
342
A66
371
    -1
372
    -1
1001
ACAD_DSTYLE_DIMJOGGED_JOGANGLE_SYMBOL
1070
   384
1040
0.7853981633974483
1001
ACAD_DSTYLE_DIMARC_LENGTH_SYMBOL
1070
   379
1070
     1
  0
DIMSTYLE
105
2517
330
A
100
AcDbSymbolTableRecord
100
AcDbDimStyleTableRecord
  2
SYS$4
 70
     0
  4
"
 41
2.0
 42
1.0
 43
10.0
 44
1.0
 47
0.1
 48
0.1
 73
     0
 77
     1
 78
     8
 79
     2
140
3.2
141
0.0
143
0.0393701
146
0.71
147
1.5
173
     1
176
   256
177
   256
178
     2
271
     2
272
     2
283
     0
284
     8
288
     1
340
11
344
A66
371
    -1
372
    -1
1001
ACAD_DSTYLE_DIMJOGGED_JOGANGLE_SYMBOL
1070
   384
1040
0.7853981633974483
1001
ACAD_DSTYLE_DIMARC_LENGTH_SYMBOL
1070
   379
1070
     1
  0
DIMSTYLE
105
2518
330
A
100
AcDbSymbolTableRecord
100
AcDbDimStyleTableRecord
  2
SYS$6
 70
     0
  4
"
 41
2.0
 42
1.0
 43
10.0
 44
1.0
 47
0.1
 48
0.1
 73
     0
 74
     0
 78
     8
 79
     2
140
3.2
141
0.0
143
0.0393701
146
0.71
147
1.5
172
     1
176
   256
177
   256
178
     2
271
     2
272
     2
283
     0
284
     8
340
11
341
A66
371
    -1
372
    -1
1001
ACAD_DSTYLE_DIMJOGGED_JOGANGLE_SYMBOL
1070
   384
1040
0.7853981633974483
1001
ACAD_DSTYLE_DIMARC_LENGTH_SYMBOL
1070
   379
1070
     1
  0
DIMSTYLE
105
2519
330
A
100
AcDbSymbolTableRecord
100
AcDbDimStyleTableRecord
  2
SYS$7
 70
     0
  4
"
 41
2.0
 42
1.5
 43
10.0
 44
1.0
 47
0.1
 48
0.1
 73
     0
 74
     0
 77
     1
 78
     8
 79
     2
140
3.2
141
0.0
143
0.0393701
146
0.71
147
1.5
172
     1
176
   256
177
   256
178
     2
271
     2
272
     2
283
     0
284
     8
340
11
341
A66
342
A66
371
    -1
372
    -1
1001
ACAD_DSTYLE_DIMJOGGED_JOGANGLE_SYMBOL
1070
   384
1040
0.7853981633974483
1001
ACAD_DSTYLE_DIMARC_LENGTH_SYMBOL
1070
   379
1070
     1
  0
DIMSTYLE
105
251A
330
A
100
AcDbSymbolTableRecord
100
AcDbDimStyleTableRecord
  2
SYS$SF
 70
     0
  4
"
 41
1.0
 42
1.0
 43
10.0
 44
1.0
 47
0.1
 48
0.1
 73
     0
 74
     0
 75
     1
 76
     1
 77
     1
 78
     8
 79
     2
140
3.2
141
0.0
143
0.0393701
146
0.71
147
1.5
172
     1
176
   256
177
   256
178
     2
271
     2
272
     2
283
     0
284
     8
340
11
341
6C4
342
6C4
371
    -1
372
    -1
1001
ACAD_DSTYLE_DIMJOGGED_JOGANGLE_SYMBOL
1070
   384
1040
0.7853981633974483
1001
ACAD_DSTYLE_DIMARC_LENGTH_SYMBOL
1070
   379
1070
     1
  0
DIMSTYLE
105
251B
330
A
100
AcDbSymbolTableRecord
100
AcDbDimStyleTableRecord
  2
SYS$SH
 70
     0
  4
"
 41
1.0
 42
1.0
 43
10.0
 44
1.0
 47
0.1
 48
0.1
 73
     0
 74
     0
 75
     1
 76
     1
 77
     1
 78
     8
 79
     2
140
3.2
141
0.0
143
0.0393701
144
2.0
146
0.71
147
1.5
172
     1
173
     1
176
   256
177
   256
178
     2
271
     2
272
     2
283
     0
284
     8
340
11
341
6C4
343
72
344
6C4
371
    -1
372
    -1
1001
ACAD_DSTYLE_DIMJOGGED_JOGANGLE_SYMBOL
1070
   384
1040
0.7853981633974483
1001
ACAD_DSTYLE_DIMARC_LENGTH_SYMBOL
1070
   379
1070
     1
  0
DIMSTYLE
105
2A59
330
A
100
AcDbSymbolTableRecord
100
AcDbDimStyleTableRecord
  2
SYS$2
 70
     0
  4
"
 41
1.0
 42
1.5
 43
10.0
 44
1.0
 47
0.1
 48
0.1
 73
     0
 74
     0
 77
     1
 78
     8
 79
     2
140
3.2
141
0.0
143
0.0393701
146
0.71
147
1.5
172
     1
176
   256
177
   256
178
     2
271
     2
272
     2
283
     0
284
     8
340
11
342
6C4
371
    -1
372
    -1
1001
ACAD_DSTYLE_DIMJOGGED_JOGANGLE_SYMBOL
1070
   384
1040
0.7853981633974483
1001
ACAD_DSTYLE_DIMARC_LENGTH_SYMBOL
1070
   379
1070
     1
  0
DIMSTYLE
105
2AAB
102
{ACAD_REACTORS
330
B6B2
330
B6D6
330
B70C
330
B730
330
B754
330
B778
330
B7FF
330
B823
330
B847
330
B86B
330
B88F
330
B8B3
330
B8FB
330
B92B
330
B95D
330
BA5C
330
BC45
330
BE33
330
BBA3
330
BC0A
102
}
330
A
100
AcDbSymbolTableRecord
100
AcDbDimStyleTableRecord
  2
SYS$0
 70
     0
  4
"
 41
1.0
 42
1.5
 43
10.0
 44
1.0
 47
0.1
 48
0.1
 73
     0
 74
     0
 77
     1
 78
     8
 79
     2
140
3.2
141
0.0
143
0.0393701
146
0.71
147
1.5
172
     1
176
   256
177
   256
178
     2
271
     1
272
     1
283
     0
284
     8
340
11
341
A66
342
6C4
371
    -1
372
    -1
1001
ACAD_DSTYLE_DIMJOGGED_JOGANGLE_SYMBOL
1070
   384
1040
0.7853981633974483
1001
ACAD_DSTYLE_DIMARC_LENGTH_SYMBOL
1070
   379
1070
     1
  0
DIMSTYLE
105
5F9D
330
A
100
AcDbSymbolTableRecord
100
AcDbDimStyleTableRecord
  2
ISO-25
 70
     0
 41
2.5
 42
0.625
 43
3.75
 44
1.25
 73
     0
 74
     0
 77
     1
 78
     8
140
2.5
141
2.5
143
0.03937007874016
147
0.625
171
     3
172
     1
271
     2
272
     2
274
     3
283
     0
284
     8
340
11
  0
DIMSTYLE
105
A44C
330
A
100
AcDbSymbolTableRecord
100
AcDbDimStyleTableRecord
  2
SYSORG2P0
 70
     0
  4
"
 41
2.5
 42
1.0
 43
10.0
 44
1.0
 47
0.1
 48
0.1
 73
     0
 74
     0
 77
     1
 78
     8
 79
     2
140
3.5
141
0.0
143
0.0393701
144
2.000000101657589
146
0.71
147
1.5
172
     1
176
   256
177
   256
178
     7
271
     2
272
     3
274
     4
283
     0
284
     8
340
11
371
    -1
372
    -1
  0
DIMSTYLE
105
A44D
330
A
100
AcDbSymbolTableRecord
100
AcDbDimStyleTableRecord
  2
SYSORG2P0$0
 70
     0
  4
"
 41
1.0
 42
1.5
 43
10.0
 44
1.0
 47
0.1
 48
0.1
 73
     0
 74
     0
 77
     1
 78
     8
 79
     2
140
3.2
141
0.0
143
0.0393701
144
2.000000101657589
146
0.71
147
1.5
172
     1
176
   256
177
   256
178
     2
271
     1
272
     1
283
     0
284
     8
340
11
341
A66
342
6C4
371
    -1
372
    -1
  0
DIMSTYLE
105
A44E
330
A
100
AcDbSymbolTableRecord
100
AcDbDimStyleTableRecord
  2
SYSORG2P0$3
 70
     0
  4
"
 41
2.0
 42
1.0
 43
10.0
 44
1.0
 47
0.1
 48
0.1
 73
     0
 77
     1
 78
     8
 79
     2
140
3.200000000000001
141
0.0
143
0.0393701
144
2.000000101657589
146
0.71
147
1.5
176
   256
177
   256
178
     2
271
     1
272
     1
283
     0
284
     8
288
     1
340
11
342
A66
371
    -1
372
    -1
  0
DIMSTYLE
105
B252
330
A
100
AcDbSymbolTableRecord
100
AcDbDimStyleTableRecord
  2
HAMA
 70
     0
  4
"
 41
1.0
 42
1.5
 43
10.0
 44
1.0
 47
0.1
 48
0.1
 73
     0
 74
     0
 77
     1
 78
     8
 79
     2
140
3.2
141
0.0
143
0.0393701
146
0.71
147
1.5
172
     1
176
   256
177
   256
178
     2
271
     2
272
     1
283
     0
284
     8
340
11
341
A66
342
6C4
371
    -1
372
    -1
  0
DIMSTYLE
105
D58D
330
A
100
AcDbSymbolTableRecord
100
AcDbDimStyleTableRecord
  2
SYMBOL
 70
     0
  4
"
 41
2.5
 42
1.0
 43
10.0
 44
1.0
 47
0.1
 48
0.1
 73
     0
 74
     0
 77
     1
 78
     8
 79
     2
140
3.5
141
0.0
143
0.0393701
146
0.71
147
1.5
172
     1
176
   256
177
   256
178
     7
271
     2
272
     3
274
     4
283
     0
284
     8
340
11
371
    -1
372
    -1
  0
DIMSTYLE
105
D58E
330
A
100
AcDbSymbolTableRecord
100
AcDbDimStyleTableRecord
  2
HA
 70
     0
  4
"
 41
1.0
 42
1.5
 43
10.0
 44
1.0
 47
0.1
 48
0.1
 73
     0
 74
     0
 77
     1
 78
     8
 79
     2
140
3.2
141
0.0
143
0.0393701
146
0.71
147
1.5
172
     1
173
     1
176
   256
177
   256
178
     2
271
     2
272
     1
283
     0
284
     8
340
11
341
A66
342
6C4
371
    -1
372
    -1
  0
ENDTAB
  0
TABLE
  2
BLOCK_RECORD
  5
1
330
0
100
AcDbSymbolTable
 70
    26
  0
BLOCK_RECORD
  5
1F
102
{ACAD_XDICTIONARY
360
8A
102
}
330
1
100
AcDbSymbolTableRecord
100
AcDbBlockTableRecord
  2
*Model_Space
340
22
  0
BLOCK_RECORD
  5
1B
330
1
100
AcDbSymbolTableRecord
100
AcDbBlockTableRecord
  2
*Paper_Space
340
1E
  0
BLOCK_RECORD
  5
23
330
1
100
AcDbSymbolTableRecord
100
AcDbBlockTableRecord
  2
*Paper_Space0
340
26
  0
BLOCK_RECORD
  5
72
330
1
100
AcDbSymbolTableRecord
100
AcDbBlockTableRecord
  2
GENAXEH
340
0
  0
BLOCK_RECORD
  5
6C4
330
1
100
AcDbSymbolTableRecord
100
AcDbBlockTableRecord
  2
_Dot
340
0
102
{BLKREFS
331
E3BD
331
E3BE
331
E3C6
331
E3C7
331
E3CF
331
E3D0
331
E3D8
331
E3D9
331
E3E1
331
E3E2
331
E3EA
331
E3EB
331
E3F3
331
E3F4
331
E3FC
331
E3FD
331
E405
331
E406
331
E40E
331
E40F
331
E417
331
E418
331
E420
331
E421
331
E42A
331
E42B
331
E433
331
E434
331
E43C
331
E43D
331
E44B
331
E44C
331
E454
331
E455
331
E45D
331
E45E
331
E469
331
E46A
331
E477
331
E478
102
}
  0
BLOCK_RECORD
  5
A66
330
1
100
AcDbSymbolTableRecord
100
AcDbBlockTableRecord
  2
_OPEN30
340
0
102
{BLKREFS
331
E471
102
}
  0
BLOCK_RECORD
  5
B6B3
330
1
100
AcDbSymbolTableRecord
100
AcDbBlockTableRecord
  2
*D5
340
0
  0
BLOCK_RECORD
  5
B6D7
330
1
100
AcDbSymbolTableRecord
100
AcDbBlockTableRecord
  2
*D6
340
0
  0
BLOCK_RECORD
  5
B70D
330
1
100
AcDbSymbolTableRecord
100
AcDbBlockTableRecord
  2
*D7
340
0
  0
BLOCK_RECORD
  5
B731
330
1
100
AcDbSymbolTableRecord
100
AcDbBlockTableRecord
  2
*D8
340
0
  0
BLOCK_RECORD
  5
B755
330
1
100
AcDbSymbolTableRecord
100
AcDbBlockTableRecord
  2
*D9
340
0
  0
BLOCK_RECORD
  5
B779
330
1
100
AcDbSymbolTableRecord
100
AcDbBlockTableRecord
  2
*D10
340
0
  0
BLOCK_RECORD
  5
B800
330
1
100
AcDbSymbolTableRecord
100
AcDbBlockTableRecord
  2
*D11
340
0
  0
BLOCK_RECORD
  5
B824
330
1
100
AcDbSymbolTableRecord
100
AcDbBlockTableRecord
  2
*D12
340
0
  0
BLOCK_RECORD
  5
B848
330
1
100
AcDbSymbolTableRecord
100
AcDbBlockTableRecord
  2
*D13
340
0
  0
BLOCK_RECORD
  5
B86C
330
1
100
AcDbSymbolTableRecord
100
AcDbBlockTableRecord
  2
*D14
340
0
  0
BLOCK_RECORD
  5
B890
330
1
100
AcDbSymbolTableRecord
100
AcDbBlockTableRecord
  2
*D15
340
0
  0
BLOCK_RECORD
  5
B8B4
330
1
100
AcDbSymbolTableRecord
100
AcDbBlockTableRecord
  2
*D16
340
0
  0
BLOCK_RECORD
  5
B8FC
330
1
100
AcDbSymbolTableRecord
100
AcDbBlockTableRecord
  2
*D17
340
0
  0
BLOCK_RECORD
  5
B92C
330
1
100
AcDbSymbolTableRecord
100
AcDbBlockTableRecord
  2
*D18
340
0
  0
BLOCK_RECORD
  5
B95E
330
1
100
AcDbSymbolTableRecord
100
AcDbBlockTableRecord
  2
*D19
340
0
  0
BLOCK_RECORD
  5
BA5D
330
1
100
AcDbSymbolTableRecord
100
AcDbBlockTableRecord
  2
*D20
340
0
  0
BLOCK_RECORD
  5
BBA4
330
1
100
AcDbSymbolTableRecord
100
AcDbBlockTableRecord
  2
*D21
340
0
  0
BLOCK_RECORD
  5
BC0B
330
1
100
AcDbSymbolTableRecord
100
AcDbBlockTableRecord
  2
*D22
340
0
  0
BLOCK_RECORD
  5
BC46
330
1
100
AcDbSymbolTableRecord
100
AcDbBlockTableRecord
  2
*D23
340
0
  0
BLOCK_RECORD
  5
BDCA
330
1
100
AcDbSymbolTableRecord
100
AcDbBlockTableRecord
  2
*D24
340
0
  0
BLOCK_RECORD
  5
BE34
330
1
100
AcDbSymbolTableRecord
100
AcDbBlockTableRecord
  2
*D25
340
0
  0
ENDTAB
  0
ENDSEC
  0
SECTION
  2
BLOCKS
  0
BLOCK
  5
20
330
1F
100
AcDbEntity
  8
0
100
AcDbBlockBegin
  2
*Model_Space
 70
     0
 10
0.0
 20
0.0
 30
0.0
  3
*Model_Space
  1

  0
ENDBLK
  5
21
330
1F
100
AcDbEntity
  8
0
100
AcDbBlockEnd
  0
BLOCK
  5
1C
330
1B
100
AcDbEntity
 67
     1
  8
0
100
AcDbBlockBegin
  2
*Paper_Space
 70
     0
 10
0.0
 20
0.0
 30
0.0
  3
*Paper_Space
  1

  0
ENDBLK
  5
1D
330
1B
100
AcDbEntity
 67
     1
  8
0
100
AcDbBlockEnd
  0
BLOCK
  5
24
330
23
100
AcDbEntity
 67
     1
  8
0
100
AcDbBlockBegin
  2
*Paper_Space0
 70
     0
 10
0.0
 20
0.0
 30
0.0
  3
*Paper_Space0
  1

  0
ENDBLK
  5
25
330
23
100
AcDbEntity
 67
     1
  8
0
100
AcDbBlockEnd
  0
BLOCK
  5
74
330
72
100
AcDbEntity
  8
0
100
AcDbBlockBegin
  2
GENAXEH
 70
     0
 10
0.0
 20
0.0
 30
0.0
  3
GENAXEH
  1

  0
LINE
  5
73
330
72
100
AcDbEntity
  8
0
100
AcDbLine
 10
-1.0
 20
0.0
 30
0.0
 11
1.0
 21
0.0
 31
0.0
  0
ENDBLK
  5
75
330
72
100
AcDbEntity
  8
0
100
AcDbBlockEnd
  0
BLOCK
  5
6C7
330
6C4
100
AcDbEntity
  8
0
100
AcDbBlockBegin
  2
_Dot
 70
     0
 10
0.0
 20
0.0
 30
0.0
  3
_Dot
  1

  0
LWPOLYLINE
  5
6C5
330
6C4
100
AcDbEntity
  8
0
  6
ByBlock
 62
     0
100
AcDbPolyline
 90
        2
 70
     1
 43
0.5
 10
-0.25
 20
0.0
 42
1.0
 10
0.25
 20
0.0
 42
1.0
  0
LINE
  5
6C6
330
6C4
100
AcDbEntity
  8
0
  6
ByBlock
 62
     0
370
    -2
100
AcDbLine
 10
-0.5
 20
0.0
 30
0.0
 11
-1.0
 21
0.0
 31
0.0
  0
ENDBLK
  5
6C8
330
6C4
100
AcDbEntity
  8
0
100
AcDbBlockEnd
  0
BLOCK
  5
A6A
330
A66
100
AcDbEntity
  8
0
100
AcDbBlockBegin
  2
_OPEN30
 70
     0
 10
0.0
 20
0.0
 30
0.0
  3
_OPEN30
  1

  0
LINE
  5
A67
330
A66
100
AcDbEntity
  8
0
  6
ByBlock
 62
     0
100
AcDbLine
 10
-1.0
 20
0.26794919
 30
0.0
 11
0.0
 21
0.0
 31
0.0
  0
LINE
  5
A68
330
A66
100
AcDbEntity
  8
0
  6
ByBlock
 62
     0
100
AcDbLine
 10
0.0
 20
0.0
 30
0.0
 11
-1.0
 21
-0.26794919
 31
0.0
  0
LINE
  5
A69
330
A66
100
AcDbEntity
  8
0
  6
ByBlock
 62
     0
100
AcDbLine
 10
0.0
 20
0.0
 30
0.0
 11
-1.0
 21
0.0
 31
0.0
  0
ENDBLK
  5
A6B
330
A66
100
AcDbEntity
  8
0
100
AcDbBlockEnd
  0
BLOCK
  5
B6BD
330
B6B3
100
AcDbEntity
  8
0
100
AcDbBlockBegin
  2
*D5
 70
     1
 10
0.0
 20
0.0
 30
0.0
  3
*D5
  1

  0
LINE
  5
E3BA
330
B6B3
100
AcDbEntity
  8
AM_5
100
AcDbLine
 10
193.0282028632319
 20
363.3507990013741
 30
0.0
 11
193.0282028632319
 21
382.8507990013741
 31
0.0
  0
LINE
  5
E3BB
330
B6B3
100
AcDbEntity
  8
AM_5
100
AcDbLine
 10
218.028202863232
 20
363.3507990013741
 30
0.0
 11
218.028202863232
 21
382.8507990013741
 31
0.0
  0
LINE
  5
E3BC
330
B6B3
100
AcDbEntity
  8
AM_5
100
AcDbLine
 10
194.0282028632319
 20
381.850799001374
 30
0.0
 11
217.028202863232
 21
381.850799001374
 31
0.0
  0
INSERT
  5
E3BD
330
B6B3
100
AcDbEntity
  8
AM_5
100
AcDbBlockReference
  2
_Dot
 10
193.0282028632319
 20
381.850799001374
 30
0.0
 41
1.0
 42
1.0
 43
1.0
 50
180.0
  0
INSERT
  5
E3BE
330
B6B3
100
AcDbEntity
  8
AM_5
100
AcDbBlockReference
  2
_Dot
 10
218.028202863232
 20
381.850799001374
 30
0.0
 41
1.0
 42
1.0
 43
1.0
  0
MTEXT
  5
E3BF
330
B6B3
100
AcDbEntity
  8
AM_5
 62
     2
100
AcDbMText
 10
205.528202863232
 20
384.9507990013741
 30
0.0
 40
3.2
 41
0.0
 71
     5
 72
     1
  1
25
 73
     1
 44
1.0
1001
ACAD
1000
MTEXTBEGIN
1070
    73
1070
     1
1070
    44
1040
1.0
1070
    74
1070
     0
1000
MTEXTEND
  0
POINT
  5
E3C0
330
B6B3
100
AcDbEntity
  8
Defpoints
 62
     0
100
AcDbPoint
 10
193.0282028632319
 20
361.8507990013741
 30
0.0
  0
POINT
  5
E3C1
330
B6B3
100
AcDbEntity
  8
Defpoints
 62
     0
100
AcDbPoint
 10
218.028202863232
 20
361.8507990013741
 30
0.0
  0
POINT
  5
E3C2
330
B6B3
100
AcDbEntity
  8
Defpoints
 62
     0
100
AcDbPoint
 10
218.028202863232
 20
381.850799001374
 30
0.0
  0
ENDBLK
  5
B6BE
330
B6B3
100
AcDbEntity
  8
0
100
AcDbBlockEnd
  0
BLOCK
  5
B6E1
330
B6D7
100
AcDbEntity
  8
0
100
AcDbBlockBegin
  2
*D6
 70
     1
 10
0.0
 20
0.0
 30
0.0
  3
*D6
  1

  0
LINE
  5
E3C3
330
B6D7
100
AcDbEntity
  8
AM_5
100
AcDbLine
 10
198.5282028632319
 20
359.3507990013741
 30
0.0
 11
198.5282028632319
 21
372.8507990013739
 31
0.0
  0
LINE
  5
E3C4
330
B6D7
100
AcDbEntity
  8
AM_5
100
AcDbLine
 10
212.5282028632319
 20
359.3507990013741
 30
0.0
 11
212.5282028632319
 21
372.8507990013739
 31
0.0
  0
LINE
  5
E3C5
330
B6D7
100
AcDbEntity
  8
AM_5
100
AcDbLine
 10
199.5282028632319
 20
371.8507990013738
 30
0.0
 11
211.5282028632319
 21
371.8507990013738
 31
0.0
  0
INSERT
  5
E3C6
330
B6D7
100
AcDbEntity
  8
AM_5
100
AcDbBlockReference
  2
_Dot
 10
198.5282028632319
 20
371.8507990013738
 30
0.0
 41
1.0
 42
1.0
 43
1.0
 50
180.0
  0
INSERT
  5
E3C7
330
B6D7
100
AcDbEntity
  8
AM_5
100
AcDbBlockReference
  2
_Dot
 10
212.5282028632319
 20
371.8507990013738
 30
0.0
 41
1.0
 42
1.0
 43
1.0
  0
MTEXT
  5
E3C8
330
B6D7
100
AcDbEntity
  8
AM_5
 62
     2
100
AcDbMText
 10
205.5282028632319
 20
374.9507990013739
 30
0.0
 40
3.2
 41
0.0
 71
     5
 72
     1
  1
14
 73
     1
 44
1.0
1001
ACAD
1000
MTEXTBEGIN
1070
    73
1070
     1
1070
    44
1040
1.0
1070
    74
1070
     0
1000
MTEXTEND
  0
POINT
  5
E3C9
330
B6D7
100
AcDbEntity
  8
Defpoints
 62
     0
100
AcDbPoint
 10
198.5282028632319
 20
357.8507990013741
 30
0.0
  0
POINT
  5
E3CA
330
B6D7
100
AcDbEntity
  8
Defpoints
 62
     0
100
AcDbPoint
 10
212.5282028632319
 20
357.8507990013741
 30
0.0
  0
POINT
  5
E3CB
330
B6D7
100
AcDbEntity
  8
Defpoints
 62
     0
100
AcDbPoint
 10
212.5282028632319
 20
371.8507990013738
 30
0.0
  0
ENDBLK
  5
B6E2
330
B6D7
100
AcDbEntity
  8
0
100
AcDbBlockEnd
  0
BLOCK
  5
B717
330
B70D
100
AcDbEntity
  8
0
100
AcDbBlockBegin
  2
*D7
 70
     1
 10
0.0
 20
0.0
 30
0.0
  3
*D7
  1

  0
LINE
  5
E3CC
330
B70D
100
AcDbEntity
  8
AM_5
100
AcDbLine
 10
219.028202863232
 20
351.8507990013741
 30
0.0
 11
239.028202863232
 21
351.8507990013741
 31
0.0
  0
LINE
  5
E3CD
330
B70D
100
AcDbEntity
  8
AM_5
100
AcDbLine
 10
219.528202863232
 20
361.8507990013741
 30
0.0
 11
239.028202863232
 21
361.8507990013741
 31
0.0
  0
LINE
  5
E3CE
330
B70D
100
AcDbEntity
  8
AM_5
100
AcDbLine
 10
238.028202863232
 20
352.8507990013741
 30
0.0
 11
238.028202863232
 21
360.8507990013741
 31
0.0
  0
INSERT
  5
E3CF
330
B70D
100
AcDbEntity
  8
AM_5
100
AcDbBlockReference
  2
_Dot
 10
238.028202863232
 20
351.8507990013741
 30
0.0
 41
1.0
 42
1.0
 43
1.0
 50
270.0
  0
INSERT
  5
E3D0
330
B70D
100
AcDbEntity
  8
AM_5
100
AcDbBlockReference
  2
_Dot
 10
238.028202863232
 20
361.8507990013741
 30
0.0
 41
1.0
 42
1.0
 43
1.0
 50
90.0
  0
MTEXT
  5
E3D1
330
B70D
100
AcDbEntity
  8
AM_5
 62
     2
100
AcDbMText
 10
234.9282028632319
 20
356.8507990013741
 30
0.0
 40
3.2
 41
0.0
 71
     5
 72
     1
  1
10
 11
0.0000000000000001
 21
1.0
 31
0.0
 73
     1
 44
1.0
1001
ACAD
1000
MTEXTBEGIN
1070
    73
1070
     1
1070
    44
1040
1.0
1070
    74
1070
     0
1000
MTEXTEND
  0
POINT
  5
E3D2
330
B70D
100
AcDbEntity
  8
Defpoints
 62
     0
100
AcDbPoint
 10
217.528202863232
 20
351.8507990013741
 30
0.0
  0
POINT
  5
E3D3
330
B70D
100
AcDbEntity
  8
Defpoints
 62
     0
100
AcDbPoint
 10
218.028202863232
 20
361.8507990013741
 30
0.0
  0
POINT
  5
E3D4
330
B70D
100
AcDbEntity
  8
Defpoints
 62
     0
100
AcDbPoint
 10
238.028202863232
 20
361.8507990013741
 30
0.0
  0
ENDBLK
  5
B718
330
B70D
100
AcDbEntity
  8
0
100
AcDbBlockEnd
  0
BLOCK
  5
B73B
330
B731
100
AcDbEntity
  8
0
100
AcDbBlockBegin
  2
*D8
 70
     1
 10
0.0
 20
0.0
 30
0.0
  3
*D8
  1

  0
LINE
  5
E3D5
330
B731
100
AcDbEntity
  8
AM_5
100
AcDbLine
 10
219.028202863232
 20
351.8507990013741
 30
0.0
 11
239.028202863233
 21
351.8507990013741
 31
0.0
  0
LINE
  5
E3D6
330
B731
100
AcDbEntity
  8
AM_5
100
AcDbLine
 10
219.028202863232
 20
71.85079900137407
 30
0.0
 11
239.0282028632329
 21
71.85079900137406
 31
0.0
  0
LINE
  5
E3D7
330
B731
100
AcDbEntity
  8
AM_5
100
AcDbLine
 10
238.028202863233
 20
350.8507990013741
 30
0.0
 11
238.0282028632329
 21
72.85079900137406
 31
0.0
  0
INSERT
  5
E3D8
330
B731
100
AcDbEntity
  8
AM_5
100
AcDbBlockReference
  2
_Dot
 10
238.028202863233
 20
351.8507990013741
 30
0.0
 41
1.0
 42
1.0
 43
1.0
 50
90.0
  0
INSERT
  5
E3D9
330
B731
100
AcDbEntity
  8
AM_5
100
AcDbBlockReference
  2
_Dot
 10
238.0282028632329
 20
71.85079900137406
 30
0.0
 41
1.0
 42
1.0
 43
1.0
 50
270.0
  0
MTEXT
  5
E3DA
330
B731
100
AcDbEntity
  8
AM_5
 62
     2
100
AcDbMText
 10
234.9282028632329
 20
211.8507990013741
 30
0.0
 40
3.2
 41
0.0
 71
     5
 72
     1
  1
280
 11
0.0000000000000001
 21
1.0
 31
0.0
 73
     1
 44
1.0
1001
ACAD
1000
MTEXTBEGIN
1070
    73
1070
     1
1070
    44
1040
1.0
1070
    74
1070
     0
1000
MTEXTEND
  0
POINT
  5
E3DB
330
B731
100
AcDbEntity
  8
Defpoints
 62
     0
100
AcDbPoint
 10
217.528202863232
 20
351.8507990013741
 30
0.0
  0
POINT
  5
E3DC
330
B731
100
AcDbEntity
  8
Defpoints
 62
     0
100
AcDbPoint
 10
217.528202863232
 20
71.85079900137407
 30
0.0
  0
POINT
  5
E3DD
330
B731
100
AcDbEntity
  8
Defpoints
 62
     0
100
AcDbPoint
 10
238.0282028632329
 20
71.85079900137406
 30
0.0
  0
ENDBLK
  5
B73C
330
B731
100
AcDbEntity
  8
0
100
AcDbBlockEnd
  0
BLOCK
  5
B75F
330
B755
100
AcDbEntity
  8
0
100
AcDbBlockBegin
  2
*D9
 70
     1
 10
0.0
 20
0.0
 30
0.0
  3
*D9
  1

  0
LINE
  5
E3DE
330
B755
100
AcDbEntity
  8
AM_5
100
AcDbLine
 10
219.028202863232
 20
71.85079900137407
 30
0.0
 11
239.0282028632338
 21
71.85079900137406
 31
0.0
  0
LINE
  5
E3DF
330
B755
100
AcDbEntity
  8
AM_5
100
AcDbLine
 10
219.528202863232
 20
61.85079900137407
 30
0.0
 11
239.0282028632337
 21
61.85079900137407
 31
0.0
  0
LINE
  5
E3E0
330
B755
100
AcDbEntity
  8
AM_5
100
AcDbLine
 10
238.0282028632338
 20
70.85079900137405
 30
0.0
 11
238.0282028632337
 21
62.85079900137407
 31
0.0
  0
INSERT
  5
E3E1
330
B755
100
AcDbEntity
  8
AM_5
100
AcDbBlockReference
  2
_Dot
 10
238.0282028632338
 20
71.85079900137406
 30
0.0
 41
1.0
 42
1.0
 43
1.0
 50
90.0
  0
INSERT
  5
E3E2
330
B755
100
AcDbEntity
  8
AM_5
100
AcDbBlockReference
  2
_Dot
 10
238.0282028632337
 20
61.85079900137407
 30
0.0
 41
1.0
 42
1.0
 43
1.0
 50
270.0
  0
MTEXT
  5
E3E3
330
B755
100
AcDbEntity
  8
AM_5
 62
     2
100
AcDbMText
 10
234.9282028632337
 20
66.85079900137409
 30
0.0
 40
3.2
 41
0.0
 71
     5
 72
     1
  1
10
 11
0.0000000000000001
 21
1.0
 31
0.0
 73
     1
 44
1.0
1001
ACAD
1000
MTEXTBEGIN
1070
    73
1070
     1
1070
    44
1040
1.0
1070
    74
1070
     0
1000
MTEXTEND
  0
POINT
  5
E3E4
330
B755
100
AcDbEntity
  8
Defpoints
 62
     0
100
AcDbPoint
 10
217.528202863232
 20
71.85079900137407
 30
0.0
  0
POINT
  5
E3E5
330
B755
100
AcDbEntity
  8
Defpoints
 62
     0
100
AcDbPoint
 10
218.028202863232
 20
61.85079900137407
 30
0.0
  0
POINT
  5
E3E6
330
B755
100
AcDbEntity
  8
Defpoints
 62
     0
100
AcDbPoint
 10
238.0282028632337
 20
61.85079900137407
 30
0.0
  0
ENDBLK
  5
B760
330
B755
100
AcDbEntity
  8
0
100
AcDbBlockEnd
  0
BLOCK
  5
B783
330
B779
100
AcDbEntity
  8
0
100
AcDbBlockBegin
  2
*D10
 70
     1
 10
0.0
 20
0.0
 30
0.0
  3
*D10
  1

  0
LINE
  5
E3E7
330
B779
100
AcDbEntity
  8
AM_5
100
AcDbLine
 10
219.528202863232
 20
61.85079900137407
 30
0.0
 11
249.0282028632343
 21
61.85079900137406
 31
0.0
  0
LINE
  5
E3E8
330
B779
100
AcDbEntity
  8
AM_5
100
AcDbLine
 10
219.528202863232
 20
361.8507990013741
 30
0.0
 11
249.0282028632344
 21
361.8507990013741
 31
0.0
  0
LINE
  5
E3E9
330
B779
100
AcDbEntity
  8
AM_5
100
AcDbLine
 10
248.0282028632343
 20
62.85079900137406
 30
0.0
 11
248.0282028632343
 21
360.8507990013741
 31
0.0
  0
INSERT
  5
E3EA
330
B779
100
AcDbEntity
  8
AM_5
100
AcDbBlockReference
  2
_Dot
 10
248.0282028632343
 20
61.85079900137406
 30
0.0
 41
1.0
 42
1.0
 43
1.0
 50
270.0
  0
INSERT
  5
E3EB
330
B779
100
AcDbEntity
  8
AM_5
100
AcDbBlockReference
  2
_Dot
 10
248.0282028632343
 20
361.8507990013741
 30
0.0
 41
1.0
 42
1.0
 43
1.0
 50
90.0
  0
MTEXT
  5
E3EC
330
B779
100
AcDbEntity
  8
AM_5
 62
     2
100
AcDbMText
 10
244.9282028632343
 20
211.8507990013741
 30
0.0
 40
3.2
 41
0.0
 71
     5
 72
     1
  1
300（切欠300.5×25.5）
 11
0.0000000000000001
 21
1.0
 31
0.0
 73
     1
 44
1.0
1001
ACAD
1000
MTEXTBEGIN
1070
    73
1070
     1
1070
    44
1040
1.0
1070
    74
1070
     0
1000
MTEXTEND
  0
POINT
  5
E3ED
330
B779
100
AcDbEntity
  8
Defpoints
 62
     0
100
AcDbPoint
 10
218.028202863232
 20
61.85079900137407
 30
0.0
  0
POINT
  5
E3EE
330
B779
100
AcDbEntity
  8
Defpoints
 62
     0
100
AcDbPoint
 10
218.028202863232
 20
361.8507990013741
 30
0.0
  0
POINT
  5
E3EF
330
B779
100
AcDbEntity
  8
Defpoints
 62
     0
100
AcDbPoint
 10
248.0282028632343
 20
361.8507990013741
 30
0.0
  0
ENDBLK
  5
B784
330
B779
100
AcDbEntity
  8
0
100
AcDbBlockEnd
  0
BLOCK
  5
B80A
330
B800
100
AcDbEntity
  8
0
100
AcDbBlockBegin
  2
*D11
 70
     1
 10
0.0
 20
0.0
 30
0.0
  3
*D11
  1

  0
LINE
  5
E3F0
330
B800
100
AcDbEntity
  8
AM_5
100
AcDbLine
 10
330.1847839321031
 20
151.8507837425843
 30
0.0
 11
320.6847839321031
 21
151.8507837425843
 31
0.0
  0
LINE
  5
E3F1
330
B800
100
AcDbEntity
  8
AM_5
100
AcDbLine
 10
339.6847839321031
 20
211.8508447777342
 30
0.0
 11
320.6847839321031
 21
211.8508447777342
 31
0.0
  0
LINE
  5
E3F2
330
B800
100
AcDbEntity
  8
AM_5
100
AcDbLine
 10
321.6847839321031
 20
152.8507837425843
 30
0.0
 11
321.6847839321031
 21
210.8508447777342
 31
0.0
  0
INSERT
  5
E3F3
330
B800
100
AcDbEntity
  8
AM_5
100
AcDbBlockReference
  2
_Dot
 10
321.6847839321031
 20
151.8507837425843
 30
0.0
 41
1.0
 42
1.0
 43
1.0
 50
270.0
  0
INSERT
  5
E3F4
330
B800
100
AcDbEntity
  8
AM_5
100
AcDbBlockReference
  2
_Dot
 10
321.6847839321031
 20
211.8508447777342
 30
0.0
 41
1.0
 42
1.0
 43
1.0
 50
90.0
  0
MTEXT
  5
E3F5
330
B800
100
AcDbEntity
  8
AM_5
 62
     2
100
AcDbMText
 10
318.584783932103
 20
181.8508142601593
 30
0.0
 40
3.2
 41
0.0
 71
     5
 72
     1
  1
60
 11
0.0000000000000001
 21
1.0
 31
0.0
 73
     1
 44
1.0
1001
ACAD
1000
MTEXTBEGIN
1070
    73
1070
     1
1070
    44
1040
1.0
1070
    74
1070
     0
1000
MTEXTEND
  0
POINT
  5
E3F6
330
B800
100
AcDbEntity
  8
Defpoints
 62
     0
100
AcDbPoint
 10
331.6847839321031
 20
151.8507837425843
 30
0.0
  0
POINT
  5
E3F7
330
B800
100
AcDbEntity
  8
Defpoints
 62
     0
100
AcDbPoint
 10
341.1847839321031
 20
211.8508447777342
 30
0.0
  0
POINT
  5
E3F8
330
B800
100
AcDbEntity
  8
Defpoints
 62
     0
100
AcDbPoint
 10
321.6847839321031
 20
211.8508447777342
 30
0.0
  0
ENDBLK
  5
B80B
330
B800
100
AcDbEntity
  8
0
100
AcDbBlockEnd
  0
BLOCK
  5
B82E
330
B824
100
AcDbEntity
  8
0
100
AcDbBlockBegin
  2
*D12
 70
     1
 10
0.0
 20
0.0
 30
0.0
  3
*D12
  1

  0
LINE
  5
E3F9
330
B824
100
AcDbEntity
  8
AM_5
100
AcDbLine
 10
412.594818111793
 20
186.8507837425841
 30
0.0
 11
310.6847839321031
 21
186.8507837425841
 31
0.0
  0
LINE
  5
E3FA
330
B824
100
AcDbEntity
  8
AM_5
100
AcDbLine
 10
330.1847839321031
 20
151.8507837425843
 30
0.0
 11
310.6847839321031
 21
151.8507837425843
 31
0.0
  0
LINE
  5
E3FB
330
B824
100
AcDbEntity
  8
AM_5
100
AcDbLine
 10
311.6847839321031
 20
185.8507837425841
 30
0.0
 11
311.6847839321031
 21
152.8507837425843
 31
0.0
  0
INSERT
  5
E3FC
330
B824
100
AcDbEntity
  8
AM_5
100
AcDbBlockReference
  2
_Dot
 10
311.6847839321031
 20
186.8507837425841
 30
0.0
 41
1.0
 42
1.0
 43
1.0
 50
90.0
  0
INSERT
  5
E3FD
330
B824
100
AcDbEntity
  8
AM_5
100
AcDbBlockReference
  2
_Dot
 10
311.6847839321031
 20
151.8507837425843
 30
0.0
 41
1.0
 42
1.0
 43
1.0
 50
270.0
  0
MTEXT
  5
E3FE
330
B824
100
AcDbEntity
  8
AM_5
 62
     2
100
AcDbMText
 10
308.584783932103
 20
169.3507837425842
 30
0.0
 40
3.2
 41
0.0
 71
     5
 72
     1
  1
35
 11
0.0000000000000001
 21
1.0
 31
0.0
 73
     1
 44
1.0
1001
ACAD
1000
MTEXTBEGIN
1070
    73
1070
     1
1070
    44
1040
1.0
1070
    74
1070
     0
1000
MTEXTEND
  0
POINT
  5
E3FF
330
B824
100
AcDbEntity
  8
Defpoints
 62
     0
100
AcDbPoint
 10
414.0948181117931
 20
186.8507837425841
 30
0.0
  0
POINT
  5
E400
330
B824
100
AcDbEntity
  8
Defpoints
 62
     0
100
AcDbPoint
 10
331.6847839321031
 20
151.8507837425843
 30
0.0
  0
POINT
  5
E401
330
B824
100
AcDbEntity
  8
Defpoints
 62
     0
100
AcDbPoint
 10
311.6847839321031
 20
151.8507837425843
 30
0.0
  0
ENDBLK
  5
B82F
330
B824
100
AcDbEntity
  8
0
100
AcDbBlockEnd
  0
BLOCK
  5
B852
330
B848
100
AcDbEntity
  8
0
100
AcDbBlockBegin
  2
*D13
 70
     1
 10
0.0
 20
0.0
 30
0.0
  3
*D13
  1

  0
LINE
  5
E402
330
B848
100
AcDbEntity
  8
AM_5
100
AcDbLine
 10
330.1847839321031
 20
151.8507837425843
 30
0.0
 11
310.6847839321031
 21
151.8507837425843
 31
0.0
  0
LINE
  5
E403
330
B848
100
AcDbEntity
  8
AM_5
100
AcDbLine
 10
362.9848023634497
 20
86.85080508104215
 30
0.0
 11
310.6847839321031
 21
86.85080508104217
 31
0.0
  0
LINE
  5
E404
330
B848
100
AcDbEntity
  8
AM_5
100
AcDbLine
 10
311.6847839321031
 20
150.8507837425843
 30
0.0
 11
311.6847839321031
 21
87.85080508104217
 31
0.0
  0
INSERT
  5
E405
330
B848
100
AcDbEntity
  8
AM_5
100
AcDbBlockReference
  2
_Dot
 10
311.6847839321031
 20
151.8507837425843
 30
0.0
 41
1.0
 42
1.0
 43
1.0
 50
90.0
  0
INSERT
  5
E406
330
B848
100
AcDbEntity
  8
AM_5
100
AcDbBlockReference
  2
_Dot
 10
311.6847839321031
 20
86.85080508104217
 30
0.0
 41
1.0
 42
1.0
 43
1.0
 50
270.0
  0
MTEXT
  5
E407
330
B848
100
AcDbEntity
  8
AM_5
 62
     2
100
AcDbMText
 10
308.5847839321031
 20
119.3507944118133
 30
0.0
 40
3.2
 41
0.0
 71
     5
 72
     1
  1
65
 11
0.0000000000000001
 21
1.0
 31
0.0
 73
     1
 44
1.0
1001
ACAD
1000
MTEXTBEGIN
1070
    73
1070
     1
1070
    44
1040
1.0
1070
    74
1070
     0
1000
MTEXTEND
  0
POINT
  5
E408
330
B848
100
AcDbEntity
  8
Defpoints
 62
     0
100
AcDbPoint
 10
331.6847839321031
 20
151.8507837425843
 30
0.0
  0
POINT
  5
E409
330
B848
100
AcDbEntity
  8
Defpoints
 62
     0
100
AcDbPoint
 10
364.4848023634497
 20
86.85080508104215
 30
0.0
  0
POINT
  5
E40A
330
B848
100
AcDbEntity
  8
Defpoints
 62
     0
100
AcDbPoint
 10
311.6847839321031
 20
86.85080508104217
 30
0.0
  0
ENDBLK
  5
B853
330
B848
100
AcDbEntity
  8
0
100
AcDbBlockEnd
  0
BLOCK
  5
B876
330
B86C
100
AcDbEntity
  8
0
100
AcDbBlockBegin
  2
*D14
 70
     1
 10
0.0
 20
0.0
 30
0.0
  3
*D14
  1

  0
LINE
  5
E40B
330
B86C
100
AcDbEntity
  8
AM_5
100
AcDbLine
 10
362.9848023634497
 20
86.85080508104215
 30
0.0
 11
310.6847839321035
 21
86.85080508104217
 31
0.0
  0
LINE
  5
E40C
330
B86C
100
AcDbEntity
  8
AM_5
100
AcDbLine
 10
356.1847839321031
 20
61.85082951895219
 30
0.0
 11
310.6847839321035
 21
61.8508295189522
 31
0.0
  0
LINE
  5
E40D
330
B86C
100
AcDbEntity
  8
AM_5
100
AcDbLine
 10
311.6847839321035
 20
85.85080508104217
 30
0.0
 11
311.6847839321035
 21
62.8508295189522
 31
0.0
  0
INSERT
  5
E40E
330
B86C
100
AcDbEntity
  8
AM_5
100
AcDbBlockReference
  2
_Dot
 10
311.6847839321035
 20
86.85080508104217
 30
0.0
 41
1.0
 42
1.0
 43
1.0
 50
90.0
  0
INSERT
  5
E40F
330
B86C
100
AcDbEntity
  8
AM_5
100
AcDbBlockReference
  2
_Dot
 10
311.6847839321035
 20
61.8508295189522
 30
0.0
 41
1.0
 42
1.0
 43
1.0
 50
270.0
  0
MTEXT
  5
E410
330
B86C
100
AcDbEntity
  8
AM_5
 62
     2
100
AcDbMText
 10
308.5847839321035
 20
74.35081729999724
 30
0.0
 40
3.2
 41
0.0
 71
     5
 72
     1
  1
25
 11
0.0000000000000001
 21
1.0
 31
0.0
 73
     1
 44
1.0
1001
ACAD
1000
MTEXTBEGIN
1070
    73
1070
     1
1070
    44
1040
1.0
1070
    74
1070
     0
1000
MTEXTEND
  0
POINT
  5
E411
330
B86C
100
AcDbEntity
  8
Defpoints
 62
     0
100
AcDbPoint
 10
364.4848023634497
 20
86.85080508104215
 30
0.0
  0
POINT
  5
E412
330
B86C
100
AcDbEntity
  8
Defpoints
 62
     0
100
AcDbPoint
 10
357.6847839321031
 20
61.85082951895219
 30
0.0
  0
POINT
  5
E413
330
B86C
100
AcDbEntity
  8
Defpoints
 62
     0
100
AcDbPoint
 10
311.6847839321035
 20
61.8508295189522
 30
0.0
  0
ENDBLK
  5
B877
330
B86C
100
AcDbEntity
  8
0
100
AcDbBlockEnd
  0
BLOCK
  5
B89A
330
B890
100
AcDbEntity
  8
0
100
AcDbBlockBegin
  2
*D15
 70
     1
 10
0.0
 20
0.0
 30
0.0
  3
*D15
  1

  0
LINE
  5
E414
330
B890
100
AcDbEntity
  8
AM_5
100
AcDbLine
 10
412.594818111793
 20
186.8507837425841
 30
0.0
 11
310.6847839321031
 21
186.8507837425841
 31
0.0
  0
LINE
  5
E415
330
B890
100
AcDbEntity
  8
AM_5
100
AcDbLine
 10
400.3217678158246
 20
256.8508295189442
 30
0.0
 11
310.6847839321031
 21
256.8508295189443
 31
0.0
  0
LINE
  5
E416
330
B890
100
AcDbEntity
  8
AM_5
100
AcDbLine
 10
311.6847839321031
 20
187.8507837425841
 30
0.0
 11
311.6847839321031
 21
255.8508295189443
 31
0.0
  0
INSERT
  5
E417
330
B890
100
AcDbEntity
  8
AM_5
100
AcDbBlockReference
  2
_Dot
 10
311.6847839321031
 20
186.8507837425841
 30
0.0
 41
1.0
 42
1.0
 43
1.0
 50
270.0
  0
INSERT
  5
E418
330
B890
100
AcDbEntity
  8
AM_5
100
AcDbBlockReference
  2
_Dot
 10
311.6847839321031
 20
256.8508295189443
 30
0.0
 41
1.0
 42
1.0
 43
1.0
 50
90.0
  0
MTEXT
  5
E419
330
B890
100
AcDbEntity
  8
AM_5
 62
     2
100
AcDbMText
 10
308.584783932103
 20
221.8508066307642
 30
0.0
 40
3.2
 41
0.0
 71
     5
 72
     1
  1
SP　70
 11
0.0000000000000001
 21
1.0
 31
0.0
 73
     1
 44
1.0
1001
ACAD
1000
MTEXTBEGIN
1070
    73
1070
     1
1070
    44
1040
1.0
1070
    74
1070
     0
1000
MTEXTEND
  0
POINT
  5
E41A
330
B890
100
AcDbEntity
  8
Defpoints
 62
     0
100
AcDbPoint
 10
414.0948181117931
 20
186.8507837425841
 30
0.0
  0
POINT
  5
E41B
330
B890
100
AcDbEntity
  8
Defpoints
 62
     0
100
AcDbPoint
 10
401.8217678158245
 20
256.8508295189442
 30
0.0
  0
POINT
  5
E41C
330
B890
100
AcDbEntity
  8
Defpoints
 62
     0
100
AcDbPoint
 10
311.6847839321031
 20
256.8508295189443
 30
0.0
  0
ENDBLK
  5
B89B
330
B890
100
AcDbEntity
  8
0
100
AcDbBlockEnd
  0
BLOCK
  5
B8BE
330
B8B4
100
AcDbEntity
  8
0
100
AcDbBlockBegin
  2
*D16
 70
     1
 10
0.0
 20
0.0
 30
0.0
  3
*D16
  1

  0
LINE
  5
E41D
330
B8B4
100
AcDbEntity
  8
AM_5
100
AcDbLine
 10
400.3217678158246
 20
256.8508295189442
 30
0.0
 11
310.6847839321031
 21
256.8508295189443
 31
0.0
  0
LINE
  5
E41E
330
B8B4
100
AcDbEntity
  8
AM_5
100
AcDbLine
 10
362.984802242653
 20
336.8508295189442
 30
0.0
 11
310.6847839321031
 21
336.8508295189442
 31
0.0
  0
LINE
  5
E41F
330
B8B4
100
AcDbEntity
  8
AM_5
100
AcDbLine
 10
311.6847839321031
 20
257.8508295189443
 30
0.0
 11
311.6847839321031
 21
335.8508295189442
 31
0.0
  0
INSERT
  5
E420
330
B8B4
100
AcDbEntity
  8
AM_5
100
AcDbBlockReference
  2
_Dot
 10
311.6847839321031
 20
256.8508295189443
 30
0.0
 41
1.0
 42
1.0
 43
1.0
 50
270.0
  0
INSERT
  5
E421
330
B8B4
100
AcDbEntity
  8
AM_5
100
AcDbBlockReference
  2
_Dot
 10
311.6847839321031
 20
336.8508295189442
 30
0.0
 41
1.0
 42
1.0
 43
1.0
 50
90.0
  0
MTEXT
  5
E422
330
B8B4
100
AcDbEntity
  8
AM_5
 62
     2
100
AcDbMText
 10
308.584783932103
 20
296.8508295189444
 30
0.0
 40
3.2
 41
0.0
 71
     5
 72
     1
  1
80
 11
0.0000000000000001
 21
1.0
 31
0.0
 73
     1
 44
1.0
1001
ACAD
1000
MTEXTBEGIN
1070
    73
1070
     1
1070
    44
1040
1.0
1070
    74
1070
     0
1000
MTEXTEND
  0
POINT
  5
E423
330
B8B4
100
AcDbEntity
  8
Defpoints
 62
     0
100
AcDbPoint
 10
401.8217678158245
 20
256.8508295189442
 30
0.0
  0
POINT
  5
E424
330
B8B4
100
AcDbEntity
  8
Defpoints
 62
     0
100
AcDbPoint
 10
364.484802242653
 20
336.8508295189442
 30
0.0
  0
POINT
  5
E425
330
B8B4
100
AcDbEntity
  8
Defpoints
 62
     0
100
AcDbPoint
 10
311.6847839321031
 20
336.8508295189442
 30
0.0
  0
ENDBLK
  5
B8BF
330
B8B4
100
AcDbEntity
  8
0
100
AcDbBlockEnd
  0
BLOCK
  5
B908
330
B8FC
100
AcDbEntity
  8
0
100
AcDbBlockBegin
  2
*D17
 70
     1
 10
0.0
 20
0.0
 30
0.0
  3
*D17
  1

  0
LINE
  5
E426
330
B8FC
100
AcDbEntity
  8
AM_5
100
AcDbLine
 10
357.6847839321031
 20
363.3508295189443
 30
0.0
 11
357.6847839321031
 21
372.8508295189442
 31
0.0
  0
LINE
  5
E427
330
B8FC
100
AcDbEntity
  8
AM_5
100
AcDbLine
 10
362.8847961391431
 20
363.3508295189443
 30
0.0
 11
362.8847961391431
 21
372.8508295189442
 31
0.0
  0
LINE
  5
E428
330
B8FC
100
AcDbEntity
  8
AM_5
100
AcDbLine
 10
358.6847839321031
 20
371.8508295189443
 30
0.0
 11
361.8847961391431
 21
371.8508295189443
 31
0.0
  0
LINE
  5
E429
330
B8FC
100
AcDbEntity
  8
AM_5
100
AcDbLine
 10
362.8847961391431
 20
371.8508295189443
 30
0.0
 11
371.5781294724764
 21
371.8508295189443
 31
0.0
  0
INSERT
  5
E42A
330
B8FC
100
AcDbEntity
  8
AM_5
100
AcDbBlockReference
  2
_Dot
 10
357.6847839321031
 20
371.8508295189443
 30
0.0
 41
1.0
 42
1.0
 43
1.0
 50
180.0
  0
INSERT
  5
E42B
330
B8FC
100
AcDbEntity
  8
AM_5
100
AcDbBlockReference
  2
_Dot
 10
362.8847961391431
 20
371.8508295189443
 30
0.0
 41
1.0
 42
1.0
 43
1.0
  0
MTEXT
  5
E42C
330
B8FC
100
AcDbEntity
  8
AM_5
 62
     2
100
AcDbMText
 10
367.7314628058098
 20
374.9508295189443
 30
0.0
 40
3.2
 41
0.0
 71
     5
 72
     1
  1
5.2
 73
     1
 44
1.0
1001
ACAD
1000
MTEXTBEGIN
1070
    73
1070
     1
1070
    44
1040
1.0
1070
    74
1070
     0
1000
MTEXTEND
  0
POINT
  5
E42D
330
B8FC
100
AcDbEntity
  8
Defpoints
 62
     0
100
AcDbPoint
 10
357.6847839321031
 20
361.8508295189442
 30
0.0
  0
POINT
  5
E42E
330
B8FC
100
AcDbEntity
  8
Defpoints
 62
     0
100
AcDbPoint
 10
362.8847961391431
 20
361.8508295189442
 30
0.0
  0
POINT
  5
E42F
330
B8FC
100
AcDbEntity
  8
Defpoints
 62
     0
100
AcDbPoint
 10
362.8847961391431
 20
371.8508295189443
 30
0.0
  0
ENDBLK
  5
B909
330
B8FC
100
AcDbEntity
  8
0
100
AcDbBlockEnd
  0
BLOCK
  5
B936
330
B92C
100
AcDbEntity
  8
0
100
AcDbBlockBegin
  2
*D18
 70
     1
 10
0.0
 20
0.0
 30
0.0
  3
*D18
  1

  0
LINE
  5
E430
330
B92C
100
AcDbEntity
  8
AM_5
100
AcDbLine
 10
357.6847839321031
 20
363.3508295189443
 30
0.0
 11
357.6847839321031
 21
382.850829518944
 31
0.0
  0
LINE
  5
E431
330
B92C
100
AcDbEntity
  8
AM_5
100
AcDbLine
 10
427.6848157406966
 20
342.3508295189443
 30
0.0
 11
427.6848157406966
 21
382.850829518944
 31
0.0
  0
LINE
  5
E432
330
B92C
100
AcDbEntity
  8
AM_5
100
AcDbLine
 10
358.6847839321031
 20
381.850829518944
 30
0.0
 11
426.6848157406966
 21
381.850829518944
 31
0.0
  0
INSERT
  5
E433
330
B92C
100
AcDbEntity
  8
AM_5
100
AcDbBlockReference
  2
_Dot
 10
357.6847839321031
 20
381.850829518944
 30
0.0
 41
1.0
 42
1.0
 43
1.0
 50
180.0
  0
INSERT
  5
E434
330
B92C
100
AcDbEntity
  8
AM_5
100
AcDbBlockReference
  2
_Dot
 10
427.6848157406966
 20
381.850829518944
 30
0.0
 41
1.0
 42
1.0
 43
1.0
  0
MTEXT
  5
E435
330
B92C
100
AcDbEntity
  8
AM_5
 62
     2
100
AcDbMText
 10
392.6847998363999
 20
384.9508295189441
 30
0.0
 40
3.2
 41
0.0
 71
     5
 72
     1
  1
BS:70
 73
     1
 44
1.0
1001
ACAD
1000
MTEXTBEGIN
1070
    73
1070
     1
1070
    44
1040
1.0
1070
    74
1070
     0
1000
MTEXTEND
  0
POINT
  5
E436
330
B92C
100
AcDbEntity
  8
Defpoints
 62
     0
100
AcDbPoint
 10
357.6847839321031
 20
361.8508295189442
 30
0.0
  0
POINT
  5
E437
330
B92C
100
AcDbEntity
  8
Defpoints
 62
     0
100
AcDbPoint
 10
427.6848157406966
 20
340.8508295189442
 30
0.0
  0
POINT
  5
E438
330
B92C
100
AcDbEntity
  8
Defpoints
 62
     0
100
AcDbPoint
 10
427.6848157406966
 20
381.850829518944
 30
0.0
  0
ENDBLK
  5
B937
330
B92C
100
AcDbEntity
  8
0
100
AcDbBlockEnd
  0
BLOCK
  5
B968
330
B95E
100
AcDbEntity
  8
0
100
AcDbBlockBegin
  2
*D19
 70
     1
 10
0.0
 20
0.0
 30
0.0
  3
*D19
  1

  0
LINE
  5
E439
330
B95E
100
AcDbEntity
  8
AM_5
100
AcDbLine
 10
357.6847839321031
 20
363.3508295189443
 30
0.0
 11
357.6847839321031
 21
392.8508295189438
 31
0.0
  0
LINE
  5
E43A
330
B95E
100
AcDbEntity
  8
AM_5
100
AcDbLine
 10
487.6847839321031
 20
338.3508295189443
 30
0.0
 11
487.6847839321031
 21
392.8508295189438
 31
0.0
  0
LINE
  5
E43B
330
B95E
100
AcDbEntity
  8
AM_5
100
AcDbLine
 10
358.6847839321031
 20
391.8508295189438
 30
0.0
 11
486.6847839321031
 21
391.8508295189438
 31
0.0
  0
INSERT
  5
E43C
330
B95E
100
AcDbEntity
  8
AM_5
100
AcDbBlockReference
  2
_Dot
 10
357.6847839321031
 20
391.8508295189438
 30
0.0
 41
1.0
 42
1.0
 43
1.0
 50
180.0
  0
INSERT
  5
E43D
330
B95E
100
AcDbEntity
  8
AM_5
100
AcDbBlockReference
  2
_Dot
 10
487.6847839321031
 20
391.8508295189438
 30
0.0
 41
1.0
 42
1.0
 43
1.0
  0
MTEXT
  5
E43E
330
B95E
100
AcDbEntity
  8
AM_5
 62
     2
100
AcDbMText
 10
422.684783932103
 20
394.9508295189438
 30
0.0
 40
3.2
 41
0.0
 71
     5
 72
     1
  1
130
 73
     1
 44
1.0
1001
ACAD
1000
MTEXTBEGIN
1070
    73
1070
     1
1070
    44
1040
1.0
1070
    74
1070
     0
1000
MTEXTEND
  0
POINT
  5
E43F
330
B95E
100
AcDbEntity
  8
Defpoints
 62
     0
100
AcDbPoint
 10
357.6847839321031
 20
361.8508295189442
 30
0.0
  0
POINT
  5
E440
330
B95E
100
AcDbEntity
  8
Defpoints
 62
     0
100
AcDbPoint
 10
487.6847839321031
 20
336.8508295189442
 30
0.0
  0
POINT
  5
E441
330
B95E
100
AcDbEntity
  8
Defpoints
 62
     0
100
AcDbPoint
 10
487.6847839321031
 20
391.8508295189438
 30
0.0
  0
ENDBLK
  5
B969
330
B95E
100
AcDbEntity
  8
0
100
AcDbBlockEnd
  0
BLOCK
  5
BA67
330
BA5D
100
AcDbEntity
  8
0
100
AcDbBlockBegin
  2
*D20
 70
     1
 10
0.0
 20
0.0
 30
0.0
  3
*D20
  1

  0
LINE
  5
E448
330
BA5D
100
AcDbEntity
  8
AM_5
100
AcDbLine
 10
489.184783932103
 20
40.10000610351494
 30
0.0
 11
498.684783932103
 21
40.10000610351493
 31
0.0
  0
LINE
  5
E449
330
BA5D
100
AcDbEntity
  8
AM_5
100
AcDbLine
 10
487.6847839321031
 20
16.89999938804044
 30
0.0
 11
498.684783932103
 21
16.89999938804044
 31
0.0
  0
LINE
  5
E44A
330
BA5D
100
AcDbEntity
  8
AM_5
100
AcDbLine
 10
497.684783932103
 20
39.10000610351494
 30
0.0
 11
497.684783932103
 21
17.89999938804044
 31
0.0
  0
INSERT
  5
E44B
330
BA5D
100
AcDbEntity
  8
AM_5
100
AcDbBlockReference
  2
_Dot
 10
497.684783932103
 20
40.10000610351493
 30
0.0
 41
1.0
 42
1.0
 43
1.0
 50
90.0
  0
INSERT
  5
E44C
330
BA5D
100
AcDbEntity
  8
AM_5
100
AcDbBlockReference
  2
_Dot
 10
497.684783932103
 20
16.89999938804044
 30
0.0
 41
1.0
 42
1.0
 43
1.0
 50
270.0
  0
MTEXT
  5
E44D
330
BA5D
100
AcDbEntity
  8
AM_5
 62
     2
100
AcDbMText
 10
494.5847839321031
 20
28.50000274577777
 30
0.0
 40
3.2
 41
0.0
 71
     5
 72
     1
  1
23.2
 11
0.0000000000000001
 21
1.0
 31
0.0
 73
     1
 44
1.0
1001
ACAD
1000
MTEXTBEGIN
1070
    73
1070
     1
1070
    44
1040
1.0
1070
    74
1070
     0
1000
MTEXTEND
  0
POINT
  5
E44E
330
BA5D
100
AcDbEntity
  8
Defpoints
 62
     0
100
AcDbPoint
 10
487.6847839321031
 20
40.10000610351494
 30
0.0
  0
POINT
  5
E44F
330
BA5D
100
AcDbEntity
  8
Defpoints
 62
     0
100
AcDbPoint
 10
486.184783932103
 20
16.89999938804044
 30
0.0
  0
POINT
  5
E450
330
BA5D
100
AcDbEntity
  8
Defpoints
 62
     0
100
AcDbPoint
 10
497.684783932103
 20
16.89999938804044
 30
0.0
  0
ENDBLK
  5
BA68
330
BA5D
100
AcDbEntity
  8
0
100
AcDbBlockEnd
  0
BLOCK
  5
BBAE
330
BBA4
100
AcDbEntity
  8
0
100
AcDbBlockBegin
  2
*D21
 70
     1
 10
0.0
 20
0.0
 30
0.0
  3
*D21
  1

  0
LINE
  5
E451
330
BBA4
100
AcDbEntity
  8
AM_5
100
AcDbLine
 10
214.078190656192
 20
164.3507837425841
 30
0.0
 11
229.0282028632337
 21
164.3507837425841
 31
0.0
  0
LINE
  5
E452
330
BBA4
100
AcDbEntity
  8
AM_5
100
AcDbLine
 10
214.078190656192
 20
139.3507837425841
 30
0.0
 11
229.0282028632337
 21
139.3507837425841
 31
0.0
  0
LINE
  5
E453
330
BBA4
100
AcDbEntity
  8
AM_5
100
AcDbLine
 10
228.0282028632337
 20
163.3507837425841
 30
0.0
 11
228.0282028632337
 21
140.3507837425841
 31
0.0
  0
INSERT
  5
E454
330
BBA4
100
AcDbEntity
  8
AM_5
100
AcDbBlockReference
  2
_Dot
 10
228.0282028632337
 20
164.3507837425841
 30
0.0
 41
1.0
 42
1.0
 43
1.0
 50
90.0
  0
INSERT
  5
E455
330
BBA4
100
AcDbEntity
  8
AM_5
100
AcDbBlockReference
  2
_Dot
 10
228.0282028632337
 20
139.3507837425841
 30
0.0
 41
1.0
 42
1.0
 43
1.0
 50
270.0
  0
MTEXT
  5
E456
330
BBA4
100
AcDbEntity
  8
AM_5
 62
     2
100
AcDbMText
 10
224.9282028632337
 20
151.8507837425841
 30
0.0
 40
3.2
 41
0.0
 71
     5
 72
     1
  1
25
 11
0.0000000000000001
 21
1.0
 31
0.0
 73
     1
 44
1.0
1001
ACAD
1000
MTEXTBEGIN
1070
    73
1070
     1
1070
    44
1040
1.0
1070
    74
1070
     0
1000
MTEXTEND
  0
POINT
  5
E457
330
BBA4
100
AcDbEntity
  8
Defpoints
 62
     0
100
AcDbPoint
 10
212.578190656192
 20
164.3507837425841
 30
0.0
  0
POINT
  5
E458
330
BBA4
100
AcDbEntity
  8
Defpoints
 62
     0
100
AcDbPoint
 10
212.578190656192
 20
139.3507837425841
 30
0.0
  0
POINT
  5
E459
330
BBA4
100
AcDbEntity
  8
Defpoints
 62
     0
100
AcDbPoint
 10
228.0282028632337
 20
139.3507837425841
 30
0.0
  0
ENDBLK
  5
BBAF
330
BBA4
100
AcDbEntity
  8
0
100
AcDbBlockEnd
  0
BLOCK
  5
BC15
330
BC0B
100
AcDbEntity
  8
0
100
AcDbBlockBegin
  2
*D22
 70
     1
 10
0.0
 20
0.0
 30
0.0
  3
*D22
  1

  0
LINE
  5
E45A
330
BC0B
100
AcDbEntity
  8
AM_5
100
AcDbLine
 10
198.478215070262
 20
137.8507837425841
 30
0.0
 11
198.478215070262
 21
128.3507837425841
 31
0.0
  0
LINE
  5
E45B
330
BC0B
100
AcDbEntity
  8
AM_5
100
AcDbLine
 10
212.578190656192
 20
137.8507837425841
 30
0.0
 11
212.578190656192
 21
128.3507837425841
 31
0.0
  0
LINE
  5
E45C
330
BC0B
100
AcDbEntity
  8
AM_5
100
AcDbLine
 10
199.4782150702619
 20
129.3507837425841
 30
0.0
 11
211.578190656192
 21
129.3507837425841
 31
0.0
  0
INSERT
  5
E45D
330
BC0B
100
AcDbEntity
  8
AM_5
100
AcDbBlockReference
  2
_Dot
 10
198.478215070262
 20
129.3507837425841
 30
0.0
 41
1.0
 42
1.0
 43
1.0
 50
180.0
  0
INSERT
  5
E45E
330
BC0B
100
AcDbEntity
  8
AM_5
100
AcDbBlockReference
  2
_Dot
 10
212.578190656192
 20
129.3507837425841
 30
0.0
 41
1.0
 42
1.0
 43
1.0
  0
MTEXT
  5
E45F
330
BC0B
100
AcDbEntity
  8
AM_5
 62
     2
100
AcDbMText
 10
209.2314534373272
 20
132.4507837425841
 30
0.0
 40
3.2
 41
0.0
 71
     5
 72
     1
  1
14
 73
     1
 44
1.0
1001
ACAD
1000
MTEXTBEGIN
1070
    73
1070
     1
1070
    44
1040
1.0
1070
    74
1070
     0
1000
MTEXTEND
  0
POINT
  5
E460
330
BC0B
100
AcDbEntity
  8
Defpoints
 62
     0
100
AcDbPoint
 10
198.478215070262
 20
139.3507837425841
 30
0.0
  0
POINT
  5
E461
330
BC0B
100
AcDbEntity
  8
Defpoints
 62
     0
100
AcDbPoint
 10
212.578190656192
 20
139.3507837425841
 30
0.0
  0
POINT
  5
E462
330
BC0B
100
AcDbEntity
  8
Defpoints
 62
     0
100
AcDbPoint
 10
212.578190656192
 20
129.3507837425841
 30
0.0
  0
ENDBLK
  5
BC16
330
BC0B
100
AcDbEntity
  8
0
100
AcDbBlockEnd
  0
BLOCK
  5
BC50
330
BC46
100
AcDbEntity
  8
0
100
AcDbBlockBegin
  2
*D23
 70
     1
 10
0.0
 20
0.0
 30
0.0
  3
*D23
  1

  0
LINE
  5
E463
330
BC46
100
AcDbEntity
  8
AM_5
100
AcDbLine
 10
357.6847839321031
 20
137.8507837425841
 30
0.0
 11
357.6847839321031
 21
128.3507837425839
 31
0.0
  0
LINE
  5
E464
330
BC46
100
AcDbEntity
  8
AM_5
100
AcDbLine
 10
337.6847801174037
 20
139.85078755727
 30
0.0
 11
337.6847801174037
 21
128.3507837425839
 31
0.0
  0
LINE
  5
E465
330
BC46
100
AcDbEntity
  8
AM_5
100
AcDbLine
 10
356.6847839321031
 20
129.3507837425838
 30
0.0
 11
338.6847801174038
 21
129.3507837425838
 31
0.0
  0
LINE
  5
E466
330
BC46
100
AcDbEntity
  8
AM_5
100
AcDbLine
 10
347.6847820247534
 20
129.3507837425838
 30
0.0
 11
309.0126264336514
 21
43.93813267720861
 31
0.0
  0
LINE
  5
E467
330
BC46
100
AcDbEntity
  8
AM_5
100
AcDbLine
 10
309.0126264336514
 20
43.93813267720861
 30
0.0
 11
286.2366264336513
 21
43.93813267720861
 31
0.0
  0
MTEXT
  5
E468
330
BC46
100
AcDbEntity
  8
AM_5
 62
     2
100
AcDbMText
 10
297.6246264336514
 20
49.70479934387528
 30
0.0
 40
3.2
 41
0.0
 71
     5
 72
     1
  1
デッドボルト\Pストローク：20
 73
     1
 44
1.0
1001
ACAD
1000
MTEXTBEGIN
1070
    73
1070
     1
1070
    44
1040
1.0
1070
    74
1070
     0
1000
MTEXTEND
  0
INSERT
  5
E469
330
BC46
100
AcDbEntity
  8
AM_5
100
AcDbBlockReference
  2
_Dot
 10
357.6847839321031
 20
129.3507837425838
 30
0.0
 41
1.0
 42
1.0
 43
1.0
  0
INSERT
  5
E46A
330
BC46
100
AcDbEntity
  8
AM_5
100
AcDbBlockReference
  2
_Dot
 10
337.6847801174037
 20
129.3507837425838
 30
0.0
 41
1.0
 42
1.0
 43
1.0
 50
180.0
  0
POINT
  5
E46B
330
BC46
100
AcDbEntity
  8
Defpoints
 62
     0
100
AcDbPoint
 10
357.6847839321031
 20
139.3507837425841
 30
0.0
  0
POINT
  5
E46C
330
BC46
100
AcDbEntity
  8
Defpoints
 62
     0
100
AcDbPoint
 10
337.6847801174037
 20
141.35078755727
 30
0.0
  0
POINT
  5
E46D
330
BC46
100
AcDbEntity
  8
Defpoints
 62
     0
100
AcDbPoint
 10
337.6847801174037
 20
129.3507837425838
 30
0.0
  0
ENDBLK
  5
BC51
330
BC46
100
AcDbEntity
  8
0
100
AcDbBlockEnd
  0
BLOCK
  5
BDD0
330
BDCA
100
AcDbEntity
  8
0
100
AcDbBlockBegin
  2
*D24
 70
     1
 10
0.0
 20
0.0
 30
0.0
  3
*D24
  1

  0
LINE
  5
E46E
330
BDCA
100
AcDbEntity
  8
AM_5
100
AcDbLine
 10
151.4392861342473
 20
51.33572980069313
 30
0.0
 11
180.096619467581
 21
51.33572980069313
 31
0.0
  0
LINE
  5
E46F
330
BDCA
100
AcDbEntity
  8
AM_5
100
AcDbLine
 10
180.096619467581
 20
51.33572980069313
 30
0.0
 11
194.6853407227236
 21
67.5735439740166
 31
0.0
  0
MTEXT
  5
E470
330
BDCA
100
AcDbEntity
  8
AM_5
 62
     2
100
AcDbMText
 10
165.017952800914
 20
54.43572980069311
 30
0.0
 40
3.200000000000001
 41
0.0
 71
     5
 72
     1
  1
4-%%c4.2×%%c7.2皿孔
 73
     1
 44
1.0
1001
ACAD
1000
MTEXTBEGIN
1070
    73
1070
     1
1070
    44
1040
1.0
1070
    74
1070
     0
1000
MTEXTEND
  0
INSERT
  5
E471
330
BDCA
100
AcDbEntity
  8
AM_5
100
AcDbBlockReference
  2
_OPEN30
 10
196.0219884237699
 20
69.06128485309729
 30
0.0
 41
2.0
 42
2.0
 43
2.0
 50
48.06216977194162
  0
POINT
  5
E472
330
BDCA
100
AcDbEntity
  8
Defpoints
 62
     0
100
AcDbPoint
 10
196.0219884237699
 20
69.06128485309729
 30
0.0
  0
POINT
  5
E473
330
BDCA
100
AcDbEntity
  8
Defpoints
 62
     0
100
AcDbPoint
 10
201.0344173026934
 20
74.64031314964991
 30
0.0
  0
ENDBLK
  5
BDD1
330
BDCA
100
AcDbEntity
  8
0
100
AcDbBlockEnd
  0
BLOCK
  5
BE3E
330
BE34
100
AcDbEntity
  8
0
100
AcDbBlockBegin
  2
*D25
 70
     1
 10
0.0
 20
0.0
 30
0.0
  3
*D25
  1

  0
LINE
  5
E474
330
BE34
100
AcDbEntity
  8
AM_5
100
AcDbLine
 10
422.5586626741516
 20
179.5725199734086
 30
0.0
 11
423.3462691072646
 21
164.5431665467103
 31
0.0
  0
LINE
  5
E475
330
BE34
100
AcDbEntity
  8
AM_5
100
AcDbLine
 10
433.5435877791913
 20
180.1482037775026
 30
0.0
 11
434.3311954560302
 21
165.1188266176346
 31
0.0
  0
LINE
  5
E476
330
BE34
100
AcDbEntity
  8
AM_5
100
AcDbLine
 10
424.2925660752227
 20
165.5941289858266
 30
0.0
 11
433.2802330169139
 21
166.0651235855928
 31
0.0
  0
INSERT
  5
E477
330
BE34
100
AcDbEntity
  8
AM_5
100
AcDbBlockReference
  2
_Dot
 10
423.2939363716855
 20
165.5417962502475
 30
0.0
 41
1.0
 42
1.0
 43
1.0
 50
182.9998152163281
  0
INSERT
  5
E478
330
BE34
100
AcDbEntity
  8
AM_5
100
AcDbBlockReference
  2
_Dot
 10
434.2788627204511
 20
166.1174563211718
 30
0.0
 41
1.0
 42
1.0
 43
1.0
 50
2.999815216328057
  0
MTEXT
  5
E479
330
BE34
100
AcDbEntity
  8
AM_5
 62
     2
100
AcDbMText
 10
428.6241680657733
 20
168.925378366675
 30
0.0
 40
3.2
 41
0.0
 71
     5
 72
     1
  1
□11
 11
0.9986297035372084
 21
0.0523327355790572
 31
0.0
 73
     1
 44
1.0
1001
ACAD
1000
MTEXTBEGIN
1070
    73
1070
     1
1070
    44
1040
1.0
1070
    74
1070
     0
1000
MTEXTEND
  0
POINT
  5
E47A
330
BE34
100
AcDbEntity
  8
Defpoints
 62
     0
100
AcDbPoint
 10
422.480163570783
 20
181.0704645287144
 30
0.0
  0
POINT
  5
E47B
330
BE34
100
AcDbEntity
  8
Defpoints
 62
     0
100
AcDbPoint
 10
433.4650886758226
 20
181.6461483328085
 30
0.0
  0
POINT
  5
E47C
330
BE34
100
AcDbEntity
  8
Defpoints
 62
     0
100
AcDbPoint
 10
434.2788627204511
 20
166.1174563211718
 30
0.0
  0
ENDBLK
  5
BE3F
330
BE34
100
AcDbEntity
  8
0
100
AcDbBlockEnd
  0
ENDSEC
  0
SECTION
  2
ENTITIES
  0
LINE
  5
A76B
330
1F
100
AcDbEntity
  8
AM_7
100
AcDbLine
 10
205.528202863232
 20
57.85079900137407
 30
0.0
 11
205.528202863232
 21
365.8507990013741
 31
0.0
  0
LINE
  5
A76C
330
1F
100
AcDbEntity
  8
AM_0
100
AcDbLine
 10
193.0282028632319
 20
61.85079900137407
 30
0.0
 11
193.0282028632319
 21
361.8507990013741
 31
0.0
  0
LINE
  5
A76D
330
1F
100
AcDbEntity
  8
AM_0
100
AcDbLine
 10
218.028202863232
 20
61.85079900137407
 30
0.0
 11
218.028202863232
 21
361.8507990013741
 31
0.0
  0
LINE
  5
A776
330
1F
100
AcDbEntity
  8
AM_0
100
AcDbLine
 10
362.8847961391431
 20
61.85082951895219
 30
0.0
 11
362.8847961391431
 21
361.8508295189442
 31
0.0
  0
LINE
  5
A777
330
1F
100
AcDbEntity
  8
AM_0
100
AcDbLine
 10
359.6847839321031
 20
61.85082951895219
 30
0.0
 11
359.6847839321031
 21
361.8508295189442
 31
0.0
  0
LINE
  5
A778
330
1F
100
AcDbEntity
  8
AM_0
100
AcDbLine
 10
357.6847839321031
 20
61.85082951895219
 30
0.0
 11
357.6847839321031
 21
361.8508295189442
 31
0.0
  0
LINE
  5
A779
330
1F
100
AcDbEntity
  8
AM_0
100
AcDbLine
 10
487.6847839321031
 20
86.85082951894424
 30
0.0
 11
487.6847839321031
 21
336.8508295189442
 31
0.0
  0
LINE
  5
A781
330
1F
100
AcDbEntity
  8
AM_0
 48
0.5
100
AcDbLine
 10
193.0282028632319
 20
61.85079900137407
 30
0.0
 11
218.028202863232
 21
61.85079900137407
 31
0.0
  0
LINE
  5
A782
330
1F
100
AcDbEntity
  8
AM_7
 48
0.5
100
AcDbLine
 10
197.5282028632319
 20
81.85079900137612
 30
0.0
 11
213.528202863232
 21
81.85079900137612
 31
0.0
  0
CIRCLE
  5
A783
330
1F
100
AcDbEntity
  8
AM_0
 48
0.5
100
AcDbCircle
 10
205.528202863232
 20
81.85079900137612
 30
0.0
 40
3.0
  0
LINE
  5
A787
330
1F
100
AcDbEntity
  8
AM_2
 48
0.5
100
AcDbLine
 10
206.528202863232
 20
82.35079900137611
 30
0.0
 11
207.028202863232
 21
82.35079900137611
 31
0.0
  0
LINE
  5
A788
330
1F
100
AcDbEntity
  8
AM_2
 48
0.5
100
AcDbLine
 10
204.0282028632319
 20
82.35079900137611
 30
0.0
 11
204.528202863232
 21
82.35079900137611
 31
0.0
  0
LINE
  5
A789
330
1F
100
AcDbEntity
  8
AM_2
 48
0.5
100
AcDbLine
 10
204.0282028632319
 20
81.35079900137611
 30
0.0
 11
204.528202863232
 21
81.35079900137611
 31
0.0
  0
LINE
  5
A78A
330
1F
100
AcDbEntity
  8
AM_2
 48
0.5
100
AcDbLine
 10
205.028202863232
 20
80.35079900137612
 30
0.0
 11
205.028202863232
 21
80.85079900137612
 31
0.0
  0
LINE
  5
A78B
330
1F
100
AcDbEntity
  8
AM_2
 48
0.5
100
AcDbLine
 10
206.528202863232
 20
81.35079900137611
 30
0.0
 11
207.028202863232
 21
81.35079900137611
 31
0.0
  0
LINE
  5
A78C
330
1F
100
AcDbEntity
  8
AM_2
 48
0.5
100
AcDbLine
 10
206.028202863232
 20
80.35079900137612
 30
0.0
 11
206.028202863232
 21
80.85079900137612
 31
0.0
  0
LINE
  5
A78D
330
1F
100
AcDbEntity
  8
AM_2
 48
0.5
100
AcDbLine
 10
206.028202863232
 20
82.85079900137612
 30
0.0
 11
206.028202863232
 21
83.35079900137612
 31
0.0
  0
LINE
  5
A78E
330
1F
100
AcDbEntity
  8
AM_2
 48
0.5
100
AcDbLine
 10
205.028202863232
 20
82.85079900137612
 30
0.0
 11
205.028202863232
 21
83.35079900137612
 31
0.0
  0
ARC
  5
A78F
330
1F
100
AcDbEntity
  8
AM_2
 48
0.5
100
AcDbCircle
 10
204.528202863232
 20
82.85079900137612
 30
0.0
 40
0.5
100
AcDbArc
 50
269.9999974955215
 51
0.0
  0
ARC
  5
A790
330
1F
100
AcDbEntity
  8
AM_2
 48
0.5
100
AcDbCircle
 10
204.528202863232
 20
80.85079900137612
 30
0.0
 40
0.5
100
AcDbArc
 50
0.0
 51
90.00000250447845
  0
ARC
  5
A791
330
1F
100
AcDbEntity
  8
AM_2
 48
0.5
100
AcDbCircle
 10
207.028202863232
 20
81.85079900137612
 30
0.0
 40
0.5
100
AcDbArc
 50
269.9999974955215
 51
90.00000250447845
  0
ARC
  5
A792
330
1F
100
AcDbEntity
  8
AM_2
 48
0.5
100
AcDbCircle
 10
205.528202863232
 20
80.35079900137612
 30
0.0
 40
0.5
100
AcDbArc
 50
179.999991348572
 51
0.0000100179138904
  0
ARC
  5
A793
330
1F
100
AcDbEntity
  8
AM_2
 48
0.5
100
AcDbCircle
 10
205.528202863232
 20
83.35079900137612
 30
0.0
 40
0.5
100
AcDbArc
 50
0.0
 51
180.0000050089634
  0
ARC
  5
A794
330
1F
100
AcDbEntity
  8
AM_2
 48
0.5
100
AcDbCircle
 10
204.0282028632319
 20
81.85079900137612
 30
0.0
 40
0.5
100
AcDbArc
 50
90.00000250447845
 51
270.0000006832462
  0
ARC
  5
A795
330
1F
100
AcDbEntity
  8
AM_2
 48
0.5
100
AcDbCircle
 10
206.528202863232
 20
82.85079900137612
 30
0.0
 40
0.5
100
AcDbArc
 50
179.999991348572
 51
270.0000006832462
  0
ARC
  5
A796
330
1F
100
AcDbEntity
  8
AM_2
 48
0.5
100
AcDbCircle
 10
206.528202863232
 20
80.85079900137612
 30
0.0
 40
0.5
100
AcDbArc
 50
90.00000250447845
 51
180.0000050089634
  0
LINE
  5
A797
330
1F
100
AcDbEntity
  8
AM_0
 48
0.5
100
AcDbLine
 10
198.4281662421319
 20
139.2507776390641
 30
0.0
 11
212.628178449162
 21
139.2507776390641
 31
0.0
  0
LINE
  5
A798
330
1F
100
AcDbEntity
  8
AM_0
 48
0.5
100
AcDbLine
 10
198.4281662421319
 20
164.450789846094
 30
0.0
 11
212.628178449162
 21
164.450789846094
 31
0.0
  0
LINE
  5
A799
330
1F
100
AcDbEntity
  8
AM_7
 48
0.5
100
AcDbLine
 10
195.528202863232
 20
151.8507837425841
 30
0.0
 11
215.528202863232
 21
151.8507837425841
 31
0.0
  0
LINE
  5
A79B
330
1F
100
AcDbEntity
  8
AM_0
 48
0.5
100
AcDbLine
 10
198.4281662421319
 20
139.2507623802742
 30
0.0
 11
212.628178449162
 21
139.2507623802742
 31
0.0
  0
LINE
  5
A79C
330
1F
100
AcDbEntity
  8
AM_0
 48
0.5
100
AcDbLine
 10
198.4281662421319
 20
164.450789846094
 30
0.0
 11
212.628178449162
 21
164.450789846094
 31
0.0
  0
LINE
  5
A79D
330
1F
100
AcDbEntity
  8
AM_7
 48
0.5
100
AcDbLine
 10
195.528202863232
 20
151.8507837425841
 30
0.0
 11
215.528202863232
 21
151.8507837425841
 31
0.0
  0
LINE
  5
A7A1
330
1F
100
AcDbEntity
  8
AM_0
 48
0.5
100
AcDbLine
 10
198.4281662421319
 20
139.2507623802742
 30
0.0
 11
198.4281662421319
 21
164.450789846094
 31
0.0
  0
LINE
  5
A7A2
330
1F
100
AcDbEntity
  8
AM_0
 48
0.5
100
AcDbLine
 10
198.4281662421319
 20
139.2507776390641
 30
0.0
 11
198.4281662421319
 21
164.450789846094
 31
0.0
  0
LINE
  5
A7A3
330
1F
100
AcDbEntity
  8
AM_0
 48
0.5
100
AcDbLine
 10
212.628178449162
 20
139.2507776390641
 30
0.0
 11
212.628178449162
 21
164.450789846094
 31
0.0
  0
LINE
  5
A7A6
330
1F
100
AcDbEntity
  8
AM_0
 48
0.5
100
AcDbLine
 10
212.628178449162
 20
139.2507623802742
 30
0.0
 11
212.628178449162
 21
164.450789846094
 31
0.0
  0
LINE
  5
A7A9
330
1F
100
AcDbEntity
  8
AM_0
100
AcDbLine
 10
362.8847961391431
 20
38.60000610351494
 30
0.0
 11
487.6847839321031
 21
38.60000610351494
 31
0.0
  0
LINE
  5
A7AA
330
1F
100
AcDbEntity
  8
AM_0
100
AcDbLine
 10
362.8847961391431
 20
16.89999938804044
 30
0.0
 11
486.184783932103
 21
16.89999938804044
 31
0.0
  0
LINE
  5
A7AB
330
1F
100
AcDbEntity
  8
AM_0
100
AcDbLine
 10
362.8847961391431
 20
40.10000610351494
 30
0.0
 11
487.6847839321031
 21
40.10000610351494
 31
0.0
  0
ARC
  5
A7B2
330
1F
100
AcDbEntity
  8
AM_0
 48
0.5
100
AcDbCircle
 10
356.3847961391431
 20
28.5
 30
0.0
 40
3.099999904632599
100
AcDbArc
 50
65.20609479844257
 51
294.7939152194706
  0
ARC
  5
A7B3
330
1F
100
AcDbEntity
  8
AM_0
 48
0.5
100
AcDbCircle
 10
356.3847961391431
 20
28.5
 30
0.0
 40
7.0
100
AcDbArc
 50
79.29732147131014
 51
280.7026885466029
  0
ARC
  5
A7B4
330
1F
100
AcDbEntity
  8
AM_0
 48
0.5
100
AcDbCircle
 10
356.3847961391431
 20
28.5
 30
0.0
 40
6.5
100
AcDbArc
 50
78.46315046797636
 51
281.5368458895538
  0
ARC
  5
A7B5
330
1F
100
AcDbEntity
  8
AM_0
 48
0.5
100
AcDbCircle
 10
356.3847961391431
 20
28.5
 30
0.0
 40
6.0
100
AcDbArc
 50
90.00000250447845
 51
270.0000006832462
  0
LINE
  5
A7B6
330
1F
100
AcDbEntity
  8
AM_0
 48
0.5
100
AcDbLine
 10
357.6847839321031
 20
41.0
 30
0.0
 11
357.6847839321031
 21
16.0
 31
0.0
  0
LINE
  5
A7B7
330
1F
100
AcDbEntity
  8
AM_0
 48
0.5
100
AcDbLine
 10
357.6847839321031
 20
25.5
 30
0.0
 11
357.6847839321031
 21
31.5
 31
0.0
  0
LINE
  5
A7B8
330
1F
100
AcDbEntity
  8
AM_0
 48
0.5
100
AcDbLine
 10
359.6847839321031
 20
16.0
 30
0.0
 11
359.6847839321031
 21
41.0
 31
0.0
  0
LINE
  5
A7B9
330
1F
100
AcDbEntity
  8
AM_0
 48
0.5
100
AcDbLine
 10
362.8847961391431
 20
16.0
 30
0.0
 11
362.8847961391431
 21
41.0
 31
0.0
  0
LINE
  5
A7BA
330
1F
100
AcDbEntity
  8
AM_0
 48
0.5
100
AcDbLine
 10
357.6847839321031
 20
16.0
 30
0.0
 11
362.8847961391431
 21
16.0
 31
0.0
  0
LINE
  5
A7BB
330
1F
100
AcDbEntity
  8
AM_0
 48
0.5
100
AcDbLine
 10
356.3847961391431
 20
22.5
 30
0.0
 11
357.6847839321031
 21
22.5
 31
0.0
  0
LINE
  5
A7BC
330
1F
100
AcDbEntity
  8
AM_0
 48
0.5
100
AcDbLine
 10
357.6847839321031
 20
41.0
 30
0.0
 11
362.8847961391431
 21
41.0
 31
0.0
  0
LINE
  5
A7BD
330
1F
100
AcDbEntity
  8
AM_0
 48
0.5
100
AcDbLine
 10
356.3847961391431
 20
34.5
 30
0.0
 11
357.6847839321031
 21
34.5
 31
0.0
  0
CIRCLE
  5
A7BE
330
1F
100
AcDbEntity
  8
AM_0
100
AcDbCircle
 10
427.684814449683
 20
28.5
 30
0.0
 40
6.5
  0
LINE
  5
A7C1
330
1F
100
AcDbEntity
  8
AM_7
 48
0.5
100
AcDbLine
 10
427.684814449683
 20
16.89999389648392
 30
0.0
 11
427.684814449683
 21
40.10000610351494
 31
0.0
  0
LINE
  5
A7CC
330
1F
100
AcDbEntity
  8
AM_0
 48
0.5
100
AcDbLine
 10
487.6847839321031
 20
18.39999938804044
 30
0.0
 11
487.6847839321031
 21
40.10000610351494
 31
0.0
  0
ARC
  5
A7CE
330
1F
100
AcDbEntity
  8
AM_0
 48
0.5
100
AcDbCircle
 10
486.184783932103
 20
18.39999938804044
 30
0.0
 40
1.5
100
AcDbArc
 50
269.9999906653324
 51
0.0000006832429909
  0
LINE
  5
A7D6
330
1F
100
AcDbEntity
  8
AM_0
100
AcDbLine
 10
364.484802242653
 20
86.85082951894424
 30
0.0
 11
487.6847839321031
 21
86.85082951894424
 31
0.0
  0
LINE
  5
A7DA
330
1F
100
AcDbEntity
  8
AM_0
 48
0.5
100
AcDbLine
 10
359.6847839321031
 20
61.85082951895219
 30
0.0
 11
362.8847961391431
 21
61.85082951895219
 31
0.0
  0
LINE
  5
A7DB
330
1F
100
AcDbEntity
  8
AM_0
 48
0.5
100
AcDbLine
 10
357.6847839321031
 20
61.85082951895219
 30
0.0
 11
359.6847839321031
 21
61.85082951895219
 31
0.0
  0
LINE
  5
A7E4
330
1F
100
AcDbEntity
  8
AM_0
 48
0.5
100
AcDbLine
 10
357.6847839321031
 20
78.75079289785412
 30
0.0
 11
357.6847839321031
 21
84.95083562246419
 31
0.0
  0
ARC
  5
A7E5
330
1F
100
AcDbEntity
  8
AM_0
 48
0.5
100
AcDbCircle
 10
364.484802242653
 20
88.45080510488401
 30
0.0
 40
1.6000000238419
100
AcDbArc
 50
180.0000086514149
 51
270.0000043257107
  0
LINE
  5
A809
330
1F
100
AcDbEntity
  8
AM_7
100
AcDbLine
 10
341.1847839321031
 20
211.8508447777342
 30
0.0
 11
430.0183064770635
 21
211.8508447777342
 31
0.0
  0
LINE
  5
A810
330
1F
100
AcDbEntity
  8
AM_0
 48
0.5
100
AcDbLine
 10
199.428166242132
 20
216.700805104884
 30
0.0
 11
211.628208966742
 21
216.700805104884
 31
0.0
  0
LINE
  5
A811
330
1F
100
AcDbEntity
  8
AM_0
 48
0.5
100
AcDbLine
 10
199.428166242132
 20
207.0007928978541
 30
0.0
 11
211.628208966742
 21
207.0007928978541
 31
0.0
  0
LINE
  5
A812
330
1F
100
AcDbEntity
  8
AM_7
 48
0.5
100
AcDbLine
 10
195.528202863232
 20
211.8507990013741
 30
0.0
 11
215.528202863232
 21
211.8507990013741
 31
0.0
  0
LINE
  5
A813
330
1F
100
AcDbEntity
  8
AM_7
 48
0.5
100
AcDbLine
 10
197.5282028632319
 20
186.8507837425841
 30
0.0
 11
213.528202863232
 21
186.8507837425841
 31
0.0
  0
LINE
  5
A814
330
1F
100
AcDbEntity
  8
AM_0
 48
0.5
100
AcDbLine
 10
199.5282028632319
 20
214.6007990013741
 30
0.0
 11
211.528202863232
 21
214.6007990013741
 31
0.0
  0
LINE
  5
A815
330
1F
100
AcDbEntity
  8
AM_0
 48
0.5
100
AcDbLine
 10
199.5282028632319
 20
216.6007990013741
 30
0.0
 11
211.528202863232
 21
216.6007990013741
 31
0.0
  0
LINE
  5
A816
330
1F
100
AcDbEntity
  8
AM_0
 48
0.5
100
AcDbLine
 10
199.0282028632319
 20
214.3507990013741
 30
0.0
 11
212.028202863232
 21
214.3507990013741
 31
0.0
  0
LINE
  5
A817
330
1F
100
AcDbEntity
  8
AM_0
 48
0.5
100
AcDbLine
 10
198.5282028632319
 20
213.8507990013741
 30
0.0
 11
212.5282028632319
 21
213.8507990013741
 31
0.0
  0
LINE
  5
A818
330
1F
100
AcDbEntity
  8
AM_0
 48
0.5
100
AcDbLine
 10
198.5282028632319
 20
209.8507990013741
 30
0.0
 11
212.5282028632319
 21
209.8507990013741
 31
0.0
  0
LINE
  5
A819
330
1F
100
AcDbEntity
  8
AM_0
 48
0.5
100
AcDbLine
 10
199.0282028632319
 20
209.350799001374
 30
0.0
 11
212.028202863232
 21
209.350799001374
 31
0.0
  0
LINE
  5
A81A
330
1F
100
AcDbEntity
  8
AM_0
 48
0.5
100
AcDbLine
 10
199.5282028632319
 20
209.1007990013741
 30
0.0
 11
211.528202863232
 21
209.1007990013741
 31
0.0
  0
LINE
  5
A81B
330
1F
100
AcDbEntity
  8
AM_0
 48
0.5
100
AcDbLine
 10
199.5282028632319
 20
207.1007990013741
 30
0.0
 11
211.528202863232
 21
207.1007990013741
 31
0.0
  0
LINE
  5
A81C
330
1F
100
AcDbEntity
  8
AM_7
 48
0.5
100
AcDbLine
 10
195.528202863232
 20
211.8507990013741
 30
0.0
 11
215.528202863232
 21
211.8507990013741
 31
0.0
  0
CIRCLE
  5
A81D
330
1F
100
AcDbEntity
  8
AM_0
 48
0.5
100
AcDbCircle
 10
205.528202863232
 20
186.8507837425841
 30
0.0
 40
3.0
  0
ARC
  5
A81F
330
1F
100
AcDbEntity
  8
AM_2
 48
0.5
100
AcDbCircle
 10
206.528202863232
 20
185.8507837425841
 30
0.0
 40
0.5
100
AcDbArc
 50
90.00000250447845
 51
180.0000050089634
  0
ARC
  5
A820
330
1F
100
AcDbEntity
  8
AM_2
 48
0.5
100
AcDbCircle
 10
204.0282028632319
 20
186.8507837425841
 30
0.0
 40
0.5
100
AcDbArc
 50
90.00000250447845
 51
270.0000006832462
  0
ARC
  5
A821
330
1F
100
AcDbEntity
  8
AM_2
 48
0.5
100
AcDbCircle
 10
207.028202863232
 20
186.8507837425841
 30
0.0
 40
0.5
100
AcDbArc
 50
269.9999974955215
 51
90.00000250447845
  0
ARC
  5
A822
330
1F
100
AcDbEntity
  8
AM_2
 48
0.5
100
AcDbCircle
 10
204.528202863232
 20
185.8507837425841
 30
0.0
 40
0.5
100
AcDbArc
 50
0.0
 51
90.00000250447845
  0
LINE
  5
A823
330
1F
100
AcDbEntity
  8
AM_2
 48
0.5
100
AcDbLine
 10
206.028202863232
 20
185.3507837425841
 30
0.0
 11
206.028202863232
 21
185.8507837425841
 31
0.0
  0
LINE
  5
A824
330
1F
100
AcDbEntity
  8
AM_2
 48
0.5
100
AcDbLine
 10
206.528202863232
 20
186.3507837425841
 30
0.0
 11
207.028202863232
 21
186.3507837425841
 31
0.0
  0
LINE
  5
A825
330
1F
100
AcDbEntity
  8
AM_2
 48
0.5
100
AcDbLine
 10
205.028202863232
 20
185.3507837425841
 30
0.0
 11
205.028202863232
 21
185.8507837425841
 31
0.0
  0
LINE
  5
A826
330
1F
100
AcDbEntity
  8
AM_2
 48
0.5
100
AcDbLine
 10
204.0282028632319
 20
186.3507837425841
 30
0.0
 11
204.528202863232
 21
186.3507837425841
 31
0.0
  0
ARC
  5
A827
330
1F
100
AcDbEntity
  8
AM_2
 48
0.5
100
AcDbCircle
 10
205.528202863232
 20
185.3507837425841
 30
0.0
 40
0.5
100
AcDbArc
 50
179.999991348572
 51
0.0000100179138904
  0
LINE
  5
A828
330
1F
100
AcDbEntity
  8
AM_2
 48
0.5
100
AcDbLine
 10
206.028202863232
 20
187.8507837425841
 30
0.0
 11
206.028202863232
 21
188.3507837425841
 31
0.0
  0
LINE
  5
A829
330
1F
100
AcDbEntity
  8
AM_2
 48
0.5
100
AcDbLine
 10
205.028202863232
 20
187.8507837425841
 30
0.0
 11
205.028202863232
 21
188.3507837425841
 31
0.0
  0
LINE
  5
A82A
330
1F
100
AcDbEntity
  8
AM_2
 48
0.5
100
AcDbLine
 10
204.0282028632319
 20
187.3507837425841
 30
0.0
 11
204.528202863232
 21
187.3507837425841
 31
0.0
  0
LINE
  5
A82B
330
1F
100
AcDbEntity
  8
AM_2
 48
0.5
100
AcDbLine
 10
206.528202863232
 20
187.3507837425841
 30
0.0
 11
207.028202863232
 21
187.3507837425841
 31
0.0
  0
ARC
  5
A82C
330
1F
100
AcDbEntity
  8
AM_2
 48
0.5
100
AcDbCircle
 10
206.528202863232
 20
187.8507837425841
 30
0.0
 40
0.5
100
AcDbArc
 50
179.999991348572
 51
270.0000006832462
  0
ARC
  5
A82D
330
1F
100
AcDbEntity
  8
AM_2
 48
0.5
100
AcDbCircle
 10
205.528202863232
 20
188.3507837425841
 30
0.0
 40
0.5
100
AcDbArc
 50
0.0
 51
180.0000050089634
  0
ARC
  5
A82E
330
1F
100
AcDbEntity
  8
AM_2
 48
0.5
100
AcDbCircle
 10
204.528202863232
 20
187.8507837425841
 30
0.0
 40
0.5
100
AcDbArc
 50
269.9999974955215
 51
0.0
  0
LINE
  5
A82F
330
1F
100
AcDbEntity
  8
AM_0
 48
0.5
100
AcDbLine
 10
198.4281662421319
 20
209.1007990013741
 30
0.0
 11
198.4281662421319
 21
214.6007990013741
 31
0.0
  0
LINE
  5
A830
330
1F
100
AcDbEntity
  8
AM_0
 48
0.5
100
AcDbLine
 10
198.5282028632319
 20
209.8507990013741
 30
0.0
 11
198.5282028632319
 21
213.8507990013741
 31
0.0
  0
LINE
  5
A831
330
1F
100
AcDbEntity
  8
AM_0
 48
0.5
100
AcDbLine
 10
199.428166242132
 20
207.0007928978541
 30
0.0
 11
199.428166242132
 21
209.1007990013741
 31
0.0
  0
LINE
  5
A832
330
1F
100
AcDbEntity
  8
AM_0
 48
0.5
100
AcDbLine
 10
198.4281662421319
 20
209.1007990013741
 30
0.0
 11
199.428166242132
 21
209.1007990013741
 31
0.0
  0
LINE
  5
A833
330
1F
100
AcDbEntity
  8
AM_0
 48
0.5
100
AcDbLine
 10
202.428166242132
 20
209.1007990013741
 30
0.0
 11
202.428166242132
 21
209.350799001374
 31
0.0
  0
LINE
  5
A834
330
1F
100
AcDbEntity
  8
AM_0
 48
0.5
100
AcDbLine
 10
199.0281418280719
 20
209.3507837425841
 30
0.0
 11
198.5281418280719
 21
209.8507684837941
 31
0.0
  0
LINE
  5
A835
330
1F
100
AcDbEntity
  8
AM_0
 48
0.5
100
AcDbLine
 10
199.5282028632319
 20
207.1007990013741
 30
0.0
 11
199.5282028632319
 21
209.1007990013741
 31
0.0
  0
LINE
  5
A836
330
1F
100
AcDbEntity
  8
AM_0
 48
0.5
100
AcDbLine
 10
198.4281662421319
 20
214.6007990013741
 30
0.0
 11
199.428166242132
 21
214.6007990013741
 31
0.0
  0
LINE
  5
A837
330
1F
100
AcDbEntity
  8
AM_0
 48
0.5
100
AcDbLine
 10
199.428166242132
 20
214.6007990013741
 30
0.0
 11
199.428166242132
 21
216.700805104884
 31
0.0
  0
LINE
  5
A838
330
1F
100
AcDbEntity
  8
AM_0
 48
0.5
100
AcDbLine
 10
198.5281418280719
 20
213.8507684837941
 30
0.0
 11
199.0281418280719
 21
214.3507684837941
 31
0.0
  0
LINE
  5
A839
330
1F
100
AcDbEntity
  8
AM_0
 48
0.5
100
AcDbLine
 10
202.428166242132
 20
214.3507990013741
 30
0.0
 11
202.428166242132
 21
214.6007990013741
 31
0.0
  0
LINE
  5
A83A
330
1F
100
AcDbEntity
  8
AM_0
 48
0.5
100
AcDbLine
 10
199.5282028632319
 20
214.6007990013741
 30
0.0
 11
199.5282028632319
 21
216.6007990013741
 31
0.0
  0
LINE
  5
A83B
330
1F
100
AcDbEntity
  8
AM_0
 48
0.5
100
AcDbLine
 10
212.628208966742
 20
209.1007990013741
 30
0.0
 11
212.628208966742
 21
214.6007990013741
 31
0.0
  0
LINE
  5
A83C
330
1F
100
AcDbEntity
  8
AM_0
 48
0.5
100
AcDbLine
 10
212.5282028632319
 20
209.8507990013741
 30
0.0
 11
212.5282028632319
 21
213.8507990013741
 31
0.0
  0
LINE
  5
A83D
330
1F
100
AcDbEntity
  8
AM_0
 48
0.5
100
AcDbLine
 10
211.628208966742
 20
209.1007990013741
 30
0.0
 11
212.628208966742
 21
209.1007990013741
 31
0.0
  0
LINE
  5
A83E
330
1F
100
AcDbEntity
  8
AM_0
 48
0.5
100
AcDbLine
 10
211.628208966742
 20
207.0007928978541
 30
0.0
 11
211.628208966742
 21
209.1007990013741
 31
0.0
  0
LINE
  5
A83F
330
1F
100
AcDbEntity
  8
AM_0
 48
0.5
100
AcDbLine
 10
212.028141828072
 20
209.3507837425841
 30
0.0
 11
212.528141828072
 21
209.8507684837941
 31
0.0
  0
LINE
  5
A840
330
1F
100
AcDbEntity
  8
AM_0
 48
0.5
100
AcDbLine
 10
208.628178449162
 20
209.1007990013741
 30
0.0
 11
208.628178449162
 21
209.350799001374
 31
0.0
  0
LINE
  5
A841
330
1F
100
AcDbEntity
  8
AM_0
 48
0.5
100
AcDbLine
 10
211.528202863232
 20
207.1007990013741
 30
0.0
 11
211.528202863232
 21
209.1007990013741
 31
0.0
  0
LINE
  5
A842
330
1F
100
AcDbEntity
  8
AM_0
 48
0.5
100
AcDbLine
 10
211.628208966742
 20
214.6007990013741
 30
0.0
 11
211.628208966742
 21
216.700805104884
 31
0.0
  0
LINE
  5
A843
330
1F
100
AcDbEntity
  8
AM_0
 48
0.5
100
AcDbLine
 10
211.628208966742
 20
214.6007990013741
 30
0.0
 11
212.628208966742
 21
214.6007990013741
 31
0.0
  0
LINE
  5
A844
330
1F
100
AcDbEntity
  8
AM_0
 48
0.5
100
AcDbLine
 10
208.628178449162
 20
214.3507990013741
 30
0.0
 11
208.628178449162
 21
214.6007990013741
 31
0.0
  0
LINE
  5
A845
330
1F
100
AcDbEntity
  8
AM_0
 48
0.5
100
AcDbLine
 10
212.028172345652
 20
214.3507837425841
 30
0.0
 11
212.528141828072
 21
213.8507990013741
 31
0.0
  0
LINE
  5
A846
330
1F
100
AcDbEntity
  8
AM_0
 48
0.5
100
AcDbLine
 10
211.528202863232
 20
214.6007990013741
 30
0.0
 11
211.528202863232
 21
216.7007898460941
 31
0.0
  0
LINE
  5
A847
330
1F
100
AcDbEntity
  8
AM_2
100
AcDbLine
 10
209.028202863232
 20
259.350799001374
 30
0.0
 11
209.028202863232
 21
289.3507990013741
 31
0.0
  0
LINE
  5
A848
330
1F
100
AcDbEntity
  8
AM_2
100
AcDbLine
 10
210.028202863232
 20
259.350799001374
 30
0.0
 11
210.028202863232
 21
289.3507990013741
 31
0.0
  0
LINE
  5
A849
330
1F
100
AcDbEntity
  8
AM_2
100
AcDbLine
 10
211.028202863232
 20
259.350799001374
 30
0.0
 11
211.028202863232
 21
289.3507990013741
 31
0.0
  0
LINE
  5
A84A
330
1F
100
AcDbEntity
  8
AM_2
100
AcDbLine
 10
212.028202863232
 20
259.350799001374
 30
0.0
 11
212.028202863232
 21
289.3507990013741
 31
0.0
  0
LINE
  5
A84B
330
1F
100
AcDbEntity
  8
AM_2
100
AcDbLine
 10
213.028202863232
 20
259.350799001374
 30
0.0
 11
213.028202863232
 21
289.3507990013741
 31
0.0
  0
LINE
  5
A84D
330
1F
100
AcDbEntity
  8
AM_2
 48
0.5
100
AcDbLine
 10
205.9679858065914
 20
321.8927962470691
 30
0.0
 11
208.2541902969429
 21
327.5088758887918
 31
0.0
  0
LINE
  5
A84E
330
1F
100
AcDbEntity
  8
AM_2
 48
0.5
100
AcDbLine
 10
206.4424221337355
 20
321.088680227781
 30
0.0
 11
208.4555212062442
 21
321.088680227781
 31
0.0
  0
LINE
  5
A84F
330
1F
100
AcDbEntity
  8
AM_7
 48
0.5
100
AcDbLine
 10
197.5282028632319
 20
341.850802816072
 30
0.0
 11
213.528202863232
 21
341.850802816072
 31
0.0
  0
HATCH
  5
A850
330
1F
100
AcDbEntity
  8
AM_8
100
AcDbHatch
 10
0.0
 20
0.0
 30
0.0
210
0.0
220
0.0
230
1.0
  2
SOLID
 70
     1
 71
     0
 91
        1
 92
        1
 93
       12
 72
     1
 10
205.9679858065914
 20
321.8928224996337
 11
208.2544265700116
 21
327.5087708785399
 72
     2
 10
208.2835669154716
 20
327.4969047198419
 40
0.0314720294391016
 50
202.1504350731783
 51
280.3731423918049
 73
     0
 72
     2
 10
206.1452431151851
 20
315.702940578002
 40
12.01772048310398
 50
280.2764132527804
 51
285.7397176453322
 73
     0
 72
     2
 10
209.396728112008
 20
327.2397346080281
 40
0.0314720294391016
 50
285.8565343707077
 51
382.1499500160589
 73
     0
 72
     1
 10
209.4256584369559
 20
327.2280522172857
 11
208.9716991093257
 21
326.1122395118387
 72
     2
 10
209.6518505238743
 20
325.8353537248467
 40
0.7343473193958078
 50
157.8497698324975
 51
202.1501855439001
 73
     1
 72
     1
 10
208.9718041195776
 20
325.5585204429933
 11
209.506831363232
 21
324.2438708217738
 72
     2
 10
208.8266799486747
 20
323.9669850347902
 40
0.7343473193958078
 50
337.8497323801425
 51
382.1502505443859
 73
     0
 72
     1
 10
209.5066213427198
 20
323.6902567631801
 11
208.9117382543431
 21
322.2281202403545
 72
     2
 10
208.8825979088831
 20
322.2399863990434
 40
0.0314720294391016
 50
382.1513365444617
 51
436.8522571824207
 73
     0
 72
     2
 10
205.6337906735272
 20
336.5687143022423
 40
14.72387164393609
 50
437.2244068695342
 51
448.5815361384044
 73
     0
 72
     2
 10
205.9973886776851
 20
321.8807988255544
 40
0.0314720294391016
 50
88.35619134958475
 51
202.1509405071753
 73
     0
 97
        0
 75
     0
 76
     1
 98
        1
 10
643.974313185246
 20
0.1400131450200206
  0
HATCH
  5
A851
330
1F
100
AcDbEntity
  8
AM_8
100
AcDbHatch
 10
0.0
 20
0.0
 30
0.0
210
0.0
220
0.0
230
1.0
  2
SOLID
 70
     1
 71
     0
 91
        2
 92
        1
 93
       28
 72
     1
 10
206.4424221337355
 20
321.0888902482841
 11
208.4555212062442
 21
321.0888902482841
 72
     2
 10
208.4555212062442
 20
320.8201427559795
 40
0.2685613144619073
 50
270.0000179860904
 51
360.0000025044788
 73
     0
 72
     1
 10
208.7256600844213
 20
320.8201427559795
 11
208.7256600844213
 21
319.9070260931322
 72
     2
 10
207.3812663087875
 20
319.9070260931321
 40
1.342806521035209
 50
360.0000025044788
 51
377.1046190497683
 73
     0
 72
     2
 10
208.6903766391087
 20
319.5041805065912
 40
0.0268561304848337
 50
162.8947797798977
 51
270.000000683247
 73
     1
 72
     1
 10
208.6903766391087
 20
319.4773503867129
 11
208.7777976754803
 21
319.4773503867129
 72
     1
 10
208.7777976754803
 20
319.4773503867129
 11
208.7777976754803
 21
319.0476221751636
 72
     1
 10
208.7777976754803
 20
319.0476221751637
 11
208.4255407787528
 21
319.0476221751637
 72
     2
 10
208.4255407787528
 20
319.0207658027286
 40
0.0268561304848337
 50
89.99998201390964
 51
139.6795541872933
 73
     1
 72
     2
 10
207.3812663087875
 20
319.9070260931321
 40
1.342806521035209
 50
400.3202151801375
 51
449.9999751837198
 73
     0
 72
     1
 10
207.3812663087875
 20
318.5642074713094
 11
205.7161712177198
 21
318.5642074713094
 72
     1
 10
205.7161712177199
 20
318.5642074713094
 11
205.7161712177199
 21
318.9939094302937
 72
     1
 10
205.7161712177199
 20
318.9939094302933
 11
206.9515643498032
 21
318.9939094302933
 72
     2
 10
206.9326099989698
 20
319.8584588507017
 40
0.8647402642407813
 50
-88.74126694233806
 51
-33.29174561851598
 73
     1
 72
     2
 10
207.6115012904716
 20
319.414711770263
 40
0.0537122609695813
 50
-35.08636416255914
 51
58.57064798204168
 73
     1
 72
     1
 10
207.6395390282668
 20
319.4606537563484
 11
207.2861795238744
 21
319.6764235755542
 72
     2
 10
207.2301565534144
 20
319.5847496238962
 40
0.1074245219391625
 50
58.57035428391028
 51
89.99998201390964
 73
     1
 72
     1
 10
207.2301565534144
 20
319.6921751136442
 11
206.5755751356887
 21
319.6921751136442
 72
     1
 10
206.5755751356887
 20
319.6921751136442
 11
206.5755751356887
 21
320.0845984324897
 72
     2
 10
206.5487450158187
 20
320.0846246850549
 40
0.0268561304848337
 50
-0.0000025044787366
 51
108.4348265083137
 73
     1
 72
     1
 10
206.5402391852459
 20
320.1099846613747
 11
206.3359942414003
 21
320.0420167745302
 72
     2
 10
206.1661401557059
 20
320.5515790316131
 40
0.5371226289239007
 50
431.5650487270443
 51
449.9999751837198
 73
     0
 72
     1
 10
206.1661401557059
 20
320.0144515828806
 11
205.6087457279715
 21
320.0144515828806
 72
     1
 10
205.6087457279716
 20
320.0144515828806
 11
205.6087457279716
 21
320.4441272893
 72
     1
 10
205.6087457279716
 20
320.4441272892998
 11
205.8654957987789
 21
320.4441535418648
 72
     2
 10
205.8654957987787
 20
320.5515790316131
 40
0.1074245219391625
 50
-89.99997518371985
 51
-35.94210490328951
 73
     1
 72
     1
 10
205.9524967941348
 20
320.488467869018
 11
206.355421138371
 21
321.0443133955067
 72
     2
 10
206.4424221337355
 20
320.9812547380323
 40
0.1074245219391625
 50
215.9420896490499
 51
270.0000179860904
 73
     0
 97
        0
 92
        1
 93
       11
 72
     1
 10
207.0596724062008
 20
320.6590045213614
 11
207.7572555228935
 21
320.6590045213614
 72
     2
 10
207.7572555228935
 20
320.5515790316131
 40
0.1074245219391625
 50
270.0000179860904
 51
360.0000025044788
 73
     0
 72
     1
 10
207.8646810126417
 20
320.5515790316131
 11
207.8646810126417
 21
320.068164327759
 72
     2
 10
206.6056080683101
 20
320.068006812377
 40
1.259068329627539
 50
359.9931176739425
 51
368.6392151443349
 73
     0
 72
     2
 10
207.8238320238744
 20
319.8828999873031
 40
0.0268561304848337
 50
368.6513387301143
 51
481.4297121967498
 73
     0
 72
     1
 10
207.8099181652286
 20
319.8600865096425
 11
207.4070988312442
 21
320.106099281982
 72
     2
 10
207.3510758607841
 20
320.0144515828806
 40
0.1074245219391625
 50
58.57035428391028
 51
89.99998201390964
 73
     1
 72
     1
 10
207.3510758607841
 20
320.1218770726287
 11
206.6680891693779
 21
320.1218770726287
 72
     2
 10
206.6680891693778
 20
320.1487334450635
 40
0.0268561304848337
 50
89.99999931675299
 51
215.9423765169972
 73
     0
 72
     1
 10
206.6464570570775
 20
320.1644587305886
 11
206.9727239159663
 21
320.6146376890869
 72
     2
 10
207.0596724062008
 20
320.5515790316131
 40
0.1074245219391625
 50
215.9420896490499
 51
270.0000179860904
 73
     0
 97
        0
 75
     0
 76
     1
 98
        1
 10
643.974313185246
 20
0.1400131450200206
  0
ELLIPSE
  5
A853
330
1F
100
AcDbEntity
  8
AM_2
 48
0.5
100
AcDbEllipse
 10
205.528202863232
 20
324.8062269840091
 30
0.0
 11
-6.976303713142296
 21
-0.0000006098957881
 31
0.0
210
0.0
220
0.0
230
1.0
 40
0.4248093987311
 41
1.638229488438107
 42
2.073561071898889
  0
CIRCLE
  5
A854
330
1F
100
AcDbEntity
  8
AM_0
 48
0.5
100
AcDbCircle
 10
205.528202863232
 20
341.850802816072
 30
0.0
 40
3.0
  0
ARC
  5
A855
330
1F
100
AcDbEntity
  8
AM_2
 48
0.5
100
AcDbCircle
 10
207.3812663087875
 20
319.9070260931321
 30
0.0
 40
1.342806521035209
100
AcDbArc
 50
270.0000248162814
 51
319.6797848198642
  0
LINE
  5
A856
330
1F
100
AcDbEntity
  8
AM_2
 48
0.5
100
AcDbLine
 10
205.028202863232
 20
342.850802816072
 30
0.0
 11
205.028202863232
 21
343.350802816072
 31
0.0
  0
LINE
  5
A857
330
1F
100
AcDbEntity
  8
AM_2
 48
0.5
100
AcDbLine
 10
206.028202863232
 20
342.850802816072
 30
0.0
 11
206.028202863232
 21
343.350802816072
 31
0.0
  0
ARC
  5
A858
330
1F
100
AcDbEntity
  8
AM_2
 48
0.5
100
AcDbCircle
 10
205.528202863232
 20
343.350802816072
 30
0.0
 40
0.5
100
AcDbArc
 50
0.0
 51
180.0000050089634
  0
LINE
  5
A859
330
1F
100
AcDbEntity
  8
AM_2
 48
0.5
100
AcDbLine
 10
206.528202863232
 20
342.350802816072
 30
0.0
 11
207.028202863232
 21
342.350802816072
 31
0.0
  0
LINE
  5
A85A
330
1F
100
AcDbEntity
  8
AM_2
 48
0.5
100
AcDbLine
 10
204.0282028632319
 20
342.350802816072
 30
0.0
 11
204.528202863232
 21
342.350802816072
 31
0.0
  0
LINE
  5
A85B
330
1F
100
AcDbEntity
  8
AM_2
 48
0.5
100
AcDbLine
 10
204.0282028632319
 20
341.350802816072
 30
0.0
 11
204.528202863232
 21
341.350802816072
 31
0.0
  0
LINE
  5
A85C
330
1F
100
AcDbEntity
  8
AM_2
 48
0.5
100
AcDbLine
 10
205.028202863232
 20
340.350802816072
 30
0.0
 11
205.028202863232
 21
340.850802816072
 31
0.0
  0
LINE
  5
A85D
330
1F
100
AcDbEntity
  8
AM_2
 48
0.5
100
AcDbLine
 10
206.528202863232
 20
341.350802816072
 30
0.0
 11
207.028202863232
 21
341.350802816072
 31
0.0
  0
LINE
  5
A85E
330
1F
100
AcDbEntity
  8
AM_2
 48
0.5
100
AcDbLine
 10
206.028202863232
 20
340.350802816072
 30
0.0
 11
206.028202863232
 21
340.850802816072
 31
0.0
  0
ARC
  5
A85F
330
1F
100
AcDbEntity
  8
AM_2
 48
0.5
100
AcDbCircle
 10
204.528202863232
 20
342.850802816072
 30
0.0
 40
0.5
100
AcDbArc
 50
269.9999974955215
 51
0.0
  0
ARC
  5
A860
330
1F
100
AcDbEntity
  8
AM_2
 48
0.5
100
AcDbCircle
 10
204.528202863232
 20
340.850802816072
 30
0.0
 40
0.5
100
AcDbArc
 50
0.0
 51
90.00000250447845
  0
ARC
  5
A861
330
1F
100
AcDbEntity
  8
AM_2
 48
0.5
100
AcDbCircle
 10
207.028202863232
 20
341.850802816072
 30
0.0
 40
0.5
100
AcDbArc
 50
269.9999974955215
 51
90.00000250447845
  0
ARC
  5
A862
330
1F
100
AcDbEntity
  8
AM_2
 48
0.5
100
AcDbCircle
 10
205.528202863232
 20
340.350802816072
 30
0.0
 40
0.5
100
AcDbArc
 50
179.999991348572
 51
0.0000100179138904
  0
ARC
  5
A863
330
1F
100
AcDbEntity
  8
AM_2
 48
0.5
100
AcDbCircle
 10
204.0282028632319
 20
341.850802816072
 30
0.0
 40
0.5
100
AcDbArc
 50
90.00000250447845
 51
270.0000006832462
  0
ARC
  5
A864
330
1F
100
AcDbEntity
  8
AM_2
 48
0.5
100
AcDbCircle
 10
206.528202863232
 20
340.850802816072
 30
0.0
 40
0.5
100
AcDbArc
 50
90.00000250447845
 51
180.0000050089634
  0
ARC
  5
A865
330
1F
100
AcDbEntity
  8
AM_2
 48
0.5
100
AcDbCircle
 10
206.528202863232
 20
342.850802816072
 30
0.0
 40
0.5
100
AcDbArc
 50
179.999991348572
 51
270.0000006832462
  0
LINE
  5
A866
330
1F
100
AcDbEntity
  8
AM_2
 48
0.5
100
AcDbLine
 10
204.4497475556105
 20
321.8999894494562
 30
0.0
 11
205.3307573333231
 21
324.0642507824684
 31
0.0
  0
HATCH
  5
A867
330
1F
100
AcDbEntity
  8
AM_8
100
AcDbHatch
 10
0.0
 20
0.0
 30
0.0
210
0.0
220
0.0
230
1.0
  2
SOLID
 70
     1
 71
     0
 91
        1
 92
        1
 93
       16
 72
     1
 10
205.3307310807581
 20
324.064277035033
 11
204.4499575761226
 21
321.8998581866389
 72
     2
 10
204.4208697357841
 20
321.9117243453368
 40
0.0314720294391016
 50
382.1499500160589
 51
453.913919464946
 73
     0
 72
     2
 10
205.2721878642042
 20
335.5049604301767
 40
13.65132070192315
 50
453.5846223846826
 51
465.4826206735507
 73
     0
 72
     2
 10
201.6367853790999
 20
322.3792299957277
 40
0.0314720294391016
 50
105.9838440878773
 51
202.1502848090148
 73
     0
 72
     1
 10
201.6105853207494
 20
322.3990769337138
 11
202.036296890081
 21
323.4441127280238
 72
     2
 10
201.3561454755324
 20
323.7209722624507
 40
0.7343473193958078
 50
-22.15025054438588
 51
22.15026761985744
 73
     1
 72
     1
 10
202.036296890081
 20
323.9978317968694
 11
201.5011646361748
 21
325.3124551655239
 72
     2
 10
202.1813160507321
 20
325.5893409525072
 40
0.7343473193958078
 50
157.8498144560999
 51
202.1502301675025
 73
     0
 72
     1
 10
201.5009546156712
 20
325.8663580023163
 11
202.1164722189438
 21
327.3776918291001
 72
     2
 10
202.1456125644038
 20
327.3658256704111
 40
0.0314720294391016
 50
202.1518147713913
 51
256.7087157480555
 73
     0
 72
     2
 10
205.2323889779716
 20
314.143564560055
 40
13.60925507091477
 50
256.8591028531991
 51
263.5561169947739
 73
     0
 72
     2
 10
203.7085326784143
 20
327.635570760129
 40
0.0314720294391016
 50
263.4406184959091
 51
382.1501822424939
 73
     0
 72
     1
 10
203.7375155084925
 20
327.6238096116913
 11
202.866455452338
 21
325.4833068486314
 72
     2
 10
203.8380628266087
 20
325.0877594747294
 40
1.049067613786737
 50
157.8497971532508
 51
247.8498064879196
 73
     1
 72
     2
 10
204.3897867006279
 20
328.2501170185533
 40
4.241168901832584
 50
-102.9058635072733
 51
-77.67451633583831
 73
     1
 72
     2
 10
205.3018532609316
 20
324.0759594257754
 40
0.0314720294391016
 50
257.6772502327428
 51
382.1499363556852
 73
     0
 97
        0
 75
     0
 76
     1
 98
        1
 10
643.974313185246
 20
0.1400131450200206
  0
ELLIPSE
  5
A868
330
1F
100
AcDbEntity
  8
AM_2
 48
0.5
100
AcDbEllipse
 10
205.528202863232
 20
324.8062269840091
 30
0.0
 11
-6.976303713142296
 21
-0.0000006098957881
 31
0.0
210
0.0
220
0.0
230
1.0
 40
0.4248093987311
 41
0.9775429916652738
 42
1.411074778131551
  0
LINE
  5
A869
330
1F
100
AcDbEntity
  8
AM_2
 48
0.5
100
AcDbLine
 10
202.117469816357
 20
321.088680227781
 30
0.0
 11
204.588256080515
 21
321.088680227781
 31
0.0
  0
LINE
  5
A86A
330
1F
100
AcDbEntity
  8
AM_2
 48
0.5
100
AcDbLine
 10
202.2786080509751
 20
318.5642074713094
 30
0.0
 11
203.8362776522945
 21
318.5642074713094
 31
0.0
  0
LINE
  5
A86B
330
1F
100
AcDbEntity
  8
AM_2
 48
0.5
100
AcDbLine
 10
202.117469816357
 20
320.6590045213614
 30
0.0
 11
204.1047888715306
 21
320.6590045213614
 31
0.0
  0
LINE
  5
A86C
330
1F
100
AcDbEntity
  8
AM_2
 48
0.5
100
AcDbLine
 10
202.2786080509751
 20
318.9939094302933
 30
0.0
 11
203.5140011830497
 21
318.9939094302933
 31
0.0
  0
HATCH
  5
A86D
330
1F
100
AcDbEntity
  8
AM_8
100
AcDbHatch
 10
0.0
 20
0.0
 30
0.0
210
0.0
220
0.0
230
1.0
  2
SOLID
 70
     1
 71
     0
 91
        1
 92
        1
 93
       15
 72
     1
 10
202.117469816357
 20
321.088680227781
 11
204.588256080515
 21
321.088680227781
 72
     1
 10
204.588256080515
 20
321.088680227781
 11
204.588256080515
 21
320.8201427559798
 72
     2
 10
204.729232346383
 20
320.7977493193346
 40
0.1427561845454317
 50
170.9800981721697
 51
256.4000285362397
 73
     1
 72
     1
 10
204.6956815702631
 20
320.6590045213614
 11
205.0716182792475
 21
320.6590045213614
 72
     2
 10
205.0716182792476
 20
320.5515790316131
 40
0.1074245219391625
 50
270.0000179860904
 51
360.0000025044788
 73
     0
 72
     1
 10
205.1790437689872
 20
320.5515790316131
 11
205.1790437689872
 21
320.2830153072468
 72
     2
 10
203.6219517240654
 20
320.1155764573946
 40
1.56610139145184
 50
353.8629956297926
 51
442.1347118261303
 73
     0
 72
     1
 10
203.8362776522945
 20
318.5642074713094
 11
202.278608050975
 21
318.5642074713094
 72
     1
 10
202.2786080509751
 20
318.5642074713094
 11
202.2786080509751
 21
318.9939094302937
 72
     1
 10
202.2786080509751
 20
318.9939094302933
 11
203.5140011830498
 21
318.9939094302933
 72
     2
 10
203.5140011830497
 20
319.8533133482627
 40
0.8593961755134722
 50
-89.99997518371985
 51
-0.0000025044787366
 73
     1
 72
     1
 10
204.3734051010186
 20
319.8533133482627
 11
204.3734051010186
 21
320.3904145444302
 72
     2
 10
204.1047888715306
 20
320.3904145444301
 40
0.2685613144619073
 50
-0.0000025044787366
 51
89.99998201390964
 73
     1
 72
     1
 10
204.1047888715306
 20
320.6590045213614
 11
202.1174698163569
 21
320.6590045213614
 72
     1
 10
202.117469816357
 20
320.6590045213614
 11
202.117469816357
 21
321.0886802277807
 97
        0
 75
     0
 76
     1
 98
        1
 10
643.974313185246
 20
0.1400131450200206
  0
LINE
  5
A86E
330
1F
100
AcDbEntity
  8
AM_2
 48
0.5
100
AcDbLine
 10
198.9484703739698
 20
320.3098716796819
 30
0.0
 11
198.9484703739698
 21
319.8533133482627
 31
0.0
  0
LINE
  5
A86F
330
1F
100
AcDbEntity
  8
AM_2
 48
0.5
100
AcDbLine
 10
198.9484703739698
 20
321.088680227781
 30
0.0
 11
198.9484703739698
 21
320.6321481489263
 31
0.0
  0
LINE
  5
A870
330
1F
100
AcDbEntity
  8
AM_2
 48
0.5
100
AcDbLine
 10
198.9484703739698
 20
318.5642074713094
 30
0.0
 11
200.6672782099073
 21
318.5642074713094
 31
0.0
  0
LINE
  5
A871
330
1F
100
AcDbEntity
  8
AM_2
 48
0.5
100
AcDbLine
 10
198.9484703739698
 20
318.9939094302933
 30
0.0
 11
200.2644063707928
 21
318.9939094302933
 31
0.0
  0
LINE
  5
A872
330
1F
100
AcDbEntity
  8
AM_2
 48
0.5
100
AcDbLine
 10
198.9484703739698
 20
321.088680227781
 30
0.0
 11
200.7747036996556
 21
321.088680227781
 31
0.0
  0
LINE
  5
A873
330
1F
100
AcDbEntity
  8
AM_2
 48
0.5
100
AcDbLine
 10
198.9484703739698
 20
320.6321481489263
 30
0.0
 11
200.9357894291436
 21
320.6321481489263
 31
0.0
  0
LINE
  5
A874
330
1F
100
AcDbEntity
  8
AM_2
 48
0.5
100
AcDbLine
 10
198.9484703739698
 20
320.3098716796819
 30
0.0
 11
200.9357894291436
 21
320.3098716796819
 31
0.0
  0
LINE
  5
A875
330
1F
100
AcDbEntity
  8
AM_2
 48
0.5
100
AcDbLine
 10
198.9484703739698
 20
319.8533133482627
 30
0.0
 11
200.9357894291436
 21
319.8533133482627
 31
0.0
  0
LINE
  5
A876
330
1F
100
AcDbEntity
  8
AM_2
 48
0.5
100
AcDbLine
 10
201.9563315817303
 20
320.3367017995599
 30
0.0
 11
201.9563315817303
 21
319.8533133482627
 31
0.0
  0
LINE
  5
A877
330
1F
100
AcDbEntity
  8
AM_2
 48
0.5
100
AcDbLine
 10
200.9357894291436
 20
320.9812547380323
 30
0.0
 11
200.9357894291436
 21
320.6321481489263
 31
0.0
  0
LINE
  5
A878
330
1F
100
AcDbEntity
  8
AM_2
 48
0.5
100
AcDbLine
 10
198.9484703739698
 20
318.9939094302933
 30
0.0
 11
198.9484703739698
 21
318.5642074713094
 31
0.0
  0
LINE
  5
A879
330
1F
100
AcDbEntity
  8
AM_2
 48
0.5
100
AcDbLine
 10
201.12375778364
 20
320.4978662867434
 30
0.0
 11
201.12375778364
 21
319.8533133482627
 31
0.0
  0
LINE
  5
A87A
330
1F
100
AcDbEntity
  8
AM_2
 48
0.5
100
AcDbLine
 10
200.9357894291436
 20
320.3098716796819
 30
0.0
 11
200.9357894291436
 21
319.8533133482627
 31
0.0
  0
LINE
  5
A87B
330
1F
100
AcDbEntity
  8
AM_2
 48
0.5
100
AcDbLine
 10
201.12375778364
 20
320.4978662867434
 30
0.0
 11
201.8489060919906
 21
320.4978662867434
 31
0.0
  0
LINE
  5
A87C
330
1F
100
AcDbEntity
  8
AM_2
 48
0.5
100
AcDbLine
 10
202.117469816357
 20
321.088680227781
 30
0.0
 11
202.117469816357
 21
320.6590045213614
 31
0.0
  0
LINE
  5
A87D
330
1F
100
AcDbEntity
  8
AM_2
 48
0.5
100
AcDbLine
 10
202.2786080509751
 20
318.9939094302933
 30
0.0
 11
202.2786080509751
 21
318.5642074713094
 31
0.0
  0
HATCH
  5
A87E
330
1F
100
AcDbEntity
  8
AM_8
100
AcDbHatch
 10
0.0
 20
0.0
 30
0.0
210
0.0
220
0.0
230
1.0
  2
SOLID
 70
     1
 71
     0
 91
        1
 92
        1
 93
        5
 72
     1
 10
198.9484703739698
 20
321.088680227781
 11
200.7747036996556
 21
321.088680227781
 72
     2
 10
200.7970708837354
 20
320.9477039619126
 40
0.1427561845454317
 50
260.9800906587386
 51
346.4000440746941
 73
     0
 72
     1
 10
200.9357894291436
 20
320.9812547380323
 11
200.9357894291436
 21
320.6321481489264
 72
     1
 10
200.9357894291436
 20
320.6321481489263
 11
198.9484703739699
 21
320.6321481489263
 72
     1
 10
198.9484703739698
 20
320.6321481489263
 11
198.9484703739698
 21
321.0886802277806
 97
        0
 75
     0
 76
     1
 98
        1
 10
643.974313185246
 20
0.1400131450200206
  0
HATCH
  5
A87F
330
1F
100
AcDbEntity
  8
AM_8
100
AcDbHatch
 10
0.0
 20
0.0
 30
0.0
210
0.0
220
0.0
230
1.0
  2
SOLID
 70
     1
 71
     0
 91
        1
 92
        1
 93
        4
 72
     1
 10
198.9484703739698
 20
320.3098716796819
 11
198.9484703739698
 21
319.8533133482626
 72
     1
 10
198.9484703739698
 20
319.8533133482627
 11
200.9357894291435
 21
319.8533133482627
 72
     1
 10
200.9357894291436
 20
319.8533133482627
 11
200.9357894291436
 21
320.309871679682
 72
     1
 10
200.9357894291436
 20
320.3098716796819
 11
198.9484703739699
 21
320.3098716796819
 97
        0
 75
     0
 76
     1
 98
        1
 10
643.974313185246
 20
0.1400131450200206
  0
HATCH
  5
A880
330
1F
100
AcDbEntity
  8
AM_8
100
AcDbHatch
 10
0.0
 20
0.0
 30
0.0
210
0.0
220
0.0
230
1.0
  2
SOLID
 70
     1
 71
     0
 91
        1
 92
        1
 93
        9
 72
     1
 10
198.9484703739698
 20
318.9939094302933
 11
198.9484703739698
 21
318.564207471309
 72
     1
 10
198.9484703739698
 20
318.5642074713094
 11
200.6672782099073
 21
318.5644699969432
 72
     2
 10
200.6672782099073
 20
319.8533133482627
 40
1.289094288907544
 50
-89.99997518371985
 51
-0.0000025044787366
 73
     1
 72
     1
 10
201.9563315817303
 20
319.8533133482627
 11
201.9563315817303
 21
320.3367017995603
 72
     2
 10
201.8153553158623
 20
320.3590952362053
 40
0.1427719642844881
 50
-9.019322001835757
 51
76.39504431937591
 73
     1
 72
     1
 10
201.8489060919906
 20
320.4978662867434
 11
201.1237577836399
 21
320.4978662867434
 72
     1
 10
201.12375778364
 20
320.4978662867434
 11
201.12375778364
 21
319.8533133482625
 72
     2
 10
200.2644063707928
 20
319.8533133482627
 40
0.8593961755134722
 50
360.0000025044788
 51
449.9999751837198
 73
     0
 72
     1
 10
200.2644063707928
 20
318.9939094302933
 11
198.9484703739698
 21
318.9939094302933
 97
        0
 75
     0
 76
     1
 98
        1
 10
643.974313185246
 20
0.1400131450200206
  0
ELLIPSE
  5
A881
330
1F
100
AcDbEntity
  8
AM_2
 48
0.5
100
AcDbEllipse
 10
201.8489060919906
 20
320.3367280521168
 30
0.0
 11
-0.0000000070453982
 21
0.1611382346266712
 31
0.0
210
0.0
220
0.0
230
1.0
 40
0.6666667064419002
 41
4.712226031869829
 42
6.283185307179586
  0
ELLIPSE
  5
A882
330
1F
100
AcDbEntity
  8
AM_2
 48
0.5
100
AcDbEllipse
 10
200.7746511945254
 20
320.9812547380323
 30
0.0
 11
0.1611382346180648
 21
0.0
 31
0.0
210
0.0
220
0.0
230
1.0
 40
0.6666667462171999
 41
0.0
 42
1.570470517157744
  0
ARC
  5
A883
330
1F
100
AcDbEntity
  8
AM_2
 48
0.5
100
AcDbCircle
 10
200.2644063707928
 20
319.8533133482627
 30
0.0
 40
0.8593961755134722
100
AcDbArc
 50
270.0000248162814
 51
359.9999974955182
  0
ARC
  5
A884
330
1F
100
AcDbEntity
  8
AM_2
 48
0.5
100
AcDbCircle
 10
200.6672782099073
 20
319.8533133482627
 30
0.0
 40
1.289094288907544
100
AcDbArc
 50
270.0000248162814
 51
359.9999974955182
  0
ARC
  5
A885
330
1F
100
AcDbEntity
  8
AM_2
 48
0.5
100
AcDbCircle
 10
204.7762244350028
 20
320.8469991284141
 30
0.0
 40
0.0537122609695813
100
AcDbArc
 50
179.9999776881937
 51
270.0000280039997
  0
ARC
  5
A886
330
1F
100
AcDbEntity
  8
AM_2
 48
0.5
100
AcDbCircle
 10
205.1253835292476
 20
320.8469991284141
 30
0.0
 40
0.0537122609695813
100
AcDbArc
 50
270.0000248162814
 51
359.9999974955182
  0
ARC
  5
A887
330
1F
100
AcDbEntity
  8
AM_2
 48
0.5
100
AcDbCircle
 10
203.5140011830497
 20
319.8533133482627
 30
0.0
 40
0.8593961755134722
100
AcDbArc
 50
270.0000248162814
 51
359.9999974955182
  0
ARC
  5
A888
330
1F
100
AcDbEntity
  8
AM_2
 48
0.5
100
AcDbCircle
 10
205.3938947484838
 20
321.1961319700854
 30
0.0
 40
0.0537122609695813
100
AcDbArc
 50
89.99998201391097
 51
179.9999640278154
  0
ARC
  5
A889
330
1F
100
AcDbEntity
  8
AM_2
 48
0.5
100
AcDbCircle
 10
205.3938947484838
 20
320.8469991284141
 30
0.0
 40
0.0537122609695813
100
AcDbArc
 50
179.9999776881937
 51
270.0000280039997
  0
ARC
  5
A88A
330
1F
100
AcDbEntity
  8
AM_2
 48
0.5
100
AcDbCircle
 10
205.7430538427198
 20
320.8469991284141
 30
0.0
 40
0.0537122609695813
100
AcDbArc
 50
270.0000248162814
 51
359.9999974955182
  0
ARC
  5
A88B
330
1F
100
AcDbEntity
  8
AM_2
 48
0.5
100
AcDbCircle
 10
205.7430538427198
 20
321.1961319700854
 30
0.0
 40
0.0537122609695813
100
AcDbArc
 50
359.9999974955182
 51
89.99998201391097
  0
LINE
  5
A88C
330
1F
100
AcDbEntity
  8
AM_2
 48
0.5
100
AcDbLine
 10
205.1790437689872
 20
321.1961319700854
 30
0.0
 11
205.1790437689872
 21
320.8469991284141
 31
0.0
  0
LINE
  5
A88D
330
1F
100
AcDbEntity
  8
AM_2
 48
0.5
100
AcDbLine
 10
204.3734051010186
 20
320.3904145444301
 30
0.0
 11
204.3734051010186
 21
319.8533133482627
 31
0.0
  0
LINE
  5
A88E
330
1F
100
AcDbEntity
  8
AM_2
 48
0.5
100
AcDbLine
 10
204.588256080515
 20
321.088680227781
 30
0.0
 11
204.588256080515
 21
320.8201427559795
 31
0.0
  0
LINE
  5
A88F
330
1F
100
AcDbEntity
  8
AM_2
 48
0.5
100
AcDbLine
 10
204.6956815702631
 20
320.6590045213614
 30
0.0
 11
205.0716182792476
 21
320.6590045213614
 31
0.0
  0
LINE
  5
A890
330
1F
100
AcDbEntity
  8
AM_2
 48
0.5
100
AcDbLine
 10
204.722511690133
 20
321.1961319700854
 30
0.0
 11
204.722511690133
 21
320.8469991284141
 31
0.0
  0
LINE
  5
A891
330
1F
100
AcDbEntity
  8
AM_2
 48
0.5
100
AcDbLine
 10
204.7762244350028
 20
321.249844714964
 30
0.0
 11
205.1253835292476
 21
321.249844714964
 31
0.0
  0
LINE
  5
A892
330
1F
100
AcDbEntity
  8
AM_2
 48
0.5
100
AcDbLine
 10
205.1790437689872
 20
320.5515790316131
 30
0.0
 11
205.1790437689872
 21
320.2830153072468
 31
0.0
  0
LINE
  5
A893
330
1F
100
AcDbEntity
  8
AM_2
 48
0.5
100
AcDbLine
 10
204.7762244350028
 20
320.7932863835444
 30
0.0
 11
205.1253835292476
 21
320.7932863835444
 31
0.0
  0
LINE
  5
A894
330
1F
100
AcDbEntity
  8
AM_2
 48
0.5
100
AcDbLine
 10
205.3402345087355
 20
321.1961319700854
 30
0.0
 11
205.3402345087355
 21
320.8469991284141
 31
0.0
  0
LINE
  5
A895
330
1F
100
AcDbEntity
  8
AM_2
 48
0.5
100
AcDbLine
 10
205.3938947484838
 20
321.249844714964
 30
0.0
 11
205.7430538427198
 21
321.249844714964
 31
0.0
  0
LINE
  5
A896
330
1F
100
AcDbEntity
  8
AM_2
 48
0.5
100
AcDbLine
 10
205.3938947484838
 20
320.7932863835444
 30
0.0
 11
205.7430538427198
 21
320.7932863835444
 31
0.0
  0
LINE
  5
A897
330
1F
100
AcDbEntity
  8
AM_2
 48
0.5
100
AcDbLine
 10
205.7161712177199
 20
318.5642074713094
 30
0.0
 11
207.3812663087875
 21
318.5642074713094
 31
0.0
  0
LINE
  5
A898
330
1F
100
AcDbEntity
  8
AM_2
 48
0.5
100
AcDbLine
 10
205.7967665875895
 20
321.1961319700854
 30
0.0
 11
205.7967665875895
 21
320.8469991284141
 31
0.0
  0
LINE
  5
A899
330
1F
100
AcDbEntity
  8
AM_2
 48
0.5
100
AcDbLine
 10
205.6087457279716
 20
320.4441272892998
 30
0.0
 11
205.6087457279716
 21
320.0144515828806
 31
0.0
  0
LINE
  5
A89A
330
1F
100
AcDbEntity
  8
AM_2
 48
0.5
100
AcDbLine
 10
205.7161712177199
 20
318.9939094302933
 30
0.0
 11
206.9515643498032
 21
318.9939094302933
 31
0.0
  0
LINE
  5
A89B
330
1F
100
AcDbEntity
  8
AM_2
 48
0.5
100
AcDbLine
 10
205.6087457279716
 20
320.4441272892998
 30
0.0
 11
205.8654957987787
 21
320.4441272892998
 31
0.0
  0
LINE
  5
A89C
330
1F
100
AcDbEntity
  8
AM_2
 48
0.5
100
AcDbLine
 10
205.7161712177199
 20
318.9939094302933
 30
0.0
 11
205.7161712177199
 21
318.5642074713094
 31
0.0
  0
LINE
  5
A89D
330
1F
100
AcDbEntity
  8
AM_2
 48
0.5
100
AcDbLine
 10
205.6087457279716
 20
320.0144515828806
 30
0.0
 11
206.1661401557059
 21
320.0144515828806
 31
0.0
  0
LINE
  5
A89E
330
1F
100
AcDbEntity
  8
AM_2
 48
0.5
100
AcDbLine
 10
206.5755751356887
 20
320.0845984324901
 30
0.0
 11
206.5755751356887
 21
319.6921751136442
 31
0.0
  0
LINE
  5
A89F
330
1F
100
AcDbEntity
  8
AM_2
 48
0.5
100
AcDbLine
 10
206.6680891693778
 20
320.1218770726287
 30
0.0
 11
207.3510758607841
 21
320.1218770726287
 31
0.0
  0
LINE
  5
A8A0
330
1F
100
AcDbEntity
  8
AM_2
 48
0.5
100
AcDbLine
 10
206.5755751356887
 20
319.6921751136442
 30
0.0
 11
207.2301565534144
 21
319.6921751136442
 31
0.0
  0
LINE
  5
A8A1
330
1F
100
AcDbEntity
  8
AM_2
 48
0.5
100
AcDbLine
 10
206.6464045519473
 20
320.1644324780236
 30
0.0
 11
206.9727501685228
 21
320.6145589313917
 31
0.0
  0
LINE
  5
A8A2
330
1F
100
AcDbEntity
  8
AM_2
 48
0.5
100
AcDbLine
 10
205.9525230466999
 20
320.488467869018
 30
0.0
 11
206.355473643501
 21
321.0442608903761
 31
0.0
  0
LINE
  5
A8A3
330
1F
100
AcDbEntity
  8
AM_2
 48
0.5
100
AcDbLine
 10
206.5402391852459
 20
320.1099584088092
 30
0.0
 11
206.3360204939656
 21
320.0418855117129
 31
0.0
  0
LINE
  5
A8A4
330
1F
100
AcDbEntity
  8
AM_2
 48
0.5
100
AcDbLine
 10
207.8098919126635
 20
319.8600602570778
 30
0.0
 11
207.4071250838092
 21
320.1062042922338
 31
0.0
  0
LINE
  5
A8A5
330
1F
100
AcDbEntity
  8
AM_2
 48
0.5
100
AcDbLine
 10
207.6395652808318
 20
319.4606275037834
 30
0.0
 11
207.2862057764396
 21
319.6765548383796
 31
0.0
  0
LINE
  5
A8A6
330
1F
100
AcDbEntity
  8
AM_2
 48
0.5
100
AcDbLine
 10
207.8646810126417
 20
320.5515790316131
 30
0.0
 11
207.8646810126417
 21
320.068164327759
 31
0.0
  0
LINE
  5
A8A7
330
1F
100
AcDbEntity
  8
AM_2
 48
0.5
100
AcDbLine
 10
207.0596724062008
 20
320.6590045213614
 30
0.0
 11
207.7572555228935
 21
320.6590045213614
 31
0.0
  0
HATCH
  5
A8A8
330
1F
100
AcDbEntity
  8
AM_8
100
AcDbHatch
 10
0.0
 20
0.0
 30
0.0
210
0.0
220
0.0
230
1.0
  2
SOLID
 70
     1
 71
     0
 91
        1
 92
        1
 93
        8
 72
     1
 10
204.7762244350028
 20
321.249844714964
 11
205.1253835292475
 21
321.249844714964
 72
     2
 10
205.1253835292476
 20
321.1961319700854
 40
0.0537122609695813
 50
270.0000179860904
 51
360.0000025044788
 73
     0
 72
     1
 10
205.1790437689872
 20
321.1961319700854
 11
205.1790437689872
 21
320.8469991284143
 72
     2
 10
205.1253835292476
 20
320.8469991284141
 40
0.0537122609695813
 50
360.0000025044788
 51
449.9999751837198
 73
     0
 72
     1
 10
205.1253835292476
 20
320.7932863835444
 11
204.7762244350029
 21
320.7932863835444
 72
     2
 10
204.7762244350028
 20
320.8469991284141
 40
0.0537122609695813
 50
89.99997199599961
 51
180.0000359721807
 73
     0
 72
     1
 10
204.722511690133
 20
320.8469991284141
 11
204.722511690133
 21
321.1961319700852
 72
     2
 10
204.7762244350028
 20
321.1961319700854
 40
0.0537122609695813
 50
180.0000359721807
 51
270.0000179860904
 73
     0
 97
        0
 75
     0
 76
     1
 98
        1
 10
643.974313185246
 20
0.1400131450200206
  0
HATCH
  5
A8A9
330
1F
100
AcDbEntity
  8
AM_8
100
AcDbHatch
 10
0.0
 20
0.0
 30
0.0
210
0.0
220
0.0
230
1.0
  2
SOLID
 70
     1
 71
     0
 91
        1
 92
        1
 93
        8
 72
     1
 10
205.3938947484838
 20
321.249844714964
 11
205.7430538427199
 21
321.249844714964
 72
     2
 10
205.7430538427198
 20
321.1961319700854
 40
0.0537122609695813
 50
270.0000179860904
 51
360.0000025044788
 73
     0
 72
     1
 10
205.7967665875895
 20
321.1961319700854
 11
205.7967665875895
 21
320.8469991284143
 72
     2
 10
205.7430538427198
 20
320.8469991284141
 40
0.0537122609695813
 50
360.0000025044788
 51
449.9999751837198
 73
     0
 72
     1
 10
205.7430538427198
 20
320.7932863835444
 11
205.3938947484837
 21
320.7932863835444
 72
     2
 10
205.3938947484838
 20
320.8469991284141
 40
0.0537122609695813
 50
89.99997199599961
 51
180.0000359721807
 73
     0
 72
     1
 10
205.3402345087355
 20
320.8469991284141
 11
205.3402345087355
 21
321.1961319700852
 72
     2
 10
205.3938947484838
 20
321.1961319700854
 40
0.0537122609695813
 50
180.0000359721807
 51
270.0000179860904
 73
     0
 97
        0
 75
     0
 76
     1
 98
        1
 10
643.974313185246
 20
0.1400131450200206
  0
ELLIPSE
  5
A8AA
330
1F
100
AcDbEntity
  8
AM_2
 48
0.5
100
AcDbEllipse
 10
206.9515643498032
 20
320.0681380751939
 30
0.0
 11
-0.0000000469606986
 21
1.074241771174113
 31
0.0
210
0.0
220
0.0
230
0.9999999999999998
 40
0.8500103862462001
 41
3.141592550740689
 42
4.021700675180791
  0
ELLIPSE
  5
A8AB
330
1F
100
AcDbEntity
  8
AM_2
 48
0.5
100
AcDbEllipse
 10
204.6956815702631
 20
320.8201165034143
 30
0.0
 11
-0.0000000070453982
 21
0.1611251083355442
 31
0.0
210
0.0
220
0.0
230
1.0
 40
0.6667209775967004
 41
1.570714889620554
 42
3.14159278471332
  0
ELLIPSE
  5
A8AC
330
1F
100
AcDbEntity
  8
AM_2
 48
0.5
100
AcDbEllipse
 10
206.9515643498032
 20
320.0681380751939
 30
0.0
 11
-0.0000000469606986
 21
1.074241771174113
 31
0.0
210
0.0
220
0.0
230
0.9999999999999998
 40
0.8500103862462001
 41
4.535278755984106
 42
4.712401204054757
  0
ELLIPSE
  5
A8AD
330
1F
100
AcDbEntity
  8
AM_2
 48
0.5
100
AcDbEllipse
 10
203.8362776522945
 20
320.2829890546816
 30
0.0
 11
-0.000000075133734
 21
1.718794709654979
 31
0.0
210
0.0
220
0.0
230
1.0
 40
0.7812559663365001
 41
3.141592541689455
 42
4.712396583138373
  0
ARC
  5
A8AE
330
1F
100
AcDbEntity
  8
AM_2
 48
0.5
100
AcDbCircle
 10
206.6680891693778
 20
320.1487334450635
 30
0.0
 40
0.0268561304848337
100
AcDbArc
 50
144.0576234830006
 51
270.0000006832462
  0
ARC
  5
A8AF
330
1F
100
AcDbEntity
  8
AM_2
 48
0.5
100
AcDbCircle
 10
206.5487450158187
 20
320.0846246850549
 30
0.0
 40
0.0268561304848337
100
AcDbArc
 50
359.9999974955182
 51
108.434826508309
  0
ARC
  5
A8B0
330
1F
100
AcDbEntity
  8
AM_2
 48
0.5
100
AcDbCircle
 10
207.6115012904716
 20
319.414711770263
 30
0.0
 40
0.0537122609695813
100
AcDbArc
 50
324.9136358374394
 51
58.5706479820396
  0
ARC
  5
A8B1
330
1F
100
AcDbEntity
  8
AM_2
 48
0.5
100
AcDbCircle
 10
207.8238320238744
 20
319.8828999873031
 30
0.0
 40
0.0268561304848337
100
AcDbArc
 50
238.5702878032522
 51
351.348664684987
  0
ARC
  5
A8B2
330
1F
100
AcDbEntity
  8
AM_2
 48
0.5
100
AcDbCircle
 10
207.3510758607841
 20
320.0144515828806
 30
0.0
 40
0.1074245219391625
100
AcDbArc
 50
58.57035428390714
 51
89.99998201391097
  0
ARC
  5
A8B3
330
1F
100
AcDbEntity
  8
AM_2
 48
0.5
100
AcDbCircle
 10
206.4424221337355
 20
320.9812547380323
 30
0.0
 40
0.1074245219391625
100
AcDbArc
 50
89.99998201391097
 51
144.0579103509556
  0
ARC
  5
A8B4
330
1F
100
AcDbEntity
  8
AM_2
 48
0.5
100
AcDbCircle
 10
205.8654957987787
 20
320.5515790316131
 30
0.0
 40
0.1074245219391625
100
AcDbArc
 50
270.0000248162814
 51
324.057895096706
  0
ARC
  5
A8B5
330
1F
100
AcDbEntity
  8
AM_2
 48
0.5
100
AcDbCircle
 10
207.0596724062008
 20
320.5515790316131
 30
0.0
 40
0.1074245219391625
100
AcDbArc
 50
89.99998201391097
 51
144.0579103509556
  0
ARC
  5
A8B6
330
1F
100
AcDbEntity
  8
AM_2
 48
0.5
100
AcDbCircle
 10
207.7572555228935
 20
320.5515790316131
 30
0.0
 40
0.1074245219391625
100
AcDbArc
 50
359.9999974955182
 51
89.99998201391097
  0
ARC
  5
A8B7
330
1F
100
AcDbEntity
  8
AM_2
 48
0.5
100
AcDbCircle
 10
206.1661401557059
 20
320.5515790316131
 30
0.0
 40
0.5371226289239007
100
AcDbArc
 50
270.0000248162814
 51
288.4349512729553
  0
ARC
  5
A8B8
330
1F
100
AcDbEntity
  8
AM_2
 48
0.5
100
AcDbCircle
 10
207.2301565534144
 20
319.5847496238962
 30
0.0
 40
0.1074245219391625
100
AcDbArc
 50
58.57035428390714
 51
89.99998201391097
  0
ARC
  5
A8B9
330
1F
100
AcDbEntity
  8
AM_2
 48
0.5
100
AcDbCircle
 10
204.4208697357841
 20
321.9117243453368
 30
0.0
 40
0.0314720294391016
100
AcDbArc
 50
266.0860737048656
 51
337.850051691492
  0
ARC
  5
A8BA
330
1F
100
AcDbEntity
  8
AM_2
 48
0.5
100
AcDbCircle
 10
205.9973886776851
 20
321.8807988255544
 30
0.0
 40
0.0314720294391016
100
AcDbArc
 50
157.8490594928266
 51
271.6438086504145
  0
ARC
  5
A8BB
330
1F
100
AcDbEntity
  8
AM_2
 48
0.5
100
AcDbCircle
 10
204.1047888715306
 20
320.3904145444301
 30
0.0
 40
0.2685613144619073
100
AcDbArc
 50
359.9999974955182
 51
89.99998201391097
  0
ARC
  5
A8BC
330
1F
100
AcDbEntity
  8
AM_2
 48
0.5
100
AcDbCircle
 10
205.0716182792476
 20
320.5515790316131
 30
0.0
 40
0.1074245219391625
100
AcDbArc
 50
359.9999974955182
 51
89.99998201391097
  0
ARC
  5
A8BD
330
1F
100
AcDbEntity
  8
AM_2
 48
0.5
100
AcDbCircle
 10
204.7762244350028
 20
321.1961319700854
 30
0.0
 40
0.0537122609695813
100
AcDbArc
 50
89.99998201391097
 51
179.9999640278154
  0
ARC
  5
A8BE
330
1F
100
AcDbEntity
  8
AM_2
 48
0.5
100
AcDbCircle
 10
205.1253835292476
 20
321.1961319700854
 30
0.0
 40
0.0537122609695813
100
AcDbArc
 50
359.9999974955182
 51
89.99998201391097
  0
LINE
  5
A8BF
330
1F
100
AcDbEntity
  8
AM_2
 48
0.5
100
AcDbLine
 10
202.8661929267042
 20
325.4834118588831
 30
0.0
 11
203.7375155084925
 21
327.6237833591263
 31
0.0
  0
ELLIPSE
  5
A8C0
330
1F
100
AcDbEntity
  8
AM_2
 48
0.5
100
AcDbEllipse
 10
205.528202863232
 20
324.8062269840091
 30
0.0
 11
-6.976303713142296
 21
-0.0000006098957881
 31
0.0
210
0.0
220
0.0
230
1.0
 40
0.4248093987311
 41
4.976799032816119
 42
5.21978845033481
  0
ARC
  5
A8C1
330
1F
100
AcDbEntity
  8
AM_2
 48
0.5
100
AcDbCircle
 10
203.8380628266087
 20
325.0877594747294
 30
0.0
 40
1.049067613786737
100
AcDbArc
 50
157.8497971532474
 51
247.8498064879207
  0
LINE
  5
A8C2
330
1F
100
AcDbEntity
  8
AM_2
 48
0.5
100
AcDbLine
 10
200.2881911933101
 20
322.8870858361747
 30
0.0
 11
200.5149608366174
 21
323.4441652331538
 31
0.0
  0
LINE
  5
A8C3
330
1F
100
AcDbEntity
  8
AM_2
 48
0.5
100
AcDbLine
 10
199.9639720343691
 20
325.3520440312443
 30
0.0
 11
200.5152233622511
 21
323.9978317968694
 31
0.0
  0
LINE
  5
A8C4
330
1F
100
AcDbEntity
  8
AM_2
 48
0.5
100
AcDbLine
 10
199.9636570036053
 20
325.8267691365956
 30
0.0
 11
200.3277275539005
 21
326.7211414691133
 31
0.0
  0
LINE
  5
A8C5
330
1F
100
AcDbEntity
  8
AM_2
 48
0.5
100
AcDbLine
 10
201.610637825871
 20
322.3990506811488
 30
0.0
 11
202.0360868695775
 21
323.4442177382752
 31
0.0
  0
LINE
  5
A8C6
330
1F
100
AcDbEntity
  8
AM_2
 48
0.5
100
AcDbLine
 10
201.5011646361748
 20
325.3124551655235
 30
0.0
 11
202.036296890081
 21
323.9978317968694
 31
0.0
  0
LINE
  5
A8C7
330
1F
100
AcDbEntity
  8
AM_2
 48
0.5
100
AcDbLine
 10
201.5009546156712
 20
325.866331749751
 30
0.0
 11
202.1162621984316
 21
327.3777968393519
 31
0.0
  0
HATCH
  5
A8C8
330
1F
100
AcDbEntity
  8
AM_8
100
AcDbHatch
 10
0.0
 20
0.0
 30
0.0
210
0.0
220
0.0
230
1.0
  2
SOLID
 70
     1
 71
     0
 91
        1
 92
        1
 93
        9
 72
     1
 10
200.28813868818
 20
322.8871120887398
 11
200.515170857121
 21
323.4440864754585
 72
     2
 10
199.8350194425722
 20
323.7209722624507
 40
0.7343473193958078
 50
-22.15025054438588
 51
22.15024712928813
 73
     1
 72
     1
 10
200.5152233622511
 20
323.9978843019997
 11
199.9639195292476
 21
325.3520177786793
 72
     2
 10
200.5469364589351
 20
325.5893409525072
 40
0.6294405887818595
 50
157.8497598145818
 51
202.1502574882615
 73
     0
 72
     1
 10
199.9636044984836
 20
325.8267953891609
 11
200.3279900795341
 21
326.7210364588615
 72
     2
 10
200.298849734074
 20
326.7329026175507
 40
0.0314720294391016
 50
-22.15094722367926
 51
115.8287111905272
 73
     1
 72
     2
 10
200.9890296278761
 20
324.3913839759448
 40
2.472194262974711
 50
106.5426523723583
 51
170.3397269563473
 73
     1
 72
     2
 10
200.9664524232841
 20
325.2089150551765
 40
2.447923152746172
 50
-170.5313137625662
 51
-106.9987724051317
 73
     1
 72
     2
 10
200.259208363232
 20
322.8988732371777
 40
0.0314720294391016
 50
-116.2184008034371
 51
-22.15025054438588
 73
     1
 97
        0
 75
     0
 76
     1
 98
        1
 10
643.974313185246
 20
0.1400131450200206
  0
ELLIPSE
  5
A8C9
330
1F
100
AcDbEntity
  8
AM_2
 48
0.5
100
AcDbEllipse
 10
205.528202863232
 20
324.8062269840091
 30
0.0
 11
-6.976303713142296
 21
-0.0000006098957881
 31
0.0
210
0.0
220
0.0
230
1.0
 40
0.4248093987311
 41
5.56280012168186
 42
6.996078981890493
  0
ARC
  5
A8CA
330
1F
100
AcDbEntity
  8
AM_2
 48
0.5
100
AcDbCircle
 10
202.1456125644038
 20
327.3658256704111
 30
0.0
 40
0.0314720294391016
100
AcDbArc
 50
103.2912842519431
 51
157.8481852286101
  0
ARC
  5
A8CB
330
1F
100
AcDbEntity
  8
AM_2
 48
0.5
100
AcDbCircle
 10
200.298849734074
 20
326.7329026175507
 30
0.0
 40
0.0314720294391016
100
AcDbArc
 50
337.8490527763199
 51
115.8287111905313
  0
ARC
  5
A8CC
330
1F
100
AcDbEntity
  8
AM_2
 48
0.5
100
AcDbCircle
 10
201.6367853790999
 20
322.3792299957277
 30
0.0
 40
0.0314720294391016
100
AcDbArc
 50
157.8497151909804
 51
254.0161559121234
  0
ARC
  5
A8CD
330
1F
100
AcDbEntity
  8
AM_2
 48
0.5
100
AcDbCircle
 10
200.259208363232
 20
322.8988732371777
 30
0.0
 40
0.0314720294391016
100
AcDbArc
 50
243.7815991965659
 51
337.8497511631567
  0
ARC
  5
A8CE
330
1F
100
AcDbEntity
  8
AM_2
 48
0.5
100
AcDbCircle
 10
201.3561454755324
 20
323.7209722624507
 30
0.0
 40
0.7343473193958078
100
AcDbArc
 50
337.8497494556185
 51
22.15026761986022
  0
ARC
  5
A8CF
330
1F
100
AcDbEntity
  8
AM_2
 48
0.5
100
AcDbCircle
 10
202.1813160507321
 20
325.5893409525072
 30
0.0
 40
0.7343473193958078
100
AcDbArc
 50
157.8497698324922
 51
202.1501855438963
  0
ARC
  5
A8D0
330
1F
100
AcDbEntity
  8
AM_2
 48
0.5
100
AcDbCircle
 10
199.8350194425722
 20
323.7209722624507
 30
0.0
 40
0.7343473193958078
100
AcDbArc
 50
337.8497494556185
 51
22.15024712929116
  0
ARC
  5
A8D1
330
1F
100
AcDbEntity
  8
AM_2
 48
0.5
100
AcDbCircle
 10
200.5469364589351
 20
325.5893409525072
 30
0.0
 40
0.6294405887818595
100
AcDbArc
 50
157.8497425117321
 51
202.1502401854194
  0
LINE
  5
A8D2
330
1F
100
AcDbEntity
  8
AM_2
 48
0.5
100
AcDbLine
 10
204.3275681251938
 20
325.3366075239264
 30
0.0
 11
205.3044785172772
 21
327.7363806038788
 31
0.0
  0
LINE
  5
A8D3
330
1F
100
AcDbEntity
  8
AM_2
 48
0.5
100
AcDbLine
 10
205.6482820885705
 20
324.8442669484837
 30
0.0
 11
206.7913974600333
 21
327.6523461481888
 31
0.0
  0
HATCH
  5
A8D4
330
1F
100
AcDbEntity
  8
AM_8
100
AcDbHatch
 10
0.0
 20
0.0
 30
0.0
210
0.0
220
0.0
230
1.0
  2
SOLID
 70
     1
 71
     0
 91
        1
 92
        1
 93
        9
 72
     1
 10
206.7914237125897
 20
327.6523461481888
 11
205.6485446142043
 21
324.8441356856671
 72
     2
 10
205.5514101293431
 20
324.8836720462573
 40
0.1049067626605319
 50
382.1502915255188
 51
425.4567559107931
 73
     0
 72
     2
 10
204.8686334584403
 20
326.3787030311271
 40
1.748459285991693
 50
425.4564280617128
 51
457.7446993628422
 73
     0
 72
     2
 10
204.8136080853935
 20
325.1386894478717
 40
0.5245338068933258
 50
110.1379378203209
 51
202.1502301675025
 73
     0
 72
     1
 10
204.3276206303154
 20
325.3366075239264
 11
205.3047410429195
 21
327.736249341062
 72
     2
 10
205.3533082853501
 20
327.7164549081977
 40
0.052453381330309
 50
202.1501208844776
 51
269.3879783949419
 73
     0
 72
     2
 10
205.528202863232
 20
311.3516569394471
 40
16.4182088091428
 50
269.3879442439989
 51
270.0000521370334
 73
     0
 72
     2
 10
205.531038140081
 20
311.5269715583447
 40
16.242874500824
 50
269.9900459098989
 51
274.2934680681694
 73
     0
 72
     2
 10
206.7430664906712
 20
327.6719568131061
 40
0.052453381330309
 50
274.3124764846284
 51
382.1501276009815
 73
     0
 97
        0
 75
     0
 76
     1
 98
        1
 10
643.974313185246
 20
0.1400131450200206
  0
ELLIPSE
  5
A8D5
330
1F
100
AcDbEntity
  8
AM_2
 48
0.5
100
AcDbEllipse
 10
205.528202863232
 20
324.8062269840091
 30
0.0
 11
-6.976303713142296
 21
-0.0000006098957881
 31
0.0
210
0.0
220
0.0
230
1.0
 40
0.4248093987311
 41
4.536776993253852
 42
4.73753320772932
  0
ARC
  5
A8D6
330
1F
100
AcDbEntity
  8
AM_2
 48
0.5
100
AcDbCircle
 10
204.8136080853935
 20
325.1386894478717
 30
0.0
 40
0.5245338068933258
100
AcDbArc
 50
157.8497698324922
 51
249.8620621796828
  0
ARC
  5
A8D7
330
1F
100
AcDbEntity
  8
AM_2
 48
0.5
100
AcDbCircle
 10
204.3897867006279
 20
328.2501170185533
 30
0.0
 40
4.241168901832584
100
AcDbArc
 50
257.0941296625426
 51
282.3254768339716
  0
ARC
  5
A8D8
330
1F
100
AcDbEntity
  8
AM_2
 48
0.5
100
AcDbCircle
 10
204.8686334584403
 20
326.3787030311271
 30
0.0
 40
1.748459285991693
100
AcDbArc
 50
262.2552938069702
 51
294.5435651080924
  0
ARC
  5
A8D9
330
1F
100
AcDbEntity
  8
AM_2
 48
0.5
100
AcDbCircle
 10
206.7430664906712
 20
327.6719568131061
 30
0.0
 40
0.052453381330309
100
AcDbArc
 50
337.8498723990137
 51
85.68752351537323
  0
ARC
  5
A8DA
330
1F
100
AcDbEntity
  8
AM_2
 48
0.5
100
AcDbCircle
 10
205.3533082853501
 20
327.7164549081977
 30
0.0
 40
0.052453381330309
100
AcDbArc
 50
90.61202160505857
 51
157.8498791155234
  0
ARC
  5
A8DB
330
1F
100
AcDbEntity
  8
AM_2
 48
0.5
100
AcDbCircle
 10
205.5514101293431
 20
324.8836720462573
 30
0.0
 40
0.1049067626605319
100
AcDbArc
 50
294.543244089202
 51
337.8497084744773
  0
ARC
  5
A8DC
330
1F
100
AcDbEntity
  8
AM_2
 48
0.5
100
AcDbCircle
 10
203.7085326784143
 20
327.635570760129
 30
0.0
 40
0.0314720294391016
100
AcDbArc
 50
337.8498177574995
 51
96.55938150409134
  0
ARC
  5
A8DD
330
1F
100
AcDbEntity
  8
AM_2
 48
0.5
100
AcDbCircle
 10
205.3018532609316
 20
324.0759594257754
 30
0.0
 40
0.0314720294391016
100
AcDbArc
 50
337.8500636443162
 51
102.3227497672585
  0
LINE
  5
A8DE
330
1F
100
AcDbEntity
  8
AM_2
 48
0.5
100
AcDbLine
 10
208.7777976754803
 20
319.4773241341481
 30
0.0
 11
208.7777976754803
 21
319.0476221751637
 31
0.0
  0
LINE
  5
A8DF
330
1F
100
AcDbEntity
  8
AM_2
 48
0.5
100
AcDbLine
 10
208.7240849306106
 20
320.8201427559795
 30
0.0
 11
208.7240849306106
 21
319.9070260931321
 31
0.0
  0
LINE
  5
A8E0
330
1F
100
AcDbEntity
  8
AM_2
 48
0.5
100
AcDbLine
 10
208.4255407787528
 20
319.0476221751637
 30
0.0
 11
208.7777976754803
 21
319.0476221751637
 31
0.0
  0
LINE
  5
A8E1
330
1F
100
AcDbEntity
  8
AM_2
 48
0.5
100
AcDbLine
 10
208.6903766391087
 20
319.4773503867129
 30
0.0
 11
208.7777976754803
 21
319.4773503867129
 31
0.0
  0
LINE
  5
A8E2
330
1F
100
AcDbEntity
  8
AM_2
 48
0.5
100
AcDbLine
 10
209.100074144725
 20
318.6179202161791
 30
0.0
 11
212.1079353524855
 21
318.6179202161791
 31
0.0
  0
LINE
  5
A8E3
330
1F
100
AcDbEntity
  8
AM_2
 48
0.5
100
AcDbLine
 10
209.100074144725
 20
319.2087604097901
 30
0.0
 11
211.9736797428674
 21
319.2087604097901
 31
0.0
  0
LINE
  5
A8E4
330
1F
100
AcDbEntity
  8
AM_2
 48
0.5
100
AcDbLine
 10
209.314925124213
 20
321.088680227781
 30
0.0
 11
209.314925124213
 21
320.6321481489263
 31
0.0
  0
LINE
  5
A8E5
330
1F
100
AcDbEntity
  8
AM_2
 48
0.5
100
AcDbLine
 10
209.314925124213
 20
321.088680227781
 30
0.0
 11
211.705116018501
 21
321.088680227781
 31
0.0
  0
LINE
  5
A8E6
330
1F
100
AcDbEntity
  8
AM_2
 48
0.5
100
AcDbLine
 10
209.100074144725
 20
319.2087604097901
 30
0.0
 11
209.100074144725
 21
318.6179202161791
 31
0.0
  0
LINE
  5
A8E7
330
1F
100
AcDbEntity
  8
AM_2
 48
0.5
100
AcDbLine
 10
209.314925124213
 20
320.6321481489263
 30
0.0
 11
211.8394241332493
 21
320.6321481489263
 31
0.0
  0
LINE
  5
A8E8
330
1F
100
AcDbEntity
  8
AM_2
 48
0.5
100
AcDbLine
 10
211.8394241332493
 20
320.9275419931625
 30
0.0
 11
211.8394241332493
 21
320.6321481489263
 31
0.0
  0
LINE
  5
A8E9
330
1F
100
AcDbEntity
  8
AM_2
 48
0.5
100
AcDbLine
 10
212.1079353524855
 20
319.0476221751637
 30
0.0
 11
212.1079353524855
 21
318.6179202161791
 31
0.0
  0
HATCH
  5
A8EA
330
1F
100
AcDbEntity
  8
AM_8
100
AcDbHatch
 10
0.0
 20
0.0
 30
0.0
210
0.0
220
0.0
230
1.0
  2
SOLID
 70
     1
 71
     0
 91
        1
 92
        1
 93
        5
 72
     1
 10
209.100074144725
 20
319.2087604097901
 11
211.9736797428674
 21
319.2087604097901
 72
     2
 10
211.9589258021903
 20
319.0599346274421
 40
0.1495552011081245
 50
275.6673537895311
 51
364.7215074288784
 73
     0
 72
     1
 10
212.1079353524855
 20
319.0476221751637
 11
212.1079353524855
 21
318.6179202161794
 72
     1
 10
212.1079353524855
 20
318.6179202161791
 11
209.100074144725
 21
318.6179202161791
 72
     1
 10
209.100074144725
 20
318.6179202161791
 11
209.100074144725
 21
319.2087604097902
 97
        0
 75
     0
 76
     1
 98
        1
 10
643.974313185246
 20
0.1400131450200206
  0
HATCH
  5
A8EB
330
1F
100
AcDbEntity
  8
AM_8
100
AcDbHatch
 10
0.0
 20
0.0
 30
0.0
210
0.0
220
0.0
230
1.0
  2
SOLID
 70
     1
 71
     0
 91
        1
 92
        1
 93
        5
 72
     1
 10
209.314925124213
 20
321.088680227781
 11
211.7051160185012
 21
321.088680227781
 72
     2
 10
211.6903620778241
 20
320.9398806979975
 40
0.1495552011081245
 50
275.6673537895311
 51
364.7215074288784
 73
     0
 72
     1
 10
211.8394241332493
 20
320.9275419931625
 11
211.8394241332493
 21
320.6321481489264
 72
     1
 10
211.8394241332493
 20
320.6321481489263
 11
209.3149251242129
 21
320.6321481489263
 72
     1
 10
209.314925124213
 20
320.6321481489263
 11
209.314925124213
 21
321.0886802277806
 97
        0
 75
     0
 76
     1
 98
        1
 10
643.974313185246
 20
0.1400131450200206
  0
ELLIPSE
  5
A8EC
330
1F
100
AcDbEntity
  8
AM_2
 48
0.5
100
AcDbEllipse
 10
211.9736797428674
 20
319.0476484277287
 30
0.0
 11
-0.0000000070453982
 21
0.1611251083355442
 31
0.0
210
0.0
220
0.0
230
1.0
 40
0.8332382892056999
 41
4.712307493572145
 42
6.283185307179586
  0
ELLIPSE
  5
A8ED
330
1F
100
AcDbEntity
  8
AM_2
 48
0.5
100
AcDbEllipse
 10
211.705116018501
 20
320.9275419931625
 30
0.0
 11
-0.0000000070453982
 21
0.1611251083355442
 31
0.0
210
0.0
220
0.0
230
1.0
 40
0.8335641547862003
 41
4.712307561072614
 42
6.283185307179586
  0
ARC
  5
A8EE
330
1F
100
AcDbEntity
  8
AM_2
 48
0.5
100
AcDbCircle
 10
207.3812663087875
 20
319.9070260931321
 30
0.0
 40
1.342806521035209
100
AcDbArc
 50
342.8953809502362
 51
359.9999974955182
  0
ARC
  5
A8EF
330
1F
100
AcDbEntity
  8
AM_2
 48
0.5
100
AcDbCircle
 10
208.6903766391087
 20
319.5041805065912
 30
0.0
 40
0.0268561304848337
100
AcDbArc
 50
162.8947797798995
 51
270.0000006832462
  0
ARC
  5
A8F0
330
1F
100
AcDbEntity
  8
AM_2
 48
0.5
100
AcDbCircle
 10
208.4255407787528
 20
319.0207658027286
 30
0.0
 40
0.0268561304848337
100
AcDbArc
 50
89.99998201391097
 51
139.6795541872967
  0
ARC
  5
A8F1
330
1F
100
AcDbEntity
  8
AM_2
 48
0.5
100
AcDbCircle
 10
208.4555212062442
 20
320.8201427559795
 30
0.0
 40
0.2685613144619073
100
AcDbArc
 50
359.9999974955182
 51
89.99998201391097
  0
LINE
  5
A8F2
330
1F
100
AcDbEntity
  8
AM_2
 48
0.5
100
AcDbLine
 10
210.6964137720385
 20
322.8762172748986
 30
0.0
 11
211.0277473756799
 21
323.6901780054934
 31
0.0
  0
LINE
  5
A8F3
330
1F
100
AcDbEntity
  8
AM_2
 48
0.5
100
AcDbLine
 10
210.4925888692086
 20
326.1123707746558
 30
0.0
 11
210.7464774105931
 21
326.7360266726068
 31
0.0
  0
LINE
  5
A8F4
330
1F
100
AcDbEntity
  8
AM_2
 48
0.5
100
AcDbLine
 10
208.9114757287093
 20
322.2283040083016
 30
0.0
 11
209.5065950901548
 21
323.6902567631801
 31
0.0
  0
LINE
  5
A8F5
330
1F
100
AcDbEntity
  8
AM_2
 48
0.5
100
AcDbLine
 10
210.4928251422771
 20
325.558467937863
 30
0.0
 11
211.0279573961834
 21
324.2438970743387
 31
0.0
  0
LINE
  5
A8F6
330
1F
100
AcDbEntity
  8
AM_2
 48
0.5
100
AcDbLine
 10
208.9717778670123
 20
325.5584941904281
 30
0.0
 11
209.5069363734836
 21
324.2438708217737
 31
0.0
  0
LINE
  5
A8F7
330
1F
100
AcDbEntity
  8
AM_2
 48
0.5
100
AcDbLine
 10
208.9715153413787
 20
326.1123707746558
 30
0.0
 11
209.4256846895212
 21
327.2280259647207
 31
0.0
  0
HATCH
  5
A8F8
330
1F
100
AcDbEntity
  8
AM_8
100
AcDbHatch
 10
0.0
 20
0.0
 30
0.0
210
0.0
220
0.0
230
1.0
  2
SOLID
 70
     1
 71
     0
 91
        1
 92
        1
 93
        9
 72
     1
 10
210.7464774105931
 20
326.7360529251635
 11
210.4928776474074
 21
326.1122132592736
 72
     2
 10
211.173029061956
 20
325.8353537248467
 40
0.7343473193958078
 50
157.8497698324975
 51
202.1501855439001
 73
     1
 72
     1
 10
210.4928776474073
 20
325.5585204429933
 11
211.0280099013135
 21
324.2438708217738
 72
     2
 10
210.3478584867651
 20
323.9669850347902
 40
0.7343473193958078
 50
337.8497323801425
 51
382.1502505443859
 73
     0
 72
     1
 10
211.0277473756799
 20
323.6902042580498
 11
210.6967025502372
 21
322.8761385172121
 72
     2
 10
210.7257903905757
 20
322.8642723585142
 40
0.0314720294391016
 50
157.8517642477323
 51
295.5131887805864
 73
     1
 72
     2
 10
210.0464265529282
 20
325.2324898571731
 40
2.494761007558824
 50
-73.8743630061836
 51
-9.837694777618834
 73
     1
 72
     2
 10
210.0794522777806
 20
324.3979208642563
 40
2.459168479331023
 50
9.557515295225336
 51
73.21342609077245
 73
     1
 72
     2
 10
210.7758802816869
 20
326.7240292510921
 40
0.0314720294391016
 50
63.9901367110719
 51
157.8490594928246
 73
     1
 97
        0
 75
     0
 76
     1
 98
        1
 10
643.974313185246
 20
0.1400131450200206
  0
ELLIPSE
  5
A8F9
330
1F
100
AcDbEntity
  8
AM_2
 48
0.5
100
AcDbEllipse
 10
205.528202863232
 20
324.8062269840091
 30
0.0
 11
-6.976303713142296
 21
-0.0000006098957881
 31
0.0
210
0.0
220
0.0
230
1.0
 40
0.4248093987311
 41
4.12313675664696
 42
4.305497619738525
  0
ELLIPSE
  5
A8FA
330
1F
100
AcDbEntity
  8
AM_2
 48
0.5
100
AcDbEllipse
 10
205.528202863232
 20
324.8062269840091
 30
0.0
 11
-6.976303713142296
 21
-0.0000006098957881
 31
0.0
210
0.0
220
0.0
230
1.0
 40
0.4248093987311
 41
2.414297482815346
 42
3.857964743574977
  0
ARC
  5
A8FB
330
1F
100
AcDbEntity
  8
AM_2
 48
0.5
100
AcDbCircle
 10
210.3478584867651
 20
323.9669850347902
 30
0.0
 40
0.7343473193958078
100
AcDbArc
 50
337.8497494556185
 51
22.15026761986022
  0
ARC
  5
A8FC
330
1F
100
AcDbEntity
  8
AM_2
 48
0.5
100
AcDbCircle
 10
211.173029061956
 20
325.8353537248467
 30
0.0
 40
0.7343473193958078
100
AcDbArc
 50
157.8497698324922
 51
202.1501855438963
  0
ARC
  5
A8FD
330
1F
100
AcDbEntity
  8
AM_2
 48
0.5
100
AcDbCircle
 10
208.8266799486747
 20
323.9669850347902
 30
0.0
 40
0.7343473193958078
100
AcDbArc
 50
337.8497494556185
 51
22.15026761986022
  0
ARC
  5
A8FE
330
1F
100
AcDbEntity
  8
AM_2
 48
0.5
100
AcDbCircle
 10
208.2835669154716
 20
327.4969047198419
 30
0.0
 40
0.0314720294391016
100
AcDbArc
 50
79.626857608195
 51
157.8495649268219
  0
ARC
  5
A8FF
330
1F
100
AcDbEntity
  8
AM_2
 48
0.5
100
AcDbCircle
 10
209.396728112008
 20
327.2397346080281
 30
0.0
 40
0.0314720294391016
100
AcDbArc
 50
337.8500499839436
 51
74.14346562929631
  0
ARC
  5
A900
330
1F
100
AcDbEntity
  8
AM_2
 48
0.5
100
AcDbCircle
 10
209.6518505238743
 20
325.8353537248467
 30
0.0
 40
0.7343473193958078
100
AcDbArc
 50
157.8497698324922
 51
202.1501855438963
  0
ARC
  5
A901
330
1F
100
AcDbEntity
  8
AM_2
 48
0.5
100
AcDbCircle
 10
208.8825979088831
 20
322.2399863990434
 30
0.0
 40
0.0314720294391016
100
AcDbArc
 50
283.1477428175753
 51
337.8486634555421
  0
ARC
  5
A902
330
1F
100
AcDbEntity
  8
AM_2
 48
0.5
100
AcDbCircle
 10
210.7758802816869
 20
326.7240292510921
 30
0.0
 40
0.0314720294391016
100
AcDbArc
 50
63.99013671107249
 51
157.8490594928266
  0
ARC
  5
A903
330
1F
100
AcDbEntity
  8
AM_2
 48
0.5
100
AcDbCircle
 10
210.7257903905757
 20
322.8642723585142
 30
0.0
 40
0.0314720294391016
100
AcDbArc
 50
157.8517642477302
 51
295.513188780587
  0
LINE
  5
A904
330
1F
100
AcDbEntity
  8
AM_0
 48
0.5
100
AcDbLine
 10
193.0282028632319
 20
361.8507990013741
 30
0.0
 11
218.028202863232
 21
361.8507990013741
 31
0.0
  0
ARC
  5
A90B
330
1F
100
AcDbEntity
  8
AM_0
 48
0.5
100
AcDbCircle
 10
446.684753414533
 20
197.6143182884841
 30
0.0
 40
12.5
100
AcDbArc
 50
188.9264238588468
 51
230.1369985935248
  0
ARC
  5
A90C
330
1F
100
AcDbEntity
  8
AM_0
 48
0.5
100
AcDbCircle
 10
427.684814449683
 20
186.8507837425841
 30
0.0
 40
11.0
100
AcDbArc
 50
322.481063964544
 51
6.343323894458577
  0
LINE
  5
A911
330
1F
100
AcDbEntity
  8
AM_7
 48
0.5
100
AcDbLine
 10
441.2748107875731
 20
186.8507837425841
 30
0.0
 11
414.0948181117931
 21
186.8507837425841
 31
0.0
  0
CIRCLE
  5
A916
330
1F
100
AcDbEntity
  8
AM_0
100
AcDbCircle
 10
427.684814449683
 20
186.8507837425841
 30
0.0
 40
11.050000190734
  0
LINE
  5
A91A
330
1F
100
AcDbEntity
  8
AM_0
 48
0.5
100
AcDbLine
 10
349.3847961391431
 20
209.8508447777342
 30
0.0
 11
349.3847961391431
 21
213.8508447777342
 31
0.0
  0
LINE
  5
A91B
330
1F
100
AcDbEntity
  8
AM_0
 48
0.5
100
AcDbLine
 10
349.3847961391431
 20
209.8508447777342
 30
0.0
 11
357.6847839321031
 21
209.8508447777342
 31
0.0
  0
LINE
  5
A91C
330
1F
100
AcDbEntity
  8
AM_0
 48
0.5
100
AcDbLine
 10
350.3847961391431
 20
209.1008447777342
 30
0.0
 11
357.6847839321031
 21
209.1008447777342
 31
0.0
  0
LINE
  5
A91D
330
1F
100
AcDbEntity
  8
AM_0
 48
0.5
100
AcDbLine
 10
350.3847961391431
 20
207.1008447777342
 30
0.0
 11
357.6847839321031
 21
207.1008447777342
 31
0.0
  0
LINE
  5
A91E
330
1F
100
AcDbEntity
  8
AM_0
 48
0.5
100
AcDbLine
 10
349.8847961391431
 20
209.3508447777342
 30
0.0
 11
357.6847839321031
 21
209.3508447777342
 31
0.0
  0
LINE
  5
A91F
330
1F
100
AcDbEntity
  8
AM_0
 48
0.5
100
AcDbLine
 10
353.284790035623
 20
209.1008447777342
 30
0.0
 11
353.284790035623
 21
209.3508447777342
 31
0.0
  0
LINE
  5
A920
330
1F
100
AcDbEntity
  8
AM_0
 48
0.5
100
AcDbLine
 10
350.3847961391431
 20
207.1008447777342
 30
0.0
 11
350.3847961391431
 21
209.1008447777342
 31
0.0
  0
LINE
  5
A921
330
1F
100
AcDbEntity
  8
AM_0
 48
0.5
100
AcDbLine
 10
349.884765621563
 20
209.350799001374
 30
0.0
 11
349.384765621563
 21
209.8507837425841
 31
0.0
  0
LINE
  5
A922
330
1F
100
AcDbEntity
  8
AM_0
 48
0.5
100
AcDbLine
 10
349.3847961391431
 20
213.8508447777342
 30
0.0
 11
357.6847839321031
 21
213.8508447777342
 31
0.0
  0
LINE
  5
A923
330
1F
100
AcDbEntity
  8
AM_0
 48
0.5
100
AcDbLine
 10
350.3847961391431
 20
214.6008447777342
 30
0.0
 11
357.6847839321031
 21
214.6008447777342
 31
0.0
  0
LINE
  5
A924
330
1F
100
AcDbEntity
  8
AM_0
 48
0.5
100
AcDbLine
 10
350.3847961391431
 20
216.6008447777342
 30
0.0
 11
357.6847839321031
 21
216.6008447777342
 31
0.0
  0
LINE
  5
A925
330
1F
100
AcDbEntity
  8
AM_0
 48
0.5
100
AcDbLine
 10
349.8847961391431
 20
214.3508447777342
 30
0.0
 11
357.6847839321031
 21
214.3508447777342
 31
0.0
  0
LINE
  5
A926
330
1F
100
AcDbEntity
  8
AM_0
 48
0.5
100
AcDbLine
 10
353.284790035623
 20
214.3508447777342
 30
0.0
 11
353.284790035623
 21
214.6008447777342
 31
0.0
  0
LINE
  5
A927
330
1F
100
AcDbEntity
  8
AM_0
 48
0.5
100
AcDbLine
 10
350.3847961391431
 20
214.6008447777342
 30
0.0
 11
350.3847961391431
 21
216.6008447777342
 31
0.0
  0
LINE
  5
A928
330
1F
100
AcDbEntity
  8
AM_0
 48
0.5
100
AcDbLine
 10
349.384765621563
 20
213.8507990013741
 30
0.0
 11
349.884765621563
 21
214.3507837425841
 31
0.0
  0
ARC
  5
A93F
330
1F
100
AcDbEntity
  8
AM_0
 48
0.5
100
AcDbCircle
 10
427.684814449683
 20
186.8507837425841
 30
0.0
 40
11.0
100
AcDbArc
 50
52.71993867485551
 51
196.5000754775523
  0
LINE
  5
A943
330
1F
100
AcDbEntity
  8
AM_0
 48
0.5
100
AcDbLine
 10
420.6353759731229
 20
183.563598073634
 30
0.0
 11
422.133758541483
 21
187.6803583275441
 31
0.0
  0
LINE
  5
A944
330
1F
100
AcDbEntity
  8
AM_0
 48
0.5
100
AcDbLine
 10
433.235809322733
 20
186.0211481224642
 30
0.0
 11
434.734222408673
 21
190.1379999291041
 31
0.0
  0
ARC
  5
A945
330
1F
100
AcDbEntity
  8
AM_0
 48
0.5
100
AcDbCircle
 10
427.684814449683
 20
186.8507837425841
 30
0.0
 40
11.0
100
AcDbArc
 50
242.4808989521598
 51
276.4998992078393
  0
LINE
  5
A946
330
1F
100
AcDbEntity
  8
AM_0
 48
0.5
100
AcDbLine
 10
422.480163570783
 20
181.0704645287142
 30
0.0
 11
426.855194088353
 21
181.2997583519541
 31
0.0
  0
ARC
  5
A947
330
1F
100
AcDbEntity
  8
AM_0
 48
0.5
100
AcDbCircle
 10
410.811096187963
 20
172.945891774804
 30
0.0
 40
12.5
100
AcDbArc
 50
19.05420263324457
 51
59.92667958891658
  0
LINE
  5
A948
330
1F
100
AcDbEntity
  8
AM_0
 48
0.5
100
AcDbLine
 10
420.6353759731229
 20
183.563598073634
 30
0.0
 11
422.3828430141431
 21
182.9275659691441
 31
0.0
  0
LINE
  5
A949
330
1F
100
AcDbEntity
  8
AM_0
 48
0.5
100
AcDbLine
 10
422.480163570783
 20
181.0704645287142
 30
0.0
 11
422.3828430141431
 21
182.9275659691441
 31
0.0
  0
ARC
  5
A94A
330
1F
100
AcDbEntity
  8
AM_0
 48
0.5
100
AcDbCircle
 10
438.448303219213
 20
167.8189233910141
 30
0.0
 40
12.5
100
AcDbArc
 50
99.05358217386968
 51
139.9271622050809
  0
LINE
  5
A94B
330
1F
100
AcDbEntity
  8
AM_0
 48
0.5
100
AcDbLine
 10
431.608032223123
 20
181.5488428246142
 30
0.0
 11
433.465087887183
 21
181.6461633812541
 31
0.0
  0
LINE
  5
A94C
330
1F
100
AcDbEntity
  8
AM_0
 48
0.5
100
AcDbLine
 10
430.971984859843
 20
179.801375783594
 30
0.0
 11
431.608032223123
 21
181.5488428246142
 31
0.0
  0
LINE
  5
A94D
330
1F
100
AcDbEntity
  8
AM_0
 48
0.5
100
AcDbLine
 10
426.8552246059329
 20
181.2997583519541
 30
0.0
 11
430.971984859843
 21
179.801375783594
 31
0.0
  0
LINE
  5
A94E
330
1F
100
AcDbEntity
  8
AM_0
 48
0.5
100
AcDbLine
 10
433.465087887183
 20
181.6461633812541
 30
0.0
 11
433.235809322733
 21
186.0211481224642
 31
0.0
  0
LINE
  5
A94F
330
1F
100
AcDbEntity
  8
AM_0
 48
0.5
100
AcDbLine
 10
424.397613521953
 20
193.9002222191441
 30
0.0
 11
428.514434811013
 21
192.4018091332041
 31
0.0
  0
LINE
  5
A950
330
1F
100
AcDbEntity
  8
AM_0
 48
0.5
100
AcDbLine
 10
421.904479977033
 20
192.0553888451241
 30
0.0
 11
423.761535641093
 21
192.1527246605542
 31
0.0
  0
LINE
  5
A951
330
1F
100
AcDbEntity
  8
AM_0
 48
0.5
100
AcDbLine
 10
422.133758541483
 20
187.6803430687541
 30
0.0
 11
421.904479977033
 21
192.0553888451241
 31
0.0
  0
LINE
  5
A952
330
1F
100
AcDbEntity
  8
AM_0
 48
0.5
100
AcDbLine
 10
423.7615661586731
 20
192.1527246605542
 30
0.0
 11
424.397613521953
 21
193.9002222191441
 31
0.0
  0
LINE
  5
A953
330
1F
100
AcDbEntity
  8
AM_0
 48
0.5
100
AcDbLine
 10
428.514404293433
 20
192.4018091332041
 30
0.0
 11
432.8894042934329
 21
192.631087697654
 31
0.0
  0
LINE
  5
A954
330
1F
100
AcDbEntity
  8
AM_0
 48
0.5
100
AcDbLine
 10
432.9867248500731
 20
190.774032033594
 30
0.0
 11
434.734222408673
 21
190.1379999291041
 31
0.0
  0
LINE
  5
A955
330
1F
100
AcDbEntity
  8
AM_0
 48
0.5
100
AcDbLine
 10
432.9867248500731
 20
190.774016774804
 30
0.0
 11
432.8894042934329
 21
192.631087697654
 31
0.0
  0
LINE
  5
A9CA
330
1F
100
AcDbEntity
  8
AM_0
100
AcDbLine
 10
364.484802242653
 20
336.8508295189442
 30
0.0
 11
487.6847839321031
 21
336.8508295189442
 31
0.0
  0
ARC
  5
A9DF
330
1F
100
AcDbEntity
  8
AM_0
 48
0.5
100
AcDbCircle
 10
364.484802242653
 20
335.2507928978541
 30
0.0
 40
1.6000000238419
100
AcDbArc
 50
90.00000250447845
 51
180.0000050089634
  0
LINE
  5
A9ED
330
1F
100
AcDbEntity
  8
AM_0
 48
0.5
100
AcDbLine
 10
359.6847839321031
 20
361.8508295189442
 30
0.0
 11
362.8847961391431
 21
361.8508295189442
 31
0.0
  0
LINE
  5
A9EE
330
1F
100
AcDbEntity
  8
AM_0
 48
0.5
100
AcDbLine
 10
357.6847839321031
 20
361.8508295189442
 30
0.0
 11
359.6847839321031
 21
361.8508295189442
 31
0.0
  0
CIRCLE
  5
B306
330
1F
100
AcDbEntity
  8
AM_3
 48
0.5
100
AcDbCircle
 10
198.5282028632319
 20
71.85079900137407
 30
0.0
 40
3.75
  0
CIRCLE
  5
B307
330
1F
100
AcDbEntity
  8
AM_3
 48
0.5
100
AcDbCircle
 10
198.5282028632319
 20
71.85079900137407
 30
0.0
 40
2.25
  0
CIRCLE
  5
B308
330
1F
100
AcDbEntity
  8
AM_3
 48
0.5
100
AcDbCircle
 10
212.5282028632319
 20
71.85079900137407
 30
0.0
 40
3.75
  0
CIRCLE
  5
B309
330
1F
100
AcDbEntity
  8
AM_3
 48
0.5
100
AcDbCircle
 10
212.5282028632319
 20
71.85079900137407
 30
0.0
 40
2.25
  0
CIRCLE
  5
B30A
330
1F
100
AcDbEntity
  8
AM_3
 48
0.5
100
AcDbCircle
 10
198.5282028632319
 20
351.8507990013741
 30
0.0
 40
3.75
  0
CIRCLE
  5
B30B
330
1F
100
AcDbEntity
  8
AM_3
 48
0.5
100
AcDbCircle
 10
198.5282028632319
 20
351.8507990013741
 30
0.0
 40
2.25
  0
CIRCLE
  5
B30C
330
1F
100
AcDbEntity
  8
AM_3
 48
0.5
100
AcDbCircle
 10
212.5282028632319
 20
351.8507990013741
 30
0.0
 40
3.75
  0
CIRCLE
  5
B30D
330
1F
100
AcDbEntity
  8
AM_3
 48
0.5
100
AcDbCircle
 10
212.5282028632319
 20
351.8507990013741
 30
0.0
 40
2.25
  0
LINE
  5
B30E
330
1F
100
AcDbEntity
  8
AM_7
 48
0.5
100
AcDbLine
 10
193.528202863232
 20
351.8507990013741
 30
0.0
 11
217.528202863232
 21
351.8507990013741
 31
0.0
  0
LINE
  5
B30F
330
1F
100
AcDbEntity
  8
AM_7
 48
0.5
100
AcDbLine
 10
198.5282028632319
 20
345.8507990013741
 30
0.0
 11
198.5282028632319
 21
357.8507990013741
 31
0.0
  0
LINE
  5
B310
330
1F
100
AcDbEntity
  8
AM_7
 48
0.5
100
AcDbLine
 10
212.5282028632319
 20
345.8507990013741
 30
0.0
 11
212.5282028632319
 21
357.8507990013741
 31
0.0
  0
LINE
  5
B311
330
1F
100
AcDbEntity
  8
AM_7
 48
0.5
100
AcDbLine
 10
212.5282028632319
 20
65.85079900137407
 30
0.0
 11
212.5282028632319
 21
77.85079900137407
 31
0.0
  0
LINE
  5
B312
330
1F
100
AcDbEntity
  8
AM_7
 48
0.5
100
AcDbLine
 10
198.5282028632319
 20
65.85079900137407
 30
0.0
 11
198.5282028632319
 21
77.85079900137407
 31
0.0
  0
LINE
  5
B313
330
1F
100
AcDbEntity
  8
AM_7
 48
0.5
100
AcDbLine
 10
193.528202863232
 20
71.85079900137407
 30
0.0
 11
217.528202863232
 21
71.85079900137407
 31
0.0
  0
DIMENSION
  5
B6B2
330
1F
100
AcDbEntity
  8
AM_5
100
AcDbDimension
  2
*D5
 10
218.028202863232
 20
381.850799001374
 30
0.0
 11
205.528202863232
 21
384.9507990013741
 31
0.0
 70
    32
 71
     5
 42
25.0
  3
SYS$0
100
AcDbAlignedDimension
 13
193.0282028632319
 23
361.8507990013741
 33
0.0
 14
218.028202863232
 24
361.8507990013741
 34
0.0
100
AcDbRotatedDimension
1001
ACAD
1000
DSTYLE
1002
{
1070
   271
1070
     0
1002
}
  0
DIMENSION
  5
B6D6
330
1F
100
AcDbEntity
  8
AM_5
100
AcDbDimension
  2
*D6
 10
212.5282028632319
 20
371.8507990013738
 30
0.0
 11
205.5282028632319
 21
374.9507990013739
 31
0.0
 70
    32
 71
     5
 42
13.99999999999994
  3
SYS$0
100
AcDbAlignedDimension
 13
198.5282028632319
 23
357.8507990013741
 33
0.0
 14
212.5282028632319
 24
357.8507990013741
 34
0.0
100
AcDbRotatedDimension
1001
ACAD
1000
DSTYLE
1002
{
1070
   271
1070
     0
1002
}
  0
DIMENSION
  5
B70C
330
1F
100
AcDbEntity
  8
AM_5
100
AcDbDimension
  2
*D7
 10
238.028202863232
 20
361.8507990013741
 30
0.0
 11
234.9282028632319
 21
356.8507990013741
 31
0.0
 70
    32
 71
     5
 42
10.0
  3
SYS$0
100
AcDbAlignedDimension
 13
217.528202863232
 23
351.8507990013741
 33
0.0
 14
218.028202863232
 24
361.8507990013741
 34
0.0
 50
90.0
100
AcDbRotatedDimension
1001
ACAD
1000
DSTYLE
1002
{
1070
   271
1070
     0
1002
}
  0
DIMENSION
  5
B730
330
1F
100
AcDbEntity
  8
AM_5
100
AcDbDimension
  2
*D8
 10
238.0282028632329
 20
71.85079900137406
 30
0.0
 11
234.9282028632329
 21
211.8507990013741
 31
0.0
 70
    32
 71
     5
 42
280.0
  3
SYS$0
100
AcDbAlignedDimension
 13
217.528202863232
 23
351.8507990013741
 33
0.0
 14
217.528202863232
 24
71.85079900137407
 34
0.0
 50
90.0
100
AcDbRotatedDimension
1001
ACAD
1000
DSTYLE
1002
{
1070
   271
1070
     0
1002
}
  0
DIMENSION
  5
B754
330
1F
100
AcDbEntity
  8
AM_5
100
AcDbDimension
  2
*D9
 10
238.0282028632337
 20
61.85079900137407
 30
0.0
 11
234.9282028632337
 21
66.85079900137409
 31
0.0
 70
    32
 71
     5
 42
9.999999999999992
  3
SYS$0
100
AcDbAlignedDimension
 13
217.528202863232
 23
71.85079900137407
 33
0.0
 14
218.028202863232
 24
61.85079900137407
 34
0.0
 50
90.0
100
AcDbRotatedDimension
1001
ACAD
1000
DSTYLE
1002
{
1070
   271
1070
     0
1002
}
  0
DIMENSION
  5
B778
330
1F
100
AcDbEntity
  8
AM_5
100
AcDbDimension
  2
*D10
 10
248.0282028632343
 20
361.8507990013741
 30
0.0
 11
244.9282028632343
 21
211.8507990013741
 31
0.0
 70
    32
  1
<>（切欠300.5×25.5）
 71
     5
 42
300.0
  3
SYS$0
100
AcDbAlignedDimension
 13
218.028202863232
 23
61.85079900137407
 33
0.0
 14
218.028202863232
 24
361.8507990013741
 34
0.0
 50
90.0
100
AcDbRotatedDimension
1001
ACAD
1000
DSTYLE
1002
{
1070
   271
1070
     0
1002
}
  0
LINE
  5
B7EE
330
1F
100
AcDbEntity
  8
AM_7
100
AcDbLine
 10
331.6847839321031
 20
151.8507837425843
 30
0.0
 11
366.8847961391432
 21
151.8507837425843
 31
0.0
1001
GENIUS_GENOBJ-N-CEN_13
1002
{
1000
OWNER
1000
GEN
1002
}
1001
GENIUS_GENODEF_13
1002
{
1000
HIER
1070
     0
1002
}
1002
{
1000
MANEDIT
1070
     0
1002
}
1002
{
1000
NOSEL
1070
     0
1002
}
1002
{
1000
BEHIND
1070
     0
1002
}
1002
{
1000
OTHER
1070
     0
1002
}
1002
{
1000
REACTOR
1002
}
1001
GENIUS_GENCEN_19
1002
{
1040
4.0
1002
}
  0
DIMENSION
  5
B7FF
330
1F
100
AcDbEntity
  8
AM_5
100
AcDbDimension
  2
*D11
 10
321.6847839321031
 20
211.8508447777342
 30
0.0
 11
318.584783932103
 21
181.8508142601593
 31
0.0
 70
    32
 71
     5
 42
60.00006103514988
  3
SYS$0
100
AcDbAlignedDimension
 13
331.6847839321031
 23
151.8507837425843
 33
0.0
 14
341.1847839321031
 24
211.8508447777342
 34
0.0
 50
90.0
100
AcDbRotatedDimension
1001
ACAD
1000
DSTYLE
1002
{
1070
   271
1070
     0
1002
}
  0
DIMENSION
  5
B823
330
1F
100
AcDbEntity
  8
AM_5
100
AcDbDimension
  2
*D12
 10
311.6847839321031
 20
151.8507837425843
 30
0.0
 11
308.584783932103
 21
169.3507837425842
 31
0.0
 70
    32
 71
     5
 42
34.99999999999977
  3
SYS$0
100
AcDbAlignedDimension
 13
414.0948181117931
 23
186.8507837425841
 33
0.0
 14
331.6847839321031
 24
151.8507837425843
 34
0.0
 50
90.0
100
AcDbRotatedDimension
1001
ACAD
1000
DSTYLE
1002
{
1070
   271
1070
     0
1002
}
  0
DIMENSION
  5
B847
330
1F
100
AcDbEntity
  8
AM_5
100
AcDbDimension
  2
*D13
 10
311.6847839321031
 20
86.85080508104217
 30
0.0
 11
308.5847839321031
 21
119.3507944118133
 31
0.0
 70
    32
 71
     5
 42
64.99997866154217
  3
SYS$0
100
AcDbAlignedDimension
 13
331.6847839321031
 23
151.8507837425843
 33
0.0
 14
364.4848023634497
 24
86.85080508104215
 34
0.0
 50
90.0
100
AcDbRotatedDimension
1001
ACAD
1000
DSTYLE
1002
{
1070
   271
1070
     0
1002
}
  0
DIMENSION
  5
B86B
330
1F
100
AcDbEntity
  8
AM_5
100
AcDbDimension
  2
*D14
 10
311.6847839321035
 20
61.8508295189522
 30
0.0
 11
308.5847839321035
 21
74.35081729999724
 31
0.0
 70
    32
 71
     5
 42
24.99997556208997
  3
SYS$0
100
AcDbAlignedDimension
 13
364.4848023634497
 23
86.85080508104215
 33
0.0
 14
357.6847839321031
 24
61.85082951895219
 34
0.0
 50
90.0
100
AcDbRotatedDimension
1001
ACAD
1000
DSTYLE
1002
{
1070
   271
1070
     0
1002
}
  0
DIMENSION
  5
B88F
330
1F
100
AcDbEntity
  8
AM_5
100
AcDbDimension
  2
*D15
 10
311.6847839321031
 20
256.8508295189443
 30
0.0
 11
308.584783932103
 21
221.8508066307642
 31
0.0
 70
    32
  1
SP　<>
 71
     5
 42
70.00004577636016
  3
SYS$0
100
AcDbAlignedDimension
 13
414.0948181117931
 23
186.8507837425841
 33
0.0
 14
401.8217678158245
 24
256.8508295189442
 34
0.0
 50
90.0
100
AcDbRotatedDimension
1001
ACAD
1000
DSTYLE
1002
{
1070
   271
1070
     0
1002
}
  0
DIMENSION
  5
B8B3
330
1F
100
AcDbEntity
  8
AM_5
100
AcDbDimension
  2
*D16
 10
311.6847839321031
 20
336.8508295189442
 30
0.0
 11
308.584783932103
 21
296.8508295189444
 31
0.0
 70
    32
 71
     5
 42
79.99999999999994
  3
SYS$0
100
AcDbAlignedDimension
 13
401.8217678158245
 23
256.8508295189442
 33
0.0
 14
364.484802242653
 24
336.8508295189442
 34
0.0
 50
90.0
100
AcDbRotatedDimension
1001
ACAD
1000
DSTYLE
1002
{
1070
   271
1070
     0
1002
}
  0
LINE
  5
B8EB
330
1F
100
AcDbEntity
  8
AM_7
100
AcDbLine
 10
427.6848157406966
 20
340.8508295189442
 30
0.0
 11
427.6848157406966
 21
82.85082951894423
 31
0.0
1001
GENIUS_GENODEF_13
1002
{
1000
HIER
1070
     0
1002
}
1002
{
1000
MANEDIT
1070
     0
1002
}
1002
{
1000
NOSEL
1070
     0
1002
}
1002
{
1000
BEHIND
1070
     0
1002
}
1002
{
1000
OTHER
1070
     0
1002
}
1002
{
1000
REACTOR
1002
}
1001
GENIUS_GENOBJ-N-CEN_13
1002
{
1000
OWNER
1000
GEN
1002
}
1001
GENIUS_GENCEN_19
1002
{
1040
4.0
1002
}
  0
DIMENSION
  5
B8FB
330
1F
100
AcDbEntity
  8
AM_5
100
AcDbDimension
  2
*D17
 10
362.8847961391431
 20
371.8508295189443
 30
0.0
 11
367.7314628058098
 21
374.9508295189443
 31
0.0
 70
    32
 71
     5
 42
5.200012207040003
  3
SYS$0
100
AcDbAlignedDimension
 13
357.6847839321031
 23
361.8508295189442
 33
0.0
 14
362.8847961391431
 24
361.8508295189442
 34
0.0
100
AcDbRotatedDimension
  0
DIMENSION
  5
B92B
330
1F
100
AcDbEntity
  8
AM_5
100
AcDbDimension
  2
*D18
 10
427.6848157406966
 20
381.850829518944
 30
0.0
 11
392.6847998363999
 21
384.9508295189441
 31
0.0
 70
    32
  1
BS:<>
 71
     5
 42
70.00003180859358
  3
SYS$0
100
AcDbAlignedDimension
 13
357.6847839321031
 23
361.8508295189442
 33
0.0
 14
427.6848157406966
 24
340.8508295189442
 34
0.0
100
AcDbRotatedDimension
1001
ACAD
1000
DSTYLE
1002
{
1070
   271
1070
     0
1002
}
  0
DIMENSION
  5
B95D
330
1F
100
AcDbEntity
  8
AM_5
100
AcDbDimension
  2
*D19
 10
487.6847839321031
 20
391.8508295189438
 30
0.0
 11
422.684783932103
 21
394.9508295189438
 31
0.0
 70
    32
 71
     5
 42
130.0
  3
SYS$0
100
AcDbAlignedDimension
 13
357.6847839321031
 23
361.8508295189442
 33
0.0
 14
487.6847839321031
 24
336.8508295189442
 34
0.0
100
AcDbRotatedDimension
1001
ACAD
1000
DSTYLE
1002
{
1070
   271
1070
     0
1002
}
  0
LINE
  5
B9FE
330
1F
100
AcDbEntity
  8
size
100
AcDbLine
 10
0.0
 20
0.0
 30
0.0
 11
594.0
 21
0.0
 31
0.0
1001
GENIUS_GENREC_14
1002
{
1000
PYDIR
1011
0.0000000000000284
1021
297.0
1031
0.0
1002
}
1002
{
1000
PXDIR
1011
420.0
1021
0.0
1031
0.0
1002
}
1002
{
1000
PORI
1011
0.0
1021
0.0
1031
0.0
1002
}
1002
{
1000
PINS
1011
210.0
1021
148.5
1031
0.0
1002
}
1002
{
1000
HVAL
1000
297
1002
}
1002
{
1000
H
1070
     2
1002
}
1002
{
1000
WVAL
1000
420
1002
}
1002
{
1000
W
1070
     2
1002
}
1002
{
1000
C
1070
     4
1002
}
1001
GENIUS_GENOBJ-N-REC_13
1002
{
1000
OWNER
1000
GEN
1002
}
1001
GENIUS_GENODEF_13
1002
{
1000
HIER
1070
     0
1002
}
1002
{
1000
MANEDIT
1070
     0
1002
}
1002
{
1000
NOSEL
1070
     0
1002
}
1002
{
1000
BEHIND
1070
     0
1002
}
1002
{
1000
OTHER
1070
     0
1002
}
1002
{
1000
REACTOR
1002
}
  0
LINE
  5
B9FF
330
1F
100
AcDbEntity
  8
size
100
AcDbLine
 10
0.0000000000000284
 20
420.0
 30
0.0
 11
0.0
 21
0.0
 31
0.0
1001
GENIUS_GENREC_14
1002
{
1000
PYDIR
1011
0.0000000000000284
1021
297.0
1031
0.0
1002
}
1002
{
1000
PXDIR
1011
420.0
1021
0.0
1031
0.0
1002
}
1002
{
1000
PORI
1011
0.0
1021
0.0
1031
0.0
1002
}
1002
{
1000
PINS
1011
210.0
1021
148.5
1031
0.0
1002
}
1002
{
1000
HVAL
1000
297
1002
}
1002
{
1000
H
1070
     2
1002
}
1002
{
1000
WVAL
1000
420
1002
}
1002
{
1000
W
1070
     2
1002
}
1002
{
1000
C
1070
     4
1002
}
1001
GENIUS_GENOBJ-N-REC_13
1002
{
1000
OWNER
1000
GEN
1002
}
1001
GENIUS_GENODEF_13
1002
{
1000
HIER
1070
     0
1002
}
1002
{
1000
MANEDIT
1070
     0
1002
}
1002
{
1000
NOSEL
1070
     0
1002
}
1002
{
1000
BEHIND
1070
     0
1002
}
1002
{
1000
OTHER
1070
     0
1002
}
1002
{
1000
REACTOR
1002
}
  0
LINE
  5
BA00
330
1F
100
AcDbEntity
  8
waku
100
AcDbLine
 10
582.5
 20
8.5
 30
0.0
 11
582.5
 21
411.5
 31
0.0
1001
GENIUS_GENREC_14
1002
{
1000
PYDIR
1011
174.0
1021
420.0
1031
0.0
1002
}
1002
{
1000
PXDIR
1011
594.0
1021
123.0
1031
0.0
1002
}
1002
{
1000
PORI
1011
174.0
1021
123.0
1031
0.0
1002
}
1002
{
1000
PINS
1011
384.0
1021
271.5
1031
0.0
1002
}
1002
{
1000
HVAL
1000
297
1002
}
1002
{
1000
H
1070
     2
1002
}
1002
{
1000
WVAL
1000
420
1002
}
1002
{
1000
W
1070
     2
1002
}
1002
{
1000
C
1070
     4
1002
}
1001
GENIUS_GENOBJ-N-REC_13
1002
{
1000
OWNER
1000
GEN
1002
}
1001
GENIUS_GENODEF_13
1002
{
1000
HIER
1070
     0
1002
}
1002
{
1000
MANEDIT
1070
     0
1002
}
1002
{
1000
NOSEL
1070
     0
1002
}
1002
{
1000
BEHIND
1070
     0
1002
}
1002
{
1000
OTHER
1070
     0
1002
}
1002
{
1000
REACTOR
1002
}
  0
LINE
  5
BA01
330
1F
100
AcDbEntity
  8
waku
100
AcDbLine
 10
11.50000000000003
 20
411.5
 30
0.0
 11
11.5
 21
8.5
 31
0.0
1001
GENIUS_GENREC_14
1002
{
1000
PYDIR
1011
0.0000000000000284
1021
297.0
1031
0.0
1002
}
1002
{
1000
PXDIR
1011
420.0
1021
0.0
1031
0.0
1002
}
1002
{
1000
PORI
1011
0.0
1021
0.0
1031
0.0
1002
}
1002
{
1000
PINS
1011
210.0
1021
148.5
1031
0.0
1002
}
1002
{
1000
HVAL
1000
297
1002
}
1002
{
1000
H
1070
     2
1002
}
1002
{
1000
WVAL
1000
420
1002
}
1002
{
1000
W
1070
     2
1002
}
1002
{
1000
C
1070
     4
1002
}
1001
GENIUS_GENOBJ-N-REC_13
1002
{
1000
OWNER
1000
GEN
1002
}
1001
GENIUS_GENODEF_13
1002
{
1000
HIER
1070
     0
1002
}
1002
{
1000
MANEDIT
1070
     0
1002
}
1002
{
1000
NOSEL
1070
     0
1002
}
1002
{
1000
BEHIND
1070
     0
1002
}
1002
{
1000
OTHER
1070
     0
1002
}
1002
{
1000
REACTOR
1002
}
  0
LINE
  5
BA02
330
1F
100
AcDbEntity
  8
waku
100
AcDbLine
 10
582.5
 20
411.5
 30
0.0
 11
11.50000000000003
 21
411.5
 31
0.0
1001
GENIUS_GENREC_14
1002
{
1000
PYDIR
1011
174.0
1021
420.0
1031
0.0
1002
}
1002
{
1000
PXDIR
1011
594.0
1021
123.0
1031
0.0
1002
}
1002
{
1000
PORI
1011
174.0
1021
123.0
1031
0.0
1002
}
1002
{
1000
PINS
1011
384.0
1021
271.5
1031
0.0
1002
}
1002
{
1000
HVAL
1000
297
1002
}
1002
{
1000
H
1070
     2
1002
}
1002
{
1000
WVAL
1000
420
1002
}
1002
{
1000
W
1070
     2
1002
}
1002
{
1000
C
1070
     4
1002
}
1001
GENIUS_GENOBJ-N-REC_13
1002
{
1000
OWNER
1000
GEN
1002
}
1001
GENIUS_GENODEF_13
1002
{
1000
HIER
1070
     0
1002
}
1002
{
1000
MANEDIT
1070
     0
1002
}
1002
{
1000
NOSEL
1070
     0
1002
}
1002
{
1000
BEHIND
1070
     0
1002
}
1002
{
1000
OTHER
1070
     0
1002
}
1002
{
1000
REACTOR
1002
}
  0
LINE
  5
BA03
330
1F
100
AcDbEntity
  8
waku
100
AcDbLine
 10
11.5
 20
8.5
 30
0.0
 11
582.5
 21
8.5
 31
0.0
1001
GENIUS_GENREC_14
1002
{
1000
PYDIR
1011
0.0000000000000284
1021
297.0
1031
0.0
1002
}
1002
{
1000
PXDIR
1011
420.0
1021
0.0
1031
0.0
1002
}
1002
{
1000
PORI
1011
0.0
1021
0.0
1031
0.0
1002
}
1002
{
1000
PINS
1011
210.0
1021
148.5
1031
0.0
1002
}
1002
{
1000
HVAL
1000
297
1002
}
1002
{
1000
H
1070
     2
1002
}
1002
{
1000
WVAL
1000
420
1002
}
1002
{
1000
W
1070
     2
1002
}
1002
{
1000
C
1070
     4
1002
}
  0
LINE
  5
BA04
330
1F
100
AcDbEntity
  8
size
100
AcDbLine
 10
594.0
 20
420.0
 30
0.0
 11
594.0
 21
0.0
 31
0.0
1001
GENIUS_GENREC_14
1002
{
1000
PYDIR
1011
0.0000000000000284
1021
297.0
1031
0.0
1002
}
1002
{
1000
PXDIR
1011
420.0
1021
0.0
1031
0.0
1002
}
1002
{
1000
PORI
1011
0.0
1021
0.0
1031
0.0
1002
}
1002
{
1000
PINS
1011
210.0
1021
148.5
1031
0.0
1002
}
1002
{
1000
HVAL
1000
297
1002
}
1002
{
1000
H
1070
     2
1002
}
1002
{
1000
WVAL
1000
420
1002
}
1002
{
1000
W
1070
     2
1002
}
1002
{
1000
C
1070
     4
1002
}
1001
GENIUS_GENOBJ-N-REC_13
1002
{
1000
OWNER
1000
GEN
1002
}
1001
GENIUS_GENODEF_13
1002
{
1000
HIER
1070
     0
1002
}
1002
{
1000
MANEDIT
1070
     0
1002
}
1002
{
1000
NOSEL
1070
     0
1002
}
1002
{
1000
BEHIND
1070
     0
1002
}
1002
{
1000
OTHER
1070
     0
1002
}
1002
{
1000
REACTOR
1002
}
  0
LINE
  5
BA05
330
1F
100
AcDbEntity
  8
size
100
AcDbLine
 10
0.0000000000000284
 20
420.0
 30
0.0
 11
594.0
 21
420.0
 31
0.0
1001
GENIUS_GENREC_14
1002
{
1000
PYDIR
1011
0.0000000000000284
1021
297.0
1031
0.0
1002
}
1002
{
1000
PXDIR
1011
420.0
1021
0.0
1031
0.0
1002
}
1002
{
1000
PORI
1011
0.0
1021
0.0
1031
0.0
1002
}
1002
{
1000
PINS
1011
210.0
1021
148.5
1031
0.0
1002
}
1002
{
1000
HVAL
1000
297
1002
}
1002
{
1000
H
1070
     2
1002
}
1002
{
1000
WVAL
1000
420
1002
}
1002
{
1000
W
1070
     2
1002
}
1002
{
1000
C
1070
     4
1002
}
1001
GENIUS_GENOBJ-N-REC_13
1002
{
1000
OWNER
1000
GEN
1002
}
1001
GENIUS_GENODEF_13
1002
{
1000
HIER
1070
     0
1002
}
1002
{
1000
MANEDIT
1070
     0
1002
}
1002
{
1000
NOSEL
1070
     0
1002
}
1002
{
1000
BEHIND
1070
     0
1002
}
1002
{
1000
OTHER
1070
     0
1002
}
1002
{
1000
REACTOR
1002
}
  0
TEXT
  5
BA06
330
1F
100
AcDbEntity
  8
AM_6
 60
     1
100
AcDbText
 10
209.1693648837317
 20
1130.886483692677
 30
0.0
 40
2.5
  1
!GENTITLE-LL
100
AcDbText
  0
TEXT
  5
BA07
330
1F
100
AcDbEntity
  8
AM_6
 60
     1
100
AcDbText
 10
791.6693648837317
 20
1542.386483692677
 30
0.0
 40
2.5
  1
!GENTITLE-RU
100
AcDbText
  0
TEXT
  5
BA08
330
1F
100
AcDbEntity
  8
AM_6
 60
     1
100
AcDbText
 10
803.1693648837316
 20
1550.886483692677
 30
0.0
 40
2.5
  1
!GENTITLE-MAX
100
AcDbText
  0
TEXT
  5
BA09
330
1F
100
AcDbEntity
  8
AM_6
 60
     1
100
AcDbText
 10
791.6693648837317
 20
1139.386483692677
 30
0.0
 40
2.5
  1
!GENTITLE-INSERT
100
AcDbText
  0
LINE
  5
BA4B
330
1F
100
AcDbEntity
  8
AM_7
100
AcDbLine
 10
345.3847961391431
 20
28.49999938804035
 30
0.0
 11
491.6847839321031
 21
28.49999938804035
 31
0.0
1001
GENIUS_GENOBJ-N-CEN_13
1002
{
1000
OWNER
1000
GEN
1002
}
1001
GENIUS_GENODEF_13
1002
{
1000
HIER
1070
     0
1002
}
1002
{
1000
MANEDIT
1070
     0
1002
}
1002
{
1000
NOSEL
1070
     0
1002
}
1002
{
1000
BEHIND
1070
     0
1002
}
1002
{
1000
OTHER
1070
     0
1002
}
1002
{
1000
REACTOR
1002
}
1001
GENIUS_GENCEN_19
1002
{
1040
4.0
1002
}
  0
DIMENSION
  5
BA5C
330
1F
100
AcDbEntity
  8
AM_5
100
AcDbDimension
  2
*D20
 10
497.684783932103
 20
16.89999938804044
 30
0.0
 11
494.5847839321031
 21
28.50000274577777
 31
0.0
 70
    32
 71
     5
 42
23.2000067154745
  3
SYS$0
100
AcDbAlignedDimension
 13
487.6847839321031
 23
40.10000610351494
 33
0.0
 14
486.184783932103
 24
16.89999938804044
 34
0.0
 50
90.0
100
AcDbRotatedDimension
  0
DIMENSION
  5
BBA3
330
1F
100
AcDbEntity
  8
AM_5
100
AcDbDimension
  2
*D21
 10
228.0282028632337
 20
139.3507837425841
 30
0.0
 11
224.9282028632337
 21
151.8507837425841
 31
0.0
 70
    32
 71
     5
 42
25.0
  3
SYS$0
100
AcDbAlignedDimension
 13
212.578190656192
 23
164.3507837425841
 33
0.0
 14
212.578190656192
 24
139.3507837425841
 34
0.0
 50
90.0
100
AcDbRotatedDimension
1001
ACAD
1000
DSTYLE
1002
{
1070
   271
1070
     0
1002
}
  0
DIMENSION
  5
BC0A
330
1F
100
AcDbEntity
  8
AM_5
100
AcDbDimension
  2
*D22
 10
212.578190656192
 20
129.3507837425841
 30
0.0
 11
209.2314534373272
 21
129.3507837425841
 31
0.0
 70
   160
 71
     5
 42
14.09997558593005
  3
SYS$0
100
AcDbAlignedDimension
 13
198.478215070262
 23
139.3507837425841
 33
0.0
 14
212.578190656192
 24
139.3507837425841
 34
0.0
100
AcDbRotatedDimension
1001
ACAD
1000
DSTYLE
1002
{
1070
   271
1070
     0
1002
}
  0
DIMENSION
  5
BC45
330
1F
100
AcDbEntity
  8
AM_5
100
AcDbDimension
  2
*D23
 10
337.6847801174037
 20
129.3507837425838
 30
0.0
 11
307.5126264336514
 21
43.93813267720861
 31
0.0
 70
   160
  1
デッドボルト\Pストローク：20
 71
     5
 42
20.00000381469931
  3
SYS$0
100
AcDbAlignedDimension
 13
357.6847839321031
 23
139.3507837425841
 33
0.0
 14
337.6847801174037
 24
141.35078755727
 34
0.0
100
AcDbRotatedDimension
1001
ACAD
1000
DSTYLE
1002
{
1070
   271
1070
     0
1070
   279
1070
     1
1002
}
  0
MTEXT
  5
BD87
330
1F
100
AcDbEntity
  8
AM_6
 48
1.01
100
AcDbMText
 10
33.69785411133762
 20
390.4498307355466
 30
0.0
 40
3.2
 41
17.78396934279999
 71
     5
 72
     5
  1
品　名
 73
     1
 44
1.0
1001
ACAD
1000
MTEXTBEGIN
1070
    73
1070
     1
1070
    44
1040
1.0
1070
    74
1070
     0
1000
MTEXTEND
1000
ACAD_MTEXT_DEFINED_HEIGHT_BEGIN
1070
    46
1040
55.53171905658246
1000
ACAD_MTEXT_DEFINED_HEIGHT_END
  0
MTEXT
  5
BD88
330
1F
100
AcDbEntity
  8
AM_6
 48
1.01
100
AcDbMText
 10
45.92807949365806
 20
390.5948519378581
 30
0.0
 40
3.2
 41
63.60169966314606
 71
     4
 72
     5
  1
カセット式グレモン締り
 73
     1
 44
1.0
1001
ACAD
1000
MTEXTBEGIN
1070
    73
1070
     1
1070
    44
1040
1.0
1070
    74
1070
     0
1000
MTEXTEND
1000
ACAD_MTEXT_DEFINED_HEIGHT_BEGIN
1070
    46
1040
13.8829297641455
1000
ACAD_MTEXT_DEFINED_HEIGHT_END
  0
MTEXT
  5
BD89
330
1F
100
AcDbEntity
  8
AM_6
 48
1.01
100
AcDbMText
 10
33.69785411133762
 20
374.1985931304137
 30
0.0
 40
3.2
 41
17.78396934279999
 71
     5
 72
     5
  1
材　質
 73
     1
 44
1.0
1001
ACAD
1000
MTEXTBEGIN
1070
    73
1070
     1
1070
    44
1040
1.0
1070
    74
1070
     0
1000
MTEXTEND
1000
ACAD_MTEXT_DEFINED_HEIGHT_BEGIN
1070
    46
1040
13.8829297641455
1000
ACAD_MTEXT_DEFINED_HEIGHT_END
  0
LWPOLYLINE
  5
BD8A
330
1F
100
AcDbEntity
  8
AM_0
 48
1.01
100
AcDbPolyline
 90
        4
 70
     1
 43
0.0
 10
24.80586943993762
 20
394.0655843788945
 10
101.9149390510897
 20
394.0655843788945
 10
101.9149390510897
 20
345.4753302043859
 10
24.80586943993762
 20
345.4753302043859
1001
GENIUS_GENREC_14
1002
{
1000
PYDIR
1011
24.80586943993762
1021
345.4753302043859
1031
0.0
1002
}
1002
{
1000
PXDIR
1011
101.9149390510897
1021
394.0655843788945
1031
0.0
1002
}
1002
{
1000
PORI
1011
24.80586943993762
1021
394.0655843788945
1031
0.0
1002
}
1002
{
1000
PINS
1011
24.80586943993762
1021
394.0655843788945
1031
0.0
1002
}
1002
{
1000
PINS2
1011
101.9149390510897
1021
345.4753302043859
1031
0.0
1002
}
1002
{
1000
C
1070
     1
1002
}
1001
GENIUS_GENOBJ-N-REC_13
1002
{
1000
OWNER
1000
GEN
1002
}
1001
GENIUS_GENODEF_13
1002
{
1000
HIER
1070
     0
1002
}
1002
{
1000
MANEDIT
1070
     0
1002
}
1002
{
1000
NOSEL
1070
     0
1002
}
1002
{
1000
BEHIND
1070
     0
1002
}
1002
{
1000
OTHER
1070
     0
1002
}
1002
{
1000
REACTOR
1002
}
  0
LINE
  5
BD8B
330
1F
100
AcDbEntity
  8
AM_0
100
AcDbLine
 10
42.58983878273761
 20
394.0655843788945
 30
0.0
 11
42.58983878273761
 21
345.4753302043859
 31
0.0
  0
LINE
  5
BD8C
330
1F
100
AcDbEntity
  8
AM_0
100
AcDbLine
 10
24.80586943993762
 20
387.1241194968218
 30
0.0
 11
101.9149390510897
 21
387.1241194968218
 31
0.0
  0
LINE
  5
BD8D
330
1F
100
AcDbEntity
  8
AM_0
100
AcDbLine
 10
42.58983878273761
 20
380.182654614749
 30
0.0
 11
101.9149390510897
 21
380.182654614749
 31
0.0
  0
LINE
  5
BD8E
330
1F
100
AcDbEntity
  8
AM_0
100
AcDbLine
 10
101.9149390510897
 20
380.182654614749
 30
0.0
 11
24.80586943993762
 21
380.182654614749
 31
0.0
  0
LINE
  5
BD8F
330
1F
100
AcDbEntity
  8
AM_0
100
AcDbLine
 10
42.58983878273761
 20
373.2411897326765
 30
0.0
 11
101.9149390510897
 21
373.2411897326765
 31
0.0
  0
MTEXT
  5
BD90
330
1F
100
AcDbEntity
  8
AM_6
 48
1.01
100
AcDbMText
 10
42.58983878273761
 20
376.7119221737128
 30
0.0
 40
3.2
 41
63.60169966314606
 71
     4
 72
     5
  1
　本体：スチール
 73
     1
 44
1.0
1001
ACAD
1000
MTEXTBEGIN
1070
    73
1070
     1
1070
    44
1040
1.0
1070
    74
1070
     0
1000
MTEXTEND
1000
ACAD_MTEXT_DEFINED_HEIGHT_BEGIN
1070
    46
1040
13.8829297641455
1000
ACAD_MTEXT_DEFINED_HEIGHT_END
  0
LINE
  5
BD91
330
1F
100
AcDbEntity
  8
AM_0
100
AcDbLine
 10
24.80586943993762
 20
366.2997248506038
 30
0.0
 11
101.9149390510897
 21
366.299724850604
 31
0.0
  0
MTEXT
  5
BD92
330
1F
100
AcDbEntity
  8
AM_6
 48
1.01
100
AcDbMText
 10
33.69785411133762
 20
383.5083658534738
 30
0.0
 40
3.2
 41
17.78396934279999
 71
     5
 72
     5
  1
品　番
 73
     1
 44
1.0
1001
ACAD
1000
MTEXTBEGIN
1070
    73
1070
     1
1070
    44
1040
1.0
1070
    74
1070
     0
1000
MTEXTEND
1000
ACAD_MTEXT_DEFINED_HEIGHT_BEGIN
1070
    46
1040
55.53171905658246
1000
ACAD_MTEXT_DEFINED_HEIGHT_END
  0
MTEXT
  5
BD93
330
1F
100
AcDbEntity
  8
AM_6
 48
1.01
100
AcDbMText
 10
45.92807949365806
 20
383.6533870557855
 30
0.0
 40
3.2
 41
63.60169966314606
 71
     4
 72
     5
  1
C-DL-55
 73
     1
 44
1.0
1001
ACAD
1000
MTEXTBEGIN
1070
    73
1070
     1
1070
    44
1040
1.0
1070
    74
1070
     0
1000
MTEXTEND
1000
ACAD_MTEXT_DEFINED_HEIGHT_BEGIN
1070
    46
1040
13.8829297641455
1000
ACAD_MTEXT_DEFINED_HEIGHT_END
  0
LINE
  5
BD94
330
1F
100
AcDbEntity
  8
AM_0
100
AcDbLine
 10
41.52317211607098
 20
366.2997248506038
 30
0.0
 11
101.9149390510897
 21
366.299724850604
 31
0.0
  0
MTEXT
  5
BD95
330
1F
100
AcDbEntity
  8
AM_6
 48
1.01
100
AcDbMText
 10
42.58983878273761
 20
369.77045729164
 30
0.0
 40
3.2
 41
63.60169966314606
 71
     4
 72
     5
  1
　フロントプレート：ステンレス
 73
     1
 44
1.0
1001
ACAD
1000
MTEXTBEGIN
1070
    73
1070
     1
1070
    44
1040
1.0
1070
    74
1070
     0
1000
MTEXTEND
1000
ACAD_MTEXT_DEFINED_HEIGHT_BEGIN
1070
    46
1040
13.8829297641455
1000
ACAD_MTEXT_DEFINED_HEIGHT_END
  0
MTEXT
  5
BD9A
330
1F
100
AcDbEntity
  8
AM_6
 48
1.01
100
AcDbMText
 10
33.69785411133762
 20
360.3156633662682
 30
0.0
 40
3.2
 41
17.78396934279999
 71
     5
 72
     5
  1
仕上げ
 73
     1
 44
1.0
1001
ACAD
1000
MTEXTBEGIN
1070
    73
1070
     1
1070
    44
1040
1.0
1070
    74
1070
     0
1000
MTEXTEND
1000
ACAD_MTEXT_DEFINED_HEIGHT_BEGIN
1070
    46
1040
13.8829297641455
1000
ACAD_MTEXT_DEFINED_HEIGHT_END
  0
LINE
  5
BD9C
330
1F
100
AcDbEntity
  8
AM_0
100
AcDbLine
 10
42.58983878273761
 20
359.358259968531
 30
0.0
 11
101.9149390510897
 21
359.358259968531
 31
0.0
  0
MTEXT
  5
BD9D
330
1F
100
AcDbEntity
  8
AM_6
 48
1.01
100
AcDbMText
 10
42.58983878273761
 20
362.8289924095672
 30
0.0
 40
3.2
 41
63.60169966314606
 71
     4
 72
     5
  1
　本体：有色クロメート
 73
     1
 44
1.0
1001
ACAD
1000
MTEXTBEGIN
1070
    73
1070
     1
1070
    44
1040
1.0
1070
    74
1070
     0
1000
MTEXTEND
1000
ACAD_MTEXT_DEFINED_HEIGHT_BEGIN
1070
    46
1040
13.8829297641455
1000
ACAD_MTEXT_DEFINED_HEIGHT_END
  0
MTEXT
  5
BD9E
330
1F
100
AcDbEntity
  8
AM_6
 48
1.01
100
AcDbMText
 10
42.58983878273761
 20
355.8875275274945
 30
0.0
 40
3.2
 41
63.60169966314606
 71
     4
 72
     5
  1
　フロントプレート：ヘアーライン
 73
     1
 44
1.0
1001
ACAD
1000
MTEXTBEGIN
1070
    73
1070
     1
1070
    44
1040
1.0
1070
    74
1070
     0
1000
MTEXTEND
1000
ACAD_MTEXT_DEFINED_HEIGHT_BEGIN
1070
    46
1040
13.8829297641455
1000
ACAD_MTEXT_DEFINED_HEIGHT_END
  0
LINE
  5
BDA1
330
1F
100
AcDbEntity
  8
AM_0
100
AcDbLine
 10
41.52317211607098
 20
366.2997248506038
 30
0.0
 11
101.9149390510897
 21
366.299724850604
 31
0.0
  0
DIMENSION
  5
BDC9
330
1F
100
AcDbEntity
  8
AM_5
100
AcDbDimension
  2
*D24
 10
201.0344173026934
 20
74.64031314964991
 30
0.0
 11
165.017952800914
 21
51.33572980069311
 31
0.0
 70
   163
  1
4-%%c4.2×%%c7.2皿孔
 71
     5
 42
7.500000000000113
  3
SYS$3
100
AcDbDiametricDimension
 15
196.0219884237699
 25
69.06128485309729
 35
0.0
 40
0.0
  0
MTEXT
  5
BE1A
330
1F
100
AcDbEntity
  8
AM_6
 48
1.01
100
AcDbMText
 10
33.69785411133762
 20
348.8010414431105
 30
0.0
 40
3.2
 41
17.78396934279999
 71
     5
 72
     5
  1
セット品
 73
     1
 44
1.0
1001
ACAD
1000
MTEXTBEGIN
1070
    73
1070
     1
1070
    44
1040
1.0
1070
    74
1070
     0
1000
MTEXTEND
1000
ACAD_MTEXT_DEFINED_HEIGHT_BEGIN
1070
    46
1040
55.53171905658246
1000
ACAD_MTEXT_DEFINED_HEIGHT_END
  0
MTEXT
  5
BE1C
330
1F
100
AcDbEntity
  8
AM_6
 48
1.01
100
AcDbMText
 10
42.58983878273761
 20
348.946062645422
 30
0.0
 40
3.2
 41
63.60169966314606
 71
     4
 72
     5
  1
　M4×10　D=7サラ小ネジ+SUS　4本
 73
     1
 44
1.0
1001
ACAD
1000
MTEXTBEGIN
1070
    73
1070
     1
1070
    44
1040
1.0
1070
    74
1070
     0
1000
MTEXTEND
1000
ACAD_MTEXT_DEFINED_HEIGHT_BEGIN
1070
    46
1040
13.8829297641455
1000
ACAD_MTEXT_DEFINED_HEIGHT_END
  0
CIRCLE
  5
BE21
330
1F
100
AcDbEntity
  8
AM_CL
  6
Continuous
100
AcDbCircle
 10
81.58553548544047
 20
348.7184518752128
 30
0.0
 40
1.520527009968654
  0
LINE
  5
BE22
330
1F
100
AcDbEntity
  8
AM_0
100
AcDbLine
 10
42.58983878273764
 20
352.4167950864585
 30
0.0
 11
101.9149390510897
 21
352.4167950864585
 31
0.0
  0
DIMENSION
  5
BE33
330
1F
100
AcDbEntity
  8
AM_5
100
AcDbDimension
  2
*D25
 10
434.2788627204511
 20
166.1174563211718
 30
0.0
 11
428.6241680657733
 21
168.925378366675
 31
0.0
 70
    32
  1
□<>
 71
     5
 42
10.99999960932098
  3
SYS$0
100
AcDbAlignedDimension
 13
422.480163570783
 23
181.0704645287144
 33
0.0
 14
433.4650886758226
 24
181.6461483328085
 34
0.0
 50
2.999815216328061
100
AcDbRotatedDimension
1001
ACAD
1000
DSTYLE
1002
{
1070
   271
1070
     0
1002
}
  0
LINE
  5
CBBE
330
1F
100
AcDbEntity
  8
AM_7
100
AcDbLine
 10
401.8217678158245
 20
256.8508295189442
 30
0.0
 11
476.5289048879585
 21
256.8508295189442
 31
0.0
1001
GENIUS_GENODEF_13
1002
{
1000
HIER
1070
     0
1002
}
1002
{
1000
MANEDIT
1070
     0
1002
}
1002
{
1000
NOSEL
1070
     0
1002
}
1002
{
1000
BEHIND
1070
     0
1002
}
1002
{
1000
OTHER
1070
     0
1002
}
1002
{
1000
REACTOR
1002
}
1001
GENIUS_GENOBJ-N-CEN_13
1002
{
1000
OWNER
1000
GEN
1002
}
1001
GENIUS_GENCEN_19
1002
{
1040
4.0
1002
}
  0
LINE
  5
DB06
330
1F
100
AcDbEntity
  8
AM_0
 48
0.5
100
AcDbLine
 10
212.5282028632321
 20
139.3507837425841
 30
0.0
 11
198.5282028632321
 21
139.3507837425841
 31
0.0
  0
LINE
  5
DB07
330
1F
100
AcDbEntity
  8
AM_0
 48
0.5
100
AcDbLine
 10
212.5282028632321
 20
139.3507837425841
 30
0.0
 11
212.5282028632321
 21
164.3507837425841
 31
0.0
  0
LINE
  5
DB08
330
1F
100
AcDbEntity
  8
AM_0
 48
0.5
100
AcDbLine
 10
200.5282028632321
 20
141.3507837425841
 30
0.0
 11
200.5282028632321
 21
162.3507837425841
 31
0.0
  0
LINE
  5
DB09
330
1F
100
AcDbEntity
  8
AM_0
 48
0.5
100
AcDbLine
 10
210.5282028632321
 20
141.3507837425841
 30
0.0
 11
200.5282028632321
 21
141.3507837425841
 31
0.0
  0
LINE
  5
DB0A
330
1F
100
AcDbEntity
  8
AM_0
 48
0.5
100
AcDbLine
 10
210.5282028632321
 20
141.3507837425841
 30
0.0
 11
210.5282028632321
 21
162.3507837425841
 31
0.0
  0
LINE
  5
DB0B
330
1F
100
AcDbEntity
  8
AM_0
 48
0.5
100
AcDbLine
 10
210.5282028632321
 20
162.3507837425841
 30
0.0
 11
200.5282028632321
 21
162.3507837425841
 31
0.0
  0
LINE
  5
DB0C
330
1F
100
AcDbEntity
  8
AM_0
 48
0.5
100
AcDbLine
 10
212.5282028632321
 20
139.3507990013741
 30
0.0
 11
210.5282028632321
 21
141.3507990013741
 31
0.0
  0
LINE
  5
DB0D
330
1F
100
AcDbEntity
  8
AM_0
 48
0.5
100
AcDbLine
 10
210.5282028632321
 20
162.3507990013741
 30
0.0
 11
212.5281876044419
 21
164.3507837425841
 31
0.0
  0
LINE
  5
DB0E
330
1F
100
AcDbEntity
  8
AM_0
 48
0.5
100
AcDbLine
 10
200.5282028632321
 20
162.3507990013741
 30
0.0
 11
198.5282028632321
 21
164.350799001374
 31
0.0
  0
LINE
  5
DB0F
330
1F
100
AcDbEntity
  8
AM_0
 48
0.5
100
AcDbLine
 10
198.5282028632321
 20
139.3507990013741
 30
0.0
 11
200.5282028632321
 21
141.3507990013741
 31
0.0
  0
LINE
  5
DB10
330
1F
100
AcDbEntity
  8
AM_0
 48
0.5
100
AcDbLine
 10
198.5282028632321
 20
139.3507837425841
 30
0.0
 11
198.5282028632321
 21
164.3507837425841
 31
0.0
  0
LINE
  5
DB5A
330
1F
100
AcDbEntity
  8
AM_0
 48
0.5
100
AcDbLine
 10
397.4847717250723
 20
149.450805104896
 30
0.0
 11
397.4847717250723
 21
154.2507928978659
 31
0.0
  0
LINE
  5
DB5B
330
1F
100
AcDbEntity
  8
AM_0
 48
0.5
100
AcDbLine
 10
405.2847747768301
 20
149.450805104896
 30
0.0
 11
405.2847747768301
 21
154.2507928978659
 31
0.0
  0
LINE
  5
DB5C
330
1F
100
AcDbEntity
  8
AM_0
 48
0.5
100
AcDbLine
 10
397.4847717250723
 20
149.450805104896
 30
0.0
 11
405.2847747768301
 21
149.450805104896
 31
0.0
  0
LINE
  5
DB5D
330
1F
100
AcDbEntity
  8
AM_0
 48
0.5
100
AcDbLine
 10
397.4847717250723
 20
154.2507928978659
 30
0.0
 11
405.2847747768301
 21
154.2507928978659
 31
0.0
  0
LINE
  5
DB7B
330
1F
100
AcDbEntity
  8
AM_0
 48
0.5
100
AcDbLine
 10
406.6847839321042
 20
209.300795949626
 30
0.0
 11
406.6847839321042
 21
214.400802053136
 31
0.0
  0
LINE
  5
DB7C
330
1F
100
AcDbEntity
  8
AM_0
 48
0.5
100
AcDbLine
 10
404.3847961391352
 20
209.300795949626
 30
0.0
 11
404.3847961391352
 21
214.400802053136
 31
0.0
  0
LINE
  5
DB7D
330
1F
100
AcDbEntity
  8
AM_0
 48
0.5
100
AcDbLine
 10
404.3847961391352
 20
209.4508051048961
 30
0.0
 11
406.6847839321042
 21
209.4508051048961
 31
0.0
  0
LINE
  5
DB7E
330
1F
100
AcDbEntity
  8
AM_0
 48
0.5
100
AcDbLine
 10
404.3847961391352
 20
214.2507928978659
 30
0.0
 11
406.6847839321042
 21
214.2507928978659
 31
0.0
  0
LINE
  5
DB7F
330
1F
100
AcDbEntity
  8
AM_11
 48
0.5
100
AcDbLine
 10
337.684783932104
 20
141.3507837425843
 30
0.0
 11
337.684783932104
 21
162.3507837425843
 31
0.0
  0
LINE
  5
DB80
330
1F
100
AcDbEntity
  8
AM_11
 48
0.5
100
AcDbLine
 10
339.684783932104
 20
139.3507837425843
 30
0.0
 11
357.6847839321031
 21
139.3507837425843
 31
0.0
  0
LINE
  5
DB81
330
1F
100
AcDbEntity
  8
AM_11
 48
0.5
100
AcDbLine
 10
339.684783932104
 20
164.3507837425843
 30
0.0
 11
357.6847839321031
 21
164.3507837425843
 31
0.0
  0
LINE
  5
DB82
330
1F
100
AcDbEntity
  8
AM_11
 48
0.5
100
AcDbLine
 10
337.684783932104
 20
141.3507837425843
 30
0.0
 11
339.6847915615042
 21
139.3507837425843
 31
0.0
  0
LINE
  5
DB83
330
1F
100
AcDbEntity
  8
AM_11
 48
0.5
100
AcDbLine
 10
337.6847991908942
 20
162.3507837425843
 30
0.0
 11
339.6847991908942
 21
164.3507990013743
 31
0.0
  0
LINE
  5
DB84
330
1F
100
AcDbEntity
  8
AM_11
 48
0.5
100
AcDbLine
 10
339.684783932104
 20
139.3507837425843
 30
0.0
 11
339.684783932104
 21
164.3507837425843
 31
0.0
  0
LINE
  5
DB8C
330
1F
100
AcDbEntity
  8
AM_7
 48
0.5
100
AcDbLine
 10
467.6847858394512
 20
249.8916620384859
 30
0.0
 11
467.6847858394512
 21
265.0417856346751
 31
0.0
  0
LINE
  5
DB8D
330
1F
100
AcDbEntity
  8
AM_7
100
AcDbLine
 10
418.6847839321042
 20
292.4272607933669
 30
0.0
 11
418.6847839321042
 21
326.5646318565989
 31
0.0
  0
LINE
  5
DB8E
330
1F
100
AcDbEntity
  8
AM_7
 48
0.5
100
AcDbLine
 10
413.7688865627191
 20
296.050799764314
 30
0.0
 11
422.6517791713613
 21
296.050799764314
 31
0.0
  0
LINE
  5
DB8F
330
1F
100
AcDbEntity
  8
AM_7
 48
0.5
100
AcDbLine
 10
414.3562812770742
 20
321.0507959496169
 30
0.0
 11
423.0173873866931
 21
321.0507959496169
 31
0.0
  0
LINE
  5
DB90
330
1F
100
AcDbEntity
  8
AM_0
 48
0.5
100
AcDbLine
 10
421.2347831691641
 20
296.050799764314
 30
0.0
 11
421.2347831691641
 21
321.0507959496169
 31
0.0
  0
LINE
  5
DB91
330
1F
100
AcDbEntity
  8
AM_0
 48
0.5
100
AcDbLine
 10
416.1347846950432
 20
296.050799764314
 30
0.0
 11
416.1347846950432
 21
321.0507959496169
 31
0.0
  0
LINE
  5
DB92
330
1F
100
AcDbEntity
  8
AM_7
 48
0.5
100
AcDbLine
 10
406.5516509975331
 20
232.8507990013761
 30
0.0
 11
412.2828826869863
 21
232.8507990013761
 31
0.0
  0
LINE
  5
DB93
330
1F
100
AcDbEntity
  8
AM_0
 48
0.5
100
AcDbLine
 10
407.6847839321041
 20
227.8507990013761
 30
0.0
 11
407.6847839321041
 21
237.8507990013761
 31
0.0
  0
LINE
  5
DB94
330
1F
100
AcDbEntity
  8
AM_0
 48
0.5
100
AcDbLine
 10
407.6847839321041
 20
237.8507990013761
 30
0.0
 11
409.9847869838613
 21
237.8507990013761
 31
0.0
  0
LINE
  5
DB95
330
1F
100
AcDbEntity
  8
AM_0
 48
0.5
100
AcDbLine
 10
407.6847839321041
 20
227.8507990013761
 30
0.0
 11
409.9847869838613
 21
227.8507990013761
 31
0.0
  0
LINE
  5
DB96
330
1F
100
AcDbEntity
  8
AM_0
 48
0.5
100
AcDbLine
 10
409.9847869838613
 20
227.8507990013761
 30
0.0
 11
409.9847869838613
 21
237.8507990013761
 31
0.0
  0
LINE
  5
DB97
330
1F
100
AcDbEntity
  8
AM_7
 48
0.5
100
AcDbLine
 10
369.8847808803462
 20
207.0299219261861
 30
0.0
 11
369.8847808803462
 21
215.959044850986
 31
0.0
  0
LINE
  5
DB98
330
1F
100
AcDbEntity
  8
AM_7
 48
0.5
100
AcDbLine
 10
372.8847808803462
 20
206.736220754306
 30
0.0
 11
372.8847808803462
 21
216.0933374535259
 31
0.0
  0
LINE
  5
DB99
330
1F
100
AcDbEntity
  8
AM_0
 48
0.5
100
AcDbLine
 10
369.8847808803462
 20
214.400802053136
 30
0.0
 11
372.8847808803462
 21
214.400802053136
 31
0.0
  0
LINE
  5
DB9A
330
1F
100
AcDbEntity
  8
AM_0
 48
0.5
100
AcDbLine
 10
369.8847808803462
 20
209.300795949626
 30
0.0
 11
372.8847808803462
 21
209.300795949626
 31
0.0
  0
LINE
  5
DB9B
330
1F
100
AcDbEntity
  8
AM_0
 48
0.5
100
AcDbLine
 10
425.6847839321042
 20
207.8507990013761
 30
0.0
 11
425.6847839321042
 21
215.8507990013761
 31
0.0
  0
LINE
  5
DB9C
330
1F
100
AcDbEntity
  8
AM_0
 48
0.5
100
AcDbLine
 10
425.6847839321042
 20
207.8507990013761
 30
0.0
 11
427.6847839321042
 21
207.8507990013761
 31
0.0
  0
LINE
  5
DB9D
330
1F
100
AcDbEntity
  8
AM_0
 48
0.5
100
AcDbLine
 10
425.6847839321042
 20
215.8507990013761
 30
0.0
 11
427.6847839321042
 21
215.8507990013761
 31
0.0
  0
LINE
  5
DB9E
330
1F
100
AcDbEntity
  8
AM_0
 48
0.5
100
AcDbLine
 10
427.6847839321042
 20
207.8507990013761
 30
0.0
 11
427.6847839321042
 21
215.8507990013761
 31
0.0
  0
LINE
  5
DB9F
330
1F
100
AcDbEntity
  8
AM_0
 48
0.5
100
AcDbLine
 10
419.1847839321042
 20
209.300795949626
 30
0.0
 11
419.1847839321042
 21
214.400802053136
 31
0.0
  0
LINE
  5
DBA0
330
1F
100
AcDbEntity
  8
AM_0
 48
0.5
100
AcDbLine
 10
404.1847839321041
 20
209.300795949626
 30
0.0
 11
404.1847839321041
 21
214.400802053136
 31
0.0
  0
LINE
  5
DBA1
330
1F
100
AcDbEntity
  8
AM_0
 48
0.5
100
AcDbLine
 10
404.1847839321041
 20
209.300795949626
 30
0.0
 11
419.1847839321042
 21
209.300795949626
 31
0.0
  0
LINE
  5
DBA2
330
1F
100
AcDbEntity
  8
AM_0
 48
0.5
100
AcDbLine
 10
404.1847839321041
 20
214.400802053136
 30
0.0
 11
419.1847839321042
 21
214.400802053136
 31
0.0
  0
LINE
  5
DBA3
330
1F
100
AcDbEntity
  8
AM_0
 48
0.5
100
AcDbLine
 10
377.6847839321042
 20
149.300795949626
 30
0.0
 11
377.6847839321042
 21
154.4008020531359
 31
0.0
  0
LINE
  5
DBA4
330
1F
100
AcDbEntity
  8
AM_0
 48
0.5
100
AcDbLine
 10
405.6847839321042
 20
149.300795949626
 30
0.0
 11
405.6847839321042
 21
154.4008020531359
 31
0.0
  0
LINE
  5
DBA5
330
1F
100
AcDbEntity
  8
AM_0
 48
0.5
100
AcDbLine
 10
377.6847839321042
 20
149.300795949626
 30
0.0
 11
405.6847839321042
 21
149.300795949626
 31
0.0
  0
LINE
  5
DBA6
330
1F
100
AcDbEntity
  8
AM_0
 48
0.5
100
AcDbLine
 10
377.6847839321042
 20
154.4008020531359
 30
0.0
 11
405.6847839321042
 21
154.4008020531359
 31
0.0
  0
LINE
  5
DBA7
330
1F
100
AcDbEntity
  8
AM_7
 48
0.5
100
AcDbLine
 10
470.1847858394512
 20
152.3952173363361
 30
0.0
 11
470.1847858394512
 21
161.8847498070461
 31
0.0
  0
LINE
  5
DBA8
330
1F
100
AcDbEntity
  8
AM_7
 48
0.5
100
AcDbLine
 10
465.0876178707012
 20
156.8507990013761
 30
0.0
 11
475.6927585567361
 21
156.8507990013761
 31
0.0
  0
LINE
  5
DBA9
330
1F
100
AcDbEntity
  8
AM_7
 48
0.5
100
AcDbLine
 10
439.9223899806882
 20
268.850799001375
 30
0.0
 11
449.3841609920398
 21
268.850799001375
 31
0.0
  0
LINE
  5
DBAA
330
1F
100
AcDbEntity
  8
AM_7
 48
0.5
100
AcDbLine
 10
444.6847839321033
 20
263.9423822533279
 30
0.0
 11
444.6847839321033
 21
273.9823679100659
 31
0.0
  0
LINE
  5
DBAB
330
1F
100
AcDbEntity
  8
AM_0
 48
0.5
100
AcDbLine
 10
416.1347846950432
 20
103.8507990013761
 30
0.0
 11
416.1347846950432
 21
128.8507990013761
 31
0.0
  0
LINE
  5
DBAC
330
1F
100
AcDbEntity
  8
AM_0
 48
0.5
100
AcDbLine
 10
421.2347831691641
 20
103.8507990013761
 30
0.0
 11
421.2347831691641
 21
128.8507990013761
 31
0.0
  0
LINE
  5
DBAD
330
1F
100
AcDbEntity
  8
AM_0
 48
0.5
100
AcDbLine
 10
440.4347839321042
 20
96.35079900137611
 30
0.0
 11
440.4347839321042
 21
104.3507990013761
 31
0.0
  0
LINE
  5
DBAE
330
1F
100
AcDbEntity
  8
AM_0
 48
0.5
100
AcDbLine
 10
396.9347839321042
 20
106.3507990013761
 30
0.0
 11
396.9347839321042
 21
114.3507990013761
 31
0.0
  0
LINE
  5
DBAF
330
1F
100
AcDbEntity
  8
AM_0
 48
0.5
100
AcDbLine
 10
396.9347839321042
 20
132.3507990013761
 30
0.0
 11
399.4347839321042
 21
132.3507990013761
 31
0.0
  0
LINE
  5
DBB0
330
1F
100
AcDbEntity
  8
AM_0
 48
0.5
100
AcDbLine
 10
396.9347839321042
 20
124.3507990013761
 30
0.0
 11
399.4347839321042
 21
124.3507990013761
 31
0.0
  0
LINE
  5
DBB1
330
1F
100
AcDbEntity
  8
AM_0
 48
0.5
100
AcDbLine
 10
396.9347839321042
 20
114.3507990013761
 30
0.0
 11
399.4347839321042
 21
114.3507990013761
 31
0.0
  0
LINE
  5
DBB2
330
1F
100
AcDbEntity
  8
AM_0
 48
0.5
100
AcDbLine
 10
396.9347839321042
 20
106.3507990013761
 30
0.0
 11
399.4347839321042
 21
106.3507990013761
 31
0.0
  0
LINE
  5
DBB3
330
1F
100
AcDbEntity
  8
AM_0
 48
0.5
100
AcDbLine
 10
399.4347839321042
 20
106.3507990013761
 30
0.0
 11
399.4347839321042
 21
114.3507990013761
 31
0.0
  0
LINE
  5
DBB4
330
1F
100
AcDbEntity
  8
AM_0
 48
0.5
100
AcDbLine
 10
396.9347839321042
 20
124.3507990013761
 30
0.0
 11
396.9347839321042
 21
132.3507990013761
 31
0.0
  0
LINE
  5
DBB5
330
1F
100
AcDbEntity
  8
AM_0
 48
0.5
100
AcDbLine
 10
399.4347839321042
 20
124.3507990013761
 30
0.0
 11
399.4347839321042
 21
132.3507990013761
 31
0.0
  0
LINE
  5
DBB6
330
1F
100
AcDbEntity
  8
AM_0
 48
0.5
100
AcDbLine
 10
437.9347839321042
 20
96.35079900137611
 30
0.0
 11
437.9347839321042
 21
104.3507990013761
 31
0.0
  0
LINE
  5
DBB7
330
1F
100
AcDbEntity
  8
AM_0
 48
0.5
100
AcDbLine
 10
437.9347839321042
 20
122.3507990013761
 30
0.0
 11
440.4347839321042
 21
122.3507990013761
 31
0.0
  0
LINE
  5
DBB8
330
1F
100
AcDbEntity
  8
AM_0
 48
0.5
100
AcDbLine
 10
437.9347839321042
 20
114.3507990013761
 30
0.0
 11
440.4347839321042
 21
114.3507990013761
 31
0.0
  0
LINE
  5
DBB9
330
1F
100
AcDbEntity
  8
AM_0
 48
0.5
100
AcDbLine
 10
437.9347839321042
 20
104.3507990013761
 30
0.0
 11
440.4347839321042
 21
104.3507990013761
 31
0.0
  0
LINE
  5
DBBA
330
1F
100
AcDbEntity
  8
AM_0
 48
0.5
100
AcDbLine
 10
437.9347839321042
 20
96.35079900137611
 30
0.0
 11
440.4347839321042
 21
96.35079900137611
 31
0.0
  0
LINE
  5
DBBB
330
1F
100
AcDbEntity
  8
AM_0
 48
0.5
100
AcDbLine
 10
437.9347839321042
 20
114.3507990013761
 30
0.0
 11
437.9347839321042
 21
122.3507990013761
 31
0.0
  0
LINE
  5
DBBC
330
1F
100
AcDbEntity
  8
AM_0
 48
0.5
100
AcDbLine
 10
440.4347839321042
 20
114.3507990013761
 30
0.0
 11
440.4347839321042
 21
122.3507990013761
 31
0.0
  0
LINE
  5
DBBD
330
1F
100
AcDbEntity
  8
AM_2
 48
0.5
100
AcDbLine
 10
445.1847839321033
 20
266.850799001375
 30
0.0
 11
445.1847839321033
 21
267.350799001375
 31
0.0
  0
LINE
  5
DBBE
330
1F
100
AcDbEntity
  8
AM_2
 48
0.5
100
AcDbLine
 10
444.1847839321042
 20
266.850799001375
 30
0.0
 11
444.1847839321042
 21
267.350799001375
 31
0.0
  0
LINE
  5
DBBF
330
1F
100
AcDbEntity
  8
AM_2
 48
0.5
100
AcDbLine
 10
442.6847839321042
 20
269.350799001375
 30
0.0
 11
443.1847839321042
 21
269.350799001375
 31
0.0
  0
LINE
  5
DBC0
330
1F
100
AcDbEntity
  8
AM_2
 48
0.5
100
AcDbLine
 10
442.6847839321042
 20
268.350799001375
 30
0.0
 11
443.1847839321042
 21
268.350799001375
 31
0.0
  0
LINE
  5
DBC1
330
1F
100
AcDbEntity
  8
AM_2
 48
0.5
100
AcDbLine
 10
442.6847839321042
 20
268.350799001375
 30
0.0
 11
442.6847839321042
 21
269.350799001375
 31
0.0
  0
LINE
  5
DBC2
330
1F
100
AcDbEntity
  8
AM_2
 48
0.5
100
AcDbLine
 10
446.6847839321032
 20
268.350799001375
 30
0.0
 11
446.6847839321032
 21
269.350799001375
 31
0.0
  0
LINE
  5
DBC3
330
1F
100
AcDbEntity
  8
AM_2
 48
0.5
100
AcDbLine
 10
444.1847839321042
 20
266.850799001375
 30
0.0
 11
445.1847839321033
 21
266.850799001375
 31
0.0
  0
LINE
  5
DBC4
330
1F
100
AcDbEntity
  8
AM_2
 48
0.5
100
AcDbLine
 10
444.1847839321042
 20
270.850799001375
 30
0.0
 11
445.1847839321033
 21
270.850799001375
 31
0.0
  0
LINE
  5
DBC5
330
1F
100
AcDbEntity
  8
AM_2
 48
0.5
100
AcDbLine
 10
444.1847839321042
 20
270.350799001375
 30
0.0
 11
444.1847839321042
 21
270.850799001375
 31
0.0
  0
LINE
  5
DBC6
330
1F
100
AcDbEntity
  8
AM_2
 48
0.5
100
AcDbLine
 10
445.1847839321033
 20
270.350799001375
 30
0.0
 11
445.1847839321033
 21
270.850799001375
 31
0.0
  0
LINE
  5
DBC7
330
1F
100
AcDbEntity
  8
AM_2
 48
0.5
100
AcDbLine
 10
446.1847839321032
 20
269.350799001375
 30
0.0
 11
446.6847839321032
 21
269.350799001375
 31
0.0
  0
LINE
  5
DBC8
330
1F
100
AcDbEntity
  8
AM_2
 48
0.5
100
AcDbLine
 10
446.1847839321032
 20
268.350799001375
 30
0.0
 11
446.6847839321032
 21
268.350799001375
 31
0.0
  0
LINE
  5
DBC9
330
1F
100
AcDbEntity
  8
AM_7
 48
0.5
100
AcDbLine
 10
453.9223937953845
 20
133.8507990013761
 30
0.0
 11
463.3841619457141
 21
133.8507990013761
 31
0.0
  0
LINE
  5
DBCA
330
1F
100
AcDbEntity
  8
AM_7
 48
0.5
100
AcDbLine
 10
458.6847858394519
 20
128.942382253336
 30
0.0
 11
458.6847858394519
 21
138.9823755394661
 31
0.0
  0
LINE
  5
DBCB
330
1F
100
AcDbEntity
  8
AM_2
 48
0.5
100
AcDbLine
 10
459.1847858394519
 20
131.8507990013761
 30
0.0
 11
459.1847858394519
 21
132.3507990013761
 31
0.0
  0
LINE
  5
DBCC
330
1F
100
AcDbEntity
  8
AM_2
 48
0.5
100
AcDbLine
 10
458.1847858394519
 20
131.8507990013761
 30
0.0
 11
458.1847858394519
 21
132.3507990013761
 31
0.0
  0
LINE
  5
DBCD
330
1F
100
AcDbEntity
  8
AM_2
 48
0.5
100
AcDbLine
 10
456.6847858394519
 20
134.3507990013761
 30
0.0
 11
457.1847858394519
 21
134.3507990013761
 31
0.0
  0
LINE
  5
DBCE
330
1F
100
AcDbEntity
  8
AM_2
 48
0.5
100
AcDbLine
 10
456.6847858394519
 20
133.3507990013761
 30
0.0
 11
457.1847858394519
 21
133.3507990013761
 31
0.0
  0
LINE
  5
DBCF
330
1F
100
AcDbEntity
  8
AM_2
 48
0.5
100
AcDbLine
 10
456.6847858394519
 20
133.3507990013761
 30
0.0
 11
456.6847858394519
 21
134.3507990013761
 31
0.0
  0
LINE
  5
DBD0
330
1F
100
AcDbEntity
  8
AM_2
 48
0.5
100
AcDbLine
 10
460.6847858394519
 20
133.3507990013761
 30
0.0
 11
460.6847858394519
 21
134.3507990013761
 31
0.0
  0
LINE
  5
DBD1
330
1F
100
AcDbEntity
  8
AM_2
 48
0.5
100
AcDbLine
 10
458.1847858394519
 20
131.8507990013761
 30
0.0
 11
459.1847858394519
 21
131.8507990013761
 31
0.0
  0
LINE
  5
DBD2
330
1F
100
AcDbEntity
  8
AM_2
 48
0.5
100
AcDbLine
 10
458.1847858394519
 20
135.8507990013761
 30
0.0
 11
459.1847858394519
 21
135.8507990013761
 31
0.0
  0
LINE
  5
DBD3
330
1F
100
AcDbEntity
  8
AM_2
 48
0.5
100
AcDbLine
 10
458.1847858394519
 20
135.3507990013761
 30
0.0
 11
458.1847858394519
 21
135.8507990013761
 31
0.0
  0
LINE
  5
DBD4
330
1F
100
AcDbEntity
  8
AM_2
 48
0.5
100
AcDbLine
 10
459.1847858394519
 20
135.3507990013761
 30
0.0
 11
459.1847858394519
 21
135.8507990013761
 31
0.0
  0
LINE
  5
DBD5
330
1F
100
AcDbEntity
  8
AM_2
 48
0.5
100
AcDbLine
 10
460.1847858394519
 20
134.3507990013761
 30
0.0
 11
460.6847858394519
 21
134.3507990013761
 31
0.0
  0
LINE
  5
DBD6
330
1F
100
AcDbEntity
  8
AM_2
 48
0.5
100
AcDbLine
 10
460.1847858394519
 20
133.3507990013761
 30
0.0
 11
460.6847858394519
 21
133.3507990013761
 31
0.0
  0
LINE
  5
DBD7
330
1F
100
AcDbEntity
  8
AM_7
 48
0.5
100
AcDbLine
 10
370.1223907436272
 20
302.850799001375
 30
0.0
 11
379.5841598476313
 21
302.850799001375
 31
0.0
  0
LINE
  5
DBD8
330
1F
100
AcDbEntity
  8
AM_7
 48
0.5
100
AcDbLine
 10
374.8847808803462
 20
297.9423822533279
 30
0.0
 11
374.8847808803462
 21
307.9823679100662
 31
0.0
  0
LINE
  5
DBD9
330
1F
100
AcDbEntity
  8
AM_2
 48
0.5
100
AcDbLine
 10
375.3847808803462
 20
300.850799001375
 30
0.0
 11
375.3847808803462
 21
301.350799001375
 31
0.0
  0
LINE
  5
DBDA
330
1F
100
AcDbEntity
  8
AM_2
 48
0.5
100
AcDbLine
 10
374.3847808803462
 20
300.850799001375
 30
0.0
 11
374.3847808803462
 21
301.350799001375
 31
0.0
  0
LINE
  5
DBDB
330
1F
100
AcDbEntity
  8
AM_2
 48
0.5
100
AcDbLine
 10
372.8847808803462
 20
303.350799001375
 30
0.0
 11
373.3847808803462
 21
303.350799001375
 31
0.0
  0
LINE
  5
DBDC
330
1F
100
AcDbEntity
  8
AM_2
 48
0.5
100
AcDbLine
 10
372.8847808803462
 20
302.350799001375
 30
0.0
 11
373.3847808803462
 21
302.350799001375
 31
0.0
  0
LINE
  5
DBDD
330
1F
100
AcDbEntity
  8
AM_2
 48
0.5
100
AcDbLine
 10
372.8847808803462
 20
302.350799001375
 30
0.0
 11
372.8847808803462
 21
303.350799001375
 31
0.0
  0
LINE
  5
DBDE
330
1F
100
AcDbEntity
  8
AM_2
 48
0.5
100
AcDbLine
 10
376.8847808803462
 20
302.350799001375
 30
0.0
 11
376.8847808803462
 21
303.350799001375
 31
0.0
  0
LINE
  5
DBDF
330
1F
100
AcDbEntity
  8
AM_2
 48
0.5
100
AcDbLine
 10
374.3847808803462
 20
300.850799001375
 30
0.0
 11
375.3847808803462
 21
300.850799001375
 31
0.0
  0
LINE
  5
DBE0
330
1F
100
AcDbEntity
  8
AM_2
 48
0.5
100
AcDbLine
 10
374.3847808803462
 20
304.850799001375
 30
0.0
 11
375.3847808803462
 21
304.850799001375
 31
0.0
  0
LINE
  5
DBE1
330
1F
100
AcDbEntity
  8
AM_2
 48
0.5
100
AcDbLine
 10
374.3847808803462
 20
304.350799001375
 30
0.0
 11
374.3847808803462
 21
304.850799001375
 31
0.0
  0
LINE
  5
DBE2
330
1F
100
AcDbEntity
  8
AM_2
 48
0.5
100
AcDbLine
 10
375.3847808803462
 20
304.350799001375
 30
0.0
 11
375.3847808803462
 21
304.850799001375
 31
0.0
  0
LINE
  5
DBE3
330
1F
100
AcDbEntity
  8
AM_2
 48
0.5
100
AcDbLine
 10
376.3847808803462
 20
303.350799001375
 30
0.0
 11
376.8847808803462
 21
303.350799001375
 31
0.0
  0
LINE
  5
DBE4
330
1F
100
AcDbEntity
  8
AM_2
 48
0.5
100
AcDbLine
 10
376.3847808803462
 20
302.350799001375
 30
0.0
 11
376.8847808803462
 21
302.350799001375
 31
0.0
  0
LINE
  5
DBE5
330
1F
100
AcDbEntity
  8
AM_7
 48
0.5
100
AcDbLine
 10
368.1223907436272
 20
101.8507990013761
 30
0.0
 11
377.5841598476311
 21
101.8507990013761
 31
0.0
  0
LINE
  5
DBE6
330
1F
100
AcDbEntity
  8
AM_7
 48
0.5
100
AcDbLine
 10
372.8847808803462
 20
96.94238225333606
 30
0.0
 11
372.8847808803462
 21
106.9823755394661
 31
0.0
  0
LINE
  5
DBE7
330
1F
100
AcDbEntity
  8
AM_2
 48
0.5
100
AcDbLine
 10
373.3847808803462
 20
99.85079900137613
 30
0.0
 11
373.3847808803462
 21
100.3507990013761
 31
0.0
  0
LINE
  5
DBE8
330
1F
100
AcDbEntity
  8
AM_2
 48
0.5
100
AcDbLine
 10
372.3847808803462
 20
99.85079900137613
 30
0.0
 11
372.3847808803462
 21
100.3507990013761
 31
0.0
  0
LINE
  5
DBE9
330
1F
100
AcDbEntity
  8
AM_2
 48
0.5
100
AcDbLine
 10
370.8847808803462
 20
102.3507990013761
 30
0.0
 11
371.3847808803462
 21
102.3507990013761
 31
0.0
  0
LINE
  5
DBEA
330
1F
100
AcDbEntity
  8
AM_2
 48
0.5
100
AcDbLine
 10
370.8847808803462
 20
101.3507990013761
 30
0.0
 11
371.3847808803462
 21
101.3507990013761
 31
0.0
  0
LINE
  5
DBEB
330
1F
100
AcDbEntity
  8
AM_2
 48
0.5
100
AcDbLine
 10
370.8847808803462
 20
101.3507990013761
 30
0.0
 11
370.8847808803462
 21
102.3507990013761
 31
0.0
  0
LINE
  5
DBEC
330
1F
100
AcDbEntity
  8
AM_2
 48
0.5
100
AcDbLine
 10
374.8847808803462
 20
101.3507990013761
 30
0.0
 11
374.8847808803462
 21
102.3507990013761
 31
0.0
  0
LINE
  5
DBED
330
1F
100
AcDbEntity
  8
AM_2
 48
0.5
100
AcDbLine
 10
372.3847808803462
 20
99.85079900137613
 30
0.0
 11
373.3847808803462
 21
99.85079900137613
 31
0.0
  0
LINE
  5
DBEE
330
1F
100
AcDbEntity
  8
AM_2
 48
0.5
100
AcDbLine
 10
372.3847808803462
 20
103.8507990013761
 30
0.0
 11
373.3847808803462
 21
103.8507990013761
 31
0.0
  0
LINE
  5
DBEF
330
1F
100
AcDbEntity
  8
AM_2
 48
0.5
100
AcDbLine
 10
372.3847808803462
 20
103.3507990013761
 30
0.0
 11
372.3847808803462
 21
103.8507990013761
 31
0.0
  0
LINE
  5
DBF0
330
1F
100
AcDbEntity
  8
AM_2
 48
0.5
100
AcDbLine
 10
373.3847808803462
 20
103.3507990013761
 30
0.0
 11
373.3847808803462
 21
103.8507990013761
 31
0.0
  0
LINE
  5
DBF1
330
1F
100
AcDbEntity
  8
AM_2
 48
0.5
100
AcDbLine
 10
374.3847808803462
 20
102.3507990013761
 30
0.0
 11
374.8847808803462
 21
102.3507990013761
 31
0.0
  0
LINE
  5
DBF2
330
1F
100
AcDbEntity
  8
AM_2
 48
0.5
100
AcDbLine
 10
374.3847808803462
 20
101.3507990013761
 30
0.0
 11
374.8847808803462
 21
101.3507990013761
 31
0.0
  0
LINE
  5
DBF3
330
1F
100
AcDbEntity
  8
AM_7
 48
0.5
100
AcDbLine
 10
469.9223937953843
 20
245.8507990013761
 30
0.0
 11
479.3841628993882
 21
245.8507990013761
 31
0.0
  0
LINE
  5
DBF4
330
1F
100
AcDbEntity
  8
AM_7
 48
0.5
100
AcDbLine
 10
474.6847858394512
 20
240.9423822533361
 30
0.0
 11
474.6847858394512
 21
250.9823679100659
 31
0.0
  0
LINE
  5
DBF5
330
1F
100
AcDbEntity
  8
AM_2
 48
0.5
100
AcDbLine
 10
475.1847858394512
 20
243.8507990013761
 30
0.0
 11
475.1847858394512
 21
244.3507990013761
 31
0.0
  0
LINE
  5
DBF6
330
1F
100
AcDbEntity
  8
AM_2
 48
0.5
100
AcDbLine
 10
474.1847858394512
 20
243.8507990013761
 30
0.0
 11
474.1847858394512
 21
244.3507990013761
 31
0.0
  0
LINE
  5
DBF7
330
1F
100
AcDbEntity
  8
AM_2
 48
0.5
100
AcDbLine
 10
472.6847858394513
 20
246.3507990013761
 30
0.0
 11
473.1847858394512
 21
246.3507990013761
 31
0.0
  0
LINE
  5
DBF8
330
1F
100
AcDbEntity
  8
AM_2
 48
0.5
100
AcDbLine
 10
472.6847858394513
 20
245.3507990013761
 30
0.0
 11
473.1847858394512
 21
245.3507990013761
 31
0.0
  0
LINE
  5
DBF9
330
1F
100
AcDbEntity
  8
AM_2
 48
0.5
100
AcDbLine
 10
472.6847858394513
 20
245.3507990013761
 30
0.0
 11
472.6847858394513
 21
246.3507990013761
 31
0.0
  0
LINE
  5
DBFA
330
1F
100
AcDbEntity
  8
AM_2
 48
0.5
100
AcDbLine
 10
476.6847858394512
 20
245.3507990013761
 30
0.0
 11
476.6847858394512
 21
246.3507990013761
 31
0.0
  0
LINE
  5
DBFB
330
1F
100
AcDbEntity
  8
AM_2
 48
0.5
100
AcDbLine
 10
474.1847858394512
 20
243.8507990013761
 30
0.0
 11
475.1847858394512
 21
243.8507990013761
 31
0.0
  0
LINE
  5
DBFC
330
1F
100
AcDbEntity
  8
AM_2
 48
0.5
100
AcDbLine
 10
474.1847858394512
 20
247.8507990013761
 30
0.0
 11
475.1847858394512
 21
247.8507990013761
 31
0.0
  0
LINE
  5
DBFD
330
1F
100
AcDbEntity
  8
AM_2
 48
0.5
100
AcDbLine
 10
474.1847858394512
 20
247.3507990013761
 30
0.0
 11
474.1847858394512
 21
247.8507990013761
 31
0.0
  0
LINE
  5
DBFE
330
1F
100
AcDbEntity
  8
AM_2
 48
0.5
100
AcDbLine
 10
475.1847858394512
 20
247.3507990013761
 30
0.0
 11
475.1847858394512
 21
247.8507990013761
 31
0.0
  0
LINE
  5
DBFF
330
1F
100
AcDbEntity
  8
AM_2
 48
0.5
100
AcDbLine
 10
476.1847858394512
 20
246.3507990013761
 30
0.0
 11
476.6847858394512
 21
246.3507990013761
 31
0.0
  0
LINE
  5
DC00
330
1F
100
AcDbEntity
  8
AM_2
 48
0.5
100
AcDbLine
 10
476.1847858394512
 20
245.3507990013761
 30
0.0
 11
476.6847858394512
 21
245.3507990013761
 31
0.0
  0
LINE
  5
DC0A
330
1F
100
AcDbEntity
  8
AM_0
 48
0.5
100
AcDbLine
 10
212.5282028632321
 20
164.3507837425841
 30
0.0
 11
198.5282028632321
 21
164.3507837425841
 31
0.0
  0
CIRCLE
  5
DC9C
330
1F
100
AcDbEntity
  8
AM_0
100
AcDbCircle
 10
467.6847858394512
 20
256.8507990013761
 30
0.0
 40
5.5
  0
ARC
  5
DC9D
330
1F
100
AcDbEntity
  8
AM_0
 48
0.5
100
AcDbCircle
 10
418.6847839321042
 20
321.0507959496169
 30
0.0
 40
2.5499999523163
100
AcDbArc
 50
359.9999974955182
 51
180.0000025044817
  0
ARC
  5
DC9E
330
1F
100
AcDbEntity
  8
AM_0
 48
0.5
100
AcDbCircle
 10
418.6847839321042
 20
296.050799764314
 30
0.0
 40
2.5499999523163
100
AcDbArc
 50
180.0000025044817
 51
0.0000006832429909
  0
ARC
  5
DC9F
330
1F
100
AcDbEntity
  8
AM_0
 48
0.5
100
AcDbCircle
 10
369.8847808803462
 20
211.8507990013761
 30
0.0
 40
2.5499999523163
100
AcDbArc
 50
90.0
 51
270.0000050089504
  0
ARC
  5
DCA0
330
1F
100
AcDbEntity
  8
AM_0
 48
0.5
100
AcDbCircle
 10
372.8847808803462
 20
211.8507990013761
 30
0.0
 40
2.5499999523163
100
AcDbArc
 50
269.9999913485721
 51
90.00001001791391
  0
CIRCLE
  5
DCA2
330
1F
100
AcDbEntity
  8
AM_0
 48
0.5
100
AcDbCircle
 10
470.1847858394512
 20
156.8507990013761
 30
0.0
 40
2.599999904632599
  0
ARC
  5
DCA3
330
1F
100
AcDbEntity
  8
AM_0
 48
0.5
100
AcDbCircle
 10
418.6847839321042
 20
128.8507990013761
 30
0.0
 40
2.5499999523163
100
AcDbArc
 50
359.9999974955182
 51
180.0000025044817
  0
ARC
  5
DCA4
330
1F
100
AcDbEntity
  8
AM_0
 48
0.5
100
AcDbCircle
 10
418.6847839321042
 20
103.8507990013761
 30
0.0
 40
2.5499999523163
100
AcDbArc
 50
180.0000025044817
 51
0.0000006832429909
  0
ARC
  5
DCA5
330
1F
100
AcDbEntity
  8
AM_2
 48
0.5
100
AcDbCircle
 10
443.1847839321042
 20
267.350799001375
 30
0.0
 40
1.0
100
AcDbArc
 50
359.9999974955182
 51
90.0
  0
ARC
  5
DCA6
330
1F
100
AcDbEntity
  8
AM_2
 48
0.5
100
AcDbCircle
 10
446.1847839321032
 20
267.350799001375
 30
0.0
 40
1.0
100
AcDbArc
 50
90.0
 51
180.0000025044817
  0
ARC
  5
DCA7
330
1F
100
AcDbEntity
  8
AM_2
 48
0.5
100
AcDbCircle
 10
446.1847839321032
 20
270.350799001375
 30
0.0
 40
1.0
100
AcDbArc
 50
180.0000025044817
 51
270.0000050089504
  0
ARC
  5
DCA8
330
1F
100
AcDbEntity
  8
AM_2
 48
0.5
100
AcDbCircle
 10
443.1847839321042
 20
270.350799001375
 30
0.0
 40
1.0
100
AcDbArc
 50
269.9999913485721
 51
0.0000006832429909
  0
ARC
  5
DCA9
330
1F
100
AcDbEntity
  8
AM_2
 48
0.5
100
AcDbCircle
 10
457.1847858394519
 20
132.3507990013761
 30
0.0
 40
1.0
100
AcDbArc
 50
359.9999974955182
 51
90.0
  0
ARC
  5
DCAA
330
1F
100
AcDbEntity
  8
AM_2
 48
0.5
100
AcDbCircle
 10
460.1847858394519
 20
132.3507990013761
 30
0.0
 40
1.0
100
AcDbArc
 50
90.0
 51
180.0000025044817
  0
ARC
  5
DCAB
330
1F
100
AcDbEntity
  8
AM_2
 48
0.5
100
AcDbCircle
 10
460.1847858394519
 20
135.3507990013761
 30
0.0
 40
1.0
100
AcDbArc
 50
180.0000025044817
 51
270.0000050089504
  0
ARC
  5
DCAC
330
1F
100
AcDbEntity
  8
AM_2
 48
0.5
100
AcDbCircle
 10
457.1847858394519
 20
135.3507990013761
 30
0.0
 40
1.0
100
AcDbArc
 50
269.9999913485721
 51
0.0000006832429909
  0
ARC
  5
DCAD
330
1F
100
AcDbEntity
  8
AM_2
 48
0.5
100
AcDbCircle
 10
373.3847808803462
 20
301.350799001375
 30
0.0
 40
1.0
100
AcDbArc
 50
359.9999974955182
 51
90.0
  0
ARC
  5
DCAE
330
1F
100
AcDbEntity
  8
AM_2
 48
0.5
100
AcDbCircle
 10
376.3847808803462
 20
301.350799001375
 30
0.0
 40
1.0
100
AcDbArc
 50
90.0
 51
180.0000025044817
  0
ARC
  5
DCAF
330
1F
100
AcDbEntity
  8
AM_2
 48
0.5
100
AcDbCircle
 10
376.3847808803462
 20
304.350799001375
 30
0.0
 40
1.0
100
AcDbArc
 50
180.0000025044817
 51
270.0000050089504
  0
ARC
  5
DCB0
330
1F
100
AcDbEntity
  8
AM_2
 48
0.5
100
AcDbCircle
 10
373.3847808803462
 20
304.350799001375
 30
0.0
 40
1.0
100
AcDbArc
 50
269.9999913485721
 51
0.0000006832429909
  0
ARC
  5
DCB1
330
1F
100
AcDbEntity
  8
AM_2
 48
0.5
100
AcDbCircle
 10
371.3847808803462
 20
100.3507990013761
 30
0.0
 40
1.0
100
AcDbArc
 50
359.9999974955182
 51
90.0
  0
ARC
  5
DCB2
330
1F
100
AcDbEntity
  8
AM_2
 48
0.5
100
AcDbCircle
 10
374.3847808803462
 20
100.3507990013761
 30
0.0
 40
1.0
100
AcDbArc
 50
90.0
 51
180.0000025044817
  0
ARC
  5
DCB3
330
1F
100
AcDbEntity
  8
AM_2
 48
0.5
100
AcDbCircle
 10
374.3847808803462
 20
103.3507990013761
 30
0.0
 40
1.0
100
AcDbArc
 50
180.0000025044817
 51
270.0000050089504
  0
ARC
  5
DCB4
330
1F
100
AcDbEntity
  8
AM_2
 48
0.5
100
AcDbCircle
 10
371.3847808803462
 20
103.3507990013761
 30
0.0
 40
1.0
100
AcDbArc
 50
269.9999913485721
 51
0.0000006832429909
  0
ARC
  5
DCB5
330
1F
100
AcDbEntity
  8
AM_2
 48
0.5
100
AcDbCircle
 10
473.1847858394512
 20
244.3507990013761
 30
0.0
 40
1.0
100
AcDbArc
 50
359.9999974955182
 51
90.0
  0
ARC
  5
DCB6
330
1F
100
AcDbEntity
  8
AM_2
 48
0.5
100
AcDbCircle
 10
476.1847858394512
 20
244.3507990013761
 30
0.0
 40
1.0
100
AcDbArc
 50
90.0
 51
180.0000025044817
  0
ARC
  5
DCB7
330
1F
100
AcDbEntity
  8
AM_2
 48
0.5
100
AcDbCircle
 10
476.1847858394512
 20
247.3507990013761
 30
0.0
 40
1.0
100
AcDbArc
 50
180.0000025044817
 51
270.0000050089504
  0
ARC
  5
DCB8
330
1F
100
AcDbEntity
  8
AM_2
 48
0.5
100
AcDbCircle
 10
473.1847858394512
 20
247.3507990013761
 30
0.0
 40
1.0
100
AcDbArc
 50
269.9999913485721
 51
0.0000006832429909
  0
CIRCLE
  5
DCB9
330
1F
100
AcDbEntity
  8
AM_0
 48
0.5
100
AcDbCircle
 10
418.6847839321042
 20
296.050799764314
 30
0.0
 40
2.5
  0
CIRCLE
  5
DCBA
330
1F
100
AcDbEntity
  8
AM_0
 48
0.5
100
AcDbCircle
 10
418.6847839321042
 20
128.8507990013761
 30
0.0
 40
2.5
  0
CIRCLE
  5
DCBB
330
1F
100
AcDbEntity
  8
AM_0
 48
0.5
100
AcDbCircle
 10
372.8847808803462
 20
101.8507990013761
 30
0.0
 40
3.0
  0
CIRCLE
  5
DCBC
330
1F
100
AcDbEntity
  8
AM_0
 48
0.5
100
AcDbCircle
 10
458.6847858394519
 20
133.8507990013761
 30
0.0
 40
3.0
  0
CIRCLE
  5
DCBD
330
1F
100
AcDbEntity
  8
AM_0
 48
0.5
100
AcDbCircle
 10
474.6847858394512
 20
245.8507990013761
 30
0.0
 40
3.0
  0
CIRCLE
  5
DCBE
330
1F
100
AcDbEntity
  8
AM_0
 48
0.5
100
AcDbCircle
 10
444.6847839321033
 20
268.850799001375
 30
0.0
 40
3.0
  0
CIRCLE
  5
DCBF
330
1F
100
AcDbEntity
  8
AM_0
 48
0.5
100
AcDbCircle
 10
374.8847808803462
 20
302.850799001375
 30
0.0
 40
3.0
  0
MTEXT
  5
DD24
330
1F
100
AcDbEntity
  8
AM_6
100
AcDbMText
 10
199.1782029585992
 20
309.3508030936393
 30
0.0
 40
5.0
 41
0.0
 71
     4
 72
     5
  1
\T0.93;\W0.51;ＤＬ－５５
 11
0.9999999999999989
 21
-0.0000000437114036
 31
0.0
 73
     1
 44
1.0
1001
ACAD
1000
MTEXTBEGIN
1070
    73
1070
     1
1070
    44
1040
1.0
1070
    74
1070
     0
1000
MTEXTEND
  0
ARC
  5
DDE0
330
1F
100
AcDbEntity
  8
AM_0
 48
0.3
100
AcDbCircle
 10
376.6847686733143
 20
195.3507684837962
 30
0.0
 40
2.5499999523163
100
AcDbArc
 50
359.9999974955182
 51
180.0000025044817
  0
LINE
  5
DDE1
330
1F
100
AcDbEntity
  8
AM_7
 48
0.6145679473876954
100
AcDbLine
 10
382.8304481471912
 20
195.3507684837962
 30
0.0
 11
370.5390891994373
 21
195.3507684837962
 31
0.0
  0
LINE
  5
DDE2
330
1F
100
AcDbEntity
  8
AM_7
100
AcDbLine
 10
376.6847686733143
 20
165.3480164408254
 30
0.0
 11
376.6847686733143
 21
201.7112535607
 31
0.0
  0
LINE
  5
DDE3
330
1F
100
AcDbEntity
  8
AM_0
100
AcDbLine
 10
379.2347564662841
 20
170.3507685142074
 30
0.0
 11
379.2347564662841
 21
195.3507684837962
 31
0.0
  0
LINE
  5
DDE4
330
1F
100
AcDbEntity
  8
AM_0
100
AcDbLine
 10
374.1347656215642
 20
170.3507684837989
 30
0.0
 11
374.1347656215642
 21
195.3507684837962
 31
0.0
  0
ARC
  5
DDE5
330
1F
100
AcDbEntity
  8
AM_0
 48
0.3
100
AcDbCircle
 10
376.6847686733143
 20
170.3507684837989
 30
0.0
 40
2.5499999523163
100
AcDbArc
 50
180.0000025044817
 51
0.0000006832429909
  0
LINE
  5
DDE6
330
1F
100
AcDbEntity
  8
AM_7
 48
0.6145679473876954
100
AcDbLine
 10
382.8304481471912
 20
170.3507684837961
 30
0.0
 11
370.5390891994373
 21
170.3507684837961
 31
0.0
  0
ARC
  5
DDE7
330
1F
100
AcDbEntity
  8
AM_0
 48
0.5
100
AcDbCircle
 10
427.6848157406966
 20
256.8508295189442
 30
0.0
 40
18.0
100
AcDbArc
 50
67.11461961033326
 51
112.8853803896667
  0
LINE
  5
DDE8
330
1F
100
AcDbEntity
  8
AM_0
 48
0.5
100
AcDbLine
 10
434.6848157406966
 20
272.3427652489231
 30
0.0
 11
434.6848157406966
 21
273.4339517723611
 31
0.0
  0
LINE
  5
DDE9
330
1F
100
AcDbEntity
  8
AM_0
 48
0.5
100
AcDbLine
 10
420.6848157406966
 20
272.3427652489231
 30
0.0
 11
420.6848157406966
 21
273.4339517723611
 31
0.0
  0
ARC
  5
DDEA
330
1F
100
AcDbEntity
  8
AM_0
100
AcDbCircle
 10
427.6848157406966
 20
256.8508295189442
 30
0.0
 40
17.0
100
AcDbArc
 50
114.3157398226241
 51
245.6842583561442
  0
LINE
  5
DDEB
330
1F
100
AcDbEntity
  8
AM_0
 48
0.5
100
AcDbLine
 10
420.6848157406966
 20
240.267707265534
 30
0.0
 11
420.6848157406966
 21
241.3588937889642
 31
0.0
  0
ARC
  5
DDEC
330
1F
100
AcDbEntity
  8
AM_0
 48
0.5
100
AcDbCircle
 10
427.6848157406966
 20
256.8508295189442
 30
0.0
 40
18.0
100
AcDbArc
 50
247.1146229117538
 51
292.8853871061684
  0
LINE
  5
DDED
330
1F
100
AcDbEntity
  8
AM_0
 48
0.5
100
AcDbLine
 10
434.6848157406966
 20
240.267707265534
 30
0.0
 11
434.6848157406966
 21
241.3588937889642
 31
0.0
  0
ARC
  5
DDEE
330
1F
100
AcDbEntity
  8
AM_0
100
AcDbCircle
 10
427.6848157406966
 20
256.8508295189442
 30
0.0
 40
17.0
100
AcDbArc
 50
294.3157416438558
 51
65.6842601773759
  0
CIRCLE
  5
DDEF
330
1F
100
AcDbEntity
  8
AM_0
 48
0.5
100
AcDbCircle
 10
376.6847686733143
 20
170.3507684837961
 30
0.0
 40
2.5
  0
LINE
  5
DDF0
330
1F
100
AcDbEntity
  8
AM_7
 48
0.6145679473876954
100
AcDbLine
 10
424.8304634059811
 20
128.8507990013729
 30
0.0
 11
412.5391044582272
 21
128.8507990013729
 31
0.0
  0
LINE
  5
DDF1
330
1F
100
AcDbEntity
  8
AM_7
100
AcDbLine
 10
418.6847839321042
 20
98.84804695840216
 30
0.0
 11
418.6847839321042
 21
135.2112840782772
 31
0.0
  0
LINE
  5
DDF2
330
1F
100
AcDbEntity
  8
AM_7
 48
0.6145679473876954
100
AcDbLine
 10
424.8304634059811
 20
103.8507990013729
 30
0.0
 11
412.5391044582272
 21
103.8507990013729
 31
0.0
  0
CIRCLE
  5
DDF3
330
1F
100
AcDbEntity
  8
AM_0
 48
0.5
100
AcDbCircle
 10
377.6847858394542
 20
223.850800908725
 30
0.0
 40
3.0499999523163
  0
LINE
  5
DDF4
330
1F
100
AcDbEntity
  8
AM_7
 48
0.5
100
AcDbLine
 10
377.6847858394542
 20
229.7595304619481
 30
0.0
 11
377.6847858394542
 21
217.9420713555021
 31
0.0
  0
LINE
  5
DDF5
330
1F
100
AcDbEntity
  8
AM_7
 48
0.5
100
AcDbLine
 10
383.5935153926771
 20
223.850800908725
 30
0.0
 11
371.7760562862313
 21
223.850800908725
 31
0.0
  0
LINE
  5
E30B
330
1F
100
AcDbEntity
  8
AM_2
 48
0.5
100
AcDbLine
 10
378.2162914241713
 20
221.850800908725
 30
0.0
 11
378.2162914241713
 21
222.350800908725
 31
0.0
  0
LINE
  5
E30C
330
1F
100
AcDbEntity
  8
AM_2
 48
0.5
100
AcDbLine
 10
377.2162914241712
 20
221.850800908725
 30
0.0
 11
377.2162914241712
 21
222.350800908725
 31
0.0
  0
LINE
  5
E30D
330
1F
100
AcDbEntity
  8
AM_2
 48
0.5
100
AcDbLine
 10
375.7162914241712
 20
224.350800908725
 30
0.0
 11
376.2162914241713
 21
224.350800908725
 31
0.0
  0
LINE
  5
E30E
330
1F
100
AcDbEntity
  8
AM_2
 48
0.5
100
AcDbLine
 10
375.7162914241712
 20
223.350800908725
 30
0.0
 11
376.2162914241713
 21
223.350800908725
 31
0.0
  0
LINE
  5
E30F
330
1F
100
AcDbEntity
  8
AM_2
 48
0.5
100
AcDbLine
 10
375.7162914241712
 20
223.350800908725
 30
0.0
 11
375.7162914241712
 21
224.350800908725
 31
0.0
  0
LINE
  5
E310
330
1F
100
AcDbEntity
  8
AM_2
 48
0.5
100
AcDbLine
 10
379.7162914241712
 20
223.350800908725
 30
0.0
 11
379.7162914241712
 21
224.350800908725
 31
0.0
  0
LINE
  5
E311
330
1F
100
AcDbEntity
  8
AM_2
 48
0.5
100
AcDbLine
 10
377.2162914241712
 20
221.850800908725
 30
0.0
 11
378.2162914241713
 21
221.850800908725
 31
0.0
  0
LINE
  5
E312
330
1F
100
AcDbEntity
  8
AM_2
 48
0.5
100
AcDbLine
 10
377.2162914241712
 20
225.850800908725
 30
0.0
 11
378.2162914241713
 21
225.850800908725
 31
0.0
  0
LINE
  5
E313
330
1F
100
AcDbEntity
  8
AM_2
 48
0.5
100
AcDbLine
 10
377.2162914241712
 20
225.350800908725
 30
0.0
 11
377.2162914241712
 21
225.850800908725
 31
0.0
  0
LINE
  5
E314
330
1F
100
AcDbEntity
  8
AM_2
 48
0.5
100
AcDbLine
 10
378.2162914241713
 20
225.350800908725
 30
0.0
 11
378.2162914241713
 21
225.850800908725
 31
0.0
  0
LINE
  5
E315
330
1F
100
AcDbEntity
  8
AM_2
 48
0.5
100
AcDbLine
 10
379.2162914241712
 20
224.350800908725
 30
0.0
 11
379.7162914241712
 21
224.350800908725
 31
0.0
  0
LINE
  5
E316
330
1F
100
AcDbEntity
  8
AM_2
 48
0.5
100
AcDbLine
 10
379.2162914241712
 20
223.350800908725
 30
0.0
 11
379.7162914241712
 21
223.350800908725
 31
0.0
  0
ARC
  5
E317
330
1F
100
AcDbEntity
  8
AM_2
 48
0.5
100
AcDbCircle
 10
376.2162914241713
 20
222.350800908725
 30
0.0
 40
1.0
100
AcDbArc
 50
359.9999974955182
 51
90.0
  0
ARC
  5
E318
330
1F
100
AcDbEntity
  8
AM_2
 48
0.5
100
AcDbCircle
 10
379.2162914241712
 20
222.350800908725
 30
0.0
 40
1.0
100
AcDbArc
 50
90.0
 51
180.0000025044817
  0
ARC
  5
E319
330
1F
100
AcDbEntity
  8
AM_2
 48
0.5
100
AcDbCircle
 10
379.2162914241712
 20
225.350800908725
 30
0.0
 40
1.0
100
AcDbArc
 50
180.0000025044817
 51
270.0000050089504
  0
ARC
  5
E31A
330
1F
100
AcDbEntity
  8
AM_2
 48
0.5
100
AcDbCircle
 10
376.2162914241713
 20
225.350800908725
 30
0.0
 40
1.0
100
AcDbArc
 50
269.9999913485721
 51
0.0000006832429909
  0
LINE
  5
E322
330
1F
100
AcDbEntity
  8
AM_0
 48
0.5
100
AcDbLine
 10
486.0847854579822
 20
38.60000610351472
 30
0.0
 11
486.0847854579822
 21
18.3999994059277
 31
0.0
  0
LINE
  5
E4B9
330
1F
100
AcDbEntity
  8
AM_0
 48
0.5
100
AcDbLine
 10
431.6848157406966
 20
346.0508295189442
 30
0.0
 11
423.6848157406966
 21
346.0508295189442
 31
0.0
  0
LINE
  5
E4BC
330
1F
100
AcDbEntity
  8
AM_0
 48
0.5
100
AcDbLine
 10
433.6848119259987
 20
345.0508295189442
 30
0.0
 11
421.6848157406968
 21
345.0508295189442
 31
0.0
  0
LINE
  5
E4BD
330
1F
100
AcDbEntity
  8
AM_0
 48
0.5
100
AcDbLine
 10
423.6848157406966
 20
346.0508257042471
 30
0.0
 11
421.6848157406968
 21
345.0508257042471
 31
0.0
  0
LINE
  5
E4BE
330
1F
100
AcDbEntity
  8
AM_0
 48
0.5
100
AcDbLine
 10
431.6848081113016
 20
346.0508333336421
 30
0.0
 11
433.6848119259987
 21
345.0508333336421
 31
0.0
  0
LINE
  5
E4C6
330
1F
100
AcDbEntity
  8
AM_0
 48
0.5
100
AcDbLine
 10
432.5582097531476
 20
342.0508295189442
 30
0.0
 11
422.8114179135475
 21
342.0508295189442
 31
0.0
  0
LINE
  5
E4C7
330
1F
100
AcDbEntity
  8
AM_0
 48
0.5
100
AcDbLine
 10
432.5582097531476
 20
338.5508295189442
 30
0.0
 11
422.8114179135475
 21
338.5508295189442
 31
0.0
  0
LINE
  5
E4C8
330
1F
100
AcDbEntity
  8
AM_0
100
AcDbLine
 10
421.6848157406968
 20
345.0508295189442
 30
0.0
 11
421.6848157406968
 21
336.8508295189443
 31
0.0
  0
LINE
  5
E4C9
330
1F
100
AcDbEntity
  8
AM_0
100
AcDbLine
 10
433.6848119259987
 20
345.0508295189442
 30
0.0
 11
433.6848119259987
 21
336.8508295189443
 31
0.0
  0
LINE
  5
E4E4
330
1F
100
AcDbEntity
  8
AM_0
 48
0.5
100
AcDbLine
 10
422.8114179135475
 20
342.0508295189442
 30
0.0
 11
422.8114179135475
 21
338.5508295189442
 31
0.0
  0
LINE
  5
E4E5
330
1F
100
AcDbEntity
  8
AM_0
 48
0.5
100
AcDbLine
 10
432.5582097531476
 20
342.0508295189442
 30
0.0
 11
432.5582097531476
 21
338.5508295189442
 31
0.0
  0
CIRCLE
  5
E4E6
330
1F
100
AcDbEntity
  8
AM_0
100
AcDbCircle
 10
427.684814449683
 20
28.49999938804035
 30
0.0
 40
6.0
  0
CIRCLE
  5
E4E7
330
1F
100
AcDbEntity
  8
AM_0
 48
0.5
100
AcDbCircle
 10
427.684814449683
 20
28.49999938804035
 30
0.0
 40
4.0
  0
LINE
  5
E505
330
1F
100
AcDbEntity
  8
AM_0
 48
0.5
100
AcDbLine
 10
431.6848157406966
 20
77.65082951894422
 30
0.0
 11
423.6848157406966
 21
77.65082951894422
 31
0.0
  0
LINE
  5
E508
330
1F
100
AcDbEntity
  8
AM_0
 48
0.5
100
AcDbLine
 10
433.6848119259987
 20
78.65082951894422
 30
0.0
 11
421.6848157406968
 21
78.65082951894422
 31
0.0
  0
LINE
  5
E509
330
1F
100
AcDbEntity
  8
AM_0
 48
0.5
100
AcDbLine
 10
423.6848157406966
 20
77.65083333364126
 30
0.0
 11
421.6848157406968
 21
78.65083333364125
 31
0.0
  0
LINE
  5
E50A
330
1F
100
AcDbEntity
  8
AM_0
 48
0.5
100
AcDbLine
 10
431.6848081113016
 20
77.65082570424628
 30
0.0
 11
433.6848119259987
 21
78.65082570424627
 31
0.0
  0
LINE
  5
E512
330
1F
100
AcDbEntity
  8
AM_0
 48
0.5
100
AcDbLine
 10
432.5582097531476
 20
81.65082951894422
 30
0.0
 11
422.8114179135475
 21
81.65082951894422
 31
0.0
  0
LINE
  5
E513
330
1F
100
AcDbEntity
  8
AM_0
 48
0.5
100
AcDbLine
 10
432.5582097531476
 20
85.15082951894422
 30
0.0
 11
422.8114179135475
 21
85.15082951894422
 31
0.0
  0
LINE
  5
E514
330
1F
100
AcDbEntity
  8
AM_0
100
AcDbLine
 10
421.6848157406968
 20
78.65082951894422
 30
0.0
 11
421.6848157406968
 21
86.85082951894425
 31
0.0
  0
LINE
  5
E515
330
1F
100
AcDbEntity
  8
AM_0
100
AcDbLine
 10
433.6848119259987
 20
78.65082951894422
 30
0.0
 11
433.6848119259987
 21
86.85082951894425
 31
0.0
  0
LINE
  5
E516
330
1F
100
AcDbEntity
  8
AM_0
 48
0.5
100
AcDbLine
 10
422.8114179135475
 20
81.65082951894422
 30
0.0
 11
422.8114179135475
 21
85.15082951894422
 31
0.0
  0
LINE
  5
E517
330
1F
100
AcDbEntity
  8
AM_0
 48
0.5
100
AcDbLine
 10
432.5582097531476
 20
81.65082951894422
 30
0.0
 11
432.5582097531476
 21
85.15082951894422
 31
0.0
  0
LINE
  5
E5BE
330
1F
100
AcDbEntity
  8
AM_0
100
AcDbLine
 10
24.80586943993762
 20
352.4167950864582
 30
0.0
 11
101.9149390510897
 21
352.4167950864585
 31
0.0
  0
ENDSEC
  0
SECTION
  2
OBJECTS
  0
DICTIONARY
  5
C
330
0
100
AcDbDictionary
281
     1
  3
ACAD_2007HEADERVARS_RT
350
E5E0
  3
ACAD_COLOR
350
B55C
  3
ACAD_GROUP
350
D
  3
ACAD_LAYOUT
350
1A
  3
ACAD_MATERIAL
350
B55B
  3
ACAD_MLINESTYLE
350
17
  3
ACAD_PLOTSETTINGS
350
19
  3
ACAD_PLOTSTYLENAME
350
E
  3
ACAD_TABLESTYLE
350
B55D
  3
ACAD_VISUALSTYLE
350
E587
  3
AcAsAppObject
350
3DA1
  3
ACASGREF_MASTER
350
3DE9
  3
AcDbVariableDictionary
350
34
  3
AcmDictionary
350
47
  3
AD_GREF_MODULE
350
3DEA
  3
AD_MAPI_MODULE
350
3E06
  3
AMG
350
2B
  3
AMGSNAPSETTINGS
350
7D
  3
ASE_INDEX_DICTIONARY
350
9F48
  3
DWGPROPS
350
E5DF
  3
MAPISURF_MODULE
350
3DEB
  0
DICTIONARY
  5
3F95
330
2
100
AcDbDictionary
280
     1
281
     1
  3
ACAD_LAYERFILTERS
360
3F98
  3
ACAD_LAYERSTATES
360
3F96
  0
DICTIONARY
  5
8A
330
1F
100
AcDbDictionary
280
     1
281
     1
  3
ACAD_SORTENTS
360
B61B
  0
DICTIONARY
  5
E5E0
102
{ACAD_REACTORS
330
C
102
}
330
C
100
AcDbDictionary
281
     1
  3
DIMARCSYM
350
E5E1
  0
DICTIONARY
  5
B55C
102
{ACAD_REACTORS
330
C
102
}
330
C
100
AcDbDictionary
281
     1
  0
DICTIONARY
  5
D
102
{ACAD_REACTORS
330
C
102
}
330
C
100
AcDbDictionary
281
     1
  0
DICTIONARY
  5
1A
102
{ACAD_REACTORS
330
C
102
}
330
C
100
AcDbDictionary
281
     1
  3
Model
350
22
  3
ﾚｲｱｳﾄ1
350
1E
  3
ﾚｲｱｳﾄ2
350
26
  0
DICTIONARY
  5
B55B
102
{ACAD_REACTORS
330
C
102
}
330
C
100
AcDbDictionary
281
     1
  3
ByBlock
350
E585
  3
ByLayer
350
E584
  3
Global
350
E586
  0
DICTIONARY
  5
17
102
{ACAD_REACTORS
330
C
102
}
330
C
100
AcDbDictionary
281
     1
  3
Standard
350
18
  0
DICTIONARY
  5
19
102
{ACAD_REACTORS
330
C
102
}
330
C
100
AcDbDictionary
281
     1
  3
01   A1　１：１
350
993D
  3
02   A2　１：１
350
993C
  3
03   A3　１：１
350
993B
  3
04   A4  １：１
350
993E
  3
05   A1 自動調整
350
99EF
  3
06   A2 自動調整
350
99F0
  3
07   A3 自動調整
350
99F1
  3
08   A4 自動調整
350
99F2
  3
09   A1をA3に
350
9985
  3
10   A2をA3に
350
99D9
  3
11　レーザー　A3　自動調整
350
A0DD
  0
ACDBDICTIONARYWDFLT
  5
E
102
{ACAD_REACTORS
330
C
102
}
330
C
100
AcDbDictionary
281
     1
  3
Normal
350
F
100
AcDbDictionaryWithDefault
340
F
  0
DICTIONARY
  5
B55D
102
{ACAD_REACTORS
330
C
102
}
330
C
100
AcDbDictionary
281
     1
  3
Standard
350
B55E
  0
DICTIONARY
  5
E587
102
{ACAD_REACTORS
330
C
102
}
330
C
100
AcDbDictionary
281
     1
  3
2dWireframe
350
E58D
  3
3D Hidden
350
E58F
  3
3dWireframe
350
E58E
  3
Basic
350
E58C
  3
Brighten
350
E593
  3
ColorChange
350
E597
  3
Conceptual
350
E590
  3
Dim
350
E592
  3
Facepattern
350
E596
  3
Flat
350
E588
  3
FlatWithEdges
350
E589
  3
Gouraud
350
E58A
  3
GouraudWithEdges
350
E58B
  3
Linepattern
350
E595
  3
Realistic
350
E591
  3
Thicken
350
E594
  0
ACAD_PROXY_OBJECT
  5
3DA1
102
{ACAD_REACTORS
330
C
102
}
330
C
100
AcDbProxyObject
 90
      499
 91
      576
 95
   851991
 70
     0
 93
       10
310
407F
 94
        0
1001
ACAD
1000
AcRTDxfName
1000
ASAPP
  0
ACAD_PROXY_OBJECT
  5
3DE9
102
{ACAD_REACTORS
330
C
102
}
330
C
100
AcDbProxyObject
 90
      499
 91
      581
 95
   851991
 70
     0
 93
       34
310
010000407F
 94
        0
1001
ACAD
1000
AcRTDxfName
1000
ACASGREFMASTER
  0
DICTIONARY
  5
34
102
{ACAD_REACTORS
330
C
102
}
330
C
100
AcDbDictionary
281
     1
  3
CTABLESTYLE
350
B5DF
  3
DIMASSOC
350
A10C
  3
INDEXCTL
350
35
  3
SORTENTS
350
194C
  0
DICTIONARY
  5
47
102
{ACAD_REACTORS
330
C
102
}
330
C
100
AcDbDictionary
281
     1
  3
AcmBOM
350
7E8
  3
AcmStdDictionary
350
4C
  3
AMDTSECTSYM_ARROWCOLOR
350
B57D
  0
ACAD_PROXY_OBJECT
  5
3DEA
102
{ACAD_REACTORS
330
C
102
}
330
C
100
AcDbProxyObject
 90
      499
 91
      582
 95
   851991
 70
     0
 93
      114
310
00000043800000000000000000003F
 94
        0
1001
ACAD
1000
AcRTDxfName
1000
ACADGREFMODULE
  0
ACAD_PROXY_OBJECT
  5
3E06
102
{ACAD_REACTORS
330
C
102
}
330
C
100
AcDbProxyObject
 90
      499
 91
      594
 95
   851991
 70
     0
 93
       34
310
05000044FF
 94
        0
1001
ACAD
1000
AcRTDxfName
1000
MAPIADMODULE
  0
DICTIONARY
  5
2B
102
{ACAD_REACTORS
330
C
102
}
330
C
100
AcDbDictionary
281
     1
  0
DICTIONARY
  5
7D
102
{ACAD_REACTORS
330
C
102
}
330
C
100
AcDbDictionary
281
     1
  0
DICTIONARY
  5
9F48
102
{ACAD_REACTORS
330
C
102
}
330
C
100
AcDbDictionary
281
     1
  3
ASEBlockHierarchyIndexRecord
350
9F49
1001
DCO15
1040
1425739953.442
  0
XRECORD
  5
E5DF
102
{ACAD_REACTORS
330
C
102
}
330
C
100
AcDbXrecord
280
     1
  1
DWGPROPS COOKIE
  2

  3

  4

  6

  7

  8
OSK-CAD18
  9

300
AmdtFileType=84
301
=
302
=
303
=
304
=
305
=
306
=
307
=
308
=
309
=
 40
1.014513541666666
 41
2452685.85240559
 42
2454330.579990231
  1

 90
        1
  0
ACAD_PROXY_OBJECT
  5
3DEB
102
{ACAD_REACTORS
330
C
102
}
330
C
100
AcDbProxyObject
 90
      499
 91
      583
 95
   851991
 70
     0
 93
        8
310
047C
 94
        0
1001
ACAD
1000
AcRTDxfName
1000
AMDTMAPISURFMOUDULE
  0
DICTIONARY
  5
3F98
102
{ACAD_REACTORS
330
3F95
102
}
330
3F95
100
AcDbDictionary
280
     1
281
     1
  0
DICTIONARY
  5
3F96
102
{ACAD_REACTORS
330
3F95
102
}
330
3F95
100
AcDbDictionary
281
     1
  3
20011210
350
3FB7
  0
SORTENTSTABLE
  5
B61B
102
{ACAD_REACTORS
330
8A
102
}
330
8A
100
AcDbSortentsTable
330
1F
331
B6D6
  5
B7D7
331
A778
  5
A778
331
A902
  5
A902
331
A88C
  5
A88C
331
A816
  5
A816
331
A788
  5
A788
331
A7B7
  5
A7B7
331
A84D
  5
A84D
331
A8C3
  5
A8C3
331
A949
  5
A949
331
A894
  5
A894
331
A790
  5
A790
331
A855
  5
A855
331
A8CB
  5
A8CB
331
B308
  5
B5BA
331
A951
  5
A951
331
A89C
  5
A89C
331
A8D3
  5
A8D3
331
A826
  5
A826
331
A85D
  5
A85D
331
B310
  5
B61E
331
A91A
  5
A91A
331
A8A4
  5
A8A4
331
A8DB
  5
A8DB
331
A82E
  5
A82E
331
A865
  5
A865
331
CBBE
  5
CBBE
331
B8B3
  5
BA07
331
A798
  5
A798
331
A922
  5
A922
331
A8AC
  5
A8AC
331
A8E3
  5
A8E3
331
A836
  5
A836
331
A86D
  5
A86D
331
BD88
  5
BD88
331
A8B4
  5
A8B4
331
A8EB
  5
A8EB
331
A83E
  5
A83E
331
A875
  5
A875
331
BA02
  5
B30B
331
BD90
  5
BD90
331
B8EB
  5
BA08
331
A8BC
  5
A8BC
331
A846
  5
A846
331
A87D
  5
A87D
331
A8F3
  5
A8F3
331
B8FB
  5
BA09
331
A8FB
  5
A8FB
331
A885
  5
A885
331
A779
  5
A779
331
A781
  5
A781
331
A903
  5
A903
331
A88D
  5
A88D
331
A817
  5
A817
331
A789
  5
A789
331
A7B8
  5
A7B8
331
A84E
  5
A84E
331
A8C4
  5
A8C4
331
B92B
  5
BA0A
331
A94A
  5
A94A
331
A895
  5
A895
331
A791
  5
A791
331
A81F
  5
A81F
331
A856
  5
A856
331
A8CC
  5
A8CC
331
A90B
  5
A90B
331
B309
  5
B5BB
331
A952
  5
A952
331
A89D
  5
A89D
331
A8D4
  5
A8D4
331
A827
  5
A827
331
A85E
  5
A85E
331
B311
  5
B6B2
331
A91B
  5
A91B
331
A8A5
  5
A8A5
331
A8DC
  5
A8DC
331
A82F
  5
A82F
331
A866
  5
A866
331
A9CA
  5
A9CB
331
A799
  5
A799
331
A7A1
  5
A7A1
331
A923
  5
A923
331
A8AD
  5
A8AD
331
A8E4
  5
A8E4
331
A7A9
  5
A7A9
331
A837
  5
A837
331
A86E
  5
A86E
331
BD89
  5
BD89
331
B7EE
  5
BA01
331
A8B5
  5
A8B5
331
A8EC
  5
A8EC
331
A83F
  5
A83F
331
A876
  5
A876
331
BA03
  5
B30C
331
BD91
  5
BD91
331
A8BD
  5
A8BD
331
A847
  5
A847
331
A87E
  5
A87E
331
A8F4
  5
A8F4
331
BC0A
  5
BC0A
331
A8FC
  5
A8FC
331
A886
  5
A886
331
A782
  5
A782
331
A810
  5
A810
331
A88E
  5
A88E
331
A818
  5
A818
331
A78A
  5
A78A
331
A7B9
  5
A7B9
331
A84F
  5
A84F
331
A8C5
  5
A8C5
331
A904
  5
A904
331
A943
  5
A943
331
BA4B
  5
BA4B
331
A896
  5
A896
331
A820
  5
A820
331
A857
  5
A857
331
A792
  5
A792
331
A7C1
  5
A7C1
331
A8CD
  5
A8CD
331
A90C
  5
A90C
331
A94B
  5
A94B
331
B30A
  5
B5BC
331
BDA1
  5
BDA1
331
A89E
  5
A89E
331
A8D5
  5
A8D5
331
A828
  5
A828
331
A85F
  5
A85F
331
A953
  5
A953
331
B312
  5
B6D6
331
A91C
  5
A91C
331
A8A6
  5
A8A6
331
A8DD
  5
A8DD
331
A867
  5
A867
331
BDC9
  5
BDC9
331
A7A2
  5
A7A2
331
A830
  5
A830
331
B730
  5
B7D9
331
A924
  5
A924
331
A8AE
  5
A8AE
331
A8E5
  5
A8E5
331
A7AA
  5
A7AA
331
A838
  5
A838
331
A76B
  5
A76B
331
A86F
  5
A86F
331
BD8A
  5
BD8A
331
BBA3
  5
BBA3
331
A8B6
  5
A8B6
331
A8ED
  5
A8ED
331
A840
  5
A840
331
A877
  5
A877
331
BA04
  5
B30D
331
BD92
  5
BD92
331
B7FF
  5
BA02
331
BE21
  5
BE21
331
A8BE
  5
A8BE
331
A809
  5
A809
331
A87F
  5
A87F
331
A8F5
  5
A8F5
331
BD9A
  5
BD9A
331
A8FD
  5
A8FD
331
A887
  5
A887
331
A811
  5
A811
331
A783
  5
A783
331
A7B2
  5
A7B2
331
A848
  5
A848
331
A88F
  5
A88F
331
A819
  5
A819
331
A7BA
  5
A7BA
331
A850
  5
A850
331
A8C6
  5
A8C6
331
A944
  5
A944
331
A78B
  5
A78B
331
A897
  5
A897
331
A858
  5
A858
331
A8CE
  5
A8CE
331
A94C
  5
A94C
331
A793
  5
A793
331
A821
  5
A821
331
BA5C
  5
BA5C
331
A8D6
  5
A8D6
331
A954
  5
A954
331
B30B
  5
B5BD
331
A89F
  5
A89F
331
B778
  5
B7FF
331
A829
  5
A829
331
A860
  5
A860
331
B95D
  5
BA0B
331
B847
  5
BA04
331
B313
  5
B70C
331
A91D
  5
A91D
331
A8A7
  5
A8A7
331
A8DE
  5
A8DE
331
BE1A
  5
BE1A
331
A79B
  5
A79B
331
A7A3
  5
A7A3
331
A831
  5
A831
331
A868
  5
A868
331
A925
  5
A925
331
A8AF
  5
A8AF
331
A8E6
  5
A8E6
331
A839
  5
A839
331
A870
  5
A870
331
A7AB
  5
A7AB
331
A76C
  5
A76C
331
A7DA
  5
A7DA
331
BD8B
  5
BD8B
331
B6B2
  5
B7D6
331
A8B7
  5
A8B7
331
A8EE
  5
A8EE
331
A841
  5
A841
331
A878
  5
A878
331
BA05
  5
B30E
331
BD93
  5
BD93
331
BE22
  5
BE22
331
A8BF
  5
A8BF
331
A880
  5
A880
331
A8F6
  5
A8F6
331
A8FE
  5
A8FE
331
A888
  5
A888
331
A812
  5
A812
331
A7B3
  5
A7B3
331
A849
  5
A849
331
A890
  5
A890
331
A81A
  5
A81A
331
A78C
  5
A78C
331
A7BB
  5
A7BB
331
A851
  5
A851
331
A8C7
  5
A8C7
331
A945
  5
A945
331
B88F
  5
BA06
331
A898
  5
A898
331
A8CF
  5
A8CF
331
A794
  5
A794
331
A822
  5
A822
331
A859
  5
A859
331
A94D
  5
A94D
331
B30C
  5
B5BE
331
A916
  5
A916
331
A8A0
  5
A8A0
331
A82A
  5
A82A
331
A861
  5
A861
331
A8D7
  5
A8D7
331
A955
  5
A955
331
A91E
  5
A91E
331
A8DF
  5
A8DF
331
A79C
  5
A79C
331
A8A8
  5
A8A8
331
A832
  5
A832
331
A869
  5
A869
331
A926
  5
A926
331
A8B0
  5
A8B0
331
A8E7
  5
A8E7
331
A83A
  5
A83A
331
A871
  5
A871
331
A76D
  5
A76D
331
A7DB
  5
A7DB
331
B9FE
  5
B307
331
BD8C
  5
BD8C
331
A8B8
  5
A8B8
331
A8EF
  5
A8EF
331
A842
  5
A842
331
A879
  5
A879
331
A9ED
  5
A9EE
331
BA06
  5
B30F
331
BD94
  5
BD94
331
A881
  5
A881
331
A8F7
  5
A8F7
331
BD9C
  5
BD9C
331
A8FF
  5
A8FF
331
BE33
  5
BE33
331
A889
  5
A889
331
A813
  5
A813
331
A7B4
  5
A7B4
331
A84A
  5
A84A
331
A8C0
  5
A8C0
331
A891
  5
A891
331
A81B
  5
A81B
331
A78D
  5
A78D
331
A7BC
  5
A7BC
331
A8C8
  5
A8C8
331
A946
  5
A946
331
BC45
  5
BC45
331
A899
  5
A899
331
A8D0
  5
A8D0
331
A795
  5
A795
331
A823
  5
A823
331
A85A
  5
A85A
331
A94E
  5
A94E
331
B30D
  5
B5D3
331
A8A1
  5
A8A1
331
A8D8
  5
A8D8
331
A82B
  5
A82B
331
A862
  5
A862
331
A7CC
  5
A7CC
331
A91F
  5
A91F
331
BE1C
  5
BE1C
331
A79D
  5
A79D
331
A8A9
  5
A8A9
331
A8E0
  5
A8E0
331
A833
  5
A833
331
A86A
  5
A86A
331
A927
  5
A927
331
A8B1
  5
A8B1
331
A8E8
  5
A8E8
331
A83B
  5
A83B
331
A872
  5
A872
331
B9FF
  5
B308
331
BD8D
  5
BD8D
331
A8B9
  5
A8B9
331
A843
  5
A843
331
A776
  5
A776
331
A7E4
  5
A7E4
331
A87A
  5
A87A
331
A8F0
  5
A8F0
331
A9EE
  5
A9EF
331
BA07
  5
B310
331
BD95
  5
BD95
331
A93F
  5
A93F
331
A8F8
  5
A8F8
331
A882
  5
A882
331
BD9D
  5
BD9D
331
A900
  5
A900
331
A88A
  5
A88A
331
A814
  5
A814
331
A7B5
  5
A7B5
331
A84B
  5
A84B
331
A8C1
  5
A8C1
331
A947
  5
A947
331
A892
  5
A892
331
A81C
  5
A81C
331
A78E
  5
A78E
331
A7BD
  5
A7BD
331
A853
  5
A853
331
A8C9
  5
A8C9
331
B70C
  5
B7D8
331
B306
  5
B5B8
331
A94F
  5
A94F
331
A89A
  5
A89A
331
A8D1
  5
A8D1
331
A796
  5
A796
331
A824
  5
A824
331
A85B
  5
A85B
331
B30E
  5
B61C
331
A8A2
  5
A8A2
331
A8D9
  5
A8D9
331
A82C
  5
A82C
331
A863
  5
A863
331
A920
  5
A920
331
A8AA
  5
A8AA
331
A8E1
  5
A8E1
331
A7A6
  5
A7A6
331
A834
  5
A834
331
A86B
  5
A86B
331
A928
  5
A928
331
A8B2
  5
A8B2
331
A8E9
  5
A8E9
331
A83C
  5
A83C
331
A873
  5
A873
331
A9DF
  5
A9E0
331
BA00
  5
B309
331
BD8E
  5
BD8E
331
A8BA
  5
A8BA
331
A844
  5
A844
331
A777
  5
A777
331
A7E5
  5
A7E5
331
A87B
  5
A87B
331
A8F1
  5
A8F1
331
BA08
  5
B311
331
B754
  5
B7EE
331
A8F9
  5
A8F9
331
A883
  5
A883
331
BD9E
  5
BD9E
331
A901
  5
A901
331
A88B
  5
A88B
331
A815
  5
A815
331
A787
  5
A787
331
A7B6
  5
A7B6
331
A8C2
  5
A8C2
331
B823
  5
BA03
331
A948
  5
A948
331
A893
  5
A893
331
A81D
  5
A81D
331
A78F
  5
A78F
331
A7BE
  5
A7BE
331
A854
  5
A854
331
A8CA
  5
A8CA
331
B307
  5
B5B9
331
A911
  5
A911
331
A950
  5
A950
331
A89B
  5
A89B
331
A8D2
  5
A8D2
331
A797
  5
A797
331
A825
  5
A825
331
A85C
  5
A85C
331
B30F
  5
B61D
331
A8A3
  5
A8A3
331
A8DA
  5
A8DA
331
A82D
  5
A82D
331
A864
  5
A864
331
A7CE
  5
A7CE
331
BD87
  5
BD87
331
A921
  5
A921
331
A8AB
  5
A8AB
331
A8E2
  5
A8E2
331
A835
  5
A835
331
A86C
  5
A86C
331
A7D6
  5
A7D6
331
A8B3
  5
A8B3
331
A8EA
  5
A8EA
331
A83D
  5
A83D
331
A874
  5
A874
331
BA01
  5
B30A
331
B86B
  5
BA05
331
BD8F
  5
BD8F
331
A8BB
  5
A8BB
331
A845
  5
A845
331
A87C
  5
A87C
331
A8F2
  5
A8F2
331
BA09
  5
B312
331
A8FA
  5
A8FA
331
A884
  5
A884
  0
XRECORD
  5
E5E1
102
{ACAD_REACTORS
330
E5E0
102
}
330
E5E0
100
AcDbXrecord
280
     1
 70
     1
  0
LAYOUT
  5
22
102
{ACAD_XDICTIONARY
360
E5E4
102
}
102
{ACAD_REACTORS
330
1A
102
}
330
1A
100
AcDbPlotSettings
  1

  2
FX DocuWide 2050/2051
  4
A3
  6
AM_VIEW1
 40
3.174999952316284
 41
3.174999952316284
 42
3.17498779296875
 43
3.17498779296875
 44
296.989501953125
 45
419.9889831542968
 46
0.0
 47
1.29584122896199
 48
0.0
 49
0.0
140
594.0
141
420.0000000000001
142
1.0
143
1.445089120606129
 70
 11956
 72
     1
 73
     1
 74
     4
  7
monochrome.ctb
 75
     0
147
0.6919988433519998
148
0.0
149
0.0
100
AcDbLayout
  1
Model
 70
     1
 71
     0
 10
0.0
 20
0.0
 11
12.0
 21
9.0
 12
0.0
 22
0.0
 32
0.0
 14
0.0
 24
0.0
 34
0.0
 15
0.0
 25
0.0
 35
0.0
146
0.0
 13
0.0
 23
0.0
 33
0.0
 16
1.0
 26
0.0
 36
0.0
 17
0.0
 27
1.0
 37
0.0
 76
     0
330
1F
331
E582
1001
ACAD_PSEXT
1000
FX DocuWide 2050/2051
1000
FX DocuWide 2050/2051
1000
IP_192.168.2.203
1000

1070
     0
  0
LAYOUT
  5
1E
102
{ACAD_XDICTIONARY
360
E5E2
102
}
102
{ACAD_REACTORS
330
1A
102
}
330
1A
100
AcDbPlotSettings
  1

  2
\\ML370\XEROX
  4
A4
  6

 40
3.174999952316284
 41
3.174999952316284
 42
3.175003051757812
 43
3.17498779296875
 44
209.8674926757813
 45
296.6719970703125
 46
0.0
 47
0.0
 48
0.0
 49
0.0
140
0.0
141
0.0
142
1.0
143
1.0
 70
   688
 72
     1
 73
     1
 74
     5
  7
monochrome.ctb
 75
    16
147
1.0
148
0.0
149
0.0
100
AcDbLayout
  1
ﾚｲｱｳﾄ1
 70
     1
 71
     1
 10
-3.17498779296875
 20
-3.174999952316284
 11
293.4970092773438
 21
206.692492723465
 12
0.0
 22
0.0
 32
0.0
 14
1.000000000000000E+20
 24
1.000000000000000E+20
 34
1.000000000000000E+20
 15
-1.000000000000000E+20
 25
-1.000000000000000E+20
 35
-1.000000000000000E+20
146
0.0
 13
0.0
 23
0.0
 33
0.0
 16
1.0
 26
0.0
 36
0.0
 17
0.0
 27
1.0
 37
0.0
 76
     0
330
1B
  0
LAYOUT
  5
26
102
{ACAD_XDICTIONARY
360
E5E6
102
}
102
{ACAD_REACTORS
330
1A
102
}
330
1A
100
AcDbPlotSettings
  1

  2
\\ML370\XEROX
  4

  6

 40
0.0
 41
0.0
 42
0.0
 43
0.0
 44
0.0
 45
0.0
 46
0.0
 47
0.0
 48
0.0
 49
0.0
140
0.0
141
0.0
142
1.0
143
1.0
 70
   688
 72
     0
 73
     0
 74
     5
  7
monochrome.ctb
 75
    16
147
1.0
148
0.0
149
0.0
100
AcDbLayout
  1
ﾚｲｱｳﾄ2
 70
     1
 71
     2
 10
0.0
 20
0.0
 11
12.0
 21
9.0
 12
0.0
 22
0.0
 32
0.0
 14
0.0
 24
0.0
 34
0.0
 15
0.0
 25
0.0
 35
0.0
146
0.0
 13
0.0
 23
0.0
 33
0.0
 16
1.0
 26
0.0
 36
0.0
 17
0.0
 27
1.0
 37
0.0
 76
     0
330
23
  0
MATERIAL
  5
E585
102
{ACAD_XDICTIONARY
360
E602
102
}
102
{ACAD_REACTORS
330
B55B
102
}
330
B55B
100
AcDbMaterial
  1
ByBlock
  0
MATERIAL
  5
E584
102
{ACAD_XDICTIONARY
360
E600
102
}
102
{ACAD_REACTORS
330
B55B
102
}
330
B55B
100
AcDbMaterial
  1
ByLayer
  0
MATERIAL
  5
E586
102
{ACAD_XDICTIONARY
360
E604
102
}
102
{ACAD_REACTORS
330
B55B
102
}
330
B55B
100
AcDbMaterial
  1
Global
  0
MLINESTYLE
  5
18
102
{ACAD_REACTORS
330
17
102
}
330
17
100
AcDbMlineStyle
  2
STANDARD
 70
     0
  3

 62
   256
 51
90.0
 52
90.0
 71
     2
 49
0.5
 62
   256
  6
BYLAYER
 49
-0.5
 62
   256
  6
BYLAYER
  0
PLOTSETTINGS
  5
993D
102
{ACAD_XDICTIONARY
360
E5EC
102
}
102
{ACAD_REACTORS
330
19
102
}
330
19
100
AcDbPlotSettings
  1
01   A1　１：１
  2
\\ML370\Fuji Xerox BT8050(AutoCAD)
  4
User122
  6
AM_VIEW1
 40
3.174999952316284
 41
3.174999952316284
 42
3.17498779296875
 43
3.17498779296875
 44
593.7249755859375
 45
840.6129760742187
 46
145.19
 47
207.13
 48
214.3704939521119
 49
367.5855324241176
140
275.6727856380065
141
407.629191407817
142
1.0
143
1.0
 70
  1716
 72
     1
 73
     1
 74
     2
  7
monochrome.ctb
 75
    16
147
1.0
148
-538.139750291099
149
411.0980235086544
  0
PLOTSETTINGS
  5
993C
102
{ACAD_XDICTIONARY
360
E5EA
102
}
102
{ACAD_REACTORS
330
19
102
}
330
19
100
AcDbPlotSettings
  1
02   A2　１：１
  2
\\ML370\Fuji Xerox BT8050(AutoCAD)
  4
User123
  6
AM_VIEW1
 40
3.174999952316284
 41
3.174999952316284
 42
3.17498779296875
 43
3.17498779296875
 44
420.0
 45
594.0
 46
58.33
 47
83.83
 48
214.3704939521119
 49
367.5855324241176
140
275.6727856380065
141
407.629191407817
142
1.0
143
1.0
 70
  1716
 72
     1
 73
     1
 74
     2
  7
monochrome.ctb
 75
    16
147
1.0
148
-538.139750291099
149
411.0980235086544
  0
PLOTSETTINGS
  5
993B
102
{ACAD_XDICTIONARY
360
E5E8
102
}
102
{ACAD_REACTORS
330
19
102
}
330
19
100
AcDbPlotSettings
  1
03   A3　１：１
  2
\\ML370\Fuji Xerox BT8050(AutoCAD)
  4
User124
  6
AM_VIEW1
 40
3.174999952316284
 41
3.174999952316284
 42
3.17498779296875
 43
3.17498779296875
 44
297.0
 45
420.0
 46
-3.169999999999999
 47
-3.169999999999999
 48
214.3704939521119
 49
367.5855324241176
140
275.6727856380065
141
407.629191407817
142
1.0
143
1.0
 70
  1716
 72
     1
 73
     1
 74
     2
  7
monochrome.ctb
 75
    16
147
1.0
148
-538.139750291099
149
411.0980235086544
  0
PLOTSETTINGS
  5
993E
102
{ACAD_XDICTIONARY
360
E5EE
102
}
102
{ACAD_REACTORS
330
19
102
}
330
19
100
AcDbPlotSettings
  1
04   A4  １：１
  2
\\ML370\Fuji Xerox BT8050(AutoCAD)
  4
User125
  6
AM_VIEW1
 40
3.174999952316284
 41
3.174999952316284
 42
3.175003051757812
 43
3.17498779296875
 44
210.0
 45
297.0
 46
-46.68
 47
-64.67
 48
214.3704939521119
 49
367.5855324241176
140
275.6727856380065
141
407.629191407817
142
1.0
143
1.0
 70
  1716
 72
     1
 73
     1
 74
     2
  7
monochrome.ctb
 75
    16
147
1.0
148
-538.139750291099
149
411.0980235086544
  0
PLOTSETTINGS
  5
99EF
102
{ACAD_XDICTIONARY
360
E5F4
102
}
102
{ACAD_REACTORS
330
19
102
}
330
19
100
AcDbPlotSettings
  1
05   A1 自動調整
  2
\\ML370\Fuji Xerox BT8050(AutoCAD)
  4
User122
  6
AM_VIEW1
 40
3.174999952316284
 41
3.174999952316284
 42
3.17498779296875
 43
3.17498779296875
 44
593.7249755859375
 45
840.6129760742187
 46
0.0
 47
1.77
 48
214.3704939521119
 49
367.5855324241176
140
275.6727856380065
141
407.629191407817
142
1.0
143
0.7150457692181145
 70
  1716
 72
     1
 73
     1
 74
     2
  7
monochrome.ctb
 75
     0
147
1.398511875811077
148
-408.2719444961221
149
-428.6675171947154
  0
PLOTSETTINGS
  5
99F0
102
{ACAD_XDICTIONARY
360
E5F6
102
}
102
{ACAD_REACTORS
330
19
102
}
330
19
100
AcDbPlotSettings
  1
06   A2 自動調整
  2
\\ML370\Fuji Xerox BT8050(AutoCAD)
  4
User123
  6
AM_VIEW1
 40
3.174999952316284
 41
3.174999952316284
 42
3.17498779296875
 43
3.17498779296875
 44
420.0
 45
594.0
 46
0.0
 47
1.32
 48
214.3704939521119
 49
367.5855324241176
140
275.6727856380065
141
407.629191407817
142
1.0
143
1.015351112189439
 70
  1716
 72
     1
 73
     1
 74
     2
  7
monochrome.ctb
 75
     0
147
0.9848809815588451
148
-408.2719444961221
149
-428.6675171947154
  0
PLOTSETTINGS
  5
99F1
102
{ACAD_XDICTIONARY
360
E5F8
102
}
102
{ACAD_REACTORS
330
19
102
}
330
19
100
AcDbPlotSettings
  1
07   A3 自動調整
  2
\\ML370\Fuji Xerox BT8050(AutoCAD)
  4
User124
  6
AM_VIEW1
 40
3.174999952316284
 41
3.174999952316284
 42
3.17498779296875
 43
3.17498779296875
 44
297.0
 45
420.0
 46
0.0
 47
1.29
 48
214.3704939521119
 49
367.5855324241176
140
275.6727856380065
141
407.629191407817
142
1.0
143
1.445036925138428
 70
  1716
 72
     1
 73
     1
 74
     2
  7
monochrome.ctb
 75
     0
147
0.6920238387017023
148
-408.2719444961221
149
-428.6675171947154
  0
PLOTSETTINGS
  5
99F2
102
{ACAD_XDICTIONARY
360
E5FA
102
}
102
{ACAD_REACTORS
330
19
102
}
330
19
100
AcDbPlotSettings
  1
08   A4 自動調整
  2
\\ML370\Fuji Xerox BT8050(AutoCAD)
  4
User125
  6
AM_VIEW1
 40
3.174999952316284
 41
3.174999952316284
 42
3.175003051757812
 43
3.17498779296875
 44
210.0
 45
297.0
 46
0.0
 47
1.32
 48
214.3704939521119
 49
367.5855324241176
140
275.6727856380065
141
407.629191407817
142
1.0
143
2.062361925831023
 70
  1716
 72
     1
 73
     1
 74
     2
  7
monochrome.ctb
 75
     0
147
0.484880945228395
148
-408.2719444961221
149
-428.6675171947154
  0
PLOTSETTINGS
  5
9985
102
{ACAD_XDICTIONARY
360
E5F0
102
}
102
{ACAD_REACTORS
330
19
102
}
330
19
100
AcDbPlotSettings
  1
09   A1をA3に
  2
\\ML370\Fuji Xerox BT8050(AutoCAD)
  4
User124
  6
AM_VIEW1
 40
3.174999952316284
 41
3.174999952316284
 42
3.17498779296875
 43
3.17498779296875
 44
297.0
 45
420.0
 46
-3.169999999999999
 47
-3.419999999999999
 48
214.3704939521119
 49
367.5855324241176
140
275.6727856380065
141
407.629191407817
142
1.0
143
20.0
 70
  1716
 72
     1
 73
     1
 74
     2
  7
monochrome.ctb
 75
    22
147
0.05
148
-66.24202774817149
149
-81.38953477958603
  0
PLOTSETTINGS
  5
99D9
102
{ACAD_XDICTIONARY
360
E5F2
102
}
102
{ACAD_REACTORS
330
19
102
}
330
19
100
AcDbPlotSettings
  1
10   A2をA3に
  2
\\ML370\Fuji Xerox BT8050(AutoCAD)
  4
User124
  6
AM_VIEW1
 40
3.174999952316284
 41
3.174999952316284
 42
3.17498779296875
 43
3.17498779296875
 44
297.0
 45
420.0
 46
-3.189999999999999
 47
-3.22
 48
214.3704939521119
 49
367.5855324241176
140
275.6727856380065
141
407.629191407817
142
1.0
143
1.414
 70
  1700
 72
     1
 73
     1
 74
     2
  7
monochrome.ctb
 75
     0
147
0.7072135785007072
148
-408.2719444961221
149
-428.6675171947154
  0
PLOTSETTINGS
  5
A0DD
102
{ACAD_XDICTIONARY
360
E5FC
102
}
102
{ACAD_REACTORS
330
19
102
}
330
19
100
AcDbPlotSettings
  1
11　レーザー　A3　自動調整
  2
\\ML370\NX710
  4
User124
  6
AM_VIEW1
 40
3.174999952316284
 41
3.174999952316284
 42
3.17578125
 43
3.17578125
 44
25146.0
 45
35602.33203125
 46
0.0
 47
0.0
 48
214.3704939521119
 49
367.5855324241176
140
275.6727856380065
141
407.629191407817
142
1.0
143
0.0083533385120973
 70
  1712
 72
     1
 73
     1
 74
     2
  7
monochrome.ctb
 75
     0
147
119.712615327608
148
-26.69879532799951
149
-28.92730121669592
  0
ACDBPLACEHOLDER
  5
F
102
{ACAD_REACTORS
330
E
102
}
330
E
  0
TABLESTYLE
  5
B55E
102
{ACAD_XDICTIONARY
360
E5FE
102
}
102
{ACAD_REACTORS
330
B55D
102
}
330
B55D
100
AcDbTableStyle
  3
Standard
 70
     0
 71
     0
 40
1.5
 41
1.5
280
     0
281
     0
  7
STANDARD
140
4.5
170
     2
 62
     0
 63
     7
283
     0
274
    -2
284
     1
 64
     0
275
    -2
285
     1
 65
     0
276
    -2
286
     1
 66
     0
277
    -2
287
     1
 67
     0
278
    -2
288
     1
 68
     0
279
    -2
289
     1
 69
     0
  7
STANDARD
140
6.0
170
     5
 62
     0
 63
     7
283
     0
274
    -2
284
     1
 64
     0
275
    -2
285
     1
 65
     0
276
    -2
286
     1
 66
     0
277
    -2
287
     1
 67
     0
278
    -2
288
     1
 68
     0
279
    -2
289
     1
 69
     0
  7
STANDARD
140
4.5
170
     5
 62
     0
 63
     7
283
     0
274
    -2
284
     1
 64
     0
275
    -2
285
     1
 65
     0
276
    -2
286
     1
 66
     0
277
    -2
287
     1
 67
     0
278
    -2
288
     1
 68
     0
279
    -2
289
     1
 69
     0
  0
VISUALSTYLE
  5
E58D
102
{ACAD_REACTORS
330
E587
102
}
330
E587
100
AcDbVisualStyle
  2
2dWireframe
 70
     4
 71
     0
 72
     2
 73
     0
 90
        0
 40
-0.6
 41
-30.0
 62
     5
 63
     7
 74
     1
 91
        4
 64
     7
 65
   257
 75
     1
175
     1
 42
1.0
 92
        0
 66
   257
 43
1.0
 76
     1
 77
     6
 78
     2
 67
     7
 79
     5
170
     0
171
     0
290
     0
174
     0
 93
        1
 44
0.0
173
     0
291
     0
 45
0.0
1001
ACAD
1000
AcDbSavedByObjectVersion
1070
     0
  0
VISUALSTYLE
  5
E58F
102
{ACAD_REACTORS
330
E587
102
}
330
E587
100
AcDbVisualStyle
  2
3D Hidden
 70
     6
 71
     1
 72
     2
 73
     2
 90
        0
 40
-0.6
 41
-30.0
 62
     5
 63
     7
 74
     2
 91
        2
 64
     7
 65
   257
 75
     2
175
     1
 42
40.0
 92
        0
 66
   257
 43
1.0
 76
     1
 77
     6
 78
     2
 67
     7
 79
     3
170
     0
171
     0
290
     0
174
     0
 93
        1
 44
0.0
173
     0
291
     0
 45
0.0
1001
ACAD
1000
AcDbSavedByObjectVersion
1070
     0
  0
VISUALSTYLE
  5
E58E
102
{ACAD_REACTORS
330
E587
102
}
330
E587
100
AcDbVisualStyle
  2
3dWireframe
 70
     5
 71
     0
 72
     2
 73
     0
 90
        0
 40
-0.6
 41
-30.0
 62
     5
 63
     7
 74
     1
 91
        4
 64
     7
 65
   257
 75
     1
175
     1
 42
1.0
 92
        0
 66
   257
 43
1.0
 76
     1
 77
     6
 78
     2
 67
     7
 79
     5
170
     0
171
     0
290
     0
174
     0
 93
        1
 44
0.0
173
     0
291
     0
 45
0.0
1001
ACAD
1000
AcDbSavedByObjectVersion
1070
     0
  0
VISUALSTYLE
  5
E58C
102
{ACAD_REACTORS
330
E587
102
}
330
E587
100
AcDbVisualStyle
  2
Basic
 70
     7
 71
     1
 72
     0
 73
     1
 90
        0
 40
-0.6
 41
-30.0
 62
     5
 63
     7
 74
     0
 91
        4
 64
     7
 65
   257
 75
     1
175
     1
 42
1.0
 92
        8
 66
     7
 43
1.0
 76
     1
 77
     6
 78
     2
 67
     7
 79
     5
170
     0
171
     0
290
     0
174
     0
 93
        1
 44
0.0
173
     0
291
     1
 45
0.0
1001
ACAD
1000
AcDbSavedByObjectVersion
1070
     0
  0
VISUALSTYLE
  5
E593
102
{ACAD_REACTORS
330
E587
102
}
330
E587
100
AcDbVisualStyle
  2
Brighten
 70
    12
 71
     2
 72
     2
 73
     0
 90
        0
 40
-0.6
 41
-30.0
 62
     5
 63
     7
 74
     1
 91
        4
 64
     7
 65
   257
 75
     1
175
     1
 42
1.0
 92
        8
 66
     7
 43
1.0
 76
     1
 77
     6
 78
     2
 67
     7
 79
     5
170
     0
171
     0
290
     0
174
     0
 93
        1
 44
50.0
173
     0
291
     1
 45
0.0
1001
ACAD
1000
AcDbSavedByObjectVersion
1070
     0
  0
VISUALSTYLE
  5
E597
102
{ACAD_REACTORS
330
E587
102
}
330
E587
100
AcDbVisualStyle
  2
ColorChange
 70
    16
 71
     2
 72
     2
 73
     3
 90
        0
 40
-0.6
 41
-30.0
 62
     5
 63
     8
 74
     1
 91
        4
 64
     7
 65
   257
 75
     1
175
     1
 42
1.0
 92
        8
 66
     8
 43
1.0
 76
     1
 77
     6
 78
     2
 67
     7
 79
     5
170
     0
171
     0
290
     0
174
     0
 93
        1
 44
0.0
173
     0
291
     1
 45
0.0
1001
ACAD
1000
AcDbSavedByObjectVersion
1070
     0
  0
VISUALSTYLE
  5
E590
102
{ACAD_REACTORS
330
E587
102
}
330
E587
100
AcDbVisualStyle
  2
Conceptual
 70
     9
 71
     3
 72
     2
 73
     0
 90
        0
 40
-0.6
 41
-30.0
 62
     5
 63
     7
 74
     2
 91
        2
 64
     7
 65
   257
 75
     1
175
     1
 42
40.0
 92
        8
 66
     7
 43
1.0
 76
     1
 77
     6
 78
     2
 67
     7
 79
     3
170
     0
171
     0
290
     0
174
     0
 93
        1
 44
0.0
173
     0
291
     0
 45
0.0
1001
ACAD
1000
AcDbSavedByObjectVersion
1070
     0
  0
VISUALSTYLE
  5
E592
102
{ACAD_REACTORS
330
E587
102
}
330
E587
100
AcDbVisualStyle
  2
Dim
 70
    11
 71
     2
 72
     2
 73
     0
 90
        0
 40
-0.6
 41
-30.0
 62
     5
 63
     7
 74
     1
 91
        4
 64
     7
 65
   257
 75
     1
175
     1
 42
1.0
 92
        8
 66
     7
 43
1.0
 76
     1
 77
     6
 78
     2
 67
     7
 79
     5
170
     0
171
     0
290
     0
174
     0
 93
        1
 44
-50.0
173
     0
291
     1
 45
0.0
1001
ACAD
1000
AcDbSavedByObjectVersion
1070
     0
  0
VISUALSTYLE
  5
E596
102
{ACAD_REACTORS
330
E587
102
}
330
E587
100
AcDbVisualStyle
  2
Facepattern
 70
    15
 71
     2
 72
     2
 73
     0
 90
        0
 40
-0.6
 41
-30.0
 62
     5
 63
     7
 74
     1
 91
        4
 64
     7
 65
   257
 75
     1
175
     1
 42
1.0
 92
        8
 66
     7
 43
1.0
 76
     1
 77
     6
 78
     2
 67
     7
 79
     5
170
     0
171
     0
290
     0
174
     0
 93
        1
 44
0.0
173
     0
291
     1
 45
0.0
1001
ACAD
1000
AcDbSavedByObjectVersion
1070
     0
  0
VISUALSTYLE
  5
E588
102
{ACAD_REACTORS
330
E587
102
}
330
E587
100
AcDbVisualStyle
  2
Flat
 70
     0
 71
     2
 72
     1
 73
     1
 90
        2
 40
-0.6
 41
30.0
 62
     5
 63
     7
 74
     0
 91
        4
 64
     7
 65
   257
 75
     1
175
     1
 42
1.0
 92
        8
 66
     7
 43
1.0
 76
     1
 77
     6
 78
     2
 67
     7
 79
     5
170
     0
171
     0
290
     0
174
     0
 93
       13
 44
0.0
173
     0
291
     1
 45
0.0
1001
ACAD
1000
AcDbSavedByObjectVersion
1070
     0
  0
VISUALSTYLE
  5
E589
102
{ACAD_REACTORS
330
E587
102
}
330
E587
100
AcDbVisualStyle
  2
FlatWithEdges
 70
     1
 71
     2
 72
     1
 73
     1
 90
        2
 40
-0.6
 41
30.0
 62
     5
 63
     7
 74
     1
 91
        4
 64
     7
 65
   257
 75
     1
175
     1
 42
1.0
 92
        0
 66
   257
 43
1.0
 76
     1
 77
     6
 78
     2
 67
     7
 79
     5
170
     0
171
     0
290
     0
174
     0
 93
       13
 44
0.0
173
     0
291
     1
 45
0.0
1001
ACAD
1000
AcDbSavedByObjectVersion
1070
     0
  0
VISUALSTYLE
  5
E58A
102
{ACAD_REACTORS
330
E587
102
}
330
E587
100
AcDbVisualStyle
  2
Gouraud
 70
     2
 71
     2
 72
     2
 73
     1
 90
        2
 40
-0.6
 41
30.0
 62
     5
 63
     7
 74
     0
 91
        4
 64
     7
 65
   257
 75
     1
175
     1
 42
1.0
 92
        0
 66
     7
 43
1.0
 76
     1
 77
     6
 78
     2
 67
     7
 79
     5
170
     0
171
     0
290
     0
174
     0
 93
       13
 44
0.0
173
     0
291
     1
 45
0.0
1001
ACAD
1000
AcDbSavedByObjectVersion
1070
     0
  0
VISUALSTYLE
  5
E58B
102
{ACAD_REACTORS
330
E587
102
}
330
E587
100
AcDbVisualStyle
  2
GouraudWithEdges
 70
     3
 71
     2
 72
     2
 73
     1
 90
        2
 40
-0.6
 41
30.0
 62
     5
 63
     7
 74
     1
 91
        4
 64
     7
 65
   257
 75
     1
175
     1
 42
1.0
 92
        0
 66
   257
 43
1.0
 76
     1
 77
     6
 78
     2
 67
     7
 79
     5
170
     0
171
     0
290
     0
174
     0
 93
       13
 44
0.0
173
     0
291
     1
 45
0.0
1001
ACAD
1000
AcDbSavedByObjectVersion
1070
     0
  0
VISUALSTYLE
  5
E595
102
{ACAD_REACTORS
330
E587
102
}
330
E587
100
AcDbVisualStyle
  2
Linepattern
 70
    14
 71
     2
 72
     2
 73
     0
 90
        0
 40
-0.6
 41
-30.0
 62
     5
 63
     7
 74
     1
 91
        4
 64
     7
 65
   257
 75
     7
175
     7
 42
1.0
 92
        8
 66
     7
 43
1.0
 76
     1
 77
     6
 78
     2
 67
     7
 79
     5
170
     0
171
     0
290
     0
174
     0
 93
        1
 44
0.0
173
     0
291
     1
 45
0.0
1001
ACAD
1000
AcDbSavedByObjectVersion
1070
     0
  0
VISUALSTYLE
  5
E591
102
{ACAD_REACTORS
330
E587
102
}
330
E587
100
AcDbVisualStyle
  2
Realistic
 70
     8
 71
     2
 72
     2
 73
     0
 90
        0
 40
-0.6
 41
-30.0
 62
     5
 63
     7
 74
     1
 91
        0
 64
     7
 65
   257
 75
     1
175
     1
 42
1.0
 92
        8
 66
     8
 43
1.0
 76
     1
 77
     6
 78
     2
 67
     7
 79
     5
170
     0
171
     0
290
     0
174
     0
 93
       13
 44
0.0
173
     0
291
     0
 45
0.0
1001
ACAD
1000
AcDbSavedByObjectVersion
1070
     0
  0
VISUALSTYLE
  5
E594
102
{ACAD_REACTORS
330
E587
102
}
330
E587
100
AcDbVisualStyle
  2
Thicken
 70
    13
 71
     2
 72
     2
 73
     0
 90
        0
 40
-0.6
 41
-30.0
 62
     5
 63
     7
 74
     1
 91
        4
 64
     7
 65
   257
 75
     1
175
     1
 42
1.0
 92
       12
 66
     7
 43
1.0
 76
     1
 77
     6
 78
     2
 67
     7
 79
     5
170
     0
171
     0
290
     0
174
     0
 93
        1
 44
0.0
173
     0
291
     1
 45
0.0
1001
ACAD
1000
AcDbSavedByObjectVersion
1070
     0
  0
DICTIONARYVAR
  5
B5DF
102
{ACAD_REACTORS
330
34
102
}
330
34
100
DictionaryVariables
280
     0
  1
STANDARD
  0
DICTIONARYVAR
  5
A10C
102
{ACAD_REACTORS
330
34
102
}
330
34
100
DictionaryVariables
280
     0
  1
1
  0
DICTIONARYVAR
  5
35
102
{ACAD_REACTORS
330
34
102
}
330
34
100
DictionaryVariables
280
     0
  1
0
  0
DICTIONARYVAR
  5
194C
102
{ACAD_REACTORS
330
34
102
}
330
34
100
DictionaryVariables
280
     0
  1
96
  0
DICTIONARY
  5
7E8
102
{ACAD_REACTORS
330
47
102
}
330
47
100
AcDbDictionary
281
     1
  0
DICTIONARY
  5
4C
102
{ACAD_REACTORS
330
47
102
}
330
47
100
AcDbDictionary
281
     1
  0
XRECORD
  5
B57D
102
{ACAD_REACTORS
330
47
102
}
330
47
100
AcDbXrecord
280
     1
 90
-1023410169
  0
XRECORD
  5
9F49
102
{ACAD_REACTORS
330
9F48
102
}
330
9F48
100
AcDbXrecord
280
     1
330
0
330
0
330
0
330
0
330
0
330
0
330
0
330
0
  0
XRECORD
  5
3FB7
102
{ACAD_REACTORS
330
3F96
102
}
330
3F96
100
AcDbXrecord
280
     1
 91
        3
330
A47
 90
        8
 62
     7
370
    40
331
16
  1
Color_7
330
A46
 90
        0
 62
    14
370
    -3
331
16
  1
Color_14
330
3A31
 90
        8
 62
     7
370
    20
331
16
  1
Color_7
330
6D1
 90
        0
 62
     7
370
    -3
331
16
  1
Color_7
330
FA6
 90
        8
 62
     7
370
    50
331
16
  1
Color_7
330
A48
 90
        8
 62
     2
370
    35
331
16
  1
Color_2
330
FA5
 90
        8
 62
     7
370
    -3
331
16
  1
Color_7
330
10
 90
        8
 62
     7
370
    -3
331
16
  1
Color_7
  0
DICTIONARY
  5
E5E4
330
22
100
AcDbDictionary
280
     1
281
     1
  3
ACAD_XREC_ROUNDTRIP
360
E5E5
  0
DICTIONARY
  5
E5E2
330
1E
100
AcDbDictionary
280
     1
281
     1
  3
ACAD_XREC_ROUNDTRIP
360
E5E3
  0
DICTIONARY
  5
E5E6
330
26
100
AcDbDictionary
280
     1
281
     1
  3
ACAD_XREC_ROUNDTRIP
360
E5E7
  0
DICTIONARY
  5
E602
330
E585
100
AcDbDictionary
280
     1
281
     1
  3
ACAD_XREC_ROUNDTRIP
360
E603
  0
DICTIONARY
  5
E600
330
E584
100
AcDbDictionary
280
     1
281
     1
  3
ACAD_XREC_ROUNDTRIP
360
E601
  0
DICTIONARY
  5
E604
330
E586
100
AcDbDictionary
280
     1
281
     1
  3
ACAD_XREC_ROUNDTRIP
360
E605
  0
DICTIONARY
  5
E5EC
330
993D
100
AcDbDictionary
280
     1
281
     1
  3
ACAD_XREC_ROUNDTRIP
360
E5ED
  0
DICTIONARY
  5
E5EA
330
993C
100
AcDbDictionary
280
     1
281
     1
  3
ACAD_XREC_ROUNDTRIP
360
E5EB
  0
DICTIONARY
  5
E5E8
330
993B
100
AcDbDictionary
280
     1
281
     1
  3
ACAD_XREC_ROUNDTRIP
360
E5E9
  0
DICTIONARY
  5
E5EE
330
993E
100
AcDbDictionary
280
     1
281
     1
  3
ACAD_XREC_ROUNDTRIP
360
E5EF
  0
DICTIONARY
  5
E5F4
330
99EF
100
AcDbDictionary
280
     1
281
     1
  3
ACAD_XREC_ROUNDTRIP
360
E5F5
  0
DICTIONARY
  5
E5F6
330
99F0
100
AcDbDictionary
280
     1
281
     1
  3
ACAD_XREC_ROUNDTRIP
360
E5F7
  0
DICTIONARY
  5
E5F8
330
99F1
100
AcDbDictionary
280
     1
281
     1
  3
ACAD_XREC_ROUNDTRIP
360
E5F9
  0
DICTIONARY
  5
E5FA
330
99F2
100
AcDbDictionary
280
     1
281
     1
  3
ACAD_XREC_ROUNDTRIP
360
E5FB
  0
DICTIONARY
  5
E5F0
330
9985
100
AcDbDictionary
280
     1
281
     1
  3
ACAD_XREC_ROUNDTRIP
360
E5F1
  0
DICTIONARY
  5
E5F2
330
99D9
100
AcDbDictionary
280
     1
281
     1
  3
ACAD_XREC_ROUNDTRIP
360
E5F3
  0
DICTIONARY
  5
E5FC
330
A0DD
100
AcDbDictionary
280
     1
281
     1
  3
ACAD_XREC_ROUNDTRIP
360
E5FD
  0
DICTIONARY
  5
E5FE
330
B55E
100
AcDbDictionary
280
     1
281
     1
  3
ACAD_XREC_ROUNDTRIP
360
E5FF
  0
XRECORD
  5
E5E5
102
{ACAD_REACTORS
330
E5E4
102
}
330
E5E4
100
AcDbXrecord
280
     1
102
SHADEPLOT
 70
     0
102
SHADEPLOTRESLEVEL
 70
     2
102
SHADEPLOTCUSTOMDPI
 70
   300
  0
XRECORD
  5
E5E3
102
{ACAD_REACTORS
330
E5E2
102
}
330
E5E2
100
AcDbXrecord
280
     1
102
SHADEPLOT
 70
     0
102
SHADEPLOTRESLEVEL
 70
     2
102
SHADEPLOTCUSTOMDPI
 70
   300
  0
XRECORD
  5
E5E7
102
{ACAD_REACTORS
330
E5E6
102
}
330
E5E6
100
AcDbXrecord
280
     1
102
SHADEPLOT
 70
     0
102
SHADEPLOTRESLEVEL
 70
     2
102
SHADEPLOTCUSTOMDPI
 70
   300
  0
XRECORD
  5
E603
102
{ACAD_REACTORS
330
E602
102
}
330
E602
100
AcDbXrecord
280
     1
102
MATERIAL
148
0.0
149
0.0
149
0.0
 93
        0
 94
       63
282
     0
 72
     1
 77
     1
171
     1
175
     1
179
     1
273
     0
  0
XRECORD
  5
E601
102
{ACAD_REACTORS
330
E600
102
}
330
E600
100
AcDbXrecord
280
     1
102
MATERIAL
148
0.0
149
0.0
149
0.0
 93
        0
 94
       63
282
     0
 72
     1
 77
     1
171
     1
175
     1
179
     1
273
     0
  0
XRECORD
  5
E605
102
{ACAD_REACTORS
330
E604
102
}
330
E604
100
AcDbXrecord
280
     1
102
MATERIAL
148
0.0
149
0.0
149
0.0
 93
        0
 94
       63
282
     0
 72
     1
 77
     1
171
     1
175
     1
179
     1
273
     0
  0
XRECORD
  5
E5ED
102
{ACAD_REACTORS
330
E5EC
102
}
330
E5EC
100
AcDbXrecord
280
     1
102
SHADEPLOT
 70
     0
102
SHADEPLOTRESLEVEL
 70
     2
102
SHADEPLOTCUSTOMDPI
 70
   300
  0
XRECORD
  5
E5EB
102
{ACAD_REACTORS
330
E5EA
102
}
330
E5EA
100
AcDbXrecord
280
     1
102
SHADEPLOT
 70
     0
102
SHADEPLOTRESLEVEL
 70
     2
102
SHADEPLOTCUSTOMDPI
 70
   300
  0
XRECORD
  5
E5E9
102
{ACAD_REACTORS
330
E5E8
102
}
330
E5E8
100
AcDbXrecord
280
     1
102
SHADEPLOT
 70
     0
102
SHADEPLOTRESLEVEL
 70
     2
102
SHADEPLOTCUSTOMDPI
 70
   300
  0
XRECORD
  5
E5EF
102
{ACAD_REACTORS
330
E5EE
102
}
330
E5EE
100
AcDbXrecord
280
     1
102
SHADEPLOT
 70
     0
102
SHADEPLOTRESLEVEL
 70
     2
102
SHADEPLOTCUSTOMDPI
 70
   300
  0
XRECORD
  5
E5F5
102
{ACAD_REACTORS
330
E5F4
102
}
330
E5F4
100
AcDbXrecord
280
     1
102
SHADEPLOT
 70
     0
102
SHADEPLOTRESLEVEL
 70
     2
102
SHADEPLOTCUSTOMDPI
 70
   300
  0
XRECORD
  5
E5F7
102
{ACAD_REACTORS
330
E5F6
102
}
330
E5F6
100
AcDbXrecord
280
     1
102
SHADEPLOT
 70
     0
102
SHADEPLOTRESLEVEL
 70
     2
102
SHADEPLOTCUSTOMDPI
 70
   300
  0
XRECORD
  5
E5F9
102
{ACAD_REACTORS
330
E5F8
102
}
330
E5F8
100
AcDbXrecord
280
     1
102
SHADEPLOT
 70
     0
102
SHADEPLOTRESLEVEL
 70
     2
102
SHADEPLOTCUSTOMDPI
 70
   300
  0
XRECORD
  5
E5FB
102
{ACAD_REACTORS
330
E5FA
102
}
330
E5FA
100
AcDbXrecord
280
     1
102
SHADEPLOT
 70
     0
102
SHADEPLOTRESLEVEL
 70
     2
102
SHADEPLOTCUSTOMDPI
 70
   300
  0
XRECORD
  5
E5F1
102
{ACAD_REACTORS
330
E5F0
102
}
330
E5F0
100
AcDbXrecord
280
     1
102
SHADEPLOT
 70
     0
102
SHADEPLOTRESLEVEL
 70
     2
102
SHADEPLOTCUSTOMDPI
 70
   300
  0
XRECORD
  5
E5F3
102
{ACAD_REACTORS
330
E5F2
102
}
330
E5F2
100
AcDbXrecord
280
     1
102
SHADEPLOT
 70
     0
102
SHADEPLOTRESLEVEL
 70
     2
102
SHADEPLOTCUSTOMDPI
 70
   300
  0
XRECORD
  5
E5FD
102
{ACAD_REACTORS
330
E5FC
102
}
330
E5FC
100
AcDbXrecord
280
     1
102
SHADEPLOT
 70
     0
102
SHADEPLOTRESLEVEL
 70
     2
102
SHADEPLOTCUSTOMDPI
 70
   300
  0
XRECORD
  5
E5FF
102
{ACAD_REACTORS
330
E5FE
102
}
330
E5FE
100
AcDbXrecord
280
     1
102
ACAD_ROUNDTRIP_PRE2007_TABLESTYLE
 90
        4
 91
        0
  1

 92
        4
 93
        0
  2

 94
        4
 95
        0
  3

  0
ENDSEC
  0
EOF
