  0
SECTION
  2
HEADER
  9
$ACADVER
  1
AC1015
  9
$ACADMAINTVER
 70
    20
  9
$DWGCODEPAGE
  3
ANSI_932
  9
$INSBASE
 10
0.0
 20
0.0
 30
0.0
  9
$EXTMIN
 10
209.1693648837317
 20
1130.886483692677
 30
0.0
  9
$EXTMAX
 10
803.1693648837316
 20
1550.886483692677
 30
0.0
  9
$LIMMIN
 10
209.1693648837317
 20
1130.886483692677
  9
$LIMMAX
 10
803.1693648837316
 20
1550.886483692677
  9
$ORTHOMODE
 70
     0
  9
$REGENMODE
 70
     1
  9
$FILLMODE
 70
     1
  9
$QTEXTMODE
 70
     0
  9
$MIRRTEXT
 70
     0
  9
$LTSCALE
 40
1.0
  9
$ATTMODE
 70
     1
  9
$TEXTSIZE
 40
3.2
  9
$TRACEWID
 40
1.0
  9
$TEXTSTYLE
  7
STANDARD
  9
$CLAYER
  8
AM_3
  9
$CELTYPE
  6
ByLayer
  9
$CECOLOR
 62
   256
  9
$CELTSCALE
 40
1.0
  9
$DISPSILH
 70
     0
  9
$DIMSCALE
 40
1.0
  9
$DIMASZ
 40
2.5
  9
$DIMEXO
 40
1.0
  9
$DIMDLI
 40
10.0
  9
$DIMRND
 40
0.0
  9
$DIMDLE
 40
0.0
  9
$DIMEXE
 40
1.0
  9
$DIMTP
 40
0.1
  9
$DIMTM
 40
0.1
  9
$DIMTXT
 40
3.5
  9
$DIMCEN
 40
0.0
  9
$DIMTSZ
 40
0.0
  9
$DIMTOL
 70
     0
  9
$DIMLIM
 70
     0
  9
$DIMTIH
 70
     0
  9
$DIMTOH
 70
     0
  9
$DIMSE1
 70
     0
  9
$DIMSE2
 70
     0
  9
$DIMTAD
 70
     1
  9
$DIMZIN
 70
     8
  9
$DIMBLK
  1

  9
$DIMASO
 70
     1
  9
$DIMSHO
 70
     1
  9
$DIMPOST
  1

  9
$DIMAPOST
  1
"
  9
$DIMALT
 70
     0
  9
$DIMALTD
 70
     2
  9
$DIMALTF
 40
0.0393701
  9
$DIMLFAC
 40
1.0
  9
$DIMTOFL
 70
     1
  9
$DIMTVP
 40
0.0
  9
$DIMTIX
 70
     0
  9
$DIMSOXD
 70
     0
  9
$DIMSAH
 70
     0
  9
$DIMBLK1
  1

  9
$DIMBLK2
  1

  9
$DIMSTYLE
  2
SYS
  9
$DIMCLRD
 70
   256
  9
$DIMCLRE
 70
   256
  9
$DIMCLRT
 70
     7
  9
$DIMTFAC
 40
0.71
  9
$DIMGAP
 40
1.5
  9
$DIMJUST
 70
     0
  9
$DIMSD1
 70
     0
  9
$DIMSD2
 70
     0
  9
$DIMTOLJ
 70
     0
  9
$DIMTZIN
 70
     8
  9
$DIMALTZ
 70
     0
  9
$DIMALTTZ
 70
     0
  9
$DIMUPT
 70
     0
  9
$DIMDEC
 70
     0
  9
$DIMTDEC
 70
     3
  9
$DIMALTU
 70
     2
  9
$DIMALTTD
 70
     4
  9
$DIMTXSTY
  7
STANDARD
  9
$DIMAUNIT
 70
     0
  9
$DIMADEC
 70
     0
  9
$DIMALTRND
 40
0.0
  9
$DIMAZIN
 70
     2
  9
$DIMDSEP
 70
    46
  9
$DIMATFIT
 70
     3
  9
$DIMFRAC
 70
     0
  9
$DIMLDRBLK
  1

  9
$DIMLUNIT
 70
     2
  9
$DIMLWD
 70
    -1
  9
$DIMLWE
 70
    -1
  9
$DIMTMOVE
 70
     0
  9
$LUNITS
 70
     2
  9
$LUPREC
 70
     2
  9
$SKETCHINC
 40
1.0
  9
$FILLETRAD
 40
1.0
  9
$AUNITS
 70
     0
  9
$AUPREC
 70
     0
  9
$MENU
  1
.
  9
$ELEVATION
 40
0.0
  9
$PELEVATION
 40
0.0
  9
$THICKNESS
 40
0.0
  9
$LIMCHECK
 70
     0
  9
$CHAMFERA
 40
0.0
  9
$CHAMFERB
 40
0.0
  9
$CHAMFERC
 40
20.0
  9
$CHAMFERD
 40
0.0
  9
$SKPOLY
 70
     0
  9
$TDCREATE
 40
2452685.852405590
  9
$TDUCREATE
 40
2452685.477405591
  9
$TDUPDATE
 40
2454330.579820232
  9
$TDUUPDATE
 40
2454330.204820232
  9
$TDINDWG
 40
1.0334085880
  9
$TDUSRTIMER
 40
1.0334051505
  9
$USRTIMER
 70
     1
  9
$ANGBASE
 50
0.0
  9
$ANGDIR
 70
     0
  9
$PDMODE
 70
     0
  9
$PDSIZE
 40
-3.0
  9
$PLINEWID
 40
0.0
  9
$SPLFRAME
 70
     0
  9
$SPLINETYPE
 70
     6
  9
$SPLINESEGS
 70
     8
  9
$HANDSEED
  5
FDAD
  9
$SURFTAB1
 70
     6
  9
$SURFTAB2
 70
     6
  9
$SURFTYPE
 70
     6
  9
$SURFU
 70
     6
  9
$SURFV
 70
     6
  9
$UCSBASE
  2

  9
$UCSNAME
  2

  9
$UCSORG
 10
0.0
 20
0.0
 30
0.0
  9
$UCSXDIR
 10
1.0
 20
0.0
 30
0.0
  9
$UCSYDIR
 10
0.0
 20
1.0
 30
0.0
  9
$UCSORTHOREF
  2

  9
$UCSORTHOVIEW
 70
     0
  9
$UCSORGTOP
 10
0.0
 20
0.0
 30
0.0
  9
$UCSORGBOTTOM
 10
0.0
 20
0.0
 30
0.0
  9
$UCSORGLEFT
 10
0.0
 20
0.0
 30
0.0
  9
$UCSORGRIGHT
 10
0.0
 20
0.0
 30
0.0
  9
$UCSORGFRONT
 10
0.0
 20
0.0
 30
0.0
  9
$UCSORGBACK
 10
0.0
 20
0.0
 30
0.0
  9
$PUCSBASE
  2

  9
$PUCSNAME
  2

  9
$PUCSORG
 10
0.0
 20
0.0
 30
0.0
  9
$PUCSXDIR
 10
1.0
 20
0.0
 30
0.0
  9
$PUCSYDIR
 10
0.0
 20
1.0
 30
0.0
  9
$PUCSORTHOREF
  2

  9
$PUCSORTHOVIEW
 70
     0
  9
$PUCSORGTOP
 10
0.0
 20
0.0
 30
0.0
  9
$PUCSORGBOTTOM
 10
0.0
 20
0.0
 30
0.0
  9
$PUCSORGLEFT
 10
0.0
 20
0.0
 30
0.0
  9
$PUCSORGRIGHT
 10
0.0
 20
0.0
 30
0.0
  9
$PUCSORGFRONT
 10
0.0
 20
0.0
 30
0.0
  9
$PUCSORGBACK
 10
0.0
 20
0.0
 30
0.0
  9
$USERI1
 70
     0
  9
$USERI2
 70
     0
  9
$USERI3
 70
     0
  9
$USERI4
 70
     0
  9
$USERI5
 70
     0
  9
$USERR1
 40
0.0
  9
$USERR2
 40
0.0
  9
$USERR3
 40
0.0
  9
$USERR4
 40
0.0
  9
$USERR5
 40
0.0
  9
$WORLDVIEW
 70
     1
  9
$SHADEDGE
 70
     3
  9
$SHADEDIF
 70
    70
  9
$TILEMODE
 70
     1
  9
$MAXACTVP
 70
    64
  9
$PINSBASE
 10
0.0
 20
0.0
 30
0.0
  9
$PLIMCHECK
 70
     0
  9
$PEXTMIN
 10
1.000000000000000E+20
 20
1.000000000000000E+20
 30
1.000000000000000E+20
  9
$PEXTMAX
 10
-1.000000000000000E+20
 20
-1.000000000000000E+20
 30
-1.000000000000000E+20
  9
$PLIMMIN
 10
-3.17498779296875
 20
-3.174999952316284
  9
$PLIMMAX
 10
293.4970092773438
 20
206.692492723465
  9
$UNITMODE
 70
     0
  9
$VISRETAIN
 70
     1
  9
$PLINEGEN
 70
     0
  9
$PSLTSCALE
 70
     1
  9
$TREEDEPTH
 70
  3020
  9
$CMLSTYLE
  2
Standard
  9
$CMLJUST
 70
     0
  9
$CMLSCALE
 40
20.0
  9
$PROXYGRAPHICS
 70
     1
  9
$MEASUREMENT
 70
     1
  9
$CELWEIGHT
370
    -1
  9
$ENDCAPS
280
     0
  9
$JOINSTYLE
280
     0
  9
$LWDISPLAY
290
     0
  9
$INSUNITS
 70
     4
  9
$HYPERLINKBASE
  1

  9
$STYLESHEET
  1
monochrome.ctb
  9
$XEDIT
290
     1
  9
$CEPSNTYPE
380
     0
  9
$PSTYLEMODE
290
     1
  9
$FINGERPRINTGUID
  2
{83FB3AA1-FF18-4BFE-AFE0-611B71DE056D}
  9
$VERSIONGUID
  2
{B86563AC-ADE9-4848-9664-8BE47646B315}
  9
$EXTNAMES
290
     1
  9
$PSVPSCALE
 40
0.0
  9
$OLESTARTUP
290
     0
  0
ENDSEC
  0
SECTION
  2
CLASSES
  0
CLASS
  1
ACDBDICTIONARYWDFLT
  2
AcDbDictionaryWithDefault
  3
ObjectDBX Classes
 90
        0
280
     0
281
     0
  0
CLASS
  1
ACDBPLACEHOLDER
  2
AcDbPlaceHolder
  3
ObjectDBX Classes
 90
        0
280
     0
281
     0
  0
CLASS
  1
LAYOUT
  2
AcDbLayout
  3
ObjectDBX Classes
 90
        0
280
     0
281
     0
  0
CLASS
  1
AMGSETTINGSOBJ
  2
AmgSettingsObj
  3
"AcadM|Product Description: AutoCAD Mechanical|Company: Autodesk"
 90
        0
280
     0
281
     0
  0
CLASS
  1
ACME_DOCUMENT
  2
AcMeDbDoc
  3
AcMeServices
 90
        0
280
     0
281
     0
  0
CLASS
  1
ACMESCOPE
  2
AcMeScope
  3
AcMeServices
 90
        0
280
     0
281
     0
  0
CLASS
  1
ACMECOMMANDHISTORY
  2
AcMeCommandHistory
  3
AcMeServices
 90
        0
280
     0
281
     0
  0
CLASS
  1
DICTIONARYVAR
  2
AcDbDictionaryVar
  3
ObjectDBX Classes
 90
        0
280
     0
281
     0
  0
CLASS
  1
ACIMSYSVARMAN
  2
AcImSysVarManager
  3
AcMeServices
 90
        0
280
     0
281
     0
  0
CLASS
  1
ACIMREALSYSVAR
  2
AcImRealSysVar
  3
AcMeServices
 90
        0
280
     0
281
     0
  0
CLASS
  1
ACIMINTSYSVAR
  2
AcImIntSysVar
  3
AcMeServices
 90
        0
280
     0
281
     0
  0
CLASS
  1
ACMEDRAWINGMAN
  2
AcMeDrawingMan
  3
AcMeServices
 90
        0
280
     0
281
     0
  0
CLASS
  1
ACMEVIEW
  2
AcMeView
  3
AcMeServices
 90
        0
280
     0
281
     0
  0
CLASS
  1
ACDBENTITYCACHE
  2
AcMeEntityCache
  3
AcMeServices
 90
        0
280
     0
281
     0
  0
CLASS
  1
GSMANAGER
  2
AcMeGSManager
  3
AcMeServices
 90
        0
280
     0
281
     0
  0
CLASS
  1
AMDTINTERNALREACTOR
  2
AmdtInternalReactor
  3
AcMeServices
 90
        0
280
     0
281
     0
  0
CLASS
  1
ACMESTATEMGR
  2
AcMeStateMgr
  3
AcMeServices
 90
        0
280
     0
281
     0
  0
CLASS
  1
ACGREFMASTER
  2
AcGrefMaster
  3
AcAttribServices
 90
        0
280
     0
281
     0
  0
CLASS
  1
ACME_DATABASE
  2
AcMeDbDatabase
  3
AcMeServices
 90
        0
280
     0
281
     0
  0
CLASS
  1
ACRFINSADJUSTERMGR
  2
AcRfInsAdjusterMgr
  3
AcMeServices
 90
        0
280
     0
281
     0
  0
CLASS
  1
ACGREFACADMASTER
  2
AcGrefacadMaster
  3
AcGrefServices
 90
        0
280
     0
281
     0
  0
CLASS
  1
AMIMASTER
  2
AmiMaster
  3
AmiServices
 90
        0
280
     0
281
     0
  0
CLASS
  1
ACMDATADICTIONARY
  2
AcmDataDictionary
  3
"AcmSymBB|Product Description: AutoCAD Mechanical|Company: Autodesk"
 90
        0
280
     0
281
     0
  0
CLASS
  1
ACMDATAENTRYBLOCK
  2
AcmDataEntryBlock
  3
"AcmSymBB|Product Description: AutoCAD Mechanical|Company: Autodesk"
 90
        0
280
     0
281
     0
  0
CLASS
  1
ACIMSTRSYSVAR
  2
AcImStrSysVar
  3
AcMeServices
 90
        0
280
     0
281
     0
  0
CLASS
  1
ACMSTANDARDISO
  2
AcmStandardISO
  3
"Amdt_StdImp|Product Description: AutoCAD Mechanical|Company: Autodesk"
 90
        0
280
     0
281
     0
  0
CLASS
  1
AMGOBJPROPCFG
  2
AmgObjPropCfg
  3
"AmgLay|Product Description: AutoCAD Mechanical|Company: Autodesk"
 90
        1
280
     0
281
     0
  0
CLASS
  1
AMDTEDGESTANDARDISO
  2
AmdtEdgeStdISO
  3
"Amdt_StdImp|Product Description: AutoCAD Mechanical|Company: Autodesk"
 90
        0
280
     0
281
     0
  0
CLASS
  1
ACMSURFSTANDARDISO
  2
AcmSurfTextStdISO
  3
"Amdt_StdImp|Product Description: AutoCAD Mechanical|Company: Autodesk"
 90
        0
280
     0
281
     0
  0
CLASS
  1
ACMFCFSTANDARDISO
  2
AcmFCFStdISO
  3
"Amdt_StdImp|Product Description: AutoCAD Mechanical|Company: Autodesk"
 90
        0
280
     0
281
     0
  0
CLASS
  1
ACMWELDSTANDARDISO
  2
AcmWeldingStdISO
  3
"Amdt_StdImp|Product Description: AutoCAD Mechanical|Company: Autodesk"
 90
        0
280
     0
281
     0
  0
CLASS
  1
ACMIDSTANDARDISO
  2
AcmIdStdISO
  3
"Amdt_StdImp|Product Description: AutoCAD Mechanical|Company: Autodesk"
 90
        0
280
     0
281
     0
  0
CLASS
  1
ACMDATUMSTANDARDISO
  2
AcmDatumStdISO
  3
"Amdt_StdImp|Product Description: AutoCAD Mechanical|Company: Autodesk"
 90
        0
280
     0
281
     0
  0
CLASS
  1
ACMBOMSTANDARDISO
  2
AcmBOMStdISO
  3
"Amdt_StdImp|Product Description: AutoCAD Mechanical|Company: Autodesk"
 90
        0
280
     0
281
     0
  0
CLASS
  1
ACMDETAILSTANDARDISO
  2
AmdtDetailSymStdISO
  3
"Amdt_StdImp|Product Description: AutoCAD Mechanical|Company: Autodesk"
 90
        0
280
     0
281
     0
  0
CLASS
  1
ACMSECTIONSTANDARDISO
  2
AmdtSectionSymStdISO
  3
"Amdt_StdImp|Product Description: AutoCAD Mechanical|Company: Autodesk"
 90
        0
280
     0
281
     0
  0
CLASS
  1
ACMCENTERLINESTANDARDISO
  2
AmdtCenterLineStdISO
  3
"Amdt_StdImp|Product Description: AutoCAD Mechanical|Company: Autodesk"
 90
        0
280
     0
281
     0
  0
CLASS
  1
ACAMGLAYSTD
  2
AcAmgLayStd
  3
"AmgLay|Product Description: AutoCAD Mechanical|Company: Autodesk"
 90
        0
280
     0
281
     0
  0
CLASS
  1
ACAMGDIMSTD
  2
AcAmgDimStd
  3
"AmgDim|Product Description: AutoCAD Mechanical|Company: Autodesk"
 90
        0
280
     0
281
     0
  0
CLASS
  1
ACAMGTITLESTD
  2
AcAmgTitleStd
  3
"AmgTitle|Product Description: AutoCAD Mechanical|Company: Autodesk"
 90
        0
280
     0
281
     0
  0
CLASS
  1
ACAMGFILTERDAT
  2
AcAmgFilterDat
  3
"AcadM|Product Description: AutoCAD Mechanical|Company: Autodesk"
 90
        0
280
     0
281
     0
  0
CLASS
  1
LAYER_INDEX
  2
AcDbLayerIndex
  3
ObjectDBX Classes
 90
    32768
280
     0
281
     0
  0
CLASS
  1
IDBUFFER
  2
AcDbIdBuffer
  3
ObjectDBX Classes
 90
    32768
280
     0
281
     0
  0
CLASS
  1
PLOTSETTINGS
  2
AcDbPlotSettings
  3
ObjectDBX Classes
 90
        0
280
     0
281
     0
  0
CLASS
  1
AMDTFORMULAUPDATEDISPATCHER
  2
AmdtFormulaUpdateDispatcher
  3
AcMeServices
 90
        0
280
     0
281
     0
  0
CLASS
  1
ACMSTANDARDANSI
  2
AcmStandardANSI
  3
"Amdt_StdImp|Product Description: AutoCAD Mechanical|Company: Autodesk"
 90
        0
280
     0
281
     0
  0
CLASS
  1
ACMSURFSTANDARDANSI
  2
AcmSurfTextStdANSI
  3
"Amdt_StdImp|Product Description: AutoCAD Mechanical|Company: Autodesk"
 90
        0
280
     0
281
     0
  0
CLASS
  1
ACMFCFSTANDARDANSI
  2
AcmFCFStdANSI
  3
"Amdt_StdImp|Product Description: AutoCAD Mechanical|Company: Autodesk"
 90
        0
280
     0
281
     0
  0
CLASS
  1
ACMWELDSTANDARDANSI
  2
AcmWeldingStdANSI
  3
"Amdt_StdImp|Product Description: AutoCAD Mechanical|Company: Autodesk"
 90
        0
280
     0
281
     0
  0
CLASS
  1
ACMIDSTANDARDANSI
  2
AcmIdStdANSI
  3
"Amdt_StdImp|Product Description: AutoCAD Mechanical|Company: Autodesk"
 90
        0
280
     0
281
     0
  0
CLASS
  1
ACMDATUMSTANDARDANSI
  2
AcmDatumStdANSI
  3
"Amdt_StdImp|Product Description: AutoCAD Mechanical|Company: Autodesk"
 90
        0
280
     0
281
     0
  0
CLASS
  1
ACMBOMSTANDARDANSI
  2
AcmBOMStdANSI
  3
"Amdt_StdImp|Product Description: AutoCAD Mechanical|Company: Autodesk"
 90
        0
280
     0
281
     0
  0
CLASS
  1
ACMDETAILSTANDARDANSI
  2
AmdtDetailSymStdANSI
  3
"Amdt_StdImp|Product Description: AutoCAD Mechanical|Company: Autodesk"
 90
        0
280
     0
281
     0
  0
CLASS
  1
ACMSECTIONSTANDARDANSI
  2
AmdtSectionSymStdANSI
  3
"Amdt_StdImp|Product Description: AutoCAD Mechanical|Company: Autodesk"
 90
        0
280
     0
281
     0
  0
CLASS
  1
ACMCENTERLINESTANDARDANSI
  2
AmdtCenterLineStdANSI
  3
"Amdt_StdImp|Product Description: AutoCAD Mechanical|Company: Autodesk"
 90
        0
280
     0
281
     0
  0
CLASS
  1
ACMBOM
  2
AcmBom
  3
"AcmSymBB|Product Description: AutoCAD Mechanical|Company: Autodesk"
 90
        0
280
     0
281
     0
  0
CLASS
  1
ACMDATAENTRYPART
  2
AcmDataEntryPart
  3
"AcmSymBB|Product Description: AutoCAD Mechanical|Company: Autodesk"
 90
    32768
280
     0
281
     0
  0
CLASS
  1
ACMPARTREF
  2
AcmPartRef
  3
"AcmSymBB|Product Description: AutoCAD Mechanical|Company: Autodesk"
 90
    35839
280
     0
281
     1
  0
CLASS
  1
ACDBCIRCARCRES
  2
AcDbCircArcRes
  3
AcGrefServices
 90
        0
280
     0
281
     0
  0
CLASS
  1
ACMBOMROW
  2
AcmBomRow
  3
"AcmSymBB|Product Description: AutoCAD Mechanical|Company: Autodesk"
 90
    32768
280
     0
281
     0
  0
CLASS
  1
ACMBALLOON
  2
AcmBalloon
  3
"AcmSymBB|Product Description: AutoCAD Mechanical|Company: Autodesk"
 90
    35839
280
     0
281
     1
  0
CLASS
  1
AMDTNOTE
  2
AmdtNote
  3
"AcmSymBB|Product Description: AutoCAD Mechanical|Company: Autodesk"
 90
     3071
280
     0
281
     1
  0
CLASS
  1
STDPART2D
  2
AmgStdPart
  3
"g3vace|Class: AmgStdPart|Product Description: AutoCAD Mechanical|Company: Autodesk"
 90
    35839
280
     0
281
     1
  0
CLASS
  1
ACDBSTDPARTRES_LINE
  2
AcDbStdPartRes_Line
  3
"g3vace|Class: AcDbStdPartRes_Line|Product Description: AutoCAD Mechanical|Company: Autodesk"
 90
    32768
280
     0
281
     0
  0
CLASS
  1
ACMDATAENTRY
  2
AcmDataEntry
  3
"AcmSymBB|Product Description: AutoCAD Mechanical|Company: Autodesk"
 90
        0
280
     0
281
     0
  0
CLASS
  1
ACDBOPPOLYLINERES
  2
AcDbOpPolylineRes
  3
AcGrefServices
 90
    32768
280
     0
281
     0
  0
CLASS
  1
ACMPARTLIST
  2
AcmPartList
  3
"AcmSymBB|Product Description: AutoCAD Mechanical|Company: Autodesk"
 90
    35839
280
     0
281
     1
  0
CLASS
  1
ACDBLINERES
  2
AcDbLineRes
  3
AcGrefServices
 90
    32768
280
     0
281
     0
  0
CLASS
  1
ACRFINSADJ
  2
AcRfInsAdjuster
  3
AcMeServices
 90
    32768
280
     0
281
     0
  0
CLASS
  1
AM_DRAWING_MGR
  2
AcDmDwgMgr
  3
AcMechDwgViewMgmt
 90
        0
280
     0
281
     0
  0
CLASS
  1
AM_DWG_DOCUMENT
  2
AcDmDwgDocument
  3
AcMechDwgViewMgmt
 90
        0
280
     0
281
     0
  0
CLASS
  1
AM_DWG_SHEET
  2
AcDmSheet
  3
AcMechDwgViewMgmt
 90
        0
280
     0
281
     0
  0
CLASS
  1
AM_VIEWDIMPARMAP
  2
AcDmViewDimParMap
  3
AcMechDwgViewMgmt
 90
        0
280
     0
281
     0
  0
CLASS
  1
AM_DWGMGR_NAME
  2
AcDmDwgMgrName
  3
AcMechDwgViewMgmt
 90
        0
280
     0
281
     0
  0
CLASS
  1
AMDTMENUSTATEMGR
  2
AmdtMenuStateMgr
  3
McadcomServices
 90
        0
280
     0
281
     0
  0
CLASS
  1
AMDTMCOMMENUSTATE
  2
AmdtMcomMenuState
  3
McadcomServices
 90
        0
280
     0
281
     0
  0
CLASS
  1
ASAPP
  2
AcAsAppObject
  3
AutoSurfServices
 90
        0
280
     0
281
     0
  0
CLASS
  1
IM_STATIC_MAN
  2
AcImStaticVarManager
  3
AcMeServices
 90
        0
280
     0
281
     0
  0
CLASS
  1
ACIMDBLSTATICVAR
  2
AcImDblStaticVar
  3
AcMeServices
 90
        0
280
     0
281
     0
  0
CLASS
  1
ACIMSTRSTATICVAR
  2
AcImStrStaticVar
  3
AcMeServices
 90
        0
280
     0
281
     0
  0
CLASS
  1
ACIMINTSTATICVAR
  2
AcImIntStaticVar
  3
AcMeServices
 90
        0
280
     0
281
     0
  0
CLASS
  1
ACASGREFMASTER
  2
AcAsGrefMaster
  3
AutoSurfResolverServices
 90
        0
280
     0
281
     0
  0
CLASS
  1
ACADGREFMODULE
  2
AcAdGrefModule
  3
AdGrefServices
 90
        0
280
     0
281
     0
  0
CLASS
  1
AMDTMAPISURFMOUDULE
  2
AmdtMApiSurfModule
  3
MApiSurfServices
 90
        0
280
     0
281
     0
  0
CLASS
  1
MAPIAMMOUDLE
  2
MApiAmModule
  3
MApiAmServices
 90
        0
280
     0
281
     0
  0
CLASS
  1
AMDTADMENUSTATE
  2
AmdtAdMenuState
  3
DesignerServices
 90
        0
280
     0
281
     0
  0
CLASS
  1
ADAPPL
  2
AcAdAppl
  3
DesignerServices
 90
        0
280
     0
281
     0
  0
CLASS
  1
DEPMGR
  2
AcAdDepMgr
  3
DesignerServices
 90
        0
280
     0
281
     0
  0
CLASS
  1
PARAMMGR
  2
AcAdParamMgr
  3
DesignerServices
 90
        0
280
     0
281
     0
  0
CLASS
  1
PARAMSCOPE
  2
AcAdParamScope
  3
DesignerServices
 90
        0
280
     0
281
     0
  0
CLASS
  1
NAMEDAPPL
  2
AcAdNamedAppl
  3
DesignerServices
 90
        0
280
     0
281
     0
  0
CLASS
  1
ADHNTMPLT
  2
AdHoleNoteTemplateMgr
  3
DesignerServices
 90
    32768
280
     0
281
     0
  0
CLASS
  1
AM_HNTEMPLATE_MGR_NAME
  2
AdHoleNoteTemplateMgrName
  3
DesignerServices
 90
    32768
280
     0
281
     0
  0
CLASS
  1
AMDTDMMENUSTATE
  2
AmdtDmMenuState
  3
AcMechDwgViewMgmt
 90
        0
280
     0
281
     0
  0
CLASS
  1
MAPIADMODULE
  2
MApiAdModule
  3
MApiAdServices
 90
        0
280
     0
281
     0
  0
CLASS
  1
AMDTAMMENUSTATE
  2
AmdtAmMenuState
  3
DesignerAssemblies
 90
        0
280
     0
281
     0
  0
CLASS
  1
ACAMPROJECT
  2
AcAmProject
  3
DesignerAssemblies
 90
        0
280
     0
281
     0
  0
CLASS
  1
ACAMGRCOMPDEF
  2
AcAmGrCompDef
  3
DesignerAssemblies
 90
        0
280
     0
281
     0
  0
CLASS
  1
ACCMCONTEXT
  2
AcCmContext
  3
DesignerAssemblies
 90
        0
280
     0
281
     0
  0
CLASS
  1
ACAMCOMPDEF
  2
AcAmCompDef
  3
DesignerAssemblies
 90
        0
280
     0
281
     0
  0
CLASS
  1
ACAMCOMPDEFMGR
  2
AcAmCompDefMgr
  3
DesignerAssemblies
 90
        0
280
     0
281
     0
  0
CLASS
  1
AMCONTEXTMGR
  2
AcAmContextMgr
  3
DesignerAssemblies
 90
        0
280
     0
281
     0
  0
CLASS
  1
ACAMCONTEXTMODELER
  2
AcAmContextModeler
  3
DesignerAssemblies
 90
        0
280
     0
281
     0
  0
CLASS
  1
CATALOGSTATE
  2
AcAmCatalogState
  3
DesignerAssemblies
 90
        0
280
     0
281
     0
  0
CLASS
  1
ACAMGRCOMPDEFSET
  2
AcAmGrCompDefSet
  3
DesignerAssemblies
 90
        0
280
     0
281
     0
  0
CLASS
  1
AMDTBROWSERDBTAB
  2
AmdtBrowserDbTab
  3
McadcomServices
 90
        0
280
     0
281
     0
  0
CLASS
  1
CBROWSERAPPOBJECT
  2
CBrowserAppObject
  3
McadcomServices
 90
        0
280
     0
281
     0
  0
CLASS
  1
DM_PLACEHOLDER
  2
AcDmSelsetPlaceholder
  3
AcMechDwgViewMgmt
 90
        0
280
     0
281
     0
  0
CLASS
  1
ACMPICKOBJ
  2
AcmPickEnt
  3
"AcmSymBB|Product Description: AutoCAD Mechanical|Company: Autodesk"
 90
    32768
280
     0
281
     1
  0
CLASS
  1
ACMNOTESTANDARDISO
  2
AmdtNoteStdISO
  3
"Amdt_StdImp|Product Description: AutoCAD Mechanical|Company: Autodesk"
 90
        0
280
     0
281
     0
  0
CLASS
  1
ACMNOTESTANDARDANSI
  2
AmdtNoteStdANSI
  3
"Amdt_StdImp|Product Description: AutoCAD Mechanical|Company: Autodesk"
 90
        0
280
     0
281
     0
  0
CLASS
  1
TABLESTYLE
  2
AcDbTableStyle
  3
ObjectDBX Classes
 90
     4095
280
     0
281
     0
  0
CLASS
  1
ACMTHREADLINESTANDARDISO
  2
AmdtThreadLineStdISO
  3
"Amdt_StdImp|Product Description: AutoCAD Mechanical|Company: Autodesk"
 90
        0
280
     0
281
     0
  0
CLASS
  1
ACMTHREADLINESTANDARDANSI
  2
AmdtThreadLineStdANSI
  3
"Amdt_StdImp|Product Description: AutoCAD Mechanical|Company: Autodesk"
 90
        0
280
     0
281
     0
  0
CLASS
  1
SORTENTSTABLE
  2
AcDbSortentsTable
  3
ObjectDBX Classes
 90
        0
280
     0
281
     0
  0
CLASS
  1
MATERIAL
  2
AcDbMaterial
  3
ObjectDBX Classes
 90
     1024
280
     0
281
     0
  0
CLASS
  1
VISUALSTYLE
  2
AcDbVisualStyle
  3
ObjectDBX Classes
 90
     4095
280
     0
281
     0
  0
CLASS
  1
ACRFATTGENMGR
  2
AcRfAttGeneralMgr
  3
AcAttribServices
 90
        0
280
     0
281
     0
  0
CLASS
  1
ACRFOBJATTMGR
  2
AcRfObjAttGroupMgr
  3
AcAttribServices
 90
        0
280
     0
281
     0
  0
CLASS
  1
ACRFMCADAPIATTHOLDER
  2
AcRfMCADAPIAttHolder
  3
AcAttribServices
 90
        0
280
     0
281
     0
  0
CLASS
  1
AMDTSYSATTR
  2
AmdtSystemAttribute
  3
AcAttribServices
 90
        0
280
     0
281
     0
  0
CLASS
  1
ACMTAPERSTANDARDISO
  2
AcmTaperStdISO
  3
"Amdt_StdImp|Product Description: AutoCAD Mechanical|Company: Autodesk"
 90
        0
280
     0
281
     0
  0
CLASS
  1
ACMTAPERSTANDARDANSI
  2
AcmTaperStdANSI
  3
"Amdt_StdImp|Product Description: AutoCAD Mechanical|Company: Autodesk"
 90
        0
280
     0
281
     0
  0
CLASS
  1
AMDTNOTETEMPLATEDB
  2
AmdtNoteTemplateDB
  3
AMDT_STDIMP_MODULE_NAME
 90
        0
280
     0
281
     0
  0
CLASS
  1
CAMSSTRUCTBTNSTATE
  2
StructBtnState
  3
L"DesignerAssemblies"
 90
        0
280
     0
281
     0
  0
ENDSEC
  0
SECTION
  2
TABLES
  0
TABLE
  2
VPORT
  5
8
330
0
100
AcDbSymbolTable
 70
     1
  0
VPORT
  5
F857
330
8
100
AcDbSymbolTableRecord
100
AcDbViewportTableRecord
  2
*Active
 70
     0
 10
0.0
 20
0.0
 11
1.0
 21
1.0
 12
545.2468161585342
 22
1376.843744249089
 13
0.0
 23
0.0
 14
2.5
 24
2.5
 15
10.0
 25
10.0
 16
0.0
 26
0.0
 36
1.0
 17
0.0
 27
0.0
 37
0.0
 40
584.2173282552612
 41
1.219298245614035
 42
50.0
 43
-1370.695619172058
 44
-1370.695619172058
 50
0.0
 51
0.0
 71
     0
 72
   100
 73
     1
 74
     3
 75
     0
 76
     0
 77
     0
 78
     0
281
     0
 65
     0
110
0.0
120
0.0
130
0.0
111
1.0
121
0.0
131
0.0
112
0.0
122
1.0
132
0.0
 79
     0
146
0.0
  0
ENDTAB
  0
TABLE
  2
LTYPE
  5
5
330
0
100
AcDbSymbolTable
 70
    34
  0
LTYPE
  5
14
330
5
100
AcDbSymbolTableRecord
100
AcDbLinetypeTableRecord
  2
ByBlock
 70
     0
  3

 72
    65
 73
     0
 40
0.0
  0
LTYPE
  5
15
330
5
100
AcDbSymbolTableRecord
100
AcDbLinetypeTableRecord
  2
ByLayer
 70
     0
  3

 72
    65
 73
     0
 40
0.0
  0
LTYPE
  5
16
330
5
100
AcDbSymbolTableRecord
100
AcDbLinetypeTableRecord
  2
Continuous
 70
     0
  3
Solid line
 72
    65
 73
     0
 40
0.0
  0
LTYPE
  5
4F
330
5
100
AcDbSymbolTableRecord
100
AcDbLinetypeTableRecord
  2
AM_ISO02W050
 70
     0
  3
__ __ __ __ __ __ __ __ __ __ __ __ __ __ __
 72
    65
 73
     2
 40
7.5
 49
6.0
 74
     0
 49
-1.5
 74
     0
  0
LTYPE
  5
52
330
5
100
AcDbSymbolTableRecord
100
AcDbLinetypeTableRecord
  2
Amconstr
 70
     0
  3
_______________________
 72
    65
 73
     2
 40
9999.0
 49
9999.0
 74
     0
 49
0.0
 74
     0
  0
LTYPE
  5
64
330
5
100
AcDbSymbolTableRecord
100
AcDbLinetypeTableRecord
  2
ACISOWELD
 70
     0
  3
_ _ _ _ _
 72
    65
 73
     2
 40
2.0
 49
2.0
 74
     0
 49
-1.0
 74
     0
  0
LTYPE
  5
65
330
5
100
AcDbSymbolTableRecord
100
AcDbLinetypeTableRecord
  2
ACISOTGB
 70
     0
  3
__ . . __ . .
 72
    65
 73
     6
 40
9.0
 49
4.0
 74
     0
 49
-1.0
 74
     0
 49
1.0
 74
     0
 49
-1.0
 74
     0
 49
1.0
 74
     0
 49
-1.0
 74
     0
  0
LTYPE
  5
66
330
5
100
AcDbSymbolTableRecord
100
AcDbLinetypeTableRecord
  2
ACISOTGL
 70
     0
  3
_ _ _ _ _
 72
    65
 73
     2
 40
3.0
 49
2.0
 74
     0
 49
-1.0
 74
     0
  0
LTYPE
  5
69
330
5
100
AcDbSymbolTableRecord
100
AcDbLinetypeTableRecord
  2
CENTER
 70
     0
  3
__ . __
 72
    65
 73
     4
 40
7.0
 49
4.0
 74
     0
 49
-1.0
 74
     0
 49
1.0
 74
     0
 49
-1.0
 74
     0
  0
LTYPE
  5
A6E
330
5
100
AcDbSymbolTableRecord
100
AcDbLinetypeTableRecord
  2
PHANTOM2
 70
     0
  3
Phantom (.5x) ___ _ _ ___ _ _ ___ _ _ ___ _ _
 72
    65
 73
     6
 40
31.75
 49
15.875
 74
     0
 49
-3.174999999999999
 74
     0
 49
3.174999999999999
 74
     0
 49
-3.174999999999999
 74
     0
 49
3.174999999999999
 74
     0
 49
-3.174999999999999
 74
     0
  0
LTYPE
  5
FA3
330
5
100
AcDbSymbolTableRecord
100
AcDbLinetypeTableRecord
  2
ACANSTGB
 70
     0
  3
__ . . __ . .
 72
    65
 73
     6
 40
0.35433070866
 49
0.15748031496
 74
     0
 49
-0.03937007874
 74
     0
 49
0.03937007874
 74
     0
 49
-0.03937007874
 74
     0
 49
0.03937007874
 74
     0
 49
-0.03937007874
 74
     0
  0
LTYPE
  5
FA4
330
5
100
AcDbSymbolTableRecord
100
AcDbLinetypeTableRecord
  2
ACANSTGL
 70
     0
  3
_ _ _ _ _
 72
    65
 73
     2
 40
0.11811023622
 49
0.07874015748
 74
     0
 49
-0.03937007874
 74
     0
  0
LTYPE
  5
4DED
330
5
100
AcDbSymbolTableRecord
100
AcDbLinetypeTableRecord
  2
中線
 70
     0
  3
___________________
 72
    65
 73
     2
 40
2.0
 49
1.0
 74
     0
 49
1.0
 74
     0
  0
LTYPE
  5
4DF6
330
5
100
AcDbSymbolTableRecord
100
AcDbLinetypeTableRecord
  2
細線
 70
     0
  3
___________________
 72
    65
 73
     2
 40
2.0
 49
1.0
 74
     0
 49
1.0
 74
     0
  0
LTYPE
  5
4DF7
330
5
100
AcDbSymbolTableRecord
100
AcDbLinetypeTableRecord
  2
太線
 70
     0
  3
___________________
 72
    65
 73
     2
 40
2.0
 49
1.0
 74
     0
 49
1.0
 74
     0
  0
LTYPE
  5
4EA7
330
5
100
AcDbSymbolTableRecord
100
AcDbLinetypeTableRecord
  2
文字
 70
     0
  3
_________________
 72
    65
 73
     2
 40
2.0
 49
1.0
 74
     0
 49
1.0
 74
     0
  0
LTYPE
  5
4EA9
330
5
100
AcDbSymbolTableRecord
100
AcDbLinetypeTableRecord
  2
寸法線
 70
     0
  3
________________
 72
    65
 73
     2
 40
2.0
 49
1.0
 74
     0
 49
1.0
 74
     0
  0
LTYPE
  5
4F12
330
5
100
AcDbSymbolTableRecord
100
AcDbLinetypeTableRecord
  2
ハッチング
 70
     0
  3
_________________
 72
    65
 73
     2
 40
2.0
 49
1.0
 74
     0
 49
1.0
 74
     0
  0
LTYPE
  5
5180
330
5
100
AcDbSymbolTableRecord
100
AcDbLinetypeTableRecord
  2
陰線1
 70
     0
  3
__ __ __ __
 72
    65
 73
     2
 40
4.0
 49
2.2
 74
     0
 49
-1.8
 74
     0
  0
LTYPE
  5
5181
330
5
100
AcDbSymbolTableRecord
100
AcDbLinetypeTableRecord
  2
陰線2
 70
     0
  3
_ _ _ _
 72
    65
 73
     2
 40
1.199999999999999
 49
0.7
 74
     0
 49
-0.5
 74
     0
  0
LTYPE
  5
5182
330
5
100
AcDbSymbolTableRecord
100
AcDbLinetypeTableRecord
  2
切断線
 70
     0
  3
/\/-/\/-/\/-/\/-/\/-/\/
 72
    65
 73
     2
 40
11.0001
 49
0.0001
 74
     4
 75
   135
340
56
 46
0.04
 50
0.0
 44
0.0
 45
0.0
 49
-11.0
 74
     0
  0
LTYPE
  5
5183
330
5
100
AcDbSymbolTableRecord
100
AcDbLinetypeTableRecord
  2
想像線1
 70
     0
  3
__ __ __ _____ __ __ ____
 72
    65
 73
     6
 40
14.5
 49
6.0
 74
     0
 49
-1.5
 74
     0
 49
2.0
 74
     0
 49
-1.5
 74
     0
 49
2.0
 74
     0
 49
-1.5
 74
     0
  0
LTYPE
  5
5184
330
5
100
AcDbSymbolTableRecord
100
AcDbLinetypeTableRecord
  2
想像線2
 70
     0
  3
__ _ _ __ _ _ __
 72
    65
 73
     6
 40
6.9
 49
2.5
 74
     0
 49
-0.8
 74
     0
 49
1.0
 74
     0
 49
-0.8
 74
     0
 49
1.0
 74
     0
 49
-0.8
 74
     0
  0
LTYPE
  5
5185
330
5
100
AcDbSymbolTableRecord
100
AcDbLinetypeTableRecord
  2
中心線1
 70
     0
  3
___ _ ___ _ ___
 72
    65
 73
     4
 40
18.0
 49
12.0
 74
     0
 49
-2.0
 74
     0
 49
2.0
 74
     0
 49
-2.0
 74
     0
  0
LTYPE
  5
5186
330
5
100
AcDbSymbolTableRecord
100
AcDbLinetypeTableRecord
  2
中心線2
 70
     0
  3
 -+-
 72
    65
 73
     4
 40
9.5
 49
6.0
 74
     0
 49
-1.0
 74
     0
 49
1.5
 74
     0
 49
-1.0
 74
     0
  0
LTYPE
  5
5187
330
5
100
AcDbSymbolTableRecord
100
AcDbLinetypeTableRecord
  2
中心線3
 70
     0
  3
 +
 72
    65
 73
     4
 40
3.799999999999999
 49
2.0
 74
     0
 49
-0.6
 74
     0
 49
0.6
 74
     0
 49
-0.6
 74
     0
  0
LTYPE
  5
5188
330
5
100
AcDbSymbolTableRecord
100
AcDbLinetypeTableRecord
  2
補助線
 70
     0
  3
______________
 72
    65
 73
     2
 40
2.0
 49
1.0
 74
     0
 49
1.0
 74
     0
  0
LTYPE
  5
5F93
330
5
100
AcDbSymbolTableRecord
100
AcDbLinetypeTableRecord
  2
AM_ISO08W050
 70
     0
  3
____ . ____ . ____ . ____ . ____ . ____ . ____
 72
    65
 73
     4
 40
18.0
 49
12.0
 74
     0
 49
-1.5
 74
     0
 49
3.0
 74
     0
 49
-1.5
 74
     0
  0
LTYPE
  5
5F94
330
5
100
AcDbSymbolTableRecord
100
AcDbLinetypeTableRecord
  2
AM_ISO09W050
 70
     0
  3
_____ . . _____ . . _____ . . ____ .. ____
 72
    65
 73
     6
 40
22.5
 49
12.0
 74
     0
 49
-1.5
 74
     0
 49
3.0
 74
     0
 49
-1.5
 74
     0
 49
3.0
 74
     0
 49
-1.5
 74
     0
  0
LTYPE
  5
5F95
330
5
100
AcDbSymbolTableRecord
100
AcDbLinetypeTableRecord
  2
AM_ISO08W050x2
 70
     0
  3
__ . __ . __ . __ . __ . __
 72
    65
 73
     4
 40
9.0
 49
6.0
 74
     0
 49
-0.75
 74
     0
 49
1.5
 74
     0
 49
-0.75
 74
     0
  0
LTYPE
  5
5F96
330
5
100
AcDbSymbolTableRecord
100
AcDbLinetypeTableRecord
  2
AM_ISO02W050x2
 70
     0
  3
 _ _ _ _ _ _ _ _ _ _ _ _
 72
    65
 73
     2
 40
3.75
 49
3.0
 74
     0
 49
-0.75
 74
     0
  0
LTYPE
  5
5F97
330
5
100
AcDbSymbolTableRecord
100
AcDbLinetypeTableRecord
  2
Amzigzag
 70
     0
  3
/\/-/\/-/\/-/\/-/\/-/\/
 72
    65
 73
     2
 40
11.0001
 49
0.0001
 74
     4
 75
   135
340
56
 46
0.04
 50
0.0
 44
0.0
 45
0.0
 49
-11.0
 74
     0
  0
LTYPE
  5
6427
330
5
100
AcDbSymbolTableRecord
100
AcDbLinetypeTableRecord
  2
HIDDEN
 70
     0
  3
Hidden __ __ __ __ __ __ __ __ __ __ __ __ __ _
 72
    65
 73
     2
 40
0.375
 49
0.25
 74
     0
 49
-0.125
 74
     0
  0
LTYPE
  5
6428
330
5
100
AcDbSymbolTableRecord
100
AcDbLinetypeTableRecord
  2
CENTER2
 70
     0
  3
Center (.5x) ___ _ ___ _ ___ _ ___ _ ___ _ ___
 72
    65
 73
     4
 40
1.125
 49
0.75
 74
     0
 49
-0.125
 74
     0
 49
0.125
 74
     0
 49
-0.125
 74
     0
  0
LTYPE
  5
6429
330
5
100
AcDbSymbolTableRecord
100
AcDbLinetypeTableRecord
  2
HIDDEN2
 70
     0
  3
Hidden (.5x) _ _ _ _ _ _ _ _ _ _ _ _ _ _ _ _ _
 72
    65
 73
     2
 40
0.1875
 49
0.125
 74
     0
 49
-0.0625
 74
     0
  0
LTYPE
  5
642A
330
5
100
AcDbSymbolTableRecord
100
AcDbLinetypeTableRecord
  2
Amzigzag2
 70
     0
  3
/\/-/\/-/\/-/\/-/\/-/\/
 72
    65
 73
     2
 40
0.4401
 49
0.0001
 74
     4
 75
   135
340
56
 46
0.0016
 50
0.0
 44
0.0
 45
0.0
 49
-0.4400000000000001
 74
     0
  0
ENDTAB
  0
TABLE
  2
LAYER
  5
2
102
{ACAD_XDICTIONARY
360
3F95
102
}
330
0
100
AcDbSymbolTable
 70
    39
  0
LAYER
  5
10
330
2
100
AcDbSymbolTableRecord
100
AcDbLayerTableRecord
  2
0
 70
     0
 62
     7
  6
Continuous
370
    -3
390
F
  0
LAYER
  5
6D1
330
2
100
AcDbSymbolTableRecord
100
AcDbLayerTableRecord
  2
Defpoints
 70
     0
 62
     7
  6
Continuous
290
     0
370
    -3
390
F
  0
LAYER
  5
A46
330
2
100
AcDbSymbolTableRecord
100
AcDbLayerTableRecord
  2
size
 70
     0
 62
     5
  6
Continuous
290
     0
370
    30
390
F
  0
LAYER
  5
A47
330
2
100
AcDbSymbolTableRecord
100
AcDbLayerTableRecord
  2
waku
 70
     0
 62
     7
  6
Continuous
370
    40
390
F
  0
LAYER
  5
A48
330
2
100
AcDbSymbolTableRecord
100
AcDbLayerTableRecord
  2
AM_6
 70
     0
 62
     2
  6
文字
370
    20
390
F
  0
LAYER
  5
FA5
330
2
100
AcDbSymbolTableRecord
100
AcDbLayerTableRecord
  2
1
 70
     0
 62
     7
  6
Continuous
370
    -3
390
F
  0
LAYER
  5
FA6
330
2
100
AcDbSymbolTableRecord
100
AcDbLayerTableRecord
  2
AM_BOR
 70
     0
 62
     7
  6
Continuous
370
    30
390
F
  0
LAYER
  5
3A31
330
2
100
AcDbSymbolTableRecord
100
AcDbLayerTableRecord
  2
hyosen1
 70
     0
 62
     1
  6
Continuous
370
    30
390
F
  0
LAYER
  5
5765
330
2
100
AcDbSymbolTableRecord
100
AcDbLayerTableRecord
  2
hyomoji
 70
     0
 62
     2
  6
Continuous
370
    20
390
F
  0
LAYER
  5
591A
330
2
100
AcDbSymbolTableRecord
100
AcDbLayerTableRecord
  2
hyosen2
 70
     0
 62
     1
  6
Continuous
370
    20
390
F
  0
LAYER
  5
5F85
330
2
100
AcDbSymbolTableRecord
100
AcDbLayerTableRecord
  2
AM_0
 70
     0
 62
     7
  6
中線
370
    30
390
F
  0
LAYER
  5
5F86
330
2
100
AcDbSymbolTableRecord
100
AcDbLayerTableRecord
  2
AM_1
 70
     0
 62
    30
  6
太線
370
    40
390
F
  0
LAYER
  5
5F87
330
2
100
AcDbSymbolTableRecord
100
AcDbLayerTableRecord
  2
AM_2
 70
     0
 62
     1
  6
細線
370
    20
390
F
  0
LAYER
  5
5F88
330
2
100
AcDbSymbolTableRecord
100
AcDbLayerTableRecord
  2
AM_3
 70
     0
 62
     6
  6
陰線1
370
    20
390
F
  0
LAYER
  5
5F89
330
2
100
AcDbSymbolTableRecord
100
AcDbLayerTableRecord
  2
AM_4
 70
     0
 62
     3
  6
補助線
370
    20
390
F
  0
LAYER
  5
5F8A
330
2
100
AcDbSymbolTableRecord
100
AcDbLayerTableRecord
  2
AM_5
 70
     0
 62
     3
  6
寸法線
370
    20
390
F
  0
LAYER
  5
5F8B
330
2
100
AcDbSymbolTableRecord
100
AcDbLayerTableRecord
  2
AM_7
 70
     0
 62
     4
  6
中心線1
370
    20
390
F
  0
LAYER
  5
5F8C
330
2
100
AcDbSymbolTableRecord
100
AcDbLayerTableRecord
  2
AM_8
 70
     0
 62
     1
  6
ハッチング
370
    20
390
F
  0
LAYER
  5
5F8D
330
2
100
AcDbSymbolTableRecord
100
AcDbLayerTableRecord
  2
AM_10
 70
     0
 62
     7
  6
切断線
370
    30
390
F
  0
LAYER
  5
5F98
330
2
100
AcDbSymbolTableRecord
100
AcDbLayerTableRecord
  2
AM_FEA-AM_1
 70
     0
 62
    30
  6
太線
370
    40
390
F
  0
LAYER
  5
5F99
330
2
100
AcDbSymbolTableRecord
100
AcDbLayerTableRecord
  2
AM_FEA-AM_6
 70
     0
 62
     2
  6
文字
370
    20
390
F
  0
LAYER
  5
642B
330
2
100
AcDbSymbolTableRecord
100
AcDbLayerTableRecord
  2
AM_CL
 70
     0
 62
     1
  6
Amconstr
370
    20
390
F
  0
LAYER
  5
65AF
330
2
100
AcDbSymbolTableRecord
100
AcDbLayerTableRecord
  2
AM_11
 70
     0
 62
     2
  6
想像線1
370
    20
390
F
  0
LAYER
  5
73C2
330
2
100
AcDbSymbolTableRecord
100
AcDbLayerTableRecord
  2
AM_12
 70
     0
 62
     7
  6
Continuous
290
     0
370
    20
390
F
  0
LAYER
  5
73C3
330
2
100
AcDbSymbolTableRecord
100
AcDbLayerTableRecord
  2
AM_PAREF
 70
     0
 62
     4
  6
Continuous
290
     0
370
    20
390
F
  0
LAYER
  5
75AE
330
2
100
AcDbSymbolTableRecord
100
AcDbLayerTableRecord
  2
busen1
 70
     0
 62
    30
  6
Continuous
370
    40
390
F
  0
LAYER
  5
75AF
330
2
100
AcDbSymbolTableRecord
100
AcDbLayerTableRecord
  2
busen2
 70
     0
 62
     2
  6
Continuous
370
    20
390
F
  0
LAYER
  5
75B0
330
2
100
AcDbSymbolTableRecord
100
AcDbLayerTableRecord
  2
PV0001_1
 70
     0
 62
     7
  6
Continuous
370
    -3
390
F
  0
LAYER
  5
A1E3
330
2
100
AcDbSymbolTableRecord
100
AcDbLayerTableRecord
  2
点-AM_0
 70
     0
 62
     7
  6
中線
290
     0
370
    30
390
F
  0
LAYER
  5
A1E4
330
2
100
AcDbSymbolTableRecord
100
AcDbLayerTableRecord
  2
点-AM_1
 70
     0
 62
    30
  6
太線
290
     0
370
    40
390
F
  0
LAYER
  5
A1E5
330
2
100
AcDbSymbolTableRecord
100
AcDbLayerTableRecord
  2
点-AM_2
 70
     0
 62
     1
  6
細線
290
     0
370
    20
390
F
  0
LAYER
  5
A1E6
330
2
100
AcDbSymbolTableRecord
100
AcDbLayerTableRecord
  2
点-AM_7
 70
     0
 62
     4
  6
中心線1
290
     0
370
    20
390
F
  0
LAYER
  5
A1E9
330
2
100
AcDbSymbolTableRecord
100
AcDbLayerTableRecord
  2
点-AM_11
 70
     0
 62
     2
  6
想像線1
290
     0
370
    20
390
F
  0
LAYER
  5
A204
330
2
100
AcDbSymbolTableRecord
100
AcDbLayerTableRecord
  2
子図情報-AM_0
 70
     0
 62
     7
  6
中線
370
    30
390
F
  0
LAYER
  5
B251
330
2
100
AcDbSymbolTableRecord
100
AcDbLayerTableRecord
  2
ベース-AM_2
 70
     0
 62
     1
  6
細線
370
    20
390
F
  0
LAYER
  5
BFFB
330
2
100
AcDbSymbolTableRecord
100
AcDbLayerTableRecord
  2
990001_1
 70
     0
 62
     7
  6
Continuous
370
    -3
390
F
  0
LAYER
  5
F11E
330
2
100
AcDbSymbolTableRecord
100
AcDbLayerTableRecord
  2
デットロック-AM_0
 70
     0
 62
     7
  6
中線
370
    30
390
F
  0
LAYER
  5
F11F
330
2
100
AcDbSymbolTableRecord
100
AcDbLayerTableRecord
  2
トリガー-AM_0
 70
     0
 62
     7
  6
中線
370
    30
390
F
  0
LAYER
  5
F120
330
2
100
AcDbSymbolTableRecord
100
AcDbLayerTableRecord
  2
トリガー-AM_7
 70
     0
 62
     4
  6
中心線1
370
    20
390
F
  0
ENDTAB
  0
TABLE
  2
STYLE
  5
3
330
0
100
AcDbSymbolTable
 70
    10
  0
STYLE
  5
11
330
3
100
AcDbSymbolTableRecord
100
AcDbTextStyleTableRecord
  2
STANDARD
 70
     0
 40
0.0
 41
0.7
 50
0.0
 71
     0
 42
3.2
  3
romans.shx
  4
extfont.shx
  0
STYLE
  5
56
330
3
100
AcDbSymbolTableRecord
100
AcDbTextStyleTableRecord
  2

 70
     1
 40
0.0
 41
1.0
 50
0.0
 71
     0
 42
2.5
  3
ltypeshp.shx
  4

  0
STYLE
  5
58
330
3
100
AcDbSymbolTableRecord
100
AcDbTextStyleTableRecord
  2
ACISOTS
 70
     0
 40
1.0
 41
1.0
 50
0.0
 71
     0
 42
2.5
  3
isocp.shx
  4
extfont.shx
  0
STYLE
  5
63
330
3
100
AcDbSymbolTableRecord
100
AcDbTextStyleTableRecord
  2
ACISOGDT
 70
     0
 40
0.0
 41
1.0
 50
0.0
 71
     0
 42
2.5
  3
amgdt.shx
  4

  0
STYLE
  5
A74
330
3
100
AcDbSymbolTableRecord
100
AcDbTextStyleTableRecord
  2
DIM
 70
     0
 40
0.0
 41
1.0
 50
0.0
 71
     0
 42
2.5
  3
monotxt.shx
  4
extfont.shx
  0
STYLE
  5
FA7
330
3
100
AcDbSymbolTableRecord
100
AcDbTextStyleTableRecord
  2
ACANSTS
 70
     0
 40
1.0
 41
1.0
 50
0.0
 71
     0
 42
0.2
  3
romans.shx
  4
extfont.shx
  0
STYLE
  5
FA8
330
3
100
AcDbSymbolTableRecord
100
AcDbTextStyleTableRecord
  2
ACANSGDT
 70
     0
 40
0.0
 41
1.0
 50
0.0
 71
     0
 42
0.2
  3
amgdtans.shx
  4

  0
STYLE
  5
5F9A
330
3
100
AcDbSymbolTableRecord
100
AcDbTextStyleTableRecord
  2
USER1
 70
     0
 40
0.0
 41
1.0
 50
0.0
 71
     0
 42
2.5
  3
TXT.SHX
  4

  0
STYLE
  5
5F9B
330
3
100
AcDbSymbolTableRecord
100
AcDbTextStyleTableRecord
  2
USER2
 70
     0
 40
0.0
 41
1.0
 50
0.0
 71
     0
 42
2.5
  3
SIMPLEX.SHX
  4

  0
STYLE
  5
5F9C
330
3
100
AcDbSymbolTableRecord
100
AcDbTextStyleTableRecord
  2
USER3
 70
     0
 40
0.0
 41
1.0
 50
0.0
 71
     0
 42
2.5
  3
ITALIC.SHX
  4

  0
ENDTAB
  0
TABLE
  2
VIEW
  5
6
330
0
100
AcDbSymbolTable
 70
     6
  0
VIEW
  5
AE1
330
6
100
AcDbSymbolTableRecord
100
AcDbViewTableRecord
  2
AM_VIEW1
 70
     0
 40
244.8243243243244
 10
357.6693648837318
 20
1428.474321530515
 41
297.0
 11
0.0
 21
0.0
 31
1.0
 12
0.0
 22
0.0
 32
0.0
 42
50.0
 43
-1370.695619172058
 44
-1370.695619172058
 50
0.0
 71
     0
281
     0
 72
     0
  0
VIEW
  5
AE2
330
6
100
AcDbSymbolTableRecord
100
AcDbViewTableRecord
  2
AM_VIEW2
 70
     0
 40
244.8243243243244
 10
654.6693648837317
 20
1428.474321530515
 41
297.0
 11
0.0
 21
0.0
 31
1.0
 12
0.0
 22
0.0
 32
0.0
 42
50.0
 43
-1370.695619172058
 44
-1370.695619172058
 50
0.0
 71
     0
281
     0
 72
     0
  0
VIEW
  5
AE3
330
6
100
AcDbSymbolTableRecord
100
AcDbViewTableRecord
  2
AM_VIEW3
 70
     0
 40
244.8243243243244
 10
357.6693648837318
 20
1253.298645854839
 41
297.0
 11
0.0
 21
0.0
 31
1.0
 12
0.0
 22
0.0
 32
0.0
 42
50.0
 43
-1370.695619172058
 44
-1370.695619172058
 50
0.0
 71
     0
281
     0
 72
     0
  0
VIEW
  5
AE4
330
6
100
AcDbSymbolTableRecord
100
AcDbViewTableRecord
  2
AM_VIEW4
 70
     0
 40
244.8243243243244
 10
654.6693648837317
 20
1253.298645854839
 41
297.0
 11
0.0
 21
0.0
 31
1.0
 12
0.0
 22
0.0
 32
0.0
 42
50.0
 43
-1370.695619172058
 44
-1370.695619172058
 50
0.0
 71
     0
281
     0
 72
     0
  0
VIEW
  5
AE5
330
6
100
AcDbSymbolTableRecord
100
AcDbViewTableRecord
  2
AM_VIEW5
 70
     0
 40
244.8243243243242
 10
506.1693648837318
 20
1340.886483692677
 41
297.0
 11
0.0
 21
0.0
 31
1.0
 12
0.0
 22
0.0
 32
0.0
 42
50.0
 43
-1370.695619172058
 44
-1370.695619172058
 50
0.0
 71
     0
281
     0
 72
     0
  0
VIEW
  5
AE6
330
6
100
AcDbSymbolTableRecord
100
AcDbViewTableRecord
  2
AM_VIEW6
 70
     0
 40
489.6437521621619
 10
506.1693648837318
 20
1340.886483692677
 41
593.9940599999999
 11
0.0
 21
0.0
 31
1.0
 12
0.0
 22
0.0
 32
0.0
 42
50.0
 43
-1370.695619172058
 44
-1370.695619172058
 50
0.0
 71
     0
281
     0
 72
     0
  0
ENDTAB
  0
TABLE
  2
UCS
  5
7
330
0
100
AcDbSymbolTable
 70
     0
  0
ENDTAB
  0
TABLE
  2
APPID
  5
9
330
0
100
AcDbSymbolTable
 70
    55
  0
APPID
  5
12
330
9
100
AcDbSymbolTableRecord
100
AcDbRegAppTableRecord
  2
ACAD
 70
     0
  0
APPID
  5
30
330
9
100
AcDbSymbolTableRecord
100
AcDbRegAppTableRecord
  2
MCAD_NO_VIS
 70
     0
  0
APPID
  5
31
330
9
100
AcDbSymbolTableRecord
100
AcDbRegAppTableRecord
  2
ACAD_TEMP_GRAPHIC
 70
     0
  0
APPID
  5
44
330
9
100
AcDbSymbolTableRecord
100
AcDbRegAppTableRecord
  2
ACATTRIBSERVICES
 70
     0
  0
APPID
  5
7A1
330
9
100
AcDbSymbolTableRecord
100
AcDbRegAppTableRecord
  2
GENIUS_GENDIMSH_14
 70
     0
  0
APPID
  5
A49
330
9
100
AcDbSymbolTableRecord
100
AcDbRegAppTableRecord
  2
GENIUS_GENREC_14
 70
     0
  0
APPID
  5
A4A
330
9
100
AcDbSymbolTableRecord
100
AcDbRegAppTableRecord
  2
GENIUS_GENOBJ-N-REC_13
 70
     0
  0
APPID
  5
A4B
330
9
100
AcDbSymbolTableRecord
100
AcDbRegAppTableRecord
  2
GENIUS_GENODEF_13
 70
     0
  0
APPID
  5
A4C
330
9
100
AcDbSymbolTableRecord
100
AcDbRegAppTableRecord
  2
DCO15
 70
     0
  0
APPID
  5
ADC
330
9
100
AcDbSymbolTableRecord
100
AcDbRegAppTableRecord
  2
GENIUS_GENOLIS_13
 70
     0
  0
APPID
  5
ADD
330
9
100
AcDbSymbolTableRecord
100
AcDbRegAppTableRecord
  2
GENIUS_GENOENT_13
 70
     0
  0
APPID
  5
ADE
330
9
100
AcDbSymbolTableRecord
100
AcDbRegAppTableRecord
  2
GENIUS_GENOBJ-N-TIT_13
 70
     0
  0
APPID
  5
ADF
330
9
100
AcDbSymbolTableRecord
100
AcDbRegAppTableRecord
  2
GENIUS_GENTITLE_13
 70
     0
  0
APPID
  5
AE0
330
9
100
AcDbSymbolTableRecord
100
AcDbRegAppTableRecord
  2
GENIUS_GENOREF_13
 70
     0
  0
APPID
  5
AE7
330
9
100
AcDbSymbolTableRecord
100
AcDbRegAppTableRecord
  2
GENIUS_GENSCREG_15
 70
     0
  0
APPID
  5
AE8
330
9
100
AcDbSymbolTableRecord
100
AcDbRegAppTableRecord
  2
GENIUS_GENOBJ-N-SDF_13
 70
     0
  0
APPID
  5
FAF
330
9
100
AcDbSymbolTableRecord
100
AcDbRegAppTableRecord
  2
GENIUS_GENBLLY_14
 70
     0
  0
APPID
  5
FB0
330
9
100
AcDbSymbolTableRecord
100
AcDbRegAppTableRecord
  2
GENIUS_GENTRA_14
 70
     0
  0
APPID
  5
1285
330
9
100
AcDbSymbolTableRecord
100
AcDbRegAppTableRecord
  2
GENIUS_GENDTOL_13
 70
     0
  0
APPID
  5
142D
330
9
100
AcDbSymbolTableRecord
100
AcDbRegAppTableRecord
  2
GENIUS_GENOBJ-N-CEN_13
 70
     0
  0
APPID
  5
1AB5
330
9
100
AcDbSymbolTableRecord
100
AcDbRegAppTableRecord
  2
GENIUS_GENOBJ-N-CRS_13
 70
     0
  0
APPID
  5
1B36
330
9
100
AcDbSymbolTableRecord
100
AcDbRegAppTableRecord
  2
GENIUS_GENOBJ-N-HTC_13
 70
     0
  0
APPID
  5
1B37
330
9
100
AcDbSymbolTableRecord
100
AcDbRegAppTableRecord
  2
GENIUS_GENHATCH_13
 70
     0
  0
APPID
  5
216D
330
9
100
AcDbSymbolTableRecord
100
AcDbRegAppTableRecord
  2
GENIUS_GENOBJ-N-FIL_13
 70
     0
  0
APPID
  5
2356
330
9
100
AcDbSymbolTableRecord
100
AcDbRegAppTableRecord
  2
GEVID990412420
 70
     0
  0
APPID
  5
2357
330
9
100
AcDbSymbolTableRecord
100
AcDbRegAppTableRecord
  2
GEVDC
 70
     0
  0
APPID
  5
2358
330
9
100
AcDbSymbolTableRecord
100
AcDbRegAppTableRecord
  2
GEVCON
 70
     0
  0
APPID
  5
235B
330
9
100
AcDbSymbolTableRecord
100
AcDbRegAppTableRecord
  2
GEVRADREF
 70
     0
  0
APPID
  5
2360
330
9
100
AcDbSymbolTableRecord
100
AcDbRegAppTableRecord
  2
GENIUS_GENBH_13
 70
     0
  0
APPID
  5
2362
330
9
100
AcDbSymbolTableRecord
100
AcDbRegAppTableRecord
  2
GENIUS_GENOBJ-NBEHI-BHF_13
 70
     0
  0
APPID
  5
2364
330
9
100
AcDbSymbolTableRecord
100
AcDbRegAppTableRecord
  2
GENIUS_GENOBJ-NBEHI-BHB_13
 70
     0
  0
APPID
  5
2379
330
9
100
AcDbSymbolTableRecord
100
AcDbRegAppTableRecord
  2
GENIUS_GENOBJ-F-SCPASSM_13
 70
     0
  0
APPID
  5
3D74
330
9
100
AcDbSymbolTableRecord
100
AcDbRegAppTableRecord
  2
GENIUS_GENDIM_13
 70
     0
  0
APPID
  5
3D76
330
9
100
AcDbSymbolTableRecord
100
AcDbRegAppTableRecord
  2
GENIUS_GE3DTOL_13
 70
     0
  0
APPID
  5
3D9C
330
9
100
AcDbSymbolTableRecord
100
AcDbRegAppTableRecord
  2
AD_DRAW
 70
     0
  0
APPID
  5
3DE8
330
9
100
AcDbSymbolTableRecord
100
AcDbRegAppTableRecord
  2
ASURF_PCURVE_APPNAME
 70
     0
  0
APPID
  5
3DED
330
9
100
AcDbSymbolTableRecord
100
AcDbRegAppTableRecord
  2
AMG_3D2D_5.0
 70
     0
  0
APPID
  5
3E1B
330
9
100
AcDbSymbolTableRecord
100
AcDbRegAppTableRecord
  2
DESIGNERASSEMBLIES
 70
     0
  0
APPID
  5
3E20
330
9
100
AcDbSymbolTableRecord
100
AcDbRegAppTableRecord
  2
ACADM_DIM_EDIT
 70
     0
  0
APPID
  5
3E21
330
9
100
AcDbSymbolTableRecord
100
AcDbRegAppTableRecord
  2
AMDT_DM_ADJ
 70
     0
  0
APPID
  5
4143
330
9
100
AcDbSymbolTableRecord
100
AcDbRegAppTableRecord
  2
GENIUS_GENFIL_13
 70
     0
  0
APPID
  5
4144
330
9
100
AcDbSymbolTableRecord
100
AcDbRegAppTableRecord
  2
GENIUS_GENOBJ-N-CHA_13
 70
     0
  0
APPID
  5
4E17
330
9
100
AcDbSymbolTableRecord
100
AcDbRegAppTableRecord
  2
GEVID1008153417
 70
     0
  0
APPID
  5
4E58
330
9
100
AcDbSymbolTableRecord
100
AcDbRegAppTableRecord
  2
GEVID1008153418
 70
     0
  0
APPID
  5
4E5E
330
9
100
AcDbSymbolTableRecord
100
AcDbRegAppTableRecord
  2
GEVID1008153419
 70
     0
  0
APPID
  5
4E64
330
9
100
AcDbSymbolTableRecord
100
AcDbRegAppTableRecord
  2
GEVID1008153420
 70
     0
  0
APPID
  5
4E75
330
9
100
AcDbSymbolTableRecord
100
AcDbRegAppTableRecord
  2
GEVID1008153421
 70
     0
  0
APPID
  5
4EB7
330
9
100
AcDbSymbolTableRecord
100
AcDbRegAppTableRecord
  2
GENIUS_AMGTXT_16
 70
     0
  0
APPID
  5
7645
330
9
100
AcDbSymbolTableRecord
100
AcDbRegAppTableRecord
  2
GENIUS_GENOBJ-N-DIM_13
 70
     0
  0
APPID
  5
B57E
330
9
100
AcDbSymbolTableRecord
100
AcDbRegAppTableRecord
  2
ACAD_DSTYLE_DIMARC_LENGTH_SYMBOL
 70
     0
  0
APPID
  5
B57F
330
9
100
AcDbSymbolTableRecord
100
AcDbRegAppTableRecord
  2
ACAD_DSTYLE_DIMJOGGED_JOGANGLE_SYMBOL
 70
     0
  0
APPID
  5
B606
330
9
100
AcDbSymbolTableRecord
100
AcDbRegAppTableRecord
  2
ACAD_EXEMPT_FROM_CAD_STANDARDS
 70
     0
  0
APPID
  5
B618
330
9
100
AcDbSymbolTableRecord
100
AcDbRegAppTableRecord
  2
ACAD_PSEXT
 70
     0
  0
APPID
  5
B7EF
330
9
100
AcDbSymbolTableRecord
100
AcDbRegAppTableRecord
  2
GENIUS_GENCEN_19
 70
     0
  0
APPID
  5
BD70
330
9
100
AcDbSymbolTableRecord
100
AcDbRegAppTableRecord
  2
AcAecLayerStandard
 70
     0
  0
ENDTAB
  0
TABLE
  2
DIMSTYLE
  5
A
330
0
100
AcDbSymbolTable
 70
    32
100
AcDbDimStyleTable
 71
     3
340
2515
340
6C
340
FA9
  0
DIMSTYLE
105
6C
330
A
100
AcDbSymbolTableRecord
100
AcDbDimStyleTableRecord
  2
AM_ISO
 70
     0
  4
"
 41
2.5
 42
1.0
 43
10.0
 44
1.0
 47
0.1
 48
0.1
 73
     0
 74
     0
 77
     1
 78
     8
 79
     2
140
3.5
141
0.0
143
0.0393701
146
0.71
147
1.5
172
     1
176
   256
177
   256
178
     2
271
     2
272
     3
274
     4
283
     0
284
     8
340
11
371
    -1
372
    -1
1001
ACAD_DSTYLE_DIMJOGGED_JOGANGLE_SYMBOL
1070
   384
1040
0.7853981633974483
1001
ACAD_DSTYLE_DIMARC_LENGTH_SYMBOL
1070
   379
1070
     1
  0
DIMSTYLE
105
6D
330
A
100
AcDbSymbolTableRecord
100
AcDbDimStyleTableRecord
  2
AM_ISO$3
 70
     0
  4
"
 41
0.8
 42
1.0
 43
10.0
 44
1.0
 47
0.1
 48
0.1
 73
     0
 77
     1
 78
     8
 79
     2
140
3.2
141
0.0
143
0.0393701
146
0.71
147
0.9999999999999996
176
   256
177
   256
178
     2
271
     2
272
     2
283
     0
284
     8
288
     1
289
     0
340
11
342
6C4
371
    -1
372
    -1
1001
ACAD_DSTYLE_DIMJOGGED_JOGANGLE_SYMBOL
1070
   384
1040
0.7853981633974483
1001
ACAD_DSTYLE_DIMARC_LENGTH_SYMBOL
1070
   379
1070
     1
  0
DIMSTYLE
105
6E
330
A
100
AcDbSymbolTableRecord
100
AcDbDimStyleTableRecord
  2
AM_ISO$4
 70
     0
  4
"
 41
0.8
 42
1.0
 43
10.0
 44
1.0
 47
0.1
 48
0.1
 73
     0
 77
     1
 78
     8
 79
     2
140
3.2
141
0.0
143
0.0393701
146
0.71
147
1.0
173
     1
176
   256
177
   256
178
     2
271
     2
272
     2
283
     0
284
     8
288
     1
289
     0
340
11
344
6C4
371
    -1
372
    -1
1001
ACAD_DSTYLE_DIMJOGGED_JOGANGLE_SYMBOL
1070
   384
1040
0.7853981633974483
1001
ACAD_DSTYLE_DIMARC_LENGTH_SYMBOL
1070
   379
1070
     1
  0
DIMSTYLE
105
6F
330
A
100
AcDbSymbolTableRecord
100
AcDbDimStyleTableRecord
  2
AM_ISO$6
 70
     0
  4
"
 41
0.8
 42
1.0
 43
10.0
 44
1.0
 47
0.1
 48
0.1
 73
     0
 74
     0
 78
     8
 79
     2
140
3.2
141
0.0
143
0.0393701
146
0.71
147
1.0
172
     1
176
   256
177
   256
178
     2
271
     2
272
     2
283
     0
284
     8
340
11
341
6C4
371
    -1
372
    -1
1001
ACAD_DSTYLE_DIMJOGGED_JOGANGLE_SYMBOL
1070
   384
1040
0.7853981633974483
1001
ACAD_DSTYLE_DIMARC_LENGTH_SYMBOL
1070
   379
1070
     1
  0
DIMSTYLE
105
70
330
A
100
AcDbSymbolTableRecord
100
AcDbDimStyleTableRecord
  2
AM_ISO$7
 70
     0
  4
"
 41
0.8
 42
1.0
 43
10.0
 44
1.0
 47
0.1
 48
0.1
 73
     0
 74
     0
 77
     1
 78
     8
 79
     2
140
3.2
141
0.0
143
0.0393701
146
0.71
147
1.0
172
     1
176
   256
177
   256
178
     2
271
     2
272
     2
283
     0
284
     8
340
11
341
6C4
342
6C4
371
    -1
372
    -1
1001
ACAD_DSTYLE_DIMJOGGED_JOGANGLE_SYMBOL
1070
   384
1040
0.7853981633974483
1001
ACAD_DSTYLE_DIMARC_LENGTH_SYMBOL
1070
   379
1070
     1
  0
DIMSTYLE
105
71
330
A
100
AcDbSymbolTableRecord
100
AcDbDimStyleTableRecord
  2
AM_ISO$SF
 70
     0
  4
"
 41
0.8
 42
1.0
 43
10.0
 44
1.0
 47
0.1
 48
0.1
 73
     0
 74
     0
 75
     1
 76
     1
 77
     1
 78
     8
 79
     2
140
3.2
141
0.0
143
0.0393701
146
0.71
147
1.0
172
     1
176
   256
177
   256
178
     2
271
     2
272
     2
283
     0
284
     8
340
11
341
6C4
342
6C4
371
    -1
372
    -1
1001
ACAD_DSTYLE_DIMJOGGED_JOGANGLE_SYMBOL
1070
   384
1040
0.7853981633974483
1001
ACAD_DSTYLE_DIMARC_LENGTH_SYMBOL
1070
   379
1070
     1
  0
DIMSTYLE
105
76
330
A
100
AcDbSymbolTableRecord
100
AcDbDimStyleTableRecord
  2
AM_ISO$SH
 70
     0
  4
"
 41
0.8
 42
1.0
 43
10.0
 44
1.0
 47
0.1
 48
0.1
 73
     0
 74
     0
 75
     1
 76
     1
 77
     1
 78
     8
 79
     2
140
3.2
141
0.0
143
0.0393701
144
2.0
146
0.71
147
1.0
172
     1
176
   256
177
   256
178
     2
271
     2
272
     2
283
     0
284
     8
340
11
341
6C4
342
6C4
371
    -1
372
    -1
1001
ACAD_DSTYLE_DIMJOGGED_JOGANGLE_SYMBOL
1070
   384
1040
0.7853981633974483
1001
ACAD_DSTYLE_DIMARC_LENGTH_SYMBOL
1070
   379
1070
     1
  0
DIMSTYLE
105
6BE
330
A
100
AcDbSymbolTableRecord
100
AcDbDimStyleTableRecord
  2
AM_ISO$0
 70
     0
  4
"
 41
0.8
 42
1.0
 43
10.0
 44
1.0
 47
0.1
 48
0.1
 73
     0
 74
     0
 77
     1
 78
     8
 79
     2
140
3.2
141
0.0
143
0.0393701
146
0.71
147
0.9999999999999996
172
     1
176
   256
177
   256
178
     2
271
     2
272
     2
283
     0
284
     8
340
11
341
6C4
342
6C4
371
    -1
372
    -1
1001
ACAD_DSTYLE_DIMJOGGED_JOGANGLE_SYMBOL
1070
   384
1040
0.7853981633974483
1001
ACAD_DSTYLE_DIMARC_LENGTH_SYMBOL
1070
   379
1070
     1
  0
DIMSTYLE
105
6BF
330
A
100
AcDbSymbolTableRecord
100
AcDbDimStyleTableRecord
  2
AM_ISO$2
 70
     0
  4
"
 41
0.8
 42
1.0
 43
10.0
 44
1.0
 47
0.1
 48
0.1
 73
     0
 74
     0
 77
     3
 78
     8
 79
     2
140
3.200000000000001
141
0.0
143
0.0393701
146
0.71
147
0.9999999999999996
172
     1
176
   256
177
   256
178
     2
271
     2
272
     2
283
     0
284
     8
340
11
342
6C4
371
    -1
372
    -1
1001
ACAD_DSTYLE_DIMJOGGED_JOGANGLE_SYMBOL
1070
   384
1040
0.7853981633974483
1001
ACAD_DSTYLE_DIMARC_LENGTH_SYMBOL
1070
   379
1070
     1
  0
DIMSTYLE
105
A76
330
A
100
AcDbSymbolTableRecord
100
AcDbDimStyleTableRecord
  2
STANDARD
 70
     0
 41
3.0
 42
1.0
 43
7.0
 44
2.0
 73
     0
 74
     0
 77
     1
140
2.799999999999999
141
0.0
143
0.0394
147
0.7
171
     4
172
     1
173
     1
176
     3
177
     3
178
     2
271
     3
272
     3
273
     8
274
     4
289
     0
340
A74
341
A66
343
A66
344
A66
  0
DIMSTYLE
105
FA9
330
A
100
AcDbSymbolTableRecord
100
AcDbDimStyleTableRecord
  2
AM_ANSI
 70
     0
  4
mm
 41
0.1
 42
0.05
 43
0.5
 44
0.1
 47
0.1
 48
0.1
 78
     7
 79
     2
140
0.12
141
0.0
146
0.71
147
0.06
176
   256
177
   256
178
     2
274
     4
284
     7
340
11
371
    -1
372
    -1
1001
ACAD_DSTYLE_DIMJOGGED_JOGANGLE_SYMBOL
1070
   384
1040
0.7853981633974483
1001
ACAD_DSTYLE_DIMARC_LENGTH_SYMBOL
1070
   379
1070
     1
  0
DIMSTYLE
105
FAA
330
A
100
AcDbSymbolTableRecord
100
AcDbDimStyleTableRecord
  2
AM_ANSI$3
 70
     0
  4
mm
 41
0.1
 42
0.05
 43
0.5
 44
0.1
 47
0.1
 48
0.1
 78
     7
 79
     2
140
0.12
141
0.0
146
0.71
147
0.06
176
   256
177
   256
178
     2
274
     4
284
     7
288
     1
289
     0
340
11
371
    -1
372
    -1
1001
ACAD_DSTYLE_DIMJOGGED_JOGANGLE_SYMBOL
1070
   384
1040
0.7853981633974483
1001
ACAD_DSTYLE_DIMARC_LENGTH_SYMBOL
1070
   379
1070
     1
  0
DIMSTYLE
105
FAB
330
A
100
AcDbSymbolTableRecord
100
AcDbDimStyleTableRecord
  2
AM_ANSI$4
 70
     0
  4
mm
 41
0.1
 42
0.05
 43
0.5
 44
0.1
 47
0.1
 48
0.1
 78
     7
 79
     2
140
0.12
141
0.0
146
0.71
147
0.06
176
   256
177
   256
178
     2
274
     4
284
     7
288
     1
289
     0
340
11
371
    -1
372
    -1
1001
ACAD_DSTYLE_DIMJOGGED_JOGANGLE_SYMBOL
1070
   384
1040
0.7853981633974483
1001
ACAD_DSTYLE_DIMARC_LENGTH_SYMBOL
1070
   379
1070
     1
  0
DIMSTYLE
105
FAC
330
A
100
AcDbSymbolTableRecord
100
AcDbDimStyleTableRecord
  2
AM_ANSI$7
 70
     0
  4
mm
 41
0.1
 42
0.05
 43
0.5
 44
0.1
 47
0.1
 48
0.1
 78
     7
 79
     2
140
0.24
141
0.0
146
0.71
147
0.06
176
   256
177
   256
178
     2
274
     4
284
     7
340
11
371
    -1
372
    -1
1001
ACAD_DSTYLE_DIMJOGGED_JOGANGLE_SYMBOL
1070
   384
1040
0.7853981633974483
1001
ACAD_DSTYLE_DIMARC_LENGTH_SYMBOL
1070
   379
1070
     1
  0
DIMSTYLE
105
FAD
330
A
100
AcDbSymbolTableRecord
100
AcDbDimStyleTableRecord
  2
AM_ANSI$SF
 70
     0
  4
mm
 41
0.1
 42
0.05
 43
0.5
 44
0.1
 47
0.1
 48
0.1
 75
     1
 76
     1
 78
     7
 79
     2
140
0.12
141
0.0
146
0.71
147
0.06
176
   256
177
   256
178
     2
274
     4
284
     7
340
11
371
    -1
372
    -1
1001
ACAD_DSTYLE_DIMJOGGED_JOGANGLE_SYMBOL
1070
   384
1040
0.7853981633974483
1001
ACAD_DSTYLE_DIMARC_LENGTH_SYMBOL
1070
   379
1070
     1
  0
DIMSTYLE
105
FAE
330
A
100
AcDbSymbolTableRecord
100
AcDbDimStyleTableRecord
  2
AM_ANSI$SH
 70
     0
  4
mm
 41
0.1
 42
0.05
 43
0.5
 44
0.1
 47
0.1
 48
0.1
 75
     1
 76
     1
 78
     7
 79
     2
140
0.12
141
0.0
146
0.71
147
0.06
173
     1
176
   256
177
   256
178
     2
274
     4
284
     7
340
11
343
72
371
    -1
372
    -1
1001
ACAD_DSTYLE_DIMJOGGED_JOGANGLE_SYMBOL
1070
   384
1040
0.7853981633974483
1001
ACAD_DSTYLE_DIMARC_LENGTH_SYMBOL
1070
   379
1070
     1
  0
DIMSTYLE
105
2515
330
A
100
AcDbSymbolTableRecord
100
AcDbDimStyleTableRecord
  2
SYS
 70
     0
  4
"
 41
2.5
 42
1.0
 43
10.0
 44
1.0
 47
0.1
 48
0.1
 73
     0
 74
     0
 77
     1
 78
     8
 79
     2
140
3.5
141
0.0
143
0.0393701
146
0.71
147
1.5
172
     1
176
   256
177
   256
178
     7
271
     2
272
     3
274
     4
283
     0
284
     8
340
11
371
    -1
372
    -1
1001
ACAD_DSTYLE_DIMJOGGED_JOGANGLE_SYMBOL
1070
   384
1040
0.7853981633974483
1001
ACAD_DSTYLE_DIMARC_LENGTH_SYMBOL
1070
   379
1070
     1
  0
DIMSTYLE
105
2516
330
A
100
AcDbSymbolTableRecord
100
AcDbDimStyleTableRecord
  2
SYS$3
 70
     0
  4
"
 41
2.0
 42
1.0
 43
10.0
 44
1.0
 47
0.1
 48
0.1
 73
     0
 77
     1
 78
     8
 79
     2
140
3.200000000000001
141
0.0
143
0.0393701
146
0.71
147
1.5
176
   256
177
   256
178
     2
271
     1
272
     1
283
     0
284
     8
288
     1
340
11
342
A66
371
    -1
372
    -1
1001
ACAD_DSTYLE_DIMJOGGED_JOGANGLE_SYMBOL
1070
   384
1040
0.7853981633974483
1001
ACAD_DSTYLE_DIMARC_LENGTH_SYMBOL
1070
   379
1070
     1
  0
DIMSTYLE
105
2517
330
A
100
AcDbSymbolTableRecord
100
AcDbDimStyleTableRecord
  2
SYS$4
 70
     0
  4
"
 41
2.0
 42
1.0
 43
10.0
 44
1.0
 47
0.1
 48
0.1
 73
     0
 77
     1
 78
     8
 79
     2
140
3.2
141
0.0
143
0.0393701
146
0.71
147
1.5
173
     1
176
   256
177
   256
178
     2
271
     2
272
     2
283
     0
284
     8
288
     1
340
11
344
A66
371
    -1
372
    -1
1001
ACAD_DSTYLE_DIMJOGGED_JOGANGLE_SYMBOL
1070
   384
1040
0.7853981633974483
1001
ACAD_DSTYLE_DIMARC_LENGTH_SYMBOL
1070
   379
1070
     1
  0
DIMSTYLE
105
2518
330
A
100
AcDbSymbolTableRecord
100
AcDbDimStyleTableRecord
  2
SYS$6
 70
     0
  4
"
 41
2.0
 42
1.0
 43
10.0
 44
1.0
 47
0.1
 48
0.1
 73
     0
 74
     0
 78
     8
 79
     2
140
3.2
141
0.0
143
0.0393701
146
0.71
147
1.5
172
     1
176
   256
177
   256
178
     2
271
     2
272
     2
283
     0
284
     8
340
11
341
A66
371
    -1
372
    -1
1001
ACAD_DSTYLE_DIMJOGGED_JOGANGLE_SYMBOL
1070
   384
1040
0.7853981633974483
1001
ACAD_DSTYLE_DIMARC_LENGTH_SYMBOL
1070
   379
1070
     1
  0
DIMSTYLE
105
2519
330
A
100
AcDbSymbolTableRecord
100
AcDbDimStyleTableRecord
  2
SYS$7
 70
     0
  4
"
 41
2.0
 42
1.5
 43
10.0
 44
1.0
 47
0.1
 48
0.1
 73
     0
 74
     0
 77
     1
 78
     8
 79
     2
140
3.2
141
0.0
143
0.0393701
146
0.71
147
1.5
172
     1
176
   256
177
   256
178
     2
271
     2
272
     2
283
     0
284
     8
340
11
341
A66
342
A66
371
    -1
372
    -1
1001
ACAD_DSTYLE_DIMJOGGED_JOGANGLE_SYMBOL
1070
   384
1040
0.7853981633974483
1001
ACAD_DSTYLE_DIMARC_LENGTH_SYMBOL
1070
   379
1070
     1
  0
DIMSTYLE
105
251A
330
A
100
AcDbSymbolTableRecord
100
AcDbDimStyleTableRecord
  2
SYS$SF
 70
     0
  4
"
 41
1.0
 42
1.0
 43
10.0
 44
1.0
 47
0.1
 48
0.1
 73
     0
 74
     0
 75
     1
 76
     1
 77
     1
 78
     8
 79
     2
140
3.2
141
0.0
143
0.0393701
146
0.71
147
1.5
172
     1
176
   256
177
   256
178
     2
271
     2
272
     2
283
     0
284
     8
340
11
341
6C4
342
6C4
371
    -1
372
    -1
1001
ACAD_DSTYLE_DIMJOGGED_JOGANGLE_SYMBOL
1070
   384
1040
0.7853981633974483
1001
ACAD_DSTYLE_DIMARC_LENGTH_SYMBOL
1070
   379
1070
     1
  0
DIMSTYLE
105
251B
330
A
100
AcDbSymbolTableRecord
100
AcDbDimStyleTableRecord
  2
SYS$SH
 70
     0
  4
"
 41
1.0
 42
1.0
 43
10.0
 44
1.0
 47
0.1
 48
0.1
 73
     0
 74
     0
 75
     1
 76
     1
 77
     1
 78
     8
 79
     2
140
3.2
141
0.0
143
0.0393701
144
2.0
146
0.71
147
1.5
172
     1
173
     1
176
   256
177
   256
178
     2
271
     2
272
     2
283
     0
284
     8
340
11
341
6C4
343
72
344
6C4
371
    -1
372
    -1
1001
ACAD_DSTYLE_DIMJOGGED_JOGANGLE_SYMBOL
1070
   384
1040
0.7853981633974483
1001
ACAD_DSTYLE_DIMARC_LENGTH_SYMBOL
1070
   379
1070
     1
  0
DIMSTYLE
105
2A59
330
A
100
AcDbSymbolTableRecord
100
AcDbDimStyleTableRecord
  2
SYS$2
 70
     0
  4
"
 41
1.0
 42
1.5
 43
10.0
 44
1.0
 47
0.1
 48
0.1
 73
     0
 74
     0
 77
     1
 78
     8
 79
     2
140
3.2
141
0.0
143
0.0393701
146
0.71
147
1.5
172
     1
176
   256
177
   256
178
     2
271
     2
272
     2
283
     0
284
     8
340
11
342
6C4
371
    -1
372
    -1
1001
ACAD_DSTYLE_DIMJOGGED_JOGANGLE_SYMBOL
1070
   384
1040
0.7853981633974483
1001
ACAD_DSTYLE_DIMARC_LENGTH_SYMBOL
1070
   379
1070
     1
  0
DIMSTYLE
105
2AAB
102
{ACAD_REACTORS
330
B6B2
330
B6D6
330
B70C
330
B730
330
B754
330
B778
330
B7FF
330
B823
330
B847
330
B86B
330
B88F
330
B8B3
330
B8FB
330
B92B
330
B95D
330
E6DE
330
E702
330
E73F
330
E779
330
E7A3
330
ECD8
330
ECF5
102
}
330
A
100
AcDbSymbolTableRecord
100
AcDbDimStyleTableRecord
  2
SYS$0
 70
     0
  4
"
 41
1.0
 42
1.5
 43
10.0
 44
1.0
 47
0.1
 48
0.1
 73
     0
 74
     0
 77
     1
 78
     8
 79
     2
140
3.2
141
0.0
143
0.0393701
146
0.71
147
1.5
172
     1
176
   256
177
   256
178
     2
271
     1
272
     1
283
     0
284
     8
340
11
341
A66
342
6C4
371
    -1
372
    -1
1001
ACAD_DSTYLE_DIMJOGGED_JOGANGLE_SYMBOL
1070
   384
1040
0.7853981633974483
1001
ACAD_DSTYLE_DIMARC_LENGTH_SYMBOL
1070
   379
1070
     1
  0
DIMSTYLE
105
5F9D
330
A
100
AcDbSymbolTableRecord
100
AcDbDimStyleTableRecord
  2
ISO-25
 70
     0
 41
2.5
 42
0.625
 43
3.75
 44
1.25
 73
     0
 74
     0
 77
     1
 78
     8
140
2.5
141
2.5
143
0.03937007874016
147
0.625
171
     3
172
     1
271
     2
272
     2
274
     3
283
     0
284
     8
340
11
  0
DIMSTYLE
105
A44C
330
A
100
AcDbSymbolTableRecord
100
AcDbDimStyleTableRecord
  2
SYSORG2P0
 70
     0
  4
"
 41
2.5
 42
1.0
 43
10.0
 44
1.0
 47
0.1
 48
0.1
 73
     0
 74
     0
 77
     1
 78
     8
 79
     2
140
3.5
141
0.0
143
0.0393701
144
2.000000101657589
146
0.71
147
1.5
172
     1
176
   256
177
   256
178
     7
271
     2
272
     3
274
     4
283
     0
284
     8
340
11
371
    -1
372
    -1
  0
DIMSTYLE
105
A44D
330
A
100
AcDbSymbolTableRecord
100
AcDbDimStyleTableRecord
  2
SYSORG2P0$0
 70
     0
  4
"
 41
1.0
 42
1.5
 43
10.0
 44
1.0
 47
0.1
 48
0.1
 73
     0
 74
     0
 77
     1
 78
     8
 79
     2
140
3.2
141
0.0
143
0.0393701
144
2.000000101657589
146
0.71
147
1.5
172
     1
176
   256
177
   256
178
     2
271
     1
272
     1
283
     0
284
     8
340
11
341
A66
342
6C4
371
    -1
372
    -1
  0
DIMSTYLE
105
A44E
330
A
100
AcDbSymbolTableRecord
100
AcDbDimStyleTableRecord
  2
SYSORG2P0$3
 70
     0
  4
"
 41
2.0
 42
1.0
 43
10.0
 44
1.0
 47
0.1
 48
0.1
 73
     0
 77
     1
 78
     8
 79
     2
140
3.200000000000001
141
0.0
143
0.0393701
144
2.000000101657589
146
0.71
147
1.5
176
   256
177
   256
178
     2
271
     1
272
     1
283
     0
284
     8
288
     1
340
11
342
A66
371
    -1
372
    -1
  0
DIMSTYLE
105
B252
330
A
100
AcDbSymbolTableRecord
100
AcDbDimStyleTableRecord
  2
HAMA
 70
     0
  4
"
 41
1.0
 42
1.5
 43
10.0
 44
1.0
 47
0.1
 48
0.1
 73
     0
 74
     0
 77
     1
 78
     8
 79
     2
140
3.2
141
0.0
143
0.0393701
146
0.71
147
1.5
172
     1
176
   256
177
   256
178
     2
271
     2
272
     1
283
     0
284
     8
340
11
341
A66
342
6C4
371
    -1
372
    -1
  0
DIMSTYLE
105
F121
330
A
100
AcDbSymbolTableRecord
100
AcDbDimStyleTableRecord
  2
SYMBOL
 70
     0
  4
"
 41
2.5
 42
1.0
 43
10.0
 44
1.0
 47
0.1
 48
0.1
 73
     0
 74
     0
 77
     1
 78
     8
 79
     2
140
3.5
141
0.0
143
0.0393701
146
0.71
147
1.5
172
     1
176
   256
177
   256
178
     7
271
     2
272
     3
274
     4
283
     0
284
     8
340
11
371
    -1
372
    -1
  0
DIMSTYLE
105
F122
330
A
100
AcDbSymbolTableRecord
100
AcDbDimStyleTableRecord
  2
HA
 70
     0
  4
"
 41
1.0
 42
1.5
 43
10.0
 44
1.0
 47
0.1
 48
0.1
 73
     0
 74
     0
 77
     1
 78
     8
 79
     2
140
3.2
141
0.0
143
0.0393701
146
0.71
147
1.5
172
     1
173
     1
176
   256
177
   256
178
     2
271
     2
272
     1
283
     0
284
     8
340
11
341
A66
342
6C4
371
    -1
372
    -1
  0
ENDTAB
  0
TABLE
  2
BLOCK_RECORD
  5
1
330
0
100
AcDbSymbolTable
 70
    28
  0
BLOCK_RECORD
  5
1F
102
{ACAD_XDICTIONARY
360
8A
102
}
330
1
100
AcDbSymbolTableRecord
100
AcDbBlockTableRecord
  2
*Model_Space
340
22
  0
BLOCK_RECORD
  5
1B
330
1
100
AcDbSymbolTableRecord
100
AcDbBlockTableRecord
  2
*Paper_Space
340
1E
  0
BLOCK_RECORD
  5
23
330
1
100
AcDbSymbolTableRecord
100
AcDbBlockTableRecord
  2
*Paper_Space0
340
26
  0
BLOCK_RECORD
  5
72
330
1
100
AcDbSymbolTableRecord
100
AcDbBlockTableRecord
  2
GENAXEH
340
0
  0
BLOCK_RECORD
  5
6C4
330
1
100
AcDbSymbolTableRecord
100
AcDbBlockTableRecord
  2
_Dot
340
0
102
{BLKREFS
331
FC8C
331
FC8D
331
FC95
331
FC96
331
FCA0
331
FCA1
331
FCA9
331
FCAA
331
FCB2
331
FCB3
331
FCBB
331
FCBC
331
FCC4
331
FCC5
331
FCCD
331
FCCE
331
FCD6
331
FCD7
331
FCE0
331
FCE1
331
FCE9
331
FCEA
331
FCF2
331
FCF3
331
FCFB
331
FCFC
331
FD04
331
FD05
331
FD0D
331
FD0E
331
FD16
331
FD17
331
FD1F
331
FD20
331
FD28
331
FD29
331
FD31
331
FD32
331
FD3A
331
FD3B
331
FD43
331
FD44
331
FD4C
331
FD4D
102
}
  0
BLOCK_RECORD
  5
A66
330
1
100
AcDbSymbolTableRecord
100
AcDbBlockTableRecord
  2
_OPEN30
340
0
  0
BLOCK_RECORD
  5
B6B3
330
1
100
AcDbSymbolTableRecord
100
AcDbBlockTableRecord
  2
*D5
340
0
  0
BLOCK_RECORD
  5
B6D7
330
1
100
AcDbSymbolTableRecord
100
AcDbBlockTableRecord
  2
*D6
340
0
  0
BLOCK_RECORD
  5
B70D
330
1
100
AcDbSymbolTableRecord
100
AcDbBlockTableRecord
  2
*D7
340
0
  0
BLOCK_RECORD
  5
B731
330
1
100
AcDbSymbolTableRecord
100
AcDbBlockTableRecord
  2
*D8
340
0
  0
BLOCK_RECORD
  5
B755
330
1
100
AcDbSymbolTableRecord
100
AcDbBlockTableRecord
  2
*D9
340
0
  0
BLOCK_RECORD
  5
B779
330
1
100
AcDbSymbolTableRecord
100
AcDbBlockTableRecord
  2
*D10
340
0
  0
BLOCK_RECORD
  5
B800
330
1
100
AcDbSymbolTableRecord
100
AcDbBlockTableRecord
  2
*D11
340
0
  0
BLOCK_RECORD
  5
B824
330
1
100
AcDbSymbolTableRecord
100
AcDbBlockTableRecord
  2
*D12
340
0
  0
BLOCK_RECORD
  5
B848
330
1
100
AcDbSymbolTableRecord
100
AcDbBlockTableRecord
  2
*D13
340
0
  0
BLOCK_RECORD
  5
B86C
330
1
100
AcDbSymbolTableRecord
100
AcDbBlockTableRecord
  2
*D14
340
0
  0
BLOCK_RECORD
  5
B890
330
1
100
AcDbSymbolTableRecord
100
AcDbBlockTableRecord
  2
*D15
340
0
  0
BLOCK_RECORD
  5
B8B4
330
1
100
AcDbSymbolTableRecord
100
AcDbBlockTableRecord
  2
*D16
340
0
  0
BLOCK_RECORD
  5
B8FC
330
1
100
AcDbSymbolTableRecord
100
AcDbBlockTableRecord
  2
*D17
340
0
  0
BLOCK_RECORD
  5
B92C
330
1
100
AcDbSymbolTableRecord
100
AcDbBlockTableRecord
  2
*D18
340
0
  0
BLOCK_RECORD
  5
B95E
330
1
100
AcDbSymbolTableRecord
100
AcDbBlockTableRecord
  2
*D19
340
0
  0
BLOCK_RECORD
  5
E6DF
330
1
100
AcDbSymbolTableRecord
100
AcDbBlockTableRecord
  2
*D20
340
0
  0
BLOCK_RECORD
  5
E703
330
1
100
AcDbSymbolTableRecord
100
AcDbBlockTableRecord
  2
*D21
340
0
  0
BLOCK_RECORD
  5
E740
330
1
100
AcDbSymbolTableRecord
100
AcDbBlockTableRecord
  2
*D22
340
0
  0
BLOCK_RECORD
  5
E77A
330
1
100
AcDbSymbolTableRecord
100
AcDbBlockTableRecord
  2
*D23
340
0
  0
BLOCK_RECORD
  5
E7A4
330
1
100
AcDbSymbolTableRecord
100
AcDbBlockTableRecord
  2
*D24
340
0
  0
BLOCK_RECORD
  5
EE7E
330
1
100
AcDbSymbolTableRecord
100
AcDbBlockTableRecord
  2
*D25
340
0
  0
BLOCK_RECORD
  5
EEAF
330
1
100
AcDbSymbolTableRecord
100
AcDbBlockTableRecord
  2
*D26
340
0
  0
BLOCK_RECORD
  5
FD7C
330
1
100
AcDbSymbolTableRecord
100
AcDbBlockTableRecord
  2
*S27
340
0
  0
ENDTAB
  0
ENDSEC
  0
SECTION
  2
BLOCKS
  0
BLOCK
  5
20
330
1F
100
AcDbEntity
  8
0
100
AcDbBlockBegin
  2
*Model_Space
 70
     0
 10
0.0
 20
0.0
 30
0.0
  3
*Model_Space
  1

  0
ENDBLK
  5
21
330
1F
100
AcDbEntity
  8
0
100
AcDbBlockEnd
  0
BLOCK
  5
1C
330
1B
100
AcDbEntity
 67
     1
  8
0
100
AcDbBlockBegin
  2
*Paper_Space
 70
     0
 10
0.0
 20
0.0
 30
0.0
  3
*Paper_Space
  1

  0
ENDBLK
  5
1D
330
1B
100
AcDbEntity
 67
     1
  8
0
100
AcDbBlockEnd
  0
BLOCK
  5
24
330
23
100
AcDbEntity
 67
     1
  8
0
100
AcDbBlockBegin
  2
*Paper_Space0
 70
     0
 10
0.0
 20
0.0
 30
0.0
  3
*Paper_Space0
  1

  0
ENDBLK
  5
25
330
23
100
AcDbEntity
 67
     1
  8
0
100
AcDbBlockEnd
  0
BLOCK
  5
74
330
72
100
AcDbEntity
  8
0
100
AcDbBlockBegin
  2
GENAXEH
 70
     0
 10
0.0
 20
0.0
 30
0.0
  3
GENAXEH
  1

  0
LINE
  5
73
330
72
100
AcDbEntity
  8
0
100
AcDbLine
 10
-1.0
 20
0.0
 30
0.0
 11
1.0
 21
0.0
 31
0.0
  0
ENDBLK
  5
75
330
72
100
AcDbEntity
  8
0
100
AcDbBlockEnd
  0
BLOCK
  5
6C7
330
6C4
100
AcDbEntity
  8
0
100
AcDbBlockBegin
  2
_Dot
 70
     0
 10
0.0
 20
0.0
 30
0.0
  3
_Dot
  1

  0
LWPOLYLINE
  5
6C5
330
6C4
100
AcDbEntity
  8
0
  6
ByBlock
 62
     0
100
AcDbPolyline
 90
        2
 70
     1
 43
0.5
 10
-0.25
 20
0.0
 42
1.0
 10
0.25
 20
0.0
 42
1.0
  0
LINE
  5
6C6
330
6C4
100
AcDbEntity
  8
0
  6
ByBlock
 62
     0
370
    -2
100
AcDbLine
 10
-0.5
 20
0.0
 30
0.0
 11
-1.0
 21
0.0
 31
0.0
  0
ENDBLK
  5
6C8
330
6C4
100
AcDbEntity
  8
0
100
AcDbBlockEnd
  0
BLOCK
  5
A6A
330
A66
100
AcDbEntity
  8
0
100
AcDbBlockBegin
  2
_OPEN30
 70
     0
 10
0.0
 20
0.0
 30
0.0
  3
_OPEN30
  1

  0
LINE
  5
A67
330
A66
100
AcDbEntity
  8
0
  6
ByBlock
 62
     0
100
AcDbLine
 10
-1.0
 20
0.26794919
 30
0.0
 11
0.0
 21
0.0
 31
0.0
  0
LINE
  5
A68
330
A66
100
AcDbEntity
  8
0
  6
ByBlock
 62
     0
100
AcDbLine
 10
0.0
 20
0.0
 30
0.0
 11
-1.0
 21
-0.26794919
 31
0.0
  0
LINE
  5
A69
330
A66
100
AcDbEntity
  8
0
  6
ByBlock
 62
     0
100
AcDbLine
 10
0.0
 20
0.0
 30
0.0
 11
-1.0
 21
0.0
 31
0.0
  0
ENDBLK
  5
A6B
330
A66
100
AcDbEntity
  8
0
100
AcDbBlockEnd
  0
BLOCK
  5
B6BD
330
B6B3
100
AcDbEntity
  8
0
100
AcDbBlockBegin
  2
*D5
 70
     1
 10
0.0
 20
0.0
 30
0.0
  3
*D5
  1

  0
LINE
  5
FD49
330
B6B3
100
AcDbEntity
  8
AM_5
 48
1.01
100
AcDbLine
 10
402.1975677469637
 20
1494.237282694051
 30
0.0
 11
402.1975677469637
 21
1513.737282694051
 31
0.0
  0
LINE
  5
FD4A
330
B6B3
100
AcDbEntity
  8
AM_5
 48
1.01
100
AcDbLine
 10
427.1975677469637
 20
1494.237282694051
 30
0.0
 11
427.1975677469637
 21
1513.737282694051
 31
0.0
  0
LINE
  5
FD4B
330
B6B3
100
AcDbEntity
  8
AM_5
 48
1.01
100
AcDbLine
 10
403.1975677469636
 20
1512.737282694051
 30
0.0
 11
426.1975677469637
 21
1512.737282694051
 31
0.0
  0
INSERT
  5
FD4C
330
B6B3
100
AcDbEntity
  8
AM_5
 48
1.01
100
AcDbBlockReference
  2
_Dot
 10
402.1975677469637
 20
1512.737282694051
 30
0.0
 41
1.0
 42
1.0
 43
1.0
 50
180.0
  0
INSERT
  5
FD4D
330
B6B3
100
AcDbEntity
  8
AM_5
 48
1.01
100
AcDbBlockReference
  2
_Dot
 10
427.1975677469637
 20
1512.737282694051
 30
0.0
 41
1.0
 42
1.0
 43
1.0
  0
MTEXT
  5
FD4E
330
B6B3
100
AcDbEntity
  8
AM_5
 62
     2
 48
1.01
100
AcDbMText
 10
414.6975677469637
 20
1515.837282694051
 30
0.0
 40
3.2
 41
0.0
 71
     5
 72
     1
  1
25
 73
     1
 44
1.0
1001
ACAD
1000
MTEXTBEGIN
1070
    73
1070
     1
1070
    44
1040
1.0
1070
    74
1070
     0
1000
MTEXTEND
  0
POINT
  5
FD4F
330
B6B3
100
AcDbEntity
  8
Defpoints
 62
     0
 48
1.01
100
AcDbPoint
 10
402.1975677469637
 20
1492.737282694051
 30
0.0
  0
POINT
  5
FD50
330
B6B3
100
AcDbEntity
  8
Defpoints
 62
     0
 48
1.01
100
AcDbPoint
 10
427.1975677469637
 20
1492.737282694051
 30
0.0
  0
POINT
  5
FD51
330
B6B3
100
AcDbEntity
  8
Defpoints
 62
     0
 48
1.01
100
AcDbPoint
 10
427.1975677469637
 20
1512.737282694051
 30
0.0
  0
ENDBLK
  5
B6BE
330
B6B3
100
AcDbEntity
  8
0
100
AcDbBlockEnd
  0
BLOCK
  5
B6E1
330
B6D7
100
AcDbEntity
  8
0
100
AcDbBlockBegin
  2
*D6
 70
     1
 10
0.0
 20
0.0
 30
0.0
  3
*D6
  1

  0
LINE
  5
FD40
330
B6D7
100
AcDbEntity
  8
AM_5
 48
1.01
100
AcDbLine
 10
407.6975677469637
 20
1490.237282694051
 30
0.0
 11
407.6975677469637
 21
1503.73728269405
 31
0.0
  0
LINE
  5
FD41
330
B6D7
100
AcDbEntity
  8
AM_5
 48
1.01
100
AcDbLine
 10
421.6975677469636
 20
1490.237282694051
 30
0.0
 11
421.6975677469636
 21
1503.73728269405
 31
0.0
  0
LINE
  5
FD42
330
B6D7
100
AcDbEntity
  8
AM_5
 48
1.01
100
AcDbLine
 10
408.6975677469637
 20
1502.737282694051
 30
0.0
 11
420.6975677469636
 21
1502.737282694051
 31
0.0
  0
INSERT
  5
FD43
330
B6D7
100
AcDbEntity
  8
AM_5
 48
1.01
100
AcDbBlockReference
  2
_Dot
 10
407.6975677469637
 20
1502.737282694051
 30
0.0
 41
1.0
 42
1.0
 43
1.0
 50
180.0
  0
INSERT
  5
FD44
330
B6D7
100
AcDbEntity
  8
AM_5
 48
1.01
100
AcDbBlockReference
  2
_Dot
 10
421.6975677469636
 20
1502.737282694051
 30
0.0
 41
1.0
 42
1.0
 43
1.0
  0
MTEXT
  5
FD45
330
B6D7
100
AcDbEntity
  8
AM_5
 62
     2
 48
1.01
100
AcDbMText
 10
414.6975677469637
 20
1505.83728269405
 30
0.0
 40
3.2
 41
0.0
 71
     5
 72
     1
  1
14
 73
     1
 44
1.0
1001
ACAD
1000
MTEXTBEGIN
1070
    73
1070
     1
1070
    44
1040
1.0
1070
    74
1070
     0
1000
MTEXTEND
  0
POINT
  5
FD46
330
B6D7
100
AcDbEntity
  8
Defpoints
 62
     0
 48
1.01
100
AcDbPoint
 10
407.6975677469637
 20
1488.737282694051
 30
0.0
  0
POINT
  5
FD47
330
B6D7
100
AcDbEntity
  8
Defpoints
 62
     0
 48
1.01
100
AcDbPoint
 10
421.6975677469636
 20
1488.737282694051
 30
0.0
  0
POINT
  5
FD48
330
B6D7
100
AcDbEntity
  8
Defpoints
 62
     0
 48
1.01
100
AcDbPoint
 10
421.6975677469636
 20
1502.737282694051
 30
0.0
  0
ENDBLK
  5
B6E2
330
B6D7
100
AcDbEntity
  8
0
100
AcDbBlockEnd
  0
BLOCK
  5
B717
330
B70D
100
AcDbEntity
  8
0
100
AcDbBlockBegin
  2
*D7
 70
     1
 10
0.0
 20
0.0
 30
0.0
  3
*D7
  1

  0
LINE
  5
FD37
330
B70D
100
AcDbEntity
  8
AM_5
 48
1.01
100
AcDbLine
 10
428.1975677469637
 20
1482.737282694051
 30
0.0
 11
448.1975677469637
 21
1482.737282694051
 31
0.0
  0
LINE
  5
FD38
330
B70D
100
AcDbEntity
  8
AM_5
 48
1.01
100
AcDbLine
 10
428.6975677469637
 20
1492.737282694051
 30
0.0
 11
448.1975677469637
 21
1492.737282694051
 31
0.0
  0
LINE
  5
FD39
330
B70D
100
AcDbEntity
  8
AM_5
 48
1.01
100
AcDbLine
 10
447.1975677469637
 20
1483.737282694051
 30
0.0
 11
447.1975677469637
 21
1491.737282694051
 31
0.0
  0
INSERT
  5
FD3A
330
B70D
100
AcDbEntity
  8
AM_5
 48
1.01
100
AcDbBlockReference
  2
_Dot
 10
447.1975677469637
 20
1482.737282694051
 30
0.0
 41
1.0
 42
1.0
 43
1.0
 50
270.0
  0
INSERT
  5
FD3B
330
B70D
100
AcDbEntity
  8
AM_5
 48
1.01
100
AcDbBlockReference
  2
_Dot
 10
447.1975677469637
 20
1492.737282694051
 30
0.0
 41
1.0
 42
1.0
 43
1.0
 50
90.0
  0
MTEXT
  5
FD3C
330
B70D
100
AcDbEntity
  8
AM_5
 62
     2
 48
1.01
100
AcDbMText
 10
444.0975677469634
 20
1487.737282694051
 30
0.0
 40
3.2
 41
0.0
 71
     5
 72
     1
  1
10
 11
0.0000000000000001
 21
1.0
 31
0.0
 73
     1
 44
1.0
1001
ACAD
1000
MTEXTBEGIN
1070
    73
1070
     1
1070
    44
1040
1.0
1070
    74
1070
     0
1000
MTEXTEND
  0
POINT
  5
FD3D
330
B70D
100
AcDbEntity
  8
Defpoints
 62
     0
 48
1.01
100
AcDbPoint
 10
426.6975677469637
 20
1482.737282694051
 30
0.0
  0
POINT
  5
FD3E
330
B70D
100
AcDbEntity
  8
Defpoints
 62
     0
 48
1.01
100
AcDbPoint
 10
427.1975677469637
 20
1492.737282694051
 30
0.0
  0
POINT
  5
FD3F
330
B70D
100
AcDbEntity
  8
Defpoints
 62
     0
 48
1.01
100
AcDbPoint
 10
447.1975677469637
 20
1492.737282694051
 30
0.0
  0
ENDBLK
  5
B718
330
B70D
100
AcDbEntity
  8
0
100
AcDbBlockEnd
  0
BLOCK
  5
B73B
330
B731
100
AcDbEntity
  8
0
100
AcDbBlockBegin
  2
*D8
 70
     1
 10
0.0
 20
0.0
 30
0.0
  3
*D8
  1

  0
LINE
  5
FD2E
330
B731
100
AcDbEntity
  8
AM_5
 48
1.01
100
AcDbLine
 10
428.1975677469637
 20
1482.737282694051
 30
0.0
 11
448.1975677469647
 21
1482.737282694051
 31
0.0
  0
LINE
  5
FD2F
330
B731
100
AcDbEntity
  8
AM_5
 48
1.01
100
AcDbLine
 10
428.1975677469637
 20
1202.737282694051
 30
0.0
 11
448.1975677469646
 21
1202.737282694051
 31
0.0
  0
LINE
  5
FD30
330
B731
100
AcDbEntity
  8
AM_5
 48
1.01
100
AcDbLine
 10
447.1975677469647
 20
1481.737282694051
 30
0.0
 11
447.1975677469647
 21
1203.737282694051
 31
0.0
  0
INSERT
  5
FD31
330
B731
100
AcDbEntity
  8
AM_5
 48
1.01
100
AcDbBlockReference
  2
_Dot
 10
447.1975677469647
 20
1482.737282694051
 30
0.0
 41
1.0
 42
1.0
 43
1.0
 50
90.0
  0
INSERT
  5
FD32
330
B731
100
AcDbEntity
  8
AM_5
 48
1.01
100
AcDbBlockReference
  2
_Dot
 10
447.1975677469647
 20
1202.737282694051
 30
0.0
 41
1.0
 42
1.0
 43
1.0
 50
270.0
  0
MTEXT
  5
FD33
330
B731
100
AcDbEntity
  8
AM_5
 62
     2
 48
1.01
100
AcDbMText
 10
444.0975677469644
 20
1342.737282694051
 30
0.0
 40
3.2
 41
0.0
 71
     5
 72
     1
  1
280
 11
0.0000000000000001
 21
1.0
 31
0.0
 73
     1
 44
1.0
1001
ACAD
1000
MTEXTBEGIN
1070
    73
1070
     1
1070
    44
1040
1.0
1070
    74
1070
     0
1000
MTEXTEND
  0
POINT
  5
FD34
330
B731
100
AcDbEntity
  8
Defpoints
 62
     0
 48
1.01
100
AcDbPoint
 10
426.6975677469637
 20
1482.737282694051
 30
0.0
  0
POINT
  5
FD35
330
B731
100
AcDbEntity
  8
Defpoints
 62
     0
 48
1.01
100
AcDbPoint
 10
426.6975677469637
 20
1202.737282694051
 30
0.0
  0
POINT
  5
FD36
330
B731
100
AcDbEntity
  8
Defpoints
 62
     0
 48
1.01
100
AcDbPoint
 10
447.1975677469647
 20
1202.737282694051
 30
0.0
  0
ENDBLK
  5
B73C
330
B731
100
AcDbEntity
  8
0
100
AcDbBlockEnd
  0
BLOCK
  5
B75F
330
B755
100
AcDbEntity
  8
0
100
AcDbBlockBegin
  2
*D9
 70
     1
 10
0.0
 20
0.0
 30
0.0
  3
*D9
  1

  0
LINE
  5
FD25
330
B755
100
AcDbEntity
  8
AM_5
 48
1.01
100
AcDbLine
 10
428.1975677469637
 20
1202.737282694051
 30
0.0
 11
448.1975677469654
 21
1202.737282694051
 31
0.0
  0
LINE
  5
FD26
330
B755
100
AcDbEntity
  8
AM_5
 48
1.01
100
AcDbLine
 10
428.6975677469637
 20
1192.737282694051
 30
0.0
 11
448.1975677469654
 21
1192.737282694051
 31
0.0
  0
LINE
  5
FD27
330
B755
100
AcDbEntity
  8
AM_5
 48
1.01
100
AcDbLine
 10
447.1975677469655
 20
1201.737282694051
 30
0.0
 11
447.1975677469655
 21
1193.737282694051
 31
0.0
  0
INSERT
  5
FD28
330
B755
100
AcDbEntity
  8
AM_5
 48
1.01
100
AcDbBlockReference
  2
_Dot
 10
447.1975677469655
 20
1202.737282694051
 30
0.0
 41
1.0
 42
1.0
 43
1.0
 50
90.0
  0
INSERT
  5
FD29
330
B755
100
AcDbEntity
  8
AM_5
 48
1.01
100
AcDbBlockReference
  2
_Dot
 10
447.1975677469655
 20
1192.737282694051
 30
0.0
 41
1.0
 42
1.0
 43
1.0
 50
270.0
  0
MTEXT
  5
FD2A
330
B755
100
AcDbEntity
  8
AM_5
 62
     2
 48
1.01
100
AcDbMText
 10
444.0975677469652
 20
1197.737282694051
 30
0.0
 40
3.2
 41
0.0
 71
     5
 72
     1
  1
10
 11
0.0000000000000001
 21
1.0
 31
0.0
 73
     1
 44
1.0
1001
ACAD
1000
MTEXTBEGIN
1070
    73
1070
     1
1070
    44
1040
1.0
1070
    74
1070
     0
1000
MTEXTEND
  0
POINT
  5
FD2B
330
B755
100
AcDbEntity
  8
Defpoints
 62
     0
 48
1.01
100
AcDbPoint
 10
426.6975677469637
 20
1202.737282694051
 30
0.0
  0
POINT
  5
FD2C
330
B755
100
AcDbEntity
  8
Defpoints
 62
     0
 48
1.01
100
AcDbPoint
 10
427.1975677469637
 20
1192.737282694051
 30
0.0
  0
POINT
  5
FD2D
330
B755
100
AcDbEntity
  8
Defpoints
 62
     0
 48
1.01
100
AcDbPoint
 10
447.1975677469655
 20
1192.737282694051
 30
0.0
  0
ENDBLK
  5
B760
330
B755
100
AcDbEntity
  8
0
100
AcDbBlockEnd
  0
BLOCK
  5
B783
330
B779
100
AcDbEntity
  8
0
100
AcDbBlockBegin
  2
*D10
 70
     1
 10
0.0
 20
0.0
 30
0.0
  3
*D10
  1

  0
LINE
  5
FD1C
330
B779
100
AcDbEntity
  8
AM_5
 48
1.01
100
AcDbLine
 10
428.6975677469637
 20
1192.737282694051
 30
0.0
 11
458.197567746966
 21
1192.737282694051
 31
0.0
  0
LINE
  5
FD1D
330
B779
100
AcDbEntity
  8
AM_5
 48
1.01
100
AcDbLine
 10
428.6975677469637
 20
1492.737282694051
 30
0.0
 11
458.1975677469661
 21
1492.737282694051
 31
0.0
  0
LINE
  5
FD1E
330
B779
100
AcDbEntity
  8
AM_5
 48
1.01
100
AcDbLine
 10
457.197567746966
 20
1193.737282694051
 30
0.0
 11
457.197567746966
 21
1491.737282694051
 31
0.0
  0
INSERT
  5
FD1F
330
B779
100
AcDbEntity
  8
AM_5
 48
1.01
100
AcDbBlockReference
  2
_Dot
 10
457.197567746966
 20
1192.737282694051
 30
0.0
 41
1.0
 42
1.0
 43
1.0
 50
270.0
  0
INSERT
  5
FD20
330
B779
100
AcDbEntity
  8
AM_5
 48
1.01
100
AcDbBlockReference
  2
_Dot
 10
457.197567746966
 20
1492.737282694051
 30
0.0
 41
1.0
 42
1.0
 43
1.0
 50
90.0
  0
MTEXT
  5
FD21
330
B779
100
AcDbEntity
  8
AM_5
 62
     2
 48
1.01
100
AcDbMText
 10
454.0975677469658
 20
1342.737282694051
 30
0.0
 40
3.2
 41
0.0
 71
     5
 72
     1
  1
300（切欠300.5×25.5）
 11
0.0000000000000001
 21
1.0
 31
0.0
 73
     1
 44
1.0
1001
ACAD
1000
MTEXTBEGIN
1070
    73
1070
     1
1070
    44
1040
1.0
1070
    74
1070
     0
1000
MTEXTEND
  0
POINT
  5
FD22
330
B779
100
AcDbEntity
  8
Defpoints
 62
     0
 48
1.01
100
AcDbPoint
 10
427.1975677469637
 20
1192.737282694051
 30
0.0
  0
POINT
  5
FD23
330
B779
100
AcDbEntity
  8
Defpoints
 62
     0
 48
1.01
100
AcDbPoint
 10
427.1975677469637
 20
1492.737282694051
 30
0.0
  0
POINT
  5
FD24
330
B779
100
AcDbEntity
  8
Defpoints
 62
     0
 48
1.01
100
AcDbPoint
 10
457.197567746966
 20
1492.737282694051
 30
0.0
  0
ENDBLK
  5
B784
330
B779
100
AcDbEntity
  8
0
100
AcDbBlockEnd
  0
BLOCK
  5
B80A
330
B800
100
AcDbEntity
  8
0
100
AcDbBlockBegin
  2
*D11
 70
     1
 10
0.0
 20
0.0
 30
0.0
  3
*D11
  1

  0
LINE
  5
FD13
330
B800
100
AcDbEntity
  8
AM_5
 48
1.01
100
AcDbLine
 10
550.5433179101077
 20
1282.737267435261
 30
0.0
 11
529.8541488158348
 21
1282.737267435261
 31
0.0
  0
LINE
  5
FD14
330
B800
100
AcDbEntity
  8
AM_5
 48
1.01
100
AcDbLine
 10
555.3541488158348
 20
1342.737328470411
 30
0.0
 11
529.8541488158348
 21
1342.737328470411
 31
0.0
  0
LINE
  5
FD15
330
B800
100
AcDbEntity
  8
AM_5
 48
1.01
100
AcDbLine
 10
530.8541488158348
 20
1283.737267435261
 30
0.0
 11
530.8541488158348
 21
1341.737328470411
 31
0.0
  0
INSERT
  5
FD16
330
B800
100
AcDbEntity
  8
AM_5
 48
1.01
100
AcDbBlockReference
  2
_Dot
 10
530.8541488158348
 20
1282.737267435261
 30
0.0
 41
1.0
 42
1.0
 43
1.0
 50
270.0
  0
INSERT
  5
FD17
330
B800
100
AcDbEntity
  8
AM_5
 48
1.01
100
AcDbBlockReference
  2
_Dot
 10
530.8541488158348
 20
1342.737328470411
 30
0.0
 41
1.0
 42
1.0
 43
1.0
 50
90.0
  0
MTEXT
  5
FD18
330
B800
100
AcDbEntity
  8
AM_5
 62
     2
 48
1.01
100
AcDbMText
 10
527.7541488158346
 20
1312.737297952836
 30
0.0
 40
3.2
 41
0.0
 71
     5
 72
     1
  1
60
 11
0.0000000000000001
 21
1.0
 31
0.0
 73
     1
 44
1.0
1001
ACAD
1000
MTEXTBEGIN
1070
    73
1070
     1
1070
    44
1040
1.0
1070
    74
1070
     0
1000
MTEXTEND
  0
POINT
  5
FD19
330
B800
100
AcDbEntity
  8
Defpoints
 62
     0
 48
1.01
100
AcDbPoint
 10
552.0433179101076
 20
1282.737267435261
 30
0.0
  0
POINT
  5
FD1A
330
B800
100
AcDbEntity
  8
Defpoints
 62
     0
 48
1.01
100
AcDbPoint
 10
556.8541488158348
 20
1342.737328470411
 30
0.0
  0
POINT
  5
FD1B
330
B800
100
AcDbEntity
  8
Defpoints
 62
     0
 48
1.01
100
AcDbPoint
 10
530.8541488158348
 20
1342.737328470411
 30
0.0
  0
ENDBLK
  5
B80B
330
B800
100
AcDbEntity
  8
0
100
AcDbBlockEnd
  0
BLOCK
  5
B82E
330
B824
100
AcDbEntity
  8
0
100
AcDbBlockBegin
  2
*D12
 70
     1
 10
0.0
 20
0.0
 30
0.0
  3
*D12
  1

  0
LINE
  5
FD0A
330
B824
100
AcDbEntity
  8
AM_5
 48
1.01
100
AcDbLine
 10
621.7641829955248
 20
1317.737267435261
 30
0.0
 11
519.8541488158348
 21
1317.737267435261
 31
0.0
  0
LINE
  5
FD0B
330
B824
100
AcDbEntity
  8
AM_5
 48
1.01
100
AcDbLine
 10
550.5433179101077
 20
1282.737267435261
 30
0.0
 11
519.8541488158348
 21
1282.737267435261
 31
0.0
  0
LINE
  5
FD0C
330
B824
100
AcDbEntity
  8
AM_5
 48
1.01
100
AcDbLine
 10
520.8541488158348
 20
1316.737267435261
 30
0.0
 11
520.8541488158348
 21
1283.737267435261
 31
0.0
  0
INSERT
  5
FD0D
330
B824
100
AcDbEntity
  8
AM_5
 48
1.01
100
AcDbBlockReference
  2
_Dot
 10
520.8541488158348
 20
1317.737267435261
 30
0.0
 41
1.0
 42
1.0
 43
1.0
 50
90.0
  0
INSERT
  5
FD0E
330
B824
100
AcDbEntity
  8
AM_5
 48
1.01
100
AcDbBlockReference
  2
_Dot
 10
520.8541488158348
 20
1282.737267435261
 30
0.0
 41
1.0
 42
1.0
 43
1.0
 50
270.0
  0
MTEXT
  5
FD0F
330
B824
100
AcDbEntity
  8
AM_5
 62
     2
 48
1.01
100
AcDbMText
 10
517.7541488158346
 20
1300.237267435261
 30
0.0
 40
3.2
 41
0.0
 71
     5
 72
     1
  1
35
 11
0.0000000000000001
 21
1.0
 31
0.0
 73
     1
 44
1.0
1001
ACAD
1000
MTEXTBEGIN
1070
    73
1070
     1
1070
    44
1040
1.0
1070
    74
1070
     0
1000
MTEXTEND
  0
POINT
  5
FD10
330
B824
100
AcDbEntity
  8
Defpoints
 62
     0
 48
1.01
100
AcDbPoint
 10
623.2641829955248
 20
1317.737267435261
 30
0.0
  0
POINT
  5
FD11
330
B824
100
AcDbEntity
  8
Defpoints
 62
     0
 48
1.01
100
AcDbPoint
 10
552.0433179101076
 20
1282.737267435261
 30
0.0
  0
POINT
  5
FD12
330
B824
100
AcDbEntity
  8
Defpoints
 62
     0
 48
1.01
100
AcDbPoint
 10
520.8541488158348
 20
1282.737267435261
 30
0.0
  0
ENDBLK
  5
B82F
330
B824
100
AcDbEntity
  8
0
100
AcDbBlockEnd
  0
BLOCK
  5
B852
330
B848
100
AcDbEntity
  8
0
100
AcDbBlockBegin
  2
*D13
 70
     1
 10
0.0
 20
0.0
 30
0.0
  3
*D13
  1

  0
LINE
  5
FD01
330
B848
100
AcDbEntity
  8
AM_5
 48
1.01
100
AcDbLine
 10
550.5433179101077
 20
1282.737267435261
 30
0.0
 11
519.8541488158349
 21
1282.737267435261
 31
0.0
  0
LINE
  5
FD02
330
B848
100
AcDbEntity
  8
AM_5
 48
1.01
100
AcDbLine
 10
572.1541672471814
 20
1217.737288773719
 30
0.0
 11
519.8541488158348
 21
1217.737288773719
 31
0.0
  0
LINE
  5
FD03
330
B848
100
AcDbEntity
  8
AM_5
 48
1.01
100
AcDbLine
 10
520.8541488158349
 20
1281.737267435261
 30
0.0
 11
520.8541488158348
 21
1218.737288773719
 31
0.0
  0
INSERT
  5
FD04
330
B848
100
AcDbEntity
  8
AM_5
 48
1.01
100
AcDbBlockReference
  2
_Dot
 10
520.8541488158349
 20
1282.737267435261
 30
0.0
 41
1.0
 42
1.0
 43
1.0
 50
90.0
  0
INSERT
  5
FD05
330
B848
100
AcDbEntity
  8
AM_5
 48
1.01
100
AcDbBlockReference
  2
_Dot
 10
520.8541488158348
 20
1217.737288773719
 30
0.0
 41
1.0
 42
1.0
 43
1.0
 50
270.0
  0
MTEXT
  5
FD06
330
B848
100
AcDbEntity
  8
AM_5
 62
     2
 48
1.01
100
AcDbMText
 10
517.7541488158347
 20
1250.23727810449
 30
0.0
 40
3.2
 41
0.0
 71
     5
 72
     1
  1
65
 11
0.0000000000000001
 21
1.0
 31
0.0
 73
     1
 44
1.0
1001
ACAD
1000
MTEXTBEGIN
1070
    73
1070
     1
1070
    44
1040
1.0
1070
    74
1070
     0
1000
MTEXTEND
  0
POINT
  5
FD07
330
B848
100
AcDbEntity
  8
Defpoints
 62
     0
 48
1.01
100
AcDbPoint
 10
552.0433179101076
 20
1282.737267435261
 30
0.0
  0
POINT
  5
FD08
330
B848
100
AcDbEntity
  8
Defpoints
 62
     0
 48
1.01
100
AcDbPoint
 10
573.6541672471815
 20
1217.737288773719
 30
0.0
  0
POINT
  5
FD09
330
B848
100
AcDbEntity
  8
Defpoints
 62
     0
 48
1.01
100
AcDbPoint
 10
520.8541488158348
 20
1217.737288773719
 30
0.0
  0
ENDBLK
  5
B853
330
B848
100
AcDbEntity
  8
0
100
AcDbBlockEnd
  0
BLOCK
  5
B876
330
B86C
100
AcDbEntity
  8
0
100
AcDbBlockBegin
  2
*D14
 70
     1
 10
0.0
 20
0.0
 30
0.0
  3
*D14
  1

  0
LINE
  5
FCF8
330
B86C
100
AcDbEntity
  8
AM_5
 48
1.01
100
AcDbLine
 10
572.1541672471814
 20
1217.737288773719
 30
0.0
 11
519.8541488158353
 21
1217.737288773719
 31
0.0
  0
LINE
  5
FCF9
330
B86C
100
AcDbEntity
  8
AM_5
 48
1.01
100
AcDbLine
 10
565.3541488158348
 20
1192.737313211629
 30
0.0
 11
519.8541488158353
 21
1192.737313211629
 31
0.0
  0
LINE
  5
FCFA
330
B86C
100
AcDbEntity
  8
AM_5
 48
1.01
100
AcDbLine
 10
520.8541488158353
 20
1216.737288773719
 30
0.0
 11
520.8541488158353
 21
1193.737313211629
 31
0.0
  0
INSERT
  5
FCFB
330
B86C
100
AcDbEntity
  8
AM_5
 48
1.01
100
AcDbBlockReference
  2
_Dot
 10
520.8541488158353
 20
1217.737288773719
 30
0.0
 41
1.0
 42
1.0
 43
1.0
 50
90.0
  0
INSERT
  5
FCFC
330
B86C
100
AcDbEntity
  8
AM_5
 48
1.01
100
AcDbBlockReference
  2
_Dot
 10
520.8541488158353
 20
1192.737313211629
 30
0.0
 41
1.0
 42
1.0
 43
1.0
 50
270.0
  0
MTEXT
  5
FCFD
330
B86C
100
AcDbEntity
  8
AM_5
 62
     2
 48
1.01
100
AcDbMText
 10
517.7541488158351
 20
1205.237300992674
 30
0.0
 40
3.2
 41
0.0
 71
     5
 72
     1
  1
25
 11
0.0000000000000001
 21
1.0
 31
0.0
 73
     1
 44
1.0
1001
ACAD
1000
MTEXTBEGIN
1070
    73
1070
     1
1070
    44
1040
1.0
1070
    74
1070
     0
1000
MTEXTEND
  0
POINT
  5
FCFE
330
B86C
100
AcDbEntity
  8
Defpoints
 62
     0
 48
1.01
100
AcDbPoint
 10
573.6541672471815
 20
1217.737288773719
 30
0.0
  0
POINT
  5
FCFF
330
B86C
100
AcDbEntity
  8
Defpoints
 62
     0
 48
1.01
100
AcDbPoint
 10
566.8541488158348
 20
1192.737313211629
 30
0.0
  0
POINT
  5
FD00
330
B86C
100
AcDbEntity
  8
Defpoints
 62
     0
 48
1.01
100
AcDbPoint
 10
520.8541488158353
 20
1192.737313211629
 30
0.0
  0
ENDBLK
  5
B877
330
B86C
100
AcDbEntity
  8
0
100
AcDbBlockEnd
  0
BLOCK
  5
B89A
330
B890
100
AcDbEntity
  8
0
100
AcDbBlockBegin
  2
*D15
 70
     1
 10
0.0
 20
0.0
 30
0.0
  3
*D15
  1

  0
LINE
  5
FCEF
330
B890
100
AcDbEntity
  8
AM_5
 48
1.01
100
AcDbLine
 10
621.7641829955248
 20
1317.737267435261
 30
0.0
 11
519.8541488158348
 21
1317.737267435261
 31
0.0
  0
LINE
  5
FCF0
330
B890
100
AcDbEntity
  8
AM_5
 48
1.01
100
AcDbLine
 10
609.4911326995563
 20
1387.737313211621
 30
0.0
 11
519.8541488158348
 21
1387.737313211621
 31
0.0
  0
LINE
  5
FCF1
330
B890
100
AcDbEntity
  8
AM_5
 48
1.01
100
AcDbLine
 10
520.8541488158348
 20
1318.737267435261
 30
0.0
 11
520.8541488158348
 21
1386.737313211621
 31
0.0
  0
INSERT
  5
FCF2
330
B890
100
AcDbEntity
  8
AM_5
 48
1.01
100
AcDbBlockReference
  2
_Dot
 10
520.8541488158348
 20
1317.737267435261
 30
0.0
 41
1.0
 42
1.0
 43
1.0
 50
270.0
  0
INSERT
  5
FCF3
330
B890
100
AcDbEntity
  8
AM_5
 48
1.01
100
AcDbBlockReference
  2
_Dot
 10
520.8541488158348
 20
1387.737313211621
 30
0.0
 41
1.0
 42
1.0
 43
1.0
 50
90.0
  0
MTEXT
  5
FCF4
330
B890
100
AcDbEntity
  8
AM_5
 62
     2
 48
1.01
100
AcDbMText
 10
517.7541488158346
 20
1352.737290323441
 30
0.0
 40
3.2
 41
0.0
 71
     5
 72
     1
  1
SP　70
 11
0.0000000000000001
 21
1.0
 31
0.0
 73
     1
 44
1.0
1001
ACAD
1000
MTEXTBEGIN
1070
    73
1070
     1
1070
    44
1040
1.0
1070
    74
1070
     0
1000
MTEXTEND
  0
POINT
  5
FCF5
330
B890
100
AcDbEntity
  8
Defpoints
 62
     0
 48
1.01
100
AcDbPoint
 10
623.2641829955248
 20
1317.737267435261
 30
0.0
  0
POINT
  5
FCF6
330
B890
100
AcDbEntity
  8
Defpoints
 62
     0
 48
1.01
100
AcDbPoint
 10
610.9911326995564
 20
1387.737313211621
 30
0.0
  0
POINT
  5
FCF7
330
B890
100
AcDbEntity
  8
Defpoints
 62
     0
 48
1.01
100
AcDbPoint
 10
520.8541488158348
 20
1387.737313211621
 30
0.0
  0
ENDBLK
  5
B89B
330
B890
100
AcDbEntity
  8
0
100
AcDbBlockEnd
  0
BLOCK
  5
B8BE
330
B8B4
100
AcDbEntity
  8
0
100
AcDbBlockBegin
  2
*D16
 70
     1
 10
0.0
 20
0.0
 30
0.0
  3
*D16
  1

  0
LINE
  5
FCE6
330
B8B4
100
AcDbEntity
  8
AM_5
 48
1.01
100
AcDbLine
 10
609.4911326995563
 20
1387.737313211621
 30
0.0
 11
519.8541488158348
 21
1387.737313211621
 31
0.0
  0
LINE
  5
FCE7
330
B8B4
100
AcDbEntity
  8
AM_5
 48
1.01
100
AcDbLine
 10
572.1541671263848
 20
1467.737313211621
 30
0.0
 11
519.8541488158348
 21
1467.737313211621
 31
0.0
  0
LINE
  5
FCE8
330
B8B4
100
AcDbEntity
  8
AM_5
 48
1.01
100
AcDbLine
 10
520.8541488158348
 20
1388.737313211621
 30
0.0
 11
520.8541488158348
 21
1466.737313211621
 31
0.0
  0
INSERT
  5
FCE9
330
B8B4
100
AcDbEntity
  8
AM_5
 48
1.01
100
AcDbBlockReference
  2
_Dot
 10
520.8541488158348
 20
1387.737313211621
 30
0.0
 41
1.0
 42
1.0
 43
1.0
 50
270.0
  0
INSERT
  5
FCEA
330
B8B4
100
AcDbEntity
  8
AM_5
 48
1.01
100
AcDbBlockReference
  2
_Dot
 10
520.8541488158348
 20
1467.737313211621
 30
0.0
 41
1.0
 42
1.0
 43
1.0
 50
90.0
  0
MTEXT
  5
FCEB
330
B8B4
100
AcDbEntity
  8
AM_5
 62
     2
 48
1.01
100
AcDbMText
 10
517.7541488158346
 20
1427.737313211621
 30
0.0
 40
3.2
 41
0.0
 71
     5
 72
     1
  1
80
 11
0.0000000000000001
 21
1.0
 31
0.0
 73
     1
 44
1.0
1001
ACAD
1000
MTEXTBEGIN
1070
    73
1070
     1
1070
    44
1040
1.0
1070
    74
1070
     0
1000
MTEXTEND
  0
POINT
  5
FCEC
330
B8B4
100
AcDbEntity
  8
Defpoints
 62
     0
 48
1.01
100
AcDbPoint
 10
610.9911326995564
 20
1387.737313211621
 30
0.0
  0
POINT
  5
FCED
330
B8B4
100
AcDbEntity
  8
Defpoints
 62
     0
 48
1.01
100
AcDbPoint
 10
573.6541671263847
 20
1467.737313211621
 30
0.0
  0
POINT
  5
FCEE
330
B8B4
100
AcDbEntity
  8
Defpoints
 62
     0
 48
1.01
100
AcDbPoint
 10
520.8541488158348
 20
1467.737313211621
 30
0.0
  0
ENDBLK
  5
B8BF
330
B8B4
100
AcDbEntity
  8
0
100
AcDbBlockEnd
  0
BLOCK
  5
B908
330
B8FC
100
AcDbEntity
  8
0
100
AcDbBlockBegin
  2
*D17
 70
     1
 10
0.0
 20
0.0
 30
0.0
  3
*D17
  1

  0
LINE
  5
FCDC
330
B8FC
100
AcDbEntity
  8
AM_5
 48
1.01
100
AcDbLine
 10
566.8541488158348
 20
1494.237313211621
 30
0.0
 11
566.8541488158348
 21
1503.737313211621
 31
0.0
  0
LINE
  5
FCDD
330
B8FC
100
AcDbEntity
  8
AM_5
 48
1.01
100
AcDbLine
 10
572.0541610228748
 20
1494.237313211621
 30
0.0
 11
572.0541610228748
 21
1503.737313211621
 31
0.0
  0
LINE
  5
FCDE
330
B8FC
100
AcDbEntity
  8
AM_5
 48
1.01
100
AcDbLine
 10
567.8541488158348
 20
1502.737313211621
 30
0.0
 11
571.0541610228748
 21
1502.737313211621
 31
0.0
  0
LINE
  5
FCDF
330
B8FC
100
AcDbEntity
  8
AM_5
 48
1.01
100
AcDbLine
 10
572.0541610228748
 20
1502.737313211621
 30
0.0
 11
580.7474943562082
 21
1502.737313211621
 31
0.0
  0
INSERT
  5
FCE0
330
B8FC
100
AcDbEntity
  8
AM_5
 48
1.01
100
AcDbBlockReference
  2
_Dot
 10
566.8541488158348
 20
1502.737313211621
 30
0.0
 41
1.0
 42
1.0
 43
1.0
 50
180.0
  0
INSERT
  5
FCE1
330
B8FC
100
AcDbEntity
  8
AM_5
 48
1.01
100
AcDbBlockReference
  2
_Dot
 10
572.0541610228748
 20
1502.737313211621
 30
0.0
 41
1.0
 42
1.0
 43
1.0
  0
MTEXT
  5
FCE2
330
B8FC
100
AcDbEntity
  8
AM_5
 62
     2
 48
1.01
100
AcDbMText
 10
576.9008276895415
 20
1505.837313211621
 30
0.0
 40
3.2
 41
0.0
 71
     5
 72
     1
  1
5.2
 73
     1
 44
1.0
1001
ACAD
1000
MTEXTBEGIN
1070
    73
1070
     1
1070
    44
1040
1.0
1070
    74
1070
     0
1000
MTEXTEND
  0
POINT
  5
FCE3
330
B8FC
100
AcDbEntity
  8
Defpoints
 62
     0
 48
1.01
100
AcDbPoint
 10
566.8541488158348
 20
1492.737313211621
 30
0.0
  0
POINT
  5
FCE4
330
B8FC
100
AcDbEntity
  8
Defpoints
 62
     0
 48
1.01
100
AcDbPoint
 10
572.0541610228748
 20
1492.737313211621
 30
0.0
  0
POINT
  5
FCE5
330
B8FC
100
AcDbEntity
  8
Defpoints
 62
     0
 48
1.01
100
AcDbPoint
 10
572.0541610228748
 20
1502.737313211621
 30
0.0
  0
ENDBLK
  5
B909
330
B8FC
100
AcDbEntity
  8
0
100
AcDbBlockEnd
  0
BLOCK
  5
B936
330
B92C
100
AcDbEntity
  8
0
100
AcDbBlockBegin
  2
*D18
 70
     1
 10
0.0
 20
0.0
 30
0.0
  3
*D18
  1

  0
LINE
  5
FCD3
330
B92C
100
AcDbEntity
  8
AM_5
 48
1.01
100
AcDbLine
 10
566.8541488158348
 20
1494.237313211621
 30
0.0
 11
566.8541488158348
 21
1513.737313211621
 31
0.0
  0
LINE
  5
FCD4
330
B92C
100
AcDbEntity
  8
AM_5
 48
1.01
100
AcDbLine
 10
636.8541806244285
 20
1482.437313211621
 30
0.0
 11
636.8541806244285
 21
1513.737313211621
 31
0.0
  0
LINE
  5
FCD5
330
B92C
100
AcDbEntity
  8
AM_5
 48
1.01
100
AcDbLine
 10
567.8541488158348
 20
1512.737313211621
 30
0.0
 11
635.8541806244285
 21
1512.737313211621
 31
0.0
  0
INSERT
  5
FCD6
330
B92C
100
AcDbEntity
  8
AM_5
 48
1.01
100
AcDbBlockReference
  2
_Dot
 10
566.8541488158348
 20
1512.737313211621
 30
0.0
 41
1.0
 42
1.0
 43
1.0
 50
180.0
  0
INSERT
  5
FCD7
330
B92C
100
AcDbEntity
  8
AM_5
 48
1.01
100
AcDbBlockReference
  2
_Dot
 10
636.8541806244285
 20
1512.737313211621
 30
0.0
 41
1.0
 42
1.0
 43
1.0
  0
MTEXT
  5
FCD8
330
B92C
100
AcDbEntity
  8
AM_5
 62
     2
 48
1.01
100
AcDbMText
 10
601.8541647201316
 20
1515.837313211621
 30
0.0
 40
3.2
 41
0.0
 71
     5
 72
     1
  1
BS:70
 73
     1
 44
1.0
1001
ACAD
1000
MTEXTBEGIN
1070
    73
1070
     1
1070
    44
1040
1.0
1070
    74
1070
     0
1000
MTEXTEND
  0
POINT
  5
FCD9
330
B92C
100
AcDbEntity
  8
Defpoints
 62
     0
 48
1.01
100
AcDbPoint
 10
566.8541488158348
 20
1492.737313211621
 30
0.0
  0
POINT
  5
FCDA
330
B92C
100
AcDbEntity
  8
Defpoints
 62
     0
 48
1.01
100
AcDbPoint
 10
636.8541806244285
 20
1480.937313211621
 30
0.0
  0
POINT
  5
FCDB
330
B92C
100
AcDbEntity
  8
Defpoints
 62
     0
 48
1.01
100
AcDbPoint
 10
636.8541806244285
 20
1512.737313211621
 30
0.0
  0
ENDBLK
  5
B937
330
B92C
100
AcDbEntity
  8
0
100
AcDbBlockEnd
  0
BLOCK
  5
B968
330
B95E
100
AcDbEntity
  8
0
100
AcDbBlockBegin
  2
*D19
 70
     1
 10
0.0
 20
0.0
 30
0.0
  3
*D19
  1

  0
LINE
  5
FCCA
330
B95E
100
AcDbEntity
  8
AM_5
 48
1.01
100
AcDbLine
 10
566.8541488158348
 20
1494.237313211621
 30
0.0
 11
566.8541488158348
 21
1523.73731321162
 31
0.0
  0
LINE
  5
FCCB
330
B95E
100
AcDbEntity
  8
AM_5
 48
1.01
100
AcDbLine
 10
696.8541488158348
 20
1469.237313211621
 30
0.0
 11
696.8541488158348
 21
1523.73731321162
 31
0.0
  0
LINE
  5
FCCC
330
B95E
100
AcDbEntity
  8
AM_5
 48
1.01
100
AcDbLine
 10
567.8541488158348
 20
1522.73731321162
 30
0.0
 11
695.8541488158348
 21
1522.73731321162
 31
0.0
  0
INSERT
  5
FCCD
330
B95E
100
AcDbEntity
  8
AM_5
 48
1.01
100
AcDbBlockReference
  2
_Dot
 10
566.8541488158348
 20
1522.73731321162
 30
0.0
 41
1.0
 42
1.0
 43
1.0
 50
180.0
  0
INSERT
  5
FCCE
330
B95E
100
AcDbEntity
  8
AM_5
 48
1.01
100
AcDbBlockReference
  2
_Dot
 10
696.8541488158348
 20
1522.73731321162
 30
0.0
 41
1.0
 42
1.0
 43
1.0
  0
MTEXT
  5
FCCF
330
B95E
100
AcDbEntity
  8
AM_5
 62
     2
 48
1.01
100
AcDbMText
 10
631.8541488158348
 20
1525.83731321162
 30
0.0
 40
3.2
 41
0.0
 71
     5
 72
     1
  1
130
 73
     1
 44
1.0
1001
ACAD
1000
MTEXTBEGIN
1070
    73
1070
     1
1070
    44
1040
1.0
1070
    74
1070
     0
1000
MTEXTEND
  0
POINT
  5
FCD0
330
B95E
100
AcDbEntity
  8
Defpoints
 62
     0
 48
1.01
100
AcDbPoint
 10
566.8541488158348
 20
1492.737313211621
 30
0.0
  0
POINT
  5
FCD1
330
B95E
100
AcDbEntity
  8
Defpoints
 62
     0
 48
1.01
100
AcDbPoint
 10
696.8541488158348
 20
1467.737313211621
 30
0.0
  0
POINT
  5
FCD2
330
B95E
100
AcDbEntity
  8
Defpoints
 62
     0
 48
1.01
100
AcDbPoint
 10
696.8541488158348
 20
1522.73731321162
 30
0.0
  0
ENDBLK
  5
B969
330
B95E
100
AcDbEntity
  8
0
100
AcDbBlockEnd
  0
BLOCK
  5
E6E9
330
E6DF
100
AcDbEntity
  8
0
100
AcDbBlockBegin
  2
*D20
 70
     1
 10
0.0
 20
0.0
 30
0.0
  3
*D20
  1

  0
LINE
  5
FCC1
330
E6DF
100
AcDbEntity
  8
AM_5
 48
1.01
100
AcDbLine
 10
424.1975677469637
 20
1297.737267435261
 30
0.0
 11
438.1975677469648
 21
1297.737267435261
 31
0.0
  0
LINE
  5
FCC2
330
E6DF
100
AcDbEntity
  8
AM_5
 48
1.01
100
AcDbLine
 10
424.1975677469637
 20
1267.737267435261
 30
0.0
 11
438.1975677469648
 21
1267.737267435261
 31
0.0
  0
LINE
  5
FCC3
330
E6DF
100
AcDbEntity
  8
AM_5
 48
1.01
100
AcDbLine
 10
437.1975677469649
 20
1296.737267435261
 30
0.0
 11
437.1975677469649
 21
1268.737267435261
 31
0.0
  0
INSERT
  5
FCC4
330
E6DF
100
AcDbEntity
  8
AM_5
 48
1.01
100
AcDbBlockReference
  2
_Dot
 10
437.1975677469649
 20
1297.737267435261
 30
0.0
 41
1.0
 42
1.0
 43
1.0
 50
90.0
  0
INSERT
  5
FCC5
330
E6DF
100
AcDbEntity
  8
AM_5
 48
1.01
100
AcDbBlockReference
  2
_Dot
 10
437.1975677469649
 20
1267.737267435261
 30
0.0
 41
1.0
 42
1.0
 43
1.0
 50
270.0
  0
MTEXT
  5
FCC6
330
E6DF
100
AcDbEntity
  8
AM_5
 62
     2
 48
1.01
100
AcDbMText
 10
434.0975677469646
 20
1282.737267435261
 30
0.0
 40
3.2
 41
0.0
 71
     5
 72
     1
  1
30
 11
0.0000000000000001
 21
1.0
 31
0.0
 73
     1
 44
1.0
1001
ACAD
1000
MTEXTBEGIN
1070
    73
1070
     1
1070
    44
1040
1.0
1070
    74
1070
     0
1000
MTEXTEND
  0
POINT
  5
FCC7
330
E6DF
100
AcDbEntity
  8
Defpoints
 62
     0
 48
1.01
100
AcDbPoint
 10
422.6975677469637
 20
1297.737267435261
 30
0.0
  0
POINT
  5
FCC8
330
E6DF
100
AcDbEntity
  8
Defpoints
 62
     0
 48
1.01
100
AcDbPoint
 10
422.6975677469637
 20
1267.737267435261
 30
0.0
  0
POINT
  5
FCC9
330
E6DF
100
AcDbEntity
  8
Defpoints
 62
     0
 48
1.01
100
AcDbPoint
 10
437.1975677469649
 20
1267.737267435261
 30
0.0
  0
ENDBLK
  5
E6EA
330
E6DF
100
AcDbEntity
  8
0
100
AcDbBlockEnd
  0
BLOCK
  5
E70D
330
E703
100
AcDbEntity
  8
0
100
AcDbBlockBegin
  2
*D21
 70
     1
 10
0.0
 20
0.0
 30
0.0
  3
*D21
  1

  0
LINE
  5
FCB8
330
E703
100
AcDbEntity
  8
AM_5
 48
1.01
100
AcDbLine
 10
406.6975677469637
 20
1266.237267435261
 30
0.0
 11
406.6975677469637
 21
1255.596315552039
 31
0.0
  0
LINE
  5
FCB9
330
E703
100
AcDbEntity
  8
AM_5
 48
1.01
100
AcDbLine
 10
422.6975677469637
 20
1266.237267435261
 30
0.0
 11
422.6975677469637
 21
1255.596315552039
 31
0.0
  0
LINE
  5
FCBA
330
E703
100
AcDbEntity
  8
AM_5
 48
1.01
100
AcDbLine
 10
407.6975677469637
 20
1256.596315552039
 30
0.0
 11
421.6975677469637
 21
1256.596315552039
 31
0.0
  0
INSERT
  5
FCBB
330
E703
100
AcDbEntity
  8
AM_5
 48
1.01
100
AcDbBlockReference
  2
_Dot
 10
406.6975677469637
 20
1256.596315552039
 30
0.0
 41
1.0
 42
1.0
 43
1.0
 50
180.0
  0
INSERT
  5
FCBC
330
E703
100
AcDbEntity
  8
AM_5
 48
1.01
100
AcDbBlockReference
  2
_Dot
 10
422.6975677469637
 20
1256.596315552039
 30
0.0
 41
1.0
 42
1.0
 43
1.0
  0
MTEXT
  5
FCBD
330
E703
100
AcDbEntity
  8
AM_5
 62
     2
 48
1.01
100
AcDbMText
 10
418.5670976514243
 20
1259.696315552039
 30
0.0
 40
3.2
 41
0.0
 71
     5
 72
     1
  1
16
 73
     1
 44
1.0
1001
ACAD
1000
MTEXTBEGIN
1070
    73
1070
     1
1070
    44
1040
1.0
1070
    74
1070
     0
1000
MTEXTEND
  0
POINT
  5
FCBE
330
E703
100
AcDbEntity
  8
Defpoints
 62
     0
 48
1.01
100
AcDbPoint
 10
406.6975677469637
 20
1267.737267435261
 30
0.0
  0
POINT
  5
FCBF
330
E703
100
AcDbEntity
  8
Defpoints
 62
     0
 48
1.01
100
AcDbPoint
 10
422.6975677469637
 20
1267.737267435261
 30
0.0
  0
POINT
  5
FCC0
330
E703
100
AcDbEntity
  8
Defpoints
 62
     0
 48
1.01
100
AcDbPoint
 10
422.6975677469637
 20
1256.596315552039
 30
0.0
  0
ENDBLK
  5
E70E
330
E703
100
AcDbEntity
  8
0
100
AcDbBlockEnd
  0
BLOCK
  5
E74A
330
E740
100
AcDbEntity
  8
0
100
AcDbBlockBegin
  2
*D22
 70
     1
 10
0.0
 20
0.0
 30
0.0
  3
*D22
  1

  0
LINE
  5
FCAF
330
E740
100
AcDbEntity
  8
AM_5
 48
1.01
100
AcDbLine
 10
563.3541488158348
 20
1348.737328470411
 30
0.0
 11
539.854148815835
 21
1348.737328470411
 31
0.0
  0
LINE
  5
FCB0
330
E740
100
AcDbEntity
  8
AM_5
 48
1.01
100
AcDbLine
 10
563.3541488158348
 20
1336.737328470411
 30
0.0
 11
539.854148815835
 21
1336.737328470411
 31
0.0
  0
LINE
  5
FCB1
330
E740
100
AcDbEntity
  8
AM_5
 48
1.01
100
AcDbLine
 10
540.854148815835
 20
1347.737328470411
 30
0.0
 11
540.854148815835
 21
1337.737328470411
 31
0.0
  0
INSERT
  5
FCB2
330
E740
100
AcDbEntity
  8
AM_5
 48
1.01
100
AcDbBlockReference
  2
_Dot
 10
540.854148815835
 20
1348.737328470411
 30
0.0
 41
1.0
 42
1.0
 43
1.0
 50
90.0
  0
INSERT
  5
FCB3
330
E740
100
AcDbEntity
  8
AM_5
 48
1.01
100
AcDbBlockReference
  2
_Dot
 10
540.854148815835
 20
1336.737328470411
 30
0.0
 41
1.0
 42
1.0
 43
1.0
 50
270.0
  0
MTEXT
  5
FCB4
330
E740
100
AcDbEntity
  8
AM_5
 62
     2
 48
1.01
100
AcDbMText
 10
537.7541488158348
 20
1345.848336352224
 30
0.0
 40
3.2
 41
0.0
 71
     5
 72
     1
  1
12
 11
0.0000000000000001
 21
1.0
 31
0.0
 73
     1
 44
1.0
1001
ACAD
1000
MTEXTBEGIN
1070
    73
1070
     1
1070
    44
1040
1.0
1070
    74
1070
     0
1000
MTEXTEND
  0
POINT
  5
FCB5
330
E740
100
AcDbEntity
  8
Defpoints
 62
     0
 48
1.01
100
AcDbPoint
 10
564.8541488158348
 20
1348.737328470411
 30
0.0
  0
POINT
  5
FCB6
330
E740
100
AcDbEntity
  8
Defpoints
 62
     0
 48
1.01
100
AcDbPoint
 10
564.8541488158348
 20
1336.737328470411
 30
0.0
  0
POINT
  5
FCB7
330
E740
100
AcDbEntity
  8
Defpoints
 62
     0
 48
1.01
100
AcDbPoint
 10
540.854148815835
 20
1336.737328470411
 30
0.0
  0
ENDBLK
  5
E74B
330
E740
100
AcDbEntity
  8
0
100
AcDbBlockEnd
  0
BLOCK
  5
E786
330
E77A
100
AcDbEntity
  8
0
100
AcDbBlockBegin
  2
*D23
 70
     1
 10
0.0
 20
0.0
 30
0.0
  3
*D23
  1

  0
LINE
  5
FCA6
330
E77A
100
AcDbEntity
  8
AM_5
 48
1.01
100
AcDbLine
 10
563.3541488158348
 20
1163.386483080717
 30
0.0
 11
553.8541488158348
 21
1163.386483080717
 31
0.0
  0
LINE
  5
FCA7
330
E77A
100
AcDbEntity
  8
AM_5
 48
1.01
100
AcDbLine
 10
563.3541488158348
 20
1155.386483080717
 30
0.0
 11
553.8541488158348
 21
1155.386483080717
 31
0.0
  0
LINE
  5
FCA8
330
E77A
100
AcDbEntity
  8
AM_5
 48
1.01
100
AcDbLine
 10
554.8541488158348
 20
1162.386483080717
 30
0.0
 11
554.8541488158348
 21
1156.386483080717
 31
0.0
  0
INSERT
  5
FCA9
330
E77A
100
AcDbEntity
  8
AM_5
 48
1.01
100
AcDbBlockReference
  2
_Dot
 10
554.8541488158348
 20
1163.386483080717
 30
0.0
 41
1.0
 42
1.0
 43
1.0
 50
90.0
  0
INSERT
  5
FCAA
330
E77A
100
AcDbEntity
  8
AM_5
 48
1.01
100
AcDbBlockReference
  2
_Dot
 10
554.8541488158348
 20
1155.386483080717
 30
0.0
 41
1.0
 42
1.0
 43
1.0
 50
270.0
  0
MTEXT
  5
FCAB
330
E77A
100
AcDbEntity
  8
AM_5
 62
     2
 48
1.01
100
AcDbMText
 10
551.7541488158347
 20
1159.386483080717
 30
0.0
 40
3.2
 41
0.0
 71
     5
 72
     1
  1
8
 11
0.0000000000000001
 21
1.0
 31
0.0
 73
     1
 44
1.0
1001
ACAD
1000
MTEXTBEGIN
1070
    73
1070
     1
1070
    44
1040
1.0
1070
    74
1070
     0
1000
MTEXTEND
  0
POINT
  5
FCAC
330
E77A
100
AcDbEntity
  8
Defpoints
 62
     0
 48
1.01
100
AcDbPoint
 10
564.8541488158348
 20
1163.386483080717
 30
0.0
  0
POINT
  5
FCAD
330
E77A
100
AcDbEntity
  8
Defpoints
 62
     0
 48
1.01
100
AcDbPoint
 10
564.8541488158348
 20
1155.386483080717
 30
0.0
  0
POINT
  5
FCAE
330
E77A
100
AcDbEntity
  8
Defpoints
 62
     0
 48
1.01
100
AcDbPoint
 10
554.8541488158348
 20
1155.386483080717
 30
0.0
  0
ENDBLK
  5
E787
330
E77A
100
AcDbEntity
  8
0
100
AcDbBlockEnd
  0
BLOCK
  5
E7B0
330
E7A4
100
AcDbEntity
  8
0
100
AcDbBlockBegin
  2
*D24
 70
     1
 10
0.0
 20
0.0
 30
0.0
  3
*D24
  1

  0
LINE
  5
FC9B
330
E7A4
100
AcDbEntity
  8
AM_5
 48
1.01
100
AcDbLine
 10
566.8541488158348
 20
1350.237328470411
 30
0.0
 11
566.8541488158348
 21
1359.737328470411
 31
0.0
  0
LINE
  5
FC9C
330
E7A4
100
AcDbEntity
  8
AM_5
 48
1.01
100
AcDbLine
 10
564.8541488158348
 20
1350.237328470411
 30
0.0
 11
564.8541488158348
 21
1359.737328470411
 31
0.0
  0
LINE
  5
FC9D
330
E7A4
100
AcDbEntity
  8
AM_5
 48
1.01
100
AcDbLine
 10
567.8541488158348
 20
1358.737328470411
 30
0.0
 11
568.8541488158348
 21
1358.737328470411
 31
0.0
  0
LINE
  5
FC9E
330
E7A4
100
AcDbEntity
  8
AM_5
 48
1.01
100
AcDbLine
 10
563.8541488158348
 20
1358.737328470411
 30
0.0
 11
558.3608154825014
 21
1358.737328470411
 31
0.0
  0
LINE
  5
FC9F
330
E7A4
100
AcDbEntity
  8
AM_5
 48
1.01
100
AcDbLine
 10
566.8541488158348
 20
1358.737328470411
 30
0.0
 11
564.8541488158348
 21
1358.737328470411
 31
0.0
  0
INSERT
  5
FCA0
330
E7A4
100
AcDbEntity
  8
AM_5
 48
1.01
100
AcDbBlockReference
  2
_Dot
 10
566.8541488158348
 20
1358.737328470411
 30
0.0
 41
1.0
 42
1.0
 43
1.0
 50
180.0
  0
INSERT
  5
FCA1
330
E7A4
100
AcDbEntity
  8
AM_5
 48
1.01
100
AcDbBlockReference
  2
_Dot
 10
564.8541488158348
 20
1358.737328470411
 30
0.0
 41
1.0
 42
1.0
 43
1.0
  0
MTEXT
  5
FCA2
330
E7A4
100
AcDbEntity
  8
AM_5
 62
     2
 48
1.01
100
AcDbMText
 10
560.6074821491681
 20
1361.837328470411
 30
0.0
 40
3.2
 41
0.0
 71
     5
 72
     1
  1
2
 73
     1
 44
1.0
1001
ACAD
1000
MTEXTBEGIN
1070
    73
1070
     1
1070
    44
1040
1.0
1070
    74
1070
     0
1000
MTEXTEND
  0
POINT
  5
FCA3
330
E7A4
100
AcDbEntity
  8
Defpoints
 62
     0
 48
1.01
100
AcDbPoint
 10
566.8541488158348
 20
1348.737328470411
 30
0.0
  0
POINT
  5
FCA4
330
E7A4
100
AcDbEntity
  8
Defpoints
 62
     0
 48
1.01
100
AcDbPoint
 10
564.8541488158348
 20
1348.737328470411
 30
0.0
  0
POINT
  5
FCA5
330
E7A4
100
AcDbEntity
  8
Defpoints
 62
     0
 48
1.01
100
AcDbPoint
 10
564.8541488158348
 20
1358.737328470411
 30
0.0
  0
ENDBLK
  5
E7B1
330
E7A4
100
AcDbEntity
  8
0
100
AcDbBlockEnd
  0
BLOCK
  5
EF94
330
EE7E
100
AcDbEntity
  8
0
100
AcDbBlockBegin
  2
*D25
 70
     1
 10
0.0
 20
0.0
 30
0.0
  3
*D25
  1

  0
LINE
  5
FC92
330
EE7E
100
AcDbEntity
  8
AM_5
 48
1.01
100
AcDbLine
 10
698.3541488158349
 20
1170.986489796192
 30
0.0
 11
707.8541488158349
 21
1170.986489796192
 31
0.0
  0
LINE
  5
FC93
330
EE7E
100
AcDbEntity
  8
AM_5
 48
1.01
100
AcDbLine
 10
696.8541488158349
 20
1147.786483080717
 30
0.0
 11
707.8541488158349
 21
1147.786483080717
 31
0.0
  0
LINE
  5
FC94
330
EE7E
100
AcDbEntity
  8
AM_5
 48
1.01
100
AcDbLine
 10
706.8541488158349
 20
1169.986489796192
 30
0.0
 11
706.8541488158349
 21
1148.786483080717
 31
0.0
  0
INSERT
  5
FC95
330
EE7E
100
AcDbEntity
  8
AM_5
 48
1.01
100
AcDbBlockReference
  2
_Dot
 10
706.8541488158349
 20
1170.986489796192
 30
0.0
 41
1.0
 42
1.0
 43
1.0
 50
90.0
  0
INSERT
  5
FC96
330
EE7E
100
AcDbEntity
  8
AM_5
 48
1.01
100
AcDbBlockReference
  2
_Dot
 10
706.8541488158349
 20
1147.786483080717
 30
0.0
 41
1.0
 42
1.0
 43
1.0
 50
270.0
  0
MTEXT
  5
FC97
330
EE7E
100
AcDbEntity
  8
AM_5
 62
     2
 48
1.01
100
AcDbMText
 10
703.7541488158348
 20
1159.386486438455
 30
0.0
 40
3.2
 41
0.0
 71
     5
 72
     1
  1
23.2
 11
0.0000000000000001
 21
1.0
 31
0.0
 73
     1
 44
1.0
1001
ACAD
1000
MTEXTBEGIN
1070
    73
1070
     1
1070
    44
1040
1.0
1070
    74
1070
     0
1000
MTEXTEND
  0
POINT
  5
FC98
330
EE7E
100
AcDbEntity
  8
Defpoints
 62
     0
 48
1.01
100
AcDbPoint
 10
696.8541488158349
 20
1170.986489796192
 30
0.0
  0
POINT
  5
FC99
330
EE7E
100
AcDbEntity
  8
Defpoints
 62
     0
 48
1.01
100
AcDbPoint
 10
695.3541488158349
 20
1147.786483080717
 30
0.0
  0
POINT
  5
FC9A
330
EE7E
100
AcDbEntity
  8
Defpoints
 62
     0
 48
1.01
100
AcDbPoint
 10
706.8541488158349
 20
1147.786483080717
 30
0.0
  0
ENDBLK
  5
EF95
330
EE7E
100
AcDbEntity
  8
0
100
AcDbBlockEnd
  0
BLOCK
  5
EF9E
330
EEAF
100
AcDbEntity
  8
0
100
AcDbBlockBegin
  2
*D26
 70
     1
 10
0.0
 20
0.0
 30
0.0
  3
*D26
  1

  0
LINE
  5
FC89
330
EEAF
100
AcDbEntity
  8
AM_5
 48
1.01
100
AcDbLine
 10
631.7280275578834
 20
1310.459003666085
 30
0.0
 11
632.5156339909965
 21
1295.429650239387
 31
0.0
  0
LINE
  5
FC8A
330
EEAF
100
AcDbEntity
  8
AM_5
 48
1.01
100
AcDbLine
 10
642.7129526629231
 20
1311.034687470179
 30
0.0
 11
643.5005603397621
 21
1296.005310310311
 31
0.0
  0
LINE
  5
FC8B
330
EEAF
100
AcDbEntity
  8
AM_5
 48
1.01
100
AcDbLine
 10
633.4619309589547
 20
1296.480612678503
 30
0.0
 11
642.4495979006459
 21
1296.951607278269
 31
0.0
  0
INSERT
  5
FC8C
330
EEAF
100
AcDbEntity
  8
AM_5
 48
1.01
100
AcDbBlockReference
  2
_Dot
 10
632.4633012554174
 20
1296.428279942924
 30
0.0
 41
1.0
 42
1.0
 43
1.0
 50
182.9998152163282
  0
INSERT
  5
FC8D
330
EEAF
100
AcDbEntity
  8
AM_5
 48
1.01
100
AcDbBlockReference
  2
_Dot
 10
643.4482276041831
 20
1297.003940013848
 30
0.0
 41
1.0
 42
1.0
 43
1.0
 50
2.999815216328249
  0
MTEXT
  5
FC8E
330
EEAF
100
AcDbEntity
  8
AM_5
 62
     2
 48
1.01
100
AcDbMText
 10
637.7935329495053
 20
1299.811862059351
 30
0.0
 40
3.2
 41
0.0
 71
     5
 72
     1
  1
□11
 11
0.998629703537208
 21
0.0523327355790605
 31
0.0
 73
     1
 44
1.0
1001
ACAD
1000
MTEXTBEGIN
1070
    73
1070
     1
1070
    44
1040
1.0
1070
    74
1070
     0
1000
MTEXTEND
  0
POINT
  5
FC8F
330
EEAF
100
AcDbEntity
  8
Defpoints
 62
     0
 48
1.01
100
AcDbPoint
 10
631.6495284545148
 20
1311.956948221391
 30
0.0
  0
POINT
  5
FC90
330
EEAF
100
AcDbEntity
  8
Defpoints
 62
     0
 48
1.01
100
AcDbPoint
 10
642.6344535595545
 20
1312.532632025485
 30
0.0
  0
POINT
  5
FC91
330
EEAF
100
AcDbEntity
  8
Defpoints
 62
     0
 48
1.01
100
AcDbPoint
 10
643.4482276041831
 20
1297.003940013848
 30
0.0
  0
ENDBLK
  5
EF9F
330
EEAF
100
AcDbEntity
  8
0
100
AcDbBlockEnd
  0
BLOCK
  5
FD83
330
FD7C
100
AcDbEntity
  8
0
100
AcDbBlockBegin
  2
*S27
 70
     1
 10
0.0
 20
0.0
 30
0.0
  3
*S27
  1

  0
LINE
  5
FD7D
330
FD7C
100
AcDbEntity
  8
AM_5
 62
     3
100
AcDbLine
 10
368.4417280815609
 20
1192.646676311602
 30
0.0
 11
398.4150614148942
 21
1192.646676311602
 31
0.0
  0
LINE
  5
FD7E
330
FD7C
100
AcDbEntity
  8
AM_5
 62
     3
100
AcDbLine
 10
398.4150614148942
 20
1192.646676311602
 30
0.0
 11
403.9062395455256
 21
1198.615895734667
 31
0.0
  0
LINE
  5
FD7F
330
FD7C
100
AcDbEntity
  8
AM_5
  6
Continuous
 62
     3
100
AcDbLine
 10
403.9062395455256
 20
1198.615895734667
 30
0.0
 11
405.2602853317536
 21
1200.087819648733
 31
0.0
  0
LINE
  5
FD80
330
FD7C
100
AcDbEntity
  8
AM_5
  6
Continuous
 62
     3
100
AcDbLine
 10
404.3006403660411
 20
1198.253080263024
 30
0.0
 11
405.2602853317536
 21
1200.087819648733
 31
0.0
  0
LINE
  5
FD81
330
FD7C
100
AcDbEntity
  8
AM_5
  6
Continuous
 62
     3
100
AcDbLine
 10
405.2602853317536
 20
1200.087819648733
 30
0.0
 11
403.5118387250101
 21
1198.978711206309
 31
0.0
  0
MTEXT
  5
FD82
330
FD7C
100
AcDbEntity
  8
AM_5
 62
     2
100
AcDbMText
 10
395.2150614148942
 20
1194.246676311601
 30
0.0
 40
3.2
 41
0.0
 71
     9
 72
     5
  1
4-%%c4.5×%%c7.2皿孔
 73
     1
 44
1.0
1001
ACAD
1000
MTEXTBEGIN
1070
    73
1070
     1
1070
    44
1040
1.0
1070
    74
1070
     0
1000
MTEXTEND
  0
ENDBLK
  5
FD84
330
FD7C
100
AcDbEntity
  8
0
100
AcDbBlockEnd
  0
ENDSEC
  0
SECTION
  2
ENTITIES
  0
LINE
  5
A76B
330
1F
100
AcDbEntity
  8
AM_7
100
AcDbLine
 10
414.6975677469637
 20
1188.737282694051
 30
0.0
 11
414.6975677469637
 21
1496.737282694051
 31
0.0
  0
LINE
  5
A76C
330
1F
100
AcDbEntity
  8
AM_0
100
AcDbLine
 10
402.1975677469637
 20
1192.737282694051
 30
0.0
 11
402.1975677469637
 21
1492.737282694051
 31
0.0
  0
LINE
  5
A76D
330
1F
100
AcDbEntity
  8
AM_0
100
AcDbLine
 10
427.1975677469637
 20
1192.737282694051
 30
0.0
 11
427.1975677469637
 21
1492.737282694051
 31
0.0
  0
LINE
  5
A776
330
1F
100
AcDbEntity
  8
AM_0
100
AcDbLine
 10
572.0541610228748
 20
1192.737313211629
 30
0.0
 11
572.0541610228748
 21
1492.737313211621
 31
0.0
  0
LINE
  5
A777
330
1F
100
AcDbEntity
  8
AM_0
100
AcDbLine
 10
568.8541488158348
 20
1192.737313211629
 30
0.0
 11
568.8541488158348
 21
1492.737313211621
 31
0.0
  0
LINE
  5
A778
330
1F
100
AcDbEntity
  8
AM_0
100
AcDbLine
 10
566.8541488158348
 20
1192.737313211629
 30
0.0
 11
566.8541488158348
 21
1492.737313211621
 31
0.0
  0
LINE
  5
A781
330
1F
100
AcDbEntity
  8
AM_0
100
AcDbLine
 10
402.1975677469637
 20
1192.737282694051
 30
0.0
 11
427.1975677469637
 21
1192.737282694051
 31
0.0
  0
LINE
  5
A799
330
1F
100
AcDbEntity
  8
AM_7
100
AcDbLine
 10
404.6975677469637
 20
1282.737267435261
 30
0.0
 11
424.6975677469637
 21
1282.737267435261
 31
0.0
  0
LINE
  5
A79D
330
1F
100
AcDbEntity
  8
AM_7
100
AcDbLine
 10
404.6975677469637
 20
1282.737267435261
 30
0.0
 11
424.6975677469637
 21
1282.737267435261
 31
0.0
  0
LINE
  5
A7B6
330
1F
100
AcDbEntity
  8
AM_0
100
AcDbLine
 10
566.8541488158348
 20
1171.886483692677
 30
0.0
 11
566.8541488158348
 21
1146.886483692677
 31
0.0
  0
LINE
  5
A7B8
330
1F
100
AcDbEntity
  8
AM_0
100
AcDbLine
 10
568.8541488158348
 20
1146.886483692677
 30
0.0
 11
568.8541488158348
 21
1171.886483692677
 31
0.0
  0
LINE
  5
A7B9
330
1F
100
AcDbEntity
  8
AM_0
100
AcDbLine
 10
572.0541610228748
 20
1146.886483692677
 30
0.0
 11
572.0541610228748
 21
1171.886483692677
 31
0.0
  0
LINE
  5
A7BA
330
1F
100
AcDbEntity
  8
AM_0
 48
0.2600006103520002
100
AcDbLine
 10
566.8541488158348
 20
1146.886483692677
 30
0.0
 11
572.0541610228748
 21
1146.886483692677
 31
0.0
  0
LINE
  5
A7BC
330
1F
100
AcDbEntity
  8
AM_0
 48
0.2600006103520002
100
AcDbLine
 10
566.8541488158348
 20
1171.886483692677
 30
0.0
 11
572.0541610228748
 21
1171.886483692677
 31
0.0
  0
LINE
  5
A7DA
330
1F
100
AcDbEntity
  8
AM_0
 48
0.1600006103520002
100
AcDbLine
 10
568.8541488158348
 20
1192.737313211629
 30
0.0
 11
572.0541610228748
 21
1192.737313211629
 31
0.0
  0
LINE
  5
A7DB
330
1F
100
AcDbEntity
  8
AM_0
 48
0.15
100
AcDbLine
 10
566.8541488158348
 20
1192.737313211629
 30
0.0
 11
568.8541488158348
 21
1192.737313211629
 31
0.0
  0
LINE
  5
A7E4
330
1F
100
AcDbEntity
  8
AM_0
 48
0.3100021362305029
100
AcDbLine
 10
566.8541488158348
 20
1209.637276590531
 30
0.0
 11
566.8541488158348
 21
1215.837319315141
 31
0.0
  0
ARC
  5
A7E5
330
1F
100
AcDbEntity
  8
AM_0
 48
0.3
100
AcDbCircle
 10
573.6541671263847
 20
1219.337288797561
 30
0.0
 40
1.6000000238419
100
AcDbArc
 50
180.0000086514148
 51
270.0000043257107
  0
LINE
  5
A809
330
1F
100
AcDbEntity
  8
AM_7
100
AcDbLine
 10
556.8541488158348
 20
1342.737328470411
 30
0.0
 11
639.867455168201
 21
1342.737328470411
 31
0.0
  0
LINE
  5
A812
330
1F
100
AcDbEntity
  8
AM_7
100
AcDbLine
 10
404.6975677469637
 20
1342.737282694051
 30
0.0
 11
424.6975677469637
 21
1342.737282694051
 31
0.0
  0
LINE
  5
A813
330
1F
100
AcDbEntity
  8
AM_7
 48
0.8
100
AcDbLine
 10
406.6975677469637
 20
1317.737267435261
 30
0.0
 11
422.6975677469637
 21
1317.737267435261
 31
0.0
  0
LINE
  5
A81C
330
1F
100
AcDbEntity
  8
AM_7
100
AcDbLine
 10
404.6975677469637
 20
1342.737282694051
 30
0.0
 11
424.6975677469637
 21
1342.737282694051
 31
0.0
  0
CIRCLE
  5
A81D
330
1F
100
AcDbEntity
  8
AM_0
 48
0.4
100
AcDbCircle
 10
414.6975677469637
 20
1317.737267435261
 30
0.0
 40
3.0
  0
ARC
  5
A81F
330
1F
100
AcDbEntity
  8
AM_2
 48
0.3
100
AcDbCircle
 10
415.6975677469636
 20
1316.737267435261
 30
0.0
 40
0.5
100
AcDbArc
 50
90.00000250447845
 51
180.0000050089634
  0
ARC
  5
A820
330
1F
100
AcDbEntity
  8
AM_2
 48
0.3
100
AcDbCircle
 10
413.1975677469637
 20
1317.737267435261
 30
0.0
 40
0.5
100
AcDbArc
 50
90.00000250447845
 51
270.0000006832462
  0
ARC
  5
A821
330
1F
100
AcDbEntity
  8
AM_2
 48
0.3
100
AcDbCircle
 10
416.1975677469637
 20
1317.737267435261
 30
0.0
 40
0.5
100
AcDbArc
 50
269.9999974955215
 51
90.00000250447845
  0
ARC
  5
A822
330
1F
100
AcDbEntity
  8
AM_2
 48
0.3
100
AcDbCircle
 10
413.6975677469637
 20
1316.737267435261
 30
0.0
 40
0.5
100
AcDbArc
 50
0.0
 51
90.00000250447845
  0
LINE
  5
A823
330
1F
100
AcDbEntity
  8
AM_2
 48
0.15
100
AcDbLine
 10
415.1975677469637
 20
1316.237267435261
 30
0.0
 11
415.1975677469637
 21
1316.737267435261
 31
0.0
  0
LINE
  5
A824
330
1F
100
AcDbEntity
  8
AM_2
 48
0.15
100
AcDbLine
 10
415.6975677469636
 20
1317.237267435261
 30
0.0
 11
416.1975677469637
 21
1317.237267435261
 31
0.0
  0
LINE
  5
A825
330
1F
100
AcDbEntity
  8
AM_2
 48
0.15
100
AcDbLine
 10
414.1975677469637
 20
1316.237267435261
 30
0.0
 11
414.1975677469637
 21
1316.737267435261
 31
0.0
  0
LINE
  5
A826
330
1F
100
AcDbEntity
  8
AM_2
 48
0.15
100
AcDbLine
 10
413.1975677469637
 20
1317.237267435261
 30
0.0
 11
413.6975677469637
 21
1317.237267435261
 31
0.0
  0
ARC
  5
A827
330
1F
100
AcDbEntity
  8
AM_2
 48
0.3
100
AcDbCircle
 10
414.6975677469637
 20
1316.237267435261
 30
0.0
 40
0.5
100
AcDbArc
 50
179.999991348572
 51
0.0000100179138904
  0
LINE
  5
A828
330
1F
100
AcDbEntity
  8
AM_2
 48
0.15
100
AcDbLine
 10
415.1975677469637
 20
1318.737267435261
 30
0.0
 11
415.1975677469637
 21
1319.237267435261
 31
0.0
  0
LINE
  5
A829
330
1F
100
AcDbEntity
  8
AM_2
 48
0.15
100
AcDbLine
 10
414.1975677469637
 20
1318.737267435261
 30
0.0
 11
414.1975677469637
 21
1319.237267435261
 31
0.0
  0
LINE
  5
A82A
330
1F
100
AcDbEntity
  8
AM_2
 48
0.15
100
AcDbLine
 10
413.1975677469637
 20
1318.237267435261
 30
0.0
 11
413.6975677469637
 21
1318.237267435261
 31
0.0
  0
LINE
  5
A82B
330
1F
100
AcDbEntity
  8
AM_2
 48
0.15
100
AcDbLine
 10
415.6975677469636
 20
1318.237267435261
 30
0.0
 11
416.1975677469637
 21
1318.237267435261
 31
0.0
  0
ARC
  5
A82C
330
1F
100
AcDbEntity
  8
AM_2
 48
0.3
100
AcDbCircle
 10
415.6975677469636
 20
1318.737267435261
 30
0.0
 40
0.5
100
AcDbArc
 50
179.999991348572
 51
270.0000006832462
  0
ARC
  5
A82D
330
1F
100
AcDbEntity
  8
AM_2
 48
0.3
100
AcDbCircle
 10
414.6975677469637
 20
1319.237267435261
 30
0.0
 40
0.5
100
AcDbArc
 50
0.0
 51
180.0000050089634
  0
ARC
  5
A82E
330
1F
100
AcDbEntity
  8
AM_2
 48
0.3
100
AcDbCircle
 10
413.6975677469637
 20
1318.737267435261
 30
0.0
 40
0.5
100
AcDbArc
 50
269.9999974955215
 51
0.0
  0
LINE
  5
A847
330
1F
100
AcDbEntity
  8
AM_2
100
AcDbLine
 10
418.1975677469637
 20
1390.237282694051
 30
0.0
 11
418.1975677469637
 21
1420.237282694051
 31
0.0
  0
LINE
  5
A848
330
1F
100
AcDbEntity
  8
AM_2
100
AcDbLine
 10
419.1975677469637
 20
1390.237282694051
 30
0.0
 11
419.1975677469637
 21
1420.237282694051
 31
0.0
  0
LINE
  5
A849
330
1F
100
AcDbEntity
  8
AM_2
100
AcDbLine
 10
420.1975677469637
 20
1390.237282694051
 30
0.0
 11
420.1975677469637
 21
1420.237282694051
 31
0.0
  0
LINE
  5
A84A
330
1F
100
AcDbEntity
  8
AM_2
100
AcDbLine
 10
421.1975677469637
 20
1390.237282694051
 30
0.0
 11
421.1975677469637
 21
1420.237282694051
 31
0.0
  0
LINE
  5
A84B
330
1F
100
AcDbEntity
  8
AM_2
100
AcDbLine
 10
422.1975677469637
 20
1390.237282694051
 30
0.0
 11
422.1975677469637
 21
1420.237282694051
 31
0.0
  0
LINE
  5
A904
330
1F
100
AcDbEntity
  8
AM_0
100
AcDbLine
 10
402.1975677469637
 20
1492.737282694051
 30
0.0
 11
427.1975677469637
 21
1492.737282694051
 31
0.0
  0
LINE
  5
A9ED
330
1F
100
AcDbEntity
  8
AM_0
 48
0.1600006103520002
100
AcDbLine
 10
568.8541488158348
 20
1492.737313211621
 30
0.0
 11
572.0541610228748
 21
1492.737313211621
 31
0.0
  0
LINE
  5
A9EE
330
1F
100
AcDbEntity
  8
AM_0
 48
0.15
100
AcDbLine
 10
566.8541488158348
 20
1492.737313211621
 30
0.0
 11
568.8541488158348
 21
1492.737313211621
 31
0.0
  0
CIRCLE
  5
B307
330
1F
100
AcDbEntity
  8
AM_3
 48
0.4
100
AcDbCircle
 10
407.6975677469637
 20
1202.737282694051
 30
0.0
 40
2.25
  0
CIRCLE
  5
B309
330
1F
100
AcDbEntity
  8
AM_3
 48
0.4
100
AcDbCircle
 10
421.6975677469637
 20
1202.737282694051
 30
0.0
 40
2.25
  0
CIRCLE
  5
B30B
330
1F
100
AcDbEntity
  8
AM_3
 48
0.4
100
AcDbCircle
 10
407.6975677469637
 20
1482.737282694051
 30
0.0
 40
2.25
  0
CIRCLE
  5
B30D
330
1F
100
AcDbEntity
  8
AM_3
 48
0.4
100
AcDbCircle
 10
421.6975677469637
 20
1482.737282694051
 30
0.0
 40
2.25
  0
LINE
  5
B30E
330
1F
100
AcDbEntity
  8
AM_7
100
AcDbLine
 10
402.6975677469637
 20
1482.737282694051
 30
0.0
 11
426.6975677469637
 21
1482.737282694051
 31
0.0
  0
LINE
  5
B30F
330
1F
100
AcDbEntity
  8
AM_7
 48
0.6000000000000001
100
AcDbLine
 10
407.6975677469637
 20
1476.737282694051
 30
0.0
 11
407.6975677469637
 21
1488.737282694051
 31
0.0
  0
LINE
  5
B310
330
1F
100
AcDbEntity
  8
AM_7
 48
0.6000000000000001
100
AcDbLine
 10
421.6975677469637
 20
1476.737282694051
 30
0.0
 11
421.6975677469637
 21
1488.737282694051
 31
0.0
  0
LINE
  5
B311
330
1F
100
AcDbEntity
  8
AM_7
 48
0.6000000000000001
100
AcDbLine
 10
421.6975677469637
 20
1196.737282694051
 30
0.0
 11
421.6975677469637
 21
1208.737282694051
 31
0.0
  0
LINE
  5
B312
330
1F
100
AcDbEntity
  8
AM_7
 48
0.6000000000000001
100
AcDbLine
 10
407.6975677469637
 20
1196.737282694051
 30
0.0
 11
407.6975677469637
 21
1208.737282694051
 31
0.0
  0
LINE
  5
B313
330
1F
100
AcDbEntity
  8
AM_7
100
AcDbLine
 10
402.6975677469637
 20
1202.737282694051
 30
0.0
 11
426.6975677469637
 21
1202.737282694051
 31
0.0
  0
DIMENSION
  5
B6B2
330
1F
100
AcDbEntity
  8
AM_5
 48
1.01
100
AcDbDimension
  2
*D5
 10
427.1975677469637
 20
1512.737282694051
 30
0.0
 11
414.6975677469637
 21
1515.837282694051
 31
0.0
 70
    32
 71
     5
 42
25.0
  3
SYS$0
100
AcDbAlignedDimension
 13
402.1975677469637
 23
1492.737282694051
 33
0.0
 14
427.1975677469637
 24
1492.737282694051
 34
0.0
100
AcDbRotatedDimension
1001
ACAD
1000
DSTYLE
1002
{
1070
   271
1070
     0
1002
}
  0
DIMENSION
  5
B6D6
330
1F
100
AcDbEntity
  8
AM_5
 48
1.01
100
AcDbDimension
  2
*D6
 10
421.6975677469636
 20
1502.737282694051
 30
0.0
 11
414.6975677469637
 21
1505.83728269405
 31
0.0
 70
    32
 71
     5
 42
13.99999999999994
  3
SYS$0
100
AcDbAlignedDimension
 13
407.6975677469637
 23
1488.737282694051
 33
0.0
 14
421.6975677469636
 24
1488.737282694051
 34
0.0
100
AcDbRotatedDimension
1001
ACAD
1000
DSTYLE
1002
{
1070
   271
1070
     0
1002
}
  0
DIMENSION
  5
B70C
330
1F
100
AcDbEntity
  8
AM_5
 48
1.01
100
AcDbDimension
  2
*D7
 10
447.1975677469637
 20
1492.737282694051
 30
0.0
 11
444.0975677469634
 21
1487.737282694051
 31
0.0
 70
    32
 71
     5
 42
10.0
  3
SYS$0
100
AcDbAlignedDimension
 13
426.6975677469637
 23
1482.737282694051
 33
0.0
 14
427.1975677469637
 24
1492.737282694051
 34
0.0
 50
90.0
100
AcDbRotatedDimension
1001
ACAD
1000
DSTYLE
1002
{
1070
   271
1070
     0
1002
}
  0
DIMENSION
  5
B730
330
1F
100
AcDbEntity
  8
AM_5
 48
1.01
100
AcDbDimension
  2
*D8
 10
447.1975677469647
 20
1202.737282694051
 30
0.0
 11
444.0975677469644
 21
1342.737282694051
 31
0.0
 70
    32
 71
     5
 42
280.0
  3
SYS$0
100
AcDbAlignedDimension
 13
426.6975677469637
 23
1482.737282694051
 33
0.0
 14
426.6975677469637
 24
1202.737282694051
 34
0.0
 50
90.0
100
AcDbRotatedDimension
1001
ACAD
1000
DSTYLE
1002
{
1070
   271
1070
     0
1002
}
  0
DIMENSION
  5
B754
330
1F
100
AcDbEntity
  8
AM_5
 48
1.01
100
AcDbDimension
  2
*D9
 10
447.1975677469655
 20
1192.737282694051
 30
0.0
 11
444.0975677469652
 21
1197.737282694051
 31
0.0
 70
    32
 71
     5
 42
10.0
  3
SYS$0
100
AcDbAlignedDimension
 13
426.6975677469637
 23
1202.737282694051
 33
0.0
 14
427.1975677469637
 24
1192.737282694051
 34
0.0
 50
90.0
100
AcDbRotatedDimension
1001
ACAD
1000
DSTYLE
1002
{
1070
   271
1070
     0
1002
}
  0
DIMENSION
  5
B778
330
1F
100
AcDbEntity
  8
AM_5
 48
1.01
100
AcDbDimension
  2
*D10
 10
457.197567746966
 20
1492.737282694051
 30
0.0
 11
454.0975677469658
 21
1342.737282694051
 31
0.0
 70
    32
  1
<>（切欠300.5×25.5）
 71
     5
 42
300.0
  3
SYS$0
100
AcDbAlignedDimension
 13
427.1975677469637
 23
1192.737282694051
 33
0.0
 14
427.1975677469637
 24
1492.737282694051
 34
0.0
 50
90.0
100
AcDbRotatedDimension
1001
ACAD
1000
DSTYLE
1002
{
1070
   271
1070
     0
1002
}
  0
LINE
  5
B7EE
330
1F
100
AcDbEntity
  8
AM_7
100
AcDbLine
 10
552.0433179101076
 20
1282.737267435261
 30
0.0
 11
587.2433301171477
 21
1282.737267435261
 31
0.0
1001
GENIUS_GENOBJ-N-CEN_13
1002
{
1000
OWNER
1000
GEN
1002
}
1001
GENIUS_GENODEF_13
1002
{
1000
HIER
1070
     0
1002
}
1002
{
1000
MANEDIT
1070
     0
1002
}
1002
{
1000
NOSEL
1070
     0
1002
}
1002
{
1000
BEHIND
1070
     0
1002
}
1002
{
1000
OTHER
1070
     0
1002
}
1002
{
1000
REACTOR
1002
}
1001
GENIUS_GENCEN_19
1002
{
1040
4.0
1002
}
  0
DIMENSION
  5
B7FF
330
1F
100
AcDbEntity
  8
AM_5
 48
1.01
100
AcDbDimension
  2
*D11
 10
530.8541488158348
 20
1342.737328470411
 30
0.0
 11
527.7541488158346
 21
1312.737297952836
 31
0.0
 70
    32
 71
     5
 42
60.00006103514988
  3
SYS$0
100
AcDbAlignedDimension
 13
552.0433179101076
 23
1282.737267435261
 33
0.0
 14
556.8541488158348
 24
1342.737328470411
 34
0.0
 50
90.0
100
AcDbRotatedDimension
1001
ACAD
1000
DSTYLE
1002
{
1070
   271
1070
     0
1002
}
  0
DIMENSION
  5
B823
330
1F
100
AcDbEntity
  8
AM_5
 48
1.01
100
AcDbDimension
  2
*D12
 10
520.8541488158348
 20
1282.737267435261
 30
0.0
 11
517.7541488158346
 21
1300.237267435261
 31
0.0
 70
    32
 71
     5
 42
34.99999999999977
  3
SYS$0
100
AcDbAlignedDimension
 13
623.2641829955248
 23
1317.737267435261
 33
0.0
 14
552.0433179101076
 24
1282.737267435261
 34
0.0
 50
90.0
100
AcDbRotatedDimension
1001
ACAD
1000
DSTYLE
1002
{
1070
   271
1070
     0
1002
}
  0
DIMENSION
  5
B847
330
1F
100
AcDbEntity
  8
AM_5
 48
1.01
100
AcDbDimension
  2
*D13
 10
520.8541488158348
 20
1217.737288773719
 30
0.0
 11
517.7541488158347
 21
1250.23727810449
 31
0.0
 70
    32
 71
     5
 42
64.99997866154217
  3
SYS$0
100
AcDbAlignedDimension
 13
552.0433179101076
 23
1282.737267435261
 33
0.0
 14
573.6541672471815
 24
1217.737288773719
 34
0.0
 50
90.0
100
AcDbRotatedDimension
1001
ACAD
1000
DSTYLE
1002
{
1070
   271
1070
     0
1002
}
  0
DIMENSION
  5
B86B
330
1F
100
AcDbEntity
  8
AM_5
 48
1.01
100
AcDbDimension
  2
*D14
 10
520.8541488158353
 20
1192.737313211629
 30
0.0
 11
517.7541488158351
 21
1205.237300992674
 31
0.0
 70
    32
 71
     5
 42
24.99997556208996
  3
SYS$0
100
AcDbAlignedDimension
 13
573.6541672471815
 23
1217.737288773719
 33
0.0
 14
566.8541488158348
 24
1192.737313211629
 34
0.0
 50
90.0
100
AcDbRotatedDimension
1001
ACAD
1000
DSTYLE
1002
{
1070
   271
1070
     0
1002
}
  0
DIMENSION
  5
B88F
330
1F
100
AcDbEntity
  8
AM_5
 48
1.01
100
AcDbDimension
  2
*D15
 10
520.8541488158348
 20
1387.737313211621
 30
0.0
 11
517.7541488158346
 21
1352.737290323441
 31
0.0
 70
    32
  1
SP　<>
 71
     5
 42
70.00004577636014
  3
SYS$0
100
AcDbAlignedDimension
 13
623.2641829955248
 23
1317.737267435261
 33
0.0
 14
610.9911326995564
 24
1387.737313211621
 34
0.0
 50
90.0
100
AcDbRotatedDimension
1001
ACAD
1000
DSTYLE
1002
{
1070
   271
1070
     0
1002
}
  0
DIMENSION
  5
B8B3
330
1F
100
AcDbEntity
  8
AM_5
 48
1.01
100
AcDbDimension
  2
*D16
 10
520.8541488158348
 20
1467.737313211621
 30
0.0
 11
517.7541488158346
 21
1427.737313211621
 31
0.0
 70
    32
 71
     5
 42
80.0
  3
SYS$0
100
AcDbAlignedDimension
 13
610.9911326995564
 23
1387.737313211621
 33
0.0
 14
573.6541671263847
 24
1467.737313211621
 34
0.0
 50
90.0
100
AcDbRotatedDimension
1001
ACAD
1000
DSTYLE
1002
{
1070
   271
1070
     0
1002
}
  0
DIMENSION
  5
B8FB
330
1F
100
AcDbEntity
  8
AM_5
 48
1.01
100
AcDbDimension
  2
*D17
 10
572.0541610228748
 20
1502.737313211621
 30
0.0
 11
576.9008276895415
 21
1505.837313211621
 31
0.0
 70
    32
 71
     5
 42
5.200012207040003
  3
SYS$0
100
AcDbAlignedDimension
 13
566.8541488158348
 23
1492.737313211621
 33
0.0
 14
572.0541610228748
 24
1492.737313211621
 34
0.0
100
AcDbRotatedDimension
  0
DIMENSION
  5
B92B
330
1F
100
AcDbEntity
  8
AM_5
 48
1.01
100
AcDbDimension
  2
*D18
 10
636.8541806244285
 20
1512.737313211621
 30
0.0
 11
601.8541647201316
 21
1515.837313211621
 31
0.0
 70
    32
  1
BS:<>
 71
     5
 42
70.00003180859369
  3
SYS$0
100
AcDbAlignedDimension
 13
566.8541488158348
 23
1492.737313211621
 33
0.0
 14
636.8541806244285
 24
1480.937313211621
 34
0.0
100
AcDbRotatedDimension
1001
ACAD
1000
DSTYLE
1002
{
1070
   271
1070
     0
1002
}
  0
DIMENSION
  5
B95D
330
1F
100
AcDbEntity
  8
AM_5
 48
1.01
100
AcDbDimension
  2
*D19
 10
696.8541488158348
 20
1522.73731321162
 30
0.0
 11
631.8541488158348
 21
1525.83731321162
 31
0.0
 70
    32
 71
     5
 42
130.0
  3
SYS$0
100
AcDbAlignedDimension
 13
566.8541488158348
 23
1492.737313211621
 33
0.0
 14
696.8541488158348
 24
1467.737313211621
 34
0.0
100
AcDbRotatedDimension
1001
ACAD
1000
DSTYLE
1002
{
1070
   271
1070
     0
1002
}
  0
LINE
  5
B9FE
330
1F
100
AcDbEntity
  8
size
100
AcDbLine
 10
209.1693648837317
 20
1130.886483692677
 30
0.0
 11
803.1693648837316
 21
1130.886483692677
 31
0.0
1001
GENIUS_GENREC_14
1002
{
1000
PYDIR
1011
209.1693648837318
1021
1427.886483692677
1031
0.0
1002
}
1002
{
1000
PXDIR
1011
629.1693648837317
1021
1130.886483692677
1031
0.0
1002
}
1002
{
1000
PORI
1011
209.1693648837317
1021
1130.886483692677
1031
0.0
1002
}
1002
{
1000
PINS
1011
419.1693648837317
1021
1279.386483692677
1031
0.0
1002
}
1002
{
1000
HVAL
1000
297
1002
}
1002
{
1000
H
1070
     2
1002
}
1002
{
1000
WVAL
1000
420
1002
}
1002
{
1000
W
1070
     2
1002
}
1002
{
1000
C
1070
     4
1002
}
1001
GENIUS_GENOBJ-N-REC_13
1002
{
1000
OWNER
1000
GEN
1002
}
1001
GENIUS_GENODEF_13
1002
{
1000
HIER
1070
     0
1002
}
1002
{
1000
MANEDIT
1070
     0
1002
}
1002
{
1000
NOSEL
1070
     0
1002
}
1002
{
1000
BEHIND
1070
     0
1002
}
1002
{
1000
OTHER
1070
     0
1002
}
1002
{
1000
REACTOR
1002
}
  0
LINE
  5
B9FF
330
1F
100
AcDbEntity
  8
size
100
AcDbLine
 10
209.1693648837318
 20
1550.886483692677
 30
0.0
 11
209.1693648837317
 21
1130.886483692677
 31
0.0
1001
GENIUS_GENREC_14
1002
{
1000
PYDIR
1011
209.1693648837318
1021
1427.886483692677
1031
0.0
1002
}
1002
{
1000
PXDIR
1011
629.1693648837317
1021
1130.886483692677
1031
0.0
1002
}
1002
{
1000
PORI
1011
209.1693648837317
1021
1130.886483692677
1031
0.0
1002
}
1002
{
1000
PINS
1011
419.1693648837317
1021
1279.386483692677
1031
0.0
1002
}
1002
{
1000
HVAL
1000
297
1002
}
1002
{
1000
H
1070
     2
1002
}
1002
{
1000
WVAL
1000
420
1002
}
1002
{
1000
W
1070
     2
1002
}
1002
{
1000
C
1070
     4
1002
}
1001
GENIUS_GENOBJ-N-REC_13
1002
{
1000
OWNER
1000
GEN
1002
}
1001
GENIUS_GENODEF_13
1002
{
1000
HIER
1070
     0
1002
}
1002
{
1000
MANEDIT
1070
     0
1002
}
1002
{
1000
NOSEL
1070
     0
1002
}
1002
{
1000
BEHIND
1070
     0
1002
}
1002
{
1000
OTHER
1070
     0
1002
}
1002
{
1000
REACTOR
1002
}
  0
LINE
  5
BA00
330
1F
100
AcDbEntity
  8
waku
100
AcDbLine
 10
791.6693648837317
 20
1139.386483692677
 30
0.0
 11
791.6693648837317
 21
1542.386483692677
 31
0.0
1001
GENIUS_GENREC_14
1002
{
1000
PYDIR
1011
383.1693648837318
1021
1550.886483692677
1031
0.0
1002
}
1002
{
1000
PXDIR
1011
803.1693648837316
1021
1253.886483692677
1031
0.0
1002
}
1002
{
1000
PORI
1011
383.1693648837318
1021
1253.886483692677
1031
0.0
1002
}
1002
{
1000
PINS
1011
593.1693648837317
1021
1402.386483692677
1031
0.0
1002
}
1002
{
1000
HVAL
1000
297
1002
}
1002
{
1000
H
1070
     2
1002
}
1002
{
1000
WVAL
1000
420
1002
}
1002
{
1000
W
1070
     2
1002
}
1002
{
1000
C
1070
     4
1002
}
1001
GENIUS_GENOBJ-N-REC_13
1002
{
1000
OWNER
1000
GEN
1002
}
1001
GENIUS_GENODEF_13
1002
{
1000
HIER
1070
     0
1002
}
1002
{
1000
MANEDIT
1070
     0
1002
}
1002
{
1000
NOSEL
1070
     0
1002
}
1002
{
1000
BEHIND
1070
     0
1002
}
1002
{
1000
OTHER
1070
     0
1002
}
1002
{
1000
REACTOR
1002
}
  0
LINE
  5
BA01
330
1F
100
AcDbEntity
  8
waku
100
AcDbLine
 10
220.6693648837318
 20
1542.386483692677
 30
0.0
 11
220.6693648837318
 21
1139.386483692677
 31
0.0
1001
GENIUS_GENREC_14
1002
{
1000
PYDIR
1011
209.1693648837318
1021
1427.886483692677
1031
0.0
1002
}
1002
{
1000
PXDIR
1011
629.1693648837317
1021
1130.886483692677
1031
0.0
1002
}
1002
{
1000
PORI
1011
209.1693648837317
1021
1130.886483692677
1031
0.0
1002
}
1002
{
1000
PINS
1011
419.1693648837317
1021
1279.386483692677
1031
0.0
1002
}
1002
{
1000
HVAL
1000
297
1002
}
1002
{
1000
H
1070
     2
1002
}
1002
{
1000
WVAL
1000
420
1002
}
1002
{
1000
W
1070
     2
1002
}
1002
{
1000
C
1070
     4
1002
}
1001
GENIUS_GENOBJ-N-REC_13
1002
{
1000
OWNER
1000
GEN
1002
}
1001
GENIUS_GENODEF_13
1002
{
1000
HIER
1070
     0
1002
}
1002
{
1000
MANEDIT
1070
     0
1002
}
1002
{
1000
NOSEL
1070
     0
1002
}
1002
{
1000
BEHIND
1070
     0
1002
}
1002
{
1000
OTHER
1070
     0
1002
}
1002
{
1000
REACTOR
1002
}
  0
LINE
  5
BA02
330
1F
100
AcDbEntity
  8
waku
100
AcDbLine
 10
791.6693648837317
 20
1542.386483692677
 30
0.0
 11
220.6693648837318
 21
1542.386483692677
 31
0.0
1001
GENIUS_GENREC_14
1002
{
1000
PYDIR
1011
383.1693648837318
1021
1550.886483692677
1031
0.0
1002
}
1002
{
1000
PXDIR
1011
803.1693648837316
1021
1253.886483692677
1031
0.0
1002
}
1002
{
1000
PORI
1011
383.1693648837318
1021
1253.886483692677
1031
0.0
1002
}
1002
{
1000
PINS
1011
593.1693648837317
1021
1402.386483692677
1031
0.0
1002
}
1002
{
1000
HVAL
1000
297
1002
}
1002
{
1000
H
1070
     2
1002
}
1002
{
1000
WVAL
1000
420
1002
}
1002
{
1000
W
1070
     2
1002
}
1002
{
1000
C
1070
     4
1002
}
1001
GENIUS_GENOBJ-N-REC_13
1002
{
1000
OWNER
1000
GEN
1002
}
1001
GENIUS_GENODEF_13
1002
{
1000
HIER
1070
     0
1002
}
1002
{
1000
MANEDIT
1070
     0
1002
}
1002
{
1000
NOSEL
1070
     0
1002
}
1002
{
1000
BEHIND
1070
     0
1002
}
1002
{
1000
OTHER
1070
     0
1002
}
1002
{
1000
REACTOR
1002
}
  0
LINE
  5
BA03
330
1F
100
AcDbEntity
  8
waku
100
AcDbLine
 10
220.6693648837318
 20
1139.386483692677
 30
0.0
 11
791.6693648837317
 21
1139.386483692677
 31
0.0
1001
GENIUS_GENREC_14
1002
{
1000
PYDIR
1011
209.1693648837318
1021
1427.886483692677
1031
0.0
1002
}
1002
{
1000
PXDIR
1011
629.1693648837317
1021
1130.886483692677
1031
0.0
1002
}
1002
{
1000
PORI
1011
209.1693648837317
1021
1130.886483692677
1031
0.0
1002
}
1002
{
1000
PINS
1011
419.1693648837317
1021
1279.386483692677
1031
0.0
1002
}
1002
{
1000
HVAL
1000
297
1002
}
1002
{
1000
H
1070
     2
1002
}
1002
{
1000
WVAL
1000
420
1002
}
1002
{
1000
W
1070
     2
1002
}
1002
{
1000
C
1070
     4
1002
}
  0
LINE
  5
BA04
330
1F
100
AcDbEntity
  8
size
100
AcDbLine
 10
803.1693648837316
 20
1550.886483692677
 30
0.0
 11
803.1693648837316
 21
1130.886483692677
 31
0.0
1001
GENIUS_GENREC_14
1002
{
1000
PYDIR
1011
209.1693648837318
1021
1427.886483692677
1031
0.0
1002
}
1002
{
1000
PXDIR
1011
629.1693648837317
1021
1130.886483692677
1031
0.0
1002
}
1002
{
1000
PORI
1011
209.1693648837317
1021
1130.886483692677
1031
0.0
1002
}
1002
{
1000
PINS
1011
419.1693648837317
1021
1279.386483692677
1031
0.0
1002
}
1002
{
1000
HVAL
1000
297
1002
}
1002
{
1000
H
1070
     2
1002
}
1002
{
1000
WVAL
1000
420
1002
}
1002
{
1000
W
1070
     2
1002
}
1002
{
1000
C
1070
     4
1002
}
1001
GENIUS_GENOBJ-N-REC_13
1002
{
1000
OWNER
1000
GEN
1002
}
1001
GENIUS_GENODEF_13
1002
{
1000
HIER
1070
     0
1002
}
1002
{
1000
MANEDIT
1070
     0
1002
}
1002
{
1000
NOSEL
1070
     0
1002
}
1002
{
1000
BEHIND
1070
     0
1002
}
1002
{
1000
OTHER
1070
     0
1002
}
1002
{
1000
REACTOR
1002
}
  0
LINE
  5
BA05
330
1F
100
AcDbEntity
  8
size
100
AcDbLine
 10
209.1693648837318
 20
1550.886483692677
 30
0.0
 11
803.1693648837316
 21
1550.886483692677
 31
0.0
1001
GENIUS_GENREC_14
1002
{
1000
PYDIR
1011
209.1693648837318
1021
1427.886483692677
1031
0.0
1002
}
1002
{
1000
PXDIR
1011
629.1693648837317
1021
1130.886483692677
1031
0.0
1002
}
1002
{
1000
PORI
1011
209.1693648837317
1021
1130.886483692677
1031
0.0
1002
}
1002
{
1000
PINS
1011
419.1693648837317
1021
1279.386483692677
1031
0.0
1002
}
1002
{
1000
HVAL
1000
297
1002
}
1002
{
1000
H
1070
     2
1002
}
1002
{
1000
WVAL
1000
420
1002
}
1002
{
1000
W
1070
     2
1002
}
1002
{
1000
C
1070
     4
1002
}
1001
GENIUS_GENOBJ-N-REC_13
1002
{
1000
OWNER
1000
GEN
1002
}
1001
GENIUS_GENODEF_13
1002
{
1000
HIER
1070
     0
1002
}
1002
{
1000
MANEDIT
1070
     0
1002
}
1002
{
1000
NOSEL
1070
     0
1002
}
1002
{
1000
BEHIND
1070
     0
1002
}
1002
{
1000
OTHER
1070
     0
1002
}
1002
{
1000
REACTOR
1002
}
  0
TEXT
  5
BA06
330
1F
100
AcDbEntity
  8
AM_6
 48
1.01
 60
     1
100
AcDbText
 10
209.1693648837317
 20
1130.886483692677
 30
0.0
 40
2.5
  1
!GENTITLE-LL
100
AcDbText
  0
TEXT
  5
BA07
330
1F
100
AcDbEntity
  8
AM_6
 48
1.01
 60
     1
100
AcDbText
 10
791.6693648837317
 20
1542.386483692677
 30
0.0
 40
2.5
  1
!GENTITLE-RU
100
AcDbText
  0
TEXT
  5
BA08
330
1F
100
AcDbEntity
  8
AM_6
 48
1.01
 60
     1
100
AcDbText
 10
803.1693648837316
 20
1550.886483692677
 30
0.0
 40
2.5
  1
!GENTITLE-MAX
100
AcDbText
  0
TEXT
  5
BA09
330
1F
100
AcDbEntity
  8
AM_6
 48
1.01
 60
     1
100
AcDbText
 10
791.6693648837317
 20
1139.386483692677
 30
0.0
 40
2.5
  1
!GENTITLE-INSERT
100
AcDbText
  0
LINE
  5
BA4B
330
1F
100
AcDbEntity
  8
AM_7
100
AcDbLine
 10
554.5541610228748
 20
1159.386483080717
 30
0.0
 11
700.8541488158349
 21
1159.386483080717
 31
0.0
1001
GENIUS_GENOBJ-N-CEN_13
1002
{
1000
OWNER
1000
GEN
1002
}
1001
GENIUS_GENODEF_13
1002
{
1000
HIER
1070
     0
1002
}
1002
{
1000
MANEDIT
1070
     0
1002
}
1002
{
1000
NOSEL
1070
     0
1002
}
1002
{
1000
BEHIND
1070
     0
1002
}
1002
{
1000
OTHER
1070
     0
1002
}
1002
{
1000
REACTOR
1002
}
1001
GENIUS_GENCEN_19
1002
{
1040
4.0
1002
}
  0
MTEXT
  5
BD87
330
1F
100
AcDbEntity
  8
AM_6
 48
1.01
100
AcDbMText
 10
242.8672189950694
 20
1521.336314428223
 30
0.0
 40
3.2
 41
17.78396934279999
 71
     5
 72
     5
  1
品　名
 73
     1
 44
1.0
1001
ACAD
1000
MTEXTBEGIN
1070
    73
1070
     1
1070
    44
1040
1.0
1070
    74
1070
     0
1000
MTEXTEND
1000
ACAD_MTEXT_DEFINED_HEIGHT_BEGIN
1070
    46
1040
55.53171905658246
1000
ACAD_MTEXT_DEFINED_HEIGHT_END
  0
MTEXT
  5
BD88
330
1F
100
AcDbEntity
  8
AM_6
 48
1.01
100
AcDbMText
 10
255.0974443773898
 20
1521.481335630535
 30
0.0
 40
3.2
 41
63.60169966314606
 71
     4
 72
     5
  1
カセット式受側グレモン締り
 73
     1
 44
1.0
1001
ACAD
1000
MTEXTBEGIN
1070
    73
1070
     1
1070
    44
1040
1.0
1070
    74
1070
     0
1000
MTEXTEND
1000
ACAD_MTEXT_DEFINED_HEIGHT_BEGIN
1070
    46
1040
13.8829297641455
1000
ACAD_MTEXT_DEFINED_HEIGHT_END
  0
MTEXT
  5
BD89
330
1F
100
AcDbEntity
  8
AM_6
 48
1.01
100
AcDbMText
 10
242.8672189950694
 20
1505.08507682309
 30
0.0
 40
3.2
 41
17.78396934279999
 71
     5
 72
     5
  1
材　質
 73
     1
 44
1.0
1001
ACAD
1000
MTEXTBEGIN
1070
    73
1070
     1
1070
    44
1040
1.0
1070
    74
1070
     0
1000
MTEXTEND
1000
ACAD_MTEXT_DEFINED_HEIGHT_BEGIN
1070
    46
1040
13.8829297641455
1000
ACAD_MTEXT_DEFINED_HEIGHT_END
  0
LWPOLYLINE
  5
BD8A
330
1F
100
AcDbEntity
  8
AM_0
 48
1.01
100
AcDbPolyline
 90
        4
 70
     1
 43
0.0
 10
233.9752343236694
 20
1524.952068071571
 10
311.0843039348215
 20
1524.952068071571
 10
311.0843039348215
 20
1476.361813897063
 10
233.9752343236694
 20
1476.361813897063
1001
GENIUS_GENREC_14
1002
{
1000
PYDIR
1011
233.9752343236694
1021
1476.361813897063
1031
0.0
1002
}
1002
{
1000
PXDIR
1011
311.0843039348215
1021
1524.952068071571
1031
0.0
1002
}
1002
{
1000
PORI
1011
233.9752343236694
1021
1524.952068071571
1031
0.0
1002
}
1002
{
1000
PINS
1011
233.9752343236694
1021
1524.952068071571
1031
0.0
1002
}
1002
{
1000
PINS2
1011
311.0843039348215
1021
1476.361813897063
1031
0.0
1002
}
1002
{
1000
C
1070
     1
1002
}
1001
GENIUS_GENOBJ-N-REC_13
1002
{
1000
OWNER
1000
GEN
1002
}
1001
GENIUS_GENODEF_13
1002
{
1000
HIER
1070
     0
1002
}
1002
{
1000
MANEDIT
1070
     0
1002
}
1002
{
1000
NOSEL
1070
     0
1002
}
1002
{
1000
BEHIND
1070
     0
1002
}
1002
{
1000
OTHER
1070
     0
1002
}
1002
{
1000
REACTOR
1002
}
  0
LINE
  5
BD8B
330
1F
100
AcDbEntity
  8
AM_0
100
AcDbLine
 10
251.7592036664694
 20
1524.952068071571
 30
0.0
 11
251.7592036664694
 21
1476.361813897063
 31
0.0
  0
LINE
  5
BD8C
330
1F
100
AcDbEntity
  8
AM_0
100
AcDbLine
 10
233.9752343236694
 20
1518.010603189498
 30
0.0
 11
311.0843039348215
 21
1518.010603189498
 31
0.0
  0
LINE
  5
BD8D
330
1F
100
AcDbEntity
  8
AM_0
100
AcDbLine
 10
251.7592036664694
 20
1511.069138307426
 30
0.0
 11
311.0843039348215
 21
1511.069138307426
 31
0.0
  0
LINE
  5
BD8E
330
1F
100
AcDbEntity
  8
AM_0
100
AcDbLine
 10
311.0843039348215
 20
1483.380785525159
 30
0.0
 11
233.9752343236694
 21
1483.380785525159
 31
0.0
  0
LINE
  5
BD8F
330
1F
100
AcDbEntity
  8
AM_0
100
AcDbLine
 10
251.7592036664694
 20
1504.127673425353
 30
0.0
 11
311.0843039348215
 21
1504.127673425353
 31
0.0
  0
MTEXT
  5
BD90
330
1F
100
AcDbEntity
  8
AM_6
 48
1.01
100
AcDbMText
 10
251.7592036664694
 20
1507.59840586639
 30
0.0
 40
3.2
 41
63.60169966314606
 71
     4
 72
     5
  1
　本体：スチール
 73
     1
 44
1.0
1001
ACAD
1000
MTEXTBEGIN
1070
    73
1070
     1
1070
    44
1040
1.0
1070
    74
1070
     0
1000
MTEXTEND
1000
ACAD_MTEXT_DEFINED_HEIGHT_BEGIN
1070
    46
1040
13.8829297641455
1000
ACAD_MTEXT_DEFINED_HEIGHT_END
  0
LINE
  5
BD91
330
1F
100
AcDbEntity
  8
AM_0
100
AcDbLine
 10
233.9752343236694
 20
1497.18620854328
 30
0.0
 11
311.0843039348215
 21
1497.186208543281
 31
0.0
  0
MTEXT
  5
BD92
330
1F
100
AcDbEntity
  8
AM_6
 48
1.01
100
AcDbMText
 10
242.8672189950694
 20
1514.394849546151
 30
0.0
 40
3.2
 41
17.78396934279999
 71
     5
 72
     5
  1
品　番
 73
     1
 44
1.0
1001
ACAD
1000
MTEXTBEGIN
1070
    73
1070
     1
1070
    44
1040
1.0
1070
    74
1070
     0
1000
MTEXTEND
1000
ACAD_MTEXT_DEFINED_HEIGHT_BEGIN
1070
    46
1040
55.53171905658246
1000
ACAD_MTEXT_DEFINED_HEIGHT_END
  0
MTEXT
  5
BD93
330
1F
100
AcDbEntity
  8
AM_6
 48
1.01
100
AcDbMText
 10
255.0974443773898
 20
1514.539870748462
 30
0.0
 40
3.2
 41
63.60169966314606
 71
     4
 72
     5
  1
C-DL-55-1
 73
     1
 44
1.0
1001
ACAD
1000
MTEXTBEGIN
1070
    73
1070
     1
1070
    44
1040
1.0
1070
    74
1070
     0
1000
MTEXTEND
1000
ACAD_MTEXT_DEFINED_HEIGHT_BEGIN
1070
    46
1040
13.8829297641455
1000
ACAD_MTEXT_DEFINED_HEIGHT_END
  0
LINE
  5
BD94
330
1F
100
AcDbEntity
  8
AM_0
100
AcDbLine
 10
250.6925369998028
 20
1497.18620854328
 30
0.0
 11
311.0843039348215
 21
1497.186208543281
 31
0.0
  0
MTEXT
  5
BD95
330
1F
100
AcDbEntity
  8
AM_6
 48
1.01
100
AcDbMText
 10
251.7592036664694
 20
1500.656940984317
 30
0.0
 40
3.2
 41
63.60169966314606
 71
     4
 72
     5
  1
　フロントプレート：ステンレス
 73
     1
 44
1.0
1001
ACAD
1000
MTEXTBEGIN
1070
    73
1070
     1
1070
    44
1040
1.0
1070
    74
1070
     0
1000
MTEXTEND
1000
ACAD_MTEXT_DEFINED_HEIGHT_BEGIN
1070
    46
1040
13.8829297641455
1000
ACAD_MTEXT_DEFINED_HEIGHT_END
  0
MTEXT
  5
BD9A
330
1F
100
AcDbEntity
  8
AM_6
 48
1.01
100
AcDbMText
 10
242.8672189950694
 20
1491.202147058945
 30
0.0
 40
3.2
 41
17.78396934279999
 71
     5
 72
     5
  1
仕上げ
 73
     1
 44
1.0
1001
ACAD
1000
MTEXTBEGIN
1070
    73
1070
     1
1070
    44
1040
1.0
1070
    74
1070
     0
1000
MTEXTEND
1000
ACAD_MTEXT_DEFINED_HEIGHT_BEGIN
1070
    46
1040
13.8829297641455
1000
ACAD_MTEXT_DEFINED_HEIGHT_END
  0
LINE
  5
BD9C
330
1F
100
AcDbEntity
  8
AM_0
100
AcDbLine
 10
251.7592036664694
 20
1490.244743661208
 30
0.0
 11
311.0843039348215
 21
1490.244743661208
 31
0.0
  0
MTEXT
  5
BD9D
330
1F
100
AcDbEntity
  8
AM_6
 48
1.01
100
AcDbMText
 10
251.7592036664694
 20
1493.715476102244
 30
0.0
 40
3.2
 41
63.60169966314606
 71
     4
 72
     5
  1
　本体：有色クロメート
 73
     1
 44
1.0
1001
ACAD
1000
MTEXTBEGIN
1070
    73
1070
     1
1070
    44
1040
1.0
1070
    74
1070
     0
1000
MTEXTEND
1000
ACAD_MTEXT_DEFINED_HEIGHT_BEGIN
1070
    46
1040
13.8829297641455
1000
ACAD_MTEXT_DEFINED_HEIGHT_END
  0
MTEXT
  5
BD9E
330
1F
100
AcDbEntity
  8
AM_6
 48
1.01
100
AcDbMText
 10
251.7592036664694
 20
1486.774011220171
 30
0.0
 40
3.2
 41
63.60169966314606
 71
     4
 72
     5
  1
　フロントプレート：ヘアーライン
 73
     1
 44
1.0
1001
ACAD
1000
MTEXTBEGIN
1070
    73
1070
     1
1070
    44
1040
1.0
1070
    74
1070
     0
1000
MTEXTEND
1000
ACAD_MTEXT_DEFINED_HEIGHT_BEGIN
1070
    46
1040
13.8829297641455
1000
ACAD_MTEXT_DEFINED_HEIGHT_END
  0
LINE
  5
BDA1
330
1F
100
AcDbEntity
  8
AM_0
100
AcDbLine
 10
250.6925369998028
 20
1497.18620854328
 30
0.0
 11
311.0843039348215
 21
1497.186208543281
 31
0.0
  0
MTEXT
  5
BE1A
330
1F
100
AcDbEntity
  8
AM_6
 48
1.01
100
AcDbMText
 10
242.8672189950694
 20
1479.687525135787
 30
0.0
 40
3.2
 41
17.78396934279999
 71
     5
 72
     5
  1
セット品
 73
     1
 44
1.0
1001
ACAD
1000
MTEXTBEGIN
1070
    73
1070
     1
1070
    44
1040
1.0
1070
    74
1070
     0
1000
MTEXTEND
1000
ACAD_MTEXT_DEFINED_HEIGHT_BEGIN
1070
    46
1040
55.53171905658246
1000
ACAD_MTEXT_DEFINED_HEIGHT_END
  0
MTEXT
  5
BE1C
330
1F
100
AcDbEntity
  8
AM_6
 48
1.01
100
AcDbMText
 10
251.7592036664694
 20
1479.832546338099
 30
0.0
 40
3.2
 41
63.60169966314606
 71
     4
 72
     5
  1
　M4×10　D=7サラ小ネジ+SUS　4本
 73
     1
 44
1.0
1001
ACAD
1000
MTEXTBEGIN
1070
    73
1070
     1
1070
    44
1040
1.0
1070
    74
1070
     0
1000
MTEXTEND
1000
ACAD_MTEXT_DEFINED_HEIGHT_BEGIN
1070
    46
1040
13.8829297641455
1000
ACAD_MTEXT_DEFINED_HEIGHT_END
  0
CIRCLE
  5
BE21
330
1F
100
AcDbEntity
  8
AM_CL
  6
Continuous
 48
0.4
100
AcDbCircle
 10
290.7549003691722
 20
1479.60493556789
 30
0.0
 40
1.520527009968654
  0
LINE
  5
CBBE
330
1F
100
AcDbEntity
  8
AM_7
100
AcDbLine
 10
610.9911326995564
 20
1387.737313211621
 30
0.0
 11
662.7172285493005
 21
1387.737313211621
 31
0.0
1001
GENIUS_GENODEF_13
1002
{
1000
HIER
1070
     0
1002
}
1002
{
1000
MANEDIT
1070
     0
1002
}
1002
{
1000
NOSEL
1070
     0
1002
}
1002
{
1000
BEHIND
1070
     0
1002
}
1002
{
1000
OTHER
1070
     0
1002
}
1002
{
1000
REACTOR
1002
}
1001
GENIUS_GENOBJ-N-CEN_13
1002
{
1000
OWNER
1000
GEN
1002
}
1001
GENIUS_GENCEN_19
1002
{
1040
4.0
1002
}
  0
LINE
  5
D8E7
330
1F
100
AcDbEntity
  8
PV0001_1
  6
中線
 62
   255
 48
0.15
100
AcDbLine
 10
564.8541488158348
 20
1348.737328470411
 30
0.0
 11
566.8541488158348
 21
1348.737328470411
 31
0.0
  0
LINE
  5
D8E8
330
1F
100
AcDbEntity
  8
PV0001_1
  6
中線
 62
   255
 48
0.15
100
AcDbLine
 10
564.8541488158348
 20
1336.737328470411
 30
0.0
 11
566.8541488158348
 21
1336.737328470411
 31
0.0
  0
LINE
  5
D8E9
330
1F
100
AcDbEntity
  8
PV0001_1
  6
中線
 62
   255
 48
0.6000000000000001
100
AcDbLine
 10
564.8541488158348
 20
1336.737328470411
 30
0.0
 11
564.8541488158348
 21
1348.737328470411
 31
0.0
  0
LWPOLYLINE
  5
D995
330
1F
100
AcDbEntity
  8
AM_0
 48
1.01
100
AcDbPolyline
 90
        4
 70
     1
 43
0.0
 10
564.8541488158348
 20
1163.386483080717
 10
566.8541488158348
 20
1163.386483080717
 10
566.8541488158348
 20
1155.386483080717
 10
564.8541488158348
 20
1155.386483080717
1001
GENIUS_GENREC_14
1002
{
1000
PYDIR
1011
564.8541488158348
1021
1155.386483080717
1031
0.0
1002
}
1002
{
1000
PXDIR
1011
566.8541488158348
1021
1163.386483080717
1031
0.0
1002
}
1002
{
1000
PORI
1011
564.8541488158348
1021
1163.386483080717
1031
0.0
1002
}
1002
{
1000
PINS
1011
564.8541488158348
1021
1163.386483080717
1031
0.0
1002
}
1002
{
1000
PINS2
1011
566.8541488158348
1021
1155.386483080717
1031
0.0
1002
}
1002
{
1000
C
1070
     1
1002
}
1001
GENIUS_GENODEF_13
1002
{
1000
HIER
1070
     0
1002
}
1002
{
1000
MANEDIT
1070
     0
1002
}
1002
{
1000
NOSEL
1070
     0
1002
}
1002
{
1000
BEHIND
1070
     0
1002
}
1002
{
1000
OTHER
1070
     0
1002
}
1002
{
1000
REACTOR
1002
}
1001
GENIUS_GENOBJ-N-REC_13
1002
{
1000
OWNER
1000
GEN
1002
}
  0
DIMENSION
  5
E6DE
330
1F
100
AcDbEntity
  8
AM_5
 48
1.01
100
AcDbDimension
  2
*D20
 10
437.1975677469649
 20
1267.737267435261
 30
0.0
 11
434.0975677469646
 21
1282.737267435261
 31
0.0
 70
    32
 71
     5
 42
30.0
  3
SYS$0
100
AcDbAlignedDimension
 13
422.6975677469637
 23
1297.737267435261
 33
0.0
 14
422.6975677469637
 24
1267.737267435261
 34
0.0
 50
90.00000000000003
100
AcDbRotatedDimension
1001
ACAD
1000
DSTYLE
1002
{
1070
   271
1070
     0
1002
}
  0
DIMENSION
  5
E702
330
1F
100
AcDbEntity
  8
AM_5
 48
1.01
100
AcDbDimension
  2
*D21
 10
422.6975677469637
 20
1256.596315552039
 30
0.0
 11
418.5670976514243
 21
1256.596315552039
 31
0.0
 70
   160
 71
     5
 42
16.0
  3
SYS$0
100
AcDbAlignedDimension
 13
406.6975677469637
 23
1267.737267435261
 33
0.0
 14
422.6975677469637
 24
1267.737267435261
 34
0.0
 50
0.0000000000001132
100
AcDbRotatedDimension
1001
ACAD
1000
DSTYLE
1002
{
1070
   271
1070
     0
1002
}
  0
DIMENSION
  5
E73F
330
1F
100
AcDbEntity
  8
AM_5
 48
1.01
100
AcDbDimension
  2
*D22
 10
540.854148815835
 20
1336.737328470411
 30
0.0
 11
540.8541488158348
 21
1345.848336352224
 31
0.0
 70
   160
 71
     5
 42
12.0
  3
SYS$0
100
AcDbAlignedDimension
 13
564.8541488158348
 23
1348.737328470411
 33
0.0
 14
564.8541488158348
 24
1336.737328470411
 34
0.0
 50
90.0
100
AcDbRotatedDimension
1001
ACAD
1000
DSTYLE
1002
{
1070
   271
1070
     0
1002
}
  0
DIMENSION
  5
E779
330
1F
100
AcDbEntity
  8
AM_5
 48
1.01
100
AcDbDimension
  2
*D23
 10
554.8541488158348
 20
1155.386483080717
 30
0.0
 11
551.7541488158347
 21
1159.386483080717
 31
0.0
 70
    32
 71
     5
 42
8.0
  3
SYS$0
100
AcDbAlignedDimension
 13
564.8541488158348
 23
1163.386483080717
 33
0.0
 14
564.8541488158348
 24
1155.386483080717
 34
0.0
 50
90.00000000000003
100
AcDbRotatedDimension
1001
ACAD
1000
DSTYLE
1002
{
1070
   271
1070
     0
1002
}
  0
DIMENSION
  5
E7A3
330
1F
100
AcDbEntity
  8
AM_5
 48
1.01
100
AcDbDimension
  2
*D24
 10
564.8541488158348
 20
1358.737328470411
 30
0.0
 11
560.6074821491681
 21
1361.837328470411
 31
0.0
 70
    32
 71
     5
 42
2.0
  3
SYS$0
100
AcDbAlignedDimension
 13
566.8541488158348
 23
1348.737328470411
 33
0.0
 14
564.8541488158348
 24
1348.737328470411
 34
0.0
100
AcDbRotatedDimension
1001
ACAD
1000
DSTYLE
1002
{
1070
   271
1070
     0
1002
}
  0
LINE
  5
EB5C
330
1F
100
AcDbEntity
  8
AM_0
100
AcDbLine
 10
696.8541488158349
 20
1217.737313211621
 30
0.0
 11
696.8541488158349
 21
1467.737313211621
 31
0.0
  0
LINE
  5
EB5E
330
1F
100
AcDbEntity
  8
AM_7
 48
0.8
100
AcDbLine
 10
406.6975677469637
 20
1212.737282694053
 30
0.0
 11
422.6975677469637
 21
1212.737282694053
 31
0.0
  0
CIRCLE
  5
EB5F
330
1F
100
AcDbEntity
  8
AM_0
 48
0.4
100
AcDbCircle
 10
414.6975677469637
 20
1212.737282694053
 30
0.0
 40
3.0
  0
LINE
  5
EB60
330
1F
100
AcDbEntity
  8
AM_2
 48
0.15
100
AcDbLine
 10
415.6975677469636
 20
1213.237282694053
 30
0.0
 11
416.1975677469637
 21
1213.237282694053
 31
0.0
  0
LINE
  5
EB61
330
1F
100
AcDbEntity
  8
AM_2
 48
0.15
100
AcDbLine
 10
413.1975677469637
 20
1213.237282694053
 30
0.0
 11
413.6975677469637
 21
1213.237282694053
 31
0.0
  0
LINE
  5
EB62
330
1F
100
AcDbEntity
  8
AM_2
 48
0.15
100
AcDbLine
 10
413.1975677469637
 20
1212.237282694053
 30
0.0
 11
413.6975677469637
 21
1212.237282694053
 31
0.0
  0
LINE
  5
EB63
330
1F
100
AcDbEntity
  8
AM_2
 48
0.15
100
AcDbLine
 10
414.1975677469637
 20
1211.237282694053
 30
0.0
 11
414.1975677469637
 21
1211.737282694053
 31
0.0
  0
LINE
  5
EB64
330
1F
100
AcDbEntity
  8
AM_2
 48
0.15
100
AcDbLine
 10
415.6975677469636
 20
1212.237282694053
 30
0.0
 11
416.1975677469637
 21
1212.237282694053
 31
0.0
  0
LINE
  5
EB65
330
1F
100
AcDbEntity
  8
AM_2
 48
0.15
100
AcDbLine
 10
415.1975677469637
 20
1211.237282694053
 30
0.0
 11
415.1975677469637
 21
1211.737282694053
 31
0.0
  0
LINE
  5
EB66
330
1F
100
AcDbEntity
  8
AM_2
 48
0.15
100
AcDbLine
 10
415.1975677469637
 20
1213.737282694053
 30
0.0
 11
415.1975677469637
 21
1214.237282694053
 31
0.0
  0
LINE
  5
EB67
330
1F
100
AcDbEntity
  8
AM_2
 48
0.15
100
AcDbLine
 10
414.1975677469637
 20
1213.737282694053
 30
0.0
 11
414.1975677469637
 21
1214.237282694053
 31
0.0
  0
ARC
  5
EB68
330
1F
100
AcDbEntity
  8
AM_2
 48
0.3
100
AcDbCircle
 10
413.6975677469637
 20
1213.737282694053
 30
0.0
 40
0.5
100
AcDbArc
 50
269.9999974955182
 51
0.0
  0
ARC
  5
EB69
330
1F
100
AcDbEntity
  8
AM_2
 48
0.3
100
AcDbCircle
 10
413.6975677469637
 20
1211.737282694053
 30
0.0
 40
0.5
100
AcDbArc
 50
0.0
 51
90.0000025044752
  0
ARC
  5
EB6A
330
1F
100
AcDbEntity
  8
AM_2
 48
0.3
100
AcDbCircle
 10
416.1975677469637
 20
1212.737282694053
 30
0.0
 40
0.5
100
AcDbArc
 50
269.9999974955182
 51
90.0000025044752
  0
ARC
  5
EB6B
330
1F
100
AcDbEntity
  8
AM_2
 48
0.3
100
AcDbCircle
 10
414.6975677469637
 20
1211.237282694053
 30
0.0
 40
0.5
100
AcDbArc
 50
179.999991348572
 51
0.0000100179138904
  0
ARC
  5
EB6C
330
1F
100
AcDbEntity
  8
AM_2
 48
0.3
100
AcDbCircle
 10
414.6975677469637
 20
1214.237282694053
 30
0.0
 40
0.5
100
AcDbArc
 50
0.0
 51
180.0000050089634
  0
ARC
  5
EB6D
330
1F
100
AcDbEntity
  8
AM_2
 48
0.3
100
AcDbCircle
 10
413.1975677469637
 20
1212.737282694053
 30
0.0
 40
0.5
100
AcDbArc
 50
90.0000025044752
 51
270.000000683243
  0
ARC
  5
EB6E
330
1F
100
AcDbEntity
  8
AM_2
 48
0.3
100
AcDbCircle
 10
415.6975677469636
 20
1213.737282694053
 30
0.0
 40
0.5
100
AcDbArc
 50
179.999991348572
 51
270.000000683243
  0
ARC
  5
EB6F
330
1F
100
AcDbEntity
  8
AM_2
 48
0.3
100
AcDbCircle
 10
415.6975677469636
 20
1211.737282694053
 30
0.0
 40
0.5
100
AcDbArc
 50
90.0000025044752
 51
180.0000050089634
  0
LINE
  5
EB7A
330
1F
100
AcDbEntity
  8
AM_0
100
AcDbLine
 10
572.0541610228748
 20
1169.486489796192
 30
0.0
 11
696.8541488158349
 21
1169.486489796192
 31
0.0
  0
LINE
  5
EB7B
330
1F
100
AcDbEntity
  8
AM_0
100
AcDbLine
 10
572.0541610228748
 20
1147.786483080717
 30
0.0
 11
695.3541488158349
 21
1147.786483080717
 31
0.0
  0
LINE
  5
EB7C
330
1F
100
AcDbEntity
  8
AM_0
100
AcDbLine
 10
572.0541610228748
 20
1170.986489796192
 30
0.0
 11
696.8541488158349
 21
1170.986489796192
 31
0.0
  0
CIRCLE
  5
EB89
330
1F
100
AcDbEntity
  8
AM_0
 48
0.65
100
AcDbCircle
 10
636.8541793334149
 20
1159.386483692677
 30
0.0
 40
6.5
  0
LINE
  5
EB8A
330
1F
100
AcDbEntity
  8
AM_7
100
AcDbLine
 10
636.8541793334149
 20
1147.786477589161
 30
0.0
 11
636.8541793334149
 21
1170.986489796192
 31
0.0
  0
LINE
  5
EB8B
330
1F
100
AcDbEntity
  8
AM_0
100
AcDbLine
 10
696.8541488158349
 20
1149.286483080717
 30
0.0
 11
696.8541488158349
 21
1170.986489796192
 31
0.0
  0
ARC
  5
EB8C
330
1F
100
AcDbEntity
  8
AM_0
 48
0.3
100
AcDbCircle
 10
695.3541488158349
 20
1149.286483080717
 30
0.0
 40
1.5
100
AcDbArc
 50
269.9999906653291
 51
0.0000006832429909
  0
LINE
  5
EB8D
330
1F
100
AcDbEntity
  8
AM_0
100
AcDbLine
 10
573.6541671263849
 20
1217.737313211621
 30
0.0
 11
696.8541488158349
 21
1217.737313211621
 31
0.0
  0
ARC
  5
EB91
330
1F
100
AcDbEntity
  8
AM_0
 48
0.3
100
AcDbCircle
 10
573.6541671263849
 20
1219.337288797561
 30
0.0
 40
1.6000000238419
100
AcDbArc
 50
180.0000086514148
 51
270.0000043257074
  0
LINE
  5
EBCE
330
1F
100
AcDbEntity
  8
AM_2
 48
0.3031793261168854
100
AcDbLine
 10
415.1373506903233
 20
1452.779279939746
 30
0.0
 11
417.4235551806747
 21
1458.395359581469
 31
0.0
  0
LINE
  5
EBCF
330
1F
100
AcDbEntity
  8
AM_2
 48
0.15
100
AcDbLine
 10
415.6117870174672
 20
1451.975163920458
 30
0.0
 11
417.624886089976
 21
1451.975163920458
 31
0.0
  0
LINE
  5
EBD0
330
1F
100
AcDbEntity
  8
AM_7
 48
0.8
100
AcDbLine
 10
406.6975677469637
 20
1472.737286508749
 30
0.0
 11
422.6975677469637
 21
1472.737286508749
 31
0.0
  0
HATCH
  5
EBD1
330
1F
100
AcDbEntity
  8
AM_8
 48
1.01
100
AcDbHatch
 10
0.0
 20
0.0
 30
0.0
210
0.0
220
0.0
230
1.0
  2
SOLID
 70
     1
 71
     0
 91
        1
 92
        1
 93
       12
 72
     1
 10
415.1373506903233
 20
1452.77930619231
 11
417.4237914537435
 21
1458.395254571217
 72
     2
 10
417.4529317992034
 20
1458.383388412519
 40
0.0314720294391016
 50
202.1504350731783
 51
280.3731423918049
 73
     0
 72
     2
 10
415.314607998917
 20
1446.589424270679
 40
12.01772048310398
 50
280.2764132527804
 51
285.7397176453322
 73
     0
 72
     2
 10
418.5660929957399
 20
1458.126218300705
 40
0.0314720294391016
 50
285.8565343707077
 51
382.1499500160589
 73
     0
 72
     1
 10
418.5950233206877
 20
1458.114535909962
 11
418.1410639930574
 21
1456.998723204515
 72
     2
 10
418.8212154076062
 20
1456.721837417523
 40
0.7343473193958078
 50
157.8497698324975
 51
202.1501855439001
 73
     1
 72
     1
 10
418.1411690033092
 20
1456.44500413567
 11
418.6761962469637
 21
1455.13035451445
 72
     2
 10
417.9960448324065
 20
1454.853468727467
 40
0.7343473193958078
 50
337.8497323801425
 51
382.1502505443859
 73
     0
 72
     1
 10
418.6759862264517
 20
1454.576740455857
 11
418.081103138075
 21
1453.114603933031
 72
     2
 10
418.0519627926149
 20
1453.12647009172
 40
0.0314720294391016
 50
382.1513365444617
 51
436.8522571824207
 73
     0
 72
     2
 10
414.8031555572589
 20
1467.455197994919
 40
14.72387164393609
 50
437.2244068695342
 51
448.5815361384044
 73
     0
 72
     2
 10
415.166753561417
 20
1452.767282518231
 40
0.0314720294391016
 50
88.35619134958475
 51
202.1509405071753
 73
     0
 97
        0
 75
     0
 76
     1
 98
        1
 10
853.1436780689778
 20
1131.026496837697
  0
HATCH
  5
EBD2
330
1F
100
AcDbEntity
  8
AM_8
 48
1.01
100
AcDbHatch
 10
0.0
 20
0.0
 30
0.0
210
0.0
220
0.0
230
1.0
  2
SOLID
 70
     1
 71
     0
 91
        2
 92
        1
 93
       28
 72
     1
 10
415.6117870174672
 20
1451.975373940961
 11
417.6248860899759
 21
1451.975373940961
 72
     2
 10
417.624886089976
 20
1451.706626448656
 40
0.2685613144619073
 50
270.0000179860904
 51
360.0000025044788
 73
     0
 72
     1
 10
417.895024968153
 20
1451.706626448656
 11
417.895024968153
 21
1450.793509785809
 72
     2
 10
416.5506311925192
 20
1450.793509785809
 40
1.342806521035209
 50
360.0000025044788
 51
377.1046190497683
 73
     0
 72
     2
 10
417.8597415228406
 20
1450.390664199268
 40
0.0268561304848337
 50
162.8947797798977
 51
270.000000683247
 73
     1
 72
     1
 10
417.8597415228406
 20
1450.36383407939
 11
417.9471625592121
 21
1450.36383407939
 72
     1
 10
417.9471625592121
 20
1450.36383407939
 11
417.9471625592121
 21
1449.93410586784
 72
     1
 10
417.9471625592121
 20
1449.93410586784
 11
417.5949056624847
 21
1449.93410586784
 72
     2
 10
417.5949056624846
 20
1449.907249495405
 40
0.0268561304848337
 50
89.99998201390964
 51
139.6795541872933
 73
     1
 72
     2
 10
416.5506311925192
 20
1450.793509785809
 40
1.342806521035209
 50
400.3202151801375
 51
449.9999751837198
 73
     0
 72
     1
 10
416.5506311925192
 20
1449.450691163986
 11
414.8855361014516
 21
1449.450691163986
 72
     1
 10
414.8855361014517
 20
1449.450691163986
 11
414.8855361014517
 21
1449.880393122971
 72
     1
 10
414.8855361014517
 20
1449.88039312297
 11
416.120929233535
 21
1449.88039312297
 72
     2
 10
416.1019748827016
 20
1450.744942543378
 40
0.8647402642407813
 50
-88.74126694233806
 51
-33.29174561851598
 73
     1
 72
     2
 10
416.7808661742034
 20
1450.30119546294
 40
0.0537122609695813
 50
-35.08636416255914
 51
58.57064798204168
 73
     1
 72
     1
 10
416.8089039119987
 20
1450.347137449025
 11
416.4555444076063
 21
1450.562907268231
 72
     2
 10
416.3995214371462
 20
1450.471233316573
 40
0.1074245219391625
 50
58.57035428391028
 51
89.99998201390964
 73
     1
 72
     1
 10
416.3995214371462
 20
1450.578658806321
 11
415.7449400194206
 21
1450.578658806321
 72
     1
 10
415.7449400194206
 20
1450.578658806321
 11
415.7449400194206
 21
1450.971082125166
 72
     2
 10
415.7181098995505
 20
1450.971108377732
 40
0.0268561304848337
 50
-0.0000025044787366
 51
108.4348265083137
 73
     1
 72
     1
 10
415.7096040689777
 20
1450.996468354051
 11
415.5053591251321
 21
1450.928500467207
 72
     2
 10
415.3355050394376
 20
1451.43806272429
 40
0.5371226289239007
 50
431.5650487270443
 51
449.9999751837198
 73
     0
 72
     1
 10
415.3355050394376
 20
1450.900935275557
 11
414.7781106117032
 21
1450.900935275557
 72
     1
 10
414.7781106117035
 20
1450.900935275557
 11
414.7781106117035
 21
1451.330610981977
 72
     1
 10
414.7781106117035
 20
1451.330610981976
 11
415.0348606825107
 21
1451.330637234542
 72
     2
 10
415.0348606825105
 20
1451.43806272429
 40
0.1074245219391625
 50
-89.99997518371985
 51
-35.94210490328951
 73
     1
 72
     1
 10
415.1218616778666
 20
1451.374951561695
 11
415.5247860221026
 21
1451.930797088183
 72
     2
 10
415.6117870174672
 20
1451.867738430709
 40
0.1074245219391625
 50
215.9420896490499
 51
270.0000179860904
 73
     0
 97
        0
 92
        1
 93
       11
 72
     1
 10
416.2290372899325
 20
1451.545488214038
 11
416.9266204066252
 21
1451.545488214038
 72
     2
 10
416.9266204066254
 20
1451.43806272429
 40
0.1074245219391625
 50
270.0000179860904
 51
360.0000025044788
 73
     0
 72
     1
 10
417.0340458963736
 20
1451.43806272429
 11
417.0340458963736
 21
1450.954648020436
 72
     2
 10
415.774972952042
 20
1450.954490505054
 40
1.259068329627539
 50
359.9931176739425
 51
368.6392151443349
 73
     0
 72
     2
 10
416.9931969076061
 20
1450.76938367998
 40
0.0268561304848337
 50
368.6513387301143
 51
481.4297121967498
 73
     0
 72
     1
 10
416.9792830489603
 20
1450.746570202319
 11
416.5764637149759
 21
1450.992582974659
 72
     2
 10
416.5204407445158
 20
1450.900935275557
 40
0.1074245219391625
 50
58.57035428391028
 51
89.99998201390964
 73
     1
 72
     1
 10
416.5204407445158
 20
1451.008360765305
 11
415.8374540531096
 21
1451.008360765305
 72
     2
 10
415.8374540531095
 20
1451.03521713774
 40
0.0268561304848337
 50
89.99999931675299
 51
215.9423765169972
 73
     0
 72
     1
 10
415.8158219408092
 20
1451.050942423265
 11
416.1420887996981
 21
1451.501121381764
 72
     2
 10
416.2290372899325
 20
1451.43806272429
 40
0.1074245219391625
 50
215.9420896490499
 51
270.0000179860904
 73
     0
 97
        0
 75
     0
 76
     1
 98
        1
 10
853.1436780689778
 20
1131.026496837697
  0
ELLIPSE
  5
EBD3
330
1F
100
AcDbEntity
  8
AM_2
 48
1.01
100
AcDbEllipse
 10
414.6975677469637
 20
1455.692710676686
 30
0.0
 11
-6.976303713142296
 21
-0.0000006098957881
 31
0.0
210
0.0
220
0.0
230
1.0
 40
0.4248093987311
 41
1.638229488438107
 42
2.073561071898889
  0
CIRCLE
  5
EBD4
330
1F
100
AcDbEntity
  8
AM_0
 48
0.4
100
AcDbCircle
 10
414.6975677469637
 20
1472.737286508749
 30
0.0
 40
3.0
  0
ARC
  5
EBD5
330
1F
100
AcDbEntity
  8
AM_2
 48
0.3
100
AcDbCircle
 10
416.5506311925192
 20
1450.793509785809
 30
0.0
 40
1.342806521035209
100
AcDbArc
 50
270.0000248162814
 51
319.6797848198622
  0
LINE
  5
EBD6
330
1F
100
AcDbEntity
  8
AM_2
 48
0.15
100
AcDbLine
 10
414.1975677469637
 20
1473.737286508749
 30
0.0
 11
414.1975677469637
 21
1474.237286508749
 31
0.0
  0
LINE
  5
EBD7
330
1F
100
AcDbEntity
  8
AM_2
 48
0.15
100
AcDbLine
 10
415.1975677469637
 20
1473.737286508749
 30
0.0
 11
415.1975677469637
 21
1474.237286508749
 31
0.0
  0
ARC
  5
EBD8
330
1F
100
AcDbEntity
  8
AM_2
 48
0.3
100
AcDbCircle
 10
414.6975677469637
 20
1474.237286508749
 30
0.0
 40
0.5
100
AcDbArc
 50
0.0
 51
180.0000050089634
  0
LINE
  5
EBD9
330
1F
100
AcDbEntity
  8
AM_2
 48
0.15
100
AcDbLine
 10
415.6975677469636
 20
1473.237286508749
 30
0.0
 11
416.1975677469637
 21
1473.237286508749
 31
0.0
  0
LINE
  5
EBDA
330
1F
100
AcDbEntity
  8
AM_2
 48
0.15
100
AcDbLine
 10
413.1975677469637
 20
1473.237286508749
 30
0.0
 11
413.6975677469637
 21
1473.237286508749
 31
0.0
  0
LINE
  5
EBDB
330
1F
100
AcDbEntity
  8
AM_2
 48
0.15
100
AcDbLine
 10
413.1975677469637
 20
1472.237286508749
 30
0.0
 11
413.6975677469637
 21
1472.237286508749
 31
0.0
  0
LINE
  5
EBDC
330
1F
100
AcDbEntity
  8
AM_2
 48
0.15
100
AcDbLine
 10
414.1975677469637
 20
1471.237286508749
 30
0.0
 11
414.1975677469637
 21
1471.737286508749
 31
0.0
  0
LINE
  5
EBDD
330
1F
100
AcDbEntity
  8
AM_2
 48
0.15
100
AcDbLine
 10
415.6975677469636
 20
1472.237286508749
 30
0.0
 11
416.1975677469637
 21
1472.237286508749
 31
0.0
  0
LINE
  5
EBDE
330
1F
100
AcDbEntity
  8
AM_2
 48
0.15
100
AcDbLine
 10
415.1975677469637
 20
1471.237286508749
 30
0.0
 11
415.1975677469637
 21
1471.737286508749
 31
0.0
  0
ARC
  5
EBDF
330
1F
100
AcDbEntity
  8
AM_2
 48
0.3
100
AcDbCircle
 10
413.6975677469637
 20
1473.737286508749
 30
0.0
 40
0.5
100
AcDbArc
 50
269.9999974955182
 51
0.0
  0
ARC
  5
EBE0
330
1F
100
AcDbEntity
  8
AM_2
 48
0.3
100
AcDbCircle
 10
413.6975677469637
 20
1471.737286508749
 30
0.0
 40
0.5
100
AcDbArc
 50
0.0
 51
90.0000025044752
  0
ARC
  5
EBE1
330
1F
100
AcDbEntity
  8
AM_2
 48
0.3
100
AcDbCircle
 10
416.1975677469637
 20
1472.737286508749
 30
0.0
 40
0.5
100
AcDbArc
 50
269.9999974955182
 51
90.0000025044752
  0
ARC
  5
EBE2
330
1F
100
AcDbEntity
  8
AM_2
 48
0.3
100
AcDbCircle
 10
414.6975677469637
 20
1471.237286508749
 30
0.0
 40
0.5
100
AcDbArc
 50
179.999991348572
 51
0.0000100179138904
  0
ARC
  5
EBE3
330
1F
100
AcDbEntity
  8
AM_2
 48
0.3
100
AcDbCircle
 10
413.1975677469637
 20
1472.737286508749
 30
0.0
 40
0.5
100
AcDbArc
 50
90.0000025044752
 51
270.000000683243
  0
ARC
  5
EBE4
330
1F
100
AcDbEntity
  8
AM_2
 48
0.3
100
AcDbCircle
 10
415.6975677469636
 20
1471.737286508749
 30
0.0
 40
0.5
100
AcDbArc
 50
90.0000025044752
 51
180.0000050089634
  0
ARC
  5
EBE5
330
1F
100
AcDbEntity
  8
AM_2
 48
0.3
100
AcDbCircle
 10
415.6975677469636
 20
1473.737286508749
 30
0.0
 40
0.5
100
AcDbArc
 50
179.999991348572
 51
270.000000683243
  0
LINE
  5
EBE6
330
1F
100
AcDbEntity
  8
AM_2
 48
0.15
100
AcDbLine
 10
413.6191124393422
 20
1452.786473142133
 30
0.0
 11
414.500122217055
 21
1454.950734475145
 31
0.0
  0
HATCH
  5
EBE7
330
1F
100
AcDbEntity
  8
AM_8
 48
1.01
100
AcDbHatch
 10
0.0
 20
0.0
 30
0.0
210
0.0
220
0.0
230
1.0
  2
SOLID
 70
     1
 71
     0
 91
        1
 92
        1
 93
       16
 72
     1
 10
414.50009596449
 20
1454.95076072771
 11
413.6193224598545
 21
1452.786341879316
 72
     2
 10
413.5902346195158
 20
1452.798208038013
 40
0.0314720294391016
 50
382.1499500160589
 51
453.913919464946
 73
     0
 72
     2
 10
414.441552747936
 20
1466.391444122853
 40
13.65132070192315
 50
453.5846223846826
 51
465.4826206735507
 73
     0
 72
     2
 10
410.8061502628316
 20
1453.265713688404
 40
0.0314720294391016
 50
105.9838440878773
 51
202.1502848090148
 73
     0
 72
     1
 10
410.7799502044811
 20
1453.28556062639
 11
411.2056617738128
 21
1454.330596420701
 72
     2
 10
410.5255103592643
 20
1454.607455955127
 40
0.7343473193958078
 50
-22.15025054438588
 51
22.15026761985744
 73
     1
 72
     1
 10
411.2056617738129
 20
1454.884315489546
 11
410.6705295199067
 21
1456.198938858201
 72
     2
 10
411.3506809344638
 20
1456.475824645184
 40
0.7343473193958078
 50
157.8498144560999
 51
202.1502301675025
 73
     0
 72
     1
 10
410.670319499403
 20
1456.752841694993
 11
411.2858371026756
 21
1458.264175521777
 72
     2
 10
411.3149774481356
 20
1458.252309363088
 40
0.0314720294391016
 50
202.1518147713913
 51
256.7087157480555
 73
     0
 72
     2
 10
414.4017538617034
 20
1445.030048252732
 40
13.60925507091477
 50
256.8591028531991
 51
263.5561169947739
 73
     0
 72
     2
 10
412.8778975621461
 20
1458.522054452806
 40
0.0314720294391016
 50
263.4406184959091
 51
382.1501822424939
 73
     0
 72
     1
 10
412.9068803922242
 20
1458.510293304368
 11
412.0358203360697
 21
1456.369790541308
 72
     2
 10
413.0074277103404
 20
1455.974243167406
 40
1.049067613786737
 50
157.8497971532508
 51
247.8498064879196
 73
     1
 72
     2
 10
413.5591515843596
 20
1459.13660071123
 40
4.241168901832584
 50
-102.9058635072733
 51
-77.67451633583831
 73
     1
 72
     2
 10
414.4712181446635
 20
1454.962443118452
 40
0.0314720294391016
 50
257.6772502327428
 51
382.1499363556852
 73
     0
 97
        0
 75
     0
 76
     1
 98
        1
 10
853.1436780689778
 20
1131.026496837697
  0
ELLIPSE
  5
EBE8
330
1F
100
AcDbEntity
  8
AM_2
 48
1.01
100
AcDbEllipse
 10
414.6975677469637
 20
1455.692710676686
 30
0.0
 11
-6.976303713142296
 21
-0.0000006098957881
 31
0.0
210
0.0
220
0.0
230
1.0
 40
0.4248093987311
 41
0.9775429916652738
 42
1.411074778131551
  0
LINE
  5
EBE9
330
1F
100
AcDbEntity
  8
AM_2
 48
0.15
100
AcDbLine
 10
411.2868347000889
 20
1451.975163920458
 30
0.0
 11
413.7576209642467
 21
1451.975163920458
 31
0.0
  0
LINE
  5
EBEA
330
1F
100
AcDbEntity
  8
AM_2
 48
0.15
100
AcDbLine
 10
411.4479729347068
 20
1449.450691163986
 30
0.0
 11
413.0056425360264
 21
1449.450691163986
 31
0.0
  0
LINE
  5
EBEB
330
1F
100
AcDbEntity
  8
AM_2
 48
0.15
100
AcDbLine
 10
411.2868347000889
 20
1451.545488214038
 30
0.0
 11
413.2741537552625
 21
1451.545488214038
 31
0.0
  0
LINE
  5
EBEC
330
1F
100
AcDbEntity
  8
AM_2
 48
0.15
100
AcDbLine
 10
411.4479729347068
 20
1449.88039312297
 30
0.0
 11
412.6833660667815
 21
1449.88039312297
 31
0.0
  0
HATCH
  5
EBED
330
1F
100
AcDbEntity
  8
AM_8
 48
1.01
100
AcDbHatch
 10
0.0
 20
0.0
 30
0.0
210
0.0
220
0.0
230
1.0
  2
SOLID
 70
     1
 71
     0
 91
        1
 92
        1
 93
       15
 72
     1
 10
411.2868347000889
 20
1451.975163920458
 11
413.7576209642468
 21
1451.975163920458
 72
     1
 10
413.7576209642467
 20
1451.975163920458
 11
413.7576209642467
 21
1451.706626448656
 72
     2
 10
413.8985972301148
 20
1451.684233012011
 40
0.1427561845454317
 50
170.9800981721697
 51
256.4000285362397
 73
     1
 72
     1
 10
413.8650464539949
 20
1451.545488214038
 11
414.2409831629793
 21
1451.545488214038
 72
     2
 10
414.2409831629794
 20
1451.43806272429
 40
0.1074245219391625
 50
270.0000179860904
 51
360.0000025044788
 73
     0
 72
     1
 10
414.348408652719
 20
1451.43806272429
 11
414.348408652719
 21
1451.169498999924
 72
     2
 10
412.7913166077973
 20
1451.002060150071
 40
1.56610139145184
 50
353.8629956297926
 51
442.1347118261303
 73
     0
 72
     1
 10
413.0056425360264
 20
1449.450691163986
 11
411.4479729347069
 21
1449.450691163986
 72
     1
 10
411.4479729347068
 20
1449.450691163986
 11
411.4479729347068
 21
1449.880393122971
 72
     1
 10
411.4479729347068
 20
1449.88039312297
 11
412.6833660667815
 21
1449.88039312297
 72
     2
 10
412.6833660667815
 20
1450.739797040939
 40
0.8593961755134722
 50
-89.99997518371985
 51
-0.0000025044787366
 73
     1
 72
     1
 10
413.5427699847504
 20
1450.739797040939
 11
413.5427699847504
 21
1451.276898237107
 72
     2
 10
413.2741537552625
 20
1451.276898237107
 40
0.2685613144619073
 50
-0.0000025044787366
 51
89.99998201390964
 73
     1
 72
     1
 10
413.2741537552625
 20
1451.545488214038
 11
411.2868347000889
 21
1451.545488214038
 72
     1
 10
411.2868347000889
 20
1451.545488214038
 11
411.2868347000889
 21
1451.975163920457
 97
        0
 75
     0
 76
     1
 98
        1
 10
853.1436780689778
 20
1131.026496837697
  0
LINE
  5
EBEE
330
1F
100
AcDbEntity
  8
AM_2
 48
0.15
100
AcDbLine
 10
408.1178352577017
 20
1451.196355372359
 30
0.0
 11
408.1178352577017
 21
1450.739797040939
 31
0.0
  0
LINE
  5
EBEF
330
1F
100
AcDbEntity
  8
AM_2
 48
0.15
100
AcDbLine
 10
408.1178352577017
 20
1451.975163920458
 30
0.0
 11
408.1178352577017
 21
1451.518631841603
 31
0.0
  0
LINE
  5
EBF0
330
1F
100
AcDbEntity
  8
AM_2
 48
0.15
100
AcDbLine
 10
408.1178352577017
 20
1449.450691163986
 30
0.0
 11
409.8366430936392
 21
1449.450691163986
 31
0.0
  0
LINE
  5
EBF1
330
1F
100
AcDbEntity
  8
AM_2
 48
0.15
100
AcDbLine
 10
408.1178352577017
 20
1449.88039312297
 30
0.0
 11
409.4337712545247
 21
1449.88039312297
 31
0.0
  0
LINE
  5
EBF2
330
1F
100
AcDbEntity
  8
AM_2
 48
0.15
100
AcDbLine
 10
408.1178352577017
 20
1451.975163920458
 30
0.0
 11
409.9440685833875
 21
1451.975163920458
 31
0.0
  0
LINE
  5
EBF3
330
1F
100
AcDbEntity
  8
AM_2
 48
0.15
100
AcDbLine
 10
408.1178352577017
 20
1451.518631841603
 30
0.0
 11
410.1051543128754
 21
1451.518631841603
 31
0.0
  0
LINE
  5
EBF4
330
1F
100
AcDbEntity
  8
AM_2
 48
0.15
100
AcDbLine
 10
408.1178352577017
 20
1451.196355372359
 30
0.0
 11
410.1051543128754
 21
1451.196355372359
 31
0.0
  0
LINE
  5
EBF5
330
1F
100
AcDbEntity
  8
AM_2
 48
0.15
100
AcDbLine
 10
408.1178352577017
 20
1450.739797040939
 30
0.0
 11
410.1051543128754
 21
1450.739797040939
 31
0.0
  0
LINE
  5
EBF6
330
1F
100
AcDbEntity
  8
AM_2
 48
0.15
100
AcDbLine
 10
411.1256964654622
 20
1451.223185492237
 30
0.0
 11
411.1256964654622
 21
1450.739797040939
 31
0.0
  0
LINE
  5
EBF7
330
1F
100
AcDbEntity
  8
AM_2
 48
0.15
100
AcDbLine
 10
410.1051543128754
 20
1451.867738430709
 30
0.0
 11
410.1051543128754
 21
1451.518631841603
 31
0.0
  0
LINE
  5
EBF8
330
1F
100
AcDbEntity
  8
AM_2
 48
0.15
100
AcDbLine
 10
408.1178352577017
 20
1449.88039312297
 30
0.0
 11
408.1178352577017
 21
1449.450691163986
 31
0.0
  0
LINE
  5
EBF9
330
1F
100
AcDbEntity
  8
AM_2
 48
0.15
100
AcDbLine
 10
410.2931226673718
 20
1451.38434997942
 30
0.0
 11
410.2931226673718
 21
1450.739797040939
 31
0.0
  0
LINE
  5
EBFA
330
1F
100
AcDbEntity
  8
AM_2
 48
0.15
100
AcDbLine
 10
410.1051543128754
 20
1451.196355372359
 30
0.0
 11
410.1051543128754
 21
1450.739797040939
 31
0.0
  0
LINE
  5
EBFB
330
1F
100
AcDbEntity
  8
AM_2
 48
0.15
100
AcDbLine
 10
410.2931226673718
 20
1451.38434997942
 30
0.0
 11
411.0182709757224
 21
1451.38434997942
 31
0.0
  0
LINE
  5
EBFC
330
1F
100
AcDbEntity
  8
AM_2
 48
0.15
100
AcDbLine
 10
411.2868347000889
 20
1451.975163920458
 30
0.0
 11
411.2868347000889
 21
1451.545488214038
 31
0.0
  0
LINE
  5
EBFD
330
1F
100
AcDbEntity
  8
AM_2
 48
0.15
100
AcDbLine
 10
411.4479729347068
 20
1449.88039312297
 30
0.0
 11
411.4479729347068
 21
1449.450691163986
 31
0.0
  0
HATCH
  5
EBFE
330
1F
100
AcDbEntity
  8
AM_8
 48
1.01
100
AcDbHatch
 10
0.0
 20
0.0
 30
0.0
210
0.0
220
0.0
230
1.0
  2
SOLID
 70
     1
 71
     0
 91
        1
 92
        1
 93
        5
 72
     1
 10
408.1178352577017
 20
1451.975163920458
 11
409.9440685833875
 21
1451.975163920458
 72
     2
 10
409.9664357674672
 20
1451.834187654589
 40
0.1427561845454317
 50
260.9800906587386
 51
346.4000440746941
 73
     0
 72
     1
 10
410.1051543128754
 20
1451.867738430709
 11
410.1051543128754
 21
1451.518631841603
 72
     1
 10
410.1051543128754
 20
1451.518631841603
 11
408.1178352577017
 21
1451.518631841603
 72
     1
 10
408.1178352577017
 20
1451.518631841603
 11
408.1178352577017
 21
1451.975163920457
 97
        0
 75
     0
 76
     1
 98
        1
 10
853.1436780689778
 20
1131.026496837697
  0
HATCH
  5
EBFF
330
1F
100
AcDbEntity
  8
AM_8
 48
1.01
100
AcDbHatch
 10
0.0
 20
0.0
 30
0.0
210
0.0
220
0.0
230
1.0
  2
SOLID
 70
     1
 71
     0
 91
        1
 92
        1
 93
        4
 72
     1
 10
408.1178352577017
 20
1451.196355372359
 11
408.1178352577017
 21
1450.739797040939
 72
     1
 10
408.1178352577017
 20
1450.739797040939
 11
410.1051543128754
 21
1450.739797040939
 72
     1
 10
410.1051543128754
 20
1450.739797040939
 11
410.1051543128754
 21
1451.196355372359
 72
     1
 10
410.1051543128754
 20
1451.196355372359
 11
408.1178352577017
 21
1451.196355372359
 97
        0
 75
     0
 76
     1
 98
        1
 10
853.1436780689778
 20
1131.026496837697
  0
HATCH
  5
EC00
330
1F
100
AcDbEntity
  8
AM_8
 48
1.01
100
AcDbHatch
 10
0.0
 20
0.0
 30
0.0
210
0.0
220
0.0
230
1.0
  2
SOLID
 70
     1
 71
     0
 91
        1
 92
        1
 93
        9
 72
     1
 10
408.1178352577017
 20
1449.88039312297
 11
408.1178352577017
 21
1449.450691163986
 72
     1
 10
408.1178352577017
 20
1449.450691163986
 11
409.8366430936392
 21
1449.45095368962
 72
     2
 10
409.8366430936392
 20
1450.739797040939
 40
1.289094288907544
 50
-89.99997518371985
 51
-0.0000025044787366
 73
     1
 72
     1
 10
411.1256964654622
 20
1450.739797040939
 11
411.1256964654622
 21
1451.223185492237
 72
     2
 10
410.9847201995941
 20
1451.245578928882
 40
0.1427719642844881
 50
-9.019322001835757
 51
76.39504431937591
 73
     1
 72
     1
 10
411.0182709757224
 20
1451.38434997942
 11
410.2931226673717
 21
1451.38434997942
 72
     1
 10
410.2931226673718
 20
1451.38434997942
 11
410.2931226673718
 21
1450.739797040939
 72
     2
 10
409.4337712545247
 20
1450.739797040939
 40
0.8593961755134722
 50
360.0000025044788
 51
449.9999751837198
 73
     0
 72
     1
 10
409.4337712545247
 20
1449.88039312297
 11
408.1178352577016
 21
1449.88039312297
 97
        0
 75
     0
 76
     1
 98
        1
 10
853.1436780689778
 20
1131.026496837697
  0
ELLIPSE
  5
EC01
330
1F
100
AcDbEntity
  8
AM_2
 48
1.01
100
AcDbEllipse
 10
411.0182709757224
 20
1451.223211744794
 30
0.0
 11
-0.0000000070453982
 21
0.1611382346266712
 31
0.0
210
0.0
220
0.0
230
1.0
 40
0.6666667064419002
 41
4.712226031869829
 42
6.283185307179586
  0
ELLIPSE
  5
EC02
330
1F
100
AcDbEntity
  8
AM_2
 48
1.01
100
AcDbEllipse
 10
409.9440160782572
 20
1451.867738430709
 30
0.0
 11
0.1611382346180648
 21
0.0
 31
0.0
210
0.0
220
0.0
230
1.0
 40
0.6666667462171999
 41
0.0
 42
1.570470517157744
  0
ARC
  5
EC03
330
1F
100
AcDbEntity
  8
AM_2
 48
0.3
100
AcDbCircle
 10
409.4337712545247
 20
1450.739797040939
 30
0.0
 40
0.8593961755134722
100
AcDbArc
 50
270.0000248162814
 51
359.9999974955182
  0
ARC
  5
EC04
330
1F
100
AcDbEntity
  8
AM_2
 48
0.3
100
AcDbCircle
 10
409.8366430936392
 20
1450.739797040939
 30
0.0
 40
1.289094288907544
100
AcDbArc
 50
270.0000248162814
 51
359.9999974955182
  0
ARC
  5
EC05
330
1F
100
AcDbEntity
  8
AM_2
 48
0.3
100
AcDbCircle
 10
413.9455893187347
 20
1451.733482821091
 30
0.0
 40
0.0537122609695813
100
AcDbArc
 50
179.9999776881937
 51
270.0000280039997
  0
ARC
  5
EC06
330
1F
100
AcDbEntity
  8
AM_2
 48
0.3
100
AcDbCircle
 10
414.2947484129796
 20
1451.733482821091
 30
0.0
 40
0.0537122609695813
100
AcDbArc
 50
270.0000248162814
 51
359.9999974955182
  0
ARC
  5
EC07
330
1F
100
AcDbEntity
  8
AM_2
 48
0.3
100
AcDbCircle
 10
412.6833660667815
 20
1450.739797040939
 30
0.0
 40
0.8593961755134722
100
AcDbArc
 50
270.0000248162814
 51
359.9999974955182
  0
ARC
  5
EC08
330
1F
100
AcDbEntity
  8
AM_2
 48
0.3
100
AcDbCircle
 10
414.5632596322156
 20
1452.082615662762
 30
0.0
 40
0.0537122609695813
100
AcDbArc
 50
89.99998201390772
 51
179.9999640278154
  0
ARC
  5
EC09
330
1F
100
AcDbEntity
  8
AM_2
 48
0.3
100
AcDbCircle
 10
414.5632596322156
 20
1451.733482821091
 30
0.0
 40
0.0537122609695813
100
AcDbArc
 50
179.9999776881937
 51
270.0000280039997
  0
ARC
  5
EC0A
330
1F
100
AcDbEntity
  8
AM_2
 48
0.3
100
AcDbCircle
 10
414.9124187264516
 20
1451.733482821091
 30
0.0
 40
0.0537122609695813
100
AcDbArc
 50
270.0000248162814
 51
359.9999974955182
  0
ARC
  5
EC0B
330
1F
100
AcDbEntity
  8
AM_2
 48
0.3
100
AcDbCircle
 10
414.9124187264516
 20
1452.082615662762
 30
0.0
 40
0.0537122609695813
100
AcDbArc
 50
359.9999974955182
 51
89.99998201390772
  0
LINE
  5
EC0C
330
1F
100
AcDbEntity
  8
AM_2
 48
0.15
100
AcDbLine
 10
414.348408652719
 20
1452.082615662762
 30
0.0
 11
414.348408652719
 21
1451.733482821091
 31
0.0
  0
LINE
  5
EC0D
330
1F
100
AcDbEntity
  8
AM_2
 48
0.15
100
AcDbLine
 10
413.5427699847504
 20
1451.276898237107
 30
0.0
 11
413.5427699847504
 21
1450.739797040939
 31
0.0
  0
LINE
  5
EC0E
330
1F
100
AcDbEntity
  8
AM_2
 48
0.15
100
AcDbLine
 10
413.7576209642467
 20
1451.975163920458
 30
0.0
 11
413.7576209642467
 21
1451.706626448656
 31
0.0
  0
LINE
  5
EC0F
330
1F
100
AcDbEntity
  8
AM_2
 48
0.15
100
AcDbLine
 10
413.8650464539949
 20
1451.545488214038
 30
0.0
 11
414.2409831629794
 21
1451.545488214038
 31
0.0
  0
LINE
  5
EC10
330
1F
100
AcDbEntity
  8
AM_2
 48
0.15
100
AcDbLine
 10
413.891876573865
 20
1452.082615662762
 30
0.0
 11
413.891876573865
 21
1451.733482821091
 31
0.0
  0
LINE
  5
EC11
330
1F
100
AcDbEntity
  8
AM_2
 48
0.15
100
AcDbLine
 10
413.9455893187347
 20
1452.136328407641
 30
0.0
 11
414.2947484129796
 21
1452.136328407641
 31
0.0
  0
LINE
  5
EC12
330
1F
100
AcDbEntity
  8
AM_2
 48
0.15
100
AcDbLine
 10
414.348408652719
 20
1451.43806272429
 30
0.0
 11
414.348408652719
 21
1451.169498999924
 31
0.0
  0
LINE
  5
EC13
330
1F
100
AcDbEntity
  8
AM_2
 48
0.15
100
AcDbLine
 10
413.9455893187347
 20
1451.679770076221
 30
0.0
 11
414.2947484129796
 21
1451.679770076221
 31
0.0
  0
LINE
  5
EC14
330
1F
100
AcDbEntity
  8
AM_2
 48
0.15
100
AcDbLine
 10
414.5095993924672
 20
1452.082615662762
 30
0.0
 11
414.5095993924672
 21
1451.733482821091
 31
0.0
  0
LINE
  5
EC15
330
1F
100
AcDbEntity
  8
AM_2
 48
0.15
100
AcDbLine
 10
414.5632596322156
 20
1452.136328407641
 30
0.0
 11
414.9124187264516
 21
1452.136328407641
 31
0.0
  0
LINE
  5
EC16
330
1F
100
AcDbEntity
  8
AM_2
 48
0.15
100
AcDbLine
 10
414.5632596322156
 20
1451.679770076221
 30
0.0
 11
414.9124187264516
 21
1451.679770076221
 31
0.0
  0
LINE
  5
EC17
330
1F
100
AcDbEntity
  8
AM_2
 48
0.15
100
AcDbLine
 10
414.8855361014517
 20
1449.450691163986
 30
0.0
 11
416.5506311925192
 21
1449.450691163986
 31
0.0
  0
LINE
  5
EC18
330
1F
100
AcDbEntity
  8
AM_2
 48
0.15
100
AcDbLine
 10
414.9661314713212
 20
1452.082615662762
 30
0.0
 11
414.9661314713212
 21
1451.733482821091
 31
0.0
  0
LINE
  5
EC19
330
1F
100
AcDbEntity
  8
AM_2
 48
0.15
100
AcDbLine
 10
414.7781106117035
 20
1451.330610981976
 30
0.0
 11
414.7781106117035
 21
1450.900935275557
 31
0.0
  0
LINE
  5
EC1A
330
1F
100
AcDbEntity
  8
AM_2
 48
0.15
100
AcDbLine
 10
414.8855361014517
 20
1449.88039312297
 30
0.0
 11
416.120929233535
 21
1449.88039312297
 31
0.0
  0
LINE
  5
EC1B
330
1F
100
AcDbEntity
  8
AM_2
 48
0.15
100
AcDbLine
 10
414.7781106117035
 20
1451.330610981976
 30
0.0
 11
415.0348606825105
 21
1451.330610981976
 31
0.0
  0
LINE
  5
EC1C
330
1F
100
AcDbEntity
  8
AM_2
 48
0.15
100
AcDbLine
 10
414.8855361014517
 20
1449.88039312297
 30
0.0
 11
414.8855361014517
 21
1449.450691163986
 31
0.0
  0
LINE
  5
EC1D
330
1F
100
AcDbEntity
  8
AM_2
 48
0.15
100
AcDbLine
 10
414.7781106117035
 20
1450.900935275557
 30
0.0
 11
415.3355050394376
 21
1450.900935275557
 31
0.0
  0
LINE
  5
EC1E
330
1F
100
AcDbEntity
  8
AM_2
 48
0.15
100
AcDbLine
 10
415.7449400194206
 20
1450.971082125167
 30
0.0
 11
415.7449400194206
 21
1450.578658806321
 31
0.0
  0
LINE
  5
EC1F
330
1F
100
AcDbEntity
  8
AM_2
 48
0.15
100
AcDbLine
 10
415.8374540531095
 20
1451.008360765305
 30
0.0
 11
416.5204407445158
 21
1451.008360765305
 31
0.0
  0
LINE
  5
EC20
330
1F
100
AcDbEntity
  8
AM_2
 48
0.15
100
AcDbLine
 10
415.7449400194206
 20
1450.578658806321
 30
0.0
 11
416.3995214371462
 21
1450.578658806321
 31
0.0
  0
LINE
  5
EC21
330
1F
100
AcDbEntity
  8
AM_2
 48
0.15
100
AcDbLine
 10
415.8157694356792
 20
1451.0509161707
 30
0.0
 11
416.1421150522548
 21
1451.501042624068
 31
0.0
  0
LINE
  5
EC22
330
1F
100
AcDbEntity
  8
AM_2
 48
0.15
100
AcDbLine
 10
415.1218879304316
 20
1451.374951561695
 30
0.0
 11
415.5248385272328
 21
1451.930744583053
 31
0.0
  0
LINE
  5
EC23
330
1F
100
AcDbEntity
  8
AM_2
 48
0.15
100
AcDbLine
 10
415.7096040689777
 20
1450.996442101486
 30
0.0
 11
415.5053853776975
 21
1450.92836920439
 31
0.0
  0
LINE
  5
EC24
330
1F
100
AcDbEntity
  8
AM_2
 48
0.15
100
AcDbLine
 10
416.9792567963953
 20
1450.746543949754
 30
0.0
 11
416.576489967541
 21
1450.99268798491
 31
0.0
  0
LINE
  5
EC25
330
1F
100
AcDbEntity
  8
AM_2
 48
0.15
100
AcDbLine
 10
416.8089301645637
 20
1450.34711119646
 30
0.0
 11
416.4555706601714
 21
1450.563038531056
 31
0.0
  0
LINE
  5
EC26
330
1F
100
AcDbEntity
  8
AM_2
 48
0.15
100
AcDbLine
 10
417.0340458963736
 20
1451.43806272429
 30
0.0
 11
417.0340458963736
 21
1450.954648020436
 31
0.0
  0
LINE
  5
EC27
330
1F
100
AcDbEntity
  8
AM_2
 48
0.15
100
AcDbLine
 10
416.2290372899325
 20
1451.545488214038
 30
0.0
 11
416.9266204066254
 21
1451.545488214038
 31
0.0
  0
HATCH
  5
EC28
330
1F
100
AcDbEntity
  8
AM_8
 48
1.01
100
AcDbHatch
 10
0.0
 20
0.0
 30
0.0
210
0.0
220
0.0
230
1.0
  2
SOLID
 70
     1
 71
     0
 91
        1
 92
        1
 93
        8
 72
     1
 10
413.9455893187347
 20
1452.136328407641
 11
414.2947484129794
 21
1452.136328407641
 72
     2
 10
414.2947484129796
 20
1452.082615662762
 40
0.0537122609695813
 50
270.0000179860904
 51
360.0000025044788
 73
     0
 72
     1
 10
414.348408652719
 20
1452.082615662762
 11
414.348408652719
 21
1451.733482821091
 72
     2
 10
414.2947484129796
 20
1451.733482821091
 40
0.0537122609695813
 50
360.0000025044788
 51
449.9999751837198
 73
     0
 72
     1
 10
414.2947484129796
 20
1451.679770076221
 11
413.9455893187348
 21
1451.679770076221
 72
     2
 10
413.9455893187347
 20
1451.733482821091
 40
0.0537122609695813
 50
89.99997199599961
 51
180.0000359721807
 73
     0
 72
     1
 10
413.891876573865
 20
1451.733482821091
 11
413.891876573865
 21
1452.082615662762
 72
     2
 10
413.9455893187347
 20
1452.082615662762
 40
0.0537122609695813
 50
180.0000359721807
 51
270.0000179860904
 73
     0
 97
        0
 75
     0
 76
     1
 98
        1
 10
853.1436780689778
 20
1131.026496837697
  0
HATCH
  5
EC29
330
1F
100
AcDbEntity
  8
AM_8
 48
1.01
100
AcDbHatch
 10
0.0
 20
0.0
 30
0.0
210
0.0
220
0.0
230
1.0
  2
SOLID
 70
     1
 71
     0
 91
        1
 92
        1
 93
        8
 72
     1
 10
414.5632596322156
 20
1452.136328407641
 11
414.9124187264517
 21
1452.136328407641
 72
     2
 10
414.9124187264516
 20
1452.082615662762
 40
0.0537122609695813
 50
270.0000179860904
 51
360.0000025044788
 73
     0
 72
     1
 10
414.9661314713212
 20
1452.082615662762
 11
414.9661314713212
 21
1451.733482821091
 72
     2
 10
414.9124187264516
 20
1451.733482821091
 40
0.0537122609695813
 50
360.0000025044788
 51
449.9999751837198
 73
     0
 72
     1
 10
414.9124187264516
 20
1451.679770076221
 11
414.5632596322155
 21
1451.679770076221
 72
     2
 10
414.5632596322156
 20
1451.733482821091
 40
0.0537122609695813
 50
89.99997199599961
 51
180.0000359721807
 73
     0
 72
     1
 10
414.5095993924672
 20
1451.733482821091
 11
414.5095993924672
 21
1452.082615662762
 72
     2
 10
414.5632596322156
 20
1452.082615662762
 40
0.0537122609695813
 50
180.0000359721807
 51
270.0000179860904
 73
     0
 97
        0
 75
     0
 76
     1
 98
        1
 10
853.1436780689778
 20
1131.026496837697
  0
ELLIPSE
  5
EC2A
330
1F
100
AcDbEntity
  8
AM_2
 48
1.01
100
AcDbEllipse
 10
416.120929233535
 20
1450.954621767871
 30
0.0
 11
-0.0000000469606986
 21
1.074241771174113
 31
0.0
210
0.0
220
0.0
230
0.9999999999999998
 40
0.8500103862462001
 41
3.141592550740689
 42
4.021700675180791
  0
ELLIPSE
  5
EC2B
330
1F
100
AcDbEntity
  8
AM_2
 48
1.01
100
AcDbEllipse
 10
413.8650464539949
 20
1451.706600196091
 30
0.0
 11
-0.0000000070453982
 21
0.1611251083355442
 31
0.0
210
0.0
220
0.0
230
0.9999999999999998
 40
0.6667209775967005
 41
1.570714889620554
 42
3.14159278471332
  0
ELLIPSE
  5
EC2C
330
1F
100
AcDbEntity
  8
AM_2
 48
1.01
100
AcDbEllipse
 10
416.120929233535
 20
1450.954621767871
 30
0.0
 11
-0.0000000469606986
 21
1.074241771174113
 31
0.0
210
0.0
220
0.0
230
0.9999999999999998
 40
0.8500103862462001
 41
4.535278755984106
 42
4.712401204054757
  0
ELLIPSE
  5
EC2D
330
1F
100
AcDbEntity
  8
AM_2
 48
1.01
100
AcDbEllipse
 10
413.0056425360264
 20
1451.169472747358
 30
0.0
 11
-0.000000075133734
 21
1.718794709654979
 31
0.0
210
0.0
220
0.0
230
1.0
 40
0.7812559663365001
 41
3.141592541689455
 42
4.712396583138373
  0
ARC
  5
EC2E
330
1F
100
AcDbEntity
  8
AM_2
 48
0.3
100
AcDbCircle
 10
415.8374540531095
 20
1451.03521713774
 30
0.0
 40
0.0268561304848337
100
AcDbArc
 50
144.0576234830012
 51
270.000000683243
  0
ARC
  5
EC2F
330
1F
100
AcDbEntity
  8
AM_2
 48
0.3
100
AcDbCircle
 10
415.7181098995505
 20
1450.971108377732
 30
0.0
 40
0.0268561304848337
100
AcDbArc
 50
359.9999974955182
 51
108.4348265083087
  0
ARC
  5
EC30
330
1F
100
AcDbEntity
  8
AM_2
 48
0.3
100
AcDbCircle
 10
416.7808661742034
 20
1450.30119546294
 30
0.0
 40
0.0537122609695813
100
AcDbArc
 50
324.9136358374382
 51
58.57064798203829
  0
ARC
  5
EC31
330
1F
100
AcDbEntity
  8
AM_2
 48
0.3
100
AcDbCircle
 10
416.9931969076061
 20
1450.76938367998
 30
0.0
 40
0.0268561304848337
100
AcDbArc
 50
238.5702878032521
 51
351.3486646849861
  0
ARC
  5
EC32
330
1F
100
AcDbEntity
  8
AM_2
 48
0.3
100
AcDbCircle
 10
416.5204407445158
 20
1450.900935275557
 30
0.0
 40
0.1074245219391625
100
AcDbArc
 50
58.57035428390382
 51
89.99998201390772
  0
ARC
  5
EC33
330
1F
100
AcDbEntity
  8
AM_2
 48
0.3
100
AcDbCircle
 10
415.6117870174672
 20
1451.867738430709
 30
0.0
 40
0.1074245219391625
100
AcDbArc
 50
89.99998201390772
 51
144.0579103509574
  0
ARC
  5
EC34
330
1F
100
AcDbEntity
  8
AM_2
 48
0.3
100
AcDbCircle
 10
415.0348606825105
 20
1451.43806272429
 30
0.0
 40
0.1074245219391625
100
AcDbArc
 50
270.0000248162814
 51
324.0578950967029
  0
ARC
  5
EC35
330
1F
100
AcDbEntity
  8
AM_2
 48
0.3
100
AcDbCircle
 10
416.2290372899325
 20
1451.43806272429
 30
0.0
 40
0.1074245219391625
100
AcDbArc
 50
89.99998201390772
 51
144.0579103509574
  0
ARC
  5
EC36
330
1F
100
AcDbEntity
  8
AM_2
 48
0.3
100
AcDbCircle
 10
416.9266204066254
 20
1451.43806272429
 30
0.0
 40
0.1074245219391625
100
AcDbArc
 50
359.9999974955182
 51
89.99998201390772
  0
ARC
  5
EC37
330
1F
100
AcDbEntity
  8
AM_2
 48
0.3
100
AcDbCircle
 10
415.3355050394376
 20
1451.43806272429
 30
0.0
 40
0.5371226289239007
100
AcDbArc
 50
270.0000248162814
 51
288.434951272953
  0
ARC
  5
EC38
330
1F
100
AcDbEntity
  8
AM_2
 48
0.3
100
AcDbCircle
 10
416.3995214371462
 20
1450.471233316573
 30
0.0
 40
0.1074245219391625
100
AcDbArc
 50
58.57035428390382
 51
89.99998201390772
  0
ARC
  5
EC39
330
1F
100
AcDbEntity
  8
AM_2
 48
0.3
100
AcDbCircle
 10
413.5902346195158
 20
1452.798208038013
 30
0.0
 40
0.0314720294391016
100
AcDbArc
 50
266.0860737048653
 51
337.8500516914919
  0
ARC
  5
EC3A
330
1F
100
AcDbEntity
  8
AM_2
 48
0.3
100
AcDbCircle
 10
415.166753561417
 20
1452.767282518231
 30
0.0
 40
0.0314720294391016
100
AcDbArc
 50
157.8490594928254
 51
271.6438086504178
  0
ARC
  5
EC3B
330
1F
100
AcDbEntity
  8
AM_2
 48
0.3
100
AcDbCircle
 10
413.2741537552625
 20
1451.276898237107
 30
0.0
 40
0.2685613144619073
100
AcDbArc
 50
359.9999974955182
 51
89.99998201390772
  0
ARC
  5
EC3C
330
1F
100
AcDbEntity
  8
AM_2
 48
0.3
100
AcDbCircle
 10
414.2409831629794
 20
1451.43806272429
 30
0.0
 40
0.1074245219391625
100
AcDbArc
 50
359.9999974955182
 51
89.99998201390772
  0
ARC
  5
EC3D
330
1F
100
AcDbEntity
  8
AM_2
 48
0.3
100
AcDbCircle
 10
413.9455893187347
 20
1452.082615662762
 30
0.0
 40
0.0537122609695813
100
AcDbArc
 50
89.99998201390772
 51
179.9999640278154
  0
ARC
  5
EC3E
330
1F
100
AcDbEntity
  8
AM_2
 48
0.3
100
AcDbCircle
 10
414.2947484129796
 20
1452.082615662762
 30
0.0
 40
0.0537122609695813
100
AcDbArc
 50
359.9999974955182
 51
89.99998201390772
  0
LINE
  5
EC3F
330
1F
100
AcDbEntity
  8
AM_2
 48
0.15
100
AcDbLine
 10
412.0355578104359
 20
1456.36989555156
 30
0.0
 11
412.9068803922242
 21
1458.510267051803
 31
0.0
  0
ELLIPSE
  5
EC40
330
1F
100
AcDbEntity
  8
AM_2
 48
1.01
100
AcDbEllipse
 10
414.6975677469637
 20
1455.692710676686
 30
0.0
 11
-6.976303713142296
 21
-0.0000006098957881
 31
0.0
210
0.0
220
0.0
230
1.0
 40
0.4248093987311
 41
4.976799032816119
 42
5.21978845033481
  0
ARC
  5
EC41
330
1F
100
AcDbEntity
  8
AM_2
 48
0.3
100
AcDbCircle
 10
413.0074277103404
 20
1455.974243167406
 30
0.0
 40
1.049067613786737
100
AcDbArc
 50
157.8497971532462
 51
247.8498064879199
  0
LINE
  5
EC42
330
1F
100
AcDbEntity
  8
AM_2
 48
0.15
100
AcDbLine
 10
409.4575560770419
 20
1453.773569528851
 30
0.0
 11
409.6843257203492
 21
1454.330648925831
 31
0.0
  0
LINE
  5
EC43
330
1F
100
AcDbEntity
  8
AM_2
 48
0.15
100
AcDbLine
 10
409.1333369181009
 20
1456.238527723921
 30
0.0
 11
409.684588245983
 21
1454.884315489546
 31
0.0
  0
LINE
  5
EC44
330
1F
100
AcDbEntity
  8
AM_2
 48
0.15
100
AcDbLine
 10
409.1330218873371
 20
1456.713252829272
 30
0.0
 11
409.4970924376322
 21
1457.60762516179
 31
0.0
  0
LINE
  5
EC45
330
1F
100
AcDbEntity
  8
AM_2
 48
0.15
100
AcDbLine
 10
410.7800027096028
 20
1453.285534373826
 30
0.0
 11
411.2054517533094
 21
1454.330701430952
 31
0.0
  0
LINE
  5
EC46
330
1F
100
AcDbEntity
  8
AM_2
 48
0.15
100
AcDbLine
 10
410.6705295199065
 20
1456.1989388582
 30
0.0
 11
411.2056617738129
 21
1454.884315489546
 31
0.0
  0
LINE
  5
EC47
330
1F
100
AcDbEntity
  8
AM_2
 48
0.15
100
AcDbLine
 10
410.670319499403
 20
1456.752815442428
 30
0.0
 11
411.2856270821636
 21
1458.264280532029
 31
0.0
  0
HATCH
  5
EC48
330
1F
100
AcDbEntity
  8
AM_8
 48
1.01
100
AcDbHatch
 10
0.0
 20
0.0
 30
0.0
210
0.0
220
0.0
230
1.0
  2
SOLID
 70
     1
 71
     0
 91
        1
 92
        1
 93
        9
 72
     1
 10
409.4575035719118
 20
1453.773595781416
 11
409.6845357408528
 21
1454.330570168135
 72
     2
 10
409.0043843263041
 20
1454.607455955127
 40
0.7343473193958078
 50
-22.15025054438588
 51
22.15024712928813
 73
     1
 72
     1
 10
409.684588245983
 20
1454.884367994676
 11
409.1332844129794
 21
1456.238501471356
 72
     2
 10
409.7163013426669
 20
1456.475824645184
 40
0.6294405887818595
 50
157.8497598145818
 51
202.1502574882615
 73
     0
 72
     1
 10
409.1329693822155
 20
1456.713279081838
 11
409.4973549632658
 21
1457.607520151538
 72
     2
 10
409.4682146178059
 20
1457.619386310227
 40
0.0314720294391016
 50
-22.15094722367926
 51
115.8287111905272
 73
     1
 72
     2
 10
410.158394511608
 20
1455.277867668621
 40
2.472194262974711
 50
106.5426523723583
 51
170.3397269563473
 73
     1
 72
     2
 10
410.135817307016
 20
1456.095398747853
 40
2.447923152746172
 50
-170.5313137625662
 51
-106.9987724051317
 73
     1
 72
     2
 10
409.4285732469638
 20
1453.785356929854
 40
0.0314720294391016
 50
-116.2184008034371
 51
-22.15025054438588
 73
     1
 97
        0
 75
     0
 76
     1
 98
        1
 10
853.1436780689778
 20
1131.026496837697
  0
ELLIPSE
  5
EC49
330
1F
100
AcDbEntity
  8
AM_2
 48
1.01
100
AcDbEllipse
 10
414.6975677469637
 20
1455.692710676686
 30
0.0
 11
-6.976303713142296
 21
-0.0000006098957881
 31
0.0
210
0.0
220
0.0
230
1.0
 40
0.4248093987311
 41
5.56280012168186
 42
6.996078981890493
  0
ARC
  5
EC4A
330
1F
100
AcDbEntity
  8
AM_2
 48
0.3
100
AcDbCircle
 10
411.3149774481356
 20
1458.252309363088
 30
0.0
 40
0.0314720294391016
100
AcDbArc
 50
103.2912842519458
 51
157.8481852286101
  0
ARC
  5
EC4B
330
1F
100
AcDbEntity
  8
AM_2
 48
0.3
100
AcDbCircle
 10
409.4682146178059
 20
1457.619386310227
 30
0.0
 40
0.0314720294391016
100
AcDbArc
 50
337.8490527763185
 51
115.8287111905287
  0
ARC
  5
EC4C
330
1F
100
AcDbEntity
  8
AM_2
 48
0.3
100
AcDbCircle
 10
410.8061502628316
 20
1453.265713688404
 30
0.0
 40
0.0314720294391016
100
AcDbArc
 50
157.8497151909805
 51
254.0161559121263
  0
ARC
  5
EC4D
330
1F
100
AcDbEntity
  8
AM_2
 48
0.3
100
AcDbCircle
 10
409.4285732469638
 20
1453.785356929854
 30
0.0
 40
0.0314720294391016
100
AcDbArc
 50
243.7815991965669
 51
337.8497511631569
  0
ARC
  5
EC4E
330
1F
100
AcDbEntity
  8
AM_2
 48
0.3
100
AcDbCircle
 10
410.5255103592643
 20
1454.607455955127
 30
0.0
 40
0.7343473193958078
100
AcDbArc
 50
337.8497494556207
 51
22.15026761985894
  0
ARC
  5
EC4F
330
1F
100
AcDbEntity
  8
AM_2
 48
0.3
100
AcDbCircle
 10
411.3506809344638
 20
1456.475824645184
 30
0.0
 40
0.7343473193958078
100
AcDbArc
 50
157.8497698324921
 51
202.1501855438948
  0
ARC
  5
EC50
330
1F
100
AcDbEntity
  8
AM_2
 48
0.3
100
AcDbCircle
 10
409.0043843263041
 20
1454.607455955127
 30
0.0
 40
0.7343473193958078
100
AcDbArc
 50
337.8497494556207
 51
22.15024712929187
  0
ARC
  5
EC51
330
1F
100
AcDbEntity
  8
AM_2
 48
0.3
100
AcDbCircle
 10
409.7163013426669
 20
1456.475824645184
 30
0.0
 40
0.6294405887818595
100
AcDbArc
 50
157.8497425117334
 51
202.1502401854192
  0
LINE
  5
EC52
330
1F
100
AcDbEntity
  8
AM_2
 48
0.15
100
AcDbLine
 10
413.4969330089258
 20
1456.223091216603
 30
0.0
 11
414.473843401009
 21
1458.622864296556
 31
0.0
  0
LINE
  5
EC53
330
1F
100
AcDbEntity
  8
AM_2
 48
0.151591734143811
100
AcDbLine
 10
414.8176469723024
 20
1455.73075064116
 30
0.0
 11
415.9607623437652
 21
1458.538829840866
 31
0.0
  0
HATCH
  5
EC54
330
1F
100
AcDbEntity
  8
AM_8
 48
1.01
100
AcDbHatch
 10
0.0
 20
0.0
 30
0.0
210
0.0
220
0.0
230
1.0
  2
SOLID
 70
     1
 71
     0
 91
        1
 92
        1
 93
        9
 72
     1
 10
415.9607885963215
 20
1458.538829840866
 11
414.8179094979361
 21
1455.730619378344
 72
     2
 10
414.720775013075
 20
1455.770155738934
 40
0.1049067626605319
 50
382.1502915255188
 51
425.4567559107931
 73
     0
 72
     2
 10
414.0379983421722
 20
1457.265186723804
 40
1.748459285991693
 50
425.4564280617128
 51
457.7446993628422
 73
     0
 72
     2
 10
413.9829729691253
 20
1456.025173140548
 40
0.5245338068933258
 50
110.1379378203209
 51
202.1502301675025
 73
     0
 72
     1
 10
413.4969855140472
 20
1456.223091216603
 11
414.4741059266513
 21
1458.622733033739
 72
     2
 10
414.5226731690819
 20
1458.602938600874
 40
0.052453381330309
 50
202.1501208844776
 51
269.3879783949419
 73
     0
 72
     2
 10
414.6975677469637
 20
1442.238140632124
 40
16.4182088091428
 50
269.3879442439989
 51
270.0000521370334
 73
     0
 72
     2
 10
414.7004030238127
 20
1442.413455251021
 40
16.242874500824
 50
269.9900459098989
 51
274.2934680681694
 73
     0
 72
     2
 10
415.9124313744031
 20
1458.558440505783
 40
0.052453381330309
 50
274.3124764846284
 51
382.1501276009815
 73
     0
 97
        0
 75
     0
 76
     1
 98
        1
 10
853.1436780689778
 20
1131.026496837697
  0
ELLIPSE
  5
EC55
330
1F
100
AcDbEntity
  8
AM_2
 48
1.01
100
AcDbEllipse
 10
414.6975677469637
 20
1455.692710676686
 30
0.0
 11
-6.976303713142296
 21
-0.0000006098957881
 31
0.0
210
0.0
220
0.0
230
1.0
 40
0.4248093987311
 41
4.536776993253852
 42
4.73753320772932
  0
ARC
  5
EC56
330
1F
100
AcDbEntity
  8
AM_2
 48
0.3
100
AcDbCircle
 10
413.9829729691253
 20
1456.025173140548
 30
0.0
 40
0.5245338068933258
100
AcDbArc
 50
157.8497698324921
 51
249.8620621796862
  0
ARC
  5
EC57
330
1F
100
AcDbEntity
  8
AM_2
 48
0.4241168901832585
100
AcDbCircle
 10
413.5591515843596
 20
1459.13660071123
 30
0.0
 40
4.241168901832584
100
AcDbArc
 50
257.0941296625424
 51
282.3254768339716
  0
ARC
  5
EC58
330
1F
100
AcDbEntity
  8
AM_2
 48
0.3
100
AcDbCircle
 10
414.0379983421722
 20
1457.265186723804
 30
0.0
 40
1.748459285991693
100
AcDbArc
 50
262.2552938069694
 51
294.5435651080903
  0
ARC
  5
EC59
330
1F
100
AcDbEntity
  8
AM_2
 48
0.3
100
AcDbCircle
 10
415.9124313744031
 20
1458.558440505783
 30
0.0
 40
0.052453381330309
100
AcDbArc
 50
337.8498723990138
 51
85.68752351537643
  0
ARC
  5
EC5A
330
1F
100
AcDbEntity
  8
AM_2
 48
0.3
100
AcDbCircle
 10
414.5226731690819
 20
1458.602938600874
 30
0.0
 40
0.052453381330309
100
AcDbArc
 50
90.61202160506178
 51
157.8498791155213
  0
ARC
  5
EC5B
330
1F
100
AcDbEntity
  8
AM_2
 48
0.3
100
AcDbCircle
 10
414.720775013075
 20
1455.770155738934
 30
0.0
 40
0.1049067626605319
100
AcDbArc
 50
294.5432440892034
 51
337.8497084744763
  0
ARC
  5
EC5C
330
1F
100
AcDbEntity
  8
AM_2
 48
0.3
100
AcDbCircle
 10
412.8778975621461
 20
1458.522054452806
 30
0.0
 40
0.0314720294391016
100
AcDbArc
 50
337.8498177575008
 51
96.55938150409454
  0
ARC
  5
EC5D
330
1F
100
AcDbEntity
  8
AM_2
 48
0.3
100
AcDbCircle
 10
414.4712181446635
 20
1454.962443118452
 30
0.0
 40
0.0314720294391016
100
AcDbArc
 50
337.8500636443165
 51
102.3227497672614
  0
LINE
  5
EC5E
330
1F
100
AcDbEntity
  8
AM_2
 48
0.15
100
AcDbLine
 10
417.9471625592121
 20
1450.363807826825
 30
0.0
 11
417.9471625592121
 21
1449.93410586784
 31
0.0
  0
LINE
  5
EC5F
330
1F
100
AcDbEntity
  8
AM_2
 48
0.15
100
AcDbLine
 10
417.8934498143425
 20
1451.706626448656
 30
0.0
 11
417.8934498143425
 21
1450.793509785809
 31
0.0
  0
LINE
  5
EC60
330
1F
100
AcDbEntity
  8
AM_2
 48
0.15
100
AcDbLine
 10
417.5949056624846
 20
1449.93410586784
 30
0.0
 11
417.9471625592121
 21
1449.93410586784
 31
0.0
  0
LINE
  5
EC61
330
1F
100
AcDbEntity
  8
AM_2
 48
0.15
100
AcDbLine
 10
417.8597415228406
 20
1450.36383407939
 30
0.0
 11
417.9471625592121
 21
1450.36383407939
 31
0.0
  0
LINE
  5
EC62
330
1F
100
AcDbEntity
  8
AM_2
 48
0.1503930603880235
100
AcDbLine
 10
418.2694390284569
 20
1449.504403908856
 30
0.0
 11
421.2773002362174
 21
1449.504403908856
 31
0.0
  0
LINE
  5
EC63
330
1F
100
AcDbEntity
  8
AM_2
 48
0.15
100
AcDbLine
 10
418.2694390284569
 20
1450.095244102467
 30
0.0
 11
421.1430446265993
 21
1450.095244102467
 31
0.0
  0
LINE
  5
EC64
330
1F
100
AcDbEntity
  8
AM_2
 48
0.15
100
AcDbLine
 10
418.4842900079448
 20
1451.975163920458
 30
0.0
 11
418.4842900079448
 21
1451.518631841603
 31
0.0
  0
LINE
  5
EC65
330
1F
100
AcDbEntity
  8
AM_2
 48
0.15
100
AcDbLine
 10
418.4842900079448
 20
1451.975163920458
 30
0.0
 11
420.8744809022329
 21
1451.975163920458
 31
0.0
  0
LINE
  5
EC66
330
1F
100
AcDbEntity
  8
AM_2
 48
0.15
100
AcDbLine
 10
418.2694390284569
 20
1450.095244102467
 30
0.0
 11
418.2694390284569
 21
1449.504403908856
 31
0.0
  0
LINE
  5
EC67
330
1F
100
AcDbEntity
  8
AM_2
 48
0.15
100
AcDbLine
 10
418.4842900079448
 20
1451.518631841603
 30
0.0
 11
421.0087890169813
 21
1451.518631841603
 31
0.0
  0
LINE
  5
EC68
330
1F
100
AcDbEntity
  8
AM_2
 48
0.15
100
AcDbLine
 10
421.0087890169813
 20
1451.814025685839
 30
0.0
 11
421.0087890169813
 21
1451.518631841603
 31
0.0
  0
LINE
  5
EC69
330
1F
100
AcDbEntity
  8
AM_2
 48
0.15
100
AcDbLine
 10
421.2773002362174
 20
1449.93410586784
 30
0.0
 11
421.2773002362174
 21
1449.504403908856
 31
0.0
  0
HATCH
  5
EC6A
330
1F
100
AcDbEntity
  8
AM_8
 48
1.01
100
AcDbHatch
 10
0.0
 20
0.0
 30
0.0
210
0.0
220
0.0
230
1.0
  2
SOLID
 70
     1
 71
     0
 91
        1
 92
        1
 93
        5
 72
     1
 10
418.2694390284569
 20
1450.095244102467
 11
421.1430446265993
 21
1450.095244102467
 72
     2
 10
421.1282906859223
 20
1449.946418320119
 40
0.1495552011081245
 50
275.6673537895311
 51
364.7215074288784
 73
     0
 72
     1
 10
421.2773002362174
 20
1449.93410586784
 11
421.2773002362174
 21
1449.504403908856
 72
     1
 10
421.2773002362174
 20
1449.504403908856
 11
418.2694390284569
 21
1449.504403908856
 72
     1
 10
418.2694390284569
 20
1449.504403908856
 11
418.2694390284569
 21
1450.095244102467
 97
        0
 75
     0
 76
     1
 98
        1
 10
853.1436780689778
 20
1131.026496837697
  0
HATCH
  5
EC6B
330
1F
100
AcDbEntity
  8
AM_8
 48
1.01
100
AcDbHatch
 10
0.0
 20
0.0
 30
0.0
210
0.0
220
0.0
230
1.0
  2
SOLID
 70
     1
 71
     0
 91
        1
 92
        1
 93
        5
 72
     1
 10
418.4842900079448
 20
1451.975163920458
 11
420.8744809022331
 21
1451.975163920458
 72
     2
 10
420.8597269615557
 20
1451.826364390674
 40
0.1495552011081245
 50
275.6673537895311
 51
364.7215074288784
 73
     0
 72
     1
 10
421.0087890169813
 20
1451.814025685839
 11
421.0087890169813
 21
1451.518631841603
 72
     1
 10
421.0087890169813
 20
1451.518631841603
 11
418.4842900079448
 21
1451.518631841603
 72
     1
 10
418.4842900079448
 20
1451.518631841603
 11
418.4842900079448
 21
1451.975163920457
 97
        0
 75
     0
 76
     1
 98
        1
 10
853.1436780689778
 20
1131.026496837697
  0
ELLIPSE
  5
EC6C
330
1F
100
AcDbEntity
  8
AM_2
 48
1.01
100
AcDbEllipse
 10
421.1430446265993
 20
1449.934132120406
 30
0.0
 11
-0.0000000070453982
 21
0.1611251083355442
 31
0.0
210
0.0
220
0.0
230
0.9999999999999998
 40
0.8332382892056999
 41
4.712307493572145
 42
6.283185307179586
  0
ELLIPSE
  5
EC6D
330
1F
100
AcDbEntity
  8
AM_2
 48
1.01
100
AcDbEllipse
 10
420.8744809022329
 20
1451.814025685839
 30
0.0
 11
-0.0000000070453982
 21
0.1611251083355442
 31
0.0
210
0.0
220
0.0
230
0.9999999999999998
 40
0.8335641547862003
 41
4.712307561072614
 42
6.283185307179586
  0
ARC
  5
EC6E
330
1F
100
AcDbEntity
  8
AM_2
 48
0.3
100
AcDbCircle
 10
416.5506311925192
 20
1450.793509785809
 30
0.0
 40
1.342806521035209
100
AcDbArc
 50
342.895380950236
 51
359.9999974955182
  0
ARC
  5
EC6F
330
1F
100
AcDbEntity
  8
AM_2
 48
0.3
100
AcDbCircle
 10
417.8597415228406
 20
1450.390664199268
 30
0.0
 40
0.0268561304848337
100
AcDbArc
 50
162.8947797799007
 51
270.000000683243
  0
ARC
  5
EC70
330
1F
100
AcDbEntity
  8
AM_2
 48
0.3
100
AcDbCircle
 10
417.5949056624846
 20
1449.907249495405
 30
0.0
 40
0.0268561304848337
100
AcDbArc
 50
89.99998201390772
 51
139.6795541872996
  0
ARC
  5
EC71
330
1F
100
AcDbEntity
  8
AM_2
 48
0.3
100
AcDbCircle
 10
417.624886089976
 20
1451.706626448656
 30
0.0
 40
0.2685613144619073
100
AcDbArc
 50
359.9999974955182
 51
89.99998201390772
  0
LINE
  5
EC72
330
1F
100
AcDbEntity
  8
AM_2
 48
0.15
100
AcDbLine
 10
419.8657786557704
 20
1453.762700967575
 30
0.0
 11
420.1971122594117
 21
1454.57666169817
 31
0.0
  0
LINE
  5
EC73
330
1F
100
AcDbEntity
  8
AM_2
 48
0.15
100
AcDbLine
 10
419.6619537529405
 20
1456.998854467333
 30
0.0
 11
419.9158422943249
 21
1457.622510365284
 31
0.0
  0
LINE
  5
EC74
330
1F
100
AcDbEntity
  8
AM_2
 48
0.15
100
AcDbLine
 10
418.0808406124412
 20
1453.114787700978
 30
0.0
 11
418.6759599738867
 21
1454.576740455857
 31
0.0
  0
LINE
  5
EC75
330
1F
100
AcDbEntity
  8
AM_2
 48
0.15
100
AcDbLine
 10
419.6621900260089
 20
1456.44495163054
 30
0.0
 11
420.1973222799153
 21
1455.130380767015
 31
0.0
  0
LINE
  5
EC76
330
1F
100
AcDbEntity
  8
AM_2
 48
0.15
100
AcDbLine
 10
418.1411427507442
 20
1456.444977883105
 30
0.0
 11
418.6763012572156
 21
1455.13035451445
 31
0.0
  0
LINE
  5
EC77
330
1F
100
AcDbEntity
  8
AM_2
 48
0.15
100
AcDbLine
 10
418.1408802251106
 20
1456.998854467333
 30
0.0
 11
418.595049573253
 21
1458.114509657398
 31
0.0
  0
HATCH
  5
EC78
330
1F
100
AcDbEntity
  8
AM_8
 48
1.01
100
AcDbHatch
 10
0.0
 20
0.0
 30
0.0
210
0.0
220
0.0
230
1.0
  2
SOLID
 70
     1
 71
     0
 91
        1
 92
        1
 93
        9
 72
     1
 10
419.9158422943249
 20
1457.62253661784
 11
419.6622425311391
 21
1456.99869695195
 72
     2
 10
420.3423939456878
 20
1456.721837417523
 40
0.7343473193958078
 50
157.8497698324975
 51
202.1501855439001
 73
     1
 72
     1
 10
419.6622425311391
 20
1456.44500413567
 11
420.1973747850454
 21
1455.13035451445
 72
     2
 10
419.5172233704969
 20
1454.853468727467
 40
0.7343473193958078
 50
337.8497323801425
 51
382.1502505443859
 73
     0
 72
     1
 10
420.1971122594117
 20
1454.576687950727
 11
419.866067433969
 21
1453.762622209889
 72
     2
 10
419.8951552743075
 20
1453.750756051191
 40
0.0314720294391016
 50
157.8517642477323
 51
295.5131887805864
 73
     1
 72
     2
 10
419.21579143666
 20
1456.11897354985
 40
2.494761007558824
 50
-73.8743630061836
 51
-9.837694777618834
 73
     1
 72
     2
 10
419.2488171615123
 20
1455.284404556933
 40
2.459168479331023
 50
9.557515295225336
 51
73.21342609077245
 73
     1
 72
     2
 10
419.9452451654186
 20
1457.610512943769
 40
0.0314720294391016
 50
63.9901367110719
 51
157.8490594928246
 73
     1
 97
        0
 75
     0
 76
     1
 98
        1
 10
853.1436780689778
 20
1131.026496837697
  0
ELLIPSE
  5
EC79
330
1F
100
AcDbEntity
  8
AM_2
 48
1.01
100
AcDbEllipse
 10
414.6975677469637
 20
1455.692710676686
 30
0.0
 11
-6.976303713142296
 21
-0.0000006098957881
 31
0.0
210
0.0
220
0.0
230
1.0
 40
0.4248093987311
 41
4.12313675664696
 42
4.305497619738525
  0
ELLIPSE
  5
EC7A
330
1F
100
AcDbEntity
  8
AM_2
 48
1.01
100
AcDbEllipse
 10
414.6975677469637
 20
1455.692710676686
 30
0.0
 11
-6.976303713142296
 21
-0.0000006098957881
 31
0.0
210
0.0
220
0.0
230
1.0
 40
0.4248093987311
 41
2.414297482815346
 42
3.857964743574977
  0
ARC
  5
EC7B
330
1F
100
AcDbEntity
  8
AM_2
 48
0.3
100
AcDbCircle
 10
419.5172233704969
 20
1454.853468727467
 30
0.0
 40
0.7343473193958078
100
AcDbArc
 50
337.8497494556207
 51
22.15026761985894
  0
ARC
  5
EC7C
330
1F
100
AcDbEntity
  8
AM_2
 48
0.3
100
AcDbCircle
 10
420.3423939456878
 20
1456.721837417523
 30
0.0
 40
0.7343473193958078
100
AcDbArc
 50
157.8497698324921
 51
202.1501855438948
  0
ARC
  5
EC7D
330
1F
100
AcDbEntity
  8
AM_2
 48
0.3
100
AcDbCircle
 10
417.9960448324065
 20
1454.853468727467
 30
0.0
 40
0.7343473193958078
100
AcDbArc
 50
337.8497494556207
 51
22.15026761985894
  0
ARC
  5
EC7E
330
1F
100
AcDbEntity
  8
AM_2
 48
0.3
100
AcDbCircle
 10
417.4529317992034
 20
1458.383388412519
 30
0.0
 40
0.0314720294391016
100
AcDbArc
 50
79.62685760819772
 51
157.8495649268221
  0
ARC
  5
EC7F
330
1F
100
AcDbEntity
  8
AM_2
 48
0.3
100
AcDbCircle
 10
418.5660929957399
 20
1458.126218300705
 30
0.0
 40
0.0314720294391016
100
AcDbArc
 50
337.8500499839423
 51
74.14346562929336
  0
ARC
  5
EC80
330
1F
100
AcDbEntity
  8
AM_2
 48
0.3
100
AcDbCircle
 10
418.8212154076062
 20
1456.721837417523
 30
0.0
 40
0.7343473193958078
100
AcDbArc
 50
157.8497698324921
 51
202.1501855438948
  0
ARC
  5
EC81
330
1F
100
AcDbEntity
  8
AM_2
 48
0.3
100
AcDbCircle
 10
418.0519627926149
 20
1453.12647009172
 30
0.0
 40
0.0314720294391016
100
AcDbArc
 50
283.1477428175744
 51
337.8486634555417
  0
ARC
  5
EC82
330
1F
100
AcDbEntity
  8
AM_2
 48
0.3
100
AcDbCircle
 10
419.9452451654186
 20
1457.610512943769
 30
0.0
 40
0.0314720294391016
100
AcDbArc
 50
63.99013671107396
 51
157.8490594928254
  0
ARC
  5
EC83
330
1F
100
AcDbEntity
  8
AM_2
 48
0.3
100
AcDbCircle
 10
419.8951552743075
 20
1453.750756051191
 30
0.0
 40
0.0314720294391016
100
AcDbArc
 50
157.8517642477325
 51
295.5131887805883
  0
ARC
  5
EC85
330
1F
100
AcDbEntity
  8
AM_0
100
AcDbCircle
 10
655.854118298265
 20
1328.500801981161
 30
0.0
 40
12.5
100
AcDbArc
 50
188.9264238588472
 51
230.1369985935236
  0
ARC
  5
EC86
330
1F
100
AcDbEntity
  8
AM_0
100
AcDbCircle
 10
636.8541793334149
 20
1317.737267435261
 30
0.0
 40
11.0
100
AcDbArc
 50
322.4810639645418
 51
6.343323894459059
  0
LINE
  5
EC87
330
1F
100
AcDbEntity
  8
AM_7
100
AcDbLine
 10
650.444175671305
 20
1317.737267435261
 30
0.0
 11
623.2641829955249
 21
1317.737267435261
 31
0.0
  0
CIRCLE
  5
EC88
330
1F
100
AcDbEntity
  8
AM_0
100
AcDbCircle
 10
636.8541793334149
 20
1317.737267435261
 30
0.0
 40
11.050000190734
  0
ARC
  5
EC98
330
1F
100
AcDbEntity
  8
AM_0
100
AcDbCircle
 10
636.8541793334149
 20
1317.737267435261
 30
0.0
 40
11.0
100
AcDbArc
 50
52.71993867485401
 51
196.5000754775538
  0
LINE
  5
EC99
330
1F
100
AcDbEntity
  8
AM_0
 48
0.2190483126466588
100
AcDbLine
 10
629.8047408568549
 20
1314.450081766311
 30
0.0
 11
631.3031234252149
 21
1318.566842020221
 31
0.0
  0
LINE
  5
EC9A
330
1F
100
AcDbEntity
  8
AM_0
 48
0.2190531360991597
100
AcDbLine
 10
642.4051742064649
 20
1316.907631815141
 30
0.0
 11
643.9035872924049
 21
1321.024483621781
 31
0.0
  0
ARC
  5
EC9B
330
1F
100
AcDbEntity
  8
AM_0
100
AcDbCircle
 10
636.8541793334149
 20
1317.737267435261
 30
0.0
 40
11.0
100
AcDbArc
 50
242.4808989521566
 51
276.4998992078367
  0
LINE
  5
EC9C
330
1F
100
AcDbEntity
  8
AM_0
 48
0.2190517500902713
100
AcDbLine
 10
631.6495284545149
 20
1311.956948221391
 30
0.0
 11
636.0245589720849
 21
1312.186242044631
 31
0.0
  0
ARC
  5
EC9D
330
1F
100
AcDbEntity
  8
AM_0
100
AcDbCircle
 10
619.9804610716947
 20
1303.832375467481
 30
0.0
 40
12.5
100
AcDbArc
 50
19.0542026332465
 51
59.92667958891505
  0
LINE
  5
EC9E
330
1F
100
AcDbEntity
  8
AM_0
 48
0.15
100
AcDbLine
 10
629.8047408568549
 20
1314.450081766311
 30
0.0
 11
631.5522078978748
 21
1313.814049661821
 31
0.0
  0
LINE
  5
EC9F
330
1F
100
AcDbEntity
  8
AM_0
 48
0.15
100
AcDbLine
 10
631.6495284545149
 20
1311.956948221391
 30
0.0
 11
631.5522078978748
 21
1313.814049661821
 31
0.0
  0
ARC
  5
ECA0
330
1F
100
AcDbEntity
  8
AM_0
100
AcDbCircle
 10
647.6176681029447
 20
1298.705407083691
 30
0.0
 40
12.5
100
AcDbArc
 50
99.05358217386924
 51
139.9271622050798
  0
LINE
  5
ECA1
330
1F
100
AcDbEntity
  8
AM_0
 48
0.15
100
AcDbLine
 10
640.7773971068548
 20
1312.435326517291
 30
0.0
 11
642.6344527709148
 21
1312.532647073931
 31
0.0
  0
LINE
  5
ECA2
330
1F
100
AcDbEntity
  8
AM_0
 48
0.15
100
AcDbLine
 10
640.1413497435747
 20
1310.687859476271
 30
0.0
 11
640.7773971068548
 21
1312.435326517291
 31
0.0
  0
LINE
  5
ECA3
330
1F
100
AcDbEntity
  8
AM_0
 48
0.2190483126466481
100
AcDbLine
 10
636.0245894896649
 20
1312.186242044631
 30
0.0
 11
640.1413497435747
 21
1310.687859476271
 31
0.0
  0
LINE
  5
ECA4
330
1F
100
AcDbEntity
  8
AM_0
 48
0.2190494244795955
100
AcDbLine
 10
642.6344527709148
 20
1312.532647073931
 30
0.0
 11
642.4051742064649
 21
1316.907631815141
 31
0.0
  0
LINE
  5
ECA5
330
1F
100
AcDbEntity
  8
AM_0
 48
0.2190517022427125
100
AcDbLine
 10
633.566978405685
 20
1324.786705911821
 30
0.0
 11
637.6837996947448
 21
1323.288292825881
 31
0.0
  0
LINE
  5
ECA6
330
1F
100
AcDbEntity
  8
AM_0
 48
0.15
100
AcDbLine
 10
631.073844860765
 20
1322.941872537801
 30
0.0
 11
632.9309005248248
 21
1323.039208353231
 31
0.0
  0
LINE
  5
ECA7
330
1F
100
AcDbEntity
  8
AM_0
 48
0.2190524720554899
100
AcDbLine
 10
631.3031234252149
 20
1318.566826761431
 30
0.0
 11
631.073844860765
 21
1322.941872537801
 31
0.0
  0
LINE
  5
ECA8
330
1F
100
AcDbEntity
  8
AM_0
 48
0.15
100
AcDbLine
 10
632.9309310424049
 20
1323.039208353231
 30
0.0
 11
633.566978405685
 21
1324.786705911821
 31
0.0
  0
LINE
  5
ECA9
330
1F
100
AcDbEntity
  8
AM_0
 48
0.2190501863735581
100
AcDbLine
 10
637.6837691771648
 20
1323.288292825881
 30
0.0
 11
642.0587691771649
 21
1323.517571390331
 31
0.0
  0
LINE
  5
ECAA
330
1F
100
AcDbEntity
  8
AM_0
 48
0.15
100
AcDbLine
 10
642.156089733805
 20
1321.660515726271
 30
0.0
 11
643.9035872924049
 21
1321.024483621781
 31
0.0
  0
LINE
  5
ECAB
330
1F
100
AcDbEntity
  8
AM_0
 48
0.15
100
AcDbLine
 10
642.156089733805
 20
1321.660500467481
 30
0.0
 11
642.0587691771649
 21
1323.517571390331
 31
0.0
  0
LINE
  5
ECAC
330
1F
100
AcDbEntity
  8
AM_0
100
AcDbLine
 10
573.6541671263849
 20
1467.737313211621
 30
0.0
 11
696.8541488158349
 21
1467.737313211621
 31
0.0
  0
ARC
  5
ECAD
330
1F
100
AcDbEntity
  8
AM_0
 48
0.3
100
AcDbCircle
 10
573.6541671263849
 20
1466.137276590531
 30
0.0
 40
1.6000000238419
100
AcDbArc
 50
90.0000025044752
 51
180.0000050089634
  0
DIMENSION
  5
ECD8
330
1F
100
AcDbEntity
  8
AM_5
 48
1.01
100
AcDbDimension
  2
*D25
 10
706.8541488158349
 20
1147.786483080717
 30
0.0
 11
703.7541488158348
 21
1159.386486438455
 31
0.0
 70
    32
 71
     5
 42
23.2000067154745
  3
SYS$0
100
AcDbAlignedDimension
 13
696.8541488158349
 23
1170.986489796192
 33
0.0
 14
695.3541488158349
 24
1147.786483080717
 34
0.0
 50
90.0
100
AcDbRotatedDimension
  0
DIMENSION
  5
ECF5
330
1F
100
AcDbEntity
  8
AM_5
 48
1.01
100
AcDbDimension
  2
*D26
 10
643.4482276041831
 20
1297.003940013848
 30
0.0
 11
637.7935329495053
 21
1299.811862059351
 31
0.0
 70
    32
  1
□<>
 71
     5
 42
10.99999960932098
  3
SYS$0
100
AcDbAlignedDimension
 13
631.6495284545149
 23
1311.956948221391
 33
0.0
 14
642.6344535595545
 24
1312.532632025485
 34
0.0
 50
2.999815216328248
100
AcDbRotatedDimension
1001
ACAD
1000
DSTYLE
1002
{
1070
   271
1070
     0
1002
}
  0
LINE
  5
ECF6
330
1F
100
AcDbEntity
  8
AM_7
100
AcDbLine
 10
610.9911326995565
 20
1387.737313211621
 30
0.0
 11
685.6982697716904
 21
1387.737313211621
 31
0.0
1001
GENIUS_GENODEF_13
1002
{
1000
HIER
1070
     0
1002
}
1002
{
1000
MANEDIT
1070
     0
1002
}
1002
{
1000
NOSEL
1070
     0
1002
}
1002
{
1000
BEHIND
1070
     0
1002
}
1002
{
1000
OTHER
1070
     0
1002
}
1002
{
1000
REACTOR
1002
}
1001
GENIUS_GENOBJ-N-CEN_13
1002
{
1000
OWNER
1000
GEN
1002
}
1001
GENIUS_GENCEN_19
1002
{
1040
4.0
1002
}
  0
LINE
  5
ED02
330
1F
100
AcDbEntity
  8
AM_0
 48
0.2399993896484943
100
AcDbLine
 10
606.6541366088041
 20
1280.337288797573
 30
0.0
 11
606.6541366088041
 21
1285.137276590543
 31
0.0
  0
LINE
  5
ED03
330
1F
100
AcDbEntity
  8
AM_0
 48
0.2399993896484943
100
AcDbLine
 10
614.4541396605619
 20
1280.337288797573
 30
0.0
 11
614.4541396605619
 21
1285.137276590543
 31
0.0
  0
LINE
  5
ED04
330
1F
100
AcDbEntity
  8
AM_0
 48
0.3900001525878907
100
AcDbLine
 10
606.6541366088041
 20
1280.337288797573
 30
0.0
 11
614.4541396605619
 21
1280.337288797573
 31
0.0
  0
LINE
  5
ED05
330
1F
100
AcDbEntity
  8
AM_0
 48
0.3900001525878907
100
AcDbLine
 10
606.6541366088041
 20
1285.137276590543
 30
0.0
 11
614.4541396605619
 21
1285.137276590543
 31
0.0
  0
LINE
  5
ED06
330
1F
100
AcDbEntity
  8
AM_0
 48
0.255000305175497
100
AcDbLine
 10
615.8541488158361
 20
1340.187279642303
 30
0.0
 11
615.8541488158361
 21
1345.287285745813
 31
0.0
  0
LINE
  5
ED07
330
1F
100
AcDbEntity
  8
AM_0
 48
0.255000305175497
100
AcDbLine
 10
613.5541610228671
 20
1340.187279642303
 30
0.0
 11
613.5541610228671
 21
1345.287285745813
 31
0.0
  0
LINE
  5
ED08
330
1F
100
AcDbEntity
  8
AM_0
 48
0.15
100
AcDbLine
 10
613.5541610228671
 20
1340.337288797573
 30
0.0
 11
615.8541488158361
 21
1340.337288797573
 31
0.0
  0
LINE
  5
ED09
330
1F
100
AcDbEntity
  8
AM_0
 48
0.15
100
AcDbLine
 10
613.5541610228671
 20
1345.137276590543
 30
0.0
 11
615.8541488158361
 21
1345.137276590543
 31
0.0
  0
LINE
  5
ED10
330
1F
100
AcDbEntity
  8
AM_7
 48
0.7575061798094567
100
AcDbLine
 10
676.8541507231831
 20
1380.778145731163
 30
0.0
 11
676.8541507231831
 21
1395.928269327352
 31
0.0
  0
LINE
  5
ED11
330
1F
100
AcDbEntity
  8
AM_7
100
AcDbLine
 10
627.854148815836
 20
1423.313744486043
 30
0.0
 11
627.854148815836
 21
1457.451115549275
 31
0.0
  0
LINE
  5
ED12
330
1F
100
AcDbEntity
  8
AM_7
 48
0.4441446304321062
100
AcDbLine
 10
622.9382514464511
 20
1426.937283456991
 30
0.0
 11
631.8211440550932
 21
1426.937283456991
 31
0.0
  0
LINE
  5
ED13
330
1F
100
AcDbEntity
  8
AM_7
 48
0.4330553054809457
100
AcDbLine
 10
623.525646160806
 20
1451.937279642294
 30
0.0
 11
632.186752270425
 21
1451.937279642294
 31
0.0
  0
LINE
  5
ED14
330
1F
100
AcDbEntity
  8
AM_0
100
AcDbLine
 10
630.4041480528959
 20
1426.937283456991
 30
0.0
 11
630.4041480528959
 21
1451.937279642294
 31
0.0
  0
LINE
  5
ED15
330
1F
100
AcDbEntity
  8
AM_0
100
AcDbLine
 10
625.304149578775
 20
1426.937283456991
 30
0.0
 11
625.304149578775
 21
1451.937279642294
 31
0.0
  0
LINE
  5
ED16
330
1F
100
AcDbEntity
  8
AM_7
 48
0.2865615844726563
100
AcDbLine
 10
615.7210158812651
 20
1363.737282694053
 30
0.0
 11
621.4522475707182
 21
1363.737282694053
 31
0.0
  0
LINE
  5
ED17
330
1F
100
AcDbEntity
  8
AM_0
 48
0.5
100
AcDbLine
 10
616.8541488158361
 20
1358.737282694053
 30
0.0
 11
616.8541488158361
 21
1368.737282694053
 31
0.0
  0
LINE
  5
ED18
330
1F
100
AcDbEntity
  8
AM_0
 48
0.15
100
AcDbLine
 10
616.8541488158361
 20
1368.737282694053
 30
0.0
 11
619.1541518675932
 21
1368.737282694053
 31
0.0
  0
LINE
  5
ED19
330
1F
100
AcDbEntity
  8
AM_0
 48
0.15
100
AcDbLine
 10
616.8541488158361
 20
1358.737282694053
 30
0.0
 11
619.1541518675932
 21
1358.737282694053
 31
0.0
  0
LINE
  5
ED1A
330
1F
100
AcDbEntity
  8
AM_0
 48
0.5
100
AcDbLine
 10
619.1541518675932
 20
1358.737282694053
 30
0.0
 11
619.1541518675932
 21
1368.737282694053
 31
0.0
  0
LINE
  5
ED1B
330
1F
100
AcDbEntity
  8
AM_7
 48
0.4464561462399957
100
AcDbLine
 10
579.054145764078
 20
1337.916405618863
 30
0.0
 11
579.054145764078
 21
1346.845528543663
 31
0.0
  0
LINE
  5
ED1C
330
1F
100
AcDbEntity
  8
AM_7
 48
0.4678558349609944
100
AcDbLine
 10
582.054145764078
 20
1337.622704446983
 30
0.0
 11
582.054145764078
 21
1346.979821146202
 31
0.0
  0
LINE
  5
ED1D
330
1F
100
AcDbEntity
  8
AM_0
 48
0.15
100
AcDbLine
 10
579.054145764078
 20
1345.287285745813
 30
0.0
 11
582.054145764078
 21
1345.287285745813
 31
0.0
  0
LINE
  5
ED1E
330
1F
100
AcDbEntity
  8
AM_0
 48
0.15
100
AcDbLine
 10
579.054145764078
 20
1340.187279642303
 30
0.0
 11
582.054145764078
 21
1340.187279642303
 31
0.0
  0
LINE
  5
ED1F
330
1F
100
AcDbEntity
  8
AM_0
 48
0.4
100
AcDbLine
 10
634.854148815836
 20
1338.737282694053
 30
0.0
 11
634.854148815836
 21
1346.737282694053
 31
0.0
  0
LINE
  5
ED20
330
1F
100
AcDbEntity
  8
AM_0
 48
0.15
100
AcDbLine
 10
634.854148815836
 20
1338.737282694053
 30
0.0
 11
636.8541488158361
 21
1338.737282694053
 31
0.0
  0
LINE
  5
ED21
330
1F
100
AcDbEntity
  8
AM_0
 48
0.15
100
AcDbLine
 10
634.854148815836
 20
1346.737282694053
 30
0.0
 11
636.8541488158361
 21
1346.737282694053
 31
0.0
  0
LINE
  5
ED22
330
1F
100
AcDbEntity
  8
AM_0
 48
0.4
100
AcDbLine
 10
636.8541488158361
 20
1338.737282694053
 30
0.0
 11
636.8541488158361
 21
1346.737282694053
 31
0.0
  0
LINE
  5
ED23
330
1F
100
AcDbEntity
  8
AM_0
 48
0.255000305175497
100
AcDbLine
 10
628.3541488158361
 20
1340.187279642303
 30
0.0
 11
628.3541488158361
 21
1345.287285745813
 31
0.0
  0
LINE
  5
ED24
330
1F
100
AcDbEntity
  8
AM_0
 48
0.255000305175497
100
AcDbLine
 10
613.354148815836
 20
1340.187279642303
 30
0.0
 11
613.354148815836
 21
1345.287285745813
 31
0.0
  0
LINE
  5
ED25
330
1F
100
AcDbEntity
  8
AM_0
 48
0.75
100
AcDbLine
 10
613.354148815836
 20
1340.187279642303
 30
0.0
 11
628.3541488158361
 21
1340.187279642303
 31
0.0
  0
LINE
  5
ED26
330
1F
100
AcDbEntity
  8
AM_0
 48
0.75
100
AcDbLine
 10
613.354148815836
 20
1345.287285745813
 30
0.0
 11
628.3541488158361
 21
1345.287285745813
 31
0.0
  0
LINE
  5
ED27
330
1F
100
AcDbEntity
  8
AM_0
 48
0.255000305175497
100
AcDbLine
 10
586.8541488158361
 20
1280.187279642303
 30
0.0
 11
586.8541488158361
 21
1285.287285745813
 31
0.0
  0
LINE
  5
ED28
330
1F
100
AcDbEntity
  8
AM_0
 48
0.255000305175497
100
AcDbLine
 10
614.854148815836
 20
1280.187279642303
 30
0.0
 11
614.854148815836
 21
1285.287285745813
 31
0.0
  0
LINE
  5
ED29
330
1F
100
AcDbEntity
  8
AM_0
100
AcDbLine
 10
586.8541488158361
 20
1280.187279642303
 30
0.0
 11
614.854148815836
 21
1280.187279642303
 31
0.0
  0
LINE
  5
ED2A
330
1F
100
AcDbEntity
  8
AM_0
100
AcDbLine
 10
586.8541488158361
 20
1285.287285745813
 30
0.0
 11
614.854148815836
 21
1285.287285745813
 31
0.0
  0
LINE
  5
ED2B
330
1F
100
AcDbEntity
  8
AM_7
 48
0.4744766235354973
100
AcDbLine
 10
679.3541507231831
 20
1283.281701029013
 30
0.0
 11
679.3541507231831
 21
1292.771233499723
 31
0.0
  0
LINE
  5
ED2C
330
1F
100
AcDbEntity
  8
AM_7
 48
0.5302570343017465
100
AcDbLine
 10
674.2569827544331
 20
1287.737282694053
 30
0.0
 11
684.8621234404681
 21
1287.737282694053
 31
0.0
  0
LINE
  5
ED2D
330
1F
100
AcDbEntity
  8
AM_7
 48
0.4730885505675815
100
AcDbLine
 10
649.09175486442
 20
1399.737282694052
 30
0.0
 11
658.5535258757716
 21
1399.737282694052
 31
0.0
  0
LINE
  5
ED2E
330
1F
100
AcDbEntity
  8
AM_7
 48
0.5019992828369028
100
AcDbLine
 10
653.8541488158351
 20
1394.828865946005
 30
0.0
 11
653.8541488158351
 21
1404.868851602742
 31
0.0
  0
LINE
  5
ED2F
330
1F
100
AcDbEntity
  8
AM_0
100
AcDbLine
 10
625.304149578775
 20
1234.737282694053
 30
0.0
 11
625.304149578775
 21
1259.737282694053
 31
0.0
  0
LINE
  5
ED30
330
1F
100
AcDbEntity
  8
AM_0
100
AcDbLine
 10
630.4041480528959
 20
1234.737282694053
 30
0.0
 11
630.4041480528959
 21
1259.737282694053
 31
0.0
  0
LINE
  5
ED31
330
1F
100
AcDbEntity
  8
AM_0
 48
0.4
100
AcDbLine
 10
649.604148815836
 20
1227.237282694053
 30
0.0
 11
649.604148815836
 21
1235.237282694053
 31
0.0
  0
LINE
  5
ED32
330
1F
100
AcDbEntity
  8
AM_0
 48
0.4
100
AcDbLine
 10
606.1041488158361
 20
1237.237282694053
 30
0.0
 11
606.1041488158361
 21
1245.237282694053
 31
0.0
  0
LINE
  5
ED33
330
1F
100
AcDbEntity
  8
AM_0
 48
0.15
100
AcDbLine
 10
606.1041488158361
 20
1263.237282694053
 30
0.0
 11
608.604148815836
 21
1263.237282694053
 31
0.0
  0
LINE
  5
ED34
330
1F
100
AcDbEntity
  8
AM_0
 48
0.15
100
AcDbLine
 10
606.1041488158361
 20
1255.237282694053
 30
0.0
 11
608.604148815836
 21
1255.237282694053
 31
0.0
  0
LINE
  5
ED35
330
1F
100
AcDbEntity
  8
AM_0
 48
0.15
100
AcDbLine
 10
606.1041488158361
 20
1245.237282694053
 30
0.0
 11
608.604148815836
 21
1245.237282694053
 31
0.0
  0
LINE
  5
ED36
330
1F
100
AcDbEntity
  8
AM_0
 48
0.15
100
AcDbLine
 10
606.1041488158361
 20
1237.237282694053
 30
0.0
 11
608.604148815836
 21
1237.237282694053
 31
0.0
  0
LINE
  5
ED37
330
1F
100
AcDbEntity
  8
AM_0
 48
0.4
100
AcDbLine
 10
608.604148815836
 20
1237.237282694053
 30
0.0
 11
608.604148815836
 21
1245.237282694053
 31
0.0
  0
LINE
  5
ED38
330
1F
100
AcDbEntity
  8
AM_0
 48
0.4
100
AcDbLine
 10
606.1041488158361
 20
1255.237282694053
 30
0.0
 11
606.1041488158361
 21
1263.237282694053
 31
0.0
  0
LINE
  5
ED39
330
1F
100
AcDbEntity
  8
AM_0
 48
0.4
100
AcDbLine
 10
608.604148815836
 20
1255.237282694053
 30
0.0
 11
608.604148815836
 21
1263.237282694053
 31
0.0
  0
LINE
  5
ED3A
330
1F
100
AcDbEntity
  8
AM_0
 48
0.4
100
AcDbLine
 10
647.1041488158361
 20
1227.237282694053
 30
0.0
 11
647.1041488158361
 21
1235.237282694053
 31
0.0
  0
LINE
  5
ED3B
330
1F
100
AcDbEntity
  8
AM_0
 48
0.15
100
AcDbLine
 10
647.1041488158361
 20
1253.237282694053
 30
0.0
 11
649.604148815836
 21
1253.237282694053
 31
0.0
  0
LINE
  5
ED3C
330
1F
100
AcDbEntity
  8
AM_0
 48
0.15
100
AcDbLine
 10
647.1041488158361
 20
1245.237282694053
 30
0.0
 11
649.604148815836
 21
1245.237282694053
 31
0.0
  0
LINE
  5
ED3D
330
1F
100
AcDbEntity
  8
AM_0
 48
0.15
100
AcDbLine
 10
647.1041488158361
 20
1235.237282694053
 30
0.0
 11
649.604148815836
 21
1235.237282694053
 31
0.0
  0
LINE
  5
ED3E
330
1F
100
AcDbEntity
  8
AM_0
 48
0.15
100
AcDbLine
 10
647.1041488158361
 20
1227.237282694053
 30
0.0
 11
649.604148815836
 21
1227.237282694053
 31
0.0
  0
LINE
  5
ED3F
330
1F
100
AcDbEntity
  8
AM_0
 48
0.4
100
AcDbLine
 10
647.1041488158361
 20
1245.237282694053
 30
0.0
 11
647.1041488158361
 21
1253.237282694053
 31
0.0
  0
LINE
  5
ED40
330
1F
100
AcDbEntity
  8
AM_0
 48
0.4
100
AcDbLine
 10
649.604148815836
 20
1245.237282694053
 30
0.0
 11
649.604148815836
 21
1253.237282694053
 31
0.0
  0
LINE
  5
ED41
330
1F
100
AcDbEntity
  8
AM_2
 48
0.15
100
AcDbLine
 10
654.3541488158352
 20
1397.737282694052
 30
0.0
 11
654.3541488158352
 21
1398.237282694052
 31
0.0
  0
LINE
  5
ED42
330
1F
100
AcDbEntity
  8
AM_2
 48
0.15
100
AcDbLine
 10
653.3541488158361
 20
1397.737282694052
 30
0.0
 11
653.3541488158361
 21
1398.237282694052
 31
0.0
  0
LINE
  5
ED43
330
1F
100
AcDbEntity
  8
AM_2
 48
0.15
100
AcDbLine
 10
651.854148815836
 20
1400.237282694052
 30
0.0
 11
652.354148815836
 21
1400.237282694052
 31
0.0
  0
LINE
  5
ED44
330
1F
100
AcDbEntity
  8
AM_2
 48
0.15
100
AcDbLine
 10
651.854148815836
 20
1399.237282694052
 30
0.0
 11
652.354148815836
 21
1399.237282694052
 31
0.0
  0
LINE
  5
ED45
330
1F
100
AcDbEntity
  8
AM_2
 48
0.15
100
AcDbLine
 10
651.854148815836
 20
1399.237282694052
 30
0.0
 11
651.854148815836
 21
1400.237282694052
 31
0.0
  0
LINE
  5
ED46
330
1F
100
AcDbEntity
  8
AM_2
 48
0.15
100
AcDbLine
 10
655.8541488158351
 20
1399.237282694052
 30
0.0
 11
655.8541488158351
 21
1400.237282694052
 31
0.0
  0
LINE
  5
ED47
330
1F
100
AcDbEntity
  8
AM_2
 48
0.15
100
AcDbLine
 10
653.3541488158361
 20
1397.737282694052
 30
0.0
 11
654.3541488158352
 21
1397.737282694052
 31
0.0
  0
LINE
  5
ED48
330
1F
100
AcDbEntity
  8
AM_2
 48
0.15
100
AcDbLine
 10
653.3541488158361
 20
1401.737282694052
 30
0.0
 11
654.3541488158352
 21
1401.737282694052
 31
0.0
  0
LINE
  5
ED49
330
1F
100
AcDbEntity
  8
AM_2
 48
0.15
100
AcDbLine
 10
653.3541488158361
 20
1401.237282694052
 30
0.0
 11
653.3541488158361
 21
1401.737282694052
 31
0.0
  0
LINE
  5
ED4A
330
1F
100
AcDbEntity
  8
AM_2
 48
0.15
100
AcDbLine
 10
654.3541488158352
 20
1401.237282694052
 30
0.0
 11
654.3541488158352
 21
1401.737282694052
 31
0.0
  0
LINE
  5
ED4B
330
1F
100
AcDbEntity
  8
AM_2
 48
0.15
100
AcDbLine
 10
655.3541488158352
 20
1400.237282694052
 30
0.0
 11
655.8541488158351
 21
1400.237282694052
 31
0.0
  0
LINE
  5
ED4C
330
1F
100
AcDbEntity
  8
AM_2
 48
0.15
100
AcDbLine
 10
655.3541488158352
 20
1399.237282694052
 30
0.0
 11
655.8541488158351
 21
1399.237282694052
 31
0.0
  0
LINE
  5
ED4D
330
1F
100
AcDbEntity
  8
AM_7
 48
0.4730884075164795
100
AcDbLine
 10
663.0917586791164
 20
1264.737282694053
 30
0.0
 11
672.553526829446
 21
1264.737282694053
 31
0.0
  0
LINE
  5
ED4E
330
1F
100
AcDbEntity
  8
AM_7
 48
0.5019996643065042
100
AcDbLine
 10
667.8541507231837
 20
1259.828865946013
 30
0.0
 11
667.8541507231837
 21
1269.868859232143
 31
0.0
  0
LINE
  5
ED4F
330
1F
100
AcDbEntity
  8
AM_2
 48
0.15
100
AcDbLine
 10
668.3541507231837
 20
1262.737282694053
 30
0.0
 11
668.3541507231837
 21
1263.237282694053
 31
0.0
  0
LINE
  5
ED50
330
1F
100
AcDbEntity
  8
AM_2
 48
0.15
100
AcDbLine
 10
667.3541507231838
 20
1262.737282694053
 30
0.0
 11
667.3541507231838
 21
1263.237282694053
 31
0.0
  0
LINE
  5
ED51
330
1F
100
AcDbEntity
  8
AM_2
 48
0.15
100
AcDbLine
 10
665.8541507231838
 20
1265.237282694053
 30
0.0
 11
666.3541507231838
 21
1265.237282694053
 31
0.0
  0
LINE
  5
ED52
330
1F
100
AcDbEntity
  8
AM_2
 48
0.15
100
AcDbLine
 10
665.8541507231838
 20
1264.237282694053
 30
0.0
 11
666.3541507231838
 21
1264.237282694053
 31
0.0
  0
LINE
  5
ED53
330
1F
100
AcDbEntity
  8
AM_2
 48
0.15
100
AcDbLine
 10
665.8541507231838
 20
1264.237282694053
 30
0.0
 11
665.8541507231838
 21
1265.237282694053
 31
0.0
  0
LINE
  5
ED54
330
1F
100
AcDbEntity
  8
AM_2
 48
0.15
100
AcDbLine
 10
669.8541507231838
 20
1264.237282694053
 30
0.0
 11
669.8541507231838
 21
1265.237282694053
 31
0.0
  0
LINE
  5
ED55
330
1F
100
AcDbEntity
  8
AM_2
 48
0.15
100
AcDbLine
 10
667.3541507231838
 20
1262.737282694053
 30
0.0
 11
668.3541507231837
 21
1262.737282694053
 31
0.0
  0
LINE
  5
ED56
330
1F
100
AcDbEntity
  8
AM_2
 48
0.15
100
AcDbLine
 10
667.3541507231838
 20
1266.737282694053
 30
0.0
 11
668.3541507231837
 21
1266.737282694053
 31
0.0
  0
LINE
  5
ED57
330
1F
100
AcDbEntity
  8
AM_2
 48
0.15
100
AcDbLine
 10
667.3541507231838
 20
1266.237282694053
 30
0.0
 11
667.3541507231838
 21
1266.737282694053
 31
0.0
  0
LINE
  5
ED58
330
1F
100
AcDbEntity
  8
AM_2
 48
0.15
100
AcDbLine
 10
668.3541507231837
 20
1266.237282694053
 30
0.0
 11
668.3541507231837
 21
1266.737282694053
 31
0.0
  0
LINE
  5
ED59
330
1F
100
AcDbEntity
  8
AM_2
 48
0.15
100
AcDbLine
 10
669.3541507231838
 20
1265.237282694053
 30
0.0
 11
669.8541507231838
 21
1265.237282694053
 31
0.0
  0
LINE
  5
ED5A
330
1F
100
AcDbEntity
  8
AM_2
 48
0.15
100
AcDbLine
 10
669.3541507231838
 20
1264.237282694053
 30
0.0
 11
669.8541507231838
 21
1264.237282694053
 31
0.0
  0
LINE
  5
ED5B
330
1F
100
AcDbEntity
  8
AM_7
 48
0.4730884552002067
100
AcDbLine
 10
579.291755627359
 20
1433.737282694052
 30
0.0
 11
588.7535247313632
 21
1433.737282694052
 31
0.0
  0
LINE
  5
ED5C
330
1F
100
AcDbEntity
  8
AM_7
 48
0.5019992828369141
100
AcDbLine
 10
584.054145764078
 20
1428.828865946005
 30
0.0
 11
584.054145764078
 21
1438.868851602743
 31
0.0
  0
LINE
  5
ED5D
330
1F
100
AcDbEntity
  8
AM_2
 48
0.15
100
AcDbLine
 10
584.554145764078
 20
1431.737282694052
 30
0.0
 11
584.554145764078
 21
1432.237282694052
 31
0.0
  0
LINE
  5
ED5E
330
1F
100
AcDbEntity
  8
AM_2
 48
0.15
100
AcDbLine
 10
583.554145764078
 20
1431.737282694052
 30
0.0
 11
583.554145764078
 21
1432.237282694052
 31
0.0
  0
LINE
  5
ED5F
330
1F
100
AcDbEntity
  8
AM_2
 48
0.15
100
AcDbLine
 10
582.054145764078
 20
1434.237282694052
 30
0.0
 11
582.554145764078
 21
1434.237282694052
 31
0.0
  0
LINE
  5
ED60
330
1F
100
AcDbEntity
  8
AM_2
 48
0.15
100
AcDbLine
 10
582.054145764078
 20
1433.237282694052
 30
0.0
 11
582.554145764078
 21
1433.237282694052
 31
0.0
  0
LINE
  5
ED61
330
1F
100
AcDbEntity
  8
AM_2
 48
0.15
100
AcDbLine
 10
582.054145764078
 20
1433.237282694052
 30
0.0
 11
582.054145764078
 21
1434.237282694052
 31
0.0
  0
LINE
  5
ED62
330
1F
100
AcDbEntity
  8
AM_2
 48
0.15
100
AcDbLine
 10
586.054145764078
 20
1433.237282694052
 30
0.0
 11
586.054145764078
 21
1434.237282694052
 31
0.0
  0
LINE
  5
ED63
330
1F
100
AcDbEntity
  8
AM_2
 48
0.15
100
AcDbLine
 10
583.554145764078
 20
1431.737282694052
 30
0.0
 11
584.554145764078
 21
1431.737282694052
 31
0.0
  0
LINE
  5
ED64
330
1F
100
AcDbEntity
  8
AM_2
 48
0.15
100
AcDbLine
 10
583.554145764078
 20
1435.737282694052
 30
0.0
 11
584.554145764078
 21
1435.737282694052
 31
0.0
  0
LINE
  5
ED65
330
1F
100
AcDbEntity
  8
AM_2
 48
0.15
100
AcDbLine
 10
583.554145764078
 20
1435.237282694052
 30
0.0
 11
583.554145764078
 21
1435.737282694052
 31
0.0
  0
LINE
  5
ED66
330
1F
100
AcDbEntity
  8
AM_2
 48
0.15
100
AcDbLine
 10
584.554145764078
 20
1435.237282694052
 30
0.0
 11
584.554145764078
 21
1435.737282694052
 31
0.0
  0
LINE
  5
ED67
330
1F
100
AcDbEntity
  8
AM_2
 48
0.15
100
AcDbLine
 10
585.554145764078
 20
1434.237282694052
 30
0.0
 11
586.054145764078
 21
1434.237282694052
 31
0.0
  0
LINE
  5
ED68
330
1F
100
AcDbEntity
  8
AM_2
 48
0.15
100
AcDbLine
 10
585.554145764078
 20
1433.237282694052
 30
0.0
 11
586.054145764078
 21
1433.237282694052
 31
0.0
  0
LINE
  5
ED69
330
1F
100
AcDbEntity
  8
AM_7
 48
0.4730884552001954
100
AcDbLine
 10
577.291755627359
 20
1232.737282694053
 30
0.0
 11
586.753524731363
 21
1232.737282694053
 31
0.0
  0
LINE
  5
ED6A
330
1F
100
AcDbEntity
  8
AM_7
 48
0.5019996643065042
100
AcDbLine
 10
582.054145764078
 20
1227.828865946013
 30
0.0
 11
582.054145764078
 21
1237.868859232143
 31
0.0
  0
LINE
  5
ED6B
330
1F
100
AcDbEntity
  8
AM_2
 48
0.15
100
AcDbLine
 10
582.554145764078
 20
1230.737282694053
 30
0.0
 11
582.554145764078
 21
1231.237282694053
 31
0.0
  0
LINE
  5
ED6C
330
1F
100
AcDbEntity
  8
AM_2
 48
0.15
100
AcDbLine
 10
581.554145764078
 20
1230.737282694053
 30
0.0
 11
581.554145764078
 21
1231.237282694053
 31
0.0
  0
LINE
  5
ED6D
330
1F
100
AcDbEntity
  8
AM_2
 48
0.15
100
AcDbLine
 10
580.054145764078
 20
1233.237282694053
 30
0.0
 11
580.554145764078
 21
1233.237282694053
 31
0.0
  0
LINE
  5
ED6E
330
1F
100
AcDbEntity
  8
AM_2
 48
0.15
100
AcDbLine
 10
580.054145764078
 20
1232.237282694053
 30
0.0
 11
580.554145764078
 21
1232.237282694053
 31
0.0
  0
LINE
  5
ED6F
330
1F
100
AcDbEntity
  8
AM_2
 48
0.15
100
AcDbLine
 10
580.054145764078
 20
1232.237282694053
 30
0.0
 11
580.054145764078
 21
1233.237282694053
 31
0.0
  0
LINE
  5
ED70
330
1F
100
AcDbEntity
  8
AM_2
 48
0.15
100
AcDbLine
 10
584.054145764078
 20
1232.237282694053
 30
0.0
 11
584.054145764078
 21
1233.237282694053
 31
0.0
  0
LINE
  5
ED71
330
1F
100
AcDbEntity
  8
AM_2
 48
0.15
100
AcDbLine
 10
581.554145764078
 20
1230.737282694053
 30
0.0
 11
582.554145764078
 21
1230.737282694053
 31
0.0
  0
LINE
  5
ED72
330
1F
100
AcDbEntity
  8
AM_2
 48
0.15
100
AcDbLine
 10
581.554145764078
 20
1234.737282694053
 30
0.0
 11
582.554145764078
 21
1234.737282694053
 31
0.0
  0
LINE
  5
ED73
330
1F
100
AcDbEntity
  8
AM_2
 48
0.15
100
AcDbLine
 10
581.554145764078
 20
1234.237282694053
 30
0.0
 11
581.554145764078
 21
1234.737282694053
 31
0.0
  0
LINE
  5
ED74
330
1F
100
AcDbEntity
  8
AM_2
 48
0.15
100
AcDbLine
 10
582.554145764078
 20
1234.237282694053
 30
0.0
 11
582.554145764078
 21
1234.737282694053
 31
0.0
  0
LINE
  5
ED75
330
1F
100
AcDbEntity
  8
AM_2
 48
0.15
100
AcDbLine
 10
583.554145764078
 20
1233.237282694053
 30
0.0
 11
584.054145764078
 21
1233.237282694053
 31
0.0
  0
LINE
  5
ED76
330
1F
100
AcDbEntity
  8
AM_2
 48
0.15
100
AcDbLine
 10
583.554145764078
 20
1232.237282694053
 30
0.0
 11
584.054145764078
 21
1232.237282694053
 31
0.0
  0
LINE
  5
ED77
330
1F
100
AcDbEntity
  8
AM_7
 48
0.4730884552001954
100
AcDbLine
 10
679.0917586791161
 20
1376.737282694053
 30
0.0
 11
688.5535277831201
 21
1376.737282694053
 31
0.0
  0
LINE
  5
ED78
330
1F
100
AcDbEntity
  8
AM_7
 48
0.5019992828364935
100
AcDbLine
 10
683.854150723183
 20
1371.828865946013
 30
0.0
 11
683.854150723183
 21
1381.868851602743
 31
0.0
  0
LINE
  5
ED79
330
1F
100
AcDbEntity
  8
AM_2
 48
0.15
100
AcDbLine
 10
684.3541507231831
 20
1374.737282694053
 30
0.0
 11
684.3541507231831
 21
1375.237282694053
 31
0.0
  0
LINE
  5
ED7A
330
1F
100
AcDbEntity
  8
AM_2
 48
0.15
100
AcDbLine
 10
683.3541507231831
 20
1374.737282694053
 30
0.0
 11
683.3541507231831
 21
1375.237282694053
 31
0.0
  0
LINE
  5
ED7B
330
1F
100
AcDbEntity
  8
AM_2
 48
0.15
100
AcDbLine
 10
681.8541507231831
 20
1377.237282694053
 30
0.0
 11
682.3541507231831
 21
1377.237282694053
 31
0.0
  0
LINE
  5
ED7C
330
1F
100
AcDbEntity
  8
AM_2
 48
0.15
100
AcDbLine
 10
681.8541507231831
 20
1376.237282694053
 30
0.0
 11
682.3541507231831
 21
1376.237282694053
 31
0.0
  0
LINE
  5
ED7D
330
1F
100
AcDbEntity
  8
AM_2
 48
0.15
100
AcDbLine
 10
681.8541507231831
 20
1376.237282694053
 30
0.0
 11
681.8541507231831
 21
1377.237282694053
 31
0.0
  0
LINE
  5
ED7E
330
1F
100
AcDbEntity
  8
AM_2
 48
0.15
100
AcDbLine
 10
685.8541507231831
 20
1376.237282694053
 30
0.0
 11
685.8541507231831
 21
1377.237282694053
 31
0.0
  0
LINE
  5
ED7F
330
1F
100
AcDbEntity
  8
AM_2
 48
0.15
100
AcDbLine
 10
683.3541507231831
 20
1374.737282694053
 30
0.0
 11
684.3541507231831
 21
1374.737282694053
 31
0.0
  0
LINE
  5
ED80
330
1F
100
AcDbEntity
  8
AM_2
 48
0.15
100
AcDbLine
 10
683.3541507231831
 20
1378.737282694053
 30
0.0
 11
684.3541507231831
 21
1378.737282694053
 31
0.0
  0
LINE
  5
ED81
330
1F
100
AcDbEntity
  8
AM_2
 48
0.15
100
AcDbLine
 10
683.3541507231831
 20
1378.237282694053
 30
0.0
 11
683.3541507231831
 21
1378.737282694053
 31
0.0
  0
LINE
  5
ED82
330
1F
100
AcDbEntity
  8
AM_2
 48
0.15
100
AcDbLine
 10
684.3541507231831
 20
1378.237282694053
 30
0.0
 11
684.3541507231831
 21
1378.737282694053
 31
0.0
  0
LINE
  5
ED83
330
1F
100
AcDbEntity
  8
AM_2
 48
0.15
100
AcDbLine
 10
685.3541507231831
 20
1377.237282694053
 30
0.0
 11
685.8541507231831
 21
1377.237282694053
 31
0.0
  0
LINE
  5
ED84
330
1F
100
AcDbEntity
  8
AM_2
 48
0.15
100
AcDbLine
 10
685.3541507231831
 20
1376.237282694053
 30
0.0
 11
685.8541507231831
 21
1376.237282694053
 31
0.0
  0
CIRCLE
  5
ED86
330
1F
100
AcDbEntity
  8
AM_0
 48
0.55
100
AcDbCircle
 10
676.8541507231831
 20
1387.737282694053
 30
0.0
 40
5.5
  0
ARC
  5
ED87
330
1F
100
AcDbEntity
  8
AM_0
 48
0.3
100
AcDbCircle
 10
627.854148815836
 20
1451.937279642294
 30
0.0
 40
2.5499999523163
100
AcDbArc
 50
359.9999974955182
 51
180.0000025044817
  0
ARC
  5
ED88
330
1F
100
AcDbEntity
  8
AM_0
 48
0.3
100
AcDbCircle
 10
627.854148815836
 20
1426.937283456991
 30
0.0
 40
2.5499999523163
100
AcDbArc
 50
180.0000025044817
 51
0.0000006832429909
  0
ARC
  5
ED89
330
1F
100
AcDbEntity
  8
AM_0
 48
0.3
100
AcDbCircle
 10
579.054145764078
 20
1342.737282694053
 30
0.0
 40
2.5499999523163
100
AcDbArc
 50
90.0
 51
270.0000050089504
  0
ARC
  5
ED8A
330
1F
100
AcDbEntity
  8
AM_0
 48
0.3
100
AcDbCircle
 10
582.054145764078
 20
1342.737282694053
 30
0.0
 40
2.5499999523163
100
AcDbArc
 50
269.9999913485721
 51
90.00001001791391
  0
CIRCLE
  5
ED8B
330
1F
100
AcDbEntity
  8
AM_0
 48
0.4
100
AcDbCircle
 10
679.3541507231831
 20
1287.737282694053
 30
0.0
 40
2.599999904632599
  0
ARC
  5
ED8C
330
1F
100
AcDbEntity
  8
AM_0
 48
0.3
100
AcDbCircle
 10
627.854148815836
 20
1259.737282694053
 30
0.0
 40
2.5499999523163
100
AcDbArc
 50
359.9999974955182
 51
180.0000025044817
  0
ARC
  5
ED8D
330
1F
100
AcDbEntity
  8
AM_0
 48
0.3
100
AcDbCircle
 10
627.854148815836
 20
1234.737282694053
 30
0.0
 40
2.5499999523163
100
AcDbArc
 50
180.0000025044817
 51
0.0000006832429909
  0
ARC
  5
ED8E
330
1F
100
AcDbEntity
  8
AM_2
 48
0.3
100
AcDbCircle
 10
652.354148815836
 20
1398.237282694052
 30
0.0
 40
1.0
100
AcDbArc
 50
359.9999974955182
 51
90.0
  0
ARC
  5
ED8F
330
1F
100
AcDbEntity
  8
AM_2
 48
0.3
100
AcDbCircle
 10
655.3541488158352
 20
1398.237282694052
 30
0.0
 40
1.0
100
AcDbArc
 50
90.0
 51
180.0000025044817
  0
ARC
  5
ED90
330
1F
100
AcDbEntity
  8
AM_2
 48
0.3
100
AcDbCircle
 10
655.3541488158352
 20
1401.237282694052
 30
0.0
 40
1.0
100
AcDbArc
 50
180.0000025044817
 51
270.0000050089504
  0
ARC
  5
ED91
330
1F
100
AcDbEntity
  8
AM_2
 48
0.3
100
AcDbCircle
 10
652.354148815836
 20
1401.237282694052
 30
0.0
 40
1.0
100
AcDbArc
 50
269.9999913485721
 51
0.0000006832429909
  0
ARC
  5
ED92
330
1F
100
AcDbEntity
  8
AM_2
 48
0.3
100
AcDbCircle
 10
666.3541507231838
 20
1263.237282694053
 30
0.0
 40
1.0
100
AcDbArc
 50
359.9999974955182
 51
90.0
  0
ARC
  5
ED93
330
1F
100
AcDbEntity
  8
AM_2
 48
0.3
100
AcDbCircle
 10
669.3541507231838
 20
1263.237282694053
 30
0.0
 40
1.0
100
AcDbArc
 50
90.0
 51
180.0000025044817
  0
ARC
  5
ED94
330
1F
100
AcDbEntity
  8
AM_2
 48
0.3
100
AcDbCircle
 10
669.3541507231838
 20
1266.237282694053
 30
0.0
 40
1.0
100
AcDbArc
 50
180.0000025044817
 51
270.0000050089504
  0
ARC
  5
ED95
330
1F
100
AcDbEntity
  8
AM_2
 48
0.3
100
AcDbCircle
 10
666.3541507231838
 20
1266.237282694053
 30
0.0
 40
1.0
100
AcDbArc
 50
269.9999913485721
 51
0.0000006832429909
  0
ARC
  5
ED96
330
1F
100
AcDbEntity
  8
AM_2
 48
0.3
100
AcDbCircle
 10
582.554145764078
 20
1432.237282694052
 30
0.0
 40
1.0
100
AcDbArc
 50
359.9999974955182
 51
90.0
  0
ARC
  5
ED97
330
1F
100
AcDbEntity
  8
AM_2
 48
0.3
100
AcDbCircle
 10
585.554145764078
 20
1432.237282694052
 30
0.0
 40
1.0
100
AcDbArc
 50
90.0
 51
180.0000025044817
  0
ARC
  5
ED98
330
1F
100
AcDbEntity
  8
AM_2
 48
0.3
100
AcDbCircle
 10
585.554145764078
 20
1435.237282694052
 30
0.0
 40
1.0
100
AcDbArc
 50
180.0000025044817
 51
270.0000050089504
  0
ARC
  5
ED99
330
1F
100
AcDbEntity
  8
AM_2
 48
0.3
100
AcDbCircle
 10
582.554145764078
 20
1435.237282694052
 30
0.0
 40
1.0
100
AcDbArc
 50
269.9999913485721
 51
0.0000006832429909
  0
ARC
  5
ED9A
330
1F
100
AcDbEntity
  8
AM_2
 48
0.3
100
AcDbCircle
 10
580.554145764078
 20
1231.237282694053
 30
0.0
 40
1.0
100
AcDbArc
 50
359.9999974955182
 51
90.0
  0
ARC
  5
ED9B
330
1F
100
AcDbEntity
  8
AM_2
 48
0.3
100
AcDbCircle
 10
583.554145764078
 20
1231.237282694053
 30
0.0
 40
1.0
100
AcDbArc
 50
90.0
 51
180.0000025044817
  0
ARC
  5
ED9C
330
1F
100
AcDbEntity
  8
AM_2
 48
0.3
100
AcDbCircle
 10
583.554145764078
 20
1234.237282694053
 30
0.0
 40
1.0
100
AcDbArc
 50
180.0000025044817
 51
270.0000050089504
  0
ARC
  5
ED9D
330
1F
100
AcDbEntity
  8
AM_2
 48
0.3
100
AcDbCircle
 10
580.554145764078
 20
1234.237282694053
 30
0.0
 40
1.0
100
AcDbArc
 50
269.9999913485721
 51
0.0000006832429909
  0
ARC
  5
ED9E
330
1F
100
AcDbEntity
  8
AM_2
 48
0.3
100
AcDbCircle
 10
682.3541507231831
 20
1375.237282694053
 30
0.0
 40
1.0
100
AcDbArc
 50
359.9999974955182
 51
90.0
  0
ARC
  5
ED9F
330
1F
100
AcDbEntity
  8
AM_2
 48
0.3
100
AcDbCircle
 10
685.3541507231831
 20
1375.237282694053
 30
0.0
 40
1.0
100
AcDbArc
 50
90.0
 51
180.0000025044817
  0
ARC
  5
EDA0
330
1F
100
AcDbEntity
  8
AM_2
 48
0.3
100
AcDbCircle
 10
685.3541507231831
 20
1378.237282694053
 30
0.0
 40
1.0
100
AcDbArc
 50
180.0000025044817
 51
270.0000050089504
  0
ARC
  5
EDA1
330
1F
100
AcDbEntity
  8
AM_2
 48
0.3
100
AcDbCircle
 10
682.3541507231831
 20
1378.237282694053
 30
0.0
 40
1.0
100
AcDbArc
 50
269.9999913485721
 51
0.0000006832429909
  0
CIRCLE
  5
EDA2
330
1F
100
AcDbEntity
  8
AM_0
 48
0.4
100
AcDbCircle
 10
627.854148815836
 20
1426.937283456991
 30
0.0
 40
2.5
  0
CIRCLE
  5
EDA3
330
1F
100
AcDbEntity
  8
AM_0
 48
0.4
100
AcDbCircle
 10
627.854148815836
 20
1259.737282694053
 30
0.0
 40
2.5
  0
CIRCLE
  5
EDA4
330
1F
100
AcDbEntity
  8
AM_0
 48
0.4
100
AcDbCircle
 10
582.054145764078
 20
1232.737282694053
 30
0.0
 40
3.0
  0
CIRCLE
  5
EDA5
330
1F
100
AcDbEntity
  8
AM_0
 48
0.4
100
AcDbCircle
 10
667.8541507231837
 20
1264.737282694053
 30
0.0
 40
3.0
  0
CIRCLE
  5
EDA6
330
1F
100
AcDbEntity
  8
AM_0
 48
0.4
100
AcDbCircle
 10
683.854150723183
 20
1376.737282694053
 30
0.0
 40
3.0
  0
CIRCLE
  5
EDA7
330
1F
100
AcDbEntity
  8
AM_0
 48
0.4
100
AcDbCircle
 10
653.8541488158351
 20
1399.737282694052
 30
0.0
 40
3.0
  0
CIRCLE
  5
EDA8
330
1F
100
AcDbEntity
  8
AM_0
 48
0.4
100
AcDbCircle
 10
584.054145764078
 20
1433.737282694052
 30
0.0
 40
3.0
  0
MTEXT
  5
EDA9
330
1F
100
AcDbEntity
  8
AM_6
 48
1.01
100
AcDbMText
 10
408.3475678423311
 20
1440.237286786316
 30
0.0
 40
5.0
 41
0.0
 71
     4
 72
     5
  1
\T0.93;\W0.51;ＤＬ－５５
 11
0.9999999999999992
 21
-0.0000000437114036
 31
0.0
 73
     1
 44
1.0
1001
ACAD
1000
MTEXTBEGIN
1070
    73
1070
     1
1070
    44
1040
1.0
1070
    74
1070
     0
1000
MTEXTEND
  0
ARC
  5
EDAA
330
1F
100
AcDbEntity
  8
AM_0
 48
0.3
100
AcDbCircle
 10
585.854133557046
 20
1326.237252176473
 30
0.0
 40
2.5499999523163
100
AcDbArc
 50
359.9999974955182
 51
180.0000025044817
  0
LINE
  5
EDAB
330
1F
100
AcDbEntity
  8
AM_7
 48
0.6145679473876954
100
AcDbLine
 10
591.999813030923
 20
1326.237252176473
 30
0.0
 11
579.7084540831691
 21
1326.237252176473
 31
0.0
  0
LINE
  5
EDAC
330
1F
100
AcDbEntity
  8
AM_7
100
AcDbLine
 10
585.854133557046
 20
1296.234500133502
 30
0.0
 11
585.854133557046
 21
1332.597737253377
 31
0.0
  0
LINE
  5
EDAD
330
1F
100
AcDbEntity
  8
AM_0
100
AcDbLine
 10
588.404121350016
 20
1301.237252206884
 30
0.0
 11
588.404121350016
 21
1326.237252176473
 31
0.0
  0
LINE
  5
EDAE
330
1F
100
AcDbEntity
  8
AM_0
100
AcDbLine
 10
583.304130505296
 20
1301.237252176476
 30
0.0
 11
583.304130505296
 21
1326.237252176473
 31
0.0
  0
ARC
  5
EDAF
330
1F
100
AcDbEntity
  8
AM_0
 48
0.3
100
AcDbCircle
 10
585.854133557046
 20
1301.237252176476
 30
0.0
 40
2.5499999523163
100
AcDbArc
 50
180.0000025044817
 51
0.0000006832429909
  0
LINE
  5
EDB0
330
1F
100
AcDbEntity
  8
AM_7
 48
0.6145679473876954
100
AcDbLine
 10
591.999813030923
 20
1301.237252176473
 30
0.0
 11
579.7084540831691
 21
1301.237252176473
 31
0.0
  0
ARC
  5
EDB1
330
1F
100
AcDbEntity
  8
AM_0
100
AcDbCircle
 10
636.8541806244285
 20
1387.737313211621
 30
0.0
 40
18.0
100
AcDbArc
 50
67.11461961033093
 51
112.885380389669
  0
LINE
  5
EDB2
330
1F
100
AcDbEntity
  8
AM_0
 48
0.15
100
AcDbLine
 10
643.8541806244285
 20
1403.2292489416
 30
0.0
 11
643.8541806244285
 21
1404.320435465038
 31
0.0
  0
LINE
  5
EDB3
330
1F
100
AcDbEntity
  8
AM_0
 48
0.15
100
AcDbLine
 10
629.8541806244285
 20
1403.2292489416
 30
0.0
 11
629.8541806244285
 21
1404.320435465038
 31
0.0
  0
ARC
  5
EDB4
330
1F
100
AcDbEntity
  8
AM_0
100
AcDbCircle
 10
636.8541806244285
 20
1387.737313211621
 30
0.0
 40
17.0
100
AcDbArc
 50
114.3157398226234
 51
245.6842583561444
  0
LINE
  5
EDB5
330
1F
100
AcDbEntity
  8
AM_0
 48
0.15
100
AcDbLine
 10
629.8541806244285
 20
1371.154190958211
 30
0.0
 11
629.8541806244285
 21
1372.245377481641
 31
0.0
  0
ARC
  5
EDB6
330
1F
100
AcDbEntity
  8
AM_0
100
AcDbCircle
 10
636.8541806244285
 20
1387.737313211621
 30
0.0
 40
18.0
100
AcDbArc
 50
247.1146229117529
 51
292.8853871061678
  0
LINE
  5
EDB7
330
1F
100
AcDbEntity
  8
AM_0
 48
0.15
100
AcDbLine
 10
643.8541806244285
 20
1371.154190958211
 30
0.0
 11
643.8541806244285
 21
1372.245377481641
 31
0.0
  0
ARC
  5
EDB8
330
1F
100
AcDbEntity
  8
AM_0
100
AcDbCircle
 10
636.8541806244285
 20
1387.737313211621
 30
0.0
 40
17.0
100
AcDbArc
 50
294.3157416438556
 51
65.68426017737658
  0
CIRCLE
  5
EDB9
330
1F
100
AcDbEntity
  8
AM_0
 48
0.4
100
AcDbCircle
 10
585.854133557046
 20
1301.237252176473
 30
0.0
 40
2.5
  0
LINE
  5
EDBA
330
1F
100
AcDbEntity
  8
AM_7
 48
0.6145679473876954
100
AcDbLine
 10
633.999828289713
 20
1259.73728269405
 30
0.0
 11
621.7084693419591
 21
1259.73728269405
 31
0.0
  0
LINE
  5
EDBB
330
1F
100
AcDbEntity
  8
AM_7
100
AcDbLine
 10
627.854148815836
 20
1229.734530651079
 30
0.0
 11
627.854148815836
 21
1266.097767770954
 31
0.0
  0
LINE
  5
EDBC
330
1F
100
AcDbEntity
  8
AM_7
 48
0.6145679473876954
100
AcDbLine
 10
633.999828289713
 20
1234.73728269405
 30
0.0
 11
621.7084693419591
 21
1234.73728269405
 31
0.0
  0
CIRCLE
  5
EDBD
330
1F
100
AcDbEntity
  8
AM_0
 48
0.4
100
AcDbCircle
 10
586.854150723186
 20
1354.737284601402
 30
0.0
 40
3.0499999523163
  0
LINE
  5
EDBE
330
1F
100
AcDbEntity
  8
AM_7
 48
0.5908729553222998
100
AcDbLine
 10
586.854150723186
 20
1360.646014154625
 30
0.0
 11
586.854150723186
 21
1348.828555048179
 31
0.0
  0
LINE
  5
EDBF
330
1F
100
AcDbEntity
  8
AM_7
 48
0.5908729553222884
100
AcDbLine
 10
592.7628802764089
 20
1354.737284601402
 30
0.0
 11
580.9454211699631
 21
1354.737284601402
 31
0.0
  0
LINE
  5
EDC0
330
1F
100
AcDbEntity
  8
AM_2
 48
0.15
100
AcDbLine
 10
587.3856563079031
 20
1352.737284601402
 30
0.0
 11
587.3856563079031
 21
1353.237284601402
 31
0.0
  0
LINE
  5
EDC1
330
1F
100
AcDbEntity
  8
AM_2
 48
0.15
100
AcDbLine
 10
586.3856563079031
 20
1352.737284601402
 30
0.0
 11
586.3856563079031
 21
1353.237284601402
 31
0.0
  0
LINE
  5
EDC2
330
1F
100
AcDbEntity
  8
AM_2
 48
0.15
100
AcDbLine
 10
584.8856563079031
 20
1355.237284601402
 30
0.0
 11
585.385656307903
 21
1355.237284601402
 31
0.0
  0
LINE
  5
EDC3
330
1F
100
AcDbEntity
  8
AM_2
 48
0.15
100
AcDbLine
 10
584.8856563079031
 20
1354.237284601402
 30
0.0
 11
585.385656307903
 21
1354.237284601402
 31
0.0
  0
LINE
  5
EDC4
330
1F
100
AcDbEntity
  8
AM_2
 48
0.15
100
AcDbLine
 10
584.8856563079031
 20
1354.237284601402
 30
0.0
 11
584.8856563079031
 21
1355.237284601402
 31
0.0
  0
LINE
  5
EDC5
330
1F
100
AcDbEntity
  8
AM_2
 48
0.15
100
AcDbLine
 10
588.8856563079031
 20
1354.237284601402
 30
0.0
 11
588.8856563079031
 21
1355.237284601402
 31
0.0
  0
LINE
  5
EDC6
330
1F
100
AcDbEntity
  8
AM_2
 48
0.15
100
AcDbLine
 10
586.3856563079031
 20
1352.737284601402
 30
0.0
 11
587.3856563079031
 21
1352.737284601402
 31
0.0
  0
LINE
  5
EDC7
330
1F
100
AcDbEntity
  8
AM_2
 48
0.15
100
AcDbLine
 10
586.3856563079031
 20
1356.737284601402
 30
0.0
 11
587.3856563079031
 21
1356.737284601402
 31
0.0
  0
LINE
  5
EDC8
330
1F
100
AcDbEntity
  8
AM_2
 48
0.15
100
AcDbLine
 10
586.3856563079031
 20
1356.237284601402
 30
0.0
 11
586.3856563079031
 21
1356.737284601402
 31
0.0
  0
LINE
  5
EDC9
330
1F
100
AcDbEntity
  8
AM_2
 48
0.15
100
AcDbLine
 10
587.3856563079031
 20
1356.237284601402
 30
0.0
 11
587.3856563079031
 21
1356.737284601402
 31
0.0
  0
LINE
  5
EDCA
330
1F
100
AcDbEntity
  8
AM_2
 48
0.15
100
AcDbLine
 10
588.3856563079031
 20
1355.237284601402
 30
0.0
 11
588.8856563079031
 21
1355.237284601402
 31
0.0
  0
LINE
  5
EDCB
330
1F
100
AcDbEntity
  8
AM_2
 48
0.15
100
AcDbLine
 10
588.3856563079031
 20
1354.237284601402
 30
0.0
 11
588.8856563079031
 21
1354.237284601402
 31
0.0
  0
ARC
  5
EDCC
330
1F
100
AcDbEntity
  8
AM_2
 48
0.3
100
AcDbCircle
 10
585.385656307903
 20
1353.237284601402
 30
0.0
 40
1.0
100
AcDbArc
 50
359.9999974955182
 51
90.0
  0
ARC
  5
EDCD
330
1F
100
AcDbEntity
  8
AM_2
 48
0.3
100
AcDbCircle
 10
588.3856563079031
 20
1353.237284601402
 30
0.0
 40
1.0
100
AcDbArc
 50
90.0
 51
180.0000025044817
  0
ARC
  5
EDCE
330
1F
100
AcDbEntity
  8
AM_2
 48
0.3
100
AcDbCircle
 10
588.3856563079031
 20
1356.237284601402
 30
0.0
 40
1.0
100
AcDbArc
 50
180.0000025044817
 51
270.0000050089504
  0
ARC
  5
EDCF
330
1F
100
AcDbEntity
  8
AM_2
 48
0.3
100
AcDbCircle
 10
585.385656307903
 20
1356.237284601402
 30
0.0
 40
1.0
100
AcDbArc
 50
269.9999913485721
 51
0.0000006832429909
  0
LINE
  5
EDD0
330
1F
100
AcDbEntity
  8
AM_0
100
AcDbLine
 10
695.254150341714
 20
1169.486489796191
 30
0.0
 11
695.254150341714
 21
1149.286483098604
 31
0.0
  0
LINE
  5
EDD1
330
1F
100
AcDbEntity
  8
AM_0
 48
0.4
100
AcDbLine
 10
640.8541806244285
 20
1476.937313211621
 30
0.0
 11
632.8541806244285
 21
1476.937313211621
 31
0.0
  0
LINE
  5
EDD2
330
1F
100
AcDbEntity
  8
AM_0
 48
0.5999998092651027
100
AcDbLine
 10
642.8541768097305
 20
1475.937313211621
 30
0.0
 11
630.8541806244285
 21
1475.937313211621
 31
0.0
  0
LINE
  5
EDD3
330
1F
100
AcDbEntity
  8
AM_0
 48
0.15
100
AcDbLine
 10
632.8541806244285
 20
1476.937309396924
 30
0.0
 11
630.8541806244285
 21
1475.937309396924
 31
0.0
  0
LINE
  5
EDD4
330
1F
100
AcDbEntity
  8
AM_0
 48
0.15
100
AcDbLine
 10
640.8541729950335
 20
1476.937317026319
 30
0.0
 11
642.8541768097305
 21
1475.937317026319
 31
0.0
  0
LINE
  5
EDD5
330
1F
100
AcDbEntity
  8
AM_0
 48
0.4873395919800032
100
AcDbLine
 10
641.7275746368794
 20
1472.937313211621
 30
0.0
 11
631.9807827972794
 21
1472.937313211621
 31
0.0
  0
LINE
  5
EDD6
330
1F
100
AcDbEntity
  8
AM_0
 48
0.4873395919800032
100
AcDbLine
 10
641.7275746368794
 20
1469.437313211621
 30
0.0
 11
631.9807827972794
 21
1469.437313211621
 31
0.0
  0
LINE
  5
EDD7
330
1F
100
AcDbEntity
  8
AM_0
 48
0.4100000000000023
100
AcDbLine
 10
630.8541806244285
 20
1475.937313211621
 30
0.0
 11
630.8541806244287
 21
1467.737313211621
 31
0.0
  0
LINE
  5
EDD8
330
1F
100
AcDbEntity
  8
AM_0
 48
0.4100000000000023
100
AcDbLine
 10
642.8541768097305
 20
1475.937313211621
 30
0.0
 11
642.8541768097305
 21
1467.737313211621
 31
0.0
  0
LINE
  5
EDD9
330
1F
100
AcDbEntity
  8
AM_0
 48
0.175
100
AcDbLine
 10
631.9807827972794
 20
1472.937313211621
 30
0.0
 11
631.9807827972794
 21
1469.437313211621
 31
0.0
  0
LINE
  5
EDDA
330
1F
100
AcDbEntity
  8
AM_0
 48
0.175
100
AcDbLine
 10
641.7275746368794
 20
1472.937313211621
 30
0.0
 11
641.7275746368794
 21
1469.437313211621
 31
0.0
  0
CIRCLE
  5
EDDB
330
1F
100
AcDbEntity
  8
AM_0
 48
0.6000000000000001
100
AcDbCircle
 10
636.8541793334149
 20
1159.386483080717
 30
0.0
 40
6.0
  0
CIRCLE
  5
EDDC
330
1F
100
AcDbEntity
  8
AM_0
 48
0.4
100
AcDbCircle
 10
636.8541793334149
 20
1159.386483080717
 30
0.0
 40
4.0
  0
LINE
  5
EDDD
330
1F
100
AcDbEntity
  8
AM_0
 48
0.4
100
AcDbLine
 10
640.8541806244285
 20
1208.537313211621
 30
0.0
 11
632.8541806244285
 21
1208.537313211621
 31
0.0
  0
LINE
  5
EDDE
330
1F
100
AcDbEntity
  8
AM_0
 48
0.5999998092651027
100
AcDbLine
 10
642.8541768097305
 20
1209.537313211621
 30
0.0
 11
630.8541806244285
 21
1209.537313211621
 31
0.0
  0
LINE
  5
EDDF
330
1F
100
AcDbEntity
  8
AM_0
 48
0.15
100
AcDbLine
 10
632.8541806244285
 20
1208.537317026318
 30
0.0
 11
630.8541806244285
 21
1209.537317026318
 31
0.0
  0
LINE
  5
EDE0
330
1F
100
AcDbEntity
  8
AM_0
 48
0.15
100
AcDbLine
 10
640.8541729950335
 20
1208.537309396923
 30
0.0
 11
642.8541768097305
 21
1209.537309396923
 31
0.0
  0
LINE
  5
EDE1
330
1F
100
AcDbEntity
  8
AM_0
 48
0.4873395919800032
100
AcDbLine
 10
641.7275746368794
 20
1212.537313211621
 30
0.0
 11
631.9807827972794
 21
1212.537313211621
 31
0.0
  0
LINE
  5
EDE2
330
1F
100
AcDbEntity
  8
AM_0
 48
0.4873395919800032
100
AcDbLine
 10
641.7275746368794
 20
1216.037313211621
 30
0.0
 11
631.9807827972794
 21
1216.037313211621
 31
0.0
  0
LINE
  5
EDE3
330
1F
100
AcDbEntity
  8
AM_0
 48
0.4100000000000023
100
AcDbLine
 10
630.8541806244285
 20
1209.537313211621
 30
0.0
 11
630.8541806244287
 21
1217.737313211621
 31
0.0
  0
LINE
  5
EDE4
330
1F
100
AcDbEntity
  8
AM_0
 48
0.4100000000000023
100
AcDbLine
 10
642.8541768097305
 20
1209.537313211621
 30
0.0
 11
642.8541768097305
 21
1217.737313211621
 31
0.0
  0
LINE
  5
EDE5
330
1F
100
AcDbEntity
  8
AM_0
 48
0.175
100
AcDbLine
 10
631.9807827972794
 20
1212.537313211621
 30
0.0
 11
631.9807827972794
 21
1216.037313211621
 31
0.0
  0
LINE
  5
EDE6
330
1F
100
AcDbEntity
  8
AM_0
 48
0.175
100
AcDbLine
 10
641.7275746368794
 20
1212.537313211621
 30
0.0
 11
641.7275746368794
 21
1216.037313211621
 31
0.0
  0
LINE
  5
EFB6
330
1F
100
AcDbEntity
  8
AM_7
100
AcDbLine
 10
636.8541806244285
 20
1480.937313211621
 30
0.0
 11
636.8541806244285
 21
1204.537313211621
 31
0.0
1001
GENIUS_GENOBJ-N-CEN_13
1002
{
1000
OWNER
1000
GEN
1002
}
1001
GENIUS_GENODEF_13
1002
{
1000
HIER
1070
     0
1002
}
1002
{
1000
MANEDIT
1070
     0
1002
}
1002
{
1000
NOSEL
1070
     0
1002
}
1002
{
1000
BEHIND
1070
     0
1002
}
1002
{
1000
OTHER
1070
     0
1002
}
1002
{
1000
REACTOR
1002
}
1001
GENIUS_GENCEN_19
1002
{
1040
4.0
1002
}
  0
LINE
  5
F513
330
1F
100
AcDbEntity
  8
デットロック-AM_0
 48
0.15
100
AcDbLine
 10
421.9975677469636
 20
1297.737267435261
 30
0.0
 11
421.9975677469636
 21
1296.037236917681
 31
0.0
  0
LINE
  5
F514
330
1F
100
AcDbEntity
  8
デットロック-AM_0
 48
0.15
100
AcDbLine
 10
419.6975677469636
 20
1297.737267435261
 30
0.0
 11
419.6975677469636
 21
1296.037236917681
 31
0.0
  0
LINE
  5
F515
330
1F
100
AcDbEntity
  8
デットロック-AM_0
 48
0.15
100
AcDbLine
 10
409.6975677469636
 20
1297.737267435261
 30
0.0
 11
409.6975677469636
 21
1296.037236917681
 31
0.0
  0
LINE
  5
F516
330
1F
100
AcDbEntity
  8
デットロック-AM_0
 48
0.15
100
AcDbLine
 10
407.3975677469636
 20
1297.737267435261
 30
0.0
 11
407.3975677469636
 21
1296.037236917681
 31
0.0
  0
ARC
  5
F517
330
1F
100
AcDbEntity
  8
デットロック-AM_0
 48
0.3
100
AcDbCircle
 10
421.8975677469636
 20
1276.037236917681
 30
0.0
 40
2.299999999999999
100
AcDbArc
 50
270.0
 51
290.354406398235
1001
GENIUS_GENODEF_13
1002
{
1000
HIER
1070
     0
1002
}
1002
{
1000
MANEDIT
1070
     0
1002
}
1002
{
1000
NOSEL
1070
     0
1002
}
1002
{
1000
BEHIND
1070
     0
1002
}
1002
{
1000
OTHER
1070
     0
1002
}
1002
{
1000
REACTOR
1002
}
1001
GENIUS_GENOBJ-N-FIL_13
1002
{
1000
OWNER
1000
GEN
1002
}
  0
LINE
  5
F518
330
1F
100
AcDbEntity
  8
デットロック-AM_0
 48
0.15
100
AcDbLine
 10
422.6975677469637
 20
1296.037236917681
 30
0.0
 11
421.9975677469636
 21
1296.037236917681
 31
0.0
  0
LINE
  5
F519
330
1F
100
AcDbEntity
  8
デットロック-AM_0
 48
0.875949973912418
100
AcDbLine
 10
421.8975677469636
 20
1276.037236917681
 30
0.0
 11
421.8975677469636
 21
1293.556236395929
 31
0.0
  0
LINE
  5
F51A
330
1F
100
AcDbEntity
  8
デットロック-AM_0
 48
0.875949973912418
100
AcDbLine
 10
407.4975677469636
 20
1276.037236917681
 30
0.0
 11
407.4975677469637
 21
1293.556236395929
 31
0.0
  0
LINE
  5
F51B
330
1F
100
AcDbEntity
  8
デットロック-AM_0
 48
0.15
100
AcDbLine
 10
406.6975677469637
 20
1295.719055099499
 30
0.0
 11
407.3975677469636
 21
1296.037236917681
 31
0.0
  0
ARC
  5
F51C
330
1F
100
AcDbEntity
  8
デットロック-AM_0
 48
0.3
100
AcDbCircle
 10
407.3975677469636
 20
1296.037236917681
 30
0.0
 40
2.299999999999999
100
AcDbArc
 50
294.4439547804206
 51
0.0
1001
GENIUS_GENOBJ-N-FIL_13
1002
{
1000
OWNER
1000
GEN
1002
}
1001
GENIUS_GENODEF_13
1002
{
1000
HIER
1070
     0
1002
}
1002
{
1000
MANEDIT
1070
     0
1002
}
1002
{
1000
NOSEL
1070
     0
1002
}
1002
{
1000
BEHIND
1070
     0
1002
}
1002
{
1000
OTHER
1070
     0
1002
}
1002
{
1000
REACTOR
1002
}
  0
LINE
  5
F51D
330
1F
100
AcDbEntity
  8
デットロック-AM_0
 48
0.15
100
AcDbLine
 10
406.6975677469638
 20
1296.037236917681
 30
0.0
 11
407.3975677469636
 21
1296.037236917681
 31
0.0
  0
LINE
  5
F51E
330
1F
100
AcDbEntity
  8
デットロック-AM_0
 48
0.15
100
AcDbLine
 10
407.4975677469637
 20
1293.556236395929
 30
0.0
 11
408.3493145188563
 21
1293.943394019517
 31
0.0
  0
ARC
  5
F51F
330
1F
100
AcDbEntity
  8
デットロック-AM_0
 48
0.3
100
AcDbCircle
 10
421.9975677469638
 20
1296.037236917681
 30
0.0
 40
2.299999999999999
100
AcDbArc
 50
180.0
 51
245.5560452195794
1001
GENIUS_GENOBJ-N-FIL_13
1002
{
1000
OWNER
1000
GEN
1002
}
1001
GENIUS_GENODEF_13
1002
{
1000
HIER
1070
     0
1002
}
1002
{
1000
MANEDIT
1070
     0
1002
}
1002
{
1000
NOSEL
1070
     0
1002
}
1002
{
1000
BEHIND
1070
     0
1002
}
1002
{
1000
OTHER
1070
     0
1002
}
1002
{
1000
REACTOR
1002
}
  0
LINE
  5
F520
330
1F
100
AcDbEntity
  8
デットロック-AM_0
 48
0.15
100
AcDbLine
 10
422.6975677469637
 20
1295.719055099499
 30
0.0
 11
421.9975677469636
 21
1296.037236917681
 31
0.0
  0
LINE
  5
F521
330
1F
100
AcDbEntity
  8
デットロック-AM_0
 48
0.15
100
AcDbLine
 10
421.8975677469636
 20
1293.556236395929
 30
0.0
 11
421.0458209750709
 21
1293.943394019517
 31
0.0
  0
LINE
  5
F522
330
1F
100
AcDbEntity
  8
デットロック-AM_0
 48
0.7200000000000047
100
AcDbLine
 10
421.8975677469636
 20
1273.737236917681
 30
0.0
 11
407.4975677469636
 21
1273.737236917681
 31
0.0
  0
LINE
  5
F523
330
1F
100
AcDbEntity
  8
デットロック-AM_0
 48
0.7200000000000047
100
AcDbLine
 10
421.8975677469636
 20
1276.037236917681
 30
0.0
 11
407.4975677469636
 21
1276.037236917681
 31
0.0
  0
ARC
  5
F524
330
1F
100
AcDbEntity
  8
デットロック-AM_0
 48
0.3
100
AcDbCircle
 10
407.4975677469636
 20
1276.037236917681
 30
0.0
 40
2.299999999999999
100
AcDbArc
 50
249.645593601765
 51
270.0
1001
GENIUS_GENODEF_13
1002
{
1000
HIER
1070
     0
1002
}
1002
{
1000
MANEDIT
1070
     0
1002
}
1002
{
1000
NOSEL
1070
     0
1002
}
1002
{
1000
BEHIND
1070
     0
1002
}
1002
{
1000
OTHER
1070
     0
1002
}
1002
{
1000
REACTOR
1002
}
1001
GENIUS_GENOBJ-N-FIL_13
1002
{
1000
OWNER
1000
GEN
1002
}
  0
LINE
  5
F526
330
1F
100
AcDbEntity
  8
AM_0
 48
0.8
100
AcDbLine
 10
422.6975677469637
 20
1297.737267435261
 30
0.0
 11
406.6975677469637
 21
1297.737267435261
 31
0.0
  0
LINE
  5
F527
330
1F
100
AcDbEntity
  8
AM_0
 48
0.8
100
AcDbLine
 10
422.6975677469637
 20
1267.737267435261
 30
0.0
 11
406.6975677469637
 21
1267.737267435261
 31
0.0
  0
LINE
  5
F528
330
1F
100
AcDbEntity
  8
AM_0
100
AcDbLine
 10
422.6975677469637
 20
1267.737267435261
 30
0.0
 11
422.6975677469637
 21
1297.737267435261
 31
0.0
  0
LINE
  5
F529
330
1F
100
AcDbEntity
  8
AM_0
100
AcDbLine
 10
406.6975677469637
 20
1267.737267435261
 30
0.0
 11
406.6975677469637
 21
1297.737267435261
 31
0.0
  0
LWPOLYLINE
  5
F52A
330
1F
100
AcDbEntity
  8
トリガー-AM_0
 48
1.01
100
AcDbPolyline
 90
        2
 70
     0
 43
0.0
 10
418.6975677469638
 20
1336.931897263258
 10
418.6975677469638
 20
1348.542668124833
1001
GENIUS_GENREC_14
1002
{
1000
PYDIR
1011
410.6975677469638
1021
1348.737282694051
1031
0.0
1002
}
1002
{
1000
PXDIR
1011
418.6975677469638
1021
1336.737282694051
1031
0.0
1002
}
1002
{
1000
PORI
1011
410.6975677469638
1021
1336.737282694051
1031
0.0
1002
}
1002
{
1000
PINS
1011
414.6975677469638
1021
1342.737282694051
1031
0.0
1002
}
1002
{
1000
HVAL
1000
12
1002
}
1002
{
1000
H
1070
     2
1002
}
1002
{
1000
WVAL
1000
8
1002
}
1002
{
1000
W
1070
     2
1002
}
1002
{
1000
C
1070
     4
1002
}
1001
GENIUS_GENOBJ-N-REC_13
1002
{
1000
OWNER
1000
GEN
1002
}
1001
GENIUS_GENODEF_13
1002
{
1000
HIER
1070
     0
1002
}
1002
{
1000
MANEDIT
1070
     0
1002
}
1002
{
1000
NOSEL
1070
     0
1002
}
1002
{
1000
BEHIND
1070
     0
1002
}
1002
{
1000
OTHER
1070
     0
1002
}
1002
{
1000
REACTOR
1002
}
  0
LWPOLYLINE
  5
F52B
330
1F
100
AcDbEntity
  8
トリガー-AM_0
 48
1.01
100
AcDbPolyline
 90
        2
 70
     0
 43
0.0
 10
410.6975677469638
 20
1348.542668124833
 10
410.6975677469638
 20
1336.931897263258
1001
GENIUS_GENREC_14
1002
{
1000
PYDIR
1011
410.6975677469638
1021
1348.737282694051
1031
0.0
1002
}
1002
{
1000
PXDIR
1011
418.6975677469638
1021
1336.737282694051
1031
0.0
1002
}
1002
{
1000
PORI
1011
410.6975677469638
1021
1336.737282694051
1031
0.0
1002
}
1002
{
1000
PINS
1011
414.6975677469638
1021
1342.737282694051
1031
0.0
1002
}
1002
{
1000
HVAL
1000
12
1002
}
1002
{
1000
H
1070
     2
1002
}
1002
{
1000
WVAL
1000
8
1002
}
1002
{
1000
W
1070
     2
1002
}
1002
{
1000
C
1070
     4
1002
}
1001
GENIUS_GENOBJ-N-REC_13
1002
{
1000
OWNER
1000
GEN
1002
}
1001
GENIUS_GENODEF_13
1002
{
1000
HIER
1070
     0
1002
}
1002
{
1000
MANEDIT
1070
     0
1002
}
1002
{
1000
NOSEL
1070
     0
1002
}
1002
{
1000
BEHIND
1070
     0
1002
}
1002
{
1000
OTHER
1070
     0
1002
}
1002
{
1000
REACTOR
1002
}
  0
LWPOLYLINE
  5
F52C
330
1F
100
AcDbEntity
  8
トリガー-AM_0
 48
1.01
100
AcDbPolyline
 90
        8
 70
     1
 43
0.0
 10
410.6975677469638
 20
1335.737282694051
 10
418.6975677469639
 20
1335.737282694051
 42
0.4142135623730951
 10
419.6975677469639
 20
1336.737282694051
 10
419.6975677469638
 20
1348.737282694051
 42
0.4142135623730938
 10
418.6975677469638
 20
1349.737282694051
 10
410.6975677469639
 20
1349.737282694051
 42
0.4142135623730951
 10
409.6975677469639
 20
1348.737282694051
 10
409.6975677469638
 20
1336.737282694051
 42
0.4142135623730951
1001
GENIUS_GENREC_14
1002
{
1000
PYDIR
1011
409.6975677469638
1021
1349.737282694051
1031
0.0
1002
}
1002
{
1000
PXDIR
1011
419.6975677469638
1021
1335.737282694051
1031
0.0
1002
}
1002
{
1000
PORI
1011
409.6975677469638
1021
1335.737282694051
1031
0.0
1002
}
1002
{
1000
PINS
1011
414.6975677469638
1021
1342.737282694051
1031
0.0
1002
}
1002
{
1000
HVAL
1000
14
1002
}
1002
{
1000
H
1070
     2
1002
}
1002
{
1000
WVAL
1000
10
1002
}
1002
{
1000
W
1070
     2
1002
}
1002
{
1000
C
1070
     4
1002
}
1001
GENIUS_GENODEF_13
1002
{
1000
HIER
1070
     0
1002
}
1002
{
1000
MANEDIT
1070
     0
1002
}
1002
{
1000
NOSEL
1070
     0
1002
}
1002
{
1000
BEHIND
1070
     0
1002
}
1002
{
1000
OTHER
1070
     0
1002
}
1002
{
1000
REACTOR
1002
}
1001
GENIUS_GENOBJ-N-REC_13
1002
{
1000
OWNER
1000
GEN
1002
}
  0
LWPOLYLINE
  5
F52D
330
1F
100
AcDbEntity
  8
トリガー-AM_0
 48
1.01
100
AcDbPolyline
 90
        2
 70
     0
 43
0.0
 10
410.9958789431797
 20
1336.737282694051
 10
418.3992565507479
 20
1336.737282694051
1001
GENIUS_GENREC_14
1002
{
1000
PYDIR
1011
410.6975677469638
1021
1348.737282694051
1031
0.0
1002
}
1002
{
1000
PXDIR
1011
418.6975677469638
1021
1336.737282694051
1031
0.0
1002
}
1002
{
1000
PORI
1011
410.6975677469638
1021
1336.737282694051
1031
0.0
1002
}
1002
{
1000
PINS
1011
414.6975677469638
1021
1342.737282694051
1031
0.0
1002
}
1002
{
1000
HVAL
1000
12
1002
}
1002
{
1000
H
1070
     2
1002
}
1002
{
1000
WVAL
1000
8
1002
}
1002
{
1000
W
1070
     2
1002
}
1002
{
1000
C
1070
     4
1002
}
1001
GENIUS_GENOBJ-N-REC_13
1002
{
1000
OWNER
1000
GEN
1002
}
1001
GENIUS_GENODEF_13
1002
{
1000
HIER
1070
     0
1002
}
1002
{
1000
MANEDIT
1070
     0
1002
}
1002
{
1000
NOSEL
1070
     0
1002
}
1002
{
1000
BEHIND
1070
     0
1002
}
1002
{
1000
OTHER
1070
     0
1002
}
1002
{
1000
REACTOR
1002
}
  0
ARC
  5
F52E
330
1F
100
AcDbEntity
  8
トリガー-AM_0
 48
0.7050000000000001
100
AcDbCircle
 10
414.6975677469638
 20
1342.737282694046
 30
0.0
 40
7.049999999999999
100
AcDbArc
 50
235.4325596926502
 51
238.3275665735065
  0
ARC
  5
F52F
330
1F
100
AcDbEntity
  8
トリガー-AM_0
 48
0.7050000000000001
100
AcDbCircle
 10
414.6975677469638
 20
1342.737282694046
 30
0.0
 40
7.049999999999999
100
AcDbArc
 50
301.6724334264935
 51
304.5674403073499
  0
LWPOLYLINE
  5
F530
330
1F
100
AcDbEntity
  8
トリガー-AM_0
 48
1.01
100
AcDbPolyline
 90
        2
 70
     0
 43
0.0
 10
418.3992565507315
 20
1348.737282694051
 10
410.9958789431961
 20
1348.737282694051
1001
GENIUS_GENREC_14
1002
{
1000
PYDIR
1011
410.6975677469638
1021
1348.737282694051
1031
0.0
1002
}
1002
{
1000
PXDIR
1011
418.6975677469638
1021
1336.737282694051
1031
0.0
1002
}
1002
{
1000
PORI
1011
410.6975677469638
1021
1336.737282694051
1031
0.0
1002
}
1002
{
1000
PINS
1011
414.6975677469638
1021
1342.737282694051
1031
0.0
1002
}
1002
{
1000
HVAL
1000
12
1002
}
1002
{
1000
H
1070
     2
1002
}
1002
{
1000
WVAL
1000
8
1002
}
1002
{
1000
W
1070
     2
1002
}
1002
{
1000
C
1070
     4
1002
}
1001
GENIUS_GENOBJ-N-REC_13
1002
{
1000
OWNER
1000
GEN
1002
}
1001
GENIUS_GENODEF_13
1002
{
1000
HIER
1070
     0
1002
}
1002
{
1000
MANEDIT
1070
     0
1002
}
1002
{
1000
NOSEL
1070
     0
1002
}
1002
{
1000
BEHIND
1070
     0
1002
}
1002
{
1000
OTHER
1070
     0
1002
}
1002
{
1000
REACTOR
1002
}
  0
ARC
  5
F531
330
1F
100
AcDbEntity
  8
トリガー-AM_0
 48
0.7050000000000001
100
AcDbCircle
 10
414.6975677469638
 20
1342.737282694046
 30
0.0
 40
7.049999999999999
100
AcDbArc
 50
121.6724334263354
 51
124.5674403073498
  0
ARC
  5
F532
330
1F
100
AcDbEntity
  8
トリガー-AM_0
 48
0.7050000000000001
100
AcDbCircle
 10
414.6975677469638
 20
1342.737282694046
 30
0.0
 40
7.049999999999999
100
AcDbArc
 50
55.43255969265018
 51
58.3275665736646
  0
CIRCLE
  5
F893
330
1F
100
AcDbEntity
  8
AM_3
 48
0.4
100
AcDbCircle
 10
407.6975677469637
 20
1202.737282694051
 30
0.0
 40
3.6
  0
CIRCLE
  5
F894
330
1F
100
AcDbEntity
  8
AM_3
 48
0.4
100
AcDbCircle
 10
421.6975677469637
 20
1202.737282694051
 30
0.0
 40
3.6
  0
INSERT
  5
FD53
330
1F
100
AcDbEntity
  8
AM_5
100
AcDbBlockReference
  2
*S27
 10
0.0
 20
0.0
 30
0.0
  0
CIRCLE
  5
FD5A
330
1F
100
AcDbEntity
  8
AM_3
 48
0.4
100
AcDbCircle
 10
407.6975677469637
 20
1482.737282694051
 30
0.0
 40
3.6
  0
CIRCLE
  5
FD5B
330
1F
100
AcDbEntity
  8
AM_3
 48
0.4
100
AcDbCircle
 10
421.6975677469637
 20
1482.737282694051
 30
0.0
 40
3.6
  0
ENDSEC
  0
SECTION
  2
OBJECTS
  0
DICTIONARY
  5
C
330
0
100
AcDbDictionary
281
     1
  3
ACAD_2007HEADERVARS_RT
350
FD87
  3
ACAD_COLOR
350
B55C
  3
ACAD_GROUP
350
D
  3
ACAD_LAYOUT
350
1A
  3
ACAD_MATERIAL
350
B55B
  3
ACAD_MLINESTYLE
350
17
  3
ACAD_PLOTSETTINGS
350
19
  3
ACAD_PLOTSTYLENAME
350
E
  3
ACAD_TABLESTYLE
350
B55D
  3
ACAD_VISUALSTYLE
350
F85C
  3
AcAsAppObject
350
3DA1
  3
ACASGREF_MASTER
350
3DE9
  3
AcDbVariableDictionary
350
34
  3
AcmDictionary
350
47
  3
AD_GREF_MODULE
350
3DEA
  3
AD_MAPI_MODULE
350
3E06
  3
AMG
350
2B
  3
AMGSNAPSETTINGS
350
7D
  3
ASE_INDEX_DICTIONARY
350
9F48
  3
DWGPROPS
350
FD86
  3
MAPISURF_MODULE
350
3DEB
  0
DICTIONARY
  5
3F95
330
2
100
AcDbDictionary
280
     1
281
     1
  3
ACAD_LAYERFILTERS
360
3F98
  3
ACAD_LAYERSTATES
360
3F96
  0
DICTIONARY
  5
8A
330
1F
100
AcDbDictionary
280
     1
281
     1
  3
ACAD_SORTENTS
360
B61B
  0
DICTIONARY
  5
FD87
102
{ACAD_REACTORS
330
C
102
}
330
C
100
AcDbDictionary
281
     1
  3
DIMARCSYM
350
FD88
  0
DICTIONARY
  5
B55C
102
{ACAD_REACTORS
330
C
102
}
330
C
100
AcDbDictionary
281
     1
  0
DICTIONARY
  5
D
102
{ACAD_REACTORS
330
C
102
}
330
C
100
AcDbDictionary
281
     1
  0
DICTIONARY
  5
1A
102
{ACAD_REACTORS
330
C
102
}
330
C
100
AcDbDictionary
281
     1
  3
Model
350
22
  3
ﾚｲｱｳﾄ1
350
1E
  3
ﾚｲｱｳﾄ2
350
26
  0
DICTIONARY
  5
B55B
102
{ACAD_REACTORS
330
C
102
}
330
C
100
AcDbDictionary
281
     1
  3
ByBlock
350
F85A
  3
ByLayer
350
F859
  3
Global
350
F85B
  0
DICTIONARY
  5
17
102
{ACAD_REACTORS
330
C
102
}
330
C
100
AcDbDictionary
281
     1
  3
Standard
350
18
  0
DICTIONARY
  5
19
102
{ACAD_REACTORS
330
C
102
}
330
C
100
AcDbDictionary
281
     1
  3
01   A1　１：１
350
993D
  3
02   A2　１：１
350
993C
  3
03   A3　１：１
350
993B
  3
04   A4  １：１
350
993E
  3
05   A1 自動調整
350
99EF
  3
06   A2 自動調整
350
99F0
  3
07   A3 自動調整
350
99F1
  3
08   A4 自動調整
350
99F2
  3
09   A1をA3に
350
9985
  3
10   A2をA3に
350
99D9
  3
11　レーザー　A3　自動調整
350
A0DD
  0
ACDBDICTIONARYWDFLT
  5
E
102
{ACAD_REACTORS
330
C
102
}
330
C
100
AcDbDictionary
281
     1
  3
Normal
350
F
100
AcDbDictionaryWithDefault
340
F
  0
DICTIONARY
  5
B55D
102
{ACAD_REACTORS
330
C
102
}
330
C
100
AcDbDictionary
281
     1
  3
Standard
350
B55E
  0
DICTIONARY
  5
F85C
102
{ACAD_REACTORS
330
C
102
}
330
C
100
AcDbDictionary
281
     1
  3
2dWireframe
350
F862
  3
3D Hidden
350
F864
  3
3dWireframe
350
F863
  3
Basic
350
F861
  3
Brighten
350
F868
  3
ColorChange
350
F86C
  3
Conceptual
350
F865
  3
Dim
350
F867
  3
Facepattern
350
F86B
  3
Flat
350
F85D
  3
FlatWithEdges
350
F85E
  3
Gouraud
350
F85F
  3
GouraudWithEdges
350
F860
  3
Linepattern
350
F86A
  3
Realistic
350
F866
  3
Thicken
350
F869
  0
ACAD_PROXY_OBJECT
  5
3DA1
102
{ACAD_REACTORS
330
C
102
}
330
C
100
AcDbProxyObject
 90
      499
 91
      576
 95
   851991
 70
     0
 93
       10
310
407F
 94
        0
1001
ACAD
1000
AcRTDxfName
1000
ASAPP
  0
ACAD_PROXY_OBJECT
  5
3DE9
102
{ACAD_REACTORS
330
C
102
}
330
C
100
AcDbProxyObject
 90
      499
 91
      581
 95
   851991
 70
     0
 93
       34
310
010000407F
 94
        0
1001
ACAD
1000
AcRTDxfName
1000
ACASGREFMASTER
  0
DICTIONARY
  5
34
102
{ACAD_REACTORS
330
C
102
}
330
C
100
AcDbDictionary
281
     1
  3
CTABLESTYLE
350
B5DF
  3
DIMASSOC
350
A10C
  3
INDEXCTL
350
35
  3
SORTENTS
350
194C
  0
DICTIONARY
  5
47
102
{ACAD_REACTORS
330
C
102
}
330
C
100
AcDbDictionary
281
     1
  3
AcmBOM
350
7E8
  3
AcmStdDictionary
350
4C
  3
AMDTSECTSYM_ARROWCOLOR
350
B57D
  0
ACAD_PROXY_OBJECT
  5
3DEA
102
{ACAD_REACTORS
330
C
102
}
330
C
100
AcDbProxyObject
 90
      499
 91
      582
 95
   851991
 70
     0
 93
      114
310
00000043800000000000000000003F
 94
        0
1001
ACAD
1000
AcRTDxfName
1000
ACADGREFMODULE
  0
ACAD_PROXY_OBJECT
  5
3E06
102
{ACAD_REACTORS
330
C
102
}
330
C
100
AcDbProxyObject
 90
      499
 91
      594
 95
   851991
 70
     0
 93
       34
310
05000044FF
 94
        0
1001
ACAD
1000
AcRTDxfName
1000
MAPIADMODULE
  0
DICTIONARY
  5
2B
102
{ACAD_REACTORS
330
C
102
}
330
C
100
AcDbDictionary
281
     1
  0
DICTIONARY
  5
7D
102
{ACAD_REACTORS
330
C
102
}
330
C
100
AcDbDictionary
281
     1
  0
DICTIONARY
  5
9F48
102
{ACAD_REACTORS
330
C
102
}
330
C
100
AcDbDictionary
281
     1
  3
ASEBlockHierarchyIndexRecord
350
9F49
1001
DCO15
1040
1425739953.442
  0
XRECORD
  5
FD86
102
{ACAD_REACTORS
330
C
102
}
330
C
100
AcDbXrecord
280
     1
  1
DWGPROPS COOKIE
  2

  3

  4

  6

  7

  8
OSK-CAD18
  9

300
AmdtFileType=84
301
=
302
=
303
=
304
=
305
=
306
=
307
=
308
=
309
=
 40
1.033408217592592
 41
2452685.85240559
 42
2454330.579820232
  1

 90
        1
  0
ACAD_PROXY_OBJECT
  5
3DEB
102
{ACAD_REACTORS
330
C
102
}
330
C
100
AcDbProxyObject
 90
      499
 91
      583
 95
   851991
 70
     0
 93
        8
310
047C
 94
        0
1001
ACAD
1000
AcRTDxfName
1000
AMDTMAPISURFMOUDULE
  0
DICTIONARY
  5
3F98
102
{ACAD_REACTORS
330
3F95
102
}
330
3F95
100
AcDbDictionary
280
     1
281
     1
  0
DICTIONARY
  5
3F96
102
{ACAD_REACTORS
330
3F95
102
}
330
3F95
100
AcDbDictionary
281
     1
  3
20011210
350
3FB7
  0
SORTENTSTABLE
  5
B61B
102
{ACAD_REACTORS
330
8A
102
}
330
8A
100
AcDbSortentsTable
330
1F
331
BD9C
  5
BD9C
331
B6B2
  5
B7D6
331
A7E5
  5
A7E5
331
B307
  5
B5B9
331
BD87
  5
BD87
331
BA07
  5
B310
331
A79D
  5
A79D
331
A81C
  5
A81C
331
B30F
  5
B61D
331
BD8F
  5
BD8F
331
A904
  5
A904
331
A7B8
  5
A7B8
331
A824
  5
A824
331
A76D
  5
A76D
331
A778
  5
A778
331
A847
  5
A847
331
BE1A
  5
BE1A
331
B8FB
  5
BA09
331
BA02
  5
B30B
331
BD8A
  5
BD8A
331
B730
  5
B7D9
331
B778
  5
B7FF
331
A82A
  5
A82A
331
B312
  5
B6D6
331
BD92
  5
BD92
331
A81F
  5
A81F
331
B92B
  5
BA0A
331
A7DB
  5
A7DB
331
B86B
  5
BA05
331
A827
  5
A827
331
BD9A
  5
BD9A
331
B8B3
  5
BA07
331
A84A
  5
A84A
331
A812
  5
A812
331
BA05
  5
B30E
331
A9ED
  5
A9EE
331
B30D
  5
B5D3
331
BD8D
  5
BD8D
331
B9FE
  5
B307
331
A82D
  5
A82D
331
A822
  5
A822
331
BD95
  5
BD95
331
A76B
  5
A76B
331
BD9D
  5
BD9D
331
B823
  5
BA03
331
BA00
  5
B309
331
BD88
  5
BD88
331
A7B9
  5
A7B9
331
B310
  5
B61E
331
BD90
  5
BD90
331
BA08
  5
B311
331
A81D
  5
A81D
331
A828
  5
A828
331
A825
  5
A825
331
A7B6
  5
A7B6
331
A781
  5
A781
331
A776
  5
A776
331
A848
  5
A848
331
BD8B
  5
BD8B
331
BA03
  5
B30C
331
B7EE
  5
BA01
331
A799
  5
A799
331
B30B
  5
B5BD
331
CBBE
  5
CBBE
331
BD93
  5
BD93
331
A7BC
  5
A7BC
331
A82B
  5
A82B
331
A820
  5
A820
331
B313
  5
B70C
331
B6D6
  5
B7D7
331
BA4B
  5
BA4B
331
A7E4
  5
A7E4
331
A84B
  5
A84B
331
A813
  5
A813
331
A9EE
  5
A9EF
331
BA06
  5
B30F
331
B9FF
  5
B308
331
B30E
  5
B61C
331
BD8E
  5
BD8E
331
A76C
  5
A76C
331
A82E
  5
A82E
331
BDA1
  5
BDA1
331
A823
  5
A823
331
B70C
  5
B7D8
331
BD9E
  5
BD9E
331
B7FF
  5
BA02
331
BA01
  5
B30A
331
B847
  5
BA04
331
B309
  5
B5BB
331
BD89
  5
BD89
331
B754
  5
B7EE
331
BE21
  5
BE21
331
A7BA
  5
A7BA
331
BA09
  5
B312
331
A829
  5
A829
331
B88F
  5
BA06
331
B311
  5
B6B2
331
BD91
  5
BD91
331
B95D
  5
BA0B
331
A7DA
  5
A7DA
331
A809
  5
A809
331
A826
  5
A826
331
A777
  5
A777
331
A849
  5
A849
331
BE1C
  5
BE1C
331
BA04
  5
B30D
331
BD8C
  5
BD8C
331
A82C
  5
A82C
331
A821
  5
A821
331
BD94
  5
BD94
  0
XRECORD
  5
FD88
102
{ACAD_REACTORS
330
FD87
102
}
330
FD87
100
AcDbXrecord
280
     1
 70
     1
  0
LAYOUT
  5
22
102
{ACAD_XDICTIONARY
360
FD8B
102
}
102
{ACAD_REACTORS
330
1A
102
}
330
1A
100
AcDbPlotSettings
  1

  2
FX DocuWide 2050/2051
  4
A3
  6
AM_VIEW1
 40
3.174999952316284
 41
3.174999952316284
 42
3.17498779296875
 43
3.17498779296875
 44
296.989501953125
 45
419.9889831542968
 46
0.0
 47
1.295841228961961
 48
209.1693648837318
 49
1130.886483692677
140
803.1693648837316
141
1550.886483692677
142
1.0
143
1.445089120606129
 70
 11956
 72
     1
 73
     1
 74
     4
  7
monochrome.ctb
 75
     0
147
0.6919988433519999
148
-209.1693648837318
149
-1130.886483692677
100
AcDbLayout
  1
Model
 70
     1
 71
     0
 10
0.0
 20
0.0
 11
12.0
 21
9.0
 12
0.0
 22
0.0
 32
0.0
 14
0.0
 24
0.0
 34
0.0
 15
0.0
 25
0.0
 35
0.0
146
0.0
 13
0.0
 23
0.0
 33
0.0
 16
1.0
 26
0.0
 36
0.0
 17
0.0
 27
1.0
 37
0.0
 76
     0
330
1F
331
F857
1001
ACAD_PSEXT
1000
FX DocuWide 2050/2051
1000
FX DocuWide 2050/2051
1000
IP_192.168.2.203
1000

1070
     0
  0
LAYOUT
  5
1E
102
{ACAD_XDICTIONARY
360
FD89
102
}
102
{ACAD_REACTORS
330
1A
102
}
330
1A
100
AcDbPlotSettings
  1

  2
\\ML370\XEROX
  4
A4
  6

 40
3.174999952316284
 41
3.174999952316284
 42
3.175003051757812
 43
3.17498779296875
 44
209.8674926757813
 45
296.6719970703125
 46
0.0
 47
0.0
 48
0.0
 49
0.0
140
0.0
141
0.0
142
1.0
143
1.0
 70
   688
 72
     1
 73
     1
 74
     5
  7
monochrome.ctb
 75
    16
147
1.0
148
0.0
149
0.0
100
AcDbLayout
  1
ﾚｲｱｳﾄ1
 70
     1
 71
     1
 10
-3.17498779296875
 20
-3.174999952316284
 11
293.4970092773438
 21
206.692492723465
 12
0.0
 22
0.0
 32
0.0
 14
1.000000000000000E+20
 24
1.000000000000000E+20
 34
1.000000000000000E+20
 15
-1.000000000000000E+20
 25
-1.000000000000000E+20
 35
-1.000000000000000E+20
146
0.0
 13
0.0
 23
0.0
 33
0.0
 16
1.0
 26
0.0
 36
0.0
 17
0.0
 27
1.0
 37
0.0
 76
     0
330
1B
  0
LAYOUT
  5
26
102
{ACAD_XDICTIONARY
360
FD8D
102
}
102
{ACAD_REACTORS
330
1A
102
}
330
1A
100
AcDbPlotSettings
  1

  2
\\ML370\XEROX
  4

  6

 40
0.0
 41
0.0
 42
0.0
 43
0.0
 44
0.0
 45
0.0
 46
0.0
 47
0.0
 48
0.0
 49
0.0
140
0.0
141
0.0
142
1.0
143
1.0
 70
   688
 72
     0
 73
     0
 74
     5
  7
monochrome.ctb
 75
    16
147
1.0
148
0.0
149
0.0
100
AcDbLayout
  1
ﾚｲｱｳﾄ2
 70
     1
 71
     2
 10
0.0
 20
0.0
 11
12.0
 21
9.0
 12
0.0
 22
0.0
 32
0.0
 14
0.0
 24
0.0
 34
0.0
 15
0.0
 25
0.0
 35
0.0
146
0.0
 13
0.0
 23
0.0
 33
0.0
 16
1.0
 26
0.0
 36
0.0
 17
0.0
 27
1.0
 37
0.0
 76
     0
330
23
  0
MATERIAL
  5
F85A
102
{ACAD_XDICTIONARY
360
FDA9
102
}
102
{ACAD_REACTORS
330
B55B
102
}
330
B55B
100
AcDbMaterial
  1
ByBlock
  0
MATERIAL
  5
F859
102
{ACAD_XDICTIONARY
360
FDA7
102
}
102
{ACAD_REACTORS
330
B55B
102
}
330
B55B
100
AcDbMaterial
  1
ByLayer
  0
MATERIAL
  5
F85B
102
{ACAD_XDICTIONARY
360
FDAB
102
}
102
{ACAD_REACTORS
330
B55B
102
}
330
B55B
100
AcDbMaterial
  1
Global
  0
MLINESTYLE
  5
18
102
{ACAD_REACTORS
330
17
102
}
330
17
100
AcDbMlineStyle
  2
STANDARD
 70
     0
  3

 62
   256
 51
90.0
 52
90.0
 71
     2
 49
0.5
 62
   256
  6
BYLAYER
 49
-0.5
 62
   256
  6
BYLAYER
  0
PLOTSETTINGS
  5
993D
102
{ACAD_XDICTIONARY
360
FD93
102
}
102
{ACAD_REACTORS
330
19
102
}
330
19
100
AcDbPlotSettings
  1
01   A1　１：１
  2
\\ML370\Fuji Xerox BT8050(AutoCAD)
  4
User122
  6
AM_VIEW1
 40
3.174999952316284
 41
3.174999952316284
 42
3.17498779296875
 43
3.17498779296875
 44
593.7249755859375
 45
840.6129760742187
 46
145.19
 47
207.13
 48
214.3704939521119
 49
367.5855324241176
140
275.6727856380065
141
407.629191407817
142
1.0
143
1.0
 70
  1716
 72
     1
 73
     1
 74
     2
  7
monochrome.ctb
 75
    16
147
1.0
148
-538.139750291099
149
411.0980235086544
  0
PLOTSETTINGS
  5
993C
102
{ACAD_XDICTIONARY
360
FD91
102
}
102
{ACAD_REACTORS
330
19
102
}
330
19
100
AcDbPlotSettings
  1
02   A2　１：１
  2
\\ML370\Fuji Xerox BT8050(AutoCAD)
  4
User123
  6
AM_VIEW1
 40
3.174999952316284
 41
3.174999952316284
 42
3.17498779296875
 43
3.17498779296875
 44
420.0
 45
594.0
 46
58.33
 47
83.83
 48
214.3704939521119
 49
367.5855324241176
140
275.6727856380065
141
407.629191407817
142
1.0
143
1.0
 70
  1716
 72
     1
 73
     1
 74
     2
  7
monochrome.ctb
 75
    16
147
1.0
148
-538.139750291099
149
411.0980235086544
  0
PLOTSETTINGS
  5
993B
102
{ACAD_XDICTIONARY
360
FD8F
102
}
102
{ACAD_REACTORS
330
19
102
}
330
19
100
AcDbPlotSettings
  1
03   A3　１：１
  2
\\ML370\Fuji Xerox BT8050(AutoCAD)
  4
User124
  6
AM_VIEW1
 40
3.174999952316284
 41
3.174999952316284
 42
3.17498779296875
 43
3.17498779296875
 44
297.0
 45
420.0
 46
-3.169999999999999
 47
-3.169999999999999
 48
214.3704939521119
 49
367.5855324241176
140
275.6727856380065
141
407.629191407817
142
1.0
143
1.0
 70
  1716
 72
     1
 73
     1
 74
     2
  7
monochrome.ctb
 75
    16
147
1.0
148
-538.139750291099
149
411.0980235086544
  0
PLOTSETTINGS
  5
993E
102
{ACAD_XDICTIONARY
360
FD95
102
}
102
{ACAD_REACTORS
330
19
102
}
330
19
100
AcDbPlotSettings
  1
04   A4  １：１
  2
\\ML370\Fuji Xerox BT8050(AutoCAD)
  4
User125
  6
AM_VIEW1
 40
3.174999952316284
 41
3.174999952316284
 42
3.175003051757812
 43
3.17498779296875
 44
210.0
 45
297.0
 46
-46.68
 47
-64.67
 48
214.3704939521119
 49
367.5855324241176
140
275.6727856380065
141
407.629191407817
142
1.0
143
1.0
 70
  1716
 72
     1
 73
     1
 74
     2
  7
monochrome.ctb
 75
    16
147
1.0
148
-538.139750291099
149
411.0980235086544
  0
PLOTSETTINGS
  5
99EF
102
{ACAD_XDICTIONARY
360
FD9B
102
}
102
{ACAD_REACTORS
330
19
102
}
330
19
100
AcDbPlotSettings
  1
05   A1 自動調整
  2
\\ML370\Fuji Xerox BT8050(AutoCAD)
  4
User122
  6
AM_VIEW1
 40
3.174999952316284
 41
3.174999952316284
 42
3.17498779296875
 43
3.17498779296875
 44
593.7249755859375
 45
840.6129760742187
 46
0.0
 47
1.77
 48
214.3704939521119
 49
367.5855324241176
140
275.6727856380065
141
407.629191407817
142
1.0
143
0.7150457692181145
 70
  1716
 72
     1
 73
     1
 74
     2
  7
monochrome.ctb
 75
     0
147
1.398511875811077
148
-408.2719444961221
149
-428.6675171947154
  0
PLOTSETTINGS
  5
99F0
102
{ACAD_XDICTIONARY
360
FD9D
102
}
102
{ACAD_REACTORS
330
19
102
}
330
19
100
AcDbPlotSettings
  1
06   A2 自動調整
  2
\\ML370\Fuji Xerox BT8050(AutoCAD)
  4
User123
  6
AM_VIEW1
 40
3.174999952316284
 41
3.174999952316284
 42
3.17498779296875
 43
3.17498779296875
 44
420.0
 45
594.0
 46
0.0
 47
1.32
 48
214.3704939521119
 49
367.5855324241176
140
275.6727856380065
141
407.629191407817
142
1.0
143
1.015351112189439
 70
  1716
 72
     1
 73
     1
 74
     2
  7
monochrome.ctb
 75
     0
147
0.9848809815588451
148
-408.2719444961221
149
-428.6675171947154
  0
PLOTSETTINGS
  5
99F1
102
{ACAD_XDICTIONARY
360
FD9F
102
}
102
{ACAD_REACTORS
330
19
102
}
330
19
100
AcDbPlotSettings
  1
07   A3 自動調整
  2
\\ML370\Fuji Xerox BT8050(AutoCAD)
  4
User124
  6
AM_VIEW1
 40
3.174999952316284
 41
3.174999952316284
 42
3.17498779296875
 43
3.17498779296875
 44
297.0
 45
420.0
 46
0.0
 47
1.29
 48
214.3704939521119
 49
367.5855324241176
140
275.6727856380065
141
407.629191407817
142
1.0
143
1.445036925138428
 70
  1716
 72
     1
 73
     1
 74
     2
  7
monochrome.ctb
 75
     0
147
0.6920238387017023
148
-408.2719444961221
149
-428.6675171947154
  0
PLOTSETTINGS
  5
99F2
102
{ACAD_XDICTIONARY
360
FDA1
102
}
102
{ACAD_REACTORS
330
19
102
}
330
19
100
AcDbPlotSettings
  1
08   A4 自動調整
  2
\\ML370\Fuji Xerox BT8050(AutoCAD)
  4
User125
  6
AM_VIEW1
 40
3.174999952316284
 41
3.174999952316284
 42
3.175003051757812
 43
3.17498779296875
 44
210.0
 45
297.0
 46
0.0
 47
1.32
 48
214.3704939521119
 49
367.5855324241176
140
275.6727856380065
141
407.629191407817
142
1.0
143
2.062361925831023
 70
  1716
 72
     1
 73
     1
 74
     2
  7
monochrome.ctb
 75
     0
147
0.484880945228395
148
-408.2719444961221
149
-428.6675171947154
  0
PLOTSETTINGS
  5
9985
102
{ACAD_XDICTIONARY
360
FD97
102
}
102
{ACAD_REACTORS
330
19
102
}
330
19
100
AcDbPlotSettings
  1
09   A1をA3に
  2
\\ML370\Fuji Xerox BT8050(AutoCAD)
  4
User124
  6
AM_VIEW1
 40
3.174999952316284
 41
3.174999952316284
 42
3.17498779296875
 43
3.17498779296875
 44
297.0
 45
420.0
 46
-3.169999999999999
 47
-3.419999999999999
 48
214.3704939521119
 49
367.5855324241176
140
275.6727856380065
141
407.629191407817
142
1.0
143
20.0
 70
  1716
 72
     1
 73
     1
 74
     2
  7
monochrome.ctb
 75
    22
147
0.05
148
-66.24202774817149
149
-81.38953477958603
  0
PLOTSETTINGS
  5
99D9
102
{ACAD_XDICTIONARY
360
FD99
102
}
102
{ACAD_REACTORS
330
19
102
}
330
19
100
AcDbPlotSettings
  1
10   A2をA3に
  2
\\ML370\Fuji Xerox BT8050(AutoCAD)
  4
User124
  6
AM_VIEW1
 40
3.174999952316284
 41
3.174999952316284
 42
3.17498779296875
 43
3.17498779296875
 44
297.0
 45
420.0
 46
-3.189999999999999
 47
-3.22
 48
214.3704939521119
 49
367.5855324241176
140
275.6727856380065
141
407.629191407817
142
1.0
143
1.414
 70
  1700
 72
     1
 73
     1
 74
     2
  7
monochrome.ctb
 75
     0
147
0.7072135785007072
148
-408.2719444961221
149
-428.6675171947154
  0
PLOTSETTINGS
  5
A0DD
102
{ACAD_XDICTIONARY
360
FDA3
102
}
102
{ACAD_REACTORS
330
19
102
}
330
19
100
AcDbPlotSettings
  1
11　レーザー　A3　自動調整
  2
\\ML370\NX710
  4
User124
  6
AM_VIEW1
 40
3.174999952316284
 41
3.174999952316284
 42
3.17578125
 43
3.17578125
 44
25146.0
 45
35602.33203125
 46
0.0
 47
0.0
 48
214.3704939521119
 49
367.5855324241176
140
275.6727856380065
141
407.629191407817
142
1.0
143
0.0083533385120973
 70
  1712
 72
     1
 73
     1
 74
     2
  7
monochrome.ctb
 75
     0
147
119.712615327608
148
-26.69879532799951
149
-28.92730121669592
  0
ACDBPLACEHOLDER
  5
F
102
{ACAD_REACTORS
330
E
102
}
330
E
  0
TABLESTYLE
  5
B55E
102
{ACAD_XDICTIONARY
360
FDA5
102
}
102
{ACAD_REACTORS
330
B55D
102
}
330
B55D
100
AcDbTableStyle
  3
Standard
 70
     0
 71
     0
 40
1.5
 41
1.5
280
     0
281
     0
  7
STANDARD
140
4.5
170
     2
 62
     0
 63
     7
283
     0
274
    -2
284
     1
 64
     0
275
    -2
285
     1
 65
     0
276
    -2
286
     1
 66
     0
277
    -2
287
     1
 67
     0
278
    -2
288
     1
 68
     0
279
    -2
289
     1
 69
     0
  7
STANDARD
140
6.0
170
     5
 62
     0
 63
     7
283
     0
274
    -2
284
     1
 64
     0
275
    -2
285
     1
 65
     0
276
    -2
286
     1
 66
     0
277
    -2
287
     1
 67
     0
278
    -2
288
     1
 68
     0
279
    -2
289
     1
 69
     0
  7
STANDARD
140
4.5
170
     5
 62
     0
 63
     7
283
     0
274
    -2
284
     1
 64
     0
275
    -2
285
     1
 65
     0
276
    -2
286
     1
 66
     0
277
    -2
287
     1
 67
     0
278
    -2
288
     1
 68
     0
279
    -2
289
     1
 69
     0
  0
VISUALSTYLE
  5
F862
102
{ACAD_REACTORS
330
F85C
102
}
330
F85C
100
AcDbVisualStyle
  2
2dWireframe
 70
     4
 71
     0
 72
     2
 73
     0
 90
        0
 40
-0.6
 41
-30.0
 62
     5
 63
     7
 74
     1
 91
        4
 64
     7
 65
   257
 75
     1
175
     1
 42
1.0
 92
        0
 66
   257
 43
1.0
 76
     1
 77
     6
 78
     2
 67
     7
 79
     5
170
     0
171
     0
290
     0
174
     0
 93
        1
 44
0.0
173
     0
291
     0
 45
0.0
1001
ACAD
1000
AcDbSavedByObjectVersion
1070
     0
  0
VISUALSTYLE
  5
F864
102
{ACAD_REACTORS
330
F85C
102
}
330
F85C
100
AcDbVisualStyle
  2
3D Hidden
 70
     6
 71
     1
 72
     2
 73
     2
 90
        0
 40
-0.6
 41
-30.0
 62
     5
 63
     7
 74
     2
 91
        2
 64
     7
 65
   257
 75
     2
175
     1
 42
40.0
 92
        0
 66
   257
 43
1.0
 76
     1
 77
     6
 78
     2
 67
     7
 79
     3
170
     0
171
     0
290
     0
174
     0
 93
        1
 44
0.0
173
     0
291
     0
 45
0.0
1001
ACAD
1000
AcDbSavedByObjectVersion
1070
     0
  0
VISUALSTYLE
  5
F863
102
{ACAD_REACTORS
330
F85C
102
}
330
F85C
100
AcDbVisualStyle
  2
3dWireframe
 70
     5
 71
     0
 72
     2
 73
     0
 90
        0
 40
-0.6
 41
-30.0
 62
     5
 63
     7
 74
     1
 91
        4
 64
     7
 65
   257
 75
     1
175
     1
 42
1.0
 92
        0
 66
   257
 43
1.0
 76
     1
 77
     6
 78
     2
 67
     7
 79
     5
170
     0
171
     0
290
     0
174
     0
 93
        1
 44
0.0
173
     0
291
     0
 45
0.0
1001
ACAD
1000
AcDbSavedByObjectVersion
1070
     0
  0
VISUALSTYLE
  5
F861
102
{ACAD_REACTORS
330
F85C
102
}
330
F85C
100
AcDbVisualStyle
  2
Basic
 70
     7
 71
     1
 72
     0
 73
     1
 90
        0
 40
-0.6
 41
-30.0
 62
     5
 63
     7
 74
     0
 91
        4
 64
     7
 65
   257
 75
     1
175
     1
 42
1.0
 92
        8
 66
     7
 43
1.0
 76
     1
 77
     6
 78
     2
 67
     7
 79
     5
170
     0
171
     0
290
     0
174
     0
 93
        1
 44
0.0
173
     0
291
     1
 45
0.0
1001
ACAD
1000
AcDbSavedByObjectVersion
1070
     0
  0
VISUALSTYLE
  5
F868
102
{ACAD_REACTORS
330
F85C
102
}
330
F85C
100
AcDbVisualStyle
  2
Brighten
 70
    12
 71
     2
 72
     2
 73
     0
 90
        0
 40
-0.6
 41
-30.0
 62
     5
 63
     7
 74
     1
 91
        4
 64
     7
 65
   257
 75
     1
175
     1
 42
1.0
 92
        8
 66
     7
 43
1.0
 76
     1
 77
     6
 78
     2
 67
     7
 79
     5
170
     0
171
     0
290
     0
174
     0
 93
        1
 44
50.0
173
     0
291
     1
 45
0.0
1001
ACAD
1000
AcDbSavedByObjectVersion
1070
     0
  0
VISUALSTYLE
  5
F86C
102
{ACAD_REACTORS
330
F85C
102
}
330
F85C
100
AcDbVisualStyle
  2
ColorChange
 70
    16
 71
     2
 72
     2
 73
     3
 90
        0
 40
-0.6
 41
-30.0
 62
     5
 63
     8
 74
     1
 91
        4
 64
     7
 65
   257
 75
     1
175
     1
 42
1.0
 92
        8
 66
     8
 43
1.0
 76
     1
 77
     6
 78
     2
 67
     7
 79
     5
170
     0
171
     0
290
     0
174
     0
 93
        1
 44
0.0
173
     0
291
     1
 45
0.0
1001
ACAD
1000
AcDbSavedByObjectVersion
1070
     0
  0
VISUALSTYLE
  5
F865
102
{ACAD_REACTORS
330
F85C
102
}
330
F85C
100
AcDbVisualStyle
  2
Conceptual
 70
     9
 71
     3
 72
     2
 73
     0
 90
        0
 40
-0.6
 41
-30.0
 62
     5
 63
     7
 74
     2
 91
        2
 64
     7
 65
   257
 75
     1
175
     1
 42
40.0
 92
        8
 66
     7
 43
1.0
 76
     1
 77
     6
 78
     2
 67
     7
 79
     3
170
     0
171
     0
290
     0
174
     0
 93
        1
 44
0.0
173
     0
291
     0
 45
0.0
1001
ACAD
1000
AcDbSavedByObjectVersion
1070
     0
  0
VISUALSTYLE
  5
F867
102
{ACAD_REACTORS
330
F85C
102
}
330
F85C
100
AcDbVisualStyle
  2
Dim
 70
    11
 71
     2
 72
     2
 73
     0
 90
        0
 40
-0.6
 41
-30.0
 62
     5
 63
     7
 74
     1
 91
        4
 64
     7
 65
   257
 75
     1
175
     1
 42
1.0
 92
        8
 66
     7
 43
1.0
 76
     1
 77
     6
 78
     2
 67
     7
 79
     5
170
     0
171
     0
290
     0
174
     0
 93
        1
 44
-50.0
173
     0
291
     1
 45
0.0
1001
ACAD
1000
AcDbSavedByObjectVersion
1070
     0
  0
VISUALSTYLE
  5
F86B
102
{ACAD_REACTORS
330
F85C
102
}
330
F85C
100
AcDbVisualStyle
  2
Facepattern
 70
    15
 71
     2
 72
     2
 73
     0
 90
        0
 40
-0.6
 41
-30.0
 62
     5
 63
     7
 74
     1
 91
        4
 64
     7
 65
   257
 75
     1
175
     1
 42
1.0
 92
        8
 66
     7
 43
1.0
 76
     1
 77
     6
 78
     2
 67
     7
 79
     5
170
     0
171
     0
290
     0
174
     0
 93
        1
 44
0.0
173
     0
291
     1
 45
0.0
1001
ACAD
1000
AcDbSavedByObjectVersion
1070
     0
  0
VISUALSTYLE
  5
F85D
102
{ACAD_REACTORS
330
F85C
102
}
330
F85C
100
AcDbVisualStyle
  2
Flat
 70
     0
 71
     2
 72
     1
 73
     1
 90
        2
 40
-0.6
 41
30.0
 62
     5
 63
     7
 74
     0
 91
        4
 64
     7
 65
   257
 75
     1
175
     1
 42
1.0
 92
        8
 66
     7
 43
1.0
 76
     1
 77
     6
 78
     2
 67
     7
 79
     5
170
     0
171
     0
290
     0
174
     0
 93
       13
 44
0.0
173
     0
291
     1
 45
0.0
1001
ACAD
1000
AcDbSavedByObjectVersion
1070
     0
  0
VISUALSTYLE
  5
F85E
102
{ACAD_REACTORS
330
F85C
102
}
330
F85C
100
AcDbVisualStyle
  2
FlatWithEdges
 70
     1
 71
     2
 72
     1
 73
     1
 90
        2
 40
-0.6
 41
30.0
 62
     5
 63
     7
 74
     1
 91
        4
 64
     7
 65
   257
 75
     1
175
     1
 42
1.0
 92
        0
 66
   257
 43
1.0
 76
     1
 77
     6
 78
     2
 67
     7
 79
     5
170
     0
171
     0
290
     0
174
     0
 93
       13
 44
0.0
173
     0
291
     1
 45
0.0
1001
ACAD
1000
AcDbSavedByObjectVersion
1070
     0
  0
VISUALSTYLE
  5
F85F
102
{ACAD_REACTORS
330
F85C
102
}
330
F85C
100
AcDbVisualStyle
  2
Gouraud
 70
     2
 71
     2
 72
     2
 73
     1
 90
        2
 40
-0.6
 41
30.0
 62
     5
 63
     7
 74
     0
 91
        4
 64
     7
 65
   257
 75
     1
175
     1
 42
1.0
 92
        0
 66
     7
 43
1.0
 76
     1
 77
     6
 78
     2
 67
     7
 79
     5
170
     0
171
     0
290
     0
174
     0
 93
       13
 44
0.0
173
     0
291
     1
 45
0.0
1001
ACAD
1000
AcDbSavedByObjectVersion
1070
     0
  0
VISUALSTYLE
  5
F860
102
{ACAD_REACTORS
330
F85C
102
}
330
F85C
100
AcDbVisualStyle
  2
GouraudWithEdges
 70
     3
 71
     2
 72
     2
 73
     1
 90
        2
 40
-0.6
 41
30.0
 62
     5
 63
     7
 74
     1
 91
        4
 64
     7
 65
   257
 75
     1
175
     1
 42
1.0
 92
        0
 66
   257
 43
1.0
 76
     1
 77
     6
 78
     2
 67
     7
 79
     5
170
     0
171
     0
290
     0
174
     0
 93
       13
 44
0.0
173
     0
291
     1
 45
0.0
1001
ACAD
1000
AcDbSavedByObjectVersion
1070
     0
  0
VISUALSTYLE
  5
F86A
102
{ACAD_REACTORS
330
F85C
102
}
330
F85C
100
AcDbVisualStyle
  2
Linepattern
 70
    14
 71
     2
 72
     2
 73
     0
 90
        0
 40
-0.6
 41
-30.0
 62
     5
 63
     7
 74
     1
 91
        4
 64
     7
 65
   257
 75
     7
175
     7
 42
1.0
 92
        8
 66
     7
 43
1.0
 76
     1
 77
     6
 78
     2
 67
     7
 79
     5
170
     0
171
     0
290
     0
174
     0
 93
        1
 44
0.0
173
     0
291
     1
 45
0.0
1001
ACAD
1000
AcDbSavedByObjectVersion
1070
     0
  0
VISUALSTYLE
  5
F866
102
{ACAD_REACTORS
330
F85C
102
}
330
F85C
100
AcDbVisualStyle
  2
Realistic
 70
     8
 71
     2
 72
     2
 73
     0
 90
        0
 40
-0.6
 41
-30.0
 62
     5
 63
     7
 74
     1
 91
        0
 64
     7
 65
   257
 75
     1
175
     1
 42
1.0
 92
        8
 66
     8
 43
1.0
 76
     1
 77
     6
 78
     2
 67
     7
 79
     5
170
     0
171
     0
290
     0
174
     0
 93
       13
 44
0.0
173
     0
291
     0
 45
0.0
1001
ACAD
1000
AcDbSavedByObjectVersion
1070
     0
  0
VISUALSTYLE
  5
F869
102
{ACAD_REACTORS
330
F85C
102
}
330
F85C
100
AcDbVisualStyle
  2
Thicken
 70
    13
 71
     2
 72
     2
 73
     0
 90
        0
 40
-0.6
 41
-30.0
 62
     5
 63
     7
 74
     1
 91
        4
 64
     7
 65
   257
 75
     1
175
     1
 42
1.0
 92
       12
 66
     7
 43
1.0
 76
     1
 77
     6
 78
     2
 67
     7
 79
     5
170
     0
171
     0
290
     0
174
     0
 93
        1
 44
0.0
173
     0
291
     1
 45
0.0
1001
ACAD
1000
AcDbSavedByObjectVersion
1070
     0
  0
DICTIONARYVAR
  5
B5DF
102
{ACAD_REACTORS
330
34
102
}
330
34
100
DictionaryVariables
280
     0
  1
STANDARD
  0
DICTIONARYVAR
  5
A10C
102
{ACAD_REACTORS
330
34
102
}
330
34
100
DictionaryVariables
280
     0
  1
1
  0
DICTIONARYVAR
  5
35
102
{ACAD_REACTORS
330
34
102
}
330
34
100
DictionaryVariables
280
     0
  1
0
  0
DICTIONARYVAR
  5
194C
102
{ACAD_REACTORS
330
34
102
}
330
34
100
DictionaryVariables
280
     0
  1
96
  0
DICTIONARY
  5
7E8
102
{ACAD_REACTORS
330
47
102
}
330
47
100
AcDbDictionary
281
     1
  0
DICTIONARY
  5
4C
102
{ACAD_REACTORS
330
47
102
}
330
47
100
AcDbDictionary
281
     1
  0
XRECORD
  5
B57D
102
{ACAD_REACTORS
330
47
102
}
330
47
100
AcDbXrecord
280
     1
 90
-1023410169
  0
XRECORD
  5
9F49
102
{ACAD_REACTORS
330
9F48
102
}
330
9F48
100
AcDbXrecord
280
     1
330
0
330
0
330
0
330
0
330
0
330
0
330
0
330
0
  0
XRECORD
  5
3FB7
102
{ACAD_REACTORS
330
3F96
102
}
330
3F96
100
AcDbXrecord
280
     1
 91
        3
330
A47
 90
        8
 62
     7
370
    40
331
16
  1
Color_7
330
A46
 90
        0
 62
    14
370
    -3
331
16
  1
Color_14
330
3A31
 90
        8
 62
     7
370
    20
331
16
  1
Color_7
330
6D1
 90
        0
 62
     7
370
    -3
331
16
  1
Color_7
330
FA6
 90
        8
 62
     7
370
    50
331
16
  1
Color_7
330
A48
 90
        8
 62
     2
370
    35
331
16
  1
Color_2
330
FA5
 90
        8
 62
     7
370
    -3
331
16
  1
Color_7
330
10
 90
        8
 62
     7
370
    -3
331
16
  1
Color_7
  0
DICTIONARY
  5
FD8B
330
22
100
AcDbDictionary
280
     1
281
     1
  3
ACAD_XREC_ROUNDTRIP
360
FD8C
  0
DICTIONARY
  5
FD89
330
1E
100
AcDbDictionary
280
     1
281
     1
  3
ACAD_XREC_ROUNDTRIP
360
FD8A
  0
DICTIONARY
  5
FD8D
330
26
100
AcDbDictionary
280
     1
281
     1
  3
ACAD_XREC_ROUNDTRIP
360
FD8E
  0
DICTIONARY
  5
FDA9
330
F85A
100
AcDbDictionary
280
     1
281
     1
  3
ACAD_XREC_ROUNDTRIP
360
FDAA
  0
DICTIONARY
  5
FDA7
330
F859
100
AcDbDictionary
280
     1
281
     1
  3
ACAD_XREC_ROUNDTRIP
360
FDA8
  0
DICTIONARY
  5
FDAB
330
F85B
100
AcDbDictionary
280
     1
281
     1
  3
ACAD_XREC_ROUNDTRIP
360
FDAC
  0
DICTIONARY
  5
FD93
330
993D
100
AcDbDictionary
280
     1
281
     1
  3
ACAD_XREC_ROUNDTRIP
360
FD94
  0
DICTIONARY
  5
FD91
330
993C
100
AcDbDictionary
280
     1
281
     1
  3
ACAD_XREC_ROUNDTRIP
360
FD92
  0
DICTIONARY
  5
FD8F
330
993B
100
AcDbDictionary
280
     1
281
     1
  3
ACAD_XREC_ROUNDTRIP
360
FD90
  0
DICTIONARY
  5
FD95
330
993E
100
AcDbDictionary
280
     1
281
     1
  3
ACAD_XREC_ROUNDTRIP
360
FD96
  0
DICTIONARY
  5
FD9B
330
99EF
100
AcDbDictionary
280
     1
281
     1
  3
ACAD_XREC_ROUNDTRIP
360
FD9C
  0
DICTIONARY
  5
FD9D
330
99F0
100
AcDbDictionary
280
     1
281
     1
  3
ACAD_XREC_ROUNDTRIP
360
FD9E
  0
DICTIONARY
  5
FD9F
330
99F1
100
AcDbDictionary
280
     1
281
     1
  3
ACAD_XREC_ROUNDTRIP
360
FDA0
  0
DICTIONARY
  5
FDA1
330
99F2
100
AcDbDictionary
280
     1
281
     1
  3
ACAD_XREC_ROUNDTRIP
360
FDA2
  0
DICTIONARY
  5
FD97
330
9985
100
AcDbDictionary
280
     1
281
     1
  3
ACAD_XREC_ROUNDTRIP
360
FD98
  0
DICTIONARY
  5
FD99
330
99D9
100
AcDbDictionary
280
     1
281
     1
  3
ACAD_XREC_ROUNDTRIP
360
FD9A
  0
DICTIONARY
  5
FDA3
330
A0DD
100
AcDbDictionary
280
     1
281
     1
  3
ACAD_XREC_ROUNDTRIP
360
FDA4
  0
DICTIONARY
  5
FDA5
330
B55E
100
AcDbDictionary
280
     1
281
     1
  3
ACAD_XREC_ROUNDTRIP
360
FDA6
  0
XRECORD
  5
FD8C
102
{ACAD_REACTORS
330
FD8B
102
}
330
FD8B
100
AcDbXrecord
280
     1
102
SHADEPLOT
 70
     0
102
SHADEPLOTRESLEVEL
 70
     2
102
SHADEPLOTCUSTOMDPI
 70
   300
  0
XRECORD
  5
FD8A
102
{ACAD_REACTORS
330
FD89
102
}
330
FD89
100
AcDbXrecord
280
     1
102
SHADEPLOT
 70
     0
102
SHADEPLOTRESLEVEL
 70
     2
102
SHADEPLOTCUSTOMDPI
 70
   300
  0
XRECORD
  5
FD8E
102
{ACAD_REACTORS
330
FD8D
102
}
330
FD8D
100
AcDbXrecord
280
     1
102
SHADEPLOT
 70
     0
102
SHADEPLOTRESLEVEL
 70
     2
102
SHADEPLOTCUSTOMDPI
 70
   300
  0
XRECORD
  5
FDAA
102
{ACAD_REACTORS
330
FDA9
102
}
330
FDA9
100
AcDbXrecord
280
     1
102
MATERIAL
148
0.0
149
0.0
149
0.0
 93
        0
 94
       63
282
     0
 72
     1
 77
     1
171
     1
175
     1
179
     1
273
     0
  0
XRECORD
  5
FDA8
102
{ACAD_REACTORS
330
FDA7
102
}
330
FDA7
100
AcDbXrecord
280
     1
102
MATERIAL
148
0.0
149
0.0
149
0.0
 93
        0
 94
       63
282
     0
 72
     1
 77
     1
171
     1
175
     1
179
     1
273
     0
  0
XRECORD
  5
FDAC
102
{ACAD_REACTORS
330
FDAB
102
}
330
FDAB
100
AcDbXrecord
280
     1
102
MATERIAL
148
0.0
149
0.0
149
0.0
 93
        0
 94
       63
282
     0
 72
     1
 77
     1
171
     1
175
     1
179
     1
273
     0
  0
XRECORD
  5
FD94
102
{ACAD_REACTORS
330
FD93
102
}
330
FD93
100
AcDbXrecord
280
     1
102
SHADEPLOT
 70
     0
102
SHADEPLOTRESLEVEL
 70
     2
102
SHADEPLOTCUSTOMDPI
 70
   300
  0
XRECORD
  5
FD92
102
{ACAD_REACTORS
330
FD91
102
}
330
FD91
100
AcDbXrecord
280
     1
102
SHADEPLOT
 70
     0
102
SHADEPLOTRESLEVEL
 70
     2
102
SHADEPLOTCUSTOMDPI
 70
   300
  0
XRECORD
  5
FD90
102
{ACAD_REACTORS
330
FD8F
102
}
330
FD8F
100
AcDbXrecord
280
     1
102
SHADEPLOT
 70
     0
102
SHADEPLOTRESLEVEL
 70
     2
102
SHADEPLOTCUSTOMDPI
 70
   300
  0
XRECORD
  5
FD96
102
{ACAD_REACTORS
330
FD95
102
}
330
FD95
100
AcDbXrecord
280
     1
102
SHADEPLOT
 70
     0
102
SHADEPLOTRESLEVEL
 70
     2
102
SHADEPLOTCUSTOMDPI
 70
   300
  0
XRECORD
  5
FD9C
102
{ACAD_REACTORS
330
FD9B
102
}
330
FD9B
100
AcDbXrecord
280
     1
102
SHADEPLOT
 70
     0
102
SHADEPLOTRESLEVEL
 70
     2
102
SHADEPLOTCUSTOMDPI
 70
   300
  0
XRECORD
  5
FD9E
102
{ACAD_REACTORS
330
FD9D
102
}
330
FD9D
100
AcDbXrecord
280
     1
102
SHADEPLOT
 70
     0
102
SHADEPLOTRESLEVEL
 70
     2
102
SHADEPLOTCUSTOMDPI
 70
   300
  0
XRECORD
  5
FDA0
102
{ACAD_REACTORS
330
FD9F
102
}
330
FD9F
100
AcDbXrecord
280
     1
102
SHADEPLOT
 70
     0
102
SHADEPLOTRESLEVEL
 70
     2
102
SHADEPLOTCUSTOMDPI
 70
   300
  0
XRECORD
  5
FDA2
102
{ACAD_REACTORS
330
FDA1
102
}
330
FDA1
100
AcDbXrecord
280
     1
102
SHADEPLOT
 70
     0
102
SHADEPLOTRESLEVEL
 70
     2
102
SHADEPLOTCUSTOMDPI
 70
   300
  0
XRECORD
  5
FD98
102
{ACAD_REACTORS
330
FD97
102
}
330
FD97
100
AcDbXrecord
280
     1
102
SHADEPLOT
 70
     0
102
SHADEPLOTRESLEVEL
 70
     2
102
SHADEPLOTCUSTOMDPI
 70
   300
  0
XRECORD
  5
FD9A
102
{ACAD_REACTORS
330
FD99
102
}
330
FD99
100
AcDbXrecord
280
     1
102
SHADEPLOT
 70
     0
102
SHADEPLOTRESLEVEL
 70
     2
102
SHADEPLOTCUSTOMDPI
 70
   300
  0
XRECORD
  5
FDA4
102
{ACAD_REACTORS
330
FDA3
102
}
330
FDA3
100
AcDbXrecord
280
     1
102
SHADEPLOT
 70
     0
102
SHADEPLOTRESLEVEL
 70
     2
102
SHADEPLOTCUSTOMDPI
 70
   300
  0
XRECORD
  5
FDA6
102
{ACAD_REACTORS
330
FDA5
102
}
330
FDA5
100
AcDbXrecord
280
     1
102
ACAD_ROUNDTRIP_PRE2007_TABLESTYLE
 90
        4
 91
        0
  1

 92
        4
 93
        0
  2

 94
        4
 95
        0
  3

  0
ENDSEC
  0
EOF
