  0
SECTION
  2
HEADER
  9
$EXTMAX
 10
170
 20
173
 30
0
  9
$EXTMIN
 10
-211
 20
-100
 30
0
  9
$LIMMAX
 10
170
 20
173
  9
$LIMMIN
 10
-211
 20
-100
  9
$PLIMMAX
 10
170
 20
173
  9
$PLIMMIN
 10
-211
 20
-100
  9
$TEXTSIZE
 40
3.2
  9
$DIMSHO
 70
     0
  9
$DIMASZ
 40
1.0
  9
$DIMTAD
 70
     1
  9
$DIMTIH
 70
     0
  9
$DIMTOH
 70
     0
  9
$DIMEXE
 40
2.54
  9
$DIMEXO
 40
2.54
  9
$DIMTVP
 40
1.0
  9
$DIMSAH
 70
     1
  9
$DIMDLE
 40
0.0
  9
$DIMTXT
 40
3.2
  9
$DIMGAP
 40
1.6
  0
ENDSEC
  0
SECTION
  2
TABLES
  0
TABLE
  2
LTYPE
 70
     6
  0
LTYPE
  2
CONTINUOUS
 70
    64
  3
Solid line
 72
    65
 73
     0
 40
0.0
  0
LTYPE
  2
DASHED
 70
    64
  3
__ __ __ __ __ __ __ __ __ __ __ __ __ __ __
 72
    65
 73
     2
 40
3.5
 49
2.0
 49
-1.5
  0
LTYPE
  2
CENTER
 70
    64
  3
____ _ ____ _ ____ _ ____ _ ____ _ ____ _ ____
 72
    65
 73
     4
 40
17.5
 49
13.0
 49
-1.5
 49
1.5
 49
-1.5
  0
LTYPE
  2
PHANTOM
 70
    64
  3
_____ _ _ _____ _ _ _____ _ _ _____ _ _ ____  
 72
    65
 73
     6
 40
15.5
 49
8.0
 49
-1.5
 49
1.5
 49
-1.5
 49
1.5
 49
-1.5
  0
LTYPE
  2
DOT
 70
    64
  3
. . . . . . . . . . . . . . . . . . . . . . . .
 72
    65
 73
     2
 40
0.25
 49
0.0
 49
-0.25
  0
LTYPE
  2
HIDDEN
 70
    64
  3
__ __ __ __ __ __ __ __ __ __ __ __ __ __ __
 72
    65
 73
     2
 40
3.5
 49
2.0
 49
-1.5
  0
ENDTAB
  0
TABLE
  2
LAYER
 70
     4
  0
LAYER
  2
0
 70
     0
 62
     7
  6
CONTINUOUS
  0
LAYER
  2
1
 70
     0
 62
     7
  6
CONTINUOUS
  0
LAYER
  2
2
 70
     0
 62
     7
  6
CONTINUOUS
  0
LAYER
  2
DEFPOINTS
 70
     0
 62
     7
  6
CONTINUOUS
  0
ENDTAB
  0
TABLE
  2
STYLE
 70
     1
  0
STYLE
  2
STANDARD
 70
     0
 40
0.0
 41
1.0
 50
0.0
 71
     0
 42
0.2
  3
txt
  4
BIGFONT
  0
ENDTAB
  0
TABLE
  2
DIMSTYLE
 70
     1
  0
DIMSTYLE
  2
DIMSTYLE
 70
     0
  3

  4

  5
_DOT
  6
_DOT
  7
_DOT
 40
1
 41
1
 42
2.54
 43
0.38
 44
2.54
 45
0
 46
0
 47
0
 48
0
140
3.2
141
0.09
142
0
143
25.4
144
1
145
0
146
1
147
1.6
 71
     0
 72
     0
 73
     0
 74
     0
 75
     0
 76
     0
 78
     0
170
     0
171
     2
 77
     0
172
     0
173
     1
174
     0
175
     0
176
     0
177
     0
178
     0
  0
ENDTAB
  0
ENDSEC
  0
SECTION
  2
BLOCKS
  0
BLOCK
  8
0
  2
_DOT
 70
    64
 10
0
 20
0
  3
_DOT
  0
POLYLINE
  8
0
  6
BYBLOCK
 62
     0
 66
     1
 10
0
 20
0
 70
     1
 40
0.40000001
 41
0.40000001
  0
VERTEX
  8
0
  6
BYBLOCK
 62
     0
 10
-0.2
 20
0
 42
1
  0
VERTEX
  8
0
  6
BYBLOCK
 62
     0
 10
0.2
 20
0
 42
1
  0
SEQEND
  8
0
  6
BYBLOCK
 62
     0
  0
LINE
  8
0
  6
BYBLOCK
 62
     0
 10
-0.40000001
 20
0
 11
-3
 21
0
  0
ENDBLK
  8
0
  0
BLOCK
  8
0
  2
*D1
 70
    65
 10
0
 20
0
  0
LINE
  8
0
  6
CONTINUOUS
 62
     7
 10
-62.539413
 20
37.079613
 11
-62.539413
 21
12.079611
  0
INSERT
  8
0
  6
CONTINUOUS
 62
     7
  2
_DOT
 10
-62.539413
 20
37.079613
 50
90
  0
INSERT
  8
0
  6
CONTINUOUS
 62
     7
  2
_DOT
 10
-62.539413
 20
12.079611
 50
270
  0
LINE
  8
0
  6
CONTINUOUS
 62
     7
 10
-50.079413
 20
37.079613
 11
-62.539513
 21
37.079613
  0
LINE
  8
0
  6
CONTINUOUS
 62
     7
 10
-50.079413
 20
12.079611
 11
-62.539513
 21
12.079611
  0
TEXT
  8
0
  6
CONTINUOUS
 62
     7
 10
-63.289413
 20
20.508115
 40
3
 41
0.95017504
  1
%%C25
 50
90.000003
  0
POINT
  8
DEFPOINTS
  6
CONTINUOUS
 62
     7
 10
-47.539413
 20
37.079613
  0
POINT
  8
DEFPOINTS
  6
CONTINUOUS
 62
     7
 10
-47.539413
 20
12.079611
  0
POINT
  8
DEFPOINTS
  6
CONTINUOUS
 62
     7
 10
-62.539413
 20
12.079611
  0
ENDBLK
  8
0
  0
BLOCK
  8
0
  2
*D2
 70
    65
 10
0
 20
0
  0
LINE
  8
0
  6
CONTINUOUS
 62
     7
 10
-12.539412
 20
14.579611
 11
-12.539412
 21
34.579613
  0
INSERT
  8
0
  6
CONTINUOUS
 62
     7
  2
_DOT
 10
-12.539412
 20
14.579611
 50
270
  0
INSERT
  8
0
  6
CONTINUOUS
 62
     7
  2
_DOT
 10
-12.539412
 20
34.579613
 50
90
  0
LINE
  8
0
  6
CONTINUOUS
 62
     7
 10
-24.999414
 20
14.579611
 11
-12.539313
 21
14.579611
  0
LINE
  8
0
  6
CONTINUOUS
 62
     7
 10
-24.999414
 20
34.579613
 11
-12.539313
 21
34.579613
  0
TEXT
  8
0
  6
CONTINUOUS
 62
     7
 10
-13.289412
 20
20.508115
 40
3
 41
0.9886281
  1
%%C20
 50
90.000003
  0
POINT
  8
DEFPOINTS
  6
CONTINUOUS
 62
     7
 10
-27.539413
 20
14.579611
  0
POINT
  8
DEFPOINTS
  6
CONTINUOUS
 62
     7
 10
-27.539413
 20
34.579613
  0
POINT
  8
DEFPOINTS
  6
CONTINUOUS
 62
     7
 10
-12.539412
 20
34.579613
  0
ENDBLK
  8
0
  0
BLOCK
  8
0
  2
*D3
 70
    65
 10
0
 20
0
  0
LINE
  8
0
  6
CONTINUOUS
 62
     7
 10
-47.539413
 20
-2.9203894
 11
-27.539413
 21
-2.9203894
  0
INSERT
  8
0
  6
CONTINUOUS
 62
     7
  2
_DOT
 10
-47.539413
 20
-2.9203894
 50
180
  0
INSERT
  8
0
  6
CONTINUOUS
 62
     7
  2
_DOT
 10
-27.539413
 20
-2.9203894
  0
LINE
  8
0
  6
CONTINUOUS
 62
     7
 10
-47.539413
 20
9.5396109
 11
-47.539413
 21
-2.9204886
  0
LINE
  8
0
  6
CONTINUOUS
 62
     7
 10
-27.539413
 20
13.805179
 11
-27.539413
 21
-2.9204886
  0
TEXT
  8
0
  6
CONTINUOUS
 62
     7
 10
-38.610914
 20
-2.1703894
 40
3
 41
1
  1
A
  0
POINT
  8
DEFPOINTS
  6
CONTINUOUS
 62
     7
 10
-47.539413
 20
12.079611
  0
POINT
  8
DEFPOINTS
  6
CONTINUOUS
 62
     7
 10
-27.539413
 20
16.345179
  0
POINT
  8
DEFPOINTS
  6
CONTINUOUS
 62
     7
 10
-27.539413
 20
-2.9203894
  0
ENDBLK
  8
0
  0
BLOCK
  8
0
  2
*D4
 70
    65
 10
0
 20
0
  0
LINE
  8
0
  6
CONTINUOUS
 62
     7
 10
-144.87938
 20
75.530571
 11
-144.87938
 21
6.530571
  0
INSERT
  8
0
  6
CONTINUOUS
 62
     7
  2
_DOT
 10
-144.87938
 20
75.530571
 50
90
  0
INSERT
  8
0
  6
CONTINUOUS
 62
     7
  2
_DOT
 10
-144.87938
 20
6.530571
 50
270
  0
LINE
  8
0
  6
CONTINUOUS
 62
     7
 10
-104.11938
 20
75.530571
 11
-144.87949
 21
75.530571
  0
LINE
  8
0
  6
CONTINUOUS
 62
     7
 10
-104.11938
 20
6.530571
 11
-144.87949
 21
6.530571
  0
TEXT
  8
0
  6
CONTINUOUS
 62
     7
 10
-145.62938
 20
39.959071
 40
3
 41
1
  1
A
 50
90.000003
  0
POINT
  8
DEFPOINTS
  6
CONTINUOUS
 62
     7
 10
-101.57938
 20
75.530571
  0
POINT
  8
DEFPOINTS
  6
CONTINUOUS
 62
     7
 10
-101.57938
 20
6.530571
  0
POINT
  8
DEFPOINTS
  6
CONTINUOUS
 62
     7
 10
-144.87938
 20
6.530571
  0
ENDBLK
  8
0
  0
BLOCK
  8
0
  2
*D5
 70
    65
 10
0
 20
0
  0
LINE
  8
0
  6
CONTINUOUS
 62
     7
 10
-101.57938
 20
-8.469429
 11
-84.579376
 21
-8.469429
  0
INSERT
  8
0
  6
CONTINUOUS
 62
     7
  2
_DOT
 10
-101.57938
 20
-8.469429
 50
180
  0
INSERT
  8
0
  6
CONTINUOUS
 62
     7
  2
_DOT
 10
-84.579376
 20
-8.469429
  0
LINE
  8
0
  6
CONTINUOUS
 62
     7
 10
-84.579376
 20
3.9905711
 11
-84.579376
 21
-8.4695292
  0
TEXT
  8
0
  6
CONTINUOUS
 62
     7
 10
-94.150876
 20
-7.719429
 40
3
 41
1
  1
B
  0
POINT
  8
DEFPOINTS
  6
CONTINUOUS
 62
     7
 10
-101.57938
 20
6.530571
  0
POINT
  8
DEFPOINTS
  6
CONTINUOUS
 62
     7
 10
-84.579376
 20
6.530571
  0
POINT
  8
DEFPOINTS
  6
CONTINUOUS
 62
     7
 10
-84.579376
 20
-8.469429
  0
ENDBLK
  8
0
  0
BLOCK
  8
0
  2
*D6
 70
    65
 10
0
 20
0
  0
LINE
  8
0
  6
CONTINUOUS
 62
     7
 10
-117.77874
 20
-8.469429
 11
-101.57938
 21
-8.469429
  0
INSERT
  8
0
  6
CONTINUOUS
 62
     7
  2
_DOT
 10
-117.77874
 20
-8.469429
 50
180
  0
INSERT
  8
0
  6
CONTINUOUS
 62
     7
  2
_DOT
 10
-101.57938
 20
-8.469429
  0
LINE
  8
0
  6
CONTINUOUS
 62
     7
 10
-117.77874
 20
37.671018
 11
-117.77874
 21
-8.4695292
  0
LINE
  8
0
  6
CONTINUOUS
 62
     7
 10
-101.57938
 20
3.9905711
 11
-101.57938
 21
-8.4695292
  0
TEXT
  8
0
  6
CONTINUOUS
 62
     7
 10
-110.75056
 20
-7.719429
 40
3
 41
1
  1
F
  0
POINT
  8
DEFPOINTS
  6
CONTINUOUS
 62
     7
 10
-117.77874
 20
40.211018
  0
POINT
  8
DEFPOINTS
  6
CONTINUOUS
 62
     7
 10
-101.57938
 20
6.530571
  0
POINT
  8
DEFPOINTS
  6
CONTINUOUS
 62
     7
 10
-101.57938
 20
-8.469429
  0
ENDBLK
  8
0
  0
BLOCK
  8
0
  2
*D7
 70
    65
 10
0
 20
0
  0
LINE
  8
0
  6
CONTINUOUS
 62
     7
 10
-129.87938
 20
108.13057
 11
-64.079376
 21
108.13057
  0
INSERT
  8
0
  6
CONTINUOUS
 62
     7
  2
_DOT
 10
-129.87938
 20
108.13057
 50
180
  0
INSERT
  8
0
  6
CONTINUOUS
 62
     7
  2
_DOT
 10
-64.079376
 20
108.13057
  0
LINE
  8
0
  6
CONTINUOUS
 62
     7
 10
-129.87938
 20
65.070571
 11
-129.87938
 21
108.13067
  0
LINE
  8
0
  6
CONTINUOUS
 62
     7
 10
-64.079376
 20
69.570571
 11
-64.079376
 21
108.13067
  0
TEXT
  8
0
  6
CONTINUOUS
 62
     7
 10
-98.050878
 20
108.88057
 40
3
 41
1
  1
C
  0
POINT
  8
DEFPOINTS
  6
CONTINUOUS
 62
     7
 10
-129.87938
 20
62.530571
  0
POINT
  8
DEFPOINTS
  6
CONTINUOUS
 62
     7
 10
-64.079376
 20
67.030571
  0
POINT
  8
DEFPOINTS
  6
CONTINUOUS
 62
     7
 10
-64.079376
 20
108.13057
  0
ENDBLK
  8
0
  0
BLOCK
  8
0
  2
*D8
 70
    65
 10
0
 20
0
  0
LINE
  8
0
  6
CONTINUOUS
 62
     7
 10
-93.079376
 20
93.130569
 11
-64.079376
 21
93.130569
  0
INSERT
  8
0
  6
CONTINUOUS
 62
     7
  2
_DOT
 10
-93.079376
 20
93.130569
 50
180
  0
INSERT
  8
0
  6
CONTINUOUS
 62
     7
  2
_DOT
 10
-64.079376
 20
93.130569
  0
LINE
  8
0
  6
CONTINUOUS
 62
     7
 10
-64.079376
 20
69.570571
 11
-64.079376
 21
93.130669
  0
TEXT
  8
0
  6
CONTINUOUS
 62
     7
 10
-79.650876
 20
93.880569
 40
3
 41
1
  1
E
  0
POINT
  8
DEFPOINTS
  6
CONTINUOUS
 62
     7
 10
-93.079376
 20
82.630569
  0
POINT
  8
DEFPOINTS
  6
CONTINUOUS
 62
     7
 10
-64.079376
 20
67.030571
  0
POINT
  8
DEFPOINTS
  6
CONTINUOUS
 62
     7
 10
-64.079376
 20
93.130569
  0
ENDBLK
  8
0
  0
BLOCK
  8
0
  2
*D9
 70
    65
 10
0
 20
0
  0
LINE
  8
0
  6
CONTINUOUS
 62
     7
 10
-129.87938
 20
93.130569
 11
-93.079376
 21
93.130569
  0
INSERT
  8
0
  6
CONTINUOUS
 62
     7
  2
_DOT
 10
-129.87938
 20
93.130569
 50
180
  0
INSERT
  8
0
  6
CONTINUOUS
 62
     7
  2
_DOT
 10
-93.079376
 20
93.130569
  0
LINE
  8
0
  6
CONTINUOUS
 62
     7
 10
-129.87938
 20
65.070571
 11
-129.87938
 21
93.130669
  0
LINE
  8
0
  6
CONTINUOUS
 62
     7
 10
-93.079376
 20
85.170569
 11
-93.079376
 21
93.130669
  0
TEXT
  8
0
  6
CONTINUOUS
 62
     7
 10
-112.55088
 20
93.880569
 40
3
 41
1
  1
D
  0
POINT
  8
DEFPOINTS
  6
CONTINUOUS
 62
     7
 10
-129.87938
 20
62.530571
  0
POINT
  8
DEFPOINTS
  6
CONTINUOUS
 62
     7
 10
-93.079376
 20
82.630569
  0
POINT
  8
DEFPOINTS
  6
CONTINUOUS
 62
     7
 10
-93.079376
 20
93.130569
  0
ENDBLK
  8
0
  0
BLOCK
  8
0
  2
*D10
 70
    65
 10
0
 20
0
  0
LINE
  8
0
  6
CONTINUOUS
 62
     7
 10
-18.659264
 20
100.13057
 11
-22.879219
 21
100.13057
  0
LINE
  8
0
  6
CONTINUOUS
 62
     7
 10
-18.659264
 20
100.13057
 11
-16.859264
 21
100.13057
  0
INSERT
  8
0
  6
CONTINUOUS
 62
     7
  2
_DOT
 10
-18.659264
 20
100.13057
 50
180
  0
INSERT
  8
0
  6
CONTINUOUS
 62
     7
  2
_DOT
 10
-16.859264
 20
100.13057
  0
LINE
  8
0
  6
CONTINUOUS
 62
     7
 10
-18.659264
 20
81.270568
 11
-18.659264
 21
100.13067
  0
LINE
  8
0
  6
CONTINUOUS
 62
     7
 10
-16.859264
 20
81.270568
 11
-16.859264
 21
100.13067
  0
TEXT
  8
0
  6
CONTINUOUS
 62
     7
 10
-22.87922
 20
100.88057
 40
3
 41
1
  1
O
  0
POINT
  8
DEFPOINTS
  6
CONTINUOUS
 62
     7
 10
-18.659264
 20
78.730568
  0
POINT
  8
DEFPOINTS
  6
CONTINUOUS
 62
     7
 10
-16.859264
 20
78.730568
  0
POINT
  8
DEFPOINTS
  6
CONTINUOUS
 62
     7
 10
-16.859264
 20
100.13057
  0
ENDBLK
  8
0
  0
BLOCK
  8
0
  2
*D11
 70
    65
 10
0
 20
0
  0
LINE
  8
0
  6
CONTINUOUS
 62
     7
 10
-16.859264
 20
100.13057
 11
-10.859264
 21
100.13057
  0
INSERT
  8
0
  6
CONTINUOUS
 62
     7
  2
_DOT
 10
-16.859264
 20
100.13057
 50
180
  0
INSERT
  8
0
  6
CONTINUOUS
 62
     7
  2
_DOT
 10
-10.859264
 20
100.13057
  0
LINE
  8
0
  6
CONTINUOUS
 62
     7
 10
-10.859264
 20
87.670569
 11
-10.859264
 21
100.13067
  0
TEXT
  8
0
  6
CONTINUOUS
 62
     7
 10
-14.930764
 20
100.88057
 40
3
 41
1
  1
P
  0
POINT
  8
DEFPOINTS
  6
CONTINUOUS
 62
     7
 10
-16.859264
 20
78.730568
  0
POINT
  8
DEFPOINTS
  6
CONTINUOUS
 62
     7
 10
-10.859264
 20
85.130569
  0
POINT
  8
DEFPOINTS
  6
CONTINUOUS
 62
     7
 10
-10.859264
 20
100.13057
  0
ENDBLK
  8
0
  0
BLOCK
  8
0
  2
*D12
 70
    65
 10
0
 20
0
  0
LINE
  8
0
  6
CONTINUOUS
 62
     7
 10
-9.259264
 20
100.13057
 11
-4.6275787
 21
100.13057
  0
LINE
  8
0
  6
CONTINUOUS
 62
     7
 10
-10.859264
 20
100.13057
 11
-9.259264
 21
100.13057
  0
INSERT
  8
0
  6
CONTINUOUS
 62
     7
  2
_DOT
 10
-10.859264
 20
100.13057
 50
180
  0
INSERT
  8
0
  6
CONTINUOUS
 62
     7
  2
_DOT
 10
-9.259264
 20
100.13057
  0
LINE
  8
0
  6
CONTINUOUS
 62
     7
 10
-9.259264
 20
87.670569
 11
-9.259264
 21
100.13067
  0
TEXT
  8
0
  6
CONTINUOUS
 62
     7
 10
-6.7705786
 20
100.88057
 40
3
 41
1
  1
Q
  0
POINT
  8
DEFPOINTS
  6
CONTINUOUS
 62
     7
 10
-10.859264
 20
85.130569
  0
POINT
  8
DEFPOINTS
  6
CONTINUOUS
 62
     7
 10
-9.259264
 20
85.130569
  0
POINT
  8
DEFPOINTS
  6
CONTINUOUS
 62
     7
 10
-9.259264
 20
100.13057
  0
ENDBLK
  8
0
  0
BLOCK
  8
0
  2
*D13
 70
    65
 10
0
 20
0
  0
LINE
  8
0
  6
CONTINUOUS
 62
     7
 10
22.468887
 20
78.730568
 11
22.468887
 21
83.038872
  0
LINE
  8
0
  6
CONTINUOUS
 62
     7
 10
22.468887
 20
78.730568
 11
22.468887
 21
72.830566
  0
INSERT
  8
0
  6
CONTINUOUS
 62
     7
  2
_DOT
 10
22.468887
 20
78.730568
 50
90
  0
INSERT
  8
0
  6
CONTINUOUS
 62
     7
  2
_DOT
 10
22.468887
 20
72.830566
 50
270
  0
LINE
  8
0
  6
CONTINUOUS
 62
     7
 10
-6.7192641
 20
78.730568
 11
22.468987
 21
78.730568
  0
LINE
  8
0
  6
CONTINUOUS
 62
     7
 10
-6.7192641
 20
72.830566
 11
22.468987
 21
72.830566
  0
TEXT
  8
0
  6
CONTINUOUS
 62
     7
 10
21.718887
 20
80.895869
 40
3
 41
1
  1
K
 50
90.000003
  0
POINT
  8
DEFPOINTS
  6
CONTINUOUS
 62
     7
 10
-9.259264
 20
78.730568
  0
POINT
  8
DEFPOINTS
  6
CONTINUOUS
 62
     7
 10
-9.259264
 20
72.830566
  0
POINT
  8
DEFPOINTS
  6
CONTINUOUS
 62
     7
 10
22.468887
 20
72.830566
  0
ENDBLK
  8
0
  0
BLOCK
  8
0
  2
*D14
 70
    65
 10
0
 20
0
  0
LINE
  8
0
  6
CONTINUOUS
 62
     7
 10
22.468887
 20
72.830566
 11
22.468887
 21
16.630569
  0
INSERT
  8
0
  6
CONTINUOUS
 62
     7
  2
_DOT
 10
22.468887
 20
72.830566
 50
90
  0
INSERT
  8
0
  6
CONTINUOUS
 62
     7
  2
_DOT
 10
22.468887
 20
16.630569
 50
270
  0
LINE
  8
0
  6
CONTINUOUS
 62
     7
 10
-8.9192648
 20
16.630569
 11
22.468987
 21
16.630569
  0
TEXT
  8
0
  6
CONTINUOUS
 62
     7
 10
21.718887
 20
43.659068
 40
3
 41
1
  1
J
 50
90.000003
  0
POINT
  8
DEFPOINTS
  6
CONTINUOUS
 62
     7
 10
-9.259264
 20
72.830566
  0
POINT
  8
DEFPOINTS
  6
CONTINUOUS
 62
     7
 10
-11.459265
 20
16.630569
  0
POINT
  8
DEFPOINTS
  6
CONTINUOUS
 62
     7
 10
22.468887
 20
16.630569
  0
ENDBLK
  8
0
  0
BLOCK
  8
0
  2
*D15
 70
    65
 10
0
 20
0
  0
LINE
  8
0
  6
CONTINUOUS
 62
     7
 10
22.468887
 20
10.730572
 11
22.468887
 21
5.0254011
  0
LINE
  8
0
  6
CONTINUOUS
 62
     7
 10
22.468887
 20
16.630569
 11
22.468887
 21
10.730572
  0
INSERT
  8
0
  6
CONTINUOUS
 62
     7
  2
_DOT
 10
22.468887
 20
16.630569
 50
90
  0
INSERT
  8
0
  6
CONTINUOUS
 62
     7
  2
_DOT
 10
22.468887
 20
10.730572
 50
270
  0
LINE
  8
0
  6
CONTINUOUS
 62
     7
 10
-14.319264
 20
10.730572
 11
22.468987
 21
10.730572
  0
TEXT
  8
0
  6
CONTINUOUS
 62
     7
 10
21.718887
 20
5.0254008
 40
3
 41
1
  1
K
 50
90.000003
  0
POINT
  8
DEFPOINTS
  6
CONTINUOUS
 62
     7
 10
-11.459265
 20
16.630569
  0
POINT
  8
DEFPOINTS
  6
CONTINUOUS
 62
     7
 10
-16.859264
 20
10.730572
  0
POINT
  8
DEFPOINTS
  6
CONTINUOUS
 62
     7
 10
22.468887
 20
10.730572
  0
ENDBLK
  8
0
  0
BLOCK
  8
0
  2
*D16
 70
    65
 10
0
 20
0
  0
LINE
  8
0
  6
CONTINUOUS
 62
     7
 10
7.4688854
 20
11.330568
 11
7.4688854
 21
5.0254011
  0
LINE
  8
0
  6
CONTINUOUS
 62
     7
 10
7.4688854
 20
11.330568
 11
7.4688854
 21
14.530565
  0
INSERT
  8
0
  6
CONTINUOUS
 62
     7
  2
_DOT
 10
7.4688854
 20
11.330568
 50
270
  0
INSERT
  8
0
  6
CONTINUOUS
 62
     7
  2
_DOT
 10
7.4688854
 20
14.530565
 50
90
  0
LINE
  8
0
  6
CONTINUOUS
 62
     7
 10
-12.919265
 20
11.330568
 11
7.4689846
 21
11.330568
  0
LINE
  8
0
  6
CONTINUOUS
 62
     7
 10
-12.919265
 20
14.530565
 11
7.4689846
 21
14.530565
  0
TEXT
  8
0
  6
CONTINUOUS
 62
     7
 10
6.7188855
 20
5.0254008
 40
3
 41
1
  1
L
 50
90.000003
  0
POINT
  8
DEFPOINTS
  6
CONTINUOUS
 62
     7
 10
-15.459265
 20
11.330568
  0
POINT
  8
DEFPOINTS
  6
CONTINUOUS
 62
     7
 10
-15.459265
 20
14.530565
  0
POINT
  8
DEFPOINTS
  6
CONTINUOUS
 62
     7
 10
7.4688854
 20
14.530565
  0
ENDBLK
  8
0
  0
BLOCK
  8
0
  2
*D17
 70
    65
 10
0
 20
0
  0
LINE
  8
0
  6
CONTINUOUS
 62
     7
 10
37.468887
 20
10.730572
 11
37.468887
 21
5.0254011
  0
LINE
  8
0
  6
CONTINUOUS
 62
     7
 10
37.468887
 20
10.730572
 11
37.468887
 21
12.930567
  0
INSERT
  8
0
  6
CONTINUOUS
 62
     7
  2
_DOT
 10
37.468887
 20
10.730572
 50
270
  0
INSERT
  8
0
  6
CONTINUOUS
 62
     7
  2
_DOT
 10
37.468887
 20
12.930567
 50
90
  0
LINE
  8
0
  6
CONTINUOUS
 62
     7
 10
-14.319264
 20
10.730572
 11
37.468987
 21
10.730572
  0
LINE
  8
0
  6
CONTINUOUS
 62
     7
 10
-10.319264
 20
12.930567
 11
37.468987
 21
12.930567
  0
TEXT
  8
0
  6
CONTINUOUS
 62
     7
 10
36.718887
 20
5.0254008
 40
3
 41
0.66666667
  1
I
 50
90.000003
  0
POINT
  8
DEFPOINTS
  6
CONTINUOUS
 62
     7
 10
-16.859264
 20
10.730572
  0
POINT
  8
DEFPOINTS
  6
CONTINUOUS
 62
     7
 10
-12.859264
 20
12.930567
  0
POINT
  8
DEFPOINTS
  6
CONTINUOUS
 62
     7
 10
37.468887
 20
12.930567
  0
ENDBLK
  8
0
  0
BLOCK
  8
0
  2
*D18
 70
    65
 10
0
 20
0
  0
LINE
  8
0
  6
CONTINUOUS
 62
     7
 10
37.468887
 20
12.930567
 11
37.468887
 21
76.530571
  0
INSERT
  8
0
  6
CONTINUOUS
 62
     7
  2
_DOT
 10
37.468887
 20
12.930567
 50
270
  0
INSERT
  8
0
  6
CONTINUOUS
 62
     7
  2
_DOT
 10
37.468887
 20
76.530571
 50
90
  0
LINE
  8
0
  6
CONTINUOUS
 62
     7
 10
-10.319264
 20
76.530571
 11
37.468987
 21
76.530571
  0
TEXT
  8
0
  6
CONTINUOUS
 62
     7
 10
36.718887
 20
43.659068
 40
3
 41
1
  1
H
 50
90.000003
  0
POINT
  8
DEFPOINTS
  6
CONTINUOUS
 62
     7
 10
-12.859264
 20
12.930567
  0
POINT
  8
DEFPOINTS
  6
CONTINUOUS
 62
     7
 10
-12.859264
 20
76.530571
  0
POINT
  8
DEFPOINTS
  6
CONTINUOUS
 62
     7
 10
37.468887
 20
76.530571
  0
ENDBLK
  8
0
  0
BLOCK
  8
0
  2
*D19
 70
    65
 10
0
 20
0
  0
LINE
  8
0
  6
CONTINUOUS
 62
     7
 10
37.468887
 20
78.730568
 11
37.468887
 21
83.530739
  0
LINE
  8
0
  6
CONTINUOUS
 62
     7
 10
37.468887
 20
78.730568
 11
37.468887
 21
76.530571
  0
INSERT
  8
0
  6
CONTINUOUS
 62
     7
  2
_DOT
 10
37.468887
 20
78.730568
 50
90
  0
INSERT
  8
0
  6
CONTINUOUS
 62
     7
  2
_DOT
 10
37.468887
 20
76.530571
 50
270
  0
LINE
  8
0
  6
CONTINUOUS
 62
     7
 10
-14.319264
 20
78.730568
 11
37.468987
 21
78.730568
  0
TEXT
  8
0
  6
CONTINUOUS
 62
     7
 10
36.718887
 20
81.387736
 40
3
 41
0.66666667
  1
I
 50
90.000003
  0
POINT
  8
DEFPOINTS
  6
CONTINUOUS
 62
     7
 10
-16.859264
 20
78.730568
  0
POINT
  8
DEFPOINTS
  6
CONTINUOUS
 62
     7
 10
-12.859264
 20
76.530571
  0
POINT
  8
DEFPOINTS
  6
CONTINUOUS
 62
     7
 10
37.468887
 20
76.530571
  0
ENDBLK
  8
0
  0
BLOCK
  8
0
  2
*D20
 70
    65
 10
0
 20
0
  0
LINE
  8
0
  6
CONTINUOUS
 62
     7
 10
-18.659264
 20
-4.2694283
 11
-24.282795
 21
-4.2694283
  0
LINE
  8
0
  6
CONTINUOUS
 62
     7
 10
-18.659264
 20
-4.2694283
 11
-15.459265
 21
-4.2694283
  0
INSERT
  8
0
  6
CONTINUOUS
 62
     7
  2
_DOT
 10
-18.659264
 20
-4.2694283
 50
180
  0
INSERT
  8
0
  6
CONTINUOUS
 62
     7
  2
_DOT
 10
-15.459265
 20
-4.2694283
  0
LINE
  8
0
  6
CONTINUOUS
 62
     7
 10
-18.659264
 20
8.1905718
 11
-18.659264
 21
-4.2695284
  0
LINE
  8
0
  6
CONTINUOUS
 62
     7
 10
-15.459265
 20
8.7905684
 11
-15.459265
 21
-4.2695284
  0
TEXT
  8
0
  6
CONTINUOUS
 62
     7
 10
-24.282794
 20
-3.5194283
 40
3
 41
1
  1
M
  0
POINT
  8
DEFPOINTS
  6
CONTINUOUS
 62
     7
 10
-18.659264
 20
10.730572
  0
POINT
  8
DEFPOINTS
  6
CONTINUOUS
 62
     7
 10
-15.459265
 20
11.330568
  0
POINT
  8
DEFPOINTS
  6
CONTINUOUS
 62
     7
 10
-15.459265
 20
-4.2694283
  0
ENDBLK
  8
0
  0
BLOCK
  8
0
  2
*D21
 70
    65
 10
0
 20
0
  0
LINE
  8
0
  6
CONTINUOUS
 62
     7
 10
-10.859264
 20
-4.2694283
 11
-5.6342392
 21
-4.2694283
  0
LINE
  8
0
  6
CONTINUOUS
 62
     7
 10
-15.459265
 20
-4.2694283
 11
-10.859264
 21
-4.2694283
  0
INSERT
  8
0
  6
CONTINUOUS
 62
     7
  2
_DOT
 10
-15.459265
 20
-4.2694283
 50
180
  0
INSERT
  8
0
  6
CONTINUOUS
 62
     7
  2
_DOT
 10
-10.859264
 20
-4.2694283
  0
LINE
  8
0
  6
CONTINUOUS
 62
     7
 10
-10.859264
 20
26.190568
 11
-10.859264
 21
-4.2695284
  0
TEXT
  8
0
  6
CONTINUOUS
 62
     7
 10
-7.7772396
 20
-3.5194283
 40
3
 41
1
  1
N
  0
POINT
  8
DEFPOINTS
  6
CONTINUOUS
 62
     7
 10
-15.459265
 20
11.330568
  0
POINT
  8
DEFPOINTS
  6
CONTINUOUS
 62
     7
 10
-10.859264
 20
28.730568
  0
POINT
  8
DEFPOINTS
  6
CONTINUOUS
 62
     7
 10
-10.859264
 20
-4.2694283
  0
ENDBLK
  8
0
  0
BLOCK
  8
0
  2
*D22
 70
    65
 10
0
 20
0
  0
LINE
  8
0
  6
CONTINUOUS
 62
     7
 10
68.301941
 20
-2.6694336
 11
57.746834
 21
-2.6694336
  0
LINE
  8
0
  6
CONTINUOUS
 62
     7
 10
68.301941
 20
-2.6694336
 11
73.301941
 21
-2.6694336
  0
INSERT
  8
0
  6
CONTINUOUS
 62
     7
  2
_DOT
 10
68.301941
 20
-2.6694336
 50
180
  0
INSERT
  8
0
  6
CONTINUOUS
 62
     7
  2
_DOT
 10
73.301941
 20
-2.6694336
  0
LINE
  8
0
  6
CONTINUOUS
 62
     7
 10
68.301941
 20
12.290566
 11
68.301941
 21
-2.6695337
  0
LINE
  8
0
  6
CONTINUOUS
 62
     7
 10
73.301941
 20
12.290566
 11
73.301941
 21
-2.6695337
  0
TEXT
  8
0
  6
CONTINUOUS
 62
     7
 10
57.746836
 20
-1.9194336
 40
3
 41
0.84891958
  1
切カキ　Ｔ
  0
POINT
  8
DEFPOINTS
  6
CONTINUOUS
 62
     7
 10
68.301941
 20
14.830566
  0
POINT
  8
DEFPOINTS
  6
CONTINUOUS
 62
     7
 10
73.301941
 20
14.830566
  0
POINT
  8
DEFPOINTS
  6
CONTINUOUS
 62
     7
 10
73.301941
 20
-2.6694336
  0
ENDBLK
  8
0
  0
BLOCK
  8
0
  2
*D23
 70
    65
 10
0
 20
0
  0
LINE
  8
0
  6
CONTINUOUS
 62
     7
 10
64.301941
 20
28.984154
 11
77.301941
 21
28.984154
  0
INSERT
  8
0
  6
CONTINUOUS
 62
     7
  2
_DOT
 10
64.301941
 20
28.984154
 50
180
  0
INSERT
  8
0
  6
CONTINUOUS
 62
     7
  2
_DOT
 10
77.301941
 20
28.984154
  0
TEXT
  8
0
  6
CONTINUOUS
 62
     7
 10
72.899188
 20
29.734154
 40
3
 41
1
  1
S
  0
POINT
  8
DEFPOINTS
  6
CONTINUOUS
 62
     7
 10
64.301941
 20
28.984154
  0
POINT
  8
DEFPOINTS
  6
CONTINUOUS
 62
     7
 10
77.301941
 20
28.984154
  0
POINT
  8
DEFPOINTS
  6
CONTINUOUS
 62
     7
 10
77.301941
 20
28.984154
  0
ENDBLK
  8
0
  0
BLOCK
  8
0
  2
*D24
 70
    65
 10
0
 20
0
  0
LINE
  8
0
  6
CONTINUOUS
 62
     7
 10
92.301941
 20
73.330566
 11
92.301941
 21
17.330566
  0
INSERT
  8
0
  6
CONTINUOUS
 62
     7
  2
_DOT
 10
92.301941
 20
73.330566
 50
90
  0
INSERT
  8
0
  6
CONTINUOUS
 62
     7
  2
_DOT
 10
92.301941
 20
17.330566
 50
270
  0
LINE
  8
0
  6
CONTINUOUS
 62
     7
 10
79.841941
 20
73.330566
 11
92.30204
 21
73.330566
  0
LINE
  8
0
  6
CONTINUOUS
 62
     7
 10
79.841941
 20
17.330566
 11
92.30204
 21
17.330566
  0
TEXT
  8
0
  6
CONTINUOUS
 62
     7
 10
91.551941
 20
44.259066
 40
3
 41
1
  1
R
 50
90.000003
  0
POINT
  8
DEFPOINTS
  6
CONTINUOUS
 62
     7
 10
77.301941
 20
73.330566
  0
POINT
  8
DEFPOINTS
  6
CONTINUOUS
 62
     7
 10
77.301941
 20
17.330566
  0
POINT
  8
DEFPOINTS
  6
CONTINUOUS
 62
     7
 10
92.301941
 20
17.330566
  0
ENDBLK
  8
0
  0
BLOCK
  8
0
  2
*D25
 70
    65
 10
0
 20
0
  0
LINE
  8
0
  6
CONTINUOUS
 62
     7
 10
107.30194
 20
75.830566
 11
107.30194
 21
14.830566
  0
INSERT
  8
0
  6
CONTINUOUS
 62
     7
  2
_DOT
 10
107.30194
 20
75.830566
 50
90
  0
INSERT
  8
0
  6
CONTINUOUS
 62
     7
  2
_DOT
 10
107.30194
 20
14.830566
 50
270
  0
LINE
  8
0
  6
CONTINUOUS
 62
     7
 10
78.341941
 20
75.830566
 11
107.30204
 21
75.830566
  0
LINE
  8
0
  6
CONTINUOUS
 62
     7
 10
78.341941
 20
14.830566
 11
107.30204
 21
14.830566
  0
TEXT
  8
0
  6
CONTINUOUS
 62
     7
 10
106.55194
 20
44.259066
 40
3
 41
1
  1
H
 50
90.000003
  0
POINT
  8
DEFPOINTS
  6
CONTINUOUS
 62
     7
 10
75.801941
 20
75.830566
  0
POINT
  8
DEFPOINTS
  6
CONTINUOUS
 62
     7
 10
75.801941
 20
14.830566
  0
POINT
  8
DEFPOINTS
  6
CONTINUOUS
 62
     7
 10
107.30194
 20
14.830566
  0
ENDBLK
  8
0
  0
BLOCK
  8
0
  2
*D26
 70
    65
 10
0
 20
0
  0
LINE
  8
0
  6
CONTINUOUS
 62
     7
 10
-119.78445
 20
68.530571
 11
-119.78445
 21
56.530571
  0
INSERT
  8
0
  6
CONTINUOUS
 62
     7
  2
_DOT
 10
-119.78445
 20
68.530571
 50
90
  0
INSERT
  8
0
  6
CONTINUOUS
 62
     7
  2
_DOT
 10
-119.78445
 20
56.530571
 50
270
  0
TEXT
  8
0
  6
CONTINUOUS
 62
     7
 10
-120.53445
 20
61.459071
 40
3
 41
1
  1
G
 50
90.000003
  0
POINT
  8
DEFPOINTS
  6
CONTINUOUS
 62
     7
 10
-123.47937
 20
68.530571
  0
POINT
  8
DEFPOINTS
  6
CONTINUOUS
 62
     7
 10
-128.87938
 20
56.530571
  0
POINT
  8
DEFPOINTS
  6
CONTINUOUS
 62
     7
 10
-119.78445
 20
56.530571
  0
ENDBLK
  8
0
  0
BLOCK
  8
0
  2
*D27
 70
    65
 10
0
 20
0
  0
LINE
  8
0
  6
CONTINUOUS
 62
     7
 10
-33.303413
 20
-27.099367
 11
-24.303413
 21
-27.099367
  0
INSERT
  8
0
  6
CONTINUOUS
 62
     7
  2
_DOT
 10
-33.303413
 20
-27.099367
 50
180
  0
INSERT
  8
0
  6
CONTINUOUS
 62
     7
  2
_DOT
 10
-24.303413
 20
-27.099367
  0
LINE
  8
0
  6
CONTINUOUS
 62
     7
 10
-33.303413
 20
-13.569653
 11
-33.303413
 21
-27.099466
  0
LINE
  8
0
  6
CONTINUOUS
 62
     7
 10
-24.303413
 20
-13.569653
 11
-24.303413
 21
-27.099466
  0
TEXT
  8
0
  6
CONTINUOUS
 62
     7
 10
-31.374913
 20
-26.349367
 40
3
 41
0.92333934
  1
%%C9
  0
POINT
  8
DEFPOINTS
  6
CONTINUOUS
 62
     7
 10
-33.303413
 20
-11.029653
  0
POINT
  8
DEFPOINTS
  6
CONTINUOUS
 62
     7
 10
-24.303413
 20
-11.029653
  0
POINT
  8
DEFPOINTS
  6
CONTINUOUS
 62
     7
 10
-24.303413
 20
-27.099367
  0
ENDBLK
  8
0
  0
BLOCK
  8
0
  2
*D28
 70
    65
 10
0
 20
0
  0
LINE
  8
0
  6
CONTINUOUS
 62
     7
 10
-32.303413
 20
28.400633
 11
-25.303413
 21
28.400633
  0
INSERT
  8
0
  6
CONTINUOUS
 62
     7
  2
_DOT
 10
-32.303413
 20
28.400633
 50
180
  0
INSERT
  8
0
  6
CONTINUOUS
 62
     7
  2
_DOT
 10
-25.303413
 20
28.400633
  0
LINE
  8
0
  6
CONTINUOUS
 62
     7
 10
-32.303413
 20
-4.0593672
 11
-32.303413
 21
28.400732
  0
LINE
  8
0
  6
CONTINUOUS
 62
     7
 10
-25.303413
 20
-4.0593672
 11
-25.303413
 21
28.400732
  0
TEXT
  8
0
  6
CONTINUOUS
 62
     7
 10
-31.374913
 20
29.150633
 40
3
 41
0.92333934
  1
%%C7
  0
POINT
  8
DEFPOINTS
  6
CONTINUOUS
 62
     7
 10
-32.303413
 20
-6.5993671
  0
POINT
  8
DEFPOINTS
  6
CONTINUOUS
 62
     7
 10
-25.303413
 20
-6.5993671
  0
POINT
  8
DEFPOINTS
  6
CONTINUOUS
 62
     7
 10
-25.303413
 20
28.400633
  0
ENDBLK
  8
0
  0
BLOCK
  8
0
  2
*D29
 70
    65
 10
0
 20
0
  0
LINE
  8
0
  6
CONTINUOUS
 62
     7
 10
-31.303413
 20
13.400633
 11
-26.303413
 21
13.400633
  0
INSERT
  8
0
  6
CONTINUOUS
 62
     7
  2
_DOT
 10
-31.303413
 20
13.400633
 50
180
  0
INSERT
  8
0
  6
CONTINUOUS
 62
     7
  2
_DOT
 10
-26.303413
 20
13.400633
  0
LINE
  8
0
  6
CONTINUOUS
 62
     7
 10
-31.303413
 20
-4.0593672
 11
-31.303413
 21
13.400733
  0
LINE
  8
0
  6
CONTINUOUS
 62
     7
 10
-26.303413
 20
-4.0593672
 11
-26.303413
 21
13.400733
  0
TEXT
  8
0
  6
CONTINUOUS
 62
     7
 10
-31.374913
 20
14.150633
 40
3
 41
0.92333934
  1
%%C5
  0
POINT
  8
DEFPOINTS
  6
CONTINUOUS
 62
     7
 10
-31.303413
 20
-6.5993671
  0
POINT
  8
DEFPOINTS
  6
CONTINUOUS
 62
     7
 10
-26.303413
 20
-6.5993671
  0
POINT
  8
DEFPOINTS
  6
CONTINUOUS
 62
     7
 10
-26.303413
 20
13.400633
  0
ENDBLK
  8
0
  0
BLOCK
  8
0
  2
*D30
 70
    65
 10
0
 20
0
  0
LINE
  8
0
  6
CONTINUOUS
 62
     7
 10
-9.3034134
 20
-12.099367
 11
-9.3034134
 21
-16.603592
  0
LINE
  8
0
  6
CONTINUOUS
 62
     7
 10
-9.3034134
 20
-9.0993671
 11
-9.3034134
 21
-12.099367
  0
INSERT
  8
0
  6
CONTINUOUS
 62
     7
  2
_DOT
 10
-9.3034134
 20
-9.0993671
 50
90
  0
INSERT
  8
0
  6
CONTINUOUS
 62
     7
  2
_DOT
 10
-9.3034134
 20
-12.099367
 50
270
  0
LINE
  8
0
  6
CONTINUOUS
 62
     7
 10
-21.763413
 20
-9.0993671
 11
-9.3033133
 21
-9.0993671
  0
LINE
  8
0
  6
CONTINUOUS
 62
     7
 10
-26.263413
 20
-12.099367
 11
-9.3033133
 21
-12.099367
  0
TEXT
  8
0
  6
CONTINUOUS
 62
     7
 10
-10.053413
 20
-16.603591
 40
3
 41
1
  1
3
 50
90.000003
  0
POINT
  8
DEFPOINTS
  6
CONTINUOUS
 62
     7
 10
-24.303413
 20
-9.0993671
  0
POINT
  8
DEFPOINTS
  6
CONTINUOUS
 62
     7
 10
-28.803413
 20
-12.099367
  0
POINT
  8
DEFPOINTS
  6
CONTINUOUS
 62
     7
 10
-9.3034134
 20
-12.099367
  0
ENDBLK
  8
0
  0
BLOCK
  8
0
  2
*D31
 70
    65
 10
0
 20
0
  0
LINE
  8
0
  6
CONTINUOUS
 62
     7
 10
-9.3034134
 20
-6.5993671
 11
-9.3034134
 21
-1.5993671
  0
INSERT
  8
0
  6
CONTINUOUS
 62
     7
  2
_DOT
 10
-9.3034134
 20
-6.5993671
 50
270
  0
INSERT
  8
0
  6
CONTINUOUS
 62
     7
  2
_DOT
 10
-9.3034134
 20
-1.5993671
 50
90
  0
LINE
  8
0
  6
CONTINUOUS
 62
     7
 10
-22.763413
 20
-6.5993671
 11
-9.3033133
 21
-6.5993671
  0
LINE
  8
0
  6
CONTINUOUS
 62
     7
 10
-26.263413
 20
-1.5993671
 11
-9.3033133
 21
-1.5993671
  0
TEXT
  8
0
  6
CONTINUOUS
 62
     7
 10
-10.053413
 20
-5.1708672
 40
3
 41
1
  1
5
 50
90.000003
  0
POINT
  8
DEFPOINTS
  6
CONTINUOUS
 62
     7
 10
-25.303413
 20
-6.5993671
  0
POINT
  8
DEFPOINTS
  6
CONTINUOUS
 62
     7
 10
-28.803413
 20
-1.5993671
  0
POINT
  8
DEFPOINTS
  6
CONTINUOUS
 62
     7
 10
-9.3034134
 20
-1.5993671
  0
ENDBLK
  8
0
  0
BLOCK
  8
0
  2
*D32
 70
    65
 10
0
 20
0
  0
LINE
  8
0
  6
CONTINUOUS
 62
     7
 10
-9.3034134
 20
-6.5993671
 11
-9.3034134
 21
-9.0993671
  0
INSERT
  8
0
  6
CONTINUOUS
 62
     7
  2
_DOT
 10
-9.3034134
 20
-6.5993671
 50
90
  0
INSERT
  8
0
  6
CONTINUOUS
 62
     7
  2
_DOT
 10
-9.3034134
 20
-9.0993671
 50
270
  0
LINE
  8
0
  6
CONTINUOUS
 62
     7
 10
-21.763413
 20
-9.0993671
 11
-9.3033133
 21
-9.0993671
  0
TEXT
  8
0
  6
CONTINUOUS
 62
     7
 10
-4.7884132
 20
-11.920867
 40
3
 41
1.3571667
  1
2.5
 50
90.000003
  0
POINT
  8
DEFPOINTS
  6
CONTINUOUS
 62
     7
 10
-25.303413
 20
-6.5993671
  0
POINT
  8
DEFPOINTS
  6
CONTINUOUS
 62
     7
 10
-24.303413
 20
-9.0993671
  0
POINT
  8
DEFPOINTS
  6
CONTINUOUS
 62
     7
 10
-9.3034134
 20
-9.0993671
  0
ENDBLK
  8
0
  0
BLOCK
  8
0
  2
*D33
 70
    65
 10
0
 20
0
  0
LINE
  8
0
  6
CONTINUOUS
 62
     7
 10
-7.453413
 20
-7.4296527
 11
-7.453413
 21
1.3521394
  0
LINE
  8
0
  6
CONTINUOUS
 62
     7
 10
-7.453413
 20
-11.029653
 11
-7.453413
 21
-7.4296527
  0
INSERT
  8
0
  6
CONTINUOUS
 62
     7
  2
_DOT
 10
-7.453413
 20
-11.029653
 50
270
  0
INSERT
  8
0
  6
CONTINUOUS
 62
     7
  2
_DOT
 10
-7.453413
 20
-7.4296527
 50
90
  0
LINE
  8
0
  6
CONTINUOUS
 62
     7
 10
-19.913413
 20
-11.029653
 11
-5.1674132
 21
-11.029653
  0
LINE
  8
0
  6
CONTINUOUS
 62
     7
 10
-21.432164
 20
-7.4296527
 11
-5.1674132
 21
-7.4296527
  0
TEXT
  8
0
  6
CONTINUOUS
 62
     7
 10
-8.2534128
 20
-6.5338605
 40
3.2
 41
1.3571875
  1
3.6
 50
90.000003
  0
POINT
  8
DEFPOINTS
  6
CONTINUOUS
 62
     7
 10
-22.453413
 20
-11.029653
  0
POINT
  8
DEFPOINTS
  6
CONTINUOUS
 62
     7
 10
-23.972164
 20
-7.4296527
  0
POINT
  8
DEFPOINTS
  6
CONTINUOUS
 62
     7
 10
-7.453413
 20
-7.4296527
  0
ENDBLK
  8
0
  0
BLOCK
  8
0
  2
*D34
 70
    65
 10
0
 20
0
  0
LINE
  8
0
  6
CONTINUOUS
 62
     7
 10
-35.153412
 20
-26.029652
 11
-22.453413
 21
-26.029652
  0
INSERT
  8
0
  6
CONTINUOUS
 62
     7
  2
_DOT
 10
-35.153412
 20
-26.029652
 50
180
  0
INSERT
  8
0
  6
CONTINUOUS
 62
     7
  2
_DOT
 10
-22.453413
 20
-26.029652
  0
LINE
  8
0
  6
CONTINUOUS
 62
     7
 10
-35.153412
 20
-13.569653
 11
-35.153412
 21
-26.029751
  0
LINE
  8
0
  6
CONTINUOUS
 62
     7
 10
-22.453413
 20
-13.569653
 11
-22.453413
 21
-26.029751
  0
TEXT
  8
0
  6
CONTINUOUS
 62
     7
 10
-35.874913
 20
-30.544652
 40
3
 41
1.2223855
  1
%%C12.7
  0
POINT
  8
DEFPOINTS
  6
CONTINUOUS
 62
     7
 10
-35.153412
 20
-11.029653
  0
POINT
  8
DEFPOINTS
  6
CONTINUOUS
 62
     7
 10
-22.453413
 20
-11.029653
  0
POINT
  8
DEFPOINTS
  6
CONTINUOUS
 62
     7
 10
-22.453413
 20
-26.029652
  0
ENDBLK
  8
0
  0
BLOCK
  8
0
  2
*D35
 70
    65
 10
0
 20
0
  0
LINE
  8
0
  6
CONTINUOUS
 62
     7
 10
-79.347923
 20
57.100891
 11
-79.347923
 21
32.100887
  0
INSERT
  8
0
  6
CONTINUOUS
 62
     7
  2
_DOT
 10
-79.347923
 20
57.100891
 50
90
  0
INSERT
  8
0
  6
CONTINUOUS
 62
     7
  2
_DOT
 10
-79.347923
 20
32.100887
 50
270
  0
LINE
  8
0
  6
CONTINUOUS
 62
     7
 10
-66.887923
 20
57.100891
 11
-79.348022
 21
57.100891
  0
LINE
  8
0
  6
CONTINUOUS
 62
     7
 10
-66.887923
 20
32.100887
 11
-79.348022
 21
32.100887
  0
TEXT
  8
0
  6
CONTINUOUS
 62
     7
 10
-80.097923
 20
40.529391
 40
3
 41
0.95017504
  1
%%C25
 50
90.000003
  0
POINT
  8
DEFPOINTS
  6
CONTINUOUS
 62
     7
 10
-64.347923
 20
57.100891
  0
POINT
  8
DEFPOINTS
  6
CONTINUOUS
 62
     7
 10
-64.347923
 20
32.100887
  0
POINT
  8
DEFPOINTS
  6
CONTINUOUS
 62
     7
 10
-79.347923
 20
32.100887
  0
ENDBLK
  8
0
  0
BLOCK
  8
0
  2
*D36
 70
    65
 10
0
 20
0
  0
LINE
  8
0
  6
CONTINUOUS
 62
     7
 10
-29.347923
 20
34.600887
 11
-29.347923
 21
54.600891
  0
INSERT
  8
0
  6
CONTINUOUS
 62
     7
  2
_DOT
 10
-29.347923
 20
34.600887
 50
270
  0
INSERT
  8
0
  6
CONTINUOUS
 62
     7
  2
_DOT
 10
-29.347923
 20
54.600891
 50
90
  0
LINE
  8
0
  6
CONTINUOUS
 62
     7
 10
-41.807923
 20
34.600887
 11
-29.347824
 21
34.600887
  0
LINE
  8
0
  6
CONTINUOUS
 62
     7
 10
-41.807923
 20
54.600891
 11
-29.347824
 21
54.600891
  0
TEXT
  8
0
  6
CONTINUOUS
 62
     7
 10
-30.097923
 20
40.529391
 40
3
 41
0.9886281
  1
%%C20
 50
90.000003
  0
POINT
  8
DEFPOINTS
  6
CONTINUOUS
 62
     7
 10
-44.347923
 20
34.600887
  0
POINT
  8
DEFPOINTS
  6
CONTINUOUS
 62
     7
 10
-44.347923
 20
54.600891
  0
POINT
  8
DEFPOINTS
  6
CONTINUOUS
 62
     7
 10
-29.347923
 20
54.600891
  0
ENDBLK
  8
0
  0
BLOCK
  8
0
  2
*D37
 70
    65
 10
0
 20
0
  0
LINE
  8
0
  6
CONTINUOUS
 62
     7
 10
-64.347923
 20
17.100887
 11
-44.347923
 21
17.100887
  0
INSERT
  8
0
  6
CONTINUOUS
 62
     7
  2
_DOT
 10
-64.347923
 20
17.100887
 50
180
  0
INSERT
  8
0
  6
CONTINUOUS
 62
     7
  2
_DOT
 10
-44.347923
 20
17.100887
  0
LINE
  8
0
  6
CONTINUOUS
 62
     7
 10
-64.347923
 20
29.560887
 11
-64.347923
 21
17.100788
  0
LINE
  8
0
  6
CONTINUOUS
 62
     7
 10
-44.347923
 20
33.826455
 11
-44.347923
 21
17.100788
  0
TEXT
  8
0
  6
CONTINUOUS
 62
     7
 10
-55.419423
 20
17.850887
 40
3
 41
1
  1
A
  0
POINT
  8
DEFPOINTS
  6
CONTINUOUS
 62
     7
 10
-64.347923
 20
32.100887
  0
POINT
  8
DEFPOINTS
  6
CONTINUOUS
 62
     7
 10
-44.347923
 20
36.366455
  0
POINT
  8
DEFPOINTS
  6
CONTINUOUS
 62
     7
 10
-44.347923
 20
17.100887
  0
ENDBLK
  8
0
  0
BLOCK
  8
0
  2
KOZU0001
 70
    64
 10
0
 20
0
  0
LINE
  8
0
  6
CONTINUOUS
 62
     3
 10
-101.57938
 20
6.530571
 11
-84.579376
 21
6.530571
  0
LINE
  8
0
  6
CONTINUOUS
 62
     3
 10
-101.57938
 20
75.530571
 11
-101.57938
 21
6.530571
  0
LINE
  8
0
  6
CONTINUOUS
 62
     3
 10
-84.579376
 20
75.530571
 11
-84.579376
 21
6.530571
  0
LINE
  8
0
  6
CONTINUOUS
 62
     3
 10
-101.57938
 20
75.530571
 11
-84.579376
 21
75.530571
  0
LINE
  8
0
  6
CONTINUOUS
 62
     3
 10
-100.77937
 20
74.730568
 11
-85.379379
 21
74.730568
  0
LINE
  8
0
  6
CONTINUOUS
 62
     3
 10
-87.279373
 20
64.530571
 11
-87.279373
 21
25.530571
  0
LINE
  8
0
  6
CONTINUOUS
 62
     3
 10
-100.77937
 20
7.3305702
 11
-85.379379
 21
7.3305702
  0
LINE
  8
0
  6
CONTINUOUS
 62
     3
 10
-85.379379
 20
74.730568
 11
-85.379379
 21
7.3305702
  0
LINE
  8
0
  6
CENTER
 62
     7
 10
-104.55803
 20
18.130571
 11
-82.040421
 21
18.130571
  0
LINE
  8
0
  6
CONTINUOUS
 62
     3
 10
-88.079384
 20
18.130571
 11
-90.579384
 21
13.800448
  0
LINE
  8
0
  6
CONTINUOUS
 62
     3
 10
-98.879379
 20
64.530571
 11
-87.279373
 21
64.530571
  0
LINE
  8
0
  6
CONTINUOUS
 62
     3
 10
-95.579384
 20
22.460703
 11
-95.581451
 21
22.459507
  0
LINE
  8
0
  6
CONTINUOUS
 62
     3
 10
-98.079391
 20
18.130573
 11
-95.579391
 21
22.460703
  0
LINE
  8
0
  6
CONTINUOUS
 62
     3
 10
-95.579376
 20
22.460701
 11
-90.579376
 21
22.460701
  0
LINE
  8
0
  6
CONTINUOUS
 62
     3
 10
-90.579369
 20
22.460697
 11
-88.079369
 21
18.130569
  0
LINE
  8
0
  6
CONTINUOUS
 62
     3
 10
-90.579376
 20
13.800413
 11
-95.579376
 21
13.800413
  0
LINE
  8
0
  6
CONTINUOUS
 62
     3
 10
-95.579376
 20
13.80045
 11
-98.079369
 21
18.130573
  0
LINE
  8
0
  6
CONTINUOUS
 62
     3
 10
-100.77937
 20
74.730568
 11
-100.77937
 21
7.3305702
  0
LINE
  8
0
  6
CONTINUOUS
 62
     3
 10
-98.879379
 20
25.530571
 11
-87.279373
 21
25.530571
  0
LINE
  8
0
  6
CONTINUOUS
 62
     3
 10
-105.85826
 20
78.130569
 11
-79.102783
 21
78.130569
  0
LINE
  8
0
  6
CONTINUOUS
 62
     3
 10
-98.879379
 20
64.530571
 11
-98.879379
 21
25.530571
  0
LINE
  8
0
  6
CONTINUOUS
 62
     3
 10
-64.079376
 20
67.030571
 11
-64.079376
 21
58.030571
  0
LINE
  8
0
  6
CONTINUOUS
 62
     3
 10
-129.87938
 20
63.160324
 11
-129.87938
 21
57.530571
  0
LINE
  8
0
  6
CONTINUOUS
 62
     3
 10
-129.87938
 20
63.160309
 11
-123.47936
 21
68.530556
  0
LINE
  8
0
  6
CONTINUOUS
 62
     3
 10
-70.038239
 20
68.530571
 11
-65.579376
 21
68.530571
  0
LINE
  8
0
  6
CONTINUOUS
 62
     3
 10
-77.054901
 20
77.064507
 11
-71.676544
 21
69.383415
  0
LINE
  8
0
  6
CONTINUOUS
 62
     3
 10
-114.47991
 20
69.244995
 11
-107.77338
 21
77.237541
  0
LINE
  8
0
  6
CONTINUOUS
 62
     3
 10
-84.579376
 20
56.530571
 11
-65.579376
 21
56.530571
  0
LINE
  8
0
  6
PHANTOM
 62
     7
 10
-117.05059
 20
31.888191
 11
-112.79156
 21
28.905989
  0
LINE
  8
0
  6
PHANTOM
 62
     7
 10
-111.45195
 20
29.082359
 11
-103.24834
 21
38.859028
  0
LINE
  8
0
  6
PHANTOM
 62
     7
 10
-117.77874
 20
40.211021
 11
-111.76602
 21
47.376698
  0
LINE
  8
0
  6
CONTINUOUS
 62
     3
 10
-18.659264
 20
10.730572
 11
-16.859264
 21
10.730572
  0
LINE
  8
0
  6
CONTINUOUS
 62
     3
 10
-123.47937
 20
68.530571
 11
-116.012
 21
68.530571
  0
LINE
  8
0
  6
CONTINUOUS
 62
     3
 10
-9.259264
 20
67.130569
 11
-9.009264
 21
67.130569
  0
LINE
  8
0
  6
CENTER
 62
     7
 10
-93.079376
 20
82.630569
 11
-93.079376
 21
1.7084503
  0
LINE
  8
0
  6
CONTINUOUS
 62
     3
 10
-18.659264
 20
78.730568
 11
-16.859264
 21
78.730568
  0
LINE
  8
0
  6
CONTINUOUS
 62
     3
 10
-16.859264
 20
78.730568
 11
-16.859264
 21
10.730572
  0
LINE
  8
0
  6
CONTINUOUS
 62
     3
 10
-18.659264
 20
78.730568
 11
-18.659264
 21
10.730572
  0
LINE
  8
0
  6
CONTINUOUS
 62
     3
 10
-16.859264
 20
14.530565
 11
-15.459265
 21
14.530565
  0
LINE
  8
0
  6
PHANTOM
 62
     7
 10
-117.05059
 20
31.88818
 11
-117.77875
 21
40.21101
  0
LINE
  8
0
  6
CONTINUOUS
 62
     3
 10
-17.759264
 20
78.730568
 11
-17.759264
 21
10.730572
  0
LINE
  8
0
  6
CONTINUOUS
 62
     3
 10
-16.859264
 20
78.130569
 11
-15.459265
 21
78.130569
  0
LINE
  8
0
  6
CONTINUOUS
 62
     3
 10
-9.259264
 20
59.130569
 11
-9.009264
 21
59.130569
  0
LINE
  8
0
  6
CONTINUOUS
 62
     3
 10
-19.759266
 20
18.730572
 11
-18.659264
 21
18.730572
  0
LINE
  8
0
  6
CONTINUOUS
 62
     3
 10
-15.459265
 20
11.330568
 11
-15.459265
 21
14.530565
  0
LINE
  8
0
  6
CONTINUOUS
 62
     3
 10
-16.859264
 20
11.330568
 11
-15.459265
 21
11.330568
  0
LINE
  8
0
  6
CONTINUOUS
 62
     3
 10
-16.859264
 20
74.930573
 11
-15.459265
 21
74.930573
  0
LINE
  8
0
  6
CONTINUOUS
 62
     3
 10
-10.859264
 20
85.130569
 11
-10.859264
 21
28.730568
  0
LINE
  8
0
  6
CONTINUOUS
 62
     3
 10
-15.459265
 20
78.130569
 11
-15.459265
 21
74.930573
  0
LINE
  8
0
  6
CONTINUOUS
 62
     3
 10
-10.859264
 20
85.130569
 11
-9.259264
 21
85.130569
  0
LINE
  8
0
  6
CONTINUOUS
 62
     3
 10
-9.259264
 20
85.130569
 11
-9.259264
 21
36.730568
  0
LINE
  8
0
  6
CONTINUOUS
 62
     3
 10
-10.859264
 20
36.730568
 11
-9.259264
 21
36.730568
  0
LINE
  8
0
  6
CONTINUOUS
 62
     3
 10
-11.459265
 20
26.905754
 11
-11.459265
 21
16.630569
  0
LINE
  8
0
  6
CENTER
 62
     7
 10
-20.859264
 20
76.530571
 11
-12.859264
 21
76.530571
  0
LINE
  8
0
  6
PHANTOM
 62
     7
 10
-46.746574
 20
45.863621
 11
-18.659262
 21
65.530563
  0
LINE
  8
0
  6
PHANTOM
 62
     7
 10
-47.498337
 20
46.937244
 11
-18.659269
 21
67.130577
  0
LINE
  8
0
  6
CONTINUOUS
 62
     3
 10
-9.009264
 20
67.130569
 11
-9.009264
 21
65.930573
  0
LINE
  8
0
  6
CONTINUOUS
 62
     3
 10
-9.259264
 20
65.930573
 11
-9.009264
 21
65.930573
  0
LINE
  8
0
  6
CONTINUOUS
 62
     3
 10
-9.259264
 20
62.930573
 11
-9.009264
 21
62.930573
  0
LINE
  8
0
  6
CONTINUOUS
 62
     3
 10
-9.259264
 20
61.730568
 11
-9.009264
 21
61.730568
  0
LINE
  8
0
  6
CONTINUOUS
 62
     3
 10
-9.259264
 20
60.330574
 11
-9.009264
 21
60.330574
  0
LINE
  8
0
  6
CONTINUOUS
 62
     3
 10
-128.87938
 20
56.530571
 11
-101.57938
 21
56.530571
  0
LINE
  8
0
  6
CONTINUOUS
 62
     3
 10
-9.009264
 20
62.930573
 11
-9.009264
 21
61.730568
  0
LINE
  8
0
  6
CONTINUOUS
 62
     3
 10
-9.009264
 20
60.330574
 11
-9.009264
 21
59.130569
  0
LINE
  8
0
  6
CONTINUOUS
 62
     3
 10
-18.659264
 20
10.730572
 11
-16.859264
 21
10.730572
  0
LINE
  8
0
  6
CONTINUOUS
 62
     3
 10
-18.659264
 20
78.730568
 11
-16.859264
 21
78.730568
  0
LINE
  8
0
  6
CENTER
 62
     7
 10
-20.859264
 20
12.930567
 11
-12.859264
 21
12.930567
  0
LINE
  8
0
  6
CONTINUOUS
 62
     3
 10
-11.398957
 20
27.24778
 11
-10.859265
 21
28.73057
  0
LINE
  8
0
  6
CONTINUOUS
 62
     3
 10
-16.859264
 20
72.830566
 11
-10.859264
 21
72.830566
  0
LINE
  8
0
  6
CONTINUOUS
 62
     3
 10
-16.859264
 20
16.630569
 11
-11.459265
 21
16.630569
  0
LINE
  8
0
  6
CONTINUOUS
 62
     3
 10
-19.759266
 20
24.330574
 11
-18.659264
 21
24.330574
  0
LINE
  8
0
  6
CONTINUOUS
 62
     3
 10
-19.759266
 20
24.330574
 11
-19.759266
 21
18.730572
  0
LINE
  8
0
  6
CONTINUOUS
 62
     3
 10
68.301941
 20
75.830566
 11
68.301941
 21
73.330566
  0
LINE
  8
0
  6
CONTINUOUS
 62
     3
 10
73.301941
 20
17.330566
 11
73.301941
 21
14.830566
  0
LINE
  8
0
  6
CONTINUOUS
 62
     3
 10
68.301941
 20
17.330566
 11
68.301941
 21
14.830566
  0
LINE
  8
0
  6
PHANTOM
 62
     7
 10
-42.106121
 20
44.410782
 11
-43.469975
 21
48.157936
  0
LINE
  8
0
  6
PHANTOM
 62
     7
 10
-43.864281
 20
42.998749
 11
-42.179348
 21
44.178551
  0
LINE
  8
0
  6
PHANTOM
 62
     7
 10
-45.572063
 20
43.26786
 11
-44.116833
 21
44.286823
  0
LINE
  8
0
  6
CONTINUOUS
 62
     3
 10
73.301941
 20
17.330566
 11
77.301941
 21
17.330566
  0
LINE
  8
0
  6
PHANTOM
 62
     7
 10
-45.474773
 20
42.904808
 11
-44.524998
 21
42.821712
  0
LINE
  8
0
  6
PHANTOM
 62
     7
 10
-44.591942
 20
44.858883
 11
-46.715305
 21
44.886063
  0
LINE
  8
0
  6
PHANTOM
 62
     7
 10
-44.116833
 20
44.286819
 11
-44.459404
 21
44.776062
  0
LINE
  8
0
  6
CONTINUOUS
 62
     3
 10
73.301941
 20
75.830566
 11
73.301941
 21
73.330566
  0
LINE
  8
0
  6
CONTINUOUS
 62
     3
 10
73.301941
 20
73.330566
 11
77.301941
 21
73.330566
  0
LINE
  8
0
  6
CENTER
 62
     7
 10
60.801941
 20
45.330566
 11
80.801941
 21
45.330566
  0
LINE
  8
0
  6
CONTINUOUS
 62
     3
 10
64.301941
 20
73.330566
 11
68.301941
 21
73.330566
  0
LINE
  8
0
  6
CONTINUOUS
 62
     3
 10
64.301941
 20
17.330566
 11
68.301941
 21
17.330566
  0
LINE
  8
0
  6
CENTER
 62
     7
 10
70.801941
 20
80.330566
 11
70.801941
 21
10.330566
  0
LINE
  8
0
  6
CONTINUOUS
 62
     3
 10
64.301941
 20
73.330566
 11
64.301941
 21
17.330566
  0
LINE
  8
0
  6
CONTINUOUS
 62
     3
 10
77.301941
 20
73.330566
 11
77.301941
 21
17.330566
  0
LINE
  8
0
  6
CENTER
 62
     7
 10
65.801941
 20
75.830566
 11
75.801941
 21
75.830566
  0
LINE
  8
0
  6
CENTER
 62
     7
 10
65.801941
 20
14.830566
 11
75.801941
 21
14.830566
  0
LINE
  8
0
  6
CONTINUOUS
 62
     7
 10
-70
 20
-92
 11
160
 21
-92
  0
LINE
  8
0
  6
CONTINUOUS
 62
     7
 10
-70
 20
-84
 11
160
 21
-84
  0
LINE
  8
0
  6
CONTINUOUS
 62
     7
 10
-70
 20
-76
 11
160
 21
-76
  0
LINE
  8
0
  6
CONTINUOUS
 62
     7
 10
-70
 20
-68
 11
160
 21
-68
  0
LINE
  8
0
  6
CONTINUOUS
 62
     7
 10
-70
 20
-60
 11
160
 21
-60
  0
LINE
  8
0
  6
CONTINUOUS
 62
     7
 10
-20
 20
-60
 11
-20
 21
-92
  0
LINE
  8
0
  6
CONTINUOUS
 62
     7
 10
-30
 20
-60
 11
-30
 21
-92
  0
LINE
  8
0
  6
CONTINUOUS
 62
     7
 10
-40
 20
-60
 11
-40
 21
-92
  0
LINE
  8
0
  6
CONTINUOUS
 62
     7
 10
160
 20
-60
 11
160
 21
-92
  0
LINE
  8
0
  6
CONTINUOUS
 62
     7
 10
-10
 20
-60
 11
-10
 21
-92
  0
LINE
  8
0
  6
CONTINUOUS
 62
     7
 10
0
 20
-60
 11
0
 21
-92
  0
LINE
  8
0
  6
CONTINUOUS
 62
     7
 10
10
 20
-60
 11
10
 21
-92
  0
LINE
  8
0
  6
CONTINUOUS
 62
     7
 10
20
 20
-60
 11
20
 21
-92
  0
LINE
  8
0
  6
CONTINUOUS
 62
     7
 10
30
 20
-60
 11
30
 21
-92
  0
LINE
  8
0
  6
CONTINUOUS
 62
     7
 10
40
 20
-60
 11
40
 21
-92
  0
LINE
  8
0
  6
CONTINUOUS
 62
     7
 10
50
 20
-60
 11
50
 21
-92
  0
LINE
  8
0
  6
CONTINUOUS
 62
     7
 10
60
 20
-60
 11
60
 21
-92
  0
LINE
  8
0
  6
CONTINUOUS
 62
     7
 10
70
 20
-60
 11
70
 21
-92
  0
LINE
  8
0
  6
CONTINUOUS
 62
     7
 10
80
 20
-60
 11
80
 21
-92
  0
LINE
  8
0
  6
CONTINUOUS
 62
     7
 10
90
 20
-60
 11
90
 21
-92
  0
LINE
  8
0
  6
CONTINUOUS
 62
     7
 10
100
 20
-60
 11
100
 21
-92
  0
LINE
  8
0
  6
CONTINUOUS
 62
     7
 10
110
 20
-60
 11
110
 21
-92
  0
LINE
  8
0
  6
CONTINUOUS
 62
     7
 10
120
 20
-60
 11
120
 21
-92
  0
LINE
  8
0
  6
CONTINUOUS
 62
     7
 10
130
 20
-60
 11
130
 21
-92
  0
LINE
  8
0
  6
CONTINUOUS
 62
     7
 10
140
 20
-60
 11
140
 21
-92
  0
LINE
  8
0
  6
CONTINUOUS
 62
     7
 10
150
 20
-60
 11
150
 21
-92
  0
LINE
  8
0
  6
CONTINUOUS
 62
     7
 10
-70
 20
-60
 11
-70
 21
-92
  0
CIRCLE
  8
0
  6
CONTINUOUS
 62
     3
 10
-93.079376
 20
18.130571
 40
5
  0
ARC
  8
0
  6
PHANTOM
 62
     7
 10
-112.21798
 20
29.72514
 40
1
 50
234.9999
 51
319.99999
  0
ARC
  8
0
  6
CONTINUOUS
 62
     3
 10
-79.102783
 20
75.630569
 40
2.5
 50
34.999899
 51
90
  0
ARC
  8
0
  6
CONTINUOUS
 62
     3
 10
-105.85826
 20
75.630569
 40
2.5
 50
90
 51
140.00015
  0
ARC
  8
0
  6
CONTINUOUS
 62
     3
 10
-70.038239
 20
70.530571
 40
2
 50
215.00004
 51
270
  0
ARC
  8
0
  6
CONTINUOUS
 62
     3
 10
-116.012
 20
70.530571
 40
2
 50
270
 51
319.99999
  0
ARC
  8
0
  6
CONTINUOUS
 62
     3
 10
-128.87938
 20
57.530571
 40
1
 50
180
 51
270
  0
ARC
  8
0
  6
CONTINUOUS
 62
     3
 10
-65.579376
 20
58.030571
 40
1.5
 50
270
 51
360
  0
ARC
  8
0
  6
CONTINUOUS
 62
     3
 10
-65.579376
 20
67.030571
 40
1.5
 50
0
 51
90
  0
ARC
  8
0
  6
CONTINUOUS
 62
     3
 10
-9.009264
 20
61.030571
 40
0.69999999
 50
270
 51
90
  0
ARC
  8
0
  6
CONTINUOUS
 62
     3
 10
-9.009264
 20
64.430573
 40
1.5
 50
270
 51
90
  0
ARC
  8
0
  6
CONTINUOUS
 62
     3
 10
-10.459265
 20
26.905754
 40
1
 50
159.9999
 51
180
  0
ARC
  8
0
  6
PHANTOM
 62
     7
 10
-47.122456
 20
46.400429
 40
0.65532076
 50
125.00003
 51
305.00003
  0
ARC
  8
0
  6
CONTINUOUS
 62
     3
 10
70.801941
 20
75.830566
 40
2.5
 50
0
 51
180
  0
ARC
  8
0
  6
CONTINUOUS
 62
     3
 10
70.801941
 20
14.830566
 40
2.5
 50
179.99998
 51
360
  0
ARC
  8
0
  6
PHANTOM
 62
     7
 10
-45.457352
 20
43.104027
 40
0.2
 50
125.00017
 51
265.00048
  0
ARC
  8
0
  6
PHANTOM
 62
     7
 10
-44.437851
 20
43.81789
 40
1
 50
265.00007
 51
305.00004
  0
ARC
  8
0
  6
PHANTOM
 62
     7
 10
-46.637081
 20
45.379898
 40
0.5
 50
129.19975
 51
261.00006
  0
ARC
  8
0
  6
PHANTOM
 62
     7
 10
-44.623238
 20
44.66135
 40
0.2
 50
35.000167
 51
80.999591
  0
ARC
  8
0
  6
PHANTOM
 62
     7
 10
-42.294056
 20
44.342373
 40
0.2
 50
305.00017
 51
20.000286
  0
TEXT
  8
0
  6
CONTINUOUS
 62
     7
 10
-68.942858
 20
-89.6
 40
3.2
 41
0.8449534
  1
ＥＬ－２（３）－３
  0
TEXT
  8
0
  6
CONTINUOUS
 62
     7
 10
153.85714
 20
-89.6
 40
3.2
 41
0.90036055
  1
９
  0
TEXT
  8
0
  6
CONTINUOUS
 62
     7
 10
153.85714
 20
-65.6
 40
3.2
 41
0.90036055
  1
Ｔ
  0
TEXT
  8
0
  6
CONTINUOUS
 62
     7
 10
142.25714
 20
-89.6
 40
3.2
 41
0.8643459
  1
２６
  0
TEXT
  8
0
  6
CONTINUOUS
 62
     7
 10
131
 20
-89.6
 40
3.2
 41
0.45018008
  1
１１５．５
  0
TEXT
  8
0
  6
CONTINUOUS
 62
     7
 10
120.65714
 20
-89.6
 40
3.2
 41
0.85534224
  1
３．０
  0
TEXT
  8
0
  6
CONTINUOUS
 62
     7
 10
112.25714
 20
-89.6
 40
3.2
 41
0.8643459
  1
１７
  0
TEXT
  8
0
  6
CONTINUOUS
 62
     7
 10
103.85714
 20
-89.6
 40
3.2
 41
0.90036055
  1
３
  0
TEXT
  8
0
  6
CONTINUOUS
 62
     7
 10
92.257142
 20
-89.6
 40
3.2
 41
0.8643459
  1
１２
  0
TEXT
  8
0
  6
CONTINUOUS
 62
     7
 10
83.857142
 20
-89.6
 40
3.2
 41
0.90036055
  1
８
  0
TEXT
  8
0
  6
CONTINUOUS
 62
     7
 10
70.657142
 20
-89.6
 40
3.2
 41
0.85534224
  1
８．５
  0
TEXT
  8
0
  6
CONTINUOUS
 62
     7
 10
61
 20
-89.6
 40
3.2
 41
0.57295646
  1
１２．５
  0
TEXT
  8
0
  6
CONTINUOUS
 62
     7
 10
50.657142
 20
-89.6
 40
3.2
 41
0.85534224
  1
１１５
  0
TEXT
  8
0
  6
CONTINUOUS
 62
     7
 10
43.857142
 20
-89.6
 40
3.2
 41
0.90036055
  1
７
  0
TEXT
  8
0
  6
CONTINUOUS
 62
     7
 10
30.657142
 20
-89.6
 40
3.2
 41
0.85534224
  1
１２７
  0
TEXT
  8
0
  6
CONTINUOUS
 62
     7
 10
22.257142
 20
-89.6
 40
3.2
 41
0.8643459
  1
２０
  0
TEXT
  8
0
  6
CONTINUOUS
 62
     7
 10
12.257142
 20
-89.6
 40
3.2
 41
0.8643459
  1
２４
  0
TEXT
  8
0
  6
CONTINUOUS
 62
     7
 10
2.2571423
 20
-89.6
 40
3.2
 41
0.8643459
  1
４９
  0
TEXT
  8
0
  6
CONTINUOUS
 62
     7
 10
-7.7428577
 20
-89.6
 40
3.2
 41
0.8643459
  1
６６
  0
TEXT
  8
0
  6
CONTINUOUS
 62
     7
 10
-19.342858
 20
-89.6
 40
3.2
 41
0.85534224
  1
１１５
  0
TEXT
  8
0
  6
CONTINUOUS
 62
     7
 10
-27.742858
 20
-89.6
 40
3.2
 41
0.8643459
  1
３２
  0
TEXT
  8
0
  6
CONTINUOUS
 62
     7
 10
-39.342858
 20
-89.6
 40
3.2
 41
0.85534224
  1
１４１
  0
TEXT
  8
0
  6
CONTINUOUS
 62
     7
 10
143.85714
 20
-65.6
 40
3.2
 41
0.90036055
  1
Ｓ
  0
TEXT
  8
0
  6
CONTINUOUS
 62
     7
 10
133.85714
 20
-65.6
 40
3.2
 41
0.90036055
  1
Ｒ
  0
TEXT
  8
0
  6
CONTINUOUS
 62
     7
 10
123.85714
 20
-65.6
 40
3.2
 41
0.90036055
  1
Ｑ
  0
TEXT
  8
0
  6
CONTINUOUS
 62
     7
 10
113.85714
 20
-65.6
 40
3.2
 41
0.90036055
  1
Ｐ
  0
TEXT
  8
0
  6
CONTINUOUS
 62
     7
 10
103.85714
 20
-65.6
 40
3.2
 41
0.90036055
  1
Ｏ
  0
TEXT
  8
0
  6
CONTINUOUS
 62
     7
 10
93.857142
 20
-65.6
 40
3.2
 41
0.90036055
  1
Ｎ
  0
TEXT
  8
0
  6
CONTINUOUS
 62
     7
 10
83.857142
 20
-65.6
 40
3.2
 41
0.90036055
  1
Ｍ
  0
TEXT
  8
0
  6
CONTINUOUS
 62
     7
 10
73.857142
 20
-65.6
 40
3.2
 41
0.90036055
  1
Ｌ
  0
TEXT
  8
0
  6
CONTINUOUS
 62
     7
 10
63.857142
 20
-65.6
 40
3.2
 41
0.90036055
  1
Ｋ
  0
TEXT
  8
0
  6
CONTINUOUS
 62
     7
 10
53.857142
 20
-65.6
 40
3.2
 41
0.90036055
  1
Ｊ
  0
TEXT
  8
0
  6
CONTINUOUS
 62
     7
 10
43.857142
 20
-65.6
 40
3.2
 41
0.90036055
  1
Ｉ
  0
TEXT
  8
0
  6
CONTINUOUS
 62
     7
 10
33.857142
 20
-65.6
 40
3.2
 41
0.90036055
  1
Ｈ
  0
TEXT
  8
0
  6
CONTINUOUS
 62
     7
 10
23.857142
 20
-65.6
 40
3.2
 41
0.90036055
  1
Ｇ
  0
TEXT
  8
0
  6
CONTINUOUS
 62
     7
 10
13.857142
 20
-65.6
 40
3.2
 41
0.90036055
  1
Ｆ
  0
TEXT
  8
0
  6
CONTINUOUS
 62
     7
 10
3.8571423
 20
-65.6
 40
3.2
 41
0.90036055
  1
Ｅ
  0
TEXT
  8
0
  6
CONTINUOUS
 62
     7
 10
-6.1428577
 20
-65.6
 40
3.2
 41
0.90036055
  1
Ｄ
  0
TEXT
  8
0
  6
CONTINUOUS
 62
     7
 10
-16.142858
 20
-65.6
 40
3.2
 41
0.90036055
  1
Ｃ
  0
TEXT
  8
0
  6
CONTINUOUS
 62
     7
 10
-26.142858
 20
-65.6
 40
3.2
 41
0.90036055
  1
Ｂ
  0
TEXT
  8
0
  6
CONTINUOUS
 62
     7
 10
-36.142858
 20
-65.6
 40
3.2
 41
1
  1
A
  0
TEXT
  8
0
  6
CONTINUOUS
 62
     7
 10
-59.114287
 20
-66.4
 40
4.8000002
 41
0.8643459
  1
品番
  0
TEXT
  8
0
  6
CONTINUOUS
 62
     7
 10
153.85714
 20
-73.6
 40
3.2
 41
0.90036055
  1
７
  0
TEXT
  8
0
  6
CONTINUOUS
 62
     7
 10
141
 20
-73.6
 40
3.2
 41
0.57295646
  1
２２．５
  0
TEXT
  8
0
  6
CONTINUOUS
 62
     7
 10
131
 20
-73.6
 40
3.2
 41
0.57295646
  1
６５．５
  0
TEXT
  8
0
  6
CONTINUOUS
 62
     7
 10
120.65714
 20
-73.6
 40
3.2
 41
0.85534224
  1
２．３
  0
TEXT
  8
0
  6
CONTINUOUS
 62
     7
 10
112.25714
 20
-73.6
 40
3.2
 41
0.8643459
  1
１４
  0
TEXT
  8
0
  6
CONTINUOUS
 62
     7
 10
103.85714
 20
-73.6
 40
3.2
 41
0.90036055
  1
３
  0
TEXT
  8
0
  6
CONTINUOUS
 62
     7
 10
92.257142
 20
-73.6
 40
3.2
 41
0.8643459
  1
１０
  0
TEXT
  8
0
  6
CONTINUOUS
 62
     7
 10
83.857142
 20
-73.6
 40
3.2
 41
0.90036055
  1
７
  0
TEXT
  8
0
  6
CONTINUOUS
 62
     7
 10
70.657142
 20
-73.6
 40
3.2
 41
0.85534224
  1
６．２
  0
TEXT
  8
0
  6
CONTINUOUS
 62
     7
 10
62.257142
 20
-73.6
 40
3.2
 41
0.8643459
  1
１０
  0
TEXT
  8
0
  6
CONTINUOUS
 62
     7
 10
52.257142
 20
-73.6
 40
3.2
 41
0.8643459
  1
６５
  0
TEXT
  8
0
  6
CONTINUOUS
 62
     7
 10
43.857142
 20
-73.6
 40
3.2
 41
0.90036055
  1
５
  0
TEXT
  8
0
  6
CONTINUOUS
 62
     7
 10
32.257142
 20
-73.6
 40
3.2
 41
0.8643459
  1
７５
  0
TEXT
  8
0
  6
CONTINUOUS
 62
     7
 10
22.257142
 20
-73.6
 40
3.2
 41
0.8643459
  1
２０
  0
TEXT
  8
0
  6
CONTINUOUS
 62
     7
 10
12.257142
 20
-73.6
 40
3.2
 41
0.8643459
  1
２８
  0
TEXT
  8
0
  6
CONTINUOUS
 62
     7
 10
2.2571423
 20
-73.6
 40
3.2
 41
0.8643459
  1
４９
  0
TEXT
  8
0
  6
CONTINUOUS
 62
     7
 10
-7.7428577
 20
-73.6
 40
3.2
 41
0.8643459
  1
６６
  0
TEXT
  8
0
  6
CONTINUOUS
 62
     7
 10
-19.342858
 20
-73.6
 40
3.2
 41
0.85534224
  1
１１５
  0
TEXT
  8
0
  6
CONTINUOUS
 62
     7
 10
-27.742858
 20
-73.6
 40
3.2
 41
0.8643459
  1
２７
  0
TEXT
  8
0
  6
CONTINUOUS
 62
     7
 10
-37.742858
 20
-73.6
 40
3.2
 41
0.8643459
  1
８５
  0
TEXT
  8
0
  6
CONTINUOUS
 62
     7
 10
-68.942858
 20
-73.6
 40
3.2
 41
0.8449534
  1
ＥＬ－２（３）－１
  0
TEXT
  8
0
  6
CONTINUOUS
 62
     7
 10
153.85714
 20
-81.6
 40
3.2
 41
0.90036055
  1
７
  0
TEXT
  8
0
  6
CONTINUOUS
 62
     7
 10
141
 20
-81.6
 40
3.2
 41
0.57295646
  1
２２．５
  0
TEXT
  8
0
  6
CONTINUOUS
 62
     7
 10
131
 20
-81.6
 40
3.2
 41
0.57295646
  1
９５．５
  0
TEXT
  8
0
  6
CONTINUOUS
 62
     7
 10
120.65714
 20
-81.6
 40
3.2
 41
0.85534224
  1
２．３
  0
TEXT
  8
0
  6
CONTINUOUS
 62
     7
 10
112.25714
 20
-81.6
 40
3.2
 41
0.8643459
  1
１４
  0
TEXT
  8
0
  6
CONTINUOUS
 62
     7
 10
103.85714
 20
-81.6
 40
3.2
 41
0.90036055
  1
３
  0
TEXT
  8
0
  6
CONTINUOUS
 62
     7
 10
92.257142
 20
-81.6
 40
3.2
 41
0.8643459
  1
１０
  0
TEXT
  8
0
  6
CONTINUOUS
 62
     7
 10
83.857142
 20
-81.6
 40
3.2
 41
0.90036055
  1
７
  0
TEXT
  8
0
  6
CONTINUOUS
 62
     7
 10
70.657142
 20
-81.6
 40
3.2
 41
0.85534224
  1
６．２
  0
TEXT
  8
0
  6
CONTINUOUS
 62
     7
 10
62.257142
 20
-81.6
 40
3.2
 41
0.8643459
  1
１０
  0
TEXT
  8
0
  6
CONTINUOUS
 62
     7
 10
52.257142
 20
-81.6
 40
3.2
 41
0.8643459
  1
９５
  0
TEXT
  8
0
  6
CONTINUOUS
 62
     7
 10
43.857142
 20
-81.6
 40
3.2
 41
0.90036055
  1
５
  0
TEXT
  8
0
  6
CONTINUOUS
 62
     7
 10
30.657142
 20
-81.6
 40
3.2
 41
0.85534224
  1
１０５
  0
TEXT
  8
0
  6
CONTINUOUS
 62
     7
 10
22.257142
 20
-81.6
 40
3.2
 41
0.8643459
  1
２０
  0
TEXT
  8
0
  6
CONTINUOUS
 62
     7
 10
12.257142
 20
-81.6
 40
3.2
 41
0.8643459
  1
２８
  0
TEXT
  8
0
  6
CONTINUOUS
 62
     7
 10
2.2571423
 20
-81.6
 40
3.2
 41
0.8643459
  1
４９
  0
TEXT
  8
0
  6
CONTINUOUS
 62
     7
 10
-7.7428577
 20
-81.6
 40
3.2
 41
0.8643459
  1
６６
  0
TEXT
  8
0
  6
CONTINUOUS
 62
     7
 10
-19.342858
 20
-81.6
 40
3.2
 41
0.85534224
  1
１１５
  0
TEXT
  8
0
  6
CONTINUOUS
 62
     7
 10
-27.742858
 20
-81.6
 40
3.2
 41
0.8643459
  1
２７
  0
TEXT
  8
0
  6
CONTINUOUS
 62
     7
 10
-39.342858
 20
-81.6
 40
3.2
 41
0.85534224
  1
１１５
  0
TEXT
  8
0
  6
CONTINUOUS
 62
     7
 10
-68.942858
 20
-81.6
 40
3.2
 41
0.8449534
  1
ＥＬ－２（３）－２
  0
DIMENSION
  8
0
  6
CONTINUOUS
 62
     7
  2
*D4
 70
     0
 10
-144.87938
 20
6.530571
 11
-144.87938
 21
41.030571
  3
DIMSTYLE
 13
-101.57938
 23
75.530571
 14
-101.57938
 24
6.530571
 50
90
1001
ACAD
1000
DSTYLE
1002
{
1070
    77
1070
     1
1070
   172
1070
     1
1002
}
  0
DIMENSION
  8
0
  6
CONTINUOUS
 62
     7
  2
*D5
 70
     0
 10
-84.579376
 20
-8.469429
 11
-93.079376
 21
-8.469429
  3
DIMSTYLE
 13
-101.57938
 23
6.530571
 14
-84.579376
 24
6.530571
 50
0
1001
ACAD
1000
DSTYLE
1002
{
1070
    77
1070
     1
1070
   172
1070
     1
1070
    75
1070
     1
1002
}
  0
DIMENSION
  8
0
  6
CONTINUOUS
 62
     7
  2
*D6
 70
     0
 10
-101.57938
 20
-8.469429
 11
-109.67906
 21
-8.469429
  3
DIMSTYLE
 13
-117.77874
 23
40.211018
 14
-101.57938
 24
6.530571
 50
0
1001
ACAD
1000
DSTYLE
1002
{
1070
    77
1070
     1
1070
   172
1070
     1
1002
}
  0
DIMENSION
  8
0
  6
CONTINUOUS
 62
     7
  2
*D7
 70
     0
 10
-64.079376
 20
108.13057
 11
-96.979378
 21
108.13057
  3
DIMSTYLE
 13
-129.87938
 23
62.530571
 14
-64.079376
 24
67.030571
 50
0
1001
ACAD
1000
DSTYLE
1002
{
1070
    77
1070
     1
1070
   172
1070
     1
1002
}
  0
DIMENSION
  8
0
  6
CONTINUOUS
 62
     7
  2
*D8
 70
     0
 10
-64.079376
 20
93.130569
 11
-78.579376
 21
93.130569
  3
DIMSTYLE
 13
-93.079376
 23
82.630569
 14
-64.079376
 24
67.030571
 50
0
1001
ACAD
1000
DSTYLE
1002
{
1070
    77
1070
     1
1070
   172
1070
     1
1070
    75
1070
     1
1002
}
  0
DIMENSION
  8
0
  6
CONTINUOUS
 62
     7
  2
*D9
 70
     0
 10
-93.079376
 20
93.130569
 11
-111.47938
 21
93.130569
  3
DIMSTYLE
 13
-129.87938
 23
62.530571
 14
-93.079376
 24
82.630569
 50
0
1001
ACAD
1000
DSTYLE
1002
{
1070
    77
1070
     1
1070
   172
1070
     1
1002
}
  0
DIMENSION
  8
0
  6
CONTINUOUS
 62
     7
  2
*D10
 70
     0
 10
-16.859264
 20
100.13057
 11
-21.80772
 21
100.13057
  3
DIMSTYLE
 13
-18.659264
 23
78.730568
 14
-16.859264
 24
78.730568
 50
0
1001
ACAD
1000
DSTYLE
1002
{
1070
    77
1070
     1
1070
   172
1070
     1
1002
}
  0
DIMENSION
  8
0
  6
CONTINUOUS
 62
     7
  2
*D11
 70
     0
 10
-10.859264
 20
100.13057
 11
-13.859264
 21
100.13057
  3
DIMSTYLE
 13
-16.859264
 23
78.730568
 14
-10.859264
 24
85.130569
 50
0
1001
ACAD
1000
DSTYLE
1002
{
1070
    77
1070
     1
1070
   172
1070
     1
1070
    75
1070
     1
1002
}
  0
DIMENSION
  8
0
  6
CONTINUOUS
 62
     7
  2
*D12
 70
     0
 10
-9.259264
 20
100.13057
 11
-5.6990786
 21
100.13057
  3
DIMSTYLE
 13
-10.859264
 23
85.130569
 14
-9.259264
 24
85.130569
 50
0
1001
ACAD
1000
DSTYLE
1002
{
1070
    77
1070
     1
1070
   172
1070
     1
1070
    75
1070
     1
1002
}
  0
DIMENSION
  8
0
  6
CONTINUOUS
 62
     7
  2
*D13
 70
     0
 10
22.468887
 20
72.830566
 11
22.468887
 21
81.967369
  3
DIMSTYLE
 13
-9.259264
 23
78.730568
 14
-9.259264
 24
72.830566
 50
90
1001
ACAD
1000
DSTYLE
1002
{
1070
    77
1070
     1
1070
   172
1070
     1
1002
}
  0
DIMENSION
  8
0
  6
CONTINUOUS
 62
     7
  2
*D14
 70
     0
 10
22.468887
 20
16.630569
 11
22.468887
 21
44.730568
  3
DIMSTYLE
 13
-9.259264
 23
72.830566
 14
-11.459265
 24
16.630569
 50
90
1001
ACAD
1000
DSTYLE
1002
{
1070
    77
1070
     1
1070
   172
1070
     1
1070
    75
1070
     1
1002
}
  0
DIMENSION
  8
0
  6
CONTINUOUS
 62
     7
  2
*D15
 70
     0
 10
22.468887
 20
10.730572
 11
22.468887
 21
6.0969009
  3
DIMSTYLE
 13
-11.459265
 23
16.630569
 14
-16.859264
 24
10.730572
 50
90
1001
ACAD
1000
DSTYLE
1002
{
1070
    77
1070
     1
1070
   172
1070
     1
1070
    75
1070
     1
1002
}
  0
DIMENSION
  8
0
  6
CONTINUOUS
 62
     7
  2
*D16
 70
     0
 10
7.4688854
 20
14.530565
 11
7.4688854
 21
6.0969009
  3
DIMSTYLE
 13
-15.459265
 23
11.330568
 14
-15.459265
 24
14.530565
 50
90
1001
ACAD
1000
DSTYLE
1002
{
1070
    77
1070
     1
1070
   172
1070
     1
1002
}
  0
DIMENSION
  8
0
  6
CONTINUOUS
 62
     7
  2
*D17
 70
     0
 10
37.468887
 20
12.930567
 11
37.468887
 21
6.0969009
  3
DIMSTYLE
 13
-16.859264
 23
10.730572
 14
-12.859264
 24
12.930567
 50
90
1001
ACAD
1000
DSTYLE
1002
{
1070
    77
1070
     1
1070
   172
1070
     1
1002
}
  0
DIMENSION
  8
0
  6
CONTINUOUS
 62
     7
  2
*D18
 70
     0
 10
37.468887
 20
76.530571
 11
37.468887
 21
44.730568
  3
DIMSTYLE
 13
-12.859264
 23
12.930567
 14
-12.859264
 24
76.530571
 50
90
1001
ACAD
1000
DSTYLE
1002
{
1070
    77
1070
     1
1070
   172
1070
     1
1070
    75
1070
     1
1002
}
  0
DIMENSION
  8
0
  6
CONTINUOUS
 62
     7
  2
*D19
 70
     0
 10
37.468887
 20
76.530571
 11
37.468887
 21
82.459236
  3
DIMSTYLE
 13
-16.859264
 23
78.730568
 14
-12.859264
 24
76.530571
 50
90
1001
ACAD
1000
DSTYLE
1002
{
1070
    77
1070
     1
1070
   172
1070
     1
1070
    76
1070
     1
1002
}
  0
DIMENSION
  8
0
  6
CONTINUOUS
 62
     7
  2
*D20
 70
     0
 10
-15.459265
 20
-4.2694283
 11
-23.211294
 21
-4.2694283
  3
DIMSTYLE
 13
-18.659264
 23
10.730572
 14
-15.459265
 24
11.330568
 50
0
1001
ACAD
1000
DSTYLE
1002
{
1070
    77
1070
     1
1070
   172
1070
     1
1002
}
  0
DIMENSION
  8
0
  6
CONTINUOUS
 62
     7
  2
*D21
 70
     0
 10
-10.859264
 20
-4.2694283
 11
-6.7057395
 21
-4.2694283
  3
DIMSTYLE
 13
-15.459265
 23
11.330568
 14
-10.859264
 24
28.730568
 50
0
1001
ACAD
1000
DSTYLE
1002
{
1070
    77
1070
     1
1070
   172
1070
     1
1070
    75
1070
     1
1002
}
  0
DIMENSION
  8
0
  6
CONTINUOUS
 62
     7
  2
*D22
 70
     0
 10
73.301941
 20
-2.6694336
 11
64.818336
 21
-2.6694336
  3
DIMSTYLE
 13
68.301941
 23
14.830566
 14
73.301941
 24
14.830566
 50
0
1001
ACAD
1000
DSTYLE
1002
{
1070
    77
1070
     1
1070
   172
1070
     1
1002
}
  0
DIMENSION
  8
0
  6
CONTINUOUS
 62
     7
  2
*D23
 70
     0
 10
77.301941
 20
28.984154
 11
73.970688
 21
28.984154
  3
DIMSTYLE
 13
64.301941
 23
28.984154
 14
77.301941
 24
28.984154
 50
0
1001
ACAD
1000
DSTYLE
1002
{
1070
    77
1070
     1
1070
   172
1070
     1
1070
    75
1070
     1
1070
    76
1070
     1
1002
}
  0
DIMENSION
  8
0
  6
CONTINUOUS
 62
     7
  2
*D24
 70
     0
 10
92.301941
 20
17.330566
 11
92.301941
 21
45.330566
  3
DIMSTYLE
 13
77.301941
 23
73.330566
 14
77.301941
 24
17.330566
 50
90
1001
ACAD
1000
DSTYLE
1002
{
1070
    77
1070
     1
1070
   172
1070
     1
1002
}
  0
DIMENSION
  8
0
  6
CONTINUOUS
 62
     7
  2
*D25
 70
     0
 10
107.30194
 20
14.830566
 11
107.30194
 21
45.330566
  3
DIMSTYLE
 13
75.801941
 23
75.830566
 14
75.801941
 24
14.830566
 50
90
1001
ACAD
1000
DSTYLE
1002
{
1070
    77
1070
     1
1070
   172
1070
     1
1002
}
  0
DIMENSION
  8
0
  6
CONTINUOUS
 62
     7
  2
*D26
 70
     0
 10
-119.78445
 20
56.530571
 11
-119.78445
 21
62.530571
  3
DIMSTYLE
 13
-123.47937
 23
68.530571
 14
-128.87938
 24
56.530571
 50
90
1001
ACAD
1000
DSTYLE
1002
{
1070
    77
1070
     1
1070
   172
1070
     1
1070
    75
1070
     1
1070
    76
1070
     1
1002
}
  0
ENDBLK
  8
0
  0
BLOCK
  8
0
  2
KOZU0002
 70
    64
 10
0
 20
0
  0
POINT
  8
0
  6
CONTINUOUS
 62
     7
 10
0
 20
0
  0
POINT
  8
0
  6
CONTINUOUS
 62
     7
 10
15
 20
0
  0
POINT
  8
0
  6
CONTINUOUS
 62
     7
 10
25
 20
0
  0
POINT
  8
0
  6
CONTINUOUS
 62
     7
 10
35
 20
0
  0
POINT
  8
0
  6
CONTINUOUS
 62
     7
 10
45
 20
0
  0
POINT
  8
0
  6
CONTINUOUS
 62
     7
 10
55
 20
0
  0
POINT
  8
0
  6
CONTINUOUS
 62
     7
 10
65
 20
0
  0
POINT
  8
0
  6
CONTINUOUS
 62
     7
 10
0
 20
10
  0
POINT
  8
0
  6
CONTINUOUS
 62
     7
 10
0
 20
20
  0
POINT
  8
0
  6
CONTINUOUS
 62
     7
 10
0
 20
30
  0
POINT
  8
0
  6
CONTINUOUS
 62
     7
 10
0
 20
40
  0
POINT
  8
0
  6
CONTINUOUS
 62
     7
 10
0
 20
50
  0
POINT
  8
0
  6
CONTINUOUS
 62
     7
 10
0
 20
60
  0
POINT
  8
0
  6
CONTINUOUS
 62
     7
 10
0
 20
-15
  0
POINT
  8
0
  6
CONTINUOUS
 62
     7
 10
0
 20
-25
  0
POINT
  8
0
  6
CONTINUOUS
 62
     7
 10
0
 20
-35
  0
POINT
  8
0
  6
CONTINUOUS
 62
     7
 10
0
 20
-45
  0
POINT
  8
0
  6
CONTINUOUS
 62
     7
 10
0
 20
-55
  0
POINT
  8
0
  6
CONTINUOUS
 62
     7
 10
-10
 20
0
  0
POINT
  8
0
  6
CONTINUOUS
 62
     7
 10
-20
 20
0
  0
POINT
  8
0
  6
CONTINUOUS
 62
     7
 10
-30
 20
0
  0
POINT
  8
0
  6
CONTINUOUS
 62
     7
 10
-40
 20
0
  0
POINT
  8
0
  6
CONTINUOUS
 62
     7
 10
-50
 20
0
  0
POINT
  8
0
  6
CONTINUOUS
 62
     7
 10
-60
 20
0
  0
POINT
  8
0
  6
CONTINUOUS
 62
     7
 10
0
 20
-65
  0
ENDBLK
  8
0
  0
BLOCK
  8
0
  2
KOZU0003
 70
    64
 10
0
 20
0
  0
LINE
  8
0
  6
CONTINUOUS
 62
     3
 10
-32.303413
 20
103.40064
 11
-25.303417
 21
103.40064
  0
LINE
  8
0
  6
CONTINUOUS
 62
     3
 10
-33.303413
 20
98.970352
 11
-24.303413
 21
98.970352
  0
LINE
  8
0
  6
CONTINUOUS
 62
     3
 10
-33.303413
 20
100.90063
 11
-24.303413
 21
100.90063
  0
LINE
  8
0
  6
CONTINUOUS
 62
     3
 10
-33.303413
 20
100.90063
 11
-33.303413
 21
98.970352
  0
LINE
  8
0
  6
CONTINUOUS
 62
     3
 10
-24.303413
 20
100.90063
 11
-24.303413
 21
98.970352
  0
LINE
  8
0
  6
PHANTOM
 62
     7
 10
-31.303413
 20
95.900635
 11
18.696587
 21
95.900635
  0
LINE
  8
0
  6
CONTINUOUS
 62
     3
 10
-32.30341
 20
103.40063
 11
-30.135622
 21
107.59
  0
LINE
  8
0
  6
CONTINUOUS
 62
     3
 10
-25.303413
 20
103.40063
 11
-27.471195
 21
107.58998
  0
LINE
  8
0
  6
CONTINUOUS
 62
     3
 10
-31.303413
 20
103.40063
 11
-31.303413
 21
100.90063
  0
LINE
  8
0
  6
CONTINUOUS
 62
     3
 10
-26.303413
 20
103.40063
 11
-26.303413
 21
100.90063
  0
LINE
  8
0
  6
CONTINUOUS
 62
     7
 10
-17.937109
 20
4.7631478
 11
-5.0652957
 21
4.7631478
  0
LINE
  8
0
  6
CONTINUOUS
 62
     7
 10
-17.937107
 20
-27.099367
 11
-7.8575935
 21
-27.099367
  0
LINE
  8
0
  6
PHANTOM
 62
     7
 10
-30.803413
 20
97.900635
 11
18.696587
 21
97.900635
  0
LINE
  8
0
  6
CENTER
 62
     7
 10
-28.803413
 20
-0.88386202
 11
-28.803413
 21
-12.929939
  0
LINE
  8
0
  6
CONTINUOUS
 62
     3
 10
-33.303413
 20
-9.0993671
 11
-24.303413
 21
-9.0993671
  0
LINE
  8
0
  6
CONTINUOUS
 62
     3
 10
-33.303413
 20
-9.0993671
 11
-33.303413
 21
-11.029653
  0
LINE
  8
0
  6
CONTINUOUS
 62
     3
 10
-24.303413
 20
-9.0993671
 11
-24.303413
 21
-11.029653
  0
LINE
  8
0
  6
CONTINUOUS
 62
     3
 10
-33.303413
 20
-11.029653
 11
-24.303413
 21
-11.029653
  0
LINE
  8
0
  6
CONTINUOUS
 62
     3
 10
-32.303413
 20
-6.5993671
 11
-25.303413
 21
-6.5993671
  0
LINE
  8
0
  6
CONTINUOUS
 62
     3
 10
-32.303413
 20
-6.5993667
 11
-30.135626
 21
-2.4100115
  0
LINE
  8
0
  6
CONTINUOUS
 62
     3
 10
-25.303413
 20
-6.5993671
 11
-27.471201
 21
-2.4100122
  0
LINE
  8
0
  6
CONTINUOUS
 62
     3
 10
-31.303413
 20
-6.5993671
 11
-31.303413
 21
-9.0993671
  0
LINE
  8
0
  6
CONTINUOUS
 62
     3
 10
-26.303413
 20
-6.5993671
 11
-26.303413
 21
-9.0993671
  0
LINE
  8
0
  6
PHANTOM
 62
     7
 10
-33.303413
 20
95.400635
 11
-33.303413
 21
60.400635
  0
LINE
  8
0
  6
PHANTOM
 62
     7
 10
-31.303413
 20
95.900635
 11
-31.303413
 21
59.900635
  0
LINE
  8
0
  6
PHANTOM
 62
     7
 10
-30.803413
 20
57.900635
 11
18.696587
 21
57.900635
  0
LINE
  8
0
  6
PHANTOM
 62
     7
 10
-31.303413
 20
59.900635
 11
18.696587
 21
59.900635
  0
LINE
  8
0
  6
PHANTOM
 62
     7
 10
-46.303413
 20
122.65063
 11
-46.303413
 21
115.15063
  0
LINE
  8
0
  6
PHANTOM
 62
     7
 10
-39.303413
 20
100.65063
 11
-39.303413
 21
57.150635
  0
LINE
  8
0
  6
PHANTOM
 62
     7
 10
-36.803413
 20
103.15063
 11
-31.303413
 21
103.15063
  0
LINE
  8
0
  6
PHANTOM
 62
     7
 10
-37.303413
 20
101.15063
 11
-37.303413
 21
57.650635
  0
LINE
  8
0
  6
PHANTOM
 62
     7
 10
-21.303413
 20
122.65063
 11
-21.303413
 21
103.65063
  0
LINE
  8
0
  6
PHANTOM
 62
     7
 10
-37.303413
 20
101.15063
 11
-31.303413
 21
101.15063
  0
LINE
  8
0
  6
PHANTOM
 62
     7
 10
-60.303413
 20
57.150635
 11
-39.303413
 21
57.150635
  0
LINE
  8
0
  6
PHANTOM
 62
     7
 10
-59.803413
 20
55.150635
 11
-39.803413
 21
55.150635
  0
LINE
  8
0
  6
PHANTOM
 62
     7
 10
-23.303413
 20
123.15063
 11
-23.303413
 21
103.15063
  0
LINE
  8
0
  6
PHANTOM
 62
     7
 10
-44.303413
 20
123.15063
 11
-23.303413
 21
123.15063
  0
LINE
  8
0
  6
PHANTOM
 62
     7
 10
-26.303413
 20
101.15063
 11
-23.803413
 21
101.15063
  0
LINE
  8
0
  6
PHANTOM
 62
     7
 10
-60.303413
 20
65.150635
 11
-60.303413
 21
57.150635
  0
LINE
  8
0
  6
PHANTOM
 62
     7
 10
-62.303413
 20
65.150635
 11
-62.303413
 21
57.650635
  0
LINE
  8
0
  6
PHANTOM
 62
     7
 10
-26.303413
 20
103.15063
 11
-23.303413
 21
103.15063
  0
LINE
  8
0
  6
PHANTOM
 62
     7
 10
-43.803413
 20
125.15063
 11
-23.803413
 21
125.15063
  0
LINE
  8
0
  6
PHANTOM
 62
     7
 10
-62.303413
 20
65.150635
 11
-60.303413
 21
65.150635
  0
LINE
  8
0
  6
PHANTOM
 62
     7
 10
-44.303413
 20
123.15063
 11
-44.303413
 21
115.15063
  0
LINE
  8
0
  6
PHANTOM
 62
     7
 10
-46.303413
 20
115.15063
 11
-44.303413
 21
115.15063
  0
ARC
  8
0
  6
CONTINUOUS
 62
     3
 10
-28.803413
 20
106.90063
 40
1.5
 50
27.359326
 51
152.64067
  0
ARC
  8
0
  6
CONTINUOUS
 62
     3
 10
-28.803413
 20
107.90063
 40
10
 50
243.25629
 51
296.74369
  0
ARC
  8
0
  6
CONTINUOUS
 62
     3
 10
-28.803413
 20
-2.0993671
 40
10
 50
243.25629
 51
296.74368
  0
ARC
  8
0
  6
CONTINUOUS
 62
     3
 10
-28.803413
 20
-3.0993671
 40
1.5
 50
27.359358
 51
152.64064
  0
ARC
  8
0
  6
PHANTOM
 62
     7
 10
-23.803413
 20
103.65063
 40
2.5
 50
270
 51
360
  0
ARC
  8
0
  6
PHANTOM
 62
     7
 10
-30.803413
 20
95.400635
 40
2.5
 50
90
 51
180
  0
ARC
  8
0
  6
PHANTOM
 62
     7
 10
-30.803413
 20
60.400635
 40
2.5
 50
180
 51
270.00004
  0
ARC
  8
0
  6
PHANTOM
 62
     7
 10
-23.803413
 20
122.65063
 40
2.5
 50
0
 51
90
  0
ARC
  8
0
  6
PHANTOM
 62
     7
 10
-36.803413
 20
100.65063
 40
2.5
 50
90
 51
180
  0
ARC
  8
0
  6
PHANTOM
 62
     7
 10
-39.803413
 20
57.650635
 40
2.5
 50
270
 51
360
  0
ARC
  8
0
  6
PHANTOM
 62
     7
 10
-59.803413
 20
57.650635
 40
2.5
 50
180
 51
270
  0
ARC
  8
0
  6
PHANTOM
 62
     7
 10
-43.803413
 20
122.65063
 40
2.5
 50
90
 51
180
  0
TEXT
  8
0
  6
CONTINUOUS
 62
     7
 10
-17.080109
 20
5.5131478
 40
3
 41
1.392875
  1
R1.5
  0
TEXT
  8
0
  6
CONTINUOUS
 62
     7
 10
-17.080107
 20
-26.349367
 40
3
 41
1.22145
  1
R10
  0
DIMENSION
  8
0
  6
CONTINUOUS
 62
     7
  2
*D27
 70
     0
 10
-24.303413
 20
-27.099367
 11
-28.803413
 21
-27.099367
  3
DIMSTYLE
 13
-33.303413
 23
-11.029653
 14
-24.303413
 24
-11.029653
 50
0
1001
ACAD
1000
DSTYLE
1002
{
1070
    77
1070
     1
1070
   172
1070
     1
1002
}
  0
INSERT
  8
0
  6
CONTINUOUS
 62
     7
  2
KOZU0006
 10
-27.989944
 20
-1.8391002
  0
DIMENSION
  8
0
  6
CONTINUOUS
 62
     7
  2
*D28
 70
     0
 10
-25.303413
 20
28.400633
 11
-28.803413
 21
28.400633
  3
DIMSTYLE
 13
-32.303413
 23
-6.5993671
 14
-25.303413
 24
-6.5993671
 50
0
1001
ACAD
1000
DSTYLE
1002
{
1070
    77
1070
     1
1070
   172
1070
     1
1002
}
  0
DIMENSION
  8
0
  6
CONTINUOUS
 62
     7
  2
*D29
 70
     0
 10
-26.303413
 20
13.400633
 11
-28.803413
 21
13.400633
  3
DIMSTYLE
 13
-31.303413
 23
-6.5993671
 14
-26.303413
 24
-6.5993671
 50
0
1001
ACAD
1000
DSTYLE
1002
{
1070
    77
1070
     1
1070
   172
1070
     1
1002
}
  0
DIMENSION
  8
0
  6
CONTINUOUS
 62
     7
  2
*D30
 70
     0
 10
-9.3034134
 20
-12.099367
 11
-9.3034134
 21
-15.532091
  3
DIMSTYLE
 13
-24.303413
 23
-9.0993671
 14
-28.803413
 24
-12.099367
 50
90
1001
ACAD
1000
DSTYLE
1002
{
1070
    77
1070
     1
1070
   172
1070
     1
1002
}
  0
DIMENSION
  8
0
  6
CONTINUOUS
 62
     7
  2
*D31
 70
     0
 10
-9.3034134
 20
-1.5993671
 11
-9.3034134
 21
-4.0993671
  3
DIMSTYLE
 13
-25.303413
 23
-6.5993671
 14
-28.803413
 24
-1.5993671
 50
90
1001
ACAD
1000
DSTYLE
1002
{
1070
    77
1070
     1
1070
   172
1070
     1
1002
}
  0
DIMENSION
  8
0
  6
CONTINUOUS
 62
     7
  2
*D32
 70
     0
 10
-9.3034134
 20
-9.0993671
 11
-9.3034134
 21
-7.8493671
  3
DIMSTYLE
 13
-25.303413
 23
-6.5993671
 14
-24.303413
 24
-9.0993671
 50
90
1001
ACAD
1000
DSTYLE
1002
{
1070
    77
1070
     1
1070
   172
1070
     1
1070
    75
1070
     1
1002
}
  0
INSERT
  8
0
  6
CONTINUOUS
 62
     7
  2
KOZU0007
 10
-27.335514
 20
-11.991044
  0
ENDBLK
  8
0
  0
BLOCK
  8
0
  2
KOZU0004
 70
    64
 10
0
 20
0
  0
POINT
  8
0
  6
CONTINUOUS
 62
     7
 10
-7.453413
 20
-11.029653
  0
LINE
  8
0
  6
CONTINUOUS
 62
     3
 10
-35.153408
 20
101.10063
 11
-22.453415
 21
101.10063
  0
LINE
  8
0
  6
CONTINUOUS
 62
     3
 10
-33.634663
 20
-7.4296527
 11
-35.153412
 21
-11.029654
  0
LINE
  8
0
  6
CONTINUOUS
 62
     3
 10
-35.153412
 20
-11.029653
 11
-22.453413
 21
-11.029653
  0
LINE
  8
0
  6
PHANTOM
 62
     7
 10
-36.803413
 20
103.10063
 11
-23.303413
 21
103.10063
  0
LINE
  8
0
  6
PHANTOM
 62
     7
 10
-31.303413
 20
95.900635
 11
18.696587
 21
95.900635
  0
LINE
  8
0
  6
CONTINUOUS
 62
     3
 10
-22.453413
 20
-11.029653
 11
-23.972164
 21
-7.4296527
  0
LINE
  8
0
  6
PHANTOM
 62
     7
 10
-23.803413
 20
101.10063
 11
-23.803413
 21
101.10063
  0
LINE
  8
0
  6
CONTINUOUS
 62
     3
 10
-33.803417
 20
97.900642
 11
-35.153412
 21
101.10063
  0
LINE
  8
0
  6
CONTINUOUS
 62
     3
 10
-22.453411
 20
101.10063
 11
-23.80341
 21
97.900635
  0
LINE
  8
0
  6
PHANTOM
 62
     7
 10
-23.803408
 20
97.900635
 11
18.696587
 21
97.900635
  0
LINE
  8
0
  6
CENTER
 62
     7
 10
-28.803413
 20
-6.2378469
 11
-28.803413
 21
-12.340425
  0
LINE
  8
0
  6
CONTINUOUS
 62
     3
 10
-33.803413
 20
97.900635
 11
-23.803413
 21
97.900635
  0
LINE
  8
0
  6
PHANTOM
 62
     7
 10
-33.303413
 20
95.400635
 11
-33.303413
 21
60.400635
  0
LINE
  8
0
  6
PHANTOM
 62
     7
 10
-31.303413
 20
95.900635
 11
-31.303413
 21
59.900635
  0
LINE
  8
0
  6
PHANTOM
 62
     7
 10
-30.803413
 20
57.900635
 11
18.696587
 21
57.900635
  0
LINE
  8
0
  6
PHANTOM
 62
     7
 10
-31.303413
 20
59.900635
 11
18.696587
 21
59.900635
  0
LINE
  8
0
  6
PHANTOM
 62
     7
 10
-46.303413
 20
122.65063
 11
-46.303413
 21
115.15063
  0
LINE
  8
0
  6
PHANTOM
 62
     7
 10
-37.303413
 20
101.10063
 11
-35.153408
 21
101.10063
  0
LINE
  8
0
  6
PHANTOM
 62
     7
 10
-39.303413
 20
100.60063
 11
-39.303413
 21
57.150635
  0
LINE
  8
0
  6
PHANTOM
 62
     7
 10
-37.303413
 20
101.15063
 11
-37.303413
 21
57.650635
  0
LINE
  8
0
  6
PHANTOM
 62
     7
 10
-21.303413
 20
122.65063
 11
-21.303413
 21
103.60063
  0
LINE
  8
0
  6
PHANTOM
 62
     7
 10
-60.303413
 20
57.150635
 11
-39.303413
 21
57.150635
  0
LINE
  8
0
  6
PHANTOM
 62
     7
 10
-59.803413
 20
55.150635
 11
-39.803413
 21
55.150635
  0
LINE
  8
0
  6
PHANTOM
 62
     7
 10
-23.303413
 20
123.15063
 11
-23.303413
 21
103.10063
  0
LINE
  8
0
  6
PHANTOM
 62
     7
 10
-44.303413
 20
123.15063
 11
-23.303413
 21
123.15063
  0
LINE
  8
0
  6
PHANTOM
 62
     7
 10
-60.303413
 20
65.150635
 11
-60.303413
 21
57.150635
  0
LINE
  8
0
  6
PHANTOM
 62
     7
 10
-62.303413
 20
65.150635
 11
-62.303413
 21
57.650635
  0
LINE
  8
0
  6
PHANTOM
 62
     7
 10
-43.803413
 20
125.15063
 11
-23.803413
 21
125.15063
  0
LINE
  8
0
  6
PHANTOM
 62
     7
 10
-62.303413
 20
65.150635
 11
-60.303413
 21
65.150635
  0
LINE
  8
0
  6
PHANTOM
 62
     7
 10
-44.303413
 20
123.15063
 11
-44.303413
 21
115.15063
  0
LINE
  8
0
  6
PHANTOM
 62
     7
 10
-46.303413
 20
115.15063
 11
-44.303413
 21
115.15063
  0
LINE
  8
0
  6
CONTINUOUS
 62
     7
 10
-33.634663
 20
-7.4296527
 11
-23.972164
 21
-7.4296527
  0
ARC
  8
0
  6
CONTINUOUS
 62
     7
 10
-36.803413
 20
100.60063
 40
2.5
 50
90
 51
180
  0
ARC
  8
0
  6
PHANTOM
 62
     7
 10
-23.803413
 20
103.60063
 40
2.5
 50
270
 51
360
  0
ARC
  8
0
  6
PHANTOM
 62
     7
 10
-30.803413
 20
95.400635
 40
2.5
 50
90
 51
180
  0
ARC
  8
0
  6
PHANTOM
 62
     7
 10
-30.803413
 20
60.400635
 40
2.5
 50
180
 51
270.00004
  0
ARC
  8
0
  6
PHANTOM
 62
     7
 10
-23.803413
 20
122.65063
 40
2.5
 50
0
 51
90
  0
ARC
  8
0
  6
PHANTOM
 62
     7
 10
-39.803413
 20
57.650635
 40
2.5
 50
270
 51
360
  0
ARC
  8
0
  6
PHANTOM
 62
     7
 10
-59.803413
 20
57.650635
 40
2.5
 50
180
 51
270
  0
ARC
  8
0
  6
PHANTOM
 62
     7
 10
-43.803413
 20
122.65063
 40
2.5
 50
90
 51
180
  0
DIMENSION
  8
0
  6
CONTINUOUS
 62
     7
  2
*D33
 70
     0
 10
-7.453413
 20
-7.4296527
 11
-7.453413
 21
-2.1908605
  3
DIMSTYLE
 13
-22.453413
 23
-11.029653
 14
-23.972164
 24
-7.4296527
 50
90
1001
ACAD
1000
DSTYLE
1002
{
1070
    77
1070
     1
1070
   172
1070
     1
1002
}
  0
DIMENSION
  8
0
  6
CONTINUOUS
 62
     7
  2
*D34
 70
     0
 10
-22.453413
 20
-26.029652
 11
-28.803413
 21
-26.029652
  3
DIMSTYLE
 13
-35.153412
 23
-11.029653
 14
-22.453413
 24
-11.029653
 50
0
1001
ACAD
1000
DSTYLE
1002
{
1070
    77
1070
     1
1070
   172
1070
     1
1002
}
  0
ENDBLK
  8
0
  0
BLOCK
  8
0
  2
KOZU0005
 70
    64
 10
0
 20
0
  0
LINE
  8
0
  6
CENTER
 62
     7
 10
10.402821
 20
44.600891
 11
45.402821
 21
44.600891
  0
LINE
  8
0
  6
CENTER
 62
     7
 10
27.902821
 20
62.100891
 11
27.902821
 21
27.100891
  0
LINE
  8
0
  6
CENTER
 62
     7
 10
-69.056427
 20
44.600891
 11
-39.677834
 21
44.600891
  0
LINE
  8
0
  6
CONTINUOUS
 62
     3
 10
-44.347923
 20
52.835327
 11
-44.347923
 21
36.366455
  0
LINE
  8
0
  6
CONTINUOUS
 62
     3
 10
-64.347923
 20
57.100891
 11
-64.347923
 21
32.100887
  0
LINE
  8
0
  6
CONTINUOUS
 62
     3
 10
-46.099857
 20
54.819889
 11
-64.347923
 21
57.100899
  0
LINE
  8
0
  6
CONTINUOUS
 62
     3
 10
-46.099857
 20
34.381897
 11
-64.347931
 21
32.100891
  0
LINE
  8
0
  6
CONTINUOUS
 62
     7
 10
110
 20
-90
 11
160
 21
-90
  0
LINE
  8
0
  6
CONTINUOUS
 62
     7
 10
160
 20
-66
 11
160
 21
-90
  0
LINE
  8
0
  6
CONTINUOUS
 62
     7
 10
110
 20
-82
 11
160
 21
-82
  0
LINE
  8
0
  6
CONTINUOUS
 62
     7
 10
110
 20
-74
 11
160
 21
-74
  0
LINE
  8
0
  6
CONTINUOUS
 62
     7
 10
110
 20
-66
 11
160
 21
-66
  0
LINE
  8
0
  6
CONTINUOUS
 62
     7
 10
140
 20
-66
 11
140
 21
-90
  0
LINE
  8
0
  6
CONTINUOUS
 62
     7
 10
110
 20
-66
 11
110
 21
-90
  0
CIRCLE
  8
0
  6
CONTINUOUS
 62
     3
 10
27.902821
 20
44.600891
 40
10
  0
CIRCLE
  8
0
  6
CONTINUOUS
 62
     3
 10
27.902821
 20
44.600891
 40
12.5
  0
CIRCLE
  8
0
  6
CONTINUOUS
 62
     3
 10
27.902821
 20
44.600891
 40
2
  0
ARC
  8
0
  6
CONTINUOUS
 62
     3
 10
-46.347923
 20
52.835327
 40
2
 50
0
 51
82.87497
  0
ARC
  8
0
  6
CONTINUOUS
 62
     3
 10
-46.347923
 20
36.366455
 40
2
 50
277.12492
 51
360
  0
CIRCLE
  8
0
  6
CONTINUOUS
 62
     3
 10
27.902821
 20
44.600891
 40
4
  0
TEXT
  8
0
  6
CONTINUOUS
 62
     7
 10
111
 20
-88.4
 40
4.8000002
 41
0.73529404
  1
Ｃ－２２－３０
  0
TEXT
  8
0
  6
CONTINUOUS
 62
     7
 10
120.88571
 20
-72.4
 40
4.8000002
 41
0.8643459
  1
品番
  0
TEXT
  8
0
  6
CONTINUOUS
 62
     7
 10
145.88571
 20
-88.4
 40
4.8000002
 41
0.8643459
  1
３０
  0
TEXT
  8
0
  6
CONTINUOUS
 62
     7
 10
148.28571
 20
-72.4
 40
4.8000002
 41
1
  1
A
  0
TEXT
  8
0
  6
CONTINUOUS
 62
     7
 10
111
 20
-80.4
 40
4.8000002
 41
0.73529404
  1
Ｃ－２２－２０
  0
TEXT
  8
0
  6
CONTINUOUS
 62
     7
 10
145.88571
 20
-80.4
 40
4.8000002
 41
0.8643459
  1
２０
  0
DIMENSION
  8
0
  6
CONTINUOUS
 62
     7
  2
*D35
 70
     0
 10
-79.347923
 20
32.100887
 11
-79.347923
 21
44.600891
  3
DIMSTYLE
 13
-64.347923
 23
57.100891
 14
-64.347923
 24
32.100887
 50
90
1001
ACAD
1000
DSTYLE
1002
{
1070
    77
1070
     1
1070
   172
1070
     1
1002
}
  0
DIMENSION
  8
0
  6
CONTINUOUS
 62
     7
  2
*D36
 70
     0
 10
-29.347923
 20
54.600891
 11
-29.347923
 21
44.600891
  3
DIMSTYLE
 13
-44.347923
 23
34.600887
 14
-44.347923
 24
54.600891
 50
90
1001
ACAD
1000
DSTYLE
1002
{
1070
    77
1070
     1
1070
   172
1070
     1
1002
}
  0
DIMENSION
  8
0
  6
CONTINUOUS
 62
     7
  2
*D37
 70
     0
 10
-44.347923
 20
17.100887
 11
-54.347923
 21
17.100887
  3
DIMSTYLE
 13
-64.347923
 23
32.100887
 14
-44.347923
 24
36.366455
 50
0
1001
ACAD
1000
DSTYLE
1002
{
1070
    77
1070
     1
1070
   172
1070
     1
1002
}
  0
ENDBLK
  8
0
  0
BLOCK
  8
0
  2
KOZU0006
 70
    64
 10
0
 20
0
  0
LINE
  8
0
  6
CONTINUOUS
 62
     7
 10
0
 20
0
 11
10.052835
 21
6.6022476
  0
CIRCLE
  8
0
  6
CONTINUOUS
 62
     7
 10
0
 20
0
 40
0.40000001
  0
ENDBLK
  8
0
  0
BLOCK
  8
0
  2
KOZU0007
 70
    64
 10
0
 20
0
  0
LINE
  8
0
  6
CONTINUOUS
 62
     7
 10
0
 20
0
 11
9.3984051
 21
-15.108325
  0
CIRCLE
  8
0
  6
CONTINUOUS
 62
     7
 10
0
 20
0
 40
0.40000001
  0
ENDBLK
  8
0
  0
ENDSEC
  0
SECTION
  2
ENTITIES
  0
LINE
  8
0
  6
CONTINUOUS
 62
     7
 10
170
 20
173
 11
170
 21
-100
  0
LINE
  8
0
  6
CONTINUOUS
 62
     7
 10
-211
 20
-100
 11
170
 21
-100
  0
LINE
  8
0
  6
CONTINUOUS
 62
     7
 10
-211
 20
173
 11
170
 21
173
  0
LINE
  8
0
  6
CONTINUOUS
 62
     7
 10
-211
 20
173
 11
-211
 21
-100
  0
LINE
  8
0
  6
CONTINUOUS
 62
     7
 10
-191
 20
173
 11
-191
 21
77
  0
LINE
  8
0
  6
CONTINUOUS
 62
     7
 10
-211
 20
165
 11
-101
 21
165
  0
LINE
  8
0
  6
CONTINUOUS
 62
     7
 10
-211
 20
157
 11
-101
 21
157
  0
LINE
  8
0
  6
CONTINUOUS
 62
     7
 10
-191
 20
117
 11
-101
 21
117
  0
LINE
  8
0
  6
CONTINUOUS
 62
     7
 10
-191
 20
109
 11
-101
 21
109
  0
LINE
  8
0
  6
CONTINUOUS
 62
     7
 10
-211
 20
101
 11
-101
 21
101
  0
LINE
  8
0
  6
CONTINUOUS
 62
     7
 10
-191
 20
93
 11
-101
 21
93
  0
LINE
  8
0
  6
CONTINUOUS
 62
     7
 10
-191
 20
85
 11
-101
 21
85
  0
LINE
  8
0
  6
CONTINUOUS
 62
     7
 10
-211
 20
77
 11
-101
 21
77
  0
LINE
  8
0
  6
CONTINUOUS
 62
     7
 10
-211
 20
173
 11
-211
 21
93
  0
LINE
  8
0
  6
CONTINUOUS
 62
     7
 10
-211
 20
173
 11
-101
 21
173
  0
LINE
  8
0
  6
CONTINUOUS
 62
     7
 10
-101
 20
173
 11
-101
 21
77
  0
LINE
  8
0
  6
CONTINUOUS
 62
     7
 10
-211
 20
133
 11
-101
 21
133
  0
LINE
  8
0
  6
CONTINUOUS
 62
     7
 10
-211
 20
125
 11
-101
 21
125
  0
LINE
  8
0
  6
CONTINUOUS
 62
     7
 10
-191
 20
117
 11
-101
 21
117
  0
LINE
  8
0
  6
CONTINUOUS
 62
     7
 10
-211
 20
149
 11
-101
 21
149
  0
LINE
  8
0
  6
CONTINUOUS
 62
     7
 10
-211
 20
141
 11
-101
 21
141
  0
LINE
  8
0
  6
CENTER
 62
     7
 10
27.21133
 20
24.579615
 11
62.21133
 21
24.579615
  0
LINE
  8
0
  6
CENTER
 62
     7
 10
44.71133
 20
42.079613
 11
44.71133
 21
7.0796146
  0
LINE
  8
0
  6
CENTER
 62
     7
 10
-52.247917
 20
24.579615
 11
-22.869324
 21
24.579615
  0
LINE
  8
0
  6
CONTINUOUS
 62
     3
 10
-27.539413
 20
32.814049
 11
-27.539413
 21
16.345179
  0
LINE
  8
0
  6
CONTINUOUS
 62
     3
 10
-47.539413
 20
37.079613
 11
-47.539413
 21
12.079611
  0
LINE
  8
0
  6
CONTINUOUS
 62
     3
 10
-29.291344
 20
34.798615
 11
-47.539413
 21
37.079624
  0
LINE
  8
0
  6
CONTINUOUS
 62
     3
 10
-29.291349
 20
14.360621
 11
-47.539417
 21
12.079613
  0
LINE
  8
0
  6
CONTINUOUS
 62
     7
 10
-42.61702
 20
-63.361702
 11
7.3829789
 21
-63.361702
  0
LINE
  8
0
  6
CONTINUOUS
 62
     7
 10
7.3829789
 20
-39.361702
 11
7.3829789
 21
-63.361702
  0
LINE
  8
0
  6
CONTINUOUS
 62
     7
 10
-42.61702
 20
-55.361702
 11
7.3829789
 21
-55.361702
  0
LINE
  8
0
  6
CONTINUOUS
 62
     7
 10
-42.61702
 20
-47.361702
 11
7.3829789
 21
-47.361702
  0
LINE
  8
0
  6
CONTINUOUS
 62
     7
 10
-42.61702
 20
-39.361702
 11
7.3829789
 21
-39.361702
  0
LINE
  8
0
  6
CONTINUOUS
 62
     7
 10
-12.617022
 20
-39.361702
 11
-12.617022
 21
-63.361702
  0
LINE
  8
0
  6
CONTINUOUS
 62
     7
 10
-42.61702
 20
-39.361702
 11
-42.61702
 21
-63.361702
  0
CIRCLE
  8
0
  6
CONTINUOUS
 62
     3
 10
44.71133
 20
24.579615
 40
10
  0
CIRCLE
  8
0
  6
CONTINUOUS
 62
     3
 10
44.71133
 20
24.579615
 40
12.5
  0
CIRCLE
  8
0
  6
CONTINUOUS
 62
     3
 10
44.71133
 20
24.579615
 40
2
  0
ARC
  8
0
  6
CONTINUOUS
 62
     3
 10
-29.539413
 20
32.814049
 40
2
 50
0
 51
82.87497
  0
ARC
  8
0
  6
CONTINUOUS
 62
     3
 10
-29.539413
 20
16.345179
 40
2
 50
277.12497
 51
359.99995
  0
CIRCLE
  8
0
  6
CONTINUOUS
 62
     3
 10
44.71133
 20
24.579615
 40
4
  0
TEXT
  8
0
  6
CONTINUOUS
 62
     7
 10
-188.143
 20
95.4
 40
3.2
 41
0.90047268
  1
＊
  0
TEXT
  8
0
  6
CONTINUOUS
 62
     7
 10
-205.343
 20
167.4
 40
3.2
 41
0.85537027
  1
品　名
  0
TEXT
  8
0
  6
CONTINUOUS
 62
     7
 10
-205.343
 20
159.4
 40
3.2
 41
0.85537027
  1
品　番
  0
TEXT
  8
0
  6
CONTINUOUS
 62
     7
 10
-188.143
 20
87.4
 40
3.2
 41
0.90047268
  1
＊
  0
TEXT
  8
0
  6
CONTINUOUS
 62
     7
 10
-188.143
 20
79.4
 40
3.2
 41
0.90047268
  1
＊
  0
TEXT
  8
0
  6
CONTINUOUS
 62
     7
 10
-205.343
 20
151.4
 40
3.2
 41
0.85537027
  1
材　質
  0
TEXT
  8
0
  6
CONTINUOUS
 62
     7
 10
-205.343
 20
143.4
 40
3.2
 41
0.85537027
  1
仕上げ
  0
TEXT
  8
0
  6
CONTINUOUS
 62
     7
 10
-188.143
 20
103.4
 40
3.2
 41
0.90047268
  1
＊
  0
TEXT
  8
0
  6
CONTINUOUS
 62
     7
 10
-188.143
 20
111.4
 40
3.2
 41
0.90047268
  1
＊
  0
TEXT
  8
0
  6
CONTINUOUS
 62
     7
 10
-208.543
 20
119.4
 40
3.2
 41
0.84892707
  1
セットビス
  0
TEXT
  8
0
  6
CONTINUOUS
 62
     7
 10
-188.143
 20
119.4
 40
3.2
 41
0.90047268
  1
＊
  0
TEXT
  8
0
  6
CONTINUOUS
 62
     7
 10
-203.743
 20
95.4
 40
3.2
 41
0.86439075
  1
備考
  0
TEXT
  8
0
  6
CONTINUOUS
 62
     7
 10
-205.343
 20
135.4
 40
3.2
 41
0.85537027
  1
定　尺
  0
TEXT
  8
0
  6
CONTINUOUS
 62
     7
 10
-206.943
 20
127.4
 40
3.2
 41
0.85127005
  1
左右勝手
  0
TEXT
  8
0
  6
CONTINUOUS
 62
     7
 10
-188.37855
 20
134.96998
 40
3.2
 41
0.90047268
  1
＊
  0
TEXT
  8
0
  6
CONTINUOUS
 62
     7
 10
-188.143
 20
167.4
 40
3.2
 41
0.84892707
  1
戸当りゴム
  0
TEXT
  8
0
  6
CONTINUOUS
 62
     7
 10
-188.143
 20
159.4
 40
3.2
 41
0.85127005
  1
Ｃ－２２
  0
TEXT
  8
0
  6
CONTINUOUS
 62
     7
 10
-188.143
 20
143.4
 40
3.2
 41
0.86439075
  1
生地
  0
TEXT
  8
0
  6
CONTINUOUS
 62
     7
 10
-188.37855
 20
127.36617
 40
3.2
 41
0.90047268
  1
＊
  0
TEXT
  8
0
  6
CONTINUOUS
 62
     7
 10
-188.143
 20
151.4
 40
3.2
 41
0.85126998
  1
ＮＲゴム
  0
TEXT
  8
0
  6
CONTINUOUS
 62
     7
 10
-41.617021
 20
-61.761702
 40
4.8000002
 41
0.73529404
  1
Ｃ－２２－３０
  0
TEXT
  8
0
  6
CONTINUOUS
 62
     7
 10
-31.731308
 20
-45.761702
 40
4.8000002
 41
0.8643459
  1
品番
  0
TEXT
  8
0
  6
CONTINUOUS
 62
     7
 10
-6.731308
 20
-61.761702
 40
4.8000002
 41
0.8643459
  1
３０
  0
TEXT
  8
0
  6
CONTINUOUS
 62
     7
 10
-4.3313079
 20
-45.761702
 40
4.8000002
 41
1
  1
A
  0
TEXT
  8
0
  6
CONTINUOUS
 62
     7
 10
-41.617021
 20
-53.761702
 40
4.8000002
 41
0.73529404
  1
Ｃ－２２－２０
  0
TEXT
  8
0
  6
CONTINUOUS
 62
     7
 10
-6.731308
 20
-53.761702
 40
4.8000002
 41
0.8643459
  1
２０
  0
DIMENSION
  8
0
  6
CONTINUOUS
 62
     7
  2
*D1
 70
     0
 10
-62.539413
 20
12.079611
 11
-62.539413
 21
24.579615
  3
DIMSTYLE
 13
-47.539413
 23
37.079613
 14
-47.539413
 24
12.079611
 50
90
1001
ACAD
1000
DSTYLE
1002
{
1070
    77
1070
     1
1070
   172
1070
     1
1002
}
  0
DIMENSION
  8
0
  6
CONTINUOUS
 62
     7
  2
*D2
 70
     0
 10
-12.539412
 20
34.579613
 11
-12.539412
 21
24.579615
  3
DIMSTYLE
 13
-27.539413
 23
14.579611
 14
-27.539413
 24
34.579613
 50
90
1001
ACAD
1000
DSTYLE
1002
{
1070
    77
1070
     1
1070
   172
1070
     1
1002
}
  0
DIMENSION
  8
0
  6
CONTINUOUS
 62
     7
  2
*D3
 70
     0
 10
-27.539413
 20
-2.9203894
 11
-37.539413
 21
-2.9203894
  3
DIMSTYLE
 13
-47.539413
 23
12.079611
 14
-27.539413
 24
16.345179
 50
0
1001
ACAD
1000
DSTYLE
1002
{
1070
    77
1070
     1
1070
   172
1070
     1
1002
}
  0
ENDSEC
  0
EOF
