  0
SECTION
  2
HEADER
  9
$ACADVER
  1
AC1021
  9
$ACADMAINTVER
 70
    25
  9
$DWGCODEPAGE
  3
ANSI_932
  9
$LASTSAVEDBY
  1
G1043U
  9
$CUSTOMPROPERTYTAG
  1
AmdtFileType
  9
$CUSTOMPROPERTY
  1
84
  9
$INSBASE
 10
0.0
 20
0.0
 30
0.0
  9
$EXTMIN
 10
0.0000993060707515
 20
-0.0000000000000757
 30
0.0
  9
$EXTMAX
 10
420.0000993060708
 20
296.9999999999999
 30
0.0
  9
$LIMMIN
 10
617.7526181880692
 20
-0.0000000000001513
  9
$LIMMAX
 10
1037.752618188069
 20
296.9999999999998
  9
$ORTHOMODE
 70
     0
  9
$REGENMODE
 70
     1
  9
$FILLMODE
 70
     1
  9
$QTEXTMODE
 70
     0
  9
$MIRRTEXT
 70
     0
  9
$LTSCALE
 40
1.0
  9
$ATTMODE
 70
     1
  9
$TEXTSIZE
 40
3.2
  9
$TRACEWID
 40
1.0
  9
$TEXTSTYLE
  7
STANDARD
  9
$CLAYER
  8
AM_0
  9
$CELTYPE
  6
ByLayer
  9
$CECOLOR
 62
   256
  9
$CELTSCALE
 40
1.0
  9
$DISPSILH
 70
     0
  9
$DIMSCALE
 40
1.0
  9
$DIMASZ
 40
1.0
  9
$DIMEXO
 40
1.0
  9
$DIMDLI
 40
10.0
  9
$DIMRND
 40
0.0
  9
$DIMDLE
 40
0.0
  9
$DIMEXE
 40
1.0
  9
$DIMTP
 40
0.1
  9
$DIMTM
 40
0.1
  9
$DIMTXT
 40
3.5
  9
$DIMCEN
 40
0.0
  9
$DIMTSZ
 40
0.0
  9
$DIMTOL
 70
     0
  9
$DIMLIM
 70
     0
  9
$DIMTIH
 70
     0
  9
$DIMTOH
 70
     0
  9
$DIMSE1
 70
     0
  9
$DIMSE2
 70
     0
  9
$DIMTAD
 70
     1
  9
$DIMZIN
 70
     8
  9
$DIMBLK
  1

  9
$DIMASO
 70
     1
  9
$DIMSHO
 70
     1
  9
$DIMPOST
  1

  9
$DIMAPOST
  1
"
  9
$DIMALT
 70
     0
  9
$DIMALTD
 70
     2
  9
$DIMALTF
 40
0.0393701
  9
$DIMLFAC
 40
1.0
  9
$DIMTOFL
 70
     1
  9
$DIMTVP
 40
0.0
  9
$DIMTIX
 70
     0
  9
$DIMSOXD
 70
     0
  9
$DIMSAH
 70
     0
  9
$DIMBLK1
  1

  9
$DIMBLK2
  1

  9
$DIMSTYLE
  2
SYS
  9
$DIMCLRD
 70
   256
  9
$DIMCLRE
 70
   256
  9
$DIMCLRT
 70
     7
  9
$DIMTFAC
 40
0.71
  9
$DIMGAP
 40
1.5
  9
$DIMJUST
 70
     0
  9
$DIMSD1
 70
     0
  9
$DIMSD2
 70
     0
  9
$DIMTOLJ
 70
     0
  9
$DIMTZIN
 70
     8
  9
$DIMALTZ
 70
     0
  9
$DIMALTTZ
 70
     0
  9
$DIMUPT
 70
     0
  9
$DIMDEC
 70
     1
  9
$DIMTDEC
 70
     2
  9
$DIMALTU
 70
     2
  9
$DIMALTTD
 70
     2
  9
$DIMTXSTY
  7
STANDARD
  9
$DIMAUNIT
 70
     0
  9
$DIMADEC
 70
     0
  9
$DIMALTRND
 40
0.0
  9
$DIMAZIN
 70
     2
  9
$DIMDSEP
 70
    46
  9
$DIMATFIT
 70
     3
  9
$DIMFRAC
 70
     0
  9
$DIMLDRBLK
  1

  9
$DIMLUNIT
 70
     2
  9
$DIMLWD
 70
    -1
  9
$DIMLWE
 70
    -1
  9
$DIMTMOVE
 70
     0
  9
$DIMFXL
 40
1.0
  9
$DIMFXLON
 70
     0
  9
$DIMJOGANG
 40
0.7853981633974483
  9
$DIMTFILL
 70
     0
  9
$DIMTFILLCLR
 70
     0
  9
$DIMARCSYM
 70
     0
  9
$DIMLTYPE
  6

  9
$DIMLTEX1
  6

  9
$DIMLTEX2
  6

  9
$LUNITS
 70
     2
  9
$LUPREC
 70
     2
  9
$SKETCHINC
 40
1.0
  9
$FILLETRAD
 40
0.0
  9
$AUNITS
 70
     0
  9
$AUPREC
 70
     0
  9
$MENU
  1
.
  9
$ELEVATION
 40
0.0
  9
$PELEVATION
 40
0.0
  9
$THICKNESS
 40
0.0
  9
$LIMCHECK
 70
     0
  9
$CHAMFERA
 40
0.0
  9
$CHAMFERB
 40
0.0
  9
$CHAMFERC
 40
20.0
  9
$CHAMFERD
 40
0.0
  9
$SKPOLY
 70
     0
  9
$TDCREATE
 40
2455832.375762419
  9
$TDUCREATE
 40
2455832.000762419
  9
$TDUPDATE
 40
2459942.388866042
  9
$TDUUPDATE
 40
2459942.013866042
  9
$TDINDWG
 40
0.0726530208
  9
$TDUSRTIMER
 40
0.0726515972
  9
$USRTIMER
 70
     1
  9
$ANGBASE
 50
0.0
  9
$ANGDIR
 70
     0
  9
$PDMODE
 70
     0
  9
$PDSIZE
 40
-3.0
  9
$PLINEWID
 40
0.0
  9
$SPLFRAME
 70
     0
  9
$SPLINETYPE
 70
     6
  9
$SPLINESEGS
 70
     8
  9
$HANDSEED
  5
D0DD
  9
$SURFTAB1
 70
     6
  9
$SURFTAB2
 70
     6
  9
$SURFTYPE
 70
     6
  9
$SURFU
 70
     6
  9
$SURFV
 70
     6
  9
$UCSBASE
  2

  9
$UCSNAME
  2

  9
$UCSORG
 10
0.0
 20
0.0
 30
0.0
  9
$UCSXDIR
 10
1.0
 20
0.0
 30
0.0
  9
$UCSYDIR
 10
0.0
 20
1.0
 30
0.0
  9
$UCSORTHOREF
  2

  9
$UCSORTHOVIEW
 70
     0
  9
$UCSORGTOP
 10
0.0
 20
0.0
 30
0.0
  9
$UCSORGBOTTOM
 10
0.0
 20
0.0
 30
0.0
  9
$UCSORGLEFT
 10
0.0
 20
0.0
 30
0.0
  9
$UCSORGRIGHT
 10
0.0
 20
0.0
 30
0.0
  9
$UCSORGFRONT
 10
0.0
 20
0.0
 30
0.0
  9
$UCSORGBACK
 10
0.0
 20
0.0
 30
0.0
  9
$PUCSBASE
  2

  9
$PUCSNAME
  2

  9
$PUCSORG
 10
0.0
 20
0.0
 30
0.0
  9
$PUCSXDIR
 10
1.0
 20
0.0
 30
0.0
  9
$PUCSYDIR
 10
0.0
 20
1.0
 30
0.0
  9
$PUCSORTHOREF
  2

  9
$PUCSORTHOVIEW
 70
     0
  9
$PUCSORGTOP
 10
0.0
 20
0.0
 30
0.0
  9
$PUCSORGBOTTOM
 10
0.0
 20
0.0
 30
0.0
  9
$PUCSORGLEFT
 10
0.0
 20
0.0
 30
0.0
  9
$PUCSORGRIGHT
 10
0.0
 20
0.0
 30
0.0
  9
$PUCSORGFRONT
 10
0.0
 20
0.0
 30
0.0
  9
$PUCSORGBACK
 10
0.0
 20
0.0
 30
0.0
  9
$USERI1
 70
     0
  9
$USERI2
 70
     0
  9
$USERI3
 70
     0
  9
$USERI4
 70
     0
  9
$USERI5
 70
     0
  9
$USERR1
 40
0.0
  9
$USERR2
 40
0.0
  9
$USERR3
 40
0.0
  9
$USERR4
 40
0.0
  9
$USERR5
 40
0.0
  9
$WORLDVIEW
 70
     1
  9
$SHADEDGE
 70
     3
  9
$SHADEDIF
 70
    70
  9
$TILEMODE
 70
     1
  9
$MAXACTVP
 70
    64
  9
$PINSBASE
 10
0.0
 20
0.0
 30
0.0
  9
$PLIMCHECK
 70
     0
  9
$PEXTMIN
 10
1.000000000000000E+20
 20
1.000000000000000E+20
 30
1.000000000000000E+20
  9
$PEXTMAX
 10
-1.000000000000000E+20
 20
-1.000000000000000E+20
 30
-1.000000000000000E+20
  9
$PLIMMIN
 10
-3.17498779296875
 20
-3.174999952316284
  9
$PLIMMAX
 10
293.4970092773438
 20
206.692492723465
  9
$UNITMODE
 70
     0
  9
$VISRETAIN
 70
     1
  9
$PLINEGEN
 70
     0
  9
$PSLTSCALE
 70
     1
  9
$TREEDEPTH
 70
  3020
  9
$CMLSTYLE
  2
Standard
  9
$CMLJUST
 70
     0
  9
$CMLSCALE
 40
20.0
  9
$PROXYGRAPHICS
 70
     1
  9
$MEASUREMENT
 70
     1
  9
$CELWEIGHT
370
    -1
  9
$ENDCAPS
280
     0
  9
$JOINSTYLE
280
     0
  9
$LWDISPLAY
290
     0
  9
$INSUNITS
 70
     4
  9
$HYPERLINKBASE
  1

  9
$STYLESHEET
  1
monochrome.ctb
  9
$XEDIT
290
     1
  9
$CEPSNTYPE
380
     0
  9
$PSTYLEMODE
290
     1
  9
$FINGERPRINTGUID
  2
{B19F82C0-58CC-4522-AFBE-5CCCF601022A}
  9
$VERSIONGUID
  2
{AA7399E4-2922-4847-BB92-3902C5F041C3}
  9
$EXTNAMES
290
     1
  9
$PSVPSCALE
 40
0.0
  9
$OLESTARTUP
290
     0
  9
$SORTENTS
280
    96
  9
$INDEXCTL
280
     0
  9
$HIDETEXT
280
     0
  9
$XCLIPFRAME
290
     0
  9
$HALOGAP
280
     0
  9
$OBSCOLOR
 70
   257
  9
$OBSLTYPE
280
     0
  9
$INTERSECTIONDISPLAY
280
     0
  9
$INTERSECTIONCOLOR
 70
   257
  9
$DIMASSOC
280
     1
  9
$PROJECTNAME
  1

  9
$CAMERADISPLAY
290
     0
  9
$LENSLENGTH
 40
50.0
  9
$CAMERAHEIGHT
 40
0.0
  9
$STEPSPERSEC
 40
2.0
  9
$STEPSIZE
 40
6.0
  9
$3DDWFPREC
 40
2.0
  9
$PSOLWIDTH
 40
0.25
  9
$PSOLHEIGHT
 40
4.0
  9
$LOFTANG1
 40
1.570796326794897
  9
$LOFTANG2
 40
1.570796326794897
  9
$LOFTMAG1
 40
0.0
  9
$LOFTMAG2
 40
0.0
  9
$LOFTPARAM
 70
     7
  9
$LOFTNORMALS
280
     1
  9
$LATITUDE
 40
37.795
  9
$LONGITUDE
 40
-122.394
  9
$NORTHDIRECTION
 40
0.0
  9
$TIMEZONE
 70
 -8000
  9
$LIGHTGLYPHDISPLAY
280
     1
  9
$TILEMODELIGHTSYNCH
280
     1
  9
$CMATERIAL
347
B0EE
  9
$SOLIDHIST
280
     1
  9
$SHOWHIST
280
     1
  9
$DWFFRAME
280
     2
  9
$DGNFRAME
280
     0
  9
$REALWORLDSCALE
290
     1
  9
$INTERFERECOLOR
 62
   256
  9
$INTERFEREOBJVS
345
B0FB
  9
$INTERFEREVPVS
346
CE6F
  9
$CSHADOW
280
     0
  9
$SHADOWPLANELOCATION
 40
0.0
  0
ENDSEC
  0
SECTION
  2
CLASSES
  0
CLASS
  1
ACDBDICTIONARYWDFLT
  2
AcDbDictionaryWithDefault
  3
ObjectDBX Classes
 90
        0
 91
        8
280
     0
281
     0
  0
CLASS
  1
ACDBPLACEHOLDER
  2
AcDbPlaceHolder
  3
ObjectDBX Classes
 90
        0
 91
        1
280
     0
281
     0
  0
CLASS
  1
LAYOUT
  2
AcDbLayout
  3
ObjectDBX Classes
 90
        0
 91
        1
280
     0
281
     0
  0
CLASS
  1
AMGSETTINGSOBJ
  2
AmgSettingsObj
  3
AmgSettingsObj|...|...
 90
        0
 91
        8
280
     0
281
     0
  0
CLASS
  1
ACME_DOCUMENT
  2
AcMeDbDoc
  3
AcMeServices
 90
        0
 91
        1
280
     1
281
     0
  0
CLASS
  1
ACMESCOPE
  2
AcMeScope
  3
AcMeScope|...|...
 90
        0
 91
        8
280
     0
281
     0
  0
CLASS
  1
ACMECOMMANDHISTORY
  2
AcMeCommandHistory
  3
AcMeServices
 90
        0
 91
        1
280
     1
281
     0
  0
CLASS
  1
DICTIONARYVAR
  2
AcDbDictionaryVar
  3
ObjectDBX Classes
 90
        0
 91
        8
280
     0
281
     0
  0
CLASS
  1
ACIMSYSVARMAN
  2
AcImSysVarManager
  3
AcImSysVarManager|...|...
 90
        0
 91
        8
280
     0
281
     0
  0
CLASS
  1
ACIMREALSYSVAR
  2
AcImRealSysVar
  3
AcMeServices
 90
        0
 91
        1
280
     1
281
     0
  0
CLASS
  1
ACIMINTSYSVAR
  2
AcImIntSysVar
  3
AcImIntSysVar|...|...
 90
        0
 91
        8
280
     0
281
     0
  0
CLASS
  1
ACMEDRAWINGMAN
  2
AcMeDrawingMan
  3
AcMeServices
 90
        0
 91
        1
280
     1
281
     0
  0
CLASS
  1
ACMEVIEW
  2
AcMeView
  3
AcMeServices
 90
        0
 91
        1
280
     1
281
     0
  0
CLASS
  1
ACDBENTITYCACHE
  2
AcMeEntityCache
  3
AcMeServices
 90
        0
 91
        1
280
     1
281
     0
  0
CLASS
  1
GSMANAGER
  2
AcMeGSManager
  3
AcMeServices
 90
        0
 91
        1
280
     1
281
     0
  0
CLASS
  1
AMDTINTERNALREACTOR
  2
AmdtInternalReactor
  3
AcMeServices
 90
        0
 91
        1
280
     1
281
     0
  0
CLASS
  1
ACMESTATEMGR
  2
AcMeStateMgr
  3
AcMeStateMgr|...|...
 90
        0
 91
        8
280
     0
281
     0
  0
CLASS
  1
ACGREFMASTER
  2
AcGrefMaster
  3
AcAttribServices
 90
        0
 91
        1
280
     1
281
     0
  0
CLASS
  1
ACME_DATABASE
  2
AcMeDbDatabase
  3
AcMeServices
 90
        0
 91
        1
280
     1
281
     0
  0
CLASS
  1
ACRFINSADJUSTERMGR
  2
AcRfInsAdjusterMgr
  3
AcMeServices
 90
        0
 91
        1
280
     1
281
     0
  0
CLASS
  1
ACGREFACADMASTER
  2
AcGrefacadMaster
  3
AcGrefServices
 90
        0
 91
        1
280
     1
281
     0
  0
CLASS
  1
AMIMASTER
  2
AmiMaster
  3
AmiServices
 90
        0
 91
        1
280
     1
281
     0
  0
CLASS
  1
ACMDATADICTIONARY
  2
AcmDataDictionary
  3
AcmDataDictionary|...|...
 90
        0
 91
        8
280
     0
281
     0
  0
CLASS
  1
ACMDATAENTRYBLOCK
  2
AcmDataEntryBlock
  3
AcmDataEntryBlock|...|...
 90
        0
 91
        8
280
     0
281
     0
  0
CLASS
  1
ACIMSTRSYSVAR
  2
AcImStrSysVar
  3
AcImStrSysVar|...|...
 90
        0
 91
        8
280
     0
281
     0
  0
CLASS
  1
ACMSTANDARDISO
  2
AcmStandardISO
  3
AcmStandardISO|...|...
 90
        0
 91
        9
280
     0
281
     0
  0
CLASS
  1
AMGOBJPROPCFG
  2
AmgObjPropCfg
  3
AmgObjPropCfg|...|...
 90
        0
 91
        8
280
     0
281
     0
  0
CLASS
  1
AMDTEDGESTANDARDISO
  2
AmdtEdgeStdISO
  3
AmdtEdgeStdISO|...|...
 90
        0
 91
        9
280
     0
281
     0
  0
CLASS
  1
ACMSURFSTANDARDISO
  2
AcmSurfTextStdISO
  3
AcmSurfTextStdISO|...|...
 90
        0
 91
       11
280
     0
281
     0
  0
CLASS
  1
ACMFCFSTANDARDISO
  2
AcmFCFStdISO
  3
AcmFCFStdISO|...|...
 90
        0
 91
       10
280
     0
281
     0
  0
CLASS
  1
ACMWELDSTANDARDISO
  2
AcmWeldingStdISO
  3
AcmWeldingStdISO|...|...
 90
        0
 91
       11
280
     0
281
     0
  0
CLASS
  1
ACMIDSTANDARDISO
  2
AcmIdStdISO
  3
AcmIdStdISO|...|...
 90
        0
 91
       11
280
     0
281
     0
  0
CLASS
  1
ACMDATUMSTANDARDISO
  2
AcmDatumStdISO
  3
AcmDatumStdISO|...|...
 90
        0
 91
       12
280
     0
281
     0
  0
CLASS
  1
ACMBOMSTANDARDISO
  2
AcmBOMStdISO
  3
AcmBOMStdISO|...|...
 90
        0
 91
        9
280
     0
281
     0
  0
CLASS
  1
ACMDETAILSTANDARDISO
  2
AmdtDetailSymStdISO
  3
AmdtDetailSymStdISO|...|...
 90
        0
 91
        7
280
     0
281
     0
  0
CLASS
  1
ACMSECTIONSTANDARDISO
  2
AmdtSectionSymStdISO
  3
AmdtSectionSymStdISO|...|...
 90
        0
 91
        8
280
     0
281
     0
  0
CLASS
  1
ACMCENTERLINESTANDARDISO
  2
AmdtCenterLineStdISO
  3
AmdtCenterLineStdISO|...|...
 90
        0
 91
        7
280
     0
281
     0
  0
CLASS
  1
ACAMGLAYSTD
  2
AcAmgLayStd
  3
AcAmgLayStd|...|...
 90
        0
 91
        8
280
     0
281
     0
  0
CLASS
  1
ACAMGDIMSTD
  2
AcAmgDimStd
  3
AcAmgDimStd|...|...
 90
        0
 91
        8
280
     0
281
     0
  0
CLASS
  1
ACAMGTITLESTD
  2
AcAmgTitleStd
  3
AcAmgTitleStd|...|...
 90
        0
 91
        8
280
     0
281
     0
  0
CLASS
  1
ACAMGFILTERDAT
  2
AcAmgFilterDat
  3
"AcadM|Product Description: AutoCAD Mechanical|Company: Autodesk"
 90
        0
 91
        1
280
     1
281
     0
  0
CLASS
  1
LAYER_INDEX
  2
AcDbLayerIndex
  3
ObjectDBX Classes
 90
        0
 91
        7
280
     0
281
     0
  0
CLASS
  1
IDBUFFER
  2
AcDbIdBuffer
  3
ObjectDBX Classes
 90
        0
 91
        7
280
     0
281
     0
  0
CLASS
  1
PLOTSETTINGS
  2
AcDbPlotSettings
  3
ObjectDBX Classes
 90
        0
 91
        7
280
     0
281
     0
  0
CLASS
  1
AMDTFORMULAUPDATEDISPATCHER
  2
AmdtFormulaUpdateDispatcher
  3
AcMeServices
 90
        0
 91
        1
280
     1
281
     0
  0
CLASS
  1
ACMSTANDARDANSI
  2
AcmStandardANSI
  3
AcmStandardANSI|...|...
 90
        0
 91
        8
280
     0
281
     0
  0
CLASS
  1
ACMSURFSTANDARDANSI
  2
AcmSurfTextStdANSI
  3
AcmSurfTextStdANSI|...|...
 90
        0
 91
        8
280
     0
281
     0
  0
CLASS
  1
ACMFCFSTANDARDANSI
  2
AcmFCFStdANSI
  3
AcmFCFStdANSI|...|...
 90
        0
 91
        9
280
     0
281
     0
  0
CLASS
  1
ACMWELDSTANDARDANSI
  2
AcmWeldingStdANSI
  3
AcmWeldingStdANSI|...|...
 90
        0
 91
        8
280
     0
281
     0
  0
CLASS
  1
ACMIDSTANDARDANSI
  2
AcmIdStdANSI
  3
AcmIdStdANSI|...|...
 90
        0
 91
        9
280
     0
281
     0
  0
CLASS
  1
ACMDATUMSTANDARDANSI
  2
AcmDatumStdANSI
  3
AcmDatumStdANSI|...|...
 90
        0
 91
        8
280
     0
281
     0
  0
CLASS
  1
ACMBOMSTANDARDANSI
  2
AcmBOMStdANSI
  3
AcmBOMStdANSI|...|...
 90
        0
 91
        8
280
     0
281
     0
  0
CLASS
  1
ACMDETAILSTANDARDANSI
  2
AmdtDetailSymStdANSI
  3
AmdtDetailSymStdANSI|...|...
 90
        0
 91
        8
280
     0
281
     0
  0
CLASS
  1
ACMSECTIONSTANDARDANSI
  2
AmdtSectionSymStdANSI
  3
AmdtSectionSymStdANSI|...|...
 90
        0
 91
        8
280
     0
281
     0
  0
CLASS
  1
ACMCENTERLINESTANDARDANSI
  2
AmdtCenterLineStdANSI
  3
AmdtCenterLineStdANSI|...|...
 90
        0
 91
        8
280
     0
281
     0
  0
CLASS
  1
ACMBOM
  2
AcmBom
  3
AcmBom|...|...
 90
        0
 91
        7
280
     0
281
     0
  0
CLASS
  1
ACMDATAENTRYPART
  2
AcmDataEntryPart
  3
AcmDataEntryPart|...|...
 90
        0
 91
        7
280
     0
281
     0
  0
CLASS
  1
ACMPARTREF
  2
AcmPartRef
  3
AcmPartRef|...|...
 90
        0
 91
        7
280
     0
281
     1
  0
CLASS
  1
ACDBCIRCARCRES
  2
AcDbCircArcRes
  3
AcDbCircArcRes|...|...
 90
        0
 91
        8
280
     0
281
     0
  0
CLASS
  1
ACMBOMROW
  2
AcmBomRow
  3
AcmBomRow|...|...
 90
        0
 91
        7
280
     0
281
     0
  0
CLASS
  1
ACMBALLOON
  2
AcmBalloon
  3
AcmBalloon|...|...
 90
        0
 91
        7
280
     0
281
     1
  0
CLASS
  1
AMDTNOTE
  2
AmdtNote
  3
AmdtNote|...|...
 90
        0
 91
        7
280
     0
281
     1
  0
CLASS
  1
STDPART2D
  2
AmgStdPart
  3
AmgStdPart|...|...
 90
        0
 91
        7
280
     0
281
     1
  0
CLASS
  1
ACDBSTDPARTRES_LINE
  2
AcDbStdPartRes_Line
  3
AcDbStdPartRes_Line|...|...
 90
        0
 91
        7
280
     0
281
     0
  0
CLASS
  1
ACMDATAENTRY
  2
AcmDataEntry
  3
AcmDataEntry|...|...
 90
        0
 91
        9
280
     0
281
     0
  0
CLASS
  1
ACDBOPPOLYLINERES
  2
AcDbOpPolylineRes
  3
AcDbOpPolylineRes|...|...
 90
        0
 91
        7
280
     0
281
     0
  0
CLASS
  1
ACMPARTLIST
  2
AcmPartList
  3
AcmPartList|...|...
 90
        0
 91
        7
280
     0
281
     1
  0
CLASS
  1
ACDBLINERES
  2
AcDbLineRes
  3
AcDbLineRes|...|...
 90
        0
 91
        8
280
     0
281
     0
  0
CLASS
  1
ACRFINSADJ
  2
AcRfInsAdjuster
  3
AcRfInsAdjuster|...|...
 90
        0
 91
        8
280
     0
281
     0
  0
CLASS
  1
AM_DRAWING_MGR
  2
AcDmDwgMgr
  3
AcMechDwgViewMgmt
 90
        0
 91
        1
280
     1
281
     0
  0
CLASS
  1
AM_DWG_DOCUMENT
  2
AcDmDwgDocument
  3
AcMechDwgViewMgmt
 90
        0
 91
        1
280
     1
281
     0
  0
CLASS
  1
AM_DWG_SHEET
  2
AcDmSheet
  3
AcMechDwgViewMgmt
 90
        0
 91
        1
280
     1
281
     0
  0
CLASS
  1
AM_VIEWDIMPARMAP
  2
AcDmViewDimParMap
  3
AcMechDwgViewMgmt
 90
        0
 91
        1
280
     1
281
     0
  0
CLASS
  1
AM_DWGMGR_NAME
  2
AcDmDwgMgrName
  3
AcMechDwgViewMgmt
 90
        0
 91
        1
280
     1
281
     0
  0
CLASS
  1
AMDTMENUSTATEMGR
  2
AmdtMenuStateMgr
  3
McadcomServices
 90
        0
 91
        1
280
     1
281
     0
  0
CLASS
  1
AMDTMCOMMENUSTATE
  2
AmdtMcomMenuState
  3
McadcomServices
 90
        0
 91
        1
280
     1
281
     0
  0
CLASS
  1
ASAPP
  2
AcAsAppObject
  3
AutoSurfServices
 90
        0
 91
        2
280
     1
281
     0
  0
CLASS
  1
IM_STATIC_MAN
  2
AcImStaticVarManager
  3
AcMeServices
 90
        0
 91
        2
280
     1
281
     0
  0
CLASS
  1
ACIMDBLSTATICVAR
  2
AcImDblStaticVar
  3
AcMeServices
 90
        0
 91
        1
280
     1
281
     0
  0
CLASS
  1
ACIMSTRSTATICVAR
  2
AcImStrStaticVar
  3
AcMeServices
 90
        0
 91
        1
280
     1
281
     0
  0
CLASS
  1
ACIMINTSTATICVAR
  2
AcImIntStaticVar
  3
AcMeServices
 90
        0
 91
        1
280
     1
281
     0
  0
CLASS
  1
ACASGREFMASTER
  2
AcAsGrefMaster
  3
AutoSurfResolverServices
 90
        0
 91
        2
280
     1
281
     0
  0
CLASS
  1
ACADGREFMODULE
  2
AcAdGrefModule
  3
AdGrefServices
 90
        0
 91
        2
280
     1
281
     0
  0
CLASS
  1
AMDTMAPISURFMOUDULE
  2
AmdtMApiSurfModule
  3
MApiSurfServices
 90
        0
 91
        2
280
     1
281
     0
  0
CLASS
  1
MAPIAMMOUDLE
  2
MApiAmModule
  3
MApiAmServices
 90
        0
 91
        1
280
     1
281
     0
  0
CLASS
  1
AMDTADMENUSTATE
  2
AmdtAdMenuState
  3
DesignerServices
 90
        0
 91
        1
280
     1
281
     0
  0
CLASS
  1
ADAPPL
  2
AcAdAppl
  3
DesignerServices
 90
        0
 91
        1
280
     1
281
     0
  0
CLASS
  1
DEPMGR
  2
AcAdDepMgr
  3
DesignerServices
 90
        0
 91
        1
280
     1
281
     0
  0
CLASS
  1
PARAMMGR
  2
AcAdParamMgr
  3
DesignerServices
 90
        0
 91
        1
280
     1
281
     0
  0
CLASS
  1
PARAMSCOPE
  2
AcAdParamScope
  3
DesignerServices
 90
        0
 91
        1
280
     1
281
     0
  0
CLASS
  1
NAMEDAPPL
  2
AcAdNamedAppl
  3
DesignerServices
 90
        0
 91
        2
280
     1
281
     0
  0
CLASS
  1
ADHNTMPLT
  2
AdHoleNoteTemplateMgr
  3
DesignerServices
 90
        0
 91
        1
280
     1
281
     0
  0
CLASS
  1
AM_HNTEMPLATE_MGR_NAME
  2
AdHoleNoteTemplateMgrName
  3
DesignerServices
 90
        0
 91
        1
280
     1
281
     0
  0
CLASS
  1
AMDTDMMENUSTATE
  2
AmdtDmMenuState
  3
AcMechDwgViewMgmt
 90
        0
 91
        1
280
     1
281
     0
  0
CLASS
  1
MAPIADMODULE
  2
MApiAdModule
  3
MApiAdServices
 90
        0
 91
        2
280
     1
281
     0
  0
CLASS
  1
AMDTAMMENUSTATE
  2
AmdtAmMenuState
  3
DesignerAssemblies
 90
        0
 91
        1
280
     1
281
     0
  0
CLASS
  1
ACAMPROJECT
  2
AcAmProject
  3
AcAmProject|...|...
 90
        0
 91
        8
280
     0
281
     0
  0
CLASS
  1
ACAMGRCOMPDEF
  2
AcAmGrCompDef
  3
AcAmGrCompDef|...|...
 90
        0
 91
        8
280
     0
281
     0
  0
CLASS
  1
ACCMCONTEXT
  2
AcCmContext
  3
DesignerAssemblies
 90
        0
 91
        1
280
     1
281
     0
  0
CLASS
  1
ACAMCOMPDEF
  2
AcAmCompDef
  3
AcAmCompDef|...|...
 90
        0
 91
        8
280
     0
281
     0
  0
CLASS
  1
ACAMCOMPDEFMGR
  2
AcAmCompDefMgr
  3
AcAmCompDefMgr|...|...
 90
        0
 91
        8
280
     0
281
     0
  0
CLASS
  1
ACAMCONTEXTMGR
  2
AcAmContextMgr
  3
AcAmContextMgr|...|...
 90
        0
 91
        8
280
     0
281
     0
  0
CLASS
  1
ACAMCONTEXTMODELER
  2
AcAmContextModeler
  3
AcAmContextModeler|...|...
 90
        0
 91
        8
280
     0
281
     0
  0
CLASS
  1
CATALOGSTATE
  2
AcAmCatalogState
  3
DesignerAssemblies
 90
        0
 91
        1
280
     1
281
     0
  0
CLASS
  1
ACAMGRCOMPDEFSET
  2
AcAmGrCompDefSet
  3
DesignerAssemblies
 90
        0
 91
        1
280
     1
281
     0
  0
CLASS
  1
AMDTBROWSERDBTAB
  2
AmdtBrowserDbTab
  3
McadcomServices
 90
        0
 91
        1
280
     1
281
     0
  0
CLASS
  1
CBROWSERAPPOBJECT
  2
CBrowserAppObject
  3
McadcomServices
 90
        0
 91
        1
280
     1
281
     0
  0
CLASS
  1
DM_PLACEHOLDER
  2
AcDmSelsetPlaceholder
  3
AcMechDwgViewMgmt
 90
        0
 91
        1
280
     1
281
     0
  0
CLASS
  1
ACMPICKOBJ
  2
AcmPickEnt
  3
"AcmSymBB|Product Description: AutoCAD Mechanical|Company: Autodesk"
 90
        0
 91
        1
280
     1
281
     1
  0
CLASS
  1
ACMNOTESTANDARDISO
  2
AmdtNoteStdISO
  3
AmdtNoteStdISO|...|...
 90
        0
 91
        7
280
     0
281
     0
  0
CLASS
  1
ACMNOTESTANDARDANSI
  2
AmdtNoteStdANSI
  3
AmdtNoteStdANSI|...|...
 90
        0
 91
        8
280
     0
281
     0
  0
CLASS
  1
ACMTHREADLINESTANDARDISO
  2
AmdtThreadLineStdISO
  3
AmdtThreadLineStdISO|...|...
 90
        0
 91
        7
280
     0
281
     0
  0
CLASS
  1
ACMTHREADLINESTANDARDANSI
  2
AmdtThreadLineStdANSI
  3
AmdtThreadLineStdANSI|...|...
 90
        0
 91
        8
280
     0
281
     0
  0
CLASS
  1
TABLESTYLE
  2
AcDbTableStyle
  3
ObjectDBX Classes
 90
     4095
 91
        8
280
     0
281
     0
  0
CLASS
  1
SORTENTSTABLE
  2
AcDbSortentsTable
  3
ObjectDBX Classes
 90
        0
 91
        7
280
     0
281
     0
  0
CLASS
  1
MATERIAL
  2
AcDbMaterial
  3
ObjectDBX Classes
 90
     1153
 91
        8
280
     0
281
     0
  0
CLASS
  1
VISUALSTYLE
  2
AcDbVisualStyle
  3
ObjectDBX Classes
 90
     4095
 91
        8
280
     0
281
     0
  0
CLASS
  1
ACRFATTGENMGR
  2
AcRfAttGeneralMgr
  3
AcAttribServices
 90
        0
 91
        1
280
     1
281
     0
  0
CLASS
  1
ACRFOBJATTMGR
  2
AcRfObjAttGroupMgr
  3
AcAttribServices
 90
        0
 91
        1
280
     1
281
     0
  0
CLASS
  1
ACRFMCADAPIATTHOLDER
  2
AcRfMCADAPIAttHolder
  3
AcAttribServices
 90
        0
 91
        1
280
     1
281
     0
  0
CLASS
  1
AMDTSYSATTR
  2
AmdtSystemAttribute
  3
AmdtSystemAttribute|...|...
 90
        0
 91
        8
280
     0
281
     0
  0
CLASS
  1
ACMTAPERSTANDARDISO
  2
AcmTaperStdISO
  3
AcmTaperStdISO|...|...
 90
        0
 91
       10
280
     0
281
     0
  0
CLASS
  1
CAMSSTRUCTBTNSTATE
  2
StructBtnState
  3
L"DesignerAssemblies"
 90
        0
 91
        1
280
     1
281
     0
  0
CLASS
  1
DIMASSOC
  2
AcDbDimAssoc
  3
"AcDbDimAssoc|Product Desc:     AcDim ARX App For Dimension|Company:          Autodesk, Inc.|WEB Address:      www.autodesk.com"
 90
        0
 91
        7
280
     0
281
     0
  0
CLASS
  1
AMDTNOTETEMPLATEDB
  2
AmdtNoteTemplateDB
  3
AmdtNoteTemplateDB|...|...
 90
        0
 91
        8
280
     0
281
     0
  0
CLASS
  1
ACMTAPERSTANDARDANSI
  2
AcmTaperStdANSI
  3
AcmTaperStdANSI|...|...
 90
        0
 91
        8
280
     0
281
     0
  0
CLASS
  1
ACAMGHOLECHARTSTDANSI
  2
AcAmgHoleChartStdANSI
  3
AcAmgHoleChartStdANSI|...|...
 90
        0
 91
        6
280
     0
281
     0
  0
CLASS
  1
ACDBLINERES
  2
AcDbDimensionRes
  3
AcDbDimensionRes|...|...
 90
        0
 91
        5
280
     0
281
     0
  0
CLASS
  1
SCALE
  2
AcDbScale
  3
ObjectDBX Classes
 90
     1153
 91
        8
280
     0
281
     0
  0
CLASS
  1
ACDBSECTIONVIEWSTYLE
  2
AcDbSectionViewStyle
  3
ObjectDBX Classes
 90
     1025
 91
        8
280
     0
281
     0
  0
CLASS
  1
ACDBDETAILVIEWSTYLE
  2
AcDbDetailViewStyle
  3
ObjectDBX Classes
 90
     1025
 91
        8
280
     0
281
     0
  0
CLASS
  1
MLEADERSTYLE
  2
AcDbMLeaderStyle
  3
ACDB_MLEADERSTYLE_CLASS
 90
     4095
 91
        8
280
     0
281
     0
  0
CLASS
  1
ACMSTANDARDJIS
  2
AcmStandardJIS
  3
AcmStandardJIS|...|...
 90
        0
 91
        5
280
     0
281
     0
  0
CLASS
  1
ACMSURFSTANDARDJIS2003
  2
AcmSurfTextStdJIS2003
  3
AcmSurfTextStdJIS2003|...|...
 90
        0
 91
        5
280
     0
281
     0
  0
CLASS
  1
ACMFCFSTANDARDJIS98
  2
AcmFCFStdJIS98
  3
AcmFCFStdJIS98|...|...
 90
        0
 91
        5
280
     0
281
     0
  0
CLASS
  1
ACMWELDSTANDARDJIS
  2
AcmWeldingStdJIS
  3
AcmWeldingStdJIS|...|...
 90
        0
 91
        5
280
     0
281
     0
  0
CLASS
  1
ACMIDSTANDARDJIS1998
  2
AcmIdStdJIS1998
  3
AcmIdStdJIS1998|...|...
 90
        0
 91
        5
280
     0
281
     0
  0
CLASS
  1
ACMDATUMSTANDARDJIS
  2
AcmDatumStdJIS
  3
AcmDatumStdJIS|...|...
 90
        0
 91
        5
280
     0
281
     0
  0
CLASS
  1
ACMBOMSTANDARDJIS
  2
AcmBOMStdJIS
  3
AcmBOMStdJIS|...|...
 90
        0
 91
        5
280
     0
281
     0
  0
CLASS
  1
ACMDETAILSTANDARDJIS
  2
AmdtDetailSymStdJIS
  3
AmdtDetailSymStdJIS|...|...
 90
        0
 91
        5
280
     0
281
     0
  0
CLASS
  1
ACMDETAILSTANDARDCUSTOM
  2
AmdtDetailSymStdCustom
  3
AmdtDetailSymStdCustom|...|...
 90
        0
 91
        8
280
     0
281
     0
  0
CLASS
  1
ACMSECTIONSTANDARDJIS
  2
AmdtSectionSymStdJIS
  3
AmdtSectionSymStdJIS|...|...
 90
        0
 91
        5
280
     0
281
     0
  0
CLASS
  1
FIELD
  2
AcDbField
  3
ObjectDBX Classes
 90
     1152
 91
        6
280
     0
281
     0
  0
CLASS
  1
ACMSECTIONSTANDARDCUSTOM
  2
AmdtSectionSymStdCustom
  3
AmdtSectionSymStdCustom|...|...
 90
        0
 91
        8
280
     0
281
     0
  0
CLASS
  1
ACMCENTERLINESTANDARDJIS
  2
AmdtCenterLineStdJIS
  3
AmdtCenterLineStdJIS|...|...
 90
        0
 91
        5
280
     0
281
     0
  0
CLASS
  1
ACMTHREADLINESTANDARDJIS
  2
AmdtThreadLineStdJIS
  3
AmdtThreadLineStdJIS|...|...
 90
        0
 91
        5
280
     0
281
     0
  0
CLASS
  1
ACMNOTESTANDARDJIS
  2
AmdtNoteStdJIS
  3
AmdtNoteStdJIS|...|...
 90
        0
 91
        5
280
     0
281
     0
  0
CLASS
  1
ACMTAPERSTANDARDJIS
  2
AcmTaperStdJIS
  3
AcmTaperStdJIS|...|...
 90
        0
 91
        5
280
     0
281
     0
  0
CLASS
  1
ACMANOOTATIONVIEWSTANDARDJIS
  2
AmdtAnViewStdJIS
  3
AmdtAnViewStdJIS|...|...
 90
        0
 91
        5
280
     0
281
     0
  0
CLASS
  1
AMDTEDGESTANDARDJIS
  2
AmdtEdgeStdJIS
  3
AmdtEdgeStdJIS|...|...
 90
        0
 91
        5
280
     0
281
     0
  0
CLASS
  1
ACAMGHOLECHARTSTDJIS
  2
AcAmgHoleChartStdJIS
  3
AcAmgHoleChartStdJIS|...|...
 90
        0
 91
        5
280
     0
281
     0
  0
CLASS
  1
FIELDLIST
  2
AcDbFieldList
  3
ObjectDBX Classes
 90
     1152
 91
        6
280
     0
281
     0
  0
CLASS
  1
AMDTEDGELIBRARY
  2
AmdtEdgeLibrary
  3
AmdtEdgeLibrary|...|...
 90
        0
 91
        5
280
     0
281
     0
  0
CLASS
  1
AMDTFCFLIBRARY
  2
AmdtFCFLibrary
  3
AmdtFCFLibrary|...|...
 90
        0
 91
        6
280
     0
281
     0
  0
CLASS
  1
AMDTSURFTEXTLIBRARY
  2
AmdtSurfTextLibrary
  3
AmdtSurfTextLibrary|...|...
 90
        0
 91
        6
280
     0
281
     0
  0
CLASS
  1
AMDTWELDINGLIBRARY
  2
AmdtWeldingLibrary
  3
AmdtWeldingLibrary|...|...
 90
        0
 91
        6
280
     0
281
     0
  0
CLASS
  1
AMDTEDGELIBOBJECT
  2
AmdtEdgeLibObject
  3
AmdtEdgeLibObject|...|...
 90
        0
 91
        5
280
     0
281
     0
  0
CLASS
  1
AMDTFCFLIBOBJECT
  2
AmdtFCFLibObject
  3
AmdtFCFLibObject|...|...
 90
        0
 91
        6
280
     0
281
     0
  0
CLASS
  1
AMDTSURFTEXTLIBOBJECT
  2
AmdtSurfTextLibObject
  3
AmdtSurfTextLibObject|...|...
 90
        0
 91
        6
280
     0
281
     0
  0
CLASS
  1
AMDTWELDINGLIBOBJECT
  2
AmdtWeldingLibObject
  3
AmdtWeldingLibObject|...|...
 90
        0
 91
        6
280
     0
281
     0
  0
CLASS
  1
CELLSTYLEMAP
  2
AcDbCellStyleMap
  3
ObjectDBX Classes
 90
     1152
 91
        8
280
     0
281
     0
  0
ENDSEC
  0
SECTION
  2
TABLES
  0
TABLE
  2
VPORT
  5
8
330
0
100
AcDbSymbolTable
 70
     1
  0
VPORT
  5
B0EC
330
8
100
AcDbSymbolTableRecord
100
AcDbViewportTableRecord
  2
*Active
 70
     0
 10
0.0
 20
0.0
 11
1.0
 21
1.0
 12
215.9002206470558
 22
149.1269879831622
 13
0.0
 23
0.0
 14
2.5
 24
2.5
 15
10.0
 25
10.0
 16
0.0
 26
0.0
 36
1.0
 17
0.0
 27
0.0
 37
0.0
 40
319.1503618332885
 41
1.872
 42
50.0
 43
-1370.695619172059
 44
-1370.695619172059
 50
0.0
 51
0.0
 71
    16
 72
   100
 73
     1
 74
     3
 75
     0
 76
     0
 77
     0
 78
     0
281
     0
 65
     0
110
0.0
120
0.0
130
0.0
111
1.0
121
0.0
131
0.0
112
0.0
122
1.0
132
0.0
 79
     0
146
0.0
348
B0F7
 60
     3
 61
     5
292
     1
282
     1
141
0.0
142
0.0
 63
   250
  0
ENDTAB
  0
TABLE
  2
LTYPE
  5
5
330
0
100
AcDbSymbolTable
 70
    37
  0
LTYPE
  5
14
330
5
100
AcDbSymbolTableRecord
100
AcDbLinetypeTableRecord
  2
ByBlock
 70
     0
  3

 72
    65
 73
     0
 40
0.0
  0
LTYPE
  5
15
330
5
100
AcDbSymbolTableRecord
100
AcDbLinetypeTableRecord
  2
ByLayer
 70
     0
  3

 72
    65
 73
     0
 40
0.0
  0
LTYPE
  5
16
330
5
100
AcDbSymbolTableRecord
100
AcDbLinetypeTableRecord
  2
Continuous
 70
     0
  3
Solid line
 72
    65
 73
     0
 40
0.0
  0
LTYPE
  5
4F
330
5
100
AcDbSymbolTableRecord
100
AcDbLinetypeTableRecord
  2
AM_ISO02W050
 70
     0
  3
__ __ __ __ __ __ __ __ __ __ __ __ __ __ __
 72
    65
 73
     2
 40
7.5
 49
6.0
 74
     0
 49
-1.5
 74
     0
  0
LTYPE
  5
52
330
5
100
AcDbSymbolTableRecord
100
AcDbLinetypeTableRecord
  2
Amconstr
 70
     0
  3
_______________________
 72
    65
 73
     2
 40
9999.0
 49
9999.0
 74
     0
 49
0.0
 74
     0
  0
LTYPE
  5
4DED
330
5
100
AcDbSymbolTableRecord
100
AcDbLinetypeTableRecord
  2
中線
 70
     0
  3
___________________
 72
    65
 73
     2
 40
2.0
 49
1.0
 74
     0
 49
1.0
 74
     0
  0
LTYPE
  5
4DF6
330
5
100
AcDbSymbolTableRecord
100
AcDbLinetypeTableRecord
  2
細線
 70
     0
  3
___________________
 72
    65
 73
     2
 40
2.0
 49
1.0
 74
     0
 49
1.0
 74
     0
  0
LTYPE
  5
4EA7
330
5
100
AcDbSymbolTableRecord
100
AcDbLinetypeTableRecord
  2
文字
 70
     0
  3
_________________
 72
    65
 73
     2
 40
2.0
 49
1.0
 74
     0
 49
1.0
 74
     0
  0
LTYPE
  5
4EA9
330
5
100
AcDbSymbolTableRecord
100
AcDbLinetypeTableRecord
  2
寸法線
 70
     0
  3
________________
 72
    65
 73
     2
 40
2.0
 49
1.0
 74
     0
 49
1.0
 74
     0
  0
LTYPE
  5
5183
330
5
100
AcDbSymbolTableRecord
100
AcDbLinetypeTableRecord
  2
想像線1
 70
     0
  3
__ __ __ _____ __ __ ____
 72
    65
 73
     6
 40
14.5
 49
6.0
 74
     0
 49
-1.5
 74
     0
 49
2.0
 74
     0
 49
-1.5
 74
     0
 49
2.0
 74
     0
 49
-1.5
 74
     0
  0
LTYPE
  5
5185
330
5
100
AcDbSymbolTableRecord
100
AcDbLinetypeTableRecord
  2
中心線1
 70
     0
  3
___ _ ___ _ ___
 72
    65
 73
     4
 40
18.0
 49
12.0
 74
     0
 49
-2.0
 74
     0
 49
2.0
 74
     0
 49
-2.0
 74
     0
  0
LTYPE
  5
AC9E
330
5
100
AcDbSymbolTableRecord
100
AcDbLinetypeTableRecord
  2
Amzigzag
 70
     0
  3
/\/-/\/-/\/-/\/-/\/-/\/
 72
    65
 73
     2
 40
11.0001
 49
0.0001
 74
     4
 75
   135
340
56
 46
0.04
 50
0.0
 44
0.0
 45
0.0
 49
-11.0
 74
     0
  0
LTYPE
  5
AF95
330
5
100
AcDbSymbolTableRecord
100
AcDbLinetypeTableRecord
  2
AM_ISO08W050
 70
     0
  3
____ . ____ . ____ . ____ . ____ . ____ . ____
 72
    65
 73
     4
 40
18.0
 49
12.0
 74
     0
 49
-1.5
 74
     0
 49
3.0
 74
     0
 49
-1.5
 74
     0
  0
LTYPE
  5
AF96
330
5
100
AcDbSymbolTableRecord
100
AcDbLinetypeTableRecord
  2
AM_ISO09W050
 70
     0
  3
_____ . . _____ . . _____ . . ____ .. ____
 72
    65
 73
     6
 40
22.5
 49
12.0
 74
     0
 49
-1.5
 74
     0
 49
3.0
 74
     0
 49
-1.5
 74
     0
 49
3.0
 74
     0
 49
-1.5
 74
     0
  0
LTYPE
  5
AF97
330
5
100
AcDbSymbolTableRecord
100
AcDbLinetypeTableRecord
  2
AM_ISO08W050x2
 70
     0
  3
__ . __ . __ . __ . __ . __
 72
    65
 73
     4
 40
9.0
 49
6.0
 74
     0
 49
-0.75
 74
     0
 49
1.5
 74
     0
 49
-0.75
 74
     0
  0
LTYPE
  5
AF98
330
5
100
AcDbSymbolTableRecord
100
AcDbLinetypeTableRecord
  2
AM_ISO02W050x2
 70
     0
  3
 _ _ _ _ _ _ _ _ _ _ _ _
 72
    65
 73
     2
 40
3.75
 49
3.0
 74
     0
 49
-0.75
 74
     0
  0
LTYPE
  5
B689
330
5
100
AcDbSymbolTableRecord
100
AcDbLinetypeTableRecord
  2
DASHED
 70
     0
  3
__ __ __ __ __ __ __ __ __ __ __ __ __ __ __
 72
    65
 73
     2
 40
3.5
 49
2.0
 74
     0
 49
-1.5
 74
     0
  0
LTYPE
  5
CF78
330
5
100
AcDbSymbolTableRecord
100
AcDbLinetypeTableRecord
  2
ACJISWELD
 70
     0
  3
_ _ _ _ _
 72
    65
 73
     2
 40
2.0
 49
2.0
 74
     0
 49
-1.0
 74
     0
  0
LTYPE
  5
CF7A
330
5
100
AcDbSymbolTableRecord
100
AcDbLinetypeTableRecord
  2
ACJISTGL
 70
     0
  3
_ _ _ _ _
 72
    65
 73
     2
 40
3.0
 49
2.0
 74
     0
 49
-1.0
 74
     0
  0
LTYPE
  5
CF7C
330
5
100
AcDbSymbolTableRecord
100
AcDbLinetypeTableRecord
  2
ACJISTGB
 70
     0
  3
__ . . __ . .
 72
    65
 73
     6
 40
9.0
 49
4.0
 74
     0
 49
-1.0
 74
     0
 49
1.0
 74
     0
 49
-1.0
 74
     0
 49
1.0
 74
     0
 49
-1.0
 74
     0
  0
ENDTAB
  0
TABLE
  2
LAYER
  5
2
102
{ACAD_XDICTIONARY
360
3F95
102
}
330
0
100
AcDbSymbolTable
 70
    20
  0
LAYER
  5
10
330
2
100
AcDbSymbolTableRecord
100
AcDbLayerTableRecord
  2
0
 70
     0
 62
     7
  6
Continuous
370
    -3
390
F
347
B0F0
  0
LAYER
  5
6D1
330
2
100
AcDbSymbolTableRecord
100
AcDbLayerTableRecord
  2
Defpoints
 70
     0
 62
     7
  6
Continuous
290
     0
370
    -3
390
F
347
B0F0
  0
LAYER
  5
5F85
330
2
100
AcDbSymbolTableRecord
100
AcDbLayerTableRecord
  2
AM_0
 70
     0
 62
     7
  6
中線
370
    30
390
F
347
B0F0
1001
AcAecLayerStandard
1000

1000

  0
LAYER
  5
AC9F
330
2
100
AcDbSymbolTableRecord
100
AcDbLayerTableRecord
  2
size
 70
     0
 62
     5
  6
Continuous
290
     0
370
    25
390
F
347
B0F0
  0
LAYER
  5
ACA0
330
2
100
AcDbSymbolTableRecord
100
AcDbLayerTableRecord
  2
waku
 70
     0
 62
     7
  6
Continuous
370
    35
390
F
347
B0F0
  0
LAYER
  5
ACA1
330
2
100
AcDbSymbolTableRecord
100
AcDbLayerTableRecord
  2
AM_6
 70
     0
 62
     2
  6
文字
370
    13
390
F
347
B0F0
1001
AcAecLayerStandard
1000

1000

  0
LAYER
  5
AD64
330
2
100
AcDbSymbolTableRecord
100
AcDbLayerTableRecord
  2
AM_2
 70
     0
 62
     1
  6
細線
370
    13
390
F
347
B0F0
1001
AcAecLayerStandard
1000

1000

  0
LAYER
  5
AD68
330
2
100
AcDbSymbolTableRecord
100
AcDbLayerTableRecord
  2
AM_5
 70
     0
 62
     3
  6
寸法線
370
    13
390
F
347
B0F0
1001
AcAecLayerStandard
1000

1000

  0
LAYER
  5
AD69
330
2
100
AcDbSymbolTableRecord
100
AcDbLayerTableRecord
  2
AM_7
 70
     0
 62
     4
  6
中心線1
370
    13
390
F
347
B0F0
1001
AcAecLayerStandard
1000

1000

  0
LAYER
  5
AD6F
330
2
100
AcDbSymbolTableRecord
100
AcDbLayerTableRecord
  2
AM_11
 70
     0
 62
     2
  6
想像線1
370
    13
390
F
347
B0F0
1001
AcAecLayerStandard
1000

1000

  0
LAYER
  5
B1B6
330
2
100
AcDbSymbolTableRecord
100
AcDbLayerTableRecord
  2
AM_CL
 70
     1
 62
    -1
  6
Amconstr
370
    15
390
F
347
B0F0
1001
AcAecLayerStandard
1000

1000

  0
ENDTAB
  0
TABLE
  2
STYLE
  5
3
330
0
100
AcDbSymbolTable
 70
    10
  0
STYLE
  5
11
330
3
100
AcDbSymbolTableRecord
100
AcDbTextStyleTableRecord
  2
STANDARD
 70
     0
 40
0.0
 41
0.7
 50
0.0
 71
     0
 42
3.2
  3
romans.shx
  4
extfont.shx
  0
STYLE
  5
56
330
3
100
AcDbSymbolTableRecord
100
AcDbTextStyleTableRecord
  2

 70
     1
 40
0.0
 41
1.0
 50
0.0
 71
     0
 42
2.5
  3
ltypeshp.shx
  4

  0
STYLE
  5
A74
330
3
100
AcDbSymbolTableRecord
100
AcDbTextStyleTableRecord
  2
DIM
 70
     0
 40
0.0
 41
1.0
 50
0.0
 71
     0
 42
2.5
  3
monotxt.shx
  4
extfont.shx
  0
STYLE
  5
CF76
330
3
100
AcDbSymbolTableRecord
100
AcDbTextStyleTableRecord
  2
ACJISGDT
 70
     0
 40
0.0
 41
1.0
 50
0.0
 71
     0
 42
2.5
  3
amgdt.shx
  4
extfont2.shx
  0
ENDTAB
  0
TABLE
  2
VIEW
  5
6
330
0
100
AcDbSymbolTable
 70
     6
  0
VIEW
  5
AE1
330
6
100
AcDbSymbolTableRecord
100
AcDbViewTableRecord
  2
AM_VIEW1
 70
     0
 40
163.7021630615641
 10
722.7526181880692
 20
215.1489184692178
 41
210.0
 11
0.0
 21
0.0
 31
1.0
 12
0.0
 22
0.0
 32
0.0
 42
50.0
 43
-1370.695619172059
 44
-1370.695619172059
 50
0.0
 71
    16
281
     0
 72
     0
 73
     0
348
B0F7
  0
VIEW
  5
AE2
330
6
100
AcDbSymbolTableRecord
100
AcDbViewTableRecord
  2
AM_VIEW2
 70
     0
 40
163.7021630615641
 10
932.7526181880692
 20
215.1489184692178
 41
210.0
 11
0.0
 21
0.0
 31
1.0
 12
0.0
 22
0.0
 32
0.0
 42
50.0
 43
-1370.695619172059
 44
-1370.695619172059
 50
0.0
 71
    16
281
     0
 72
     0
 73
     0
348
B0F7
  0
VIEW
  5
AE3
330
6
100
AcDbSymbolTableRecord
100
AcDbViewTableRecord
  2
AM_VIEW3
 70
     0
 40
163.7021630615641
 10
722.7526181880692
 20
81.85108153078188
 41
210.0
 11
0.0
 21
0.0
 31
1.0
 12
0.0
 22
0.0
 32
0.0
 42
50.0
 43
-1370.695619172059
 44
-1370.695619172059
 50
0.0
 71
    16
281
     0
 72
     0
 73
     0
348
B0F7
  0
VIEW
  5
AE4
330
6
100
AcDbSymbolTableRecord
100
AcDbViewTableRecord
  2
AM_VIEW4
 70
     0
 40
163.7021630615641
 10
932.7526181880692
 20
81.85108153078188
 41
210.0
 11
0.0
 21
0.0
 31
1.0
 12
0.0
 22
0.0
 32
0.0
 42
50.0
 43
-1370.695619172059
 44
-1370.695619172059
 50
0.0
 71
    16
281
     0
 72
     0
 73
     0
348
B0F7
  0
VIEW
  5
AE5
330
6
100
AcDbSymbolTableRecord
100
AcDbViewTableRecord
  2
AM_VIEW5
 70
     0
 40
163.702163061564
 10
827.7526181880692
 20
148.4999999999999
 41
210.0
 11
0.0
 21
0.0
 31
1.0
 12
0.0
 22
0.0
 32
0.0
 42
50.0
 43
-1370.695619172059
 44
-1370.695619172059
 50
0.0
 71
    16
281
     0
 72
     0
 73
     0
348
B0F7
  0
VIEW
  5
AE6
330
6
100
AcDbSymbolTableRecord
100
AcDbViewTableRecord
  2
AM_VIEW6
 70
     0
 40
327.4010520798669
 10
827.7526181880692
 20
148.4999999999998
 41
419.9958000000001
 11
0.0
 21
0.0
 31
1.0
 12
0.0
 22
0.0
 32
0.0
 42
50.0
 43
-1370.695619172059
 44
-1370.695619172059
 50
0.0
 71
    16
281
     0
 72
     0
 73
     0
348
B0F7
  0
ENDTAB
  0
TABLE
  2
UCS
  5
7
330
0
100
AcDbSymbolTable
 70
     0
  0
ENDTAB
  0
TABLE
  2
APPID
  5
9
330
0
100
AcDbSymbolTable
 70
    85
  0
APPID
  5
12
330
9
100
AcDbSymbolTableRecord
100
AcDbRegAppTableRecord
  2
ACAD
 70
     0
  0
APPID
  5
30
330
9
100
AcDbSymbolTableRecord
100
AcDbRegAppTableRecord
  2
MCAD_NO_VIS
 70
     0
  0
APPID
  5
31
330
9
100
AcDbSymbolTableRecord
100
AcDbRegAppTableRecord
  2
ACAD_TEMP_GRAPHIC
 70
     0
  0
APPID
  5
44
330
9
100
AcDbSymbolTableRecord
100
AcDbRegAppTableRecord
  2
ACATTRIBSERVICES
 70
     0
  0
APPID
  5
7A1
330
9
100
AcDbSymbolTableRecord
100
AcDbRegAppTableRecord
  2
GENIUS_GENDIMSH_14
 70
     0
  0
APPID
  5
A49
330
9
100
AcDbSymbolTableRecord
100
AcDbRegAppTableRecord
  2
GENIUS_GENREC_14
 70
     0
  0
APPID
  5
A4A
330
9
100
AcDbSymbolTableRecord
100
AcDbRegAppTableRecord
  2
GENIUS_GENOBJ-N-REC_13
 70
     0
  0
APPID
  5
A4B
330
9
100
AcDbSymbolTableRecord
100
AcDbRegAppTableRecord
  2
GENIUS_GENODEF_13
 70
     0
  0
APPID
  5
A4C
330
9
100
AcDbSymbolTableRecord
100
AcDbRegAppTableRecord
  2
DCO15
 70
     0
  0
APPID
  5
ADC
330
9
100
AcDbSymbolTableRecord
100
AcDbRegAppTableRecord
  2
GENIUS_GENOLIS_13
 70
     0
  0
APPID
  5
ADD
330
9
100
AcDbSymbolTableRecord
100
AcDbRegAppTableRecord
  2
GENIUS_GENOENT_13
 70
     0
  0
APPID
  5
ADE
330
9
100
AcDbSymbolTableRecord
100
AcDbRegAppTableRecord
  2
GENIUS_GENOBJ-N-TIT_13
 70
     0
  0
APPID
  5
ADF
330
9
100
AcDbSymbolTableRecord
100
AcDbRegAppTableRecord
  2
GENIUS_GENTITLE_13
 70
     0
  0
APPID
  5
AE0
330
9
100
AcDbSymbolTableRecord
100
AcDbRegAppTableRecord
  2
GENIUS_GENOREF_13
 70
     0
  0
APPID
  5
AE7
330
9
100
AcDbSymbolTableRecord
100
AcDbRegAppTableRecord
  2
GENIUS_GENSCREG_15
 70
     0
  0
APPID
  5
AE8
330
9
100
AcDbSymbolTableRecord
100
AcDbRegAppTableRecord
  2
GENIUS_GENOBJ-N-SDF_13
 70
     0
  0
APPID
  5
FAF
330
9
100
AcDbSymbolTableRecord
100
AcDbRegAppTableRecord
  2
GENIUS_GENBLLY_14
 70
     0
  0
APPID
  5
FB0
330
9
100
AcDbSymbolTableRecord
100
AcDbRegAppTableRecord
  2
GENIUS_GENTRA_14
 70
     0
  0
APPID
  5
1285
330
9
100
AcDbSymbolTableRecord
100
AcDbRegAppTableRecord
  2
GENIUS_GENDTOL_13
 70
     0
  0
APPID
  5
142D
330
9
100
AcDbSymbolTableRecord
100
AcDbRegAppTableRecord
  2
GENIUS_GENOBJ-N-CEN_13
 70
     0
  0
APPID
  5
1AB5
330
9
100
AcDbSymbolTableRecord
100
AcDbRegAppTableRecord
  2
GENIUS_GENOBJ-N-CRS_13
 70
     0
  0
APPID
  5
1B36
330
9
100
AcDbSymbolTableRecord
100
AcDbRegAppTableRecord
  2
GENIUS_GENOBJ-N-HTC_13
 70
     0
  0
APPID
  5
1B37
330
9
100
AcDbSymbolTableRecord
100
AcDbRegAppTableRecord
  2
GENIUS_GENHATCH_13
 70
     0
  0
APPID
  5
216D
330
9
100
AcDbSymbolTableRecord
100
AcDbRegAppTableRecord
  2
GENIUS_GENOBJ-N-FIL_13
 70
     0
  0
APPID
  5
2356
330
9
100
AcDbSymbolTableRecord
100
AcDbRegAppTableRecord
  2
GEVID990412420
 70
     0
  0
APPID
  5
2357
330
9
100
AcDbSymbolTableRecord
100
AcDbRegAppTableRecord
  2
GEVDC
 70
     0
  0
APPID
  5
2358
330
9
100
AcDbSymbolTableRecord
100
AcDbRegAppTableRecord
  2
GEVCON
 70
     0
  0
APPID
  5
235B
330
9
100
AcDbSymbolTableRecord
100
AcDbRegAppTableRecord
  2
GEVRADREF
 70
     0
  0
APPID
  5
2360
330
9
100
AcDbSymbolTableRecord
100
AcDbRegAppTableRecord
  2
GENIUS_GENBH_13
 70
     0
  0
APPID
  5
2362
330
9
100
AcDbSymbolTableRecord
100
AcDbRegAppTableRecord
  2
GENIUS_GENOBJ-NBEHI-BHF_13
 70
     0
  0
APPID
  5
2364
330
9
100
AcDbSymbolTableRecord
100
AcDbRegAppTableRecord
  2
GENIUS_GENOBJ-NBEHI-BHB_13
 70
     0
  0
APPID
  5
2379
330
9
100
AcDbSymbolTableRecord
100
AcDbRegAppTableRecord
  2
GENIUS_GENOBJ-F-SCPASSM_13
 70
     0
  0
APPID
  5
3D74
330
9
100
AcDbSymbolTableRecord
100
AcDbRegAppTableRecord
  2
GENIUS_GENDIM_13
 70
     0
  0
APPID
  5
3D76
330
9
100
AcDbSymbolTableRecord
100
AcDbRegAppTableRecord
  2
GENIUS_GE3DTOL_13
 70
     0
  0
APPID
  5
3D9C
330
9
100
AcDbSymbolTableRecord
100
AcDbRegAppTableRecord
  2
AD_DRAW
 70
     0
  0
APPID
  5
3DE8
330
9
100
AcDbSymbolTableRecord
100
AcDbRegAppTableRecord
  2
ASURF_PCURVE_APPNAME
 70
     0
  0
APPID
  5
3DED
330
9
100
AcDbSymbolTableRecord
100
AcDbRegAppTableRecord
  2
AMG_3D2D_5.0
 70
     0
  0
APPID
  5
3E1B
330
9
100
AcDbSymbolTableRecord
100
AcDbRegAppTableRecord
  2
DESIGNERASSEMBLIES
 70
     0
  0
APPID
  5
3E20
330
9
100
AcDbSymbolTableRecord
100
AcDbRegAppTableRecord
  2
ACADM_DIM_EDIT
 70
     0
  0
APPID
  5
3E21
330
9
100
AcDbSymbolTableRecord
100
AcDbRegAppTableRecord
  2
AMDT_DM_ADJ
 70
     0
  0
APPID
  5
4143
330
9
100
AcDbSymbolTableRecord
100
AcDbRegAppTableRecord
  2
GENIUS_GENFIL_13
 70
     0
  0
APPID
  5
4144
330
9
100
AcDbSymbolTableRecord
100
AcDbRegAppTableRecord
  2
GENIUS_GENOBJ-N-CHA_13
 70
     0
  0
APPID
  5
4E17
330
9
100
AcDbSymbolTableRecord
100
AcDbRegAppTableRecord
  2
GEVID1008153417
 70
     0
  0
APPID
  5
4E58
330
9
100
AcDbSymbolTableRecord
100
AcDbRegAppTableRecord
  2
GEVID1008153418
 70
     0
  0
APPID
  5
4E5E
330
9
100
AcDbSymbolTableRecord
100
AcDbRegAppTableRecord
  2
GEVID1008153419
 70
     0
  0
APPID
  5
4E64
330
9
100
AcDbSymbolTableRecord
100
AcDbRegAppTableRecord
  2
GEVID1008153420
 70
     0
  0
APPID
  5
4E75
330
9
100
AcDbSymbolTableRecord
100
AcDbRegAppTableRecord
  2
GEVID1008153421
 70
     0
  0
APPID
  5
4EB7
330
9
100
AcDbSymbolTableRecord
100
AcDbRegAppTableRecord
  2
GENIUS_AMGTXT_16
 70
     0
  0
APPID
  5
7645
330
9
100
AcDbSymbolTableRecord
100
AcDbRegAppTableRecord
  2
GENIUS_GENOBJ-N-DIM_13
 70
     0
  0
APPID
  5
AAD0
330
9
100
AcDbSymbolTableRecord
100
AcDbRegAppTableRecord
  2
ACAD_DSTYLE_DIMARC_LENGTH_SYMBOL
 70
     0
  0
APPID
  5
AAD1
330
9
100
AcDbSymbolTableRecord
100
AcDbRegAppTableRecord
  2
ACAD_DSTYLE_DIMJOGGED_JOGANGLE_SYMBOL
 70
     0
  0
APPID
  5
AAFD
330
9
100
AcDbSymbolTableRecord
100
AcDbRegAppTableRecord
  2
ACAD_PSEXT
 70
     0
  0
APPID
  5
AD61
330
9
100
AcDbSymbolTableRecord
100
AcDbRegAppTableRecord
  2
AcAecLayerStandard
 70
     0
  0
APPID
  5
AEE3
330
9
100
AcDbSymbolTableRecord
100
AcDbRegAppTableRecord
  2
ACAD_EXEMPT_FROM_CAD_STANDARDS
 70
     0
  0
APPID
  5
B1BE
330
9
100
AcDbSymbolTableRecord
100
AcDbRegAppTableRecord
  2
GENIUS_GENCEN_19
 70
     0
  0
APPID
  5
BC1E
330
9
100
AcDbSymbolTableRecord
100
AcDbRegAppTableRecord
  2
ACAD_MLEADERVER
 70
     0
  0
APPID
  5
BC44
330
9
100
AcDbSymbolTableRecord
100
AcDbRegAppTableRecord
  2
ACAUTHENVIRON
 70
     0
  0
APPID
  5
BC45
330
9
100
AcDbSymbolTableRecord
100
AcDbRegAppTableRecord
  2
AcDbDynamicBlockTrueName
 70
     0
  0
APPID
  5
BC46
330
9
100
AcDbSymbolTableRecord
100
AcDbRegAppTableRecord
  2
AcDbDynamicBlockGUID
 70
     0
  0
APPID
  5
BC47
330
9
100
AcDbSymbolTableRecord
100
AcDbRegAppTableRecord
  2
ACDBBLOCKREPETAG
 70
     0
  0
APPID
  5
CE79
330
9
100
AcDbSymbolTableRecord
100
AcDbRegAppTableRecord
  2
HC_SUPERPART
 70
     0
  0
APPID
  5
CE7A
330
9
100
AcDbSymbolTableRecord
100
AcDbRegAppTableRecord
  2
HC_SP4BLOCK
 70
     0
  0
APPID
  5
CE7B
330
9
100
AcDbSymbolTableRecord
100
AcDbRegAppTableRecord
  2
HC_XDATA_SPRING
 70
     0
  0
APPID
  5
CE7C
330
9
100
AcDbSymbolTableRecord
100
AcDbRegAppTableRecord
  2
HCCAD_FRAME
 70
     0
  0
APPID
  5
CE7D
330
9
100
AcDbSymbolTableRecord
100
AcDbRegAppTableRecord
  2
GENIUS_GENOBJ-N-ZOO_13
 70
     0
  0
APPID
  5
CE7E
330
9
100
AcDbSymbolTableRecord
100
AcDbRegAppTableRecord
  2
GENIUS_GENSYMENT_13
 70
     0
  0
APPID
  5
CE7F
330
9
100
AcDbSymbolTableRecord
100
AcDbRegAppTableRecord
  2
GENIUS_GENSCSYM_13
 70
     0
  0
APPID
  5
CE80
330
9
100
AcDbSymbolTableRecord
100
AcDbRegAppTableRecord
  2
GENIUS_GENOBJ-N-REV_13
 70
     0
  0
APPID
  5
CE81
330
9
100
AcDbSymbolTableRecord
100
AcDbRegAppTableRecord
  2
GENIUS_GENOBJ-N-RSSYM_13
 70
     0
  0
APPID
  5
CE82
330
9
100
AcDbSymbolTableRecord
100
AcDbRegAppTableRecord
  2
GENIUS_GENREV_15
 70
     0
  0
APPID
  5
CE83
330
9
100
AcDbSymbolTableRecord
100
AcDbRegAppTableRecord
  2
HRA
 70
     0
  0
APPID
  5
CE84
330
9
100
AcDbSymbolTableRecord
100
AcDbRegAppTableRecord
  2
HTIT
 70
     0
  0
APPID
  5
CE85
330
9
100
AcDbSymbolTableRecord
100
AcDbRegAppTableRecord
  2
GENIUS_GENZOO_17
 70
     0
  0
APPID
  5
CE86
330
9
100
AcDbSymbolTableRecord
100
AcDbRegAppTableRecord
  2
GENIUS_GENCRS_20
 70
     0
  0
APPID
  5
CE87
330
9
100
AcDbSymbolTableRecord
100
AcDbRegAppTableRecord
  2
GENIUS_GENOBJ-N-CRC_13
 70
     0
  0
APPID
  5
CE88
330
9
100
AcDbSymbolTableRecord
100
AcDbRegAppTableRecord
  2
GENIUS_GENCRC_14
 70
     0
  0
APPID
  5
CE89
330
9
100
AcDbSymbolTableRecord
100
AcDbRegAppTableRecord
  2
GENIUS_GENOBJ-N-DIMLI_13
 70
     0
  0
APPID
  5
CE8A
330
9
100
AcDbSymbolTableRecord
100
AcDbRegAppTableRecord
  2
GENIUS_GENOBJ-N-FITL_13
 70
     0
  0
APPID
  5
CE8B
330
9
100
AcDbSymbolTableRecord
100
AcDbRegAppTableRecord
  2
GENIUS_GENFITL_13
 70
     0
  0
APPID
  5
CE8C
330
9
100
AcDbSymbolTableRecord
100
AcDbRegAppTableRecord
  2
GENLAYCOLOR
 70
     0
  0
APPID
  5
CFB0
330
9
100
AcDbSymbolTableRecord
100
AcDbRegAppTableRecord
  2
ACAD_DSTYLE_DIMJAG
 70
     0
  0
APPID
  5
CFB1
330
9
100
AcDbSymbolTableRecord
100
AcDbRegAppTableRecord
  2
ACAD_DSTYLE_DIMBREAK
 70
     0
  0
APPID
  5
CFE5
330
9
100
AcDbSymbolTableRecord
100
AcDbRegAppTableRecord
  2
ACAD_DSTYLE_DIM_LINETYPE
 70
     0
  0
APPID
  5
CFE6
330
9
100
AcDbSymbolTableRecord
100
AcDbRegAppTableRecord
  2
ACAD_DSTYLE_DIM_EXT1_LINETYPE
 70
     0
  0
APPID
  5
CFE7
330
9
100
AcDbSymbolTableRecord
100
AcDbRegAppTableRecord
  2
ACAD_DSTYLE_DIM_EXT2_LINETYPE
 70
     0
  0
ENDTAB
  0
TABLE
  2
DIMSTYLE
  5
A
330
0
100
AcDbSymbolTable
 70
    31
100
AcDbDimStyleTable
  0
DIMSTYLE
105
A76
330
A
100
AcDbSymbolTableRecord
100
AcDbDimStyleTableRecord
  2
STANDARD
 70
     0
 41
3.0
 42
1.0
 43
7.0
 44
2.0
 73
     0
 74
     0
 77
     1
140
2.8
141
0.0
143
0.0394
147
0.7
171
     4
172
     1
173
     1
176
     3
177
     3
271
     3
178
     2
271
     3
272
     3
273
     8
274
     4
289
     0
340
A74
341
A66
343
A66
344
A66
  0
DIMSTYLE
105
2515
330
A
100
AcDbSymbolTableRecord
100
AcDbDimStyleTableRecord
  2
SYS
 70
     0
  4
"
 41
1.0
 42
1.0
 43
10.0
 44
1.0
 47
0.1
 48
0.1
 90
        1
 73
     0
 74
     0
 77
     1
 78
     8
 79
     2
140
3.5
141
0.0
143
0.0393701
146
0.71
147
1.5
172
     1
176
   256
177
   256
271
     2
178
     7
271
     2
272
     2
283
     0
284
     8
340
11
371
    -1
372
    -1
  0
DIMSTYLE
105
2516
102
{ACAD_REACTORS
330
CDEA
102
}
330
A
100
AcDbSymbolTableRecord
100
AcDbDimStyleTableRecord
  2
SYS$3
 70
     0
  4
"
 41
2.0
 42
1.0
 43
10.0
 44
1.0
 47
0.1
 48
0.1
 90
        1
 73
     0
 77
     1
 78
     8
 79
     2
140
3.5
141
0.0
143
0.0393701
146
0.71
147
1.5
176
   256
177
   256
271
     2
178
     2
271
     2
272
     2
283
     0
284
     8
288
     1
340
11
342
A66
371
    -1
372
    -1
  0
DIMSTYLE
105
2AAB
102
{ACAD_REACTORS
330
C70C
330
C709
330
C70D
330
C708
330
C707
330
C70B
330
C961
330
C962
330
C963
330
C964
330
C9F5
330
C9FE
330
C9F8
330
C9F6
330
C9F7
330
C9FA
330
C9F9
330
C9FB
102
}
330
A
100
AcDbSymbolTableRecord
100
AcDbDimStyleTableRecord
  2
SYS$0
 70
     0
  4
"
 41
1.0
 42
1.0
 43
10.0
 44
1.0
 47
0.1
 48
0.1
 90
        1
 73
     0
 74
     0
 77
     1
 78
     8
 79
     2
140
3.200000000000001
141
0.0
143
0.0393701
146
0.71
147
1.5
172
     1
176
   256
177
   256
271
     2
178
     2
271
     2
272
     2
283
     0
284
     8
340
11
341
A66
342
6C4
371
    -1
372
    -1
  0
DIMSTYLE
105
CFAF
102
{ACAD_REACTORS
102
}
330
A
100
AcDbSymbolTableRecord
100
AcDbDimStyleTableRecord
  2
AM_JIS
 70
     0
  4
"
 41
2.5
 42
1.0
 43
10.0
 44
1.0
 47
0.1
 48
0.1
 90
        1
 73
     0
 74
     0
 77
     3
 78
     8
 79
     2
140
3.5
141
0.0
143
0.0393701
146
0.71
147
1.5
172
     1
176
   256
177
   256
271
     2
178
     2
271
     2
272
     3
274
     4
283
     0
284
     8
340
11
341
A66
342
A66
343
A66
344
A66
371
    -1
372
    -1
345
14
346
14
347
14
1001
ACAD_DSTYLE_DIMJAG
1070
   388
1040
1.5
1001
ACAD_DSTYLE_DIMBREAK
1070
   391
1040
3.75
  0
DIMSTYLE
105
CFB2
330
A
100
AcDbSymbolTableRecord
100
AcDbDimStyleTableRecord
  2
AM_JIS$3
 70
     0
  4
"
 41
2.5
 42
1.0
 43
10.0
 44
1.0
 47
0.1
 48
0.1
 90
        1
 73
     0
 77
     3
 78
     8
 79
     2
140
3.5
141
0.0
143
0.0393701
146
0.71
147
1.5
176
   256
177
   256
271
     2
178
     2
271
     2
272
     3
274
     4
283
     0
284
     8
288
     1
289
     0
340
11
341
A66
342
A66
343
A66
344
A66
371
    -1
372
    -1
345
14
346
14
347
14
1001
ACAD_DSTYLE_DIMBREAK
1070
   391
1040
3.75
1001
ACAD_DSTYLE_DIMJAG
1070
   388
1040
1.5
  0
DIMSTYLE
105
CFB3
330
A
100
AcDbSymbolTableRecord
100
AcDbDimStyleTableRecord
  2
AM_JIS$4
 70
     0
  4
"
 41
2.5
 42
1.0
 43
10.0
 44
1.0
 47
0.1
 48
0.1
 90
        1
 73
     0
 74
     0
 77
     3
 78
     8
 79
     2
140
3.5
141
0.0
143
0.0393701
146
0.71
147
1.5
172
     1
176
   256
177
   256
271
     2
178
     2
271
     2
272
     3
274
     4
283
     0
284
     8
340
11
341
A66
342
A66
343
A66
344
A66
371
    -1
372
    -1
345
14
346
14
347
14
1001
ACAD_DSTYLE_DIMBREAK
1070
   391
1040
3.75
1001
ACAD_DSTYLE_DIMJAG
1070
   388
1040
1.5
  0
DIMSTYLE
105
CFB4
330
A
100
AcDbSymbolTableRecord
100
AcDbDimStyleTableRecord
  2
AM_JIS$6
 70
     0
  4
"
 41
2.5
 42
1.0
 43
10.0
 44
1.0
 47
0.1
 48
0.1
 90
        1
 73
     0
 74
     0
 78
     8
 79
     2
140
3.5
141
0.0
143
0.0393701
146
0.71
147
1.5
172
     1
176
   256
177
   256
271
     2
178
     2
271
     2
272
     3
274
     4
283
     0
284
     8
340
11
341
A66
342
A66
343
A66
344
A66
371
    -1
372
    -1
345
14
346
14
347
14
1001
ACAD_DSTYLE_DIMBREAK
1070
   391
1040
3.75
1001
ACAD_DSTYLE_DIMJAG
1070
   388
1040
1.5
  0
DIMSTYLE
105
CFB5
330
A
100
AcDbSymbolTableRecord
100
AcDbDimStyleTableRecord
  2
AM_JIS$7
 70
     0
  4
"
 41
2.5
 42
1.0
 43
10.0
 44
1.0
 47
0.1
 48
0.1
 90
        1
 73
     0
 74
     0
 77
     3
 78
     8
 79
     2
140
3.5
141
0.0
143
0.0393701
146
0.71
147
1.5
172
     1
176
   256
177
   256
271
     2
178
     2
271
     2
272
     3
274
     4
283
     0
284
     8
340
11
341
A66
342
A66
343
A66
344
A66
371
    -1
372
    -1
345
14
346
14
347
14
1001
ACAD_DSTYLE_DIMBREAK
1070
   391
1040
3.75
1001
ACAD_DSTYLE_DIMJAG
1070
   388
1040
1.5
  0
DIMSTYLE
105
CFB6
330
A
100
AcDbSymbolTableRecord
100
AcDbDimStyleTableRecord
  2
AM_JIS$SF
 70
     0
  4
"
 41
2.5
 42
1.0
 43
10.0
 44
1.0
 47
0.1
 48
0.1
 90
        1
 73
     0
 74
     0
 75
     1
 76
     1
 77
     3
 78
     8
 79
     2
140
3.5
141
0.0
143
0.0393701
146
0.71
147
1.5
172
     1
176
   256
177
   256
271
     2
178
     2
271
     2
272
     3
274
     4
283
     0
284
     8
340
11
341
A66
342
A66
343
A66
344
A66
371
    -1
372
    -1
345
14
346
14
347
14
1001
ACAD_DSTYLE_DIMBREAK
1070
   391
1040
3.75
1001
ACAD_DSTYLE_DIMJAG
1070
   388
1040
1.5
  0
DIMSTYLE
105
CFB7
330
A
100
AcDbSymbolTableRecord
100
AcDbDimStyleTableRecord
  2
AM_JIS$SH
 70
     0
  4
"
 41
2.5
 42
1.0
 43
10.0
 44
1.0
 47
0.1
 48
0.1
 90
        1
 73
     0
 74
     0
 75
     1
 76
     1
 77
     3
 78
     8
 79
     2
140
3.5
141
0.0
143
0.0393701
144
2.0
146
0.71
147
1.5
172
     1
173
     1
176
   256
177
   256
271
     2
178
     2
271
     2
272
     3
274
     4
283
     0
284
     8
340
11
341
A66
342
A66
343
72
344
A66
371
    -1
372
    -1
345
14
346
14
347
14
1001
ACAD_DSTYLE_DIMBREAK
1070
   391
1040
3.75
1001
ACAD_DSTYLE_DIMJAG
1070
   388
1040
1.5
  0
ENDTAB
  0
TABLE
  2
BLOCK_RECORD
  5
1
330
0
100
AcDbSymbolTable
 70
    33
  0
BLOCK_RECORD
  5
1F
102
{ACAD_XDICTIONARY
360
8A
102
}
330
1
100
AcDbSymbolTableRecord
100
AcDbBlockTableRecord
  2
*Model_Space
340
22
 70
     0
280
     1
281
     0
  0
BLOCK_RECORD
  5
1B
330
1
100
AcDbSymbolTableRecord
100
AcDbBlockTableRecord
  2
*Paper_Space
340
1E
 70
     0
280
     1
281
     0
  0
BLOCK_RECORD
  5
23
330
1
100
AcDbSymbolTableRecord
100
AcDbBlockTableRecord
  2
*Paper_Space0
340
26
 70
     0
280
     1
281
     0
  0
BLOCK_RECORD
  5
72
330
1
100
AcDbSymbolTableRecord
100
AcDbBlockTableRecord
  2
GENAXEH
340
0
 70
     0
280
     1
281
     0
  0
BLOCK_RECORD
  5
6C4
330
1
100
AcDbSymbolTableRecord
100
AcDbBlockTableRecord
  2
_Dot
340
0
102
{BLKREFS
331
CCCC
331
CCCD
331
CCD5
331
CCD6
331
CCDE
331
CCDF
331
CCEF
331
CCF0
331
CCF8
331
CCF9
331
CD01
331
CD02
331
CD0A
331
CD0B
331
CD13
331
CD14
331
CD1C
331
CD1D
331
CD27
331
CD28
331
CD30
331
CD31
331
CD39
331
CD3A
331
CD42
331
CD43
331
CD4B
331
CD4C
331
CD54
331
CD55
331
CD5D
331
CD5E
331
CD68
331
CD69
331
CD71
331
CD72
331
CD7A
331
CD7B
331
CD83
331
CD84
331
CD8C
331
CD8D
331
CCCC
331
CCCD
331
CCD5
331
CCD6
331
CCDE
331
CCDF
331
CCEF
331
CCF0
331
CCF8
331
CCF9
331
CD01
331
CD02
331
CD0A
331
CD0B
331
CD13
331
CD14
331
CD1C
331
CD1D
331
CD27
331
CD28
331
CD30
331
CD31
331
CD39
331
CD3A
331
CD42
331
CD43
331
CD4B
331
CD4C
331
CD54
331
CD55
331
CD5D
331
CD5E
331
CD68
331
CD69
331
CD71
331
CD72
331
CD7A
331
CD7B
331
CD83
331
CD84
331
CD8C
331
CD8D
102
}
 70
     0
280
     1
281
     0
  0
BLOCK_RECORD
  5
A66
330
1
100
AcDbSymbolTableRecord
100
AcDbBlockTableRecord
  2
_OPEN30
340
0
 70
     0
280
     1
281
     0
  0
BLOCK_RECORD
  5
C499
330
1
100
AcDbSymbolTableRecord
100
AcDbBlockTableRecord
  2
GENDOT
340
0
102
{BLKREFS
331
CE15
331
CE16
331
CE15
331
CE16
102
}
 70
     0
280
     1
281
     0
  0
BLOCK_RECORD
  5
C715
330
1
100
AcDbSymbolTableRecord
100
AcDbBlockTableRecord
  2
*D6
340
0
 70
     0
280
     1
281
     0
  0
BLOCK_RECORD
  5
C721
330
1
100
AcDbSymbolTableRecord
100
AcDbBlockTableRecord
  2
*D7
340
0
 70
     0
280
     1
281
     0
  0
BLOCK_RECORD
  5
C72D
330
1
100
AcDbSymbolTableRecord
100
AcDbBlockTableRecord
  2
*D8
340
0
 70
     0
280
     1
281
     0
  0
BLOCK_RECORD
  5
C744
330
1
100
AcDbSymbolTableRecord
100
AcDbBlockTableRecord
  2
*D9
340
0
 70
     0
280
     1
281
     0
  0
BLOCK_RECORD
  5
C750
330
1
100
AcDbSymbolTableRecord
100
AcDbBlockTableRecord
  2
*D10
340
0
 70
     0
280
     1
281
     0
  0
BLOCK_RECORD
  5
C75C
330
1
100
AcDbSymbolTableRecord
100
AcDbBlockTableRecord
  2
*D11
340
0
 70
     0
280
     1
281
     0
  0
BLOCK_RECORD
  5
C965
330
1
100
AcDbSymbolTableRecord
100
AcDbBlockTableRecord
  2
*D15
340
0
 70
     0
280
     1
281
     0
  0
BLOCK_RECORD
  5
C973
330
1
100
AcDbSymbolTableRecord
100
AcDbBlockTableRecord
  2
*D16
340
0
 70
     0
280
     1
281
     0
  0
BLOCK_RECORD
  5
C97F
330
1
100
AcDbSymbolTableRecord
100
AcDbBlockTableRecord
  2
*D17
340
0
 70
     0
280
     1
281
     0
  0
BLOCK_RECORD
  5
C98B
330
1
100
AcDbSymbolTableRecord
100
AcDbBlockTableRecord
  2
*D18
340
0
 70
     0
280
     1
281
     0
  0
BLOCK_RECORD
  5
C9FF
330
1
100
AcDbSymbolTableRecord
100
AcDbBlockTableRecord
  2
*D19
340
0
 70
     0
280
     1
281
     0
  0
BLOCK_RECORD
  5
CA0B
330
1
100
AcDbSymbolTableRecord
100
AcDbBlockTableRecord
  2
*D20
340
0
 70
     0
280
     1
281
     0
  0
BLOCK_RECORD
  5
CA17
330
1
100
AcDbSymbolTableRecord
100
AcDbBlockTableRecord
  2
*D21
340
0
 70
     0
280
     1
281
     0
  0
BLOCK_RECORD
  5
CA23
330
1
100
AcDbSymbolTableRecord
100
AcDbBlockTableRecord
  2
*D22
340
0
 70
     0
280
     1
281
     0
  0
BLOCK_RECORD
  5
CA31
330
1
100
AcDbSymbolTableRecord
100
AcDbBlockTableRecord
  2
*D23
340
0
 70
     0
280
     1
281
     0
  0
BLOCK_RECORD
  5
CA3D
330
1
100
AcDbSymbolTableRecord
100
AcDbBlockTableRecord
  2
*D24
340
0
 70
     0
280
     1
281
     0
  0
BLOCK_RECORD
  5
CA49
330
1
100
AcDbSymbolTableRecord
100
AcDbBlockTableRecord
  2
*D25
340
0
 70
     0
280
     1
281
     0
  0
BLOCK_RECORD
  5
CA55
330
1
100
AcDbSymbolTableRecord
100
AcDbBlockTableRecord
  2
*D26
340
0
 70
     0
280
     1
281
     0
  0
BLOCK_RECORD
  5
CDEB
330
1
100
AcDbSymbolTableRecord
100
AcDbBlockTableRecord
  2
*D27
340
0
 70
     0
280
     1
281
     0
  0
BLOCK_RECORD
  5
CF15
330
1
100
AcDbSymbolTableRecord
100
AcDbBlockTableRecord
  2
*S31
340
0
102
{BLKREFS
331
C711
331
C711
102
}
 70
     0
280
     1
281
     0
  0
BLOCK_RECORD
  5
CF1E
330
1
100
AcDbSymbolTableRecord
100
AcDbBlockTableRecord
  2
*S32
340
0
102
{BLKREFS
331
C713
331
C713
102
}
 70
     0
280
     1
281
     0
  0
ENDTAB
  0
ENDSEC
  0
SECTION
  2
BLOCKS
  0
BLOCK
  5
20
330
1F
100
AcDbEntity
  8
0
100
AcDbBlockBegin
  2
*Model_Space
 70
     0
 10
0.0
 20
0.0
 30
0.0
  3
*Model_Space
  1

  0
ENDBLK
  5
21
330
1F
100
AcDbEntity
  8
0
100
AcDbBlockEnd
  0
BLOCK
  5
1C
330
1B
100
AcDbEntity
 67
     1
  8
0
100
AcDbBlockBegin
  2
*Paper_Space
 70
     0
 10
0.0
 20
0.0
 30
0.0
  3
*Paper_Space
  1

  0
ENDBLK
  5
1D
330
1B
100
AcDbEntity
 67
     1
  8
0
100
AcDbBlockEnd
  0
BLOCK
  5
24
330
23
100
AcDbEntity
  8
0
100
AcDbBlockBegin
  2
*Paper_Space0
 70
     0
 10
0.0
 20
0.0
 30
0.0
  3
*Paper_Space0
  1

  0
ENDBLK
  5
25
330
23
100
AcDbEntity
  8
0
100
AcDbBlockEnd
  0
BLOCK
  5
74
330
72
100
AcDbEntity
  8
0
100
AcDbBlockBegin
  2
GENAXEH
 70
     0
 10
0.0
 20
0.0
 30
0.0
  3
GENAXEH
  1

  0
LINE
  5
73
330
72
100
AcDbEntity
  8
0
100
AcDbLine
 10
-1.0
 20
0.0
 30
0.0
 11
1.0
 21
0.0
 31
0.0
  0
ENDBLK
  5
75
330
72
100
AcDbEntity
  8
0
100
AcDbBlockEnd
  0
BLOCK
  5
6C7
330
6C4
100
AcDbEntity
  8
0
100
AcDbBlockBegin
  2
_Dot
 70
     0
 10
0.0
 20
0.0
 30
0.0
  3
_Dot
  1

  0
LWPOLYLINE
  5
6C5
330
6C4
100
AcDbEntity
  8
0
  6
ByBlock
 62
     0
100
AcDbPolyline
 90
        2
 70
     1
 43
0.5
 10
-0.25
 20
0.0
 42
1.0
 10
0.25
 20
0.0
 42
1.0
  0
LINE
  5
6C6
330
6C4
100
AcDbEntity
  8
0
  6
ByBlock
 62
     0
370
    -2
100
AcDbLine
 10
-0.5
 20
0.0
 30
0.0
 11
-1.0
 21
0.0
 31
0.0
  0
ENDBLK
  5
6C8
330
6C4
100
AcDbEntity
  8
0
100
AcDbBlockEnd
  0
BLOCK
  5
A6A
330
A66
100
AcDbEntity
  8
0
100
AcDbBlockBegin
  2
_OPEN30
 70
     0
 10
0.0
 20
0.0
 30
0.0
  3
_OPEN30
  1

  0
LINE
  5
A67
330
A66
100
AcDbEntity
  8
0
  6
ByBlock
 62
     0
100
AcDbLine
 10
-1.0
 20
0.26794919
 30
0.0
 11
0.0
 21
0.0
 31
0.0
  0
LINE
  5
A68
330
A66
100
AcDbEntity
  8
0
  6
ByBlock
 62
     0
100
AcDbLine
 10
0.0
 20
0.0
 30
0.0
 11
-1.0
 21
-0.26794919
 31
0.0
  0
LINE
  5
A69
330
A66
100
AcDbEntity
  8
0
  6
ByBlock
 62
     0
100
AcDbLine
 10
0.0
 20
0.0
 30
0.0
 11
-1.0
 21
0.0
 31
0.0
  0
ENDBLK
  5
A6B
330
A66
100
AcDbEntity
  8
0
100
AcDbBlockEnd
  0
BLOCK
  5
C49C
330
C499
100
AcDbEntity
  8
0
100
AcDbBlockBegin
  2
GENDOT
 70
     0
 10
0.0
 20
0.0
 30
0.0
  3
GENDOT
  1

  0
LINE
  5
C49A
330
C499
100
AcDbEntity
  8
0
100
AcDbLine
 10
0.0
 20
0.0
 30
0.0
 11
-1.0
 21
0.0
 31
0.0
  0
LWPOLYLINE
  5
C49B
330
C499
100
AcDbEntity
  8
0
100
AcDbPolyline
 90
        2
 70
     1
 10
-0.125
 20
0.0
 40
0.25
 41
0.25
 42
1.0
 10
0.125
 20
0.0
 40
0.25
 41
0.25
 42
1.0
  0
ENDBLK
  5
C49D
330
C499
100
AcDbEntity
  8
0
100
AcDbBlockEnd
  0
BLOCK
  5
C71F
330
C715
100
AcDbEntity
  8
0
100
AcDbBlockBegin
  2
*D6
 70
     1
 10
0.0
 20
0.0
 30
0.0
  3
*D6
  1

  0
LINE
  5
CCC9
330
C715
100
AcDbEntity
  8
AM_5
100
AcDbLine
 10
107.1833879104111
 20
72.91429204711774
 30
0.0
 11
107.1833879104111
 21
51.96538334711791
 31
0.0
  0
LINE
  5
CCCA
330
C715
100
AcDbEntity
  8
AM_5
100
AcDbLine
 10
138.1833879104111
 20
72.91429204711774
 30
0.0
 11
138.1833879104111
 21
51.96538334711791
 31
0.0
  0
LINE
  5
CCCB
330
C715
100
AcDbEntity
  8
AM_5
100
AcDbLine
 10
108.1833879104111
 20
52.96538334711791
 30
0.0
 11
137.1833879104111
 21
52.96538334711791
 31
0.0
  0
INSERT
  5
CCCC
330
C715
100
AcDbEntity
  8
AM_5
100
AcDbBlockReference
  2
_Dot
 10
107.1833879104111
 20
52.96538334711791
 30
0.0
 50
180.0
  0
INSERT
  5
CCCD
330
C715
100
AcDbEntity
  8
AM_5
100
AcDbBlockReference
  2
_Dot
 10
138.1833879104111
 20
52.96538334711791
 30
0.0
  0
MTEXT
  5
CCCE
330
C715
100
AcDbEntity
  8
AM_5
 62
     2
100
AcDbMText
 10
122.6833879104111
 20
56.06538334711792
 30
0.0
 40
3.200000000000001
 41
0.0
 46
0.0
 71
     5
 72
     1
  1
31
 73
     1
 44
1.0
  0
POINT
  5
CCCF
330
C715
100
AcDbEntity
  8
Defpoints
 62
     0
100
AcDbPoint
 10
107.1833879104111
 20
73.91429204711774
 30
0.0
  0
POINT
  5
CCD0
330
C715
100
AcDbEntity
  8
Defpoints
 62
     0
100
AcDbPoint
 10
138.1833879104111
 20
73.91429204711774
 30
0.0
  0
POINT
  5
CCD1
330
C715
100
AcDbEntity
  8
Defpoints
 62
     0
100
AcDbPoint
 10
138.1833879104111
 20
52.96538334711791
 30
0.0
  0
ENDBLK
  5
C720
330
C715
100
AcDbEntity
  8
0
100
AcDbBlockEnd
  0
BLOCK
  5
C72B
330
C721
100
AcDbEntity
  8
0
100
AcDbBlockBegin
  2
*D7
 70
     1
 10
0.0
 20
0.0
 30
0.0
  3
*D7
  1

  0
LINE
  5
CCD2
330
C721
100
AcDbEntity
  8
AM_5
100
AcDbLine
 10
123.5494131221202
 20
64.46538401443382
 30
0.0
 11
141.6917219631662
 21
53.99090782882882
 31
0.0
  0
LINE
  5
CCD3
330
C721
100
AcDbEntity
  8
AM_5
100
AcDbLine
 10
139.0494131221202
 20
91.31214771443376
 30
0.0
 11
157.1917219631662
 21
80.83767152882875
 31
0.0
  0
LINE
  5
CCD4
330
C721
100
AcDbEntity
  8
AM_5
100
AcDbLine
 10
141.3256970841412
 20
55.35693337322201
 30
0.0
 11
155.825696418773
 21
80.47164664980372
 31
0.0
  0
INSERT
  5
CCD5
330
C721
100
AcDbEntity
  8
AM_5
100
AcDbBlockReference
  2
_Dot
 10
140.8256967514571
 20
54.49090816151291
 30
0.0
 50
239.9999779897953
  0
INSERT
  5
CCD6
330
C721
100
AcDbEntity
  8
AM_5
100
AcDbBlockReference
  2
_Dot
 10
156.3256967514571
 20
81.33767186151283
 30
0.0
 50
59.99997798979532
  0
MTEXT
  5
CCD7
330
C721
100
AcDbEntity
  8
AM_5
 62
     2
100
AcDbMText
 10
145.8910185951589
 20
69.46429104283352
 30
0.0
 40
3.200000000000001
 41
0.0
 46
0.0
 71
     5
 72
     1
  1
31
 11
0.5000003326840904
 21
0.8660252117091043
 31
0.0
 73
     1
 44
1.0
  0
POINT
  5
CCD8
330
C721
100
AcDbEntity
  8
Defpoints
 62
     0
100
AcDbPoint
 10
122.6833879104111
 20
64.96538434711792
 30
0.0
  0
POINT
  5
CCD9
330
C721
100
AcDbEntity
  8
Defpoints
 62
     0
100
AcDbPoint
 10
138.1833879104111
 20
91.81214804711784
 30
0.0
  0
POINT
  5
CCDA
330
C721
100
AcDbEntity
  8
Defpoints
 62
     0
100
AcDbPoint
 10
156.3256967514571
 20
81.33767186151283
 30
0.0
  0
ENDBLK
  5
C72C
330
C721
100
AcDbEntity
  8
0
100
AcDbBlockEnd
  0
BLOCK
  5
C737
330
C72D
100
AcDbEntity
  8
0
100
AcDbBlockBegin
  2
*D8
 70
     1
 10
0.0
 20
0.0
 30
0.0
  3
*D8
  1

  0
LINE
  5
CCDB
330
C72D
100
AcDbEntity
  8
AM_5
100
AcDbLine
 10
54.48563791041101
 20
89.96138104711788
 30
0.0
 11
54.48563791041101
 21
107.3632380571178
 31
0.0
  0
LINE
  5
CCDC
330
C72D
100
AcDbEntity
  8
AM_5
100
AcDbLine
 10
73.98563791041101
 20
89.96138104711788
 30
0.0
 11
73.98563791041101
 21
107.3632380571178
 31
0.0
  0
LINE
  5
CCDD
330
C72D
100
AcDbEntity
  8
AM_5
100
AcDbLine
 10
55.48563791041101
 20
106.3632380571178
 30
0.0
 11
72.98563791041101
 21
106.3632380571178
 31
0.0
  0
INSERT
  5
CCDE
330
C72D
100
AcDbEntity
  8
AM_5
100
AcDbBlockReference
  2
_Dot
 10
54.48563791041101
 20
106.3632380571178
 30
0.0
 50
180.0
  0
INSERT
  5
CCDF
330
C72D
100
AcDbEntity
  8
AM_5
100
AcDbBlockReference
  2
_Dot
 10
73.98563791041101
 20
106.3632380571178
 30
0.0
  0
MTEXT
  5
CCE0
330
C72D
100
AcDbEntity
  8
AM_5
 62
     2
100
AcDbMText
 10
64.23563791041101
 20
109.4632380571178
 30
0.0
 40
3.200000000000001
 41
0.0
 46
0.0
 71
     5
 72
     1
  1
19.5
 73
     1
 44
1.0
  0
POINT
  5
CCE1
330
C72D
100
AcDbEntity
  8
Defpoints
 62
     0
100
AcDbPoint
 10
54.48563791041101
 20
88.96138104711788
 30
0.0
  0
POINT
  5
CCE2
330
C72D
100
AcDbEntity
  8
Defpoints
 62
     0
100
AcDbPoint
 10
73.98563791041101
 20
88.96138104711788
 30
0.0
  0
POINT
  5
CCE3
330
C72D
100
AcDbEntity
  8
Defpoints
 62
     0
100
AcDbPoint
 10
73.98563791041101
 20
106.3632380571178
 30
0.0
  0
ENDBLK
  5
C738
330
C72D
100
AcDbEntity
  8
0
100
AcDbBlockEnd
  0
BLOCK
  5
C74E
330
C744
100
AcDbEntity
  8
0
100
AcDbBlockBegin
  2
*D9
 70
     1
 10
0.0
 20
0.0
 30
0.0
  3
*D9
  1

  0
LINE
  5
CCEC
330
C744
100
AcDbEntity
  8
AM_5
100
AcDbLine
 10
137.9333879104111
 20
135.232906207388
 30
0.0
 11
159.9333879104111
 21
135.232906207388
 31
0.0
  0
LINE
  5
CCED
330
C744
100
AcDbEntity
  8
AM_5
100
AcDbLine
 10
135.2338979104111
 20
124.5329242073881
 30
0.0
 11
159.9333879104111
 21
124.5329242073881
 31
0.0
  0
LINE
  5
CCEE
330
C744
100
AcDbEntity
  8
AM_5
100
AcDbLine
 10
158.9333879104111
 20
134.232906207388
 30
0.0
 11
158.9333879104111
 21
125.5329242073881
 31
0.0
  0
INSERT
  5
CCEF
330
C744
100
AcDbEntity
  8
AM_5
100
AcDbBlockReference
  2
_Dot
 10
158.9333879104111
 20
135.232906207388
 30
0.0
 50
90.0
  0
INSERT
  5
CCF0
330
C744
100
AcDbEntity
  8
AM_5
100
AcDbBlockReference
  2
_Dot
 10
158.9333879104111
 20
124.5329242073881
 30
0.0
 50
270.0
  0
MTEXT
  5
CCF1
330
C744
100
AcDbEntity
  8
AM_5
 62
     2
100
AcDbMText
 10
155.833387910411
 20
129.8829152073881
 30
0.0
 40
3.200000000000001
 41
0.0
 46
0.0
 71
     5
 72
     1
  1
10.7
 11
6.123233995736766E-17
 21
1.0
 31
0.0
 73
     1
 44
1.0
  0
POINT
  5
CCF2
330
C744
100
AcDbEntity
  8
Defpoints
 62
     0
100
AcDbPoint
 10
136.9333879104111
 20
135.232906207388
 30
0.0
  0
POINT
  5
CCF3
330
C744
100
AcDbEntity
  8
Defpoints
 62
     0
100
AcDbPoint
 10
134.2338979104111
 20
124.5329242073881
 30
0.0
  0
POINT
  5
CCF4
330
C744
100
AcDbEntity
  8
Defpoints
 62
     0
100
AcDbPoint
 10
158.9333879104111
 20
124.5329242073881
 30
0.0
  0
ENDBLK
  5
C74F
330
C744
100
AcDbEntity
  8
0
100
AcDbBlockEnd
  0
BLOCK
  5
C75A
330
C750
100
AcDbEntity
  8
0
100
AcDbBlockBegin
  2
*D10
 70
     1
 10
0.0
 20
0.0
 30
0.0
  3
*D10
  1

  0
LINE
  5
CCF5
330
C750
100
AcDbEntity
  8
AM_5
100
AcDbLine
 10
137.9333879104111
 20
135.232906207388
 30
0.0
 11
149.9333879104112
 21
135.232906207388
 31
0.0
  0
LINE
  5
CCF6
330
C750
100
AcDbEntity
  8
AM_5
100
AcDbLine
 10
134.6833879104111
 20
149.2329092073881
 30
0.0
 11
149.9333879104112
 21
149.2329092073881
 31
0.0
  0
LINE
  5
CCF7
330
C750
100
AcDbEntity
  8
AM_5
100
AcDbLine
 10
148.9333879104112
 20
136.232906207388
 30
0.0
 11
148.9333879104112
 21
148.2329092073881
 31
0.0
  0
INSERT
  5
CCF8
330
C750
100
AcDbEntity
  8
AM_5
100
AcDbBlockReference
  2
_Dot
 10
148.9333879104112
 20
135.232906207388
 30
0.0
 50
270.0
  0
INSERT
  5
CCF9
330
C750
100
AcDbEntity
  8
AM_5
100
AcDbBlockReference
  2
_Dot
 10
148.9333879104112
 20
149.2329092073881
 30
0.0
 50
90.0
  0
MTEXT
  5
CCFA
330
C750
100
AcDbEntity
  8
AM_5
 62
     2
100
AcDbMText
 10
145.8333879104111
 20
142.2329077073881
 30
0.0
 40
3.200000000000001
 41
0.0
 46
0.0
 71
     5
 72
     1
  1
※14
 11
6.123233995736766E-17
 21
1.0
 31
0.0
 73
     1
 44
1.0
  0
POINT
  5
CCFB
330
C750
100
AcDbEntity
  8
Defpoints
 62
     0
100
AcDbPoint
 10
136.9333879104111
 20
135.232906207388
 30
0.0
  0
POINT
  5
CCFC
330
C750
100
AcDbEntity
  8
Defpoints
 62
     0
100
AcDbPoint
 10
133.6833879104111
 20
149.2329092073881
 30
0.0
  0
POINT
  5
CCFD
330
C750
100
AcDbEntity
  8
Defpoints
 62
     0
100
AcDbPoint
 10
148.9333879104112
 20
149.2329092073881
 30
0.0
  0
ENDBLK
  5
C75B
330
C750
100
AcDbEntity
  8
0
100
AcDbBlockEnd
  0
BLOCK
  5
C766
330
C75C
100
AcDbEntity
  8
0
100
AcDbBlockBegin
  2
*D11
 70
     1
 10
0.0
 20
0.0
 30
0.0
  3
*D11
  1

  0
LINE
  5
CCFE
330
C75C
100
AcDbEntity
  8
AM_5
100
AcDbLine
 10
137.9333879104111
 20
135.232906207388
 30
0.0
 11
159.9333879104113
 21
135.232906207388
 31
0.0
  0
LINE
  5
CCFF
330
C75C
100
AcDbEntity
  8
AM_5
100
AcDbLine
 10
127.6833879104111
 20
162.2329092073881
 30
0.0
 11
159.9333879104113
 21
162.2329092073881
 31
0.0
  0
LINE
  5
CD00
330
C75C
100
AcDbEntity
  8
AM_5
100
AcDbLine
 10
158.9333879104113
 20
136.232906207388
 30
0.0
 11
158.9333879104113
 21
161.2329092073881
 31
0.0
  0
INSERT
  5
CD01
330
C75C
100
AcDbEntity
  8
AM_5
100
AcDbBlockReference
  2
_Dot
 10
158.9333879104113
 20
135.232906207388
 30
0.0
 50
270.0
  0
INSERT
  5
CD02
330
C75C
100
AcDbEntity
  8
AM_5
100
AcDbBlockReference
  2
_Dot
 10
158.9333879104113
 20
162.2329092073881
 30
0.0
 50
90.0
  0
MTEXT
  5
CD03
330
C75C
100
AcDbEntity
  8
AM_5
 62
     2
100
AcDbMText
 10
155.8333879104113
 20
148.7329077073881
 30
0.0
 40
3.200000000000001
 41
0.0
 46
0.0
 71
     5
 72
     1
  1
27
 11
6.123233995736766E-17
 21
1.0
 31
0.0
 73
     1
 44
1.0
  0
POINT
  5
CD04
330
C75C
100
AcDbEntity
  8
Defpoints
 62
     0
100
AcDbPoint
 10
136.9333879104111
 20
135.232906207388
 30
0.0
  0
POINT
  5
CD05
330
C75C
100
AcDbEntity
  8
Defpoints
 62
     0
100
AcDbPoint
 10
126.6833879104111
 20
162.2329092073881
 30
0.0
  0
POINT
  5
CD06
330
C75C
100
AcDbEntity
  8
Defpoints
 62
     0
100
AcDbPoint
 10
158.9333879104113
 20
162.2329092073881
 30
0.0
  0
ENDBLK
  5
C767
330
C75C
100
AcDbEntity
  8
0
100
AcDbBlockEnd
  0
BLOCK
  5
C971
330
C965
100
AcDbEntity
  8
0
100
AcDbBlockBegin
  2
*D15
 70
     1
 10
0.0
 20
0.0
 30
0.0
  3
*D15
  1

  0
LINE
  5
CD22
330
C965
100
AcDbEntity
  8
AM_5
100
AcDbLine
 10
371.6502511794317
 20
112.2980465279
 30
0.0
 11
383.6502511794317
 21
112.2980465279
 31
0.0
  0
LINE
  5
CD23
330
C965
100
AcDbEntity
  8
AM_5
100
AcDbLine
 10
371.6502511794317
 20
114.5980345279
 30
0.0
 11
383.6502511794317
 21
114.5980345279
 31
0.0
  0
LINE
  5
CD24
330
C965
100
AcDbEntity
  8
AM_5
100
AcDbLine
 10
382.6502511794317
 20
111.2980465279
 30
0.0
 11
382.6502511794317
 21
110.2980465279
 31
0.0
  0
LINE
  5
CD25
330
C965
100
AcDbEntity
  8
AM_5
100
AcDbLine
 10
382.6502511794317
 20
115.5980345279
 30
0.0
 11
382.6502511794317
 21
124.2913678612334
 31
0.0
  0
LINE
  5
CD26
330
C965
100
AcDbEntity
  8
AM_5
100
AcDbLine
 10
382.6502511794317
 20
112.2980465279
 30
0.0
 11
382.6502511794317
 21
114.5980345279
 31
0.0
  0
INSERT
  5
CD27
330
C965
100
AcDbEntity
  8
AM_5
100
AcDbBlockReference
  2
_Dot
 10
382.6502511794317
 20
112.2980465279
 30
0.0
 50
90.0
  0
INSERT
  5
CD28
330
C965
100
AcDbEntity
  8
AM_5
100
AcDbBlockReference
  2
_Dot
 10
382.6502511794317
 20
114.5980345279
 30
0.0
 50
270.0
  0
MTEXT
  5
CD29
330
C965
100
AcDbEntity
  8
AM_5
 62
     2
100
AcDbMText
 10
379.5502511794317
 20
120.4447011945667
 30
0.0
 40
3.200000000000001
 41
0.0
 46
0.0
 71
     5
 72
     1
  1
2.3
 11
6.123233995736766E-17
 21
1.0
 31
0.0
 73
     1
 44
1.0
  0
POINT
  5
CD2A
330
C965
100
AcDbEntity
  8
Defpoints
 62
     0
100
AcDbPoint
 10
370.6502511794317
 20
112.2980465279
 30
0.0
  0
POINT
  5
CD2B
330
C965
100
AcDbEntity
  8
Defpoints
 62
     0
100
AcDbPoint
 10
370.6502511794317
 20
114.5980345279
 30
0.0
  0
POINT
  5
CD2C
330
C965
100
AcDbEntity
  8
Defpoints
 62
     0
100
AcDbPoint
 10
382.6502511794317
 20
114.5980345279
 30
0.0
  0
ENDBLK
  5
C972
330
C965
100
AcDbEntity
  8
0
100
AcDbBlockEnd
  0
BLOCK
  5
C97D
330
C973
100
AcDbEntity
  8
0
100
AcDbBlockBegin
  2
*D16
 70
     1
 10
0.0
 20
0.0
 30
0.0
  3
*D16
  1

  0
LINE
  5
CD2D
330
C973
100
AcDbEntity
  8
AM_5
100
AcDbLine
 10
365.232831179432
 20
69.53946982702756
 30
0.0
 11
383.6502521894317
 21
69.53946982702756
 31
0.0
  0
LINE
  5
CD2E
330
C973
100
AcDbEntity
  8
AM_5
100
AcDbLine
 10
365.232831179432
 20
89.53947002702749
 30
0.0
 11
383.6502521894317
 21
89.53947002702749
 31
0.0
  0
LINE
  5
CD2F
330
C973
100
AcDbEntity
  8
AM_5
100
AcDbLine
 10
382.6502521894317
 20
70.53946982702756
 30
0.0
 11
382.6502521894317
 21
88.53947002702749
 31
0.0
  0
INSERT
  5
CD30
330
C973
100
AcDbEntity
  8
AM_5
100
AcDbBlockReference
  2
_Dot
 10
382.6502521894317
 20
69.53946982702756
 30
0.0
 50
270.0
  0
INSERT
  5
CD31
330
C973
100
AcDbEntity
  8
AM_5
100
AcDbBlockReference
  2
_Dot
 10
382.6502521894317
 20
89.53947002702749
 30
0.0
 50
90.0
  0
MTEXT
  5
CD32
330
C973
100
AcDbEntity
  8
AM_5
 62
     2
100
AcDbMText
 10
379.5502521894317
 20
79.53946992702758
 30
0.0
 40
3.200000000000001
 41
0.0
 46
0.0
 71
     5
 72
     1
  1
20
 11
6.123233995736766E-17
 21
1.0
 31
0.0
 73
     1
 44
1.0
  0
POINT
  5
CD33
330
C973
100
AcDbEntity
  8
Defpoints
 62
     0
100
AcDbPoint
 10
364.232831179432
 20
69.53946982702756
 30
0.0
  0
POINT
  5
CD34
330
C973
100
AcDbEntity
  8
Defpoints
 62
     0
100
AcDbPoint
 10
364.232831179432
 20
89.53947002702749
 30
0.0
  0
POINT
  5
CD35
330
C973
100
AcDbEntity
  8
Defpoints
 62
     0
100
AcDbPoint
 10
382.6502521894317
 20
89.53947002702749
 30
0.0
  0
ENDBLK
  5
C97E
330
C973
100
AcDbEntity
  8
0
100
AcDbBlockEnd
  0
BLOCK
  5
C989
330
C97F
100
AcDbEntity
  8
0
100
AcDbBlockBegin
  2
*D17
 70
     1
 10
0.0
 20
0.0
 30
0.0
  3
*D17
  1

  0
LINE
  5
CD36
330
C97F
100
AcDbEntity
  8
AM_5
100
AcDbLine
 10
305.6502351794318
 20
65.53946982702756
 30
0.0
 11
305.6502351794318
 21
56.53946733106378
 31
0.0
  0
LINE
  5
CD37
330
C97F
100
AcDbEntity
  8
AM_5
100
AcDbLine
 10
370.6502511794317
 20
78.53946972702748
 30
0.0
 11
370.6502511794317
 21
56.53946733106378
 31
0.0
  0
LINE
  5
CD38
330
C97F
100
AcDbEntity
  8
AM_5
100
AcDbLine
 10
306.6502351794318
 20
57.53946733106378
 30
0.0
 11
369.6502511794317
 21
57.53946733106378
 31
0.0
  0
INSERT
  5
CD39
330
C97F
100
AcDbEntity
  8
AM_5
100
AcDbBlockReference
  2
_Dot
 10
305.6502351794318
 20
57.53946733106378
 30
0.0
 50
180.0
  0
INSERT
  5
CD3A
330
C97F
100
AcDbEntity
  8
AM_5
100
AcDbBlockReference
  2
_Dot
 10
370.6502511794317
 20
57.53946733106378
 30
0.0
  0
MTEXT
  5
CD3B
330
C97F
100
AcDbEntity
  8
AM_5
 62
     2
100
AcDbMText
 10
338.1502431794318
 20
60.63946733106378
 30
0.0
 40
3.200000000000001
 41
0.0
 46
0.0
 71
     5
 72
     1
  1
65
 73
     1
 44
1.0
  0
POINT
  5
CD3C
330
C97F
100
AcDbEntity
  8
Defpoints
 62
     0
100
AcDbPoint
 10
305.6502351794318
 20
66.53946982702756
 30
0.0
  0
POINT
  5
CD3D
330
C97F
100
AcDbEntity
  8
Defpoints
 62
     0
100
AcDbPoint
 10
370.6502511794317
 20
79.53946972702748
 30
0.0
  0
POINT
  5
CD3E
330
C97F
100
AcDbEntity
  8
Defpoints
 62
     0
100
AcDbPoint
 10
370.6502511794317
 20
57.53946733106378
 30
0.0
  0
ENDBLK
  5
C98A
330
C97F
100
AcDbEntity
  8
0
100
AcDbBlockEnd
  0
BLOCK
  5
C995
330
C98B
100
AcDbEntity
  8
0
100
AcDbBlockBegin
  2
*D18
 70
     1
 10
0.0
 20
0.0
 30
0.0
  3
*D18
  1

  0
LINE
  5
CD3F
330
C98B
100
AcDbEntity
  8
AM_5
100
AcDbLine
 10
370.6502511794317
 20
78.53946934305462
 30
0.0
 11
370.6502511794317
 21
46.53946733106334
 31
0.0
  0
LINE
  5
CD40
330
C98B
100
AcDbEntity
  8
AM_5
100
AcDbLine
 10
294.6502351794318
 20
78.53946972702748
 30
0.0
 11
294.6502351794318
 21
46.53946733106334
 31
0.0
  0
LINE
  5
CD41
330
C98B
100
AcDbEntity
  8
AM_5
100
AcDbLine
 10
369.6502511794317
 20
47.53946733106334
 30
0.0
 11
295.6502351794318
 21
47.53946733106334
 31
0.0
  0
INSERT
  5
CD42
330
C98B
100
AcDbEntity
  8
AM_5
100
AcDbBlockReference
  2
_Dot
 10
370.6502511794317
 20
47.53946733106334
 30
0.0
  0
INSERT
  5
CD43
330
C98B
100
AcDbEntity
  8
AM_5
100
AcDbBlockReference
  2
_Dot
 10
294.6502351794318
 20
47.53946733106334
 30
0.0
 50
180.0
  0
MTEXT
  5
CD44
330
C98B
100
AcDbEntity
  8
AM_5
 62
     2
100
AcDbMText
 10
332.6502431794318
 20
50.63946733106334
 30
0.0
 40
3.200000000000001
 41
0.0
 46
0.0
 71
     5
 72
     1
  1
76
 73
     1
 44
1.0
  0
POINT
  5
CD45
330
C98B
100
AcDbEntity
  8
Defpoints
 62
     0
100
AcDbPoint
 10
370.6502511794317
 20
79.53946934305462
 30
0.0
  0
POINT
  5
CD46
330
C98B
100
AcDbEntity
  8
Defpoints
 62
     0
100
AcDbPoint
 10
294.6502351794318
 20
79.53946972702748
 30
0.0
  0
POINT
  5
CD47
330
C98B
100
AcDbEntity
  8
Defpoints
 62
     0
100
AcDbPoint
 10
294.6502351794318
 20
47.53946733106334
 30
0.0
  0
ENDBLK
  5
C996
330
C98B
100
AcDbEntity
  8
0
100
AcDbBlockEnd
  0
BLOCK
  5
CA09
330
C9FF
100
AcDbEntity
  8
0
100
AcDbBlockBegin
  2
*D19
 70
     1
 10
0.0
 20
0.0
 30
0.0
  3
*D19
  1

  0
LINE
  5
CD48
330
C9FF
100
AcDbEntity
  8
AM_5
100
AcDbLine
 10
305.6502351794319
 20
189.0000162822354
 30
0.0
 11
305.6502351794319
 21
180.0000252822353
 31
0.0
  0
LINE
  5
CD49
330
C9FF
100
AcDbEntity
  8
AM_5
100
AcDbLine
 10
360.6502311794313
 20
202.0000297379871
 30
0.0
 11
360.6502311794313
 21
180.0000252822353
 31
0.0
  0
LINE
  5
CD4A
330
C9FF
100
AcDbEntity
  8
AM_5
100
AcDbLine
 10
306.6502351794319
 20
181.0000252822353
 30
0.0
 11
359.6502311794313
 21
181.0000252822353
 31
0.0
  0
INSERT
  5
CD4B
330
C9FF
100
AcDbEntity
  8
AM_5
100
AcDbBlockReference
  2
_Dot
 10
305.6502351794319
 20
181.0000252822353
 30
0.0
 50
180.0
  0
INSERT
  5
CD4C
330
C9FF
100
AcDbEntity
  8
AM_5
100
AcDbBlockReference
  2
_Dot
 10
360.6502311794313
 20
181.0000252822353
 30
0.0
  0
MTEXT
  5
CD4D
330
C9FF
100
AcDbEntity
  8
AM_5
 62
     2
100
AcDbMText
 10
333.1502331794316
 20
184.1000252822353
 30
0.0
 40
3.200000000000001
 41
0.0
 46
0.0
 71
     5
 72
     1
  1
55
 73
     1
 44
1.0
  0
POINT
  5
CD4E
330
C9FF
100
AcDbEntity
  8
Defpoints
 62
     0
100
AcDbPoint
 10
305.6502351794319
 20
190.0000162822354
 30
0.0
  0
POINT
  5
CD4F
330
C9FF
100
AcDbEntity
  8
Defpoints
 62
     0
100
AcDbPoint
 10
360.6502311794313
 20
203.0000297379871
 30
0.0
  0
POINT
  5
CD50
330
C9FF
100
AcDbEntity
  8
Defpoints
 62
     0
100
AcDbPoint
 10
360.6502311794313
 20
181.0000252822353
 30
0.0
  0
ENDBLK
  5
CA0A
330
C9FF
100
AcDbEntity
  8
0
100
AcDbBlockEnd
  0
BLOCK
  5
CA15
330
CA0B
100
AcDbEntity
  8
0
100
AcDbBlockBegin
  2
*D20
 70
     1
 10
0.0
 20
0.0
 30
0.0
  3
*D20
  1

  0
LINE
  5
CD51
330
CA0B
100
AcDbEntity
  8
AM_5
100
AcDbLine
 10
360.6502311794314
 20
202.0000295342704
 30
0.0
 11
360.6502311794314
 21
170.0000576930117
 31
0.0
  0
LINE
  5
CD52
330
CA0B
100
AcDbEntity
  8
AM_5
100
AcDbLine
 10
290.6502351794323
 20
202.0000295342704
 30
0.0
 11
290.6502351794323
 21
170.0000576930117
 31
0.0
  0
LINE
  5
CD53
330
CA0B
100
AcDbEntity
  8
AM_5
100
AcDbLine
 10
359.6502311794314
 20
171.0000576930117
 30
0.0
 11
291.6502351794323
 21
171.0000576930117
 31
0.0
  0
INSERT
  5
CD54
330
CA0B
100
AcDbEntity
  8
AM_5
100
AcDbBlockReference
  2
_Dot
 10
360.6502311794314
 20
171.0000576930117
 30
0.0
  0
INSERT
  5
CD55
330
CA0B
100
AcDbEntity
  8
AM_5
100
AcDbBlockReference
  2
_Dot
 10
290.6502351794323
 20
171.0000576930117
 30
0.0
 50
180.0
  0
MTEXT
  5
CD56
330
CA0B
100
AcDbEntity
  8
AM_5
 62
     2
100
AcDbMText
 10
325.6502331794319
 20
174.1000576930117
 30
0.0
 40
3.200000000000001
 41
0.0
 46
0.0
 71
     5
 72
     1
  1
70
 73
     1
 44
1.0
  0
POINT
  5
CD57
330
CA0B
100
AcDbEntity
  8
Defpoints
 62
     0
100
AcDbPoint
 10
360.6502311794314
 20
203.0000295342704
 30
0.0
  0
POINT
  5
CD58
330
CA0B
100
AcDbEntity
  8
Defpoints
 62
     0
100
AcDbPoint
 10
290.6502351794323
 20
203.0000295342704
 30
0.0
  0
POINT
  5
CD59
330
CA0B
100
AcDbEntity
  8
Defpoints
 62
     0
100
AcDbPoint
 10
290.6502351794323
 20
171.0000576930117
 30
0.0
  0
ENDBLK
  5
CA16
330
CA0B
100
AcDbEntity
  8
0
100
AcDbBlockEnd
  0
BLOCK
  5
CA21
330
CA17
100
AcDbEntity
  8
0
100
AcDbBlockBegin
  2
*D21
 70
     1
 10
0.0
 20
0.0
 30
0.0
  3
*D21
  1

  0
LINE
  5
CD5A
330
CA17
100
AcDbEntity
  8
AM_5
100
AcDbLine
 10
355.2328111794321
 20
193.0000262822354
 30
0.0
 11
373.6502321894319
 21
193.0000262822354
 31
0.0
  0
LINE
  5
CD5B
330
CA17
100
AcDbEntity
  8
AM_5
100
AcDbLine
 10
355.2328111794321
 20
213.000024309415
 30
0.0
 11
373.6502321894319
 21
213.000024309415
 31
0.0
  0
LINE
  5
CD5C
330
CA17
100
AcDbEntity
  8
AM_5
100
AcDbLine
 10
372.6502321894319
 20
194.0000262822354
 30
0.0
 11
372.6502321894319
 21
212.000024309415
 31
0.0
  0
INSERT
  5
CD5D
330
CA17
100
AcDbEntity
  8
AM_5
100
AcDbBlockReference
  2
_Dot
 10
372.6502321894319
 20
193.0000262822354
 30
0.0
 50
270.0
  0
INSERT
  5
CD5E
330
CA17
100
AcDbEntity
  8
AM_5
100
AcDbBlockReference
  2
_Dot
 10
372.6502321894319
 20
213.000024309415
 30
0.0
 50
90.0
  0
MTEXT
  5
CD5F
330
CA17
100
AcDbEntity
  8
AM_5
 62
     2
100
AcDbMText
 10
369.5502321894318
 20
203.0000252958253
 30
0.0
 40
3.200000000000001
 41
0.0
 46
0.0
 71
     5
 72
     1
  1
20
 11
6.123233995736766E-17
 21
1.0
 31
0.0
 73
     1
 44
1.0
  0
POINT
  5
CD60
330
CA17
100
AcDbEntity
  8
Defpoints
 62
     0
100
AcDbPoint
 10
354.2328111794321
 20
193.0000262822354
 30
0.0
  0
POINT
  5
CD61
330
CA17
100
AcDbEntity
  8
Defpoints
 62
     0
100
AcDbPoint
 10
354.2328111794321
 20
213.000024309415
 30
0.0
  0
POINT
  5
CD62
330
CA17
100
AcDbEntity
  8
Defpoints
 62
     0
100
AcDbPoint
 10
372.6502321894319
 20
213.000024309415
 30
0.0
  0
ENDBLK
  5
CA22
330
CA17
100
AcDbEntity
  8
0
100
AcDbBlockEnd
  0
BLOCK
  5
CA2F
330
CA23
100
AcDbEntity
  8
0
100
AcDbBlockBegin
  2
*D22
 70
     1
 10
0.0
 20
0.0
 30
0.0
  3
*D22
  1

  0
LINE
  5
CD63
330
CA23
100
AcDbEntity
  8
AM_5
100
AcDbLine
 10
289.6502351794319
 20
236.9167328426819
 30
0.0
 11
277.6502351794319
 21
236.9167328426819
 31
0.0
  0
LINE
  5
CD64
330
CA23
100
AcDbEntity
  8
AM_5
100
AcDbLine
 10
289.6502351794319
 20
239.2167328426821
 30
0.0
 11
277.6502351794319
 21
239.2167328426821
 31
0.0
  0
LINE
  5
CD65
330
CA23
100
AcDbEntity
  8
AM_5
100
AcDbLine
 10
278.6502351794319
 20
235.9167328426819
 30
0.0
 11
278.6502351794319
 21
234.9167328426819
 31
0.0
  0
LINE
  5
CD66
330
CA23
100
AcDbEntity
  8
AM_5
100
AcDbLine
 10
278.6502351794319
 20
240.2167328426821
 30
0.0
 11
278.6502351794319
 21
248.9100661760154
 31
0.0
  0
LINE
  5
CD67
330
CA23
100
AcDbEntity
  8
AM_5
100
AcDbLine
 10
278.6502351794319
 20
236.9167328426819
 30
0.0
 11
278.6502351794319
 21
239.2167328426821
 31
0.0
  0
INSERT
  5
CD68
330
CA23
100
AcDbEntity
  8
AM_5
100
AcDbBlockReference
  2
_Dot
 10
278.6502351794319
 20
236.9167328426819
 30
0.0
 50
90.0
  0
INSERT
  5
CD69
330
CA23
100
AcDbEntity
  8
AM_5
100
AcDbBlockReference
  2
_Dot
 10
278.6502351794319
 20
239.2167328426821
 30
0.0
 50
270.0
  0
MTEXT
  5
CD6A
330
CA23
100
AcDbEntity
  8
AM_5
 62
     2
100
AcDbMText
 10
275.5502351794318
 20
245.0633995093488
 30
0.0
 40
3.200000000000001
 41
0.0
 46
0.0
 71
     5
 72
     1
  1
2.3
 11
6.123233995736766E-17
 21
1.0
 31
0.0
 73
     1
 44
1.0
  0
POINT
  5
CD6B
330
CA23
100
AcDbEntity
  8
Defpoints
 62
     0
100
AcDbPoint
 10
290.6502351794319
 20
236.9167328426819
 30
0.0
  0
POINT
  5
CD6C
330
CA23
100
AcDbEntity
  8
Defpoints
 62
     0
100
AcDbPoint
 10
290.6502351794319
 20
239.2167328426821
 30
0.0
  0
POINT
  5
CD6D
330
CA23
100
AcDbEntity
  8
Defpoints
 62
     0
100
AcDbPoint
 10
278.6502351794319
 20
239.2167328426821
 30
0.0
  0
ENDBLK
  5
CA30
330
CA23
100
AcDbEntity
  8
0
100
AcDbBlockEnd
  0
BLOCK
  5
CA3B
330
CA31
100
AcDbEntity
  8
0
100
AcDbBlockBegin
  2
*D23
 70
     1
 10
0.0
 20
0.0
 30
0.0
  3
*D23
  1

  0
LINE
  5
CD6E
330
CA31
100
AcDbEntity
  8
AM_5
100
AcDbLine
 10
330.6502531616576
 20
237.9167328426819
 30
0.0
 11
330.6502531616576
 21
264.0071738426818
 31
0.0
  0
LINE
  5
CD6F
330
CA31
100
AcDbEntity
  8
AM_5
100
AcDbLine
 10
290.6502351794319
 20
240.2167328426821
 30
0.0
 11
290.6502351794319
 21
264.0071738426818
 31
0.0
  0
LINE
  5
CD70
330
CA31
100
AcDbEntity
  8
AM_5
100
AcDbLine
 10
329.6502531616576
 20
263.0071738426818
 30
0.0
 11
291.6502351794319
 21
263.0071738426818
 31
0.0
  0
INSERT
  5
CD71
330
CA31
100
AcDbEntity
  8
AM_5
100
AcDbBlockReference
  2
_Dot
 10
330.6502531616576
 20
263.0071738426818
 30
0.0
  0
INSERT
  5
CD72
330
CA31
100
AcDbEntity
  8
AM_5
100
AcDbBlockReference
  2
_Dot
 10
290.6502351794319
 20
263.0071738426818
 30
0.0
 50
180.0
  0
MTEXT
  5
CD73
330
CA31
100
AcDbEntity
  8
AM_5
 62
     2
100
AcDbMText
 10
310.6502441705447
 20
266.1071738426818
 30
0.0
 40
3.200000000000001
 41
0.0
 46
0.0
 71
     5
 72
     1
  1
40
 73
     1
 44
1.0
  0
POINT
  5
CD74
330
CA31
100
AcDbEntity
  8
Defpoints
 62
     0
100
AcDbPoint
 10
330.6502531616576
 20
236.9167328426819
 30
0.0
  0
POINT
  5
CD75
330
CA31
100
AcDbEntity
  8
Defpoints
 62
     0
100
AcDbPoint
 10
290.6502351794319
 20
239.2167328426821
 30
0.0
  0
POINT
  5
CD76
330
CA31
100
AcDbEntity
  8
Defpoints
 62
     0
100
AcDbPoint
 10
290.6502351794319
 20
263.0071738426818
 30
0.0
  0
ENDBLK
  5
CA3C
330
CA31
100
AcDbEntity
  8
0
100
AcDbBlockEnd
  0
BLOCK
  5
CA47
330
CA3D
100
AcDbEntity
  8
0
100
AcDbBlockBegin
  2
*D24
 70
     1
 10
0.0
 20
0.0
 30
0.0
  3
*D24
  1

  0
LINE
  5
CD77
330
CA3D
100
AcDbEntity
  8
AM_5
100
AcDbLine
 10
330.6502531616576
 20
237.9167328426819
 30
0.0
 11
330.6502531616576
 21
264.0071738426818
 31
0.0
  0
LINE
  5
CD78
330
CA3D
100
AcDbEntity
  8
AM_5
100
AcDbLine
 10
337.6502311794319
 20
250.9167328426819
 30
0.0
 11
337.6502311794319
 21
264.0071738426818
 31
0.0
  0
LINE
  5
CD79
330
CA3D
100
AcDbEntity
  8
AM_5
100
AcDbLine
 10
331.6502531616576
 20
263.0071738426818
 30
0.0
 11
336.6502311794319
 21
263.0071738426818
 31
0.0
  0
INSERT
  5
CD7A
330
CA3D
100
AcDbEntity
  8
AM_5
100
AcDbBlockReference
  2
_Dot
 10
330.6502531616576
 20
263.0071738426818
 30
0.0
 50
180.0
  0
INSERT
  5
CD7B
330
CA3D
100
AcDbEntity
  8
AM_5
100
AcDbBlockReference
  2
_Dot
 10
337.6502311794319
 20
263.0071738426818
 30
0.0
  0
MTEXT
  5
CD7C
330
CA3D
100
AcDbEntity
  8
AM_5
 62
     2
100
AcDbMText
 10
334.1502421705447
 20
266.1071738426818
 30
0.0
 40
3.200000000000001
 41
0.0
 46
0.0
 71
     5
 72
     1
  1
7
 73
     1
 44
1.0
  0
POINT
  5
CD7D
330
CA3D
100
AcDbEntity
  8
Defpoints
 62
     0
100
AcDbPoint
 10
330.6502531616576
 20
236.9167328426819
 30
0.0
  0
POINT
  5
CD7E
330
CA3D
100
AcDbEntity
  8
Defpoints
 62
     0
100
AcDbPoint
 10
337.6502311794319
 20
249.9167328426819
 30
0.0
  0
POINT
  5
CD7F
330
CA3D
100
AcDbEntity
  8
Defpoints
 62
     0
100
AcDbPoint
 10
337.6502311794319
 20
263.0071738426818
 30
0.0
  0
ENDBLK
  5
CA48
330
CA3D
100
AcDbEntity
  8
0
100
AcDbBlockEnd
  0
BLOCK
  5
CA53
330
CA49
100
AcDbEntity
  8
0
100
AcDbBlockBegin
  2
*D25
 70
     1
 10
0.0
 20
0.0
 30
0.0
  3
*D25
  1

  0
LINE
  5
CD80
330
CA49
100
AcDbEntity
  8
AM_5
100
AcDbLine
 10
330.2764521794319
 20
236.9167328426819
 30
0.0
 11
373.6502611794321
 21
236.9167328426819
 31
0.0
  0
LINE
  5
CD81
330
CA49
100
AcDbEntity
  8
AM_5
100
AcDbLine
 10
338.6502503662
 20
249.9167257609665
 30
0.0
 11
373.6502611794321
 21
249.9167257609665
 31
0.0
  0
LINE
  5
CD82
330
CA49
100
AcDbEntity
  8
AM_5
100
AcDbLine
 10
372.6502611794321
 20
237.9167328426819
 30
0.0
 11
372.6502611794321
 21
248.9167257609665
 31
0.0
  0
INSERT
  5
CD83
330
CA49
100
AcDbEntity
  8
AM_5
100
AcDbBlockReference
  2
_Dot
 10
372.6502611794321
 20
236.9167328426819
 30
0.0
 50
270.0
  0
INSERT
  5
CD84
330
CA49
100
AcDbEntity
  8
AM_5
100
AcDbBlockReference
  2
_Dot
 10
372.6502611794321
 20
249.9167257609665
 30
0.0
 50
90.0
  0
MTEXT
  5
CD85
330
CA49
100
AcDbEntity
  8
AM_5
 62
     2
100
AcDbMText
 10
369.550261179432
 20
243.4167293018242
 30
0.0
 40
3.200000000000001
 41
0.0
 46
0.0
 71
     5
 72
     1
  1
13
 11
6.123233995736766E-17
 21
1.0
 31
0.0
 73
     1
 44
1.0
  0
POINT
  5
CD86
330
CA49
100
AcDbEntity
  8
Defpoints
 62
     0
100
AcDbPoint
 10
329.2764521794319
 20
236.9167328426819
 30
0.0
  0
POINT
  5
CD87
330
CA49
100
AcDbEntity
  8
Defpoints
 62
     0
100
AcDbPoint
 10
337.6502503662
 20
249.9167257609665
 30
0.0
  0
POINT
  5
CD88
330
CA49
100
AcDbEntity
  8
Defpoints
 62
     0
100
AcDbPoint
 10
372.6502611794321
 20
249.9167257609665
 30
0.0
  0
ENDBLK
  5
CA54
330
CA49
100
AcDbEntity
  8
0
100
AcDbBlockEnd
  0
BLOCK
  5
CA5F
330
CA55
100
AcDbEntity
  8
0
100
AcDbBlockBegin
  2
*D26
 70
     1
 10
0.0
 20
0.0
 30
0.0
  3
*D26
  1

  0
LINE
  5
CD89
330
CA55
100
AcDbEntity
  8
AM_5
100
AcDbLine
 10
330.2764521794319
 20
236.9167328426819
 30
0.0
 11
383.6502611794323
 21
236.9167328426819
 31
0.0
  0
LINE
  5
CD8A
330
CA55
100
AcDbEntity
  8
AM_5
100
AcDbLine
 10
361.069691179432
 20
258.142242842682
 30
0.0
 11
383.6502611794323
 21
258.142242842682
 31
0.0
  0
LINE
  5
CD8B
330
CA55
100
AcDbEntity
  8
AM_5
100
AcDbLine
 10
382.6502611794323
 20
237.9167328426819
 30
0.0
 11
382.6502611794323
 21
257.142242842682
 31
0.0
  0
INSERT
  5
CD8C
330
CA55
100
AcDbEntity
  8
AM_5
100
AcDbBlockReference
  2
_Dot
 10
382.6502611794323
 20
236.9167328426819
 30
0.0
 50
270.0
  0
INSERT
  5
CD8D
330
CA55
100
AcDbEntity
  8
AM_5
100
AcDbBlockReference
  2
_Dot
 10
382.6502611794323
 20
258.142242842682
 30
0.0
 50
90.0
  0
MTEXT
  5
CD8E
330
CA55
100
AcDbEntity
  8
AM_5
 62
     2
100
AcDbMText
 10
379.5502611794322
 20
247.529487842682
 30
0.0
 40
3.200000000000001
 41
0.0
 46
0.0
 71
     5
 72
     1
  1
21.2
 11
6.123233995736766E-17
 21
1.0
 31
0.0
 73
     1
 44
1.0
  0
POINT
  5
CD8F
330
CA55
100
AcDbEntity
  8
Defpoints
 62
     0
100
AcDbPoint
 10
329.2764521794319
 20
236.9167328426819
 30
0.0
  0
POINT
  5
CD90
330
CA55
100
AcDbEntity
  8
Defpoints
 62
     0
100
AcDbPoint
 10
360.069691179432
 20
258.142242842682
 30
0.0
  0
POINT
  5
CD91
330
CA55
100
AcDbEntity
  8
Defpoints
 62
     0
100
AcDbPoint
 10
382.6502611794323
 20
258.142242842682
 30
0.0
  0
ENDBLK
  5
CA60
330
CA55
100
AcDbEntity
  8
0
100
AcDbBlockEnd
  0
BLOCK
  5
CDF1
330
CDEB
100
AcDbEntity
  8
0
100
AcDbBlockBegin
  2
*D27
 70
     1
 10
0.0
 20
0.0
 30
0.0
  3
*D27
  1

  0
LINE
  5
CE10
330
CDEB
100
AcDbEntity
  8
AM_5
100
AcDbLine
 10
84.3396945725148
 20
64.38600453840023
 30
0.0
 11
76.65636123918145
 21
64.38600453840023
 31
0.0
  0
LINE
  5
CE11
330
CDEB
100
AcDbEntity
  8
AM_5
100
AcDbLine
 10
76.65636123918145
 20
64.38600453840023
 30
0.0
 11
71.7670926057996
 21
71.65934530490124
 31
0.0
  0
LINE
  5
CE12
330
CDEB
100
AcDbEntity
  8
AM_5
100
AcDbLine
 10
56.70418321502238
 20
94.06712878933439
 30
0.0
 11
55.58841214903889
 21
95.7269646029961
 31
0.0
  0
MTEXT
  5
CE13
330
CDEB
100
AcDbEntity
  8
AM_5
 62
     2
100
AcDbMText
 10
81.24802790584813
 20
67.63600453840023
 30
0.0
 40
3.5
 41
0.0
 46
0.0
 71
     5
 72
     1
  1
∅23
 73
     1
 44
1.0
  0
LINE
  5
CE14
330
CDEB
100
AcDbEntity
  8
AM_5
100
AcDbLine
 10
57.81995428100588
 20
92.40729297567268
 30
0.0
 11
70.6513215398161
 21
73.31918111856295
 31
0.0
  0
INSERT
  5
CE15
330
CDEB
100
AcDbEntity
  8
AM_5
100
AcDbBlockReference
  2
GENDOT
 10
57.81995428100588
 20
92.40729297567268
 30
0.0
 41
2.0
 42
2.0
 43
2.0
 50
303.9096940259935
  0
INSERT
  5
CE16
330
CDEB
100
AcDbEntity
  8
AM_5
100
AcDbBlockReference
  2
GENDOT
 10
70.6513215398161
 20
73.31918111856295
 30
0.0
 41
2.0
 42
2.0
 43
2.0
 50
123.9096940259936
  0
POINT
  5
CE17
330
CDEB
100
AcDbEntity
  8
Defpoints
 62
     0
100
AcDbPoint
 10
70.6513215398161
 20
73.31918111856295
 30
0.0
  0
POINT
  5
CE18
330
CDEB
100
AcDbEntity
  8
Defpoints
 62
     0
100
AcDbPoint
 10
57.81995428100588
 20
92.40729297567268
 30
0.0
  0
ENDBLK
  5
CDF2
330
CDEB
100
AcDbEntity
  8
0
100
AcDbBlockEnd
  0
BLOCK
  5
CF1C
330
CF15
100
AcDbEntity
  8
AM_0
100
AcDbBlockBegin
  2
*S31
 70
     1
 10
0.0
 20
0.0
 30
0.0
  3
*S31
  1
Acad:XRef
  0
LINE
  5
CF16
330
CF15
100
AcDbEntity
  8
AM_5
 62
     3
100
AcDbLine
 10
96.30066358004592
 20
153.2003554693339
 30
0.0
 11
97.40505918895337
 21
151.5329292073883
 31
0.0
  0
LINE
  5
CF17
330
CF15
100
AcDbEntity
  8
AM_5
 62
     3
100
AcDbLine
 10
95.85387805971914
 20
152.9044335578027
 30
0.0
 11
97.40505918895337
 21
151.5329292073883
 31
0.0
  0
LINE
  5
CF18
330
CF15
100
AcDbEntity
  8
AM_5
 62
     3
100
AcDbLine
 10
96.74744910037276
 20
153.4962773808651
 30
0.0
 11
97.40505918895337
 21
151.5329292073883
 31
0.0
  0
LINE
  5
CF19
330
CF15
100
AcDbEntity
  8
AM_5
 62
     3
100
AcDbLine
 10
96.30066358004596
 20
153.2003554693339
 30
0.0
 11
83.69472756097753
 21
172.2329092073881
 31
0.0
  0
LINE
  5
CF1A
330
CF15
100
AcDbEntity
  8
AM_5
 62
     3
100
AcDbLine
 10
83.69472756097753
 20
172.2329092073881
 30
0.0
 11
50.73472756097748
 21
172.2329092073881
 31
0.0
  0
MTEXT
  5
CF1B
330
CF15
100
AcDbEntity
  8
AM_5
 62
     2
370
    -3
100
AcDbMText
 10
80.49472756097748
 20
173.8329092073882
 30
0.0
 40
3.2
 41
0.0
 46
0.0
 71
     9
 72
     1
  1
止め金（EB-25、26）
 73
     1
 44
1.0
  0
ENDBLK
  5
CF1D
330
CF15
100
AcDbEntity
  8
AM_0
100
AcDbBlockEnd
  0
BLOCK
  5
CF25
330
CF1E
100
AcDbEntity
  8
AM_0
100
AcDbBlockBegin
  2
*S32
 70
     1
 10
0.0
 20
0.0
 30
0.0
  3
*S32
  1
Acad:XRef
  0
LINE
  5
CF1F
330
CF1E
100
AcDbEntity
  8
AM_5
 62
     3
100
AcDbLine
 10
150.5325512139366
 20
147.9443581979926
 30
0.0
 11
149.0029642447892
 21
149.2329092073881
 31
0.0
  0
LINE
  5
CF20
330
CF1E
100
AcDbEntity
  8
AM_5
 62
     3
100
AcDbLine
 10
150.8778174163104
 20
148.3542097911289
 30
0.0
 11
149.0029642447892
 21
149.2329092073881
 31
0.0
  0
LINE
  5
CF21
330
CF1E
100
AcDbEntity
  8
AM_5
 62
     3
100
AcDbLine
 10
150.1872850115627
 20
147.5345066048564
 30
0.0
 11
149.0029642447892
 21
149.2329092073881
 31
0.0
  0
LINE
  5
CF22
330
CF1E
100
AcDbEntity
  8
AM_5
 62
     3
100
AcDbLine
 10
150.5325512139366
 20
147.9443581979926
 30
0.0
 11
165.6218035462082
 21
135.232906207388
 31
0.0
  0
LINE
  5
CF23
330
CF1E
100
AcDbEntity
  8
AM_5
 62
     3
100
AcDbLine
 10
165.6218035462082
 20
135.232906207388
 30
0.0
 11
202.4218035462082
 21
135.232906207388
 31
0.0
  0
MTEXT
  5
CF24
330
CF1E
100
AcDbEntity
  8
AM_5
 62
     2
370
    -3
100
AcDbMText
 10
168.8218035462082
 20
136.832906207388
 30
0.0
 40
3.2
 41
0.0
 46
0.0
 71
     7
 72
     1
  1
スペーサーの入れ替えにより\P13、14、15を選択可能
 73
     1
 44
1.0
  0
ENDBLK
  5
CF26
330
CF1E
100
AcDbEntity
  8
AM_0
100
AcDbBlockEnd
  0
ENDSEC
  0
SECTION
  2
ENTITIES
  0
TEXT
  5
BCC7
330
1F
100
AcDbEntity
  8
AM_6
 60
     1
100
AcDbText
 10
582.5
 20
8.5
 30
0.0
 40
2.5
  1
!GENTITLE-INSERT
100
AcDbText
  0
TEXT
  5
BCC8
330
1F
100
AcDbEntity
  8
AM_6
 60
     1
100
AcDbText
 10
594.0
 20
420.0
 30
0.0
 40
2.5
  1
!GENTITLE-MAX
100
AcDbText
  0
TEXT
  5
BCC9
330
1F
100
AcDbEntity
  8
AM_6
 60
     1
100
AcDbText
 10
594.0
 20
420.0
 30
0.0
 40
2.5
  1
!GENTITLE-RU
100
AcDbText
  0
TEXT
  5
BCCA
330
1F
100
AcDbEntity
  8
AM_6
 60
     1
100
AcDbText
 10
0.0
 20
0.0
 30
0.0
 40
2.5
  1
!GENTITLE-LL
100
AcDbText
  0
XLINE
  5
C535
330
1F
100
AcDbEntity
  8
AM_CL
100
AcDbXline
 10
125.38806
 20
245.6501800000001
 30
0.0
 11
1.0
 21
0.0
 31
0.0
  0
LINE
  5
C68F
330
1F
100
AcDbEntity
  8
AM_7
100
AcDbLine
 10
104.1833879104111
 20
82.86322004711776
 30
0.0
 11
141.1833879104106
 21
82.8632185035347
 31
0.0
  0
LINE
  5
C690
330
1F
100
AcDbEntity
  8
AM_7
100
AcDbLine
 10
122.6833879104111
 20
103.4032130471179
 30
0.0
 11
122.6833879104111
 21
62.32322734711791
 31
0.0
  0
LINE
  5
C691
330
1F
100
AcDbEntity
  8
AM_0
100
AcDbLine
 10
122.6833879104111
 20
64.9653843471179
 30
0.0
 11
107.1833879104111
 21
73.91430604711793
 31
0.0
  0
LINE
  5
C692
330
1F
100
AcDbEntity
  8
AM_0
100
AcDbLine
 10
138.1833579104109
 20
91.81216404711775
 30
0.0
 11
122.6833879104111
 21
100.7610850471179
 31
0.0
  0
LINE
  5
C693
330
1F
100
AcDbEntity
  8
AM_0
100
AcDbLine
 10
107.1833879104111
 20
73.91429204711774
 30
0.0
 11
107.1833879104111
 21
91.81214804711779
 31
0.0
  0
LINE
  5
C694
330
1F
100
AcDbEntity
  8
AM_0
100
AcDbLine
 10
107.1833879104111
 20
91.81216804711774
 30
0.0
 11
122.6833879104111
 21
100.761096047118
 31
0.0
  0
LINE
  5
C695
330
1F
100
AcDbEntity
  8
AM_0
100
AcDbLine
 10
138.1833879104111
 20
73.91429204711774
 30
0.0
 11
138.1833879104111
 21
91.81214804711779
 31
0.0
  0
LINE
  5
C696
330
1F
100
AcDbEntity
  8
AM_0
100
AcDbLine
 10
122.6833879104111
 20
64.96540634711785
 30
0.0
 11
138.1833879104111
 21
73.91433604711786
 31
0.0
  0
LINE
  5
C697
330
1F
100
AcDbEntity
  8
AM_0
100
AcDbLine
 10
193.5249416876995
 20
79.0566570471179
 30
0.0
 11
193.5249416876995
 21
75.49421704711774
 31
0.0
  0
LINE
  5
C698
330
1F
100
AcDbEntity
  8
AM_0
100
AcDbLine
 10
188.7249516876996
 20
79.0566570471179
 30
0.0
 11
188.7249516876996
 21
75.49421704711774
 31
0.0
  0
LINE
  5
C699
330
1F
100
AcDbEntity
  8
AM_0
100
AcDbLine
 10
188.7249516876996
 20
90.23225504711793
 30
0.0
 11
188.7249516876996
 21
86.66981604711789
 31
0.0
  0
LINE
  5
C69A
330
1F
100
AcDbEntity
  8
AM_0
100
AcDbLine
 10
193.5249416876995
 20
90.23225504711793
 30
0.0
 11
193.5249416876995
 21
86.66981604711789
 31
0.0
  0
LINE
  5
C69B
330
1F
100
AcDbEntity
  8
AM_0
100
AcDbLine
 10
191.1249616876996
 20
64.96536584711778
 30
0.0
 11
204.2431516876995
 21
72.53915704711797
 31
0.0
  0
LINE
  5
C69C
330
1F
100
AcDbEntity
  8
AM_0
100
AcDbLine
 10
175.6249616876996
 20
91.81216004711776
 30
0.0
 11
191.1249616876996
 21
100.7610890471179
 31
0.0
  0
LINE
  5
C69D
330
1F
100
AcDbEntity
  8
AM_0
100
AcDbLine
 10
175.6249416876997
 20
73.91430704711782
 30
0.0
 11
175.6249416876997
 21
91.81216404711775
 31
0.0
  0
LINE
  5
C69E
330
1F
100
AcDbEntity
  8
AM_0
100
AcDbLine
 10
191.1249316876995
 20
64.96538534711779
 30
0.0
 11
175.6249316876995
 21
73.9143150471178
 31
0.0
  0
LINE
  5
C69F
330
1F
100
AcDbEntity
  8
AM_0
100
AcDbLine
 10
204.2431216876996
 20
93.18730504711773
 30
0.0
 11
191.1249316876995
 21
100.761096047118
 31
0.0
  0
LINE
  5
C6A0
330
1F
100
AcDbEntity
  8
AM_11
100
AcDbLine
 10
57.68332791041098
 20
151.5329292073883
 30
0.0
 11
57.68332791041098
 21
149.2329092073881
 31
0.0
  0
LINE
  5
C6A1
330
1F
100
AcDbEntity
  8
AM_11
100
AcDbLine
 10
133.6833879104111
 20
151.5329292073883
 30
0.0
 11
133.6833879104111
 21
149.2329092073881
 31
0.0
  0
LINE
  5
C6A2
330
1F
100
AcDbEntity
  8
AM_0
100
AcDbLine
 10
107.6833879104111
 20
126.5329242073881
 30
0.0
 11
107.6833879104111
 21
133.5329242073882
 31
0.0
  0
LINE
  5
C6A3
330
1F
100
AcDbEntity
  8
AM_0
100
AcDbLine
 10
137.6833879104111
 20
126.5329242073881
 30
0.0
 11
137.6833879104111
 21
133.5329242073882
 31
0.0
  0
LINE
  5
C6A4
330
1F
100
AcDbEntity
  8
AM_0
100
AcDbLine
 10
134.2338979104111
 20
124.5329242073881
 30
0.0
 11
111.132877910411
 21
124.5329242073881
 31
0.0
  0
LINE
  5
C6A5
330
1F
100
AcDbEntity
  8
AM_0
100
AcDbLine
 10
136.9333879104111
 20
133.5329242073882
 30
0.0
 11
136.9333879104111
 21
135.232906207388
 31
0.0
  0
LINE
  5
C6A6
330
1F
100
AcDbEntity
  8
AM_0
100
AcDbLine
 10
137.6833879104111
 20
133.5329242073882
 30
0.0
 11
107.6833879104111
 21
133.5329242073882
 31
0.0
  0
LINE
  5
C6A7
330
1F
100
AcDbEntity
  8
AM_0
100
AcDbLine
 10
132.6833879104111
 20
145.5329292073883
 30
0.0
 11
112.6833879104111
 21
145.5329292073883
 31
0.0
  0
LINE
  5
C6A8
330
1F
100
AcDbEntity
  8
AM_0
100
AcDbLine
 10
133.6833879104111
 20
143.0329242073882
 30
0.0
 11
111.6833879104111
 21
143.0329242073882
 31
0.0
  0
LINE
  5
C6A9
330
1F
100
AcDbEntity
  8
AM_0
100
AcDbLine
 10
132.6833879104111
 20
135.232906207388
 30
0.0
 11
132.6833879104111
 21
136.8329122073881
 31
0.0
  0
LINE
  5
C6AA
330
1F
100
AcDbEntity
  8
AM_0
100
AcDbLine
 10
112.6833879104111
 20
135.232906207388
 30
0.0
 11
112.6833879104111
 21
136.8329122073881
 31
0.0
  0
LINE
  5
C6AB
330
1F
100
AcDbEntity
  8
AM_0
100
AcDbLine
 10
136.4333879104111
 20
136.8329122073881
 30
0.0
 11
108.9333879104111
 21
136.8329122073881
 31
0.0
  0
LINE
  5
C6AC
330
1F
100
AcDbEntity
  8
AM_0
100
AcDbLine
 10
111.6833879104111
 20
135.232906207388
 30
0.0
 11
111.6833879104111
 21
136.8329122073881
 31
0.0
  0
LINE
  5
C6AD
330
1F
100
AcDbEntity
  8
AM_0
100
AcDbLine
 10
133.6833879104111
 20
135.232906207388
 30
0.0
 11
133.6833879104111
 21
136.8329122073881
 31
0.0
  0
LINE
  5
C6AE
330
1F
100
AcDbEntity
  8
AM_0
100
AcDbLine
 10
118.6833879104111
 20
162.2329092073881
 30
0.0
 11
118.6833879104111
 21
161.5329292073883
 31
0.0
  0
LINE
  5
C6AF
330
1F
100
AcDbEntity
  8
AM_0
100
AcDbLine
 10
126.006907910411
 20
162.2329092073881
 30
0.0
 11
126.006907910411
 21
161.5329292073883
 31
0.0
  0
LINE
  5
C6B0
330
1F
100
AcDbEntity
  8
AM_0
100
AcDbLine
 10
126.6833879104111
 20
162.2329092073881
 30
0.0
 11
118.6833879104111
 21
162.2329092073881
 31
0.0
  0
LINE
  5
C6B1
330
1F
100
AcDbEntity
  8
AM_0
100
AcDbLine
 10
131.6833879104111
 20
152.5329292073883
 30
0.0
 11
113.6833879104111
 21
152.5329292073883
 31
0.0
  0
LINE
  5
C6B2
330
1F
100
AcDbEntity
  8
AM_0
100
AcDbLine
 10
137.6833879104111
 20
129.5329242073882
 30
0.0
 11
107.6833879104111
 21
129.5329242073882
 31
0.0
  0
LINE
  5
C6B3
330
1F
100
AcDbEntity
  8
AM_0
100
AcDbLine
 10
137.6833879104111
 20
126.5329242073881
 30
0.0
 11
107.6833879104111
 21
126.5329242073881
 31
0.0
  0
LINE
  5
C6B4
330
1F
100
AcDbEntity
  8
AM_0
100
AcDbLine
 10
131.6833879104111
 20
151.5329292073883
 30
0.0
 11
113.6833879104111
 21
151.5329292073883
 31
0.0
  0
LINE
  5
C6B5
330
1F
100
AcDbEntity
  8
AM_0
100
AcDbLine
 10
126.6833879104111
 20
161.5329292073883
 30
0.0
 11
118.6833879104111
 21
161.5329292073883
 31
0.0
  0
LINE
  5
C6B6
330
1F
100
AcDbEntity
  8
AM_7
100
AcDbLine
 10
122.6833879104111
 20
121.5329242073881
 30
0.0
 11
122.6833879104111
 21
165.2329092073881
 31
0.0
  0
LINE
  5
C6B7
330
1F
100
AcDbEntity
  8
AM_0
100
AcDbLine
 10
113.6833879104111
 20
151.5329292073883
 30
0.0
 11
113.6833879104111
 21
152.5329292073883
 31
0.0
  0
LINE
  5
C6B8
330
1F
100
AcDbEntity
  8
AM_0
100
AcDbLine
 10
131.6833879104111
 20
149.2329092073881
 30
0.0
 11
113.6833879104111
 21
149.2329092073881
 31
0.0
  0
LINE
  5
C6B9
330
1F
100
AcDbEntity
  8
AM_0
100
AcDbLine
 10
122.6833879104111
 20
151.5329292073883
 30
0.0
 11
122.6833879104111
 21
151.7329092073881
 31
0.0
  0
LINE
  5
C6BA
330
1F
100
AcDbEntity
  8
AM_0
100
AcDbLine
 10
131.6833879104111
 20
148.2329092073881
 30
0.0
 11
131.6833879104111
 21
149.2329092073881
 31
0.0
  0
LINE
  5
C6BB
330
1F
100
AcDbEntity
  8
AM_0
100
AcDbLine
 10
131.6833879104111
 20
151.5329292073883
 30
0.0
 11
131.6833879104111
 21
152.5329292073883
 31
0.0
  0
LINE
  5
C6BC
330
1F
100
AcDbEntity
  8
AM_0
100
AcDbLine
 10
113.6833879104111
 20
148.2329092073881
 30
0.0
 11
113.6833879104111
 21
149.2329092073881
 31
0.0
  0
LINE
  5
C6BD
330
1F
100
AcDbEntity
  8
AM_0
100
AcDbLine
 10
128.2286479104112
 20
135.232906207388
 30
0.0
 11
128.2286479104112
 21
136.8329122073881
 31
0.0
  0
LINE
  5
C6BE
330
1F
100
AcDbEntity
  8
AM_0
100
AcDbLine
 10
117.138127910411
 20
135.232906207388
 30
0.0
 11
117.138127910411
 21
136.8329122073881
 31
0.0
  0
LINE
  5
C6BF
330
1F
100
AcDbEntity
  8
AM_0
100
AcDbLine
 10
140.5812479104111
 20
138.3329122073881
 30
0.0
 11
104.785527910411
 21
138.3329122073881
 31
0.0
  0
LINE
  5
C6C0
330
1F
100
AcDbEntity
  8
AM_0
100
AcDbLine
 10
140.5812479104111
 20
141.3329122073881
 30
0.0
 11
104.785527910411
 21
141.3329122073881
 31
0.0
  0
LINE
  5
C6C1
330
1F
100
AcDbEntity
  8
AM_0
100
AcDbLine
 10
115.1833879104111
 20
152.5329292073883
 30
0.0
 11
115.1833879104111
 21
154.5329292073883
 31
0.0
  0
LINE
  5
C6C2
330
1F
100
AcDbEntity
  8
0
  6
DASHED
 62
     7
100
AcDbLine
 10
118.1833879104111
 20
152.5329292073883
 30
0.0
 11
118.1833879104111
 21
154.5329292073883
 31
0.0
  0
LINE
  5
C6C3
330
1F
100
AcDbEntity
  8
AM_0
100
AcDbLine
 10
104.785527910411
 20
138.3329122073881
 30
0.0
 11
104.785527910411
 21
141.3329122073881
 31
0.0
  0
LINE
  5
C6C4
330
1F
100
AcDbEntity
  8
AM_0
100
AcDbLine
 10
113.7344479104111
 20
138.3329122073881
 30
0.0
 11
113.7344479104111
 21
141.3329122073881
 31
0.0
  0
LINE
  5
C6C5
330
1F
100
AcDbEntity
  8
AM_0
100
AcDbLine
 10
140.5812479104111
 20
138.3329122073881
 30
0.0
 11
140.5812479104111
 21
141.3329122073881
 31
0.0
  0
LINE
  5
C6C6
330
1F
100
AcDbEntity
  8
AM_0
100
AcDbLine
 10
113.1833879104111
 20
145.5329292073883
 30
0.0
 11
113.1833879104111
 21
148.2329092073881
 31
0.0
  0
LINE
  5
C6C7
330
1F
100
AcDbEntity
  8
AM_0
100
AcDbLine
 10
132.6833879104111
 20
143.0329242073882
 30
0.0
 11
132.6833879104111
 21
145.5329292073883
 31
0.0
  0
LINE
  5
C6C8
330
1F
100
AcDbEntity
  8
AM_0
100
AcDbLine
 10
131.6833879104111
 20
149.2329092073881
 30
0.0
 11
113.6833879104111
 21
149.2329092073881
 31
0.0
  0
LINE
  5
C6C9
330
1F
100
AcDbEntity
  8
AM_0
100
AcDbLine
 10
128.048497910411
 20
145.5329292073883
 30
0.0
 11
113.1833879104111
 21
145.5329292073883
 31
0.0
  0
LINE
  5
C6CA
330
1F
100
AcDbEntity
  8
AM_0
100
AcDbLine
 10
130.1833879104111
 20
152.5329292073883
 30
0.0
 11
130.1833879104111
 21
154.5329292073883
 31
0.0
  0
LINE
  5
C6CB
330
1F
100
AcDbEntity
  8
AM_0
100
AcDbLine
 10
132.1833879104111
 20
145.5329292073883
 30
0.0
 11
132.1833879104111
 21
148.2329092073881
 31
0.0
  0
LINE
  5
C6CC
330
1F
100
AcDbEntity
  8
0
  6
DASHED
 62
     7
100
AcDbLine
 10
127.1833879104111
 20
152.5329292073883
 30
0.0
 11
127.1833879104111
 21
154.5329292073883
 31
0.0
  0
LINE
  5
C6CD
330
1F
100
AcDbEntity
  8
AM_7
100
AcDbLine
 10
122.6833879104111
 20
152.2329092073881
 30
0.0
 11
122.6833879104111
 21
153.2329092073881
 31
0.0
  0
LINE
  5
C6CE
330
1F
100
AcDbEntity
  8
AM_0
100
AcDbLine
 10
130.1833879104111
 20
154.5329292073883
 30
0.0
 11
115.1833879104111
 21
154.5329292073883
 31
0.0
  0
LINE
  5
C6CF
330
1F
100
AcDbEntity
  8
AM_0
100
AcDbLine
 10
130.1833879104111
 20
152.5329292073883
 30
0.0
 11
115.1833879104111
 21
152.5329292073883
 31
0.0
  0
LINE
  5
C6D0
330
1F
100
AcDbEntity
  8
AM_0
100
AcDbLine
 10
130.1889479104111
 20
154.5329292073883
 30
0.0
 11
115.177837910411
 21
154.5329292073883
 31
0.0
  0
LINE
  5
C6D1
330
1F
100
AcDbEntity
  8
AM_0
100
AcDbLine
 10
129.1889479104111
 20
161.5329292073883
 30
0.0
 11
116.177837910411
 21
161.5329292073883
 31
0.0
  0
LINE
  5
C6D2
330
1F
100
AcDbEntity
  8
AM_0
100
AcDbLine
 10
130.1889479104111
 20
154.5329292073883
 30
0.0
 11
130.1889479104111
 21
160.5329292073883
 31
0.0
  0
LINE
  5
C6D3
330
1F
100
AcDbEntity
  8
AM_0
100
AcDbLine
 10
126.4361679104111
 20
154.5329292073883
 30
0.0
 11
126.4361679104111
 21
160.5329292073883
 31
0.0
  0
LINE
  5
C6D4
330
1F
100
AcDbEntity
  8
AM_0
100
AcDbLine
 10
118.930607910411
 20
154.5329292073883
 30
0.0
 11
118.930607910411
 21
160.5329292073883
 31
0.0
  0
LINE
  5
C6D5
330
1F
100
AcDbEntity
  8
AM_0
100
AcDbLine
 10
115.177837910411
 20
154.5329292073883
 30
0.0
 11
115.177837910411
 21
160.5329292073883
 31
0.0
  0
LINE
  5
C6D6
330
1F
100
AcDbEntity
  8
AM_0
100
AcDbLine
 10
132.6833879104111
 20
141.3329122073881
 30
0.0
 11
132.6833879104111
 21
143.0329242073882
 31
0.0
  0
LINE
  5
C6D7
330
1F
100
AcDbEntity
  8
AM_0
100
AcDbLine
 10
133.6833879104111
 20
141.3329122073881
 30
0.0
 11
133.6833879104111
 21
143.0329242073882
 31
0.0
  0
LINE
  5
C6D8
330
1F
100
AcDbEntity
  8
AM_0
100
AcDbLine
 10
128.2286479104112
 20
141.3329122073881
 30
0.0
 11
128.2286479104112
 21
143.0329242073882
 31
0.0
  0
LINE
  5
C6D9
330
1F
100
AcDbEntity
  8
AM_0
100
AcDbLine
 10
112.6833879104111
 20
143.0329242073882
 30
0.0
 11
112.6833879104111
 21
145.5329292073883
 31
0.0
  0
LINE
  5
C6DA
330
1F
100
AcDbEntity
  8
AM_0
100
AcDbLine
 10
112.6833879104111
 20
141.3329122073881
 30
0.0
 11
112.6833879104111
 21
143.0329242073882
 31
0.0
  0
LINE
  5
C6DB
330
1F
100
AcDbEntity
  8
AM_0
100
AcDbLine
 10
117.138127910411
 20
141.3329122073881
 30
0.0
 11
117.138127910411
 21
143.0329242073882
 31
0.0
  0
LINE
  5
C6DC
330
1F
100
AcDbEntity
  8
AM_0
100
AcDbLine
 10
111.6833879104111
 20
141.3329122073881
 30
0.0
 11
111.6833879104111
 21
143.0329242073882
 31
0.0
  0
LINE
  5
C6DD
330
1F
100
AcDbEntity
  8
AM_0
100
AcDbLine
 10
131.6833879104111
 20
148.2329092073881
 30
0.0
 11
113.6833879104111
 21
148.2329092073881
 31
0.0
  0
LINE
  5
C6DE
330
1F
100
AcDbEntity
  8
AM_0
100
AcDbLine
 10
126.6833879104111
 20
161.5329292073883
 30
0.0
 11
126.6833879104111
 21
162.2329092073881
 31
0.0
  0
LINE
  5
C6DF
330
1F
100
AcDbEntity
  8
AM_0
100
AcDbLine
 10
132.1833879104111
 20
148.2329092073881
 30
0.0
 11
113.1833879104111
 21
148.2329092073881
 31
0.0
  0
LINE
  5
C6E0
330
1F
100
AcDbEntity
  8
AM_0
100
AcDbLine
 10
119.3598679104109
 20
161.5329292073883
 30
0.0
 11
119.3598679104109
 21
162.2329092073881
 31
0.0
  0
LINE
  5
C6E1
330
1F
100
AcDbEntity
  8
AM_11
100
AcDbLine
 10
57.68332791041098
 20
151.5329292073883
 30
0.0
 11
113.6833879104111
 21
151.5329292073883
 31
0.0
  0
LINE
  5
C6E2
330
1F
100
AcDbEntity
  8
AM_11
100
AcDbLine
 10
131.6833879104111
 20
151.5329292073882
 30
0.0
 11
133.6833879104111
 21
151.5329292073883
 31
0.0
  0
LINE
  5
C6E3
330
1F
100
AcDbEntity
  8
AM_11
100
AcDbLine
 10
57.68332791041098
 20
149.2329092073881
 30
0.0
 11
113.6833879104111
 21
149.2329092073881
 31
0.0
  0
LINE
  5
C6E4
330
1F
100
AcDbEntity
  8
AM_11
100
AcDbLine
 10
131.6833879104111
 20
149.2329092073881
 30
0.0
 11
133.6833879104111
 21
149.2329092073881
 31
0.0
  0
LINE
  5
C6E5
330
1F
100
AcDbEntity
  8
AM_0
100
AcDbLine
 10
108.4333879104111
 20
133.5329242073882
 30
0.0
 11
108.4333879104111
 21
135.232906207388
 31
0.0
  0
LINE
  5
C6E6
330
1F
100
AcDbEntity
  8
AM_0
100
AcDbLine
 10
136.9333879104111
 20
135.232906207388
 30
0.0
 11
108.4333879104111
 21
135.232906207388
 31
0.0
  0
LINE
  5
C6E7
330
1F
100
AcDbEntity
  8
AM_0
100
AcDbLine
 10
136.9333879104111
 20
133.5329242073882
 30
0.0
 11
108.4333879104111
 21
133.5329242073882
 31
0.0
  0
LINE
  5
C6E8
330
1F
100
AcDbEntity
  8
AM_7
100
AcDbLine
 10
215.1249416876997
 20
100.8632350471178
 30
0.0
 11
215.1249416876997
 21
64.86323584711779
 31
0.0
  0
LINE
  5
C6E9
330
1F
100
AcDbEntity
  8
AM_7
100
AcDbLine
 10
191.1249416876997
 20
103.7610810471179
 30
0.0
 11
191.1249416876997
 21
61.9653903471179
 31
0.0
  0
LINE
  5
C6EA
330
1F
100
AcDbEntity
  8
AM_7
100
AcDbLine
 10
170.2271016876996
 20
82.86323704711783
 30
0.0
 11
233.1249416876997
 21
82.86323704711783
 31
0.0
  0
HATCH
  5
C6EB
330
1F
100
AcDbEntity
  8
AM_2
100
AcDbHatch
 10
0.0
 20
0.0
 30
0.0
210
0.0
220
0.0
230
1.0
  2
ANSI31
 70
     0
 71
     1
 91
        4
 92
        7
 72
     1
 73
     1
 93
        4
 10
64.23563791041101
 20
94.36323704711783
 42
0.2585058823866498
 10
54.48563791041101
 20
88.96139250594308
 42
0.0
 10
54.48563791041101
 20
82.86323704711783
 42
0.0
 10
64.23563791041101
 20
82.86323704711783
 42
0.0
 97
        4
330
C705
330
C6EC
330
C6EF
330
C6EE
 92
        7
 72
     1
 73
     1
 93
        4
 10
64.23563791041103
 20
82.86323704711785
 42
0.0
 10
73.98563791041101
 20
82.86323704711783
 42
0.0
 10
73.98563791041101
 20
88.96139250594305
 42
0.2585058823866502
 10
64.23563791041101
 20
94.36323704711783
 42
0.0
 97
        4
330
C705
330
C6EE
330
C6EF
330
C6ED
 92
        7
 72
     1
 73
     1
 93
        4
 10
64.23563791041101
 20
71.36323704711783
 42
0.2585058823866502
 10
73.98563791041101
 20
76.76508158829262
 42
0.0
 10
73.98563791041101
 20
82.86323704711785
 42
0.0
 10
64.23563791041101
 20
82.86323704711783
 42
0.0
 97
        4
330
C6EF
330
C6EE
330
C706
330
C6ED
 92
        7
 72
     1
 73
     1
 93
        4
 10
64.23563791041101
 20
82.86323704711785
 42
0.0
 10
54.48563791041101
 20
82.86323704711783
 42
0.0
 10
54.48563791041101
 20
76.76508158829263
 42
0.2585058823866502
 10
64.23563791041101
 20
71.36323704711786
 42
0.0
 97
        4
330
C6EF
330
C6EC
330
C706
330
C6EE
 75
     0
 76
     1
 52
0.0
 41
1.0
 77
     0
 78
     1
 53
45.0
 43
-2.704672089588939
 44
-57.40811595288225
 45
-2.245064030267288
 46
2.245064030267288
 79
     0
 47
0.0962264653096906
 98
        4
 10
60.65166533614388
 20
87.77727420372783
 10
66.23411761021384
 20
87.77727420372783
 10
67.96660135388606
 20
77.28858931071916
 10
62.96164580976506
 20
76.13387198436028
1001
ACAD
1010
0.0
1020
0.0
1030
0.0
  0
LINE
  5
C6EC
102
{ACAD_REACTORS
330
C6EB
102
}
330
1F
100
AcDbEntity
  8
AM_0
100
AcDbLine
 10
54.48563791041101
 20
88.96138104711788
 30
0.0
 11
54.48563791041101
 21
76.76507704711783
 31
0.0
  0
LINE
  5
C6ED
102
{ACAD_REACTORS
330
C6EB
102
}
330
1F
100
AcDbEntity
  8
AM_0
100
AcDbLine
 10
73.98563791041101
 20
88.96138104711788
 30
0.0
 11
73.98563791041101
 21
76.76507704711783
 31
0.0
  0
LINE
  5
C6EE
102
{ACAD_REACTORS
330
C6EB
102
}
330
1F
100
AcDbEntity
  8
AM_7
100
AcDbLine
 10
64.23563791041101
 20
97.36323504711784
 30
0.0
 11
64.23563791041101
 21
68.36323584711779
 31
0.0
  0
LINE
  5
C6EF
102
{ACAD_REACTORS
330
C6EB
102
}
330
1F
100
AcDbEntity
  8
AM_7
100
AcDbLine
 10
49.73563791041101
 20
82.86323704711783
 30
0.0
 11
78.73563791041101
 21
82.86323704711783
 31
0.0
  0
CIRCLE
  5
C6F0
330
1F
100
AcDbEntity
  8
AM_0
100
AcDbCircle
 10
122.6833879104111
 20
82.86323704711783
 30
0.0
 40
15.0
  0
CIRCLE
  5
C6F1
330
1F
100
AcDbEntity
  8
AM_0
100
AcDbCircle
 10
122.6833879104111
 20
82.86323704711783
 30
0.0
 40
12.0
  0
CIRCLE
  5
C6F2
330
1F
100
AcDbEntity
  8
AM_0
100
AcDbCircle
 10
215.1249416876997
 20
82.86323704711783
 30
0.0
 40
12.0
  0
ARC
  5
C6F3
330
1F
100
AcDbEntity
  8
AM_0
100
AcDbCircle
 10
191.1249416876997
 20
82.86323704711783
 30
0.0
 40
4.5
100
AcDbArc
 50
302.2308800000014
 51
57.76911700000158
  0
ARC
  5
C6F4
330
1F
100
AcDbEntity
  8
AM_0
100
AcDbCircle
 10
191.1249416876997
 20
82.86323704711783
 30
0.0
 40
7.75
100
AcDbArc
 50
71.9602500000038
 51
108.0397499999962
  0
ARC
  5
C6F5
330
1F
100
AcDbEntity
  8
AM_0
100
AcDbCircle
 10
191.1249416876997
 20
82.86323704711783
 30
0.0
 40
4.5
100
AcDbArc
 50
122.2308800000014
 51
237.7691199999986
  0
ARC
  5
C6F6
330
1F
100
AcDbEntity
  8
AM_0
100
AcDbCircle
 10
191.1249416876997
 20
82.86323704711783
 30
0.0
 40
7.75
100
AcDbArc
 50
251.9602500000038
 51
288.0397499999962
  0
ARC
  5
C6F7
330
1F
100
AcDbEntity
  8
AM_0
100
AcDbCircle
 10
191.1249416876997
 20
82.86323704711783
 30
0.0
 40
15.0
100
AcDbArc
 50
36.86989200000189
 51
323.1301000000063
  0
CIRCLE
  5
C6F8
330
1F
100
AcDbEntity
  8
AM_0
100
AcDbCircle
 10
215.1249416876997
 20
82.86323704711783
 30
0.0
 40
15.0
  0
ARC
  5
C6F9
330
1F
100
AcDbEntity
  8
AM_0
100
AcDbCircle
 10
111.132877910411
 20
125.0329242073881
 30
0.0
 40
0.5
100
AcDbArc
 50
191.5367699999996
 51
270.0
  0
ARC
  5
C6FA
330
1F
100
AcDbEntity
  8
AM_0
100
AcDbCircle
 10
134.2338979104111
 20
125.0329242073881
 30
0.0
 40
0.5
100
AcDbArc
 50
270.0
 51
348.4632300000004
  0
ARC
  5
C6FB
330
1F
100
AcDbEntity
  8
AM_0
100
AcDbCircle
 10
116.177837910411
 20
160.5329292073883
 30
0.0
 40
1.0
100
AcDbArc
 50
90.0
 51
180.0
  0
ARC
  5
C6FC
330
1F
100
AcDbEntity
  8
AM_0
100
AcDbCircle
 10
129.1889479104111
 20
160.5329292073883
 30
0.0
 40
1.0
100
AcDbArc
 50
0.0
 51
90.0
  0
ARC
  5
C6FD
330
1F
100
AcDbEntity
  8
AM_0
100
AcDbCircle
 10
117.930607910411
 20
160.5329292073883
 30
0.0
 40
1.0
100
AcDbArc
 50
0.0
 51
90.0
  0
ARC
  5
C6FE
330
1F
100
AcDbEntity
  8
AM_0
100
AcDbCircle
 10
125.4361679104111
 20
160.5329292073883
 30
0.0
 40
1.0
100
AcDbArc
 50
0.0
 51
90.0
  0
ARC
  5
C6FF
330
1F
100
AcDbEntity
  8
AM_0
100
AcDbCircle
 10
127.4361679104111
 20
160.5329292073883
 30
0.0
 40
1.0
100
AcDbArc
 50
90.0
 51
180.0
  0
ARC
  5
C700
330
1F
100
AcDbEntity
  8
AM_0
100
AcDbCircle
 10
119.930607910411
 20
160.5329292073883
 30
0.0
 40
1.0
100
AcDbArc
 50
90.0
 51
180.0
  0
ARC
  5
C701
330
1F
100
AcDbEntity
  8
AM_0
100
AcDbCircle
 10
108.6833879104111
 20
124.5329242073881
 30
0.0
 40
2.0
100
AcDbArc
 50
11.5369849999972
 51
90.0
  0
ARC
  5
C702
330
1F
100
AcDbEntity
  8
AM_0
100
AcDbCircle
 10
136.6833879104111
 20
124.5329242073881
 30
0.0
 40
2.0
100
AcDbArc
 50
90.0
 51
168.4630099999942
  0
ARC
  5
C703
330
1F
100
AcDbEntity
  8
AM_0
100
AcDbCircle
 10
108.9333879104111
 20
137.5829122073881
 30
0.0
 40
0.75
100
AcDbArc
 50
90.0
 51
270.0
  0
ARC
  5
C704
330
1F
100
AcDbEntity
  8
AM_0
100
AcDbCircle
 10
136.4333879104111
 20
137.5829122073881
 30
0.0
 40
0.75
100
AcDbArc
 50
270.0
 51
90.0
  0
ARC
  5
C705
102
{ACAD_REACTORS
330
C6EB
102
}
330
1F
100
AcDbEntity
  8
AM_0
100
AcDbCircle
 10
64.23563791041101
 20
82.86323704711783
 30
0.0
 40
11.5
100
AcDbArc
 50
32.02399799999731
 51
147.976010000001
  0
ARC
  5
C706
102
{ACAD_REACTORS
330
C6EB
102
}
330
1F
100
AcDbEntity
  8
AM_0
100
AcDbCircle
 10
64.23563791041101
 20
82.86323704711783
 30
0.0
 40
11.5
100
AcDbArc
 50
212.023989999999
 51
327.9759999999937
  0
DIMENSION
  5
C707
330
1F
100
AcDbEntity
  8
AM_5
100
AcDbDimension
  2
*D6
 10
138.1833879104111
 20
52.96538334711791
 30
0.0
 11
122.6833879104111
 21
56.06538334711792
 31
0.0
 70
    32
 71
     5
 42
31.0
 73
     0
 74
     0
 75
     0
  3
SYS$0
100
AcDbAlignedDimension
 13
107.1833879104111
 23
73.91429204711774
 33
0.0
 14
138.1833879104111
 24
73.91429204711774
 34
0.0
100
AcDbRotatedDimension
1001
ACAD
1000
DSTYLE
1002
{
1070
   271
1070
     1
1002
}
  0
DIMENSION
  5
C708
330
1F
100
AcDbEntity
  8
AM_5
100
AcDbDimension
  2
*D7
 10
156.3256967514571
 20
81.33767186151283
 30
0.0
 11
145.8910185951589
 21
69.46429104283352
 31
0.0
 70
    33
 71
     5
 42
30.99997937360013
 73
     0
 74
     0
 75
     0
  3
SYS$0
100
AcDbAlignedDimension
 13
122.6833879104111
 23
64.9653843471179
 33
0.0
 14
138.1833879104111
 24
91.81214804711782
 34
0.0
1001
ACAD
1000
DSTYLE
1002
{
1070
   271
1070
     1
1002
}
  0
DIMENSION
  5
C709
330
1F
100
AcDbEntity
  8
AM_5
100
AcDbDimension
  2
*D8
 10
73.98563791041101
 20
106.3632380571178
 30
0.0
 11
64.23563791041101
 21
109.4632380571178
 31
0.0
 70
    32
 71
     5
 42
19.5
 73
     0
 74
     0
 75
     0
  3
SYS$0
100
AcDbAlignedDimension
 13
54.48563791041101
 23
88.96138104711788
 33
0.0
 14
73.98563791041101
 24
88.96138104711788
 34
0.0
100
AcDbRotatedDimension
1001
ACAD
1000
DSTYLE
1002
{
1070
   271
1070
     1
1002
}
  0
DIMENSION
  5
C70B
330
1F
100
AcDbEntity
  8
AM_5
100
AcDbDimension
  2
*D9
 10
158.9333879104111
 20
124.5329242073881
 30
0.0
 11
155.833387910411
 21
129.8829152073881
 31
0.0
 70
    32
 71
     5
 42
10.69998199999988
 73
     0
 74
     0
 75
     0
  3
SYS$0
100
AcDbAlignedDimension
 13
136.9333879104111
 23
135.232906207388
 33
0.0
 14
134.2338979104111
 24
124.5329242073881
 34
0.0
 50
90.0
100
AcDbRotatedDimension
1001
ACAD
1000
DSTYLE
1002
{
1070
   271
1070
     1
1002
}
  0
DIMENSION
  5
C70C
330
1F
100
AcDbEntity
  8
AM_5
100
AcDbDimension
  2
*D10
 10
148.9333879104112
 20
149.2329092073881
 30
0.0
 11
145.8333879104111
 21
142.2329077073881
 31
0.0
 70
    32
  1
※<>
 71
     5
 42
14.00000300000011
 73
     0
 74
     0
 75
     0
  3
SYS$0
100
AcDbAlignedDimension
 13
136.9333879104111
 23
135.232906207388
 33
0.0
 14
133.6833879104111
 24
149.2329092073881
 34
0.0
 50
90.0
100
AcDbRotatedDimension
1001
ACAD
1000
DSTYLE
1002
{
1070
   271
1070
     1
1002
}
  0
DIMENSION
  5
C70D
330
1F
100
AcDbEntity
  8
AM_5
100
AcDbDimension
  2
*D11
 10
158.9333879104113
 20
162.2329092073881
 30
0.0
 11
155.8333879104113
 21
148.7329077073881
 31
0.0
 70
    32
 71
     5
 42
27.00000300000011
 73
     0
 74
     0
 75
     0
  3
SYS$0
100
AcDbAlignedDimension
 13
136.9333879104111
 23
135.232906207388
 33
0.0
 14
126.6833879104111
 24
162.2329092073881
 34
0.0
 50
90.0
100
AcDbRotatedDimension
1001
ACAD
1000
DSTYLE
1002
{
1070
   271
1070
     1
1002
}
  0
MTEXT
  5
C70E
330
1F
100
AcDbEntity
  8
AM_6
100
AcDbMText
 10
127.7880011345603
 20
31.6936630523902
 30
0.0
 40
3.2
 41
47.53992004322754
 46
0.0
 71
     1
 72
     5
  1
{\L防水キーロット（EL-35）}
 73
     1
 44
1.0
  0
MTEXT
  5
C70F
330
1F
100
AcDbEntity
  8
AM_6
100
AcDbMText
 10
55.85756740926831
 20
45.68700446351425
 30
0.0
 40
3.2
 41
23.94578789061597
 46
0.0
 71
     1
 72
     5
  1
{\L扉切欠推奨寸法}
 73
     1
 44
1.0
  0
MTEXT
  5
C710
330
1F
100
AcDbEntity
  8
AM_6
100
AcDbMText
 10
191.4050908094553
 20
45.68700446351425
 30
0.0
 40
3.2
 41
23.94578789061597
 46
0.0
 71
     1
 72
     5
  1
{\Lカバー開き状態}
 73
     1
 44
1.0
  0
INSERT
  5
C711
330
1F
100
AcDbEntity
  8
AM_0
100
AcDbBlockReference
  2
*S31
 10
0.0
 20
0.0
 30
0.0
  0
INSERT
  5
C713
330
1F
100
AcDbEntity
  8
AM_0
100
AcDbBlockReference
  2
*S32
 10
0.0
 20
0.0
 30
0.0
  0
LINE
  5
C7F0
330
1F
100
AcDbEntity
  8
AM_2
100
AcDbLine
 10
31.50009930607075
 20
288.4999999999999
 30
0.0
 11
31.50009930607075
 21
224.5000000432649
 31
0.0
  0
LINE
  5
C7F1
330
1F
100
AcDbEntity
  8
AM_2
100
AcDbLine
 10
11.50009930607075
 20
280.4999999999999
 30
0.0
 11
126.5000993060706
 21
280.4999999999999
 31
0.0
  0
LINE
  5
C7F2
330
1F
100
AcDbEntity
  8
AM_2
100
AcDbLine
 10
11.50009930607075
 20
272.4999999999999
 30
0.0
 11
126.5000993060706
 21
272.4999999999999
 31
0.0
  0
LINE
  5
C7F4
330
1F
100
AcDbEntity
  8
AM_0
100
AcDbLine
 10
11.50009930607075
 20
288.4999999999999
 30
0.0
 11
111.5000993060705
 21
288.4999999999999
 31
0.0
  0
LINE
  5
C7F5
330
1F
100
AcDbEntity
  8
AM_0
100
AcDbLine
 10
126.5000993060705
 20
288.4999999999999
 30
0.0
 11
126.5000993060708
 21
224.4999999999999
 31
0.0
  0
LINE
  5
C7F6
330
1F
100
AcDbEntity
  8
AM_2
100
AcDbLine
 10
11.50009930607075
 20
240.4999999999999
 30
0.0
 11
126.5000993060708
 21
240.4999999999999
 31
0.0
  0
MTEXT
  5
C7F9
330
1F
100
AcDbEntity
  8
AM_6
100
AcDbMText
 10
31.50009930607075
 20
284.4999999999999
 30
0.0
 40
3.2
 41
90.0
 46
0.0
 71
     4
 72
     5
  1
　　防水キーロット/平型止め金/Z型止め金
 73
     1
 44
1.0
  0
MTEXT
  5
C7FA
330
1F
100
AcDbEntity
  8
AM_6
100
AcDbMText
 10
31.50009930607075
 20
276.4999999999999
 30
0.0
 40
3.2
 41
90.0
 46
0.0
 71
     4
 72
     5
  1
　　EL-35V/EB-25/EB-26
 73
     1
 44
1.0
  0
MTEXT
  5
C7FB
330
1F
100
AcDbEntity
  8
AM_6
100
AcDbMText
 10
31.50009930607075
 20
268.4999999999999
 30
0.0
 40
3.2
 41
90.0
 46
0.0
 71
     4
 72
     5
  1
　　防水キーロット
 73
     1
 44
1.0
  0
MTEXT
  5
C7FD
330
1F
100
AcDbEntity
  8
AM_6
100
AcDbMText
 10
31.50009930607075
 20
260.4999999783674
 30
0.0
 40
3.2
 41
90.0
 46
0.0
 71
     4
 72
     5
  1
　　平型（Z型）止め金
 73
     1
 44
1.0
  0
LINE
  5
C7FE
330
1F
100
AcDbEntity
  8
AM_0
100
AcDbLine
 10
11.50010039805613
 20
224.5000000523733
 30
0.0
 11
126.5000993060708
 21
224.4999999999999
 31
0.0
  0
MTEXT
  5
C7FF
330
1F
100
AcDbEntity
  8
AM_6
100
AcDbMText
 10
21.50009985206339
 20
232.5000000261866
 30
0.0
 40
3.2
 41
19.99999890801462
 46
15.99999994762664
 71
     5
 72
     5
  1
備考
 73
     1
 44
1.0
1001
ACAD
1000
ACAD_MTEXT_DEFINED_HEIGHT_BEGIN
1070
    46
1040
15.99999994762664
1000
ACAD_MTEXT_DEFINED_HEIGHT_END
  0
MTEXT
  5
C800
330
1F
100
AcDbEntity
  8
AM_6
100
AcDbMText
 10
31.50009930607075
 20
236.2796229405319
 30
0.0
 40
3.2
 41
94.99999999999997
 46
8.000000000000002
 71
     4
 72
     5
  1
　※防水キーロット、平型（Z型）止め金は、
 73
     1
 44
1.0
1001
ACAD
1000
ACAD_MTEXT_DEFINED_HEIGHT_BEGIN
1070
    46
1040
8.000000000000002
1000
ACAD_MTEXT_DEFINED_HEIGHT_END
  0
MTEXT
  5
C801
330
1F
100
AcDbEntity
  8
AM_6
100
AcDbMText
 10
21.50009930607075
 20
248.4999999999999
 30
0.0
 40
3.2
 41
20.0
 46
0.0
 71
     5
 72
     5
  1
仕上げ
 73
     1
 44
1.0
  0
MTEXT
  5
C802
330
1F
100
AcDbEntity
  8
AM_6
100
AcDbMText
 10
21.50009930607075
 20
264.4999999999999
 30
0.0
 40
3.2
 41
20.0
 46
0.0
 71
     5
 72
     5
  1
材質
 73
     1
 44
1.0
  0
MTEXT
  5
C803
330
1F
100
AcDbEntity
  8
AM_6
100
AcDbMText
 10
31.50009930607075
 20
228.4999999999999
 30
0.0
 40
3.2
 41
94.99999999999999
 46
0.0
 71
     4
 72
     5
  1
　　セットでは有りませんので、ご注文の際はご注意下さい
 73
     1
 44
1.0
  0
MTEXT
  5
C804
330
1F
100
AcDbEntity
  8
AM_6
100
AcDbMText
 10
69.00009930607075
 20
268.4999999999999
 30
0.0
 40
3.2
 41
57.49999999999993
 46
0.0
 71
     4
 72
     5
  1
　：亜鉛ダイキャスト
 73
     1
 44
1.0
  0
MTEXT
  5
C806
330
1F
100
AcDbEntity
  8
AM_6
100
AcDbMText
 10
69.00009930607075
 20
260.4999999783674
 30
0.0
 40
3.2
 41
57.49999999999997
 46
0.0
 71
     4
 72
     5
  1
　：スチール
 73
     1
 44
1.0
  0
MTEXT
  5
C807
330
1F
100
AcDbEntity
  8
AM_6
100
AcDbMText
 10
69.00009930607075
 20
252.5000000216324
 30
0.0
 40
3.2
 41
57.49999999999993
 46
0.0
 71
     4
 72
     5
  1
　：焼付塗装（シルバー）
 73
     1
 44
1.0
  0
MTEXT
  5
C809
330
1F
100
AcDbEntity
  8
AM_6
100
AcDbMText
 10
69.00009930607075
 20
244.5000000216324
 30
0.0
 40
3.2
 41
57.49999999999997
 46
0.0
 71
     4
 72
     5
  1
　：有色クロメート
 73
     1
 44
1.0
  0
MTEXT
  5
C80A
330
1F
100
AcDbEntity
  8
AM_6
100
AcDbMText
 10
31.50009930607075
 20
252.5000000216324
 30
0.0
 40
3.2
 41
90.0
 46
0.0
 71
     4
 72
     5
  1
　　防水キーロット
 73
     1
 44
1.0
  0
MTEXT
  5
C80C
330
1F
100
AcDbEntity
  8
AM_6
100
AcDbMText
 10
31.50009930607075
 20
244.5000000216324
 30
0.0
 40
3.2
 41
90.0
 46
0.0
 71
     4
 72
     5
  1
　　平型（Z型）止め金
 73
     1
 44
1.0
  0
LINE
  5
C933
330
1F
100
AcDbEntity
  8
AM_0
100
AcDbLine
 10
301.0676541794317
 20
69.53946982702756
 30
0.0
 11
364.232831179432
 21
69.53946982702756
 31
0.0
  0
LINE
  5
C934
330
1F
100
AcDbEntity
  8
AM_0
100
AcDbLine
 10
301.0676541794317
 20
89.53947002702749
 30
0.0
 11
364.232831179432
 21
89.53947002702749
 31
0.0
  0
LINE
  5
C935
330
1F
100
AcDbEntity
  8
AM_7
100
AcDbLine
 10
305.6502351794318
 20
92.07944782702758
 30
0.0
 11
305.6502351794318
 21
66.53946982702756
 31
0.0
  0
LINE
  5
C936
330
1F
100
AcDbEntity
  8
AM_0
100
AcDbLine
 10
306.0038121794321
 20
74.09476922702753
 30
0.0
 11
307.2899561794318
 21
75.38091592702754
 31
0.0
  0
LINE
  5
C937
330
1F
100
AcDbEntity
  8
AM_0
100
AcDbLine
 10
311.094968179432
 20
79.89303209702744
 30
0.0
 11
309.8088041794319
 21
81.1791947370276
 31
0.0
  0
LINE
  5
C938
330
1F
100
AcDbEntity
  8
AM_0
100
AcDbLine
 10
300.205525179432
 20
79.89305367702751
 30
0.0
 11
301.4916621794321
 21
81.17918934702753
 31
0.0
  0
LINE
  5
C939
330
1F
100
AcDbEntity
  8
AM_0
100
AcDbLine
 10
305.296704179432
 20
74.09476922702753
 30
0.0
 11
304.0105641794319
 21
75.38091062702743
 31
0.0
  0
LINE
  5
C93A
330
1F
100
AcDbEntity
  8
AM_0
100
AcDbLine
 10
309.7502261794318
 20
75.93949392702744
 30
0.0
 11
309.7502261794318
 21
77.75834182702748
 31
0.0
  0
LINE
  5
C93B
330
1F
100
AcDbEntity
  8
AM_0
100
AcDbLine
 10
309.2502261794318
 20
83.63950632702755
 30
0.0
 11
307.4313321794318
 21
83.63950632702755
 31
0.0
  0
LINE
  5
C93C
330
1F
100
AcDbEntity
  8
AM_0
100
AcDbLine
 10
301.5502441794317
 20
75.93949392702744
 30
0.0
 11
301.5502441794317
 21
77.75838762702743
 31
0.0
  0
LINE
  5
C93D
330
1F
100
AcDbEntity
  8
AM_0
100
AcDbLine
 10
309.2502261794318
 20
75.43949392702744
 30
0.0
 11
307.4313781794319
 21
75.43949392702744
 31
0.0
  0
LINE
  5
C93E
330
1F
100
AcDbEntity
  8
AM_0
100
AcDbLine
 10
304.0105601794319
 20
83.69808462702746
 30
0.0
 11
305.296681179432
 21
84.98420932702753
 31
0.0
  0
LINE
  5
C93F
330
1F
100
AcDbEntity
  8
AM_0
100
AcDbLine
 10
303.8691371794318
 20
83.63950632702755
 30
0.0
 11
302.0502441794317
 21
83.63950632702755
 31
0.0
  0
LINE
  5
C940
330
1F
100
AcDbEntity
  8
AM_0
100
AcDbLine
 10
307.2899211794318
 20
83.69807912702764
 30
0.0
 11
306.003789179432
 21
84.98420932702753
 31
0.0
  0
LINE
  5
C941
330
1F
100
AcDbEntity
  8
AM_0
100
AcDbLine
 10
309.7502261794318
 20
81.3206205570276
 30
0.0
 11
309.7502261794318
 21
83.13950632702755
 31
0.0
  0
LINE
  5
C942
330
1F
100
AcDbEntity
  8
AM_0
100
AcDbLine
 10
309.8088041794319
 20
77.89976262702758
 30
0.0
 11
311.094968179432
 21
79.18592522702748
 31
0.0
  0
LINE
  5
C943
330
1F
100
AcDbEntity
  8
AM_0
100
AcDbLine
 10
303.8691371794318
 20
75.43949392702744
 30
0.0
 11
302.0502441794317
 21
75.43949392702744
 31
0.0
  0
LINE
  5
C944
330
1F
100
AcDbEntity
  8
AM_0
100
AcDbLine
 10
301.4916691794317
 20
77.89980582702752
 30
0.0
 11
300.205525179432
 21
79.18594682702756
 31
0.0
  0
LINE
  5
C945
330
1F
100
AcDbEntity
  8
AM_0
100
AcDbLine
 10
301.5502441794317
 20
81.32061292702757
 30
0.0
 11
301.5502441794317
 21
83.13950632702755
 31
0.0
  0
LINE
  5
C946
330
1F
100
AcDbEntity
  8
AM_0
100
AcDbLine
 10
294.6502351794318
 20
114.5980345279
 30
0.0
 11
370.6502511794317
 21
114.5980345279
 31
0.0
  0
LINE
  5
C947
330
1F
100
AcDbEntity
  8
AM_0
100
AcDbLine
 10
294.6502351794318
 20
112.2980465279
 30
0.0
 11
370.6502511794317
 21
112.2980465279
 31
0.0
  0
LINE
  5
C948
330
1F
100
AcDbEntity
  8
AM_7
 48
0.3
100
AcDbLine
 10
305.6502351794318
 20
109.2980465279
 30
0.0
 11
305.6502351794318
 21
117.5980345279
 31
0.0
  0
LINE
  5
C949
330
1F
100
AcDbEntity
  8
AM_0
100
AcDbLine
 10
370.6502511794317
 20
112.2980465279
 30
0.0
 11
370.6502511794317
 21
114.5980345279
 31
0.0
  0
LINE
  5
C94A
330
1F
100
AcDbEntity
  8
AM_0
100
AcDbLine
 10
364.232831179432
 20
114.5980345279
 30
0.0
 11
364.232831179432
 21
112.2980465279
 31
0.0
  0
LINE
  5
C94B
330
1F
100
AcDbEntity
  8
AM_0
100
AcDbLine
 10
301.0676541794317
 20
114.5980345279
 30
0.0
 11
301.0676541794317
 21
112.2980465279
 31
0.0
  0
LINE
  5
C94C
330
1F
100
AcDbEntity
  8
AM_0
100
AcDbLine
 10
294.6502351794318
 20
114.5980345279
 30
0.0
 11
294.6502351794318
 21
112.2980465279
 31
0.0
  0
LINE
  5
C94D
330
1F
100
AcDbEntity
  8
AM_7
100
AcDbLine
 10
291.6502351794318
 20
79.53946972702748
 30
0.0
 11
373.6502511794317
 21
79.53946972702748
 31
0.0
  0
ARC
  5
C94E
330
1F
100
AcDbEntity
  8
AM_0
100
AcDbCircle
 10
359.6502511794317
 20
79.53946972702748
 30
0.0
 40
11.0
100
AcDbArc
 50
294.6199599999981
 51
65.38003599999803
  0
ARC
  5
C94F
330
1F
100
AcDbEntity
  8
AM_0
100
AcDbCircle
 10
305.6502351794318
 20
79.53946972702748
 30
0.0
 40
11.0
100
AcDbArc
 50
114.6199800000042
 51
245.3800199999958
  0
ARC
  5
C950
330
1F
100
AcDbEntity
  8
AM_0
100
AcDbCircle
 10
307.4313321794318
 20
83.83950332702749
 30
0.0
 40
0.2
100
AcDbArc
 50
224.9998100000046
 51
270.0
  0
ARC
  5
C951
330
1F
100
AcDbEntity
  8
AM_0
100
AcDbCircle
 10
309.2502261794318
 20
75.93949392702744
 30
0.0
 40
0.5
100
AcDbArc
 50
270.0
 51
0.0
  0
ARC
  5
C952
330
1F
100
AcDbEntity
  8
AM_0
100
AcDbCircle
 10
305.6502651794319
 20
74.44832112702748
 30
0.0
 40
0.5
100
AcDbArc
 50
224.9999600000083
 51
315.0000399999917
  0
ARC
  5
C953
330
1F
100
AcDbEntity
  8
AM_0
100
AcDbCircle
 10
309.950223179432
 20
81.3206205570276
 30
0.0
 40
0.2
100
AcDbArc
 50
179.999979999998
 51
224.9998100000046
  0
ARC
  5
C954
330
1F
100
AcDbEntity
  8
AM_0
100
AcDbCircle
 10
309.950223179432
 20
77.75834182702748
 30
0.0
 40
0.2
100
AcDbArc
 50
135.0001899999954
 51
180.0
  0
ARC
  5
C955
330
1F
100
AcDbEntity
  8
AM_0
100
AcDbCircle
 10
307.4313781794319
 20
75.2394969270275
 30
0.0
 40
0.2
100
AcDbArc
 50
90.0
 51
135.0001899999954
  0
ARC
  5
C956
330
1F
100
AcDbEntity
  8
AM_0
100
AcDbCircle
 10
303.8691371794318
 20
75.2394969270275
 30
0.0
 40
0.2
100
AcDbArc
 50
44.99980700000118
 51
90.0
  0
ARC
  5
C957
330
1F
100
AcDbEntity
  8
AM_0
100
AcDbCircle
 10
301.350247179432
 20
77.75838762702743
 30
0.0
 40
0.2
100
AcDbArc
 50
0.0
 51
44.99980700000118
  0
ARC
  5
C958
330
1F
100
AcDbEntity
  8
AM_0
100
AcDbCircle
 10
301.350247179432
 20
81.32061292702757
 30
0.0
 40
0.2
100
AcDbArc
 50
315.0001899999955
 51
0.0
  0
ARC
  5
C959
330
1F
100
AcDbEntity
  8
AM_0
100
AcDbCircle
 10
303.8691371794318
 20
83.83950332702749
 30
0.0
 40
0.2
100
AcDbArc
 50
270.0
 51
315.0001899999955
  0
ARC
  5
C95A
330
1F
100
AcDbEntity
  8
AM_0
100
AcDbCircle
 10
302.0502441794317
 20
75.93949392702744
 30
0.0
 40
0.5
100
AcDbArc
 50
180.0
 51
270.0
  0
ARC
  5
C95B
330
1F
100
AcDbEntity
  8
AM_0
100
AcDbCircle
 10
300.5590791794318
 20
79.53950022702757
 30
0.0
 40
0.5
100
AcDbArc
 50
135.0000300000027
 51
224.9999699999973
  0
ARC
  5
C95C
330
1F
100
AcDbEntity
  8
AM_0
100
AcDbCircle
 10
309.2502261794318
 20
83.13950632702755
 30
0.0
 40
0.5
100
AcDbArc
 50
0.0
 51
90.0
  0
ARC
  5
C95D
330
1F
100
AcDbEntity
  8
AM_0
100
AcDbCircle
 10
302.0502441794317
 20
83.13950632702755
 30
0.0
 40
0.5
100
AcDbArc
 50
90.0
 51
180.0
  0
ARC
  5
C95E
330
1F
100
AcDbEntity
  8
AM_0
100
AcDbCircle
 10
305.6502351794318
 20
84.63065622702753
 30
0.0
 40
0.5
100
AcDbArc
 50
44.99998099998902
 51
135.000020000015
  0
ARC
  5
C95F
330
1F
100
AcDbEntity
  8
AM_0
100
AcDbCircle
 10
310.7414211794319
 20
79.5394773270276
 30
0.0
 40
0.5
100
AcDbArc
 50
315.0000300000027
 51
44.99997100000149
  0
MTEXT
  5
C960
330
1F
100
AcDbEntity
  8
AM_6
100
AcDbMText
 10
305.6502351794318
 20
31.6936630523902
 30
0.0
 40
3.2
 41
47.53992004322754
 46
0.0
 71
     1
 72
     5
  1
{\L平型止め金（EB-25）}
 73
     1
 44
1.0
  0
DIMENSION
  5
C961
330
1F
100
AcDbEntity
  8
AM_5
100
AcDbDimension
  2
*D15
 10
382.6502511794317
 20
114.5980345279
 30
0.0
 11
379.5502511794317
 21
120.4447011945667
 31
0.0
 70
    32
 71
     5
 42
2.299987999999985
 73
     0
 74
     0
 75
     0
  3
SYS$0
100
AcDbAlignedDimension
 13
370.6502511794317
 23
112.2980465279
 33
0.0
 14
370.6502511794317
 24
114.5980345279
 34
0.0
 50
90.0
100
AcDbRotatedDimension
1001
ACAD
1000
DSTYLE
1002
{
1070
   271
1070
     1
1002
}
  0
DIMENSION
  5
C962
330
1F
100
AcDbEntity
  8
AM_5
100
AcDbDimension
  2
*D16
 10
382.6502521894317
 20
89.53947002702749
 30
0.0
 11
379.5502521894317
 21
79.53946992702758
 31
0.0
 70
    32
 71
     5
 42
20.00000019999993
 73
     0
 74
     0
 75
     0
  3
SYS$0
100
AcDbAlignedDimension
 13
364.232831179432
 23
69.53946982702756
 33
0.0
 14
364.232831179432
 24
89.53947002702749
 34
0.0
 50
90.0
100
AcDbRotatedDimension
1001
ACAD
1000
DSTYLE
1002
{
1070
   271
1070
     1
1002
}
  0
DIMENSION
  5
C963
330
1F
100
AcDbEntity
  8
AM_5
100
AcDbDimension
  2
*D17
 10
370.6502511794317
 20
57.53946733106378
 30
0.0
 11
338.1502431794318
 21
60.63946733106378
 31
0.0
 70
    32
 71
     5
 42
65.00001599999996
 73
     0
 74
     0
 75
     0
  3
SYS$0
100
AcDbAlignedDimension
 13
305.6502351794318
 23
66.53946982702756
 33
0.0
 14
370.6502511794317
 24
79.53946972702748
 34
0.0
 50
0.0000000000002036
100
AcDbRotatedDimension
1001
ACAD
1000
DSTYLE
1002
{
1070
   271
1070
     1
1002
}
  0
DIMENSION
  5
C964
330
1F
100
AcDbEntity
  8
AM_5
100
AcDbDimension
  2
*D18
 10
294.6502351794318
 20
47.53946733106334
 30
0.0
 11
332.6502431794318
 21
50.63946733106334
 31
0.0
 70
    32
 71
     5
 42
76.00001599999996
 73
     0
 74
     0
 75
     0
  3
SYS$0
100
AcDbAlignedDimension
 13
370.6502511794317
 23
79.53946934305462
 33
0.0
 14
294.6502351794318
 24
79.53946972702748
 34
0.0
 50
0.0000000000002036
100
AcDbRotatedDimension
1001
ACAD
1000
DSTYLE
1002
{
1070
   271
1070
     1
1002
}
  0
LINE
  5
C9C8
330
1F
100
AcDbEntity
  8
AM_0
100
AcDbLine
 10
302.0502291794318
 20
207.1000062822353
 30
0.0
 11
303.9519621794319
 21
207.1000062822353
 31
0.0
  0
LINE
  5
C9C9
330
1F
100
AcDbEntity
  8
AM_0
100
AcDbLine
 10
307.3485081794319
 20
207.1000062822353
 30
0.0
 11
309.250241179432
 21
207.1000062822353
 31
0.0
  0
LINE
  5
C9CA
330
1F
100
AcDbEntity
  8
AM_0
100
AcDbLine
 10
309.750241179432
 20
199.4000562822354
 30
0.0
 11
309.750241179432
 21
201.3017862822354
 31
0.0
  0
LINE
  5
C9CB
330
1F
100
AcDbEntity
  8
AM_0
100
AcDbLine
 10
301.5502291794318
 20
199.4000562822354
 30
0.0
 11
301.5502291794318
 21
201.3017862822354
 31
0.0
  0
LINE
  5
C9CC
330
1F
100
AcDbEntity
  8
AM_7
100
AcDbLine
 10
287.6502351794319
 20
203.0000262822354
 30
0.0
 11
323.6502351794319
 21
203.0000262822354
 31
0.0
  0
LINE
  5
C9CD
330
1F
100
AcDbEntity
  8
AM_0
100
AcDbLine
 10
301.5502291794318
 20
204.6982662822355
 30
0.0
 11
301.5502291794318
 21
206.6000062822353
 31
0.0
  0
LINE
  5
C9CE
330
1F
100
AcDbEntity
  8
AM_0
100
AcDbLine
 10
303.9519551794318
 20
207.1000162822355
 30
0.0
 11
305.2966811794321
 21
208.4447462822353
 31
0.0
  0
LINE
  5
C9CF
330
1F
100
AcDbEntity
  8
AM_0
100
AcDbLine
 10
306.0037891794321
 20
197.5552762822355
 30
0.0
 11
307.3485191794319
 21
198.9000262822354
 31
0.0
  0
LINE
  5
C9D0
330
1F
100
AcDbEntity
  8
AM_0
100
AcDbLine
 10
300.2055061794321
 20
202.6464662822353
 30
0.0
 11
301.5502331794322
 21
201.3017362822353
 31
0.0
  0
LINE
  5
C9D1
330
1F
100
AcDbEntity
  8
AM_7
100
AcDbLine
 10
305.6502351794319
 20
216.0000262822354
 30
0.0
 11
305.6502351794319
 21
190.0000162822354
 31
0.0
  0
LINE
  5
C9D2
330
1F
100
AcDbEntity
  8
AM_0
100
AcDbLine
 10
300.2055061794321
 20
203.3535762822354
 30
0.0
 11
301.5502331794322
 21
204.6982962822354
 31
0.0
  0
LINE
  5
C9D3
330
1F
100
AcDbEntity
  8
AM_0
100
AcDbLine
 10
309.750237179432
 20
201.3017362822353
 30
0.0
 11
311.0949681794322
 21
202.6464662822353
 31
0.0
  0
LINE
  5
C9D4
330
1F
100
AcDbEntity
  8
AM_0
100
AcDbLine
 10
309.750237179432
 20
204.6982962822354
 30
0.0
 11
311.0949681794322
 21
203.3535762822354
 31
0.0
  0
LINE
  5
C9D5
330
1F
100
AcDbEntity
  8
AM_0
100
AcDbLine
 10
306.0037891794321
 20
208.4447462822353
 30
0.0
 11
307.3485191794319
 21
207.1000162822355
 31
0.0
  0
LINE
  5
C9D6
330
1F
100
AcDbEntity
  8
AM_0
100
AcDbLine
 10
309.750241179432
 20
204.6982662822355
 30
0.0
 11
309.750241179432
 21
206.6000062822353
 31
0.0
  0
LINE
  5
C9D7
330
1F
100
AcDbEntity
  8
AM_0
100
AcDbLine
 10
307.3485081794319
 20
198.9000562822354
 30
0.0
 11
309.250241179432
 21
198.9000562822354
 31
0.0
  0
LINE
  5
C9D8
330
1F
100
AcDbEntity
  8
AM_0
100
AcDbLine
 10
297.0676541794318
 20
193.0000262822354
 30
0.0
 11
354.2328111794321
 21
193.0000262822354
 31
0.0
  0
LINE
  5
C9D9
330
1F
100
AcDbEntity
  8
AM_0
100
AcDbLine
 10
302.0502291794318
 20
198.9000562822354
 30
0.0
 11
303.9519621794319
 21
198.9000562822354
 31
0.0
  0
LINE
  5
C9DA
330
1F
100
AcDbEntity
  8
AM_0
100
AcDbLine
 10
297.0676541794318
 20
213.0000262822354
 30
0.0
 11
354.2328111794321
 21
213.0000262822354
 31
0.0
  0
LINE
  5
C9DB
330
1F
100
AcDbEntity
  8
AM_0
100
AcDbLine
 10
303.9519551794318
 20
198.9000262822354
 30
0.0
 11
305.2966811794321
 21
197.5552762822355
 31
0.0
  0
LINE
  5
C9DC
330
1F
100
AcDbEntity
  8
AM_0
100
AcDbLine
 10
335.6251691794322
 20
251.0071728426818
 30
0.0
 11
329.2764751794319
 21
239.2167328426821
 31
0.0
  0
LINE
  5
C9DD
330
1F
100
AcDbEntity
  8
AM_0
100
AcDbLine
 10
360.6502611794321
 20
255.9167228426819
 30
0.0
 11
337.6502391794319
 21
249.9167228426819
 31
0.0
  0
LINE
  5
C9DE
330
1F
100
AcDbEntity
  8
AM_7
 48
0.3
100
AcDbLine
 10
305.6502351794319
 20
233.9167328426819
 30
0.0
 11
305.6502351794319
 21
242.2167328426821
 31
0.0
  0
LINE
  5
C9DF
330
1F
100
AcDbEntity
  8
AM_0
100
AcDbLine
 10
290.6502351794319
 20
239.2167328426821
 30
0.0
 11
290.6502351794319
 21
236.9167328426819
 31
0.0
  0
LINE
  5
C9E0
330
1F
100
AcDbEntity
  8
AM_0
100
AcDbLine
 10
329.2764521794319
 20
236.9167328426819
 30
0.0
 11
290.6502351794319
 21
236.9167328426819
 31
0.0
  0
LINE
  5
C9E1
330
1F
100
AcDbEntity
  8
AM_0
100
AcDbLine
 10
360.069691179432
 20
258.142242842682
 30
0.0
 11
337.0696721794319
 21
252.1422428426821
 31
0.0
  0
LINE
  5
C9E2
330
1F
100
AcDbEntity
  8
AM_0
100
AcDbLine
 10
329.2764521794319
 20
239.2167328426821
 30
0.0
 11
290.6502351794319
 21
239.2167328426821
 31
0.0
  0
LINE
  5
C9E3
330
1F
100
AcDbEntity
  8
AM_0
100
AcDbLine
 10
360.069691179432
 20
258.142242842682
 30
0.0
 11
360.6502611794321
 21
255.9167228426819
 31
0.0
  0
LINE
  5
C9E4
330
1F
100
AcDbEntity
  8
AM_0
100
AcDbLine
 10
337.650254179432
 20
249.9167328426819
 30
0.0
 11
331.3015601794322
 21
238.1263028426819
 31
0.0
  0
LINE
  5
C9E5
330
1F
100
AcDbEntity
  8
AM_2
100
AcDbLine
 10
330.6502311794319
 20
212.0000262822354
 30
0.0
 11
330.6502311794319
 21
194.0000262822354
 31
0.0
  0
LINE
  5
C9E6
330
1F
100
AcDbEntity
  8
AM_0
100
AcDbLine
 10
337.6502311794319
 20
213.0000262822354
 30
0.0
 11
337.6502311794319
 21
193.0000262822354
 31
0.0
  0
ARC
  5
C9E7
330
1F
100
AcDbEntity
  8
AM_0
100
AcDbCircle
 10
305.6502351794319
 20
197.9088562822354
 30
0.0
 40
0.5
100
AcDbArc
 50
224.9993799999933
 51
315.0006200000067
  0
ARC
  5
C9E8
330
1F
100
AcDbEntity
  8
AM_0
100
AcDbCircle
 10
310.741421179432
 20
203.0000262822354
 30
0.0
 40
0.5
100
AcDbArc
 50
315.0006200000067
 51
44.99938200000338
  0
ARC
  5
C9E9
330
1F
100
AcDbEntity
  8
AM_0
100
AcDbCircle
 10
309.250241179432
 20
199.4000562822354
 30
0.0
 40
0.5
100
AcDbArc
 50
270.0
 51
0.0
  0
ARC
  5
C9EA
330
1F
100
AcDbEntity
  8
AM_0
100
AcDbCircle
 10
309.250241179432
 20
206.6000062822353
 30
0.0
 40
0.5
100
AcDbArc
 50
0.0
 51
90.0
  0
ARC
  5
C9EB
330
1F
100
AcDbEntity
  8
AM_0
100
AcDbCircle
 10
302.0502291794318
 20
199.4000562822354
 30
0.0
 40
0.5
100
AcDbArc
 50
180.0
 51
270.0
  0
ARC
  5
C9EC
330
1F
100
AcDbEntity
  8
AM_0
100
AcDbCircle
 10
300.5590481794319
 20
203.0000262822354
 30
0.0
 40
0.5
100
AcDbArc
 50
135.0006200000065
 51
224.9993799999933
  0
ARC
  5
C9ED
330
1F
100
AcDbEntity
  8
AM_0
100
AcDbCircle
 10
302.0502291794318
 20
206.6000062822353
 30
0.0
 40
0.5
100
AcDbArc
 50
90.0
 51
180.0
  0
ARC
  5
C9EE
330
1F
100
AcDbEntity
  8
AM_0
100
AcDbCircle
 10
305.6502351794319
 20
208.0912162822355
 30
0.0
 40
0.5
100
AcDbArc
 50
44.99938200000338
 51
135.0006200000065
  0
ARC
  5
C9EF
330
1F
100
AcDbEntity
  8
AM_0
100
AcDbCircle
 10
337.6502311794319
 20
249.9167328426819
 30
0.0
 40
2.299999999999998
100
AcDbArc
 50
104.6207500000011
 51
151.6994000000024
  0
ARC
  5
C9F0
330
1F
100
AcDbEntity
  8
AM_0
100
AcDbCircle
 10
349.6502311794319
 20
203.0000262822354
 30
0.0
 40
11.0
100
AcDbArc
 50
294.6199999999992
 51
65.38003599999803
  0
ARC
  5
C9F1
330
1F
100
AcDbEntity
  8
AM_0
100
AcDbCircle
 10
301.6502351794319
 20
203.0000262822354
 30
0.0
 40
11.0
100
AcDbArc
 50
114.6199800000042
 51
245.3800400000019
  0
ARC
  5
C9F2
330
1F
100
AcDbEntity
  8
AM_0
100
AcDbCircle
 10
329.2764521794319
 20
239.2167328426821
 30
0.0
 40
2.299999999999998
100
AcDbArc
 50
270.0
 51
331.6994000000024
  0
LINE
  5
C9F3
330
1F
100
AcDbEntity
  8
AM_7
100
AcDbLine
 10
323.6502345434941
 20
203.0000270217655
 30
0.0
 11
363.6502311794313
 21
203.0000297379871
 31
0.0
  0
MTEXT
  5
C9F4
330
1F
100
AcDbEntity
  8
AM_6
100
AcDbMText
 10
305.6502351794319
 20
155.0000162822354
 30
0.0
 40
3.2
 41
47.53992004322754
 46
0.0
 71
     1
 72
     5
  1
{\LZ型止め金（EB-26）}
 73
     1
 44
1.0
  0
DIMENSION
  5
C9F5
330
1F
100
AcDbEntity
  8
AM_5
100
AcDbDimension
  2
*D19
 10
360.6502311794313
 20
181.0000252822353
 30
0.0
 11
333.1502331794316
 21
184.1000252822353
 31
0.0
 70
    32
 71
     5
 42
54.99999599999944
 73
     0
 74
     0
 75
     0
  3
SYS$0
100
AcDbAlignedDimension
 13
305.6502351794319
 23
190.0000162822354
 33
0.0
 14
360.6502311794313
 24
203.0000297379871
 34
0.0
100
AcDbRotatedDimension
  0
DIMENSION
  5
C9F6
330
1F
100
AcDbEntity
  8
AM_5
100
AcDbDimension
  2
*D20
 10
290.6502351794323
 20
171.0000576930117
 30
0.0
 11
325.6502331794319
 21
174.1000576930117
 31
0.0
 70
    32
 71
     5
 42
69.9999959999991
 73
     0
 74
     0
 75
     0
  3
SYS$0
100
AcDbAlignedDimension
 13
360.6502311794314
 23
203.0000295342704
 33
0.0
 14
290.6502351794323
 24
203.0000295342704
 34
0.0
 50
0.0000038907011956
100
AcDbRotatedDimension
  0
DIMENSION
  5
C9F7
330
1F
100
AcDbEntity
  8
AM_5
100
AcDbDimension
  2
*D21
 10
372.6502321894319
 20
213.000024309415
 30
0.0
 11
369.5502321894318
 21
203.0000252958253
 31
0.0
 70
    32
 71
     5
 42
19.99999802717969
 73
     0
 74
     0
 75
     0
  3
SYS$0
100
AcDbAlignedDimension
 13
354.2328111794321
 23
193.0000262822354
 33
0.0
 14
354.2328111794321
 24
213.000024309415
 34
0.0
 50
90.0
100
AcDbRotatedDimension
  0
DIMENSION
  5
C9F8
330
1F
100
AcDbEntity
  8
AM_5
100
AcDbDimension
  2
*D22
 10
278.6502351794319
 20
239.2167328426821
 30
0.0
 11
275.5502351794318
 21
245.0633995093488
 31
0.0
 70
    32
 71
     5
 42
2.300000000000182
 73
     0
 74
     0
 75
     0
  3
SYS$0
100
AcDbAlignedDimension
 13
290.6502351794319
 23
236.9167328426819
 33
0.0
 14
290.6502351794319
 24
239.2167328426821
 34
0.0
 50
90.0
100
AcDbRotatedDimension
  0
DIMENSION
  5
C9F9
330
1F
100
AcDbEntity
  8
AM_5
100
AcDbDimension
  2
*D23
 10
290.6502351794319
 20
263.0071738426818
 30
0.0
 11
310.6502441705447
 21
266.1071738426818
 31
0.0
 70
    32
 71
     5
 42
40.0000179822257
 73
     0
 74
     0
 75
     0
  3
SYS$0
100
AcDbAlignedDimension
 13
330.6502531616576
 23
236.9167328426819
 33
0.0
 14
290.6502351794319
 24
239.2167328426821
 34
0.0
100
AcDbRotatedDimension
  0
DIMENSION
  5
C9FA
330
1F
100
AcDbEntity
  8
AM_5
100
AcDbDimension
  2
*D24
 10
337.6502311794319
 20
263.0071738426818
 30
0.0
 11
334.1502421705447
 21
266.1071738426818
 31
0.0
 70
    32
 71
     5
 42
6.999978017774311
 73
     0
 74
     0
 75
     0
  3
SYS$0
100
AcDbAlignedDimension
 13
330.6502531616576
 23
236.9167328426819
 33
0.0
 14
337.6502311794319
 24
249.9167328426819
 34
0.0
100
AcDbRotatedDimension
  0
DIMENSION
  5
C9FB
330
1F
100
AcDbEntity
  8
AM_5
100
AcDbDimension
  2
*D25
 10
372.6502611794321
 20
249.9167257609665
 30
0.0
 11
369.550261179432
 21
243.4167293018242
 31
0.0
 70
    32
 71
     5
 42
12.99999291828459
 73
     0
 74
     0
 75
     0
  3
SYS$0
100
AcDbAlignedDimension
 13
329.2764521794319
 23
236.9167328426819
 33
0.0
 14
337.6502503662
 24
249.9167257609665
 34
0.0
 50
90.0
100
AcDbRotatedDimension
  0
LINE
  5
C9FC
330
1F
100
AcDbEntity
  8
AM_0
100
AcDbLine
 10
297.0676594844761
 20
239.2167328426821
 30
0.0
 11
297.0676594844761
 21
236.9167328426819
 31
0.0
  0
LINE
  5
C9FD
330
1F
100
AcDbEntity
  8
AM_0
100
AcDbLine
 10
353.652241345631
 20
256.4681268776994
 30
0.0
 11
354.2328111794321
 21
254.2426070527058
 31
0.0
  0
DIMENSION
  5
C9FE
330
1F
100
AcDbEntity
  8
AM_5
100
AcDbDimension
  2
*D26
 10
382.6502611794323
 20
258.142242842682
 30
0.0
 11
379.5502611794322
 21
247.529487842682
 31
0.0
 70
    32
 71
     5
 42
21.22551000000013
 73
     0
 74
     0
 75
     0
  3
SYS$0
100
AcDbAlignedDimension
 13
329.2764521794319
 23
236.9167328426819
 33
0.0
 14
360.069691179432
 24
258.142242842682
 34
0.0
 50
90.0
100
AcDbRotatedDimension
1001
ACAD
1000
DSTYLE
1002
{
1070
   271
1070
     1
1002
}
  0
TEXT
  5
CBA0
330
1F
100
AcDbEntity
  8
AM_6
 60
     1
100
AcDbText
 10
1026.252618188069
 20
8.499999999999849
 30
0.0
 40
2.5
  1
!GENTITLE-INSERT
100
AcDbText
  0
TEXT
  5
CBA1
330
1F
100
AcDbEntity
  8
AM_6
 60
     1
100
AcDbText
 10
617.7526181880692
 20
-0.0000000000001513
 30
0.0
 40
2.5
  1
!GENTITLE-LL
100
AcDbText
  0
TEXT
  5
CBA2
330
1F
100
AcDbEntity
  8
AM_6
 60
     1
100
AcDbText
 10
1037.752618188069
 20
296.9999999999998
 30
0.0
 40
2.5
  1
!GENTITLE-RU
100
AcDbText
  0
TEXT
  5
CBA3
330
1F
100
AcDbEntity
  8
AM_6
 60
     1
100
AcDbText
 10
1037.752618188069
 20
296.9999999999998
 30
0.0
 40
2.5
  1
!GENTITLE-MAX
100
AcDbText
  0
LINE
  5
CBA4
330
1F
100
AcDbEntity
  8
size
100
AcDbLine
 10
0.0000993060707515
 20
-0.0000000000000757
 30
0.0
 11
420.0000993060708
 21
-0.0000000000000757
 31
0.0
1001
GENIUS_GENREC_14
1002
{
1000
PYDIR
1011
0.0000993060707515
1021
296.9999999999999
1031
0.0
1002
}
1002
{
1000
PXDIR
1011
420.0000993060708
1021
-0.0000000000000757
1031
0.0
1002
}
1002
{
1000
PORI
1011
0.0000993060707515
1021
-0.0000000000000757
1031
0.0
1002
}
1002
{
1000
PINS
1011
210.0000993060708
1021
148.4999999999999
1031
0.0
1002
}
1002
{
1000
HVAL
1000
297
1002
}
1002
{
1000
H
1070
     2
1002
}
1002
{
1000
WVAL
1000
420
1002
}
1002
{
1000
W
1070
     2
1002
}
1002
{
1000
C
1070
     4
1002
}
1001
GENIUS_GENOBJ-N-REC_13
1002
{
1000
OWNER
1000
GEN
1002
}
1001
GENIUS_GENODEF_13
1002
{
1000
HIER
1070
     0
1002
}
1002
{
1000
MANEDIT
1070
     0
1002
}
1002
{
1000
NOSEL
1070
     0
1002
}
1002
{
1000
BEHIND
1070
     0
1002
}
1002
{
1000
OTHER
1070
     0
1002
}
1002
{
1000
REACTOR
1002
}
  0
LINE
  5
CBA5
330
1F
100
AcDbEntity
  8
size
100
AcDbLine
 10
420.0000993060708
 20
-0.0000000000000757
 30
0.0
 11
420.0000993060708
 21
296.9999999999999
 31
0.0
1001
GENIUS_GENREC_14
1002
{
1000
PYDIR
1011
0.0000993060707515
1021
296.9999999999999
1031
0.0
1002
}
1002
{
1000
PXDIR
1011
420.0000993060708
1021
-0.0000000000000757
1031
0.0
1002
}
1002
{
1000
PORI
1011
0.0000993060707515
1021
-0.0000000000000757
1031
0.0
1002
}
1002
{
1000
PINS
1011
210.0000993060708
1021
148.4999999999999
1031
0.0
1002
}
1002
{
1000
HVAL
1000
297
1002
}
1002
{
1000
H
1070
     2
1002
}
1002
{
1000
WVAL
1000
420
1002
}
1002
{
1000
W
1070
     2
1002
}
1002
{
1000
C
1070
     4
1002
}
1001
GENIUS_GENOBJ-N-REC_13
1002
{
1000
OWNER
1000
GEN
1002
}
1001
GENIUS_GENODEF_13
1002
{
1000
HIER
1070
     0
1002
}
1002
{
1000
MANEDIT
1070
     0
1002
}
1002
{
1000
NOSEL
1070
     0
1002
}
1002
{
1000
BEHIND
1070
     0
1002
}
1002
{
1000
OTHER
1070
     0
1002
}
1002
{
1000
REACTOR
1002
}
  0
LINE
  5
CBA6
330
1F
100
AcDbEntity
  8
size
100
AcDbLine
 10
420.0000993060708
 20
296.9999999999999
 30
0.0
 11
0.0000993060707515
 21
296.9999999999999
 31
0.0
1001
GENIUS_GENREC_14
1002
{
1000
PYDIR
1011
0.0000993060707515
1021
296.9999999999999
1031
0.0
1002
}
1002
{
1000
PXDIR
1011
420.0000993060708
1021
-0.0000000000000757
1031
0.0
1002
}
1002
{
1000
PORI
1011
0.0000993060707515
1021
-0.0000000000000757
1031
0.0
1002
}
1002
{
1000
PINS
1011
210.0000993060708
1021
148.4999999999999
1031
0.0
1002
}
1002
{
1000
HVAL
1000
297
1002
}
1002
{
1000
H
1070
     2
1002
}
1002
{
1000
WVAL
1000
420
1002
}
1002
{
1000
W
1070
     2
1002
}
1002
{
1000
C
1070
     4
1002
}
1001
GENIUS_GENOBJ-N-REC_13
1002
{
1000
OWNER
1000
GEN
1002
}
1001
GENIUS_GENODEF_13
1002
{
1000
HIER
1070
     0
1002
}
1002
{
1000
MANEDIT
1070
     0
1002
}
1002
{
1000
NOSEL
1070
     0
1002
}
1002
{
1000
BEHIND
1070
     0
1002
}
1002
{
1000
OTHER
1070
     0
1002
}
1002
{
1000
REACTOR
1002
}
  0
LINE
  5
CBA7
330
1F
100
AcDbEntity
  8
size
100
AcDbLine
 10
0.0000993060707515
 20
296.9999999999999
 30
0.0
 11
0.0000993060707515
 21
-0.0000000000000757
 31
0.0
1001
GENIUS_GENREC_14
1002
{
1000
PYDIR
1011
0.0000993060707515
1021
296.9999999999999
1031
0.0
1002
}
1002
{
1000
PXDIR
1011
420.0000993060708
1021
-0.0000000000000757
1031
0.0
1002
}
1002
{
1000
PORI
1011
0.0000993060707515
1021
-0.0000000000000757
1031
0.0
1002
}
1002
{
1000
PINS
1011
210.0000993060708
1021
148.4999999999999
1031
0.0
1002
}
1002
{
1000
HVAL
1000
297
1002
}
1002
{
1000
H
1070
     2
1002
}
1002
{
1000
WVAL
1000
420
1002
}
1002
{
1000
W
1070
     2
1002
}
1002
{
1000
C
1070
     4
1002
}
1001
GENIUS_GENOBJ-N-REC_13
1002
{
1000
OWNER
1000
GEN
1002
}
1001
GENIUS_GENODEF_13
1002
{
1000
HIER
1070
     0
1002
}
1002
{
1000
MANEDIT
1070
     0
1002
}
1002
{
1000
NOSEL
1070
     0
1002
}
1002
{
1000
BEHIND
1070
     0
1002
}
1002
{
1000
OTHER
1070
     0
1002
}
1002
{
1000
REACTOR
1002
}
  0
LINE
  5
CBA8
330
1F
100
AcDbEntity
  8
waku
100
AcDbLine
 10
408.5000993060708
 20
8.499999999999925
 30
0.0
 11
408.5000993060708
 21
288.4999999999999
 31
0.0
1001
GENIUS_GENREC_14
1002
{
1000
PYDIR
1011
0.0000993060707515
1021
296.9999999999999
1031
0.0
1002
}
1002
{
1000
PXDIR
1011
420.0000993060708
1021
-0.0000000000000757
1031
0.0
1002
}
1002
{
1000
PORI
1011
0.0000993060707515
1021
-0.0000000000000757
1031
0.0
1002
}
1002
{
1000
PINS
1011
210.0000993060708
1021
148.4999999999999
1031
0.0
1002
}
1002
{
1000
HVAL
1000
297
1002
}
1002
{
1000
H
1070
     2
1002
}
1002
{
1000
WVAL
1000
420
1002
}
1002
{
1000
W
1070
     2
1002
}
1002
{
1000
C
1070
     4
1002
}
1001
GENIUS_GENOBJ-N-REC_13
1002
{
1000
OWNER
1000
GEN
1002
}
1001
GENIUS_GENODEF_13
1002
{
1000
HIER
1070
     0
1002
}
1002
{
1000
MANEDIT
1070
     0
1002
}
1002
{
1000
NOSEL
1070
     0
1002
}
1002
{
1000
BEHIND
1070
     0
1002
}
1002
{
1000
OTHER
1070
     0
1002
}
1002
{
1000
REACTOR
1002
}
  0
LINE
  5
CBA9
330
1F
100
AcDbEntity
  8
waku
100
AcDbLine
 10
11.50009930607075
 20
288.4999999999999
 30
0.0
 11
11.50009930607075
 21
8.499999999999925
 31
0.0
1001
GENIUS_GENREC_14
1002
{
1000
PYDIR
1011
0.0000993060707515
1021
296.9999999999999
1031
0.0
1002
}
1002
{
1000
PXDIR
1011
420.0000993060708
1021
-0.0000000000000757
1031
0.0
1002
}
1002
{
1000
PORI
1011
0.0000993060707515
1021
-0.0000000000000757
1031
0.0
1002
}
1002
{
1000
PINS
1011
210.0000993060708
1021
148.4999999999999
1031
0.0
1002
}
1002
{
1000
HVAL
1000
297
1002
}
1002
{
1000
H
1070
     2
1002
}
1002
{
1000
WVAL
1000
420
1002
}
1002
{
1000
W
1070
     2
1002
}
1002
{
1000
C
1070
     4
1002
}
1001
GENIUS_GENOBJ-N-REC_13
1002
{
1000
OWNER
1000
GEN
1002
}
1001
GENIUS_GENODEF_13
1002
{
1000
HIER
1070
     0
1002
}
1002
{
1000
MANEDIT
1070
     0
1002
}
1002
{
1000
NOSEL
1070
     0
1002
}
1002
{
1000
BEHIND
1070
     0
1002
}
1002
{
1000
OTHER
1070
     0
1002
}
1002
{
1000
REACTOR
1002
}
  0
LINE
  5
CBAA
330
1F
100
AcDbEntity
  8
waku
100
AcDbLine
 10
408.5000993060708
 20
288.4999999999999
 30
0.0
 11
11.50009930607075
 21
288.4999999999999
 31
0.0
1001
GENIUS_GENREC_14
1002
{
1000
PYDIR
1011
0.0000993060707515
1021
296.9999999999999
1031
0.0
1002
}
1002
{
1000
PXDIR
1011
420.0000993060708
1021
-0.0000000000000757
1031
0.0
1002
}
1002
{
1000
PORI
1011
0.0000993060707515
1021
-0.0000000000000757
1031
0.0
1002
}
1002
{
1000
PINS
1011
210.0000993060708
1021
148.4999999999999
1031
0.0
1002
}
1002
{
1000
HVAL
1000
297
1002
}
1002
{
1000
H
1070
     2
1002
}
1002
{
1000
WVAL
1000
420
1002
}
1002
{
1000
W
1070
     2
1002
}
1002
{
1000
C
1070
     4
1002
}
1001
GENIUS_GENOBJ-N-REC_13
1002
{
1000
OWNER
1000
GEN
1002
}
1001
GENIUS_GENODEF_13
1002
{
1000
HIER
1070
     0
1002
}
1002
{
1000
MANEDIT
1070
     0
1002
}
1002
{
1000
NOSEL
1070
     0
1002
}
1002
{
1000
BEHIND
1070
     0
1002
}
1002
{
1000
OTHER
1070
     0
1002
}
1002
{
1000
REACTOR
1002
}
  0
TEXT
  5
CBAB
330
1F
100
AcDbEntity
  8
AM_6
 60
     1
100
AcDbText
 10
617.7526181880692
 20
-0.0000000000001513
 30
0.0
 40
2.5
  1
!GENTITLE-LL
100
AcDbText
  0
TEXT
  5
CBAC
330
1F
100
AcDbEntity
  8
AM_6
 60
     1
100
AcDbText
 10
1026.252618188069
 20
288.4999999999998
 30
0.0
 40
2.5
  1
!GENTITLE-RU
100
AcDbText
  0
TEXT
  5
CBAD
330
1F
100
AcDbEntity
  8
AM_6
 60
     1
100
AcDbText
 10
1037.752618188069
 20
296.9999999999998
 30
0.0
 40
2.5
  1
!GENTITLE-MAX
100
AcDbText
  0
TEXT
  5
CBAE
330
1F
100
AcDbEntity
  8
AM_6
 60
     1
100
AcDbText
 10
1026.252618188069
 20
8.499999999999849
 30
0.0
 40
2.5
  1
!GENTITLE-INSERT
100
AcDbText
  0
LINE
  5
CBAF
330
1F
100
AcDbEntity
  8
waku
100
AcDbLine
 10
11.50009930607075
 20
8.499999999999925
 30
0.0
 11
408.5000993060708
 21
8.499999999999925
 31
0.0
  0
XLINE
  5
CBD9
330
1F
100
AcDbEntity
  8
AM_CL
100
AcDbXline
 10
745.5405200165587
 20
27.85366305239012
 30
0.0
 11
1.0
 21
0.0
 31
0.0
  0
DIMENSION
  5
CDEA
330
1F
100
AcDbEntity
  8
AM_5
100
AcDbDimension
  2
*D27
 10
57.81995428100588
 20
92.40729297567268
 30
0.0
 11
81.24802790584813
 21
64.38600453840023
 31
0.0
 70
   163
 71
     5
 42
22.99999999999999
 73
     0
 74
     0
 75
     0
  3
SYS$3
100
AcDbDiametricDimension
 15
70.6513215398161
 25
73.31918111856295
 35
0.0
 40
0.0
1001
ACAD
1000
DSTYLE
1002
{
1070
   172
1070
     1
1070
   271
1070
     1
1070
   342
1005
C499
1002
}
  0
MTEXT
  5
CE33
330
1F
100
AcDbEntity
  8
AM_6
100
AcDbMText
 10
21.47004414146727
 20
276.4999999999999
 30
0.0
 40
3.2
 41
19.93988967079304
 46
8.000000000000014
 71
     5
 72
     5
  1
品番
 73
     1
 44
1.0
1001
ACAD
1000
ACAD_MTEXT_DEFINED_HEIGHT_BEGIN
1070
    46
1040
8.000000000000014
1000
ACAD_MTEXT_DEFINED_HEIGHT_END
  0
MTEXT
  5
CE34
330
1F
100
AcDbEntity
  8
AM_6
100
AcDbMText
 10
21.47004414146727
 20
284.4999999999999
 30
0.0
 40
3.2
 41
19.93988967079304
 46
8.000000000000014
 71
     5
 72
     5
  1
品名
 73
     1
 44
1.0
1001
ACAD
1000
ACAD_MTEXT_DEFINED_HEIGHT_BEGIN
1070
    46
1040
8.000000000000014
1000
ACAD_MTEXT_DEFINED_HEIGHT_END
  0
LINE
  5
D09C
330
1F
100
AcDbEntity
  8
AM_2
100
AcDbLine
 10
11.50009930607075
 20
256.4999999999999
 30
0.0
 11
126.5000993060706
 21
256.4999999999999
 31
0.0
  0
ENDSEC
  0
SECTION
  2
OBJECTS
  0
DICTIONARY
  5
C
330
0
100
AcDbDictionary
281
     1
  3
ACAD_BGPLOT_KEY
350
AB06
  3
ACAD_COLOR
350
A91D
  3
ACAD_DETAILVIEWSTYLE
350
CF6E
  3
ACAD_DGNDEFINITIONS
350
CEA6
  3
ACAD_DWFDEFINITIONS
350
CEA5
  3
ACAD_FIELDLIST
350
CFBE
  3
ACAD_GROUP
350
D
  3
ACAD_LAYOUT
350
1A
  3
ACAD_MATERIAL
350
A91C
  3
ACAD_MLEADERSTYLE
350
CE92
  3
ACAD_MLINESTYLE
350
17
  3
ACAD_PDFDEFINITIONS
350
CEA4
  3
ACAD_PLOTSETTINGS
350
19
  3
ACAD_PLOTSTYLENAME
350
E
  3
ACAD_SCALELIST
350
CE5D
  3
ACAD_SECTIONVIEWSTYLE
350
CF6F
  3
ACAD_TABLESTYLE
350
AAB9
  3
ACAD_VISUALSTYLE
350
B0F1
  3
AcAsAppObject
350
3DA1
  3
ACASGREF_MASTER
350
3DE9
  3
ACDB_RECOMPOSE_DATA
350
D0DC
  3
AcDbVariableDictionary
350
34
  3
AD_APPL
350
3E01
  3
AD_GREF_MODULE
350
3DEA
  3
AD_MAPI_MODULE
350
3E06
  3
ASE_INDEX_DICTIONARY
350
B331
  3
ASURF_STATIC_VARS
350
3DA2
  3
AutoSurf_SysVars
350
3DA3
  3
gmRefExt
350
CEB0
  3
HCJX_INFO
350
CEB2
  3
HCJX_INFO
350
CF12
  3
MAPISURF_MODULE
350
3DEB
  0
DICTIONARY
  5
3F95
330
2
100
AcDbDictionary
280
     1
281
     1
  3
ACAD_LAYERFILTERS
360
B466
  3
ACAD_LAYERSTATES
360
3F96
  3
ACLYDICTIONARY
360
B465
  3
AMLAYER_GROUPCOLORS
360
AAB4
  0
DICTIONARY
  5
8A
330
1F
100
AcDbDictionary
280
     1
281
     1
  3
ACAD_SORTENTS
360
B1BA
  0
DICTIONARY
  5
AB06
102
{ACAD_REACTORS
330
C
102
}
330
C
100
AcDbDictionary
280
     1
281
     1
  0
DICTIONARY
  5
A91D
102
{ACAD_REACTORS
330
C
102
}
330
C
100
AcDbDictionary
281
     1
  0
DICTIONARY
  5
CF6E
102
{ACAD_REACTORS
330
C
102
}
330
C
100
AcDbDictionary
281
     1
  3
Metric50
350
CF88
  0
DICTIONARY
  5
CEA6
102
{ACAD_REACTORS
330
C
102
}
330
C
100
AcDbDictionary
281
     1
  0
DICTIONARY
  5
CEA5
102
{ACAD_REACTORS
330
C
102
}
330
C
100
AcDbDictionary
281
     1
  0
FIELDLIST
  5
CFBE
102
{ACAD_REACTORS
330
C
102
}
330
C
100
AcDbIdSet
 90
        1
330
D048
100
AcDbFieldList
  0
DICTIONARY
  5
D
102
{ACAD_REACTORS
330
C
102
}
330
C
100
AcDbDictionary
281
     1
  0
DICTIONARY
  5
1A
102
{ACAD_REACTORS
330
C
102
}
330
C
100
AcDbDictionary
281
     1
  3
Model
350
22
  3
ﾚｲｱｳﾄ1
350
1E
  3
ﾚｲｱｳﾄ2
350
26
  0
DICTIONARY
  5
A91C
102
{ACAD_REACTORS
330
C
102
}
330
C
100
AcDbDictionary
281
     1
  3
ByBlock
350
B0EF
  3
ByLayer
350
B0EE
  3
Global
350
B0F0
  0
DICTIONARY
  5
CE92
102
{ACAD_REACTORS
330
C
102
}
330
C
100
AcDbDictionary
281
     1
  3
Standard
350
CEB1
  0
DICTIONARY
  5
17
102
{ACAD_REACTORS
330
C
102
}
330
C
100
AcDbDictionary
281
     1
  3
Standard
350
18
  0
DICTIONARY
  5
CEA4
102
{ACAD_REACTORS
330
C
102
}
330
C
100
AcDbDictionary
281
     1
  0
DICTIONARY
  5
19
102
{ACAD_REACTORS
330
C
102
}
330
C
100
AcDbDictionary
281
     1
  0
ACDBDICTIONARYWDFLT
  5
E
102
{ACAD_REACTORS
330
C
102
}
330
C
100
AcDbDictionary
281
     1
  3
Normal
350
F
100
AcDbDictionaryWithDefault
340
F
  0
DICTIONARY
  5
CE5D
102
{ACAD_REACTORS
330
C
102
}
330
C
100
AcDbDictionary
281
     1
  3
A0
350
CE5E
  3
A1
350
CE5F
  3
A2
350
CE60
  3
A3
350
CE61
  3
A4
350
CE62
  3
A5
350
CE63
  3
A6
350
CE64
  3
A7
350
CE65
  3
A8
350
CE66
  3
A9
350
CE67
  3
B0
350
CE68
  3
B1
350
CE69
  3
B2
350
CE6A
  3
B3
350
CE6B
  3
B4
350
CE6C
  3
B5
350
CE6D
  3
B6
350
CE6E
  0
DICTIONARY
  5
CF6F
102
{ACAD_REACTORS
330
C
102
}
330
C
100
AcDbDictionary
281
     1
  3
Metric50
350
CF93
  0
DICTIONARY
  5
AAB9
102
{ACAD_REACTORS
330
C
102
}
330
C
100
AcDbDictionary
281
     1
  3
Standard
350
AABA
  0
DICTIONARY
  5
B0F1
102
{ACAD_REACTORS
330
C
102
}
330
C
100
AcDbDictionary
281
     1
  3
2dWireframe
350
B0F7
  3
3D Hidden
350
B0F9
  3
3dWireframe
350
B0F8
  3
Basic
350
B0F6
  3
Brighten
350
B0FD
  3
ColorChange
350
B101
  3
Conceptual
350
B0FA
  3
Dim
350
B0FC
  3
EdgeColorOff
350
CE73
  3
Facepattern
350
B100
  3
Flat
350
B0F2
  3
FlatWithEdges
350
B0F3
  3
Gouraud
350
B0F4
  3
GouraudWithEdges
350
B0F5
  3
Hidden
350
CE70
  3
JitterOff
350
CE71
  3
Linepattern
350
B0FF
  3
OverhangOff
350
CE72
  3
Realistic
350
B0FB
  3
Shaded
350
CE78
  3
Shaded with edges
350
CE77
  3
Shades of Gray
350
CE74
  3
Sketchy
350
CE75
  3
Thicken
350
B0FE
  3
Wireframe
350
CE6F
  3
X-Ray
350
CE76
  0
ACAD_PROXY_OBJECT
  5
3DA1
102
{ACAD_REACTORS
330
C
102
}
330
C
100
AcDbProxyObject
 90
      499
 91
      576
 95
   917527
 70
     0
 93
       10
310
4040
  0
ACAD_PROXY_OBJECT
  5
3DE9
102
{ACAD_REACTORS
330
C
102
}
330
C
100
AcDbProxyObject
 90
      499
 91
      581
 95
   917527
 70
     0
 93
       34
310
0100004040
  0
XRECORD
  5
D0DC
102
{ACAD_REACTORS
330
C
102
}
330
C
100
AcDbXrecord
280
     1
 90
        1
330
AABA
  0
DICTIONARY
  5
34
102
{ACAD_REACTORS
330
C
102
}
330
C
100
AcDbDictionary
281
     1
  3
CANNOSCALE
350
D0A0
  3
CMLEADERSTYLE
350
CEB6
  3
CTABLESTYLE
350
AAF3
  3
DIMASSOC
350
A10C
  3
FIELDEVAL
350
AB07
  3
HIDETEXT
350
CECC
  3
INDEXCTL
350
35
  3
LIGHTINGUNITS
350
D0A1
  3
MSLTSCALE
350
CEB7
  3
SORTENTS
350
194C
  3
XCLIPFRAME
350
CECD
  0
ACAD_PROXY_OBJECT
  5
3E01
102
{ACAD_REACTORS
330
C
102
}
330
C
100
AcDbProxyObject
 90
      499
 91
      590
 95
    65563
 70
     0
 93
       34
310
000B000080
330
0
 94
        0
  0
ACAD_PROXY_OBJECT
  5
3DEA
102
{ACAD_REACTORS
330
C
102
}
330
C
100
AcDbProxyObject
 90
      499
 91
      582
 95
   917527
 70
     0
 93
      114
310
000000438000000000000000000000
  0
ACAD_PROXY_OBJECT
  5
3E06
102
{ACAD_REACTORS
330
C
102
}
330
C
100
AcDbProxyObject
 90
      499
 91
      594
 95
   917527
 70
     0
 93
       34
310
05000044C0
  0
DICTIONARY
  5
B331
102
{ACAD_REACTORS
330
C
102
}
330
C
100
AcDbDictionary
281
     1
  3
ASEBlockHierarchyIndexRecord
350
B332
1001
DCO15
1040
1594111214.218
  0
ACAD_PROXY_OBJECT
  5
3DA2
102
{ACAD_REACTORS
330
C
102
}
330
C
100
AcDbProxyObject
 90
      499
 91
      577
 95
    65563
 70
     0
 93
      424
310
585314D600000000000000000000000000000000000000000000000000000000000000000000000000000000000000000000000000
330
0
330
0
330
0
330
0
330
0
330
0
330
0
330
0
330
0
330
0
330
0
330
0
330
0
330
0
330
0
330
0
330
0
330
0
330
0
330
0
330
0
330
0
330
0
330
0
330
0
330
0
330
0
330
0
330
0
330
0
330
0
330
0
330
0
330
0
330
0
330
0
330
0
330
0
330
0
330
0
330
0
330
0
330
0
330
0
330
0
330
0
330
0
330
0
330
0
 94
        0
  0
ACIMSYSVARMAN
  5
3DA3
102
{ACAD_REACTORS
330
C
102
}
330
C
  0
XRECORD
  5
CEB0
102
{ACAD_REACTORS
330
C
102
}
330
C
100
AcDbXrecord
280
     1
  0
DICTIONARY
  5
CEB2
102
{ACAD_REACTORS
330
C
102
}
330
C
100
AcDbDictionary
281
     1
  3
GmRelease
350
CEB3
  3
GmTimeStamp
350
CEB4
  0
DICTIONARY
  5
CF12
102
{ACAD_REACTORS
330
C
102
}
330
C
100
AcDbDictionary
281
     1
  3
GmRelease
350
CF13
  3
GmTimeStamp
350
CF14
  0
ACAD_PROXY_OBJECT
  5
3DEB
102
{ACAD_REACTORS
330
C
102
}
330
C
100
AcDbProxyObject
 90
      499
 91
      583
 95
   917527
 70
     0
 93
        8
310
04
  0
DICTIONARY
  5
B466
102
{ACAD_REACTORS
330
3F95
102
}
330
3F95
100
AcDbDictionary
281
     1
  0
DICTIONARY
  5
3F96
102
{ACAD_REACTORS
330
3F95
102
}
330
3F95
100
AcDbDictionary
281
     1
  3
20011210
350
3FB7
  0
DICTIONARY
  5
B465
102
{ACAD_REACTORS
330
3F95
102
}
330
3F95
100
AcDbDictionary
281
     1
1001
ACAD
1000
<All
  0
DICTIONARY
  5
AAB4
102
{ACAD_REACTORS
330
3F95
102
}
330
3F95
100
AcDbDictionary
280
     1
281
     1
  0
SORTENTSTABLE
  5
B1BA
102
{ACAD_REACTORS
330
8A
102
}
330
8A
100
AcDbSortentsTable
330
1F
331
BCC7
  5
BCC7
331
BCC8
  5
BCC8
331
BCC9
  5
BCC9
331
BCCA
  5
BCCA
331
C535
  5
C535
331
C68F
  5
C6A2
331
C690
  5
C6A3
331
C691
  5
C6A4
331
C692
  5
C6A5
331
C693
  5
C6A6
331
C694
  5
C6A7
331
C695
  5
C6A8
331
C696
  5
C6A9
331
C697
  5
C6AA
331
C698
  5
C6AB
331
C699
  5
C6AC
331
C69A
  5
C6AD
331
C69B
  5
C6AE
331
C69C
  5
C6AF
331
C69D
  5
C6B0
331
C69E
  5
C6B1
331
C69F
  5
C6B2
331
C6A0
  5
C6B3
331
C6A1
  5
C6B4
331
C6A2
  5
C6B5
331
C6A3
  5
C6B6
331
C6A4
  5
C6B7
331
C6A5
  5
C6B8
331
C6A6
  5
C6B9
331
C6A7
  5
C6BA
331
C6A8
  5
C6BB
331
C6A9
  5
C6BC
331
C6AA
  5
C6BD
331
C6AB
  5
C6BE
331
C6AC
  5
C6BF
331
C6AD
  5
C6C0
331
C6AE
  5
C6C1
331
C6AF
  5
C6C2
331
C6B0
  5
C6C3
331
C6B1
  5
C6C4
331
C6B2
  5
C6C5
331
C6B3
  5
C6C6
331
C6B4
  5
C6C7
331
C6B5
  5
C6C8
331
C6B6
  5
C6C9
331
C6B7
  5
C6CA
331
C6B8
  5
C6CB
331
C6B9
  5
C6CC
331
C6BA
  5
C6CD
331
C6BB
  5
C6CE
331
C6BC
  5
C6CF
331
C6BD
  5
C6D0
331
C6BE
  5
C6D1
331
C6BF
  5
C6D2
331
C6C0
  5
C6D3
331
C6C1
  5
C6D4
331
C6C2
  5
C6D5
331
C6C3
  5
C6D6
331
C6C4
  5
C6D7
331
C6C5
  5
C6D8
331
C6C6
  5
C6D9
331
C6C7
  5
C6DA
331
C6C8
  5
C6DB
331
C6C9
  5
C6DC
331
C6CA
  5
C6DD
331
C6CB
  5
C6DE
331
C6CC
  5
C6DF
331
C6CD
  5
C6E0
331
C6CE
  5
C6E1
331
C6CF
  5
C6E2
331
C6D0
  5
C6E3
331
C6D1
  5
C6E4
331
C6D2
  5
C6E5
331
C6D3
  5
C6E6
331
C6D4
  5
C6E7
331
C6D5
  5
C6E8
331
C6D6
  5
C6E9
331
C6D7
  5
C6EA
331
C6D8
  5
C6EB
331
C6D9
  5
C6EC
331
C6DA
  5
C6ED
331
C6DB
  5
C6EE
331
C6DC
  5
C6EF
331
C6DD
  5
C6F0
331
C6DE
  5
C6F1
331
C6DF
  5
C6F2
331
C6E0
  5
C6F3
331
C6E1
  5
C6F4
331
C6E2
  5
C6F5
331
C6E3
  5
C6F6
331
C6E4
  5
C6F7
331
C6E5
  5
C6F8
331
C6E6
  5
C6F9
331
C6E7
  5
C6FA
331
C6E8
  5
C6FB
331
C6E9
  5
C6FC
331
C6EA
  5
C6FD
331
C6EB
  5
C6FE
331
C6EC
  5
C6FF
331
C6ED
  5
C700
331
C6EE
  5
C701
331
C6EF
  5
C702
331
C6F0
  5
C703
331
C6F1
  5
C704
331
C6F2
  5
C705
331
C6F3
  5
C706
331
C6F4
  5
C707
331
C6F5
  5
C708
331
C6F6
  5
C709
331
C6F7
  5
C70A
331
C6F8
  5
C70B
331
C6F9
  5
C70C
331
C6FA
  5
C70D
331
C6FB
  5
C70E
331
C6FC
  5
C70F
331
C6FD
  5
C710
331
C6FE
  5
C711
331
C6FF
  5
C713
331
C700
  5
C7F0
331
C701
  5
C7F1
331
C702
  5
C7F2
331
C703
  5
C7F3
331
C704
  5
C7F4
331
C705
  5
C7F5
331
C706
  5
C7F6
331
C707
  5
C7F7
331
C708
  5
C7F8
331
C709
  5
C7F9
331
C70B
  5
C7FB
331
C70C
  5
C7FC
331
C70D
  5
C7FD
331
C70E
  5
C7FE
331
C70F
  5
C7FF
331
C710
  5
C800
331
C711
  5
C801
331
C713
  5
C802
331
C7F0
  5
C803
331
C7F1
  5
C804
331
C7F2
  5
C805
331
0
  5
C806
331
C7F4
  5
C807
331
C7F5
  5
C808
331
C7F6
  5
C809
331
C7F9
  5
C80C
331
C7FA
  5
C84B
331
C7FB
  5
C84C
331
0
  5
C84D
331
C7FD
  5
C84E
331
C7FE
  5
C84F
331
C7FF
  5
C850
331
C800
  5
C851
331
C801
  5
C852
331
C802
  5
C853
331
C803
  5
C854
331
C804
  5
C855
331
0
  5
C856
331
C806
  5
C857
331
C807
  5
C858
331
0
  5
C859
331
C809
  5
C85A
331
C80A
  5
C85B
331
0
  5
C85C
331
C80C
  5
C85D
331
0
  5
C85E
331
0
  5
C85F
331
0
  5
C860
331
0
  5
C861
331
0
  5
C862
331
0
  5
C863
331
0
  5
C864
331
0
  5
C865
331
0
  5
C866
331
0
  5
C867
331
0
  5
C868
331
0
  5
C869
331
0
  5
C86A
331
0
  5
C86B
331
0
  5
C86C
331
0
  5
C86D
331
0
  5
C86E
331
0
  5
C86F
331
0
  5
C870
331
0
  5
C871
331
0
  5
C872
331
0
  5
C873
331
0
  5
C874
331
0
  5
C875
331
0
  5
C876
331
0
  5
C877
331
0
  5
C878
331
0
  5
C879
331
0
  5
C87A
331
0
  5
C87B
331
0
  5
C87C
331
0
  5
C87D
331
0
  5
C87E
331
0
  5
C87F
331
0
  5
C880
331
0
  5
C881
331
0
  5
C882
331
0
  5
C883
331
0
  5
C884
331
0
  5
C885
331
0
  5
C886
331
0
  5
C887
331
0
  5
C888
331
0
  5
C933
331
0
  5
C934
331
0
  5
C935
331
0
  5
C936
331
0
  5
C937
331
0
  5
C938
331
0
  5
C939
331
0
  5
C93A
331
0
  5
C93B
331
0
  5
C93C
331
0
  5
C93D
331
0
  5
C93E
331
0
  5
C93F
331
0
  5
C940
331
0
  5
C941
331
0
  5
C942
331
0
  5
C943
331
0
  5
C944
331
0
  5
C945
331
C933
  5
C946
331
C934
  5
C947
331
C935
  5
C948
331
C936
  5
C949
331
C937
  5
C94A
331
C938
  5
C94B
331
C939
  5
C94C
331
C93A
  5
C94D
331
C93B
  5
C94E
331
C93C
  5
C94F
331
C93D
  5
C950
331
C93E
  5
C951
331
C93F
  5
C952
331
C940
  5
C953
331
C941
  5
C954
331
C942
  5
C955
331
C943
  5
C956
331
C944
  5
C957
331
C945
  5
C958
331
C946
  5
C959
331
C947
  5
C95A
331
C948
  5
C95B
331
C949
  5
C95C
331
C94A
  5
C95D
331
C94B
  5
C95E
331
C94C
  5
C95F
331
C94D
  5
C960
331
C94E
  5
C961
331
C94F
  5
C962
331
C950
  5
C963
331
C951
  5
C964
331
C952
  5
C9C8
331
C953
  5
C9C9
331
C954
  5
C9CA
331
C955
  5
C9CB
331
C956
  5
C9CC
331
C957
  5
C9CD
331
C958
  5
C9CE
331
C959
  5
C9CF
331
C95A
  5
C9D0
331
C95B
  5
C9D1
331
C95C
  5
C9D2
331
C95D
  5
C9D3
331
C95E
  5
C9D4
331
C95F
  5
C9D5
331
C960
  5
C9D6
331
C961
  5
C9D7
331
C962
  5
C9D8
331
C963
  5
C9D9
331
C964
  5
C9DA
331
C9C8
  5
C9DB
331
C9C9
  5
C9DC
331
C9CA
  5
C9DD
331
C9CB
  5
C9DE
331
C9CC
  5
C9DF
331
C9CD
  5
C9E0
331
C9CE
  5
C9E1
331
C9CF
  5
C9E2
331
C9D0
  5
C9E3
331
C9D1
  5
C9E4
331
C9D2
  5
C9E5
331
C9D3
  5
C9E6
331
C9D4
  5
C9E7
331
C9D5
  5
C9E8
331
C9D6
  5
C9E9
331
C9D7
  5
C9EA
331
C9D8
  5
C9EB
331
C9D9
  5
C9EC
331
C9DA
  5
C9ED
331
C9DB
  5
C9EE
331
C9DC
  5
C9EF
331
C9DD
  5
C9F0
331
C9DE
  5
C9F1
331
C9DF
  5
C9F2
331
C9E0
  5
C9F3
331
C9E1
  5
C9F4
331
C9E2
  5
C9F5
331
C9E3
  5
C9F6
331
C9E4
  5
C9F7
331
C9E5
  5
C9F8
331
C9E6
  5
C9F9
331
C9E7
  5
C9FA
331
C9E8
  5
C9FB
331
C9E9
  5
C9FC
331
C9EA
  5
C9FD
331
C9EB
  5
C9FE
331
C9EC
  5
CBA0
331
C9ED
  5
CBA1
331
C9EE
  5
CBA2
331
C9EF
  5
CBA3
331
C9F0
  5
CBA4
331
C9F1
  5
CBA5
331
C9F2
  5
CBA6
331
C9F3
  5
CBA7
331
C9F4
  5
CBA8
331
C9F5
  5
CBA9
331
C9F6
  5
CBAA
331
C9F7
  5
CBAB
331
C9F8
  5
CBAC
331
C9F9
  5
CBAD
331
C9FA
  5
CBAE
331
C9FB
  5
CBAF
331
C9FC
  5
CBB0
331
C9FD
  5
CBB1
331
C9FE
  5
CBB2
331
CBA0
  5
C68F
331
CBA1
  5
C690
331
CBA2
  5
C691
331
CBA3
  5
C692
331
CBA4
  5
C693
331
CBA5
  5
C694
331
CBA6
  5
C695
331
CBA7
  5
C696
331
CBA8
  5
C697
331
CBA9
  5
C698
331
CBAA
  5
C699
331
CBAB
  5
C69A
331
CBAC
  5
C69B
331
CBAD
  5
C69C
331
CBAE
  5
C69D
331
CBAF
  5
C69E
  0
ACDBDETAILVIEWSTYLE
  5
CF88
102
{ACAD_REACTORS
330
CF6E
102
}
102
{ACAD_XDICTIONARY
360
CF89
102
}
330
CF6E
100
AcDbModelDocViewStyle
 70
     0
  3
Metric50
290
     1
100
AcDbDetailViewStyle
 70
     0
 71
     0
 90
        3
 71
     1
340
11
 62
   256
 40
5.0
340
0
 62
   256
 40
5.0
300

 40
0.0
280
     1
 71
     2
340
16
 90
       25
 62
   256
 71
     3
340
11
 62
   256
 40
5.0
 90
        0
 40
15.0
 90
        1
300
%<\AcVar ViewDetailId>% (%<\AcVar ViewScale \f "%sn">%)
 71
     4
340
16
 90
       25
 62
   256
340
16
 90
       25
 62
   256
280
     0
  0
LAYOUT
  5
22
102
{ACAD_REACTORS
330
1A
102
}
330
1A
100
AcDbPlotSettings
  1

  2
Adobe PDF
  4
A3
  6
AM_VIEW1
 40
3.174999952316284
 41
3.174999952316284
 42
3.17498779296875
 43
3.17498779296875
 44
297.0318298339844
 45
420.1583251953125
 46
-3.179585068016422
 47
-3.118323684999268
 48
214.3704939521119
 49
367.5855324241176
140
275.6727856380065
141
407.6291914078171
142
1.0
143
1.0
 70
  3748
 72
     1
 73
     1
 74
     1
  7
monochrome.ctb
 75
     0
 76
     0
 77
     2
 78
   200
147
0.9787267410393917
148
0.0158256666172747
149
0.0223196828733307
100
AcDbLayout
  1
Model
 70
     1
 71
     0
 10
0.0
 20
0.0
 11
12.0
 21
9.0
 12
0.0
 22
0.0
 32
0.0
 14
0.0000993060707515
 24
-0.0000000000000757
 34
0.0
 15
420.0000993060708
 25
296.9999999999999
 35
0.0
146
0.0
 13
0.0
 23
0.0
 33
0.0
 16
1.0
 26
0.0
 36
0.0
 17
0.0
 27
1.0
 37
0.0
 76
     0
330
1F
331
B0EC
1001
ACAD_PSEXT
1000
Adobe PDF
1000
Adobe PDF Converter
1000
My Documents\*.pdf
1000

1070
     0
  0
LAYOUT
  5
1E
102
{ACAD_REACTORS
330
1A
102
}
330
1A
100
AcDbPlotSettings
  1

  2
\\ML370\XEROX
  4
A4
  6

 40
3.174999952316284
 41
3.174999952316284
 42
3.175003051757812
 43
3.17498779296875
 44
209.8674926757812
 45
296.6719970703125
 46
0.0
 47
0.0
 48
0.0
 49
0.0
140
0.0
141
0.0
142
1.0
143
1.0
 70
   688
 72
     1
 73
     1
 74
     5
  7
monochrome.ctb
 75
    16
 76
     0
 77
     2
 78
   300
147
1.0
148
0.0
149
0.0
100
AcDbLayout
  1
ﾚｲｱｳﾄ1
 70
     1
 71
     1
 10
-3.17498779296875
 20
-3.174999952316284
 11
293.4970092773438
 21
206.692492723465
 12
0.0
 22
0.0
 32
0.0
 14
1.000000000000000E+20
 24
1.000000000000000E+20
 34
1.000000000000000E+20
 15
-1.000000000000000E+20
 25
-1.000000000000000E+20
 35
-1.000000000000000E+20
146
0.0
 13
0.0
 23
0.0
 33
0.0
 16
1.0
 26
0.0
 36
0.0
 17
0.0
 27
1.0
 37
0.0
 76
     0
330
1B
  0
LAYOUT
  5
26
102
{ACAD_REACTORS
330
1A
102
}
330
1A
100
AcDbPlotSettings
  1

  2
\\ML370\XEROX
  4

  6

 40
0.0
 41
0.0
 42
0.0
 43
0.0
 44
0.0
 45
0.0
 46
0.0
 47
0.0
 48
0.0
 49
0.0
140
0.0
141
0.0
142
1.0
143
1.0
 70
   688
 72
     0
 73
     0
 74
     5
  7
monochrome.ctb
 75
    16
 76
     0
 77
     2
 78
   300
147
1.0
148
0.0
149
0.0
100
AcDbLayout
  1
ﾚｲｱｳﾄ2
 70
     1
 71
     2
 10
0.0
 20
0.0
 11
12.0
 21
9.0
 12
0.0
 22
0.0
 32
0.0
 14
0.0
 24
0.0
 34
0.0
 15
0.0
 25
0.0
 35
0.0
146
0.0
 13
0.0
 23
0.0
 33
0.0
 16
1.0
 26
0.0
 36
0.0
 17
0.0
 27
1.0
 37
0.0
 76
     0
330
23
  0
MATERIAL
  5
B0EF
102
{ACAD_REACTORS
330
A91C
102
}
330
A91C
100
AcDbMaterial
  1
ByBlock
 72
     1
 94
       63
  0
MATERIAL
  5
B0EE
102
{ACAD_REACTORS
330
A91C
102
}
330
A91C
100
AcDbMaterial
  1
ByLayer
 72
     1
 94
       63
  0
MATERIAL
  5
B0F0
102
{ACAD_REACTORS
330
A91C
102
}
330
A91C
100
AcDbMaterial
  1
Global
 72
     1
 94
       63
  0
MLEADERSTYLE
  5
CEB1
102
{ACAD_REACTORS
330
CE92
102
}
102
{ACAD_XDICTIONARY
360
D0A3
102
}
330
CE92
100
AcDbMLeaderStyle
170
     2
171
     1
172
     0
 90
        2
 40
0.0
 41
0.0
173
     1
 91
-1056964608
340
15
 92
       -2
290
     1
 42
2.0
291
     1
 43
8.0
  3
Standard
341
0
 44
4.0
300

342
11
174
     1
178
     6
175
     1
176
     0
 93
-1056964608
 45
4.0
292
     0
297
     0
 46
4.0
343
0
 94
-1056964608
 47
1.0
 49
1.0
140
1.0
293
     1
141
0.0
294
     1
177
     0
142
1.0
295
     0
296
     0
143
3.75
1001
ACAD_MLEADERVER
1070
     2
  0
MLINESTYLE
  5
18
102
{ACAD_REACTORS
330
17
102
}
330
17
100
AcDbMlineStyle
  2
STANDARD
 70
     0
  3

 62
   256
 51
90.0
 52
90.0
 71
     2
 49
0.5
 62
   256
  6
BYLAYER
 49
-0.5
 62
   256
  6
BYLAYER
  0
ACDBPLACEHOLDER
  5
F
102
{ACAD_REACTORS
330
E
102
}
330
E
  0
SCALE
  5
CE5E
102
{ACAD_REACTORS
330
CE5D
102
}
330
CE5D
100
AcDbScale
 70
     0
300
1:1
140
1.0
141
1.0
290
     1
  0
SCALE
  5
CE5F
102
{ACAD_REACTORS
330
CE5D
102
}
330
CE5D
100
AcDbScale
 70
     0
300
1:2
140
1.0
141
2.0
290
     0
  0
SCALE
  5
CE60
102
{ACAD_REACTORS
330
CE5D
102
}
330
CE5D
100
AcDbScale
 70
     0
300
1:4
140
1.0
141
4.0
290
     0
  0
SCALE
  5
CE61
102
{ACAD_REACTORS
330
CE5D
102
}
330
CE5D
100
AcDbScale
 70
     0
300
1:5
140
1.0
141
5.0
290
     0
  0
SCALE
  5
CE62
102
{ACAD_REACTORS
330
CE5D
102
}
330
CE5D
100
AcDbScale
 70
     0
300
1:8
140
1.0
141
8.0
290
     0
  0
SCALE
  5
CE63
102
{ACAD_REACTORS
330
CE5D
102
}
330
CE5D
100
AcDbScale
 70
     0
300
1:10
140
1.0
141
10.0
290
     0
  0
SCALE
  5
CE64
102
{ACAD_REACTORS
330
CE5D
102
}
330
CE5D
100
AcDbScale
 70
     0
300
1:16
140
1.0
141
16.0
290
     0
  0
SCALE
  5
CE65
102
{ACAD_REACTORS
330
CE5D
102
}
330
CE5D
100
AcDbScale
 70
     0
300
1:20
140
1.0
141
20.0
290
     0
  0
SCALE
  5
CE66
102
{ACAD_REACTORS
330
CE5D
102
}
330
CE5D
100
AcDbScale
 70
     0
300
1:30
140
1.0
141
30.0
290
     0
  0
SCALE
  5
CE67
102
{ACAD_REACTORS
330
CE5D
102
}
330
CE5D
100
AcDbScale
 70
     0
300
1:40
140
1.0
141
40.0
290
     0
  0
SCALE
  5
CE68
102
{ACAD_REACTORS
330
CE5D
102
}
330
CE5D
100
AcDbScale
 70
     0
300
1:50
140
1.0
141
50.0
290
     0
  0
SCALE
  5
CE69
102
{ACAD_REACTORS
330
CE5D
102
}
330
CE5D
100
AcDbScale
 70
     0
300
1:100
140
1.0
141
100.0
290
     0
  0
SCALE
  5
CE6A
102
{ACAD_REACTORS
330
CE5D
102
}
330
CE5D
100
AcDbScale
 70
     0
300
2:1
140
2.0
141
1.0
290
     0
  0
SCALE
  5
CE6B
102
{ACAD_REACTORS
330
CE5D
102
}
330
CE5D
100
AcDbScale
 70
     0
300
4:1
140
4.0
141
1.0
290
     0
  0
SCALE
  5
CE6C
102
{ACAD_REACTORS
330
CE5D
102
}
330
CE5D
100
AcDbScale
 70
     0
300
8:1
140
8.0
141
1.0
290
     0
  0
SCALE
  5
CE6D
102
{ACAD_REACTORS
330
CE5D
102
}
330
CE5D
100
AcDbScale
 70
     0
300
10:1
140
10.0
141
1.0
290
     0
  0
SCALE
  5
CE6E
102
{ACAD_REACTORS
330
CE5D
102
}
330
CE5D
100
AcDbScale
 70
     0
300
100:1
140
100.0
141
1.0
290
     0
  0
ACDBSECTIONVIEWSTYLE
  5
CF93
102
{ACAD_REACTORS
330
CF6F
102
}
102
{ACAD_XDICTIONARY
360
CF94
102
}
330
CF6F
100
AcDbModelDocViewStyle
 70
     0
  3
Metric50
290
     1
100
AcDbSectionViewStyle
 70
     0
 71
     0
 90
      102
 71
     1
340
11
 62
   256
 40
5.0
340
0
340
0
 62
   256
 40
5.0
300
I, O, Q, S, X, Z
 40
10.0
 90
        0
 40
2.5
 90
        0
 71
     2
340
16
 90
       25
 62
   256
340
16
 90
       50
 62
   256
 40
5.0
 40
2.5
 40
5.0
 71
     3
340
11
 62
   256
 40
5.0
 90
        0
 40
15.0
 90
        1
300
%<\AcVar ViewSectionStartId>%-%<\AcVar ViewSectionEndId>% (%<\AcVar ViewScale \f "%sn">%)
 71
     4
 62
   256
 62
   257
300
ANSI31
 40
1.0
 90
        0
290
     0
290
     0
 90
        6
 40
0.0
 40
1.570796326794897
 40
0.2617993877991494
 40
1.308996938995747
 40
-0.2617993877991494
 40
1.832595714594046
  0
TABLESTYLE
  5
AABA
102
{ACAD_REACTORS
330
AAB9
102
}
102
{ACAD_XDICTIONARY
360
D0A6
102
}
330
AAB9
100
AcDbTableStyle
  3
Standard
 70
     0
 71
     0
 40
1.5
 41
1.5
280
     0
281
     0
  7
STANDARD
140
4.5
170
     2
 62
     0
 63
   257
283
     0
 90
      512
 91
        0
  1

274
    -2
284
     1
 64
     0
275
    -2
285
     1
 65
     0
276
    -2
286
     1
 66
     0
277
    -2
287
     1
 67
     0
278
    -2
288
     1
 68
     0
279
    -2
289
     1
 69
     0
  7
STANDARD
140
6.0
170
     5
 62
     0
 63
   257
283
     0
 90
      512
 91
        0
  1

274
    -2
284
     1
 64
     0
275
    -2
285
     1
 65
     0
276
    -2
286
     1
 66
     0
277
    -2
287
     1
 67
     0
278
    -2
288
     1
 68
     0
279
    -2
289
     1
 69
     0
  7
STANDARD
140
4.5
170
     5
 62
     0
 63
   257
283
     0
 90
      512
 91
        0
  1

274
    -2
284
     1
 64
     0
275
    -2
285
     1
 65
     0
276
    -2
286
     1
 66
     0
277
    -2
287
     1
 67
     0
278
    -2
288
     1
 68
     0
279
    -2
289
     1
 69
     0
  0
VISUALSTYLE
  5
B0F7
102
{ACAD_REACTORS
330
B0F1
102
}
102
{ACAD_XDICTIONARY
360
D0A8
102
}
330
B0F1
100
AcDbVisualStyle
  2
2dWireframe
 70
     4
 71
     0
 72
     2
 73
     0
 90
        0
 40
-0.6
 41
-30.0
 62
     5
 63
     7
 74
     1
 91
        4
 64
     7
 65
   257
 75
     1
175
     1
 42
1.0
 92
        0
 66
   257
 43
1.0
 76
     1
 77
     6
 78
     2
 67
     7
 79
     5
170
     0
171
     0
290
     0
174
     0
 93
        1
 44
0.0
173
     0
291
     0
 45
0.0
  0
VISUALSTYLE
  5
B0F9
102
{ACAD_REACTORS
330
B0F1
102
}
102
{ACAD_XDICTIONARY
360
D0AA
102
}
330
B0F1
100
AcDbVisualStyle
  2
3D Hidden
 70
     6
 71
     1
 72
     2
 73
     2
 90
        0
 40
-0.6
 41
-30.0
 62
     5
 63
     7
 74
     2
 91
        2
 64
     7
 65
   257
 75
     2
175
     1
 42
40.0
 92
        0
 66
   257
 43
1.0
 76
     1
 77
     6
 78
     2
 67
     7
 79
     3
170
     0
171
     0
290
     0
174
     0
 93
        1
 44
0.0
173
     0
291
     0
 45
0.0
  0
VISUALSTYLE
  5
B0F8
102
{ACAD_REACTORS
330
B0F1
102
}
102
{ACAD_XDICTIONARY
360
D0AC
102
}
330
B0F1
100
AcDbVisualStyle
  2
3dWireframe
 70
     5
 71
     0
 72
     2
 73
     0
 90
        0
 40
-0.6
 41
-30.0
 62
     5
 63
     7
 74
     1
 91
        4
 64
     7
 65
   257
 75
     1
175
     1
 42
1.0
 92
        0
 66
   257
 43
1.0
 76
     1
 77
     6
 78
     2
 67
     7
 79
     5
170
     0
171
     0
290
     0
174
     0
 93
        1
 44
0.0
173
     0
291
     0
 45
0.0
  0
VISUALSTYLE
  5
B0F6
102
{ACAD_REACTORS
330
B0F1
102
}
102
{ACAD_XDICTIONARY
360
D0AE
102
}
330
B0F1
100
AcDbVisualStyle
  2
Basic
 70
     7
 71
     1
 72
     0
 73
     1
 90
        0
 40
-0.6
 41
-30.0
 62
     5
 63
     7
 74
     0
 91
        4
 64
     7
 65
   257
 75
     1
175
     1
 42
1.0
 92
        8
 66
     7
 43
1.0
 76
     1
 77
     6
 78
     2
 67
     7
 79
     5
170
     0
171
     0
290
     0
174
     0
 93
        1
 44
0.0
173
     0
291
     1
 45
0.0
  0
VISUALSTYLE
  5
B0FD
102
{ACAD_REACTORS
330
B0F1
102
}
102
{ACAD_XDICTIONARY
360
D0B0
102
}
330
B0F1
100
AcDbVisualStyle
  2
Brighten
 70
    12
 71
     2
 72
     2
 73
     0
 90
        0
 40
-0.6
 41
-30.0
 62
     5
 63
     7
 74
     1
 91
        4
 64
     7
 65
   257
 75
     1
175
     1
 42
1.0
 92
        8
 66
     7
 43
1.0
 76
     1
 77
     6
 78
     2
 67
     7
 79
     5
170
     0
171
     0
290
     0
174
     0
 93
        1
 44
50.0
173
     0
291
     1
 45
0.0
  0
VISUALSTYLE
  5
B101
102
{ACAD_REACTORS
330
B0F1
102
}
102
{ACAD_XDICTIONARY
360
D0B2
102
}
330
B0F1
100
AcDbVisualStyle
  2
ColorChange
 70
    16
 71
     2
 72
     2
 73
     3
 90
        0
 40
-0.6
 41
-30.0
 62
     5
 63
     8
 74
     1
 91
        4
 64
     7
 65
   257
 75
     1
175
     1
 42
1.0
 92
        8
 66
     8
 43
1.0
 76
     1
 77
     6
 78
     2
 67
     7
 79
     5
170
     0
171
     0
290
     0
174
     0
 93
        1
 44
0.0
173
     0
291
     1
 45
0.0
  0
VISUALSTYLE
  5
B0FA
102
{ACAD_REACTORS
330
B0F1
102
}
102
{ACAD_XDICTIONARY
360
D0B4
102
}
330
B0F1
100
AcDbVisualStyle
  2
Conceptual
 70
     9
 71
     3
 72
     2
 73
     0
 90
        0
 40
-0.6
 41
-30.0
 62
     5
 63
     7
 74
     2
 91
        2
 64
     7
 65
   257
 75
     1
175
     1
 42
40.0
 92
        8
 66
     7
 43
1.0
 76
     1
 77
     6
 78
     2
 67
     7
 79
     3
170
     0
171
     0
290
     0
174
     0
 93
        1
 44
0.0
173
     0
291
     0
 45
0.0
  0
VISUALSTYLE
  5
B0FC
102
{ACAD_REACTORS
330
B0F1
102
}
102
{ACAD_XDICTIONARY
360
D0B6
102
}
330
B0F1
100
AcDbVisualStyle
  2
Dim
 70
    11
 71
     2
 72
     2
 73
     0
 90
        0
 40
-0.6
 41
-30.0
 62
     5
 63
     7
 74
     1
 91
        4
 64
     7
 65
   257
 75
     1
175
     1
 42
1.0
 92
        8
 66
     7
 43
1.0
 76
     1
 77
     6
 78
     2
 67
     7
 79
     5
170
     0
171
     0
290
     0
174
     0
 93
        1
 44
-50.0
173
     0
291
     1
 45
0.0
  0
VISUALSTYLE
  5
CE73
102
{ACAD_REACTORS
330
B0F1
102
}
102
{ACAD_XDICTIONARY
360
D0B8
102
}
330
B0F1
100
AcDbVisualStyle
  2
EdgeColorOff
 70
    22
 71
     2
 72
     2
 73
     0
 90
        0
 40
0.6
 41
30.0
 62
     5
 63
     7
 74
     1
 91
        4
 64
     7
 65
   257
 75
     1
175
     1
 42
1.0
 92
        8
 66
     7
 43
1.0
 76
     1
 77
     6
 78
     2
 67
     7
 79
     5
170
     0
171
     0
290
     0
174
     0
 93
        1
 44
0.0
173
     0
291
     1
 45
0.0
  0
VISUALSTYLE
  5
B100
102
{ACAD_REACTORS
330
B0F1
102
}
102
{ACAD_XDICTIONARY
360
D0BA
102
}
330
B0F1
100
AcDbVisualStyle
  2
Facepattern
 70
    15
 71
     2
 72
     2
 73
     0
 90
        0
 40
-0.6
 41
-30.0
 62
     5
 63
     7
 74
     1
 91
        4
 64
     7
 65
   257
 75
     1
175
     1
 42
1.0
 92
        8
 66
     7
 43
1.0
 76
     1
 77
     6
 78
     2
 67
     7
 79
     5
170
     0
171
     0
290
     0
174
     0
 93
        1
 44
0.0
173
     0
291
     1
 45
0.0
  0
VISUALSTYLE
  5
B0F2
102
{ACAD_REACTORS
330
B0F1
102
}
102
{ACAD_XDICTIONARY
360
D0BC
102
}
330
B0F1
100
AcDbVisualStyle
  2
Flat
 70
     0
 71
     2
 72
     1
 73
     1
 90
        2
 40
-0.6
 41
30.0
 62
     5
 63
     7
 74
     0
 91
        4
 64
     7
 65
   257
 75
     1
175
     1
 42
1.0
 92
        8
 66
     7
 43
1.0
 76
     1
 77
     6
 78
     2
 67
     7
 79
     5
170
     0
171
     0
290
     0
174
     0
 93
       13
 44
0.0
173
     0
291
     1
 45
0.0
  0
VISUALSTYLE
  5
B0F3
102
{ACAD_REACTORS
330
B0F1
102
}
102
{ACAD_XDICTIONARY
360
D0BE
102
}
330
B0F1
100
AcDbVisualStyle
  2
FlatWithEdges
 70
     1
 71
     2
 72
     1
 73
     1
 90
        2
 40
-0.6
 41
30.0
 62
     5
 63
     7
 74
     1
 91
        4
 64
     7
 65
   257
 75
     1
175
     1
 42
1.0
 92
        0
 66
   257
 43
1.0
 76
     1
 77
     6
 78
     2
 67
     7
 79
     5
170
     0
171
     0
290
     0
174
     0
 93
       13
 44
0.0
173
     0
291
     1
 45
0.0
  0
VISUALSTYLE
  5
B0F4
102
{ACAD_REACTORS
330
B0F1
102
}
102
{ACAD_XDICTIONARY
360
D0C0
102
}
330
B0F1
100
AcDbVisualStyle
  2
Gouraud
 70
     2
 71
     2
 72
     2
 73
     1
 90
        2
 40
-0.6
 41
30.0
 62
     5
 63
     7
 74
     0
 91
        4
 64
     7
 65
   257
 75
     1
175
     1
 42
1.0
 92
        0
 66
     7
 43
1.0
 76
     1
 77
     6
 78
     2
 67
     7
 79
     5
170
     0
171
     0
290
     0
174
     0
 93
       13
 44
0.0
173
     0
291
     1
 45
0.0
  0
VISUALSTYLE
  5
B0F5
102
{ACAD_REACTORS
330
B0F1
102
}
102
{ACAD_XDICTIONARY
360
D0C2
102
}
330
B0F1
100
AcDbVisualStyle
  2
GouraudWithEdges
 70
     3
 71
     2
 72
     2
 73
     1
 90
        2
 40
-0.6
 41
30.0
 62
     5
 63
     7
 74
     1
 91
        4
 64
     7
 65
   257
 75
     1
175
     1
 42
1.0
 92
        0
 66
   257
 43
1.0
 76
     1
 77
     6
 78
     2
 67
     7
 79
     5
170
     0
171
     0
290
     0
174
     0
 93
       13
 44
0.0
173
     0
291
     1
 45
0.0
  0
VISUALSTYLE
  5
CE70
102
{ACAD_REACTORS
330
B0F1
102
}
102
{ACAD_XDICTIONARY
360
D0C4
102
}
330
B0F1
100
AcDbVisualStyle
  2
Hidden
 70
     6
 71
     1
 72
     2
 73
     2
 90
        0
 40
0.6
 41
30.0
 62
     5
 63
     7
 74
     2
 91
        2
 64
     7
 65
   257
 75
     2
175
     1
 42
40.0
 92
        0
 66
   257
 43
1.0
 76
     1
 77
     6
 78
     2
 67
     7
 79
     3
170
     0
171
     0
290
     0
174
     0
 93
        1
 44
0.0
173
     0
291
     0
 45
0.0
  0
VISUALSTYLE
  5
CE71
102
{ACAD_REACTORS
330
B0F1
102
}
102
{ACAD_XDICTIONARY
360
D0C6
102
}
330
B0F1
100
AcDbVisualStyle
  2
JitterOff
 70
    20
 71
     2
 72
     2
 73
     0
 90
        0
 40
0.6
 41
30.0
 62
     5
 63
     7
 74
     1
 91
        4
 64
     7
 65
   257
 75
     1
175
     1
 42
1.0
 92
       10
 66
     7
 43
1.0
 76
     1
 77
     6
 78
     2
 67
     7
 79
     5
170
     0
171
     0
290
     0
174
     0
 93
        1
 44
0.0
173
     0
291
     1
 45
0.0
  0
VISUALSTYLE
  5
B0FF
102
{ACAD_REACTORS
330
B0F1
102
}
102
{ACAD_XDICTIONARY
360
D0C8
102
}
330
B0F1
100
AcDbVisualStyle
  2
Linepattern
 70
    14
 71
     2
 72
     2
 73
     0
 90
        0
 40
-0.6
 41
-30.0
 62
     5
 63
     7
 74
     1
 91
        4
 64
     7
 65
   257
 75
     7
175
     7
 42
1.0
 92
        8
 66
     7
 43
1.0
 76
     1
 77
     6
 78
     2
 67
     7
 79
     5
170
     0
171
     0
290
     0
174
     0
 93
        1
 44
0.0
173
     0
291
     1
 45
0.0
  0
VISUALSTYLE
  5
CE72
102
{ACAD_REACTORS
330
B0F1
102
}
102
{ACAD_XDICTIONARY
360
D0CA
102
}
330
B0F1
100
AcDbVisualStyle
  2
OverhangOff
 70
    21
 71
     2
 72
     2
 73
     0
 90
        0
 40
0.6
 41
30.0
 62
     5
 63
     7
 74
     1
 91
        4
 64
     7
 65
   257
 75
     1
175
     1
 42
1.0
 92
        9
 66
     7
 43
1.0
 76
     1
 77
     6
 78
     2
 67
     7
 79
     5
170
     0
171
     0
290
     0
174
     0
 93
        1
 44
0.0
173
     0
291
     1
 45
0.0
  0
VISUALSTYLE
  5
B0FB
102
{ACAD_REACTORS
330
B0F1
102
}
102
{ACAD_XDICTIONARY
360
D0CC
102
}
330
B0F1
100
AcDbVisualStyle
  2
Realistic
 70
     8
 71
     2
 72
     2
 73
     0
 90
        0
 40
-0.6
 41
-30.0
 62
     5
 63
     7
 74
     1
 91
        0
 64
     7
 65
   257
 75
     1
175
     1
 42
1.0
 92
        8
 66
     8
 43
1.0
 76
     1
 77
     6
 78
     2
 67
     7
 79
     5
170
     0
171
     0
290
     0
174
     0
 93
       13
 44
0.0
173
     0
291
     0
 45
0.0
  0
VISUALSTYLE
  5
CE78
102
{ACAD_REACTORS
330
B0F1
102
}
102
{ACAD_XDICTIONARY
360
D0CE
102
}
330
B0F1
100
AcDbVisualStyle
  2
Shaded
 70
    27
 71
     2
 72
     2
 73
     1
 90
        2
 40
0.6
 41
30.0
 62
     5
 63
     7
 74
     0
 91
        4
 64
     7
 65
   257
 75
     1
175
     1
 42
1.0
 92
        8
 66
   257
 43
1.0
 76
     1
 77
     6
 78
     2
 67
   251
 79
     3
170
     0
171
     0
290
     0
174
     0
 93
        5
 44
0.0
173
     0
291
     0
 45
0.0
  0
VISUALSTYLE
  5
CE77
102
{ACAD_REACTORS
330
B0F1
102
}
102
{ACAD_XDICTIONARY
360
D0D0
102
}
330
B0F1
100
AcDbVisualStyle
  2
Shaded with edges
 70
    26
 71
     2
 72
     2
 73
     1
 90
        2
 40
0.6
 41
30.0
 62
     5
 63
     7
 74
     1
 91
       10
 64
     7
 65
   257
 75
     2
175
     1
 42
1.0
 92
        8
 66
   257
 43
1.0
 76
     1
 77
     6
 78
     2
 67
     7
 79
     3
170
     0
171
     0
290
     0
174
     0
 93
        5
 44
0.0
173
     0
291
     0
 45
0.0
  0
VISUALSTYLE
  5
CE74
102
{ACAD_REACTORS
330
B0F1
102
}
102
{ACAD_XDICTIONARY
360
D0D2
102
}
330
B0F1
100
AcDbVisualStyle
  2
Shades of Gray
 70
    23
 71
     2
 72
     2
 73
     3
 90
        0
 40
0.6
 41
30.0
 62
     5
 63
     7
 74
     2
 91
        2
 64
     7
 65
     7
 75
     1
175
     1
 42
40.0
 92
        8
 66
     7
 43
1.0
 76
     1
 77
     6
 78
     2
 67
     7
 79
     3
170
     0
171
     0
290
     0
174
     0
 93
        1
 44
0.0
173
     0
291
     0
 45
0.0
  0
VISUALSTYLE
  5
CE75
102
{ACAD_REACTORS
330
B0F1
102
}
102
{ACAD_XDICTIONARY
360
D0D4
102
}
330
B0F1
100
AcDbVisualStyle
  2
Sketchy
 70
    24
 71
     1
 72
     2
 73
     2
 90
        0
 40
0.6
 41
30.0
 62
     5
 63
     7
 74
     2
 91
        2
 64
     7
 65
     7
 75
     1
175
     1
 42
40.0
 92
       11
 66
     7
 43
1.0
 76
     1
 77
     6
 78
     2
 67
     7
 79
     6
170
     0
171
     0
290
     0
174
     0
 93
        1
 44
0.0
173
     0
291
     0
 45
0.0
  0
VISUALSTYLE
  5
B0FE
102
{ACAD_REACTORS
330
B0F1
102
}
102
{ACAD_XDICTIONARY
360
D0D6
102
}
330
B0F1
100
AcDbVisualStyle
  2
Thicken
 70
    13
 71
     2
 72
     2
 73
     0
 90
        0
 40
-0.6
 41
-30.0
 62
     5
 63
     7
 74
     1
 91
        4
 64
     7
 65
   257
 75
     1
175
     1
 42
1.0
 92
       12
 66
     7
 43
1.0
 76
     1
 77
     6
 78
     2
 67
     7
 79
     5
170
     0
171
     0
290
     0
174
     0
 93
        1
 44
0.0
173
     0
291
     1
 45
0.0
  0
VISUALSTYLE
  5
CE6F
102
{ACAD_REACTORS
330
B0F1
102
}
102
{ACAD_XDICTIONARY
360
D0D8
102
}
330
B0F1
100
AcDbVisualStyle
  2
Wireframe
 70
     5
 71
     0
 72
     2
 73
     0
 90
        0
 40
0.6
 41
30.0
 62
     5
 63
     7
 74
     1
 91
        4
 64
     7
 65
   257
 75
     1
175
     1
 42
1.0
 92
        0
 66
   257
 43
1.0
 76
     1
 77
     6
 78
     2
 67
     7
 79
     5
170
     0
171
     0
290
     0
174
     0
 93
        1
 44
0.0
173
     0
291
     0
 45
0.0
  0
VISUALSTYLE
  5
CE76
102
{ACAD_REACTORS
330
B0F1
102
}
102
{ACAD_XDICTIONARY
360
D0DA
102
}
330
B0F1
100
AcDbVisualStyle
  2
X-Ray
 70
    25
 71
     2
 72
     2
 73
     1
 90
        1
 40
0.5
 41
30.0
 62
     5
 63
     7
 74
     1
 91
        0
 64
     7
 65
   257
 75
     1
175
     1
 42
1.0
 92
        8
 66
     7
 43
1.0
 76
     1
 77
     6
 78
     2
 67
     7
 79
     3
170
     0
171
     0
290
     0
174
     0
 93
       13
 44
0.0
173
     0
291
     0
 45
0.0
  0
DICTIONARYVAR
  5
D0A0
102
{ACAD_REACTORS
330
34
102
}
330
34
100
DictionaryVariables
280
     0
  1
1:1
  0
DICTIONARYVAR
  5
CEB6
102
{ACAD_REACTORS
330
34
102
}
330
34
100
DictionaryVariables
280
     0
  1
Standard
  0
DICTIONARYVAR
  5
AAF3
102
{ACAD_REACTORS
330
34
102
}
330
34
100
DictionaryVariables
280
     0
  1
Standard
  0
DICTIONARYVAR
  5
A10C
102
{ACAD_REACTORS
330
34
102
}
330
34
100
DictionaryVariables
280
     0
  1
1
  0
DICTIONARYVAR
  5
AB07
102
{ACAD_REACTORS
330
34
102
}
330
34
100
DictionaryVariables
280
     0
  1
4
  0
DICTIONARYVAR
  5
CECC
102
{ACAD_REACTORS
330
34
102
}
330
34
100
DictionaryVariables
280
     0
  1
0
  0
DICTIONARYVAR
  5
35
102
{ACAD_REACTORS
330
34
102
}
330
34
100
DictionaryVariables
280
     0
  1
0
  0
DICTIONARYVAR
  5
D0A1
102
{ACAD_REACTORS
330
34
102
}
330
34
100
DictionaryVariables
280
     0
  1
2
  0
DICTIONARYVAR
  5
CEB7
102
{ACAD_REACTORS
330
34
102
}
330
34
100
DictionaryVariables
280
     0
  1
0
  0
DICTIONARYVAR
  5
194C
102
{ACAD_REACTORS
330
34
102
}
330
34
100
DictionaryVariables
280
     0
  1
96
  0
DICTIONARYVAR
  5
CECD
102
{ACAD_REACTORS
330
34
102
}
330
34
100
DictionaryVariables
280
     0
  1
0
  0
XRECORD
  5
B332
102
{ACAD_REACTORS
330
B331
102
}
330
B331
100
AcDbXrecord
280
     1
  0
AMDTSYSATTR
  5
CEB3
102
{ACAD_REACTORS
330
CEB2
102
}
330
CEB2
  0
AMDTSYSATTR
  5
CEB4
102
{ACAD_REACTORS
330
CEB2
102
}
330
CEB2
  0
AMDTSYSATTR
  5
CF13
102
{ACAD_REACTORS
330
CF12
102
}
330
CF12
  0
AMDTSYSATTR
  5
CF14
102
{ACAD_REACTORS
330
CF12
102
}
330
CF12
  0
XRECORD
  5
3FB7
102
{ACAD_REACTORS
330
3F96
102
}
330
3F96
100
AcDbXrecord
280
     1
 91
        3
330
0
 90
        8
 62
     7
370
    40
331
16
  1
Color_7
330
0
 90
        0
 62
    14
370
    -3
331
16
  1
Color_14
330
0
 90
        8
 62
     7
370
    20
331
16
  1
Color_7
330
6D1
 90
        0
 62
     7
370
    -3
331
16
  1
Color_7
330
0
 90
        8
 62
     7
370
    50
331
16
  1
Color_7
330
0
 90
        8
 62
     2
370
    35
331
16
  1
Color_2
330
0
 90
        8
 62
     7
370
    -3
331
16
  1
Color_7
330
10
 90
        8
 62
     7
370
    -3
331
16
  1
Color_7
  0
DICTIONARY
  5
CF89
330
CF88
100
AcDbDictionary
280
     1
281
     1
  3
ACAD_XREC_ROUNDTRIP
360
D0A2
  0
DICTIONARY
  5
D0A3
330
CEB1
100
AcDbDictionary
280
     1
281
     1
  3
ACAD_XREC_ROUNDTRIP
360
D0A4
  0
DICTIONARY
  5
CF94
330
CF93
100
AcDbDictionary
280
     1
281
     1
  3
ACAD_XREC_ROUNDTRIP
360
D0A5
  0
DICTIONARY
  5
D0A6
330
AABA
100
AcDbDictionary
280
     1
281
     1
  3
ACAD_ROUNDTRIP_2008_TABLESTYLE_CELLSTYLEMAP
360
D0A7
  0
DICTIONARY
  5
D0A8
330
B0F7
100
AcDbDictionary
280
     1
281
     1
  3
ACAD_XREC_ROUNDTRIP
360
D0A9
  0
DICTIONARY
  5
D0AA
330
B0F9
100
AcDbDictionary
280
     1
281
     1
  3
ACAD_XREC_ROUNDTRIP
360
D0AB
  0
DICTIONARY
  5
D0AC
330
B0F8
100
AcDbDictionary
280
     1
281
     1
  3
ACAD_XREC_ROUNDTRIP
360
D0AD
  0
DICTIONARY
  5
D0AE
330
B0F6
100
AcDbDictionary
280
     1
281
     1
  3
ACAD_XREC_ROUNDTRIP
360
D0AF
  0
DICTIONARY
  5
D0B0
330
B0FD
100
AcDbDictionary
280
     1
281
     1
  3
ACAD_XREC_ROUNDTRIP
360
D0B1
  0
DICTIONARY
  5
D0B2
330
B101
100
AcDbDictionary
280
     1
281
     1
  3
ACAD_XREC_ROUNDTRIP
360
D0B3
  0
DICTIONARY
  5
D0B4
330
B0FA
100
AcDbDictionary
280
     1
281
     1
  3
ACAD_XREC_ROUNDTRIP
360
D0B5
  0
DICTIONARY
  5
D0B6
330
B0FC
100
AcDbDictionary
280
     1
281
     1
  3
ACAD_XREC_ROUNDTRIP
360
D0B7
  0
DICTIONARY
  5
D0B8
330
CE73
100
AcDbDictionary
280
     1
281
     1
  3
ACAD_XREC_ROUNDTRIP
360
D0B9
  0
DICTIONARY
  5
D0BA
330
B100
100
AcDbDictionary
280
     1
281
     1
  3
ACAD_XREC_ROUNDTRIP
360
D0BB
  0
DICTIONARY
  5
D0BC
330
B0F2
100
AcDbDictionary
280
     1
281
     1
  3
ACAD_XREC_ROUNDTRIP
360
D0BD
  0
DICTIONARY
  5
D0BE
330
B0F3
100
AcDbDictionary
280
     1
281
     1
  3
ACAD_XREC_ROUNDTRIP
360
D0BF
  0
DICTIONARY
  5
D0C0
330
B0F4
100
AcDbDictionary
280
     1
281
     1
  3
ACAD_XREC_ROUNDTRIP
360
D0C1
  0
DICTIONARY
  5
D0C2
330
B0F5
100
AcDbDictionary
280
     1
281
     1
  3
ACAD_XREC_ROUNDTRIP
360
D0C3
  0
DICTIONARY
  5
D0C4
330
CE70
100
AcDbDictionary
280
     1
281
     1
  3
ACAD_XREC_ROUNDTRIP
360
D0C5
  0
DICTIONARY
  5
D0C6
330
CE71
100
AcDbDictionary
280
     1
281
     1
  3
ACAD_XREC_ROUNDTRIP
360
D0C7
  0
DICTIONARY
  5
D0C8
330
B0FF
100
AcDbDictionary
280
     1
281
     1
  3
ACAD_XREC_ROUNDTRIP
360
D0C9
  0
DICTIONARY
  5
D0CA
330
CE72
100
AcDbDictionary
280
     1
281
     1
  3
ACAD_XREC_ROUNDTRIP
360
D0CB
  0
DICTIONARY
  5
D0CC
330
B0FB
100
AcDbDictionary
280
     1
281
     1
  3
ACAD_XREC_ROUNDTRIP
360
D0CD
  0
DICTIONARY
  5
D0CE
330
CE78
100
AcDbDictionary
280
     1
281
     1
  3
ACAD_XREC_ROUNDTRIP
360
D0CF
  0
DICTIONARY
  5
D0D0
330
CE77
100
AcDbDictionary
280
     1
281
     1
  3
ACAD_XREC_ROUNDTRIP
360
D0D1
  0
DICTIONARY
  5
D0D2
330
CE74
100
AcDbDictionary
280
     1
281
     1
  3
ACAD_XREC_ROUNDTRIP
360
D0D3
  0
DICTIONARY
  5
D0D4
330
CE75
100
AcDbDictionary
280
     1
281
     1
  3
ACAD_XREC_ROUNDTRIP
360
D0D5
  0
DICTIONARY
  5
D0D6
330
B0FE
100
AcDbDictionary
280
     1
281
     1
  3
ACAD_XREC_ROUNDTRIP
360
D0D7
  0
DICTIONARY
  5
D0D8
330
CE6F
100
AcDbDictionary
280
     1
281
     1
  3
ACAD_XREC_ROUNDTRIP
360
D0D9
  0
DICTIONARY
  5
D0DA
330
CE76
100
AcDbDictionary
280
     1
281
     1
  3
ACAD_XREC_ROUNDTRIP
360
D0DB
  0
XRECORD
  5
D0A2
102
{ACAD_REACTORS
330
CF89
102
}
330
CF89
100
AcDbXrecord
280
     1
102
DISPLAYNAME
  1
Metric50
102
FLAGS
 90
        0
  0
XRECORD
  5
D0A4
102
{ACAD_REACTORS
330
D0A3
102
}
330
D0A3
100
AcDbXrecord
280
     1
102
ACAD_ROUNDTRIP_2010_MLEADER_STYLE
  0
XRECORD
  5
D0A5
102
{ACAD_REACTORS
330
CF94
102
}
330
CF94
100
AcDbXrecord
280
     1
102
DISPLAYNAME
  1
Metric50
102
FLAGS
 90
        0
  0
CELLSTYLEMAP
  5
D0A7
102
{ACAD_REACTORS
330
D0A6
102
}
330
D0A6
100
AcDbCellStyleMap
 90
        3
300
CELLSTYLE
  1
TABLEFORMAT_BEGIN
 90
        5
170
     1
 91
        0
 92
    32768
 62
   257
 93
        1
300
CONTENTFORMAT
  1
CONTENTFORMAT_BEGIN
 90
        0
 91
        0
 92
      512
 93
        0
300

 40
0.0
140
1.0
 94
        5
 62
     0
340
11
144
6.0
309
CONTENTFORMAT_END
171
     1
301
MARGIN
  1
CELLMARGIN_BEGIN
 40
1.5
 40
1.5
 40
1.5
 40
1.5
 40
0.18
 40
0.18
309
CELLMARGIN_END
 94
        6
 95
        1
302
GRIDFORMAT
  1
GRIDFORMAT_BEGIN
 90
        0
 91
        1
 62
     0
 92
       -2
340
0
 93
        0
 40
0.045
309
GRIDFORMAT_END
 95
        2
302
GRIDFORMAT
  1
GRIDFORMAT_BEGIN
 90
        0
 91
        1
 62
     0
 92
       -2
340
0
 93
        0
 40
0.045
309
GRIDFORMAT_END
 95
        4
302
GRIDFORMAT
  1
GRIDFORMAT_BEGIN
 90
        0
 91
        1
 62
     0
 92
       -2
340
0
 93
        0
 40
0.045
309
GRIDFORMAT_END
 95
        8
302
GRIDFORMAT
  1
GRIDFORMAT_BEGIN
 90
        0
 91
        1
 62
     0
 92
       -2
340
0
 93
        0
 40
0.045
309
GRIDFORMAT_END
 95
       16
302
GRIDFORMAT
  1
GRIDFORMAT_BEGIN
 90
        0
 91
        1
 62
     0
 92
       -2
340
0
 93
        0
 40
0.045
309
GRIDFORMAT_END
 95
       32
302
GRIDFORMAT
  1
GRIDFORMAT_BEGIN
 90
        0
 91
        1
 62
     0
 92
       -2
340
0
 93
        0
 40
0.045
309
GRIDFORMAT_END
309
TABLEFORMAT_END
  1
CELLSTYLE_BEGIN
 90
        1
 91
        1
300
_TITLE
309
CELLSTYLE_END
300
CELLSTYLE
  1
TABLEFORMAT_BEGIN
 90
        5
170
     1
 91
        0
 92
        0
 62
   257
 93
        1
300
CONTENTFORMAT
  1
CONTENTFORMAT_BEGIN
 90
        0
 91
        0
 92
      512
 93
        0
300

 40
0.0
140
1.0
 94
        5
 62
     0
340
11
144
4.5
309
CONTENTFORMAT_END
171
     1
301
MARGIN
  1
CELLMARGIN_BEGIN
 40
1.5
 40
1.5
 40
1.5
 40
1.5
 40
0.18
 40
0.18
309
CELLMARGIN_END
 94
        6
 95
        1
302
GRIDFORMAT
  1
GRIDFORMAT_BEGIN
 90
        0
 91
        1
 62
     0
 92
       -2
340
0
 93
        0
 40
0.045
309
GRIDFORMAT_END
 95
        2
302
GRIDFORMAT
  1
GRIDFORMAT_BEGIN
 90
        0
 91
        1
 62
     0
 92
       -2
340
0
 93
        0
 40
0.045
309
GRIDFORMAT_END
 95
        4
302
GRIDFORMAT
  1
GRIDFORMAT_BEGIN
 90
        0
 91
        1
 62
     0
 92
       -2
340
0
 93
        0
 40
0.045
309
GRIDFORMAT_END
 95
        8
302
GRIDFORMAT
  1
GRIDFORMAT_BEGIN
 90
        0
 91
        1
 62
     0
 92
       -2
340
0
 93
        0
 40
0.045
309
GRIDFORMAT_END
 95
       16
302
GRIDFORMAT
  1
GRIDFORMAT_BEGIN
 90
        0
 91
        1
 62
     0
 92
       -2
340
0
 93
        0
 40
0.045
309
GRIDFORMAT_END
 95
       32
302
GRIDFORMAT
  1
GRIDFORMAT_BEGIN
 90
        0
 91
        1
 62
     0
 92
       -2
340
0
 93
        0
 40
0.045
309
GRIDFORMAT_END
309
TABLEFORMAT_END
  1
CELLSTYLE_BEGIN
 90
        2
 91
        1
300
_HEADER
309
CELLSTYLE_END
300
CELLSTYLE
  1
TABLEFORMAT_BEGIN
 90
        5
170
     1
 91
        0
 92
        0
 62
   257
 93
        1
300
CONTENTFORMAT
  1
CONTENTFORMAT_BEGIN
 90
        0
 91
        0
 92
      512
 93
        0
300

 40
0.0
140
1.0
 94
        2
 62
     0
340
11
144
4.5
309
CONTENTFORMAT_END
171
     1
301
MARGIN
  1
CELLMARGIN_BEGIN
 40
1.5
 40
1.5
 40
1.5
 40
1.5
 40
0.18
 40
0.18
309
CELLMARGIN_END
 94
        6
 95
        1
302
GRIDFORMAT
  1
GRIDFORMAT_BEGIN
 90
        0
 91
        1
 62
     0
 92
       -2
340
0
 93
        0
 40
0.045
309
GRIDFORMAT_END
 95
        2
302
GRIDFORMAT
  1
GRIDFORMAT_BEGIN
 90
        0
 91
        1
 62
     0
 92
       -2
340
0
 93
        0
 40
0.045
309
GRIDFORMAT_END
 95
        4
302
GRIDFORMAT
  1
GRIDFORMAT_BEGIN
 90
        0
 91
        1
 62
     0
 92
       -2
340
0
 93
        0
 40
0.045
309
GRIDFORMAT_END
 95
        8
302
GRIDFORMAT
  1
GRIDFORMAT_BEGIN
 90
        0
 91
        1
 62
     0
 92
       -2
340
0
 93
        0
 40
0.045
309
GRIDFORMAT_END
 95
       16
302
GRIDFORMAT
  1
GRIDFORMAT_BEGIN
 90
        0
 91
        1
 62
     0
 92
       -2
340
0
 93
        0
 40
0.045
309
GRIDFORMAT_END
 95
       32
302
GRIDFORMAT
  1
GRIDFORMAT_BEGIN
 90
        0
 91
        1
 62
     0
 92
       -2
340
0
 93
        0
 40
0.045
309
GRIDFORMAT_END
309
TABLEFORMAT_END
  1
CELLSTYLE_BEGIN
 90
        3
 91
        2
300
_DATA
309
CELLSTYLE_END
  0
XRECORD
  5
D0A9
102
{ACAD_REACTORS
330
D0A8
102
}
330
D0A8
100
AcDbXrecord
280
     1
102
RTVSPropertyOp0
 70
     1
102
RTVSPropertyOp1
 70
     1
102
RTVSPropertyOp2
 70
     1
102
RTVSPropertyOp3
 70
     1
102
RTVSPropertyOp4
 70
     1
102
RTVSPropertyOp5
 70
     1
102
RTVSPropertyOp6
 70
     1
102
RTVSPropertyOp7
 70
     1
102
RTVSPropertyOp8
 70
     1
102
RTVSPropertyOp9
 70
     1
102
RTVSPropertyOp10
 70
     1
102
RTVSPropertyOp11
 70
     1
102
RTVSPropertyOp12
 70
     1
102
RTVSPropertyOp13
 70
     1
102
RTVSPropertyOp14
 70
     1
102
RTVSPropertyOp15
 70
     1
102
RTVSPropertyOp16
 70
     1
102
RTVSPropertyOp17
 70
     1
102
RTVSPropertyOp18
 70
     1
102
RTVSPropertyOp19
 70
     1
102
RTVSPropertyOp20
 70
     1
102
RTVSPropertyOp21
 70
     1
102
RTVSPropertyOp22
 70
     1
102
RTVSPropertyOp23
 70
     1
102
RTVSPropertyOp24
 70
     1
102
RTVSPropertyOp25
 70
     1
102
RTVSPropertyOp26
 70
     1
102
RTVSPropertyOp27
 70
     1
102
RTVSPropertyOp28
 70
     1
102
RTVSPropertyOp29
 70
     1
102
RTVSPropertyOp30
 70
     1
102
RTVSPropertyOp31
 70
     1
102
RTVSPropertyOp32
 70
     1
102
RTVSPropertyOp33
 70
     1
102
RTVSPropertyOp34
 70
     1
102
RTVSPropertyOp35
 70
     1
102
RTVSPropertyOp36
 70
     1
102
RTVSPropertyOp37
 70
     1
102
RTVSPropertyOp38
 70
     1
102
RTVSPropertyOp39
 70
     1
102
RTVSPropertyOp40
 70
     1
102
RTVSPropertyOp41
 70
     1
102
RTVSPropertyOp42
 70
     1
102
RTVSPropertyOp43
 70
     1
102
RTVSPropertyOp44
 70
     1
102
RTVSPropertyOp45
 70
     1
102
RTVSPropertyOp46
 70
     1
102
RTVSPropertyOp47
 70
     1
102
RTVSPropertyOp48
 70
     1
102
RTVSPropertyOp49
 70
     1
102
RTVSPropertyOp50
 70
     1
102
RTVSPropertyOp51
 70
     0
102
RTVSPropertyOp52
 70
     0
102
RTVSPropertyOp53
 70
     1
102
RTVSPropertyOp54
 70
     1
102
RTVSPropertyOp55
 70
     1
102
RTVSPropertyOp56
 70
     1
102
RTVSPropertyOp57
 70
     1
102
RTVSPost2010Prop28
280
     1
102
RTVSPost2010PropOp28
 70
     1
102
RTVSPost2010Prop29
280
     1
102
RTVSPost2010PropOp29
 70
     1
102
RTVSPost2010Prop30
280
     0
102
RTVSPost2010PropOp30
 70
     1
102
RTVSPost2010Prop31
280
     0
102
RTVSPost2010PropOp31
 70
     1
102
RTVSPost2010Prop32
280
     0
102
RTVSPost2010PropOp32
 70
     1
102
RTVSPost2010Prop33
280
     0
102
RTVSPost2010PropOp33
 70
     1
102
RTVSPost2010Prop34
280
     0
102
RTVSPost2010PropOp34
 70
     1
102
RTVSPost2010Prop35
280
     0
102
RTVSPost2010PropOp35
 70
     1
102
RTVSPost2010Prop36
280
     0
102
RTVSPost2010PropOp36
 70
     1
102
RTVSPost2010Prop37
 90
       50
102
RTVSPost2010PropOp37
 70
     1
102
RTVSPost2010Prop38
140
0.0
102
RTVSPost2010PropOp38
 70
     1
102
RTVSPost2010Prop39
140
1.0
102
RTVSPost2010PropOp39
 70
     1
102
RTVSPost2010Prop40
 90
        0
102
RTVSPost2010PropOp40
 70
     1
102
RTVSPost2010Prop41ColorIndex
 90
       18
102
RTVSPost2010Prop41ColorRGB
 90
        0
102
RTVSPost2010PropOp41
 70
     1
102
RTVSPost2010Prop42
 90
       50
102
RTVSPost2010PropOp42
 70
     1
102
RTVSPost2010Prop43
 90
        3
102
RTVSPost2010PropOp43
 70
     1
102
RTVSPost2010Prop44ColorIndex
 90
        5
102
RTVSPost2010Prop44ColorRGB
 90
      255
102
RTVSPost2010PropOp44
 70
     1
102
RTVSPost2010Prop45
280
     0
102
RTVSPost2010PropOp45
 70
     1
102
RTVSPost2010Prop46
 90
       50
102
RTVSPost2010PropOp46
 70
     1
102
RTVSPost2010Prop47
 90
       50
102
RTVSPost2010PropOp47
 70
     1
102
RTVSPost2010Prop48
 90
       50
102
RTVSPost2010PropOp48
 70
     1
102
RTVSPost2010Prop49
280
     0
102
RTVSPost2010PropOp49
 70
     1
102
RTVSPost2010Prop50
 90
       50
102
RTVSPost2010PropOp50
 70
     1
102
RTVSPost2010Prop51ColorIndex
 90
      256
102
RTVSPost2010Prop51ColorRGB
 90
-16777216
102
RTVSPost2010PropOp51
 70
     0
102
RTVSPost2010Prop52
140
1.0
102
RTVSPost2010PropOp52
 70
     0
102
RTVSPost2010Prop53
 90
        2
102
RTVSPost2010PropOp53
 70
     1
102
RTVSPost2010Prop54
  1
strokes_ogs.tif
102
RTVSPost2010PropOp54
 70
     1
102
RTVSPost2010Prop55
280
     0
102
RTVSPost2010PropOp55
 70
     1
102
RTVSPost2010Prop56
140
1.0
102
RTVSPost2010PropOp56
 70
     1
102
RTVSPost2010Prop57
140
1.0
102
RTVSPost2010PropOp57
 70
     1
  0
XRECORD
  5
D0AB
102
{ACAD_REACTORS
330
D0AA
102
}
330
D0AA
100
AcDbXrecord
280
     1
102
RTVSPropertyOp0
 70
     1
102
RTVSPropertyOp1
 70
     1
102
RTVSPropertyOp2
 70
     1
102
RTVSPropertyOp3
 70
     1
102
RTVSPropertyOp4
 70
     1
102
RTVSPropertyOp5
 70
     1
102
RTVSPropertyOp6
 70
     1
102
RTVSPropertyOp7
 70
     1
102
RTVSPropertyOp8
 70
     1
102
RTVSPropertyOp9
 70
     1
102
RTVSPropertyOp10
 70
     1
102
RTVSPropertyOp11
 70
     1
102
RTVSPropertyOp12
 70
     1
102
RTVSPropertyOp13
 70
     1
102
RTVSPropertyOp14
 70
     1
102
RTVSPropertyOp15
 70
     1
102
RTVSPropertyOp16
 70
     1
102
RTVSPropertyOp17
 70
     1
102
RTVSPropertyOp18
 70
     1
102
RTVSPropertyOp19
 70
     1
102
RTVSPropertyOp20
 70
     1
102
RTVSPropertyOp21
 70
     1
102
RTVSPropertyOp22
 70
     1
102
RTVSPropertyOp23
 70
     1
102
RTVSPropertyOp24
 70
     1
102
RTVSPropertyOp25
 70
     1
102
RTVSPropertyOp26
 70
     1
102
RTVSPropertyOp27
 70
     1
102
RTVSPropertyOp28
 70
     1
102
RTVSPropertyOp29
 70
     1
102
RTVSPropertyOp30
 70
     1
102
RTVSPropertyOp31
 70
     1
102
RTVSPropertyOp32
 70
     1
102
RTVSPropertyOp33
 70
     1
102
RTVSPropertyOp34
 70
     1
102
RTVSPropertyOp35
 70
     1
102
RTVSPropertyOp36
 70
     1
102
RTVSPropertyOp37
 70
     1
102
RTVSPropertyOp38
 70
     1
102
RTVSPropertyOp39
 70
     1
102
RTVSPropertyOp40
 70
     1
102
RTVSPropertyOp41
 70
     1
102
RTVSPropertyOp42
 70
     1
102
RTVSPropertyOp43
 70
     1
102
RTVSPropertyOp44
 70
     1
102
RTVSPropertyOp45
 70
     1
102
RTVSPropertyOp46
 70
     1
102
RTVSPropertyOp47
 70
     1
102
RTVSPropertyOp48
 70
     1
102
RTVSPropertyOp49
 70
     1
102
RTVSPropertyOp50
 70
     1
102
RTVSPropertyOp51
 70
     0
102
RTVSPropertyOp52
 70
     0
102
RTVSPropertyOp53
 70
     1
102
RTVSPropertyOp54
 70
     1
102
RTVSPropertyOp55
 70
     1
102
RTVSPropertyOp56
 70
     1
102
RTVSPropertyOp57
 70
     1
102
RTVSPost2010Prop28
280
     0
102
RTVSPost2010PropOp28
 70
     1
102
RTVSPost2010Prop29
280
     1
102
RTVSPost2010PropOp29
 70
     1
102
RTVSPost2010Prop30
280
     1
102
RTVSPost2010PropOp30
 70
     1
102
RTVSPost2010Prop31
280
     0
102
RTVSPost2010PropOp31
 70
     1
102
RTVSPost2010Prop32
280
     0
102
RTVSPost2010PropOp32
 70
     1
102
RTVSPost2010Prop33
280
     0
102
RTVSPost2010PropOp33
 70
     1
102
RTVSPost2010Prop34
280
     0
102
RTVSPost2010PropOp34
 70
     1
102
RTVSPost2010Prop35
280
     0
102
RTVSPost2010PropOp35
 70
     1
102
RTVSPost2010Prop36
280
     0
102
RTVSPost2010PropOp36
 70
     1
102
RTVSPost2010Prop37
 90
       50
102
RTVSPost2010PropOp37
 70
     1
102
RTVSPost2010Prop38
140
0.0
102
RTVSPost2010PropOp38
 70
     1
102
RTVSPost2010Prop39
140
1.0
102
RTVSPost2010PropOp39
 70
     1
102
RTVSPost2010Prop40
 90
        0
102
RTVSPost2010PropOp40
 70
     1
102
RTVSPost2010Prop41ColorIndex
 90
       18
102
RTVSPost2010Prop41ColorRGB
 90
        0
102
RTVSPost2010PropOp41
 70
     1
102
RTVSPost2010Prop42
 90
       50
102
RTVSPost2010PropOp42
 70
     1
102
RTVSPost2010Prop43
 90
        3
102
RTVSPost2010PropOp43
 70
     1
102
RTVSPost2010Prop44ColorIndex
 90
        5
102
RTVSPost2010Prop44ColorRGB
 90
      255
102
RTVSPost2010PropOp44
 70
     1
102
RTVSPost2010Prop45
280
     0
102
RTVSPost2010PropOp45
 70
     1
102
RTVSPost2010Prop46
 90
       50
102
RTVSPost2010PropOp46
 70
     1
102
RTVSPost2010Prop47
 90
       50
102
RTVSPost2010PropOp47
 70
     1
102
RTVSPost2010Prop48
 90
       50
102
RTVSPost2010PropOp48
 70
     1
102
RTVSPost2010Prop49
280
     0
102
RTVSPost2010PropOp49
 70
     1
102
RTVSPost2010Prop50
 90
       50
102
RTVSPost2010PropOp50
 70
     1
102
RTVSPost2010Prop51ColorIndex
 90
      256
102
RTVSPost2010Prop51ColorRGB
 90
-16777216
102
RTVSPost2010PropOp51
 70
     0
102
RTVSPost2010Prop52
140
1.0
102
RTVSPost2010PropOp52
 70
     0
102
RTVSPost2010Prop53
 90
        2
102
RTVSPost2010PropOp53
 70
     1
102
RTVSPost2010Prop54
  1
strokes_ogs.tif
102
RTVSPost2010PropOp54
 70
     1
102
RTVSPost2010Prop55
280
     0
102
RTVSPost2010PropOp55
 70
     1
102
RTVSPost2010Prop56
140
1.0
102
RTVSPost2010PropOp56
 70
     1
102
RTVSPost2010Prop57
140
1.0
102
RTVSPost2010PropOp57
 70
     1
  0
XRECORD
  5
D0AD
102
{ACAD_REACTORS
330
D0AC
102
}
330
D0AC
100
AcDbXrecord
280
     1
102
RTVSPropertyOp0
 70
     1
102
RTVSPropertyOp1
 70
     1
102
RTVSPropertyOp2
 70
     1
102
RTVSPropertyOp3
 70
     1
102
RTVSPropertyOp4
 70
     1
102
RTVSPropertyOp5
 70
     1
102
RTVSPropertyOp6
 70
     1
102
RTVSPropertyOp7
 70
     1
102
RTVSPropertyOp8
 70
     1
102
RTVSPropertyOp9
 70
     1
102
RTVSPropertyOp10
 70
     1
102
RTVSPropertyOp11
 70
     1
102
RTVSPropertyOp12
 70
     1
102
RTVSPropertyOp13
 70
     1
102
RTVSPropertyOp14
 70
     1
102
RTVSPropertyOp15
 70
     1
102
RTVSPropertyOp16
 70
     1
102
RTVSPropertyOp17
 70
     1
102
RTVSPropertyOp18
 70
     1
102
RTVSPropertyOp19
 70
     1
102
RTVSPropertyOp20
 70
     1
102
RTVSPropertyOp21
 70
     1
102
RTVSPropertyOp22
 70
     1
102
RTVSPropertyOp23
 70
     1
102
RTVSPropertyOp24
 70
     1
102
RTVSPropertyOp25
 70
     1
102
RTVSPropertyOp26
 70
     1
102
RTVSPropertyOp27
 70
     1
102
RTVSPropertyOp28
 70
     1
102
RTVSPropertyOp29
 70
     1
102
RTVSPropertyOp30
 70
     1
102
RTVSPropertyOp31
 70
     1
102
RTVSPropertyOp32
 70
     1
102
RTVSPropertyOp33
 70
     1
102
RTVSPropertyOp34
 70
     1
102
RTVSPropertyOp35
 70
     1
102
RTVSPropertyOp36
 70
     1
102
RTVSPropertyOp37
 70
     1
102
RTVSPropertyOp38
 70
     1
102
RTVSPropertyOp39
 70
     1
102
RTVSPropertyOp40
 70
     1
102
RTVSPropertyOp41
 70
     1
102
RTVSPropertyOp42
 70
     1
102
RTVSPropertyOp43
 70
     1
102
RTVSPropertyOp44
 70
     1
102
RTVSPropertyOp45
 70
     1
102
RTVSPropertyOp46
 70
     1
102
RTVSPropertyOp47
 70
     1
102
RTVSPropertyOp48
 70
     1
102
RTVSPropertyOp49
 70
     1
102
RTVSPropertyOp50
 70
     1
102
RTVSPropertyOp51
 70
     0
102
RTVSPropertyOp52
 70
     0
102
RTVSPropertyOp53
 70
     1
102
RTVSPropertyOp54
 70
     1
102
RTVSPropertyOp55
 70
     1
102
RTVSPropertyOp56
 70
     1
102
RTVSPropertyOp57
 70
     1
102
RTVSPost2010Prop28
280
     0
102
RTVSPost2010PropOp28
 70
     1
102
RTVSPost2010Prop29
280
     1
102
RTVSPost2010PropOp29
 70
     1
102
RTVSPost2010Prop30
280
     1
102
RTVSPost2010PropOp30
 70
     1
102
RTVSPost2010Prop31
280
     0
102
RTVSPost2010PropOp31
 70
     1
102
RTVSPost2010Prop32
280
     0
102
RTVSPost2010PropOp32
 70
     1
102
RTVSPost2010Prop33
280
     0
102
RTVSPost2010PropOp33
 70
     1
102
RTVSPost2010Prop34
280
     0
102
RTVSPost2010PropOp34
 70
     1
102
RTVSPost2010Prop35
280
     0
102
RTVSPost2010PropOp35
 70
     1
102
RTVSPost2010Prop36
280
     0
102
RTVSPost2010PropOp36
 70
     1
102
RTVSPost2010Prop37
 90
       50
102
RTVSPost2010PropOp37
 70
     1
102
RTVSPost2010Prop38
140
0.0
102
RTVSPost2010PropOp38
 70
     1
102
RTVSPost2010Prop39
140
1.0
102
RTVSPost2010PropOp39
 70
     1
102
RTVSPost2010Prop40
 90
        0
102
RTVSPost2010PropOp40
 70
     1
102
RTVSPost2010Prop41ColorIndex
 90
       18
102
RTVSPost2010Prop41ColorRGB
 90
        0
102
RTVSPost2010PropOp41
 70
     1
102
RTVSPost2010Prop42
 90
       50
102
RTVSPost2010PropOp42
 70
     1
102
RTVSPost2010Prop43
 90
        3
102
RTVSPost2010PropOp43
 70
     1
102
RTVSPost2010Prop44ColorIndex
 90
        5
102
RTVSPost2010Prop44ColorRGB
 90
      255
102
RTVSPost2010PropOp44
 70
     1
102
RTVSPost2010Prop45
280
     0
102
RTVSPost2010PropOp45
 70
     1
102
RTVSPost2010Prop46
 90
       50
102
RTVSPost2010PropOp46
 70
     1
102
RTVSPost2010Prop47
 90
       50
102
RTVSPost2010PropOp47
 70
     1
102
RTVSPost2010Prop48
 90
       50
102
RTVSPost2010PropOp48
 70
     1
102
RTVSPost2010Prop49
280
     0
102
RTVSPost2010PropOp49
 70
     1
102
RTVSPost2010Prop50
 90
       50
102
RTVSPost2010PropOp50
 70
     1
102
RTVSPost2010Prop51ColorIndex
 90
      256
102
RTVSPost2010Prop51ColorRGB
 90
-16777216
102
RTVSPost2010PropOp51
 70
     0
102
RTVSPost2010Prop52
140
1.0
102
RTVSPost2010PropOp52
 70
     0
102
RTVSPost2010Prop53
 90
        2
102
RTVSPost2010PropOp53
 70
     1
102
RTVSPost2010Prop54
  1
strokes_ogs.tif
102
RTVSPost2010PropOp54
 70
     1
102
RTVSPost2010Prop55
280
     0
102
RTVSPost2010PropOp55
 70
     1
102
RTVSPost2010Prop56
140
1.0
102
RTVSPost2010PropOp56
 70
     1
102
RTVSPost2010Prop57
140
1.0
102
RTVSPost2010PropOp57
 70
     1
  0
XRECORD
  5
D0AF
102
{ACAD_REACTORS
330
D0AE
102
}
330
D0AE
100
AcDbXrecord
280
     1
102
RTVSPropertyOp0
 70
     1
102
RTVSPropertyOp1
 70
     1
102
RTVSPropertyOp2
 70
     1
102
RTVSPropertyOp3
 70
     1
102
RTVSPropertyOp4
 70
     1
102
RTVSPropertyOp5
 70
     1
102
RTVSPropertyOp6
 70
     1
102
RTVSPropertyOp7
 70
     1
102
RTVSPropertyOp8
 70
     1
102
RTVSPropertyOp9
 70
     1
102
RTVSPropertyOp10
 70
     1
102
RTVSPropertyOp11
 70
     1
102
RTVSPropertyOp12
 70
     1
102
RTVSPropertyOp13
 70
     1
102
RTVSPropertyOp14
 70
     1
102
RTVSPropertyOp15
 70
     1
102
RTVSPropertyOp16
 70
     1
102
RTVSPropertyOp17
 70
     1
102
RTVSPropertyOp18
 70
     1
102
RTVSPropertyOp19
 70
     1
102
RTVSPropertyOp20
 70
     1
102
RTVSPropertyOp21
 70
     1
102
RTVSPropertyOp22
 70
     1
102
RTVSPropertyOp23
 70
     1
102
RTVSPropertyOp24
 70
     1
102
RTVSPropertyOp25
 70
     1
102
RTVSPropertyOp26
 70
     1
102
RTVSPropertyOp27
 70
     1
102
RTVSPropertyOp28
 70
     1
102
RTVSPropertyOp29
 70
     1
102
RTVSPropertyOp30
 70
     1
102
RTVSPropertyOp31
 70
     1
102
RTVSPropertyOp32
 70
     1
102
RTVSPropertyOp33
 70
     1
102
RTVSPropertyOp34
 70
     1
102
RTVSPropertyOp35
 70
     1
102
RTVSPropertyOp36
 70
     1
102
RTVSPropertyOp37
 70
     1
102
RTVSPropertyOp38
 70
     1
102
RTVSPropertyOp39
 70
     1
102
RTVSPropertyOp40
 70
     1
102
RTVSPropertyOp41
 70
     1
102
RTVSPropertyOp42
 70
     1
102
RTVSPropertyOp43
 70
     1
102
RTVSPropertyOp44
 70
     1
102
RTVSPropertyOp45
 70
     1
102
RTVSPropertyOp46
 70
     1
102
RTVSPropertyOp47
 70
     1
102
RTVSPropertyOp48
 70
     1
102
RTVSPropertyOp49
 70
     1
102
RTVSPropertyOp50
 70
     1
102
RTVSPropertyOp51
 70
     0
102
RTVSPropertyOp52
 70
     0
102
RTVSPropertyOp53
 70
     1
102
RTVSPropertyOp54
 70
     1
102
RTVSPropertyOp55
 70
     1
102
RTVSPropertyOp56
 70
     1
102
RTVSPropertyOp57
 70
     1
102
RTVSPost2010Prop28
280
     0
102
RTVSPost2010PropOp28
 70
     1
102
RTVSPost2010Prop29
280
     1
102
RTVSPost2010PropOp29
 70
     1
102
RTVSPost2010Prop30
280
     1
102
RTVSPost2010PropOp30
 70
     1
102
RTVSPost2010Prop31
280
     0
102
RTVSPost2010PropOp31
 70
     1
102
RTVSPost2010Prop32
280
     0
102
RTVSPost2010PropOp32
 70
     1
102
RTVSPost2010Prop33
280
     0
102
RTVSPost2010PropOp33
 70
     1
102
RTVSPost2010Prop34
280
     0
102
RTVSPost2010PropOp34
 70
     1
102
RTVSPost2010Prop35
280
     0
102
RTVSPost2010PropOp35
 70
     1
102
RTVSPost2010Prop36
280
     0
102
RTVSPost2010PropOp36
 70
     1
102
RTVSPost2010Prop37
 90
       50
102
RTVSPost2010PropOp37
 70
     1
102
RTVSPost2010Prop38
140
0.0
102
RTVSPost2010PropOp38
 70
     1
102
RTVSPost2010Prop39
140
1.0
102
RTVSPost2010PropOp39
 70
     1
102
RTVSPost2010Prop40
 90
        0
102
RTVSPost2010PropOp40
 70
     1
102
RTVSPost2010Prop41ColorIndex
 90
       18
102
RTVSPost2010Prop41ColorRGB
 90
        0
102
RTVSPost2010PropOp41
 70
     1
102
RTVSPost2010Prop42
 90
       50
102
RTVSPost2010PropOp42
 70
     1
102
RTVSPost2010Prop43
 90
        3
102
RTVSPost2010PropOp43
 70
     1
102
RTVSPost2010Prop44ColorIndex
 90
        5
102
RTVSPost2010Prop44ColorRGB
 90
      255
102
RTVSPost2010PropOp44
 70
     1
102
RTVSPost2010Prop45
280
     0
102
RTVSPost2010PropOp45
 70
     1
102
RTVSPost2010Prop46
 90
       50
102
RTVSPost2010PropOp46
 70
     1
102
RTVSPost2010Prop47
 90
       50
102
RTVSPost2010PropOp47
 70
     1
102
RTVSPost2010Prop48
 90
       50
102
RTVSPost2010PropOp48
 70
     1
102
RTVSPost2010Prop49
280
     0
102
RTVSPost2010PropOp49
 70
     1
102
RTVSPost2010Prop50
 90
       50
102
RTVSPost2010PropOp50
 70
     1
102
RTVSPost2010Prop51ColorIndex
 90
      256
102
RTVSPost2010Prop51ColorRGB
 90
-16777216
102
RTVSPost2010PropOp51
 70
     0
102
RTVSPost2010Prop52
140
1.0
102
RTVSPost2010PropOp52
 70
     0
102
RTVSPost2010Prop53
 90
        2
102
RTVSPost2010PropOp53
 70
     1
102
RTVSPost2010Prop54
  1
strokes_ogs.tif
102
RTVSPost2010PropOp54
 70
     1
102
RTVSPost2010Prop55
280
     0
102
RTVSPost2010PropOp55
 70
     1
102
RTVSPost2010Prop56
140
1.0
102
RTVSPost2010PropOp56
 70
     1
102
RTVSPost2010Prop57
140
1.0
102
RTVSPost2010PropOp57
 70
     1
  0
XRECORD
  5
D0B1
102
{ACAD_REACTORS
330
D0B0
102
}
330
D0B0
100
AcDbXrecord
280
     1
102
RTVSPropertyOp0
 70
     1
102
RTVSPropertyOp1
 70
     1
102
RTVSPropertyOp2
 70
     1
102
RTVSPropertyOp3
 70
     1
102
RTVSPropertyOp4
 70
     1
102
RTVSPropertyOp5
 70
     1
102
RTVSPropertyOp6
 70
     1
102
RTVSPropertyOp7
 70
     1
102
RTVSPropertyOp8
 70
     1
102
RTVSPropertyOp9
 70
     1
102
RTVSPropertyOp10
 70
     1
102
RTVSPropertyOp11
 70
     1
102
RTVSPropertyOp12
 70
     1
102
RTVSPropertyOp13
 70
     1
102
RTVSPropertyOp14
 70
     1
102
RTVSPropertyOp15
 70
     1
102
RTVSPropertyOp16
 70
     1
102
RTVSPropertyOp17
 70
     1
102
RTVSPropertyOp18
 70
     1
102
RTVSPropertyOp19
 70
     1
102
RTVSPropertyOp20
 70
     1
102
RTVSPropertyOp21
 70
     1
102
RTVSPropertyOp22
 70
     1
102
RTVSPropertyOp23
 70
     1
102
RTVSPropertyOp24
 70
     1
102
RTVSPropertyOp25
 70
     1
102
RTVSPropertyOp26
 70
     1
102
RTVSPropertyOp27
 70
     1
102
RTVSPropertyOp28
 70
     1
102
RTVSPropertyOp29
 70
     1
102
RTVSPropertyOp30
 70
     1
102
RTVSPropertyOp31
 70
     1
102
RTVSPropertyOp32
 70
     1
102
RTVSPropertyOp33
 70
     1
102
RTVSPropertyOp34
 70
     1
102
RTVSPropertyOp35
 70
     1
102
RTVSPropertyOp36
 70
     1
102
RTVSPropertyOp37
 70
     1
102
RTVSPropertyOp38
 70
     1
102
RTVSPropertyOp39
 70
     1
102
RTVSPropertyOp40
 70
     1
102
RTVSPropertyOp41
 70
     1
102
RTVSPropertyOp42
 70
     1
102
RTVSPropertyOp43
 70
     1
102
RTVSPropertyOp44
 70
     1
102
RTVSPropertyOp45
 70
     1
102
RTVSPropertyOp46
 70
     1
102
RTVSPropertyOp47
 70
     1
102
RTVSPropertyOp48
 70
     1
102
RTVSPropertyOp49
 70
     1
102
RTVSPropertyOp50
 70
     1
102
RTVSPropertyOp51
 70
     0
102
RTVSPropertyOp52
 70
     0
102
RTVSPropertyOp53
 70
     1
102
RTVSPropertyOp54
 70
     1
102
RTVSPropertyOp55
 70
     1
102
RTVSPropertyOp56
 70
     1
102
RTVSPropertyOp57
 70
     1
102
RTVSPost2010Prop28
280
     0
102
RTVSPost2010PropOp28
 70
     1
102
RTVSPost2010Prop29
280
     1
102
RTVSPost2010PropOp29
 70
     1
102
RTVSPost2010Prop30
280
     1
102
RTVSPost2010PropOp30
 70
     1
102
RTVSPost2010Prop31
280
     0
102
RTVSPost2010PropOp31
 70
     1
102
RTVSPost2010Prop32
280
     0
102
RTVSPost2010PropOp32
 70
     1
102
RTVSPost2010Prop33
280
     0
102
RTVSPost2010PropOp33
 70
     1
102
RTVSPost2010Prop34
280
     0
102
RTVSPost2010PropOp34
 70
     1
102
RTVSPost2010Prop35
280
     0
102
RTVSPost2010PropOp35
 70
     1
102
RTVSPost2010Prop36
280
     0
102
RTVSPost2010PropOp36
 70
     1
102
RTVSPost2010Prop37
 90
       50
102
RTVSPost2010PropOp37
 70
     1
102
RTVSPost2010Prop38
140
0.0
102
RTVSPost2010PropOp38
 70
     1
102
RTVSPost2010Prop39
140
1.0
102
RTVSPost2010PropOp39
 70
     1
102
RTVSPost2010Prop40
 90
        0
102
RTVSPost2010PropOp40
 70
     1
102
RTVSPost2010Prop41ColorIndex
 90
       18
102
RTVSPost2010Prop41ColorRGB
 90
        0
102
RTVSPost2010PropOp41
 70
     1
102
RTVSPost2010Prop42
 90
       50
102
RTVSPost2010PropOp42
 70
     1
102
RTVSPost2010Prop43
 90
        3
102
RTVSPost2010PropOp43
 70
     1
102
RTVSPost2010Prop44ColorIndex
 90
        5
102
RTVSPost2010Prop44ColorRGB
 90
      255
102
RTVSPost2010PropOp44
 70
     1
102
RTVSPost2010Prop45
280
     0
102
RTVSPost2010PropOp45
 70
     1
102
RTVSPost2010Prop46
 90
       50
102
RTVSPost2010PropOp46
 70
     1
102
RTVSPost2010Prop47
 90
       50
102
RTVSPost2010PropOp47
 70
     1
102
RTVSPost2010Prop48
 90
       50
102
RTVSPost2010PropOp48
 70
     1
102
RTVSPost2010Prop49
280
     0
102
RTVSPost2010PropOp49
 70
     1
102
RTVSPost2010Prop50
 90
       50
102
RTVSPost2010PropOp50
 70
     1
102
RTVSPost2010Prop51ColorIndex
 90
      256
102
RTVSPost2010Prop51ColorRGB
 90
-16777216
102
RTVSPost2010PropOp51
 70
     0
102
RTVSPost2010Prop52
140
1.0
102
RTVSPost2010PropOp52
 70
     0
102
RTVSPost2010Prop53
 90
        2
102
RTVSPost2010PropOp53
 70
     1
102
RTVSPost2010Prop54
  1
strokes_ogs.tif
102
RTVSPost2010PropOp54
 70
     1
102
RTVSPost2010Prop55
280
     0
102
RTVSPost2010PropOp55
 70
     1
102
RTVSPost2010Prop56
140
1.0
102
RTVSPost2010PropOp56
 70
     1
102
RTVSPost2010Prop57
140
1.0
102
RTVSPost2010PropOp57
 70
     1
  0
XRECORD
  5
D0B3
102
{ACAD_REACTORS
330
D0B2
102
}
330
D0B2
100
AcDbXrecord
280
     1
102
RTVSPropertyOp0
 70
     1
102
RTVSPropertyOp1
 70
     1
102
RTVSPropertyOp2
 70
     1
102
RTVSPropertyOp3
 70
     1
102
RTVSPropertyOp4
 70
     1
102
RTVSPropertyOp5
 70
     1
102
RTVSPropertyOp6
 70
     1
102
RTVSPropertyOp7
 70
     1
102
RTVSPropertyOp8
 70
     1
102
RTVSPropertyOp9
 70
     1
102
RTVSPropertyOp10
 70
     1
102
RTVSPropertyOp11
 70
     1
102
RTVSPropertyOp12
 70
     1
102
RTVSPropertyOp13
 70
     1
102
RTVSPropertyOp14
 70
     1
102
RTVSPropertyOp15
 70
     1
102
RTVSPropertyOp16
 70
     1
102
RTVSPropertyOp17
 70
     1
102
RTVSPropertyOp18
 70
     1
102
RTVSPropertyOp19
 70
     1
102
RTVSPropertyOp20
 70
     1
102
RTVSPropertyOp21
 70
     1
102
RTVSPropertyOp22
 70
     1
102
RTVSPropertyOp23
 70
     1
102
RTVSPropertyOp24
 70
     1
102
RTVSPropertyOp25
 70
     1
102
RTVSPropertyOp26
 70
     1
102
RTVSPropertyOp27
 70
     1
102
RTVSPropertyOp28
 70
     1
102
RTVSPropertyOp29
 70
     1
102
RTVSPropertyOp30
 70
     1
102
RTVSPropertyOp31
 70
     1
102
RTVSPropertyOp32
 70
     1
102
RTVSPropertyOp33
 70
     1
102
RTVSPropertyOp34
 70
     1
102
RTVSPropertyOp35
 70
     1
102
RTVSPropertyOp36
 70
     1
102
RTVSPropertyOp37
 70
     1
102
RTVSPropertyOp38
 70
     1
102
RTVSPropertyOp39
 70
     1
102
RTVSPropertyOp40
 70
     1
102
RTVSPropertyOp41
 70
     1
102
RTVSPropertyOp42
 70
     1
102
RTVSPropertyOp43
 70
     1
102
RTVSPropertyOp44
 70
     1
102
RTVSPropertyOp45
 70
     1
102
RTVSPropertyOp46
 70
     1
102
RTVSPropertyOp47
 70
     1
102
RTVSPropertyOp48
 70
     1
102
RTVSPropertyOp49
 70
     1
102
RTVSPropertyOp50
 70
     1
102
RTVSPropertyOp51
 70
     0
102
RTVSPropertyOp52
 70
     0
102
RTVSPropertyOp53
 70
     1
102
RTVSPropertyOp54
 70
     1
102
RTVSPropertyOp55
 70
     1
102
RTVSPropertyOp56
 70
     1
102
RTVSPropertyOp57
 70
     1
102
RTVSPost2010Prop28
280
     0
102
RTVSPost2010PropOp28
 70
     1
102
RTVSPost2010Prop29
280
     1
102
RTVSPost2010PropOp29
 70
     1
102
RTVSPost2010Prop30
280
     1
102
RTVSPost2010PropOp30
 70
     1
102
RTVSPost2010Prop31
280
     0
102
RTVSPost2010PropOp31
 70
     1
102
RTVSPost2010Prop32
280
     0
102
RTVSPost2010PropOp32
 70
     1
102
RTVSPost2010Prop33
280
     0
102
RTVSPost2010PropOp33
 70
     1
102
RTVSPost2010Prop34
280
     0
102
RTVSPost2010PropOp34
 70
     1
102
RTVSPost2010Prop35
280
     0
102
RTVSPost2010PropOp35
 70
     1
102
RTVSPost2010Prop36
280
     0
102
RTVSPost2010PropOp36
 70
     1
102
RTVSPost2010Prop37
 90
       50
102
RTVSPost2010PropOp37
 70
     1
102
RTVSPost2010Prop38
140
0.0
102
RTVSPost2010PropOp38
 70
     1
102
RTVSPost2010Prop39
140
1.0
102
RTVSPost2010PropOp39
 70
     1
102
RTVSPost2010Prop40
 90
        0
102
RTVSPost2010PropOp40
 70
     1
102
RTVSPost2010Prop41ColorIndex
 90
       18
102
RTVSPost2010Prop41ColorRGB
 90
        0
102
RTVSPost2010PropOp41
 70
     1
102
RTVSPost2010Prop42
 90
       50
102
RTVSPost2010PropOp42
 70
     1
102
RTVSPost2010Prop43
 90
        3
102
RTVSPost2010PropOp43
 70
     1
102
RTVSPost2010Prop44ColorIndex
 90
        5
102
RTVSPost2010Prop44ColorRGB
 90
      255
102
RTVSPost2010PropOp44
 70
     1
102
RTVSPost2010Prop45
280
     0
102
RTVSPost2010PropOp45
 70
     1
102
RTVSPost2010Prop46
 90
       50
102
RTVSPost2010PropOp46
 70
     1
102
RTVSPost2010Prop47
 90
       50
102
RTVSPost2010PropOp47
 70
     1
102
RTVSPost2010Prop48
 90
       50
102
RTVSPost2010PropOp48
 70
     1
102
RTVSPost2010Prop49
280
     0
102
RTVSPost2010PropOp49
 70
     1
102
RTVSPost2010Prop50
 90
       50
102
RTVSPost2010PropOp50
 70
     1
102
RTVSPost2010Prop51ColorIndex
 90
      256
102
RTVSPost2010Prop51ColorRGB
 90
-16777216
102
RTVSPost2010PropOp51
 70
     0
102
RTVSPost2010Prop52
140
1.0
102
RTVSPost2010PropOp52
 70
     0
102
RTVSPost2010Prop53
 90
        2
102
RTVSPost2010PropOp53
 70
     1
102
RTVSPost2010Prop54
  1
strokes_ogs.tif
102
RTVSPost2010PropOp54
 70
     1
102
RTVSPost2010Prop55
280
     0
102
RTVSPost2010PropOp55
 70
     1
102
RTVSPost2010Prop56
140
1.0
102
RTVSPost2010PropOp56
 70
     1
102
RTVSPost2010Prop57
140
1.0
102
RTVSPost2010PropOp57
 70
     1
  0
XRECORD
  5
D0B5
102
{ACAD_REACTORS
330
D0B4
102
}
330
D0B4
100
AcDbXrecord
280
     1
102
RTVSPropertyOp0
 70
     1
102
RTVSPropertyOp1
 70
     1
102
RTVSPropertyOp2
 70
     1
102
RTVSPropertyOp3
 70
     1
102
RTVSPropertyOp4
 70
     1
102
RTVSPropertyOp5
 70
     1
102
RTVSPropertyOp6
 70
     1
102
RTVSPropertyOp7
 70
     1
102
RTVSPropertyOp8
 70
     1
102
RTVSPropertyOp9
 70
     1
102
RTVSPropertyOp10
 70
     1
102
RTVSPropertyOp11
 70
     1
102
RTVSPropertyOp12
 70
     1
102
RTVSPropertyOp13
 70
     1
102
RTVSPropertyOp14
 70
     1
102
RTVSPropertyOp15
 70
     1
102
RTVSPropertyOp16
 70
     1
102
RTVSPropertyOp17
 70
     1
102
RTVSPropertyOp18
 70
     1
102
RTVSPropertyOp19
 70
     1
102
RTVSPropertyOp20
 70
     1
102
RTVSPropertyOp21
 70
     1
102
RTVSPropertyOp22
 70
     1
102
RTVSPropertyOp23
 70
     1
102
RTVSPropertyOp24
 70
     1
102
RTVSPropertyOp25
 70
     1
102
RTVSPropertyOp26
 70
     1
102
RTVSPropertyOp27
 70
     1
102
RTVSPropertyOp28
 70
     1
102
RTVSPropertyOp29
 70
     1
102
RTVSPropertyOp30
 70
     1
102
RTVSPropertyOp31
 70
     1
102
RTVSPropertyOp32
 70
     1
102
RTVSPropertyOp33
 70
     1
102
RTVSPropertyOp34
 70
     1
102
RTVSPropertyOp35
 70
     1
102
RTVSPropertyOp36
 70
     1
102
RTVSPropertyOp37
 70
     1
102
RTVSPropertyOp38
 70
     1
102
RTVSPropertyOp39
 70
     1
102
RTVSPropertyOp40
 70
     1
102
RTVSPropertyOp41
 70
     1
102
RTVSPropertyOp42
 70
     1
102
RTVSPropertyOp43
 70
     1
102
RTVSPropertyOp44
 70
     1
102
RTVSPropertyOp45
 70
     1
102
RTVSPropertyOp46
 70
     1
102
RTVSPropertyOp47
 70
     1
102
RTVSPropertyOp48
 70
     1
102
RTVSPropertyOp49
 70
     1
102
RTVSPropertyOp50
 70
     1
102
RTVSPropertyOp51
 70
     0
102
RTVSPropertyOp52
 70
     0
102
RTVSPropertyOp53
 70
     1
102
RTVSPropertyOp54
 70
     1
102
RTVSPropertyOp55
 70
     1
102
RTVSPropertyOp56
 70
     1
102
RTVSPropertyOp57
 70
     1
102
RTVSPost2010Prop28
280
     0
102
RTVSPost2010PropOp28
 70
     1
102
RTVSPost2010Prop29
280
     1
102
RTVSPost2010PropOp29
 70
     1
102
RTVSPost2010Prop30
280
     1
102
RTVSPost2010PropOp30
 70
     1
102
RTVSPost2010Prop31
280
     0
102
RTVSPost2010PropOp31
 70
     1
102
RTVSPost2010Prop32
280
     0
102
RTVSPost2010PropOp32
 70
     1
102
RTVSPost2010Prop33
280
     0
102
RTVSPost2010PropOp33
 70
     1
102
RTVSPost2010Prop34
280
     0
102
RTVSPost2010PropOp34
 70
     1
102
RTVSPost2010Prop35
280
     0
102
RTVSPost2010PropOp35
 70
     1
102
RTVSPost2010Prop36
280
     0
102
RTVSPost2010PropOp36
 70
     1
102
RTVSPost2010Prop37
 90
       50
102
RTVSPost2010PropOp37
 70
     1
102
RTVSPost2010Prop38
140
0.0
102
RTVSPost2010PropOp38
 70
     1
102
RTVSPost2010Prop39
140
1.0
102
RTVSPost2010PropOp39
 70
     1
102
RTVSPost2010Prop40
 90
        0
102
RTVSPost2010PropOp40
 70
     1
102
RTVSPost2010Prop41ColorIndex
 90
       18
102
RTVSPost2010Prop41ColorRGB
 90
        0
102
RTVSPost2010PropOp41
 70
     1
102
RTVSPost2010Prop42
 90
       50
102
RTVSPost2010PropOp42
 70
     1
102
RTVSPost2010Prop43
 90
        3
102
RTVSPost2010PropOp43
 70
     1
102
RTVSPost2010Prop44ColorIndex
 90
        5
102
RTVSPost2010Prop44ColorRGB
 90
      255
102
RTVSPost2010PropOp44
 70
     1
102
RTVSPost2010Prop45
280
     0
102
RTVSPost2010PropOp45
 70
     1
102
RTVSPost2010Prop46
 90
       50
102
RTVSPost2010PropOp46
 70
     1
102
RTVSPost2010Prop47
 90
       50
102
RTVSPost2010PropOp47
 70
     1
102
RTVSPost2010Prop48
 90
       50
102
RTVSPost2010PropOp48
 70
     1
102
RTVSPost2010Prop49
280
     0
102
RTVSPost2010PropOp49
 70
     1
102
RTVSPost2010Prop50
 90
       50
102
RTVSPost2010PropOp50
 70
     1
102
RTVSPost2010Prop51ColorIndex
 90
      256
102
RTVSPost2010Prop51ColorRGB
 90
-16777216
102
RTVSPost2010PropOp51
 70
     0
102
RTVSPost2010Prop52
140
1.0
102
RTVSPost2010PropOp52
 70
     0
102
RTVSPost2010Prop53
 90
        2
102
RTVSPost2010PropOp53
 70
     1
102
RTVSPost2010Prop54
  1
strokes_ogs.tif
102
RTVSPost2010PropOp54
 70
     1
102
RTVSPost2010Prop55
280
     0
102
RTVSPost2010PropOp55
 70
     1
102
RTVSPost2010Prop56
140
1.0
102
RTVSPost2010PropOp56
 70
     1
102
RTVSPost2010Prop57
140
1.0
102
RTVSPost2010PropOp57
 70
     1
  0
XRECORD
  5
D0B7
102
{ACAD_REACTORS
330
D0B6
102
}
330
D0B6
100
AcDbXrecord
280
     1
102
RTVSPropertyOp0
 70
     1
102
RTVSPropertyOp1
 70
     1
102
RTVSPropertyOp2
 70
     1
102
RTVSPropertyOp3
 70
     1
102
RTVSPropertyOp4
 70
     1
102
RTVSPropertyOp5
 70
     1
102
RTVSPropertyOp6
 70
     1
102
RTVSPropertyOp7
 70
     1
102
RTVSPropertyOp8
 70
     1
102
RTVSPropertyOp9
 70
     1
102
RTVSPropertyOp10
 70
     1
102
RTVSPropertyOp11
 70
     1
102
RTVSPropertyOp12
 70
     1
102
RTVSPropertyOp13
 70
     1
102
RTVSPropertyOp14
 70
     1
102
RTVSPropertyOp15
 70
     1
102
RTVSPropertyOp16
 70
     1
102
RTVSPropertyOp17
 70
     1
102
RTVSPropertyOp18
 70
     1
102
RTVSPropertyOp19
 70
     1
102
RTVSPropertyOp20
 70
     1
102
RTVSPropertyOp21
 70
     1
102
RTVSPropertyOp22
 70
     1
102
RTVSPropertyOp23
 70
     1
102
RTVSPropertyOp24
 70
     1
102
RTVSPropertyOp25
 70
     1
102
RTVSPropertyOp26
 70
     1
102
RTVSPropertyOp27
 70
     1
102
RTVSPropertyOp28
 70
     1
102
RTVSPropertyOp29
 70
     1
102
RTVSPropertyOp30
 70
     1
102
RTVSPropertyOp31
 70
     1
102
RTVSPropertyOp32
 70
     1
102
RTVSPropertyOp33
 70
     1
102
RTVSPropertyOp34
 70
     1
102
RTVSPropertyOp35
 70
     1
102
RTVSPropertyOp36
 70
     1
102
RTVSPropertyOp37
 70
     1
102
RTVSPropertyOp38
 70
     1
102
RTVSPropertyOp39
 70
     1
102
RTVSPropertyOp40
 70
     1
102
RTVSPropertyOp41
 70
     1
102
RTVSPropertyOp42
 70
     1
102
RTVSPropertyOp43
 70
     1
102
RTVSPropertyOp44
 70
     1
102
RTVSPropertyOp45
 70
     1
102
RTVSPropertyOp46
 70
     1
102
RTVSPropertyOp47
 70
     1
102
RTVSPropertyOp48
 70
     1
102
RTVSPropertyOp49
 70
     1
102
RTVSPropertyOp50
 70
     1
102
RTVSPropertyOp51
 70
     0
102
RTVSPropertyOp52
 70
     0
102
RTVSPropertyOp53
 70
     1
102
RTVSPropertyOp54
 70
     1
102
RTVSPropertyOp55
 70
     1
102
RTVSPropertyOp56
 70
     1
102
RTVSPropertyOp57
 70
     1
102
RTVSPost2010Prop28
280
     0
102
RTVSPost2010PropOp28
 70
     1
102
RTVSPost2010Prop29
280
     1
102
RTVSPost2010PropOp29
 70
     1
102
RTVSPost2010Prop30
280
     1
102
RTVSPost2010PropOp30
 70
     1
102
RTVSPost2010Prop31
280
     0
102
RTVSPost2010PropOp31
 70
     1
102
RTVSPost2010Prop32
280
     0
102
RTVSPost2010PropOp32
 70
     1
102
RTVSPost2010Prop33
280
     0
102
RTVSPost2010PropOp33
 70
     1
102
RTVSPost2010Prop34
280
     0
102
RTVSPost2010PropOp34
 70
     1
102
RTVSPost2010Prop35
280
     0
102
RTVSPost2010PropOp35
 70
     1
102
RTVSPost2010Prop36
280
     0
102
RTVSPost2010PropOp36
 70
     1
102
RTVSPost2010Prop37
 90
       50
102
RTVSPost2010PropOp37
 70
     1
102
RTVSPost2010Prop38
140
0.0
102
RTVSPost2010PropOp38
 70
     1
102
RTVSPost2010Prop39
140
1.0
102
RTVSPost2010PropOp39
 70
     1
102
RTVSPost2010Prop40
 90
        0
102
RTVSPost2010PropOp40
 70
     1
102
RTVSPost2010Prop41ColorIndex
 90
       18
102
RTVSPost2010Prop41ColorRGB
 90
        0
102
RTVSPost2010PropOp41
 70
     1
102
RTVSPost2010Prop42
 90
       50
102
RTVSPost2010PropOp42
 70
     1
102
RTVSPost2010Prop43
 90
        3
102
RTVSPost2010PropOp43
 70
     1
102
RTVSPost2010Prop44ColorIndex
 90
        5
102
RTVSPost2010Prop44ColorRGB
 90
      255
102
RTVSPost2010PropOp44
 70
     1
102
RTVSPost2010Prop45
280
     0
102
RTVSPost2010PropOp45
 70
     1
102
RTVSPost2010Prop46
 90
       50
102
RTVSPost2010PropOp46
 70
     1
102
RTVSPost2010Prop47
 90
       50
102
RTVSPost2010PropOp47
 70
     1
102
RTVSPost2010Prop48
 90
       50
102
RTVSPost2010PropOp48
 70
     1
102
RTVSPost2010Prop49
280
     0
102
RTVSPost2010PropOp49
 70
     1
102
RTVSPost2010Prop50
 90
       50
102
RTVSPost2010PropOp50
 70
     1
102
RTVSPost2010Prop51ColorIndex
 90
      256
102
RTVSPost2010Prop51ColorRGB
 90
-16777216
102
RTVSPost2010PropOp51
 70
     0
102
RTVSPost2010Prop52
140
1.0
102
RTVSPost2010PropOp52
 70
     0
102
RTVSPost2010Prop53
 90
        2
102
RTVSPost2010PropOp53
 70
     1
102
RTVSPost2010Prop54
  1
strokes_ogs.tif
102
RTVSPost2010PropOp54
 70
     1
102
RTVSPost2010Prop55
280
     0
102
RTVSPost2010PropOp55
 70
     1
102
RTVSPost2010Prop56
140
1.0
102
RTVSPost2010PropOp56
 70
     1
102
RTVSPost2010Prop57
140
1.0
102
RTVSPost2010PropOp57
 70
     1
  0
XRECORD
  5
D0B9
102
{ACAD_REACTORS
330
D0B8
102
}
330
D0B8
100
AcDbXrecord
280
     1
102
RTVSPropertyOp0
 70
     0
102
RTVSPropertyOp1
 70
     0
102
RTVSPropertyOp2
 70
     0
102
RTVSPropertyOp3
 70
     0
102
RTVSPropertyOp4
 70
     0
102
RTVSPropertyOp5
 70
     0
102
RTVSPropertyOp6
 70
     0
102
RTVSPropertyOp7
 70
     0
102
RTVSPropertyOp8
 70
     0
102
RTVSPropertyOp9
 70
     0
102
RTVSPropertyOp10
 70
     0
102
RTVSPropertyOp11
 70
     0
102
RTVSPropertyOp12
 70
     0
102
RTVSPropertyOp13
 70
     0
102
RTVSPropertyOp14
 70
     0
102
RTVSPropertyOp15
 70
     0
102
RTVSPropertyOp16
 70
     0
102
RTVSPropertyOp17
 70
     0
102
RTVSPropertyOp18
 70
     0
102
RTVSPropertyOp19
 70
     0
102
RTVSPropertyOp20
 70
     0
102
RTVSPropertyOp21
 70
     0
102
RTVSPropertyOp22
 70
     0
102
RTVSPropertyOp23
 70
     0
102
RTVSPropertyOp24
 70
     0
102
RTVSPropertyOp25
 70
     0
102
RTVSPropertyOp26
 70
     0
102
RTVSPropertyOp27
 70
     0
102
RTVSPropertyOp28
 70
     1
102
RTVSPropertyOp29
 70
     1
102
RTVSPropertyOp30
 70
     1
102
RTVSPropertyOp31
 70
     1
102
RTVSPropertyOp32
 70
     1
102
RTVSPropertyOp33
 70
     1
102
RTVSPropertyOp34
 70
     1
102
RTVSPropertyOp35
 70
     1
102
RTVSPropertyOp36
 70
     1
102
RTVSPropertyOp37
 70
     1
102
RTVSPropertyOp38
 70
     1
102
RTVSPropertyOp39
 70
     1
102
RTVSPropertyOp40
 70
     1
102
RTVSPropertyOp41
 70
     1
102
RTVSPropertyOp42
 70
     1
102
RTVSPropertyOp43
 70
     1
102
RTVSPropertyOp44
 70
     1
102
RTVSPropertyOp45
 70
     1
102
RTVSPropertyOp46
 70
     1
102
RTVSPropertyOp47
 70
     1
102
RTVSPropertyOp48
 70
     1
102
RTVSPropertyOp49
 70
     1
102
RTVSPropertyOp50
 70
     1
102
RTVSPropertyOp51
 70
     0
102
RTVSPropertyOp52
 70
     0
102
RTVSPropertyOp53
 70
     1
102
RTVSPropertyOp54
 70
     1
102
RTVSPropertyOp55
 70
     1
102
RTVSPropertyOp56
 70
     1
102
RTVSPropertyOp57
 70
     1
102
RTVSPost2010Prop28
280
     0
102
RTVSPost2010PropOp28
 70
     1
102
RTVSPost2010Prop29
280
     1
102
RTVSPost2010PropOp29
 70
     1
102
RTVSPost2010Prop30
280
     1
102
RTVSPost2010PropOp30
 70
     1
102
RTVSPost2010Prop31
280
     0
102
RTVSPost2010PropOp31
 70
     1
102
RTVSPost2010Prop32
280
     0
102
RTVSPost2010PropOp32
 70
     1
102
RTVSPost2010Prop33
280
     0
102
RTVSPost2010PropOp33
 70
     1
102
RTVSPost2010Prop34
280
     0
102
RTVSPost2010PropOp34
 70
     1
102
RTVSPost2010Prop35
280
     0
102
RTVSPost2010PropOp35
 70
     1
102
RTVSPost2010Prop36
280
     0
102
RTVSPost2010PropOp36
 70
     1
102
RTVSPost2010Prop37
 90
       50
102
RTVSPost2010PropOp37
 70
     1
102
RTVSPost2010Prop38
140
0.0
102
RTVSPost2010PropOp38
 70
     1
102
RTVSPost2010Prop39
140
1.0
102
RTVSPost2010PropOp39
 70
     1
102
RTVSPost2010Prop40
 90
        0
102
RTVSPost2010PropOp40
 70
     1
102
RTVSPost2010Prop41ColorIndex
 90
       18
102
RTVSPost2010Prop41ColorRGB
 90
        0
102
RTVSPost2010PropOp41
 70
     1
102
RTVSPost2010Prop42
 90
       50
102
RTVSPost2010PropOp42
 70
     1
102
RTVSPost2010Prop43
 90
        3
102
RTVSPost2010PropOp43
 70
     1
102
RTVSPost2010Prop44ColorIndex
 90
        5
102
RTVSPost2010Prop44ColorRGB
 90
      255
102
RTVSPost2010PropOp44
 70
     1
102
RTVSPost2010Prop45
280
     0
102
RTVSPost2010PropOp45
 70
     1
102
RTVSPost2010Prop46
 90
       50
102
RTVSPost2010PropOp46
 70
     1
102
RTVSPost2010Prop47
 90
       50
102
RTVSPost2010PropOp47
 70
     1
102
RTVSPost2010Prop48
 90
       50
102
RTVSPost2010PropOp48
 70
     1
102
RTVSPost2010Prop49
280
     0
102
RTVSPost2010PropOp49
 70
     1
102
RTVSPost2010Prop50
 90
       50
102
RTVSPost2010PropOp50
 70
     1
102
RTVSPost2010Prop51ColorIndex
 90
      256
102
RTVSPost2010Prop51ColorRGB
 90
-16777216
102
RTVSPost2010PropOp51
 70
     0
102
RTVSPost2010Prop52
140
1.0
102
RTVSPost2010PropOp52
 70
     0
102
RTVSPost2010Prop53
 90
        2
102
RTVSPost2010PropOp53
 70
     1
102
RTVSPost2010Prop54
  1
strokes_ogs.tif
102
RTVSPost2010PropOp54
 70
     1
102
RTVSPost2010Prop55
280
     0
102
RTVSPost2010PropOp55
 70
     1
102
RTVSPost2010Prop56
140
1.0
102
RTVSPost2010PropOp56
 70
     1
102
RTVSPost2010Prop57
140
1.0
102
RTVSPost2010PropOp57
 70
     1
  0
XRECORD
  5
D0BB
102
{ACAD_REACTORS
330
D0BA
102
}
330
D0BA
100
AcDbXrecord
280
     1
102
RTVSPropertyOp0
 70
     1
102
RTVSPropertyOp1
 70
     1
102
RTVSPropertyOp2
 70
     1
102
RTVSPropertyOp3
 70
     1
102
RTVSPropertyOp4
 70
     1
102
RTVSPropertyOp5
 70
     1
102
RTVSPropertyOp6
 70
     1
102
RTVSPropertyOp7
 70
     1
102
RTVSPropertyOp8
 70
     1
102
RTVSPropertyOp9
 70
     1
102
RTVSPropertyOp10
 70
     1
102
RTVSPropertyOp11
 70
     1
102
RTVSPropertyOp12
 70
     1
102
RTVSPropertyOp13
 70
     1
102
RTVSPropertyOp14
 70
     1
102
RTVSPropertyOp15
 70
     1
102
RTVSPropertyOp16
 70
     1
102
RTVSPropertyOp17
 70
     1
102
RTVSPropertyOp18
 70
     1
102
RTVSPropertyOp19
 70
     1
102
RTVSPropertyOp20
 70
     1
102
RTVSPropertyOp21
 70
     1
102
RTVSPropertyOp22
 70
     1
102
RTVSPropertyOp23
 70
     1
102
RTVSPropertyOp24
 70
     1
102
RTVSPropertyOp25
 70
     1
102
RTVSPropertyOp26
 70
     1
102
RTVSPropertyOp27
 70
     1
102
RTVSPropertyOp28
 70
     1
102
RTVSPropertyOp29
 70
     1
102
RTVSPropertyOp30
 70
     1
102
RTVSPropertyOp31
 70
     1
102
RTVSPropertyOp32
 70
     1
102
RTVSPropertyOp33
 70
     1
102
RTVSPropertyOp34
 70
     1
102
RTVSPropertyOp35
 70
     1
102
RTVSPropertyOp36
 70
     1
102
RTVSPropertyOp37
 70
     1
102
RTVSPropertyOp38
 70
     1
102
RTVSPropertyOp39
 70
     1
102
RTVSPropertyOp40
 70
     1
102
RTVSPropertyOp41
 70
     1
102
RTVSPropertyOp42
 70
     1
102
RTVSPropertyOp43
 70
     1
102
RTVSPropertyOp44
 70
     1
102
RTVSPropertyOp45
 70
     1
102
RTVSPropertyOp46
 70
     1
102
RTVSPropertyOp47
 70
     1
102
RTVSPropertyOp48
 70
     1
102
RTVSPropertyOp49
 70
     1
102
RTVSPropertyOp50
 70
     1
102
RTVSPropertyOp51
 70
     0
102
RTVSPropertyOp52
 70
     0
102
RTVSPropertyOp53
 70
     1
102
RTVSPropertyOp54
 70
     1
102
RTVSPropertyOp55
 70
     1
102
RTVSPropertyOp56
 70
     1
102
RTVSPropertyOp57
 70
     1
102
RTVSPost2010Prop28
280
     0
102
RTVSPost2010PropOp28
 70
     1
102
RTVSPost2010Prop29
280
     1
102
RTVSPost2010PropOp29
 70
     1
102
RTVSPost2010Prop30
280
     1
102
RTVSPost2010PropOp30
 70
     1
102
RTVSPost2010Prop31
280
     0
102
RTVSPost2010PropOp31
 70
     1
102
RTVSPost2010Prop32
280
     0
102
RTVSPost2010PropOp32
 70
     1
102
RTVSPost2010Prop33
280
     0
102
RTVSPost2010PropOp33
 70
     1
102
RTVSPost2010Prop34
280
     0
102
RTVSPost2010PropOp34
 70
     1
102
RTVSPost2010Prop35
280
     0
102
RTVSPost2010PropOp35
 70
     1
102
RTVSPost2010Prop36
280
     0
102
RTVSPost2010PropOp36
 70
     1
102
RTVSPost2010Prop37
 90
       50
102
RTVSPost2010PropOp37
 70
     1
102
RTVSPost2010Prop38
140
0.0
102
RTVSPost2010PropOp38
 70
     1
102
RTVSPost2010Prop39
140
1.0
102
RTVSPost2010PropOp39
 70
     1
102
RTVSPost2010Prop40
 90
        0
102
RTVSPost2010PropOp40
 70
     1
102
RTVSPost2010Prop41ColorIndex
 90
       18
102
RTVSPost2010Prop41ColorRGB
 90
        0
102
RTVSPost2010PropOp41
 70
     1
102
RTVSPost2010Prop42
 90
       50
102
RTVSPost2010PropOp42
 70
     1
102
RTVSPost2010Prop43
 90
        3
102
RTVSPost2010PropOp43
 70
     1
102
RTVSPost2010Prop44ColorIndex
 90
        5
102
RTVSPost2010Prop44ColorRGB
 90
      255
102
RTVSPost2010PropOp44
 70
     1
102
RTVSPost2010Prop45
280
     0
102
RTVSPost2010PropOp45
 70
     1
102
RTVSPost2010Prop46
 90
       50
102
RTVSPost2010PropOp46
 70
     1
102
RTVSPost2010Prop47
 90
       50
102
RTVSPost2010PropOp47
 70
     1
102
RTVSPost2010Prop48
 90
       50
102
RTVSPost2010PropOp48
 70
     1
102
RTVSPost2010Prop49
280
     0
102
RTVSPost2010PropOp49
 70
     1
102
RTVSPost2010Prop50
 90
       50
102
RTVSPost2010PropOp50
 70
     1
102
RTVSPost2010Prop51ColorIndex
 90
      256
102
RTVSPost2010Prop51ColorRGB
 90
-16777216
102
RTVSPost2010PropOp51
 70
     0
102
RTVSPost2010Prop52
140
1.0
102
RTVSPost2010PropOp52
 70
     0
102
RTVSPost2010Prop53
 90
        2
102
RTVSPost2010PropOp53
 70
     1
102
RTVSPost2010Prop54
  1
strokes_ogs.tif
102
RTVSPost2010PropOp54
 70
     1
102
RTVSPost2010Prop55
280
     0
102
RTVSPost2010PropOp55
 70
     1
102
RTVSPost2010Prop56
140
1.0
102
RTVSPost2010PropOp56
 70
     1
102
RTVSPost2010Prop57
140
1.0
102
RTVSPost2010PropOp57
 70
     1
  0
XRECORD
  5
D0BD
102
{ACAD_REACTORS
330
D0BC
102
}
330
D0BC
100
AcDbXrecord
280
     1
102
RTVSPropertyOp0
 70
     1
102
RTVSPropertyOp1
 70
     1
102
RTVSPropertyOp2
 70
     1
102
RTVSPropertyOp3
 70
     1
102
RTVSPropertyOp4
 70
     1
102
RTVSPropertyOp5
 70
     1
102
RTVSPropertyOp6
 70
     1
102
RTVSPropertyOp7
 70
     1
102
RTVSPropertyOp8
 70
     1
102
RTVSPropertyOp9
 70
     1
102
RTVSPropertyOp10
 70
     1
102
RTVSPropertyOp11
 70
     1
102
RTVSPropertyOp12
 70
     1
102
RTVSPropertyOp13
 70
     1
102
RTVSPropertyOp14
 70
     1
102
RTVSPropertyOp15
 70
     1
102
RTVSPropertyOp16
 70
     1
102
RTVSPropertyOp17
 70
     1
102
RTVSPropertyOp18
 70
     1
102
RTVSPropertyOp19
 70
     1
102
RTVSPropertyOp20
 70
     1
102
RTVSPropertyOp21
 70
     1
102
RTVSPropertyOp22
 70
     1
102
RTVSPropertyOp23
 70
     1
102
RTVSPropertyOp24
 70
     1
102
RTVSPropertyOp25
 70
     1
102
RTVSPropertyOp26
 70
     1
102
RTVSPropertyOp27
 70
     1
102
RTVSPropertyOp28
 70
     1
102
RTVSPropertyOp29
 70
     1
102
RTVSPropertyOp30
 70
     1
102
RTVSPropertyOp31
 70
     1
102
RTVSPropertyOp32
 70
     1
102
RTVSPropertyOp33
 70
     1
102
RTVSPropertyOp34
 70
     1
102
RTVSPropertyOp35
 70
     1
102
RTVSPropertyOp36
 70
     1
102
RTVSPropertyOp37
 70
     1
102
RTVSPropertyOp38
 70
     1
102
RTVSPropertyOp39
 70
     1
102
RTVSPropertyOp40
 70
     1
102
RTVSPropertyOp41
 70
     1
102
RTVSPropertyOp42
 70
     1
102
RTVSPropertyOp43
 70
     1
102
RTVSPropertyOp44
 70
     1
102
RTVSPropertyOp45
 70
     1
102
RTVSPropertyOp46
 70
     1
102
RTVSPropertyOp47
 70
     1
102
RTVSPropertyOp48
 70
     1
102
RTVSPropertyOp49
 70
     1
102
RTVSPropertyOp50
 70
     1
102
RTVSPropertyOp51
 70
     0
102
RTVSPropertyOp52
 70
     0
102
RTVSPropertyOp53
 70
     1
102
RTVSPropertyOp54
 70
     1
102
RTVSPropertyOp55
 70
     1
102
RTVSPropertyOp56
 70
     1
102
RTVSPropertyOp57
 70
     1
102
RTVSPost2010Prop28
280
     0
102
RTVSPost2010PropOp28
 70
     1
102
RTVSPost2010Prop29
280
     1
102
RTVSPost2010PropOp29
 70
     1
102
RTVSPost2010Prop30
280
     1
102
RTVSPost2010PropOp30
 70
     1
102
RTVSPost2010Prop31
280
     0
102
RTVSPost2010PropOp31
 70
     1
102
RTVSPost2010Prop32
280
     0
102
RTVSPost2010PropOp32
 70
     1
102
RTVSPost2010Prop33
280
     0
102
RTVSPost2010PropOp33
 70
     1
102
RTVSPost2010Prop34
280
     0
102
RTVSPost2010PropOp34
 70
     1
102
RTVSPost2010Prop35
280
     0
102
RTVSPost2010PropOp35
 70
     1
102
RTVSPost2010Prop36
280
     0
102
RTVSPost2010PropOp36
 70
     1
102
RTVSPost2010Prop37
 90
       50
102
RTVSPost2010PropOp37
 70
     1
102
RTVSPost2010Prop38
140
0.0
102
RTVSPost2010PropOp38
 70
     1
102
RTVSPost2010Prop39
140
1.0
102
RTVSPost2010PropOp39
 70
     1
102
RTVSPost2010Prop40
 90
        0
102
RTVSPost2010PropOp40
 70
     1
102
RTVSPost2010Prop41ColorIndex
 90
       18
102
RTVSPost2010Prop41ColorRGB
 90
        0
102
RTVSPost2010PropOp41
 70
     1
102
RTVSPost2010Prop42
 90
       50
102
RTVSPost2010PropOp42
 70
     1
102
RTVSPost2010Prop43
 90
        3
102
RTVSPost2010PropOp43
 70
     1
102
RTVSPost2010Prop44ColorIndex
 90
        5
102
RTVSPost2010Prop44ColorRGB
 90
      255
102
RTVSPost2010PropOp44
 70
     1
102
RTVSPost2010Prop45
280
     0
102
RTVSPost2010PropOp45
 70
     1
102
RTVSPost2010Prop46
 90
       50
102
RTVSPost2010PropOp46
 70
     1
102
RTVSPost2010Prop47
 90
       50
102
RTVSPost2010PropOp47
 70
     1
102
RTVSPost2010Prop48
 90
       50
102
RTVSPost2010PropOp48
 70
     1
102
RTVSPost2010Prop49
280
     0
102
RTVSPost2010PropOp49
 70
     1
102
RTVSPost2010Prop50
 90
       50
102
RTVSPost2010PropOp50
 70
     1
102
RTVSPost2010Prop51ColorIndex
 90
      256
102
RTVSPost2010Prop51ColorRGB
 90
-16777216
102
RTVSPost2010PropOp51
 70
     0
102
RTVSPost2010Prop52
140
1.0
102
RTVSPost2010PropOp52
 70
     0
102
RTVSPost2010Prop53
 90
        2
102
RTVSPost2010PropOp53
 70
     1
102
RTVSPost2010Prop54
  1
strokes_ogs.tif
102
RTVSPost2010PropOp54
 70
     1
102
RTVSPost2010Prop55
280
     0
102
RTVSPost2010PropOp55
 70
     1
102
RTVSPost2010Prop56
140
1.0
102
RTVSPost2010PropOp56
 70
     1
102
RTVSPost2010Prop57
140
1.0
102
RTVSPost2010PropOp57
 70
     1
  0
XRECORD
  5
D0BF
102
{ACAD_REACTORS
330
D0BE
102
}
330
D0BE
100
AcDbXrecord
280
     1
102
RTVSPropertyOp0
 70
     1
102
RTVSPropertyOp1
 70
     1
102
RTVSPropertyOp2
 70
     1
102
RTVSPropertyOp3
 70
     1
102
RTVSPropertyOp4
 70
     1
102
RTVSPropertyOp5
 70
     1
102
RTVSPropertyOp6
 70
     1
102
RTVSPropertyOp7
 70
     1
102
RTVSPropertyOp8
 70
     1
102
RTVSPropertyOp9
 70
     1
102
RTVSPropertyOp10
 70
     1
102
RTVSPropertyOp11
 70
     1
102
RTVSPropertyOp12
 70
     1
102
RTVSPropertyOp13
 70
     1
102
RTVSPropertyOp14
 70
     1
102
RTVSPropertyOp15
 70
     1
102
RTVSPropertyOp16
 70
     1
102
RTVSPropertyOp17
 70
     1
102
RTVSPropertyOp18
 70
     1
102
RTVSPropertyOp19
 70
     1
102
RTVSPropertyOp20
 70
     1
102
RTVSPropertyOp21
 70
     1
102
RTVSPropertyOp22
 70
     1
102
RTVSPropertyOp23
 70
     1
102
RTVSPropertyOp24
 70
     1
102
RTVSPropertyOp25
 70
     1
102
RTVSPropertyOp26
 70
     1
102
RTVSPropertyOp27
 70
     1
102
RTVSPropertyOp28
 70
     1
102
RTVSPropertyOp29
 70
     1
102
RTVSPropertyOp30
 70
     1
102
RTVSPropertyOp31
 70
     1
102
RTVSPropertyOp32
 70
     1
102
RTVSPropertyOp33
 70
     1
102
RTVSPropertyOp34
 70
     1
102
RTVSPropertyOp35
 70
     1
102
RTVSPropertyOp36
 70
     1
102
RTVSPropertyOp37
 70
     1
102
RTVSPropertyOp38
 70
     1
102
RTVSPropertyOp39
 70
     1
102
RTVSPropertyOp40
 70
     1
102
RTVSPropertyOp41
 70
     1
102
RTVSPropertyOp42
 70
     1
102
RTVSPropertyOp43
 70
     1
102
RTVSPropertyOp44
 70
     1
102
RTVSPropertyOp45
 70
     1
102
RTVSPropertyOp46
 70
     1
102
RTVSPropertyOp47
 70
     1
102
RTVSPropertyOp48
 70
     1
102
RTVSPropertyOp49
 70
     1
102
RTVSPropertyOp50
 70
     1
102
RTVSPropertyOp51
 70
     0
102
RTVSPropertyOp52
 70
     0
102
RTVSPropertyOp53
 70
     1
102
RTVSPropertyOp54
 70
     1
102
RTVSPropertyOp55
 70
     1
102
RTVSPropertyOp56
 70
     1
102
RTVSPropertyOp57
 70
     1
102
RTVSPost2010Prop28
280
     0
102
RTVSPost2010PropOp28
 70
     1
102
RTVSPost2010Prop29
280
     1
102
RTVSPost2010PropOp29
 70
     1
102
RTVSPost2010Prop30
280
     1
102
RTVSPost2010PropOp30
 70
     1
102
RTVSPost2010Prop31
280
     0
102
RTVSPost2010PropOp31
 70
     1
102
RTVSPost2010Prop32
280
     0
102
RTVSPost2010PropOp32
 70
     1
102
RTVSPost2010Prop33
280
     0
102
RTVSPost2010PropOp33
 70
     1
102
RTVSPost2010Prop34
280
     0
102
RTVSPost2010PropOp34
 70
     1
102
RTVSPost2010Prop35
280
     0
102
RTVSPost2010PropOp35
 70
     1
102
RTVSPost2010Prop36
280
     0
102
RTVSPost2010PropOp36
 70
     1
102
RTVSPost2010Prop37
 90
       50
102
RTVSPost2010PropOp37
 70
     1
102
RTVSPost2010Prop38
140
0.0
102
RTVSPost2010PropOp38
 70
     1
102
RTVSPost2010Prop39
140
1.0
102
RTVSPost2010PropOp39
 70
     1
102
RTVSPost2010Prop40
 90
        0
102
RTVSPost2010PropOp40
 70
     1
102
RTVSPost2010Prop41ColorIndex
 90
       18
102
RTVSPost2010Prop41ColorRGB
 90
        0
102
RTVSPost2010PropOp41
 70
     1
102
RTVSPost2010Prop42
 90
       50
102
RTVSPost2010PropOp42
 70
     1
102
RTVSPost2010Prop43
 90
        3
102
RTVSPost2010PropOp43
 70
     1
102
RTVSPost2010Prop44ColorIndex
 90
        5
102
RTVSPost2010Prop44ColorRGB
 90
      255
102
RTVSPost2010PropOp44
 70
     1
102
RTVSPost2010Prop45
280
     0
102
RTVSPost2010PropOp45
 70
     1
102
RTVSPost2010Prop46
 90
       50
102
RTVSPost2010PropOp46
 70
     1
102
RTVSPost2010Prop47
 90
       50
102
RTVSPost2010PropOp47
 70
     1
102
RTVSPost2010Prop48
 90
       50
102
RTVSPost2010PropOp48
 70
     1
102
RTVSPost2010Prop49
280
     0
102
RTVSPost2010PropOp49
 70
     1
102
RTVSPost2010Prop50
 90
       50
102
RTVSPost2010PropOp50
 70
     1
102
RTVSPost2010Prop51ColorIndex
 90
      256
102
RTVSPost2010Prop51ColorRGB
 90
-16777216
102
RTVSPost2010PropOp51
 70
     0
102
RTVSPost2010Prop52
140
1.0
102
RTVSPost2010PropOp52
 70
     0
102
RTVSPost2010Prop53
 90
        2
102
RTVSPost2010PropOp53
 70
     1
102
RTVSPost2010Prop54
  1
strokes_ogs.tif
102
RTVSPost2010PropOp54
 70
     1
102
RTVSPost2010Prop55
280
     0
102
RTVSPost2010PropOp55
 70
     1
102
RTVSPost2010Prop56
140
1.0
102
RTVSPost2010PropOp56
 70
     1
102
RTVSPost2010Prop57
140
1.0
102
RTVSPost2010PropOp57
 70
     1
  0
XRECORD
  5
D0C1
102
{ACAD_REACTORS
330
D0C0
102
}
330
D0C0
100
AcDbXrecord
280
     1
102
RTVSPropertyOp0
 70
     1
102
RTVSPropertyOp1
 70
     1
102
RTVSPropertyOp2
 70
     1
102
RTVSPropertyOp3
 70
     1
102
RTVSPropertyOp4
 70
     1
102
RTVSPropertyOp5
 70
     1
102
RTVSPropertyOp6
 70
     1
102
RTVSPropertyOp7
 70
     1
102
RTVSPropertyOp8
 70
     1
102
RTVSPropertyOp9
 70
     1
102
RTVSPropertyOp10
 70
     1
102
RTVSPropertyOp11
 70
     1
102
RTVSPropertyOp12
 70
     1
102
RTVSPropertyOp13
 70
     1
102
RTVSPropertyOp14
 70
     1
102
RTVSPropertyOp15
 70
     1
102
RTVSPropertyOp16
 70
     1
102
RTVSPropertyOp17
 70
     1
102
RTVSPropertyOp18
 70
     1
102
RTVSPropertyOp19
 70
     1
102
RTVSPropertyOp20
 70
     1
102
RTVSPropertyOp21
 70
     1
102
RTVSPropertyOp22
 70
     1
102
RTVSPropertyOp23
 70
     1
102
RTVSPropertyOp24
 70
     1
102
RTVSPropertyOp25
 70
     1
102
RTVSPropertyOp26
 70
     1
102
RTVSPropertyOp27
 70
     1
102
RTVSPropertyOp28
 70
     1
102
RTVSPropertyOp29
 70
     1
102
RTVSPropertyOp30
 70
     1
102
RTVSPropertyOp31
 70
     1
102
RTVSPropertyOp32
 70
     1
102
RTVSPropertyOp33
 70
     1
102
RTVSPropertyOp34
 70
     1
102
RTVSPropertyOp35
 70
     1
102
RTVSPropertyOp36
 70
     1
102
RTVSPropertyOp37
 70
     1
102
RTVSPropertyOp38
 70
     1
102
RTVSPropertyOp39
 70
     1
102
RTVSPropertyOp40
 70
     1
102
RTVSPropertyOp41
 70
     1
102
RTVSPropertyOp42
 70
     1
102
RTVSPropertyOp43
 70
     1
102
RTVSPropertyOp44
 70
     1
102
RTVSPropertyOp45
 70
     1
102
RTVSPropertyOp46
 70
     1
102
RTVSPropertyOp47
 70
     1
102
RTVSPropertyOp48
 70
     1
102
RTVSPropertyOp49
 70
     1
102
RTVSPropertyOp50
 70
     1
102
RTVSPropertyOp51
 70
     0
102
RTVSPropertyOp52
 70
     0
102
RTVSPropertyOp53
 70
     1
102
RTVSPropertyOp54
 70
     1
102
RTVSPropertyOp55
 70
     1
102
RTVSPropertyOp56
 70
     1
102
RTVSPropertyOp57
 70
     1
102
RTVSPost2010Prop28
280
     0
102
RTVSPost2010PropOp28
 70
     1
102
RTVSPost2010Prop29
280
     1
102
RTVSPost2010PropOp29
 70
     1
102
RTVSPost2010Prop30
280
     1
102
RTVSPost2010PropOp30
 70
     1
102
RTVSPost2010Prop31
280
     0
102
RTVSPost2010PropOp31
 70
     1
102
RTVSPost2010Prop32
280
     0
102
RTVSPost2010PropOp32
 70
     1
102
RTVSPost2010Prop33
280
     0
102
RTVSPost2010PropOp33
 70
     1
102
RTVSPost2010Prop34
280
     0
102
RTVSPost2010PropOp34
 70
     1
102
RTVSPost2010Prop35
280
     0
102
RTVSPost2010PropOp35
 70
     1
102
RTVSPost2010Prop36
280
     0
102
RTVSPost2010PropOp36
 70
     1
102
RTVSPost2010Prop37
 90
       50
102
RTVSPost2010PropOp37
 70
     1
102
RTVSPost2010Prop38
140
0.0
102
RTVSPost2010PropOp38
 70
     1
102
RTVSPost2010Prop39
140
1.0
102
RTVSPost2010PropOp39
 70
     1
102
RTVSPost2010Prop40
 90
        0
102
RTVSPost2010PropOp40
 70
     1
102
RTVSPost2010Prop41ColorIndex
 90
       18
102
RTVSPost2010Prop41ColorRGB
 90
        0
102
RTVSPost2010PropOp41
 70
     1
102
RTVSPost2010Prop42
 90
       50
102
RTVSPost2010PropOp42
 70
     1
102
RTVSPost2010Prop43
 90
        3
102
RTVSPost2010PropOp43
 70
     1
102
RTVSPost2010Prop44ColorIndex
 90
        5
102
RTVSPost2010Prop44ColorRGB
 90
      255
102
RTVSPost2010PropOp44
 70
     1
102
RTVSPost2010Prop45
280
     0
102
RTVSPost2010PropOp45
 70
     1
102
RTVSPost2010Prop46
 90
       50
102
RTVSPost2010PropOp46
 70
     1
102
RTVSPost2010Prop47
 90
       50
102
RTVSPost2010PropOp47
 70
     1
102
RTVSPost2010Prop48
 90
       50
102
RTVSPost2010PropOp48
 70
     1
102
RTVSPost2010Prop49
280
     0
102
RTVSPost2010PropOp49
 70
     1
102
RTVSPost2010Prop50
 90
       50
102
RTVSPost2010PropOp50
 70
     1
102
RTVSPost2010Prop51ColorIndex
 90
      256
102
RTVSPost2010Prop51ColorRGB
 90
-16777216
102
RTVSPost2010PropOp51
 70
     0
102
RTVSPost2010Prop52
140
1.0
102
RTVSPost2010PropOp52
 70
     0
102
RTVSPost2010Prop53
 90
        2
102
RTVSPost2010PropOp53
 70
     1
102
RTVSPost2010Prop54
  1
strokes_ogs.tif
102
RTVSPost2010PropOp54
 70
     1
102
RTVSPost2010Prop55
280
     0
102
RTVSPost2010PropOp55
 70
     1
102
RTVSPost2010Prop56
140
1.0
102
RTVSPost2010PropOp56
 70
     1
102
RTVSPost2010Prop57
140
1.0
102
RTVSPost2010PropOp57
 70
     1
  0
XRECORD
  5
D0C3
102
{ACAD_REACTORS
330
D0C2
102
}
330
D0C2
100
AcDbXrecord
280
     1
102
RTVSPropertyOp0
 70
     1
102
RTVSPropertyOp1
 70
     1
102
RTVSPropertyOp2
 70
     1
102
RTVSPropertyOp3
 70
     1
102
RTVSPropertyOp4
 70
     1
102
RTVSPropertyOp5
 70
     1
102
RTVSPropertyOp6
 70
     1
102
RTVSPropertyOp7
 70
     1
102
RTVSPropertyOp8
 70
     1
102
RTVSPropertyOp9
 70
     1
102
RTVSPropertyOp10
 70
     1
102
RTVSPropertyOp11
 70
     1
102
RTVSPropertyOp12
 70
     1
102
RTVSPropertyOp13
 70
     1
102
RTVSPropertyOp14
 70
     1
102
RTVSPropertyOp15
 70
     1
102
RTVSPropertyOp16
 70
     1
102
RTVSPropertyOp17
 70
     1
102
RTVSPropertyOp18
 70
     1
102
RTVSPropertyOp19
 70
     1
102
RTVSPropertyOp20
 70
     1
102
RTVSPropertyOp21
 70
     1
102
RTVSPropertyOp22
 70
     1
102
RTVSPropertyOp23
 70
     1
102
RTVSPropertyOp24
 70
     1
102
RTVSPropertyOp25
 70
     1
102
RTVSPropertyOp26
 70
     1
102
RTVSPropertyOp27
 70
     1
102
RTVSPropertyOp28
 70
     1
102
RTVSPropertyOp29
 70
     1
102
RTVSPropertyOp30
 70
     1
102
RTVSPropertyOp31
 70
     1
102
RTVSPropertyOp32
 70
     1
102
RTVSPropertyOp33
 70
     1
102
RTVSPropertyOp34
 70
     1
102
RTVSPropertyOp35
 70
     1
102
RTVSPropertyOp36
 70
     1
102
RTVSPropertyOp37
 70
     1
102
RTVSPropertyOp38
 70
     1
102
RTVSPropertyOp39
 70
     1
102
RTVSPropertyOp40
 70
     1
102
RTVSPropertyOp41
 70
     1
102
RTVSPropertyOp42
 70
     1
102
RTVSPropertyOp43
 70
     1
102
RTVSPropertyOp44
 70
     1
102
RTVSPropertyOp45
 70
     1
102
RTVSPropertyOp46
 70
     1
102
RTVSPropertyOp47
 70
     1
102
RTVSPropertyOp48
 70
     1
102
RTVSPropertyOp49
 70
     1
102
RTVSPropertyOp50
 70
     1
102
RTVSPropertyOp51
 70
     0
102
RTVSPropertyOp52
 70
     0
102
RTVSPropertyOp53
 70
     1
102
RTVSPropertyOp54
 70
     1
102
RTVSPropertyOp55
 70
     1
102
RTVSPropertyOp56
 70
     1
102
RTVSPropertyOp57
 70
     1
102
RTVSPost2010Prop28
280
     0
102
RTVSPost2010PropOp28
 70
     1
102
RTVSPost2010Prop29
280
     1
102
RTVSPost2010PropOp29
 70
     1
102
RTVSPost2010Prop30
280
     1
102
RTVSPost2010PropOp30
 70
     1
102
RTVSPost2010Prop31
280
     0
102
RTVSPost2010PropOp31
 70
     1
102
RTVSPost2010Prop32
280
     0
102
RTVSPost2010PropOp32
 70
     1
102
RTVSPost2010Prop33
280
     0
102
RTVSPost2010PropOp33
 70
     1
102
RTVSPost2010Prop34
280
     0
102
RTVSPost2010PropOp34
 70
     1
102
RTVSPost2010Prop35
280
     0
102
RTVSPost2010PropOp35
 70
     1
102
RTVSPost2010Prop36
280
     0
102
RTVSPost2010PropOp36
 70
     1
102
RTVSPost2010Prop37
 90
       50
102
RTVSPost2010PropOp37
 70
     1
102
RTVSPost2010Prop38
140
0.0
102
RTVSPost2010PropOp38
 70
     1
102
RTVSPost2010Prop39
140
1.0
102
RTVSPost2010PropOp39
 70
     1
102
RTVSPost2010Prop40
 90
        0
102
RTVSPost2010PropOp40
 70
     1
102
RTVSPost2010Prop41ColorIndex
 90
       18
102
RTVSPost2010Prop41ColorRGB
 90
        0
102
RTVSPost2010PropOp41
 70
     1
102
RTVSPost2010Prop42
 90
       50
102
RTVSPost2010PropOp42
 70
     1
102
RTVSPost2010Prop43
 90
        3
102
RTVSPost2010PropOp43
 70
     1
102
RTVSPost2010Prop44ColorIndex
 90
        5
102
RTVSPost2010Prop44ColorRGB
 90
      255
102
RTVSPost2010PropOp44
 70
     1
102
RTVSPost2010Prop45
280
     0
102
RTVSPost2010PropOp45
 70
     1
102
RTVSPost2010Prop46
 90
       50
102
RTVSPost2010PropOp46
 70
     1
102
RTVSPost2010Prop47
 90
       50
102
RTVSPost2010PropOp47
 70
     1
102
RTVSPost2010Prop48
 90
       50
102
RTVSPost2010PropOp48
 70
     1
102
RTVSPost2010Prop49
280
     0
102
RTVSPost2010PropOp49
 70
     1
102
RTVSPost2010Prop50
 90
       50
102
RTVSPost2010PropOp50
 70
     1
102
RTVSPost2010Prop51ColorIndex
 90
      256
102
RTVSPost2010Prop51ColorRGB
 90
-16777216
102
RTVSPost2010PropOp51
 70
     0
102
RTVSPost2010Prop52
140
1.0
102
RTVSPost2010PropOp52
 70
     0
102
RTVSPost2010Prop53
 90
        2
102
RTVSPost2010PropOp53
 70
     1
102
RTVSPost2010Prop54
  1
strokes_ogs.tif
102
RTVSPost2010PropOp54
 70
     1
102
RTVSPost2010Prop55
280
     0
102
RTVSPost2010PropOp55
 70
     1
102
RTVSPost2010Prop56
140
1.0
102
RTVSPost2010PropOp56
 70
     1
102
RTVSPost2010Prop57
140
1.0
102
RTVSPost2010PropOp57
 70
     1
  0
XRECORD
  5
D0C5
102
{ACAD_REACTORS
330
D0C4
102
}
330
D0C4
100
AcDbXrecord
280
     1
102
RTVSPropertyOp0
 70
     1
102
RTVSPropertyOp1
 70
     1
102
RTVSPropertyOp2
 70
     1
102
RTVSPropertyOp3
 70
     1
102
RTVSPropertyOp4
 70
     1
102
RTVSPropertyOp5
 70
     1
102
RTVSPropertyOp6
 70
     1
102
RTVSPropertyOp7
 70
     1
102
RTVSPropertyOp8
 70
     1
102
RTVSPropertyOp9
 70
     1
102
RTVSPropertyOp10
 70
     1
102
RTVSPropertyOp11
 70
     1
102
RTVSPropertyOp12
 70
     1
102
RTVSPropertyOp13
 70
     1
102
RTVSPropertyOp14
 70
     1
102
RTVSPropertyOp15
 70
     1
102
RTVSPropertyOp16
 70
     1
102
RTVSPropertyOp17
 70
     1
102
RTVSPropertyOp18
 70
     1
102
RTVSPropertyOp19
 70
     1
102
RTVSPropertyOp20
 70
     1
102
RTVSPropertyOp21
 70
     1
102
RTVSPropertyOp22
 70
     1
102
RTVSPropertyOp23
 70
     1
102
RTVSPropertyOp24
 70
     1
102
RTVSPropertyOp25
 70
     1
102
RTVSPropertyOp26
 70
     1
102
RTVSPropertyOp27
 70
     1
102
RTVSPropertyOp28
 70
     1
102
RTVSPropertyOp29
 70
     1
102
RTVSPropertyOp30
 70
     1
102
RTVSPropertyOp31
 70
     1
102
RTVSPropertyOp32
 70
     1
102
RTVSPropertyOp33
 70
     1
102
RTVSPropertyOp34
 70
     1
102
RTVSPropertyOp35
 70
     1
102
RTVSPropertyOp36
 70
     1
102
RTVSPropertyOp37
 70
     1
102
RTVSPropertyOp38
 70
     1
102
RTVSPropertyOp39
 70
     1
102
RTVSPropertyOp40
 70
     1
102
RTVSPropertyOp41
 70
     1
102
RTVSPropertyOp42
 70
     1
102
RTVSPropertyOp43
 70
     1
102
RTVSPropertyOp44
 70
     1
102
RTVSPropertyOp45
 70
     1
102
RTVSPropertyOp46
 70
     1
102
RTVSPropertyOp47
 70
     1
102
RTVSPropertyOp48
 70
     1
102
RTVSPropertyOp49
 70
     1
102
RTVSPropertyOp50
 70
     1
102
RTVSPropertyOp51
 70
     0
102
RTVSPropertyOp52
 70
     0
102
RTVSPropertyOp53
 70
     1
102
RTVSPropertyOp54
 70
     1
102
RTVSPropertyOp55
 70
     1
102
RTVSPropertyOp56
 70
     1
102
RTVSPropertyOp57
 70
     1
102
RTVSPost2010Prop28
280
     0
102
RTVSPost2010PropOp28
 70
     1
102
RTVSPost2010Prop29
280
     1
102
RTVSPost2010PropOp29
 70
     1
102
RTVSPost2010Prop30
280
     1
102
RTVSPost2010PropOp30
 70
     1
102
RTVSPost2010Prop31
280
     0
102
RTVSPost2010PropOp31
 70
     1
102
RTVSPost2010Prop32
280
     0
102
RTVSPost2010PropOp32
 70
     1
102
RTVSPost2010Prop33
280
     0
102
RTVSPost2010PropOp33
 70
     1
102
RTVSPost2010Prop34
280
     0
102
RTVSPost2010PropOp34
 70
     1
102
RTVSPost2010Prop35
280
     0
102
RTVSPost2010PropOp35
 70
     1
102
RTVSPost2010Prop36
280
     0
102
RTVSPost2010PropOp36
 70
     1
102
RTVSPost2010Prop37
 90
       50
102
RTVSPost2010PropOp37
 70
     1
102
RTVSPost2010Prop38
140
0.0
102
RTVSPost2010PropOp38
 70
     1
102
RTVSPost2010Prop39
140
1.0
102
RTVSPost2010PropOp39
 70
     1
102
RTVSPost2010Prop40
 90
        0
102
RTVSPost2010PropOp40
 70
     1
102
RTVSPost2010Prop41ColorIndex
 90
       18
102
RTVSPost2010Prop41ColorRGB
 90
        0
102
RTVSPost2010PropOp41
 70
     1
102
RTVSPost2010Prop42
 90
       50
102
RTVSPost2010PropOp42
 70
     1
102
RTVSPost2010Prop43
 90
        3
102
RTVSPost2010PropOp43
 70
     1
102
RTVSPost2010Prop44ColorIndex
 90
        5
102
RTVSPost2010Prop44ColorRGB
 90
      255
102
RTVSPost2010PropOp44
 70
     1
102
RTVSPost2010Prop45
280
     0
102
RTVSPost2010PropOp45
 70
     1
102
RTVSPost2010Prop46
 90
       50
102
RTVSPost2010PropOp46
 70
     1
102
RTVSPost2010Prop47
 90
       50
102
RTVSPost2010PropOp47
 70
     1
102
RTVSPost2010Prop48
 90
       50
102
RTVSPost2010PropOp48
 70
     1
102
RTVSPost2010Prop49
280
     0
102
RTVSPost2010PropOp49
 70
     1
102
RTVSPost2010Prop50
 90
       50
102
RTVSPost2010PropOp50
 70
     1
102
RTVSPost2010Prop51ColorIndex
 90
      256
102
RTVSPost2010Prop51ColorRGB
 90
-16777216
102
RTVSPost2010PropOp51
 70
     0
102
RTVSPost2010Prop52
140
1.0
102
RTVSPost2010PropOp52
 70
     0
102
RTVSPost2010Prop53
 90
        2
102
RTVSPost2010PropOp53
 70
     1
102
RTVSPost2010Prop54
  1
strokes_ogs.tif
102
RTVSPost2010PropOp54
 70
     1
102
RTVSPost2010Prop55
280
     0
102
RTVSPost2010PropOp55
 70
     1
102
RTVSPost2010Prop56
140
1.0
102
RTVSPost2010PropOp56
 70
     1
102
RTVSPost2010Prop57
140
1.0
102
RTVSPost2010PropOp57
 70
     1
  0
XRECORD
  5
D0C7
102
{ACAD_REACTORS
330
D0C6
102
}
330
D0C6
100
AcDbXrecord
280
     1
102
RTVSPropertyOp0
 70
     0
102
RTVSPropertyOp1
 70
     0
102
RTVSPropertyOp2
 70
     0
102
RTVSPropertyOp3
 70
     0
102
RTVSPropertyOp4
 70
     0
102
RTVSPropertyOp5
 70
     0
102
RTVSPropertyOp6
 70
     0
102
RTVSPropertyOp7
 70
     0
102
RTVSPropertyOp8
 70
     0
102
RTVSPropertyOp9
 70
     0
102
RTVSPropertyOp10
 70
     0
102
RTVSPropertyOp11
 70
     0
102
RTVSPropertyOp12
 70
     0
102
RTVSPropertyOp13
 70
     0
102
RTVSPropertyOp14
 70
     0
102
RTVSPropertyOp15
 70
     0
102
RTVSPropertyOp16
 70
     0
102
RTVSPropertyOp17
 70
     0
102
RTVSPropertyOp18
 70
     0
102
RTVSPropertyOp19
 70
     0
102
RTVSPropertyOp20
 70
     0
102
RTVSPropertyOp21
 70
     0
102
RTVSPropertyOp22
 70
     0
102
RTVSPropertyOp23
 70
     0
102
RTVSPropertyOp24
 70
     0
102
RTVSPropertyOp25
 70
     0
102
RTVSPropertyOp26
 70
     0
102
RTVSPropertyOp27
 70
     0
102
RTVSPropertyOp28
 70
     1
102
RTVSPropertyOp29
 70
     1
102
RTVSPropertyOp30
 70
     1
102
RTVSPropertyOp31
 70
     1
102
RTVSPropertyOp32
 70
     1
102
RTVSPropertyOp33
 70
     1
102
RTVSPropertyOp34
 70
     1
102
RTVSPropertyOp35
 70
     1
102
RTVSPropertyOp36
 70
     1
102
RTVSPropertyOp37
 70
     1
102
RTVSPropertyOp38
 70
     1
102
RTVSPropertyOp39
 70
     1
102
RTVSPropertyOp40
 70
     1
102
RTVSPropertyOp41
 70
     1
102
RTVSPropertyOp42
 70
     1
102
RTVSPropertyOp43
 70
     1
102
RTVSPropertyOp44
 70
     1
102
RTVSPropertyOp45
 70
     1
102
RTVSPropertyOp46
 70
     1
102
RTVSPropertyOp47
 70
     1
102
RTVSPropertyOp48
 70
     1
102
RTVSPropertyOp49
 70
     1
102
RTVSPropertyOp50
 70
     1
102
RTVSPropertyOp51
 70
     0
102
RTVSPropertyOp52
 70
     0
102
RTVSPropertyOp53
 70
     1
102
RTVSPropertyOp54
 70
     1
102
RTVSPropertyOp55
 70
     1
102
RTVSPropertyOp56
 70
     1
102
RTVSPropertyOp57
 70
     1
102
RTVSPost2010Prop28
280
     0
102
RTVSPost2010PropOp28
 70
     1
102
RTVSPost2010Prop29
280
     1
102
RTVSPost2010PropOp29
 70
     1
102
RTVSPost2010Prop30
280
     1
102
RTVSPost2010PropOp30
 70
     1
102
RTVSPost2010Prop31
280
     0
102
RTVSPost2010PropOp31
 70
     1
102
RTVSPost2010Prop32
280
     0
102
RTVSPost2010PropOp32
 70
     1
102
RTVSPost2010Prop33
280
     0
102
RTVSPost2010PropOp33
 70
     1
102
RTVSPost2010Prop34
280
     0
102
RTVSPost2010PropOp34
 70
     1
102
RTVSPost2010Prop35
280
     0
102
RTVSPost2010PropOp35
 70
     1
102
RTVSPost2010Prop36
280
     0
102
RTVSPost2010PropOp36
 70
     1
102
RTVSPost2010Prop37
 90
       50
102
RTVSPost2010PropOp37
 70
     1
102
RTVSPost2010Prop38
140
0.0
102
RTVSPost2010PropOp38
 70
     1
102
RTVSPost2010Prop39
140
1.0
102
RTVSPost2010PropOp39
 70
     1
102
RTVSPost2010Prop40
 90
        0
102
RTVSPost2010PropOp40
 70
     1
102
RTVSPost2010Prop41ColorIndex
 90
       18
102
RTVSPost2010Prop41ColorRGB
 90
        0
102
RTVSPost2010PropOp41
 70
     1
102
RTVSPost2010Prop42
 90
       50
102
RTVSPost2010PropOp42
 70
     1
102
RTVSPost2010Prop43
 90
        3
102
RTVSPost2010PropOp43
 70
     1
102
RTVSPost2010Prop44ColorIndex
 90
        5
102
RTVSPost2010Prop44ColorRGB
 90
      255
102
RTVSPost2010PropOp44
 70
     1
102
RTVSPost2010Prop45
280
     0
102
RTVSPost2010PropOp45
 70
     1
102
RTVSPost2010Prop46
 90
       50
102
RTVSPost2010PropOp46
 70
     1
102
RTVSPost2010Prop47
 90
       50
102
RTVSPost2010PropOp47
 70
     1
102
RTVSPost2010Prop48
 90
       50
102
RTVSPost2010PropOp48
 70
     1
102
RTVSPost2010Prop49
280
     0
102
RTVSPost2010PropOp49
 70
     1
102
RTVSPost2010Prop50
 90
       50
102
RTVSPost2010PropOp50
 70
     1
102
RTVSPost2010Prop51ColorIndex
 90
      256
102
RTVSPost2010Prop51ColorRGB
 90
-16777216
102
RTVSPost2010PropOp51
 70
     0
102
RTVSPost2010Prop52
140
1.0
102
RTVSPost2010PropOp52
 70
     0
102
RTVSPost2010Prop53
 90
        2
102
RTVSPost2010PropOp53
 70
     1
102
RTVSPost2010Prop54
  1
strokes_ogs.tif
102
RTVSPost2010PropOp54
 70
     1
102
RTVSPost2010Prop55
280
     0
102
RTVSPost2010PropOp55
 70
     1
102
RTVSPost2010Prop56
140
1.0
102
RTVSPost2010PropOp56
 70
     1
102
RTVSPost2010Prop57
140
1.0
102
RTVSPost2010PropOp57
 70
     1
  0
XRECORD
  5
D0C9
102
{ACAD_REACTORS
330
D0C8
102
}
330
D0C8
100
AcDbXrecord
280
     1
102
RTVSPropertyOp0
 70
     1
102
RTVSPropertyOp1
 70
     1
102
RTVSPropertyOp2
 70
     1
102
RTVSPropertyOp3
 70
     1
102
RTVSPropertyOp4
 70
     1
102
RTVSPropertyOp5
 70
     1
102
RTVSPropertyOp6
 70
     1
102
RTVSPropertyOp7
 70
     1
102
RTVSPropertyOp8
 70
     1
102
RTVSPropertyOp9
 70
     1
102
RTVSPropertyOp10
 70
     1
102
RTVSPropertyOp11
 70
     1
102
RTVSPropertyOp12
 70
     1
102
RTVSPropertyOp13
 70
     1
102
RTVSPropertyOp14
 70
     1
102
RTVSPropertyOp15
 70
     1
102
RTVSPropertyOp16
 70
     1
102
RTVSPropertyOp17
 70
     1
102
RTVSPropertyOp18
 70
     1
102
RTVSPropertyOp19
 70
     1
102
RTVSPropertyOp20
 70
     1
102
RTVSPropertyOp21
 70
     1
102
RTVSPropertyOp22
 70
     1
102
RTVSPropertyOp23
 70
     1
102
RTVSPropertyOp24
 70
     1
102
RTVSPropertyOp25
 70
     1
102
RTVSPropertyOp26
 70
     1
102
RTVSPropertyOp27
 70
     1
102
RTVSPropertyOp28
 70
     1
102
RTVSPropertyOp29
 70
     1
102
RTVSPropertyOp30
 70
     1
102
RTVSPropertyOp31
 70
     1
102
RTVSPropertyOp32
 70
     1
102
RTVSPropertyOp33
 70
     1
102
RTVSPropertyOp34
 70
     1
102
RTVSPropertyOp35
 70
     1
102
RTVSPropertyOp36
 70
     1
102
RTVSPropertyOp37
 70
     1
102
RTVSPropertyOp38
 70
     1
102
RTVSPropertyOp39
 70
     1
102
RTVSPropertyOp40
 70
     1
102
RTVSPropertyOp41
 70
     1
102
RTVSPropertyOp42
 70
     1
102
RTVSPropertyOp43
 70
     1
102
RTVSPropertyOp44
 70
     1
102
RTVSPropertyOp45
 70
     1
102
RTVSPropertyOp46
 70
     1
102
RTVSPropertyOp47
 70
     1
102
RTVSPropertyOp48
 70
     1
102
RTVSPropertyOp49
 70
     1
102
RTVSPropertyOp50
 70
     1
102
RTVSPropertyOp51
 70
     0
102
RTVSPropertyOp52
 70
     0
102
RTVSPropertyOp53
 70
     1
102
RTVSPropertyOp54
 70
     1
102
RTVSPropertyOp55
 70
     1
102
RTVSPropertyOp56
 70
     1
102
RTVSPropertyOp57
 70
     1
102
RTVSPost2010Prop28
280
     0
102
RTVSPost2010PropOp28
 70
     1
102
RTVSPost2010Prop29
280
     1
102
RTVSPost2010PropOp29
 70
     1
102
RTVSPost2010Prop30
280
     1
102
RTVSPost2010PropOp30
 70
     1
102
RTVSPost2010Prop31
280
     0
102
RTVSPost2010PropOp31
 70
     1
102
RTVSPost2010Prop32
280
     0
102
RTVSPost2010PropOp32
 70
     1
102
RTVSPost2010Prop33
280
     0
102
RTVSPost2010PropOp33
 70
     1
102
RTVSPost2010Prop34
280
     0
102
RTVSPost2010PropOp34
 70
     1
102
RTVSPost2010Prop35
280
     0
102
RTVSPost2010PropOp35
 70
     1
102
RTVSPost2010Prop36
280
     0
102
RTVSPost2010PropOp36
 70
     1
102
RTVSPost2010Prop37
 90
       50
102
RTVSPost2010PropOp37
 70
     1
102
RTVSPost2010Prop38
140
0.0
102
RTVSPost2010PropOp38
 70
     1
102
RTVSPost2010Prop39
140
1.0
102
RTVSPost2010PropOp39
 70
     1
102
RTVSPost2010Prop40
 90
        0
102
RTVSPost2010PropOp40
 70
     1
102
RTVSPost2010Prop41ColorIndex
 90
       18
102
RTVSPost2010Prop41ColorRGB
 90
        0
102
RTVSPost2010PropOp41
 70
     1
102
RTVSPost2010Prop42
 90
       50
102
RTVSPost2010PropOp42
 70
     1
102
RTVSPost2010Prop43
 90
        3
102
RTVSPost2010PropOp43
 70
     1
102
RTVSPost2010Prop44ColorIndex
 90
        5
102
RTVSPost2010Prop44ColorRGB
 90
      255
102
RTVSPost2010PropOp44
 70
     1
102
RTVSPost2010Prop45
280
     0
102
RTVSPost2010PropOp45
 70
     1
102
RTVSPost2010Prop46
 90
       50
102
RTVSPost2010PropOp46
 70
     1
102
RTVSPost2010Prop47
 90
       50
102
RTVSPost2010PropOp47
 70
     1
102
RTVSPost2010Prop48
 90
       50
102
RTVSPost2010PropOp48
 70
     1
102
RTVSPost2010Prop49
280
     0
102
RTVSPost2010PropOp49
 70
     1
102
RTVSPost2010Prop50
 90
       50
102
RTVSPost2010PropOp50
 70
     1
102
RTVSPost2010Prop51ColorIndex
 90
      256
102
RTVSPost2010Prop51ColorRGB
 90
-16777216
102
RTVSPost2010PropOp51
 70
     0
102
RTVSPost2010Prop52
140
1.0
102
RTVSPost2010PropOp52
 70
     0
102
RTVSPost2010Prop53
 90
        2
102
RTVSPost2010PropOp53
 70
     1
102
RTVSPost2010Prop54
  1
strokes_ogs.tif
102
RTVSPost2010PropOp54
 70
     1
102
RTVSPost2010Prop55
280
     0
102
RTVSPost2010PropOp55
 70
     1
102
RTVSPost2010Prop56
140
1.0
102
RTVSPost2010PropOp56
 70
     1
102
RTVSPost2010Prop57
140
1.0
102
RTVSPost2010PropOp57
 70
     1
  0
XRECORD
  5
D0CB
102
{ACAD_REACTORS
330
D0CA
102
}
330
D0CA
100
AcDbXrecord
280
     1
102
RTVSPropertyOp0
 70
     0
102
RTVSPropertyOp1
 70
     0
102
RTVSPropertyOp2
 70
     0
102
RTVSPropertyOp3
 70
     0
102
RTVSPropertyOp4
 70
     0
102
RTVSPropertyOp5
 70
     0
102
RTVSPropertyOp6
 70
     0
102
RTVSPropertyOp7
 70
     0
102
RTVSPropertyOp8
 70
     0
102
RTVSPropertyOp9
 70
     0
102
RTVSPropertyOp10
 70
     0
102
RTVSPropertyOp11
 70
     0
102
RTVSPropertyOp12
 70
     0
102
RTVSPropertyOp13
 70
     0
102
RTVSPropertyOp14
 70
     0
102
RTVSPropertyOp15
 70
     0
102
RTVSPropertyOp16
 70
     0
102
RTVSPropertyOp17
 70
     0
102
RTVSPropertyOp18
 70
     0
102
RTVSPropertyOp19
 70
     0
102
RTVSPropertyOp20
 70
     0
102
RTVSPropertyOp21
 70
     0
102
RTVSPropertyOp22
 70
     0
102
RTVSPropertyOp23
 70
     0
102
RTVSPropertyOp24
 70
     0
102
RTVSPropertyOp25
 70
     0
102
RTVSPropertyOp26
 70
     0
102
RTVSPropertyOp27
 70
     0
102
RTVSPropertyOp28
 70
     1
102
RTVSPropertyOp29
 70
     1
102
RTVSPropertyOp30
 70
     1
102
RTVSPropertyOp31
 70
     1
102
RTVSPropertyOp32
 70
     1
102
RTVSPropertyOp33
 70
     1
102
RTVSPropertyOp34
 70
     1
102
RTVSPropertyOp35
 70
     1
102
RTVSPropertyOp36
 70
     1
102
RTVSPropertyOp37
 70
     1
102
RTVSPropertyOp38
 70
     1
102
RTVSPropertyOp39
 70
     1
102
RTVSPropertyOp40
 70
     1
102
RTVSPropertyOp41
 70
     1
102
RTVSPropertyOp42
 70
     1
102
RTVSPropertyOp43
 70
     1
102
RTVSPropertyOp44
 70
     1
102
RTVSPropertyOp45
 70
     1
102
RTVSPropertyOp46
 70
     1
102
RTVSPropertyOp47
 70
     1
102
RTVSPropertyOp48
 70
     1
102
RTVSPropertyOp49
 70
     1
102
RTVSPropertyOp50
 70
     1
102
RTVSPropertyOp51
 70
     0
102
RTVSPropertyOp52
 70
     0
102
RTVSPropertyOp53
 70
     1
102
RTVSPropertyOp54
 70
     1
102
RTVSPropertyOp55
 70
     1
102
RTVSPropertyOp56
 70
     1
102
RTVSPropertyOp57
 70
     1
102
RTVSPost2010Prop28
280
     0
102
RTVSPost2010PropOp28
 70
     1
102
RTVSPost2010Prop29
280
     1
102
RTVSPost2010PropOp29
 70
     1
102
RTVSPost2010Prop30
280
     1
102
RTVSPost2010PropOp30
 70
     1
102
RTVSPost2010Prop31
280
     0
102
RTVSPost2010PropOp31
 70
     1
102
RTVSPost2010Prop32
280
     0
102
RTVSPost2010PropOp32
 70
     1
102
RTVSPost2010Prop33
280
     0
102
RTVSPost2010PropOp33
 70
     1
102
RTVSPost2010Prop34
280
     0
102
RTVSPost2010PropOp34
 70
     1
102
RTVSPost2010Prop35
280
     0
102
RTVSPost2010PropOp35
 70
     1
102
RTVSPost2010Prop36
280
     0
102
RTVSPost2010PropOp36
 70
     1
102
RTVSPost2010Prop37
 90
       50
102
RTVSPost2010PropOp37
 70
     1
102
RTVSPost2010Prop38
140
0.0
102
RTVSPost2010PropOp38
 70
     1
102
RTVSPost2010Prop39
140
1.0
102
RTVSPost2010PropOp39
 70
     1
102
RTVSPost2010Prop40
 90
        0
102
RTVSPost2010PropOp40
 70
     1
102
RTVSPost2010Prop41ColorIndex
 90
       18
102
RTVSPost2010Prop41ColorRGB
 90
        0
102
RTVSPost2010PropOp41
 70
     1
102
RTVSPost2010Prop42
 90
       50
102
RTVSPost2010PropOp42
 70
     1
102
RTVSPost2010Prop43
 90
        3
102
RTVSPost2010PropOp43
 70
     1
102
RTVSPost2010Prop44ColorIndex
 90
        5
102
RTVSPost2010Prop44ColorRGB
 90
      255
102
RTVSPost2010PropOp44
 70
     1
102
RTVSPost2010Prop45
280
     0
102
RTVSPost2010PropOp45
 70
     1
102
RTVSPost2010Prop46
 90
       50
102
RTVSPost2010PropOp46
 70
     1
102
RTVSPost2010Prop47
 90
       50
102
RTVSPost2010PropOp47
 70
     1
102
RTVSPost2010Prop48
 90
       50
102
RTVSPost2010PropOp48
 70
     1
102
RTVSPost2010Prop49
280
     0
102
RTVSPost2010PropOp49
 70
     1
102
RTVSPost2010Prop50
 90
       50
102
RTVSPost2010PropOp50
 70
     1
102
RTVSPost2010Prop51ColorIndex
 90
      256
102
RTVSPost2010Prop51ColorRGB
 90
-16777216
102
RTVSPost2010PropOp51
 70
     0
102
RTVSPost2010Prop52
140
1.0
102
RTVSPost2010PropOp52
 70
     0
102
RTVSPost2010Prop53
 90
        2
102
RTVSPost2010PropOp53
 70
     1
102
RTVSPost2010Prop54
  1
strokes_ogs.tif
102
RTVSPost2010PropOp54
 70
     1
102
RTVSPost2010Prop55
280
     0
102
RTVSPost2010PropOp55
 70
     1
102
RTVSPost2010Prop56
140
1.0
102
RTVSPost2010PropOp56
 70
     1
102
RTVSPost2010Prop57
140
1.0
102
RTVSPost2010PropOp57
 70
     1
  0
XRECORD
  5
D0CD
102
{ACAD_REACTORS
330
D0CC
102
}
330
D0CC
100
AcDbXrecord
280
     1
102
RTVSPropertyOp0
 70
     1
102
RTVSPropertyOp1
 70
     1
102
RTVSPropertyOp2
 70
     1
102
RTVSPropertyOp3
 70
     1
102
RTVSPropertyOp4
 70
     1
102
RTVSPropertyOp5
 70
     1
102
RTVSPropertyOp6
 70
     1
102
RTVSPropertyOp7
 70
     1
102
RTVSPropertyOp8
 70
     1
102
RTVSPropertyOp9
 70
     1
102
RTVSPropertyOp10
 70
     1
102
RTVSPropertyOp11
 70
     1
102
RTVSPropertyOp12
 70
     1
102
RTVSPropertyOp13
 70
     1
102
RTVSPropertyOp14
 70
     1
102
RTVSPropertyOp15
 70
     1
102
RTVSPropertyOp16
 70
     1
102
RTVSPropertyOp17
 70
     1
102
RTVSPropertyOp18
 70
     1
102
RTVSPropertyOp19
 70
     1
102
RTVSPropertyOp20
 70
     1
102
RTVSPropertyOp21
 70
     1
102
RTVSPropertyOp22
 70
     1
102
RTVSPropertyOp23
 70
     1
102
RTVSPropertyOp24
 70
     1
102
RTVSPropertyOp25
 70
     1
102
RTVSPropertyOp26
 70
     1
102
RTVSPropertyOp27
 70
     1
102
RTVSPropertyOp28
 70
     1
102
RTVSPropertyOp29
 70
     1
102
RTVSPropertyOp30
 70
     1
102
RTVSPropertyOp31
 70
     1
102
RTVSPropertyOp32
 70
     1
102
RTVSPropertyOp33
 70
     1
102
RTVSPropertyOp34
 70
     1
102
RTVSPropertyOp35
 70
     1
102
RTVSPropertyOp36
 70
     1
102
RTVSPropertyOp37
 70
     1
102
RTVSPropertyOp38
 70
     1
102
RTVSPropertyOp39
 70
     1
102
RTVSPropertyOp40
 70
     1
102
RTVSPropertyOp41
 70
     1
102
RTVSPropertyOp42
 70
     1
102
RTVSPropertyOp43
 70
     1
102
RTVSPropertyOp44
 70
     1
102
RTVSPropertyOp45
 70
     1
102
RTVSPropertyOp46
 70
     1
102
RTVSPropertyOp47
 70
     1
102
RTVSPropertyOp48
 70
     1
102
RTVSPropertyOp49
 70
     1
102
RTVSPropertyOp50
 70
     1
102
RTVSPropertyOp51
 70
     0
102
RTVSPropertyOp52
 70
     0
102
RTVSPropertyOp53
 70
     1
102
RTVSPropertyOp54
 70
     1
102
RTVSPropertyOp55
 70
     1
102
RTVSPropertyOp56
 70
     1
102
RTVSPropertyOp57
 70
     1
102
RTVSPost2010Prop28
280
     0
102
RTVSPost2010PropOp28
 70
     1
102
RTVSPost2010Prop29
280
     1
102
RTVSPost2010PropOp29
 70
     1
102
RTVSPost2010Prop30
280
     1
102
RTVSPost2010PropOp30
 70
     1
102
RTVSPost2010Prop31
280
     0
102
RTVSPost2010PropOp31
 70
     1
102
RTVSPost2010Prop32
280
     0
102
RTVSPost2010PropOp32
 70
     1
102
RTVSPost2010Prop33
280
     0
102
RTVSPost2010PropOp33
 70
     1
102
RTVSPost2010Prop34
280
     0
102
RTVSPost2010PropOp34
 70
     1
102
RTVSPost2010Prop35
280
     0
102
RTVSPost2010PropOp35
 70
     1
102
RTVSPost2010Prop36
280
     0
102
RTVSPost2010PropOp36
 70
     1
102
RTVSPost2010Prop37
 90
       50
102
RTVSPost2010PropOp37
 70
     1
102
RTVSPost2010Prop38
140
0.0
102
RTVSPost2010PropOp38
 70
     1
102
RTVSPost2010Prop39
140
1.0
102
RTVSPost2010PropOp39
 70
     1
102
RTVSPost2010Prop40
 90
        0
102
RTVSPost2010PropOp40
 70
     1
102
RTVSPost2010Prop41ColorIndex
 90
       18
102
RTVSPost2010Prop41ColorRGB
 90
        0
102
RTVSPost2010PropOp41
 70
     1
102
RTVSPost2010Prop42
 90
       50
102
RTVSPost2010PropOp42
 70
     1
102
RTVSPost2010Prop43
 90
        3
102
RTVSPost2010PropOp43
 70
     1
102
RTVSPost2010Prop44ColorIndex
 90
        5
102
RTVSPost2010Prop44ColorRGB
 90
      255
102
RTVSPost2010PropOp44
 70
     1
102
RTVSPost2010Prop45
280
     0
102
RTVSPost2010PropOp45
 70
     1
102
RTVSPost2010Prop46
 90
       50
102
RTVSPost2010PropOp46
 70
     1
102
RTVSPost2010Prop47
 90
       50
102
RTVSPost2010PropOp47
 70
     1
102
RTVSPost2010Prop48
 90
       50
102
RTVSPost2010PropOp48
 70
     1
102
RTVSPost2010Prop49
280
     0
102
RTVSPost2010PropOp49
 70
     1
102
RTVSPost2010Prop50
 90
       50
102
RTVSPost2010PropOp50
 70
     1
102
RTVSPost2010Prop51ColorIndex
 90
      256
102
RTVSPost2010Prop51ColorRGB
 90
-16777216
102
RTVSPost2010PropOp51
 70
     0
102
RTVSPost2010Prop52
140
1.0
102
RTVSPost2010PropOp52
 70
     0
102
RTVSPost2010Prop53
 90
        2
102
RTVSPost2010PropOp53
 70
     1
102
RTVSPost2010Prop54
  1
strokes_ogs.tif
102
RTVSPost2010PropOp54
 70
     1
102
RTVSPost2010Prop55
280
     0
102
RTVSPost2010PropOp55
 70
     1
102
RTVSPost2010Prop56
140
1.0
102
RTVSPost2010PropOp56
 70
     1
102
RTVSPost2010Prop57
140
1.0
102
RTVSPost2010PropOp57
 70
     1
  0
XRECORD
  5
D0CF
102
{ACAD_REACTORS
330
D0CE
102
}
330
D0CE
100
AcDbXrecord
280
     1
102
RTVSPropertyOp0
 70
     1
102
RTVSPropertyOp1
 70
     1
102
RTVSPropertyOp2
 70
     1
102
RTVSPropertyOp3
 70
     1
102
RTVSPropertyOp4
 70
     1
102
RTVSPropertyOp5
 70
     1
102
RTVSPropertyOp6
 70
     1
102
RTVSPropertyOp7
 70
     1
102
RTVSPropertyOp8
 70
     1
102
RTVSPropertyOp9
 70
     1
102
RTVSPropertyOp10
 70
     1
102
RTVSPropertyOp11
 70
     1
102
RTVSPropertyOp12
 70
     1
102
RTVSPropertyOp13
 70
     1
102
RTVSPropertyOp14
 70
     1
102
RTVSPropertyOp15
 70
     1
102
RTVSPropertyOp16
 70
     1
102
RTVSPropertyOp17
 70
     1
102
RTVSPropertyOp18
 70
     1
102
RTVSPropertyOp19
 70
     1
102
RTVSPropertyOp20
 70
     1
102
RTVSPropertyOp21
 70
     1
102
RTVSPropertyOp22
 70
     1
102
RTVSPropertyOp23
 70
     1
102
RTVSPropertyOp24
 70
     1
102
RTVSPropertyOp25
 70
     1
102
RTVSPropertyOp26
 70
     1
102
RTVSPropertyOp27
 70
     1
102
RTVSPropertyOp28
 70
     1
102
RTVSPropertyOp29
 70
     1
102
RTVSPropertyOp30
 70
     1
102
RTVSPropertyOp31
 70
     1
102
RTVSPropertyOp32
 70
     1
102
RTVSPropertyOp33
 70
     1
102
RTVSPropertyOp34
 70
     1
102
RTVSPropertyOp35
 70
     1
102
RTVSPropertyOp36
 70
     1
102
RTVSPropertyOp37
 70
     1
102
RTVSPropertyOp38
 70
     1
102
RTVSPropertyOp39
 70
     1
102
RTVSPropertyOp40
 70
     1
102
RTVSPropertyOp41
 70
     1
102
RTVSPropertyOp42
 70
     1
102
RTVSPropertyOp43
 70
     1
102
RTVSPropertyOp44
 70
     1
102
RTVSPropertyOp45
 70
     1
102
RTVSPropertyOp46
 70
     1
102
RTVSPropertyOp47
 70
     1
102
RTVSPropertyOp48
 70
     1
102
RTVSPropertyOp49
 70
     1
102
RTVSPropertyOp50
 70
     1
102
RTVSPropertyOp51
 70
     0
102
RTVSPropertyOp52
 70
     0
102
RTVSPropertyOp53
 70
     1
102
RTVSPropertyOp54
 70
     1
102
RTVSPropertyOp55
 70
     1
102
RTVSPropertyOp56
 70
     1
102
RTVSPropertyOp57
 70
     1
102
RTVSPost2010Prop28
280
     0
102
RTVSPost2010PropOp28
 70
     1
102
RTVSPost2010Prop29
280
     1
102
RTVSPost2010PropOp29
 70
     1
102
RTVSPost2010Prop30
280
     1
102
RTVSPost2010PropOp30
 70
     1
102
RTVSPost2010Prop31
280
     0
102
RTVSPost2010PropOp31
 70
     1
102
RTVSPost2010Prop32
280
     0
102
RTVSPost2010PropOp32
 70
     1
102
RTVSPost2010Prop33
280
     0
102
RTVSPost2010PropOp33
 70
     1
102
RTVSPost2010Prop34
280
     0
102
RTVSPost2010PropOp34
 70
     1
102
RTVSPost2010Prop35
280
     0
102
RTVSPost2010PropOp35
 70
     1
102
RTVSPost2010Prop36
280
     0
102
RTVSPost2010PropOp36
 70
     1
102
RTVSPost2010Prop37
 90
       50
102
RTVSPost2010PropOp37
 70
     1
102
RTVSPost2010Prop38
140
0.0
102
RTVSPost2010PropOp38
 70
     1
102
RTVSPost2010Prop39
140
1.0
102
RTVSPost2010PropOp39
 70
     1
102
RTVSPost2010Prop40
 90
        0
102
RTVSPost2010PropOp40
 70
     1
102
RTVSPost2010Prop41ColorIndex
 90
       18
102
RTVSPost2010Prop41ColorRGB
 90
        0
102
RTVSPost2010PropOp41
 70
     1
102
RTVSPost2010Prop42
 90
       50
102
RTVSPost2010PropOp42
 70
     1
102
RTVSPost2010Prop43
 90
        3
102
RTVSPost2010PropOp43
 70
     1
102
RTVSPost2010Prop44ColorIndex
 90
        5
102
RTVSPost2010Prop44ColorRGB
 90
      255
102
RTVSPost2010PropOp44
 70
     1
102
RTVSPost2010Prop45
280
     0
102
RTVSPost2010PropOp45
 70
     1
102
RTVSPost2010Prop46
 90
       50
102
RTVSPost2010PropOp46
 70
     1
102
RTVSPost2010Prop47
 90
       50
102
RTVSPost2010PropOp47
 70
     1
102
RTVSPost2010Prop48
 90
       50
102
RTVSPost2010PropOp48
 70
     1
102
RTVSPost2010Prop49
280
     0
102
RTVSPost2010PropOp49
 70
     1
102
RTVSPost2010Prop50
 90
       50
102
RTVSPost2010PropOp50
 70
     1
102
RTVSPost2010Prop51ColorIndex
 90
      256
102
RTVSPost2010Prop51ColorRGB
 90
-16777216
102
RTVSPost2010PropOp51
 70
     0
102
RTVSPost2010Prop52
140
1.0
102
RTVSPost2010PropOp52
 70
     0
102
RTVSPost2010Prop53
 90
        2
102
RTVSPost2010PropOp53
 70
     1
102
RTVSPost2010Prop54
  1
strokes_ogs.tif
102
RTVSPost2010PropOp54
 70
     1
102
RTVSPost2010Prop55
280
     0
102
RTVSPost2010PropOp55
 70
     1
102
RTVSPost2010Prop56
140
1.0
102
RTVSPost2010PropOp56
 70
     1
102
RTVSPost2010Prop57
140
1.0
102
RTVSPost2010PropOp57
 70
     1
  0
XRECORD
  5
D0D1
102
{ACAD_REACTORS
330
D0D0
102
}
330
D0D0
100
AcDbXrecord
280
     1
102
RTVSPropertyOp0
 70
     1
102
RTVSPropertyOp1
 70
     1
102
RTVSPropertyOp2
 70
     1
102
RTVSPropertyOp3
 70
     1
102
RTVSPropertyOp4
 70
     1
102
RTVSPropertyOp5
 70
     1
102
RTVSPropertyOp6
 70
     1
102
RTVSPropertyOp7
 70
     1
102
RTVSPropertyOp8
 70
     1
102
RTVSPropertyOp9
 70
     1
102
RTVSPropertyOp10
 70
     1
102
RTVSPropertyOp11
 70
     1
102
RTVSPropertyOp12
 70
     1
102
RTVSPropertyOp13
 70
     1
102
RTVSPropertyOp14
 70
     1
102
RTVSPropertyOp15
 70
     1
102
RTVSPropertyOp16
 70
     1
102
RTVSPropertyOp17
 70
     1
102
RTVSPropertyOp18
 70
     1
102
RTVSPropertyOp19
 70
     1
102
RTVSPropertyOp20
 70
     1
102
RTVSPropertyOp21
 70
     1
102
RTVSPropertyOp22
 70
     1
102
RTVSPropertyOp23
 70
     1
102
RTVSPropertyOp24
 70
     1
102
RTVSPropertyOp25
 70
     1
102
RTVSPropertyOp26
 70
     1
102
RTVSPropertyOp27
 70
     1
102
RTVSPropertyOp28
 70
     1
102
RTVSPropertyOp29
 70
     1
102
RTVSPropertyOp30
 70
     1
102
RTVSPropertyOp31
 70
     1
102
RTVSPropertyOp32
 70
     1
102
RTVSPropertyOp33
 70
     1
102
RTVSPropertyOp34
 70
     1
102
RTVSPropertyOp35
 70
     1
102
RTVSPropertyOp36
 70
     1
102
RTVSPropertyOp37
 70
     1
102
RTVSPropertyOp38
 70
     1
102
RTVSPropertyOp39
 70
     1
102
RTVSPropertyOp40
 70
     1
102
RTVSPropertyOp41
 70
     1
102
RTVSPropertyOp42
 70
     1
102
RTVSPropertyOp43
 70
     1
102
RTVSPropertyOp44
 70
     1
102
RTVSPropertyOp45
 70
     1
102
RTVSPropertyOp46
 70
     1
102
RTVSPropertyOp47
 70
     1
102
RTVSPropertyOp48
 70
     1
102
RTVSPropertyOp49
 70
     1
102
RTVSPropertyOp50
 70
     1
102
RTVSPropertyOp51
 70
     0
102
RTVSPropertyOp52
 70
     0
102
RTVSPropertyOp53
 70
     1
102
RTVSPropertyOp54
 70
     1
102
RTVSPropertyOp55
 70
     1
102
RTVSPropertyOp56
 70
     1
102
RTVSPropertyOp57
 70
     1
102
RTVSPost2010Prop28
280
     0
102
RTVSPost2010PropOp28
 70
     1
102
RTVSPost2010Prop29
280
     1
102
RTVSPost2010PropOp29
 70
     1
102
RTVSPost2010Prop30
280
     1
102
RTVSPost2010PropOp30
 70
     1
102
RTVSPost2010Prop31
280
     0
102
RTVSPost2010PropOp31
 70
     1
102
RTVSPost2010Prop32
280
     0
102
RTVSPost2010PropOp32
 70
     1
102
RTVSPost2010Prop33
280
     0
102
RTVSPost2010PropOp33
 70
     1
102
RTVSPost2010Prop34
280
     0
102
RTVSPost2010PropOp34
 70
     1
102
RTVSPost2010Prop35
280
     0
102
RTVSPost2010PropOp35
 70
     1
102
RTVSPost2010Prop36
280
     0
102
RTVSPost2010PropOp36
 70
     1
102
RTVSPost2010Prop37
 90
       50
102
RTVSPost2010PropOp37
 70
     1
102
RTVSPost2010Prop38
140
0.0
102
RTVSPost2010PropOp38
 70
     1
102
RTVSPost2010Prop39
140
1.0
102
RTVSPost2010PropOp39
 70
     1
102
RTVSPost2010Prop40
 90
        0
102
RTVSPost2010PropOp40
 70
     1
102
RTVSPost2010Prop41ColorIndex
 90
       18
102
RTVSPost2010Prop41ColorRGB
 90
        0
102
RTVSPost2010PropOp41
 70
     1
102
RTVSPost2010Prop42
 90
       50
102
RTVSPost2010PropOp42
 70
     1
102
RTVSPost2010Prop43
 90
        3
102
RTVSPost2010PropOp43
 70
     1
102
RTVSPost2010Prop44ColorIndex
 90
        5
102
RTVSPost2010Prop44ColorRGB
 90
      255
102
RTVSPost2010PropOp44
 70
     1
102
RTVSPost2010Prop45
280
     0
102
RTVSPost2010PropOp45
 70
     1
102
RTVSPost2010Prop46
 90
       50
102
RTVSPost2010PropOp46
 70
     1
102
RTVSPost2010Prop47
 90
       50
102
RTVSPost2010PropOp47
 70
     1
102
RTVSPost2010Prop48
 90
       50
102
RTVSPost2010PropOp48
 70
     1
102
RTVSPost2010Prop49
280
     0
102
RTVSPost2010PropOp49
 70
     1
102
RTVSPost2010Prop50
 90
       50
102
RTVSPost2010PropOp50
 70
     1
102
RTVSPost2010Prop51ColorIndex
 90
      256
102
RTVSPost2010Prop51ColorRGB
 90
-16777216
102
RTVSPost2010PropOp51
 70
     0
102
RTVSPost2010Prop52
140
1.0
102
RTVSPost2010PropOp52
 70
     0
102
RTVSPost2010Prop53
 90
        2
102
RTVSPost2010PropOp53
 70
     1
102
RTVSPost2010Prop54
  1
strokes_ogs.tif
102
RTVSPost2010PropOp54
 70
     1
102
RTVSPost2010Prop55
280
     0
102
RTVSPost2010PropOp55
 70
     1
102
RTVSPost2010Prop56
140
1.0
102
RTVSPost2010PropOp56
 70
     1
102
RTVSPost2010Prop57
140
1.0
102
RTVSPost2010PropOp57
 70
     1
  0
XRECORD
  5
D0D3
102
{ACAD_REACTORS
330
D0D2
102
}
330
D0D2
100
AcDbXrecord
280
     1
102
RTVSPropertyOp0
 70
     1
102
RTVSPropertyOp1
 70
     1
102
RTVSPropertyOp2
 70
     1
102
RTVSPropertyOp3
 70
     1
102
RTVSPropertyOp4
 70
     1
102
RTVSPropertyOp5
 70
     1
102
RTVSPropertyOp6
 70
     1
102
RTVSPropertyOp7
 70
     1
102
RTVSPropertyOp8
 70
     1
102
RTVSPropertyOp9
 70
     1
102
RTVSPropertyOp10
 70
     1
102
RTVSPropertyOp11
 70
     1
102
RTVSPropertyOp12
 70
     1
102
RTVSPropertyOp13
 70
     1
102
RTVSPropertyOp14
 70
     1
102
RTVSPropertyOp15
 70
     1
102
RTVSPropertyOp16
 70
     1
102
RTVSPropertyOp17
 70
     1
102
RTVSPropertyOp18
 70
     1
102
RTVSPropertyOp19
 70
     1
102
RTVSPropertyOp20
 70
     1
102
RTVSPropertyOp21
 70
     1
102
RTVSPropertyOp22
 70
     1
102
RTVSPropertyOp23
 70
     1
102
RTVSPropertyOp24
 70
     1
102
RTVSPropertyOp25
 70
     1
102
RTVSPropertyOp26
 70
     1
102
RTVSPropertyOp27
 70
     1
102
RTVSPropertyOp28
 70
     1
102
RTVSPropertyOp29
 70
     1
102
RTVSPropertyOp30
 70
     1
102
RTVSPropertyOp31
 70
     1
102
RTVSPropertyOp32
 70
     1
102
RTVSPropertyOp33
 70
     1
102
RTVSPropertyOp34
 70
     1
102
RTVSPropertyOp35
 70
     1
102
RTVSPropertyOp36
 70
     1
102
RTVSPropertyOp37
 70
     1
102
RTVSPropertyOp38
 70
     1
102
RTVSPropertyOp39
 70
     1
102
RTVSPropertyOp40
 70
     1
102
RTVSPropertyOp41
 70
     1
102
RTVSPropertyOp42
 70
     1
102
RTVSPropertyOp43
 70
     1
102
RTVSPropertyOp44
 70
     1
102
RTVSPropertyOp45
 70
     1
102
RTVSPropertyOp46
 70
     1
102
RTVSPropertyOp47
 70
     1
102
RTVSPropertyOp48
 70
     1
102
RTVSPropertyOp49
 70
     1
102
RTVSPropertyOp50
 70
     1
102
RTVSPropertyOp51
 70
     0
102
RTVSPropertyOp52
 70
     0
102
RTVSPropertyOp53
 70
     1
102
RTVSPropertyOp54
 70
     1
102
RTVSPropertyOp55
 70
     1
102
RTVSPropertyOp56
 70
     1
102
RTVSPropertyOp57
 70
     1
102
RTVSPost2010Prop28
280
     0
102
RTVSPost2010PropOp28
 70
     1
102
RTVSPost2010Prop29
280
     1
102
RTVSPost2010PropOp29
 70
     1
102
RTVSPost2010Prop30
280
     1
102
RTVSPost2010PropOp30
 70
     1
102
RTVSPost2010Prop31
280
     0
102
RTVSPost2010PropOp31
 70
     1
102
RTVSPost2010Prop32
280
     0
102
RTVSPost2010PropOp32
 70
     1
102
RTVSPost2010Prop33
280
     0
102
RTVSPost2010PropOp33
 70
     1
102
RTVSPost2010Prop34
280
     0
102
RTVSPost2010PropOp34
 70
     1
102
RTVSPost2010Prop35
280
     0
102
RTVSPost2010PropOp35
 70
     1
102
RTVSPost2010Prop36
280
     0
102
RTVSPost2010PropOp36
 70
     1
102
RTVSPost2010Prop37
 90
       50
102
RTVSPost2010PropOp37
 70
     1
102
RTVSPost2010Prop38
140
0.0
102
RTVSPost2010PropOp38
 70
     1
102
RTVSPost2010Prop39
140
1.0
102
RTVSPost2010PropOp39
 70
     1
102
RTVSPost2010Prop40
 90
        0
102
RTVSPost2010PropOp40
 70
     1
102
RTVSPost2010Prop41ColorIndex
 90
       18
102
RTVSPost2010Prop41ColorRGB
 90
        0
102
RTVSPost2010PropOp41
 70
     1
102
RTVSPost2010Prop42
 90
       50
102
RTVSPost2010PropOp42
 70
     1
102
RTVSPost2010Prop43
 90
        3
102
RTVSPost2010PropOp43
 70
     1
102
RTVSPost2010Prop44ColorIndex
 90
        5
102
RTVSPost2010Prop44ColorRGB
 90
      255
102
RTVSPost2010PropOp44
 70
     1
102
RTVSPost2010Prop45
280
     0
102
RTVSPost2010PropOp45
 70
     1
102
RTVSPost2010Prop46
 90
       50
102
RTVSPost2010PropOp46
 70
     1
102
RTVSPost2010Prop47
 90
       50
102
RTVSPost2010PropOp47
 70
     1
102
RTVSPost2010Prop48
 90
       50
102
RTVSPost2010PropOp48
 70
     1
102
RTVSPost2010Prop49
280
     0
102
RTVSPost2010PropOp49
 70
     1
102
RTVSPost2010Prop50
 90
       50
102
RTVSPost2010PropOp50
 70
     1
102
RTVSPost2010Prop51ColorIndex
 90
      256
102
RTVSPost2010Prop51ColorRGB
 90
-16777216
102
RTVSPost2010PropOp51
 70
     0
102
RTVSPost2010Prop52
140
1.0
102
RTVSPost2010PropOp52
 70
     0
102
RTVSPost2010Prop53
 90
        2
102
RTVSPost2010PropOp53
 70
     1
102
RTVSPost2010Prop54
  1
strokes_ogs.tif
102
RTVSPost2010PropOp54
 70
     1
102
RTVSPost2010Prop55
280
     0
102
RTVSPost2010PropOp55
 70
     1
102
RTVSPost2010Prop56
140
1.0
102
RTVSPost2010PropOp56
 70
     1
102
RTVSPost2010Prop57
140
1.0
102
RTVSPost2010PropOp57
 70
     1
  0
XRECORD
  5
D0D5
102
{ACAD_REACTORS
330
D0D4
102
}
330
D0D4
100
AcDbXrecord
280
     1
102
RTVSPropertyOp0
 70
     1
102
RTVSPropertyOp1
 70
     1
102
RTVSPropertyOp2
 70
     1
102
RTVSPropertyOp3
 70
     1
102
RTVSPropertyOp4
 70
     1
102
RTVSPropertyOp5
 70
     1
102
RTVSPropertyOp6
 70
     1
102
RTVSPropertyOp7
 70
     1
102
RTVSPropertyOp8
 70
     1
102
RTVSPropertyOp9
 70
     1
102
RTVSPropertyOp10
 70
     1
102
RTVSPropertyOp11
 70
     1
102
RTVSPropertyOp12
 70
     1
102
RTVSPropertyOp13
 70
     1
102
RTVSPropertyOp14
 70
     1
102
RTVSPropertyOp15
 70
     1
102
RTVSPropertyOp16
 70
     1
102
RTVSPropertyOp17
 70
     1
102
RTVSPropertyOp18
 70
     1
102
RTVSPropertyOp19
 70
     1
102
RTVSPropertyOp20
 70
     1
102
RTVSPropertyOp21
 70
     1
102
RTVSPropertyOp22
 70
     1
102
RTVSPropertyOp23
 70
     1
102
RTVSPropertyOp24
 70
     1
102
RTVSPropertyOp25
 70
     1
102
RTVSPropertyOp26
 70
     1
102
RTVSPropertyOp27
 70
     1
102
RTVSPropertyOp28
 70
     1
102
RTVSPropertyOp29
 70
     1
102
RTVSPropertyOp30
 70
     1
102
RTVSPropertyOp31
 70
     1
102
RTVSPropertyOp32
 70
     1
102
RTVSPropertyOp33
 70
     1
102
RTVSPropertyOp34
 70
     1
102
RTVSPropertyOp35
 70
     1
102
RTVSPropertyOp36
 70
     1
102
RTVSPropertyOp37
 70
     1
102
RTVSPropertyOp38
 70
     1
102
RTVSPropertyOp39
 70
     1
102
RTVSPropertyOp40
 70
     1
102
RTVSPropertyOp41
 70
     1
102
RTVSPropertyOp42
 70
     1
102
RTVSPropertyOp43
 70
     1
102
RTVSPropertyOp44
 70
     1
102
RTVSPropertyOp45
 70
     1
102
RTVSPropertyOp46
 70
     1
102
RTVSPropertyOp47
 70
     1
102
RTVSPropertyOp48
 70
     1
102
RTVSPropertyOp49
 70
     1
102
RTVSPropertyOp50
 70
     1
102
RTVSPropertyOp51
 70
     0
102
RTVSPropertyOp52
 70
     0
102
RTVSPropertyOp53
 70
     1
102
RTVSPropertyOp54
 70
     1
102
RTVSPropertyOp55
 70
     1
102
RTVSPropertyOp56
 70
     1
102
RTVSPropertyOp57
 70
     1
102
RTVSPost2010Prop28
280
     0
102
RTVSPost2010PropOp28
 70
     1
102
RTVSPost2010Prop29
280
     1
102
RTVSPost2010PropOp29
 70
     1
102
RTVSPost2010Prop30
280
     1
102
RTVSPost2010PropOp30
 70
     1
102
RTVSPost2010Prop31
280
     0
102
RTVSPost2010PropOp31
 70
     1
102
RTVSPost2010Prop32
280
     0
102
RTVSPost2010PropOp32
 70
     1
102
RTVSPost2010Prop33
280
     0
102
RTVSPost2010PropOp33
 70
     1
102
RTVSPost2010Prop34
280
     0
102
RTVSPost2010PropOp34
 70
     1
102
RTVSPost2010Prop35
280
     0
102
RTVSPost2010PropOp35
 70
     1
102
RTVSPost2010Prop36
280
     0
102
RTVSPost2010PropOp36
 70
     1
102
RTVSPost2010Prop37
 90
       50
102
RTVSPost2010PropOp37
 70
     1
102
RTVSPost2010Prop38
140
0.0
102
RTVSPost2010PropOp38
 70
     1
102
RTVSPost2010Prop39
140
1.0
102
RTVSPost2010PropOp39
 70
     1
102
RTVSPost2010Prop40
 90
        0
102
RTVSPost2010PropOp40
 70
     1
102
RTVSPost2010Prop41ColorIndex
 90
       18
102
RTVSPost2010Prop41ColorRGB
 90
        0
102
RTVSPost2010PropOp41
 70
     1
102
RTVSPost2010Prop42
 90
       50
102
RTVSPost2010PropOp42
 70
     1
102
RTVSPost2010Prop43
 90
        3
102
RTVSPost2010PropOp43
 70
     1
102
RTVSPost2010Prop44ColorIndex
 90
        5
102
RTVSPost2010Prop44ColorRGB
 90
      255
102
RTVSPost2010PropOp44
 70
     1
102
RTVSPost2010Prop45
280
     0
102
RTVSPost2010PropOp45
 70
     1
102
RTVSPost2010Prop46
 90
       50
102
RTVSPost2010PropOp46
 70
     1
102
RTVSPost2010Prop47
 90
       50
102
RTVSPost2010PropOp47
 70
     1
102
RTVSPost2010Prop48
 90
       50
102
RTVSPost2010PropOp48
 70
     1
102
RTVSPost2010Prop49
280
     0
102
RTVSPost2010PropOp49
 70
     1
102
RTVSPost2010Prop50
 90
       50
102
RTVSPost2010PropOp50
 70
     1
102
RTVSPost2010Prop51ColorIndex
 90
      256
102
RTVSPost2010Prop51ColorRGB
 90
-16777216
102
RTVSPost2010PropOp51
 70
     0
102
RTVSPost2010Prop52
140
1.0
102
RTVSPost2010PropOp52
 70
     0
102
RTVSPost2010Prop53
 90
        2
102
RTVSPost2010PropOp53
 70
     1
102
RTVSPost2010Prop54
  1
strokes_ogs.tif
102
RTVSPost2010PropOp54
 70
     1
102
RTVSPost2010Prop55
280
     0
102
RTVSPost2010PropOp55
 70
     1
102
RTVSPost2010Prop56
140
1.0
102
RTVSPost2010PropOp56
 70
     1
102
RTVSPost2010Prop57
140
1.0
102
RTVSPost2010PropOp57
 70
     1
  0
XRECORD
  5
D0D7
102
{ACAD_REACTORS
330
D0D6
102
}
330
D0D6
100
AcDbXrecord
280
     1
102
RTVSPropertyOp0
 70
     1
102
RTVSPropertyOp1
 70
     1
102
RTVSPropertyOp2
 70
     1
102
RTVSPropertyOp3
 70
     1
102
RTVSPropertyOp4
 70
     1
102
RTVSPropertyOp5
 70
     1
102
RTVSPropertyOp6
 70
     1
102
RTVSPropertyOp7
 70
     1
102
RTVSPropertyOp8
 70
     1
102
RTVSPropertyOp9
 70
     1
102
RTVSPropertyOp10
 70
     1
102
RTVSPropertyOp11
 70
     1
102
RTVSPropertyOp12
 70
     1
102
RTVSPropertyOp13
 70
     1
102
RTVSPropertyOp14
 70
     1
102
RTVSPropertyOp15
 70
     1
102
RTVSPropertyOp16
 70
     1
102
RTVSPropertyOp17
 70
     1
102
RTVSPropertyOp18
 70
     1
102
RTVSPropertyOp19
 70
     1
102
RTVSPropertyOp20
 70
     1
102
RTVSPropertyOp21
 70
     1
102
RTVSPropertyOp22
 70
     1
102
RTVSPropertyOp23
 70
     1
102
RTVSPropertyOp24
 70
     1
102
RTVSPropertyOp25
 70
     1
102
RTVSPropertyOp26
 70
     1
102
RTVSPropertyOp27
 70
     1
102
RTVSPropertyOp28
 70
     1
102
RTVSPropertyOp29
 70
     1
102
RTVSPropertyOp30
 70
     1
102
RTVSPropertyOp31
 70
     1
102
RTVSPropertyOp32
 70
     1
102
RTVSPropertyOp33
 70
     1
102
RTVSPropertyOp34
 70
     1
102
RTVSPropertyOp35
 70
     1
102
RTVSPropertyOp36
 70
     1
102
RTVSPropertyOp37
 70
     1
102
RTVSPropertyOp38
 70
     1
102
RTVSPropertyOp39
 70
     1
102
RTVSPropertyOp40
 70
     1
102
RTVSPropertyOp41
 70
     1
102
RTVSPropertyOp42
 70
     1
102
RTVSPropertyOp43
 70
     1
102
RTVSPropertyOp44
 70
     1
102
RTVSPropertyOp45
 70
     1
102
RTVSPropertyOp46
 70
     1
102
RTVSPropertyOp47
 70
     1
102
RTVSPropertyOp48
 70
     1
102
RTVSPropertyOp49
 70
     1
102
RTVSPropertyOp50
 70
     1
102
RTVSPropertyOp51
 70
     0
102
RTVSPropertyOp52
 70
     0
102
RTVSPropertyOp53
 70
     1
102
RTVSPropertyOp54
 70
     1
102
RTVSPropertyOp55
 70
     1
102
RTVSPropertyOp56
 70
     1
102
RTVSPropertyOp57
 70
     1
102
RTVSPost2010Prop28
280
     0
102
RTVSPost2010PropOp28
 70
     1
102
RTVSPost2010Prop29
280
     1
102
RTVSPost2010PropOp29
 70
     1
102
RTVSPost2010Prop30
280
     1
102
RTVSPost2010PropOp30
 70
     1
102
RTVSPost2010Prop31
280
     0
102
RTVSPost2010PropOp31
 70
     1
102
RTVSPost2010Prop32
280
     0
102
RTVSPost2010PropOp32
 70
     1
102
RTVSPost2010Prop33
280
     0
102
RTVSPost2010PropOp33
 70
     1
102
RTVSPost2010Prop34
280
     0
102
RTVSPost2010PropOp34
 70
     1
102
RTVSPost2010Prop35
280
     0
102
RTVSPost2010PropOp35
 70
     1
102
RTVSPost2010Prop36
280
     0
102
RTVSPost2010PropOp36
 70
     1
102
RTVSPost2010Prop37
 90
       50
102
RTVSPost2010PropOp37
 70
     1
102
RTVSPost2010Prop38
140
0.0
102
RTVSPost2010PropOp38
 70
     1
102
RTVSPost2010Prop39
140
1.0
102
RTVSPost2010PropOp39
 70
     1
102
RTVSPost2010Prop40
 90
        0
102
RTVSPost2010PropOp40
 70
     1
102
RTVSPost2010Prop41ColorIndex
 90
       18
102
RTVSPost2010Prop41ColorRGB
 90
        0
102
RTVSPost2010PropOp41
 70
     1
102
RTVSPost2010Prop42
 90
       50
102
RTVSPost2010PropOp42
 70
     1
102
RTVSPost2010Prop43
 90
        3
102
RTVSPost2010PropOp43
 70
     1
102
RTVSPost2010Prop44ColorIndex
 90
        5
102
RTVSPost2010Prop44ColorRGB
 90
      255
102
RTVSPost2010PropOp44
 70
     1
102
RTVSPost2010Prop45
280
     0
102
RTVSPost2010PropOp45
 70
     1
102
RTVSPost2010Prop46
 90
       50
102
RTVSPost2010PropOp46
 70
     1
102
RTVSPost2010Prop47
 90
       50
102
RTVSPost2010PropOp47
 70
     1
102
RTVSPost2010Prop48
 90
       50
102
RTVSPost2010PropOp48
 70
     1
102
RTVSPost2010Prop49
280
     0
102
RTVSPost2010PropOp49
 70
     1
102
RTVSPost2010Prop50
 90
       50
102
RTVSPost2010PropOp50
 70
     1
102
RTVSPost2010Prop51ColorIndex
 90
      256
102
RTVSPost2010Prop51ColorRGB
 90
-16777216
102
RTVSPost2010PropOp51
 70
     0
102
RTVSPost2010Prop52
140
1.0
102
RTVSPost2010PropOp52
 70
     0
102
RTVSPost2010Prop53
 90
        2
102
RTVSPost2010PropOp53
 70
     1
102
RTVSPost2010Prop54
  1
strokes_ogs.tif
102
RTVSPost2010PropOp54
 70
     1
102
RTVSPost2010Prop55
280
     0
102
RTVSPost2010PropOp55
 70
     1
102
RTVSPost2010Prop56
140
1.0
102
RTVSPost2010PropOp56
 70
     1
102
RTVSPost2010Prop57
140
1.0
102
RTVSPost2010PropOp57
 70
     1
  0
XRECORD
  5
D0D9
102
{ACAD_REACTORS
330
D0D8
102
}
330
D0D8
100
AcDbXrecord
280
     1
102
RTVSPropertyOp0
 70
     1
102
RTVSPropertyOp1
 70
     1
102
RTVSPropertyOp2
 70
     1
102
RTVSPropertyOp3
 70
     1
102
RTVSPropertyOp4
 70
     1
102
RTVSPropertyOp5
 70
     1
102
RTVSPropertyOp6
 70
     1
102
RTVSPropertyOp7
 70
     1
102
RTVSPropertyOp8
 70
     1
102
RTVSPropertyOp9
 70
     1
102
RTVSPropertyOp10
 70
     1
102
RTVSPropertyOp11
 70
     1
102
RTVSPropertyOp12
 70
     1
102
RTVSPropertyOp13
 70
     1
102
RTVSPropertyOp14
 70
     1
102
RTVSPropertyOp15
 70
     1
102
RTVSPropertyOp16
 70
     1
102
RTVSPropertyOp17
 70
     1
102
RTVSPropertyOp18
 70
     1
102
RTVSPropertyOp19
 70
     1
102
RTVSPropertyOp20
 70
     1
102
RTVSPropertyOp21
 70
     1
102
RTVSPropertyOp22
 70
     1
102
RTVSPropertyOp23
 70
     1
102
RTVSPropertyOp24
 70
     1
102
RTVSPropertyOp25
 70
     1
102
RTVSPropertyOp26
 70
     1
102
RTVSPropertyOp27
 70
     1
102
RTVSPropertyOp28
 70
     1
102
RTVSPropertyOp29
 70
     1
102
RTVSPropertyOp30
 70
     1
102
RTVSPropertyOp31
 70
     1
102
RTVSPropertyOp32
 70
     1
102
RTVSPropertyOp33
 70
     1
102
RTVSPropertyOp34
 70
     1
102
RTVSPropertyOp35
 70
     1
102
RTVSPropertyOp36
 70
     1
102
RTVSPropertyOp37
 70
     1
102
RTVSPropertyOp38
 70
     1
102
RTVSPropertyOp39
 70
     1
102
RTVSPropertyOp40
 70
     1
102
RTVSPropertyOp41
 70
     1
102
RTVSPropertyOp42
 70
     1
102
RTVSPropertyOp43
 70
     1
102
RTVSPropertyOp44
 70
     1
102
RTVSPropertyOp45
 70
     1
102
RTVSPropertyOp46
 70
     1
102
RTVSPropertyOp47
 70
     1
102
RTVSPropertyOp48
 70
     1
102
RTVSPropertyOp49
 70
     1
102
RTVSPropertyOp50
 70
     1
102
RTVSPropertyOp51
 70
     0
102
RTVSPropertyOp52
 70
     0
102
RTVSPropertyOp53
 70
     1
102
RTVSPropertyOp54
 70
     1
102
RTVSPropertyOp55
 70
     1
102
RTVSPropertyOp56
 70
     1
102
RTVSPropertyOp57
 70
     1
102
RTVSPost2010Prop28
280
     0
102
RTVSPost2010PropOp28
 70
     1
102
RTVSPost2010Prop29
280
     1
102
RTVSPost2010PropOp29
 70
     1
102
RTVSPost2010Prop30
280
     1
102
RTVSPost2010PropOp30
 70
     1
102
RTVSPost2010Prop31
280
     0
102
RTVSPost2010PropOp31
 70
     1
102
RTVSPost2010Prop32
280
     0
102
RTVSPost2010PropOp32
 70
     1
102
RTVSPost2010Prop33
280
     0
102
RTVSPost2010PropOp33
 70
     1
102
RTVSPost2010Prop34
280
     0
102
RTVSPost2010PropOp34
 70
     1
102
RTVSPost2010Prop35
280
     0
102
RTVSPost2010PropOp35
 70
     1
102
RTVSPost2010Prop36
280
     0
102
RTVSPost2010PropOp36
 70
     1
102
RTVSPost2010Prop37
 90
       50
102
RTVSPost2010PropOp37
 70
     1
102
RTVSPost2010Prop38
140
0.0
102
RTVSPost2010PropOp38
 70
     1
102
RTVSPost2010Prop39
140
1.0
102
RTVSPost2010PropOp39
 70
     1
102
RTVSPost2010Prop40
 90
        0
102
RTVSPost2010PropOp40
 70
     1
102
RTVSPost2010Prop41ColorIndex
 90
       18
102
RTVSPost2010Prop41ColorRGB
 90
        0
102
RTVSPost2010PropOp41
 70
     1
102
RTVSPost2010Prop42
 90
       50
102
RTVSPost2010PropOp42
 70
     1
102
RTVSPost2010Prop43
 90
        3
102
RTVSPost2010PropOp43
 70
     1
102
RTVSPost2010Prop44ColorIndex
 90
        5
102
RTVSPost2010Prop44ColorRGB
 90
      255
102
RTVSPost2010PropOp44
 70
     1
102
RTVSPost2010Prop45
280
     0
102
RTVSPost2010PropOp45
 70
     1
102
RTVSPost2010Prop46
 90
       50
102
RTVSPost2010PropOp46
 70
     1
102
RTVSPost2010Prop47
 90
       50
102
RTVSPost2010PropOp47
 70
     1
102
RTVSPost2010Prop48
 90
       50
102
RTVSPost2010PropOp48
 70
     1
102
RTVSPost2010Prop49
280
     0
102
RTVSPost2010PropOp49
 70
     1
102
RTVSPost2010Prop50
 90
       50
102
RTVSPost2010PropOp50
 70
     1
102
RTVSPost2010Prop51ColorIndex
 90
      256
102
RTVSPost2010Prop51ColorRGB
 90
-16777216
102
RTVSPost2010PropOp51
 70
     0
102
RTVSPost2010Prop52
140
1.0
102
RTVSPost2010PropOp52
 70
     0
102
RTVSPost2010Prop53
 90
        2
102
RTVSPost2010PropOp53
 70
     1
102
RTVSPost2010Prop54
  1
strokes_ogs.tif
102
RTVSPost2010PropOp54
 70
     1
102
RTVSPost2010Prop55
280
     0
102
RTVSPost2010PropOp55
 70
     1
102
RTVSPost2010Prop56
140
1.0
102
RTVSPost2010PropOp56
 70
     1
102
RTVSPost2010Prop57
140
1.0
102
RTVSPost2010PropOp57
 70
     1
  0
XRECORD
  5
D0DB
102
{ACAD_REACTORS
330
D0DA
102
}
330
D0DA
100
AcDbXrecord
280
     1
102
RTVSPropertyOp0
 70
     1
102
RTVSPropertyOp1
 70
     1
102
RTVSPropertyOp2
 70
     1
102
RTVSPropertyOp3
 70
     1
102
RTVSPropertyOp4
 70
     1
102
RTVSPropertyOp5
 70
     1
102
RTVSPropertyOp6
 70
     1
102
RTVSPropertyOp7
 70
     1
102
RTVSPropertyOp8
 70
     1
102
RTVSPropertyOp9
 70
     1
102
RTVSPropertyOp10
 70
     1
102
RTVSPropertyOp11
 70
     1
102
RTVSPropertyOp12
 70
     1
102
RTVSPropertyOp13
 70
     1
102
RTVSPropertyOp14
 70
     1
102
RTVSPropertyOp15
 70
     1
102
RTVSPropertyOp16
 70
     1
102
RTVSPropertyOp17
 70
     1
102
RTVSPropertyOp18
 70
     1
102
RTVSPropertyOp19
 70
     1
102
RTVSPropertyOp20
 70
     1
102
RTVSPropertyOp21
 70
     1
102
RTVSPropertyOp22
 70
     1
102
RTVSPropertyOp23
 70
     1
102
RTVSPropertyOp24
 70
     1
102
RTVSPropertyOp25
 70
     1
102
RTVSPropertyOp26
 70
     1
102
RTVSPropertyOp27
 70
     1
102
RTVSPropertyOp28
 70
     1
102
RTVSPropertyOp29
 70
     1
102
RTVSPropertyOp30
 70
     1
102
RTVSPropertyOp31
 70
     1
102
RTVSPropertyOp32
 70
     1
102
RTVSPropertyOp33
 70
     1
102
RTVSPropertyOp34
 70
     1
102
RTVSPropertyOp35
 70
     1
102
RTVSPropertyOp36
 70
     1
102
RTVSPropertyOp37
 70
     1
102
RTVSPropertyOp38
 70
     1
102
RTVSPropertyOp39
 70
     1
102
RTVSPropertyOp40
 70
     1
102
RTVSPropertyOp41
 70
     1
102
RTVSPropertyOp42
 70
     1
102
RTVSPropertyOp43
 70
     1
102
RTVSPropertyOp44
 70
     1
102
RTVSPropertyOp45
 70
     1
102
RTVSPropertyOp46
 70
     1
102
RTVSPropertyOp47
 70
     1
102
RTVSPropertyOp48
 70
     1
102
RTVSPropertyOp49
 70
     1
102
RTVSPropertyOp50
 70
     1
102
RTVSPropertyOp51
 70
     0
102
RTVSPropertyOp52
 70
     0
102
RTVSPropertyOp53
 70
     1
102
RTVSPropertyOp54
 70
     1
102
RTVSPropertyOp55
 70
     1
102
RTVSPropertyOp56
 70
     1
102
RTVSPropertyOp57
 70
     1
102
RTVSPost2010Prop28
280
     0
102
RTVSPost2010PropOp28
 70
     1
102
RTVSPost2010Prop29
280
     1
102
RTVSPost2010PropOp29
 70
     1
102
RTVSPost2010Prop30
280
     1
102
RTVSPost2010PropOp30
 70
     1
102
RTVSPost2010Prop31
280
     0
102
RTVSPost2010PropOp31
 70
     1
102
RTVSPost2010Prop32
280
     0
102
RTVSPost2010PropOp32
 70
     1
102
RTVSPost2010Prop33
280
     0
102
RTVSPost2010PropOp33
 70
     1
102
RTVSPost2010Prop34
280
     0
102
RTVSPost2010PropOp34
 70
     1
102
RTVSPost2010Prop35
280
     0
102
RTVSPost2010PropOp35
 70
     1
102
RTVSPost2010Prop36
280
     0
102
RTVSPost2010PropOp36
 70
     1
102
RTVSPost2010Prop37
 90
       50
102
RTVSPost2010PropOp37
 70
     1
102
RTVSPost2010Prop38
140
0.0
102
RTVSPost2010PropOp38
 70
     1
102
RTVSPost2010Prop39
140
1.0
102
RTVSPost2010PropOp39
 70
     1
102
RTVSPost2010Prop40
 90
        0
102
RTVSPost2010PropOp40
 70
     1
102
RTVSPost2010Prop41ColorIndex
 90
       18
102
RTVSPost2010Prop41ColorRGB
 90
        0
102
RTVSPost2010PropOp41
 70
     1
102
RTVSPost2010Prop42
 90
       50
102
RTVSPost2010PropOp42
 70
     1
102
RTVSPost2010Prop43
 90
        3
102
RTVSPost2010PropOp43
 70
     1
102
RTVSPost2010Prop44ColorIndex
 90
        5
102
RTVSPost2010Prop44ColorRGB
 90
      255
102
RTVSPost2010PropOp44
 70
     1
102
RTVSPost2010Prop45
280
     0
102
RTVSPost2010PropOp45
 70
     1
102
RTVSPost2010Prop46
 90
       50
102
RTVSPost2010PropOp46
 70
     1
102
RTVSPost2010Prop47
 90
       50
102
RTVSPost2010PropOp47
 70
     1
102
RTVSPost2010Prop48
 90
       50
102
RTVSPost2010PropOp48
 70
     1
102
RTVSPost2010Prop49
280
     0
102
RTVSPost2010PropOp49
 70
     1
102
RTVSPost2010Prop50
 90
       50
102
RTVSPost2010PropOp50
 70
     1
102
RTVSPost2010Prop51ColorIndex
 90
      256
102
RTVSPost2010Prop51ColorRGB
 90
-16777216
102
RTVSPost2010PropOp51
 70
     0
102
RTVSPost2010Prop52
140
1.0
102
RTVSPost2010PropOp52
 70
     0
102
RTVSPost2010Prop53
 90
        2
102
RTVSPost2010PropOp53
 70
     1
102
RTVSPost2010Prop54
  1
strokes_ogs.tif
102
RTVSPost2010PropOp54
 70
     1
102
RTVSPost2010Prop55
280
     0
102
RTVSPost2010PropOp55
 70
     1
102
RTVSPost2010Prop56
140
1.0
102
RTVSPost2010PropOp56
 70
     1
102
RTVSPost2010Prop57
140
1.0
102
RTVSPost2010PropOp57
 70
     1
  0
ENDSEC
  0
EOF
