  0
SECTION
  2
HEADER
  9
$ACADVER
  1
AC1015
  9
$ACADMAINTVER
 70
    20
  9
$DWGCODEPAGE
  3
ANSI_932
  9
$INSBASE
 10
0.0
 20
0.0
 30
0.0
  9
$EXTMIN
 10
0.0
 20
0.0
 30
0.0
  9
$EXTMAX
 10
594.0
 20
420.0
 30
0.0
  9
$LIMMIN
 10
0.0
 20
0.0
  9
$LIMMAX
 10
594.0
 20
420.0
  9
$ORTHOMODE
 70
     0
  9
$REGENMODE
 70
     1
  9
$FILLMODE
 70
     1
  9
$QTEXTMODE
 70
     0
  9
$MIRRTEXT
 70
     0
  9
$LTSCALE
 40
1.0
  9
$ATTMODE
 70
     1
  9
$TEXTSIZE
 40
3.2
  9
$TRACEWID
 40
1.0
  9
$TEXTSTYLE
  7
STANDARD
  9
$CLAYER
  8
AM_0
  9
$CELTYPE
  6
ByLayer
  9
$CECOLOR
 62
   256
  9
$CELTSCALE
 40
1.0
  9
$DISPSILH
 70
     0
  9
$DIMSCALE
 40
1.0
  9
$DIMASZ
 40
1.0
  9
$DIMEXO
 40
1.0
  9
$DIMDLI
 40
10.0
  9
$DIMRND
 40
0.0
  9
$DIMDLE
 40
0.0
  9
$DIMEXE
 40
1.0
  9
$DIMTP
 40
0.1
  9
$DIMTM
 40
0.1
  9
$DIMTXT
 40
3.5
  9
$DIMCEN
 40
0.0
  9
$DIMTSZ
 40
0.0
  9
$DIMTOL
 70
     0
  9
$DIMLIM
 70
     0
  9
$DIMTIH
 70
     0
  9
$DIMTOH
 70
     0
  9
$DIMSE1
 70
     0
  9
$DIMSE2
 70
     0
  9
$DIMTAD
 70
     1
  9
$DIMZIN
 70
     8
  9
$DIMBLK
  1

  9
$DIMASO
 70
     1
  9
$DIMSHO
 70
     1
  9
$DIMPOST
  1

  9
$DIMAPOST
  1
"
  9
$DIMALT
 70
     0
  9
$DIMALTD
 70
     2
  9
$DIMALTF
 40
0.0393701
  9
$DIMLFAC
 40
1.0
  9
$DIMTOFL
 70
     1
  9
$DIMTVP
 40
0.0
  9
$DIMTIX
 70
     0
  9
$DIMSOXD
 70
     0
  9
$DIMSAH
 70
     0
  9
$DIMBLK1
  1

  9
$DIMBLK2
  1

  9
$DIMSTYLE
  2
SYS
  9
$DIMCLRD
 70
   256
  9
$DIMCLRE
 70
   256
  9
$DIMCLRT
 70
     7
  9
$DIMTFAC
 40
0.71
  9
$DIMGAP
 40
1.5
  9
$DIMJUST
 70
     0
  9
$DIMSD1
 70
     0
  9
$DIMSD2
 70
     0
  9
$DIMTOLJ
 70
     0
  9
$DIMTZIN
 70
     8
  9
$DIMALTZ
 70
     0
  9
$DIMALTTZ
 70
     0
  9
$DIMUPT
 70
     0
  9
$DIMDEC
 70
     1
  9
$DIMTDEC
 70
     2
  9
$DIMALTU
 70
     2
  9
$DIMALTTD
 70
     2
  9
$DIMTXSTY
  7
STANDARD
  9
$DIMAUNIT
 70
     0
  9
$DIMADEC
 70
     0
  9
$DIMALTRND
 40
0.0
  9
$DIMAZIN
 70
     2
  9
$DIMDSEP
 70
    46
  9
$DIMATFIT
 70
     3
  9
$DIMFRAC
 70
     0
  9
$DIMLDRBLK
  1

  9
$DIMLUNIT
 70
     2
  9
$DIMLWD
 70
    -1
  9
$DIMLWE
 70
    -1
  9
$DIMTMOVE
 70
     0
  9
$LUNITS
 70
     2
  9
$LUPREC
 70
     2
  9
$SKETCHINC
 40
1.0
  9
$FILLETRAD
 40
0.0
  9
$AUNITS
 70
     0
  9
$AUPREC
 70
     0
  9
$MENU
  1
.
  9
$ELEVATION
 40
0.0
  9
$PELEVATION
 40
0.0
  9
$THICKNESS
 40
0.0
  9
$LIMCHECK
 70
     0
  9
$CHAMFERA
 40
0.0
  9
$CHAMFERB
 40
0.0
  9
$CHAMFERC
 40
20.0
  9
$CHAMFERD
 40
0.0
  9
$SKPOLY
 70
     0
  9
$TDCREATE
 40
2455831.751787465
  9
$TDUCREATE
 40
2455831.376787465
  9
$TDUPDATE
 40
2456030.718571319
  9
$TDUUPDATE
 40
2456030.343571319
  9
$TDINDWG
 40
0.0772137153
  9
$TDUSRTIMER
 40
0.0772110069
  9
$USRTIMER
 70
     1
  9
$ANGBASE
 50
0.0
  9
$ANGDIR
 70
     0
  9
$PDMODE
 70
     0
  9
$PDSIZE
 40
-3.0
  9
$PLINEWID
 40
0.0
  9
$SPLFRAME
 70
     0
  9
$SPLINETYPE
 70
     6
  9
$SPLINESEGS
 70
     8
  9
$HANDSEED
  5
F395
  9
$SURFTAB1
 70
     6
  9
$SURFTAB2
 70
     6
  9
$SURFTYPE
 70
     6
  9
$SURFU
 70
     6
  9
$SURFV
 70
     6
  9
$UCSBASE
  2

  9
$UCSNAME
  2

  9
$UCSORG
 10
0.0
 20
0.0
 30
0.0
  9
$UCSXDIR
 10
1.0
 20
0.0
 30
0.0
  9
$UCSYDIR
 10
0.0
 20
1.0
 30
0.0
  9
$UCSORTHOREF
  2

  9
$UCSORTHOVIEW
 70
     0
  9
$UCSORGTOP
 10
0.0
 20
0.0
 30
0.0
  9
$UCSORGBOTTOM
 10
0.0
 20
0.0
 30
0.0
  9
$UCSORGLEFT
 10
0.0
 20
0.0
 30
0.0
  9
$UCSORGRIGHT
 10
0.0
 20
0.0
 30
0.0
  9
$UCSORGFRONT
 10
0.0
 20
0.0
 30
0.0
  9
$UCSORGBACK
 10
0.0
 20
0.0
 30
0.0
  9
$PUCSBASE
  2

  9
$PUCSNAME
  2

  9
$PUCSORG
 10
0.0
 20
0.0
 30
0.0
  9
$PUCSXDIR
 10
1.0
 20
0.0
 30
0.0
  9
$PUCSYDIR
 10
0.0
 20
1.0
 30
0.0
  9
$PUCSORTHOREF
  2

  9
$PUCSORTHOVIEW
 70
     0
  9
$PUCSORGTOP
 10
0.0
 20
0.0
 30
0.0
  9
$PUCSORGBOTTOM
 10
0.0
 20
0.0
 30
0.0
  9
$PUCSORGLEFT
 10
0.0
 20
0.0
 30
0.0
  9
$PUCSORGRIGHT
 10
0.0
 20
0.0
 30
0.0
  9
$PUCSORGFRONT
 10
0.0
 20
0.0
 30
0.0
  9
$PUCSORGBACK
 10
0.0
 20
0.0
 30
0.0
  9
$USERI1
 70
     0
  9
$USERI2
 70
     0
  9
$USERI3
 70
     0
  9
$USERI4
 70
     0
  9
$USERI5
 70
     0
  9
$USERR1
 40
0.0
  9
$USERR2
 40
0.0
  9
$USERR3
 40
0.0
  9
$USERR4
 40
0.0
  9
$USERR5
 40
0.0
  9
$WORLDVIEW
 70
     1
  9
$SHADEDGE
 70
     3
  9
$SHADEDIF
 70
    70
  9
$TILEMODE
 70
     1
  9
$MAXACTVP
 70
    64
  9
$PINSBASE
 10
0.0
 20
0.0
 30
0.0
  9
$PLIMCHECK
 70
     0
  9
$PEXTMIN
 10
1.000000000000000E+20
 20
1.000000000000000E+20
 30
1.000000000000000E+20
  9
$PEXTMAX
 10
-1.000000000000000E+20
 20
-1.000000000000000E+20
 30
-1.000000000000000E+20
  9
$PLIMMIN
 10
-3.17498779296875
 20
-3.174999952316283
  9
$PLIMMAX
 10
293.4970092773438
 20
206.692492723465
  9
$UNITMODE
 70
     0
  9
$VISRETAIN
 70
     1
  9
$PLINEGEN
 70
     0
  9
$PSLTSCALE
 70
     1
  9
$TREEDEPTH
 70
  3020
  9
$CMLSTYLE
  2
Standard
  9
$CMLJUST
 70
     0
  9
$CMLSCALE
 40
20.0
  9
$PROXYGRAPHICS
 70
     1
  9
$MEASUREMENT
 70
     1
  9
$CELWEIGHT
370
    -1
  9
$ENDCAPS
280
     0
  9
$JOINSTYLE
280
     0
  9
$LWDISPLAY
290
     0
  9
$INSUNITS
 70
     4
  9
$HYPERLINKBASE
  1

  9
$STYLESHEET
  1
MONOCHROME.CTB
  9
$XEDIT
290
     1
  9
$CEPSNTYPE
380
     0
  9
$PSTYLEMODE
290
     1
  9
$FINGERPRINTGUID
  2
{E935F462-9313-4160-B5D2-4171B9D813FF}
  9
$VERSIONGUID
  2
{8536F4E5-A3A5-42F8-A986-569C322FF307}
  9
$EXTNAMES
290
     1
  9
$PSVPSCALE
 40
0.0
  9
$OLESTARTUP
290
     0
  0
ENDSEC
  0
SECTION
  2
CLASSES
  0
CLASS
  1
ACDBDICTIONARYWDFLT
  2
AcDbDictionaryWithDefault
  3
ObjectDBX Classes
 90
        0
280
     0
281
     0
  0
CLASS
  1
ACDBPLACEHOLDER
  2
AcDbPlaceHolder
  3
ObjectDBX Classes
 90
        0
280
     0
281
     0
  0
CLASS
  1
LAYOUT
  2
AcDbLayout
  3
ObjectDBX Classes
 90
        0
280
     0
281
     0
  0
CLASS
  1
AMGSETTINGSOBJ
  2
AmgSettingsObj
  3
"AcadM|Product Description: AutoCAD Mechanical|Company: Autodesk"
 90
        0
280
     0
281
     0
  0
CLASS
  1
ACME_DOCUMENT
  2
AcMeDbDoc
  3
AcMeServices
 90
        0
280
     0
281
     0
  0
CLASS
  1
ACMESCOPE
  2
AcMeScope
  3
AcMeServices
 90
        0
280
     0
281
     0
  0
CLASS
  1
ACMECOMMANDHISTORY
  2
AcMeCommandHistory
  3
AcMeServices
 90
        0
280
     0
281
     0
  0
CLASS
  1
DICTIONARYVAR
  2
AcDbDictionaryVar
  3
ObjectDBX Classes
 90
        0
280
     0
281
     0
  0
CLASS
  1
ACIMSYSVARMAN
  2
AcImSysVarManager
  3
AcMeServices
 90
        0
280
     0
281
     0
  0
CLASS
  1
ACIMREALSYSVAR
  2
AcImRealSysVar
  3
AcMeServices
 90
        0
280
     0
281
     0
  0
CLASS
  1
ACIMINTSYSVAR
  2
AcImIntSysVar
  3
AcMeServices
 90
        0
280
     0
281
     0
  0
CLASS
  1
ACMEDRAWINGMAN
  2
AcMeDrawingMan
  3
AcMeServices
 90
        0
280
     0
281
     0
  0
CLASS
  1
ACMEVIEW
  2
AcMeView
  3
AcMeServices
 90
        0
280
     0
281
     0
  0
CLASS
  1
ACDBENTITYCACHE
  2
AcMeEntityCache
  3
AcMeServices
 90
        0
280
     0
281
     0
  0
CLASS
  1
GSMANAGER
  2
AcMeGSManager
  3
AcMeServices
 90
        0
280
     0
281
     0
  0
CLASS
  1
AMDTINTERNALREACTOR
  2
AmdtInternalReactor
  3
AcMeServices
 90
        0
280
     0
281
     0
  0
CLASS
  1
ACMESTATEMGR
  2
AcMeStateMgr
  3
AcMeServices
 90
        0
280
     0
281
     0
  0
CLASS
  1
ACGREFMASTER
  2
AcGrefMaster
  3
AcAttribServices
 90
        0
280
     0
281
     0
  0
CLASS
  1
ACME_DATABASE
  2
AcMeDbDatabase
  3
AcMeServices
 90
        0
280
     0
281
     0
  0
CLASS
  1
ACRFINSADJUSTERMGR
  2
AcRfInsAdjusterMgr
  3
AcMeServices
 90
        0
280
     0
281
     0
  0
CLASS
  1
ACGREFACADMASTER
  2
AcGrefacadMaster
  3
AcGrefServices
 90
        0
280
     0
281
     0
  0
CLASS
  1
AMIMASTER
  2
AmiMaster
  3
AmiServices
 90
        0
280
     0
281
     0
  0
CLASS
  1
ACMDATADICTIONARY
  2
AcmDataDictionary
  3
"AcmSymBB|Product Description: AutoCAD Mechanical|Company: Autodesk"
 90
        0
280
     0
281
     0
  0
CLASS
  1
ACMDATAENTRYBLOCK
  2
AcmDataEntryBlock
  3
"AcmSymBB|Product Description: AutoCAD Mechanical|Company: Autodesk"
 90
    32768
280
     0
281
     0
  0
CLASS
  1
ACIMSTRSYSVAR
  2
AcImStrSysVar
  3
AcMeServices
 90
        0
280
     0
281
     0
  0
CLASS
  1
ACMSTANDARDISO
  2
AcmStandardISO
  3
"Amdt_StdImp|Product Description: AutoCAD Mechanical|Company: Autodesk"
 90
        0
280
     0
281
     0
  0
CLASS
  1
AMGOBJPROPCFG
  2
AmgObjPropCfg
  3
"AmgLay|Product Description: AutoCAD Mechanical|Company: Autodesk"
 90
        1
280
     0
281
     0
  0
CLASS
  1
AMDTEDGESTANDARDISO
  2
AmdtEdgeStdISO
  3
"Amdt_StdImp|Product Description: AutoCAD Mechanical|Company: Autodesk"
 90
    32768
280
     0
281
     0
  0
CLASS
  1
ACMSURFSTANDARDISO
  2
AcmSurfTextStdISO
  3
"Amdt_StdImp|Product Description: AutoCAD Mechanical|Company: Autodesk"
 90
        0
280
     0
281
     0
  0
CLASS
  1
ACMFCFSTANDARDISO
  2
AcmFCFStdISO
  3
"Amdt_StdImp|Product Description: AutoCAD Mechanical|Company: Autodesk"
 90
        0
280
     0
281
     0
  0
CLASS
  1
ACMWELDSTANDARDISO
  2
AcmWeldingStdISO
  3
"Amdt_StdImp|Product Description: AutoCAD Mechanical|Company: Autodesk"
 90
        0
280
     0
281
     0
  0
CLASS
  1
ACMIDSTANDARDISO
  2
AcmIdStdISO
  3
"Amdt_StdImp|Product Description: AutoCAD Mechanical|Company: Autodesk"
 90
        0
280
     0
281
     0
  0
CLASS
  1
ACMDATUMSTANDARDISO
  2
AcmDatumStdISO
  3
"Amdt_StdImp|Product Description: AutoCAD Mechanical|Company: Autodesk"
 90
        0
280
     0
281
     0
  0
CLASS
  1
ACMBOMSTANDARDISO
  2
AcmBOMStdISO
  3
"Amdt_StdImp|Product Description: AutoCAD Mechanical|Company: Autodesk"
 90
        0
280
     0
281
     0
  0
CLASS
  1
ACMDETAILSTANDARDISO
  2
AmdtDetailSymStdISO
  3
"Amdt_StdImp|Product Description: AutoCAD Mechanical|Company: Autodesk"
 90
        0
280
     0
281
     0
  0
CLASS
  1
ACMSECTIONSTANDARDISO
  2
AmdtSectionSymStdISO
  3
"Amdt_StdImp|Product Description: AutoCAD Mechanical|Company: Autodesk"
 90
        0
280
     0
281
     0
  0
CLASS
  1
ACMCENTERLINESTANDARDISO
  2
AmdtCenterLineStdISO
  3
"Amdt_StdImp|Product Description: AutoCAD Mechanical|Company: Autodesk"
 90
        0
280
     0
281
     0
  0
CLASS
  1
ACAMGLAYSTD
  2
AcAmgLayStd
  3
"AmgLay|Product Description: AutoCAD Mechanical|Company: Autodesk"
 90
        0
280
     0
281
     0
  0
CLASS
  1
ACAMGDIMSTD
  2
AcAmgDimStd
  3
"AmgDim|Product Description: AutoCAD Mechanical|Company: Autodesk"
 90
        0
280
     0
281
     0
  0
CLASS
  1
ACAMGTITLESTD
  2
AcAmgTitleStd
  3
"AmgTitle|Product Description: AutoCAD Mechanical|Company: Autodesk"
 90
        0
280
     0
281
     0
  0
CLASS
  1
ACAMGFILTERDAT
  2
AcAmgFilterDat
  3
"AcadM|Product Description: AutoCAD Mechanical|Company: Autodesk"
 90
    32768
280
     0
281
     0
  0
CLASS
  1
LAYER_INDEX
  2
AcDbLayerIndex
  3
ObjectDBX Classes
 90
    32768
280
     0
281
     0
  0
CLASS
  1
IDBUFFER
  2
AcDbIdBuffer
  3
ObjectDBX Classes
 90
    32768
280
     0
281
     0
  0
CLASS
  1
PLOTSETTINGS
  2
AcDbPlotSettings
  3
ObjectDBX Classes
 90
    32768
280
     0
281
     0
  0
CLASS
  1
AMDTFORMULAUPDATEDISPATCHER
  2
AmdtFormulaUpdateDispatcher
  3
AcMeServices
 90
    32768
280
     0
281
     0
  0
CLASS
  1
ACMSTANDARDANSI
  2
AcmStandardANSI
  3
"Amdt_StdImp|Product Description: AutoCAD Mechanical|Company: Autodesk"
 90
    32768
280
     0
281
     0
  0
CLASS
  1
ACMSURFSTANDARDANSI
  2
AcmSurfTextStdANSI
  3
"Amdt_StdImp|Product Description: AutoCAD Mechanical|Company: Autodesk"
 90
    32768
280
     0
281
     0
  0
CLASS
  1
ACMFCFSTANDARDANSI
  2
AcmFCFStdANSI
  3
"Amdt_StdImp|Product Description: AutoCAD Mechanical|Company: Autodesk"
 90
    32768
280
     0
281
     0
  0
CLASS
  1
ACMWELDSTANDARDANSI
  2
AcmWeldingStdANSI
  3
"Amdt_StdImp|Product Description: AutoCAD Mechanical|Company: Autodesk"
 90
    32768
280
     0
281
     0
  0
CLASS
  1
ACMIDSTANDARDANSI
  2
AcmIdStdANSI
  3
"Amdt_StdImp|Product Description: AutoCAD Mechanical|Company: Autodesk"
 90
    32768
280
     0
281
     0
  0
CLASS
  1
ACMDATUMSTANDARDANSI
  2
AcmDatumStdANSI
  3
"Amdt_StdImp|Product Description: AutoCAD Mechanical|Company: Autodesk"
 90
    32768
280
     0
281
     0
  0
CLASS
  1
ACMBOMSTANDARDANSI
  2
AcmBOMStdANSI
  3
"Amdt_StdImp|Product Description: AutoCAD Mechanical|Company: Autodesk"
 90
    32768
280
     0
281
     0
  0
CLASS
  1
ACMDETAILSTANDARDANSI
  2
AmdtDetailSymStdANSI
  3
"Amdt_StdImp|Product Description: AutoCAD Mechanical|Company: Autodesk"
 90
    32768
280
     0
281
     0
  0
CLASS
  1
ACMSECTIONSTANDARDANSI
  2
AmdtSectionSymStdANSI
  3
"Amdt_StdImp|Product Description: AutoCAD Mechanical|Company: Autodesk"
 90
    32768
280
     0
281
     0
  0
CLASS
  1
ACMCENTERLINESTANDARDANSI
  2
AmdtCenterLineStdANSI
  3
"Amdt_StdImp|Product Description: AutoCAD Mechanical|Company: Autodesk"
 90
    32768
280
     0
281
     0
  0
CLASS
  1
ACMBOM
  2
AcmBom
  3
"AcmSymBB|Product Description: AutoCAD Mechanical|Company: Autodesk"
 90
    32768
280
     0
281
     0
  0
CLASS
  1
ACMDATAENTRYPART
  2
AcmDataEntryPart
  3
"AcmSymBB|Product Description: AutoCAD Mechanical|Company: Autodesk"
 90
    32768
280
     0
281
     0
  0
CLASS
  1
ACMPARTREF
  2
AcmPartRef
  3
"AcmSymBB|Product Description: AutoCAD Mechanical|Company: Autodesk"
 90
    35839
280
     0
281
     1
  0
CLASS
  1
ACDBCIRCARCRES
  2
AcDbCircArcRes
  3
AcGrefServices
 90
    32768
280
     0
281
     0
  0
CLASS
  1
ACMBOMROW
  2
AcmBomRow
  3
"AcmSymBB|Product Description: AutoCAD Mechanical|Company: Autodesk"
 90
    32768
280
     0
281
     0
  0
CLASS
  1
ACMBALLOON
  2
AcmBalloon
  3
"AcmSymBB|Product Description: AutoCAD Mechanical|Company: Autodesk"
 90
    35839
280
     0
281
     1
  0
CLASS
  1
AMDTNOTE
  2
AmdtNote
  3
"AcmSymBB|Product Description: AutoCAD Mechanical|Company: Autodesk"
 90
    35839
280
     0
281
     1
  0
CLASS
  1
STDPART2D
  2
AmgStdPart
  3
"g3vace|Class: AmgStdPart|Product Description: AutoCAD Mechanical|Company: Autodesk"
 90
    35839
280
     0
281
     1
  0
CLASS
  1
ACDBSTDPARTRES_LINE
  2
AcDbStdPartRes_Line
  3
"g3vace|Class: AcDbStdPartRes_Line|Product Description: AutoCAD Mechanical|Company: Autodesk"
 90
    32768
280
     0
281
     0
  0
CLASS
  1
ACMDATAENTRY
  2
AcmDataEntry
  3
"AcmSymBB|Product Description: AutoCAD Mechanical|Company: Autodesk"
 90
    32768
280
     0
281
     0
  0
CLASS
  1
ACDBOPPOLYLINERES
  2
AcDbOpPolylineRes
  3
AcGrefServices
 90
    32768
280
     0
281
     0
  0
CLASS
  1
ACMPARTLIST
  2
AcmPartList
  3
"AcmSymBB|Product Description: AutoCAD Mechanical|Company: Autodesk"
 90
    35839
280
     0
281
     1
  0
CLASS
  1
ACDBLINERES
  2
AcDbLineRes
  3
AcGrefServices
 90
    32768
280
     0
281
     0
  0
CLASS
  1
ACRFINSADJ
  2
AcRfInsAdjuster
  3
AcMeServices
 90
    32768
280
     0
281
     0
  0
CLASS
  1
AM_DRAWING_MGR
  2
AcDmDwgMgr
  3
AcMechDwgViewMgmt
 90
        0
280
     0
281
     0
  0
CLASS
  1
AM_DWG_DOCUMENT
  2
AcDmDwgDocument
  3
AcMechDwgViewMgmt
 90
        0
280
     0
281
     0
  0
CLASS
  1
AM_DWG_SHEET
  2
AcDmSheet
  3
AcMechDwgViewMgmt
 90
        0
280
     0
281
     0
  0
CLASS
  1
AM_VIEWDIMPARMAP
  2
AcDmViewDimParMap
  3
AcMechDwgViewMgmt
 90
        0
280
     0
281
     0
  0
CLASS
  1
AM_DWGMGR_NAME
  2
AcDmDwgMgrName
  3
AcMechDwgViewMgmt
 90
        0
280
     0
281
     0
  0
CLASS
  1
AMDTMENUSTATEMGR
  2
AmdtMenuStateMgr
  3
McadcomServices
 90
        0
280
     0
281
     0
  0
CLASS
  1
AMDTMCOMMENUSTATE
  2
AmdtMcomMenuState
  3
McadcomServices
 90
        0
280
     0
281
     0
  0
CLASS
  1
ASAPP
  2
AcAsAppObject
  3
AutoSurfServices
 90
        0
280
     0
281
     0
  0
CLASS
  1
IM_STATIC_MAN
  2
AcImStaticVarManager
  3
AcMeServices
 90
    32768
280
     0
281
     0
  0
CLASS
  1
ACIMDBLSTATICVAR
  2
AcImDblStaticVar
  3
AcMeServices
 90
    32768
280
     0
281
     0
  0
CLASS
  1
ACIMSTRSTATICVAR
  2
AcImStrStaticVar
  3
AcMeServices
 90
    32768
280
     0
281
     0
  0
CLASS
  1
ACIMINTSTATICVAR
  2
AcImIntStaticVar
  3
AcMeServices
 90
    32768
280
     0
281
     0
  0
CLASS
  1
ACASGREFMASTER
  2
AcAsGrefMaster
  3
AutoSurfResolverServices
 90
        0
280
     0
281
     0
  0
CLASS
  1
ACADGREFMODULE
  2
AcAdGrefModule
  3
AdGrefServices
 90
        0
280
     0
281
     0
  0
CLASS
  1
AMDTMAPISURFMOUDULE
  2
AmdtMApiSurfModule
  3
MApiSurfServices
 90
        0
280
     0
281
     0
  0
CLASS
  1
MAPIAMMOUDLE
  2
MApiAmModule
  3
MApiAmServices
 90
        0
280
     0
281
     0
  0
CLASS
  1
AMDTADMENUSTATE
  2
AmdtAdMenuState
  3
DesignerServices
 90
        0
280
     0
281
     0
  0
CLASS
  1
ADAPPL
  2
AcAdAppl
  3
DesignerServices
 90
        0
280
     0
281
     0
  0
CLASS
  1
DEPMGR
  2
AcAdDepMgr
  3
DesignerServices
 90
        0
280
     0
281
     0
  0
CLASS
  1
PARAMMGR
  2
AcAdParamMgr
  3
DesignerServices
 90
        0
280
     0
281
     0
  0
CLASS
  1
PARAMSCOPE
  2
AcAdParamScope
  3
DesignerServices
 90
        0
280
     0
281
     0
  0
CLASS
  1
NAMEDAPPL
  2
AcAdNamedAppl
  3
DesignerServices
 90
        0
280
     0
281
     0
  0
CLASS
  1
ADHNTMPLT
  2
AdHoleNoteTemplateMgr
  3
DesignerServices
 90
    32768
280
     0
281
     0
  0
CLASS
  1
AM_HNTEMPLATE_MGR_NAME
  2
AdHoleNoteTemplateMgrName
  3
DesignerServices
 90
    32768
280
     0
281
     0
  0
CLASS
  1
AMDTDMMENUSTATE
  2
AmdtDmMenuState
  3
AcMechDwgViewMgmt
 90
        0
280
     0
281
     0
  0
CLASS
  1
MAPIADMODULE
  2
MApiAdModule
  3
MApiAdServices
 90
        0
280
     0
281
     0
  0
CLASS
  1
AMDTAMMENUSTATE
  2
AmdtAmMenuState
  3
DesignerAssemblies
 90
        0
280
     0
281
     0
  0
CLASS
  1
ACAMPROJECT
  2
AcAmProject
  3
DesignerAssemblies
 90
        0
280
     0
281
     0
  0
CLASS
  1
ACAMGRCOMPDEF
  2
AcAmGrCompDef
  3
DesignerAssemblies
 90
        0
280
     0
281
     0
  0
CLASS
  1
ACCMCONTEXT
  2
AcCmContext
  3
DesignerAssemblies
 90
        0
280
     0
281
     0
  0
CLASS
  1
ACAMCOMPDEF
  2
AcAmCompDef
  3
DesignerAssemblies
 90
        0
280
     0
281
     0
  0
CLASS
  1
ACAMCOMPDEFMGR
  2
AcAmCompDefMgr
  3
DesignerAssemblies
 90
        0
280
     0
281
     0
  0
CLASS
  1
AMCONTEXTMGR
  2
AcAmContextMgr
  3
DesignerAssemblies
 90
        0
280
     0
281
     0
  0
CLASS
  1
ACAMCONTEXTMODELER
  2
AcAmContextModeler
  3
DesignerAssemblies
 90
        0
280
     0
281
     0
  0
CLASS
  1
CATALOGSTATE
  2
AcAmCatalogState
  3
DesignerAssemblies
 90
        0
280
     0
281
     0
  0
CLASS
  1
ACAMGRCOMPDEFSET
  2
AcAmGrCompDefSet
  3
DesignerAssemblies
 90
        0
280
     0
281
     0
  0
CLASS
  1
AMDTBROWSERDBTAB
  2
AmdtBrowserDbTab
  3
McadcomServices
 90
        0
280
     0
281
     0
  0
CLASS
  1
CBROWSERAPPOBJECT
  2
CBrowserAppObject
  3
McadcomServices
 90
        0
280
     0
281
     0
  0
CLASS
  1
DM_PLACEHOLDER
  2
AcDmSelsetPlaceholder
  3
AcMechDwgViewMgmt
 90
        0
280
     0
281
     0
  0
CLASS
  1
ACMPICKOBJ
  2
AcmPickEnt
  3
"AcmSymBB|Product Description: AutoCAD Mechanical|Company: Autodesk"
 90
    32768
280
     0
281
     1
  0
CLASS
  1
ACMNOTESTANDARDISO
  2
AmdtNoteStdISO
  3
"Amdt_StdImp|Product Description: AutoCAD Mechanical|Company: Autodesk"
 90
        0
280
     0
281
     0
  0
CLASS
  1
ACMNOTESTANDARDANSI
  2
AmdtNoteStdANSI
  3
"Amdt_StdImp|Product Description: AutoCAD Mechanical|Company: Autodesk"
 90
    32768
280
     0
281
     0
  0
CLASS
  1
ACMTHREADLINESTANDARDISO
  2
AmdtThreadLineStdISO
  3
"Amdt_StdImp|Product Description: AutoCAD Mechanical|Company: Autodesk"
 90
        0
280
     0
281
     0
  0
CLASS
  1
ACMTHREADLINESTANDARDANSI
  2
AmdtThreadLineStdANSI
  3
"Amdt_StdImp|Product Description: AutoCAD Mechanical|Company: Autodesk"
 90
    32768
280
     0
281
     0
  0
CLASS
  1
TABLESTYLE
  2
AcDbTableStyle
  3
ObjectDBX Classes
 90
     4095
280
     0
281
     0
  0
CLASS
  1
SORTENTSTABLE
  2
AcDbSortentsTable
  3
ObjectDBX Classes
 90
        0
280
     0
281
     0
  0
CLASS
  1
MATERIAL
  2
AcDbMaterial
  3
ObjectDBX Classes
 90
     1024
280
     0
281
     0
  0
CLASS
  1
VISUALSTYLE
  2
AcDbVisualStyle
  3
ObjectDBX Classes
 90
     4095
280
     0
281
     0
  0
CLASS
  1
ACRFATTGENMGR
  2
AcRfAttGeneralMgr
  3
AcAttribServices
 90
    32768
280
     0
281
     0
  0
CLASS
  1
ACRFOBJATTMGR
  2
AcRfObjAttGroupMgr
  3
AcAttribServices
 90
    32768
280
     0
281
     0
  0
CLASS
  1
ACRFMCADAPIATTHOLDER
  2
AcRfMCADAPIAttHolder
  3
AcAttribServices
 90
    32768
280
     0
281
     0
  0
CLASS
  1
AMDTSYSATTR
  2
AmdtSystemAttribute
  3
AcAttribServices
 90
    32768
280
     0
281
     0
  0
CLASS
  1
ACMTAPERSTANDARDISO
  2
AcmTaperStdISO
  3
"Amdt_StdImp|Product Description: AutoCAD Mechanical|Company: Autodesk"
 90
        0
280
     0
281
     0
  0
CLASS
  1
CAMSSTRUCTBTNSTATE
  2
StructBtnState
  3
L"DesignerAssemblies"
 90
    32768
280
     0
281
     0
  0
CLASS
  1
DIMASSOC
  2
AcDbDimAssoc
  3
"AcDbDimAssoc|Product Desc:     AcDim ARX App For Dimension|Company:          Autodesk, Inc.|WEB Address:      www.autodesk.com"
 90
    32768
280
     0
281
     0
  0
CLASS
  1
AMDTNOTETEMPLATEDB
  2
AmdtNoteTemplateDB
  3
AMDT_STDIMP_MODULE_NAME
 90
        0
280
     0
281
     0
  0
CLASS
  1
ACMTAPERSTANDARDANSI
  2
AcmTaperStdANSI
  3
"Amdt_StdImp|Product Description: AutoCAD Mechanical|Company: Autodesk"
 90
    32768
280
     0
281
     0
  0
CLASS
  1
ACAMGHOLECHARTSTDANSI
  2
AcAmgHoleChartStdANSI
  3
ACMSYMBB_MODULE_NAME
 90
    32768
280
     0
281
     0
  0
CLASS
  1
AMDTEDGESTANDARDISO13715
  2
AmdtEdgeStdISO13715
  3
"Amdt_StdImp|Product Description: AutoCAD Mechanical|Company: Autodesk"
 90
        0
280
     0
281
     0
  0
CLASS
  1
ACAMGHOLECHARTSTDISO
  2
AcAmgHoleChartStdISO
  3
ACMSYMBB_MODULE_NAME
 90
        0
280
     0
281
     0
  0
ENDSEC
  0
SECTION
  2
TABLES
  0
TABLE
  2
VPORT
  5
8
330
0
100
AcDbSymbolTable
 70
     1
  0
VPORT
  5
B0EC
330
8
100
AcDbSymbolTableRecord
100
AcDbViewportTableRecord
  2
*Active
 70
     0
 10
0.0
 20
0.0
 11
1.0
 21
1.0
 12
474.7320291741486
 22
209.9964904065336
 13
0.0
 23
0.0
 14
2.5
 24
2.5
 15
10.0
 25
10.0
 16
0.0
 26
0.0
 36
1.0
 17
0.0
 27
0.0
 37
0.0
 40
466.1386812724823
 41
2.04325699745547
 42
50.0
 43
-1370.695619172058
 44
-1370.695619172058
 50
0.0
 51
0.0
 71
    16
 72
   100
 73
     1
 74
     3
 75
     0
 76
     0
 77
     0
 78
     0
281
     0
 65
     0
110
0.0
120
0.0
130
0.0
111
1.0
121
0.0
131
0.0
112
0.0
122
1.0
132
0.0
 79
     0
146
0.0
  0
ENDTAB
  0
TABLE
  2
LTYPE
  5
5
330
0
100
AcDbSymbolTable
 70
    33
  0
LTYPE
  5
14
330
5
100
AcDbSymbolTableRecord
100
AcDbLinetypeTableRecord
  2
ByBlock
 70
     0
  3

 72
    65
 73
     0
 40
0.0
  0
LTYPE
  5
15
330
5
100
AcDbSymbolTableRecord
100
AcDbLinetypeTableRecord
  2
ByLayer
 70
     0
  3

 72
    65
 73
     0
 40
0.0
  0
LTYPE
  5
16
330
5
100
AcDbSymbolTableRecord
100
AcDbLinetypeTableRecord
  2
Continuous
 70
     0
  3
Solid line
 72
    65
 73
     0
 40
0.0
  0
LTYPE
  5
4F
330
5
100
AcDbSymbolTableRecord
100
AcDbLinetypeTableRecord
  2
AM_ISO02W050
 70
     0
  3
__ __ __ __ __ __ __ __ __ __ __ __ __ __ __
 72
    65
 73
     2
 40
7.5
 49
6.0
 74
     0
 49
-1.5
 74
     0
  0
LTYPE
  5
52
330
5
100
AcDbSymbolTableRecord
100
AcDbLinetypeTableRecord
  2
Amconstr
 70
     0
  3
_______________________
 72
    65
 73
     2
 40
9999.0
 49
9999.0
 74
     0
 49
0.0
 74
     0
  0
LTYPE
  5
64
330
5
100
AcDbSymbolTableRecord
100
AcDbLinetypeTableRecord
  2
ACISOWELD
 70
     0
  3
_ _ _ _ _
 72
    65
 73
     2
 40
2.0
 49
2.0
 74
     0
 49
-1.0
 74
     0
  0
LTYPE
  5
65
330
5
100
AcDbSymbolTableRecord
100
AcDbLinetypeTableRecord
  2
ACISOTGB
 70
     0
  3
__ . . __ . .
 72
    65
 73
     6
 40
9.0
 49
4.0
 74
     0
 49
-1.0
 74
     0
 49
1.0
 74
     0
 49
-1.0
 74
     0
 49
1.0
 74
     0
 49
-1.0
 74
     0
  0
LTYPE
  5
66
330
5
100
AcDbSymbolTableRecord
100
AcDbLinetypeTableRecord
  2
ACISOTGL
 70
     0
  3
_ _ _ _ _
 72
    65
 73
     2
 40
3.0
 49
2.0
 74
     0
 49
-1.0
 74
     0
  0
LTYPE
  5
69
330
5
100
AcDbSymbolTableRecord
100
AcDbLinetypeTableRecord
  2
CENTER
 70
     0
  3
__ . __
 72
    65
 73
     4
 40
7.0
 49
4.0
 74
     0
 49
-1.0
 74
     0
 49
1.0
 74
     0
 49
-1.0
 74
     0
  0
LTYPE
  5
A6E
330
5
100
AcDbSymbolTableRecord
100
AcDbLinetypeTableRecord
  2
PHANTOM2
 70
     0
  3
Phantom (.5x) ___ _ _ ___ _ _ ___ _ _ ___ _ _
 72
    65
 73
     6
 40
31.75
 49
15.875
 74
     0
 49
-3.174999999999998
 74
     0
 49
3.174999999999998
 74
     0
 49
-3.174999999999998
 74
     0
 49
3.174999999999998
 74
     0
 49
-3.174999999999998
 74
     0
  0
LTYPE
  5
4DED
330
5
100
AcDbSymbolTableRecord
100
AcDbLinetypeTableRecord
  2
中線
 70
     0
  3
___________________
 72
    65
 73
     2
 40
2.0
 49
1.0
 74
     0
 49
1.0
 74
     0
  0
LTYPE
  5
4DF6
330
5
100
AcDbSymbolTableRecord
100
AcDbLinetypeTableRecord
  2
細線
 70
     0
  3
___________________
 72
    65
 73
     2
 40
2.0
 49
1.0
 74
     0
 49
1.0
 74
     0
  0
LTYPE
  5
4DF7
330
5
100
AcDbSymbolTableRecord
100
AcDbLinetypeTableRecord
  2
太線
 70
     0
  3
___________________
 72
    65
 73
     2
 40
2.0
 49
1.0
 74
     0
 49
1.0
 74
     0
  0
LTYPE
  5
4EA7
330
5
100
AcDbSymbolTableRecord
100
AcDbLinetypeTableRecord
  2
文字
 70
     0
  3
_________________
 72
    65
 73
     2
 40
2.0
 49
1.0
 74
     0
 49
1.0
 74
     0
  0
LTYPE
  5
4EA9
330
5
100
AcDbSymbolTableRecord
100
AcDbLinetypeTableRecord
  2
寸法線
 70
     0
  3
________________
 72
    65
 73
     2
 40
2.0
 49
1.0
 74
     0
 49
1.0
 74
     0
  0
LTYPE
  5
4F12
330
5
100
AcDbSymbolTableRecord
100
AcDbLinetypeTableRecord
  2
ハッチング
 70
     0
  3
_________________
 72
    65
 73
     2
 40
2.0
 49
1.0
 74
     0
 49
1.0
 74
     0
  0
LTYPE
  5
5180
330
5
100
AcDbSymbolTableRecord
100
AcDbLinetypeTableRecord
  2
陰線1
 70
     0
  3
__ __ __ __
 72
    65
 73
     2
 40
4.0
 49
2.2
 74
     0
 49
-1.8
 74
     0
  0
LTYPE
  5
5182
330
5
100
AcDbSymbolTableRecord
100
AcDbLinetypeTableRecord
  2
切断線
 70
     0
  3
/\/-/\/-/\/-/\/-/\/-/\/
 72
    65
 73
     2
 40
11.0001
 49
0.0001
 74
     4
 75
   135
340
56
 46
0.04
 50
0.0
 44
0.0
 45
0.0
 49
-11.0
 74
     0
  0
LTYPE
  5
5183
330
5
100
AcDbSymbolTableRecord
100
AcDbLinetypeTableRecord
  2
想像線1
 70
     0
  3
__ __ __ _____ __ __ ____
 72
    65
 73
     6
 40
14.5
 49
6.0
 74
     0
 49
-1.5
 74
     0
 49
2.0
 74
     0
 49
-1.5
 74
     0
 49
2.0
 74
     0
 49
-1.5
 74
     0
  0
LTYPE
  5
5185
330
5
100
AcDbSymbolTableRecord
100
AcDbLinetypeTableRecord
  2
中心線1
 70
     0
  3
___ _ ___ _ ___
 72
    65
 73
     4
 40
18.0
 49
12.0
 74
     0
 49
-2.0
 74
     0
 49
2.0
 74
     0
 49
-2.0
 74
     0
  0
LTYPE
  5
5188
330
5
100
AcDbSymbolTableRecord
100
AcDbLinetypeTableRecord
  2
補助線
 70
     0
  3
______________
 72
    65
 73
     2
 40
2.0
 49
1.0
 74
     0
 49
1.0
 74
     0
  0
LTYPE
  5
6427
330
5
100
AcDbSymbolTableRecord
100
AcDbLinetypeTableRecord
  2
HIDDEN
 70
     0
  3
Hidden __ __ __ __ __ __ __ __ __ __ __ __ __ _
 72
    65
 73
     2
 40
0.375
 49
0.25
 74
     0
 49
-0.125
 74
     0
  0
LTYPE
  5
AC81
330
5
100
AcDbSymbolTableRecord
100
AcDbLinetypeTableRecord
  2
破断線
 70
     0
  3
/\/-/\/-/\/-/\/-/\/-/\/
 72
    65
 73
     2
 40
0.4401
 49
0.0001
 74
     4
 75
   136
340
AC80
 46
0.0016
 50
0.0
 44
0.0
 45
0.0
 49
-0.4400000000000002
 74
     0
  0
LTYPE
  5
AC9E
330
5
100
AcDbSymbolTableRecord
100
AcDbLinetypeTableRecord
  2
Amzigzag
 70
     0
  3
/\/-/\/-/\/-/\/-/\/-/\/
 72
    65
 73
     2
 40
11.0001
 49
0.0001
 74
     4
 75
   135
340
56
 46
0.04
 50
0.0
 44
0.0
 45
0.0
 49
-11.0
 74
     0
  0
LTYPE
  5
AF0F
330
5
100
AcDbSymbolTableRecord
100
AcDbLinetypeTableRecord
  2
genzigzag
 70
     0
  3
/\/-/\/-/\/-/\/-/\/-/\/
 72
    65
 73
     2
 40
12.0001
 49
0.0001
 74
     4
 75
   135
340
AC80
 46
2.0
 50
0.0
 44
0.0
 45
0.0
 49
-12.0
 74
     0
  0
LTYPE
  5
AF95
330
5
100
AcDbSymbolTableRecord
100
AcDbLinetypeTableRecord
  2
AM_ISO08W050
 70
     0
  3
____ . ____ . ____ . ____ . ____ . ____ . ____
 72
    65
 73
     4
 40
18.0
 49
12.0
 74
     0
 49
-1.5
 74
     0
 49
3.0
 74
     0
 49
-1.5
 74
     0
  0
LTYPE
  5
AF96
330
5
100
AcDbSymbolTableRecord
100
AcDbLinetypeTableRecord
  2
AM_ISO09W050
 70
     0
  3
_____ . . _____ . . _____ . . ____ .. ____
 72
    65
 73
     6
 40
22.5
 49
12.0
 74
     0
 49
-1.5
 74
     0
 49
3.0
 74
     0
 49
-1.5
 74
     0
 49
3.0
 74
     0
 49
-1.5
 74
     0
  0
LTYPE
  5
AF97
330
5
100
AcDbSymbolTableRecord
100
AcDbLinetypeTableRecord
  2
AM_ISO08W050x2
 70
     0
  3
__ . __ . __ . __ . __ . __
 72
    65
 73
     4
 40
9.0
 49
6.0
 74
     0
 49
-0.75
 74
     0
 49
1.5
 74
     0
 49
-0.75
 74
     0
  0
LTYPE
  5
AF98
330
5
100
AcDbSymbolTableRecord
100
AcDbLinetypeTableRecord
  2
AM_ISO02W050x2
 70
     0
  3
 _ _ _ _ _ _ _ _ _ _ _ _
 72
    65
 73
     2
 40
3.75
 49
3.0
 74
     0
 49
-0.75
 74
     0
  0
LTYPE
  5
B6FC
330
5
100
AcDbSymbolTableRecord
100
AcDbLinetypeTableRecord
  2
CENTER2
 70
     0
  3
Center (.5x) ___ _ ___ _ ___ _ ___ _ ___ _ ___
 72
    65
 73
     4
 40
1.125
 49
0.75
 74
     0
 49
-0.125
 74
     0
 49
0.125
 74
     0
 49
-0.125
 74
     0
  0
LTYPE
  5
B6FD
330
5
100
AcDbSymbolTableRecord
100
AcDbLinetypeTableRecord
  2
HIDDEN2
 70
     0
  3
Hidden (.5x) _ _ _ _ _ _ _ _ _ _ _ _ _ _ _ _ _
 72
    65
 73
     2
 40
0.1875
 49
0.125
 74
     0
 49
-0.0625
 74
     0
  0
LTYPE
  5
B6FE
330
5
100
AcDbSymbolTableRecord
100
AcDbLinetypeTableRecord
  2
Amzigzag2
 70
     0
  3
/\/-/\/-/\/-/\/-/\/-/\/
 72
    65
 73
     2
 40
0.4401
 49
0.0001
 74
     4
 75
   136
340
AC80
 46
0.0016
 50
0.0
 44
0.0
 45
0.0
 49
-0.4400000000000002
 74
     0
  0
LTYPE
  5
B6FF
330
5
100
AcDbSymbolTableRecord
100
AcDbLinetypeTableRecord
  2
ACANSTGB
 70
     0
  3
__ . . __ . .
 72
    65
 73
     6
 40
0.35433070866
 49
0.15748031496
 74
     0
 49
-0.03937007874
 74
     0
 49
0.03937007874
 74
     0
 49
-0.03937007874
 74
     0
 49
0.03937007874
 74
     0
 49
-0.03937007874
 74
     0
  0
LTYPE
  5
B700
330
5
100
AcDbSymbolTableRecord
100
AcDbLinetypeTableRecord
  2
ACANSTGL
 70
     0
  3
_ _ _ _ _
 72
    65
 73
     2
 40
0.11811023622
 49
0.07874015748
 74
     0
 49
-0.03937007874
 74
     0
  0
LTYPE
  5
C5FB
330
5
100
AcDbSymbolTableRecord
100
AcDbLinetypeTableRecord
  2
PHANTOM
 70
     0
  3
_____ _ _ _____ _ _ _____ _ _ _____ _ _ ____  
 72
    65
 73
     6
 40
15.5
 49
8.0
 74
     0
 49
-1.5
 74
     0
 49
1.5
 74
     0
 49
-1.5
 74
     0
 49
1.5
 74
     0
 49
-1.5
 74
     0
  0
ENDTAB
  0
TABLE
  2
LAYER
  5
2
102
{ACAD_XDICTIONARY
360
3F95
102
}
330
0
100
AcDbSymbolTable
 70
    21
  0
LAYER
  5
10
330
2
100
AcDbSymbolTableRecord
100
AcDbLayerTableRecord
  2
0
 70
     0
 62
     7
  6
Continuous
370
    -3
390
F
  0
LAYER
  5
6D1
330
2
100
AcDbSymbolTableRecord
100
AcDbLayerTableRecord
  2
Defpoints
 70
     0
 62
     7
  6
Continuous
290
     0
370
    -3
390
F
  0
LAYER
  5
5F85
330
2
100
AcDbSymbolTableRecord
100
AcDbLayerTableRecord
  2
AM_0
 70
     0
 62
     7
  6
中線
370
    30
390
F
1001
AcAecLayerStandard
1000

1000

  0
LAYER
  5
AC9F
330
2
100
AcDbSymbolTableRecord
100
AcDbLayerTableRecord
  2
size
 70
     0
 62
     5
  6
Continuous
290
     0
370
    25
390
F
  0
LAYER
  5
ACA0
330
2
100
AcDbSymbolTableRecord
100
AcDbLayerTableRecord
  2
waku
 70
     0
 62
     7
  6
Continuous
370
    35
390
F
  0
LAYER
  5
ACA1
330
2
100
AcDbSymbolTableRecord
100
AcDbLayerTableRecord
  2
AM_6
 70
     0
 62
     2
  6
文字
370
    13
390
F
1001
AcAecLayerStandard
1000

1000

  0
LAYER
  5
ACC8
330
2
100
AcDbSymbolTableRecord
100
AcDbLayerTableRecord
  2
hyomoji
 70
     0
 62
     2
  6
Continuous
370
    13
390
F
  0
LAYER
  5
ACC9
330
2
100
AcDbSymbolTableRecord
100
AcDbLayerTableRecord
  2
hyosen1
 70
     0
 62
     1
  6
Continuous
370
    25
390
F
  0
LAYER
  5
ACCA
330
2
100
AcDbSymbolTableRecord
100
AcDbLayerTableRecord
  2
hyosen2
 70
     0
 62
     1
  6
Continuous
370
    13
390
F
  0
LAYER
  5
AD60
330
2
100
AcDbSymbolTableRecord
100
AcDbLayerTableRecord
  2
AM_1
 70
     0
 62
    30
  6
太線
370
    40
390
F
1001
AcAecLayerStandard
1000

1000

  0
LAYER
  5
AD64
330
2
100
AcDbSymbolTableRecord
100
AcDbLayerTableRecord
  2
AM_2
 70
     0
 62
     1
  6
細線
370
    13
390
F
1001
AcAecLayerStandard
1000

1000

  0
LAYER
  5
AD67
330
2
100
AcDbSymbolTableRecord
100
AcDbLayerTableRecord
  2
AM_3
 70
     0
 62
     6
  6
陰線1
370
    13
390
F
1001
AcAecLayerStandard
1000

1000

  0
LAYER
  5
AD68
330
2
100
AcDbSymbolTableRecord
100
AcDbLayerTableRecord
  2
AM_5
 70
     0
 62
     3
  6
寸法線
370
    13
390
F
1001
AcAecLayerStandard
1000

1000

  0
LAYER
  5
AD69
330
2
100
AcDbSymbolTableRecord
100
AcDbLayerTableRecord
  2
AM_7
 70
     0
 62
     4
  6
中心線1
370
    13
390
F
1001
AcAecLayerStandard
1000

1000

  0
LAYER
  5
AD6A
330
2
100
AcDbSymbolTableRecord
100
AcDbLayerTableRecord
  2
AM_8
 70
     0
 62
     1
  6
ハッチング
370
    13
390
F
1001
AcAecLayerStandard
1000

1000

  0
LAYER
  5
AD6E
330
2
100
AcDbSymbolTableRecord
100
AcDbLayerTableRecord
  2
AM_10
 70
     0
 62
     7
  6
切断線
370
    13
390
F
1001
AcAecLayerStandard
1000

1000

  0
LAYER
  5
AD6F
330
2
100
AcDbSymbolTableRecord
100
AcDbLayerTableRecord
  2
AM_11
 70
     0
 62
     2
  6
想像線1
370
    13
390
F
1001
AcAecLayerStandard
1000

1000

  0
LAYER
  5
B1B6
330
2
100
AcDbSymbolTableRecord
100
AcDbLayerTableRecord
  2
AM_CL
 70
     0
 62
     1
  6
Amconstr
370
    15
390
F
1001
AcAecLayerStandard
1000

1000

  0
LAYER
  5
B2EB
330
2
100
AcDbSymbolTableRecord
100
AcDbLayerTableRecord
  2
AM_14
 70
     0
 62
     5
  6
細線
370
     9
390
F
1001
AcAecLayerStandard
1000

1000

  0
LAYER
  5
B2EC
330
2
100
AcDbSymbolTableRecord
100
AcDbLayerTableRecord
  2
AM_15
 70
     0
 62
     6
  6
陰線1
370
     9
390
F
1001
AcAecLayerStandard
1000

1000

  0
LAYER
  5
BAA3
330
2
100
AcDbSymbolTableRecord
100
AcDbLayerTableRecord
  2
0文字
 70
     0
 62
     2
  6
Continuous
370
    13
390
F
1001
AcAecLayerStandard
1000

1000

  0
ENDTAB
  0
TABLE
  2
STYLE
  5
3
330
0
100
AcDbSymbolTable
 70
     8
  0
STYLE
  5
11
330
3
100
AcDbSymbolTableRecord
100
AcDbTextStyleTableRecord
  2
STANDARD
 70
     0
 40
0.0
 41
0.7
 50
0.0
 71
     0
 42
3.2
  3
romans.shx
  4
extfont.shx
  0
STYLE
  5
56
330
3
100
AcDbSymbolTableRecord
100
AcDbTextStyleTableRecord
  2

 70
     1
 40
0.0
 41
1.0
 50
0.0
 71
     0
 42
2.5
  3
ltypeshp.shx
  4

  0
STYLE
  5
58
330
3
100
AcDbSymbolTableRecord
100
AcDbTextStyleTableRecord
  2
ACISOTS
 70
     0
 40
1.0
 41
1.0
 50
0.0
 71
     0
 42
2.5
  3
isocp.shx
  4
extfont.shx
  0
STYLE
  5
63
330
3
100
AcDbSymbolTableRecord
100
AcDbTextStyleTableRecord
  2
ACISOGDT
 70
     0
 40
0.0
 41
1.0
 50
0.0
 71
     0
 42
2.5
  3
amgdt.shx
  4

  0
STYLE
  5
A74
330
3
100
AcDbSymbolTableRecord
100
AcDbTextStyleTableRecord
  2
DIM
 70
     0
 40
0.0
 41
1.0
 50
0.0
 71
     0
 42
2.5
  3
monotxt.shx
  4
extfont.shx
  0
STYLE
  5
AC80
330
3
100
AcDbSymbolTableRecord
100
AcDbTextStyleTableRecord
  2

 70
     1
 40
0.0
 41
1.0
 50
0.0
 71
     0
 42
3.2
  3
genltshp.shx
  4

  0
STYLE
  5
B701
330
3
100
AcDbSymbolTableRecord
100
AcDbTextStyleTableRecord
  2
ACANSTS
 70
     0
 40
1.0
 41
1.0
 50
0.0
 71
     0
 42
3.2
  3
romans.shx
  4
extfont.shx
  0
STYLE
  5
B702
330
3
100
AcDbSymbolTableRecord
100
AcDbTextStyleTableRecord
  2
ACANSGDT
 70
     0
 40
0.0
 41
1.0
 50
0.0
 71
     0
 42
3.2
  3
amgdt.shx
  4

  0
ENDTAB
  0
TABLE
  2
VIEW
  5
6
330
0
100
AcDbSymbolTable
 70
     6
  0
VIEW
  5
AE1
330
6
100
AcDbSymbolTableRecord
100
AcDbViewTableRecord
  2
AM_VIEW1
 70
     0
 40
231.5216306156406
 10
148.5
 20
304.2391846921796
 41
297.0
 11
0.0
 21
0.0
 31
1.0
 12
0.0
 22
0.0
 32
0.0
 42
50.0
 43
-1370.695619172058
 44
-1370.695619172058
 50
0.0
 71
    16
281
     0
 72
     0
  0
VIEW
  5
AE2
330
6
100
AcDbSymbolTableRecord
100
AcDbViewTableRecord
  2
AM_VIEW2
 70
     0
 40
231.5216306156406
 10
445.5
 20
304.2391846921796
 41
297.0
 11
0.0
 21
0.0
 31
1.0
 12
0.0
 22
0.0
 32
0.0
 42
50.0
 43
-1370.695619172058
 44
-1370.695619172058
 50
0.0
 71
    16
281
     0
 72
     0
  0
VIEW
  5
AE3
330
6
100
AcDbSymbolTableRecord
100
AcDbViewTableRecord
  2
AM_VIEW3
 70
     0
 40
231.5216306156406
 10
148.5
 20
115.7608153078203
 41
297.0
 11
0.0
 21
0.0
 31
1.0
 12
0.0
 22
0.0
 32
0.0
 42
50.0
 43
-1370.695619172058
 44
-1370.695619172058
 50
0.0
 71
    16
281
     0
 72
     0
  0
VIEW
  5
AE4
330
6
100
AcDbSymbolTableRecord
100
AcDbViewTableRecord
  2
AM_VIEW4
 70
     0
 40
231.5216306156406
 10
445.5
 20
115.7608153078203
 41
297.0
 11
0.0
 21
0.0
 31
1.0
 12
0.0
 22
0.0
 32
0.0
 42
50.0
 43
-1370.695619172058
 44
-1370.695619172058
 50
0.0
 71
    16
281
     0
 72
     0
  0
VIEW
  5
AE5
330
6
100
AcDbSymbolTableRecord
100
AcDbViewTableRecord
  2
AM_VIEW5
 70
     0
 40
231.5216306156405
 10
297.0
 20
210.0
 41
297.0
 11
0.0
 21
0.0
 31
1.0
 12
0.0
 22
0.0
 32
0.0
 42
50.0
 43
-1370.695619172058
 44
-1370.695619172058
 50
0.0
 71
    16
281
     0
 72
     0
  0
VIEW
  5
AE6
330
6
100
AcDbSymbolTableRecord
100
AcDbViewTableRecord
  2
AM_VIEW6
 70
     0
 40
463.0386307986689
 10
297.0
 20
210.0
 41
593.9940599999999
 11
0.0
 21
0.0
 31
1.0
 12
0.0
 22
0.0
 32
0.0
 42
50.0
 43
-1370.695619172058
 44
-1370.695619172058
 50
0.0
 71
    16
281
     0
 72
     0
  0
ENDTAB
  0
TABLE
  2
UCS
  5
7
330
0
100
AcDbSymbolTable
 70
     0
  0
ENDTAB
  0
TABLE
  2
APPID
  5
9
330
0
100
AcDbSymbolTable
 70
    60
  0
APPID
  5
12
330
9
100
AcDbSymbolTableRecord
100
AcDbRegAppTableRecord
  2
ACAD
 70
     0
  0
APPID
  5
30
330
9
100
AcDbSymbolTableRecord
100
AcDbRegAppTableRecord
  2
MCAD_NO_VIS
 70
     0
  0
APPID
  5
31
330
9
100
AcDbSymbolTableRecord
100
AcDbRegAppTableRecord
  2
ACAD_TEMP_GRAPHIC
 70
     0
  0
APPID
  5
44
330
9
100
AcDbSymbolTableRecord
100
AcDbRegAppTableRecord
  2
ACATTRIBSERVICES
 70
     0
  0
APPID
  5
7A1
330
9
100
AcDbSymbolTableRecord
100
AcDbRegAppTableRecord
  2
GENIUS_GENDIMSH_14
 70
     0
  0
APPID
  5
A49
330
9
100
AcDbSymbolTableRecord
100
AcDbRegAppTableRecord
  2
GENIUS_GENREC_14
 70
     0
  0
APPID
  5
A4A
330
9
100
AcDbSymbolTableRecord
100
AcDbRegAppTableRecord
  2
GENIUS_GENOBJ-N-REC_13
 70
     0
  0
APPID
  5
A4B
330
9
100
AcDbSymbolTableRecord
100
AcDbRegAppTableRecord
  2
GENIUS_GENODEF_13
 70
     0
  0
APPID
  5
A4C
330
9
100
AcDbSymbolTableRecord
100
AcDbRegAppTableRecord
  2
DCO15
 70
     0
  0
APPID
  5
ADC
330
9
100
AcDbSymbolTableRecord
100
AcDbRegAppTableRecord
  2
GENIUS_GENOLIS_13
 70
     0
  0
APPID
  5
ADD
330
9
100
AcDbSymbolTableRecord
100
AcDbRegAppTableRecord
  2
GENIUS_GENOENT_13
 70
     0
  0
APPID
  5
ADE
330
9
100
AcDbSymbolTableRecord
100
AcDbRegAppTableRecord
  2
GENIUS_GENOBJ-N-TIT_13
 70
     0
  0
APPID
  5
ADF
330
9
100
AcDbSymbolTableRecord
100
AcDbRegAppTableRecord
  2
GENIUS_GENTITLE_13
 70
     0
  0
APPID
  5
AE0
330
9
100
AcDbSymbolTableRecord
100
AcDbRegAppTableRecord
  2
GENIUS_GENOREF_13
 70
     0
  0
APPID
  5
AE7
330
9
100
AcDbSymbolTableRecord
100
AcDbRegAppTableRecord
  2
GENIUS_GENSCREG_15
 70
     0
  0
APPID
  5
AE8
330
9
100
AcDbSymbolTableRecord
100
AcDbRegAppTableRecord
  2
GENIUS_GENOBJ-N-SDF_13
 70
     0
  0
APPID
  5
FAF
330
9
100
AcDbSymbolTableRecord
100
AcDbRegAppTableRecord
  2
GENIUS_GENBLLY_14
 70
     0
  0
APPID
  5
FB0
330
9
100
AcDbSymbolTableRecord
100
AcDbRegAppTableRecord
  2
GENIUS_GENTRA_14
 70
     0
  0
APPID
  5
1285
330
9
100
AcDbSymbolTableRecord
100
AcDbRegAppTableRecord
  2
GENIUS_GENDTOL_13
 70
     0
  0
APPID
  5
142D
330
9
100
AcDbSymbolTableRecord
100
AcDbRegAppTableRecord
  2
GENIUS_GENOBJ-N-CEN_13
 70
     0
  0
APPID
  5
1AB5
330
9
100
AcDbSymbolTableRecord
100
AcDbRegAppTableRecord
  2
GENIUS_GENOBJ-N-CRS_13
 70
     0
  0
APPID
  5
1B36
330
9
100
AcDbSymbolTableRecord
100
AcDbRegAppTableRecord
  2
GENIUS_GENOBJ-N-HTC_13
 70
     0
  0
APPID
  5
1B37
330
9
100
AcDbSymbolTableRecord
100
AcDbRegAppTableRecord
  2
GENIUS_GENHATCH_13
 70
     0
  0
APPID
  5
216D
330
9
100
AcDbSymbolTableRecord
100
AcDbRegAppTableRecord
  2
GENIUS_GENOBJ-N-FIL_13
 70
     0
  0
APPID
  5
2356
330
9
100
AcDbSymbolTableRecord
100
AcDbRegAppTableRecord
  2
GEVID990412420
 70
     0
  0
APPID
  5
2357
330
9
100
AcDbSymbolTableRecord
100
AcDbRegAppTableRecord
  2
GEVDC
 70
     0
  0
APPID
  5
2358
330
9
100
AcDbSymbolTableRecord
100
AcDbRegAppTableRecord
  2
GEVCON
 70
     0
  0
APPID
  5
235B
330
9
100
AcDbSymbolTableRecord
100
AcDbRegAppTableRecord
  2
GEVRADREF
 70
     0
  0
APPID
  5
2360
330
9
100
AcDbSymbolTableRecord
100
AcDbRegAppTableRecord
  2
GENIUS_GENBH_13
 70
     0
  0
APPID
  5
2362
330
9
100
AcDbSymbolTableRecord
100
AcDbRegAppTableRecord
  2
GENIUS_GENOBJ-NBEHI-BHF_13
 70
     0
  0
APPID
  5
2364
330
9
100
AcDbSymbolTableRecord
100
AcDbRegAppTableRecord
  2
GENIUS_GENOBJ-NBEHI-BHB_13
 70
     0
  0
APPID
  5
2379
330
9
100
AcDbSymbolTableRecord
100
AcDbRegAppTableRecord
  2
GENIUS_GENOBJ-F-SCPASSM_13
 70
     0
  0
APPID
  5
3D74
330
9
100
AcDbSymbolTableRecord
100
AcDbRegAppTableRecord
  2
GENIUS_GENDIM_13
 70
     0
  0
APPID
  5
3D76
330
9
100
AcDbSymbolTableRecord
100
AcDbRegAppTableRecord
  2
GENIUS_GE3DTOL_13
 70
     0
  0
APPID
  5
3D9C
330
9
100
AcDbSymbolTableRecord
100
AcDbRegAppTableRecord
  2
AD_DRAW
 70
     0
  0
APPID
  5
3DE8
330
9
100
AcDbSymbolTableRecord
100
AcDbRegAppTableRecord
  2
ASURF_PCURVE_APPNAME
 70
     0
  0
APPID
  5
3DED
330
9
100
AcDbSymbolTableRecord
100
AcDbRegAppTableRecord
  2
AMG_3D2D_5.0
 70
     0
  0
APPID
  5
3E1B
330
9
100
AcDbSymbolTableRecord
100
AcDbRegAppTableRecord
  2
DESIGNERASSEMBLIES
 70
     0
  0
APPID
  5
3E20
330
9
100
AcDbSymbolTableRecord
100
AcDbRegAppTableRecord
  2
ACADM_DIM_EDIT
 70
     0
  0
APPID
  5
3E21
330
9
100
AcDbSymbolTableRecord
100
AcDbRegAppTableRecord
  2
AMDT_DM_ADJ
 70
     0
  0
APPID
  5
4143
330
9
100
AcDbSymbolTableRecord
100
AcDbRegAppTableRecord
  2
GENIUS_GENFIL_13
 70
     0
  0
APPID
  5
4144
330
9
100
AcDbSymbolTableRecord
100
AcDbRegAppTableRecord
  2
GENIUS_GENOBJ-N-CHA_13
 70
     0
  0
APPID
  5
4E17
330
9
100
AcDbSymbolTableRecord
100
AcDbRegAppTableRecord
  2
GEVID1008153417
 70
     0
  0
APPID
  5
4E58
330
9
100
AcDbSymbolTableRecord
100
AcDbRegAppTableRecord
  2
GEVID1008153418
 70
     0
  0
APPID
  5
4E5E
330
9
100
AcDbSymbolTableRecord
100
AcDbRegAppTableRecord
  2
GEVID1008153419
 70
     0
  0
APPID
  5
4E64
330
9
100
AcDbSymbolTableRecord
100
AcDbRegAppTableRecord
  2
GEVID1008153420
 70
     0
  0
APPID
  5
4E75
330
9
100
AcDbSymbolTableRecord
100
AcDbRegAppTableRecord
  2
GEVID1008153421
 70
     0
  0
APPID
  5
4EB7
330
9
100
AcDbSymbolTableRecord
100
AcDbRegAppTableRecord
  2
GENIUS_AMGTXT_16
 70
     0
  0
APPID
  5
7645
330
9
100
AcDbSymbolTableRecord
100
AcDbRegAppTableRecord
  2
GENIUS_GENOBJ-N-DIM_13
 70
     0
  0
APPID
  5
AAD0
330
9
100
AcDbSymbolTableRecord
100
AcDbRegAppTableRecord
  2
ACAD_DSTYLE_DIMARC_LENGTH_SYMBOL
 70
     0
  0
APPID
  5
AAD1
330
9
100
AcDbSymbolTableRecord
100
AcDbRegAppTableRecord
  2
ACAD_DSTYLE_DIMJOGGED_JOGANGLE_SYMBOL
 70
     0
  0
APPID
  5
AAFD
330
9
100
AcDbSymbolTableRecord
100
AcDbRegAppTableRecord
  2
ACAD_PSEXT
 70
     0
  0
APPID
  5
AD61
330
9
100
AcDbSymbolTableRecord
100
AcDbRegAppTableRecord
  2
AcAecLayerStandard
 70
     0
  0
APPID
  5
AEE3
330
9
100
AcDbSymbolTableRecord
100
AcDbRegAppTableRecord
  2
ACAD_EXEMPT_FROM_CAD_STANDARDS
 70
     0
  0
APPID
  5
B1BE
330
9
100
AcDbSymbolTableRecord
100
AcDbRegAppTableRecord
  2
GENIUS_GENCEN_19
 70
     0
  0
APPID
  5
B505
330
9
100
AcDbSymbolTableRecord
100
AcDbRegAppTableRecord
  2
ACAD_MLEADERVER
 70
     0
  0
APPID
  5
B530
330
9
100
AcDbSymbolTableRecord
100
AcDbRegAppTableRecord
  2
ACAUTHENVIRON
 70
     0
  0
APPID
  5
B531
330
9
100
AcDbSymbolTableRecord
100
AcDbRegAppTableRecord
  2
AcDbDynamicBlockTrueName
 70
     0
  0
APPID
  5
B532
330
9
100
AcDbSymbolTableRecord
100
AcDbRegAppTableRecord
  2
AcDbDynamicBlockGUID
 70
     0
  0
APPID
  5
B533
330
9
100
AcDbSymbolTableRecord
100
AcDbRegAppTableRecord
  2
ACDBBLOCKREPETAG
 70
     0
  0
ENDTAB
  0
TABLE
  2
DIMSTYLE
  5
A
330
0
100
AcDbSymbolTable
 70
    24
100
AcDbDimStyleTable
 71
     2
340
2515
340
B703
  0
DIMSTYLE
105
A76
330
A
100
AcDbSymbolTableRecord
100
AcDbDimStyleTableRecord
  2
STANDARD
 70
     0
 41
3.0
 42
1.0
 43
7.0
 44
2.0
 73
     0
 74
     0
 77
     1
140
2.799999999999998
141
0.0
143
0.0394
147
0.7
171
     4
172
     1
173
     1
176
     3
177
     3
178
     2
271
     3
272
     3
273
     8
274
     4
289
     0
340
A74
341
A66
343
A66
344
A66
  0
DIMSTYLE
105
2515
330
A
100
AcDbSymbolTableRecord
100
AcDbDimStyleTableRecord
  2
SYS
 70
     0
  4
"
 41
1.0
 42
1.0
 43
10.0
 44
1.0
 47
0.1
 48
0.1
 73
     0
 74
     0
 77
     1
 78
     8
 79
     2
140
3.5
141
0.0
143
0.0393701
146
0.71
147
1.5
172
     1
176
   256
177
   256
178
     7
271
     2
272
     2
283
     0
284
     8
340
11
371
    -1
372
    -1
1001
ACAD_DSTYLE_DIMJOGGED_JOGANGLE_SYMBOL
1070
   384
1040
0.7853981633974483
1001
ACAD_DSTYLE_DIMARC_LENGTH_SYMBOL
1070
   379
1070
     1
  0
DIMSTYLE
105
2516
330
A
100
AcDbSymbolTableRecord
100
AcDbDimStyleTableRecord
  2
SYS$3
 70
     0
  4
"
 41
2.0
 42
1.0
 43
10.0
 44
1.0
 47
0.1
 48
0.1
 73
     0
 77
     1
 78
     8
 79
     2
140
3.5
141
0.0
143
0.0393701
146
0.71
147
1.5
176
   256
177
   256
178
     2
271
     2
272
     2
283
     0
284
     8
288
     1
340
11
342
A66
371
    -1
372
    -1
1001
ACAD_DSTYLE_DIMJOGGED_JOGANGLE_SYMBOL
1070
   384
1040
0.7853981633974483
1001
ACAD_DSTYLE_DIMARC_LENGTH_SYMBOL
1070
   379
1070
     1
  0
DIMSTYLE
105
2517
330
A
100
AcDbSymbolTableRecord
100
AcDbDimStyleTableRecord
  2
SYS$4
 70
     0
  4
"
 41
2.0
 42
1.0
 43
10.0
 44
1.0
 47
0.1
 48
0.1
 73
     0
 77
     1
 78
     8
 79
     2
140
3.5
141
0.0
143
0.0393701
146
0.71
147
1.5
173
     1
176
   256
177
   256
178
     2
271
     2
272
     2
283
     0
284
     8
288
     1
340
11
344
A66
371
    -1
372
    -1
1001
ACAD_DSTYLE_DIMJOGGED_JOGANGLE_SYMBOL
1070
   384
1040
0.7853981633974483
1001
ACAD_DSTYLE_DIMARC_LENGTH_SYMBOL
1070
   379
1070
     1
  0
DIMSTYLE
105
2518
330
A
100
AcDbSymbolTableRecord
100
AcDbDimStyleTableRecord
  2
SYS$6
 70
     0
  4
"
 41
2.0
 42
1.0
 43
10.0
 44
1.0
 47
0.1
 48
0.1
 73
     0
 74
     0
 78
     8
 79
     2
140
3.5
141
0.0
143
0.0393701
146
0.71
147
1.5
172
     1
176
   256
177
   256
178
     2
271
     2
272
     2
283
     0
284
     8
340
11
341
A66
371
    -1
372
    -1
1001
ACAD_DSTYLE_DIMJOGGED_JOGANGLE_SYMBOL
1070
   384
1040
0.7853981633974483
1001
ACAD_DSTYLE_DIMARC_LENGTH_SYMBOL
1070
   379
1070
     1
  0
DIMSTYLE
105
2519
330
A
100
AcDbSymbolTableRecord
100
AcDbDimStyleTableRecord
  2
SYS$7
 70
     0
  4
"
 41
2.0
 42
1.0
 43
10.0
 44
1.0
 47
0.1
 48
0.1
 73
     0
 74
     0
 77
     1
 78
     8
 79
     2
140
5.0
141
0.0
143
0.0393701
146
0.71
147
1.5
172
     1
176
   256
177
   256
178
     2
271
     2
272
     2
283
     0
284
     8
340
11
341
A66
342
A66
371
    -1
372
    -1
1001
ACAD_DSTYLE_DIMJOGGED_JOGANGLE_SYMBOL
1070
   384
1040
0.7853981633974483
1001
ACAD_DSTYLE_DIMARC_LENGTH_SYMBOL
1070
   379
1070
     1
  0
DIMSTYLE
105
251A
330
A
100
AcDbSymbolTableRecord
100
AcDbDimStyleTableRecord
  2
SYS$SF
 70
     0
  4
"
 41
2.5
 42
1.0
 43
10.0
 44
1.0
 47
0.1
 48
0.1
 73
     0
 74
     0
 75
     1
 76
     1
 77
     1
 78
     8
 79
     2
140
3.5
141
0.0
143
0.0393701
146
0.71
147
1.5
172
     1
176
   256
177
   256
178
     2
271
     2
272
     3
283
     0
284
     8
340
11
341
6C4
342
6C4
371
    -1
372
    -1
1001
ACAD_DSTYLE_DIMJOGGED_JOGANGLE_SYMBOL
1070
   384
1040
0.7853981633974483
1001
ACAD_DSTYLE_DIMARC_LENGTH_SYMBOL
1070
   379
1070
     1
  0
DIMSTYLE
105
251B
330
A
100
AcDbSymbolTableRecord
100
AcDbDimStyleTableRecord
  2
SYS$SH
 70
     0
  4
"
 41
2.5
 42
1.0
 43
10.0
 44
1.0
 47
0.1
 48
0.1
 73
     0
 74
     0
 75
     1
 76
     1
 77
     1
 78
     8
 79
     2
140
3.5
141
0.0
143
0.0393701
144
2.0
146
0.71
147
1.5
172
     1
173
     1
176
   256
177
   256
178
     2
271
     2
272
     3
283
     0
284
     8
340
11
341
6C4
343
72
344
6C4
371
    -1
372
    -1
1001
ACAD_DSTYLE_DIMJOGGED_JOGANGLE_SYMBOL
1070
   384
1040
0.7853981633974483
1001
ACAD_DSTYLE_DIMARC_LENGTH_SYMBOL
1070
   379
1070
     1
  0
DIMSTYLE
105
2A59
330
A
100
AcDbSymbolTableRecord
100
AcDbDimStyleTableRecord
  2
SYS$2
 70
     0
  4
"
 41
1.0
 42
1.0
 43
10.0
 44
1.0
 47
0.1
 48
0.1
 73
     0
 74
     0
 77
     1
 78
     8
 79
     2
140
3.5
141
0.0
143
0.0393701
146
0.71
147
1.5
172
     1
176
   256
177
   256
178
     2
271
     2
272
     2
283
     0
284
     8
340
11
342
6C4
371
    -1
372
    -1
1001
ACAD_DSTYLE_DIMJOGGED_JOGANGLE_SYMBOL
1070
   384
1040
0.7853981633974483
1001
ACAD_DSTYLE_DIMARC_LENGTH_SYMBOL
1070
   379
1070
     1
  0
DIMSTYLE
105
2AAB
102
{ACAD_REACTORS
330
D3D2
330
D448
330
D45E
330
D478
330
D4D1
330
D5C6
330
D5E5
330
D5FB
330
D611
330
D627
330
D67E
330
D69E
330
D6B4
330
D6F8
330
D70E
330
D778
330
D792
330
D7AC
330
D7C2
330
D7EA
330
D804
330
D81A
330
D851
330
D8C6
330
D8F2
330
DFF3
330
E01A
330
EDF1
330
EE62
330
EEA4
330
EF12
330
EF54
330
EF6A
330
EFA4
330
EFCD
330
F045
330
F06E
330
F095
330
F0D8
102
}
330
A
100
AcDbSymbolTableRecord
100
AcDbDimStyleTableRecord
  2
SYS$0
 70
     0
  4
"
 41
1.0
 42
1.0
 43
10.0
 44
1.0
 47
0.1
 48
0.1
 73
     0
 74
     0
 77
     1
 78
     8
 79
     2
140
3.200000000000001
141
0.0
143
0.0393701
146
0.71
147
1.5
172
     1
176
   256
177
   256
178
     2
271
     2
272
     2
283
     0
284
     8
340
11
341
A66
342
6C4
371
    -1
372
    -1
1001
ACAD_DSTYLE_DIMJOGGED_JOGANGLE_SYMBOL
1070
   384
1040
0.7853981633974483
1001
ACAD_DSTYLE_DIMARC_LENGTH_SYMBOL
1070
   379
1070
     1
  0
DIMSTYLE
105
AF99
330
A
100
AcDbSymbolTableRecord
100
AcDbDimStyleTableRecord
  2
AM_ISO
 70
     0
  4
"
 41
2.5
 42
1.0
 43
10.0
 44
1.0
 47
0.1
 48
0.1
 73
     0
 74
     0
 77
     1
 78
     8
 79
     2
140
3.5
141
0.0
143
0.0393701
146
0.71
147
1.5
172
     1
176
   256
177
   256
178
     2
271
     2
272
     3
274
     4
283
     0
284
     8
340
11
371
    -1
372
    -1
  0
DIMSTYLE
105
AF9A
330
A
100
AcDbSymbolTableRecord
100
AcDbDimStyleTableRecord
  2
AM_ISO$3
 70
     0
  4
"
 41
2.5
 42
1.0
 43
10.0
 44
1.0
 47
0.1
 48
0.1
 73
     0
 77
     1
 78
     8
 79
     2
140
3.5
141
0.0
143
0.0393701
146
0.71
147
1.5
176
   256
177
   256
178
     2
271
     2
272
     3
274
     4
283
     0
284
     8
288
     1
289
     0
340
11
371
    -1
372
    -1
  0
DIMSTYLE
105
AF9B
330
A
100
AcDbSymbolTableRecord
100
AcDbDimStyleTableRecord
  2
AM_ISO$4
 70
     0
  4
"
 41
2.5
 42
1.0
 43
10.0
 44
1.0
 47
0.1
 48
0.1
 73
     0
 77
     1
 78
     8
 79
     2
140
3.5
141
0.0
143
0.0393701
146
0.71
147
1.5
176
   256
177
   256
178
     2
271
     2
272
     3
274
     4
283
     0
284
     8
288
     1
289
     0
340
11
371
    -1
372
    -1
  0
DIMSTYLE
105
AF9C
330
A
100
AcDbSymbolTableRecord
100
AcDbDimStyleTableRecord
  2
AM_ISO$6
 70
     0
  4
"
 41
2.5
 42
1.0
 43
10.0
 44
1.0
 47
0.1
 48
0.1
 73
     0
 74
     0
 78
     8
 79
     2
140
3.5
141
0.0
143
0.0393701
146
0.71
147
1.5
172
     1
176
   256
177
   256
178
     2
271
     2
272
     3
274
     4
283
     0
284
     8
340
11
371
    -1
372
    -1
  0
DIMSTYLE
105
AF9D
330
A
100
AcDbSymbolTableRecord
100
AcDbDimStyleTableRecord
  2
AM_ISO$7
 70
     0
  4
"
 41
2.5
 42
1.0
 43
10.0
 44
1.0
 47
0.1
 48
0.1
 73
     0
 74
     0
 77
     1
 78
     8
 79
     2
140
5.0
141
0.0
143
0.0393701
146
0.71
147
1.5
172
     1
176
   256
177
   256
178
     2
271
     2
272
     3
274
     4
283
     0
284
     8
340
11
371
    -1
372
    -1
  0
DIMSTYLE
105
AF9E
330
A
100
AcDbSymbolTableRecord
100
AcDbDimStyleTableRecord
  2
AM_ISO$SF
 70
     0
  4
"
 41
2.5
 42
1.0
 43
10.0
 44
1.0
 47
0.1
 48
0.1
 73
     0
 74
     0
 75
     1
 76
     1
 77
     1
 78
     8
 79
     2
140
3.5
141
0.0
143
0.0393701
146
0.71
147
1.5
172
     1
176
   256
177
   256
178
     2
271
     2
272
     3
274
     4
283
     0
284
     8
340
11
371
    -1
372
    -1
  0
DIMSTYLE
105
AF9F
330
A
100
AcDbSymbolTableRecord
100
AcDbDimStyleTableRecord
  2
AM_ISO$SH
 70
     0
  4
"
 41
2.5
 42
1.0
 43
10.0
 44
1.0
 47
0.1
 48
0.1
 73
     0
 74
     0
 75
     1
 76
     1
 77
     1
 78
     8
 79
     2
140
3.5
141
0.0
143
0.0393701
144
2.0
146
0.71
147
1.5
172
     1
173
     1
176
   256
177
   256
178
     2
271
     2
272
     3
274
     4
283
     0
284
     8
340
11
343
72
371
    -1
372
    -1
  0
DIMSTYLE
105
B703
330
A
100
AcDbSymbolTableRecord
100
AcDbDimStyleTableRecord
  2
DIMSTYLE
 70
     0
 41
1.0
 42
2.54
 44
2.54
 73
     0
 74
     0
140
3.2
147
1.6
173
     1
279
     2
340
11
  0
DIMSTYLE
105
B704
330
A
100
AcDbSymbolTableRecord
100
AcDbDimStyleTableRecord
  2
AM_ANSI
 70
     0
  4
mm
 41
0.1
 42
0.05
 43
0.5
 44
0.1
 47
0.1
 48
0.1
 78
     7
 79
     2
140
0.12
141
0.0
146
0.71
147
0.06
176
   256
177
   256
178
     2
274
     4
284
     7
340
11
371
    -1
372
    -1
1001
ACAD_DSTYLE_DIMARC_LENGTH_SYMBOL
1070
   379
1070
     1
  0
DIMSTYLE
105
B705
330
A
100
AcDbSymbolTableRecord
100
AcDbDimStyleTableRecord
  2
AM_ANSI$3
 70
     0
  4
mm
 41
0.1
 42
0.05
 43
0.5
 44
0.1
 47
0.1
 48
0.1
 78
     7
 79
     2
140
0.12
141
0.0
146
0.71
147
0.06
176
   256
177
   256
178
     2
274
     4
284
     7
288
     1
289
     0
340
11
371
    -1
372
    -1
1001
ACAD_DSTYLE_DIMARC_LENGTH_SYMBOL
1070
   379
1070
     1
  0
DIMSTYLE
105
B706
330
A
100
AcDbSymbolTableRecord
100
AcDbDimStyleTableRecord
  2
AM_ANSI$4
 70
     0
  4
mm
 41
0.1
 42
0.05
 43
0.5
 44
0.1
 47
0.1
 48
0.1
 78
     7
 79
     2
140
0.12
141
0.0
146
0.71
147
0.06
176
   256
177
   256
178
     2
274
     4
284
     7
288
     1
289
     0
340
11
371
    -1
372
    -1
1001
ACAD_DSTYLE_DIMARC_LENGTH_SYMBOL
1070
   379
1070
     1
  0
DIMSTYLE
105
B707
330
A
100
AcDbSymbolTableRecord
100
AcDbDimStyleTableRecord
  2
AM_ANSI$7
 70
     0
  4
mm
 41
0.1
 42
0.05
 43
0.5
 44
0.1
 47
0.1
 48
0.1
 78
     7
 79
     2
140
0.24
141
0.0
146
0.71
147
0.06
176
   256
177
   256
178
     2
274
     4
284
     7
340
11
371
    -1
372
    -1
1001
ACAD_DSTYLE_DIMARC_LENGTH_SYMBOL
1070
   379
1070
     1
  0
DIMSTYLE
105
B708
330
A
100
AcDbSymbolTableRecord
100
AcDbDimStyleTableRecord
  2
AM_ANSI$SF
 70
     0
  4
mm
 41
0.1
 42
0.05
 43
0.5
 44
0.1
 47
0.1
 48
0.1
 75
     1
 76
     1
 78
     7
 79
     2
140
0.12
141
0.0
146
0.71
147
0.06
176
   256
177
   256
178
     2
274
     4
284
     7
340
11
371
    -1
372
    -1
1001
ACAD_DSTYLE_DIMARC_LENGTH_SYMBOL
1070
   379
1070
     1
  0
DIMSTYLE
105
B709
330
A
100
AcDbSymbolTableRecord
100
AcDbDimStyleTableRecord
  2
AM_ANSI$SH
 70
     0
  4
mm
 41
0.1
 42
0.05
 43
0.5
 44
0.1
 47
0.1
 48
0.1
 75
     1
 76
     1
 78
     7
 79
     2
140
0.12
141
0.0
146
0.71
147
0.06
173
     1
176
   256
177
   256
178
     2
274
     4
284
     7
340
11
343
72
371
    -1
372
    -1
1001
ACAD_DSTYLE_DIMARC_LENGTH_SYMBOL
1070
   379
1070
     1
  0
ENDTAB
  0
TABLE
  2
BLOCK_RECORD
  5
1
330
0
100
AcDbSymbolTable
 70
    46
  0
BLOCK_RECORD
  5
1F
102
{ACAD_XDICTIONARY
360
8A
102
}
330
1
100
AcDbSymbolTableRecord
100
AcDbBlockTableRecord
  2
*Model_Space
340
22
  0
BLOCK_RECORD
  5
1B
330
1
100
AcDbSymbolTableRecord
100
AcDbBlockTableRecord
  2
*Paper_Space
340
1E
  0
BLOCK_RECORD
  5
23
330
1
100
AcDbSymbolTableRecord
100
AcDbBlockTableRecord
  2
*Paper_Space0
340
26
  0
BLOCK_RECORD
  5
72
330
1
100
AcDbSymbolTableRecord
100
AcDbBlockTableRecord
  2
GENAXEH
340
0
  0
BLOCK_RECORD
  5
6C4
330
1
100
AcDbSymbolTableRecord
100
AcDbBlockTableRecord
  2
_Dot
340
0
102
{BLKREFS
331
D60B
331
D60C
331
D708
331
D709
331
ECD9
331
ECDA
331
ECFC
331
ECFD
331
ED0F
331
ED10
331
ED48
331
ED49
331
ED5A
331
ED5B
331
ED6D
331
ED6E
331
EDAB
331
EDAC
331
EDBE
331
EDBF
331
EE25
331
EE26
331
EE7B
331
EE7C
331
EE9E
331
EE9F
331
EEBD
331
EEBE
331
EED0
331
EED1
331
EED9
331
EEDA
331
EEE2
331
EEE3
331
EEEB
331
EEEC
331
EEF3
331
F15F
331
F160
331
F168
331
F169
331
F171
331
F172
331
F17A
331
F17B
331
F185
331
F186
331
F18E
331
F18F
331
F197
331
F198
331
F1A0
331
F1A1
331
F1A9
331
F1AA
331
F1B4
331
F1B5
331
F1BD
331
F1BE
331
F1C6
331
F1C7
331
F1CF
331
F1D0
331
F1D8
331
F1D9
331
F1E1
331
F1E2
331
F1EA
331
F1EB
331
F1F3
331
F1F4
331
F1FC
331
F1FD
331
F205
331
F206
331
F20E
331
F20F
102
}
  0
BLOCK_RECORD
  5
A66
330
1
100
AcDbSymbolTableRecord
100
AcDbBlockTableRecord
  2
_OPEN30
340
0
  0
BLOCK_RECORD
  5
C3FD
330
1
100
AcDbSymbolTableRecord
100
AcDbBlockTableRecord
  2
_NONE
340
0
  0
BLOCK_RECORD
  5
D3D3
330
1
100
AcDbSymbolTableRecord
100
AcDbBlockTableRecord
  2
*D5
340
0
  0
BLOCK_RECORD
  5
D449
330
1
100
AcDbSymbolTableRecord
100
AcDbBlockTableRecord
  2
*D6
340
0
  0
BLOCK_RECORD
  5
D45F
330
1
100
AcDbSymbolTableRecord
100
AcDbBlockTableRecord
  2
*D7
340
0
  0
BLOCK_RECORD
  5
D479
330
1
100
AcDbSymbolTableRecord
100
AcDbBlockTableRecord
  2
*D8
340
0
  0
BLOCK_RECORD
  5
D4D2
330
1
100
AcDbSymbolTableRecord
100
AcDbBlockTableRecord
  2
*D9
340
0
  0
BLOCK_RECORD
  5
D5C7
330
1
100
AcDbSymbolTableRecord
100
AcDbBlockTableRecord
  2
*D10
340
0
  0
BLOCK_RECORD
  5
D5E6
330
1
100
AcDbSymbolTableRecord
100
AcDbBlockTableRecord
  2
*D11
340
0
  0
BLOCK_RECORD
  5
D5FC
330
1
100
AcDbSymbolTableRecord
100
AcDbBlockTableRecord
  2
*D12
340
0
  0
BLOCK_RECORD
  5
D612
330
1
100
AcDbSymbolTableRecord
100
AcDbBlockTableRecord
  2
*D13
340
0
  0
BLOCK_RECORD
  5
D628
330
1
100
AcDbSymbolTableRecord
100
AcDbBlockTableRecord
  2
*D14
340
0
  0
BLOCK_RECORD
  5
D67F
330
1
100
AcDbSymbolTableRecord
100
AcDbBlockTableRecord
  2
*D15
340
0
  0
BLOCK_RECORD
  5
D69F
330
1
100
AcDbSymbolTableRecord
100
AcDbBlockTableRecord
  2
*D16
340
0
  0
BLOCK_RECORD
  5
D6B5
330
1
100
AcDbSymbolTableRecord
100
AcDbBlockTableRecord
  2
*D17
340
0
  0
BLOCK_RECORD
  5
D6F9
330
1
100
AcDbSymbolTableRecord
100
AcDbBlockTableRecord
  2
*D18
340
0
  0
BLOCK_RECORD
  5
D70F
330
1
100
AcDbSymbolTableRecord
100
AcDbBlockTableRecord
  2
*D19
340
0
  0
BLOCK_RECORD
  5
D779
330
1
100
AcDbSymbolTableRecord
100
AcDbBlockTableRecord
  2
*D20
340
0
  0
BLOCK_RECORD
  5
D793
330
1
100
AcDbSymbolTableRecord
100
AcDbBlockTableRecord
  2
*D21
340
0
  0
BLOCK_RECORD
  5
D7AD
330
1
100
AcDbSymbolTableRecord
100
AcDbBlockTableRecord
  2
*D22
340
0
  0
BLOCK_RECORD
  5
D7C3
330
1
100
AcDbSymbolTableRecord
100
AcDbBlockTableRecord
  2
*D23
340
0
  0
BLOCK_RECORD
  5
D7EB
330
1
100
AcDbSymbolTableRecord
100
AcDbBlockTableRecord
  2
*D24
340
0
  0
BLOCK_RECORD
  5
D805
330
1
100
AcDbSymbolTableRecord
100
AcDbBlockTableRecord
  2
*D25
340
0
  0
BLOCK_RECORD
  5
D81B
330
1
100
AcDbSymbolTableRecord
100
AcDbBlockTableRecord
  2
*D26
340
0
  0
BLOCK_RECORD
  5
D852
330
1
100
AcDbSymbolTableRecord
100
AcDbBlockTableRecord
  2
*D27
340
0
  0
BLOCK_RECORD
  5
D8C7
330
1
100
AcDbSymbolTableRecord
100
AcDbBlockTableRecord
  2
*D28
340
0
  0
BLOCK_RECORD
  5
D8F3
330
1
100
AcDbSymbolTableRecord
100
AcDbBlockTableRecord
  2
*D29
340
0
  0
BLOCK_RECORD
  5
DFF4
330
1
100
AcDbSymbolTableRecord
100
AcDbBlockTableRecord
  2
*D30
340
0
  0
BLOCK_RECORD
  5
E01B
330
1
100
AcDbSymbolTableRecord
100
AcDbBlockTableRecord
  2
*D31
340
0
  0
BLOCK_RECORD
  5
EDF2
330
1
100
AcDbSymbolTableRecord
100
AcDbBlockTableRecord
  2
*D32
340
0
  0
BLOCK_RECORD
  5
EE63
330
1
100
AcDbSymbolTableRecord
100
AcDbBlockTableRecord
  2
*D33
340
0
  0
BLOCK_RECORD
  5
EEA5
330
1
100
AcDbSymbolTableRecord
100
AcDbBlockTableRecord
  2
*D34
340
0
  0
BLOCK_RECORD
  5
EF13
330
1
100
AcDbSymbolTableRecord
100
AcDbBlockTableRecord
  2
*D35
340
0
  0
BLOCK_RECORD
  5
EF55
330
1
100
AcDbSymbolTableRecord
100
AcDbBlockTableRecord
  2
*D36
340
0
  0
BLOCK_RECORD
  5
EF6B
330
1
100
AcDbSymbolTableRecord
100
AcDbBlockTableRecord
  2
*D37
340
0
  0
BLOCK_RECORD
  5
EFA5
330
1
100
AcDbSymbolTableRecord
100
AcDbBlockTableRecord
  2
*D38
340
0
  0
BLOCK_RECORD
  5
EFCE
330
1
100
AcDbSymbolTableRecord
100
AcDbBlockTableRecord
  2
*D39
340
0
  0
BLOCK_RECORD
  5
F046
330
1
100
AcDbSymbolTableRecord
100
AcDbBlockTableRecord
  2
*D40
340
0
  0
BLOCK_RECORD
  5
F06F
330
1
100
AcDbSymbolTableRecord
100
AcDbBlockTableRecord
  2
*D41
340
0
  0
BLOCK_RECORD
  5
F096
330
1
100
AcDbSymbolTableRecord
100
AcDbBlockTableRecord
  2
*D42
340
0
  0
BLOCK_RECORD
  5
F0D9
330
1
100
AcDbSymbolTableRecord
100
AcDbBlockTableRecord
  2
*D43
340
0
  0
BLOCK_RECORD
  5
F2EE
330
1
100
AcDbSymbolTableRecord
100
AcDbBlockTableRecord
  2
*S4744
340
0
102
{BLKREFS
331
F12D
102
}
  0
ENDTAB
  0
ENDSEC
  0
SECTION
  2
BLOCKS
  0
BLOCK
  5
20
330
1F
100
AcDbEntity
  8
0
100
AcDbBlockBegin
  2
*Model_Space
 70
     0
 10
0.0
 20
0.0
 30
0.0
  3
*Model_Space
  1

  0
ENDBLK
  5
21
330
1F
100
AcDbEntity
  8
0
100
AcDbBlockEnd
  0
BLOCK
  5
1C
330
1B
100
AcDbEntity
 67
     1
  8
0
100
AcDbBlockBegin
  2
*Paper_Space
 70
     0
 10
0.0
 20
0.0
 30
0.0
  3
*Paper_Space
  1

  0
ENDBLK
  5
1D
330
1B
100
AcDbEntity
 67
     1
  8
0
100
AcDbBlockEnd
  0
BLOCK
  5
24
330
23
100
AcDbEntity
 67
     1
  8
0
100
AcDbBlockBegin
  2
*Paper_Space0
 70
     0
 10
0.0
 20
0.0
 30
0.0
  3
*Paper_Space0
  1

  0
ENDBLK
  5
25
330
23
100
AcDbEntity
 67
     1
  8
0
100
AcDbBlockEnd
  0
BLOCK
  5
74
330
72
100
AcDbEntity
  8
0
100
AcDbBlockBegin
  2
GENAXEH
 70
     0
 10
0.0
 20
0.0
 30
0.0
  3
GENAXEH
  1

  0
LINE
  5
73
330
72
100
AcDbEntity
  8
0
100
AcDbLine
 10
-1.0
 20
0.0
 30
0.0
 11
1.0
 21
0.0
 31
0.0
  0
ENDBLK
  5
75
330
72
100
AcDbEntity
  8
0
100
AcDbBlockEnd
  0
BLOCK
  5
6C7
330
6C4
100
AcDbEntity
  8
0
100
AcDbBlockBegin
  2
_Dot
 70
     0
 10
0.0
 20
0.0
 30
0.0
  3
_Dot
  1

  0
LWPOLYLINE
  5
6C5
330
6C4
100
AcDbEntity
  8
0
  6
ByBlock
 62
     0
100
AcDbPolyline
 90
        2
 70
     1
 43
0.5
 10
-0.25
 20
0.0
 42
1.0
 10
0.25
 20
0.0
 42
1.0
  0
LINE
  5
6C6
330
6C4
100
AcDbEntity
  8
0
  6
ByBlock
 62
     0
370
    -2
100
AcDbLine
 10
-0.5
 20
0.0
 30
0.0
 11
-1.0
 21
0.0
 31
0.0
  0
ENDBLK
  5
6C8
330
6C4
100
AcDbEntity
  8
0
100
AcDbBlockEnd
  0
BLOCK
  5
A6A
330
A66
100
AcDbEntity
  8
0
100
AcDbBlockBegin
  2
_OPEN30
 70
     0
 10
0.0
 20
0.0
 30
0.0
  3
_OPEN30
  1

  0
LINE
  5
A67
330
A66
100
AcDbEntity
  8
0
  6
ByBlock
 62
     0
100
AcDbLine
 10
-1.0
 20
0.26794919
 30
0.0
 11
0.0
 21
0.0
 31
0.0
  0
LINE
  5
A68
330
A66
100
AcDbEntity
  8
0
  6
ByBlock
 62
     0
100
AcDbLine
 10
0.0
 20
0.0
 30
0.0
 11
-1.0
 21
-0.26794919
 31
0.0
  0
LINE
  5
A69
330
A66
100
AcDbEntity
  8
0
  6
ByBlock
 62
     0
100
AcDbLine
 10
0.0
 20
0.0
 30
0.0
 11
-1.0
 21
0.0
 31
0.0
  0
ENDBLK
  5
A6B
330
A66
100
AcDbEntity
  8
0
100
AcDbBlockEnd
  0
BLOCK
  5
C3FE
330
C3FD
100
AcDbEntity
  8
0
100
AcDbBlockBegin
  2
_NONE
 70
     0
 10
0.0
 20
0.0
 30
0.0
  3
_NONE
  1

  0
CIRCLE
  5
C3FF
330
C3FD
100
AcDbEntity
  8
0
  6
ByBlock
 62
     0
100
AcDbCircle
 10
0.0
 20
0.0
 30
0.0
 40
0.001
  0
ENDBLK
  5
C400
330
C3FD
100
AcDbEntity
  8
0
100
AcDbBlockEnd
  0
BLOCK
  5
D3DD
330
D3D3
100
AcDbEntity
  8
0
100
AcDbBlockBegin
  2
*D5
 70
     1
 10
0.0
 20
0.0
 30
0.0
  3
*D5
  1

  0
LINE
  5
F16E
330
D3D3
100
AcDbEntity
  8
AM_5
100
AcDbLine
 10
456.3074204171742
 20
122.1951790152395
 30
0.0
 11
456.3074204171742
 21
148.8602032340446
 31
0.0
  0
LINE
  5
F16F
330
D3D3
100
AcDbEntity
  8
AM_5
100
AcDbLine
 10
481.3074104171739
 20
122.1951775622527
 30
0.0
 11
481.3074104171739
 21
148.8602032340446
 31
0.0
  0
LINE
  5
F170
330
D3D3
100
AcDbEntity
  8
AM_5
100
AcDbLine
 10
457.307420417174
 20
147.8602032340446
 30
0.0
 11
480.3074104171738
 21
147.8602032340446
 31
0.0
  0
INSERT
  5
F171
330
D3D3
100
AcDbEntity
  8
AM_5
100
AcDbBlockReference
  2
_Dot
 10
456.3074204171742
 20
147.8602032340446
 30
0.0
 50
180.0
  0
INSERT
  5
F172
330
D3D3
100
AcDbEntity
  8
AM_5
100
AcDbBlockReference
  2
_Dot
 10
481.3074104171739
 20
147.8602032340446
 30
0.0
  0
MTEXT
  5
F173
330
D3D3
100
AcDbEntity
  8
AM_5
 62
     2
100
AcDbMText
 10
468.807415417174
 20
150.9602032340445
 30
0.0
 40
3.200000000000001
 41
0.0
 71
     5
 72
     1
  1
25
 73
     1
 44
1.0
1001
ACAD
1000
MTEXTBEGIN
1070
    73
1070
     1
1070
    44
1040
1.0
1070
    74
1070
     0
1000
MTEXTEND
  0
POINT
  5
F174
330
D3D3
100
AcDbEntity
  8
Defpoints
 62
     0
100
AcDbPoint
 10
456.3074204171742
 20
121.1951790152395
 30
0.0
  0
POINT
  5
F175
330
D3D3
100
AcDbEntity
  8
Defpoints
 62
     0
100
AcDbPoint
 10
481.3074104171739
 20
121.1951775622527
 30
0.0
  0
POINT
  5
F176
330
D3D3
100
AcDbEntity
  8
Defpoints
 62
     0
100
AcDbPoint
 10
481.3074104171739
 20
147.8602032340446
 30
0.0
  0
ENDBLK
  5
D3DE
330
D3D3
100
AcDbEntity
  8
0
100
AcDbBlockEnd
  0
BLOCK
  5
D453
330
D449
100
AcDbEntity
  8
0
100
AcDbBlockBegin
  2
*D6
 70
     1
 10
0.0
 20
0.0
 30
0.0
  3
*D6
  1

  0
LINE
  5
F177
330
D449
100
AcDbEntity
  8
AM_5
100
AcDbLine
 10
340.1074224171741
 20
120.1951725340448
 30
0.0
 11
340.1074224171741
 21
133.8601987340446
 31
0.0
  0
LINE
  5
F178
330
D449
100
AcDbEntity
  8
AM_5
100
AcDbLine
 10
365.1074261171741
 20
121.8601734340448
 30
0.0
 11
365.1074261171741
 21
133.8601987340446
 31
0.0
  0
LINE
  5
F179
330
D449
100
AcDbEntity
  8
AM_5
100
AcDbLine
 10
341.1074224171741
 20
132.8601987340446
 30
0.0
 11
364.1074261171742
 21
132.8601987340446
 31
0.0
  0
INSERT
  5
F17A
330
D449
100
AcDbEntity
  8
AM_5
100
AcDbBlockReference
  2
_Dot
 10
340.1074224171741
 20
132.8601987340446
 30
0.0
 50
180.0
  0
INSERT
  5
F17B
330
D449
100
AcDbEntity
  8
AM_5
100
AcDbBlockReference
  2
_Dot
 10
365.1074261171741
 20
132.8601987340446
 30
0.0
  0
MTEXT
  5
F17C
330
D449
100
AcDbEntity
  8
AM_5
 62
     2
100
AcDbMText
 10
352.6074242671742
 20
135.9601987340446
 30
0.0
 40
3.200000000000001
 41
0.0
 71
     5
 72
     1
  1
25
 73
     1
 44
1.0
1001
ACAD
1000
MTEXTBEGIN
1070
    73
1070
     1
1070
    44
1040
1.0
1070
    74
1070
     0
1000
MTEXTEND
  0
POINT
  5
F17D
330
D449
100
AcDbEntity
  8
Defpoints
 62
     0
100
AcDbPoint
 10
340.1074224171741
 20
119.1951725340448
 30
0.0
  0
POINT
  5
F17E
330
D449
100
AcDbEntity
  8
Defpoints
 62
     0
100
AcDbPoint
 10
365.1074261171741
 20
120.8601734340448
 30
0.0
  0
POINT
  5
F17F
330
D449
100
AcDbEntity
  8
Defpoints
 62
     0
100
AcDbPoint
 10
365.1074261171741
 20
132.8601987340446
 30
0.0
  0
ENDBLK
  5
D454
330
D449
100
AcDbEntity
  8
0
100
AcDbBlockEnd
  0
BLOCK
  5
D46B
330
D45F
100
AcDbEntity
  8
0
100
AcDbBlockBegin
  2
*D7
 70
     1
 10
0.0
 20
0.0
 30
0.0
  3
*D7
  1

  0
LINE
  5
F180
330
D45F
100
AcDbEntity
  8
AM_5
100
AcDbLine
 10
340.1074224171741
 20
120.1951725340448
 30
0.0
 11
340.1074224171741
 21
148.8602032340446
 31
0.0
  0
LINE
  5
F181
330
D45F
100
AcDbEntity
  8
AM_5
100
AcDbLine
 10
336.1074254171739
 20
122.1951795528501
 30
0.0
 11
336.1074254171739
 21
148.8602032340446
 31
0.0
  0
LINE
  5
F182
330
D45F
100
AcDbEntity
  8
AM_5
100
AcDbLine
 10
341.1074224171741
 20
147.8602032340446
 30
0.0
 11
342.1074224171741
 21
147.8602032340446
 31
0.0
  0
LINE
  5
F183
330
D45F
100
AcDbEntity
  8
AM_5
100
AcDbLine
 10
335.1074254171739
 20
147.8602032340446
 30
0.0
 11
334.1074254171739
 21
147.8602032340446
 31
0.0
  0
LINE
  5
F184
330
D45F
100
AcDbEntity
  8
AM_5
100
AcDbLine
 10
340.1074224171741
 20
147.8602032340446
 30
0.0
 11
336.1074254171739
 21
147.8602032340446
 31
0.0
  0
INSERT
  5
F185
330
D45F
100
AcDbEntity
  8
AM_5
100
AcDbBlockReference
  2
_Dot
 10
340.1074224171741
 20
147.8602032340446
 30
0.0
 50
180.0
  0
INSERT
  5
F186
330
D45F
100
AcDbEntity
  8
AM_5
100
AcDbBlockReference
  2
_Dot
 10
336.1074254171739
 20
147.8602032340446
 30
0.0
  0
MTEXT
  5
F187
330
D45F
100
AcDbEntity
  8
AM_5
 62
     2
100
AcDbMText
 10
338.107423917174
 20
150.9602032340446
 30
0.0
 40
3.200000000000001
 41
0.0
 71
     5
 72
     1
  1
4
 73
     1
 44
1.0
1001
ACAD
1000
MTEXTBEGIN
1070
    73
1070
     1
1070
    44
1040
1.0
1070
    74
1070
     0
1000
MTEXTEND
  0
POINT
  5
F188
330
D45F
100
AcDbEntity
  8
Defpoints
 62
     0
100
AcDbPoint
 10
340.1074224171741
 20
119.1951725340448
 30
0.0
  0
POINT
  5
F189
330
D45F
100
AcDbEntity
  8
Defpoints
 62
     0
100
AcDbPoint
 10
336.1074254171739
 20
121.1951795528501
 30
0.0
  0
POINT
  5
F18A
330
D45F
100
AcDbEntity
  8
Defpoints
 62
     0
100
AcDbPoint
 10
336.1074254171739
 20
147.8602032340446
 30
0.0
  0
ENDBLK
  5
D46C
330
D45F
100
AcDbEntity
  8
0
100
AcDbBlockEnd
  0
BLOCK
  5
D483
330
D479
100
AcDbEntity
  8
0
100
AcDbBlockBegin
  2
*D8
 70
     1
 10
0.0
 20
0.0
 30
0.0
  3
*D8
  1

  0
LINE
  5
F18B
330
D479
100
AcDbEntity
  8
AM_5
100
AcDbLine
 10
336.1074254171739
 20
122.1951795528501
 30
0.0
 11
336.1074254171739
 21
148.8602032340448
 31
0.0
  0
LINE
  5
F18C
330
D479
100
AcDbEntity
  8
AM_5
100
AcDbLine
 10
311.107434417174
 20
122.1951801340448
 30
0.0
 11
311.107434417174
 21
148.8602032340448
 31
0.0
  0
LINE
  5
F18D
330
D479
100
AcDbEntity
  8
AM_5
100
AcDbLine
 10
335.1074254171739
 20
147.8602032340448
 30
0.0
 11
312.1074344171741
 21
147.8602032340448
 31
0.0
  0
INSERT
  5
F18E
330
D479
100
AcDbEntity
  8
AM_5
100
AcDbBlockReference
  2
_Dot
 10
336.1074254171739
 20
147.8602032340448
 30
0.0
  0
INSERT
  5
F18F
330
D479
100
AcDbEntity
  8
AM_5
100
AcDbBlockReference
  2
_Dot
 10
311.107434417174
 20
147.8602032340448
 30
0.0
 50
180.0
  0
MTEXT
  5
F190
330
D479
100
AcDbEntity
  8
AM_5
 62
     2
100
AcDbMText
 10
323.607429917174
 20
150.9602032340447
 30
0.0
 40
3.200000000000001
 41
0.0
 71
     5
 72
     1
  1
25
 73
     1
 44
1.0
1001
ACAD
1000
MTEXTBEGIN
1070
    73
1070
     1
1070
    44
1040
1.0
1070
    74
1070
     0
1000
MTEXTEND
  0
POINT
  5
F191
330
D479
100
AcDbEntity
  8
Defpoints
 62
     0
100
AcDbPoint
 10
336.1074254171739
 20
121.1951795528501
 30
0.0
  0
POINT
  5
F192
330
D479
100
AcDbEntity
  8
Defpoints
 62
     0
100
AcDbPoint
 10
311.107434417174
 20
121.1951801340448
 30
0.0
  0
POINT
  5
F193
330
D479
100
AcDbEntity
  8
Defpoints
 62
     0
100
AcDbPoint
 10
311.107434417174
 20
147.8602032340448
 30
0.0
  0
ENDBLK
  5
D484
330
D479
100
AcDbEntity
  8
0
100
AcDbBlockEnd
  0
BLOCK
  5
D4DC
330
D4D2
100
AcDbEntity
  8
0
100
AcDbBlockBegin
  2
*D9
 70
     1
 10
0.0
 20
0.0
 30
0.0
  3
*D9
  1

  0
LINE
  5
F194
330
D4D2
100
AcDbEntity
  8
AM_5
100
AcDbLine
 10
340.1074224171741
 20
120.1951725340448
 30
0.0
 11
340.1074224171741
 21
148.8602032340446
 31
0.0
  0
LINE
  5
F195
330
D4D2
100
AcDbEntity
  8
AM_5
100
AcDbLine
 10
452.3074184171742
 20
120.1951965340448
 30
0.0
 11
452.3074184171742
 21
148.8602032340446
 31
0.0
  0
LINE
  5
F196
330
D4D2
100
AcDbEntity
  8
AM_5
100
AcDbLine
 10
341.1074224171741
 20
147.8602032340446
 30
0.0
 11
451.3074184171741
 21
147.8602032340446
 31
0.0
  0
INSERT
  5
F197
330
D4D2
100
AcDbEntity
  8
AM_5
100
AcDbBlockReference
  2
_Dot
 10
340.1074224171741
 20
147.8602032340446
 30
0.0
 50
180.0
  0
INSERT
  5
F198
330
D4D2
100
AcDbEntity
  8
AM_5
100
AcDbBlockReference
  2
_Dot
 10
452.3074184171742
 20
147.8602032340446
 30
0.0
  0
MTEXT
  5
F199
330
D4D2
100
AcDbEntity
  8
AM_5
 62
     2
100
AcDbMText
 10
396.2074204171742
 20
150.9602032340446
 30
0.0
 40
3.200000000000001
 41
0.0
 71
     5
 72
     1
  1
DW
 73
     1
 44
1.0
1001
ACAD
1000
MTEXTBEGIN
1070
    73
1070
     1
1070
    44
1040
1.0
1070
    74
1070
     0
1000
MTEXTEND
  0
POINT
  5
F19A
330
D4D2
100
AcDbEntity
  8
Defpoints
 62
     0
100
AcDbPoint
 10
340.1074224171741
 20
119.1951725340448
 30
0.0
  0
POINT
  5
F19B
330
D4D2
100
AcDbEntity
  8
Defpoints
 62
     0
100
AcDbPoint
 10
452.3074184171742
 20
119.1951965340448
 30
0.0
  0
POINT
  5
F19C
330
D4D2
100
AcDbEntity
  8
Defpoints
 62
     0
100
AcDbPoint
 10
452.3074184171742
 20
147.8602032340446
 30
0.0
  0
ENDBLK
  5
D4DD
330
D4D2
100
AcDbEntity
  8
0
100
AcDbBlockEnd
  0
BLOCK
  5
D5D1
330
D5C7
100
AcDbEntity
  8
0
100
AcDbBlockBegin
  2
*D10
 70
     1
 10
0.0
 20
0.0
 30
0.0
  3
*D10
  1

  0
LINE
  5
F19D
330
D5C7
100
AcDbEntity
  8
AM_5
100
AcDbLine
 10
422.6074334171739
 20
87.69675623404486
 30
0.0
 11
422.6074334171739
 21
68.26018423404423
 31
0.0
  0
LINE
  5
F19E
330
D5C7
100
AcDbEntity
  8
AM_5
100
AcDbLine
 10
369.8074126171742
 20
87.69675623404486
 30
0.0
 11
369.8074126171742
 21
68.26018423404423
 31
0.0
  0
LINE
  5
F19F
330
D5C7
100
AcDbEntity
  8
AM_5
100
AcDbLine
 10
421.6074334171739
 20
69.26018423404423
 30
0.0
 11
370.8074126171742
 21
69.26018423404423
 31
0.0
  0
INSERT
  5
F1A0
330
D5C7
100
AcDbEntity
  8
AM_5
100
AcDbBlockReference
  2
_Dot
 10
422.6074334171739
 20
69.26018423404423
 30
0.0
  0
INSERT
  5
F1A1
330
D5C7
100
AcDbEntity
  8
AM_5
100
AcDbBlockReference
  2
_Dot
 10
369.8074126171742
 20
69.26018423404423
 30
0.0
 50
180.0
  0
MTEXT
  5
F1A2
330
D5C7
100
AcDbEntity
  8
AM_5
 62
     2
100
AcDbMText
 10
396.2074230171742
 20
72.36018423404424
 30
0.0
 40
3.200000000000001
 41
0.0
 71
     5
 72
     1
  1
ボックス取付ピッチ
 73
     1
 44
1.0
1001
ACAD
1000
MTEXTBEGIN
1070
    73
1070
     1
1070
    44
1040
1.0
1070
    74
1070
     0
1000
MTEXTEND
  0
POINT
  5
F1A3
330
D5C7
100
AcDbEntity
  8
Defpoints
 62
     0
100
AcDbPoint
 10
422.6074334171739
 20
88.69675623404488
 30
0.0
  0
POINT
  5
F1A4
330
D5C7
100
AcDbEntity
  8
Defpoints
 62
     0
100
AcDbPoint
 10
369.8074126171742
 20
88.69675623404488
 30
0.0
  0
POINT
  5
F1A5
330
D5C7
100
AcDbEntity
  8
Defpoints
 62
     0
100
AcDbPoint
 10
369.8074126171742
 20
69.26018423404423
 30
0.0
  0
ENDBLK
  5
D5D2
330
D5C7
100
AcDbEntity
  8
0
100
AcDbBlockEnd
  0
BLOCK
  5
D5F0
330
D5E6
100
AcDbEntity
  8
0
100
AcDbBlockBegin
  2
*D11
 70
     1
 10
0.0
 20
0.0
 30
0.0
  3
*D11
  1

  0
LINE
  5
F1A6
330
D5E6
100
AcDbEntity
  8
AM_5
100
AcDbLine
 10
369.8074126171742
 20
87.69675623404486
 30
0.0
 11
369.8074126171742
 21
68.26018423404398
 31
0.0
  0
LINE
  5
F1A7
330
D5E6
100
AcDbEntity
  8
AM_5
100
AcDbLine
 10
346.1074224171742
 20
91.86019323404492
 30
0.0
 11
346.1074224171742
 21
68.26018423404398
 31
0.0
  0
LINE
  5
F1A8
330
D5E6
100
AcDbEntity
  8
AM_5
100
AcDbLine
 10
368.8074126171742
 20
69.26018423404397
 30
0.0
 11
347.1074224171742
 21
69.26018423404397
 31
0.0
  0
INSERT
  5
F1A9
330
D5E6
100
AcDbEntity
  8
AM_5
100
AcDbBlockReference
  2
_Dot
 10
369.8074126171742
 20
69.26018423404397
 30
0.0
  0
INSERT
  5
F1AA
330
D5E6
100
AcDbEntity
  8
AM_5
100
AcDbBlockReference
  2
_Dot
 10
346.1074224171742
 20
69.26018423404397
 30
0.0
 50
180.0
  0
MTEXT
  5
F1AB
330
D5E6
100
AcDbEntity
  8
AM_5
 62
     2
100
AcDbMText
 10
357.9574175171742
 20
72.36018423404397
 30
0.0
 40
3.200000000000001
 41
0.0
 71
     5
 72
     1
  1
F
 73
     1
 44
1.0
1001
ACAD
1000
MTEXTBEGIN
1070
    73
1070
     1
1070
    44
1040
1.0
1070
    74
1070
     0
1000
MTEXTEND
  0
POINT
  5
F1AC
330
D5E6
100
AcDbEntity
  8
Defpoints
 62
     0
100
AcDbPoint
 10
369.8074126171742
 20
88.69675623404488
 30
0.0
  0
POINT
  5
F1AD
330
D5E6
100
AcDbEntity
  8
Defpoints
 62
     0
100
AcDbPoint
 10
346.1074224171742
 20
92.86019323404492
 30
0.0
  0
POINT
  5
F1AE
330
D5E6
100
AcDbEntity
  8
Defpoints
 62
     0
100
AcDbPoint
 10
346.1074224171742
 20
69.26018423404397
 30
0.0
  0
ENDBLK
  5
D5F1
330
D5E6
100
AcDbEntity
  8
0
100
AcDbBlockEnd
  0
BLOCK
  5
D606
330
D5FC
100
AcDbEntity
  8
0
100
AcDbBlockBegin
  2
*D12
 70
     1
 10
0.0
 20
0.0
 30
0.0
  3
*D12
  1

  0
LINE
  5
D608
330
D5FC
100
AcDbEntity
  8
AM_5
100
AcDbLine
 10
224.9194444171741
 20
106.1996140565255
 30
0.0
 11
251.4194544171742
 21
106.1996140565255
 31
0.0
  0
LINE
  5
D609
330
D5FC
100
AcDbEntity
  8
AM_5
100
AcDbLine
 10
223.319454417174
 20
96.19961435652552
 30
0.0
 11
251.4194544171742
 21
96.1996143565255
 31
0.0
  0
LINE
  5
D60A
330
D5FC
100
AcDbEntity
  8
AM_5
100
AcDbLine
 10
250.4194544171742
 20
105.1996140565255
 30
0.0
 11
250.4194544171742
 21
97.1996143565255
 31
0.0
  0
INSERT
  5
D60B
330
D5FC
100
AcDbEntity
  8
AM_5
100
AcDbBlockReference
  2
_Dot
 10
250.4194544171742
 20
106.1996140565255
 30
0.0
 50
90.0
  0
INSERT
  5
D60C
330
D5FC
100
AcDbEntity
  8
AM_5
100
AcDbBlockReference
  2
_Dot
 10
250.4194544171742
 20
96.1996143565255
 30
0.0
 50
270.0
  0
MTEXT
  5
D60D
330
D5FC
100
AcDbEntity
  8
AM_5
 62
     2
100
AcDbMText
 10
247.3194544171742
 20
101.1996142065255
 30
0.0
 40
3.200000000000001
 41
0.0
 71
     5
 72
     1
  1
10
 11
0.0000000000000001
 21
1.0
 31
0.0
 73
     1
 44
1.0
1001
ACAD
1000
MTEXTBEGIN
1070
    73
1070
     1
1070
    44
1040
1.0
1070
    74
1070
     0
1000
MTEXTEND
  0
POINT
  5
D60E
330
D5FC
100
AcDbEntity
  8
Defpoints
 62
     0
100
AcDbPoint
 10
223.9194444171741
 20
106.1996140565255
 30
0.0
  0
POINT
  5
D60F
330
D5FC
100
AcDbEntity
  8
Defpoints
 62
     0
100
AcDbPoint
 10
222.319454417174
 20
96.19961435652552
 30
0.0
  0
POINT
  5
D610
330
D5FC
100
AcDbEntity
  8
Defpoints
 62
     0
100
AcDbPoint
 10
250.4194544171742
 20
96.1996143565255
 30
0.0
  0
ENDBLK
  5
D607
330
D5FC
100
AcDbEntity
  8
0
100
AcDbBlockEnd
  0
BLOCK
  5
D61C
330
D612
100
AcDbEntity
  8
0
100
AcDbBlockBegin
  2
*D13
 70
     1
 10
0.0
 20
0.0
 30
0.0
  3
*D13
  1

  0
LINE
  5
ED57
330
D612
100
AcDbEntity
  8
AM_5
100
AcDbLine
 10
224.9194444171741
 20
106.1996140565255
 30
0.0
 11
251.4194544171742
 21
106.1996140565255
 31
0.0
  0
LINE
  5
ED58
330
D612
100
AcDbEntity
  8
AM_5
100
AcDbLine
 10
224.9194444171741
 20
348.9546164565254
 30
0.0
 11
251.4194544171743
 21
348.9546164565254
 31
0.0
  0
LINE
  5
ED59
330
D612
100
AcDbEntity
  8
AM_5
100
AcDbLine
 10
250.4194544171742
 20
107.1996140565255
 30
0.0
 11
250.4194544171743
 21
347.9546164565253
 31
0.0
  0
INSERT
  5
ED5A
330
D612
100
AcDbEntity
  8
AM_5
100
AcDbBlockReference
  2
_Dot
 10
250.4194544171742
 20
106.1996140565255
 30
0.0
 50
270.0
  0
INSERT
  5
ED5B
330
D612
100
AcDbEntity
  8
AM_5
100
AcDbBlockReference
  2
_Dot
 10
250.4194544171743
 20
348.9546164565254
 30
0.0
 50
90.0
  0
MTEXT
  5
ED5C
330
D612
100
AcDbEntity
  8
AM_5
 62
     2
100
AcDbMText
 10
247.3194544171742
 20
227.5771152565255
 30
0.0
 40
3.200000000000001
 41
0.0
 71
     5
 72
     1
  1
H
 11
0.0000000000000001
 21
1.0
 31
0.0
 73
     1
 44
1.0
1001
ACAD
1000
MTEXTBEGIN
1070
    73
1070
     1
1070
    44
1040
1.0
1070
    74
1070
     0
1000
MTEXTEND
  0
POINT
  5
ED5D
330
D612
100
AcDbEntity
  8
Defpoints
 62
     0
100
AcDbPoint
 10
223.9194444171741
 20
106.1996140565255
 30
0.0
  0
POINT
  5
ED5E
330
D612
100
AcDbEntity
  8
Defpoints
 62
     0
100
AcDbPoint
 10
223.9194444171741
 20
348.9546164565254
 30
0.0
  0
POINT
  5
ED5F
330
D612
100
AcDbEntity
  8
Defpoints
 62
     0
100
AcDbPoint
 10
250.4194544171743
 20
348.9546164565254
 30
0.0
  0
ENDBLK
  5
D61D
330
D612
100
AcDbEntity
  8
0
100
AcDbBlockEnd
  0
BLOCK
  5
D633
330
D628
100
AcDbEntity
  8
0
100
AcDbBlockBegin
  2
*D14
 70
     1
 10
0.0
 20
0.0
 30
0.0
  3
*D14
  1

  0
LINE
  5
ED6A
330
D628
100
AcDbEntity
  8
AM_5
100
AcDbLine
 10
224.9194444171741
 20
348.9546164565254
 30
0.0
 11
251.4194544171744
 21
348.9546164565254
 31
0.0
  0
LINE
  5
ED6B
330
D628
100
AcDbEntity
  8
AM_5
100
AcDbLine
 10
226.5194544171741
 20
358.9546564565254
 30
0.0
 11
251.4194544171744
 21
358.9546564565254
 31
0.0
  0
LINE
  5
ED6C
330
D628
100
AcDbEntity
  8
AM_5
100
AcDbLine
 10
250.4194544171744
 20
349.9546164565253
 30
0.0
 11
250.4194544171744
 21
357.9546564565254
 31
0.0
  0
INSERT
  5
ED6D
330
D628
100
AcDbEntity
  8
AM_5
100
AcDbBlockReference
  2
_Dot
 10
250.4194544171744
 20
348.9546164565254
 30
0.0
 50
270.0
  0
INSERT
  5
ED6E
330
D628
100
AcDbEntity
  8
AM_5
100
AcDbBlockReference
  2
_Dot
 10
250.4194544171744
 20
358.9546564565254
 30
0.0
 50
90.0
  0
MTEXT
  5
ED6F
330
D628
100
AcDbEntity
  8
AM_5
 62
     2
100
AcDbMText
 10
247.3194544171744
 20
354.043016616236
 30
0.0
 40
3.200000000000001
 41
0.0
 71
     5
 72
     1
  1
10
 11
0.0000000000000001
 21
1.0
 31
0.0
 73
     1
 44
1.0
1001
ACAD
1000
MTEXTBEGIN
1070
    73
1070
     1
1070
    44
1040
1.0
1070
    74
1070
     0
1000
MTEXTEND
  0
POINT
  5
ED70
330
D628
100
AcDbEntity
  8
Defpoints
 62
     0
100
AcDbPoint
 10
223.9194444171741
 20
348.9546164565254
 30
0.0
  0
POINT
  5
ED71
330
D628
100
AcDbEntity
  8
Defpoints
 62
     0
100
AcDbPoint
 10
225.5194544171741
 20
358.9546564565254
 30
0.0
  0
POINT
  5
ED72
330
D628
100
AcDbEntity
  8
Defpoints
 62
     0
100
AcDbPoint
 10
250.4194544171744
 20
358.9546564565254
 30
0.0
  0
ENDBLK
  5
D634
330
D628
100
AcDbEntity
  8
0
100
AcDbBlockEnd
  0
BLOCK
  5
D68A
330
D67F
100
AcDbEntity
  8
0
100
AcDbBlockBegin
  2
*D15
 70
     1
 10
0.0
 20
0.0
 30
0.0
  3
*D15
  1

  0
LINE
  5
EDBB
330
D67F
100
AcDbEntity
  8
AM_5
100
AcDbLine
 10
226.5194544171741
 20
358.9546564565254
 30
0.0
 11
241.4194544171743
 21
358.9546564565254
 31
0.0
  0
LINE
  5
EDBC
330
D67F
100
AcDbEntity
  8
AM_5
100
AcDbLine
 10
229.719444417174
 20
336.5146564565254
 30
0.0
 11
241.4194544171743
 21
336.5146564565254
 31
0.0
  0
LINE
  5
EDBD
330
D67F
100
AcDbEntity
  8
AM_5
100
AcDbLine
 10
240.4194544171744
 20
357.9546564565254
 30
0.0
 11
240.4194544171744
 21
337.5146564565254
 31
0.0
  0
INSERT
  5
EDBE
330
D67F
100
AcDbEntity
  8
AM_5
100
AcDbBlockReference
  2
_Dot
 10
240.4194544171744
 20
358.9546564565254
 30
0.0
 50
90.0
  0
INSERT
  5
EDBF
330
D67F
100
AcDbEntity
  8
AM_5
100
AcDbBlockReference
  2
_Dot
 10
240.4194544171744
 20
336.5146564565254
 30
0.0
 50
270.0
  0
MTEXT
  5
EDC0
330
D67F
100
AcDbEntity
  8
AM_5
 62
     2
100
AcDbMText
 10
237.3194544171743
 20
345.7747451641649
 30
0.0
 40
3.200000000000001
 41
0.0
 71
     5
 72
     1
  1
D
 11
0.0000000000000001
 21
1.0
 31
0.0
 73
     1
 44
1.0
1001
ACAD
1000
MTEXTBEGIN
1070
    73
1070
     1
1070
    44
1040
1.0
1070
    74
1070
     0
1000
MTEXTEND
  0
POINT
  5
EDC1
330
D67F
100
AcDbEntity
  8
Defpoints
 62
     0
100
AcDbPoint
 10
225.5194544171741
 20
358.9546564565254
 30
0.0
  0
POINT
  5
EDC2
330
D67F
100
AcDbEntity
  8
Defpoints
 62
     0
100
AcDbPoint
 10
228.719444417174
 20
336.5146564565254
 30
0.0
  0
POINT
  5
EDC3
330
D67F
100
AcDbEntity
  8
Defpoints
 62
     0
100
AcDbPoint
 10
240.4194544171744
 20
336.5146564565254
 30
0.0
  0
ENDBLK
  5
D68B
330
D67F
100
AcDbEntity
  8
0
100
AcDbBlockEnd
  0
BLOCK
  5
D6A9
330
D69F
100
AcDbEntity
  8
0
100
AcDbBlockBegin
  2
*D16
 70
     1
 10
0.0
 20
0.0
 30
0.0
  3
*D16
  1

  0
LINE
  5
EDA8
330
D69F
100
AcDbEntity
  8
AM_5
100
AcDbLine
 10
229.719444417174
 20
336.5146564565254
 30
0.0
 11
241.4194544171742
 21
336.5146564565254
 31
0.0
  0
LINE
  5
EDA9
330
D69F
100
AcDbEntity
  8
AM_5
100
AcDbLine
 10
229.719444417174
 20
306.4846464565254
 30
0.0
 11
241.4194544171741
 21
306.4846464565254
 31
0.0
  0
LINE
  5
EDAA
330
D69F
100
AcDbEntity
  8
AM_5
100
AcDbLine
 10
240.4194544171741
 20
335.5146564565254
 30
0.0
 11
240.4194544171741
 21
307.4846464565254
 31
0.0
  0
INSERT
  5
EDAB
330
D69F
100
AcDbEntity
  8
AM_5
100
AcDbBlockReference
  2
_Dot
 10
240.4194544171741
 20
336.5146564565254
 30
0.0
 50
90.0
  0
INSERT
  5
EDAC
330
D69F
100
AcDbEntity
  8
AM_5
100
AcDbBlockReference
  2
_Dot
 10
240.4194544171741
 20
306.4846464565254
 30
0.0
 50
270.0
  0
MTEXT
  5
EDAD
330
D69F
100
AcDbEntity
  8
AM_5
 62
     2
100
AcDbMText
 10
237.3194544171741
 20
321.4996514565255
 30
0.0
 40
3.200000000000001
 41
0.0
 71
     5
 72
     1
  1
E
 11
0.0000000000000001
 21
1.0
 31
0.0
 73
     1
 44
1.0
1001
ACAD
1000
MTEXTBEGIN
1070
    73
1070
     1
1070
    44
1040
1.0
1070
    74
1070
     0
1000
MTEXTEND
  0
POINT
  5
EDAE
330
D69F
100
AcDbEntity
  8
Defpoints
 62
     0
100
AcDbPoint
 10
228.719444417174
 20
336.5146564565254
 30
0.0
  0
POINT
  5
EDAF
330
D69F
100
AcDbEntity
  8
Defpoints
 62
     0
100
AcDbPoint
 10
228.719444417174
 20
306.4846464565254
 30
0.0
  0
POINT
  5
EDB0
330
D69F
100
AcDbEntity
  8
Defpoints
 62
     0
100
AcDbPoint
 10
240.4194544171741
 20
306.4846464565254
 30
0.0
  0
ENDBLK
  5
D6AA
330
D69F
100
AcDbEntity
  8
0
100
AcDbBlockEnd
  0
BLOCK
  5
D6BF
330
D6B5
100
AcDbEntity
  8
0
100
AcDbBlockBegin
  2
*D17
 70
     1
 10
0.0
 20
0.0
 30
0.0
  3
*D17
  1

  0
LINE
  5
EE22
330
D6B5
100
AcDbEntity
  8
AM_5
100
AcDbLine
 10
229.719444417174
 20
306.4846464565254
 30
0.0
 11
241.4194544171741
 21
306.4846464565254
 31
0.0
  0
LINE
  5
EE23
330
D6B5
100
AcDbEntity
  8
AM_5
100
AcDbLine
 10
229.719444417174
 20
225.6346564565255
 30
0.0
 11
241.4194544171741
 21
225.6346564565255
 31
0.0
  0
LINE
  5
EE24
330
D6B5
100
AcDbEntity
  8
AM_5
100
AcDbLine
 10
240.4194544171741
 20
305.4846464565254
 30
0.0
 11
240.4194544171741
 21
226.6346564565255
 31
0.0
  0
INSERT
  5
EE25
330
D6B5
100
AcDbEntity
  8
AM_5
100
AcDbBlockReference
  2
_Dot
 10
240.4194544171741
 20
306.4846464565254
 30
0.0
 50
90.0
  0
INSERT
  5
EE26
330
D6B5
100
AcDbEntity
  8
AM_5
100
AcDbBlockReference
  2
_Dot
 10
240.4194544171741
 20
225.6346564565255
 30
0.0
 50
270.0
  0
MTEXT
  5
EE27
330
D6B5
100
AcDbEntity
  8
AM_5
 62
     2
100
AcDbMText
 10
237.3194544171741
 20
266.0596514565255
 30
0.0
 40
3.200000000000001
 41
0.0
 71
     5
 72
     1
  1
給湯器取付ボックス取付ピッチ
 11
0.0000000000000001
 21
1.0
 31
0.0
 73
     1
 44
1.0
1001
ACAD
1000
MTEXTBEGIN
1070
    73
1070
     1
1070
    44
1040
1.0
1070
    74
1070
     0
1000
MTEXTEND
  0
POINT
  5
EE28
330
D6B5
100
AcDbEntity
  8
Defpoints
 62
     0
100
AcDbPoint
 10
228.719444417174
 20
306.4846464565254
 30
0.0
  0
POINT
  5
EE29
330
D6B5
100
AcDbEntity
  8
Defpoints
 62
     0
100
AcDbPoint
 10
228.719444417174
 20
225.6346564565255
 30
0.0
  0
POINT
  5
EE2A
330
D6B5
100
AcDbEntity
  8
Defpoints
 62
     0
100
AcDbPoint
 10
240.4194544171741
 20
225.6346564565255
 30
0.0
  0
ENDBLK
  5
D6C0
330
D6B5
100
AcDbEntity
  8
0
100
AcDbBlockEnd
  0
BLOCK
  5
D703
330
D6F9
100
AcDbEntity
  8
0
100
AcDbBlockBegin
  2
*D18
 70
     1
 10
0.0
 20
0.0
 30
0.0
  3
*D18
  1

  0
LINE
  5
D705
330
D6F9
100
AcDbEntity
  8
AM_5
100
AcDbLine
 10
207.319464417174
 20
70.19960845652551
 30
0.0
 11
207.319464417174
 21
58.19960845652551
 31
0.0
  0
LINE
  5
D706
330
D6F9
100
AcDbEntity
  8
AM_5
100
AcDbLine
 10
192.319454417174
 20
71.86462245652551
 30
0.0
 11
192.319454417174
 21
58.19960845652551
 31
0.0
  0
LINE
  5
D707
330
D6F9
100
AcDbEntity
  8
AM_5
100
AcDbLine
 10
206.319464417174
 20
59.19960845652551
 30
0.0
 11
193.319454417174
 21
59.19960845652551
 31
0.0
  0
INSERT
  5
D708
330
D6F9
100
AcDbEntity
  8
AM_5
100
AcDbBlockReference
  2
_Dot
 10
207.319464417174
 20
59.19960845652551
 30
0.0
  0
INSERT
  5
D709
330
D6F9
100
AcDbEntity
  8
AM_5
100
AcDbBlockReference
  2
_Dot
 10
192.319454417174
 20
59.19960845652551
 30
0.0
 50
180.0
  0
MTEXT
  5
D70A
330
D6F9
100
AcDbEntity
  8
AM_5
 62
     2
100
AcDbMText
 10
199.819459417174
 20
62.2996084565255
 30
0.0
 40
3.200000000000001
 41
0.0
 71
     5
 72
     1
  1
15
 73
     1
 44
1.0
1001
ACAD
1000
MTEXTBEGIN
1070
    73
1070
     1
1070
    44
1040
1.0
1070
    74
1070
     0
1000
MTEXTEND
  0
POINT
  5
D70B
330
D6F9
100
AcDbEntity
  8
Defpoints
 62
     0
100
AcDbPoint
 10
207.319464417174
 20
71.19960845652551
 30
0.0
  0
POINT
  5
D70C
330
D6F9
100
AcDbEntity
  8
Defpoints
 62
     0
100
AcDbPoint
 10
192.319454417174
 20
72.8646224565255
 30
0.0
  0
POINT
  5
D70D
330
D6F9
100
AcDbEntity
  8
Defpoints
 62
     0
100
AcDbPoint
 10
192.319454417174
 20
59.19960845652551
 30
0.0
  0
ENDBLK
  5
D704
330
D6F9
100
AcDbEntity
  8
0
100
AcDbBlockEnd
  0
BLOCK
  5
D719
330
D70F
100
AcDbEntity
  8
0
100
AcDbBlockBegin
  2
*D19
 70
     1
 10
0.0
 20
0.0
 30
0.0
  3
*D19
  1

  0
LINE
  5
EE78
330
D70F
100
AcDbEntity
  8
AM_5
100
AcDbLine
 10
194.9844544171741
 20
101.1996278565255
 30
0.0
 11
181.319454417174
 21
101.1996278565255
 31
0.0
  0
LINE
  5
EE79
330
D70F
100
AcDbEntity
  8
AM_5
100
AcDbLine
 10
193.319454417174
 20
126.1996144565255
 30
0.0
 11
181.319454417174
 21
126.1996144565255
 31
0.0
  0
LINE
  5
EE7A
330
D70F
100
AcDbEntity
  8
AM_5
100
AcDbLine
 10
182.319454417174
 20
102.1996278565255
 30
0.0
 11
182.319454417174
 21
125.1996144565255
 31
0.0
  0
INSERT
  5
EE7B
330
D70F
100
AcDbEntity
  8
AM_5
100
AcDbBlockReference
  2
_Dot
 10
182.319454417174
 20
101.1996278565255
 30
0.0
 50
270.0
  0
INSERT
  5
EE7C
330
D70F
100
AcDbEntity
  8
AM_5
100
AcDbBlockReference
  2
_Dot
 10
182.319454417174
 20
126.1996144565255
 30
0.0
 50
90.0
  0
MTEXT
  5
EE7D
330
D70F
100
AcDbEntity
  8
AM_5
 62
     2
100
AcDbMText
 10
179.219454417174
 20
113.6996211565255
 30
0.0
 40
3.200000000000001
 41
0.0
 71
     5
 72
     1
  1
25
 11
0.0000000000000001
 21
1.0
 31
0.0
 73
     1
 44
1.0
1001
ACAD
1000
MTEXTBEGIN
1070
    73
1070
     1
1070
    44
1040
1.0
1070
    74
1070
     0
1000
MTEXTEND
  0
POINT
  5
EE7E
330
D70F
100
AcDbEntity
  8
Defpoints
 62
     0
100
AcDbPoint
 10
195.9844544171741
 20
101.1996278565255
 30
0.0
  0
POINT
  5
EE7F
330
D70F
100
AcDbEntity
  8
Defpoints
 62
     0
100
AcDbPoint
 10
194.319454417174
 20
126.1996144565255
 30
0.0
  0
POINT
  5
EE80
330
D70F
100
AcDbEntity
  8
Defpoints
 62
     0
100
AcDbPoint
 10
182.319454417174
 20
126.1996144565255
 30
0.0
  0
ENDBLK
  5
D71A
330
D70F
100
AcDbEntity
  8
0
100
AcDbBlockEnd
  0
BLOCK
  5
D785
330
D779
100
AcDbEntity
  8
0
100
AcDbBlockBegin
  2
*D20
 70
     1
 10
0.0
 20
0.0
 30
0.0
  3
*D20
  1

  0
LINE
  5
ED45
330
D779
100
AcDbEntity
  8
AM_5
100
AcDbLine
 10
218.319454417174
 20
245.2196851436166
 30
0.0
 11
217.319454417174
 21
245.2196851436166
 31
0.0
  0
LINE
  5
ED46
330
D779
100
AcDbEntity
  8
AM_5
100
AcDbLine
 10
223.319464417174
 20
245.2196851436166
 30
0.0
 11
230.94715529872
 21
245.2196851436166
 31
0.0
  0
LINE
  5
ED47
330
D779
100
AcDbEntity
  8
AM_5
100
AcDbLine
 10
219.319454417174
 20
245.2196851436166
 30
0.0
 11
222.319464417174
 21
245.2196851436166
 31
0.0
  0
INSERT
  5
ED48
330
D779
100
AcDbEntity
  8
AM_5
100
AcDbBlockReference
  2
_Dot
 10
219.319454417174
 20
245.2196851436166
 30
0.0
  0
INSERT
  5
ED49
330
D779
100
AcDbEntity
  8
AM_5
100
AcDbBlockReference
  2
_Dot
 10
222.319464417174
 20
245.2196851436166
 30
0.0
 50
180.0
  0
MTEXT
  5
ED4A
330
D779
100
AcDbEntity
  8
AM_5
 62
     2
100
AcDbMText
 10
228.7004886320533
 20
248.3196851436165
 30
0.0
 40
3.200000000000001
 41
0.0
 71
     5
 72
     1
  1
3
 73
     1
 44
1.0
1001
ACAD
1000
MTEXTBEGIN
1070
    73
1070
     1
1070
    44
1040
1.0
1070
    74
1070
     0
1000
MTEXTEND
  0
POINT
  5
ED4B
330
D779
100
AcDbEntity
  8
Defpoints
 62
     0
100
AcDbPoint
 10
219.319454417174
 20
179.4871159565255
 30
0.0
  0
POINT
  5
ED4C
330
D779
100
AcDbEntity
  8
Defpoints
 62
     0
100
AcDbPoint
 10
222.319464417174
 20
179.4871159565255
 30
0.0
  0
POINT
  5
ED4D
330
D779
100
AcDbEntity
  8
Defpoints
 62
     0
100
AcDbPoint
 10
222.319464417174
 20
245.2196851436166
 30
0.0
  0
ENDBLK
  5
D786
330
D779
100
AcDbEntity
  8
0
100
AcDbBlockEnd
  0
BLOCK
  5
D79F
330
D793
100
AcDbEntity
  8
0
100
AcDbBlockBegin
  2
*D21
 70
     1
 10
0.0
 20
0.0
 30
0.0
  3
*D21
  1

  0
LINE
  5
ED0C
330
D793
100
AcDbEntity
  8
AM_5
100
AcDbLine
 10
195.319454417174
 20
245.2196851436168
 30
0.0
 11
196.319454417174
 21
245.2196851436168
 31
0.0
  0
LINE
  5
ED0D
330
D793
100
AcDbEntity
  8
AM_5
100
AcDbLine
 10
191.319454417174
 20
245.2196851436168
 30
0.0
 11
185.8261210838406
 21
245.2196851436168
 31
0.0
  0
LINE
  5
ED0E
330
D793
100
AcDbEntity
  8
AM_5
100
AcDbLine
 10
194.319454417174
 20
245.2196851436168
 30
0.0
 11
192.319454417174
 21
245.2196851436168
 31
0.0
  0
INSERT
  5
ED0F
330
D793
100
AcDbEntity
  8
AM_5
100
AcDbBlockReference
  2
_Dot
 10
194.319454417174
 20
245.2196851436168
 30
0.0
 50
180.0
  0
INSERT
  5
ED10
330
D793
100
AcDbEntity
  8
AM_5
100
AcDbBlockReference
  2
_Dot
 10
192.319454417174
 20
245.2196851436168
 30
0.0
  0
MTEXT
  5
ED11
330
D793
100
AcDbEntity
  8
AM_5
 62
     2
100
AcDbMText
 10
188.0727877505073
 20
248.3196851436167
 30
0.0
 40
3.200000000000001
 41
0.0
 71
     5
 72
     1
  1
2
 73
     1
 44
1.0
1001
ACAD
1000
MTEXTBEGIN
1070
    73
1070
     1
1070
    44
1040
1.0
1070
    74
1070
     0
1000
MTEXTEND
  0
POINT
  5
ED12
330
D793
100
AcDbEntity
  8
Defpoints
 62
     0
100
AcDbPoint
 10
194.319454417174
 20
179.4871159565255
 30
0.0
  0
POINT
  5
ED13
330
D793
100
AcDbEntity
  8
Defpoints
 62
     0
100
AcDbPoint
 10
192.319454417174
 20
179.4871159565255
 30
0.0
  0
POINT
  5
ED14
330
D793
100
AcDbEntity
  8
Defpoints
 62
     0
100
AcDbPoint
 10
192.319454417174
 20
245.2196851436168
 30
0.0
  0
ENDBLK
  5
D7A0
330
D793
100
AcDbEntity
  8
0
100
AcDbBlockEnd
  0
BLOCK
  5
D7B7
330
D7AD
100
AcDbEntity
  8
0
100
AcDbBlockBegin
  2
*D22
 70
     1
 10
0.0
 20
0.0
 30
0.0
  3
*D22
  1

  0
LINE
  5
ECFB
330
D7AD
100
AcDbEntity
  8
AM_5
100
AcDbLine
 10
195.319454417174
 20
245.2196851436166
 30
0.0
 11
218.319454417174
 21
245.2196851436166
 31
0.0
  0
INSERT
  5
ECFC
330
D7AD
100
AcDbEntity
  8
AM_5
100
AcDbBlockReference
  2
_Dot
 10
194.319454417174
 20
245.2196851436166
 30
0.0
 50
180.0
  0
INSERT
  5
ECFD
330
D7AD
100
AcDbEntity
  8
AM_5
100
AcDbBlockReference
  2
_Dot
 10
219.319454417174
 20
245.2196851436166
 30
0.0
  0
MTEXT
  5
ECFE
330
D7AD
100
AcDbEntity
  8
AM_5
 62
     2
100
AcDbMText
 10
206.819454417174
 20
248.3196851436165
 30
0.0
 40
3.200000000000001
 41
0.0
 71
     5
 72
     1
  1
25
 73
     1
 44
1.0
1001
ACAD
1000
MTEXTBEGIN
1070
    73
1070
     1
1070
    44
1040
1.0
1070
    74
1070
     0
1000
MTEXTEND
  0
POINT
  5
ECFF
330
D7AD
100
AcDbEntity
  8
Defpoints
 62
     0
100
AcDbPoint
 10
194.319454417174
 20
179.4871159565255
 30
0.0
  0
POINT
  5
ED00
330
D7AD
100
AcDbEntity
  8
Defpoints
 62
     0
100
AcDbPoint
 10
219.319454417174
 20
179.4871159565255
 30
0.0
  0
POINT
  5
ED01
330
D7AD
100
AcDbEntity
  8
Defpoints
 62
     0
100
AcDbPoint
 10
219.319454417174
 20
245.2196851436166
 30
0.0
  0
ENDBLK
  5
D7B8
330
D7AD
100
AcDbEntity
  8
0
100
AcDbBlockEnd
  0
BLOCK
  5
D7CD
330
D7C3
100
AcDbEntity
  8
0
100
AcDbBlockBegin
  2
*D23
 70
     1
 10
0.0
 20
0.0
 30
0.0
  3
*D23
  1

  0
LINE
  5
ECD8
330
D7C3
100
AcDbEntity
  8
AM_5
100
AcDbLine
 10
221.319464417174
 20
236.3949803825631
 30
0.0
 11
193.319454417174
 21
236.3949803825631
 31
0.0
  0
INSERT
  5
ECD9
330
D7C3
100
AcDbEntity
  8
AM_5
100
AcDbBlockReference
  2
_Dot
 10
222.319464417174
 20
236.3949803825631
 30
0.0
  0
INSERT
  5
ECDA
330
D7C3
100
AcDbEntity
  8
AM_5
100
AcDbBlockReference
  2
_Dot
 10
192.319454417174
 20
236.3949803825631
 30
0.0
 50
180.0
  0
MTEXT
  5
ECDB
330
D7C3
100
AcDbEntity
  8
AM_5
 62
     2
100
AcDbMText
 10
207.319459417174
 20
239.494980382563
 30
0.0
 40
3.200000000000001
 41
0.0
 71
     5
 72
     1
  1
30
 73
     1
 44
1.0
1001
ACAD
1000
MTEXTBEGIN
1070
    73
1070
     1
1070
    44
1040
1.0
1070
    74
1070
     0
1000
MTEXTEND
  0
POINT
  5
ECDC
330
D7C3
100
AcDbEntity
  8
Defpoints
 62
     0
100
AcDbPoint
 10
222.319464417174
 20
162.119928833848
 30
0.0
  0
POINT
  5
ECDD
330
D7C3
100
AcDbEntity
  8
Defpoints
 62
     0
100
AcDbPoint
 10
192.319454417174
 20
162.0667179239181
 30
0.0
  0
POINT
  5
ECDE
330
D7C3
100
AcDbEntity
  8
Defpoints
 62
     0
100
AcDbPoint
 10
192.319454417174
 20
236.3949803825631
 30
0.0
  0
ENDBLK
  5
D7CE
330
D7C3
100
AcDbEntity
  8
0
100
AcDbBlockEnd
  0
BLOCK
  5
D7F7
330
D7EB
100
AcDbEntity
  8
0
100
AcDbBlockBegin
  2
*D24
 70
     1
 10
0.0
 20
0.0
 30
0.0
  3
*D24
  1

  0
LINE
  5
F15A
330
D7EB
100
AcDbEntity
  8
AM_5
100
AcDbLine
 10
194.984444417174
 20
101.1996142565255
 30
0.0
 11
161.319454417174
 21
101.1996142565255
 31
0.0
  0
LINE
  5
F15B
330
D7EB
100
AcDbEntity
  8
AM_5
100
AcDbLine
 10
192.984444417174
 20
96.19961435652552
 30
0.0
 11
161.319454417174
 21
96.19961435652552
 31
0.0
  0
LINE
  5
F15C
330
D7EB
100
AcDbEntity
  8
AM_5
100
AcDbLine
 10
162.319454417174
 20
102.1996142565255
 30
0.0
 11
162.319454417174
 21
103.1996142565255
 31
0.0
  0
LINE
  5
F15D
330
D7EB
100
AcDbEntity
  8
AM_5
100
AcDbLine
 10
162.319454417174
 20
95.19961435652552
 30
0.0
 11
162.319454417174
 21
94.19961435652551
 31
0.0
  0
LINE
  5
F15E
330
D7EB
100
AcDbEntity
  8
AM_5
100
AcDbLine
 10
162.319454417174
 20
101.1996142565255
 30
0.0
 11
162.319454417174
 21
96.19961435652552
 31
0.0
  0
INSERT
  5
F15F
330
D7EB
100
AcDbEntity
  8
AM_5
100
AcDbBlockReference
  2
_Dot
 10
162.319454417174
 20
101.1996142565255
 30
0.0
 50
270.0
  0
INSERT
  5
F160
330
D7EB
100
AcDbEntity
  8
AM_5
100
AcDbBlockReference
  2
_Dot
 10
162.319454417174
 20
96.19961435652552
 30
0.0
 50
90.0
  0
MTEXT
  5
F161
330
D7EB
100
AcDbEntity
  8
AM_5
 62
     2
100
AcDbMText
 10
159.219454417174
 20
98.69961430652551
 30
0.0
 40
3.200000000000001
 41
0.0
 71
     5
 72
     1
  1
5
 11
0.0000000000000001
 21
1.0
 31
0.0
 73
     1
 44
1.0
1001
ACAD
1000
MTEXTBEGIN
1070
    73
1070
     1
1070
    44
1040
1.0
1070
    74
1070
     0
1000
MTEXTEND
  0
POINT
  5
F162
330
D7EB
100
AcDbEntity
  8
Defpoints
 62
     0
100
AcDbPoint
 10
195.984444417174
 20
101.1996142565255
 30
0.0
  0
POINT
  5
F163
330
D7EB
100
AcDbEntity
  8
Defpoints
 62
     0
100
AcDbPoint
 10
193.984444417174
 20
96.19961435652552
 30
0.0
  0
POINT
  5
F164
330
D7EB
100
AcDbEntity
  8
Defpoints
 62
     0
100
AcDbPoint
 10
162.319454417174
 20
96.19961435652552
 30
0.0
  0
ENDBLK
  5
D7F8
330
D7EB
100
AcDbEntity
  8
0
100
AcDbBlockEnd
  0
BLOCK
  5
D80F
330
D805
100
AcDbEntity
  8
0
100
AcDbBlockBegin
  2
*D25
 70
     1
 10
0.0
 20
0.0
 30
0.0
  3
*D25
  1

  0
LINE
  5
F165
330
D805
100
AcDbEntity
  8
AM_5
100
AcDbLine
 10
192.9844544171741
 20
96.19962625652553
 30
0.0
 11
161.319454417174
 21
96.19962625652553
 31
0.0
  0
LINE
  5
F166
330
D805
100
AcDbEntity
  8
AM_5
100
AcDbLine
 10
192.984444417174
 20
71.19962745652552
 30
0.0
 11
161.319454417174
 21
71.19962745652552
 31
0.0
  0
LINE
  5
F167
330
D805
100
AcDbEntity
  8
AM_5
100
AcDbLine
 10
162.319454417174
 20
95.19962625652551
 30
0.0
 11
162.319454417174
 21
72.19962745652551
 31
0.0
  0
INSERT
  5
F168
330
D805
100
AcDbEntity
  8
AM_5
100
AcDbBlockReference
  2
_Dot
 10
162.319454417174
 20
96.19962625652553
 30
0.0
 50
90.0
  0
INSERT
  5
F169
330
D805
100
AcDbEntity
  8
AM_5
100
AcDbBlockReference
  2
_Dot
 10
162.319454417174
 20
71.19962745652552
 30
0.0
 50
270.0
  0
MTEXT
  5
F16A
330
D805
100
AcDbEntity
  8
AM_5
 62
     2
100
AcDbMText
 10
159.219454417174
 20
83.69962685652554
 30
0.0
 40
3.200000000000001
 41
0.0
 71
     5
 72
     1
  1
25
 11
0.0000000000000001
 21
1.0
 31
0.0
 73
     1
 44
1.0
1001
ACAD
1000
MTEXTBEGIN
1070
    73
1070
     1
1070
    44
1040
1.0
1070
    74
1070
     0
1000
MTEXTEND
  0
POINT
  5
F16B
330
D805
100
AcDbEntity
  8
Defpoints
 62
     0
100
AcDbPoint
 10
193.9844544171741
 20
96.19962625652553
 30
0.0
  0
POINT
  5
F16C
330
D805
100
AcDbEntity
  8
Defpoints
 62
     0
100
AcDbPoint
 10
193.984444417174
 20
71.19962745652552
 30
0.0
  0
POINT
  5
F16D
330
D805
100
AcDbEntity
  8
Defpoints
 62
     0
100
AcDbPoint
 10
162.319454417174
 20
71.19962745652552
 30
0.0
  0
ENDBLK
  5
D810
330
D805
100
AcDbEntity
  8
0
100
AcDbBlockEnd
  0
BLOCK
  5
D825
330
D81B
100
AcDbEntity
  8
0
100
AcDbBlockBegin
  2
*D26
 70
     1
 10
0.0
 20
0.0
 30
0.0
  3
*D26
  1

  0
LINE
  5
EED6
330
D81B
100
AcDbEntity
  8
AM_5
100
AcDbLine
 10
194.9844544171741
 20
101.1996278565255
 30
0.0
 11
161.319454417174
 21
101.1996278565255
 31
0.0
  0
LINE
  5
EED7
330
D81B
100
AcDbEntity
  8
AM_5
100
AcDbLine
 10
194.984464417174
 20
326.3546364565254
 30
0.0
 11
161.3194544171741
 21
326.3546364565254
 31
0.0
  0
LINE
  5
EED8
330
D81B
100
AcDbEntity
  8
AM_5
100
AcDbLine
 10
162.319454417174
 20
102.1996278565255
 30
0.0
 11
162.3194544171741
 21
325.3546364565254
 31
0.0
  0
INSERT
  5
EED9
330
D81B
100
AcDbEntity
  8
AM_5
100
AcDbBlockReference
  2
_Dot
 10
162.319454417174
 20
101.1996278565255
 30
0.0
 50
270.0
  0
INSERT
  5
EEDA
330
D81B
100
AcDbEntity
  8
AM_5
100
AcDbBlockReference
  2
_Dot
 10
162.3194544171741
 20
326.3546364565254
 30
0.0
 50
90.0
  0
MTEXT
  5
EEDB
330
D81B
100
AcDbEntity
  8
AM_5
 62
     2
100
AcDbMText
 10
159.219454417174
 20
213.7771321565255
 30
0.0
 40
3.200000000000001
 41
0.0
 71
     5
 72
     1
  1
DH
 11
0.0000000000000001
 21
1.0
 31
0.0
 73
     1
 44
1.0
1001
ACAD
1000
MTEXTBEGIN
1070
    73
1070
     1
1070
    44
1040
1.0
1070
    74
1070
     0
1000
MTEXTEND
  0
POINT
  5
EEDC
330
D81B
100
AcDbEntity
  8
Defpoints
 62
     0
100
AcDbPoint
 10
195.9844544171741
 20
101.1996278565255
 30
0.0
  0
POINT
  5
EEDD
330
D81B
100
AcDbEntity
  8
Defpoints
 62
     0
100
AcDbPoint
 10
195.9844644171741
 20
326.3546364565254
 30
0.0
  0
POINT
  5
EEDE
330
D81B
100
AcDbEntity
  8
Defpoints
 62
     0
100
AcDbPoint
 10
162.3194544171741
 20
326.3546364565254
 30
0.0
  0
ENDBLK
  5
D826
330
D81B
100
AcDbEntity
  8
0
100
AcDbBlockEnd
  0
BLOCK
  5
D85C
330
D852
100
AcDbEntity
  8
0
100
AcDbBlockBegin
  2
*D27
 70
     1
 10
0.0
 20
0.0
 30
0.0
  3
*D27
  1

  0
LINE
  5
EEF1
330
D852
100
AcDbEntity
  8
AM_5
100
AcDbLine
 10
193.319454417174
 20
126.1996104565255
 30
0.0
 11
181.319454417174
 21
126.1996104565255
 31
0.0
  0
LINE
  5
EEF2
330
D852
100
AcDbEntity
  8
AM_5
100
AcDbLine
 10
182.319454417174
 20
127.1996104565255
 30
0.0
 11
182.319454417174
 21
151.2146114565255
 31
0.0
  0
INSERT
  5
EEF3
330
D852
100
AcDbEntity
  8
AM_5
100
AcDbBlockReference
  2
_Dot
 10
182.319454417174
 20
126.1996104565255
 30
0.0
 50
270.0
  0
MTEXT
  5
EEF4
330
D852
100
AcDbEntity
  8
AM_5
 62
     2
100
AcDbMText
 10
179.2194544171739
 20
139.2071109565255
 30
0.0
 40
3.200000000000001
 41
0.0
 71
     5
 72
     1
  1
33
 11
0.0000000000000001
 21
1.0
 31
0.0
 73
     1
 44
1.0
1001
ACAD
1000
MTEXTBEGIN
1070
    73
1070
     1
1070
    44
1040
1.0
1070
    74
1070
     0
1000
MTEXTEND
  0
POINT
  5
EEF5
330
D852
100
AcDbEntity
  8
Defpoints
 62
     0
100
AcDbPoint
 10
194.319454417174
 20
126.1996104565255
 30
0.0
  0
POINT
  5
EEF6
330
D852
100
AcDbEntity
  8
Defpoints
 62
     0
100
AcDbPoint
 10
194.319454417174
 20
151.2146114565255
 30
0.0
  0
POINT
  5
EEF7
330
D852
100
AcDbEntity
  8
Defpoints
 62
     0
100
AcDbPoint
 10
182.319454417174
 20
151.2146114565255
 30
0.0
  0
ENDBLK
  5
D85D
330
D852
100
AcDbEntity
  8
0
100
AcDbBlockEnd
  0
BLOCK
  5
D8D1
330
D8C7
100
AcDbEntity
  8
0
100
AcDbBlockBegin
  2
*D28
 70
     1
 10
0.0
 20
0.0
 30
0.0
  3
*D28
  1

  0
LINE
  5
EECC
330
D8C7
100
AcDbEntity
  8
AM_5
100
AcDbLine
 10
194.9194444171741
 20
265.1396364565254
 30
0.0
 11
181.319454417174
 21
265.1396364565254
 31
0.0
  0
LINE
  5
EECD
330
D8C7
100
AcDbEntity
  8
AM_5
100
AcDbLine
 10
194.9194444171741
 20
283.2896364565255
 30
0.0
 11
181.319454417174
 21
283.2896364565255
 31
0.0
  0
LINE
  5
EECE
330
D8C7
100
AcDbEntity
  8
AM_5
100
AcDbLine
 10
182.319454417174
 20
266.1396364565254
 30
0.0
 11
182.319454417174
 21
282.2896364565255
 31
0.0
  0
LINE
  5
EECF
330
D8C7
100
AcDbEntity
  8
AM_5
100
AcDbLine
 10
182.319454417174
 20
283.2896364565255
 30
0.0
 11
182.319454417174
 21
290.9163031231922
 31
0.0
  0
INSERT
  5
EED0
330
D8C7
100
AcDbEntity
  8
AM_5
100
AcDbBlockReference
  2
_Dot
 10
182.319454417174
 20
265.1396364565254
 30
0.0
 50
270.0
  0
INSERT
  5
EED1
330
D8C7
100
AcDbEntity
  8
AM_5
100
AcDbBlockReference
  2
_Dot
 10
182.319454417174
 20
283.2896364565255
 30
0.0
 50
90.0
  0
MTEXT
  5
EED2
330
D8C7
100
AcDbEntity
  8
AM_5
 62
     2
100
AcDbMText
 10
179.219454417174
 20
287.6029697898588
 30
0.0
 40
3.200000000000001
 41
0.0
 71
     5
 72
     1
  1
%%cC
 11
0.0000000000000001
 21
1.0
 31
0.0
 73
     1
 44
1.0
1001
ACAD
1000
MTEXTBEGIN
1070
    73
1070
     1
1070
    44
1040
1.0
1070
    74
1070
     0
1000
MTEXTEND
  0
POINT
  5
EED3
330
D8C7
100
AcDbEntity
  8
Defpoints
 62
     0
100
AcDbPoint
 10
195.9194444171741
 20
265.1396364565254
 30
0.0
  0
POINT
  5
EED4
330
D8C7
100
AcDbEntity
  8
Defpoints
 62
     0
100
AcDbPoint
 10
195.9194444171741
 20
283.2896364565255
 30
0.0
  0
POINT
  5
EED5
330
D8C7
100
AcDbEntity
  8
Defpoints
 62
     0
100
AcDbPoint
 10
182.319454417174
 20
283.2896364565255
 30
0.0
  0
ENDBLK
  5
D8D2
330
D8C7
100
AcDbEntity
  8
0
100
AcDbBlockEnd
  0
BLOCK
  5
D8FD
330
D8F3
100
AcDbEntity
  8
0
100
AcDbBlockBegin
  2
*D29
 70
     1
 10
0.0
 20
0.0
 30
0.0
  3
*D29
  1

  0
LINE
  5
EEDF
330
D8F3
100
AcDbEntity
  8
AM_5
100
AcDbLine
 10
192.984444417174
 20
357.3546664565254
 30
0.0
 11
161.319454417174
 21
357.3546664565254
 31
0.0
  0
LINE
  5
EEE0
330
D8F3
100
AcDbEntity
  8
AM_5
100
AcDbLine
 10
192.984444417174
 20
382.3546464565254
 30
0.0
 11
161.319454417174
 21
382.3546464565254
 31
0.0
  0
LINE
  5
EEE1
330
D8F3
100
AcDbEntity
  8
AM_5
100
AcDbLine
 10
162.319454417174
 20
358.3546664565254
 30
0.0
 11
162.319454417174
 21
381.3546464565254
 31
0.0
  0
INSERT
  5
EEE2
330
D8F3
100
AcDbEntity
  8
AM_5
100
AcDbBlockReference
  2
_Dot
 10
162.319454417174
 20
357.3546664565254
 30
0.0
 50
270.0
  0
INSERT
  5
EEE3
330
D8F3
100
AcDbEntity
  8
AM_5
100
AcDbBlockReference
  2
_Dot
 10
162.319454417174
 20
382.3546464565254
 30
0.0
 50
90.0
  0
MTEXT
  5
EEE4
330
D8F3
100
AcDbEntity
  8
AM_5
 62
     2
100
AcDbMText
 10
159.2194544171739
 20
369.8546564565253
 30
0.0
 40
3.200000000000001
 41
0.0
 71
     5
 72
     1
  1
25
 11
0.0000000000000001
 21
1.0
 31
0.0
 73
     1
 44
1.0
1001
ACAD
1000
MTEXTBEGIN
1070
    73
1070
     1
1070
    44
1040
1.0
1070
    74
1070
     0
1000
MTEXTEND
  0
POINT
  5
EEE5
330
D8F3
100
AcDbEntity
  8
Defpoints
 62
     0
100
AcDbPoint
 10
193.984444417174
 20
357.3546664565254
 30
0.0
  0
POINT
  5
EEE6
330
D8F3
100
AcDbEntity
  8
Defpoints
 62
     0
100
AcDbPoint
 10
193.984444417174
 20
382.3546464565254
 30
0.0
  0
POINT
  5
EEE7
330
D8F3
100
AcDbEntity
  8
Defpoints
 62
     0
100
AcDbPoint
 10
162.319454417174
 20
382.3546464565254
 30
0.0
  0
ENDBLK
  5
D8FE
330
D8F3
100
AcDbEntity
  8
0
100
AcDbBlockEnd
  0
BLOCK
  5
DFFE
330
DFF4
100
AcDbEntity
  8
0
100
AcDbBlockBegin
  2
*D30
 70
     1
 10
0.0
 20
0.0
 30
0.0
  3
*D30
  1

  0
LINE
  5
F1F9
330
DFF4
100
AcDbEntity
  8
AM_5
100
AcDbLine
 10
370.5664998817403
 20
204.4701643734579
 30
0.0
 11
370.5664998817403
 21
191.6128155194854
 31
0.0
  0
LINE
  5
F1FA
330
DFF4
100
AcDbEntity
  8
AM_5
100
AcDbLine
 10
421.6564998817402
 20
204.4701643734579
 30
0.0
 11
421.6564998817402
 21
191.6128155194854
 31
0.0
  0
LINE
  5
F1FB
330
DFF4
100
AcDbEntity
  8
AM_5
100
AcDbLine
 10
371.5664998817402
 20
192.6128155194854
 30
0.0
 11
420.6564998817401
 21
192.6128155194854
 31
0.0
  0
INSERT
  5
F1FC
330
DFF4
100
AcDbEntity
  8
AM_5
100
AcDbBlockReference
  2
_Dot
 10
370.5664998817403
 20
192.6128155194854
 30
0.0
 50
180.0
  0
INSERT
  5
F1FD
330
DFF4
100
AcDbEntity
  8
AM_5
100
AcDbBlockReference
  2
_Dot
 10
421.6564998817402
 20
192.6128155194854
 30
0.0
  0
MTEXT
  5
F1FE
330
DFF4
100
AcDbEntity
  8
AM_5
 62
     2
100
AcDbMText
 10
396.1114998817402
 20
195.7128155194854
 30
0.0
 40
3.200000000000001
 41
0.0
 71
     5
 72
     1
  1
W
 73
     1
 44
1.0
1001
ACAD
1000
MTEXTBEGIN
1070
    73
1070
     1
1070
    44
1040
1.0
1070
    74
1070
     0
1000
MTEXTEND
  0
POINT
  5
F1FF
330
DFF4
100
AcDbEntity
  8
Defpoints
 62
     0
100
AcDbPoint
 10
370.5664998817403
 20
205.4701643734579
 30
0.0
  0
POINT
  5
F200
330
DFF4
100
AcDbEntity
  8
Defpoints
 62
     0
100
AcDbPoint
 10
421.6564998817402
 20
205.4701643734579
 30
0.0
  0
POINT
  5
F201
330
DFF4
100
AcDbEntity
  8
Defpoints
 62
     0
100
AcDbPoint
 10
421.6564998817402
 20
192.6128155194854
 30
0.0
  0
ENDBLK
  5
DFFF
330
DFF4
100
AcDbEntity
  8
0
100
AcDbBlockEnd
  0
BLOCK
  5
E025
330
E01B
100
AcDbEntity
  8
0
100
AcDbBlockBegin
  2
*D31
 70
     1
 10
0.0
 20
0.0
 30
0.0
  3
*D31
  1

  0
LINE
  5
F202
330
E01B
100
AcDbEntity
  8
AM_5
100
AcDbLine
 10
422.65649988174
 20
205.4701643734579
 30
0.0
 11
447.1142882977293
 21
205.4701643734579
 31
0.0
  0
LINE
  5
F203
330
E01B
100
AcDbEntity
  8
AM_5
100
AcDbLine
 10
422.6565078817401
 20
377.0101843734579
 30
0.0
 11
447.1142882977293
 21
377.0101843734579
 31
0.0
  0
LINE
  5
F204
330
E01B
100
AcDbEntity
  8
AM_5
100
AcDbLine
 10
446.1142882977293
 20
206.4701643734579
 30
0.0
 11
446.1142882977293
 21
376.010184373458
 31
0.0
  0
INSERT
  5
F205
330
E01B
100
AcDbEntity
  8
AM_5
100
AcDbBlockReference
  2
_Dot
 10
446.1142882977293
 20
205.4701643734579
 30
0.0
 50
270.0
  0
INSERT
  5
F206
330
E01B
100
AcDbEntity
  8
AM_5
100
AcDbBlockReference
  2
_Dot
 10
446.1142882977293
 20
377.0101843734579
 30
0.0
 50
90.0
  0
MTEXT
  5
F207
330
E01B
100
AcDbEntity
  8
AM_5
 62
     2
100
AcDbMText
 10
443.0142882977293
 20
291.240174373458
 30
0.0
 40
3.200000000000001
 41
0.0
 71
     5
 72
     1
  1
H
 11
0.0000000000000001
 21
1.0
 31
0.0
 73
     1
 44
1.0
1001
ACAD
1000
MTEXTBEGIN
1070
    73
1070
     1
1070
    44
1040
1.0
1070
    74
1070
     0
1000
MTEXTEND
  0
POINT
  5
F208
330
E01B
100
AcDbEntity
  8
Defpoints
 62
     0
100
AcDbPoint
 10
421.6564998817402
 20
205.4701643734579
 30
0.0
  0
POINT
  5
F209
330
E01B
100
AcDbEntity
  8
Defpoints
 62
     0
100
AcDbPoint
 10
421.6565078817401
 20
377.0101843734579
 30
0.0
  0
POINT
  5
F20A
330
E01B
100
AcDbEntity
  8
Defpoints
 62
     0
100
AcDbPoint
 10
446.1142882977293
 20
377.0101843734579
 30
0.0
  0
ENDBLK
  5
E026
330
E01B
100
AcDbEntity
  8
0
100
AcDbBlockEnd
  0
BLOCK
  5
EDFC
330
EDF2
100
AcDbEntity
  8
0
100
AcDbBlockBegin
  2
*D32
 70
     1
 10
0.0
 20
0.0
 30
0.0
  3
*D32
  1

  0
LINE
  5
EEE8
330
EDF2
100
AcDbEntity
  8
AM_5
100
AcDbLine
 10
192.984444417174
 20
357.3546264565255
 30
0.0
 11
161.319454417174
 21
357.3546264565255
 31
0.0
  0
LINE
  5
EEE9
330
EDF2
100
AcDbEntity
  8
AM_5
100
AcDbLine
 10
194.984444417174
 20
326.3546464565255
 30
0.0
 11
161.319454417174
 21
326.3546464565255
 31
0.0
  0
LINE
  5
EEEA
330
EDF2
100
AcDbEntity
  8
AM_5
100
AcDbLine
 10
162.319454417174
 20
356.3546264565255
 30
0.0
 11
162.319454417174
 21
327.3546464565255
 31
0.0
  0
INSERT
  5
EEEB
330
EDF2
100
AcDbEntity
  8
AM_5
100
AcDbBlockReference
  2
_Dot
 10
162.319454417174
 20
357.3546264565255
 30
0.0
 50
90.0
  0
INSERT
  5
EEEC
330
EDF2
100
AcDbEntity
  8
AM_5
100
AcDbBlockReference
  2
_Dot
 10
162.319454417174
 20
326.3546464565255
 30
0.0
 50
270.0
  0
MTEXT
  5
EEED
330
EDF2
100
AcDbEntity
  8
AM_5
 62
     2
100
AcDbMText
 10
159.219454417174
 20
341.8546364565255
 30
0.0
 40
3.200000000000001
 41
0.0
 71
     5
 72
     1
  1
31
 11
0.0000000000000001
 21
1.0
 31
0.0
 73
     1
 44
1.0
1001
ACAD
1000
MTEXTBEGIN
1070
    73
1070
     1
1070
    44
1040
1.0
1070
    74
1070
     0
1000
MTEXTEND
  0
POINT
  5
EEEE
330
EDF2
100
AcDbEntity
  8
Defpoints
 62
     0
100
AcDbPoint
 10
193.984444417174
 20
357.3546264565255
 30
0.0
  0
POINT
  5
EEEF
330
EDF2
100
AcDbEntity
  8
Defpoints
 62
     0
100
AcDbPoint
 10
195.984444417174
 20
326.3546464565255
 30
0.0
  0
POINT
  5
EEF0
330
EDF2
100
AcDbEntity
  8
Defpoints
 62
     0
100
AcDbPoint
 10
162.319454417174
 20
326.3546464565255
 30
0.0
  0
ENDBLK
  5
EDFD
330
EDF2
100
AcDbEntity
  8
0
100
AcDbBlockEnd
  0
BLOCK
  5
EE6D
330
EE63
100
AcDbEntity
  8
0
100
AcDbBlockBegin
  2
*D33
 70
     1
 10
0.0
 20
0.0
 30
0.0
  3
*D33
  1

  0
LINE
  5
EE9B
330
EE63
100
AcDbEntity
  8
AM_5
100
AcDbLine
 10
188.428184417174
 20
274.2146364565254
 30
0.0
 11
171.319454417174
 21
274.2146364565254
 31
0.0
  0
LINE
  5
EE9C
330
EE63
100
AcDbEntity
  8
AM_5
100
AcDbLine
 10
204.6903944171741
 20
188.4146504565254
 30
0.0
 11
171.319454417174
 21
188.4146504565255
 31
0.0
  0
LINE
  5
EE9D
330
EE63
100
AcDbEntity
  8
AM_5
100
AcDbLine
 10
172.319454417174
 20
273.2146364565255
 30
0.0
 11
172.319454417174
 21
189.4146504565255
 31
0.0
  0
INSERT
  5
EE9E
330
EE63
100
AcDbEntity
  8
AM_5
100
AcDbBlockReference
  2
_Dot
 10
172.319454417174
 20
274.2146364565254
 30
0.0
 50
90.0
  0
INSERT
  5
EE9F
330
EE63
100
AcDbEntity
  8
AM_5
100
AcDbBlockReference
  2
_Dot
 10
172.319454417174
 20
188.4146504565255
 30
0.0
 50
270.0
  0
MTEXT
  5
EEA0
330
EE63
100
AcDbEntity
  8
AM_5
 62
     2
100
AcDbMText
 10
169.219454417174
 20
231.3146434565255
 30
0.0
 40
3.200000000000001
 41
0.0
 71
     5
 72
     1
  1
B
 11
0.0000000000000001
 21
1.0
 31
0.0
 73
     1
 44
1.0
1001
ACAD
1000
MTEXTBEGIN
1070
    73
1070
     1
1070
    44
1040
1.0
1070
    74
1070
     0
1000
MTEXTEND
  0
POINT
  5
EEA1
330
EE63
100
AcDbEntity
  8
Defpoints
 62
     0
100
AcDbPoint
 10
189.428184417174
 20
274.2146364565254
 30
0.0
  0
POINT
  5
EEA2
330
EE63
100
AcDbEntity
  8
Defpoints
 62
     0
100
AcDbPoint
 10
205.690394417174
 20
188.4146504565254
 30
0.0
  0
POINT
  5
EEA3
330
EE63
100
AcDbEntity
  8
Defpoints
 62
     0
100
AcDbPoint
 10
172.319454417174
 20
188.4146504565255
 30
0.0
  0
ENDBLK
  5
EE6E
330
EE63
100
AcDbEntity
  8
0
100
AcDbBlockEnd
  0
BLOCK
  5
EEAF
330
EEA5
100
AcDbEntity
  8
0
100
AcDbBlockBegin
  2
*D34
 70
     1
 10
0.0
 20
0.0
 30
0.0
  3
*D34
  1

  0
LINE
  5
EEBA
330
EEA5
100
AcDbEntity
  8
AM_5
100
AcDbLine
 10
188.428184417174
 20
274.2146364565254
 30
0.0
 11
171.3194544171741
 21
274.2146364565254
 31
0.0
  0
LINE
  5
EEBB
330
EEA5
100
AcDbEntity
  8
AM_5
100
AcDbLine
 10
194.984444417174
 20
326.3546464565255
 30
0.0
 11
171.3194544171741
 21
326.3546464565255
 31
0.0
  0
LINE
  5
EEBC
330
EEA5
100
AcDbEntity
  8
AM_5
100
AcDbLine
 10
172.3194544171741
 20
275.2146364565255
 30
0.0
 11
172.3194544171741
 21
325.3546464565255
 31
0.0
  0
INSERT
  5
EEBD
330
EEA5
100
AcDbEntity
  8
AM_5
100
AcDbBlockReference
  2
_Dot
 10
172.3194544171741
 20
274.2146364565254
 30
0.0
 50
270.0
  0
INSERT
  5
EEBE
330
EEA5
100
AcDbEntity
  8
AM_5
100
AcDbBlockReference
  2
_Dot
 10
172.3194544171741
 20
326.3546464565255
 30
0.0
 50
90.0
  0
MTEXT
  5
EEBF
330
EEA5
100
AcDbEntity
  8
AM_5
 62
     2
100
AcDbMText
 10
169.2194544171741
 20
300.2846414565255
 30
0.0
 40
3.200000000000001
 41
0.0
 71
     5
 72
     1
  1
A
 11
0.0000000000000001
 21
1.0
 31
0.0
 73
     1
 44
1.0
1001
ACAD
1000
MTEXTBEGIN
1070
    73
1070
     1
1070
    44
1040
1.0
1070
    74
1070
     0
1000
MTEXTEND
  0
POINT
  5
EEC0
330
EEA5
100
AcDbEntity
  8
Defpoints
 62
     0
100
AcDbPoint
 10
189.428184417174
 20
274.2146364565254
 30
0.0
  0
POINT
  5
EEC1
330
EEA5
100
AcDbEntity
  8
Defpoints
 62
     0
100
AcDbPoint
 10
195.984444417174
 20
326.3546464565255
 30
0.0
  0
POINT
  5
EEC2
330
EEA5
100
AcDbEntity
  8
Defpoints
 62
     0
100
AcDbPoint
 10
172.3194544171741
 20
326.3546464565255
 30
0.0
  0
ENDBLK
  5
EEB0
330
EEA5
100
AcDbEntity
  8
0
100
AcDbBlockEnd
  0
BLOCK
  5
EF1F
330
EF13
100
AcDbEntity
  8
0
100
AcDbBlockBegin
  2
*D35
 70
     1
 10
0.0
 20
0.0
 30
0.0
  3
*D35
  1

  0
LINE
  5
F1AF
330
EF13
100
AcDbEntity
  8
AM_5
100
AcDbLine
 10
452.3074184171742
 20
120.1951965340448
 30
0.0
 11
452.3074184171742
 21
148.8602032340444
 31
0.0
  0
LINE
  5
F1B0
330
EF13
100
AcDbEntity
  8
AM_5
100
AcDbLine
 10
456.3074114171741
 20
122.1951784340448
 30
0.0
 11
456.3074114171741
 21
148.8602032340444
 31
0.0
  0
LINE
  5
F1B1
330
EF13
100
AcDbEntity
  8
AM_5
100
AcDbLine
 10
451.3074184171741
 20
147.8602032340444
 30
0.0
 11
450.3074184171741
 21
147.8602032340444
 31
0.0
  0
LINE
  5
F1B2
330
EF13
100
AcDbEntity
  8
AM_5
100
AcDbLine
 10
457.3074114171742
 20
147.8602032340444
 30
0.0
 11
458.3074114171743
 21
147.8602032340444
 31
0.0
  0
LINE
  5
F1B3
330
EF13
100
AcDbEntity
  8
AM_5
100
AcDbLine
 10
452.3074184171742
 20
147.8602032340444
 30
0.0
 11
456.3074114171741
 21
147.8602032340444
 31
0.0
  0
INSERT
  5
F1B4
330
EF13
100
AcDbEntity
  8
AM_5
100
AcDbBlockReference
  2
_Dot
 10
452.3074184171742
 20
147.8602032340444
 30
0.0
  0
INSERT
  5
F1B5
330
EF13
100
AcDbEntity
  8
AM_5
100
AcDbBlockReference
  2
_Dot
 10
456.3074114171741
 20
147.8602032340444
 30
0.0
 50
180.0
  0
MTEXT
  5
F1B6
330
EF13
100
AcDbEntity
  8
AM_5
 62
     2
100
AcDbMText
 10
454.3074149171741
 20
150.9602032340444
 30
0.0
 40
3.200000000000001
 41
0.0
 71
     5
 72
     1
  1
4
 73
     1
 44
1.0
1001
ACAD
1000
MTEXTBEGIN
1070
    73
1070
     1
1070
    44
1040
1.0
1070
    74
1070
     0
1000
MTEXTEND
  0
POINT
  5
F1B7
330
EF13
100
AcDbEntity
  8
Defpoints
 62
     0
100
AcDbPoint
 10
452.3074184171742
 20
119.1951965340448
 30
0.0
  0
POINT
  5
F1B8
330
EF13
100
AcDbEntity
  8
Defpoints
 62
     0
100
AcDbPoint
 10
456.3074114171741
 20
121.1951784340448
 30
0.0
  0
POINT
  5
F1B9
330
EF13
100
AcDbEntity
  8
Defpoints
 62
     0
100
AcDbPoint
 10
456.3074114171741
 20
147.8602032340444
 30
0.0
  0
ENDBLK
  5
EF20
330
EF13
100
AcDbEntity
  8
0
100
AcDbBlockEnd
  0
BLOCK
  5
EF5F
330
EF55
100
AcDbEntity
  8
0
100
AcDbBlockBegin
  2
*D36
 70
     1
 10
0.0
 20
0.0
 30
0.0
  3
*D36
  1

  0
LINE
  5
F1BA
330
EF55
100
AcDbEntity
  8
AM_5
100
AcDbLine
 10
482.307420417174
 20
107.8601926340449
 30
0.0
 11
494.3074204171741
 21
107.8601926340449
 31
0.0
  0
LINE
  5
F1BB
330
EF55
100
AcDbEntity
  8
AM_5
100
AcDbLine
 10
480.6424104171742
 20
122.8601926340449
 30
0.0
 11
494.3074204171741
 21
122.8601926340449
 31
0.0
  0
LINE
  5
F1BC
330
EF55
100
AcDbEntity
  8
AM_5
100
AcDbLine
 10
493.307420417174
 20
108.8601926340449
 30
0.0
 11
493.307420417174
 21
121.8601926340449
 31
0.0
  0
INSERT
  5
F1BD
330
EF55
100
AcDbEntity
  8
AM_5
100
AcDbBlockReference
  2
_Dot
 10
493.307420417174
 20
107.8601926340449
 30
0.0
 50
270.0
  0
INSERT
  5
F1BE
330
EF55
100
AcDbEntity
  8
AM_5
100
AcDbBlockReference
  2
_Dot
 10
493.307420417174
 20
122.8601926340449
 30
0.0
 50
90.0
  0
MTEXT
  5
F1BF
330
EF55
100
AcDbEntity
  8
AM_5
 62
     2
100
AcDbMText
 10
490.2074204171739
 20
115.360192634045
 30
0.0
 40
3.200000000000001
 41
0.0
 71
     5
 72
     1
  1
15
 11
0.0000000000000001
 21
1.0
 31
0.0
 73
     1
 44
1.0
1001
ACAD
1000
MTEXTBEGIN
1070
    73
1070
     1
1070
    44
1040
1.0
1070
    74
1070
     0
1000
MTEXTEND
  0
POINT
  5
F1C0
330
EF55
100
AcDbEntity
  8
Defpoints
 62
     0
100
AcDbPoint
 10
481.307420417174
 20
107.8601926340449
 30
0.0
  0
POINT
  5
F1C1
330
EF55
100
AcDbEntity
  8
Defpoints
 62
     0
100
AcDbPoint
 10
479.6424104171741
 20
122.8601926340449
 30
0.0
  0
POINT
  5
F1C2
330
EF55
100
AcDbEntity
  8
Defpoints
 62
     0
100
AcDbPoint
 10
493.307420417174
 20
122.8601926340449
 30
0.0
  0
ENDBLK
  5
EF60
330
EF55
100
AcDbEntity
  8
0
100
AcDbBlockEnd
  0
BLOCK
  5
EF76
330
EF6B
100
AcDbEntity
  8
0
100
AcDbBlockBegin
  2
*D37
 70
     1
 10
0.0
 20
0.0
 30
0.0
  3
*D37
  1

  0
LINE
  5
F1C3
330
EF6B
100
AcDbEntity
  8
AM_5
100
AcDbLine
 10
369.8074126171742
 20
87.69675623404486
 30
0.0
 11
369.8074126171742
 21
78.26020523404486
 31
0.0
  0
LINE
  5
F1C4
330
EF6B
100
AcDbEntity
  8
AM_5
100
AcDbLine
 10
376.4074248171742
 20
90.26020623404486
 30
0.0
 11
376.4074248171742
 21
78.26020523404486
 31
0.0
  0
LINE
  5
F1C5
330
EF6B
100
AcDbEntity
  8
AM_5
100
AcDbLine
 10
370.8074126171742
 20
79.26020523404486
 30
0.0
 11
375.4074248171741
 21
79.26020523404486
 31
0.0
  0
INSERT
  5
F1C6
330
EF6B
100
AcDbEntity
  8
AM_5
100
AcDbBlockReference
  2
_Dot
 10
369.8074126171742
 20
79.26020523404486
 30
0.0
 50
180.0
  0
INSERT
  5
F1C7
330
EF6B
100
AcDbEntity
  8
AM_5
100
AcDbBlockReference
  2
_Dot
 10
376.4074248171742
 20
79.26020523404486
 30
0.0
  0
MTEXT
  5
F1C8
330
EF6B
100
AcDbEntity
  8
AM_5
 62
     2
100
AcDbMText
 10
373.1074187171742
 20
82.36020523404484
 30
0.0
 40
3.200000000000001
 41
0.0
 71
     5
 72
     1
  1
H
 73
     1
 44
1.0
1001
ACAD
1000
MTEXTBEGIN
1070
    73
1070
     1
1070
    44
1040
1.0
1070
    74
1070
     0
1000
MTEXTEND
  0
POINT
  5
F1C9
330
EF6B
100
AcDbEntity
  8
Defpoints
 62
     0
100
AcDbPoint
 10
369.8074126171742
 20
88.69675623404488
 30
0.0
  0
POINT
  5
F1CA
330
EF6B
100
AcDbEntity
  8
Defpoints
 62
     0
100
AcDbPoint
 10
376.4074248171742
 20
91.26020623404484
 30
0.0
  0
POINT
  5
F1CB
330
EF6B
100
AcDbEntity
  8
Defpoints
 62
     0
100
AcDbPoint
 10
376.4074248171742
 20
79.26020523404486
 30
0.0
  0
ENDBLK
  5
EF77
330
EF6B
100
AcDbEntity
  8
0
100
AcDbBlockEnd
  0
BLOCK
  5
EFB0
330
EFA5
100
AcDbEntity
  8
0
100
AcDbBlockBegin
  2
*D38
 70
     1
 10
0.0
 20
0.0
 30
0.0
  3
*D38
  1

  0
LINE
  5
F1CC
330
EFA5
100
AcDbEntity
  8
AM_5
100
AcDbLine
 10
422.6074334171739
 20
87.69675623404486
 30
0.0
 11
422.6074334171739
 21
78.2602052340448
 31
0.0
  0
LINE
  5
F1CD
330
EFA5
100
AcDbEntity
  8
AM_5
100
AcDbLine
 10
416.0074124171741
 20
90.26020623404486
 30
0.0
 11
416.0074124171741
 21
78.2602052340448
 31
0.0
  0
LINE
  5
F1CE
330
EFA5
100
AcDbEntity
  8
AM_5
100
AcDbLine
 10
421.6074334171739
 20
79.2602052340448
 30
0.0
 11
417.007412417174
 21
79.2602052340448
 31
0.0
  0
INSERT
  5
F1CF
330
EFA5
100
AcDbEntity
  8
AM_5
100
AcDbBlockReference
  2
_Dot
 10
422.6074334171739
 20
79.2602052340448
 30
0.0
  0
INSERT
  5
F1D0
330
EFA5
100
AcDbEntity
  8
AM_5
100
AcDbBlockReference
  2
_Dot
 10
416.0074124171741
 20
79.2602052340448
 30
0.0
 50
180.0
  0
MTEXT
  5
F1D1
330
EFA5
100
AcDbEntity
  8
AM_5
 62
     2
100
AcDbMText
 10
419.3074229171741
 20
82.3602052340448
 30
0.0
 40
3.200000000000001
 41
0.0
 71
     5
 72
     1
  1
I
 73
     1
 44
1.0
1001
ACAD
1000
MTEXTBEGIN
1070
    73
1070
     1
1070
    44
1040
1.0
1070
    74
1070
     0
1000
MTEXTEND
  0
POINT
  5
F1D2
330
EFA5
100
AcDbEntity
  8
Defpoints
 62
     0
100
AcDbPoint
 10
422.6074334171739
 20
88.69675623404488
 30
0.0
  0
POINT
  5
F1D3
330
EFA5
100
AcDbEntity
  8
Defpoints
 62
     0
100
AcDbPoint
 10
416.0074124171741
 20
91.26020623404484
 30
0.0
  0
POINT
  5
F1D4
330
EFA5
100
AcDbEntity
  8
Defpoints
 62
     0
100
AcDbPoint
 10
416.0074124171741
 20
79.2602052340448
 30
0.0
  0
ENDBLK
  5
EFB1
330
EFA5
100
AcDbEntity
  8
0
100
AcDbBlockEnd
  0
BLOCK
  5
EFD8
330
EFCE
100
AcDbEntity
  8
0
100
AcDbBlockBegin
  2
*D39
 70
     1
 10
0.0
 20
0.0
 30
0.0
  3
*D39
  1

  0
LINE
  5
F1D5
330
EFCE
100
AcDbEntity
  8
AM_5
100
AcDbLine
 10
422.6074334171739
 20
87.69675623404486
 30
0.0
 11
422.6074334171739
 21
68.26020523404451
 31
0.0
  0
LINE
  5
F1D6
330
EFCE
100
AcDbEntity
  8
AM_5
100
AcDbLine
 10
446.3074114171742
 20
91.86019323404492
 30
0.0
 11
446.3074114171742
 21
68.26020523404451
 31
0.0
  0
LINE
  5
F1D7
330
EFCE
100
AcDbEntity
  8
AM_5
100
AcDbLine
 10
423.6074334171741
 20
69.26020523404452
 30
0.0
 11
445.3074114171742
 21
69.26020523404452
 31
0.0
  0
INSERT
  5
F1D8
330
EFCE
100
AcDbEntity
  8
AM_5
100
AcDbBlockReference
  2
_Dot
 10
422.6074334171739
 20
69.26020523404452
 30
0.0
 50
180.0
  0
INSERT
  5
F1D9
330
EFCE
100
AcDbEntity
  8
AM_5
100
AcDbBlockReference
  2
_Dot
 10
446.3074114171742
 20
69.26020523404452
 30
0.0
  0
MTEXT
  5
F1DA
330
EFCE
100
AcDbEntity
  8
AM_5
 62
     2
100
AcDbMText
 10
434.4574224171741
 20
72.36020523404452
 30
0.0
 40
3.200000000000001
 41
0.0
 71
     5
 72
     1
  1
G
 73
     1
 44
1.0
1001
ACAD
1000
MTEXTBEGIN
1070
    73
1070
     1
1070
    44
1040
1.0
1070
    74
1070
     0
1000
MTEXTEND
  0
POINT
  5
F1DB
330
EFCE
100
AcDbEntity
  8
Defpoints
 62
     0
100
AcDbPoint
 10
422.6074334171739
 20
88.69675623404488
 30
0.0
  0
POINT
  5
F1DC
330
EFCE
100
AcDbEntity
  8
Defpoints
 62
     0
100
AcDbPoint
 10
446.3074114171742
 20
92.86019323404492
 30
0.0
  0
POINT
  5
F1DD
330
EFCE
100
AcDbEntity
  8
Defpoints
 62
     0
100
AcDbPoint
 10
446.3074114171742
 20
69.26020523404452
 30
0.0
  0
ENDBLK
  5
EFD9
330
EFCE
100
AcDbEntity
  8
0
100
AcDbBlockEnd
  0
BLOCK
  5
F051
330
F046
100
AcDbEntity
  8
0
100
AcDbBlockBegin
  2
*D40
 70
     1
 10
0.0
 20
0.0
 30
0.0
  3
*D40
  1

  0
LINE
  5
F1DE
330
F046
100
AcDbEntity
  8
AM_5
100
AcDbLine
 10
456.3074114171741
 20
93.46020323404479
 30
0.0
 11
456.3074114171741
 21
58.2602052340442
 31
0.0
  0
LINE
  5
F1DF
330
F046
100
AcDbEntity
  8
AM_5
100
AcDbLine
 10
446.3074114171742
 20
91.86019323404492
 30
0.0
 11
446.3074114171742
 21
58.2602052340442
 31
0.0
  0
LINE
  5
F1E0
330
F046
100
AcDbEntity
  8
AM_5
100
AcDbLine
 10
455.3074114171741
 20
59.26020523404419
 30
0.0
 11
447.3074114171741
 21
59.26020523404419
 31
0.0
  0
INSERT
  5
F1E1
330
F046
100
AcDbEntity
  8
AM_5
100
AcDbBlockReference
  2
_Dot
 10
456.3074114171741
 20
59.26020523404419
 30
0.0
  0
INSERT
  5
F1E2
330
F046
100
AcDbEntity
  8
AM_5
100
AcDbBlockReference
  2
_Dot
 10
446.3074114171742
 20
59.26020523404419
 30
0.0
 50
180.0
  0
MTEXT
  5
F1E3
330
F046
100
AcDbEntity
  8
AM_5
 62
     2
100
AcDbMText
 10
451.3074114171741
 20
62.3602052340442
 30
0.0
 40
3.200000000000001
 41
0.0
 71
     5
 72
     1
  1
10
 73
     1
 44
1.0
1001
ACAD
1000
MTEXTBEGIN
1070
    73
1070
     1
1070
    44
1040
1.0
1070
    74
1070
     0
1000
MTEXTEND
  0
POINT
  5
F1E4
330
F046
100
AcDbEntity
  8
Defpoints
 62
     0
100
AcDbPoint
 10
456.3074114171741
 20
94.4602032340448
 30
0.0
  0
POINT
  5
F1E5
330
F046
100
AcDbEntity
  8
Defpoints
 62
     0
100
AcDbPoint
 10
446.3074114171742
 20
92.86019323404492
 30
0.0
  0
POINT
  5
F1E6
330
F046
100
AcDbEntity
  8
Defpoints
 62
     0
100
AcDbPoint
 10
446.3074114171742
 20
59.26020523404419
 30
0.0
  0
ENDBLK
  5
F052
330
F046
100
AcDbEntity
  8
0
100
AcDbBlockEnd
  0
BLOCK
  5
F079
330
F06F
100
AcDbEntity
  8
0
100
AcDbBlockBegin
  2
*D41
 70
     1
 10
0.0
 20
0.0
 30
0.0
  3
*D41
  1

  0
LINE
  5
F1E7
330
F06F
100
AcDbEntity
  8
AM_5
100
AcDbLine
 10
446.3074114171742
 20
91.86019323404492
 30
0.0
 11
446.3074114171742
 21
58.26018423404376
 31
0.0
  0
LINE
  5
F1E8
330
F06F
100
AcDbEntity
  8
AM_5
100
AcDbLine
 10
346.1074224171742
 20
91.86019323404492
 30
0.0
 11
346.1074224171742
 21
58.26018423404376
 31
0.0
  0
LINE
  5
F1E9
330
F06F
100
AcDbEntity
  8
AM_5
100
AcDbLine
 10
445.3074114171742
 20
59.26018423404376
 30
0.0
 11
347.1074224171742
 21
59.26018423404376
 31
0.0
  0
INSERT
  5
F1EA
330
F06F
100
AcDbEntity
  8
AM_5
100
AcDbBlockReference
  2
_Dot
 10
446.3074114171742
 20
59.26018423404376
 30
0.0
  0
INSERT
  5
F1EB
330
F06F
100
AcDbEntity
  8
AM_5
100
AcDbBlockReference
  2
_Dot
 10
346.1074224171742
 20
59.26018423404376
 30
0.0
 50
180.0
  0
MTEXT
  5
F1EC
330
F06F
100
AcDbEntity
  8
AM_5
 62
     2
100
AcDbMText
 10
396.2074169171742
 20
62.36018423404376
 30
0.0
 40
3.200000000000001
 41
0.0
 71
     5
 72
     1
  1
W
 73
     1
 44
1.0
1001
ACAD
1000
MTEXTBEGIN
1070
    73
1070
     1
1070
    44
1040
1.0
1070
    74
1070
     0
1000
MTEXTEND
  0
POINT
  5
F1ED
330
F06F
100
AcDbEntity
  8
Defpoints
 62
     0
100
AcDbPoint
 10
446.3074114171742
 20
92.86019323404492
 30
0.0
  0
POINT
  5
F1EE
330
F06F
100
AcDbEntity
  8
Defpoints
 62
     0
100
AcDbPoint
 10
346.1074224171742
 20
92.86019323404492
 30
0.0
  0
POINT
  5
F1EF
330
F06F
100
AcDbEntity
  8
Defpoints
 62
     0
100
AcDbPoint
 10
346.1074224171742
 20
59.26018423404376
 30
0.0
  0
ENDBLK
  5
F07A
330
F06F
100
AcDbEntity
  8
0
100
AcDbBlockEnd
  0
BLOCK
  5
F0A0
330
F096
100
AcDbEntity
  8
0
100
AcDbBlockBegin
  2
*D42
 70
     1
 10
0.0
 20
0.0
 30
0.0
  3
*D42
  1

  0
LINE
  5
F1F0
330
F096
100
AcDbEntity
  8
AM_5
100
AcDbLine
 10
336.1074034171742
 20
93.46020323404479
 30
0.0
 11
336.1074034171742
 21
58.26018423404351
 31
0.0
  0
LINE
  5
F1F1
330
F096
100
AcDbEntity
  8
AM_5
100
AcDbLine
 10
346.1074224171742
 20
91.86019323404492
 30
0.0
 11
346.1074224171742
 21
58.26018423404351
 31
0.0
  0
LINE
  5
F1F2
330
F096
100
AcDbEntity
  8
AM_5
100
AcDbLine
 10
337.1074034171742
 20
59.2601842340435
 30
0.0
 11
345.1074224171742
 21
59.2601842340435
 31
0.0
  0
INSERT
  5
F1F3
330
F096
100
AcDbEntity
  8
AM_5
100
AcDbBlockReference
  2
_Dot
 10
336.1074034171742
 20
59.2601842340435
 30
0.0
 50
180.0
  0
INSERT
  5
F1F4
330
F096
100
AcDbEntity
  8
AM_5
100
AcDbBlockReference
  2
_Dot
 10
346.1074224171742
 20
59.2601842340435
 30
0.0
  0
MTEXT
  5
F1F5
330
F096
100
AcDbEntity
  8
AM_5
 62
     2
100
AcDbMText
 10
341.1074129171742
 20
62.36018423404352
 30
0.0
 40
3.200000000000001
 41
0.0
 71
     5
 72
     1
  1
10
 73
     1
 44
1.0
1001
ACAD
1000
MTEXTBEGIN
1070
    73
1070
     1
1070
    44
1040
1.0
1070
    74
1070
     0
1000
MTEXTEND
  0
POINT
  5
F1F6
330
F096
100
AcDbEntity
  8
Defpoints
 62
     0
100
AcDbPoint
 10
336.1074034171742
 20
94.4602032340448
 30
0.0
  0
POINT
  5
F1F7
330
F096
100
AcDbEntity
  8
Defpoints
 62
     0
100
AcDbPoint
 10
346.1074224171742
 20
92.86019323404492
 30
0.0
  0
POINT
  5
F1F8
330
F096
100
AcDbEntity
  8
Defpoints
 62
     0
100
AcDbPoint
 10
346.1074224171742
 20
59.2601842340435
 30
0.0
  0
ENDBLK
  5
F0A1
330
F096
100
AcDbEntity
  8
0
100
AcDbBlockEnd
  0
BLOCK
  5
F0E3
330
F0D9
100
AcDbEntity
  8
0
100
AcDbBlockBegin
  2
*D43
 70
     1
 10
0.0
 20
0.0
 30
0.0
  3
*D43
  1

  0
LINE
  5
F20B
330
F0D9
100
AcDbEntity
  8
AM_5
100
AcDbLine
 10
397.1115027817401
 20
358.200132673458
 30
0.0
 11
437.1142882977293
 21
358.200132673458
 31
0.0
  0
LINE
  5
F20C
330
F0D9
100
AcDbEntity
  8
AM_5
100
AcDbLine
 10
426.2648627625138
 20
196.8659536735313
 30
0.0
 11
437.1142882977293
 21
196.8659536735313
 31
0.0
  0
LINE
  5
F20D
330
F0D9
100
AcDbEntity
  8
AM_5
100
AcDbLine
 10
436.1142882977293
 20
357.200132673458
 30
0.0
 11
436.1142882977293
 21
197.8659536735313
 31
0.0
  0
INSERT
  5
F20E
330
F0D9
100
AcDbEntity
  8
AM_5
100
AcDbBlockReference
  2
_Dot
 10
436.1142882977293
 20
358.200132673458
 30
0.0
 50
90.0
  0
INSERT
  5
F20F
330
F0D9
100
AcDbEntity
  8
AM_5
100
AcDbBlockReference
  2
_Dot
 10
436.1142882977293
 20
196.8659536735313
 30
0.0
 50
270.0
  0
MTEXT
  5
F210
330
F0D9
100
AcDbEntity
  8
AM_5
 62
     2
100
AcDbMText
 10
433.0142882977293
 20
277.5330431734947
 30
0.0
 40
3.200000000000001
 41
0.0
 71
     5
 72
     1
  1
FL～1800程度以上
 11
0.0000000000000001
 21
1.0
 31
0.0
 73
     1
 44
1.0
1001
ACAD
1000
MTEXTBEGIN
1070
    73
1070
     1
1070
    44
1040
1.0
1070
    74
1070
     0
1000
MTEXTEND
  0
POINT
  5
F211
330
F0D9
100
AcDbEntity
  8
Defpoints
 62
     0
100
AcDbPoint
 10
396.1115027817401
 20
358.200132673458
 30
0.0
  0
POINT
  5
F212
330
F0D9
100
AcDbEntity
  8
Defpoints
 62
     0
100
AcDbPoint
 10
425.264862762514
 20
196.8659536735313
 30
0.0
  0
POINT
  5
F213
330
F0D9
100
AcDbEntity
  8
Defpoints
 62
     0
100
AcDbPoint
 10
436.1142882977293
 20
196.8659536735313
 30
0.0
  0
ENDBLK
  5
F0E4
330
F0D9
100
AcDbEntity
  8
0
100
AcDbBlockEnd
  0
BLOCK
  5
F2F5
330
F2EE
100
AcDbEntity
  8
0
100
AcDbBlockBegin
  2
*S4744
 70
     1
 10
0.0
 20
0.0
 30
0.0
  3
*S4744
  1

  0
LINE
  5
F2EF
330
F2EE
100
AcDbEntity
  8
AM_5
 62
     3
100
AcDbLine
 10
324.8380644950952
 20
338.3589873232301
 30
0.0
 11
360.6887311617618
 21
338.3589873232301
 31
0.0
  0
LINE
  5
F2F0
330
F2EE
100
AcDbEntity
  8
AM_5
 62
     3
100
AcDbLine
 10
360.6887311617618
 20
338.3589873232301
 30
0.0
 11
390.4174776023735
 21
359.1650872110342
 31
0.0
  0
LINE
  5
F2F1
330
F2EE
100
AcDbEntity
  8
AM_5
  6
Continuous
 62
     3
100
AcDbLine
 10
390.4174776023735
 20
359.1650872110342
 30
0.0
 11
392.0560455985127
 21
360.3118630923764
 31
0.0
  0
LINE
  5
F2F2
330
F2EE
100
AcDbEntity
  8
AM_5
  6
Continuous
 62
     3
100
AcDbLine
 10
390.7247552708907
 20
358.7260342437088
 30
0.0
 11
392.0560455985127
 21
360.3118630923764
 31
0.0
  0
LINE
  5
F2F3
330
F2EE
100
AcDbEntity
  8
AM_5
  6
Continuous
 62
     3
100
AcDbLine
 10
392.0560455985127
 20
360.3118630923764
 30
0.0
 11
390.1101999338563
 21
359.6041401783596
 31
0.0
  0
MTEXT
  5
F2F4
330
F2EE
100
AcDbEntity
  8
AM_5
 62
     2
100
AcDbMText
 10
324.8380644950952
 20
339.9589873232301
 30
0.0
 40
3.2
 41
0.0
 71
     7
 72
     5
  1
※給湯器種により\P　サイズ・位置が決まります。
 73
     1
 44
1.0
1001
ACAD
1000
MTEXTBEGIN
1070
    73
1070
     1
1070
    44
1040
1.0
1070
    74
1070
     0
1000
MTEXTEND
  0
ENDBLK
  5
F2F6
330
F2EE
100
AcDbEntity
  8
0
100
AcDbBlockEnd
  0
ENDSEC
  0
SECTION
  2
ENTITIES
  0
TEXT
  5
B5B3
330
1F
100
AcDbEntity
  8
AM_6
 60
     1
100
AcDbText
 10
408.4999999999998
 20
8.5
 30
0.0
 40
2.5
  1
!GENTITLE-INSERT
100
AcDbText
  0
TEXT
  5
B5B4
330
1F
100
AcDbEntity
  8
AM_6
 60
     1
100
AcDbText
 10
0.0
 20
0.0
 30
0.0
 40
2.5
  1
!GENTITLE-LL
100
AcDbText
  0
TEXT
  5
B5B5
330
1F
100
AcDbEntity
  8
AM_6
 60
     1
100
AcDbText
 10
420.0
 20
297.0
 30
0.0
 40
2.5
  1
!GENTITLE-RU
100
AcDbText
  0
TEXT
  5
B5B6
330
1F
100
AcDbEntity
  8
AM_6
 60
     1
100
AcDbText
 10
420.0
 20
297.0
 30
0.0
 40
2.5
  1
!GENTITLE-MAX
100
AcDbText
  0
TEXT
  5
B5BE
330
1F
100
AcDbEntity
  8
AM_6
 60
     1
100
AcDbText
 10
0.0
 20
0.0
 30
0.0
 40
2.5
  1
!GENTITLE-LL
100
AcDbText
  0
TEXT
  5
B5BF
330
1F
100
AcDbEntity
  8
AM_6
 60
     1
100
AcDbText
 10
408.4999999999998
 20
288.5
 30
0.0
 40
2.5
  1
!GENTITLE-RU
100
AcDbText
  0
TEXT
  5
B5C0
330
1F
100
AcDbEntity
  8
AM_6
 60
     1
100
AcDbText
 10
420.0
 20
297.0
 30
0.0
 40
2.5
  1
!GENTITLE-MAX
100
AcDbText
  0
TEXT
  5
B5C1
330
1F
100
AcDbEntity
  8
AM_6
 60
     1
100
AcDbText
 10
408.4999999999998
 20
8.5
 30
0.0
 40
2.5
  1
!GENTITLE-INSERT
100
AcDbText
  0
POINT
  5
BAC2
330
1F
100
AcDbEntity
  8
AM_0
100
AcDbPoint
 10
11.50000000000003
 20
411.5
 30
0.0
  0
LINE
  5
BAC7
330
1F
100
AcDbEntity
  8
AM_0
100
AcDbLine
 10
109.4999999999999
 20
411.5
 30
0.0
 11
109.5
 21
355.5000000000002
 31
0.0
  0
MTEXT
  5
BAC9
330
1F
100
AcDbEntity
  8
0文字
100
AcDbMText
 10
21.50000000000003
 20
407.5
 30
0.0
 40
3.2
 41
20.0
 71
     5
 72
     5
  1
品名
 73
     1
 44
1.0
1001
ACAD
1000
MTEXTBEGIN
1070
    73
1070
     1
1070
    44
1040
1.0
1070
    74
1070
     0
1000
MTEXTEND
1000
ACAD_MTEXT_DEFINED_HEIGHT_BEGIN
1070
    46
1040
8.000000000000012
1000
ACAD_MTEXT_DEFINED_HEIGHT_END
  0
MTEXT
  5
BACA
330
1F
100
AcDbEntity
  8
0文字
100
AcDbMText
 10
31.50000000000004
 20
407.5
 30
0.0
 40
3.2
 41
90.0
 71
     4
 72
     5
  1
　ガスチャンバードア
 73
     1
 44
1.0
1001
ACAD
1000
MTEXTBEGIN
1070
    73
1070
     1
1070
    44
1040
1.0
1070
    74
1070
     0
1000
MTEXTEND
1000
ACAD_MTEXT_DEFINED_HEIGHT_BEGIN
1070
    46
1040
8.000000000000012
1000
ACAD_MTEXT_DEFINED_HEIGHT_END
  0
MTEXT
  5
BACB
330
1F
100
AcDbEntity
  8
0文字
100
AcDbMText
 10
21.50000000000003
 20
399.5
 30
0.0
 40
3.2
 41
20.0
 71
     5
 72
     5
  1
品番
 73
     1
 44
1.0
1001
ACAD
1000
MTEXTBEGIN
1070
    73
1070
     1
1070
    44
1040
1.0
1070
    74
1070
     0
1000
MTEXTEND
1000
ACAD_MTEXT_DEFINED_HEIGHT_BEGIN
1070
    46
1040
8.000000000000012
1000
ACAD_MTEXT_DEFINED_HEIGHT_END
  0
MTEXT
  5
BACC
330
1F
100
AcDbEntity
  8
0文字
100
AcDbMText
 10
31.50000000000004
 20
399.5
 30
0.0
 40
3.2
 41
90.0
 71
     4
 72
     5
  1
　{\fMS PGothic|b0|i0|c128|p50; }  型
 73
     1
 44
1.0
1001
ACAD
1000
MTEXTBEGIN
1070
    73
1070
     1
1070
    44
1040
1.0
1070
    74
1070
     0
1000
MTEXTEND
1000
ACAD_MTEXT_DEFINED_HEIGHT_BEGIN
1070
    46
1040
8.000000000000012
1000
ACAD_MTEXT_DEFINED_HEIGHT_END
  0
MTEXT
  5
BACD
330
1F
100
AcDbEntity
  8
0文字
100
AcDbMText
 10
21.50000000000003
 20
391.5
 30
0.0
 40
3.2
 41
20.0
 71
     5
 72
     5
  1
材質
 73
     1
 44
1.0
1001
ACAD
1000
MTEXTBEGIN
1070
    73
1070
     1
1070
    44
1040
1.0
1070
    74
1070
     0
1000
MTEXTEND
1000
ACAD_MTEXT_DEFINED_HEIGHT_BEGIN
1070
    46
1040
8.000000000000012
1000
ACAD_MTEXT_DEFINED_HEIGHT_END
  0
MTEXT
  5
BACE
330
1F
100
AcDbEntity
  8
0文字
100
AcDbMText
 10
31.50000000000004
 20
391.5
 30
0.0
 40
3.2
 41
90.0
 71
     4
 72
     5
  1
　スチール
 73
     1
 44
1.0
1001
ACAD
1000
MTEXTBEGIN
1070
    73
1070
     1
1070
    44
1040
1.0
1070
    74
1070
     0
1000
MTEXTEND
1000
ACAD_MTEXT_DEFINED_HEIGHT_BEGIN
1070
    46
1040
8.000000000000012
1000
ACAD_MTEXT_DEFINED_HEIGHT_END
  0
MTEXT
  5
BACF
330
1F
100
AcDbEntity
  8
0文字
100
AcDbMText
 10
21.50000000000003
 20
383.4999999999998
 30
0.0
 40
3.2
 41
20.0
 71
     5
 72
     5
  1
仕上
 73
     1
 44
1.0
1001
ACAD
1000
MTEXTBEGIN
1070
    73
1070
     1
1070
    44
1040
1.0
1070
    74
1070
     0
1000
MTEXTEND
1000
ACAD_MTEXT_DEFINED_HEIGHT_BEGIN
1070
    46
1040
8.000000000000012
1000
ACAD_MTEXT_DEFINED_HEIGHT_END
  0
MTEXT
  5
BAD0
330
1F
100
AcDbEntity
  8
0文字
100
AcDbMText
 10
31.50000000000003
 20
383.4999999999998
 30
0.0
 40
3.2
 41
90.0
 71
     4
 72
     5
  1
　防錆塗装
 73
     1
 44
1.0
1001
ACAD
1000
MTEXTBEGIN
1070
    73
1070
     1
1070
    44
1040
1.0
1070
    74
1070
     0
1000
MTEXTEND
1000
ACAD_MTEXT_DEFINED_HEIGHT_BEGIN
1070
    46
1040
8.000000000000012
1000
ACAD_MTEXT_DEFINED_HEIGHT_END
  0
LINE
  5
BAD1
330
1F
100
AcDbEntity
  8
AM_0
100
AcDbLine
 10
11.50000000000003
 20
355.5000000000002
 30
0.0
 11
109.4999999999999
 21
355.5000000000002
 31
0.0
  0
MTEXT
  5
BAD3
330
1F
100
AcDbEntity
  8
0文字
100
AcDbMText
 10
21.50000000000004
 20
363.5000000000002
 30
0.0
 40
3.2
 41
19.99999999999997
 71
     5
 72
     5
  1
備考
 73
     1
 44
1.0
1001
ACAD
1000
MTEXTBEGIN
1070
    73
1070
     1
1070
    44
1040
1.0
1070
    74
1070
     0
1000
MTEXTEND
1000
ACAD_MTEXT_DEFINED_HEIGHT_BEGIN
1070
    46
1040
15.9999999999999
1000
ACAD_MTEXT_DEFINED_HEIGHT_END
  0
MTEXT
  5
BAD5
330
1F
100
AcDbEntity
  8
0文字
100
AcDbMText
 10
31.50000000000002
 20
367.5
 30
0.0
 40
3.2
 41
90.0
 71
     4
 72
     5
  1
　W×Hをご指示下さい
 73
     1
 44
1.0
1001
ACAD
1000
MTEXTBEGIN
1070
    73
1070
     1
1070
    44
1040
1.0
1070
    74
1070
     0
1000
MTEXTEND
1000
ACAD_MTEXT_DEFINED_HEIGHT_BEGIN
1070
    46
1040
8.000000000000012
1000
ACAD_MTEXT_DEFINED_HEIGHT_END
  0
MTEXT
  5
CA84
330
1F
100
AcDbEntity
  8
0文字
100
AcDbMText
 10
31.50000000000002
 20
359.5000000000002
 30
0.0
 40
3.2
 41
90.0
 71
     4
 72
     5
  1
　ｔ＝1.6
 73
     1
 44
1.0
1001
ACAD
1000
MTEXTBEGIN
1070
    73
1070
     1
1070
    44
1040
1.0
1070
    74
1070
     0
1000
MTEXTEND
1000
ACAD_MTEXT_DEFINED_HEIGHT_BEGIN
1070
    46
1040
8.000000000000012
1000
ACAD_MTEXT_DEFINED_HEIGHT_END
  0
TEXT
  5
CDA5
330
1F
100
AcDbEntity
  8
AM_6
 60
     1
100
AcDbText
 10
582.5
 20
8.5
 30
0.0
 40
2.5
  1
!GENTITLE-INSERT
100
AcDbText
  0
TEXT
  5
CDA6
330
1F
100
AcDbEntity
  8
AM_6
 60
     1
100
AcDbText
 10
594.0
 20
420.0
 30
0.0
 40
2.5
  1
!GENTITLE-MAX
100
AcDbText
  0
TEXT
  5
CDA7
330
1F
100
AcDbEntity
  8
AM_6
 60
     1
100
AcDbText
 10
594.0
 20
420.0
 30
0.0
 40
2.5
  1
!GENTITLE-RU
100
AcDbText
  0
TEXT
  5
CDA8
330
1F
100
AcDbEntity
  8
AM_6
 60
     1
100
AcDbText
 10
0.0
 20
0.0
 30
0.0
 40
2.5
  1
!GENTITLE-LL
100
AcDbText
  0
LINE
  5
CDA9
330
1F
100
AcDbEntity
  8
size
100
AcDbLine
 10
0.0000000000000426
 20
420.0
 30
0.0
 11
594.0
 21
420.0
 31
0.0
1001
GENIUS_GENREC_14
1002
{
1000
PYDIR
1011
0.0000000000000142
1021
297.0
1031
0.0
1002
}
1002
{
1000
PXDIR
1011
420.0
1021
0.0
1031
0.0
1002
}
1002
{
1000
PORI
1011
0.0
1021
0.0
1031
0.0
1002
}
1002
{
1000
PINS
1011
210.0
1021
148.5
1031
0.0
1002
}
1002
{
1000
HVAL
1000
297
1002
}
1002
{
1000
H
1070
     2
1002
}
1002
{
1000
WVAL
1000
420
1002
}
1002
{
1000
W
1070
     2
1002
}
1002
{
1000
C
1070
     4
1002
}
1001
GENIUS_GENOBJ-N-REC_13
1002
{
1000
OWNER
1000
GEN
1002
}
1001
GENIUS_GENODEF_13
1002
{
1000
HIER
1070
     0
1002
}
1002
{
1000
MANEDIT
1070
     0
1002
}
1002
{
1000
NOSEL
1070
     0
1002
}
1002
{
1000
BEHIND
1070
     0
1002
}
1002
{
1000
OTHER
1070
     0
1002
}
1002
{
1000
REACTOR
1002
}
  0
LINE
  5
CDAA
330
1F
100
AcDbEntity
  8
size
100
AcDbLine
 10
594.0
 20
420.0
 30
0.0
 11
594.0
 21
0.0
 31
0.0
1001
GENIUS_GENREC_14
1002
{
1000
PYDIR
1011
0.0000000000000142
1021
297.0
1031
0.0
1002
}
1002
{
1000
PXDIR
1011
420.0
1021
0.0
1031
0.0
1002
}
1002
{
1000
PORI
1011
0.0
1021
0.0
1031
0.0
1002
}
1002
{
1000
PINS
1011
210.0
1021
148.5
1031
0.0
1002
}
1002
{
1000
HVAL
1000
297
1002
}
1002
{
1000
H
1070
     2
1002
}
1002
{
1000
WVAL
1000
420
1002
}
1002
{
1000
W
1070
     2
1002
}
1002
{
1000
C
1070
     4
1002
}
1001
GENIUS_GENOBJ-N-REC_13
1002
{
1000
OWNER
1000
GEN
1002
}
1001
GENIUS_GENODEF_13
1002
{
1000
HIER
1070
     0
1002
}
1002
{
1000
MANEDIT
1070
     0
1002
}
1002
{
1000
NOSEL
1070
     0
1002
}
1002
{
1000
BEHIND
1070
     0
1002
}
1002
{
1000
OTHER
1070
     0
1002
}
1002
{
1000
REACTOR
1002
}
  0
LINE
  5
CDAB
330
1F
100
AcDbEntity
  8
waku
100
AcDbLine
 10
11.5
 20
8.5
 30
0.0
 11
582.5
 21
8.5
 31
0.0
1001
GENIUS_GENREC_14
1002
{
1000
PYDIR
1011
0.0000000000000142
1021
297.0
1031
0.0
1002
}
1002
{
1000
PXDIR
1011
420.0
1021
0.0
1031
0.0
1002
}
1002
{
1000
PORI
1011
0.0
1021
0.0
1031
0.0
1002
}
1002
{
1000
PINS
1011
210.0
1021
148.5
1031
0.0
1002
}
1002
{
1000
HVAL
1000
297
1002
}
1002
{
1000
H
1070
     2
1002
}
1002
{
1000
WVAL
1000
420
1002
}
1002
{
1000
W
1070
     2
1002
}
1002
{
1000
C
1070
     4
1002
}
  0
LINE
  5
CDAC
330
1F
100
AcDbEntity
  8
waku
100
AcDbLine
 10
582.5
 20
411.5
 30
0.0
 11
11.50000000000003
 21
411.5
 31
0.0
1001
GENIUS_GENREC_14
1002
{
1000
PYDIR
1011
174.0
1021
420.0
1031
0.0
1002
}
1002
{
1000
PXDIR
1011
594.0
1021
123.0
1031
0.0
1002
}
1002
{
1000
PORI
1011
174.0
1021
123.0
1031
0.0
1002
}
1002
{
1000
PINS
1011
384.0
1021
271.5
1031
0.0
1002
}
1002
{
1000
HVAL
1000
297
1002
}
1002
{
1000
H
1070
     2
1002
}
1002
{
1000
WVAL
1000
420
1002
}
1002
{
1000
W
1070
     2
1002
}
1002
{
1000
C
1070
     4
1002
}
1001
GENIUS_GENOBJ-N-REC_13
1002
{
1000
OWNER
1000
GEN
1002
}
1001
GENIUS_GENODEF_13
1002
{
1000
HIER
1070
     0
1002
}
1002
{
1000
MANEDIT
1070
     0
1002
}
1002
{
1000
NOSEL
1070
     0
1002
}
1002
{
1000
BEHIND
1070
     0
1002
}
1002
{
1000
OTHER
1070
     0
1002
}
1002
{
1000
REACTOR
1002
}
  0
LINE
  5
CDAD
330
1F
100
AcDbEntity
  8
waku
100
AcDbLine
 10
11.50000000000003
 20
411.5
 30
0.0
 11
11.5
 21
8.5
 31
0.0
1001
GENIUS_GENREC_14
1002
{
1000
PYDIR
1011
0.0000000000000142
1021
297.0
1031
0.0
1002
}
1002
{
1000
PXDIR
1011
420.0
1021
0.0
1031
0.0
1002
}
1002
{
1000
PORI
1011
0.0
1021
0.0
1031
0.0
1002
}
1002
{
1000
PINS
1011
210.0
1021
148.5
1031
0.0
1002
}
1002
{
1000
HVAL
1000
297
1002
}
1002
{
1000
H
1070
     2
1002
}
1002
{
1000
WVAL
1000
420
1002
}
1002
{
1000
W
1070
     2
1002
}
1002
{
1000
C
1070
     4
1002
}
1001
GENIUS_GENOBJ-N-REC_13
1002
{
1000
OWNER
1000
GEN
1002
}
1001
GENIUS_GENODEF_13
1002
{
1000
HIER
1070
     0
1002
}
1002
{
1000
MANEDIT
1070
     0
1002
}
1002
{
1000
NOSEL
1070
     0
1002
}
1002
{
1000
BEHIND
1070
     0
1002
}
1002
{
1000
OTHER
1070
     0
1002
}
1002
{
1000
REACTOR
1002
}
  0
LINE
  5
CDAE
330
1F
100
AcDbEntity
  8
waku
100
AcDbLine
 10
582.5
 20
8.5
 30
0.0
 11
582.5
 21
411.5
 31
0.0
1001
GENIUS_GENREC_14
1002
{
1000
PYDIR
1011
174.0
1021
420.0
1031
0.0
1002
}
1002
{
1000
PXDIR
1011
594.0
1021
123.0
1031
0.0
1002
}
1002
{
1000
PORI
1011
174.0
1021
123.0
1031
0.0
1002
}
1002
{
1000
PINS
1011
384.0
1021
271.5
1031
0.0
1002
}
1002
{
1000
HVAL
1000
297
1002
}
1002
{
1000
H
1070
     2
1002
}
1002
{
1000
WVAL
1000
420
1002
}
1002
{
1000
W
1070
     2
1002
}
1002
{
1000
C
1070
     4
1002
}
1001
GENIUS_GENOBJ-N-REC_13
1002
{
1000
OWNER
1000
GEN
1002
}
1001
GENIUS_GENODEF_13
1002
{
1000
HIER
1070
     0
1002
}
1002
{
1000
MANEDIT
1070
     0
1002
}
1002
{
1000
NOSEL
1070
     0
1002
}
1002
{
1000
BEHIND
1070
     0
1002
}
1002
{
1000
OTHER
1070
     0
1002
}
1002
{
1000
REACTOR
1002
}
  0
LINE
  5
CDAF
330
1F
100
AcDbEntity
  8
size
100
AcDbLine
 10
0.0000000000000426
 20
420.0
 30
0.0
 11
0.0
 21
0.0
 31
0.0
1001
GENIUS_GENREC_14
1002
{
1000
PYDIR
1011
0.0000000000000142
1021
297.0
1031
0.0
1002
}
1002
{
1000
PXDIR
1011
420.0
1021
0.0
1031
0.0
1002
}
1002
{
1000
PORI
1011
0.0
1021
0.0
1031
0.0
1002
}
1002
{
1000
PINS
1011
210.0
1021
148.5
1031
0.0
1002
}
1002
{
1000
HVAL
1000
297
1002
}
1002
{
1000
H
1070
     2
1002
}
1002
{
1000
WVAL
1000
420
1002
}
1002
{
1000
W
1070
     2
1002
}
1002
{
1000
C
1070
     4
1002
}
1001
GENIUS_GENOBJ-N-REC_13
1002
{
1000
OWNER
1000
GEN
1002
}
1001
GENIUS_GENODEF_13
1002
{
1000
HIER
1070
     0
1002
}
1002
{
1000
MANEDIT
1070
     0
1002
}
1002
{
1000
NOSEL
1070
     0
1002
}
1002
{
1000
BEHIND
1070
     0
1002
}
1002
{
1000
OTHER
1070
     0
1002
}
1002
{
1000
REACTOR
1002
}
  0
LINE
  5
CDB0
330
1F
100
AcDbEntity
  8
size
100
AcDbLine
 10
0.0
 20
0.0
 30
0.0
 11
594.0
 21
0.0
 31
0.0
1001
GENIUS_GENREC_14
1002
{
1000
PYDIR
1011
0.0000000000000142
1021
297.0
1031
0.0
1002
}
1002
{
1000
PXDIR
1011
420.0
1021
0.0
1031
0.0
1002
}
1002
{
1000
PORI
1011
0.0
1021
0.0
1031
0.0
1002
}
1002
{
1000
PINS
1011
210.0
1021
148.5
1031
0.0
1002
}
1002
{
1000
HVAL
1000
297
1002
}
1002
{
1000
H
1070
     2
1002
}
1002
{
1000
WVAL
1000
420
1002
}
1002
{
1000
W
1070
     2
1002
}
1002
{
1000
C
1070
     4
1002
}
1001
GENIUS_GENOBJ-N-REC_13
1002
{
1000
OWNER
1000
GEN
1002
}
1001
GENIUS_GENODEF_13
1002
{
1000
HIER
1070
     0
1002
}
1002
{
1000
MANEDIT
1070
     0
1002
}
1002
{
1000
NOSEL
1070
     0
1002
}
1002
{
1000
BEHIND
1070
     0
1002
}
1002
{
1000
OTHER
1070
     0
1002
}
1002
{
1000
REACTOR
1002
}
  0
TEXT
  5
CFEE
330
1F
100
AcDbEntity
  8
AM_6
100
AcDbText
 10
336.2081265537586
 20
375.7207807614122
 30
0.0
 40
4.0
  1
外観図
 41
0.8553571699999999
100
AcDbText
  0
DIMENSION
  5
D3D2
330
1F
100
AcDbEntity
  8
AM_5
100
AcDbDimension
  2
*D5
 10
481.3074104171739
 20
147.8602032340446
 30
0.0
 11
468.807415417174
 21
150.9602032340445
 31
0.0
 70
    32
 71
     5
 42
24.9999899999998
  3
SYS$0
100
AcDbAlignedDimension
 13
456.3074204171742
 23
121.1951790152395
 33
0.0
 14
481.3074104171739
 24
121.1951775622527
 34
0.0
100
AcDbRotatedDimension
  0
DIMENSION
  5
D448
330
1F
100
AcDbEntity
  8
AM_5
100
AcDbDimension
  2
*D6
 10
365.1074261171741
 20
132.8601987340446
 30
0.0
 11
352.6074242671742
 21
135.9601987340446
 31
0.0
 70
    32
 71
     5
 42
25.00000369999998
  3
SYS$0
100
AcDbAlignedDimension
 13
340.1074224171741
 23
119.1951725340448
 33
0.0
 14
365.1074261171741
 24
120.8601734340448
 34
0.0
100
AcDbRotatedDimension
  0
DIMENSION
  5
D45E
330
1F
100
AcDbEntity
  8
AM_5
100
AcDbDimension
  2
*D7
 10
336.1074254171739
 20
147.8602032340446
 30
0.0
 11
338.107423917174
 21
147.8602032340446
 31
0.0
 70
   160
 71
     5
 42
3.999997000000178
  3
SYS$0
100
AcDbAlignedDimension
 13
340.1074224171741
 23
119.1951725340448
 33
0.0
 14
336.1074254171739
 24
121.1951795528501
 34
0.0
100
AcDbRotatedDimension
  0
DIMENSION
  5
D478
330
1F
100
AcDbEntity
  8
AM_5
100
AcDbDimension
  2
*D8
 10
311.107434417174
 20
147.8602032340448
 30
0.0
 11
323.607429917174
 21
150.9602032340447
 31
0.0
 70
    32
 71
     5
 42
24.99999099999991
  3
SYS$0
100
AcDbAlignedDimension
 13
336.1074254171739
 23
121.1951795528501
 33
0.0
 14
311.107434417174
 24
121.1951801340448
 34
0.0
100
AcDbRotatedDimension
  0
DIMENSION
  5
D4D1
330
1F
100
AcDbEntity
  8
AM_5
100
AcDbDimension
  2
*D9
 10
452.3074184171742
 20
147.8602032340446
 30
0.0
 11
396.2074204171742
 21
150.9602032340446
 31
0.0
 70
    32
  1
DW
 71
     5
 42
112.199996
  3
SYS$0
100
AcDbAlignedDimension
 13
340.1074224171741
 23
119.1951725340448
 33
0.0
 14
452.3074184171742
 24
119.1951965340448
 34
0.0
100
AcDbRotatedDimension
  0
DIMENSION
  5
D5C6
330
1F
100
AcDbEntity
  8
AM_5
100
AcDbDimension
  2
*D10
 10
369.8074126171742
 20
69.26018423404423
 30
0.0
 11
396.2074230171742
 21
72.36018423404424
 31
0.0
 70
    32
  1
ボックス取付ピッチ
 71
     5
 42
52.80002079999984
  3
SYS$0
100
AcDbAlignedDimension
 13
422.6074334171739
 23
88.69675623404488
 33
0.0
 14
369.8074126171742
 24
88.69675623404488
 34
0.0
 50
0.0000000000002036
100
AcDbRotatedDimension
  0
DIMENSION
  5
D5E5
330
1F
100
AcDbEntity
  8
AM_5
100
AcDbDimension
  2
*D11
 10
346.1074224171742
 20
69.26018423404397
 30
0.0
 11
357.9574175171742
 21
72.36018423404397
 31
0.0
 70
    32
  1
F
 71
     5
 42
23.6999902
  3
SYS$0
100
AcDbAlignedDimension
 13
369.8074126171742
 23
88.69675623404488
 33
0.0
 14
346.1074224171742
 24
92.86019323404492
 34
0.0
 50
0.0000000000002036
100
AcDbRotatedDimension
  0
DIMENSION
  5
D5FB
330
1F
100
AcDbEntity
  8
AM_5
100
AcDbDimension
  2
*D12
 10
250.4194544171742
 20
96.1996143565255
 30
0.0
 11
247.3194544171742
 21
101.1996142065255
 31
0.0
 70
    32
 71
     5
 42
9.999999700000003
  3
SYS$0
100
AcDbAlignedDimension
 13
223.9194444171741
 23
106.1996140565255
 33
0.0
 14
222.319454417174
 24
96.19961435652552
 34
0.0
 50
90.00000000000005
100
AcDbRotatedDimension
  0
DIMENSION
  5
D611
330
1F
100
AcDbEntity
  8
AM_5
100
AcDbDimension
  2
*D13
 10
250.4194544171743
 20
348.9546164565254
 30
0.0
 11
247.3194544171742
 21
227.5771152565255
 31
0.0
 70
    32
  1
H
 71
     5
 42
242.7550023999999
  3
SYS$0
100
AcDbAlignedDimension
 13
223.9194444171741
 23
106.1996140565255
 33
0.0
 14
223.9194444171741
 24
348.9546164565254
 34
0.0
 50
90.00000000000005
100
AcDbRotatedDimension
  0
DIMENSION
  5
D627
330
1F
100
AcDbEntity
  8
AM_5
100
AcDbDimension
  2
*D14
 10
250.4194544171744
 20
358.9546564565254
 30
0.0
 11
250.4194544171744
 21
354.043016616236
 31
0.0
 70
   160
 71
     5
 42
10.00004000000001
  3
SYS$0
100
AcDbAlignedDimension
 13
223.9194444171741
 23
348.9546164565254
 33
0.0
 14
225.5194544171741
 24
358.9546564565254
 34
0.0
 50
90.0
100
AcDbRotatedDimension
1001
ACAD
1000
DSTYLE
1002
{
1070
   271
1070
     1
1002
}
  0
DIMENSION
  5
D67E
330
1F
100
AcDbEntity
  8
AM_5
100
AcDbDimension
  2
*D15
 10
240.4194544171744
 20
336.5146564565254
 30
0.0
 11
240.4194544171743
 21
345.7747451641649
 31
0.0
 70
   160
  1
D
 71
     5
 42
22.44000000000005
  3
SYS$0
100
AcDbAlignedDimension
 13
225.5194544171741
 23
358.9546564565254
 33
0.0
 14
228.719444417174
 24
336.5146564565254
 34
0.0
 50
90.0
100
AcDbRotatedDimension
  0
DIMENSION
  5
D69E
330
1F
100
AcDbEntity
  8
AM_5
100
AcDbDimension
  2
*D16
 10
240.4194544171741
 20
306.4846464565254
 30
0.0
 11
237.3194544171741
 21
321.4996514565255
 31
0.0
 70
    32
  1
E
 71
     5
 42
30.03000999999995
  3
SYS$0
100
AcDbAlignedDimension
 13
228.719444417174
 23
336.5146564565254
 33
0.0
 14
228.719444417174
 24
306.4846464565254
 34
0.0
 50
90.00000000000005
100
AcDbRotatedDimension
  0
DIMENSION
  5
D6B4
330
1F
100
AcDbEntity
  8
AM_5
100
AcDbDimension
  2
*D17
 10
240.4194544171741
 20
225.6346564565255
 30
0.0
 11
237.3194544171741
 21
266.0596514565255
 31
0.0
 70
    32
  1
給湯器取付ボックス取付ピッチ
 71
     5
 42
80.84998999999994
  3
SYS$0
100
AcDbAlignedDimension
 13
228.719444417174
 23
306.4846464565254
 33
0.0
 14
228.719444417174
 24
225.6346564565255
 34
0.0
 50
90.00000000000005
100
AcDbRotatedDimension
  0
DIMENSION
  5
D6F8
330
1F
100
AcDbEntity
  8
AM_5
100
AcDbDimension
  2
*D18
 10
192.319454417174
 20
59.19960845652551
 30
0.0
 11
199.819459417174
 21
62.2996084565255
 31
0.0
 70
    32
 71
     5
 42
15.00000999999997
  3
SYS$0
100
AcDbAlignedDimension
 13
207.319464417174
 23
71.19960845652551
 33
0.0
 14
192.319454417174
 24
72.8646224565255
 34
0.0
 50
0.0000000000001132
100
AcDbRotatedDimension
  0
DIMENSION
  5
D70E
330
1F
100
AcDbEntity
  8
AM_5
100
AcDbDimension
  2
*D19
 10
182.319454417174
 20
126.1996144565255
 30
0.0
 11
179.219454417174
 21
113.6996211565255
 31
0.0
 70
    32
 71
     5
 42
24.99998660000001
  3
SYS$0
100
AcDbAlignedDimension
 13
195.9844544171741
 23
101.1996278565255
 33
0.0
 14
194.319454417174
 24
126.1996144565255
 34
0.0
 50
90.00000000000005
100
AcDbRotatedDimension
  0
DIMENSION
  5
D778
330
1F
100
AcDbEntity
  8
AM_5
100
AcDbDimension
  2
*D20
 10
222.319464417174
 20
245.2196851436166
 30
0.0
 11
228.7004886320533
 21
245.2196851436166
 31
0.0
 70
   160
 71
     5
 42
3.000009999999973
  3
SYS$0
100
AcDbAlignedDimension
 13
219.319454417174
 23
179.4871159565255
 33
0.0
 14
222.319464417174
 24
179.4871159565255
 34
0.0
 50
0.0000000000001132
100
AcDbRotatedDimension
1001
ACAD
1000
DSTYLE
1002
{
1070
    75
1070
     1
1070
    76
1070
     1
1002
}
  0
DIMENSION
  5
D792
330
1F
100
AcDbEntity
  8
AM_5
100
AcDbDimension
  2
*D21
 10
192.319454417174
 20
245.2196851436168
 30
0.0
 11
188.0727877505073
 21
248.3196851436167
 31
0.0
 70
    32
 71
     5
 42
2.0
  3
SYS$0
100
AcDbAlignedDimension
 13
194.319454417174
 23
179.4871159565255
 33
0.0
 14
192.319454417174
 24
179.4871159565255
 34
0.0
 50
0.0000000000001132
100
AcDbRotatedDimension
1001
ACAD
1000
DSTYLE
1002
{
1070
    75
1070
     1
1070
    76
1070
     1
1002
}
  0
DIMENSION
  5
D7AC
330
1F
100
AcDbEntity
  8
AM_5
100
AcDbDimension
  2
*D22
 10
219.319454417174
 20
245.2196851436166
 30
0.0
 11
206.819454417174
 21
248.3196851436165
 31
0.0
 70
    32
 71
     5
 42
25.0
  3
SYS$0
100
AcDbAlignedDimension
 13
194.319454417174
 23
179.4871159565255
 33
0.0
 14
219.319454417174
 24
179.4871159565255
 34
0.0
 50
0.0000000000001132
100
AcDbRotatedDimension
1001
ACAD
1000
DSTYLE
1002
{
1070
    75
1070
     1
1070
    76
1070
     1
1002
}
  0
DIMENSION
  5
D7C2
330
1F
100
AcDbEntity
  8
AM_5
100
AcDbDimension
  2
*D23
 10
192.319454417174
 20
236.3949803825631
 30
0.0
 11
207.319459417174
 21
239.494980382563
 31
0.0
 70
    32
 71
     5
 42
30.00000999999997
  3
SYS$0
100
AcDbAlignedDimension
 13
222.319464417174
 23
162.119928833848
 33
0.0
 14
192.319454417174
 24
162.0667179239181
 34
0.0
100
AcDbRotatedDimension
1001
ACAD
1000
DSTYLE
1002
{
1070
    75
1070
     1
1070
    76
1070
     1
1002
}
  0
DIMENSION
  5
D7EA
330
1F
100
AcDbEntity
  8
AM_5
100
AcDbDimension
  2
*D24
 10
162.319454417174
 20
96.19961435652552
 30
0.0
 11
159.219454417174
 21
98.69961430652551
 31
0.0
 70
    32
 71
     5
 42
4.99999989999999
  3
SYS$0
100
AcDbAlignedDimension
 13
195.984444417174
 23
101.1996142565255
 33
0.0
 14
193.984444417174
 24
96.19961435652552
 34
0.0
 50
90.00000000000005
100
AcDbRotatedDimension
  0
DIMENSION
  5
D804
330
1F
100
AcDbEntity
  8
AM_5
100
AcDbDimension
  2
*D25
 10
162.319454417174
 20
71.19962745652552
 30
0.0
 11
159.219454417174
 21
83.69962685652554
 31
0.0
 70
    32
 71
     5
 42
24.9999988
  3
SYS$0
100
AcDbAlignedDimension
 13
193.9844544171741
 23
96.19962625652553
 33
0.0
 14
193.984444417174
 24
71.19962745652552
 34
0.0
 50
90.00000000000005
100
AcDbRotatedDimension
  0
DIMENSION
  5
D81A
330
1F
100
AcDbEntity
  8
AM_5
100
AcDbDimension
  2
*D26
 10
162.3194544171741
 20
326.3546364565254
 30
0.0
 11
159.219454417174
 21
213.7771321565255
 31
0.0
 70
    32
  1
DH
 71
     5
 42
225.1550085999999
  3
SYS$0
100
AcDbAlignedDimension
 13
195.9844544171741
 23
101.1996278565255
 33
0.0
 14
195.9844644171741
 24
326.3546364565254
 34
0.0
 50
90.00000000000005
100
AcDbRotatedDimension
  0
DIMENSION
  5
D851
330
1F
100
AcDbEntity
  8
AM_5
100
AcDbDimension
  2
*D27
 10
182.319454417174
 20
151.2146114565255
 30
0.0
 11
179.2194544171739
 21
139.2071109565255
 31
0.0
 70
    32
  1
33
 71
     5
 42
25.01500100000003
  3
SYS$0
100
AcDbAlignedDimension
 13
194.319454417174
 23
126.1996104565255
 33
0.0
 14
194.319454417174
 24
151.2146114565255
 34
0.0
 50
90.0
100
AcDbRotatedDimension
1001
ACAD
1000
DSTYLE
1002
{
1070
    76
1070
     1
1070
   173
1070
     1
1070
   342
1005
0
1070
   343
1005
6C4
1070
   344
1005
C3FD
1002
}
  0
DIMENSION
  5
D8C6
330
1F
100
AcDbEntity
  8
AM_5
100
AcDbDimension
  2
*D28
 10
182.319454417174
 20
283.2896364565255
 30
0.0
 11
182.319454417174
 21
287.6029697898588
 31
0.0
 70
   160
  1
%%cC
 71
     5
 42
18.15000000000009
  3
SYS$0
100
AcDbAlignedDimension
 13
195.9194444171741
 23
265.1396364565254
 33
0.0
 14
195.9194444171741
 24
283.2896364565255
 34
0.0
 50
90.00000000000005
100
AcDbRotatedDimension
  0
DIMENSION
  5
D8F2
330
1F
100
AcDbEntity
  8
AM_5
100
AcDbDimension
  2
*D29
 10
162.319454417174
 20
382.3546464565254
 30
0.0
 11
159.2194544171739
 21
369.8546564565253
 31
0.0
 70
    32
 71
     5
 42
24.99997999999994
  3
SYS$0
100
AcDbAlignedDimension
 13
193.984444417174
 23
357.3546664565254
 33
0.0
 14
193.984444417174
 24
382.3546464565254
 34
0.0
 50
90.00000000000005
100
AcDbRotatedDimension
  0
DIMENSION
  5
DFF3
330
1F
100
AcDbEntity
  8
AM_5
100
AcDbDimension
  2
*D30
 10
421.6564998817402
 20
192.6128155194854
 30
0.0
 11
396.1114998817402
 21
195.7128155194854
 31
0.0
 70
    32
  1
W
 71
     5
 42
51.08999999999991
  3
SYS$0
100
AcDbAlignedDimension
 13
370.5664998817403
 23
205.4701643734579
 33
0.0
 14
421.6564998817402
 24
205.4701643734579
 34
0.0
 50
0.0000000000001018
100
AcDbRotatedDimension
  0
DIMENSION
  5
E01A
330
1F
100
AcDbEntity
  8
AM_5
100
AcDbDimension
  2
*D31
 10
446.1142882977293
 20
377.0101843734579
 30
0.0
 11
443.0142882977293
 21
291.240174373458
 31
0.0
 70
    32
  1
H
 71
     5
 42
171.54002
  3
SYS$0
100
AcDbAlignedDimension
 13
421.6564998817402
 23
205.4701643734579
 33
0.0
 14
421.6565078817401
 24
377.0101843734579
 34
0.0
 50
90.0
100
AcDbRotatedDimension
  0
LINE
  5
E9B9
330
1F
100
AcDbEntity
  8
AM_0
100
AcDbLine
 10
372.1664978817401
 20
375.410174373458
 30
0.0
 11
420.0565088817401
 21
375.410174373458
 31
0.0
  0
LINE
  5
E9BA
330
1F
100
AcDbEntity
  8
AM_0
100
AcDbLine
 10
441.383412417174
 20
97.4601582340448
 30
0.0
 11
441.383412417174
 21
95.86017223404486
 31
0.0
  0
LINE
  5
E9BB
102
{ACAD_REACTORS
330
F286
102
}
330
1F
100
AcDbEntity
  8
AM_0
100
AcDbLine
 10
395.4646446710681
 20
119.2602180340449
 30
0.0
 11
341.7074204171742
 21
119.2602180340449
 31
0.0
  0
LINE
  5
E9BC
330
1F
100
AcDbEntity
  8
AM_0
100
AcDbLine
 10
457.9074174171741
 20
92.86019323404492
 30
0.0
 11
457.9074174171741
 21
91.26020623404484
 31
0.0
  0
LINE
  5
E9BD
330
1F
100
AcDbEntity
  8
AM_0
100
AcDbLine
 10
420.0565088817401
 20
372.8931543734579
 30
0.0
 11
421.6564998817402
 21
372.8931543734579
 31
0.0
  0
LINE
  5
E9BE
330
1F
100
AcDbEntity
  8
AM_0
100
AcDbLine
 10
222.319454417174
 20
348.9546164565254
 30
0.0
 11
223.9194444171741
 21
348.9546164565254
 31
0.0
  0
LINE
  5
E9BF
330
1F
100
AcDbEntity
  8
AM_0
100
AcDbLine
 10
223.9194444171741
 20
358.9546564565254
 30
0.0
 11
225.5194544171741
 21
358.9546564565254
 31
0.0
  0
LINE
  5
E9C0
330
1F
100
AcDbEntity
  8
AM_0
100
AcDbLine
 10
193.984444417174
 20
382.3546564565255
 30
0.0
 11
207.319454417174
 21
382.3546564565255
 31
0.0
  0
LINE
  5
E9C1
330
1F
100
AcDbEntity
  8
AM_0
100
AcDbLine
 10
193.984444417174
 20
357.3546264565255
 30
0.0
 11
222.319454417174
 21
357.3546264565255
 31
0.0
  0
LINE
  5
E9C2
330
1F
100
AcDbEntity
  8
AM_0
100
AcDbLine
 10
192.319444417174
 20
380.6896464565253
 30
0.0
 11
192.319444417174
 21
359.0196264565254
 31
0.0
  0
LINE
  5
E9C3
330
1F
100
AcDbEntity
  8
AM_0
100
AcDbLine
 10
193.919464417174
 20
380.7546464565253
 30
0.0
 11
193.919464417174
 21
358.9546564565254
 31
0.0
  0
LINE
  5
E9C4
330
1F
100
AcDbEntity
  8
AM_0
100
AcDbLine
 10
193.919464417174
 20
380.7546464565253
 30
0.0
 11
207.319454417174
 21
380.7546464565253
 31
0.0
  0
LINE
  5
E9C5
330
1F
100
AcDbEntity
  8
AM_0
100
AcDbLine
 10
193.919464417174
 20
358.9546564565254
 30
0.0
 11
222.2544544171741
 21
358.9546564565254
 31
0.0
  0
LINE
  5
E9C6
330
1F
100
AcDbEntity
  8
AM_0
100
AcDbLine
 10
207.319454417174
 20
382.3546564565255
 30
0.0
 11
207.319454417174
 21
380.7546464565253
 31
0.0
  0
LINE
  5
E9C7
330
1F
100
AcDbEntity
  8
AM_0
100
AcDbLine
 10
222.319454417174
 20
357.3546364565253
 30
0.0
 11
222.319454417174
 21
300.6081329580784
 31
0.0
  0
LINE
  5
E9C8
330
1F
100
AcDbEntity
  8
AM_0
100
AcDbLine
 10
223.9194444171741
 20
358.9546264565255
 30
0.0
 11
223.9194444171741
 21
300.8067348268206
 31
0.0
  0
LINE
  5
E9C9
330
1F
100
AcDbEntity
  8
AM_0
100
AcDbLine
 10
195.9844644171741
 20
326.3546364565254
 30
0.0
 11
217.6544644171741
 21
326.3546364565254
 31
0.0
  0
LINE
  5
E9CA
330
1F
100
AcDbEntity
  8
AM_0
100
AcDbLine
 10
195.919464417174
 20
324.7546364565254
 30
0.0
 11
217.7194644171741
 21
324.7546364565254
 31
0.0
  0
LINE
  5
E9CB
330
1F
100
AcDbEntity
  8
AM_0
100
AcDbLine
 10
217.7194644171741
 20
315.4306064565254
 30
0.0
 11
219.319454417174
 21
315.4306064565254
 31
0.0
  0
LINE
  5
E9CC
330
1F
100
AcDbEntity
  8
AM_0
100
AcDbLine
 10
340.1074184171741
 20
119.1951717340448
 30
0.0
 11
340.1074184171741
 21
97.52516023404483
 31
0.0
  0
LINE
  5
E9CD
330
1F
100
AcDbEntity
  8
AM_0
100
AcDbLine
 10
341.7074174171741
 20
119.2601741340448
 30
0.0
 11
341.7074174171741
 21
97.4601582340448
 31
0.0
  0
LINE
  5
E9CE
330
1F
100
AcDbEntity
  8
AM_0
100
AcDbLine
 10
365.1074254171742
 20
120.8601716340448
 30
0.0
 11
365.1074254171742
 21
119.2601741340448
 31
0.0
  0
LINE
  5
E9CF
330
1F
100
AcDbEntity
  8
AM_0
100
AcDbLine
 10
450.6424104171741
 20
120.8601983340448
 30
0.0
 11
397.4768297046864
 21
120.8601983340448
 31
0.0
  0
LINE
  5
E9D0
330
1F
100
AcDbEntity
  8
AM_0
100
AcDbLine
 10
450.7074134171739
 20
97.46017123404488
 30
0.0
 11
400.3898390603686
 21
97.46017123404488
 31
0.0
  0
LINE
  5
E9D1
330
1F
100
AcDbEntity
  8
AM_0
100
AcDbLine
 10
450.6424104171741
 20
95.86019723404492
 30
0.0
 11
400.1786774890748
 21
95.86019723404492
 31
0.0
  0
LINE
  5
E9D2
330
1F
100
AcDbEntity
  8
AM_0
100
AcDbLine
 10
450.7074134171739
 20
119.2602180340449
 30
0.0
 11
397.4654444525856
 21
119.2602180340449
 31
0.0
  0
LINE
  5
E9D3
330
1F
100
AcDbEntity
  8
AM_0
100
AcDbLine
 10
351.0314274171741
 20
97.4601582340448
 30
0.0
 11
351.0314274171741
 21
95.86017223404486
 31
0.0
  0
LINE
  5
E9D4
330
1F
100
AcDbEntity
  8
AM_0
100
AcDbLine
 10
336.1074034171742
 20
121.1951784340448
 30
0.0
 11
336.1074034171742
 21
94.4602032340448
 31
0.0
  0
LINE
  5
E9D5
330
1F
100
AcDbEntity
  8
AM_0
100
AcDbLine
 10
334.5074044171742
 20
121.2601808340448
 30
0.0
 11
334.5074044171742
 21
94.52519423404487
 31
0.0
  0
LINE
  5
E9D6
330
1F
100
AcDbEntity
  8
AM_0
100
AcDbLine
 10
311.1074144171741
 20
121.1951784340448
 30
0.0
 11
311.1074144171741
 21
107.8601802340448
 31
0.0
  0
LINE
  5
E9D7
330
1F
100
AcDbEntity
  8
AM_0
100
AcDbLine
 10
312.7074284171741
 20
121.2601808340448
 30
0.0
 11
312.7074284171741
 21
107.8601802340448
 31
0.0
  0
LINE
  5
E9D8
330
1F
100
AcDbEntity
  8
AM_0
100
AcDbLine
 10
312.7074284171741
 20
107.8601926340449
 30
0.0
 11
311.1074144171741
 21
107.8601926340449
 31
0.0
  0
LINE
  5
E9D9
330
1F
100
AcDbEntity
  8
AM_0
100
AcDbLine
 10
479.6424104171741
 20
122.8601926340449
 30
0.0
 11
397.6582103453943
 21
122.8601926340449
 31
0.0
  0
LINE
  5
E9DA
330
1F
100
AcDbEntity
  8
AM_0
100
AcDbLine
 10
334.5074084171741
 20
121.2602075340448
 30
0.0
 11
312.7074284171741
 21
121.2602075340448
 31
0.0
  0
LINE
  5
E9DB
330
1F
100
AcDbEntity
  8
AM_0
100
AcDbLine
 10
376.4074172171742
 20
92.86019323404492
 30
0.0
 11
334.5074044171742
 21
92.86019323404492
 31
0.0
  0
LINE
  5
E9DC
330
1F
100
AcDbEntity
  8
AM_0
100
AcDbLine
 10
376.4074172171742
 20
91.26020623404484
 30
0.0
 11
334.5074044171742
 21
91.26020623404484
 31
0.0
  0
LINE
  5
E9DD
102
{ACAD_REACTORS
330
F286
102
}
330
1F
100
AcDbEntity
  8
AM_0
100
AcDbLine
 10
355.1174154171741
 20
119.2601741340448
 30
0.0
 11
355.1174154171741
 21
117.6601756340449
 31
0.0
  0
LINE
  5
E9DE
102
{ACAD_REACTORS
330
F286
102
}
330
1F
100
AcDbEntity
  8
AM_0
100
AcDbLine
 10
395.5648971142167
 20
117.6602004340449
 30
0.0
 11
355.1174114171741
 21
117.6602004340449
 31
0.0
  0
LINE
  5
E9DF
330
1F
100
AcDbEntity
  8
AM_0
100
AcDbLine
 10
457.9074174171741
 20
92.86019323404492
 30
0.0
 11
416.0074204171739
 21
92.86019323404492
 31
0.0
  0
LINE
  5
E9E0
330
1F
100
AcDbEntity
  8
AM_0
100
AcDbLine
 10
457.9074174171741
 20
91.26020623404484
 30
0.0
 11
416.0074204171739
 21
91.26020623404484
 31
0.0
  0
LINE
  5
E9E1
330
1F
100
AcDbEntity
  8
AM_7
 48
0.3
100
AcDbLine
 10
422.6074334171739
 20
94.82820723404485
 30
0.0
 11
422.6074334171739
 21
88.69675623404488
 31
0.0
  0
LINE
  5
E9E2
330
1F
100
AcDbEntity
  8
AM_0
100
AcDbLine
 10
225.5194544171741
 20
358.9546264565255
 30
0.0
 11
225.5194544171741
 21
301.0888774664414
 31
0.0
  0
LINE
  5
E9E3
330
1F
100
AcDbEntity
  8
AM_0
100
AcDbLine
 10
192.319444417174
 20
357.3546364565253
 30
0.0
 11
192.319444417174
 21
302.3512169070956
 31
0.0
  0
LINE
  5
E9E4
330
1F
100
AcDbEntity
  8
AM_0
100
AcDbLine
 10
194.319454417174
 20
324.6896264565254
 30
0.0
 11
194.319454417174
 21
302.8546564565254
 31
0.0
  0
LINE
  5
E9E5
330
1F
100
AcDbEntity
  8
AM_0
100
AcDbLine
 10
195.9194444171741
 20
324.7546364565254
 30
0.0
 11
195.9194444171741
 21
303.174647973741
 31
0.0
  0
LINE
  5
E9E6
330
1F
100
AcDbEntity
  8
AM_0
100
AcDbLine
 10
219.319454417174
 20
324.6896264565254
 30
0.0
 11
219.319454417174
 21
300.5383841134169
 31
0.0
  0
LINE
  5
E9E7
330
1F
100
AcDbEntity
  8
AM_0
100
AcDbLine
 10
217.719444417174
 20
324.7546364565254
 30
0.0
 11
217.719444417174
 21
300.6716147953751
 31
0.0
  0
LINE
  5
E9E8
330
1F
100
AcDbEntity
  8
AM_0
100
AcDbLine
 10
195.984444417174
 20
101.1996314565255
 30
0.0
 11
217.6544444171741
 21
101.1996314565255
 31
0.0
  0
LINE
  5
E9E9
330
1F
100
AcDbEntity
  8
AM_0
100
AcDbLine
 10
195.9194444171741
 20
102.7996394565255
 30
0.0
 11
217.719444417174
 21
102.7996394565255
 31
0.0
  0
LINE
  5
E9EA
330
1F
100
AcDbEntity
  8
AM_0
100
AcDbLine
 10
194.319454417174
 20
126.1996270565254
 30
0.0
 11
195.9194444171741
 21
126.1996270565254
 31
0.0
  0
LINE
  5
E9EB
330
1F
100
AcDbEntity
  8
AM_0
100
AcDbLine
 10
194.319454417174
 20
141.8056498217665
 30
0.0
 11
194.319454417174
 21
102.8646474565254
 31
0.0
  0
LINE
  5
E9EC
330
1F
100
AcDbEntity
  8
AM_0
100
AcDbLine
 10
217.719444417174
 20
139.6699950730631
 30
0.0
 11
217.719444417174
 21
102.7996454565254
 31
0.0
  0
LINE
  5
E9ED
330
1F
100
AcDbEntity
  8
AM_0
100
AcDbLine
 10
219.319454417174
 20
139.5467941993141
 30
0.0
 11
219.319454417174
 21
102.8646474565254
 31
0.0
  0
LINE
  5
E9EE
102
{ACAD_REACTORS
330
F270
102
}
330
1F
100
AcDbEntity
  8
AM_0
100
AcDbLine
 10
195.9194444171741
 20
142.1515207465015
 30
0.0
 11
195.9194444171741
 21
102.7996454565254
 31
0.0
  0
LINE
  5
E9EF
330
1F
100
AcDbEntity
  8
AM_0
100
AcDbLine
 10
217.719444417174
 20
112.1236492565255
 30
0.0
 11
219.319454417174
 21
112.1236492565255
 31
0.0
  0
LINE
  5
E9F0
330
1F
100
AcDbEntity
  8
AM_0
100
AcDbLine
 10
193.9844644171741
 20
96.1996274565255
 30
0.0
 11
222.319454417174
 21
96.1996274565255
 31
0.0
  0
LINE
  5
E9F1
330
1F
100
AcDbEntity
  8
AM_0
100
AcDbLine
 10
193.919464417174
 20
94.59964245652544
 30
0.0
 11
222.2544544171741
 21
94.59964245652544
 31
0.0
  0
LINE
  5
E9F2
330
1F
100
AcDbEntity
  8
AM_0
100
AcDbLine
 10
193.9844644171741
 20
71.19962745652549
 30
0.0
 11
207.319454417174
 21
71.19962745652549
 31
0.0
  0
LINE
  5
E9F3
330
1F
100
AcDbEntity
  8
AM_0
100
AcDbLine
 10
193.919464417174
 20
72.79964145652549
 30
0.0
 11
207.319454417174
 21
72.79964145652549
 31
0.0
  0
LINE
  5
E9F4
330
1F
100
AcDbEntity
  8
AM_0
100
AcDbLine
 10
207.319454417174
 20
72.79964545652545
 30
0.0
 11
207.319454417174
 21
71.19963545652547
 31
0.0
  0
LINE
  5
E9F5
330
1F
100
AcDbEntity
  8
AM_0
100
AcDbLine
 10
192.319444417174
 20
94.53462645652541
 30
0.0
 11
192.319444417174
 21
72.86464745652541
 31
0.0
  0
LINE
  5
E9F6
330
1F
100
AcDbEntity
  8
AM_0
100
AcDbLine
 10
193.919464417174
 20
94.59962945652547
 30
0.0
 11
193.919464417174
 21
72.79964545652545
 31
0.0
  0
LINE
  5
E9F7
330
1F
100
AcDbEntity
  8
AM_0
100
AcDbLine
 10
222.319454417174
 20
106.1996314565255
 30
0.0
 11
223.9194444171741
 21
106.1996314565255
 31
0.0
  0
LINE
  5
E9F8
330
1F
100
AcDbEntity
  8
AM_0
100
AcDbLine
 10
222.319454417174
 20
139.6107642812685
 30
0.0
 11
222.319454417174
 21
96.19964045652546
 31
0.0
  0
LINE
  5
E9F9
330
1F
100
AcDbEntity
  8
AM_0
100
AcDbLine
 10
223.9194444171741
 20
139.7956114657824
 30
0.0
 11
223.9194444171741
 21
96.26464345652541
 31
0.0
  0
LINE
  5
E9FA
102
{ACAD_REACTORS
330
F270
102
}
330
1F
100
AcDbEntity
  8
AM_0
100
AcDbLine
 10
195.9194444171741
 20
116.2096220565254
 30
0.0
 11
197.519464417174
 21
116.2096220565254
 31
0.0
  0
LINE
  5
E9FB
102
{ACAD_REACTORS
330
F270
102
}
330
1F
100
AcDbEntity
  8
AM_0
100
AcDbLine
 10
197.519464417174
 20
142.4063608218551
 30
0.0
 11
197.519464417174
 21
116.2096315565254
 31
0.0
  0
LINE
  5
E9FC
330
1F
100
AcDbEntity
  8
AM_7
 48
0.3
100
AcDbLine
 10
369.8074126171742
 20
94.82820723404485
 30
0.0
 11
369.8074126171742
 21
88.69675623404488
 31
0.0
  0
LINE
  5
E9FD
330
1F
100
AcDbEntity
  8
AM_0
100
AcDbLine
 10
416.0074124171741
 20
92.86019323404492
 30
0.0
 11
416.0074124171741
 21
91.26020623404484
 31
0.0
  0
LINE
  5
E9FE
330
1F
100
AcDbEntity
  8
AM_0
100
AcDbLine
 10
395.6423535728573
 20
122.8601926340449
 30
0.0
 11
312.7724314171742
 21
122.8601926340449
 31
0.0
  0
LINE
  5
E9FF
330
1F
100
AcDbEntity
  8
AM_0
100
AcDbLine
 10
456.3074114171741
 20
121.1951784340448
 30
0.0
 11
456.3074114171741
 21
94.4602032340448
 31
0.0
  0
LINE
  5
EA00
330
1F
100
AcDbEntity
  8
AM_0
100
AcDbLine
 10
457.9074174171741
 20
121.2602075340448
 30
0.0
 11
479.7074104171741
 21
121.2602075340448
 31
0.0
  0
LINE
  5
EA01
330
1F
100
AcDbEntity
  8
AM_0
100
AcDbLine
 10
457.9074174171741
 20
121.2601808340448
 30
0.0
 11
457.9074174171741
 21
94.52519423404487
 31
0.0
  0
LINE
  5
EA02
330
1F
100
AcDbEntity
  8
AM_0
100
AcDbLine
 10
481.3073904171741
 20
121.1951784340448
 30
0.0
 11
481.3073904171741
 21
107.8601802340448
 31
0.0
  0
LINE
  5
EA03
330
1F
100
AcDbEntity
  8
AM_0
100
AcDbLine
 10
479.7074104171741
 20
121.2601808340448
 30
0.0
 11
479.7074104171741
 21
107.8601802340448
 31
0.0
  0
LINE
  5
EA04
330
1F
100
AcDbEntity
  8
AM_0
100
AcDbLine
 10
479.7074104171741
 20
107.8601926340449
 30
0.0
 11
481.307420417174
 21
107.8601926340449
 31
0.0
  0
LINE
  5
EA05
330
1F
100
AcDbEntity
  8
AM_0
100
AcDbLine
 10
446.3074114171742
 20
94.4602032340448
 30
0.0
 11
446.3074114171742
 21
92.86019323404492
 31
0.0
  0
LINE
  5
EA06
330
1F
100
AcDbEntity
  8
AM_0
100
AcDbLine
 10
456.3074114171741
 20
94.4602032340448
 30
0.0
 11
446.3074114171742
 21
94.4602032340448
 31
0.0
  0
LINE
  5
EA07
330
1F
100
AcDbEntity
  8
AM_0
100
AcDbLine
 10
367.2364978817401
 20
380.3401443734579
 30
0.0
 11
367.2364978817401
 21
202.140166373458
 31
0.0
  0
LINE
  5
EA08
330
1F
100
AcDbEntity
  8
AM_0
100
AcDbLine
 10
424.9865018817403
 20
380.3401443734579
 30
0.0
 11
424.9865018817403
 21
202.140166373458
 31
0.0
  0
LINE
  5
EA09
330
1F
100
AcDbEntity
  8
AM_0
100
AcDbLine
 10
367.2364978817401
 20
380.3401443734579
 30
0.0
 11
424.9865018817403
 21
380.3401443734579
 31
0.0
  0
LINE
  5
EA0A
330
1F
100
AcDbEntity
  8
AM_0
100
AcDbLine
 10
367.2364978817401
 20
202.140166373458
 30
0.0
 11
424.9865018817403
 21
202.140166373458
 31
0.0
  0
LINE
  5
EA0B
330
1F
100
AcDbEntity
  8
AM_0
100
AcDbLine
 10
370.5664998817403
 20
377.0101543734579
 30
0.0
 11
421.6564998817402
 21
377.0101543734579
 31
0.0
  0
LINE
  5
EA0C
330
1F
100
AcDbEntity
  8
AM_0
100
AcDbLine
 10
370.5664998817403
 20
377.0101843734579
 30
0.0
 11
370.5664998817403
 21
205.4701643734579
 31
0.0
  0
LINE
  5
EA0D
330
1F
100
AcDbEntity
  8
AM_0
100
AcDbLine
 10
421.6565078817401
 20
377.0101843734579
 30
0.0
 11
421.6565078817401
 21
205.4701643734579
 31
0.0
  0
LINE
  5
EA0E
330
1F
100
AcDbEntity
  8
AM_0
100
AcDbLine
 10
370.5664998817403
 20
205.4701643734579
 30
0.0
 11
421.6564998817402
 21
205.4701643734579
 31
0.0
  0
LINE
  5
EA0F
330
1F
100
AcDbEntity
  8
AM_0
100
AcDbLine
 10
370.5664998817403
 20
372.8931543734579
 30
0.0
 11
372.1664978817401
 21
372.8931543734579
 31
0.0
  0
LINE
  5
EA10
330
1F
100
AcDbEntity
  8
AM_0
100
AcDbLine
 10
371.3990078817402
 20
372.0601443734579
 30
0.0
 11
420.82398788174
 21
372.0601443734579
 31
0.0
  0
LINE
  5
EA11
330
1F
100
AcDbEntity
  8
AM_0
100
AcDbLine
 10
420.0565088817401
 20
375.4101443734579
 30
0.0
 11
420.0565088817401
 21
372.0601443734579
 31
0.0
  0
LINE
  5
EA12
330
1F
100
AcDbEntity
  8
AM_0
100
AcDbLine
 10
372.1664978817401
 20
375.410174373458
 30
0.0
 11
420.0565088817401
 21
375.410174373458
 31
0.0
  0
LINE
  5
EA13
330
1F
100
AcDbEntity
  8
AM_0
100
AcDbLine
 10
372.1664868817402
 20
375.4101443734579
 30
0.0
 11
372.1664868817402
 21
372.0601443734579
 31
0.0
  0
LINE
  5
EA14
330
1F
100
AcDbEntity
  8
AM_0
100
AcDbLine
 10
371.3990078817402
 20
372.0601443734579
 30
0.0
 11
371.3990078817402
 21
206.3026743734579
 31
0.0
  0
LINE
  5
EA15
330
1F
100
AcDbEntity
  8
AM_0
100
AcDbLine
 10
420.82398788174
 20
372.0601443734579
 30
0.0
 11
420.82398788174
 21
206.3026743734579
 31
0.0
  0
LINE
  5
EA16
330
1F
100
AcDbEntity
  8
AM_0
100
AcDbLine
 10
371.3989928817401
 20
206.3026843734578
 30
0.0
 11
420.8239958817402
 21
206.3026843734578
 31
0.0
  0
LINE
  5
EA17
330
1F
100
AcDbEntity
  8
AM_0
100
AcDbLine
 10
373.2305008817401
 20
293.843434373458
 30
0.0
 11
376.5605038817402
 21
293.843434373458
 31
0.0
  0
LINE
  5
EA18
330
1F
100
AcDbEntity
  8
AM_0
100
AcDbLine
 10
373.2305008817401
 20
284.5194643734579
 30
0.0
 11
376.5605038817402
 21
284.5194643734579
 31
0.0
  0
LINE
  5
EA19
330
1F
100
AcDbEntity
  8
AM_0
100
AcDbLine
 10
373.2304818817401
 20
293.843434373458
 30
0.0
 11
373.2304818817401
 21
284.5194343734579
 31
0.0
  0
LINE
  5
EA1A
330
1F
100
AcDbEntity
  8
AM_0
100
AcDbLine
 10
376.5604848817401
 20
293.843434373458
 30
0.0
 11
376.5604848817401
 21
284.5194343734579
 31
0.0
  0
LINE
  5
EA1B
330
1F
100
AcDbEntity
  8
AM_0
100
AcDbLine
 10
373.8964938817402
 20
207.468154373458
 30
0.0
 11
418.3264978817401
 21
207.468154373458
 31
0.0
  0
LINE
  5
EA1C
330
1F
100
AcDbEntity
  8
AM_0
100
AcDbLine
 10
373.8964938817402
 20
211.1311743734579
 30
0.0
 11
418.3264978817401
 21
211.1311743734579
 31
0.0
  0
LINE
  5
EA1D
330
1F
100
AcDbEntity
  8
AM_0
100
AcDbLine
 10
418.3265058817402
 20
211.131164373458
 30
0.0
 11
418.3265058817402
 21
207.4681743734579
 31
0.0
  0
LINE
  5
EA1E
330
1F
100
AcDbEntity
  8
AM_0
100
AcDbLine
 10
373.8964898817402
 20
211.131164373458
 30
0.0
 11
373.8964898817402
 21
207.4681743734579
 31
0.0
  0
LINE
  5
EA1F
330
1F
100
AcDbEntity
  8
AM_0
100
AcDbLine
 10
334.5074044171742
 20
92.86019323404492
 30
0.0
 11
334.5074044171742
 21
91.26020623404484
 31
0.0
  0
LINE
  5
EA20
330
1F
100
AcDbEntity
  8
AM_0
100
AcDbLine
 10
336.1074034171742
 20
94.4602032340448
 30
0.0
 11
346.1074224171742
 21
94.4602032340448
 31
0.0
  0
LINE
  5
EA21
330
1F
100
AcDbEntity
  8
AM_0
100
AcDbLine
 10
223.9194444171741
 20
228.1096564565254
 30
0.0
 11
225.5194544171741
 21
228.1096564565254
 31
0.0
  0
LINE
  5
EA22
330
1F
100
AcDbEntity
  8
AM_7
 48
0.3
100
AcDbLine
 10
220.719444417174
 20
336.5146564565254
 30
0.0
 11
228.719444417174
 21
336.5146564565254
 31
0.0
  0
LINE
  5
EA23
330
1F
100
AcDbEntity
  8
AM_0
100
AcDbLine
 10
452.3074044171742
 20
119.1951965340448
 30
0.0
 11
452.3074044171742
 21
97.52519823404488
 31
0.0
  0
LINE
  5
EA24
330
1F
100
AcDbEntity
  8
AM_0
100
AcDbLine
 10
450.7074204171741
 20
119.2602180340449
 30
0.0
 11
450.7074204171741
 21
97.46017123404488
 31
0.0
  0
LINE
  5
EA25
330
1F
100
AcDbEntity
  8
AM_0
100
AcDbLine
 10
395.4748358620276
 20
120.8601983340448
 30
0.0
 11
341.7724234171741
 21
120.8601983340448
 31
0.0
  0
LINE
  5
EA26
330
1F
100
AcDbEntity
  8
AM_0
100
AcDbLine
 10
223.9194444171741
 20
223.1596564565255
 30
0.0
 11
225.5194544171741
 21
223.1596564565255
 31
0.0
  0
LINE
  5
EA27
330
1F
100
AcDbEntity
  8
AM_7
 48
0.3
100
AcDbLine
 10
189.428184417174
 20
274.2146364565254
 30
0.0
 11
198.019464417174
 21
274.2146364565254
 31
0.0
  0
LINE
  5
EA28
330
1F
100
AcDbEntity
  8
AM_11
100
AcDbLine
 10
420.8239958817402
 20
289.1814143734579
 30
0.0
 11
371.3990058817402
 21
206.3026843734578
 31
0.0
  0
LINE
  5
EA29
330
1F
100
AcDbEntity
  8
AM_0
100
AcDbLine
 10
194.319454417174
 20
265.1396364565254
 30
0.0
 11
195.9194444171741
 21
265.1396364565254
 31
0.0
  0
LINE
  5
EA2A
330
1F
100
AcDbEntity
  8
AM_0
100
AcDbLine
 10
194.319454417174
 20
283.2896364565255
 30
0.0
 11
195.9194444171741
 21
283.2896364565255
 31
0.0
  0
LINE
  5
EA2B
330
1F
100
AcDbEntity
  8
AM_0
100
AcDbLine
 10
194.319454417174
 20
300.7950097577717
 30
0.0
 11
194.319454417174
 21
143.859139639991
 31
0.0
  0
LINE
  5
EA2C
330
1F
100
AcDbEntity
  8
AM_0
100
AcDbLine
 10
195.9194444171741
 20
301.1408806825068
 30
0.0
 11
195.9194444171741
 21
144.1852880377358
 31
0.0
  0
LINE
  5
EA2D
330
1F
100
AcDbEntity
  8
AM_0
100
AcDbLine
 10
217.719444417174
 20
298.6593550090684
 30
0.0
 11
217.719444417174
 21
195.0146494565255
 31
0.0
  0
LINE
  5
EA2E
330
1F
100
AcDbEntity
  8
AM_0
100
AcDbLine
 10
219.319454417174
 20
298.5361541353194
 30
0.0
 11
219.319454417174
 21
195.0146494565255
 31
0.0
  0
LINE
  5
EA2F
330
1F
100
AcDbEntity
  8
AM_0
100
AcDbLine
 10
223.9194444171741
 20
298.7849714017877
 30
0.0
 11
223.9194444171741
 21
141.8173748908153
 31
0.0
  0
LINE
  5
EA30
330
1F
100
AcDbEntity
  8
AM_0
100
AcDbLine
 10
225.5194544171741
 20
299.0518090987633
 30
0.0
 11
225.5194544171741
 21
175.5446474565254
 31
0.0
  0
LINE
  5
EA31
330
1F
100
AcDbEntity
  8
AM_0
100
AcDbLine
 10
192.319444417174
 20
141.2907316227265
 30
0.0
 11
192.319444417174
 21
94.53462645652541
 31
0.0
  0
LINE
  5
EA32
330
1F
100
AcDbEntity
  8
AM_0
100
AcDbLine
 10
425.7424284171742
 20
92.86019323404492
 30
0.0
 11
425.7424284171742
 21
91.26020623404484
 31
0.0
  0
LINE
  5
EA33
330
1F
100
AcDbEntity
  8
AM_7
 48
0.3
100
AcDbLine
 10
220.719444417174
 20
225.6346564565255
 30
0.0
 11
228.719444417174
 21
225.6346564565255
 31
0.0
  0
LINE
  5
EA34
330
1F
100
AcDbEntity
  8
AM_0
100
AcDbLine
 10
223.9194444171741
 20
338.9896464565254
 30
0.0
 11
225.5194544171741
 21
338.9896464565254
 31
0.0
  0
LINE
  5
EA35
330
1F
100
AcDbEntity
  8
AM_0
100
AcDbLine
 10
223.9194444171741
 20
334.0396464565255
 30
0.0
 11
225.5194544171741
 21
334.0396464565255
 31
0.0
  0
LINE
  5
EA36
330
1F
100
AcDbEntity
  8
AM_0
100
AcDbLine
 10
372.9424210171742
 20
92.86019323404492
 30
0.0
 11
372.9424210171742
 21
91.26020623404484
 31
0.0
  0
LINE
  5
EA37
330
1F
100
AcDbEntity
  8
AM_0
100
AcDbLine
 10
366.6724184171743
 20
92.86019323404492
 30
0.0
 11
366.6724184171743
 21
91.26020623404484
 31
0.0
  0
LINE
  5
EA38
330
1F
100
AcDbEntity
  8
AM_7
100
AcDbLine
 10
205.690394417174
 20
188.4146504565254
 30
0.0
 11
228.256364417174
 21
188.4146504565254
 31
0.0
  0
LINE
  5
EA39
330
1F
100
AcDbEntity
  8
AM_0
100
AcDbLine
 10
376.4074248171742
 20
92.86019323404492
 30
0.0
 11
376.4074248171742
 21
91.26020623404484
 31
0.0
  0
LINE
  5
EA3A
330
1F
100
AcDbEntity
  8
AM_0
100
AcDbLine
 10
419.472416417174
 20
92.86019323404492
 30
0.0
 11
419.472416417174
 21
91.26020623404484
 31
0.0
  0
LINE
  5
EA3B
330
1F
100
AcDbEntity
  8
AM_0
100
AcDbLine
 10
398.149569797475
 20
95.86019723404492
 30
0.0
 11
341.7724234171741
 21
95.86019723404492
 31
0.0
  0
LINE
  5
EA3C
330
1F
100
AcDbEntity
  8
AM_0
100
AcDbLine
 10
222.319454417174
 20
298.6001242172739
 30
0.0
 11
222.319454417174
 21
141.6187730220731
 31
0.0
  0
LINE
  5
EA3D
330
1F
100
AcDbEntity
  8
AM_0
100
AcDbLine
 10
398.3795353132137
 20
97.46017123404488
 30
0.0
 11
341.7074204171742
 21
97.46017123404488
 31
0.0
  0
LINE
  5
EA3E
330
1F
100
AcDbEntity
  8
AM_0
100
AcDbLine
 10
223.9194444171741
 20
308.9596464565254
 30
0.0
 11
225.5194544171741
 21
308.9596464565254
 31
0.0
  0
LINE
  5
EA3F
330
1F
100
AcDbEntity
  8
AM_0
100
AcDbLine
 10
223.9194444171741
 20
304.0096364565254
 30
0.0
 11
225.5194544171741
 21
304.0096364565254
 31
0.0
  0
LINE
  5
EA40
330
1F
100
AcDbEntity
  8
AM_7
 48
0.3
100
AcDbLine
 10
220.719444417174
 20
306.4846464565254
 30
0.0
 11
228.719444417174
 21
306.4846464565254
 31
0.0
  0
LINE
  5
EA41
330
1F
100
AcDbEntity
  8
AM_0
100
AcDbLine
 10
197.584454417174
 20
175.2146494565254
 30
0.0
 11
209.7794444171741
 21
175.2146494565254
 31
0.0
  0
LINE
  5
EA42
330
1F
100
AcDbEntity
  8
AM_0
100
AcDbLine
 10
197.584454417174
 20
201.6146474565254
 30
0.0
 11
209.7794444171741
 21
201.6146474565254
 31
0.0
  0
LINE
  5
EA43
330
1F
100
AcDbEntity
  8
AM_0
100
AcDbLine
 10
197.5194544171741
 20
203.2146464565254
 30
0.0
 11
209.714444417174
 21
203.2146464565254
 31
0.0
  0
LINE
  5
EA44
330
1F
100
AcDbEntity
  8
AM_0
100
AcDbLine
 10
197.5194544171741
 20
173.6146474565254
 30
0.0
 11
209.714444417174
 21
173.6146474565254
 31
0.0
  0
LINE
  5
EA45
330
1F
100
AcDbEntity
  8
AM_0
100
AcDbLine
 10
209.7794444171741
 20
201.6146474565254
 30
0.0
 11
209.7794444171741
 21
175.2146494565254
 31
0.0
  0
LINE
  5
EA46
330
1F
100
AcDbEntity
  8
AM_0
100
AcDbLine
 10
211.3794544171741
 20
201.5496454565254
 30
0.0
 11
211.3794544171741
 21
175.2796484565255
 31
0.0
  0
LINE
  5
EA47
330
1F
100
AcDbEntity
  8
AM_0
100
AcDbLine
 10
195.9194444171741
 20
163.6646464565254
 30
0.0
 11
197.5194544171741
 21
163.6646464565254
 31
0.0
  0
LINE
  5
EA48
330
1F
100
AcDbEntity
  8
AM_0
100
AcDbLine
 10
195.9194444171741
 20
213.1646504565255
 30
0.0
 11
197.5194544171741
 21
213.1646504565255
 31
0.0
  0
LINE
  5
EA49
330
1F
100
AcDbEntity
  8
AM_0
100
AcDbLine
 10
194.319454417174
 20
300.7950097577717
 30
0.0
 11
194.319454417174
 21
143.859139639991
 31
0.0
  0
LINE
  5
EA4A
330
1F
100
AcDbEntity
  8
AM_0
100
AcDbLine
 10
197.5194544171741
 20
213.1646504565255
 30
0.0
 11
197.5194544171741
 21
203.2146464565254
 31
0.0
  0
LINE
  5
EA4B
330
1F
100
AcDbEntity
  8
AM_0
100
AcDbLine
 10
197.5194544171741
 20
173.6146474565254
 30
0.0
 11
197.5194544171741
 21
163.6646464565254
 31
0.0
  0
LINE
  5
EA4C
330
1F
100
AcDbEntity
  8
AM_0
100
AcDbLine
 10
213.0444444171741
 20
195.0146494565255
 30
0.0
 11
220.619444417174
 21
195.0146494565255
 31
0.0
  0
LINE
  5
EA4D
330
1F
100
AcDbEntity
  8
AM_0
100
AcDbLine
 10
213.0444444171741
 20
181.8146484565254
 30
0.0
 11
220.619444417174
 21
181.8146484565254
 31
0.0
  0
LINE
  5
EA4E
330
1F
100
AcDbEntity
  8
AM_0
100
AcDbLine
 10
212.979444417174
 20
193.4146504565254
 30
0.0
 11
220.619444417174
 21
193.4146504565254
 31
0.0
  0
LINE
  5
EA4F
330
1F
100
AcDbEntity
  8
AM_0
100
AcDbLine
 10
212.979444417174
 20
183.4146504565254
 30
0.0
 11
220.619444417174
 21
183.4146504565254
 31
0.0
  0
LINE
  5
EA50
330
1F
100
AcDbEntity
  8
AM_0
100
AcDbLine
 10
212.979444417174
 20
193.4146504565254
 30
0.0
 11
212.979444417174
 21
183.4146504565254
 31
0.0
  0
LINE
  5
EA51
330
1F
100
AcDbEntity
  8
AM_0
100
AcDbLine
 10
220.619444417174
 20
183.4146504565254
 30
0.0
 11
220.619444417174
 21
181.8146484565254
 31
0.0
  0
LINE
  5
EA52
330
1F
100
AcDbEntity
  8
AM_0
100
AcDbLine
 10
220.619444417174
 20
195.0146494565255
 30
0.0
 11
220.619444417174
 21
193.4146504565254
 31
0.0
  0
LINE
  5
EA53
330
1F
100
AcDbEntity
  8
AM_0
100
AcDbLine
 10
217.719444417174
 20
181.8146484565254
 30
0.0
 11
217.719444417174
 21
141.6822548593699
 31
0.0
  0
LINE
  5
EA54
330
1F
100
AcDbEntity
  8
AM_0
100
AcDbLine
 10
219.319454417174
 20
181.8146484565254
 30
0.0
 11
219.319454417174
 21
141.5490241774115
 31
0.0
  0
LINE
  5
EA55
330
1F
100
AcDbEntity
  8
AM_0
100
AcDbLine
 10
223.9194444171741
 20
175.5446474565254
 30
0.0
 11
225.5194544171741
 21
175.5446474565254
 31
0.0
  0
LINE
  5
EA56
330
1F
100
AcDbEntity
  8
AM_11
100
AcDbLine
 10
371.3990038817402
 20
372.0601443734579
 30
0.0
 11
420.8239818817402
 21
289.1814143734579
 31
0.0
  0
LINE
  5
EA57
330
1F
100
AcDbEntity
  8
AM_0
100
AcDbLine
 10
346.1074224171742
 20
94.4602032340448
 30
0.0
 11
346.1074224171742
 21
92.86019323404492
 31
0.0
  0
ARC
  5
EA58
330
1F
100
AcDbEntity
  8
AM_0
100
AcDbCircle
 10
456.2424164171742
 20
94.52519423404487
 30
0.0
 40
1.665
100
AcDbArc
 50
270.0
 51
0.0
  0
ARC
  5
EA59
330
1F
100
AcDbEntity
  8
AM_0
100
AcDbCircle
 10
193.984444417174
 20
380.6896464565253
 30
0.0
 40
1.665
100
AcDbArc
 50
90.0
 51
180.0
  0
ARC
  5
EA5A
330
1F
100
AcDbEntity
  8
AM_0
100
AcDbCircle
 10
193.984444417174
 20
359.0196664565253
 30
0.0
 40
1.665
100
AcDbArc
 50
180.0
 51
270.0
  0
ARC
  5
EA5B
330
1F
100
AcDbEntity
  8
AM_0
100
AcDbCircle
 10
222.2544544171741
 20
357.2896164565253
 30
0.0
 40
1.665
100
AcDbArc
 50
0.0
 51
90.0
  0
ARC
  5
EA5C
330
1F
100
AcDbEntity
  8
AM_0
100
AcDbCircle
 10
195.984444417174
 20
324.6896464565255
 30
0.0
 40
1.665
100
AcDbArc
 50
90.0
 51
180.0
  0
ARC
  5
EA5D
330
1F
100
AcDbEntity
  8
AM_0
100
AcDbCircle
 10
217.6544444171741
 20
324.6896464565255
 30
0.0
 40
1.665
100
AcDbArc
 50
0.0
 51
90.0
  0
ARC
  5
EA5E
330
1F
100
AcDbEntity
  8
AM_0
100
AcDbCircle
 10
341.7724384171742
 20
97.52516023404483
 30
0.0
 40
1.665
100
AcDbArc
 50
180.0
 51
270.0
  0
ARC
  5
EA5F
330
1F
100
AcDbEntity
  8
AM_0
100
AcDbCircle
 10
341.7724384171742
 20
119.1951841340449
 30
0.0
 40
1.665
100
AcDbArc
 50
90.0
 51
180.000010000001
  0
ARC
  5
EA60
330
1F
100
AcDbEntity
  8
AM_0
100
AcDbCircle
 10
312.7724314171742
 20
121.1951784340448
 30
0.0
 40
1.665
100
AcDbArc
 50
90.0
 51
180.0
  0
ARC
  5
EA61
330
1F
100
AcDbEntity
  8
AM_0
100
AcDbCircle
 10
334.4424214171742
 20
121.1951784340448
 30
0.0
 40
1.665
100
AcDbArc
 50
359.999979999998
 51
90.0
  0
ARC
  5
EA62
330
1F
100
AcDbEntity
  8
AM_0
100
AcDbCircle
 10
217.6544444171741
 20
102.8646414565254
 30
0.0
 40
1.665
100
AcDbArc
 50
270.0
 51
0.0
  0
ARC
  5
EA63
330
1F
100
AcDbEntity
  8
AM_0
100
AcDbCircle
 10
195.984444417174
 20
102.8646414565254
 30
0.0
 40
1.665
100
AcDbArc
 50
180.0
 51
270.0
  0
ARC
  5
EA64
330
1F
100
AcDbEntity
  8
AM_0
100
AcDbCircle
 10
193.9844644171741
 20
72.86464345652539
 30
0.0
 40
1.665
100
AcDbArc
 50
180.0
 51
270.0
  0
ARC
  5
EA65
330
1F
100
AcDbEntity
  8
AM_0
100
AcDbCircle
 10
193.9844644171741
 20
94.53464045652538
 30
0.0
 40
1.665
100
AcDbArc
 50
90.0
 51
179.9999299999995
  0
ARC
  5
EA66
330
1F
100
AcDbEntity
  8
AM_0
100
AcDbCircle
 10
222.2544544171741
 20
96.26463045652542
 30
0.0
 40
1.665
100
AcDbArc
 50
270.0
 51
0.0
  0
ARC
  5
EA67
330
1F
100
AcDbEntity
  8
AM_0
100
AcDbCircle
 10
457.972420417174
 20
121.1951784340448
 30
0.0
 40
1.665
100
AcDbArc
 50
90.0
 51
179.9999799999979
  0
ARC
  5
EA68
330
1F
100
AcDbEntity
  8
AM_0
100
AcDbCircle
 10
479.6424104171741
 20
121.1951784340448
 30
0.0
 40
1.665
100
AcDbArc
 50
359.999969999997
 51
90.0
  0
ARC
  5
EA69
330
1F
100
AcDbEntity
  8
AM_0
100
AcDbCircle
 10
450.642418417174
 20
119.1951965340448
 30
0.0
 40
1.665
100
AcDbArc
 50
0.0
 51
90.0
  0
ARC
  5
EA6A
330
1F
100
AcDbEntity
  8
AM_0
100
AcDbCircle
 10
450.642418417174
 20
97.52519823404488
 30
0.0
 40
1.665
100
AcDbArc
 50
270.0
 51
0.0
  0
ARC
  5
EA6B
330
1F
100
AcDbEntity
  8
AM_0
100
AcDbCircle
 10
209.714444417174
 20
201.5496454565254
 30
0.0
 40
1.665
100
AcDbArc
 50
0.0
 51
90.0
  0
ARC
  5
EA6C
330
1F
100
AcDbEntity
  8
AM_0
100
AcDbCircle
 10
197.584454417174
 20
173.5496484565254
 30
0.0
 40
1.665
100
AcDbArc
 50
90.0
 51
180.0
  0
ARC
  5
EA6D
330
1F
100
AcDbEntity
  8
AM_0
100
AcDbCircle
 10
197.584454417174
 20
203.2796484565255
 30
0.0
 40
1.665
100
AcDbArc
 50
180.0
 51
270.0
  0
ARC
  5
EA6E
330
1F
100
AcDbEntity
  8
AM_0
100
AcDbCircle
 10
209.714444417174
 20
175.2796484565255
 30
0.0
 40
1.665
100
AcDbArc
 50
270.0
 51
0.0
  0
ARC
  5
EA6F
330
1F
100
AcDbEntity
  8
AM_0
100
AcDbCircle
 10
213.0444444171741
 20
183.4796534565254
 30
0.0
 40
1.665
100
AcDbArc
 50
180.0
 51
270.0
  0
ARC
  5
EA70
330
1F
100
AcDbEntity
  8
AM_0
100
AcDbCircle
 10
213.0444444171741
 20
193.3496484565254
 30
0.0
 40
1.665
100
AcDbArc
 50
90.0
 51
180.0
  0
ARC
  5
EA71
330
1F
100
AcDbEntity
  8
AM_0
100
AcDbCircle
 10
214.1165444171741
 20
188.4146504565254
 30
0.0
 40
8.2029133
100
AcDbArc
 50
322.4437500000002
 51
37.55624500000061
  0
CIRCLE
  5
EA72
330
1F
100
AcDbEntity
  8
AM_0
100
AcDbCircle
 10
216.2794444171741
 20
188.4146504565254
 30
0.0
 40
1.3200001
  0
CIRCLE
  5
EA73
330
1F
100
AcDbEntity
  8
AM_0
100
AcDbCircle
 10
396.1115027817401
 20
363.150134373458
 30
0.0
 40
4.950001699999998
  0
ARC
  5
EA74
330
1F
100
AcDbEntity
  8
AM_0
100
AcDbCircle
 10
336.1724134171742
 20
94.52519423404487
 30
0.0
 40
1.665
100
AcDbArc
 50
179.9999299999995
 51
270.0
  0
ARC
  5
EA75
330
1F
100
AcDbEntity
  8
AM_0
100
AcDbCircle
 10
334.4424104171742
 20
121.1951784340448
 30
0.0
 40
1.665
100
AcDbArc
 50
359.999979999998
 51
90.0
  0
DIMENSION
  5
EDF1
330
1F
100
AcDbEntity
  8
AM_5
100
AcDbDimension
  2
*D32
 10
162.319454417174
 20
326.3546464565255
 30
0.0
 11
159.219454417174
 21
341.8546364565255
 31
0.0
 70
    32
 71
     5
 42
30.99997999999999
  3
SYS$0
100
AcDbAlignedDimension
 13
193.984444417174
 23
357.3546264565255
 33
0.0
 14
195.984444417174
 24
326.3546464565255
 34
0.0
 50
90.00000000000005
100
AcDbRotatedDimension
  0
DIMENSION
  5
EE62
330
1F
100
AcDbEntity
  8
AM_5
100
AcDbDimension
  2
*D33
 10
172.319454417174
 20
188.4146504565255
 30
0.0
 11
169.219454417174
 21
231.3146434565255
 31
0.0
 70
    32
  1
B
 71
     5
 42
85.79998599999997
  3
SYS$0
100
AcDbAlignedDimension
 13
189.428184417174
 23
274.2146364565254
 33
0.0
 14
205.690394417174
 24
188.4146504565254
 34
0.0
 50
90.00000000000005
100
AcDbRotatedDimension
  0
DIMENSION
  5
EEA4
330
1F
100
AcDbEntity
  8
AM_5
100
AcDbDimension
  2
*D34
 10
172.3194544171741
 20
326.3546464565255
 30
0.0
 11
169.2194544171741
 21
300.2846414565255
 31
0.0
 70
    32
  1
A
 71
     5
 42
52.14001000000002
  3
SYS$0
100
AcDbAlignedDimension
 13
189.428184417174
 23
274.2146364565254
 33
0.0
 14
195.984444417174
 24
326.3546464565255
 34
0.0
 50
90.00000000000005
100
AcDbRotatedDimension
  0
DIMENSION
  5
EF12
330
1F
100
AcDbEntity
  8
AM_5
100
AcDbDimension
  2
*D35
 10
456.3074114171741
 20
147.8602032340444
 30
0.0
 11
454.3074149171741
 21
147.8602032340444
 31
0.0
 70
   160
 71
     5
 42
3.999993000000074
  3
SYS$0
100
AcDbAlignedDimension
 13
452.3074184171742
 23
119.1951965340448
 33
0.0
 14
456.3074114171741
 24
121.1951784340448
 34
0.0
100
AcDbRotatedDimension
  0
DIMENSION
  5
EF54
330
1F
100
AcDbEntity
  8
AM_5
100
AcDbDimension
  2
*D36
 10
493.307420417174
 20
122.8601926340449
 30
0.0
 11
490.2074204171739
 21
115.360192634045
 31
0.0
 70
    32
 71
     5
 42
14.99999999999998
  3
SYS$0
100
AcDbAlignedDimension
 13
481.307420417174
 23
107.8601926340449
 33
0.0
 14
479.6424104171741
 24
122.8601926340449
 34
0.0
 50
90.00000000000005
100
AcDbRotatedDimension
  0
DIMENSION
  5
EF6A
330
1F
100
AcDbEntity
  8
AM_5
100
AcDbDimension
  2
*D37
 10
376.4074248171742
 20
79.26020523404486
 30
0.0
 11
373.1074187171742
 21
82.36020523404484
 31
0.0
 70
    32
  1
H
 71
     5
 42
6.600012199999922
  3
SYS$0
100
AcDbAlignedDimension
 13
369.8074126171742
 23
88.69675623404488
 33
0.0
 14
376.4074248171742
 24
91.26020623404484
 34
0.0
 50
0.0000000000002036
100
AcDbRotatedDimension
  0
DIMENSION
  5
EFA4
330
1F
100
AcDbEntity
  8
AM_5
100
AcDbDimension
  2
*D38
 10
416.0074124171741
 20
79.2602052340448
 30
0.0
 11
419.3074229171741
 21
82.3602052340448
 31
0.0
 70
    32
  1
I
 71
     5
 42
6.600020999999968
  3
SYS$0
100
AcDbAlignedDimension
 13
422.6074334171739
 23
88.69675623404488
 33
0.0
 14
416.0074124171741
 24
91.26020623404484
 34
0.0
 50
0.0000000000002036
100
AcDbRotatedDimension
  0
DIMENSION
  5
EFCD
330
1F
100
AcDbEntity
  8
AM_5
100
AcDbDimension
  2
*D39
 10
446.3074114171742
 20
69.26020523404452
 30
0.0
 11
434.4574224171741
 21
72.36020523404452
 31
0.0
 70
    32
  1
G
 71
     5
 42
23.6999780000001
  3
SYS$0
100
AcDbAlignedDimension
 13
422.6074334171739
 23
88.69675623404488
 33
0.0
 14
446.3074114171742
 24
92.86019323404492
 34
0.0
 50
0.0000000000002036
100
AcDbRotatedDimension
  0
DIMENSION
  5
F045
330
1F
100
AcDbEntity
  8
AM_5
100
AcDbDimension
  2
*D40
 10
446.3074114171742
 20
59.26020523404419
 30
0.0
 11
451.3074114171741
 21
62.3602052340442
 31
0.0
 70
    32
 71
     5
 42
10.0
  3
SYS$0
100
AcDbAlignedDimension
 13
456.3074114171741
 23
94.4602032340448
 33
0.0
 14
446.3074114171742
 24
92.86019323404492
 34
0.0
 50
0.0000000000002036
100
AcDbRotatedDimension
1001
ACAD
1000
DSTYLE
1002
{
1070
   271
1070
     1
1002
}
  0
DIMENSION
  5
F06E
330
1F
100
AcDbEntity
  8
AM_5
100
AcDbDimension
  2
*D41
 10
346.1074224171742
 20
59.26018423404376
 30
0.0
 11
396.2074169171742
 21
62.36018423404376
 31
0.0
 70
    32
  1
W
 71
     5
 42
100.1999889999999
  3
SYS$0
100
AcDbAlignedDimension
 13
446.3074114171742
 23
92.86019323404492
 33
0.0
 14
346.1074224171742
 24
92.86019323404492
 34
0.0
 50
0.0000000000002036
100
AcDbRotatedDimension
1001
ACAD
1000
DSTYLE
1002
{
1070
   271
1070
     1
1002
}
  0
DIMENSION
  5
F095
330
1F
100
AcDbEntity
  8
AM_5
100
AcDbDimension
  2
*D42
 10
346.1074224171742
 20
59.2601842340435
 30
0.0
 11
341.1074129171742
 21
62.36018423404352
 31
0.0
 70
    32
 71
     5
 42
10.00001900000006
  3
SYS$0
100
AcDbAlignedDimension
 13
336.1074034171742
 23
94.4602032340448
 33
0.0
 14
346.1074224171742
 24
92.86019323404492
 34
0.0
 50
0.0000000000002036
100
AcDbRotatedDimension
1001
ACAD
1000
DSTYLE
1002
{
1070
   271
1070
     1
1002
}
  0
DIMENSION
  5
F0D8
330
1F
100
AcDbEntity
  8
AM_5
100
AcDbDimension
  2
*D43
 10
436.1142882977293
 20
196.8659536735313
 30
0.0
 11
433.0142882977293
 21
277.5330431734947
 31
0.0
 70
    32
  1
FL～1800程度以上
 71
     5
 42
161.3341789999267
  3
SYS$0
100
AcDbAlignedDimension
 13
396.1115027817401
 23
358.200132673458
 33
0.0
 14
425.264862762514
 24
196.8659536735313
 34
0.0
 50
90.00000000000005
100
AcDbRotatedDimension
1001
ACAD
1000
DSTYLE
1002
{
1070
   271
1070
     1
1002
}
  0
INSERT
  5
F12D
330
1F
100
AcDbEntity
  8
AM_5
100
AcDbBlockReference
  2
*S4744
 10
0.0
 20
0.0
 30
0.0
  0
HATCH
  5
F13E
330
1F
100
AcDbEntity
  8
AM_2
100
AcDbHatch
 10
0.0
 20
0.0
 30
0.0
210
0.0
220
0.0
230
1.0
  2
ANSI37
 70
     0
 71
     0
 91
        2
 92
        7
 72
     0
 73
     1
 93
        5
 10
418.3265058817402
 20
211.131174373458
 10
374.2784910037384
 20
211.1311743734579
 10
373.8964898817402
 20
210.4906124259535
 10
373.8964898817402
 20
207.468154373458
 10
418.3265058817402
 20
207.468154373458
 97
        0
 92
       23
 72
     0
 73
     1
 93
        3
 10
374.2784910037384
 20
211.1311743734579
 10
373.8964898817402
 20
211.1311743734579
 10
373.8964898817402
 20
210.4906124259535
 97
        0
 75
     0
 76
     1
 52
0.0
 41
0.7
 77
     0
 78
     2
 53
45.0
 43
-9.87510446456622
 44
-447.6962671488438
 45
-1.5715448211871
 46
1.5715448211871
 79
     0
 53
135.0
 43
-9.87510446456622
 44
-447.6962671488438
 45
-1.5715448211871
 46
-1.5715448211871
 79
     0
 47
0.1402601889463382
 98
        2
 10
394.3820827778791
 20
209.1406906819584
 10
374.0381773562981
 20
210.9319089834562
1001
ACAD
1010
-9.87510446456622
1020
-455.9274482118032
1030
0.0
  0
LINE
  5
F244
330
1F
100
AcDbEntity
  8
AM_6
100
AcDbLine
 10
34.42784133164469
 20
401.0337706663388
 30
0.0
 11
35.98412032644683
 21
401.0337706663388
 31
0.0
  0
LINE
  5
F245
330
1F
100
AcDbEntity
  8
AM_6
100
AcDbLine
 10
36.32822054393114
 20
401.0337706663388
 30
0.0
 11
37.2432184109266
 21
401.0337706663388
 31
0.0
  0
LINE
  5
F246
330
1F
100
AcDbEntity
  8
AM_6
100
AcDbLine
 10
34.42784133164469
 20
397.8994017332656
 30
0.0
 11
35.42412032644683
 21
397.8994017332656
 31
0.0
  0
LINE
  5
F247
330
1F
100
AcDbEntity
  8
AM_6
100
AcDbLine
 10
34.92598082904577
 20
397.8994017332656
 30
0.0
 11
34.92598082904577
 21
401.0337706663388
 31
0.0
  0
LINE
  5
F24E
330
1F
100
AcDbEntity
  8
AM_6
100
AcDbLine
 10
36.78571947742887
 20
401.0337706663388
 30
0.0
 11
36.2341343676942
 21
397.8994017332656
 31
0.0
  0
LINE
  5
F24F
330
1F
100
AcDbEntity
  8
AM_6
100
AcDbLine
 10
36.2341343676942
 20
397.8994017332656
 30
0.0
 11
35.45990526431183
 21
401.0337706663388
 31
0.0
  0
SPLINE
  5
F250
330
1F
100
AcDbEntity
  8
AM_2
100
AcDbSpline
210
0.0
220
0.0
230
1.0
 70
     8
 71
     3
 72
    11
 73
     7
 74
     5
 42
0.0000000001
 43
0.0000000001
 44
0.0000000001
 40
0.0
 40
0.0
 40
0.0
 40
0.0
 40
7.673707485655791
 40
19.36140581015613
 40
30.57598172962692
 40
39.94729146171336
 40
39.94729146171336
 40
39.94729146171336
 40
39.94729146171336
 10
190.3118933043515
 20
301.7997913193084
 30
0.0
 10
192.7990745191889
 20
302.4938295613197
 30
0.0
 10
199.0744407504244
 20
304.2449460948161
 30
0.0
 10
209.3332847841297
 20
302.5743227583006
 30
0.0
 10
219.8957314122629
 20
299.6258296302908
 30
0.0
 10
226.6681387408447
 20
301.30284378926
 30
0.0
 10
229.7511407443651
 20
302.0662707010191
 30
0.0
 11
190.3118933043515
 21
301.7997913193084
 31
0.0
 11
197.8081162481301
 21
303.4406533344017
 31
0.0
 11
209.4428708119763
 21
302.3294475192669
 31
0.0
 11
220.5094069556074
 21
300.5132727382282
 31
0.0
 11
229.7511407443651
 21
302.0662707010191
 31
0.0
  0
SPLINE
  5
F255
330
1F
100
AcDbEntity
  8
AM_2
100
AcDbSpline
210
0.0
220
0.0
230
1.0
 70
     8
 71
     3
 72
    34
 73
    30
 74
     0
 42
0.0000000001
 43
0.0000000001
 40
0.0
 40
0.0
 40
0.0
 40
0.0
 40
1.425867947471519
 40
1.425867947471519
 40
4.277603842414556
 40
4.277603842414556
 40
7.45892455671948
 40
7.45892455671948
 40
9.819862166670699
 40
9.819862166670699
 40
12.18079977662192
 40
12.18079977662192
 40
16.90267499652435
 40
16.90267499652435
 40
19.88576872129481
 40
19.88576872129481
 40
22.86886244606527
 40
22.86886244606527
 40
26.65490540777641
 40
26.65490540777641
 40
29.3992090995131
 40
29.3992090995131
 40
31.36378332678983
 40
31.36378332678983
 40
33.32835755406656
 40
33.32835755406656
 40
37.25750600862004
 40
37.25750600862004
 40
39.94729146171334
 40
39.94729146171334
 40
39.94729146171334
 40
39.94729146171334
 10
190.8494489582745
 20
299.8733869175964
 30
0.0
 10
191.3115974022202
 20
300.0023476429633
 30
0.0
 10
191.7700238027206
 20
300.1302579964687
 30
0.0
 10
193.1346753190369
 20
300.50252056999
 30
0.0
 10
194.0303154384706
 20
300.7352592044717
 30
0.0
 10
195.8965470027243
 20
301.1513399046989
 30
0.0
 10
196.8635746732207
 20
301.3257412846352
 30
0.0
 10
198.5212155047779
 20
301.5080466482377
 30
0.0
 10
199.2301730268368
 20
301.5475293858056
 30
0.0
 10
200.6700323494714
 20
301.5610191192364
 30
0.0
 10
201.3982786025409
 20
301.5348490001506
 30
0.0
 10
203.6051121661857
 20
301.3730193157382
 30
0.0
 10
205.1058090359519
 20
301.1536521223657
 30
0.0
 10
207.5841905283514
 20
300.6883150062362
 30
0.0
 10
208.5490462616574
 20
300.4821698707385
 30
0.0
 10
210.4964944662948
 20
300.0419264220024
 30
0.0
 10
211.482091090984
 20
299.8082966516667
 30
0.0
 10
213.7485558096359
 20
299.3012989992585
 30
0.0
 10
215.0375526954754
 20
299.0338952064801
 30
0.0
 10
217.3060095029037
 20
298.692835023822
 30
0.0
 10
218.273214918182
 20
298.5862404564813
 30
0.0
 10
219.9581792142772
 20
298.5054292671035
 30
0.0
 10
220.6731725611863
 20
298.5040200829008
 30
0.0
 10
222.085467645585
 20
298.5705260917118
 30
0.0
 10
222.7843972561008
 20
298.6358741196462
 30
0.0
 10
224.8592389518339
 20
298.9024435281931
 30
0.0
 10
226.2132987704436
 20
299.173657922501
 30
0.0
 10
228.450179594169
 20
299.6835941013231
 30
0.0
 10
229.3469765870313
 20
299.9057840486523
 30
0.0
 10
230.2318703935538
 20
300.1249054586211
 30
0.0
  0
LINE
  5
F256
330
1F
100
AcDbEntity
  8
AM_0
100
AcDbLine
 10
192.319444417174
 20
300.2800915587317
 30
0.0
 11
192.319444417174
 21
143.3618569710904
 31
0.0
  0
SPLINE
  5
F257
330
1F
100
AcDbEntity
  8
AM_2
100
AcDbSpline
210
0.0
220
0.0
230
1.0
 70
     8
 71
     3
 72
    11
 73
     7
 74
     5
 42
0.0000000001
 43
0.0000000001
 44
0.0000000001
 40
0.0
 40
0.0
 40
0.0
 40
0.0
 40
7.673707485655791
 40
19.36140581015613
 40
30.57598172962679
 40
39.94729146171332
 40
39.94729146171332
 40
39.94729146171332
 40
39.94729146171332
 10
190.3118933043515
 20
142.8104313833031
 30
0.0
 10
192.7990745191888
 20
143.5044696253143
 30
0.0
 10
199.0744407504244
 20
145.2555861588108
 30
0.0
 10
209.3332847841297
 20
143.5849628222952
 30
0.0
 10
219.8957314122628
 20
140.6364696942857
 30
0.0
 10
226.6681387408446
 20
142.3134838532547
 30
0.0
 10
229.7511407443651
 20
143.0769107650138
 30
0.0
 11
190.3118933043515
 21
142.8104313833031
 31
0.0
 11
197.8081162481301
 21
144.4512933983964
 31
0.0
 11
209.4428708119763
 21
143.3400875832615
 31
0.0
 11
220.5094069556073
 21
141.523912802223
 31
0.0
 11
229.7511407443651
 21
143.0769107650138
 31
0.0
  0
SPLINE
  5
F258
102
{ACAD_REACTORS
330
F270
102
}
330
1F
100
AcDbEntity
  8
AM_2
100
AcDbSpline
210
0.0
220
0.0
230
1.0
 70
     8
 71
     3
 72
    34
 73
    30
 74
     0
 42
0.0000000001
 43
0.0000000001
 40
0.0
 40
0.0
 40
0.0
 40
0.0
 40
1.425867947471519
 40
1.425867947471519
 40
4.277603842414556
 40
4.277603842414556
 40
7.45892455671948
 40
7.45892455671948
 40
9.819862166670699
 40
9.819862166670699
 40
12.18079977662192
 40
12.18079977662192
 40
16.90267499652435
 40
16.90267499652435
 40
19.88576872129481
 40
19.88576872129481
 40
22.86886244606527
 40
22.86886244606527
 40
26.65490540777641
 40
26.65490540777641
 40
29.3992090995131
 40
29.3992090995131
 40
31.36378332678983
 40
31.36378332678983
 40
33.32835755406656
 40
33.32835755406656
 40
37.25750600862004
 40
37.25750600862004
 40
39.94729146171334
 40
39.94729146171334
 40
39.94729146171334
 40
39.94729146171334
 10
190.8494489582745
 20
140.8840269815911
 30
0.0
 10
191.3115974022201
 20
141.012987706958
 30
0.0
 10
191.7700238027205
 20
141.1408980604634
 30
0.0
 10
193.1346753190368
 20
141.5131606339847
 30
0.0
 10
194.0303154384706
 20
141.7458992684664
 30
0.0
 10
195.8965470027243
 20
142.1619799686936
 30
0.0
 10
196.8635746732207
 20
142.3363813486299
 30
0.0
 10
198.5212155047778
 20
142.5186867122324
 30
0.0
 10
199.2301730268368
 20
142.5581694498003
 30
0.0
 10
200.6700323494714
 20
142.571659183231
 30
0.0
 10
201.3982786025409
 20
142.5454890641454
 30
0.0
 10
203.6051121661857
 20
142.383659379733
 30
0.0
 10
205.1058090359518
 20
142.1642921863604
 30
0.0
 10
207.5841905283514
 20
141.6989550702309
 30
0.0
 10
208.5490462616573
 20
141.4928099347331
 30
0.0
 10
210.4964944662947
 20
141.0525664859972
 30
0.0
 10
211.482091090984
 20
140.8189367156614
 30
0.0
 10
213.7485558096359
 20
140.3119390632532
 30
0.0
 10
215.0375526954754
 20
140.0445352704748
 30
0.0
 10
217.3060095029037
 20
139.7034750878167
 30
0.0
 10
218.273214918182
 20
139.596880520476
 30
0.0
 10
219.9581792142772
 20
139.5160693310982
 30
0.0
 10
220.6731725611863
 20
139.5146601468955
 30
0.0
 10
222.085467645585
 20
139.5811661557065
 30
0.0
 10
222.7843972561008
 20
139.6465141836409
 30
0.0
 10
224.8592389518339
 20
139.9130835921879
 30
0.0
 10
226.2132987704436
 20
140.1842979864957
 30
0.0
 10
228.450179594169
 20
140.6942341653178
 30
0.0
 10
229.3469765870313
 20
140.916424112647
 30
0.0
 10
230.2318703935537
 20
141.1355455226158
 30
0.0
  0
HATCH
  5
F270
330
1F
100
AcDbEntity
  8
AM_2
100
AcDbHatch
 10
0.0
 20
0.0
 30
0.0
210
0.0
220
0.0
230
1.0
  2
ANSI37
 70
     0
 71
     1
 91
        1
 92
        5
 93
        4
 72
     4
 94
        3
 73
     0
 74
     0
 95
        8
 96
        4
 40
5.36914495230455
 40
5.36914495230455
 40
5.36914495230455
 40
5.36914495230455
 40
7.130021650667141
 40
7.130021650667141
 40
7.130021650667141
 40
7.130021650667141
 10
197.519464417174
 20
142.406360821855
 10
196.9910159880215
 20
142.3406020167484
 10
196.4577631219252
 20
142.254256220702
 10
195.9194444171741
 20
142.1515207465015
 72
     1
 10
195.9194444171741
 20
142.1515207465015
 11
195.9194444171741
 21
116.2096220565254
 72
     1
 10
195.9194444171741
 20
116.2096220565254
 11
197.519464417174
 21
116.2096220565254
 72
     1
 10
197.519464417174
 20
116.2096220565254
 11
197.519464417174
 21
142.406360821855
 97
        4
330
F258
330
E9EE
330
E9FA
330
E9FB
 75
     0
 76
     1
 52
0.0
 41
0.5
 77
     0
 78
     2
 53
45.0
 43
-9.875103999999996
 44
-455.927448
 45
-1.122532015133643
 46
1.122532015133643
 79
     0
 53
135.0
 43
-9.875103999999996
 44
-455.927448
 45
-1.122532015133643
 46
-1.122532015133643
 79
     0
 47
0.0618997525171266
 98
        1
 10
196.8240202781999
 20
132.7111836462076
1001
ACAD
1010
-9.875103999999996
1020
-455.927448
1030
0.0
  0
SPLINE
  5
F271
330
1F
100
AcDbEntity
  8
AM_2
100
AcDbSpline
210
0.0
220
0.0
230
1.0
 70
     8
 71
     3
 72
    11
 73
     7
 74
     5
 42
0.0000000001
 43
0.0000000001
 44
0.0000000001
 40
0.0
 40
0.0
 40
0.0
 40
0.0
 40
7.673707485655889
 40
19.36140581015598
 40
30.57598172962676
 40
39.94729146171332
 40
39.94729146171332
 40
39.94729146171332
 40
39.94729146171332
 10
398.7417269821512
 20
89.89036288321655
 30
0.0
 10
399.4357652241625
 20
92.37754409805395
 30
0.0
 10
401.1868817576589
 20
98.65291032928944
 30
0.0
 10
399.5162584211432
 20
108.9117543629947
 30
0.0
 10
396.5677652931338
 20
119.4742009911278
 30
0.0
 10
398.2447794521029
 20
126.2466083197097
 30
0.0
 10
399.008206363862
 20
129.3296103232301
 30
0.0
 11
398.7417269821512
 21
89.89036288321655
 31
0.0
 11
400.3825889972445
 21
97.38658582699532
 31
0.0
 11
399.2713831821097
 21
109.0213403908412
 31
0.0
 11
397.4552084010711
 21
120.0878765344723
 31
0.0
 11
399.008206363862
 21
129.3296103232301
 31
0.0
  0
SPLINE
  5
F272
102
{ACAD_REACTORS
330
F286
102
}
330
1F
100
AcDbEntity
  8
AM_2
100
AcDbSpline
210
0.0
220
0.0
230
1.0
 70
     8
 71
     3
 72
    34
 73
    30
 74
     0
 42
0.0000000001
 43
0.0000000001
 40
0.0
 40
0.0
 40
0.0
 40
0.0
 40
1.425867947471519
 40
1.425867947471519
 40
4.277603842414556
 40
4.277603842414556
 40
7.45892455671948
 40
7.45892455671948
 40
9.819862166670699
 40
9.819862166670699
 40
12.18079977662192
 40
12.18079977662192
 40
16.90267499652435
 40
16.90267499652435
 40
19.88576872129481
 40
19.88576872129481
 40
22.86886244606527
 40
22.86886244606527
 40
26.65490540777641
 40
26.65490540777641
 40
29.3992090995131
 40
29.3992090995131
 40
31.36378332678983
 40
31.36378332678983
 40
33.32835755406656
 40
33.32835755406656
 40
37.25750600862004
 40
37.25750600862004
 40
39.94729146171334
 40
39.94729146171334
 40
39.94729146171334
 40
39.94729146171334
 10
396.8153225804392
 20
90.42791853713959
 30
0.0
 10
396.9442833058062
 20
90.89006698108518
 30
0.0
 10
397.0721936593116
 20
91.34849338158565
 30
0.0
 10
397.4444562328329
 20
92.71314489790189
 30
0.0
 10
397.6771948673146
 20
93.60878501733559
 30
0.0
 10
398.0932755675416
 20
95.47501658158934
 30
0.0
 10
398.2676769474781
 20
96.44204425208579
 30
0.0
 10
398.4499823110805
 20
98.0996850836429
 30
0.0
 10
398.4894650486483
 20
98.80864260570184
 30
0.0
 10
398.5029547820791
 20
100.2485019283364
 30
0.0
 10
398.4767846629935
 20
100.9767481814059
 30
0.0
 10
398.3149549785812
 20
103.1835817450508
 30
0.0
 10
398.0955877852085
 20
104.6842786148169
 30
0.0
 10
397.630250669079
 20
107.1626601072164
 30
0.0
 10
397.4241055335814
 20
108.1275158405223
 30
0.0
 10
396.9838620848453
 20
110.0749640451597
 30
0.0
 10
396.7502323145095
 20
111.060560669849
 30
0.0
 10
396.2432346621014
 20
113.3270253885009
 30
0.0
 10
395.975830869323
 20
114.6160222743404
 30
0.0
 10
395.6347706866649
 20
116.8844790817687
 30
0.0
 10
395.5281761193242
 20
117.851684497047
 30
0.0
 10
395.4473649299463
 20
119.5366487931422
 30
0.0
 10
395.4459557457436
 20
120.2516421400513
 30
0.0
 10
395.5124617545547
 20
121.66393722445
 30
0.0
 10
395.577809782489
 20
122.3628668349657
 30
0.0
 10
395.8443791910361
 20
124.4377085306989
 30
0.0
 10
396.1155935853438
 20
125.7917683493086
 30
0.0
 10
396.6255297641659
 20
128.028649173034
 30
0.0
 10
396.8477197114951
 20
128.9254461658963
 30
0.0
 10
397.066841121464
 20
129.8103399724187
 30
0.0
  0
HATCH
  5
F286
330
1F
100
AcDbEntity
  8
AM_2
100
AcDbHatch
 10
0.0
 20
0.0
 30
0.0
210
0.0
220
0.0
230
1.0
  2
ANSI37
 70
     0
 71
     1
 91
        1
 92
        5
 93
        4
 72
     4
 94
        3
 73
     0
 74
     0
 95
       10
 96
        6
 40
28.29948323434567
 40
28.29948323434567
 40
28.29948323434567
 40
28.29948323434567
 40
29.3992090995131
 40
29.3992090995131
 40
29.79535253112324
 40
29.79535253112324
 40
29.79535253112324
 40
29.79535253112324
 10
395.5648971142167
 20
117.6602004340449
 10
395.528380197
 20
118.0490209040774
 10
395.4999527734496
 20
118.4401590694563
 10
395.4742814820919
 20
118.9754216946601
 10
395.4687966394176
 20
119.1176611100069
 10
395.4646446710682
 20
119.2602180340449
 72
     1
 10
395.4646446710682
 20
119.2602180340449
 11
355.1174154171741
 21
119.2602180340449
 72
     1
 10
355.1174154171741
 20
119.2602180340449
 11
355.1174154171741
 21
117.6602004340449
 72
     1
 10
355.1174154171741
 20
117.6602004340449
 11
395.5648971142167
 21
117.6602004340449
 97
        4
330
F272
330
E9BB
330
E9DD
330
E9DE
 75
     0
 76
     1
 52
0.0
 41
0.5
 77
     0
 78
     2
 53
45.0
 43
-9.875103999999996
 44
-455.927448
 45
-1.122532015133643
 46
1.122532015133643
 79
     0
 53
135.0
 43
-9.875103999999996
 44
-455.927448
 45
-1.122532015133643
 46
-1.122532015133643
 79
     0
 47
0.055899668165723
 98
        1
 10
386.626267986371
 20
117.8265907968178
1001
ACAD
1010
-9.875103999999996
1020
-455.927448
1030
0.0
  0
LINE
  5
F2DC
330
1F
100
AcDbEntity
  8
AM_2
100
AcDbLine
 10
31.50000000000004
 20
411.5
 30
0.0
 11
31.50000000000003
 21
355.5000000000002
 31
0.0
  0
LINE
  5
F2DD
330
1F
100
AcDbEntity
  8
AM_2
100
AcDbLine
 10
11.50000000000003
 20
403.5
 30
0.0
 11
109.4999999999999
 21
403.5
 31
0.0
  0
LINE
  5
F2DE
330
1F
100
AcDbEntity
  8
AM_2
100
AcDbLine
 10
11.50000000000003
 20
395.5
 30
0.0
 11
109.4999999999999
 21
395.5
 31
0.0
  0
LINE
  5
F2DF
330
1F
100
AcDbEntity
  8
AM_2
100
AcDbLine
 10
11.50000000000003
 20
387.5
 30
0.0
 11
109.4999999999999
 21
387.5
 31
0.0
  0
LINE
  5
F2E0
330
1F
100
AcDbEntity
  8
AM_2
100
AcDbLine
 10
11.50000000000003
 20
379.5000000000002
 30
0.0
 11
109.4999999999999
 21
379.5
 31
0.0
  0
MTEXT
  5
F2E1
330
1F
100
AcDbEntity
  8
0文字
100
AcDbMText
 10
31.50000000000003
 20
375.5
 30
0.0
 40
3.2
 41
90.0
 71
     4
 72
     5
  1
　有り（本図は右勝手）
 73
     1
 44
1.0
1001
ACAD
1000
MTEXTBEGIN
1070
    73
1070
     1
1070
    44
1040
1.0
1070
    74
1070
     0
1000
MTEXTEND
1000
ACAD_MTEXT_DEFINED_HEIGHT_BEGIN
1070
    46
1040
8.000000000000012
1000
ACAD_MTEXT_DEFINED_HEIGHT_END
  0
LINE
  5
F2E2
330
1F
100
AcDbEntity
  8
AM_2
100
AcDbLine
 10
11.50000000000003
 20
371.5000000000002
 30
0.0
 11
109.4999999999999
 21
371.5000000000002
 31
0.0
  0
LINE
  5
F2E3
330
1F
100
AcDbEntity
  8
AM_2
100
AcDbLine
 10
31.50000000000004
 20
363.5000000000002
 30
0.0
 11
109.4999999999999
 21
363.5000000000002
 31
0.0
  0
MTEXT
  5
F2E4
330
1F
100
AcDbEntity
  8
0文字
100
AcDbMText
 10
21.50000000000003
 20
375.5000000000002
 30
0.0
 40
3.2
 41
20.0
 71
     5
 72
     5
  1
左右勝手
 73
     1
 44
1.0
1001
ACAD
1000
MTEXTBEGIN
1070
    73
1070
     1
1070
    44
1040
1.0
1070
    74
1070
     0
1000
MTEXTEND
1000
ACAD_MTEXT_DEFINED_HEIGHT_BEGIN
1070
    46
1040
8.000000000000012
1000
ACAD_MTEXT_DEFINED_HEIGHT_END
  0
ENDSEC
  0
SECTION
  2
OBJECTS
  0
DICTIONARY
  5
C
330
0
100
AcDbDictionary
281
     1
  3
ACAD_2007HEADERVARS_RT
350
F38B
  3
ACAD_BGPLOT_KEY
350
AB06
  3
ACAD_COLOR
350
A91D
  3
ACAD_GROUP
350
D
  3
ACAD_LAYOUT
350
1A
  3
ACAD_MATERIAL
350
A91C
  3
ACAD_MLINESTYLE
350
17
  3
ACAD_PLOTSETTINGS
350
19
  3
ACAD_PLOTSTYLENAME
350
E
  3
ACAD_TABLESTYLE
350
AAB9
  3
ACAD_VISUALSTYLE
350
B0F1
  3
AcAsAppObject
350
3DA1
  3
ACASGREF_MASTER
350
3DE9
  3
AcDbVariableDictionary
350
34
  3
AcmDictionary
350
47
  3
AD_GREF_MODULE
350
3DEA
  3
AD_MAPI_MODULE
350
3E06
  3
AMG
350
2B
  3
AMGSNAPSETTINGS
350
7D
  3
ASE_INDEX_DICTIONARY
350
B331
  3
DWGPROPS
350
F38A
  3
MAPISURF_MODULE
350
3DEB
  0
DICTIONARY
  5
3F95
330
2
100
AcDbDictionary
280
     1
281
     1
  3
ACAD_LAYERFILTERS
360
B466
  3
ACAD_LAYERSTATES
360
3F96
  3
ACLYDICTIONARY
360
B465
  3
AMLAYER_GROUPCOLORS
360
AAB4
  0
DICTIONARY
  5
8A
330
1F
100
AcDbDictionary
280
     1
281
     1
  3
ACAD_SORTENTS
360
B1BA
  0
DICTIONARY
  5
F38B
102
{ACAD_REACTORS
330
C
102
}
330
C
100
AcDbDictionary
281
     1
  3
DIMARCSYM
350
F38C
  0
DICTIONARY
  5
AB06
102
{ACAD_REACTORS
330
C
102
}
330
C
100
AcDbDictionary
280
     1
281
     1
  0
DICTIONARY
  5
A91D
102
{ACAD_REACTORS
330
C
102
}
330
C
100
AcDbDictionary
281
     1
  0
DICTIONARY
  5
D
102
{ACAD_REACTORS
330
C
102
}
330
C
100
AcDbDictionary
281
     1
  0
DICTIONARY
  5
1A
102
{ACAD_REACTORS
330
C
102
}
330
C
100
AcDbDictionary
281
     1
  3
Model
350
22
  3
ﾚｲｱｳﾄ1
350
1E
  3
ﾚｲｱｳﾄ2
350
26
  0
DICTIONARY
  5
A91C
102
{ACAD_REACTORS
330
C
102
}
330
C
100
AcDbDictionary
281
     1
  3
ByBlock
350
B0EF
  3
ByLayer
350
B0EE
  3
Global
350
B0F0
  0
DICTIONARY
  5
17
102
{ACAD_REACTORS
330
C
102
}
330
C
100
AcDbDictionary
281
     1
  3
Standard
350
18
  0
DICTIONARY
  5
19
102
{ACAD_REACTORS
330
C
102
}
330
C
100
AcDbDictionary
281
     1
  0
ACDBDICTIONARYWDFLT
  5
E
102
{ACAD_REACTORS
330
C
102
}
330
C
100
AcDbDictionary
281
     1
  3
Normal
350
F
100
AcDbDictionaryWithDefault
340
F
  0
DICTIONARY
  5
AAB9
102
{ACAD_REACTORS
330
C
102
}
330
C
100
AcDbDictionary
281
     1
  3
Standard
350
AABA
  0
DICTIONARY
  5
B0F1
102
{ACAD_REACTORS
330
C
102
}
330
C
100
AcDbDictionary
281
     1
  3
2dWireframe
350
B0F7
  3
3D Hidden
350
B0F9
  3
3dWireframe
350
B0F8
  3
Basic
350
B0F6
  3
Brighten
350
B0FD
  3
ColorChange
350
B101
  3
Conceptual
350
B0FA
  3
Dim
350
B0FC
  3
Facepattern
350
B100
  3
Flat
350
B0F2
  3
FlatWithEdges
350
B0F3
  3
Gouraud
350
B0F4
  3
GouraudWithEdges
350
B0F5
  3
Linepattern
350
B0FF
  3
Realistic
350
B0FB
  3
Thicken
350
B0FE
  0
ACAD_PROXY_OBJECT
  5
3DA1
102
{ACAD_REACTORS
330
C
102
}
330
C
100
AcDbProxyObject
 90
      499
 91
      576
 95
       23
 70
     0
 93
       10
310
407F
 94
        0
1001
ACAD
1000
AcRTDxfName
1000
ASAPP
1000
AcRTDxfName
1000
ASAPP
  0
ACAD_PROXY_OBJECT
  5
3DE9
102
{ACAD_REACTORS
330
C
102
}
330
C
100
AcDbProxyObject
 90
      499
 91
      581
 95
       23
 70
     0
 93
       34
310
010000407F
 94
        0
1001
ACAD
1000
AcRTDxfName
1000
ACASGREFMASTER
1000
AcRTDxfName
1000
ACASGREFMASTER
  0
DICTIONARY
  5
34
102
{ACAD_REACTORS
330
C
102
}
330
C
100
AcDbDictionary
281
     1
  3
CTABLESTYLE
350
AAF3
  3
DIMASSOC
350
A10C
  3
FIELDEVAL
350
AB07
  3
HPORIGIN
350
EF9A
  3
INDEXCTL
350
35
  3
SORTENTS
350
194C
  0
DICTIONARY
  5
47
102
{ACAD_REACTORS
330
C
102
}
330
C
100
AcDbDictionary
281
     1
  3
AcmBOM
350
7E8
  3
AcmStdDictionary
350
4C
  3
AMDTSECTSYM_ARROWCOLOR
350
A929
  0
ACAD_PROXY_OBJECT
  5
3DEA
102
{ACAD_REACTORS
330
C
102
}
330
C
100
AcDbProxyObject
 90
      499
 91
      582
 95
       23
 70
     0
 93
      114
310
00000043800000000000000000003F
 94
        0
1001
ACAD
1000
AcRTDxfName
1000
ACADGREFMODULE
1000
AcRTDxfName
1000
ACADGREFMODULE
  0
ACAD_PROXY_OBJECT
  5
3E06
102
{ACAD_REACTORS
330
C
102
}
330
C
100
AcDbProxyObject
 90
      499
 91
      594
 95
       23
 70
     0
 93
       34
310
05000044FF
 94
        0
1001
ACAD
1000
AcRTDxfName
1000
MAPIADMODULE
1000
AcRTDxfName
1000
MAPIADMODULE
  0
DICTIONARY
  5
2B
102
{ACAD_REACTORS
330
C
102
}
330
C
100
AcDbDictionary
281
     1
  0
DICTIONARY
  5
7D
102
{ACAD_REACTORS
330
C
102
}
330
C
100
AcDbDictionary
281
     1
  0
DICTIONARY
  5
B331
102
{ACAD_REACTORS
330
C
102
}
330
C
100
AcDbDictionary
281
     1
  3
ASEBlockHierarchyIndexRecord
350
B332
1001
DCO15
1040
1594111214.218
  0
XRECORD
  5
F38A
102
{ACAD_REACTORS
330
C
102
}
330
C
100
AcDbXrecord
280
     1
  1
DWGPROPS COOKIE
  2

  3

  4

  6

  7

  8
Administrator
  9

300
AmdtFileType=84
301
=
302
=
303
=
304
=
305
=
306
=
307
=
308
=
309
=
 40
0.0772133564814815
 41
2455831.751787465
 42
2456030.718571319
  1

 90
        1
  0
ACAD_PROXY_OBJECT
  5
3DEB
102
{ACAD_REACTORS
330
C
102
}
330
C
100
AcDbProxyObject
 90
      499
 91
      583
 95
       23
 70
     0
 93
        8
310
0473
 94
        0
1001
ACAD
1000
AcRTDxfName
1000
AMDTMAPISURFMOUDULE
1000
AcRTDxfName
1000
AMDTMAPISURFMOUDULE
  0
DICTIONARY
  5
B466
102
{ACAD_REACTORS
330
3F95
102
}
330
3F95
100
AcDbDictionary
281
     1
  0
DICTIONARY
  5
3F96
102
{ACAD_REACTORS
330
3F95
102
}
330
3F95
100
AcDbDictionary
281
     1
  3
20011210
350
3FB7
  0
DICTIONARY
  5
B465
102
{ACAD_REACTORS
330
3F95
102
}
330
3F95
100
AcDbDictionary
281
     1
1001
ACAD
1000
<All
  0
DICTIONARY
  5
AAB4
102
{ACAD_REACTORS
330
3F95
102
}
330
3F95
100
AcDbDictionary
280
     1
281
     1
  0
SORTENTSTABLE
  5
B1BA
102
{ACAD_REACTORS
330
8A
102
}
330
8A
100
AcDbSortentsTable
330
1F
331
E9D1
  5
E9D4
331
EA08
  5
EA0E
331
B5B3
  5
B5B3
331
CDAA
  5
CDAA
331
EA47
  5
EA4E
331
F13E
  5
EA21
331
E9D9
  5
E9DC
331
EA10
  5
EA16
331
EA18
  5
EA1E
331
EA4F
  5
EA56
331
E9E1
  5
E9E4
331
F246
  5
F24F
331
EA20
  5
EA27
331
EA57
  5
EA5E
331
E9BA
  5
E9BA
331
E9E9
  5
E9ED
331
F24E
  5
F255
331
F256
  5
E9E7
331
EA5F
  5
EA66
331
D804
  5
D804
331
D448
  5
D448
331
D478
  5
D478
331
F06E
  5
F153
331
F271
  5
F272
331
BACB
  5
BACD
331
EA28
  5
EA2F
331
EA67
  5
EA6E
331
E9C2
  5
E9C5
331
E9F1
  5
E9F7
331
BAD3
  5
BAD5
331
EA30
  5
EA37
331
EA6F
  5
EC9D
331
E9CA
  5
E9CD
331
E9F9
  5
E9FF
331
EA38
  5
EA3F
331
EA01
  5
EA07
331
EA09
  5
EA0F
331
EA40
  5
EA47
331
B5B4
  5
B5B4
331
CDAB
  5
CDAB
331
E9D2
  5
E9D5
331
EA11
  5
EA17
331
EA48
  5
EA4F
331
E9DA
  5
E9DD
331
F247
  5
F250
331
E9E2
  5
E9E5
331
EA19
  5
EA1F
331
EA50
  5
EA57
331
EA58
  5
EA5F
331
F24F
  5
F256
331
E9BB
  5
E9BE
331
E9EA
  5
E9EE
331
EA21
  5
EA28
331
F257
  5
F259
331
D5FB
  5
D5FB
331
D70E
  5
D70E
331
EA29
  5
EA30
331
EA60
  5
EA67
331
F272
  5
F276
331
BACC
  5
BACE
331
EA31
  5
EA38
331
EA68
  5
EA6F
331
E9C3
  5
E9C6
331
E9F2
  5
E9F8
331
E9FA
  5
EA00
331
EA39
  5
EA40
331
CA84
  5
CA84
331
E9CB
  5
E9CE
331
EA70
  5
EC9E
331
EA02
  5
EA08
331
D4D1
  5
D4D1
331
E9D3
  5
E9D6
331
EA0A
  5
EA10
331
B5B5
  5
B5B5
331
CDAC
  5
CDAC
331
EA41
  5
EA48
331
EA49
  5
EA50
331
E9DB
  5
E9DE
331
EA12
  5
EA18
331
EA1A
  5
EA20
331
EA51
  5
EA58
331
E9E3
  5
E9E6
331
F250
  5
F257
331
EA22
  5
EA29
331
EA59
  5
EA60
331
E9BC
  5
E9BF
331
E9EB
  5
E9EF
331
D3D2
  5
D3D2
331
EDF1
  5
EFA4
331
F258
  5
F271
331
BACD
  5
BACF
331
EA2A
  5
EA31
331
EA61
  5
EA68
331
EA69
  5
EA70
331
E9C4
  5
E9C7
331
E9F3
  5
E9F9
331
BAD5
  5
BAD7
331
EA32
  5
EA39
331
EA3A
  5
EA41
331
EA71
  5
ECAF
331
E9CC
  5
E9CF
331
E9FB
  5
EA01
331
CDA5
  5
CDA5
331
EA03
  5
EA09
331
D8C6
  5
D8C6
331
F0D8
  5
F245
331
D6B4
  5
D6B4
331
EA0B
  5
EA11
331
EA42
  5
EA49
331
B5B6
  5
B5B6
331
CDAD
  5
CDAD
331
E9D4
  5
E9D7
331
E9DC
  5
E9DF
331
B5BE
  5
B5BE
331
EA13
  5
EA19
331
EA4A
  5
EA51
331
E9E4
  5
E9E8
331
EA1B
  5
EA22
331
EA52
  5
EA59
331
EA5A
  5
EA61
331
E9BD
  5
E9C0
331
E9EC
  5
E9F0
331
EA23
  5
EA2A
331
E01A
  5
E045
331
EE62
  5
EFCD
331
BACE
  5
BAD0
331
EA2B
  5
EA32
331
EA62
  5
EA69
331
EA33
  5
EA3A
331
EA6A
  5
EA71
331
E9C5
  5
E9C8
331
E9F4
  5
E9FA
331
E9FC
  5
EA02
331
EA3B
  5
EA42
331
E9CD
  5
E9D0
331
EA72
  5
EE62
331
EA04
  5
EA0A
331
CDA6
  5
CDA6
331
D778
  5
D778
331
EF12
  5
F06E
331
EF6A
  5
F0D8
331
EA43
  5
EA4A
331
E9D5
  5
E9D8
331
EA0C
  5
EA12
331
CDAE
  5
CDAE
331
EA4B
  5
EA52
331
E9DD
  5
E9E0
331
B5BF
  5
B5BF
331
EA14
  5
EA1A
331
EA1C
  5
EA23
331
EA53
  5
EA5A
331
CFEE
  5
CFEE
331
E9E5
  5
E9E9
331
E9ED
  5
E9F2
331
EA24
  5
EA2B
331
BAC7
  5
BAC8
331
E9BE
  5
E9C1
331
EA5B
  5
EA62
331
D67E
  5
D67E
331
EA2C
  5
EA33
331
BACF
  5
BAD1
331
F286
  5
E9BD
331
EA63
  5
EA6A
331
EA6B
  5
EA72
331
E9C6
  5
E9C9
331
E9F5
  5
E9FB
331
EA34
  5
EA3B
331
EA3C
  5
EA43
331
EA73
  5
EF12
331
E9CE
  5
E9D1
331
E9FD
  5
EA03
331
CDA7
  5
CDA7
331
EA05
  5
EA0B
331
D69E
  5
D69E
331
EA0D
  5
EA13
331
EA44
  5
EA4B
331
CDAF
  5
CDAF
331
E9D6
  5
E9D9
331
E9DE
  5
E9E1
331
B5C0
  5
B5C0
331
EA15
  5
EA1B
331
EA4C
  5
EA53
331
EA54
  5
EA5B
331
E9E6
  5
E9EA
331
EA1D
  5
EA24
331
EA5C
  5
EA63
331
E9BF
  5
E9C2
331
E9EE
  5
E9F4
331
EA25
  5
EA2C
331
D851
  5
D851
331
D627
  5
D627
331
EEA4
  5
F045
331
BAD0
  5
BAD3
331
EA2D
  5
EA34
331
EA64
  5
EA6B
331
E9F6
  5
E9FC
331
EA35
  5
EA3C
331
E9C7
  5
E9CA
331
EA6C
  5
EA73
331
E9FE
  5
EA04
331
EA3D
  5
EA44
331
E9CF
  5
E9D2
331
EA74
  5
EF54
331
EA06
  5
EA0C
331
D792
  5
D792
331
EF54
  5
F095
331
D5E5
  5
D5E5
331
D7C2
  5
D7C2
331
EFA4
  5
F12D
331
CDA8
  5
CDA8
331
EA45
  5
EA4C
331
CDB0
  5
CDB0
331
E9D7
  5
E9DA
331
EA0E
  5
EA14
331
EA4D
  5
EA54
331
F244
  5
F247
331
E9DF
  5
E9E2
331
B5C1
  5
B5C1
331
EA16
  5
EA1C
331
EA1E
  5
EA25
331
EA55
  5
EA5C
331
E9E7
  5
E9EB
331
E9EF
  5
E9F5
331
EA26
  5
EA2D
331
EA5D
  5
EA64
331
D7EA
  5
D7EA
331
D81A
  5
D81A
331
D45E
  5
D45E
331
BAC9
  5
BACB
331
EA65
  5
EA6C
331
EA2E
  5
EA35
331
BAD1
  5
BAD4
331
E9C0
  5
E9C3
331
EA6D
  5
EA74
331
E9C8
  5
E9CB
331
E9F7
  5
E9FD
331
EA36
  5
EA3D
331
EA3E
  5
EA45
331
EA75
  5
EF6A
331
E9FF
  5
EA05
331
EA07
  5
EA0D
331
F12D
  5
F246
331
D8F2
  5
D8F2
331
D6F8
  5
D6F8
331
D5C6
  5
D5C6
331
CDA9
  5
CDA9
331
E9D0
  5
E9D3
331
EA0F
  5
EA15
331
EA46
  5
EA4D
331
E9D8
  5
E9DB
331
F245
  5
F24E
331
E9E0
  5
E9E3
331
EA17
  5
EA1D
331
EA4E
  5
EA55
331
EA56
  5
EA5D
331
E9B9
  5
E9B9
331
E9E8
  5
E9EC
331
BAC2
  5
BAC2
331
EA1F
  5
EA26
331
EA5E
  5
EA65
331
F255
  5
F258
331
EA27
  5
EA2E
331
D611
  5
D611
331
EFCD
  5
F133
331
F045
  5
F140
331
F095
  5
F244
331
F270
  5
E9F3
331
BACA
  5
BACC
331
EA2F
  5
EA36
331
EA66
  5
EA6D
331
E9C1
  5
E9C4
331
E9F0
  5
E9F6
331
E9F8
  5
E9FE
331
EA37
  5
EA3E
331
E9C9
  5
E9CC
331
EA6E
  5
EA75
331
EA00
  5
EA06
331
EA3F
  5
EA46
331
D7AC
  5
D7AC
331
DFF3
  5
E01A
  0
XRECORD
  5
F38C
102
{ACAD_REACTORS
330
F38B
102
}
330
F38B
100
AcDbXrecord
280
     1
 70
     1
  0
LAYOUT
  5
22
102
{ACAD_XDICTIONARY
360
F38F
102
}
102
{ACAD_REACTORS
330
1A
102
}
330
1A
100
AcDbPlotSettings
  1

  2
Adobe PDF
  4
User66
  6
AM_VIEW1
 40
3.174999952316283
 41
3.174999952316283
 42
3.17498779296875
 43
3.17498779296875
 44
420.0
 45
594.0
 46
-3.174993872642517
 47
-3.174993872642517
 48
214.3704939521119
 49
367.5855324241177
140
275.6727856380065
141
407.6291914078169
142
1.0
143
1.0
 70
  3748
 72
     1
 73
     1
 74
     2
  7
monochrome.ctb
 75
     0
147
0.9787267410393916
148
0.0
149
0.0
100
AcDbLayout
  1
Model
 70
     1
 71
     0
 10
0.0
 20
0.0
 11
12.0
 21
9.0
 12
0.0
 22
0.0
 32
0.0
 14
0.0
 24
0.0
 34
0.0
 15
0.0
 25
0.0
 35
0.0
146
0.0
 13
0.0
 23
0.0
 33
0.0
 16
1.0
 26
0.0
 36
0.0
 17
0.0
 27
1.0
 37
0.0
 76
     0
330
1F
331
B0EC
1001
ACAD_PSEXT
1000
Adobe PDF
1000
Adobe PDF Converter
1000
My Documents\*.pdf
1000

1070
     0
  0
LAYOUT
  5
1E
102
{ACAD_XDICTIONARY
360
F38D
102
}
102
{ACAD_REACTORS
330
1A
102
}
330
1A
100
AcDbPlotSettings
  1

  2
\\ML370\XEROX
  4
A4
  6

 40
3.174999952316283
 41
3.174999952316283
 42
3.175003051757812
 43
3.17498779296875
 44
209.8674926757813
 45
296.6719970703125
 46
0.0
 47
0.0
 48
0.0
 49
0.0
140
0.0
141
0.0
142
1.0
143
1.0
 70
   688
 72
     1
 73
     1
 74
     5
  7
monochrome.ctb
 75
    16
147
1.0
148
0.0
149
0.0
100
AcDbLayout
  1
ﾚｲｱｳﾄ1
 70
     1
 71
     1
 10
-3.17498779296875
 20
-3.174999952316283
 11
293.4970092773438
 21
206.692492723465
 12
0.0
 22
0.0
 32
0.0
 14
1.000000000000000E+20
 24
1.000000000000000E+20
 34
1.000000000000000E+20
 15
-1.000000000000000E+20
 25
-1.000000000000000E+20
 35
-1.000000000000000E+20
146
0.0
 13
0.0
 23
0.0
 33
0.0
 16
1.0
 26
0.0
 36
0.0
 17
0.0
 27
1.0
 37
0.0
 76
     0
330
1B
  0
LAYOUT
  5
26
102
{ACAD_XDICTIONARY
360
F391
102
}
102
{ACAD_REACTORS
330
1A
102
}
330
1A
100
AcDbPlotSettings
  1

  2
\\ML370\XEROX
  4

  6

 40
0.0
 41
0.0
 42
0.0
 43
0.0
 44
0.0
 45
0.0
 46
0.0
 47
0.0
 48
0.0
 49
0.0
140
0.0
141
0.0
142
1.0
143
1.0
 70
   688
 72
     0
 73
     0
 74
     5
  7
monochrome.ctb
 75
    16
147
1.0
148
0.0
149
0.0
100
AcDbLayout
  1
ﾚｲｱｳﾄ2
 70
     1
 71
     2
 10
0.0
 20
0.0
 11
12.0
 21
9.0
 12
0.0
 22
0.0
 32
0.0
 14
0.0
 24
0.0
 34
0.0
 15
0.0
 25
0.0
 35
0.0
146
0.0
 13
0.0
 23
0.0
 33
0.0
 16
1.0
 26
0.0
 36
0.0
 17
0.0
 27
1.0
 37
0.0
 76
     0
330
23
  0
MATERIAL
  5
B0EF
102
{ACAD_XDICTIONARY
360
F305
102
}
102
{ACAD_REACTORS
330
A91C
102
}
330
A91C
100
AcDbMaterial
  1
ByBlock
  0
MATERIAL
  5
B0EE
102
{ACAD_XDICTIONARY
360
F303
102
}
102
{ACAD_REACTORS
330
A91C
102
}
330
A91C
100
AcDbMaterial
  1
ByLayer
  0
MATERIAL
  5
B0F0
102
{ACAD_XDICTIONARY
360
F307
102
}
102
{ACAD_REACTORS
330
A91C
102
}
330
A91C
100
AcDbMaterial
  1
Global
  0
MLINESTYLE
  5
18
102
{ACAD_REACTORS
330
17
102
}
330
17
100
AcDbMlineStyle
  2
STANDARD
 70
     0
  3

 62
   256
 51
90.0
 52
90.0
 71
     2
 49
0.5
 62
   256
  6
BYLAYER
 49
-0.5
 62
   256
  6
BYLAYER
  0
ACDBPLACEHOLDER
  5
F
102
{ACAD_REACTORS
330
E
102
}
330
E
  0
TABLESTYLE
  5
AABA
102
{ACAD_XDICTIONARY
360
F393
102
}
102
{ACAD_REACTORS
330
AAB9
102
}
330
AAB9
100
AcDbTableStyle
  3
Standard
 70
     0
 71
     0
 40
1.5
 41
1.5
280
     0
281
     0
  7
STANDARD
140
4.5
170
     2
 62
     0
 63
     7
283
     0
274
    -2
284
     1
 64
     0
275
    -2
285
     1
 65
     0
276
    -2
286
     1
 66
     0
277
    -2
287
     1
 67
     0
278
    -2
288
     1
 68
     0
279
    -2
289
     1
 69
     0
  7
STANDARD
140
6.0
170
     5
 62
     0
 63
     7
283
     0
274
    -2
284
     1
 64
     0
275
    -2
285
     1
 65
     0
276
    -2
286
     1
 66
     0
277
    -2
287
     1
 67
     0
278
    -2
288
     1
 68
     0
279
    -2
289
     1
 69
     0
  7
STANDARD
140
4.5
170
     5
 62
     0
 63
     7
283
     0
274
    -2
284
     1
 64
     0
275
    -2
285
     1
 65
     0
276
    -2
286
     1
 66
     0
277
    -2
287
     1
 67
     0
278
    -2
288
     1
 68
     0
279
    -2
289
     1
 69
     0
  0
VISUALSTYLE
  5
B0F7
102
{ACAD_REACTORS
330
B0F1
102
}
330
B0F1
100
AcDbVisualStyle
  2
2dWireframe
 70
     4
 71
     0
 72
     2
 73
     0
 90
        0
 40
-0.6
 41
-30.0
 62
     5
 63
     7
 74
     1
 91
        4
 64
     7
 65
   257
 75
     1
175
     1
 42
1.0
 92
        0
 66
   257
 43
1.0
 76
     1
 77
     6
 78
     2
 67
     7
 79
     5
170
     0
171
     0
290
     0
174
     0
 93
        1
 44
0.0
173
     0
291
     0
 45
0.0
1001
ACAD
1000
AcDbSavedByObjectVersion
1070
     0
1000
AcDbSavedByObjectVersion
1070
     0
  0
VISUALSTYLE
  5
B0F9
102
{ACAD_REACTORS
330
B0F1
102
}
330
B0F1
100
AcDbVisualStyle
  2
3D Hidden
 70
     6
 71
     1
 72
     2
 73
     2
 90
        0
 40
-0.6
 41
-30.0
 62
     5
 63
     7
 74
     2
 91
        2
 64
     7
 65
   257
 75
     2
175
     1
 42
40.0
 92
        0
 66
   257
 43
1.0
 76
     1
 77
     6
 78
     2
 67
     7
 79
     3
170
     0
171
     0
290
     0
174
     0
 93
        1
 44
0.0
173
     0
291
     0
 45
0.0
1001
ACAD
1000
AcDbSavedByObjectVersion
1070
     0
1000
AcDbSavedByObjectVersion
1070
     0
  0
VISUALSTYLE
  5
B0F8
102
{ACAD_REACTORS
330
B0F1
102
}
330
B0F1
100
AcDbVisualStyle
  2
3dWireframe
 70
     5
 71
     0
 72
     2
 73
     0
 90
        0
 40
-0.6
 41
-30.0
 62
     5
 63
     7
 74
     1
 91
        4
 64
     7
 65
   257
 75
     1
175
     1
 42
1.0
 92
        0
 66
   257
 43
1.0
 76
     1
 77
     6
 78
     2
 67
     7
 79
     5
170
     0
171
     0
290
     0
174
     0
 93
        1
 44
0.0
173
     0
291
     0
 45
0.0
1001
ACAD
1000
AcDbSavedByObjectVersion
1070
     0
1000
AcDbSavedByObjectVersion
1070
     0
  0
VISUALSTYLE
  5
B0F6
102
{ACAD_REACTORS
330
B0F1
102
}
330
B0F1
100
AcDbVisualStyle
  2
Basic
 70
     7
 71
     1
 72
     0
 73
     1
 90
        0
 40
-0.6
 41
-30.0
 62
     5
 63
     7
 74
     0
 91
        4
 64
     7
 65
   257
 75
     1
175
     1
 42
1.0
 92
        8
 66
     7
 43
1.0
 76
     1
 77
     6
 78
     2
 67
     7
 79
     5
170
     0
171
     0
290
     0
174
     0
 93
        1
 44
0.0
173
     0
291
     1
 45
0.0
1001
ACAD
1000
AcDbSavedByObjectVersion
1070
     0
1000
AcDbSavedByObjectVersion
1070
     0
  0
VISUALSTYLE
  5
B0FD
102
{ACAD_REACTORS
330
B0F1
102
}
330
B0F1
100
AcDbVisualStyle
  2
Brighten
 70
    12
 71
     2
 72
     2
 73
     0
 90
        0
 40
-0.6
 41
-30.0
 62
     5
 63
     7
 74
     1
 91
        4
 64
     7
 65
   257
 75
     1
175
     1
 42
1.0
 92
        8
 66
     7
 43
1.0
 76
     1
 77
     6
 78
     2
 67
     7
 79
     5
170
     0
171
     0
290
     0
174
     0
 93
        1
 44
50.0
173
     0
291
     1
 45
0.0
1001
ACAD
1000
AcDbSavedByObjectVersion
1070
     0
1000
AcDbSavedByObjectVersion
1070
     0
  0
VISUALSTYLE
  5
B101
102
{ACAD_REACTORS
330
B0F1
102
}
330
B0F1
100
AcDbVisualStyle
  2
ColorChange
 70
    16
 71
     2
 72
     2
 73
     3
 90
        0
 40
-0.6
 41
-30.0
 62
     5
 63
     8
 74
     1
 91
        4
 64
     7
 65
   257
 75
     1
175
     1
 42
1.0
 92
        8
 66
     8
 43
1.0
 76
     1
 77
     6
 78
     2
 67
     7
 79
     5
170
     0
171
     0
290
     0
174
     0
 93
        1
 44
0.0
173
     0
291
     1
 45
0.0
1001
ACAD
1000
AcDbSavedByObjectVersion
1070
     0
1000
AcDbSavedByObjectVersion
1070
     0
  0
VISUALSTYLE
  5
B0FA
102
{ACAD_REACTORS
330
B0F1
102
}
330
B0F1
100
AcDbVisualStyle
  2
Conceptual
 70
     9
 71
     3
 72
     2
 73
     0
 90
        0
 40
-0.6
 41
-30.0
 62
     5
 63
     7
 74
     2
 91
        2
 64
     7
 65
   257
 75
     1
175
     1
 42
40.0
 92
        8
 66
     7
 43
1.0
 76
     1
 77
     6
 78
     2
 67
     7
 79
     3
170
     0
171
     0
290
     0
174
     0
 93
        1
 44
0.0
173
     0
291
     0
 45
0.0
1001
ACAD
1000
AcDbSavedByObjectVersion
1070
     0
1000
AcDbSavedByObjectVersion
1070
     0
  0
VISUALSTYLE
  5
B0FC
102
{ACAD_REACTORS
330
B0F1
102
}
330
B0F1
100
AcDbVisualStyle
  2
Dim
 70
    11
 71
     2
 72
     2
 73
     0
 90
        0
 40
-0.6
 41
-30.0
 62
     5
 63
     7
 74
     1
 91
        4
 64
     7
 65
   257
 75
     1
175
     1
 42
1.0
 92
        8
 66
     7
 43
1.0
 76
     1
 77
     6
 78
     2
 67
     7
 79
     5
170
     0
171
     0
290
     0
174
     0
 93
        1
 44
-50.0
173
     0
291
     1
 45
0.0
1001
ACAD
1000
AcDbSavedByObjectVersion
1070
     0
1000
AcDbSavedByObjectVersion
1070
     0
  0
VISUALSTYLE
  5
B100
102
{ACAD_REACTORS
330
B0F1
102
}
330
B0F1
100
AcDbVisualStyle
  2
Facepattern
 70
    15
 71
     2
 72
     2
 73
     0
 90
        0
 40
-0.6
 41
-30.0
 62
     5
 63
     7
 74
     1
 91
        4
 64
     7
 65
   257
 75
     1
175
     1
 42
1.0
 92
        8
 66
     7
 43
1.0
 76
     1
 77
     6
 78
     2
 67
     7
 79
     5
170
     0
171
     0
290
     0
174
     0
 93
        1
 44
0.0
173
     0
291
     1
 45
0.0
1001
ACAD
1000
AcDbSavedByObjectVersion
1070
     0
1000
AcDbSavedByObjectVersion
1070
     0
  0
VISUALSTYLE
  5
B0F2
102
{ACAD_REACTORS
330
B0F1
102
}
330
B0F1
100
AcDbVisualStyle
  2
Flat
 70
     0
 71
     2
 72
     1
 73
     1
 90
        2
 40
-0.6
 41
30.0
 62
     5
 63
     7
 74
     0
 91
        4
 64
     7
 65
   257
 75
     1
175
     1
 42
1.0
 92
        8
 66
     7
 43
1.0
 76
     1
 77
     6
 78
     2
 67
     7
 79
     5
170
     0
171
     0
290
     0
174
     0
 93
       13
 44
0.0
173
     0
291
     1
 45
0.0
1001
ACAD
1000
AcDbSavedByObjectVersion
1070
     0
1000
AcDbSavedByObjectVersion
1070
     0
  0
VISUALSTYLE
  5
B0F3
102
{ACAD_REACTORS
330
B0F1
102
}
330
B0F1
100
AcDbVisualStyle
  2
FlatWithEdges
 70
     1
 71
     2
 72
     1
 73
     1
 90
        2
 40
-0.6
 41
30.0
 62
     5
 63
     7
 74
     1
 91
        4
 64
     7
 65
   257
 75
     1
175
     1
 42
1.0
 92
        0
 66
   257
 43
1.0
 76
     1
 77
     6
 78
     2
 67
     7
 79
     5
170
     0
171
     0
290
     0
174
     0
 93
       13
 44
0.0
173
     0
291
     1
 45
0.0
1001
ACAD
1000
AcDbSavedByObjectVersion
1070
     0
1000
AcDbSavedByObjectVersion
1070
     0
  0
VISUALSTYLE
  5
B0F4
102
{ACAD_REACTORS
330
B0F1
102
}
330
B0F1
100
AcDbVisualStyle
  2
Gouraud
 70
     2
 71
     2
 72
     2
 73
     1
 90
        2
 40
-0.6
 41
30.0
 62
     5
 63
     7
 74
     0
 91
        4
 64
     7
 65
   257
 75
     1
175
     1
 42
1.0
 92
        0
 66
     7
 43
1.0
 76
     1
 77
     6
 78
     2
 67
     7
 79
     5
170
     0
171
     0
290
     0
174
     0
 93
       13
 44
0.0
173
     0
291
     1
 45
0.0
1001
ACAD
1000
AcDbSavedByObjectVersion
1070
     0
1000
AcDbSavedByObjectVersion
1070
     0
  0
VISUALSTYLE
  5
B0F5
102
{ACAD_REACTORS
330
B0F1
102
}
330
B0F1
100
AcDbVisualStyle
  2
GouraudWithEdges
 70
     3
 71
     2
 72
     2
 73
     1
 90
        2
 40
-0.6
 41
30.0
 62
     5
 63
     7
 74
     1
 91
        4
 64
     7
 65
   257
 75
     1
175
     1
 42
1.0
 92
        0
 66
   257
 43
1.0
 76
     1
 77
     6
 78
     2
 67
     7
 79
     5
170
     0
171
     0
290
     0
174
     0
 93
       13
 44
0.0
173
     0
291
     1
 45
0.0
1001
ACAD
1000
AcDbSavedByObjectVersion
1070
     0
1000
AcDbSavedByObjectVersion
1070
     0
  0
VISUALSTYLE
  5
B0FF
102
{ACAD_REACTORS
330
B0F1
102
}
330
B0F1
100
AcDbVisualStyle
  2
Linepattern
 70
    14
 71
     2
 72
     2
 73
     0
 90
        0
 40
-0.6
 41
-30.0
 62
     5
 63
     7
 74
     1
 91
        4
 64
     7
 65
   257
 75
     7
175
     7
 42
1.0
 92
        8
 66
     7
 43
1.0
 76
     1
 77
     6
 78
     2
 67
     7
 79
     5
170
     0
171
     0
290
     0
174
     0
 93
        1
 44
0.0
173
     0
291
     1
 45
0.0
1001
ACAD
1000
AcDbSavedByObjectVersion
1070
     0
1000
AcDbSavedByObjectVersion
1070
     0
  0
VISUALSTYLE
  5
B0FB
102
{ACAD_REACTORS
330
B0F1
102
}
330
B0F1
100
AcDbVisualStyle
  2
Realistic
 70
     8
 71
     2
 72
     2
 73
     0
 90
        0
 40
-0.6
 41
-30.0
 62
     5
 63
     7
 74
     1
 91
        0
 64
     7
 65
   257
 75
     1
175
     1
 42
1.0
 92
        8
 66
     8
 43
1.0
 76
     1
 77
     6
 78
     2
 67
     7
 79
     5
170
     0
171
     0
290
     0
174
     0
 93
       13
 44
0.0
173
     0
291
     0
 45
0.0
1001
ACAD
1000
AcDbSavedByObjectVersion
1070
     0
1000
AcDbSavedByObjectVersion
1070
     0
  0
VISUALSTYLE
  5
B0FE
102
{ACAD_REACTORS
330
B0F1
102
}
330
B0F1
100
AcDbVisualStyle
  2
Thicken
 70
    13
 71
     2
 72
     2
 73
     0
 90
        0
 40
-0.6
 41
-30.0
 62
     5
 63
     7
 74
     1
 91
        4
 64
     7
 65
   257
 75
     1
175
     1
 42
1.0
 92
       12
 66
     7
 43
1.0
 76
     1
 77
     6
 78
     2
 67
     7
 79
     5
170
     0
171
     0
290
     0
174
     0
 93
        1
 44
0.0
173
     0
291
     1
 45
0.0
1001
ACAD
1000
AcDbSavedByObjectVersion
1070
     0
1000
AcDbSavedByObjectVersion
1070
     0
  0
DICTIONARYVAR
  5
AAF3
102
{ACAD_REACTORS
330
34
102
}
330
34
100
DictionaryVariables
280
     0
  1
STANDARD
  0
DICTIONARYVAR
  5
A10C
102
{ACAD_REACTORS
330
34
102
}
330
34
100
DictionaryVariables
280
     0
  1
1
  0
DICTIONARYVAR
  5
AB07
102
{ACAD_REACTORS
330
34
102
}
330
34
100
DictionaryVariables
280
     0
  1
4
  0
DICTIONARYVAR
  5
EF9A
102
{ACAD_REACTORS
330
34
102
}
330
34
100
DictionaryVariables
280
     0
  1
-9.875104;-455.927448
  0
DICTIONARYVAR
  5
35
102
{ACAD_REACTORS
330
34
102
}
330
34
100
DictionaryVariables
280
     0
  1
0
  0
DICTIONARYVAR
  5
194C
102
{ACAD_REACTORS
330
34
102
}
330
34
100
DictionaryVariables
280
     0
  1
96
  0
DICTIONARY
  5
7E8
102
{ACAD_REACTORS
330
47
102
}
330
47
100
AcDbDictionary
281
     1
  0
DICTIONARY
  5
4C
102
{ACAD_REACTORS
330
47
102
}
330
47
100
AcDbDictionary
281
     1
  0
XRECORD
  5
A929
102
{ACAD_REACTORS
330
47
102
}
330
47
100
AcDbXrecord
280
     1
 90
-1023410169
  0
XRECORD
  5
B332
102
{ACAD_REACTORS
330
B331
102
}
330
B331
100
AcDbXrecord
280
     1
  0
XRECORD
  5
3FB7
102
{ACAD_REACTORS
330
3F96
102
}
330
3F96
100
AcDbXrecord
280
     1
 91
        3
330
0
 90
        8
 62
     7
370
    40
331
16
  1
Color_7
330
0
 90
        0
 62
    14
370
    -3
331
16
  1
Color_14
330
0
 90
        8
 62
     7
370
    20
331
16
  1
Color_7
330
6D1
 90
        0
 62
     7
370
    -3
331
16
  1
Color_7
330
0
 90
        8
 62
     7
370
    50
331
16
  1
Color_7
330
0
 90
        8
 62
     2
370
    35
331
16
  1
Color_2
330
0
 90
        8
 62
     7
370
    -3
331
16
  1
Color_7
330
10
 90
        8
 62
     7
370
    -3
331
16
  1
Color_7
  0
DICTIONARY
  5
F38F
330
22
100
AcDbDictionary
280
     1
281
     1
  3
ACAD_XREC_ROUNDTRIP
360
F390
  0
DICTIONARY
  5
F38D
330
1E
100
AcDbDictionary
280
     1
281
     1
  3
ACAD_XREC_ROUNDTRIP
360
F38E
  0
DICTIONARY
  5
F391
330
26
100
AcDbDictionary
280
     1
281
     1
  3
ACAD_XREC_ROUNDTRIP
360
F392
  0
DICTIONARY
  5
F305
330
B0EF
100
AcDbDictionary
280
     1
281
     1
  3
ACAD_XREC_ROUNDTRIP
360
F306
  0
DICTIONARY
  5
F303
330
B0EE
100
AcDbDictionary
280
     1
281
     1
  3
ACAD_XREC_ROUNDTRIP
360
F304
  0
DICTIONARY
  5
F307
330
B0F0
100
AcDbDictionary
280
     1
281
     1
  3
ACAD_XREC_ROUNDTRIP
360
F308
  0
DICTIONARY
  5
F393
330
AABA
100
AcDbDictionary
280
     1
281
     1
  3
ACAD_XREC_ROUNDTRIP
360
F394
  0
XRECORD
  5
F390
102
{ACAD_REACTORS
330
F38F
102
}
330
F38F
100
AcDbXrecord
280
     1
102
SHADEPLOT
 70
     0
102
SHADEPLOTRESLEVEL
 70
     2
102
SHADEPLOTCUSTOMDPI
 70
   200
  0
XRECORD
  5
F38E
102
{ACAD_REACTORS
330
F38D
102
}
330
F38D
100
AcDbXrecord
280
     1
102
SHADEPLOT
 70
     0
102
SHADEPLOTRESLEVEL
 70
     2
102
SHADEPLOTCUSTOMDPI
 70
   300
  0
XRECORD
  5
F392
102
{ACAD_REACTORS
330
F391
102
}
330
F391
100
AcDbXrecord
280
     1
102
SHADEPLOT
 70
     0
102
SHADEPLOTRESLEVEL
 70
     2
102
SHADEPLOTCUSTOMDPI
 70
   300
  0
XRECORD
  5
F306
102
{ACAD_REACTORS
330
F305
102
}
330
F305
100
AcDbXrecord
280
     1
102
MATERIAL
148
0.0
149
0.0
149
0.0
 93
        0
 94
       63
282
     0
 72
     1
 77
     1
171
     1
175
     1
179
     1
273
     0
  0
XRECORD
  5
F304
102
{ACAD_REACTORS
330
F303
102
}
330
F303
100
AcDbXrecord
280
     1
102
MATERIAL
148
0.0
149
0.0
149
0.0
 93
        0
 94
       63
282
     0
 72
     1
 77
     1
171
     1
175
     1
179
     1
273
     0
  0
XRECORD
  5
F308
102
{ACAD_REACTORS
330
F307
102
}
330
F307
100
AcDbXrecord
280
     1
102
MATERIAL
148
0.0
149
0.0
149
0.0
 93
        0
 94
       63
282
     0
 72
     1
 77
     1
171
     1
175
     1
179
     1
273
     0
  0
XRECORD
  5
F394
102
{ACAD_REACTORS
330
F393
102
}
330
F393
100
AcDbXrecord
280
     1
102
ACAD_ROUNDTRIP_PRE2007_TABLESTYLE
 90
        4
 91
        0
  1

 92
        4
 93
        0
  2

 94
        4
 95
        0
  3

  0
ENDSEC
  0
EOF
