  0
SECTION
  2
HEADER
  9
$ACADVER
  1
AC1018
  9
$ACADMAINTVER
 70
   104
  9
$DWGCODEPAGE
  3
ANSI_932
  9
$LASTSAVEDBY
  1
shibutani
  9
$CUSTOMPROPERTYTAG
  1
AmdtFileType
  9
$CUSTOMPROPERTY
  1
84
  9
$INSBASE
 10
0.0
 20
0.0
 30
0.0
  9
$EXTMIN
 10
3496.249396329135
 20
-385.0037883664636
 30
0.0
  9
$EXTMAX
 10
3916.249396329135
 20
-88.00378836646359
 30
0.0
  9
$LIMMIN
 10
1639.152524298923
 20
1723.453332028125
  9
$LIMMAX
 10
2479.152524298923
 20
2317.453332028124
  9
$ORTHOMODE
 70
     0
  9
$REGENMODE
 70
     1
  9
$FILLMODE
 70
     1
  9
$QTEXTMODE
 70
     0
  9
$MIRRTEXT
 70
     0
  9
$LTSCALE
 40
1.0
  9
$ATTMODE
 70
     1
  9
$TEXTSIZE
 40
3.2
  9
$TRACEWID
 40
1.0
  9
$TEXTSTYLE
  7
STANDARD
  9
$CLAYER
  8
AM_CL
  9
$CELTYPE
  6
Continuous
  9
$CECOLOR
 62
   256
  9
$CELTSCALE
 40
0.3
  9
$DISPSILH
 70
     0
  9
$DIMSCALE
 40
1.0
  9
$DIMASZ
 40
2.5
  9
$DIMEXO
 40
1.0
  9
$DIMDLI
 40
10.0
  9
$DIMRND
 40
0.0
  9
$DIMDLE
 40
0.0
  9
$DIMEXE
 40
1.0
  9
$DIMTP
 40
0.2
  9
$DIMTM
 40
0.0
  9
$DIMTXT
 40
3.5
  9
$DIMCEN
 40
0.0
  9
$DIMTSZ
 40
0.0
  9
$DIMTOL
 70
     0
  9
$DIMLIM
 70
     0
  9
$DIMTIH
 70
     0
  9
$DIMTOH
 70
     0
  9
$DIMSE1
 70
     0
  9
$DIMSE2
 70
     0
  9
$DIMTAD
 70
     1
  9
$DIMZIN
 70
     8
  9
$DIMBLK
  1

  9
$DIMASO
 70
     1
  9
$DIMSHO
 70
     1
  9
$DIMPOST
  1

  9
$DIMAPOST
  1
"
  9
$DIMALT
 70
     0
  9
$DIMALTD
 70
     2
  9
$DIMALTF
 40
0.0393701
  9
$DIMLFAC
 40
1.0
  9
$DIMTOFL
 70
     1
  9
$DIMTVP
 40
0.0
  9
$DIMTIX
 70
     0
  9
$DIMSOXD
 70
     0
  9
$DIMSAH
 70
     0
  9
$DIMBLK1
  1

  9
$DIMBLK2
  1

  9
$DIMSTYLE
  2
SYS
  9
$DIMCLRD
 70
   256
  9
$DIMCLRE
 70
   256
  9
$DIMCLRT
 70
     7
  9
$DIMTFAC
 40
0.71
  9
$DIMGAP
 40
1.5
  9
$DIMJUST
 70
     0
  9
$DIMSD1
 70
     0
  9
$DIMSD2
 70
     0
  9
$DIMTOLJ
 70
     0
  9
$DIMTZIN
 70
     8
  9
$DIMALTZ
 70
     0
  9
$DIMALTTZ
 70
     0
  9
$DIMUPT
 70
     0
  9
$DIMDEC
 70
     1
  9
$DIMTDEC
 70
     1
  9
$DIMALTU
 70
     2
  9
$DIMALTTD
 70
     2
  9
$DIMTXSTY
  7
STANDARD
  9
$DIMAUNIT
 70
     0
  9
$DIMADEC
 70
     1
  9
$DIMALTRND
 40
0.0
  9
$DIMAZIN
 70
     2
  9
$DIMDSEP
 70
    46
  9
$DIMATFIT
 70
     3
  9
$DIMFRAC
 70
     0
  9
$DIMLDRBLK
  1

  9
$DIMLUNIT
 70
     2
  9
$DIMLWD
 70
    -1
  9
$DIMLWE
 70
    -1
  9
$DIMTMOVE
 70
     0
  9
$LUNITS
 70
     2
  9
$LUPREC
 70
     2
  9
$SKETCHINC
 40
1.0
  9
$FILLETRAD
 40
6.0
  9
$AUNITS
 70
     0
  9
$AUPREC
 70
     0
  9
$MENU
  1
.
  9
$ELEVATION
 40
0.0
  9
$PELEVATION
 40
0.0
  9
$THICKNESS
 40
0.0
  9
$LIMCHECK
 70
     0
  9
$CHAMFERA
 40
1.5
  9
$CHAMFERB
 40
1.5
  9
$CHAMFERC
 40
20.0
  9
$CHAMFERD
 40
0.0
  9
$SKPOLY
 70
     0
  9
$TDCREATE
 40
2453049.654239965
  9
$TDUCREATE
 40
2453049.279239965
  9
$TDUPDATE
 40
2455937.489850440
  9
$TDUUPDATE
 40
2455937.114850440
  9
$TDINDWG
 40
97.4399596644
  9
$TDUSRTIMER
 40
97.4399551505
  9
$USRTIMER
 70
     1
  9
$ANGBASE
 50
0.0
  9
$ANGDIR
 70
     0
  9
$PDMODE
 70
     0
  9
$PDSIZE
 40
-3.0
  9
$PLINEWID
 40
0.0
  9
$SPLFRAME
 70
     0
  9
$SPLINETYPE
 70
     6
  9
$SPLINESEGS
 70
     8
  9
$HANDSEED
  5
E4488
  9
$SURFTAB1
 70
     6
  9
$SURFTAB2
 70
     6
  9
$SURFTYPE
 70
     6
  9
$SURFU
 70
     6
  9
$SURFV
 70
     6
  9
$UCSBASE
  2

  9
$UCSNAME
  2

  9
$UCSORG
 10
0.0
 20
0.0
 30
0.0
  9
$UCSXDIR
 10
1.0
 20
0.0
 30
0.0
  9
$UCSYDIR
 10
0.0
 20
1.0
 30
0.0
  9
$UCSORTHOREF
  2

  9
$UCSORTHOVIEW
 70
     0
  9
$UCSORGTOP
 10
0.0
 20
0.0
 30
0.0
  9
$UCSORGBOTTOM
 10
0.0
 20
0.0
 30
0.0
  9
$UCSORGLEFT
 10
0.0
 20
0.0
 30
0.0
  9
$UCSORGRIGHT
 10
0.0
 20
0.0
 30
0.0
  9
$UCSORGFRONT
 10
0.0
 20
0.0
 30
0.0
  9
$UCSORGBACK
 10
0.0
 20
0.0
 30
0.0
  9
$PUCSBASE
  2

  9
$PUCSNAME
  2

  9
$PUCSORG
 10
0.0
 20
0.0
 30
0.0
  9
$PUCSXDIR
 10
1.0
 20
0.0
 30
0.0
  9
$PUCSYDIR
 10
0.0
 20
1.0
 30
0.0
  9
$PUCSORTHOREF
  2

  9
$PUCSORTHOVIEW
 70
     0
  9
$PUCSORGTOP
 10
0.0
 20
0.0
 30
0.0
  9
$PUCSORGBOTTOM
 10
0.0
 20
0.0
 30
0.0
  9
$PUCSORGLEFT
 10
0.0
 20
0.0
 30
0.0
  9
$PUCSORGRIGHT
 10
0.0
 20
0.0
 30
0.0
  9
$PUCSORGFRONT
 10
0.0
 20
0.0
 30
0.0
  9
$PUCSORGBACK
 10
0.0
 20
0.0
 30
0.0
  9
$USERI1
 70
     0
  9
$USERI2
 70
     0
  9
$USERI3
 70
     0
  9
$USERI4
 70
     0
  9
$USERI5
 70
     0
  9
$USERR1
 40
0.0
  9
$USERR2
 40
0.0
  9
$USERR3
 40
0.0
  9
$USERR4
 40
0.0
  9
$USERR5
 40
0.0
  9
$WORLDVIEW
 70
     1
  9
$SHADEDGE
 70
     3
  9
$SHADEDIF
 70
    70
  9
$TILEMODE
 70
     1
  9
$MAXACTVP
 70
    64
  9
$PINSBASE
 10
0.0
 20
0.0
 30
0.0
  9
$PLIMCHECK
 70
     0
  9
$PEXTMIN
 10
1.000000000000000E+20
 20
1.000000000000000E+20
 30
1.000000000000000E+20
  9
$PEXTMAX
 10
-1.000000000000000E+20
 20
-1.000000000000000E+20
 30
-1.000000000000000E+20
  9
$PLIMMIN
 10
-3.17498779296875
 20
-3.174999952316284
  9
$PLIMMAX
 10
293.4970092773438
 20
206.692492723465
  9
$UNITMODE
 70
     0
  9
$VISRETAIN
 70
     1
  9
$PLINEGEN
 70
     0
  9
$PSLTSCALE
 70
     1
  9
$TREEDEPTH
 70
  3020
  9
$CMLSTYLE
  2
Standard
  9
$CMLJUST
 70
     0
  9
$CMLSCALE
 40
20.0
  9
$PROXYGRAPHICS
 70
     1
  9
$MEASUREMENT
 70
     1
  9
$CELWEIGHT
370
    -1
  9
$ENDCAPS
280
     0
  9
$JOINSTYLE
280
     0
  9
$LWDISPLAY
290
     1
  9
$INSUNITS
 70
     4
  9
$HYPERLINKBASE
  1

  9
$STYLESHEET
  1
monochrome.ctb
  9
$XEDIT
290
     1
  9
$CEPSNTYPE
380
     0
  9
$PSTYLEMODE
290
     1
  9
$FINGERPRINTGUID
  2
{83FB3AA1-FF18-4BFE-AFE0-611B71DE056D}
  9
$VERSIONGUID
  2
{363A4F77-33B0-4559-82A2-2906E9D9B24C}
  9
$EXTNAMES
290
     1
  9
$PSVPSCALE
 40
0.0
  9
$OLESTARTUP
290
     0
  9
$SORTENTS
280
   127
  9
$INDEXCTL
280
     0
  9
$HIDETEXT
280
     0
  9
$XCLIPFRAME
290
     0
  9
$HALOGAP
280
     0
  9
$OBSCOLOR
 70
   257
  9
$OBSLTYPE
280
     0
  9
$INTERSECTIONDISPLAY
280
     0
  9
$INTERSECTIONCOLOR
 70
   257
  9
$DIMASSOC
280
     1
  9
$PROJECTNAME
  1

  0
ENDSEC
  0
SECTION
  2
CLASSES
  0
CLASS
  1
ACDBDICTIONARYWDFLT
  2
AcDbDictionaryWithDefault
  3
ObjectDBX Classes
 90
        0
 91
        1
280
     0
281
     0
  0
CLASS
  1
ACDBPLACEHOLDER
  2
AcDbPlaceHolder
  3
ObjectDBX Classes
 90
        0
 91
        1
280
     0
281
     0
  0
CLASS
  1
LAYOUT
  2
AcDbLayout
  3
ObjectDBX Classes
 90
        0
 91
        3
280
     0
281
     0
  0
CLASS
  1
AMGSETTINGSOBJ
  2
AmgSettingsObj
  3
"AcadM|Product Description: AutoCAD Mechanical|Company: Autodesk"
 90
        0
 91
        2
280
     0
281
     0
  0
CLASS
  1
ACME_DOCUMENT
  2
AcMeDbDoc
  3
AcMeServices
 90
        0
 91
        2
280
     0
281
     0
  0
CLASS
  1
ACMESCOPE
  2
AcMeScope
  3
AcMeServices
 90
        0
 91
        1
280
     0
281
     0
  0
CLASS
  1
ACMECOMMANDHISTORY
  2
AcMeCommandHistory
  3
AcMeServices
 90
        0
 91
        1
280
     0
281
     0
  0
CLASS
  1
DICTIONARYVAR
  2
AcDbDictionaryVar
  3
ObjectDBX Classes
 90
        0
 91
        5
280
     0
281
     0
  0
CLASS
  1
ACIMSYSVARMAN
  2
AcImSysVarManager
  3
AcMeServices
 90
        0
 91
        5
280
     0
281
     0
  0
CLASS
  1
ACIMREALSYSVAR
  2
AcImRealSysVar
  3
AcMeServices
 90
        0
 91
        1
280
     0
281
     0
  0
CLASS
  1
ACIMINTSYSVAR
  2
AcImIntSysVar
  3
AcMeServices
 90
        0
 91
       27
280
     0
281
     0
  0
CLASS
  1
ACMEDRAWINGMAN
  2
AcMeDrawingMan
  3
AcMeServices
 90
        0
 91
        1
280
     0
281
     0
  0
CLASS
  1
ACMEVIEW
  2
AcMeView
  3
AcMeServices
 90
        0
 91
        1
280
     0
281
     0
  0
CLASS
  1
ACDBENTITYCACHE
  2
AcMeEntityCache
  3
AcMeServices
 90
        0
 91
        1
280
     0
281
     0
  0
CLASS
  1
GSMANAGER
  2
AcMeGSManager
  3
AcMeServices
 90
        0
 91
        1
280
     0
281
     0
  0
CLASS
  1
AMDTINTERNALREACTOR
  2
AmdtInternalReactor
  3
AcMeServices
 90
        0
 91
        2
280
     0
281
     0
  0
CLASS
  1
ACMESTATEMGR
  2
AcMeStateMgr
  3
AcMeServices
 90
        0
 91
        1
280
     0
281
     0
  0
CLASS
  1
ACGREFMASTER
  2
AcGrefMaster
  3
AcAttribServices
 90
        0
 91
        1
280
     0
281
     0
  0
CLASS
  1
ACME_DATABASE
  2
AcMeDbDatabase
  3
AcMeServices
 90
        0
 91
        1
280
     0
281
     0
  0
CLASS
  1
ACRFINSADJUSTERMGR
  2
AcRfInsAdjusterMgr
  3
AcMeServices
 90
        0
 91
        1
280
     0
281
     0
  0
CLASS
  1
ACGREFACADMASTER
  2
AcGrefacadMaster
  3
AcGrefServices
 90
        0
 91
        1
280
     0
281
     0
  0
CLASS
  1
AMIMASTER
  2
AmiMaster
  3
AmiServices
 90
        0
 91
        1
280
     0
281
     0
  0
CLASS
  1
ACMDATADICTIONARY
  2
AcmDataDictionary
  3
"AcmSymBB|Product Description: AutoCAD Mechanical|Company: Autodesk"
 90
        0
 91
        1
280
     0
281
     0
  0
CLASS
  1
ACMDATAENTRYBLOCK
  2
AcmDataEntryBlock
  3
"AcmSymBB|Product Description: AutoCAD Mechanical|Company: Autodesk"
 90
        0
 91
        0
280
     0
281
     0
  0
CLASS
  1
ACIMSTRSYSVAR
  2
AcImStrSysVar
  3
AcMeServices
 90
        0
 91
        5
280
     0
281
     0
  0
CLASS
  1
ACMSTANDARDISO
  2
AcmStandardISO
  3
"Amdt_StdImp|Product Description: AutoCAD Mechanical|Company: Autodesk"
 90
        0
 91
        1
280
     0
281
     0
  0
CLASS
  1
AMGOBJPROPCFG
  2
AmgObjPropCfg
  3
"AmgLay|Product Description: AutoCAD Mechanical|Company: Autodesk"
 90
        1
 91
        2
280
     0
281
     0
  0
CLASS
  1
AMDTEDGESTANDARDISO
  2
AmdtEdgeStdISO
  3
"Amdt_StdImp|Product Description: AutoCAD Mechanical|Company: Autodesk"
 90
        0
 91
        1
280
     0
281
     0
  0
CLASS
  1
ACMSURFSTANDARDISO
  2
AcmSurfTextStdISO
  3
"Amdt_StdImp|Product Description: AutoCAD Mechanical|Company: Autodesk"
 90
        0
 91
        1
280
     0
281
     0
  0
CLASS
  1
ACMFCFSTANDARDISO
  2
AcmFCFStdISO
  3
"Amdt_StdImp|Product Description: AutoCAD Mechanical|Company: Autodesk"
 90
        0
 91
        1
280
     0
281
     0
  0
CLASS
  1
ACMWELDSTANDARDISO
  2
AcmWeldingStdISO
  3
"Amdt_StdImp|Product Description: AutoCAD Mechanical|Company: Autodesk"
 90
        0
 91
        1
280
     0
281
     0
  0
CLASS
  1
ACMIDSTANDARDISO
  2
AcmIdStdISO
  3
"Amdt_StdImp|Product Description: AutoCAD Mechanical|Company: Autodesk"
 90
        0
 91
        1
280
     0
281
     0
  0
CLASS
  1
ACMDATUMSTANDARDISO
  2
AcmDatumStdISO
  3
"Amdt_StdImp|Product Description: AutoCAD Mechanical|Company: Autodesk"
 90
        0
 91
        1
280
     0
281
     0
  0
CLASS
  1
ACMBOMSTANDARDISO
  2
AcmBOMStdISO
  3
"Amdt_StdImp|Product Description: AutoCAD Mechanical|Company: Autodesk"
 90
        0
 91
        1
280
     0
281
     0
  0
CLASS
  1
ACMDETAILSTANDARDISO
  2
AmdtDetailSymStdISO
  3
"Amdt_StdImp|Product Description: AutoCAD Mechanical|Company: Autodesk"
 90
        0
 91
        1
280
     0
281
     0
  0
CLASS
  1
ACMSECTIONSTANDARDISO
  2
AmdtSectionSymStdISO
  3
"Amdt_StdImp|Product Description: AutoCAD Mechanical|Company: Autodesk"
 90
        0
 91
        1
280
     0
281
     0
  0
CLASS
  1
ACMCENTERLINESTANDARDISO
  2
AmdtCenterLineStdISO
  3
"Amdt_StdImp|Product Description: AutoCAD Mechanical|Company: Autodesk"
 90
        0
 91
        1
280
     0
281
     0
  0
CLASS
  1
ACAMGLAYSTD
  2
AcAmgLayStd
  3
"AmgLay|Product Description: AutoCAD Mechanical|Company: Autodesk"
 90
        0
 91
        1
280
     0
281
     0
  0
CLASS
  1
ACAMGDIMSTD
  2
AcAmgDimStd
  3
"AmgDim|Product Description: AutoCAD Mechanical|Company: Autodesk"
 90
        0
 91
        1
280
     0
281
     0
  0
CLASS
  1
ACAMGTITLESTD
  2
AcAmgTitleStd
  3
"AmgTitle|Product Description: AutoCAD Mechanical|Company: Autodesk"
 90
        0
 91
        1
280
     0
281
     0
  0
CLASS
  1
ACAMGFILTERDAT
  2
AcAmgFilterDat
  3
"AcadM|Product Description: AutoCAD Mechanical|Company: Autodesk"
 90
        0
 91
        0
280
     0
281
     0
  0
CLASS
  1
LAYER_INDEX
  2
AcDbLayerIndex
  3
ObjectDBX Classes
 90
        0
 91
        0
280
     0
281
     0
  0
CLASS
  1
IDBUFFER
  2
AcDbIdBuffer
  3
ObjectDBX Classes
 90
        0
 91
        0
280
     0
281
     0
  0
CLASS
  1
PLOTSETTINGS
  2
AcDbPlotSettings
  3
ObjectDBX Classes
 90
        0
 91
        1
280
     0
281
     0
  0
CLASS
  1
AMDTFORMULAUPDATEDISPATCHER
  2
AmdtFormulaUpdateDispatcher
  3
AcMeServices
 90
        0
 91
        0
280
     0
281
     0
  0
CLASS
  1
ACMSTANDARDANSI
  2
AcmStandardANSI
  3
"Amdt_StdImp|Product Description: AutoCAD Mechanical|Company: Autodesk"
 90
        0
 91
        0
280
     0
281
     0
  0
CLASS
  1
ACMSURFSTANDARDANSI
  2
AcmSurfTextStdANSI
  3
"Amdt_StdImp|Product Description: AutoCAD Mechanical|Company: Autodesk"
 90
        0
 91
        0
280
     0
281
     0
  0
CLASS
  1
ACMFCFSTANDARDANSI
  2
AcmFCFStdANSI
  3
"Amdt_StdImp|Product Description: AutoCAD Mechanical|Company: Autodesk"
 90
        0
 91
        0
280
     0
281
     0
  0
CLASS
  1
ACMWELDSTANDARDANSI
  2
AcmWeldingStdANSI
  3
"Amdt_StdImp|Product Description: AutoCAD Mechanical|Company: Autodesk"
 90
        0
 91
        0
280
     0
281
     0
  0
CLASS
  1
ACMIDSTANDARDANSI
  2
AcmIdStdANSI
  3
"Amdt_StdImp|Product Description: AutoCAD Mechanical|Company: Autodesk"
 90
        0
 91
        0
280
     0
281
     0
  0
CLASS
  1
ACMDATUMSTANDARDANSI
  2
AcmDatumStdANSI
  3
"Amdt_StdImp|Product Description: AutoCAD Mechanical|Company: Autodesk"
 90
        0
 91
        0
280
     0
281
     0
  0
CLASS
  1
ACMBOMSTANDARDANSI
  2
AcmBOMStdANSI
  3
"Amdt_StdImp|Product Description: AutoCAD Mechanical|Company: Autodesk"
 90
        0
 91
        0
280
     0
281
     0
  0
CLASS
  1
ACMDETAILSTANDARDANSI
  2
AmdtDetailSymStdANSI
  3
"Amdt_StdImp|Product Description: AutoCAD Mechanical|Company: Autodesk"
 90
        0
 91
        0
280
     0
281
     0
  0
CLASS
  1
ACMSECTIONSTANDARDANSI
  2
AmdtSectionSymStdANSI
  3
"Amdt_StdImp|Product Description: AutoCAD Mechanical|Company: Autodesk"
 90
        0
 91
        0
280
     0
281
     0
  0
CLASS
  1
ACMCENTERLINESTANDARDANSI
  2
AmdtCenterLineStdANSI
  3
"Amdt_StdImp|Product Description: AutoCAD Mechanical|Company: Autodesk"
 90
        0
 91
        0
280
     0
281
     0
  0
CLASS
  1
ACMBOM
  2
AcmBom
  3
"AcmSymBB|Product Description: AutoCAD Mechanical|Company: Autodesk"
 90
        0
 91
        0
280
     0
281
     0
  0
CLASS
  1
ACMDATAENTRYPART
  2
AcmDataEntryPart
  3
"AcmSymBB|Product Description: AutoCAD Mechanical|Company: Autodesk"
 90
        0
 91
        0
280
     0
281
     0
  0
CLASS
  1
ACMPARTREF
  2
AcmPartRef
  3
"AcmSymBB|Product Description: AutoCAD Mechanical|Company: Autodesk"
 90
     3071
 91
        0
280
     0
281
     1
  0
CLASS
  1
ACDBCIRCARCRES
  2
AcDbCircArcRes
  3
AcGrefServices
 90
        0
 91
        0
280
     0
281
     0
  0
CLASS
  1
ACMBOMROW
  2
AcmBomRow
  3
"AcmSymBB|Product Description: AutoCAD Mechanical|Company: Autodesk"
 90
        0
 91
        0
280
     0
281
     0
  0
CLASS
  1
ACMBALLOON
  2
AcmBalloon
  3
"AcmSymBB|Product Description: AutoCAD Mechanical|Company: Autodesk"
 90
     3071
 91
        0
280
     0
281
     1
  0
CLASS
  1
AMDTNOTE
  2
AmdtNote
  3
"AcmSymBB|Product Description: AutoCAD Mechanical|Company: Autodesk"
 90
     3071
 91
        0
280
     0
281
     1
  0
CLASS
  1
STDPART2D
  2
AmgStdPart
  3
"AmgStdPart|Product Description: AutoCAD Mechanical|Company: Autodesk"
 90
     3071
 91
        0
280
     0
281
     1
  0
CLASS
  1
ACDBSTDPARTRES_LINE
  2
AcDbStdPartRes_Line
  3
"AmgStdPart|Product Description: AutoCAD Mechanical|Company: Autodesk"
 90
        0
 91
        0
280
     0
281
     0
  0
CLASS
  1
ACMDATAENTRY
  2
AcmDataEntry
  3
"AcmSymBB|Product Description: AutoCAD Mechanical|Company: Autodesk"
 90
        0
 91
        0
280
     0
281
     0
  0
CLASS
  1
ACDBOPPOLYLINERES
  2
AcDbOpPolylineRes
  3
AcGrefServices
 90
        0
 91
        0
280
     0
281
     0
  0
CLASS
  1
ACMPARTLIST
  2
AcmPartList
  3
"AcmSymBB|Product Description: AutoCAD Mechanical|Company: Autodesk"
 90
     3071
 91
        0
280
     0
281
     1
  0
CLASS
  1
ACDBLINERES
  2
AcDbLineRes
  3
AcGrefServices
 90
        0
 91
        0
280
     0
281
     0
  0
CLASS
  1
ACRFINSADJ
  2
AcRfInsAdjuster
  3
AcMeServices
 90
        0
 91
        0
280
     0
281
     0
  0
CLASS
  1
AM_DRAWING_MGR
  2
AcDmDwgMgr
  3
AcMechDwgViewMgmt
 90
        0
 91
        1
280
     0
281
     0
  0
CLASS
  1
AM_DWG_DOCUMENT
  2
AcDmDwgDocument
  3
AcMechDwgViewMgmt
 90
        0
 91
        1
280
     0
281
     0
  0
CLASS
  1
AM_DWG_SHEET
  2
AcDmSheet
  3
AcMechDwgViewMgmt
 90
        0
 91
        2
280
     0
281
     0
  0
CLASS
  1
AM_VIEWDIMPARMAP
  2
AcDmViewDimParMap
  3
AcMechDwgViewMgmt
 90
        0
 91
        2
280
     0
281
     0
  0
CLASS
  1
AM_DWGMGR_NAME
  2
AcDmDwgMgrName
  3
AcMechDwgViewMgmt
 90
        0
 91
        1
280
     0
281
     0
  0
CLASS
  1
AMDTMENUSTATEMGR
  2
AmdtMenuStateMgr
  3
McadcomServices
 90
        0
 91
        1
280
     0
281
     0
  0
CLASS
  1
AMDTMCOMMENUSTATE
  2
AmdtMcomMenuState
  3
McadcomServices
 90
        0
 91
        1
280
     0
281
     0
  0
CLASS
  1
ASAPP
  2
AcAsAppObject
  3
AutoSurfServices
 90
        0
 91
        2
280
     0
281
     0
  0
CLASS
  1
IM_STATIC_MAN
  2
AcImStaticVarManager
  3
AcMeServices
 90
        0
 91
        0
280
     0
281
     0
  0
CLASS
  1
ACIMDBLSTATICVAR
  2
AcImDblStaticVar
  3
AcMeServices
 90
        0
 91
        0
280
     0
281
     0
  0
CLASS
  1
ACIMSTRSTATICVAR
  2
AcImStrStaticVar
  3
AcMeServices
 90
        0
 91
        0
280
     0
281
     0
  0
CLASS
  1
ACIMINTSTATICVAR
  2
AcImIntStaticVar
  3
AcMeServices
 90
        0
 91
        0
280
     0
281
     0
  0
CLASS
  1
ACASGREFMASTER
  2
AcAsGrefMaster
  3
AutoSurfResolverServices
 90
        0
 91
        2
280
     0
281
     0
  0
CLASS
  1
ACADGREFMODULE
  2
AcAdGrefModule
  3
AdGrefServices
 90
        0
 91
        2
280
     0
281
     0
  0
CLASS
  1
AMDTMAPISURFMOUDULE
  2
AmdtMApiSurfModule
  3
MApiSurfServices
 90
        0
 91
        2
280
     0
281
     0
  0
CLASS
  1
MAPIAMMOUDLE
  2
MApiAmModule
  3
MApiAmServices
 90
        0
 91
        1
280
     0
281
     0
  0
CLASS
  1
AMDTADMENUSTATE
  2
AmdtAdMenuState
  3
DesignerServices
 90
        0
 91
        1
280
     0
281
     0
  0
CLASS
  1
ADAPPL
  2
AcAdAppl
  3
DesignerServices
 90
        0
 91
        1
280
     0
281
     0
  0
CLASS
  1
DEPMGR
  2
AcAdDepMgr
  3
DesignerServices
 90
        0
 91
        1
280
     0
281
     0
  0
CLASS
  1
PARAMMGR
  2
AcAdParamMgr
  3
DesignerServices
 90
        0
 91
        1
280
     0
281
     0
  0
CLASS
  1
PARAMSCOPE
  2
AcAdParamScope
  3
DesignerServices
 90
        0
 91
        1
280
     0
281
     0
  0
CLASS
  1
NAMEDAPPL
  2
AcAdNamedAppl
  3
DesignerServices
 90
        0
 91
        1
280
     0
281
     0
  0
CLASS
  1
ADHNTMPLT
  2
AdHoleNoteTemplateMgr
  3
DesignerServices
 90
        0
 91
        0
280
     0
281
     0
  0
CLASS
  1
AM_HNTEMPLATE_MGR_NAME
  2
AdHoleNoteTemplateMgrName
  3
DesignerServices
 90
        0
 91
        0
280
     0
281
     0
  0
CLASS
  1
AMDTDMMENUSTATE
  2
AmdtDmMenuState
  3
AcMechDwgViewMgmt
 90
        0
 91
        1
280
     0
281
     0
  0
CLASS
  1
MAPIADMODULE
  2
MApiAdModule
  3
MApiAdServices
 90
        0
 91
        2
280
     0
281
     0
  0
CLASS
  1
AMDTAMMENUSTATE
  2
AmdtAmMenuState
  3
DesignerAssemblies
 90
        0
 91
        1
280
     0
281
     0
  0
CLASS
  1
ACAMPROJECT
  2
AcAmProject
  3
DesignerAssemblies
 90
        0
 91
        1
280
     0
281
     0
  0
CLASS
  1
ACAMGRCOMPDEF
  2
AcAmGrCompDef
  3
DesignerAssemblies
 90
        0
 91
        1
280
     0
281
     0
  0
CLASS
  1
ACCMCONTEXT
  2
AcCmContext
  3
DesignerAssemblies
 90
        0
 91
        1
280
     0
281
     0
  0
CLASS
  1
ACAMCOMPDEF
  2
AcAmCompDef
  3
DesignerAssemblies
 90
        0
 91
        1
280
     0
281
     0
  0
CLASS
  1
ACAMCOMPDEFMGR
  2
AcAmCompDefMgr
  3
DesignerAssemblies
 90
        0
 91
        1
280
     0
281
     0
  0
CLASS
  1
AMCONTEXTMGR
  2
AcAmContextMgr
  3
DesignerAssemblies
 90
        0
 91
        1
280
     0
281
     0
  0
CLASS
  1
ACAMCONTEXTMODELER
  2
AcAmContextModeler
  3
DesignerAssemblies
 90
        0
 91
        1
280
     0
281
     0
  0
CLASS
  1
CATALOGSTATE
  2
AcAmCatalogState
  3
DesignerAssemblies
 90
        0
 91
        1
280
     0
281
     0
  0
CLASS
  1
ACAMGRCOMPDEFSET
  2
AcAmGrCompDefSet
  3
DesignerAssemblies
 90
        0
 91
        1
280
     0
281
     0
  0
CLASS
  1
AMDTBROWSERDBTAB
  2
AmdtBrowserDbTab
  3
McadcomServices
 90
        0
 91
        1
280
     0
281
     0
  0
CLASS
  1
CBROWSERAPPOBJECT
  2
CBrowserAppObject
  3
McadcomServices
 90
        0
 91
        3
280
     0
281
     0
  0
CLASS
  1
DM_PLACEHOLDER
  2
AcDmSelsetPlaceholder
  3
AcMechDwgViewMgmt
 90
        0
 91
        1
280
     0
281
     0
  0
CLASS
  1
ACMPICKOBJ
  2
AcmPickEnt
  3
"AcmSymBB|Product Description: AutoCAD Mechanical|Company: Autodesk"
 90
        0
 91
        0
280
     0
281
     1
  0
CLASS
  1
ACMTHREADLINESTANDARDISO
  2
AmdtThreadLineStdISO
  3
"Amdt_StdImp|Product Description: AutoCAD Mechanical|Company: Autodesk"
 90
        0
 91
        1
280
     0
281
     0
  0
CLASS
  1
ACMNOTESTANDARDISO
  2
AmdtNoteStdISO
  3
"Amdt_StdImp|Product Description: AutoCAD Mechanical|Company: Autodesk"
 90
        0
 91
        1
280
     0
281
     0
  0
CLASS
  1
AMDTNOTETEMPLATEDB
  2
AmdtNoteTemplateDB
  3
AMDT_STDIMP_MODULE_NAME
 90
        0
 91
        0
280
     0
281
     0
  0
CLASS
  1
ACMTHREADLINESTANDARDANSI
  2
AmdtThreadLineStdANSI
  3
"Amdt_StdImp|Product Description: AutoCAD Mechanical|Company: Autodesk"
 90
        0
 91
        0
280
     0
281
     0
  0
CLASS
  1
ACMNOTESTANDARDANSI
  2
AmdtNoteStdANSI
  3
"Amdt_StdImp|Product Description: AutoCAD Mechanical|Company: Autodesk"
 90
        0
 91
        0
280
     0
281
     0
  0
CLASS
  1
AMDTDETAILSYM
  2
AmdtDetailSym
  3
"AcmSymBB|Product Description: AutoCAD Mechanical|Company: Autodesk"
 90
     3071
 91
        0
280
     0
281
     1
  0
CLASS
  1
AMDTDETAILSYMLABEL
  2
AmdtDetailSymLabel
  3
"AcmSymBB|Product Description: AutoCAD Mechanical|Company: Autodesk"
 90
     3071
 91
        0
280
     0
281
     1
  0
CLASS
  1
TABLESTYLE
  2
AcDbTableStyle
  3
ObjectDBX Classes
 90
     4095
 91
        1
280
     0
281
     0
  0
CLASS
  1
AMDTACMWBLOCKBOMENTITY
  2
AmdtAcmWblockBomEntity
  3
"AcmSymBB|Product Description: AutoCAD Mechanical|Company: Autodesk"
 90
     3071
 91
       18
280
     0
281
     1
  0
CLASS
  1
SORTENTSTABLE
  2
AcDbSortentsTable
  3
ObjectDBX Classes
 90
        0
 91
        1
280
     0
281
     0
  0
CLASS
  1
AC_AM_MVD_DEP_MGR
  2
AcAmMVDdepMgr
  3
DesignerAssemblies
 90
        0
 91
        0
280
     0
281
     0
  0
CLASS
  1
AC_AM_MASTER_VIEW_DEF
  2
AcAmMasterViewDef
  3
DesignerAssemblies
 90
        0
 91
        0
280
     0
281
     0
  0
CLASS
  1
AC_AM_DIRTY_NODES
  2
AcAmDirtyNodes
  3
DesignerAssemblies
 90
        0
 91
        0
280
     0
281
     0
  0
CLASS
  1
AC_AM_MAPPER_CACHE
  2
AcAmMapperCache
  3
DesignerAssemblies
 90
        0
 91
        0
280
     0
281
     0
  0
CLASS
  1
ACAMMVDBACKUPOBJECT
  2
AcAmMVDBackupObject
  3
DesignerAssemblies
 90
        0
 91
        0
280
     0
281
     0
  0
CLASS
  1
ACAMSTDPCOMPDEF
  2
AcAmStdpCompDef
  3
DesignerAssemblies
 90
        0
 91
        0
280
     0
281
     0
  0
CLASS
  1
ACRFATTGENMGR
  2
AcRfAttGeneralMgr
  3
AcAttribServices
 90
        0
 91
        0
280
     0
281
     0
  0
CLASS
  1
ACRFOBJATTMGR
  2
AcRfObjAttGroupMgr
  3
AcAttribServices
 90
        0
 91
        0
280
     0
281
     0
  0
CLASS
  1
ACRFMCADAPIATTHOLDER
  2
AcRfMCADAPIAttHolder
  3
AcAttribServices
 90
        0
 91
        0
280
     0
281
     0
  0
CLASS
  1
AMDTSYSATTR
  2
AmdtSystemAttribute
  3
AcAttribServices
 90
        0
 91
        0
280
     0
281
     0
  0
CLASS
  1
ACAMCOMP
  2
AcAmComp
  3
DesignerAssemblies
 90
        0
 91
        0
280
     0
281
     0
  0
CLASS
  1
AC_AM_STDP_VIEW_DEF
  2
AcAmStdpViewDef
  3
DesignerAssemblies
 90
        0
 91
        0
280
     0
281
     0
  0
CLASS
  1
AC_AM_COMP_VIEW_INST
  2
AcAmCompView
  3
DesignerAssemblies
 90
        0
 91
        0
280
     0
281
     0
  0
CLASS
  1
AC_AM_PROPS_OVERRIDE
  2
AcAmPropertiesOverride
  3
DesignerAssemblies
 90
        0
 91
        0
280
     0
281
     0
  0
CLASS
  1
AC_AM_OVERRIDE_FILTER
  2
AcAmOverrideFilter
  3
DesignerAssemblies
 90
        0
 91
        0
280
     0
281
     0
  0
CLASS
  1
AC_AM_2D_XREF_MGR
  2
AcAmXrefMgr2d
  3
DesignerAssemblies
 90
        0
 91
        0
280
     0
281
     0
  0
CLASS
  1
AC_AM_HIDE_SITUATION
  2
AcAmHideSituation
  3
DesignerAssemblies
 90
        0
 91
        0
280
     0
281
     0
  0
CLASS
  1
AC_AM_TRANSFORM_GHOST
  2
AcDbTransformGhost
  3
DesignerAssemblies
 90
        0
 91
        0
280
     0
281
     1
  0
CLASS
  1
L"OBJCLONER"
  2
ObjCloner
  3
DesignerAssemblies
 90
        0
 91
        0
280
     0
281
     1
  0
CLASS
  1
AC_AM_SPRING_ROD_HIDE_SITUATION
  2
AcAmSpringRodHideSituation
  3
DesignerAssemblies
 90
        0
 91
        0
280
     0
281
     0
  0
CLASS
  1
ACAD_TABLE
  2
AcDbTable
  3
ObjectDBX Classes
 90
     1025
 91
        0
280
     0
281
     1
  0
CLASS
  1
ACAMWBLOCKTEMPENTS
  2
AcAmStructInOutTempObjsHolder
  3
DesignerAssemblies
 90
        0
 91
        0
280
     0
281
     0
  0
CLASS
  1
ACDBNURBCURVERES
  2
AcDbNurbCurveRes
  3
AcGrefServices
 90
        0
 91
        0
280
     0
281
     0
  0
CLASS
  1
MATERIAL
  2
AcDbMaterial
  3
ObjectDBX Classes
 90
     1153
 91
        3
280
     0
281
     0
  0
CLASS
  1
VISUALSTYLE
  2
AcDbVisualStyle
  3
ObjectDBX Classes
 90
     4095
 91
       16
280
     0
281
     0
  0
CLASS
  1
ACMTAPERSTANDARDISO
  2
AcmTaperStdISO
  3
"Amdt_StdImp|Product Description: AutoCAD Mechanical|Company: Autodesk"
 90
        0
 91
        1
280
     0
281
     0
  0
CLASS
  1
ACMTAPERSTANDARDANSI
  2
AcmTaperStdANSI
  3
"Amdt_StdImp|Product Description: AutoCAD Mechanical|Company: Autodesk"
 90
        0
 91
        0
280
     0
281
     0
  0
CLASS
  1
AC_AM_COMP_VIEW_DEF
  2
AcAmCompViewDef
  3
DesignerAssemblies
 90
        0
 91
        0
280
     0
281
     0
  0
CLASS
  1
NEWSTDPARTPARLIST
  2
AmgNewParListFiler
  3
"AmgParList|Product Description: AutoCAD Mechanical 2000|Company: Autodesk"
 90
     3071
 91
        0
280
     0
281
     0
  0
CLASS
  1
DIMASSOC
  2
AcDbDimAssoc
  3
"AcDbDimAssoc|Product Desc:     AcDim ARX App For Dimension|Company:          Autodesk, Inc.|WEB Address:      www.autodesk.com"
 90
        0
 91
        0
280
     0
281
     0
  0
ENDSEC
  0
SECTION
  2
TABLES
  0
TABLE
  2
VPORT
  5
8
102
{ACAD_XDICTIONARY
360
AEEE5
102
}
330
0
100
AcDbSymbolTable
 70
     1
  0
VPORT
  5
C4265
330
8
100
AcDbSymbolTableRecord
100
AcDbViewportTableRecord
  2
*Active
 70
     0
 10
0.0
 20
0.0
 11
1.0
 21
1.0
 12
3720.160654255728
 22
-235.6974422494472
 13
0.0
 23
0.0
 14
2.5
 24
2.5
 15
10.0
 25
10.0
 16
0.0
 26
0.0
 36
1.0
 17
0.0
 27
0.0
 37
0.0
 40
319.3431150486076
 41
1.902843601895734
 42
50.0
 43
-1370.695619172058
 44
-1370.695619172058
 50
0.0
 51
0.0
 71
    16
 72
   100
 73
     1
 74
     3
 75
     0
 76
     0
 77
     0
 78
     1
281
     0
 65
     0
110
0.0
120
0.0
130
0.0
111
1.0
121
0.0
131
0.0
112
0.0
122
1.0
132
0.0
 79
     0
146
0.0
  0
ENDTAB
  0
TABLE
  2
LTYPE
  5
5
330
0
100
AcDbSymbolTable
 70
    35
  0
LTYPE
  5
14
330
5
100
AcDbSymbolTableRecord
100
AcDbLinetypeTableRecord
  2
ByBlock
 70
     0
  3

 72
    65
 73
     0
 40
0.0
  0
LTYPE
  5
15
330
5
100
AcDbSymbolTableRecord
100
AcDbLinetypeTableRecord
  2
ByLayer
 70
     0
  3

 72
    65
 73
     0
 40
0.0
  0
LTYPE
  5
16
330
5
100
AcDbSymbolTableRecord
100
AcDbLinetypeTableRecord
  2
Continuous
 70
     0
  3
Solid line
 72
    65
 73
     0
 40
0.0
  0
LTYPE
  5
4F
330
5
100
AcDbSymbolTableRecord
100
AcDbLinetypeTableRecord
  2
AM_ISO02W050
 70
     0
  3
__ __ __ __ __ __ __ __ __ __ __ __ __ __ __
 72
    65
 73
     2
 40
7.5
 49
6.0
 74
     0
 49
-1.5
 74
     0
  0
LTYPE
  5
52
330
5
100
AcDbSymbolTableRecord
100
AcDbLinetypeTableRecord
  2
Amconstr
 70
     0
  3
_______________________
 72
    65
 73
     2
 40
9999.0
 49
9999.0
 74
     0
 49
0.0
 74
     0
  0
LTYPE
  5
64
330
5
100
AcDbSymbolTableRecord
100
AcDbLinetypeTableRecord
  2
ACISOWELD
 70
     0
  3
_ _ _ _ _
 72
    65
 73
     2
 40
2.0
 49
2.0
 74
     0
 49
-1.0
 74
     0
  0
LTYPE
  5
65
330
5
100
AcDbSymbolTableRecord
100
AcDbLinetypeTableRecord
  2
ACISOTGB
 70
     0
  3
__ . . __ . .
 72
    65
 73
     6
 40
9.0
 49
4.0
 74
     0
 49
-1.0
 74
     0
 49
1.0
 74
     0
 49
-1.0
 74
     0
 49
1.0
 74
     0
 49
-1.0
 74
     0
  0
LTYPE
  5
66
330
5
100
AcDbSymbolTableRecord
100
AcDbLinetypeTableRecord
  2
ACISOTGL
 70
     0
  3
_ _ _ _ _
 72
    65
 73
     2
 40
3.0
 49
2.0
 74
     0
 49
-1.0
 74
     0
  0
LTYPE
  5
69
330
5
100
AcDbSymbolTableRecord
100
AcDbLinetypeTableRecord
  2
CENTER
 70
     0
  3
__ . __
 72
    65
 73
     4
 40
7.0
 49
4.0
 74
     0
 49
-1.0
 74
     0
 49
1.0
 74
     0
 49
-1.0
 74
     0
  0
LTYPE
  5
A6E
330
5
100
AcDbSymbolTableRecord
100
AcDbLinetypeTableRecord
  2
PHANTOM2
 70
     0
  3
Phantom (.5x) ___ _ _ ___ _ _ ___ _ _ ___ _ _
 72
    65
 73
     6
 40
31.75
 49
15.875
 74
     0
 49
-3.174999999999999
 74
     0
 49
3.174999999999999
 74
     0
 49
-3.174999999999999
 74
     0
 49
3.174999999999999
 74
     0
 49
-3.174999999999999
 74
     0
  0
LTYPE
  5
FA3
330
5
100
AcDbSymbolTableRecord
100
AcDbLinetypeTableRecord
  2
ACANSTGB
 70
     0
  3
__ . . __ . .
 72
    65
 73
     6
 40
0.35433070866
 49
0.15748031496
 74
     0
 49
-0.03937007874
 74
     0
 49
0.03937007874
 74
     0
 49
-0.03937007874
 74
     0
 49
0.03937007874
 74
     0
 49
-0.03937007874
 74
     0
  0
LTYPE
  5
FA4
330
5
100
AcDbSymbolTableRecord
100
AcDbLinetypeTableRecord
  2
ACANSTGL
 70
     0
  3
_ _ _ _ _
 72
    65
 73
     2
 40
0.11811023622
 49
0.07874015748
 74
     0
 49
-0.03937007874
 74
     0
  0
LTYPE
  5
4DED
330
5
100
AcDbSymbolTableRecord
100
AcDbLinetypeTableRecord
  2
中線
 70
     0
  3
___________________
 72
    65
 73
     2
 40
2.0
 49
1.0
 74
     0
 49
1.0
 74
     0
  0
LTYPE
  5
4DF6
330
5
100
AcDbSymbolTableRecord
100
AcDbLinetypeTableRecord
  2
細線
 70
     0
  3
___________________
 72
    65
 73
     2
 40
2.0
 49
1.0
 74
     0
 49
1.0
 74
     0
  0
LTYPE
  5
4DF7
330
5
100
AcDbSymbolTableRecord
100
AcDbLinetypeTableRecord
  2
太線
 70
     0
  3
___________________
 72
    65
 73
     2
 40
2.0
 49
1.0
 74
     0
 49
1.0
 74
     0
  0
LTYPE
  5
4EA7
330
5
100
AcDbSymbolTableRecord
100
AcDbLinetypeTableRecord
  2
文字
 70
     0
  3
_________________
 72
    65
 73
     2
 40
2.0
 49
1.0
 74
     0
 49
1.0
 74
     0
  0
LTYPE
  5
4EA9
330
5
100
AcDbSymbolTableRecord
100
AcDbLinetypeTableRecord
  2
寸法線
 70
     0
  3
________________
 72
    65
 73
     2
 40
2.0
 49
1.0
 74
     0
 49
1.0
 74
     0
  0
LTYPE
  5
4F12
330
5
100
AcDbSymbolTableRecord
100
AcDbLinetypeTableRecord
  2
ハッチング
 70
     0
  3
_________________
 72
    65
 73
     2
 40
2.0
 49
1.0
 74
     0
 49
1.0
 74
     0
  0
LTYPE
  5
5180
330
5
100
AcDbSymbolTableRecord
100
AcDbLinetypeTableRecord
  2
陰線1
 70
     0
  3
__ __ __ __
 72
    65
 73
     2
 40
4.0
 49
2.2
 74
     0
 49
-1.8
 74
     0
  0
LTYPE
  5
5182
330
5
100
AcDbSymbolTableRecord
100
AcDbLinetypeTableRecord
  2
切断線
 70
     0
  3
/\/-/\/-/\/-/\/-/\/-/\/
 72
    65
 73
     2
 40
11.0001
 49
0.0001
 74
     4
 75
   135
340
56
 46
0.04
 50
0.0
 44
0.0
 45
0.0
 49
-11.0
 74
     0
  0
LTYPE
  5
5183
330
5
100
AcDbSymbolTableRecord
100
AcDbLinetypeTableRecord
  2
想像線1
 70
     0
  3
__ __ __ _____ __ __ ____
 72
    65
 73
     6
 40
14.5
 49
6.0
 74
     0
 49
-1.5
 74
     0
 49
2.0
 74
     0
 49
-1.5
 74
     0
 49
2.0
 74
     0
 49
-1.5
 74
     0
  0
LTYPE
  5
5185
330
5
100
AcDbSymbolTableRecord
100
AcDbLinetypeTableRecord
  2
中心線1
 70
     0
  3
___ _ ___ _ ___
 72
    65
 73
     4
 40
18.0
 49
12.0
 74
     0
 49
-2.0
 74
     0
 49
2.0
 74
     0
 49
-2.0
 74
     0
  0
LTYPE
  5
5188
330
5
100
AcDbSymbolTableRecord
100
AcDbLinetypeTableRecord
  2
補助線
 70
     0
  3
______________
 72
    65
 73
     2
 40
2.0
 49
1.0
 74
     0
 49
1.0
 74
     0
  0
LTYPE
  5
6427
330
5
100
AcDbSymbolTableRecord
100
AcDbLinetypeTableRecord
  2
HIDDEN
 70
     0
  3
Hidden __ __ __ __ __ __ __ __ __ __ __ __ __ _
 72
    65
 73
     2
 40
0.375
 49
0.25
 74
     0
 49
-0.125
 74
     0
  0
LTYPE
  5
1D541
330
5
100
AcDbSymbolTableRecord
100
AcDbLinetypeTableRecord
  2
PHANTOM
 70
     0
  3
_____ _ _ _____ _ _ _____ _ _ _____ _ _ ____  
 72
    65
 73
     6
 40
15.5
 49
8.0
 74
     0
 49
-1.5
 74
     0
 49
1.5
 74
     0
 49
-1.5
 74
     0
 49
1.5
 74
     0
 49
-1.5
 74
     0
  0
LTYPE
  5
1D542
330
5
100
AcDbSymbolTableRecord
100
AcDbLinetypeTableRecord
  2
CENTER2
 70
     0
  3
Center (.5x) ___ _ ___ _ ___ _ ___ _ ___ _ ___
 72
    65
 73
     4
 40
1.125
 49
0.75
 74
     0
 49
-0.125
 74
     0
 49
0.125
 74
     0
 49
-0.125
 74
     0
  0
LTYPE
  5
1D543
330
5
100
AcDbSymbolTableRecord
100
AcDbLinetypeTableRecord
  2
HIDDEN2
 70
     0
  3
Hidden (.5x) _ _ _ _ _ _ _ _ _ _ _ _ _ _ _ _ _
 72
    65
 73
     2
 40
0.1875
 49
0.125
 74
     0
 49
-0.0625
 74
     0
  0
LTYPE
  5
1D544
330
5
100
AcDbSymbolTableRecord
100
AcDbLinetypeTableRecord
  2
Amzigzag2
 70
     0
  3
/\/-/\/-/\/-/\/-/\/-/\/
 72
    65
 73
     2
 40
0.4401
 49
0.0001
 74
     4
 75
   136
340
1D545
 46
0.0016
 50
0.0
 44
0.0
 45
0.0
 49
-0.4400000000000001
 74
     0
  0
LTYPE
  5
6D407
330
5
100
AcDbSymbolTableRecord
100
AcDbLinetypeTableRecord
  2
AM_ISO08W050
 70
     0
  3
____ . ____ . ____ . ____ . ____ . ____ . ____
 72
    65
 73
     4
 40
18.0
 49
12.0
 74
     0
 49
-1.5
 74
     0
 49
3.0
 74
     0
 49
-1.5
 74
     0
  0
LTYPE
  5
6D408
330
5
100
AcDbSymbolTableRecord
100
AcDbLinetypeTableRecord
  2
AM_ISO09W050
 70
     0
  3
_____ . . _____ . . _____ . . ____ .. ____
 72
    65
 73
     6
 40
22.5
 49
12.0
 74
     0
 49
-1.5
 74
     0
 49
3.0
 74
     0
 49
-1.5
 74
     0
 49
3.0
 74
     0
 49
-1.5
 74
     0
  0
LTYPE
  5
6D409
330
5
100
AcDbSymbolTableRecord
100
AcDbLinetypeTableRecord
  2
AM_ISO08W050x2
 70
     0
  3
__ . __ . __ . __ . __ . __
 72
    65
 73
     4
 40
9.0
 49
6.0
 74
     0
 49
-0.75
 74
     0
 49
1.5
 74
     0
 49
-0.75
 74
     0
  0
LTYPE
  5
6D40A
330
5
100
AcDbSymbolTableRecord
100
AcDbLinetypeTableRecord
  2
AM_ISO02W050x2
 70
     0
  3
 _ _ _ _ _ _ _ _ _ _ _ _
 72
    65
 73
     2
 40
3.75
 49
3.0
 74
     0
 49
-0.75
 74
     0
  0
LTYPE
  5
6D40B
330
5
100
AcDbSymbolTableRecord
100
AcDbLinetypeTableRecord
  2
Amzigzag
 70
     0
  3
/\/-/\/-/\/-/\/-/\/-/\/
 72
    65
 73
     2
 40
11.0001
 49
0.0001
 74
     4
 75
   135
340
56
 46
0.04
 50
0.0
 44
0.0
 45
0.0
 49
-11.0
 74
     0
  0
LTYPE
  5
B3353
330
5
100
AcDbSymbolTableRecord
100
AcDbLinetypeTableRecord
  2
SYS陰線
 70
     0
  3
_ _ _ _ _
 72
    65
 73
     2
 40
1.0
 49
0.5
 74
     0
 49
-0.5
 74
     0
  0
LTYPE
  5
B3354
330
5
100
AcDbSymbolTableRecord
100
AcDbLinetypeTableRecord
  2
SYS一点鎖線
 70
     0
  3
__ _ __ _ __
 72
    65
 73
     4
 40
3.0
 49
1.5
 74
     0
 49
-0.5
 74
     0
 49
0.5
 74
     0
 49
-0.5
 74
     0
  0
LTYPE
  5
CBFD8
330
5
100
AcDbSymbolTableRecord
100
AcDbLinetypeTableRecord
  2
DASHED
 70
     0
  3
Dashed __ __ __ __ __ __ __ __ __ __ __ __ __ _
 72
    65
 73
     2
 40
0.2067
 49
0.1654
 74
     0
 49
-0.0413
 74
     0
  0
LTYPE
  5
E3125
330
5
100
AcDbSymbolTableRecord
100
AcDbLinetypeTableRecord
  2
想像線2
 70
     0
  3
__ _ _ __ _ _ __
 72
    65
 73
     6
 40
6.9
 49
2.5
 74
     0
 49
-0.8
 74
     0
 49
1.0
 74
     0
 49
-0.8
 74
     0
 49
1.0
 74
     0
 49
-0.8
 74
     0
  0
ENDTAB
  0
TABLE
  2
LAYER
  5
2
102
{ACAD_XDICTIONARY
360
3F95
102
}
330
0
100
AcDbSymbolTable
 70
    29
  0
LAYER
  5
10
330
2
100
AcDbSymbolTableRecord
100
AcDbLayerTableRecord
  2
0
 70
     0
 62
     7
  6
Continuous
370
    -3
390
F
  0
LAYER
  5
6D1
330
2
100
AcDbSymbolTableRecord
100
AcDbLayerTableRecord
  2
Defpoints
 70
     0
 62
     7
  6
Continuous
290
     0
370
    -3
390
F
  0
LAYER
  5
A46
330
2
100
AcDbSymbolTableRecord
100
AcDbLayerTableRecord
  2
size
 70
     0
 62
     5
  6
Continuous
290
     0
370
    25
390
F
  0
LAYER
  5
A47
330
2
100
AcDbSymbolTableRecord
100
AcDbLayerTableRecord
  2
waku
 70
     0
 62
     7
  6
Continuous
370
    35
390
F
  0
LAYER
  5
A48
330
2
100
AcDbSymbolTableRecord
100
AcDbLayerTableRecord
  2
AM_6
 70
     0
 62
     2
  6
文字
370
    20
390
F
  0
LAYER
  5
5F85
330
2
100
AcDbSymbolTableRecord
100
AcDbLayerTableRecord
  2
AM_0
 70
     0
 62
     7
  6
中線
370
    30
390
F
  0
LAYER
  5
5F86
330
2
100
AcDbSymbolTableRecord
100
AcDbLayerTableRecord
  2
AM_1
 70
     0
 62
    30
  6
太線
370
    40
390
F
  0
LAYER
  5
5F87
330
2
100
AcDbSymbolTableRecord
100
AcDbLayerTableRecord
  2
AM_2
 70
     0
 62
     1
  6
細線
370
    20
390
F
  0
LAYER
  5
5F88
330
2
100
AcDbSymbolTableRecord
100
AcDbLayerTableRecord
  2
AM_3
 70
     0
 62
     6
  6
陰線1
370
    20
390
F
  0
LAYER
  5
5F8A
330
2
100
AcDbSymbolTableRecord
100
AcDbLayerTableRecord
  2
AM_5
 70
     0
 62
     3
  6
寸法線
370
    20
390
F
  0
LAYER
  5
5F8B
330
2
100
AcDbSymbolTableRecord
100
AcDbLayerTableRecord
  2
AM_7
 70
     0
 62
     4
  6
中心線1
370
    20
390
F
  0
LAYER
  5
5F8C
330
2
100
AcDbSymbolTableRecord
100
AcDbLayerTableRecord
  2
AM_8
 70
     0
 62
     1
  6
ハッチング
370
    20
390
F
  0
LAYER
  5
112D7
330
2
100
AcDbSymbolTableRecord
100
AcDbLayerTableRecord
  2
AM_11
 70
     0
 62
     2
  6
想像線1
370
    20
390
F
  0
LAYER
  5
13616
330
2
100
AcDbSymbolTableRecord
100
AcDbLayerTableRecord
  2
AM_CL
 70
     0
 62
     1
  6
Amconstr
370
    20
390
F
1001
AcAecLayerStandard
1000

1000

  0
LAYER
  5
15B83
330
2
100
AcDbSymbolTableRecord
100
AcDbLayerTableRecord
  2
ケースＡ-AM_0
 70
     0
 62
    30
  6
中線
370
    30
390
F
1001
AcAecLayerStandard
1000

1000

  0
LAYER
  5
1684D
330
2
100
AcDbSymbolTableRecord
100
AcDbLayerTableRecord
  2
カム-AM_0
 70
     0
 62
   160
  6
中線
370
    30
390
F
1001
AcAecLayerStandard
1000

1000

  0
LAYER
  5
16A5C
330
2
100
AcDbSymbolTableRecord
100
AcDbLayerTableRecord
  2
ラッチボルト-AM_5
 70
     0
 62
     3
  6
寸法線
370
    20
390
F
1001
AcAecLayerStandard
1000

1000

  0
LAYER
  5
16A9B
330
2
100
AcDbSymbolTableRecord
100
AcDbLayerTableRecord
  2
スライド樹脂-AM_0
 70
     0
 62
   125
  6
中線
370
    30
390
F
1001
AcAecLayerStandard
1000

1000

  0
LAYER
  5
16DEF
330
2
100
AcDbSymbolTableRecord
100
AcDbLayerTableRecord
  2
フロントプレート-AM_0
 70
     0
 62
    50
  6
中線
370
    30
390
F
1001
AcAecLayerStandard
1000

1000

  0
LAYER
  5
17006
330
2
100
AcDbSymbolTableRecord
100
AcDbLayerTableRecord
  2
AM_4
 70
     0
 62
     3
  6
補助線
370
    20
390
F
1001
AcAecLayerStandard
1000

1000

  0
LAYER
  5
17033
330
2
100
AcDbSymbolTableRecord
100
AcDbLayerTableRecord
  2
AM_0N
 70
     0
 62
     7
  6
中線
370
    30
390
F
1001
AcAecLayerStandard
1000

1000

  0
LAYER
  5
1706B
330
2
100
AcDbSymbolTableRecord
100
AcDbLayerTableRecord
  2
AM_7N
 70
     0
 62
     4
  6
中心線1
370
    30
390
F
1001
AcAecLayerStandard
1000

1000

  0
LAYER
  5
1706C
330
2
100
AcDbSymbolTableRecord
100
AcDbLayerTableRecord
  2
AM_9
 70
     0
 62
   253
  6
Continuous
370
     0
390
F
1001
AcAecLayerStandard
1000

1000

  0
LAYER
  5
17168
330
2
100
AcDbSymbolTableRecord
100
AcDbLayerTableRecord
  2
フロントプレート-AM_5
 70
     0
 62
     3
  6
寸法線
370
    20
390
F
1001
AcAecLayerStandard
1000

1000

  0
LAYER
  5
C49A0
102
{ACAD_XDICTIONARY
360
C49A1
102
}
330
2
100
AcDbSymbolTableRecord
100
AcDbLayerTableRecord
  2
99その他
 70
     0
 62
     3
  6
Continuous
370
    35
390
F
1001
AcAecLayerStandard
1000

1000

  0
LAYER
  5
C8641
330
2
100
AcDbSymbolTableRecord
100
AcDbLayerTableRecord
  2
フロントプレート-AM_8
 70
     0
 62
     1
  6
ハッチング
370
    20
390
F
1001
AcAecLayerStandard
1000

1000

  0
LAYER
  5
CA416
330
2
100
AcDbSymbolTableRecord
100
AcDbLayerTableRecord
  2
PV0001_1
 70
     0
 62
     7
  6
Continuous
370
    -3
390
F
  0
LAYER
  5
DD09F
330
2
100
AcDbSymbolTableRecord
100
AcDbLayerTableRecord
  2
000 47レバー角芯付
 70
     0
 62
   151
  6
中線
370
    30
390
F
1001
AcAecLayerStandard
1000

1000

  0
LAYER
  5
DFBCF
330
2
100
AcDbSymbolTableRecord
100
AcDbLayerTableRecord
  2
000外筒
 70
     0
 62
    31
  6
中線
370
    30
390
F
  0
ENDTAB
  0
TABLE
  2
STYLE
  5
3
330
0
100
AcDbSymbolTable
 70
    10
  0
STYLE
  5
11
330
3
100
AcDbSymbolTableRecord
100
AcDbTextStyleTableRecord
  2
STANDARD
 70
     0
 40
0.0
 41
0.7
 50
0.0
 71
     0
 42
3.2
  3
romans.shx
  4
extfont.shx
  0
STYLE
  5
56
330
3
100
AcDbSymbolTableRecord
100
AcDbTextStyleTableRecord
  2

 70
     1
 40
0.0
 41
1.0
 50
0.0
 71
     0
 42
2.5
  3
ltypeshp.shx
  4

  0
STYLE
  5
58
330
3
100
AcDbSymbolTableRecord
100
AcDbTextStyleTableRecord
  2
ACISOTS
 70
     0
 40
1.0
 41
1.0
 50
0.0
 71
     0
 42
2.5
  3
isocp.shx
  4
extfont.shx
  0
STYLE
  5
63
330
3
100
AcDbSymbolTableRecord
100
AcDbTextStyleTableRecord
  2
ACISOGDT
 70
     0
 40
0.0
 41
1.0
 50
0.0
 71
     0
 42
2.5
  3
amgdt.shx
  4

  0
STYLE
  5
FA7
330
3
100
AcDbSymbolTableRecord
100
AcDbTextStyleTableRecord
  2
ACANSTS
 70
     0
 40
1.0
 41
1.0
 50
0.0
 71
     0
 42
0.2
  3
romans.shx
  4
extfont.shx
  0
STYLE
  5
FA8
330
3
100
AcDbSymbolTableRecord
100
AcDbTextStyleTableRecord
  2
ACANSGDT
 70
     0
 40
0.0
 41
1.0
 50
0.0
 71
     0
 42
0.2
  3
amgdtans.shx
  4

  0
STYLE
  5
1D545
330
3
100
AcDbSymbolTableRecord
100
AcDbTextStyleTableRecord
  2

 70
     1
 40
0.0
 41
1.0
 50
0.0
 71
     0
 42
0.2
  3
genltshp.shx
  4

  0
STYLE
  5
B3355
330
3
100
AcDbSymbolTableRecord
100
AcDbTextStyleTableRecord
  2
DIM
 70
     0
 40
0.0
 41
1.0
 50
0.0
 71
     0
 42
2.5
  3
monotxt.shx
  4
extfont.shx
  0
STYLE
  5
B3356
330
3
100
AcDbSymbolTableRecord
100
AcDbTextStyleTableRecord
  2
CONVERT
 70
     0
 40
0.0
 41
1.0
 50
0.0
 71
     0
 42
2.5
  3
monotxt.shx
  4
extfont.shx
  0
STYLE
  5
D3542
330
3
100
AcDbSymbolTableRecord
100
AcDbTextStyleTableRecord
  2
横書き
 70
     0
 40
0.0
 41
1.0
 50
0.0
 71
     0
 42
6.0
  3
TXT.shx
  4
bigfont.shx
  0
ENDTAB
  0
TABLE
  2
VIEW
  5
6
330
0
100
AcDbSymbolTable
 70
     6
  0
VIEW
  5
AE1
330
6
100
AcDbSymbolTableRecord
100
AcDbViewTableRecord
  2
AM_VIEW1
 70
     0
 40
297.0
 10
1865.179636530953
 20
2168.953332028124
 41
452.0542244640605
 11
0.0
 21
0.0
 31
1.0
 12
0.0
 22
0.0
 32
0.0
 42
50.0
 43
-1370.695619172058
 44
-1370.695619172058
 50
0.0
 71
    16
281
     0
 72
     0
  0
VIEW
  5
AE2
330
6
100
AcDbSymbolTableRecord
100
AcDbViewTableRecord
  2
AM_VIEW2
 70
     0
 40
297.0
 10
2253.125412066893
 20
2168.953332028124
 41
452.0542244640603
 11
0.0
 21
0.0
 31
1.0
 12
0.0
 22
0.0
 32
0.0
 42
50.0
 43
-1370.695619172058
 44
-1370.695619172058
 50
0.0
 71
    16
281
     0
 72
     0
  0
VIEW
  5
AE3
330
6
100
AcDbSymbolTableRecord
100
AcDbViewTableRecord
  2
AM_VIEW3
 70
     0
 40
296.9999999999998
 10
1865.179636530953
 20
1871.953332028124
 41
452.0542244640605
 11
0.0
 21
0.0
 31
1.0
 12
0.0
 22
0.0
 32
0.0
 42
50.0
 43
-1370.695619172058
 44
-1370.695619172058
 50
0.0
 71
    16
281
     0
 72
     0
  0
VIEW
  5
AE4
330
6
100
AcDbSymbolTableRecord
100
AcDbViewTableRecord
  2
AM_VIEW4
 70
     0
 40
296.9999999999998
 10
2253.125412066893
 20
1871.953332028124
 41
452.0542244640603
 11
0.0
 21
0.0
 31
1.0
 12
0.0
 22
0.0
 32
0.0
 42
50.0
 43
-1370.695619172058
 44
-1370.695619172058
 50
0.0
 71
    16
281
     0
 72
     0
  0
VIEW
  5
AE5
330
6
100
AcDbSymbolTableRecord
100
AcDbViewTableRecord
  2
AM_VIEW5
 70
     0
 40
297.0
 10
2059.152524298923
 20
2020.453332028124
 41
452.0542244640603
 11
0.0
 21
0.0
 31
1.0
 12
0.0
 22
0.0
 32
0.0
 42
50.0
 43
-1370.695619172058
 44
-1370.695619172058
 50
0.0
 71
    16
281
     0
 72
     0
  0
VIEW
  5
AE6
330
6
100
AcDbSymbolTableRecord
100
AcDbViewTableRecord
  2
AM_VIEW6
 70
     0
 40
593.9940599999999
 10
2059.152524298923
 20
2020.453332028124
 41
904.0994078436314
 11
0.0
 21
0.0
 31
1.0
 12
0.0
 22
0.0
 32
0.0
 42
50.0
 43
-1370.695619172058
 44
-1370.695619172058
 50
0.0
 71
    16
281
     0
 72
     0
  0
ENDTAB
  0
TABLE
  2
UCS
  5
7
330
0
100
AcDbSymbolTable
 70
     0
  0
ENDTAB
  0
TABLE
  2
APPID
  5
9
330
0
100
AcDbSymbolTable
 70
   126
  0
APPID
  5
12
330
9
100
AcDbSymbolTableRecord
100
AcDbRegAppTableRecord
  2
ACAD
 70
     0
  0
APPID
  5
30
330
9
100
AcDbSymbolTableRecord
100
AcDbRegAppTableRecord
  2
MCAD_NO_VIS
 70
     0
  0
APPID
  5
31
330
9
100
AcDbSymbolTableRecord
100
AcDbRegAppTableRecord
  2
ACAD_TEMP_GRAPHIC
 70
     0
  0
APPID
  5
44
330
9
100
AcDbSymbolTableRecord
100
AcDbRegAppTableRecord
  2
ACATTRIBSERVICES
 70
     0
  0
APPID
  5
7A1
330
9
100
AcDbSymbolTableRecord
100
AcDbRegAppTableRecord
  2
GENIUS_GENDIMSH_14
 70
     0
  0
APPID
  5
A49
330
9
100
AcDbSymbolTableRecord
100
AcDbRegAppTableRecord
  2
GENIUS_GENREC_14
 70
     0
  0
APPID
  5
A4A
330
9
100
AcDbSymbolTableRecord
100
AcDbRegAppTableRecord
  2
GENIUS_GENOBJ-N-REC_13
 70
     0
  0
APPID
  5
A4B
330
9
100
AcDbSymbolTableRecord
100
AcDbRegAppTableRecord
  2
GENIUS_GENODEF_13
 70
     0
  0
APPID
  5
A4C
330
9
100
AcDbSymbolTableRecord
100
AcDbRegAppTableRecord
  2
DCO15
 70
     0
  0
APPID
  5
ADC
330
9
100
AcDbSymbolTableRecord
100
AcDbRegAppTableRecord
  2
GENIUS_GENOLIS_13
 70
     0
  0
APPID
  5
ADD
330
9
100
AcDbSymbolTableRecord
100
AcDbRegAppTableRecord
  2
GENIUS_GENOENT_13
 70
     0
  0
APPID
  5
ADE
330
9
100
AcDbSymbolTableRecord
100
AcDbRegAppTableRecord
  2
GENIUS_GENOBJ-N-TIT_13
 70
     0
  0
APPID
  5
ADF
330
9
100
AcDbSymbolTableRecord
100
AcDbRegAppTableRecord
  2
GENIUS_GENTITLE_13
 70
     0
  0
APPID
  5
AE0
330
9
100
AcDbSymbolTableRecord
100
AcDbRegAppTableRecord
  2
GENIUS_GENOREF_13
 70
     0
  0
APPID
  5
AE7
330
9
100
AcDbSymbolTableRecord
100
AcDbRegAppTableRecord
  2
GENIUS_GENSCREG_15
 70
     0
  0
APPID
  5
AE8
330
9
100
AcDbSymbolTableRecord
100
AcDbRegAppTableRecord
  2
GENIUS_GENOBJ-N-SDF_13
 70
     0
  0
APPID
  5
FAF
330
9
100
AcDbSymbolTableRecord
100
AcDbRegAppTableRecord
  2
GENIUS_GENBLLY_14
 70
     0
  0
APPID
  5
FB0
330
9
100
AcDbSymbolTableRecord
100
AcDbRegAppTableRecord
  2
GENIUS_GENTRA_14
 70
     0
  0
APPID
  5
1285
330
9
100
AcDbSymbolTableRecord
100
AcDbRegAppTableRecord
  2
GENIUS_GENDTOL_13
 70
     0
  0
APPID
  5
142D
330
9
100
AcDbSymbolTableRecord
100
AcDbRegAppTableRecord
  2
GENIUS_GENOBJ-N-CEN_13
 70
     0
  0
APPID
  5
1AB5
330
9
100
AcDbSymbolTableRecord
100
AcDbRegAppTableRecord
  2
GENIUS_GENOBJ-N-CRS_13
 70
     0
  0
APPID
  5
1B36
330
9
100
AcDbSymbolTableRecord
100
AcDbRegAppTableRecord
  2
GENIUS_GENOBJ-N-HTC_13
 70
     0
  0
APPID
  5
1B37
330
9
100
AcDbSymbolTableRecord
100
AcDbRegAppTableRecord
  2
GENIUS_GENHATCH_13
 70
     0
  0
APPID
  5
216D
330
9
100
AcDbSymbolTableRecord
100
AcDbRegAppTableRecord
  2
GENIUS_GENOBJ-N-FIL_13
 70
     0
  0
APPID
  5
2356
330
9
100
AcDbSymbolTableRecord
100
AcDbRegAppTableRecord
  2
GEVID990412420
 70
     0
  0
APPID
  5
2357
330
9
100
AcDbSymbolTableRecord
100
AcDbRegAppTableRecord
  2
GEVDC
 70
     0
  0
APPID
  5
2358
330
9
100
AcDbSymbolTableRecord
100
AcDbRegAppTableRecord
  2
GEVCON
 70
     0
  0
APPID
  5
235B
330
9
100
AcDbSymbolTableRecord
100
AcDbRegAppTableRecord
  2
GEVRADREF
 70
     0
  0
APPID
  5
2360
330
9
100
AcDbSymbolTableRecord
100
AcDbRegAppTableRecord
  2
GENIUS_GENBH_13
 70
     0
  0
APPID
  5
2362
330
9
100
AcDbSymbolTableRecord
100
AcDbRegAppTableRecord
  2
GENIUS_GENOBJ-NBEHI-BHF_13
 70
     0
  0
APPID
  5
2364
330
9
100
AcDbSymbolTableRecord
100
AcDbRegAppTableRecord
  2
GENIUS_GENOBJ-NBEHI-BHB_13
 70
     0
  0
APPID
  5
2379
330
9
100
AcDbSymbolTableRecord
100
AcDbRegAppTableRecord
  2
GENIUS_GENOBJ-F-SCPASSM_13
 70
     0
  0
APPID
  5
3D74
330
9
100
AcDbSymbolTableRecord
100
AcDbRegAppTableRecord
  2
GENIUS_GENDIM_13
 70
     0
  0
APPID
  5
3D76
330
9
100
AcDbSymbolTableRecord
100
AcDbRegAppTableRecord
  2
GENIUS_GE3DTOL_13
 70
     0
  0
APPID
  5
3D9C
330
9
100
AcDbSymbolTableRecord
100
AcDbRegAppTableRecord
  2
AD_DRAW
 70
     0
  0
APPID
  5
3DE8
330
9
100
AcDbSymbolTableRecord
100
AcDbRegAppTableRecord
  2
ASURF_PCURVE_APPNAME
 70
     0
  0
APPID
  5
3DED
330
9
100
AcDbSymbolTableRecord
100
AcDbRegAppTableRecord
  2
AMG_3D2D_5.0
 70
     0
  0
APPID
  5
3E1B
330
9
100
AcDbSymbolTableRecord
100
AcDbRegAppTableRecord
  2
DESIGNERASSEMBLIES
 70
     0
  0
APPID
  5
3E20
330
9
100
AcDbSymbolTableRecord
100
AcDbRegAppTableRecord
  2
ACADM_DIM_EDIT
 70
     0
  0
APPID
  5
3E21
330
9
100
AcDbSymbolTableRecord
100
AcDbRegAppTableRecord
  2
AMDT_DM_ADJ
 70
     0
  0
APPID
  5
4143
330
9
100
AcDbSymbolTableRecord
100
AcDbRegAppTableRecord
  2
GENIUS_GENFIL_13
 70
     0
  0
APPID
  5
4144
330
9
100
AcDbSymbolTableRecord
100
AcDbRegAppTableRecord
  2
GENIUS_GENOBJ-N-CHA_13
 70
     0
  0
APPID
  5
4E17
330
9
100
AcDbSymbolTableRecord
100
AcDbRegAppTableRecord
  2
GEVID1008153417
 70
     0
  0
APPID
  5
4E58
330
9
100
AcDbSymbolTableRecord
100
AcDbRegAppTableRecord
  2
GEVID1008153418
 70
     0
  0
APPID
  5
4E5E
330
9
100
AcDbSymbolTableRecord
100
AcDbRegAppTableRecord
  2
GEVID1008153419
 70
     0
  0
APPID
  5
4E64
330
9
100
AcDbSymbolTableRecord
100
AcDbRegAppTableRecord
  2
GEVID1008153420
 70
     0
  0
APPID
  5
4E75
330
9
100
AcDbSymbolTableRecord
100
AcDbRegAppTableRecord
  2
GEVID1008153421
 70
     0
  0
APPID
  5
4EB7
330
9
100
AcDbSymbolTableRecord
100
AcDbRegAppTableRecord
  2
GENIUS_AMGTXT_16
 70
     0
  0
APPID
  5
7645
330
9
100
AcDbSymbolTableRecord
100
AcDbRegAppTableRecord
  2
GENIUS_GENOBJ-N-DIM_13
 70
     0
  0
APPID
  5
E796
330
9
100
AcDbSymbolTableRecord
100
AcDbRegAppTableRecord
  2
GENIUS_GENOBJ-N-ZOO_13
 70
     0
  0
APPID
  5
E797
330
9
100
AcDbSymbolTableRecord
100
AcDbRegAppTableRecord
  2
GENIUS_GENZOO_16
 70
     0
  0
APPID
  5
FD37
330
9
100
AcDbSymbolTableRecord
100
AcDbRegAppTableRecord
  2
ACAD_DSTYLE_DIMARC_LENGTH_SYMBOL
 70
     0
  0
APPID
  5
FD38
330
9
100
AcDbSymbolTableRecord
100
AcDbRegAppTableRecord
  2
ACAD_DSTYLE_DIMJOGGED_JOGANGLE_SYMBOL
 70
     0
  0
APPID
  5
FD7F
330
9
100
AcDbSymbolTableRecord
100
AcDbRegAppTableRecord
  2
ACAD_PSEXT
 70
     0
  0
APPID
  5
13617
330
9
100
AcDbSymbolTableRecord
100
AcDbRegAppTableRecord
  2
AcAecLayerStandard
 70
     0
  0
APPID
  5
157D2
330
9
100
AcDbSymbolTableRecord
100
AcDbRegAppTableRecord
  2
GENIUS_GENCEN_19
 70
     0
  0
APPID
  5
15B8F
330
9
100
AcDbSymbolTableRecord
100
AcDbRegAppTableRecord
  2
GENLAYCOLOR
 70
     0
  0
APPID
  5
165A0
330
9
100
AcDbSymbolTableRecord
100
AcDbRegAppTableRecord
  2
ACAD_EXEMPT_FROM_CAD_STANDARDS
 70
     0
  0
APPID
  5
17011
330
9
100
AcDbSymbolTableRecord
100
AcDbRegAppTableRecord
  2
AMG_2DHIDE
 70
     0
  0
APPID
  5
17012
330
9
100
AcDbSymbolTableRecord
100
AcDbRegAppTableRecord
  2
AMG_2DSTRUCT_BTR
 70
     0
  0
APPID
  5
1701F
330
9
100
AcDbSymbolTableRecord
100
AcDbRegAppTableRecord
  2
GEVID1152152947
 70
     0
  0
APPID
  5
1703F
330
9
100
AcDbSymbolTableRecord
100
AcDbRegAppTableRecord
  2
ACADM_2DVIEW_IGN_NOTIFY
 70
     0
  0
APPID
  5
171EE
330
9
100
AcDbSymbolTableRecord
100
AcDbRegAppTableRecord
  2
GEVID1152152948
 70
     0
  0
APPID
  5
19B6A
330
9
100
AcDbSymbolTableRecord
100
AcDbRegAppTableRecord
  2
GEVID1152586001
 70
     0
  0
APPID
  5
19BEB
330
9
100
AcDbSymbolTableRecord
100
AcDbRegAppTableRecord
  2
GEVID1152586002
 70
     0
  0
APPID
  5
19BED
330
9
100
AcDbSymbolTableRecord
100
AcDbRegAppTableRecord
  2
GENIUS_GEFSPRING_13
 70
     0
  0
APPID
  5
31BE8
330
9
100
AcDbSymbolTableRecord
100
AcDbRegAppTableRecord
  2
GEVID1153219131
 70
     0
  0
APPID
  5
31BF3
330
9
100
AcDbSymbolTableRecord
100
AcDbRegAppTableRecord
  2
GEVID1153219132
 70
     0
  0
APPID
  5
31D4D
330
9
100
AcDbSymbolTableRecord
100
AcDbRegAppTableRecord
  2
GEVID1153219133
 70
     0
  0
APPID
  5
31D7C
330
9
100
AcDbSymbolTableRecord
100
AcDbRegAppTableRecord
  2
GEVID1153219134
 70
     0
  0
APPID
  5
31D8A
330
9
100
AcDbSymbolTableRecord
100
AcDbRegAppTableRecord
  2
GEVID1153219135
 70
     0
  0
APPID
  5
3219D
330
9
100
AcDbSymbolTableRecord
100
AcDbRegAppTableRecord
  2
GEVID1153219136
 70
     0
  0
APPID
  5
322D2
330
9
100
AcDbSymbolTableRecord
100
AcDbRegAppTableRecord
  2
GEVID1153219137
 70
     0
  0
APPID
  5
33905
330
9
100
AcDbSymbolTableRecord
100
AcDbRegAppTableRecord
  2
GEVID1154766077
 70
     0
  0
APPID
  5
33908
330
9
100
AcDbSymbolTableRecord
100
AcDbRegAppTableRecord
  2
GEVID1154766078
 70
     0
  0
APPID
  5
3397D
330
9
100
AcDbSymbolTableRecord
100
AcDbRegAppTableRecord
  2
GEVID1154766079
 70
     0
  0
APPID
  5
33980
330
9
100
AcDbSymbolTableRecord
100
AcDbRegAppTableRecord
  2
GEVID1154766080
 70
     0
  0
APPID
  5
33AF7
330
9
100
AcDbSymbolTableRecord
100
AcDbRegAppTableRecord
  2
GEVID1154766082
 70
     0
  0
APPID
  5
33BB4
330
9
100
AcDbSymbolTableRecord
100
AcDbRegAppTableRecord
  2
GEVID1154766083
 70
     0
  0
APPID
  5
3EE6B
330
9
100
AcDbSymbolTableRecord
100
AcDbRegAppTableRecord
  2
GEVID1158244683
 70
     0
  0
APPID
  5
3EEEA
330
9
100
AcDbSymbolTableRecord
100
AcDbRegAppTableRecord
  2
GEVID1158244684
 70
     0
  0
APPID
  5
437DF
330
9
100
AcDbSymbolTableRecord
100
AcDbRegAppTableRecord
  2
GEVID1158292150
 70
     0
  0
APPID
  5
43E72
330
9
100
AcDbSymbolTableRecord
100
AcDbRegAppTableRecord
  2
GEVID1158292151
 70
     0
  0
APPID
  5
43F51
330
9
100
AcDbSymbolTableRecord
100
AcDbRegAppTableRecord
  2
GEVID1158292152
 70
     0
  0
APPID
  5
43F6B
330
9
100
AcDbSymbolTableRecord
100
AcDbRegAppTableRecord
  2
GEVID1158292153
 70
     0
  0
APPID
  5
43FE9
330
9
100
AcDbSymbolTableRecord
100
AcDbRegAppTableRecord
  2
GEVID1158292154
 70
     0
  0
APPID
  5
4431E
330
9
100
AcDbSymbolTableRecord
100
AcDbRegAppTableRecord
  2
GEVID1158292155
 70
     0
  0
APPID
  5
44336
330
9
100
AcDbSymbolTableRecord
100
AcDbRegAppTableRecord
  2
GEVID1158292156
 70
     0
  0
APPID
  5
44341
330
9
100
AcDbSymbolTableRecord
100
AcDbRegAppTableRecord
  2
GEVID1158292157
 70
     0
  0
APPID
  5
4434D
330
9
100
AcDbSymbolTableRecord
100
AcDbRegAppTableRecord
  2
GEVID1158292158
 70
     0
  0
APPID
  5
44908
330
9
100
AcDbSymbolTableRecord
100
AcDbRegAppTableRecord
  2
GEVID1158292160
 70
     0
  0
APPID
  5
44B97
330
9
100
AcDbSymbolTableRecord
100
AcDbRegAppTableRecord
  2
GEVID1158292161
 70
     0
  0
APPID
  5
50A05
330
9
100
AcDbSymbolTableRecord
100
AcDbRegAppTableRecord
  2
GEVID1158565859
 70
     0
  0
APPID
  5
50AA9
330
9
100
AcDbSymbolTableRecord
100
AcDbRegAppTableRecord
  2
GEVID1158565860
 70
     0
  0
APPID
  5
50BD0
330
9
100
AcDbSymbolTableRecord
100
AcDbRegAppTableRecord
  2
GEVID1158565861
 70
     0
  0
APPID
  5
515ED
330
9
100
AcDbSymbolTableRecord
100
AcDbRegAppTableRecord
  2
GEVID1158565862
 70
     0
  0
APPID
  5
57A91
330
9
100
AcDbSymbolTableRecord
100
AcDbRegAppTableRecord
  2
GEVID1159925413
 70
     0
  0
APPID
  5
57B3D
330
9
100
AcDbSymbolTableRecord
100
AcDbRegAppTableRecord
  2
GEVID1159925934
 70
     0
  0
APPID
  5
57CAF
330
9
100
AcDbSymbolTableRecord
100
AcDbRegAppTableRecord
  2
GEVID1159925935
 70
     0
  0
APPID
  5
59C8E
330
9
100
AcDbSymbolTableRecord
100
AcDbRegAppTableRecord
  2
GEVID1159925936
 70
     0
  0
APPID
  5
59D0D
330
9
100
AcDbSymbolTableRecord
100
AcDbRegAppTableRecord
  2
GEVID1159925937
 70
     0
  0
APPID
  5
5A9D4
330
9
100
AcDbSymbolTableRecord
100
AcDbRegAppTableRecord
  2
GEVID1159925938
 70
     0
  0
APPID
  5
72661
330
9
100
AcDbSymbolTableRecord
100
AcDbRegAppTableRecord
  2
GEVID1160454489
 70
     0
  0
APPID
  5
72BD0
330
9
100
AcDbSymbolTableRecord
100
AcDbRegAppTableRecord
  2
GEVID1160454490
 70
     0
  0
APPID
  5
72CB4
330
9
100
AcDbSymbolTableRecord
100
AcDbRegAppTableRecord
  2
GEVID1160454491
 70
     0
  0
APPID
  5
72D12
330
9
100
AcDbSymbolTableRecord
100
AcDbRegAppTableRecord
  2
GEVID1160454492
 70
     0
  0
APPID
  5
72EF2
330
9
100
AcDbSymbolTableRecord
100
AcDbRegAppTableRecord
  2
GEVID1160454493
 70
     0
  0
APPID
  5
8F518
330
9
100
AcDbSymbolTableRecord
100
AcDbRegAppTableRecord
  2
GEVID1161094083
 70
     0
  0
APPID
  5
8F575
330
9
100
AcDbSymbolTableRecord
100
AcDbRegAppTableRecord
  2
GEVID1161094084
 70
     0
  0
APPID
  5
8F920
330
9
100
AcDbSymbolTableRecord
100
AcDbRegAppTableRecord
  2
GEVID1161094085
 70
     0
  0
APPID
  5
8F984
330
9
100
AcDbSymbolTableRecord
100
AcDbRegAppTableRecord
  2
GEVID1161094086
 70
     0
  0
APPID
  5
93CEC
330
9
100
AcDbSymbolTableRecord
100
AcDbRegAppTableRecord
  2
GEVID1161129444
 70
     0
  0
APPID
  5
94059
330
9
100
AcDbSymbolTableRecord
100
AcDbRegAppTableRecord
  2
GEVID1161129445
 70
     0
  0
APPID
  5
95700
330
9
100
AcDbSymbolTableRecord
100
AcDbRegAppTableRecord
  2
GEVID1161129446
 70
     0
  0
APPID
  5
958F5
330
9
100
AcDbSymbolTableRecord
100
AcDbRegAppTableRecord
  2
GEVID1161129447
 70
     0
  0
APPID
  5
9B4D8
330
9
100
AcDbSymbolTableRecord
100
AcDbRegAppTableRecord
  2
GEVID1161232736
 70
     0
  0
APPID
  5
AF7E7
330
9
100
AcDbSymbolTableRecord
100
AcDbRegAppTableRecord
  2
GEVID1162270285
 70
     0
  0
APPID
  5
AF896
330
9
100
AcDbSymbolTableRecord
100
AcDbRegAppTableRecord
  2
GEVID1162270286
 70
     0
  0
APPID
  5
AFEAE
330
9
100
AcDbSymbolTableRecord
100
AcDbRegAppTableRecord
  2
GEVID1162270287
 70
     0
  0
APPID
  5
B0EF8
330
9
100
AcDbSymbolTableRecord
100
AcDbRegAppTableRecord
  2
GEVID1162270288
 70
     0
  0
APPID
  5
B0F80
330
9
100
AcDbSymbolTableRecord
100
AcDbRegAppTableRecord
  2
GEVID1162270289
 70
     0
  0
APPID
  5
B1F00
330
9
100
AcDbSymbolTableRecord
100
AcDbRegAppTableRecord
  2
GEVID1162270290
 70
     0
  0
APPID
  5
CBE25
330
9
100
AcDbSymbolTableRecord
100
AcDbRegAppTableRecord
  2
GEVID1232520810
 70
     0
  0
APPID
  5
CBE3B
330
9
100
AcDbSymbolTableRecord
100
AcDbRegAppTableRecord
  2
GENIUS_GENCFG_13
 70
     0
1001
GENIUS_GENCFG0_13
1000
GEN
  0
APPID
  5
CBE3C
330
9
100
AcDbSymbolTableRecord
100
AcDbRegAppTableRecord
  2
GENIUS_GENCFG0_13
 70
     0
1001
GENIUS_GENCFG_13
1071
1232520816
1000
CBE3C
1000
GEN
1070
     0
  0
APPID
  5
D3545
330
9
100
AcDbSymbolTableRecord
100
AcDbRegAppTableRecord
  2
ACAD_DSTYLE_DIMRADIAL_EXTENSION
 70
     0
  0
ENDTAB
  0
TABLE
  2
DIMSTYLE
  5
A
330
0
100
AcDbSymbolTable
 70
    32
100
AcDbDimStyleTable
 71
     4
340
2515
340
71
340
6C
340
FA9
  0
DIMSTYLE
105
6C
330
A
100
AcDbSymbolTableRecord
100
AcDbDimStyleTableRecord
  2
AM_ISO
 70
     0
  4
"
 41
2.5
 42
1.0
 43
10.0
 44
1.0
 47
0.1
 48
0.1
 73
     0
 74
     0
 77
     1
 78
     8
 79
     2
140
3.5
141
0.0
143
0.0393701
146
0.71
147
1.5
172
     1
176
   256
177
   256
178
     2
271
     2
272
     3
274
     4
283
     0
284
     8
340
11
371
    -1
372
    -1
1001
ACAD_DSTYLE_DIMJOGGED_JOGANGLE_SYMBOL
1070
   384
1040
0.7853981633974483
1001
ACAD_DSTYLE_DIMARC_LENGTH_SYMBOL
1070
   379
1070
     1
  0
DIMSTYLE
105
6D
330
A
100
AcDbSymbolTableRecord
100
AcDbDimStyleTableRecord
  2
AM_ISO$3
 70
     0
  4
"
 41
0.8
 42
1.0
 43
10.0
 44
1.0
 47
0.1
 48
0.1
 73
     0
 77
     1
 78
     8
 79
     2
140
3.2
141
0.0
143
0.0393701
146
0.71
147
0.9999999999999996
176
   256
177
   256
178
     2
271
     2
272
     2
283
     0
284
     8
288
     1
289
     0
340
11
342
6C4
371
    -1
372
    -1
1001
ACAD_DSTYLE_DIMJOGGED_JOGANGLE_SYMBOL
1070
   384
1040
0.7853981633974483
1001
ACAD_DSTYLE_DIMARC_LENGTH_SYMBOL
1070
   379
1070
     1
  0
DIMSTYLE
105
6E
330
A
100
AcDbSymbolTableRecord
100
AcDbDimStyleTableRecord
  2
AM_ISO$4
 70
     0
  4
"
 41
0.8
 42
1.0
 43
10.0
 44
1.0
 47
0.1
 48
0.1
 73
     0
 77
     1
 78
     8
 79
     2
140
3.2
141
0.0
143
0.0393701
146
0.71
147
1.0
173
     1
176
   256
177
   256
178
     2
271
     2
272
     2
283
     0
284
     8
288
     1
289
     0
340
11
344
6C4
371
    -1
372
    -1
1001
ACAD_DSTYLE_DIMJOGGED_JOGANGLE_SYMBOL
1070
   384
1040
0.7853981633974483
1001
ACAD_DSTYLE_DIMARC_LENGTH_SYMBOL
1070
   379
1070
     1
  0
DIMSTYLE
105
6F
330
A
100
AcDbSymbolTableRecord
100
AcDbDimStyleTableRecord
  2
AM_ISO$6
 70
     0
  4
"
 41
0.8
 42
1.0
 43
10.0
 44
1.0
 47
0.1
 48
0.1
 73
     0
 74
     0
 78
     8
 79
     2
140
3.2
141
0.0
143
0.0393701
146
0.71
147
1.0
172
     1
176
   256
177
   256
178
     2
271
     2
272
     2
283
     0
284
     8
340
11
341
6C4
371
    -1
372
    -1
1001
ACAD_DSTYLE_DIMJOGGED_JOGANGLE_SYMBOL
1070
   384
1040
0.7853981633974483
1001
ACAD_DSTYLE_DIMARC_LENGTH_SYMBOL
1070
   379
1070
     1
  0
DIMSTYLE
105
70
330
A
100
AcDbSymbolTableRecord
100
AcDbDimStyleTableRecord
  2
AM_ISO$7
 70
     0
  4
"
 41
0.8
 42
1.0
 43
10.0
 44
1.0
 47
0.1
 48
0.1
 73
     0
 74
     0
 77
     1
 78
     8
 79
     2
140
3.2
141
0.0
143
0.0393701
146
0.71
147
1.0
172
     1
176
   256
177
   256
178
     2
271
     2
272
     2
283
     0
284
     8
340
11
341
6C4
342
6C4
371
    -1
372
    -1
1001
ACAD_DSTYLE_DIMJOGGED_JOGANGLE_SYMBOL
1070
   384
1040
0.7853981633974483
1001
ACAD_DSTYLE_DIMARC_LENGTH_SYMBOL
1070
   379
1070
     1
  0
DIMSTYLE
105
71
330
A
100
AcDbSymbolTableRecord
100
AcDbDimStyleTableRecord
  2
AM_ISO$SF
 70
     0
  4
"
 41
0.8
 42
1.0
 43
10.0
 44
1.0
 47
0.1
 48
0.1
 73
     0
 74
     0
 75
     1
 76
     1
 77
     1
 78
     8
 79
     2
140
3.2
141
0.0
143
0.0393701
146
0.71
147
1.0
172
     1
176
   256
177
   256
178
     2
271
     2
272
     2
283
     0
284
     8
340
11
341
6C4
342
6C4
371
    -1
372
    -1
1001
ACAD_DSTYLE_DIMJOGGED_JOGANGLE_SYMBOL
1070
   384
1040
0.7853981633974483
1001
ACAD_DSTYLE_DIMARC_LENGTH_SYMBOL
1070
   379
1070
     1
  0
DIMSTYLE
105
76
330
A
100
AcDbSymbolTableRecord
100
AcDbDimStyleTableRecord
  2
AM_ISO$SH
 70
     0
  4
"
 41
0.8
 42
1.0
 43
10.0
 44
1.0
 47
0.1
 48
0.1
 73
     0
 74
     0
 75
     1
 76
     1
 77
     1
 78
     8
 79
     2
140
3.2
141
0.0
143
0.0393701
144
2.0
146
0.71
147
1.0
172
     1
176
   256
177
   256
178
     2
271
     2
272
     2
283
     0
284
     8
340
11
341
6C4
342
6C4
371
    -1
372
    -1
1001
ACAD_DSTYLE_DIMJOGGED_JOGANGLE_SYMBOL
1070
   384
1040
0.7853981633974483
1001
ACAD_DSTYLE_DIMARC_LENGTH_SYMBOL
1070
   379
1070
     1
  0
DIMSTYLE
105
6BE
330
A
100
AcDbSymbolTableRecord
100
AcDbDimStyleTableRecord
  2
AM_ISO$0
 70
     0
  4
"
 41
0.8
 42
1.0
 43
10.0
 44
1.0
 47
0.1
 48
0.1
 73
     0
 74
     0
 77
     1
 78
     8
 79
     2
140
3.2
141
0.0
143
0.0393701
146
0.71
147
0.9999999999999996
172
     1
176
   256
177
   256
178
     2
271
     2
272
     2
283
     0
284
     8
340
11
341
6C4
342
6C4
371
    -1
372
    -1
1001
ACAD_DSTYLE_DIMJOGGED_JOGANGLE_SYMBOL
1070
   384
1040
0.7853981633974483
1001
ACAD_DSTYLE_DIMARC_LENGTH_SYMBOL
1070
   379
1070
     1
  0
DIMSTYLE
105
6BF
330
A
100
AcDbSymbolTableRecord
100
AcDbDimStyleTableRecord
  2
AM_ISO$2
 70
     0
  4
"
 41
0.8
 42
1.0
 43
10.0
 44
1.0
 47
0.1
 48
0.1
 73
     0
 74
     0
 77
     3
 78
     8
 79
     2
140
3.200000000000001
141
0.0
143
0.0393701
146
0.71
147
0.9999999999999996
172
     1
176
   256
177
   256
178
     2
271
     2
272
     2
283
     0
284
     8
340
11
342
6C4
371
    -1
372
    -1
1001
ACAD_DSTYLE_DIMJOGGED_JOGANGLE_SYMBOL
1070
   384
1040
0.7853981633974483
1001
ACAD_DSTYLE_DIMARC_LENGTH_SYMBOL
1070
   379
1070
     1
  0
DIMSTYLE
105
FA9
330
A
100
AcDbSymbolTableRecord
100
AcDbDimStyleTableRecord
  2
AM_ANSI
 70
     0
  4
mm
 41
0.1
 42
0.05
 43
0.5
 44
0.1
 47
0.1
 48
0.1
 78
     7
 79
     2
140
0.12
141
0.0
146
0.71
147
0.06
176
   256
177
   256
178
     2
274
     4
284
     7
340
11
371
    -1
372
    -1
1001
ACAD_DSTYLE_DIMJOGGED_JOGANGLE_SYMBOL
1070
   384
1040
0.7853981633974483
1001
ACAD_DSTYLE_DIMARC_LENGTH_SYMBOL
1070
   379
1070
     1
  0
DIMSTYLE
105
FAA
330
A
100
AcDbSymbolTableRecord
100
AcDbDimStyleTableRecord
  2
AM_ANSI$3
 70
     0
  4
mm
 41
0.1
 42
0.05
 43
0.5
 44
0.1
 47
0.1
 48
0.1
 78
     7
 79
     2
140
0.12
141
0.0
146
0.71
147
0.06
176
   256
177
   256
178
     2
274
     4
284
     7
288
     1
289
     0
340
11
371
    -1
372
    -1
1001
ACAD_DSTYLE_DIMJOGGED_JOGANGLE_SYMBOL
1070
   384
1040
0.7853981633974483
1001
ACAD_DSTYLE_DIMARC_LENGTH_SYMBOL
1070
   379
1070
     1
  0
DIMSTYLE
105
FAB
330
A
100
AcDbSymbolTableRecord
100
AcDbDimStyleTableRecord
  2
AM_ANSI$4
 70
     0
  4
mm
 41
0.1
 42
0.05
 43
0.5
 44
0.1
 47
0.1
 48
0.1
 78
     7
 79
     2
140
0.12
141
0.0
146
0.71
147
0.06
176
   256
177
   256
178
     2
274
     4
284
     7
288
     1
289
     0
340
11
371
    -1
372
    -1
1001
ACAD_DSTYLE_DIMJOGGED_JOGANGLE_SYMBOL
1070
   384
1040
0.7853981633974483
1001
ACAD_DSTYLE_DIMARC_LENGTH_SYMBOL
1070
   379
1070
     1
  0
DIMSTYLE
105
FAC
330
A
100
AcDbSymbolTableRecord
100
AcDbDimStyleTableRecord
  2
AM_ANSI$7
 70
     0
  4
mm
 41
0.1
 42
0.05
 43
0.5
 44
0.1
 47
0.1
 48
0.1
 78
     7
 79
     2
140
0.24
141
0.0
146
0.71
147
0.06
176
   256
177
   256
178
     2
274
     4
284
     7
340
11
371
    -1
372
    -1
1001
ACAD_DSTYLE_DIMJOGGED_JOGANGLE_SYMBOL
1070
   384
1040
0.7853981633974483
1001
ACAD_DSTYLE_DIMARC_LENGTH_SYMBOL
1070
   379
1070
     1
  0
DIMSTYLE
105
FAD
330
A
100
AcDbSymbolTableRecord
100
AcDbDimStyleTableRecord
  2
AM_ANSI$SF
 70
     0
  4
mm
 41
0.1
 42
0.05
 43
0.5
 44
0.1
 47
0.1
 48
0.1
 75
     1
 76
     1
 78
     7
 79
     2
140
0.12
141
0.0
146
0.71
147
0.06
176
   256
177
   256
178
     2
274
     4
284
     7
340
11
371
    -1
372
    -1
1001
ACAD_DSTYLE_DIMJOGGED_JOGANGLE_SYMBOL
1070
   384
1040
0.7853981633974483
1001
ACAD_DSTYLE_DIMARC_LENGTH_SYMBOL
1070
   379
1070
     1
  0
DIMSTYLE
105
FAE
330
A
100
AcDbSymbolTableRecord
100
AcDbDimStyleTableRecord
  2
AM_ANSI$SH
 70
     0
  4
mm
 41
0.1
 42
0.05
 43
0.5
 44
0.1
 47
0.1
 48
0.1
 75
     1
 76
     1
 78
     7
 79
     2
140
0.12
141
0.0
146
0.71
147
0.06
173
     1
176
   256
177
   256
178
     2
274
     4
284
     7
340
11
343
72
371
    -1
372
    -1
1001
ACAD_DSTYLE_DIMJOGGED_JOGANGLE_SYMBOL
1070
   384
1040
0.7853981633974483
1001
ACAD_DSTYLE_DIMARC_LENGTH_SYMBOL
1070
   379
1070
     1
  0
DIMSTYLE
105
2515
330
A
100
AcDbSymbolTableRecord
100
AcDbDimStyleTableRecord
  2
SYS
 70
     0
  4
"
 41
1.0
 42
1.0
 43
10.0
 44
1.0
 47
0.1
 48
0.1
 73
     0
 74
     0
 77
     1
 78
     8
 79
     2
140
3.5
141
0.0
143
0.0393701
146
0.71
147
1.5
172
     1
176
   256
177
   256
178
     7
271
     2
272
     2
283
     0
284
     8
340
11
371
    -1
372
    -1
1001
ACAD_DSTYLE_DIMJOGGED_JOGANGLE_SYMBOL
1070
   384
1040
0.7853981633974483
1001
ACAD_DSTYLE_DIMARC_LENGTH_SYMBOL
1070
   379
1070
     1
  0
DIMSTYLE
105
2516
330
A
100
AcDbSymbolTableRecord
100
AcDbDimStyleTableRecord
  2
SYS$3
 70
     0
  4
"
 41
2.0
 42
1.0
 43
10.0
 44
1.0
 47
0.1
 48
0.1
 73
     0
 77
     1
 78
     8
 79
     2
140
3.5
141
0.0
143
0.0393701
146
0.71
147
1.5
176
   256
177
   256
178
     2
271
     2
272
     2
283
     0
284
     8
288
     1
340
11
342
A66
371
    -1
372
    -1
1001
ACAD_DSTYLE_DIMJOGGED_JOGANGLE_SYMBOL
1070
   384
1040
0.7853981633974483
1001
ACAD_DSTYLE_DIMARC_LENGTH_SYMBOL
1070
   379
1070
     1
  0
DIMSTYLE
105
2517
330
A
100
AcDbSymbolTableRecord
100
AcDbDimStyleTableRecord
  2
SYS$4
 70
     0
  4
"
 41
2.0
 42
1.0
 43
10.0
 44
1.0
 47
0.1
 48
0.1
 73
     0
 77
     1
 78
     8
 79
     2
140
3.5
141
0.0
143
0.0393701
146
0.71
147
1.5
173
     1
176
   256
177
   256
178
     2
271
     2
272
     2
283
     0
284
     8
288
     1
340
11
344
A66
371
    -1
372
    -1
1001
ACAD_DSTYLE_DIMJOGGED_JOGANGLE_SYMBOL
1070
   384
1040
0.7853981633974483
1001
ACAD_DSTYLE_DIMARC_LENGTH_SYMBOL
1070
   379
1070
     1
  0
DIMSTYLE
105
2518
330
A
100
AcDbSymbolTableRecord
100
AcDbDimStyleTableRecord
  2
SYS$6
 70
     0
  4
"
 41
2.0
 42
1.0
 43
10.0
 44
1.0
 47
0.1
 48
0.1
 73
     0
 74
     0
 78
     8
 79
     2
140
3.5
141
0.0
143
0.0393701
146
0.71
147
1.5
172
     1
176
   256
177
   256
178
     2
271
     2
272
     2
283
     0
284
     8
340
11
341
A66
371
    -1
372
    -1
1001
ACAD_DSTYLE_DIMJOGGED_JOGANGLE_SYMBOL
1070
   384
1040
0.7853981633974483
1001
ACAD_DSTYLE_DIMARC_LENGTH_SYMBOL
1070
   379
1070
     1
  0
DIMSTYLE
105
2519
330
A
100
AcDbSymbolTableRecord
100
AcDbDimStyleTableRecord
  2
SYS$7
 70
     0
  4
"
 41
2.0
 42
1.0
 43
10.0
 44
1.0
 47
0.1
 48
0.1
 73
     0
 74
     0
 77
     1
 78
     8
 79
     2
140
5.0
141
0.0
143
0.0393701
146
0.71
147
1.5
172
     1
176
   256
177
   256
178
     2
271
     2
272
     2
283
     0
284
     8
340
11
341
A66
342
A66
371
    -1
372
    -1
1001
ACAD_DSTYLE_DIMJOGGED_JOGANGLE_SYMBOL
1070
   384
1040
0.7853981633974483
1001
ACAD_DSTYLE_DIMARC_LENGTH_SYMBOL
1070
   379
1070
     1
  0
DIMSTYLE
105
251A
330
A
100
AcDbSymbolTableRecord
100
AcDbDimStyleTableRecord
  2
SYS$SF
 70
     0
  4
"
 41
2.5
 42
1.0
 43
10.0
 44
1.0
 47
0.1
 48
0.1
 73
     0
 74
     0
 75
     1
 76
     1
 77
     1
 78
     8
 79
     2
140
3.5
141
0.0
143
0.0393701
146
0.71
147
1.5
172
     1
176
   256
177
   256
178
     2
271
     2
272
     3
283
     0
284
     8
340
11
341
6C4
342
6C4
371
    -1
372
    -1
1001
ACAD_DSTYLE_DIMJOGGED_JOGANGLE_SYMBOL
1070
   384
1040
0.7853981633974483
1001
ACAD_DSTYLE_DIMARC_LENGTH_SYMBOL
1070
   379
1070
     1
  0
DIMSTYLE
105
251B
330
A
100
AcDbSymbolTableRecord
100
AcDbDimStyleTableRecord
  2
SYS$SH
 70
     0
  4
"
 41
2.5
 42
1.0
 43
10.0
 44
1.0
 47
0.1
 48
0.1
 73
     0
 74
     0
 75
     1
 76
     1
 77
     1
 78
     8
 79
     2
140
3.5
141
0.0
143
0.0393701
144
2.0
146
0.71
147
1.5
172
     1
173
     1
176
   256
177
   256
178
     2
271
     2
272
     3
283
     0
284
     8
340
11
341
6C4
343
72
344
6C4
371
    -1
372
    -1
1001
ACAD_DSTYLE_DIMJOGGED_JOGANGLE_SYMBOL
1070
   384
1040
0.7853981633974483
1001
ACAD_DSTYLE_DIMARC_LENGTH_SYMBOL
1070
   379
1070
     1
  0
DIMSTYLE
105
2A59
330
A
100
AcDbSymbolTableRecord
100
AcDbDimStyleTableRecord
  2
SYS$2
 70
     0
  4
"
 41
1.0
 42
1.0
 43
10.0
 44
1.0
 47
0.1
 48
0.1
 73
     0
 74
     0
 77
     1
 78
     8
 79
     2
140
3.5
141
0.0
143
0.0393701
146
0.71
147
1.5
172
     1
176
   256
177
   256
178
     2
271
     2
272
     2
283
     0
284
     8
340
11
342
6C4
371
    -1
372
    -1
1001
ACAD_DSTYLE_DIMJOGGED_JOGANGLE_SYMBOL
1070
   384
1040
0.7853981633974483
1001
ACAD_DSTYLE_DIMARC_LENGTH_SYMBOL
1070
   379
1070
     1
  0
DIMSTYLE
105
2AAB
102
{ACAD_REACTORS
330
DE029
330
DE02C
330
DF4CF
330
DF4D0
330
DF4D1
102
}
330
A
100
AcDbSymbolTableRecord
100
AcDbDimStyleTableRecord
  2
SYS$0
 70
     0
  4
"
 41
1.0
 42
1.0
 43
10.0
 44
1.0
 47
0.1
 48
0.1
 73
     0
 74
     0
 77
     1
 78
     8
 79
     2
140
3.200000000000001
141
0.0
143
0.0393701
146
0.71
147
1.5
172
     1
176
   256
177
   256
178
     2
271
     2
272
     2
283
     0
284
     8
340
11
341
A66
342
6C4
371
    -1
372
    -1
1001
ACAD_DSTYLE_DIMJOGGED_JOGANGLE_SYMBOL
1070
   384
1040
0.7853981633974483
1001
ACAD_DSTYLE_DIMARC_LENGTH_SYMBOL
1070
   379
1070
     1
  0
DIMSTYLE
105
124EE
330
A
100
AcDbSymbolTableRecord
100
AcDbDimStyleTableRecord
  2
SYSORG0P5$0
 70
     0
  4
"
 41
1.0
 42
1.0
 43
10.0
 44
1.0
 47
0.1
 48
0.1
 73
     0
 74
     0
 77
     1
 78
     8
 79
     2
140
3.200000000000001
141
0.0
143
0.0393701
144
0.5
146
0.71
147
1.5
172
     1
176
   256
177
   256
178
     2
271
     2
272
     2
283
     0
284
     8
340
11
341
A66
342
6C4
371
    -1
372
    -1
  0
DIMSTYLE
105
124EF
330
A
100
AcDbSymbolTableRecord
100
AcDbDimStyleTableRecord
  2
SYSORG4358P72$4
 70
     0
  4
"
 41
2.0
 42
1.0
 43
10.0
 44
1.0
 47
0.1
 48
0.1
 73
     0
 77
     1
 78
     8
 79
     2
140
3.5
141
0.0
143
0.0393701
144
4358.720568330721
146
0.71
147
1.5
173
     1
176
   256
177
   256
178
     2
271
     2
272
     2
283
     0
284
     8
288
     1
340
11
344
A66
371
    -1
372
    -1
  0
DIMSTYLE
105
124F0
330
A
100
AcDbSymbolTableRecord
100
AcDbDimStyleTableRecord
  2
SYSORG297890P91$4
 70
     0
  4
"
 41
2.0
 42
1.0
 43
10.0
 44
1.0
 47
0.1
 48
0.1
 73
     0
 77
     1
 78
     8
 79
     2
140
3.5
141
0.0
143
0.0393701
144
297890.9090687243
146
0.71
147
1.5
173
     1
176
   256
177
   256
178
     2
271
     2
272
     2
283
     0
284
     8
288
     1
340
11
344
A66
371
    -1
372
    -1
  0
DIMSTYLE
105
1D546
330
A
100
AcDbSymbolTableRecord
100
AcDbDimStyleTableRecord
  2
Standard
 70
     0
340
11
  0
DIMSTYLE
105
C49A6
330
A
100
AcDbSymbolTableRecord
100
AcDbDimStyleTableRecord
  2
NAx2
 70
     0
 41
2.5
 42
1.0
 43
10.0
 44
1.0
 73
     0
 74
     0
 77
     1
 78
     8
 79
     2
140
3.200000000000001
141
0.0
143
0.0393701
144
0.5
147
0.9999999999999996
172
     1
176
     3
177
     3
178
   256
271
     3
272
     3
284
     8
340
11
371
    13
372
    13
  0
DIMSTYLE
105
C7D2A
330
A
100
AcDbSymbolTableRecord
100
AcDbDimStyleTableRecord
  2
SYS 中
 70
     0
  4
"
 41
1.0
 42
1.0
 43
7.0
 44
1.0
 47
0.1
 48
0.1
 73
     0
 74
     0
 77
     1
 78
     8
 79
     2
140
3.0
141
0.0
143
0.0393701
146
0.71
147
0.4999999999999992
172
     1
176
   256
177
   256
178
     2
271
     2
272
     2
283
     0
284
     8
340
11
341
A66
342
6C4
371
    -1
372
    -1
  0
DIMSTYLE
105
D3543
330
A
100
AcDbSymbolTableRecord
100
AcDbDimStyleTableRecord
  2
ISO-25
 70
     0
 41
2.5
 42
0.625
 43
3.75
 44
1.25
 45
0.01
 73
     0
 74
     0
 77
     1
 78
     8
140
2.5
141
2.5
143
0.03937007874016
147
0.625
171
     3
172
     1
271
     2
272
     2
274
     3
278
    44
283
     0
284
     8
340
11
  0
DIMSTYLE
105
D3544
330
A
100
AcDbSymbolTableRecord
100
AcDbDimStyleTableRecord
  2
原寸
 70
     0
 41
2.5
 42
1.0
 43
10.0
 44
0.7
 73
     0
 74
     0
 77
     3
 78
     8
 79
     2
140
3.5
141
0.0
147
1.0
172
     1
179
     1
271
     2
272
     2
340
D3542
341
A66
342
A66
  0
ENDTAB
  0
TABLE
  2
BLOCK_RECORD
  5
1
330
0
100
AcDbSymbolTable
 70
   308
  0
BLOCK_RECORD
  5
1F
102
{ACAD_XDICTIONARY
360
8A
102
}
330
1
100
AcDbSymbolTableRecord
100
AcDbBlockTableRecord
  2
*Model_Space
340
22
  0
BLOCK_RECORD
  5
1B
330
1
100
AcDbSymbolTableRecord
100
AcDbBlockTableRecord
  2
*Paper_Space
340
1E
  0
BLOCK_RECORD
  5
23
330
1
100
AcDbSymbolTableRecord
100
AcDbBlockTableRecord
  2
*Paper_Space0
340
26
  0
BLOCK_RECORD
  5
72
330
1
100
AcDbSymbolTableRecord
100
AcDbBlockTableRecord
  2
GENAXEH
340
0
  0
BLOCK_RECORD
  5
6C4
330
1
100
AcDbSymbolTableRecord
100
AcDbBlockTableRecord
  2
_Dot
340
0
  0
BLOCK_RECORD
  5
A66
330
1
100
AcDbSymbolTableRecord
100
AcDbBlockTableRecord
  2
_OPEN30
340
0
  0
BLOCK_RECORD
  5
DE0DA
330
1
100
AcDbSymbolTableRecord
100
AcDbBlockTableRecord
  2
*D235
340
0
  0
BLOCK_RECORD
  5
DE0FE
330
1
100
AcDbSymbolTableRecord
100
AcDbBlockTableRecord
  2
*D236
340
0
  0
BLOCK_RECORD
  5
DF684
330
1
100
AcDbSymbolTableRecord
100
AcDbBlockTableRecord
  2
*D247
340
0
  0
BLOCK_RECORD
  5
DF690
330
1
100
AcDbSymbolTableRecord
100
AcDbBlockTableRecord
  2
*D248
340
0
  0
BLOCK_RECORD
  5
DF69C
330
1
100
AcDbSymbolTableRecord
100
AcDbBlockTableRecord
  2
*D249
340
0
  0
ENDTAB
  0
ENDSEC
  0
SECTION
  2
BLOCKS
  0
BLOCK
  5
20
330
1F
100
AcDbEntity
  8
0
100
AcDbBlockBegin
  2
*Model_Space
 70
     0
 10
0.0
 20
0.0
 30
0.0
  3
*Model_Space
  1

  0
ENDBLK
  5
21
330
1F
100
AcDbEntity
  8
0
100
AcDbBlockEnd
  0
BLOCK
  5
1C
330
1B
100
AcDbEntity
 67
     1
  8
0
100
AcDbBlockBegin
  2
*Paper_Space
 70
     0
 10
0.0
 20
0.0
 30
0.0
  3
*Paper_Space
  1

  0
ENDBLK
  5
1D
330
1B
100
AcDbEntity
 67
     1
  8
0
100
AcDbBlockEnd
  0
BLOCK
  5
24
330
23
100
AcDbEntity
 67
     1
  8
0
100
AcDbBlockBegin
  2
*Paper_Space0
 70
     0
 10
0.0
 20
0.0
 30
0.0
  3
*Paper_Space0
  1

  0
ENDBLK
  5
25
330
23
100
AcDbEntity
 67
     1
  8
0
100
AcDbBlockEnd
  0
BLOCK
  5
E4455
330
72
100
AcDbEntity
  8
0
100
AcDbBlockBegin
  2
GENAXEH
 70
     0
 10
0.0
 20
0.0
 30
0.0
  3
GENAXEH
  1

  0
LINE
  5
E4456
330
72
100
AcDbEntity
  8
0
100
AcDbLine
 10
-1.0
 20
0.0
 30
0.0
 11
1.0
 21
0.0
 31
0.0
  0
ENDBLK
  5
E4457
330
72
100
AcDbEntity
  8
0
100
AcDbBlockEnd
  0
BLOCK
  5
E4449
330
6C4
100
AcDbEntity
  8
0
100
AcDbBlockBegin
  2
_Dot
 70
     0
 10
0.0
 20
0.0
 30
0.0
  3
_Dot
  1

  0
LWPOLYLINE
  5
E444A
330
6C4
100
AcDbEntity
  8
0
  6
ByBlock
 62
     0
100
AcDbPolyline
 90
        2
 70
     1
 43
0.5
 10
-0.25
 20
0.0
 42
1.0
 10
0.25
 20
0.0
 42
1.0
  0
LINE
  5
E444B
330
6C4
100
AcDbEntity
  8
0
  6
ByBlock
 62
     0
370
    -2
100
AcDbLine
 10
-0.5
 20
0.0
 30
0.0
 11
-1.0
 21
0.0
 31
0.0
  0
ENDBLK
  5
E444C
330
6C4
100
AcDbEntity
  8
0
100
AcDbBlockEnd
  0
BLOCK
  5
E4443
330
A66
100
AcDbEntity
  8
0
100
AcDbBlockBegin
  2
_OPEN30
 70
     0
 10
0.0
 20
0.0
 30
0.0
  3
_OPEN30
  1

  0
LINE
  5
E4444
330
A66
100
AcDbEntity
  8
0
  6
ByBlock
 62
     0
100
AcDbLine
 10
-1.0
 20
0.26794919
 30
0.0
 11
0.0
 21
0.0
 31
0.0
  0
LINE
  5
E4445
330
A66
100
AcDbEntity
  8
0
  6
ByBlock
 62
     0
100
AcDbLine
 10
0.0
 20
0.0
 30
0.0
 11
-1.0
 21
-0.26794919
 31
0.0
  0
LINE
  5
E4446
330
A66
100
AcDbEntity
  8
0
  6
ByBlock
 62
     0
100
AcDbLine
 10
0.0
 20
0.0
 30
0.0
 11
-1.0
 21
0.0
 31
0.0
  0
ENDBLK
  5
E4447
330
A66
100
AcDbEntity
  8
0
100
AcDbBlockEnd
  0
BLOCK
  5
DE0E4
330
DE0DA
100
AcDbEntity
  8
0
 48
0.3
100
AcDbBlockBegin
  2
*D235
 70
     1
 10
0.0
 20
0.0
 30
0.0
  3
*D235
  1

  0
LINE
  5
DE17F
330
DE0DA
100
AcDbEntity
  8
AM_5
 48
1.01
100
AcDbLine
 10
3595.988698726627
 20
-331.914371195636
 30
0.0
 11
3588.488698726627
 21
-331.914371195636
 31
0.0
  0
LINE
  5
DE180
330
DE0DA
100
AcDbEntity
  8
AM_5
 48
1.01
100
AcDbLine
 10
3595.988698726627
 20
-283.9143711956355
 30
0.0
 11
3588.488698726627
 21
-283.9143711956355
 31
0.0
  0
LINE
  5
DE181
330
DE0DA
100
AcDbEntity
  8
AM_5
 48
1.01
100
AcDbLine
 10
3589.488698726626
 20
-330.914371195636
 30
0.0
 11
3589.488698726626
 21
-284.9143711956355
 31
0.0
  0
INSERT
  5
DE182
330
DE0DA
100
AcDbEntity
  8
AM_5
 48
1.01
100
AcDbBlockReference
  2
_Dot
 10
3589.488698726626
 20
-331.914371195636
 30
0.0
 50
270.0
  0
INSERT
  5
DE183
330
DE0DA
100
AcDbEntity
  8
AM_5
 48
1.01
100
AcDbBlockReference
  2
_Dot
 10
3589.488698726626
 20
-283.9143711956355
 30
0.0
 50
90.0
  0
MTEXT
  5
DE184
330
DE0DA
100
AcDbEntity
  8
AM_5
 62
     2
 48
1.01
100
AcDbMText
 10
3586.388698726626
 20
-307.9143711956355
 30
0.0
 40
3.2
 41
0.0
 71
     5
 72
     1
  1
{\Famgdt;o}48
 11
0.0000000000000001
 21
1.0
 31
0.0
 73
     1
 44
1.0
  0
POINT
  5
DE185
330
DE0DA
100
AcDbEntity
  8
Defpoints
 62
     0
 48
1.01
100
AcDbPoint
 10
3597.488698726627
 20
-331.914371195636
 30
0.0
  0
POINT
  5
DE186
330
DE0DA
100
AcDbEntity
  8
Defpoints
 62
     0
 48
1.01
100
AcDbPoint
 10
3597.488698726627
 20
-283.9143711956355
 30
0.0
  0
POINT
  5
DE187
330
DE0DA
100
AcDbEntity
  8
Defpoints
 62
     0
 48
1.01
100
AcDbPoint
 10
3589.488698726626
 20
-283.9143711956355
 30
0.0
  0
ENDBLK
  5
DE0E5
330
DE0DA
100
AcDbEntity
  8
0
 48
0.3
100
AcDbBlockEnd
  0
BLOCK
  5
DE108
330
DE0FE
100
AcDbEntity
  8
0
 48
0.3
100
AcDbBlockBegin
  2
*D236
 70
     1
 10
0.0
 20
0.0
 30
0.0
  3
*D236
  1

  0
LINE
  5
DE19A
330
DE0FE
100
AcDbEntity
  8
AM_5
100
AcDbLine
 10
3596.488698726626
 20
-181.5932055372842
 30
0.0
 11
3588.988698726627
 21
-181.5932055372842
 31
0.0
  0
LINE
  5
DE19B
330
DE0FE
100
AcDbEntity
  8
AM_5
100
AcDbLine
 10
3596.488698726626
 20
-189.5932055372839
 30
0.0
 11
3588.988698726627
 21
-189.5932055372839
 31
0.0
  0
LINE
  5
DE19C
330
DE0FE
100
AcDbEntity
  8
AM_5
100
AcDbLine
 10
3589.988698726627
 20
-182.5932055372842
 30
0.0
 11
3589.988698726627
 21
-188.5932055372839
 31
0.0
  0
INSERT
  5
DE19D
330
DE0FE
100
AcDbEntity
  8
AM_5
100
AcDbBlockReference
  2
_Dot
 10
3589.988698726627
 20
-181.5932055372842
 30
0.0
 50
90.0
  0
INSERT
  5
DE19E
330
DE0FE
100
AcDbEntity
  8
AM_5
100
AcDbBlockReference
  2
_Dot
 10
3589.988698726627
 20
-189.5932055372839
 30
0.0
 50
270.0
  0
MTEXT
  5
DE19F
330
DE0FE
100
AcDbEntity
  8
AM_5
 62
     2
100
AcDbMText
 10
3587.388698726627
 20
-185.5932055372835
 30
0.0
 40
3.2
 41
0.0
 71
     5
 72
     1
  1
8
 11
0.0000000000000001
 21
1.0
 31
0.0
 73
     1
 44
1.0
  0
POINT
  5
DE1A0
330
DE0FE
100
AcDbEntity
  8
Defpoints
 62
     0
100
AcDbPoint
 10
3597.988698726626
 20
-181.5932055372842
 30
0.0
  0
POINT
  5
DE1A1
330
DE0FE
100
AcDbEntity
  8
Defpoints
 62
     0
100
AcDbPoint
 10
3597.988698726626
 20
-189.5932055372839
 30
0.0
  0
POINT
  5
DE1A2
330
DE0FE
100
AcDbEntity
  8
Defpoints
 62
     0
100
AcDbPoint
 10
3589.988698726627
 20
-189.5932055372839
 30
0.0
  0
ENDBLK
  5
DE109
330
DE0FE
100
AcDbEntity
  8
0
 48
0.3
100
AcDbBlockEnd
  0
BLOCK
  5
DF68E
330
DF684
100
AcDbEntity
  8
0
 48
0.3
100
AcDbBlockBegin
  2
*D247
 70
     1
 10
0.0
 20
0.0
 30
0.0
  3
*D247
  1

  0
LINE
  5
DF6A8
330
DF684
100
AcDbEntity
  8
AM_5
100
AcDbLine
 10
3730.633361939253
 20
-246.1691288364866
 30
0.0
 11
3743.093544330233
 21
-246.1691288364866
 31
0.0
  0
LINE
  5
DF6A9
330
DF684
100
AcDbEntity
  8
AM_5
100
AcDbLine
 10
3731.277422640182
 20
-219.3442826045492
 30
0.0
 11
3743.093544330233
 21
-219.3442826045492
 31
0.0
  0
LINE
  5
DF6AA
330
DF684
100
AcDbEntity
  8
AM_5
100
AcDbLine
 10
3742.093544330233
 20
-245.1691288364866
 30
0.0
 11
3742.093544330233
 21
-220.3442826045492
 31
0.0
  0
INSERT
  5
DF6AB
330
DF684
100
AcDbEntity
  8
AM_5
100
AcDbBlockReference
  2
_Dot
 10
3742.093544330233
 20
-246.1691288364866
 30
0.0
 41
1.0
 42
1.0
 43
1.0
 50
270.0
  0
INSERT
  5
DF6AC
330
DF684
100
AcDbEntity
  8
AM_5
100
AcDbBlockReference
  2
_Dot
 10
3742.093544330233
 20
-219.3442826045492
 30
0.0
 41
1.0
 42
1.0
 43
1.0
 50
90.0
  0
MTEXT
  5
DF6AD
330
DF684
100
AcDbEntity
  8
AM_5
 62
     2
100
AcDbMText
 10
3738.993544330234
 20
-232.7567057205173
 30
0.0
 40
3.2
 41
0.0
 71
     5
 72
     1
  1
27
 11
0.0000000000000001
 21
1.0
 31
0.0
 73
     1
 44
1.0
  0
POINT
  5
DF6AE
330
DF684
100
AcDbEntity
  8
Defpoints
 62
     0
100
AcDbPoint
 10
3729.133361939253
 20
-246.1691288364866
 30
0.0
  0
POINT
  5
DF6AF
330
DF684
100
AcDbEntity
  8
Defpoints
 62
     0
100
AcDbPoint
 10
3729.777422640182
 20
-219.3442826045492
 30
0.0
  0
POINT
  5
DF6B0
330
DF684
100
AcDbEntity
  8
Defpoints
 62
     0
100
AcDbPoint
 10
3742.093544330233
 20
-219.3442826045492
 30
0.0
  0
ENDBLK
  5
DF68F
330
DF684
100
AcDbEntity
  8
0
 48
0.3
100
AcDbBlockEnd
  0
BLOCK
  5
DF69A
330
DF690
100
AcDbEntity
  8
0
 48
0.3
100
AcDbBlockBegin
  2
*D248
 70
     1
 10
0.0
 20
0.0
 30
0.0
  3
*D248
  1

  0
LINE
  5
DF9FF
330
DF690
100
AcDbEntity
  8
AM_5
100
AcDbLine
 10
3730.633361939253
 20
-246.1691288364866
 30
0.0
 11
3751.093544330234
 21
-246.1691288364866
 31
0.0
  0
LINE
  5
DFA00
330
DF690
100
AcDbEntity
  8
AM_5
100
AcDbLine
 10
3646.988698726627
 20
-181.5932055372813
 30
0.0
 11
3751.093544330234
 21
-181.5932055372813
 31
0.0
  0
LINE
  5
DFA01
330
DF690
100
AcDbEntity
  8
AM_5
100
AcDbLine
 10
3750.093544330233
 20
-245.1691288364866
 30
0.0
 11
3750.093544330233
 21
-182.5932055372813
 31
0.0
  0
INSERT
  5
DFA02
330
DF690
100
AcDbEntity
  8
AM_5
100
AcDbBlockReference
  2
_Dot
 10
3750.093544330233
 20
-246.1691288364866
 30
0.0
 41
1.0
 42
1.0
 43
1.0
 50
270.0
  0
INSERT
  5
DFA03
330
DF690
100
AcDbEntity
  8
AM_5
100
AcDbBlockReference
  2
_Dot
 10
3750.093544330233
 20
-181.5932055372813
 30
0.0
 41
1.0
 42
1.0
 43
1.0
 50
90.0
  0
MTEXT
  5
DFA04
330
DF690
100
AcDbEntity
  8
AM_5
 62
     2
100
AcDbMText
 10
3746.993544330234
 20
-213.8811671868834
 30
0.0
 40
3.2
 41
0.0
 71
     5
 72
     1
  1
65
 11
0.0000000000000001
 21
1.0
 31
0.0
 73
     1
 44
1.0
  0
POINT
  5
DFA05
330
DF690
100
AcDbEntity
  8
Defpoints
 62
     0
100
AcDbPoint
 10
3729.133361939253
 20
-246.1691288364866
 30
0.0
  0
POINT
  5
DFA06
330
DF690
100
AcDbEntity
  8
Defpoints
 62
     0
100
AcDbPoint
 10
3645.488698726627
 20
-181.5932055372813
 30
0.0
  0
POINT
  5
DFA07
330
DF690
100
AcDbEntity
  8
Defpoints
 62
     0
100
AcDbPoint
 10
3750.093544330233
 20
-181.5932055372813
 30
0.0
  0
ENDBLK
  5
DF69B
330
DF690
100
AcDbEntity
  8
0
 48
0.3
100
AcDbBlockEnd
  0
BLOCK
  5
DF6A6
330
DF69C
100
AcDbEntity
  8
0
 48
0.3
100
AcDbBlockBegin
  2
*D249
 70
     1
 10
0.0
 20
0.0
 30
0.0
  3
*D249
  1

  0
LINE
  5
DFA38
330
DF69C
100
AcDbEntity
  8
AM_5
100
AcDbLine
 10
3621.488698726627
 20
-250.0932055372825
 30
0.0
 11
3621.488698726627
 21
-257.5932055372819
 31
0.0
  0
LINE
  5
DFA39
330
DF69C
100
AcDbEntity
  8
AM_5
100
AcDbLine
 10
3733.093544330233
 20
-243.4546500001997
 30
0.0
 11
3733.093544330233
 21
-257.5932055372819
 31
0.0
  0
LINE
  5
DFA3A
330
DF69C
100
AcDbEntity
  8
AM_5
100
AcDbLine
 10
3622.488698726627
 20
-256.5932055372819
 30
0.0
 11
3732.093544330233
 21
-256.5932055372819
 31
0.0
  0
INSERT
  5
DFA3B
330
DF69C
100
AcDbEntity
  8
AM_5
100
AcDbBlockReference
  2
_Dot
 10
3621.488698726627
 20
-256.5932055372819
 30
0.0
 41
1.0
 42
1.0
 43
1.0
 50
180.0
  0
INSERT
  5
DFA3C
330
DF69C
100
AcDbEntity
  8
AM_5
100
AcDbBlockReference
  2
_Dot
 10
3733.093544330233
 20
-256.5932055372819
 30
0.0
 41
1.0
 42
1.0
 43
1.0
  0
MTEXT
  5
DFA3D
330
DF69C
100
AcDbEntity
  8
AM_5
 62
     2
100
AcDbMText
 10
3677.29112152843
 20
-253.4932055372819
 30
0.0
 40
3.2
 41
0.0
 71
     5
 72
     1
  1
112
 73
     1
 44
1.0
  0
POINT
  5
DFA3E
330
DF69C
100
AcDbEntity
  8
Defpoints
 62
     0
100
AcDbPoint
 10
3621.488698726627
 20
-248.5932055372825
 30
0.0
  0
POINT
  5
DFA3F
330
DF69C
100
AcDbEntity
  8
Defpoints
 62
     0
100
AcDbPoint
 10
3733.093544330233
 20
-241.9546500001997
 30
0.0
  0
POINT
  5
DFA40
330
DF69C
100
AcDbEntity
  8
Defpoints
 62
     0
100
AcDbPoint
 10
3733.093544330233
 20
-256.5932055372819
 30
0.0
  0
ENDBLK
  5
DF6A7
330
DF69C
100
AcDbEntity
  8
0
 48
0.3
100
AcDbBlockEnd
  0
ENDSEC
  0
SECTION
  2
ENTITIES
  0
AMDTACMWBLOCKBOMENTITY
  5
1167A
330
1F
100
AcDbEntity
  8
AM_6
 48
1.01
 92
        8
310
0800000000000000
  0
AMDTACMWBLOCKBOMENTITY
  5
12884
330
1F
100
AcDbEntity
  8
AM_6
 48
1.01
 92
        8
310
0800000000000000
  0
AMDTACMWBLOCKBOMENTITY
  5
131CF
330
1F
100
AcDbEntity
  8
AM_6
 48
1.01
 92
        8
310
0800000000000000
  0
ARC
  5
1976C
330
1F
100
AcDbEntity
  8
カム-AM_0
 48
0.5
 60
     1
100
AcDbCircle
 10
1073.836906068311
 20
96.73112248225136
 30
0.0
 40
1.0
100
AcDbArc
 50
157.9999999999991
 51
270.0
  0
ARC
  5
2AFFE
330
1F
100
AcDbEntity
  8
フロントプレート-AM_0
 48
0.5
 60
     1
100
AcDbCircle
 10
2940.140904158748
 20
-685.3979332481855
 30
0.0
 40
0.5
100
AcDbArc
 50
180.0000000000133
 51
269.9999999999799
  0
ARC
  5
2B000
330
1F
100
AcDbEntity
  8
フロントプレート-AM_0
 48
0.5
 60
     1
100
AcDbCircle
 10
2940.140904158746
 20
-693.6979332481854
 30
0.0
 40
0.5
100
AcDbArc
 50
90.0
 51
180.0
  0
ARC
  5
2B003
330
1F
100
AcDbEntity
  8
フロントプレート-AM_0
 48
0.5
 60
     1
100
AcDbCircle
 10
2940.140904158747
 20
-800.4479332481846
 30
0.0
 40
0.5
100
AcDbArc
 50
180.0000000000002
 51
270.000000000005
  0
ARC
  5
2B006
330
1F
100
AcDbEntity
  8
フロントプレート-AM_0
 48
0.5
 60
     1
100
AcDbCircle
 10
2940.140904158747
 20
-808.6479332481845
 30
0.0
 40
0.5
100
AcDbArc
 50
89.99999999999495
 51
180.0
  0
ARC
  5
35DDA
330
1F
100
AcDbEntity
  8
フロントプレート-AM_0
 48
0.7121444702145028
 60
     1
100
AcDbCircle
 10
3415.425665362851
 20
-491.1707550332581
 30
0.0
 40
5.0
100
AcDbArc
 50
89.9999999999992
 51
180.0
  0
ARC
  5
36164
330
1F
100
AcDbEntity
  8
フロントプレート-AM_0
 48
0.7121444702145028
 60
     1
100
AcDbCircle
 10
3415.425665362851
 20
-491.170739774473
 30
0.0
 40
5.0
100
AcDbArc
 50
90.00000000000039
 51
180.0
  0
ARC
  5
50290
330
1F
100
AcDbEntity
  8
フロントプレート-AM_0
 48
0.5
 60
     1
100
AcDbCircle
 10
3936.083075161434
 20
681.4307367305923
 30
0.0
 40
0.5
100
AcDbArc
 50
89.99999999999349
 51
180.0
  0
ARC
  5
50291
330
1F
100
AcDbEntity
  8
フロントプレート-AM_0
 48
0.5
 60
     1
100
AcDbCircle
 10
3936.083075161434
 20
796.3807367305912
 30
0.0
 40
0.5
100
AcDbArc
 50
90.0
 51
180.0
  0
ARC
  5
50294
330
1F
100
AcDbEntity
  8
フロントプレート-AM_0
 48
0.5
 60
     1
100
AcDbCircle
 10
3936.083075161435
 20
804.6807367305914
 30
0.0
 40
0.5
100
AcDbArc
 50
180.000000000013
 51
269.9999999999804
  0
ARC
  5
5029B
330
1F
100
AcDbEntity
  8
フロントプレート-AM_0
 48
0.5
 60
     1
100
AcDbCircle
 10
3936.083075161434
 20
689.6307367305921
 30
0.0
 40
0.5
100
AcDbArc
 50
180.0
 51
270.0000000000065
  0
ARC
  5
5808A
330
1F
100
AcDbEntity
  8
ケースＡ-AM_0
 48
0.3
 60
     1
100
AcDbCircle
 10
4320.746772469524
 20
642.5577614920783
 30
0.0
 40
3.0
100
AcDbArc
 50
136.7962532773522
 51
180.0000000000016
  0
TEXT
  5
70A13
330
1F
100
AcDbEntity
  8
AM_5
 62
     2
100
AcDbText
 10
1801.531019682132
 20
-912.4221029912536
 30
0.0
 40
1.6
  1

 41
0.7
100
AcDbText
  0
TEXT
  5
70A2E
330
1F
100
AcDbEntity
  8
AM_5
 62
     2
100
AcDbText
 10
1866.861680245279
 20
-839.8698037460585
 30
0.0
 40
1.6
  1

 50
90.0
 41
0.7
100
AcDbText
  0
TEXT
  5
70A5D
330
1F
100
AcDbEntity
  8
AM_5
 62
     2
100
AcDbText
 10
1638.052106495164
 20
-912.4220953618591
 30
0.0
 40
1.6
  1

 41
0.7
100
AcDbText
  0
TEXT
  5
70A73
330
1F
100
AcDbEntity
  8
AM_5
 62
     2
100
AcDbText
 10
1703.38276705831
 20
-839.8697961166638
 30
0.0
 40
1.6
  1

 50
90.0
 41
0.7
100
AcDbText
  0
ARC
  5
70F6D
330
1F
100
AcDbEntity
  8
スライド樹脂-AM_0
 48
0.5
 60
     1
100
AcDbCircle
 10
3232.621748902584
 20
-809.5320471450429
 30
0.0
 40
0.5
100
AcDbArc
 50
317.4804366013805
 51
30.99999999999924
  0
ARC
  5
72FDC
330
1F
100
AcDbEntity
  8
ケースＡ-AM_0
 60
     1
100
AcDbCircle
 10
2057.770958611584
 20
569.5785352150007
 30
0.0
 40
0.5
100
AcDbArc
 50
180.0000000000032
 51
270.0
  0
ARC
  5
72FDE
330
1F
100
AcDbEntity
  8
ケースＡ-AM_0
 60
     1
100
AcDbCircle
 10
2057.770958611584
 20
577.6785352150007
 30
0.0
 40
0.5
100
AcDbArc
 50
90.0
 51
180.0
  0
ARC
  5
7E287
330
1F
100
AcDbEntity
  8
ケースＡ-AM_0
 48
0.5
 60
     1
100
AcDbCircle
 10
2036.67073717051
 20
346.1529214792957
 30
0.0
 40
1.199999999999999
100
AcDbArc
 50
359.9999999999895
 51
90.00000000000161
  0
ARC
  5
7E28D
330
1F
100
AcDbEntity
  8
ケースＡ-AM_0
 48
0.5
 60
     1
100
AcDbCircle
 10
2024.670716005687
 20
346.1529214792954
 30
0.0
 40
1.199999999999999
100
AcDbArc
 50
90.00000000000161
 51
180.0
  0
ARC
  5
7E293
330
1F
100
AcDbEntity
  8
ケースＡ-AM_0
 48
0.5
 60
     1
100
AcDbCircle
 10
2195.249915988112
 20
334.6672638729956
 30
0.0
 40
0.3
100
AcDbArc
 50
90.00000000000161
 51
180.0
  0
ARC
  5
7E295
330
1F
100
AcDbEntity
  8
ケースＡ-AM_0
 48
0.5
 60
     1
100
AcDbCircle
 10
2198.249921279316
 20
334.6672638729956
 30
0.0
 40
0.3
100
AcDbArc
 50
0.0
 51
90.00000000000161
  0
ARC
  5
7E32E
330
1F
100
AcDbEntity
  8
ケースＡ-AM_0
 60
     1
100
AcDbCircle
 10
1957.892280850891
 20
-109.9494958677978
 30
0.0
 40
1.199999999999999
100
AcDbArc
 50
90.0
 51
180.0
  0
ARC
  5
7E332
330
1F
100
AcDbEntity
  8
ケースＡ-AM_0
 48
0.5
 60
     1
100
AcDbCircle
 10
1969.892285769429
 20
-109.9494958677978
 30
0.0
 40
1.199999999999999
100
AcDbArc
 50
0.0000000000371998
 51
90.0
  0
ARC
  5
7E33C
330
1F
100
AcDbEntity
  8
ケースＡ-AM_0
 60
     1
100
AcDbCircle
 10
2059.523418190472
 20
-151.894435956738
 30
0.0
 40
0.3
100
AcDbArc
 50
90.0
 51
180.0
  0
ARC
  5
7E33E
330
1F
100
AcDbEntity
  8
ケースＡ-AM_0
 60
     1
100
AcDbCircle
 10
2062.523419420107
 20
-151.8944359567379
 30
0.0
 40
0.3
100
AcDbArc
 50
0.0000000000371998
 51
90.0
  0
ARC
  5
86336
330
1F
100
AcDbEntity
  8
ケースＡ-AM_0
 48
0.2
 60
     1
100
AcDbCircle
 10
2332.182803540283
 20
693.5457760702194
 30
0.0
 40
0.25
100
AcDbArc
 50
180.0
 51
270.0
  0
ARC
  5
86338
330
1F
100
AcDbEntity
  8
ケースＡ-AM_0
 48
0.2
 60
     1
100
AcDbCircle
 10
2332.182803540283
 20
697.5957760702193
 30
0.0
 40
0.25
100
AcDbArc
 50
90.0
 51
180.0
  0
ARC
  5
86721
330
1F
100
AcDbEntity
  8
ケースＡ-AM_0
 48
0.2
 60
     1
100
AcDbCircle
 10
2272.07165777074
 20
693.5457715755038
 30
0.0
 40
0.25
100
AcDbArc
 50
180.0
 51
270.0
  0
ARC
  5
86723
330
1F
100
AcDbEntity
  8
ケースＡ-AM_0
 48
0.2
 60
     1
100
AcDbCircle
 10
2272.07165777074
 20
697.5957715755038
 30
0.0
 40
0.25
100
AcDbArc
 50
90.0
 51
180.0
  0
ARC
  5
89362
330
1F
100
AcDbEntity
  8
ケースＡ-AM_0
 60
     1
100
AcDbCircle
 10
2164.68328238728
 20
569.5785352150007
 30
0.0
 40
0.5
100
AcDbArc
 50
180.0000000000032
 51
270.0
  0
ARC
  5
89364
330
1F
100
AcDbEntity
  8
ケースＡ-AM_0
 60
     1
100
AcDbCircle
 10
2164.68328238728
 20
577.6785352150007
 30
0.0
 40
0.5
100
AcDbArc
 50
90.0
 51
180.0
  0
ARC
  5
898FF
330
1F
100
AcDbEntity
  8
ケースＡ-AM_0
 48
0.2
 60
     1
100
AcDbCircle
 10
2764.66674689238
 20
693.5457760702193
 30
0.0
 40
0.25
100
AcDbArc
 50
180.0
 51
270.0
  0
ARC
  5
89901
330
1F
100
AcDbEntity
  8
ケースＡ-AM_0
 48
0.2
 60
     1
100
AcDbCircle
 10
2764.66674689238
 20
697.5957760702192
 30
0.0
 40
0.25
100
AcDbArc
 50
90.0
 51
180.0
  0
ARC
  5
89B43
330
1F
100
AcDbEntity
  8
ケースＡ-AM_0
 48
0.2
 60
     1
100
AcDbCircle
 10
2704.555601122836
 20
693.5457715755037
 30
0.0
 40
0.25
100
AcDbArc
 50
180.0
 51
270.0
  0
ARC
  5
89B45
330
1F
100
AcDbEntity
  8
ケースＡ-AM_0
 48
0.2
 60
     1
100
AcDbCircle
 10
2704.555601122836
 20
697.5957715755036
 30
0.0
 40
0.25
100
AcDbArc
 50
90.0
 51
180.0
  0
ARC
  5
8A011
330
1F
100
AcDbEntity
  8
ケースＡ-AM_0
 60
     1
100
AcDbCircle
 10
2490.25490604102
 20
569.5785352150007
 30
0.0
 40
0.5
100
AcDbArc
 50
180.0000000000032
 51
270.0
  0
ARC
  5
8A013
330
1F
100
AcDbEntity
  8
ケースＡ-AM_0
 60
     1
100
AcDbCircle
 10
2490.25490604102
 20
577.6785352150007
 30
0.0
 40
0.5
100
AcDbArc
 50
90.0
 51
180.0
  0
ARC
  5
8A3C3
330
1F
100
AcDbEntity
  8
ケースＡ-AM_0
 60
     1
100
AcDbCircle
 10
2597.167229816716
 20
569.5785352150007
 30
0.0
 40
0.5
100
AcDbArc
 50
180.0000000000032
 51
270.0
  0
ARC
  5
8A3C5
330
1F
100
AcDbEntity
  8
ケースＡ-AM_0
 60
     1
100
AcDbCircle
 10
2597.167229816716
 20
577.6785352150007
 30
0.0
 40
0.5
100
AcDbArc
 50
90.0
 51
180.0
  0
ARC
  5
92521
330
1F
100
AcDbEntity
  8
ケースＡ-AM_0
 48
0.2
 60
     1
100
AcDbCircle
 10
3197.150694321815
 20
693.5457760702193
 30
0.0
 40
0.25
100
AcDbArc
 50
180.0
 51
270.0
  0
ARC
  5
92523
330
1F
100
AcDbEntity
  8
ケースＡ-AM_0
 48
0.2
 60
     1
100
AcDbCircle
 10
3197.150694321815
 20
697.5957760702192
 30
0.0
 40
0.25
100
AcDbArc
 50
90.0
 51
180.0
  0
ARC
  5
92761
330
1F
100
AcDbEntity
  8
ケースＡ-AM_0
 48
0.2
 60
     1
100
AcDbCircle
 10
3137.039548552272
 20
693.5457715755037
 30
0.0
 40
0.25
100
AcDbArc
 50
180.0
 51
270.0
  0
ARC
  5
92763
330
1F
100
AcDbEntity
  8
ケースＡ-AM_0
 48
0.2
 60
     1
100
AcDbCircle
 10
3137.039548552272
 20
697.5957715755036
 30
0.0
 40
0.25
100
AcDbArc
 50
90.0
 51
180.0
  0
ARC
  5
92B80
330
1F
100
AcDbEntity
  8
ケースＡ-AM_0
 60
     1
100
AcDbCircle
 10
2922.738853470456
 20
569.5785352150007
 30
0.0
 40
0.5
100
AcDbArc
 50
180.0000000000032
 51
270.0
  0
ARC
  5
92B82
330
1F
100
AcDbEntity
  8
ケースＡ-AM_0
 60
     1
100
AcDbCircle
 10
2922.738853470456
 20
577.6785352150007
 30
0.0
 40
0.5
100
AcDbArc
 50
90.0
 51
180.0
  0
ARC
  5
92EFD
330
1F
100
AcDbEntity
  8
ケースＡ-AM_0
 60
     1
100
AcDbCircle
 10
3029.651177246152
 20
569.5785352150007
 30
0.0
 40
0.5
100
AcDbArc
 50
180.0000000000032
 51
270.0
  0
ARC
  5
92EFF
330
1F
100
AcDbEntity
  8
ケースＡ-AM_0
 60
     1
100
AcDbCircle
 10
3029.651177246152
 20
577.6785352150007
 30
0.0
 40
0.5
100
AcDbArc
 50
90.0
 51
180.0
  0
ARC
  5
94474
330
1F
100
AcDbEntity
  8
ケースＡ-AM_0
 60
     1
100
AcDbCircle
 10
3355.222800899892
 20
569.578535215001
 30
0.0
 40
0.5
100
AcDbArc
 50
180.0000000000032
 51
270.0
  0
ARC
  5
94476
330
1F
100
AcDbEntity
  8
ケースＡ-AM_0
 60
     1
100
AcDbCircle
 10
3355.222800899892
 20
577.6785352150008
 30
0.0
 40
0.5
100
AcDbArc
 50
90.0
 51
180.0
  0
ARC
  5
947CE
330
1F
100
AcDbEntity
  8
ケースＡ-AM_0
 48
0.2
 60
     1
100
AcDbCircle
 10
3629.634645828591
 20
693.5457760702196
 30
0.0
 40
0.25
100
AcDbArc
 50
180.0
 51
270.0
  0
ARC
  5
947D0
330
1F
100
AcDbEntity
  8
ケースＡ-AM_0
 48
0.2
 60
     1
100
AcDbCircle
 10
3629.634645828591
 20
697.5957760702195
 30
0.0
 40
0.25
100
AcDbArc
 50
90.0
 51
180.0
  0
ARC
  5
94A10
330
1F
100
AcDbEntity
  8
ケースＡ-AM_0
 48
0.2
 60
     1
100
AcDbCircle
 10
3569.523500059048
 20
693.5457715755041
 30
0.0
 40
0.25
100
AcDbArc
 50
180.0
 51
270.0
  0
ARC
  5
94A12
330
1F
100
AcDbEntity
  8
ケースＡ-AM_0
 48
0.2
 60
     1
100
AcDbCircle
 10
3569.523500059048
 20
697.595771575504
 30
0.0
 40
0.25
100
AcDbArc
 50
90.0
 51
180.0
  0
ARC
  5
94DA6
330
1F
100
AcDbEntity
  8
ケースＡ-AM_0
 60
     1
100
AcDbCircle
 10
3462.135124675588
 20
569.578535215001
 30
0.0
 40
0.5
100
AcDbArc
 50
180.0000000000032
 51
270.0
  0
ARC
  5
94DA8
330
1F
100
AcDbEntity
  8
ケースＡ-AM_0
 60
     1
100
AcDbCircle
 10
3462.135124675588
 20
577.6785352150008
 30
0.0
 40
0.5
100
AcDbArc
 50
90.0
 51
180.0
  0
AMDTACMWBLOCKBOMENTITY
  5
C1EB6
330
1F
100
AcDbEntity
  8
ラッチボルト-AM_5
 48
0.5
 92
        8
310
0800000000000000
  0
AMDTACMWBLOCKBOMENTITY
  5
C1EB7
330
1F
100
AcDbEntity
  8
フロントプレート-AM_5
 48
0.1
 92
        8
310
0800000000000000
  0
AMDTACMWBLOCKBOMENTITY
  5
C1EB8
330
1F
100
AcDbEntity
  8
フロントプレート-AM_5
 48
0.1
 92
        8
310
0800000000000000
  0
AMDTACMWBLOCKBOMENTITY
  5
C1EB9
330
1F
100
AcDbEntity
  8
フロントプレート-AM_5
 48
0.1
 92
        8
310
0800000000000000
  0
AMDTACMWBLOCKBOMENTITY
  5
C1EBA
330
1F
100
AcDbEntity
  8
フロントプレート-AM_5
 48
0.1
 92
        8
310
0800000000000000
  0
AMDTACMWBLOCKBOMENTITY
  5
C1EBB
330
1F
100
AcDbEntity
  8
フロントプレート-AM_5
 48
0.1
 92
        8
310
0800000000000000
  0
AMDTACMWBLOCKBOMENTITY
  5
C1EBC
330
1F
100
AcDbEntity
  8
フロントプレート-AM_5
 48
0.1
 92
        8
310
0800000000000000
  0
AMDTACMWBLOCKBOMENTITY
  5
C1EBD
330
1F
100
AcDbEntity
  8
フロントプレート-AM_5
 48
0.1
 92
        8
310
0800000000000000
  0
AMDTACMWBLOCKBOMENTITY
  5
C1EBE
330
1F
100
AcDbEntity
  8
フロントプレート-AM_5
 48
0.1
 92
        8
310
0800000000000000
  0
AMDTACMWBLOCKBOMENTITY
  5
C1EBF
330
1F
100
AcDbEntity
  8
フロントプレート-AM_5
 48
0.1
 92
        8
310
0800000000000000
  0
AMDTACMWBLOCKBOMENTITY
  5
C1EC0
330
1F
100
AcDbEntity
  8
フロントプレート-AM_5
 48
0.1
 92
        8
310
0800000000000000
  0
AMDTACMWBLOCKBOMENTITY
  5
C1EC1
330
1F
100
AcDbEntity
  8
フロントプレート-AM_5
 48
0.1
 92
        8
310
0800000000000000
  0
AMDTACMWBLOCKBOMENTITY
  5
C1EC2
330
1F
100
AcDbEntity
  8
フロントプレート-AM_5
 48
0.1
 92
        8
310
0800000000000000
  0
AMDTACMWBLOCKBOMENTITY
  5
C1EC3
330
1F
100
AcDbEntity
  8
フロントプレート-AM_5
 48
0.1
 92
        8
310
0800000000000000
  0
AMDTACMWBLOCKBOMENTITY
  5
C1EC4
330
1F
100
AcDbEntity
  8
フロントプレート-AM_5
 48
0.1
 92
        8
310
0800000000000000
  0
MTEXT
  5
CD592
330
1F
100
AcDbEntity
  8
AM_5
 62
     2
100
AcDbMText
 10
1781.104515508141
 20
-23.09974854420707
 30
0.0
 40
3.2
 41
0.0
 71
     9
 72
     5
  1

 73
     1
 44
1.0
  0
MTEXT
  5
CD597
330
1F
100
AcDbEntity
  8
AM_5
 62
     2
100
AcDbMText
 10
1787.504515508142
 20
-23.09974854420707
 30
0.0
 40
3.2
 41
0.0
 71
     7
 72
     5
  1

 73
     1
 44
1.0
  0
LINE
  5
DDFA9
330
1F
100
AcDbEntity
  8
AM_0
100
AcDbLine
 10
3597.488698726627
 20
-284.7143711956356
 30
0.0
 11
3597.488698726627
 21
-331.1143711956355
 31
0.0
  0
ARC
  5
DDFAA
330
1F
100
AcDbEntity
  8
AM_0
 48
0.3
100
AcDbCircle
 10
3598.288698726627
 20
-284.7143711956356
 30
0.0
 40
0.8
100
AcDbArc
 50
90.0
 51
180.0
1001
GENIUS_GENODEF_13
1002
{
1000
HIER
1070
     0
1002
}
1002
{
1000
MANEDIT
1070
     0
1002
}
1002
{
1000
NOSEL
1070
     0
1002
}
1002
{
1000
BEHIND
1070
     0
1002
}
1002
{
1000
OTHER
1070
     0
1002
}
1002
{
1000
REACTOR
1002
}
1001
GENIUS_GENOBJ-N-FIL_13
1002
{
1000
OWNER
1000
GEN
1002
}
  0
LINE
  5
DDFAB
330
1F
100
AcDbEntity
  8
AM_0
100
AcDbLine
 10
3644.688698726628
 20
-283.9143711956354
 30
0.0
 11
3598.288698726627
 21
-283.9143711956354
 31
0.0
  0
ARC
  5
DDFAC
330
1F
100
AcDbEntity
  8
AM_0
100
AcDbCircle
 10
3644.688698726628
 20
-284.7143711956353
 30
0.0
 40
0.8
100
AcDbArc
 50
0.0
 51
90.0
1001
GENIUS_GENOBJ-N-FIL_13
1002
{
1000
OWNER
1000
GEN
1002
}
1001
GENIUS_GENODEF_13
1002
{
1000
HIER
1070
     0
1002
}
1002
{
1000
MANEDIT
1070
     0
1002
}
1002
{
1000
NOSEL
1070
     0
1002
}
1002
{
1000
BEHIND
1070
     0
1002
}
1002
{
1000
OTHER
1070
     0
1002
}
1002
{
1000
REACTOR
1002
}
  0
LINE
  5
DDFAD
330
1F
100
AcDbEntity
  8
AM_0
100
AcDbLine
 10
3598.288698726627
 20
-331.9143711956354
 30
0.0
 11
3644.688698726628
 21
-331.9143711956354
 31
0.0
  0
ARC
  5
DDFAE
330
1F
100
AcDbEntity
  8
AM_0
100
AcDbCircle
 10
3644.688698726628
 20
-331.1143711956355
 30
0.0
 40
0.8
100
AcDbArc
 50
270.0
 51
0.0
1001
GENIUS_GENODEF_13
1002
{
1000
HIER
1070
     0
1002
}
1002
{
1000
MANEDIT
1070
     0
1002
}
1002
{
1000
NOSEL
1070
     0
1002
}
1002
{
1000
BEHIND
1070
     0
1002
}
1002
{
1000
OTHER
1070
     0
1002
}
1002
{
1000
REACTOR
1002
}
1001
GENIUS_GENOBJ-N-FIL_13
1002
{
1000
OWNER
1000
GEN
1002
}
  0
ARC
  5
DDFAF
330
1F
100
AcDbEntity
  8
AM_0
 48
0.3
100
AcDbCircle
 10
3598.288698726627
 20
-331.1143711956355
 30
0.0
 40
0.8
100
AcDbArc
 50
180.0
 51
270.0
1001
GENIUS_GENOBJ-N-FIL_13
1002
{
1000
OWNER
1000
GEN
1002
}
1001
GENIUS_GENODEF_13
1002
{
1000
HIER
1070
     0
1002
}
1002
{
1000
MANEDIT
1070
     0
1002
}
1002
{
1000
NOSEL
1070
     0
1002
}
1002
{
1000
BEHIND
1070
     0
1002
}
1002
{
1000
OTHER
1070
     0
1002
}
1002
{
1000
REACTOR
1002
}
  0
LINE
  5
DDFB0
330
1F
100
AcDbEntity
  8
AM_0
100
AcDbLine
 10
3645.488698726627
 20
-284.7143711956353
 30
0.0
 11
3645.488698726627
 21
-289.3554416076284
 31
0.0
  0
LINE
  5
DDFB1
330
1F
100
AcDbEntity
  8
AM_0
100
AcDbLine
 10
3645.488698726627
 20
-304.7108618618235
 30
0.0
 11
3645.488698726627
 21
-331.1143711956355
 31
0.0
  0
LINE
  5
DDFDB
330
1F
100
AcDbEntity
  8
AM_0
100
AcDbLine
 10
3610.688698726627
 20
-190.1932055372852
 30
0.0
 11
3632.288698726627
 21
-190.1932055372829
 31
0.0
  0
LINE
  5
DDFDE
330
1F
100
AcDbEntity
  8
AM_0
100
AcDbLine
 10
3819.310093931644
 20
-190.1932055372841
 30
0.0
 11
3797.710093931644
 21
-190.1932055372836
 31
0.0
  0
LINE
  5
DDFE7
330
1F
100
AcDbEntity
  8
AM_0
100
AcDbLine
 10
3598.288698726627
 20
-189.5932055372839
 30
0.0
 11
3644.688698726627
 21
-189.5932055372845
 31
0.0
  0
LINE
  5
DDFE8
330
1F
100
AcDbEntity
  8
AM_0
100
AcDbLine
 10
3597.488698726627
 20
-181.5932055372842
 30
0.0
 11
3645.488698726627
 21
-181.5932055372842
 31
0.0
  0
LINE
  5
DDFE9
330
1F
100
AcDbEntity
  8
AM_0
 48
0.3849999999999852
100
AcDbLine
 10
3597.488698726627
 20
-188.793205537284
 30
0.0
 11
3597.488698726627
 21
-181.5932055372842
 31
0.0
  0
ARC
  5
DDFEA
330
1F
100
AcDbEntity
  8
AM_0
 48
0.3
100
AcDbCircle
 10
3598.288698726627
 20
-188.793205537284
 30
0.0
 40
0.8
100
AcDbArc
 50
180.0
 51
270.0
  0
LINE
  5
DDFEB
330
1F
100
AcDbEntity
  8
AM_0
100
AcDbLine
 10
3610.888698726627
 20
-189.5932055372839
 30
0.0
 11
3610.888698726627
 21
-190.1932055372841
 31
0.0
1001
GENIUS_GENODEF_13
1002
{
1000
HIER
1070
     0
1002
}
1002
{
1000
MANEDIT
1070
     0
1002
}
1002
{
1000
NOSEL
1070
     0
1002
}
1002
{
1000
BEHIND
1070
     0
1002
}
1002
{
1000
OTHER
1070
     0
1002
}
1002
{
1000
REACTOR
1002
}
1001
GENIUS_GENOBJ-N-CEN_13
1002
{
1000
OWNER
1000
GEN
1002
}
  0
LINE
  5
DDFEC
330
1F
100
AcDbEntity
  8
AM_0
100
AcDbLine
 10
3632.088698726627
 20
-189.5932055372842
 30
0.0
 11
3632.088698726627
 21
-190.1932055372841
 31
0.0
1001
GENIUS_GENODEF_13
1002
{
1000
HIER
1070
     0
1002
}
1002
{
1000
MANEDIT
1070
     0
1002
}
1002
{
1000
NOSEL
1070
     0
1002
}
1002
{
1000
BEHIND
1070
     0
1002
}
1002
{
1000
OTHER
1070
     0
1002
}
1002
{
1000
REACTOR
1002
}
1001
GENIUS_GENOBJ-N-CEN_13
1002
{
1000
OWNER
1000
GEN
1002
}
  0
LINE
  5
DDFED
330
1F
100
AcDbEntity
  8
AM_0
 48
0.385000000000008
100
AcDbLine
 10
3645.488698726627
 20
-188.7932055372844
 30
0.0
 11
3645.488698726627
 21
-181.5932055372842
 31
0.0
  0
ARC
  5
DDFEE
330
1F
100
AcDbEntity
  8
AM_0
 48
0.3
100
AcDbCircle
 10
3644.688698726627
 20
-188.793205537284
 30
0.0
 40
0.8
100
AcDbArc
 50
270.0
 51
0.0
  0
LINE
  5
DDFEF
330
1F
100
AcDbEntity
  8
AM_0
100
AcDbLine
 10
3797.910093931643
 20
-190.1932055372838
 30
0.0
 11
3819.110093931644
 21
-190.1932055372841
 31
0.0
  0
LINE
  5
DDFF0
330
1F
100
AcDbEntity
  8
AM_0
100
AcDbLine
 10
3797.910093931643
 20
-189.5932055372839
 30
0.0
 11
3797.910093931643
 21
-190.1932055372841
 31
0.0
1001
GENIUS_GENODEF_13
1002
{
1000
HIER
1070
     0
1002
}
1002
{
1000
MANEDIT
1070
     0
1002
}
1002
{
1000
NOSEL
1070
     0
1002
}
1002
{
1000
BEHIND
1070
     0
1002
}
1002
{
1000
OTHER
1070
     0
1002
}
1002
{
1000
REACTOR
1002
}
1001
GENIUS_GENOBJ-N-CEN_13
1002
{
1000
OWNER
1000
GEN
1002
}
  0
LINE
  5
DDFF1
330
1F
100
AcDbEntity
  8
AM_0
100
AcDbLine
 10
3819.110093931644
 20
-189.5932055372842
 30
0.0
 11
3819.110093931644
 21
-190.1932055372841
 31
0.0
1001
GENIUS_GENODEF_13
1002
{
1000
HIER
1070
     0
1002
}
1002
{
1000
MANEDIT
1070
     0
1002
}
1002
{
1000
NOSEL
1070
     0
1002
}
1002
{
1000
BEHIND
1070
     0
1002
}
1002
{
1000
OTHER
1070
     0
1002
}
1002
{
1000
REACTOR
1002
}
1001
GENIUS_GENOBJ-N-CEN_13
1002
{
1000
OWNER
1000
GEN
1002
}
  0
LINE
  5
DE00B
330
1F
100
AcDbEntity
  8
AM_0
100
AcDbLine
 10
3785.310093931644
 20
-189.5932055372837
 30
0.0
 11
3831.710093931643
 21
-189.5932055372843
 31
0.0
  0
LINE
  5
DE00C
330
1F
100
AcDbEntity
  8
AM_0
100
AcDbLine
 10
3784.510093931644
 20
-181.5932055372839
 30
0.0
 11
3832.510093931643
 21
-181.5932055372839
 31
0.0
  0
LINE
  5
DE00D
330
1F
100
AcDbEntity
  8
AM_0
 48
0.3849999999999852
100
AcDbLine
 10
3784.510093931644
 20
-188.7932055372838
 30
0.0
 11
3784.510093931644
 21
-181.5932055372839
 31
0.0
  0
ARC
  5
DE00E
330
1F
100
AcDbEntity
  8
AM_0
 48
0.3
100
AcDbCircle
 10
3785.310093931644
 20
-188.7932055372838
 30
0.0
 40
0.8
100
AcDbArc
 50
180.0
 51
270.0
  0
LINE
  5
DE00F
330
1F
100
AcDbEntity
  8
AM_0
 48
0.385000000000008
100
AcDbLine
 10
3832.510093931644
 20
-188.7932055372842
 30
0.0
 11
3832.510093931644
 21
-181.5932055372839
 31
0.0
  0
ARC
  5
DE010
330
1F
100
AcDbEntity
  8
AM_0
 48
0.3
100
AcDbCircle
 10
3831.710093931643
 20
-188.7932055372838
 30
0.0
 40
0.8
100
AcDbArc
 50
270.0
 51
0.0
  0
LINE
  5
DE026
330
1F
100
AcDbEntity
  8
AM_7
 48
0.5
100
AcDbLine
 10
3621.488698726626
 20
-177.5932055372841
 30
0.0
 11
3621.488698726627
 21
-248.5932055372853
 31
0.0
1001
GENIUS_GENODEF_13
1002
{
1000
HIER
1070
     0
1002
}
1002
{
1000
MANEDIT
1070
     0
1002
}
1002
{
1000
NOSEL
1070
     0
1002
}
1002
{
1000
BEHIND
1070
     0
1002
}
1002
{
1000
OTHER
1070
     0
1002
}
1002
{
1000
REACTOR
1002
}
1001
GENIUS_GENOBJ-N-CEN_13
1002
{
1000
OWNER
1000
GEN
1002
}
1001
GENIUS_GENCEN_19
1002
{
1040
4.0
1002
}
  0
DIMENSION
  5
DE029
330
1F
100
AcDbEntity
  8
AM_5
 48
1.01
100
AcDbDimension
  2
*D235
 10
3589.488698726626
 20
-283.9143711956355
 30
0.0
 11
3589.488698726626
 21
-307.9143711956355
 31
0.0
 70
   160
  1
{\Famgdt;o}<>
 71
     5
 42
48.00000000000046
  3
SYS$0
100
AcDbAlignedDimension
 13
3597.488698726627
 23
-331.914371195636
 33
0.0
 14
3597.488698726627
 24
-283.9143711956355
 34
0.0
 50
90.0
100
AcDbRotatedDimension
1001
ACAD
1000
DSTYLE
1002
{
1070
    41
1040
1.0
1070
   140
1040
3.2
1070
   341
1005
A66
1070
   343
1005
6C4
1070
   344
1005
6C4
1002
}
  0
DIMENSION
  5
DE02C
330
1F
100
AcDbEntity
  8
AM_5
100
AcDbDimension
  2
*D236
 10
3589.988698726627
 20
-189.5932055372839
 30
0.0
 11
3587.388698726627
 21
-185.5932055372835
 31
0.0
 70
    32
 71
     5
 42
7.999999999999772
  3
SYS$0
100
AcDbAlignedDimension
 13
3597.988698726626
 23
-181.5932055372842
 33
0.0
 14
3597.988698726626
 24
-189.5932055372839
 34
0.0
 50
270.0
100
AcDbRotatedDimension
1001
ACAD
1000
DSTYLE
1002
{
1070
   147
1040
1.0
1070
   140
1040
3.2
1070
    41
1040
1.0
1070
   271
1070
     1
1002
}
  0
LINE
  5
DE032
330
1F
100
AcDbEntity
  8
AM_0
100
AcDbLine
 10
3507.749396329135
 20
-96.5037883664636
 30
0.0
 11
3507.749396329135
 21
-192.5037883664636
 31
0.0
  0
LINE
  5
DE033
330
1F
100
AcDbEntity
  8
size
100
AcDbLine
 10
3496.249396329135
 20
-385.0037883664636
 30
0.0
 11
3916.249396329135
 21
-385.0037883664636
 31
0.0
1001
GENIUS_GENREC_14
1002
{
1000
PYDIR
1011
3496.249396329135
1021
-88.00378836646359
1031
0.0
1002
}
1002
{
1000
PXDIR
1011
3916.249396329135
1021
-385.0037883664636
1031
0.0
1002
}
1002
{
1000
PORI
1011
3496.249396329135
1021
-385.0037883664636
1031
0.0
1002
}
1002
{
1000
PINS
1011
3706.249396329134
1021
-236.5037883664636
1031
0.0
1002
}
1002
{
1000
HVAL
1000
297
1002
}
1002
{
1000
H
1070
     2
1002
}
1002
{
1000
WVAL
1000
420
1002
}
1002
{
1000
W
1070
     2
1002
}
1002
{
1000
C
1070
     4
1002
}
1001
GENIUS_GENOBJ-N-REC_13
1002
{
1000
OWNER
1000
GEN
1002
}
1001
GENIUS_GENODEF_13
1002
{
1000
HIER
1070
     0
1002
}
1002
{
1000
MANEDIT
1070
     0
1002
}
1002
{
1000
NOSEL
1070
     0
1002
}
1002
{
1000
BEHIND
1070
     0
1002
}
1002
{
1000
OTHER
1070
     0
1002
}
1002
{
1000
REACTOR
1002
}
  0
LINE
  5
DE034
330
1F
100
AcDbEntity
  8
size
100
AcDbLine
 10
3916.249396329135
 20
-385.0037883664636
 30
0.0
 11
3916.249396329135
 21
-88.00378836646359
 31
0.0
1001
GENIUS_GENREC_14
1002
{
1000
PYDIR
1011
3496.249396329135
1021
-88.00378836646359
1031
0.0
1002
}
1002
{
1000
PXDIR
1011
3916.249396329135
1021
-385.0037883664636
1031
0.0
1002
}
1002
{
1000
PORI
1011
3496.249396329135
1021
-385.0037883664636
1031
0.0
1002
}
1002
{
1000
PINS
1011
3706.249396329134
1021
-236.5037883664636
1031
0.0
1002
}
1002
{
1000
HVAL
1000
297
1002
}
1002
{
1000
H
1070
     2
1002
}
1002
{
1000
WVAL
1000
420
1002
}
1002
{
1000
W
1070
     2
1002
}
1002
{
1000
C
1070
     4
1002
}
1001
GENIUS_GENOBJ-N-REC_13
1002
{
1000
OWNER
1000
GEN
1002
}
1001
GENIUS_GENODEF_13
1002
{
1000
HIER
1070
     0
1002
}
1002
{
1000
MANEDIT
1070
     0
1002
}
1002
{
1000
NOSEL
1070
     0
1002
}
1002
{
1000
BEHIND
1070
     0
1002
}
1002
{
1000
OTHER
1070
     0
1002
}
1002
{
1000
REACTOR
1002
}
  0
LINE
  5
DE035
330
1F
100
AcDbEntity
  8
size
100
AcDbLine
 10
3496.249396329135
 20
-88.00378836646359
 30
0.0
 11
3496.249396329135
 21
-385.0037883664636
 31
0.0
1001
GENIUS_GENREC_14
1002
{
1000
PYDIR
1011
3496.249396329135
1021
-88.00378836646359
1031
0.0
1002
}
1002
{
1000
PXDIR
1011
3916.249396329135
1021
-385.0037883664636
1031
0.0
1002
}
1002
{
1000
PORI
1011
3496.249396329135
1021
-385.0037883664636
1031
0.0
1002
}
1002
{
1000
PINS
1011
3706.249396329134
1021
-236.5037883664636
1031
0.0
1002
}
1002
{
1000
HVAL
1000
297
1002
}
1002
{
1000
H
1070
     2
1002
}
1002
{
1000
WVAL
1000
420
1002
}
1002
{
1000
W
1070
     2
1002
}
1002
{
1000
C
1070
     4
1002
}
1001
GENIUS_GENOBJ-N-REC_13
1002
{
1000
OWNER
1000
GEN
1002
}
1001
GENIUS_GENODEF_13
1002
{
1000
HIER
1070
     0
1002
}
1002
{
1000
MANEDIT
1070
     0
1002
}
1002
{
1000
NOSEL
1070
     0
1002
}
1002
{
1000
BEHIND
1070
     0
1002
}
1002
{
1000
OTHER
1070
     0
1002
}
1002
{
1000
REACTOR
1002
}
  0
LINE
  5
DE036
330
1F
100
AcDbEntity
  8
waku
100
AcDbLine
 10
3904.749396329135
 20
-376.5037883664636
 30
0.0
 11
3904.749396329135
 21
-96.5037883664636
 31
0.0
1001
GENIUS_GENREC_14
1002
{
1000
PYDIR
1011
3496.249396329135
1021
-88.00378836646359
1031
0.0
1002
}
1002
{
1000
PXDIR
1011
3916.249396329135
1021
-385.0037883664636
1031
0.0
1002
}
1002
{
1000
PORI
1011
3496.249396329135
1021
-385.0037883664636
1031
0.0
1002
}
1002
{
1000
PINS
1011
3706.249396329134
1021
-236.5037883664636
1031
0.0
1002
}
1002
{
1000
HVAL
1000
297
1002
}
1002
{
1000
H
1070
     2
1002
}
1002
{
1000
WVAL
1000
420
1002
}
1002
{
1000
W
1070
     2
1002
}
1002
{
1000
C
1070
     4
1002
}
1001
GENIUS_GENOBJ-N-REC_13
1002
{
1000
OWNER
1000
GEN
1002
}
1001
GENIUS_GENODEF_13
1002
{
1000
HIER
1070
     0
1002
}
1002
{
1000
MANEDIT
1070
     0
1002
}
1002
{
1000
NOSEL
1070
     0
1002
}
1002
{
1000
BEHIND
1070
     0
1002
}
1002
{
1000
OTHER
1070
     0
1002
}
1002
{
1000
REACTOR
1002
}
  0
LINE
  5
DE037
330
1F
100
AcDbEntity
  8
waku
100
AcDbLine
 10
3507.749396329135
 20
-96.5037883664636
 30
0.0
 11
3507.749396329135
 21
-376.5037883664636
 31
0.0
1001
GENIUS_GENREC_14
1002
{
1000
PYDIR
1011
3496.249396329135
1021
-88.00378836646359
1031
0.0
1002
}
1002
{
1000
PXDIR
1011
3916.249396329135
1021
-385.0037883664636
1031
0.0
1002
}
1002
{
1000
PORI
1011
3496.249396329135
1021
-385.0037883664636
1031
0.0
1002
}
1002
{
1000
PINS
1011
3706.249396329134
1021
-236.5037883664636
1031
0.0
1002
}
1002
{
1000
HVAL
1000
297
1002
}
1002
{
1000
H
1070
     2
1002
}
1002
{
1000
WVAL
1000
420
1002
}
1002
{
1000
W
1070
     2
1002
}
1002
{
1000
C
1070
     4
1002
}
1001
GENIUS_GENOBJ-N-REC_13
1002
{
1000
OWNER
1000
GEN
1002
}
1001
GENIUS_GENODEF_13
1002
{
1000
HIER
1070
     0
1002
}
1002
{
1000
MANEDIT
1070
     0
1002
}
1002
{
1000
NOSEL
1070
     0
1002
}
1002
{
1000
BEHIND
1070
     0
1002
}
1002
{
1000
OTHER
1070
     0
1002
}
1002
{
1000
REACTOR
1002
}
  0
LINE
  5
DE038
330
1F
100
AcDbEntity
  8
waku
100
AcDbLine
 10
3904.749396329135
 20
-96.5037883664636
 30
0.0
 11
3507.749396329135
 21
-96.5037883664636
 31
0.0
1001
GENIUS_GENREC_14
1002
{
1000
PYDIR
1011
3496.249396329135
1021
-88.00378836646359
1031
0.0
1002
}
1002
{
1000
PXDIR
1011
3916.249396329135
1021
-385.0037883664636
1031
0.0
1002
}
1002
{
1000
PORI
1011
3496.249396329135
1021
-385.0037883664636
1031
0.0
1002
}
1002
{
1000
PINS
1011
3706.249396329134
1021
-236.5037883664636
1031
0.0
1002
}
1002
{
1000
HVAL
1000
297
1002
}
1002
{
1000
H
1070
     2
1002
}
1002
{
1000
WVAL
1000
420
1002
}
1002
{
1000
W
1070
     2
1002
}
1002
{
1000
C
1070
     4
1002
}
1001
GENIUS_GENOBJ-N-REC_13
1002
{
1000
OWNER
1000
GEN
1002
}
1001
GENIUS_GENODEF_13
1002
{
1000
HIER
1070
     0
1002
}
1002
{
1000
MANEDIT
1070
     0
1002
}
1002
{
1000
NOSEL
1070
     0
1002
}
1002
{
1000
BEHIND
1070
     0
1002
}
1002
{
1000
OTHER
1070
     0
1002
}
1002
{
1000
REACTOR
1002
}
  0
LINE
  5
DE039
330
1F
100
AcDbEntity
  8
waku
100
AcDbLine
 10
3507.749396329135
 20
-376.5037883664636
 30
0.0
 11
3904.749396329135
 21
-376.5037883664636
 31
0.0
  0
LINE
  5
DE03A
330
1F
100
AcDbEntity
  8
size
100
AcDbLine
 10
3496.249396329135
 20
-88.00378836646359
 30
0.0
 11
3916.249396329135
 21
-88.00378836646359
 31
0.0
1001
GENIUS_GENREC_14
1002
{
1000
PYDIR
1011
3496.249396329135
1021
208.9962116335364
1031
0.0
1002
}
1002
{
1000
PXDIR
1011
3916.249396329135
1021
-88.00378836646359
1031
0.0
1002
}
1002
{
1000
PORI
1011
3496.249396329135
1021
-88.00378836646359
1031
0.0
1002
}
1002
{
1000
PINS
1011
3706.249396329134
1021
60.4962116335364
1031
0.0
1002
}
1002
{
1000
HVAL
1000
297
1002
}
1002
{
1000
H
1070
     2
1002
}
1002
{
1000
WVAL
1000
420
1002
}
1002
{
1000
W
1070
     2
1002
}
1002
{
1000
C
1070
     4
1002
}
1001
GENIUS_GENOBJ-N-REC_13
1002
{
1000
OWNER
1000
GEN
1002
}
1001
GENIUS_GENODEF_13
1002
{
1000
HIER
1070
     0
1002
}
1002
{
1000
MANEDIT
1070
     0
1002
}
1002
{
1000
NOSEL
1070
     0
1002
}
1002
{
1000
BEHIND
1070
     0
1002
}
1002
{
1000
OTHER
1070
     0
1002
}
1002
{
1000
REACTOR
1002
}
  0
LINE
  5
DE044
330
1F
100
AcDbEntity
  8
AM_2
100
AcDbLine
 10
3527.749396329135
 20
-96.5037883664636
 30
0.0
 11
3527.749396329135
 21
-144.5037883664636
 31
0.0
  0
LINE
  5
DE045
330
1F
100
AcDbEntity
  8
AM_2
100
AcDbLine
 10
3507.749396329135
 20
-104.5037883664636
 30
0.0
 11
3607.749396329135
 21
-104.5037883664636
 31
0.0
  0
LINE
  5
DE046
330
1F
100
AcDbEntity
  8
AM_2
100
AcDbLine
 10
3507.749396329135
 20
-112.5037883664636
 30
0.0
 11
3607.749396329135
 21
-112.5037883664636
 31
0.0
  0
LINE
  5
DE047
330
1F
100
AcDbEntity
  8
AM_2
100
AcDbLine
 10
3507.749396329135
 20
-120.5037883664636
 30
0.0
 11
3607.749396329135
 21
-120.5037883664636
 31
0.0
  0
LINE
  5
DE048
330
1F
100
AcDbEntity
  8
AM_2
100
AcDbLine
 10
3507.749396329135
 20
-128.5037883664636
 30
0.0
 11
3607.749396329135
 21
-128.5037883664636
 31
0.0
  0
LINE
  5
DE049
330
1F
100
AcDbEntity
  8
AM_0
100
AcDbLine
 10
3507.749396329135
 20
-96.5037883664636
 30
0.0
 11
3617.749396329135
 21
-96.5037883664636
 31
0.0
  0
TEXT
  5
DE04C
330
1F
100
AcDbEntity
  8
AM_6
100
AcDbText
 10
3513.406396329135
 20
-102.1037883664636
 30
0.0
 40
3.2
  1
品　名
 41
0.85537027
100
AcDbText
  0
TEXT
  5
DE04D
330
1F
100
AcDbEntity
  8
AM_6
100
AcDbText
 10
3513.406396329135
 20
-110.1037883664636
 30
0.0
 40
3.2
  1
品　番
 41
0.85537027
100
AcDbText
  0
TEXT
  5
DE04E
330
1F
100
AcDbEntity
  8
AM_6
100
AcDbText
 10
3513.406396329135
 20
-118.1037883664636
 30
0.0
 40
3.2
  1
材　質
 41
0.85537027
100
AcDbText
  0
TEXT
  5
DE04F
330
1F
100
AcDbEntity
  8
AM_6
100
AcDbText
 10
3513.406396329135
 20
-126.1037883664636
 30
0.0
 40
3.2
  1
仕上げ
 41
0.85537027
100
AcDbText
  0
TEXT
  5
DE051
330
1F
100
AcDbEntity
  8
AM_6
100
AcDbText
 10
3533.406396329135
 20
-110.1037883664636
 30
0.0
 40
3.2
  1
43P-0
 41
0.85537027
100
AcDbText
  0
TEXT
  5
DE052
330
1F
100
AcDbEntity
  8
AM_6
100
AcDbText
 10
3533.406396329135
 20
-118.1037883664636
 30
0.0
 40
3.2
  1
亜鉛ダイキャスト
 41
0.85537027
100
AcDbText
  0
LINE
  5
DE054
330
1F
100
AcDbEntity
  8
AM_1
100
AcDbLine
 10
3507.749396329135
 20
-96.5037883664636
 30
0.0
 11
3507.749396329135
 21
-144.5037883664636
 31
0.0
  0
TEXT
  5
DE069
330
1F
100
AcDbEntity
  8
AM_6
100
AcDbText
 10
3533.406396329135
 20
-102.1037883664636
 30
0.0
 40
3.2
  1
レバーハンドル：空錠
 41
0.85537027
100
AcDbText
  0
POLYLINE
  5
DF2E9
330
1F
100
AcDbEntity
  8
AM_0
100
AcDb2dPolyline
 66
     1
 10
0.0
 20
0.0
 30
0.0
  0
VERTEX
  5
DF2EA
330
DF2E9
100
AcDbEntity
  8
AM_0
100
AcDbVertex
100
AcDb2dVertex
 10
3650.667595432018
 20
-302.1894545698144
 30
0.0
  0
VERTEX
  5
DF2EB
330
DF2E9
100
AcDbEntity
  8
AM_0
100
AcDbVertex
100
AcDb2dVertex
 10
3651.115660068405
 20
-301.9864411141429
 30
0.0
  0
VERTEX
  5
DF2EC
330
DF2E9
100
AcDbEntity
  8
AM_0
100
AcDbVertex
100
AcDb2dVertex
 10
3651.564591782597
 20
-301.7852946732997
 30
0.0
  0
VERTEX
  5
DF2ED
330
DF2E9
100
AcDbEntity
  8
AM_0
100
AcDbVertex
100
AcDb2dVertex
 10
3652.014382020176
 20
-301.5860188792536
 30
0.0
  0
VERTEX
  5
DF2EE
330
DF2E9
100
AcDbEntity
  8
AM_0
100
AcDbVertex
100
AcDb2dVertex
 10
3652.465026634191
 20
-301.3886160341266
 30
0.0
  0
VERTEX
  5
DF2EF
330
DF2E9
100
AcDbEntity
  8
AM_0
100
AcDbVertex
100
AcDb2dVertex
 10
3652.916517107441
 20
-301.193089908784
 30
0.0
  0
VERTEX
  5
DF2F0
330
DF2E9
100
AcDbEntity
  8
AM_0
100
AcDbVertex
100
AcDb2dVertex
 10
3653.002011253867
 20
-301.1564889732767
 30
0.0
  0
SEQEND
  5
DF2F1
330
DF2E9
100
AcDbEntity
  8
AM_0
  0
POLYLINE
  5
DF2F2
330
1F
100
AcDbEntity
  8
AM_0
100
AcDb2dPolyline
 66
     1
 10
0.0
 20
0.0
 30
0.0
  0
VERTEX
  5
DF2F3
330
DF2F2
100
AcDbEntity
  8
AM_0
100
AcDbVertex
100
AcDb2dVertex
 10
3650.397033369423
 20
-288.0877443173628
 30
0.0
  0
VERTEX
  5
DF2F4
330
DF2F2
100
AcDbEntity
  8
AM_0
100
AcDbVertex
100
AcDb2dVertex
 10
3650.763614056933
 20
-287.9988562196491
 30
0.0
  0
SEQEND
  5
DF2F5
330
DF2F2
100
AcDbEntity
  8
AM_0
  0
LINE
  5
DF2F6
330
1F
100
AcDbEntity
  8
AM_0
100
AcDbLine
 10
3647.708350498722
 20
-288.7710325545364
 30
0.0
 11
3650.400128328962
 21
-288.0870186381289
 31
0.0
  0
POLYLINE
  5
DF2F7
330
1F
100
AcDbEntity
  8
AM_0
100
AcDb2dPolyline
 66
     1
 10
0.0
 20
0.0
 30
0.0
 70
   128
  0
VERTEX
  5
DF2F8
330
DF2F7
100
AcDbEntity
  8
AM_0
100
AcDbVertex
100
AcDb2dVertex
 10
3650.672609614929
 20
-302.1874043964865
 30
0.0
  0
VERTEX
  5
DF2F9
330
DF2F7
100
AcDbEntity
  8
AM_0
100
AcDbVertex
100
AcDb2dVertex
 10
3651.120674251315
 20
-301.984390940815
 30
0.0
  0
VERTEX
  5
DF2FA
330
DF2F7
100
AcDbEntity
  8
AM_0
100
AcDbVertex
100
AcDb2dVertex
 10
3651.569605965508
 20
-301.7832444999718
 30
0.0
  0
VERTEX
  5
DF2FB
330
DF2F7
100
AcDbEntity
  8
AM_0
100
AcDbVertex
100
AcDb2dVertex
 10
3652.019396203087
 20
-301.5839687059257
 30
0.0
  0
VERTEX
  5
DF2FC
330
DF2F7
100
AcDbEntity
  8
AM_0
100
AcDbVertex
100
AcDb2dVertex
 10
3652.470040817102
 20
-301.3865658607986
 30
0.0
  0
VERTEX
  5
DF2FD
330
DF2F7
100
AcDbEntity
  8
AM_0
100
AcDbVertex
100
AcDb2dVertex
 10
3652.921531290351
 20
-301.1910397354561
 30
0.0
  0
VERTEX
  5
DF2FE
330
DF2F7
100
AcDbEntity
  8
AM_0
100
AcDbVertex
100
AcDb2dVertex
 10
3653.373858956765
 20
-300.9973935451772
 30
0.0
  0
VERTEX
  5
DF2FF
330
DF2F7
100
AcDbEntity
  8
AM_0
100
AcDbVertex
100
AcDb2dVertex
 10
3653.827022003388
 20
-300.8056294132982
 30
0.0
  0
VERTEX
  5
DF300
330
DF2F7
100
AcDbEntity
  8
AM_0
100
AcDbVertex
100
AcDb2dVertex
 10
3654.281009765109
 20
-300.6157519839529
 30
0.0
  0
VERTEX
  5
DF301
330
DF2F7
100
AcDbEntity
  8
AM_0
100
AcDbVertex
100
AcDb2dVertex
 10
3654.735818392715
 20
-300.4277646704344
 30
0.0
  0
VERTEX
  5
DF302
330
DF2F7
100
AcDbEntity
  8
AM_0
100
AcDbVertex
100
AcDb2dVertex
 10
3655.191441703003
 20
-300.241671064823
 30
0.0
  0
VERTEX
  5
DF303
330
DF2F7
100
AcDbEntity
  8
AM_0
100
AcDbVertex
100
AcDb2dVertex
 10
3655.647873661631
 20
-300.0574753147838
 30
0.0
  0
VERTEX
  5
DF304
330
DF2F7
100
AcDbEntity
  8
AM_0
100
AcDbVertex
100
AcDb2dVertex
 10
3656.10510586305
 20
-299.8751816078711
 30
0.0
  0
VERTEX
  5
DF305
330
DF2F7
100
AcDbEntity
  8
AM_0
100
AcDbVertex
100
AcDb2dVertex
 10
3656.563134439439
 20
-299.694793287931
 30
0.0
  0
VERTEX
  5
DF306
330
DF2F7
100
AcDbEntity
  8
AM_0
100
AcDbVertex
100
AcDb2dVertex
 10
3657.021955485762
 20
-299.5163135599121
 30
0.0
  0
VERTEX
  5
DF307
330
DF2F7
100
AcDbEntity
  8
AM_0
100
AcDbVertex
100
AcDb2dVertex
 10
3657.481558467166
 20
-299.3397475540858
 30
0.0
  0
VERTEX
  5
DF308
330
DF2F7
100
AcDbEntity
  8
AM_0
100
AcDbVertex
100
AcDb2dVertex
 10
3657.941939515831
 20
-299.1650986142975
 30
0.0
  0
VERTEX
  5
DF309
330
DF2F7
100
AcDbEntity
  8
AM_0
100
AcDbVertex
100
AcDb2dVertex
 10
3658.403094819763
 20
-298.9923702927375
 30
0.0
  0
VERTEX
  5
DF30A
330
DF2F7
100
AcDbEntity
  8
AM_0
100
AcDbVertex
100
AcDb2dVertex
 10
3658.86501612228
 20
-298.8215673325463
 30
0.0
  0
VERTEX
  5
DF30B
330
DF2F7
100
AcDbEntity
  8
AM_0
100
AcDbVertex
100
AcDb2dVertex
 10
3659.327704056075
 20
-298.6526920949638
 30
0.0
  0
VERTEX
  5
DF30C
330
DF2F7
100
AcDbEntity
  8
AM_0
100
AcDbVertex
100
AcDb2dVertex
 10
3659.791145919778
 20
-298.4857505140811
 30
0.0
  0
VERTEX
  5
DF30D
330
DF2F7
100
AcDbEntity
  8
AM_0
100
AcDbVertex
100
AcDb2dVertex
 10
3660.255344568426
 20
-298.3207443556627
 30
0.0
  0
VERTEX
  5
DF30E
330
DF2F7
100
AcDbEntity
  8
AM_0
100
AcDbVertex
100
AcDb2dVertex
 10
3660.72028730065
 20
-298.1576795537995
 30
0.0
  0
VERTEX
  5
DF30F
330
DF2F7
100
AcDbEntity
  8
AM_0
100
AcDbVertex
100
AcDb2dVertex
 10
3661.185974730534
 20
-297.9965584002834
 30
0.0
  0
VERTEX
  5
DF310
330
DF2F7
100
AcDbEntity
  8
AM_0
100
AcDbVertex
100
AcDb2dVertex
 10
3661.652394473055
 20
-297.837388009825
 30
0.0
  0
VERTEX
  5
DF311
330
DF2F7
100
AcDbEntity
  8
AM_0
100
AcDbVertex
100
AcDb2dVertex
 10
3662.119543348911
 20
-297.6801742958549
 30
0.0
  0
VERTEX
  5
DF312
330
DF2F7
100
AcDbEntity
  8
AM_0
100
AcDbVertex
100
AcDb2dVertex
 10
3662.587413715504
 20
-297.524924293305
 30
0.0
  0
VERTEX
  5
DF313
330
DF2F7
100
AcDbEntity
  8
AM_0
100
AcDbVertex
100
AcDb2dVertex
 10
3663.055993559983
 20
-297.371646505851
 30
0.0
  0
VERTEX
  5
DF314
330
DF2F7
100
AcDbEntity
  8
AM_0
100
AcDbVertex
100
AcDb2dVertex
 10
3663.525279703046
 20
-297.2203468469232
 30
0.0
  0
VERTEX
  5
DF315
330
DF2F7
100
AcDbEntity
  8
AM_0
100
AcDbVertex
100
AcDb2dVertex
 10
3663.995260113235
 20
-297.0710337507485
 30
0.0
  0
VERTEX
  5
DF316
330
DF2F7
100
AcDbEntity
  8
AM_0
100
AcDbVertex
100
AcDb2dVertex
 10
3664.465931620551
 20
-296.9237131654815
 30
0.0
  0
VERTEX
  5
DF317
330
DF2F7
100
AcDbEntity
  8
AM_0
100
AcDbVertex
100
AcDb2dVertex
 10
3664.937282174926
 20
-296.7783934559015
 30
0.0
  0
VERTEX
  5
DF318
330
DF2F7
100
AcDbEntity
  8
AM_0
100
AcDbVertex
100
AcDb2dVertex
 10
3665.409299977508
 20
-296.6350839243382
 30
0.0
  0
VERTEX
  5
DF319
330
DF2F7
100
AcDbEntity
  8
AM_0
100
AcDbVertex
100
AcDb2dVertex
 10
3665.881987103158
 20
-296.4937923142701
 30
0.0
  0
VERTEX
  5
DF31A
330
DF2F7
100
AcDbEntity
  8
AM_0
100
AcDbVertex
100
AcDb2dVertex
 10
3666.355323487036
 20
-296.3545326364437
 30
0.0
  0
VERTEX
  5
DF31B
330
DF2F7
100
AcDbEntity
  8
AM_0
100
AcDbVertex
100
AcDb2dVertex
 10
3666.829311269133
 20
-296.2173128774058
 30
0.0
  0
VERTEX
  5
DF31C
330
DF2F7
100
AcDbEntity
  8
AM_0
100
AcDbVertex
100
AcDb2dVertex
 10
3667.303927295581
 20
-296.0821355194965
 30
0.0
  0
VERTEX
  5
DF31D
330
DF2F7
100
AcDbEntity
  8
AM_0
100
AcDbVertex
100
AcDb2dVertex
 10
3667.779143683165
 20
-295.9489676161254
 30
0.0
  0
VERTEX
  5
DF31E
330
DF2F7
100
AcDbEntity
  8
AM_0
100
AcDbVertex
100
AcDb2dVertex
 10
3668.254913132364
 20
-295.8177748730591
 30
0.0
  0
VERTEX
  5
DF31F
330
DF2F7
100
AcDbEntity
  8
AM_0
100
AcDbVertex
100
AcDb2dVertex
 10
3668.731230223307
 20
-295.6886259568046
 30
0.0
  0
SEQEND
  5
DF320
330
DF2F7
100
AcDbEntity
  8
AM_0
  0
POLYLINE
  5
DF321
330
1F
100
AcDbEntity
  8
AM_0
100
AcDb2dPolyline
 66
     1
 10
0.0
 20
0.0
 30
0.0
 70
   128
  0
VERTEX
  5
DF322
330
DF321
100
AcDbEntity
  8
AM_0
100
AcDbVertex
100
AcDb2dVertex
 10
3650.402047552333
 20
-288.0856941440349
 30
0.0
  0
VERTEX
  5
DF323
330
DF321
100
AcDbEntity
  8
AM_0
100
AcDbVertex
100
AcDb2dVertex
 10
3652.669085988041
 20
-287.5359850598988
 30
0.0
  0
VERTEX
  5
DF324
330
DF321
100
AcDbEntity
  8
AM_0
100
AcDbVertex
100
AcDb2dVertex
 10
3654.948370932761
 20
-287.0318294502562
 30
0.0
  0
VERTEX
  5
DF325
330
DF321
100
AcDbEntity
  8
AM_0
100
AcDbVertex
100
AcDb2dVertex
 10
3656.08962839157
 20
-286.7925747833369
 30
0.0
  0
VERTEX
  5
DF326
330
DF321
100
AcDbEntity
  8
AM_0
100
AcDbVertex
100
AcDb2dVertex
 10
3657.230376727026
 20
-286.5595982662614
 30
0.0
  0
VERTEX
  5
DF327
330
DF321
100
AcDbEntity
  8
AM_0
100
AcDbVertex
100
AcDb2dVertex
 10
3658.369421156505
 20
-286.3311966155235
 30
0.0
  0
VERTEX
  5
DF328
330
DF321
100
AcDbEntity
  8
AM_0
100
AcDbVertex
100
AcDb2dVertex
 10
3660.526553651695
 20
-285.9047109743768
 30
0.0
  0
SEQEND
  5
DF329
330
DF321
100
AcDbEntity
  8
AM_0
  0
POLYLINE
  5
DF32A
330
1F
100
AcDbEntity
  8
AM_0
100
AcDb2dPolyline
 66
     1
 10
0.0
 20
0.0
 30
0.0
 70
   128
  0
VERTEX
  5
DF32B
330
DF32A
100
AcDbEntity
  8
AM_0
100
AcDbVertex
100
AcDb2dVertex
 10
3660.526549207008
 20
-285.9047121653271
 30
0.0
  0
VERTEX
  5
DF32C
330
DF32A
100
AcDbEntity
  8
AM_0
100
AcDbVertex
100
AcDb2dVertex
 10
3660.598369702708
 20
-285.8906545100227
 30
0.0
  0
VERTEX
  5
DF32D
330
DF32A
100
AcDbEntity
  8
AM_0
100
AcDbVertex
100
AcDb2dVertex
 10
3660.679991588298
 20
-285.874685150387
 30
0.0
  0
VERTEX
  5
DF32E
330
DF32A
100
AcDbEntity
  8
AM_0
100
AcDbVertex
100
AcDb2dVertex
 10
3660.844885104844
 20
-285.842449679114
 30
0.0
  0
VERTEX
  5
DF32F
330
DF32A
100
AcDbEntity
  8
AM_0
100
AcDbVertex
100
AcDb2dVertex
 10
3661.176373859113
 20
-285.7777692884617
 30
0.0
  0
VERTEX
  5
DF330
330
DF32A
100
AcDbEntity
  8
AM_0
100
AcDbVertex
100
AcDb2dVertex
 10
3661.840963729411
 20
-285.648576715073
 30
0.0
  0
VERTEX
  5
DF331
330
DF32A
100
AcDbEntity
  8
AM_0
100
AcDbVertex
100
AcDb2dVertex
 10
3663.169882642794
 20
-285.391191588914
 30
0.0
  0
VERTEX
  5
DF332
330
DF32A
100
AcDbEntity
  8
AM_0
100
AcDbVertex
100
AcDb2dVertex
 10
3664.499973895346
 20
-285.1308746266812
 30
0.0
  0
VERTEX
  5
DF333
330
DF32A
100
AcDbEntity
  8
AM_0
100
AcDbVertex
100
AcDb2dVertex
 10
3665.8304744589
 20
-284.86285806369
 30
0.0
  0
SEQEND
  5
DF334
330
DF32A
100
AcDbEntity
  8
AM_0
  0
LINE
  5
DF335
330
1F
100
AcDbEntity
  8
AM_0
100
AcDbLine
 10
3647.713364681633
 20
-288.7689823812087
 30
0.0
 11
3650.405142511873
 21
-288.084968464801
 31
0.0
  0
POLYLINE
  5
DF336
330
1F
100
AcDbEntity
  8
AM_0
100
AcDb2dPolyline
 66
     1
 10
0.0
 20
0.0
 30
0.0
 70
   128
  0
VERTEX
  5
DF337
330
DF336
100
AcDbEntity
  8
AM_0
100
AcDbVertex
100
AcDb2dVertex
 10
3715.597077619052
 20
-289.1937658869722
 30
0.0
  0
VERTEX
  5
DF338
330
DF336
100
AcDbEntity
  8
AM_0
100
AcDbVertex
100
AcDb2dVertex
 10
3712.634336106804
 20
-289.247492586946
 30
0.0
  0
VERTEX
  5
DF339
330
DF336
100
AcDbEntity
  8
AM_0
100
AcDbVertex
100
AcDb2dVertex
 10
3709.671889644166
 20
-289.3527053988509
 30
0.0
  0
VERTEX
  5
DF33A
330
DF336
100
AcDbEntity
  8
AM_0
100
AcDbVertex
100
AcDb2dVertex
 10
3706.710698320146
 20
-289.5081871616786
 30
0.0
  0
VERTEX
  5
DF33B
330
DF336
100
AcDbEntity
  8
AM_0
100
AcDbVertex
100
AcDb2dVertex
 10
3703.751704742737
 20
-289.7127265893935
 30
0.0
  0
VERTEX
  5
DF33C
330
DF336
100
AcDbEntity
  8
AM_0
100
AcDbVertex
100
AcDb2dVertex
 10
3700.795895743501
 20
-289.9650996530784
 30
0.0
  0
VERTEX
  5
DF33D
330
DF336
100
AcDbEntity
  8
AM_0
100
AcDbVertex
100
AcDb2dVertex
 10
3697.844204817757
 20
-290.2640966152198
 30
0.0
  0
VERTEX
  5
DF33E
330
DF336
100
AcDbEntity
  8
AM_0
100
AcDbVertex
100
AcDb2dVertex
 10
3694.897610130994
 20
-290.6084966621798
 30
0.0
  0
VERTEX
  5
DF33F
330
DF336
100
AcDbEntity
  8
AM_0
100
AcDbVertex
100
AcDb2dVertex
 10
3691.957062882846
 20
-290.9970850148503
 30
0.0
  0
VERTEX
  5
DF340
330
DF336
100
AcDbEntity
  8
AM_0
100
AcDbVertex
100
AcDb2dVertex
 10
3689.023527793088
 20
-291.4286440157555
 30
0.0
  0
VERTEX
  5
DF341
330
DF336
100
AcDbEntity
  8
AM_0
100
AcDbVertex
100
AcDb2dVertex
 10
3686.097965136814
 20
-291.9019571983687
 30
0.0
  0
VERTEX
  5
DF342
330
DF336
100
AcDbEntity
  8
AM_0
100
AcDbVertex
100
AcDb2dVertex
 10
3683.180163407434
 20
-292.4186175615857
 30
0.0
  0
VERTEX
  5
DF343
330
DF336
100
AcDbEntity
  8
AM_0
100
AcDbVertex
100
AcDb2dVertex
 10
3680.27006845697
 20
-292.981072055849
 30
0.0
  0
VERTEX
  5
DF344
330
DF336
100
AcDbEntity
  8
AM_0
100
AcDbVertex
100
AcDb2dVertex
 10
3677.36889754679
 20
-293.5893122029482
 30
0.0
  0
VERTEX
  5
DF345
330
DF336
100
AcDbEntity
  8
AM_0
100
AcDbVertex
100
AcDb2dVertex
 10
3674.477881235107
 20
-294.2433258129252
 30
0.0
  0
VERTEX
  5
DF346
330
DF336
100
AcDbEntity
  8
AM_0
100
AcDbVertex
100
AcDb2dVertex
 10
3671.598250080133
 20
-294.9431006958225
 30
0.0
  0
VERTEX
  5
DF347
330
DF336
100
AcDbEntity
  8
AM_0
100
AcDbVertex
100
AcDb2dVertex
 10
3668.731230223307
 20
-295.6886259568046
 30
0.0
  0
SEQEND
  5
DF348
330
DF336
100
AcDbEntity
  8
AM_0
  0
POLYLINE
  5
DF349
330
1F
100
AcDbEntity
  8
AM_0
100
AcDb2dPolyline
 66
     1
 10
0.0
 20
0.0
 30
0.0
 70
   128
  0
VERTEX
  5
DF34A
330
DF349
100
AcDbEntity
  8
AM_0
100
AcDbVertex
100
AcDb2dVertex
 10
3665.830473863425
 20
-284.8628558413466
 30
0.0
  0
VERTEX
  5
DF34B
330
DF349
100
AcDbEntity
  8
AM_0
100
AcDbVertex
100
AcDb2dVertex
 10
3668.895441239126
 20
-284.2571325371622
 30
0.0
  0
VERTEX
  5
DF34C
330
DF349
100
AcDbEntity
  8
AM_0
100
AcDbVertex
100
AcDb2dVertex
 10
3671.969643547483
 20
-283.6938037924547
 30
0.0
  0
VERTEX
  5
DF34D
330
DF349
100
AcDbEntity
  8
AM_0
100
AcDbVertex
100
AcDb2dVertex
 10
3675.052209391631
 20
-283.1724087732894
 30
0.0
  0
VERTEX
  5
DF34E
330
DF349
100
AcDbEntity
  8
AM_0
100
AcDbVertex
100
AcDb2dVertex
 10
3678.142260122892
 20
-282.6924951390776
 30
0.0
  0
VERTEX
  5
DF34F
330
DF349
100
AcDbEntity
  8
AM_0
100
AcDbVertex
100
AcDb2dVertex
 10
3681.238929235693
 20
-282.2536025316931
 30
0.0
  0
VERTEX
  5
DF350
330
DF349
100
AcDbEntity
  8
AM_0
100
AcDbVertex
100
AcDb2dVertex
 10
3684.341341781699
 20
-281.855274641667
 30
0.0
  0
VERTEX
  5
DF351
330
DF349
100
AcDbEntity
  8
AM_0
100
AcDbVertex
100
AcDb2dVertex
 10
3687.448618219015
 20
-281.4970557948954
 30
0.0
  0
VERTEX
  5
DF352
330
DF349
100
AcDbEntity
  8
AM_0
100
AcDbVertex
100
AcDb2dVertex
 10
3690.559897082233
 20
-281.178486664645
 30
0.0
  0
VERTEX
  5
DF353
330
DF349
100
AcDbEntity
  8
AM_0
100
AcDbVertex
100
AcDb2dVertex
 10
3693.674294384774
 20
-280.8991127677619
 30
0.0
  0
VERTEX
  5
DF354
330
DF349
100
AcDbEntity
  8
AM_0
100
AcDbVertex
100
AcDb2dVertex
 10
3696.790943918804
 20
-280.6584748572912
 30
0.0
  0
VERTEX
  5
DF355
330
DF349
100
AcDbEntity
  8
AM_0
100
AcDbVertex
100
AcDb2dVertex
 10
3699.908966291299
 20
-280.4561178147148
 30
0.0
  0
VERTEX
  5
DF356
330
DF349
100
AcDbEntity
  8
AM_0
100
AcDbVertex
100
AcDb2dVertex
 10
3703.027499887983
 20
-280.2915817577136
 30
0.0
  0
VERTEX
  5
DF357
330
DF349
100
AcDbEntity
  8
AM_0
100
AcDbVertex
100
AcDb2dVertex
 10
3706.1456518329
 20
-280.1644145850337
 30
0.0
  0
VERTEX
  5
DF358
330
DF349
100
AcDbEntity
  8
AM_0
100
AcDbVertex
100
AcDb2dVertex
 10
3709.263863291353
 20
-280.0733470333329
 30
0.0
  0
VERTEX
  5
DF359
330
DF349
100
AcDbEntity
  8
AM_0
100
AcDbVertex
100
AcDb2dVertex
 10
3710.825036351991
 20
-280.039173286677
 30
0.0
  0
VERTEX
  5
DF35A
330
DF349
100
AcDbEntity
  8
AM_0
100
AcDbVertex
100
AcDb2dVertex
 10
3712.387301040033
 20
-280.0115270161823
 30
0.0
  0
VERTEX
  5
DF35B
330
DF349
100
AcDbEntity
  8
AM_0
100
AcDbVertex
100
AcDb2dVertex
 10
3715.512985524552
 20
-279.9732038671219
 30
0.0
  0
SEQEND
  5
DF35C
330
DF349
100
AcDbEntity
  8
AM_0
  0
POLYLINE
  5
DF35D
330
1F
100
AcDbEntity
  8
AM_0
100
AcDb2dPolyline
 66
     1
 10
0.0
 20
0.0
 30
0.0
 70
   128
  0
VERTEX
  5
DF35E
330
DF35D
100
AcDbEntity
  8
AM_0
100
AcDbVertex
100
AcDb2dVertex
 10
3733.187513964018
 20
-284.6334300124977
 30
0.0
  0
VERTEX
  5
DF35F
330
DF35D
100
AcDbEntity
  8
AM_0
100
AcDbVertex
100
AcDb2dVertex
 10
3733.173907181795
 20
-284.7887756140571
 30
0.0
  0
VERTEX
  5
DF360
330
DF35D
100
AcDbEntity
  8
AM_0
100
AcDbVertex
100
AcDb2dVertex
 10
3733.151793585254
 20
-284.939112589336
 30
0.0
  0
VERTEX
  5
DF361
330
DF35D
100
AcDbEntity
  8
AM_0
100
AcDbVertex
100
AcDb2dVertex
 10
3733.085656195308
 20
-285.2188198901102
 30
0.0
  0
VERTEX
  5
DF362
330
DF35D
100
AcDbEntity
  8
AM_0
100
AcDbVertex
100
AcDb2dVertex
 10
3732.994643676143
 20
-285.4737489920803
 30
0.0
  0
VERTEX
  5
DF363
330
DF35D
100
AcDbEntity
  8
AM_0
100
AcDbVertex
100
AcDb2dVertex
 10
3732.881513306577
 20
-285.7099233003678
 30
0.0
  0
VERTEX
  5
DF364
330
DF35D
100
AcDbEntity
  8
AM_0
100
AcDbVertex
100
AcDb2dVertex
 10
3732.746544178311
 20
-285.9326868564009
 30
0.0
  0
VERTEX
  5
DF365
330
DF35D
100
AcDbEntity
  8
AM_0
100
AcDbVertex
100
AcDb2dVertex
 10
3732.585289176847
 20
-286.1496219001819
 30
0.0
  0
VERTEX
  5
DF366
330
DF35D
100
AcDbEntity
  8
AM_0
100
AcDbVertex
100
AcDb2dVertex
 10
3732.394979123295
 20
-286.3630877414538
 30
0.0
  0
VERTEX
  5
DF367
330
DF35D
100
AcDbEntity
  8
AM_0
100
AcDbVertex
100
AcDb2dVertex
 10
3732.176903001218
 20
-286.5697878232895
 30
0.0
  0
VERTEX
  5
DF368
330
DF35D
100
AcDbEntity
  8
AM_0
100
AcDbVertex
100
AcDb2dVertex
 10
3731.934626412959
 20
-286.7663526891803
 30
0.0
  0
VERTEX
  5
DF369
330
DF35D
100
AcDbEntity
  8
AM_0
100
AcDbVertex
100
AcDb2dVertex
 10
3731.676067474398
 20
-286.9474868038444
 30
0.0
  0
VERTEX
  5
DF36A
330
DF35D
100
AcDbEntity
  8
AM_0
100
AcDbVertex
100
AcDb2dVertex
 10
3731.405831563782
 20
-287.112278907429
 30
0.0
  0
VERTEX
  5
DF36B
330
DF35D
100
AcDbEntity
  8
AM_0
100
AcDbVertex
100
AcDb2dVertex
 10
3731.13093415007
 20
-287.2603140795498
 30
0.0
  0
VERTEX
  5
DF36C
330
DF35D
100
AcDbEntity
  8
AM_0
100
AcDbVertex
100
AcDb2dVertex
 10
3730.855257610186
 20
-287.3933519645801
 30
0.0
  0
VERTEX
  5
DF36D
330
DF35D
100
AcDbEntity
  8
AM_0
100
AcDbVertex
100
AcDb2dVertex
 10
3730.578534131597
 20
-287.5142332820999
 30
0.0
  0
VERTEX
  5
DF36E
330
DF35D
100
AcDbEntity
  8
AM_0
100
AcDbVertex
100
AcDb2dVertex
 10
3730.022766076533
 20
-287.7267101142527
 30
0.0
  0
VERTEX
  5
DF36F
330
DF35D
100
AcDbEntity
  8
AM_0
100
AcDbVertex
100
AcDb2dVertex
 10
3729.464736495439
 20
-287.9071721965262
 30
0.0
  0
VERTEX
  5
DF370
330
DF35D
100
AcDbEntity
  8
AM_0
100
AcDbVertex
100
AcDb2dVertex
 10
3728.904543790803
 20
-288.0629204837201
 30
0.0
  0
VERTEX
  5
DF371
330
DF35D
100
AcDbEntity
  8
AM_0
100
AcDbVertex
100
AcDb2dVertex
 10
3727.775173048769
 20
-288.3209000269874
 30
0.0
  0
VERTEX
  5
DF372
330
DF35D
100
AcDbEntity
  8
AM_0
100
AcDbVertex
100
AcDb2dVertex
 10
3726.631451001421
 20
-288.5230440899276
 30
0.0
  0
VERTEX
  5
DF373
330
DF35D
100
AcDbEntity
  8
AM_0
100
AcDbVertex
100
AcDb2dVertex
 10
3725.470607687816
 20
-288.6862876369739
 30
0.0
  0
VERTEX
  5
DF374
330
DF35D
100
AcDbEntity
  8
AM_0
100
AcDbVertex
100
AcDb2dVertex
 10
3724.287474202159
 20
-288.820532753268
 30
0.0
  0
VERTEX
  5
DF375
330
DF35D
100
AcDbEntity
  8
AM_0
100
AcDbVertex
100
AcDb2dVertex
 10
3723.083607652319
 20
-288.9288171598086
 30
0.0
  0
VERTEX
  5
DF376
330
DF35D
100
AcDbEntity
  8
AM_0
100
AcDbVertex
100
AcDb2dVertex
 10
3721.862121192002
 20
-289.0139766028966
 30
0.0
  0
VERTEX
  5
DF377
330
DF35D
100
AcDbEntity
  8
AM_0
100
AcDbVertex
100
AcDb2dVertex
 10
3720.626118787804
 20
-289.0788480995619
 30
0.0
  0
VERTEX
  5
DF378
330
DF35D
100
AcDbEntity
  8
AM_0
100
AcDbVertex
100
AcDb2dVertex
 10
3719.378730776706
 20
-289.1262604099603
 30
0.0
  0
VERTEX
  5
DF379
330
DF35D
100
AcDbEntity
  8
AM_0
100
AcDbVertex
100
AcDb2dVertex
 10
3718.751734020005
 20
-289.1443075605506
 30
0.0
  0
VERTEX
  5
DF37A
330
DF35D
100
AcDbEntity
  8
AM_0
100
AcDbVertex
100
AcDb2dVertex
 10
3718.1229990058
 20
-289.1590320629587
 30
0.0
  0
VERTEX
  5
DF37B
330
DF35D
100
AcDbEntity
  8
AM_0
100
AcDbVertex
100
AcDb2dVertex
 10
3716.861093503154
 20
-289.1800347616579
 30
0.0
  0
VERTEX
  5
DF37C
330
DF35D
100
AcDbEntity
  8
AM_0
100
AcDbVertex
100
AcDb2dVertex
 10
3715.597076428102
 20
-289.1937614422853
 30
0.0
  0
SEQEND
  5
DF37D
330
DF35D
100
AcDbEntity
  8
AM_0
  0
POLYLINE
  5
DF37E
330
1F
100
AcDbEntity
  8
AM_0
100
AcDb2dPolyline
 66
     1
 10
0.0
 20
0.0
 30
0.0
 70
   128
  0
VERTEX
  5
DF37F
330
DF37E
100
AcDbEntity
  8
AM_0
100
AcDbVertex
100
AcDb2dVertex
 10
3715.512985226814
 20
-279.9732027559502
 30
0.0
  0
VERTEX
  5
DF380
330
DF37E
100
AcDbEntity
  8
AM_0
100
AcDbVertex
100
AcDb2dVertex
 10
3718.02362734274
 20
-279.971015249279
 30
0.0
  0
VERTEX
  5
DF381
330
DF37E
100
AcDbEntity
  8
AM_0
100
AcDbVertex
100
AcDb2dVertex
 10
3720.533764748762
 20
-280.0252228755032
 30
0.0
  0
VERTEX
  5
DF382
330
DF37E
100
AcDbEntity
  8
AM_0
100
AcDbVertex
100
AcDb2dVertex
 10
3721.787545078131
 20
-280.0808180076979
 30
0.0
  0
VERTEX
  5
DF383
330
DF37E
100
AcDbEntity
  8
AM_0
100
AcDbVertex
100
AcDb2dVertex
 10
3723.039931428512
 20
-280.1593011613038
 30
0.0
  0
VERTEX
  5
DF384
330
DF37E
100
AcDbEntity
  8
AM_0
100
AcDbVertex
100
AcDb2dVertex
 10
3724.292164961804
 20
-280.2637754432582
 30
0.0
  0
VERTEX
  5
DF385
330
DF37E
100
AcDbEntity
  8
AM_0
100
AcDbVertex
100
AcDb2dVertex
 10
3725.5419161315
 20
-280.4023655632316
 30
0.0
  0
VERTEX
  5
DF386
330
DF37E
100
AcDbEntity
  8
AM_0
100
AcDbVertex
100
AcDb2dVertex
 10
3726.784829168077
 20
-280.5848436551109
 30
0.0
  0
VERTEX
  5
DF387
330
DF37E
100
AcDbEntity
  8
AM_0
100
AcDbVertex
100
AcDb2dVertex
 10
3728.016548267121
 20
-280.820981722568
 30
0.0
  0
VERTEX
  5
DF388
330
DF37E
100
AcDbEntity
  8
AM_0
100
AcDbVertex
100
AcDb2dVertex
 10
3728.628038833526
 20
-280.962961017267
 30
0.0
  0
VERTEX
  5
DF389
330
DF37E
100
AcDbEntity
  8
AM_0
100
AcDbVertex
100
AcDb2dVertex
 10
3729.235343681646
 20
-281.1253387420831
 30
0.0
  0
VERTEX
  5
DF38A
330
DF37E
100
AcDbEntity
  8
AM_0
100
AcDbVertex
100
AcDb2dVertex
 10
3729.832334922838
 20
-281.3115222947685
 30
0.0
  0
VERTEX
  5
DF38B
330
DF37E
100
AcDbEntity
  8
AM_0
100
AcDbVertex
100
AcDb2dVertex
 10
3730.412785428332
 20
-281.5249042788626
 30
0.0
  0
VERTEX
  5
DF38C
330
DF37E
100
AcDbEntity
  8
AM_0
100
AcDbVertex
100
AcDb2dVertex
 10
3730.970445675684
 20
-281.7688648385442
 30
0.0
  0
VERTEX
  5
DF38D
330
DF37E
100
AcDbEntity
  8
AM_0
100
AcDbVertex
100
AcDb2dVertex
 10
3731.237019077113
 20
-281.9030611266597
 30
0.0
  0
VERTEX
  5
DF38E
330
DF37E
100
AcDbEntity
  8
AM_0
100
AcDbVertex
100
AcDb2dVertex
 10
3731.492329811721
 20
-282.045431754278
 30
0.0
  0
VERTEX
  5
DF38F
330
DF37E
100
AcDbEntity
  8
AM_0
100
AcDbVertex
100
AcDb2dVertex
 10
3731.734828319
 20
-282.1960251121969
 30
0.0
  0
VERTEX
  5
DF390
330
DF37E
100
AcDbEntity
  8
AM_0
100
AcDbVertex
100
AcDb2dVertex
 10
3731.962947408563
 20
-282.3548949105993
 30
0.0
  0
VERTEX
  5
DF391
330
DF37E
100
AcDbEntity
  8
AM_0
100
AcDbVertex
100
AcDb2dVertex
 10
3732.175115604512
 20
-282.5220433084187
 30
0.0
  0
VERTEX
  5
DF392
330
DF37E
100
AcDbEntity
  8
AM_0
100
AcDbVertex
100
AcDb2dVertex
 10
3732.369913247289
 20
-282.6966523085563
 30
0.0
  0
VERTEX
  5
DF393
330
DF37E
100
AcDbEntity
  8
AM_0
100
AcDbVertex
100
AcDb2dVertex
 10
3732.546609933681
 20
-282.8794806437133
 30
0.0
  0
VERTEX
  5
DF394
330
DF37E
100
AcDbEntity
  8
AM_0
100
AcDbVertex
100
AcDb2dVertex
 10
3732.704664684933
 20
-283.0719228733038
 30
0.0
  0
VERTEX
  5
DF395
330
DF37E
100
AcDbEntity
  8
AM_0
100
AcDbVertex
100
AcDb2dVertex
 10
3732.843492373159
 20
-283.2753865774155
 30
0.0
  0
VERTEX
  5
DF396
330
DF37E
100
AcDbEntity
  8
AM_0
100
AcDbVertex
100
AcDb2dVertex
 10
3732.963254324108
 20
-283.4930339716537
 30
0.0
  0
VERTEX
  5
DF397
330
DF37E
100
AcDbEntity
  8
AM_0
100
AcDbVertex
100
AcDb2dVertex
 10
3733.065379323387
 20
-283.7381977930968
 30
0.0
  0
VERTEX
  5
DF398
330
DF37E
100
AcDbEntity
  8
AM_0
100
AcDbVertex
100
AcDb2dVertex
 10
3733.142871618492
 20
-284.0151356395129
 30
0.0
  0
VERTEX
  5
DF399
330
DF37E
100
AcDbEntity
  8
AM_0
100
AcDbVertex
100
AcDb2dVertex
 10
3733.169156719086
 20
-284.1646846670832
 30
0.0
  0
VERTEX
  5
DF39A
330
DF37E
100
AcDbEntity
  8
AM_0
100
AcDbVertex
100
AcDb2dVertex
 10
3733.185456215849
 20
-284.3189958740468
 30
0.0
  0
VERTEX
  5
DF39B
330
DF37E
100
AcDbEntity
  8
AM_0
100
AcDbVertex
100
AcDb2dVertex
 10
3733.187513815149
 20
-284.633429456912
 30
0.0
  0
SEQEND
  5
DF39C
330
DF37E
100
AcDbEntity
  8
AM_0
  0
LINE
  5
DF39D
330
1F
100
AcDbEntity
  8
AM_0
100
AcDbLine
 10
3665.831086926464
 20
-284.8651616025043
 30
0.0
 11
3665.8304744589
 21
-284.86285806369
 31
0.0
  0
POLYLINE
  5
DF39E
330
1F
100
AcDbEntity
  8
AM_0
100
AcDb2dPolyline
 66
     1
 10
0.0
 20
0.0
 30
0.0
 70
   128
  0
VERTEX
  5
DF39F
330
DF39E
100
AcDbEntity
  8
AM_0
100
AcDbVertex
100
AcDb2dVertex
 10
3660.526553651695
 20
-285.9047109743768
 30
0.0
  0
VERTEX
  5
DF3A0
330
DF39E
100
AcDbEntity
  8
AM_0
100
AcDbVertex
100
AcDb2dVertex
 10
3660.747637032687
 20
-285.8614913333481
 30
0.0
  0
VERTEX
  5
DF3A1
330
DF39E
100
AcDbEntity
  8
AM_0
100
AcDbVertex
100
AcDb2dVertex
 10
3660.968740383472
 20
-285.8183639993528
 30
0.0
  0
VERTEX
  5
DF3A2
330
DF39E
100
AcDbEntity
  8
AM_0
100
AcDbVertex
100
AcDb2dVertex
 10
3661.189858068414
 20
-285.7753257186548
 30
0.0
  0
VERTEX
  5
DF3A3
330
DF39E
100
AcDbEntity
  8
AM_0
100
AcDbVertex
100
AcDb2dVertex
 10
3661.410993341251
 20
-285.7323708556165
 30
0.0
  0
VERTEX
  5
DF3A4
330
DF39E
100
AcDbEntity
  8
AM_0
100
AcDbVertex
100
AcDb2dVertex
 10
3661.632145308767
 20
-285.6894960767225
 30
0.0
  0
VERTEX
  5
DF3A5
330
DF39E
100
AcDbEntity
  8
AM_0
100
AcDbVertex
100
AcDb2dVertex
 10
3661.853312482277
 20
-285.6466958261144
 30
0.0
  0
VERTEX
  5
DF3A6
330
DF39E
100
AcDbEntity
  8
AM_0
100
AcDbVertex
100
AcDb2dVertex
 10
3662.074489226141
 20
-285.6039668500552
 30
0.0
  0
VERTEX
  5
DF3A7
330
DF39E
100
AcDbEntity
  8
AM_0
100
AcDbVertex
100
AcDb2dVertex
 10
3662.295679963673
 20
-285.5612900990685
 30
0.0
  0
VERTEX
  5
DF3A8
330
DF39E
100
AcDbEntity
  8
AM_0
100
AcDbVertex
100
AcDb2dVertex
 10
3662.516873699955
 20
-285.5186423183253
 30
0.0
  0
VERTEX
  5
DF3A9
330
DF39E
100
AcDbEntity
  8
AM_0
100
AcDbVertex
100
AcDb2dVertex
 10
3662.738063289289
 20
-285.4759968397043
 30
0.0
  0
VERTEX
  5
DF3AA
330
DF39E
100
AcDbEntity
  8
AM_0
100
AcDbVertex
100
AcDb2dVertex
 10
3662.959241585972
 20
-285.4333269950836
 30
0.0
  0
VERTEX
  5
DF3AB
330
DF39E
100
AcDbEntity
  8
AM_0
100
AcDbVertex
100
AcDb2dVertex
 10
3663.180401444301
 20
-285.3906061163408
 30
0.0
  0
VERTEX
  5
DF3AC
330
DF39E
100
AcDbEntity
  8
AM_0
100
AcDbVertex
100
AcDb2dVertex
 10
3663.401540461001
 20
-285.3478074555757
 30
0.0
  0
VERTEX
  5
DF3AD
330
DF39E
100
AcDbEntity
  8
AM_0
100
AcDbVertex
100
AcDb2dVertex
 10
3663.622647343419
 20
-285.3049066467882
 30
0.0
  0
VERTEX
  5
DF3AE
330
DF39E
100
AcDbEntity
  8
AM_0
100
AcDbVertex
100
AcDb2dVertex
 10
3663.843719092804
 20
-285.2618747197343
 30
0.0
  0
VERTEX
  5
DF3AF
330
DF39E
100
AcDbEntity
  8
AM_0
100
AcDbVertex
100
AcDb2dVertex
 10
3664.064744416504
 20
-285.218687308414
 30
0.0
  0
VERTEX
  5
DF3B0
330
DF39E
100
AcDbEntity
  8
AM_0
100
AcDbVertex
100
AcDb2dVertex
 10
3664.285726844616
 20
-285.1753220298353
 30
0.0
  0
VERTEX
  5
DF3B1
330
DF39E
100
AcDbEntity
  8
AM_0
100
AcDbVertex
100
AcDb2dVertex
 10
3664.506656573179
 20
-285.1317600738572
 30
0.0
  0
VERTEX
  5
DF3B2
330
DF39E
100
AcDbEntity
  8
AM_0
100
AcDbVertex
100
AcDb2dVertex
 10
3664.727538025501
 20
-285.0879823910025
 30
0.0
  0
VERTEX
  5
DF3B3
330
DF39E
100
AcDbEntity
  8
AM_0
100
AcDbVertex
100
AcDb2dVertex
 10
3664.94836554457
 20
-285.0439678690083
 30
0.0
  0
VERTEX
  5
DF3B4
330
DF39E
100
AcDbEntity
  8
AM_0
100
AcDbVertex
100
AcDb2dVertex
 10
3665.169134366584
 20
-284.9996987291263
 30
0.0
  0
VERTEX
  5
DF3B5
330
DF39E
100
AcDbEntity
  8
AM_0
100
AcDbVertex
100
AcDb2dVertex
 10
3665.38984802164
 20
-284.9551525883648
 30
0.0
  0
VERTEX
  5
DF3B6
330
DF39E
100
AcDbEntity
  8
AM_0
100
AcDbVertex
100
AcDb2dVertex
 10
3665.610497598988
 20
-284.9103139700974
 30
0.0
  0
VERTEX
  5
DF3B7
330
DF39E
100
AcDbEntity
  8
AM_0
100
AcDbVertex
100
AcDb2dVertex
 10
3665.831086926464
 20
-284.8651616025043
 30
0.0
  0
SEQEND
  5
DF3B8
330
DF39E
100
AcDbEntity
  8
AM_0
  0
LINE
  5
DF3B9
330
1F
100
AcDbEntity
  8
AM_0
100
AcDbLine
 10
3660.526553651695
 20
-285.9047109743768
 30
0.0
 11
3660.526549207008
 21
-285.9047121653271
 31
0.0
  0
ARC
  5
DF3BA
330
1F
100
AcDbEntity
  8
AM_0
100
AcDbCircle
 10
3628.041062185802
 20
-306.0953142143307
 30
0.0
 40
19.30000070431445
100
AcDbArc
 50
194.9999999999944
 51
201.9018542210628
  0
ARC
  5
DF3BB
330
1F
100
AcDbEntity
  8
AM_0
100
AcDbCircle
 10
3622.814024568207
 20
-301.5014087868375
 30
0.0
 40
19.3002288234123
100
AcDbArc
 50
255.4784596868006
 51
284.9998210180249
  0
ARC
  5
DF3BC
330
1F
100
AcDbEntity
  8
AM_0
100
AcDbCircle
 10
3625.811150098146
 20
-312.687066485955
 30
0.0
 40
19.29999999999999
100
AcDbArc
 50
104.9999999999944
 51
134.5217192951782
  0
POLYLINE
  5
DF3BD
330
1F
100
AcDbEntity
  8
AM_0
100
AcDb2dPolyline
 66
     1
 10
0.0
 20
0.0
 30
0.0
 70
   128
  0
VERTEX
  5
DF3BE
330
DF3BD
100
AcDbEntity
  8
AM_0
100
AcDbVertex
100
AcDb2dVertex
 10
3650.65447425015
 20
-302.1955751532987
 30
0.0
  0
VERTEX
  5
DF3BF
330
DF3BD
100
AcDbEntity
  8
AM_0
100
AcDbVertex
100
AcDb2dVertex
 10
3648.761031347654
 20
-303.078801639691
 30
0.0
  0
VERTEX
  5
DF3C0
330
DF3BD
100
AcDbEntity
  8
AM_0
100
AcDbVertex
100
AcDb2dVertex
 10
3647.446812545616
 20
-303.716852774474
 30
0.0
  0
VERTEX
  5
DF3C1
330
DF3BD
100
AcDbEntity
  8
AM_0
100
AcDbVertex
100
AcDb2dVertex
 10
3646.145251550461
 20
-304.370088405031
 30
0.0
  0
VERTEX
  5
DF3C2
330
DF3BD
100
AcDbEntity
  8
AM_0
100
AcDbVertex
100
AcDb2dVertex
 10
3644.859078366881
 20
-305.0376564450916
 30
0.0
  0
VERTEX
  5
DF3C3
330
DF3BD
100
AcDbEntity
  8
AM_0
100
AcDbVertex
100
AcDb2dVertex
 10
3643.585684951538
 20
-305.7218241992956
 30
0.0
  0
VERTEX
  5
DF3C4
330
DF3BD
100
AcDbEntity
  8
AM_0
100
AcDbVertex
100
AcDb2dVertex
 10
3642.955610553844
 20
-306.0694884961798
 30
0.0
  0
VERTEX
  5
DF3C5
330
DF3BD
100
AcDbEntity
  8
AM_0
100
AcDbVertex
100
AcDb2dVertex
 10
3642.332599226565
 20
-306.4196090040386
 30
0.0
  0
VERTEX
  5
DF3C6
330
DF3BD
100
AcDbEntity
  8
AM_0
100
AcDbVertex
100
AcDb2dVertex
 10
3641.718642580335
 20
-306.7712358352844
 30
0.0
  0
VERTEX
  5
DF3C7
330
DF3BD
100
AcDbEntity
  8
AM_0
100
AcDbVertex
100
AcDb2dVertex
 10
3641.115728966714
 20
-307.1234202733335
 30
0.0
  0
VERTEX
  5
DF3C8
330
DF3BD
100
AcDbEntity
  8
AM_0
100
AcDbVertex
100
AcDb2dVertex
 10
3640.52584681169
 20
-307.4752138793959
 30
0.0
  0
VERTEX
  5
DF3C9
330
DF3BD
100
AcDbEntity
  8
AM_0
100
AcDbVertex
100
AcDb2dVertex
 10
3639.950985429122
 20
-307.8256670835659
 30
0.0
  0
SEQEND
  5
DF3CA
330
DF3BD
100
AcDbEntity
  8
AM_0
  0
POLYLINE
  5
DF3CB
330
1F
100
AcDbEntity
  8
AM_0
100
AcDb2dPolyline
 66
     1
 10
0.0
 20
0.0
 30
0.0
 70
   128
  0
VERTEX
  5
DF3CC
330
DF3CB
100
AcDbEntity
  8
AM_0
100
AcDbVertex
100
AcDb2dVertex
 10
3635.412443379374
 20
-292.1450617384929
 30
0.0
  0
VERTEX
  5
DF3CD
330
DF3CB
100
AcDbEntity
  8
AM_0
100
AcDbVertex
100
AcDb2dVertex
 10
3637.089160525811
 20
-291.6587184053538
 30
0.0
  0
VERTEX
  5
DF3CE
330
DF3CB
100
AcDbEntity
  8
AM_0
100
AcDbVertex
100
AcDb2dVertex
 10
3638.589669175676
 20
-291.2381688211146
 30
0.0
  0
VERTEX
  5
DF3CF
330
DF3CB
100
AcDbEntity
  8
AM_0
100
AcDbVertex
100
AcDb2dVertex
 10
3640.096695062849
 20
-290.8188384146271
 30
0.0
  0
VERTEX
  5
DF3D0
330
DF3CB
100
AcDbEntity
  8
AM_0
100
AcDbVertex
100
AcDb2dVertex
 10
3641.609261296761
 20
-290.4017749701226
 30
0.0
  0
VERTEX
  5
DF3D1
330
DF3CB
100
AcDbEntity
  8
AM_0
100
AcDbVertex
100
AcDb2dVertex
 10
3643.126379279651
 20
-289.9880270268646
 30
0.0
  0
VERTEX
  5
DF3D2
330
DF3CB
100
AcDbEntity
  8
AM_0
100
AcDbVertex
100
AcDb2dVertex
 10
3644.647065156181
 20
-289.578643044338
 30
0.0
  0
VERTEX
  5
DF3D3
330
DF3CB
100
AcDbEntity
  8
AM_0
100
AcDbVertex
100
AcDb2dVertex
 10
3646.170337293358
 20
-289.1746708865526
 30
0.0
  0
VERTEX
  5
DF3D4
330
DF3CB
100
AcDbEntity
  8
AM_0
100
AcDbVertex
100
AcDb2dVertex
 10
3647.695209315763
 20
-288.7771584972972
 30
0.0
  0
SEQEND
  5
DF3D5
330
DF3CB
100
AcDbEntity
  8
AM_0
  0
POLYLINE
  5
DF3D6
330
1F
100
AcDbEntity
  8
AM_0
100
AcDb2dPolyline
 66
     1
 10
0.0
 20
0.0
 30
0.0
  0
VERTEX
  5
DF3D7
330
DF3D6
100
AcDbEntity
  8
AM_0
100
AcDbVertex
100
AcDb2dVertex
 10
3639.950214994702
 20
-307.8260408493624
 30
0.0
  0
VERTEX
  5
DF3D8
330
DF3D6
100
AcDbEntity
  8
AM_0
100
AcDbVertex
100
AcDb2dVertex
 10
3639.21454559557
 20
-308.2831756044098
 30
0.0
  0
VERTEX
  5
DF3D9
330
DF3D6
100
AcDbEntity
  8
AM_0
100
AcDbVertex
100
AcDb2dVertex
 10
3638.49329286251
 20
-308.739813348686
 30
0.0
  0
VERTEX
  5
DF3DA
330
DF3D6
100
AcDbEntity
  8
AM_0
100
AcDbVertex
100
AcDb2dVertex
 10
3638.142067342056
 20
-308.9666035468778
 30
0.0
  0
VERTEX
  5
DF3DB
330
DF3D6
100
AcDbEntity
  8
AM_0
100
AcDbVertex
100
AcDb2dVertex
 10
3637.799240082126
 20
-309.1916591194199
 30
0.0
  0
VERTEX
  5
DF3DC
330
DF3D6
100
AcDbEntity
  8
AM_0
100
AcDbVertex
100
AcDb2dVertex
 10
3637.466526698304
 20
-309.4142446635101
 30
0.0
  0
VERTEX
  5
DF3DD
330
DF3D6
100
AcDbEntity
  8
AM_0
100
AcDbVertex
100
AcDb2dVertex
 10
3637.456778565049
 20
-309.4208925542534
 30
0.0
  0
SEQEND
  5
DF3DE
330
DF3D6
100
AcDbEntity
  8
AM_0
  0
POLYLINE
  5
DF3DF
330
1F
100
AcDbEntity
  8
AM_0
100
AcDb2dPolyline
 66
     1
 10
0.0
 20
0.0
 30
0.0
 70
   128
  0
VERTEX
  5
DF3E0
330
DF3DF
100
AcDbEntity
  8
AM_0
100
AcDbVertex
100
AcDb2dVertex
 10
3626.350533502258
 20
-293.3946585374528
 30
0.0
  0
VERTEX
  5
DF3E1
330
DF3DF
100
AcDbEntity
  8
AM_0
100
AcDbVertex
100
AcDb2dVertex
 10
3626.449081954709
 20
-293.3982776069963
 30
0.0
  0
VERTEX
  5
DF3E2
330
DF3DF
100
AcDbEntity
  8
AM_0
100
AcDbVertex
100
AcDb2dVertex
 10
3626.547568444407
 20
-293.4035877555195
 30
0.0
  0
VERTEX
  5
DF3E3
330
DF3DF
100
AcDbEntity
  8
AM_0
100
AcDbVertex
100
AcDb2dVertex
 10
3626.645979339552
 20
-293.4105914447011
 30
0.0
  0
VERTEX
  5
DF3E4
330
DF3DF
100
AcDbEntity
  8
AM_0
100
AcDbVertex
100
AcDb2dVertex
 10
3626.744299897172
 20
-293.4192914339578
 30
0.0
  0
VERTEX
  5
DF3E5
330
DF3DF
100
AcDbEntity
  8
AM_0
100
AcDbVertex
100
AcDb2dVertex
 10
3626.842515036674
 20
-293.4296870003224
 30
0.0
  0
VERTEX
  5
DF3E6
330
DF3DF
100
AcDbEntity
  8
AM_0
100
AcDbVertex
100
AcDb2dVertex
 10
3626.940611166146
 20
-293.4417829766868
 30
0.0
  0
VERTEX
  5
DF3E7
330
DF3DF
100
AcDbEntity
  8
AM_0
100
AcDbVertex
100
AcDb2dVertex
 10
3627.038574018426
 20
-293.4555772311735
 30
0.0
  0
VERTEX
  5
DF3E8
330
DF3DF
100
AcDbEntity
  8
AM_0
100
AcDbVertex
100
AcDb2dVertex
 10
3627.136389148282
 20
-293.4710736343713
 30
0.0
  0
VERTEX
  5
DF3E9
330
DF3DF
100
AcDbEntity
  8
AM_0
100
AcDbVertex
100
AcDb2dVertex
 10
3627.234040959417
 20
-293.4882739833942
 30
0.0
  0
VERTEX
  5
DF3EA
330
DF3DF
100
AcDbEntity
  8
AM_0
100
AcDbVertex
100
AcDb2dVertex
 10
3627.331498317648
 20
-293.5071687563674
 30
0.0
  0
VERTEX
  5
DF3EB
330
DF3DF
100
AcDbEntity
  8
AM_0
100
AcDbVertex
100
AcDb2dVertex
 10
3627.428722866173
 20
-293.5277503667107
 30
0.0
  0
VERTEX
  5
DF3EC
330
DF3DF
100
AcDbEntity
  8
AM_0
100
AcDbVertex
100
AcDb2dVertex
 10
3627.525675315087
 20
-293.5500055231163
 30
0.0
  0
VERTEX
  5
DF3ED
330
DF3DF
100
AcDbEntity
  8
AM_0
100
AcDbVertex
100
AcDb2dVertex
 10
3627.622316752004
 20
-293.5739267878727
 30
0.0
  0
VERTEX
  5
DF3EE
330
DF3DF
100
AcDbEntity
  8
AM_0
100
AcDbVertex
100
AcDb2dVertex
 10
3627.718607887018
 20
-293.599500869672
 30
0.0
  0
VERTEX
  5
DF3EF
330
DF3DF
100
AcDbEntity
  8
AM_0
100
AcDbVertex
100
AcDb2dVertex
 10
3627.814509767854
 20
-293.6267179595908
 30
0.0
  0
VERTEX
  5
DF3F0
330
DF3DF
100
AcDbEntity
  8
AM_0
100
AcDbVertex
100
AcDb2dVertex
 10
3627.909983442232
 20
-293.655568248705
 30
0.0
  0
VERTEX
  5
DF3F1
330
DF3DF
100
AcDbEntity
  8
AM_0
100
AcDbVertex
100
AcDb2dVertex
 10
3628.004989104554
 20
-293.6860409657881
 30
0.0
  0
VERTEX
  5
DF3F2
330
DF3DF
100
AcDbEntity
  8
AM_0
100
AcDbVertex
100
AcDb2dVertex
 10
3628.099489171563
 20
-293.7181247441383
 30
0.0
  0
VERTEX
  5
DF3F3
330
DF3DF
100
AcDbEntity
  8
AM_0
100
AcDbVertex
100
AcDb2dVertex
 10
3628.193442726484
 20
-293.7518091102658
 30
0.0
  0
VERTEX
  5
DF3F4
330
DF3DF
100
AcDbEntity
  8
AM_0
100
AcDbVertex
100
AcDb2dVertex
 10
3628.286812483802
 20
-293.7870838086412
 30
0.0
  0
VERTEX
  5
DF3F5
330
DF3DF
100
AcDbEntity
  8
AM_0
100
AcDbVertex
100
AcDb2dVertex
 10
3628.379557526741
 20
-293.8239383657751
 30
0.0
  0
VERTEX
  5
DF3F6
330
DF3DF
100
AcDbEntity
  8
AM_0
100
AcDbVertex
100
AcDb2dVertex
 10
3628.471640272045
 20
-293.8623614149658
 30
0.0
  0
VERTEX
  5
DF3F7
330
DF3DF
100
AcDbEntity
  8
AM_0
100
AcDbVertex
100
AcDb2dVertex
 10
3628.563022323023
 20
-293.9023429984201
 30
0.0
  0
VERTEX
  5
DF3F8
330
DF3DF
100
AcDbEntity
  8
AM_0
100
AcDbVertex
100
AcDb2dVertex
 10
3628.653661651731
 20
-293.9438729403871
 30
0.0
  0
SEQEND
  5
DF3F9
330
DF3DF
100
AcDbEntity
  8
AM_0
  0
POLYLINE
  5
DF3FA
330
1F
100
AcDbEntity
  8
AM_0
100
AcDb2dPolyline
 66
     1
 10
0.0
 20
0.0
 30
0.0
 70
   128
  0
VERTEX
  5
DF3FB
330
DF3FA
100
AcDbEntity
  8
AM_0
100
AcDbVertex
100
AcDb2dVertex
 10
3637.456940112068
 20
-309.4207226758787
 30
0.0
  0
VERTEX
  5
DF3FC
330
DF3FA
100
AcDbEntity
  8
AM_0
100
AcDbVertex
100
AcDb2dVertex
 10
3636.849384182729
 20
-310.0596116804153
 30
0.0
  0
VERTEX
  5
DF3FD
330
DF3FA
100
AcDbEntity
  8
AM_0
100
AcDbVertex
100
AcDb2dVertex
 10
3636.286966623881
 20
-310.6908475441421
 30
0.0
  0
VERTEX
  5
DF3FE
330
DF3FA
100
AcDbEntity
  8
AM_0
100
AcDbVertex
100
AcDb2dVertex
 10
3636.026834399474
 20
-310.9966371991122
 30
0.0
  0
VERTEX
  5
DF3FF
330
DF3FA
100
AcDbEntity
  8
AM_0
100
AcDbVertex
100
AcDb2dVertex
 10
3635.782854180026
 20
-311.2923520067667
 30
0.0
  0
VERTEX
  5
DF400
330
DF3FA
100
AcDbEntity
  8
AM_0
100
AcDbVertex
100
AcDb2dVertex
 10
3635.556598063166
 20
-311.5753519844231
 30
0.0
  0
VERTEX
  5
DF401
330
DF3FA
100
AcDbEntity
  8
AM_0
100
AcDbVertex
100
AcDb2dVertex
 10
3635.349642144604
 20
-311.8429942916902
 30
0.0
  0
VERTEX
  5
DF402
330
DF3FA
100
AcDbEntity
  8
AM_0
100
AcDbVertex
100
AcDb2dVertex
 10
3635.163461382813
 20
-312.0927697778701
 30
0.0
  0
VERTEX
  5
DF403
330
DF3FA
100
AcDbEntity
  8
AM_0
100
AcDbVertex
100
AcDb2dVertex
 10
3634.998538011394
 20
-312.3229890839766
 30
0.0
  0
VERTEX
  5
DF404
330
DF3FA
100
AcDbEntity
  8
AM_0
100
AcDbVertex
100
AcDb2dVertex
 10
3634.855863256909
 20
-312.5304044721237
 30
0.0
  0
VERTEX
  5
DF405
330
DF3FA
100
AcDbEntity
  8
AM_0
100
AcDbVertex
100
AcDb2dVertex
 10
3634.736648122017
 20
-312.7113883544943
 30
0.0
  0
VERTEX
  5
DF406
330
DF3FA
100
AcDbEntity
  8
AM_0
100
AcDbVertex
100
AcDb2dVertex
 10
3634.642100940425
 20
-312.8623120719889
 30
0.0
  0
VERTEX
  5
DF407
330
DF3FA
100
AcDbEntity
  8
AM_0
100
AcDbVertex
100
AcDb2dVertex
 10
3634.573016606745
 20
-312.9799596520785
 30
0.0
  0
VERTEX
  5
DF408
330
DF3FA
100
AcDbEntity
  8
AM_0
100
AcDbVertex
100
AcDb2dVertex
 10
3634.530176358881
 20
-313.0579395397362
 30
0.0
  0
VERTEX
  5
DF409
330
DF3FA
100
AcDbEntity
  8
AM_0
100
AcDbVertex
100
AcDb2dVertex
 10
3634.515472575076
 20
-313.0861932524037
 30
0.0
  0
SEQEND
  5
DF40A
330
DF3FA
100
AcDbEntity
  8
AM_0
  0
POLYLINE
  5
DF40B
330
1F
100
AcDbEntity
  8
AM_0
100
AcDb2dPolyline
 66
     1
 10
0.0
 20
0.0
 30
0.0
 70
   128
  0
VERTEX
  5
DF40C
330
DF40B
100
AcDbEntity
  8
AM_0
100
AcDbVertex
100
AcDb2dVertex
 10
3626.65519024909
 20
-294.4109464083981
 30
0.0
  0
VERTEX
  5
DF40D
330
DF40B
100
AcDbEntity
  8
AM_0
100
AcDbVertex
100
AcDb2dVertex
 10
3626.675888429327
 20
-294.4073308781412
 30
0.0
  0
VERTEX
  5
DF40E
330
DF40B
100
AcDbEntity
  8
AM_0
100
AcDbVertex
100
AcDb2dVertex
 10
3626.745642481872
 20
-294.3940460594653
 30
0.0
  0
VERTEX
  5
DF40F
330
DF40B
100
AcDbEntity
  8
AM_0
100
AcDbVertex
100
AcDb2dVertex
 10
3626.875261407951
 20
-294.3674870737975
 30
0.0
  0
VERTEX
  5
DF410
330
DF40B
100
AcDbEntity
  8
AM_0
100
AcDbVertex
100
AcDb2dVertex
 10
3627.068515267457
 20
-294.325407530232
 30
0.0
  0
VERTEX
  5
DF411
330
DF40B
100
AcDbEntity
  8
AM_0
100
AcDbVertex
100
AcDb2dVertex
 10
3627.325879179998
 20
-294.266922676468
 30
0.0
  0
VERTEX
  5
DF412
330
DF40B
100
AcDbEntity
  8
AM_0
100
AcDbVertex
100
AcDb2dVertex
 10
3627.647913514886
 20
-294.1912059022356
 30
0.0
  0
VERTEX
  5
DF413
330
DF40B
100
AcDbEntity
  8
AM_0
100
AcDbVertex
100
AcDb2dVertex
 10
3627.833357307978
 20
-294.1466291372355
 30
0.0
  0
VERTEX
  5
DF414
330
DF40B
100
AcDbEntity
  8
AM_0
100
AcDbVertex
100
AcDb2dVertex
 10
3628.035090462835
 20
-294.0974637522508
 30
0.0
  0
VERTEX
  5
DF415
330
DF40B
100
AcDbEntity
  8
AM_0
100
AcDbVertex
100
AcDb2dVertex
 10
3628.481431382559
 20
-293.9868182456514
 30
0.0
  0
SEQEND
  5
DF416
330
DF40B
100
AcDbEntity
  8
AM_0
  0
POLYLINE
  5
DF417
330
1F
100
AcDbEntity
  8
AM_0
100
AcDb2dPolyline
 66
     1
 10
0.0
 20
0.0
 30
0.0
 70
   128
  0
VERTEX
  5
DF418
330
DF417
100
AcDbEntity
  8
AM_0
100
AcDbVertex
100
AcDb2dVertex
 10
3635.412443379374
 20
-292.145061738493
 30
0.0
  0
VERTEX
  5
DF419
330
DF417
100
AcDbEntity
  8
AM_0
100
AcDbVertex
100
AcDb2dVertex
 10
3634.944719294749
 20
-292.2788342487144
 30
0.0
  0
VERTEX
  5
DF41A
330
DF417
100
AcDbEntity
  8
AM_0
100
AcDbVertex
100
AcDb2dVertex
 10
3634.478189268188
 20
-292.4123427867057
 30
0.0
  0
VERTEX
  5
DF41B
330
DF417
100
AcDbEntity
  8
AM_0
100
AcDbVertex
100
AcDb2dVertex
 10
3634.013550025342
 20
-292.5444895884183
 30
0.0
  0
VERTEX
  5
DF41C
330
DF417
100
AcDbEntity
  8
AM_0
100
AcDbVertex
100
AcDb2dVertex
 10
3633.551782015518
 20
-292.6745379450362
 30
0.0
  0
VERTEX
  5
DF41D
330
DF417
100
AcDbEntity
  8
AM_0
100
AcDbVertex
100
AcDb2dVertex
 10
3633.095038193711
 20
-292.8016823115519
 30
0.0
  0
VERTEX
  5
DF41E
330
DF417
100
AcDbEntity
  8
AM_0
100
AcDbVertex
100
AcDb2dVertex
 10
3632.646289529711
 20
-292.9250587348417
 30
0.0
  0
VERTEX
  5
DF41F
330
DF417
100
AcDbEntity
  8
AM_0
100
AcDbVertex
100
AcDb2dVertex
 10
3632.208521895837
 20
-293.0438099872153
 30
0.0
  0
VERTEX
  5
DF420
330
DF417
100
AcDbEntity
  8
AM_0
100
AcDbVertex
100
AcDb2dVertex
 10
3631.784880344059
 20
-293.1570862088367
 30
0.0
  0
VERTEX
  5
DF421
330
DF417
100
AcDbEntity
  8
AM_0
100
AcDbVertex
100
AcDb2dVertex
 10
3631.378783105116
 20
-293.2640703364124
 30
0.0
  0
VERTEX
  5
DF422
330
DF417
100
AcDbEntity
  8
AM_0
100
AcDbVertex
100
AcDb2dVertex
 10
3630.993679602335
 20
-293.3639417124234
 30
0.0
  0
VERTEX
  5
DF423
330
DF417
100
AcDbEntity
  8
AM_0
100
AcDbVertex
100
AcDb2dVertex
 10
3630.632530545786
 20
-293.4560558857845
 30
0.0
  0
VERTEX
  5
DF424
330
DF417
100
AcDbEntity
  8
AM_0
100
AcDbVertex
100
AcDb2dVertex
 10
3630.295894904874
 20
-293.5406144114301
 30
0.0
  0
VERTEX
  5
DF425
330
DF417
100
AcDbEntity
  8
AM_0
100
AcDbVertex
100
AcDb2dVertex
 10
3629.983591534568
 20
-293.6180790867767
 30
0.0
  0
VERTEX
  5
DF426
330
DF417
100
AcDbEntity
  8
AM_0
100
AcDbVertex
100
AcDb2dVertex
 10
3629.695388909595
 20
-293.6889192538335
 30
0.0
  0
VERTEX
  5
DF427
330
DF417
100
AcDbEntity
  8
AM_0
100
AcDbVertex
100
AcDb2dVertex
 10
3629.430236820356
 20
-293.7537223896392
 30
0.0
  0
VERTEX
  5
DF428
330
DF417
100
AcDbEntity
  8
AM_0
100
AcDbVertex
100
AcDb2dVertex
 10
3629.186408246776
 20
-293.8131680007813
 30
0.0
  0
VERTEX
  5
DF429
330
DF417
100
AcDbEntity
  8
AM_0
100
AcDbVertex
100
AcDb2dVertex
 10
3628.962160910113
 20
-293.8679408733451
 30
0.0
  0
VERTEX
  5
DF42A
330
DF417
100
AcDbEntity
  8
AM_0
100
AcDbVertex
100
AcDb2dVertex
 10
3628.755824534101
 20
-293.9186433800452
 30
0.0
  0
VERTEX
  5
DF42B
330
DF417
100
AcDbEntity
  8
AM_0
100
AcDbVertex
100
AcDb2dVertex
 10
3628.565883741187
 20
-293.9657137207309
 30
0.0
  0
VERTEX
  5
DF42C
330
DF417
100
AcDbEntity
  8
AM_0
100
AcDbVertex
100
AcDb2dVertex
 10
3628.390843729006
 20
-294.0095690997925
 30
0.0
  0
VERTEX
  5
DF42D
330
DF417
100
AcDbEntity
  8
AM_0
100
AcDbVertex
100
AcDb2dVertex
 10
3628.229262414589
 20
-294.0505923493469
 30
0.0
  0
VERTEX
  5
DF42E
330
DF417
100
AcDbEntity
  8
AM_0
100
AcDbVertex
100
AcDb2dVertex
 10
3628.08001871534
 20
-294.0889731041925
 30
0.0
  0
VERTEX
  5
DF42F
330
DF417
100
AcDbEntity
  8
AM_0
100
AcDbVertex
100
AcDb2dVertex
 10
3627.942114468456
 20
-294.1248263796089
 30
0.0
  0
VERTEX
  5
DF430
330
DF417
100
AcDbEntity
  8
AM_0
100
AcDbVertex
100
AcDb2dVertex
 10
3627.814556213675
 20
-294.1582647398842
 30
0.0
  0
VERTEX
  5
DF431
330
DF417
100
AcDbEntity
  8
AM_0
100
AcDbVertex
100
AcDb2dVertex
 10
3627.696464585281
 20
-294.1893820872667
 30
0.0
  0
VERTEX
  5
DF432
330
DF417
100
AcDbEntity
  8
AM_0
100
AcDbVertex
100
AcDb2dVertex
 10
3627.587075383393
 20
-294.218250993015
 30
0.0
  0
VERTEX
  5
DF433
330
DF417
100
AcDbEntity
  8
AM_0
100
AcDbVertex
100
AcDb2dVertex
 10
3627.485627701754
 20
-294.2449407639635
 30
0.0
  0
VERTEX
  5
DF434
330
DF417
100
AcDbEntity
  8
AM_0
100
AcDbVertex
100
AcDb2dVertex
 10
3627.391447900981
 20
-294.269499705758
 30
0.0
  0
VERTEX
  5
DF435
330
DF417
100
AcDbEntity
  8
AM_0
100
AcDbVertex
100
AcDb2dVertex
 10
3627.304088127516
 20
-294.2919120520654
 30
0.0
  0
VERTEX
  5
DF436
330
DF417
100
AcDbEntity
  8
AM_0
100
AcDbVertex
100
AcDb2dVertex
 10
3627.223138267747
 20
-294.3121495422626
 30
0.0
  0
VERTEX
  5
DF437
330
DF417
100
AcDbEntity
  8
AM_0
100
AcDbVertex
100
AcDb2dVertex
 10
3627.148188505803
 20
-294.3301850268976
 30
0.0
  0
VERTEX
  5
DF438
330
DF417
100
AcDbEntity
  8
AM_0
100
AcDbVertex
100
AcDb2dVertex
 10
3627.078828767963
 20
-294.3459926165598
 30
0.0
  0
VERTEX
  5
DF439
330
DF417
100
AcDbEntity
  8
AM_0
100
AcDbVertex
100
AcDb2dVertex
 10
3627.014649536093
 20
-294.3595462729687
 30
0.0
  0
VERTEX
  5
DF43A
330
DF417
100
AcDbEntity
  8
AM_0
100
AcDbVertex
100
AcDb2dVertex
 10
3626.955241767865
 20
-294.3708150665525
 30
0.0
  0
VERTEX
  5
DF43B
330
DF417
100
AcDbEntity
  8
AM_0
100
AcDbVertex
100
AcDb2dVertex
 10
3626.900270412166
 20
-294.3797375232986
 30
0.0
  0
VERTEX
  5
DF43C
330
DF417
100
AcDbEntity
  8
AM_0
100
AcDbVertex
100
AcDb2dVertex
 10
3626.849491055292
 20
-294.3861993001675
 30
0.0
  0
VERTEX
  5
DF43D
330
DF417
100
AcDbEntity
  8
AM_0
100
AcDbVertex
100
AcDb2dVertex
 10
3626.802663252421
 20
-294.3900897544629
 30
0.0
  0
VERTEX
  5
DF43E
330
DF417
100
AcDbEntity
  8
AM_0
100
AcDbVertex
100
AcDb2dVertex
 10
3626.759548403557
 20
-294.391291794416
 30
0.0
  0
SEQEND
  5
DF43F
330
DF417
100
AcDbEntity
  8
AM_0
  0
POLYLINE
  5
DF440
330
1F
100
AcDbEntity
  8
AM_0
100
AcDb2dPolyline
 66
     1
 10
0.0
 20
0.0
 30
0.0
 70
   128
  0
VERTEX
  5
DF441
330
DF440
100
AcDbEntity
  8
AM_0
100
AcDbVertex
100
AcDb2dVertex
 10
3626.853541168311
 20
-294.3857047869994
 30
0.0
  0
VERTEX
  5
DF442
330
DF440
100
AcDbEntity
  8
AM_0
100
AcDbVertex
100
AcDb2dVertex
 10
3626.765986571041
 20
-294.3957894079103
 30
0.0
  0
VERTEX
  5
DF443
330
DF440
100
AcDbEntity
  8
AM_0
100
AcDbVertex
100
AcDb2dVertex
 10
3626.704088209313
 20
-294.4037835085471
 30
0.0
  0
VERTEX
  5
DF444
330
DF440
100
AcDbEntity
  8
AM_0
100
AcDbVertex
100
AcDb2dVertex
 10
3626.667328607252
 20
-294.4090492465625
 30
0.0
  0
VERTEX
  5
DF445
330
DF440
100
AcDbEntity
  8
AM_0
100
AcDbVertex
100
AcDb2dVertex
 10
3626.65519024909
 20
-294.4109464083981
 30
0.0
  0
SEQEND
  5
DF446
330
DF440
100
AcDbEntity
  8
AM_0
  0
POLYLINE
  5
DF447
330
1F
100
AcDbEntity
  8
AM_0
100
AcDb2dPolyline
 66
     1
 10
0.0
 20
0.0
 30
0.0
 70
   128
  0
VERTEX
  5
DF448
330
DF447
100
AcDbEntity
  8
AM_0
100
AcDbVertex
100
AcDb2dVertex
 10
3610.134054273995
 20
-313.2945583425714
 30
0.0
  0
VERTEX
  5
DF449
330
DF447
100
AcDbEntity
  8
AM_0
100
AcDbVertex
100
AcDb2dVertex
 10
3610.310464487769
 20
-313.7097880659048
 30
0.0
  0
VERTEX
  5
DF44A
330
DF447
100
AcDbEntity
  8
AM_0
100
AcDbVertex
100
AcDb2dVertex
 10
3610.502916266199
 20
-314.1178287308491
 30
0.0
  0
VERTEX
  5
DF44B
330
DF447
100
AcDbEntity
  8
AM_0
100
AcDbVertex
100
AcDb2dVertex
 10
3610.711119498768
 20
-314.5180598776744
 30
0.0
  0
VERTEX
  5
DF44C
330
DF447
100
AcDbEntity
  8
AM_0
100
AcDbVertex
100
AcDb2dVertex
 10
3610.93475889553
 20
-314.9098737482099
 30
0.0
  0
VERTEX
  5
DF44D
330
DF447
100
AcDbEntity
  8
AM_0
100
AcDbVertex
100
AcDb2dVertex
 10
3611.173494061538
 20
-315.2926755636404
 30
0.0
  0
VERTEX
  5
DF44E
330
DF447
100
AcDbEntity
  8
AM_0
100
AcDbVertex
100
AcDb2dVertex
 10
3611.426961426792
 20
-315.6658862824867
 30
0.0
  0
VERTEX
  5
DF44F
330
DF447
100
AcDbEntity
  8
AM_0
100
AcDbVertex
100
AcDb2dVertex
 10
3611.694775724248
 20
-316.0289392272047
 30
0.0
  0
VERTEX
  5
DF450
330
DF447
100
AcDbEntity
  8
AM_0
100
AcDbVertex
100
AcDb2dVertex
 10
3611.976526959371
 20
-316.3812865531995
 30
0.0
  0
VERTEX
  5
DF451
330
DF447
100
AcDbEntity
  8
AM_0
100
AcDbVertex
100
AcDb2dVertex
 10
3612.27178966635
 20
-316.7223937912582
 30
0.0
  0
VERTEX
  5
DF452
330
DF447
100
AcDbEntity
  8
AM_0
100
AcDbVertex
100
AcDb2dVertex
 10
3612.580111057372
 20
-317.0517445116288
 30
0.0
  0
VERTEX
  5
DF453
330
DF447
100
AcDbEntity
  8
AM_0
100
AcDbVertex
100
AcDb2dVertex
 10
3612.901024287599
 20
-317.3688409380066
 30
0.0
  0
VERTEX
  5
DF454
330
DF447
100
AcDbEntity
  8
AM_0
100
AcDbVertex
100
AcDb2dVertex
 10
3613.234041559483
 20
-317.6732004359505
 30
0.0
  0
VERTEX
  5
DF455
330
DF447
100
AcDbEntity
  8
AM_0
100
AcDbVertex
100
AcDb2dVertex
 10
3613.578656206933
 20
-317.9643632910842
 30
0.0
  0
VERTEX
  5
DF456
330
DF447
100
AcDbEntity
  8
AM_0
100
AcDbVertex
100
AcDb2dVertex
 10
3613.934347060228
 20
-318.2418867757221
 30
0.0
  0
VERTEX
  5
DF457
330
DF447
100
AcDbEntity
  8
AM_0
100
AcDbVertex
100
AcDb2dVertex
 10
3614.300574596793
 20
-318.5053485621629
 30
0.0
  0
VERTEX
  5
DF458
330
DF447
100
AcDbEntity
  8
AM_0
100
AcDbVertex
100
AcDb2dVertex
 10
3614.676782498992
 20
-318.754348091709
 30
0.0
  0
VERTEX
  5
DF459
330
DF447
100
AcDbEntity
  8
AM_0
100
AcDbVertex
100
AcDb2dVertex
 10
3615.062402396543
 20
-318.988506494889
 30
0.0
  0
VERTEX
  5
DF45A
330
DF447
100
AcDbEntity
  8
AM_0
100
AcDbVertex
100
AcDb2dVertex
 10
3615.456849679676
 20
-319.2074665223671
 30
0.0
  0
VERTEX
  5
DF45B
330
DF447
100
AcDbEntity
  8
AM_0
100
AcDbVertex
100
AcDb2dVertex
 10
3615.859526465833
 20
-319.4108947273963
 30
0.0
  0
VERTEX
  5
DF45C
330
DF447
100
AcDbEntity
  8
AM_0
100
AcDbVertex
100
AcDb2dVertex
 10
3616.269823117546
 20
-319.5984804636279
 30
0.0
  0
VERTEX
  5
DF45D
330
DF447
100
AcDbEntity
  8
AM_0
100
AcDbVertex
100
AcDb2dVertex
 10
3616.687117577877
 20
-319.7699378496062
 30
0.0
  0
VERTEX
  5
DF45E
330
DF447
100
AcDbEntity
  8
AM_0
100
AcDbVertex
100
AcDb2dVertex
 10
3617.11077733491
 20
-319.9250064333321
 30
0.0
  0
VERTEX
  5
DF45F
330
DF447
100
AcDbEntity
  8
AM_0
100
AcDbVertex
100
AcDb2dVertex
 10
3617.540158568431
 20
-320.0634502299627
 30
0.0
  0
VERTEX
  5
DF460
330
DF447
100
AcDbEntity
  8
AM_0
100
AcDbVertex
100
AcDb2dVertex
 10
3617.974609007632
 20
-320.1850617198906
 30
0.0
  0
SEQEND
  5
DF461
330
DF447
100
AcDbEntity
  8
AM_0
  0
POLYLINE
  5
DF462
330
1F
100
AcDbEntity
  8
AM_0
100
AcDb2dPolyline
 66
     1
 10
0.0
 20
0.0
 30
0.0
 70
   128
  0
VERTEX
  5
DF463
330
DF462
100
AcDbEntity
  8
AM_0
100
AcDbVertex
100
AcDb2dVertex
 10
3620.815942698333
 20
-294.0446982310368
 30
0.0
  0
VERTEX
  5
DF464
330
DF462
100
AcDbEntity
  8
AM_0
100
AcDbVertex
100
AcDb2dVertex
 10
3621.039163994397
 20
-293.9863594705331
 30
0.0
  0
VERTEX
  5
DF465
330
DF462
100
AcDbEntity
  8
AM_0
100
AcDbVertex
100
AcDb2dVertex
 10
3621.263303320438
 20
-293.9305901311272
 30
0.0
  0
VERTEX
  5
DF466
330
DF462
100
AcDbEntity
  8
AM_0
100
AcDbVertex
100
AcDb2dVertex
 10
3621.488445743793
 20
-293.877404338554
 30
0.0
  0
VERTEX
  5
DF467
330
DF462
100
AcDbEntity
  8
AM_0
100
AcDbVertex
100
AcDb2dVertex
 10
3621.714471340555
 20
-293.8268723367361
 30
0.0
  0
VERTEX
  5
DF468
330
DF462
100
AcDbEntity
  8
AM_0
100
AcDbVertex
100
AcDb2dVertex
 10
3621.941341359324
 20
-293.7790128457322
 30
0.0
  0
VERTEX
  5
DF469
330
DF462
100
AcDbEntity
  8
AM_0
100
AcDbVertex
100
AcDb2dVertex
 10
3622.169026136093
 20
-293.7338373868408
 30
0.0
  0
VERTEX
  5
DF46A
330
DF462
100
AcDbEntity
  8
AM_0
100
AcDbVertex
100
AcDb2dVertex
 10
3622.397485192867
 20
-293.6913615699074
 30
0.0
  0
VERTEX
  5
DF46B
330
DF462
100
AcDbEntity
  8
AM_0
100
AcDbVertex
100
AcDb2dVertex
 10
3622.626668526921
 20
-293.6515987931231
 30
0.0
  0
VERTEX
  5
DF46C
330
DF462
100
AcDbEntity
  8
AM_0
100
AcDbVertex
100
AcDb2dVertex
 10
3622.856525957455
 20
-293.6145684571438
 30
0.0
  0
VERTEX
  5
DF46D
330
DF462
100
AcDbEntity
  8
AM_0
100
AcDbVertex
100
AcDb2dVertex
 10
3623.08700637057
 20
-293.5802842578975
 30
0.0
  0
VERTEX
  5
DF46E
330
DF462
100
AcDbEntity
  8
AM_0
100
AcDbVertex
100
AcDb2dVertex
 10
3623.318059863258
 20
-293.5487655216063
 30
0.0
  0
VERTEX
  5
DF46F
330
DF462
100
AcDbEntity
  8
AM_0
100
AcDbVertex
100
AcDb2dVertex
 10
3623.549635579469
 20
-293.5200246841575
 30
0.0
  0
VERTEX
  5
DF470
330
DF462
100
AcDbEntity
  8
AM_0
100
AcDbVertex
100
AcDb2dVertex
 10
3623.781679547594
 20
-293.4940714433992
 30
0.0
  0
VERTEX
  5
DF471
330
DF462
100
AcDbEntity
  8
AM_0
100
AcDbVertex
100
AcDb2dVertex
 10
3624.0141369427
 20
-293.4709145348756
 30
0.0
  0
VERTEX
  5
DF472
330
DF462
100
AcDbEntity
  8
AM_0
100
AcDbVertex
100
AcDb2dVertex
 10
3624.2469551622
 20
-293.4505620986567
 30
0.0
  0
VERTEX
  5
DF473
330
DF462
100
AcDbEntity
  8
AM_0
100
AcDbVertex
100
AcDb2dVertex
 10
3624.480078527839
 20
-293.4330219079843
 30
0.0
  0
VERTEX
  5
DF474
330
DF462
100
AcDbEntity
  8
AM_0
100
AcDbVertex
100
AcDb2dVertex
 10
3624.713454734766
 20
-293.4183032140997
 30
0.0
  0
VERTEX
  5
DF475
330
DF462
100
AcDbEntity
  8
AM_0
100
AcDbVertex
100
AcDb2dVertex
 10
3624.947037549685
 20
-293.4064112594753
 30
0.0
  0
VERTEX
  5
DF476
330
DF462
100
AcDbEntity
  8
AM_0
100
AcDbVertex
100
AcDb2dVertex
 10
3625.180785183987
 20
-293.3973500956333
 30
0.0
  0
VERTEX
  5
DF477
330
DF462
100
AcDbEntity
  8
AM_0
100
AcDbVertex
100
AcDb2dVertex
 10
3625.414657555712
 20
-293.3911256987014
 30
0.0
  0
VERTEX
  5
DF478
330
DF462
100
AcDbEntity
  8
AM_0
100
AcDbVertex
100
AcDb2dVertex
 10
3625.648612876251
 20
-293.3877421202023
 30
0.0
  0
VERTEX
  5
DF479
330
DF462
100
AcDbEntity
  8
AM_0
100
AcDbVertex
100
AcDb2dVertex
 10
3625.882610210318
 20
-293.3872043739606
 30
0.0
  0
VERTEX
  5
DF47A
330
DF462
100
AcDbEntity
  8
AM_0
100
AcDbVertex
100
AcDb2dVertex
 10
3626.116601835931
 20
-293.3895121465902
 30
0.0
  0
VERTEX
  5
DF47B
330
DF462
100
AcDbEntity
  8
AM_0
100
AcDbVertex
100
AcDb2dVertex
 10
3626.350533502258
 20
-293.3946585374528
 30
0.0
  0
SEQEND
  5
DF47C
330
DF462
100
AcDbEntity
  8
AM_0
  0
POLYLINE
  5
DF47D
330
1F
100
AcDbEntity
  8
AM_0
100
AcDb2dPolyline
 66
     1
 10
0.0
 20
0.0
 30
0.0
 70
   128
  0
VERTEX
  5
DF47E
330
DF47D
100
AcDbEntity
  8
AM_0
100
AcDbVertex
100
AcDb2dVertex
 10
3612.278384276705
 20
-298.9264616127425
 30
0.0
  0
VERTEX
  5
DF47F
330
DF47D
100
AcDbEntity
  8
AM_0
100
AcDbVertex
100
AcDb2dVertex
 10
3611.965441722381
 20
-299.2464297402973
 30
0.0
  0
VERTEX
  5
DF480
330
DF47D
100
AcDbEntity
  8
AM_0
100
AcDbVertex
100
AcDb2dVertex
 10
3611.664892100467
 20
-299.5784892793412
 30
0.0
  0
VERTEX
  5
DF481
330
DF47D
100
AcDbEntity
  8
AM_0
100
AcDbVertex
100
AcDb2dVertex
 10
3611.377176971935
 20
-299.92216581983
 30
0.0
  0
VERTEX
  5
DF482
330
DF47D
100
AcDbEntity
  8
AM_0
100
AcDbVertex
100
AcDb2dVertex
 10
3611.10273682648
 20
-300.2769876206695
 30
0.0
  0
VERTEX
  5
DF483
330
DF47D
100
AcDbEntity
  8
AM_0
100
AcDbVertex
100
AcDb2dVertex
 10
3610.84201292734
 20
-300.6424791606441
 30
0.0
  0
VERTEX
  5
DF484
330
DF47D
100
AcDbEntity
  8
AM_0
100
AcDbVertex
100
AcDb2dVertex
 10
3610.595447321986
 20
-301.0181700676794
 30
0.0
  0
VERTEX
  5
DF485
330
DF47D
100
AcDbEntity
  8
AM_0
100
AcDbVertex
100
AcDb2dVertex
 10
3610.363465834057
 20
-301.4035627566824
 30
0.0
  0
VERTEX
  5
DF486
330
DF47D
100
AcDbEntity
  8
AM_0
100
AcDbVertex
100
AcDb2dVertex
 10
3610.146433073684
 20
-301.7980623089154
 30
0.0
  0
VERTEX
  5
DF487
330
DF47D
100
AcDbEntity
  8
AM_0
100
AcDbVertex
100
AcDb2dVertex
 10
3609.944694649239
 20
-302.2010473369655
 30
0.0
  0
VERTEX
  5
DF488
330
DF47D
100
AcDbEntity
  8
AM_0
100
AcDbVertex
100
AcDb2dVertex
 10
3609.758598649283
 20
-302.6118945979039
 30
0.0
  0
VERTEX
  5
DF489
330
DF47D
100
AcDbEntity
  8
AM_0
100
AcDbVertex
100
AcDb2dVertex
 10
3609.58848871769
 20
-303.0299820397528
 30
0.0
  0
VERTEX
  5
DF48A
330
DF47D
100
AcDbEntity
  8
AM_0
100
AcDbVertex
100
AcDb2dVertex
 10
3609.434713498608
 20
-303.4546862707147
 30
0.0
  0
VERTEX
  5
DF48B
330
DF47D
100
AcDbEntity
  8
AM_0
100
AcDbVertex
100
AcDb2dVertex
 10
3609.297592724341
 20
-303.8853737816423
 30
0.0
  0
VERTEX
  5
DF48C
330
DF47D
100
AcDbEntity
  8
AM_0
100
AcDbVertex
100
AcDb2dVertex
 10
3609.177336391826
 20
-304.3213571003723
 30
0.0
  0
VERTEX
  5
DF48D
330
DF47D
100
AcDbEntity
  8
AM_0
100
AcDbVertex
100
AcDb2dVertex
 10
3609.074120763953
 20
-304.7619339747452
 30
0.0
  0
VERTEX
  5
DF48E
330
DF47D
100
AcDbEntity
  8
AM_0
100
AcDbVertex
100
AcDb2dVertex
 10
3608.988121954742
 20
-305.206401597016
 30
0.0
  0
VERTEX
  5
DF48F
330
DF47D
100
AcDbEntity
  8
AM_0
100
AcDbVertex
100
AcDb2dVertex
 10
3608.919516375954
 20
-305.6540582706113
 30
0.0
  0
VERTEX
  5
DF490
330
DF47D
100
AcDbEntity
  8
AM_0
100
AcDbVertex
100
AcDb2dVertex
 10
3608.868481550518
 20
-306.10420200122
 30
0.0
  0
VERTEX
  5
DF491
330
DF47D
100
AcDbEntity
  8
AM_0
100
AcDbVertex
100
AcDb2dVertex
 10
3608.835161410845
 20
-306.55611210549
 30
0.0
  0
VERTEX
  5
DF492
330
DF47D
100
AcDbEntity
  8
AM_0
100
AcDbVertex
100
AcDb2dVertex
 10
3608.819553974283
 20
-307.0089989191526
 30
0.0
  0
VERTEX
  5
DF493
330
DF47D
100
AcDbEntity
  8
AM_0
100
AcDbVertex
100
AcDb2dVertex
 10
3608.821623960052
 20
-307.4620507354381
 30
0.0
  0
VERTEX
  5
DF494
330
DF47D
100
AcDbEntity
  8
AM_0
100
AcDbVertex
100
AcDb2dVertex
 10
3608.84133275386
 20
-307.9144567407902
 30
0.0
  0
VERTEX
  5
DF495
330
DF47D
100
AcDbEntity
  8
AM_0
100
AcDbVertex
100
AcDb2dVertex
 10
3608.878643075887
 20
-308.3654066572926
 30
0.0
  0
VERTEX
  5
DF496
330
DF47D
100
AcDbEntity
  8
AM_0
100
AcDbVertex
100
AcDb2dVertex
 10
3608.933516386273
 20
-308.8140899491818
 30
0.0
  0
SEQEND
  5
DF497
330
DF47D
100
AcDbEntity
  8
AM_0
  0
POLYLINE
  5
DF498
330
1F
100
AcDbEntity
  8
AM_0
100
AcDb2dPolyline
 66
     1
 10
0.0
 20
0.0
 30
0.0
 70
   128
  0
VERTEX
  5
DF499
330
DF498
100
AcDbEntity
  8
AM_0
100
AcDbVertex
100
AcDb2dVertex
 10
3632.905875384093
 20
-317.9210930833759
 30
0.0
  0
VERTEX
  5
DF49A
330
DF498
100
AcDbEntity
  8
AM_0
100
AcDbVertex
100
AcDb2dVertex
 10
3633.157377728761
 20
-317.7544589635556
 30
0.0
  0
VERTEX
  5
DF49B
330
DF498
100
AcDbEntity
  8
AM_0
100
AcDbVertex
100
AcDb2dVertex
 10
3633.400188223373
 20
-317.5748274786398
 30
0.0
  0
VERTEX
  5
DF49C
330
DF498
100
AcDbEntity
  8
AM_0
100
AcDbVertex
100
AcDb2dVertex
 10
3633.633636908486
 20
-317.3828140315274
 30
0.0
  0
VERTEX
  5
DF49D
330
DF498
100
AcDbEntity
  8
AM_0
100
AcDbVertex
100
AcDb2dVertex
 10
3633.856910606031
 20
-317.1791128927413
 30
0.0
  0
VERTEX
  5
DF49E
330
DF498
100
AcDbEntity
  8
AM_0
100
AcDbVertex
100
AcDb2dVertex
 10
3634.069332747935
 20
-316.9643281355043
 30
0.0
  0
VERTEX
  5
DF49F
330
DF498
100
AcDbEntity
  8
AM_0
100
AcDbVertex
100
AcDb2dVertex
 10
3634.270362522798
 20
-316.738972673434
 30
0.0
  0
VERTEX
  5
DF4A0
330
DF498
100
AcDbEntity
  8
AM_0
100
AcDbVertex
100
AcDb2dVertex
 10
3634.459470151157
 20
-316.5035517003486
 30
0.0
  0
VERTEX
  5
DF4A1
330
DF498
100
AcDbEntity
  8
AM_0
100
AcDbVertex
100
AcDb2dVertex
 10
3634.636137047908
 20
-316.2586055209555
 30
0.0
  0
VERTEX
  5
DF4A2
330
DF498
100
AcDbEntity
  8
AM_0
100
AcDbVertex
100
AcDb2dVertex
 10
3634.799913930948
 20
-316.0048130757186
 30
0.0
  0
VERTEX
  5
DF4A3
330
DF498
100
AcDbEntity
  8
AM_0
100
AcDbVertex
100
AcDb2dVertex
 10
3634.950370530623
 20
-315.7428887030408
 30
0.0
  0
VERTEX
  5
DF4A4
330
DF498
100
AcDbEntity
  8
AM_0
100
AcDbVertex
100
AcDb2dVertex
 10
3635.087078283925
 20
-315.4735486659308
 30
0.0
  0
VERTEX
  5
DF4A5
330
DF498
100
AcDbEntity
  8
AM_0
100
AcDbVertex
100
AcDb2dVertex
 10
3635.209689190663
 20
-315.1975209872638
 30
0.0
  0
VERTEX
  5
DF4A6
330
DF498
100
AcDbEntity
  8
AM_0
100
AcDbVertex
100
AcDb2dVertex
 10
3635.317941231141
 20
-314.9155523347718
 30
0.0
  0
VERTEX
  5
DF4A7
330
DF498
100
AcDbEntity
  8
AM_0
100
AcDbVertex
100
AcDb2dVertex
 10
3635.411575421437
 20
-314.6283873718019
 30
0.0
  0
VERTEX
  5
DF4A8
330
DF498
100
AcDbEntity
  8
AM_0
100
AcDbVertex
100
AcDb2dVertex
 10
3635.490343533211
 20
-314.3367797892562
 30
0.0
  0
VERTEX
  5
DF4A9
330
DF498
100
AcDbEntity
  8
AM_0
100
AcDbVertex
100
AcDb2dVertex
 10
3635.554030131241
 20
-314.0415167698817
 30
0.0
  0
VERTEX
  5
DF4AA
330
DF498
100
AcDbEntity
  8
AM_0
100
AcDbVertex
100
AcDb2dVertex
 10
3635.602432311616
 20
-313.7433922617476
 30
0.0
  0
VERTEX
  5
DF4AB
330
DF498
100
AcDbEntity
  8
AM_0
100
AcDbVertex
100
AcDb2dVertex
 10
3635.635347617038
 20
-313.4432018796805
 30
0.0
  0
VERTEX
  5
DF4AC
330
DF498
100
AcDbEntity
  8
AM_0
100
AcDbVertex
100
AcDb2dVertex
 10
3635.652642700812
 20
-313.141719147525
 30
0.0
  0
VERTEX
  5
DF4AD
330
DF498
100
AcDbEntity
  8
AM_0
100
AcDbVertex
100
AcDb2dVertex
 10
3635.6542642897
 20
-312.8396919651815
 30
0.0
  0
VERTEX
  5
DF4AE
330
DF498
100
AcDbEntity
  8
AM_0
100
AcDbVertex
100
AcDb2dVertex
 10
3635.640158445899
 20
-312.5378701970457
 30
0.0
  0
VERTEX
  5
DF4AF
330
DF498
100
AcDbEntity
  8
AM_0
100
AcDbVertex
100
AcDb2dVertex
 10
3635.610306119576
 20
-312.237053906824
 30
0.0
  0
VERTEX
  5
DF4B0
330
DF498
100
AcDbEntity
  8
AM_0
100
AcDbVertex
100
AcDb2dVertex
 10
3635.5648348203
 20
-311.9382789972676
 30
0.0
  0
VERTEX
  5
DF4B1
330
DF498
100
AcDbEntity
  8
AM_0
100
AcDbVertex
100
AcDb2dVertex
 10
3635.503909157265
 20
-311.6426220456994
 30
0.0
  0
SEQEND
  5
DF4B2
330
DF498
100
AcDbEntity
  8
AM_0
  0
POLYLINE
  5
DF4B3
330
1F
100
AcDbEntity
  8
AM_0
100
AcDb2dPolyline
 66
     1
 10
0.0
 20
0.0
 30
0.0
 70
   128
  0
VERTEX
  5
DF4B4
330
DF4B3
100
AcDbEntity
  8
AM_0
100
AcDbVertex
100
AcDb2dVertex
 10
3627.809233177908
 20
-320.1440136128987
 30
0.0
  0
VERTEX
  5
DF4B5
330
DF4B3
100
AcDbEntity
  8
AM_0
100
AcDbVertex
100
AcDb2dVertex
 10
3628.032651573168
 20
-320.0826780107047
 30
0.0
  0
VERTEX
  5
DF4B6
330
DF4B3
100
AcDbEntity
  8
AM_0
100
AcDbVertex
100
AcDb2dVertex
 10
3628.255317643984
 20
-320.0185213613985
 30
0.0
  0
VERTEX
  5
DF4B7
330
DF4B3
100
AcDbEntity
  8
AM_0
100
AcDbVertex
100
AcDb2dVertex
 10
3628.47723242175
 20
-319.9515386248185
 30
0.0
  0
VERTEX
  5
DF4B8
330
DF4B3
100
AcDbEntity
  8
AM_0
100
AcDbVertex
100
AcDb2dVertex
 10
3628.698397791179
 20
-319.8817257231055
 30
0.0
  0
VERTEX
  5
DF4B9
330
DF4B3
100
AcDbEntity
  8
AM_0
100
AcDbVertex
100
AcDb2dVertex
 10
3628.918815081406
 20
-319.8090787272688
 30
0.0
  0
VERTEX
  5
DF4BA
330
DF4B3
100
AcDbEntity
  8
AM_0
100
AcDbVertex
100
AcDb2dVertex
 10
3629.138486434993
 20
-319.7335922994086
 30
0.0
  0
VERTEX
  5
DF4BB
330
DF4B3
100
AcDbEntity
  8
AM_0
100
AcDbVertex
100
AcDb2dVertex
 10
3629.357412605542
 20
-319.6552614737975
 30
0.0
  0
VERTEX
  5
DF4BC
330
DF4B3
100
AcDbEntity
  8
AM_0
100
AcDbVertex
100
AcDb2dVertex
 10
3629.575595775505
 20
-319.5740832837477
 30
0.0
  0
VERTEX
  5
DF4BD
330
DF4B3
100
AcDbEntity
  8
AM_0
100
AcDbVertex
100
AcDb2dVertex
 10
3629.793020686218
 20
-319.4900630087574
 30
0.0
  0
VERTEX
  5
DF4BE
330
DF4B3
100
AcDbEntity
  8
AM_0
100
AcDbVertex
100
AcDb2dVertex
 10
3630.009602434196
 20
-319.4032460267016
 30
0.0
  0
VERTEX
  5
DF4BF
330
DF4B3
100
AcDbEntity
  8
AM_0
100
AcDbVertex
100
AcDb2dVertex
 10
3630.225241254748
 20
-319.3136900341564
 30
0.0
  0
VERTEX
  5
DF4C0
330
DF4B3
100
AcDbEntity
  8
AM_0
100
AcDbVertex
100
AcDb2dVertex
 10
3630.439834843161
 20
-319.2214510263945
 30
0.0
  0
VERTEX
  5
DF4C1
330
DF4B3
100
AcDbEntity
  8
AM_0
100
AcDbVertex
100
AcDb2dVertex
 10
3630.653282561475
 20
-319.1265845520822
 30
0.0
  0
VERTEX
  5
DF4C2
330
DF4B3
100
AcDbEntity
  8
AM_0
100
AcDbVertex
100
AcDb2dVertex
 10
3630.865483811623
 20
-319.0291485310984
 30
0.0
  0
VERTEX
  5
DF4C3
330
DF4B3
100
AcDbEntity
  8
AM_0
100
AcDbVertex
100
AcDb2dVertex
 10
3631.076336844472
 20
-318.9291988098476
 30
0.0
  0
VERTEX
  5
DF4C4
330
DF4B3
100
AcDbEntity
  8
AM_0
100
AcDbVertex
100
AcDb2dVertex
 10
3631.285741022068
 20
-318.8267909369958
 30
0.0
  0
VERTEX
  5
DF4C5
330
DF4B3
100
AcDbEntity
  8
AM_0
100
AcDbVertex
100
AcDb2dVertex
 10
3631.493612889725
 20
-318.7219734750652
 30
0.0
  0
VERTEX
  5
DF4C6
330
DF4B3
100
AcDbEntity
  8
AM_0
100
AcDbVertex
100
AcDb2dVertex
 10
3631.699942010977
 20
-318.6147563661998
 30
0.0
  0
VERTEX
  5
DF4C7
330
DF4B3
100
AcDbEntity
  8
AM_0
100
AcDbVertex
100
AcDb2dVertex
 10
3631.904733683838
 20
-318.5051393817518
 30
0.0
  0
VERTEX
  5
DF4C8
330
DF4B3
100
AcDbEntity
  8
AM_0
100
AcDbVertex
100
AcDb2dVertex
 10
3632.107995468547
 20
-318.3931240688111
 30
0.0
  0
VERTEX
  5
DF4C9
330
DF4B3
100
AcDbEntity
  8
AM_0
100
AcDbVertex
100
AcDb2dVertex
 10
3632.309734072027
 20
-318.2787110121651
 30
0.0
  0
VERTEX
  5
DF4CA
330
DF4B3
100
AcDbEntity
  8
AM_0
100
AcDbVertex
100
AcDb2dVertex
 10
3632.509955645611
 20
-318.1619009454686
 30
0.0
  0
VERTEX
  5
DF4CB
330
DF4B3
100
AcDbEntity
  8
AM_0
100
AcDbVertex
100
AcDb2dVertex
 10
3632.708667193957
 20
-318.0426955646808
 30
0.0
  0
VERTEX
  5
DF4CC
330
DF4B3
100
AcDbEntity
  8
AM_0
100
AcDbVertex
100
AcDb2dVertex
 10
3632.905875384093
 20
-317.9210930833759
 30
0.0
  0
SEQEND
  5
DF4CD
330
DF4B3
100
AcDbEntity
  8
AM_0
  0
ARC
  5
DF4CE
330
1F
100
AcDbEntity
  8
AM_0
100
AcDbCircle
 10
3628.041062207787
 20
-306.0953142963807
 30
0.0
 40
19.30000070431542
100
AcDbArc
 50
188.0981457789389
 51
194.9999999999944
  0
DIMENSION
  5
DF4CF
330
1F
100
AcDbEntity
  8
AM_5
100
AcDbDimension
  2
*D247
 10
3742.093544330233
 20
-219.3442826045492
 30
0.0
 11
3738.993544330234
 21
-232.7567057205173
 31
0.0
 70
    32
 71
     5
 42
26.82484623193739
  3
SYS$0
100
AcDbAlignedDimension
 13
3729.133361939253
 23
-246.1691288364866
 33
0.0
 14
3729.777422640182
 24
-219.3442826045492
 34
0.0
 50
270.0
100
AcDbRotatedDimension
1001
ACAD
1000
DSTYLE
1002
{
1070
    48
1040
0.0
1070
   271
1070
     0
1070
   272
1070
     2
1002
}
  0
DIMENSION
  5
DF4D0
330
1F
100
AcDbEntity
  8
AM_5
100
AcDbDimension
  2
*D248
 10
3750.093544330233
 20
-181.5932055372813
 30
0.0
 11
3746.993544330234
 21
-213.8811671868834
 31
0.0
 70
    32
 71
     5
 42
64.57592329920524
  3
SYS$0
100
AcDbAlignedDimension
 13
3729.133361939253
 23
-246.1691288364866
 33
0.0
 14
3645.488698726627
 24
-181.5932055372813
 34
0.0
 50
270.0
100
AcDbRotatedDimension
1001
ACAD
1000
DSTYLE
1002
{
1070
    48
1040
0.0
1070
   271
1070
     0
1070
   272
1070
     2
1002
}
  0
DIMENSION
  5
DF4D1
330
1F
100
AcDbEntity
  8
AM_5
100
AcDbDimension
  2
*D249
 10
3733.093544330233
 20
-256.5932055372819
 30
0.0
 11
3677.29112152843
 21
-253.4932055372819
 31
0.0
 70
    32
 71
     5
 42
111.6048456036064
  3
SYS$0
100
AcDbAlignedDimension
 13
3621.488698726627
 23
-248.5932055372825
 33
0.0
 14
3733.093544330233
 24
-241.9546500001997
 34
0.0
100
AcDbRotatedDimension
1001
ACAD
1000
DSTYLE
1002
{
1070
    47
1040
0.2
1070
    48
1040
0.0
1070
   179
1070
     1
1070
   271
1070
     0
1002
}
  0
LINE
  5
DF4D2
330
1F
100
AcDbEntity
  8
AM_0
100
AcDbLine
 10
3635.62318204731
 20
-190.1932055372811
 30
0.0
 11
3608.787180427377
 21
-190.1932055372812
 31
0.0
  0
POLYLINE
  5
DF4D3
330
1F
100
AcDbEntity
  8
AM_0
100
AcDb2dPolyline
 66
     1
 10
0.0
 20
0.0
 30
0.0
 70
   128
  0
VERTEX
  5
DF4D4
330
DF4D3
100
AcDbEntity
  8
AM_0
100
AcDbVertex
100
AcDb2dVertex
 10
3718.499318709325
 20
-246.1733225809645
 30
0.0
  0
VERTEX
  5
DF4D5
330
DF4D3
100
AcDbEntity
  8
AM_0
100
AcDbVertex
100
AcDb2dVertex
 10
3718.498159136724
 20
-246.173317979486
 30
0.0
  0
VERTEX
  5
DF4D6
330
DF4D3
100
AcDbEntity
  8
AM_0
100
AcDbVertex
100
AcDb2dVertex
 10
3718.496990361165
 20
-246.1733087765288
 30
0.0
  0
VERTEX
  5
DF4D7
330
DF4D3
100
AcDbEntity
  8
AM_0
100
AcDbVertex
100
AcDb2dVertex
 10
3718.495830788563
 20
-246.1732903706145
 30
0.0
  0
VERTEX
  5
DF4D8
330
DF4D3
100
AcDbEntity
  8
AM_0
100
AcDbVertex
100
AcDb2dVertex
 10
3718.494662013005
 20
-246.1732627617431
 30
0.0
  0
VERTEX
  5
DF4D9
330
DF4D3
100
AcDbEntity
  8
AM_0
100
AcDbVertex
100
AcDb2dVertex
 10
3718.493502440403
 20
-246.1732259499144
 30
0.0
  0
VERTEX
  5
DF4DA
330
DF4D3
100
AcDbEntity
  8
AM_0
100
AcDbVertex
100
AcDb2dVertex
 10
3718.492342867802
 20
-246.1731845366072
 30
0.0
  0
VERTEX
  5
DF4DB
330
DF4D3
100
AcDbEntity
  8
AM_0
100
AcDbVertex
100
AcDb2dVertex
 10
3718.491174092244
 20
-246.1731385218214
 30
0.0
  0
VERTEX
  5
DF4DC
330
DF4D3
100
AcDbEntity
  8
AM_0
100
AcDbVertex
100
AcDb2dVertex
 10
3718.490014519642
 20
-246.1730787026
 30
0.0
  0
VERTEX
  5
DF4DD
330
DF4D3
100
AcDbEntity
  8
AM_0
100
AcDbVertex
100
AcDb2dVertex
 10
3718.488854947042
 20
-246.1730142818999
 30
0.0
  0
VERTEX
  5
DF4DE
330
DF4D3
100
AcDbEntity
  8
AM_0
100
AcDbVertex
100
AcDb2dVertex
 10
3718.487686171483
 20
-246.1729452597212
 30
0.0
  0
VERTEX
  5
DF4DF
330
DF4D3
100
AcDbEntity
  8
AM_0
100
AcDbVertex
100
AcDb2dVertex
 10
3718.486526598882
 20
-246.1728624331068
 30
0.0
  0
VERTEX
  5
DF4E0
330
DF4D3
100
AcDbEntity
  8
AM_0
100
AcDbVertex
100
AcDb2dVertex
 10
3718.485357823323
 20
-246.1727796064925
 30
0.0
  0
VERTEX
  5
DF4E1
330
DF4D3
100
AcDbEntity
  8
AM_0
100
AcDbVertex
100
AcDb2dVertex
 10
3718.484198250722
 20
-246.1726829754424
 30
0.0
  0
VERTEX
  5
DF4E2
330
DF4D3
100
AcDbEntity
  8
AM_0
100
AcDbVertex
100
AcDb2dVertex
 10
3718.48303867812
 20
-246.1725817429137
 30
0.0
  0
VERTEX
  5
DF4E3
330
DF4D3
100
AcDbEntity
  8
AM_0
100
AcDbVertex
100
AcDb2dVertex
 10
3718.481869902562
 20
-246.1724713074278
 30
0.0
  0
VERTEX
  5
DF4E4
330
DF4D3
100
AcDbEntity
  8
AM_0
100
AcDbVertex
100
AcDb2dVertex
 10
3718.480710329961
 20
-246.1723562704634
 30
0.0
  0
VERTEX
  5
DF4E5
330
DF4D3
100
AcDbEntity
  8
AM_0
100
AcDbVertex
100
AcDb2dVertex
 10
3718.479550757359
 20
-246.1722320305419
 30
0.0
  0
VERTEX
  5
DF4E6
330
DF4D3
100
AcDbEntity
  8
AM_0
100
AcDbVertex
100
AcDb2dVertex
 10
3718.478381981801
 20
-246.1721031891417
 30
0.0
  0
VERTEX
  5
DF4E7
330
DF4D3
100
AcDbEntity
  8
AM_0
100
AcDbVertex
100
AcDb2dVertex
 10
3718.477222409199
 20
-246.1719651447844
 30
0.0
  0
VERTEX
  5
DF4E8
330
DF4D3
100
AcDbEntity
  8
AM_0
100
AcDbVertex
100
AcDb2dVertex
 10
3718.476062836598
 20
-246.1718178974699
 30
0.0
  0
VERTEX
  5
DF4E9
330
DF4D3
100
AcDbEntity
  8
AM_0
100
AcDbVertex
100
AcDb2dVertex
 10
3718.474903263996
 20
-246.1716660486769
 30
0.0
  0
VERTEX
  5
DF4EA
330
DF4D3
100
AcDbEntity
  8
AM_0
100
AcDbVertex
100
AcDb2dVertex
 10
3718.473734488438
 20
-246.1715049969267
 30
0.0
  0
VERTEX
  5
DF4EB
330
DF4D3
100
AcDbEntity
  8
AM_0
100
AcDbVertex
100
AcDb2dVertex
 10
3718.472574915837
 20
-246.1713347422194
 30
0.0
  0
VERTEX
  5
DF4EC
330
DF4D3
100
AcDbEntity
  8
AM_0
100
AcDbVertex
100
AcDb2dVertex
 10
3718.471415343236
 20
-246.1711598860334
 30
0.0
  0
SEQEND
  5
DF4ED
330
DF4D3
100
AcDbEntity
  8
AM_0
  0
POLYLINE
  5
DF4EE
330
1F
100
AcDbEntity
  8
AM_0
100
AcDb2dPolyline
 66
     1
 10
0.0
 20
0.0
 30
0.0
  0
VERTEX
  5
DF4EF
330
DF4EE
100
AcDbEntity
  8
AM_0
100
AcDbVertex
100
AcDb2dVertex
 10
3654.01761812867
 20
-244.8298938048788
 30
0.0
  0
VERTEX
  5
DF4F0
330
DF4EE
100
AcDbEntity
  8
AM_0
100
AcDbVertex
100
AcDb2dVertex
 10
3654.908603875971
 20
-244.8109127057501
 30
0.0
  0
VERTEX
  5
DF4F1
330
DF4EE
100
AcDbEntity
  8
AM_0
100
AcDbVertex
100
AcDb2dVertex
 10
3655.355111319368
 20
-244.8020640624471
 30
0.0
  0
VERTEX
  5
DF4F2
330
DF4EE
100
AcDbEntity
  8
AM_0
100
AcDbVertex
100
AcDb2dVertex
 10
3655.802344768705
 20
-244.7936479581304
 30
0.0
  0
VERTEX
  5
DF4F3
330
DF4EE
100
AcDbEntity
  8
AM_0
100
AcDbVertex
100
AcDb2dVertex
 10
3656.250335316182
 20
-244.7856643927999
 30
0.0
  0
VERTEX
  5
DF4F4
330
DF4EE
100
AcDbEntity
  8
AM_0
100
AcDbVertex
100
AcDb2dVertex
 10
3656.699118892232
 20
-244.778122569413
 30
0.0
  0
VERTEX
  5
DF4F5
330
DF4EE
100
AcDbEntity
  8
AM_0
100
AcDbVertex
100
AcDb2dVertex
 10
3657.148734553536
 20
-244.7710224879692
 30
0.0
  0
VERTEX
  5
DF4F6
330
DF4EE
100
AcDbEntity
  8
AM_0
100
AcDbVertex
100
AcDb2dVertex
 10
3657.599219208865
 20
-244.764364148469
 30
0.0
  0
VERTEX
  5
DF4F7
330
DF4EE
100
AcDbEntity
  8
AM_0
100
AcDbVertex
100
AcDb2dVertex
 10
3658.050613988375
 20
-244.758147550912
 30
0.0
  0
VERTEX
  5
DF4F8
330
DF4EE
100
AcDbEntity
  8
AM_0
100
AcDbVertex
100
AcDb2dVertex
 10
3658.502949133804
 20
-244.7523772967767
 30
0.0
  0
VERTEX
  5
DF4F9
330
DF4EE
100
AcDbEntity
  8
AM_0
100
AcDbVertex
100
AcDb2dVertex
 10
3658.956270368862
 20
-244.7470579875422
 30
0.0
  0
VERTEX
  5
DF4FA
330
DF4EE
100
AcDbEntity
  8
AM_0
100
AcDbVertex
100
AcDb2dVertex
 10
3659.410607786423
 20
-244.7421850217295
 30
0.0
  0
VERTEX
  5
DF4FB
330
DF4EE
100
AcDbEntity
  8
AM_0
100
AcDbVertex
100
AcDb2dVertex
 10
3659.86600503672
 20
-244.7377676022959
 30
0.0
  0
VERTEX
  5
DF4FC
330
DF4EE
100
AcDbEntity
  8
AM_0
100
AcDbVertex
100
AcDb2dVertex
 10
3660.322487693506
 20
-244.7337965262844
 30
0.0
  0
VERTEX
  5
DF4FD
330
DF4EE
100
AcDbEntity
  8
AM_0
100
AcDbVertex
100
AcDb2dVertex
 10
3660.780077183579
 20
-244.730257989259
 30
0.0
  0
VERTEX
  5
DF4FE
330
DF4EE
100
AcDbEntity
  8
AM_0
100
AcDbVertex
100
AcDb2dVertex
 10
3661.238799378427
 20
-244.7271473897411
 30
0.0
  0
VERTEX
  5
DF4FF
330
DF4EE
100
AcDbEntity
  8
AM_0
100
AcDbVertex
100
AcDb2dVertex
 10
3661.698662221922
 20
-244.7244509232955
 30
0.0
  0
VERTEX
  5
DF500
330
DF4EE
100
AcDbEntity
  8
AM_0
100
AcDbVertex
100
AcDb2dVertex
 10
3662.159696030237
 20
-244.7221593869643
 30
0.0
  0
VERTEX
  5
DF501
330
DF4EE
100
AcDbEntity
  8
AM_0
100
AcDbVertex
100
AcDb2dVertex
 10
3662.621917711053
 20
-244.7202589763121
 30
0.0
  0
VERTEX
  5
DF502
330
DF4EE
100
AcDbEntity
  8
AM_0
100
AcDbVertex
100
AcDb2dVertex
 10
3663.085348616735
 20
-244.7187404883818
 30
0.0
  0
VERTEX
  5
DF503
330
DF4EE
100
AcDbEntity
  8
AM_0
100
AcDbVertex
100
AcDb2dVertex
 10
3663.550005580529
 20
-244.7175901187377
 30
0.0
  0
VERTEX
  5
DF504
330
DF4EE
100
AcDbEntity
  8
AM_0
100
AcDbVertex
100
AcDb2dVertex
 10
3664.015889878891
 20
-244.7167848599868
 30
0.0
  0
VERTEX
  5
DF505
330
DF4EE
100
AcDbEntity
  8
AM_0
100
AcDbVertex
100
AcDb2dVertex
 10
3664.482961445507
 20
-244.7162694943862
 30
0.0
  0
VERTEX
  5
DF506
330
DF4EE
100
AcDbEntity
  8
AM_0
100
AcDbVertex
100
AcDb2dVertex
 10
3664.951171749923
 20
-244.7159934056716
 30
0.0
  0
VERTEX
  5
DF507
330
DF4EE
100
AcDbEntity
  8
AM_0
100
AcDbVertex
100
AcDb2dVertex
 10
3665.420467668123
 20
-244.7158967746216
 30
0.0
  0
VERTEX
  5
DF508
330
DF4EE
100
AcDbEntity
  8
AM_0
100
AcDbVertex
100
AcDb2dVertex
 10
3665.890796883804
 20
-244.7159105790574
 30
0.0
  0
VERTEX
  5
DF509
330
DF4EE
100
AcDbEntity
  8
AM_0
100
AcDbVertex
100
AcDb2dVertex
 10
3666.362062398643
 20
-244.7159197820145
 30
0.0
  0
VERTEX
  5
DF50A
330
DF4EE
100
AcDbEntity
  8
AM_0
100
AcDbVertex
100
AcDb2dVertex
 10
3666.834165066799
 20
-244.7158461583574
 30
0.0
  0
VERTEX
  5
DF50B
330
DF4EE
100
AcDbEntity
  8
AM_0
100
AcDbVertex
100
AcDb2dVertex
 10
3667.307037537752
 20
-244.7157081140003
 30
0.0
  0
SEQEND
  5
DF50C
330
DF4EE
100
AcDbEntity
  8
AM_0
  0
POLYLINE
  5
DF50D
330
1F
100
AcDbEntity
  8
AM_0
100
AcDb2dPolyline
 66
     1
 10
0.0
 20
0.0
 30
0.0
  0
VERTEX
  5
DF50E
330
DF50D
100
AcDbEntity
  8
AM_0
100
AcDbVertex
100
AcDb2dVertex
 10
3637.705617459226
 20
-245.4690161717818
 30
0.0
  0
VERTEX
  5
DF50F
330
DF50D
100
AcDbEntity
  8
AM_0
100
AcDbVertex
100
AcDb2dVertex
 10
3638.149430542738
 20
-245.4442694199965
 30
0.0
  0
VERTEX
  5
DF510
330
DF50D
100
AcDbEntity
  8
AM_0
100
AcDbVertex
100
AcDb2dVertex
 10
3638.592741594249
 20
-245.419992019026
 30
0.0
  0
VERTEX
  5
DF511
330
DF50D
100
AcDbEntity
  8
AM_0
100
AcDbVertex
100
AcDb2dVertex
 10
3639.035542479227
 20
-245.3961793673918
 30
0.0
  0
VERTEX
  5
DF512
330
DF50D
100
AcDbEntity
  8
AM_0
100
AcDbVertex
100
AcDb2dVertex
 10
3639.477867309615
 20
-245.3728314650938
 30
0.0
  0
VERTEX
  5
DF513
330
DF50D
100
AcDbEntity
  8
AM_0
100
AcDbVertex
100
AcDb2dVertex
 10
3639.919759584012
 20
-245.3499345076964
 30
0.0
  0
VERTEX
  5
DF514
330
DF50D
100
AcDbEntity
  8
AM_0
100
AcDbVertex
100
AcDb2dVertex
 10
3640.361252526496
 20
-245.3274792922425
 30
0.0
  0
VERTEX
  5
DF515
330
DF50D
100
AcDbEntity
  8
AM_0
100
AcDbVertex
100
AcDb2dVertex
 10
3640.802375495898
 20
-245.3054612172532
 30
0.0
  0
VERTEX
  5
DF516
330
DF50D
100
AcDbEntity
  8
AM_0
100
AcDbVertex
100
AcDb2dVertex
 10
3641.243162481823
 20
-245.2838710797717
 30
0.0
  0
VERTEX
  5
DF517
330
DF50D
100
AcDbEntity
  8
AM_0
100
AcDbVertex
100
AcDb2dVertex
 10
3641.683640509107
 20
-245.2627088797977
 30
0.0
  0
VERTEX
  5
DF518
330
DF50D
100
AcDbEntity
  8
AM_0
100
AcDbVertex
100
AcDb2dVertex
 10
3642.12384060067
 20
-245.241956211417
 30
0.0
  0
VERTEX
  5
DF519
330
DF50D
100
AcDbEntity
  8
AM_0
100
AcDbVertex
100
AcDb2dVertex
 10
3642.563793258388
 20
-245.2216222775867
 30
0.0
  0
VERTEX
  5
DF51A
330
DF50D
100
AcDbEntity
  8
AM_0
100
AcDbVertex
100
AcDb2dVertex
 10
3643.003531392568
 20
-245.2016932738712
 30
0.0
  0
VERTEX
  5
DF51B
330
DF50D
100
AcDbEntity
  8
AM_0
100
AcDbVertex
100
AcDb2dVertex
 10
3643.443083245524
 20
-245.1821692002706
 30
0.0
  0
VERTEX
  5
DF51C
330
DF50D
100
AcDbEntity
  8
AM_0
100
AcDbVertex
100
AcDb2dVertex
 10
3643.882477245661
 20
-245.1630408538274
 30
0.0
  0
VERTEX
  5
DF51D
330
DF50D
100
AcDbEntity
  8
AM_0
100
AcDbVertex
100
AcDb2dVertex
 10
3644.321748413976
 20
-245.1443082345421
 30
0.0
  0
VERTEX
  5
DF51E
330
DF50D
100
AcDbEntity
  8
AM_0
100
AcDbVertex
100
AcDb2dVertex
 10
3644.760925104435
 20
-245.1259667409355
 30
0.0
  0
VERTEX
  5
DF51F
330
DF50D
100
AcDbEntity
  8
AM_0
100
AcDbVertex
100
AcDb2dVertex
 10
3645.200037893352
 20
-245.1080071700507
 30
0.0
  0
VERTEX
  5
DF520
330
DF50D
100
AcDbEntity
  8
AM_0
100
AcDbVertex
100
AcDb2dVertex
 10
3645.639117394256
 20
-245.0904341233665
 30
0.0
  0
VERTEX
  5
DF521
330
DF50D
100
AcDbEntity
  8
AM_0
100
AcDbVertex
100
AcDb2dVertex
 10
3646.078194443975
 20
-245.0732429994041
 30
0.0
  0
VERTEX
  5
DF522
330
DF50D
100
AcDbEntity
  8
AM_0
100
AcDbVertex
100
AcDb2dVertex
 10
3646.51730195282
 20
-245.0564337981637
 30
0.0
  0
VERTEX
  5
DF523
330
DF50D
100
AcDbEntity
  8
AM_0
100
AcDbVertex
100
AcDb2dVertex
 10
3646.956468423625
 20
-245.0400065196451
 30
0.0
  0
VERTEX
  5
DF524
330
DF50D
100
AcDbEntity
  8
AM_0
100
AcDbVertex
100
AcDb2dVertex
 10
3647.395729063473
 20
-245.0239611638483
 30
0.0
  0
VERTEX
  5
DF525
330
DF50D
100
AcDbEntity
  8
AM_0
100
AcDbVertex
100
AcDb2dVertex
 10
3647.835112337986
 20
-245.0082977307736
 30
0.0
  0
VERTEX
  5
DF526
330
DF50D
100
AcDbEntity
  8
AM_0
100
AcDbVertex
100
AcDb2dVertex
 10
3648.274651306337
 20
-244.9930162204204
 30
0.0
  0
VERTEX
  5
DF527
330
DF50D
100
AcDbEntity
  8
AM_0
100
AcDbVertex
100
AcDb2dVertex
 10
3648.714376656493
 20
-244.9781120313107
 30
0.0
  0
VERTEX
  5
DF528
330
DF50D
100
AcDbEntity
  8
AM_0
100
AcDbVertex
100
AcDb2dVertex
 10
3649.154319820756
 20
-244.9635897649227
 30
0.0
  0
VERTEX
  5
DF529
330
DF50D
100
AcDbEntity
  8
AM_0
100
AcDbVertex
100
AcDb2dVertex
 10
3649.59451616577
 20
-244.9494540227352
 30
0.0
  0
VERTEX
  5
DF52A
330
DF50D
100
AcDbEntity
  8
AM_0
100
AcDbVertex
100
AcDb2dVertex
 10
3650.034994391144
 20
-244.9357048047484
 30
0.0
  0
VERTEX
  5
DF52B
330
DF50D
100
AcDbEntity
  8
AM_0
100
AcDbVertex
100
AcDb2dVertex
 10
3650.475792234734
 20
-244.9223467124403
 30
0.0
  0
VERTEX
  5
DF52C
330
DF50D
100
AcDbEntity
  8
AM_0
100
AcDbVertex
100
AcDb2dVertex
 10
3650.916940692927
 20
-244.9093797458115
 30
0.0
  0
VERTEX
  5
DF52D
330
DF50D
100
AcDbEntity
  8
AM_0
100
AcDbVertex
100
AcDb2dVertex
 10
3651.358472910022
 20
-244.8968131078187
 30
0.0
  0
VERTEX
  5
DF52E
330
DF50D
100
AcDbEntity
  8
AM_0
100
AcDbVertex
100
AcDb2dVertex
 10
3651.800424475963
 20
-244.8846421969834
 30
0.0
  0
VERTEX
  5
DF52F
330
DF50D
100
AcDbEntity
  8
AM_0
100
AcDbVertex
100
AcDb2dVertex
 10
3652.242826387138
 20
-244.8728762162629
 30
0.0
  0
VERTEX
  5
DF530
330
DF50D
100
AcDbEntity
  8
AM_0
100
AcDbVertex
100
AcDb2dVertex
 10
3652.685712383322
 20
-244.8615105641786
 30
0.0
  0
VERTEX
  5
DF531
330
DF50D
100
AcDbEntity
  8
AM_0
100
AcDbVertex
100
AcDb2dVertex
 10
3653.129116736017
 20
-244.8505590451663
 30
0.0
  0
VERTEX
  5
DF532
330
DF50D
100
AcDbEntity
  8
AM_0
100
AcDbVertex
100
AcDb2dVertex
 10
3653.573074386631
 20
-244.8400170577472
 30
0.0
  0
VERTEX
  5
DF533
330
DF50D
100
AcDbEntity
  8
AM_0
100
AcDbVertex
100
AcDb2dVertex
 10
3654.01761812867
 20
-244.8298938048788
 30
0.0
  0
SEQEND
  5
DF534
330
DF50D
100
AcDbEntity
  8
AM_0
  0
POLYLINE
  5
DF535
330
1F
100
AcDbEntity
  8
AM_0
100
AcDb2dPolyline
 66
     1
 10
0.0
 20
0.0
 30
0.0
 70
   128
  0
VERTEX
  5
DF536
330
DF535
100
AcDbEntity
  8
AM_0
100
AcDbVertex
100
AcDb2dVertex
 10
3715.499138694783
 20
-246.1711649907567
 30
0.0
  0
VERTEX
  5
DF537
330
DF535
100
AcDbEntity
  8
AM_0
100
AcDbVertex
100
AcDb2dVertex
 10
3715.016027636389
 20
-246.1707922709921
 30
0.0
  0
VERTEX
  5
DF538
330
DF535
100
AcDbEntity
  8
AM_0
100
AcDbVertex
100
AcDb2dVertex
 10
3714.53292559023
 20
-246.1698305619695
 30
0.0
  0
VERTEX
  5
DF539
330
DF535
100
AcDbEntity
  8
AM_0
100
AcDbVertex
100
AcDb2dVertex
 10
3714.049846265306
 20
-246.1682292474248
 30
0.0
  0
VERTEX
  5
DF53A
330
DF535
100
AcDbEntity
  8
AM_0
100
AcDbVertex
100
AcDb2dVertex
 10
3713.566786038477
 20
-246.1656248105505
 30
0.0
  0
VERTEX
  5
DF53B
330
DF535
100
AcDbEntity
  8
AM_0
100
AcDbVertex
100
AcDb2dVertex
 10
3713.0837627071
 20
-246.1617917788961
 30
0.0
  0
VERTEX
  5
DF53C
330
DF535
100
AcDbEntity
  8
AM_0
100
AcDbVertex
100
AcDb2dVertex
 10
3712.600778303281
 20
-246.156684137676
 30
0.0
  0
VERTEX
  5
DF53D
330
DF535
100
AcDbEntity
  8
AM_0
100
AcDbVertex
100
AcDb2dVertex
 10
3712.117843180936
 20
-246.1502742780187
 30
0.0
  0
VERTEX
  5
DF53E
330
DF535
100
AcDbEntity
  8
AM_0
100
AcDbVertex
100
AcDb2dVertex
 10
3711.634959251214
 20
-246.142520786617
 30
0.0
  0
VERTEX
  5
DF53F
330
DF535
100
AcDbEntity
  8
AM_0
100
AcDbVertex
100
AcDb2dVertex
 10
3711.152131318904
 20
-246.1334328664281
 30
0.0
  0
VERTEX
  5
DF540
330
DF535
100
AcDbEntity
  8
AM_0
100
AcDbVertex
100
AcDb2dVertex
 10
3710.669365575131
 20
-246.1230243218877
 30
0.0
  0
VERTEX
  5
DF541
330
DF535
100
AcDbEntity
  8
AM_0
100
AcDbVertex
100
AcDb2dVertex
 10
3710.186677101562
 20
-246.1112997544744
 30
0.0
  0
VERTEX
  5
DF542
330
DF535
100
AcDbEntity
  8
AM_0
100
AcDbVertex
100
AcDb2dVertex
 10
3709.704063202273
 20
-246.0982775701025
 30
0.0
  0
VERTEX
  5
DF543
330
DF535
100
AcDbEntity
  8
AM_0
100
AcDbVertex
100
AcDb2dVertex
 10
3709.221530068393
 20
-246.083966971729
 30
0.0
  0
VERTEX
  5
DF544
330
DF535
100
AcDbEntity
  8
AM_0
100
AcDbVertex
100
AcDb2dVertex
 10
3708.739092787402
 20
-246.0683817637899
 30
0.0
  0
VERTEX
  5
DF545
330
DF535
100
AcDbEntity
  8
AM_0
100
AcDbVertex
100
AcDb2dVertex
 10
3708.256748729671
 20
-246.0515357507207
 30
0.0
  0
VERTEX
  5
DF546
330
DF535
100
AcDbEntity
  8
AM_0
100
AcDbVertex
100
AcDb2dVertex
 10
3707.774514250391
 20
-246.0334197295644
 30
0.0
  0
VERTEX
  5
DF547
330
DF535
100
AcDbEntity
  8
AM_0
100
AcDbVertex
100
AcDb2dVertex
 10
3707.292388916913
 20
-246.014010692928
 30
0.0
  0
VERTEX
  5
DF548
330
DF535
100
AcDbEntity
  8
AM_0
100
AcDbVertex
100
AcDb2dVertex
 10
3706.810390107898
 20
-245.9932856334188
 30
0.0
  0
VERTEX
  5
DF549
330
DF535
100
AcDbEntity
  8
AM_0
100
AcDbVertex
100
AcDb2dVertex
 10
3706.328508543193
 20
-245.9712215436437
 30
0.0
  0
VERTEX
  5
DF54A
330
DF535
100
AcDbEntity
  8
AM_0
100
AcDbVertex
100
AcDb2dVertex
 10
3705.846770500139
 20
-245.9477954162099
 30
0.0
  0
VERTEX
  5
DF54B
330
DF535
100
AcDbEntity
  8
AM_0
100
AcDbVertex
100
AcDb2dVertex
 10
3705.365184477329
 20
-245.9229888452032
 30
0.0
  0
VERTEX
  5
DF54C
330
DF535
100
AcDbEntity
  8
AM_0
100
AcDbVertex
100
AcDb2dVertex
 10
3704.883741157393
 20
-245.896774221752
 30
0.0
  0
VERTEX
  5
DF54D
330
DF535
100
AcDbEntity
  8
AM_0
100
AcDbVertex
100
AcDb2dVertex
 10
3704.402457407255
 20
-245.8692895902136
 30
0.0
  0
VERTEX
  5
DF54E
330
DF535
100
AcDbEntity
  8
AM_0
100
AcDbVertex
100
AcDb2dVertex
 10
3703.921295976039
 20
-245.8409076703527
 30
0.0
  0
VERTEX
  5
DF54F
330
DF535
100
AcDbEntity
  8
AM_0
100
AcDbVertex
100
AcDb2dVertex
 10
3703.440255207578
 20
-245.8120057834127
 30
0.0
  0
VERTEX
  5
DF550
330
DF535
100
AcDbEntity
  8
AM_0
100
AcDbVertex
100
AcDb2dVertex
 10
3702.959315573917
 20
-245.7829658521154
 30
0.0
  0
VERTEX
  5
DF551
330
DF535
100
AcDbEntity
  8
AM_0
100
AcDbVertex
100
AcDb2dVertex
 10
3702.478458365877
 20
-245.7539857400396
 30
0.0
  0
VERTEX
  5
DF552
330
DF535
100
AcDbEntity
  8
AM_0
100
AcDbVertex
100
AcDb2dVertex
 10
3701.99767409861
 20
-245.7252126944997
 30
0.0
  0
VERTEX
  5
DF553
330
DF535
100
AcDbEntity
  8
AM_0
100
AcDbVertex
100
AcDb2dVertex
 10
3701.516970991579
 20
-245.696775556896
 30
0.0
  0
VERTEX
  5
DF554
330
DF535
100
AcDbEntity
  8
AM_0
100
AcDbVertex
100
AcDb2dVertex
 10
3701.036339746023
 20
-245.6687709582785
 30
0.0
  0
VERTEX
  5
DF555
330
DF535
100
AcDbEntity
  8
AM_0
100
AcDbVertex
100
AcDb2dVertex
 10
3700.555780399156
 20
-245.6412035001257
 30
0.0
  0
VERTEX
  5
DF556
330
DF535
100
AcDbEntity
  8
AM_0
100
AcDbVertex
100
AcDb2dVertex
 10
3700.075301877573
 20
-245.6140731824374
 30
0.0
  0
VERTEX
  5
DF557
330
DF535
100
AcDbEntity
  8
AM_0
100
AcDbVertex
100
AcDb2dVertex
 10
3699.594904292923
 20
-245.5873662007785
 30
0.0
  0
VERTEX
  5
DF558
330
DF535
100
AcDbEntity
  8
AM_0
100
AcDbVertex
100
AcDb2dVertex
 10
3699.114596609015
 20
-245.5610733521915
 30
0.0
  0
VERTEX
  5
DF559
330
DF535
100
AcDbEntity
  8
AM_0
100
AcDbVertex
100
AcDb2dVertex
 10
3698.634370048127
 20
-245.5351900351978
 30
0.0
  0
VERTEX
  5
DF55A
330
DF535
100
AcDbEntity
  8
AM_0
100
AcDbVertex
100
AcDb2dVertex
 10
3698.154251315598
 20
-245.5097070468402
 30
0.0
  0
VERTEX
  5
DF55B
330
DF535
100
AcDbEntity
  8
AM_0
100
AcDbVertex
100
AcDb2dVertex
 10
3697.674222744331
 20
-245.4846197856403
 30
0.0
  0
VERTEX
  5
DF55C
330
DF535
100
AcDbEntity
  8
AM_0
100
AcDbVertex
100
AcDb2dVertex
 10
3697.194302224726
 20
-245.4599236501193
 30
0.0
  0
VERTEX
  5
DF55D
330
DF535
100
AcDbEntity
  8
AM_0
100
AcDbVertex
100
AcDb2dVertex
 10
3696.714480941844
 20
-245.4356324447132
 30
0.0
  0
VERTEX
  5
DF55E
330
DF535
100
AcDbEntity
  8
AM_0
100
AcDbVertex
100
AcDb2dVertex
 10
3696.234768008361
 20
-245.4117507709003
 30
0.0
  0
VERTEX
  5
DF55F
330
DF535
100
AcDbEntity
  8
AM_0
100
AcDbVertex
100
AcDb2dVertex
 10
3695.755163424278
 20
-245.3882832301591
 30
0.0
  0
VERTEX
  5
DF560
330
DF535
100
AcDbEntity
  8
AM_0
100
AcDbVertex
100
AcDb2dVertex
 10
3695.275667338463
 20
-245.3652344239686
 30
0.0
  0
VERTEX
  5
DF561
330
DF535
100
AcDbEntity
  8
AM_0
100
AcDbVertex
100
AcDb2dVertex
 10
3694.796288714725
 20
-245.3426135552857
 30
0.0
  0
VERTEX
  5
DF562
330
DF535
100
AcDbEntity
  8
AM_0
100
AcDbVertex
100
AcDb2dVertex
 10
3694.31702333168
 20
-245.3204252255891
 30
0.0
  0
VERTEX
  5
DF563
330
DF535
100
AcDbEntity
  8
AM_0
100
AcDbVertex
100
AcDb2dVertex
 10
3693.837880227571
 20
-245.2986694348787
 30
0.0
  0
VERTEX
  5
DF564
330
DF535
100
AcDbEntity
  8
AM_0
100
AcDbVertex
100
AcDb2dVertex
 10
3693.358859700135
 20
-245.2773461831544
 30
0.0
  0
VERTEX
  5
DF565
330
DF535
100
AcDbEntity
  8
AM_0
100
AcDbVertex
100
AcDb2dVertex
 10
3692.879962121545
 20
-245.2564508689378
 30
0.0
  0
VERTEX
  5
DF566
330
DF535
100
AcDbEntity
  8
AM_0
100
AcDbVertex
100
AcDb2dVertex
 10
3692.401196604477
 20
-245.2359834922288
 30
0.0
  0
VERTEX
  5
DF567
330
DF535
100
AcDbEntity
  8
AM_0
100
AcDbVertex
100
AcDb2dVertex
 10
3691.92256796579
 20
-245.215948654506
 30
0.0
  0
VERTEX
  5
DF568
330
DF535
100
AcDbEntity
  8
AM_0
100
AcDbVertex
100
AcDb2dVertex
 10
3691.444071984101
 20
-245.1963325513337
 30
0.0
  0
VERTEX
  5
DF569
330
DF535
100
AcDbEntity
  8
AM_0
100
AcDbVertex
100
AcDb2dVertex
 10
3690.965722291208
 20
-245.177144385669
 30
0.0
  0
VERTEX
  5
DF56A
330
DF535
100
AcDbEntity
  8
AM_0
100
AcDbVertex
100
AcDb2dVertex
 10
3690.487514814595
 20
-245.1583795560334
 30
0.0
  0
VERTEX
  5
DF56B
330
DF535
100
AcDbEntity
  8
AM_0
100
AcDbVertex
100
AcDb2dVertex
 10
3690.009458741377
 20
-245.1400334609483
 30
0.0
  0
VERTEX
  5
DF56C
330
DF535
100
AcDbEntity
  8
AM_0
100
AcDbVertex
100
AcDb2dVertex
 10
3689.531554294853
 20
-245.1221107018922
 30
0.0
  0
VERTEX
  5
DF56D
330
DF535
100
AcDbEntity
  8
AM_0
100
AcDbVertex
100
AcDb2dVertex
 10
3689.053806291885
 20
-245.104602075908
 30
0.0
  0
VERTEX
  5
DF56E
330
DF535
100
AcDbEntity
  8
AM_0
100
AcDbVertex
100
AcDb2dVertex
 10
3688.576219400462
 20
-245.0875121844743
 30
0.0
  0
VERTEX
  5
DF56F
330
DF535
100
AcDbEntity
  8
AM_0
100
AcDbVertex
100
AcDb2dVertex
 10
3688.098793992756
 20
-245.0708364261124
 30
0.0
  0
VERTEX
  5
DF570
330
DF535
100
AcDbEntity
  8
AM_0
100
AcDbVertex
100
AcDb2dVertex
 10
3687.621539255878
 20
-245.0545748008223
 30
0.0
  0
VERTEX
  5
DF571
330
DF535
100
AcDbEntity
  8
AM_0
100
AcDbVertex
100
AcDb2dVertex
 10
3687.144455413132
 20
-245.0387273086044
 30
0.0
  0
VERTEX
  5
DF572
330
DF535
100
AcDbEntity
  8
AM_0
100
AcDbVertex
100
AcDb2dVertex
 10
3686.667547355811
 20
-245.023284746501
 30
0.0
  0
VERTEX
  5
DF573
330
DF535
100
AcDbEntity
  8
AM_0
100
AcDbVertex
100
AcDb2dVertex
 10
3686.190815307218
 20
-245.0082517159911
 30
0.0
  0
VERTEX
  5
DF574
330
DF535
100
AcDbEntity
  8
AM_0
100
AcDbVertex
100
AcDb2dVertex
 10
3685.714264009778
 20
-244.9936190141174
 30
0.0
  0
VERTEX
  5
DF575
330
DF535
100
AcDbEntity
  8
AM_0
100
AcDbVertex
100
AcDb2dVertex
 10
3685.237902799471
 20
-244.9793912423583
 30
0.0
  0
VERTEX
  5
DF576
330
DF535
100
AcDbEntity
  8
AM_0
100
AcDbVertex
100
AcDb2dVertex
 10
3684.761727454914
 20
-244.965554596278
 30
0.0
  0
VERTEX
  5
DF577
330
DF535
100
AcDbEntity
  8
AM_0
100
AcDbVertex
100
AcDb2dVertex
 10
3684.285747237652
 20
-244.9521182788342
 30
0.0
  0
VERTEX
  5
DF578
330
DF535
100
AcDbEntity
  8
AM_0
100
AcDbVertex
100
AcDb2dVertex
 10
3683.809962445423
 20
-244.9390730870693
 30
0.0
  0
VERTEX
  5
DF579
330
DF535
100
AcDbEntity
  8
AM_0
100
AcDbVertex
100
AcDb2dVertex
 10
3683.334377895086
 20
-244.926414419505
 30
0.0
  0
VERTEX
  5
DF57A
330
DF535
100
AcDbEntity
  8
AM_0
100
AcDbVertex
100
AcDb2dVertex
 10
3682.858993809944
 20
-244.9141422761411
 30
0.0
  0
VERTEX
  5
DF57B
330
DF535
100
AcDbEntity
  8
AM_0
100
AcDbVertex
100
AcDb2dVertex
 10
3682.383819451543
 20
-244.9022566569775
 30
0.0
  0
VERTEX
  5
DF57C
330
DF535
100
AcDbEntity
  8
AM_0
100
AcDbVertex
100
AcDb2dVertex
 10
3681.908855192054
 20
-244.8907529605359
 30
0.0
  0
VERTEX
  5
DF57D
330
DF535
100
AcDbEntity
  8
AM_0
100
AcDbVertex
100
AcDb2dVertex
 10
3681.434101254783
 20
-244.8796219838589
 30
0.0
  0
VERTEX
  5
DF57E
330
DF535
100
AcDbEntity
  8
AM_0
100
AcDbVertex
100
AcDb2dVertex
 10
3680.959566901272
 20
-244.8688683284252
 30
0.0
  0
VERTEX
  5
DF57F
330
DF535
100
AcDbEntity
  8
AM_0
100
AcDbVertex
100
AcDb2dVertex
 10
3680.485256948383
 20
-244.8584873927563
 30
0.0
  0
VERTEX
  5
DF580
330
DF535
100
AcDbEntity
  8
AM_0
100
AcDbVertex
100
AcDb2dVertex
 10
3680.011166951429
 20
-244.8484791768521
 30
0.0
  0
VERTEX
  5
DF581
330
DF535
100
AcDbEntity
  8
AM_0
100
AcDbVertex
100
AcDb2dVertex
 10
3679.537301503964
 20
-244.8388344777554
 30
0.0
  0
VERTEX
  5
DF582
330
DF535
100
AcDbEntity
  8
AM_0
100
AcDbVertex
100
AcDb2dVertex
 10
3679.063669644231
 20
-244.8295624984232
 30
0.0
  0
VERTEX
  5
DF583
330
DF535
100
AcDbEntity
  8
AM_0
100
AcDbVertex
100
AcDb2dVertex
 10
3678.590271297797
 20
-244.8206586373774
 30
0.0
  0
VERTEX
  5
DF584
330
DF535
100
AcDbEntity
  8
AM_0
100
AcDbVertex
100
AcDb2dVertex
 10
3678.1171067624
 20
-244.8121136916605
 30
0.0
  0
VERTEX
  5
DF585
330
DF535
100
AcDbEntity
  8
AM_0
100
AcDbVertex
100
AcDb2dVertex
 10
3677.644184778542
 20
-244.8039368642298
 30
0.0
  0
VERTEX
  5
DF586
330
DF535
100
AcDbEntity
  8
AM_0
100
AcDbVertex
100
AcDb2dVertex
 10
3677.171501199276
 20
-244.7961235536064
 30
0.0
  0
VERTEX
  5
DF587
330
DF535
100
AcDbEntity
  8
AM_0
100
AcDbVertex
100
AcDb2dVertex
 10
3676.699064839542
 20
-244.7886691583122
 30
0.0
  0
VERTEX
  5
DF588
330
DF535
100
AcDbEntity
  8
AM_0
100
AcDbVertex
100
AcDb2dVertex
 10
3676.226875848207
 20
-244.781573678347
 30
0.0
  0
VERTEX
  5
DF589
330
DF535
100
AcDbEntity
  8
AM_0
100
AcDbVertex
100
AcDb2dVertex
 10
3675.75493866996
 20
-244.7748371137107
 30
0.0
  0
VERTEX
  5
DF58A
330
DF535
100
AcDbEntity
  8
AM_0
100
AcDbVertex
100
AcDb2dVertex
 10
3675.28325797279
 20
-244.7684594644035
 30
0.0
  0
VERTEX
  5
DF58B
330
DF535
100
AcDbEntity
  8
AM_0
100
AcDbVertex
100
AcDb2dVertex
 10
3674.81182931201
 20
-244.7624361289467
 30
0.0
  0
VERTEX
  5
DF58C
330
DF535
100
AcDbEntity
  8
AM_0
100
AcDbVertex
100
AcDb2dVertex
 10
3674.340666096115
 20
-244.7567671073402
 30
0.0
  0
VERTEX
  5
DF58D
330
DF535
100
AcDbEntity
  8
AM_0
100
AcDbVertex
100
AcDb2dVertex
 10
3673.869764029288
 20
-244.7514523995842
 30
0.0
  0
VERTEX
  5
DF58E
330
DF535
100
AcDbEntity
  8
AM_0
100
AcDbVertex
100
AcDb2dVertex
 10
3673.399131852033
 20
-244.7464874042
 30
0.0
  0
VERTEX
  5
DF58F
330
DF535
100
AcDbEntity
  8
AM_0
100
AcDbVertex
100
AcDb2dVertex
 10
3672.928769489916
 20
-244.7418859256234
 30
0.0
  0
VERTEX
  5
DF590
330
DF535
100
AcDbEntity
  8
AM_0
100
AcDbVertex
100
AcDb2dVertex
 10
3672.458681015454
 20
-244.7376433623754
 30
0.0
  0
VERTEX
  5
DF591
330
DF535
100
AcDbEntity
  8
AM_0
100
AcDbVertex
100
AcDb2dVertex
 10
3671.988875243582
 20
-244.7337689174138
 30
0.0
  0
VERTEX
  5
DF592
330
DF535
100
AcDbEntity
  8
AM_0
100
AcDbVertex
100
AcDb2dVertex
 10
3671.519347431881
 20
-244.7302625907384
 30
0.0
  0
VERTEX
  5
DF593
330
DF535
100
AcDbEntity
  8
AM_0
100
AcDbVertex
100
AcDb2dVertex
 10
3671.050110691104
 20
-244.7271335853061
 30
0.0
  0
VERTEX
  5
DF594
330
DF535
100
AcDbEntity
  8
AM_0
100
AcDbVertex
100
AcDb2dVertex
 10
3670.58116494682
 20
-244.7243772996387
 30
0.0
  0
VERTEX
  5
DF595
330
DF535
100
AcDbEntity
  8
AM_0
100
AcDbVertex
100
AcDb2dVertex
 10
3670.112518716229
 20
-244.7220075381717
 30
0.0
  0
VERTEX
  5
DF596
330
DF535
100
AcDbEntity
  8
AM_0
100
AcDbVertex
100
AcDb2dVertex
 10
3669.644167405774
 20
-244.7200243009051
 30
0.0
  0
VERTEX
  5
DF597
330
DF535
100
AcDbEntity
  8
AM_0
100
AcDbVertex
100
AcDb2dVertex
 10
3669.176124275086
 20
-244.7184321893177
 30
0.0
  0
VERTEX
  5
DF598
330
DF535
100
AcDbEntity
  8
AM_0
100
AcDbVertex
100
AcDb2dVertex
 10
3668.708385326081
 20
-244.7172173989734
 30
0.0
  0
VERTEX
  5
DF599
330
DF535
100
AcDbEntity
  8
AM_0
100
AcDbVertex
100
AcDb2dVertex
 10
3668.240955822225
 20
-244.7163661254367
 30
0.0
  0
VERTEX
  5
DF59A
330
DF535
100
AcDbEntity
  8
AM_0
100
AcDbVertex
100
AcDb2dVertex
 10
3667.773841101418
 20
-244.7158691657505
 30
0.0
  0
VERTEX
  5
DF59B
330
DF535
100
AcDbEntity
  8
AM_0
100
AcDbVertex
100
AcDb2dVertex
 10
3667.307037537752
 20
-244.7157081140003
 30
0.0
  0
SEQEND
  5
DF59C
330
DF535
100
AcDbEntity
  8
AM_0
  0
LWPOLYLINE
  5
DF59D
330
1F
100
AcDbEntity
  8
AM_0
100
AcDbPolyline
 90
       45
 70
   128
 43
0.0
 10
3732.956243489446
 20
-238.111279536579
 10
3732.902701463221
 20
-238.5901830209234
 10
3732.808661638923
 20
-239.0624925864675
 10
3732.677498668478
 20
-239.5265102876166
 10
3732.512614020799
 20
-239.9805473817327
 10
3732.317382050076
 20
-240.4229105247
 10
3732.095165839219
 20
-240.8519293797949
 10
3731.84843060008
 20
-241.266554809902
 10
3731.578771234783
 20
-241.6663404715993
 10
3731.287743961714
 20
-242.0508722318151
 10
3730.976922778002
 20
-242.4197451604345
 10
3730.647846272155
 20
-242.7725359214285
 10
3730.301922286199
 20
-243.1086969388463
 10
3729.939858781981
 20
-243.4271284593084
 10
3729.562224680972
 20
-243.7266018880347
 10
3729.169604684731
 20
-244.0060588849524
 10
3728.762703055533
 20
-244.2647494090536
 10
3728.342234731448
 20
-244.501872803066
 10
3727.908724304263
 20
-244.7141850245931
 10
3727.462558834686
 20
-244.8960032475927
 10
3727.004359421163
 20
-245.0426201594808
 10
3726.536835691344
 20
-245.1587062610129
 10
3726.063811147945
 20
-245.2537544024923
 10
3725.588557374936
 20
-245.3363371385077
 10
3725.112125893502
 20
-245.411092759464
 10
3724.635006746805
 20
-245.48167944083
 10
3724.157521186008
 20
-245.5503104938009
 10
3723.679618065149
 20
-245.6163739217259
 10
3723.201209192077
 20
-245.6789678348043
 10
3722.722282104567
 20
-245.7376734984853
 10
3722.242864289521
 20
-245.7925553334692
 10
3721.762992718686
 20
-245.8436961663702
 10
3721.28271295545
 20
-245.8911926282385
 10
3720.802061822693
 20
-245.9351229442098
 10
3720.32106911478
 20
-245.9755423320272
 10
3719.839772441691
 20
-246.012349559162
 10
3719.358202645409
 20
-246.0453973782995
 10
3718.876381380807
 20
-246.074543143604
 10
3718.394330488842
 20
-246.0996488107183
 10
3717.912088807661
 20
-246.1205809367635
 10
3717.429676492375
 20
-246.1374453557469
 10
3716.947139759673
 20
-246.1505825770833
 10
3716.464515080871
 20
-246.1603469146231
 10
3715.981829963481
 20
-246.1670926822164
 10
3715.499138732
 20
-246.1711649907567
  0
LINE
  5
DF59E
330
1F
100
AcDbEntity
  8
AM_0
100
AcDbLine
 10
3732.958990964607
 20
-227.1943498385885
 30
0.0
 11
3732.95578540265
 21
-227.1945707095602
 31
0.0
  0
POLYLINE
  5
DF59F
330
1F
100
AcDbEntity
  8
AM_0
100
AcDb2dPolyline
 66
     1
 10
0.0
 20
0.0
 30
0.0
 70
   128
  0
VERTEX
  5
DF5A0
330
DF59F
100
AcDbEntity
  8
AM_0
100
AcDbVertex
100
AcDb2dVertex
 10
3732.956243489446
 20
-238.111279536579
 30
0.0
  0
VERTEX
  5
DF5A1
330
DF59F
100
AcDbEntity
  8
AM_0
100
AcDbVertex
100
AcDb2dVertex
 10
3732.95657580711
 20
-238.1116200459936
 30
0.0
  0
VERTEX
  5
DF5A2
330
DF59F
100
AcDbEntity
  8
AM_0
100
AcDbVertex
100
AcDb2dVertex
 10
3732.956898044449
 20
-238.1119651568869
 30
0.0
  0
VERTEX
  5
DF5A3
330
DF59F
100
AcDbEntity
  8
AM_0
100
AcDbVertex
100
AcDb2dVertex
 10
3732.957201163222
 20
-238.1123056663015
 30
0.0
  0
VERTEX
  5
DF5A4
330
DF59F
100
AcDbEntity
  8
AM_0
100
AcDbVertex
100
AcDb2dVertex
 10
3732.957494201671
 20
-238.1126507771947
 30
0.0
  0
VERTEX
  5
DF5A5
330
DF59F
100
AcDbEntity
  8
AM_0
100
AcDbVertex
100
AcDb2dVertex
 10
3732.95776827042
 20
-238.112995888088
 30
0.0
  0
VERTEX
  5
DF5A6
330
DF59F
100
AcDbEntity
  8
AM_0
100
AcDbVertex
100
AcDb2dVertex
 10
3732.958032258846
 20
-238.1133456004598
 30
0.0
  0
VERTEX
  5
DF5A7
330
DF59F
100
AcDbEntity
  8
AM_0
100
AcDbVertex
100
AcDb2dVertex
 10
3732.958277277574
 20
-238.1136953128317
 30
0.0
  0
VERTEX
  5
DF5A8
330
DF59F
100
AcDbEntity
  8
AM_0
100
AcDbVertex
100
AcDb2dVertex
 10
3732.958503326603
 20
-238.1140450252035
 30
0.0
  0
VERTEX
  5
DF5A9
330
DF59F
100
AcDbEntity
  8
AM_0
100
AcDbVertex
100
AcDb2dVertex
 10
3732.958719295309
 20
-238.1143947375754
 30
0.0
  0
VERTEX
  5
DF5AA
330
DF59F
100
AcDbEntity
  8
AM_0
100
AcDbVertex
100
AcDb2dVertex
 10
3732.958916294315
 20
-238.1147490514257
 30
0.0
  0
VERTEX
  5
DF5AB
330
DF59F
100
AcDbEntity
  8
AM_0
100
AcDbVertex
100
AcDb2dVertex
 10
3732.959094174755
 20
-238.1151033652761
 30
0.0
  0
VERTEX
  5
DF5AC
330
DF59F
100
AcDbEntity
  8
AM_0
100
AcDbVertex
100
AcDb2dVertex
 10
3732.959262123739
 20
-238.1154576791265
 30
0.0
  0
VERTEX
  5
DF5AD
330
DF59F
100
AcDbEntity
  8
AM_0
100
AcDbVertex
100
AcDb2dVertex
 10
3732.959419992399
 20
-238.1158165944555
 30
0.0
  0
VERTEX
  5
DF5AE
330
DF59F
100
AcDbEntity
  8
AM_0
100
AcDbVertex
100
AcDb2dVertex
 10
3732.959558891361
 20
-238.1161755097845
 30
0.0
  0
VERTEX
  5
DF5AF
330
DF59F
100
AcDbEntity
  8
AM_0
100
AcDbVertex
100
AcDb2dVertex
 10
3732.959678820624
 20
-238.116539026592
 30
0.0
  0
VERTEX
  5
DF5B0
330
DF59F
100
AcDbEntity
  8
AM_0
100
AcDbVertex
100
AcDb2dVertex
 10
3732.95977978019
 20
-238.116897941921
 30
0.0
  0
VERTEX
  5
DF5B1
330
DF59F
100
AcDbEntity
  8
AM_0
100
AcDbVertex
100
AcDb2dVertex
 10
3732.95987065943
 20
-238.1172660602071
 30
0.0
  0
VERTEX
  5
DF5B2
330
DF59F
100
AcDbEntity
  8
AM_0
100
AcDbVertex
100
AcDb2dVertex
 10
3732.959951607216
 20
-238.1176295770147
 30
0.0
  0
VERTEX
  5
DF5B3
330
DF59F
100
AcDbEntity
  8
AM_0
100
AcDbVertex
100
AcDb2dVertex
 10
3732.960013436434
 20
-238.1179976953009
 30
0.0
  0
VERTEX
  5
DF5B4
330
DF59F
100
AcDbEntity
  8
AM_0
100
AcDbVertex
100
AcDb2dVertex
 10
3732.960056444823
 20
-238.118365813587
 30
0.0
  0
VERTEX
  5
DF5B5
330
DF59F
100
AcDbEntity
  8
AM_0
100
AcDbVertex
100
AcDb2dVertex
 10
3732.960080483513
 20
-238.1187339318731
 30
0.0
  0
VERTEX
  5
DF5B6
330
DF59F
100
AcDbEntity
  8
AM_0
100
AcDbVertex
100
AcDb2dVertex
 10
3732.960094441879
 20
-238.1191066516378
 30
0.0
  0
VERTEX
  5
DF5B7
330
DF59F
100
AcDbEntity
  8
AM_0
100
AcDbVertex
100
AcDb2dVertex
 10
3732.96009846879
 20
-238.1194793714025
 30
0.0
  0
VERTEX
  5
DF5B8
330
DF59F
100
AcDbEntity
  8
AM_0
100
AcDbVertex
100
AcDb2dVertex
 10
3732.96007448776
 20
-238.1198566926458
 30
0.0
  0
SEQEND
  5
DF5B9
330
DF59F
100
AcDbEntity
  8
AM_0
  0
POLYLINE
  5
DF5BA
330
1F
100
AcDbEntity
  8
AM_0
100
AcDb2dPolyline
 66
     1
 10
0.0
 20
0.0
 30
0.0
 70
   128
  0
VERTEX
  5
DF5BB
330
DF5BA
100
AcDbEntity
  8
AM_0
100
AcDbVertex
100
AcDb2dVertex
 10
3610.782339117751
 20
-225.4131289852528
 30
0.0
  0
VERTEX
  5
DF5BC
330
DF5BA
100
AcDbEntity
  8
AM_0
100
AcDbVertex
100
AcDb2dVertex
 10
3610.831409430585
 20
-226.2766286505131
 30
0.0
  0
VERTEX
  5
DF5BD
330
DF5BA
100
AcDbEntity
  8
AM_0
100
AcDbVertex
100
AcDb2dVertex
 10
3610.885500842329
 20
-227.1391482008366
 30
0.0
  0
VERTEX
  5
DF5BE
330
DF5BA
100
AcDbEntity
  8
AM_0
100
AcDbVertex
100
AcDb2dVertex
 10
3611.008288899998
 20
-228.8633797419934
 30
0.0
  0
VERTEX
  5
DF5BF
330
DF5BA
100
AcDbEntity
  8
AM_0
100
AcDbVertex
100
AcDb2dVertex
 10
3611.157211823474
 20
-230.5896336329846
 30
0.0
  0
VERTEX
  5
DF5C0
330
DF5BA
100
AcDbEntity
  8
AM_0
100
AcDbVertex
100
AcDb2dVertex
 10
3611.360738108272
 20
-232.313743234959
 30
0.0
  0
VERTEX
  5
DF5C1
330
DF5BA
100
AcDbEntity
  8
AM_0
100
AcDbVertex
100
AcDb2dVertex
 10
3611.490001378905
 20
-233.1718913806347
 30
0.0
  0
VERTEX
  5
DF5C2
330
DF5BA
100
AcDbEntity
  8
AM_0
100
AcDbVertex
100
AcDb2dVertex
 10
3611.641233760519
 20
-234.0257647527127
 30
0.0
  0
VERTEX
  5
DF5C3
330
DF5BA
100
AcDbEntity
  8
AM_0
100
AcDbVertex
100
AcDb2dVertex
 10
3611.817165698006
 20
-234.8741071475415
 30
0.0
  0
VERTEX
  5
DF5C4
330
DF5BA
100
AcDbEntity
  8
AM_0
100
AcDbVertex
100
AcDb2dVertex
 10
3612.020524302737
 20
-235.7156623614696
 30
0.0
  0
VERTEX
  5
DF5C5
330
DF5BA
100
AcDbEntity
  8
AM_0
100
AcDbVertex
100
AcDb2dVertex
 10
3612.254018042546
 20
-236.5497585786251
 30
0.0
  0
VERTEX
  5
DF5C6
330
DF5BA
100
AcDbEntity
  8
AM_0
100
AcDbVertex
100
AcDb2dVertex
 10
3612.520329507188
 20
-237.377762438145
 30
0.0
  0
VERTEX
  5
DF5C7
330
DF5BA
100
AcDbEntity
  8
AM_0
100
AcDbVertex
100
AcDb2dVertex
 10
3612.822433677373
 20
-238.1953439486889
 30
0.0
  0
VERTEX
  5
DF5C8
330
DF5BA
100
AcDbEntity
  8
AM_0
100
AcDbVertex
100
AcDb2dVertex
 10
3613.16334470331
 20
-238.9972068084148
 30
0.0
  0
VERTEX
  5
DF5C9
330
DF5BA
100
AcDbEntity
  8
AM_0
100
AcDbVertex
100
AcDb2dVertex
 10
3613.546078364749
 20
-239.7780685199169
 30
0.0
  0
VERTEX
  5
DF5CA
330
DF5BA
100
AcDbEntity
  8
AM_0
100
AcDbVertex
100
AcDb2dVertex
 10
3613.973649997505
 20
-240.5326235783963
 30
0.0
  0
VERTEX
  5
DF5CB
330
DF5BA
100
AcDbEntity
  8
AM_0
100
AcDbVertex
100
AcDb2dVertex
 10
3614.449892743314
 20
-241.2554606450467
 30
0.0
  0
VERTEX
  5
DF5CC
330
DF5BA
100
AcDbEntity
  8
AM_0
100
AcDbVertex
100
AcDb2dVertex
 10
3614.711139033417
 20
-241.6023201001553
 30
0.0
  0
VERTEX
  5
DF5CD
330
DF5BA
100
AcDbEntity
  8
AM_0
100
AcDbVertex
100
AcDb2dVertex
 10
3614.988443889925
 20
-241.9375102055935
 30
0.0
  0
VERTEX
  5
DF5CE
330
DF5BA
100
AcDbEntity
  8
AM_0
100
AcDbVertex
100
AcDb2dVertex
 10
3615.280869065927
 20
-242.2596183074383
 30
0.0
  0
VERTEX
  5
DF5CF
330
DF5BA
100
AcDbEntity
  8
AM_0
100
AcDbVertex
100
AcDb2dVertex
 10
3615.587474703583
 20
-242.5672363532452
 30
0.0
  0
VERTEX
  5
DF5D0
330
DF5BA
100
AcDbEntity
  8
AM_0
100
AcDbVertex
100
AcDb2dVertex
 10
3615.907322019004
 20
-242.8589470876126
 30
0.0
  0
VERTEX
  5
DF5D1
330
DF5BA
100
AcDbEntity
  8
AM_0
100
AcDbVertex
100
AcDb2dVertex
 10
3616.23964788869
 20
-243.1336553586392
 30
0.0
  0
VERTEX
  5
DF5D2
330
DF5BA
100
AcDbEntity
  8
AM_0
100
AcDbVertex
100
AcDb2dVertex
 10
3616.584523755327
 20
-243.3925851596264
 30
0.0
  0
VERTEX
  5
DF5D3
330
DF5BA
100
AcDbEntity
  8
AM_0
100
AcDbVertex
100
AcDb2dVertex
 10
3616.94076257505
 20
-243.6361368192105
 30
0.0
  0
VERTEX
  5
DF5D4
330
DF5BA
100
AcDbEntity
  8
AM_0
100
AcDbVertex
100
AcDb2dVertex
 10
3617.681619779439
 20
-244.0774600280193
 30
0.0
  0
VERTEX
  5
DF5D5
330
DF5BA
100
AcDbEntity
  8
AM_0
100
AcDbVertex
100
AcDb2dVertex
 10
3618.450894835011
 20
-244.4583750260739
 30
0.0
  0
VERTEX
  5
DF5D6
330
DF5BA
100
AcDbEntity
  8
AM_0
100
AcDbVertex
100
AcDb2dVertex
 10
3619.243354676294
 20
-244.7838652146725
 30
0.0
  0
VERTEX
  5
DF5D7
330
DF5BA
100
AcDbEntity
  8
AM_0
100
AcDbVertex
100
AcDb2dVertex
 10
3620.054817179988
 20
-245.059825087872
 30
0.0
  0
VERTEX
  5
DF5D8
330
DF5BA
100
AcDbEntity
  8
AM_0
100
AcDbVertex
100
AcDb2dVertex
 10
3620.878861786263
 20
-245.2906444562344
 30
0.0
  0
VERTEX
  5
DF5D9
330
DF5BA
100
AcDbEntity
  8
AM_0
100
AcDbVertex
100
AcDb2dVertex
 10
3621.709552190263
 20
-245.4808143628506
 30
0.0
  0
VERTEX
  5
DF5DA
330
DF5BA
100
AcDbEntity
  8
AM_0
100
AcDbVertex
100
AcDb2dVertex
 10
3622.547067267432
 20
-245.6355160725982
 30
0.0
  0
VERTEX
  5
DF5DB
330
DF5BA
100
AcDbEntity
  8
AM_0
100
AcDbVertex
100
AcDb2dVertex
 10
3623.390166181474
 20
-245.7583709491164
 30
0.0
  0
VERTEX
  5
DF5DC
330
DF5BA
100
AcDbEntity
  8
AM_0
100
AcDbVertex
100
AcDb2dVertex
 10
3624.236385049368
 20
-245.8526092303666
 30
0.0
  0
SEQEND
  5
DF5DD
330
DF5BA
100
AcDbEntity
  8
AM_0
  0
POLYLINE
  5
DF5DE
330
1F
100
AcDbEntity
  8
AM_0
100
AcDb2dPolyline
 66
     1
 10
0.0
 20
0.0
 30
0.0
 70
   128
  0
VERTEX
  5
DF5DF
330
DF5DE
100
AcDbEntity
  8
AM_0
100
AcDbVertex
100
AcDb2dVertex
 10
3652.726550763439
 20
-224.4701870931092
 30
0.0
  0
VERTEX
  5
DF5E0
330
DF5DE
100
AcDbEntity
  8
AM_0
100
AcDbVertex
100
AcDb2dVertex
 10
3651.508578859824
 20
-224.2978709233705
 30
0.0
  0
VERTEX
  5
DF5E1
330
DF5DE
100
AcDbEntity
  8
AM_0
100
AcDbVertex
100
AcDb2dVertex
 10
3650.302879843
 20
-224.1080484283866
 30
0.0
  0
VERTEX
  5
DF5E2
330
DF5DE
100
AcDbEntity
  8
AM_0
100
AcDbVertex
100
AcDb2dVertex
 10
3649.109662648229
 20
-223.8965667737424
 30
0.0
  0
VERTEX
  5
DF5E3
330
DF5DE
100
AcDbEntity
  8
AM_0
100
AcDbVertex
100
AcDb2dVertex
 10
3647.929143026667
 20
-223.6592777265011
 30
0.0
  0
VERTEX
  5
DF5E4
330
DF5DE
100
AcDbEntity
  8
AM_0
100
AcDbVertex
100
AcDb2dVertex
 10
3646.761530062441
 20
-223.3920284522469
 30
0.0
  0
VERTEX
  5
DF5E5
330
DF5DE
100
AcDbEntity
  8
AM_0
100
AcDbVertex
100
AcDb2dVertex
 10
3645.60703720993
 20
-223.0906707180435
 30
0.0
  0
VERTEX
  5
DF5E6
330
DF5DE
100
AcDbEntity
  8
AM_0
100
AcDbVertex
100
AcDb2dVertex
 10
3644.465875775603
 20
-222.751051689475
 30
0.0
  0
VERTEX
  5
DF5E7
330
DF5DE
100
AcDbEntity
  8
AM_0
100
AcDbVertex
100
AcDb2dVertex
 10
3643.338256991498
 20
-222.3690208328654
 30
0.0
  0
SEQEND
  5
DF5E8
330
DF5DE
100
AcDbEntity
  8
AM_0
  0
POLYLINE
  5
DF5E9
330
1F
100
AcDbEntity
  8
AM_0
100
AcDb2dPolyline
 66
     1
 10
0.0
 20
0.0
 30
0.0
 70
   128
  0
VERTEX
  5
DF5EA
330
DF5E9
100
AcDbEntity
  8
AM_0
100
AcDbVertex
100
AcDb2dVertex
 10
3643.338205677754
 20
-222.3688045633723
 30
0.0
  0
VERTEX
  5
DF5EB
330
DF5E9
100
AcDbEntity
  8
AM_0
100
AcDbVertex
100
AcDb2dVertex
 10
3642.606664231869
 20
-222.0857699168613
 30
0.0
  0
VERTEX
  5
DF5EC
330
DF5E9
100
AcDbEntity
  8
AM_0
100
AcDbVertex
100
AcDb2dVertex
 10
3641.887986902939
 20
-221.7701107872414
 30
0.0
  0
VERTEX
  5
DF5ED
330
DF5E9
100
AcDbEntity
  8
AM_0
100
AcDbVertex
100
AcDb2dVertex
 10
3641.187317452133
 20
-221.4241233123229
 30
0.0
  0
VERTEX
  5
DF5EE
330
DF5E9
100
AcDbEntity
  8
AM_0
100
AcDbVertex
100
AcDb2dVertex
 10
3640.509793010809
 20
-221.0501059306548
 30
0.0
  0
VERTEX
  5
DF5EF
330
DF5E9
100
AcDbEntity
  8
AM_0
100
AcDbVertex
100
AcDb2dVertex
 10
3639.860556228962
 20
-220.650359381525
 30
0.0
  0
VERTEX
  5
DF5F0
330
DF5E9
100
AcDbEntity
  8
AM_0
100
AcDbVertex
100
AcDb2dVertex
 10
3639.244745316557
 20
-220.227182103483
 30
0.0
  0
VERTEX
  5
DF5F1
330
DF5E9
100
AcDbEntity
  8
AM_0
100
AcDbVertex
100
AcDb2dVertex
 10
3638.665020882725
 20
-219.7805856002253
 30
0.0
  0
VERTEX
  5
DF5F2
330
DF5E9
100
AcDbEntity
  8
AM_0
100
AcDbVertex
100
AcDb2dVertex
 10
3638.120485561812
 20
-219.3087039721886
 30
0.0
  0
VERTEX
  5
DF5F3
330
DF5E9
100
AcDbEntity
  8
AM_0
100
AcDbVertex
100
AcDb2dVertex
 10
3637.614586371206
 20
-218.8148525846876
 30
0.0
  0
VERTEX
  5
DF5F4
330
DF5E9
100
AcDbEntity
  8
AM_0
100
AcDbVertex
100
AcDb2dVertex
 10
3637.150642091967
 20
-218.3020523084081
 30
0.0
  0
VERTEX
  5
DF5F5
330
DF5E9
100
AcDbEntity
  8
AM_0
100
AcDbVertex
100
AcDb2dVertex
 10
3636.731429763519
 20
-217.7750288618478
 30
0.0
  0
VERTEX
  5
DF5F6
330
DF5E9
100
AcDbEntity
  8
AM_0
100
AcDbVertex
100
AcDb2dVertex
 10
3636.362880208493
 20
-217.2476672066125
 30
0.0
  0
VERTEX
  5
DF5F7
330
DF5E9
100
AcDbEntity
  8
AM_0
100
AcDbVertex
100
AcDb2dVertex
 10
3636.199598233195
 20
-216.9885234368714
 30
0.0
  0
VERTEX
  5
DF5F8
330
DF5E9
100
AcDbEntity
  8
AM_0
100
AcDbVertex
100
AcDb2dVertex
 10
3636.051277200396
 20
-216.7350164783865
 30
0.0
  0
VERTEX
  5
DF5F9
330
DF5E9
100
AcDbEntity
  8
AM_0
100
AcDbVertex
100
AcDb2dVertex
 10
3635.918195658888
 20
-216.4899854434398
 30
0.0
  0
VERTEX
  5
DF5FA
330
DF5E9
100
AcDbEntity
  8
AM_0
100
AcDbVertex
100
AcDb2dVertex
 10
3635.800665662422
 20
-216.2565570367245
 30
0.0
  0
VERTEX
  5
DF5FB
330
DF5E9
100
AcDbEntity
  8
AM_0
100
AcDbVertex
100
AcDb2dVertex
 10
3635.698928329924
 20
-216.0377199185757
 30
0.0
  0
VERTEX
  5
DF5FC
330
DF5E9
100
AcDbEntity
  8
AM_0
100
AcDbVertex
100
AcDb2dVertex
 10
3635.612404537834
 20
-215.8355539573099
 30
0.0
  0
VERTEX
  5
DF5FD
330
DF5E9
100
AcDbEntity
  8
AM_0
100
AcDbVertex
100
AcDb2dVertex
 10
3635.541022637898
 20
-215.6539635074997
 30
0.0
  0
VERTEX
  5
DF5FE
330
DF5E9
100
AcDbEntity
  8
AM_0
100
AcDbVertex
100
AcDb2dVertex
 10
3635.506103476624
 20
-215.5588302386664
 30
0.0
  0
VERTEX
  5
DF5FF
330
DF5E9
100
AcDbEntity
  8
AM_0
100
AcDbVertex
100
AcDb2dVertex
 10
3635.489892947366
 20
-215.5131651652717
 30
0.0
  0
VERTEX
  5
DF600
330
DF5E9
100
AcDbEntity
  8
AM_0
100
AcDbVertex
100
AcDb2dVertex
 10
3635.482663873118
 20
-215.4923986924552
 30
0.0
  0
SEQEND
  5
DF601
330
DF5E9
100
AcDbEntity
  8
AM_0
  0
POLYLINE
  5
DF602
330
1F
100
AcDbEntity
  8
AM_0
100
AcDb2dPolyline
 66
     1
 10
0.0
 20
0.0
 30
0.0
 70
   128
  0
VERTEX
  5
DF603
330
DF602
100
AcDbEntity
  8
AM_0
100
AcDbVertex
100
AcDb2dVertex
 10
3667.307491513116
 20
-225.4157058132609
 30
0.0
  0
VERTEX
  5
DF604
330
DF602
100
AcDbEntity
  8
AM_0
100
AcDbVertex
100
AcDb2dVertex
 10
3665.446845919023
 20
-225.4019473923162
 30
0.0
  0
VERTEX
  5
DF605
330
DF602
100
AcDbEntity
  8
AM_0
100
AcDbVertex
100
AcDb2dVertex
 10
3663.600644880972
 20
-225.3578100098089
 30
0.0
  0
VERTEX
  5
DF606
330
DF602
100
AcDbEntity
  8
AM_0
100
AcDbVertex
100
AcDb2dVertex
 10
3661.763194469344
 20
-225.2847178233578
 30
0.0
  0
VERTEX
  5
DF607
330
DF602
100
AcDbEntity
  8
AM_0
100
AcDbVertex
100
AcDb2dVertex
 10
3659.934029451643
 20
-225.182208384366
 30
0.0
  0
VERTEX
  5
DF608
330
DF602
100
AcDbEntity
  8
AM_0
100
AcDbVertex
100
AcDb2dVertex
 10
3658.114611962387
 20
-225.0497847331474
 30
0.0
  0
VERTEX
  5
DF609
330
DF602
100
AcDbEntity
  8
AM_0
100
AcDbVertex
100
AcDb2dVertex
 10
3656.306117599525
 20
-224.8871638787694
 30
0.0
  0
VERTEX
  5
DF60A
330
DF602
100
AcDbEntity
  8
AM_0
100
AcDbVertex
100
AcDb2dVertex
 10
3654.509717441888
 20
-224.6940628302999
 30
0.0
  0
VERTEX
  5
DF60B
330
DF602
100
AcDbEntity
  8
AM_0
100
AcDbVertex
100
AcDb2dVertex
 10
3652.726582642736
 20
-224.4701962960664
 30
0.0
  0
SEQEND
  5
DF60C
330
DF602
100
AcDbEntity
  8
AM_0
  0
POLYLINE
  5
DF60D
330
1F
100
AcDbEntity
  8
AM_0
100
AcDb2dPolyline
 66
     1
 10
0.0
 20
0.0
 30
0.0
 70
   128
  0
VERTEX
  5
DF60E
330
DF60D
100
AcDbEntity
  8
AM_0
100
AcDbVertex
100
AcDb2dVertex
 10
3697.839710671814
 20
-221.2954636705852
 30
0.0
  0
VERTEX
  5
DF60F
330
DF60D
100
AcDbEntity
  8
AM_0
100
AcDbVertex
100
AcDb2dVertex
 10
3697.600894118544
 20
-221.3425782097316
 30
0.0
  0
VERTEX
  5
DF610
330
DF60D
100
AcDbEntity
  8
AM_0
100
AcDbVertex
100
AcDb2dVertex
 10
3697.359830199818
 20
-221.3904220832324
 30
0.0
  0
VERTEX
  5
DF611
330
DF60D
100
AcDbEntity
  8
AM_0
100
AcDbVertex
100
AcDb2dVertex
 10
3696.878044179082
 20
-221.4868644727206
 30
0.0
  0
VERTEX
  5
DF612
330
DF60D
100
AcDbEntity
  8
AM_0
100
AcDbVertex
100
AcDb2dVertex
 10
3695.915906137792
 20
-221.6824756277537
 30
0.0
  0
VERTEX
  5
DF613
330
DF60D
100
AcDbEntity
  8
AM_0
100
AcDbVertex
100
AcDb2dVertex
 10
3693.995907657065
 20
-222.0824131382439
 30
0.0
  0
VERTEX
  5
DF614
330
DF60D
100
AcDbEntity
  8
AM_0
100
AcDbVertex
100
AcDb2dVertex
 10
3692.080000219398
 20
-222.4903457177613
 30
0.0
  0
VERTEX
  5
DF615
330
DF60D
100
AcDbEntity
  8
AM_0
100
AcDbVertex
100
AcDb2dVertex
 10
3690.166586667054
 20
-222.8982345832322
 30
0.0
  0
VERTEX
  5
DF616
330
DF60D
100
AcDbEntity
  8
AM_0
100
AcDbVertex
100
AcDb2dVertex
 10
3688.254195244073
 20
-223.2939985526536
 30
0.0
  0
VERTEX
  5
DF617
330
DF60D
100
AcDbEntity
  8
AM_0
100
AcDbVertex
100
AcDb2dVertex
 10
3686.341346261702
 20
-223.6655173314545
 30
0.0
  0
VERTEX
  5
DF618
330
DF60D
100
AcDbEntity
  8
AM_0
100
AcDbVertex
100
AcDb2dVertex
 10
3684.426570354653
 20
-224.0024007810089
 30
0.0
  0
VERTEX
  5
DF619
330
DF60D
100
AcDbEntity
  8
AM_0
100
AcDbVertex
100
AcDb2dVertex
 10
3682.509818244288
 20
-224.303942574355
 30
0.0
  0
VERTEX
  5
DF61A
330
DF60D
100
AcDbEntity
  8
AM_0
100
AcDbVertex
100
AcDb2dVertex
 10
3680.592711766143
 20
-224.5697239769429
 30
0.0
  0
VERTEX
  5
DF61B
330
DF60D
100
AcDbEntity
  8
AM_0
100
AcDbVertex
100
AcDb2dVertex
 10
3678.67694206371
 20
-224.7989765418499
 30
0.0
  0
VERTEX
  5
DF61C
330
DF60D
100
AcDbEntity
  8
AM_0
100
AcDbVertex
100
AcDb2dVertex
 10
3676.764208946554
 20
-224.9909387243716
 30
0.0
  0
VERTEX
  5
DF61D
330
DF60D
100
AcDbEntity
  8
AM_0
100
AcDbVertex
100
AcDb2dVertex
 10
3674.845661393465
 20
-225.1455299986328
 30
0.0
  0
VERTEX
  5
DF61E
330
DF60D
100
AcDbEntity
  8
AM_0
100
AcDbVertex
100
AcDb2dVertex
 10
3672.917060240012
 20
-225.2642343414748
 30
0.0
  0
VERTEX
  5
DF61F
330
DF60D
100
AcDbEntity
  8
AM_0
100
AcDbVertex
100
AcDb2dVertex
 10
3671.956297304884
 20
-225.3104653967346
 30
0.0
  0
VERTEX
  5
DF620
330
DF60D
100
AcDbEntity
  8
AM_0
100
AcDbVertex
100
AcDb2dVertex
 10
3671.001882961479
 20
-225.348123897406
 30
0.0
  0
VERTEX
  5
DF621
330
DF60D
100
AcDbEntity
  8
AM_0
100
AcDbVertex
100
AcDb2dVertex
 10
3670.056805723057
 20
-225.3773455871069
 30
0.0
  0
VERTEX
  5
DF622
330
DF60D
100
AcDbEntity
  8
AM_0
100
AcDbVertex
100
AcDb2dVertex
 10
3669.124054102882
 20
-225.3982616079769
 30
0.0
  0
VERTEX
  5
DF623
330
DF60D
100
AcDbEntity
  8
AM_0
100
AcDbVertex
100
AcDb2dVertex
 10
3668.206620761163
 20
-225.4110008014163
 30
0.0
  0
VERTEX
  5
DF624
330
DF60D
100
AcDbEntity
  8
AM_0
100
AcDbVertex
100
AcDb2dVertex
 10
3667.307489617606
 20
-225.4157012117824
 30
0.0
  0
SEQEND
  5
DF625
330
DF60D
100
AcDbEntity
  8
AM_0
  0
POLYLINE
  5
DF626
330
1F
100
AcDbEntity
  8
AM_0
100
AcDb2dPolyline
 66
     1
 10
0.0
 20
0.0
 30
0.0
 70
   128
  0
VERTEX
  5
DF627
330
DF626
100
AcDbEntity
  8
AM_0
100
AcDbVertex
100
AcDb2dVertex
 10
3715.500499412463
 20
-219.3408084882238
 30
0.0
  0
VERTEX
  5
DF628
330
DF626
100
AcDbEntity
  8
AM_0
100
AcDbVertex
100
AcDb2dVertex
 10
3713.276766781314
 20
-219.3774385584333
 30
0.0
  0
VERTEX
  5
DF629
330
DF626
100
AcDbEntity
  8
AM_0
100
AcDbVertex
100
AcDb2dVertex
 10
3711.05426606456
 20
-219.4850188268163
 30
0.0
  0
VERTEX
  5
DF62A
330
DF626
100
AcDbEntity
  8
AM_0
100
AcDbVertex
100
AcDb2dVertex
 10
3708.834692578881
 20
-219.657749129627
 30
0.0
  0
VERTEX
  5
DF62B
330
DF626
100
AcDbEntity
  8
AM_0
100
AcDbVertex
100
AcDb2dVertex
 10
3706.619732770195
 20
-219.8898224009016
 30
0.0
  0
VERTEX
  5
DF62C
330
DF626
100
AcDbEntity
  8
AM_0
100
AcDbVertex
100
AcDb2dVertex
 10
3704.411073061152
 20
-220.1754361761549
 30
0.0
  0
VERTEX
  5
DF62D
330
DF626
100
AcDbEntity
  8
AM_0
100
AcDbVertex
100
AcDb2dVertex
 10
3702.210391050164
 20
-220.5087833894232
 30
0.0
  0
VERTEX
  5
DF62E
330
DF626
100
AcDbEntity
  8
AM_0
100
AcDbVertex
100
AcDb2dVertex
 10
3700.019373124995
 20
-220.884061576221
 30
0.0
  0
VERTEX
  5
DF62F
330
DF626
100
AcDbEntity
  8
AM_0
100
AcDbVertex
100
AcDb2dVertex
 10
3697.839714627909
 20
-221.2954636705852
 30
0.0
  0
SEQEND
  5
DF630
330
DF626
100
AcDbEntity
  8
AM_0
  0
POLYLINE
  5
DF631
330
1F
100
AcDbEntity
  8
AM_0
100
AcDb2dPolyline
 66
     1
 10
0.0
 20
0.0
 30
0.0
 70
   128
  0
VERTEX
  5
DF632
330
DF631
100
AcDbEntity
  8
AM_0
100
AcDbVertex
100
AcDb2dVertex
 10
3624.235837560262
 20
-245.8524389756593
 30
0.0
  0
VERTEX
  5
DF633
330
DF631
100
AcDbEntity
  8
AM_0
100
AcDbVertex
100
AcDb2dVertex
 10
3625.097206847436
 20
-245.9238769305619
 30
0.0
  0
VERTEX
  5
DF634
330
DF631
100
AcDbEntity
  8
AM_0
100
AcDbVertex
100
AcDb2dVertex
 10
3625.95482098803
 20
-245.9729655040177
 30
0.0
  0
VERTEX
  5
DF635
330
DF631
100
AcDbEntity
  8
AM_0
100
AcDbVertex
100
AcDb2dVertex
 10
3626.808492955514
 20
-246.0019272101792
 30
0.0
  0
VERTEX
  5
DF636
330
DF631
100
AcDbEntity
  8
AM_0
100
AcDbVertex
100
AcDb2dVertex
 10
3627.658035450224
 20
-246.0129891646775
 30
0.0
  0
VERTEX
  5
DF637
330
DF631
100
AcDbEntity
  8
AM_0
100
AcDbVertex
100
AcDb2dVertex
 10
3628.503261167844
 20
-246.0083738816653
 30
0.0
  0
VERTEX
  5
DF638
330
DF631
100
AcDbEntity
  8
AM_0
100
AcDbVertex
100
AcDb2dVertex
 10
3629.3439827994
 20
-245.990303875295
 30
0.0
  0
VERTEX
  5
DF639
330
DF631
100
AcDbEntity
  8
AM_0
100
AcDbVertex
100
AcDb2dVertex
 10
3631.011165165898
 20
-245.9226943505681
 30
0.0
  0
VERTEX
  5
DF63A
330
DF631
100
AcDbEntity
  8
AM_0
100
AcDbVertex
100
AcDb2dVertex
 10
3632.658085240302
 20
-245.827959109632
 30
0.0
  0
VERTEX
  5
DF63B
330
DF631
100
AcDbEntity
  8
AM_0
100
AcDbVertex
100
AcDb2dVertex
 10
3634.286850324125
 20
-245.7209977401178
 30
0.0
  0
VERTEX
  5
DF63C
330
DF631
100
AcDbEntity
  8
AM_0
100
AcDbVertex
100
AcDb2dVertex
 10
3637.531928904908
 20
-245.5117455018446
 30
0.0
  0
SEQEND
  5
DF63D
330
DF631
100
AcDbEntity
  8
AM_0
  0
POLYLINE
  5
DF63E
330
1F
100
AcDbEntity
  8
AM_0
100
AcDb2dPolyline
 66
     1
 10
0.0
 20
0.0
 30
0.0
 70
   128
  0
VERTEX
  5
DF63F
330
DF63E
100
AcDbEntity
  8
AM_0
100
AcDbVertex
100
AcDb2dVertex
 10
3732.960010361269
 20
-238.1197094453314
 30
0.0
  0
VERTEX
  5
DF640
330
DF63E
100
AcDbEntity
  8
AM_0
100
AcDbVertex
100
AcDb2dVertex
 10
3733.037712079414
 20
-236.7559278262593
 30
0.0
  0
VERTEX
  5
DF641
330
DF63E
100
AcDbEntity
  8
AM_0
100
AcDbVertex
100
AcDb2dVertex
 10
3733.093544330233
 20
-235.390498877857
 30
0.0
  0
VERTEX
  5
DF642
330
DF63E
100
AcDbEntity
  8
AM_0
100
AcDbVertex
100
AcDb2dVertex
 10
3733.127331584495
 20
-234.0239701760748
 30
0.0
  0
VERTEX
  5
DF643
330
DF63E
100
AcDbEntity
  8
AM_0
100
AcDbVertex
100
AcDb2dVertex
 10
3733.138880385347
 20
-232.6569077027776
 30
0.0
  0
VERTEX
  5
DF644
330
DF63E
100
AcDbEntity
  8
AM_0
100
AcDbVertex
100
AcDb2dVertex
 10
3733.128006016443
 20
-231.2898544324376
 30
0.0
  0
VERTEX
  5
DF645
330
DF63E
100
AcDbEntity
  8
AM_0
100
AcDbVertex
100
AcDb2dVertex
 10
3733.094523910307
 20
-229.9233763469198
 30
0.0
  0
VERTEX
  5
DF646
330
DF63E
100
AcDbEntity
  8
AM_0
100
AcDbVertex
100
AcDb2dVertex
 10
3733.038240610085
 20
-228.5580233229139
 30
0.0
  0
VERTEX
  5
DF647
330
DF63E
100
AcDbEntity
  8
AM_0
100
AcDbVertex
100
AcDb2dVertex
 10
3732.958971399433
 20
-227.1943498385885
 30
0.0
  0
SEQEND
  5
DF648
330
DF63E
100
AcDbEntity
  8
AM_0
  0
POLYLINE
  5
DF649
330
1F
100
AcDbEntity
  8
AM_0
100
AcDb2dPolyline
 66
     1
 10
0.0
 20
0.0
 30
0.0
 70
   128
  0
VERTEX
  5
DF64A
330
DF649
100
AcDbEntity
  8
AM_0
100
AcDbVertex
100
AcDb2dVertex
 10
3732.958992472369
 20
-227.1943498385885
 30
0.0
  0
VERTEX
  5
DF64B
330
DF649
100
AcDbEntity
  8
AM_0
100
AcDbVertex
100
AcDb2dVertex
 10
3732.906378517838
 20
-226.6837927831152
 30
0.0
  0
VERTEX
  5
DF64C
330
DF649
100
AcDbEntity
  8
AM_0
100
AcDbVertex
100
AcDb2dVertex
 10
3732.817457158472
 20
-226.1765257848242
 30
0.0
  0
VERTEX
  5
DF64D
330
DF649
100
AcDbEntity
  8
AM_0
100
AcDbVertex
100
AcDb2dVertex
 10
3732.693342185366
 20
-225.6761748088339
 30
0.0
  0
VERTEX
  5
DF64E
330
DF649
100
AcDbEntity
  8
AM_0
100
AcDbVertex
100
AcDb2dVertex
 10
3732.535120870362
 20
-225.1863612187841
 30
0.0
  0
VERTEX
  5
DF64F
330
DF649
100
AcDbEntity
  8
AM_0
100
AcDbVertex
100
AcDb2dVertex
 10
3732.343864747962
 20
-224.7105591310003
 30
0.0
  0
VERTEX
  5
DF650
330
DF649
100
AcDbEntity
  8
AM_0
100
AcDbVertex
100
AcDb2dVertex
 10
3732.119854152562
 20
-224.2485729826429
 30
0.0
  0
VERTEX
  5
DF651
330
DF649
100
AcDbEntity
  8
AM_0
100
AcDbVertex
100
AcDb2dVertex
 10
3731.864607108164
 20
-223.8017141951063
 30
0.0
  0
VERTEX
  5
DF652
330
DF649
100
AcDbEntity
  8
AM_0
100
AcDbVertex
100
AcDb2dVertex
 10
3731.580217599829
 20
-223.37273215184
 30
0.0
  0
VERTEX
  5
DF653
330
DF649
100
AcDbEntity
  8
AM_0
100
AcDbVertex
100
AcDb2dVertex
 10
3731.268779017141
 20
-222.9643785370329
 30
0.0
  0
VERTEX
  5
DF654
330
DF649
100
AcDbEntity
  8
AM_0
100
AcDbVertex
100
AcDb2dVertex
 10
3730.931638550702
 20
-222.5784088147619
 30
0.0
  0
VERTEX
  5
DF655
330
DF649
100
AcDbEntity
  8
AM_0
100
AcDbVertex
100
AcDb2dVertex
 10
3730.568975348421
 20
-222.2142224920728
 30
0.0
  0
VERTEX
  5
DF656
330
DF649
100
AcDbEntity
  8
AM_0
100
AcDbVertex
100
AcDb2dVertex
 10
3730.183220700676
 20
-221.8734507931211
 30
0.0
  0
VERTEX
  5
DF657
330
DF649
100
AcDbEntity
  8
AM_0
100
AcDbVertex
100
AcDb2dVertex
 10
3729.77694493822
 20
-221.5579043997267
 30
0.0
  0
VERTEX
  5
DF658
330
DF649
100
AcDbEntity
  8
AM_0
100
AcDbVertex
100
AcDb2dVertex
 10
3729.352726834576
 20
-221.2693870914915
 30
0.0
  0
VERTEX
  5
DF659
330
DF649
100
AcDbEntity
  8
AM_0
100
AcDbVertex
100
AcDb2dVertex
 10
3728.912035800084
 20
-221.0086189998129
 30
0.0
  0
VERTEX
  5
DF65A
330
DF649
100
AcDbEntity
  8
AM_0
100
AcDbVertex
100
AcDb2dVertex
 10
3728.455984336448
 20
-220.775577117298
 30
0.0
  0
SEQEND
  5
DF65B
330
DF649
100
AcDbEntity
  8
AM_0
  0
POLYLINE
  5
DF65C
330
1F
100
AcDbEntity
  8
AM_0
100
AcDb2dPolyline
 66
     1
 10
0.0
 20
0.0
 30
0.0
 70
   128
  0
VERTEX
  5
DF65D
330
DF65C
100
AcDbEntity
  8
AM_0
100
AcDbVertex
100
AcDb2dVertex
 10
3728.456148853997
 20
-220.7756530416944
 30
0.0
  0
VERTEX
  5
DF65E
330
DF65C
100
AcDbEntity
  8
AM_0
100
AcDbVertex
100
AcDb2dVertex
 10
3728.081262673683
 20
-220.6096639049985
 30
0.0
  0
VERTEX
  5
DF65F
330
DF65C
100
AcDbEntity
  8
AM_0
100
AcDbVertex
100
AcDb2dVertex
 10
3727.697986589392
 20
-220.4619909537771
 30
0.0
  0
VERTEX
  5
DF660
330
DF65C
100
AcDbEntity
  8
AM_0
100
AcDbVertex
100
AcDb2dVertex
 10
3727.307777038613
 20
-220.3330460203626
 30
0.0
  0
VERTEX
  5
DF661
330
DF65C
100
AcDbEntity
  8
AM_0
100
AcDbVertex
100
AcDb2dVertex
 10
3726.912072828959
 20
-220.223250140045
 30
0.0
  0
VERTEX
  5
DF662
330
DF65C
100
AcDbEntity
  8
AM_0
100
AcDbVertex
100
AcDb2dVertex
 10
3726.512260014665
 20
-220.1330036414602
 30
0.0
  0
VERTEX
  5
DF663
330
DF65C
100
AcDbEntity
  8
AM_0
100
AcDbVertex
100
AcDb2dVertex
 10
3726.110794247203
 20
-220.0606868041494
 30
0.0
  0
VERTEX
  5
DF664
330
DF65C
100
AcDbEntity
  8
AM_0
100
AcDbVertex
100
AcDb2dVertex
 10
3725.30273336118
 20
-219.9301819694975
 30
0.0
  0
VERTEX
  5
DF665
330
DF65C
100
AcDbEntity
  8
AM_0
100
AcDbVertex
100
AcDb2dVertex
 10
3723.679934457267
 20
-219.7107052458265
 30
0.0
  0
VERTEX
  5
DF666
330
DF65C
100
AcDbEntity
  8
AM_0
100
AcDbVertex
100
AcDb2dVertex
 10
3722.050006908599
 20
-219.5447115076521
 30
0.0
  0
VERTEX
  5
DF667
330
DF65C
100
AcDbEntity
  8
AM_0
100
AcDbVertex
100
AcDb2dVertex
 10
3720.415572632913
 20
-219.4293823493459
 30
0.0
  0
VERTEX
  5
DF668
330
DF65C
100
AcDbEntity
  8
AM_0
100
AcDbVertex
100
AcDb2dVertex
 10
3718.778296930826
 20
-219.3669655931928
 30
0.0
  0
VERTEX
  5
DF669
330
DF65C
100
AcDbEntity
  8
AM_0
100
AcDbVertex
100
AcDb2dVertex
 10
3717.139426319876
 20
-219.3442826045492
 30
0.0
  0
VERTEX
  5
DF66A
330
DF65C
100
AcDbEntity
  8
AM_0
100
AcDbVertex
100
AcDb2dVertex
 10
3715.50052116819
 20
-219.3407716763952
 30
0.0
  0
SEQEND
  5
DF66B
330
DF65C
100
AcDbEntity
  8
AM_0
  0
LINE
  5
DF66C
330
1F
100
AcDbEntity
  8
AM_0
100
AcDbLine
 10
3610.782339117751
 20
-225.4131289852528
 30
0.0
 11
3608.787179848422
 21
-190.1931953171771
 31
0.0
  0
LINE
  5
DF673
330
1F
100
AcDbEntity
  8
AM_0
100
AcDbLine
 10
3634.801433860324
 20
-208.2138696087256
 30
0.0
 11
3635.623181868391
 21
-190.1932094609145
 31
0.0
  0
POLYLINE
  5
DF674
330
1F
100
AcDbEntity
  8
AM_0
100
AcDb2dPolyline
 66
     1
 10
0.0
 20
0.0
 30
0.0
 70
   128
  0
VERTEX
  5
DF675
330
DF674
100
AcDbEntity
  8
AM_0
100
AcDbVertex
100
AcDb2dVertex
 10
3635.471109987467
 20
-215.4584903968239
 30
0.0
  0
VERTEX
  5
DF676
330
DF674
100
AcDbEntity
  8
AM_0
100
AcDbVertex
100
AcDb2dVertex
 10
3635.347260174983
 20
-215.0701578153038
 30
0.0
  0
VERTEX
  5
DF677
330
DF674
100
AcDbEntity
  8
AM_0
100
AcDbVertex
100
AcDb2dVertex
 10
3635.234390609089
 20
-214.6684602392575
 30
0.0
  0
VERTEX
  5
DF678
330
DF674
100
AcDbEntity
  8
AM_0
100
AcDbVertex
100
AcDb2dVertex
 10
3635.132794643678
 20
-214.2545365346334
 30
0.0
  0
VERTEX
  5
DF679
330
DF674
100
AcDbEntity
  8
AM_0
100
AcDbVertex
100
AcDb2dVertex
 10
3635.042767557246
 20
-213.8295163644213
 30
0.0
  0
VERTEX
  5
DF67A
330
DF674
100
AcDbEntity
  8
AM_0
100
AcDbVertex
100
AcDb2dVertex
 10
3634.964603814855
 20
-213.3945362938303
 30
0.0
  0
VERTEX
  5
DF67B
330
DF674
100
AcDbEntity
  8
AM_0
100
AcDbVertex
100
AcDb2dVertex
 10
3634.8985977327
 20
-212.9507236851114
 30
0.0
  0
VERTEX
  5
DF67C
330
DF674
100
AcDbEntity
  8
AM_0
100
AcDbVertex
100
AcDb2dVertex
 10
3634.845042664672
 20
-212.4992174042124
 30
0.0
  0
VERTEX
  5
DF67D
330
DF674
100
AcDbEntity
  8
AM_0
100
AcDbVertex
100
AcDb2dVertex
 10
3634.804159893094
 20
-212.0408112061877
 30
0.0
  0
VERTEX
  5
DF67E
330
DF674
100
AcDbEntity
  8
AM_0
100
AcDbVertex
100
AcDb2dVertex
 10
3634.775263787207
 20
-211.5751254690546
 30
0.0
  0
VERTEX
  5
DF67F
330
DF674
100
AcDbEntity
  8
AM_0
100
AcDbVertex
100
AcDb2dVertex
 10
3634.757100852148
 20
-211.1032737506287
 30
0.0
  0
VERTEX
  5
DF680
330
DF674
100
AcDbEntity
  8
AM_0
100
AcDbVertex
100
AcDb2dVertex
 10
3634.747944155941
 20
-210.1463755739587
 30
0.0
  0
VERTEX
  5
DF681
330
DF674
100
AcDbEntity
  8
AM_0
100
AcDbVertex
100
AcDb2dVertex
 10
3634.76663142943
 20
-209.1807115805998
 30
0.0
  0
VERTEX
  5
DF682
330
DF674
100
AcDbEntity
  8
AM_0
100
AcDbVertex
100
AcDb2dVertex
 10
3634.801433860324
 20
-208.2138696087256
 30
0.0
  0
SEQEND
  5
DF683
330
DF674
100
AcDbEntity
  8
AM_0
  0
LINE
  5
DF6C3
330
1F
100
AcDbEntity
  8
AM_0
100
AcDbLine
 10
3794.802808541261
 20
-190.1932055372836
 30
0.0
 11
3822.217379322172
 21
-190.1932055372839
 31
0.0
  0
POLYLINE
  5
DF6C4
330
1F
100
AcDbEntity
  8
AM_0
100
AcDb2dPolyline
 66
     1
 10
0.0
 20
0.0
 30
0.0
 70
   128
  0
VERTEX
  5
DF6C5
330
DF6C4
100
AcDbEntity
  8
AM_0
100
AcDbVertex
100
AcDb2dVertex
 10
3785.415196543197
 20
-219.3437538412284
 30
0.0
  0
VERTEX
  5
DF6C6
330
DF6C4
100
AcDbEntity
  8
AM_0
100
AcDbVertex
100
AcDb2dVertex
 10
3785.534141776394
 20
-219.3409885901776
 30
0.0
  0
VERTEX
  5
DF6C7
330
DF6C4
100
AcDbEntity
  8
AM_0
100
AcDbVertex
100
AcDb2dVertex
 10
3785.653104679392
 20
-219.3419848102895
 30
0.0
  0
VERTEX
  5
DF6C8
330
DF6C4
100
AcDbEntity
  8
AM_0
100
AcDbVertex
100
AcDb2dVertex
 10
3785.772144870808
 20
-219.3469912189808
 30
0.0
  0
VERTEX
  5
DF6C9
330
DF6C4
100
AcDbEntity
  8
AM_0
100
AcDbVertex
100
AcDb2dVertex
 10
3785.891146907017
 20
-219.3562217850056
 30
0.0
  0
VERTEX
  5
DF6CA
330
DF6C4
100
AcDbEntity
  8
AM_0
100
AcDbVertex
100
AcDb2dVertex
 10
3786.009852810226
 20
-219.3698467630711
 30
0.0
  0
VERTEX
  5
DF6CB
330
DF6C4
100
AcDbEntity
  8
AM_0
100
AcDbVertex
100
AcDb2dVertex
 10
3786.127999088108
 20
-219.3880249041882
 30
0.0
  0
VERTEX
  5
DF6CC
330
DF6C4
100
AcDbEntity
  8
AM_0
100
AcDbVertex
100
AcDb2dVertex
 10
3786.245319727536
 20
-219.4109218615857
 30
0.0
  0
VERTEX
  5
DF6CD
330
DF6C4
100
AcDbEntity
  8
AM_0
100
AcDbVertex
100
AcDb2dVertex
 10
3786.361548576488
 20
-219.4386986870137
 30
0.0
  0
VERTEX
  5
DF6CE
330
DF6C4
100
AcDbEntity
  8
AM_0
100
AcDbVertex
100
AcDb2dVertex
 10
3786.476433532146
 20
-219.4714727181759
 30
0.0
  0
VERTEX
  5
DF6CF
330
DF6C4
100
AcDbEntity
  8
AM_0
100
AcDbVertex
100
AcDb2dVertex
 10
3786.589774480291
 20
-219.5091887373296
 30
0.0
  0
VERTEX
  5
DF6D0
330
DF6C4
100
AcDbEntity
  8
AM_0
100
AcDbVertex
100
AcDb2dVertex
 10
3786.701377932415
 20
-219.5517409104672
 30
0.0
  0
VERTEX
  5
DF6D1
330
DF6C4
100
AcDbEntity
  8
AM_0
100
AcDbVertex
100
AcDb2dVertex
 10
3786.811060205405
 20
-219.5990303057996
 30
0.0
  0
VERTEX
  5
DF6D2
330
DF6C4
100
AcDbEntity
  8
AM_0
100
AcDbVertex
100
AcDb2dVertex
 10
3786.918630331548
 20
-219.6509510893193
 30
0.0
  0
VERTEX
  5
DF6D3
330
DF6C4
100
AcDbEntity
  8
AM_0
100
AcDbVertex
100
AcDb2dVertex
 10
3787.023899725035
 20
-219.7074066299763
 30
0.0
  0
VERTEX
  5
DF6D4
330
DF6C4
100
AcDbEntity
  8
AM_0
100
AcDbVertex
100
AcDb2dVertex
 10
3787.126679800053
 20
-219.7682887930241
 30
0.0
  0
VERTEX
  5
DF6D5
330
DF6C4
100
AcDbEntity
  8
AM_0
100
AcDbVertex
100
AcDb2dVertex
 10
3787.226781970792
 20
-219.8334986466733
 30
0.0
  0
VERTEX
  5
DF6D6
330
DF6C4
100
AcDbEntity
  8
AM_0
100
AcDbVertex
100
AcDb2dVertex
 10
3787.324042375014
 20
-219.9028981465665
 30
0.0
  0
VERTEX
  5
DF6D7
330
DF6C4
100
AcDbEntity
  8
AM_0
100
AcDbVertex
100
AcDb2dVertex
 10
3787.418406843093
 20
-219.9762204069462
 30
0.0
  0
VERTEX
  5
DF6D8
330
DF6C4
100
AcDbEntity
  8
AM_0
100
AcDbVertex
100
AcDb2dVertex
 10
3787.509842158114
 20
-220.0531594294873
 30
0.0
  0
VERTEX
  5
DF6D9
330
DF6C4
100
AcDbEntity
  8
AM_0
100
AcDbVertex
100
AcDb2dVertex
 10
3787.598315658747
 20
-220.1334138173428
 30
0.0
  0
VERTEX
  5
DF6DA
330
DF6C4
100
AcDbEntity
  8
AM_0
100
AcDbVertex
100
AcDb2dVertex
 10
3787.683797343353
 20
-220.2166798729268
 30
0.0
  0
VERTEX
  5
DF6DB
330
DF6C4
100
AcDbEntity
  8
AM_0
100
AcDbVertex
100
AcDb2dVertex
 10
3787.766261217633
 20
-220.3026631016103
 30
0.0
  0
VERTEX
  5
DF6DC
330
DF6C4
100
AcDbEntity
  8
AM_0
100
AcDbVertex
100
AcDb2dVertex
 10
3787.845775382178
 20
-220.391154136118
 30
0.0
  0
VERTEX
  5
DF6DD
330
DF6C4
100
AcDbEntity
  8
AM_0
100
AcDbVertex
100
AcDb2dVertex
 10
3787.922465600273
 20
-220.4820057291356
 30
0.0
  0
SEQEND
  5
DF6DE
330
DF6C4
100
AcDbEntity
  8
AM_0
  0
POLYLINE
  5
DF6DF
330
1F
100
AcDbEntity
  8
AM_0
100
AcDb2dPolyline
 66
     1
 10
0.0
 20
0.0
 30
0.0
 70
   128
  0
VERTEX
  5
DF6E0
330
DF6DF
100
AcDbEntity
  8
AM_0
100
AcDbVertex
100
AcDb2dVertex
 10
3787.922445439625
 20
-220.4820218343106
 30
0.0
  0
VERTEX
  5
DF6E1
330
DF6DF
100
AcDbEntity
  8
AM_0
100
AcDbVertex
100
AcDb2dVertex
 10
3788.041735995915
 20
-220.6350071925488
 30
0.0
  0
VERTEX
  5
DF6E2
330
DF6DF
100
AcDbEntity
  8
AM_0
100
AcDbVertex
100
AcDb2dVertex
 10
3788.154376873742
 20
-220.7931370038358
 30
0.0
  0
VERTEX
  5
DF6E3
330
DF6DF
100
AcDbEntity
  8
AM_0
100
AcDbVertex
100
AcDb2dVertex
 10
3788.260730202587
 20
-220.9558130759564
 30
0.0
  0
VERTEX
  5
DF6E4
330
DF6DF
100
AcDbEntity
  8
AM_0
100
AcDbVertex
100
AcDb2dVertex
 10
3788.361150771083
 20
-221.122478630003
 30
0.0
  0
VERTEX
  5
DF6E5
330
DF6DF
100
AcDbEntity
  8
AM_0
100
AcDbVertex
100
AcDb2dVertex
 10
3788.455978367038
 20
-221.2926252025929
 30
0.0
  0
VERTEX
  5
DF6E6
330
DF6DF
100
AcDbEntity
  8
AM_0
100
AcDbVertex
100
AcDb2dVertex
 10
3788.545558535001
 20
-221.4657558340398
 30
0.0
  0
VERTEX
  5
DF6E7
330
DF6DF
100
AcDbEntity
  8
AM_0
100
AcDbVertex
100
AcDb2dVertex
 10
3788.630234715414
 20
-221.6413666624394
 30
0.0
  0
VERTEX
  5
DF6E8
330
DF6DF
100
AcDbEntity
  8
AM_0
100
AcDbVertex
100
AcDb2dVertex
 10
3788.710345307123
 20
-221.8189607281056
 30
0.0
  0
VERTEX
  5
DF6E9
330
DF6DF
100
AcDbEntity
  8
AM_0
100
AcDbVertex
100
AcDb2dVertex
 10
3788.786220298271
 20
-221.9981031913128
 30
0.0
  0
VERTEX
  5
DF6EA
330
DF6DF
100
AcDbEntity
  8
AM_0
100
AcDbVertex
100
AcDb2dVertex
 10
3788.858114548947
 20
-222.1786283988324
 30
0.0
  0
VERTEX
  5
DF6EB
330
DF6DF
100
AcDbEntity
  8
AM_0
100
AcDbVertex
100
AcDb2dVertex
 10
3788.926269029591
 20
-222.360430516657
 30
0.0
  0
VERTEX
  5
DF6EC
330
DF6DF
100
AcDbEntity
  8
AM_0
100
AcDbVertex
100
AcDb2dVertex
 10
3788.990923877264
 20
-222.5434060115185
 30
0.0
  0
VERTEX
  5
DF6ED
330
DF6DF
100
AcDbEntity
  8
AM_0
100
AcDbVertex
100
AcDb2dVertex
 10
3789.052320062405
 20
-222.7274490494099
 30
0.0
  0
VERTEX
  5
DF6EE
330
DF6DF
100
AcDbEntity
  8
AM_0
100
AcDbVertex
100
AcDb2dVertex
 10
3789.110697444285
 20
-222.9124606985418
 30
0.0
  0
VERTEX
  5
DF6EF
330
DF6DF
100
AcDbEntity
  8
AM_0
100
AcDbVertex
100
AcDb2dVertex
 10
3789.166299653036
 20
-223.0983305234281
 30
0.0
  0
VERTEX
  5
DF6F0
330
DF6DF
100
AcDbEntity
  8
AM_0
100
AcDbVertex
100
AcDb2dVertex
 10
3789.21936444382
 20
-223.2849595922795
 30
0.0
  0
VERTEX
  5
DF6F1
330
DF6DF
100
AcDbEntity
  8
AM_0
100
AcDbVertex
100
AcDb2dVertex
 10
3789.270109848498
 20
-223.4722466725675
 30
0.0
  0
VERTEX
  5
DF6F2
330
DF6DF
100
AcDbEntity
  8
AM_0
100
AcDbVertex
100
AcDb2dVertex
 10
3789.318670561053
 20
-223.6601273435917
 30
0.0
  0
VERTEX
  5
DF6F3
330
DF6DF
100
AcDbEntity
  8
AM_0
100
AcDbVertex
100
AcDb2dVertex
 10
3789.365161670403
 20
-223.848541786131
 30
0.0
  0
VERTEX
  5
DF6F4
330
DF6DF
100
AcDbEntity
  8
AM_0
100
AcDbVertex
100
AcDb2dVertex
 10
3789.409693661222
 20
-224.0374278802243
 30
0.0
  0
VERTEX
  5
DF6F5
330
DF6DF
100
AcDbEntity
  8
AM_0
100
AcDbVertex
100
AcDb2dVertex
 10
3789.452379240528
 20
-224.2267281073895
 30
0.0
  0
VERTEX
  5
DF6F6
330
DF6DF
100
AcDbEntity
  8
AM_0
100
AcDbVertex
100
AcDb2dVertex
 10
3789.493325323006
 20
-224.4163826484051
 30
0.0
  0
VERTEX
  5
DF6F7
330
DF6DF
100
AcDbEntity
  8
AM_0
100
AcDbVertex
100
AcDb2dVertex
 10
3789.532529207646
 20
-224.6063776988354
 30
0.0
  0
VERTEX
  5
DF6F8
330
DF6DF
100
AcDbEntity
  8
AM_0
100
AcDbVertex
100
AcDb2dVertex
 10
3789.569930731614
 20
-224.7967201608983
 30
0.0
  0
SEQEND
  5
DF6F9
330
DF6DF
100
AcDbEntity
  8
AM_0
  0
POLYLINE
  5
DF6FA
330
1F
100
AcDbEntity
  8
AM_0
100
AcDb2dPolyline
 66
     1
 10
0.0
 20
0.0
 30
0.0
  0
VERTEX
  5
DF6FB
330
DF6FA
100
AcDbEntity
  8
AM_0
100
AcDbVertex
100
AcDb2dVertex
 10
3793.635483936068
 20
-244.7265292837782
 30
0.0
  0
VERTEX
  5
DF6FC
330
DF6FA
100
AcDbEntity
  8
AM_0
100
AcDbVertex
100
AcDb2dVertex
 10
3793.518113744795
 20
-244.7244492668637
 30
0.0
  0
VERTEX
  5
DF6FD
330
DF6FA
100
AcDbEntity
  8
AM_0
100
AcDbVertex
100
AcDb2dVertex
 10
3793.369493335764
 20
-244.7221577305323
 30
0.0
  0
VERTEX
  5
DF6FE
330
DF6FA
100
AcDbEntity
  8
AM_0
100
AcDbVertex
100
AcDb2dVertex
 10
3793.224541641092
 20
-244.7202573198799
 30
0.0
  0
VERTEX
  5
DF6FF
330
DF6FA
100
AcDbEntity
  8
AM_0
100
AcDbVertex
100
AcDb2dVertex
 10
3793.08339168514
 20
-244.7187388319496
 30
0.0
  0
VERTEX
  5
DF700
330
DF6FA
100
AcDbEntity
  8
AM_0
100
AcDbVertex
100
AcDb2dVertex
 10
3792.946177405426
 20
-244.7175884623052
 30
0.0
  0
VERTEX
  5
DF701
330
DF6FA
100
AcDbEntity
  8
AM_0
100
AcDbVertex
100
AcDb2dVertex
 10
3792.812974680742
 20
-244.7167832035541
 30
0.0
  0
VERTEX
  5
DF702
330
DF6FA
100
AcDbEntity
  8
AM_0
100
AcDbVertex
100
AcDb2dVertex
 10
3792.683740654061
 20
-244.7162678379535
 30
0.0
  0
VERTEX
  5
DF703
330
DF6FA
100
AcDbEntity
  8
AM_0
100
AcDbVertex
100
AcDb2dVertex
 10
3792.558418658488
 20
-244.7159917492387
 30
0.0
  0
VERTEX
  5
DF704
330
DF6FA
100
AcDbEntity
  8
AM_0
100
AcDbVertex
100
AcDb2dVertex
 10
3792.436952662492
 20
-244.7158951181886
 30
0.0
  0
VERTEX
  5
DF705
330
DF6FA
100
AcDbEntity
  8
AM_0
100
AcDbVertex
100
AcDb2dVertex
 10
3792.319218533952
 20
-244.7159089226241
 30
0.0
  0
VERTEX
  5
DF706
330
DF6FA
100
AcDbEntity
  8
AM_0
100
AcDbVertex
100
AcDb2dVertex
 10
3792.204907606456
 20
-244.7159181255813
 30
0.0
  0
VERTEX
  5
DF707
330
DF6FA
100
AcDbEntity
  8
AM_0
100
AcDbVertex
100
AcDb2dVertex
 10
3792.093774313912
 20
-244.7158445019238
 30
0.0
  0
VERTEX
  5
DF708
330
DF6FA
100
AcDbEntity
  8
AM_0
100
AcDbVertex
100
AcDb2dVertex
 10
3791.985887318225
 20
-244.7157064575663
 30
0.0
  0
SEQEND
  5
DF709
330
DF6FA
100
AcDbEntity
  8
AM_0
  0
ELLIPSE
  5
DF70A
330
1F
100
AcDbEntity
  8
AM_0
100
AcDbEllipse
 10
3732.708518119868
 20
-235.7639891719284
 30
0.0
 11
0.0000785471757977
 21
-57.91156072459668
 31
0.0
210
0.0
220
0.0
230
1.0
 40
0.9999584173418561
 41
1.538110447757674
 42
1.623475816408064
  0
ELLIPSE
  5
DF70B
330
1F
100
AcDbEntity
  8
AM_0
100
AcDbEllipse
 10
3732.703732973801
 20
-235.7627360811155
 30
0.0
 11
-0.0014681991328099
 21
-57.9163859186122
 31
0.0
210
0.0
220
0.0
230
1.0
 40
0.9999583921180617
 41
1.463766955667049
 42
1.538118229556723
  0
ELLIPSE
  5
DF70C
330
1F
100
AcDbEntity
  8
AM_0
100
AcDbEllipse
 10
3732.690568457522
 20
-235.767485341729
 30
0.0
 11
-0.0002743648162861
 21
-57.92966998296577
 31
0.0
210
0.0
220
0.0
230
0.9999999999999998
 40
0.9999584242198395
 41
1.62352586083351
 42
1.761331323537719
  0
ELLIPSE
  5
DF70D
330
1F
100
AcDbEntity
  8
AM_0
100
AcDbEllipse
 10
3877.929177515046
 20
-230.1924263585723
 30
0.0
 11
0.0003842164708142
 21
-96.53604815703305
 31
0.0
210
0.0
220
0.0
230
1.0
 40
0.9999584139738198
 41
4.697398082748108
 42
4.818405895912017
  0
LINE
  5
DF70E
330
1F
100
AcDbEntity
  8
AM_0
100
AcDbLine
 10
3791.985182911016
 20
-244.7157064575663
 30
0.0
 11
3791.985887318225
 21
-244.7157064575663
 31
0.0
  0
POLYLINE
  5
DF70F
330
1F
100
AcDbEntity
  8
AM_0
100
AcDb2dPolyline
 66
     1
 10
0.0
 20
0.0
 30
0.0
 70
   128
  0
VERTEX
  5
DF710
330
DF70F
100
AcDbEntity
  8
AM_0
100
AcDbVertex
100
AcDb2dVertex
 10
3783.155914815599
 20
-244.9091756243077
 30
0.0
  0
VERTEX
  5
DF711
330
DF70F
100
AcDbEntity
  8
AM_0
100
AcDbVertex
100
AcDb2dVertex
 10
3783.21843527233
 20
-245.0031838316288
 30
0.0
  0
VERTEX
  5
DF712
330
DF70F
100
AcDbEntity
  8
AM_0
100
AcDbVertex
100
AcDb2dVertex
 10
3783.283732936849
 20
-245.0953698534337
 30
0.0
  0
VERTEX
  5
DF713
330
DF70F
100
AcDbEntity
  8
AM_0
100
AcDbVertex
100
AcDb2dVertex
 10
3783.351954893049
 20
-245.1856002468434
 30
0.0
  0
VERTEX
  5
DF714
330
DF70F
100
AcDbEntity
  8
AM_0
100
AcDbVertex
100
AcDb2dVertex
 10
3783.423220931668
 20
-245.2736771482793
 30
0.0
  0
VERTEX
  5
DF715
330
DF70F
100
AcDbEntity
  8
AM_0
100
AcDbVertex
100
AcDb2dVertex
 10
3783.497608098058
 20
-245.3592738527623
 30
0.0
  0
VERTEX
  5
DF716
330
DF70F
100
AcDbEntity
  8
AM_0
100
AcDbVertex
100
AcDb2dVertex
 10
3783.575184993008
 20
-245.442059053835
 30
0.0
  0
VERTEX
  5
DF717
330
DF70F
100
AcDbEntity
  8
AM_0
100
AcDbVertex
100
AcDb2dVertex
 10
3783.656024911663
 20
-245.5216968435613
 30
0.0
  0
VERTEX
  5
DF718
330
DF70F
100
AcDbEntity
  8
AM_0
100
AcDbVertex
100
AcDb2dVertex
 10
3783.740196454817
 20
-245.5978651184407
 30
0.0
  0
VERTEX
  5
DF719
330
DF70F
100
AcDbEntity
  8
AM_0
100
AcDbVertex
100
AcDb2dVertex
 10
3783.827734700424
 20
-245.6702463764516
 30
0.0
  0
VERTEX
  5
DF71A
330
DF70F
100
AcDbEntity
  8
AM_0
100
AcDbVertex
100
AcDb2dVertex
 10
3783.918510947713
 20
-245.738578333315
 30
0.0
  0
VERTEX
  5
DF71B
330
DF70F
100
AcDbEntity
  8
AM_0
100
AcDbVertex
100
AcDb2dVertex
 10
3784.012355214317
 20
-245.8026355165807
 30
0.0
  0
VERTEX
  5
DF71C
330
DF70F
100
AcDbEntity
  8
AM_0
100
AcDbVertex
100
AcDb2dVertex
 10
3784.109099917134
 20
-245.8621786493627
 30
0.0
  0
VERTEX
  5
DF71D
330
DF70F
100
AcDbEntity
  8
AM_0
100
AcDbVertex
100
AcDb2dVertex
 10
3784.208575082481
 20
-245.9169684547749
 30
0.0
  0
VERTEX
  5
DF71E
330
DF70F
100
AcDbEntity
  8
AM_0
100
AcDbVertex
100
AcDb2dVertex
 10
3784.310613135934
 20
-245.9667794603673
 30
0.0
  0
VERTEX
  5
DF71F
330
DF70F
100
AcDbEntity
  8
AM_0
100
AcDbVertex
100
AcDb2dVertex
 10
3784.415046442306
 20
-246.0113631862965
 30
0.0
  0
VERTEX
  5
DF720
330
DF70F
100
AcDbEntity
  8
AM_0
100
AcDbVertex
100
AcDb2dVertex
 10
3784.521702724141
 20
-246.0504941601125
 30
0.0
  0
VERTEX
  5
DF721
330
DF70F
100
AcDbEntity
  8
AM_0
100
AcDbVertex
100
AcDb2dVertex
 10
3784.630377439897
 20
-246.0839975256291
 30
0.0
  0
VERTEX
  5
DF722
330
DF70F
100
AcDbEntity
  8
AM_0
100
AcDbVertex
100
AcDb2dVertex
 10
3784.74071449549
 20
-246.1119423050252
 30
0.0
  0
VERTEX
  5
DF723
330
DF70F
100
AcDbEntity
  8
AM_0
100
AcDbVertex
100
AcDb2dVertex
 10
3784.852322343513
 20
-246.1344757456151
 30
0.0
  0
VERTEX
  5
DF724
330
DF70F
100
AcDbEntity
  8
AM_0
100
AcDbVertex
100
AcDb2dVertex
 10
3784.964804811656
 20
-246.151726688799
 30
0.0
  0
VERTEX
  5
DF725
330
DF70F
100
AcDbEntity
  8
AM_0
100
AcDbVertex
100
AcDb2dVertex
 10
3785.077770352512
 20
-246.1638469833699
 30
0.0
  0
VERTEX
  5
DF726
330
DF70F
100
AcDbEntity
  8
AM_0
100
AcDbVertex
100
AcDb2dVertex
 10
3785.190840940419
 20
-246.1709746736851
 30
0.0
  0
VERTEX
  5
DF727
330
DF70F
100
AcDbEntity
  8
AM_0
100
AcDbVertex
100
AcDb2dVertex
 10
3785.303838545699
 20
-246.1733260292378
 30
0.0
  0
VERTEX
  5
DF728
330
DF70F
100
AcDbEntity
  8
AM_0
100
AcDbVertex
100
AcDb2dVertex
 10
3785.416719644968
 20
-246.1711633343068
 30
0.0
  0
SEQEND
  5
DF729
330
DF70F
100
AcDbEntity
  8
AM_0
  0
POLYLINE
  5
DF72A
330
1F
100
AcDbEntity
  8
AM_0
100
AcDb2dPolyline
 66
     1
 10
0.0
 20
0.0
 30
0.0
 70
   128
  0
VERTEX
  5
DF72B
330
DF72A
100
AcDbEntity
  8
AM_0
100
AcDbVertex
100
AcDb2dVertex
 10
3790.286158038655
 20
-241.9511243242589
 30
0.0
  0
VERTEX
  5
DF72C
330
DF72A
100
AcDbEntity
  8
AM_0
100
AcDbVertex
100
AcDb2dVertex
 10
3790.248550705714
 20
-242.2479380983677
 30
0.0
  0
VERTEX
  5
DF72D
330
DF72A
100
AcDbEntity
  8
AM_0
100
AcDbVertex
100
AcDb2dVertex
 10
3790.1988833201
 20
-242.5432011741963
 30
0.0
  0
VERTEX
  5
DF72E
330
DF72A
100
AcDbEntity
  8
AM_0
100
AcDbVertex
100
AcDb2dVertex
 10
3790.135905229372
 20
-242.8360852856008
 30
0.0
  0
VERTEX
  5
DF72F
330
DF72A
100
AcDbEntity
  8
AM_0
100
AcDbVertex
100
AcDb2dVertex
 10
3790.058339828104
 20
-243.1255919117299
 30
0.0
  0
VERTEX
  5
DF730
330
DF72A
100
AcDbEntity
  8
AM_0
100
AcDbVertex
100
AcDb2dVertex
 10
3789.964884079227
 20
-243.4103774208394
 30
0.0
  0
VERTEX
  5
DF731
330
DF72A
100
AcDbEntity
  8
AM_0
100
AcDbVertex
100
AcDb2dVertex
 10
3789.854220659993
 20
-243.6888082880345
 30
0.0
  0
VERTEX
  5
DF732
330
DF72A
100
AcDbEntity
  8
AM_0
100
AcDbVertex
100
AcDb2dVertex
 10
3789.725027483852
 20
-243.9592417854634
 30
0.0
  0
VERTEX
  5
DF733
330
DF72A
100
AcDbEntity
  8
AM_0
100
AcDbVertex
100
AcDb2dVertex
 10
3789.57634273183
 20
-244.2198511261311
 30
0.0
  0
VERTEX
  5
DF734
330
DF72A
100
AcDbEntity
  8
AM_0
100
AcDbVertex
100
AcDb2dVertex
 10
3789.408136083177
 20
-244.4683539766637
 30
0.0
  0
VERTEX
  5
DF735
330
DF72A
100
AcDbEntity
  8
AM_0
100
AcDbVertex
100
AcDb2dVertex
 10
3789.220536676012
 20
-244.702380575594
 30
0.0
  0
VERTEX
  5
DF736
330
DF72A
100
AcDbEntity
  8
AM_0
100
AcDbVertex
100
AcDb2dVertex
 10
3789.013794092359
 20
-244.9196531910268
 30
0.0
  0
VERTEX
  5
DF737
330
DF72A
100
AcDbEntity
  8
AM_0
100
AcDbVertex
100
AcDb2dVertex
 10
3788.789376579172
 20
-245.1188511986104
 30
0.0
  0
VERTEX
  5
DF738
330
DF72A
100
AcDbEntity
  8
AM_0
100
AcDbVertex
100
AcDb2dVertex
 10
3788.549448549691
 20
-245.2991923469868
 30
0.0
  0
VERTEX
  5
DF739
330
DF72A
100
AcDbEntity
  8
AM_0
100
AcDbVertex
100
AcDb2dVertex
 10
3788.296178980078
 20
-245.4599035877553
 30
0.0
  0
VERTEX
  5
DF73A
330
DF72A
100
AcDbEntity
  8
AM_0
100
AcDbVertex
100
AcDb2dVertex
 10
3788.03167636455
 20
-245.6008744854298
 30
0.0
  0
VERTEX
  5
DF73B
330
DF72A
100
AcDbEntity
  8
AM_0
100
AcDbVertex
100
AcDb2dVertex
 10
3787.757956970069
 20
-245.7231173652974
 30
0.0
  0
VERTEX
  5
DF73C
330
DF72A
100
AcDbEntity
  8
AM_0
100
AcDbVertex
100
AcDb2dVertex
 10
3787.477023966005
 20
-245.827750386652
 30
0.0
  0
VERTEX
  5
DF73D
330
DF72A
100
AcDbEntity
  8
AM_0
100
AcDbVertex
100
AcDb2dVertex
 10
3787.190767974272
 20
-245.9159377235737
 30
0.0
  0
VERTEX
  5
DF73E
330
DF72A
100
AcDbEntity
  8
AM_0
100
AcDbVertex
100
AcDb2dVertex
 10
3786.900385117252
 20
-245.9889585871068
 30
0.0
  0
VERTEX
  5
DF73F
330
DF72A
100
AcDbEntity
  8
AM_0
100
AcDbVertex
100
AcDb2dVertex
 10
3786.606821421045
 20
-246.0481474060383
 30
0.0
  0
VERTEX
  5
DF740
330
DF72A
100
AcDbEntity
  8
AM_0
100
AcDbVertex
100
AcDb2dVertex
 10
3786.311011758711
 20
-246.0948386091557
 30
0.0
  0
VERTEX
  5
DF741
330
DF72A
100
AcDbEntity
  8
AM_0
100
AcDbVertex
100
AcDb2dVertex
 10
3786.013714799946
 20
-246.1302285808888
 30
0.0
  0
VERTEX
  5
DF742
330
DF72A
100
AcDbEntity
  8
AM_0
100
AcDbVertex
100
AcDb2dVertex
 10
3785.715472946914
 20
-246.1553434509602
 30
0.0
  0
VERTEX
  5
DF743
330
DF72A
100
AcDbEntity
  8
AM_0
100
AcDbVertex
100
AcDb2dVertex
 10
3785.416719644968
 20
-246.1711633343068
 30
0.0
  0
SEQEND
  5
DF744
330
DF72A
100
AcDbEntity
  8
AM_0
  0
POLYLINE
  5
DF745
330
1F
100
AcDbEntity
  8
AM_0
100
AcDb2dPolyline
 66
     1
 10
0.0
 20
0.0
 30
0.0
 70
   128
  0
VERTEX
  5
DF746
330
DF745
100
AcDbEntity
  8
AM_0
100
AcDbVertex
100
AcDb2dVertex
 10
3781.949353926548
 20
-240.5568487066592
 30
0.0
  0
VERTEX
  5
DF747
330
DF745
100
AcDbEntity
  8
AM_0
100
AcDbVertex
100
AcDb2dVertex
 10
3781.949470588962
 20
-240.5579392570818
 30
0.0
  0
VERTEX
  5
DF748
330
DF745
100
AcDbEntity
  8
AM_0
100
AcDbVertex
100
AcDb2dVertex
 10
3781.949587806963
 20
-240.5590298075045
 30
0.0
  0
VERTEX
  5
DF749
330
DF745
100
AcDbEntity
  8
AM_0
100
AcDbVertex
100
AcDb2dVertex
 10
3781.94970796245
 20
-240.5601249594058
 30
0.0
  0
VERTEX
  5
DF74A
330
DF745
100
AcDbEntity
  8
AM_0
100
AcDbVertex
100
AcDb2dVertex
 10
3781.94982643052
 20
-240.5612155098284
 30
0.0
  0
VERTEX
  5
DF74B
330
DF745
100
AcDbEntity
  8
AM_0
100
AcDbVertex
100
AcDb2dVertex
 10
3781.94994769718
 20
-240.5623060602511
 30
0.0
  0
VERTEX
  5
DF74C
330
DF745
100
AcDbEntity
  8
AM_0
100
AcDbVertex
100
AcDb2dVertex
 10
3781.950067276421
 20
-240.5633966106738
 30
0.0
  0
VERTEX
  5
DF74D
330
DF745
100
AcDbEntity
  8
AM_0
100
AcDbVertex
100
AcDb2dVertex
 10
3781.950187272351
 20
-240.5644871610964
 30
0.0
  0
VERTEX
  5
DF74E
330
DF745
100
AcDbEntity
  8
AM_0
100
AcDbVertex
100
AcDb2dVertex
 10
3781.950310344665
 20
-240.5655777115191
 30
0.0
  0
VERTEX
  5
DF74F
330
DF745
100
AcDbEntity
  8
AM_0
100
AcDbVertex
100
AcDb2dVertex
 10
3781.950431590663
 20
-240.5666728634204
 30
0.0
  0
VERTEX
  5
DF750
330
DF745
100
AcDbEntity
  8
AM_0
100
AcDbVertex
100
AcDb2dVertex
 10
3781.950555774148
 20
-240.567763413843
 30
0.0
  0
VERTEX
  5
DF751
330
DF745
100
AcDbEntity
  8
AM_0
100
AcDbVertex
100
AcDb2dVertex
 10
3781.950678131319
 20
-240.5688539642657
 30
0.0
  0
VERTEX
  5
DF752
330
DF745
100
AcDbEntity
  8
AM_0
100
AcDbVertex
100
AcDb2dVertex
 10
3781.950803425976
 20
-240.5699445146884
 30
0.0
  0
VERTEX
  5
DF753
330
DF745
100
AcDbEntity
  8
AM_0
100
AcDbVertex
100
AcDb2dVertex
 10
3781.950927033214
 20
-240.571035065111
 30
0.0
  0
VERTEX
  5
DF754
330
DF745
100
AcDbEntity
  8
AM_0
100
AcDbVertex
100
AcDb2dVertex
 10
3781.951053439043
 20
-240.5721256155337
 30
0.0
  0
VERTEX
  5
DF755
330
DF745
100
AcDbEntity
  8
AM_0
100
AcDbVertex
100
AcDb2dVertex
 10
3781.951180539354
 20
-240.5732161659563
 30
0.0
  0
VERTEX
  5
DF756
330
DF745
100
AcDbEntity
  8
AM_0
100
AcDbVertex
100
AcDb2dVertex
 10
3781.95130581335
 20
-240.5743021149004
 30
0.0
  0
VERTEX
  5
DF757
330
DF745
100
AcDbEntity
  8
AM_0
100
AcDbVertex
100
AcDb2dVertex
 10
3781.951433885936
 20
-240.5753926653231
 30
0.0
  0
VERTEX
  5
DF758
330
DF745
100
AcDbEntity
  8
AM_0
100
AcDbVertex
100
AcDb2dVertex
 10
3781.951562653005
 20
-240.5764832157458
 30
0.0
  0
VERTEX
  5
DF759
330
DF745
100
AcDbEntity
  8
AM_0
100
AcDbVertex
100
AcDb2dVertex
 10
3781.951689593759
 20
-240.5775737661684
 30
0.0
  0
VERTEX
  5
DF75A
330
DF745
100
AcDbEntity
  8
AM_0
100
AcDbVertex
100
AcDb2dVertex
 10
3781.951819471999
 20
-240.5786643165911
 30
0.0
  0
VERTEX
  5
DF75B
330
DF745
100
AcDbEntity
  8
AM_0
100
AcDbVertex
100
AcDb2dVertex
 10
3781.951950044722
 20
-240.5797548670138
 30
0.0
  0
VERTEX
  5
DF75C
330
DF745
100
AcDbEntity
  8
AM_0
100
AcDbVertex
100
AcDb2dVertex
 10
3781.952078652234
 20
-240.5808408159578
 30
0.0
  0
VERTEX
  5
DF75D
330
DF745
100
AcDbEntity
  8
AM_0
100
AcDbVertex
100
AcDb2dVertex
 10
3781.952210336128
 20
-240.5819313663806
 30
0.0
  0
VERTEX
  5
DF75E
330
DF745
100
AcDbEntity
  8
AM_0
100
AcDbVertex
100
AcDb2dVertex
 10
3781.952342436712
 20
-240.5830219168032
 30
0.0
  0
SEQEND
  5
DF75F
330
DF745
100
AcDbEntity
  8
AM_0
  0
POLYLINE
  5
DF760
330
1F
100
AcDbEntity
  8
AM_0
100
AcDb2dPolyline
 66
     1
 10
0.0
 20
0.0
 30
0.0
 70
   128
  0
VERTEX
  5
DF761
330
DF760
100
AcDbEntity
  8
AM_0
100
AcDbVertex
100
AcDb2dVertex
 10
3819.036396249713
 20
-225.4155615110047
 30
0.0
  0
VERTEX
  5
DF762
330
DF760
100
AcDbEntity
  8
AM_0
100
AcDbVertex
100
AcDb2dVertex
 10
3818.893157836485
 20
-226.8840911883958
 30
0.0
  0
VERTEX
  5
DF763
330
DF760
100
AcDbEntity
  8
AM_0
100
AcDbVertex
100
AcDb2dVertex
 10
3818.721269994333
 20
-228.3510724682458
 30
0.0
  0
VERTEX
  5
DF764
330
DF760
100
AcDbEntity
  8
AM_0
100
AcDbVertex
100
AcDb2dVertex
 10
3818.520824629192
 20
-229.814959253753
 30
0.0
  0
VERTEX
  5
DF765
330
DF760
100
AcDbEntity
  8
AM_0
100
AcDbVertex
100
AcDb2dVertex
 10
3818.291912908003
 20
-231.2742031473764
 30
0.0
  0
VERTEX
  5
DF766
330
DF760
100
AcDbEntity
  8
AM_0
100
AcDbVertex
100
AcDb2dVertex
 10
3818.034563164387
 20
-232.7272948641427
 30
0.0
  0
VERTEX
  5
DF767
330
DF760
100
AcDbEntity
  8
AM_0
100
AcDbVertex
100
AcDb2dVertex
 10
3817.737879521241
 20
-234.1758633274682
 30
0.0
  0
VERTEX
  5
DF768
330
DF760
100
AcDbEntity
  8
AM_0
100
AcDbVertex
100
AcDb2dVertex
 10
3817.387260634809
 20
-235.6148791212685
 30
0.0
  0
VERTEX
  5
DF769
330
DF760
100
AcDbEntity
  8
AM_0
100
AcDbVertex
100
AcDb2dVertex
 10
3817.188790055857
 20
-236.3278368134149
 30
0.0
  0
VERTEX
  5
DF76A
330
DF760
100
AcDbEntity
  8
AM_0
100
AcDbVertex
100
AcDb2dVertex
 10
3816.973312273739
 20
-237.0348355908044
 30
0.0
  0
VERTEX
  5
DF76B
330
DF760
100
AcDbEntity
  8
AM_0
100
AcDbVertex
100
AcDb2dVertex
 10
3816.739653065365
 20
-237.7346928734429
 30
0.0
  0
VERTEX
  5
DF76C
330
DF760
100
AcDbEntity
  8
AM_0
100
AcDbVertex
100
AcDb2dVertex
 10
3816.486632657126
 20
-238.4262306828149
 30
0.0
  0
VERTEX
  5
DF76D
330
DF760
100
AcDbEntity
  8
AM_0
100
AcDbVertex
100
AcDb2dVertex
 10
3816.211863031719
 20
-239.1100334066995
 30
0.0
  0
VERTEX
  5
DF76E
330
DF760
100
AcDbEntity
  8
AM_0
100
AcDbVertex
100
AcDb2dVertex
 10
3815.913609567157
 20
-239.7839521546014
 30
0.0
  0
VERTEX
  5
DF76F
330
DF760
100
AcDbEntity
  8
AM_0
100
AcDbVertex
100
AcDb2dVertex
 10
3815.591225398402
 20
-240.4435096878655
 30
0.0
  0
VERTEX
  5
DF770
330
DF760
100
AcDbEntity
  8
AM_0
100
AcDbVertex
100
AcDb2dVertex
 10
3815.244062623678
 20
-241.0842287678369
 30
0.0
  0
VERTEX
  5
DF771
330
DF760
100
AcDbEntity
  8
AM_0
100
AcDbVertex
100
AcDb2dVertex
 10
3814.87147498936
 20
-241.7016321558602
 30
0.0
  0
VERTEX
  5
DF772
330
DF760
100
AcDbEntity
  8
AM_0
100
AcDbVertex
100
AcDb2dVertex
 10
3814.472749594512
 20
-242.2913346428519
 30
0.0
  0
VERTEX
  5
DF773
330
DF760
100
AcDbEntity
  8
AM_0
100
AcDbVertex
100
AcDb2dVertex
 10
3814.046710606945
 20
-242.8501888174658
 30
0.0
  0
VERTEX
  5
DF774
330
DF760
100
AcDbEntity
  8
AM_0
100
AcDbVertex
100
AcDb2dVertex
 10
3813.595105814314
 20
-243.3725624699238
 30
0.0
  0
VERTEX
  5
DF775
330
DF760
100
AcDbEntity
  8
AM_0
100
AcDbVertex
100
AcDb2dVertex
 10
3813.120857708873
 20
-243.8517880577687
 30
0.0
  0
VERTEX
  5
DF776
330
DF760
100
AcDbEntity
  8
AM_0
100
AcDbVertex
100
AcDb2dVertex
 10
3812.629941080637
 20
-244.2820769209507
 30
0.0
  0
VERTEX
  5
DF777
330
DF760
100
AcDbEntity
  8
AM_0
100
AcDbVertex
100
AcDb2dVertex
 10
3812.119737710029
 20
-244.6640042442919
 30
0.0
  0
VERTEX
  5
DF778
330
DF760
100
AcDbEntity
  8
AM_0
100
AcDbVertex
100
AcDb2dVertex
 10
3811.584935002559
 20
-244.9993968147873
 30
0.0
  0
VERTEX
  5
DF779
330
DF760
100
AcDbEntity
  8
AM_0
100
AcDbVertex
100
AcDb2dVertex
 10
3811.020025940178
 20
-245.2901090283035
 30
0.0
  0
VERTEX
  5
DF77A
330
DF760
100
AcDbEntity
  8
AM_0
100
AcDbVertex
100
AcDb2dVertex
 10
3810.423824309874
 20
-245.5327956099151
 30
0.0
  0
SEQEND
  5
DF77B
330
DF760
100
AcDbEntity
  8
AM_0
  0
POLYLINE
  5
DF77C
330
1F
100
AcDbEntity
  8
AM_0
100
AcDb2dPolyline
 66
     1
 10
0.0
 20
0.0
 30
0.0
 70
   128
  0
VERTEX
  5
DF77D
330
DF77C
100
AcDbEntity
  8
AM_0
100
AcDbVertex
100
AcDb2dVertex
 10
3822.217379322172
 20
-190.1932055372837
 30
0.0
  0
VERTEX
  5
DF77E
330
DF77C
100
AcDbEntity
  8
AM_0
100
AcDbVertex
100
AcDb2dVertex
 10
3821.412462379355
 20
-198.9993179489021
 30
0.0
  0
VERTEX
  5
DF77F
330
DF77C
100
AcDbEntity
  8
AM_0
100
AcDbVertex
100
AcDb2dVertex
 10
3820.612795790364
 20
-207.8050415355807
 30
0.0
  0
VERTEX
  5
DF780
330
DF77C
100
AcDbEntity
  8
AM_0
100
AcDbVertex
100
AcDb2dVertex
 10
3819.820213104816
 20
-216.6104389924653
 30
0.0
  0
VERTEX
  5
DF781
330
DF77C
100
AcDbEntity
  8
AM_0
100
AcDbVertex
100
AcDb2dVertex
 10
3819.036547835107
 20
-225.4155753154404
 30
0.0
  0
SEQEND
  5
DF782
330
DF77C
100
AcDbEntity
  8
AM_0
  0
POLYLINE
  5
DF783
330
1F
100
AcDbEntity
  8
AM_0
100
AcDb2dPolyline
 66
     1
 10
0.0
 20
0.0
 30
0.0
 70
   128
  0
VERTEX
  5
DF784
330
DF783
100
AcDbEntity
  8
AM_0
100
AcDbVertex
100
AcDb2dVertex
 10
3795.464011977851
 20
-208.4781607765786
 30
0.0
  0
VERTEX
  5
DF785
330
DF783
100
AcDbEntity
  8
AM_0
100
AcDbVertex
100
AcDb2dVertex
 10
3795.301172439267
 20
-204.4846663612954
 30
0.0
  0
VERTEX
  5
DF786
330
DF783
100
AcDbEntity
  8
AM_0
100
AcDbVertex
100
AcDb2dVertex
 10
3795.16511881635
 20
-200.4902723569506
 30
0.0
  0
SEQEND
  5
DF787
330
DF783
100
AcDbEntity
  8
AM_0
  0
POLYLINE
  5
DF788
330
1F
100
AcDbEntity
  8
AM_0
100
AcDb2dPolyline
 66
     1
 10
0.0
 20
0.0
 30
0.0
 70
   128
  0
VERTEX
  5
DF789
330
DF788
100
AcDbEntity
  8
AM_0
100
AcDbVertex
100
AcDb2dVertex
 10
3795.172806501683
 20
-224.4451119799233
 30
0.0
  0
VERTEX
  5
DF78A
330
DF788
100
AcDbEntity
  8
AM_0
100
AcDbVertex
100
AcDb2dVertex
 10
3795.212220358037
 20
-224.2489854592898
 30
0.0
  0
VERTEX
  5
DF78B
330
DF788
100
AcDbEntity
  8
AM_0
100
AcDbVertex
100
AcDb2dVertex
 10
3795.254959252913
 20
-224.0097085733037
 30
0.0
  0
VERTEX
  5
DF78C
330
DF788
100
AcDbEntity
  8
AM_0
100
AcDbVertex
100
AcDb2dVertex
 10
3795.299207566337
 20
-223.7344711322408
 30
0.0
  0
VERTEX
  5
DF78D
330
DF788
100
AcDbEntity
  8
AM_0
100
AcDbVertex
100
AcDb2dVertex
 10
3795.343045987422
 20
-223.4314614672285
 30
0.0
  0
VERTEX
  5
DF78E
330
DF788
100
AcDbEntity
  8
AM_0
100
AcDbVertex
100
AcDb2dVertex
 10
3795.385556731468
 20
-223.1048922319038
 30
0.0
  0
VERTEX
  5
DF78F
330
DF788
100
AcDbEntity
  8
AM_0
100
AcDbVertex
100
AcDb2dVertex
 10
3795.426505889053
 20
-222.7581915278061
 30
0.0
  0
VERTEX
  5
DF790
330
DF788
100
AcDbEntity
  8
AM_0
100
AcDbVertex
100
AcDb2dVertex
 10
3795.465485367009
 20
-222.3960873741731
 30
0.0
  0
VERTEX
  5
DF791
330
DF788
100
AcDbEntity
  8
AM_0
100
AcDbVertex
100
AcDb2dVertex
 10
3795.502312316431
 20
-222.0225209374056
 30
0.0
  0
VERTEX
  5
DF792
330
DF788
100
AcDbEntity
  8
AM_0
100
AcDbVertex
100
AcDb2dVertex
 10
3795.56944100512
 20
-221.2496657986269
 30
0.0
  0
VERTEX
  5
DF793
330
DF788
100
AcDbEntity
  8
AM_0
100
AcDbVertex
100
AcDb2dVertex
 10
3795.627477945191
 20
-220.4556967753994
 30
0.0
  0
VERTEX
  5
DF794
330
DF788
100
AcDbEntity
  8
AM_0
100
AcDbVertex
100
AcDb2dVertex
 10
3795.676644145402
 20
-219.6489954609501
 30
0.0
  0
VERTEX
  5
DF795
330
DF788
100
AcDbEntity
  8
AM_0
100
AcDbVertex
100
AcDb2dVertex
 10
3795.716841430821
 20
-218.8322307128536
 30
0.0
  0
VERTEX
  5
DF796
330
DF788
100
AcDbEntity
  8
AM_0
100
AcDbVertex
100
AcDb2dVertex
 10
3795.747782362734
 20
-218.0082669515242
 30
0.0
  0
VERTEX
  5
DF797
330
DF788
100
AcDbEntity
  8
AM_0
100
AcDbVertex
100
AcDb2dVertex
 10
3795.769169251857
 20
-217.1799294848075
 30
0.0
  0
VERTEX
  5
DF798
330
DF788
100
AcDbEntity
  8
AM_0
100
AcDbVertex
100
AcDb2dVertex
 10
3795.780016843512
 20
-216.3470388550391
 30
0.0
  0
VERTEX
  5
DF799
330
DF788
100
AcDbEntity
  8
AM_0
100
AcDbVertex
100
AcDb2dVertex
 10
3795.78000032886
 20
-215.509123410665
 30
0.0
  0
VERTEX
  5
DF79A
330
DF788
100
AcDbEntity
  8
AM_0
100
AcDbVertex
100
AcDb2dVertex
 10
3795.769346870871
 20
-214.6670781392684
 30
0.0
  0
VERTEX
  5
DF79B
330
DF788
100
AcDbEntity
  8
AM_0
100
AcDbVertex
100
AcDb2dVertex
 10
3795.748289188375
 20
-213.8217957276932
 30
0.0
  0
VERTEX
  5
DF79C
330
DF788
100
AcDbEntity
  8
AM_0
100
AcDbVertex
100
AcDb2dVertex
 10
3795.717054295471
 20
-212.9741711635225
 30
0.0
  0
VERTEX
  5
DF79D
330
DF788
100
AcDbEntity
  8
AM_0
100
AcDbVertex
100
AcDb2dVertex
 10
3795.675873650949
 20
-212.1250994343392
 30
0.0
  0
SEQEND
  5
DF79E
330
DF788
100
AcDbEntity
  8
AM_0
  0
POLYLINE
  5
DF79F
330
1F
100
AcDbEntity
  8
AM_0
100
AcDb2dPolyline
 66
     1
 10
0.0
 20
0.0
 30
0.0
 70
   128
  0
VERTEX
  5
DF7A0
330
DF79F
100
AcDbEntity
  8
AM_0
100
AcDbVertex
100
AcDb2dVertex
 10
3795.675873805545
 20
-212.1250994343392
 30
0.0
  0
VERTEX
  5
DF7A1
330
DF79F
100
AcDbEntity
  8
AM_0
100
AcDbVertex
100
AcDb2dVertex
 10
3795.565338250441
 20
-210.3024123568169
 30
0.0
  0
VERTEX
  5
DF7A2
330
DF79F
100
AcDbEntity
  8
AM_0
100
AcDbVertex
100
AcDb2dVertex
 10
3795.464075686429
 20
-208.4782228965394
 30
0.0
  0
SEQEND
  5
DF7A3
330
DF79F
100
AcDbEntity
  8
AM_0
  0
POLYLINE
  5
DF7A4
330
1F
100
AcDbEntity
  8
AM_0
100
AcDb2dPolyline
 66
     1
 10
0.0
 20
0.0
 30
0.0
 70
   128
  0
VERTEX
  5
DF7A5
330
DF7A4
100
AcDbEntity
  8
AM_0
100
AcDbVertex
100
AcDb2dVertex
 10
3793.936769500689
 20
-224.9219378966847
 30
0.0
  0
VERTEX
  5
DF7A6
330
DF7A4
100
AcDbEntity
  8
AM_0
100
AcDbVertex
100
AcDb2dVertex
 10
3794.297203316314
 20
-224.8017104644342
 30
0.0
  0
VERTEX
  5
DF7A7
330
DF7A4
100
AcDbEntity
  8
AM_0
100
AcDbVertex
100
AcDb2dVertex
 10
3794.622179044527
 20
-224.6803855795432
 30
0.0
  0
VERTEX
  5
DF7A8
330
DF7A4
100
AcDbEntity
  8
AM_0
100
AcDbVertex
100
AcDb2dVertex
 10
3794.907814036235
 20
-224.563241137939
 30
0.0
  0
VERTEX
  5
DF7A9
330
DF7A4
100
AcDbEntity
  8
AM_0
100
AcDbVertex
100
AcDb2dVertex
 10
3795.150223260448
 20
-224.4555596370277
 30
0.0
  0
VERTEX
  5
DF7AA
330
DF7A4
100
AcDbEntity
  8
AM_0
100
AcDbVertex
100
AcDb2dVertex
 10
3795.345525179246
 20
-224.3626189727367
 30
0.0
  0
VERTEX
  5
DF7AB
330
DF7A4
100
AcDbEntity
  8
AM_0
100
AcDbVertex
100
AcDb2dVertex
 10
3795.489834245942
 20
-224.289694740254
 30
0.0
  0
VERTEX
  5
DF7AC
330
DF7A4
100
AcDbEntity
  8
AM_0
100
AcDbVertex
100
AcDb2dVertex
 10
3795.57926717608
 20
-224.2420717377253
 30
0.0
  0
VERTEX
  5
DF7AD
330
DF7A4
100
AcDbEntity
  8
AM_0
100
AcDbVertex
100
AcDb2dVertex
 10
3795.609941320569
 20
-224.2250232595992
 30
0.0
  0
SEQEND
  5
DF7AE
330
DF7A4
100
AcDbEntity
  8
AM_0
  0
POLYLINE
  5
DF7AF
330
1F
100
AcDbEntity
  8
AM_0
100
AcDb2dPolyline
 66
     1
 10
0.0
 20
0.0
 30
0.0
 70
   128
  0
VERTEX
  5
DF7B0
330
DF7AF
100
AcDbEntity
  8
AM_0
100
AcDbVertex
100
AcDb2dVertex
 10
3791.897876647676
 20
-225.3940104860791
 30
0.0
  0
VERTEX
  5
DF7B1
330
DF7AF
100
AcDbEntity
  8
AM_0
100
AcDbVertex
100
AcDb2dVertex
 10
3792.160491604021
 20
-225.3575575727952
 30
0.0
  0
VERTEX
  5
DF7B2
330
DF7AF
100
AcDbEntity
  8
AM_0
100
AcDbVertex
100
AcDb2dVertex
 10
3792.314774809096
 20
-225.3309610266226
 30
0.0
  0
VERTEX
  5
DF7B3
330
DF7AF
100
AcDbEntity
  8
AM_0
100
AcDbVertex
100
AcDb2dVertex
 10
3792.487215495804
 20
-225.297584201767
 30
0.0
  0
VERTEX
  5
DF7B4
330
DF7AF
100
AcDbEntity
  8
AM_0
100
AcDbVertex
100
AcDb2dVertex
 10
3792.679947663557
 20
-225.2565252084277
 30
0.0
  0
VERTEX
  5
DF7B5
330
DF7AF
100
AcDbEntity
  8
AM_0
100
AcDbVertex
100
AcDb2dVertex
 10
3792.895101699024
 20
-225.2068844575431
 30
0.0
  0
VERTEX
  5
DF7B6
330
DF7AF
100
AcDbEntity
  8
AM_0
100
AcDbVertex
100
AcDb2dVertex
 10
3793.134809815192
 20
-225.147760059312
 30
0.0
  0
VERTEX
  5
DF7B7
330
DF7AF
100
AcDbEntity
  8
AM_0
100
AcDbVertex
100
AcDb2dVertex
 10
3793.401204145265
 20
-225.0782547254116
 30
0.0
  0
SEQEND
  5
DF7B8
330
DF7AF
100
AcDbEntity
  8
AM_0
  0
LINE
  5
DF7B9
330
1F
100
AcDbEntity
  8
AM_0
100
AcDbLine
 10
3793.384867075946
 20
-225.0825571078808
 30
0.0
 11
3793.936768911103
 21
-224.9219378966847
 31
0.0
  0
POLYLINE
  5
DF7BA
330
1F
100
AcDbEntity
  8
AM_0
100
AcDb2dPolyline
 66
     1
 10
0.0
 20
0.0
 30
0.0
 70
   128
  0
VERTEX
  5
DF7BB
330
DF7BA
100
AcDbEntity
  8
AM_0
100
AcDbVertex
100
AcDb2dVertex
 10
3785.486377811827
 20
-219.3415867823926
 30
0.0
  0
VERTEX
  5
DF7BC
330
DF7BA
100
AcDbEntity
  8
AM_0
100
AcDbVertex
100
AcDb2dVertex
 10
3785.863652949898
 20
-219.3537576932278
 30
0.0
  0
VERTEX
  5
DF7BD
330
DF7BA
100
AcDbEntity
  8
AM_0
100
AcDbVertex
100
AcDb2dVertex
 10
3786.250646561267
 20
-219.412145854887
 30
0.0
  0
VERTEX
  5
DF7BE
330
DF7BA
100
AcDbEntity
  8
AM_0
100
AcDbVertex
100
AcDb2dVertex
 10
3786.630528189402
 20
-219.5231979388564
 30
0.0
  0
VERTEX
  5
DF7BF
330
DF7BA
100
AcDbEntity
  8
AM_0
100
AcDbVertex
100
AcDb2dVertex
 10
3786.987228104339
 20
-219.6856554407447
 30
0.0
  0
VERTEX
  5
DF7C0
330
DF7BA
100
AcDbEntity
  8
AM_0
100
AcDbVertex
100
AcDb2dVertex
 10
3787.316870599135
 20
-219.8958486813872
 30
0.0
  0
VERTEX
  5
DF7C1
330
DF7BA
100
AcDbEntity
  8
AM_0
100
AcDbVertex
100
AcDb2dVertex
 10
3787.611463108503
 20
-220.1431505460113
 30
0.0
  0
VERTEX
  5
DF7C2
330
DF7BA
100
AcDbEntity
  8
AM_0
100
AcDbVertex
100
AcDb2dVertex
 10
3787.872278178153
 20
-220.417357255873
 30
0.0
  0
VERTEX
  5
DF7C3
330
DF7BA
100
AcDbEntity
  8
AM_0
100
AcDbVertex
100
AcDb2dVertex
 10
3788.094367941995
 20
-220.6999961752265
 30
0.0
  0
VERTEX
  5
DF7C4
330
DF7BA
100
AcDbEntity
  8
AM_0
100
AcDbVertex
100
AcDb2dVertex
 10
3788.278881614692
 20
-220.9749483246177
 30
0.0
  0
VERTEX
  5
DF7C5
330
DF7BA
100
AcDbEntity
  8
AM_0
100
AcDbVertex
100
AcDb2dVertex
 10
3788.427399406016
 20
-221.2263731140466
 30
0.0
  0
VERTEX
  5
DF7C6
330
DF7BA
100
AcDbEntity
  8
AM_0
100
AcDbVertex
100
AcDb2dVertex
 10
3788.544749965163
 20
-221.4460361976001
 30
0.0
  0
VERTEX
  5
DF7C7
330
DF7BA
100
AcDbEntity
  8
AM_0
100
AcDbVertex
100
AcDb2dVertex
 10
3788.631842951477
 20
-221.6216217178677
 30
0.0
  0
VERTEX
  5
DF7C8
330
DF7BA
100
AcDbEntity
  8
AM_0
100
AcDbVertex
100
AcDb2dVertex
 10
3788.693570749829
 20
-221.7528489846561
 30
0.0
  0
VERTEX
  5
DF7C9
330
DF7BA
100
AcDbEntity
  8
AM_0
100
AcDbVertex
100
AcDb2dVertex
 10
3788.734797136497
 20
-221.8433002490375
 30
0.0
  0
VERTEX
  5
DF7CA
330
DF7BA
100
AcDbEntity
  8
AM_0
100
AcDbVertex
100
AcDb2dVertex
 10
3788.761509346648
 20
-221.902877892909
 30
0.0
  0
VERTEX
  5
DF7CB
330
DF7BA
100
AcDbEntity
  8
AM_0
100
AcDbVertex
100
AcDb2dVertex
 10
3788.780039607682
 20
-221.9445856947281
 30
0.0
  0
VERTEX
  5
DF7CC
330
DF7BA
100
AcDbEntity
  8
AM_0
100
AcDbVertex
100
AcDb2dVertex
 10
3788.801849721341
 20
-221.9934994119983
 30
0.0
  0
VERTEX
  5
DF7CD
330
DF7BA
100
AcDbEntity
  8
AM_0
100
AcDbVertex
100
AcDb2dVertex
 10
3788.809610839722
 20
-222.0107112426144
 30
0.0
  0
VERTEX
  5
DF7CE
330
DF7BA
100
AcDbEntity
  8
AM_0
100
AcDbVertex
100
AcDb2dVertex
 10
3788.819843449328
 20
-222.0322415608751
 30
0.0
  0
VERTEX
  5
DF7CF
330
DF7BA
100
AcDbEntity
  8
AM_0
100
AcDbVertex
100
AcDb2dVertex
 10
3788.845711512089
 20
-222.083785023152
 30
0.0
  0
VERTEX
  5
DF7D0
330
DF7BA
100
AcDbEntity
  8
AM_0
100
AcDbVertex
100
AcDb2dVertex
 10
3788.889968799825
 20
-222.1677228946086
 30
0.0
  0
VERTEX
  5
DF7D1
330
DF7BA
100
AcDbEntity
  8
AM_0
100
AcDbVertex
100
AcDb2dVertex
 10
3788.954921619663
 20
-222.2854448217752
 30
0.0
  0
VERTEX
  5
DF7D2
330
DF7BA
100
AcDbEntity
  8
AM_0
100
AcDbVertex
100
AcDb2dVertex
 10
3789.042463365916
 20
-222.4351930398352
 30
0.0
  0
VERTEX
  5
DF7D3
330
DF7BA
100
AcDbEntity
  8
AM_0
100
AcDbVertex
100
AcDb2dVertex
 10
3789.151401691057
 20
-222.6115424055469
 30
0.0
  0
VERTEX
  5
DF7D4
330
DF7BA
100
AcDbEntity
  8
AM_0
100
AcDbVertex
100
AcDb2dVertex
 10
3789.279550308413
 20
-222.8096613664046
 30
0.0
  0
VERTEX
  5
DF7D5
330
DF7BA
100
AcDbEntity
  8
AM_0
100
AcDbVertex
100
AcDb2dVertex
 10
3789.424723174383
 20
-223.0247229713818
 30
0.0
  0
VERTEX
  5
DF7D6
330
DF7BA
100
AcDbEntity
  8
AM_0
100
AcDbVertex
100
AcDb2dVertex
 10
3789.584730741964
 20
-223.2518979687121
 30
0.0
  0
VERTEX
  5
DF7D7
330
DF7BA
100
AcDbEntity
  8
AM_0
100
AcDbVertex
100
AcDb2dVertex
 10
3789.940512831717
 20
-223.7232711333668
 30
0.0
  0
VERTEX
  5
DF7D8
330
DF7BA
100
AcDbEntity
  8
AM_0
100
AcDbVertex
100
AcDb2dVertex
 10
3790.329401031073
 20
-224.1851514477178
 30
0.0
  0
VERTEX
  5
DF7D9
330
DF7BA
100
AcDbEntity
  8
AM_0
100
AcDbVertex
100
AcDb2dVertex
 10
3790.733904522509
 20
-224.5989094991141
 30
0.0
  0
VERTEX
  5
DF7DA
330
DF7BA
100
AcDbEntity
  8
AM_0
100
AcDbVertex
100
AcDb2dVertex
 10
3790.925005098515
 20
-224.7740762848315
 30
0.0
  0
VERTEX
  5
DF7DB
330
DF7BA
100
AcDbEntity
  8
AM_0
100
AcDbVertex
100
AcDb2dVertex
 10
3791.085711639732
 20
-224.922384240097
 30
0.0
  0
VERTEX
  5
DF7DC
330
DF7BA
100
AcDbEntity
  8
AM_0
100
AcDbVertex
100
AcDb2dVertex
 10
3791.220190508667
 20
-225.0459960598416
 30
0.0
  0
VERTEX
  5
DF7DD
330
DF7BA
100
AcDbEntity
  8
AM_0
100
AcDbVertex
100
AcDb2dVertex
 10
3791.332991813514
 20
-225.1471411604358
 30
0.0
  0
VERTEX
  5
DF7DE
330
DF7BA
100
AcDbEntity
  8
AM_0
100
AcDbVertex
100
AcDb2dVertex
 10
3791.428664471509
 20
-225.2280604619461
 30
0.0
  0
VERTEX
  5
DF7DF
330
DF7BA
100
AcDbEntity
  8
AM_0
100
AcDbVertex
100
AcDb2dVertex
 10
3791.511758313049
 20
-225.2909810800038
 30
0.0
  0
VERTEX
  5
DF7E0
330
DF7BA
100
AcDbEntity
  8
AM_0
100
AcDbVertex
100
AcDb2dVertex
 10
3791.658409066367
 20
-225.3717761415932
 30
0.0
  0
VERTEX
  5
DF7E1
330
DF7BA
100
AcDbEntity
  8
AM_0
100
AcDbVertex
100
AcDb2dVertex
 10
3791.809339064013
 20
-225.4074007887346
 30
0.0
  0
VERTEX
  5
DF7E2
330
DF7BA
100
AcDbEntity
  8
AM_0
100
AcDbVertex
100
AcDb2dVertex
 10
3792.000947980554
 20
-225.4157271642199
 30
0.0
  0
SEQEND
  5
DF7E3
330
DF7BA
100
AcDbEntity
  8
AM_0
  0
POLYLINE
  5
DF7E4
330
1F
100
AcDbEntity
  8
AM_0
100
AcDb2dPolyline
 66
     1
 10
0.0
 20
0.0
 30
0.0
 70
   128
  0
VERTEX
  5
DF7E5
330
DF7E4
100
AcDbEntity
  8
AM_0
100
AcDbVertex
100
AcDb2dVertex
 10
3795.165027551398
 20
-200.4852774519557
 30
0.0
  0
VERTEX
  5
DF7E6
330
DF7E4
100
AcDbEntity
  8
AM_0
100
AcDbVertex
100
AcDb2dVertex
 10
3795.095976234702
 20
-197.9145745921964
 30
0.0
  0
VERTEX
  5
DF7E7
330
DF7E4
100
AcDbEntity
  8
AM_0
100
AcDbVertex
100
AcDb2dVertex
 10
3795.029541128707
 20
-195.3410631049508
 30
0.0
  0
VERTEX
  5
DF7E8
330
DF7E4
100
AcDbEntity
  8
AM_0
100
AcDbVertex
100
AcDb2dVertex
 10
3794.940294888229
 20
-192.7666408125395
 30
0.0
  0
VERTEX
  5
DF7E9
330
DF7E4
100
AcDbEntity
  8
AM_0
100
AcDbVertex
100
AcDb2dVertex
 10
3794.8791707939
 20
-191.4796811658972
 30
0.0
  0
VERTEX
  5
DF7EA
330
DF7E4
100
AcDbEntity
  8
AM_0
100
AcDbVertex
100
AcDb2dVertex
 10
3794.802808541221
 20
-190.1932055366114
 30
0.0
  0
SEQEND
  5
DF7EB
330
DF7E4
100
AcDbEntity
  8
AM_0
  0
POLYLINE
  5
DF7EC
330
1F
100
AcDbEntity
  8
AM_0
100
AcDb2dPolyline
 66
     1
 10
0.0
 20
0.0
 30
0.0
 70
   128
  0
VERTEX
  5
DF7ED
330
DF7EC
100
AcDbEntity
  8
AM_0
100
AcDbVertex
100
AcDb2dVertex
 10
3807.742883191483
 20
-246.00151142069
 30
0.0
  0
VERTEX
  5
DF7EE
330
DF7EC
100
AcDbEntity
  8
AM_0
100
AcDbVertex
100
AcDb2dVertex
 10
3807.284619581465
 20
-246.0087863583197
 30
0.0
  0
VERTEX
  5
DF7EF
330
DF7EC
100
AcDbEntity
  8
AM_0
100
AcDbVertex
100
AcDb2dVertex
 10
3806.847986111642
 20
-246.0016218561756
 30
0.0
  0
VERTEX
  5
DF7F0
330
DF7EC
100
AcDbEntity
  8
AM_0
100
AcDbVertex
100
AcDb2dVertex
 10
3806.431567322091
 20
-245.9824935097322
 30
0.0
  0
VERTEX
  5
DF7F1
330
DF7EC
100
AcDbEntity
  8
AM_0
100
AcDbVertex
100
AcDb2dVertex
 10
3806.033948698186
 20
-245.9538815159423
 30
0.0
  0
VERTEX
  5
DF7F2
330
DF7EC
100
AcDbEntity
  8
AM_0
100
AcDbVertex
100
AcDb2dVertex
 10
3805.289450996022
 20
-245.8781181711775
 30
0.0
  0
VERTEX
  5
DF7F3
330
DF7EC
100
AcDbEntity
  8
AM_0
100
AcDbVertex
100
AcDb2dVertex
 10
3804.600450890129
 20
-245.7901379007913
 30
0.0
  0
VERTEX
  5
DF7F4
330
DF7EC
100
AcDbEntity
  8
AM_0
100
AcDbVertex
100
AcDb2dVertex
 10
3803.963937749995
 20
-245.6974871296497
 30
0.0
  0
VERTEX
  5
DF7F5
330
DF7EC
100
AcDbEntity
  8
AM_0
100
AcDbVertex
100
AcDb2dVertex
 10
3803.385129500084
 20
-245.6075972456542
 30
0.0
  0
VERTEX
  5
DF7F6
330
DF7EC
100
AcDbEntity
  8
AM_0
100
AcDbVertex
100
AcDb2dVertex
 10
3802.869244620445
 20
-245.5279088396632
 30
0.0
  0
VERTEX
  5
DF7F7
330
DF7EC
100
AcDbEntity
  8
AM_0
100
AcDbVertex
100
AcDb2dVertex
 10
3802.404746543972
 20
-245.4632810730538
 30
0.0
  0
SEQEND
  5
DF7F8
330
DF7EC
100
AcDbEntity
  8
AM_0
  0
LINE
  5
DF7F9
330
1F
100
AcDbEntity
  8
AM_0
100
AcDbLine
 10
3792.04031647832
 20
-244.7157846827021
 30
0.0
 11
3791.985887543314
 21
-244.7157110590449
 31
0.0
  0
POLYLINE
  5
DF7FA
330
1F
100
AcDbEntity
  8
AM_0
100
AcDb2dPolyline
 66
     1
 10
0.0
 20
0.0
 30
0.0
 70
   128
  0
VERTEX
  5
DF7FB
330
DF7FA
100
AcDbEntity
  8
AM_0
100
AcDbVertex
100
AcDb2dVertex
 10
3802.417571401916
 20
-245.4649145979485
 30
0.0
  0
VERTEX
  5
DF7FC
330
DF7FA
100
AcDbEntity
  8
AM_0
100
AcDbVertex
100
AcDb2dVertex
 10
3801.210245586118
 20
-245.3159463305068
 30
0.0
  0
VERTEX
  5
DF7FD
330
DF7FA
100
AcDbEntity
  8
AM_0
100
AcDbVertex
100
AcDb2dVertex
 10
3800.023940460879
 20
-245.180892934281
 30
0.0
  0
VERTEX
  5
DF7FE
330
DF7FA
100
AcDbEntity
  8
AM_0
100
AcDbVertex
100
AcDb2dVertex
 10
3798.863750147673
 20
-245.0608909744791
 30
0.0
  0
VERTEX
  5
DF7FF
330
DF7FA
100
AcDbEntity
  8
AM_0
100
AcDbVertex
100
AcDb2dVertex
 10
3797.73476753713
 20
-244.9570770163103
 30
0.0
  0
VERTEX
  5
DF800
330
DF7FA
100
AcDbEntity
  8
AM_0
100
AcDbVertex
100
AcDb2dVertex
 10
3796.642086433041
 20
-244.870592226461
 30
0.0
  0
VERTEX
  5
DF801
330
DF7FA
100
AcDbEntity
  8
AM_0
100
AcDbVertex
100
AcDb2dVertex
 10
3795.590800043721
 20
-244.8025639671828
 30
0.0
  0
VERTEX
  5
DF802
330
DF7FA
100
AcDbEntity
  8
AM_0
100
AcDbVertex
100
AcDb2dVertex
 10
3794.586001855278
 20
-244.7541380066412
 30
0.0
  0
VERTEX
  5
DF803
330
DF7FA
100
AcDbEntity
  8
AM_0
100
AcDbVertex
100
AcDb2dVertex
 10
3793.632785671501
 20
-244.7264509100445
 30
0.0
  0
SEQEND
  5
DF804
330
DF7FA
100
AcDbEntity
  8
AM_0
  0
POLYLINE
  5
DF805
330
1F
100
AcDbEntity
  8
AM_0
100
AcDb2dPolyline
 66
     1
 10
0.0
 20
0.0
 30
0.0
 70
   128
  0
VERTEX
  5
DF806
330
DF805
100
AcDbEntity
  8
AM_0
100
AcDbVertex
100
AcDb2dVertex
 10
3810.409753049459
 20
-245.537558140242
 30
0.0
  0
VERTEX
  5
DF807
330
DF805
100
AcDbEntity
  8
AM_0
100
AcDbVertex
100
AcDb2dVertex
 10
3810.057540932091
 20
-245.6516794104215
 30
0.0
  0
VERTEX
  5
DF808
330
DF805
100
AcDbEntity
  8
AM_0
100
AcDbVertex
100
AcDb2dVertex
 10
3809.706146308279
 20
-245.7468747992154
 30
0.0
  0
VERTEX
  5
DF809
330
DF805
100
AcDbEntity
  8
AM_0
100
AcDbVertex
100
AcDb2dVertex
 10
3809.358028284896
 20
-245.8245385546321
 30
0.0
  0
VERTEX
  5
DF80A
330
DF805
100
AcDbEntity
  8
AM_0
100
AcDbVertex
100
AcDb2dVertex
 10
3809.015646306087
 20
-245.8860557217235
 30
0.0
  0
VERTEX
  5
DF80B
330
DF805
100
AcDbEntity
  8
AM_0
100
AcDbVertex
100
AcDb2dVertex
 10
3808.681459756518
 20
-245.9328159470195
 30
0.0
  0
VERTEX
  5
DF80C
330
DF805
100
AcDbEntity
  8
AM_0
100
AcDbVertex
100
AcDb2dVertex
 10
3808.357914389058
 20
-245.9662042755715
 30
0.0
  0
VERTEX
  5
DF80D
330
DF805
100
AcDbEntity
  8
AM_0
100
AcDbVertex
100
AcDb2dVertex
 10
3807.742882852854
 20
-246.0015022177329
 30
0.0
  0
SEQEND
  5
DF80E
330
DF805
100
AcDbEntity
  8
AM_0
  0
POLYLINE
  5
DF80F
330
1F
100
AcDbEntity
  8
AM_0
100
AcDb2dPolyline
 66
     1
 10
0.0
 20
0.0
 30
0.0
 70
   128
  0
VERTEX
  5
DF810
330
DF80F
100
AcDbEntity
  8
AM_0
100
AcDbVertex
100
AcDb2dVertex
 10
3791.985182911016
 20
-244.7157064575663
 30
0.0
  0
VERTEX
  5
DF811
330
DF80F
100
AcDbEntity
  8
AM_0
100
AcDbVertex
100
AcDb2dVertex
 10
3791.668836921576
 20
-244.7171421188818
 30
0.0
  0
VERTEX
  5
DF812
330
DF80F
100
AcDbEntity
  8
AM_0
100
AcDbVertex
100
AcDb2dVertex
 10
3791.375979372745
 20
-244.7212972540361
 30
0.0
  0
VERTEX
  5
DF813
330
DF80F
100
AcDbEntity
  8
AM_0
100
AcDbVertex
100
AcDb2dVertex
 10
3791.105642084946
 20
-244.7279417891003
 30
0.0
  0
VERTEX
  5
DF814
330
DF80F
100
AcDbEntity
  8
AM_0
100
AcDbVertex
100
AcDb2dVertex
 10
3790.856853385538
 20
-244.7368456501457
 30
0.0
  0
VERTEX
  5
DF815
330
DF80F
100
AcDbEntity
  8
AM_0
100
AcDbVertex
100
AcDb2dVertex
 10
3790.628646643467
 20
-244.747783364722
 30
0.0
  0
VERTEX
  5
DF816
330
DF80F
100
AcDbEntity
  8
AM_0
100
AcDbVertex
100
AcDb2dVertex
 10
3790.420051019466
 20
-244.7605248589003
 30
0.0
  0
VERTEX
  5
DF817
330
DF80F
100
AcDbEntity
  8
AM_0
100
AcDbVertex
100
AcDb2dVertex
 10
3790.057814493957
 20
-244.7904988903478
 30
0.0
  0
VERTEX
  5
DF818
330
DF80F
100
AcDbEntity
  8
AM_0
100
AcDbVertex
100
AcDb2dVertex
 10
3789.762392260978
 20
-244.824940957493
 30
0.0
  0
VERTEX
  5
DF819
330
DF80F
100
AcDbEntity
  8
AM_0
100
AcDbVertex
100
AcDb2dVertex
 10
3789.5260280087
 20
-244.8620150703843
 30
0.0
  0
VERTEX
  5
DF81A
330
DF80F
100
AcDbEntity
  8
AM_0
100
AcDbVertex
100
AcDb2dVertex
 10
3789.340966477345
 20
-244.8998944420265
 30
0.0
  0
VERTEX
  5
DF81B
330
DF80F
100
AcDbEntity
  8
AM_0
100
AcDbVertex
100
AcDb2dVertex
 10
3789.199452546031
 20
-244.9367476839459
 30
0.0
  0
VERTEX
  5
DF81C
330
DF80F
100
AcDbEntity
  8
AM_0
100
AcDbVertex
100
AcDb2dVertex
 10
3789.093867284731
 20
-244.970660581055
 30
0.0
  0
VERTEX
  5
DF81D
330
DF80F
100
AcDbEntity
  8
AM_0
100
AcDbVertex
100
AcDb2dVertex
 10
3789.069199664675
 20
-244.9756393808745
 30
0.0
  0
VERTEX
  5
DF81E
330
DF80F
100
AcDbEntity
  8
AM_0
100
AcDbVertex
100
AcDb2dVertex
 10
3789.068304807255
 20
-244.9691328901666
 30
0.0
  0
VERTEX
  5
DF81F
330
DF80F
100
AcDbEntity
  8
AM_0
100
AcDbVertex
100
AcDb2dVertex
 10
3789.070184755398
 20
-244.9625849861511
 30
0.0
  0
VERTEX
  5
DF820
330
DF80F
100
AcDbEntity
  8
AM_0
100
AcDbVertex
100
AcDb2dVertex
 10
3789.039145261978
 20
-244.983006348074
 30
0.0
  0
VERTEX
  5
DF821
330
DF80F
100
AcDbEntity
  8
AM_0
100
AcDbVertex
100
AcDb2dVertex
 10
3788.964239462087
 20
-245.0328679699302
 30
0.0
  0
VERTEX
  5
DF822
330
DF80F
100
AcDbEntity
  8
AM_0
100
AcDbVertex
100
AcDb2dVertex
 10
3788.846501038174
 20
-245.1108078140612
 30
0.0
  0
VERTEX
  5
DF823
330
DF80F
100
AcDbEntity
  8
AM_0
100
AcDbVertex
100
AcDb2dVertex
 10
3788.754846892818
 20
-245.1719016451231
 30
0.0
  0
VERTEX
  5
DF824
330
DF80F
100
AcDbEntity
  8
AM_0
100
AcDbVertex
100
AcDb2dVertex
 10
3788.60096995949
 20
-245.275444116054
 30
0.0
  0
VERTEX
  5
DF825
330
DF80F
100
AcDbEntity
  8
AM_0
100
AcDbVertex
100
AcDb2dVertex
 10
3788.558085976558
 20
-245.3050132173874
 30
0.0
  0
VERTEX
  5
DF826
330
DF80F
100
AcDbEntity
  8
AM_0
100
AcDbVertex
100
AcDb2dVertex
 10
3788.483971681097
 20
-245.3526799339628
 30
0.0
  0
VERTEX
  5
DF827
330
DF80F
100
AcDbEntity
  8
AM_0
100
AcDbVertex
100
AcDb2dVertex
 10
3788.424866462845
 20
-245.3889809984539
 30
0.0
  0
VERTEX
  5
DF828
330
DF80F
100
AcDbEntity
  8
AM_0
100
AcDbVertex
100
AcDb2dVertex
 10
3788.344660982913
 20
-245.4371170658443
 30
0.0
  0
VERTEX
  5
DF829
330
DF80F
100
AcDbEntity
  8
AM_0
100
AcDbVertex
100
AcDb2dVertex
 10
3788.223454841374
 20
-245.5059229750011
 30
0.0
  0
VERTEX
  5
DF82A
330
DF80F
100
AcDbEntity
  8
AM_0
100
AcDbVertex
100
AcDb2dVertex
 10
3788.140296672144
 20
-245.549945320544
 30
0.0
  0
VERTEX
  5
DF82B
330
DF80F
100
AcDbEntity
  8
AM_0
100
AcDbVertex
100
AcDb2dVertex
 10
3788.038445097359
 20
-245.6010033268305
 30
0.0
  0
VERTEX
  5
DF82C
330
DF80F
100
AcDbEntity
  8
AM_0
100
AcDbVertex
100
AcDb2dVertex
 10
3787.916605822862
 20
-245.657942022738
 30
0.0
  0
VERTEX
  5
DF82D
330
DF80F
100
AcDbEntity
  8
AM_0
100
AcDbVertex
100
AcDb2dVertex
 10
3787.776638359403
 20
-245.7179268974634
 30
0.0
  0
VERTEX
  5
DF82E
330
DF80F
100
AcDbEntity
  8
AM_0
100
AcDbVertex
100
AcDb2dVertex
 10
3787.459189377116
 20
-245.8358305830329
 30
0.0
  0
VERTEX
  5
DF82F
330
DF80F
100
AcDbEntity
  8
AM_0
100
AcDbVertex
100
AcDb2dVertex
 10
3787.121463056118
 20
-245.9363820928901
 30
0.0
  0
VERTEX
  5
DF830
330
DF80F
100
AcDbEntity
  8
AM_0
100
AcDbVertex
100
AcDb2dVertex
 10
3786.774112982371
 20
-246.0168159384101
 30
0.0
  0
VERTEX
  5
DF831
330
DF80F
100
AcDbEntity
  8
AM_0
100
AcDbVertex
100
AcDb2dVertex
 10
3786.426015482575
 20
-246.0785999912589
 30
0.0
  0
VERTEX
  5
DF832
330
DF80F
100
AcDbEntity
  8
AM_0
100
AcDbVertex
100
AcDb2dVertex
 10
3786.086923288028
 20
-246.1229214329093
 30
0.0
  0
VERTEX
  5
DF833
330
DF80F
100
AcDbEntity
  8
AM_0
100
AcDbVertex
100
AcDb2dVertex
 10
3785.758444782192
 20
-246.1526653904289
 30
0.0
  0
VERTEX
  5
DF834
330
DF80F
100
AcDbEntity
  8
AM_0
100
AcDbVertex
100
AcDb2dVertex
 10
3785.417692514438
 20
-246.1711633343068
 30
0.0
  0
SEQEND
  5
DF835
330
DF80F
100
AcDbEntity
  8
AM_0
  0
POLYLINE
  5
DF836
330
1F
100
AcDbEntity
  8
AM_0
100
AcDb2dPolyline
 66
     1
 10
0.0
 20
0.0
 30
0.0
 70
   128
  0
VERTEX
  5
DF837
330
DF836
100
AcDbEntity
  8
AM_0
100
AcDbVertex
100
AcDb2dVertex
 10
3781.403326288181
 20
-228.6224745768868
 30
0.0
  0
VERTEX
  5
DF838
330
DF836
100
AcDbEntity
  8
AM_0
100
AcDbVertex
100
AcDb2dVertex
 10
3781.411560219131
 20
-228.1920706767403
 30
0.0
  0
VERTEX
  5
DF839
330
DF836
100
AcDbEntity
  8
AM_0
100
AcDbVertex
100
AcDb2dVertex
 10
3781.422013018827
 20
-227.7645864147507
 30
0.0
  0
VERTEX
  5
DF83A
330
DF836
100
AcDbEntity
  8
AM_0
100
AcDbVertex
100
AcDb2dVertex
 10
3781.434624803227
 20
-227.3456079859101
 30
0.0
  0
VERTEX
  5
DF83B
330
DF836
100
AcDbEntity
  8
AM_0
100
AcDbVertex
100
AcDb2dVertex
 10
3781.449453583212
 20
-226.9369943875633
 30
0.0
  0
VERTEX
  5
DF83C
330
DF836
100
AcDbEntity
  8
AM_0
100
AcDbVertex
100
AcDb2dVertex
 10
3781.487428646174
 20
-226.1319265980085
 30
0.0
  0
VERTEX
  5
DF83D
330
DF836
100
AcDbEntity
  8
AM_0
100
AcDbVertex
100
AcDb2dVertex
 10
3781.513162122108
 20
-225.7145402807554
 30
0.0
  0
VERTEX
  5
DF83E
330
DF836
100
AcDbEntity
  8
AM_0
100
AcDbVertex
100
AcDb2dVertex
 10
3781.544985266131
 20
-225.289076067861
 30
0.0
  0
VERTEX
  5
DF83F
330
DF836
100
AcDbEntity
  8
AM_0
100
AcDbVertex
100
AcDb2dVertex
 10
3781.583938507744
 20
-224.860296489652
 30
0.0
  0
VERTEX
  5
DF840
330
DF836
100
AcDbEntity
  8
AM_0
100
AcDbVertex
100
AcDb2dVertex
 10
3781.62985607083
 20
-224.4417851108869
 30
0.0
  0
VERTEX
  5
DF841
330
DF836
100
AcDbEntity
  8
AM_0
100
AcDbVertex
100
AcDb2dVertex
 10
3781.681657583466
 20
-224.0442564744314
 30
0.0
  0
VERTEX
  5
DF842
330
DF836
100
AcDbEntity
  8
AM_0
100
AcDbVertex
100
AcDb2dVertex
 10
3781.736166874523
 20
-223.683880176004
 30
0.0
  0
VERTEX
  5
DF843
330
DF836
100
AcDbEntity
  8
AM_0
100
AcDbVertex
100
AcDb2dVertex
 10
3781.85919470785
 20
-223.0141188639964
 30
0.0
  0
VERTEX
  5
DF844
330
DF836
100
AcDbEntity
  8
AM_0
100
AcDbVertex
100
AcDb2dVertex
 10
3781.935353437228
 20
-222.6694543141688
 30
0.0
  0
VERTEX
  5
DF845
330
DF836
100
AcDbEntity
  8
AM_0
100
AcDbVertex
100
AcDb2dVertex
 10
3781.97814461228
 20
-222.4940574545229
 30
0.0
  0
VERTEX
  5
DF846
330
DF836
100
AcDbEntity
  8
AM_0
100
AcDbVertex
100
AcDb2dVertex
 10
3782.002885206907
 20
-222.397601260599
 30
0.0
  0
VERTEX
  5
DF847
330
DF836
100
AcDbEntity
  8
AM_0
100
AcDbVertex
100
AcDb2dVertex
 10
3782.030340643414
 20
-222.2943578857744
 30
0.0
  0
SEQEND
  5
DF848
330
DF836
100
AcDbEntity
  8
AM_0
  0
POLYLINE
  5
DF849
330
1F
100
AcDbEntity
  8
AM_0
100
AcDb2dPolyline
 66
     1
 10
0.0
 20
0.0
 30
0.0
 70
   128
  0
VERTEX
  5
DF84A
330
DF849
100
AcDbEntity
  8
AM_0
100
AcDbVertex
100
AcDb2dVertex
 10
3783.151806029551
 20
-244.9108643669451
 30
0.0
  0
VERTEX
  5
DF84B
330
DF849
100
AcDbEntity
  8
AM_0
100
AcDbVertex
100
AcDb2dVertex
 10
3783.076358144945
 20
-244.7911845106448
 30
0.0
  0
VERTEX
  5
DF84C
330
DF849
100
AcDbEntity
  8
AM_0
100
AcDbVertex
100
AcDb2dVertex
 10
3783.013459585791
 20
-244.6855943817462
 30
0.0
  0
VERTEX
  5
DF84D
330
DF849
100
AcDbEntity
  8
AM_0
100
AcDbVertex
100
AcDb2dVertex
 10
3782.902468886037
 20
-244.4840358156525
 30
0.0
  0
VERTEX
  5
DF84E
330
DF849
100
AcDbEntity
  8
AM_0
100
AcDbVertex
100
AcDb2dVertex
 10
3782.794354371029
 20
-244.2660637754761
 30
0.0
  0
VERTEX
  5
DF84F
330
DF849
100
AcDbEntity
  8
AM_0
100
AcDbVertex
100
AcDb2dVertex
 10
3782.685691830562
 20
-244.0208785909971
 30
0.0
  0
VERTEX
  5
DF850
330
DF849
100
AcDbEntity
  8
AM_0
100
AcDbVertex
100
AcDb2dVertex
 10
3782.577204787222
 20
-243.743045916017
 30
0.0
  0
VERTEX
  5
DF851
330
DF849
100
AcDbEntity
  8
AM_0
100
AcDbVertex
100
AcDb2dVertex
 10
3782.47419623193
 20
-243.4372454542478
 30
0.0
  0
VERTEX
  5
DF852
330
DF849
100
AcDbEntity
  8
AM_0
100
AcDbVertex
100
AcDb2dVertex
 10
3782.381973579081
 20
-243.1174472946485
 30
0.0
  0
VERTEX
  5
DF853
330
DF849
100
AcDbEntity
  8
AM_0
100
AcDbVertex
100
AcDb2dVertex
 10
3782.303340340763
 20
-242.7988823313078
 30
0.0
  0
VERTEX
  5
DF854
330
DF849
100
AcDbEntity
  8
AM_0
100
AcDbVertex
100
AcDb2dVertex
 10
3782.238239877487
 20
-242.4958887714705
 30
0.0
  0
VERTEX
  5
DF855
330
DF849
100
AcDbEntity
  8
AM_0
100
AcDbVertex
100
AcDb2dVertex
 10
3782.184999346451
 20
-242.21757294124
 30
0.0
  0
VERTEX
  5
DF856
330
DF849
100
AcDbEntity
  8
AM_0
100
AcDbVertex
100
AcDb2dVertex
 10
3782.141220819138
 20
-241.9663460153901
 30
0.0
  0
VERTEX
  5
DF857
330
DF849
100
AcDbEntity
  8
AM_0
100
AcDbVertex
100
AcDb2dVertex
 10
3782.103396705136
 20
-241.7315279621444
 30
0.0
  0
VERTEX
  5
DF858
330
DF849
100
AcDbEntity
  8
AM_0
100
AcDbVertex
100
AcDb2dVertex
 10
3782.065650660111
 20
-241.4797304529513
 30
0.0
  0
VERTEX
  5
DF859
330
DF849
100
AcDbEntity
  8
AM_0
100
AcDbVertex
100
AcDb2dVertex
 10
3782.044910018937
 20
-241.3328834671343
 30
0.0
  0
VERTEX
  5
DF85A
330
DF849
100
AcDbEntity
  8
AM_0
100
AcDbVertex
100
AcDb2dVertex
 10
3782.023199065554
 20
-241.1719513553943
 30
0.0
  0
VERTEX
  5
DF85B
330
DF849
100
AcDbEntity
  8
AM_0
100
AcDbVertex
100
AcDb2dVertex
 10
3782.002066308606
 20
-241.0075083155001
 30
0.0
  0
VERTEX
  5
DF85C
330
DF849
100
AcDbEntity
  8
AM_0
100
AcDbVertex
100
AcDb2dVertex
 10
3781.98284155232
 20
-240.8501331466998
 30
0.0
  0
VERTEX
  5
DF85D
330
DF849
100
AcDbEntity
  8
AM_0
100
AcDbVertex
100
AcDb2dVertex
 10
3781.949492766762
 20
-240.5568349022234
 30
0.0
  0
SEQEND
  5
DF85E
330
DF849
100
AcDbEntity
  8
AM_0
  0
ARC
  5
DF85F
330
1F
100
AcDbEntity
  8
AM_0
100
AcDbCircle
 10
3786.364181050337
 20
-223.8492152491598
 30
0.0
 40
4.604319069433603
100
AcDbArc
 50
101.894336367432
 51
160.2634726480445
  0
TEXT
  5
DF9F3
330
1F
100
AcDbEntity
  8
AM_6
100
AcDbText
 10
3533.406396329135
 20
-126.1037883664636
 30
0.0
 40
3.2
  1
光沢クローム、サテンニッケル
 41
0.85537027
100
AcDbText
  0
LINE
  5
E11CA
330
1F
100
AcDbEntity
  8
AM_1
100
AcDbLine
 10
3607.749396329135
 20
-96.5037883664636
 30
0.0
 11
3607.749396329135
 21
-144.5037883664636
 31
0.0
  0
LINE
  5
E3F64
330
1F
100
AcDbEntity
  8
AM_1
100
AcDbLine
 10
3507.749396329134
 20
-144.5037883664636
 30
0.0
 11
3607.749396329134
 21
-144.5037883664636
 31
0.0
  0
TEXT
  5
E3F65
330
1F
100
AcDbEntity
  8
AM_6
100
AcDbText
 10
3533.406396329134
 20
-142.1037883664636
 30
0.0
 40
3.2
  1
適応ドア厚：32～40
 41
0.85537027
100
AcDbText
  0
TEXT
  5
E3F66
330
1F
100
AcDbEntity
  8
AM_6
100
AcDbText
 10
3513.406396329134
 20
-142.1037883664636
 30
0.0
 40
3.2
  1
備　考
 41
0.85537027
100
AcDbText
  0
TEXT
  5
E3F67
330
1F
100
AcDbEntity
  8
AM_6
100
AcDbText
 10
3510.206395767072
 20
-134.1037883664636
 30
0.0
 40
3.2
  1
セット部品
 41
0.84892707
100
AcDbText
  0
LINE
  5
E3F76
330
1F
100
AcDbEntity
  8
AM_2
100
AcDbLine
 10
3507.749396329135
 20
-136.5037883664636
 30
0.0
 11
3607.749396329135
 21
-136.5037883664636
 31
0.0
  0
TEXT
  5
E42DC
330
1F
100
AcDbEntity
  8
AM_6
100
AcDbText
 10
3527.123523785834
 20
-134.1037883664636
 30
0.0
 40
3.2
  1
　 M4×30　ナベ小ネジ +　SUS：2本
 41
0.84892707
100
AcDbText
  0
CIRCLE
  5
E42DD
330
1F
100
AcDbEntity
  8
AM_6
 48
0.3
100
AcDbCircle
 10
3569.011580076143
 20
-132.7398406107473
 30
0.0
 40
1.741429355992295
  0
VIEWPORT
  5
34B25
330
1B
100
AcDbEntity
 67
     1
  8
0
 48
0.5
100
AcDbViewport
 10
145.1610107421875
 20
106.4772970040639
 30
0.0
 40
296.6719970703125
 41
219.3045939127604
 68
     1
 69
     1
 12
145.1610107421875
 22
106.4772970040639
 13
0.0
 23
0.0
 14
2.5
 24
2.5
 15
10.0
 25
10.0
 16
0.0
 26
0.0
 36
1.0
 17
0.0
 27
0.0
 37
0.0
 42
50.0
 43
0.0
 44
0.0
 45
219.3045939127604
 50
0.0
 51
0.0
 72
   100
 90
    32800
  1

281
     0
 71
     1
 74
     0
110
0.0
120
0.0
130
0.0
111
1.0
121
0.0
131
0.0
112
0.0
122
1.0
132
0.0
 79
     0
146
0.0
170
     0
1001
GENIUS_GENSCREG_15
1000
PF
1040
1.0
1000
DF
1040
1.0
1000
MIN
1011
-3.17498779296875
1021
-3.174999952316284
1031
0.0
1000
MAX
1011
293.4970092773438
1021
216.1295939604441
1031
0.0
1000
FLAGS
1070
     4
1001
GENIUS_GENODEF_13
1002
{
1000
HIER
1070
     0
1002
}
1002
{
1000
MANEDIT
1070
     0
1002
}
1002
{
1000
NOSEL
1070
     0
1002
}
1002
{
1000
BEHIND
1070
     0
1002
}
1002
{
1000
OTHER
1070
     0
1002
}
1002
{
1000
REACTOR
1002
}
1001
GENIUS_GENOBJ-N-SDF_13
1002
{
1000
OWNER
1000
GEN
1002
}
  0
ENDSEC
  0
SECTION
  2
OBJECTS
  0
DICTIONARY
  5
C
330
0
100
AcDbDictionary
281
     1
  3
ACAD_2007HEADERVARS_RT
350
E447E
  3
ACAD_COLOR
350
DE6C
  3
ACAD_GROUP
350
D
  3
ACAD_LAYOUT
350
1A
  3
ACAD_MATERIAL
350
DE6B
  3
ACAD_MLINESTYLE
350
17
  3
ACAD_PLOTSETTINGS
350
19
  3
ACAD_PLOTSTYLENAME
350
E
  3
ACAD_TABLESTYLE
350
FD1D
  3
ACAD_VISUALSTYLE
350
ADEC6
  3
AcAsAppObject
350
3DA1
  3
ACASGREF_MASTER
350
3DE9
  3
AcDbVariableDictionary
350
34
  3
AcmDictionary
350
47
  3
AD_GREF_MODULE
350
3DEA
  3
AD_MAPI_MODULE
350
3E06
  3
AMG
350
2B
  3
AMGSNAPSETTINGS
350
7D
  3
ASE_INDEX_DICTIONARY
350
547D7
  3
MAPISURF_MODULE
350
3DEB
  0
DICTIONARY
  5
AEEE5
330
8
100
AcDbDictionary
280
     1
281
     1
  0
DICTIONARY
  5
3F95
330
2
100
AcDbDictionary
280
     1
281
     1
  3
ACAD_LAYERFILTERS
360
C7DFB
  3
ACAD_LAYERSTATES
360
3F96
  3
ACLYDICTIONARY
360
C7DFA
  3
AMLAYER_GROUPCOLORS
360
15B82
  0
DICTIONARY
  5
C49A1
330
C49A0
100
AcDbDictionary
280
     1
281
     1
  3
ADSK_XREC_LAYER_RECONCILED
360
C49A2
  0
DICTIONARY
  5
8A
330
1F
100
AcDbDictionary
280
     1
281
     1
  3
ACAD_SORTENTS
360
14054
  0
DICTIONARY
  5
E447E
102
{ACAD_REACTORS
330
C
102
}
330
C
100
AcDbDictionary
281
     1
  3
DIMARCSYM
350
E447F
  0
DICTIONARY
  5
DE6C
102
{ACAD_REACTORS
330
C
102
}
330
C
100
AcDbDictionary
281
     1
  0
DICTIONARY
  5
D
102
{ACAD_REACTORS
330
C
102
}
330
C
100
AcDbDictionary
281
     1
  0
DICTIONARY
  5
1A
102
{ACAD_REACTORS
330
C
102
}
330
C
100
AcDbDictionary
281
     1
  3
Model
350
22
  3
ﾚｲｱｳﾄ1
350
1E
  3
ﾚｲｱｳﾄ2
350
26
  0
DICTIONARY
  5
DE6B
102
{ACAD_REACTORS
330
C
102
}
330
C
100
AcDbDictionary
281
     1
  3
ByBlock
350
ADEC4
  3
ByLayer
350
ADEC3
  3
Global
350
ADEC5
  0
DICTIONARY
  5
17
102
{ACAD_REACTORS
330
C
102
}
330
C
100
AcDbDictionary
281
     1
  3
Standard
350
18
  0
DICTIONARY
  5
19
102
{ACAD_REACTORS
330
C
102
}
330
C
100
AcDbDictionary
281
     1
  3
C00
350
AF0D4
  0
ACDBDICTIONARYWDFLT
  5
E
102
{ACAD_REACTORS
330
C
102
}
330
C
100
AcDbDictionary
281
     1
  3
Normal
350
F
100
AcDbDictionaryWithDefault
340
F
  0
DICTIONARY
  5
FD1D
102
{ACAD_REACTORS
330
C
102
}
330
C
100
AcDbDictionary
281
     1
  3
Standard
350
FD1E
  0
DICTIONARY
  5
ADEC6
102
{ACAD_REACTORS
330
C
102
}
330
C
100
AcDbDictionary
281
     1
  3
2dWireframe
350
ADECC
  3
3D Hidden
350
ADECE
  3
3dWireframe
350
ADECD
  3
Basic
350
ADECB
  3
Brighten
350
ADED2
  3
ColorChange
350
ADED6
  3
Conceptual
350
ADECF
  3
Dim
350
ADED1
  3
Facepattern
350
ADED5
  3
Flat
350
ADEC7
  3
FlatWithEdges
350
ADEC8
  3
Gouraud
350
ADEC9
  3
GouraudWithEdges
350
ADECA
  3
Linepattern
350
ADED4
  3
Realistic
350
ADED0
  3
Thicken
350
ADED3
  0
ACAD_PROXY_OBJECT
  5
3DA1
102
{ACAD_REACTORS
330
C
102
}
330
C
100
AcDbProxyObject
 90
      499
 91
      576
 95
   655383
 70
     0
 93
       10
310
404C
 94
        0
  0
ACAD_PROXY_OBJECT
  5
3DE9
102
{ACAD_REACTORS
330
C
102
}
330
C
100
AcDbProxyObject
 90
      499
 91
      581
 95
   655383
 70
     0
 93
       34
310
010000404C
 94
        0
  0
DICTIONARY
  5
34
102
{ACAD_REACTORS
330
C
102
}
330
C
100
AcDbDictionary
281
     1
  3
CTABLESTYLE
350
FD8B
  3
DIMASSOC
350
A10C
  3
HPORIGIN
350
AE2A9
  3
INDEXCTL
350
35
  3
SORTENTS
350
194C
  0
DICTIONARY
  5
47
102
{ACAD_REACTORS
330
C
102
}
330
C
100
AcDbDictionary
281
     1
  3
AcmBOM
350
7E8
  3
AcmStdDictionary
350
4C
  3
AMDTSECTSYM_ARROWCOLOR
350
DE78
  0
ACAD_PROXY_OBJECT
  5
3DEA
102
{ACAD_REACTORS
330
C
102
}
330
C
100
AcDbProxyObject
 90
      499
 91
      582
 95
   655383
 70
     0
 93
      114
310
00000043800000000000000000000C
 94
        0
  0
ACAD_PROXY_OBJECT
  5
3E06
102
{ACAD_REACTORS
330
C
102
}
330
C
100
AcDbProxyObject
 90
      499
 91
      594
 95
   655383
 70
     0
 93
       34
310
05000044CC
 94
        0
  0
DICTIONARY
  5
2B
102
{ACAD_REACTORS
330
C
102
}
330
C
100
AcDbDictionary
281
     1
  0
DICTIONARY
  5
7D
102
{ACAD_REACTORS
330
C
102
}
330
C
100
AcDbDictionary
281
     1
  0
DICTIONARY
  5
547D7
102
{ACAD_REACTORS
330
C
102
}
330
C
100
AcDbDictionary
281
     1
  3
ASEBlockHierarchyIndexRecord
350
547D8
1001
DCO15
1040
1573222139.328
  0
ACAD_PROXY_OBJECT
  5
3DEB
102
{ACAD_REACTORS
330
C
102
}
330
C
100
AcDbProxyObject
 90
      499
 91
      583
 95
   655383
 70
     0
 93
        8
310
047C
 94
        0
  0
DICTIONARY
  5
C7DFB
102
{ACAD_REACTORS
330
3F95
102
}
330
3F95
100
AcDbDictionary
281
     1
  0
DICTIONARY
  5
3F96
102
{ACAD_REACTORS
330
3F95
102
}
330
3F95
100
AcDbDictionary
281
     1
  3
20011210
350
3FB7
  0
DICTIONARY
  5
C7DFA
102
{ACAD_REACTORS
330
3F95
102
}
330
3F95
100
AcDbDictionary
281
     1
1001
ACAD
1000
<All
  0
DICTIONARY
  5
15B82
102
{ACAD_REACTORS
330
3F95
102
}
330
3F95
100
AcDbDictionary
280
     1
281
     1
  3
ばね
360
B78E5
  3
カム
360
1684E
  3
ケースＡ
360
15B84
  3
ゴム
360
16DE6
  3
スライド樹脂
360
16A9C
  3
フロントプレート
360
16DF0
  3
ラッチガイド
360
16DDE
  3
ラッチボルト
360
B78E4
  0
XRECORD
  5
C49A2
102
{ACAD_REACTORS
330
C49A1
102
}
330
C49A1
100
AcDbXrecord
280
     1
290
     1
  0
SORTENTSTABLE
  5
14054
102
{ACAD_REACTORS
330
8A
102
}
330
8A
100
AcDbSortentsTable
330
1F
331
C1EC0
  5
C1EC0
331
DF535
  5
DF70B
331
DF66C
  5
DF7B9
331
DE035
  5
DE1BF
331
89901
  5
899C6
331
7E32E
  5
7F298
331
DF37E
  5
DF4D0
331
DF70C
  5
DF849
331
35DDA
  5
6A022
331
DDFAB
  5
DDFD2
331
7E287
  5
7F043
331
DF7A4
  5
DF875
331
DF50D
  5
DF70A
331
1976C
  5
18F5F
331
C1EC2
  5
C1EC2
331
DE037
  5
DE1C1
331
DF70E
  5
DF86C
331
DF77C
  5
DF871
331
DF5E9
  5
DF745
331
DDFAD
  5
DDFDE
331
DF6C4
  5
DF7F9
331
C1EC4
  5
C1EC4
331
94DA6
  5
BD6CA
331
DF7B9
  5
DF877
331
DF3DF
  5
DF5BA
331
DF40B
  5
DF5E9
331
DF626
  5
DF783
331
DDFAF
  5
DDFE8
331
2B003
  5
1F6C6
331
DE044
  5
DE1C5
331
DF85F
  5
DF881
331
92EFD
  5
9366B
331
50290
  5
58161
331
DDFB1
  5
DDFEA
331
7E28D
  5
7F042
331
DE00B
  5
DE044
331
DE046
  5
DE1C7
331
DF321
  5
DF462
331
1167A
  5
1167A
331
DF4CF
  5
DF673
331
DF3B9
  5
DF4D3
331
92EFF
  5
9366C
331
DF47D
  5
DF63E
331
DE026
  5
DE04E
331
DE069
  5
DE1D4
331
89362
  5
89425
331
DE048
  5
DE1C9
331
DE00D
  5
DE046
331
DF3BB
  5
DF50D
331
DF602
  5
DF760
331
7E332
  5
7F29F
331
36164
  5
411C1
331
50294
  5
58163
331
89364
  5
89427
331
DF9F3
  5
E060C
331
DF336
  5
DF4B3
331
DE00F
  5
DE048
331
DF3FA
  5
DF5DE
331
94474
  5
94F36
331
DF3BD
  5
DF59D
331
DDFE8
  5
DE023
331
DF349
  5
DF4CE
331
DF59E
  5
DF70D
331
7E293
  5
61D9F
331
DE04C
  5
DE1CD
331
94476
  5
94F38
331
DF674
  5
DF7E4
331
DDFEA
  5
DE025
331
DF7F9
  5
DF87B
331
C1EB7
  5
C1EB7
331
DE02C
  5
DE052
331
7E295
  5
61D9E
331
DE04E
  5
DE1CF
331
DF5DE
  5
DF72A
331
DF760
  5
DF870
331
DF4D1
  5
DF6C3
331
DDFEC
  5
DE028
331
DF836
  5
DF87F
331
89B43
  5
89C0F
331
C1EB9
  5
C1EB9
331
DF417
  5
DF602
331
DDFDB
  5
DE00E
331
DF7E4
  5
DF879
331
70A5D
  5
71628
331
92B80
  5
93669
331
DF2F2
  5
DF417
331
DF498
  5
DF649
331
DF4D3
  5
DF6DF
331
DE039
  5
DE1C3
331
DDFEE
  5
DE02C
331
89B45
  5
89C11
331
C1EBB
  5
C1EBB
331
92B82
  5
9366A
331
DE052
  5
DE1D2
331
DF3D6
  5
DF59F
331
DF79F
  5
DF874
331
DDFF0
  5
DE033
331
7E33C
  5
6A144
331
C1EBD
  5
C1EBD
331
DF6DF
  5
DF7FA
331
DF788
  5
DF873
331
DE032
  5
DE054
331
72FDC
  5
7315F
331
DE054
  5
DE1D3
331
DF39D
  5
DF4D1
331
DF2F6
  5
DF440
331
947CE
  5
BBD47
331
DF649
  5
DF7A4
331
7E33E
  5
6A143
331
8A011
  5
8A0E8
331
C1EBF
  5
C1EBF
331
DE034
  5
DE1BE
331
70A73
  5
71627
331
72FDE
  5
73161
331
DF70B
  5
DF836
331
DDFAA
  5
DDFD1
331
86721
  5
867EC
331
2AFFE
  5
1F38D
331
8A013
  5
8A0EA
331
C1EC1
  5
C1EC1
331
DE036
  5
DE1C0
331
DF7EC
  5
DF87A
331
DF70D
  5
DF85F
331
DDFAC
  5
DDFDB
331
86723
  5
867EE
331
DF849
  5
DF880
331
CD597
  5
CD858
331
92521
  5
930D5
331
DF6C3
  5
DF7EC
331
2B000
  5
1F38B
331
DF2E9
  5
DF40B
331
C1EC3
  5
C1EC3
331
131CF
  5
131CF
331
DF70F
  5
DF86D
331
DF4B3
  5
DF65C
331
DDFAE
  5
DDFE7
331
70A2E
  5
71629
331
92523
  5
930D7
331
DDFE7
  5
DE010
331
DF7BA
  5
DF878
331
DF447
  5
DF626
331
DDFB0
  5
DDFE9
331
947D0
  5
BBD69
331
DF6FA
  5
DF805
331
DE045
  5
DE1C6
331
86336
  5
86404
331
94DA8
  5
BD756
331
DF4CE
  5
DF66C
331
50291
  5
58162
331
DF65C
  5
DF7AF
331
E11CA
  5
E1614
331
2B006
  5
1F38A
331
DE00C
  5
DE045
331
DE047
  5
DE1C8
331
8A3C3
  5
8A49E
331
86338
  5
86406
331
DF35D
  5
DF4CF
331
DF3CB
  5
DF59E
331
DF805
  5
DF87D
331
DF3BA
  5
DF4EE
331
70F6D
  5
727B3
331
DF783
  5
DF872
331
DF335
  5
DF498
331
92761
  5
93667
331
DE00E
  5
DE047
331
DE049
  5
DE1CA
331
8A3C5
  5
8A4A0
331
DF3BC
  5
DF535
331
DF63E
  5
DF79F
331
DF59D
  5
DF70C
331
DF4EE
  5
DF6FA
331
DE029
  5
DE051
331
92763
  5
93668
331
DE010
  5
DE049
331
DF72A
  5
DF86E
331
DF673
  5
DF7BA
331
DDFE9
  5
DE024
331
DF59F
  5
DF70E
331
C1EB6
  5
C1EB6
331
94A10
  5
BBD6B
331
DE04D
  5
DE1CE
331
DF462
  5
DF631
331
DF4D0
  5
DF674
331
DDFEB
  5
DE026
331
DF7FA
  5
DF87C
331
C1EB8
  5
C1EB8
331
DF631
  5
DF788
331
12884
  5
12884
331
94A12
  5
BD5C6
331
DE04F
  5
DE1D0
331
70A13
  5
7162A
331
DF4D2
  5
DF6C4
331
DE038
  5
DE1C2
331
DDFED
  5
DE029
331
5029B
  5
58164
331
C1EBA
  5
C1EBA
331
DF7AF
  5
DF876
331
DE051
  5
DE1D1
331
DF80F
  5
DF87E
331
DDFEF
  5
DE032
331
DE03A
  5
DE1C4
331
C1EBC
  5
C1EBC
331
DDFDE
  5
DE00F
331
CD592
  5
CD85D
331
5808A
  5
5E8F4
331
DF60D
  5
DF77C
331
DDFF1
  5
DE034
331
C1EBE
  5
C1EBE
331
DE033
  5
DE069
331
898FF
  5
899C4
331
DF70A
  5
DF80F
331
DF745
  5
DF86F
331
DF39E
  5
DF4D2
331
DF440
  5
DF60D
331
DDFA9
  5
DDFD0
331
DF32A
  5
DF47D
331
DF2F7
  5
DF447
331
DF5BA
  5
DF70F
  0
XRECORD
  5
E447F
102
{ACAD_REACTORS
330
E447E
102
}
330
E447E
100
AcDbXrecord
280
     1
 70
     1
  0
LAYOUT
  5
22
102
{ACAD_REACTORS
330
1A
102
}
330
1A
100
AcDbPlotSettings
  1

  2
Adobe PDF
  4
A3
  6

 40
3.174999952316284
 41
3.174999952316284
 42
3.17498779296875
 43
3.17498779296875
 44
297.0318298339844
 45
420.1583251953125
 46
0.0
 47
1.371553106741458
 48
3936.249396329134
 49
-702.0037883664635
140
4356.249396329134
141
-405.0037883664636
142
1.0
143
1.021735647008087
 70
  3764
 72
     1
 73
     1
 74
     4
  7
monochrome.ctb
 75
     0
147
0.9787267410393917
 76
     1
 77
     2
 78
   300
148
-3936.249396329134
149
702.0037883664635
100
AcDbLayout
  1
Model
 70
     1
 71
     0
 10
0.0
 20
0.0
 11
12.0
 21
9.0
 12
0.0
 22
0.0
 32
0.0
 14
0.0
 24
0.0
 34
0.0
 15
0.0
 25
0.0
 35
0.0
146
0.0
 13
0.0
 23
0.0
 33
0.0
 16
1.0
 26
0.0
 36
0.0
 17
0.0
 27
1.0
 37
0.0
 76
     0
330
1F
331
C4265
1001
ACAD_PSEXT
1000
Adobe PDF
1000
Adobe PDF Converter
1000
My Documents\*.pdf
1000

1070
     0
  0
LAYOUT
  5
1E
102
{ACAD_REACTORS
330
1A
102
}
330
1A
100
AcDbPlotSettings
  1

  2
\\ML370\XEROX
  4
A4
  6

 40
3.174999952316284
 41
3.174999952316284
 42
3.175003051757812
 43
3.17498779296875
 44
209.8674926757813
 45
296.6719970703125
 46
0.0
 47
0.0
 48
0.0
 49
0.0
140
0.0
141
0.0
142
1.0
143
1.0
 70
   688
 72
     1
 73
     1
 74
     5
  7
monochrome.ctb
 75
    16
147
1.0
 76
     0
 77
     2
 78
   300
148
0.0
149
0.0
100
AcDbLayout
  1
ﾚｲｱｳﾄ1
 70
     1
 71
     1
 10
-3.17498779296875
 20
-3.174999952316284
 11
293.4970092773438
 21
206.692492723465
 12
0.0
 22
0.0
 32
0.0
 14
1.000000000000000E+20
 24
1.000000000000000E+20
 34
1.000000000000000E+20
 15
-1.000000000000000E+20
 25
-1.000000000000000E+20
 35
-1.000000000000000E+20
146
0.0
 13
0.0
 23
0.0
 33
0.0
 16
1.0
 26
0.0
 36
0.0
 17
0.0
 27
1.0
 37
0.0
 76
     0
330
1B
331
34B25
  0
LAYOUT
  5
26
102
{ACAD_REACTORS
330
1A
102
}
330
1A
100
AcDbPlotSettings
  1

  2
\\ML370\XEROX
  4

  6

 40
0.0
 41
0.0
 42
0.0
 43
0.0
 44
0.0
 45
0.0
 46
0.0
 47
0.0
 48
0.0
 49
0.0
140
0.0
141
0.0
142
1.0
143
1.0
 70
   688
 72
     0
 73
     0
 74
     5
  7
monochrome.ctb
 75
    16
147
1.0
 76
     0
 77
     2
 78
   300
148
0.0
149
0.0
100
AcDbLayout
  1
ﾚｲｱｳﾄ2
 70
     1
 71
     2
 10
0.0
 20
0.0
 11
12.0
 21
9.0
 12
0.0
 22
0.0
 32
0.0
 14
0.0
 24
0.0
 34
0.0
 15
0.0
 25
0.0
 35
0.0
146
0.0
 13
0.0
 23
0.0
 33
0.0
 16
1.0
 26
0.0
 36
0.0
 17
0.0
 27
1.0
 37
0.0
 76
     0
330
23
  0
MATERIAL
  5
ADEC4
102
{ACAD_XDICTIONARY
360
E4484
102
}
102
{ACAD_REACTORS
330
DE6B
102
}
330
DE6B
100
AcDbMaterial
  1
ByBlock
  0
MATERIAL
  5
ADEC3
102
{ACAD_XDICTIONARY
360
E4482
102
}
102
{ACAD_REACTORS
330
DE6B
102
}
330
DE6B
100
AcDbMaterial
  1
ByLayer
  0
MATERIAL
  5
ADEC5
102
{ACAD_XDICTIONARY
360
E4486
102
}
102
{ACAD_REACTORS
330
DE6B
102
}
330
DE6B
100
AcDbMaterial
  1
Global
  0
MLINESTYLE
  5
18
102
{ACAD_REACTORS
330
17
102
}
330
17
100
AcDbMlineStyle
  2
STANDARD
 70
     0
  3

 62
   256
 51
90.0
 52
90.0
 71
     2
 49
0.5
 62
   256
  6
BYLAYER
 49
-0.5
 62
   256
  6
BYLAYER
  0
PLOTSETTINGS
  5
AF0D4
102
{ACAD_REACTORS
330
19
102
}
330
19
100
AcDbPlotSettings
  1
C00
  2
RICOH imagio Wide 7040e RP-GL/2
  4
A3
  6

 40
5.069416522979736
 41
7.22842264175415
 42
5.238739013671875
 43
7.05908203125
 44
419.9889831542968
 45
296.9683227539062
 46
-5.159586191177368
 47
-7.15959095954895
 48
2852.583709772213
 49
776.3677493254601
140
3272.583709772213
141
1073.36774932546
142
1.0
143
1.0
 70
 11956
 72
     1
 73
     0
 74
     4
  7
monochrome.ctb
 75
    16
147
1.0
 76
     0
 77
     2
 78
   200
148
-2852.583709772213
149
-776.3677493254601
1001
ACAD_PSEXT
1000
RICOH imagio Wide 7040e RP-GL/2
1000
RICOH imagio Wide 7040e RP-GL/2
1000
IP_192.200.51.212
1000
RP-GL/2 Driver (Windows 2000/XP/Server 2003)
1070
     0
  0
ACDBPLACEHOLDER
  5
F
102
{ACAD_REACTORS
330
E
102
}
330
E
  0
TABLESTYLE
  5
FD1E
102
{ACAD_XDICTIONARY
360
E4480
102
}
102
{ACAD_REACTORS
330
FD1D
102
}
330
FD1D
100
AcDbTableStyle
  3
Standard
 70
     0
 71
     0
 40
1.5
 41
1.5
280
     0
281
     0
  7
STANDARD
140
4.5
170
     2
 62
     0
 63
     7
283
     0
274
    -2
284
     1
 64
     0
275
    -2
285
     1
 65
     0
276
    -2
286
     1
 66
     0
277
    -2
287
     1
 67
     0
278
    -2
288
     1
 68
     0
279
    -2
289
     1
 69
     0
  7
STANDARD
140
6.0
170
     5
 62
     0
 63
     7
283
     0
274
    -2
284
     1
 64
     0
275
    -2
285
     1
 65
     0
276
    -2
286
     1
 66
     0
277
    -2
287
     1
 67
     0
278
    -2
288
     1
 68
     0
279
    -2
289
     1
 69
     0
  7
STANDARD
140
4.5
170
     5
 62
     0
 63
     7
283
     0
274
    -2
284
     1
 64
     0
275
    -2
285
     1
 65
     0
276
    -2
286
     1
 66
     0
277
    -2
287
     1
 67
     0
278
    -2
288
     1
 68
     0
279
    -2
289
     1
 69
     0
  0
VISUALSTYLE
  5
ADECC
102
{ACAD_REACTORS
330
ADEC6
102
}
330
ADEC6
100
AcDbVisualStyle
  2
2dWireframe
 70
     4
 71
     0
 72
     2
 73
     0
 90
        0
 40
-0.6
 41
-30.0
 62
     5
 63
     7
421
 16777215
 74
     1
 91
        4
 64
     7
 65
   257
 75
     1
175
     1
 42
1.0
 92
        0
 66
   257
 43
1.0
 76
     1
 77
     6
 78
     2
 67
     7
 79
     5
170
     0
171
     0
290
     0
174
     0
 93
        1
 44
0.0
173
     0
291
     0
 45
0.0
1001
ACAD
1000
AcDbSavedByObjectVersion
1070
     0
  0
VISUALSTYLE
  5
ADECE
102
{ACAD_REACTORS
330
ADEC6
102
}
330
ADEC6
100
AcDbVisualStyle
  2
3D Hidden
 70
     6
 71
     1
 72
     2
 73
     2
 90
        0
 40
-0.6
 41
-30.0
 62
     5
 63
     7
421
 16777215
 74
     2
 91
        2
 64
     7
 65
   257
 75
     2
175
     1
 42
40.0
 92
        0
 66
   257
 43
1.0
 76
     1
 77
     6
 78
     2
 67
     7
 79
     3
170
     0
171
     0
290
     0
174
     0
 93
        1
 44
0.0
173
     0
291
     0
 45
0.0
1001
ACAD
1000
AcDbSavedByObjectVersion
1070
     0
  0
VISUALSTYLE
  5
ADECD
102
{ACAD_REACTORS
330
ADEC6
102
}
330
ADEC6
100
AcDbVisualStyle
  2
3dWireframe
 70
     5
 71
     0
 72
     2
 73
     0
 90
        0
 40
-0.6
 41
-30.0
 62
     5
 63
     7
421
 16777215
 74
     1
 91
        4
 64
     7
 65
   257
 75
     1
175
     1
 42
1.0
 92
        0
 66
   257
 43
1.0
 76
     1
 77
     6
 78
     2
 67
     7
 79
     5
170
     0
171
     0
290
     0
174
     0
 93
        1
 44
0.0
173
     0
291
     0
 45
0.0
1001
ACAD
1000
AcDbSavedByObjectVersion
1070
     0
  0
VISUALSTYLE
  5
ADECB
102
{ACAD_REACTORS
330
ADEC6
102
}
330
ADEC6
100
AcDbVisualStyle
  2
Basic
 70
     7
 71
     1
 72
     0
 73
     1
 90
        0
 40
-0.6
 41
-30.0
 62
     5
 63
     7
421
 16777215
 74
     0
 91
        4
 64
     7
 65
   257
 75
     1
175
     1
 42
1.0
 92
        8
 66
     7
 43
1.0
 76
     1
 77
     6
 78
     2
 67
     7
 79
     5
170
     0
171
     0
290
     0
174
     0
 93
        1
 44
0.0
173
     0
291
     1
 45
0.0
1001
ACAD
1000
AcDbSavedByObjectVersion
1070
     0
  0
VISUALSTYLE
  5
ADED2
102
{ACAD_REACTORS
330
ADEC6
102
}
330
ADEC6
100
AcDbVisualStyle
  2
Brighten
 70
    12
 71
     2
 72
     2
 73
     0
 90
        0
 40
-0.6
 41
-30.0
 62
     5
 63
     7
421
 16777215
 74
     1
 91
        4
 64
     7
 65
   257
 75
     1
175
     1
 42
1.0
 92
        8
 66
     7
 43
1.0
 76
     1
 77
     6
 78
     2
 67
     7
 79
     5
170
     0
171
     0
290
     0
174
     0
 93
        1
 44
50.0
173
     0
291
     1
 45
0.0
1001
ACAD
1000
AcDbSavedByObjectVersion
1070
     0
  0
VISUALSTYLE
  5
ADED6
102
{ACAD_REACTORS
330
ADEC6
102
}
330
ADEC6
100
AcDbVisualStyle
  2
ColorChange
 70
    16
 71
     2
 72
     2
 73
     3
 90
        0
 40
-0.6
 41
-30.0
 62
     5
 63
     8
421
  8421504
 74
     1
 91
        4
 64
     7
 65
   257
 75
     1
175
     1
 42
1.0
 92
        8
 66
     8
424
  8421504
 43
1.0
 76
     1
 77
     6
 78
     2
 67
     7
 79
     5
170
     0
171
     0
290
     0
174
     0
 93
        1
 44
0.0
173
     0
291
     1
 45
0.0
1001
ACAD
1000
AcDbSavedByObjectVersion
1070
     0
  0
VISUALSTYLE
  5
ADECF
102
{ACAD_REACTORS
330
ADEC6
102
}
330
ADEC6
100
AcDbVisualStyle
  2
Conceptual
 70
     9
 71
     3
 72
     2
 73
     0
 90
        0
 40
-0.6
 41
-30.0
 62
     5
 63
     7
421
 16777215
 74
     2
 91
        2
 64
     7
 65
   257
 75
     1
175
     1
 42
40.0
 92
        8
 66
     7
 43
1.0
 76
     1
 77
     6
 78
     2
 67
     7
 79
     3
170
     0
171
     0
290
     0
174
     0
 93
        1
 44
0.0
173
     0
291
     0
 45
0.0
1001
ACAD
1000
AcDbSavedByObjectVersion
1070
     0
  0
VISUALSTYLE
  5
ADED1
102
{ACAD_REACTORS
330
ADEC6
102
}
330
ADEC6
100
AcDbVisualStyle
  2
Dim
 70
    11
 71
     2
 72
     2
 73
     0
 90
        0
 40
-0.6
 41
-30.0
 62
     5
 63
     7
421
 16777215
 74
     1
 91
        4
 64
     7
 65
   257
 75
     1
175
     1
 42
1.0
 92
        8
 66
     7
 43
1.0
 76
     1
 77
     6
 78
     2
 67
     7
 79
     5
170
     0
171
     0
290
     0
174
     0
 93
        1
 44
-50.0
173
     0
291
     1
 45
0.0
1001
ACAD
1000
AcDbSavedByObjectVersion
1070
     0
  0
VISUALSTYLE
  5
ADED5
102
{ACAD_REACTORS
330
ADEC6
102
}
330
ADEC6
100
AcDbVisualStyle
  2
Facepattern
 70
    15
 71
     2
 72
     2
 73
     0
 90
        0
 40
-0.6
 41
-30.0
 62
     5
 63
     7
421
 16777215
 74
     1
 91
        4
 64
     7
 65
   257
 75
     1
175
     1
 42
1.0
 92
        8
 66
     7
 43
1.0
 76
     1
 77
     6
 78
     2
 67
     7
 79
     5
170
     0
171
     0
290
     0
174
     0
 93
        1
 44
0.0
173
     0
291
     1
 45
0.0
1001
ACAD
1000
AcDbSavedByObjectVersion
1070
     0
  0
VISUALSTYLE
  5
ADEC7
102
{ACAD_REACTORS
330
ADEC6
102
}
330
ADEC6
100
AcDbVisualStyle
  2
Flat
 70
     0
 71
     2
 72
     1
 73
     1
 90
        2
 40
-0.6
 41
30.0
 62
     5
 63
     7
421
 16777215
 74
     0
 91
        4
 64
     7
 65
   257
 75
     1
175
     1
 42
1.0
 92
        8
 66
     7
 43
1.0
 76
     1
 77
     6
 78
     2
 67
     7
 79
     5
170
     0
171
     0
290
     0
174
     0
 93
       13
 44
0.0
173
     0
291
     1
 45
0.0
1001
ACAD
1000
AcDbSavedByObjectVersion
1070
     0
  0
VISUALSTYLE
  5
ADEC8
102
{ACAD_REACTORS
330
ADEC6
102
}
330
ADEC6
100
AcDbVisualStyle
  2
FlatWithEdges
 70
     1
 71
     2
 72
     1
 73
     1
 90
        2
 40
-0.6
 41
30.0
 62
     5
 63
     7
421
 16777215
 74
     1
 91
        4
 64
     7
 65
   257
 75
     1
175
     1
 42
1.0
 92
        0
 66
   257
 43
1.0
 76
     1
 77
     6
 78
     2
 67
     7
 79
     5
170
     0
171
     0
290
     0
174
     0
 93
       13
 44
0.0
173
     0
291
     1
 45
0.0
1001
ACAD
1000
AcDbSavedByObjectVersion
1070
     0
  0
VISUALSTYLE
  5
ADEC9
102
{ACAD_REACTORS
330
ADEC6
102
}
330
ADEC6
100
AcDbVisualStyle
  2
Gouraud
 70
     2
 71
     2
 72
     2
 73
     1
 90
        2
 40
-0.6
 41
30.0
 62
     5
 63
     7
421
 16777215
 74
     0
 91
        4
 64
     7
 65
   257
 75
     1
175
     1
 42
1.0
 92
        0
 66
     7
 43
1.0
 76
     1
 77
     6
 78
     2
 67
     7
 79
     5
170
     0
171
     0
290
     0
174
     0
 93
       13
 44
0.0
173
     0
291
     1
 45
0.0
1001
ACAD
1000
AcDbSavedByObjectVersion
1070
     0
  0
VISUALSTYLE
  5
ADECA
102
{ACAD_REACTORS
330
ADEC6
102
}
330
ADEC6
100
AcDbVisualStyle
  2
GouraudWithEdges
 70
     3
 71
     2
 72
     2
 73
     1
 90
        2
 40
-0.6
 41
30.0
 62
     5
 63
     7
421
 16777215
 74
     1
 91
        4
 64
     7
 65
   257
 75
     1
175
     1
 42
1.0
 92
        0
 66
   257
 43
1.0
 76
     1
 77
     6
 78
     2
 67
     7
 79
     5
170
     0
171
     0
290
     0
174
     0
 93
       13
 44
0.0
173
     0
291
     1
 45
0.0
1001
ACAD
1000
AcDbSavedByObjectVersion
1070
     0
  0
VISUALSTYLE
  5
ADED4
102
{ACAD_REACTORS
330
ADEC6
102
}
330
ADEC6
100
AcDbVisualStyle
  2
Linepattern
 70
    14
 71
     2
 72
     2
 73
     0
 90
        0
 40
-0.6
 41
-30.0
 62
     5
 63
     7
421
 16777215
 74
     1
 91
        4
 64
     7
 65
   257
 75
     7
175
     7
 42
1.0
 92
        8
 66
     7
 43
1.0
 76
     1
 77
     6
 78
     2
 67
     7
 79
     5
170
     0
171
     0
290
     0
174
     0
 93
        1
 44
0.0
173
     0
291
     1
 45
0.0
1001
ACAD
1000
AcDbSavedByObjectVersion
1070
     0
  0
VISUALSTYLE
  5
ADED0
102
{ACAD_REACTORS
330
ADEC6
102
}
330
ADEC6
100
AcDbVisualStyle
  2
Realistic
 70
     8
 71
     2
 72
     2
 73
     0
 90
        0
 40
-0.6
 41
-30.0
 62
     5
 63
     7
421
 16777215
 74
     1
 91
        0
 64
     7
 65
   257
 75
     1
175
     1
 42
1.0
 92
        8
 66
     8
424
  7895160
 43
1.0
 76
     1
 77
     6
 78
     2
 67
     7
 79
     5
170
     0
171
     0
290
     0
174
     0
 93
       13
 44
0.0
173
     0
291
     0
 45
0.0
1001
ACAD
1000
AcDbSavedByObjectVersion
1070
     0
  0
VISUALSTYLE
  5
ADED3
102
{ACAD_REACTORS
330
ADEC6
102
}
330
ADEC6
100
AcDbVisualStyle
  2
Thicken
 70
    13
 71
     2
 72
     2
 73
     0
 90
        0
 40
-0.6
 41
-30.0
 62
     5
 63
     7
421
 16777215
 74
     1
 91
        4
 64
     7
 65
   257
 75
     1
175
     1
 42
1.0
 92
       12
 66
     7
 43
1.0
 76
     1
 77
     6
 78
     2
 67
     7
 79
     5
170
     0
171
     0
290
     0
174
     0
 93
        1
 44
0.0
173
     0
291
     1
 45
0.0
1001
ACAD
1000
AcDbSavedByObjectVersion
1070
     0
  0
DICTIONARYVAR
  5
FD8B
102
{ACAD_REACTORS
330
34
102
}
330
34
100
DictionaryVariables
280
     0
  1
STANDARD
  0
DICTIONARYVAR
  5
A10C
102
{ACAD_REACTORS
330
34
102
}
330
34
100
DictionaryVariables
280
     0
  1
1
  0
DICTIONARYVAR
  5
AE2A9
102
{ACAD_REACTORS
330
34
102
}
330
34
100
DictionaryVariables
280
     0
  1
-440.000373;-317.178141
  0
DICTIONARYVAR
  5
35
102
{ACAD_REACTORS
330
34
102
}
330
34
100
DictionaryVariables
280
     0
  1
1
  0
DICTIONARYVAR
  5
194C
102
{ACAD_REACTORS
330
34
102
}
330
34
100
DictionaryVariables
280
     0
  1
96
  0
DICTIONARY
  5
7E8
102
{ACAD_REACTORS
330
47
102
}
330
47
100
AcDbDictionary
281
     1
  0
DICTIONARY
  5
4C
102
{ACAD_REACTORS
330
47
102
}
330
47
100
AcDbDictionary
281
     1
  0
XRECORD
  5
DE78
102
{ACAD_REACTORS
330
47
102
}
330
47
100
AcDbXrecord
280
     1
 90
-1023410169
  0
XRECORD
  5
547D8
102
{ACAD_REACTORS
330
547D7
102
}
330
547D7
100
AcDbXrecord
280
     1
330
0
330
0
330
0
330
0
330
0
330
0
330
0
330
0
330
0
330
0
330
0
330
0
330
0
330
0
330
0
330
0
330
0
330
0
330
0
330
0
330
0
330
0
330
0
330
0
330
0
330
0
330
0
330
0
330
0
330
0
330
0
330
0
330
0
330
0
330
0
330
0
330
0
330
0
330
0
330
0
330
0
330
0
330
0
330
0
330
0
330
0
330
0
330
0
330
0
330
0
330
0
330
0
330
0
330
0
330
0
330
0
330
0
330
0
330
0
330
0
330
0
330
0
330
0
330
0
330
0
330
0
330
0
330
0
330
0
330
0
330
0
330
0
330
0
330
0
330
0
330
0
330
0
330
0
330
0
330
0
330
0
330
0
330
0
330
0
330
0
330
0
330
0
330
0
330
0
330
0
330
0
330
0
330
0
330
0
330
0
330
0
330
0
330
0
330
0
330
0
330
0
330
0
330
0
330
0
330
0
330
0
330
0
330
0
330
0
330
0
330
0
330
0
330
0
330
0
330
0
330
0
330
0
330
0
330
0
330
0
330
0
330
0
330
0
330
0
330
0
330
0
330
0
330
0
330
0
330
0
330
0
330
0
330
0
330
0
330
0
330
0
330
0
330
0
330
0
330
0
330
0
330
0
330
0
330
0
330
0
330
0
330
0
330
0
330
0
330
0
330
0
330
0
330
0
330
0
330
0
330
0
330
0
330
0
330
0
330
0
330
0
330
0
330
0
330
0
330
0
330
0
330
0
330
0
330
0
330
0
330
0
330
0
330
0
330
0
330
0
330
0
330
0
330
0
330
0
330
0
330
0
330
0
330
0
330
0
330
0
330
0
330
0
330
0
330
0
330
0
330
0
330
0
330
0
330
0
330
0
330
0
330
0
330
0
330
0
330
0
330
0
330
0
330
0
330
0
330
0
330
0
330
0
330
0
330
0
330
0
330
0
330
0
330
0
330
0
330
0
330
0
330
0
330
0
330
0
330
0
330
0
330
0
330
0
330
0
330
0
330
0
330
0
330
0
330
0
330
0
330
0
330
0
330
0
330
0
330
0
330
0
330
0
330
0
330
0
330
0
330
0
330
0
330
0
330
0
330
0
330
0
330
0
330
0
330
0
330
0
330
0
330
0
330
0
330
0
330
0
330
0
330
0
330
0
330
0
330
0
330
0
330
0
330
0
330
0
330
0
330
0
330
0
330
0
330
0
330
0
330
0
330
0
330
0
330
0
330
0
330
0
330
0
330
0
330
0
330
0
330
0
330
0
330
0
330
0
330
0
330
0
330
0
330
0
330
0
330
0
330
0
330
0
330
0
330
0
330
0
330
0
330
0
330
0
330
0
330
0
330
0
330
0
330
0
330
0
330
0
330
0
330
0
330
0
330
0
330
0
330
0
330
0
330
0
330
0
330
0
330
0
330
0
330
0
330
0
330
0
330
0
330
0
330
0
330
0
330
0
330
0
330
0
330
0
330
0
330
0
330
0
330
0
330
0
330
0
330
0
330
0
330
0
330
0
330
0
330
0
330
0
330
0
330
0
330
0
330
0
330
0
330
0
330
0
330
0
330
0
330
0
330
0
330
0
330
0
330
0
330
0
330
0
330
0
330
0
330
0
330
0
330
0
330
0
330
0
330
0
330
0
330
0
330
0
330
0
330
0
330
0
330
0
330
0
330
0
330
0
330
0
330
0
330
0
330
0
330
0
330
0
330
0
330
0
330
0
330
0
330
0
330
0
330
0
330
0
330
0
330
0
330
0
330
0
330
0
330
0
330
0
330
0
330
0
330
0
330
0
330
0
330
0
330
0
330
0
330
0
330
0
330
0
330
0
330
0
330
0
330
0
330
0
330
0
330
0
330
0
330
0
330
0
330
0
330
0
330
0
330
0
330
0
330
0
330
0
330
0
330
0
330
0
330
0
330
0
330
0
330
0
330
0
330
0
330
0
330
0
330
0
330
0
330
0
330
0
330
0
330
0
330
0
330
0
330
0
330
0
330
0
330
0
330
0
330
0
330
0
330
0
330
0
330
0
330
0
330
0
330
0
330
0
330
0
330
0
330
0
330
0
330
0
330
0
330
0
330
0
330
0
330
0
330
0
330
0
330
0
330
0
330
0
330
0
330
0
330
0
330
0
330
0
330
0
330
0
330
0
330
0
330
0
330
0
330
0
330
0
330
0
330
0
330
0
330
0
330
0
330
0
330
0
330
0
330
0
330
0
330
0
330
0
330
0
330
0
330
0
330
0
330
0
330
0
330
0
330
0
330
0
330
0
330
0
330
0
330
0
330
0
330
0
330
0
330
0
330
0
330
0
330
0
330
0
330
0
330
0
330
0
330
0
330
0
330
0
330
0
330
0
330
0
330
0
330
0
330
0
330
0
330
0
330
0
330
0
330
0
330
0
330
0
330
0
330
0
330
0
330
0
330
0
330
0
330
0
330
0
330
0
330
0
330
0
330
0
330
0
330
0
330
0
330
0
330
0
330
0
330
0
330
0
330
0
330
0
330
0
330
0
330
0
330
0
330
0
330
0
330
0
330
0
330
0
330
0
330
0
330
0
330
0
330
0
330
0
330
0
330
0
330
0
330
0
330
0
330
0
330
0
330
0
330
0
330
0
330
0
330
0
330
0
330
0
330
0
330
0
330
0
330
0
330
0
330
0
330
0
330
0
330
0
330
0
330
0
330
0
330
0
330
0
330
0
330
0
330
0
330
0
330
0
330
0
330
0
330
0
330
0
330
0
330
0
330
0
330
0
330
0
330
0
330
0
330
0
330
0
330
0
330
0
330
0
330
0
330
0
330
0
330
0
330
0
330
0
330
0
330
0
330
0
330
0
330
0
330
0
330
0
330
0
330
0
330
0
330
0
330
0
330
0
330
0
330
0
330
0
330
0
330
0
330
0
330
0
330
0
330
0
330
0
330
0
330
0
330
0
330
0
330
0
330
0
330
0
330
0
330
0
330
0
330
0
330
0
330
0
330
0
330
0
330
0
330
0
330
0
330
0
330
0
330
0
330
0
330
0
330
0
330
0
330
0
330
0
330
0
330
0
330
0
330
0
330
0
330
0
330
0
330
0
330
0
330
0
330
0
330
0
330
0
330
0
330
0
330
0
330
0
330
0
330
0
330
0
330
0
330
0
330
0
330
0
330
0
330
0
330
0
330
0
330
0
330
0
330
0
330
0
330
0
330
0
330
0
330
0
330
0
330
0
330
0
330
0
330
0
330
0
330
0
330
0
330
0
330
0
330
0
330
0
330
0
330
0
330
0
330
0
330
0
330
0
330
0
330
0
330
0
330
0
330
0
330
0
330
0
330
0
330
0
330
0
330
0
330
0
330
0
330
0
330
0
330
0
330
0
330
0
330
0
330
0
330
0
330
0
330
0
330
0
330
0
330
0
330
0
330
0
330
0
330
0
330
0
330
0
330
0
330
0
330
0
330
0
330
0
330
0
330
0
330
0
330
0
330
0
330
0
330
0
330
0
330
0
330
0
330
0
330
0
330
0
330
0
330
0
330
0
330
0
330
0
330
0
330
0
330
0
330
0
330
0
330
0
330
0
330
0
330
0
330
0
330
0
330
0
330
0
330
0
330
0
330
0
330
0
330
0
330
0
330
0
330
0
330
0
330
0
330
0
330
0
330
0
330
0
330
0
330
0
330
0
330
0
330
0
330
0
330
0
330
0
330
0
330
0
330
0
330
0
330
0
330
0
330
0
330
0
330
0
330
0
330
0
330
0
330
0
330
0
330
0
330
0
330
0
330
0
330
0
330
0
330
0
330
0
330
0
330
0
330
0
330
0
330
0
330
0
330
0
330
0
330
0
330
0
330
0
330
0
330
0
330
0
330
0
330
0
330
0
330
0
330
0
330
0
330
0
330
0
330
0
330
0
330
0
330
0
330
0
330
0
330
0
330
0
330
0
330
0
330
0
330
0
330
0
330
0
330
0
330
0
330
0
330
0
330
0
330
0
330
0
330
0
330
0
330
0
330
0
330
0
330
0
330
0
330
0
330
0
330
0
330
0
330
0
330
0
330
0
330
0
330
0
330
0
330
0
330
0
330
0
330
0
330
0
330
0
330
0
330
0
330
0
330
0
330
0
330
0
330
0
330
0
330
0
330
0
330
0
330
0
330
0
330
0
330
0
330
0
330
0
330
0
330
0
330
0
330
0
330
0
330
0
330
0
330
0
330
0
330
0
330
0
330
0
330
0
330
0
330
0
330
0
330
0
330
0
330
0
330
0
330
0
330
0
330
0
330
0
330
0
330
0
330
0
330
0
330
0
330
0
330
0
330
0
330
0
330
0
330
0
330
0
330
0
330
0
330
0
330
0
330
0
330
0
330
0
330
0
330
0
330
0
330
0
330
0
330
0
330
0
330
0
330
0
330
0
330
0
330
0
330
0
330
0
330
0
330
0
330
0
330
0
330
0
330
0
330
0
330
0
330
0
330
0
330
0
330
0
330
0
330
0
330
0
330
0
330
0
330
0
330
0
330
0
330
0
330
0
330
0
330
0
330
0
330
0
330
0
330
0
330
0
330
0
330
0
330
0
330
0
330
0
330
0
330
0
330
0
330
0
330
0
330
0
330
0
330
0
330
0
330
0
330
0
330
0
330
0
330
0
330
0
330
0
330
0
330
0
330
0
330
0
330
0
330
0
330
0
330
0
330
0
330
0
330
0
330
0
330
0
330
0
330
0
330
0
330
0
330
0
330
0
330
0
330
0
330
0
330
0
330
0
330
0
330
0
330
0
330
0
330
0
330
0
330
0
330
0
330
0
330
0
330
0
330
0
330
0
330
0
330
0
330
0
330
0
330
0
330
0
330
0
330
0
330
0
330
0
330
0
330
0
330
0
330
0
330
0
330
0
330
0
330
0
330
0
330
0
330
0
330
0
330
0
330
0
330
0
330
0
330
0
330
0
330
0
330
0
330
0
330
0
330
0
330
0
330
0
330
0
330
0
330
0
330
0
330
0
330
0
330
0
330
0
330
0
330
0
330
0
330
0
330
0
330
0
330
0
330
0
330
0
330
0
330
0
330
0
330
0
330
0
330
0
330
0
330
0
330
0
330
0
330
0
330
0
330
0
330
0
330
0
330
0
330
0
330
0
330
0
330
0
330
0
330
0
330
0
330
0
330
0
330
0
330
0
330
0
330
0
330
0
330
0
330
0
330
0
330
0
330
0
330
0
330
0
330
0
330
0
330
0
330
0
330
0
330
0
330
0
330
0
330
0
330
0
330
0
330
0
330
0
330
0
330
0
330
0
330
0
330
0
330
0
330
0
330
0
330
0
330
0
330
0
330
0
330
0
330
0
330
0
330
0
330
0
330
0
330
0
330
0
330
0
330
0
330
0
330
0
330
0
330
0
330
0
330
0
330
0
330
0
330
0
330
0
330
0
330
0
330
0
330
0
330
0
330
0
330
0
330
0
330
0
330
0
330
0
330
0
330
0
330
0
330
0
330
0
330
0
330
0
330
0
330
0
330
0
330
0
330
0
330
0
330
0
330
0
330
0
330
0
330
0
330
0
330
0
330
0
330
0
330
0
330
0
330
0
330
0
330
0
330
0
330
0
330
0
330
0
330
0
330
0
330
0
330
0
330
0
330
0
330
0
330
0
330
0
330
0
330
0
330
0
330
0
330
0
330
0
330
0
330
0
330
0
330
0
330
0
330
0
330
0
330
0
330
0
330
0
330
0
330
0
330
0
330
0
330
0
330
0
330
0
330
0
330
0
330
0
330
0
330
0
330
0
330
0
330
0
330
0
330
0
330
0
330
0
330
0
330
0
330
0
330
0
330
0
330
0
330
0
330
0
330
0
330
0
330
0
330
0
330
0
330
0
330
0
330
0
330
0
330
0
330
0
330
0
330
0
330
0
330
0
330
0
330
0
330
0
330
0
330
0
330
0
330
0
330
0
330
0
330
0
330
0
330
0
330
0
330
0
330
0
330
0
330
0
330
0
330
0
330
0
330
0
330
0
330
0
330
0
330
0
330
0
330
0
330
0
330
0
330
0
330
0
330
0
330
0
330
0
330
0
330
0
330
0
330
0
330
0
330
0
330
0
330
0
330
0
330
0
330
0
330
0
330
0
330
0
330
0
330
0
330
0
330
0
330
0
330
0
330
0
330
0
330
0
330
0
330
0
330
0
330
0
330
0
330
0
330
0
330
0
330
0
330
0
330
0
330
0
330
0
330
0
330
0
330
0
330
0
330
0
330
0
330
0
330
0
330
0
330
0
330
0
330
0
330
0
330
0
330
0
330
0
330
0
330
0
330
0
330
0
330
0
330
0
330
0
330
0
330
0
330
0
330
0
330
0
330
0
330
0
330
0
330
0
330
0
330
0
330
0
330
0
330
0
330
0
330
0
330
0
330
0
330
0
330
0
330
0
330
0
330
0
330
0
330
0
330
0
330
0
330
0
330
0
330
0
330
0
330
0
330
0
330
0
330
0
330
0
330
0
330
0
330
0
330
0
330
0
330
0
330
0
330
0
330
0
330
0
330
0
330
0
330
0
330
0
330
0
330
0
330
0
330
0
330
0
330
0
330
0
330
0
330
0
330
0
330
0
330
0
330
0
330
0
330
0
330
0
330
0
330
0
330
0
330
0
330
0
330
0
330
0
330
0
330
0
330
0
330
0
330
0
330
0
330
0
330
0
330
0
330
0
330
0
330
0
330
0
330
0
330
0
330
0
330
0
330
0
330
0
330
0
330
0
330
0
330
0
330
0
330
0
330
0
330
0
330
0
330
0
330
0
330
0
330
0
330
0
330
0
330
0
330
0
330
0
330
0
330
0
330
0
330
0
330
0
330
0
330
0
330
0
330
0
330
0
330
0
330
0
330
0
330
0
330
0
330
0
330
0
330
0
330
0
330
0
330
0
330
0
330
0
330
0
330
0
330
0
330
0
330
0
330
0
330
0
330
0
330
0
330
0
330
0
330
0
330
0
330
0
330
0
330
0
330
0
330
0
330
0
330
0
330
0
330
0
330
0
330
0
330
0
330
0
330
0
330
0
330
0
330
0
330
0
330
0
330
0
330
0
330
0
330
0
330
0
330
0
330
0
330
0
330
0
330
0
330
0
330
0
330
0
330
0
330
0
330
0
330
0
330
0
330
0
330
0
330
0
330
0
330
0
330
0
330
0
330
0
330
0
330
0
330
0
330
0
330
0
330
0
330
0
330
0
330
0
330
0
330
0
330
0
330
0
330
0
330
0
330
0
330
0
330
0
330
0
330
0
330
0
330
0
330
0
330
0
330
0
330
0
330
0
330
0
330
0
330
0
330
0
330
0
330
0
330
0
330
0
330
0
330
0
330
0
330
0
330
0
330
0
330
0
330
0
330
0
330
0
330
0
330
0
330
0
330
0
330
0
330
0
330
0
330
0
330
0
330
0
330
0
330
0
330
0
330
0
330
0
330
0
330
0
330
0
330
0
330
0
330
0
330
0
330
0
330
0
330
0
330
0
330
0
330
0
330
0
330
0
330
0
330
0
330
0
330
0
330
0
330
0
330
0
330
0
330
0
330
0
330
0
330
0
330
0
330
0
330
0
330
0
330
0
330
0
330
0
330
0
330
0
330
0
330
0
330
0
330
0
330
0
330
0
330
0
330
0
330
0
330
0
330
0
330
0
330
0
330
0
330
0
330
0
330
0
330
0
330
0
330
0
330
0
330
0
330
0
330
0
330
0
330
0
330
0
330
0
330
0
330
0
330
0
330
0
330
0
330
0
330
0
330
0
330
0
330
0
330
0
330
0
330
0
330
0
330
0
330
0
330
0
330
0
330
0
330
0
330
0
330
0
330
0
330
0
330
0
330
0
330
0
330
0
330
0
330
0
330
0
330
0
330
0
  0
XRECORD
  5
3FB7
102
{ACAD_REACTORS
330
3F96
102
}
330
3F96
100
AcDbXrecord
280
     1
 91
        3
330
A47
 90
        8
 62
     7
370
    40
331
16
  1
Color_7
330
A46
 90
        0
 62
    14
370
    -3
331
16
  1
Color_14
330
0
 90
        8
 62
     7
370
    20
331
16
  1
Color_7
330
6D1
 90
        0
 62
     7
370
    -3
331
16
  1
Color_7
330
0
 90
        8
 62
     7
370
    50
331
16
  1
Color_7
330
A48
 90
        8
 62
     2
370
    35
331
16
  1
Color_2
330
0
 90
        8
 62
     7
370
    -3
331
16
  1
Color_7
330
10
 90
        8
 62
     7
370
    -3
331
16
  1
Color_7
  0
XRECORD
  5
B78E5
102
{ACAD_REACTORS
330
15B82
102
}
330
15B82
100
AcDbXrecord
280
     1
 90
-1023410046
  0
XRECORD
  5
1684E
102
{ACAD_REACTORS
330
15B82
102
}
330
15B82
100
AcDbXrecord
280
     1
 90
-1023410016
  0
XRECORD
  5
15B84
102
{ACAD_REACTORS
330
15B82
102
}
330
15B82
100
AcDbXrecord
280
     1
 90
-1023410146
  0
XRECORD
  5
16DE6
102
{ACAD_REACTORS
330
15B82
102
}
330
15B82
100
AcDbXrecord
280
     1
 90
-1023410006
  0
XRECORD
  5
16A9C
102
{ACAD_REACTORS
330
15B82
102
}
330
15B82
100
AcDbXrecord
280
     1
 90
-1023410051
  0
XRECORD
  5
16DF0
102
{ACAD_REACTORS
330
15B82
102
}
330
15B82
100
AcDbXrecord
280
     1
 90
-1023410126
  0
XRECORD
  5
16DDE
102
{ACAD_REACTORS
330
15B82
102
}
330
15B82
100
AcDbXrecord
280
     1
 90
-1023409966
  0
XRECORD
  5
B78E4
102
{ACAD_REACTORS
330
15B82
102
}
330
15B82
100
AcDbXrecord
280
     1
 90
-1023410076
  0
DICTIONARY
  5
E4484
330
ADEC4
100
AcDbDictionary
280
     1
281
     1
  3
ACAD_XREC_ROUNDTRIP
360
E4485
  0
DICTIONARY
  5
E4482
330
ADEC3
100
AcDbDictionary
280
     1
281
     1
  3
ACAD_XREC_ROUNDTRIP
360
E4483
  0
DICTIONARY
  5
E4486
330
ADEC5
100
AcDbDictionary
280
     1
281
     1
  3
ACAD_XREC_ROUNDTRIP
360
E4487
  0
DICTIONARY
  5
E4480
330
FD1E
100
AcDbDictionary
280
     1
281
     1
  3
ACAD_XREC_ROUNDTRIP
360
E4481
  0
XRECORD
  5
E4485
102
{ACAD_REACTORS
330
E4484
102
}
330
E4484
100
AcDbXrecord
280
     1
102
MATERIAL
148
0.0
149
0.0
149
0.0
 93
        0
 94
       63
282
     0
 72
     1
 77
     1
171
     1
175
     1
179
     1
273
     0
  0
XRECORD
  5
E4483
102
{ACAD_REACTORS
330
E4482
102
}
330
E4482
100
AcDbXrecord
280
     1
102
MATERIAL
148
0.0
149
0.0
149
0.0
 93
        0
 94
       63
282
     0
 72
     1
 77
     1
171
     1
175
     1
179
     1
273
     0
  0
XRECORD
  5
E4487
102
{ACAD_REACTORS
330
E4486
102
}
330
E4486
100
AcDbXrecord
280
     1
102
MATERIAL
148
0.0
149
0.0
149
0.0
 93
        0
 94
       63
282
     0
 72
     1
 77
     1
171
     1
175
     1
179
     1
273
     0
  0
XRECORD
  5
E4481
102
{ACAD_REACTORS
330
E4480
102
}
330
E4480
100
AcDbXrecord
280
     1
102
ACAD_ROUNDTRIP_PRE2007_TABLESTYLE
 90
        4
 91
        0
  1

 92
        4
 93
        0
  2

 94
        4
 95
        0
  3

  0
ENDSEC
  0
EOF
