  0
SECTION
  2
HEADER
  9
$ACADVER
  1
AC1018
  9
$ACADMAINTVER
 70
   104
  9
$DWGCODEPAGE
  3
ANSI_932
  9
$LASTSAVEDBY
  1
shibutani
  9
$CUSTOMPROPERTYTAG
  1
AmdtFileType
  9
$CUSTOMPROPERTY
  1
84
  9
$INSBASE
 10
0.0
 20
0.0
 30
0.0
  9
$EXTMIN
 10
3056.249396329135
 20
-385.0037883664636
 30
0.0
  9
$EXTMAX
 10
3476.249396329135
 20
-88.00378836646359
 30
0.0
  9
$LIMMIN
 10
1639.152524298923
 20
1723.453332028125
  9
$LIMMAX
 10
2479.152524298923
 20
2317.453332028124
  9
$ORTHOMODE
 70
     0
  9
$REGENMODE
 70
     1
  9
$FILLMODE
 70
     1
  9
$QTEXTMODE
 70
     0
  9
$MIRRTEXT
 70
     0
  9
$LTSCALE
 40
1.0
  9
$ATTMODE
 70
     1
  9
$TEXTSIZE
 40
3.2
  9
$TRACEWID
 40
1.0
  9
$TEXTSTYLE
  7
STANDARD
  9
$CLAYER
  8
AM_CL
  9
$CELTYPE
  6
Continuous
  9
$CECOLOR
 62
   256
  9
$CELTSCALE
 40
0.3
  9
$DISPSILH
 70
     0
  9
$DIMSCALE
 40
1.0
  9
$DIMASZ
 40
2.5
  9
$DIMEXO
 40
1.0
  9
$DIMDLI
 40
10.0
  9
$DIMRND
 40
0.0
  9
$DIMDLE
 40
0.0
  9
$DIMEXE
 40
1.0
  9
$DIMTP
 40
0.2
  9
$DIMTM
 40
0.0
  9
$DIMTXT
 40
3.5
  9
$DIMCEN
 40
0.0
  9
$DIMTSZ
 40
0.0
  9
$DIMTOL
 70
     0
  9
$DIMLIM
 70
     0
  9
$DIMTIH
 70
     0
  9
$DIMTOH
 70
     0
  9
$DIMSE1
 70
     0
  9
$DIMSE2
 70
     0
  9
$DIMTAD
 70
     1
  9
$DIMZIN
 70
     8
  9
$DIMBLK
  1

  9
$DIMASO
 70
     1
  9
$DIMSHO
 70
     1
  9
$DIMPOST
  1

  9
$DIMAPOST
  1
"
  9
$DIMALT
 70
     0
  9
$DIMALTD
 70
     2
  9
$DIMALTF
 40
0.0393701
  9
$DIMLFAC
 40
1.0
  9
$DIMTOFL
 70
     1
  9
$DIMTVP
 40
0.0
  9
$DIMTIX
 70
     0
  9
$DIMSOXD
 70
     0
  9
$DIMSAH
 70
     0
  9
$DIMBLK1
  1

  9
$DIMBLK2
  1

  9
$DIMSTYLE
  2
SYS
  9
$DIMCLRD
 70
   256
  9
$DIMCLRE
 70
   256
  9
$DIMCLRT
 70
     7
  9
$DIMTFAC
 40
0.71
  9
$DIMGAP
 40
1.5
  9
$DIMJUST
 70
     0
  9
$DIMSD1
 70
     0
  9
$DIMSD2
 70
     0
  9
$DIMTOLJ
 70
     0
  9
$DIMTZIN
 70
     8
  9
$DIMALTZ
 70
     0
  9
$DIMALTTZ
 70
     0
  9
$DIMUPT
 70
     0
  9
$DIMDEC
 70
     1
  9
$DIMTDEC
 70
     1
  9
$DIMALTU
 70
     2
  9
$DIMALTTD
 70
     2
  9
$DIMTXSTY
  7
STANDARD
  9
$DIMAUNIT
 70
     0
  9
$DIMADEC
 70
     1
  9
$DIMALTRND
 40
0.0
  9
$DIMAZIN
 70
     2
  9
$DIMDSEP
 70
    46
  9
$DIMATFIT
 70
     3
  9
$DIMFRAC
 70
     0
  9
$DIMLDRBLK
  1

  9
$DIMLUNIT
 70
     2
  9
$DIMLWD
 70
    -1
  9
$DIMLWE
 70
    -1
  9
$DIMTMOVE
 70
     0
  9
$LUNITS
 70
     2
  9
$LUPREC
 70
     2
  9
$SKETCHINC
 40
1.0
  9
$FILLETRAD
 40
6.0
  9
$AUNITS
 70
     0
  9
$AUPREC
 70
     0
  9
$MENU
  1
.
  9
$ELEVATION
 40
0.0
  9
$PELEVATION
 40
0.0
  9
$THICKNESS
 40
0.0
  9
$LIMCHECK
 70
     0
  9
$CHAMFERA
 40
1.5
  9
$CHAMFERB
 40
1.5
  9
$CHAMFERC
 40
20.0
  9
$CHAMFERD
 40
0.0
  9
$SKPOLY
 70
     0
  9
$TDCREATE
 40
2453049.654239965
  9
$TDUCREATE
 40
2453049.279239965
  9
$TDUPDATE
 40
2455937.489631077
  9
$TDUUPDATE
 40
2455937.114631076
  9
$TDINDWG
 40
97.4397442824
  9
$TDUSRTIMER
 40
97.4397397685
  9
$USRTIMER
 70
     1
  9
$ANGBASE
 50
0.0
  9
$ANGDIR
 70
     0
  9
$PDMODE
 70
     0
  9
$PDSIZE
 40
-3.0
  9
$PLINEWID
 40
0.0
  9
$SPLFRAME
 70
     0
  9
$SPLINETYPE
 70
     6
  9
$SPLINESEGS
 70
     8
  9
$HANDSEED
  5
E4436
  9
$SURFTAB1
 70
     6
  9
$SURFTAB2
 70
     6
  9
$SURFTYPE
 70
     6
  9
$SURFU
 70
     6
  9
$SURFV
 70
     6
  9
$UCSBASE
  2

  9
$UCSNAME
  2

  9
$UCSORG
 10
0.0
 20
0.0
 30
0.0
  9
$UCSXDIR
 10
1.0
 20
0.0
 30
0.0
  9
$UCSYDIR
 10
0.0
 20
1.0
 30
0.0
  9
$UCSORTHOREF
  2

  9
$UCSORTHOVIEW
 70
     0
  9
$UCSORGTOP
 10
0.0
 20
0.0
 30
0.0
  9
$UCSORGBOTTOM
 10
0.0
 20
0.0
 30
0.0
  9
$UCSORGLEFT
 10
0.0
 20
0.0
 30
0.0
  9
$UCSORGRIGHT
 10
0.0
 20
0.0
 30
0.0
  9
$UCSORGFRONT
 10
0.0
 20
0.0
 30
0.0
  9
$UCSORGBACK
 10
0.0
 20
0.0
 30
0.0
  9
$PUCSBASE
  2

  9
$PUCSNAME
  2

  9
$PUCSORG
 10
0.0
 20
0.0
 30
0.0
  9
$PUCSXDIR
 10
1.0
 20
0.0
 30
0.0
  9
$PUCSYDIR
 10
0.0
 20
1.0
 30
0.0
  9
$PUCSORTHOREF
  2

  9
$PUCSORTHOVIEW
 70
     0
  9
$PUCSORGTOP
 10
0.0
 20
0.0
 30
0.0
  9
$PUCSORGBOTTOM
 10
0.0
 20
0.0
 30
0.0
  9
$PUCSORGLEFT
 10
0.0
 20
0.0
 30
0.0
  9
$PUCSORGRIGHT
 10
0.0
 20
0.0
 30
0.0
  9
$PUCSORGFRONT
 10
0.0
 20
0.0
 30
0.0
  9
$PUCSORGBACK
 10
0.0
 20
0.0
 30
0.0
  9
$USERI1
 70
     0
  9
$USERI2
 70
     0
  9
$USERI3
 70
     0
  9
$USERI4
 70
     0
  9
$USERI5
 70
     0
  9
$USERR1
 40
0.0
  9
$USERR2
 40
0.0
  9
$USERR3
 40
0.0
  9
$USERR4
 40
0.0
  9
$USERR5
 40
0.0
  9
$WORLDVIEW
 70
     1
  9
$SHADEDGE
 70
     3
  9
$SHADEDIF
 70
    70
  9
$TILEMODE
 70
     1
  9
$MAXACTVP
 70
    64
  9
$PINSBASE
 10
0.0
 20
0.0
 30
0.0
  9
$PLIMCHECK
 70
     0
  9
$PEXTMIN
 10
1.000000000000000E+20
 20
1.000000000000000E+20
 30
1.000000000000000E+20
  9
$PEXTMAX
 10
-1.000000000000000E+20
 20
-1.000000000000000E+20
 30
-1.000000000000000E+20
  9
$PLIMMIN
 10
-3.17498779296875
 20
-3.174999952316284
  9
$PLIMMAX
 10
293.4970092773438
 20
206.692492723465
  9
$UNITMODE
 70
     0
  9
$VISRETAIN
 70
     1
  9
$PLINEGEN
 70
     0
  9
$PSLTSCALE
 70
     1
  9
$TREEDEPTH
 70
  3020
  9
$CMLSTYLE
  2
Standard
  9
$CMLJUST
 70
     0
  9
$CMLSCALE
 40
20.0
  9
$PROXYGRAPHICS
 70
     1
  9
$MEASUREMENT
 70
     1
  9
$CELWEIGHT
370
    -1
  9
$ENDCAPS
280
     0
  9
$JOINSTYLE
280
     0
  9
$LWDISPLAY
290
     1
  9
$INSUNITS
 70
     4
  9
$HYPERLINKBASE
  1

  9
$STYLESHEET
  1
monochrome.ctb
  9
$XEDIT
290
     1
  9
$CEPSNTYPE
380
     0
  9
$PSTYLEMODE
290
     1
  9
$FINGERPRINTGUID
  2
{83FB3AA1-FF18-4BFE-AFE0-611B71DE056D}
  9
$VERSIONGUID
  2
{19FC9232-27D0-48B2-9D05-5A5806B82436}
  9
$EXTNAMES
290
     1
  9
$PSVPSCALE
 40
0.0
  9
$OLESTARTUP
290
     0
  9
$SORTENTS
280
   127
  9
$INDEXCTL
280
     0
  9
$HIDETEXT
280
     0
  9
$XCLIPFRAME
290
     0
  9
$HALOGAP
280
     0
  9
$OBSCOLOR
 70
   257
  9
$OBSLTYPE
280
     0
  9
$INTERSECTIONDISPLAY
280
     0
  9
$INTERSECTIONCOLOR
 70
   257
  9
$DIMASSOC
280
     1
  9
$PROJECTNAME
  1

  0
ENDSEC
  0
SECTION
  2
CLASSES
  0
CLASS
  1
ACDBDICTIONARYWDFLT
  2
AcDbDictionaryWithDefault
  3
ObjectDBX Classes
 90
        0
 91
        1
280
     0
281
     0
  0
CLASS
  1
ACDBPLACEHOLDER
  2
AcDbPlaceHolder
  3
ObjectDBX Classes
 90
        0
 91
        1
280
     0
281
     0
  0
CLASS
  1
LAYOUT
  2
AcDbLayout
  3
ObjectDBX Classes
 90
        0
 91
        3
280
     0
281
     0
  0
CLASS
  1
AMGSETTINGSOBJ
  2
AmgSettingsObj
  3
"AcadM|Product Description: AutoCAD Mechanical|Company: Autodesk"
 90
        0
 91
        2
280
     0
281
     0
  0
CLASS
  1
ACME_DOCUMENT
  2
AcMeDbDoc
  3
AcMeServices
 90
        0
 91
        2
280
     0
281
     0
  0
CLASS
  1
ACMESCOPE
  2
AcMeScope
  3
AcMeServices
 90
        0
 91
        1
280
     0
281
     0
  0
CLASS
  1
ACMECOMMANDHISTORY
  2
AcMeCommandHistory
  3
AcMeServices
 90
        0
 91
        1
280
     0
281
     0
  0
CLASS
  1
DICTIONARYVAR
  2
AcDbDictionaryVar
  3
ObjectDBX Classes
 90
        0
 91
        5
280
     0
281
     0
  0
CLASS
  1
ACIMSYSVARMAN
  2
AcImSysVarManager
  3
AcMeServices
 90
        0
 91
        5
280
     0
281
     0
  0
CLASS
  1
ACIMREALSYSVAR
  2
AcImRealSysVar
  3
AcMeServices
 90
        0
 91
        1
280
     0
281
     0
  0
CLASS
  1
ACIMINTSYSVAR
  2
AcImIntSysVar
  3
AcMeServices
 90
        0
 91
       27
280
     0
281
     0
  0
CLASS
  1
ACMEDRAWINGMAN
  2
AcMeDrawingMan
  3
AcMeServices
 90
        0
 91
        1
280
     0
281
     0
  0
CLASS
  1
ACMEVIEW
  2
AcMeView
  3
AcMeServices
 90
        0
 91
        1
280
     0
281
     0
  0
CLASS
  1
ACDBENTITYCACHE
  2
AcMeEntityCache
  3
AcMeServices
 90
        0
 91
        1
280
     0
281
     0
  0
CLASS
  1
GSMANAGER
  2
AcMeGSManager
  3
AcMeServices
 90
        0
 91
        1
280
     0
281
     0
  0
CLASS
  1
AMDTINTERNALREACTOR
  2
AmdtInternalReactor
  3
AcMeServices
 90
        0
 91
        2
280
     0
281
     0
  0
CLASS
  1
ACMESTATEMGR
  2
AcMeStateMgr
  3
AcMeServices
 90
        0
 91
        1
280
     0
281
     0
  0
CLASS
  1
ACGREFMASTER
  2
AcGrefMaster
  3
AcAttribServices
 90
        0
 91
        1
280
     0
281
     0
  0
CLASS
  1
ACME_DATABASE
  2
AcMeDbDatabase
  3
AcMeServices
 90
        0
 91
        1
280
     0
281
     0
  0
CLASS
  1
ACRFINSADJUSTERMGR
  2
AcRfInsAdjusterMgr
  3
AcMeServices
 90
        0
 91
        1
280
     0
281
     0
  0
CLASS
  1
ACGREFACADMASTER
  2
AcGrefacadMaster
  3
AcGrefServices
 90
        0
 91
        1
280
     0
281
     0
  0
CLASS
  1
AMIMASTER
  2
AmiMaster
  3
AmiServices
 90
        0
 91
        1
280
     0
281
     0
  0
CLASS
  1
ACMDATADICTIONARY
  2
AcmDataDictionary
  3
"AcmSymBB|Product Description: AutoCAD Mechanical|Company: Autodesk"
 90
        0
 91
        1
280
     0
281
     0
  0
CLASS
  1
ACMDATAENTRYBLOCK
  2
AcmDataEntryBlock
  3
"AcmSymBB|Product Description: AutoCAD Mechanical|Company: Autodesk"
 90
        0
 91
        0
280
     0
281
     0
  0
CLASS
  1
ACIMSTRSYSVAR
  2
AcImStrSysVar
  3
AcMeServices
 90
        0
 91
        5
280
     0
281
     0
  0
CLASS
  1
ACMSTANDARDISO
  2
AcmStandardISO
  3
"Amdt_StdImp|Product Description: AutoCAD Mechanical|Company: Autodesk"
 90
        0
 91
        1
280
     0
281
     0
  0
CLASS
  1
AMGOBJPROPCFG
  2
AmgObjPropCfg
  3
"AmgLay|Product Description: AutoCAD Mechanical|Company: Autodesk"
 90
        1
 91
        2
280
     0
281
     0
  0
CLASS
  1
AMDTEDGESTANDARDISO
  2
AmdtEdgeStdISO
  3
"Amdt_StdImp|Product Description: AutoCAD Mechanical|Company: Autodesk"
 90
        0
 91
        1
280
     0
281
     0
  0
CLASS
  1
ACMSURFSTANDARDISO
  2
AcmSurfTextStdISO
  3
"Amdt_StdImp|Product Description: AutoCAD Mechanical|Company: Autodesk"
 90
        0
 91
        1
280
     0
281
     0
  0
CLASS
  1
ACMFCFSTANDARDISO
  2
AcmFCFStdISO
  3
"Amdt_StdImp|Product Description: AutoCAD Mechanical|Company: Autodesk"
 90
        0
 91
        1
280
     0
281
     0
  0
CLASS
  1
ACMWELDSTANDARDISO
  2
AcmWeldingStdISO
  3
"Amdt_StdImp|Product Description: AutoCAD Mechanical|Company: Autodesk"
 90
        0
 91
        1
280
     0
281
     0
  0
CLASS
  1
ACMIDSTANDARDISO
  2
AcmIdStdISO
  3
"Amdt_StdImp|Product Description: AutoCAD Mechanical|Company: Autodesk"
 90
        0
 91
        1
280
     0
281
     0
  0
CLASS
  1
ACMDATUMSTANDARDISO
  2
AcmDatumStdISO
  3
"Amdt_StdImp|Product Description: AutoCAD Mechanical|Company: Autodesk"
 90
        0
 91
        1
280
     0
281
     0
  0
CLASS
  1
ACMBOMSTANDARDISO
  2
AcmBOMStdISO
  3
"Amdt_StdImp|Product Description: AutoCAD Mechanical|Company: Autodesk"
 90
        0
 91
        1
280
     0
281
     0
  0
CLASS
  1
ACMDETAILSTANDARDISO
  2
AmdtDetailSymStdISO
  3
"Amdt_StdImp|Product Description: AutoCAD Mechanical|Company: Autodesk"
 90
        0
 91
        1
280
     0
281
     0
  0
CLASS
  1
ACMSECTIONSTANDARDISO
  2
AmdtSectionSymStdISO
  3
"Amdt_StdImp|Product Description: AutoCAD Mechanical|Company: Autodesk"
 90
        0
 91
        1
280
     0
281
     0
  0
CLASS
  1
ACMCENTERLINESTANDARDISO
  2
AmdtCenterLineStdISO
  3
"Amdt_StdImp|Product Description: AutoCAD Mechanical|Company: Autodesk"
 90
        0
 91
        1
280
     0
281
     0
  0
CLASS
  1
ACAMGLAYSTD
  2
AcAmgLayStd
  3
"AmgLay|Product Description: AutoCAD Mechanical|Company: Autodesk"
 90
        0
 91
        1
280
     0
281
     0
  0
CLASS
  1
ACAMGDIMSTD
  2
AcAmgDimStd
  3
"AmgDim|Product Description: AutoCAD Mechanical|Company: Autodesk"
 90
        0
 91
        1
280
     0
281
     0
  0
CLASS
  1
ACAMGTITLESTD
  2
AcAmgTitleStd
  3
"AmgTitle|Product Description: AutoCAD Mechanical|Company: Autodesk"
 90
        0
 91
        1
280
     0
281
     0
  0
CLASS
  1
ACAMGFILTERDAT
  2
AcAmgFilterDat
  3
"AcadM|Product Description: AutoCAD Mechanical|Company: Autodesk"
 90
        0
 91
        0
280
     0
281
     0
  0
CLASS
  1
LAYER_INDEX
  2
AcDbLayerIndex
  3
ObjectDBX Classes
 90
        0
 91
        0
280
     0
281
     0
  0
CLASS
  1
IDBUFFER
  2
AcDbIdBuffer
  3
ObjectDBX Classes
 90
        0
 91
        0
280
     0
281
     0
  0
CLASS
  1
PLOTSETTINGS
  2
AcDbPlotSettings
  3
ObjectDBX Classes
 90
        0
 91
        1
280
     0
281
     0
  0
CLASS
  1
AMDTFORMULAUPDATEDISPATCHER
  2
AmdtFormulaUpdateDispatcher
  3
AcMeServices
 90
        0
 91
        0
280
     0
281
     0
  0
CLASS
  1
ACMSTANDARDANSI
  2
AcmStandardANSI
  3
"Amdt_StdImp|Product Description: AutoCAD Mechanical|Company: Autodesk"
 90
        0
 91
        0
280
     0
281
     0
  0
CLASS
  1
ACMSURFSTANDARDANSI
  2
AcmSurfTextStdANSI
  3
"Amdt_StdImp|Product Description: AutoCAD Mechanical|Company: Autodesk"
 90
        0
 91
        0
280
     0
281
     0
  0
CLASS
  1
ACMFCFSTANDARDANSI
  2
AcmFCFStdANSI
  3
"Amdt_StdImp|Product Description: AutoCAD Mechanical|Company: Autodesk"
 90
        0
 91
        0
280
     0
281
     0
  0
CLASS
  1
ACMWELDSTANDARDANSI
  2
AcmWeldingStdANSI
  3
"Amdt_StdImp|Product Description: AutoCAD Mechanical|Company: Autodesk"
 90
        0
 91
        0
280
     0
281
     0
  0
CLASS
  1
ACMIDSTANDARDANSI
  2
AcmIdStdANSI
  3
"Amdt_StdImp|Product Description: AutoCAD Mechanical|Company: Autodesk"
 90
        0
 91
        0
280
     0
281
     0
  0
CLASS
  1
ACMDATUMSTANDARDANSI
  2
AcmDatumStdANSI
  3
"Amdt_StdImp|Product Description: AutoCAD Mechanical|Company: Autodesk"
 90
        0
 91
        0
280
     0
281
     0
  0
CLASS
  1
ACMBOMSTANDARDANSI
  2
AcmBOMStdANSI
  3
"Amdt_StdImp|Product Description: AutoCAD Mechanical|Company: Autodesk"
 90
        0
 91
        0
280
     0
281
     0
  0
CLASS
  1
ACMDETAILSTANDARDANSI
  2
AmdtDetailSymStdANSI
  3
"Amdt_StdImp|Product Description: AutoCAD Mechanical|Company: Autodesk"
 90
        0
 91
        0
280
     0
281
     0
  0
CLASS
  1
ACMSECTIONSTANDARDANSI
  2
AmdtSectionSymStdANSI
  3
"Amdt_StdImp|Product Description: AutoCAD Mechanical|Company: Autodesk"
 90
        0
 91
        0
280
     0
281
     0
  0
CLASS
  1
ACMCENTERLINESTANDARDANSI
  2
AmdtCenterLineStdANSI
  3
"Amdt_StdImp|Product Description: AutoCAD Mechanical|Company: Autodesk"
 90
        0
 91
        0
280
     0
281
     0
  0
CLASS
  1
ACMBOM
  2
AcmBom
  3
"AcmSymBB|Product Description: AutoCAD Mechanical|Company: Autodesk"
 90
        0
 91
        0
280
     0
281
     0
  0
CLASS
  1
ACMDATAENTRYPART
  2
AcmDataEntryPart
  3
"AcmSymBB|Product Description: AutoCAD Mechanical|Company: Autodesk"
 90
        0
 91
        0
280
     0
281
     0
  0
CLASS
  1
ACMPARTREF
  2
AcmPartRef
  3
"AcmSymBB|Product Description: AutoCAD Mechanical|Company: Autodesk"
 90
     3071
 91
        0
280
     0
281
     1
  0
CLASS
  1
ACDBCIRCARCRES
  2
AcDbCircArcRes
  3
AcGrefServices
 90
        0
 91
        0
280
     0
281
     0
  0
CLASS
  1
ACMBOMROW
  2
AcmBomRow
  3
"AcmSymBB|Product Description: AutoCAD Mechanical|Company: Autodesk"
 90
        0
 91
        0
280
     0
281
     0
  0
CLASS
  1
ACMBALLOON
  2
AcmBalloon
  3
"AcmSymBB|Product Description: AutoCAD Mechanical|Company: Autodesk"
 90
     3071
 91
        0
280
     0
281
     1
  0
CLASS
  1
AMDTNOTE
  2
AmdtNote
  3
"AcmSymBB|Product Description: AutoCAD Mechanical|Company: Autodesk"
 90
     3071
 91
        0
280
     0
281
     1
  0
CLASS
  1
STDPART2D
  2
AmgStdPart
  3
"AmgStdPart|Product Description: AutoCAD Mechanical|Company: Autodesk"
 90
     3071
 91
        0
280
     0
281
     1
  0
CLASS
  1
ACDBSTDPARTRES_LINE
  2
AcDbStdPartRes_Line
  3
"AmgStdPart|Product Description: AutoCAD Mechanical|Company: Autodesk"
 90
        0
 91
        0
280
     0
281
     0
  0
CLASS
  1
ACMDATAENTRY
  2
AcmDataEntry
  3
"AcmSymBB|Product Description: AutoCAD Mechanical|Company: Autodesk"
 90
        0
 91
        0
280
     0
281
     0
  0
CLASS
  1
ACDBOPPOLYLINERES
  2
AcDbOpPolylineRes
  3
AcGrefServices
 90
        0
 91
        0
280
     0
281
     0
  0
CLASS
  1
ACMPARTLIST
  2
AcmPartList
  3
"AcmSymBB|Product Description: AutoCAD Mechanical|Company: Autodesk"
 90
     3071
 91
        0
280
     0
281
     1
  0
CLASS
  1
ACDBLINERES
  2
AcDbLineRes
  3
AcGrefServices
 90
        0
 91
        0
280
     0
281
     0
  0
CLASS
  1
ACRFINSADJ
  2
AcRfInsAdjuster
  3
AcMeServices
 90
        0
 91
        0
280
     0
281
     0
  0
CLASS
  1
AM_DRAWING_MGR
  2
AcDmDwgMgr
  3
AcMechDwgViewMgmt
 90
        0
 91
        1
280
     0
281
     0
  0
CLASS
  1
AM_DWG_DOCUMENT
  2
AcDmDwgDocument
  3
AcMechDwgViewMgmt
 90
        0
 91
        1
280
     0
281
     0
  0
CLASS
  1
AM_DWG_SHEET
  2
AcDmSheet
  3
AcMechDwgViewMgmt
 90
        0
 91
        2
280
     0
281
     0
  0
CLASS
  1
AM_VIEWDIMPARMAP
  2
AcDmViewDimParMap
  3
AcMechDwgViewMgmt
 90
        0
 91
        2
280
     0
281
     0
  0
CLASS
  1
AM_DWGMGR_NAME
  2
AcDmDwgMgrName
  3
AcMechDwgViewMgmt
 90
        0
 91
        1
280
     0
281
     0
  0
CLASS
  1
AMDTMENUSTATEMGR
  2
AmdtMenuStateMgr
  3
McadcomServices
 90
        0
 91
        1
280
     0
281
     0
  0
CLASS
  1
AMDTMCOMMENUSTATE
  2
AmdtMcomMenuState
  3
McadcomServices
 90
        0
 91
        1
280
     0
281
     0
  0
CLASS
  1
ASAPP
  2
AcAsAppObject
  3
AutoSurfServices
 90
        0
 91
        2
280
     0
281
     0
  0
CLASS
  1
IM_STATIC_MAN
  2
AcImStaticVarManager
  3
AcMeServices
 90
        0
 91
        0
280
     0
281
     0
  0
CLASS
  1
ACIMDBLSTATICVAR
  2
AcImDblStaticVar
  3
AcMeServices
 90
        0
 91
        0
280
     0
281
     0
  0
CLASS
  1
ACIMSTRSTATICVAR
  2
AcImStrStaticVar
  3
AcMeServices
 90
        0
 91
        0
280
     0
281
     0
  0
CLASS
  1
ACIMINTSTATICVAR
  2
AcImIntStaticVar
  3
AcMeServices
 90
        0
 91
        0
280
     0
281
     0
  0
CLASS
  1
ACASGREFMASTER
  2
AcAsGrefMaster
  3
AutoSurfResolverServices
 90
        0
 91
        2
280
     0
281
     0
  0
CLASS
  1
ACADGREFMODULE
  2
AcAdGrefModule
  3
AdGrefServices
 90
        0
 91
        2
280
     0
281
     0
  0
CLASS
  1
AMDTMAPISURFMOUDULE
  2
AmdtMApiSurfModule
  3
MApiSurfServices
 90
        0
 91
        2
280
     0
281
     0
  0
CLASS
  1
MAPIAMMOUDLE
  2
MApiAmModule
  3
MApiAmServices
 90
        0
 91
        1
280
     0
281
     0
  0
CLASS
  1
AMDTADMENUSTATE
  2
AmdtAdMenuState
  3
DesignerServices
 90
        0
 91
        1
280
     0
281
     0
  0
CLASS
  1
ADAPPL
  2
AcAdAppl
  3
DesignerServices
 90
        0
 91
        1
280
     0
281
     0
  0
CLASS
  1
DEPMGR
  2
AcAdDepMgr
  3
DesignerServices
 90
        0
 91
        1
280
     0
281
     0
  0
CLASS
  1
PARAMMGR
  2
AcAdParamMgr
  3
DesignerServices
 90
        0
 91
        1
280
     0
281
     0
  0
CLASS
  1
PARAMSCOPE
  2
AcAdParamScope
  3
DesignerServices
 90
        0
 91
        1
280
     0
281
     0
  0
CLASS
  1
NAMEDAPPL
  2
AcAdNamedAppl
  3
DesignerServices
 90
        0
 91
        1
280
     0
281
     0
  0
CLASS
  1
ADHNTMPLT
  2
AdHoleNoteTemplateMgr
  3
DesignerServices
 90
        0
 91
        0
280
     0
281
     0
  0
CLASS
  1
AM_HNTEMPLATE_MGR_NAME
  2
AdHoleNoteTemplateMgrName
  3
DesignerServices
 90
        0
 91
        0
280
     0
281
     0
  0
CLASS
  1
AMDTDMMENUSTATE
  2
AmdtDmMenuState
  3
AcMechDwgViewMgmt
 90
        0
 91
        1
280
     0
281
     0
  0
CLASS
  1
MAPIADMODULE
  2
MApiAdModule
  3
MApiAdServices
 90
        0
 91
        2
280
     0
281
     0
  0
CLASS
  1
AMDTAMMENUSTATE
  2
AmdtAmMenuState
  3
DesignerAssemblies
 90
        0
 91
        1
280
     0
281
     0
  0
CLASS
  1
ACAMPROJECT
  2
AcAmProject
  3
DesignerAssemblies
 90
        0
 91
        1
280
     0
281
     0
  0
CLASS
  1
ACAMGRCOMPDEF
  2
AcAmGrCompDef
  3
DesignerAssemblies
 90
        0
 91
        1
280
     0
281
     0
  0
CLASS
  1
ACCMCONTEXT
  2
AcCmContext
  3
DesignerAssemblies
 90
        0
 91
        1
280
     0
281
     0
  0
CLASS
  1
ACAMCOMPDEF
  2
AcAmCompDef
  3
DesignerAssemblies
 90
        0
 91
        1
280
     0
281
     0
  0
CLASS
  1
ACAMCOMPDEFMGR
  2
AcAmCompDefMgr
  3
DesignerAssemblies
 90
        0
 91
        1
280
     0
281
     0
  0
CLASS
  1
AMCONTEXTMGR
  2
AcAmContextMgr
  3
DesignerAssemblies
 90
        0
 91
        1
280
     0
281
     0
  0
CLASS
  1
ACAMCONTEXTMODELER
  2
AcAmContextModeler
  3
DesignerAssemblies
 90
        0
 91
        1
280
     0
281
     0
  0
CLASS
  1
CATALOGSTATE
  2
AcAmCatalogState
  3
DesignerAssemblies
 90
        0
 91
        1
280
     0
281
     0
  0
CLASS
  1
ACAMGRCOMPDEFSET
  2
AcAmGrCompDefSet
  3
DesignerAssemblies
 90
        0
 91
        1
280
     0
281
     0
  0
CLASS
  1
AMDTBROWSERDBTAB
  2
AmdtBrowserDbTab
  3
McadcomServices
 90
        0
 91
        1
280
     0
281
     0
  0
CLASS
  1
CBROWSERAPPOBJECT
  2
CBrowserAppObject
  3
McadcomServices
 90
        0
 91
        3
280
     0
281
     0
  0
CLASS
  1
DM_PLACEHOLDER
  2
AcDmSelsetPlaceholder
  3
AcMechDwgViewMgmt
 90
        0
 91
        1
280
     0
281
     0
  0
CLASS
  1
ACMPICKOBJ
  2
AcmPickEnt
  3
"AcmSymBB|Product Description: AutoCAD Mechanical|Company: Autodesk"
 90
        0
 91
        0
280
     0
281
     1
  0
CLASS
  1
ACMTHREADLINESTANDARDISO
  2
AmdtThreadLineStdISO
  3
"Amdt_StdImp|Product Description: AutoCAD Mechanical|Company: Autodesk"
 90
        0
 91
        1
280
     0
281
     0
  0
CLASS
  1
ACMNOTESTANDARDISO
  2
AmdtNoteStdISO
  3
"Amdt_StdImp|Product Description: AutoCAD Mechanical|Company: Autodesk"
 90
        0
 91
        1
280
     0
281
     0
  0
CLASS
  1
AMDTNOTETEMPLATEDB
  2
AmdtNoteTemplateDB
  3
AMDT_STDIMP_MODULE_NAME
 90
        0
 91
        0
280
     0
281
     0
  0
CLASS
  1
ACMTHREADLINESTANDARDANSI
  2
AmdtThreadLineStdANSI
  3
"Amdt_StdImp|Product Description: AutoCAD Mechanical|Company: Autodesk"
 90
        0
 91
        0
280
     0
281
     0
  0
CLASS
  1
ACMNOTESTANDARDANSI
  2
AmdtNoteStdANSI
  3
"Amdt_StdImp|Product Description: AutoCAD Mechanical|Company: Autodesk"
 90
        0
 91
        0
280
     0
281
     0
  0
CLASS
  1
AMDTDETAILSYM
  2
AmdtDetailSym
  3
"AcmSymBB|Product Description: AutoCAD Mechanical|Company: Autodesk"
 90
     3071
 91
        0
280
     0
281
     1
  0
CLASS
  1
AMDTDETAILSYMLABEL
  2
AmdtDetailSymLabel
  3
"AcmSymBB|Product Description: AutoCAD Mechanical|Company: Autodesk"
 90
     3071
 91
        0
280
     0
281
     1
  0
CLASS
  1
TABLESTYLE
  2
AcDbTableStyle
  3
ObjectDBX Classes
 90
     4095
 91
        1
280
     0
281
     0
  0
CLASS
  1
AMDTACMWBLOCKBOMENTITY
  2
AmdtAcmWblockBomEntity
  3
"AcmSymBB|Product Description: AutoCAD Mechanical|Company: Autodesk"
 90
     3071
 91
       18
280
     0
281
     1
  0
CLASS
  1
SORTENTSTABLE
  2
AcDbSortentsTable
  3
ObjectDBX Classes
 90
        0
 91
        1
280
     0
281
     0
  0
CLASS
  1
AC_AM_MVD_DEP_MGR
  2
AcAmMVDdepMgr
  3
DesignerAssemblies
 90
        0
 91
        0
280
     0
281
     0
  0
CLASS
  1
AC_AM_MASTER_VIEW_DEF
  2
AcAmMasterViewDef
  3
DesignerAssemblies
 90
        0
 91
        0
280
     0
281
     0
  0
CLASS
  1
AC_AM_DIRTY_NODES
  2
AcAmDirtyNodes
  3
DesignerAssemblies
 90
        0
 91
        0
280
     0
281
     0
  0
CLASS
  1
AC_AM_MAPPER_CACHE
  2
AcAmMapperCache
  3
DesignerAssemblies
 90
        0
 91
        0
280
     0
281
     0
  0
CLASS
  1
ACAMMVDBACKUPOBJECT
  2
AcAmMVDBackupObject
  3
DesignerAssemblies
 90
        0
 91
        0
280
     0
281
     0
  0
CLASS
  1
ACAMSTDPCOMPDEF
  2
AcAmStdpCompDef
  3
DesignerAssemblies
 90
        0
 91
        0
280
     0
281
     0
  0
CLASS
  1
ACRFATTGENMGR
  2
AcRfAttGeneralMgr
  3
AcAttribServices
 90
        0
 91
        0
280
     0
281
     0
  0
CLASS
  1
ACRFOBJATTMGR
  2
AcRfObjAttGroupMgr
  3
AcAttribServices
 90
        0
 91
        0
280
     0
281
     0
  0
CLASS
  1
ACRFMCADAPIATTHOLDER
  2
AcRfMCADAPIAttHolder
  3
AcAttribServices
 90
        0
 91
        0
280
     0
281
     0
  0
CLASS
  1
AMDTSYSATTR
  2
AmdtSystemAttribute
  3
AcAttribServices
 90
        0
 91
        0
280
     0
281
     0
  0
CLASS
  1
ACAMCOMP
  2
AcAmComp
  3
DesignerAssemblies
 90
        0
 91
        0
280
     0
281
     0
  0
CLASS
  1
AC_AM_STDP_VIEW_DEF
  2
AcAmStdpViewDef
  3
DesignerAssemblies
 90
        0
 91
        0
280
     0
281
     0
  0
CLASS
  1
AC_AM_COMP_VIEW_INST
  2
AcAmCompView
  3
DesignerAssemblies
 90
        0
 91
        0
280
     0
281
     0
  0
CLASS
  1
AC_AM_PROPS_OVERRIDE
  2
AcAmPropertiesOverride
  3
DesignerAssemblies
 90
        0
 91
        0
280
     0
281
     0
  0
CLASS
  1
AC_AM_OVERRIDE_FILTER
  2
AcAmOverrideFilter
  3
DesignerAssemblies
 90
        0
 91
        0
280
     0
281
     0
  0
CLASS
  1
AC_AM_2D_XREF_MGR
  2
AcAmXrefMgr2d
  3
DesignerAssemblies
 90
        0
 91
        0
280
     0
281
     0
  0
CLASS
  1
AC_AM_HIDE_SITUATION
  2
AcAmHideSituation
  3
DesignerAssemblies
 90
        0
 91
        0
280
     0
281
     0
  0
CLASS
  1
AC_AM_TRANSFORM_GHOST
  2
AcDbTransformGhost
  3
DesignerAssemblies
 90
        0
 91
        0
280
     0
281
     1
  0
CLASS
  1
L"OBJCLONER"
  2
ObjCloner
  3
DesignerAssemblies
 90
        0
 91
        0
280
     0
281
     1
  0
CLASS
  1
AC_AM_SPRING_ROD_HIDE_SITUATION
  2
AcAmSpringRodHideSituation
  3
DesignerAssemblies
 90
        0
 91
        0
280
     0
281
     0
  0
CLASS
  1
ACAD_TABLE
  2
AcDbTable
  3
ObjectDBX Classes
 90
     1025
 91
        0
280
     0
281
     1
  0
CLASS
  1
ACAMWBLOCKTEMPENTS
  2
AcAmStructInOutTempObjsHolder
  3
DesignerAssemblies
 90
        0
 91
        0
280
     0
281
     0
  0
CLASS
  1
ACDBNURBCURVERES
  2
AcDbNurbCurveRes
  3
AcGrefServices
 90
        0
 91
        0
280
     0
281
     0
  0
CLASS
  1
MATERIAL
  2
AcDbMaterial
  3
ObjectDBX Classes
 90
     1153
 91
        3
280
     0
281
     0
  0
CLASS
  1
VISUALSTYLE
  2
AcDbVisualStyle
  3
ObjectDBX Classes
 90
     4095
 91
       16
280
     0
281
     0
  0
CLASS
  1
ACMTAPERSTANDARDISO
  2
AcmTaperStdISO
  3
"Amdt_StdImp|Product Description: AutoCAD Mechanical|Company: Autodesk"
 90
        0
 91
        1
280
     0
281
     0
  0
CLASS
  1
ACMTAPERSTANDARDANSI
  2
AcmTaperStdANSI
  3
"Amdt_StdImp|Product Description: AutoCAD Mechanical|Company: Autodesk"
 90
        0
 91
        0
280
     0
281
     0
  0
CLASS
  1
AC_AM_COMP_VIEW_DEF
  2
AcAmCompViewDef
  3
DesignerAssemblies
 90
        0
 91
        0
280
     0
281
     0
  0
CLASS
  1
NEWSTDPARTPARLIST
  2
AmgNewParListFiler
  3
"AmgParList|Product Description: AutoCAD Mechanical 2000|Company: Autodesk"
 90
     3071
 91
        0
280
     0
281
     0
  0
CLASS
  1
DIMASSOC
  2
AcDbDimAssoc
  3
"AcDbDimAssoc|Product Desc:     AcDim ARX App For Dimension|Company:          Autodesk, Inc.|WEB Address:      www.autodesk.com"
 90
        0
 91
        0
280
     0
281
     0
  0
ENDSEC
  0
SECTION
  2
TABLES
  0
TABLE
  2
VPORT
  5
8
102
{ACAD_XDICTIONARY
360
AEEE5
102
}
330
0
100
AcDbSymbolTable
 70
     1
  0
VPORT
  5
C4265
330
8
100
AcDbSymbolTableRecord
100
AcDbViewportTableRecord
  2
*Active
 70
     0
 10
0.0
 20
0.0
 11
1.0
 21
1.0
 12
3269.441544839925
 22
-235.4402958953059
 13
0.0
 23
0.0
 14
2.5
 24
2.5
 15
10.0
 25
10.0
 16
0.0
 26
0.0
 36
1.0
 17
0.0
 27
0.0
 37
0.0
 40
361.6905300709133
 41
1.902843601895734
 42
50.0
 43
-1370.695619172058
 44
-1370.695619172058
 50
0.0
 51
0.0
 71
    16
 72
   100
 73
     1
 74
     3
 75
     0
 76
     0
 77
     0
 78
     1
281
     0
 65
     0
110
0.0
120
0.0
130
0.0
111
1.0
121
0.0
131
0.0
112
0.0
122
1.0
132
0.0
 79
     0
146
0.0
  0
ENDTAB
  0
TABLE
  2
LTYPE
  5
5
330
0
100
AcDbSymbolTable
 70
    35
  0
LTYPE
  5
14
330
5
100
AcDbSymbolTableRecord
100
AcDbLinetypeTableRecord
  2
ByBlock
 70
     0
  3

 72
    65
 73
     0
 40
0.0
  0
LTYPE
  5
15
330
5
100
AcDbSymbolTableRecord
100
AcDbLinetypeTableRecord
  2
ByLayer
 70
     0
  3

 72
    65
 73
     0
 40
0.0
  0
LTYPE
  5
16
330
5
100
AcDbSymbolTableRecord
100
AcDbLinetypeTableRecord
  2
Continuous
 70
     0
  3
Solid line
 72
    65
 73
     0
 40
0.0
  0
LTYPE
  5
4F
330
5
100
AcDbSymbolTableRecord
100
AcDbLinetypeTableRecord
  2
AM_ISO02W050
 70
     0
  3
__ __ __ __ __ __ __ __ __ __ __ __ __ __ __
 72
    65
 73
     2
 40
7.5
 49
6.0
 74
     0
 49
-1.5
 74
     0
  0
LTYPE
  5
52
330
5
100
AcDbSymbolTableRecord
100
AcDbLinetypeTableRecord
  2
Amconstr
 70
     0
  3
_______________________
 72
    65
 73
     2
 40
9999.0
 49
9999.0
 74
     0
 49
0.0
 74
     0
  0
LTYPE
  5
64
330
5
100
AcDbSymbolTableRecord
100
AcDbLinetypeTableRecord
  2
ACISOWELD
 70
     0
  3
_ _ _ _ _
 72
    65
 73
     2
 40
2.0
 49
2.0
 74
     0
 49
-1.0
 74
     0
  0
LTYPE
  5
65
330
5
100
AcDbSymbolTableRecord
100
AcDbLinetypeTableRecord
  2
ACISOTGB
 70
     0
  3
__ . . __ . .
 72
    65
 73
     6
 40
9.0
 49
4.0
 74
     0
 49
-1.0
 74
     0
 49
1.0
 74
     0
 49
-1.0
 74
     0
 49
1.0
 74
     0
 49
-1.0
 74
     0
  0
LTYPE
  5
66
330
5
100
AcDbSymbolTableRecord
100
AcDbLinetypeTableRecord
  2
ACISOTGL
 70
     0
  3
_ _ _ _ _
 72
    65
 73
     2
 40
3.0
 49
2.0
 74
     0
 49
-1.0
 74
     0
  0
LTYPE
  5
69
330
5
100
AcDbSymbolTableRecord
100
AcDbLinetypeTableRecord
  2
CENTER
 70
     0
  3
__ . __
 72
    65
 73
     4
 40
7.0
 49
4.0
 74
     0
 49
-1.0
 74
     0
 49
1.0
 74
     0
 49
-1.0
 74
     0
  0
LTYPE
  5
A6E
330
5
100
AcDbSymbolTableRecord
100
AcDbLinetypeTableRecord
  2
PHANTOM2
 70
     0
  3
Phantom (.5x) ___ _ _ ___ _ _ ___ _ _ ___ _ _
 72
    65
 73
     6
 40
31.75
 49
15.875
 74
     0
 49
-3.174999999999999
 74
     0
 49
3.174999999999999
 74
     0
 49
-3.174999999999999
 74
     0
 49
3.174999999999999
 74
     0
 49
-3.174999999999999
 74
     0
  0
LTYPE
  5
FA3
330
5
100
AcDbSymbolTableRecord
100
AcDbLinetypeTableRecord
  2
ACANSTGB
 70
     0
  3
__ . . __ . .
 72
    65
 73
     6
 40
0.35433070866
 49
0.15748031496
 74
     0
 49
-0.03937007874
 74
     0
 49
0.03937007874
 74
     0
 49
-0.03937007874
 74
     0
 49
0.03937007874
 74
     0
 49
-0.03937007874
 74
     0
  0
LTYPE
  5
FA4
330
5
100
AcDbSymbolTableRecord
100
AcDbLinetypeTableRecord
  2
ACANSTGL
 70
     0
  3
_ _ _ _ _
 72
    65
 73
     2
 40
0.11811023622
 49
0.07874015748
 74
     0
 49
-0.03937007874
 74
     0
  0
LTYPE
  5
4DED
330
5
100
AcDbSymbolTableRecord
100
AcDbLinetypeTableRecord
  2
中線
 70
     0
  3
___________________
 72
    65
 73
     2
 40
2.0
 49
1.0
 74
     0
 49
1.0
 74
     0
  0
LTYPE
  5
4DF6
330
5
100
AcDbSymbolTableRecord
100
AcDbLinetypeTableRecord
  2
細線
 70
     0
  3
___________________
 72
    65
 73
     2
 40
2.0
 49
1.0
 74
     0
 49
1.0
 74
     0
  0
LTYPE
  5
4DF7
330
5
100
AcDbSymbolTableRecord
100
AcDbLinetypeTableRecord
  2
太線
 70
     0
  3
___________________
 72
    65
 73
     2
 40
2.0
 49
1.0
 74
     0
 49
1.0
 74
     0
  0
LTYPE
  5
4EA7
330
5
100
AcDbSymbolTableRecord
100
AcDbLinetypeTableRecord
  2
文字
 70
     0
  3
_________________
 72
    65
 73
     2
 40
2.0
 49
1.0
 74
     0
 49
1.0
 74
     0
  0
LTYPE
  5
4EA9
330
5
100
AcDbSymbolTableRecord
100
AcDbLinetypeTableRecord
  2
寸法線
 70
     0
  3
________________
 72
    65
 73
     2
 40
2.0
 49
1.0
 74
     0
 49
1.0
 74
     0
  0
LTYPE
  5
4F12
330
5
100
AcDbSymbolTableRecord
100
AcDbLinetypeTableRecord
  2
ハッチング
 70
     0
  3
_________________
 72
    65
 73
     2
 40
2.0
 49
1.0
 74
     0
 49
1.0
 74
     0
  0
LTYPE
  5
5180
330
5
100
AcDbSymbolTableRecord
100
AcDbLinetypeTableRecord
  2
陰線1
 70
     0
  3
__ __ __ __
 72
    65
 73
     2
 40
4.0
 49
2.2
 74
     0
 49
-1.8
 74
     0
  0
LTYPE
  5
5182
330
5
100
AcDbSymbolTableRecord
100
AcDbLinetypeTableRecord
  2
切断線
 70
     0
  3
/\/-/\/-/\/-/\/-/\/-/\/
 72
    65
 73
     2
 40
11.0001
 49
0.0001
 74
     4
 75
   135
340
56
 46
0.04
 50
0.0
 44
0.0
 45
0.0
 49
-11.0
 74
     0
  0
LTYPE
  5
5183
330
5
100
AcDbSymbolTableRecord
100
AcDbLinetypeTableRecord
  2
想像線1
 70
     0
  3
__ __ __ _____ __ __ ____
 72
    65
 73
     6
 40
14.5
 49
6.0
 74
     0
 49
-1.5
 74
     0
 49
2.0
 74
     0
 49
-1.5
 74
     0
 49
2.0
 74
     0
 49
-1.5
 74
     0
  0
LTYPE
  5
5185
330
5
100
AcDbSymbolTableRecord
100
AcDbLinetypeTableRecord
  2
中心線1
 70
     0
  3
___ _ ___ _ ___
 72
    65
 73
     4
 40
18.0
 49
12.0
 74
     0
 49
-2.0
 74
     0
 49
2.0
 74
     0
 49
-2.0
 74
     0
  0
LTYPE
  5
5188
330
5
100
AcDbSymbolTableRecord
100
AcDbLinetypeTableRecord
  2
補助線
 70
     0
  3
______________
 72
    65
 73
     2
 40
2.0
 49
1.0
 74
     0
 49
1.0
 74
     0
  0
LTYPE
  5
6427
330
5
100
AcDbSymbolTableRecord
100
AcDbLinetypeTableRecord
  2
HIDDEN
 70
     0
  3
Hidden __ __ __ __ __ __ __ __ __ __ __ __ __ _
 72
    65
 73
     2
 40
0.375
 49
0.25
 74
     0
 49
-0.125
 74
     0
  0
LTYPE
  5
1D541
330
5
100
AcDbSymbolTableRecord
100
AcDbLinetypeTableRecord
  2
PHANTOM
 70
     0
  3
_____ _ _ _____ _ _ _____ _ _ _____ _ _ ____  
 72
    65
 73
     6
 40
15.5
 49
8.0
 74
     0
 49
-1.5
 74
     0
 49
1.5
 74
     0
 49
-1.5
 74
     0
 49
1.5
 74
     0
 49
-1.5
 74
     0
  0
LTYPE
  5
1D542
330
5
100
AcDbSymbolTableRecord
100
AcDbLinetypeTableRecord
  2
CENTER2
 70
     0
  3
Center (.5x) ___ _ ___ _ ___ _ ___ _ ___ _ ___
 72
    65
 73
     4
 40
1.125
 49
0.75
 74
     0
 49
-0.125
 74
     0
 49
0.125
 74
     0
 49
-0.125
 74
     0
  0
LTYPE
  5
1D543
330
5
100
AcDbSymbolTableRecord
100
AcDbLinetypeTableRecord
  2
HIDDEN2
 70
     0
  3
Hidden (.5x) _ _ _ _ _ _ _ _ _ _ _ _ _ _ _ _ _
 72
    65
 73
     2
 40
0.1875
 49
0.125
 74
     0
 49
-0.0625
 74
     0
  0
LTYPE
  5
1D544
330
5
100
AcDbSymbolTableRecord
100
AcDbLinetypeTableRecord
  2
Amzigzag2
 70
     0
  3
/\/-/\/-/\/-/\/-/\/-/\/
 72
    65
 73
     2
 40
0.4401
 49
0.0001
 74
     4
 75
   136
340
1D545
 46
0.0016
 50
0.0
 44
0.0
 45
0.0
 49
-0.4400000000000001
 74
     0
  0
LTYPE
  5
6D407
330
5
100
AcDbSymbolTableRecord
100
AcDbLinetypeTableRecord
  2
AM_ISO08W050
 70
     0
  3
____ . ____ . ____ . ____ . ____ . ____ . ____
 72
    65
 73
     4
 40
18.0
 49
12.0
 74
     0
 49
-1.5
 74
     0
 49
3.0
 74
     0
 49
-1.5
 74
     0
  0
LTYPE
  5
6D408
330
5
100
AcDbSymbolTableRecord
100
AcDbLinetypeTableRecord
  2
AM_ISO09W050
 70
     0
  3
_____ . . _____ . . _____ . . ____ .. ____
 72
    65
 73
     6
 40
22.5
 49
12.0
 74
     0
 49
-1.5
 74
     0
 49
3.0
 74
     0
 49
-1.5
 74
     0
 49
3.0
 74
     0
 49
-1.5
 74
     0
  0
LTYPE
  5
6D409
330
5
100
AcDbSymbolTableRecord
100
AcDbLinetypeTableRecord
  2
AM_ISO08W050x2
 70
     0
  3
__ . __ . __ . __ . __ . __
 72
    65
 73
     4
 40
9.0
 49
6.0
 74
     0
 49
-0.75
 74
     0
 49
1.5
 74
     0
 49
-0.75
 74
     0
  0
LTYPE
  5
6D40A
330
5
100
AcDbSymbolTableRecord
100
AcDbLinetypeTableRecord
  2
AM_ISO02W050x2
 70
     0
  3
 _ _ _ _ _ _ _ _ _ _ _ _
 72
    65
 73
     2
 40
3.75
 49
3.0
 74
     0
 49
-0.75
 74
     0
  0
LTYPE
  5
6D40B
330
5
100
AcDbSymbolTableRecord
100
AcDbLinetypeTableRecord
  2
Amzigzag
 70
     0
  3
/\/-/\/-/\/-/\/-/\/-/\/
 72
    65
 73
     2
 40
11.0001
 49
0.0001
 74
     4
 75
   135
340
56
 46
0.04
 50
0.0
 44
0.0
 45
0.0
 49
-11.0
 74
     0
  0
LTYPE
  5
B3353
330
5
100
AcDbSymbolTableRecord
100
AcDbLinetypeTableRecord
  2
SYS陰線
 70
     0
  3
_ _ _ _ _
 72
    65
 73
     2
 40
1.0
 49
0.5
 74
     0
 49
-0.5
 74
     0
  0
LTYPE
  5
B3354
330
5
100
AcDbSymbolTableRecord
100
AcDbLinetypeTableRecord
  2
SYS一点鎖線
 70
     0
  3
__ _ __ _ __
 72
    65
 73
     4
 40
3.0
 49
1.5
 74
     0
 49
-0.5
 74
     0
 49
0.5
 74
     0
 49
-0.5
 74
     0
  0
LTYPE
  5
CBFD8
330
5
100
AcDbSymbolTableRecord
100
AcDbLinetypeTableRecord
  2
DASHED
 70
     0
  3
Dashed __ __ __ __ __ __ __ __ __ __ __ __ __ _
 72
    65
 73
     2
 40
0.2067
 49
0.1654
 74
     0
 49
-0.0413
 74
     0
  0
LTYPE
  5
E3125
330
5
100
AcDbSymbolTableRecord
100
AcDbLinetypeTableRecord
  2
想像線2
 70
     0
  3
__ _ _ __ _ _ __
 72
    65
 73
     6
 40
6.9
 49
2.5
 74
     0
 49
-0.8
 74
     0
 49
1.0
 74
     0
 49
-0.8
 74
     0
 49
1.0
 74
     0
 49
-0.8
 74
     0
  0
ENDTAB
  0
TABLE
  2
LAYER
  5
2
102
{ACAD_XDICTIONARY
360
3F95
102
}
330
0
100
AcDbSymbolTable
 70
    29
  0
LAYER
  5
10
330
2
100
AcDbSymbolTableRecord
100
AcDbLayerTableRecord
  2
0
 70
     0
 62
     7
  6
Continuous
370
    -3
390
F
  0
LAYER
  5
6D1
330
2
100
AcDbSymbolTableRecord
100
AcDbLayerTableRecord
  2
Defpoints
 70
     0
 62
     7
  6
Continuous
290
     0
370
    -3
390
F
  0
LAYER
  5
A46
330
2
100
AcDbSymbolTableRecord
100
AcDbLayerTableRecord
  2
size
 70
     0
 62
     5
  6
Continuous
290
     0
370
    25
390
F
  0
LAYER
  5
A47
330
2
100
AcDbSymbolTableRecord
100
AcDbLayerTableRecord
  2
waku
 70
     0
 62
     7
  6
Continuous
370
    35
390
F
  0
LAYER
  5
A48
330
2
100
AcDbSymbolTableRecord
100
AcDbLayerTableRecord
  2
AM_6
 70
     0
 62
     2
  6
文字
370
    20
390
F
  0
LAYER
  5
5F85
330
2
100
AcDbSymbolTableRecord
100
AcDbLayerTableRecord
  2
AM_0
 70
     0
 62
     7
  6
中線
370
    30
390
F
  0
LAYER
  5
5F86
330
2
100
AcDbSymbolTableRecord
100
AcDbLayerTableRecord
  2
AM_1
 70
     0
 62
    30
  6
太線
370
    40
390
F
  0
LAYER
  5
5F87
330
2
100
AcDbSymbolTableRecord
100
AcDbLayerTableRecord
  2
AM_2
 70
     0
 62
     1
  6
細線
370
    20
390
F
  0
LAYER
  5
5F88
330
2
100
AcDbSymbolTableRecord
100
AcDbLayerTableRecord
  2
AM_3
 70
     0
 62
     6
  6
陰線1
370
    20
390
F
  0
LAYER
  5
5F8A
330
2
100
AcDbSymbolTableRecord
100
AcDbLayerTableRecord
  2
AM_5
 70
     0
 62
     3
  6
寸法線
370
    20
390
F
  0
LAYER
  5
5F8B
330
2
100
AcDbSymbolTableRecord
100
AcDbLayerTableRecord
  2
AM_7
 70
     0
 62
     4
  6
中心線1
370
    20
390
F
  0
LAYER
  5
5F8C
330
2
100
AcDbSymbolTableRecord
100
AcDbLayerTableRecord
  2
AM_8
 70
     0
 62
     1
  6
ハッチング
370
    20
390
F
  0
LAYER
  5
112D7
330
2
100
AcDbSymbolTableRecord
100
AcDbLayerTableRecord
  2
AM_11
 70
     0
 62
     2
  6
想像線1
370
    20
390
F
  0
LAYER
  5
13616
330
2
100
AcDbSymbolTableRecord
100
AcDbLayerTableRecord
  2
AM_CL
 70
     0
 62
     1
  6
Amconstr
370
    20
390
F
1001
AcAecLayerStandard
1000

1000

  0
LAYER
  5
15B83
330
2
100
AcDbSymbolTableRecord
100
AcDbLayerTableRecord
  2
ケースＡ-AM_0
 70
     0
 62
    30
  6
中線
370
    30
390
F
1001
AcAecLayerStandard
1000

1000

  0
LAYER
  5
1684D
330
2
100
AcDbSymbolTableRecord
100
AcDbLayerTableRecord
  2
カム-AM_0
 70
     0
 62
   160
  6
中線
370
    30
390
F
1001
AcAecLayerStandard
1000

1000

  0
LAYER
  5
16A5C
330
2
100
AcDbSymbolTableRecord
100
AcDbLayerTableRecord
  2
ラッチボルト-AM_5
 70
     0
 62
     3
  6
寸法線
370
    20
390
F
1001
AcAecLayerStandard
1000

1000

  0
LAYER
  5
16A9B
330
2
100
AcDbSymbolTableRecord
100
AcDbLayerTableRecord
  2
スライド樹脂-AM_0
 70
     0
 62
   125
  6
中線
370
    30
390
F
1001
AcAecLayerStandard
1000

1000

  0
LAYER
  5
16DEF
330
2
100
AcDbSymbolTableRecord
100
AcDbLayerTableRecord
  2
フロントプレート-AM_0
 70
     0
 62
    50
  6
中線
370
    30
390
F
1001
AcAecLayerStandard
1000

1000

  0
LAYER
  5
17006
330
2
100
AcDbSymbolTableRecord
100
AcDbLayerTableRecord
  2
AM_4
 70
     0
 62
     3
  6
補助線
370
    20
390
F
1001
AcAecLayerStandard
1000

1000

  0
LAYER
  5
17033
330
2
100
AcDbSymbolTableRecord
100
AcDbLayerTableRecord
  2
AM_0N
 70
     0
 62
     7
  6
中線
370
    30
390
F
1001
AcAecLayerStandard
1000

1000

  0
LAYER
  5
1706B
330
2
100
AcDbSymbolTableRecord
100
AcDbLayerTableRecord
  2
AM_7N
 70
     0
 62
     4
  6
中心線1
370
    30
390
F
1001
AcAecLayerStandard
1000

1000

  0
LAYER
  5
1706C
330
2
100
AcDbSymbolTableRecord
100
AcDbLayerTableRecord
  2
AM_9
 70
     0
 62
   253
  6
Continuous
370
     0
390
F
1001
AcAecLayerStandard
1000

1000

  0
LAYER
  5
17168
330
2
100
AcDbSymbolTableRecord
100
AcDbLayerTableRecord
  2
フロントプレート-AM_5
 70
     0
 62
     3
  6
寸法線
370
    20
390
F
1001
AcAecLayerStandard
1000

1000

  0
LAYER
  5
C49A0
102
{ACAD_XDICTIONARY
360
C49A1
102
}
330
2
100
AcDbSymbolTableRecord
100
AcDbLayerTableRecord
  2
99その他
 70
     0
 62
     3
  6
Continuous
370
    35
390
F
1001
AcAecLayerStandard
1000

1000

  0
LAYER
  5
C8641
330
2
100
AcDbSymbolTableRecord
100
AcDbLayerTableRecord
  2
フロントプレート-AM_8
 70
     0
 62
     1
  6
ハッチング
370
    20
390
F
1001
AcAecLayerStandard
1000

1000

  0
LAYER
  5
CA416
330
2
100
AcDbSymbolTableRecord
100
AcDbLayerTableRecord
  2
PV0001_1
 70
     0
 62
     7
  6
Continuous
370
    -3
390
F
  0
LAYER
  5
DD09F
330
2
100
AcDbSymbolTableRecord
100
AcDbLayerTableRecord
  2
000 47レバー角芯付
 70
     0
 62
   151
  6
中線
370
    30
390
F
1001
AcAecLayerStandard
1000

1000

  0
LAYER
  5
DFBCF
330
2
100
AcDbSymbolTableRecord
100
AcDbLayerTableRecord
  2
000外筒
 70
     0
 62
    31
  6
中線
370
    30
390
F
  0
ENDTAB
  0
TABLE
  2
STYLE
  5
3
330
0
100
AcDbSymbolTable
 70
    10
  0
STYLE
  5
11
330
3
100
AcDbSymbolTableRecord
100
AcDbTextStyleTableRecord
  2
STANDARD
 70
     0
 40
0.0
 41
0.7
 50
0.0
 71
     0
 42
3.2
  3
romans.shx
  4
extfont.shx
  0
STYLE
  5
56
330
3
100
AcDbSymbolTableRecord
100
AcDbTextStyleTableRecord
  2

 70
     1
 40
0.0
 41
1.0
 50
0.0
 71
     0
 42
2.5
  3
ltypeshp.shx
  4

  0
STYLE
  5
58
330
3
100
AcDbSymbolTableRecord
100
AcDbTextStyleTableRecord
  2
ACISOTS
 70
     0
 40
1.0
 41
1.0
 50
0.0
 71
     0
 42
2.5
  3
isocp.shx
  4
extfont.shx
  0
STYLE
  5
63
330
3
100
AcDbSymbolTableRecord
100
AcDbTextStyleTableRecord
  2
ACISOGDT
 70
     0
 40
0.0
 41
1.0
 50
0.0
 71
     0
 42
2.5
  3
amgdt.shx
  4

  0
STYLE
  5
FA7
330
3
100
AcDbSymbolTableRecord
100
AcDbTextStyleTableRecord
  2
ACANSTS
 70
     0
 40
1.0
 41
1.0
 50
0.0
 71
     0
 42
0.2
  3
romans.shx
  4
extfont.shx
  0
STYLE
  5
FA8
330
3
100
AcDbSymbolTableRecord
100
AcDbTextStyleTableRecord
  2
ACANSGDT
 70
     0
 40
0.0
 41
1.0
 50
0.0
 71
     0
 42
0.2
  3
amgdtans.shx
  4

  0
STYLE
  5
1D545
330
3
100
AcDbSymbolTableRecord
100
AcDbTextStyleTableRecord
  2

 70
     1
 40
0.0
 41
1.0
 50
0.0
 71
     0
 42
0.2
  3
genltshp.shx
  4

  0
STYLE
  5
B3355
330
3
100
AcDbSymbolTableRecord
100
AcDbTextStyleTableRecord
  2
DIM
 70
     0
 40
0.0
 41
1.0
 50
0.0
 71
     0
 42
2.5
  3
monotxt.shx
  4
extfont.shx
  0
STYLE
  5
B3356
330
3
100
AcDbSymbolTableRecord
100
AcDbTextStyleTableRecord
  2
CONVERT
 70
     0
 40
0.0
 41
1.0
 50
0.0
 71
     0
 42
2.5
  3
monotxt.shx
  4
extfont.shx
  0
STYLE
  5
D3542
330
3
100
AcDbSymbolTableRecord
100
AcDbTextStyleTableRecord
  2
横書き
 70
     0
 40
0.0
 41
1.0
 50
0.0
 71
     0
 42
6.0
  3
TXT.shx
  4
bigfont.shx
  0
ENDTAB
  0
TABLE
  2
VIEW
  5
6
330
0
100
AcDbSymbolTable
 70
     6
  0
VIEW
  5
AE1
330
6
100
AcDbSymbolTableRecord
100
AcDbViewTableRecord
  2
AM_VIEW1
 70
     0
 40
297.0
 10
1865.179636530953
 20
2168.953332028124
 41
452.0542244640605
 11
0.0
 21
0.0
 31
1.0
 12
0.0
 22
0.0
 32
0.0
 42
50.0
 43
-1370.695619172058
 44
-1370.695619172058
 50
0.0
 71
    16
281
     0
 72
     0
  0
VIEW
  5
AE2
330
6
100
AcDbSymbolTableRecord
100
AcDbViewTableRecord
  2
AM_VIEW2
 70
     0
 40
297.0
 10
2253.125412066893
 20
2168.953332028124
 41
452.0542244640603
 11
0.0
 21
0.0
 31
1.0
 12
0.0
 22
0.0
 32
0.0
 42
50.0
 43
-1370.695619172058
 44
-1370.695619172058
 50
0.0
 71
    16
281
     0
 72
     0
  0
VIEW
  5
AE3
330
6
100
AcDbSymbolTableRecord
100
AcDbViewTableRecord
  2
AM_VIEW3
 70
     0
 40
296.9999999999998
 10
1865.179636530953
 20
1871.953332028124
 41
452.0542244640605
 11
0.0
 21
0.0
 31
1.0
 12
0.0
 22
0.0
 32
0.0
 42
50.0
 43
-1370.695619172058
 44
-1370.695619172058
 50
0.0
 71
    16
281
     0
 72
     0
  0
VIEW
  5
AE4
330
6
100
AcDbSymbolTableRecord
100
AcDbViewTableRecord
  2
AM_VIEW4
 70
     0
 40
296.9999999999998
 10
2253.125412066893
 20
1871.953332028124
 41
452.0542244640603
 11
0.0
 21
0.0
 31
1.0
 12
0.0
 22
0.0
 32
0.0
 42
50.0
 43
-1370.695619172058
 44
-1370.695619172058
 50
0.0
 71
    16
281
     0
 72
     0
  0
VIEW
  5
AE5
330
6
100
AcDbSymbolTableRecord
100
AcDbViewTableRecord
  2
AM_VIEW5
 70
     0
 40
297.0
 10
2059.152524298923
 20
2020.453332028124
 41
452.0542244640603
 11
0.0
 21
0.0
 31
1.0
 12
0.0
 22
0.0
 32
0.0
 42
50.0
 43
-1370.695619172058
 44
-1370.695619172058
 50
0.0
 71
    16
281
     0
 72
     0
  0
VIEW
  5
AE6
330
6
100
AcDbSymbolTableRecord
100
AcDbViewTableRecord
  2
AM_VIEW6
 70
     0
 40
593.9940599999999
 10
2059.152524298923
 20
2020.453332028124
 41
904.0994078436314
 11
0.0
 21
0.0
 31
1.0
 12
0.0
 22
0.0
 32
0.0
 42
50.0
 43
-1370.695619172058
 44
-1370.695619172058
 50
0.0
 71
    16
281
     0
 72
     0
  0
ENDTAB
  0
TABLE
  2
UCS
  5
7
330
0
100
AcDbSymbolTable
 70
     0
  0
ENDTAB
  0
TABLE
  2
APPID
  5
9
330
0
100
AcDbSymbolTable
 70
   126
  0
APPID
  5
12
330
9
100
AcDbSymbolTableRecord
100
AcDbRegAppTableRecord
  2
ACAD
 70
     0
  0
APPID
  5
30
330
9
100
AcDbSymbolTableRecord
100
AcDbRegAppTableRecord
  2
MCAD_NO_VIS
 70
     0
  0
APPID
  5
31
330
9
100
AcDbSymbolTableRecord
100
AcDbRegAppTableRecord
  2
ACAD_TEMP_GRAPHIC
 70
     0
  0
APPID
  5
44
330
9
100
AcDbSymbolTableRecord
100
AcDbRegAppTableRecord
  2
ACATTRIBSERVICES
 70
     0
  0
APPID
  5
7A1
330
9
100
AcDbSymbolTableRecord
100
AcDbRegAppTableRecord
  2
GENIUS_GENDIMSH_14
 70
     0
  0
APPID
  5
A49
330
9
100
AcDbSymbolTableRecord
100
AcDbRegAppTableRecord
  2
GENIUS_GENREC_14
 70
     0
  0
APPID
  5
A4A
330
9
100
AcDbSymbolTableRecord
100
AcDbRegAppTableRecord
  2
GENIUS_GENOBJ-N-REC_13
 70
     0
  0
APPID
  5
A4B
330
9
100
AcDbSymbolTableRecord
100
AcDbRegAppTableRecord
  2
GENIUS_GENODEF_13
 70
     0
  0
APPID
  5
A4C
330
9
100
AcDbSymbolTableRecord
100
AcDbRegAppTableRecord
  2
DCO15
 70
     0
  0
APPID
  5
ADC
330
9
100
AcDbSymbolTableRecord
100
AcDbRegAppTableRecord
  2
GENIUS_GENOLIS_13
 70
     0
  0
APPID
  5
ADD
330
9
100
AcDbSymbolTableRecord
100
AcDbRegAppTableRecord
  2
GENIUS_GENOENT_13
 70
     0
  0
APPID
  5
ADE
330
9
100
AcDbSymbolTableRecord
100
AcDbRegAppTableRecord
  2
GENIUS_GENOBJ-N-TIT_13
 70
     0
  0
APPID
  5
ADF
330
9
100
AcDbSymbolTableRecord
100
AcDbRegAppTableRecord
  2
GENIUS_GENTITLE_13
 70
     0
  0
APPID
  5
AE0
330
9
100
AcDbSymbolTableRecord
100
AcDbRegAppTableRecord
  2
GENIUS_GENOREF_13
 70
     0
  0
APPID
  5
AE7
330
9
100
AcDbSymbolTableRecord
100
AcDbRegAppTableRecord
  2
GENIUS_GENSCREG_15
 70
     0
  0
APPID
  5
AE8
330
9
100
AcDbSymbolTableRecord
100
AcDbRegAppTableRecord
  2
GENIUS_GENOBJ-N-SDF_13
 70
     0
  0
APPID
  5
FAF
330
9
100
AcDbSymbolTableRecord
100
AcDbRegAppTableRecord
  2
GENIUS_GENBLLY_14
 70
     0
  0
APPID
  5
FB0
330
9
100
AcDbSymbolTableRecord
100
AcDbRegAppTableRecord
  2
GENIUS_GENTRA_14
 70
     0
  0
APPID
  5
1285
330
9
100
AcDbSymbolTableRecord
100
AcDbRegAppTableRecord
  2
GENIUS_GENDTOL_13
 70
     0
  0
APPID
  5
142D
330
9
100
AcDbSymbolTableRecord
100
AcDbRegAppTableRecord
  2
GENIUS_GENOBJ-N-CEN_13
 70
     0
  0
APPID
  5
1AB5
330
9
100
AcDbSymbolTableRecord
100
AcDbRegAppTableRecord
  2
GENIUS_GENOBJ-N-CRS_13
 70
     0
  0
APPID
  5
1B36
330
9
100
AcDbSymbolTableRecord
100
AcDbRegAppTableRecord
  2
GENIUS_GENOBJ-N-HTC_13
 70
     0
  0
APPID
  5
1B37
330
9
100
AcDbSymbolTableRecord
100
AcDbRegAppTableRecord
  2
GENIUS_GENHATCH_13
 70
     0
  0
APPID
  5
216D
330
9
100
AcDbSymbolTableRecord
100
AcDbRegAppTableRecord
  2
GENIUS_GENOBJ-N-FIL_13
 70
     0
  0
APPID
  5
2356
330
9
100
AcDbSymbolTableRecord
100
AcDbRegAppTableRecord
  2
GEVID990412420
 70
     0
  0
APPID
  5
2357
330
9
100
AcDbSymbolTableRecord
100
AcDbRegAppTableRecord
  2
GEVDC
 70
     0
  0
APPID
  5
2358
330
9
100
AcDbSymbolTableRecord
100
AcDbRegAppTableRecord
  2
GEVCON
 70
     0
  0
APPID
  5
235B
330
9
100
AcDbSymbolTableRecord
100
AcDbRegAppTableRecord
  2
GEVRADREF
 70
     0
  0
APPID
  5
2360
330
9
100
AcDbSymbolTableRecord
100
AcDbRegAppTableRecord
  2
GENIUS_GENBH_13
 70
     0
  0
APPID
  5
2362
330
9
100
AcDbSymbolTableRecord
100
AcDbRegAppTableRecord
  2
GENIUS_GENOBJ-NBEHI-BHF_13
 70
     0
  0
APPID
  5
2364
330
9
100
AcDbSymbolTableRecord
100
AcDbRegAppTableRecord
  2
GENIUS_GENOBJ-NBEHI-BHB_13
 70
     0
  0
APPID
  5
2379
330
9
100
AcDbSymbolTableRecord
100
AcDbRegAppTableRecord
  2
GENIUS_GENOBJ-F-SCPASSM_13
 70
     0
  0
APPID
  5
3D74
330
9
100
AcDbSymbolTableRecord
100
AcDbRegAppTableRecord
  2
GENIUS_GENDIM_13
 70
     0
  0
APPID
  5
3D76
330
9
100
AcDbSymbolTableRecord
100
AcDbRegAppTableRecord
  2
GENIUS_GE3DTOL_13
 70
     0
  0
APPID
  5
3D9C
330
9
100
AcDbSymbolTableRecord
100
AcDbRegAppTableRecord
  2
AD_DRAW
 70
     0
  0
APPID
  5
3DE8
330
9
100
AcDbSymbolTableRecord
100
AcDbRegAppTableRecord
  2
ASURF_PCURVE_APPNAME
 70
     0
  0
APPID
  5
3DED
330
9
100
AcDbSymbolTableRecord
100
AcDbRegAppTableRecord
  2
AMG_3D2D_5.0
 70
     0
  0
APPID
  5
3E1B
330
9
100
AcDbSymbolTableRecord
100
AcDbRegAppTableRecord
  2
DESIGNERASSEMBLIES
 70
     0
  0
APPID
  5
3E20
330
9
100
AcDbSymbolTableRecord
100
AcDbRegAppTableRecord
  2
ACADM_DIM_EDIT
 70
     0
  0
APPID
  5
3E21
330
9
100
AcDbSymbolTableRecord
100
AcDbRegAppTableRecord
  2
AMDT_DM_ADJ
 70
     0
  0
APPID
  5
4143
330
9
100
AcDbSymbolTableRecord
100
AcDbRegAppTableRecord
  2
GENIUS_GENFIL_13
 70
     0
  0
APPID
  5
4144
330
9
100
AcDbSymbolTableRecord
100
AcDbRegAppTableRecord
  2
GENIUS_GENOBJ-N-CHA_13
 70
     0
  0
APPID
  5
4E17
330
9
100
AcDbSymbolTableRecord
100
AcDbRegAppTableRecord
  2
GEVID1008153417
 70
     0
  0
APPID
  5
4E58
330
9
100
AcDbSymbolTableRecord
100
AcDbRegAppTableRecord
  2
GEVID1008153418
 70
     0
  0
APPID
  5
4E5E
330
9
100
AcDbSymbolTableRecord
100
AcDbRegAppTableRecord
  2
GEVID1008153419
 70
     0
  0
APPID
  5
4E64
330
9
100
AcDbSymbolTableRecord
100
AcDbRegAppTableRecord
  2
GEVID1008153420
 70
     0
  0
APPID
  5
4E75
330
9
100
AcDbSymbolTableRecord
100
AcDbRegAppTableRecord
  2
GEVID1008153421
 70
     0
  0
APPID
  5
4EB7
330
9
100
AcDbSymbolTableRecord
100
AcDbRegAppTableRecord
  2
GENIUS_AMGTXT_16
 70
     0
  0
APPID
  5
7645
330
9
100
AcDbSymbolTableRecord
100
AcDbRegAppTableRecord
  2
GENIUS_GENOBJ-N-DIM_13
 70
     0
  0
APPID
  5
E796
330
9
100
AcDbSymbolTableRecord
100
AcDbRegAppTableRecord
  2
GENIUS_GENOBJ-N-ZOO_13
 70
     0
  0
APPID
  5
E797
330
9
100
AcDbSymbolTableRecord
100
AcDbRegAppTableRecord
  2
GENIUS_GENZOO_16
 70
     0
  0
APPID
  5
FD37
330
9
100
AcDbSymbolTableRecord
100
AcDbRegAppTableRecord
  2
ACAD_DSTYLE_DIMARC_LENGTH_SYMBOL
 70
     0
  0
APPID
  5
FD38
330
9
100
AcDbSymbolTableRecord
100
AcDbRegAppTableRecord
  2
ACAD_DSTYLE_DIMJOGGED_JOGANGLE_SYMBOL
 70
     0
  0
APPID
  5
FD7F
330
9
100
AcDbSymbolTableRecord
100
AcDbRegAppTableRecord
  2
ACAD_PSEXT
 70
     0
  0
APPID
  5
13617
330
9
100
AcDbSymbolTableRecord
100
AcDbRegAppTableRecord
  2
AcAecLayerStandard
 70
     0
  0
APPID
  5
157D2
330
9
100
AcDbSymbolTableRecord
100
AcDbRegAppTableRecord
  2
GENIUS_GENCEN_19
 70
     0
  0
APPID
  5
15B8F
330
9
100
AcDbSymbolTableRecord
100
AcDbRegAppTableRecord
  2
GENLAYCOLOR
 70
     0
  0
APPID
  5
165A0
330
9
100
AcDbSymbolTableRecord
100
AcDbRegAppTableRecord
  2
ACAD_EXEMPT_FROM_CAD_STANDARDS
 70
     0
  0
APPID
  5
17011
330
9
100
AcDbSymbolTableRecord
100
AcDbRegAppTableRecord
  2
AMG_2DHIDE
 70
     0
  0
APPID
  5
17012
330
9
100
AcDbSymbolTableRecord
100
AcDbRegAppTableRecord
  2
AMG_2DSTRUCT_BTR
 70
     0
  0
APPID
  5
1701F
330
9
100
AcDbSymbolTableRecord
100
AcDbRegAppTableRecord
  2
GEVID1152152947
 70
     0
  0
APPID
  5
1703F
330
9
100
AcDbSymbolTableRecord
100
AcDbRegAppTableRecord
  2
ACADM_2DVIEW_IGN_NOTIFY
 70
     0
  0
APPID
  5
171EE
330
9
100
AcDbSymbolTableRecord
100
AcDbRegAppTableRecord
  2
GEVID1152152948
 70
     0
  0
APPID
  5
19B6A
330
9
100
AcDbSymbolTableRecord
100
AcDbRegAppTableRecord
  2
GEVID1152586001
 70
     0
  0
APPID
  5
19BEB
330
9
100
AcDbSymbolTableRecord
100
AcDbRegAppTableRecord
  2
GEVID1152586002
 70
     0
  0
APPID
  5
19BED
330
9
100
AcDbSymbolTableRecord
100
AcDbRegAppTableRecord
  2
GENIUS_GEFSPRING_13
 70
     0
  0
APPID
  5
31BE8
330
9
100
AcDbSymbolTableRecord
100
AcDbRegAppTableRecord
  2
GEVID1153219131
 70
     0
  0
APPID
  5
31BF3
330
9
100
AcDbSymbolTableRecord
100
AcDbRegAppTableRecord
  2
GEVID1153219132
 70
     0
  0
APPID
  5
31D4D
330
9
100
AcDbSymbolTableRecord
100
AcDbRegAppTableRecord
  2
GEVID1153219133
 70
     0
  0
APPID
  5
31D7C
330
9
100
AcDbSymbolTableRecord
100
AcDbRegAppTableRecord
  2
GEVID1153219134
 70
     0
  0
APPID
  5
31D8A
330
9
100
AcDbSymbolTableRecord
100
AcDbRegAppTableRecord
  2
GEVID1153219135
 70
     0
  0
APPID
  5
3219D
330
9
100
AcDbSymbolTableRecord
100
AcDbRegAppTableRecord
  2
GEVID1153219136
 70
     0
  0
APPID
  5
322D2
330
9
100
AcDbSymbolTableRecord
100
AcDbRegAppTableRecord
  2
GEVID1153219137
 70
     0
  0
APPID
  5
33905
330
9
100
AcDbSymbolTableRecord
100
AcDbRegAppTableRecord
  2
GEVID1154766077
 70
     0
  0
APPID
  5
33908
330
9
100
AcDbSymbolTableRecord
100
AcDbRegAppTableRecord
  2
GEVID1154766078
 70
     0
  0
APPID
  5
3397D
330
9
100
AcDbSymbolTableRecord
100
AcDbRegAppTableRecord
  2
GEVID1154766079
 70
     0
  0
APPID
  5
33980
330
9
100
AcDbSymbolTableRecord
100
AcDbRegAppTableRecord
  2
GEVID1154766080
 70
     0
  0
APPID
  5
33AF7
330
9
100
AcDbSymbolTableRecord
100
AcDbRegAppTableRecord
  2
GEVID1154766082
 70
     0
  0
APPID
  5
33BB4
330
9
100
AcDbSymbolTableRecord
100
AcDbRegAppTableRecord
  2
GEVID1154766083
 70
     0
  0
APPID
  5
3EE6B
330
9
100
AcDbSymbolTableRecord
100
AcDbRegAppTableRecord
  2
GEVID1158244683
 70
     0
  0
APPID
  5
3EEEA
330
9
100
AcDbSymbolTableRecord
100
AcDbRegAppTableRecord
  2
GEVID1158244684
 70
     0
  0
APPID
  5
437DF
330
9
100
AcDbSymbolTableRecord
100
AcDbRegAppTableRecord
  2
GEVID1158292150
 70
     0
  0
APPID
  5
43E72
330
9
100
AcDbSymbolTableRecord
100
AcDbRegAppTableRecord
  2
GEVID1158292151
 70
     0
  0
APPID
  5
43F51
330
9
100
AcDbSymbolTableRecord
100
AcDbRegAppTableRecord
  2
GEVID1158292152
 70
     0
  0
APPID
  5
43F6B
330
9
100
AcDbSymbolTableRecord
100
AcDbRegAppTableRecord
  2
GEVID1158292153
 70
     0
  0
APPID
  5
43FE9
330
9
100
AcDbSymbolTableRecord
100
AcDbRegAppTableRecord
  2
GEVID1158292154
 70
     0
  0
APPID
  5
4431E
330
9
100
AcDbSymbolTableRecord
100
AcDbRegAppTableRecord
  2
GEVID1158292155
 70
     0
  0
APPID
  5
44336
330
9
100
AcDbSymbolTableRecord
100
AcDbRegAppTableRecord
  2
GEVID1158292156
 70
     0
  0
APPID
  5
44341
330
9
100
AcDbSymbolTableRecord
100
AcDbRegAppTableRecord
  2
GEVID1158292157
 70
     0
  0
APPID
  5
4434D
330
9
100
AcDbSymbolTableRecord
100
AcDbRegAppTableRecord
  2
GEVID1158292158
 70
     0
  0
APPID
  5
44908
330
9
100
AcDbSymbolTableRecord
100
AcDbRegAppTableRecord
  2
GEVID1158292160
 70
     0
  0
APPID
  5
44B97
330
9
100
AcDbSymbolTableRecord
100
AcDbRegAppTableRecord
  2
GEVID1158292161
 70
     0
  0
APPID
  5
50A05
330
9
100
AcDbSymbolTableRecord
100
AcDbRegAppTableRecord
  2
GEVID1158565859
 70
     0
  0
APPID
  5
50AA9
330
9
100
AcDbSymbolTableRecord
100
AcDbRegAppTableRecord
  2
GEVID1158565860
 70
     0
  0
APPID
  5
50BD0
330
9
100
AcDbSymbolTableRecord
100
AcDbRegAppTableRecord
  2
GEVID1158565861
 70
     0
  0
APPID
  5
515ED
330
9
100
AcDbSymbolTableRecord
100
AcDbRegAppTableRecord
  2
GEVID1158565862
 70
     0
  0
APPID
  5
57A91
330
9
100
AcDbSymbolTableRecord
100
AcDbRegAppTableRecord
  2
GEVID1159925413
 70
     0
  0
APPID
  5
57B3D
330
9
100
AcDbSymbolTableRecord
100
AcDbRegAppTableRecord
  2
GEVID1159925934
 70
     0
  0
APPID
  5
57CAF
330
9
100
AcDbSymbolTableRecord
100
AcDbRegAppTableRecord
  2
GEVID1159925935
 70
     0
  0
APPID
  5
59C8E
330
9
100
AcDbSymbolTableRecord
100
AcDbRegAppTableRecord
  2
GEVID1159925936
 70
     0
  0
APPID
  5
59D0D
330
9
100
AcDbSymbolTableRecord
100
AcDbRegAppTableRecord
  2
GEVID1159925937
 70
     0
  0
APPID
  5
5A9D4
330
9
100
AcDbSymbolTableRecord
100
AcDbRegAppTableRecord
  2
GEVID1159925938
 70
     0
  0
APPID
  5
72661
330
9
100
AcDbSymbolTableRecord
100
AcDbRegAppTableRecord
  2
GEVID1160454489
 70
     0
  0
APPID
  5
72BD0
330
9
100
AcDbSymbolTableRecord
100
AcDbRegAppTableRecord
  2
GEVID1160454490
 70
     0
  0
APPID
  5
72CB4
330
9
100
AcDbSymbolTableRecord
100
AcDbRegAppTableRecord
  2
GEVID1160454491
 70
     0
  0
APPID
  5
72D12
330
9
100
AcDbSymbolTableRecord
100
AcDbRegAppTableRecord
  2
GEVID1160454492
 70
     0
  0
APPID
  5
72EF2
330
9
100
AcDbSymbolTableRecord
100
AcDbRegAppTableRecord
  2
GEVID1160454493
 70
     0
  0
APPID
  5
8F518
330
9
100
AcDbSymbolTableRecord
100
AcDbRegAppTableRecord
  2
GEVID1161094083
 70
     0
  0
APPID
  5
8F575
330
9
100
AcDbSymbolTableRecord
100
AcDbRegAppTableRecord
  2
GEVID1161094084
 70
     0
  0
APPID
  5
8F920
330
9
100
AcDbSymbolTableRecord
100
AcDbRegAppTableRecord
  2
GEVID1161094085
 70
     0
  0
APPID
  5
8F984
330
9
100
AcDbSymbolTableRecord
100
AcDbRegAppTableRecord
  2
GEVID1161094086
 70
     0
  0
APPID
  5
93CEC
330
9
100
AcDbSymbolTableRecord
100
AcDbRegAppTableRecord
  2
GEVID1161129444
 70
     0
  0
APPID
  5
94059
330
9
100
AcDbSymbolTableRecord
100
AcDbRegAppTableRecord
  2
GEVID1161129445
 70
     0
  0
APPID
  5
95700
330
9
100
AcDbSymbolTableRecord
100
AcDbRegAppTableRecord
  2
GEVID1161129446
 70
     0
  0
APPID
  5
958F5
330
9
100
AcDbSymbolTableRecord
100
AcDbRegAppTableRecord
  2
GEVID1161129447
 70
     0
  0
APPID
  5
9B4D8
330
9
100
AcDbSymbolTableRecord
100
AcDbRegAppTableRecord
  2
GEVID1161232736
 70
     0
  0
APPID
  5
AF7E7
330
9
100
AcDbSymbolTableRecord
100
AcDbRegAppTableRecord
  2
GEVID1162270285
 70
     0
  0
APPID
  5
AF896
330
9
100
AcDbSymbolTableRecord
100
AcDbRegAppTableRecord
  2
GEVID1162270286
 70
     0
  0
APPID
  5
AFEAE
330
9
100
AcDbSymbolTableRecord
100
AcDbRegAppTableRecord
  2
GEVID1162270287
 70
     0
  0
APPID
  5
B0EF8
330
9
100
AcDbSymbolTableRecord
100
AcDbRegAppTableRecord
  2
GEVID1162270288
 70
     0
  0
APPID
  5
B0F80
330
9
100
AcDbSymbolTableRecord
100
AcDbRegAppTableRecord
  2
GEVID1162270289
 70
     0
  0
APPID
  5
B1F00
330
9
100
AcDbSymbolTableRecord
100
AcDbRegAppTableRecord
  2
GEVID1162270290
 70
     0
  0
APPID
  5
CBE25
330
9
100
AcDbSymbolTableRecord
100
AcDbRegAppTableRecord
  2
GEVID1232520810
 70
     0
  0
APPID
  5
CBE3B
330
9
100
AcDbSymbolTableRecord
100
AcDbRegAppTableRecord
  2
GENIUS_GENCFG_13
 70
     0
1001
GENIUS_GENCFG0_13
1000
GEN
  0
APPID
  5
CBE3C
330
9
100
AcDbSymbolTableRecord
100
AcDbRegAppTableRecord
  2
GENIUS_GENCFG0_13
 70
     0
1001
GENIUS_GENCFG_13
1071
1232520816
1000
CBE3C
1000
GEN
1070
     0
  0
APPID
  5
D3545
330
9
100
AcDbSymbolTableRecord
100
AcDbRegAppTableRecord
  2
ACAD_DSTYLE_DIMRADIAL_EXTENSION
 70
     0
  0
ENDTAB
  0
TABLE
  2
DIMSTYLE
  5
A
330
0
100
AcDbSymbolTable
 70
    32
100
AcDbDimStyleTable
 71
     4
340
2515
340
71
340
6C
340
FA9
  0
DIMSTYLE
105
6C
330
A
100
AcDbSymbolTableRecord
100
AcDbDimStyleTableRecord
  2
AM_ISO
 70
     0
  4
"
 41
2.5
 42
1.0
 43
10.0
 44
1.0
 47
0.1
 48
0.1
 73
     0
 74
     0
 77
     1
 78
     8
 79
     2
140
3.5
141
0.0
143
0.0393701
146
0.71
147
1.5
172
     1
176
   256
177
   256
178
     2
271
     2
272
     3
274
     4
283
     0
284
     8
340
11
371
    -1
372
    -1
1001
ACAD_DSTYLE_DIMJOGGED_JOGANGLE_SYMBOL
1070
   384
1040
0.7853981633974483
1001
ACAD_DSTYLE_DIMARC_LENGTH_SYMBOL
1070
   379
1070
     1
  0
DIMSTYLE
105
6D
330
A
100
AcDbSymbolTableRecord
100
AcDbDimStyleTableRecord
  2
AM_ISO$3
 70
     0
  4
"
 41
0.8
 42
1.0
 43
10.0
 44
1.0
 47
0.1
 48
0.1
 73
     0
 77
     1
 78
     8
 79
     2
140
3.2
141
0.0
143
0.0393701
146
0.71
147
0.9999999999999996
176
   256
177
   256
178
     2
271
     2
272
     2
283
     0
284
     8
288
     1
289
     0
340
11
342
6C4
371
    -1
372
    -1
1001
ACAD_DSTYLE_DIMJOGGED_JOGANGLE_SYMBOL
1070
   384
1040
0.7853981633974483
1001
ACAD_DSTYLE_DIMARC_LENGTH_SYMBOL
1070
   379
1070
     1
  0
DIMSTYLE
105
6E
330
A
100
AcDbSymbolTableRecord
100
AcDbDimStyleTableRecord
  2
AM_ISO$4
 70
     0
  4
"
 41
0.8
 42
1.0
 43
10.0
 44
1.0
 47
0.1
 48
0.1
 73
     0
 77
     1
 78
     8
 79
     2
140
3.2
141
0.0
143
0.0393701
146
0.71
147
1.0
173
     1
176
   256
177
   256
178
     2
271
     2
272
     2
283
     0
284
     8
288
     1
289
     0
340
11
344
6C4
371
    -1
372
    -1
1001
ACAD_DSTYLE_DIMJOGGED_JOGANGLE_SYMBOL
1070
   384
1040
0.7853981633974483
1001
ACAD_DSTYLE_DIMARC_LENGTH_SYMBOL
1070
   379
1070
     1
  0
DIMSTYLE
105
6F
330
A
100
AcDbSymbolTableRecord
100
AcDbDimStyleTableRecord
  2
AM_ISO$6
 70
     0
  4
"
 41
0.8
 42
1.0
 43
10.0
 44
1.0
 47
0.1
 48
0.1
 73
     0
 74
     0
 78
     8
 79
     2
140
3.2
141
0.0
143
0.0393701
146
0.71
147
1.0
172
     1
176
   256
177
   256
178
     2
271
     2
272
     2
283
     0
284
     8
340
11
341
6C4
371
    -1
372
    -1
1001
ACAD_DSTYLE_DIMJOGGED_JOGANGLE_SYMBOL
1070
   384
1040
0.7853981633974483
1001
ACAD_DSTYLE_DIMARC_LENGTH_SYMBOL
1070
   379
1070
     1
  0
DIMSTYLE
105
70
330
A
100
AcDbSymbolTableRecord
100
AcDbDimStyleTableRecord
  2
AM_ISO$7
 70
     0
  4
"
 41
0.8
 42
1.0
 43
10.0
 44
1.0
 47
0.1
 48
0.1
 73
     0
 74
     0
 77
     1
 78
     8
 79
     2
140
3.2
141
0.0
143
0.0393701
146
0.71
147
1.0
172
     1
176
   256
177
   256
178
     2
271
     2
272
     2
283
     0
284
     8
340
11
341
6C4
342
6C4
371
    -1
372
    -1
1001
ACAD_DSTYLE_DIMJOGGED_JOGANGLE_SYMBOL
1070
   384
1040
0.7853981633974483
1001
ACAD_DSTYLE_DIMARC_LENGTH_SYMBOL
1070
   379
1070
     1
  0
DIMSTYLE
105
71
330
A
100
AcDbSymbolTableRecord
100
AcDbDimStyleTableRecord
  2
AM_ISO$SF
 70
     0
  4
"
 41
0.8
 42
1.0
 43
10.0
 44
1.0
 47
0.1
 48
0.1
 73
     0
 74
     0
 75
     1
 76
     1
 77
     1
 78
     8
 79
     2
140
3.2
141
0.0
143
0.0393701
146
0.71
147
1.0
172
     1
176
   256
177
   256
178
     2
271
     2
272
     2
283
     0
284
     8
340
11
341
6C4
342
6C4
371
    -1
372
    -1
1001
ACAD_DSTYLE_DIMJOGGED_JOGANGLE_SYMBOL
1070
   384
1040
0.7853981633974483
1001
ACAD_DSTYLE_DIMARC_LENGTH_SYMBOL
1070
   379
1070
     1
  0
DIMSTYLE
105
76
330
A
100
AcDbSymbolTableRecord
100
AcDbDimStyleTableRecord
  2
AM_ISO$SH
 70
     0
  4
"
 41
0.8
 42
1.0
 43
10.0
 44
1.0
 47
0.1
 48
0.1
 73
     0
 74
     0
 75
     1
 76
     1
 77
     1
 78
     8
 79
     2
140
3.2
141
0.0
143
0.0393701
144
2.0
146
0.71
147
1.0
172
     1
176
   256
177
   256
178
     2
271
     2
272
     2
283
     0
284
     8
340
11
341
6C4
342
6C4
371
    -1
372
    -1
1001
ACAD_DSTYLE_DIMJOGGED_JOGANGLE_SYMBOL
1070
   384
1040
0.7853981633974483
1001
ACAD_DSTYLE_DIMARC_LENGTH_SYMBOL
1070
   379
1070
     1
  0
DIMSTYLE
105
6BE
330
A
100
AcDbSymbolTableRecord
100
AcDbDimStyleTableRecord
  2
AM_ISO$0
 70
     0
  4
"
 41
0.8
 42
1.0
 43
10.0
 44
1.0
 47
0.1
 48
0.1
 73
     0
 74
     0
 77
     1
 78
     8
 79
     2
140
3.2
141
0.0
143
0.0393701
146
0.71
147
0.9999999999999996
172
     1
176
   256
177
   256
178
     2
271
     2
272
     2
283
     0
284
     8
340
11
341
6C4
342
6C4
371
    -1
372
    -1
1001
ACAD_DSTYLE_DIMJOGGED_JOGANGLE_SYMBOL
1070
   384
1040
0.7853981633974483
1001
ACAD_DSTYLE_DIMARC_LENGTH_SYMBOL
1070
   379
1070
     1
  0
DIMSTYLE
105
6BF
330
A
100
AcDbSymbolTableRecord
100
AcDbDimStyleTableRecord
  2
AM_ISO$2
 70
     0
  4
"
 41
0.8
 42
1.0
 43
10.0
 44
1.0
 47
0.1
 48
0.1
 73
     0
 74
     0
 77
     3
 78
     8
 79
     2
140
3.200000000000001
141
0.0
143
0.0393701
146
0.71
147
0.9999999999999996
172
     1
176
   256
177
   256
178
     2
271
     2
272
     2
283
     0
284
     8
340
11
342
6C4
371
    -1
372
    -1
1001
ACAD_DSTYLE_DIMJOGGED_JOGANGLE_SYMBOL
1070
   384
1040
0.7853981633974483
1001
ACAD_DSTYLE_DIMARC_LENGTH_SYMBOL
1070
   379
1070
     1
  0
DIMSTYLE
105
FA9
330
A
100
AcDbSymbolTableRecord
100
AcDbDimStyleTableRecord
  2
AM_ANSI
 70
     0
  4
mm
 41
0.1
 42
0.05
 43
0.5
 44
0.1
 47
0.1
 48
0.1
 78
     7
 79
     2
140
0.12
141
0.0
146
0.71
147
0.06
176
   256
177
   256
178
     2
274
     4
284
     7
340
11
371
    -1
372
    -1
1001
ACAD_DSTYLE_DIMJOGGED_JOGANGLE_SYMBOL
1070
   384
1040
0.7853981633974483
1001
ACAD_DSTYLE_DIMARC_LENGTH_SYMBOL
1070
   379
1070
     1
  0
DIMSTYLE
105
FAA
330
A
100
AcDbSymbolTableRecord
100
AcDbDimStyleTableRecord
  2
AM_ANSI$3
 70
     0
  4
mm
 41
0.1
 42
0.05
 43
0.5
 44
0.1
 47
0.1
 48
0.1
 78
     7
 79
     2
140
0.12
141
0.0
146
0.71
147
0.06
176
   256
177
   256
178
     2
274
     4
284
     7
288
     1
289
     0
340
11
371
    -1
372
    -1
1001
ACAD_DSTYLE_DIMJOGGED_JOGANGLE_SYMBOL
1070
   384
1040
0.7853981633974483
1001
ACAD_DSTYLE_DIMARC_LENGTH_SYMBOL
1070
   379
1070
     1
  0
DIMSTYLE
105
FAB
330
A
100
AcDbSymbolTableRecord
100
AcDbDimStyleTableRecord
  2
AM_ANSI$4
 70
     0
  4
mm
 41
0.1
 42
0.05
 43
0.5
 44
0.1
 47
0.1
 48
0.1
 78
     7
 79
     2
140
0.12
141
0.0
146
0.71
147
0.06
176
   256
177
   256
178
     2
274
     4
284
     7
288
     1
289
     0
340
11
371
    -1
372
    -1
1001
ACAD_DSTYLE_DIMJOGGED_JOGANGLE_SYMBOL
1070
   384
1040
0.7853981633974483
1001
ACAD_DSTYLE_DIMARC_LENGTH_SYMBOL
1070
   379
1070
     1
  0
DIMSTYLE
105
FAC
330
A
100
AcDbSymbolTableRecord
100
AcDbDimStyleTableRecord
  2
AM_ANSI$7
 70
     0
  4
mm
 41
0.1
 42
0.05
 43
0.5
 44
0.1
 47
0.1
 48
0.1
 78
     7
 79
     2
140
0.24
141
0.0
146
0.71
147
0.06
176
   256
177
   256
178
     2
274
     4
284
     7
340
11
371
    -1
372
    -1
1001
ACAD_DSTYLE_DIMJOGGED_JOGANGLE_SYMBOL
1070
   384
1040
0.7853981633974483
1001
ACAD_DSTYLE_DIMARC_LENGTH_SYMBOL
1070
   379
1070
     1
  0
DIMSTYLE
105
FAD
330
A
100
AcDbSymbolTableRecord
100
AcDbDimStyleTableRecord
  2
AM_ANSI$SF
 70
     0
  4
mm
 41
0.1
 42
0.05
 43
0.5
 44
0.1
 47
0.1
 48
0.1
 75
     1
 76
     1
 78
     7
 79
     2
140
0.12
141
0.0
146
0.71
147
0.06
176
   256
177
   256
178
     2
274
     4
284
     7
340
11
371
    -1
372
    -1
1001
ACAD_DSTYLE_DIMJOGGED_JOGANGLE_SYMBOL
1070
   384
1040
0.7853981633974483
1001
ACAD_DSTYLE_DIMARC_LENGTH_SYMBOL
1070
   379
1070
     1
  0
DIMSTYLE
105
FAE
330
A
100
AcDbSymbolTableRecord
100
AcDbDimStyleTableRecord
  2
AM_ANSI$SH
 70
     0
  4
mm
 41
0.1
 42
0.05
 43
0.5
 44
0.1
 47
0.1
 48
0.1
 75
     1
 76
     1
 78
     7
 79
     2
140
0.12
141
0.0
146
0.71
147
0.06
173
     1
176
   256
177
   256
178
     2
274
     4
284
     7
340
11
343
72
371
    -1
372
    -1
1001
ACAD_DSTYLE_DIMJOGGED_JOGANGLE_SYMBOL
1070
   384
1040
0.7853981633974483
1001
ACAD_DSTYLE_DIMARC_LENGTH_SYMBOL
1070
   379
1070
     1
  0
DIMSTYLE
105
2515
330
A
100
AcDbSymbolTableRecord
100
AcDbDimStyleTableRecord
  2
SYS
 70
     0
  4
"
 41
1.0
 42
1.0
 43
10.0
 44
1.0
 47
0.1
 48
0.1
 73
     0
 74
     0
 77
     1
 78
     8
 79
     2
140
3.5
141
0.0
143
0.0393701
146
0.71
147
1.5
172
     1
176
   256
177
   256
178
     7
271
     2
272
     2
283
     0
284
     8
340
11
371
    -1
372
    -1
1001
ACAD_DSTYLE_DIMJOGGED_JOGANGLE_SYMBOL
1070
   384
1040
0.7853981633974483
1001
ACAD_DSTYLE_DIMARC_LENGTH_SYMBOL
1070
   379
1070
     1
  0
DIMSTYLE
105
2516
330
A
100
AcDbSymbolTableRecord
100
AcDbDimStyleTableRecord
  2
SYS$3
 70
     0
  4
"
 41
2.0
 42
1.0
 43
10.0
 44
1.0
 47
0.1
 48
0.1
 73
     0
 77
     1
 78
     8
 79
     2
140
3.5
141
0.0
143
0.0393701
146
0.71
147
1.5
176
   256
177
   256
178
     2
271
     2
272
     2
283
     0
284
     8
288
     1
340
11
342
A66
371
    -1
372
    -1
1001
ACAD_DSTYLE_DIMJOGGED_JOGANGLE_SYMBOL
1070
   384
1040
0.7853981633974483
1001
ACAD_DSTYLE_DIMARC_LENGTH_SYMBOL
1070
   379
1070
     1
  0
DIMSTYLE
105
2517
330
A
100
AcDbSymbolTableRecord
100
AcDbDimStyleTableRecord
  2
SYS$4
 70
     0
  4
"
 41
2.0
 42
1.0
 43
10.0
 44
1.0
 47
0.1
 48
0.1
 73
     0
 77
     1
 78
     8
 79
     2
140
3.5
141
0.0
143
0.0393701
146
0.71
147
1.5
173
     1
176
   256
177
   256
178
     2
271
     2
272
     2
283
     0
284
     8
288
     1
340
11
344
A66
371
    -1
372
    -1
1001
ACAD_DSTYLE_DIMJOGGED_JOGANGLE_SYMBOL
1070
   384
1040
0.7853981633974483
1001
ACAD_DSTYLE_DIMARC_LENGTH_SYMBOL
1070
   379
1070
     1
  0
DIMSTYLE
105
2518
330
A
100
AcDbSymbolTableRecord
100
AcDbDimStyleTableRecord
  2
SYS$6
 70
     0
  4
"
 41
2.0
 42
1.0
 43
10.0
 44
1.0
 47
0.1
 48
0.1
 73
     0
 74
     0
 78
     8
 79
     2
140
3.5
141
0.0
143
0.0393701
146
0.71
147
1.5
172
     1
176
   256
177
   256
178
     2
271
     2
272
     2
283
     0
284
     8
340
11
341
A66
371
    -1
372
    -1
1001
ACAD_DSTYLE_DIMJOGGED_JOGANGLE_SYMBOL
1070
   384
1040
0.7853981633974483
1001
ACAD_DSTYLE_DIMARC_LENGTH_SYMBOL
1070
   379
1070
     1
  0
DIMSTYLE
105
2519
330
A
100
AcDbSymbolTableRecord
100
AcDbDimStyleTableRecord
  2
SYS$7
 70
     0
  4
"
 41
2.0
 42
1.0
 43
10.0
 44
1.0
 47
0.1
 48
0.1
 73
     0
 74
     0
 77
     1
 78
     8
 79
     2
140
5.0
141
0.0
143
0.0393701
146
0.71
147
1.5
172
     1
176
   256
177
   256
178
     2
271
     2
272
     2
283
     0
284
     8
340
11
341
A66
342
A66
371
    -1
372
    -1
1001
ACAD_DSTYLE_DIMJOGGED_JOGANGLE_SYMBOL
1070
   384
1040
0.7853981633974483
1001
ACAD_DSTYLE_DIMARC_LENGTH_SYMBOL
1070
   379
1070
     1
  0
DIMSTYLE
105
251A
330
A
100
AcDbSymbolTableRecord
100
AcDbDimStyleTableRecord
  2
SYS$SF
 70
     0
  4
"
 41
2.5
 42
1.0
 43
10.0
 44
1.0
 47
0.1
 48
0.1
 73
     0
 74
     0
 75
     1
 76
     1
 77
     1
 78
     8
 79
     2
140
3.5
141
0.0
143
0.0393701
146
0.71
147
1.5
172
     1
176
   256
177
   256
178
     2
271
     2
272
     3
283
     0
284
     8
340
11
341
6C4
342
6C4
371
    -1
372
    -1
1001
ACAD_DSTYLE_DIMJOGGED_JOGANGLE_SYMBOL
1070
   384
1040
0.7853981633974483
1001
ACAD_DSTYLE_DIMARC_LENGTH_SYMBOL
1070
   379
1070
     1
  0
DIMSTYLE
105
251B
330
A
100
AcDbSymbolTableRecord
100
AcDbDimStyleTableRecord
  2
SYS$SH
 70
     0
  4
"
 41
2.5
 42
1.0
 43
10.0
 44
1.0
 47
0.1
 48
0.1
 73
     0
 74
     0
 75
     1
 76
     1
 77
     1
 78
     8
 79
     2
140
3.5
141
0.0
143
0.0393701
144
2.0
146
0.71
147
1.5
172
     1
173
     1
176
   256
177
   256
178
     2
271
     2
272
     3
283
     0
284
     8
340
11
341
6C4
343
72
344
6C4
371
    -1
372
    -1
1001
ACAD_DSTYLE_DIMJOGGED_JOGANGLE_SYMBOL
1070
   384
1040
0.7853981633974483
1001
ACAD_DSTYLE_DIMARC_LENGTH_SYMBOL
1070
   379
1070
     1
  0
DIMSTYLE
105
2A59
330
A
100
AcDbSymbolTableRecord
100
AcDbDimStyleTableRecord
  2
SYS$2
 70
     0
  4
"
 41
1.0
 42
1.0
 43
10.0
 44
1.0
 47
0.1
 48
0.1
 73
     0
 74
     0
 77
     1
 78
     8
 79
     2
140
3.5
141
0.0
143
0.0393701
146
0.71
147
1.5
172
     1
176
   256
177
   256
178
     2
271
     2
272
     2
283
     0
284
     8
340
11
342
6C4
371
    -1
372
    -1
1001
ACAD_DSTYLE_DIMJOGGED_JOGANGLE_SYMBOL
1070
   384
1040
0.7853981633974483
1001
ACAD_DSTYLE_DIMARC_LENGTH_SYMBOL
1070
   379
1070
     1
  0
DIMSTYLE
105
2AAB
102
{ACAD_REACTORS
330
DDF1C
330
DDFBC
330
DE023
330
DE024
330
DE028
102
}
330
A
100
AcDbSymbolTableRecord
100
AcDbDimStyleTableRecord
  2
SYS$0
 70
     0
  4
"
 41
1.0
 42
1.0
 43
10.0
 44
1.0
 47
0.1
 48
0.1
 73
     0
 74
     0
 77
     1
 78
     8
 79
     2
140
3.200000000000001
141
0.0
143
0.0393701
146
0.71
147
1.5
172
     1
176
   256
177
   256
178
     2
271
     2
272
     2
283
     0
284
     8
340
11
341
A66
342
6C4
371
    -1
372
    -1
1001
ACAD_DSTYLE_DIMJOGGED_JOGANGLE_SYMBOL
1070
   384
1040
0.7853981633974483
1001
ACAD_DSTYLE_DIMARC_LENGTH_SYMBOL
1070
   379
1070
     1
  0
DIMSTYLE
105
124EE
330
A
100
AcDbSymbolTableRecord
100
AcDbDimStyleTableRecord
  2
SYSORG0P5$0
 70
     0
  4
"
 41
1.0
 42
1.0
 43
10.0
 44
1.0
 47
0.1
 48
0.1
 73
     0
 74
     0
 77
     1
 78
     8
 79
     2
140
3.200000000000001
141
0.0
143
0.0393701
144
0.5
146
0.71
147
1.5
172
     1
176
   256
177
   256
178
     2
271
     2
272
     2
283
     0
284
     8
340
11
341
A66
342
6C4
371
    -1
372
    -1
  0
DIMSTYLE
105
124EF
330
A
100
AcDbSymbolTableRecord
100
AcDbDimStyleTableRecord
  2
SYSORG4358P72$4
 70
     0
  4
"
 41
2.0
 42
1.0
 43
10.0
 44
1.0
 47
0.1
 48
0.1
 73
     0
 77
     1
 78
     8
 79
     2
140
3.5
141
0.0
143
0.0393701
144
4358.720568330721
146
0.71
147
1.5
173
     1
176
   256
177
   256
178
     2
271
     2
272
     2
283
     0
284
     8
288
     1
340
11
344
A66
371
    -1
372
    -1
  0
DIMSTYLE
105
124F0
330
A
100
AcDbSymbolTableRecord
100
AcDbDimStyleTableRecord
  2
SYSORG297890P91$4
 70
     0
  4
"
 41
2.0
 42
1.0
 43
10.0
 44
1.0
 47
0.1
 48
0.1
 73
     0
 77
     1
 78
     8
 79
     2
140
3.5
141
0.0
143
0.0393701
144
297890.9090687243
146
0.71
147
1.5
173
     1
176
   256
177
   256
178
     2
271
     2
272
     2
283
     0
284
     8
288
     1
340
11
344
A66
371
    -1
372
    -1
  0
DIMSTYLE
105
1D546
330
A
100
AcDbSymbolTableRecord
100
AcDbDimStyleTableRecord
  2
Standard
 70
     0
340
11
  0
DIMSTYLE
105
C49A6
330
A
100
AcDbSymbolTableRecord
100
AcDbDimStyleTableRecord
  2
NAx2
 70
     0
 41
2.5
 42
1.0
 43
10.0
 44
1.0
 73
     0
 74
     0
 77
     1
 78
     8
 79
     2
140
3.200000000000001
141
0.0
143
0.0393701
144
0.5
147
0.9999999999999996
172
     1
176
     3
177
     3
178
   256
271
     3
272
     3
284
     8
340
11
371
    13
372
    13
  0
DIMSTYLE
105
C7D2A
330
A
100
AcDbSymbolTableRecord
100
AcDbDimStyleTableRecord
  2
SYS 中
 70
     0
  4
"
 41
1.0
 42
1.0
 43
7.0
 44
1.0
 47
0.1
 48
0.1
 73
     0
 74
     0
 77
     1
 78
     8
 79
     2
140
3.0
141
0.0
143
0.0393701
146
0.71
147
0.4999999999999992
172
     1
176
   256
177
   256
178
     2
271
     2
272
     2
283
     0
284
     8
340
11
341
A66
342
6C4
371
    -1
372
    -1
  0
DIMSTYLE
105
D3543
330
A
100
AcDbSymbolTableRecord
100
AcDbDimStyleTableRecord
  2
ISO-25
 70
     0
 41
2.5
 42
0.625
 43
3.75
 44
1.25
 45
0.01
 73
     0
 74
     0
 77
     1
 78
     8
140
2.5
141
2.5
143
0.03937007874016
147
0.625
171
     3
172
     1
271
     2
272
     2
274
     3
278
    44
283
     0
284
     8
340
11
  0
DIMSTYLE
105
D3544
330
A
100
AcDbSymbolTableRecord
100
AcDbDimStyleTableRecord
  2
原寸
 70
     0
 41
2.5
 42
1.0
 43
10.0
 44
0.7
 73
     0
 74
     0
 77
     3
 78
     8
 79
     2
140
3.5
141
0.0
147
1.0
172
     1
179
     1
271
     2
272
     2
340
D3542
341
A66
342
A66
  0
ENDTAB
  0
TABLE
  2
BLOCK_RECORD
  5
1
330
0
100
AcDbSymbolTable
 70
   308
  0
BLOCK_RECORD
  5
1F
102
{ACAD_XDICTIONARY
360
8A
102
}
330
1
100
AcDbSymbolTableRecord
100
AcDbBlockTableRecord
  2
*Model_Space
340
22
  0
BLOCK_RECORD
  5
1B
330
1
100
AcDbSymbolTableRecord
100
AcDbBlockTableRecord
  2
*Paper_Space
340
1E
  0
BLOCK_RECORD
  5
23
330
1
100
AcDbSymbolTableRecord
100
AcDbBlockTableRecord
  2
*Paper_Space0
340
26
  0
BLOCK_RECORD
  5
72
330
1
100
AcDbSymbolTableRecord
100
AcDbBlockTableRecord
  2
GENAXEH
340
0
  0
BLOCK_RECORD
  5
6C4
330
1
100
AcDbSymbolTableRecord
100
AcDbBlockTableRecord
  2
_Dot
340
0
  0
BLOCK_RECORD
  5
A66
330
1
100
AcDbSymbolTableRecord
100
AcDbBlockTableRecord
  2
_OPEN30
340
0
  0
BLOCK_RECORD
  5
DE09E
330
1
100
AcDbSymbolTableRecord
100
AcDbBlockTableRecord
  2
*D230
340
0
  0
BLOCK_RECORD
  5
DE0AA
330
1
100
AcDbSymbolTableRecord
100
AcDbBlockTableRecord
  2
*D231
340
0
  0
BLOCK_RECORD
  5
DE0B6
330
1
100
AcDbSymbolTableRecord
100
AcDbBlockTableRecord
  2
*D232
340
0
  0
BLOCK_RECORD
  5
DE0C2
330
1
100
AcDbSymbolTableRecord
100
AcDbBlockTableRecord
  2
*D233
340
0
  0
BLOCK_RECORD
  5
DE0CE
330
1
100
AcDbSymbolTableRecord
100
AcDbBlockTableRecord
  2
*D234
340
0
  0
ENDTAB
  0
ENDSEC
  0
SECTION
  2
BLOCKS
  0
BLOCK
  5
20
330
1F
100
AcDbEntity
  8
0
100
AcDbBlockBegin
  2
*Model_Space
 70
     0
 10
0.0
 20
0.0
 30
0.0
  3
*Model_Space
  1

  0
ENDBLK
  5
21
330
1F
100
AcDbEntity
  8
0
100
AcDbBlockEnd
  0
BLOCK
  5
1C
330
1B
100
AcDbEntity
 67
     1
  8
0
100
AcDbBlockBegin
  2
*Paper_Space
 70
     0
 10
0.0
 20
0.0
 30
0.0
  3
*Paper_Space
  1

  0
ENDBLK
  5
1D
330
1B
100
AcDbEntity
 67
     1
  8
0
100
AcDbBlockEnd
  0
BLOCK
  5
24
330
23
100
AcDbEntity
 67
     1
  8
0
100
AcDbBlockBegin
  2
*Paper_Space0
 70
     0
 10
0.0
 20
0.0
 30
0.0
  3
*Paper_Space0
  1

  0
ENDBLK
  5
25
330
23
100
AcDbEntity
 67
     1
  8
0
100
AcDbBlockEnd
  0
BLOCK
  5
E4403
330
72
100
AcDbEntity
  8
0
100
AcDbBlockBegin
  2
GENAXEH
 70
     0
 10
0.0
 20
0.0
 30
0.0
  3
GENAXEH
  1

  0
LINE
  5
E4404
330
72
100
AcDbEntity
  8
0
100
AcDbLine
 10
-1.0
 20
0.0
 30
0.0
 11
1.0
 21
0.0
 31
0.0
  0
ENDBLK
  5
E4405
330
72
100
AcDbEntity
  8
0
100
AcDbBlockEnd
  0
BLOCK
  5
E43F7
330
6C4
100
AcDbEntity
  8
0
100
AcDbBlockBegin
  2
_Dot
 70
     0
 10
0.0
 20
0.0
 30
0.0
  3
_Dot
  1

  0
LWPOLYLINE
  5
E43F8
330
6C4
100
AcDbEntity
  8
0
  6
ByBlock
 62
     0
100
AcDbPolyline
 90
        2
 70
     1
 43
0.5
 10
-0.25
 20
0.0
 42
1.0
 10
0.25
 20
0.0
 42
1.0
  0
LINE
  5
E43F9
330
6C4
100
AcDbEntity
  8
0
  6
ByBlock
 62
     0
370
    -2
100
AcDbLine
 10
-0.5
 20
0.0
 30
0.0
 11
-1.0
 21
0.0
 31
0.0
  0
ENDBLK
  5
E43FA
330
6C4
100
AcDbEntity
  8
0
100
AcDbBlockEnd
  0
BLOCK
  5
E43F1
330
A66
100
AcDbEntity
  8
0
100
AcDbBlockBegin
  2
_OPEN30
 70
     0
 10
0.0
 20
0.0
 30
0.0
  3
_OPEN30
  1

  0
LINE
  5
E43F2
330
A66
100
AcDbEntity
  8
0
  6
ByBlock
 62
     0
100
AcDbLine
 10
-1.0
 20
0.26794919
 30
0.0
 11
0.0
 21
0.0
 31
0.0
  0
LINE
  5
E43F3
330
A66
100
AcDbEntity
  8
0
  6
ByBlock
 62
     0
100
AcDbLine
 10
0.0
 20
0.0
 30
0.0
 11
-1.0
 21
-0.26794919
 31
0.0
  0
LINE
  5
E43F4
330
A66
100
AcDbEntity
  8
0
  6
ByBlock
 62
     0
100
AcDbLine
 10
0.0
 20
0.0
 30
0.0
 11
-1.0
 21
0.0
 31
0.0
  0
ENDBLK
  5
E43F5
330
A66
100
AcDbEntity
  8
0
100
AcDbBlockEnd
  0
BLOCK
  5
DE0A8
330
DE09E
100
AcDbEntity
  8
0
 48
0.3
100
AcDbBlockBegin
  2
*D230
 70
     1
 10
0.0
 20
0.0
 30
0.0
  3
*D230
  1

  0
LINE
  5
DE152
330
DE09E
100
AcDbEntity
  8
AM_5
100
AcDbLine
 10
3170.238698726626
 20
-284.414371195643
 30
0.0
 11
3149.238698726626
 21
-284.414371195643
 31
0.0
  0
LINE
  5
DE153
330
DE09E
100
AcDbEntity
  8
AM_5
100
AcDbLine
 10
3170.238698726626
 20
-331.4143711956429
 30
0.0
 11
3149.238698726626
 21
-331.4143711956429
 31
0.0
  0
LINE
  5
DE154
330
DE09E
100
AcDbEntity
  8
AM_5
100
AcDbLine
 10
3150.238698726626
 20
-285.4143711956429
 30
0.0
 11
3150.238698726626
 21
-330.414371195643
 31
0.0
  0
INSERT
  5
DE155
330
DE09E
100
AcDbEntity
  8
AM_5
100
AcDbBlockReference
  2
_Dot
 10
3150.238698726626
 20
-284.414371195643
 30
0.0
 41
1.0
 42
1.0
 43
1.0
 50
90.0
  0
INSERT
  5
DE156
330
DE09E
100
AcDbEntity
  8
AM_5
100
AcDbBlockReference
  2
_Dot
 10
3150.238698726626
 20
-331.4143711956429
 30
0.0
 41
1.0
 42
1.0
 43
1.0
 50
270.0
  0
MTEXT
  5
DE157
330
DE09E
100
AcDbEntity
  8
AM_5
 62
     2
100
AcDbMText
 10
3147.138698726626
 20
-307.9143711956425
 30
0.0
 40
3.2
 41
0.0
 71
     5
 72
     1
  1
%%c47
 11
0.0000000000000001
 21
1.0
 31
0.0
 73
     1
 44
1.0
  0
POINT
  5
DE158
330
DE09E
100
AcDbEntity
  8
Defpoints
 62
     0
100
AcDbPoint
 10
3171.738698726626
 20
-284.414371195643
 30
0.0
  0
POINT
  5
DE159
330
DE09E
100
AcDbEntity
  8
Defpoints
 62
     0
100
AcDbPoint
 10
3171.738698726626
 20
-331.4143711956429
 30
0.0
  0
POINT
  5
DE15A
330
DE09E
100
AcDbEntity
  8
Defpoints
 62
     0
100
AcDbPoint
 10
3150.238698726626
 20
-331.4143711956429
 30
0.0
  0
ENDBLK
  5
DE0A9
330
DE09E
100
AcDbEntity
  8
0
 48
0.3
100
AcDbBlockEnd
  0
BLOCK
  5
DE0B4
330
DE0AA
100
AcDbEntity
  8
0
 48
0.3
100
AcDbBlockBegin
  2
*D231
 70
     1
 10
0.0
 20
0.0
 30
0.0
  3
*D231
  1

  0
LINE
  5
DF2CE
330
DE0AA
100
AcDbEntity
  8
AM_5
100
AcDbLine
 10
3290.883361939252
 20
-246.1691288364894
 30
0.0
 11
3303.343544330233
 21
-246.1691288364894
 31
0.0
  0
LINE
  5
DF2CF
330
DE0AA
100
AcDbEntity
  8
AM_5
100
AcDbLine
 10
3291.527422640182
 20
-219.344282604552
 30
0.0
 11
3303.343544330233
 21
-219.344282604552
 31
0.0
  0
LINE
  5
DF2D0
330
DE0AA
100
AcDbEntity
  8
AM_5
100
AcDbLine
 10
3302.343544330233
 20
-245.1691288364894
 30
0.0
 11
3302.343544330233
 21
-220.344282604552
 31
0.0
  0
INSERT
  5
DF2D1
330
DE0AA
100
AcDbEntity
  8
AM_5
100
AcDbBlockReference
  2
_Dot
 10
3302.343544330233
 20
-246.1691288364894
 30
0.0
 41
1.0
 42
1.0
 43
1.0
 50
270.0
  0
INSERT
  5
DF2D2
330
DE0AA
100
AcDbEntity
  8
AM_5
100
AcDbBlockReference
  2
_Dot
 10
3302.343544330233
 20
-219.344282604552
 30
0.0
 41
1.0
 42
1.0
 43
1.0
 50
90.0
  0
MTEXT
  5
DF2D3
330
DE0AA
100
AcDbEntity
  8
AM_5
 62
     2
100
AcDbMText
 10
3299.243544330233
 20
-232.7567057205202
 30
0.0
 40
3.2
 41
0.0
 71
     5
 72
     1
  1
27
 11
0.0000000000000001
 21
1.0
 31
0.0
 73
     1
 44
1.0
  0
POINT
  5
DF2D4
330
DE0AA
100
AcDbEntity
  8
Defpoints
 62
     0
100
AcDbPoint
 10
3289.383361939252
 20
-246.1691288364894
 30
0.0
  0
POINT
  5
DF2D5
330
DE0AA
100
AcDbEntity
  8
Defpoints
 62
     0
100
AcDbPoint
 10
3290.027422640182
 20
-219.344282604552
 30
0.0
  0
POINT
  5
DF2D6
330
DE0AA
100
AcDbEntity
  8
Defpoints
 62
     0
100
AcDbPoint
 10
3302.343544330233
 20
-219.344282604552
 30
0.0
  0
ENDBLK
  5
DE0B5
330
DE0AA
100
AcDbEntity
  8
0
 48
0.3
100
AcDbBlockEnd
  0
BLOCK
  5
DE0C0
330
DE0B6
100
AcDbEntity
  8
0
 48
0.3
100
AcDbBlockBegin
  2
*D232
 70
     1
 10
0.0
 20
0.0
 30
0.0
  3
*D232
  1

  0
LINE
  5
DE164
330
DE0B6
100
AcDbEntity
  8
AM_5
100
AcDbLine
 10
3156.738698726626
 20
-181.5932055372841
 30
0.0
 11
3149.238698726625
 21
-181.5932055372841
 31
0.0
  0
LINE
  5
DE165
330
DE0B6
100
AcDbEntity
  8
AM_5
100
AcDbLine
 10
3156.738698726626
 20
-189.5932055372839
 30
0.0
 11
3149.238698726625
 21
-189.5932055372839
 31
0.0
  0
LINE
  5
DE166
330
DE0B6
100
AcDbEntity
  8
AM_5
100
AcDbLine
 10
3150.238698726626
 20
-182.5932055372841
 30
0.0
 11
3150.238698726626
 21
-188.5932055372839
 31
0.0
  0
INSERT
  5
DE167
330
DE0B6
100
AcDbEntity
  8
AM_5
100
AcDbBlockReference
  2
_Dot
 10
3150.238698726626
 20
-181.5932055372841
 30
0.0
 50
90.0
  0
INSERT
  5
DE168
330
DE0B6
100
AcDbEntity
  8
AM_5
100
AcDbBlockReference
  2
_Dot
 10
3150.238698726626
 20
-189.5932055372839
 30
0.0
 50
270.0
  0
MTEXT
  5
DE169
330
DE0B6
100
AcDbEntity
  8
AM_5
 62
     2
100
AcDbMText
 10
3147.638698726626
 20
-185.5932055372835
 30
0.0
 40
3.2
 41
0.0
 71
     5
 72
     1
  1
8
 11
0.0000000000000001
 21
1.0
 31
0.0
 73
     1
 44
1.0
  0
POINT
  5
DE16A
330
DE0B6
100
AcDbEntity
  8
Defpoints
 62
     0
100
AcDbPoint
 10
3158.238698726626
 20
-181.5932055372841
 30
0.0
  0
POINT
  5
DE16B
330
DE0B6
100
AcDbEntity
  8
Defpoints
 62
     0
100
AcDbPoint
 10
3158.238698726626
 20
-189.5932055372839
 30
0.0
  0
POINT
  5
DE16C
330
DE0B6
100
AcDbEntity
  8
Defpoints
 62
     0
100
AcDbPoint
 10
3150.238698726626
 20
-189.5932055372839
 30
0.0
  0
ENDBLK
  5
DE0C1
330
DE0B6
100
AcDbEntity
  8
0
 48
0.3
100
AcDbBlockEnd
  0
BLOCK
  5
DE0CC
330
DE0C2
100
AcDbEntity
  8
0
 48
0.3
100
AcDbBlockBegin
  2
*D233
 70
     1
 10
0.0
 20
0.0
 30
0.0
  3
*D233
  1

  0
LINE
  5
DF2D7
330
DE0C2
100
AcDbEntity
  8
AM_5
100
AcDbLine
 10
3290.883361939252
 20
-246.1691288364894
 30
0.0
 11
3311.343544330233
 21
-246.1691288364894
 31
0.0
  0
LINE
  5
DF2D8
330
DE0C2
100
AcDbEntity
  8
AM_5
100
AcDbLine
 10
3206.738698726626
 20
-181.5932055372841
 30
0.0
 11
3311.343544330233
 21
-181.5932055372841
 31
0.0
  0
LINE
  5
DF2D9
330
DE0C2
100
AcDbEntity
  8
AM_5
100
AcDbLine
 10
3310.343544330233
 20
-245.1691288364894
 30
0.0
 11
3310.343544330233
 21
-182.5932055372841
 31
0.0
  0
INSERT
  5
DF2DA
330
DE0C2
100
AcDbEntity
  8
AM_5
100
AcDbBlockReference
  2
_Dot
 10
3310.343544330233
 20
-246.1691288364894
 30
0.0
 41
1.0
 42
1.0
 43
1.0
 50
270.0
  0
INSERT
  5
DF2DB
330
DE0C2
100
AcDbEntity
  8
AM_5
100
AcDbBlockReference
  2
_Dot
 10
3310.343544330233
 20
-181.5932055372841
 30
0.0
 41
1.0
 42
1.0
 43
1.0
 50
90.0
  0
MTEXT
  5
DF2DC
330
DE0C2
100
AcDbEntity
  8
AM_5
 62
     2
100
AcDbMText
 10
3307.243544330233
 20
-213.8811671868862
 30
0.0
 40
3.2
 41
0.0
 71
     5
 72
     1
  1
65
 11
0.0000000000000001
 21
1.0
 31
0.0
 73
     1
 44
1.0
  0
POINT
  5
DF2DD
330
DE0C2
100
AcDbEntity
  8
Defpoints
 62
     0
100
AcDbPoint
 10
3289.383361939252
 20
-246.1691288364894
 30
0.0
  0
POINT
  5
DF2DE
330
DE0C2
100
AcDbEntity
  8
Defpoints
 62
     0
100
AcDbPoint
 10
3205.238698726626
 20
-181.5932055372841
 30
0.0
  0
POINT
  5
DF2DF
330
DE0C2
100
AcDbEntity
  8
Defpoints
 62
     0
100
AcDbPoint
 10
3310.343544330233
 20
-181.5932055372841
 30
0.0
  0
ENDBLK
  5
DE0CD
330
DE0C2
100
AcDbEntity
  8
0
 48
0.3
100
AcDbBlockEnd
  0
BLOCK
  5
DE0D8
330
DE0CE
100
AcDbEntity
  8
0
 48
0.3
100
AcDbBlockBegin
  2
*D234
 70
     1
 10
0.0
 20
0.0
 30
0.0
  3
*D234
  1

  0
LINE
  5
DFA2F
330
DE0CE
100
AcDbEntity
  8
AM_5
100
AcDbLine
 10
3181.738698726626
 20
-250.0932055372853
 30
0.0
 11
3181.738698726626
 21
-257.5932055372847
 31
0.0
  0
LINE
  5
DFA30
330
DE0CE
100
AcDbEntity
  8
AM_5
100
AcDbLine
 10
3293.343544330233
 20
-243.4546500002025
 30
0.0
 11
3293.343544330233
 21
-257.5932055372847
 31
0.0
  0
LINE
  5
DFA31
330
DE0CE
100
AcDbEntity
  8
AM_5
100
AcDbLine
 10
3182.738698726627
 20
-256.5932055372847
 30
0.0
 11
3292.343544330233
 21
-256.5932055372847
 31
0.0
  0
INSERT
  5
DFA32
330
DE0CE
100
AcDbEntity
  8
AM_5
100
AcDbBlockReference
  2
_Dot
 10
3181.738698726626
 20
-256.5932055372847
 30
0.0
 41
1.0
 42
1.0
 43
1.0
 50
180.0
  0
INSERT
  5
DFA33
330
DE0CE
100
AcDbEntity
  8
AM_5
100
AcDbBlockReference
  2
_Dot
 10
3293.343544330233
 20
-256.5932055372847
 30
0.0
 41
1.0
 42
1.0
 43
1.0
  0
MTEXT
  5
DFA34
330
DE0CE
100
AcDbEntity
  8
AM_5
 62
     2
100
AcDbMText
 10
3237.54112152843
 20
-253.4932055372848
 30
0.0
 40
3.2
 41
0.0
 71
     5
 72
     1
  1
112
 73
     1
 44
1.0
  0
POINT
  5
DFA35
330
DE0CE
100
AcDbEntity
  8
Defpoints
 62
     0
100
AcDbPoint
 10
3181.738698726626
 20
-248.5932055372853
 30
0.0
  0
POINT
  5
DFA36
330
DE0CE
100
AcDbEntity
  8
Defpoints
 62
     0
100
AcDbPoint
 10
3293.343544330233
 20
-241.9546500002025
 30
0.0
  0
POINT
  5
DFA37
330
DE0CE
100
AcDbEntity
  8
Defpoints
 62
     0
100
AcDbPoint
 10
3293.343544330233
 20
-256.5932055372847
 30
0.0
  0
ENDBLK
  5
DE0D9
330
DE0CE
100
AcDbEntity
  8
0
 48
0.3
100
AcDbBlockEnd
  0
ENDSEC
  0
SECTION
  2
ENTITIES
  0
AMDTACMWBLOCKBOMENTITY
  5
1167A
330
1F
100
AcDbEntity
  8
AM_6
 48
1.01
 92
        8
310
0800000000000000
  0
AMDTACMWBLOCKBOMENTITY
  5
12884
330
1F
100
AcDbEntity
  8
AM_6
 48
1.01
 92
        8
310
0800000000000000
  0
AMDTACMWBLOCKBOMENTITY
  5
131CF
330
1F
100
AcDbEntity
  8
AM_6
 48
1.01
 92
        8
310
0800000000000000
  0
ARC
  5
1976C
330
1F
100
AcDbEntity
  8
カム-AM_0
 48
0.5
 60
     1
100
AcDbCircle
 10
1073.836906068311
 20
96.73112248225136
 30
0.0
 40
1.0
100
AcDbArc
 50
157.9999999999991
 51
270.0
  0
ARC
  5
2AFFE
330
1F
100
AcDbEntity
  8
フロントプレート-AM_0
 48
0.5
 60
     1
100
AcDbCircle
 10
2940.140904158748
 20
-685.3979332481855
 30
0.0
 40
0.5
100
AcDbArc
 50
180.0000000000133
 51
269.9999999999799
  0
ARC
  5
2B000
330
1F
100
AcDbEntity
  8
フロントプレート-AM_0
 48
0.5
 60
     1
100
AcDbCircle
 10
2940.140904158746
 20
-693.6979332481854
 30
0.0
 40
0.5
100
AcDbArc
 50
90.0
 51
180.0
  0
ARC
  5
2B003
330
1F
100
AcDbEntity
  8
フロントプレート-AM_0
 48
0.5
 60
     1
100
AcDbCircle
 10
2940.140904158747
 20
-800.4479332481846
 30
0.0
 40
0.5
100
AcDbArc
 50
180.0000000000002
 51
270.000000000005
  0
ARC
  5
2B006
330
1F
100
AcDbEntity
  8
フロントプレート-AM_0
 48
0.5
 60
     1
100
AcDbCircle
 10
2940.140904158747
 20
-808.6479332481845
 30
0.0
 40
0.5
100
AcDbArc
 50
89.99999999999495
 51
180.0
  0
ARC
  5
35DDA
330
1F
100
AcDbEntity
  8
フロントプレート-AM_0
 48
0.7121444702145028
 60
     1
100
AcDbCircle
 10
3415.425665362851
 20
-491.1707550332581
 30
0.0
 40
5.0
100
AcDbArc
 50
89.9999999999992
 51
180.0
  0
ARC
  5
36164
330
1F
100
AcDbEntity
  8
フロントプレート-AM_0
 48
0.7121444702145028
 60
     1
100
AcDbCircle
 10
3415.425665362851
 20
-491.170739774473
 30
0.0
 40
5.0
100
AcDbArc
 50
90.00000000000039
 51
180.0
  0
ARC
  5
50290
330
1F
100
AcDbEntity
  8
フロントプレート-AM_0
 48
0.5
 60
     1
100
AcDbCircle
 10
3936.083075161434
 20
681.4307367305923
 30
0.0
 40
0.5
100
AcDbArc
 50
89.99999999999349
 51
180.0
  0
ARC
  5
50291
330
1F
100
AcDbEntity
  8
フロントプレート-AM_0
 48
0.5
 60
     1
100
AcDbCircle
 10
3936.083075161434
 20
796.3807367305912
 30
0.0
 40
0.5
100
AcDbArc
 50
90.0
 51
180.0
  0
ARC
  5
50294
330
1F
100
AcDbEntity
  8
フロントプレート-AM_0
 48
0.5
 60
     1
100
AcDbCircle
 10
3936.083075161435
 20
804.6807367305914
 30
0.0
 40
0.5
100
AcDbArc
 50
180.000000000013
 51
269.9999999999804
  0
ARC
  5
5029B
330
1F
100
AcDbEntity
  8
フロントプレート-AM_0
 48
0.5
 60
     1
100
AcDbCircle
 10
3936.083075161434
 20
689.6307367305921
 30
0.0
 40
0.5
100
AcDbArc
 50
180.0
 51
270.0000000000065
  0
ARC
  5
5808A
330
1F
100
AcDbEntity
  8
ケースＡ-AM_0
 48
0.3
 60
     1
100
AcDbCircle
 10
4320.746772469524
 20
642.5577614920783
 30
0.0
 40
3.0
100
AcDbArc
 50
136.7962532773522
 51
180.0000000000016
  0
TEXT
  5
70A13
330
1F
100
AcDbEntity
  8
AM_5
 62
     2
100
AcDbText
 10
1801.531019682132
 20
-912.4221029912536
 30
0.0
 40
1.6
  1

 41
0.7
100
AcDbText
  0
TEXT
  5
70A2E
330
1F
100
AcDbEntity
  8
AM_5
 62
     2
100
AcDbText
 10
1866.861680245279
 20
-839.8698037460585
 30
0.0
 40
1.6
  1

 50
90.0
 41
0.7
100
AcDbText
  0
TEXT
  5
70A5D
330
1F
100
AcDbEntity
  8
AM_5
 62
     2
100
AcDbText
 10
1638.052106495164
 20
-912.4220953618591
 30
0.0
 40
1.6
  1

 41
0.7
100
AcDbText
  0
TEXT
  5
70A73
330
1F
100
AcDbEntity
  8
AM_5
 62
     2
100
AcDbText
 10
1703.38276705831
 20
-839.8697961166638
 30
0.0
 40
1.6
  1

 50
90.0
 41
0.7
100
AcDbText
  0
ARC
  5
70F6D
330
1F
100
AcDbEntity
  8
スライド樹脂-AM_0
 48
0.5
 60
     1
100
AcDbCircle
 10
3232.621748902584
 20
-809.5320471450429
 30
0.0
 40
0.5
100
AcDbArc
 50
317.4804366013805
 51
30.99999999999924
  0
ARC
  5
72FDC
330
1F
100
AcDbEntity
  8
ケースＡ-AM_0
 60
     1
100
AcDbCircle
 10
2057.770958611584
 20
569.5785352150007
 30
0.0
 40
0.5
100
AcDbArc
 50
180.0000000000032
 51
270.0
  0
ARC
  5
72FDE
330
1F
100
AcDbEntity
  8
ケースＡ-AM_0
 60
     1
100
AcDbCircle
 10
2057.770958611584
 20
577.6785352150007
 30
0.0
 40
0.5
100
AcDbArc
 50
90.0
 51
180.0
  0
ARC
  5
7E287
330
1F
100
AcDbEntity
  8
ケースＡ-AM_0
 48
0.5
 60
     1
100
AcDbCircle
 10
2036.67073717051
 20
346.1529214792957
 30
0.0
 40
1.199999999999999
100
AcDbArc
 50
359.9999999999895
 51
90.00000000000161
  0
ARC
  5
7E28D
330
1F
100
AcDbEntity
  8
ケースＡ-AM_0
 48
0.5
 60
     1
100
AcDbCircle
 10
2024.670716005687
 20
346.1529214792954
 30
0.0
 40
1.199999999999999
100
AcDbArc
 50
90.00000000000161
 51
180.0
  0
ARC
  5
7E293
330
1F
100
AcDbEntity
  8
ケースＡ-AM_0
 48
0.5
 60
     1
100
AcDbCircle
 10
2195.249915988112
 20
334.6672638729956
 30
0.0
 40
0.3
100
AcDbArc
 50
90.00000000000161
 51
180.0
  0
ARC
  5
7E295
330
1F
100
AcDbEntity
  8
ケースＡ-AM_0
 48
0.5
 60
     1
100
AcDbCircle
 10
2198.249921279316
 20
334.6672638729956
 30
0.0
 40
0.3
100
AcDbArc
 50
0.0
 51
90.00000000000161
  0
ARC
  5
7E32E
330
1F
100
AcDbEntity
  8
ケースＡ-AM_0
 60
     1
100
AcDbCircle
 10
1957.892280850891
 20
-109.9494958677978
 30
0.0
 40
1.199999999999999
100
AcDbArc
 50
90.0
 51
180.0
  0
ARC
  5
7E332
330
1F
100
AcDbEntity
  8
ケースＡ-AM_0
 48
0.5
 60
     1
100
AcDbCircle
 10
1969.892285769429
 20
-109.9494958677978
 30
0.0
 40
1.199999999999999
100
AcDbArc
 50
0.0000000000371998
 51
90.0
  0
ARC
  5
7E33C
330
1F
100
AcDbEntity
  8
ケースＡ-AM_0
 60
     1
100
AcDbCircle
 10
2059.523418190472
 20
-151.894435956738
 30
0.0
 40
0.3
100
AcDbArc
 50
90.0
 51
180.0
  0
ARC
  5
7E33E
330
1F
100
AcDbEntity
  8
ケースＡ-AM_0
 60
     1
100
AcDbCircle
 10
2062.523419420107
 20
-151.8944359567379
 30
0.0
 40
0.3
100
AcDbArc
 50
0.0000000000371998
 51
90.0
  0
ARC
  5
86336
330
1F
100
AcDbEntity
  8
ケースＡ-AM_0
 48
0.2
 60
     1
100
AcDbCircle
 10
2332.182803540283
 20
693.5457760702194
 30
0.0
 40
0.25
100
AcDbArc
 50
180.0
 51
270.0
  0
ARC
  5
86338
330
1F
100
AcDbEntity
  8
ケースＡ-AM_0
 48
0.2
 60
     1
100
AcDbCircle
 10
2332.182803540283
 20
697.5957760702193
 30
0.0
 40
0.25
100
AcDbArc
 50
90.0
 51
180.0
  0
ARC
  5
86721
330
1F
100
AcDbEntity
  8
ケースＡ-AM_0
 48
0.2
 60
     1
100
AcDbCircle
 10
2272.07165777074
 20
693.5457715755038
 30
0.0
 40
0.25
100
AcDbArc
 50
180.0
 51
270.0
  0
ARC
  5
86723
330
1F
100
AcDbEntity
  8
ケースＡ-AM_0
 48
0.2
 60
     1
100
AcDbCircle
 10
2272.07165777074
 20
697.5957715755038
 30
0.0
 40
0.25
100
AcDbArc
 50
90.0
 51
180.0
  0
ARC
  5
89362
330
1F
100
AcDbEntity
  8
ケースＡ-AM_0
 60
     1
100
AcDbCircle
 10
2164.68328238728
 20
569.5785352150007
 30
0.0
 40
0.5
100
AcDbArc
 50
180.0000000000032
 51
270.0
  0
ARC
  5
89364
330
1F
100
AcDbEntity
  8
ケースＡ-AM_0
 60
     1
100
AcDbCircle
 10
2164.68328238728
 20
577.6785352150007
 30
0.0
 40
0.5
100
AcDbArc
 50
90.0
 51
180.0
  0
ARC
  5
898FF
330
1F
100
AcDbEntity
  8
ケースＡ-AM_0
 48
0.2
 60
     1
100
AcDbCircle
 10
2764.66674689238
 20
693.5457760702193
 30
0.0
 40
0.25
100
AcDbArc
 50
180.0
 51
270.0
  0
ARC
  5
89901
330
1F
100
AcDbEntity
  8
ケースＡ-AM_0
 48
0.2
 60
     1
100
AcDbCircle
 10
2764.66674689238
 20
697.5957760702192
 30
0.0
 40
0.25
100
AcDbArc
 50
90.0
 51
180.0
  0
ARC
  5
89B43
330
1F
100
AcDbEntity
  8
ケースＡ-AM_0
 48
0.2
 60
     1
100
AcDbCircle
 10
2704.555601122836
 20
693.5457715755037
 30
0.0
 40
0.25
100
AcDbArc
 50
180.0
 51
270.0
  0
ARC
  5
89B45
330
1F
100
AcDbEntity
  8
ケースＡ-AM_0
 48
0.2
 60
     1
100
AcDbCircle
 10
2704.555601122836
 20
697.5957715755036
 30
0.0
 40
0.25
100
AcDbArc
 50
90.0
 51
180.0
  0
ARC
  5
8A011
330
1F
100
AcDbEntity
  8
ケースＡ-AM_0
 60
     1
100
AcDbCircle
 10
2490.25490604102
 20
569.5785352150007
 30
0.0
 40
0.5
100
AcDbArc
 50
180.0000000000032
 51
270.0
  0
ARC
  5
8A013
330
1F
100
AcDbEntity
  8
ケースＡ-AM_0
 60
     1
100
AcDbCircle
 10
2490.25490604102
 20
577.6785352150007
 30
0.0
 40
0.5
100
AcDbArc
 50
90.0
 51
180.0
  0
ARC
  5
8A3C3
330
1F
100
AcDbEntity
  8
ケースＡ-AM_0
 60
     1
100
AcDbCircle
 10
2597.167229816716
 20
569.5785352150007
 30
0.0
 40
0.5
100
AcDbArc
 50
180.0000000000032
 51
270.0
  0
ARC
  5
8A3C5
330
1F
100
AcDbEntity
  8
ケースＡ-AM_0
 60
     1
100
AcDbCircle
 10
2597.167229816716
 20
577.6785352150007
 30
0.0
 40
0.5
100
AcDbArc
 50
90.0
 51
180.0
  0
ARC
  5
92521
330
1F
100
AcDbEntity
  8
ケースＡ-AM_0
 48
0.2
 60
     1
100
AcDbCircle
 10
3197.150694321815
 20
693.5457760702193
 30
0.0
 40
0.25
100
AcDbArc
 50
180.0
 51
270.0
  0
ARC
  5
92523
330
1F
100
AcDbEntity
  8
ケースＡ-AM_0
 48
0.2
 60
     1
100
AcDbCircle
 10
3197.150694321815
 20
697.5957760702192
 30
0.0
 40
0.25
100
AcDbArc
 50
90.0
 51
180.0
  0
ARC
  5
92761
330
1F
100
AcDbEntity
  8
ケースＡ-AM_0
 48
0.2
 60
     1
100
AcDbCircle
 10
3137.039548552272
 20
693.5457715755037
 30
0.0
 40
0.25
100
AcDbArc
 50
180.0
 51
270.0
  0
ARC
  5
92763
330
1F
100
AcDbEntity
  8
ケースＡ-AM_0
 48
0.2
 60
     1
100
AcDbCircle
 10
3137.039548552272
 20
697.5957715755036
 30
0.0
 40
0.25
100
AcDbArc
 50
90.0
 51
180.0
  0
ARC
  5
92B80
330
1F
100
AcDbEntity
  8
ケースＡ-AM_0
 60
     1
100
AcDbCircle
 10
2922.738853470456
 20
569.5785352150007
 30
0.0
 40
0.5
100
AcDbArc
 50
180.0000000000032
 51
270.0
  0
ARC
  5
92B82
330
1F
100
AcDbEntity
  8
ケースＡ-AM_0
 60
     1
100
AcDbCircle
 10
2922.738853470456
 20
577.6785352150007
 30
0.0
 40
0.5
100
AcDbArc
 50
90.0
 51
180.0
  0
ARC
  5
92EFD
330
1F
100
AcDbEntity
  8
ケースＡ-AM_0
 60
     1
100
AcDbCircle
 10
3029.651177246152
 20
569.5785352150007
 30
0.0
 40
0.5
100
AcDbArc
 50
180.0000000000032
 51
270.0
  0
ARC
  5
92EFF
330
1F
100
AcDbEntity
  8
ケースＡ-AM_0
 60
     1
100
AcDbCircle
 10
3029.651177246152
 20
577.6785352150007
 30
0.0
 40
0.5
100
AcDbArc
 50
90.0
 51
180.0
  0
ARC
  5
94474
330
1F
100
AcDbEntity
  8
ケースＡ-AM_0
 60
     1
100
AcDbCircle
 10
3355.222800899892
 20
569.578535215001
 30
0.0
 40
0.5
100
AcDbArc
 50
180.0000000000032
 51
270.0
  0
ARC
  5
94476
330
1F
100
AcDbEntity
  8
ケースＡ-AM_0
 60
     1
100
AcDbCircle
 10
3355.222800899892
 20
577.6785352150008
 30
0.0
 40
0.5
100
AcDbArc
 50
90.0
 51
180.0
  0
ARC
  5
947CE
330
1F
100
AcDbEntity
  8
ケースＡ-AM_0
 48
0.2
 60
     1
100
AcDbCircle
 10
3629.634645828591
 20
693.5457760702196
 30
0.0
 40
0.25
100
AcDbArc
 50
180.0
 51
270.0
  0
ARC
  5
947D0
330
1F
100
AcDbEntity
  8
ケースＡ-AM_0
 48
0.2
 60
     1
100
AcDbCircle
 10
3629.634645828591
 20
697.5957760702195
 30
0.0
 40
0.25
100
AcDbArc
 50
90.0
 51
180.0
  0
ARC
  5
94A10
330
1F
100
AcDbEntity
  8
ケースＡ-AM_0
 48
0.2
 60
     1
100
AcDbCircle
 10
3569.523500059048
 20
693.5457715755041
 30
0.0
 40
0.25
100
AcDbArc
 50
180.0
 51
270.0
  0
ARC
  5
94A12
330
1F
100
AcDbEntity
  8
ケースＡ-AM_0
 48
0.2
 60
     1
100
AcDbCircle
 10
3569.523500059048
 20
697.595771575504
 30
0.0
 40
0.25
100
AcDbArc
 50
90.0
 51
180.0
  0
ARC
  5
94DA6
330
1F
100
AcDbEntity
  8
ケースＡ-AM_0
 60
     1
100
AcDbCircle
 10
3462.135124675588
 20
569.578535215001
 30
0.0
 40
0.5
100
AcDbArc
 50
180.0000000000032
 51
270.0
  0
ARC
  5
94DA8
330
1F
100
AcDbEntity
  8
ケースＡ-AM_0
 60
     1
100
AcDbCircle
 10
3462.135124675588
 20
577.6785352150008
 30
0.0
 40
0.5
100
AcDbArc
 50
90.0
 51
180.0
  0
AMDTACMWBLOCKBOMENTITY
  5
C1EB6
330
1F
100
AcDbEntity
  8
ラッチボルト-AM_5
 48
0.5
 92
        8
310
0800000000000000
  0
AMDTACMWBLOCKBOMENTITY
  5
C1EB7
330
1F
100
AcDbEntity
  8
フロントプレート-AM_5
 48
0.1
 92
        8
310
0800000000000000
  0
AMDTACMWBLOCKBOMENTITY
  5
C1EB8
330
1F
100
AcDbEntity
  8
フロントプレート-AM_5
 48
0.1
 92
        8
310
0800000000000000
  0
AMDTACMWBLOCKBOMENTITY
  5
C1EB9
330
1F
100
AcDbEntity
  8
フロントプレート-AM_5
 48
0.1
 92
        8
310
0800000000000000
  0
AMDTACMWBLOCKBOMENTITY
  5
C1EBA
330
1F
100
AcDbEntity
  8
フロントプレート-AM_5
 48
0.1
 92
        8
310
0800000000000000
  0
AMDTACMWBLOCKBOMENTITY
  5
C1EBB
330
1F
100
AcDbEntity
  8
フロントプレート-AM_5
 48
0.1
 92
        8
310
0800000000000000
  0
AMDTACMWBLOCKBOMENTITY
  5
C1EBC
330
1F
100
AcDbEntity
  8
フロントプレート-AM_5
 48
0.1
 92
        8
310
0800000000000000
  0
AMDTACMWBLOCKBOMENTITY
  5
C1EBD
330
1F
100
AcDbEntity
  8
フロントプレート-AM_5
 48
0.1
 92
        8
310
0800000000000000
  0
AMDTACMWBLOCKBOMENTITY
  5
C1EBE
330
1F
100
AcDbEntity
  8
フロントプレート-AM_5
 48
0.1
 92
        8
310
0800000000000000
  0
AMDTACMWBLOCKBOMENTITY
  5
C1EBF
330
1F
100
AcDbEntity
  8
フロントプレート-AM_5
 48
0.1
 92
        8
310
0800000000000000
  0
AMDTACMWBLOCKBOMENTITY
  5
C1EC0
330
1F
100
AcDbEntity
  8
フロントプレート-AM_5
 48
0.1
 92
        8
310
0800000000000000
  0
AMDTACMWBLOCKBOMENTITY
  5
C1EC1
330
1F
100
AcDbEntity
  8
フロントプレート-AM_5
 48
0.1
 92
        8
310
0800000000000000
  0
AMDTACMWBLOCKBOMENTITY
  5
C1EC2
330
1F
100
AcDbEntity
  8
フロントプレート-AM_5
 48
0.1
 92
        8
310
0800000000000000
  0
AMDTACMWBLOCKBOMENTITY
  5
C1EC3
330
1F
100
AcDbEntity
  8
フロントプレート-AM_5
 48
0.1
 92
        8
310
0800000000000000
  0
AMDTACMWBLOCKBOMENTITY
  5
C1EC4
330
1F
100
AcDbEntity
  8
フロントプレート-AM_5
 48
0.1
 92
        8
310
0800000000000000
  0
MTEXT
  5
CD592
330
1F
100
AcDbEntity
  8
AM_5
 62
     2
100
AcDbMText
 10
1781.104515508141
 20
-23.09974854420707
 30
0.0
 40
3.2
 41
0.0
 71
     9
 72
     5
  1

 73
     1
 44
1.0
  0
MTEXT
  5
CD597
330
1F
100
AcDbEntity
  8
AM_5
 62
     2
100
AcDbMText
 10
1787.504515508142
 20
-23.09974854420707
 30
0.0
 40
3.2
 41
0.0
 71
     7
 72
     5
  1

 73
     1
 44
1.0
  0
LINE
  5
DDEBB
330
1F
100
AcDbEntity
  8
AM_2
100
AcDbLine
 10
3087.749396329135
 20
-96.5037883664636
 30
0.0
 11
3087.749396329135
 21
-144.5037883664636
 31
0.0
  0
LINE
  5
DDEBC
330
1F
100
AcDbEntity
  8
AM_2
100
AcDbLine
 10
3067.749396329134
 20
-104.5037883664636
 30
0.0
 11
3167.749396329134
 21
-104.5037883664636
 31
0.0
  0
LINE
  5
DDEBD
330
1F
100
AcDbEntity
  8
AM_2
100
AcDbLine
 10
3067.749396329134
 20
-112.5037883664636
 30
0.0
 11
3167.749396329134
 21
-112.5037883664636
 31
0.0
  0
LINE
  5
DDEBE
330
1F
100
AcDbEntity
  8
AM_2
100
AcDbLine
 10
3067.749396329134
 20
-120.5037883664636
 30
0.0
 11
3167.749396329134
 21
-120.5037883664636
 31
0.0
  0
LINE
  5
DDEBF
330
1F
100
AcDbEntity
  8
AM_2
100
AcDbLine
 10
3067.749396329134
 20
-128.5037883664636
 30
0.0
 11
3167.749396329134
 21
-128.5037883664636
 31
0.0
  0
LINE
  5
DDEC0
330
1F
100
AcDbEntity
  8
AM_0
100
AcDbLine
 10
3067.749396329134
 20
-116.5037883664636
 30
0.0
 11
3067.749396329134
 21
-212.5037883664636
 31
0.0
  0
LINE
  5
DDEC1
330
1F
100
AcDbEntity
  8
AM_0
100
AcDbLine
 10
3067.749396329134
 20
-96.5037883664636
 30
0.0
 11
3177.749396329135
 21
-96.5037883664636
 31
0.0
  0
LINE
  5
DDEC2
330
1F
100
AcDbEntity
  8
AM_2
100
AcDbLine
 10
3067.749396329134
 20
-136.5037883664636
 30
0.0
 11
3167.749396329134
 21
-136.5037883664636
 31
0.0
  0
TEXT
  5
DDEC4
330
1F
100
AcDbEntity
  8
AM_6
100
AcDbText
 10
3073.406396329135
 20
-102.1037883664636
 30
0.0
 40
3.2
  1
品　名
 41
0.85537027
100
AcDbText
  0
TEXT
  5
DDEC5
330
1F
100
AcDbEntity
  8
AM_6
100
AcDbText
 10
3073.406396329135
 20
-110.1037883664636
 30
0.0
 40
3.2
  1
品　番
 41
0.85537027
100
AcDbText
  0
TEXT
  5
DDEC6
330
1F
100
AcDbEntity
  8
AM_6
100
AcDbText
 10
3073.406396329135
 20
-118.1037883664636
 30
0.0
 40
3.2
  1
材　質
 41
0.85537027
100
AcDbText
  0
TEXT
  5
DDEC7
330
1F
100
AcDbEntity
  8
AM_6
100
AcDbText
 10
3073.406396329135
 20
-126.1037883664636
 30
0.0
 40
3.2
  1
仕上げ
 41
0.85537027
100
AcDbText
  0
LINE
  5
DDEC9
330
1F
100
AcDbEntity
  8
size
100
AcDbLine
 10
3056.249396329135
 20
-385.0037883664636
 30
0.0
 11
3476.249396329135
 21
-385.0037883664636
 31
0.0
1001
GENIUS_GENREC_14
1002
{
1000
PYDIR
1011
3056.249396329135
1021
-88.00378836646359
1031
0.0
1002
}
1002
{
1000
PXDIR
1011
3476.249396329135
1021
-385.0037883664636
1031
0.0
1002
}
1002
{
1000
PORI
1011
3056.249396329135
1021
-385.0037883664636
1031
0.0
1002
}
1002
{
1000
PINS
1011
3266.249396329135
1021
-236.5037883664636
1031
0.0
1002
}
1002
{
1000
HVAL
1000
297
1002
}
1002
{
1000
H
1070
     2
1002
}
1002
{
1000
WVAL
1000
420
1002
}
1002
{
1000
W
1070
     2
1002
}
1002
{
1000
C
1070
     4
1002
}
1001
GENIUS_GENOBJ-N-REC_13
1002
{
1000
OWNER
1000
GEN
1002
}
1001
GENIUS_GENODEF_13
1002
{
1000
HIER
1070
     0
1002
}
1002
{
1000
MANEDIT
1070
     0
1002
}
1002
{
1000
NOSEL
1070
     0
1002
}
1002
{
1000
BEHIND
1070
     0
1002
}
1002
{
1000
OTHER
1070
     0
1002
}
1002
{
1000
REACTOR
1002
}
  0
LINE
  5
DDECA
330
1F
100
AcDbEntity
  8
size
100
AcDbLine
 10
3476.249396329135
 20
-385.0037883664636
 30
0.0
 11
3476.249396329135
 21
-88.00378836646359
 31
0.0
1001
GENIUS_GENREC_14
1002
{
1000
PYDIR
1011
3056.249396329135
1021
-88.00378836646359
1031
0.0
1002
}
1002
{
1000
PXDIR
1011
3476.249396329135
1021
-385.0037883664636
1031
0.0
1002
}
1002
{
1000
PORI
1011
3056.249396329135
1021
-385.0037883664636
1031
0.0
1002
}
1002
{
1000
PINS
1011
3266.249396329135
1021
-236.5037883664636
1031
0.0
1002
}
1002
{
1000
HVAL
1000
297
1002
}
1002
{
1000
H
1070
     2
1002
}
1002
{
1000
WVAL
1000
420
1002
}
1002
{
1000
W
1070
     2
1002
}
1002
{
1000
C
1070
     4
1002
}
1001
GENIUS_GENOBJ-N-REC_13
1002
{
1000
OWNER
1000
GEN
1002
}
1001
GENIUS_GENODEF_13
1002
{
1000
HIER
1070
     0
1002
}
1002
{
1000
MANEDIT
1070
     0
1002
}
1002
{
1000
NOSEL
1070
     0
1002
}
1002
{
1000
BEHIND
1070
     0
1002
}
1002
{
1000
OTHER
1070
     0
1002
}
1002
{
1000
REACTOR
1002
}
  0
LINE
  5
DDECB
330
1F
100
AcDbEntity
  8
size
100
AcDbLine
 10
3056.249396329135
 20
-88.00378836646359
 30
0.0
 11
3056.249396329135
 21
-385.0037883664636
 31
0.0
1001
GENIUS_GENREC_14
1002
{
1000
PYDIR
1011
3056.249396329135
1021
-88.00378836646359
1031
0.0
1002
}
1002
{
1000
PXDIR
1011
3476.249396329135
1021
-385.0037883664636
1031
0.0
1002
}
1002
{
1000
PORI
1011
3056.249396329135
1021
-385.0037883664636
1031
0.0
1002
}
1002
{
1000
PINS
1011
3266.249396329135
1021
-236.5037883664636
1031
0.0
1002
}
1002
{
1000
HVAL
1000
297
1002
}
1002
{
1000
H
1070
     2
1002
}
1002
{
1000
WVAL
1000
420
1002
}
1002
{
1000
W
1070
     2
1002
}
1002
{
1000
C
1070
     4
1002
}
1001
GENIUS_GENOBJ-N-REC_13
1002
{
1000
OWNER
1000
GEN
1002
}
1001
GENIUS_GENODEF_13
1002
{
1000
HIER
1070
     0
1002
}
1002
{
1000
MANEDIT
1070
     0
1002
}
1002
{
1000
NOSEL
1070
     0
1002
}
1002
{
1000
BEHIND
1070
     0
1002
}
1002
{
1000
OTHER
1070
     0
1002
}
1002
{
1000
REACTOR
1002
}
  0
LINE
  5
DDECC
330
1F
100
AcDbEntity
  8
waku
100
AcDbLine
 10
3464.749396329135
 20
-376.5037883664636
 30
0.0
 11
3464.749396329135
 21
-96.5037883664636
 31
0.0
1001
GENIUS_GENREC_14
1002
{
1000
PYDIR
1011
3056.249396329135
1021
-88.00378836646359
1031
0.0
1002
}
1002
{
1000
PXDIR
1011
3476.249396329135
1021
-385.0037883664636
1031
0.0
1002
}
1002
{
1000
PORI
1011
3056.249396329135
1021
-385.0037883664636
1031
0.0
1002
}
1002
{
1000
PINS
1011
3266.249396329135
1021
-236.5037883664636
1031
0.0
1002
}
1002
{
1000
HVAL
1000
297
1002
}
1002
{
1000
H
1070
     2
1002
}
1002
{
1000
WVAL
1000
420
1002
}
1002
{
1000
W
1070
     2
1002
}
1002
{
1000
C
1070
     4
1002
}
1001
GENIUS_GENOBJ-N-REC_13
1002
{
1000
OWNER
1000
GEN
1002
}
1001
GENIUS_GENODEF_13
1002
{
1000
HIER
1070
     0
1002
}
1002
{
1000
MANEDIT
1070
     0
1002
}
1002
{
1000
NOSEL
1070
     0
1002
}
1002
{
1000
BEHIND
1070
     0
1002
}
1002
{
1000
OTHER
1070
     0
1002
}
1002
{
1000
REACTOR
1002
}
  0
LINE
  5
DDECD
330
1F
100
AcDbEntity
  8
waku
100
AcDbLine
 10
3067.749396329134
 20
-96.5037883664636
 30
0.0
 11
3067.749396329134
 21
-376.5037883664636
 31
0.0
1001
GENIUS_GENREC_14
1002
{
1000
PYDIR
1011
3056.249396329135
1021
-88.00378836646359
1031
0.0
1002
}
1002
{
1000
PXDIR
1011
3476.249396329135
1021
-385.0037883664636
1031
0.0
1002
}
1002
{
1000
PORI
1011
3056.249396329135
1021
-385.0037883664636
1031
0.0
1002
}
1002
{
1000
PINS
1011
3266.249396329135
1021
-236.5037883664636
1031
0.0
1002
}
1002
{
1000
HVAL
1000
297
1002
}
1002
{
1000
H
1070
     2
1002
}
1002
{
1000
WVAL
1000
420
1002
}
1002
{
1000
W
1070
     2
1002
}
1002
{
1000
C
1070
     4
1002
}
1001
GENIUS_GENOBJ-N-REC_13
1002
{
1000
OWNER
1000
GEN
1002
}
1001
GENIUS_GENODEF_13
1002
{
1000
HIER
1070
     0
1002
}
1002
{
1000
MANEDIT
1070
     0
1002
}
1002
{
1000
NOSEL
1070
     0
1002
}
1002
{
1000
BEHIND
1070
     0
1002
}
1002
{
1000
OTHER
1070
     0
1002
}
1002
{
1000
REACTOR
1002
}
  0
LINE
  5
DDECE
330
1F
100
AcDbEntity
  8
waku
100
AcDbLine
 10
3464.749396329135
 20
-96.5037883664636
 30
0.0
 11
3067.749396329134
 21
-96.5037883664636
 31
0.0
1001
GENIUS_GENREC_14
1002
{
1000
PYDIR
1011
3056.249396329135
1021
-88.00378836646359
1031
0.0
1002
}
1002
{
1000
PXDIR
1011
3476.249396329135
1021
-385.0037883664636
1031
0.0
1002
}
1002
{
1000
PORI
1011
3056.249396329135
1021
-385.0037883664636
1031
0.0
1002
}
1002
{
1000
PINS
1011
3266.249396329135
1021
-236.5037883664636
1031
0.0
1002
}
1002
{
1000
HVAL
1000
297
1002
}
1002
{
1000
H
1070
     2
1002
}
1002
{
1000
WVAL
1000
420
1002
}
1002
{
1000
W
1070
     2
1002
}
1002
{
1000
C
1070
     4
1002
}
1001
GENIUS_GENOBJ-N-REC_13
1002
{
1000
OWNER
1000
GEN
1002
}
1001
GENIUS_GENODEF_13
1002
{
1000
HIER
1070
     0
1002
}
1002
{
1000
MANEDIT
1070
     0
1002
}
1002
{
1000
NOSEL
1070
     0
1002
}
1002
{
1000
BEHIND
1070
     0
1002
}
1002
{
1000
OTHER
1070
     0
1002
}
1002
{
1000
REACTOR
1002
}
  0
LINE
  5
DDECF
330
1F
100
AcDbEntity
  8
waku
100
AcDbLine
 10
3067.749396329134
 20
-376.5037883664636
 30
0.0
 11
3464.749396329135
 21
-376.5037883664636
 31
0.0
  0
LINE
  5
DDED0
330
1F
100
AcDbEntity
  8
size
100
AcDbLine
 10
3056.249396329135
 20
-88.00378836646359
 30
0.0
 11
3476.249396329135
 21
-88.00378836646359
 31
0.0
1001
GENIUS_GENREC_14
1002
{
1000
PYDIR
1011
3056.249396329135
1021
208.9962116335364
1031
0.0
1002
}
1002
{
1000
PXDIR
1011
3476.249396329135
1021
-88.00378836646359
1031
0.0
1002
}
1002
{
1000
PORI
1011
3056.249396329135
1021
-88.00378836646359
1031
0.0
1002
}
1002
{
1000
PINS
1011
3266.249396329135
1021
60.4962116335364
1031
0.0
1002
}
1002
{
1000
HVAL
1000
297
1002
}
1002
{
1000
H
1070
     2
1002
}
1002
{
1000
WVAL
1000
420
1002
}
1002
{
1000
W
1070
     2
1002
}
1002
{
1000
C
1070
     4
1002
}
1001
GENIUS_GENOBJ-N-REC_13
1002
{
1000
OWNER
1000
GEN
1002
}
1001
GENIUS_GENODEF_13
1002
{
1000
HIER
1070
     0
1002
}
1002
{
1000
MANEDIT
1070
     0
1002
}
1002
{
1000
NOSEL
1070
     0
1002
}
1002
{
1000
BEHIND
1070
     0
1002
}
1002
{
1000
OTHER
1070
     0
1002
}
1002
{
1000
REACTOR
1002
}
  0
TEXT
  5
DDED1
330
1F
100
AcDbEntity
  8
AM_6
100
AcDbText
 10
3093.406396329135
 20
-102.1037883664636
 30
0.0
 40
3.2
  1
レバーハンドル：空錠
 41
0.85537027
100
AcDbText
  0
TEXT
  5
DDED2
330
1F
100
AcDbEntity
  8
AM_6
100
AcDbText
 10
3093.406396329135
 20
-110.1037883664636
 30
0.0
 40
3.2
  1
43C-0
 41
0.85537027
100
AcDbText
  0
TEXT
  5
DDED3
330
1F
100
AcDbEntity
  8
AM_6
100
AcDbText
 10
3093.406396329135
 20
-118.1037883664636
 30
0.0
 40
3.2
  1
亜鉛ダイキャスト
 41
0.85537027
100
AcDbText
  0
TEXT
  5
DDED4
330
1F
100
AcDbEntity
  8
AM_6
100
AcDbText
 10
3093.406396329135
 20
-126.1037883664636
 30
0.0
 40
3.2
  1
光沢クローム、サテンニッケル
 41
0.85537027
100
AcDbText
  0
LINE
  5
DDED5
330
1F
100
AcDbEntity
  8
AM_1
100
AcDbLine
 10
3067.749396329134
 20
-96.5037883664636
 30
0.0
 11
3067.749396329135
 21
-144.5037883664636
 31
0.0
  0
ARC
  5
DDF1B
330
1F
100
AcDbEntity
  8
AM_0
 48
0.3
100
AcDbCircle
 10
3181.738698726626
 20
-307.9143711956429
 30
0.0
 40
23.5
100
AcDbArc
 50
44.79431933892965
 51
6.973069984673947
  0
DIMENSION
  5
DDF1C
330
1F
100
AcDbEntity
  8
AM_5
100
AcDbDimension
  2
*D230
 10
3150.238698726626
 20
-331.4143711956429
 30
0.0
 11
3147.138698726626
 21
-307.9143711956425
 31
0.0
 70
    32
  1
%%c<>
 71
     5
 42
47.0
  3
SYS$0
100
AcDbAlignedDimension
 13
3171.738698726626
 23
-284.414371195643
 33
0.0
 14
3171.738698726626
 24
-331.4143711956429
 34
0.0
 50
90.0
100
AcDbRotatedDimension
1001
ACAD
1000
DSTYLE
1002
{
1070
    47
1040
0.2
1070
    48
1040
0.0
1070
   179
1070
     1
1070
   271
1070
     1
1070
   272
1070
     1
1070
   274
1070
     2
1002
}
  0
LINE
  5
DDFBA
330
1F
100
AcDbEntity
  8
AM_0
100
AcDbLine
 10
3170.938698726626
 20
-190.1932055372851
 30
0.0
 11
3192.538698726626
 21
-190.1932055372829
 31
0.0
  0
DIMENSION
  5
DDFBC
330
1F
100
AcDbEntity
  8
AM_5
100
AcDbDimension
  2
*D231
 10
3302.343544330233
 20
-219.344282604552
 30
0.0
 11
3299.243544330233
 21
-232.7567057205202
 31
0.0
 70
    32
 71
     5
 42
26.82484623193739
  3
SYS$0
100
AcDbAlignedDimension
 13
3289.383361939252
 23
-246.1691288364894
 33
0.0
 14
3290.027422640182
 24
-219.344282604552
 34
0.0
 50
270.0
100
AcDbRotatedDimension
1001
ACAD
1000
DSTYLE
1002
{
1070
    48
1040
0.0
1070
   271
1070
     0
1070
   272
1070
     2
1002
}
  0
LINE
  5
DDFBD
330
1F
100
AcDbEntity
  8
AM_0
100
AcDbLine
 10
3382.467379322173
 20
-190.193205537284
 30
0.0
 11
3357.960093931642
 21
-190.1932055372835
 31
0.0
  0
LINE
  5
DDFC6
330
1F
100
AcDbEntity
  8
AM_0
100
AcDbLine
 10
3159.038698726626
 20
-189.5932055372839
 30
0.0
 11
3204.438698726626
 21
-189.5932055372844
 31
0.0
  0
LINE
  5
DDFC7
330
1F
100
AcDbEntity
  8
AM_0
100
AcDbLine
 10
3158.238698726626
 20
-181.5932055372841
 30
0.0
 11
3205.238698726627
 21
-181.5932055372841
 31
0.0
  0
LINE
  5
DDFC8
330
1F
100
AcDbEntity
  8
AM_0
 48
0.3849999999999852
100
AcDbLine
 10
3158.238698726626
 20
-188.7932055372839
 30
0.0
 11
3158.238698726626
 21
-181.5932055372841
 31
0.0
  0
ARC
  5
DDFC9
330
1F
100
AcDbEntity
  8
AM_0
 48
0.3
100
AcDbCircle
 10
3159.038698726626
 20
-188.7932055372839
 30
0.0
 40
0.8
100
AcDbArc
 50
180.0
 51
270.0
  0
LINE
  5
DDFCA
330
1F
100
AcDbEntity
  8
AM_0
100
AcDbLine
 10
3171.138698726626
 20
-189.5932055372839
 30
0.0
 11
3171.138698726626
 21
-190.193205537284
 31
0.0
1001
GENIUS_GENODEF_13
1002
{
1000
HIER
1070
     0
1002
}
1002
{
1000
MANEDIT
1070
     0
1002
}
1002
{
1000
NOSEL
1070
     0
1002
}
1002
{
1000
BEHIND
1070
     0
1002
}
1002
{
1000
OTHER
1070
     0
1002
}
1002
{
1000
REACTOR
1002
}
1001
GENIUS_GENOBJ-N-CEN_13
1002
{
1000
OWNER
1000
GEN
1002
}
  0
LINE
  5
DDFCB
330
1F
100
AcDbEntity
  8
AM_0
100
AcDbLine
 10
3192.338698726626
 20
-189.5932055372841
 30
0.0
 11
3192.338698726626
 21
-190.193205537284
 31
0.0
1001
GENIUS_GENODEF_13
1002
{
1000
HIER
1070
     0
1002
}
1002
{
1000
MANEDIT
1070
     0
1002
}
1002
{
1000
NOSEL
1070
     0
1002
}
1002
{
1000
BEHIND
1070
     0
1002
}
1002
{
1000
OTHER
1070
     0
1002
}
1002
{
1000
REACTOR
1002
}
1001
GENIUS_GENOBJ-N-CEN_13
1002
{
1000
OWNER
1000
GEN
1002
}
  0
LINE
  5
DDFCC
330
1F
100
AcDbEntity
  8
AM_0
 48
0.385000000000008
100
AcDbLine
 10
3205.238698726626
 20
-188.7932055372844
 30
0.0
 11
3205.238698726626
 21
-181.5932055372841
 31
0.0
  0
ARC
  5
DDFCD
330
1F
100
AcDbEntity
  8
AM_0
 48
0.3
100
AcDbCircle
 10
3204.438698726626
 20
-188.7932055372839
 30
0.0
 40
0.8
100
AcDbArc
 50
270.0
 51
0.0
  0
LINE
  5
DDFCE
330
1F
100
AcDbEntity
  8
AM_0
100
AcDbLine
 10
3355.052808541261
 20
-190.1932055372838
 30
0.0
 11
3379.360093931643
 21
-190.193205537284
 31
0.0
  0
LINE
  5
DDFCF
330
1F
100
AcDbEntity
  8
AM_0
100
AcDbLine
 10
3358.160093931643
 20
-189.5932055372839
 30
0.0
 11
3358.160093931643
 21
-190.193205537284
 31
0.0
1001
GENIUS_GENODEF_13
1002
{
1000
HIER
1070
     0
1002
}
1002
{
1000
MANEDIT
1070
     0
1002
}
1002
{
1000
NOSEL
1070
     0
1002
}
1002
{
1000
BEHIND
1070
     0
1002
}
1002
{
1000
OTHER
1070
     0
1002
}
1002
{
1000
REACTOR
1002
}
1001
GENIUS_GENOBJ-N-CEN_13
1002
{
1000
OWNER
1000
GEN
1002
}
  0
LINE
  5
DDFD0
330
1F
100
AcDbEntity
  8
AM_0
100
AcDbLine
 10
3379.360093931643
 20
-189.5932055372841
 30
0.0
 11
3379.360093931643
 21
-190.193205537284
 31
0.0
1001
GENIUS_GENODEF_13
1002
{
1000
HIER
1070
     0
1002
}
1002
{
1000
MANEDIT
1070
     0
1002
}
1002
{
1000
NOSEL
1070
     0
1002
}
1002
{
1000
BEHIND
1070
     0
1002
}
1002
{
1000
OTHER
1070
     0
1002
}
1002
{
1000
REACTOR
1002
}
1001
GENIUS_GENOBJ-N-CEN_13
1002
{
1000
OWNER
1000
GEN
1002
}
  0
CIRCLE
  5
DDFD1
330
1F
100
AcDbEntity
  8
AM_0
 48
0.4
100
AcDbCircle
 10
3368.760093931643
 20
-183.2932055372838
 30
0.0
 40
0.4999999999999999
  0
CIRCLE
  5
DDFD2
330
1F
100
AcDbEntity
  8
AM_0
 48
0.4
100
AcDbCircle
 10
3368.760093931643
 20
-183.2932055372838
 30
0.0
 40
0.4999999999999999
  0
LINE
  5
DE005
330
1F
100
AcDbEntity
  8
AM_0
100
AcDbLine
 10
3346.060093931644
 20
-189.5932055372839
 30
0.0
 11
3391.460093931643
 21
-189.5932055372844
 31
0.0
  0
LINE
  5
DE006
330
1F
100
AcDbEntity
  8
AM_0
100
AcDbLine
 10
3345.260093931643
 20
-181.5932055372841
 30
0.0
 11
3392.260093931644
 21
-181.5932055372841
 31
0.0
  0
LINE
  5
DE007
330
1F
100
AcDbEntity
  8
AM_0
 48
0.3849999999999852
100
AcDbLine
 10
3345.260093931643
 20
-188.7932055372839
 30
0.0
 11
3345.260093931643
 21
-181.5932055372841
 31
0.0
  0
ARC
  5
DE008
330
1F
100
AcDbEntity
  8
AM_0
 48
0.3
100
AcDbCircle
 10
3346.060093931644
 20
-188.7932055372839
 30
0.0
 40
0.8
100
AcDbArc
 50
180.0
 51
270.0
  0
LINE
  5
DE009
330
1F
100
AcDbEntity
  8
AM_0
 48
0.385000000000008
100
AcDbLine
 10
3392.260093931643
 20
-188.7932055372844
 30
0.0
 11
3392.260093931643
 21
-181.5932055372841
 31
0.0
  0
ARC
  5
DE00A
330
1F
100
AcDbEntity
  8
AM_0
 48
0.3
100
AcDbCircle
 10
3391.460093931643
 20
-188.7932055372839
 30
0.0
 40
0.8
100
AcDbArc
 50
270.0
 51
0.0
  0
DIMENSION
  5
DE023
330
1F
100
AcDbEntity
  8
AM_5
100
AcDbDimension
  2
*D232
 10
3150.238698726626
 20
-189.5932055372839
 30
0.0
 11
3147.638698726626
 21
-185.5932055372835
 31
0.0
 70
    32
 71
     5
 42
7.999999999999772
  3
SYS$0
100
AcDbAlignedDimension
 13
3158.238698726626
 23
-181.5932055372841
 33
0.0
 14
3158.238698726626
 24
-189.5932055372839
 34
0.0
 50
270.0
100
AcDbRotatedDimension
1001
ACAD
1000
DSTYLE
1002
{
1070
   147
1040
1.0
1070
   140
1040
3.2
1070
    41
1040
1.0
1070
   271
1070
     1
1002
}
  0
DIMENSION
  5
DE024
330
1F
100
AcDbEntity
  8
AM_5
100
AcDbDimension
  2
*D233
 10
3310.343544330233
 20
-181.5932055372841
 30
0.0
 11
3307.243544330233
 21
-213.8811671868862
 31
0.0
 70
    32
 71
     5
 42
64.57592329920524
  3
SYS$0
100
AcDbAlignedDimension
 13
3289.383361939252
 23
-246.1691288364894
 33
0.0
 14
3205.238698726626
 24
-181.5932055372841
 34
0.0
 50
270.0
100
AcDbRotatedDimension
1001
ACAD
1000
DSTYLE
1002
{
1070
    48
1040
0.0
1070
   271
1070
     0
1070
   272
1070
     2
1002
}
  0
LINE
  5
DE025
330
1F
100
AcDbEntity
  8
AM_7
 48
0.5
100
AcDbLine
 10
3181.738698726626
 20
-177.5932055372841
 30
0.0
 11
3181.738698726626
 21
-248.5932055372853
 31
0.0
1001
GENIUS_GENODEF_13
1002
{
1000
HIER
1070
     0
1002
}
1002
{
1000
MANEDIT
1070
     0
1002
}
1002
{
1000
NOSEL
1070
     0
1002
}
1002
{
1000
BEHIND
1070
     0
1002
}
1002
{
1000
OTHER
1070
     0
1002
}
1002
{
1000
REACTOR
1002
}
1001
GENIUS_GENOBJ-N-CEN_13
1002
{
1000
OWNER
1000
GEN
1002
}
1001
GENIUS_GENCEN_19
1002
{
1040
4.0
1002
}
  0
DIMENSION
  5
DE028
330
1F
100
AcDbEntity
  8
AM_5
100
AcDbDimension
  2
*D234
 10
3293.343544330233
 20
-256.5932055372847
 30
0.0
 11
3237.54112152843
 21
-253.4932055372848
 31
0.0
 70
    32
 71
     5
 42
111.6048456036064
  3
SYS$0
100
AcDbAlignedDimension
 13
3181.738698726626
 23
-248.5932055372853
 33
0.0
 14
3293.343544330233
 24
-241.9546500002025
 34
0.0
100
AcDbRotatedDimension
1001
ACAD
1000
DSTYLE
1002
{
1070
    47
1040
0.2
1070
    48
1040
0.0
1070
   179
1070
     1
1070
   271
1070
     0
1002
}
  0
POLYLINE
  5
DECE2
330
1F
100
AcDbEntity
  8
AM_0
100
AcDb2dPolyline
 66
     1
 10
0.0
 20
0.0
 30
0.0
  0
VERTEX
  5
DECE3
330
DECE2
100
AcDbEntity
  8
AM_0
100
AcDbVertex
100
AcDb2dVertex
 10
3210.917595432017
 20
-302.1894545698144
 30
0.0
  0
VERTEX
  5
DECE4
330
DECE2
100
AcDbEntity
  8
AM_0
100
AcDbVertex
100
AcDb2dVertex
 10
3211.365660068404
 20
-301.9864411141429
 30
0.0
  0
VERTEX
  5
DECE5
330
DECE2
100
AcDbEntity
  8
AM_0
100
AcDbVertex
100
AcDb2dVertex
 10
3211.814591782597
 20
-301.7852946732997
 30
0.0
  0
VERTEX
  5
DECE6
330
DECE2
100
AcDbEntity
  8
AM_0
100
AcDbVertex
100
AcDb2dVertex
 10
3212.264382020175
 20
-301.5860188792536
 30
0.0
  0
VERTEX
  5
DECE7
330
DECE2
100
AcDbEntity
  8
AM_0
100
AcDbVertex
100
AcDb2dVertex
 10
3212.71502663419
 20
-301.3886160341266
 30
0.0
  0
VERTEX
  5
DECE8
330
DECE2
100
AcDbEntity
  8
AM_0
100
AcDbVertex
100
AcDb2dVertex
 10
3213.16651710744
 20
-301.193089908784
 30
0.0
  0
VERTEX
  5
DECE9
330
DECE2
100
AcDbEntity
  8
AM_0
100
AcDbVertex
100
AcDb2dVertex
 10
3213.252011253866
 20
-301.1564889732767
 30
0.0
  0
SEQEND
  5
DECEA
330
DECE2
100
AcDbEntity
  8
AM_0
  0
POLYLINE
  5
DECEB
330
1F
100
AcDbEntity
  8
AM_0
100
AcDb2dPolyline
 66
     1
 10
0.0
 20
0.0
 30
0.0
  0
VERTEX
  5
DECEC
330
DECEB
100
AcDbEntity
  8
AM_0
100
AcDbVertex
100
AcDb2dVertex
 10
3210.647033369422
 20
-288.0877443173628
 30
0.0
  0
VERTEX
  5
DECED
330
DECEB
100
AcDbEntity
  8
AM_0
100
AcDbVertex
100
AcDb2dVertex
 10
3211.013614056933
 20
-287.9988562196491
 30
0.0
  0
SEQEND
  5
DECEE
330
DECEB
100
AcDbEntity
  8
AM_0
  0
LINE
  5
DECEF
330
1F
100
AcDbEntity
  8
AM_0
100
AcDbLine
 10
3207.958350498721
 20
-288.7710325545364
 30
0.0
 11
3210.650128328961
 21
-288.0870186381289
 31
0.0
  0
POLYLINE
  5
DECF0
330
1F
100
AcDbEntity
  8
AM_0
100
AcDb2dPolyline
 66
     1
 10
0.0
 20
0.0
 30
0.0
 70
   128
  0
VERTEX
  5
DECF1
330
DECF0
100
AcDbEntity
  8
AM_0
100
AcDbVertex
100
AcDb2dVertex
 10
3210.922609614927
 20
-302.1874043964865
 30
0.0
  0
VERTEX
  5
DECF2
330
DECF0
100
AcDbEntity
  8
AM_0
100
AcDbVertex
100
AcDb2dVertex
 10
3211.370674251315
 20
-301.984390940815
 30
0.0
  0
VERTEX
  5
DECF3
330
DECF0
100
AcDbEntity
  8
AM_0
100
AcDbVertex
100
AcDb2dVertex
 10
3211.819605965507
 20
-301.7832444999718
 30
0.0
  0
VERTEX
  5
DECF4
330
DECF0
100
AcDbEntity
  8
AM_0
100
AcDbVertex
100
AcDb2dVertex
 10
3212.269396203086
 20
-301.5839687059257
 30
0.0
  0
VERTEX
  5
DECF5
330
DECF0
100
AcDbEntity
  8
AM_0
100
AcDbVertex
100
AcDb2dVertex
 10
3212.720040817102
 20
-301.3865658607986
 30
0.0
  0
VERTEX
  5
DECF6
330
DECF0
100
AcDbEntity
  8
AM_0
100
AcDbVertex
100
AcDb2dVertex
 10
3213.17153129035
 20
-301.1910397354561
 30
0.0
  0
VERTEX
  5
DECF7
330
DECF0
100
AcDbEntity
  8
AM_0
100
AcDbVertex
100
AcDb2dVertex
 10
3213.623858956764
 20
-300.9973935451772
 30
0.0
  0
VERTEX
  5
DECF8
330
DECF0
100
AcDbEntity
  8
AM_0
100
AcDbVertex
100
AcDb2dVertex
 10
3214.077022003387
 20
-300.8056294132982
 30
0.0
  0
VERTEX
  5
DECF9
330
DECF0
100
AcDbEntity
  8
AM_0
100
AcDbVertex
100
AcDb2dVertex
 10
3214.531009765107
 20
-300.6157519839529
 30
0.0
  0
VERTEX
  5
DECFA
330
DECF0
100
AcDbEntity
  8
AM_0
100
AcDbVertex
100
AcDb2dVertex
 10
3214.985818392714
 20
-300.4277646704344
 30
0.0
  0
VERTEX
  5
DECFB
330
DECF0
100
AcDbEntity
  8
AM_0
100
AcDbVertex
100
AcDb2dVertex
 10
3215.441441703002
 20
-300.241671064823
 30
0.0
  0
VERTEX
  5
DECFC
330
DECF0
100
AcDbEntity
  8
AM_0
100
AcDbVertex
100
AcDb2dVertex
 10
3215.89787366163
 20
-300.0574753147838
 30
0.0
  0
VERTEX
  5
DECFD
330
DECF0
100
AcDbEntity
  8
AM_0
100
AcDbVertex
100
AcDb2dVertex
 10
3216.355105863049
 20
-299.8751816078711
 30
0.0
  0
VERTEX
  5
DECFE
330
DECF0
100
AcDbEntity
  8
AM_0
100
AcDbVertex
100
AcDb2dVertex
 10
3216.813134439438
 20
-299.694793287931
 30
0.0
  0
VERTEX
  5
DECFF
330
DECF0
100
AcDbEntity
  8
AM_0
100
AcDbVertex
100
AcDb2dVertex
 10
3217.271955485761
 20
-299.5163135599121
 30
0.0
  0
VERTEX
  5
DED00
330
DECF0
100
AcDbEntity
  8
AM_0
100
AcDbVertex
100
AcDb2dVertex
 10
3217.731558467164
 20
-299.3397475540858
 30
0.0
  0
VERTEX
  5
DED01
330
DECF0
100
AcDbEntity
  8
AM_0
100
AcDbVertex
100
AcDb2dVertex
 10
3218.19193951583
 20
-299.1650986142975
 30
0.0
  0
VERTEX
  5
DED02
330
DECF0
100
AcDbEntity
  8
AM_0
100
AcDbVertex
100
AcDb2dVertex
 10
3218.653094819762
 20
-298.9923702927375
 30
0.0
  0
VERTEX
  5
DED03
330
DECF0
100
AcDbEntity
  8
AM_0
100
AcDbVertex
100
AcDb2dVertex
 10
3219.115016122279
 20
-298.8215673325463
 30
0.0
  0
VERTEX
  5
DED04
330
DECF0
100
AcDbEntity
  8
AM_0
100
AcDbVertex
100
AcDb2dVertex
 10
3219.577704056074
 20
-298.6526920949638
 30
0.0
  0
VERTEX
  5
DED05
330
DECF0
100
AcDbEntity
  8
AM_0
100
AcDbVertex
100
AcDb2dVertex
 10
3220.041145919778
 20
-298.4857505140811
 30
0.0
  0
VERTEX
  5
DED06
330
DECF0
100
AcDbEntity
  8
AM_0
100
AcDbVertex
100
AcDb2dVertex
 10
3220.505344568425
 20
-298.3207443556627
 30
0.0
  0
VERTEX
  5
DED07
330
DECF0
100
AcDbEntity
  8
AM_0
100
AcDbVertex
100
AcDb2dVertex
 10
3220.970287300649
 20
-298.1576795537995
 30
0.0
  0
VERTEX
  5
DED08
330
DECF0
100
AcDbEntity
  8
AM_0
100
AcDbVertex
100
AcDb2dVertex
 10
3221.435974730532
 20
-297.9965584002834
 30
0.0
  0
VERTEX
  5
DED09
330
DECF0
100
AcDbEntity
  8
AM_0
100
AcDbVertex
100
AcDb2dVertex
 10
3221.902394473054
 20
-297.837388009825
 30
0.0
  0
VERTEX
  5
DED0A
330
DECF0
100
AcDbEntity
  8
AM_0
100
AcDbVertex
100
AcDb2dVertex
 10
3222.36954334891
 20
-297.6801742958549
 30
0.0
  0
VERTEX
  5
DED0B
330
DECF0
100
AcDbEntity
  8
AM_0
100
AcDbVertex
100
AcDb2dVertex
 10
3222.837413715502
 20
-297.524924293305
 30
0.0
  0
VERTEX
  5
DED0C
330
DECF0
100
AcDbEntity
  8
AM_0
100
AcDbVertex
100
AcDb2dVertex
 10
3223.305993559982
 20
-297.371646505851
 30
0.0
  0
VERTEX
  5
DED0D
330
DECF0
100
AcDbEntity
  8
AM_0
100
AcDbVertex
100
AcDb2dVertex
 10
3223.775279703045
 20
-297.2203468469232
 30
0.0
  0
VERTEX
  5
DED0E
330
DECF0
100
AcDbEntity
  8
AM_0
100
AcDbVertex
100
AcDb2dVertex
 10
3224.245260113234
 20
-297.0710337507485
 30
0.0
  0
VERTEX
  5
DED0F
330
DECF0
100
AcDbEntity
  8
AM_0
100
AcDbVertex
100
AcDb2dVertex
 10
3224.71593162055
 20
-296.9237131654815
 30
0.0
  0
VERTEX
  5
DED10
330
DECF0
100
AcDbEntity
  8
AM_0
100
AcDbVertex
100
AcDb2dVertex
 10
3225.187282174925
 20
-296.7783934559015
 30
0.0
  0
VERTEX
  5
DED11
330
DECF0
100
AcDbEntity
  8
AM_0
100
AcDbVertex
100
AcDb2dVertex
 10
3225.659299977507
 20
-296.6350839243382
 30
0.0
  0
VERTEX
  5
DED12
330
DECF0
100
AcDbEntity
  8
AM_0
100
AcDbVertex
100
AcDb2dVertex
 10
3226.131987103157
 20
-296.4937923142701
 30
0.0
  0
VERTEX
  5
DED13
330
DECF0
100
AcDbEntity
  8
AM_0
100
AcDbVertex
100
AcDb2dVertex
 10
3226.605323487035
 20
-296.3545326364437
 30
0.0
  0
VERTEX
  5
DED14
330
DECF0
100
AcDbEntity
  8
AM_0
100
AcDbVertex
100
AcDb2dVertex
 10
3227.079311269132
 20
-296.2173128774058
 30
0.0
  0
VERTEX
  5
DED15
330
DECF0
100
AcDbEntity
  8
AM_0
100
AcDbVertex
100
AcDb2dVertex
 10
3227.55392729558
 20
-296.0821355194965
 30
0.0
  0
VERTEX
  5
DED16
330
DECF0
100
AcDbEntity
  8
AM_0
100
AcDbVertex
100
AcDb2dVertex
 10
3228.029143683164
 20
-295.9489676161254
 30
0.0
  0
VERTEX
  5
DED17
330
DECF0
100
AcDbEntity
  8
AM_0
100
AcDbVertex
100
AcDb2dVertex
 10
3228.504913132363
 20
-295.8177748730591
 30
0.0
  0
VERTEX
  5
DED18
330
DECF0
100
AcDbEntity
  8
AM_0
100
AcDbVertex
100
AcDb2dVertex
 10
3228.981230223306
 20
-295.6886259568046
 30
0.0
  0
SEQEND
  5
DED19
330
DECF0
100
AcDbEntity
  8
AM_0
  0
POLYLINE
  5
DED1A
330
1F
100
AcDbEntity
  8
AM_0
100
AcDb2dPolyline
 66
     1
 10
0.0
 20
0.0
 30
0.0
 70
   128
  0
VERTEX
  5
DED1B
330
DED1A
100
AcDbEntity
  8
AM_0
100
AcDbVertex
100
AcDb2dVertex
 10
3210.652047552333
 20
-288.0856941440349
 30
0.0
  0
VERTEX
  5
DED1C
330
DED1A
100
AcDbEntity
  8
AM_0
100
AcDbVertex
100
AcDb2dVertex
 10
3212.91908598804
 20
-287.5359850598988
 30
0.0
  0
VERTEX
  5
DED1D
330
DED1A
100
AcDbEntity
  8
AM_0
100
AcDbVertex
100
AcDb2dVertex
 10
3215.19837093276
 20
-287.0318294502562
 30
0.0
  0
VERTEX
  5
DED1E
330
DED1A
100
AcDbEntity
  8
AM_0
100
AcDbVertex
100
AcDb2dVertex
 10
3216.339628391569
 20
-286.7925747833369
 30
0.0
  0
VERTEX
  5
DED1F
330
DED1A
100
AcDbEntity
  8
AM_0
100
AcDbVertex
100
AcDb2dVertex
 10
3217.480376727025
 20
-286.5595982662614
 30
0.0
  0
VERTEX
  5
DED20
330
DED1A
100
AcDbEntity
  8
AM_0
100
AcDbVertex
100
AcDb2dVertex
 10
3218.619421156504
 20
-286.3311966155235
 30
0.0
  0
VERTEX
  5
DED21
330
DED1A
100
AcDbEntity
  8
AM_0
100
AcDbVertex
100
AcDb2dVertex
 10
3220.776553651694
 20
-285.9047109743768
 30
0.0
  0
SEQEND
  5
DED22
330
DED1A
100
AcDbEntity
  8
AM_0
  0
POLYLINE
  5
DED23
330
1F
100
AcDbEntity
  8
AM_0
100
AcDb2dPolyline
 66
     1
 10
0.0
 20
0.0
 30
0.0
 70
   128
  0
VERTEX
  5
DED24
330
DED23
100
AcDbEntity
  8
AM_0
100
AcDbVertex
100
AcDb2dVertex
 10
3220.776549207006
 20
-285.9047121653271
 30
0.0
  0
VERTEX
  5
DED25
330
DED23
100
AcDbEntity
  8
AM_0
100
AcDbVertex
100
AcDb2dVertex
 10
3220.848369702707
 20
-285.8906545100227
 30
0.0
  0
VERTEX
  5
DED26
330
DED23
100
AcDbEntity
  8
AM_0
100
AcDbVertex
100
AcDb2dVertex
 10
3220.929991588298
 20
-285.874685150387
 30
0.0
  0
VERTEX
  5
DED27
330
DED23
100
AcDbEntity
  8
AM_0
100
AcDbVertex
100
AcDb2dVertex
 10
3221.094885104843
 20
-285.842449679114
 30
0.0
  0
VERTEX
  5
DED28
330
DED23
100
AcDbEntity
  8
AM_0
100
AcDbVertex
100
AcDb2dVertex
 10
3221.426373859112
 20
-285.7777692884617
 30
0.0
  0
VERTEX
  5
DED29
330
DED23
100
AcDbEntity
  8
AM_0
100
AcDbVertex
100
AcDb2dVertex
 10
3222.090963729409
 20
-285.648576715073
 30
0.0
  0
VERTEX
  5
DED2A
330
DED23
100
AcDbEntity
  8
AM_0
100
AcDbVertex
100
AcDb2dVertex
 10
3223.419882642792
 20
-285.391191588914
 30
0.0
  0
VERTEX
  5
DED2B
330
DED23
100
AcDbEntity
  8
AM_0
100
AcDbVertex
100
AcDb2dVertex
 10
3224.749973895345
 20
-285.1308746266812
 30
0.0
  0
VERTEX
  5
DED2C
330
DED23
100
AcDbEntity
  8
AM_0
100
AcDbVertex
100
AcDb2dVertex
 10
3226.080474458899
 20
-284.86285806369
 30
0.0
  0
SEQEND
  5
DED2D
330
DED23
100
AcDbEntity
  8
AM_0
  0
LINE
  5
DED2E
330
1F
100
AcDbEntity
  8
AM_0
100
AcDbLine
 10
3207.963364681631
 20
-288.7689823812087
 30
0.0
 11
3210.655142511872
 21
-288.084968464801
 31
0.0
  0
POLYLINE
  5
DED2F
330
1F
100
AcDbEntity
  8
AM_0
100
AcDb2dPolyline
 66
     1
 10
0.0
 20
0.0
 30
0.0
 70
   128
  0
VERTEX
  5
DED30
330
DED2F
100
AcDbEntity
  8
AM_0
100
AcDbVertex
100
AcDb2dVertex
 10
3275.847077619051
 20
-289.1937658869722
 30
0.0
  0
VERTEX
  5
DED31
330
DED2F
100
AcDbEntity
  8
AM_0
100
AcDbVertex
100
AcDb2dVertex
 10
3272.884336106802
 20
-289.247492586946
 30
0.0
  0
VERTEX
  5
DED32
330
DED2F
100
AcDbEntity
  8
AM_0
100
AcDbVertex
100
AcDb2dVertex
 10
3269.921889644165
 20
-289.3527053988509
 30
0.0
  0
VERTEX
  5
DED33
330
DED2F
100
AcDbEntity
  8
AM_0
100
AcDbVertex
100
AcDb2dVertex
 10
3266.960698320144
 20
-289.5081871616786
 30
0.0
  0
VERTEX
  5
DED34
330
DED2F
100
AcDbEntity
  8
AM_0
100
AcDbVertex
100
AcDb2dVertex
 10
3264.001704742736
 20
-289.7127265893935
 30
0.0
  0
VERTEX
  5
DED35
330
DED2F
100
AcDbEntity
  8
AM_0
100
AcDbVertex
100
AcDb2dVertex
 10
3261.0458957435
 20
-289.9650996530784
 30
0.0
  0
VERTEX
  5
DED36
330
DED2F
100
AcDbEntity
  8
AM_0
100
AcDbVertex
100
AcDb2dVertex
 10
3258.094204817756
 20
-290.2640966152198
 30
0.0
  0
VERTEX
  5
DED37
330
DED2F
100
AcDbEntity
  8
AM_0
100
AcDbVertex
100
AcDb2dVertex
 10
3255.147610130993
 20
-290.6084966621798
 30
0.0
  0
VERTEX
  5
DED38
330
DED2F
100
AcDbEntity
  8
AM_0
100
AcDbVertex
100
AcDb2dVertex
 10
3252.207062882845
 20
-290.9970850148503
 30
0.0
  0
VERTEX
  5
DED39
330
DED2F
100
AcDbEntity
  8
AM_0
100
AcDbVertex
100
AcDb2dVertex
 10
3249.273527793088
 20
-291.4286440157555
 30
0.0
  0
VERTEX
  5
DED3A
330
DED2F
100
AcDbEntity
  8
AM_0
100
AcDbVertex
100
AcDb2dVertex
 10
3246.347965136813
 20
-291.9019571983687
 30
0.0
  0
VERTEX
  5
DED3B
330
DED2F
100
AcDbEntity
  8
AM_0
100
AcDbVertex
100
AcDb2dVertex
 10
3243.430163407433
 20
-292.4186175615857
 30
0.0
  0
VERTEX
  5
DED3C
330
DED2F
100
AcDbEntity
  8
AM_0
100
AcDbVertex
100
AcDb2dVertex
 10
3240.520068456969
 20
-292.981072055849
 30
0.0
  0
VERTEX
  5
DED3D
330
DED2F
100
AcDbEntity
  8
AM_0
100
AcDbVertex
100
AcDb2dVertex
 10
3237.618897546789
 20
-293.5893122029482
 30
0.0
  0
VERTEX
  5
DED3E
330
DED2F
100
AcDbEntity
  8
AM_0
100
AcDbVertex
100
AcDb2dVertex
 10
3234.727881235106
 20
-294.2433258129252
 30
0.0
  0
VERTEX
  5
DED3F
330
DED2F
100
AcDbEntity
  8
AM_0
100
AcDbVertex
100
AcDb2dVertex
 10
3231.848250080132
 20
-294.9431006958225
 30
0.0
  0
VERTEX
  5
DED40
330
DED2F
100
AcDbEntity
  8
AM_0
100
AcDbVertex
100
AcDb2dVertex
 10
3228.981230223306
 20
-295.6886259568046
 30
0.0
  0
SEQEND
  5
DED41
330
DED2F
100
AcDbEntity
  8
AM_0
  0
POLYLINE
  5
DED42
330
1F
100
AcDbEntity
  8
AM_0
100
AcDb2dPolyline
 66
     1
 10
0.0
 20
0.0
 30
0.0
 70
   128
  0
VERTEX
  5
DED43
330
DED42
100
AcDbEntity
  8
AM_0
100
AcDbVertex
100
AcDb2dVertex
 10
3226.080473863424
 20
-284.8628558413466
 30
0.0
  0
VERTEX
  5
DED44
330
DED42
100
AcDbEntity
  8
AM_0
100
AcDbVertex
100
AcDb2dVertex
 10
3229.145441239125
 20
-284.2571325371622
 30
0.0
  0
VERTEX
  5
DED45
330
DED42
100
AcDbEntity
  8
AM_0
100
AcDbVertex
100
AcDb2dVertex
 10
3232.219643547482
 20
-283.6938037924547
 30
0.0
  0
VERTEX
  5
DED46
330
DED42
100
AcDbEntity
  8
AM_0
100
AcDbVertex
100
AcDb2dVertex
 10
3235.30220939163
 20
-283.1724087732894
 30
0.0
  0
VERTEX
  5
DED47
330
DED42
100
AcDbEntity
  8
AM_0
100
AcDbVertex
100
AcDb2dVertex
 10
3238.392260122891
 20
-282.6924951390776
 30
0.0
  0
VERTEX
  5
DED48
330
DED42
100
AcDbEntity
  8
AM_0
100
AcDbVertex
100
AcDb2dVertex
 10
3241.488929235693
 20
-282.2536025316931
 30
0.0
  0
VERTEX
  5
DED49
330
DED42
100
AcDbEntity
  8
AM_0
100
AcDbVertex
100
AcDb2dVertex
 10
3244.591341781698
 20
-281.855274641667
 30
0.0
  0
VERTEX
  5
DED4A
330
DED42
100
AcDbEntity
  8
AM_0
100
AcDbVertex
100
AcDb2dVertex
 10
3247.698618219014
 20
-281.4970557948954
 30
0.0
  0
VERTEX
  5
DED4B
330
DED42
100
AcDbEntity
  8
AM_0
100
AcDbVertex
100
AcDb2dVertex
 10
3250.809897082233
 20
-281.178486664645
 30
0.0
  0
VERTEX
  5
DED4C
330
DED42
100
AcDbEntity
  8
AM_0
100
AcDbVertex
100
AcDb2dVertex
 10
3253.924294384773
 20
-280.8991127677619
 30
0.0
  0
VERTEX
  5
DED4D
330
DED42
100
AcDbEntity
  8
AM_0
100
AcDbVertex
100
AcDb2dVertex
 10
3257.040943918803
 20
-280.6584748572912
 30
0.0
  0
VERTEX
  5
DED4E
330
DED42
100
AcDbEntity
  8
AM_0
100
AcDbVertex
100
AcDb2dVertex
 10
3260.158966291298
 20
-280.4561178147148
 30
0.0
  0
VERTEX
  5
DED4F
330
DED42
100
AcDbEntity
  8
AM_0
100
AcDbVertex
100
AcDb2dVertex
 10
3263.277499887982
 20
-280.2915817577136
 30
0.0
  0
VERTEX
  5
DED50
330
DED42
100
AcDbEntity
  8
AM_0
100
AcDbVertex
100
AcDb2dVertex
 10
3266.395651832898
 20
-280.1644145850337
 30
0.0
  0
VERTEX
  5
DED51
330
DED42
100
AcDbEntity
  8
AM_0
100
AcDbVertex
100
AcDb2dVertex
 10
3269.513863291353
 20
-280.0733470333329
 30
0.0
  0
VERTEX
  5
DED52
330
DED42
100
AcDbEntity
  8
AM_0
100
AcDbVertex
100
AcDb2dVertex
 10
3271.07503635199
 20
-280.039173286677
 30
0.0
  0
VERTEX
  5
DED53
330
DED42
100
AcDbEntity
  8
AM_0
100
AcDbVertex
100
AcDb2dVertex
 10
3272.637301040032
 20
-280.0115270161823
 30
0.0
  0
VERTEX
  5
DED54
330
DED42
100
AcDbEntity
  8
AM_0
100
AcDbVertex
100
AcDb2dVertex
 10
3275.762985524551
 20
-279.9732038671219
 30
0.0
  0
SEQEND
  5
DED55
330
DED42
100
AcDbEntity
  8
AM_0
  0
POLYLINE
  5
DED56
330
1F
100
AcDbEntity
  8
AM_0
100
AcDb2dPolyline
 66
     1
 10
0.0
 20
0.0
 30
0.0
 70
   128
  0
VERTEX
  5
DED57
330
DED56
100
AcDbEntity
  8
AM_0
100
AcDbVertex
100
AcDb2dVertex
 10
3293.437513964017
 20
-284.6334300124977
 30
0.0
  0
VERTEX
  5
DED58
330
DED56
100
AcDbEntity
  8
AM_0
100
AcDbVertex
100
AcDb2dVertex
 10
3293.423907181794
 20
-284.7887756140571
 30
0.0
  0
VERTEX
  5
DED59
330
DED56
100
AcDbEntity
  8
AM_0
100
AcDbVertex
100
AcDb2dVertex
 10
3293.401793585253
 20
-284.939112589336
 30
0.0
  0
VERTEX
  5
DED5A
330
DED56
100
AcDbEntity
  8
AM_0
100
AcDbVertex
100
AcDb2dVertex
 10
3293.335656195307
 20
-285.2188198901102
 30
0.0
  0
VERTEX
  5
DED5B
330
DED56
100
AcDbEntity
  8
AM_0
100
AcDbVertex
100
AcDb2dVertex
 10
3293.244643676142
 20
-285.4737489920803
 30
0.0
  0
VERTEX
  5
DED5C
330
DED56
100
AcDbEntity
  8
AM_0
100
AcDbVertex
100
AcDb2dVertex
 10
3293.131513306575
 20
-285.7099233003678
 30
0.0
  0
VERTEX
  5
DED5D
330
DED56
100
AcDbEntity
  8
AM_0
100
AcDbVertex
100
AcDb2dVertex
 10
3292.99654417831
 20
-285.9326868564009
 30
0.0
  0
VERTEX
  5
DED5E
330
DED56
100
AcDbEntity
  8
AM_0
100
AcDbVertex
100
AcDb2dVertex
 10
3292.835289176846
 20
-286.1496219001819
 30
0.0
  0
VERTEX
  5
DED5F
330
DED56
100
AcDbEntity
  8
AM_0
100
AcDbVertex
100
AcDb2dVertex
 10
3292.644979123294
 20
-286.3630877414538
 30
0.0
  0
VERTEX
  5
DED60
330
DED56
100
AcDbEntity
  8
AM_0
100
AcDbVertex
100
AcDb2dVertex
 10
3292.426903001217
 20
-286.5697878232895
 30
0.0
  0
VERTEX
  5
DED61
330
DED56
100
AcDbEntity
  8
AM_0
100
AcDbVertex
100
AcDb2dVertex
 10
3292.184626412958
 20
-286.7663526891803
 30
0.0
  0
VERTEX
  5
DED62
330
DED56
100
AcDbEntity
  8
AM_0
100
AcDbVertex
100
AcDb2dVertex
 10
3291.926067474398
 20
-286.9474868038444
 30
0.0
  0
VERTEX
  5
DED63
330
DED56
100
AcDbEntity
  8
AM_0
100
AcDbVertex
100
AcDb2dVertex
 10
3291.655831563782
 20
-287.112278907429
 30
0.0
  0
VERTEX
  5
DED64
330
DED56
100
AcDbEntity
  8
AM_0
100
AcDbVertex
100
AcDb2dVertex
 10
3291.380934150069
 20
-287.2603140795498
 30
0.0
  0
VERTEX
  5
DED65
330
DED56
100
AcDbEntity
  8
AM_0
100
AcDbVertex
100
AcDb2dVertex
 10
3291.105257610186
 20
-287.3933519645801
 30
0.0
  0
VERTEX
  5
DED66
330
DED56
100
AcDbEntity
  8
AM_0
100
AcDbVertex
100
AcDb2dVertex
 10
3290.828534131595
 20
-287.5142332820999
 30
0.0
  0
VERTEX
  5
DED67
330
DED56
100
AcDbEntity
  8
AM_0
100
AcDbVertex
100
AcDb2dVertex
 10
3290.272766076532
 20
-287.7267101142527
 30
0.0
  0
VERTEX
  5
DED68
330
DED56
100
AcDbEntity
  8
AM_0
100
AcDbVertex
100
AcDb2dVertex
 10
3289.714736495439
 20
-287.9071721965262
 30
0.0
  0
VERTEX
  5
DED69
330
DED56
100
AcDbEntity
  8
AM_0
100
AcDbVertex
100
AcDb2dVertex
 10
3289.154543790802
 20
-288.0629204837201
 30
0.0
  0
VERTEX
  5
DED6A
330
DED56
100
AcDbEntity
  8
AM_0
100
AcDbVertex
100
AcDb2dVertex
 10
3288.025173048768
 20
-288.3209000269874
 30
0.0
  0
VERTEX
  5
DED6B
330
DED56
100
AcDbEntity
  8
AM_0
100
AcDbVertex
100
AcDb2dVertex
 10
3286.88145100142
 20
-288.5230440899276
 30
0.0
  0
VERTEX
  5
DED6C
330
DED56
100
AcDbEntity
  8
AM_0
100
AcDbVertex
100
AcDb2dVertex
 10
3285.720607687815
 20
-288.6862876369739
 30
0.0
  0
VERTEX
  5
DED6D
330
DED56
100
AcDbEntity
  8
AM_0
100
AcDbVertex
100
AcDb2dVertex
 10
3284.537474202158
 20
-288.820532753268
 30
0.0
  0
VERTEX
  5
DED6E
330
DED56
100
AcDbEntity
  8
AM_0
100
AcDbVertex
100
AcDb2dVertex
 10
3283.333607652317
 20
-288.9288171598086
 30
0.0
  0
VERTEX
  5
DED6F
330
DED56
100
AcDbEntity
  8
AM_0
100
AcDbVertex
100
AcDb2dVertex
 10
3282.112121192
 20
-289.0139766028966
 30
0.0
  0
VERTEX
  5
DED70
330
DED56
100
AcDbEntity
  8
AM_0
100
AcDbVertex
100
AcDb2dVertex
 10
3280.876118787804
 20
-289.0788480995619
 30
0.0
  0
VERTEX
  5
DED71
330
DED56
100
AcDbEntity
  8
AM_0
100
AcDbVertex
100
AcDb2dVertex
 10
3279.628730776705
 20
-289.1262604099603
 30
0.0
  0
VERTEX
  5
DED72
330
DED56
100
AcDbEntity
  8
AM_0
100
AcDbVertex
100
AcDb2dVertex
 10
3279.001734020004
 20
-289.1443075605506
 30
0.0
  0
VERTEX
  5
DED73
330
DED56
100
AcDbEntity
  8
AM_0
100
AcDbVertex
100
AcDb2dVertex
 10
3278.372999005799
 20
-289.1590320629587
 30
0.0
  0
VERTEX
  5
DED74
330
DED56
100
AcDbEntity
  8
AM_0
100
AcDbVertex
100
AcDb2dVertex
 10
3277.111093503152
 20
-289.1800347616579
 30
0.0
  0
VERTEX
  5
DED75
330
DED56
100
AcDbEntity
  8
AM_0
100
AcDbVertex
100
AcDb2dVertex
 10
3275.847076428102
 20
-289.1937614422853
 30
0.0
  0
SEQEND
  5
DED76
330
DED56
100
AcDbEntity
  8
AM_0
  0
POLYLINE
  5
DED77
330
1F
100
AcDbEntity
  8
AM_0
100
AcDb2dPolyline
 66
     1
 10
0.0
 20
0.0
 30
0.0
 70
   128
  0
VERTEX
  5
DED78
330
DED77
100
AcDbEntity
  8
AM_0
100
AcDbVertex
100
AcDb2dVertex
 10
3275.762985226813
 20
-279.9732027559502
 30
0.0
  0
VERTEX
  5
DED79
330
DED77
100
AcDbEntity
  8
AM_0
100
AcDbVertex
100
AcDb2dVertex
 10
3278.273627342739
 20
-279.971015249279
 30
0.0
  0
VERTEX
  5
DED7A
330
DED77
100
AcDbEntity
  8
AM_0
100
AcDbVertex
100
AcDb2dVertex
 10
3280.783764748761
 20
-280.0252228755032
 30
0.0
  0
VERTEX
  5
DED7B
330
DED77
100
AcDbEntity
  8
AM_0
100
AcDbVertex
100
AcDb2dVertex
 10
3282.03754507813
 20
-280.0808180076979
 30
0.0
  0
VERTEX
  5
DED7C
330
DED77
100
AcDbEntity
  8
AM_0
100
AcDbVertex
100
AcDb2dVertex
 10
3283.289931428511
 20
-280.1593011613038
 30
0.0
  0
VERTEX
  5
DED7D
330
DED77
100
AcDbEntity
  8
AM_0
100
AcDbVertex
100
AcDb2dVertex
 10
3284.542164961803
 20
-280.2637754432582
 30
0.0
  0
VERTEX
  5
DED7E
330
DED77
100
AcDbEntity
  8
AM_0
100
AcDbVertex
100
AcDb2dVertex
 10
3285.791916131499
 20
-280.4023655632316
 30
0.0
  0
VERTEX
  5
DED7F
330
DED77
100
AcDbEntity
  8
AM_0
100
AcDbVertex
100
AcDb2dVertex
 10
3287.034829168076
 20
-280.5848436551109
 30
0.0
  0
VERTEX
  5
DED80
330
DED77
100
AcDbEntity
  8
AM_0
100
AcDbVertex
100
AcDb2dVertex
 10
3288.266548267119
 20
-280.820981722568
 30
0.0
  0
VERTEX
  5
DED81
330
DED77
100
AcDbEntity
  8
AM_0
100
AcDbVertex
100
AcDb2dVertex
 10
3288.878038833524
 20
-280.962961017267
 30
0.0
  0
VERTEX
  5
DED82
330
DED77
100
AcDbEntity
  8
AM_0
100
AcDbVertex
100
AcDb2dVertex
 10
3289.485343681646
 20
-281.1253387420831
 30
0.0
  0
VERTEX
  5
DED83
330
DED77
100
AcDbEntity
  8
AM_0
100
AcDbVertex
100
AcDb2dVertex
 10
3290.082334922837
 20
-281.3115222947685
 30
0.0
  0
VERTEX
  5
DED84
330
DED77
100
AcDbEntity
  8
AM_0
100
AcDbVertex
100
AcDb2dVertex
 10
3290.662785428331
 20
-281.5249042788626
 30
0.0
  0
VERTEX
  5
DED85
330
DED77
100
AcDbEntity
  8
AM_0
100
AcDbVertex
100
AcDb2dVertex
 10
3291.220445675683
 20
-281.7688648385442
 30
0.0
  0
VERTEX
  5
DED86
330
DED77
100
AcDbEntity
  8
AM_0
100
AcDbVertex
100
AcDb2dVertex
 10
3291.487019077112
 20
-281.9030611266597
 30
0.0
  0
VERTEX
  5
DED87
330
DED77
100
AcDbEntity
  8
AM_0
100
AcDbVertex
100
AcDb2dVertex
 10
3291.74232981172
 20
-282.045431754278
 30
0.0
  0
VERTEX
  5
DED88
330
DED77
100
AcDbEntity
  8
AM_0
100
AcDbVertex
100
AcDb2dVertex
 10
3291.984828318999
 20
-282.1960251121969
 30
0.0
  0
VERTEX
  5
DED89
330
DED77
100
AcDbEntity
  8
AM_0
100
AcDbVertex
100
AcDb2dVertex
 10
3292.212947408562
 20
-282.3548949105993
 30
0.0
  0
VERTEX
  5
DED8A
330
DED77
100
AcDbEntity
  8
AM_0
100
AcDbVertex
100
AcDb2dVertex
 10
3292.425115604511
 20
-282.5220433084187
 30
0.0
  0
VERTEX
  5
DED8B
330
DED77
100
AcDbEntity
  8
AM_0
100
AcDbVertex
100
AcDb2dVertex
 10
3292.619913247288
 20
-282.6966523085563
 30
0.0
  0
VERTEX
  5
DED8C
330
DED77
100
AcDbEntity
  8
AM_0
100
AcDbVertex
100
AcDb2dVertex
 10
3292.796609933681
 20
-282.8794806437133
 30
0.0
  0
VERTEX
  5
DED8D
330
DED77
100
AcDbEntity
  8
AM_0
100
AcDbVertex
100
AcDb2dVertex
 10
3292.954664684933
 20
-283.0719228733038
 30
0.0
  0
VERTEX
  5
DED8E
330
DED77
100
AcDbEntity
  8
AM_0
100
AcDbVertex
100
AcDb2dVertex
 10
3293.093492373158
 20
-283.2753865774155
 30
0.0
  0
VERTEX
  5
DED8F
330
DED77
100
AcDbEntity
  8
AM_0
100
AcDbVertex
100
AcDb2dVertex
 10
3293.213254324107
 20
-283.4930339716537
 30
0.0
  0
VERTEX
  5
DED90
330
DED77
100
AcDbEntity
  8
AM_0
100
AcDbVertex
100
AcDb2dVertex
 10
3293.315379323387
 20
-283.7381977930968
 30
0.0
  0
VERTEX
  5
DED91
330
DED77
100
AcDbEntity
  8
AM_0
100
AcDbVertex
100
AcDb2dVertex
 10
3293.392871618491
 20
-284.0151356395129
 30
0.0
  0
VERTEX
  5
DED92
330
DED77
100
AcDbEntity
  8
AM_0
100
AcDbVertex
100
AcDb2dVertex
 10
3293.419156719085
 20
-284.1646846670832
 30
0.0
  0
VERTEX
  5
DED93
330
DED77
100
AcDbEntity
  8
AM_0
100
AcDbVertex
100
AcDb2dVertex
 10
3293.435456215848
 20
-284.3189958740468
 30
0.0
  0
VERTEX
  5
DED94
330
DED77
100
AcDbEntity
  8
AM_0
100
AcDbVertex
100
AcDb2dVertex
 10
3293.437513815148
 20
-284.633429456912
 30
0.0
  0
SEQEND
  5
DED95
330
DED77
100
AcDbEntity
  8
AM_0
  0
LINE
  5
DED96
330
1F
100
AcDbEntity
  8
AM_0
100
AcDbLine
 10
3226.081086926463
 20
-284.8651616025043
 30
0.0
 11
3226.080474458899
 21
-284.86285806369
 31
0.0
  0
POLYLINE
  5
DED97
330
1F
100
AcDbEntity
  8
AM_0
100
AcDb2dPolyline
 66
     1
 10
0.0
 20
0.0
 30
0.0
 70
   128
  0
VERTEX
  5
DED98
330
DED97
100
AcDbEntity
  8
AM_0
100
AcDbVertex
100
AcDb2dVertex
 10
3220.776553651694
 20
-285.9047109743768
 30
0.0
  0
VERTEX
  5
DED99
330
DED97
100
AcDbEntity
  8
AM_0
100
AcDbVertex
100
AcDb2dVertex
 10
3220.997637032686
 20
-285.8614913333481
 30
0.0
  0
VERTEX
  5
DED9A
330
DED97
100
AcDbEntity
  8
AM_0
100
AcDbVertex
100
AcDb2dVertex
 10
3221.218740383471
 20
-285.8183639993528
 30
0.0
  0
VERTEX
  5
DED9B
330
DED97
100
AcDbEntity
  8
AM_0
100
AcDbVertex
100
AcDb2dVertex
 10
3221.439858068413
 20
-285.7753257186548
 30
0.0
  0
VERTEX
  5
DED9C
330
DED97
100
AcDbEntity
  8
AM_0
100
AcDbVertex
100
AcDb2dVertex
 10
3221.66099334125
 20
-285.7323708556165
 30
0.0
  0
VERTEX
  5
DED9D
330
DED97
100
AcDbEntity
  8
AM_0
100
AcDbVertex
100
AcDb2dVertex
 10
3221.882145308767
 20
-285.6894960767225
 30
0.0
  0
VERTEX
  5
DED9E
330
DED97
100
AcDbEntity
  8
AM_0
100
AcDbVertex
100
AcDb2dVertex
 10
3222.103312482276
 20
-285.6466958261144
 30
0.0
  0
VERTEX
  5
DED9F
330
DED97
100
AcDbEntity
  8
AM_0
100
AcDbVertex
100
AcDb2dVertex
 10
3222.324489226141
 20
-285.6039668500552
 30
0.0
  0
VERTEX
  5
DEDA0
330
DED97
100
AcDbEntity
  8
AM_0
100
AcDbVertex
100
AcDb2dVertex
 10
3222.545679963672
 20
-285.5612900990685
 30
0.0
  0
VERTEX
  5
DEDA1
330
DED97
100
AcDbEntity
  8
AM_0
100
AcDbVertex
100
AcDb2dVertex
 10
3222.766873699954
 20
-285.5186423183253
 30
0.0
  0
VERTEX
  5
DEDA2
330
DED97
100
AcDbEntity
  8
AM_0
100
AcDbVertex
100
AcDb2dVertex
 10
3222.988063289289
 20
-285.4759968397043
 30
0.0
  0
VERTEX
  5
DEDA3
330
DED97
100
AcDbEntity
  8
AM_0
100
AcDbVertex
100
AcDb2dVertex
 10
3223.209241585971
 20
-285.4333269950836
 30
0.0
  0
VERTEX
  5
DEDA4
330
DED97
100
AcDbEntity
  8
AM_0
100
AcDbVertex
100
AcDb2dVertex
 10
3223.4304014443
 20
-285.3906061163408
 30
0.0
  0
VERTEX
  5
DEDA5
330
DED97
100
AcDbEntity
  8
AM_0
100
AcDbVertex
100
AcDb2dVertex
 10
3223.651540461001
 20
-285.3478074555757
 30
0.0
  0
VERTEX
  5
DEDA6
330
DED97
100
AcDbEntity
  8
AM_0
100
AcDbVertex
100
AcDb2dVertex
 10
3223.872647343418
 20
-285.3049066467882
 30
0.0
  0
VERTEX
  5
DEDA7
330
DED97
100
AcDbEntity
  8
AM_0
100
AcDbVertex
100
AcDb2dVertex
 10
3224.093719092803
 20
-285.2618747197343
 30
0.0
  0
VERTEX
  5
DEDA8
330
DED97
100
AcDbEntity
  8
AM_0
100
AcDbVertex
100
AcDb2dVertex
 10
3224.314744416503
 20
-285.218687308414
 30
0.0
  0
VERTEX
  5
DEDA9
330
DED97
100
AcDbEntity
  8
AM_0
100
AcDbVertex
100
AcDb2dVertex
 10
3224.535726844616
 20
-285.1753220298353
 30
0.0
  0
VERTEX
  5
DEDAA
330
DED97
100
AcDbEntity
  8
AM_0
100
AcDbVertex
100
AcDb2dVertex
 10
3224.756656573178
 20
-285.1317600738572
 30
0.0
  0
VERTEX
  5
DEDAB
330
DED97
100
AcDbEntity
  8
AM_0
100
AcDbVertex
100
AcDb2dVertex
 10
3224.977538025501
 20
-285.0879823910025
 30
0.0
  0
VERTEX
  5
DEDAC
330
DED97
100
AcDbEntity
  8
AM_0
100
AcDbVertex
100
AcDb2dVertex
 10
3225.198365544569
 20
-285.0439678690083
 30
0.0
  0
VERTEX
  5
DEDAD
330
DED97
100
AcDbEntity
  8
AM_0
100
AcDbVertex
100
AcDb2dVertex
 10
3225.419134366582
 20
-284.9996987291263
 30
0.0
  0
VERTEX
  5
DEDAE
330
DED97
100
AcDbEntity
  8
AM_0
100
AcDbVertex
100
AcDb2dVertex
 10
3225.639848021638
 20
-284.9551525883648
 30
0.0
  0
VERTEX
  5
DEDAF
330
DED97
100
AcDbEntity
  8
AM_0
100
AcDbVertex
100
AcDb2dVertex
 10
3225.860497598987
 20
-284.9103139700974
 30
0.0
  0
VERTEX
  5
DEDB0
330
DED97
100
AcDbEntity
  8
AM_0
100
AcDbVertex
100
AcDb2dVertex
 10
3226.081086926463
 20
-284.8651616025043
 30
0.0
  0
SEQEND
  5
DEDB1
330
DED97
100
AcDbEntity
  8
AM_0
  0
LINE
  5
DEDB2
330
1F
100
AcDbEntity
  8
AM_0
100
AcDbLine
 10
3220.776553651694
 20
-285.9047109743768
 30
0.0
 11
3220.776549207006
 21
-285.9047121653271
 31
0.0
  0
ARC
  5
DEDB5
330
1F
100
AcDbEntity
  8
AM_0
100
AcDbCircle
 10
3188.291062185801
 20
-306.0953142143307
 30
0.0
 40
19.30000070431445
100
AcDbArc
 50
194.9999999999944
 51
201.9018542210633
  0
ARC
  5
DEDB6
330
1F
100
AcDbEntity
  8
AM_0
100
AcDbCircle
 10
3183.064024568206
 20
-301.5014087868375
 30
0.0
 40
19.3002288234123
100
AcDbArc
 50
255.4784596868006
 51
284.999821018025
  0
ARC
  5
DEDB7
330
1F
100
AcDbEntity
  8
AM_0
100
AcDbCircle
 10
3186.061150098146
 20
-312.687066485955
 30
0.0
 40
19.29999999999999
100
AcDbArc
 50
104.9999999999944
 51
134.5217192951782
  0
POLYLINE
  5
DEDB8
330
1F
100
AcDbEntity
  8
AM_0
100
AcDb2dPolyline
 66
     1
 10
0.0
 20
0.0
 30
0.0
 70
   128
  0
VERTEX
  5
DEDB9
330
DEDB8
100
AcDbEntity
  8
AM_0
100
AcDbVertex
100
AcDb2dVertex
 10
3210.90447425015
 20
-302.1955751532987
 30
0.0
  0
VERTEX
  5
DEDBA
330
DEDB8
100
AcDbEntity
  8
AM_0
100
AcDbVertex
100
AcDb2dVertex
 10
3209.011031347653
 20
-303.078801639691
 30
0.0
  0
VERTEX
  5
DEDBB
330
DEDB8
100
AcDbEntity
  8
AM_0
100
AcDbVertex
100
AcDb2dVertex
 10
3207.696812545616
 20
-303.716852774474
 30
0.0
  0
VERTEX
  5
DEDBC
330
DEDB8
100
AcDbEntity
  8
AM_0
100
AcDbVertex
100
AcDb2dVertex
 10
3206.39525155046
 20
-304.370088405031
 30
0.0
  0
VERTEX
  5
DEDBD
330
DEDB8
100
AcDbEntity
  8
AM_0
100
AcDbVertex
100
AcDb2dVertex
 10
3205.10907836688
 20
-305.0376564450916
 30
0.0
  0
VERTEX
  5
DEDBE
330
DEDB8
100
AcDbEntity
  8
AM_0
100
AcDbVertex
100
AcDb2dVertex
 10
3203.835684951537
 20
-305.7218241992956
 30
0.0
  0
VERTEX
  5
DEDBF
330
DEDB8
100
AcDbEntity
  8
AM_0
100
AcDbVertex
100
AcDb2dVertex
 10
3203.205610553844
 20
-306.0694884961798
 30
0.0
  0
VERTEX
  5
DEDC0
330
DEDB8
100
AcDbEntity
  8
AM_0
100
AcDbVertex
100
AcDb2dVertex
 10
3202.582599226564
 20
-306.4196090040386
 30
0.0
  0
VERTEX
  5
DEDC1
330
DEDB8
100
AcDbEntity
  8
AM_0
100
AcDbVertex
100
AcDb2dVertex
 10
3201.968642580335
 20
-306.7712358352844
 30
0.0
  0
VERTEX
  5
DEDC2
330
DEDB8
100
AcDbEntity
  8
AM_0
100
AcDbVertex
100
AcDb2dVertex
 10
3201.365728966713
 20
-307.1234202733335
 30
0.0
  0
VERTEX
  5
DEDC3
330
DEDB8
100
AcDbEntity
  8
AM_0
100
AcDbVertex
100
AcDb2dVertex
 10
3200.775846811688
 20
-307.4752138793959
 30
0.0
  0
VERTEX
  5
DEDC4
330
DEDB8
100
AcDbEntity
  8
AM_0
100
AcDbVertex
100
AcDb2dVertex
 10
3200.20098542912
 20
-307.8256670835659
 30
0.0
  0
SEQEND
  5
DEDC5
330
DEDB8
100
AcDbEntity
  8
AM_0
  0
POLYLINE
  5
DEDC6
330
1F
100
AcDbEntity
  8
AM_0
100
AcDb2dPolyline
 66
     1
 10
0.0
 20
0.0
 30
0.0
 70
   128
  0
VERTEX
  5
DEDC7
330
DEDC6
100
AcDbEntity
  8
AM_0
100
AcDbVertex
100
AcDb2dVertex
 10
3195.662443379373
 20
-292.1450617384929
 30
0.0
  0
VERTEX
  5
DEDC8
330
DEDC6
100
AcDbEntity
  8
AM_0
100
AcDbVertex
100
AcDb2dVertex
 10
3197.33916052581
 20
-291.6587184053538
 30
0.0
  0
VERTEX
  5
DEDC9
330
DEDC6
100
AcDbEntity
  8
AM_0
100
AcDbVertex
100
AcDb2dVertex
 10
3198.839669175675
 20
-291.2381688211146
 30
0.0
  0
VERTEX
  5
DEDCA
330
DEDC6
100
AcDbEntity
  8
AM_0
100
AcDbVertex
100
AcDb2dVertex
 10
3200.346695062848
 20
-290.8188384146271
 30
0.0
  0
VERTEX
  5
DEDCB
330
DEDC6
100
AcDbEntity
  8
AM_0
100
AcDbVertex
100
AcDb2dVertex
 10
3201.85926129676
 20
-290.4017749701226
 30
0.0
  0
VERTEX
  5
DEDCC
330
DEDC6
100
AcDbEntity
  8
AM_0
100
AcDbVertex
100
AcDb2dVertex
 10
3203.376379279649
 20
-289.9880270268646
 30
0.0
  0
VERTEX
  5
DEDCD
330
DEDC6
100
AcDbEntity
  8
AM_0
100
AcDbVertex
100
AcDb2dVertex
 10
3204.89706515618
 20
-289.578643044338
 30
0.0
  0
VERTEX
  5
DEDCE
330
DEDC6
100
AcDbEntity
  8
AM_0
100
AcDbVertex
100
AcDb2dVertex
 10
3206.420337293357
 20
-289.1746708865526
 30
0.0
  0
VERTEX
  5
DEDCF
330
DEDC6
100
AcDbEntity
  8
AM_0
100
AcDbVertex
100
AcDb2dVertex
 10
3207.945209315763
 20
-288.7771584972972
 30
0.0
  0
SEQEND
  5
DEDD0
330
DEDC6
100
AcDbEntity
  8
AM_0
  0
POLYLINE
  5
DEDD1
330
1F
100
AcDbEntity
  8
AM_0
100
AcDb2dPolyline
 66
     1
 10
0.0
 20
0.0
 30
0.0
  0
VERTEX
  5
DEDD2
330
DEDD1
100
AcDbEntity
  8
AM_0
100
AcDbVertex
100
AcDb2dVertex
 10
3200.200214994701
 20
-307.8260408493624
 30
0.0
  0
VERTEX
  5
DEDD3
330
DEDD1
100
AcDbEntity
  8
AM_0
100
AcDbVertex
100
AcDb2dVertex
 10
3199.464545595569
 20
-308.2831756044098
 30
0.0
  0
VERTEX
  5
DEDD4
330
DEDD1
100
AcDbEntity
  8
AM_0
100
AcDbVertex
100
AcDb2dVertex
 10
3198.743292862509
 20
-308.739813348686
 30
0.0
  0
VERTEX
  5
DEDD5
330
DEDD1
100
AcDbEntity
  8
AM_0
100
AcDbVertex
100
AcDb2dVertex
 10
3198.392067342055
 20
-308.9666035468778
 30
0.0
  0
VERTEX
  5
DEDD6
330
DEDD1
100
AcDbEntity
  8
AM_0
100
AcDbVertex
100
AcDb2dVertex
 10
3198.049240082126
 20
-309.1916591194199
 30
0.0
  0
VERTEX
  5
DEDD7
330
DEDD1
100
AcDbEntity
  8
AM_0
100
AcDbVertex
100
AcDb2dVertex
 10
3197.716526698303
 20
-309.4142446635101
 30
0.0
  0
VERTEX
  5
DEDD8
330
DEDD1
100
AcDbEntity
  8
AM_0
100
AcDbVertex
100
AcDb2dVertex
 10
3197.706778565049
 20
-309.4208925542534
 30
0.0
  0
SEQEND
  5
DEDD9
330
DEDD1
100
AcDbEntity
  8
AM_0
  0
POLYLINE
  5
DEDDA
330
1F
100
AcDbEntity
  8
AM_0
100
AcDb2dPolyline
 66
     1
 10
0.0
 20
0.0
 30
0.0
 70
   128
  0
VERTEX
  5
DEDDB
330
DEDDA
100
AcDbEntity
  8
AM_0
100
AcDbVertex
100
AcDb2dVertex
 10
3186.600533502257
 20
-293.3946585374528
 30
0.0
  0
VERTEX
  5
DEDDC
330
DEDDA
100
AcDbEntity
  8
AM_0
100
AcDbVertex
100
AcDb2dVertex
 10
3186.699081954709
 20
-293.3982776069963
 30
0.0
  0
VERTEX
  5
DEDDD
330
DEDDA
100
AcDbEntity
  8
AM_0
100
AcDbVertex
100
AcDb2dVertex
 10
3186.797568444406
 20
-293.4035877555195
 30
0.0
  0
VERTEX
  5
DEDDE
330
DEDDA
100
AcDbEntity
  8
AM_0
100
AcDbVertex
100
AcDb2dVertex
 10
3186.895979339551
 20
-293.4105914447011
 30
0.0
  0
VERTEX
  5
DEDDF
330
DEDDA
100
AcDbEntity
  8
AM_0
100
AcDbVertex
100
AcDb2dVertex
 10
3186.994299897172
 20
-293.4192914339578
 30
0.0
  0
VERTEX
  5
DEDE0
330
DEDDA
100
AcDbEntity
  8
AM_0
100
AcDbVertex
100
AcDb2dVertex
 10
3187.092515036674
 20
-293.4296870003224
 30
0.0
  0
VERTEX
  5
DEDE1
330
DEDDA
100
AcDbEntity
  8
AM_0
100
AcDbVertex
100
AcDb2dVertex
 10
3187.190611166145
 20
-293.4417829766868
 30
0.0
  0
VERTEX
  5
DEDE2
330
DEDDA
100
AcDbEntity
  8
AM_0
100
AcDbVertex
100
AcDb2dVertex
 10
3187.288574018425
 20
-293.4555772311735
 30
0.0
  0
VERTEX
  5
DEDE3
330
DEDDA
100
AcDbEntity
  8
AM_0
100
AcDbVertex
100
AcDb2dVertex
 10
3187.38638914828
 20
-293.4710736343713
 30
0.0
  0
VERTEX
  5
DEDE4
330
DEDDA
100
AcDbEntity
  8
AM_0
100
AcDbVertex
100
AcDb2dVertex
 10
3187.484040959416
 20
-293.4882739833942
 30
0.0
  0
VERTEX
  5
DEDE5
330
DEDDA
100
AcDbEntity
  8
AM_0
100
AcDbVertex
100
AcDb2dVertex
 10
3187.581498317646
 20
-293.5071687563674
 30
0.0
  0
VERTEX
  5
DEDE6
330
DEDDA
100
AcDbEntity
  8
AM_0
100
AcDbVertex
100
AcDb2dVertex
 10
3187.678722866172
 20
-293.5277503667107
 30
0.0
  0
VERTEX
  5
DEDE7
330
DEDDA
100
AcDbEntity
  8
AM_0
100
AcDbVertex
100
AcDb2dVertex
 10
3187.775675315086
 20
-293.5500055231163
 30
0.0
  0
VERTEX
  5
DEDE8
330
DEDDA
100
AcDbEntity
  8
AM_0
100
AcDbVertex
100
AcDb2dVertex
 10
3187.872316752003
 20
-293.5739267878727
 30
0.0
  0
VERTEX
  5
DEDE9
330
DEDDA
100
AcDbEntity
  8
AM_0
100
AcDbVertex
100
AcDb2dVertex
 10
3187.968607887017
 20
-293.599500869672
 30
0.0
  0
VERTEX
  5
DEDEA
330
DEDDA
100
AcDbEntity
  8
AM_0
100
AcDbVertex
100
AcDb2dVertex
 10
3188.064509767852
 20
-293.6267179595908
 30
0.0
  0
VERTEX
  5
DEDEB
330
DEDDA
100
AcDbEntity
  8
AM_0
100
AcDbVertex
100
AcDb2dVertex
 10
3188.159983442231
 20
-293.655568248705
 30
0.0
  0
VERTEX
  5
DEDEC
330
DEDDA
100
AcDbEntity
  8
AM_0
100
AcDbVertex
100
AcDb2dVertex
 10
3188.254989104553
 20
-293.6860409657881
 30
0.0
  0
VERTEX
  5
DEDED
330
DEDDA
100
AcDbEntity
  8
AM_0
100
AcDbVertex
100
AcDb2dVertex
 10
3188.349489171562
 20
-293.7181247441383
 30
0.0
  0
VERTEX
  5
DEDEE
330
DEDDA
100
AcDbEntity
  8
AM_0
100
AcDbVertex
100
AcDb2dVertex
 10
3188.443442726484
 20
-293.7518091102658
 30
0.0
  0
VERTEX
  5
DEDEF
330
DEDDA
100
AcDbEntity
  8
AM_0
100
AcDbVertex
100
AcDb2dVertex
 10
3188.536812483801
 20
-293.7870838086412
 30
0.0
  0
VERTEX
  5
DEDF0
330
DEDDA
100
AcDbEntity
  8
AM_0
100
AcDbVertex
100
AcDb2dVertex
 10
3188.62955752674
 20
-293.8239383657751
 30
0.0
  0
VERTEX
  5
DEDF1
330
DEDDA
100
AcDbEntity
  8
AM_0
100
AcDbVertex
100
AcDb2dVertex
 10
3188.721640272044
 20
-293.8623614149658
 30
0.0
  0
VERTEX
  5
DEDF2
330
DEDDA
100
AcDbEntity
  8
AM_0
100
AcDbVertex
100
AcDb2dVertex
 10
3188.813022323022
 20
-293.9023429984201
 30
0.0
  0
VERTEX
  5
DEDF3
330
DEDDA
100
AcDbEntity
  8
AM_0
100
AcDbVertex
100
AcDb2dVertex
 10
3188.903661651729
 20
-293.9438729403871
 30
0.0
  0
SEQEND
  5
DEDF4
330
DEDDA
100
AcDbEntity
  8
AM_0
  0
POLYLINE
  5
DEDF5
330
1F
100
AcDbEntity
  8
AM_0
100
AcDb2dPolyline
 66
     1
 10
0.0
 20
0.0
 30
0.0
 70
   128
  0
VERTEX
  5
DEDF6
330
DEDF5
100
AcDbEntity
  8
AM_0
100
AcDbVertex
100
AcDb2dVertex
 10
3197.706940112067
 20
-309.4207226758787
 30
0.0
  0
VERTEX
  5
DEDF7
330
DEDF5
100
AcDbEntity
  8
AM_0
100
AcDbVertex
100
AcDb2dVertex
 10
3197.099384182728
 20
-310.0596116804153
 30
0.0
  0
VERTEX
  5
DEDF8
330
DEDF5
100
AcDbEntity
  8
AM_0
100
AcDbVertex
100
AcDb2dVertex
 10
3196.53696662388
 20
-310.6908475441421
 30
0.0
  0
VERTEX
  5
DEDF9
330
DEDF5
100
AcDbEntity
  8
AM_0
100
AcDbVertex
100
AcDb2dVertex
 10
3196.276834399473
 20
-310.9966371991122
 30
0.0
  0
VERTEX
  5
DEDFA
330
DEDF5
100
AcDbEntity
  8
AM_0
100
AcDbVertex
100
AcDb2dVertex
 10
3196.032854180025
 20
-311.2923520067667
 30
0.0
  0
VERTEX
  5
DEDFB
330
DEDF5
100
AcDbEntity
  8
AM_0
100
AcDbVertex
100
AcDb2dVertex
 10
3195.806598063165
 20
-311.5753519844231
 30
0.0
  0
VERTEX
  5
DEDFC
330
DEDF5
100
AcDbEntity
  8
AM_0
100
AcDbVertex
100
AcDb2dVertex
 10
3195.599642144603
 20
-311.8429942916902
 30
0.0
  0
VERTEX
  5
DEDFD
330
DEDF5
100
AcDbEntity
  8
AM_0
100
AcDbVertex
100
AcDb2dVertex
 10
3195.413461382811
 20
-312.0927697778701
 30
0.0
  0
VERTEX
  5
DEDFE
330
DEDF5
100
AcDbEntity
  8
AM_0
100
AcDbVertex
100
AcDb2dVertex
 10
3195.248538011393
 20
-312.3229890839766
 30
0.0
  0
VERTEX
  5
DEDFF
330
DEDF5
100
AcDbEntity
  8
AM_0
100
AcDbVertex
100
AcDb2dVertex
 10
3195.105863256908
 20
-312.5304044721237
 30
0.0
  0
VERTEX
  5
DEE00
330
DEDF5
100
AcDbEntity
  8
AM_0
100
AcDbVertex
100
AcDb2dVertex
 10
3194.986648122016
 20
-312.7113883544943
 30
0.0
  0
VERTEX
  5
DEE01
330
DEDF5
100
AcDbEntity
  8
AM_0
100
AcDbVertex
100
AcDb2dVertex
 10
3194.892100940423
 20
-312.8623120719889
 30
0.0
  0
VERTEX
  5
DEE02
330
DEDF5
100
AcDbEntity
  8
AM_0
100
AcDbVertex
100
AcDb2dVertex
 10
3194.823016606744
 20
-312.9799596520785
 30
0.0
  0
VERTEX
  5
DEE03
330
DEDF5
100
AcDbEntity
  8
AM_0
100
AcDbVertex
100
AcDb2dVertex
 10
3194.78017635888
 20
-313.0579395397362
 30
0.0
  0
VERTEX
  5
DEE04
330
DEDF5
100
AcDbEntity
  8
AM_0
100
AcDbVertex
100
AcDb2dVertex
 10
3194.765472575075
 20
-313.0861932524037
 30
0.0
  0
SEQEND
  5
DEE05
330
DEDF5
100
AcDbEntity
  8
AM_0
  0
POLYLINE
  5
DEE06
330
1F
100
AcDbEntity
  8
AM_0
100
AcDb2dPolyline
 66
     1
 10
0.0
 20
0.0
 30
0.0
 70
   128
  0
VERTEX
  5
DEE07
330
DEE06
100
AcDbEntity
  8
AM_0
100
AcDbVertex
100
AcDb2dVertex
 10
3186.905190249089
 20
-294.4109464083981
 30
0.0
  0
VERTEX
  5
DEE08
330
DEE06
100
AcDbEntity
  8
AM_0
100
AcDbVertex
100
AcDb2dVertex
 10
3186.925888429327
 20
-294.4073308781412
 30
0.0
  0
VERTEX
  5
DEE09
330
DEE06
100
AcDbEntity
  8
AM_0
100
AcDbVertex
100
AcDb2dVertex
 10
3186.995642481871
 20
-294.3940460594653
 30
0.0
  0
VERTEX
  5
DEE0A
330
DEE06
100
AcDbEntity
  8
AM_0
100
AcDbVertex
100
AcDb2dVertex
 10
3187.125261407951
 20
-294.3674870737975
 30
0.0
  0
VERTEX
  5
DEE0B
330
DEE06
100
AcDbEntity
  8
AM_0
100
AcDbVertex
100
AcDb2dVertex
 10
3187.318515267456
 20
-294.325407530232
 30
0.0
  0
VERTEX
  5
DEE0C
330
DEE06
100
AcDbEntity
  8
AM_0
100
AcDbVertex
100
AcDb2dVertex
 10
3187.575879179997
 20
-294.266922676468
 30
0.0
  0
VERTEX
  5
DEE0D
330
DEE06
100
AcDbEntity
  8
AM_0
100
AcDbVertex
100
AcDb2dVertex
 10
3187.897913514885
 20
-294.1912059022356
 30
0.0
  0
VERTEX
  5
DEE0E
330
DEE06
100
AcDbEntity
  8
AM_0
100
AcDbVertex
100
AcDb2dVertex
 10
3188.083357307977
 20
-294.1466291372355
 30
0.0
  0
VERTEX
  5
DEE0F
330
DEE06
100
AcDbEntity
  8
AM_0
100
AcDbVertex
100
AcDb2dVertex
 10
3188.285090462834
 20
-294.0974637522508
 30
0.0
  0
VERTEX
  5
DEE10
330
DEE06
100
AcDbEntity
  8
AM_0
100
AcDbVertex
100
AcDb2dVertex
 10
3188.731431382557
 20
-293.9868182456514
 30
0.0
  0
SEQEND
  5
DEE11
330
DEE06
100
AcDbEntity
  8
AM_0
  0
POLYLINE
  5
DEE2E
330
1F
100
AcDbEntity
  8
AM_0
100
AcDb2dPolyline
 66
     1
 10
0.0
 20
0.0
 30
0.0
 70
   128
  0
VERTEX
  5
DEE2F
330
DEE2E
100
AcDbEntity
  8
AM_0
100
AcDbVertex
100
AcDb2dVertex
 10
3195.662443379373
 20
-292.145061738493
 30
0.0
  0
VERTEX
  5
DEE30
330
DEE2E
100
AcDbEntity
  8
AM_0
100
AcDbVertex
100
AcDb2dVertex
 10
3195.194719294748
 20
-292.2788342487144
 30
0.0
  0
VERTEX
  5
DEE31
330
DEE2E
100
AcDbEntity
  8
AM_0
100
AcDbVertex
100
AcDb2dVertex
 10
3194.728189268187
 20
-292.4123427867057
 30
0.0
  0
VERTEX
  5
DEE32
330
DEE2E
100
AcDbEntity
  8
AM_0
100
AcDbVertex
100
AcDb2dVertex
 10
3194.263550025342
 20
-292.5444895884183
 30
0.0
  0
VERTEX
  5
DEE33
330
DEE2E
100
AcDbEntity
  8
AM_0
100
AcDbVertex
100
AcDb2dVertex
 10
3193.801782015518
 20
-292.6745379450362
 30
0.0
  0
VERTEX
  5
DEE34
330
DEE2E
100
AcDbEntity
  8
AM_0
100
AcDbVertex
100
AcDb2dVertex
 10
3193.34503819371
 20
-292.8016823115519
 30
0.0
  0
VERTEX
  5
DEE35
330
DEE2E
100
AcDbEntity
  8
AM_0
100
AcDbVertex
100
AcDb2dVertex
 10
3192.89628952971
 20
-292.9250587348417
 30
0.0
  0
VERTEX
  5
DEE36
330
DEE2E
100
AcDbEntity
  8
AM_0
100
AcDbVertex
100
AcDb2dVertex
 10
3192.458521895836
 20
-293.0438099872153
 30
0.0
  0
VERTEX
  5
DEE37
330
DEE2E
100
AcDbEntity
  8
AM_0
100
AcDbVertex
100
AcDb2dVertex
 10
3192.034880344058
 20
-293.1570862088367
 30
0.0
  0
VERTEX
  5
DEE38
330
DEE2E
100
AcDbEntity
  8
AM_0
100
AcDbVertex
100
AcDb2dVertex
 10
3191.628783105115
 20
-293.2640703364124
 30
0.0
  0
VERTEX
  5
DEE39
330
DEE2E
100
AcDbEntity
  8
AM_0
100
AcDbVertex
100
AcDb2dVertex
 10
3191.243679602334
 20
-293.3639417124234
 30
0.0
  0
VERTEX
  5
DEE3A
330
DEE2E
100
AcDbEntity
  8
AM_0
100
AcDbVertex
100
AcDb2dVertex
 10
3190.882530545785
 20
-293.4560558857845
 30
0.0
  0
VERTEX
  5
DEE3B
330
DEE2E
100
AcDbEntity
  8
AM_0
100
AcDbVertex
100
AcDb2dVertex
 10
3190.545894904873
 20
-293.5406144114301
 30
0.0
  0
VERTEX
  5
DEE3C
330
DEE2E
100
AcDbEntity
  8
AM_0
100
AcDbVertex
100
AcDb2dVertex
 10
3190.233591534567
 20
-293.6180790867767
 30
0.0
  0
VERTEX
  5
DEE3D
330
DEE2E
100
AcDbEntity
  8
AM_0
100
AcDbVertex
100
AcDb2dVertex
 10
3189.945388909594
 20
-293.6889192538335
 30
0.0
  0
VERTEX
  5
DEE3E
330
DEE2E
100
AcDbEntity
  8
AM_0
100
AcDbVertex
100
AcDb2dVertex
 10
3189.680236820355
 20
-293.7537223896392
 30
0.0
  0
VERTEX
  5
DEE3F
330
DEE2E
100
AcDbEntity
  8
AM_0
100
AcDbVertex
100
AcDb2dVertex
 10
3189.436408246775
 20
-293.8131680007813
 30
0.0
  0
VERTEX
  5
DEE40
330
DEE2E
100
AcDbEntity
  8
AM_0
100
AcDbVertex
100
AcDb2dVertex
 10
3189.212160910112
 20
-293.8679408733451
 30
0.0
  0
VERTEX
  5
DEE41
330
DEE2E
100
AcDbEntity
  8
AM_0
100
AcDbVertex
100
AcDb2dVertex
 10
3189.0058245341
 20
-293.9186433800452
 30
0.0
  0
VERTEX
  5
DEE42
330
DEE2E
100
AcDbEntity
  8
AM_0
100
AcDbVertex
100
AcDb2dVertex
 10
3188.815883741186
 20
-293.9657137207309
 30
0.0
  0
VERTEX
  5
DEE43
330
DEE2E
100
AcDbEntity
  8
AM_0
100
AcDbVertex
100
AcDb2dVertex
 10
3188.640843729005
 20
-294.0095690997925
 30
0.0
  0
VERTEX
  5
DEE44
330
DEE2E
100
AcDbEntity
  8
AM_0
100
AcDbVertex
100
AcDb2dVertex
 10
3188.479262414588
 20
-294.0505923493469
 30
0.0
  0
VERTEX
  5
DEE45
330
DEE2E
100
AcDbEntity
  8
AM_0
100
AcDbVertex
100
AcDb2dVertex
 10
3188.330018715339
 20
-294.0889731041925
 30
0.0
  0
VERTEX
  5
DEE46
330
DEE2E
100
AcDbEntity
  8
AM_0
100
AcDbVertex
100
AcDb2dVertex
 10
3188.192114468455
 20
-294.1248263796089
 30
0.0
  0
VERTEX
  5
DEE47
330
DEE2E
100
AcDbEntity
  8
AM_0
100
AcDbVertex
100
AcDb2dVertex
 10
3188.064556213674
 20
-294.1582647398842
 30
0.0
  0
VERTEX
  5
DEE48
330
DEE2E
100
AcDbEntity
  8
AM_0
100
AcDbVertex
100
AcDb2dVertex
 10
3187.94646458528
 20
-294.1893820872667
 30
0.0
  0
VERTEX
  5
DEE49
330
DEE2E
100
AcDbEntity
  8
AM_0
100
AcDbVertex
100
AcDb2dVertex
 10
3187.837075383392
 20
-294.218250993015
 30
0.0
  0
VERTEX
  5
DEE4A
330
DEE2E
100
AcDbEntity
  8
AM_0
100
AcDbVertex
100
AcDb2dVertex
 10
3187.735627701753
 20
-294.2449407639635
 30
0.0
  0
VERTEX
  5
DEE4B
330
DEE2E
100
AcDbEntity
  8
AM_0
100
AcDbVertex
100
AcDb2dVertex
 10
3187.641447900981
 20
-294.269499705758
 30
0.0
  0
VERTEX
  5
DEE4C
330
DEE2E
100
AcDbEntity
  8
AM_0
100
AcDbVertex
100
AcDb2dVertex
 10
3187.554088127515
 20
-294.2919120520654
 30
0.0
  0
VERTEX
  5
DEE4D
330
DEE2E
100
AcDbEntity
  8
AM_0
100
AcDbVertex
100
AcDb2dVertex
 10
3187.473138267746
 20
-294.3121495422626
 30
0.0
  0
VERTEX
  5
DEE4E
330
DEE2E
100
AcDbEntity
  8
AM_0
100
AcDbVertex
100
AcDb2dVertex
 10
3187.398188505802
 20
-294.3301850268976
 30
0.0
  0
VERTEX
  5
DEE4F
330
DEE2E
100
AcDbEntity
  8
AM_0
100
AcDbVertex
100
AcDb2dVertex
 10
3187.328828767962
 20
-294.3459926165598
 30
0.0
  0
VERTEX
  5
DEE50
330
DEE2E
100
AcDbEntity
  8
AM_0
100
AcDbVertex
100
AcDb2dVertex
 10
3187.264649536092
 20
-294.3595462729687
 30
0.0
  0
VERTEX
  5
DEE51
330
DEE2E
100
AcDbEntity
  8
AM_0
100
AcDbVertex
100
AcDb2dVertex
 10
3187.205241767864
 20
-294.3708150665525
 30
0.0
  0
VERTEX
  5
DEE52
330
DEE2E
100
AcDbEntity
  8
AM_0
100
AcDbVertex
100
AcDb2dVertex
 10
3187.150270412165
 20
-294.3797375232986
 30
0.0
  0
VERTEX
  5
DEE53
330
DEE2E
100
AcDbEntity
  8
AM_0
100
AcDbVertex
100
AcDb2dVertex
 10
3187.099491055291
 20
-294.3861993001675
 30
0.0
  0
VERTEX
  5
DEE54
330
DEE2E
100
AcDbEntity
  8
AM_0
100
AcDbVertex
100
AcDb2dVertex
 10
3187.05266325242
 20
-294.3900897544629
 30
0.0
  0
VERTEX
  5
DEE55
330
DEE2E
100
AcDbEntity
  8
AM_0
100
AcDbVertex
100
AcDb2dVertex
 10
3187.009548403556
 20
-294.391291794416
 30
0.0
  0
SEQEND
  5
DEE56
330
DEE2E
100
AcDbEntity
  8
AM_0
  0
POLYLINE
  5
DEE57
330
1F
100
AcDbEntity
  8
AM_0
100
AcDb2dPolyline
 66
     1
 10
0.0
 20
0.0
 30
0.0
 70
   128
  0
VERTEX
  5
DEE58
330
DEE57
100
AcDbEntity
  8
AM_0
100
AcDbVertex
100
AcDb2dVertex
 10
3187.10354116831
 20
-294.3857047869994
 30
0.0
  0
VERTEX
  5
DEE59
330
DEE57
100
AcDbEntity
  8
AM_0
100
AcDbVertex
100
AcDb2dVertex
 10
3187.01598657104
 20
-294.3957894079103
 30
0.0
  0
VERTEX
  5
DEE5A
330
DEE57
100
AcDbEntity
  8
AM_0
100
AcDbVertex
100
AcDb2dVertex
 10
3186.954088209312
 20
-294.4037835085471
 30
0.0
  0
VERTEX
  5
DEE5B
330
DEE57
100
AcDbEntity
  8
AM_0
100
AcDbVertex
100
AcDb2dVertex
 10
3186.917328607251
 20
-294.4090492465625
 30
0.0
  0
VERTEX
  5
DEE5C
330
DEE57
100
AcDbEntity
  8
AM_0
100
AcDbVertex
100
AcDb2dVertex
 10
3186.905190249089
 20
-294.4109464083981
 30
0.0
  0
SEQEND
  5
DEE5D
330
DEE57
100
AcDbEntity
  8
AM_0
  0
POLYLINE
  5
DEE5E
330
1F
100
AcDbEntity
  8
AM_0
100
AcDb2dPolyline
 66
     1
 10
0.0
 20
0.0
 30
0.0
 70
   128
  0
VERTEX
  5
DEE5F
330
DEE5E
100
AcDbEntity
  8
AM_0
100
AcDbVertex
100
AcDb2dVertex
 10
3170.384054273994
 20
-313.2945583425714
 30
0.0
  0
VERTEX
  5
DEE60
330
DEE5E
100
AcDbEntity
  8
AM_0
100
AcDbVertex
100
AcDb2dVertex
 10
3170.560464487768
 20
-313.7097880659048
 30
0.0
  0
VERTEX
  5
DEE61
330
DEE5E
100
AcDbEntity
  8
AM_0
100
AcDbVertex
100
AcDb2dVertex
 10
3170.752916266197
 20
-314.1178287308491
 30
0.0
  0
VERTEX
  5
DEE62
330
DEE5E
100
AcDbEntity
  8
AM_0
100
AcDbVertex
100
AcDb2dVertex
 10
3170.961119498767
 20
-314.5180598776744
 30
0.0
  0
VERTEX
  5
DEE63
330
DEE5E
100
AcDbEntity
  8
AM_0
100
AcDbVertex
100
AcDb2dVertex
 10
3171.18475889553
 20
-314.9098737482099
 30
0.0
  0
VERTEX
  5
DEE64
330
DEE5E
100
AcDbEntity
  8
AM_0
100
AcDbVertex
100
AcDb2dVertex
 10
3171.423494061537
 20
-315.2926755636404
 30
0.0
  0
VERTEX
  5
DEE65
330
DEE5E
100
AcDbEntity
  8
AM_0
100
AcDbVertex
100
AcDb2dVertex
 10
3171.676961426791
 20
-315.6658862824867
 30
0.0
  0
VERTEX
  5
DEE66
330
DEE5E
100
AcDbEntity
  8
AM_0
100
AcDbVertex
100
AcDb2dVertex
 10
3171.944775724247
 20
-316.0289392272047
 30
0.0
  0
VERTEX
  5
DEE67
330
DEE5E
100
AcDbEntity
  8
AM_0
100
AcDbVertex
100
AcDb2dVertex
 10
3172.22652695937
 20
-316.3812865531995
 30
0.0
  0
VERTEX
  5
DEE68
330
DEE5E
100
AcDbEntity
  8
AM_0
100
AcDbVertex
100
AcDb2dVertex
 10
3172.521789666348
 20
-316.7223937912582
 30
0.0
  0
VERTEX
  5
DEE69
330
DEE5E
100
AcDbEntity
  8
AM_0
100
AcDbVertex
100
AcDb2dVertex
 10
3172.830111057372
 20
-317.0517445116288
 30
0.0
  0
VERTEX
  5
DEE6A
330
DEE5E
100
AcDbEntity
  8
AM_0
100
AcDbVertex
100
AcDb2dVertex
 10
3173.151024287598
 20
-317.3688409380066
 30
0.0
  0
VERTEX
  5
DEE6B
330
DEE5E
100
AcDbEntity
  8
AM_0
100
AcDbVertex
100
AcDb2dVertex
 10
3173.484041559482
 20
-317.6732004359505
 30
0.0
  0
VERTEX
  5
DEE6C
330
DEE5E
100
AcDbEntity
  8
AM_0
100
AcDbVertex
100
AcDb2dVertex
 10
3173.828656206932
 20
-317.9643632910842
 30
0.0
  0
VERTEX
  5
DEE6D
330
DEE5E
100
AcDbEntity
  8
AM_0
100
AcDbVertex
100
AcDb2dVertex
 10
3174.184347060227
 20
-318.2418867757221
 30
0.0
  0
VERTEX
  5
DEE6E
330
DEE5E
100
AcDbEntity
  8
AM_0
100
AcDbVertex
100
AcDb2dVertex
 10
3174.550574596793
 20
-318.5053485621629
 30
0.0
  0
VERTEX
  5
DEE6F
330
DEE5E
100
AcDbEntity
  8
AM_0
100
AcDbVertex
100
AcDb2dVertex
 10
3174.926782498992
 20
-318.754348091709
 30
0.0
  0
VERTEX
  5
DEE70
330
DEE5E
100
AcDbEntity
  8
AM_0
100
AcDbVertex
100
AcDb2dVertex
 10
3175.312402396542
 20
-318.988506494889
 30
0.0
  0
VERTEX
  5
DEE71
330
DEE5E
100
AcDbEntity
  8
AM_0
100
AcDbVertex
100
AcDb2dVertex
 10
3175.706849679675
 20
-319.2074665223671
 30
0.0
  0
VERTEX
  5
DEE72
330
DEE5E
100
AcDbEntity
  8
AM_0
100
AcDbVertex
100
AcDb2dVertex
 10
3176.109526465832
 20
-319.4108947273963
 30
0.0
  0
VERTEX
  5
DEE73
330
DEE5E
100
AcDbEntity
  8
AM_0
100
AcDbVertex
100
AcDb2dVertex
 10
3176.519823117545
 20
-319.5984804636279
 30
0.0
  0
VERTEX
  5
DEE74
330
DEE5E
100
AcDbEntity
  8
AM_0
100
AcDbVertex
100
AcDb2dVertex
 10
3176.937117577876
 20
-319.7699378496062
 30
0.0
  0
VERTEX
  5
DEE75
330
DEE5E
100
AcDbEntity
  8
AM_0
100
AcDbVertex
100
AcDb2dVertex
 10
3177.360777334909
 20
-319.9250064333321
 30
0.0
  0
VERTEX
  5
DEE76
330
DEE5E
100
AcDbEntity
  8
AM_0
100
AcDbVertex
100
AcDb2dVertex
 10
3177.79015856843
 20
-320.0634502299627
 30
0.0
  0
VERTEX
  5
DEE77
330
DEE5E
100
AcDbEntity
  8
AM_0
100
AcDbVertex
100
AcDb2dVertex
 10
3178.22460900763
 20
-320.1850617198906
 30
0.0
  0
SEQEND
  5
DEE78
330
DEE5E
100
AcDbEntity
  8
AM_0
  0
POLYLINE
  5
DEE79
330
1F
100
AcDbEntity
  8
AM_0
100
AcDb2dPolyline
 66
     1
 10
0.0
 20
0.0
 30
0.0
 70
   128
  0
VERTEX
  5
DEE7A
330
DEE79
100
AcDbEntity
  8
AM_0
100
AcDbVertex
100
AcDb2dVertex
 10
3181.065942698332
 20
-294.0446982310368
 30
0.0
  0
VERTEX
  5
DEE7B
330
DEE79
100
AcDbEntity
  8
AM_0
100
AcDbVertex
100
AcDb2dVertex
 10
3181.289163994396
 20
-293.9863594705331
 30
0.0
  0
VERTEX
  5
DEE7C
330
DEE79
100
AcDbEntity
  8
AM_0
100
AcDbVertex
100
AcDb2dVertex
 10
3181.513303320437
 20
-293.9305901311272
 30
0.0
  0
VERTEX
  5
DEE7D
330
DEE79
100
AcDbEntity
  8
AM_0
100
AcDbVertex
100
AcDb2dVertex
 10
3181.738445743792
 20
-293.877404338554
 30
0.0
  0
VERTEX
  5
DEE7E
330
DEE79
100
AcDbEntity
  8
AM_0
100
AcDbVertex
100
AcDb2dVertex
 10
3181.964471340554
 20
-293.8268723367361
 30
0.0
  0
VERTEX
  5
DEE7F
330
DEE79
100
AcDbEntity
  8
AM_0
100
AcDbVertex
100
AcDb2dVertex
 10
3182.191341359323
 20
-293.7790128457322
 30
0.0
  0
VERTEX
  5
DEE80
330
DEE79
100
AcDbEntity
  8
AM_0
100
AcDbVertex
100
AcDb2dVertex
 10
3182.419026136092
 20
-293.7338373868408
 30
0.0
  0
VERTEX
  5
DEE81
330
DEE79
100
AcDbEntity
  8
AM_0
100
AcDbVertex
100
AcDb2dVertex
 10
3182.647485192866
 20
-293.6913615699074
 30
0.0
  0
VERTEX
  5
DEE82
330
DEE79
100
AcDbEntity
  8
AM_0
100
AcDbVertex
100
AcDb2dVertex
 10
3182.87666852692
 20
-293.6515987931231
 30
0.0
  0
VERTEX
  5
DEE83
330
DEE79
100
AcDbEntity
  8
AM_0
100
AcDbVertex
100
AcDb2dVertex
 10
3183.106525957454
 20
-293.6145684571438
 30
0.0
  0
VERTEX
  5
DEE84
330
DEE79
100
AcDbEntity
  8
AM_0
100
AcDbVertex
100
AcDb2dVertex
 10
3183.337006370568
 20
-293.5802842578975
 30
0.0
  0
VERTEX
  5
DEE85
330
DEE79
100
AcDbEntity
  8
AM_0
100
AcDbVertex
100
AcDb2dVertex
 10
3183.568059863257
 20
-293.5487655216063
 30
0.0
  0
VERTEX
  5
DEE86
330
DEE79
100
AcDbEntity
  8
AM_0
100
AcDbVertex
100
AcDb2dVertex
 10
3183.799635579468
 20
-293.5200246841575
 30
0.0
  0
VERTEX
  5
DEE87
330
DEE79
100
AcDbEntity
  8
AM_0
100
AcDbVertex
100
AcDb2dVertex
 10
3184.031679547592
 20
-293.4940714433992
 30
0.0
  0
VERTEX
  5
DEE88
330
DEE79
100
AcDbEntity
  8
AM_0
100
AcDbVertex
100
AcDb2dVertex
 10
3184.2641369427
 20
-293.4709145348756
 30
0.0
  0
VERTEX
  5
DEE89
330
DEE79
100
AcDbEntity
  8
AM_0
100
AcDbVertex
100
AcDb2dVertex
 10
3184.496955162199
 20
-293.4505620986567
 30
0.0
  0
VERTEX
  5
DEE8A
330
DEE79
100
AcDbEntity
  8
AM_0
100
AcDbVertex
100
AcDb2dVertex
 10
3184.730078527838
 20
-293.4330219079843
 30
0.0
  0
VERTEX
  5
DEE8B
330
DEE79
100
AcDbEntity
  8
AM_0
100
AcDbVertex
100
AcDb2dVertex
 10
3184.963454734765
 20
-293.4183032140997
 30
0.0
  0
VERTEX
  5
DEE8C
330
DEE79
100
AcDbEntity
  8
AM_0
100
AcDbVertex
100
AcDb2dVertex
 10
3185.197037549684
 20
-293.4064112594753
 30
0.0
  0
VERTEX
  5
DEE8D
330
DEE79
100
AcDbEntity
  8
AM_0
100
AcDbVertex
100
AcDb2dVertex
 10
3185.430785183986
 20
-293.3973500956333
 30
0.0
  0
VERTEX
  5
DEE8E
330
DEE79
100
AcDbEntity
  8
AM_0
100
AcDbVertex
100
AcDb2dVertex
 10
3185.664657555711
 20
-293.3911256987014
 30
0.0
  0
VERTEX
  5
DEE8F
330
DEE79
100
AcDbEntity
  8
AM_0
100
AcDbVertex
100
AcDb2dVertex
 10
3185.89861287625
 20
-293.3877421202023
 30
0.0
  0
VERTEX
  5
DEE90
330
DEE79
100
AcDbEntity
  8
AM_0
100
AcDbVertex
100
AcDb2dVertex
 10
3186.132610210317
 20
-293.3872043739606
 30
0.0
  0
VERTEX
  5
DEE91
330
DEE79
100
AcDbEntity
  8
AM_0
100
AcDbVertex
100
AcDb2dVertex
 10
3186.36660183593
 20
-293.3895121465902
 30
0.0
  0
VERTEX
  5
DEE92
330
DEE79
100
AcDbEntity
  8
AM_0
100
AcDbVertex
100
AcDb2dVertex
 10
3186.600533502257
 20
-293.3946585374528
 30
0.0
  0
SEQEND
  5
DEE93
330
DEE79
100
AcDbEntity
  8
AM_0
  0
POLYLINE
  5
DEE94
330
1F
100
AcDbEntity
  8
AM_0
100
AcDb2dPolyline
 66
     1
 10
0.0
 20
0.0
 30
0.0
 70
   128
  0
VERTEX
  5
DEE95
330
DEE94
100
AcDbEntity
  8
AM_0
100
AcDbVertex
100
AcDb2dVertex
 10
3172.528384276704
 20
-298.9264616127425
 30
0.0
  0
VERTEX
  5
DEE96
330
DEE94
100
AcDbEntity
  8
AM_0
100
AcDbVertex
100
AcDb2dVertex
 10
3172.215441722381
 20
-299.2464297402973
 30
0.0
  0
VERTEX
  5
DEE97
330
DEE94
100
AcDbEntity
  8
AM_0
100
AcDbVertex
100
AcDb2dVertex
 10
3171.914892100466
 20
-299.5784892793412
 30
0.0
  0
VERTEX
  5
DEE98
330
DEE94
100
AcDbEntity
  8
AM_0
100
AcDbVertex
100
AcDb2dVertex
 10
3171.627176971934
 20
-299.92216581983
 30
0.0
  0
VERTEX
  5
DEE99
330
DEE94
100
AcDbEntity
  8
AM_0
100
AcDbVertex
100
AcDb2dVertex
 10
3171.35273682648
 20
-300.2769876206695
 30
0.0
  0
VERTEX
  5
DEE9A
330
DEE94
100
AcDbEntity
  8
AM_0
100
AcDbVertex
100
AcDb2dVertex
 10
3171.092012927339
 20
-300.6424791606441
 30
0.0
  0
VERTEX
  5
DEE9B
330
DEE94
100
AcDbEntity
  8
AM_0
100
AcDbVertex
100
AcDb2dVertex
 10
3170.845447321985
 20
-301.0181700676794
 30
0.0
  0
VERTEX
  5
DEE9C
330
DEE94
100
AcDbEntity
  8
AM_0
100
AcDbVertex
100
AcDb2dVertex
 10
3170.613465834056
 20
-301.4035627566824
 30
0.0
  0
VERTEX
  5
DEE9D
330
DEE94
100
AcDbEntity
  8
AM_0
100
AcDbVertex
100
AcDb2dVertex
 10
3170.396433073683
 20
-301.7980623089154
 30
0.0
  0
VERTEX
  5
DEE9E
330
DEE94
100
AcDbEntity
  8
AM_0
100
AcDbVertex
100
AcDb2dVertex
 10
3170.194694649238
 20
-302.2010473369655
 30
0.0
  0
VERTEX
  5
DEE9F
330
DEE94
100
AcDbEntity
  8
AM_0
100
AcDbVertex
100
AcDb2dVertex
 10
3170.008598649282
 20
-302.6118945979039
 30
0.0
  0
VERTEX
  5
DEEA0
330
DEE94
100
AcDbEntity
  8
AM_0
100
AcDbVertex
100
AcDb2dVertex
 10
3169.83848871769
 20
-303.0299820397528
 30
0.0
  0
VERTEX
  5
DEEA1
330
DEE94
100
AcDbEntity
  8
AM_0
100
AcDbVertex
100
AcDb2dVertex
 10
3169.684713498607
 20
-303.4546862707147
 30
0.0
  0
VERTEX
  5
DEEA2
330
DEE94
100
AcDbEntity
  8
AM_0
100
AcDbVertex
100
AcDb2dVertex
 10
3169.54759272434
 20
-303.8853737816423
 30
0.0
  0
VERTEX
  5
DEEA3
330
DEE94
100
AcDbEntity
  8
AM_0
100
AcDbVertex
100
AcDb2dVertex
 10
3169.427336391825
 20
-304.3213571003723
 30
0.0
  0
VERTEX
  5
DEEA4
330
DEE94
100
AcDbEntity
  8
AM_0
100
AcDbVertex
100
AcDb2dVertex
 10
3169.324120763952
 20
-304.7619339747452
 30
0.0
  0
VERTEX
  5
DEEA5
330
DEE94
100
AcDbEntity
  8
AM_0
100
AcDbVertex
100
AcDb2dVertex
 10
3169.238121954741
 20
-305.206401597016
 30
0.0
  0
VERTEX
  5
DEEA6
330
DEE94
100
AcDbEntity
  8
AM_0
100
AcDbVertex
100
AcDb2dVertex
 10
3169.169516375953
 20
-305.6540582706113
 30
0.0
  0
VERTEX
  5
DEEA7
330
DEE94
100
AcDbEntity
  8
AM_0
100
AcDbVertex
100
AcDb2dVertex
 10
3169.118481550517
 20
-306.10420200122
 30
0.0
  0
VERTEX
  5
DEEA8
330
DEE94
100
AcDbEntity
  8
AM_0
100
AcDbVertex
100
AcDb2dVertex
 10
3169.085161410844
 20
-306.55611210549
 30
0.0
  0
VERTEX
  5
DEEA9
330
DEE94
100
AcDbEntity
  8
AM_0
100
AcDbVertex
100
AcDb2dVertex
 10
3169.069553974282
 20
-307.0089989191526
 30
0.0
  0
VERTEX
  5
DEEAA
330
DEE94
100
AcDbEntity
  8
AM_0
100
AcDbVertex
100
AcDb2dVertex
 10
3169.071623960051
 20
-307.4620507354381
 30
0.0
  0
VERTEX
  5
DEEAB
330
DEE94
100
AcDbEntity
  8
AM_0
100
AcDbVertex
100
AcDb2dVertex
 10
3169.091332753859
 20
-307.9144567407902
 30
0.0
  0
VERTEX
  5
DEEAC
330
DEE94
100
AcDbEntity
  8
AM_0
100
AcDbVertex
100
AcDb2dVertex
 10
3169.128643075886
 20
-308.3654066572926
 30
0.0
  0
VERTEX
  5
DEEAD
330
DEE94
100
AcDbEntity
  8
AM_0
100
AcDbVertex
100
AcDb2dVertex
 10
3169.183516386272
 20
-308.8140899491818
 30
0.0
  0
SEQEND
  5
DEEAE
330
DEE94
100
AcDbEntity
  8
AM_0
  0
POLYLINE
  5
DEEAF
330
1F
100
AcDbEntity
  8
AM_0
100
AcDb2dPolyline
 66
     1
 10
0.0
 20
0.0
 30
0.0
 70
   128
  0
VERTEX
  5
DEEB0
330
DEEAF
100
AcDbEntity
  8
AM_0
100
AcDbVertex
100
AcDb2dVertex
 10
3193.155875384093
 20
-317.9210930833759
 30
0.0
  0
VERTEX
  5
DEEB1
330
DEEAF
100
AcDbEntity
  8
AM_0
100
AcDbVertex
100
AcDb2dVertex
 10
3193.40737772876
 20
-317.7544589635556
 30
0.0
  0
VERTEX
  5
DEEB2
330
DEEAF
100
AcDbEntity
  8
AM_0
100
AcDbVertex
100
AcDb2dVertex
 10
3193.650188223372
 20
-317.5748274786398
 30
0.0
  0
VERTEX
  5
DEEB3
330
DEEAF
100
AcDbEntity
  8
AM_0
100
AcDbVertex
100
AcDb2dVertex
 10
3193.883636908485
 20
-317.3828140315274
 30
0.0
  0
VERTEX
  5
DEEB4
330
DEEAF
100
AcDbEntity
  8
AM_0
100
AcDbVertex
100
AcDb2dVertex
 10
3194.10691060603
 20
-317.1791128927413
 30
0.0
  0
VERTEX
  5
DEEB5
330
DEEAF
100
AcDbEntity
  8
AM_0
100
AcDbVertex
100
AcDb2dVertex
 10
3194.319332747935
 20
-316.9643281355043
 30
0.0
  0
VERTEX
  5
DEEB6
330
DEEAF
100
AcDbEntity
  8
AM_0
100
AcDbVertex
100
AcDb2dVertex
 10
3194.520362522797
 20
-316.738972673434
 30
0.0
  0
VERTEX
  5
DEEB7
330
DEEAF
100
AcDbEntity
  8
AM_0
100
AcDbVertex
100
AcDb2dVertex
 10
3194.709470151156
 20
-316.5035517003486
 30
0.0
  0
VERTEX
  5
DEEB8
330
DEEAF
100
AcDbEntity
  8
AM_0
100
AcDbVertex
100
AcDb2dVertex
 10
3194.886137047907
 20
-316.2586055209555
 30
0.0
  0
VERTEX
  5
DEEB9
330
DEEAF
100
AcDbEntity
  8
AM_0
100
AcDbVertex
100
AcDb2dVertex
 10
3195.049913930948
 20
-316.0048130757186
 30
0.0
  0
VERTEX
  5
DEEBA
330
DEEAF
100
AcDbEntity
  8
AM_0
100
AcDbVertex
100
AcDb2dVertex
 10
3195.200370530622
 20
-315.7428887030408
 30
0.0
  0
VERTEX
  5
DEEBB
330
DEEAF
100
AcDbEntity
  8
AM_0
100
AcDbVertex
100
AcDb2dVertex
 10
3195.337078283924
 20
-315.4735486659308
 30
0.0
  0
VERTEX
  5
DEEBC
330
DEEAF
100
AcDbEntity
  8
AM_0
100
AcDbVertex
100
AcDb2dVertex
 10
3195.459689190662
 20
-315.1975209872638
 30
0.0
  0
VERTEX
  5
DEEBD
330
DEEAF
100
AcDbEntity
  8
AM_0
100
AcDbVertex
100
AcDb2dVertex
 10
3195.56794123114
 20
-314.9155523347718
 30
0.0
  0
VERTEX
  5
DEEBE
330
DEEAF
100
AcDbEntity
  8
AM_0
100
AcDbVertex
100
AcDb2dVertex
 10
3195.661575421436
 20
-314.6283873718019
 30
0.0
  0
VERTEX
  5
DEEBF
330
DEEAF
100
AcDbEntity
  8
AM_0
100
AcDbVertex
100
AcDb2dVertex
 10
3195.74034353321
 20
-314.3367797892562
 30
0.0
  0
VERTEX
  5
DEEC0
330
DEEAF
100
AcDbEntity
  8
AM_0
100
AcDbVertex
100
AcDb2dVertex
 10
3195.804030131239
 20
-314.0415167698817
 30
0.0
  0
VERTEX
  5
DEEC1
330
DEEAF
100
AcDbEntity
  8
AM_0
100
AcDbVertex
100
AcDb2dVertex
 10
3195.852432311615
 20
-313.7433922617476
 30
0.0
  0
VERTEX
  5
DEEC2
330
DEEAF
100
AcDbEntity
  8
AM_0
100
AcDbVertex
100
AcDb2dVertex
 10
3195.885347617037
 20
-313.4432018796805
 30
0.0
  0
VERTEX
  5
DEEC3
330
DEEAF
100
AcDbEntity
  8
AM_0
100
AcDbVertex
100
AcDb2dVertex
 10
3195.902642700811
 20
-313.141719147525
 30
0.0
  0
VERTEX
  5
DEEC4
330
DEEAF
100
AcDbEntity
  8
AM_0
100
AcDbVertex
100
AcDb2dVertex
 10
3195.904264289699
 20
-312.8396919651815
 30
0.0
  0
VERTEX
  5
DEEC5
330
DEEAF
100
AcDbEntity
  8
AM_0
100
AcDbVertex
100
AcDb2dVertex
 10
3195.890158445898
 20
-312.5378701970457
 30
0.0
  0
VERTEX
  5
DEEC6
330
DEEAF
100
AcDbEntity
  8
AM_0
100
AcDbVertex
100
AcDb2dVertex
 10
3195.860306119575
 20
-312.237053906824
 30
0.0
  0
VERTEX
  5
DEEC7
330
DEEAF
100
AcDbEntity
  8
AM_0
100
AcDbVertex
100
AcDb2dVertex
 10
3195.814834820299
 20
-311.9382789972676
 30
0.0
  0
VERTEX
  5
DEEC8
330
DEEAF
100
AcDbEntity
  8
AM_0
100
AcDbVertex
100
AcDb2dVertex
 10
3195.753909157264
 20
-311.6426220456994
 30
0.0
  0
SEQEND
  5
DEEC9
330
DEEAF
100
AcDbEntity
  8
AM_0
  0
POLYLINE
  5
DEECA
330
1F
100
AcDbEntity
  8
AM_0
100
AcDb2dPolyline
 66
     1
 10
0.0
 20
0.0
 30
0.0
 70
   128
  0
VERTEX
  5
DEECB
330
DEECA
100
AcDbEntity
  8
AM_0
100
AcDbVertex
100
AcDb2dVertex
 10
3188.059233177907
 20
-320.1440136128987
 30
0.0
  0
VERTEX
  5
DEECC
330
DEECA
100
AcDbEntity
  8
AM_0
100
AcDbVertex
100
AcDb2dVertex
 10
3188.282651573167
 20
-320.0826780107047
 30
0.0
  0
VERTEX
  5
DEECD
330
DEECA
100
AcDbEntity
  8
AM_0
100
AcDbVertex
100
AcDb2dVertex
 10
3188.505317643983
 20
-320.0185213613985
 30
0.0
  0
VERTEX
  5
DEECE
330
DEECA
100
AcDbEntity
  8
AM_0
100
AcDbVertex
100
AcDb2dVertex
 10
3188.727232421749
 20
-319.9515386248185
 30
0.0
  0
VERTEX
  5
DEECF
330
DEECA
100
AcDbEntity
  8
AM_0
100
AcDbVertex
100
AcDb2dVertex
 10
3188.948397791179
 20
-319.8817257231055
 30
0.0
  0
VERTEX
  5
DEED0
330
DEECA
100
AcDbEntity
  8
AM_0
100
AcDbVertex
100
AcDb2dVertex
 10
3189.168815081405
 20
-319.8090787272688
 30
0.0
  0
VERTEX
  5
DEED1
330
DEECA
100
AcDbEntity
  8
AM_0
100
AcDbVertex
100
AcDb2dVertex
 10
3189.388486434992
 20
-319.7335922994086
 30
0.0
  0
VERTEX
  5
DEED2
330
DEECA
100
AcDbEntity
  8
AM_0
100
AcDbVertex
100
AcDb2dVertex
 10
3189.607412605541
 20
-319.6552614737975
 30
0.0
  0
VERTEX
  5
DEED3
330
DEECA
100
AcDbEntity
  8
AM_0
100
AcDbVertex
100
AcDb2dVertex
 10
3189.825595775504
 20
-319.5740832837477
 30
0.0
  0
VERTEX
  5
DEED4
330
DEECA
100
AcDbEntity
  8
AM_0
100
AcDbVertex
100
AcDb2dVertex
 10
3190.043020686217
 20
-319.4900630087574
 30
0.0
  0
VERTEX
  5
DEED5
330
DEECA
100
AcDbEntity
  8
AM_0
100
AcDbVertex
100
AcDb2dVertex
 10
3190.259602434194
 20
-319.4032460267016
 30
0.0
  0
VERTEX
  5
DEED6
330
DEECA
100
AcDbEntity
  8
AM_0
100
AcDbVertex
100
AcDb2dVertex
 10
3190.475241254747
 20
-319.3136900341564
 30
0.0
  0
VERTEX
  5
DEED7
330
DEECA
100
AcDbEntity
  8
AM_0
100
AcDbVertex
100
AcDb2dVertex
 10
3190.68983484316
 20
-319.2214510263945
 30
0.0
  0
VERTEX
  5
DEED8
330
DEECA
100
AcDbEntity
  8
AM_0
100
AcDbVertex
100
AcDb2dVertex
 10
3190.903282561474
 20
-319.1265845520822
 30
0.0
  0
VERTEX
  5
DEED9
330
DEECA
100
AcDbEntity
  8
AM_0
100
AcDbVertex
100
AcDb2dVertex
 10
3191.115483811622
 20
-319.0291485310984
 30
0.0
  0
VERTEX
  5
DEEDA
330
DEECA
100
AcDbEntity
  8
AM_0
100
AcDbVertex
100
AcDb2dVertex
 10
3191.326336844471
 20
-318.9291988098476
 30
0.0
  0
VERTEX
  5
DEEDB
330
DEECA
100
AcDbEntity
  8
AM_0
100
AcDbVertex
100
AcDb2dVertex
 10
3191.535741022067
 20
-318.8267909369958
 30
0.0
  0
VERTEX
  5
DEEDC
330
DEECA
100
AcDbEntity
  8
AM_0
100
AcDbVertex
100
AcDb2dVertex
 10
3191.743612889724
 20
-318.7219734750652
 30
0.0
  0
VERTEX
  5
DEEDD
330
DEECA
100
AcDbEntity
  8
AM_0
100
AcDbVertex
100
AcDb2dVertex
 10
3191.949942010977
 20
-318.6147563661998
 30
0.0
  0
VERTEX
  5
DEEDE
330
DEECA
100
AcDbEntity
  8
AM_0
100
AcDbVertex
100
AcDb2dVertex
 10
3192.154733683836
 20
-318.5051393817518
 30
0.0
  0
VERTEX
  5
DEEDF
330
DEECA
100
AcDbEntity
  8
AM_0
100
AcDbVertex
100
AcDb2dVertex
 10
3192.357995468546
 20
-318.3931240688111
 30
0.0
  0
VERTEX
  5
DEEE0
330
DEECA
100
AcDbEntity
  8
AM_0
100
AcDbVertex
100
AcDb2dVertex
 10
3192.559734072027
 20
-318.2787110121651
 30
0.0
  0
VERTEX
  5
DEEE1
330
DEECA
100
AcDbEntity
  8
AM_0
100
AcDbVertex
100
AcDb2dVertex
 10
3192.75995564561
 20
-318.1619009454686
 30
0.0
  0
VERTEX
  5
DEEE2
330
DEECA
100
AcDbEntity
  8
AM_0
100
AcDbVertex
100
AcDb2dVertex
 10
3192.958667193956
 20
-318.0426955646808
 30
0.0
  0
VERTEX
  5
DEEE3
330
DEECA
100
AcDbEntity
  8
AM_0
100
AcDbVertex
100
AcDb2dVertex
 10
3193.155875384093
 20
-317.9210930833759
 30
0.0
  0
SEQEND
  5
DEEE4
330
DEECA
100
AcDbEntity
  8
AM_0
  0
ARC
  5
DEEE5
330
1F
100
AcDbEntity
  8
AM_0
100
AcDbCircle
 10
3188.291062207787
 20
-306.0953142963807
 30
0.0
 40
19.30000070431542
100
AcDbArc
 50
188.098145778939
 51
194.9999999999944
  0
LINE
  5
DEEEA
330
1F
100
AcDbEntity
  8
AM_0
100
AcDbLine
 10
3195.873182047309
 20
-190.193205537284
 30
0.0
 11
3169.037180427376
 21
-190.1932055372841
 31
0.0
  0
POLYLINE
  5
DEEEB
330
1F
100
AcDbEntity
  8
AM_0
100
AcDb2dPolyline
 66
     1
 10
0.0
 20
0.0
 30
0.0
 70
   128
  0
VERTEX
  5
DEEEC
330
DEEEB
100
AcDbEntity
  8
AM_0
100
AcDbVertex
100
AcDb2dVertex
 10
3278.749318709324
 20
-246.1733225809673
 30
0.0
  0
VERTEX
  5
DEEED
330
DEEEB
100
AcDbEntity
  8
AM_0
100
AcDbVertex
100
AcDb2dVertex
 10
3278.748159136723
 20
-246.1733179794888
 30
0.0
  0
VERTEX
  5
DEEEE
330
DEEEB
100
AcDbEntity
  8
AM_0
100
AcDbVertex
100
AcDb2dVertex
 10
3278.746990361165
 20
-246.1733087765316
 30
0.0
  0
VERTEX
  5
DEEEF
330
DEEEB
100
AcDbEntity
  8
AM_0
100
AcDbVertex
100
AcDb2dVertex
 10
3278.745830788563
 20
-246.1732903706173
 30
0.0
  0
VERTEX
  5
DEEF0
330
DEEEB
100
AcDbEntity
  8
AM_0
100
AcDbVertex
100
AcDb2dVertex
 10
3278.744662013005
 20
-246.1732627617459
 30
0.0
  0
VERTEX
  5
DEEF1
330
DEEEB
100
AcDbEntity
  8
AM_0
100
AcDbVertex
100
AcDb2dVertex
 10
3278.743502440403
 20
-246.1732259499172
 30
0.0
  0
VERTEX
  5
DEEF2
330
DEEEB
100
AcDbEntity
  8
AM_0
100
AcDbVertex
100
AcDb2dVertex
 10
3278.742342867802
 20
-246.17318453661
 30
0.0
  0
VERTEX
  5
DEEF3
330
DEEEB
100
AcDbEntity
  8
AM_0
100
AcDbVertex
100
AcDb2dVertex
 10
3278.741174092244
 20
-246.1731385218242
 30
0.0
  0
VERTEX
  5
DEEF4
330
DEEEB
100
AcDbEntity
  8
AM_0
100
AcDbVertex
100
AcDb2dVertex
 10
3278.740014519642
 20
-246.1730787026028
 30
0.0
  0
VERTEX
  5
DEEF5
330
DEEEB
100
AcDbEntity
  8
AM_0
100
AcDbVertex
100
AcDb2dVertex
 10
3278.738854947041
 20
-246.1730142819027
 30
0.0
  0
VERTEX
  5
DEEF6
330
DEEEB
100
AcDbEntity
  8
AM_0
100
AcDbVertex
100
AcDb2dVertex
 10
3278.737686171482
 20
-246.172945259724
 30
0.0
  0
VERTEX
  5
DEEF7
330
DEEEB
100
AcDbEntity
  8
AM_0
100
AcDbVertex
100
AcDb2dVertex
 10
3278.736526598881
 20
-246.1728624331096
 30
0.0
  0
VERTEX
  5
DEEF8
330
DEEEB
100
AcDbEntity
  8
AM_0
100
AcDbVertex
100
AcDb2dVertex
 10
3278.735357823322
 20
-246.1727796064953
 30
0.0
  0
VERTEX
  5
DEEF9
330
DEEEB
100
AcDbEntity
  8
AM_0
100
AcDbVertex
100
AcDb2dVertex
 10
3278.734198250721
 20
-246.1726829754452
 30
0.0
  0
VERTEX
  5
DEEFA
330
DEEEB
100
AcDbEntity
  8
AM_0
100
AcDbVertex
100
AcDb2dVertex
 10
3278.733038678119
 20
-246.1725817429165
 30
0.0
  0
VERTEX
  5
DEEFB
330
DEEEB
100
AcDbEntity
  8
AM_0
100
AcDbVertex
100
AcDb2dVertex
 10
3278.731869902561
 20
-246.1724713074306
 30
0.0
  0
VERTEX
  5
DEEFC
330
DEEEB
100
AcDbEntity
  8
AM_0
100
AcDbVertex
100
AcDb2dVertex
 10
3278.73071032996
 20
-246.1723562704662
 30
0.0
  0
VERTEX
  5
DEEFD
330
DEEEB
100
AcDbEntity
  8
AM_0
100
AcDbVertex
100
AcDb2dVertex
 10
3278.729550757359
 20
-246.1722320305447
 30
0.0
  0
VERTEX
  5
DEEFE
330
DEEEB
100
AcDbEntity
  8
AM_0
100
AcDbVertex
100
AcDb2dVertex
 10
3278.7283819818
 20
-246.1721031891445
 30
0.0
  0
VERTEX
  5
DEEFF
330
DEEEB
100
AcDbEntity
  8
AM_0
100
AcDbVertex
100
AcDb2dVertex
 10
3278.727222409199
 20
-246.1719651447872
 30
0.0
  0
VERTEX
  5
DEF00
330
DEEEB
100
AcDbEntity
  8
AM_0
100
AcDbVertex
100
AcDb2dVertex
 10
3278.726062836598
 20
-246.1718178974727
 30
0.0
  0
VERTEX
  5
DEF01
330
DEEEB
100
AcDbEntity
  8
AM_0
100
AcDbVertex
100
AcDb2dVertex
 10
3278.724903263996
 20
-246.1716660486797
 30
0.0
  0
VERTEX
  5
DEF02
330
DEEEB
100
AcDbEntity
  8
AM_0
100
AcDbVertex
100
AcDb2dVertex
 10
3278.723734488438
 20
-246.1715049969295
 30
0.0
  0
VERTEX
  5
DEF03
330
DEEEB
100
AcDbEntity
  8
AM_0
100
AcDbVertex
100
AcDb2dVertex
 10
3278.722574915837
 20
-246.1713347422222
 30
0.0
  0
VERTEX
  5
DEF04
330
DEEEB
100
AcDbEntity
  8
AM_0
100
AcDbVertex
100
AcDb2dVertex
 10
3278.721415343235
 20
-246.1711598860363
 30
0.0
  0
SEQEND
  5
DEF05
330
DEEEB
100
AcDbEntity
  8
AM_0
  0
POLYLINE
  5
DEF06
330
1F
100
AcDbEntity
  8
AM_0
100
AcDb2dPolyline
 66
     1
 10
0.0
 20
0.0
 30
0.0
  0
VERTEX
  5
DEF07
330
DEF06
100
AcDbEntity
  8
AM_0
100
AcDbVertex
100
AcDb2dVertex
 10
3214.26761812867
 20
-244.8298938048816
 30
0.0
  0
VERTEX
  5
DEF08
330
DEF06
100
AcDbEntity
  8
AM_0
100
AcDbVertex
100
AcDb2dVertex
 10
3215.15860387597
 20
-244.8109127057529
 30
0.0
  0
VERTEX
  5
DEF09
330
DEF06
100
AcDbEntity
  8
AM_0
100
AcDbVertex
100
AcDb2dVertex
 10
3215.605111319368
 20
-244.8020640624499
 30
0.0
  0
VERTEX
  5
DEF0A
330
DEF06
100
AcDbEntity
  8
AM_0
100
AcDbVertex
100
AcDb2dVertex
 10
3216.052344768705
 20
-244.7936479581333
 30
0.0
  0
VERTEX
  5
DEF0B
330
DEF06
100
AcDbEntity
  8
AM_0
100
AcDbVertex
100
AcDb2dVertex
 10
3216.500335316181
 20
-244.7856643928028
 30
0.0
  0
VERTEX
  5
DEF0C
330
DEF06
100
AcDbEntity
  8
AM_0
100
AcDbVertex
100
AcDb2dVertex
 10
3216.949118892232
 20
-244.7781225694158
 30
0.0
  0
VERTEX
  5
DEF0D
330
DEF06
100
AcDbEntity
  8
AM_0
100
AcDbVertex
100
AcDb2dVertex
 10
3217.398734553536
 20
-244.771022487972
 30
0.0
  0
VERTEX
  5
DEF0E
330
DEF06
100
AcDbEntity
  8
AM_0
100
AcDbVertex
100
AcDb2dVertex
 10
3217.849219208865
 20
-244.7643641484718
 30
0.0
  0
VERTEX
  5
DEF0F
330
DEF06
100
AcDbEntity
  8
AM_0
100
AcDbVertex
100
AcDb2dVertex
 10
3218.300613988374
 20
-244.7581475509148
 30
0.0
  0
VERTEX
  5
DEF10
330
DEF06
100
AcDbEntity
  8
AM_0
100
AcDbVertex
100
AcDb2dVertex
 10
3218.752949133803
 20
-244.7523772967796
 30
0.0
  0
VERTEX
  5
DEF11
330
DEF06
100
AcDbEntity
  8
AM_0
100
AcDbVertex
100
AcDb2dVertex
 10
3219.206270368862
 20
-244.747057987545
 30
0.0
  0
VERTEX
  5
DEF12
330
DEF06
100
AcDbEntity
  8
AM_0
100
AcDbVertex
100
AcDb2dVertex
 10
3219.660607786423
 20
-244.7421850217323
 30
0.0
  0
VERTEX
  5
DEF13
330
DEF06
100
AcDbEntity
  8
AM_0
100
AcDbVertex
100
AcDb2dVertex
 10
3220.11600503672
 20
-244.7377676022987
 30
0.0
  0
VERTEX
  5
DEF14
330
DEF06
100
AcDbEntity
  8
AM_0
100
AcDbVertex
100
AcDb2dVertex
 10
3220.572487693505
 20
-244.7337965262872
 30
0.0
  0
VERTEX
  5
DEF15
330
DEF06
100
AcDbEntity
  8
AM_0
100
AcDbVertex
100
AcDb2dVertex
 10
3221.030077183578
 20
-244.7302579892618
 30
0.0
  0
VERTEX
  5
DEF16
330
DEF06
100
AcDbEntity
  8
AM_0
100
AcDbVertex
100
AcDb2dVertex
 10
3221.488799378426
 20
-244.727147389744
 30
0.0
  0
VERTEX
  5
DEF17
330
DEF06
100
AcDbEntity
  8
AM_0
100
AcDbVertex
100
AcDb2dVertex
 10
3221.948662221921
 20
-244.7244509232983
 30
0.0
  0
VERTEX
  5
DEF18
330
DEF06
100
AcDbEntity
  8
AM_0
100
AcDbVertex
100
AcDb2dVertex
 10
3222.409696030236
 20
-244.7221593869671
 30
0.0
  0
VERTEX
  5
DEF19
330
DEF06
100
AcDbEntity
  8
AM_0
100
AcDbVertex
100
AcDb2dVertex
 10
3222.871917711053
 20
-244.7202589763149
 30
0.0
  0
VERTEX
  5
DEF1A
330
DEF06
100
AcDbEntity
  8
AM_0
100
AcDbVertex
100
AcDb2dVertex
 10
3223.335348616735
 20
-244.7187404883846
 30
0.0
  0
VERTEX
  5
DEF1B
330
DEF06
100
AcDbEntity
  8
AM_0
100
AcDbVertex
100
AcDb2dVertex
 10
3223.800005580528
 20
-244.7175901187405
 30
0.0
  0
VERTEX
  5
DEF1C
330
DEF06
100
AcDbEntity
  8
AM_0
100
AcDbVertex
100
AcDb2dVertex
 10
3224.26588987889
 20
-244.7167848599896
 30
0.0
  0
VERTEX
  5
DEF1D
330
DEF06
100
AcDbEntity
  8
AM_0
100
AcDbVertex
100
AcDb2dVertex
 10
3224.732961445507
 20
-244.716269494389
 30
0.0
  0
VERTEX
  5
DEF1E
330
DEF06
100
AcDbEntity
  8
AM_0
100
AcDbVertex
100
AcDb2dVertex
 10
3225.201171749922
 20
-244.7159934056744
 30
0.0
  0
VERTEX
  5
DEF1F
330
DEF06
100
AcDbEntity
  8
AM_0
100
AcDbVertex
100
AcDb2dVertex
 10
3225.670467668123
 20
-244.7158967746245
 30
0.0
  0
VERTEX
  5
DEF20
330
DEF06
100
AcDbEntity
  8
AM_0
100
AcDbVertex
100
AcDb2dVertex
 10
3226.140796883803
 20
-244.7159105790602
 30
0.0
  0
VERTEX
  5
DEF21
330
DEF06
100
AcDbEntity
  8
AM_0
100
AcDbVertex
100
AcDb2dVertex
 10
3226.612062398642
 20
-244.7159197820174
 30
0.0
  0
VERTEX
  5
DEF22
330
DEF06
100
AcDbEntity
  8
AM_0
100
AcDbVertex
100
AcDb2dVertex
 10
3227.084165066798
 20
-244.7158461583602
 30
0.0
  0
VERTEX
  5
DEF23
330
DEF06
100
AcDbEntity
  8
AM_0
100
AcDbVertex
100
AcDb2dVertex
 10
3227.557037537752
 20
-244.7157081140031
 30
0.0
  0
SEQEND
  5
DEF24
330
DEF06
100
AcDbEntity
  8
AM_0
  0
POLYLINE
  5
DEF25
330
1F
100
AcDbEntity
  8
AM_0
100
AcDb2dPolyline
 66
     1
 10
0.0
 20
0.0
 30
0.0
  0
VERTEX
  5
DEF26
330
DEF25
100
AcDbEntity
  8
AM_0
100
AcDbVertex
100
AcDb2dVertex
 10
3197.955617459225
 20
-245.4690161717846
 30
0.0
  0
VERTEX
  5
DEF27
330
DEF25
100
AcDbEntity
  8
AM_0
100
AcDbVertex
100
AcDb2dVertex
 10
3198.399430542738
 20
-245.4442694199993
 30
0.0
  0
VERTEX
  5
DEF28
330
DEF25
100
AcDbEntity
  8
AM_0
100
AcDbVertex
100
AcDb2dVertex
 10
3198.842741594249
 20
-245.4199920190288
 30
0.0
  0
VERTEX
  5
DEF29
330
DEF25
100
AcDbEntity
  8
AM_0
100
AcDbVertex
100
AcDb2dVertex
 10
3199.285542479226
 20
-245.3961793673946
 30
0.0
  0
VERTEX
  5
DEF2A
330
DEF25
100
AcDbEntity
  8
AM_0
100
AcDbVertex
100
AcDb2dVertex
 10
3199.727867309615
 20
-245.3728314650967
 30
0.0
  0
VERTEX
  5
DEF2B
330
DEF25
100
AcDbEntity
  8
AM_0
100
AcDbVertex
100
AcDb2dVertex
 10
3200.169759584011
 20
-245.3499345076992
 30
0.0
  0
VERTEX
  5
DEF2C
330
DEF25
100
AcDbEntity
  8
AM_0
100
AcDbVertex
100
AcDb2dVertex
 10
3200.611252526496
 20
-245.3274792922453
 30
0.0
  0
VERTEX
  5
DEF2D
330
DEF25
100
AcDbEntity
  8
AM_0
100
AcDbVertex
100
AcDb2dVertex
 10
3201.052375495897
 20
-245.305461217256
 30
0.0
  0
VERTEX
  5
DEF2E
330
DEF25
100
AcDbEntity
  8
AM_0
100
AcDbVertex
100
AcDb2dVertex
 10
3201.493162481822
 20
-245.2838710797745
 30
0.0
  0
VERTEX
  5
DEF2F
330
DEF25
100
AcDbEntity
  8
AM_0
100
AcDbVertex
100
AcDb2dVertex
 10
3201.933640509107
 20
-245.2627088798005
 30
0.0
  0
VERTEX
  5
DEF30
330
DEF25
100
AcDbEntity
  8
AM_0
100
AcDbVertex
100
AcDb2dVertex
 10
3202.37384060067
 20
-245.2419562114198
 30
0.0
  0
VERTEX
  5
DEF31
330
DEF25
100
AcDbEntity
  8
AM_0
100
AcDbVertex
100
AcDb2dVertex
 10
3202.813793258388
 20
-245.2216222775895
 30
0.0
  0
VERTEX
  5
DEF32
330
DEF25
100
AcDbEntity
  8
AM_0
100
AcDbVertex
100
AcDb2dVertex
 10
3203.253531392567
 20
-245.201693273874
 30
0.0
  0
VERTEX
  5
DEF33
330
DEF25
100
AcDbEntity
  8
AM_0
100
AcDbVertex
100
AcDb2dVertex
 10
3203.693083245524
 20
-245.1821692002734
 30
0.0
  0
VERTEX
  5
DEF34
330
DEF25
100
AcDbEntity
  8
AM_0
100
AcDbVertex
100
AcDb2dVertex
 10
3204.132477245661
 20
-245.1630408538302
 30
0.0
  0
VERTEX
  5
DEF35
330
DEF25
100
AcDbEntity
  8
AM_0
100
AcDbVertex
100
AcDb2dVertex
 10
3204.571748413975
 20
-245.1443082345449
 30
0.0
  0
VERTEX
  5
DEF36
330
DEF25
100
AcDbEntity
  8
AM_0
100
AcDbVertex
100
AcDb2dVertex
 10
3205.010925104435
 20
-245.1259667409383
 30
0.0
  0
VERTEX
  5
DEF37
330
DEF25
100
AcDbEntity
  8
AM_0
100
AcDbVertex
100
AcDb2dVertex
 10
3205.450037893352
 20
-245.1080071700535
 30
0.0
  0
VERTEX
  5
DEF38
330
DEF25
100
AcDbEntity
  8
AM_0
100
AcDbVertex
100
AcDb2dVertex
 10
3205.889117394255
 20
-245.0904341233693
 30
0.0
  0
VERTEX
  5
DEF39
330
DEF25
100
AcDbEntity
  8
AM_0
100
AcDbVertex
100
AcDb2dVertex
 10
3206.328194443975
 20
-245.0732429994069
 30
0.0
  0
VERTEX
  5
DEF3A
330
DEF25
100
AcDbEntity
  8
AM_0
100
AcDbVertex
100
AcDb2dVertex
 10
3206.767301952819
 20
-245.0564337981666
 30
0.0
  0
VERTEX
  5
DEF3B
330
DEF25
100
AcDbEntity
  8
AM_0
100
AcDbVertex
100
AcDb2dVertex
 10
3207.206468423624
 20
-245.0400065196479
 30
0.0
  0
VERTEX
  5
DEF3C
330
DEF25
100
AcDbEntity
  8
AM_0
100
AcDbVertex
100
AcDb2dVertex
 10
3207.645729063473
 20
-245.0239611638511
 30
0.0
  0
VERTEX
  5
DEF3D
330
DEF25
100
AcDbEntity
  8
AM_0
100
AcDbVertex
100
AcDb2dVertex
 10
3208.085112337985
 20
-245.0082977307764
 30
0.0
  0
VERTEX
  5
DEF3E
330
DEF25
100
AcDbEntity
  8
AM_0
100
AcDbVertex
100
AcDb2dVertex
 10
3208.524651306337
 20
-244.9930162204233
 30
0.0
  0
VERTEX
  5
DEF3F
330
DEF25
100
AcDbEntity
  8
AM_0
100
AcDbVertex
100
AcDb2dVertex
 10
3208.964376656492
 20
-244.9781120313135
 30
0.0
  0
VERTEX
  5
DEF40
330
DEF25
100
AcDbEntity
  8
AM_0
100
AcDbVertex
100
AcDb2dVertex
 10
3209.404319820755
 20
-244.9635897649255
 30
0.0
  0
VERTEX
  5
DEF41
330
DEF25
100
AcDbEntity
  8
AM_0
100
AcDbVertex
100
AcDb2dVertex
 10
3209.84451616577
 20
-244.9494540227381
 30
0.0
  0
VERTEX
  5
DEF42
330
DEF25
100
AcDbEntity
  8
AM_0
100
AcDbVertex
100
AcDb2dVertex
 10
3210.284994391144
 20
-244.9357048047512
 30
0.0
  0
VERTEX
  5
DEF43
330
DEF25
100
AcDbEntity
  8
AM_0
100
AcDbVertex
100
AcDb2dVertex
 10
3210.725792234733
 20
-244.9223467124431
 30
0.0
  0
VERTEX
  5
DEF44
330
DEF25
100
AcDbEntity
  8
AM_0
100
AcDbVertex
100
AcDb2dVertex
 10
3211.166940692927
 20
-244.9093797458143
 30
0.0
  0
VERTEX
  5
DEF45
330
DEF25
100
AcDbEntity
  8
AM_0
100
AcDbVertex
100
AcDb2dVertex
 10
3211.608472910022
 20
-244.8968131078215
 30
0.0
  0
VERTEX
  5
DEF46
330
DEF25
100
AcDbEntity
  8
AM_0
100
AcDbVertex
100
AcDb2dVertex
 10
3212.050424475962
 20
-244.8846421969863
 30
0.0
  0
VERTEX
  5
DEF47
330
DEF25
100
AcDbEntity
  8
AM_0
100
AcDbVertex
100
AcDb2dVertex
 10
3212.492826387138
 20
-244.8728762162657
 30
0.0
  0
VERTEX
  5
DEF48
330
DEF25
100
AcDbEntity
  8
AM_0
100
AcDbVertex
100
AcDb2dVertex
 10
3212.935712383322
 20
-244.8615105641814
 30
0.0
  0
VERTEX
  5
DEF49
330
DEF25
100
AcDbEntity
  8
AM_0
100
AcDbVertex
100
AcDb2dVertex
 10
3213.379116736016
 20
-244.8505590451692
 30
0.0
  0
VERTEX
  5
DEF4A
330
DEF25
100
AcDbEntity
  8
AM_0
100
AcDbVertex
100
AcDb2dVertex
 10
3213.823074386631
 20
-244.84001705775
 30
0.0
  0
VERTEX
  5
DEF4B
330
DEF25
100
AcDbEntity
  8
AM_0
100
AcDbVertex
100
AcDb2dVertex
 10
3214.26761812867
 20
-244.8298938048816
 30
0.0
  0
SEQEND
  5
DEF4C
330
DEF25
100
AcDbEntity
  8
AM_0
  0
POLYLINE
  5
DEF4D
330
1F
100
AcDbEntity
  8
AM_0
100
AcDb2dPolyline
 66
     1
 10
0.0
 20
0.0
 30
0.0
 70
   128
  0
VERTEX
  5
DEF4E
330
DEF4D
100
AcDbEntity
  8
AM_0
100
AcDbVertex
100
AcDb2dVertex
 10
3275.749138694782
 20
-246.1711649907595
 30
0.0
  0
VERTEX
  5
DEF4F
330
DEF4D
100
AcDbEntity
  8
AM_0
100
AcDbVertex
100
AcDb2dVertex
 10
3275.266027636388
 20
-246.1707922709949
 30
0.0
  0
VERTEX
  5
DEF50
330
DEF4D
100
AcDbEntity
  8
AM_0
100
AcDbVertex
100
AcDb2dVertex
 10
3274.782925590229
 20
-246.1698305619723
 30
0.0
  0
VERTEX
  5
DEF51
330
DEF4D
100
AcDbEntity
  8
AM_0
100
AcDbVertex
100
AcDb2dVertex
 10
3274.299846265305
 20
-246.1682292474276
 30
0.0
  0
VERTEX
  5
DEF52
330
DEF4D
100
AcDbEntity
  8
AM_0
100
AcDbVertex
100
AcDb2dVertex
 10
3273.816786038477
 20
-246.1656248105533
 30
0.0
  0
VERTEX
  5
DEF53
330
DEF4D
100
AcDbEntity
  8
AM_0
100
AcDbVertex
100
AcDb2dVertex
 10
3273.3337627071
 20
-246.1617917788989
 30
0.0
  0
VERTEX
  5
DEF54
330
DEF4D
100
AcDbEntity
  8
AM_0
100
AcDbVertex
100
AcDb2dVertex
 10
3272.85077830328
 20
-246.1566841376789
 30
0.0
  0
VERTEX
  5
DEF55
330
DEF4D
100
AcDbEntity
  8
AM_0
100
AcDbVertex
100
AcDb2dVertex
 10
3272.367843180935
 20
-246.1502742780215
 30
0.0
  0
VERTEX
  5
DEF56
330
DEF4D
100
AcDbEntity
  8
AM_0
100
AcDbVertex
100
AcDb2dVertex
 10
3271.884959251214
 20
-246.1425207866199
 30
0.0
  0
VERTEX
  5
DEF57
330
DEF4D
100
AcDbEntity
  8
AM_0
100
AcDbVertex
100
AcDb2dVertex
 10
3271.402131318904
 20
-246.1334328664309
 30
0.0
  0
VERTEX
  5
DEF58
330
DEF4D
100
AcDbEntity
  8
AM_0
100
AcDbVertex
100
AcDb2dVertex
 10
3270.919365575131
 20
-246.1230243218906
 30
0.0
  0
VERTEX
  5
DEF59
330
DEF4D
100
AcDbEntity
  8
AM_0
100
AcDbVertex
100
AcDb2dVertex
 10
3270.436677101561
 20
-246.1112997544772
 30
0.0
  0
VERTEX
  5
DEF5A
330
DEF4D
100
AcDbEntity
  8
AM_0
100
AcDbVertex
100
AcDb2dVertex
 10
3269.954063202272
 20
-246.0982775701053
 30
0.0
  0
VERTEX
  5
DEF5B
330
DEF4D
100
AcDbEntity
  8
AM_0
100
AcDbVertex
100
AcDb2dVertex
 10
3269.471530068392
 20
-246.0839669717318
 30
0.0
  0
VERTEX
  5
DEF5C
330
DEF4D
100
AcDbEntity
  8
AM_0
100
AcDbVertex
100
AcDb2dVertex
 10
3268.989092787401
 20
-246.0683817637927
 30
0.0
  0
VERTEX
  5
DEF5D
330
DEF4D
100
AcDbEntity
  8
AM_0
100
AcDbVertex
100
AcDb2dVertex
 10
3268.50674872967
 20
-246.0515357507235
 30
0.0
  0
VERTEX
  5
DEF5E
330
DEF4D
100
AcDbEntity
  8
AM_0
100
AcDbVertex
100
AcDb2dVertex
 10
3268.024514250391
 20
-246.0334197295672
 30
0.0
  0
VERTEX
  5
DEF5F
330
DEF4D
100
AcDbEntity
  8
AM_0
100
AcDbVertex
100
AcDb2dVertex
 10
3267.542388916912
 20
-246.0140106929308
 30
0.0
  0
VERTEX
  5
DEF60
330
DEF4D
100
AcDbEntity
  8
AM_0
100
AcDbVertex
100
AcDb2dVertex
 10
3267.060390107898
 20
-245.9932856334216
 30
0.0
  0
VERTEX
  5
DEF61
330
DEF4D
100
AcDbEntity
  8
AM_0
100
AcDbVertex
100
AcDb2dVertex
 10
3266.578508543192
 20
-245.9712215436466
 30
0.0
  0
VERTEX
  5
DEF62
330
DEF4D
100
AcDbEntity
  8
AM_0
100
AcDbVertex
100
AcDb2dVertex
 10
3266.096770500138
 20
-245.9477954162127
 30
0.0
  0
VERTEX
  5
DEF63
330
DEF4D
100
AcDbEntity
  8
AM_0
100
AcDbVertex
100
AcDb2dVertex
 10
3265.615184477329
 20
-245.922988845206
 30
0.0
  0
VERTEX
  5
DEF64
330
DEF4D
100
AcDbEntity
  8
AM_0
100
AcDbVertex
100
AcDb2dVertex
 10
3265.133741157392
 20
-245.8967742217548
 30
0.0
  0
VERTEX
  5
DEF65
330
DEF4D
100
AcDbEntity
  8
AM_0
100
AcDbVertex
100
AcDb2dVertex
 10
3264.652457407255
 20
-245.8692895902164
 30
0.0
  0
VERTEX
  5
DEF66
330
DEF4D
100
AcDbEntity
  8
AM_0
100
AcDbVertex
100
AcDb2dVertex
 10
3264.171295976038
 20
-245.8409076703556
 30
0.0
  0
VERTEX
  5
DEF67
330
DEF4D
100
AcDbEntity
  8
AM_0
100
AcDbVertex
100
AcDb2dVertex
 10
3263.690255207578
 20
-245.8120057834155
 30
0.0
  0
VERTEX
  5
DEF68
330
DEF4D
100
AcDbEntity
  8
AM_0
100
AcDbVertex
100
AcDb2dVertex
 10
3263.209315573916
 20
-245.7829658521183
 30
0.0
  0
VERTEX
  5
DEF69
330
DEF4D
100
AcDbEntity
  8
AM_0
100
AcDbVertex
100
AcDb2dVertex
 10
3262.728458365876
 20
-245.7539857400424
 30
0.0
  0
VERTEX
  5
DEF6A
330
DEF4D
100
AcDbEntity
  8
AM_0
100
AcDbVertex
100
AcDb2dVertex
 10
3262.247674098609
 20
-245.7252126945026
 30
0.0
  0
VERTEX
  5
DEF6B
330
DEF4D
100
AcDbEntity
  8
AM_0
100
AcDbVertex
100
AcDb2dVertex
 10
3261.766970991579
 20
-245.6967755568988
 30
0.0
  0
VERTEX
  5
DEF6C
330
DEF4D
100
AcDbEntity
  8
AM_0
100
AcDbVertex
100
AcDb2dVertex
 10
3261.286339746022
 20
-245.6687709582813
 30
0.0
  0
VERTEX
  5
DEF6D
330
DEF4D
100
AcDbEntity
  8
AM_0
100
AcDbVertex
100
AcDb2dVertex
 10
3260.805780399156
 20
-245.6412035001285
 30
0.0
  0
VERTEX
  5
DEF6E
330
DEF4D
100
AcDbEntity
  8
AM_0
100
AcDbVertex
100
AcDb2dVertex
 10
3260.325301877573
 20
-245.6140731824402
 30
0.0
  0
VERTEX
  5
DEF6F
330
DEF4D
100
AcDbEntity
  8
AM_0
100
AcDbVertex
100
AcDb2dVertex
 10
3259.844904292922
 20
-245.5873662007813
 30
0.0
  0
VERTEX
  5
DEF70
330
DEF4D
100
AcDbEntity
  8
AM_0
100
AcDbVertex
100
AcDb2dVertex
 10
3259.364596609015
 20
-245.5610733521943
 30
0.0
  0
VERTEX
  5
DEF71
330
DEF4D
100
AcDbEntity
  8
AM_0
100
AcDbVertex
100
AcDb2dVertex
 10
3258.884370048126
 20
-245.5351900352006
 30
0.0
  0
VERTEX
  5
DEF72
330
DEF4D
100
AcDbEntity
  8
AM_0
100
AcDbVertex
100
AcDb2dVertex
 10
3258.404251315597
 20
-245.509707046843
 30
0.0
  0
VERTEX
  5
DEF73
330
DEF4D
100
AcDbEntity
  8
AM_0
100
AcDbVertex
100
AcDb2dVertex
 10
3257.924222744331
 20
-245.4846197856431
 30
0.0
  0
VERTEX
  5
DEF74
330
DEF4D
100
AcDbEntity
  8
AM_0
100
AcDbVertex
100
AcDb2dVertex
 10
3257.444302224726
 20
-245.4599236501221
 30
0.0
  0
VERTEX
  5
DEF75
330
DEF4D
100
AcDbEntity
  8
AM_0
100
AcDbVertex
100
AcDb2dVertex
 10
3256.964480941844
 20
-245.435632444716
 30
0.0
  0
VERTEX
  5
DEF76
330
DEF4D
100
AcDbEntity
  8
AM_0
100
AcDbVertex
100
AcDb2dVertex
 10
3256.48476800836
 20
-245.4117507709031
 30
0.0
  0
VERTEX
  5
DEF77
330
DEF4D
100
AcDbEntity
  8
AM_0
100
AcDbVertex
100
AcDb2dVertex
 10
3256.005163424278
 20
-245.3882832301619
 30
0.0
  0
VERTEX
  5
DEF78
330
DEF4D
100
AcDbEntity
  8
AM_0
100
AcDbVertex
100
AcDb2dVertex
 10
3255.525667338463
 20
-245.3652344239714
 30
0.0
  0
VERTEX
  5
DEF79
330
DEF4D
100
AcDbEntity
  8
AM_0
100
AcDbVertex
100
AcDb2dVertex
 10
3255.046288714725
 20
-245.3426135552886
 30
0.0
  0
VERTEX
  5
DEF7A
330
DEF4D
100
AcDbEntity
  8
AM_0
100
AcDbVertex
100
AcDb2dVertex
 10
3254.56702333168
 20
-245.3204252255919
 30
0.0
  0
VERTEX
  5
DEF7B
330
DEF4D
100
AcDbEntity
  8
AM_0
100
AcDbVertex
100
AcDb2dVertex
 10
3254.08788022757
 20
-245.2986694348814
 30
0.0
  0
VERTEX
  5
DEF7C
330
DEF4D
100
AcDbEntity
  8
AM_0
100
AcDbVertex
100
AcDb2dVertex
 10
3253.608859700135
 20
-245.2773461831573
 30
0.0
  0
VERTEX
  5
DEF7D
330
DEF4D
100
AcDbEntity
  8
AM_0
100
AcDbVertex
100
AcDb2dVertex
 10
3253.129962121544
 20
-245.2564508689406
 30
0.0
  0
VERTEX
  5
DEF7E
330
DEF4D
100
AcDbEntity
  8
AM_0
100
AcDbVertex
100
AcDb2dVertex
 10
3252.651196604476
 20
-245.2359834922316
 30
0.0
  0
VERTEX
  5
DEF7F
330
DEF4D
100
AcDbEntity
  8
AM_0
100
AcDbVertex
100
AcDb2dVertex
 10
3252.172567965789
 20
-245.2159486545089
 30
0.0
  0
VERTEX
  5
DEF80
330
DEF4D
100
AcDbEntity
  8
AM_0
100
AcDbVertex
100
AcDb2dVertex
 10
3251.6940719841
 20
-245.1963325513365
 30
0.0
  0
VERTEX
  5
DEF81
330
DEF4D
100
AcDbEntity
  8
AM_0
100
AcDbVertex
100
AcDb2dVertex
 10
3251.215722291207
 20
-245.1771443856718
 30
0.0
  0
VERTEX
  5
DEF82
330
DEF4D
100
AcDbEntity
  8
AM_0
100
AcDbVertex
100
AcDb2dVertex
 10
3250.737514814595
 20
-245.1583795560362
 30
0.0
  0
VERTEX
  5
DEF83
330
DEF4D
100
AcDbEntity
  8
AM_0
100
AcDbVertex
100
AcDb2dVertex
 10
3250.259458741377
 20
-245.1400334609511
 30
0.0
  0
VERTEX
  5
DEF84
330
DEF4D
100
AcDbEntity
  8
AM_0
100
AcDbVertex
100
AcDb2dVertex
 10
3249.781554294853
 20
-245.122110701895
 30
0.0
  0
VERTEX
  5
DEF85
330
DEF4D
100
AcDbEntity
  8
AM_0
100
AcDbVertex
100
AcDb2dVertex
 10
3249.303806291884
 20
-245.1046020759108
 30
0.0
  0
VERTEX
  5
DEF86
330
DEF4D
100
AcDbEntity
  8
AM_0
100
AcDbVertex
100
AcDb2dVertex
 10
3248.826219400462
 20
-245.0875121844771
 30
0.0
  0
VERTEX
  5
DEF87
330
DEF4D
100
AcDbEntity
  8
AM_0
100
AcDbVertex
100
AcDb2dVertex
 10
3248.348793992755
 20
-245.0708364261152
 30
0.0
  0
VERTEX
  5
DEF88
330
DEF4D
100
AcDbEntity
  8
AM_0
100
AcDbVertex
100
AcDb2dVertex
 10
3247.871539255877
 20
-245.0545748008252
 30
0.0
  0
VERTEX
  5
DEF89
330
DEF4D
100
AcDbEntity
  8
AM_0
100
AcDbVertex
100
AcDb2dVertex
 10
3247.394455413131
 20
-245.0387273086072
 30
0.0
  0
VERTEX
  5
DEF8A
330
DEF4D
100
AcDbEntity
  8
AM_0
100
AcDbVertex
100
AcDb2dVertex
 10
3246.91754735581
 20
-245.0232847465039
 30
0.0
  0
VERTEX
  5
DEF8B
330
DEF4D
100
AcDbEntity
  8
AM_0
100
AcDbVertex
100
AcDb2dVertex
 10
3246.440815307217
 20
-245.0082517159939
 30
0.0
  0
VERTEX
  5
DEF8C
330
DEF4D
100
AcDbEntity
  8
AM_0
100
AcDbVertex
100
AcDb2dVertex
 10
3245.964264009778
 20
-244.9936190141202
 30
0.0
  0
VERTEX
  5
DEF8D
330
DEF4D
100
AcDbEntity
  8
AM_0
100
AcDbVertex
100
AcDb2dVertex
 10
3245.487902799471
 20
-244.9793912423611
 30
0.0
  0
VERTEX
  5
DEF8E
330
DEF4D
100
AcDbEntity
  8
AM_0
100
AcDbVertex
100
AcDb2dVertex
 10
3245.011727454914
 20
-244.9655545962808
 30
0.0
  0
VERTEX
  5
DEF8F
330
DEF4D
100
AcDbEntity
  8
AM_0
100
AcDbVertex
100
AcDb2dVertex
 10
3244.535747237652
 20
-244.952118278837
 30
0.0
  0
VERTEX
  5
DEF90
330
DEF4D
100
AcDbEntity
  8
AM_0
100
AcDbVertex
100
AcDb2dVertex
 10
3244.059962445423
 20
-244.9390730870721
 30
0.0
  0
VERTEX
  5
DEF91
330
DEF4D
100
AcDbEntity
  8
AM_0
100
AcDbVertex
100
AcDb2dVertex
 10
3243.584377895086
 20
-244.9264144195078
 30
0.0
  0
VERTEX
  5
DEF92
330
DEF4D
100
AcDbEntity
  8
AM_0
100
AcDbVertex
100
AcDb2dVertex
 10
3243.108993809943
 20
-244.9141422761439
 30
0.0
  0
VERTEX
  5
DEF93
330
DEF4D
100
AcDbEntity
  8
AM_0
100
AcDbVertex
100
AcDb2dVertex
 10
3242.633819451543
 20
-244.9022566569803
 30
0.0
  0
VERTEX
  5
DEF94
330
DEF4D
100
AcDbEntity
  8
AM_0
100
AcDbVertex
100
AcDb2dVertex
 10
3242.158855192054
 20
-244.8907529605387
 30
0.0
  0
VERTEX
  5
DEF95
330
DEF4D
100
AcDbEntity
  8
AM_0
100
AcDbVertex
100
AcDb2dVertex
 10
3241.684101254782
 20
-244.8796219838617
 30
0.0
  0
VERTEX
  5
DEF96
330
DEF4D
100
AcDbEntity
  8
AM_0
100
AcDbVertex
100
AcDb2dVertex
 10
3241.209566901272
 20
-244.868868328428
 30
0.0
  0
VERTEX
  5
DEF97
330
DEF4D
100
AcDbEntity
  8
AM_0
100
AcDbVertex
100
AcDb2dVertex
 10
3240.735256948383
 20
-244.8584873927592
 30
0.0
  0
VERTEX
  5
DEF98
330
DEF4D
100
AcDbEntity
  8
AM_0
100
AcDbVertex
100
AcDb2dVertex
 10
3240.261166951428
 20
-244.8484791768549
 30
0.0
  0
VERTEX
  5
DEF99
330
DEF4D
100
AcDbEntity
  8
AM_0
100
AcDbVertex
100
AcDb2dVertex
 10
3239.787301503963
 20
-244.8388344777582
 30
0.0
  0
VERTEX
  5
DEF9A
330
DEF4D
100
AcDbEntity
  8
AM_0
100
AcDbVertex
100
AcDb2dVertex
 10
3239.313669644231
 20
-244.829562498426
 30
0.0
  0
VERTEX
  5
DEF9B
330
DEF4D
100
AcDbEntity
  8
AM_0
100
AcDbVertex
100
AcDb2dVertex
 10
3238.840271297797
 20
-244.8206586373802
 30
0.0
  0
VERTEX
  5
DEF9C
330
DEF4D
100
AcDbEntity
  8
AM_0
100
AcDbVertex
100
AcDb2dVertex
 10
3238.367106762399
 20
-244.8121136916634
 30
0.0
  0
VERTEX
  5
DEF9D
330
DEF4D
100
AcDbEntity
  8
AM_0
100
AcDbVertex
100
AcDb2dVertex
 10
3237.894184778542
 20
-244.8039368642326
 30
0.0
  0
VERTEX
  5
DEF9E
330
DEF4D
100
AcDbEntity
  8
AM_0
100
AcDbVertex
100
AcDb2dVertex
 10
3237.421501199275
 20
-244.7961235536092
 30
0.0
  0
VERTEX
  5
DEF9F
330
DEF4D
100
AcDbEntity
  8
AM_0
100
AcDbVertex
100
AcDb2dVertex
 10
3236.949064839541
 20
-244.788669158315
 30
0.0
  0
VERTEX
  5
DEFA0
330
DEF4D
100
AcDbEntity
  8
AM_0
100
AcDbVertex
100
AcDb2dVertex
 10
3236.476875848207
 20
-244.7815736783498
 30
0.0
  0
VERTEX
  5
DEFA1
330
DEF4D
100
AcDbEntity
  8
AM_0
100
AcDbVertex
100
AcDb2dVertex
 10
3236.00493866996
 20
-244.7748371137135
 30
0.0
  0
VERTEX
  5
DEFA2
330
DEF4D
100
AcDbEntity
  8
AM_0
100
AcDbVertex
100
AcDb2dVertex
 10
3235.53325797279
 20
-244.7684594644063
 30
0.0
  0
VERTEX
  5
DEFA3
330
DEF4D
100
AcDbEntity
  8
AM_0
100
AcDbVertex
100
AcDb2dVertex
 10
3235.061829312009
 20
-244.7624361289495
 30
0.0
  0
VERTEX
  5
DEFA4
330
DEF4D
100
AcDbEntity
  8
AM_0
100
AcDbVertex
100
AcDb2dVertex
 10
3234.590666096115
 20
-244.756767107343
 30
0.0
  0
VERTEX
  5
DEFA5
330
DEF4D
100
AcDbEntity
  8
AM_0
100
AcDbVertex
100
AcDb2dVertex
 10
3234.119764029288
 20
-244.751452399587
 30
0.0
  0
VERTEX
  5
DEFA6
330
DEF4D
100
AcDbEntity
  8
AM_0
100
AcDbVertex
100
AcDb2dVertex
 10
3233.649131852033
 20
-244.7464874042028
 30
0.0
  0
VERTEX
  5
DEFA7
330
DEF4D
100
AcDbEntity
  8
AM_0
100
AcDbVertex
100
AcDb2dVertex
 10
3233.178769489916
 20
-244.7418859256262
 30
0.0
  0
VERTEX
  5
DEFA8
330
DEF4D
100
AcDbEntity
  8
AM_0
100
AcDbVertex
100
AcDb2dVertex
 10
3232.708681015453
 20
-244.7376433623783
 30
0.0
  0
VERTEX
  5
DEFA9
330
DEF4D
100
AcDbEntity
  8
AM_0
100
AcDbVertex
100
AcDb2dVertex
 10
3232.238875243582
 20
-244.7337689174166
 30
0.0
  0
VERTEX
  5
DEFAA
330
DEF4D
100
AcDbEntity
  8
AM_0
100
AcDbVertex
100
AcDb2dVertex
 10
3231.76934743188
 20
-244.7302625907412
 30
0.0
  0
VERTEX
  5
DEFAB
330
DEF4D
100
AcDbEntity
  8
AM_0
100
AcDbVertex
100
AcDb2dVertex
 10
3231.300110691103
 20
-244.7271335853089
 30
0.0
  0
VERTEX
  5
DEFAC
330
DEF4D
100
AcDbEntity
  8
AM_0
100
AcDbVertex
100
AcDb2dVertex
 10
3230.831164946819
 20
-244.7243772996415
 30
0.0
  0
VERTEX
  5
DEFAD
330
DEF4D
100
AcDbEntity
  8
AM_0
100
AcDbVertex
100
AcDb2dVertex
 10
3230.362518716228
 20
-244.7220075381745
 30
0.0
  0
VERTEX
  5
DEFAE
330
DEF4D
100
AcDbEntity
  8
AM_0
100
AcDbVertex
100
AcDb2dVertex
 10
3229.894167405774
 20
-244.720024300908
 30
0.0
  0
VERTEX
  5
DEFAF
330
DEF4D
100
AcDbEntity
  8
AM_0
100
AcDbVertex
100
AcDb2dVertex
 10
3229.426124275086
 20
-244.7184321893205
 30
0.0
  0
VERTEX
  5
DEFB0
330
DEF4D
100
AcDbEntity
  8
AM_0
100
AcDbVertex
100
AcDb2dVertex
 10
3228.95838532608
 20
-244.7172173989762
 30
0.0
  0
VERTEX
  5
DEFB1
330
DEF4D
100
AcDbEntity
  8
AM_0
100
AcDbVertex
100
AcDb2dVertex
 10
3228.490955822225
 20
-244.7163661254395
 30
0.0
  0
VERTEX
  5
DEFB2
330
DEF4D
100
AcDbEntity
  8
AM_0
100
AcDbVertex
100
AcDb2dVertex
 10
3228.023841101418
 20
-244.7158691657533
 30
0.0
  0
VERTEX
  5
DEFB3
330
DEF4D
100
AcDbEntity
  8
AM_0
100
AcDbVertex
100
AcDb2dVertex
 10
3227.557037537752
 20
-244.7157081140031
 30
0.0
  0
SEQEND
  5
DEFB4
330
DEF4D
100
AcDbEntity
  8
AM_0
  0
LWPOLYLINE
  5
DEFB5
330
1F
100
AcDbEntity
  8
AM_0
100
AcDbPolyline
 90
       45
 70
   128
 43
0.0
 10
3293.206243489446
 20
-238.1112795365818
 10
3293.15270146322
 20
-238.5901830209262
 10
3293.058661638923
 20
-239.0624925864703
 10
3292.927498668478
 20
-239.5265102876194
 10
3292.762614020799
 20
-239.9805473817356
 10
3292.567382050076
 20
-240.4229105247028
 10
3292.345165839218
 20
-240.8519293797977
 10
3292.098430600079
 20
-241.2665548099048
 10
3291.828771234783
 20
-241.6663404716022
 10
3291.537743961713
 20
-242.0508722318179
 10
3291.226922778001
 20
-242.4197451604373
 10
3290.897846272155
 20
-242.7725359214313
 10
3290.551922286198
 20
-243.1086969388492
 10
3290.189858781981
 20
-243.4271284593112
 10
3289.812224680971
 20
-243.7266018880375
 10
3289.419604684731
 20
-244.0060588849552
 10
3289.012703055533
 20
-244.2647494090564
 10
3288.592234731447
 20
-244.5018728030688
 10
3288.158724304262
 20
-244.7141850245959
 10
3287.712558834686
 20
-244.8960032475955
 10
3287.254359421163
 20
-245.0426201594837
 10
3286.786835691343
 20
-245.1587062610157
 10
3286.313811147945
 20
-245.2537544024951
 10
3285.838557374935
 20
-245.3363371385105
 10
3285.362125893502
 20
-245.4110927594669
 10
3284.885006746804
 20
-245.4816794408328
 10
3284.407521186008
 20
-245.5503104938037
 10
3283.929618065149
 20
-245.6163739217288
 10
3283.451209192076
 20
-245.6789678348071
 10
3282.972282104566
 20
-245.7376734984882
 10
3282.49286428952
 20
-245.792555333472
 10
3282.012992718686
 20
-245.843696166373
 10
3281.53271295545
 20
-245.8911926282413
 10
3281.052061822692
 20
-245.9351229442126
 10
3280.57106911478
 20
-245.97554233203
 10
3280.089772441691
 20
-246.0123495591648
 10
3279.608202645409
 20
-246.0453973783023
 10
3279.126381380807
 20
-246.0745431436068
 10
3278.644330488841
 20
-246.0996488107211
 10
3278.16208880766
 20
-246.1205809367663
 10
3277.679676492375
 20
-246.1374453557498
 10
3277.197139759672
 20
-246.1505825770861
 10
3276.714515080871
 20
-246.1603469146259
 10
3276.23182996348
 20
-246.1670926822192
 10
3275.749138731999
 20
-246.1711649907595
  0
LINE
  5
DEFB6
330
1F
100
AcDbEntity
  8
AM_0
100
AcDbLine
 10
3293.208990964606
 20
-227.1943498385913
 30
0.0
 11
3293.20578540265
 21
-227.1945707095631
 31
0.0
  0
POLYLINE
  5
DEFB7
330
1F
100
AcDbEntity
  8
AM_0
100
AcDb2dPolyline
 66
     1
 10
0.0
 20
0.0
 30
0.0
 70
   128
  0
VERTEX
  5
DEFB8
330
DEFB7
100
AcDbEntity
  8
AM_0
100
AcDbVertex
100
AcDb2dVertex
 10
3293.206243489446
 20
-238.1112795365818
 30
0.0
  0
VERTEX
  5
DEFB9
330
DEFB7
100
AcDbEntity
  8
AM_0
100
AcDbVertex
100
AcDb2dVertex
 10
3293.206575807109
 20
-238.1116200459964
 30
0.0
  0
VERTEX
  5
DEFBA
330
DEFB7
100
AcDbEntity
  8
AM_0
100
AcDbVertex
100
AcDb2dVertex
 10
3293.206898044449
 20
-238.1119651568897
 30
0.0
  0
VERTEX
  5
DEFBB
330
DEFB7
100
AcDbEntity
  8
AM_0
100
AcDbVertex
100
AcDb2dVertex
 10
3293.207201163222
 20
-238.1123056663043
 30
0.0
  0
VERTEX
  5
DEFBC
330
DEFB7
100
AcDbEntity
  8
AM_0
100
AcDbVertex
100
AcDb2dVertex
 10
3293.20749420167
 20
-238.1126507771975
 30
0.0
  0
VERTEX
  5
DEFBD
330
DEFB7
100
AcDbEntity
  8
AM_0
100
AcDbVertex
100
AcDb2dVertex
 10
3293.20776827042
 20
-238.1129958880908
 30
0.0
  0
VERTEX
  5
DEFBE
330
DEFB7
100
AcDbEntity
  8
AM_0
100
AcDbVertex
100
AcDb2dVertex
 10
3293.208032258846
 20
-238.1133456004627
 30
0.0
  0
VERTEX
  5
DEFBF
330
DEFB7
100
AcDbEntity
  8
AM_0
100
AcDbVertex
100
AcDb2dVertex
 10
3293.208277277574
 20
-238.1136953128345
 30
0.0
  0
VERTEX
  5
DEFC0
330
DEFB7
100
AcDbEntity
  8
AM_0
100
AcDbVertex
100
AcDb2dVertex
 10
3293.208503326603
 20
-238.1140450252063
 30
0.0
  0
VERTEX
  5
DEFC1
330
DEFB7
100
AcDbEntity
  8
AM_0
100
AcDbVertex
100
AcDb2dVertex
 10
3293.208719295309
 20
-238.1143947375782
 30
0.0
  0
VERTEX
  5
DEFC2
330
DEFB7
100
AcDbEntity
  8
AM_0
100
AcDbVertex
100
AcDb2dVertex
 10
3293.208916294315
 20
-238.1147490514285
 30
0.0
  0
VERTEX
  5
DEFC3
330
DEFB7
100
AcDbEntity
  8
AM_0
100
AcDbVertex
100
AcDb2dVertex
 10
3293.209094174755
 20
-238.1151033652789
 30
0.0
  0
VERTEX
  5
DEFC4
330
DEFB7
100
AcDbEntity
  8
AM_0
100
AcDbVertex
100
AcDb2dVertex
 10
3293.209262123739
 20
-238.1154576791293
 30
0.0
  0
VERTEX
  5
DEFC5
330
DEFB7
100
AcDbEntity
  8
AM_0
100
AcDbVertex
100
AcDb2dVertex
 10
3293.209419992399
 20
-238.1158165944583
 30
0.0
  0
VERTEX
  5
DEFC6
330
DEFB7
100
AcDbEntity
  8
AM_0
100
AcDbVertex
100
AcDb2dVertex
 10
3293.209558891361
 20
-238.1161755097873
 30
0.0
  0
VERTEX
  5
DEFC7
330
DEFB7
100
AcDbEntity
  8
AM_0
100
AcDbVertex
100
AcDb2dVertex
 10
3293.209678820624
 20
-238.1165390265948
 30
0.0
  0
VERTEX
  5
DEFC8
330
DEFB7
100
AcDbEntity
  8
AM_0
100
AcDbVertex
100
AcDb2dVertex
 10
3293.209779780189
 20
-238.1168979419238
 30
0.0
  0
VERTEX
  5
DEFC9
330
DEFB7
100
AcDbEntity
  8
AM_0
100
AcDbVertex
100
AcDb2dVertex
 10
3293.20987065943
 20
-238.1172660602099
 30
0.0
  0
VERTEX
  5
DEFCA
330
DEFB7
100
AcDbEntity
  8
AM_0
100
AcDbVertex
100
AcDb2dVertex
 10
3293.209951607215
 20
-238.1176295770176
 30
0.0
  0
VERTEX
  5
DEFCB
330
DEFB7
100
AcDbEntity
  8
AM_0
100
AcDbVertex
100
AcDb2dVertex
 10
3293.210013436433
 20
-238.1179976953037
 30
0.0
  0
VERTEX
  5
DEFCC
330
DEFB7
100
AcDbEntity
  8
AM_0
100
AcDbVertex
100
AcDb2dVertex
 10
3293.210056444822
 20
-238.1183658135898
 30
0.0
  0
VERTEX
  5
DEFCD
330
DEFB7
100
AcDbEntity
  8
AM_0
100
AcDbVertex
100
AcDb2dVertex
 10
3293.210080483512
 20
-238.118733931876
 30
0.0
  0
VERTEX
  5
DEFCE
330
DEFB7
100
AcDbEntity
  8
AM_0
100
AcDbVertex
100
AcDb2dVertex
 10
3293.210094441878
 20
-238.1191066516406
 30
0.0
  0
VERTEX
  5
DEFCF
330
DEFB7
100
AcDbEntity
  8
AM_0
100
AcDbVertex
100
AcDb2dVertex
 10
3293.210098468789
 20
-238.1194793714054
 30
0.0
  0
VERTEX
  5
DEFD0
330
DEFB7
100
AcDbEntity
  8
AM_0
100
AcDbVertex
100
AcDb2dVertex
 10
3293.210074487759
 20
-238.1198566926486
 30
0.0
  0
SEQEND
  5
DEFD1
330
DEFB7
100
AcDbEntity
  8
AM_0
  0
POLYLINE
  5
DEFD2
330
1F
100
AcDbEntity
  8
AM_0
100
AcDb2dPolyline
 66
     1
 10
0.0
 20
0.0
 30
0.0
 70
   128
  0
VERTEX
  5
DEFD3
330
DEFD2
100
AcDbEntity
  8
AM_0
100
AcDbVertex
100
AcDb2dVertex
 10
3171.03233911775
 20
-225.4131289852556
 30
0.0
  0
VERTEX
  5
DEFD4
330
DEFD2
100
AcDbEntity
  8
AM_0
100
AcDbVertex
100
AcDb2dVertex
 10
3171.081409430584
 20
-226.2766286505159
 30
0.0
  0
VERTEX
  5
DEFD5
330
DEFD2
100
AcDbEntity
  8
AM_0
100
AcDbVertex
100
AcDb2dVertex
 10
3171.135500842329
 20
-227.1391482008394
 30
0.0
  0
VERTEX
  5
DEFD6
330
DEFD2
100
AcDbEntity
  8
AM_0
100
AcDbVertex
100
AcDb2dVertex
 10
3171.258288899997
 20
-228.8633797419962
 30
0.0
  0
VERTEX
  5
DEFD7
330
DEFD2
100
AcDbEntity
  8
AM_0
100
AcDbVertex
100
AcDb2dVertex
 10
3171.407211823474
 20
-230.5896336329874
 30
0.0
  0
VERTEX
  5
DEFD8
330
DEFD2
100
AcDbEntity
  8
AM_0
100
AcDbVertex
100
AcDb2dVertex
 10
3171.610738108271
 20
-232.3137432349618
 30
0.0
  0
VERTEX
  5
DEFD9
330
DEFD2
100
AcDbEntity
  8
AM_0
100
AcDbVertex
100
AcDb2dVertex
 10
3171.740001378904
 20
-233.1718913806375
 30
0.0
  0
VERTEX
  5
DEFDA
330
DEFD2
100
AcDbEntity
  8
AM_0
100
AcDbVertex
100
AcDb2dVertex
 10
3171.891233760519
 20
-234.0257647527155
 30
0.0
  0
VERTEX
  5
DEFDB
330
DEFD2
100
AcDbEntity
  8
AM_0
100
AcDbVertex
100
AcDb2dVertex
 10
3172.067165698005
 20
-234.8741071475443
 30
0.0
  0
VERTEX
  5
DEFDC
330
DEFD2
100
AcDbEntity
  8
AM_0
100
AcDbVertex
100
AcDb2dVertex
 10
3172.270524302736
 20
-235.7156623614724
 30
0.0
  0
VERTEX
  5
DEFDD
330
DEFD2
100
AcDbEntity
  8
AM_0
100
AcDbVertex
100
AcDb2dVertex
 10
3172.504018042546
 20
-236.549758578628
 30
0.0
  0
VERTEX
  5
DEFDE
330
DEFD2
100
AcDbEntity
  8
AM_0
100
AcDbVertex
100
AcDb2dVertex
 10
3172.770329507187
 20
-237.3777624381478
 30
0.0
  0
VERTEX
  5
DEFDF
330
DEFD2
100
AcDbEntity
  8
AM_0
100
AcDbVertex
100
AcDb2dVertex
 10
3173.072433677372
 20
-238.1953439486917
 30
0.0
  0
VERTEX
  5
DEFE0
330
DEFD2
100
AcDbEntity
  8
AM_0
100
AcDbVertex
100
AcDb2dVertex
 10
3173.41334470331
 20
-238.9972068084176
 30
0.0
  0
VERTEX
  5
DEFE1
330
DEFD2
100
AcDbEntity
  8
AM_0
100
AcDbVertex
100
AcDb2dVertex
 10
3173.796078364749
 20
-239.7780685199197
 30
0.0
  0
VERTEX
  5
DEFE2
330
DEFD2
100
AcDbEntity
  8
AM_0
100
AcDbVertex
100
AcDb2dVertex
 10
3174.223649997505
 20
-240.5326235783991
 30
0.0
  0
VERTEX
  5
DEFE3
330
DEFD2
100
AcDbEntity
  8
AM_0
100
AcDbVertex
100
AcDb2dVertex
 10
3174.699892743313
 20
-241.2554606450495
 30
0.0
  0
VERTEX
  5
DEFE4
330
DEFD2
100
AcDbEntity
  8
AM_0
100
AcDbVertex
100
AcDb2dVertex
 10
3174.961139033417
 20
-241.6023201001581
 30
0.0
  0
VERTEX
  5
DEFE5
330
DEFD2
100
AcDbEntity
  8
AM_0
100
AcDbVertex
100
AcDb2dVertex
 10
3175.238443889925
 20
-241.9375102055963
 30
0.0
  0
VERTEX
  5
DEFE6
330
DEFD2
100
AcDbEntity
  8
AM_0
100
AcDbVertex
100
AcDb2dVertex
 10
3175.530869065927
 20
-242.2596183074412
 30
0.0
  0
VERTEX
  5
DEFE7
330
DEFD2
100
AcDbEntity
  8
AM_0
100
AcDbVertex
100
AcDb2dVertex
 10
3175.837474703583
 20
-242.567236353248
 30
0.0
  0
VERTEX
  5
DEFE8
330
DEFD2
100
AcDbEntity
  8
AM_0
100
AcDbVertex
100
AcDb2dVertex
 10
3176.157322019003
 20
-242.8589470876154
 30
0.0
  0
VERTEX
  5
DEFE9
330
DEFD2
100
AcDbEntity
  8
AM_0
100
AcDbVertex
100
AcDb2dVertex
 10
3176.48964788869
 20
-243.133655358642
 30
0.0
  0
VERTEX
  5
DEFEA
330
DEFD2
100
AcDbEntity
  8
AM_0
100
AcDbVertex
100
AcDb2dVertex
 10
3176.834523755326
 20
-243.3925851596292
 30
0.0
  0
VERTEX
  5
DEFEB
330
DEFD2
100
AcDbEntity
  8
AM_0
100
AcDbVertex
100
AcDb2dVertex
 10
3177.190762575049
 20
-243.6361368192133
 30
0.0
  0
VERTEX
  5
DEFEC
330
DEFD2
100
AcDbEntity
  8
AM_0
100
AcDbVertex
100
AcDb2dVertex
 10
3177.931619779439
 20
-244.0774600280221
 30
0.0
  0
VERTEX
  5
DEFED
330
DEFD2
100
AcDbEntity
  8
AM_0
100
AcDbVertex
100
AcDb2dVertex
 10
3178.70089483501
 20
-244.4583750260767
 30
0.0
  0
VERTEX
  5
DEFEE
330
DEFD2
100
AcDbEntity
  8
AM_0
100
AcDbVertex
100
AcDb2dVertex
 10
3179.493354676294
 20
-244.7838652146753
 30
0.0
  0
VERTEX
  5
DEFEF
330
DEFD2
100
AcDbEntity
  8
AM_0
100
AcDbVertex
100
AcDb2dVertex
 10
3180.304817179988
 20
-245.0598250878748
 30
0.0
  0
VERTEX
  5
DEFF0
330
DEFD2
100
AcDbEntity
  8
AM_0
100
AcDbVertex
100
AcDb2dVertex
 10
3181.128861786263
 20
-245.2906444562372
 30
0.0
  0
VERTEX
  5
DEFF1
330
DEFD2
100
AcDbEntity
  8
AM_0
100
AcDbVertex
100
AcDb2dVertex
 10
3181.959552190262
 20
-245.4808143628534
 30
0.0
  0
VERTEX
  5
DEFF2
330
DEFD2
100
AcDbEntity
  8
AM_0
100
AcDbVertex
100
AcDb2dVertex
 10
3182.797067267431
 20
-245.635516072601
 30
0.0
  0
VERTEX
  5
DEFF3
330
DEFD2
100
AcDbEntity
  8
AM_0
100
AcDbVertex
100
AcDb2dVertex
 10
3183.640166181474
 20
-245.7583709491192
 30
0.0
  0
VERTEX
  5
DEFF4
330
DEFD2
100
AcDbEntity
  8
AM_0
100
AcDbVertex
100
AcDb2dVertex
 10
3184.486385049367
 20
-245.8526092303694
 30
0.0
  0
SEQEND
  5
DEFF5
330
DEFD2
100
AcDbEntity
  8
AM_0
  0
POLYLINE
  5
DEFF6
330
1F
100
AcDbEntity
  8
AM_0
100
AcDb2dPolyline
 66
     1
 10
0.0
 20
0.0
 30
0.0
 70
   128
  0
VERTEX
  5
DEFF7
330
DEFF6
100
AcDbEntity
  8
AM_0
100
AcDbVertex
100
AcDb2dVertex
 10
3212.976550763438
 20
-224.470187093112
 30
0.0
  0
VERTEX
  5
DEFF8
330
DEFF6
100
AcDbEntity
  8
AM_0
100
AcDbVertex
100
AcDb2dVertex
 10
3211.758578859823
 20
-224.2978709233733
 30
0.0
  0
VERTEX
  5
DEFF9
330
DEFF6
100
AcDbEntity
  8
AM_0
100
AcDbVertex
100
AcDb2dVertex
 10
3210.552879843
 20
-224.1080484283894
 30
0.0
  0
VERTEX
  5
DEFFA
330
DEFF6
100
AcDbEntity
  8
AM_0
100
AcDbVertex
100
AcDb2dVertex
 10
3209.359662648229
 20
-223.8965667737452
 30
0.0
  0
VERTEX
  5
DEFFB
330
DEFF6
100
AcDbEntity
  8
AM_0
100
AcDbVertex
100
AcDb2dVertex
 10
3208.179143026667
 20
-223.6592777265039
 30
0.0
  0
VERTEX
  5
DEFFC
330
DEFF6
100
AcDbEntity
  8
AM_0
100
AcDbVertex
100
AcDb2dVertex
 10
3207.01153006244
 20
-223.3920284522497
 30
0.0
  0
VERTEX
  5
DEFFD
330
DEFF6
100
AcDbEntity
  8
AM_0
100
AcDbVertex
100
AcDb2dVertex
 10
3205.857037209929
 20
-223.0906707180463
 30
0.0
  0
VERTEX
  5
DEFFE
330
DEFF6
100
AcDbEntity
  8
AM_0
100
AcDbVertex
100
AcDb2dVertex
 10
3204.715875775602
 20
-222.7510516894778
 30
0.0
  0
VERTEX
  5
DEFFF
330
DEFF6
100
AcDbEntity
  8
AM_0
100
AcDbVertex
100
AcDb2dVertex
 10
3203.588256991498
 20
-222.3690208328682
 30
0.0
  0
SEQEND
  5
DF000
330
DEFF6
100
AcDbEntity
  8
AM_0
  0
POLYLINE
  5
DF001
330
1F
100
AcDbEntity
  8
AM_0
100
AcDb2dPolyline
 66
     1
 10
0.0
 20
0.0
 30
0.0
 70
   128
  0
VERTEX
  5
DF002
330
DF001
100
AcDbEntity
  8
AM_0
100
AcDbVertex
100
AcDb2dVertex
 10
3203.588205677754
 20
-222.3688045633751
 30
0.0
  0
VERTEX
  5
DF003
330
DF001
100
AcDbEntity
  8
AM_0
100
AcDbVertex
100
AcDb2dVertex
 10
3202.856664231869
 20
-222.0857699168641
 30
0.0
  0
VERTEX
  5
DF004
330
DF001
100
AcDbEntity
  8
AM_0
100
AcDbVertex
100
AcDb2dVertex
 10
3202.137986902938
 20
-221.7701107872443
 30
0.0
  0
VERTEX
  5
DF005
330
DF001
100
AcDbEntity
  8
AM_0
100
AcDbVertex
100
AcDb2dVertex
 10
3201.437317452132
 20
-221.4241233123257
 30
0.0
  0
VERTEX
  5
DF006
330
DF001
100
AcDbEntity
  8
AM_0
100
AcDbVertex
100
AcDb2dVertex
 10
3200.759793010808
 20
-221.0501059306576
 30
0.0
  0
VERTEX
  5
DF007
330
DF001
100
AcDbEntity
  8
AM_0
100
AcDbVertex
100
AcDb2dVertex
 10
3200.110556228962
 20
-220.6503593815278
 30
0.0
  0
VERTEX
  5
DF008
330
DF001
100
AcDbEntity
  8
AM_0
100
AcDbVertex
100
AcDb2dVertex
 10
3199.494745316557
 20
-220.2271821034859
 30
0.0
  0
VERTEX
  5
DF009
330
DF001
100
AcDbEntity
  8
AM_0
100
AcDbVertex
100
AcDb2dVertex
 10
3198.915020882724
 20
-219.7805856002281
 30
0.0
  0
VERTEX
  5
DF00A
330
DF001
100
AcDbEntity
  8
AM_0
100
AcDbVertex
100
AcDb2dVertex
 10
3198.370485561811
 20
-219.3087039721914
 30
0.0
  0
VERTEX
  5
DF00B
330
DF001
100
AcDbEntity
  8
AM_0
100
AcDbVertex
100
AcDb2dVertex
 10
3197.864586371205
 20
-218.8148525846904
 30
0.0
  0
VERTEX
  5
DF00C
330
DF001
100
AcDbEntity
  8
AM_0
100
AcDbVertex
100
AcDb2dVertex
 10
3197.400642091967
 20
-218.302052308411
 30
0.0
  0
VERTEX
  5
DF00D
330
DF001
100
AcDbEntity
  8
AM_0
100
AcDbVertex
100
AcDb2dVertex
 10
3196.981429763519
 20
-217.7750288618506
 30
0.0
  0
VERTEX
  5
DF00E
330
DF001
100
AcDbEntity
  8
AM_0
100
AcDbVertex
100
AcDb2dVertex
 10
3196.612880208493
 20
-217.2476672066153
 30
0.0
  0
VERTEX
  5
DF00F
330
DF001
100
AcDbEntity
  8
AM_0
100
AcDbVertex
100
AcDb2dVertex
 10
3196.449598233194
 20
-216.9885234368742
 30
0.0
  0
VERTEX
  5
DF010
330
DF001
100
AcDbEntity
  8
AM_0
100
AcDbVertex
100
AcDb2dVertex
 10
3196.301277200395
 20
-216.7350164783893
 30
0.0
  0
VERTEX
  5
DF011
330
DF001
100
AcDbEntity
  8
AM_0
100
AcDbVertex
100
AcDb2dVertex
 10
3196.168195658887
 20
-216.4899854434427
 30
0.0
  0
VERTEX
  5
DF012
330
DF001
100
AcDbEntity
  8
AM_0
100
AcDbVertex
100
AcDb2dVertex
 10
3196.050665662422
 20
-216.2565570367273
 30
0.0
  0
VERTEX
  5
DF013
330
DF001
100
AcDbEntity
  8
AM_0
100
AcDbVertex
100
AcDb2dVertex
 10
3195.948928329923
 20
-216.0377199185785
 30
0.0
  0
VERTEX
  5
DF014
330
DF001
100
AcDbEntity
  8
AM_0
100
AcDbVertex
100
AcDb2dVertex
 10
3195.862404537834
 20
-215.8355539573127
 30
0.0
  0
VERTEX
  5
DF015
330
DF001
100
AcDbEntity
  8
AM_0
100
AcDbVertex
100
AcDb2dVertex
 10
3195.791022637898
 20
-215.6539635075025
 30
0.0
  0
VERTEX
  5
DF016
330
DF001
100
AcDbEntity
  8
AM_0
100
AcDbVertex
100
AcDb2dVertex
 10
3195.756103476624
 20
-215.5588302386693
 30
0.0
  0
VERTEX
  5
DF017
330
DF001
100
AcDbEntity
  8
AM_0
100
AcDbVertex
100
AcDb2dVertex
 10
3195.739892947365
 20
-215.5131651652745
 30
0.0
  0
VERTEX
  5
DF018
330
DF001
100
AcDbEntity
  8
AM_0
100
AcDbVertex
100
AcDb2dVertex
 10
3195.732663873118
 20
-215.492398692458
 30
0.0
  0
SEQEND
  5
DF019
330
DF001
100
AcDbEntity
  8
AM_0
  0
POLYLINE
  5
DF01A
330
1F
100
AcDbEntity
  8
AM_0
100
AcDb2dPolyline
 66
     1
 10
0.0
 20
0.0
 30
0.0
 70
   128
  0
VERTEX
  5
DF01B
330
DF01A
100
AcDbEntity
  8
AM_0
100
AcDbVertex
100
AcDb2dVertex
 10
3227.557491513115
 20
-225.4157058132638
 30
0.0
  0
VERTEX
  5
DF01C
330
DF01A
100
AcDbEntity
  8
AM_0
100
AcDbVertex
100
AcDb2dVertex
 10
3225.696845919023
 20
-225.4019473923191
 30
0.0
  0
VERTEX
  5
DF01D
330
DF01A
100
AcDbEntity
  8
AM_0
100
AcDbVertex
100
AcDb2dVertex
 10
3223.850644880972
 20
-225.3578100098118
 30
0.0
  0
VERTEX
  5
DF01E
330
DF01A
100
AcDbEntity
  8
AM_0
100
AcDbVertex
100
AcDb2dVertex
 10
3222.013194469343
 20
-225.2847178233606
 30
0.0
  0
VERTEX
  5
DF01F
330
DF01A
100
AcDbEntity
  8
AM_0
100
AcDbVertex
100
AcDb2dVertex
 10
3220.184029451643
 20
-225.1822083843688
 30
0.0
  0
VERTEX
  5
DF020
330
DF01A
100
AcDbEntity
  8
AM_0
100
AcDbVertex
100
AcDb2dVertex
 10
3218.364611962387
 20
-225.0497847331502
 30
0.0
  0
VERTEX
  5
DF021
330
DF01A
100
AcDbEntity
  8
AM_0
100
AcDbVertex
100
AcDb2dVertex
 10
3216.556117599525
 20
-224.8871638787723
 30
0.0
  0
VERTEX
  5
DF022
330
DF01A
100
AcDbEntity
  8
AM_0
100
AcDbVertex
100
AcDb2dVertex
 10
3214.759717441887
 20
-224.6940628303027
 30
0.0
  0
VERTEX
  5
DF023
330
DF01A
100
AcDbEntity
  8
AM_0
100
AcDbVertex
100
AcDb2dVertex
 10
3212.976582642736
 20
-224.4701962960692
 30
0.0
  0
SEQEND
  5
DF024
330
DF01A
100
AcDbEntity
  8
AM_0
  0
POLYLINE
  5
DF025
330
1F
100
AcDbEntity
  8
AM_0
100
AcDb2dPolyline
 66
     1
 10
0.0
 20
0.0
 30
0.0
 70
   128
  0
VERTEX
  5
DF026
330
DF025
100
AcDbEntity
  8
AM_0
100
AcDbVertex
100
AcDb2dVertex
 10
3258.089710671813
 20
-221.295463670588
 30
0.0
  0
VERTEX
  5
DF027
330
DF025
100
AcDbEntity
  8
AM_0
100
AcDbVertex
100
AcDb2dVertex
 10
3257.850894118543
 20
-221.3425782097344
 30
0.0
  0
VERTEX
  5
DF028
330
DF025
100
AcDbEntity
  8
AM_0
100
AcDbVertex
100
AcDb2dVertex
 10
3257.609830199818
 20
-221.3904220832353
 30
0.0
  0
VERTEX
  5
DF029
330
DF025
100
AcDbEntity
  8
AM_0
100
AcDbVertex
100
AcDb2dVertex
 10
3257.128044179081
 20
-221.4868644727234
 30
0.0
  0
VERTEX
  5
DF02A
330
DF025
100
AcDbEntity
  8
AM_0
100
AcDbVertex
100
AcDb2dVertex
 10
3256.165906137792
 20
-221.6824756277566
 30
0.0
  0
VERTEX
  5
DF02B
330
DF025
100
AcDbEntity
  8
AM_0
100
AcDbVertex
100
AcDb2dVertex
 10
3254.245907657064
 20
-222.0824131382467
 30
0.0
  0
VERTEX
  5
DF02C
330
DF025
100
AcDbEntity
  8
AM_0
100
AcDbVertex
100
AcDb2dVertex
 10
3252.330000219398
 20
-222.4903457177641
 30
0.0
  0
VERTEX
  5
DF02D
330
DF025
100
AcDbEntity
  8
AM_0
100
AcDbVertex
100
AcDb2dVertex
 10
3250.416586667053
 20
-222.898234583235
 30
0.0
  0
VERTEX
  5
DF02E
330
DF025
100
AcDbEntity
  8
AM_0
100
AcDbVertex
100
AcDb2dVertex
 10
3248.504195244072
 20
-223.2939985526564
 30
0.0
  0
VERTEX
  5
DF02F
330
DF025
100
AcDbEntity
  8
AM_0
100
AcDbVertex
100
AcDb2dVertex
 10
3246.591346261702
 20
-223.6655173314574
 30
0.0
  0
VERTEX
  5
DF030
330
DF025
100
AcDbEntity
  8
AM_0
100
AcDbVertex
100
AcDb2dVertex
 10
3244.676570354652
 20
-224.0024007810117
 30
0.0
  0
VERTEX
  5
DF031
330
DF025
100
AcDbEntity
  8
AM_0
100
AcDbVertex
100
AcDb2dVertex
 10
3242.759818244287
 20
-224.3039425743578
 30
0.0
  0
VERTEX
  5
DF032
330
DF025
100
AcDbEntity
  8
AM_0
100
AcDbVertex
100
AcDb2dVertex
 10
3240.842711766143
 20
-224.5697239769457
 30
0.0
  0
VERTEX
  5
DF033
330
DF025
100
AcDbEntity
  8
AM_0
100
AcDbVertex
100
AcDb2dVertex
 10
3238.92694206371
 20
-224.7989765418527
 30
0.0
  0
VERTEX
  5
DF034
330
DF025
100
AcDbEntity
  8
AM_0
100
AcDbVertex
100
AcDb2dVertex
 10
3237.014208946554
 20
-224.9909387243744
 30
0.0
  0
VERTEX
  5
DF035
330
DF025
100
AcDbEntity
  8
AM_0
100
AcDbVertex
100
AcDb2dVertex
 10
3235.095661393465
 20
-225.1455299986356
 30
0.0
  0
VERTEX
  5
DF036
330
DF025
100
AcDbEntity
  8
AM_0
100
AcDbVertex
100
AcDb2dVertex
 10
3233.167060240012
 20
-225.2642343414777
 30
0.0
  0
VERTEX
  5
DF037
330
DF025
100
AcDbEntity
  8
AM_0
100
AcDbVertex
100
AcDb2dVertex
 10
3232.206297304883
 20
-225.3104653967375
 30
0.0
  0
VERTEX
  5
DF038
330
DF025
100
AcDbEntity
  8
AM_0
100
AcDbVertex
100
AcDb2dVertex
 10
3231.251882961478
 20
-225.3481238974088
 30
0.0
  0
VERTEX
  5
DF039
330
DF025
100
AcDbEntity
  8
AM_0
100
AcDbVertex
100
AcDb2dVertex
 10
3230.306805723057
 20
-225.3773455871097
 30
0.0
  0
VERTEX
  5
DF03A
330
DF025
100
AcDbEntity
  8
AM_0
100
AcDbVertex
100
AcDb2dVertex
 10
3229.374054102881
 20
-225.3982616079797
 30
0.0
  0
VERTEX
  5
DF03B
330
DF025
100
AcDbEntity
  8
AM_0
100
AcDbVertex
100
AcDb2dVertex
 10
3228.456620761163
 20
-225.4110008014191
 30
0.0
  0
VERTEX
  5
DF03C
330
DF025
100
AcDbEntity
  8
AM_0
100
AcDbVertex
100
AcDb2dVertex
 10
3227.557489617606
 20
-225.4157012117852
 30
0.0
  0
SEQEND
  5
DF03D
330
DF025
100
AcDbEntity
  8
AM_0
  0
POLYLINE
  5
DF03E
330
1F
100
AcDbEntity
  8
AM_0
100
AcDb2dPolyline
 66
     1
 10
0.0
 20
0.0
 30
0.0
 70
   128
  0
VERTEX
  5
DF03F
330
DF03E
100
AcDbEntity
  8
AM_0
100
AcDbVertex
100
AcDb2dVertex
 10
3275.750499412463
 20
-219.3408084882266
 30
0.0
  0
VERTEX
  5
DF040
330
DF03E
100
AcDbEntity
  8
AM_0
100
AcDbVertex
100
AcDb2dVertex
 10
3273.526766781313
 20
-219.3774385584362
 30
0.0
  0
VERTEX
  5
DF041
330
DF03E
100
AcDbEntity
  8
AM_0
100
AcDbVertex
100
AcDb2dVertex
 10
3271.304266064559
 20
-219.4850188268191
 30
0.0
  0
VERTEX
  5
DF042
330
DF03E
100
AcDbEntity
  8
AM_0
100
AcDbVertex
100
AcDb2dVertex
 10
3269.084692578881
 20
-219.6577491296299
 30
0.0
  0
VERTEX
  5
DF043
330
DF03E
100
AcDbEntity
  8
AM_0
100
AcDbVertex
100
AcDb2dVertex
 10
3266.869732770194
 20
-219.8898224009044
 30
0.0
  0
VERTEX
  5
DF044
330
DF03E
100
AcDbEntity
  8
AM_0
100
AcDbVertex
100
AcDb2dVertex
 10
3264.661073061152
 20
-220.1754361761577
 30
0.0
  0
VERTEX
  5
DF045
330
DF03E
100
AcDbEntity
  8
AM_0
100
AcDbVertex
100
AcDb2dVertex
 10
3262.460391050164
 20
-220.508783389426
 30
0.0
  0
VERTEX
  5
DF046
330
DF03E
100
AcDbEntity
  8
AM_0
100
AcDbVertex
100
AcDb2dVertex
 10
3260.269373124994
 20
-220.8840615762238
 30
0.0
  0
VERTEX
  5
DF047
330
DF03E
100
AcDbEntity
  8
AM_0
100
AcDbVertex
100
AcDb2dVertex
 10
3258.089714627908
 20
-221.295463670588
 30
0.0
  0
SEQEND
  5
DF048
330
DF03E
100
AcDbEntity
  8
AM_0
  0
POLYLINE
  5
DF049
330
1F
100
AcDbEntity
  8
AM_0
100
AcDb2dPolyline
 66
     1
 10
0.0
 20
0.0
 30
0.0
 70
   128
  0
VERTEX
  5
DF04A
330
DF049
100
AcDbEntity
  8
AM_0
100
AcDbVertex
100
AcDb2dVertex
 10
3184.485837560261
 20
-245.8524389756621
 30
0.0
  0
VERTEX
  5
DF04B
330
DF049
100
AcDbEntity
  8
AM_0
100
AcDbVertex
100
AcDb2dVertex
 10
3185.347206847436
 20
-245.9238769305648
 30
0.0
  0
VERTEX
  5
DF04C
330
DF049
100
AcDbEntity
  8
AM_0
100
AcDbVertex
100
AcDb2dVertex
 10
3186.204820988029
 20
-245.9729655040205
 30
0.0
  0
VERTEX
  5
DF04D
330
DF049
100
AcDbEntity
  8
AM_0
100
AcDbVertex
100
AcDb2dVertex
 10
3187.058492955513
 20
-246.0019272101821
 30
0.0
  0
VERTEX
  5
DF04E
330
DF049
100
AcDbEntity
  8
AM_0
100
AcDbVertex
100
AcDb2dVertex
 10
3187.908035450224
 20
-246.0129891646803
 30
0.0
  0
VERTEX
  5
DF04F
330
DF049
100
AcDbEntity
  8
AM_0
100
AcDbVertex
100
AcDb2dVertex
 10
3188.753261167843
 20
-246.0083738816681
 30
0.0
  0
VERTEX
  5
DF050
330
DF049
100
AcDbEntity
  8
AM_0
100
AcDbVertex
100
AcDb2dVertex
 10
3189.593982799399
 20
-245.9903038752978
 30
0.0
  0
VERTEX
  5
DF051
330
DF049
100
AcDbEntity
  8
AM_0
100
AcDbVertex
100
AcDb2dVertex
 10
3191.261165165898
 20
-245.9226943505709
 30
0.0
  0
VERTEX
  5
DF052
330
DF049
100
AcDbEntity
  8
AM_0
100
AcDbVertex
100
AcDb2dVertex
 10
3192.908085240302
 20
-245.8279591096348
 30
0.0
  0
VERTEX
  5
DF053
330
DF049
100
AcDbEntity
  8
AM_0
100
AcDbVertex
100
AcDb2dVertex
 10
3194.536850324125
 20
-245.7209977401206
 30
0.0
  0
VERTEX
  5
DF054
330
DF049
100
AcDbEntity
  8
AM_0
100
AcDbVertex
100
AcDb2dVertex
 10
3197.781928904908
 20
-245.5117455018474
 30
0.0
  0
SEQEND
  5
DF055
330
DF049
100
AcDbEntity
  8
AM_0
  0
POLYLINE
  5
DF056
330
1F
100
AcDbEntity
  8
AM_0
100
AcDb2dPolyline
 66
     1
 10
0.0
 20
0.0
 30
0.0
 70
   128
  0
VERTEX
  5
DF057
330
DF056
100
AcDbEntity
  8
AM_0
100
AcDbVertex
100
AcDb2dVertex
 10
3293.210010361269
 20
-238.1197094453342
 30
0.0
  0
VERTEX
  5
DF058
330
DF056
100
AcDbEntity
  8
AM_0
100
AcDbVertex
100
AcDb2dVertex
 10
3293.287712079413
 20
-236.7559278262622
 30
0.0
  0
VERTEX
  5
DF059
330
DF056
100
AcDbEntity
  8
AM_0
100
AcDbVertex
100
AcDb2dVertex
 10
3293.343544330233
 20
-235.3904988778598
 30
0.0
  0
VERTEX
  5
DF05A
330
DF056
100
AcDbEntity
  8
AM_0
100
AcDbVertex
100
AcDb2dVertex
 10
3293.377331584494
 20
-234.0239701760776
 30
0.0
  0
VERTEX
  5
DF05B
330
DF056
100
AcDbEntity
  8
AM_0
100
AcDbVertex
100
AcDb2dVertex
 10
3293.388880385347
 20
-232.6569077027804
 30
0.0
  0
VERTEX
  5
DF05C
330
DF056
100
AcDbEntity
  8
AM_0
100
AcDbVertex
100
AcDb2dVertex
 10
3293.378006016443
 20
-231.2898544324404
 30
0.0
  0
VERTEX
  5
DF05D
330
DF056
100
AcDbEntity
  8
AM_0
100
AcDbVertex
100
AcDb2dVertex
 10
3293.344523910306
 20
-229.9233763469226
 30
0.0
  0
VERTEX
  5
DF05E
330
DF056
100
AcDbEntity
  8
AM_0
100
AcDbVertex
100
AcDb2dVertex
 10
3293.288240610085
 20
-228.5580233229168
 30
0.0
  0
VERTEX
  5
DF05F
330
DF056
100
AcDbEntity
  8
AM_0
100
AcDbVertex
100
AcDb2dVertex
 10
3293.208971399433
 20
-227.1943498385913
 30
0.0
  0
SEQEND
  5
DF060
330
DF056
100
AcDbEntity
  8
AM_0
  0
POLYLINE
  5
DF061
330
1F
100
AcDbEntity
  8
AM_0
100
AcDb2dPolyline
 66
     1
 10
0.0
 20
0.0
 30
0.0
 70
   128
  0
VERTEX
  5
DF062
330
DF061
100
AcDbEntity
  8
AM_0
100
AcDbVertex
100
AcDb2dVertex
 10
3293.208992472369
 20
-227.1943498385913
 30
0.0
  0
VERTEX
  5
DF063
330
DF061
100
AcDbEntity
  8
AM_0
100
AcDbVertex
100
AcDb2dVertex
 10
3293.156378517837
 20
-226.683792783118
 30
0.0
  0
VERTEX
  5
DF064
330
DF061
100
AcDbEntity
  8
AM_0
100
AcDbVertex
100
AcDb2dVertex
 10
3293.067457158471
 20
-226.176525784827
 30
0.0
  0
VERTEX
  5
DF065
330
DF061
100
AcDbEntity
  8
AM_0
100
AcDbVertex
100
AcDb2dVertex
 10
3292.943342185365
 20
-225.6761748088367
 30
0.0
  0
VERTEX
  5
DF066
330
DF061
100
AcDbEntity
  8
AM_0
100
AcDbVertex
100
AcDb2dVertex
 10
3292.785120870362
 20
-225.1863612187869
 30
0.0
  0
VERTEX
  5
DF067
330
DF061
100
AcDbEntity
  8
AM_0
100
AcDbVertex
100
AcDb2dVertex
 10
3292.593864747962
 20
-224.7105591310031
 30
0.0
  0
VERTEX
  5
DF068
330
DF061
100
AcDbEntity
  8
AM_0
100
AcDbVertex
100
AcDb2dVertex
 10
3292.369854152561
 20
-224.2485729826457
 30
0.0
  0
VERTEX
  5
DF069
330
DF061
100
AcDbEntity
  8
AM_0
100
AcDbVertex
100
AcDb2dVertex
 10
3292.114607108164
 20
-223.8017141951091
 30
0.0
  0
VERTEX
  5
DF06A
330
DF061
100
AcDbEntity
  8
AM_0
100
AcDbVertex
100
AcDb2dVertex
 10
3291.830217599828
 20
-223.3727321518429
 30
0.0
  0
VERTEX
  5
DF06B
330
DF061
100
AcDbEntity
  8
AM_0
100
AcDbVertex
100
AcDb2dVertex
 10
3291.51877901714
 20
-222.9643785370357
 30
0.0
  0
VERTEX
  5
DF06C
330
DF061
100
AcDbEntity
  8
AM_0
100
AcDbVertex
100
AcDb2dVertex
 10
3291.181638550701
 20
-222.5784088147647
 30
0.0
  0
VERTEX
  5
DF06D
330
DF061
100
AcDbEntity
  8
AM_0
100
AcDbVertex
100
AcDb2dVertex
 10
3290.81897534842
 20
-222.2142224920756
 30
0.0
  0
VERTEX
  5
DF06E
330
DF061
100
AcDbEntity
  8
AM_0
100
AcDbVertex
100
AcDb2dVertex
 10
3290.433220700676
 20
-221.8734507931239
 30
0.0
  0
VERTEX
  5
DF06F
330
DF061
100
AcDbEntity
  8
AM_0
100
AcDbVertex
100
AcDb2dVertex
 10
3290.026944938219
 20
-221.5579043997295
 30
0.0
  0
VERTEX
  5
DF070
330
DF061
100
AcDbEntity
  8
AM_0
100
AcDbVertex
100
AcDb2dVertex
 10
3289.602726834575
 20
-221.2693870914943
 30
0.0
  0
VERTEX
  5
DF071
330
DF061
100
AcDbEntity
  8
AM_0
100
AcDbVertex
100
AcDb2dVertex
 10
3289.162035800083
 20
-221.0086189998157
 30
0.0
  0
VERTEX
  5
DF072
330
DF061
100
AcDbEntity
  8
AM_0
100
AcDbVertex
100
AcDb2dVertex
 10
3288.705984336447
 20
-220.7755771173008
 30
0.0
  0
SEQEND
  5
DF073
330
DF061
100
AcDbEntity
  8
AM_0
  0
POLYLINE
  5
DF074
330
1F
100
AcDbEntity
  8
AM_0
100
AcDb2dPolyline
 66
     1
 10
0.0
 20
0.0
 30
0.0
 70
   128
  0
VERTEX
  5
DF075
330
DF074
100
AcDbEntity
  8
AM_0
100
AcDbVertex
100
AcDb2dVertex
 10
3288.706148853996
 20
-220.7756530416972
 30
0.0
  0
VERTEX
  5
DF076
330
DF074
100
AcDbEntity
  8
AM_0
100
AcDbVertex
100
AcDb2dVertex
 10
3288.331262673683
 20
-220.6096639050013
 30
0.0
  0
VERTEX
  5
DF077
330
DF074
100
AcDbEntity
  8
AM_0
100
AcDbVertex
100
AcDb2dVertex
 10
3287.947986589391
 20
-220.4619909537799
 30
0.0
  0
VERTEX
  5
DF078
330
DF074
100
AcDbEntity
  8
AM_0
100
AcDbVertex
100
AcDb2dVertex
 10
3287.557777038613
 20
-220.3330460203654
 30
0.0
  0
VERTEX
  5
DF079
330
DF074
100
AcDbEntity
  8
AM_0
100
AcDbVertex
100
AcDb2dVertex
 10
3287.162072828959
 20
-220.2232501400478
 30
0.0
  0
VERTEX
  5
DF07A
330
DF074
100
AcDbEntity
  8
AM_0
100
AcDbVertex
100
AcDb2dVertex
 10
3286.762260014665
 20
-220.1330036414631
 30
0.0
  0
VERTEX
  5
DF07B
330
DF074
100
AcDbEntity
  8
AM_0
100
AcDbVertex
100
AcDb2dVertex
 10
3286.360794247203
 20
-220.0606868041522
 30
0.0
  0
VERTEX
  5
DF07C
330
DF074
100
AcDbEntity
  8
AM_0
100
AcDbVertex
100
AcDb2dVertex
 10
3285.552733361179
 20
-219.9301819695003
 30
0.0
  0
VERTEX
  5
DF07D
330
DF074
100
AcDbEntity
  8
AM_0
100
AcDbVertex
100
AcDb2dVertex
 10
3283.929934457267
 20
-219.7107052458293
 30
0.0
  0
VERTEX
  5
DF07E
330
DF074
100
AcDbEntity
  8
AM_0
100
AcDbVertex
100
AcDb2dVertex
 10
3282.300006908599
 20
-219.5447115076549
 30
0.0
  0
VERTEX
  5
DF07F
330
DF074
100
AcDbEntity
  8
AM_0
100
AcDbVertex
100
AcDb2dVertex
 10
3280.665572632913
 20
-219.4293823493487
 30
0.0
  0
VERTEX
  5
DF080
330
DF074
100
AcDbEntity
  8
AM_0
100
AcDbVertex
100
AcDb2dVertex
 10
3279.028296930825
 20
-219.3669655931956
 30
0.0
  0
VERTEX
  5
DF081
330
DF074
100
AcDbEntity
  8
AM_0
100
AcDbVertex
100
AcDb2dVertex
 10
3277.389426319876
 20
-219.344282604552
 30
0.0
  0
VERTEX
  5
DF082
330
DF074
100
AcDbEntity
  8
AM_0
100
AcDbVertex
100
AcDb2dVertex
 10
3275.75052116819
 20
-219.340771676398
 30
0.0
  0
SEQEND
  5
DF083
330
DF074
100
AcDbEntity
  8
AM_0
  0
LINE
  5
DF084
330
1F
100
AcDbEntity
  8
AM_0
100
AcDbLine
 10
3171.03233911775
 20
-225.4131289852556
 30
0.0
 11
3169.037179848422
 21
-190.1931953171799
 31
0.0
  0
LINE
  5
DF08B
330
1F
100
AcDbEntity
  8
AM_0
100
AcDbLine
 10
3195.051433860323
 20
-208.2138696087284
 30
0.0
 11
3195.873181868391
 21
-190.1932094609173
 31
0.0
  0
POLYLINE
  5
DF08C
330
1F
100
AcDbEntity
  8
AM_0
100
AcDb2dPolyline
 66
     1
 10
0.0
 20
0.0
 30
0.0
 70
   128
  0
VERTEX
  5
DF08D
330
DF08C
100
AcDbEntity
  8
AM_0
100
AcDbVertex
100
AcDb2dVertex
 10
3195.721109987467
 20
-215.4584903968267
 30
0.0
  0
VERTEX
  5
DF08E
330
DF08C
100
AcDbEntity
  8
AM_0
100
AcDbVertex
100
AcDb2dVertex
 10
3195.597260174983
 20
-215.0701578153066
 30
0.0
  0
VERTEX
  5
DF08F
330
DF08C
100
AcDbEntity
  8
AM_0
100
AcDbVertex
100
AcDb2dVertex
 10
3195.484390609089
 20
-214.6684602392603
 30
0.0
  0
VERTEX
  5
DF090
330
DF08C
100
AcDbEntity
  8
AM_0
100
AcDbVertex
100
AcDb2dVertex
 10
3195.382794643677
 20
-214.2545365346362
 30
0.0
  0
VERTEX
  5
DF091
330
DF08C
100
AcDbEntity
  8
AM_0
100
AcDbVertex
100
AcDb2dVertex
 10
3195.292767557245
 20
-213.8295163644241
 30
0.0
  0
VERTEX
  5
DF092
330
DF08C
100
AcDbEntity
  8
AM_0
100
AcDbVertex
100
AcDb2dVertex
 10
3195.214603814855
 20
-213.3945362938332
 30
0.0
  0
VERTEX
  5
DF093
330
DF08C
100
AcDbEntity
  8
AM_0
100
AcDbVertex
100
AcDb2dVertex
 10
3195.148597732699
 20
-212.9507236851142
 30
0.0
  0
VERTEX
  5
DF094
330
DF08C
100
AcDbEntity
  8
AM_0
100
AcDbVertex
100
AcDb2dVertex
 10
3195.095042664672
 20
-212.4992174042152
 30
0.0
  0
VERTEX
  5
DF095
330
DF08C
100
AcDbEntity
  8
AM_0
100
AcDbVertex
100
AcDb2dVertex
 10
3195.054159893094
 20
-212.0408112061905
 30
0.0
  0
VERTEX
  5
DF096
330
DF08C
100
AcDbEntity
  8
AM_0
100
AcDbVertex
100
AcDb2dVertex
 10
3195.025263787206
 20
-211.5751254690575
 30
0.0
  0
VERTEX
  5
DF097
330
DF08C
100
AcDbEntity
  8
AM_0
100
AcDbVertex
100
AcDb2dVertex
 10
3195.007100852147
 20
-211.1032737506316
 30
0.0
  0
VERTEX
  5
DF098
330
DF08C
100
AcDbEntity
  8
AM_0
100
AcDbVertex
100
AcDb2dVertex
 10
3194.99794415594
 20
-210.1463755739615
 30
0.0
  0
VERTEX
  5
DF099
330
DF08C
100
AcDbEntity
  8
AM_0
100
AcDbVertex
100
AcDb2dVertex
 10
3195.016631429429
 20
-209.1807115806026
 30
0.0
  0
VERTEX
  5
DF09A
330
DF08C
100
AcDbEntity
  8
AM_0
100
AcDbVertex
100
AcDb2dVertex
 10
3195.051433860323
 20
-208.2138696087284
 30
0.0
  0
SEQEND
  5
DF09B
330
DF08C
100
AcDbEntity
  8
AM_0
  0
POLYLINE
  5
DF09C
330
1F
100
AcDbEntity
  8
AM_0
100
AcDb2dPolyline
 66
     1
 10
0.0
 20
0.0
 30
0.0
 70
   128
  0
VERTEX
  5
DF09D
330
DF09C
100
AcDbEntity
  8
AM_0
100
AcDbVertex
100
AcDb2dVertex
 10
3345.665196543197
 20
-219.3437538412286
 30
0.0
  0
VERTEX
  5
DF09E
330
DF09C
100
AcDbEntity
  8
AM_0
100
AcDbVertex
100
AcDb2dVertex
 10
3345.784141776394
 20
-219.3409885901778
 30
0.0
  0
VERTEX
  5
DF09F
330
DF09C
100
AcDbEntity
  8
AM_0
100
AcDbVertex
100
AcDb2dVertex
 10
3345.903104679392
 20
-219.3419848102896
 30
0.0
  0
VERTEX
  5
DF0A0
330
DF09C
100
AcDbEntity
  8
AM_0
100
AcDbVertex
100
AcDb2dVertex
 10
3346.022144870808
 20
-219.346991218981
 30
0.0
  0
VERTEX
  5
DF0A1
330
DF09C
100
AcDbEntity
  8
AM_0
100
AcDbVertex
100
AcDb2dVertex
 10
3346.141146907017
 20
-219.3562217850058
 30
0.0
  0
VERTEX
  5
DF0A2
330
DF09C
100
AcDbEntity
  8
AM_0
100
AcDbVertex
100
AcDb2dVertex
 10
3346.259852810226
 20
-219.3698467630713
 30
0.0
  0
VERTEX
  5
DF0A3
330
DF09C
100
AcDbEntity
  8
AM_0
100
AcDbVertex
100
AcDb2dVertex
 10
3346.377999088108
 20
-219.3880249041884
 30
0.0
  0
VERTEX
  5
DF0A4
330
DF09C
100
AcDbEntity
  8
AM_0
100
AcDbVertex
100
AcDb2dVertex
 10
3346.495319727536
 20
-219.4109218615858
 30
0.0
  0
VERTEX
  5
DF0A5
330
DF09C
100
AcDbEntity
  8
AM_0
100
AcDbVertex
100
AcDb2dVertex
 10
3346.611548576488
 20
-219.4386986870139
 30
0.0
  0
VERTEX
  5
DF0A6
330
DF09C
100
AcDbEntity
  8
AM_0
100
AcDbVertex
100
AcDb2dVertex
 10
3346.726433532146
 20
-219.4714727181761
 30
0.0
  0
VERTEX
  5
DF0A7
330
DF09C
100
AcDbEntity
  8
AM_0
100
AcDbVertex
100
AcDb2dVertex
 10
3346.839774480291
 20
-219.5091887373298
 30
0.0
  0
VERTEX
  5
DF0A8
330
DF09C
100
AcDbEntity
  8
AM_0
100
AcDbVertex
100
AcDb2dVertex
 10
3346.951377932415
 20
-219.5517409104674
 30
0.0
  0
VERTEX
  5
DF0A9
330
DF09C
100
AcDbEntity
  8
AM_0
100
AcDbVertex
100
AcDb2dVertex
 10
3347.061060205405
 20
-219.5990303057997
 30
0.0
  0
VERTEX
  5
DF0AA
330
DF09C
100
AcDbEntity
  8
AM_0
100
AcDbVertex
100
AcDb2dVertex
 10
3347.168630331548
 20
-219.6509510893195
 30
0.0
  0
VERTEX
  5
DF0AB
330
DF09C
100
AcDbEntity
  8
AM_0
100
AcDbVertex
100
AcDb2dVertex
 10
3347.273899725035
 20
-219.7074066299765
 30
0.0
  0
VERTEX
  5
DF0AC
330
DF09C
100
AcDbEntity
  8
AM_0
100
AcDbVertex
100
AcDb2dVertex
 10
3347.376679800053
 20
-219.7682887930243
 30
0.0
  0
VERTEX
  5
DF0AD
330
DF09C
100
AcDbEntity
  8
AM_0
100
AcDbVertex
100
AcDb2dVertex
 10
3347.476781970792
 20
-219.8334986466734
 30
0.0
  0
VERTEX
  5
DF0AE
330
DF09C
100
AcDbEntity
  8
AM_0
100
AcDbVertex
100
AcDb2dVertex
 10
3347.574042375013
 20
-219.9028981465667
 30
0.0
  0
VERTEX
  5
DF0AF
330
DF09C
100
AcDbEntity
  8
AM_0
100
AcDbVertex
100
AcDb2dVertex
 10
3347.668406843093
 20
-219.9762204069464
 30
0.0
  0
VERTEX
  5
DF0B0
330
DF09C
100
AcDbEntity
  8
AM_0
100
AcDbVertex
100
AcDb2dVertex
 10
3347.759842158114
 20
-220.0531594294875
 30
0.0
  0
VERTEX
  5
DF0B1
330
DF09C
100
AcDbEntity
  8
AM_0
100
AcDbVertex
100
AcDb2dVertex
 10
3347.848315658747
 20
-220.133413817343
 30
0.0
  0
VERTEX
  5
DF0B2
330
DF09C
100
AcDbEntity
  8
AM_0
100
AcDbVertex
100
AcDb2dVertex
 10
3347.933797343353
 20
-220.2166798729269
 30
0.0
  0
VERTEX
  5
DF0B3
330
DF09C
100
AcDbEntity
  8
AM_0
100
AcDbVertex
100
AcDb2dVertex
 10
3348.016261217633
 20
-220.3026631016105
 30
0.0
  0
VERTEX
  5
DF0B4
330
DF09C
100
AcDbEntity
  8
AM_0
100
AcDbVertex
100
AcDb2dVertex
 10
3348.095775382178
 20
-220.3911541361182
 30
0.0
  0
VERTEX
  5
DF0B5
330
DF09C
100
AcDbEntity
  8
AM_0
100
AcDbVertex
100
AcDb2dVertex
 10
3348.172465600273
 20
-220.4820057291358
 30
0.0
  0
SEQEND
  5
DF0B6
330
DF09C
100
AcDbEntity
  8
AM_0
  0
POLYLINE
  5
DF0B7
330
1F
100
AcDbEntity
  8
AM_0
100
AcDb2dPolyline
 66
     1
 10
0.0
 20
0.0
 30
0.0
 70
   128
  0
VERTEX
  5
DF0B8
330
DF0B7
100
AcDbEntity
  8
AM_0
100
AcDbVertex
100
AcDb2dVertex
 10
3348.172445439625
 20
-220.4820218343108
 30
0.0
  0
VERTEX
  5
DF0B9
330
DF0B7
100
AcDbEntity
  8
AM_0
100
AcDbVertex
100
AcDb2dVertex
 10
3348.291735995915
 20
-220.635007192549
 30
0.0
  0
VERTEX
  5
DF0BA
330
DF0B7
100
AcDbEntity
  8
AM_0
100
AcDbVertex
100
AcDb2dVertex
 10
3348.404376873742
 20
-220.7931370038359
 30
0.0
  0
VERTEX
  5
DF0BB
330
DF0B7
100
AcDbEntity
  8
AM_0
100
AcDbVertex
100
AcDb2dVertex
 10
3348.510730202587
 20
-220.9558130759566
 30
0.0
  0
VERTEX
  5
DF0BC
330
DF0B7
100
AcDbEntity
  8
AM_0
100
AcDbVertex
100
AcDb2dVertex
 10
3348.611150771083
 20
-221.1224786300032
 30
0.0
  0
VERTEX
  5
DF0BD
330
DF0B7
100
AcDbEntity
  8
AM_0
100
AcDbVertex
100
AcDb2dVertex
 10
3348.705978367038
 20
-221.2926252025931
 30
0.0
  0
VERTEX
  5
DF0BE
330
DF0B7
100
AcDbEntity
  8
AM_0
100
AcDbVertex
100
AcDb2dVertex
 10
3348.795558535001
 20
-221.46575583404
 30
0.0
  0
VERTEX
  5
DF0BF
330
DF0B7
100
AcDbEntity
  8
AM_0
100
AcDbVertex
100
AcDb2dVertex
 10
3348.880234715414
 20
-221.6413666624396
 30
0.0
  0
VERTEX
  5
DF0C0
330
DF0B7
100
AcDbEntity
  8
AM_0
100
AcDbVertex
100
AcDb2dVertex
 10
3348.960345307123
 20
-221.8189607281058
 30
0.0
  0
VERTEX
  5
DF0C1
330
DF0B7
100
AcDbEntity
  8
AM_0
100
AcDbVertex
100
AcDb2dVertex
 10
3349.036220298271
 20
-221.998103191313
 30
0.0
  0
VERTEX
  5
DF0C2
330
DF0B7
100
AcDbEntity
  8
AM_0
100
AcDbVertex
100
AcDb2dVertex
 10
3349.108114548947
 20
-222.1786283988326
 30
0.0
  0
VERTEX
  5
DF0C3
330
DF0B7
100
AcDbEntity
  8
AM_0
100
AcDbVertex
100
AcDb2dVertex
 10
3349.176269029591
 20
-222.3604305166571
 30
0.0
  0
VERTEX
  5
DF0C4
330
DF0B7
100
AcDbEntity
  8
AM_0
100
AcDbVertex
100
AcDb2dVertex
 10
3349.240923877264
 20
-222.5434060115187
 30
0.0
  0
VERTEX
  5
DF0C5
330
DF0B7
100
AcDbEntity
  8
AM_0
100
AcDbVertex
100
AcDb2dVertex
 10
3349.302320062405
 20
-222.7274490494101
 30
0.0
  0
VERTEX
  5
DF0C6
330
DF0B7
100
AcDbEntity
  8
AM_0
100
AcDbVertex
100
AcDb2dVertex
 10
3349.360697444285
 20
-222.9124606985419
 30
0.0
  0
VERTEX
  5
DF0C7
330
DF0B7
100
AcDbEntity
  8
AM_0
100
AcDbVertex
100
AcDb2dVertex
 10
3349.416299653036
 20
-223.0983305234282
 30
0.0
  0
VERTEX
  5
DF0C8
330
DF0B7
100
AcDbEntity
  8
AM_0
100
AcDbVertex
100
AcDb2dVertex
 10
3349.46936444382
 20
-223.2849595922797
 30
0.0
  0
VERTEX
  5
DF0C9
330
DF0B7
100
AcDbEntity
  8
AM_0
100
AcDbVertex
100
AcDb2dVertex
 10
3349.520109848498
 20
-223.4722466725676
 30
0.0
  0
VERTEX
  5
DF0CA
330
DF0B7
100
AcDbEntity
  8
AM_0
100
AcDbVertex
100
AcDb2dVertex
 10
3349.568670561053
 20
-223.6601273435919
 30
0.0
  0
VERTEX
  5
DF0CB
330
DF0B7
100
AcDbEntity
  8
AM_0
100
AcDbVertex
100
AcDb2dVertex
 10
3349.615161670403
 20
-223.8485417861312
 30
0.0
  0
VERTEX
  5
DF0CC
330
DF0B7
100
AcDbEntity
  8
AM_0
100
AcDbVertex
100
AcDb2dVertex
 10
3349.659693661222
 20
-224.0374278802245
 30
0.0
  0
VERTEX
  5
DF0CD
330
DF0B7
100
AcDbEntity
  8
AM_0
100
AcDbVertex
100
AcDb2dVertex
 10
3349.702379240528
 20
-224.2267281073897
 30
0.0
  0
VERTEX
  5
DF0CE
330
DF0B7
100
AcDbEntity
  8
AM_0
100
AcDbVertex
100
AcDb2dVertex
 10
3349.743325323006
 20
-224.4163826484053
 30
0.0
  0
VERTEX
  5
DF0CF
330
DF0B7
100
AcDbEntity
  8
AM_0
100
AcDbVertex
100
AcDb2dVertex
 10
3349.782529207646
 20
-224.6063776988356
 30
0.0
  0
VERTEX
  5
DF0D0
330
DF0B7
100
AcDbEntity
  8
AM_0
100
AcDbVertex
100
AcDb2dVertex
 10
3349.819930731614
 20
-224.7967201608985
 30
0.0
  0
SEQEND
  5
DF0D1
330
DF0B7
100
AcDbEntity
  8
AM_0
  0
POLYLINE
  5
DF0D2
330
1F
100
AcDbEntity
  8
AM_0
100
AcDb2dPolyline
 66
     1
 10
0.0
 20
0.0
 30
0.0
  0
VERTEX
  5
DF0D3
330
DF0D2
100
AcDbEntity
  8
AM_0
100
AcDbVertex
100
AcDb2dVertex
 10
3353.885483936068
 20
-244.7265292837784
 30
0.0
  0
VERTEX
  5
DF0D4
330
DF0D2
100
AcDbEntity
  8
AM_0
100
AcDbVertex
100
AcDb2dVertex
 10
3353.768113744796
 20
-244.7244492668639
 30
0.0
  0
VERTEX
  5
DF0D5
330
DF0D2
100
AcDbEntity
  8
AM_0
100
AcDbVertex
100
AcDb2dVertex
 10
3353.619493335763
 20
-244.7221577305325
 30
0.0
  0
VERTEX
  5
DF0D6
330
DF0D2
100
AcDbEntity
  8
AM_0
100
AcDbVertex
100
AcDb2dVertex
 10
3353.474541641093
 20
-244.7202573198801
 30
0.0
  0
VERTEX
  5
DF0D7
330
DF0D2
100
AcDbEntity
  8
AM_0
100
AcDbVertex
100
AcDb2dVertex
 10
3353.33339168514
 20
-244.7187388319498
 30
0.0
  0
VERTEX
  5
DF0D8
330
DF0D2
100
AcDbEntity
  8
AM_0
100
AcDbVertex
100
AcDb2dVertex
 10
3353.196177405426
 20
-244.7175884623054
 30
0.0
  0
VERTEX
  5
DF0D9
330
DF0D2
100
AcDbEntity
  8
AM_0
100
AcDbVertex
100
AcDb2dVertex
 10
3353.062974680742
 20
-244.7167832035543
 30
0.0
  0
VERTEX
  5
DF0DA
330
DF0D2
100
AcDbEntity
  8
AM_0
100
AcDbVertex
100
AcDb2dVertex
 10
3352.933740654061
 20
-244.7162678379537
 30
0.0
  0
VERTEX
  5
DF0DB
330
DF0D2
100
AcDbEntity
  8
AM_0
100
AcDbVertex
100
AcDb2dVertex
 10
3352.808418658488
 20
-244.7159917492389
 30
0.0
  0
VERTEX
  5
DF0DC
330
DF0D2
100
AcDbEntity
  8
AM_0
100
AcDbVertex
100
AcDb2dVertex
 10
3352.686952662492
 20
-244.7158951181888
 30
0.0
  0
VERTEX
  5
DF0DD
330
DF0D2
100
AcDbEntity
  8
AM_0
100
AcDbVertex
100
AcDb2dVertex
 10
3352.569218533952
 20
-244.7159089226243
 30
0.0
  0
VERTEX
  5
DF0DE
330
DF0D2
100
AcDbEntity
  8
AM_0
100
AcDbVertex
100
AcDb2dVertex
 10
3352.454907606456
 20
-244.7159181255814
 30
0.0
  0
VERTEX
  5
DF0DF
330
DF0D2
100
AcDbEntity
  8
AM_0
100
AcDbVertex
100
AcDb2dVertex
 10
3352.343774313912
 20
-244.715844501924
 30
0.0
  0
VERTEX
  5
DF0E0
330
DF0D2
100
AcDbEntity
  8
AM_0
100
AcDbVertex
100
AcDb2dVertex
 10
3352.235887318225
 20
-244.7157064575665
 30
0.0
  0
SEQEND
  5
DF0E1
330
DF0D2
100
AcDbEntity
  8
AM_0
  0
ELLIPSE
  5
DF0E2
330
1F
100
AcDbEntity
  8
AM_0
100
AcDbEllipse
 10
3292.958518119868
 20
-235.7639891719286
 30
0.0
 11
0.0000785471757977
 21
-57.91156072459668
 31
0.0
210
0.0
220
0.0
230
1.0
 40
0.9999584173418561
 41
1.538110447757674
 42
1.623475816408064
  0
ELLIPSE
  5
DF0E3
330
1F
100
AcDbEntity
  8
AM_0
100
AcDbEllipse
 10
3292.953732973801
 20
-235.7627360811157
 30
0.0
 11
-0.0014681991328099
 21
-57.9163859186122
 31
0.0
210
0.0
220
0.0
230
1.0
 40
0.9999583921180617
 41
1.463766955667049
 42
1.538118229556723
  0
ELLIPSE
  5
DF0E4
330
1F
100
AcDbEntity
  8
AM_0
100
AcDbEllipse
 10
3292.940568457522
 20
-235.7674853417292
 30
0.0
 11
-0.0002743648162861
 21
-57.92966998296577
 31
0.0
210
0.0
220
0.0
230
0.9999999999999998
 40
0.9999584242198395
 41
1.62352586083351
 42
1.761331323537719
  0
ELLIPSE
  5
DF0E5
330
1F
100
AcDbEntity
  8
AM_0
100
AcDbEllipse
 10
3438.179177515047
 20
-230.1924263585724
 30
0.0
 11
0.0003842164708142
 21
-96.53604815703305
 31
0.0
210
0.0
220
0.0
230
1.0
 40
0.9999584139738198
 41
4.697398082748108
 42
4.818405895912017
  0
LINE
  5
DF0E6
330
1F
100
AcDbEntity
  8
AM_0
100
AcDbLine
 10
3352.235182911016
 20
-244.7157064575665
 30
0.0
 11
3352.235887318225
 21
-244.7157064575665
 31
0.0
  0
POLYLINE
  5
DF0E7
330
1F
100
AcDbEntity
  8
AM_0
100
AcDb2dPolyline
 66
     1
 10
0.0
 20
0.0
 30
0.0
 70
   128
  0
VERTEX
  5
DF0E8
330
DF0E7
100
AcDbEntity
  8
AM_0
100
AcDbVertex
100
AcDb2dVertex
 10
3343.405914815599
 20
-244.9091756243078
 30
0.0
  0
VERTEX
  5
DF0E9
330
DF0E7
100
AcDbEntity
  8
AM_0
100
AcDbVertex
100
AcDb2dVertex
 10
3343.46843527233
 20
-245.003183831629
 30
0.0
  0
VERTEX
  5
DF0EA
330
DF0E7
100
AcDbEntity
  8
AM_0
100
AcDbVertex
100
AcDb2dVertex
 10
3343.533732936849
 20
-245.0953698534338
 30
0.0
  0
VERTEX
  5
DF0EB
330
DF0E7
100
AcDbEntity
  8
AM_0
100
AcDbVertex
100
AcDb2dVertex
 10
3343.601954893049
 20
-245.1856002468436
 30
0.0
  0
VERTEX
  5
DF0EC
330
DF0E7
100
AcDbEntity
  8
AM_0
100
AcDbVertex
100
AcDb2dVertex
 10
3343.673220931668
 20
-245.2736771482794
 30
0.0
  0
VERTEX
  5
DF0ED
330
DF0E7
100
AcDbEntity
  8
AM_0
100
AcDbVertex
100
AcDb2dVertex
 10
3343.747608098058
 20
-245.3592738527624
 30
0.0
  0
VERTEX
  5
DF0EE
330
DF0E7
100
AcDbEntity
  8
AM_0
100
AcDbVertex
100
AcDb2dVertex
 10
3343.825184993008
 20
-245.4420590538352
 30
0.0
  0
VERTEX
  5
DF0EF
330
DF0E7
100
AcDbEntity
  8
AM_0
100
AcDbVertex
100
AcDb2dVertex
 10
3343.906024911663
 20
-245.5216968435614
 30
0.0
  0
VERTEX
  5
DF0F0
330
DF0E7
100
AcDbEntity
  8
AM_0
100
AcDbVertex
100
AcDb2dVertex
 10
3343.990196454817
 20
-245.5978651184409
 30
0.0
  0
VERTEX
  5
DF0F1
330
DF0E7
100
AcDbEntity
  8
AM_0
100
AcDbVertex
100
AcDb2dVertex
 10
3344.077734700424
 20
-245.6702463764518
 30
0.0
  0
VERTEX
  5
DF0F2
330
DF0E7
100
AcDbEntity
  8
AM_0
100
AcDbVertex
100
AcDb2dVertex
 10
3344.168510947713
 20
-245.7385783333152
 30
0.0
  0
VERTEX
  5
DF0F3
330
DF0E7
100
AcDbEntity
  8
AM_0
100
AcDbVertex
100
AcDb2dVertex
 10
3344.262355214317
 20
-245.8026355165809
 30
0.0
  0
VERTEX
  5
DF0F4
330
DF0E7
100
AcDbEntity
  8
AM_0
100
AcDbVertex
100
AcDb2dVertex
 10
3344.359099917134
 20
-245.8621786493628
 30
0.0
  0
VERTEX
  5
DF0F5
330
DF0E7
100
AcDbEntity
  8
AM_0
100
AcDbVertex
100
AcDb2dVertex
 10
3344.458575082481
 20
-245.9169684547751
 30
0.0
  0
VERTEX
  5
DF0F6
330
DF0E7
100
AcDbEntity
  8
AM_0
100
AcDbVertex
100
AcDb2dVertex
 10
3344.560613135934
 20
-245.9667794603674
 30
0.0
  0
VERTEX
  5
DF0F7
330
DF0E7
100
AcDbEntity
  8
AM_0
100
AcDbVertex
100
AcDb2dVertex
 10
3344.665046442306
 20
-246.0113631862967
 30
0.0
  0
VERTEX
  5
DF0F8
330
DF0E7
100
AcDbEntity
  8
AM_0
100
AcDbVertex
100
AcDb2dVertex
 10
3344.771702724141
 20
-246.0504941601126
 30
0.0
  0
VERTEX
  5
DF0F9
330
DF0E7
100
AcDbEntity
  8
AM_0
100
AcDbVertex
100
AcDb2dVertex
 10
3344.880377439897
 20
-246.0839975256293
 30
0.0
  0
VERTEX
  5
DF0FA
330
DF0E7
100
AcDbEntity
  8
AM_0
100
AcDbVertex
100
AcDb2dVertex
 10
3344.99071449549
 20
-246.1119423050253
 30
0.0
  0
VERTEX
  5
DF0FB
330
DF0E7
100
AcDbEntity
  8
AM_0
100
AcDbVertex
100
AcDb2dVertex
 10
3345.102322343513
 20
-246.1344757456152
 30
0.0
  0
VERTEX
  5
DF0FC
330
DF0E7
100
AcDbEntity
  8
AM_0
100
AcDbVertex
100
AcDb2dVertex
 10
3345.214804811656
 20
-246.1517266887991
 30
0.0
  0
VERTEX
  5
DF0FD
330
DF0E7
100
AcDbEntity
  8
AM_0
100
AcDbVertex
100
AcDb2dVertex
 10
3345.327770352512
 20
-246.1638469833701
 30
0.0
  0
VERTEX
  5
DF0FE
330
DF0E7
100
AcDbEntity
  8
AM_0
100
AcDbVertex
100
AcDb2dVertex
 10
3345.440840940419
 20
-246.1709746736853
 30
0.0
  0
VERTEX
  5
DF0FF
330
DF0E7
100
AcDbEntity
  8
AM_0
100
AcDbVertex
100
AcDb2dVertex
 10
3345.553838545699
 20
-246.173326029238
 30
0.0
  0
VERTEX
  5
DF100
330
DF0E7
100
AcDbEntity
  8
AM_0
100
AcDbVertex
100
AcDb2dVertex
 10
3345.666719644968
 20
-246.171163334307
 30
0.0
  0
SEQEND
  5
DF101
330
DF0E7
100
AcDbEntity
  8
AM_0
  0
POLYLINE
  5
DF102
330
1F
100
AcDbEntity
  8
AM_0
100
AcDb2dPolyline
 66
     1
 10
0.0
 20
0.0
 30
0.0
 70
   128
  0
VERTEX
  5
DF103
330
DF102
100
AcDbEntity
  8
AM_0
100
AcDbVertex
100
AcDb2dVertex
 10
3350.536158038655
 20
-241.9511243242591
 30
0.0
  0
VERTEX
  5
DF104
330
DF102
100
AcDbEntity
  8
AM_0
100
AcDbVertex
100
AcDb2dVertex
 10
3350.498550705714
 20
-242.2479380983679
 30
0.0
  0
VERTEX
  5
DF105
330
DF102
100
AcDbEntity
  8
AM_0
100
AcDbVertex
100
AcDb2dVertex
 10
3350.4488833201
 20
-242.5432011741965
 30
0.0
  0
VERTEX
  5
DF106
330
DF102
100
AcDbEntity
  8
AM_0
100
AcDbVertex
100
AcDb2dVertex
 10
3350.385905229372
 20
-242.8360852856009
 30
0.0
  0
VERTEX
  5
DF107
330
DF102
100
AcDbEntity
  8
AM_0
100
AcDbVertex
100
AcDb2dVertex
 10
3350.308339828103
 20
-243.1255919117301
 30
0.0
  0
VERTEX
  5
DF108
330
DF102
100
AcDbEntity
  8
AM_0
100
AcDbVertex
100
AcDb2dVertex
 10
3350.214884079227
 20
-243.4103774208395
 30
0.0
  0
VERTEX
  5
DF109
330
DF102
100
AcDbEntity
  8
AM_0
100
AcDbVertex
100
AcDb2dVertex
 10
3350.104220659993
 20
-243.6888082880347
 30
0.0
  0
VERTEX
  5
DF10A
330
DF102
100
AcDbEntity
  8
AM_0
100
AcDbVertex
100
AcDb2dVertex
 10
3349.975027483852
 20
-243.9592417854636
 30
0.0
  0
VERTEX
  5
DF10B
330
DF102
100
AcDbEntity
  8
AM_0
100
AcDbVertex
100
AcDb2dVertex
 10
3349.82634273183
 20
-244.2198511261313
 30
0.0
  0
VERTEX
  5
DF10C
330
DF102
100
AcDbEntity
  8
AM_0
100
AcDbVertex
100
AcDb2dVertex
 10
3349.658136083176
 20
-244.4683539766638
 30
0.0
  0
VERTEX
  5
DF10D
330
DF102
100
AcDbEntity
  8
AM_0
100
AcDbVertex
100
AcDb2dVertex
 10
3349.470536676012
 20
-244.7023805755942
 30
0.0
  0
VERTEX
  5
DF10E
330
DF102
100
AcDbEntity
  8
AM_0
100
AcDbVertex
100
AcDb2dVertex
 10
3349.263794092359
 20
-244.919653191027
 30
0.0
  0
VERTEX
  5
DF10F
330
DF102
100
AcDbEntity
  8
AM_0
100
AcDbVertex
100
AcDb2dVertex
 10
3349.039376579172
 20
-245.1188511986106
 30
0.0
  0
VERTEX
  5
DF110
330
DF102
100
AcDbEntity
  8
AM_0
100
AcDbVertex
100
AcDb2dVertex
 10
3348.799448549691
 20
-245.299192346987
 30
0.0
  0
VERTEX
  5
DF111
330
DF102
100
AcDbEntity
  8
AM_0
100
AcDbVertex
100
AcDb2dVertex
 10
3348.546178980079
 20
-245.4599035877554
 30
0.0
  0
VERTEX
  5
DF112
330
DF102
100
AcDbEntity
  8
AM_0
100
AcDbVertex
100
AcDb2dVertex
 10
3348.28167636455
 20
-245.60087448543
 30
0.0
  0
VERTEX
  5
DF113
330
DF102
100
AcDbEntity
  8
AM_0
100
AcDbVertex
100
AcDb2dVertex
 10
3348.007956970068
 20
-245.7231173652976
 30
0.0
  0
VERTEX
  5
DF114
330
DF102
100
AcDbEntity
  8
AM_0
100
AcDbVertex
100
AcDb2dVertex
 10
3347.727023966005
 20
-245.8277503866522
 30
0.0
  0
VERTEX
  5
DF115
330
DF102
100
AcDbEntity
  8
AM_0
100
AcDbVertex
100
AcDb2dVertex
 10
3347.440767974271
 20
-245.9159377235739
 30
0.0
  0
VERTEX
  5
DF116
330
DF102
100
AcDbEntity
  8
AM_0
100
AcDbVertex
100
AcDb2dVertex
 10
3347.150385117251
 20
-245.9889585871069
 30
0.0
  0
VERTEX
  5
DF117
330
DF102
100
AcDbEntity
  8
AM_0
100
AcDbVertex
100
AcDb2dVertex
 10
3346.856821421045
 20
-246.0481474060385
 30
0.0
  0
VERTEX
  5
DF118
330
DF102
100
AcDbEntity
  8
AM_0
100
AcDbVertex
100
AcDb2dVertex
 10
3346.561011758711
 20
-246.0948386091559
 30
0.0
  0
VERTEX
  5
DF119
330
DF102
100
AcDbEntity
  8
AM_0
100
AcDbVertex
100
AcDb2dVertex
 10
3346.263714799946
 20
-246.130228580889
 30
0.0
  0
VERTEX
  5
DF11A
330
DF102
100
AcDbEntity
  8
AM_0
100
AcDbVertex
100
AcDb2dVertex
 10
3345.965472946914
 20
-246.1553434509604
 30
0.0
  0
VERTEX
  5
DF11B
330
DF102
100
AcDbEntity
  8
AM_0
100
AcDbVertex
100
AcDb2dVertex
 10
3345.666719644968
 20
-246.171163334307
 30
0.0
  0
SEQEND
  5
DF11C
330
DF102
100
AcDbEntity
  8
AM_0
  0
POLYLINE
  5
DF11D
330
1F
100
AcDbEntity
  8
AM_0
100
AcDb2dPolyline
 66
     1
 10
0.0
 20
0.0
 30
0.0
 70
   128
  0
VERTEX
  5
DF11E
330
DF11D
100
AcDbEntity
  8
AM_0
100
AcDbVertex
100
AcDb2dVertex
 10
3342.199353926547
 20
-240.5568487066594
 30
0.0
  0
VERTEX
  5
DF11F
330
DF11D
100
AcDbEntity
  8
AM_0
100
AcDbVertex
100
AcDb2dVertex
 10
3342.199470588962
 20
-240.557939257082
 30
0.0
  0
VERTEX
  5
DF120
330
DF11D
100
AcDbEntity
  8
AM_0
100
AcDbVertex
100
AcDb2dVertex
 10
3342.199587806964
 20
-240.5590298075046
 30
0.0
  0
VERTEX
  5
DF121
330
DF11D
100
AcDbEntity
  8
AM_0
100
AcDbVertex
100
AcDb2dVertex
 10
3342.199707962451
 20
-240.5601249594059
 30
0.0
  0
VERTEX
  5
DF122
330
DF11D
100
AcDbEntity
  8
AM_0
100
AcDbVertex
100
AcDb2dVertex
 10
3342.19982643052
 20
-240.5612155098286
 30
0.0
  0
VERTEX
  5
DF123
330
DF11D
100
AcDbEntity
  8
AM_0
100
AcDbVertex
100
AcDb2dVertex
 10
3342.19994769718
 20
-240.5623060602513
 30
0.0
  0
VERTEX
  5
DF124
330
DF11D
100
AcDbEntity
  8
AM_0
100
AcDbVertex
100
AcDb2dVertex
 10
3342.200067276421
 20
-240.5633966106739
 30
0.0
  0
VERTEX
  5
DF125
330
DF11D
100
AcDbEntity
  8
AM_0
100
AcDbVertex
100
AcDb2dVertex
 10
3342.200187272351
 20
-240.5644871610966
 30
0.0
  0
VERTEX
  5
DF126
330
DF11D
100
AcDbEntity
  8
AM_0
100
AcDbVertex
100
AcDb2dVertex
 10
3342.200310344665
 20
-240.5655777115192
 30
0.0
  0
VERTEX
  5
DF127
330
DF11D
100
AcDbEntity
  8
AM_0
100
AcDbVertex
100
AcDb2dVertex
 10
3342.200431590663
 20
-240.5666728634205
 30
0.0
  0
VERTEX
  5
DF128
330
DF11D
100
AcDbEntity
  8
AM_0
100
AcDbVertex
100
AcDb2dVertex
 10
3342.200555774148
 20
-240.5677634138432
 30
0.0
  0
VERTEX
  5
DF129
330
DF11D
100
AcDbEntity
  8
AM_0
100
AcDbVertex
100
AcDb2dVertex
 10
3342.200678131319
 20
-240.5688539642658
 30
0.0
  0
VERTEX
  5
DF12A
330
DF11D
100
AcDbEntity
  8
AM_0
100
AcDbVertex
100
AcDb2dVertex
 10
3342.200803425976
 20
-240.5699445146885
 30
0.0
  0
VERTEX
  5
DF12B
330
DF11D
100
AcDbEntity
  8
AM_0
100
AcDbVertex
100
AcDb2dVertex
 10
3342.200927033214
 20
-240.5710350651112
 30
0.0
  0
VERTEX
  5
DF12C
330
DF11D
100
AcDbEntity
  8
AM_0
100
AcDbVertex
100
AcDb2dVertex
 10
3342.201053439043
 20
-240.5721256155339
 30
0.0
  0
VERTEX
  5
DF12D
330
DF11D
100
AcDbEntity
  8
AM_0
100
AcDbVertex
100
AcDb2dVertex
 10
3342.201180539354
 20
-240.5732161659565
 30
0.0
  0
VERTEX
  5
DF12E
330
DF11D
100
AcDbEntity
  8
AM_0
100
AcDbVertex
100
AcDb2dVertex
 10
3342.20130581335
 20
-240.5743021149006
 30
0.0
  0
VERTEX
  5
DF12F
330
DF11D
100
AcDbEntity
  8
AM_0
100
AcDbVertex
100
AcDb2dVertex
 10
3342.201433885936
 20
-240.5753926653233
 30
0.0
  0
VERTEX
  5
DF130
330
DF11D
100
AcDbEntity
  8
AM_0
100
AcDbVertex
100
AcDb2dVertex
 10
3342.201562653005
 20
-240.5764832157459
 30
0.0
  0
VERTEX
  5
DF131
330
DF11D
100
AcDbEntity
  8
AM_0
100
AcDbVertex
100
AcDb2dVertex
 10
3342.201689593759
 20
-240.5775737661686
 30
0.0
  0
VERTEX
  5
DF132
330
DF11D
100
AcDbEntity
  8
AM_0
100
AcDbVertex
100
AcDb2dVertex
 10
3342.201819471999
 20
-240.5786643165913
 30
0.0
  0
VERTEX
  5
DF133
330
DF11D
100
AcDbEntity
  8
AM_0
100
AcDbVertex
100
AcDb2dVertex
 10
3342.201950044722
 20
-240.579754867014
 30
0.0
  0
VERTEX
  5
DF134
330
DF11D
100
AcDbEntity
  8
AM_0
100
AcDbVertex
100
AcDb2dVertex
 10
3342.202078652234
 20
-240.580840815958
 30
0.0
  0
VERTEX
  5
DF135
330
DF11D
100
AcDbEntity
  8
AM_0
100
AcDbVertex
100
AcDb2dVertex
 10
3342.202210336128
 20
-240.5819313663807
 30
0.0
  0
VERTEX
  5
DF136
330
DF11D
100
AcDbEntity
  8
AM_0
100
AcDbVertex
100
AcDb2dVertex
 10
3342.202342436712
 20
-240.5830219168034
 30
0.0
  0
SEQEND
  5
DF137
330
DF11D
100
AcDbEntity
  8
AM_0
  0
POLYLINE
  5
DF138
330
1F
100
AcDbEntity
  8
AM_0
100
AcDb2dPolyline
 66
     1
 10
0.0
 20
0.0
 30
0.0
 70
   128
  0
VERTEX
  5
DF139
330
DF138
100
AcDbEntity
  8
AM_0
100
AcDbVertex
100
AcDb2dVertex
 10
3379.286396249713
 20
-225.4155615110049
 30
0.0
  0
VERTEX
  5
DF13A
330
DF138
100
AcDbEntity
  8
AM_0
100
AcDbVertex
100
AcDb2dVertex
 10
3379.143157836485
 20
-226.8840911883959
 30
0.0
  0
VERTEX
  5
DF13B
330
DF138
100
AcDbEntity
  8
AM_0
100
AcDbVertex
100
AcDb2dVertex
 10
3378.971269994333
 20
-228.3510724682459
 30
0.0
  0
VERTEX
  5
DF13C
330
DF138
100
AcDbEntity
  8
AM_0
100
AcDbVertex
100
AcDb2dVertex
 10
3378.770824629192
 20
-229.8149592537531
 30
0.0
  0
VERTEX
  5
DF13D
330
DF138
100
AcDbEntity
  8
AM_0
100
AcDbVertex
100
AcDb2dVertex
 10
3378.541912908003
 20
-231.2742031473765
 30
0.0
  0
VERTEX
  5
DF13E
330
DF138
100
AcDbEntity
  8
AM_0
100
AcDbVertex
100
AcDb2dVertex
 10
3378.284563164387
 20
-232.7272948641429
 30
0.0
  0
VERTEX
  5
DF13F
330
DF138
100
AcDbEntity
  8
AM_0
100
AcDbVertex
100
AcDb2dVertex
 10
3377.987879521241
 20
-234.1758633274684
 30
0.0
  0
VERTEX
  5
DF140
330
DF138
100
AcDbEntity
  8
AM_0
100
AcDbVertex
100
AcDb2dVertex
 10
3377.637260634809
 20
-235.6148791212687
 30
0.0
  0
VERTEX
  5
DF141
330
DF138
100
AcDbEntity
  8
AM_0
100
AcDbVertex
100
AcDb2dVertex
 10
3377.438790055857
 20
-236.327836813415
 30
0.0
  0
VERTEX
  5
DF142
330
DF138
100
AcDbEntity
  8
AM_0
100
AcDbVertex
100
AcDb2dVertex
 10
3377.22331227374
 20
-237.0348355908046
 30
0.0
  0
VERTEX
  5
DF143
330
DF138
100
AcDbEntity
  8
AM_0
100
AcDbVertex
100
AcDb2dVertex
 10
3376.989653065365
 20
-237.7346928734431
 30
0.0
  0
VERTEX
  5
DF144
330
DF138
100
AcDbEntity
  8
AM_0
100
AcDbVertex
100
AcDb2dVertex
 10
3376.736632657126
 20
-238.426230682815
 30
0.0
  0
VERTEX
  5
DF145
330
DF138
100
AcDbEntity
  8
AM_0
100
AcDbVertex
100
AcDb2dVertex
 10
3376.46186303172
 20
-239.1100334066996
 30
0.0
  0
VERTEX
  5
DF146
330
DF138
100
AcDbEntity
  8
AM_0
100
AcDbVertex
100
AcDb2dVertex
 10
3376.163609567157
 20
-239.7839521546015
 30
0.0
  0
VERTEX
  5
DF147
330
DF138
100
AcDbEntity
  8
AM_0
100
AcDbVertex
100
AcDb2dVertex
 10
3375.841225398402
 20
-240.4435096878657
 30
0.0
  0
VERTEX
  5
DF148
330
DF138
100
AcDbEntity
  8
AM_0
100
AcDbVertex
100
AcDb2dVertex
 10
3375.494062623678
 20
-241.084228767837
 30
0.0
  0
VERTEX
  5
DF149
330
DF138
100
AcDbEntity
  8
AM_0
100
AcDbVertex
100
AcDb2dVertex
 10
3375.12147498936
 20
-241.7016321558604
 30
0.0
  0
VERTEX
  5
DF14A
330
DF138
100
AcDbEntity
  8
AM_0
100
AcDbVertex
100
AcDb2dVertex
 10
3374.722749594513
 20
-242.2913346428521
 30
0.0
  0
VERTEX
  5
DF14B
330
DF138
100
AcDbEntity
  8
AM_0
100
AcDbVertex
100
AcDb2dVertex
 10
3374.296710606945
 20
-242.850188817466
 30
0.0
  0
VERTEX
  5
DF14C
330
DF138
100
AcDbEntity
  8
AM_0
100
AcDbVertex
100
AcDb2dVertex
 10
3373.845105814313
 20
-243.372562469924
 30
0.0
  0
VERTEX
  5
DF14D
330
DF138
100
AcDbEntity
  8
AM_0
100
AcDbVertex
100
AcDb2dVertex
 10
3373.370857708873
 20
-243.8517880577688
 30
0.0
  0
VERTEX
  5
DF14E
330
DF138
100
AcDbEntity
  8
AM_0
100
AcDbVertex
100
AcDb2dVertex
 10
3372.879941080637
 20
-244.2820769209509
 30
0.0
  0
VERTEX
  5
DF14F
330
DF138
100
AcDbEntity
  8
AM_0
100
AcDbVertex
100
AcDb2dVertex
 10
3372.369737710029
 20
-244.6640042442921
 30
0.0
  0
VERTEX
  5
DF150
330
DF138
100
AcDbEntity
  8
AM_0
100
AcDbVertex
100
AcDb2dVertex
 10
3371.834935002559
 20
-244.9993968147874
 30
0.0
  0
VERTEX
  5
DF151
330
DF138
100
AcDbEntity
  8
AM_0
100
AcDbVertex
100
AcDb2dVertex
 10
3371.270025940178
 20
-245.2901090283037
 30
0.0
  0
VERTEX
  5
DF152
330
DF138
100
AcDbEntity
  8
AM_0
100
AcDbVertex
100
AcDb2dVertex
 10
3370.673824309874
 20
-245.5327956099153
 30
0.0
  0
SEQEND
  5
DF153
330
DF138
100
AcDbEntity
  8
AM_0
  0
POLYLINE
  5
DF154
330
1F
100
AcDbEntity
  8
AM_0
100
AcDb2dPolyline
 66
     1
 10
0.0
 20
0.0
 30
0.0
 70
   128
  0
VERTEX
  5
DF155
330
DF154
100
AcDbEntity
  8
AM_0
100
AcDbVertex
100
AcDb2dVertex
 10
3382.467379322172
 20
-190.1932055372839
 30
0.0
  0
VERTEX
  5
DF156
330
DF154
100
AcDbEntity
  8
AM_0
100
AcDbVertex
100
AcDb2dVertex
 10
3381.662462379355
 20
-198.9993179489023
 30
0.0
  0
VERTEX
  5
DF157
330
DF154
100
AcDbEntity
  8
AM_0
100
AcDbVertex
100
AcDb2dVertex
 10
3380.862795790364
 20
-207.8050415355809
 30
0.0
  0
VERTEX
  5
DF158
330
DF154
100
AcDbEntity
  8
AM_0
100
AcDbVertex
100
AcDb2dVertex
 10
3380.070213104816
 20
-216.6104389924655
 30
0.0
  0
VERTEX
  5
DF159
330
DF154
100
AcDbEntity
  8
AM_0
100
AcDbVertex
100
AcDb2dVertex
 10
3379.286547835107
 20
-225.4155753154406
 30
0.0
  0
SEQEND
  5
DF15A
330
DF154
100
AcDbEntity
  8
AM_0
  0
POLYLINE
  5
DF15B
330
1F
100
AcDbEntity
  8
AM_0
100
AcDb2dPolyline
 66
     1
 10
0.0
 20
0.0
 30
0.0
 70
   128
  0
VERTEX
  5
DF15C
330
DF15B
100
AcDbEntity
  8
AM_0
100
AcDbVertex
100
AcDb2dVertex
 10
3355.714011977851
 20
-208.4781607765787
 30
0.0
  0
VERTEX
  5
DF15D
330
DF15B
100
AcDbEntity
  8
AM_0
100
AcDbVertex
100
AcDb2dVertex
 10
3355.551172439267
 20
-204.4846663612956
 30
0.0
  0
VERTEX
  5
DF15E
330
DF15B
100
AcDbEntity
  8
AM_0
100
AcDbVertex
100
AcDb2dVertex
 10
3355.415118816351
 20
-200.4902723569508
 30
0.0
  0
SEQEND
  5
DF15F
330
DF15B
100
AcDbEntity
  8
AM_0
  0
POLYLINE
  5
DF160
330
1F
100
AcDbEntity
  8
AM_0
100
AcDb2dPolyline
 66
     1
 10
0.0
 20
0.0
 30
0.0
 70
   128
  0
VERTEX
  5
DF161
330
DF160
100
AcDbEntity
  8
AM_0
100
AcDbVertex
100
AcDb2dVertex
 10
3355.422806501683
 20
-224.4451119799235
 30
0.0
  0
VERTEX
  5
DF162
330
DF160
100
AcDbEntity
  8
AM_0
100
AcDbVertex
100
AcDb2dVertex
 10
3355.462220358037
 20
-224.24898545929
 30
0.0
  0
VERTEX
  5
DF163
330
DF160
100
AcDbEntity
  8
AM_0
100
AcDbVertex
100
AcDb2dVertex
 10
3355.504959252912
 20
-224.0097085733039
 30
0.0
  0
VERTEX
  5
DF164
330
DF160
100
AcDbEntity
  8
AM_0
100
AcDbVertex
100
AcDb2dVertex
 10
3355.549207566337
 20
-223.734471132241
 30
0.0
  0
VERTEX
  5
DF165
330
DF160
100
AcDbEntity
  8
AM_0
100
AcDbVertex
100
AcDb2dVertex
 10
3355.593045987422
 20
-223.4314614672286
 30
0.0
  0
VERTEX
  5
DF166
330
DF160
100
AcDbEntity
  8
AM_0
100
AcDbVertex
100
AcDb2dVertex
 10
3355.635556731468
 20
-223.104892231904
 30
0.0
  0
VERTEX
  5
DF167
330
DF160
100
AcDbEntity
  8
AM_0
100
AcDbVertex
100
AcDb2dVertex
 10
3355.676505889053
 20
-222.7581915278062
 30
0.0
  0
VERTEX
  5
DF168
330
DF160
100
AcDbEntity
  8
AM_0
100
AcDbVertex
100
AcDb2dVertex
 10
3355.71548536701
 20
-222.3960873741733
 30
0.0
  0
VERTEX
  5
DF169
330
DF160
100
AcDbEntity
  8
AM_0
100
AcDbVertex
100
AcDb2dVertex
 10
3355.752312316431
 20
-222.0225209374058
 30
0.0
  0
VERTEX
  5
DF16A
330
DF160
100
AcDbEntity
  8
AM_0
100
AcDbVertex
100
AcDb2dVertex
 10
3355.81944100512
 20
-221.2496657986271
 30
0.0
  0
VERTEX
  5
DF16B
330
DF160
100
AcDbEntity
  8
AM_0
100
AcDbVertex
100
AcDb2dVertex
 10
3355.87747794519
 20
-220.4556967753996
 30
0.0
  0
VERTEX
  5
DF16C
330
DF160
100
AcDbEntity
  8
AM_0
100
AcDbVertex
100
AcDb2dVertex
 10
3355.926644145402
 20
-219.6489954609503
 30
0.0
  0
VERTEX
  5
DF16D
330
DF160
100
AcDbEntity
  8
AM_0
100
AcDbVertex
100
AcDb2dVertex
 10
3355.966841430821
 20
-218.8322307128538
 30
0.0
  0
VERTEX
  5
DF16E
330
DF160
100
AcDbEntity
  8
AM_0
100
AcDbVertex
100
AcDb2dVertex
 10
3355.997782362734
 20
-218.0082669515244
 30
0.0
  0
VERTEX
  5
DF16F
330
DF160
100
AcDbEntity
  8
AM_0
100
AcDbVertex
100
AcDb2dVertex
 10
3356.019169251857
 20
-217.1799294848077
 30
0.0
  0
VERTEX
  5
DF170
330
DF160
100
AcDbEntity
  8
AM_0
100
AcDbVertex
100
AcDb2dVertex
 10
3356.030016843511
 20
-216.3470388550393
 30
0.0
  0
VERTEX
  5
DF171
330
DF160
100
AcDbEntity
  8
AM_0
100
AcDbVertex
100
AcDb2dVertex
 10
3356.03000032886
 20
-215.5091234106651
 30
0.0
  0
VERTEX
  5
DF172
330
DF160
100
AcDbEntity
  8
AM_0
100
AcDbVertex
100
AcDb2dVertex
 10
3356.019346870871
 20
-214.6670781392685
 30
0.0
  0
VERTEX
  5
DF173
330
DF160
100
AcDbEntity
  8
AM_0
100
AcDbVertex
100
AcDb2dVertex
 10
3355.998289188375
 20
-213.8217957276934
 30
0.0
  0
VERTEX
  5
DF174
330
DF160
100
AcDbEntity
  8
AM_0
100
AcDbVertex
100
AcDb2dVertex
 10
3355.967054295471
 20
-212.9741711635226
 30
0.0
  0
VERTEX
  5
DF175
330
DF160
100
AcDbEntity
  8
AM_0
100
AcDbVertex
100
AcDb2dVertex
 10
3355.925873650948
 20
-212.1250994343394
 30
0.0
  0
SEQEND
  5
DF176
330
DF160
100
AcDbEntity
  8
AM_0
  0
POLYLINE
  5
DF177
330
1F
100
AcDbEntity
  8
AM_0
100
AcDb2dPolyline
 66
     1
 10
0.0
 20
0.0
 30
0.0
 70
   128
  0
VERTEX
  5
DF178
330
DF177
100
AcDbEntity
  8
AM_0
100
AcDbVertex
100
AcDb2dVertex
 10
3355.925873805545
 20
-212.1250994343394
 30
0.0
  0
VERTEX
  5
DF179
330
DF177
100
AcDbEntity
  8
AM_0
100
AcDbVertex
100
AcDb2dVertex
 10
3355.815338250442
 20
-210.3024123568171
 30
0.0
  0
VERTEX
  5
DF17A
330
DF177
100
AcDbEntity
  8
AM_0
100
AcDbVertex
100
AcDb2dVertex
 10
3355.714075686428
 20
-208.4782228965395
 30
0.0
  0
SEQEND
  5
DF17B
330
DF177
100
AcDbEntity
  8
AM_0
  0
POLYLINE
  5
DF17C
330
1F
100
AcDbEntity
  8
AM_0
100
AcDb2dPolyline
 66
     1
 10
0.0
 20
0.0
 30
0.0
 70
   128
  0
VERTEX
  5
DF17D
330
DF17C
100
AcDbEntity
  8
AM_0
100
AcDbVertex
100
AcDb2dVertex
 10
3354.186769500689
 20
-224.9219378966849
 30
0.0
  0
VERTEX
  5
DF17E
330
DF17C
100
AcDbEntity
  8
AM_0
100
AcDbVertex
100
AcDb2dVertex
 10
3354.547203316314
 20
-224.8017104644344
 30
0.0
  0
VERTEX
  5
DF17F
330
DF17C
100
AcDbEntity
  8
AM_0
100
AcDbVertex
100
AcDb2dVertex
 10
3354.872179044527
 20
-224.6803855795433
 30
0.0
  0
VERTEX
  5
DF180
330
DF17C
100
AcDbEntity
  8
AM_0
100
AcDbVertex
100
AcDb2dVertex
 10
3355.157814036235
 20
-224.5632411379391
 30
0.0
  0
VERTEX
  5
DF181
330
DF17C
100
AcDbEntity
  8
AM_0
100
AcDbVertex
100
AcDb2dVertex
 10
3355.400223260448
 20
-224.4555596370279
 30
0.0
  0
VERTEX
  5
DF182
330
DF17C
100
AcDbEntity
  8
AM_0
100
AcDbVertex
100
AcDb2dVertex
 10
3355.595525179246
 20
-224.3626189727369
 30
0.0
  0
VERTEX
  5
DF183
330
DF17C
100
AcDbEntity
  8
AM_0
100
AcDbVertex
100
AcDb2dVertex
 10
3355.739834245942
 20
-224.2896947402542
 30
0.0
  0
VERTEX
  5
DF184
330
DF17C
100
AcDbEntity
  8
AM_0
100
AcDbVertex
100
AcDb2dVertex
 10
3355.82926717608
 20
-224.2420717377255
 30
0.0
  0
VERTEX
  5
DF185
330
DF17C
100
AcDbEntity
  8
AM_0
100
AcDbVertex
100
AcDb2dVertex
 10
3355.859941320569
 20
-224.2250232595994
 30
0.0
  0
SEQEND
  5
DF186
330
DF17C
100
AcDbEntity
  8
AM_0
  0
POLYLINE
  5
DF187
330
1F
100
AcDbEntity
  8
AM_0
100
AcDb2dPolyline
 66
     1
 10
0.0
 20
0.0
 30
0.0
 70
   128
  0
VERTEX
  5
DF188
330
DF187
100
AcDbEntity
  8
AM_0
100
AcDbVertex
100
AcDb2dVertex
 10
3352.147876647676
 20
-225.3940104860792
 30
0.0
  0
VERTEX
  5
DF189
330
DF187
100
AcDbEntity
  8
AM_0
100
AcDbVertex
100
AcDb2dVertex
 10
3352.410491604021
 20
-225.3575575727954
 30
0.0
  0
VERTEX
  5
DF18A
330
DF187
100
AcDbEntity
  8
AM_0
100
AcDbVertex
100
AcDb2dVertex
 10
3352.564774809096
 20
-225.3309610266228
 30
0.0
  0
VERTEX
  5
DF18B
330
DF187
100
AcDbEntity
  8
AM_0
100
AcDbVertex
100
AcDb2dVertex
 10
3352.737215495804
 20
-225.2975842017672
 30
0.0
  0
VERTEX
  5
DF18C
330
DF187
100
AcDbEntity
  8
AM_0
100
AcDbVertex
100
AcDb2dVertex
 10
3352.929947663557
 20
-225.2565252084278
 30
0.0
  0
VERTEX
  5
DF18D
330
DF187
100
AcDbEntity
  8
AM_0
100
AcDbVertex
100
AcDb2dVertex
 10
3353.145101699024
 20
-225.2068844575433
 30
0.0
  0
VERTEX
  5
DF18E
330
DF187
100
AcDbEntity
  8
AM_0
100
AcDbVertex
100
AcDb2dVertex
 10
3353.384809815191
 20
-225.1477600593122
 30
0.0
  0
VERTEX
  5
DF18F
330
DF187
100
AcDbEntity
  8
AM_0
100
AcDbVertex
100
AcDb2dVertex
 10
3353.651204145265
 20
-225.0782547254118
 30
0.0
  0
SEQEND
  5
DF190
330
DF187
100
AcDbEntity
  8
AM_0
  0
LINE
  5
DF191
330
1F
100
AcDbEntity
  8
AM_0
100
AcDbLine
 10
3353.634867075946
 20
-225.0825571078809
 30
0.0
 11
3354.186768911103
 21
-224.9219378966849
 31
0.0
  0
POLYLINE
  5
DF192
330
1F
100
AcDbEntity
  8
AM_0
100
AcDb2dPolyline
 66
     1
 10
0.0
 20
0.0
 30
0.0
 70
   128
  0
VERTEX
  5
DF193
330
DF192
100
AcDbEntity
  8
AM_0
100
AcDbVertex
100
AcDb2dVertex
 10
3345.736377811828
 20
-219.3415867823928
 30
0.0
  0
VERTEX
  5
DF194
330
DF192
100
AcDbEntity
  8
AM_0
100
AcDbVertex
100
AcDb2dVertex
 10
3346.113652949898
 20
-219.353757693228
 30
0.0
  0
VERTEX
  5
DF195
330
DF192
100
AcDbEntity
  8
AM_0
100
AcDbVertex
100
AcDb2dVertex
 10
3346.500646561267
 20
-219.4121458548872
 30
0.0
  0
VERTEX
  5
DF196
330
DF192
100
AcDbEntity
  8
AM_0
100
AcDbVertex
100
AcDb2dVertex
 10
3346.880528189403
 20
-219.5231979388566
 30
0.0
  0
VERTEX
  5
DF197
330
DF192
100
AcDbEntity
  8
AM_0
100
AcDbVertex
100
AcDb2dVertex
 10
3347.237228104339
 20
-219.6856554407449
 30
0.0
  0
VERTEX
  5
DF198
330
DF192
100
AcDbEntity
  8
AM_0
100
AcDbVertex
100
AcDb2dVertex
 10
3347.566870599135
 20
-219.8958486813874
 30
0.0
  0
VERTEX
  5
DF199
330
DF192
100
AcDbEntity
  8
AM_0
100
AcDbVertex
100
AcDb2dVertex
 10
3347.861463108503
 20
-220.1431505460115
 30
0.0
  0
VERTEX
  5
DF19A
330
DF192
100
AcDbEntity
  8
AM_0
100
AcDbVertex
100
AcDb2dVertex
 10
3348.122278178153
 20
-220.4173572558732
 30
0.0
  0
VERTEX
  5
DF19B
330
DF192
100
AcDbEntity
  8
AM_0
100
AcDbVertex
100
AcDb2dVertex
 10
3348.344367941995
 20
-220.6999961752266
 30
0.0
  0
VERTEX
  5
DF19C
330
DF192
100
AcDbEntity
  8
AM_0
100
AcDbVertex
100
AcDb2dVertex
 10
3348.528881614692
 20
-220.9749483246179
 30
0.0
  0
VERTEX
  5
DF19D
330
DF192
100
AcDbEntity
  8
AM_0
100
AcDbVertex
100
AcDb2dVertex
 10
3348.677399406016
 20
-221.2263731140468
 30
0.0
  0
VERTEX
  5
DF19E
330
DF192
100
AcDbEntity
  8
AM_0
100
AcDbVertex
100
AcDb2dVertex
 10
3348.794749965163
 20
-221.4460361976003
 30
0.0
  0
VERTEX
  5
DF19F
330
DF192
100
AcDbEntity
  8
AM_0
100
AcDbVertex
100
AcDb2dVertex
 10
3348.881842951477
 20
-221.6216217178678
 30
0.0
  0
VERTEX
  5
DF1A0
330
DF192
100
AcDbEntity
  8
AM_0
100
AcDbVertex
100
AcDb2dVertex
 10
3348.943570749829
 20
-221.7528489846563
 30
0.0
  0
VERTEX
  5
DF1A1
330
DF192
100
AcDbEntity
  8
AM_0
100
AcDbVertex
100
AcDb2dVertex
 10
3348.984797136497
 20
-221.8433002490377
 30
0.0
  0
VERTEX
  5
DF1A2
330
DF192
100
AcDbEntity
  8
AM_0
100
AcDbVertex
100
AcDb2dVertex
 10
3349.011509346648
 20
-221.9028778929092
 30
0.0
  0
VERTEX
  5
DF1A3
330
DF192
100
AcDbEntity
  8
AM_0
100
AcDbVertex
100
AcDb2dVertex
 10
3349.030039607682
 20
-221.9445856947283
 30
0.0
  0
VERTEX
  5
DF1A4
330
DF192
100
AcDbEntity
  8
AM_0
100
AcDbVertex
100
AcDb2dVertex
 10
3349.051849721341
 20
-221.9934994119984
 30
0.0
  0
VERTEX
  5
DF1A5
330
DF192
100
AcDbEntity
  8
AM_0
100
AcDbVertex
100
AcDb2dVertex
 10
3349.059610839721
 20
-222.0107112426146
 30
0.0
  0
VERTEX
  5
DF1A6
330
DF192
100
AcDbEntity
  8
AM_0
100
AcDbVertex
100
AcDb2dVertex
 10
3349.069843449328
 20
-222.0322415608753
 30
0.0
  0
VERTEX
  5
DF1A7
330
DF192
100
AcDbEntity
  8
AM_0
100
AcDbVertex
100
AcDb2dVertex
 10
3349.09571151209
 20
-222.0837850231522
 30
0.0
  0
VERTEX
  5
DF1A8
330
DF192
100
AcDbEntity
  8
AM_0
100
AcDbVertex
100
AcDb2dVertex
 10
3349.139968799825
 20
-222.1677228946087
 30
0.0
  0
VERTEX
  5
DF1A9
330
DF192
100
AcDbEntity
  8
AM_0
100
AcDbVertex
100
AcDb2dVertex
 10
3349.204921619663
 20
-222.2854448217754
 30
0.0
  0
VERTEX
  5
DF1AA
330
DF192
100
AcDbEntity
  8
AM_0
100
AcDbVertex
100
AcDb2dVertex
 10
3349.292463365917
 20
-222.4351930398354
 30
0.0
  0
VERTEX
  5
DF1AB
330
DF192
100
AcDbEntity
  8
AM_0
100
AcDbVertex
100
AcDb2dVertex
 10
3349.401401691057
 20
-222.611542405547
 30
0.0
  0
VERTEX
  5
DF1AC
330
DF192
100
AcDbEntity
  8
AM_0
100
AcDbVertex
100
AcDb2dVertex
 10
3349.529550308413
 20
-222.8096613664048
 30
0.0
  0
VERTEX
  5
DF1AD
330
DF192
100
AcDbEntity
  8
AM_0
100
AcDbVertex
100
AcDb2dVertex
 10
3349.674723174383
 20
-223.0247229713819
 30
0.0
  0
VERTEX
  5
DF1AE
330
DF192
100
AcDbEntity
  8
AM_0
100
AcDbVertex
100
AcDb2dVertex
 10
3349.834730741964
 20
-223.2518979687123
 30
0.0
  0
VERTEX
  5
DF1AF
330
DF192
100
AcDbEntity
  8
AM_0
100
AcDbVertex
100
AcDb2dVertex
 10
3350.190512831717
 20
-223.7232711333669
 30
0.0
  0
VERTEX
  5
DF1B0
330
DF192
100
AcDbEntity
  8
AM_0
100
AcDbVertex
100
AcDb2dVertex
 10
3350.579401031073
 20
-224.185151447718
 30
0.0
  0
VERTEX
  5
DF1B1
330
DF192
100
AcDbEntity
  8
AM_0
100
AcDbVertex
100
AcDb2dVertex
 10
3350.983904522509
 20
-224.5989094991143
 30
0.0
  0
VERTEX
  5
DF1B2
330
DF192
100
AcDbEntity
  8
AM_0
100
AcDbVertex
100
AcDb2dVertex
 10
3351.175005098515
 20
-224.7740762848317
 30
0.0
  0
VERTEX
  5
DF1B3
330
DF192
100
AcDbEntity
  8
AM_0
100
AcDbVertex
100
AcDb2dVertex
 10
3351.335711639732
 20
-224.9223842400972
 30
0.0
  0
VERTEX
  5
DF1B4
330
DF192
100
AcDbEntity
  8
AM_0
100
AcDbVertex
100
AcDb2dVertex
 10
3351.470190508667
 20
-225.0459960598417
 30
0.0
  0
VERTEX
  5
DF1B5
330
DF192
100
AcDbEntity
  8
AM_0
100
AcDbVertex
100
AcDb2dVertex
 10
3351.582991813514
 20
-225.147141160436
 30
0.0
  0
VERTEX
  5
DF1B6
330
DF192
100
AcDbEntity
  8
AM_0
100
AcDbVertex
100
AcDb2dVertex
 10
3351.678664471509
 20
-225.2280604619463
 30
0.0
  0
VERTEX
  5
DF1B7
330
DF192
100
AcDbEntity
  8
AM_0
100
AcDbVertex
100
AcDb2dVertex
 10
3351.761758313049
 20
-225.290981080004
 30
0.0
  0
VERTEX
  5
DF1B8
330
DF192
100
AcDbEntity
  8
AM_0
100
AcDbVertex
100
AcDb2dVertex
 10
3351.908409066367
 20
-225.3717761415933
 30
0.0
  0
VERTEX
  5
DF1B9
330
DF192
100
AcDbEntity
  8
AM_0
100
AcDbVertex
100
AcDb2dVertex
 10
3352.059339064014
 20
-225.4074007887347
 30
0.0
  0
VERTEX
  5
DF1BA
330
DF192
100
AcDbEntity
  8
AM_0
100
AcDbVertex
100
AcDb2dVertex
 10
3352.250947980554
 20
-225.4157271642201
 30
0.0
  0
SEQEND
  5
DF1BB
330
DF192
100
AcDbEntity
  8
AM_0
  0
POLYLINE
  5
DF1BC
330
1F
100
AcDbEntity
  8
AM_0
100
AcDb2dPolyline
 66
     1
 10
0.0
 20
0.0
 30
0.0
 70
   128
  0
VERTEX
  5
DF1BD
330
DF1BC
100
AcDbEntity
  8
AM_0
100
AcDbVertex
100
AcDb2dVertex
 10
3355.415027551398
 20
-200.4852774519559
 30
0.0
  0
VERTEX
  5
DF1BE
330
DF1BC
100
AcDbEntity
  8
AM_0
100
AcDbVertex
100
AcDb2dVertex
 10
3355.345976234702
 20
-197.9145745921965
 30
0.0
  0
VERTEX
  5
DF1BF
330
DF1BC
100
AcDbEntity
  8
AM_0
100
AcDbVertex
100
AcDb2dVertex
 10
3355.279541128707
 20
-195.341063104951
 30
0.0
  0
VERTEX
  5
DF1C0
330
DF1BC
100
AcDbEntity
  8
AM_0
100
AcDbVertex
100
AcDb2dVertex
 10
3355.190294888229
 20
-192.7666408125396
 30
0.0
  0
VERTEX
  5
DF1C1
330
DF1BC
100
AcDbEntity
  8
AM_0
100
AcDbVertex
100
AcDb2dVertex
 10
3355.1291707939
 20
-191.4796811658974
 30
0.0
  0
VERTEX
  5
DF1C2
330
DF1BC
100
AcDbEntity
  8
AM_0
100
AcDbVertex
100
AcDb2dVertex
 10
3355.052808541221
 20
-190.1932055366116
 30
0.0
  0
SEQEND
  5
DF1C3
330
DF1BC
100
AcDbEntity
  8
AM_0
  0
POLYLINE
  5
DF1C4
330
1F
100
AcDbEntity
  8
AM_0
100
AcDb2dPolyline
 66
     1
 10
0.0
 20
0.0
 30
0.0
 70
   128
  0
VERTEX
  5
DF1C5
330
DF1C4
100
AcDbEntity
  8
AM_0
100
AcDbVertex
100
AcDb2dVertex
 10
3367.992883191483
 20
-246.0015114206902
 30
0.0
  0
VERTEX
  5
DF1C6
330
DF1C4
100
AcDbEntity
  8
AM_0
100
AcDbVertex
100
AcDb2dVertex
 10
3367.534619581465
 20
-246.0087863583199
 30
0.0
  0
VERTEX
  5
DF1C7
330
DF1C4
100
AcDbEntity
  8
AM_0
100
AcDbVertex
100
AcDb2dVertex
 10
3367.097986111642
 20
-246.0016218561758
 30
0.0
  0
VERTEX
  5
DF1C8
330
DF1C4
100
AcDbEntity
  8
AM_0
100
AcDbVertex
100
AcDb2dVertex
 10
3366.681567322091
 20
-245.9824935097324
 30
0.0
  0
VERTEX
  5
DF1C9
330
DF1C4
100
AcDbEntity
  8
AM_0
100
AcDbVertex
100
AcDb2dVertex
 10
3366.283948698186
 20
-245.9538815159425
 30
0.0
  0
VERTEX
  5
DF1CA
330
DF1C4
100
AcDbEntity
  8
AM_0
100
AcDbVertex
100
AcDb2dVertex
 10
3365.539450996022
 20
-245.8781181711776
 30
0.0
  0
VERTEX
  5
DF1CB
330
DF1C4
100
AcDbEntity
  8
AM_0
100
AcDbVertex
100
AcDb2dVertex
 10
3364.850450890129
 20
-245.7901379007914
 30
0.0
  0
VERTEX
  5
DF1CC
330
DF1C4
100
AcDbEntity
  8
AM_0
100
AcDbVertex
100
AcDb2dVertex
 10
3364.213937749995
 20
-245.6974871296499
 30
0.0
  0
VERTEX
  5
DF1CD
330
DF1C4
100
AcDbEntity
  8
AM_0
100
AcDbVertex
100
AcDb2dVertex
 10
3363.635129500084
 20
-245.6075972456544
 30
0.0
  0
VERTEX
  5
DF1CE
330
DF1C4
100
AcDbEntity
  8
AM_0
100
AcDbVertex
100
AcDb2dVertex
 10
3363.119244620445
 20
-245.5279088396634
 30
0.0
  0
VERTEX
  5
DF1CF
330
DF1C4
100
AcDbEntity
  8
AM_0
100
AcDbVertex
100
AcDb2dVertex
 10
3362.654746543972
 20
-245.463281073054
 30
0.0
  0
SEQEND
  5
DF1D0
330
DF1C4
100
AcDbEntity
  8
AM_0
  0
LINE
  5
DF1D1
330
1F
100
AcDbEntity
  8
AM_0
100
AcDbLine
 10
3352.290316478319
 20
-244.7157846827023
 30
0.0
 11
3352.235887543314
 21
-244.715711059045
 31
0.0
  0
POLYLINE
  5
DF1D2
330
1F
100
AcDbEntity
  8
AM_0
100
AcDb2dPolyline
 66
     1
 10
0.0
 20
0.0
 30
0.0
 70
   128
  0
VERTEX
  5
DF1D3
330
DF1D2
100
AcDbEntity
  8
AM_0
100
AcDbVertex
100
AcDb2dVertex
 10
3362.667571401916
 20
-245.4649145979487
 30
0.0
  0
VERTEX
  5
DF1D4
330
DF1D2
100
AcDbEntity
  8
AM_0
100
AcDbVertex
100
AcDb2dVertex
 10
3361.460245586118
 20
-245.315946330507
 30
0.0
  0
VERTEX
  5
DF1D5
330
DF1D2
100
AcDbEntity
  8
AM_0
100
AcDbVertex
100
AcDb2dVertex
 10
3360.273940460879
 20
-245.1808929342812
 30
0.0
  0
VERTEX
  5
DF1D6
330
DF1D2
100
AcDbEntity
  8
AM_0
100
AcDbVertex
100
AcDb2dVertex
 10
3359.113750147673
 20
-245.0608909744793
 30
0.0
  0
VERTEX
  5
DF1D7
330
DF1D2
100
AcDbEntity
  8
AM_0
100
AcDbVertex
100
AcDb2dVertex
 10
3357.98476753713
 20
-244.9570770163104
 30
0.0
  0
VERTEX
  5
DF1D8
330
DF1D2
100
AcDbEntity
  8
AM_0
100
AcDbVertex
100
AcDb2dVertex
 10
3356.892086433042
 20
-244.8705922264612
 30
0.0
  0
VERTEX
  5
DF1D9
330
DF1D2
100
AcDbEntity
  8
AM_0
100
AcDbVertex
100
AcDb2dVertex
 10
3355.840800043721
 20
-244.802563967183
 30
0.0
  0
VERTEX
  5
DF1DA
330
DF1D2
100
AcDbEntity
  8
AM_0
100
AcDbVertex
100
AcDb2dVertex
 10
3354.836001855278
 20
-244.7541380066414
 30
0.0
  0
VERTEX
  5
DF1DB
330
DF1D2
100
AcDbEntity
  8
AM_0
100
AcDbVertex
100
AcDb2dVertex
 10
3353.882785671501
 20
-244.7264509100447
 30
0.0
  0
SEQEND
  5
DF1DC
330
DF1D2
100
AcDbEntity
  8
AM_0
  0
POLYLINE
  5
DF1DD
330
1F
100
AcDbEntity
  8
AM_0
100
AcDb2dPolyline
 66
     1
 10
0.0
 20
0.0
 30
0.0
 70
   128
  0
VERTEX
  5
DF1DE
330
DF1DD
100
AcDbEntity
  8
AM_0
100
AcDbVertex
100
AcDb2dVertex
 10
3370.659753049459
 20
-245.5375581402421
 30
0.0
  0
VERTEX
  5
DF1DF
330
DF1DD
100
AcDbEntity
  8
AM_0
100
AcDbVertex
100
AcDb2dVertex
 10
3370.307540932091
 20
-245.6516794104217
 30
0.0
  0
VERTEX
  5
DF1E0
330
DF1DD
100
AcDbEntity
  8
AM_0
100
AcDbVertex
100
AcDb2dVertex
 10
3369.956146308279
 20
-245.7468747992156
 30
0.0
  0
VERTEX
  5
DF1E1
330
DF1DD
100
AcDbEntity
  8
AM_0
100
AcDbVertex
100
AcDb2dVertex
 10
3369.608028284896
 20
-245.8245385546323
 30
0.0
  0
VERTEX
  5
DF1E2
330
DF1DD
100
AcDbEntity
  8
AM_0
100
AcDbVertex
100
AcDb2dVertex
 10
3369.265646306087
 20
-245.8860557217237
 30
0.0
  0
VERTEX
  5
DF1E3
330
DF1DD
100
AcDbEntity
  8
AM_0
100
AcDbVertex
100
AcDb2dVertex
 10
3368.931459756518
 20
-245.9328159470197
 30
0.0
  0
VERTEX
  5
DF1E4
330
DF1DD
100
AcDbEntity
  8
AM_0
100
AcDbVertex
100
AcDb2dVertex
 10
3368.607914389058
 20
-245.9662042755716
 30
0.0
  0
VERTEX
  5
DF1E5
330
DF1DD
100
AcDbEntity
  8
AM_0
100
AcDbVertex
100
AcDb2dVertex
 10
3367.992882852854
 20
-246.001502217733
 30
0.0
  0
SEQEND
  5
DF1E6
330
DF1DD
100
AcDbEntity
  8
AM_0
  0
POLYLINE
  5
DF1E7
330
1F
100
AcDbEntity
  8
AM_0
100
AcDb2dPolyline
 66
     1
 10
0.0
 20
0.0
 30
0.0
 70
   128
  0
VERTEX
  5
DF1E8
330
DF1E7
100
AcDbEntity
  8
AM_0
100
AcDbVertex
100
AcDb2dVertex
 10
3352.235182911016
 20
-244.7157064575665
 30
0.0
  0
VERTEX
  5
DF1E9
330
DF1E7
100
AcDbEntity
  8
AM_0
100
AcDbVertex
100
AcDb2dVertex
 10
3351.918836921576
 20
-244.7171421188819
 30
0.0
  0
VERTEX
  5
DF1EA
330
DF1E7
100
AcDbEntity
  8
AM_0
100
AcDbVertex
100
AcDb2dVertex
 10
3351.625979372744
 20
-244.7212972540362
 30
0.0
  0
VERTEX
  5
DF1EB
330
DF1E7
100
AcDbEntity
  8
AM_0
100
AcDbVertex
100
AcDb2dVertex
 10
3351.355642084946
 20
-244.7279417891005
 30
0.0
  0
VERTEX
  5
DF1EC
330
DF1E7
100
AcDbEntity
  8
AM_0
100
AcDbVertex
100
AcDb2dVertex
 10
3351.106853385537
 20
-244.7368456501459
 30
0.0
  0
VERTEX
  5
DF1ED
330
DF1E7
100
AcDbEntity
  8
AM_0
100
AcDbVertex
100
AcDb2dVertex
 10
3350.878646643467
 20
-244.7477833647222
 30
0.0
  0
VERTEX
  5
DF1EE
330
DF1E7
100
AcDbEntity
  8
AM_0
100
AcDbVertex
100
AcDb2dVertex
 10
3350.670051019466
 20
-244.7605248589005
 30
0.0
  0
VERTEX
  5
DF1EF
330
DF1E7
100
AcDbEntity
  8
AM_0
100
AcDbVertex
100
AcDb2dVertex
 10
3350.307814493957
 20
-244.790498890348
 30
0.0
  0
VERTEX
  5
DF1F0
330
DF1E7
100
AcDbEntity
  8
AM_0
100
AcDbVertex
100
AcDb2dVertex
 10
3350.012392260978
 20
-244.8249409574932
 30
0.0
  0
VERTEX
  5
DF1F1
330
DF1E7
100
AcDbEntity
  8
AM_0
100
AcDbVertex
100
AcDb2dVertex
 10
3349.7760280087
 20
-244.8620150703845
 30
0.0
  0
VERTEX
  5
DF1F2
330
DF1E7
100
AcDbEntity
  8
AM_0
100
AcDbVertex
100
AcDb2dVertex
 10
3349.590966477345
 20
-244.8998944420267
 30
0.0
  0
VERTEX
  5
DF1F3
330
DF1E7
100
AcDbEntity
  8
AM_0
100
AcDbVertex
100
AcDb2dVertex
 10
3349.449452546031
 20
-244.936747683946
 30
0.0
  0
VERTEX
  5
DF1F4
330
DF1E7
100
AcDbEntity
  8
AM_0
100
AcDbVertex
100
AcDb2dVertex
 10
3349.343867284732
 20
-244.9706605810551
 30
0.0
  0
VERTEX
  5
DF1F5
330
DF1E7
100
AcDbEntity
  8
AM_0
100
AcDbVertex
100
AcDb2dVertex
 10
3349.319199664675
 20
-244.9756393808747
 30
0.0
  0
VERTEX
  5
DF1F6
330
DF1E7
100
AcDbEntity
  8
AM_0
100
AcDbVertex
100
AcDb2dVertex
 10
3349.318304807255
 20
-244.9691328901668
 30
0.0
  0
VERTEX
  5
DF1F7
330
DF1E7
100
AcDbEntity
  8
AM_0
100
AcDbVertex
100
AcDb2dVertex
 10
3349.320184755398
 20
-244.9625849861513
 30
0.0
  0
VERTEX
  5
DF1F8
330
DF1E7
100
AcDbEntity
  8
AM_0
100
AcDbVertex
100
AcDb2dVertex
 10
3349.289145261979
 20
-244.9830063480741
 30
0.0
  0
VERTEX
  5
DF1F9
330
DF1E7
100
AcDbEntity
  8
AM_0
100
AcDbVertex
100
AcDb2dVertex
 10
3349.214239462086
 20
-245.0328679699303
 30
0.0
  0
VERTEX
  5
DF1FA
330
DF1E7
100
AcDbEntity
  8
AM_0
100
AcDbVertex
100
AcDb2dVertex
 10
3349.096501038174
 20
-245.1108078140614
 30
0.0
  0
VERTEX
  5
DF1FB
330
DF1E7
100
AcDbEntity
  8
AM_0
100
AcDbVertex
100
AcDb2dVertex
 10
3349.004846892818
 20
-245.1719016451233
 30
0.0
  0
VERTEX
  5
DF1FC
330
DF1E7
100
AcDbEntity
  8
AM_0
100
AcDbVertex
100
AcDb2dVertex
 10
3348.85096995949
 20
-245.2754441160542
 30
0.0
  0
VERTEX
  5
DF1FD
330
DF1E7
100
AcDbEntity
  8
AM_0
100
AcDbVertex
100
AcDb2dVertex
 10
3348.808085976558
 20
-245.3050132173876
 30
0.0
  0
VERTEX
  5
DF1FE
330
DF1E7
100
AcDbEntity
  8
AM_0
100
AcDbVertex
100
AcDb2dVertex
 10
3348.733971681097
 20
-245.352679933963
 30
0.0
  0
VERTEX
  5
DF1FF
330
DF1E7
100
AcDbEntity
  8
AM_0
100
AcDbVertex
100
AcDb2dVertex
 10
3348.674866462845
 20
-245.388980998454
 30
0.0
  0
VERTEX
  5
DF200
330
DF1E7
100
AcDbEntity
  8
AM_0
100
AcDbVertex
100
AcDb2dVertex
 10
3348.594660982913
 20
-245.4371170658445
 30
0.0
  0
VERTEX
  5
DF201
330
DF1E7
100
AcDbEntity
  8
AM_0
100
AcDbVertex
100
AcDb2dVertex
 10
3348.473454841374
 20
-245.5059229750013
 30
0.0
  0
VERTEX
  5
DF202
330
DF1E7
100
AcDbEntity
  8
AM_0
100
AcDbVertex
100
AcDb2dVertex
 10
3348.390296672144
 20
-245.5499453205442
 30
0.0
  0
VERTEX
  5
DF203
330
DF1E7
100
AcDbEntity
  8
AM_0
100
AcDbVertex
100
AcDb2dVertex
 10
3348.288445097359
 20
-245.6010033268306
 30
0.0
  0
VERTEX
  5
DF204
330
DF1E7
100
AcDbEntity
  8
AM_0
100
AcDbVertex
100
AcDb2dVertex
 10
3348.166605822862
 20
-245.6579420227382
 30
0.0
  0
VERTEX
  5
DF205
330
DF1E7
100
AcDbEntity
  8
AM_0
100
AcDbVertex
100
AcDb2dVertex
 10
3348.026638359403
 20
-245.7179268974635
 30
0.0
  0
VERTEX
  5
DF206
330
DF1E7
100
AcDbEntity
  8
AM_0
100
AcDbVertex
100
AcDb2dVertex
 10
3347.709189377116
 20
-245.8358305830331
 30
0.0
  0
VERTEX
  5
DF207
330
DF1E7
100
AcDbEntity
  8
AM_0
100
AcDbVertex
100
AcDb2dVertex
 10
3347.371463056118
 20
-245.9363820928903
 30
0.0
  0
VERTEX
  5
DF208
330
DF1E7
100
AcDbEntity
  8
AM_0
100
AcDbVertex
100
AcDb2dVertex
 10
3347.024112982371
 20
-246.0168159384103
 30
0.0
  0
VERTEX
  5
DF209
330
DF1E7
100
AcDbEntity
  8
AM_0
100
AcDbVertex
100
AcDb2dVertex
 10
3346.676015482575
 20
-246.0785999912591
 30
0.0
  0
VERTEX
  5
DF20A
330
DF1E7
100
AcDbEntity
  8
AM_0
100
AcDbVertex
100
AcDb2dVertex
 10
3346.336923288028
 20
-246.1229214329095
 30
0.0
  0
VERTEX
  5
DF20B
330
DF1E7
100
AcDbEntity
  8
AM_0
100
AcDbVertex
100
AcDb2dVertex
 10
3346.008444782193
 20
-246.152665390429
 30
0.0
  0
VERTEX
  5
DF20C
330
DF1E7
100
AcDbEntity
  8
AM_0
100
AcDbVertex
100
AcDb2dVertex
 10
3345.667692514437
 20
-246.171163334307
 30
0.0
  0
SEQEND
  5
DF20D
330
DF1E7
100
AcDbEntity
  8
AM_0
  0
POLYLINE
  5
DF20E
330
1F
100
AcDbEntity
  8
AM_0
100
AcDb2dPolyline
 66
     1
 10
0.0
 20
0.0
 30
0.0
 70
   128
  0
VERTEX
  5
DF20F
330
DF20E
100
AcDbEntity
  8
AM_0
100
AcDbVertex
100
AcDb2dVertex
 10
3341.653326288181
 20
-228.6224745768869
 30
0.0
  0
VERTEX
  5
DF210
330
DF20E
100
AcDbEntity
  8
AM_0
100
AcDbVertex
100
AcDb2dVertex
 10
3341.661560219131
 20
-228.1920706767404
 30
0.0
  0
VERTEX
  5
DF211
330
DF20E
100
AcDbEntity
  8
AM_0
100
AcDbVertex
100
AcDb2dVertex
 10
3341.672013018827
 20
-227.7645864147508
 30
0.0
  0
VERTEX
  5
DF212
330
DF20E
100
AcDbEntity
  8
AM_0
100
AcDbVertex
100
AcDb2dVertex
 10
3341.684624803227
 20
-227.3456079859102
 30
0.0
  0
VERTEX
  5
DF213
330
DF20E
100
AcDbEntity
  8
AM_0
100
AcDbVertex
100
AcDb2dVertex
 10
3341.699453583212
 20
-226.9369943875635
 30
0.0
  0
VERTEX
  5
DF214
330
DF20E
100
AcDbEntity
  8
AM_0
100
AcDbVertex
100
AcDb2dVertex
 10
3341.737428646174
 20
-226.1319265980087
 30
0.0
  0
VERTEX
  5
DF215
330
DF20E
100
AcDbEntity
  8
AM_0
100
AcDbVertex
100
AcDb2dVertex
 10
3341.763162122108
 20
-225.7145402807556
 30
0.0
  0
VERTEX
  5
DF216
330
DF20E
100
AcDbEntity
  8
AM_0
100
AcDbVertex
100
AcDb2dVertex
 10
3341.794985266131
 20
-225.2890760678611
 30
0.0
  0
VERTEX
  5
DF217
330
DF20E
100
AcDbEntity
  8
AM_0
100
AcDbVertex
100
AcDb2dVertex
 10
3341.833938507744
 20
-224.8602964896522
 30
0.0
  0
VERTEX
  5
DF218
330
DF20E
100
AcDbEntity
  8
AM_0
100
AcDbVertex
100
AcDb2dVertex
 10
3341.87985607083
 20
-224.4417851108871
 30
0.0
  0
VERTEX
  5
DF219
330
DF20E
100
AcDbEntity
  8
AM_0
100
AcDbVertex
100
AcDb2dVertex
 10
3341.931657583466
 20
-224.0442564744316
 30
0.0
  0
VERTEX
  5
DF21A
330
DF20E
100
AcDbEntity
  8
AM_0
100
AcDbVertex
100
AcDb2dVertex
 10
3341.986166874523
 20
-223.6838801760042
 30
0.0
  0
VERTEX
  5
DF21B
330
DF20E
100
AcDbEntity
  8
AM_0
100
AcDbVertex
100
AcDb2dVertex
 10
3342.10919470785
 20
-223.0141188639966
 30
0.0
  0
VERTEX
  5
DF21C
330
DF20E
100
AcDbEntity
  8
AM_0
100
AcDbVertex
100
AcDb2dVertex
 10
3342.185353437228
 20
-222.669454314169
 30
0.0
  0
VERTEX
  5
DF21D
330
DF20E
100
AcDbEntity
  8
AM_0
100
AcDbVertex
100
AcDb2dVertex
 10
3342.22814461228
 20
-222.4940574545231
 30
0.0
  0
VERTEX
  5
DF21E
330
DF20E
100
AcDbEntity
  8
AM_0
100
AcDbVertex
100
AcDb2dVertex
 10
3342.252885206907
 20
-222.3976012605992
 30
0.0
  0
VERTEX
  5
DF21F
330
DF20E
100
AcDbEntity
  8
AM_0
100
AcDbVertex
100
AcDb2dVertex
 10
3342.280340643414
 20
-222.2943578857746
 30
0.0
  0
SEQEND
  5
DF220
330
DF20E
100
AcDbEntity
  8
AM_0
  0
POLYLINE
  5
DF221
330
1F
100
AcDbEntity
  8
AM_0
100
AcDb2dPolyline
 66
     1
 10
0.0
 20
0.0
 30
0.0
 70
   128
  0
VERTEX
  5
DF222
330
DF221
100
AcDbEntity
  8
AM_0
100
AcDbVertex
100
AcDb2dVertex
 10
3343.401806029551
 20
-244.9108643669453
 30
0.0
  0
VERTEX
  5
DF223
330
DF221
100
AcDbEntity
  8
AM_0
100
AcDbVertex
100
AcDb2dVertex
 10
3343.326358144945
 20
-244.791184510645
 30
0.0
  0
VERTEX
  5
DF224
330
DF221
100
AcDbEntity
  8
AM_0
100
AcDbVertex
100
AcDb2dVertex
 10
3343.263459585791
 20
-244.6855943817463
 30
0.0
  0
VERTEX
  5
DF225
330
DF221
100
AcDbEntity
  8
AM_0
100
AcDbVertex
100
AcDb2dVertex
 10
3343.152468886037
 20
-244.4840358156526
 30
0.0
  0
VERTEX
  5
DF226
330
DF221
100
AcDbEntity
  8
AM_0
100
AcDbVertex
100
AcDb2dVertex
 10
3343.044354371029
 20
-244.2660637754762
 30
0.0
  0
VERTEX
  5
DF227
330
DF221
100
AcDbEntity
  8
AM_0
100
AcDbVertex
100
AcDb2dVertex
 10
3342.935691830562
 20
-244.0208785909973
 30
0.0
  0
VERTEX
  5
DF228
330
DF221
100
AcDbEntity
  8
AM_0
100
AcDbVertex
100
AcDb2dVertex
 10
3342.827204787222
 20
-243.7430459160172
 30
0.0
  0
VERTEX
  5
DF229
330
DF221
100
AcDbEntity
  8
AM_0
100
AcDbVertex
100
AcDb2dVertex
 10
3342.724196231931
 20
-243.437245454248
 30
0.0
  0
VERTEX
  5
DF22A
330
DF221
100
AcDbEntity
  8
AM_0
100
AcDbVertex
100
AcDb2dVertex
 10
3342.631973579081
 20
-243.1174472946487
 30
0.0
  0
VERTEX
  5
DF22B
330
DF221
100
AcDbEntity
  8
AM_0
100
AcDbVertex
100
AcDb2dVertex
 10
3342.553340340763
 20
-242.7988823313079
 30
0.0
  0
VERTEX
  5
DF22C
330
DF221
100
AcDbEntity
  8
AM_0
100
AcDbVertex
100
AcDb2dVertex
 10
3342.488239877487
 20
-242.4958887714706
 30
0.0
  0
VERTEX
  5
DF22D
330
DF221
100
AcDbEntity
  8
AM_0
100
AcDbVertex
100
AcDb2dVertex
 10
3342.434999346451
 20
-242.2175729412401
 30
0.0
  0
VERTEX
  5
DF22E
330
DF221
100
AcDbEntity
  8
AM_0
100
AcDbVertex
100
AcDb2dVertex
 10
3342.391220819138
 20
-241.9663460153902
 30
0.0
  0
VERTEX
  5
DF22F
330
DF221
100
AcDbEntity
  8
AM_0
100
AcDbVertex
100
AcDb2dVertex
 10
3342.353396705136
 20
-241.7315279621446
 30
0.0
  0
VERTEX
  5
DF230
330
DF221
100
AcDbEntity
  8
AM_0
100
AcDbVertex
100
AcDb2dVertex
 10
3342.315650660111
 20
-241.4797304529515
 30
0.0
  0
VERTEX
  5
DF231
330
DF221
100
AcDbEntity
  8
AM_0
100
AcDbVertex
100
AcDb2dVertex
 10
3342.294910018936
 20
-241.3328834671345
 30
0.0
  0
VERTEX
  5
DF232
330
DF221
100
AcDbEntity
  8
AM_0
100
AcDbVertex
100
AcDb2dVertex
 10
3342.273199065554
 20
-241.1719513553944
 30
0.0
  0
VERTEX
  5
DF233
330
DF221
100
AcDbEntity
  8
AM_0
100
AcDbVertex
100
AcDb2dVertex
 10
3342.252066308606
 20
-241.0075083155003
 30
0.0
  0
VERTEX
  5
DF234
330
DF221
100
AcDbEntity
  8
AM_0
100
AcDbVertex
100
AcDb2dVertex
 10
3342.23284155232
 20
-240.8501331466999
 30
0.0
  0
VERTEX
  5
DF235
330
DF221
100
AcDbEntity
  8
AM_0
100
AcDbVertex
100
AcDb2dVertex
 10
3342.199492766762
 20
-240.5568349022236
 30
0.0
  0
SEQEND
  5
DF236
330
DF221
100
AcDbEntity
  8
AM_0
  0
ARC
  5
DF237
330
1F
100
AcDbEntity
  8
AM_0
100
AcDbCircle
 10
3346.614181050337
 20
-223.84921524916
 30
0.0
 40
4.604319069433603
100
AcDbArc
 50
101.8943363674321
 51
160.2634726480441
  0
LINE
  5
E11C9
330
1F
100
AcDbEntity
  8
AM_1
100
AcDbLine
 10
3167.749396329134
 20
-96.5037883664636
 30
0.0
 11
3167.749396329134
 21
-144.5037883664636
 31
0.0
  0
LINE
  5
E3F5E
330
1F
100
AcDbEntity
  8
AM_1
100
AcDbLine
 10
3067.749396329134
 20
-144.5037883664636
 30
0.0
 11
3167.749396329134
 21
-144.5037883664636
 31
0.0
  0
TEXT
  5
E3F5F
330
1F
100
AcDbEntity
  8
AM_6
100
AcDbText
 10
3093.406396329135
 20
-142.1037883664636
 30
0.0
 40
3.2
  1
適応ドア厚：32～40
 41
0.85537027
100
AcDbText
  0
TEXT
  5
E3F60
330
1F
100
AcDbEntity
  8
AM_6
100
AcDbText
 10
3073.406396329135
 20
-142.1037883664636
 30
0.0
 40
3.2
  1
備　考
 41
0.85537027
100
AcDbText
  0
TEXT
  5
E3F61
330
1F
100
AcDbEntity
  8
AM_6
100
AcDbText
 10
3070.206395767072
 20
-134.1037883664636
 30
0.0
 40
3.2
  1
セット部品
 41
0.84892707
100
AcDbText
  0
TEXT
  5
E3F62
330
1F
100
AcDbEntity
  8
AM_6
100
AcDbText
 10
3087.123523785834
 20
-134.1037883664636
 30
0.0
 40
3.2
  1
　 M4×30　ナベ小ネジ +　SUS：2本
 41
0.84892707
100
AcDbText
  0
CIRCLE
  5
E42C2
330
1F
100
AcDbEntity
  8
AM_6
 48
0.3
100
AcDbCircle
 10
3129.011580076144
 20
-132.7398406107473
 30
0.0
 40
1.741429355992295
  0
VIEWPORT
  5
34B25
330
1B
100
AcDbEntity
 67
     1
  8
0
 48
0.5
100
AcDbViewport
 10
145.1610107421875
 20
106.4772970040639
 30
0.0
 40
296.6719970703125
 41
219.3045939127604
 68
     1
 69
     1
 12
145.1610107421875
 22
106.4772970040639
 13
0.0
 23
0.0
 14
2.5
 24
2.5
 15
10.0
 25
10.0
 16
0.0
 26
0.0
 36
1.0
 17
0.0
 27
0.0
 37
0.0
 42
50.0
 43
0.0
 44
0.0
 45
219.3045939127604
 50
0.0
 51
0.0
 72
   100
 90
    32800
  1

281
     0
 71
     1
 74
     0
110
0.0
120
0.0
130
0.0
111
1.0
121
0.0
131
0.0
112
0.0
122
1.0
132
0.0
 79
     0
146
0.0
170
     0
1001
GENIUS_GENSCREG_15
1000
PF
1040
1.0
1000
DF
1040
1.0
1000
MIN
1011
-3.17498779296875
1021
-3.174999952316284
1031
0.0
1000
MAX
1011
293.4970092773438
1021
216.1295939604441
1031
0.0
1000
FLAGS
1070
     4
1001
GENIUS_GENOBJ-N-SDF_13
1002
{
1000
OWNER
1000
GEN
1002
}
1001
GENIUS_GENODEF_13
1002
{
1000
HIER
1070
     0
1002
}
1002
{
1000
MANEDIT
1070
     0
1002
}
1002
{
1000
NOSEL
1070
     0
1002
}
1002
{
1000
BEHIND
1070
     0
1002
}
1002
{
1000
OTHER
1070
     0
1002
}
1002
{
1000
REACTOR
1002
}
  0
ENDSEC
  0
SECTION
  2
OBJECTS
  0
DICTIONARY
  5
C
330
0
100
AcDbDictionary
281
     1
  3
ACAD_2007HEADERVARS_RT
350
E442C
  3
ACAD_COLOR
350
DE6C
  3
ACAD_GROUP
350
D
  3
ACAD_LAYOUT
350
1A
  3
ACAD_MATERIAL
350
DE6B
  3
ACAD_MLINESTYLE
350
17
  3
ACAD_PLOTSETTINGS
350
19
  3
ACAD_PLOTSTYLENAME
350
E
  3
ACAD_TABLESTYLE
350
FD1D
  3
ACAD_VISUALSTYLE
350
ADEC6
  3
AcAsAppObject
350
3DA1
  3
ACASGREF_MASTER
350
3DE9
  3
AcDbVariableDictionary
350
34
  3
AcmDictionary
350
47
  3
AD_GREF_MODULE
350
3DEA
  3
AD_MAPI_MODULE
350
3E06
  3
AMG
350
2B
  3
AMGSNAPSETTINGS
350
7D
  3
ASE_INDEX_DICTIONARY
350
547D7
  3
MAPISURF_MODULE
350
3DEB
  0
DICTIONARY
  5
AEEE5
330
8
100
AcDbDictionary
280
     1
281
     1
  0
DICTIONARY
  5
3F95
330
2
100
AcDbDictionary
280
     1
281
     1
  3
ACAD_LAYERFILTERS
360
C7DFB
  3
ACAD_LAYERSTATES
360
3F96
  3
ACLYDICTIONARY
360
C7DFA
  3
AMLAYER_GROUPCOLORS
360
15B82
  0
DICTIONARY
  5
C49A1
330
C49A0
100
AcDbDictionary
280
     1
281
     1
  3
ADSK_XREC_LAYER_RECONCILED
360
C49A2
  0
DICTIONARY
  5
8A
330
1F
100
AcDbDictionary
280
     1
281
     1
  3
ACAD_SORTENTS
360
14054
  0
DICTIONARY
  5
E442C
102
{ACAD_REACTORS
330
C
102
}
330
C
100
AcDbDictionary
281
     1
  3
DIMARCSYM
350
E442D
  0
DICTIONARY
  5
DE6C
102
{ACAD_REACTORS
330
C
102
}
330
C
100
AcDbDictionary
281
     1
  0
DICTIONARY
  5
D
102
{ACAD_REACTORS
330
C
102
}
330
C
100
AcDbDictionary
281
     1
  0
DICTIONARY
  5
1A
102
{ACAD_REACTORS
330
C
102
}
330
C
100
AcDbDictionary
281
     1
  3
Model
350
22
  3
ﾚｲｱｳﾄ1
350
1E
  3
ﾚｲｱｳﾄ2
350
26
  0
DICTIONARY
  5
DE6B
102
{ACAD_REACTORS
330
C
102
}
330
C
100
AcDbDictionary
281
     1
  3
ByBlock
350
ADEC4
  3
ByLayer
350
ADEC3
  3
Global
350
ADEC5
  0
DICTIONARY
  5
17
102
{ACAD_REACTORS
330
C
102
}
330
C
100
AcDbDictionary
281
     1
  3
Standard
350
18
  0
DICTIONARY
  5
19
102
{ACAD_REACTORS
330
C
102
}
330
C
100
AcDbDictionary
281
     1
  3
C00
350
AF0D4
  0
ACDBDICTIONARYWDFLT
  5
E
102
{ACAD_REACTORS
330
C
102
}
330
C
100
AcDbDictionary
281
     1
  3
Normal
350
F
100
AcDbDictionaryWithDefault
340
F
  0
DICTIONARY
  5
FD1D
102
{ACAD_REACTORS
330
C
102
}
330
C
100
AcDbDictionary
281
     1
  3
Standard
350
FD1E
  0
DICTIONARY
  5
ADEC6
102
{ACAD_REACTORS
330
C
102
}
330
C
100
AcDbDictionary
281
     1
  3
2dWireframe
350
ADECC
  3
3D Hidden
350
ADECE
  3
3dWireframe
350
ADECD
  3
Basic
350
ADECB
  3
Brighten
350
ADED2
  3
ColorChange
350
ADED6
  3
Conceptual
350
ADECF
  3
Dim
350
ADED1
  3
Facepattern
350
ADED5
  3
Flat
350
ADEC7
  3
FlatWithEdges
350
ADEC8
  3
Gouraud
350
ADEC9
  3
GouraudWithEdges
350
ADECA
  3
Linepattern
350
ADED4
  3
Realistic
350
ADED0
  3
Thicken
350
ADED3
  0
ACAD_PROXY_OBJECT
  5
3DA1
102
{ACAD_REACTORS
330
C
102
}
330
C
100
AcDbProxyObject
 90
      499
 91
      576
 95
   655383
 70
     0
 93
       10
310
404C
 94
        0
  0
ACAD_PROXY_OBJECT
  5
3DE9
102
{ACAD_REACTORS
330
C
102
}
330
C
100
AcDbProxyObject
 90
      499
 91
      581
 95
   655383
 70
     0
 93
       34
310
010000404C
 94
        0
  0
DICTIONARY
  5
34
102
{ACAD_REACTORS
330
C
102
}
330
C
100
AcDbDictionary
281
     1
  3
CTABLESTYLE
350
FD8B
  3
DIMASSOC
350
A10C
  3
HPORIGIN
350
AE2A9
  3
INDEXCTL
350
35
  3
SORTENTS
350
194C
  0
DICTIONARY
  5
47
102
{ACAD_REACTORS
330
C
102
}
330
C
100
AcDbDictionary
281
     1
  3
AcmBOM
350
7E8
  3
AcmStdDictionary
350
4C
  3
AMDTSECTSYM_ARROWCOLOR
350
DE78
  0
ACAD_PROXY_OBJECT
  5
3DEA
102
{ACAD_REACTORS
330
C
102
}
330
C
100
AcDbProxyObject
 90
      499
 91
      582
 95
   655383
 70
     0
 93
      114
310
00000043800000000000000000000C
 94
        0
  0
ACAD_PROXY_OBJECT
  5
3E06
102
{ACAD_REACTORS
330
C
102
}
330
C
100
AcDbProxyObject
 90
      499
 91
      594
 95
   655383
 70
     0
 93
       34
310
05000044CC
 94
        0
  0
DICTIONARY
  5
2B
102
{ACAD_REACTORS
330
C
102
}
330
C
100
AcDbDictionary
281
     1
  0
DICTIONARY
  5
7D
102
{ACAD_REACTORS
330
C
102
}
330
C
100
AcDbDictionary
281
     1
  0
DICTIONARY
  5
547D7
102
{ACAD_REACTORS
330
C
102
}
330
C
100
AcDbDictionary
281
     1
  3
ASEBlockHierarchyIndexRecord
350
547D8
1001
DCO15
1040
1573222139.328
  0
ACAD_PROXY_OBJECT
  5
3DEB
102
{ACAD_REACTORS
330
C
102
}
330
C
100
AcDbProxyObject
 90
      499
 91
      583
 95
   655383
 70
     0
 93
        8
310
047C
 94
        0
  0
DICTIONARY
  5
C7DFB
102
{ACAD_REACTORS
330
3F95
102
}
330
3F95
100
AcDbDictionary
281
     1
  0
DICTIONARY
  5
3F96
102
{ACAD_REACTORS
330
3F95
102
}
330
3F95
100
AcDbDictionary
281
     1
  3
20011210
350
3FB7
  0
DICTIONARY
  5
C7DFA
102
{ACAD_REACTORS
330
3F95
102
}
330
3F95
100
AcDbDictionary
281
     1
1001
ACAD
1000
<All
  0
DICTIONARY
  5
15B82
102
{ACAD_REACTORS
330
3F95
102
}
330
3F95
100
AcDbDictionary
280
     1
281
     1
  3
ばね
360
B78E5
  3
カム
360
1684E
  3
ケースＡ
360
15B84
  3
ゴム
360
16DE6
  3
スライド樹脂
360
16A9C
  3
フロントプレート
360
16DF0
  3
ラッチガイド
360
16DDE
  3
ラッチボルト
360
B78E4
  0
XRECORD
  5
C49A2
102
{ACAD_REACTORS
330
C49A1
102
}
330
C49A1
100
AcDbXrecord
280
     1
290
     1
  0
SORTENTSTABLE
  5
14054
102
{ACAD_REACTORS
330
8A
102
}
330
8A
100
AcDbSortentsTable
330
1F
331
70A73
  5
71627
331
72FDE
  5
73161
331
DDFCF
  5
DE00A
331
5029B
  5
58164
331
86721
  5
867EC
331
94476
  5
94F38
331
35DDA
  5
6A022
331
DF0E2
  5
DF1E7
331
DE023
  5
DE04B
331
8A013
  5
8A0EA
331
DE00A
  5
DE03A
331
DDECF
  5
DDFC7
331
DED56
  5
DEEEA
331
DED23
  5
DEE94
331
86723
  5
867EE
331
DF0E4
  5
DF221
331
DDFBA
  5
DDFEB
331
DE025
  5
DE04D
331
5808A
  5
5E8F4
331
DDED1
  5
DDFC9
331
92B80
  5
93669
331
DEDB5
  5
DEFB5
331
70A2E
  5
71629
331
DF154
  5
DF32A
331
DF187
  5
DF37E
331
DF0E6
  5
DF2E9
331
DDFBC
  5
DDFEC
331
DEFD2
  5
DF102
331
DDED3
  5
DDFCB
331
2B003
  5
1F6C6
331
DF102
  5
DF2F6
331
DF061
  5
DF187
331
DEF4D
  5
DF0E4
331
92B82
  5
9366A
331
DEDB7
  5
DEFB7
331
C1EB6
  5
C1EB6
331
DDEBC
  5
DDED3
331
DF1C4
  5
DF3BA
331
DF074
  5
DF191
331
86336
  5
86404
331
DEF25
  5
DF0E3
331
DDED5
  5
DDFCD
331
DED97
  5
DEF25
331
C1EB8
  5
C1EB8
331
DDEBE
  5
DDED5
331
DDFD1
  5
DE00C
331
DEECA
  5
DF08C
331
947CE
  5
BBD47
331
DF11D
  5
DF2F7
331
DEE2E
  5
DF049
331
8A3C3
  5
8A49E
331
86338
  5
86406
331
DECF0
  5
DEE5E
331
70F6D
  5
727B3
331
131CF
  5
131CF
331
C1EBA
  5
C1EBA
331
DDEC0
  5
DDF1C
331
DEE5E
  5
DF061
331
36164
  5
411C1
331
DF237
  5
DF3FA
331
8A3C5
  5
8A4A0
331
DEEE5
  5
DF09C
331
CD592
  5
CD85D
331
C1EBC
  5
C1EBC
331
DDEC2
  5
DDFAA
331
92521
  5
930D5
331
50290
  5
58161
331
DF09C
  5
DF1D1
331
DED2F
  5
DEECA
331
DF1DD
  5
DF3BD
331
C1EBE
  5
C1EBE
331
DDEC4
  5
DDFAC
331
DF191
  5
DF39D
331
92523
  5
930D7
331
DDFC6
  5
DDFEE
331
C1EC0
  5
C1EC0
331
DDEC6
  5
DDFAE
331
DED1A
  5
DEE79
331
947D0
  5
BBD69
331
DDFC8
  5
DDFF0
331
DED77
  5
DEEEB
331
50294
  5
58163
331
70A13
  5
7162A
331
94DA8
  5
BD756
331
DF17C
  5
DF35D
331
DF138
  5
DF321
331
C1EC2
  5
C1EC2
331
DEFB6
  5
DF0E6
331
DF056
  5
DF17C
331
DDFCA
  5
DE005
331
DDF1B
  5
DDFCE
331
DEE79
  5
DF074
331
C1EC4
  5
C1EC4
331
DDECA
  5
DDFB1
331
DE005
  5
DE035
331
DF08B
  5
DF1BC
331
DF1D2
  5
DF3BC
331
92761
  5
93667
331
DDFCC
  5
DE007
331
DF177
  5
DF349
331
DE007
  5
DE037
331
DDECC
  5
DDFBC
331
898FF
  5
899C4
331
92763
  5
93668
331
12884
  5
12884
331
DDFCE
  5
DE009
331
DF160
  5
DF336
331
DF049
  5
DF177
331
DF084
  5
DF192
331
DF0B7
  5
DF1D2
331
DED42
  5
DEEE5
331
DEDDA
  5
DF01A
331
DEEEB
  5
DF0D2
331
DF1E7
  5
DF3CB
331
DE009
  5
DE039
331
DDECE
  5
DDFC6
331
2AFFE
  5
1F38D
331
89901
  5
899C6
331
7E32E
  5
7F298
331
94A10
  5
BBD6B
331
DEDB2
  5
DEF4D
331
7E287
  5
7F043
331
DF0E3
  5
DF20E
331
DE024
  5
DE04C
331
DEE06
  5
DF03E
331
DDED0
  5
DDFC8
331
2B000
  5
1F38B
331
94A12
  5
BD5C6
331
DEF06
  5
DF0E2
331
DEE57
  5
DF056
331
DF0E5
  5
DF237
331
DDED2
  5
DDFCA
331
DF025
  5
DF15B
331
DECEB
  5
DEE2E
331
DF20E
  5
DF3D6
331
DEDB6
  5
DEFB6
331
DDEBB
  5
DDED2
331
E11C9
  5
E1613
331
DEE94
  5
DF084
331
DF0E7
  5
DF2F2
331
DDFBD
  5
DDFED
331
DE028
  5
DE04F
331
DF221
  5
DF3DF
331
DDED4
  5
DDFCC
331
DED96
  5
DEF06
331
DEDB8
  5
DEFD2
331
C1EB7
  5
C1EB7
331
DDFD0
  5
DE00B
331
DDEBD
  5
DDED4
331
7E28D
  5
7F042
331
1976C
  5
18F5F
331
2B006
  5
1F38A
331
DF0D2
  5
DF1DD
331
DECEF
  5
DEE57
331
DEDF5
  5
DF025
331
C1EB9
  5
C1EB9
331
DDFD2
  5
DE00D
331
DDEBF
  5
DDF1B
331
89362
  5
89425
331
7E332
  5
7F29F
331
C1EBB
  5
C1EBB
331
DDEC1
  5
DDFA9
331
89364
  5
89427
331
DF15B
  5
DF335
331
DF03E
  5
DF160
331
DED2E
  5
DEEAF
331
C1EBD
  5
C1EBD
331
7E293
  5
61D9F
331
50291
  5
58162
331
1167A
  5
1167A
331
DEDD1
  5
DF001
331
94DA6
  5
BD6CA
331
C1EBF
  5
C1EBF
331
DDEC5
  5
DDFAD
331
7E295
  5
61D9E
331
DF192
  5
DF39E
331
DDFC7
  5
DDFEF
331
DF001
  5
DF138
331
CD597
  5
CD858
331
89B43
  5
89C0F
331
92EFD
  5
9366B
331
C1EC1
  5
C1EC1
331
DDEC7
  5
DDFAF
331
DEFB5
  5
DF0E5
331
DF01A
  5
DF154
331
70A5D
  5
71628
331
DDFC9
  5
DDFF1
331
89B45
  5
89C11
331
92EFF
  5
9366C
331
C1EC3
  5
C1EC3
331
DDEC9
  5
DDFB0
331
DEFB7
  5
DF0E7
331
DECE2
  5
DEE06
331
DF1D1
  5
DF3BB
331
DDFCB
  5
DE006
331
DDF1C
  5
DDFCF
331
7E33C
  5
6A144
331
DEDC6
  5
DEFF6
331
DE006
  5
DE036
331
DDECB
  5
DDFBA
331
DF08C
  5
DF1C4
331
72FDC
  5
7315F
331
DDFCD
  5
DE008
331
94474
  5
94F36
331
DF1BC
  5
DF3B9
331
7E33E
  5
6A143
331
8A011
  5
8A0E8
331
DEEEA
  5
DF0B7
331
DEEAF
  5
DF08B
331
DE008
  5
DE038
331
DDECD
  5
DDFBD
331
DEFF6
  5
DF11D
  0
XRECORD
  5
E442D
102
{ACAD_REACTORS
330
E442C
102
}
330
E442C
100
AcDbXrecord
280
     1
 70
     1
  0
LAYOUT
  5
22
102
{ACAD_REACTORS
330
1A
102
}
330
1A
100
AcDbPlotSettings
  1

  2
Adobe PDF
  4
A3
  6

 40
3.174999952316284
 41
3.174999952316284
 42
3.17498779296875
 43
3.17498779296875
 44
297.0318298339844
 45
420.1583251953125
 46
0.0
 47
1.371553106741458
 48
3936.249396329134
 49
-702.0037883664635
140
4356.249396329134
141
-405.0037883664636
142
1.0
143
1.021735647008087
 70
  3764
 72
     1
 73
     1
 74
     4
  7
monochrome.ctb
 75
     0
147
0.9787267410393917
 76
     1
 77
     2
 78
   300
148
-3936.249396329134
149
702.0037883664635
100
AcDbLayout
  1
Model
 70
     1
 71
     0
 10
0.0
 20
0.0
 11
12.0
 21
9.0
 12
0.0
 22
0.0
 32
0.0
 14
0.0
 24
0.0
 34
0.0
 15
0.0
 25
0.0
 35
0.0
146
0.0
 13
0.0
 23
0.0
 33
0.0
 16
1.0
 26
0.0
 36
0.0
 17
0.0
 27
1.0
 37
0.0
 76
     0
330
1F
331
C4265
1001
ACAD_PSEXT
1000
Adobe PDF
1000
Adobe PDF Converter
1000
My Documents\*.pdf
1000

1070
     0
  0
LAYOUT
  5
1E
102
{ACAD_REACTORS
330
1A
102
}
330
1A
100
AcDbPlotSettings
  1

  2
\\ML370\XEROX
  4
A4
  6

 40
3.174999952316284
 41
3.174999952316284
 42
3.175003051757812
 43
3.17498779296875
 44
209.8674926757813
 45
296.6719970703125
 46
0.0
 47
0.0
 48
0.0
 49
0.0
140
0.0
141
0.0
142
1.0
143
1.0
 70
   688
 72
     1
 73
     1
 74
     5
  7
monochrome.ctb
 75
    16
147
1.0
 76
     0
 77
     2
 78
   300
148
0.0
149
0.0
100
AcDbLayout
  1
ﾚｲｱｳﾄ1
 70
     1
 71
     1
 10
-3.17498779296875
 20
-3.174999952316284
 11
293.4970092773438
 21
206.692492723465
 12
0.0
 22
0.0
 32
0.0
 14
1.000000000000000E+20
 24
1.000000000000000E+20
 34
1.000000000000000E+20
 15
-1.000000000000000E+20
 25
-1.000000000000000E+20
 35
-1.000000000000000E+20
146
0.0
 13
0.0
 23
0.0
 33
0.0
 16
1.0
 26
0.0
 36
0.0
 17
0.0
 27
1.0
 37
0.0
 76
     0
330
1B
331
34B25
  0
LAYOUT
  5
26
102
{ACAD_REACTORS
330
1A
102
}
330
1A
100
AcDbPlotSettings
  1

  2
\\ML370\XEROX
  4

  6

 40
0.0
 41
0.0
 42
0.0
 43
0.0
 44
0.0
 45
0.0
 46
0.0
 47
0.0
 48
0.0
 49
0.0
140
0.0
141
0.0
142
1.0
143
1.0
 70
   688
 72
     0
 73
     0
 74
     5
  7
monochrome.ctb
 75
    16
147
1.0
 76
     0
 77
     2
 78
   300
148
0.0
149
0.0
100
AcDbLayout
  1
ﾚｲｱｳﾄ2
 70
     1
 71
     2
 10
0.0
 20
0.0
 11
12.0
 21
9.0
 12
0.0
 22
0.0
 32
0.0
 14
0.0
 24
0.0
 34
0.0
 15
0.0
 25
0.0
 35
0.0
146
0.0
 13
0.0
 23
0.0
 33
0.0
 16
1.0
 26
0.0
 36
0.0
 17
0.0
 27
1.0
 37
0.0
 76
     0
330
23
  0
MATERIAL
  5
ADEC4
102
{ACAD_XDICTIONARY
360
E4432
102
}
102
{ACAD_REACTORS
330
DE6B
102
}
330
DE6B
100
AcDbMaterial
  1
ByBlock
  0
MATERIAL
  5
ADEC3
102
{ACAD_XDICTIONARY
360
E4430
102
}
102
{ACAD_REACTORS
330
DE6B
102
}
330
DE6B
100
AcDbMaterial
  1
ByLayer
  0
MATERIAL
  5
ADEC5
102
{ACAD_XDICTIONARY
360
E4434
102
}
102
{ACAD_REACTORS
330
DE6B
102
}
330
DE6B
100
AcDbMaterial
  1
Global
  0
MLINESTYLE
  5
18
102
{ACAD_REACTORS
330
17
102
}
330
17
100
AcDbMlineStyle
  2
STANDARD
 70
     0
  3

 62
   256
 51
90.0
 52
90.0
 71
     2
 49
0.5
 62
   256
  6
BYLAYER
 49
-0.5
 62
   256
  6
BYLAYER
  0
PLOTSETTINGS
  5
AF0D4
102
{ACAD_REACTORS
330
19
102
}
330
19
100
AcDbPlotSettings
  1
C00
  2
RICOH imagio Wide 7040e RP-GL/2
  4
A3
  6

 40
5.069416522979736
 41
7.22842264175415
 42
5.238739013671875
 43
7.05908203125
 44
419.9889831542968
 45
296.9683227539062
 46
-5.159586191177368
 47
-7.15959095954895
 48
2852.583709772213
 49
776.3677493254601
140
3272.583709772213
141
1073.36774932546
142
1.0
143
1.0
 70
 11956
 72
     1
 73
     0
 74
     4
  7
monochrome.ctb
 75
    16
147
1.0
 76
     0
 77
     2
 78
   200
148
-2852.583709772213
149
-776.3677493254601
1001
ACAD_PSEXT
1000
RICOH imagio Wide 7040e RP-GL/2
1000
RICOH imagio Wide 7040e RP-GL/2
1000
IP_192.200.51.212
1000
RP-GL/2 Driver (Windows 2000/XP/Server 2003)
1070
     0
  0
ACDBPLACEHOLDER
  5
F
102
{ACAD_REACTORS
330
E
102
}
330
E
  0
TABLESTYLE
  5
FD1E
102
{ACAD_XDICTIONARY
360
E442E
102
}
102
{ACAD_REACTORS
330
FD1D
102
}
330
FD1D
100
AcDbTableStyle
  3
Standard
 70
     0
 71
     0
 40
1.5
 41
1.5
280
     0
281
     0
  7
STANDARD
140
4.5
170
     2
 62
     0
 63
     7
283
     0
274
    -2
284
     1
 64
     0
275
    -2
285
     1
 65
     0
276
    -2
286
     1
 66
     0
277
    -2
287
     1
 67
     0
278
    -2
288
     1
 68
     0
279
    -2
289
     1
 69
     0
  7
STANDARD
140
6.0
170
     5
 62
     0
 63
     7
283
     0
274
    -2
284
     1
 64
     0
275
    -2
285
     1
 65
     0
276
    -2
286
     1
 66
     0
277
    -2
287
     1
 67
     0
278
    -2
288
     1
 68
     0
279
    -2
289
     1
 69
     0
  7
STANDARD
140
4.5
170
     5
 62
     0
 63
     7
283
     0
274
    -2
284
     1
 64
     0
275
    -2
285
     1
 65
     0
276
    -2
286
     1
 66
     0
277
    -2
287
     1
 67
     0
278
    -2
288
     1
 68
     0
279
    -2
289
     1
 69
     0
  0
VISUALSTYLE
  5
ADECC
102
{ACAD_REACTORS
330
ADEC6
102
}
330
ADEC6
100
AcDbVisualStyle
  2
2dWireframe
 70
     4
 71
     0
 72
     2
 73
     0
 90
        0
 40
-0.6
 41
-30.0
 62
     5
 63
     7
421
 16777215
 74
     1
 91
        4
 64
     7
 65
   257
 75
     1
175
     1
 42
1.0
 92
        0
 66
   257
 43
1.0
 76
     1
 77
     6
 78
     2
 67
     7
 79
     5
170
     0
171
     0
290
     0
174
     0
 93
        1
 44
0.0
173
     0
291
     0
 45
0.0
1001
ACAD
1000
AcDbSavedByObjectVersion
1070
     0
  0
VISUALSTYLE
  5
ADECE
102
{ACAD_REACTORS
330
ADEC6
102
}
330
ADEC6
100
AcDbVisualStyle
  2
3D Hidden
 70
     6
 71
     1
 72
     2
 73
     2
 90
        0
 40
-0.6
 41
-30.0
 62
     5
 63
     7
421
 16777215
 74
     2
 91
        2
 64
     7
 65
   257
 75
     2
175
     1
 42
40.0
 92
        0
 66
   257
 43
1.0
 76
     1
 77
     6
 78
     2
 67
     7
 79
     3
170
     0
171
     0
290
     0
174
     0
 93
        1
 44
0.0
173
     0
291
     0
 45
0.0
1001
ACAD
1000
AcDbSavedByObjectVersion
1070
     0
  0
VISUALSTYLE
  5
ADECD
102
{ACAD_REACTORS
330
ADEC6
102
}
330
ADEC6
100
AcDbVisualStyle
  2
3dWireframe
 70
     5
 71
     0
 72
     2
 73
     0
 90
        0
 40
-0.6
 41
-30.0
 62
     5
 63
     7
421
 16777215
 74
     1
 91
        4
 64
     7
 65
   257
 75
     1
175
     1
 42
1.0
 92
        0
 66
   257
 43
1.0
 76
     1
 77
     6
 78
     2
 67
     7
 79
     5
170
     0
171
     0
290
     0
174
     0
 93
        1
 44
0.0
173
     0
291
     0
 45
0.0
1001
ACAD
1000
AcDbSavedByObjectVersion
1070
     0
  0
VISUALSTYLE
  5
ADECB
102
{ACAD_REACTORS
330
ADEC6
102
}
330
ADEC6
100
AcDbVisualStyle
  2
Basic
 70
     7
 71
     1
 72
     0
 73
     1
 90
        0
 40
-0.6
 41
-30.0
 62
     5
 63
     7
421
 16777215
 74
     0
 91
        4
 64
     7
 65
   257
 75
     1
175
     1
 42
1.0
 92
        8
 66
     7
 43
1.0
 76
     1
 77
     6
 78
     2
 67
     7
 79
     5
170
     0
171
     0
290
     0
174
     0
 93
        1
 44
0.0
173
     0
291
     1
 45
0.0
1001
ACAD
1000
AcDbSavedByObjectVersion
1070
     0
  0
VISUALSTYLE
  5
ADED2
102
{ACAD_REACTORS
330
ADEC6
102
}
330
ADEC6
100
AcDbVisualStyle
  2
Brighten
 70
    12
 71
     2
 72
     2
 73
     0
 90
        0
 40
-0.6
 41
-30.0
 62
     5
 63
     7
421
 16777215
 74
     1
 91
        4
 64
     7
 65
   257
 75
     1
175
     1
 42
1.0
 92
        8
 66
     7
 43
1.0
 76
     1
 77
     6
 78
     2
 67
     7
 79
     5
170
     0
171
     0
290
     0
174
     0
 93
        1
 44
50.0
173
     0
291
     1
 45
0.0
1001
ACAD
1000
AcDbSavedByObjectVersion
1070
     0
  0
VISUALSTYLE
  5
ADED6
102
{ACAD_REACTORS
330
ADEC6
102
}
330
ADEC6
100
AcDbVisualStyle
  2
ColorChange
 70
    16
 71
     2
 72
     2
 73
     3
 90
        0
 40
-0.6
 41
-30.0
 62
     5
 63
     8
421
  8421504
 74
     1
 91
        4
 64
     7
 65
   257
 75
     1
175
     1
 42
1.0
 92
        8
 66
     8
424
  8421504
 43
1.0
 76
     1
 77
     6
 78
     2
 67
     7
 79
     5
170
     0
171
     0
290
     0
174
     0
 93
        1
 44
0.0
173
     0
291
     1
 45
0.0
1001
ACAD
1000
AcDbSavedByObjectVersion
1070
     0
  0
VISUALSTYLE
  5
ADECF
102
{ACAD_REACTORS
330
ADEC6
102
}
330
ADEC6
100
AcDbVisualStyle
  2
Conceptual
 70
     9
 71
     3
 72
     2
 73
     0
 90
        0
 40
-0.6
 41
-30.0
 62
     5
 63
     7
421
 16777215
 74
     2
 91
        2
 64
     7
 65
   257
 75
     1
175
     1
 42
40.0
 92
        8
 66
     7
 43
1.0
 76
     1
 77
     6
 78
     2
 67
     7
 79
     3
170
     0
171
     0
290
     0
174
     0
 93
        1
 44
0.0
173
     0
291
     0
 45
0.0
1001
ACAD
1000
AcDbSavedByObjectVersion
1070
     0
  0
VISUALSTYLE
  5
ADED1
102
{ACAD_REACTORS
330
ADEC6
102
}
330
ADEC6
100
AcDbVisualStyle
  2
Dim
 70
    11
 71
     2
 72
     2
 73
     0
 90
        0
 40
-0.6
 41
-30.0
 62
     5
 63
     7
421
 16777215
 74
     1
 91
        4
 64
     7
 65
   257
 75
     1
175
     1
 42
1.0
 92
        8
 66
     7
 43
1.0
 76
     1
 77
     6
 78
     2
 67
     7
 79
     5
170
     0
171
     0
290
     0
174
     0
 93
        1
 44
-50.0
173
     0
291
     1
 45
0.0
1001
ACAD
1000
AcDbSavedByObjectVersion
1070
     0
  0
VISUALSTYLE
  5
ADED5
102
{ACAD_REACTORS
330
ADEC6
102
}
330
ADEC6
100
AcDbVisualStyle
  2
Facepattern
 70
    15
 71
     2
 72
     2
 73
     0
 90
        0
 40
-0.6
 41
-30.0
 62
     5
 63
     7
421
 16777215
 74
     1
 91
        4
 64
     7
 65
   257
 75
     1
175
     1
 42
1.0
 92
        8
 66
     7
 43
1.0
 76
     1
 77
     6
 78
     2
 67
     7
 79
     5
170
     0
171
     0
290
     0
174
     0
 93
        1
 44
0.0
173
     0
291
     1
 45
0.0
1001
ACAD
1000
AcDbSavedByObjectVersion
1070
     0
  0
VISUALSTYLE
  5
ADEC7
102
{ACAD_REACTORS
330
ADEC6
102
}
330
ADEC6
100
AcDbVisualStyle
  2
Flat
 70
     0
 71
     2
 72
     1
 73
     1
 90
        2
 40
-0.6
 41
30.0
 62
     5
 63
     7
421
 16777215
 74
     0
 91
        4
 64
     7
 65
   257
 75
     1
175
     1
 42
1.0
 92
        8
 66
     7
 43
1.0
 76
     1
 77
     6
 78
     2
 67
     7
 79
     5
170
     0
171
     0
290
     0
174
     0
 93
       13
 44
0.0
173
     0
291
     1
 45
0.0
1001
ACAD
1000
AcDbSavedByObjectVersion
1070
     0
  0
VISUALSTYLE
  5
ADEC8
102
{ACAD_REACTORS
330
ADEC6
102
}
330
ADEC6
100
AcDbVisualStyle
  2
FlatWithEdges
 70
     1
 71
     2
 72
     1
 73
     1
 90
        2
 40
-0.6
 41
30.0
 62
     5
 63
     7
421
 16777215
 74
     1
 91
        4
 64
     7
 65
   257
 75
     1
175
     1
 42
1.0
 92
        0
 66
   257
 43
1.0
 76
     1
 77
     6
 78
     2
 67
     7
 79
     5
170
     0
171
     0
290
     0
174
     0
 93
       13
 44
0.0
173
     0
291
     1
 45
0.0
1001
ACAD
1000
AcDbSavedByObjectVersion
1070
     0
  0
VISUALSTYLE
  5
ADEC9
102
{ACAD_REACTORS
330
ADEC6
102
}
330
ADEC6
100
AcDbVisualStyle
  2
Gouraud
 70
     2
 71
     2
 72
     2
 73
     1
 90
        2
 40
-0.6
 41
30.0
 62
     5
 63
     7
421
 16777215
 74
     0
 91
        4
 64
     7
 65
   257
 75
     1
175
     1
 42
1.0
 92
        0
 66
     7
 43
1.0
 76
     1
 77
     6
 78
     2
 67
     7
 79
     5
170
     0
171
     0
290
     0
174
     0
 93
       13
 44
0.0
173
     0
291
     1
 45
0.0
1001
ACAD
1000
AcDbSavedByObjectVersion
1070
     0
  0
VISUALSTYLE
  5
ADECA
102
{ACAD_REACTORS
330
ADEC6
102
}
330
ADEC6
100
AcDbVisualStyle
  2
GouraudWithEdges
 70
     3
 71
     2
 72
     2
 73
     1
 90
        2
 40
-0.6
 41
30.0
 62
     5
 63
     7
421
 16777215
 74
     1
 91
        4
 64
     7
 65
   257
 75
     1
175
     1
 42
1.0
 92
        0
 66
   257
 43
1.0
 76
     1
 77
     6
 78
     2
 67
     7
 79
     5
170
     0
171
     0
290
     0
174
     0
 93
       13
 44
0.0
173
     0
291
     1
 45
0.0
1001
ACAD
1000
AcDbSavedByObjectVersion
1070
     0
  0
VISUALSTYLE
  5
ADED4
102
{ACAD_REACTORS
330
ADEC6
102
}
330
ADEC6
100
AcDbVisualStyle
  2
Linepattern
 70
    14
 71
     2
 72
     2
 73
     0
 90
        0
 40
-0.6
 41
-30.0
 62
     5
 63
     7
421
 16777215
 74
     1
 91
        4
 64
     7
 65
   257
 75
     7
175
     7
 42
1.0
 92
        8
 66
     7
 43
1.0
 76
     1
 77
     6
 78
     2
 67
     7
 79
     5
170
     0
171
     0
290
     0
174
     0
 93
        1
 44
0.0
173
     0
291
     1
 45
0.0
1001
ACAD
1000
AcDbSavedByObjectVersion
1070
     0
  0
VISUALSTYLE
  5
ADED0
102
{ACAD_REACTORS
330
ADEC6
102
}
330
ADEC6
100
AcDbVisualStyle
  2
Realistic
 70
     8
 71
     2
 72
     2
 73
     0
 90
        0
 40
-0.6
 41
-30.0
 62
     5
 63
     7
421
 16777215
 74
     1
 91
        0
 64
     7
 65
   257
 75
     1
175
     1
 42
1.0
 92
        8
 66
     8
424
  7895160
 43
1.0
 76
     1
 77
     6
 78
     2
 67
     7
 79
     5
170
     0
171
     0
290
     0
174
     0
 93
       13
 44
0.0
173
     0
291
     0
 45
0.0
1001
ACAD
1000
AcDbSavedByObjectVersion
1070
     0
  0
VISUALSTYLE
  5
ADED3
102
{ACAD_REACTORS
330
ADEC6
102
}
330
ADEC6
100
AcDbVisualStyle
  2
Thicken
 70
    13
 71
     2
 72
     2
 73
     0
 90
        0
 40
-0.6
 41
-30.0
 62
     5
 63
     7
421
 16777215
 74
     1
 91
        4
 64
     7
 65
   257
 75
     1
175
     1
 42
1.0
 92
       12
 66
     7
 43
1.0
 76
     1
 77
     6
 78
     2
 67
     7
 79
     5
170
     0
171
     0
290
     0
174
     0
 93
        1
 44
0.0
173
     0
291
     1
 45
0.0
1001
ACAD
1000
AcDbSavedByObjectVersion
1070
     0
  0
DICTIONARYVAR
  5
FD8B
102
{ACAD_REACTORS
330
34
102
}
330
34
100
DictionaryVariables
280
     0
  1
STANDARD
  0
DICTIONARYVAR
  5
A10C
102
{ACAD_REACTORS
330
34
102
}
330
34
100
DictionaryVariables
280
     0
  1
1
  0
DICTIONARYVAR
  5
AE2A9
102
{ACAD_REACTORS
330
34
102
}
330
34
100
DictionaryVariables
280
     0
  1
-440.000373;-317.178141
  0
DICTIONARYVAR
  5
35
102
{ACAD_REACTORS
330
34
102
}
330
34
100
DictionaryVariables
280
     0
  1
1
  0
DICTIONARYVAR
  5
194C
102
{ACAD_REACTORS
330
34
102
}
330
34
100
DictionaryVariables
280
     0
  1
96
  0
DICTIONARY
  5
7E8
102
{ACAD_REACTORS
330
47
102
}
330
47
100
AcDbDictionary
281
     1
  0
DICTIONARY
  5
4C
102
{ACAD_REACTORS
330
47
102
}
330
47
100
AcDbDictionary
281
     1
  0
XRECORD
  5
DE78
102
{ACAD_REACTORS
330
47
102
}
330
47
100
AcDbXrecord
280
     1
 90
-1023410169
  0
XRECORD
  5
547D8
102
{ACAD_REACTORS
330
547D7
102
}
330
547D7
100
AcDbXrecord
280
     1
330
0
330
0
330
0
330
0
330
0
330
0
330
0
330
0
330
0
330
0
330
0
330
0
330
0
330
0
330
0
330
0
330
0
330
0
330
0
330
0
330
0
330
0
330
0
330
0
330
0
330
0
330
0
330
0
330
0
330
0
330
0
330
0
330
0
330
0
330
0
330
0
330
0
330
0
330
0
330
0
330
0
330
0
330
0
330
0
330
0
330
0
330
0
330
0
330
0
330
0
330
0
330
0
330
0
330
0
330
0
330
0
330
0
330
0
330
0
330
0
330
0
330
0
330
0
330
0
330
0
330
0
330
0
330
0
330
0
330
0
330
0
330
0
330
0
330
0
330
0
330
0
330
0
330
0
330
0
330
0
330
0
330
0
330
0
330
0
330
0
330
0
330
0
330
0
330
0
330
0
330
0
330
0
330
0
330
0
330
0
330
0
330
0
330
0
330
0
330
0
330
0
330
0
330
0
330
0
330
0
330
0
330
0
330
0
330
0
330
0
330
0
330
0
330
0
330
0
330
0
330
0
330
0
330
0
330
0
330
0
330
0
330
0
330
0
330
0
330
0
330
0
330
0
330
0
330
0
330
0
330
0
330
0
330
0
330
0
330
0
330
0
330
0
330
0
330
0
330
0
330
0
330
0
330
0
330
0
330
0
330
0
330
0
330
0
330
0
330
0
330
0
330
0
330
0
330
0
330
0
330
0
330
0
330
0
330
0
330
0
330
0
330
0
330
0
330
0
330
0
330
0
330
0
330
0
330
0
330
0
330
0
330
0
330
0
330
0
330
0
330
0
330
0
330
0
330
0
330
0
330
0
330
0
330
0
330
0
330
0
330
0
330
0
330
0
330
0
330
0
330
0
330
0
330
0
330
0
330
0
330
0
330
0
330
0
330
0
330
0
330
0
330
0
330
0
330
0
330
0
330
0
330
0
330
0
330
0
330
0
330
0
330
0
330
0
330
0
330
0
330
0
330
0
330
0
330
0
330
0
330
0
330
0
330
0
330
0
330
0
330
0
330
0
330
0
330
0
330
0
330
0
330
0
330
0
330
0
330
0
330
0
330
0
330
0
330
0
330
0
330
0
330
0
330
0
330
0
330
0
330
0
330
0
330
0
330
0
330
0
330
0
330
0
330
0
330
0
330
0
330
0
330
0
330
0
330
0
330
0
330
0
330
0
330
0
330
0
330
0
330
0
330
0
330
0
330
0
330
0
330
0
330
0
330
0
330
0
330
0
330
0
330
0
330
0
330
0
330
0
330
0
330
0
330
0
330
0
330
0
330
0
330
0
330
0
330
0
330
0
330
0
330
0
330
0
330
0
330
0
330
0
330
0
330
0
330
0
330
0
330
0
330
0
330
0
330
0
330
0
330
0
330
0
330
0
330
0
330
0
330
0
330
0
330
0
330
0
330
0
330
0
330
0
330
0
330
0
330
0
330
0
330
0
330
0
330
0
330
0
330
0
330
0
330
0
330
0
330
0
330
0
330
0
330
0
330
0
330
0
330
0
330
0
330
0
330
0
330
0
330
0
330
0
330
0
330
0
330
0
330
0
330
0
330
0
330
0
330
0
330
0
330
0
330
0
330
0
330
0
330
0
330
0
330
0
330
0
330
0
330
0
330
0
330
0
330
0
330
0
330
0
330
0
330
0
330
0
330
0
330
0
330
0
330
0
330
0
330
0
330
0
330
0
330
0
330
0
330
0
330
0
330
0
330
0
330
0
330
0
330
0
330
0
330
0
330
0
330
0
330
0
330
0
330
0
330
0
330
0
330
0
330
0
330
0
330
0
330
0
330
0
330
0
330
0
330
0
330
0
330
0
330
0
330
0
330
0
330
0
330
0
330
0
330
0
330
0
330
0
330
0
330
0
330
0
330
0
330
0
330
0
330
0
330
0
330
0
330
0
330
0
330
0
330
0
330
0
330
0
330
0
330
0
330
0
330
0
330
0
330
0
330
0
330
0
330
0
330
0
330
0
330
0
330
0
330
0
330
0
330
0
330
0
330
0
330
0
330
0
330
0
330
0
330
0
330
0
330
0
330
0
330
0
330
0
330
0
330
0
330
0
330
0
330
0
330
0
330
0
330
0
330
0
330
0
330
0
330
0
330
0
330
0
330
0
330
0
330
0
330
0
330
0
330
0
330
0
330
0
330
0
330
0
330
0
330
0
330
0
330
0
330
0
330
0
330
0
330
0
330
0
330
0
330
0
330
0
330
0
330
0
330
0
330
0
330
0
330
0
330
0
330
0
330
0
330
0
330
0
330
0
330
0
330
0
330
0
330
0
330
0
330
0
330
0
330
0
330
0
330
0
330
0
330
0
330
0
330
0
330
0
330
0
330
0
330
0
330
0
330
0
330
0
330
0
330
0
330
0
330
0
330
0
330
0
330
0
330
0
330
0
330
0
330
0
330
0
330
0
330
0
330
0
330
0
330
0
330
0
330
0
330
0
330
0
330
0
330
0
330
0
330
0
330
0
330
0
330
0
330
0
330
0
330
0
330
0
330
0
330
0
330
0
330
0
330
0
330
0
330
0
330
0
330
0
330
0
330
0
330
0
330
0
330
0
330
0
330
0
330
0
330
0
330
0
330
0
330
0
330
0
330
0
330
0
330
0
330
0
330
0
330
0
330
0
330
0
330
0
330
0
330
0
330
0
330
0
330
0
330
0
330
0
330
0
330
0
330
0
330
0
330
0
330
0
330
0
330
0
330
0
330
0
330
0
330
0
330
0
330
0
330
0
330
0
330
0
330
0
330
0
330
0
330
0
330
0
330
0
330
0
330
0
330
0
330
0
330
0
330
0
330
0
330
0
330
0
330
0
330
0
330
0
330
0
330
0
330
0
330
0
330
0
330
0
330
0
330
0
330
0
330
0
330
0
330
0
330
0
330
0
330
0
330
0
330
0
330
0
330
0
330
0
330
0
330
0
330
0
330
0
330
0
330
0
330
0
330
0
330
0
330
0
330
0
330
0
330
0
330
0
330
0
330
0
330
0
330
0
330
0
330
0
330
0
330
0
330
0
330
0
330
0
330
0
330
0
330
0
330
0
330
0
330
0
330
0
330
0
330
0
330
0
330
0
330
0
330
0
330
0
330
0
330
0
330
0
330
0
330
0
330
0
330
0
330
0
330
0
330
0
330
0
330
0
330
0
330
0
330
0
330
0
330
0
330
0
330
0
330
0
330
0
330
0
330
0
330
0
330
0
330
0
330
0
330
0
330
0
330
0
330
0
330
0
330
0
330
0
330
0
330
0
330
0
330
0
330
0
330
0
330
0
330
0
330
0
330
0
330
0
330
0
330
0
330
0
330
0
330
0
330
0
330
0
330
0
330
0
330
0
330
0
330
0
330
0
330
0
330
0
330
0
330
0
330
0
330
0
330
0
330
0
330
0
330
0
330
0
330
0
330
0
330
0
330
0
330
0
330
0
330
0
330
0
330
0
330
0
330
0
330
0
330
0
330
0
330
0
330
0
330
0
330
0
330
0
330
0
330
0
330
0
330
0
330
0
330
0
330
0
330
0
330
0
330
0
330
0
330
0
330
0
330
0
330
0
330
0
330
0
330
0
330
0
330
0
330
0
330
0
330
0
330
0
330
0
330
0
330
0
330
0
330
0
330
0
330
0
330
0
330
0
330
0
330
0
330
0
330
0
330
0
330
0
330
0
330
0
330
0
330
0
330
0
330
0
330
0
330
0
330
0
330
0
330
0
330
0
330
0
330
0
330
0
330
0
330
0
330
0
330
0
330
0
330
0
330
0
330
0
330
0
330
0
330
0
330
0
330
0
330
0
330
0
330
0
330
0
330
0
330
0
330
0
330
0
330
0
330
0
330
0
330
0
330
0
330
0
330
0
330
0
330
0
330
0
330
0
330
0
330
0
330
0
330
0
330
0
330
0
330
0
330
0
330
0
330
0
330
0
330
0
330
0
330
0
330
0
330
0
330
0
330
0
330
0
330
0
330
0
330
0
330
0
330
0
330
0
330
0
330
0
330
0
330
0
330
0
330
0
330
0
330
0
330
0
330
0
330
0
330
0
330
0
330
0
330
0
330
0
330
0
330
0
330
0
330
0
330
0
330
0
330
0
330
0
330
0
330
0
330
0
330
0
330
0
330
0
330
0
330
0
330
0
330
0
330
0
330
0
330
0
330
0
330
0
330
0
330
0
330
0
330
0
330
0
330
0
330
0
330
0
330
0
330
0
330
0
330
0
330
0
330
0
330
0
330
0
330
0
330
0
330
0
330
0
330
0
330
0
330
0
330
0
330
0
330
0
330
0
330
0
330
0
330
0
330
0
330
0
330
0
330
0
330
0
330
0
330
0
330
0
330
0
330
0
330
0
330
0
330
0
330
0
330
0
330
0
330
0
330
0
330
0
330
0
330
0
330
0
330
0
330
0
330
0
330
0
330
0
330
0
330
0
330
0
330
0
330
0
330
0
330
0
330
0
330
0
330
0
330
0
330
0
330
0
330
0
330
0
330
0
330
0
330
0
330
0
330
0
330
0
330
0
330
0
330
0
330
0
330
0
330
0
330
0
330
0
330
0
330
0
330
0
330
0
330
0
330
0
330
0
330
0
330
0
330
0
330
0
330
0
330
0
330
0
330
0
330
0
330
0
330
0
330
0
330
0
330
0
330
0
330
0
330
0
330
0
330
0
330
0
330
0
330
0
330
0
330
0
330
0
330
0
330
0
330
0
330
0
330
0
330
0
330
0
330
0
330
0
330
0
330
0
330
0
330
0
330
0
330
0
330
0
330
0
330
0
330
0
330
0
330
0
330
0
330
0
330
0
330
0
330
0
330
0
330
0
330
0
330
0
330
0
330
0
330
0
330
0
330
0
330
0
330
0
330
0
330
0
330
0
330
0
330
0
330
0
330
0
330
0
330
0
330
0
330
0
330
0
330
0
330
0
330
0
330
0
330
0
330
0
330
0
330
0
330
0
330
0
330
0
330
0
330
0
330
0
330
0
330
0
330
0
330
0
330
0
330
0
330
0
330
0
330
0
330
0
330
0
330
0
330
0
330
0
330
0
330
0
330
0
330
0
330
0
330
0
330
0
330
0
330
0
330
0
330
0
330
0
330
0
330
0
330
0
330
0
330
0
330
0
330
0
330
0
330
0
330
0
330
0
330
0
330
0
330
0
330
0
330
0
330
0
330
0
330
0
330
0
330
0
330
0
330
0
330
0
330
0
330
0
330
0
330
0
330
0
330
0
330
0
330
0
330
0
330
0
330
0
330
0
330
0
330
0
330
0
330
0
330
0
330
0
330
0
330
0
330
0
330
0
330
0
330
0
330
0
330
0
330
0
330
0
330
0
330
0
330
0
330
0
330
0
330
0
330
0
330
0
330
0
330
0
330
0
330
0
330
0
330
0
330
0
330
0
330
0
330
0
330
0
330
0
330
0
330
0
330
0
330
0
330
0
330
0
330
0
330
0
330
0
330
0
330
0
330
0
330
0
330
0
330
0
330
0
330
0
330
0
330
0
330
0
330
0
330
0
330
0
330
0
330
0
330
0
330
0
330
0
330
0
330
0
330
0
330
0
330
0
330
0
330
0
330
0
330
0
330
0
330
0
330
0
330
0
330
0
330
0
330
0
330
0
330
0
330
0
330
0
330
0
330
0
330
0
330
0
330
0
330
0
330
0
330
0
330
0
330
0
330
0
330
0
330
0
330
0
330
0
330
0
330
0
330
0
330
0
330
0
330
0
330
0
330
0
330
0
330
0
330
0
330
0
330
0
330
0
330
0
330
0
330
0
330
0
330
0
330
0
330
0
330
0
330
0
330
0
330
0
330
0
330
0
330
0
330
0
330
0
330
0
330
0
330
0
330
0
330
0
330
0
330
0
330
0
330
0
330
0
330
0
330
0
330
0
330
0
330
0
330
0
330
0
330
0
330
0
330
0
330
0
330
0
330
0
330
0
330
0
330
0
330
0
330
0
330
0
330
0
330
0
330
0
330
0
330
0
330
0
330
0
330
0
330
0
330
0
330
0
330
0
330
0
330
0
330
0
330
0
330
0
330
0
330
0
330
0
330
0
330
0
330
0
330
0
330
0
330
0
330
0
330
0
330
0
330
0
330
0
330
0
330
0
330
0
330
0
330
0
330
0
330
0
330
0
330
0
330
0
330
0
330
0
330
0
330
0
330
0
330
0
330
0
330
0
330
0
330
0
330
0
330
0
330
0
330
0
330
0
330
0
330
0
330
0
330
0
330
0
330
0
330
0
330
0
330
0
330
0
330
0
330
0
330
0
330
0
330
0
330
0
330
0
330
0
330
0
330
0
330
0
330
0
330
0
330
0
330
0
330
0
330
0
330
0
330
0
330
0
330
0
330
0
330
0
330
0
330
0
330
0
330
0
330
0
330
0
330
0
330
0
330
0
330
0
330
0
330
0
330
0
330
0
330
0
330
0
330
0
330
0
330
0
330
0
330
0
330
0
330
0
330
0
330
0
330
0
330
0
330
0
330
0
330
0
330
0
330
0
330
0
330
0
330
0
330
0
330
0
330
0
330
0
330
0
330
0
330
0
330
0
330
0
330
0
330
0
330
0
330
0
330
0
330
0
330
0
330
0
330
0
330
0
330
0
330
0
330
0
330
0
330
0
330
0
330
0
330
0
330
0
330
0
330
0
330
0
330
0
330
0
330
0
330
0
330
0
330
0
330
0
330
0
330
0
330
0
330
0
330
0
330
0
330
0
330
0
330
0
330
0
330
0
330
0
330
0
330
0
330
0
330
0
330
0
330
0
330
0
330
0
330
0
330
0
330
0
330
0
330
0
330
0
330
0
330
0
330
0
330
0
330
0
330
0
330
0
330
0
330
0
330
0
330
0
330
0
330
0
330
0
330
0
330
0
330
0
330
0
330
0
330
0
330
0
330
0
330
0
330
0
330
0
330
0
330
0
330
0
330
0
330
0
330
0
330
0
330
0
330
0
330
0
330
0
330
0
330
0
330
0
330
0
330
0
330
0
330
0
330
0
330
0
330
0
330
0
330
0
330
0
330
0
330
0
330
0
330
0
330
0
330
0
330
0
330
0
330
0
330
0
330
0
330
0
330
0
330
0
330
0
330
0
330
0
330
0
330
0
330
0
330
0
330
0
330
0
330
0
330
0
330
0
330
0
330
0
330
0
330
0
330
0
330
0
330
0
330
0
330
0
330
0
330
0
330
0
330
0
330
0
330
0
330
0
330
0
330
0
330
0
330
0
330
0
330
0
330
0
330
0
330
0
330
0
330
0
330
0
330
0
330
0
330
0
330
0
330
0
330
0
330
0
330
0
330
0
330
0
330
0
330
0
330
0
330
0
330
0
330
0
330
0
330
0
330
0
330
0
330
0
330
0
330
0
330
0
330
0
330
0
330
0
330
0
330
0
330
0
330
0
330
0
330
0
330
0
330
0
330
0
330
0
330
0
330
0
330
0
330
0
330
0
330
0
330
0
330
0
330
0
330
0
330
0
330
0
330
0
330
0
330
0
330
0
330
0
330
0
330
0
330
0
330
0
330
0
330
0
330
0
330
0
330
0
330
0
330
0
330
0
330
0
330
0
330
0
330
0
330
0
330
0
330
0
330
0
330
0
330
0
330
0
330
0
330
0
330
0
330
0
330
0
330
0
330
0
330
0
330
0
330
0
330
0
330
0
330
0
330
0
330
0
330
0
330
0
330
0
330
0
330
0
330
0
330
0
330
0
330
0
330
0
330
0
330
0
330
0
330
0
330
0
330
0
330
0
330
0
330
0
330
0
330
0
330
0
330
0
330
0
330
0
330
0
330
0
330
0
330
0
330
0
330
0
330
0
330
0
330
0
330
0
330
0
330
0
330
0
330
0
330
0
330
0
330
0
330
0
  0
XRECORD
  5
3FB7
102
{ACAD_REACTORS
330
3F96
102
}
330
3F96
100
AcDbXrecord
280
     1
 91
        3
330
A47
 90
        8
 62
     7
370
    40
331
16
  1
Color_7
330
A46
 90
        0
 62
    14
370
    -3
331
16
  1
Color_14
330
0
 90
        8
 62
     7
370
    20
331
16
  1
Color_7
330
6D1
 90
        0
 62
     7
370
    -3
331
16
  1
Color_7
330
0
 90
        8
 62
     7
370
    50
331
16
  1
Color_7
330
A48
 90
        8
 62
     2
370
    35
331
16
  1
Color_2
330
0
 90
        8
 62
     7
370
    -3
331
16
  1
Color_7
330
10
 90
        8
 62
     7
370
    -3
331
16
  1
Color_7
  0
XRECORD
  5
B78E5
102
{ACAD_REACTORS
330
15B82
102
}
330
15B82
100
AcDbXrecord
280
     1
 90
-1023410046
  0
XRECORD
  5
1684E
102
{ACAD_REACTORS
330
15B82
102
}
330
15B82
100
AcDbXrecord
280
     1
 90
-1023410016
  0
XRECORD
  5
15B84
102
{ACAD_REACTORS
330
15B82
102
}
330
15B82
100
AcDbXrecord
280
     1
 90
-1023410146
  0
XRECORD
  5
16DE6
102
{ACAD_REACTORS
330
15B82
102
}
330
15B82
100
AcDbXrecord
280
     1
 90
-1023410006
  0
XRECORD
  5
16A9C
102
{ACAD_REACTORS
330
15B82
102
}
330
15B82
100
AcDbXrecord
280
     1
 90
-1023410051
  0
XRECORD
  5
16DF0
102
{ACAD_REACTORS
330
15B82
102
}
330
15B82
100
AcDbXrecord
280
     1
 90
-1023410126
  0
XRECORD
  5
16DDE
102
{ACAD_REACTORS
330
15B82
102
}
330
15B82
100
AcDbXrecord
280
     1
 90
-1023409966
  0
XRECORD
  5
B78E4
102
{ACAD_REACTORS
330
15B82
102
}
330
15B82
100
AcDbXrecord
280
     1
 90
-1023410076
  0
DICTIONARY
  5
E4432
330
ADEC4
100
AcDbDictionary
280
     1
281
     1
  3
ACAD_XREC_ROUNDTRIP
360
E4433
  0
DICTIONARY
  5
E4430
330
ADEC3
100
AcDbDictionary
280
     1
281
     1
  3
ACAD_XREC_ROUNDTRIP
360
E4431
  0
DICTIONARY
  5
E4434
330
ADEC5
100
AcDbDictionary
280
     1
281
     1
  3
ACAD_XREC_ROUNDTRIP
360
E4435
  0
DICTIONARY
  5
E442E
330
FD1E
100
AcDbDictionary
280
     1
281
     1
  3
ACAD_XREC_ROUNDTRIP
360
E442F
  0
XRECORD
  5
E4433
102
{ACAD_REACTORS
330
E4432
102
}
330
E4432
100
AcDbXrecord
280
     1
102
MATERIAL
148
0.0
149
0.0
149
0.0
 93
        0
 94
       63
282
     0
 72
     1
 77
     1
171
     1
175
     1
179
     1
273
     0
  0
XRECORD
  5
E4431
102
{ACAD_REACTORS
330
E4430
102
}
330
E4430
100
AcDbXrecord
280
     1
102
MATERIAL
148
0.0
149
0.0
149
0.0
 93
        0
 94
       63
282
     0
 72
     1
 77
     1
171
     1
175
     1
179
     1
273
     0
  0
XRECORD
  5
E4435
102
{ACAD_REACTORS
330
E4434
102
}
330
E4434
100
AcDbXrecord
280
     1
102
MATERIAL
148
0.0
149
0.0
149
0.0
 93
        0
 94
       63
282
     0
 72
     1
 77
     1
171
     1
175
     1
179
     1
273
     0
  0
XRECORD
  5
E442F
102
{ACAD_REACTORS
330
E442E
102
}
330
E442E
100
AcDbXrecord
280
     1
102
ACAD_ROUNDTRIP_PRE2007_TABLESTYLE
 90
        4
 91
        0
  1

 92
        4
 93
        0
  2

 94
        4
 95
        0
  3

  0
ENDSEC
  0
EOF
