  0
SECTION
  2
HEADER
  9
$ACADVER
  1
AC1015
  9
$ACADMAINTVER
 70
    20
  9
$DWGCODEPAGE
  3
ANSI_932
  9
$INSBASE
 10
0.0
 20
0.0
 30
0.0
  9
$EXTMIN
 10
3656.865518464835
 20
2849.827887761449
 30
-0.0015258207003583
  9
$EXTMAX
 10
4254.602232868571
 20
3122.92795100792
 30
0.0000000349246037
  9
$LIMMIN
 10
1700.85588156276
 20
1647.985052086429
  9
$LIMMAX
 10
1997.85588156276
 20
1857.985052086429
  9
$ORTHOMODE
 70
     0
  9
$REGENMODE
 70
     1
  9
$FILLMODE
 70
     1
  9
$QTEXTMODE
 70
     0
  9
$MIRRTEXT
 70
     0
  9
$LTSCALE
 40
1.0
  9
$ATTMODE
 70
     1
  9
$TEXTSIZE
 40
3.2
  9
$TRACEWID
 40
1.0
  9
$TEXTSTYLE
  7
STANDARD
  9
$CLAYER
  8
AM_0
  9
$CELTYPE
  6
ByLayer
  9
$CECOLOR
 62
   256
  9
$CELTSCALE
 40
1.0
  9
$DISPSILH
 70
     0
  9
$DIMSCALE
 40
1.0
  9
$DIMASZ
 40
1.0
  9
$DIMEXO
 40
1.0
  9
$DIMDLI
 40
10.0
  9
$DIMRND
 40
0.0
  9
$DIMDLE
 40
0.0
  9
$DIMEXE
 40
1.0
  9
$DIMTP
 40
0.1
  9
$DIMTM
 40
0.1
  9
$DIMTXT
 40
3.5
  9
$DIMCEN
 40
0.0
  9
$DIMTSZ
 40
0.0
  9
$DIMTOL
 70
     0
  9
$DIMLIM
 70
     0
  9
$DIMTIH
 70
     0
  9
$DIMTOH
 70
     0
  9
$DIMSE1
 70
     0
  9
$DIMSE2
 70
     0
  9
$DIMTAD
 70
     1
  9
$DIMZIN
 70
     8
  9
$DIMBLK
  1

  9
$DIMASO
 70
     1
  9
$DIMSHO
 70
     1
  9
$DIMPOST
  1

  9
$DIMAPOST
  1
"
  9
$DIMALT
 70
     0
  9
$DIMALTD
 70
     2
  9
$DIMALTF
 40
0.0393701
  9
$DIMLFAC
 40
1.0
  9
$DIMTOFL
 70
     1
  9
$DIMTVP
 40
0.0
  9
$DIMTIX
 70
     0
  9
$DIMSOXD
 70
     0
  9
$DIMSAH
 70
     0
  9
$DIMBLK1
  1

  9
$DIMBLK2
  1

  9
$DIMSTYLE
  2
SYS
  9
$DIMCLRD
 70
   256
  9
$DIMCLRE
 70
   256
  9
$DIMCLRT
 70
     7
  9
$DIMTFAC
 40
0.71
  9
$DIMGAP
 40
1.5
  9
$DIMJUST
 70
     0
  9
$DIMSD1
 70
     0
  9
$DIMSD2
 70
     0
  9
$DIMTOLJ
 70
     0
  9
$DIMTZIN
 70
     8
  9
$DIMALTZ
 70
     0
  9
$DIMALTTZ
 70
     0
  9
$DIMUPT
 70
     0
  9
$DIMDEC
 70
     2
  9
$DIMTDEC
 70
     2
  9
$DIMALTU
 70
     2
  9
$DIMALTTD
 70
     2
  9
$DIMTXSTY
  7
STANDARD
  9
$DIMAUNIT
 70
     0
  9
$DIMADEC
 70
     0
  9
$DIMALTRND
 40
0.0
  9
$DIMAZIN
 70
     2
  9
$DIMDSEP
 70
    46
  9
$DIMATFIT
 70
     3
  9
$DIMFRAC
 70
     0
  9
$DIMLDRBLK
  1

  9
$DIMLUNIT
 70
     2
  9
$DIMLWD
 70
    -1
  9
$DIMLWE
 70
    -1
  9
$DIMTMOVE
 70
     0
  9
$LUNITS
 70
     2
  9
$LUPREC
 70
     2
  9
$SKETCHINC
 40
1.0
  9
$FILLETRAD
 40
1.0
  9
$AUNITS
 70
     0
  9
$AUPREC
 70
     0
  9
$MENU
  1
.
  9
$ELEVATION
 40
0.0
  9
$PELEVATION
 40
0.0
  9
$THICKNESS
 40
0.0
  9
$LIMCHECK
 70
     0
  9
$CHAMFERA
 40
0.0
  9
$CHAMFERB
 40
0.0
  9
$CHAMFERC
 40
20.0
  9
$CHAMFERD
 40
0.0
  9
$SKPOLY
 70
     0
  9
$TDCREATE
 40
2454613.707706887
  9
$TDUCREATE
 40
2454613.332706887
  9
$TDUPDATE
 40
2454614.589952616
  9
$TDUUPDATE
 40
2454614.214952616
  9
$TDINDWG
 40
0.0283054861
  9
$TDUSRTIMER
 40
0.0283053009
  9
$USRTIMER
 70
     1
  9
$ANGBASE
 50
0.0
  9
$ANGDIR
 70
     0
  9
$PDMODE
 70
     0
  9
$PDSIZE
 40
-3.0
  9
$PLINEWID
 40
0.0
  9
$SPLFRAME
 70
     0
  9
$SPLINETYPE
 70
     6
  9
$SPLINESEGS
 70
     8
  9
$HANDSEED
  5
C8D8
  9
$SURFTAB1
 70
     6
  9
$SURFTAB2
 70
     6
  9
$SURFTYPE
 70
     6
  9
$SURFU
 70
     6
  9
$SURFV
 70
     6
  9
$UCSBASE
  2

  9
$UCSNAME
  2

  9
$UCSORG
 10
0.0
 20
0.0
 30
0.0
  9
$UCSXDIR
 10
1.0
 20
0.0
 30
0.0
  9
$UCSYDIR
 10
0.0
 20
1.0
 30
0.0
  9
$UCSORTHOREF
  2

  9
$UCSORTHOVIEW
 70
     0
  9
$UCSORGTOP
 10
0.0
 20
0.0
 30
0.0
  9
$UCSORGBOTTOM
 10
0.0
 20
0.0
 30
0.0
  9
$UCSORGLEFT
 10
0.0
 20
0.0
 30
0.0
  9
$UCSORGRIGHT
 10
0.0
 20
0.0
 30
0.0
  9
$UCSORGFRONT
 10
0.0
 20
0.0
 30
0.0
  9
$UCSORGBACK
 10
0.0
 20
0.0
 30
0.0
  9
$PUCSBASE
  2

  9
$PUCSNAME
  2

  9
$PUCSORG
 10
0.0
 20
0.0
 30
0.0
  9
$PUCSXDIR
 10
1.0
 20
0.0
 30
0.0
  9
$PUCSYDIR
 10
0.0
 20
1.0
 30
0.0
  9
$PUCSORTHOREF
  2

  9
$PUCSORTHOVIEW
 70
     0
  9
$PUCSORGTOP
 10
0.0
 20
0.0
 30
0.0
  9
$PUCSORGBOTTOM
 10
0.0
 20
0.0
 30
0.0
  9
$PUCSORGLEFT
 10
0.0
 20
0.0
 30
0.0
  9
$PUCSORGRIGHT
 10
0.0
 20
0.0
 30
0.0
  9
$PUCSORGFRONT
 10
0.0
 20
0.0
 30
0.0
  9
$PUCSORGBACK
 10
0.0
 20
0.0
 30
0.0
  9
$USERI1
 70
     0
  9
$USERI2
 70
     0
  9
$USERI3
 70
     0
  9
$USERI4
 70
     0
  9
$USERI5
 70
     0
  9
$USERR1
 40
0.0
  9
$USERR2
 40
0.0
  9
$USERR3
 40
0.0
  9
$USERR4
 40
0.0
  9
$USERR5
 40
0.0
  9
$WORLDVIEW
 70
     1
  9
$SHADEDGE
 70
     3
  9
$SHADEDIF
 70
    70
  9
$TILEMODE
 70
     1
  9
$MAXACTVP
 70
    64
  9
$PINSBASE
 10
0.0
 20
0.0
 30
0.0
  9
$PLIMCHECK
 70
     0
  9
$PEXTMIN
 10
1.000000000000000E+20
 20
1.000000000000000E+20
 30
1.000000000000000E+20
  9
$PEXTMAX
 10
-1.000000000000000E+20
 20
-1.000000000000000E+20
 30
-1.000000000000000E+20
  9
$PLIMMIN
 10
-3.17498779296875
 20
-3.174999952316284
  9
$PLIMMAX
 10
293.4970092773438
 20
206.692492723465
  9
$UNITMODE
 70
     0
  9
$VISRETAIN
 70
     1
  9
$PLINEGEN
 70
     0
  9
$PSLTSCALE
 70
     1
  9
$TREEDEPTH
 70
  3020
  9
$CMLSTYLE
  2
Standard
  9
$CMLJUST
 70
     0
  9
$CMLSCALE
 40
20.0
  9
$PROXYGRAPHICS
 70
     1
  9
$MEASUREMENT
 70
     1
  9
$CELWEIGHT
370
    -1
  9
$ENDCAPS
280
     0
  9
$JOINSTYLE
280
     0
  9
$LWDISPLAY
290
     0
  9
$INSUNITS
 70
     4
  9
$HYPERLINKBASE
  1

  9
$STYLESHEET
  1
monochrome.ctb
  9
$XEDIT
290
     1
  9
$CEPSNTYPE
380
     0
  9
$PSTYLEMODE
290
     1
  9
$FINGERPRINTGUID
  2
{8B0B8C40-F9CC-4809-9D8B-FAA6153120C6}
  9
$VERSIONGUID
  2
{2CB4D99F-3AEE-4C59-9057-40A189BC6C3A}
  9
$EXTNAMES
290
     1
  9
$PSVPSCALE
 40
0.0
  9
$OLESTARTUP
290
     0
  0
ENDSEC
  0
SECTION
  2
CLASSES
  0
CLASS
  1
ACDBDICTIONARYWDFLT
  2
AcDbDictionaryWithDefault
  3
ObjectDBX Classes
 90
        0
280
     0
281
     0
  0
CLASS
  1
ACDBPLACEHOLDER
  2
AcDbPlaceHolder
  3
ObjectDBX Classes
 90
        0
280
     0
281
     0
  0
CLASS
  1
LAYOUT
  2
AcDbLayout
  3
ObjectDBX Classes
 90
        0
280
     0
281
     0
  0
CLASS
  1
AMGSETTINGSOBJ
  2
AmgSettingsObj
  3
"AcadM|Product Description: AutoCAD Mechanical|Company: Autodesk"
 90
        0
280
     0
281
     0
  0
CLASS
  1
ACME_DOCUMENT
  2
AcMeDbDoc
  3
AcMeServices
 90
        0
280
     0
281
     0
  0
CLASS
  1
ACMESCOPE
  2
AcMeScope
  3
AcMeServices
 90
        0
280
     0
281
     0
  0
CLASS
  1
ACMECOMMANDHISTORY
  2
AcMeCommandHistory
  3
AcMeServices
 90
        0
280
     0
281
     0
  0
CLASS
  1
DICTIONARYVAR
  2
AcDbDictionaryVar
  3
ObjectDBX Classes
 90
        0
280
     0
281
     0
  0
CLASS
  1
ACIMSYSVARMAN
  2
AcImSysVarManager
  3
AcMeServices
 90
        0
280
     0
281
     0
  0
CLASS
  1
ACIMREALSYSVAR
  2
AcImRealSysVar
  3
AcMeServices
 90
        0
280
     0
281
     0
  0
CLASS
  1
ACIMINTSYSVAR
  2
AcImIntSysVar
  3
AcMeServices
 90
        0
280
     0
281
     0
  0
CLASS
  1
ACMEDRAWINGMAN
  2
AcMeDrawingMan
  3
AcMeServices
 90
        0
280
     0
281
     0
  0
CLASS
  1
ACMEVIEW
  2
AcMeView
  3
AcMeServices
 90
        0
280
     0
281
     0
  0
CLASS
  1
ACDBENTITYCACHE
  2
AcMeEntityCache
  3
AcMeServices
 90
        0
280
     0
281
     0
  0
CLASS
  1
GSMANAGER
  2
AcMeGSManager
  3
AcMeServices
 90
        0
280
     0
281
     0
  0
CLASS
  1
AMDTINTERNALREACTOR
  2
AmdtInternalReactor
  3
AcMeServices
 90
        0
280
     0
281
     0
  0
CLASS
  1
ACMESTATEMGR
  2
AcMeStateMgr
  3
AcMeServices
 90
        0
280
     0
281
     0
  0
CLASS
  1
ACGREFMASTER
  2
AcGrefMaster
  3
AcAttribServices
 90
        0
280
     0
281
     0
  0
CLASS
  1
ACME_DATABASE
  2
AcMeDbDatabase
  3
AcMeServices
 90
        0
280
     0
281
     0
  0
CLASS
  1
ACRFINSADJUSTERMGR
  2
AcRfInsAdjusterMgr
  3
AcMeServices
 90
        0
280
     0
281
     0
  0
CLASS
  1
ACGREFACADMASTER
  2
AcGrefacadMaster
  3
AcGrefServices
 90
        0
280
     0
281
     0
  0
CLASS
  1
AMIMASTER
  2
AmiMaster
  3
AmiServices
 90
        0
280
     0
281
     0
  0
CLASS
  1
ACMDATADICTIONARY
  2
AcmDataDictionary
  3
"AcmSymBB|Product Description: AutoCAD Mechanical|Company: Autodesk"
 90
        0
280
     0
281
     0
  0
CLASS
  1
ACMDATAENTRYBLOCK
  2
AcmDataEntryBlock
  3
"AcmSymBB|Product Description: AutoCAD Mechanical|Company: Autodesk"
 90
        0
280
     0
281
     0
  0
CLASS
  1
ACIMSTRSYSVAR
  2
AcImStrSysVar
  3
AcMeServices
 90
        0
280
     0
281
     0
  0
CLASS
  1
ACMSTANDARDISO
  2
AcmStandardISO
  3
"Amdt_StdImp|Product Description: AutoCAD Mechanical|Company: Autodesk"
 90
        0
280
     0
281
     0
  0
CLASS
  1
AMGOBJPROPCFG
  2
AmgObjPropCfg
  3
"AmgLay|Product Description: AutoCAD Mechanical|Company: Autodesk"
 90
        1
280
     0
281
     0
  0
CLASS
  1
AMDTEDGESTANDARDISO
  2
AmdtEdgeStdISO
  3
"Amdt_StdImp|Product Description: AutoCAD Mechanical|Company: Autodesk"
 90
        0
280
     0
281
     0
  0
CLASS
  1
ACMSURFSTANDARDISO
  2
AcmSurfTextStdISO
  3
"Amdt_StdImp|Product Description: AutoCAD Mechanical|Company: Autodesk"
 90
        0
280
     0
281
     0
  0
CLASS
  1
ACMFCFSTANDARDISO
  2
AcmFCFStdISO
  3
"Amdt_StdImp|Product Description: AutoCAD Mechanical|Company: Autodesk"
 90
        0
280
     0
281
     0
  0
CLASS
  1
ACMWELDSTANDARDISO
  2
AcmWeldingStdISO
  3
"Amdt_StdImp|Product Description: AutoCAD Mechanical|Company: Autodesk"
 90
        0
280
     0
281
     0
  0
CLASS
  1
ACMIDSTANDARDISO
  2
AcmIdStdISO
  3
"Amdt_StdImp|Product Description: AutoCAD Mechanical|Company: Autodesk"
 90
        0
280
     0
281
     0
  0
CLASS
  1
ACMDATUMSTANDARDISO
  2
AcmDatumStdISO
  3
"Amdt_StdImp|Product Description: AutoCAD Mechanical|Company: Autodesk"
 90
        0
280
     0
281
     0
  0
CLASS
  1
ACMBOMSTANDARDISO
  2
AcmBOMStdISO
  3
"Amdt_StdImp|Product Description: AutoCAD Mechanical|Company: Autodesk"
 90
        0
280
     0
281
     0
  0
CLASS
  1
ACMDETAILSTANDARDISO
  2
AmdtDetailSymStdISO
  3
"Amdt_StdImp|Product Description: AutoCAD Mechanical|Company: Autodesk"
 90
        0
280
     0
281
     0
  0
CLASS
  1
ACMSECTIONSTANDARDISO
  2
AmdtSectionSymStdISO
  3
"Amdt_StdImp|Product Description: AutoCAD Mechanical|Company: Autodesk"
 90
        0
280
     0
281
     0
  0
CLASS
  1
ACMCENTERLINESTANDARDISO
  2
AmdtCenterLineStdISO
  3
"Amdt_StdImp|Product Description: AutoCAD Mechanical|Company: Autodesk"
 90
        0
280
     0
281
     0
  0
CLASS
  1
ACAMGLAYSTD
  2
AcAmgLayStd
  3
"AmgLay|Product Description: AutoCAD Mechanical|Company: Autodesk"
 90
        0
280
     0
281
     0
  0
CLASS
  1
ACAMGDIMSTD
  2
AcAmgDimStd
  3
"AmgDim|Product Description: AutoCAD Mechanical|Company: Autodesk"
 90
        0
280
     0
281
     0
  0
CLASS
  1
ACAMGTITLESTD
  2
AcAmgTitleStd
  3
"AmgTitle|Product Description: AutoCAD Mechanical|Company: Autodesk"
 90
        0
280
     0
281
     0
  0
CLASS
  1
ACAMGFILTERDAT
  2
AcAmgFilterDat
  3
"AcadM|Product Description: AutoCAD Mechanical|Company: Autodesk"
 90
        0
280
     0
281
     0
  0
CLASS
  1
LAYER_INDEX
  2
AcDbLayerIndex
  3
ObjectDBX Classes
 90
    32768
280
     0
281
     0
  0
CLASS
  1
IDBUFFER
  2
AcDbIdBuffer
  3
ObjectDBX Classes
 90
    32768
280
     0
281
     0
  0
CLASS
  1
PLOTSETTINGS
  2
AcDbPlotSettings
  3
ObjectDBX Classes
 90
    32768
280
     0
281
     0
  0
CLASS
  1
AMDTFORMULAUPDATEDISPATCHER
  2
AmdtFormulaUpdateDispatcher
  3
AcMeServices
 90
        0
280
     0
281
     0
  0
CLASS
  1
ACMSTANDARDANSI
  2
AcmStandardANSI
  3
"Amdt_StdImp|Product Description: AutoCAD Mechanical|Company: Autodesk"
 90
        0
280
     0
281
     0
  0
CLASS
  1
ACMSURFSTANDARDANSI
  2
AcmSurfTextStdANSI
  3
"Amdt_StdImp|Product Description: AutoCAD Mechanical|Company: Autodesk"
 90
        0
280
     0
281
     0
  0
CLASS
  1
ACMFCFSTANDARDANSI
  2
AcmFCFStdANSI
  3
"Amdt_StdImp|Product Description: AutoCAD Mechanical|Company: Autodesk"
 90
        0
280
     0
281
     0
  0
CLASS
  1
ACMWELDSTANDARDANSI
  2
AcmWeldingStdANSI
  3
"Amdt_StdImp|Product Description: AutoCAD Mechanical|Company: Autodesk"
 90
        0
280
     0
281
     0
  0
CLASS
  1
ACMIDSTANDARDANSI
  2
AcmIdStdANSI
  3
"Amdt_StdImp|Product Description: AutoCAD Mechanical|Company: Autodesk"
 90
        0
280
     0
281
     0
  0
CLASS
  1
ACMDATUMSTANDARDANSI
  2
AcmDatumStdANSI
  3
"Amdt_StdImp|Product Description: AutoCAD Mechanical|Company: Autodesk"
 90
        0
280
     0
281
     0
  0
CLASS
  1
ACMBOMSTANDARDANSI
  2
AcmBOMStdANSI
  3
"Amdt_StdImp|Product Description: AutoCAD Mechanical|Company: Autodesk"
 90
        0
280
     0
281
     0
  0
CLASS
  1
ACMDETAILSTANDARDANSI
  2
AmdtDetailSymStdANSI
  3
"Amdt_StdImp|Product Description: AutoCAD Mechanical|Company: Autodesk"
 90
        0
280
     0
281
     0
  0
CLASS
  1
ACMSECTIONSTANDARDANSI
  2
AmdtSectionSymStdANSI
  3
"Amdt_StdImp|Product Description: AutoCAD Mechanical|Company: Autodesk"
 90
        0
280
     0
281
     0
  0
CLASS
  1
ACMCENTERLINESTANDARDANSI
  2
AmdtCenterLineStdANSI
  3
"Amdt_StdImp|Product Description: AutoCAD Mechanical|Company: Autodesk"
 90
        0
280
     0
281
     0
  0
CLASS
  1
ACMBOM
  2
AcmBom
  3
"AcmSymBB|Product Description: AutoCAD Mechanical|Company: Autodesk"
 90
        0
280
     0
281
     0
  0
CLASS
  1
ACMDATAENTRYPART
  2
AcmDataEntryPart
  3
"AcmSymBB|Product Description: AutoCAD Mechanical|Company: Autodesk"
 90
    32768
280
     0
281
     0
  0
CLASS
  1
ACMPARTREF
  2
AcmPartRef
  3
"AcmSymBB|Product Description: AutoCAD Mechanical|Company: Autodesk"
 90
    35839
280
     0
281
     1
  0
CLASS
  1
ACDBCIRCARCRES
  2
AcDbCircArcRes
  3
AcGrefServices
 90
    32768
280
     0
281
     0
  0
CLASS
  1
ACMBOMROW
  2
AcmBomRow
  3
"AcmSymBB|Product Description: AutoCAD Mechanical|Company: Autodesk"
 90
    32768
280
     0
281
     0
  0
CLASS
  1
ACMBALLOON
  2
AcmBalloon
  3
"AcmSymBB|Product Description: AutoCAD Mechanical|Company: Autodesk"
 90
    35839
280
     0
281
     1
  0
CLASS
  1
AMDTNOTE
  2
AmdtNote
  3
"AcmSymBB|Product Description: AutoCAD Mechanical|Company: Autodesk"
 90
    35839
280
     0
281
     1
  0
CLASS
  1
STDPART2D
  2
AmgStdPart
  3
"g3vace|Class: AmgStdPart|Product Description: AutoCAD Mechanical|Company: Autodesk"
 90
    35839
280
     0
281
     1
  0
CLASS
  1
ACDBSTDPARTRES_LINE
  2
AcDbStdPartRes_Line
  3
"g3vace|Class: AcDbStdPartRes_Line|Product Description: AutoCAD Mechanical|Company: Autodesk"
 90
    32768
280
     0
281
     0
  0
CLASS
  1
ACMDATAENTRY
  2
AcmDataEntry
  3
"AcmSymBB|Product Description: AutoCAD Mechanical|Company: Autodesk"
 90
        0
280
     0
281
     0
  0
CLASS
  1
ACDBOPPOLYLINERES
  2
AcDbOpPolylineRes
  3
AcGrefServices
 90
    32768
280
     0
281
     0
  0
CLASS
  1
ACMPARTLIST
  2
AcmPartList
  3
"AcmSymBB|Product Description: AutoCAD Mechanical|Company: Autodesk"
 90
    35839
280
     0
281
     1
  0
CLASS
  1
ACDBLINERES
  2
AcDbLineRes
  3
AcGrefServices
 90
    32768
280
     0
281
     0
  0
CLASS
  1
ACRFINSADJ
  2
AcRfInsAdjuster
  3
AcMeServices
 90
    32768
280
     0
281
     0
  0
CLASS
  1
AM_DRAWING_MGR
  2
AcDmDwgMgr
  3
AcMechDwgViewMgmt
 90
        0
280
     0
281
     0
  0
CLASS
  1
AM_DWG_DOCUMENT
  2
AcDmDwgDocument
  3
AcMechDwgViewMgmt
 90
        0
280
     0
281
     0
  0
CLASS
  1
AM_DWG_SHEET
  2
AcDmSheet
  3
AcMechDwgViewMgmt
 90
        0
280
     0
281
     0
  0
CLASS
  1
AM_VIEWDIMPARMAP
  2
AcDmViewDimParMap
  3
AcMechDwgViewMgmt
 90
        0
280
     0
281
     0
  0
CLASS
  1
AM_DWGMGR_NAME
  2
AcDmDwgMgrName
  3
AcMechDwgViewMgmt
 90
        0
280
     0
281
     0
  0
CLASS
  1
AMDTMENUSTATEMGR
  2
AmdtMenuStateMgr
  3
McadcomServices
 90
        0
280
     0
281
     0
  0
CLASS
  1
AMDTMCOMMENUSTATE
  2
AmdtMcomMenuState
  3
McadcomServices
 90
        0
280
     0
281
     0
  0
CLASS
  1
ASAPP
  2
AcAsAppObject
  3
AutoSurfServices
 90
        0
280
     0
281
     0
  0
CLASS
  1
IM_STATIC_MAN
  2
AcImStaticVarManager
  3
AcMeServices
 90
        0
280
     0
281
     0
  0
CLASS
  1
ACIMDBLSTATICVAR
  2
AcImDblStaticVar
  3
AcMeServices
 90
        0
280
     0
281
     0
  0
CLASS
  1
ACIMSTRSTATICVAR
  2
AcImStrStaticVar
  3
AcMeServices
 90
        0
280
     0
281
     0
  0
CLASS
  1
ACIMINTSTATICVAR
  2
AcImIntStaticVar
  3
AcMeServices
 90
        0
280
     0
281
     0
  0
CLASS
  1
ACASGREFMASTER
  2
AcAsGrefMaster
  3
AutoSurfResolverServices
 90
        0
280
     0
281
     0
  0
CLASS
  1
ACADGREFMODULE
  2
AcAdGrefModule
  3
AdGrefServices
 90
        0
280
     0
281
     0
  0
CLASS
  1
AMDTMAPISURFMOUDULE
  2
AmdtMApiSurfModule
  3
MApiSurfServices
 90
        0
280
     0
281
     0
  0
CLASS
  1
MAPIAMMOUDLE
  2
MApiAmModule
  3
MApiAmServices
 90
        0
280
     0
281
     0
  0
CLASS
  1
AMDTADMENUSTATE
  2
AmdtAdMenuState
  3
DesignerServices
 90
        0
280
     0
281
     0
  0
CLASS
  1
ADAPPL
  2
AcAdAppl
  3
DesignerServices
 90
        0
280
     0
281
     0
  0
CLASS
  1
DEPMGR
  2
AcAdDepMgr
  3
DesignerServices
 90
        0
280
     0
281
     0
  0
CLASS
  1
PARAMMGR
  2
AcAdParamMgr
  3
DesignerServices
 90
        0
280
     0
281
     0
  0
CLASS
  1
PARAMSCOPE
  2
AcAdParamScope
  3
DesignerServices
 90
        0
280
     0
281
     0
  0
CLASS
  1
NAMEDAPPL
  2
AcAdNamedAppl
  3
DesignerServices
 90
        0
280
     0
281
     0
  0
CLASS
  1
ADHNTMPLT
  2
AdHoleNoteTemplateMgr
  3
DesignerServices
 90
    32768
280
     0
281
     0
  0
CLASS
  1
AM_HNTEMPLATE_MGR_NAME
  2
AdHoleNoteTemplateMgrName
  3
DesignerServices
 90
    32768
280
     0
281
     0
  0
CLASS
  1
AMDTDMMENUSTATE
  2
AmdtDmMenuState
  3
AcMechDwgViewMgmt
 90
        0
280
     0
281
     0
  0
CLASS
  1
MAPIADMODULE
  2
MApiAdModule
  3
MApiAdServices
 90
        0
280
     0
281
     0
  0
CLASS
  1
AMDTAMMENUSTATE
  2
AmdtAmMenuState
  3
DesignerAssemblies
 90
        0
280
     0
281
     0
  0
CLASS
  1
ACAMPROJECT
  2
AcAmProject
  3
DesignerAssemblies
 90
        0
280
     0
281
     0
  0
CLASS
  1
ACAMGRCOMPDEF
  2
AcAmGrCompDef
  3
DesignerAssemblies
 90
        0
280
     0
281
     0
  0
CLASS
  1
ACCMCONTEXT
  2
AcCmContext
  3
DesignerAssemblies
 90
        0
280
     0
281
     0
  0
CLASS
  1
ACAMCOMPDEF
  2
AcAmCompDef
  3
DesignerAssemblies
 90
        0
280
     0
281
     0
  0
CLASS
  1
ACAMCOMPDEFMGR
  2
AcAmCompDefMgr
  3
DesignerAssemblies
 90
        0
280
     0
281
     0
  0
CLASS
  1
AMCONTEXTMGR
  2
AcAmContextMgr
  3
DesignerAssemblies
 90
        0
280
     0
281
     0
  0
CLASS
  1
ACAMCONTEXTMODELER
  2
AcAmContextModeler
  3
DesignerAssemblies
 90
        0
280
     0
281
     0
  0
CLASS
  1
CATALOGSTATE
  2
AcAmCatalogState
  3
DesignerAssemblies
 90
        0
280
     0
281
     0
  0
CLASS
  1
ACAMGRCOMPDEFSET
  2
AcAmGrCompDefSet
  3
DesignerAssemblies
 90
        0
280
     0
281
     0
  0
CLASS
  1
AMDTBROWSERDBTAB
  2
AmdtBrowserDbTab
  3
McadcomServices
 90
        0
280
     0
281
     0
  0
CLASS
  1
CBROWSERAPPOBJECT
  2
CBrowserAppObject
  3
McadcomServices
 90
        0
280
     0
281
     0
  0
CLASS
  1
DM_PLACEHOLDER
  2
AcDmSelsetPlaceholder
  3
AcMechDwgViewMgmt
 90
        0
280
     0
281
     0
  0
CLASS
  1
ACMPICKOBJ
  2
AcmPickEnt
  3
"AcmSymBB|Product Description: AutoCAD Mechanical|Company: Autodesk"
 90
    32768
280
     0
281
     1
  0
CLASS
  1
ACMNOTESTANDARDISO
  2
AmdtNoteStdISO
  3
"Amdt_StdImp|Product Description: AutoCAD Mechanical|Company: Autodesk"
 90
        0
280
     0
281
     0
  0
CLASS
  1
ACMNOTESTANDARDANSI
  2
AmdtNoteStdANSI
  3
"Amdt_StdImp|Product Description: AutoCAD Mechanical|Company: Autodesk"
 90
        0
280
     0
281
     0
  0
CLASS
  1
ACMTHREADLINESTANDARDISO
  2
AmdtThreadLineStdISO
  3
"Amdt_StdImp|Product Description: AutoCAD Mechanical|Company: Autodesk"
 90
        0
280
     0
281
     0
  0
CLASS
  1
ACMTHREADLINESTANDARDANSI
  2
AmdtThreadLineStdANSI
  3
"Amdt_StdImp|Product Description: AutoCAD Mechanical|Company: Autodesk"
 90
        0
280
     0
281
     0
  0
CLASS
  1
TABLESTYLE
  2
AcDbTableStyle
  3
ObjectDBX Classes
 90
     4095
280
     0
281
     0
  0
CLASS
  1
SORTENTSTABLE
  2
AcDbSortentsTable
  3
ObjectDBX Classes
 90
        0
280
     0
281
     0
  0
CLASS
  1
MATERIAL
  2
AcDbMaterial
  3
ObjectDBX Classes
 90
     1024
280
     0
281
     0
  0
CLASS
  1
VISUALSTYLE
  2
AcDbVisualStyle
  3
ObjectDBX Classes
 90
     4095
280
     0
281
     0
  0
CLASS
  1
ACRFATTGENMGR
  2
AcRfAttGeneralMgr
  3
AcAttribServices
 90
        0
280
     0
281
     0
  0
CLASS
  1
ACRFOBJATTMGR
  2
AcRfObjAttGroupMgr
  3
AcAttribServices
 90
        0
280
     0
281
     0
  0
CLASS
  1
ACRFMCADAPIATTHOLDER
  2
AcRfMCADAPIAttHolder
  3
AcAttribServices
 90
        0
280
     0
281
     0
  0
CLASS
  1
AMDTSYSATTR
  2
AmdtSystemAttribute
  3
AcAttribServices
 90
        0
280
     0
281
     0
  0
CLASS
  1
ACMTAPERSTANDARDISO
  2
AcmTaperStdISO
  3
"Amdt_StdImp|Product Description: AutoCAD Mechanical|Company: Autodesk"
 90
        0
280
     0
281
     0
  0
CLASS
  1
CAMSSTRUCTBTNSTATE
  2
StructBtnState
  3
L"DesignerAssemblies"
 90
        0
280
     0
281
     0
  0
CLASS
  1
DIMASSOC
  2
AcDbDimAssoc
  3
"AcDbDimAssoc|Product Desc:     AcDim ARX App For Dimension|Company:          Autodesk, Inc.|WEB Address:      www.autodesk.com"
 90
    32768
280
     0
281
     0
  0
CLASS
  1
AMDTNOTETEMPLATEDB
  2
AmdtNoteTemplateDB
  3
AMDT_STDIMP_MODULE_NAME
 90
        0
280
     0
281
     0
  0
CLASS
  1
ACMTAPERSTANDARDANSI
  2
AcmTaperStdANSI
  3
"Amdt_StdImp|Product Description: AutoCAD Mechanical|Company: Autodesk"
 90
        0
280
     0
281
     0
  0
CLASS
  1
ACAMGHOLECHARTSTDANSI
  2
AcAmgHoleChartStdANSI
  3
ACMSYMBB_MODULE_NAME
 90
        0
280
     0
281
     0
  0
ENDSEC
  0
SECTION
  2
TABLES
  0
TABLE
  2
VPORT
  5
8
330
0
100
AcDbSymbolTable
 70
     1
  0
VPORT
  5
B0EC
330
8
100
AcDbSymbolTableRecord
100
AcDbViewportTableRecord
  2
*Active
 70
     0
 10
0.0
 20
0.0
 11
1.0
 21
1.0
 12
3861.032889852257
 22
2981.09326603948
 13
0.0
 23
0.0
 14
2.5
 24
2.5
 15
10.0
 25
10.0
 16
0.0
 26
0.0
 36
1.0
 17
0.0
 27
0.0
 37
0.0
 40
318.7848032896712
 41
1.718510405257393
 42
50.0
 43
-1370.695619172058
 44
-1370.695619172058
 50
0.0
 51
0.0
 71
    16
 72
   100
 73
     1
 74
     3
 75
     0
 76
     0
 77
     0
 78
     0
281
     0
 65
     0
110
0.0
120
0.0
130
0.0
111
1.0
121
0.0
131
0.0
112
0.0
122
1.0
132
0.0
 79
     0
146
0.0
  0
ENDTAB
  0
TABLE
  2
LTYPE
  5
5
330
0
100
AcDbSymbolTable
 70
    32
  0
LTYPE
  5
14
330
5
100
AcDbSymbolTableRecord
100
AcDbLinetypeTableRecord
  2
ByBlock
 70
     0
  3

 72
    65
 73
     0
 40
0.0
  0
LTYPE
  5
15
330
5
100
AcDbSymbolTableRecord
100
AcDbLinetypeTableRecord
  2
ByLayer
 70
     0
  3

 72
    65
 73
     0
 40
0.0
  0
LTYPE
  5
16
330
5
100
AcDbSymbolTableRecord
100
AcDbLinetypeTableRecord
  2
Continuous
 70
     0
  3
Solid line
 72
    65
 73
     0
 40
0.0
  0
LTYPE
  5
4F
330
5
100
AcDbSymbolTableRecord
100
AcDbLinetypeTableRecord
  2
AM_ISO02W050
 70
     0
  3
__ __ __ __ __ __ __ __ __ __ __ __ __ __ __
 72
    65
 73
     2
 40
7.5
 49
6.0
 74
     0
 49
-1.5
 74
     0
  0
LTYPE
  5
52
330
5
100
AcDbSymbolTableRecord
100
AcDbLinetypeTableRecord
  2
Amconstr
 70
     0
  3
_______________________
 72
    65
 73
     2
 40
9999.0
 49
9999.0
 74
     0
 49
0.0
 74
     0
  0
LTYPE
  5
64
330
5
100
AcDbSymbolTableRecord
100
AcDbLinetypeTableRecord
  2
ACISOWELD
 70
     0
  3
_ _ _ _ _
 72
    65
 73
     2
 40
2.0
 49
2.0
 74
     0
 49
-1.0
 74
     0
  0
LTYPE
  5
65
330
5
100
AcDbSymbolTableRecord
100
AcDbLinetypeTableRecord
  2
ACISOTGB
 70
     0
  3
__ . . __ . .
 72
    65
 73
     6
 40
9.0
 49
4.0
 74
     0
 49
-1.0
 74
     0
 49
1.0
 74
     0
 49
-1.0
 74
     0
 49
1.0
 74
     0
 49
-1.0
 74
     0
  0
LTYPE
  5
66
330
5
100
AcDbSymbolTableRecord
100
AcDbLinetypeTableRecord
  2
ACISOTGL
 70
     0
  3
_ _ _ _ _
 72
    65
 73
     2
 40
3.0
 49
2.0
 74
     0
 49
-1.0
 74
     0
  0
LTYPE
  5
69
330
5
100
AcDbSymbolTableRecord
100
AcDbLinetypeTableRecord
  2
CENTER
 70
     0
  3
__ . __
 72
    65
 73
     4
 40
7.0
 49
4.0
 74
     0
 49
-1.0
 74
     0
 49
1.0
 74
     0
 49
-1.0
 74
     0
  0
LTYPE
  5
A6E
330
5
100
AcDbSymbolTableRecord
100
AcDbLinetypeTableRecord
  2
PHANTOM2
 70
     0
  3
Phantom (.5x) ___ _ _ ___ _ _ ___ _ _ ___ _ _
 72
    65
 73
     6
 40
31.75
 49
15.875
 74
     0
 49
-3.174999999999999
 74
     0
 49
3.174999999999999
 74
     0
 49
-3.174999999999999
 74
     0
 49
3.174999999999999
 74
     0
 49
-3.174999999999999
 74
     0
  0
LTYPE
  5
4DED
330
5
100
AcDbSymbolTableRecord
100
AcDbLinetypeTableRecord
  2
中線
 70
     0
  3
___________________
 72
    65
 73
     2
 40
2.0
 49
1.0
 74
     0
 49
1.0
 74
     0
  0
LTYPE
  5
4DF6
330
5
100
AcDbSymbolTableRecord
100
AcDbLinetypeTableRecord
  2
細線
 70
     0
  3
___________________
 72
    65
 73
     2
 40
2.0
 49
1.0
 74
     0
 49
1.0
 74
     0
  0
LTYPE
  5
4DF7
330
5
100
AcDbSymbolTableRecord
100
AcDbLinetypeTableRecord
  2
太線
 70
     0
  3
___________________
 72
    65
 73
     2
 40
2.0
 49
1.0
 74
     0
 49
1.0
 74
     0
  0
LTYPE
  5
4EA7
330
5
100
AcDbSymbolTableRecord
100
AcDbLinetypeTableRecord
  2
文字
 70
     0
  3
_________________
 72
    65
 73
     2
 40
2.0
 49
1.0
 74
     0
 49
1.0
 74
     0
  0
LTYPE
  5
4EA9
330
5
100
AcDbSymbolTableRecord
100
AcDbLinetypeTableRecord
  2
寸法線
 70
     0
  3
________________
 72
    65
 73
     2
 40
2.0
 49
1.0
 74
     0
 49
1.0
 74
     0
  0
LTYPE
  5
4F12
330
5
100
AcDbSymbolTableRecord
100
AcDbLinetypeTableRecord
  2
ハッチング
 70
     0
  3
_________________
 72
    65
 73
     2
 40
2.0
 49
1.0
 74
     0
 49
1.0
 74
     0
  0
LTYPE
  5
5180
330
5
100
AcDbSymbolTableRecord
100
AcDbLinetypeTableRecord
  2
陰線1
 70
     0
  3
__ __ __ __
 72
    65
 73
     2
 40
4.0
 49
2.2
 74
     0
 49
-1.8
 74
     0
  0
LTYPE
  5
5182
330
5
100
AcDbSymbolTableRecord
100
AcDbLinetypeTableRecord
  2
切断線
 70
     0
  3
/\/-/\/-/\/-/\/-/\/-/\/
 72
    65
 73
     2
 40
11.0001
 49
0.0001
 74
     4
 75
   135
340
56
 46
0.04
 50
0.0
 44
0.0
 45
0.0
 49
-11.0
 74
     0
  0
LTYPE
  5
5183
330
5
100
AcDbSymbolTableRecord
100
AcDbLinetypeTableRecord
  2
想像線1
 70
     0
  3
__ __ __ _____ __ __ ____
 72
    65
 73
     6
 40
14.5
 49
6.0
 74
     0
 49
-1.5
 74
     0
 49
2.0
 74
     0
 49
-1.5
 74
     0
 49
2.0
 74
     0
 49
-1.5
 74
     0
  0
LTYPE
  5
5185
330
5
100
AcDbSymbolTableRecord
100
AcDbLinetypeTableRecord
  2
中心線1
 70
     0
  3
___ _ ___ _ ___
 72
    65
 73
     4
 40
18.0
 49
12.0
 74
     0
 49
-2.0
 74
     0
 49
2.0
 74
     0
 49
-2.0
 74
     0
  0
LTYPE
  5
5188
330
5
100
AcDbSymbolTableRecord
100
AcDbLinetypeTableRecord
  2
補助線
 70
     0
  3
______________
 72
    65
 73
     2
 40
2.0
 49
1.0
 74
     0
 49
1.0
 74
     0
  0
LTYPE
  5
6427
330
5
100
AcDbSymbolTableRecord
100
AcDbLinetypeTableRecord
  2
HIDDEN
 70
     0
  3
Hidden __ __ __ __ __ __ __ __ __ __ __ __ __ _
 72
    65
 73
     2
 40
0.375
 49
0.25
 74
     0
 49
-0.125
 74
     0
  0
LTYPE
  5
AC81
330
5
100
AcDbSymbolTableRecord
100
AcDbLinetypeTableRecord
  2
破断線
 70
     0
  3
/\/-/\/-/\/-/\/-/\/-/\/
 72
    65
 73
     2
 40
0.4401
 49
0.0001
 74
     4
 75
   136
340
AC80
 46
0.0016
 50
0.0
 44
0.0
 45
0.0
 49
-0.4400000000000001
 74
     0
  0
LTYPE
  5
AC9E
330
5
100
AcDbSymbolTableRecord
100
AcDbLinetypeTableRecord
  2
Amzigzag
 70
     0
  3
/\/-/\/-/\/-/\/-/\/-/\/
 72
    65
 73
     2
 40
11.0001
 49
0.0001
 74
     4
 75
   135
340
56
 46
0.04
 50
0.0
 44
0.0
 45
0.0
 49
-11.0
 74
     0
  0
LTYPE
  5
AF0F
330
5
100
AcDbSymbolTableRecord
100
AcDbLinetypeTableRecord
  2
genzigzag
 70
     0
  3
/\/-/\/-/\/-/\/-/\/-/\/
 72
    65
 73
     2
 40
12.0001
 49
0.0001
 74
     4
 75
   135
340
AC80
 46
2.0
 50
0.0
 44
0.0
 45
0.0
 49
-12.0
 74
     0
  0
LTYPE
  5
AF95
330
5
100
AcDbSymbolTableRecord
100
AcDbLinetypeTableRecord
  2
AM_ISO08W050
 70
     0
  3
____ . ____ . ____ . ____ . ____ . ____ . ____
 72
    65
 73
     4
 40
18.0
 49
12.0
 74
     0
 49
-1.5
 74
     0
 49
3.0
 74
     0
 49
-1.5
 74
     0
  0
LTYPE
  5
AF96
330
5
100
AcDbSymbolTableRecord
100
AcDbLinetypeTableRecord
  2
AM_ISO09W050
 70
     0
  3
_____ . . _____ . . _____ . . ____ .. ____
 72
    65
 73
     6
 40
22.5
 49
12.0
 74
     0
 49
-1.5
 74
     0
 49
3.0
 74
     0
 49
-1.5
 74
     0
 49
3.0
 74
     0
 49
-1.5
 74
     0
  0
LTYPE
  5
AF97
330
5
100
AcDbSymbolTableRecord
100
AcDbLinetypeTableRecord
  2
AM_ISO08W050x2
 70
     0
  3
__ . __ . __ . __ . __ . __
 72
    65
 73
     4
 40
9.0
 49
6.0
 74
     0
 49
-0.75
 74
     0
 49
1.5
 74
     0
 49
-0.75
 74
     0
  0
LTYPE
  5
AF98
330
5
100
AcDbSymbolTableRecord
100
AcDbLinetypeTableRecord
  2
AM_ISO02W050x2
 70
     0
  3
 _ _ _ _ _ _ _ _ _ _ _ _
 72
    65
 73
     2
 40
3.75
 49
3.0
 74
     0
 49
-0.75
 74
     0
  0
LTYPE
  5
B46A
330
5
100
AcDbSymbolTableRecord
100
AcDbLinetypeTableRecord
  2
CENTER2
 70
     0
  3
Center (.5x) ___ _ ___ _ ___ _ ___ _ ___ _ ___
 72
    65
 73
     4
 40
1.125
 49
0.75
 74
     0
 49
-0.125
 74
     0
 49
0.125
 74
     0
 49
-0.125
 74
     0
  0
LTYPE
  5
B46B
330
5
100
AcDbSymbolTableRecord
100
AcDbLinetypeTableRecord
  2
HIDDEN2
 70
     0
  3
Hidden (.5x) _ _ _ _ _ _ _ _ _ _ _ _ _ _ _ _ _
 72
    65
 73
     2
 40
0.1875
 49
0.125
 74
     0
 49
-0.0625
 74
     0
  0
LTYPE
  5
B46C
330
5
100
AcDbSymbolTableRecord
100
AcDbLinetypeTableRecord
  2
Amzigzag2
 70
     0
  3
/\/-/\/-/\/-/\/-/\/-/\/
 72
    65
 73
     2
 40
0.4401
 49
0.0001
 74
     4
 75
   136
340
AC80
 46
0.0016
 50
0.0
 44
0.0
 45
0.0
 49
-0.4400000000000001
 74
     0
  0
LTYPE
  5
B46D
330
5
100
AcDbSymbolTableRecord
100
AcDbLinetypeTableRecord
  2
ACANSTGB
 70
     0
  3
__ . . __ . .
 72
    65
 73
     6
 40
0.35433070866
 49
0.15748031496
 74
     0
 49
-0.03937007874
 74
     0
 49
0.03937007874
 74
     0
 49
-0.03937007874
 74
     0
 49
0.03937007874
 74
     0
 49
-0.03937007874
 74
     0
  0
LTYPE
  5
B46E
330
5
100
AcDbSymbolTableRecord
100
AcDbLinetypeTableRecord
  2
ACANSTGL
 70
     0
  3
_ _ _ _ _
 72
    65
 73
     2
 40
0.11811023622
 49
0.07874015748
 74
     0
 49
-0.03937007874
 74
     0
  0
ENDTAB
  0
TABLE
  2
LAYER
  5
2
102
{ACAD_XDICTIONARY
360
3F95
102
}
330
0
100
AcDbSymbolTable
 70
    21
  0
LAYER
  5
10
330
2
100
AcDbSymbolTableRecord
100
AcDbLayerTableRecord
  2
0
 70
     0
 62
     7
  6
Continuous
370
    -3
390
F
  0
LAYER
  5
6D1
330
2
100
AcDbSymbolTableRecord
100
AcDbLayerTableRecord
  2
Defpoints
 70
     0
 62
     7
  6
Continuous
290
     0
370
    -3
390
F
  0
LAYER
  5
5F85
330
2
100
AcDbSymbolTableRecord
100
AcDbLayerTableRecord
  2
AM_0
 70
     0
 62
     7
  6
中線
370
    25
390
F
1001
AcAecLayerStandard
1000

1000

  0
LAYER
  5
AC9F
330
2
100
AcDbSymbolTableRecord
100
AcDbLayerTableRecord
  2
size
 70
     0
 62
     5
  6
Continuous
290
     0
370
    25
390
F
  0
LAYER
  5
ACA0
330
2
100
AcDbSymbolTableRecord
100
AcDbLayerTableRecord
  2
waku
 70
     0
 62
     7
  6
Continuous
370
    35
390
F
  0
LAYER
  5
ACA1
330
2
100
AcDbSymbolTableRecord
100
AcDbLayerTableRecord
  2
AM_6
 70
     0
 62
     2
  6
文字
370
    15
390
F
1001
AcAecLayerStandard
1000

1000

  0
LAYER
  5
ACC8
330
2
100
AcDbSymbolTableRecord
100
AcDbLayerTableRecord
  2
hyomoji
 70
     0
 62
     2
  6
Continuous
370
    15
390
F
  0
LAYER
  5
ACC9
330
2
100
AcDbSymbolTableRecord
100
AcDbLayerTableRecord
  2
hyosen1
 70
     0
 62
     1
  6
Continuous
370
    25
390
F
  0
LAYER
  5
ACCA
330
2
100
AcDbSymbolTableRecord
100
AcDbLayerTableRecord
  2
hyosen2
 70
     0
 62
     1
  6
Continuous
370
    15
390
F
  0
LAYER
  5
AD60
330
2
100
AcDbSymbolTableRecord
100
AcDbLayerTableRecord
  2
AM_1
 70
     0
 62
    30
  6
太線
370
    35
390
F
1001
AcAecLayerStandard
1000

1000

  0
LAYER
  5
AD64
330
2
100
AcDbSymbolTableRecord
100
AcDbLayerTableRecord
  2
AM_2
 70
     0
 62
     1
  6
細線
370
    15
390
F
1001
AcAecLayerStandard
1000

1000

  0
LAYER
  5
AD67
330
2
100
AcDbSymbolTableRecord
100
AcDbLayerTableRecord
  2
AM_3
 70
     0
 62
     6
  6
陰線1
370
    15
390
F
1001
AcAecLayerStandard
1000

1000

  0
LAYER
  5
AD68
330
2
100
AcDbSymbolTableRecord
100
AcDbLayerTableRecord
  2
AM_5
 70
     0
 62
     3
  6
寸法線
370
    15
390
F
1001
AcAecLayerStandard
1000

1000

  0
LAYER
  5
AD69
330
2
100
AcDbSymbolTableRecord
100
AcDbLayerTableRecord
  2
AM_7
 70
     0
 62
     4
  6
中心線1
370
    15
390
F
1001
AcAecLayerStandard
1000

1000

  0
LAYER
  5
AD6A
330
2
100
AcDbSymbolTableRecord
100
AcDbLayerTableRecord
  2
AM_8
 70
     0
 62
     1
  6
ハッチング
370
    15
390
F
1001
AcAecLayerStandard
1000

1000

  0
LAYER
  5
AD6E
330
2
100
AcDbSymbolTableRecord
100
AcDbLayerTableRecord
  2
AM_10
 70
     0
 62
     7
  6
切断線
370
    25
390
F
1001
AcAecLayerStandard
1000

1000

  0
LAYER
  5
AD6F
330
2
100
AcDbSymbolTableRecord
100
AcDbLayerTableRecord
  2
AM_11
 70
     0
 62
     2
  6
想像線1
370
    15
390
F
1001
AcAecLayerStandard
1000

1000

  0
LAYER
  5
B1B6
330
2
100
AcDbSymbolTableRecord
100
AcDbLayerTableRecord
  2
AM_CL
 70
     0
 62
     1
  6
Amconstr
370
    15
390
F
1001
AcAecLayerStandard
1000

1000

  0
LAYER
  5
B2EB
330
2
100
AcDbSymbolTableRecord
100
AcDbLayerTableRecord
  2
AM_14
 70
     0
 62
     5
  6
細線
370
     9
390
F
1001
AcAecLayerStandard
1000

1000

  0
LAYER
  5
B2EC
330
2
100
AcDbSymbolTableRecord
100
AcDbLayerTableRecord
  2
AM_15
 70
     0
 62
     6
  6
陰線1
370
     9
390
F
1001
AcAecLayerStandard
1000

1000

  0
LAYER
  5
BB9D
330
2
100
AcDbSymbolTableRecord
100
AcDbLayerTableRecord
  2
PV0001_1
 70
     0
 62
     7
  6
Continuous
370
    -3
390
F
  0
ENDTAB
  0
TABLE
  2
STYLE
  5
3
330
0
100
AcDbSymbolTable
 70
     9
  0
STYLE
  5
11
330
3
100
AcDbSymbolTableRecord
100
AcDbTextStyleTableRecord
  2
STANDARD
 70
     0
 40
0.0
 41
0.7
 50
0.0
 71
     0
 42
3.2
  3
romans.shx
  4
extfont.shx
  0
STYLE
  5
56
330
3
100
AcDbSymbolTableRecord
100
AcDbTextStyleTableRecord
  2

 70
     1
 40
0.0
 41
1.0
 50
0.0
 71
     0
 42
2.5
  3
ltypeshp.shx
  4

  0
STYLE
  5
58
330
3
100
AcDbSymbolTableRecord
100
AcDbTextStyleTableRecord
  2
ACISOTS
 70
     0
 40
1.0
 41
1.0
 50
0.0
 71
     0
 42
2.5
  3
isocp.shx
  4
extfont.shx
  0
STYLE
  5
63
330
3
100
AcDbSymbolTableRecord
100
AcDbTextStyleTableRecord
  2
ACISOGDT
 70
     0
 40
0.0
 41
1.0
 50
0.0
 71
     0
 42
2.5
  3
amgdt.shx
  4

  0
STYLE
  5
A74
330
3
100
AcDbSymbolTableRecord
100
AcDbTextStyleTableRecord
  2
DIM
 70
     0
 40
0.0
 41
1.0
 50
0.0
 71
     0
 42
2.5
  3
monotxt.shx
  4
extfont.shx
  0
STYLE
  5
AC80
330
3
100
AcDbSymbolTableRecord
100
AcDbTextStyleTableRecord
  2

 70
     1
 40
0.0
 41
1.0
 50
0.0
 71
     0
 42
3.2
  3
genltshp.shx
  4

  0
STYLE
  5
B46F
330
3
100
AcDbSymbolTableRecord
100
AcDbTextStyleTableRecord
  2
ACANSTS
 70
     0
 40
1.0
 41
1.0
 50
0.0
 71
     0
 42
3.2
  3
romans.shx
  4
extfont.shx
  0
STYLE
  5
B470
330
3
100
AcDbSymbolTableRecord
100
AcDbTextStyleTableRecord
  2
ACANSGDT
 70
     0
 40
0.0
 41
1.0
 50
0.0
 71
     0
 42
3.2
  3
amgdt.shx
  4

  0
ENDTAB
  0
TABLE
  2
VIEW
  5
6
330
0
100
AcDbSymbolTable
 70
     6
  0
VIEW
  5
AE1
330
6
100
AcDbSymbolTableRecord
100
AcDbViewTableRecord
  2
AM_VIEW1
 70
     0
 40
129.7276464542651
 10
1775.10588156276
 20
1793.121228859297
 41
148.5
 11
0.0
 21
0.0
 31
1.0
 12
0.0
 22
0.0
 32
0.0
 42
50.0
 43
-1370.695619172058
 44
-1370.695619172058
 50
0.0
 71
    16
281
     0
 72
     0
  0
VIEW
  5
AE2
330
6
100
AcDbSymbolTableRecord
100
AcDbViewTableRecord
  2
AM_VIEW2
 70
     0
 40
129.7276464542651
 10
1923.60588156276
 20
1793.121228859297
 41
148.5
 11
0.0
 21
0.0
 31
1.0
 12
0.0
 22
0.0
 32
0.0
 42
50.0
 43
-1370.695619172058
 44
-1370.695619172058
 50
0.0
 71
    16
281
     0
 72
     0
  0
VIEW
  5
AE3
330
6
100
AcDbSymbolTableRecord
100
AcDbViewTableRecord
  2
AM_VIEW3
 70
     0
 40
129.7276464542651
 10
1775.10588156276
 20
1712.848875313562
 41
148.5
 11
0.0
 21
0.0
 31
1.0
 12
0.0
 22
0.0
 32
0.0
 42
50.0
 43
-1370.695619172058
 44
-1370.695619172058
 50
0.0
 71
    16
281
     0
 72
     0
  0
VIEW
  5
AE4
330
6
100
AcDbSymbolTableRecord
100
AcDbViewTableRecord
  2
AM_VIEW4
 70
     0
 40
129.7276464542651
 10
1923.60588156276
 20
1712.848875313562
 41
148.5
 11
0.0
 21
0.0
 31
1.0
 12
0.0
 22
0.0
 32
0.0
 42
50.0
 43
-1370.695619172058
 44
-1370.695619172058
 50
0.0
 71
    16
281
     0
 72
     0
  0
VIEW
  5
AE5
330
6
100
AcDbSymbolTableRecord
100
AcDbViewTableRecord
  2
AM_VIEW5
 70
     0
 40
129.7276464542651
 10
1849.35588156276
 20
1752.985052086429
 41
148.5
 11
0.0
 21
0.0
 31
1.0
 12
0.0
 22
0.0
 32
0.0
 42
50.0
 43
-1370.695619172058
 44
-1370.695619172058
 50
0.0
 71
    16
281
     0
 72
     0
  0
VIEW
  5
AE6
330
6
100
AcDbSymbolTableRecord
100
AcDbViewTableRecord
  2
AM_VIEW6
 70
     0
 40
259.4526983556011
 10
1849.35588156276
 20
1752.985052086429
 41
296.99703
 11
0.0
 21
0.0
 31
1.0
 12
0.0
 22
0.0
 32
0.0
 42
50.0
 43
-1370.695619172058
 44
-1370.695619172058
 50
0.0
 71
    16
281
     0
 72
     0
  0
ENDTAB
  0
TABLE
  2
UCS
  5
7
330
0
100
AcDbSymbolTable
 70
     0
  0
ENDTAB
  0
TABLE
  2
APPID
  5
9
330
0
100
AcDbSymbolTable
 70
    55
  0
APPID
  5
12
330
9
100
AcDbSymbolTableRecord
100
AcDbRegAppTableRecord
  2
ACAD
 70
     0
  0
APPID
  5
30
330
9
100
AcDbSymbolTableRecord
100
AcDbRegAppTableRecord
  2
MCAD_NO_VIS
 70
     0
  0
APPID
  5
31
330
9
100
AcDbSymbolTableRecord
100
AcDbRegAppTableRecord
  2
ACAD_TEMP_GRAPHIC
 70
     0
  0
APPID
  5
44
330
9
100
AcDbSymbolTableRecord
100
AcDbRegAppTableRecord
  2
ACATTRIBSERVICES
 70
     0
  0
APPID
  5
7A1
330
9
100
AcDbSymbolTableRecord
100
AcDbRegAppTableRecord
  2
GENIUS_GENDIMSH_14
 70
     0
  0
APPID
  5
A49
330
9
100
AcDbSymbolTableRecord
100
AcDbRegAppTableRecord
  2
GENIUS_GENREC_14
 70
     0
  0
APPID
  5
A4A
330
9
100
AcDbSymbolTableRecord
100
AcDbRegAppTableRecord
  2
GENIUS_GENOBJ-N-REC_13
 70
     0
  0
APPID
  5
A4B
330
9
100
AcDbSymbolTableRecord
100
AcDbRegAppTableRecord
  2
GENIUS_GENODEF_13
 70
     0
  0
APPID
  5
A4C
330
9
100
AcDbSymbolTableRecord
100
AcDbRegAppTableRecord
  2
DCO15
 70
     0
  0
APPID
  5
ADC
330
9
100
AcDbSymbolTableRecord
100
AcDbRegAppTableRecord
  2
GENIUS_GENOLIS_13
 70
     0
  0
APPID
  5
ADD
330
9
100
AcDbSymbolTableRecord
100
AcDbRegAppTableRecord
  2
GENIUS_GENOENT_13
 70
     0
  0
APPID
  5
ADE
330
9
100
AcDbSymbolTableRecord
100
AcDbRegAppTableRecord
  2
GENIUS_GENOBJ-N-TIT_13
 70
     0
  0
APPID
  5
ADF
330
9
100
AcDbSymbolTableRecord
100
AcDbRegAppTableRecord
  2
GENIUS_GENTITLE_13
 70
     0
  0
APPID
  5
AE0
330
9
100
AcDbSymbolTableRecord
100
AcDbRegAppTableRecord
  2
GENIUS_GENOREF_13
 70
     0
  0
APPID
  5
AE7
330
9
100
AcDbSymbolTableRecord
100
AcDbRegAppTableRecord
  2
GENIUS_GENSCREG_15
 70
     0
  0
APPID
  5
AE8
330
9
100
AcDbSymbolTableRecord
100
AcDbRegAppTableRecord
  2
GENIUS_GENOBJ-N-SDF_13
 70
     0
  0
APPID
  5
FAF
330
9
100
AcDbSymbolTableRecord
100
AcDbRegAppTableRecord
  2
GENIUS_GENBLLY_14
 70
     0
  0
APPID
  5
FB0
330
9
100
AcDbSymbolTableRecord
100
AcDbRegAppTableRecord
  2
GENIUS_GENTRA_14
 70
     0
  0
APPID
  5
1285
330
9
100
AcDbSymbolTableRecord
100
AcDbRegAppTableRecord
  2
GENIUS_GENDTOL_13
 70
     0
  0
APPID
  5
142D
330
9
100
AcDbSymbolTableRecord
100
AcDbRegAppTableRecord
  2
GENIUS_GENOBJ-N-CEN_13
 70
     0
  0
APPID
  5
1AB5
330
9
100
AcDbSymbolTableRecord
100
AcDbRegAppTableRecord
  2
GENIUS_GENOBJ-N-CRS_13
 70
     0
  0
APPID
  5
1B36
330
9
100
AcDbSymbolTableRecord
100
AcDbRegAppTableRecord
  2
GENIUS_GENOBJ-N-HTC_13
 70
     0
  0
APPID
  5
1B37
330
9
100
AcDbSymbolTableRecord
100
AcDbRegAppTableRecord
  2
GENIUS_GENHATCH_13
 70
     0
  0
APPID
  5
216D
330
9
100
AcDbSymbolTableRecord
100
AcDbRegAppTableRecord
  2
GENIUS_GENOBJ-N-FIL_13
 70
     0
  0
APPID
  5
2356
330
9
100
AcDbSymbolTableRecord
100
AcDbRegAppTableRecord
  2
GEVID990412420
 70
     0
  0
APPID
  5
2357
330
9
100
AcDbSymbolTableRecord
100
AcDbRegAppTableRecord
  2
GEVDC
 70
     0
  0
APPID
  5
2358
330
9
100
AcDbSymbolTableRecord
100
AcDbRegAppTableRecord
  2
GEVCON
 70
     0
  0
APPID
  5
235B
330
9
100
AcDbSymbolTableRecord
100
AcDbRegAppTableRecord
  2
GEVRADREF
 70
     0
  0
APPID
  5
2360
330
9
100
AcDbSymbolTableRecord
100
AcDbRegAppTableRecord
  2
GENIUS_GENBH_13
 70
     0
  0
APPID
  5
2362
330
9
100
AcDbSymbolTableRecord
100
AcDbRegAppTableRecord
  2
GENIUS_GENOBJ-NBEHI-BHF_13
 70
     0
  0
APPID
  5
2364
330
9
100
AcDbSymbolTableRecord
100
AcDbRegAppTableRecord
  2
GENIUS_GENOBJ-NBEHI-BHB_13
 70
     0
  0
APPID
  5
2379
330
9
100
AcDbSymbolTableRecord
100
AcDbRegAppTableRecord
  2
GENIUS_GENOBJ-F-SCPASSM_13
 70
     0
  0
APPID
  5
3D74
330
9
100
AcDbSymbolTableRecord
100
AcDbRegAppTableRecord
  2
GENIUS_GENDIM_13
 70
     0
  0
APPID
  5
3D76
330
9
100
AcDbSymbolTableRecord
100
AcDbRegAppTableRecord
  2
GENIUS_GE3DTOL_13
 70
     0
  0
APPID
  5
3D9C
330
9
100
AcDbSymbolTableRecord
100
AcDbRegAppTableRecord
  2
AD_DRAW
 70
     0
  0
APPID
  5
3DE8
330
9
100
AcDbSymbolTableRecord
100
AcDbRegAppTableRecord
  2
ASURF_PCURVE_APPNAME
 70
     0
  0
APPID
  5
3DED
330
9
100
AcDbSymbolTableRecord
100
AcDbRegAppTableRecord
  2
AMG_3D2D_5.0
 70
     0
  0
APPID
  5
3E1B
330
9
100
AcDbSymbolTableRecord
100
AcDbRegAppTableRecord
  2
DESIGNERASSEMBLIES
 70
     0
  0
APPID
  5
3E20
330
9
100
AcDbSymbolTableRecord
100
AcDbRegAppTableRecord
  2
ACADM_DIM_EDIT
 70
     0
  0
APPID
  5
3E21
330
9
100
AcDbSymbolTableRecord
100
AcDbRegAppTableRecord
  2
AMDT_DM_ADJ
 70
     0
  0
APPID
  5
4143
330
9
100
AcDbSymbolTableRecord
100
AcDbRegAppTableRecord
  2
GENIUS_GENFIL_13
 70
     0
  0
APPID
  5
4144
330
9
100
AcDbSymbolTableRecord
100
AcDbRegAppTableRecord
  2
GENIUS_GENOBJ-N-CHA_13
 70
     0
  0
APPID
  5
4E17
330
9
100
AcDbSymbolTableRecord
100
AcDbRegAppTableRecord
  2
GEVID1008153417
 70
     0
  0
APPID
  5
4E58
330
9
100
AcDbSymbolTableRecord
100
AcDbRegAppTableRecord
  2
GEVID1008153418
 70
     0
  0
APPID
  5
4E5E
330
9
100
AcDbSymbolTableRecord
100
AcDbRegAppTableRecord
  2
GEVID1008153419
 70
     0
  0
APPID
  5
4E64
330
9
100
AcDbSymbolTableRecord
100
AcDbRegAppTableRecord
  2
GEVID1008153420
 70
     0
  0
APPID
  5
4E75
330
9
100
AcDbSymbolTableRecord
100
AcDbRegAppTableRecord
  2
GEVID1008153421
 70
     0
  0
APPID
  5
4EB7
330
9
100
AcDbSymbolTableRecord
100
AcDbRegAppTableRecord
  2
GENIUS_AMGTXT_16
 70
     0
  0
APPID
  5
7645
330
9
100
AcDbSymbolTableRecord
100
AcDbRegAppTableRecord
  2
GENIUS_GENOBJ-N-DIM_13
 70
     0
  0
APPID
  5
AAD0
330
9
100
AcDbSymbolTableRecord
100
AcDbRegAppTableRecord
  2
ACAD_DSTYLE_DIMARC_LENGTH_SYMBOL
 70
     0
  0
APPID
  5
AAD1
330
9
100
AcDbSymbolTableRecord
100
AcDbRegAppTableRecord
  2
ACAD_DSTYLE_DIMJOGGED_JOGANGLE_SYMBOL
 70
     0
  0
APPID
  5
AAFD
330
9
100
AcDbSymbolTableRecord
100
AcDbRegAppTableRecord
  2
ACAD_PSEXT
 70
     0
  0
APPID
  5
AD61
330
9
100
AcDbSymbolTableRecord
100
AcDbRegAppTableRecord
  2
AcAecLayerStandard
 70
     0
  0
APPID
  5
AEE3
330
9
100
AcDbSymbolTableRecord
100
AcDbRegAppTableRecord
  2
ACAD_EXEMPT_FROM_CAD_STANDARDS
 70
     0
  0
APPID
  5
B1BE
330
9
100
AcDbSymbolTableRecord
100
AcDbRegAppTableRecord
  2
GENIUS_GENCEN_19
 70
     0
  0
ENDTAB
  0
TABLE
  2
DIMSTYLE
  5
A
330
0
100
AcDbSymbolTable
 70
    25
100
AcDbDimStyleTable
 71
     1
340
2515
  0
DIMSTYLE
105
A76
330
A
100
AcDbSymbolTableRecord
100
AcDbDimStyleTableRecord
  2
STANDARD
 70
     0
 41
3.0
 42
1.0
 43
7.0
 44
2.0
 73
     0
 74
     0
 77
     1
140
2.799999999999999
141
0.0
143
0.0394
147
0.7
171
     4
172
     1
173
     1
176
     3
177
     3
178
     2
271
     3
272
     3
273
     8
274
     4
289
     0
340
A74
341
A66
343
A66
344
A66
  0
DIMSTYLE
105
2515
330
A
100
AcDbSymbolTableRecord
100
AcDbDimStyleTableRecord
  2
SYS
 70
     0
  4
"
 41
1.0
 42
1.0
 43
10.0
 44
1.0
 47
0.1
 48
0.1
 73
     0
 74
     0
 77
     1
 78
     8
 79
     2
140
3.5
141
0.0
143
0.0393701
146
0.71
147
1.5
172
     1
176
   256
177
   256
178
     7
271
     2
272
     2
283
     0
284
     8
340
11
371
    -1
372
    -1
1001
ACAD_DSTYLE_DIMJOGGED_JOGANGLE_SYMBOL
1070
   384
1040
0.7853981633974483
1001
ACAD_DSTYLE_DIMARC_LENGTH_SYMBOL
1070
   379
1070
     1
  0
DIMSTYLE
105
2516
102
{ACAD_REACTORS
330
C7BF
102
}
330
A
100
AcDbSymbolTableRecord
100
AcDbDimStyleTableRecord
  2
SYS$3
 70
     0
  4
"
 41
2.0
 42
1.0
 43
10.0
 44
1.0
 47
0.1
 48
0.1
 73
     0
 77
     1
 78
     8
 79
     2
140
3.5
141
0.0
143
0.0393701
146
0.71
147
1.5
176
   256
177
   256
178
     2
271
     2
272
     2
283
     0
284
     8
288
     1
340
11
342
A66
371
    -1
372
    -1
1001
ACAD_DSTYLE_DIMJOGGED_JOGANGLE_SYMBOL
1070
   384
1040
0.7853981633974483
1001
ACAD_DSTYLE_DIMARC_LENGTH_SYMBOL
1070
   379
1070
     1
  0
DIMSTYLE
105
2517
330
A
100
AcDbSymbolTableRecord
100
AcDbDimStyleTableRecord
  2
SYS$4
 70
     0
  4
"
 41
2.0
 42
1.0
 43
10.0
 44
1.0
 47
0.1
 48
0.1
 73
     0
 77
     1
 78
     8
 79
     2
140
3.5
141
0.0
143
0.0393701
146
0.71
147
1.5
173
     1
176
   256
177
   256
178
     2
271
     2
272
     2
283
     0
284
     8
288
     1
340
11
344
A66
371
    -1
372
    -1
1001
ACAD_DSTYLE_DIMJOGGED_JOGANGLE_SYMBOL
1070
   384
1040
0.7853981633974483
1001
ACAD_DSTYLE_DIMARC_LENGTH_SYMBOL
1070
   379
1070
     1
  0
DIMSTYLE
105
2518
330
A
100
AcDbSymbolTableRecord
100
AcDbDimStyleTableRecord
  2
SYS$6
 70
     0
  4
"
 41
2.0
 42
1.0
 43
10.0
 44
1.0
 47
0.1
 48
0.1
 73
     0
 74
     0
 78
     8
 79
     2
140
3.5
141
0.0
143
0.0393701
146
0.71
147
1.5
172
     1
176
   256
177
   256
178
     2
271
     2
272
     2
283
     0
284
     8
340
11
341
A66
371
    -1
372
    -1
1001
ACAD_DSTYLE_DIMJOGGED_JOGANGLE_SYMBOL
1070
   384
1040
0.7853981633974483
1001
ACAD_DSTYLE_DIMARC_LENGTH_SYMBOL
1070
   379
1070
     1
  0
DIMSTYLE
105
2519
330
A
100
AcDbSymbolTableRecord
100
AcDbDimStyleTableRecord
  2
SYS$7
 70
     0
  4
"
 41
2.0
 42
1.0
 43
10.0
 44
1.0
 47
0.1
 48
0.1
 73
     0
 74
     0
 77
     1
 78
     8
 79
     2
140
5.0
141
0.0
143
0.0393701
146
0.71
147
1.5
172
     1
176
   256
177
   256
178
     2
271
     2
272
     2
283
     0
284
     8
340
11
341
A66
342
A66
371
    -1
372
    -1
1001
ACAD_DSTYLE_DIMJOGGED_JOGANGLE_SYMBOL
1070
   384
1040
0.7853981633974483
1001
ACAD_DSTYLE_DIMARC_LENGTH_SYMBOL
1070
   379
1070
     1
  0
DIMSTYLE
105
251A
330
A
100
AcDbSymbolTableRecord
100
AcDbDimStyleTableRecord
  2
SYS$SF
 70
     0
  4
"
 41
2.5
 42
1.0
 43
10.0
 44
1.0
 47
0.1
 48
0.1
 73
     0
 74
     0
 75
     1
 76
     1
 77
     1
 78
     8
 79
     2
140
3.5
141
0.0
143
0.0393701
146
0.71
147
1.5
172
     1
176
   256
177
   256
178
     2
271
     2
272
     3
283
     0
284
     8
340
11
341
6C4
342
6C4
371
    -1
372
    -1
1001
ACAD_DSTYLE_DIMJOGGED_JOGANGLE_SYMBOL
1070
   384
1040
0.7853981633974483
1001
ACAD_DSTYLE_DIMARC_LENGTH_SYMBOL
1070
   379
1070
     1
  0
DIMSTYLE
105
251B
330
A
100
AcDbSymbolTableRecord
100
AcDbDimStyleTableRecord
  2
SYS$SH
 70
     0
  4
"
 41
2.5
 42
1.0
 43
10.0
 44
1.0
 47
0.1
 48
0.1
 73
     0
 74
     0
 75
     1
 76
     1
 77
     1
 78
     8
 79
     2
140
3.5
141
0.0
143
0.0393701
144
2.0
146
0.71
147
1.5
172
     1
173
     1
176
   256
177
   256
178
     2
271
     2
272
     3
283
     0
284
     8
340
11
341
6C4
343
72
344
6C4
371
    -1
372
    -1
1001
ACAD_DSTYLE_DIMJOGGED_JOGANGLE_SYMBOL
1070
   384
1040
0.7853981633974483
1001
ACAD_DSTYLE_DIMARC_LENGTH_SYMBOL
1070
   379
1070
     1
  0
DIMSTYLE
105
2A59
330
A
100
AcDbSymbolTableRecord
100
AcDbDimStyleTableRecord
  2
SYS$2
 70
     0
  4
"
 41
1.0
 42
1.0
 43
10.0
 44
1.0
 47
0.1
 48
0.1
 73
     0
 74
     0
 77
     1
 78
     8
 79
     2
140
3.5
141
0.0
143
0.0393701
146
0.71
147
1.5
172
     1
176
   256
177
   256
178
     2
271
     2
272
     2
283
     0
284
     8
340
11
342
6C4
371
    -1
372
    -1
1001
ACAD_DSTYLE_DIMJOGGED_JOGANGLE_SYMBOL
1070
   384
1040
0.7853981633974483
1001
ACAD_DSTYLE_DIMARC_LENGTH_SYMBOL
1070
   379
1070
     1
  0
DIMSTYLE
105
2AAB
102
{ACAD_REACTORS
330
C4AC
330
C4D5
330
C4EB
330
C501
330
C517
330
C52D
330
C543
330
C559
330
C56F
330
C585
330
C59B
330
C5B1
330
C5C7
102
}
330
A
100
AcDbSymbolTableRecord
100
AcDbDimStyleTableRecord
  2
SYS$0
 70
     0
  4
"
 41
1.0
 42
1.0
 43
10.0
 44
1.0
 47
0.1
 48
0.1
 73
     0
 74
     0
 77
     1
 78
     8
 79
     2
140
3.200000000000001
141
0.0
143
0.0393701
146
0.71
147
1.5
172
     1
176
   256
177
   256
178
     2
271
     2
272
     2
283
     0
284
     8
340
11
341
A66
342
6C4
371
    -1
372
    -1
1001
ACAD_DSTYLE_DIMJOGGED_JOGANGLE_SYMBOL
1070
   384
1040
0.7853981633974483
1001
ACAD_DSTYLE_DIMARC_LENGTH_SYMBOL
1070
   379
1070
     1
  0
DIMSTYLE
105
AF99
330
A
100
AcDbSymbolTableRecord
100
AcDbDimStyleTableRecord
  2
AM_ISO
 70
     0
  4
"
 41
2.5
 42
1.0
 43
10.0
 44
1.0
 47
0.1
 48
0.1
 73
     0
 74
     0
 77
     1
 78
     8
 79
     2
140
3.5
141
0.0
143
0.0393701
146
0.71
147
1.5
172
     1
176
   256
177
   256
178
     2
271
     2
272
     3
274
     4
283
     0
284
     8
340
11
371
    -1
372
    -1
  0
DIMSTYLE
105
AF9A
330
A
100
AcDbSymbolTableRecord
100
AcDbDimStyleTableRecord
  2
AM_ISO$3
 70
     0
  4
"
 41
2.5
 42
1.0
 43
10.0
 44
1.0
 47
0.1
 48
0.1
 73
     0
 77
     1
 78
     8
 79
     2
140
3.5
141
0.0
143
0.0393701
146
0.71
147
1.5
176
   256
177
   256
178
     2
271
     2
272
     3
274
     4
283
     0
284
     8
288
     1
289
     0
340
11
371
    -1
372
    -1
  0
DIMSTYLE
105
AF9B
330
A
100
AcDbSymbolTableRecord
100
AcDbDimStyleTableRecord
  2
AM_ISO$4
 70
     0
  4
"
 41
2.5
 42
1.0
 43
10.0
 44
1.0
 47
0.1
 48
0.1
 73
     0
 77
     1
 78
     8
 79
     2
140
3.5
141
0.0
143
0.0393701
146
0.71
147
1.5
176
   256
177
   256
178
     2
271
     2
272
     3
274
     4
283
     0
284
     8
288
     1
289
     0
340
11
371
    -1
372
    -1
  0
DIMSTYLE
105
AF9C
330
A
100
AcDbSymbolTableRecord
100
AcDbDimStyleTableRecord
  2
AM_ISO$6
 70
     0
  4
"
 41
2.5
 42
1.0
 43
10.0
 44
1.0
 47
0.1
 48
0.1
 73
     0
 74
     0
 78
     8
 79
     2
140
3.5
141
0.0
143
0.0393701
146
0.71
147
1.5
172
     1
176
   256
177
   256
178
     2
271
     2
272
     3
274
     4
283
     0
284
     8
340
11
371
    -1
372
    -1
  0
DIMSTYLE
105
AF9D
330
A
100
AcDbSymbolTableRecord
100
AcDbDimStyleTableRecord
  2
AM_ISO$7
 70
     0
  4
"
 41
2.5
 42
1.0
 43
10.0
 44
1.0
 47
0.1
 48
0.1
 73
     0
 74
     0
 77
     1
 78
     8
 79
     2
140
5.0
141
0.0
143
0.0393701
146
0.71
147
1.5
172
     1
176
   256
177
   256
178
     2
271
     2
272
     3
274
     4
283
     0
284
     8
340
11
371
    -1
372
    -1
  0
DIMSTYLE
105
AF9E
330
A
100
AcDbSymbolTableRecord
100
AcDbDimStyleTableRecord
  2
AM_ISO$SF
 70
     0
  4
"
 41
2.5
 42
1.0
 43
10.0
 44
1.0
 47
0.1
 48
0.1
 73
     0
 74
     0
 75
     1
 76
     1
 77
     1
 78
     8
 79
     2
140
3.5
141
0.0
143
0.0393701
146
0.71
147
1.5
172
     1
176
   256
177
   256
178
     2
271
     2
272
     3
274
     4
283
     0
284
     8
340
11
371
    -1
372
    -1
  0
DIMSTYLE
105
AF9F
330
A
100
AcDbSymbolTableRecord
100
AcDbDimStyleTableRecord
  2
AM_ISO$SH
 70
     0
  4
"
 41
2.5
 42
1.0
 43
10.0
 44
1.0
 47
0.1
 48
0.1
 73
     0
 74
     0
 75
     1
 76
     1
 77
     1
 78
     8
 79
     2
140
3.5
141
0.0
143
0.0393701
144
2.0
146
0.71
147
1.5
172
     1
173
     1
176
   256
177
   256
178
     2
271
     2
272
     3
274
     4
283
     0
284
     8
340
11
343
72
371
    -1
372
    -1
  0
DIMSTYLE
105
B471
330
A
100
AcDbSymbolTableRecord
100
AcDbDimStyleTableRecord
  2
DIMSTYLE
 70
     0
 41
1.0
 42
2.54
 44
2.54
 73
     0
 74
     0
140
3.2
147
1.6
173
     1
279
     2
340
11
  0
DIMSTYLE
105
B472
330
A
100
AcDbSymbolTableRecord
100
AcDbDimStyleTableRecord
  2
AM_ANSI
 70
     0
  4
mm
 41
0.1
 42
0.05
 43
0.5
 44
0.1
 47
0.1
 48
0.1
 78
     7
 79
     2
140
0.12
141
0.0
146
0.71
147
0.06
176
   256
177
   256
178
     2
274
     4
284
     7
340
11
371
    -1
372
    -1
1001
ACAD_DSTYLE_DIMARC_LENGTH_SYMBOL
1070
   379
1070
     1
  0
DIMSTYLE
105
B473
330
A
100
AcDbSymbolTableRecord
100
AcDbDimStyleTableRecord
  2
AM_ANSI$3
 70
     0
  4
mm
 41
0.1
 42
0.05
 43
0.5
 44
0.1
 47
0.1
 48
0.1
 78
     7
 79
     2
140
0.12
141
0.0
146
0.71
147
0.06
176
   256
177
   256
178
     2
274
     4
284
     7
288
     1
289
     0
340
11
371
    -1
372
    -1
1001
ACAD_DSTYLE_DIMARC_LENGTH_SYMBOL
1070
   379
1070
     1
  0
DIMSTYLE
105
B474
330
A
100
AcDbSymbolTableRecord
100
AcDbDimStyleTableRecord
  2
AM_ANSI$4
 70
     0
  4
mm
 41
0.1
 42
0.05
 43
0.5
 44
0.1
 47
0.1
 48
0.1
 78
     7
 79
     2
140
0.12
141
0.0
146
0.71
147
0.06
176
   256
177
   256
178
     2
274
     4
284
     7
288
     1
289
     0
340
11
371
    -1
372
    -1
1001
ACAD_DSTYLE_DIMARC_LENGTH_SYMBOL
1070
   379
1070
     1
  0
DIMSTYLE
105
B475
330
A
100
AcDbSymbolTableRecord
100
AcDbDimStyleTableRecord
  2
AM_ANSI$7
 70
     0
  4
mm
 41
0.1
 42
0.05
 43
0.5
 44
0.1
 47
0.1
 48
0.1
 78
     7
 79
     2
140
0.24
141
0.0
146
0.71
147
0.06
176
   256
177
   256
178
     2
274
     4
284
     7
340
11
371
    -1
372
    -1
1001
ACAD_DSTYLE_DIMARC_LENGTH_SYMBOL
1070
   379
1070
     1
  0
DIMSTYLE
105
B476
330
A
100
AcDbSymbolTableRecord
100
AcDbDimStyleTableRecord
  2
AM_ANSI$SF
 70
     0
  4
mm
 41
0.1
 42
0.05
 43
0.5
 44
0.1
 47
0.1
 48
0.1
 75
     1
 76
     1
 78
     7
 79
     2
140
0.12
141
0.0
146
0.71
147
0.06
176
   256
177
   256
178
     2
274
     4
284
     7
340
11
371
    -1
372
    -1
1001
ACAD_DSTYLE_DIMARC_LENGTH_SYMBOL
1070
   379
1070
     1
  0
DIMSTYLE
105
B477
330
A
100
AcDbSymbolTableRecord
100
AcDbDimStyleTableRecord
  2
AM_ANSI$SH
 70
     0
  4
mm
 41
0.1
 42
0.05
 43
0.5
 44
0.1
 47
0.1
 48
0.1
 75
     1
 76
     1
 78
     7
 79
     2
140
0.12
141
0.0
146
0.71
147
0.06
173
     1
176
   256
177
   256
178
     2
274
     4
284
     7
340
11
343
72
371
    -1
372
    -1
1001
ACAD_DSTYLE_DIMARC_LENGTH_SYMBOL
1070
   379
1070
     1
  0
ENDTAB
  0
TABLE
  2
BLOCK_RECORD
  5
1
330
0
100
AcDbSymbolTable
 70
    33
  0
BLOCK_RECORD
  5
1F
102
{ACAD_XDICTIONARY
360
8A
102
}
330
1
100
AcDbSymbolTableRecord
100
AcDbBlockTableRecord
  2
*Model_Space
340
22
  0
BLOCK_RECORD
  5
1B
330
1
100
AcDbSymbolTableRecord
100
AcDbBlockTableRecord
  2
*Paper_Space
340
1E
  0
BLOCK_RECORD
  5
23
330
1
100
AcDbSymbolTableRecord
100
AcDbBlockTableRecord
  2
*Paper_Space0
340
26
  0
BLOCK_RECORD
  5
72
330
1
100
AcDbSymbolTableRecord
100
AcDbBlockTableRecord
  2
GENAXEH
340
0
  0
BLOCK_RECORD
  5
6C4
330
1
100
AcDbSymbolTableRecord
100
AcDbBlockTableRecord
  2
_Dot
340
0
102
{BLKREFS
331
C5E0
331
C5E1
331
C5E9
331
C5EA
331
C5F2
331
C5F3
331
C5FB
331
C5FC
331
C604
331
C605
331
C60D
331
C60E
331
C616
331
C617
331
C61F
331
C620
331
C628
331
C629
331
C631
331
C632
331
C63A
331
C63B
331
C643
331
C644
331
C64C
331
C64D
331
C828
331
C829
331
C830
331
C831
331
C839
331
C83A
331
C842
331
C843
331
C84B
331
C84C
331
C854
331
C855
331
C85D
331
C85E
331
C866
331
C867
331
C86F
331
C870
331
C878
331
C879
331
C881
331
C882
331
C88A
331
C88B
331
C893
331
C894
331
C89C
331
C89D
102
}
  0
BLOCK_RECORD
  5
A66
330
1
100
AcDbSymbolTableRecord
100
AcDbBlockTableRecord
  2
_OPEN30
340
0
  0
BLOCK_RECORD
  5
B66B
330
1
100
AcDbSymbolTableRecord
100
AcDbBlockTableRecord
  2
*D5
340
0
  0
BLOCK_RECORD
  5
B677
330
1
100
AcDbSymbolTableRecord
100
AcDbBlockTableRecord
  2
*D6
340
0
  0
BLOCK_RECORD
  5
B682
330
1
100
AcDbSymbolTableRecord
100
AcDbBlockTableRecord
  2
*D7
340
0
  0
BLOCK_RECORD
  5
B68D
330
1
100
AcDbSymbolTableRecord
100
AcDbBlockTableRecord
  2
*D8
340
0
  0
BLOCK_RECORD
  5
B699
330
1
100
AcDbSymbolTableRecord
100
AcDbBlockTableRecord
  2
*D9
340
0
  0
BLOCK_RECORD
  5
B6A5
330
1
100
AcDbSymbolTableRecord
100
AcDbBlockTableRecord
  2
*D10
340
0
  0
BLOCK_RECORD
  5
B6B1
330
1
100
AcDbSymbolTableRecord
100
AcDbBlockTableRecord
  2
*D11
340
0
  0
BLOCK_RECORD
  5
B6BD
330
1
100
AcDbSymbolTableRecord
100
AcDbBlockTableRecord
  2
*D12
340
0
  0
BLOCK_RECORD
  5
B6C9
330
1
100
AcDbSymbolTableRecord
100
AcDbBlockTableRecord
  2
*D13
340
0
  0
BLOCK_RECORD
  5
B6D5
330
1
100
AcDbSymbolTableRecord
100
AcDbBlockTableRecord
  2
*D14
340
0
  0
BLOCK_RECORD
  5
B6E2
330
1
100
AcDbSymbolTableRecord
100
AcDbBlockTableRecord
  2
*D15
340
0
  0
BLOCK_RECORD
  5
B6EE
330
1
100
AcDbSymbolTableRecord
100
AcDbBlockTableRecord
  2
*D16
340
0
  0
BLOCK_RECORD
  5
B6FA
330
1
100
AcDbSymbolTableRecord
100
AcDbBlockTableRecord
  2
*D17
340
0
  0
BLOCK_RECORD
  5
C4AD
330
1
100
AcDbSymbolTableRecord
100
AcDbBlockTableRecord
  2
*D18
340
0
  0
BLOCK_RECORD
  5
C4D6
330
1
100
AcDbSymbolTableRecord
100
AcDbBlockTableRecord
  2
*D19
340
0
  0
BLOCK_RECORD
  5
C4EC
330
1
100
AcDbSymbolTableRecord
100
AcDbBlockTableRecord
  2
*D20
340
0
  0
BLOCK_RECORD
  5
C502
330
1
100
AcDbSymbolTableRecord
100
AcDbBlockTableRecord
  2
*D21
340
0
  0
BLOCK_RECORD
  5
C518
330
1
100
AcDbSymbolTableRecord
100
AcDbBlockTableRecord
  2
*D22
340
0
  0
BLOCK_RECORD
  5
C52E
330
1
100
AcDbSymbolTableRecord
100
AcDbBlockTableRecord
  2
*D23
340
0
  0
BLOCK_RECORD
  5
C544
330
1
100
AcDbSymbolTableRecord
100
AcDbBlockTableRecord
  2
*D24
340
0
  0
BLOCK_RECORD
  5
C55A
330
1
100
AcDbSymbolTableRecord
100
AcDbBlockTableRecord
  2
*D25
340
0
  0
BLOCK_RECORD
  5
C570
330
1
100
AcDbSymbolTableRecord
100
AcDbBlockTableRecord
  2
*D26
340
0
  0
BLOCK_RECORD
  5
C586
330
1
100
AcDbSymbolTableRecord
100
AcDbBlockTableRecord
  2
*D27
340
0
  0
BLOCK_RECORD
  5
C59C
330
1
100
AcDbSymbolTableRecord
100
AcDbBlockTableRecord
  2
*D28
340
0
  0
BLOCK_RECORD
  5
C5B2
330
1
100
AcDbSymbolTableRecord
100
AcDbBlockTableRecord
  2
*D29
340
0
  0
BLOCK_RECORD
  5
C5C8
330
1
100
AcDbSymbolTableRecord
100
AcDbBlockTableRecord
  2
*D30
340
0
  0
BLOCK_RECORD
  5
C7C0
330
1
100
AcDbSymbolTableRecord
100
AcDbBlockTableRecord
  2
*D31
340
0
  0
ENDTAB
  0
ENDSEC
  0
SECTION
  2
BLOCKS
  0
BLOCK
  5
20
330
1F
100
AcDbEntity
  8
0
100
AcDbBlockBegin
  2
*Model_Space
 70
     0
 10
0.0
 20
0.0
 30
0.0
  3
*Model_Space
  1

  0
ENDBLK
  5
21
330
1F
100
AcDbEntity
  8
0
100
AcDbBlockEnd
  0
BLOCK
  5
1C
330
1B
100
AcDbEntity
 67
     1
  8
0
100
AcDbBlockBegin
  2
*Paper_Space
 70
     0
 10
0.0
 20
0.0
 30
0.0
  3
*Paper_Space
  1

  0
ENDBLK
  5
1D
330
1B
100
AcDbEntity
 67
     1
  8
0
100
AcDbBlockEnd
  0
BLOCK
  5
24
330
23
100
AcDbEntity
 67
     1
  8
0
100
AcDbBlockBegin
  2
*Paper_Space0
 70
     0
 10
0.0
 20
0.0
 30
0.0
  3
*Paper_Space0
  1

  0
ENDBLK
  5
25
330
23
100
AcDbEntity
 67
     1
  8
0
100
AcDbBlockEnd
  0
BLOCK
  5
74
330
72
100
AcDbEntity
  8
0
100
AcDbBlockBegin
  2
GENAXEH
 70
     0
 10
0.0
 20
0.0
 30
0.0
  3
GENAXEH
  1

  0
LINE
  5
73
330
72
100
AcDbEntity
  8
0
100
AcDbLine
 10
-1.0
 20
0.0
 30
0.0
 11
1.0
 21
0.0
 31
0.0
  0
ENDBLK
  5
75
330
72
100
AcDbEntity
  8
0
100
AcDbBlockEnd
  0
BLOCK
  5
6C7
330
6C4
100
AcDbEntity
  8
0
100
AcDbBlockBegin
  2
_Dot
 70
     0
 10
0.0
 20
0.0
 30
0.0
  3
_Dot
  1

  0
LWPOLYLINE
  5
6C5
330
6C4
100
AcDbEntity
  8
0
  6
ByBlock
 62
     0
100
AcDbPolyline
 90
        2
 70
     1
 43
0.5
 10
-0.25
 20
0.0
 42
1.0
 10
0.25
 20
0.0
 42
1.0
  0
LINE
  5
6C6
330
6C4
100
AcDbEntity
  8
0
  6
ByBlock
 62
     0
370
    -2
100
AcDbLine
 10
-0.5
 20
0.0
 30
0.0
 11
-1.0
 21
0.0
 31
0.0
  0
ENDBLK
  5
6C8
330
6C4
100
AcDbEntity
  8
0
100
AcDbBlockEnd
  0
BLOCK
  5
A6A
330
A66
100
AcDbEntity
  8
0
100
AcDbBlockBegin
  2
_OPEN30
 70
     0
 10
0.0
 20
0.0
 30
0.0
  3
_OPEN30
  1

  0
LINE
  5
A67
330
A66
100
AcDbEntity
  8
0
  6
ByBlock
 62
     0
100
AcDbLine
 10
-1.0
 20
0.26794919
 30
0.0
 11
0.0
 21
0.0
 31
0.0
  0
LINE
  5
A68
330
A66
100
AcDbEntity
  8
0
  6
ByBlock
 62
     0
100
AcDbLine
 10
0.0
 20
0.0
 30
0.0
 11
-1.0
 21
-0.26794919
 31
0.0
  0
LINE
  5
A69
330
A66
100
AcDbEntity
  8
0
  6
ByBlock
 62
     0
100
AcDbLine
 10
0.0
 20
0.0
 30
0.0
 11
-1.0
 21
0.0
 31
0.0
  0
ENDBLK
  5
A6B
330
A66
100
AcDbEntity
  8
0
100
AcDbBlockEnd
  0
BLOCK
  5
B675
330
B66B
100
AcDbEntity
  8
0
100
AcDbBlockBegin
  2
*D5
 70
     1
 10
0.0
 20
0.0
 30
0.0
  3
*D5
  1

  0
LINE
  5
C5DD
330
B66B
100
AcDbEntity
  8
AM_5
  6
Continuous
 48
1.01
100
AcDbLine
 10
4163.971688147441
 20
2998.022242262415
 30
0.0
 11
4163.971688147441
 21
3040.522234262415
 31
0.0
  0
LINE
  5
C5DE
330
B66B
100
AcDbEntity
  8
AM_5
  6
Continuous
 48
1.01
100
AcDbLine
 10
4190.97165914744
 20
3032.522234262415
 30
0.0
 11
4190.97165914744
 21
3040.522234262415
 31
0.0
  0
LINE
  5
C5DF
330
B66B
100
AcDbEntity
  8
AM_5
  6
Continuous
 48
1.01
100
AcDbLine
 10
4164.971688147441
 20
3039.522234262415
 30
0.0
 11
4189.971659147441
 21
3039.522234262415
 31
0.0
  0
INSERT
  5
C5E0
330
B66B
100
AcDbEntity
  8
AM_5
  6
Continuous
 48
1.01
100
AcDbBlockReference
  2
_Dot
 10
4163.971688147441
 20
3039.522234262415
 30
0.0
 50
180.0
  0
INSERT
  5
C5E1
330
B66B
100
AcDbEntity
  8
AM_5
  6
Continuous
 48
1.01
100
AcDbBlockReference
  2
_Dot
 10
4190.97165914744
 20
3039.522234262415
 30
0.0
  0
MTEXT
  5
C5E2
330
B66B
100
AcDbEntity
  8
AM_5
  6
Continuous
 62
     2
 48
1.01
100
AcDbMText
 10
4177.471673647441
 20
3042.622234262415
 30
0.0
 40
3.200000000000001
 41
0.0
 71
     5
 72
     1
  1
27
 73
     1
 44
1.0
1001
ACAD
1000
MTEXTBEGIN
1070
    73
1070
     1
1070
    44
1040
1.0
1070
    74
1070
     0
1000
MTEXTEND
  0
POINT
  5
C5E3
330
B66B
100
AcDbEntity
  8
Defpoints
  6
Continuous
 62
     0
 48
1.01
100
AcDbPoint
 10
4163.971688147441
 20
2997.022242262415
 30
0.0
  0
POINT
  5
C5E4
330
B66B
100
AcDbEntity
  8
Defpoints
  6
Continuous
 62
     0
 48
1.01
100
AcDbPoint
 10
4190.97165914744
 20
3031.522234262415
 30
0.0
  0
POINT
  5
C5E5
330
B66B
100
AcDbEntity
  8
Defpoints
  6
Continuous
 62
     0
 48
1.01
100
AcDbPoint
 10
4190.97165914744
 20
3039.522234262415
 30
0.0
  0
ENDBLK
  5
B676
330
B66B
100
AcDbEntity
  8
0
100
AcDbBlockEnd
  0
BLOCK
  5
B680
330
B677
100
AcDbEntity
  8
0
100
AcDbBlockBegin
  2
*D6
 70
     1
 10
0.0
 20
0.0
 30
0.0
  3
*D6
  1

  0
LINE
  5
C5E6
330
B677
100
AcDbEntity
  8
AM_5
  6
Continuous
 48
1.01
100
AcDbLine
 10
4111.971657147441
 20
2887.522238262415
 30
0.0
 11
4111.971657147441
 21
2871.022234262416
 31
0.0
  0
LINE
  5
C5E7
330
B677
100
AcDbEntity
  8
AM_5
  6
Continuous
 48
1.01
100
AcDbLine
 10
4090.971659147441
 20
2964.522244262415
 30
0.0
 11
4090.971659147441
 21
2871.022234262416
 31
0.0
  0
LINE
  5
C5E8
330
B677
100
AcDbEntity
  8
AM_5
  6
Continuous
 48
1.01
100
AcDbLine
 10
4110.97165714744
 20
2872.022234262415
 30
0.0
 11
4091.97165914744
 21
2872.022234262415
 31
0.0
  0
INSERT
  5
C5E9
330
B677
100
AcDbEntity
  8
AM_5
  6
Continuous
 48
1.01
100
AcDbBlockReference
  2
_Dot
 10
4111.971657147441
 20
2872.022234262415
 30
0.0
  0
INSERT
  5
C5EA
330
B677
100
AcDbEntity
  8
AM_5
  6
Continuous
 48
1.01
100
AcDbBlockReference
  2
_Dot
 10
4090.971659147441
 20
2872.022234262415
 30
0.0
 50
180.0
  0
MTEXT
  5
C5EB
330
B677
100
AcDbEntity
  8
AM_5
  6
Continuous
 62
     2
 48
1.01
100
AcDbMText
 10
4101.47165814744
 20
2875.122234262415
 30
0.0
 40
3.200000000000001
 41
0.0
 71
     5
 72
     1
  1
21
 73
     1
 44
1.0
1001
ACAD
1000
MTEXTBEGIN
1070
    73
1070
     1
1070
    44
1040
1.0
1070
    74
1070
     0
1000
MTEXTEND
  0
POINT
  5
C5EC
330
B677
100
AcDbEntity
  8
Defpoints
  6
Continuous
 62
     0
 48
1.01
100
AcDbPoint
 10
4111.971657147441
 20
2888.522238262416
 30
0.0
  0
POINT
  5
C5ED
330
B677
100
AcDbEntity
  8
Defpoints
  6
Continuous
 62
     0
 48
1.01
100
AcDbPoint
 10
4090.971659147441
 20
2965.522244262415
 30
0.0
  0
POINT
  5
C5EE
330
B677
100
AcDbEntity
  8
Defpoints
  6
Continuous
 62
     0
 48
1.01
100
AcDbPoint
 10
4090.971659147441
 20
2872.022234262415
 30
0.0
  0
ENDBLK
  5
B681
330
B677
100
AcDbEntity
  8
0
100
AcDbBlockEnd
  0
BLOCK
  5
B68B
330
B682
100
AcDbEntity
  8
0
100
AcDbBlockBegin
  2
*D7
 70
     1
 10
0.0
 20
0.0
 30
0.0
  3
*D7
  1

  0
LINE
  5
C5EF
330
B682
100
AcDbEntity
  8
AM_5
  6
Continuous
 48
1.01
100
AcDbLine
 10
4090.971659147441
 20
2964.522244262415
 30
0.0
 11
4090.971659147441
 21
2871.022234262416
 31
0.0
  0
LINE
  5
C5F0
330
B682
100
AcDbEntity
  8
AM_5
  6
Continuous
 48
1.01
100
AcDbLine
 10
4080.971690147441
 20
2963.522244262415
 30
0.0
 11
4080.971690147441
 21
2871.022234262416
 31
0.0
  0
LINE
  5
C5F1
330
B682
100
AcDbEntity
  8
AM_5
  6
Continuous
 48
1.01
100
AcDbLine
 10
4089.97165914744
 20
2872.022234262415
 30
0.0
 11
4081.97169014744
 21
2872.022234262415
 31
0.0
  0
INSERT
  5
C5F2
330
B682
100
AcDbEntity
  8
AM_5
  6
Continuous
 48
1.01
100
AcDbBlockReference
  2
_Dot
 10
4090.971659147441
 20
2872.022234262415
 30
0.0
  0
INSERT
  5
C5F3
330
B682
100
AcDbEntity
  8
AM_5
  6
Continuous
 48
1.01
100
AcDbBlockReference
  2
_Dot
 10
4080.971690147441
 20
2872.022234262415
 30
0.0
 50
180.0
  0
MTEXT
  5
C5F4
330
B682
100
AcDbEntity
  8
AM_5
  6
Continuous
 62
     2
 48
1.01
100
AcDbMText
 10
4085.97167464744
 20
2875.122234262415
 30
0.0
 40
3.200000000000001
 41
0.0
 71
     5
 72
     1
  1
10
 73
     1
 44
1.0
1001
ACAD
1000
MTEXTBEGIN
1070
    73
1070
     1
1070
    44
1040
1.0
1070
    74
1070
     0
1000
MTEXTEND
  0
POINT
  5
C5F5
330
B682
100
AcDbEntity
  8
Defpoints
  6
Continuous
 62
     0
 48
1.01
100
AcDbPoint
 10
4090.971659147441
 20
2965.522244262415
 30
0.0
  0
POINT
  5
C5F6
330
B682
100
AcDbEntity
  8
Defpoints
  6
Continuous
 62
     0
 48
1.01
100
AcDbPoint
 10
4080.971690147441
 20
2964.522244262415
 30
0.0
  0
POINT
  5
C5F7
330
B682
100
AcDbEntity
  8
Defpoints
  6
Continuous
 62
     0
 48
1.01
100
AcDbPoint
 10
4080.971690147441
 20
2872.022234262415
 30
0.0
  0
ENDBLK
  5
B68C
330
B682
100
AcDbEntity
  8
0
100
AcDbBlockEnd
  0
BLOCK
  5
B697
330
B68D
100
AcDbEntity
  8
0
100
AcDbBlockBegin
  2
*D8
 70
     1
 10
0.0
 20
0.0
 30
0.0
  3
*D8
  1

  0
LINE
  5
C5F8
330
B68D
100
AcDbEntity
  8
AM_5
  6
Continuous
 48
1.01
100
AcDbLine
 10
4111.971657147441
 20
2887.522238262415
 30
0.0
 11
4111.971657147441
 21
2871.022234262416
 31
0.0
  0
LINE
  5
C5F9
330
B68D
100
AcDbEntity
  8
AM_5
  6
Continuous
 48
1.01
100
AcDbLine
 10
4120.971688147441
 20
2887.522238262415
 30
0.0
 11
4120.971688147441
 21
2871.022234262416
 31
0.0
  0
LINE
  5
C5FA
330
B68D
100
AcDbEntity
  8
AM_5
  6
Continuous
 48
1.01
100
AcDbLine
 10
4112.971657147441
 20
2872.022234262415
 30
0.0
 11
4119.971688147441
 21
2872.022234262415
 31
0.0
  0
INSERT
  5
C5FB
330
B68D
100
AcDbEntity
  8
AM_5
  6
Continuous
 48
1.01
100
AcDbBlockReference
  2
_Dot
 10
4111.971657147441
 20
2872.022234262415
 30
0.0
 50
180.0
  0
INSERT
  5
C5FC
330
B68D
100
AcDbEntity
  8
AM_5
  6
Continuous
 48
1.01
100
AcDbBlockReference
  2
_Dot
 10
4120.971688147441
 20
2872.022234262415
 30
0.0
  0
MTEXT
  5
C5FD
330
B68D
100
AcDbEntity
  8
AM_5
  6
Continuous
 62
     2
 48
1.01
100
AcDbMText
 10
4116.471672647441
 20
2875.122234262415
 30
0.0
 40
3.200000000000001
 41
0.0
 71
     5
 72
     1
  1
9
 73
     1
 44
1.0
1001
ACAD
1000
MTEXTBEGIN
1070
    73
1070
     1
1070
    44
1040
1.0
1070
    74
1070
     0
1000
MTEXTEND
  0
POINT
  5
C5FE
330
B68D
100
AcDbEntity
  8
Defpoints
  6
Continuous
 62
     0
 48
1.01
100
AcDbPoint
 10
4111.971657147441
 20
2888.522238262416
 30
0.0
  0
POINT
  5
C5FF
330
B68D
100
AcDbEntity
  8
Defpoints
  6
Continuous
 62
     0
 48
1.01
100
AcDbPoint
 10
4120.971688147441
 20
2888.522238262416
 30
0.0
  0
POINT
  5
C600
330
B68D
100
AcDbEntity
  8
Defpoints
  6
Continuous
 62
     0
 48
1.01
100
AcDbPoint
 10
4120.971688147441
 20
2872.022234262415
 30
0.0
  0
ENDBLK
  5
B698
330
B68D
100
AcDbEntity
  8
0
100
AcDbBlockEnd
  0
BLOCK
  5
B6A3
330
B699
100
AcDbEntity
  8
0
100
AcDbBlockBegin
  2
*D9
 70
     1
 10
0.0
 20
0.0
 30
0.0
  3
*D9
  1

  0
LINE
  5
C601
330
B699
100
AcDbEntity
  8
AM_5
  6
Continuous
 48
1.01
100
AcDbLine
 10
4080.971690147441
 20
2963.522244262415
 30
0.0
 11
4080.971690147441
 21
2861.022242262415
 31
0.0
  0
LINE
  5
C602
330
B699
100
AcDbEntity
  8
AM_5
  6
Continuous
 48
1.01
100
AcDbLine
 10
4120.971688147441
 20
2887.522238262415
 30
0.0
 11
4120.971688147441
 21
2861.022242262415
 31
0.0
  0
LINE
  5
C603
330
B699
100
AcDbEntity
  8
AM_5
  6
Continuous
 48
1.01
100
AcDbLine
 10
4081.97169014744
 20
2862.022242262415
 30
0.0
 11
4119.971688147441
 21
2862.022242262415
 31
0.0
  0
INSERT
  5
C604
330
B699
100
AcDbEntity
  8
AM_5
  6
Continuous
 48
1.01
100
AcDbBlockReference
  2
_Dot
 10
4080.971690147441
 20
2862.022242262415
 30
0.0
 50
180.0
  0
INSERT
  5
C605
330
B699
100
AcDbEntity
  8
AM_5
  6
Continuous
 48
1.01
100
AcDbBlockReference
  2
_Dot
 10
4120.971688147441
 20
2862.022242262415
 30
0.0
  0
MTEXT
  5
C606
330
B699
100
AcDbEntity
  8
AM_5
  6
Continuous
 62
     2
 48
1.01
100
AcDbMText
 10
4100.971689147441
 20
2865.122242262415
 30
0.0
 40
3.200000000000001
 41
0.0
 71
     5
 72
     1
  1
40
 73
     1
 44
1.0
1001
ACAD
1000
MTEXTBEGIN
1070
    73
1070
     1
1070
    44
1040
1.0
1070
    74
1070
     0
1000
MTEXTEND
  0
POINT
  5
C607
330
B699
100
AcDbEntity
  8
Defpoints
  6
Continuous
 62
     0
 48
1.01
100
AcDbPoint
 10
4080.971690147441
 20
2964.522244262415
 30
0.0
  0
POINT
  5
C608
330
B699
100
AcDbEntity
  8
Defpoints
  6
Continuous
 62
     0
 48
1.01
100
AcDbPoint
 10
4120.971688147441
 20
2888.522238262416
 30
0.0
  0
POINT
  5
C609
330
B699
100
AcDbEntity
  8
Defpoints
  6
Continuous
 62
     0
 48
1.01
100
AcDbPoint
 10
4120.971688147441
 20
2862.022242262415
 30
0.0
  0
ENDBLK
  5
B6A4
330
B699
100
AcDbEntity
  8
0
100
AcDbBlockEnd
  0
BLOCK
  5
B6AF
330
B6A5
100
AcDbEntity
  8
0
100
AcDbBlockBegin
  2
*D10
 70
     1
 10
0.0
 20
0.0
 30
0.0
  3
*D10
  1

  0
LINE
  5
C60A
330
B6A5
100
AcDbEntity
  8
AM_5
  6
Continuous
 48
1.01
100
AcDbLine
 10
4092.97165914744
 20
3000.022234262415
 30
0.0
 11
4092.97165914744
 21
3040.522234262415
 31
0.0
  0
LINE
  5
C60B
330
B6A5
100
AcDbEntity
  8
AM_5
  6
Continuous
 48
1.01
100
AcDbLine
 10
4080.971690147441
 20
3030.522234262415
 30
0.0
 11
4080.971690147441
 21
3040.522234262415
 31
0.0
  0
LINE
  5
C60C
330
B6A5
100
AcDbEntity
  8
AM_5
  6
Continuous
 48
1.01
100
AcDbLine
 10
4091.97165914744
 20
3039.522234262415
 30
0.0
 11
4081.97169014744
 21
3039.522234262415
 31
0.0
  0
INSERT
  5
C60D
330
B6A5
100
AcDbEntity
  8
AM_5
  6
Continuous
 48
1.01
100
AcDbBlockReference
  2
_Dot
 10
4092.97165914744
 20
3039.522234262415
 30
0.0
  0
INSERT
  5
C60E
330
B6A5
100
AcDbEntity
  8
AM_5
  6
Continuous
 48
1.01
100
AcDbBlockReference
  2
_Dot
 10
4080.971690147441
 20
3039.522234262415
 30
0.0
 50
180.0
  0
MTEXT
  5
C60F
330
B6A5
100
AcDbEntity
  8
AM_5
  6
Continuous
 62
     2
 48
1.01
100
AcDbMText
 10
4086.97167464744
 20
3042.622234262415
 30
0.0
 40
3.200000000000001
 41
0.0
 71
     5
 72
     1
  1
12
 73
     1
 44
1.0
1001
ACAD
1000
MTEXTBEGIN
1070
    73
1070
     1
1070
    44
1040
1.0
1070
    74
1070
     0
1000
MTEXTEND
  0
POINT
  5
C610
330
B6A5
100
AcDbEntity
  8
Defpoints
  6
Continuous
 62
     0
 48
1.01
100
AcDbPoint
 10
4092.97165914744
 20
2999.022234262415
 30
0.0
  0
POINT
  5
C611
330
B6A5
100
AcDbEntity
  8
Defpoints
  6
Continuous
 62
     0
 48
1.01
100
AcDbPoint
 10
4080.971690147441
 20
3029.522234262416
 30
0.0
  0
POINT
  5
C612
330
B6A5
100
AcDbEntity
  8
Defpoints
  6
Continuous
 62
     0
 48
1.01
100
AcDbPoint
 10
4080.971690147441
 20
3039.522234262415
 30
0.0
  0
ENDBLK
  5
B6B0
330
B6A5
100
AcDbEntity
  8
0
100
AcDbBlockEnd
  0
BLOCK
  5
B6BB
330
B6B1
100
AcDbEntity
  8
0
100
AcDbBlockBegin
  2
*D11
 70
     1
 10
0.0
 20
0.0
 30
0.0
  3
*D11
  1

  0
LINE
  5
C613
330
B6B1
100
AcDbEntity
  8
AM_5
  6
Continuous
 48
1.01
100
AcDbLine
 10
4179.97165914744
 20
3026.522242262415
 30
0.0
 11
4179.97165914744
 21
3050.522234262415
 31
0.0
  0
LINE
  5
C614
330
B6B1
100
AcDbEntity
  8
AM_5
  6
Continuous
 48
1.01
100
AcDbLine
 10
4201.97165914744
 20
3026.522242262415
 30
0.0
 11
4201.97165914744
 21
3050.522234262415
 31
0.0
  0
LINE
  5
C615
330
B6B1
100
AcDbEntity
  8
AM_5
  6
Continuous
 48
1.01
100
AcDbLine
 10
4180.971659147441
 20
3049.522234262415
 30
0.0
 11
4200.97165914744
 21
3049.522234262415
 31
0.0
  0
INSERT
  5
C616
330
B6B1
100
AcDbEntity
  8
AM_5
  6
Continuous
 48
1.01
100
AcDbBlockReference
  2
_Dot
 10
4179.97165914744
 20
3049.522234262415
 30
0.0
 50
180.0
  0
INSERT
  5
C617
330
B6B1
100
AcDbEntity
  8
AM_5
  6
Continuous
 48
1.01
100
AcDbBlockReference
  2
_Dot
 10
4201.97165914744
 20
3049.522234262415
 30
0.0
  0
MTEXT
  5
C618
330
B6B1
100
AcDbEntity
  8
AM_5
  6
Continuous
 62
     2
 48
1.01
100
AcDbMText
 10
4190.97165914744
 20
3052.622234262415
 30
0.0
 40
3.200000000000001
 41
0.0
 71
     5
 72
     1
  1
22
 73
     1
 44
1.0
1001
ACAD
1000
MTEXTBEGIN
1070
    73
1070
     1
1070
    44
1040
1.0
1070
    74
1070
     0
1000
MTEXTEND
  0
POINT
  5
C619
330
B6B1
100
AcDbEntity
  8
Defpoints
  6
Continuous
 62
     0
 48
1.01
100
AcDbPoint
 10
4179.97165914744
 20
3025.522242262415
 30
0.0
  0
POINT
  5
C61A
330
B6B1
100
AcDbEntity
  8
Defpoints
  6
Continuous
 62
     0
 48
1.01
100
AcDbPoint
 10
4201.97165914744
 20
3025.522242262415
 30
0.0
  0
POINT
  5
C61B
330
B6B1
100
AcDbEntity
  8
Defpoints
  6
Continuous
 62
     0
 48
1.01
100
AcDbPoint
 10
4201.97165914744
 20
3049.522234262415
 30
0.0
  0
ENDBLK
  5
B6BC
330
B6B1
100
AcDbEntity
  8
0
100
AcDbBlockEnd
  0
BLOCK
  5
B6C7
330
B6BD
100
AcDbEntity
  8
0
100
AcDbBlockBegin
  2
*D12
 70
     1
 10
0.0
 20
0.0
 30
0.0
  3
*D12
  1

  0
LINE
  5
C61C
330
B6BD
100
AcDbEntity
  8
AM_5
  6
Continuous
 48
1.01
100
AcDbLine
 10
4199.221659147441
 20
2972.022244262415
 30
0.0
 11
4244.52429814744
 21
2972.022244262415
 31
0.0
  0
LINE
  5
C61D
330
B6BD
100
AcDbEntity
  8
AM_5
  6
Continuous
 48
1.01
100
AcDbLine
 10
4199.221659147441
 20
3022.022242262415
 30
0.0
 11
4244.52429814744
 21
3022.022242262415
 31
0.0
  0
LINE
  5
C61E
330
B6BD
100
AcDbEntity
  8
AM_5
  6
Continuous
 48
1.01
100
AcDbLine
 10
4243.52429814744
 20
2973.022244262415
 30
0.0
 11
4243.52429814744
 21
3021.022242262415
 31
0.0
  0
INSERT
  5
C61F
330
B6BD
100
AcDbEntity
  8
AM_5
  6
Continuous
 48
1.01
100
AcDbBlockReference
  2
_Dot
 10
4243.52429814744
 20
2972.022244262415
 30
0.0
 50
270.0
  0
INSERT
  5
C620
330
B6BD
100
AcDbEntity
  8
AM_5
  6
Continuous
 48
1.01
100
AcDbBlockReference
  2
_Dot
 10
4243.52429814744
 20
3022.022242262415
 30
0.0
 50
90.0
  0
MTEXT
  5
C621
330
B6BD
100
AcDbEntity
  8
AM_5
  6
Continuous
 62
     2
 48
1.01
100
AcDbMText
 10
4240.424298147439
 20
2997.022243262416
 30
0.0
 40
3.200000000000001
 41
0.0
 71
     5
 72
     1
  1
50
 11
0.0000000000000001
 21
1.0
 31
0.0
 73
     1
 44
1.0
1001
ACAD
1000
MTEXTBEGIN
1070
    73
1070
     1
1070
    44
1040
1.0
1070
    74
1070
     0
1000
MTEXTEND
  0
POINT
  5
C622
330
B6BD
100
AcDbEntity
  8
Defpoints
  6
Continuous
 62
     0
 48
1.01
100
AcDbPoint
 10
4198.22165914744
 20
2972.022244262415
 30
0.0
  0
POINT
  5
C623
330
B6BD
100
AcDbEntity
  8
Defpoints
  6
Continuous
 62
     0
 48
1.01
100
AcDbPoint
 10
4198.22165914744
 20
3022.022242262415
 30
0.0
  0
POINT
  5
C624
330
B6BD
100
AcDbEntity
  8
Defpoints
  6
Continuous
 62
     0
 48
1.01
100
AcDbPoint
 10
4243.52429814744
 20
3022.022242262415
 30
0.0
  0
ENDBLK
  5
B6C8
330
B6BD
100
AcDbEntity
  8
0
100
AcDbBlockEnd
  0
BLOCK
  5
B6D3
330
B6C9
100
AcDbEntity
  8
0
100
AcDbBlockBegin
  2
*D13
 70
     1
 10
0.0
 20
0.0
 30
0.0
  3
*D13
  1

  0
LINE
  5
C625
330
B6C9
100
AcDbEntity
  8
AM_5
  6
Continuous
 48
1.01
100
AcDbLine
 10
4198.97165914744
 20
2964.522244262415
 30
0.0
 11
4254.524295147441
 21
2964.522244262415
 31
0.0
  0
LINE
  5
C626
330
B6C9
100
AcDbEntity
  8
AM_5
  6
Continuous
 48
1.01
100
AcDbLine
 10
4198.97165914744
 20
3029.522234262416
 30
0.0
 11
4254.524295147441
 21
3029.522234262416
 31
0.0
  0
LINE
  5
C627
330
B6C9
100
AcDbEntity
  8
AM_5
  6
Continuous
 48
1.01
100
AcDbLine
 10
4253.524295147441
 20
2965.522244262415
 30
0.0
 11
4253.524295147441
 21
3028.522234262415
 31
0.0
  0
INSERT
  5
C628
330
B6C9
100
AcDbEntity
  8
AM_5
  6
Continuous
 48
1.01
100
AcDbBlockReference
  2
_Dot
 10
4253.524295147441
 20
2964.522244262415
 30
0.0
 50
270.0
  0
INSERT
  5
C629
330
B6C9
100
AcDbEntity
  8
AM_5
  6
Continuous
 48
1.01
100
AcDbBlockReference
  2
_Dot
 10
4253.524295147441
 20
3029.522234262416
 30
0.0
 50
90.0
  0
MTEXT
  5
C62A
330
B6C9
100
AcDbEntity
  8
AM_5
  6
Continuous
 62
     2
 48
1.01
100
AcDbMText
 10
4250.424295147439
 20
2997.022239262415
 30
0.0
 40
3.200000000000001
 41
0.0
 71
     5
 72
     1
  1
65
 11
0.0000000000000001
 21
1.0
 31
0.0
 73
     1
 44
1.0
1001
ACAD
1000
MTEXTBEGIN
1070
    73
1070
     1
1070
    44
1040
1.0
1070
    74
1070
     0
1000
MTEXTEND
  0
POINT
  5
C62B
330
B6C9
100
AcDbEntity
  8
Defpoints
  6
Continuous
 62
     0
 48
1.01
100
AcDbPoint
 10
4197.97165914744
 20
2964.522244262415
 30
0.0
  0
POINT
  5
C62C
330
B6C9
100
AcDbEntity
  8
Defpoints
  6
Continuous
 62
     0
 48
1.01
100
AcDbPoint
 10
4197.97165914744
 20
3029.522234262416
 30
0.0
  0
POINT
  5
C62D
330
B6C9
100
AcDbEntity
  8
Defpoints
  6
Continuous
 62
     0
 48
1.01
100
AcDbPoint
 10
4253.524295147441
 20
3029.522234262416
 30
0.0
  0
ENDBLK
  5
B6D4
330
B6C9
100
AcDbEntity
  8
0
100
AcDbBlockEnd
  0
BLOCK
  5
B6E0
330
B6D5
100
AcDbEntity
  8
0
100
AcDbBlockBegin
  2
*D14
 70
     1
 10
0.0
 20
0.0
 30
0.0
  3
*D14
  1

  0
LINE
  5
C62E
330
B6D5
100
AcDbEntity
  8
AM_5
  6
Continuous
 48
1.01
100
AcDbLine
 10
4210.356451147441
 20
2997.022242262415
 30
0.0
 11
4234.52429814744
 21
2997.022242262415
 31
0.0
  0
LINE
  5
C62F
330
B6D5
100
AcDbEntity
  8
AM_5
  6
Continuous
 48
1.01
100
AcDbLine
 10
4210.971655147441
 20
2887.022238262415
 30
0.0
 11
4234.52429814744
 21
2887.022238262415
 31
0.0
  0
LINE
  5
C630
330
B6D5
100
AcDbEntity
  8
AM_5
  6
Continuous
 48
1.01
100
AcDbLine
 10
4233.52429814744
 20
2996.022242262415
 30
0.0
 11
4233.52429814744
 21
2888.022238262415
 31
0.0
  0
INSERT
  5
C631
330
B6D5
100
AcDbEntity
  8
AM_5
  6
Continuous
 48
1.01
100
AcDbBlockReference
  2
_Dot
 10
4233.52429814744
 20
2997.022242262415
 30
0.0
 50
90.0
  0
INSERT
  5
C632
330
B6D5
100
AcDbEntity
  8
AM_5
  6
Continuous
 48
1.01
100
AcDbBlockReference
  2
_Dot
 10
4233.52429814744
 20
2887.022238262415
 30
0.0
 50
270.0
  0
MTEXT
  5
C633
330
B6D5
100
AcDbEntity
  8
AM_5
  6
Continuous
 62
     2
 48
1.01
100
AcDbMText
 10
4230.424298147439
 20
2942.022240262416
 30
0.0
 40
3.200000000000001
 41
0.0
 71
     5
 72
     1
  1
110
 11
0.0000000000000001
 21
1.0
 31
0.0
 73
     1
 44
1.0
1001
ACAD
1000
MTEXTBEGIN
1070
    73
1070
     1
1070
    44
1040
1.0
1070
    74
1070
     0
1000
MTEXTEND
  0
POINT
  5
C634
330
B6D5
100
AcDbEntity
  8
Defpoints
  6
Continuous
 62
     0
 48
1.01
100
AcDbPoint
 10
4209.35645114744
 20
2997.022242262415
 30
0.0
  0
POINT
  5
C635
330
B6D5
100
AcDbEntity
  8
Defpoints
  6
Continuous
 62
     0
 48
1.01
100
AcDbPoint
 10
4209.971655147441
 20
2887.022238262415
 30
0.0
  0
POINT
  5
C636
330
B6D5
100
AcDbEntity
  8
Defpoints
  6
Continuous
 62
     0
 48
1.01
100
AcDbPoint
 10
4233.52429814744
 20
2887.022238262415
 30
0.0
  0
ENDBLK
  5
B6E1
330
B6D5
100
AcDbEntity
  8
0
100
AcDbBlockEnd
  0
BLOCK
  5
B6EC
330
B6E2
100
AcDbEntity
  8
0
100
AcDbBlockBegin
  2
*D15
 70
     1
 10
0.0
 20
0.0
 30
0.0
  3
*D15
  1

  0
LINE
  5
C637
330
B6E2
100
AcDbEntity
  8
AM_5
  6
Continuous
 48
1.01
100
AcDbLine
 10
4202.971659147441
 20
2893.022238262415
 30
0.0
 11
4202.971659147441
 21
2871.022234262416
 31
0.0
  0
LINE
  5
C638
330
B6E2
100
AcDbEntity
  8
AM_5
  6
Continuous
 48
1.01
100
AcDbLine
 10
4216.970618147441
 20
2892.900069262415
 30
0.0
 11
4216.970618147441
 21
2871.022234262416
 31
0.0
  0
LINE
  5
C639
330
B6E2
100
AcDbEntity
  8
AM_5
  6
Continuous
 48
1.01
100
AcDbLine
 10
4203.97165914744
 20
2872.022234262415
 30
0.0
 11
4215.970618147441
 21
2872.022234262415
 31
0.0
  0
INSERT
  5
C63A
330
B6E2
100
AcDbEntity
  8
AM_5
  6
Continuous
 48
1.01
100
AcDbBlockReference
  2
_Dot
 10
4202.971659147441
 20
2872.022234262415
 30
0.0
 50
180.0
  0
INSERT
  5
C63B
330
B6E2
100
AcDbEntity
  8
AM_5
  6
Continuous
 48
1.01
100
AcDbBlockReference
  2
_Dot
 10
4216.970618147441
 20
2872.022234262415
 30
0.0
  0
MTEXT
  5
C63C
330
B6E2
100
AcDbEntity
  8
AM_5
  6
Continuous
 62
     2
 48
1.01
100
AcDbMText
 10
4209.971138647441
 20
2875.122234262415
 30
0.0
 40
3.200000000000001
 41
0.0
 71
     5
 72
     1
  1
14
 73
     1
 44
1.0
1001
ACAD
1000
MTEXTBEGIN
1070
    73
1070
     1
1070
    44
1040
1.0
1070
    74
1070
     0
1000
MTEXTEND
  0
POINT
  5
C63D
330
B6E2
100
AcDbEntity
  8
Defpoints
  6
Continuous
 62
     0
 48
1.01
100
AcDbPoint
 10
4202.971659147441
 20
2894.022238262416
 30
0.0
  0
POINT
  5
C63E
330
B6E2
100
AcDbEntity
  8
Defpoints
  6
Continuous
 62
     0
 48
1.01
100
AcDbPoint
 10
4216.970618147441
 20
2893.900069262415
 30
0.0
  0
POINT
  5
C63F
330
B6E2
100
AcDbEntity
  8
Defpoints
  6
Continuous
 62
     0
 48
1.01
100
AcDbPoint
 10
4216.970618147441
 20
2872.022234262415
 30
0.0
  0
ENDBLK
  5
B6ED
330
B6E2
100
AcDbEntity
  8
0
100
AcDbBlockEnd
  0
BLOCK
  5
B6F8
330
B6EE
100
AcDbEntity
  8
0
100
AcDbBlockBegin
  2
*D16
 70
     1
 10
0.0
 20
0.0
 30
0.0
  3
*D16
  1

  0
LINE
  5
C640
330
B6EE
100
AcDbEntity
  8
AM_5
  6
Continuous
 48
1.01
100
AcDbLine
 10
4190.97165914744
 20
2961.522244262415
 30
0.0
 11
4190.97165914744
 21
2861.022242262415
 31
0.0
  0
LINE
  5
C641
330
B6EE
100
AcDbEntity
  8
AM_5
  6
Continuous
 48
1.01
100
AcDbLine
 10
4209.971655147441
 20
2871.508654262415
 30
0.0
 11
4209.971655147441
 21
2861.022242262415
 31
0.0
  0
LINE
  5
C642
330
B6EE
100
AcDbEntity
  8
AM_5
  6
Continuous
 48
1.01
100
AcDbLine
 10
4191.97165914744
 20
2862.022242262415
 30
0.0
 11
4208.971655147441
 21
2862.022242262415
 31
0.0
  0
INSERT
  5
C643
330
B6EE
100
AcDbEntity
  8
AM_5
  6
Continuous
 48
1.01
100
AcDbBlockReference
  2
_Dot
 10
4190.97165914744
 20
2862.022242262415
 30
0.0
 50
180.0
  0
INSERT
  5
C644
330
B6EE
100
AcDbEntity
  8
AM_5
  6
Continuous
 48
1.01
100
AcDbBlockReference
  2
_Dot
 10
4209.971655147441
 20
2862.022242262415
 30
0.0
  0
MTEXT
  5
C645
330
B6EE
100
AcDbEntity
  8
AM_5
  6
Continuous
 62
     2
 48
1.01
100
AcDbMText
 10
4200.471657147441
 20
2865.122242262415
 30
0.0
 40
3.200000000000001
 41
0.0
 71
     5
 72
     1
  1
19
 73
     1
 44
1.0
1001
ACAD
1000
MTEXTBEGIN
1070
    73
1070
     1
1070
    44
1040
1.0
1070
    74
1070
     0
1000
MTEXTEND
  0
POINT
  5
C646
330
B6EE
100
AcDbEntity
  8
Defpoints
  6
Continuous
 62
     0
 48
1.01
100
AcDbPoint
 10
4190.97165914744
 20
2962.522244262415
 30
0.0
  0
POINT
  5
C647
330
B6EE
100
AcDbEntity
  8
Defpoints
  6
Continuous
 62
     0
 48
1.01
100
AcDbPoint
 10
4209.971655147441
 20
2872.508654262415
 30
0.0
  0
POINT
  5
C648
330
B6EE
100
AcDbEntity
  8
Defpoints
  6
Continuous
 62
     0
 48
1.01
100
AcDbPoint
 10
4209.971655147441
 20
2862.022242262415
 30
0.0
  0
ENDBLK
  5
B6F9
330
B6EE
100
AcDbEntity
  8
0
100
AcDbBlockEnd
  0
BLOCK
  5
B703
330
B6FA
100
AcDbEntity
  8
0
100
AcDbBlockBegin
  2
*D17
 70
     1
 10
0.0
 20
0.0
 30
0.0
  3
*D17
  1

  0
LINE
  5
C649
330
B6FA
100
AcDbEntity
  8
AM_5
  6
Continuous
 48
1.01
100
AcDbLine
 10
4092.97165914744
 20
3000.022234262415
 30
0.0
 11
4092.97165914744
 21
3040.522234262415
 31
0.0
  0
LINE
  5
C64A
330
B6FA
100
AcDbEntity
  8
AM_5
  6
Continuous
 48
1.01
100
AcDbLine
 10
4101.97165914744
 20
3006.468531262415
 30
0.0
 11
4101.97165914744
 21
3040.522234262415
 31
0.0
  0
LINE
  5
C64B
330
B6FA
100
AcDbEntity
  8
AM_5
  6
Continuous
 48
1.01
100
AcDbLine
 10
4093.971659147441
 20
3039.522234262415
 30
0.0
 11
4100.97165914744
 21
3039.522234262415
 31
0.0
  0
INSERT
  5
C64C
330
B6FA
100
AcDbEntity
  8
AM_5
  6
Continuous
 48
1.01
100
AcDbBlockReference
  2
_Dot
 10
4092.97165914744
 20
3039.522234262415
 30
0.0
 50
180.0
  0
INSERT
  5
C64D
330
B6FA
100
AcDbEntity
  8
AM_5
  6
Continuous
 48
1.01
100
AcDbBlockReference
  2
_Dot
 10
4101.97165914744
 20
3039.522234262415
 30
0.0
  0
MTEXT
  5
C64E
330
B6FA
100
AcDbEntity
  8
AM_5
  6
Continuous
 62
     2
 48
1.01
100
AcDbMText
 10
4097.471659147441
 20
3042.622234262415
 30
0.0
 40
3.200000000000001
 41
0.0
 71
     5
 72
     1
  1
9
 73
     1
 44
1.0
1001
ACAD
1000
MTEXTBEGIN
1070
    73
1070
     1
1070
    44
1040
1.0
1070
    74
1070
     0
1000
MTEXTEND
  0
POINT
  5
C64F
330
B6FA
100
AcDbEntity
  8
Defpoints
  6
Continuous
 62
     0
 48
1.01
100
AcDbPoint
 10
4092.97165914744
 20
2999.022234262415
 30
0.0
  0
POINT
  5
C650
330
B6FA
100
AcDbEntity
  8
Defpoints
  6
Continuous
 62
     0
 48
1.01
100
AcDbPoint
 10
4101.97165914744
 20
3005.468531262415
 30
0.0
  0
POINT
  5
C651
330
B6FA
100
AcDbEntity
  8
Defpoints
  6
Continuous
 62
     0
 48
1.01
100
AcDbPoint
 10
4101.97165914744
 20
3039.522234262415
 30
0.0
  0
ENDBLK
  5
B704
330
B6FA
100
AcDbEntity
  8
0
100
AcDbBlockEnd
  0
BLOCK
  5
C4B7
330
C4AD
100
AcDbEntity
  8
0
100
AcDbBlockBegin
  2
*D18
 70
     1
 10
0.0
 20
0.0
 30
0.0
  3
*D18
  1

  0
LINE
  5
C823
330
C4AD
100
AcDbEntity
  8
AM_5
100
AcDbLine
 10
3911.725251400183
 20
3010.197280175257
 30
0.0
 11
3930.725252410184
 21
3010.197280175257
 31
0.0
  0
LINE
  5
C824
330
C4AD
100
AcDbEntity
  8
AM_5
100
AcDbLine
 10
3911.847416400184
 20
2996.197265698553
 30
0.0
 11
3930.725252410184
 21
2996.197265698553
 31
0.0
  0
LINE
  5
C825
330
C4AD
100
AcDbEntity
  8
AM_5
100
AcDbLine
 10
3929.725252410184
 20
3009.197280175257
 30
0.0
 11
3929.725252410184
 21
2997.197265698553
 31
0.0
  0
LINE
  5
C826
330
C4AD
100
AcDbEntity
  8
AM_5
100
AcDbLine
 10
3929.725252410184
 20
3018.550447058173
 30
0.0
 11
3929.725252410184
 21
3010.197280175257
 31
0.0
  0
MTEXT
  5
C827
330
C4AD
100
AcDbEntity
  8
AM_5
 62
     2
100
AcDbMText
 10
3926.625252410183
 20
3015.343780391507
 30
0.0
 40
3.200000000000001
 41
0.0
 71
     5
 72
     1
  1
14
 11
0.0000000000000001
 21
1.0
 31
0.0
 73
     1
 44
1.0
1001
ACAD
1000
MTEXTBEGIN
1070
    73
1070
     1
1070
    44
1040
1.0
1070
    74
1070
     0
1000
MTEXTEND
  0
INSERT
  5
C828
330
C4AD
100
AcDbEntity
  8
AM_5
100
AcDbBlockReference
  2
_Dot
 10
3929.725252410184
 20
3010.197280175257
 30
0.0
 50
90.0
  0
INSERT
  5
C829
330
C4AD
100
AcDbEntity
  8
AM_5
100
AcDbBlockReference
  2
_Dot
 10
3929.725252410184
 20
2996.197265698553
 30
0.0
 50
270.0
  0
POINT
  5
C82A
330
C4AD
100
AcDbEntity
  8
Defpoints
 62
     0
100
AcDbPoint
 10
3910.725251400183
 20
3010.197280175257
 30
0.0
  0
POINT
  5
C82B
330
C4AD
100
AcDbEntity
  8
Defpoints
 62
     0
100
AcDbPoint
 10
3910.847416400184
 20
2996.197265698553
 30
0.0
  0
POINT
  5
C82C
330
C4AD
100
AcDbEntity
  8
Defpoints
 62
     0
100
AcDbPoint
 10
3929.725252410184
 20
2996.197265698553
 30
0.0
  0
ENDBLK
  5
C4B8
330
C4AD
100
AcDbEntity
  8
0
100
AcDbBlockEnd
  0
BLOCK
  5
C4E0
330
C4D6
100
AcDbEntity
  8
0
100
AcDbBlockBegin
  2
*D19
 70
     1
 10
0.0
 20
0.0
 30
0.0
  3
*D19
  1

  0
LINE
  5
C82D
330
C4D6
100
AcDbEntity
  8
AM_5
100
AcDbLine
 10
3920.725247400183
 20
3003.196200698554
 30
0.0
 11
3940.725252410184
 21
3003.196200698554
 31
0.0
  0
LINE
  5
C82E
330
C4D6
100
AcDbEntity
  8
AM_5
100
AcDbLine
 10
3843.225245400184
 20
2984.196204698553
 30
0.0
 11
3940.725252410184
 21
2984.196204698553
 31
0.0
  0
LINE
  5
C82F
330
C4D6
100
AcDbEntity
  8
AM_5
100
AcDbLine
 10
3939.725252410184
 20
3002.196200698553
 30
0.0
 11
3939.725252410184
 21
2985.196204698553
 31
0.0
  0
INSERT
  5
C830
330
C4D6
100
AcDbEntity
  8
AM_5
100
AcDbBlockReference
  2
_Dot
 10
3939.725252410184
 20
3003.196200698554
 30
0.0
 50
90.0
  0
INSERT
  5
C831
330
C4D6
100
AcDbEntity
  8
AM_5
100
AcDbBlockReference
  2
_Dot
 10
3939.725252410184
 20
2984.196204698553
 30
0.0
 50
270.0
  0
MTEXT
  5
C832
330
C4D6
100
AcDbEntity
  8
AM_5
 62
     2
100
AcDbMText
 10
3936.625252410183
 20
2993.696202698553
 30
0.0
 40
3.200000000000001
 41
0.0
 71
     5
 72
     1
  1
19
 11
0.0000000000000001
 21
1.0
 31
0.0
 73
     1
 44
1.0
1001
ACAD
1000
MTEXTBEGIN
1070
    73
1070
     1
1070
    44
1040
1.0
1070
    74
1070
     0
1000
MTEXTEND
  0
POINT
  5
C833
330
C4D6
100
AcDbEntity
  8
Defpoints
 62
     0
100
AcDbPoint
 10
3919.725247400183
 20
3003.196200698554
 30
0.0
  0
POINT
  5
C834
330
C4D6
100
AcDbEntity
  8
Defpoints
 62
     0
100
AcDbPoint
 10
3842.225245400184
 20
2984.196204698553
 30
0.0
  0
POINT
  5
C835
330
C4D6
100
AcDbEntity
  8
Defpoints
 62
     0
100
AcDbPoint
 10
3939.725252410184
 20
2984.196204698553
 30
0.0
  0
ENDBLK
  5
C4E1
330
C4D6
100
AcDbEntity
  8
0
100
AcDbBlockEnd
  0
BLOCK
  5
C4F6
330
C4EC
100
AcDbEntity
  8
0
100
AcDbBlockBegin
  2
*D20
 70
     1
 10
0.0
 20
0.0
 30
0.0
  3
*D20
  1

  0
LINE
  5
C836
330
C4EC
100
AcDbEntity
  8
AM_5
100
AcDbLine
 10
3843.225245400184
 20
2984.196204698553
 30
0.0
 11
3940.725252410186
 21
2984.196204698553
 31
0.0
  0
LINE
  5
C837
330
C4EC
100
AcDbEntity
  8
AM_5
100
AcDbLine
 10
3808.725247400184
 20
2957.196204698553
 30
0.0
 11
3940.725252410186
 21
2957.196204698553
 31
0.0
  0
LINE
  5
C838
330
C4EC
100
AcDbEntity
  8
AM_5
100
AcDbLine
 10
3939.725252410186
 20
2983.196204698553
 30
0.0
 11
3939.725252410186
 21
2958.196204698553
 31
0.0
  0
INSERT
  5
C839
330
C4EC
100
AcDbEntity
  8
AM_5
100
AcDbBlockReference
  2
_Dot
 10
3939.725252410186
 20
2984.196204698553
 30
0.0
 50
90.0
  0
INSERT
  5
C83A
330
C4EC
100
AcDbEntity
  8
AM_5
100
AcDbBlockReference
  2
_Dot
 10
3939.725252410186
 20
2957.196204698553
 30
0.0
 50
270.0
  0
MTEXT
  5
C83B
330
C4EC
100
AcDbEntity
  8
AM_5
 62
     2
100
AcDbMText
 10
3936.625252410185
 20
2970.696204698554
 30
0.0
 40
3.200000000000001
 41
0.0
 71
     5
 72
     1
  1
27
 11
0.0000000000000001
 21
1.0
 31
0.0
 73
     1
 44
1.0
1001
ACAD
1000
MTEXTBEGIN
1070
    73
1070
     1
1070
    44
1040
1.0
1070
    74
1070
     0
1000
MTEXTEND
  0
POINT
  5
C83C
330
C4EC
100
AcDbEntity
  8
Defpoints
 62
     0
100
AcDbPoint
 10
3842.225245400184
 20
2984.196204698553
 30
0.0
  0
POINT
  5
C83D
330
C4EC
100
AcDbEntity
  8
Defpoints
 62
     0
100
AcDbPoint
 10
3807.725247400184
 20
2957.196204698553
 30
0.0
  0
POINT
  5
C83E
330
C4EC
100
AcDbEntity
  8
Defpoints
 62
     0
100
AcDbPoint
 10
3939.725252410186
 20
2957.196204698553
 30
0.0
  0
ENDBLK
  5
C4F7
330
C4EC
100
AcDbEntity
  8
0
100
AcDbBlockEnd
  0
BLOCK
  5
C50C
330
C502
100
AcDbEntity
  8
0
100
AcDbBlockBegin
  2
*D21
 70
     1
 10
0.0
 20
0.0
 30
0.0
  3
*D21
  1

  0
LINE
  5
C83F
330
C502
100
AcDbEntity
  8
AM_5
100
AcDbLine
 10
3778.225247400184
 20
2995.196204698553
 30
0.0
 11
3762.225246390184
 21
2995.196204698553
 31
0.0
  0
LINE
  5
C840
330
C502
100
AcDbEntity
  8
AM_5
100
AcDbLine
 10
3778.225247400184
 20
2973.196204698553
 30
0.0
 11
3762.225246390184
 21
2973.196204698553
 31
0.0
  0
LINE
  5
C841
330
C502
100
AcDbEntity
  8
AM_5
100
AcDbLine
 10
3763.225246390184
 20
2994.196204698554
 30
0.0
 11
3763.225246390184
 21
2974.196204698553
 31
0.0
  0
INSERT
  5
C842
330
C502
100
AcDbEntity
  8
AM_5
100
AcDbBlockReference
  2
_Dot
 10
3763.225246390184
 20
2995.196204698553
 30
0.0
 50
90.0
  0
INSERT
  5
C843
330
C502
100
AcDbEntity
  8
AM_5
100
AcDbBlockReference
  2
_Dot
 10
3763.225246390184
 20
2973.196204698553
 30
0.0
 50
270.0
  0
MTEXT
  5
C844
330
C502
100
AcDbEntity
  8
AM_5
 62
     2
100
AcDbMText
 10
3760.125246390184
 20
2984.196204698554
 30
0.0
 40
3.200000000000001
 41
0.0
 71
     5
 72
     1
  1
22
 11
0.0000000000000001
 21
1.0
 31
0.0
 73
     1
 44
1.0
1001
ACAD
1000
MTEXTBEGIN
1070
    73
1070
     1
1070
    44
1040
1.0
1070
    74
1070
     0
1000
MTEXTEND
  0
POINT
  5
C845
330
C502
100
AcDbEntity
  8
Defpoints
 62
     0
100
AcDbPoint
 10
3779.225247400184
 20
2995.196204698553
 30
0.0
  0
POINT
  5
C846
330
C502
100
AcDbEntity
  8
Defpoints
 62
     0
100
AcDbPoint
 10
3779.225247400184
 20
2973.196204698553
 30
0.0
  0
POINT
  5
C847
330
C502
100
AcDbEntity
  8
Defpoints
 62
     0
100
AcDbPoint
 10
3763.225246390184
 20
2973.196204698553
 30
0.0
  0
ENDBLK
  5
C50D
330
C502
100
AcDbEntity
  8
0
100
AcDbBlockEnd
  0
BLOCK
  5
C522
330
C518
100
AcDbEntity
  8
0
100
AcDbBlockBegin
  2
*D22
 70
     1
 10
0.0
 20
0.0
 30
0.0
  3
*D22
  1

  0
LINE
  5
C848
330
C518
100
AcDbEntity
  8
AM_5
100
AcDbLine
 10
3807.725247400184
 20
3003.580996698553
 30
0.0
 11
3807.725247400184
 21
3024.748844708553
 31
0.0
  0
LINE
  5
C849
330
C518
100
AcDbEntity
  8
AM_5
100
AcDbLine
 10
3917.725251400184
 20
3004.196200698553
 30
0.0
 11
3917.725251400184
 21
3024.748844708553
 31
0.0
  0
LINE
  5
C84A
330
C518
100
AcDbEntity
  8
AM_5
100
AcDbLine
 10
3808.725247400184
 20
3023.748844708553
 30
0.0
 11
3916.725251400184
 21
3023.748844708553
 31
0.0
  0
INSERT
  5
C84B
330
C518
100
AcDbEntity
  8
AM_5
100
AcDbBlockReference
  2
_Dot
 10
3807.725247400184
 20
3023.748844708553
 30
0.0
 50
180.0
  0
INSERT
  5
C84C
330
C518
100
AcDbEntity
  8
AM_5
100
AcDbBlockReference
  2
_Dot
 10
3917.725251400184
 20
3023.748844708553
 30
0.0
  0
MTEXT
  5
C84D
330
C518
100
AcDbEntity
  8
AM_5
 62
     2
100
AcDbMText
 10
3862.725249400183
 20
3026.848844708553
 30
0.0
 40
3.200000000000001
 41
0.0
 71
     5
 72
     1
  1
110
 73
     1
 44
1.0
1001
ACAD
1000
MTEXTBEGIN
1070
    73
1070
     1
1070
    44
1040
1.0
1070
    74
1070
     0
1000
MTEXTEND
  0
POINT
  5
C84E
330
C518
100
AcDbEntity
  8
Defpoints
 62
     0
100
AcDbPoint
 10
3807.725247400184
 20
3002.580996698553
 30
0.0
  0
POINT
  5
C84F
330
C518
100
AcDbEntity
  8
Defpoints
 62
     0
100
AcDbPoint
 10
3917.725251400184
 20
3003.196200698554
 30
0.0
  0
POINT
  5
C850
330
C518
100
AcDbEntity
  8
Defpoints
 62
     0
100
AcDbPoint
 10
3917.725251400184
 20
3023.748844708553
 30
0.0
  0
ENDBLK
  5
C523
330
C518
100
AcDbEntity
  8
0
100
AcDbBlockEnd
  0
BLOCK
  5
C538
330
C52E
100
AcDbEntity
  8
0
100
AcDbBlockBegin
  2
*D23
 70
     1
 10
0.0
 20
0.0
 30
0.0
  3
*D23
  1

  0
LINE
  5
C851
330
C52E
100
AcDbEntity
  8
AM_5
100
AcDbLine
 10
3782.725247400184
 20
2975.946204698553
 30
0.0
 11
3782.725247400184
 21
2945.822050698554
 31
0.0
  0
LINE
  5
C852
330
C52E
100
AcDbEntity
  8
AM_5
100
AcDbLine
 10
3832.725245400184
 20
2975.946204698553
 30
0.0
 11
3832.725245400184
 21
2945.822050698554
 31
0.0
  0
LINE
  5
C853
330
C52E
100
AcDbEntity
  8
AM_5
100
AcDbLine
 10
3783.725247400184
 20
2946.822050698554
 30
0.0
 11
3831.725245400184
 21
2946.822050698554
 31
0.0
  0
INSERT
  5
C854
330
C52E
100
AcDbEntity
  8
AM_5
100
AcDbBlockReference
  2
_Dot
 10
3782.725247400184
 20
2946.822050698554
 30
0.0
 50
180.0
  0
INSERT
  5
C855
330
C52E
100
AcDbEntity
  8
AM_5
100
AcDbBlockReference
  2
_Dot
 10
3832.725245400184
 20
2946.822050698554
 30
0.0
  0
MTEXT
  5
C856
330
C52E
100
AcDbEntity
  8
AM_5
 62
     2
100
AcDbMText
 10
3807.725246400184
 20
2949.922050698554
 30
0.0
 40
3.200000000000001
 41
0.0
 71
     5
 72
     1
  1
50
 73
     1
 44
1.0
1001
ACAD
1000
MTEXTBEGIN
1070
    73
1070
     1
1070
    44
1040
1.0
1070
    74
1070
     0
1000
MTEXTEND
  0
POINT
  5
C857
330
C52E
100
AcDbEntity
  8
Defpoints
 62
     0
100
AcDbPoint
 10
3782.725247400184
 20
2976.946204698553
 30
0.0
  0
POINT
  5
C858
330
C52E
100
AcDbEntity
  8
Defpoints
 62
     0
100
AcDbPoint
 10
3832.725245400184
 20
2976.946204698553
 30
0.0
  0
POINT
  5
C859
330
C52E
100
AcDbEntity
  8
Defpoints
 62
     0
100
AcDbPoint
 10
3832.725245400184
 20
2946.822050698554
 30
0.0
  0
ENDBLK
  5
C539
330
C52E
100
AcDbEntity
  8
0
100
AcDbBlockEnd
  0
BLOCK
  5
C54E
330
C544
100
AcDbEntity
  8
0
100
AcDbBlockBegin
  2
*D24
 70
     1
 10
0.0
 20
0.0
 30
0.0
  3
*D24
  1

  0
LINE
  5
C85A
330
C544
100
AcDbEntity
  8
AM_5
100
AcDbLine
 10
3775.225247400184
 20
2976.196204698553
 30
0.0
 11
3775.225247400184
 21
2935.822050698551
 31
0.0
  0
LINE
  5
C85B
330
C544
100
AcDbEntity
  8
AM_5
100
AcDbLine
 10
3840.225245400183
 20
2976.196208189212
 30
0.0
 11
3840.225245400183
 21
2935.822050698551
 31
0.0
  0
LINE
  5
C85C
330
C544
100
AcDbEntity
  8
AM_5
100
AcDbLine
 10
3776.225247400184
 20
2936.822050698551
 30
0.0
 11
3839.225245400183
 21
2936.822050698551
 31
0.0
  0
INSERT
  5
C85D
330
C544
100
AcDbEntity
  8
AM_5
100
AcDbBlockReference
  2
_Dot
 10
3775.225247400184
 20
2936.822050698551
 30
0.0
 50
180.0
  0
INSERT
  5
C85E
330
C544
100
AcDbEntity
  8
AM_5
100
AcDbBlockReference
  2
_Dot
 10
3840.225245400183
 20
2936.822050698551
 30
0.0
  0
MTEXT
  5
C85F
330
C544
100
AcDbEntity
  8
AM_5
 62
     2
100
AcDbMText
 10
3807.725246400183
 20
2939.922050698551
 30
0.0
 40
3.200000000000001
 41
0.0
 71
     5
 72
     1
  1
65
 73
     1
 44
1.0
1001
ACAD
1000
MTEXTBEGIN
1070
    73
1070
     1
1070
    44
1040
1.0
1070
    74
1070
     0
1000
MTEXTEND
  0
POINT
  5
C860
330
C544
100
AcDbEntity
  8
Defpoints
 62
     0
100
AcDbPoint
 10
3775.225247400184
 20
2977.196204698553
 30
0.0
  0
POINT
  5
C861
330
C544
100
AcDbEntity
  8
Defpoints
 62
     0
100
AcDbPoint
 10
3840.225245400183
 20
2977.196208189212
 30
0.0
  0
POINT
  5
C862
330
C544
100
AcDbEntity
  8
Defpoints
 62
     0
100
AcDbPoint
 10
3840.225245400183
 20
2936.822050698551
 30
0.0
  0
ENDBLK
  5
C54F
330
C544
100
AcDbEntity
  8
0
100
AcDbBlockEnd
  0
BLOCK
  5
C564
330
C55A
100
AcDbEntity
  8
0
100
AcDbBlockBegin
  2
*D25
 70
     1
 10
0.0
 20
0.0
 30
0.0
  3
*D25
  1

  0
LINE
  5
C863
330
C55A
100
AcDbEntity
  8
AM_5
100
AcDbLine
 10
3917.225251400184
 20
2914.196233698554
 30
0.0
 11
3930.725252410188
 21
2914.196233698554
 31
0.0
  0
LINE
  5
C864
330
C55A
100
AcDbEntity
  8
AM_5
100
AcDbLine
 10
3917.225251400184
 20
2905.196202698554
 30
0.0
 11
3930.725252410188
 21
2905.196202698554
 31
0.0
  0
LINE
  5
C865
330
C55A
100
AcDbEntity
  8
AM_5
100
AcDbLine
 10
3929.725252410187
 20
2913.196233698553
 30
0.0
 11
3929.725252410187
 21
2906.196202698554
 31
0.0
  0
INSERT
  5
C866
330
C55A
100
AcDbEntity
  8
AM_5
100
AcDbBlockReference
  2
_Dot
 10
3929.725252410187
 20
2914.196233698554
 30
0.0
 50
90.0
  0
INSERT
  5
C867
330
C55A
100
AcDbEntity
  8
AM_5
100
AcDbBlockReference
  2
_Dot
 10
3929.725252410187
 20
2905.196202698554
 30
0.0
 50
270.0
  0
MTEXT
  5
C868
330
C55A
100
AcDbEntity
  8
AM_5
 62
     2
100
AcDbMText
 10
3926.625252410187
 20
2909.696218198554
 30
0.0
 40
3.200000000000001
 41
0.0
 71
     5
 72
     1
  1
9
 11
0.0000000000000001
 21
1.0
 31
0.0
 73
     1
 44
1.0
1001
ACAD
1000
MTEXTBEGIN
1070
    73
1070
     1
1070
    44
1040
1.0
1070
    74
1070
     0
1000
MTEXTEND
  0
POINT
  5
C869
330
C55A
100
AcDbEntity
  8
Defpoints
 62
     0
100
AcDbPoint
 10
3916.225251400184
 20
2914.196233698554
 30
0.0
  0
POINT
  5
C86A
330
C55A
100
AcDbEntity
  8
Defpoints
 62
     0
100
AcDbPoint
 10
3916.225251400184
 20
2905.196202698554
 30
0.0
  0
POINT
  5
C86B
330
C55A
100
AcDbEntity
  8
Defpoints
 62
     0
100
AcDbPoint
 10
3929.725252410187
 20
2905.196202698554
 30
0.0
  0
ENDBLK
  5
C565
330
C55A
100
AcDbEntity
  8
0
100
AcDbBlockEnd
  0
BLOCK
  5
C57A
330
C570
100
AcDbEntity
  8
0
100
AcDbBlockBegin
  2
*D26
 70
     1
 10
0.0
 20
0.0
 30
0.0
  3
*D26
  1

  0
LINE
  5
C86C
330
C570
100
AcDbEntity
  8
AM_5
100
AcDbLine
 10
3917.225251400184
 20
2905.196202698554
 30
0.0
 11
3930.725252410189
 21
2905.196202698554
 31
0.0
  0
LINE
  5
C86D
330
C570
100
AcDbEntity
  8
AM_5
100
AcDbLine
 10
3840.225245400184
 20
2884.196204698553
 30
0.0
 11
3930.725252410189
 21
2884.196204698553
 31
0.0
  0
LINE
  5
C86E
330
C570
100
AcDbEntity
  8
AM_5
100
AcDbLine
 10
3929.725252410189
 20
2904.196202698554
 30
0.0
 11
3929.725252410189
 21
2885.196204698554
 31
0.0
  0
INSERT
  5
C86F
330
C570
100
AcDbEntity
  8
AM_5
100
AcDbBlockReference
  2
_Dot
 10
3929.725252410189
 20
2905.196202698554
 30
0.0
 50
90.0
  0
INSERT
  5
C870
330
C570
100
AcDbEntity
  8
AM_5
100
AcDbBlockReference
  2
_Dot
 10
3929.725252410189
 20
2884.196204698553
 30
0.0
 50
270.0
  0
MTEXT
  5
C871
330
C570
100
AcDbEntity
  8
AM_5
 62
     2
100
AcDbMText
 10
3926.625252410189
 20
2894.696203698554
 30
0.0
 40
3.200000000000001
 41
0.0
 71
     5
 72
     1
  1
21
 11
0.0000000000000001
 21
1.0
 31
0.0
 73
     1
 44
1.0
1001
ACAD
1000
MTEXTBEGIN
1070
    73
1070
     1
1070
    44
1040
1.0
1070
    74
1070
     0
1000
MTEXTEND
  0
POINT
  5
C872
330
C570
100
AcDbEntity
  8
Defpoints
 62
     0
100
AcDbPoint
 10
3916.225251400184
 20
2905.196202698554
 30
0.0
  0
POINT
  5
C873
330
C570
100
AcDbEntity
  8
Defpoints
 62
     0
100
AcDbPoint
 10
3839.225245400184
 20
2884.196204698553
 30
0.0
  0
POINT
  5
C874
330
C570
100
AcDbEntity
  8
Defpoints
 62
     0
100
AcDbPoint
 10
3929.725252410189
 20
2884.196204698553
 30
0.0
  0
ENDBLK
  5
C57B
330
C570
100
AcDbEntity
  8
0
100
AcDbBlockEnd
  0
BLOCK
  5
C590
330
C586
100
AcDbEntity
  8
0
100
AcDbBlockBegin
  2
*D27
 70
     1
 10
0.0
 20
0.0
 30
0.0
  3
*D27
  1

  0
LINE
  5
C875
330
C586
100
AcDbEntity
  8
AM_5
100
AcDbLine
 10
3840.225245400184
 20
2884.196204698553
 30
0.0
 11
3930.725252410191
 21
2884.196204698553
 31
0.0
  0
LINE
  5
C876
330
C586
100
AcDbEntity
  8
AM_5
100
AcDbLine
 10
3841.225245400184
 20
2874.196235698553
 30
0.0
 11
3930.725252410191
 21
2874.196235698553
 31
0.0
  0
LINE
  5
C877
330
C586
100
AcDbEntity
  8
AM_5
100
AcDbLine
 10
3929.725252410191
 20
2883.196204698553
 30
0.0
 11
3929.725252410191
 21
2875.196235698553
 31
0.0
  0
INSERT
  5
C878
330
C586
100
AcDbEntity
  8
AM_5
100
AcDbBlockReference
  2
_Dot
 10
3929.725252410191
 20
2884.196204698553
 30
0.0
 50
90.0
  0
INSERT
  5
C879
330
C586
100
AcDbEntity
  8
AM_5
100
AcDbBlockReference
  2
_Dot
 10
3929.725252410191
 20
2874.196235698553
 30
0.0
 50
270.0
  0
MTEXT
  5
C87A
330
C586
100
AcDbEntity
  8
AM_5
 62
     2
100
AcDbMText
 10
3926.625252410191
 20
2879.196220198554
 30
0.0
 40
3.200000000000001
 41
0.0
 71
     5
 72
     1
  1
10
 11
0.0000000000000001
 21
1.0
 31
0.0
 73
     1
 44
1.0
1001
ACAD
1000
MTEXTBEGIN
1070
    73
1070
     1
1070
    44
1040
1.0
1070
    74
1070
     0
1000
MTEXTEND
  0
POINT
  5
C87B
330
C586
100
AcDbEntity
  8
Defpoints
 62
     0
100
AcDbPoint
 10
3839.225245400184
 20
2884.196204698553
 30
0.0
  0
POINT
  5
C87C
330
C586
100
AcDbEntity
  8
Defpoints
 62
     0
100
AcDbPoint
 10
3840.225245400184
 20
2874.196235698553
 30
0.0
  0
POINT
  5
C87D
330
C586
100
AcDbEntity
  8
Defpoints
 62
     0
100
AcDbPoint
 10
3929.725252410191
 20
2874.196235698553
 30
0.0
  0
ENDBLK
  5
C591
330
C586
100
AcDbEntity
  8
0
100
AcDbBlockEnd
  0
BLOCK
  5
C5A6
330
C59C
100
AcDbEntity
  8
0
100
AcDbBlockBegin
  2
*D28
 70
     1
 10
0.0
 20
0.0
 30
0.0
  3
*D28
  1

  0
LINE
  5
C87E
330
C59C
100
AcDbEntity
  8
AM_5
100
AcDbLine
 10
3917.225251400184
 20
2914.196233698554
 30
0.0
 11
3940.725252410191
 21
2914.196233698554
 31
0.0
  0
LINE
  5
C87F
330
C59C
100
AcDbEntity
  8
AM_5
100
AcDbLine
 10
3841.225245400184
 20
2874.196235698553
 30
0.0
 11
3940.725252410191
 21
2874.196235698553
 31
0.0
  0
LINE
  5
C880
330
C59C
100
AcDbEntity
  8
AM_5
100
AcDbLine
 10
3939.725252410191
 20
2913.196233698553
 30
0.0
 11
3939.725252410191
 21
2875.196235698553
 31
0.0
  0
INSERT
  5
C881
330
C59C
100
AcDbEntity
  8
AM_5
100
AcDbBlockReference
  2
_Dot
 10
3939.725252410191
 20
2914.196233698554
 30
0.0
 50
90.0
  0
INSERT
  5
C882
330
C59C
100
AcDbEntity
  8
AM_5
100
AcDbBlockReference
  2
_Dot
 10
3939.725252410191
 20
2874.196235698553
 30
0.0
 50
270.0
  0
MTEXT
  5
C883
330
C59C
100
AcDbEntity
  8
AM_5
 62
     2
100
AcDbMText
 10
3936.625252410191
 20
2894.196234698554
 30
0.0
 40
3.200000000000001
 41
0.0
 71
     5
 72
     1
  1
40
 11
0.0000000000000001
 21
1.0
 31
0.0
 73
     1
 44
1.0
1001
ACAD
1000
MTEXTBEGIN
1070
    73
1070
     1
1070
    44
1040
1.0
1070
    74
1070
     0
1000
MTEXTEND
  0
POINT
  5
C884
330
C59C
100
AcDbEntity
  8
Defpoints
 62
     0
100
AcDbPoint
 10
3916.225251400184
 20
2914.196233698554
 30
0.0
  0
POINT
  5
C885
330
C59C
100
AcDbEntity
  8
Defpoints
 62
     0
100
AcDbPoint
 10
3840.225245400184
 20
2874.196235698553
 30
0.0
  0
POINT
  5
C886
330
C59C
100
AcDbEntity
  8
Defpoints
 62
     0
100
AcDbPoint
 10
3939.725252410191
 20
2874.196235698553
 30
0.0
  0
ENDBLK
  5
C5A7
330
C59C
100
AcDbEntity
  8
0
100
AcDbBlockEnd
  0
BLOCK
  5
C5BC
330
C5B2
100
AcDbEntity
  8
0
100
AcDbBlockBegin
  2
*D29
 70
     1
 10
0.0
 20
0.0
 30
0.0
  3
*D29
  1

  0
LINE
  5
C887
330
C5B2
100
AcDbEntity
  8
AM_5
100
AcDbLine
 10
3774.225255400184
 20
2874.196235698553
 30
0.0
 11
3762.225255400184
 21
2874.196235698553
 31
0.0
  0
LINE
  5
C888
330
C5B2
100
AcDbEntity
  8
AM_5
100
AcDbLine
 10
3804.725255400184
 20
2886.196204698553
 30
0.0
 11
3762.225255400184
 21
2886.196204698553
 31
0.0
  0
LINE
  5
C889
330
C5B2
100
AcDbEntity
  8
AM_5
100
AcDbLine
 10
3763.225255400184
 20
2875.196235698553
 30
0.0
 11
3763.225255400184
 21
2885.196204698554
 31
0.0
  0
INSERT
  5
C88A
330
C5B2
100
AcDbEntity
  8
AM_5
100
AcDbBlockReference
  2
_Dot
 10
3763.225255400184
 20
2874.196235698553
 30
0.0
 50
270.0
  0
INSERT
  5
C88B
330
C5B2
100
AcDbEntity
  8
AM_5
100
AcDbBlockReference
  2
_Dot
 10
3763.225255400184
 20
2886.196204698553
 30
0.0
 50
90.0
  0
MTEXT
  5
C88C
330
C5B2
100
AcDbEntity
  8
AM_5
 62
     2
100
AcDbMText
 10
3760.125255400183
 20
2880.196220198554
 30
0.0
 40
3.200000000000001
 41
0.0
 71
     5
 72
     1
  1
12
 11
0.0000000000000001
 21
1.0
 31
0.0
 73
     1
 44
1.0
1001
ACAD
1000
MTEXTBEGIN
1070
    73
1070
     1
1070
    44
1040
1.0
1070
    74
1070
     0
1000
MTEXTEND
  0
POINT
  5
C88D
330
C5B2
100
AcDbEntity
  8
Defpoints
 62
     0
100
AcDbPoint
 10
3775.225255400183
 20
2874.196235698553
 30
0.0
  0
POINT
  5
C88E
330
C5B2
100
AcDbEntity
  8
Defpoints
 62
     0
100
AcDbPoint
 10
3805.725255400183
 20
2886.196204698553
 30
0.0
  0
POINT
  5
C88F
330
C5B2
100
AcDbEntity
  8
Defpoints
 62
     0
100
AcDbPoint
 10
3763.225255400184
 20
2886.196204698553
 30
0.0
  0
ENDBLK
  5
C5BD
330
C5B2
100
AcDbEntity
  8
0
100
AcDbBlockEnd
  0
BLOCK
  5
C5D2
330
C5C8
100
AcDbEntity
  8
0
100
AcDbBlockBegin
  2
*D30
 70
     1
 10
0.0
 20
0.0
 30
0.0
  3
*D30
  1

  0
LINE
  5
C890
330
C5C8
100
AcDbEntity
  8
AM_5
100
AcDbLine
 10
3804.725255400184
 20
2886.196204698553
 30
0.0
 11
3762.225255400184
 21
2886.196204698553
 31
0.0
  0
LINE
  5
C891
330
C5C8
100
AcDbEntity
  8
AM_5
100
AcDbLine
 10
3798.278958400184
 20
2895.196204698553
 30
0.0
 11
3762.225255400184
 21
2895.196204698553
 31
0.0
  0
LINE
  5
C892
330
C5C8
100
AcDbEntity
  8
AM_5
100
AcDbLine
 10
3763.225255400184
 20
2887.196204698554
 30
0.0
 11
3763.225255400184
 21
2894.196204698554
 31
0.0
  0
INSERT
  5
C893
330
C5C8
100
AcDbEntity
  8
AM_5
100
AcDbBlockReference
  2
_Dot
 10
3763.225255400184
 20
2886.196204698553
 30
0.0
 50
270.0
  0
INSERT
  5
C894
330
C5C8
100
AcDbEntity
  8
AM_5
100
AcDbBlockReference
  2
_Dot
 10
3763.225255400184
 20
2895.196204698553
 30
0.0
 50
90.0
  0
MTEXT
  5
C895
330
C5C8
100
AcDbEntity
  8
AM_5
 62
     2
100
AcDbMText
 10
3760.125255400183
 20
2890.696204698554
 30
0.0
 40
3.200000000000001
 41
0.0
 71
     5
 72
     1
  1
9
 11
0.0000000000000001
 21
1.0
 31
0.0
 73
     1
 44
1.0
1001
ACAD
1000
MTEXTBEGIN
1070
    73
1070
     1
1070
    44
1040
1.0
1070
    74
1070
     0
1000
MTEXTEND
  0
POINT
  5
C896
330
C5C8
100
AcDbEntity
  8
Defpoints
 62
     0
100
AcDbPoint
 10
3805.725255400183
 20
2886.196204698553
 30
0.0
  0
POINT
  5
C897
330
C5C8
100
AcDbEntity
  8
Defpoints
 62
     0
100
AcDbPoint
 10
3799.278958400183
 20
2895.196204698553
 30
0.0
  0
POINT
  5
C898
330
C5C8
100
AcDbEntity
  8
Defpoints
 62
     0
100
AcDbPoint
 10
3763.225255400184
 20
2895.196204698553
 30
0.0
  0
ENDBLK
  5
C5D3
330
C5C8
100
AcDbEntity
  8
0
100
AcDbBlockEnd
  0
BLOCK
  5
C7C6
330
C7C0
100
AcDbEntity
  8
0
100
AcDbBlockBegin
  2
*D31
 70
     1
 10
0.0
 20
0.0
 30
0.0
  3
*D31
  1

  0
LINE
  5
C899
330
C7C0
100
AcDbEntity
  8
AM_5
100
AcDbLine
 10
3785.339366523814
 20
2980.845252414878
 30
0.0
 11
3780.11112827655
 21
2987.54715698223
 31
0.0
  0
LINE
  5
C89A
330
C7C0
100
AcDbEntity
  8
AM_5
100
AcDbLine
 10
3779.496041423931
 20
2988.335616343094
 30
0.0
 11
3769.465560674838
 21
3001.193355712613
 31
0.0
  0
LINE
  5
C89B
330
C7C0
100
AcDbEntity
  8
AM_5
100
AcDbLine
 10
3769.465560674838
 20
3001.193355712613
 30
0.0
 11
3736.675560674838
 21
3001.193355712613
 31
0.0
  0
INSERT
  5
C89C
330
C7C0
100
AcDbEntity
  8
AM_5
100
AcDbBlockReference
  2
_Dot
 10
3785.954453376433
 20
2980.056793054013
 30
0.0
 50
307.9582314258474
  0
INSERT
  5
C89D
330
C7C0
100
AcDbEntity
  8
AM_5
100
AcDbBlockReference
  2
_Dot
 10
3779.496041423931
 20
2988.335616343094
 30
0.0
 50
127.9582314258474
  0
MTEXT
  5
C89E
330
C7C0
100
AcDbEntity
  8
AM_5
 62
     2
100
AcDbMText
 10
3752.320560674838
 20
3004.443355712613
 30
0.0
 40
3.5
 41
0.0
 71
     5
 72
     1
  1
2-%%c5.5×\U+220510.5サラ
 73
     1
 44
1.0
1001
ACAD
1000
MTEXTBEGIN
1070
    73
1070
     1
1070
    44
1040
1.0
1070
    74
1070
     0
1000
MTEXTEND
  0
POINT
  5
C89F
330
C7C0
100
AcDbEntity
  8
Defpoints
 62
     0
100
AcDbPoint
 10
3779.496041423931
 20
2988.335616343094
 30
0.0
  0
POINT
  5
C8A0
330
C7C0
100
AcDbEntity
  8
Defpoints
 62
     0
100
AcDbPoint
 10
3785.954453376433
 20
2980.056793054013
 30
0.0
  0
ENDBLK
  5
C7C7
330
C7C0
100
AcDbEntity
  8
0
100
AcDbBlockEnd
  0
ENDSEC
  0
SECTION
  2
ENTITIES
  0
LINE
  5
B57F
330
1F
100
AcDbEntity
  8
0
  6
Continuous
 62
     7
100
AcDbLine
 10
4037.889726275667
 20
3122.882937262415
 30
0.0
 11
4037.889726275667
 21
2849.882937262415
 31
0.0
  0
LINE
  5
B580
330
1F
100
AcDbEntity
  8
0
  6
Continuous
 62
     7
100
AcDbLine
 10
3656.889726275668
 20
2849.882937262415
 30
0.0
 11
4037.889726275667
 21
2849.882937262415
 31
0.0
  0
LINE
  5
B581
330
1F
100
AcDbEntity
  8
0
  6
Continuous
 62
     7
100
AcDbLine
 10
3656.889726275668
 20
3122.882937262415
 30
0.0
 11
4037.889726275667
 21
3122.882937262415
 31
0.0
  0
LINE
  5
B582
330
1F
100
AcDbEntity
  8
0
  6
Continuous
 62
     7
100
AcDbLine
 10
3656.889726275668
 20
3122.882937262415
 30
0.0
 11
3656.889726275668
 21
2849.882937262415
 31
0.0
  0
LINE
  5
B583
330
1F
100
AcDbEntity
  8
0
  6
Continuous
 62
     7
100
AcDbLine
 10
3676.889726275668
 20
3122.882937262415
 30
0.0
 11
3676.889726275668
 21
3026.882937262415
 31
0.0
  0
LINE
  5
B584
330
1F
100
AcDbEntity
  8
0
  6
Continuous
 62
     7
100
AcDbLine
 10
3656.889726275668
 20
3114.882937262415
 30
0.0
 11
3766.889726275668
 21
3114.882937262415
 31
0.0
  0
LINE
  5
B585
330
1F
100
AcDbEntity
  8
0
  6
Continuous
 62
     7
100
AcDbLine
 10
3656.889726275668
 20
3106.882937262415
 30
0.0
 11
3766.889726275668
 21
3106.882937262415
 31
0.0
  0
LINE
  5
B586
330
1F
100
AcDbEntity
  8
0
  6
Continuous
 62
     7
100
AcDbLine
 10
3676.889726275668
 20
3058.882937262415
 30
0.0
 11
3766.889726275668
 21
3058.882937262415
 31
0.0
  0
LINE
  5
B587
330
1F
100
AcDbEntity
  8
0
  6
Continuous
 62
     7
100
AcDbLine
 10
3656.889726275668
 20
3050.882937262415
 30
0.0
 11
3766.889726275668
 21
3050.882937262415
 31
0.0
  0
LINE
  5
B588
330
1F
100
AcDbEntity
  8
AM_2
100
AcDbLine
 10
3676.889726275668
 20
3042.882937262415
 30
0.0
 11
3766.889726275668
 21
3042.882937262415
 31
0.0
  0
LINE
  5
B589
330
1F
100
AcDbEntity
  8
AM_2
100
AcDbLine
 10
3676.889726275668
 20
3034.882937262415
 30
0.0
 11
3766.889726275668
 21
3034.882937262415
 31
0.0
  0
LINE
  5
B58A
330
1F
100
AcDbEntity
  8
AM_0
100
AcDbLine
 10
3656.889726275668
 20
3026.882937262415
 30
0.0
 11
3766.889726275668
 21
3026.882937262415
 31
0.0
  0
LINE
  5
B58B
330
1F
100
AcDbEntity
  8
0
  6
Continuous
 62
     7
100
AcDbLine
 10
3656.889726275668
 20
3122.882937262415
 30
0.0
 11
3656.889726275668
 21
3018.882937262415
 31
0.0
  0
LINE
  5
B58C
330
1F
100
AcDbEntity
  8
0
  6
Continuous
 62
     7
100
AcDbLine
 10
3656.889726275668
 20
3122.882937262415
 30
0.0
 11
3766.889726275668
 21
3122.882937262415
 31
0.0
  0
LINE
  5
B58D
330
1F
100
AcDbEntity
  8
0
  6
Continuous
 62
     7
100
AcDbLine
 10
3766.889726275668
 20
3122.882937262415
 30
0.0
 11
3766.889726275668
 21
3026.882937262415
 31
0.0
  0
LINE
  5
B58E
330
1F
100
AcDbEntity
  8
0
  6
Continuous
 62
     7
100
AcDbLine
 10
3656.889726275668
 20
3066.882937262415
 30
0.0
 11
3766.889726275668
 21
3066.882937262415
 31
0.0
  0
LINE
  5
B58F
330
1F
100
AcDbEntity
  8
AM_2
100
AcDbLine
 10
3676.889726275668
 20
3058.882937262415
 30
0.0
 11
3766.889726275668
 21
3058.882937262415
 31
0.0
  0
LINE
  5
B590
330
1F
100
AcDbEntity
  8
0
  6
Continuous
 62
     7
100
AcDbLine
 10
3656.889726275668
 20
3074.882937262415
 30
0.0
 11
3766.889726275668
 21
3074.882937262415
 31
0.0
  0
LINE
  5
B591
330
1F
100
AcDbEntity
  8
0
  6
Continuous
 62
     7
100
AcDbLine
 10
3656.889726275668
 20
3090.882937262415
 30
0.0
 11
3766.889726275668
 21
3090.882937262415
 31
0.0
  0
LINE
  5
B5DC
330
1F
100
AcDbEntity
  8
AM_2
100
AcDbLine
 10
3676.889726275668
 20
3098.882937262415
 30
0.0
 11
3766.889726275668
 21
3098.882937262415
 31
0.0
  0
LINE
  5
B5DD
330
1F
100
AcDbEntity
  8
AM_2
100
AcDbLine
 10
3676.889726275668
 20
3082.882937262415
 30
0.0
 11
3766.889726275668
 21
3082.882937262415
 31
0.0
  0
TEXT
  5
B646
330
1F
100
AcDbEntity
  8
AM_6
 48
1.01
100
AcDbText
 10
3662.546726275668
 20
3117.282937262415
 30
0.0
 40
3.2
  1
品　名
 41
0.85537027
100
AcDbText
  0
TEXT
  5
B647
330
1F
100
AcDbEntity
  8
AM_6
 48
1.01
100
AcDbText
 10
3662.546726275668
 20
3109.282937262416
 30
0.0
 40
3.2
  1
品　番
 41
0.85537027
100
AcDbText
  0
TEXT
  5
B648
330
1F
100
AcDbEntity
  8
AM_6
 48
1.01
100
AcDbText
 10
3662.546726275668
 20
3101.282937262415
 30
0.0
 40
3.2
  1
材　質
 41
0.85537027
100
AcDbText
  0
TEXT
  5
B649
330
1F
100
AcDbEntity
  8
AM_6
 48
1.01
100
AcDbText
 10
3662.546726275668
 20
3085.282937262415
 30
0.0
 40
3.2
  1
仕上げ
 41
0.85537027
100
AcDbText
  0
TEXT
  5
B64A
330
1F
100
AcDbEntity
  8
AM_6
 48
1.01
100
AcDbText
 10
3679.746726275668
 20
3053.282937262415
 30
0.0
 40
3.2
  1
＊
 41
0.90047268
100
AcDbText
  0
TEXT
  5
B64B
330
1F
100
AcDbEntity
  8
AM_6
 48
1.01
100
AcDbText
 10
3659.346726275668
 20
3061.282937262415
 30
0.0
 40
3.2
  1
セットビス
 41
0.84892707
100
AcDbText
  0
TEXT
  5
B64C
330
1F
100
AcDbEntity
  8
AM_6
 48
1.01
100
AcDbText
 10
3679.746726275668
 20
3061.282937262415
 30
0.0
 40
3.2
  1
＊
 41
0.90047268
100
AcDbText
  0
TEXT
  5
B64D
330
1F
100
AcDbEntity
  8
AM_6
 48
1.01
100
AcDbText
 10
3664.146726275668
 20
3045.282937262415
 30
0.0
 40
3.2
  1
備考
 41
0.8643907499999999
100
AcDbText
  0
TEXT
  5
B64E
330
1F
100
AcDbEntity
  8
AM_6
 48
1.01
100
AcDbText
 10
3660.946726275668
 20
3069.282937262415
 30
0.0
 40
3.2
  1
左右勝手
 41
0.8512700499999999
100
AcDbText
  0
TEXT
  5
B64F
330
1F
100
AcDbEntity
  8
AM_6
 48
1.01
100
AcDbText
 10
3679.746726275668
 20
3117.282937262415
 30
0.0
 40
3.2
  1
窓ハンドル（防火仕様）
 41
0.8440946700000001
100
AcDbText
  0
TEXT
  5
B650
330
1F
100
AcDbEntity
  8
AM_6
 48
1.01
100
AcDbText
 10
3679.746726275668
 20
3109.282937262416
 30
0.0
 40
3.2
  1
ＹＵＢ－１７
 41
0.84741102
100
AcDbText
  0
TEXT
  5
B651
330
1F
100
AcDbEntity
  8
AM_6
 48
1.01
100
AcDbText
 10
3679.511176275668
 20
3069.249107262415
 30
0.0
 40
3.2
  1
右勝手
 41
0.85537027
100
AcDbText
  0
TEXT
  5
B652
330
1F
100
AcDbEntity
  8
AM_6
 48
1.01
100
AcDbText
 10
3679.959376275668
 20
3101.282937262415
 30
0.0
 40
3.2
  1
台座：亜鉛ダイキャスト・ハンドル：亜鉛ダイキャスト
 41
0.6853154500000001
100
AcDbText
  0
TEXT
  5
B653
330
1F
100
AcDbEntity
  8
AM_6
 48
1.01
100
AcDbText
 10
3680.151626275668
 20
3085.282937262415
 30
0.0
 40
3.2
  1
台座：焼付塗装（シルバー、ブロンズ）・ハンドル：焼付塗装（シルバー、ブロンズ）
 41
0.54332074
100
AcDbText
  0
TEXT
  5
B655
330
1F
100
AcDbEntity
  8
AM_6
 48
1.01
100
AcDbText
 10
3679.959376275668
 20
3093.282937262415
 30
0.0
 40
3.2
  1
カム：ステンレス・スペーサー：ステンレス
 41
0.68565179
100
AcDbText
  0
TEXT
  5
B656
330
1F
100
AcDbEntity
  8
AM_6
 48
1.01
100
AcDbText
 10
3680.066576275668
 20
3077.282937262415
 30
0.0
 40
3.2
  1
カム：生地・スペーサー：生地
 41
0.6072913800000001
100
AcDbText
  0
LINE
  5
C18B
330
1F
100
AcDbEntity
  8
0
  6
Continuous
 62
     7
 48
0.275
100
AcDbLine
 10
3813.725247400184
 20
2893.696204698553
 30
0.0
 11
3813.725247400184
 21
2888.196204698553
 31
0.0
  0
LINE
  5
C18C
330
1F
100
AcDbEntity
  8
0
  6
Continuous
 62
     7
100
AcDbLine
 10
3815.503422400183
 20
2914.196233698554
 30
0.0
 11
3916.225251400184
 21
2914.196233698554
 31
0.0
  0
LINE
  5
C18D
330
1F
100
AcDbEntity
  8
0
  6
Continuous
 62
     7
 48
0.4499984499999983
100
AcDbLine
 10
3840.225245400184
 20
2883.196204698553
 30
0.0
 11
3840.225245400184
 21
2874.196235698553
 31
0.0
  0
LINE
  5
C18E
330
1F
100
AcDbEntity
  8
0
  6
Continuous
 62
     7
 48
0.7750062999999955
100
AcDbLine
 10
3823.725119400183
 20
2884.196204698553
 30
0.0
 11
3839.225245400184
 21
2884.196204698553
 31
0.0
  0
LINE
  5
C18F
330
1F
100
AcDbEntity
  8
AM_7
 48
0.6999986499999978
100
AcDbLine
 10
3832.725245400184
 20
2886.196204698553
 30
0.0
 11
3832.725245400184
 21
2872.196231698553
 31
0.0
  0
LINE
  5
C190
330
1F
100
AcDbEntity
  8
0
  6
Continuous
 62
     7
 48
0.3000015500000018
100
AcDbLine
 10
3917.725251400184
 20
2912.696233698554
 30
0.0
 11
3917.725251400184
 21
2906.696202698554
 31
0.0
  0
LINE
  5
C191
330
1F
100
AcDbEntity
  8
0
  6
Continuous
 62
     7
100
AcDbLine
 10
3775.225255400183
 20
2874.196235698553
 30
0.0
 11
3840.225245400184
 21
2874.196235698553
 31
0.0
  0
LINE
  5
C192
330
1F
100
AcDbEntity
  8
0
  6
Continuous
 62
     7
 48
0.500000399999999
100
AcDbLine
 10
3794.725247400184
 20
2887.196204698554
 30
0.0
 11
3804.725255400184
 21
2887.196204698554
 31
0.0
  0
LINE
  5
C193
330
1F
100
AcDbEntity
  8
0
  6
Continuous
 62
     7
 48
0.350000399999999
100
AcDbLine
 10
3796.725247400183
 20
2888.196204698553
 30
0.0
 11
3803.725255400183
 21
2888.196204698553
 31
0.0
  0
LINE
  5
C194
330
1F
100
AcDbEntity
  8
0
  6
Continuous
 62
     7
 48
0.15
100
AcDbLine
 10
3796.725247400183
 20
2888.196204698553
 30
0.0
 11
3796.725247400183
 21
2887.196204698554
 31
0.0
  0
LINE
  5
C195
330
1F
100
AcDbEntity
  8
0
  6
Continuous
 62
     7
 48
0.4446838500000013
100
AcDbLine
 10
3818.725249400184
 20
2896.089881698554
 30
0.0
 11
3818.725247400184
 21
2887.196204698554
 31
0.0
  0
LINE
  5
C196
330
1F
100
AcDbEntity
  8
0
  6
Continuous
 62
     7
 48
0.2121262714357186
100
AcDbLine
 10
3820.725193400184
 20
2887.196143698554
 30
0.0
 11
3823.725110400184
 21
2884.196223698554
 31
0.0
  0
LINE
  5
C197
330
1F
100
AcDbEntity
  8
AM_7
100
AcDbLine
 10
3807.725247400184
 20
2913.029424698553
 30
0.0
 11
3807.725247400184
 21
2868.343974698553
 31
0.0
  0
LINE
  5
C198
330
1F
100
AcDbEntity
  8
0
  6
Continuous
 62
     7
 48
0.8973144499999989
100
AcDbLine
 10
3799.278958400183
 20
2895.196204698553
 30
0.0
 11
3817.225247400184
 21
2895.196204698553
 31
0.0
  0
LINE
  5
C199
330
1F
100
AcDbEntity
  8
0
  6
Continuous
 62
     7
 48
0.4499984499999983
100
AcDbLine
 10
3775.225255400183
 20
2883.196204698553
 30
0.0
 11
3775.225255400183
 21
2874.196235698553
 31
0.0
  0
LINE
  5
C19A
330
1F
100
AcDbEntity
  8
0
  6
Continuous
 62
     7
 48
0.7750038000000133
100
AcDbLine
 10
3791.725331400184
 20
2884.196204698553
 30
0.0
 11
3776.225255400183
 21
2884.196204698553
 31
0.0
  0
LINE
  5
C19B
330
1F
100
AcDbEntity
  8
AM_7
 48
0.6999986499999978
100
AcDbLine
 10
3782.725247400184
 20
2886.196204698553
 30
0.0
 11
3782.725247400184
 21
2872.196231698553
 31
0.0
  0
LINE
  5
C19C
330
1F
100
AcDbEntity
  8
0
  6
Continuous
 62
     7
 48
0.5000007500000038
100
AcDbLine
 10
3810.725232400184
 20
2887.196204698554
 30
0.0
 11
3820.725247400183
 21
2887.196204698554
 31
0.0
  0
LINE
  5
C19D
330
1F
100
AcDbEntity
  8
0
  6
Continuous
 62
     7
 48
0.1999988499999972
100
AcDbLine
 10
3805.725255400183
 20
2886.196204698553
 30
0.0
 11
3809.725232400184
 21
2886.196204698553
 31
0.0
  0
LINE
  5
C19E
330
1F
100
AcDbEntity
  8
0
  6
Continuous
 62
     7
 48
0.15
100
AcDbLine
 10
3805.725304400184
 20
2886.196235698553
 30
0.0
 11
3803.725300400184
 21
2888.196238698554
 31
0.0
  0
LINE
  5
C19F
330
1F
100
AcDbEntity
  8
0
  6
Continuous
 62
     7
 48
0.15
100
AcDbLine
 10
3809.725243400184
 20
2886.196216698553
 30
0.0
 11
3811.725247400184
 21
2888.196216698553
 31
0.0
  0
LINE
  5
C1A0
330
1F
100
AcDbEntity
  8
0
  6
Continuous
 62
     7
 48
0.2121300191016574
100
AcDbLine
 10
3794.725308400184
 20
2887.196177698553
 30
0.0
 11
3791.725338400184
 21
2884.196204698553
 31
0.0
  0
LINE
  5
C1A1
330
1F
100
AcDbEntity
  8
0
  6
Continuous
 62
     7
 48
0.3500007500000038
100
AcDbLine
 10
3811.725232400183
 20
2888.196204698553
 30
0.0
 11
3818.725247400184
 21
2888.196204698553
 31
0.0
  0
LINE
  5
C1A2
330
1F
100
AcDbEntity
  8
0
  6
Continuous
 62
     7
 48
0.5599735376068013
100
AcDbLine
 10
3821.700828856731
 20
2900.661721750791
 30
0.0
 11
3831.941264400184
 21
2905.196235698554
 31
0.0
  0
LINE
  5
C1A3
330
1F
100
AcDbEntity
  8
AM_7
100
AcDbLine
 10
3807.725247400184
 20
2955.196233698554
 30
0.0
 11
3807.725247400184
 21
3002.580996698553
 31
0.0
  0
LINE
  5
C1A4
330
1F
100
AcDbEntity
  8
AM_7
100
AcDbLine
 10
3773.225255400183
 20
2984.196204698553
 30
0.0
 11
3842.225245400184
 21
2984.196204698553
 31
0.0
  0
LINE
  5
C1A5
330
1F
100
AcDbEntity
  8
0
  6
Continuous
 62
     7
 48
0.7000000000000001
100
AcDbLine
 10
3775.225255400183
 20
2977.196204698553
 30
0.0
 11
3775.225255400183
 21
2991.196204698553
 31
0.0
  0
LINE
  5
C1A6
330
1F
100
AcDbEntity
  8
0
  6
Continuous
 62
     7
 48
0.7000000000000001
100
AcDbLine
 10
3840.225245400184
 20
2977.196204698553
 30
0.0
 11
3840.225245400184
 21
2991.196204698553
 31
0.0
  0
LINE
  5
C1A7
330
1F
100
AcDbEntity
  8
0
  6
Continuous
 62
     7
100
AcDbLine
 10
3779.225247400184
 20
2995.196204698553
 30
0.0
 11
3803.168904400184
 21
2995.196204698553
 31
0.0
  0
LINE
  5
C1A8
330
1F
100
AcDbEntity
  8
0
  6
Continuous
 62
     7
 48
0.9708568499999955
100
AcDbLine
 10
3779.225247400184
 20
2973.196204698553
 30
0.0
 11
3798.642384400184
 21
2973.196204698553
 31
0.0
  0
LINE
  5
C1A9
330
1F
100
AcDbEntity
  8
0
  6
Continuous
 62
     7
 48
0.9583540999999968
100
AcDbLine
 10
3817.058163400184
 20
2973.196204698553
 30
0.0
 11
3836.225245400184
 21
2973.196204698553
 31
0.0
  0
LINE
  5
C1AA
330
1F
100
AcDbEntity
  8
AM_7
 48
0.7250000000000001
100
AcDbLine
 10
3832.725245400184
 20
2976.946204698553
 30
0.0
 11
3832.725245400184
 21
2991.446204698553
 31
0.0
  0
LINE
  5
C1AB
330
1F
100
AcDbEntity
  8
AM_7
 48
0.7250000000000001
100
AcDbLine
 10
3782.725247400184
 20
2976.946204698553
 30
0.0
 11
3782.725247400184
 21
2991.446204698553
 31
0.0
  0
LINE
  5
C1AC
330
1F
100
AcDbEntity
  8
0
  6
Continuous
 62
     7
 48
0.7000000000000001
100
AcDbLine
 10
3794.725247400184
 20
2977.196204698553
 30
0.0
 11
3794.725247400184
 21
2991.196204698553
 31
0.0
  0
LINE
  5
C1AD
330
1F
100
AcDbEntity
  8
0
  6
Continuous
 62
     7
100
AcDbLine
 10
3801.466114400184
 20
2959.179753698553
 30
0.0
 11
3796.934834400184
 21
2982.059184698553
 31
0.0
  0
LINE
  5
C1AE
330
1F
100
AcDbEntity
  8
0
  6
Continuous
 62
     7
 48
0.2872435390180232
100
AcDbLine
 10
3802.020508400184
 20
2888.196212698553
 30
0.0
 11
3803.558087400184
 21
2893.731498698553
 31
0.0
  0
LINE
  5
C1B0
330
1F
100
AcDbEntity
  8
0
  6
Continuous
 62
     7
 48
0.413858049999999
100
AcDbLine
 10
3823.725241400184
 20
2977.196204698553
 30
0.0
 11
3823.725241400184
 21
2985.473365698553
 31
0.0
  0
LINE
  5
C1B1
330
1F
100
AcDbEntity
  8
0
  6
Continuous
 62
     7
 48
0.8097946068647331
100
AcDbLine
 10
3819.687245400184
 20
2980.661078698553
 30
0.0
 11
3830.097764400184
 21
2993.067851698553
 31
0.0
  0
LINE
  5
C1B2
330
1F
100
AcDbEntity
  8
0
  6
Continuous
 62
     7
 48
0.8774474612714922
100
AcDbLine
 10
3828.973071400183
 20
2994.061068698553
 30
0.0
 11
3816.564091400184
 21
3006.470050698553
 31
0.0
  0
LINE
  5
C1B3
330
1F
100
AcDbEntity
  8
0
  6
Continuous
 62
     7
100
AcDbLine
 10
3910.847416400184
 20
2996.197265698553
 30
0.0
 11
3833.840725400184
 21
2994.853114698554
 31
0.0
  0
LINE
  5
C1B4
330
1F
100
AcDbEntity
  8
0
  6
Continuous
 62
     7
100
AcDbLine
 10
3813.932023400184
 20
2958.822051698554
 30
0.0
 11
3818.385716400184
 21
2979.300315698554
 31
0.0
  0
LINE
  5
C1B5
330
1F
100
AcDbEntity
  8
0
  6
Continuous
 62
     7
 48
0.2350952000000007
100
AcDbLine
 10
3820.725247400183
 20
2977.196204698553
 30
0.0
 11
3820.725247400183
 21
2981.898108698553
 31
0.0
  0
LINE
  5
C1B6
330
1F
100
AcDbEntity
  8
0
  6
Continuous
 62
     7
100
AcDbLine
 10
3910.847420400184
 20
3010.195147698553
 30
0.0
 11
3821.879860400184
 21
3011.748088698553
 31
0.0
  0
LINE
  5
C1B7
330
1F
100
AcDbEntity
  8
0
  6
Continuous
 62
     7
100
AcDbLine
 10
3799.947075400183
 20
2991.974387698553
 30
0.0
 11
3818.257069400184
 21
3010.284381698554
 31
0.0
  0
LINE
  5
C1B8
330
1F
100
AcDbEntity
  8
0
  6
Continuous
 62
     7
 48
0.7000000000000001
100
AcDbLine
 10
3791.725186400184
 20
2977.196204698553
 30
0.0
 11
3791.725186400184
 21
2991.196204698553
 31
0.0
  0
LINE
  5
C1BD
330
1F
100
AcDbEntity
  8
0
  6
Continuous
 62
     7
 48
0.3000015500000018
100
AcDbLine
 10
3831.562441400184
 20
2906.696202698554
 30
0.0
 11
3831.562441400184
 21
2912.696233698554
 31
0.0
  0
LINE
  5
C1BE
330
1F
100
AcDbEntity
  8
0
  6
Continuous
 62
     7
 48
0.2037536675270522
100
AcDbLine
 10
3816.157452400183
 20
2977.072062698553
 30
0.0
 11
3819.038964400183
 21
2979.953574698554
 31
0.0
  0
LINE
  5
C1C1
330
1F
100
AcDbEntity
  8
AM_7
 48
0.9000013500000022
100
AcDbLine
 10
3910.725251400183
 20
3012.196231698553
 30
0.0
 11
3910.725251400183
 21
2994.196204698554
 31
0.0
  0
LINE
  5
C1C2
330
1F
100
AcDbEntity
  8
AM_7
 48
0.9
100
AcDbLine
 10
3901.725247400184
 20
3003.196200698554
 30
0.0
 11
3919.725247400183
 21
3003.196200698554
 31
0.0
  0
LINE
  5
C1C4
330
1F
100
AcDbEntity
  8
0
  6
Continuous
 62
     7
 48
0.6482517738201588
100
AcDbLine
 10
3803.482602400184
 20
2909.339068698553
 30
0.0
 11
3815.503426400184
 21
2914.196221698554
 31
0.0
  0
LINE
  5
C1C5
330
1F
100
AcDbEntity
  8
0
  6
Continuous
 62
     7
 48
0.5659939216082401
100
AcDbLine
 10
3819.687260400184
 20
2909.613004698553
 30
0.0
 11
3830.037796400184
 21
2914.196240698553
 31
0.0
  0
LINE
  5
C1C6
330
1F
100
AcDbEntity
  8
0
  6
Continuous
 62
     7
 48
0.9624007576009358
100
AcDbLine
 10
3796.725255400184
 20
2888.196208698553
 30
0.0
 11
3800.260785400184
 21
2907.116729698553
 31
0.0
  0
LINE
  5
C1C7
330
1F
100
AcDbEntity
  8
0
  6
Continuous
 62
     7
100
AcDbLine
 10
3803.031857400184
 20
2958.957333698553
 30
0.0
 11
3799.061676400184
 21
2979.003638698554
 31
0.0
  0
LINE
  5
C1C8
330
1F
100
AcDbEntity
  8
0
  6
Continuous
 62
     7
100
AcDbLine
 10
3831.941264400184
 20
2905.196202698554
 30
0.0
 11
3916.225251400184
 21
2905.196202698554
 31
0.0
  0
ARC
  5
C1CD
330
1F
100
AcDbEntity
  8
0
  6
Continuous
 62
     7
 48
0.3
100
AcDbCircle
 10
3812.225247400184
 20
2893.696204698553
 30
0.0
 40
1.5
100
AcDbArc
 50
0.0
 51
90.0
  0
ARC
  5
C1CE
330
1F
100
AcDbEntity
  8
0
  6
Continuous
 62
     7
 48
0.3
100
AcDbCircle
 10
3839.225245400184
 20
2883.196204698553
 30
0.0
 40
1.0
100
AcDbArc
 50
0.0
 51
90.0
  0
ARC
  5
C1CF
330
1F
100
AcDbEntity
  8
0
  6
Continuous
 62
     7
 48
0.3
100
AcDbCircle
 10
3776.225255400183
 20
2883.196204698553
 30
0.0
 40
1.0
100
AcDbArc
 50
90.0
 51
180.0
  0
ARC
  5
C1D0
330
1F
100
AcDbEntity
  8
0
  6
Continuous
 62
     7
 48
0.3
100
AcDbCircle
 10
3916.225251400184
 20
2912.696233698554
 30
0.0
 40
1.5
100
AcDbArc
 50
359.999929999993
 51
90.0
  0
ARC
  5
C1D1
330
1F
100
AcDbEntity
  8
0
  6
Continuous
 62
     7
 48
0.3
100
AcDbCircle
 10
3916.225251400184
 20
2906.696202698554
 30
0.0
 40
1.5
100
AcDbArc
 50
270.0
 51
0.0
  0
ARC
  5
C1D2
330
1F
100
AcDbEntity
  8
0
  6
Continuous
 62
     7
100
AcDbCircle
 10
3807.725247400184
 20
2984.196204698553
 30
0.0
 40
27.0
100
AcDbArc
 50
260.1023100000339
 51
280.7149099999683
  0
ARC
  5
C1D3
330
1F
100
AcDbEntity
  8
0
  6
Continuous
 62
     7
 48
0.4
100
AcDbCircle
 10
3819.725239400184
 20
2977.196204698553
 30
0.0
 40
4.0
100
AcDbArc
 50
270.0
 51
0.0000500000050321
  0
ARC
  5
C1D4
330
1F
100
AcDbEntity
  8
0
  6
Continuous
 62
     7
 48
0.4
100
AcDbCircle
 10
3795.725186400184
 20
2977.196204698553
 30
0.0
 40
4.0
100
AcDbArc
 50
180.0
 51
269.9999499999949
  0
ARC
  5
C1D5
330
1F
100
AcDbEntity
  8
0
  6
Continuous
 62
     7
 48
0.4
100
AcDbCircle
 10
3798.725247400184
 20
2991.196204698553
 30
0.0
 40
4.0
100
AcDbArc
 50
90.0
 51
180.0
  0
ARC
  5
C1D6
330
1F
100
AcDbEntity
  8
0
  6
Continuous
 62
     7
 48
0.4
100
AcDbCircle
 10
3795.725186400184
 20
2991.196204698553
 30
0.0
 40
4.0
100
AcDbArc
 50
90.0
 51
180.0
  0
ARC
  5
C1D7
330
1F
100
AcDbEntity
  8
0
  6
Continuous
 62
     7
 48
0.4
100
AcDbCircle
 10
3816.725247400184
 20
2977.196204698553
 30
0.0
 40
4.0
100
AcDbArc
 50
274.8183899999612
 51
0.0
  0
ARC
  5
C1D8
330
1F
100
AcDbEntity
  8
0
  6
Continuous
 62
     7
 48
0.4
100
AcDbCircle
 10
3798.725247400184
 20
2977.196204698553
 30
0.0
 40
4.0
100
AcDbArc
 50
180.0
 51
269.9999499999949
  0
ARC
  5
C1D9
330
1F
100
AcDbEntity
  8
0
  6
Continuous
 62
     7
 48
0.4
100
AcDbCircle
 10
3779.225247400184
 20
2977.196204698553
 30
0.0
 40
4.0
100
AcDbArc
 50
180.0
 51
270.0
  0
ARC
  5
C1DA
330
1F
100
AcDbEntity
  8
0
  6
Continuous
 62
     7
 48
0.4
100
AcDbCircle
 10
3836.225245400184
 20
2977.196204698553
 30
0.0
 40
4.0
100
AcDbArc
 50
269.999969999997
 51
0.0000500000050321
  0
ARC
  5
C1DB
330
1F
100
AcDbEntity
  8
0
  6
Continuous
 62
     7
 48
0.4
100
AcDbCircle
 10
3779.225247400184
 20
2991.196204698553
 30
0.0
 40
4.0
100
AcDbArc
 50
90.0
 51
180.0
  0
ARC
  5
C1DC
330
1F
100
AcDbEntity
  8
0
  6
Continuous
 62
     7
 48
0.4
100
AcDbCircle
 10
3836.225245400184
 20
2991.196204698553
 30
0.0
 40
4.0
100
AcDbArc
 50
359.9999499999949
 51
67.37841000003098
  0
CIRCLE
  5
C1DD
330
1F
100
AcDbEntity
  8
0
  6
Continuous
 62
     7
 48
0.4
100
AcDbCircle
 10
3832.725245400184
 20
2984.196204698553
 30
0.0
 40
2.75
  0
CIRCLE
  5
C1DE
330
1F
100
AcDbEntity
  8
0
  6
Continuous
 62
     7
 48
0.4
100
AcDbCircle
 10
3782.725247400184
 20
2984.196204698553
 30
0.0
 40
2.75
  0
CIRCLE
  5
C1DF
330
1F
100
AcDbEntity
  8
0
  6
Continuous
 62
     7
 48
0.4
100
AcDbCircle
 10
3782.725247400184
 20
2984.196204698553
 30
0.0
 40
3.75
  0
CIRCLE
  5
C1E0
330
1F
100
AcDbEntity
  8
0
  6
Continuous
 62
     7
 48
0.4
100
AcDbCircle
 10
3832.725245400184
 20
2984.196204698553
 30
0.0
 40
3.75
  0
CIRCLE
  5
C1E1
330
1F
100
AcDbEntity
  8
0
  6
Continuous
 62
     7
 48
0.525
100
AcDbCircle
 10
3832.725245400184
 20
2984.196204698553
 30
0.0
 40
5.25
  0
CIRCLE
  5
C1E2
330
1F
100
AcDbEntity
  8
0
  6
Continuous
 62
     7
 48
0.525
100
AcDbCircle
 10
3782.725247400184
 20
2984.196204698553
 30
0.0
 40
5.25
  0
ARC
  5
C1E3
330
1F
100
AcDbEntity
  8
0
  6
Continuous
 62
     7
 48
0.3
100
AcDbCircle
 10
3803.428006400184
 20
2959.568334698554
 30
0.0
 40
2.0
100
AcDbArc
 50
191.2023599999927
 51
260.1023699999966
  0
ARC
  5
C1E4
330
1F
100
AcDbEntity
  8
0
  6
Continuous
 62
     7
100
AcDbCircle
 10
3807.725247400184
 20
2984.196204698553
 30
0.0
 40
11.0
100
AcDbArc
 50
135.0000000000092
 51
191.2025100000115
  0
ARC
  5
C1E5
330
1F
100
AcDbEntity
  8
0
  6
Continuous
 62
     7
 48
0.3
100
AcDbCircle
 10
3817.225247400184
 20
2893.696204698553
 30
0.0
 40
1.5
100
AcDbArc
 50
0.0
 51
90.0
  0
ARC
  5
C1E6
330
1F
100
AcDbEntity
  8
0
  6
Continuous
 62
     7
 48
0.4
100
AcDbCircle
 10
3836.225245400184
 20
2991.196204698553
 30
0.0
 40
4.0
100
AcDbArc
 50
0.0
 51
22.81721999999249
  0
ARC
  5
C1E7
330
1F
100
AcDbEntity
  8
0
  6
Continuous
 62
     7
 48
0.5
100
AcDbCircle
 10
3833.927989400184
 20
2989.853888698553
 30
0.0
 40
5.0
100
AcDbArc
 50
91.00001260000654
 51
140.0000259999804
  0
ARC
  5
C1E8
330
1F
100
AcDbEntity
  8
0
  6
Continuous
 62
     7
 48
0.3
100
AcDbCircle
 10
3812.466282400184
 20
2959.140843698554
 30
0.0
 40
1.5
100
AcDbArc
 50
280.714960000002
 51
347.7302599999977
  0
ARC
  5
C1E9
330
1F
100
AcDbEntity
  8
0
  6
Continuous
 62
     7
 48
0.3
100
AcDbCircle
 10
3805.485112400184
 20
2893.196204698553
 30
0.0
 40
2.0
100
AcDbArc
 50
90.0
 51
164.4757019999829
  0
ARC
  5
C1EA
330
1F
100
AcDbEntity
  8
0
  6
Continuous
 62
     7
 48
0.7000000000000001
100
AcDbCircle
 10
3910.725251400183
 20
3003.196200698554
 30
0.0
 40
7.0
100
AcDbArc
 50
270.9999899999628
 51
88.9999799999985
  0
ARC
  5
C1EB
330
1F
100
AcDbEntity
  8
0
  6
Continuous
 62
     7
 48
0.5
100
AcDbCircle
 10
3823.725249400184
 20
2896.089881698554
 30
0.0
 40
5.0
100
AcDbArc
 50
113.8838649999752
 51
180.0
  0
ARC
  5
C1EC
330
1F
100
AcDbEntity
  8
0
  6
Continuous
 62
     7
100
AcDbCircle
 10
3811.260777400184
 20
2987.731757698553
 30
0.0
 40
11.0
100
AcDbArc
 50
135.0000000000092
 51
319.9999499999919
  0
ARC
  5
C1ED
330
1F
100
AcDbEntity
  8
0
  6
Continuous
 62
     7
 48
0.5
100
AcDbCircle
 10
3821.792607400184
 20
3006.748843698553
 30
0.0
 40
5.0
100
AcDbArc
 50
89.00001000003713
 51
134.9999690000112
  0
ARC
  5
C1EE
330
1F
100
AcDbEntity
  8
0
  6
Continuous
 62
     7
 48
0.3
100
AcDbCircle
 10
3799.278958400183
 20
2893.696204698553
 30
0.0
 40
1.5
100
AcDbArc
 50
90.0
 51
169.4154950000132
  0
ARC
  5
C1EF
330
1F
100
AcDbEntity
  8
0
  6
Continuous
 62
     7
 48
0.3
100
AcDbCircle
 10
3804.993748400184
 20
2959.345891698553
 30
0.0
 40
2.0
100
AcDbArc
 50
191.2024200000015
 51
263.727409999996
  0
ARC
  5
C1F0
330
1F
100
AcDbEntity
  8
0
  6
Continuous
 62
     7
100
AcDbCircle
 10
3808.379269400184
 20
2984.850226698553
 30
0.0
 40
11.0
100
AcDbArc
 50
212.1073600000102
 51
315.0000099999913
  0
POLYLINE
  5
C20C
330
1F
100
AcDbEntity
  8
0
  6
Continuous
 62
     7
 48
1.01
100
AcDb2dPolyline
 66
     1
 10
0.0
 20
0.0
 30
0.0
  0
VERTEX
  5
C20D
330
C20C
100
AcDbEntity
  8
0
  6
Continuous
 62
     7
 48
1.01
100
AcDbVertex
100
AcDb2dVertex
 10
3819.687260400184
 20
2909.612981698553
 30
0.0
 42
-0.0067737265
  0
VERTEX
  5
C20E
330
C20C
100
AcDbEntity
  8
0
  6
Continuous
 62
     7
 48
1.01
100
AcDbVertex
100
AcDb2dVertex
 10
3819.049428400184
 20
2909.343432698554
 30
0.0
 42
-0.0068872697
  0
VERTEX
  5
C20F
330
C20C
100
AcDbEntity
  8
0
  6
Continuous
 62
     7
 48
1.01
100
AcDbVertex
100
AcDb2dVertex
 10
3818.404326400184
 20
2909.091884698554
 30
0.0
 42
-0.0056532282
  0
VERTEX
  5
C210
330
C20C
100
AcDbEntity
  8
0
  6
Continuous
 62
     7
 48
1.01
100
AcDbVertex
100
AcDb2dVertex
 10
3817.753071400184
 20
2908.856577698553
 30
0.0
 42
-0.0045662988
  0
VERTEX
  5
C211
330
C20C
100
AcDbEntity
  8
0
  6
Continuous
 62
     7
 48
1.01
100
AcDbVertex
100
AcDb2dVertex
 10
3817.097155400184
 20
2908.634529698554
 30
0.0
 42
-0.004240494
  0
VERTEX
  5
C212
330
C20C
100
AcDbEntity
  8
0
  6
Continuous
 62
     7
 48
1.01
100
AcDbVertex
100
AcDb2dVertex
 10
3816.437458400184
 20
2908.424049698553
 30
0.0
 42
-0.0038821581
  0
VERTEX
  5
C213
330
C20C
100
AcDbEntity
  8
0
  6
Continuous
 62
     7
 48
1.01
100
AcDbVertex
100
AcDb2dVertex
 10
3815.774417400183
 20
2908.224337698554
 30
0.0
 42
-0.0035682877
  0
VERTEX
  5
C214
330
C20C
100
AcDbEntity
  8
0
  6
Continuous
 62
     7
 48
1.01
100
AcDbVertex
100
AcDb2dVertex
 10
3815.108481400184
 20
2908.034483698553
 30
0.0
 42
-0.0033631665
  0
VERTEX
  5
C215
330
C20C
100
AcDbEntity
  8
0
  6
Continuous
 62
     7
 48
1.01
100
AcDbVertex
100
AcDb2dVertex
 10
3814.439978400184
 20
2907.853879698553
 30
0.0
 42
-0.0032077401
  0
VERTEX
  5
C216
330
C20C
100
AcDbEntity
  8
0
  6
Continuous
 62
     7
 48
1.01
100
AcDbVertex
100
AcDb2dVertex
 10
3813.769166400184
 20
2907.682052698554
 30
0.0
 42
-0.0030973398
  0
VERTEX
  5
C217
330
C20C
100
AcDbEntity
  8
0
  6
Continuous
 62
     7
 48
1.01
100
AcDbVertex
100
AcDb2dVertex
 10
3813.096243400184
 20
2907.518692698554
 30
0.0
 42
-0.003032135
  0
VERTEX
  5
C218
330
C20C
100
AcDbEntity
  8
0
  6
Continuous
 62
     7
 48
1.01
100
AcDbVertex
100
AcDb2dVertex
 10
3812.421366400183
 20
2907.363593698553
 30
0.0
 42
-0.0029994592
  0
VERTEX
  5
C219
330
C20C
100
AcDbEntity
  8
0
  6
Continuous
 62
     7
 48
1.01
100
AcDbVertex
100
AcDb2dVertex
 10
3811.744671400184
 20
2907.216640698554
 30
0.0
 42
-0.0029758772
  0
VERTEX
  5
C21A
330
C20C
100
AcDbEntity
  8
0
  6
Continuous
 62
     7
 48
1.01
100
AcDbVertex
100
AcDb2dVertex
 10
3811.066270400183
 20
2907.077782698554
 30
0.0
 42
-0.0030279528
  0
VERTEX
  5
C21B
330
C20C
100
AcDbEntity
  8
0
  6
Continuous
 62
     7
 48
1.01
100
AcDbVertex
100
AcDb2dVertex
 10
3810.386251400183
 20
2906.947068698553
 30
0.0
 42
-0.0030977183
  0
VERTEX
  5
C21C
330
C20C
100
AcDbEntity
  8
0
  6
Continuous
 62
     7
 48
1.01
100
AcDbVertex
100
AcDb2dVertex
 10
3809.704679400184
 20
2906.824695698553
 30
0.0
 42
-0.0031854543
  0
VERTEX
  5
C21D
330
C20C
100
AcDbEntity
  8
0
  6
Continuous
 62
     7
 48
1.01
100
AcDbVertex
100
AcDb2dVertex
 10
3809.021623400184
 20
2906.710883698553
 30
0.0
 42
-0.0033491169
  0
VERTEX
  5
C21E
330
C20C
100
AcDbEntity
  8
0
  6
Continuous
 62
     7
 48
1.01
100
AcDbVertex
100
AcDb2dVertex
 10
3808.337143400184
 20
2906.606007698553
 30
0.0
 42
-0.0035243699
  0
VERTEX
  5
C21F
330
C20C
100
AcDbEntity
  8
0
  6
Continuous
 62
     7
 48
1.01
100
AcDbVertex
100
AcDb2dVertex
 10
3807.651289400184
 20
2906.510545698554
 30
0.0
 42
-0.0038479855
  0
VERTEX
  5
C220
330
C20C
100
AcDbEntity
  8
0
  6
Continuous
 62
     7
 48
1.01
100
AcDbVertex
100
AcDb2dVertex
 10
3806.964108400184
 20
2906.425189698554
 30
0.0
 42
-0.0041975172
  0
VERTEX
  5
C221
330
C20C
100
AcDbEntity
  8
0
  6
Continuous
 62
     7
 48
1.01
100
AcDbVertex
100
AcDb2dVertex
 10
3806.275637400183
 20
2906.350899698554
 30
0.0
 42
-0.0047036602
  0
VERTEX
  5
C222
330
C20C
100
AcDbEntity
  8
0
  6
Continuous
 62
     7
 48
1.01
100
AcDbVertex
100
AcDb2dVertex
 10
3805.585941400184
 20
2906.288835698553
 30
0.0
 42
-0.0052883871
  0
VERTEX
  5
C223
330
C20C
100
AcDbEntity
  8
0
  6
Continuous
 62
     7
 48
1.01
100
AcDbVertex
100
AcDb2dVertex
 10
3804.895196400184
 20
2906.240561698553
 30
0.0
 42
-0.0064891452
  0
VERTEX
  5
C224
330
C20C
100
AcDbEntity
  8
0
  6
Continuous
 62
     7
 48
1.01
100
AcDbVertex
100
AcDb2dVertex
 10
3804.203637400184
 20
2906.208448698553
 30
0.0
 42
-0.0078818751
  0
VERTEX
  5
C225
330
C20C
100
AcDbEntity
  8
0
  6
Continuous
 62
     7
 48
1.01
100
AcDbVertex
100
AcDb2dVertex
 10
3803.511369400183
 20
2906.196223698553
 30
0.0
 42
-0.010371345
  0
VERTEX
  5
C226
330
C20C
100
AcDbEntity
  8
0
  6
Continuous
 62
     7
 48
1.01
100
AcDbVertex
100
AcDb2dVertex
 10
3802.818640400184
 20
2906.208728698553
 30
0.0
 42
-0.014244267
  0
VERTEX
  5
C227
330
C20C
100
AcDbEntity
  8
0
  6
Continuous
 62
     7
 48
1.01
100
AcDbVertex
100
AcDb2dVertex
 10
3802.127725400184
 20
2906.255260698554
 30
0.0
 42
-0.025570446
  0
VERTEX
  5
C228
330
C20C
100
AcDbEntity
  8
0
  6
Continuous
 62
     7
 48
1.01
100
AcDbVertex
100
AcDb2dVertex
 10
3801.442395400183
 20
2906.353980698553
 30
0.0
 42
-0.066410855
  0
VERTEX
  5
C229
330
C20C
100
AcDbEntity
  8
0
  6
Continuous
 62
     7
 48
1.01
100
AcDbVertex
100
AcDb2dVertex
 10
3800.780007400184
 20
2906.546646698553
 30
0.0
 42
-0.18301422
  0
VERTEX
  5
C22A
330
C20C
100
AcDbEntity
  8
0
  6
Continuous
 62
     7
 48
1.01
100
AcDbVertex
100
AcDb2dVertex
 10
3800.281245400184
 20
2907.004213698553
 30
0.0
 42
-0.24428721
  0
VERTEX
  5
C22B
330
C20C
100
AcDbEntity
  8
0
  6
Continuous
 62
     7
 48
1.01
100
AcDbVertex
100
AcDb2dVertex
 10
3800.498099400183
 20
2907.630700698553
 30
0.0
 42
-0.052890711
  0
VERTEX
  5
C22C
330
C20C
100
AcDbEntity
  8
0
  6
Continuous
 62
     7
 48
1.01
100
AcDbVertex
100
AcDb2dVertex
 10
3801.021873400184
 20
2908.081426698553
 30
0.0
 42
-0.026048254
  0
VERTEX
  5
C22D
330
C20C
100
AcDbEntity
  8
0
  6
Continuous
 62
     7
 48
1.01
100
AcDbVertex
100
AcDb2dVertex
 10
3801.605822400184
 20
2908.453380698553
 30
0.0
 42
-0.014564973
  0
VERTEX
  5
C22E
330
C20C
100
AcDbEntity
  8
0
  6
Continuous
 62
     7
 48
1.01
100
AcDbVertex
100
AcDb2dVertex
 10
3802.217623400184
 20
2908.777387698553
 30
0.0
 42
-0.010641395
  0
VERTEX
  5
C22F
330
C20C
100
AcDbEntity
  8
0
  6
Continuous
 62
     7
 48
1.01
100
AcDbVertex
100
AcDb2dVertex
 10
3802.844183400184
 20
2909.072411698554
 30
0.0
 42
-0.011559587
  0
VERTEX
  5
C230
330
C20C
100
AcDbEntity
  8
0
  6
Continuous
 62
     7
 48
1.01
100
AcDbVertex
100
AcDb2dVertex
 10
3803.482609400184
 20
2909.339085698554
 30
0.0
  0
SEQEND
  5
C231
330
C20C
100
AcDbEntity
  8
0
  6
Continuous
 62
     7
 48
1.01
  0
LINE
  5
C3C7
330
1F
100
AcDbEntity
  8
0
  6
Continuous
 62
     7
 48
0.55
100
AcDbLine
 10
3984.209230011851
 20
2874.196235698553
 30
0.0
 11
3995.209230011851
 21
2874.196235698553
 31
0.0
  0
LINE
  5
C3C8
330
1F
100
AcDbEntity
  8
0
  6
Continuous
 62
     7
100
AcDbLine
 10
4006.20923001185
 20
2896.132985698553
 30
0.0
 11
4006.20923001185
 21
2888.196235698553
 31
0.0
  0
LINE
  5
C3C9
330
1F
100
AcDbEntity
  8
AM_7
100
AcDbLine
 10
3995.209230011851
 20
2916.581529590535
 30
0.0
 11
3995.209230011851
 21
2866.234005698553
 31
0.0
  0
LINE
  5
C3CA
330
1F
100
AcDbEntity
  8
0
  6
Continuous
 62
     7
 48
0.35
100
AcDbLine
 10
3968.209259011852
 20
2894.196255698553
 30
0.0
 11
3968.209259011852
 21
2887.196255698553
 31
0.0
  0
LINE
  5
C3CB
330
1F
100
AcDbEntity
  8
0
  6
Continuous
 62
     7
 48
0.8154007999999976
100
AcDbLine
 10
3969.209259011851
 20
2895.196255698553
 30
0.0
 11
3990.309230011851
 21
2895.196255698553
 31
0.0
  0
LINE
  5
C3CC
330
1F
100
AcDbEntity
  8
0
  6
Continuous
 62
     7
 48
0.7000009999999976
100
AcDbLine
 10
3984.209230011851
 20
2888.196255698553
 30
0.0
 11
3984.209230011851
 21
2874.196235698553
 31
0.0
  0
LINE
  5
C3CD
330
1F
100
AcDbEntity
  8
0
  6
Continuous
 62
     7
 48
0.25
100
AcDbLine
 10
3969.209259011851
 20
2886.196255698553
 30
0.0
 11
3974.209259011852
 21
2886.196255698553
 31
0.0
  0
LINE
  5
C3CE
330
1F
100
AcDbEntity
  8
0
  6
Continuous
 62
     7
 48
0.15
100
AcDbLine
 10
3974.209226011851
 20
2886.196255698553
 30
0.0
 11
3976.209240011851
 21
2888.196255698553
 31
0.0
  0
LINE
  5
C3CF
330
1F
100
AcDbEntity
  8
0
  6
Continuous
 62
     7
 48
0.3999985499999866
100
AcDbLine
 10
3976.209259011851
 20
2888.196255698553
 30
0.0
 11
4006.20923001185
 21
2888.196255698553
 31
0.0
  0
LINE
  5
C3D0
330
1F
100
AcDbEntity
  8
0
  6
Continuous
 62
     7
 48
0.55
100
AcDbLine
 10
3995.209230011851
 20
2874.196235698553
 30
0.0
 11
4006.20923001185
 21
2874.196235698553
 31
0.0
  0
LINE
  5
C3D1
330
1F
100
AcDbEntity
  8
0
  6
Continuous
 62
     7
 48
0.3
100
AcDbLine
 10
4022.76186901185
 20
2906.696255698553
 30
0.0
 11
4022.76186901185
 21
2912.696255698553
 31
0.0
  0
LINE
  5
C3D2
330
1F
100
AcDbEntity
  8
0
  6
Continuous
 62
     7
 48
0.8626234000000067
100
AcDbLine
 10
4004.009401011851
 20
2914.196255698553
 30
0.0
 11
4021.26186901185
 21
2914.196255698553
 31
0.0
  0
LINE
  5
C3D3
330
1F
100
AcDbEntity
  8
0
  6
Continuous
 62
     7
 48
0.6063425735308982
100
AcDbLine
 10
3985.517278011851
 20
2895.196235698553
 30
0.0
 11
3987.756423724628
 21
2907.290715425534
 31
0.0
  0
LINE
  5
C3D4
330
1F
100
AcDbEntity
  8
0
  6
Continuous
 62
     7
 48
0.6579619220156335
100
AcDbLine
 10
3991.674104011851
 20
2909.613025698553
 30
0.0
 11
4004.009405011851
 21
2914.196245698553
 31
0.0
  0
LINE
  5
C3D5
330
1F
100
AcDbEntity
  8
0
  6
Continuous
 62
     7
 48
0.759518025975148
100
AcDbLine
 10
4009.32851563547
 20
2900.765794073014
 30
0.0
 11
4020.293325011851
 21
2905.196245698553
 31
0.0
  0
LINE
  5
C3D7
330
1F
100
AcDbEntity
  8
0
  6
Continuous
 62
     7
 48
0.15
100
AcDbLine
 10
4020.293333011851
 20
2905.196255698553
 30
0.0
 11
4021.26186901185
 21
2905.196255698553
 31
0.0
  0
LINE
  5
C3D8
330
1F
100
AcDbEntity
  8
0
  6
Continuous
 62
     7
100
AcDbLine
 10
3985.209230011851
 20
2887.196235698553
 30
0.0
 11
4005.209230011851
 21
2887.196235698553
 31
0.0
  0
ARC
  5
C3DA
330
1F
100
AcDbEntity
  8
0
  6
Continuous
 62
     7
 48
0.3
100
AcDbCircle
 10
3969.209259011851
 20
2894.196255698553
 30
0.0
 40
1.0
100
AcDbArc
 50
90.0
 51
180.0
  0
ARC
  5
C3DB
330
1F
100
AcDbEntity
  8
0
  6
Continuous
 62
     7
 48
0.3
100
AcDbCircle
 10
3969.209259011851
 20
2887.196255698553
 30
0.0
 40
1.0
100
AcDbArc
 50
180.0
 51
270.0
  0
ARC
  5
C3DC
330
1F
100
AcDbEntity
  8
0
  6
Continuous
 62
     7
 48
0.5
100
AcDbCircle
 10
4011.20923001185
 20
2896.132985698553
 30
0.0
 40
5.0
100
AcDbArc
 50
112.0017199999407
 51
180.0
  0
ARC
  5
C3DD
330
1F
100
AcDbEntity
  8
0
  6
Continuous
 62
     7
 48
0.3
100
AcDbCircle
 10
4021.26186901185
 20
2906.696255698553
 30
0.0
 40
1.5
100
AcDbArc
 50
270.0
 51
0.0
  0
ARC
  5
C3DE
330
1F
100
AcDbEntity
  8
0
  6
Continuous
 62
     7
 48
0.3
100
AcDbCircle
 10
4021.26186901185
 20
2912.696255698553
 30
0.0
 40
1.5
100
AcDbArc
 50
0.0
 51
90.0
  0
LINE
  5
C440
330
1F
100
AcDbEntity
  8
AM_0
 48
0.5
100
AcDbLine
 10
4007.210316952281
 20
2906.696235698553
 30
0.0
 11
4007.210316952281
 21
2912.696235698554
 31
0.0
  0
LINE
  5
C441
330
1F
100
AcDbEntity
  8
AM_0
 48
0.5
100
AcDbLine
 10
4008.710316952281
 20
2905.196235698554
 30
0.0
 11
4019.708180721806
 21
2905.196235698554
 31
0.0
  0
ARC
  5
C442
330
1F
100
AcDbEntity
  8
AM_0
 48
0.5
100
AcDbCircle
 10
4008.710316952281
 20
2906.696235698553
 30
0.0
 40
1.5
100
AcDbArc
 50
180.0000359721976
 51
270.0000179860988
  0
ARC
  5
C443
330
1F
100
AcDbEntity
  8
AM_0
 48
0.5
100
AcDbCircle
 10
4008.710316952281
 20
2912.696235698554
 30
0.0
 40
1.5
100
AcDbArc
 50
89.99999931673094
 51
180.0000359721976
  0
LINE
  5
C466
330
1F
100
AcDbEntity
  8
AM_0
100
AcDbLine
 10
3992.051551827287
 20
2899.898267939372
 30
0.0
 11
4008.710316952281
 21
2905.196235698554
 31
0.0
  0
POLYLINE
  5
C467
330
1F
100
AcDbEntity
  8
0
  6
Continuous
 62
     7
 48
1.01
100
AcDb2dPolyline
 66
     1
 10
0.0
 20
0.0
 30
0.0
  0
VERTEX
  5
C468
330
C467
100
AcDbEntity
  8
0
  6
Continuous
 62
     7
 48
1.01
100
AcDbVertex
100
AcDb2dVertex
 10
3987.756423724628
 20
2907.290715425535
 30
0.0
 42
-0.0006705110150069
  0
VERTEX
  5
C469
330
C467
100
AcDbEntity
  8
0
  6
Continuous
 62
     7
 48
1.01
100
AcDbVertex
100
AcDb2dVertex
 10
3987.75657201185
 20
2907.292885698553
 30
0.0
 42
-0.15539204
  0
VERTEX
  5
C46A
330
C467
100
AcDbEntity
  8
0
  6
Continuous
 62
     7
 48
1.01
100
AcDbVertex
100
AcDb2dVertex
 10
3988.547078011851
 20
2908.109435698553
 30
0.0
 42
-0.03405529
  0
VERTEX
  5
C46B
330
C467
100
AcDbEntity
  8
0
  6
Continuous
 62
     7
 48
1.01
100
AcDbVertex
100
AcDb2dVertex
 10
3989.543946011851
 20
2908.698625698553
 30
0.0
 42
-0.016075335
  0
VERTEX
  5
C46C
330
C467
100
AcDbEntity
  8
0
  6
Continuous
 62
     7
 48
1.01
100
AcDbVertex
100
AcDb2dVertex
 10
3990.594990011851
 20
2909.185995698554
 30
0.0
 42
-0.015036936
  0
VERTEX
  5
C46D
330
C467
100
AcDbEntity
  8
0
  6
Continuous
 62
     7
 48
1.01
100
AcDbVertex
100
AcDb2dVertex
 10
3991.674104011851
 20
2909.613035698554
 30
0.0
  0
SEQEND
  5
C46E
330
C467
100
AcDbEntity
  8
0
  6
Continuous
 62
     7
 48
1.01
  0
ARC
  5
C480
330
1F
100
AcDbEntity
  8
AM_0
100
AcDbCircle
 10
3992.809230011852
 20
2897.515848209636
 30
0.0
 40
2.5
100
AcDbArc
 50
107.642164685626
 51
180.0
1001
GENIUS_GENOBJ-N-FIL_13
1002
{
1000
OWNER
1000
GEN
1002
}
1001
GENIUS_GENODEF_13
1002
{
1000
HIER
1070
     0
1002
}
1002
{
1000
MANEDIT
1070
     0
1002
}
1002
{
1000
NOSEL
1070
     0
1002
}
1002
{
1000
BEHIND
1070
     0
1002
}
1002
{
1000
OTHER
1070
     0
1002
}
1002
{
1000
REACTOR
1002
}
  0
LINE
  5
C481
330
1F
100
AcDbEntity
  8
AM_0
100
AcDbLine
 10
4005.209230011851
 20
2884.196204698554
 30
0.0
 11
3985.209230011851
 21
2884.196204698553
 31
0.0
  0
ARC
  5
C492
330
1F
100
AcDbEntity
  8
AM_0
100
AcDbCircle
 10
3985.209230011851
 20
2883.196204698553
 30
0.0
 40
1.0
100
AcDbArc
 50
90.0
 51
180.0
1001
GENIUS_GENOBJ-N-FIL_13
1002
{
1000
OWNER
1000
GEN
1002
}
1001
GENIUS_GENODEF_13
1002
{
1000
HIER
1070
     0
1002
}
1002
{
1000
MANEDIT
1070
     0
1002
}
1002
{
1000
NOSEL
1070
     0
1002
}
1002
{
1000
BEHIND
1070
     0
1002
}
1002
{
1000
OTHER
1070
     0
1002
}
1002
{
1000
REACTOR
1002
}
  0
LINE
  5
C494
330
1F
100
AcDbEntity
  8
0
  6
Continuous
 62
     7
100
AcDbLine
 10
4006.20923001185
 20
2888.196255698553
 30
0.0
 11
4006.20923001185
 21
2874.196235698553
 31
0.0
  0
ARC
  5
C495
330
1F
100
AcDbEntity
  8
AM_0
100
AcDbCircle
 10
4005.209230011851
 20
2883.196204698554
 30
0.0
 40
1.0
100
AcDbArc
 50
0.0
 51
90.00000000000081
1001
GENIUS_GENODEF_13
1002
{
1000
HIER
1070
     0
1002
}
1002
{
1000
MANEDIT
1070
     0
1002
}
1002
{
1000
NOSEL
1070
     0
1002
}
1002
{
1000
BEHIND
1070
     0
1002
}
1002
{
1000
OTHER
1070
     0
1002
}
1002
{
1000
REACTOR
1002
}
1001
GENIUS_GENOBJ-N-FIL_13
1002
{
1000
OWNER
1000
GEN
1002
}
  0
ARC
  5
C496
330
1F
100
AcDbEntity
  8
0
  6
Continuous
 62
     7
100
AcDbCircle
 10
4005.209230011851
 20
2886.196235698553
 30
0.0
 40
1.0
100
AcDbArc
 50
0.0
 51
90.0
1001
GENIUS_GENODEF_13
1002
{
1000
HIER
1070
     0
1002
}
1002
{
1000
MANEDIT
1070
     0
1002
}
1002
{
1000
NOSEL
1070
     0
1002
}
1002
{
1000
BEHIND
1070
     0
1002
}
1002
{
1000
OTHER
1070
     0
1002
}
1002
{
1000
REACTOR
1002
}
1001
GENIUS_GENOBJ-N-FIL_13
1002
{
1000
OWNER
1000
GEN
1002
}
  0
ARC
  5
C497
330
1F
100
AcDbEntity
  8
0
  6
Continuous
 62
     7
100
AcDbCircle
 10
3985.209230011851
 20
2886.196235698553
 30
0.0
 40
1.0
100
AcDbArc
 50
90.0
 51
180.0
1001
GENIUS_GENODEF_13
1002
{
1000
HIER
1070
     0
1002
}
1002
{
1000
MANEDIT
1070
     0
1002
}
1002
{
1000
NOSEL
1070
     0
1002
}
1002
{
1000
BEHIND
1070
     0
1002
}
1002
{
1000
OTHER
1070
     0
1002
}
1002
{
1000
REACTOR
1002
}
1001
GENIUS_GENOBJ-N-FIL_13
1002
{
1000
OWNER
1000
GEN
1002
}
  0
DIMENSION
  5
C4AC
330
1F
100
AcDbEntity
  8
AM_5
100
AcDbDimension
  2
*D18
 10
3929.725252410184
 20
2996.197265698553
 30
0.0
 11
3930.253203576631
 21
3015.343780391507
 31
0.0
 70
   160
 71
     5
 42
14.0000144767032
  3
SYS$0
100
AcDbAlignedDimension
 13
3910.725251400183
 23
3010.197280175257
 33
0.0
 14
3910.847416400184
 24
2996.197265698553
 34
0.0
 50
90.0
100
AcDbRotatedDimension
1001
ACAD
1000
DSTYLE
1002
{
1070
   279
1070
     1
1002
}
  0
DIMENSION
  5
C4D5
330
1F
100
AcDbEntity
  8
AM_5
100
AcDbDimension
  2
*D19
 10
3939.725252410184
 20
2984.196204698553
 30
0.0
 11
3936.625252410183
 21
2993.696202698553
 31
0.0
 70
    32
 71
     5
 42
18.99999600000001
  3
SYS$0
100
AcDbAlignedDimension
 13
3919.725247400183
 23
3003.196200698554
 33
0.0
 14
3842.225245400184
 24
2984.196204698553
 34
0.0
 50
90.0
100
AcDbRotatedDimension
  0
DIMENSION
  5
C4EB
330
1F
100
AcDbEntity
  8
AM_5
100
AcDbDimension
  2
*D20
 10
3939.725252410186
 20
2957.196204698553
 30
0.0
 11
3936.625252410185
 21
2970.696204698554
 31
0.0
 70
    32
 71
     5
 42
27.0
  3
SYS$0
100
AcDbAlignedDimension
 13
3842.225245400184
 23
2984.196204698553
 33
0.0
 14
3807.725247400184
 24
2957.196204698553
 34
0.0
 50
90.0
100
AcDbRotatedDimension
  0
DIMENSION
  5
C501
330
1F
100
AcDbEntity
  8
AM_5
100
AcDbDimension
  2
*D21
 10
3763.225246390184
 20
2973.196204698553
 30
0.0
 11
3760.125246390184
 21
2984.196204698554
 31
0.0
 70
    32
 71
     5
 42
22.0
  3
SYS$0
100
AcDbAlignedDimension
 13
3779.225247400184
 23
2995.196204698553
 33
0.0
 14
3779.225247400184
 24
2973.196204698553
 34
0.0
 50
90.0
100
AcDbRotatedDimension
  0
DIMENSION
  5
C517
330
1F
100
AcDbEntity
  8
AM_5
100
AcDbDimension
  2
*D22
 10
3917.725251400184
 20
3023.748844708553
 30
0.0
 11
3862.725249400183
 21
3026.848844708553
 31
0.0
 70
    32
 71
     5
 42
110.000004
  3
SYS$0
100
AcDbAlignedDimension
 13
3807.725247400184
 23
3002.580996698553
 33
0.0
 14
3917.725251400184
 24
3003.196200698554
 34
0.0
100
AcDbRotatedDimension
  0
DIMENSION
  5
C52D
330
1F
100
AcDbEntity
  8
AM_5
100
AcDbDimension
  2
*D23
 10
3832.725245400184
 20
2946.822050698554
 30
0.0
 11
3807.725246400184
 21
2949.922050698554
 31
0.0
 70
    32
 71
     5
 42
49.99999800000023
  3
SYS$0
100
AcDbAlignedDimension
 13
3782.725247400184
 23
2976.946204698553
 33
0.0
 14
3832.725245400184
 24
2976.946204698553
 34
0.0
100
AcDbRotatedDimension
  0
DIMENSION
  5
C543
330
1F
100
AcDbEntity
  8
AM_5
100
AcDbDimension
  2
*D24
 10
3840.225245400183
 20
2936.822050698551
 30
0.0
 11
3807.725246400183
 21
2939.922050698551
 31
0.0
 70
    32
 71
     5
 42
64.99999799999887
  3
SYS$0
100
AcDbAlignedDimension
 13
3775.225247400184
 23
2977.196204698553
 33
0.0
 14
3840.225245400183
 24
2977.196208189212
 34
0.0
100
AcDbRotatedDimension
  0
DIMENSION
  5
C559
330
1F
100
AcDbEntity
  8
AM_5
100
AcDbDimension
  2
*D25
 10
3929.725252410187
 20
2905.196202698554
 30
0.0
 11
3926.625252410187
 21
2909.696218198554
 31
0.0
 70
    32
 71
     5
 42
9.000031000000035
  3
SYS$0
100
AcDbAlignedDimension
 13
3916.225251400184
 23
2914.196233698554
 33
0.0
 14
3916.225251400184
 24
2905.196202698554
 34
0.0
 50
90.0
100
AcDbRotatedDimension
  0
DIMENSION
  5
C56F
330
1F
100
AcDbEntity
  8
AM_5
100
AcDbDimension
  2
*D26
 10
3929.725252410189
 20
2884.196204698553
 30
0.0
 11
3926.625252410189
 21
2894.696203698554
 31
0.0
 70
    32
 71
     5
 42
20.99999800000023
  3
SYS$0
100
AcDbAlignedDimension
 13
3916.225251400184
 23
2905.196202698554
 33
0.0
 14
3839.225245400184
 24
2884.196204698553
 34
0.0
 50
90.0
100
AcDbRotatedDimension
  0
DIMENSION
  5
C585
330
1F
100
AcDbEntity
  8
AM_5
100
AcDbDimension
  2
*D27
 10
3929.725252410191
 20
2874.196235698553
 30
0.0
 11
3926.625252410191
 21
2879.196220198554
 31
0.0
 70
    32
 71
     5
 42
9.999968999999964
  3
SYS$0
100
AcDbAlignedDimension
 13
3839.225245400184
 23
2884.196204698553
 33
0.0
 14
3840.225245400184
 24
2874.196235698553
 34
0.0
 50
90.0
100
AcDbRotatedDimension
  0
DIMENSION
  5
C59B
330
1F
100
AcDbEntity
  8
AM_5
100
AcDbDimension
  2
*D28
 10
3939.725252410191
 20
2874.196235698553
 30
0.0
 11
3936.625252410191
 21
2894.196234698554
 31
0.0
 70
    32
 71
     5
 42
39.99999800000023
  3
SYS$0
100
AcDbAlignedDimension
 13
3916.225251400184
 23
2914.196233698554
 33
0.0
 14
3840.225245400184
 24
2874.196235698553
 34
0.0
 50
90.0
100
AcDbRotatedDimension
  0
DIMENSION
  5
C5B1
330
1F
100
AcDbEntity
  8
AM_5
100
AcDbDimension
  2
*D29
 10
3763.225255400184
 20
2886.196204698553
 30
0.0
 11
3760.125255400183
 21
2880.196220198554
 31
0.0
 70
    32
 71
     5
 42
11.99996899999996
  3
SYS$0
100
AcDbAlignedDimension
 13
3775.225255400183
 23
2874.196235698553
 33
0.0
 14
3805.725255400183
 24
2886.196204698553
 34
0.0
 50
90.0
100
AcDbRotatedDimension
  0
DIMENSION
  5
C5C7
330
1F
100
AcDbEntity
  8
AM_5
100
AcDbDimension
  2
*D30
 10
3763.225255400184
 20
2895.196204698553
 30
0.0
 11
3760.125255400183
 21
2890.696204698554
 31
0.0
 70
    32
 71
     5
 42
9.0
  3
SYS$0
100
AcDbAlignedDimension
 13
3805.725255400183
 23
2886.196204698553
 33
0.0
 14
3799.278958400183
 24
2895.196204698553
 34
0.0
 50
90.0
100
AcDbRotatedDimension
  0
DIMENSION
  5
C7BF
330
1F
100
AcDbEntity
  8
AM_5
100
AcDbDimension
  2
*D31
 10
3785.954453376433
 20
2980.056793054013
 30
0.0
 11
3752.320560674838
 21
3001.193355712613
 31
0.0
 70
   163
  1
2-%%c5.5×<>サラ
 71
     5
 42
10.50000000000273
  3
SYS$3
100
AcDbDiametricDimension
 15
3779.496041423931
 25
2988.335616343094
 35
0.0
 40
0.0
1001
ACAD
1000
DSTYLE
1002
{
1070
    41
1040
1.0
1070
   172
1070
     1
1070
   289
1070
     2
1070
   342
1005
6C4
1002
}
  0
ENDSEC
  0
SECTION
  2
OBJECTS
  0
DICTIONARY
  5
C
330
0
100
AcDbDictionary
281
     1
  3
ACAD_2007HEADERVARS_RT
350
C8C8
  3
ACAD_BGPLOT_KEY
350
AB06
  3
ACAD_COLOR
350
A91D
  3
ACAD_GROUP
350
D
  3
ACAD_LAYOUT
350
1A
  3
ACAD_MATERIAL
350
A91C
  3
ACAD_MLINESTYLE
350
17
  3
ACAD_PLOTSETTINGS
350
19
  3
ACAD_PLOTSTYLENAME
350
E
  3
ACAD_TABLESTYLE
350
AAB9
  3
ACAD_VISUALSTYLE
350
B0F1
  3
AcAsAppObject
350
3DA1
  3
ACASGREF_MASTER
350
3DE9
  3
AcDbVariableDictionary
350
34
  3
AcmDictionary
350
47
  3
AD_GREF_MODULE
350
3DEA
  3
AD_MAPI_MODULE
350
3E06
  3
AMG
350
2B
  3
AMGSNAPSETTINGS
350
7D
  3
ASE_INDEX_DICTIONARY
350
B331
  3
DWGPROPS
350
C8C7
  3
MAPISURF_MODULE
350
3DEB
  0
DICTIONARY
  5
3F95
330
2
100
AcDbDictionary
280
     1
281
     1
  3
ACAD_LAYERFILTERS
360
B3A8
  3
ACAD_LAYERSTATES
360
3F96
  3
ACLYDICTIONARY
360
B3A7
  3
AMLAYER_GROUPCOLORS
360
AAB4
  0
DICTIONARY
  5
8A
330
1F
100
AcDbDictionary
280
     1
281
     1
  3
ACAD_SORTENTS
360
B1BA
  0
DICTIONARY
  5
C8C8
102
{ACAD_REACTORS
330
C
102
}
330
C
100
AcDbDictionary
281
     1
  3
DIMARCSYM
350
C8C9
  0
DICTIONARY
  5
AB06
102
{ACAD_REACTORS
330
C
102
}
330
C
100
AcDbDictionary
280
     1
281
     1
  0
DICTIONARY
  5
A91D
102
{ACAD_REACTORS
330
C
102
}
330
C
100
AcDbDictionary
281
     1
  0
DICTIONARY
  5
D
102
{ACAD_REACTORS
330
C
102
}
330
C
100
AcDbDictionary
281
     1
  0
DICTIONARY
  5
1A
102
{ACAD_REACTORS
330
C
102
}
330
C
100
AcDbDictionary
281
     1
  3
Model
350
22
  3
ﾚｲｱｳﾄ1
350
1E
  3
ﾚｲｱｳﾄ2
350
26
  0
DICTIONARY
  5
A91C
102
{ACAD_REACTORS
330
C
102
}
330
C
100
AcDbDictionary
281
     1
  3
ByBlock
350
B0EF
  3
ByLayer
350
B0EE
  3
Global
350
B0F0
  0
DICTIONARY
  5
17
102
{ACAD_REACTORS
330
C
102
}
330
C
100
AcDbDictionary
281
     1
  3
Standard
350
18
  0
DICTIONARY
  5
19
102
{ACAD_REACTORS
330
C
102
}
330
C
100
AcDbDictionary
281
     1
  0
ACDBDICTIONARYWDFLT
  5
E
102
{ACAD_REACTORS
330
C
102
}
330
C
100
AcDbDictionary
281
     1
  3
Normal
350
F
100
AcDbDictionaryWithDefault
340
F
  0
DICTIONARY
  5
AAB9
102
{ACAD_REACTORS
330
C
102
}
330
C
100
AcDbDictionary
281
     1
  3
Standard
350
AABA
  0
DICTIONARY
  5
B0F1
102
{ACAD_REACTORS
330
C
102
}
330
C
100
AcDbDictionary
281
     1
  3
2dWireframe
350
B0F7
  3
3D Hidden
350
B0F9
  3
3dWireframe
350
B0F8
  3
Basic
350
B0F6
  3
Brighten
350
B0FD
  3
ColorChange
350
B101
  3
Conceptual
350
B0FA
  3
Dim
350
B0FC
  3
Facepattern
350
B100
  3
Flat
350
B0F2
  3
FlatWithEdges
350
B0F3
  3
Gouraud
350
B0F4
  3
GouraudWithEdges
350
B0F5
  3
Linepattern
350
B0FF
  3
Realistic
350
B0FB
  3
Thicken
350
B0FE
  0
ACAD_PROXY_OBJECT
  5
3DA1
102
{ACAD_REACTORS
330
C
102
}
330
C
100
AcDbProxyObject
 90
      499
 91
      576
 95
   917527
 70
     0
 93
       10
310
407F
 94
        0
1001
ACAD
1000
AcRTDxfName
1000
ASAPP
  0
ACAD_PROXY_OBJECT
  5
3DE9
102
{ACAD_REACTORS
330
C
102
}
330
C
100
AcDbProxyObject
 90
      499
 91
      581
 95
   917527
 70
     0
 93
       34
310
010000407F
 94
        0
1001
ACAD
1000
AcRTDxfName
1000
ACASGREFMASTER
  0
DICTIONARY
  5
34
102
{ACAD_REACTORS
330
C
102
}
330
C
100
AcDbDictionary
281
     1
  3
CTABLESTYLE
350
AAF3
  3
DIMASSOC
350
A10C
  3
FIELDEVAL
350
AB07
  3
INDEXCTL
350
35
  3
SORTENTS
350
194C
  0
DICTIONARY
  5
47
102
{ACAD_REACTORS
330
C
102
}
330
C
100
AcDbDictionary
281
     1
  3
AcmBOM
350
7E8
  3
AcmStdDictionary
350
4C
  3
AMDTSECTSYM_ARROWCOLOR
350
A929
  0
ACAD_PROXY_OBJECT
  5
3DEA
102
{ACAD_REACTORS
330
C
102
}
330
C
100
AcDbProxyObject
 90
      499
 91
      582
 95
   917527
 70
     0
 93
      114
310
00000043800000000000000000003F
 94
        0
1001
ACAD
1000
AcRTDxfName
1000
ACADGREFMODULE
  0
ACAD_PROXY_OBJECT
  5
3E06
102
{ACAD_REACTORS
330
C
102
}
330
C
100
AcDbProxyObject
 90
      499
 91
      594
 95
   917527
 70
     0
 93
       34
310
05000044FF
 94
        0
1001
ACAD
1000
AcRTDxfName
1000
MAPIADMODULE
  0
DICTIONARY
  5
2B
102
{ACAD_REACTORS
330
C
102
}
330
C
100
AcDbDictionary
281
     1
  0
DICTIONARY
  5
7D
102
{ACAD_REACTORS
330
C
102
}
330
C
100
AcDbDictionary
281
     1
  0
DICTIONARY
  5
B331
102
{ACAD_REACTORS
330
C
102
}
330
C
100
AcDbDictionary
281
     1
  3
ASEBlockHierarchyIndexRecord
350
B332
1001
DCO15
1040
1594111214.218
  0
XRECORD
  5
C8C7
102
{ACAD_REACTORS
330
C
102
}
330
C
100
AcDbXrecord
280
     1
  1
DWGPROPS COOKIE
  2

  3

  4

  6

  7

  8
OSK-CAD06
  9

300
AmdtFileType=84
301
=
302
=
303
=
304
=
305
=
306
=
307
=
308
=
309
=
 40
0.0283049421296296
 41
2454613.707706887
 42
2454614.589952616
  1

 90
        1
  0
ACAD_PROXY_OBJECT
  5
3DEB
102
{ACAD_REACTORS
330
C
102
}
330
C
100
AcDbProxyObject
 90
      499
 91
      583
 95
   917527
 70
     0
 93
        8
310
047E
 94
        0
1001
ACAD
1000
AcRTDxfName
1000
AMDTMAPISURFMOUDULE
  0
DICTIONARY
  5
B3A8
102
{ACAD_REACTORS
330
3F95
102
}
330
3F95
100
AcDbDictionary
281
     1
  0
DICTIONARY
  5
3F96
102
{ACAD_REACTORS
330
3F95
102
}
330
3F95
100
AcDbDictionary
281
     1
  3
20011210
350
3FB7
  0
DICTIONARY
  5
B3A7
102
{ACAD_REACTORS
330
3F95
102
}
330
3F95
100
AcDbDictionary
281
     1
1001
ACAD
1000
<All
  0
DICTIONARY
  5
AAB4
102
{ACAD_REACTORS
330
3F95
102
}
330
3F95
100
AcDbDictionary
280
     1
281
     1
  0
SORTENTSTABLE
  5
B1BA
102
{ACAD_REACTORS
330
8A
102
}
330
8A
100
AcDbSortentsTable
330
1F
331
C1AD
  5
C1AD
331
C1EC
  5
C1EC
331
C1B5
  5
C1B5
331
C492
  5
C497
331
C3CB
  5
C3CE
331
B584
  5
B584
331
C20C
  5
C20C
331
C1BD
  5
C1BD
331
C1C5
  5
C1C5
331
C3D3
  5
C3D6
331
B58C
  5
B58C
331
C18E
  5
C18E
331
C1CD
  5
C1CD
331
C3DB
  5
C3F9
331
B649
  5
B649
331
C1D5
  5
C1D5
331
C443
  5
C481
331
C196
  5
C196
331
B651
  5
B651
331
C1DD
  5
C1DD
331
C19E
  5
C19E
331
C1E5
  5
C1E5
331
C1A6
  5
C1A6
331
C1AE
  5
C1AE
331
C1ED
  5
C1ED
331
C1B6
  5
C1B6
331
B585
  5
B585
331
C1BE
  5
C1BE
331
C3CC
  5
C3CF
331
B58D
  5
B58D
331
C1C6
  5
C1C6
331
C3D4
  5
C3D8
331
C18F
  5
C18F
331
C3DC
  5
C3FA
331
C1CE
  5
C1CE
331
B64A
  5
B64A
331
C1D6
  5
C1D6
331
C197
  5
C197
331
B5DC
  5
B5DC
331
C1DE
  5
C1DE
331
B652
  5
B652
331
C1E6
  5
C1E6
331
C19F
  5
C19F
331
C1A7
  5
C1A7
331
C1EE
  5
C1EE
331
C1B7
  5
C1B7
331
C494
  5
C3C9
331
C3CD
  5
C3D0
331
B586
  5
B586
331
C1C7
  5
C1C7
331
C3D5
  5
C3D9
331
B58E
  5
B58E
331
C1CF
  5
C1CF
331
C3DD
  5
C3FB
331
B64B
  5
B64B
331
C1D7
  5
C1D7
331
C190
  5
C190
331
C198
  5
C198
331
B653
  5
B653
331
B5DD
  5
B5DD
331
C1DF
  5
C1DF
331
C1A0
  5
C1A0
331
C1E7
  5
C1E7
331
C1A8
  5
C1A8
331
C1B0
  5
C1B0
331
C1EF
  5
C1EF
331
B57F
  5
B57F
331
C1B8
  5
C1B8
331
C495
  5
C3CA
331
B587
  5
B587
331
C3CE
  5
C3D1
331
B58F
  5
B58F
331
C1C8
  5
C1C8
331
C1D0
  5
C1D0
331
C3DE
  5
C3FC
331
C191
  5
C191
331
B64C
  5
B64C
331
C1D8
  5
C1D8
331
C466
  5
C492
331
C1E0
  5
C1E0
331
C199
  5
C199
331
C1A1
  5
C1A1
331
C1A9
  5
C1A9
331
C1E8
  5
C1E8
331
C1B1
  5
C1B1
331
C1F0
  5
C1F0
331
B580
  5
B580
331
C496
  5
C3DD
331
C3C7
  5
C3C7
331
C1C1
  5
C1C1
331
C3CF
  5
C3D2
331
B588
  5
B588
331
B590
  5
B590
331
C3D7
  5
C3DA
331
C1D1
  5
C1D1
331
B64D
  5
B64D
331
C1D9
  5
C1D9
331
C192
  5
C192
331
C19A
  5
C19A
331
B655
  5
B655
331
C1E1
  5
C1E1
331
C467
  5
C3FD
331
C1A2
  5
C1A2
331
C1E9
  5
C1E9
331
C1AA
  5
C1AA
331
C1B2
  5
C1B2
331
B581
  5
B581
331
C497
  5
C3DC
331
C3C8
  5
C3C8
331
B589
  5
B589
331
C1C2
  5
C1C2
331
C3D0
  5
C3D3
331
B591
  5
B591
331
C18B
  5
C18B
331
B646
  5
B646
331
C3D8
  5
C3DB
331
C1D2
  5
C1D2
331
C440
  5
C467
331
C193
  5
C193
331
C1DA
  5
C1DA
331
B64E
  5
B64E
331
B656
  5
B656
331
C19B
  5
C19B
331
C1E2
  5
C1E2
331
C1A3
  5
C1A3
331
C480
  5
C494
331
C1AB
  5
C1AB
331
C1EA
  5
C1EA
331
C1B3
  5
C1B3
331
C3C9
  5
C3CB
331
B582
  5
B582
331
C3D1
  5
C3D4
331
B58A
  5
B58A
331
B647
  5
B647
331
C18C
  5
C18C
331
C1D3
  5
C1D3
331
C441
  5
C47F
331
C194
  5
C194
331
B64F
  5
B64F
331
C1DB
  5
C1DB
331
C19C
  5
C19C
331
C1E3
  5
C1E3
331
C1A4
  5
C1A4
331
C1EB
  5
C1EB
331
C481
  5
C496
331
C1AC
  5
C1AC
331
C1B4
  5
C1B4
331
B583
  5
B583
331
C3CA
  5
C3CD
331
B58B
  5
B58B
331
C1C4
  5
C1C4
331
C3D2
  5
C3D5
331
C18D
  5
C18D
331
C3DA
  5
C3DF
331
B648
  5
B648
331
C1D4
  5
C1D4
331
C442
  5
C480
331
C195
  5
C195
331
C1DC
  5
C1DC
331
B650
  5
B650
331
C1E4
  5
C1E4
331
C19D
  5
C19D
331
C1A5
  5
C1A5
  0
XRECORD
  5
C8C9
102
{ACAD_REACTORS
330
C8C8
102
}
330
C8C8
100
AcDbXrecord
280
     1
 70
     1
  0
LAYOUT
  5
22
102
{ACAD_XDICTIONARY
360
C8CC
102
}
102
{ACAD_REACTORS
330
1A
102
}
330
1A
100
AcDbPlotSettings
  1

  2
FX DocuWide 2050/2051
  4
A3
  6
AM_VIEW1
 40
3.174999952316284
 41
3.174999952316284
 42
3.17498779296875
 43
3.17498779296875
 44
296.989501953125
 45
419.9889831542968
 46
0.0
 47
1.295841228961961
 48
214.3704939521119
 49
367.5855324241176
140
275.6727856380065
141
407.629191407817
142
1.0
143
0.7225445603030646
 70
  3764
 72
     1
 73
     1
 74
     2
  7
monochrome.ctb
 75
     0
147
1.383997686703999
148
-1700.85588156276
149
-1647.985052086429
100
AcDbLayout
  1
Model
 70
     1
 71
     0
 10
0.0
 20
0.0
 11
12.0
 21
9.0
 12
0.0
 22
0.0
 32
0.0
 14
0.0
 24
0.0
 34
0.0
 15
0.0
 25
0.0
 35
0.0
146
0.0
 13
0.0
 23
0.0
 33
0.0
 16
1.0
 26
0.0
 36
0.0
 17
0.0
 27
1.0
 37
0.0
 76
     0
330
1F
331
B0EC
1001
ACAD_PSEXT
1000
FX DocuWide 2050/2051
1000
FX DocuWide 2050/2051
1000
IP_192.200.15.252
1000

1070
     0
  0
LAYOUT
  5
1E
102
{ACAD_XDICTIONARY
360
C8CA
102
}
102
{ACAD_REACTORS
330
1A
102
}
330
1A
100
AcDbPlotSettings
  1

  2
\\ML370\XEROX
  4
A4
  6

 40
3.174999952316284
 41
3.174999952316284
 42
3.175003051757812
 43
3.17498779296875
 44
209.8674926757813
 45
296.6719970703125
 46
0.0
 47
0.0
 48
0.0
 49
0.0
140
0.0
141
0.0
142
1.0
143
1.0
 70
   688
 72
     1
 73
     1
 74
     5
  7
monochrome.ctb
 75
    16
147
1.0
148
0.0
149
0.0
100
AcDbLayout
  1
ﾚｲｱｳﾄ1
 70
     1
 71
     1
 10
-3.17498779296875
 20
-3.174999952316284
 11
293.4970092773438
 21
206.692492723465
 12
0.0
 22
0.0
 32
0.0
 14
1.000000000000000E+20
 24
1.000000000000000E+20
 34
1.000000000000000E+20
 15
-1.000000000000000E+20
 25
-1.000000000000000E+20
 35
-1.000000000000000E+20
146
0.0
 13
0.0
 23
0.0
 33
0.0
 16
1.0
 26
0.0
 36
0.0
 17
0.0
 27
1.0
 37
0.0
 76
     0
330
1B
  0
LAYOUT
  5
26
102
{ACAD_XDICTIONARY
360
C8CE
102
}
102
{ACAD_REACTORS
330
1A
102
}
330
1A
100
AcDbPlotSettings
  1

  2
\\ML370\XEROX
  4

  6

 40
0.0
 41
0.0
 42
0.0
 43
0.0
 44
0.0
 45
0.0
 46
0.0
 47
0.0
 48
0.0
 49
0.0
140
0.0
141
0.0
142
1.0
143
1.0
 70
   688
 72
     0
 73
     0
 74
     5
  7
monochrome.ctb
 75
    16
147
1.0
148
0.0
149
0.0
100
AcDbLayout
  1
ﾚｲｱｳﾄ2
 70
     1
 71
     2
 10
0.0
 20
0.0
 11
12.0
 21
9.0
 12
0.0
 22
0.0
 32
0.0
 14
0.0
 24
0.0
 34
0.0
 15
0.0
 25
0.0
 35
0.0
146
0.0
 13
0.0
 23
0.0
 33
0.0
 16
1.0
 26
0.0
 36
0.0
 17
0.0
 27
1.0
 37
0.0
 76
     0
330
23
  0
MATERIAL
  5
B0EF
102
{ACAD_XDICTIONARY
360
C8D4
102
}
102
{ACAD_REACTORS
330
A91C
102
}
330
A91C
100
AcDbMaterial
  1
ByBlock
  0
MATERIAL
  5
B0EE
102
{ACAD_XDICTIONARY
360
C8D2
102
}
102
{ACAD_REACTORS
330
A91C
102
}
330
A91C
100
AcDbMaterial
  1
ByLayer
  0
MATERIAL
  5
B0F0
102
{ACAD_XDICTIONARY
360
C8D6
102
}
102
{ACAD_REACTORS
330
A91C
102
}
330
A91C
100
AcDbMaterial
  1
Global
  0
MLINESTYLE
  5
18
102
{ACAD_REACTORS
330
17
102
}
330
17
100
AcDbMlineStyle
  2
STANDARD
 70
     0
  3

 62
   256
 51
90.0
 52
90.0
 71
     2
 49
0.5
 62
   256
  6
BYLAYER
 49
-0.5
 62
   256
  6
BYLAYER
  0
ACDBPLACEHOLDER
  5
F
102
{ACAD_REACTORS
330
E
102
}
330
E
  0
TABLESTYLE
  5
AABA
102
{ACAD_XDICTIONARY
360
C8D0
102
}
102
{ACAD_REACTORS
330
AAB9
102
}
330
AAB9
100
AcDbTableStyle
  3
Standard
 70
     0
 71
     0
 40
1.5
 41
1.5
280
     0
281
     0
  7
STANDARD
140
4.5
170
     2
 62
     0
 63
     7
283
     0
274
    -2
284
     1
 64
     0
275
    -2
285
     1
 65
     0
276
    -2
286
     1
 66
     0
277
    -2
287
     1
 67
     0
278
    -2
288
     1
 68
     0
279
    -2
289
     1
 69
     0
  7
STANDARD
140
6.0
170
     5
 62
     0
 63
     7
283
     0
274
    -2
284
     1
 64
     0
275
    -2
285
     1
 65
     0
276
    -2
286
     1
 66
     0
277
    -2
287
     1
 67
     0
278
    -2
288
     1
 68
     0
279
    -2
289
     1
 69
     0
  7
STANDARD
140
4.5
170
     5
 62
     0
 63
     7
283
     0
274
    -2
284
     1
 64
     0
275
    -2
285
     1
 65
     0
276
    -2
286
     1
 66
     0
277
    -2
287
     1
 67
     0
278
    -2
288
     1
 68
     0
279
    -2
289
     1
 69
     0
  0
VISUALSTYLE
  5
B0F7
102
{ACAD_REACTORS
330
B0F1
102
}
330
B0F1
100
AcDbVisualStyle
  2
2dWireframe
 70
     4
 71
     0
 72
     2
 73
     0
 90
        0
 40
-0.6
 41
-30.0
 62
     5
 63
     7
 74
     1
 91
        4
 64
     7
 65
   257
 75
     1
175
     1
 42
1.0
 92
        0
 66
   257
 43
1.0
 76
     1
 77
     6
 78
     2
 67
     7
 79
     5
170
     0
171
     0
290
     0
174
     0
 93
        1
 44
0.0
173
     0
291
     0
 45
0.0
1001
ACAD
1000
AcDbSavedByObjectVersion
1070
     0
  0
VISUALSTYLE
  5
B0F9
102
{ACAD_REACTORS
330
B0F1
102
}
330
B0F1
100
AcDbVisualStyle
  2
3D Hidden
 70
     6
 71
     1
 72
     2
 73
     2
 90
        0
 40
-0.6
 41
-30.0
 62
     5
 63
     7
 74
     2
 91
        2
 64
     7
 65
   257
 75
     2
175
     1
 42
40.0
 92
        0
 66
   257
 43
1.0
 76
     1
 77
     6
 78
     2
 67
     7
 79
     3
170
     0
171
     0
290
     0
174
     0
 93
        1
 44
0.0
173
     0
291
     0
 45
0.0
1001
ACAD
1000
AcDbSavedByObjectVersion
1070
     0
  0
VISUALSTYLE
  5
B0F8
102
{ACAD_REACTORS
330
B0F1
102
}
330
B0F1
100
AcDbVisualStyle
  2
3dWireframe
 70
     5
 71
     0
 72
     2
 73
     0
 90
        0
 40
-0.6
 41
-30.0
 62
     5
 63
     7
 74
     1
 91
        4
 64
     7
 65
   257
 75
     1
175
     1
 42
1.0
 92
        0
 66
   257
 43
1.0
 76
     1
 77
     6
 78
     2
 67
     7
 79
     5
170
     0
171
     0
290
     0
174
     0
 93
        1
 44
0.0
173
     0
291
     0
 45
0.0
1001
ACAD
1000
AcDbSavedByObjectVersion
1070
     0
  0
VISUALSTYLE
  5
B0F6
102
{ACAD_REACTORS
330
B0F1
102
}
330
B0F1
100
AcDbVisualStyle
  2
Basic
 70
     7
 71
     1
 72
     0
 73
     1
 90
        0
 40
-0.6
 41
-30.0
 62
     5
 63
     7
 74
     0
 91
        4
 64
     7
 65
   257
 75
     1
175
     1
 42
1.0
 92
        8
 66
     7
 43
1.0
 76
     1
 77
     6
 78
     2
 67
     7
 79
     5
170
     0
171
     0
290
     0
174
     0
 93
        1
 44
0.0
173
     0
291
     1
 45
0.0
1001
ACAD
1000
AcDbSavedByObjectVersion
1070
     0
  0
VISUALSTYLE
  5
B0FD
102
{ACAD_REACTORS
330
B0F1
102
}
330
B0F1
100
AcDbVisualStyle
  2
Brighten
 70
    12
 71
     2
 72
     2
 73
     0
 90
        0
 40
-0.6
 41
-30.0
 62
     5
 63
     7
 74
     1
 91
        4
 64
     7
 65
   257
 75
     1
175
     1
 42
1.0
 92
        8
 66
     7
 43
1.0
 76
     1
 77
     6
 78
     2
 67
     7
 79
     5
170
     0
171
     0
290
     0
174
     0
 93
        1
 44
50.0
173
     0
291
     1
 45
0.0
1001
ACAD
1000
AcDbSavedByObjectVersion
1070
     0
  0
VISUALSTYLE
  5
B101
102
{ACAD_REACTORS
330
B0F1
102
}
330
B0F1
100
AcDbVisualStyle
  2
ColorChange
 70
    16
 71
     2
 72
     2
 73
     3
 90
        0
 40
-0.6
 41
-30.0
 62
     5
 63
     8
 74
     1
 91
        4
 64
     7
 65
   257
 75
     1
175
     1
 42
1.0
 92
        8
 66
     8
 43
1.0
 76
     1
 77
     6
 78
     2
 67
     7
 79
     5
170
     0
171
     0
290
     0
174
     0
 93
        1
 44
0.0
173
     0
291
     1
 45
0.0
1001
ACAD
1000
AcDbSavedByObjectVersion
1070
     0
  0
VISUALSTYLE
  5
B0FA
102
{ACAD_REACTORS
330
B0F1
102
}
330
B0F1
100
AcDbVisualStyle
  2
Conceptual
 70
     9
 71
     3
 72
     2
 73
     0
 90
        0
 40
-0.6
 41
-30.0
 62
     5
 63
     7
 74
     2
 91
        2
 64
     7
 65
   257
 75
     1
175
     1
 42
40.0
 92
        8
 66
     7
 43
1.0
 76
     1
 77
     6
 78
     2
 67
     7
 79
     3
170
     0
171
     0
290
     0
174
     0
 93
        1
 44
0.0
173
     0
291
     0
 45
0.0
1001
ACAD
1000
AcDbSavedByObjectVersion
1070
     0
  0
VISUALSTYLE
  5
B0FC
102
{ACAD_REACTORS
330
B0F1
102
}
330
B0F1
100
AcDbVisualStyle
  2
Dim
 70
    11
 71
     2
 72
     2
 73
     0
 90
        0
 40
-0.6
 41
-30.0
 62
     5
 63
     7
 74
     1
 91
        4
 64
     7
 65
   257
 75
     1
175
     1
 42
1.0
 92
        8
 66
     7
 43
1.0
 76
     1
 77
     6
 78
     2
 67
     7
 79
     5
170
     0
171
     0
290
     0
174
     0
 93
        1
 44
-50.0
173
     0
291
     1
 45
0.0
1001
ACAD
1000
AcDbSavedByObjectVersion
1070
     0
  0
VISUALSTYLE
  5
B100
102
{ACAD_REACTORS
330
B0F1
102
}
330
B0F1
100
AcDbVisualStyle
  2
Facepattern
 70
    15
 71
     2
 72
     2
 73
     0
 90
        0
 40
-0.6
 41
-30.0
 62
     5
 63
     7
 74
     1
 91
        4
 64
     7
 65
   257
 75
     1
175
     1
 42
1.0
 92
        8
 66
     7
 43
1.0
 76
     1
 77
     6
 78
     2
 67
     7
 79
     5
170
     0
171
     0
290
     0
174
     0
 93
        1
 44
0.0
173
     0
291
     1
 45
0.0
1001
ACAD
1000
AcDbSavedByObjectVersion
1070
     0
  0
VISUALSTYLE
  5
B0F2
102
{ACAD_REACTORS
330
B0F1
102
}
330
B0F1
100
AcDbVisualStyle
  2
Flat
 70
     0
 71
     2
 72
     1
 73
     1
 90
        2
 40
-0.6
 41
30.0
 62
     5
 63
     7
 74
     0
 91
        4
 64
     7
 65
   257
 75
     1
175
     1
 42
1.0
 92
        8
 66
     7
 43
1.0
 76
     1
 77
     6
 78
     2
 67
     7
 79
     5
170
     0
171
     0
290
     0
174
     0
 93
       13
 44
0.0
173
     0
291
     1
 45
0.0
1001
ACAD
1000
AcDbSavedByObjectVersion
1070
     0
  0
VISUALSTYLE
  5
B0F3
102
{ACAD_REACTORS
330
B0F1
102
}
330
B0F1
100
AcDbVisualStyle
  2
FlatWithEdges
 70
     1
 71
     2
 72
     1
 73
     1
 90
        2
 40
-0.6
 41
30.0
 62
     5
 63
     7
 74
     1
 91
        4
 64
     7
 65
   257
 75
     1
175
     1
 42
1.0
 92
        0
 66
   257
 43
1.0
 76
     1
 77
     6
 78
     2
 67
     7
 79
     5
170
     0
171
     0
290
     0
174
     0
 93
       13
 44
0.0
173
     0
291
     1
 45
0.0
1001
ACAD
1000
AcDbSavedByObjectVersion
1070
     0
  0
VISUALSTYLE
  5
B0F4
102
{ACAD_REACTORS
330
B0F1
102
}
330
B0F1
100
AcDbVisualStyle
  2
Gouraud
 70
     2
 71
     2
 72
     2
 73
     1
 90
        2
 40
-0.6
 41
30.0
 62
     5
 63
     7
 74
     0
 91
        4
 64
     7
 65
   257
 75
     1
175
     1
 42
1.0
 92
        0
 66
     7
 43
1.0
 76
     1
 77
     6
 78
     2
 67
     7
 79
     5
170
     0
171
     0
290
     0
174
     0
 93
       13
 44
0.0
173
     0
291
     1
 45
0.0
1001
ACAD
1000
AcDbSavedByObjectVersion
1070
     0
  0
VISUALSTYLE
  5
B0F5
102
{ACAD_REACTORS
330
B0F1
102
}
330
B0F1
100
AcDbVisualStyle
  2
GouraudWithEdges
 70
     3
 71
     2
 72
     2
 73
     1
 90
        2
 40
-0.6
 41
30.0
 62
     5
 63
     7
 74
     1
 91
        4
 64
     7
 65
   257
 75
     1
175
     1
 42
1.0
 92
        0
 66
   257
 43
1.0
 76
     1
 77
     6
 78
     2
 67
     7
 79
     5
170
     0
171
     0
290
     0
174
     0
 93
       13
 44
0.0
173
     0
291
     1
 45
0.0
1001
ACAD
1000
AcDbSavedByObjectVersion
1070
     0
  0
VISUALSTYLE
  5
B0FF
102
{ACAD_REACTORS
330
B0F1
102
}
330
B0F1
100
AcDbVisualStyle
  2
Linepattern
 70
    14
 71
     2
 72
     2
 73
     0
 90
        0
 40
-0.6
 41
-30.0
 62
     5
 63
     7
 74
     1
 91
        4
 64
     7
 65
   257
 75
     7
175
     7
 42
1.0
 92
        8
 66
     7
 43
1.0
 76
     1
 77
     6
 78
     2
 67
     7
 79
     5
170
     0
171
     0
290
     0
174
     0
 93
        1
 44
0.0
173
     0
291
     1
 45
0.0
1001
ACAD
1000
AcDbSavedByObjectVersion
1070
     0
  0
VISUALSTYLE
  5
B0FB
102
{ACAD_REACTORS
330
B0F1
102
}
330
B0F1
100
AcDbVisualStyle
  2
Realistic
 70
     8
 71
     2
 72
     2
 73
     0
 90
        0
 40
-0.6
 41
-30.0
 62
     5
 63
     7
 74
     1
 91
        0
 64
     7
 65
   257
 75
     1
175
     1
 42
1.0
 92
        8
 66
     8
 43
1.0
 76
     1
 77
     6
 78
     2
 67
     7
 79
     5
170
     0
171
     0
290
     0
174
     0
 93
       13
 44
0.0
173
     0
291
     0
 45
0.0
1001
ACAD
1000
AcDbSavedByObjectVersion
1070
     0
  0
VISUALSTYLE
  5
B0FE
102
{ACAD_REACTORS
330
B0F1
102
}
330
B0F1
100
AcDbVisualStyle
  2
Thicken
 70
    13
 71
     2
 72
     2
 73
     0
 90
        0
 40
-0.6
 41
-30.0
 62
     5
 63
     7
 74
     1
 91
        4
 64
     7
 65
   257
 75
     1
175
     1
 42
1.0
 92
       12
 66
     7
 43
1.0
 76
     1
 77
     6
 78
     2
 67
     7
 79
     5
170
     0
171
     0
290
     0
174
     0
 93
        1
 44
0.0
173
     0
291
     1
 45
0.0
1001
ACAD
1000
AcDbSavedByObjectVersion
1070
     0
  0
DICTIONARYVAR
  5
AAF3
102
{ACAD_REACTORS
330
34
102
}
330
34
100
DictionaryVariables
280
     0
  1
STANDARD
  0
DICTIONARYVAR
  5
A10C
102
{ACAD_REACTORS
330
34
102
}
330
34
100
DictionaryVariables
280
     0
  1
1
  0
DICTIONARYVAR
  5
AB07
102
{ACAD_REACTORS
330
34
102
}
330
34
100
DictionaryVariables
280
     0
  1
4
  0
DICTIONARYVAR
  5
35
102
{ACAD_REACTORS
330
34
102
}
330
34
100
DictionaryVariables
280
     0
  1
0
  0
DICTIONARYVAR
  5
194C
102
{ACAD_REACTORS
330
34
102
}
330
34
100
DictionaryVariables
280
     0
  1
96
  0
DICTIONARY
  5
7E8
102
{ACAD_REACTORS
330
47
102
}
330
47
100
AcDbDictionary
281
     1
  0
DICTIONARY
  5
4C
102
{ACAD_REACTORS
330
47
102
}
330
47
100
AcDbDictionary
281
     1
  0
XRECORD
  5
A929
102
{ACAD_REACTORS
330
47
102
}
330
47
100
AcDbXrecord
280
     1
 90
-1023410169
  0
XRECORD
  5
B332
102
{ACAD_REACTORS
330
B331
102
}
330
B331
100
AcDbXrecord
280
     1
  0
XRECORD
  5
3FB7
102
{ACAD_REACTORS
330
3F96
102
}
330
3F96
100
AcDbXrecord
280
     1
 91
        3
330
0
 90
        8
 62
     7
370
    40
331
16
  1
Color_7
330
0
 90
        0
 62
    14
370
    -3
331
16
  1
Color_14
330
0
 90
        8
 62
     7
370
    20
331
16
  1
Color_7
330
6D1
 90
        0
 62
     7
370
    -3
331
16
  1
Color_7
330
0
 90
        8
 62
     7
370
    50
331
16
  1
Color_7
330
0
 90
        8
 62
     2
370
    35
331
16
  1
Color_2
330
0
 90
        8
 62
     7
370
    -3
331
16
  1
Color_7
330
10
 90
        8
 62
     7
370
    -3
331
16
  1
Color_7
  0
DICTIONARY
  5
C8CC
330
22
100
AcDbDictionary
280
     1
281
     1
  3
ACAD_XREC_ROUNDTRIP
360
C8CD
  0
DICTIONARY
  5
C8CA
330
1E
100
AcDbDictionary
280
     1
281
     1
  3
ACAD_XREC_ROUNDTRIP
360
C8CB
  0
DICTIONARY
  5
C8CE
330
26
100
AcDbDictionary
280
     1
281
     1
  3
ACAD_XREC_ROUNDTRIP
360
C8CF
  0
DICTIONARY
  5
C8D4
330
B0EF
100
AcDbDictionary
280
     1
281
     1
  3
ACAD_XREC_ROUNDTRIP
360
C8D5
  0
DICTIONARY
  5
C8D2
330
B0EE
100
AcDbDictionary
280
     1
281
     1
  3
ACAD_XREC_ROUNDTRIP
360
C8D3
  0
DICTIONARY
  5
C8D6
330
B0F0
100
AcDbDictionary
280
     1
281
     1
  3
ACAD_XREC_ROUNDTRIP
360
C8D7
  0
DICTIONARY
  5
C8D0
330
AABA
100
AcDbDictionary
280
     1
281
     1
  3
ACAD_XREC_ROUNDTRIP
360
C8D1
  0
XRECORD
  5
C8CD
102
{ACAD_REACTORS
330
C8CC
102
}
330
C8CC
100
AcDbXrecord
280
     1
102
SHADEPLOT
 70
     0
102
SHADEPLOTRESLEVEL
 70
     2
102
SHADEPLOTCUSTOMDPI
 70
   200
  0
XRECORD
  5
C8CB
102
{ACAD_REACTORS
330
C8CA
102
}
330
C8CA
100
AcDbXrecord
280
     1
102
SHADEPLOT
 70
     0
102
SHADEPLOTRESLEVEL
 70
     2
102
SHADEPLOTCUSTOMDPI
 70
   300
  0
XRECORD
  5
C8CF
102
{ACAD_REACTORS
330
C8CE
102
}
330
C8CE
100
AcDbXrecord
280
     1
102
SHADEPLOT
 70
     0
102
SHADEPLOTRESLEVEL
 70
     2
102
SHADEPLOTCUSTOMDPI
 70
   300
  0
XRECORD
  5
C8D5
102
{ACAD_REACTORS
330
C8D4
102
}
330
C8D4
100
AcDbXrecord
280
     1
102
MATERIAL
148
0.0
149
0.0
149
0.0
 93
        0
 94
       63
282
     0
 72
     1
 77
     1
171
     1
175
     1
179
     1
273
     0
  0
XRECORD
  5
C8D3
102
{ACAD_REACTORS
330
C8D2
102
}
330
C8D2
100
AcDbXrecord
280
     1
102
MATERIAL
148
0.0
149
0.0
149
0.0
 93
        0
 94
       63
282
     0
 72
     1
 77
     1
171
     1
175
     1
179
     1
273
     0
  0
XRECORD
  5
C8D7
102
{ACAD_REACTORS
330
C8D6
102
}
330
C8D6
100
AcDbXrecord
280
     1
102
MATERIAL
148
0.0
149
0.0
149
0.0
 93
        0
 94
       63
282
     0
 72
     1
 77
     1
171
     1
175
     1
179
     1
273
     0
  0
XRECORD
  5
C8D1
102
{ACAD_REACTORS
330
C8D0
102
}
330
C8D0
100
AcDbXrecord
280
     1
102
ACAD_ROUNDTRIP_PRE2007_TABLESTYLE
 90
        4
 91
        0
  1

 92
        4
 93
        0
  2

 94
        4
 95
        0
  3

  0
ENDSEC
  0
EOF
