  0
SECTION
  2
HEADER
  9
$ACADVER
  1
AC1015
  9
$ACADMAINTVER
 70
    20
  9
$DWGCODEPAGE
  3
ANSI_932
  9
$INSBASE
 10
0.0
 20
0.0
 30
0.0
  9
$EXTMIN
 10
5682.937331625351
 20
6415.561849155444
 30
-0.0000000000000058
  9
$EXTMAX
 10
6102.975781426565
 20
6712.577185909561
 30
0.0000000000000104
  9
$LIMMIN
 10
5682.956552614193
 20
6402.562992781611
  9
$LIMMAX
 10
6102.956552614195
 20
6699.562992781611
  9
$ORTHOMODE
 70
     0
  9
$REGENMODE
 70
     1
  9
$FILLMODE
 70
     1
  9
$QTEXTMODE
 70
     0
  9
$MIRRTEXT
 70
     0
  9
$LTSCALE
 40
1.0
  9
$ATTMODE
 70
     1
  9
$TEXTSIZE
 40
3.2
  9
$TRACEWID
 40
1.0
  9
$TEXTSTYLE
  7
STANDARD
  9
$CLAYER
  8
ブッシュ-AM_0
  9
$CELTYPE
  6
ByLayer
  9
$CECOLOR
 62
   256
  9
$CELTSCALE
 40
1.0
  9
$DISPSILH
 70
     0
  9
$DIMSCALE
 40
1.0
  9
$DIMASZ
 40
1.0
  9
$DIMEXO
 40
1.0
  9
$DIMDLI
 40
10.0
  9
$DIMRND
 40
0.0
  9
$DIMDLE
 40
0.0
  9
$DIMEXE
 40
1.0
  9
$DIMTP
 40
0.1
  9
$DIMTM
 40
0.1
  9
$DIMTXT
 40
3.5
  9
$DIMCEN
 40
0.0
  9
$DIMTSZ
 40
0.0
  9
$DIMTOL
 70
     0
  9
$DIMLIM
 70
     0
  9
$DIMTIH
 70
     0
  9
$DIMTOH
 70
     0
  9
$DIMSE1
 70
     0
  9
$DIMSE2
 70
     0
  9
$DIMTAD
 70
     1
  9
$DIMZIN
 70
     8
  9
$DIMBLK
  1

  9
$DIMASO
 70
     1
  9
$DIMSHO
 70
     1
  9
$DIMPOST
  1

  9
$DIMAPOST
  1
"
  9
$DIMALT
 70
     0
  9
$DIMALTD
 70
     2
  9
$DIMALTF
 40
0.0393701
  9
$DIMLFAC
 40
1.0
  9
$DIMTOFL
 70
     1
  9
$DIMTVP
 40
0.0
  9
$DIMTIX
 70
     0
  9
$DIMSOXD
 70
     0
  9
$DIMSAH
 70
     0
  9
$DIMBLK1
  1

  9
$DIMBLK2
  1

  9
$DIMSTYLE
  2
SYS
  9
$DIMCLRD
 70
   256
  9
$DIMCLRE
 70
   256
  9
$DIMCLRT
 70
     7
  9
$DIMTFAC
 40
0.71
  9
$DIMGAP
 40
1.5
  9
$DIMJUST
 70
     0
  9
$DIMSD1
 70
     0
  9
$DIMSD2
 70
     0
  9
$DIMTOLJ
 70
     0
  9
$DIMTZIN
 70
     8
  9
$DIMALTZ
 70
     0
  9
$DIMALTTZ
 70
     0
  9
$DIMUPT
 70
     0
  9
$DIMDEC
 70
     2
  9
$DIMTDEC
 70
     2
  9
$DIMALTU
 70
     2
  9
$DIMALTTD
 70
     2
  9
$DIMTXSTY
  7
STANDARD
  9
$DIMAUNIT
 70
     0
  9
$DIMADEC
 70
     0
  9
$DIMALTRND
 40
0.0
  9
$DIMAZIN
 70
     2
  9
$DIMDSEP
 70
    46
  9
$DIMATFIT
 70
     3
  9
$DIMFRAC
 70
     0
  9
$DIMLDRBLK
  1

  9
$DIMLUNIT
 70
     2
  9
$DIMLWD
 70
    -1
  9
$DIMLWE
 70
    -1
  9
$DIMTMOVE
 70
     0
  9
$LUNITS
 70
     2
  9
$LUPREC
 70
     2
  9
$SKETCHINC
 40
1.0
  9
$FILLETRAD
 40
10.0
  9
$AUNITS
 70
     0
  9
$AUPREC
 70
     0
  9
$MENU
  1
.
  9
$ELEVATION
 40
0.0
  9
$PELEVATION
 40
0.0
  9
$THICKNESS
 40
0.0
  9
$LIMCHECK
 70
     0
  9
$CHAMFERA
 40
0.5
  9
$CHAMFERB
 40
0.5
  9
$CHAMFERC
 40
20.0
  9
$CHAMFERD
 40
0.0
  9
$SKPOLY
 70
     0
  9
$TDCREATE
 40
2454315.390774016
  9
$TDUCREATE
 40
2454315.015774017
  9
$TDUPDATE
 40
2456696.647665463
  9
$TDUUPDATE
 40
2456696.272665463
  9
$TDINDWG
 40
3.3402508796
  9
$TDUSRTIMER
 40
3.3402501620
  9
$USRTIMER
 70
     1
  9
$ANGBASE
 50
0.0
  9
$ANGDIR
 70
     0
  9
$PDMODE
 70
     0
  9
$PDSIZE
 40
-3.0
  9
$PLINEWID
 40
0.0
  9
$SPLFRAME
 70
     0
  9
$SPLINETYPE
 70
     6
  9
$SPLINESEGS
 70
     8
  9
$HANDSEED
  5
11416
  9
$SURFTAB1
 70
     6
  9
$SURFTAB2
 70
     6
  9
$SURFTYPE
 70
     6
  9
$SURFU
 70
     6
  9
$SURFV
 70
     6
  9
$UCSBASE
  2

  9
$UCSNAME
  2

  9
$UCSORG
 10
0.0
 20
0.0
 30
0.0
  9
$UCSXDIR
 10
1.0
 20
0.0
 30
0.0
  9
$UCSYDIR
 10
0.0
 20
1.0
 30
0.0
  9
$UCSORTHOREF
  2

  9
$UCSORTHOVIEW
 70
     0
  9
$UCSORGTOP
 10
0.0
 20
0.0
 30
0.0
  9
$UCSORGBOTTOM
 10
0.0
 20
0.0
 30
0.0
  9
$UCSORGLEFT
 10
0.0
 20
0.0
 30
0.0
  9
$UCSORGRIGHT
 10
0.0
 20
0.0
 30
0.0
  9
$UCSORGFRONT
 10
0.0
 20
0.0
 30
0.0
  9
$UCSORGBACK
 10
0.0
 20
0.0
 30
0.0
  9
$PUCSBASE
  2

  9
$PUCSNAME
  2

  9
$PUCSORG
 10
0.0
 20
0.0
 30
0.0
  9
$PUCSXDIR
 10
1.0
 20
0.0
 30
0.0
  9
$PUCSYDIR
 10
0.0
 20
1.0
 30
0.0
  9
$PUCSORTHOREF
  2

  9
$PUCSORTHOVIEW
 70
     0
  9
$PUCSORGTOP
 10
0.0
 20
0.0
 30
0.0
  9
$PUCSORGBOTTOM
 10
0.0
 20
0.0
 30
0.0
  9
$PUCSORGLEFT
 10
0.0
 20
0.0
 30
0.0
  9
$PUCSORGRIGHT
 10
0.0
 20
0.0
 30
0.0
  9
$PUCSORGFRONT
 10
0.0
 20
0.0
 30
0.0
  9
$PUCSORGBACK
 10
0.0
 20
0.0
 30
0.0
  9
$USERI1
 70
     0
  9
$USERI2
 70
     0
  9
$USERI3
 70
     0
  9
$USERI4
 70
     0
  9
$USERI5
 70
     0
  9
$USERR1
 40
0.0
  9
$USERR2
 40
0.0
  9
$USERR3
 40
0.0
  9
$USERR4
 40
0.0
  9
$USERR5
 40
0.0
  9
$WORLDVIEW
 70
     1
  9
$SHADEDGE
 70
     3
  9
$SHADEDIF
 70
    70
  9
$TILEMODE
 70
     1
  9
$MAXACTVP
 70
    64
  9
$PINSBASE
 10
0.0
 20
0.0
 30
0.0
  9
$PLIMCHECK
 70
     0
  9
$PEXTMIN
 10
1.000000000000000E+20
 20
1.000000000000000E+20
 30
1.000000000000000E+20
  9
$PEXTMAX
 10
-1.000000000000000E+20
 20
-1.000000000000000E+20
 30
-1.000000000000000E+20
  9
$PLIMMIN
 10
-3.17498779296875
 20
-3.174999952316283
  9
$PLIMMAX
 10
293.4970092773438
 20
206.692492723465
  9
$UNITMODE
 70
     0
  9
$VISRETAIN
 70
     1
  9
$PLINEGEN
 70
     0
  9
$PSLTSCALE
 70
     1
  9
$TREEDEPTH
 70
  3020
  9
$CMLSTYLE
  2
Standard
  9
$CMLJUST
 70
     0
  9
$CMLSCALE
 40
20.0
  9
$PROXYGRAPHICS
 70
     1
  9
$MEASUREMENT
 70
     1
  9
$CELWEIGHT
370
    -1
  9
$ENDCAPS
280
     0
  9
$JOINSTYLE
280
     0
  9
$LWDISPLAY
290
     1
  9
$INSUNITS
 70
     4
  9
$HYPERLINKBASE
  1

  9
$STYLESHEET
  1
monochrome.ctb
  9
$XEDIT
290
     1
  9
$CEPSNTYPE
380
     0
  9
$PSTYLEMODE
290
     1
  9
$FINGERPRINTGUID
  2
{5FC86F6E-F773-4344-BDB5-8C3723B2ED30}
  9
$VERSIONGUID
  2
{4784AF90-6622-4C0C-9A2F-A9AE50C3EBE2}
  9
$EXTNAMES
290
     1
  9
$PSVPSCALE
 40
0.0
  9
$OLESTARTUP
290
     0
  0
ENDSEC
  0
SECTION
  2
CLASSES
  0
CLASS
  1
ACDBDICTIONARYWDFLT
  2
AcDbDictionaryWithDefault
  3
ObjectDBX Classes
 90
        0
280
     0
281
     0
  0
CLASS
  1
ACDBPLACEHOLDER
  2
AcDbPlaceHolder
  3
ObjectDBX Classes
 90
        0
280
     0
281
     0
  0
CLASS
  1
LAYOUT
  2
AcDbLayout
  3
ObjectDBX Classes
 90
        0
280
     0
281
     0
  0
CLASS
  1
AMGSETTINGSOBJ
  2
AmgSettingsObj
  3
"AcadM|Product Description: AutoCAD Mechanical|Company: Autodesk"
 90
        0
280
     0
281
     0
  0
CLASS
  1
ACME_DOCUMENT
  2
AcMeDbDoc
  3
AcMeServices
 90
        0
280
     0
281
     0
  0
CLASS
  1
ACMESCOPE
  2
AcMeScope
  3
AcMeServices
 90
        0
280
     0
281
     0
  0
CLASS
  1
ACMECOMMANDHISTORY
  2
AcMeCommandHistory
  3
AcMeServices
 90
        0
280
     0
281
     0
  0
CLASS
  1
DICTIONARYVAR
  2
AcDbDictionaryVar
  3
ObjectDBX Classes
 90
        0
280
     0
281
     0
  0
CLASS
  1
ACIMSYSVARMAN
  2
AcImSysVarManager
  3
AcMeServices
 90
        0
280
     0
281
     0
  0
CLASS
  1
ACIMREALSYSVAR
  2
AcImRealSysVar
  3
AcMeServices
 90
        0
280
     0
281
     0
  0
CLASS
  1
ACIMINTSYSVAR
  2
AcImIntSysVar
  3
AcMeServices
 90
        0
280
     0
281
     0
  0
CLASS
  1
ACMEDRAWINGMAN
  2
AcMeDrawingMan
  3
AcMeServices
 90
        0
280
     0
281
     0
  0
CLASS
  1
ACMEVIEW
  2
AcMeView
  3
AcMeServices
 90
        0
280
     0
281
     0
  0
CLASS
  1
ACDBENTITYCACHE
  2
AcMeEntityCache
  3
AcMeServices
 90
        0
280
     0
281
     0
  0
CLASS
  1
GSMANAGER
  2
AcMeGSManager
  3
AcMeServices
 90
        0
280
     0
281
     0
  0
CLASS
  1
AMDTINTERNALREACTOR
  2
AmdtInternalReactor
  3
AcMeServices
 90
        0
280
     0
281
     0
  0
CLASS
  1
ACMESTATEMGR
  2
AcMeStateMgr
  3
AcMeServices
 90
        0
280
     0
281
     0
  0
CLASS
  1
ACGREFMASTER
  2
AcGrefMaster
  3
AcAttribServices
 90
        0
280
     0
281
     0
  0
CLASS
  1
ACME_DATABASE
  2
AcMeDbDatabase
  3
AcMeServices
 90
        0
280
     0
281
     0
  0
CLASS
  1
ACRFINSADJUSTERMGR
  2
AcRfInsAdjusterMgr
  3
AcMeServices
 90
        0
280
     0
281
     0
  0
CLASS
  1
ACGREFACADMASTER
  2
AcGrefacadMaster
  3
AcGrefServices
 90
        0
280
     0
281
     0
  0
CLASS
  1
AMIMASTER
  2
AmiMaster
  3
AmiServices
 90
        0
280
     0
281
     0
  0
CLASS
  1
ACMDATADICTIONARY
  2
AcmDataDictionary
  3
"AcmSymBB|Product Description: AutoCAD Mechanical|Company: Autodesk"
 90
        0
280
     0
281
     0
  0
CLASS
  1
ACMDATAENTRYBLOCK
  2
AcmDataEntryBlock
  3
"AcmSymBB|Product Description: AutoCAD Mechanical|Company: Autodesk"
 90
    32768
280
     0
281
     0
  0
CLASS
  1
ACIMSTRSYSVAR
  2
AcImStrSysVar
  3
AcMeServices
 90
        0
280
     0
281
     0
  0
CLASS
  1
ACMSTANDARDISO
  2
AcmStandardISO
  3
"Amdt_StdImp|Product Description: AutoCAD Mechanical|Company: Autodesk"
 90
        0
280
     0
281
     0
  0
CLASS
  1
AMGOBJPROPCFG
  2
AmgObjPropCfg
  3
"AmgLay|Product Description: AutoCAD Mechanical|Company: Autodesk"
 90
        1
280
     0
281
     0
  0
CLASS
  1
AMDTEDGESTANDARDISO
  2
AmdtEdgeStdISO
  3
"Amdt_StdImp|Product Description: AutoCAD Mechanical|Company: Autodesk"
 90
    32768
280
     0
281
     0
  0
CLASS
  1
ACMSURFSTANDARDISO
  2
AcmSurfTextStdISO
  3
"Amdt_StdImp|Product Description: AutoCAD Mechanical|Company: Autodesk"
 90
        0
280
     0
281
     0
  0
CLASS
  1
ACMFCFSTANDARDISO
  2
AcmFCFStdISO
  3
"Amdt_StdImp|Product Description: AutoCAD Mechanical|Company: Autodesk"
 90
        0
280
     0
281
     0
  0
CLASS
  1
ACMWELDSTANDARDISO
  2
AcmWeldingStdISO
  3
"Amdt_StdImp|Product Description: AutoCAD Mechanical|Company: Autodesk"
 90
        0
280
     0
281
     0
  0
CLASS
  1
ACMIDSTANDARDISO
  2
AcmIdStdISO
  3
"Amdt_StdImp|Product Description: AutoCAD Mechanical|Company: Autodesk"
 90
        0
280
     0
281
     0
  0
CLASS
  1
ACMDATUMSTANDARDISO
  2
AcmDatumStdISO
  3
"Amdt_StdImp|Product Description: AutoCAD Mechanical|Company: Autodesk"
 90
        0
280
     0
281
     0
  0
CLASS
  1
ACMBOMSTANDARDISO
  2
AcmBOMStdISO
  3
"Amdt_StdImp|Product Description: AutoCAD Mechanical|Company: Autodesk"
 90
        0
280
     0
281
     0
  0
CLASS
  1
ACMDETAILSTANDARDISO
  2
AmdtDetailSymStdISO
  3
"Amdt_StdImp|Product Description: AutoCAD Mechanical|Company: Autodesk"
 90
        0
280
     0
281
     0
  0
CLASS
  1
ACMSECTIONSTANDARDISO
  2
AmdtSectionSymStdISO
  3
"Amdt_StdImp|Product Description: AutoCAD Mechanical|Company: Autodesk"
 90
        0
280
     0
281
     0
  0
CLASS
  1
ACMCENTERLINESTANDARDISO
  2
AmdtCenterLineStdISO
  3
"Amdt_StdImp|Product Description: AutoCAD Mechanical|Company: Autodesk"
 90
        0
280
     0
281
     0
  0
CLASS
  1
ACAMGLAYSTD
  2
AcAmgLayStd
  3
"AmgLay|Product Description: AutoCAD Mechanical|Company: Autodesk"
 90
        0
280
     0
281
     0
  0
CLASS
  1
ACAMGDIMSTD
  2
AcAmgDimStd
  3
"AmgDim|Product Description: AutoCAD Mechanical|Company: Autodesk"
 90
        0
280
     0
281
     0
  0
CLASS
  1
ACAMGTITLESTD
  2
AcAmgTitleStd
  3
"AmgTitle|Product Description: AutoCAD Mechanical|Company: Autodesk"
 90
        0
280
     0
281
     0
  0
CLASS
  1
ACAMGFILTERDAT
  2
AcAmgFilterDat
  3
"AcadM|Product Description: AutoCAD Mechanical|Company: Autodesk"
 90
    32768
280
     0
281
     0
  0
CLASS
  1
LAYER_INDEX
  2
AcDbLayerIndex
  3
ObjectDBX Classes
 90
    32768
280
     0
281
     0
  0
CLASS
  1
IDBUFFER
  2
AcDbIdBuffer
  3
ObjectDBX Classes
 90
    32768
280
     0
281
     0
  0
CLASS
  1
PLOTSETTINGS
  2
AcDbPlotSettings
  3
ObjectDBX Classes
 90
        0
280
     0
281
     0
  0
CLASS
  1
AMDTFORMULAUPDATEDISPATCHER
  2
AmdtFormulaUpdateDispatcher
  3
AcMeServices
 90
    32768
280
     0
281
     0
  0
CLASS
  1
ACMSTANDARDANSI
  2
AcmStandardANSI
  3
"Amdt_StdImp|Product Description: AutoCAD Mechanical|Company: Autodesk"
 90
    32768
280
     0
281
     0
  0
CLASS
  1
ACMSURFSTANDARDANSI
  2
AcmSurfTextStdANSI
  3
"Amdt_StdImp|Product Description: AutoCAD Mechanical|Company: Autodesk"
 90
    32768
280
     0
281
     0
  0
CLASS
  1
ACMFCFSTANDARDANSI
  2
AcmFCFStdANSI
  3
"Amdt_StdImp|Product Description: AutoCAD Mechanical|Company: Autodesk"
 90
    32768
280
     0
281
     0
  0
CLASS
  1
ACMWELDSTANDARDANSI
  2
AcmWeldingStdANSI
  3
"Amdt_StdImp|Product Description: AutoCAD Mechanical|Company: Autodesk"
 90
    32768
280
     0
281
     0
  0
CLASS
  1
ACMIDSTANDARDANSI
  2
AcmIdStdANSI
  3
"Amdt_StdImp|Product Description: AutoCAD Mechanical|Company: Autodesk"
 90
    32768
280
     0
281
     0
  0
CLASS
  1
ACMDATUMSTANDARDANSI
  2
AcmDatumStdANSI
  3
"Amdt_StdImp|Product Description: AutoCAD Mechanical|Company: Autodesk"
 90
    32768
280
     0
281
     0
  0
CLASS
  1
ACMBOMSTANDARDANSI
  2
AcmBOMStdANSI
  3
"Amdt_StdImp|Product Description: AutoCAD Mechanical|Company: Autodesk"
 90
    32768
280
     0
281
     0
  0
CLASS
  1
ACMDETAILSTANDARDANSI
  2
AmdtDetailSymStdANSI
  3
"Amdt_StdImp|Product Description: AutoCAD Mechanical|Company: Autodesk"
 90
    32768
280
     0
281
     0
  0
CLASS
  1
ACMSECTIONSTANDARDANSI
  2
AmdtSectionSymStdANSI
  3
"Amdt_StdImp|Product Description: AutoCAD Mechanical|Company: Autodesk"
 90
    32768
280
     0
281
     0
  0
CLASS
  1
ACMCENTERLINESTANDARDANSI
  2
AmdtCenterLineStdANSI
  3
"Amdt_StdImp|Product Description: AutoCAD Mechanical|Company: Autodesk"
 90
    32768
280
     0
281
     0
  0
CLASS
  1
ACMBOM
  2
AcmBom
  3
"AcmSymBB|Product Description: AutoCAD Mechanical|Company: Autodesk"
 90
    32768
280
     0
281
     0
  0
CLASS
  1
ACMDATAENTRYPART
  2
AcmDataEntryPart
  3
"AcmSymBB|Product Description: AutoCAD Mechanical|Company: Autodesk"
 90
    32768
280
     0
281
     0
  0
CLASS
  1
ACMPARTREF
  2
AcmPartRef
  3
"AcmSymBB|Product Description: AutoCAD Mechanical|Company: Autodesk"
 90
    35839
280
     0
281
     1
  0
CLASS
  1
ACDBCIRCARCRES
  2
AcDbCircArcRes
  3
AcGrefServices
 90
    32768
280
     0
281
     0
  0
CLASS
  1
ACMBOMROW
  2
AcmBomRow
  3
"AcmSymBB|Product Description: AutoCAD Mechanical|Company: Autodesk"
 90
    32768
280
     0
281
     0
  0
CLASS
  1
ACMBALLOON
  2
AcmBalloon
  3
"AcmSymBB|Product Description: AutoCAD Mechanical|Company: Autodesk"
 90
    35839
280
     0
281
     1
  0
CLASS
  1
AMDTNOTE
  2
AmdtNote
  3
"AcmSymBB|Product Description: AutoCAD Mechanical|Company: Autodesk"
 90
    35839
280
     0
281
     1
  0
CLASS
  1
STDPART2D
  2
AmgStdPart
  3
"g3vace|Class: AmgStdPart|Product Description: AutoCAD Mechanical|Company: Autodesk"
 90
    35839
280
     0
281
     1
  0
CLASS
  1
ACDBSTDPARTRES_LINE
  2
AcDbStdPartRes_Line
  3
"g3vace|Class: AcDbStdPartRes_Line|Product Description: AutoCAD Mechanical|Company: Autodesk"
 90
    32768
280
     0
281
     0
  0
CLASS
  1
ACMDATAENTRY
  2
AcmDataEntry
  3
"AcmSymBB|Product Description: AutoCAD Mechanical|Company: Autodesk"
 90
    32768
280
     0
281
     0
  0
CLASS
  1
ACDBOPPOLYLINERES
  2
AcDbOpPolylineRes
  3
AcGrefServices
 90
    32768
280
     0
281
     0
  0
CLASS
  1
ACMPARTLIST
  2
AcmPartList
  3
"AcmSymBB|Product Description: AutoCAD Mechanical|Company: Autodesk"
 90
    35839
280
     0
281
     1
  0
CLASS
  1
ACDBLINERES
  2
AcDbLineRes
  3
AcGrefServices
 90
    32768
280
     0
281
     0
  0
CLASS
  1
ACRFINSADJ
  2
AcRfInsAdjuster
  3
AcMeServices
 90
    32768
280
     0
281
     0
  0
CLASS
  1
AM_DRAWING_MGR
  2
AcDmDwgMgr
  3
AcMechDwgViewMgmt
 90
        0
280
     0
281
     0
  0
CLASS
  1
AM_DWG_DOCUMENT
  2
AcDmDwgDocument
  3
AcMechDwgViewMgmt
 90
        0
280
     0
281
     0
  0
CLASS
  1
AM_DWG_SHEET
  2
AcDmSheet
  3
AcMechDwgViewMgmt
 90
        0
280
     0
281
     0
  0
CLASS
  1
AM_VIEWDIMPARMAP
  2
AcDmViewDimParMap
  3
AcMechDwgViewMgmt
 90
        0
280
     0
281
     0
  0
CLASS
  1
AM_DWGMGR_NAME
  2
AcDmDwgMgrName
  3
AcMechDwgViewMgmt
 90
        0
280
     0
281
     0
  0
CLASS
  1
AMDTMENUSTATEMGR
  2
AmdtMenuStateMgr
  3
McadcomServices
 90
        0
280
     0
281
     0
  0
CLASS
  1
AMDTMCOMMENUSTATE
  2
AmdtMcomMenuState
  3
McadcomServices
 90
        0
280
     0
281
     0
  0
CLASS
  1
ASAPP
  2
AcAsAppObject
  3
AutoSurfServices
 90
        0
280
     0
281
     0
  0
CLASS
  1
IM_STATIC_MAN
  2
AcImStaticVarManager
  3
AcMeServices
 90
    32768
280
     0
281
     0
  0
CLASS
  1
ACIMDBLSTATICVAR
  2
AcImDblStaticVar
  3
AcMeServices
 90
    32768
280
     0
281
     0
  0
CLASS
  1
ACIMSTRSTATICVAR
  2
AcImStrStaticVar
  3
AcMeServices
 90
    32768
280
     0
281
     0
  0
CLASS
  1
ACIMINTSTATICVAR
  2
AcImIntStaticVar
  3
AcMeServices
 90
    32768
280
     0
281
     0
  0
CLASS
  1
ACASGREFMASTER
  2
AcAsGrefMaster
  3
AutoSurfResolverServices
 90
        0
280
     0
281
     0
  0
CLASS
  1
ACADGREFMODULE
  2
AcAdGrefModule
  3
AdGrefServices
 90
        0
280
     0
281
     0
  0
CLASS
  1
AMDTMAPISURFMOUDULE
  2
AmdtMApiSurfModule
  3
MApiSurfServices
 90
        0
280
     0
281
     0
  0
CLASS
  1
MAPIAMMOUDLE
  2
MApiAmModule
  3
MApiAmServices
 90
        0
280
     0
281
     0
  0
CLASS
  1
AMDTADMENUSTATE
  2
AmdtAdMenuState
  3
DesignerServices
 90
        0
280
     0
281
     0
  0
CLASS
  1
ADAPPL
  2
AcAdAppl
  3
DesignerServices
 90
        0
280
     0
281
     0
  0
CLASS
  1
DEPMGR
  2
AcAdDepMgr
  3
DesignerServices
 90
        0
280
     0
281
     0
  0
CLASS
  1
PARAMMGR
  2
AcAdParamMgr
  3
DesignerServices
 90
        0
280
     0
281
     0
  0
CLASS
  1
PARAMSCOPE
  2
AcAdParamScope
  3
DesignerServices
 90
        0
280
     0
281
     0
  0
CLASS
  1
NAMEDAPPL
  2
AcAdNamedAppl
  3
DesignerServices
 90
        0
280
     0
281
     0
  0
CLASS
  1
ADHNTMPLT
  2
AdHoleNoteTemplateMgr
  3
DesignerServices
 90
    32768
280
     0
281
     0
  0
CLASS
  1
AM_HNTEMPLATE_MGR_NAME
  2
AdHoleNoteTemplateMgrName
  3
DesignerServices
 90
    32768
280
     0
281
     0
  0
CLASS
  1
AMDTDMMENUSTATE
  2
AmdtDmMenuState
  3
AcMechDwgViewMgmt
 90
        0
280
     0
281
     0
  0
CLASS
  1
MAPIADMODULE
  2
MApiAdModule
  3
MApiAdServices
 90
        0
280
     0
281
     0
  0
CLASS
  1
AMDTAMMENUSTATE
  2
AmdtAmMenuState
  3
DesignerAssemblies
 90
        0
280
     0
281
     0
  0
CLASS
  1
ACAMPROJECT
  2
AcAmProject
  3
DesignerAssemblies
 90
        0
280
     0
281
     0
  0
CLASS
  1
ACAMGRCOMPDEF
  2
AcAmGrCompDef
  3
DesignerAssemblies
 90
        0
280
     0
281
     0
  0
CLASS
  1
ACCMCONTEXT
  2
AcCmContext
  3
DesignerAssemblies
 90
        0
280
     0
281
     0
  0
CLASS
  1
ACAMCOMPDEF
  2
AcAmCompDef
  3
DesignerAssemblies
 90
        0
280
     0
281
     0
  0
CLASS
  1
ACAMCOMPDEFMGR
  2
AcAmCompDefMgr
  3
DesignerAssemblies
 90
        0
280
     0
281
     0
  0
CLASS
  1
AMCONTEXTMGR
  2
AcAmContextMgr
  3
DesignerAssemblies
 90
        0
280
     0
281
     0
  0
CLASS
  1
ACAMCONTEXTMODELER
  2
AcAmContextModeler
  3
DesignerAssemblies
 90
        0
280
     0
281
     0
  0
CLASS
  1
CATALOGSTATE
  2
AcAmCatalogState
  3
DesignerAssemblies
 90
        0
280
     0
281
     0
  0
CLASS
  1
ACAMGRCOMPDEFSET
  2
AcAmGrCompDefSet
  3
DesignerAssemblies
 90
        0
280
     0
281
     0
  0
CLASS
  1
AMDTBROWSERDBTAB
  2
AmdtBrowserDbTab
  3
McadcomServices
 90
        0
280
     0
281
     0
  0
CLASS
  1
CBROWSERAPPOBJECT
  2
CBrowserAppObject
  3
McadcomServices
 90
        0
280
     0
281
     0
  0
CLASS
  1
DM_PLACEHOLDER
  2
AcDmSelsetPlaceholder
  3
AcMechDwgViewMgmt
 90
        0
280
     0
281
     0
  0
CLASS
  1
ACMPICKOBJ
  2
AcmPickEnt
  3
"AcmSymBB|Product Description: AutoCAD Mechanical|Company: Autodesk"
 90
    32768
280
     0
281
     1
  0
CLASS
  1
ACMNOTESTANDARDISO
  2
AmdtNoteStdISO
  3
"Amdt_StdImp|Product Description: AutoCAD Mechanical|Company: Autodesk"
 90
        0
280
     0
281
     0
  0
CLASS
  1
ACMNOTESTANDARDANSI
  2
AmdtNoteStdANSI
  3
"Amdt_StdImp|Product Description: AutoCAD Mechanical|Company: Autodesk"
 90
    32768
280
     0
281
     0
  0
CLASS
  1
ACMTHREADLINESTANDARDISO
  2
AmdtThreadLineStdISO
  3
"Amdt_StdImp|Product Description: AutoCAD Mechanical|Company: Autodesk"
 90
        0
280
     0
281
     0
  0
CLASS
  1
ACMTHREADLINESTANDARDANSI
  2
AmdtThreadLineStdANSI
  3
"Amdt_StdImp|Product Description: AutoCAD Mechanical|Company: Autodesk"
 90
    32768
280
     0
281
     0
  0
CLASS
  1
TABLESTYLE
  2
AcDbTableStyle
  3
ObjectDBX Classes
 90
     4095
280
     0
281
     0
  0
CLASS
  1
SORTENTSTABLE
  2
AcDbSortentsTable
  3
ObjectDBX Classes
 90
        0
280
     0
281
     0
  0
CLASS
  1
EXACXREFPANELOBJECT
  2
ExAcXREFPanelObject
  3
EXAC_ESW
 90
    32768
280
     0
281
     0
  0
CLASS
  1
DIMASSOC
  2
AcDbDimAssoc
  3
"AcDbDimAssoc|Product Desc:     AcDim ARX App For Dimension|Company:          Autodesk, Inc.|WEB Address:      www.autodesk.com"
 90
        0
280
     0
281
     0
  0
CLASS
  1
MATERIAL
  2
AcDbMaterial
  3
ObjectDBX Classes
 90
     1024
280
     0
281
     0
  0
CLASS
  1
VISUALSTYLE
  2
AcDbVisualStyle
  3
ObjectDBX Classes
 90
     4095
280
     0
281
     0
  0
CLASS
  1
ACRFATTGENMGR
  2
AcRfAttGeneralMgr
  3
AcAttribServices
 90
    32768
280
     0
281
     0
  0
CLASS
  1
ACRFOBJATTMGR
  2
AcRfObjAttGroupMgr
  3
AcAttribServices
 90
    32768
280
     0
281
     0
  0
CLASS
  1
ACRFMCADAPIATTHOLDER
  2
AcRfMCADAPIAttHolder
  3
AcAttribServices
 90
    32768
280
     0
281
     0
  0
CLASS
  1
AMDTSYSATTR
  2
AmdtSystemAttribute
  3
AcAttribServices
 90
    32768
280
     0
281
     0
  0
CLASS
  1
ACMTAPERSTANDARDISO
  2
AcmTaperStdISO
  3
"Amdt_StdImp|Product Description: AutoCAD Mechanical|Company: Autodesk"
 90
        0
280
     0
281
     0
  0
CLASS
  1
CAMSSTRUCTBTNSTATE
  2
StructBtnState
  3
L"DesignerAssemblies"
 90
    32768
280
     0
281
     0
  0
CLASS
  1
AMDTDETAILSYM
  2
AmdtDetailSym
  3
"AcmSymBB|Product Description: AutoCAD Mechanical|Company: Autodesk"
 90
    35839
280
     0
281
     1
  0
CLASS
  1
AMDTDETAILSYMLABEL
  2
AmdtDetailSymLabel
  3
"AcmSymBB|Product Description: AutoCAD Mechanical|Company: Autodesk"
 90
    35839
280
     0
281
     1
  0
CLASS
  1
AMDTEDGESTANDARDISO13715
  2
AmdtEdgeStdISO13715
  3
"Amdt_StdImp|Product Description: AutoCAD Mechanical|Company: Autodesk"
 90
        0
280
     0
281
     0
  0
CLASS
  1
AMDTNOTETEMPLATEDB
  2
AmdtNoteTemplateDB
  3
AMDT_STDIMP_MODULE_NAME
 90
        0
280
     0
281
     0
  0
CLASS
  1
ACAMGHOLECHARTSTDISO
  2
AcAmgHoleChartStdISO
  3
ACMSYMBB_MODULE_NAME
 90
        0
280
     0
281
     0
  0
ENDSEC
  0
SECTION
  2
TABLES
  0
TABLE
  2
VPORT
  5
8
330
0
100
AcDbSymbolTable
 70
     1
  0
VPORT
  5
EAB3
330
8
100
AcDbSymbolTableRecord
100
AcDbViewportTableRecord
  2
*Active
 70
     0
 10
0.0
 20
0.0
 11
1.0
 21
1.0
 12
5892.956556525958
 22
6564.069517532502
 13
0.0
 23
0.0
 14
2.5
 24
2.5
 15
10.0
 25
10.0
 16
0.0
 26
0.0
 36
1.0
 17
0.0
 27
0.0
 37
0.0
 40
299.426827986219
 41
1.804878048780487
 42
50.0
 43
-1370.695619172058
 44
-1370.695619172058
 50
0.0
 51
0.0
 71
     0
 72
   100
 73
     1
 74
     3
 75
     0
 76
     0
 77
     0
 78
     0
281
     0
 65
     0
110
0.0
120
0.0
130
0.0
111
1.0
121
0.0
131
0.0
112
0.0
122
1.0
132
0.0
 79
     0
146
0.0
  0
ENDTAB
  0
TABLE
  2
LTYPE
  5
5
330
0
100
AcDbSymbolTable
 70
    27
  0
LTYPE
  5
14
330
5
100
AcDbSymbolTableRecord
100
AcDbLinetypeTableRecord
  2
ByBlock
 70
     0
  3

 72
    65
 73
     0
 40
0.0
  0
LTYPE
  5
15
330
5
100
AcDbSymbolTableRecord
100
AcDbLinetypeTableRecord
  2
ByLayer
 70
     0
  3

 72
    65
 73
     0
 40
0.0
  0
LTYPE
  5
16
330
5
100
AcDbSymbolTableRecord
100
AcDbLinetypeTableRecord
  2
Continuous
 70
     0
  3
Solid line
 72
    65
 73
     0
 40
0.0
  0
LTYPE
  5
4F
330
5
100
AcDbSymbolTableRecord
100
AcDbLinetypeTableRecord
  2
AM_ISO02W050
 70
     0
  3
__ __ __ __ __ __ __ __ __ __ __ __ __ __ __
 72
    65
 73
     2
 40
7.5
 49
6.0
 74
     0
 49
-1.5
 74
     0
  0
LTYPE
  5
52
330
5
100
AcDbSymbolTableRecord
100
AcDbLinetypeTableRecord
  2
Amconstr
 70
     0
  3
_______________________
 72
    65
 73
     2
 40
9999.0
 49
9999.0
 74
     0
 49
0.0
 74
     0
  0
LTYPE
  5
64
330
5
100
AcDbSymbolTableRecord
100
AcDbLinetypeTableRecord
  2
ACISOWELD
 70
     0
  3
_ _ _ _ _
 72
    65
 73
     2
 40
2.0
 49
2.0
 74
     0
 49
-1.0
 74
     0
  0
LTYPE
  5
65
330
5
100
AcDbSymbolTableRecord
100
AcDbLinetypeTableRecord
  2
ACISOTGB
 70
     0
  3
__ . . __ . .
 72
    65
 73
     6
 40
9.0
 49
4.0
 74
     0
 49
-1.0
 74
     0
 49
1.0
 74
     0
 49
-1.0
 74
     0
 49
1.0
 74
     0
 49
-1.0
 74
     0
  0
LTYPE
  5
66
330
5
100
AcDbSymbolTableRecord
100
AcDbLinetypeTableRecord
  2
ACISOTGL
 70
     0
  3
_ _ _ _ _
 72
    65
 73
     2
 40
3.0
 49
2.0
 74
     0
 49
-1.0
 74
     0
  0
LTYPE
  5
69
330
5
100
AcDbSymbolTableRecord
100
AcDbLinetypeTableRecord
  2
CENTER
 70
     0
  3
__ . __
 72
    65
 73
     4
 40
7.0
 49
4.0
 74
     0
 49
-1.0
 74
     0
 49
1.0
 74
     0
 49
-1.0
 74
     0
  0
LTYPE
  5
A6E
330
5
100
AcDbSymbolTableRecord
100
AcDbLinetypeTableRecord
  2
PHANTOM2
 70
     0
  3
Phantom (.5x) ___ _ _ ___ _ _ ___ _ _ ___ _ _
 72
    65
 73
     6
 40
31.75
 49
15.875
 74
     0
 49
-3.174999999999998
 74
     0
 49
3.174999999999998
 74
     0
 49
-3.174999999999998
 74
     0
 49
3.174999999999998
 74
     0
 49
-3.174999999999998
 74
     0
  0
LTYPE
  5
4DED
330
5
100
AcDbSymbolTableRecord
100
AcDbLinetypeTableRecord
  2
中線
 70
     0
  3
___________________
 72
    65
 73
     2
 40
2.0
 49
1.0
 74
     0
 49
1.0
 74
     0
  0
LTYPE
  5
4DF6
330
5
100
AcDbSymbolTableRecord
100
AcDbLinetypeTableRecord
  2
細線
 70
     0
  3
___________________
 72
    65
 73
     2
 40
2.0
 49
1.0
 74
     0
 49
1.0
 74
     0
  0
LTYPE
  5
4DF7
330
5
100
AcDbSymbolTableRecord
100
AcDbLinetypeTableRecord
  2
太線
 70
     0
  3
___________________
 72
    65
 73
     2
 40
2.0
 49
1.0
 74
     0
 49
1.0
 74
     0
  0
LTYPE
  5
4EA7
330
5
100
AcDbSymbolTableRecord
100
AcDbLinetypeTableRecord
  2
文字
 70
     0
  3
_________________
 72
    65
 73
     2
 40
2.0
 49
1.0
 74
     0
 49
1.0
 74
     0
  0
LTYPE
  5
4EA9
330
5
100
AcDbSymbolTableRecord
100
AcDbLinetypeTableRecord
  2
寸法線
 70
     0
  3
________________
 72
    65
 73
     2
 40
2.0
 49
1.0
 74
     0
 49
1.0
 74
     0
  0
LTYPE
  5
4F12
330
5
100
AcDbSymbolTableRecord
100
AcDbLinetypeTableRecord
  2
ハッチング
 70
     0
  3
_________________
 72
    65
 73
     2
 40
2.0
 49
1.0
 74
     0
 49
1.0
 74
     0
  0
LTYPE
  5
5180
330
5
100
AcDbSymbolTableRecord
100
AcDbLinetypeTableRecord
  2
陰線1
 70
     0
  3
__ __ __ __
 72
    65
 73
     2
 40
4.0
 49
2.2
 74
     0
 49
-1.8
 74
     0
  0
LTYPE
  5
5182
330
5
100
AcDbSymbolTableRecord
100
AcDbLinetypeTableRecord
  2
切断線
 70
     0
  3
/\/-/\/-/\/-/\/-/\/-/\/
 72
    65
 73
     2
 40
11.0001
 49
0.0001
 74
     4
 75
   135
340
56
 46
0.04
 50
0.0
 44
0.0
 45
0.0
 49
-11.0
 74
     0
  0
LTYPE
  5
5183
330
5
100
AcDbSymbolTableRecord
100
AcDbLinetypeTableRecord
  2
想像線1
 70
     0
  3
__ __ __ _____ __ __ ____
 72
    65
 73
     6
 40
14.5
 49
6.0
 74
     0
 49
-1.5
 74
     0
 49
2.0
 74
     0
 49
-1.5
 74
     0
 49
2.0
 74
     0
 49
-1.5
 74
     0
  0
LTYPE
  5
5185
330
5
100
AcDbSymbolTableRecord
100
AcDbLinetypeTableRecord
  2
中心線1
 70
     0
  3
___ _ ___ _ ___
 72
    65
 73
     4
 40
18.0
 49
12.0
 74
     0
 49
-2.0
 74
     0
 49
2.0
 74
     0
 49
-2.0
 74
     0
  0
LTYPE
  5
5188
330
5
100
AcDbSymbolTableRecord
100
AcDbLinetypeTableRecord
  2
補助線
 70
     0
  3
______________
 72
    65
 73
     2
 40
2.0
 49
1.0
 74
     0
 49
1.0
 74
     0
  0
LTYPE
  5
6427
330
5
100
AcDbSymbolTableRecord
100
AcDbLinetypeTableRecord
  2
HIDDEN
 70
     0
  3
Hidden __ __ __ __ __ __ __ __ __ __ __ __ __ _
 72
    65
 73
     2
 40
0.375
 49
0.25
 74
     0
 49
-0.125
 74
     0
  0
LTYPE
  5
AC81
330
5
100
AcDbSymbolTableRecord
100
AcDbLinetypeTableRecord
  2
破断線
 70
     0
  3
/\/-/\/-/\/-/\/-/\/-/\/
 72
    65
 73
     2
 40
0.4401
 49
0.0001
 74
     4
 75
   136
340
AC80
 46
0.0016
 50
0.0
 44
0.0
 45
0.0
 49
-0.4400000000000002
 74
     0
  0
LTYPE
  5
AC9E
330
5
100
AcDbSymbolTableRecord
100
AcDbLinetypeTableRecord
  2
Amzigzag
 70
     0
  3
/\/-/\/-/\/-/\/-/\/-/\/
 72
    65
 73
     2
 40
11.0001
 49
0.0001
 74
     4
 75
   135
340
56
 46
0.04
 50
0.0
 44
0.0
 45
0.0
 49
-11.0
 74
     0
  0
LTYPE
  5
AF0F
330
5
100
AcDbSymbolTableRecord
100
AcDbLinetypeTableRecord
  2
genzigzag
 70
     0
  3
/\/-/\/-/\/-/\/-/\/-/\/
 72
    65
 73
     2
 40
12.0001
 49
0.0001
 74
     4
 75
   135
340
AC80
 46
2.0
 50
0.0
 44
0.0
 45
0.0
 49
-12.0
 74
     0
  0
LTYPE
  5
AF95
330
5
100
AcDbSymbolTableRecord
100
AcDbLinetypeTableRecord
  2
AM_ISO08W050
 70
     0
  3
____ . ____ . ____ . ____ . ____ . ____ . ____
 72
    65
 73
     4
 40
18.0
 49
12.0
 74
     0
 49
-1.5
 74
     0
 49
3.0
 74
     0
 49
-1.5
 74
     0
  0
LTYPE
  5
AF96
330
5
100
AcDbSymbolTableRecord
100
AcDbLinetypeTableRecord
  2
AM_ISO09W050
 70
     0
  3
_____ . . _____ . . _____ . . ____ .. ____
 72
    65
 73
     6
 40
22.5
 49
12.0
 74
     0
 49
-1.5
 74
     0
 49
3.0
 74
     0
 49
-1.5
 74
     0
 49
3.0
 74
     0
 49
-1.5
 74
     0
  0
LTYPE
  5
AF97
330
5
100
AcDbSymbolTableRecord
100
AcDbLinetypeTableRecord
  2
AM_ISO08W050x2
 70
     0
  3
__ . __ . __ . __ . __ . __
 72
    65
 73
     4
 40
9.0
 49
6.0
 74
     0
 49
-0.75
 74
     0
 49
1.5
 74
     0
 49
-0.75
 74
     0
  0
LTYPE
  5
AF98
330
5
100
AcDbSymbolTableRecord
100
AcDbLinetypeTableRecord
  2
AM_ISO02W050x2
 70
     0
  3
 _ _ _ _ _ _ _ _ _ _ _ _
 72
    65
 73
     2
 40
3.75
 49
3.0
 74
     0
 49
-0.75
 74
     0
  0
ENDTAB
  0
TABLE
  2
LAYER
  5
2
102
{ACAD_XDICTIONARY
360
3F95
102
}
330
0
100
AcDbSymbolTable
 70
    54
  0
LAYER
  5
10
330
2
100
AcDbSymbolTableRecord
100
AcDbLayerTableRecord
  2
0
 70
     0
 62
     7
  6
Continuous
370
    -3
390
F
  0
LAYER
  5
6D1
330
2
100
AcDbSymbolTableRecord
100
AcDbLayerTableRecord
  2
Defpoints
 70
     0
 62
     7
  6
Continuous
290
     0
370
    -3
390
F
  0
LAYER
  5
5F85
330
2
100
AcDbSymbolTableRecord
100
AcDbLayerTableRecord
  2
AM_0
 70
     0
 62
     7
  6
中線
370
    30
390
F
1001
AcAecLayerStandard
1000

1000

  0
LAYER
  5
AC9F
330
2
100
AcDbSymbolTableRecord
100
AcDbLayerTableRecord
  2
size
 70
     0
 62
     5
  6
Continuous
290
     0
370
    25
390
F
  0
LAYER
  5
ACA0
330
2
100
AcDbSymbolTableRecord
100
AcDbLayerTableRecord
  2
waku
 70
     0
 62
     7
  6
Continuous
370
    35
390
F
  0
LAYER
  5
ACA1
330
2
100
AcDbSymbolTableRecord
100
AcDbLayerTableRecord
  2
AM_6
 70
     0
 62
     2
  6
文字
370
    15
390
F
1001
AcAecLayerStandard
1000

1000

  0
LAYER
  5
ACC8
330
2
100
AcDbSymbolTableRecord
100
AcDbLayerTableRecord
  2
hyomoji
 70
     0
 62
     2
  6
Continuous
370
    15
390
F
  0
LAYER
  5
ACC9
330
2
100
AcDbSymbolTableRecord
100
AcDbLayerTableRecord
  2
hyosen1
 70
     0
 62
     1
  6
Continuous
370
    25
390
F
  0
LAYER
  5
ACCA
330
2
100
AcDbSymbolTableRecord
100
AcDbLayerTableRecord
  2
hyosen2
 70
     0
 62
     1
  6
Continuous
370
    15
390
F
  0
LAYER
  5
AD60
330
2
100
AcDbSymbolTableRecord
100
AcDbLayerTableRecord
  2
AM_1
 70
     0
 62
    30
  6
太線
370
    25
390
F
1001
AcAecLayerStandard
1000

1000

  0
LAYER
  5
AD64
330
2
100
AcDbSymbolTableRecord
100
AcDbLayerTableRecord
  2
AM_2
 70
     0
 62
     1
  6
細線
370
    15
390
F
1001
AcAecLayerStandard
1000

1000

  0
LAYER
  5
AD67
330
2
100
AcDbSymbolTableRecord
100
AcDbLayerTableRecord
  2
AM_3
 70
     0
 62
     6
  6
陰線1
370
    15
390
F
1001
AcAecLayerStandard
1000

1000

  0
LAYER
  5
AD68
330
2
100
AcDbSymbolTableRecord
100
AcDbLayerTableRecord
  2
AM_5
 70
     0
 62
     3
  6
寸法線
370
    15
390
F
1001
AcAecLayerStandard
1000

1000

  0
LAYER
  5
AD69
330
2
100
AcDbSymbolTableRecord
100
AcDbLayerTableRecord
  2
AM_7
 70
     0
 62
     4
  6
中心線1
370
    15
390
F
1001
AcAecLayerStandard
1000

1000

  0
LAYER
  5
AD6A
330
2
100
AcDbSymbolTableRecord
100
AcDbLayerTableRecord
  2
AM_8
 70
     0
 62
     1
  6
ハッチング
370
    15
390
F
1001
AcAecLayerStandard
1000

1000

  0
LAYER
  5
AD6E
330
2
100
AcDbSymbolTableRecord
100
AcDbLayerTableRecord
  2
AM_10
 70
     0
 62
     7
  6
genzigzag
370
    25
390
F
1001
AcAecLayerStandard
1000

1000

  0
LAYER
  5
AD6F
330
2
100
AcDbSymbolTableRecord
100
AcDbLayerTableRecord
  2
AM_11
 70
     0
 62
     2
  6
想像線1
370
    15
390
F
1001
AcAecLayerStandard
1000

1000

  0
LAYER
  5
C26E
330
2
100
AcDbSymbolTableRecord
100
AcDbLayerTableRecord
  2
AM_14
 70
     0
 62
     5
  6
細線
370
     9
390
F
1001
AcAecLayerStandard
1000

1000

  0
LAYER
  5
C39D
330
2
100
AcDbSymbolTableRecord
100
AcDbLayerTableRecord
  2
AM_CL
 70
     0
 62
     1
  6
Amconstr
370
    15
390
F
1001
AcAecLayerStandard
1000

1000

  0
LAYER
  5
C54B
330
2
100
AcDbSymbolTableRecord
100
AcDbLayerTableRecord
  2
フロントプレート-AM_0
 70
     0
 62
     7
  6
中線
370
    30
390
F
1001
AcAecLayerStandard
1000

1000

  0
LAYER
  5
C54D
330
2
100
AcDbSymbolTableRecord
100
AcDbLayerTableRecord
  2
フロントプレート-AM_7
 70
     0
 62
     4
  6
中心線1
370
    15
390
F
1001
AcAecLayerStandard
1000

1000

  0
LAYER
  5
C550
330
2
100
AcDbSymbolTableRecord
100
AcDbLayerTableRecord
  2
ケース-AM_0
 70
     0
 62
     7
  6
中線
370
    30
390
F
1001
AcAecLayerStandard
1000

1000

  0
LAYER
  5
C553
330
2
100
AcDbSymbolTableRecord
100
AcDbLayerTableRecord
  2
ケース-AM_5
 70
     0
 62
     3
  6
寸法線
370
    15
390
F
1001
AcAecLayerStandard
1000

1000

  0
LAYER
  5
C599
330
2
100
AcDbSymbolTableRecord
100
AcDbLayerTableRecord
  2
ケース-AM_11
 70
     0
 62
     2
  6
想像線1
370
    15
390
F
1001
AcAecLayerStandard
1000

1000

  0
LAYER
  5
C5A8
330
2
100
AcDbSymbolTableRecord
100
AcDbLayerTableRecord
  2
フロントプレート-AM_5
 70
     0
 62
     3
  6
寸法線
370
    15
390
F
1001
AcAecLayerStandard
1000

1000

  0
LAYER
  5
C799
330
2
100
AcDbSymbolTableRecord
100
AcDbLayerTableRecord
  2
ケース-AM_7
 70
     0
 62
     4
  6
中心線1
370
    15
390
F
1001
AcAecLayerStandard
1000

1000

  0
LAYER
  5
C7F6
330
2
100
AcDbSymbolTableRecord
100
AcDbLayerTableRecord
  2
ケース-AM_3
 70
     0
 62
     6
  6
陰線1
370
    15
390
F
1001
AcAecLayerStandard
1000

1000

  0
LAYER
  5
CC43
330
2
100
AcDbSymbolTableRecord
100
AcDbLayerTableRecord
  2
ケース-AM_4
 70
     0
 62
     3
  6
補助線
370
    15
390
F
1001
AcAecLayerStandard
1000

1000

  0
LAYER
  5
CC45
330
2
100
AcDbSymbolTableRecord
100
AcDbLayerTableRecord
  2
ケース-AM_8
 70
     0
 62
     1
  6
ハッチング
370
    15
390
F
1001
AcAecLayerStandard
1000

1000

  0
LAYER
  5
CC9B
330
2
100
AcDbSymbolTableRecord
100
AcDbLayerTableRecord
  2
フロントプレート-AM_4
 70
     0
 62
     3
  6
補助線
370
    15
390
F
1001
AcAecLayerStandard
1000

1000

  0
LAYER
  5
CC9D
330
2
100
AcDbSymbolTableRecord
100
AcDbLayerTableRecord
  2
フロントプレート-AM_8
 70
     0
 62
     1
  6
ハッチング
370
    15
390
F
1001
AcAecLayerStandard
1000

1000

  0
LAYER
  5
CF60
330
2
100
AcDbSymbolTableRecord
100
AcDbLayerTableRecord
  2
フロントプレート-AM_11
 70
     0
 62
     2
  6
想像線1
370
    15
390
F
1001
AcAecLayerStandard
1000

1000

  0
LAYER
  5
D473
330
2
100
AcDbSymbolTableRecord
100
AcDbLayerTableRecord
  2
ケーブル-AM_0
 70
     0
 62
     7
  6
中線
370
    30
390
F
1001
AcAecLayerStandard
1000

1000

  0
LAYER
  5
D482
330
2
100
AcDbSymbolTableRecord
100
AcDbLayerTableRecord
  2
ケーブル-AM_7
 70
     0
 62
     4
  6
中心線1
370
    15
390
F
1001
AcAecLayerStandard
1000

1000

  0
LAYER
  5
D494
330
2
100
AcDbSymbolTableRecord
100
AcDbLayerTableRecord
  2
ケーブル-AM_5
 70
     0
 62
     3
  6
寸法線
370
    15
390
F
1001
AcAecLayerStandard
1000

1000

  0
LAYER
  5
D5A3
330
2
100
AcDbSymbolTableRecord
100
AcDbLayerTableRecord
  2
ケーブル-AM_2
 70
     0
 62
     1
  6
細線
370
    15
390
F
1001
AcAecLayerStandard
1000

1000

  0
LAYER
  5
DFEB
330
2
100
AcDbSymbolTableRecord
100
AcDbLayerTableRecord
  2
シール-AM_0
 70
     0
 62
     7
  6
中線
370
    30
390
F
1001
AcAecLayerStandard
1000

1000

  0
LAYER
  5
E004
330
2
100
AcDbSymbolTableRecord
100
AcDbLayerTableRecord
  2
シール-AM_6
 70
     0
 62
     2
  6
文字
370
    15
390
F
1001
AcAecLayerStandard
1000

1000

  0
LAYER
  5
E00C
330
2
100
AcDbSymbolTableRecord
100
AcDbLayerTableRecord
  2
シール-AM_5
 70
     0
 62
     3
  6
寸法線
370
    15
390
F
1001
AcAecLayerStandard
1000

1000

  0
LAYER
  5
E052
330
2
100
AcDbSymbolTableRecord
100
AcDbLayerTableRecord
  2
シール-AM_4
 70
     0
 62
     3
  6
補助線
370
    15
390
F
1001
AcAecLayerStandard
1000

1000

  0
LAYER
  5
E054
330
2
100
AcDbSymbolTableRecord
100
AcDbLayerTableRecord
  2
シール-AM_8
 70
     0
 62
     1
  6
ハッチング
370
    15
390
F
1001
AcAecLayerStandard
1000

1000

  0
LAYER
  5
E477
330
2
100
AcDbSymbolTableRecord
100
AcDbLayerTableRecord
  2
台座-AM_7
 70
     0
 62
     4
  6
中心線1
370
    15
390
F
1001
AcAecLayerStandard
1000

1000

  0
LAYER
  5
E629
330
2
100
AcDbSymbolTableRecord
100
AcDbLayerTableRecord
  2
AM_12
 70
     0
 62
     7
  6
Continuous
290
     0
370
    15
390
F
1001
AcAecLayerStandard
1000

1000

  0
LAYER
  5
ECCD
330
2
100
AcDbSymbolTableRecord
100
AcDbLayerTableRecord
  2
タイラップ-AM_0
 70
     0
 62
     7
  6
中線
370
    30
390
F
1001
AcAecLayerStandard
1000

1000

  0
LAYER
  5
ECE8
330
2
100
AcDbSymbolTableRecord
100
AcDbLayerTableRecord
  2
ケーブル-AM_6
 70
     0
 62
     2
  6
文字
370
    15
390
F
1001
AcAecLayerStandard
1000

1000

  0
LAYER
  5
F0A4
330
2
100
AcDbSymbolTableRecord
100
AcDbLayerTableRecord
  2
ブッシュ-AM_0
 70
     0
 62
     7
  6
中線
370
    30
390
F
1001
AcAecLayerStandard
1000

1000

  0
LAYER
  5
F0A5
330
2
100
AcDbSymbolTableRecord
100
AcDbLayerTableRecord
  2
ブッシュ-AM_8
 70
     0
 62
     1
  6
ハッチング
370
    15
390
F
1001
AcAecLayerStandard
1000

1000

  0
LAYER
  5
F0EF
330
2
100
AcDbSymbolTableRecord
100
AcDbLayerTableRecord
  2
ブッシュ-AM_7
 70
     0
 62
     4
  6
中心線1
370
    15
390
F
1001
AcAecLayerStandard
1000

1000

  0
LAYER
  5
F12C
330
2
100
AcDbSymbolTableRecord
100
AcDbLayerTableRecord
  2
ケース-AM_2
 70
     0
 62
     1
  6
細線
370
    15
390
F
1001
AcAecLayerStandard
1000

1000

  0
LAYER
  5
10835
330
2
100
AcDbSymbolTableRecord
100
AcDbLayerTableRecord
  2
ケーブル-AM_11
 70
     0
 62
     2
  6
想像線1
370
    15
390
F
1001
AcAecLayerStandard
1000

1000

  0
LAYER
  5
112C5
330
2
100
AcDbSymbolTableRecord
100
AcDbLayerTableRecord
  2
102
 70
     0
 62
     1
  6
補助線
370
    13
390
F
1001
AcAecLayerStandard
1000

1000

  0
LAYER
  5
112C6
330
2
100
AcDbSymbolTableRecord
100
AcDbLayerTableRecord
  2
104
 70
     0
 62
     2
  6
文字
370
    13
390
F
1001
AcAecLayerStandard
1000

1000

  0
LAYER
  5
112C7
330
2
100
AcDbSymbolTableRecord
100
AcDbLayerTableRecord
  2
105
 70
     0
 62
     5
  6
太線
370
    50
390
F
1001
AcAecLayerStandard
1000

1000

  0
LAYER
  5
112C8
330
2
100
AcDbSymbolTableRecord
100
AcDbLayerTableRecord
  2
A15
 70
     0
 62
   171
  6
中線
370
    35
390
F
  0
ENDTAB
  0
TABLE
  2
STYLE
  5
3
330
0
100
AcDbSymbolTable
 70
     7
  0
STYLE
  5
11
330
3
100
AcDbSymbolTableRecord
100
AcDbTextStyleTableRecord
  2
STANDARD
 70
     0
 40
0.0
 41
0.7
 50
0.0
 71
     0
 42
3.2
  3
romans.shx
  4
extfont.shx
  0
STYLE
  5
56
330
3
100
AcDbSymbolTableRecord
100
AcDbTextStyleTableRecord
  2

 70
     1
 40
0.0
 41
1.0
 50
0.0
 71
     0
 42
2.5
  3
ltypeshp.shx
  4

  0
STYLE
  5
58
330
3
100
AcDbSymbolTableRecord
100
AcDbTextStyleTableRecord
  2
ACISOTS
 70
     0
 40
1.0
 41
1.0
 50
0.0
 71
     0
 42
2.5
  3
isocp.shx
  4
extfont.shx
  0
STYLE
  5
63
330
3
100
AcDbSymbolTableRecord
100
AcDbTextStyleTableRecord
  2
ACISOGDT
 70
     0
 40
0.0
 41
1.0
 50
0.0
 71
     0
 42
2.5
  3
amgdt.shx
  4

  0
STYLE
  5
A74
330
3
100
AcDbSymbolTableRecord
100
AcDbTextStyleTableRecord
  2
DIM
 70
     0
 40
0.0
 41
1.0
 50
0.0
 71
     0
 42
2.5
  3
monotxt.shx
  4
extfont.shx
  0
STYLE
  5
AC80
330
3
100
AcDbSymbolTableRecord
100
AcDbTextStyleTableRecord
  2

 70
     1
 40
0.0
 41
1.0
 50
0.0
 71
     0
 42
3.2
  3
genltshp.shx
  4

  0
ENDTAB
  0
TABLE
  2
VIEW
  5
6
330
0
100
AcDbSymbolTable
 70
     6
  0
VIEW
  5
AE1
330
6
100
AcDbSymbolTableRecord
100
AcDbViewTableRecord
  2
AM_VIEW1
 70
     0
 40
148.5
 10
5793.747967366308
 20
6625.312992781613
 41
221.582829504232
 11
0.0
 21
0.0
 31
1.0
 12
0.0
 22
0.0
 32
0.0
 42
50.0
 43
-1370.695619172058
 44
-1370.695619172058
 50
0.0
 71
     0
281
     0
 72
     0
  0
VIEW
  5
AE2
330
6
100
AcDbSymbolTableRecord
100
AcDbViewTableRecord
  2
AM_VIEW2
 70
     0
 40
148.5
 10
5992.165137862077
 20
6625.312992781613
 41
221.582829504232
 11
0.0
 21
0.0
 31
1.0
 12
0.0
 22
0.0
 32
0.0
 42
50.0
 43
-1370.695619172058
 44
-1370.695619172058
 50
0.0
 71
     0
281
     0
 72
     0
  0
VIEW
  5
AE3
330
6
100
AcDbSymbolTableRecord
100
AcDbViewTableRecord
  2
AM_VIEW3
 70
     0
 40
148.5
 10
5793.747967366308
 20
6476.812992781614
 41
221.582829504232
 11
0.0
 21
0.0
 31
1.0
 12
0.0
 22
0.0
 32
0.0
 42
50.0
 43
-1370.695619172058
 44
-1370.695619172058
 50
0.0
 71
     0
281
     0
 72
     0
  0
VIEW
  5
AE4
330
6
100
AcDbSymbolTableRecord
100
AcDbViewTableRecord
  2
AM_VIEW4
 70
     0
 40
148.5
 10
5992.165137862077
 20
6476.812992781614
 41
221.582829504232
 11
0.0
 21
0.0
 31
1.0
 12
0.0
 22
0.0
 32
0.0
 42
50.0
 43
-1370.695619172058
 44
-1370.695619172058
 50
0.0
 71
     0
281
     0
 72
     0
  0
VIEW
  5
AE5
330
6
100
AcDbSymbolTableRecord
100
AcDbViewTableRecord
  2
AM_VIEW5
 70
     0
 40
148.5
 10
5892.956552614194
 20
6551.062992781611
 41
221.582829504232
 11
0.0
 21
0.0
 31
1.0
 12
0.0
 22
0.0
 32
0.0
 42
50.0
 43
-1370.695619172058
 44
-1370.695619172058
 50
0.0
 71
     0
281
     0
 72
     0
  0
VIEW
  5
AE6
330
6
100
AcDbSymbolTableRecord
100
AcDbViewTableRecord
  2
AM_VIEW6
 70
     0
 40
296.9970300000004
 10
5892.956552614194
 20
6551.062992781611
 41
443.1612273518748
 11
0.0
 21
0.0
 31
1.0
 12
0.0
 22
0.0
 32
0.0
 42
50.0
 43
-1370.695619172058
 44
-1370.695619172058
 50
0.0
 71
     0
281
     0
 72
     0
  0
ENDTAB
  0
TABLE
  2
UCS
  5
7
330
0
100
AcDbSymbolTable
 70
     0
  0
ENDTAB
  0
TABLE
  2
APPID
  5
9
330
0
100
AcDbSymbolTable
 70
    64
  0
APPID
  5
12
330
9
100
AcDbSymbolTableRecord
100
AcDbRegAppTableRecord
  2
ACAD
 70
     0
  0
APPID
  5
30
330
9
100
AcDbSymbolTableRecord
100
AcDbRegAppTableRecord
  2
MCAD_NO_VIS
 70
     0
  0
APPID
  5
31
330
9
100
AcDbSymbolTableRecord
100
AcDbRegAppTableRecord
  2
ACAD_TEMP_GRAPHIC
 70
     0
  0
APPID
  5
44
330
9
100
AcDbSymbolTableRecord
100
AcDbRegAppTableRecord
  2
ACATTRIBSERVICES
 70
     0
  0
APPID
  5
7A1
330
9
100
AcDbSymbolTableRecord
100
AcDbRegAppTableRecord
  2
GENIUS_GENDIMSH_14
 70
     0
  0
APPID
  5
A49
330
9
100
AcDbSymbolTableRecord
100
AcDbRegAppTableRecord
  2
GENIUS_GENREC_14
 70
     0
  0
APPID
  5
A4A
330
9
100
AcDbSymbolTableRecord
100
AcDbRegAppTableRecord
  2
GENIUS_GENOBJ-N-REC_13
 70
     0
  0
APPID
  5
A4B
330
9
100
AcDbSymbolTableRecord
100
AcDbRegAppTableRecord
  2
GENIUS_GENODEF_13
 70
     0
  0
APPID
  5
A4C
330
9
100
AcDbSymbolTableRecord
100
AcDbRegAppTableRecord
  2
DCO15
 70
     0
  0
APPID
  5
ADC
330
9
100
AcDbSymbolTableRecord
100
AcDbRegAppTableRecord
  2
GENIUS_GENOLIS_13
 70
     0
  0
APPID
  5
ADD
330
9
100
AcDbSymbolTableRecord
100
AcDbRegAppTableRecord
  2
GENIUS_GENOENT_13
 70
     0
  0
APPID
  5
ADE
330
9
100
AcDbSymbolTableRecord
100
AcDbRegAppTableRecord
  2
GENIUS_GENOBJ-N-TIT_13
 70
     0
  0
APPID
  5
ADF
330
9
100
AcDbSymbolTableRecord
100
AcDbRegAppTableRecord
  2
GENIUS_GENTITLE_13
 70
     0
  0
APPID
  5
AE0
330
9
100
AcDbSymbolTableRecord
100
AcDbRegAppTableRecord
  2
GENIUS_GENOREF_13
 70
     0
  0
APPID
  5
AE7
330
9
100
AcDbSymbolTableRecord
100
AcDbRegAppTableRecord
  2
GENIUS_GENSCREG_15
 70
     0
  0
APPID
  5
AE8
330
9
100
AcDbSymbolTableRecord
100
AcDbRegAppTableRecord
  2
GENIUS_GENOBJ-N-SDF_13
 70
     0
  0
APPID
  5
FAF
330
9
100
AcDbSymbolTableRecord
100
AcDbRegAppTableRecord
  2
GENIUS_GENBLLY_14
 70
     0
  0
APPID
  5
FB0
330
9
100
AcDbSymbolTableRecord
100
AcDbRegAppTableRecord
  2
GENIUS_GENTRA_14
 70
     0
  0
APPID
  5
1285
330
9
100
AcDbSymbolTableRecord
100
AcDbRegAppTableRecord
  2
GENIUS_GENDTOL_13
 70
     0
  0
APPID
  5
142D
330
9
100
AcDbSymbolTableRecord
100
AcDbRegAppTableRecord
  2
GENIUS_GENOBJ-N-CEN_13
 70
     0
  0
APPID
  5
1AB5
330
9
100
AcDbSymbolTableRecord
100
AcDbRegAppTableRecord
  2
GENIUS_GENOBJ-N-CRS_13
 70
     0
  0
APPID
  5
1B36
330
9
100
AcDbSymbolTableRecord
100
AcDbRegAppTableRecord
  2
GENIUS_GENOBJ-N-HTC_13
 70
     0
  0
APPID
  5
1B37
330
9
100
AcDbSymbolTableRecord
100
AcDbRegAppTableRecord
  2
GENIUS_GENHATCH_13
 70
     0
  0
APPID
  5
216D
330
9
100
AcDbSymbolTableRecord
100
AcDbRegAppTableRecord
  2
GENIUS_GENOBJ-N-FIL_13
 70
     0
  0
APPID
  5
2356
330
9
100
AcDbSymbolTableRecord
100
AcDbRegAppTableRecord
  2
GEVID990412420
 70
     0
  0
APPID
  5
2357
330
9
100
AcDbSymbolTableRecord
100
AcDbRegAppTableRecord
  2
GEVDC
 70
     0
  0
APPID
  5
2358
330
9
100
AcDbSymbolTableRecord
100
AcDbRegAppTableRecord
  2
GEVCON
 70
     0
  0
APPID
  5
235B
330
9
100
AcDbSymbolTableRecord
100
AcDbRegAppTableRecord
  2
GEVRADREF
 70
     0
  0
APPID
  5
2360
330
9
100
AcDbSymbolTableRecord
100
AcDbRegAppTableRecord
  2
GENIUS_GENBH_13
 70
     0
  0
APPID
  5
2362
330
9
100
AcDbSymbolTableRecord
100
AcDbRegAppTableRecord
  2
GENIUS_GENOBJ-NBEHI-BHF_13
 70
     0
  0
APPID
  5
2364
330
9
100
AcDbSymbolTableRecord
100
AcDbRegAppTableRecord
  2
GENIUS_GENOBJ-NBEHI-BHB_13
 70
     0
  0
APPID
  5
2379
330
9
100
AcDbSymbolTableRecord
100
AcDbRegAppTableRecord
  2
GENIUS_GENOBJ-F-SCPASSM_13
 70
     0
  0
APPID
  5
3D74
330
9
100
AcDbSymbolTableRecord
100
AcDbRegAppTableRecord
  2
GENIUS_GENDIM_13
 70
     0
  0
APPID
  5
3D76
330
9
100
AcDbSymbolTableRecord
100
AcDbRegAppTableRecord
  2
GENIUS_GE3DTOL_13
 70
     0
  0
APPID
  5
3D9C
330
9
100
AcDbSymbolTableRecord
100
AcDbRegAppTableRecord
  2
AD_DRAW
 70
     0
  0
APPID
  5
3DE8
330
9
100
AcDbSymbolTableRecord
100
AcDbRegAppTableRecord
  2
ASURF_PCURVE_APPNAME
 70
     0
  0
APPID
  5
3DED
330
9
100
AcDbSymbolTableRecord
100
AcDbRegAppTableRecord
  2
AMG_3D2D_5.0
 70
     0
  0
APPID
  5
3E1B
330
9
100
AcDbSymbolTableRecord
100
AcDbRegAppTableRecord
  2
DESIGNERASSEMBLIES
 70
     0
  0
APPID
  5
3E20
330
9
100
AcDbSymbolTableRecord
100
AcDbRegAppTableRecord
  2
ACADM_DIM_EDIT
 70
     0
  0
APPID
  5
3E21
330
9
100
AcDbSymbolTableRecord
100
AcDbRegAppTableRecord
  2
AMDT_DM_ADJ
 70
     0
  0
APPID
  5
4143
330
9
100
AcDbSymbolTableRecord
100
AcDbRegAppTableRecord
  2
GENIUS_GENFIL_13
 70
     0
  0
APPID
  5
4144
330
9
100
AcDbSymbolTableRecord
100
AcDbRegAppTableRecord
  2
GENIUS_GENOBJ-N-CHA_13
 70
     0
  0
APPID
  5
4E17
330
9
100
AcDbSymbolTableRecord
100
AcDbRegAppTableRecord
  2
GEVID1008153417
 70
     0
  0
APPID
  5
4E58
330
9
100
AcDbSymbolTableRecord
100
AcDbRegAppTableRecord
  2
GEVID1008153418
 70
     0
  0
APPID
  5
4E5E
330
9
100
AcDbSymbolTableRecord
100
AcDbRegAppTableRecord
  2
GEVID1008153419
 70
     0
  0
APPID
  5
4E64
330
9
100
AcDbSymbolTableRecord
100
AcDbRegAppTableRecord
  2
GEVID1008153420
 70
     0
  0
APPID
  5
4E75
330
9
100
AcDbSymbolTableRecord
100
AcDbRegAppTableRecord
  2
GEVID1008153421
 70
     0
  0
APPID
  5
4EB7
330
9
100
AcDbSymbolTableRecord
100
AcDbRegAppTableRecord
  2
GENIUS_AMGTXT_16
 70
     0
  0
APPID
  5
7645
330
9
100
AcDbSymbolTableRecord
100
AcDbRegAppTableRecord
  2
GENIUS_GENOBJ-N-DIM_13
 70
     0
  0
APPID
  5
AAD0
330
9
100
AcDbSymbolTableRecord
100
AcDbRegAppTableRecord
  2
ACAD_DSTYLE_DIMARC_LENGTH_SYMBOL
 70
     0
  0
APPID
  5
AAD1
330
9
100
AcDbSymbolTableRecord
100
AcDbRegAppTableRecord
  2
ACAD_DSTYLE_DIMJOGGED_JOGANGLE_SYMBOL
 70
     0
  0
APPID
  5
AAFD
330
9
100
AcDbSymbolTableRecord
100
AcDbRegAppTableRecord
  2
ACAD_PSEXT
 70
     0
  0
APPID
  5
AD61
330
9
100
AcDbSymbolTableRecord
100
AcDbRegAppTableRecord
  2
AcAecLayerStandard
 70
     0
  0
APPID
  5
AEE3
330
9
100
AcDbSymbolTableRecord
100
AcDbRegAppTableRecord
  2
ACAD_EXEMPT_FROM_CAD_STANDARDS
 70
     0
  0
APPID
  5
B0F5
330
9
100
AcDbSymbolTableRecord
100
AcDbRegAppTableRecord
  2
ACAD_DSTYLE_DIMTEXT_FILL
 70
     0
  0
APPID
  5
B0F6
330
9
100
AcDbSymbolTableRecord
100
AcDbRegAppTableRecord
  2
ACAD_DSTYLE_DIMEXT_LENGTH
 70
     0
  0
APPID
  5
B0F7
330
9
100
AcDbSymbolTableRecord
100
AcDbRegAppTableRecord
  2
ACAD_DSTYLE_DIMEXT_ENABLED
 70
     0
  0
APPID
  5
B0F8
330
9
100
AcDbSymbolTableRecord
100
AcDbRegAppTableRecord
  2
ACAD_DSTYLE_DIM_LINETYPE
 70
     0
  0
APPID
  5
B0F9
330
9
100
AcDbSymbolTableRecord
100
AcDbRegAppTableRecord
  2
ACAD_DSTYLE_DIM_EXT1_LINETYPE
 70
     0
  0
APPID
  5
B0FA
330
9
100
AcDbSymbolTableRecord
100
AcDbRegAppTableRecord
  2
ACAD_DSTYLE_DIM_EXT2_LINETYPE
 70
     0
  0
APPID
  5
C2E3
330
9
100
AcDbSymbolTableRecord
100
AcDbRegAppTableRecord
  2
GENIUS_GENCEN_19
 70
     0
  0
APPID
  5
C5A3
330
9
100
AcDbSymbolTableRecord
100
AcDbRegAppTableRecord
  2
GENLAYCOLOR
 70
     0
  0
APPID
  5
104A9
330
9
100
AcDbSymbolTableRecord
100
AcDbRegAppTableRecord
  2
GENIUS_GENOBJ-N-ZOO_13
 70
     0
  0
APPID
  5
104AA
330
9
100
AcDbSymbolTableRecord
100
AcDbRegAppTableRecord
  2
GENIUS_GENZOO_17
 70
     0
  0
ENDTAB
  0
TABLE
  2
DIMSTYLE
  5
A
330
0
100
AcDbSymbolTable
 70
    23
100
AcDbDimStyleTable
 71
     3
340
2515
340
251A
340
251B
  0
DIMSTYLE
105
A76
330
A
100
AcDbSymbolTableRecord
100
AcDbDimStyleTableRecord
  2
STANDARD
 70
     0
 41
3.0
 42
1.0
 43
7.0
 44
2.0
 73
     0
 74
     0
 77
     1
140
2.799999999999998
141
0.0
143
0.0394
147
0.7
171
     4
172
     1
173
     1
176
     3
177
     3
178
     2
271
     3
272
     3
273
     8
274
     4
289
     0
340
A74
341
A66
343
A66
344
A66
  0
DIMSTYLE
105
2515
330
A
100
AcDbSymbolTableRecord
100
AcDbDimStyleTableRecord
  2
SYS
 70
     0
  4
"
 41
1.0
 42
1.0
 43
10.0
 44
1.0
 47
0.1
 48
0.1
 73
     0
 74
     0
 77
     1
 78
     8
 79
     2
140
3.5
141
0.0
143
0.0393701
146
0.71
147
1.5
172
     1
176
   256
177
   256
178
     7
271
     2
272
     2
283
     0
284
     8
340
11
371
    -1
372
    -1
1001
ACAD_DSTYLE_DIMJOGGED_JOGANGLE_SYMBOL
1070
   384
1040
0.7853981633974483
1001
ACAD_DSTYLE_DIMARC_LENGTH_SYMBOL
1070
   379
1070
     1
  0
DIMSTYLE
105
2516
102
{ACAD_REACTORS
330
E9D7
102
}
330
A
100
AcDbSymbolTableRecord
100
AcDbDimStyleTableRecord
  2
SYS$3
 70
     0
  4
"
 41
2.0
 42
1.0
 43
10.0
 44
1.0
 47
0.1
 48
0.1
 73
     0
 77
     1
 78
     8
 79
     2
140
3.200000000000001
141
0.0
143
0.0393701
146
0.71
147
1.5
176
   256
177
   256
178
     2
271
     2
272
     2
283
     0
284
     8
288
     1
340
11
342
A66
371
    -1
372
    -1
1001
ACAD_DSTYLE_DIMJOGGED_JOGANGLE_SYMBOL
1070
   384
1040
0.7853981633974483
1001
ACAD_DSTYLE_DIMARC_LENGTH_SYMBOL
1070
   379
1070
     1
1001
ACAD_DSTYLE_DIMEXT_LENGTH
1070
   378
1040
0.0
  0
DIMSTYLE
105
2517
330
A
100
AcDbSymbolTableRecord
100
AcDbDimStyleTableRecord
  2
SYS$4
 70
     0
  4
"
 41
2.0
 42
1.0
 43
10.0
 44
1.0
 47
0.1
 48
0.1
 73
     0
 77
     1
 78
     8
 79
     2
140
3.200000000000001
141
0.0
143
0.0393701
146
0.71
147
1.5
173
     1
176
   256
177
   256
178
     2
271
     2
272
     2
283
     0
284
     8
288
     1
340
11
344
A66
371
    -1
372
    -1
1001
ACAD_DSTYLE_DIMJOGGED_JOGANGLE_SYMBOL
1070
   384
1040
0.7853981633974483
1001
ACAD_DSTYLE_DIMARC_LENGTH_SYMBOL
1070
   379
1070
     1
1001
ACAD_DSTYLE_DIMEXT_LENGTH
1070
   378
1040
0.0
  0
DIMSTYLE
105
2518
330
A
100
AcDbSymbolTableRecord
100
AcDbDimStyleTableRecord
  2
SYS$6
 70
     0
  4
"
 41
2.0
 42
1.0
 43
10.0
 44
1.0
 47
0.1
 48
0.1
 73
     0
 74
     0
 78
     8
 79
     2
140
3.200000000000001
141
0.0
143
0.0393701
146
0.71
147
1.5
172
     1
176
   256
177
   256
178
     2
271
     2
272
     2
283
     0
284
     8
340
11
341
A66
371
    -1
372
    -1
1001
ACAD_DSTYLE_DIMJOGGED_JOGANGLE_SYMBOL
1070
   384
1040
0.7853981633974483
1001
ACAD_DSTYLE_DIMARC_LENGTH_SYMBOL
1070
   379
1070
     1
1001
ACAD_DSTYLE_DIMEXT_LENGTH
1070
   378
1040
0.0
  0
DIMSTYLE
105
2519
330
A
100
AcDbSymbolTableRecord
100
AcDbDimStyleTableRecord
  2
SYS$7
 70
     0
  4
"
 41
2.0
 42
1.0
 43
10.0
 44
1.0
 47
0.1
 48
0.1
 73
     0
 74
     0
 77
     1
 78
     8
 79
     2
140
3.200000000000006
141
0.0
143
0.0393701
146
0.71
147
1.5
172
     1
176
   256
177
   256
178
     2
271
     2
272
     2
283
     0
284
     8
340
11
341
A66
342
A66
371
    -1
372
    -1
1001
ACAD_DSTYLE_DIMJOGGED_JOGANGLE_SYMBOL
1070
   384
1040
0.7853981633974483
1001
ACAD_DSTYLE_DIMARC_LENGTH_SYMBOL
1070
   379
1070
     1
1001
ACAD_DSTYLE_DIMEXT_LENGTH
1070
   378
1040
0.0
  0
DIMSTYLE
105
251A
330
A
100
AcDbSymbolTableRecord
100
AcDbDimStyleTableRecord
  2
SYS$SF
 70
     0
  4
"
 41
2.5
 42
1.0
 43
10.0
 44
1.0
 47
0.1
 48
0.1
 73
     0
 74
     0
 75
     1
 76
     1
 77
     1
 78
     8
 79
     2
140
3.200000000000001
141
0.0
143
0.0393701
146
0.71
147
1.5
172
     1
176
   256
177
   256
178
     2
271
     2
272
     2
283
     0
284
     8
340
11
341
6C4
342
6C4
371
    -1
372
    -1
1001
ACAD_DSTYLE_DIMJOGGED_JOGANGLE_SYMBOL
1070
   384
1040
0.7853981633974483
1001
ACAD_DSTYLE_DIMARC_LENGTH_SYMBOL
1070
   379
1070
     1
1001
ACAD_DSTYLE_DIMEXT_LENGTH
1070
   378
1040
0.0
  0
DIMSTYLE
105
251B
330
A
100
AcDbSymbolTableRecord
100
AcDbDimStyleTableRecord
  2
SYS$SH
 70
     0
  4
"
 41
2.5
 42
1.0
 43
10.0
 44
1.0
 47
0.1
 48
0.1
 73
     0
 74
     0
 75
     1
 76
     1
 77
     1
 78
     8
 79
     2
140
3.200000000000001
141
0.0
143
0.0393701
144
2.0
146
0.71
147
1.5
172
     1
173
     1
176
   256
177
   256
178
     2
271
     2
272
     2
283
     0
284
     8
340
11
341
6C4
343
72
344
6C4
371
    -1
372
    -1
1001
ACAD_DSTYLE_DIMJOGGED_JOGANGLE_SYMBOL
1070
   384
1040
0.7853981633974483
1001
ACAD_DSTYLE_DIMARC_LENGTH_SYMBOL
1070
   379
1070
     1
1001
ACAD_DSTYLE_DIMEXT_LENGTH
1070
   378
1040
0.0
  0
DIMSTYLE
105
2A59
330
A
100
AcDbSymbolTableRecord
100
AcDbDimStyleTableRecord
  2
SYS$2
 70
     0
  4
"
 41
1.0
 42
1.0
 43
10.0
 44
1.0
 47
0.1
 48
0.1
 73
     0
 74
     0
 77
     1
 78
     8
 79
     2
140
3.200000000000001
141
0.0
143
0.0393701
146
0.71
147
1.5
172
     1
176
   256
177
   256
178
     2
271
     2
272
     2
283
     0
284
     8
340
11
342
6C4
371
    -1
372
    -1
1001
ACAD_DSTYLE_DIMJOGGED_JOGANGLE_SYMBOL
1070
   384
1040
0.7853981633974483
1001
ACAD_DSTYLE_DIMARC_LENGTH_SYMBOL
1070
   379
1070
     1
1001
ACAD_DSTYLE_DIMEXT_LENGTH
1070
   378
1040
0.0
  0
DIMSTYLE
105
2AAB
102
{ACAD_REACTORS
330
DF32
330
E09F
330
E0EF
330
E119
330
E13F
330
E1A3
330
E206
330
E22D
330
E253
330
E0C9
330
E2D1
330
E385
330
F6A5
330
FDCA
102
}
330
A
100
AcDbSymbolTableRecord
100
AcDbDimStyleTableRecord
  2
SYS$0
 70
     0
  4
"
 41
1.0
 42
1.0
 43
10.0
 44
1.0
 47
0.1
 48
0.1
 73
     0
 74
     0
 77
     1
 78
     8
 79
     2
140
3.200000000000001
141
0.0
143
0.0393701
146
0.71
147
1.5
172
     1
176
   256
177
   256
178
     2
271
     2
272
     2
283
     0
284
     8
340
11
341
A66
342
6C4
371
    -1
372
    -1
1001
ACAD_DSTYLE_DIMJOGGED_JOGANGLE_SYMBOL
1070
   384
1040
0.7853981633974483
1001
ACAD_DSTYLE_DIMARC_LENGTH_SYMBOL
1070
   379
1070
     1
1001
ACAD_DSTYLE_DIMEXT_LENGTH
1070
   378
1040
0.0
  0
DIMSTYLE
105
AF99
330
A
100
AcDbSymbolTableRecord
100
AcDbDimStyleTableRecord
  2
AM_ISO
 70
     0
  4
"
 41
2.5
 42
1.0
 43
10.0
 44
1.0
 47
0.1
 48
0.1
 73
     0
 74
     0
 77
     1
 78
     8
 79
     2
140
3.5
141
0.0
143
0.0393701
146
0.71
147
1.5
172
     1
176
   256
177
   256
178
     2
271
     2
272
     3
274
     4
283
     0
284
     8
340
11
371
    -1
372
    -1
  0
DIMSTYLE
105
AF9A
330
A
100
AcDbSymbolTableRecord
100
AcDbDimStyleTableRecord
  2
AM_ISO$3
 70
     0
  4
"
 41
2.5
 42
1.0
 43
10.0
 44
1.0
 47
0.1
 48
0.1
 73
     0
 77
     1
 78
     8
 79
     2
140
3.5
141
0.0
143
0.0393701
146
0.71
147
1.5
176
   256
177
   256
178
     2
271
     2
272
     3
274
     4
283
     0
284
     8
288
     1
289
     0
340
11
371
    -1
372
    -1
  0
DIMSTYLE
105
AF9B
330
A
100
AcDbSymbolTableRecord
100
AcDbDimStyleTableRecord
  2
AM_ISO$4
 70
     0
  4
"
 41
2.5
 42
1.0
 43
10.0
 44
1.0
 47
0.1
 48
0.1
 73
     0
 77
     1
 78
     8
 79
     2
140
3.5
141
0.0
143
0.0393701
146
0.71
147
1.5
176
   256
177
   256
178
     2
271
     2
272
     3
274
     4
283
     0
284
     8
288
     1
289
     0
340
11
371
    -1
372
    -1
  0
DIMSTYLE
105
AF9C
330
A
100
AcDbSymbolTableRecord
100
AcDbDimStyleTableRecord
  2
AM_ISO$6
 70
     0
  4
"
 41
2.5
 42
1.0
 43
10.0
 44
1.0
 47
0.1
 48
0.1
 73
     0
 74
     0
 78
     8
 79
     2
140
3.5
141
0.0
143
0.0393701
146
0.71
147
1.5
172
     1
176
   256
177
   256
178
     2
271
     2
272
     3
274
     4
283
     0
284
     8
340
11
371
    -1
372
    -1
  0
DIMSTYLE
105
AF9D
330
A
100
AcDbSymbolTableRecord
100
AcDbDimStyleTableRecord
  2
AM_ISO$7
 70
     0
  4
"
 41
2.5
 42
1.0
 43
10.0
 44
1.0
 47
0.1
 48
0.1
 73
     0
 74
     0
 77
     1
 78
     8
 79
     2
140
5.0
141
0.0
143
0.0393701
146
0.71
147
1.5
172
     1
176
   256
177
   256
178
     2
271
     2
272
     3
274
     4
283
     0
284
     8
340
11
371
    -1
372
    -1
  0
DIMSTYLE
105
AF9E
330
A
100
AcDbSymbolTableRecord
100
AcDbDimStyleTableRecord
  2
AM_ISO$SF
 70
     0
  4
"
 41
2.5
 42
1.0
 43
10.0
 44
1.0
 47
0.1
 48
0.1
 73
     0
 74
     0
 75
     1
 76
     1
 77
     1
 78
     8
 79
     2
140
3.5
141
0.0
143
0.0393701
146
0.71
147
1.5
172
     1
176
   256
177
   256
178
     2
271
     2
272
     3
274
     4
283
     0
284
     8
340
11
371
    -1
372
    -1
  0
DIMSTYLE
105
AF9F
330
A
100
AcDbSymbolTableRecord
100
AcDbDimStyleTableRecord
  2
AM_ISO$SH
 70
     0
  4
"
 41
2.5
 42
1.0
 43
10.0
 44
1.0
 47
0.1
 48
0.1
 73
     0
 74
     0
 75
     1
 76
     1
 77
     1
 78
     8
 79
     2
140
3.5
141
0.0
143
0.0393701
144
2.0
146
0.71
147
1.5
172
     1
173
     1
176
   256
177
   256
178
     2
271
     2
272
     3
274
     4
283
     0
284
     8
340
11
343
72
371
    -1
372
    -1
  0
DIMSTYLE
105
C6A1
330
A
100
AcDbSymbolTableRecord
100
AcDbDimStyleTableRecord
  2
AM_ANSI
 70
     0
  4
mm
 41
0.1
 42
0.05
 43
0.5
 44
0.1
 47
0.1
 48
0.1
 78
     7
 79
     2
140
0.12
141
0.0
146
0.71
147
0.06
176
   256
177
   256
178
     2
274
     4
284
     7
340
11
371
    -1
372
    -1
1001
ACAD_DSTYLE_DIMJOGGED_JOGANGLE_SYMBOL
1070
   384
1040
0.7853981633974483
1001
ACAD_DSTYLE_DIMARC_LENGTH_SYMBOL
1070
   379
1070
     1
  0
DIMSTYLE
105
DDE3
330
A
100
AcDbSymbolTableRecord
100
AcDbDimStyleTableRecord
  2
SYMBOL
 70
     0
  4
"
 41
2.5
 42
1.0
 43
10.0
 44
1.0
 47
0.1
 48
0.1
 73
     0
 74
     0
 77
     1
 78
     8
 79
     2
140
3.5
141
0.0
143
0.0393701
146
0.71
147
1.5
172
     1
176
   256
177
   256
178
     7
271
     2
272
     3
274
     4
283
     0
284
     8
340
11
371
    -1
372
    -1
  0
DIMSTYLE
105
DDE4
330
A
100
AcDbSymbolTableRecord
100
AcDbDimStyleTableRecord
  2
HA
 70
     0
  4
"
 41
1.0
 42
1.5
 43
10.0
 44
1.0
 47
0.1
 48
0.1
 73
     0
 74
     0
 77
     1
 78
     8
 79
     2
140
3.2
141
0.0
143
0.0393701
146
0.71
147
1.5
172
     1
173
     1
176
   256
177
   256
178
     2
271
     2
272
     1
283
     0
284
     8
340
11
341
A66
342
6C4
371
    -1
372
    -1
  0
DIMSTYLE
105
112C9
330
A
100
AcDbSymbolTableRecord
100
AcDbDimStyleTableRecord
  2
SYS 中
 70
     0
  4
"
 41
1.0
 42
1.0
 43
7.0
 44
1.0
 47
0.1
 48
0.1
 73
     0
 74
     0
 77
     1
 78
     8
 79
     2
140
3.0
141
0.0
143
0.0393701
146
0.71
147
0.4999999999999992
172
     1
176
   256
177
   256
178
     2
271
     2
272
     2
283
     0
284
     8
340
11
341
A66
342
6C4
371
    -1
372
    -1
  0
DIMSTYLE
105
112CA
330
A
100
AcDbSymbolTableRecord
100
AcDbDimStyleTableRecord
  2
SYS_STANDARD
 70
     0
  4
"
 41
1.0
 42
1.0
 43
7.0
 44
1.0
 47
0.1
 48
0.1
 73
     0
 74
     0
 77
     1
 78
     8
 79
     2
140
3.0
141
0.0
143
0.0393701
146
0.71
147
0.4999999999999992
172
     1
176
   256
177
   256
178
     2
271
     2
272
     2
283
     0
284
     8
340
11
341
A66
342
6C4
371
    -1
372
    -1
  0
ENDTAB
  0
TABLE
  2
BLOCK_RECORD
  5
1
330
0
100
AcDbSymbolTable
 70
    22
  0
BLOCK_RECORD
  5
1F
102
{ACAD_XDICTIONARY
360
8A
102
}
330
1
100
AcDbSymbolTableRecord
100
AcDbBlockTableRecord
  2
*Model_Space
340
22
  0
BLOCK_RECORD
  5
1B
330
1
100
AcDbSymbolTableRecord
100
AcDbBlockTableRecord
  2
*Paper_Space
340
1E
  0
BLOCK_RECORD
  5
23
330
1
100
AcDbSymbolTableRecord
100
AcDbBlockTableRecord
  2
*Paper_Space0
340
26
  0
BLOCK_RECORD
  5
72
330
1
100
AcDbSymbolTableRecord
100
AcDbBlockTableRecord
  2
GENAXEH
340
0
  0
BLOCK_RECORD
  5
6C4
330
1
100
AcDbSymbolTableRecord
100
AcDbBlockTableRecord
  2
_Dot
340
0
102
{BLKREFS
331
11226
331
11227
331
11231
331
11232
331
1123A
331
1123B
331
11245
331
11246
331
1124E
331
1124F
331
1125D
331
1125E
331
11265
331
11266
331
1126E
331
1126F
331
11277
331
11278
331
11280
331
11281
331
11289
331
1128A
331
11292
331
11293
102
}
  0
BLOCK_RECORD
  5
A66
330
1
100
AcDbSymbolTableRecord
100
AcDbBlockTableRecord
  2
_OPEN30
340
0
102
{BLKREFS
331
112AF
331
11300
331
11307
102
}
  0
BLOCK_RECORD
  5
DF33
330
1
100
AcDbSymbolTableRecord
100
AcDbBlockTableRecord
  2
*D4
340
0
  0
BLOCK_RECORD
  5
E0A0
330
1
100
AcDbSymbolTableRecord
100
AcDbBlockTableRecord
  2
*D5
340
0
  0
BLOCK_RECORD
  5
E0CA
330
1
100
AcDbSymbolTableRecord
100
AcDbBlockTableRecord
  2
*D6
340
0
  0
BLOCK_RECORD
  5
E0F0
330
1
100
AcDbSymbolTableRecord
100
AcDbBlockTableRecord
  2
*D7
340
0
  0
BLOCK_RECORD
  5
E11A
330
1
100
AcDbSymbolTableRecord
100
AcDbBlockTableRecord
  2
*D8
340
0
  0
BLOCK_RECORD
  5
E140
330
1
100
AcDbSymbolTableRecord
100
AcDbBlockTableRecord
  2
*D9
340
0
  0
BLOCK_RECORD
  5
E1A4
330
1
100
AcDbSymbolTableRecord
100
AcDbBlockTableRecord
  2
*D10
340
0
  0
BLOCK_RECORD
  5
E209
330
1
100
AcDbSymbolTableRecord
100
AcDbBlockTableRecord
  2
*D11
340
0
  0
BLOCK_RECORD
  5
E22E
330
1
100
AcDbSymbolTableRecord
100
AcDbBlockTableRecord
  2
*D12
340
0
  0
BLOCK_RECORD
  5
E254
330
1
100
AcDbSymbolTableRecord
100
AcDbBlockTableRecord
  2
*D13
340
0
  0
BLOCK_RECORD
  5
E2D2
330
1
100
AcDbSymbolTableRecord
100
AcDbBlockTableRecord
  2
*D14
340
0
  0
BLOCK_RECORD
  5
E386
330
1
100
AcDbSymbolTableRecord
100
AcDbBlockTableRecord
  2
*D15
340
0
  0
BLOCK_RECORD
  5
E40C
330
1
100
AcDbSymbolTableRecord
100
AcDbBlockTableRecord
  2
_None
340
0
  0
BLOCK_RECORD
  5
E9D8
330
1
100
AcDbSymbolTableRecord
100
AcDbBlockTableRecord
  2
*D17
340
0
  0
BLOCK_RECORD
  5
F6A6
330
1
100
AcDbSymbolTableRecord
100
AcDbBlockTableRecord
  2
*D18
340
0
  0
BLOCK_RECORD
  5
FDCB
330
1
100
AcDbSymbolTableRecord
100
AcDbBlockTableRecord
  2
*D19
340
0
  0
ENDTAB
  0
ENDSEC
  0
SECTION
  2
BLOCKS
  0
BLOCK
  5
20
330
1F
100
AcDbEntity
  8
0
100
AcDbBlockBegin
  2
*Model_Space
 70
     0
 10
0.0
 20
0.0
 30
0.0
  3
*Model_Space
  1

  0
ENDBLK
  5
21
330
1F
100
AcDbEntity
  8
0
100
AcDbBlockEnd
  0
BLOCK
  5
1C
330
1B
100
AcDbEntity
 67
     1
  8
0
100
AcDbBlockBegin
  2
*Paper_Space
 70
     0
 10
0.0
 20
0.0
 30
0.0
  3
*Paper_Space
  1

  0
ENDBLK
  5
1D
330
1B
100
AcDbEntity
 67
     1
  8
0
100
AcDbBlockEnd
  0
BLOCK
  5
24
330
23
100
AcDbEntity
 67
     1
  8
0
100
AcDbBlockBegin
  2
*Paper_Space0
 70
     0
 10
0.0
 20
0.0
 30
0.0
  3
*Paper_Space0
  1

  0
ENDBLK
  5
25
330
23
100
AcDbEntity
 67
     1
  8
0
100
AcDbBlockEnd
  0
BLOCK
  5
74
330
72
100
AcDbEntity
  8
0
100
AcDbBlockBegin
  2
GENAXEH
 70
     0
 10
0.0
 20
0.0
 30
0.0
  3
GENAXEH
  1

  0
LINE
  5
73
330
72
100
AcDbEntity
  8
0
100
AcDbLine
 10
-1.0
 20
0.0
 30
0.0
 11
1.0
 21
0.0
 31
0.0
  0
ENDBLK
  5
75
330
72
100
AcDbEntity
  8
0
100
AcDbBlockEnd
  0
BLOCK
  5
6C7
330
6C4
100
AcDbEntity
  8
0
100
AcDbBlockBegin
  2
_Dot
 70
     0
 10
0.0
 20
0.0
 30
0.0
  3
_Dot
  1

  0
LWPOLYLINE
  5
6C5
330
6C4
100
AcDbEntity
  8
0
  6
ByBlock
 62
     0
100
AcDbPolyline
 90
        2
 70
     1
 43
0.5
 10
-0.25
 20
0.0
 42
1.0
 10
0.25
 20
0.0
 42
1.0
  0
LINE
  5
6C6
330
6C4
100
AcDbEntity
  8
0
  6
ByBlock
 62
     0
370
    -2
100
AcDbLine
 10
-0.5
 20
0.0
 30
0.0
 11
-1.0
 21
0.0
 31
0.0
  0
ENDBLK
  5
6C8
330
6C4
100
AcDbEntity
  8
0
100
AcDbBlockEnd
  0
BLOCK
  5
A6A
330
A66
100
AcDbEntity
  8
0
100
AcDbBlockBegin
  2
_OPEN30
 70
     0
 10
0.0
 20
0.0
 30
0.0
  3
_OPEN30
  1

  0
LINE
  5
A67
330
A66
100
AcDbEntity
  8
0
  6
ByBlock
 62
     0
100
AcDbLine
 10
-1.0
 20
0.26794919
 30
0.0
 11
0.0
 21
0.0
 31
0.0
  0
LINE
  5
A68
330
A66
100
AcDbEntity
  8
0
  6
ByBlock
 62
     0
100
AcDbLine
 10
0.0
 20
0.0
 30
0.0
 11
-1.0
 21
-0.26794919
 31
0.0
  0
LINE
  5
A69
330
A66
100
AcDbEntity
  8
0
  6
ByBlock
 62
     0
100
AcDbLine
 10
0.0
 20
0.0
 30
0.0
 11
-1.0
 21
0.0
 31
0.0
  0
ENDBLK
  5
A6B
330
A66
100
AcDbEntity
  8
0
100
AcDbBlockEnd
  0
BLOCK
  5
DF3D
330
DF33
100
AcDbEntity
  8
0
100
AcDbBlockBegin
  2
*D4
 70
     1
 10
0.0
 20
0.0
 30
0.0
  3
*D4
  1

  0
LINE
  5
11223
330
DF33
100
AcDbEntity
  8
AM_5
100
AcDbLine
 10
5992.228476223544
 20
6627.698434521327
 30
0.0
 11
5992.228476223544
 21
6639.698434521327
 31
0.0
  0
LINE
  5
11224
330
DF33
100
AcDbEntity
  8
AM_5
100
AcDbLine
 10
6047.228476223544
 20
6627.698434521327
 30
0.0
 11
6047.228476223544
 21
6639.698434521327
 31
0.0
  0
LINE
  5
11225
330
DF33
100
AcDbEntity
  8
AM_5
100
AcDbLine
 10
5993.228476223544
 20
6638.698434521327
 30
0.0
 11
6046.228476223544
 21
6638.698434521327
 31
0.0
  0
INSERT
  5
11226
330
DF33
100
AcDbEntity
  8
AM_5
100
AcDbBlockReference
  2
_Dot
 10
5992.228476223544
 20
6638.698434521327
 30
0.0
 50
180.0
  0
INSERT
  5
11227
330
DF33
100
AcDbEntity
  8
AM_5
100
AcDbBlockReference
  2
_Dot
 10
6047.228476223544
 20
6638.698434521327
 30
0.0
  0
MTEXT
  5
11228
330
DF33
100
AcDbEntity
  8
AM_5
 62
     2
100
AcDbMText
 10
6019.728476223544
 20
6644.465101187993
 30
0.0
 40
3.200000000000001
 41
0.0
 71
     5
 72
     1
  1
使用可能範囲\P25～125
 73
     1
 44
1.0
1001
ACAD
1000
MTEXTBEGIN
1070
    73
1070
     1
1070
    44
1040
1.0
1070
    74
1070
     0
1000
MTEXTEND
  0
POINT
  5
11229
330
DF33
100
AcDbEntity
  8
Defpoints
 62
     0
100
AcDbPoint
 10
5992.228476223544
 20
6626.698434521327
 30
0.0
  0
POINT
  5
1122A
330
DF33
100
AcDbEntity
  8
Defpoints
 62
     0
100
AcDbPoint
 10
6047.228476223544
 20
6626.698434521327
 30
0.0
  0
POINT
  5
1122B
330
DF33
100
AcDbEntity
  8
Defpoints
 62
     0
100
AcDbPoint
 10
6047.228476223544
 20
6638.698434521327
 30
0.0
  0
ENDBLK
  5
DF3E
330
DF33
100
AcDbEntity
  8
0
100
AcDbBlockEnd
  0
BLOCK
  5
E0AC
330
E0A0
100
AcDbEntity
  8
0
100
AcDbBlockBegin
  2
*D5
 70
     1
 10
0.0
 20
0.0
 30
0.0
  3
*D5
  1

  0
LINE
  5
1122C
330
E0A0
100
AcDbEntity
  8
AM_5
100
AcDbLine
 10
5825.51704536619
 20
6462.898434521325
 30
0.0
 11
5825.51704536619
 21
6449.898434521326
 31
0.0
  0
LINE
  5
1122D
330
E0A0
100
AcDbEntity
  8
AM_5
100
AcDbLine
 10
5828.51704536619
 20
6461.898434521327
 30
0.0
 11
5828.51704536619
 21
6449.898434521326
 31
0.0
  0
LINE
  5
1122E
330
E0A0
100
AcDbEntity
  8
AM_5
100
AcDbLine
 10
5824.51704536619
 20
6450.898434521326
 30
0.0
 11
5823.517045366191
 21
6450.898434521326
 31
0.0
  0
LINE
  5
1122F
330
E0A0
100
AcDbEntity
  8
AM_5
100
AcDbLine
 10
5829.51704536619
 20
6450.898434521326
 30
0.0
 11
5835.010378699522
 21
6450.898434521326
 31
0.0
  0
LINE
  5
11230
330
E0A0
100
AcDbEntity
  8
AM_5
100
AcDbLine
 10
5825.51704536619
 20
6450.898434521326
 30
0.0
 11
5828.51704536619
 21
6450.898434521326
 31
0.0
  0
INSERT
  5
11231
330
E0A0
100
AcDbEntity
  8
AM_5
100
AcDbBlockReference
  2
_Dot
 10
5825.51704536619
 20
6450.898434521326
 30
0.0
  0
INSERT
  5
11232
330
E0A0
100
AcDbEntity
  8
AM_5
100
AcDbBlockReference
  2
_Dot
 10
5828.51704536619
 20
6450.898434521326
 30
0.0
 50
180.0
  0
MTEXT
  5
11233
330
E0A0
100
AcDbEntity
  8
AM_5
 62
     2
100
AcDbMText
 10
5832.763712032857
 20
6453.998434521324
 30
0.0
 40
3.200000000000001
 41
0.0
 71
     5
 72
     1
  1
3
 73
     1
 44
1.0
1001
ACAD
1000
MTEXTBEGIN
1070
    73
1070
     1
1070
    44
1040
1.0
1070
    74
1070
     0
1000
MTEXTEND
  0
POINT
  5
11234
330
E0A0
100
AcDbEntity
  8
Defpoints
 62
     0
100
AcDbPoint
 10
5825.51704536619
 20
6463.898434521325
 30
0.0
  0
POINT
  5
11235
330
E0A0
100
AcDbEntity
  8
Defpoints
 62
     0
100
AcDbPoint
 10
5828.51704536619
 20
6462.898434521325
 30
0.0
  0
POINT
  5
11236
330
E0A0
100
AcDbEntity
  8
Defpoints
 62
     0
100
AcDbPoint
 10
5828.51704536619
 20
6450.898434521326
 30
0.0
  0
ENDBLK
  5
E0AD
330
E0A0
100
AcDbEntity
  8
0
100
AcDbBlockEnd
  0
BLOCK
  5
E0D4
330
E0CA
100
AcDbEntity
  8
0
100
AcDbBlockBegin
  2
*D6
 70
     1
 10
0.0
 20
0.0
 30
0.0
  3
*D6
  1

  0
LINE
  5
11237
330
E0CA
100
AcDbEntity
  8
AM_5
100
AcDbLine
 10
5825.51704536619
 20
6462.898434521325
 30
0.0
 11
5825.51704536619
 21
6441.898434521326
 31
0.0
  0
LINE
  5
11238
330
E0CA
100
AcDbEntity
  8
AM_5
100
AcDbLine
 10
5845.51704536619
 20
6513.95047792697
 30
0.0
 11
5845.51704536619
 21
6441.898434521326
 31
0.0
  0
LINE
  5
11239
330
E0CA
100
AcDbEntity
  8
AM_5
100
AcDbLine
 10
5826.51704536619
 20
6442.898434521325
 30
0.0
 11
5844.51704536619
 21
6442.898434521325
 31
0.0
  0
INSERT
  5
1123A
330
E0CA
100
AcDbEntity
  8
AM_5
100
AcDbBlockReference
  2
_Dot
 10
5825.51704536619
 20
6442.898434521325
 30
0.0
 50
180.0
  0
INSERT
  5
1123B
330
E0CA
100
AcDbEntity
  8
AM_5
100
AcDbBlockReference
  2
_Dot
 10
5845.51704536619
 20
6442.898434521325
 30
0.0
  0
MTEXT
  5
1123C
330
E0CA
100
AcDbEntity
  8
AM_5
 62
     2
100
AcDbMText
 10
5835.517045366191
 20
6445.998434521325
 30
0.0
 40
3.200000000000001
 41
0.0
 71
     5
 72
     1
  1
20
 73
     1
 44
1.0
1001
ACAD
1000
MTEXTBEGIN
1070
    73
1070
     1
1070
    44
1040
1.0
1070
    74
1070
     0
1000
MTEXTEND
  0
POINT
  5
1123D
330
E0CA
100
AcDbEntity
  8
Defpoints
 62
     0
100
AcDbPoint
 10
5825.51704536619
 20
6463.898434521325
 30
0.0
  0
POINT
  5
1123E
330
E0CA
100
AcDbEntity
  8
Defpoints
 62
     0
100
AcDbPoint
 10
5845.51704536619
 20
6514.95047792697
 30
0.0
  0
POINT
  5
1123F
330
E0CA
100
AcDbEntity
  8
Defpoints
 62
     0
100
AcDbPoint
 10
5845.51704536619
 20
6442.898434521325
 30
0.0
  0
ENDBLK
  5
E0D5
330
E0CA
100
AcDbEntity
  8
0
100
AcDbBlockEnd
  0
BLOCK
  5
E0FC
330
E0F0
100
AcDbEntity
  8
0
100
AcDbBlockBegin
  2
*D7
 70
     1
 10
0.0
 20
0.0
 30
0.0
  3
*D7
  1

  0
LINE
  5
11240
330
E0F0
100
AcDbEntity
  8
AM_5
100
AcDbLine
 10
5823.517045366191
 20
6462.898434521325
 30
0.0
 11
5823.517045366191
 21
6449.898434521326
 31
0.0
  0
LINE
  5
11241
330
E0F0
100
AcDbEntity
  8
AM_5
100
AcDbLine
 10
5820.517045366191
 20
6461.898434521327
 30
0.0
 11
5820.517045366191
 21
6449.898434521326
 31
0.0
  0
LINE
  5
11242
330
E0F0
100
AcDbEntity
  8
AM_5
100
AcDbLine
 10
5824.51704536619
 20
6450.898434521326
 30
0.0
 11
5825.51704536619
 21
6450.898434521326
 31
0.0
  0
LINE
  5
11243
330
E0F0
100
AcDbEntity
  8
AM_5
100
AcDbLine
 10
5819.51704536619
 20
6450.898434521326
 30
0.0
 11
5814.023712032858
 21
6450.898434521326
 31
0.0
  0
LINE
  5
11244
330
E0F0
100
AcDbEntity
  8
AM_5
100
AcDbLine
 10
5823.517045366191
 20
6450.898434521326
 30
0.0
 11
5820.517045366191
 21
6450.898434521326
 31
0.0
  0
INSERT
  5
11245
330
E0F0
100
AcDbEntity
  8
AM_5
100
AcDbBlockReference
  2
_Dot
 10
5823.517045366191
 20
6450.898434521326
 30
0.0
 50
180.0
  0
INSERT
  5
11246
330
E0F0
100
AcDbEntity
  8
AM_5
100
AcDbBlockReference
  2
_Dot
 10
5820.517045366191
 20
6450.898434521326
 30
0.0
  0
MTEXT
  5
11247
330
E0F0
100
AcDbEntity
  8
AM_5
 62
     2
100
AcDbMText
 10
5816.270378699524
 20
6453.998434521324
 30
0.0
 40
3.200000000000001
 41
0.0
 71
     5
 72
     1
  1
3
 73
     1
 44
1.0
1001
ACAD
1000
MTEXTBEGIN
1070
    73
1070
     1
1070
    44
1040
1.0
1070
    74
1070
     0
1000
MTEXTEND
  0
POINT
  5
11248
330
E0F0
100
AcDbEntity
  8
Defpoints
 62
     0
100
AcDbPoint
 10
5823.517045366191
 20
6463.898434521325
 30
0.0
  0
POINT
  5
11249
330
E0F0
100
AcDbEntity
  8
Defpoints
 62
     0
100
AcDbPoint
 10
5820.517045366191
 20
6462.898434521325
 30
0.0
  0
POINT
  5
1124A
330
E0F0
100
AcDbEntity
  8
Defpoints
 62
     0
100
AcDbPoint
 10
5820.517045366191
 20
6450.898434521326
 30
0.0
  0
ENDBLK
  5
E0FD
330
E0F0
100
AcDbEntity
  8
0
100
AcDbBlockEnd
  0
BLOCK
  5
E124
330
E11A
100
AcDbEntity
  8
0
100
AcDbBlockBegin
  2
*D8
 70
     1
 10
0.0
 20
0.0
 30
0.0
  3
*D8
  1

  0
LINE
  5
1124B
330
E11A
100
AcDbEntity
  8
AM_5
100
AcDbLine
 10
5823.517045366191
 20
6462.898434521325
 30
0.0
 11
5823.517045366191
 21
6441.898434521326
 31
0.0
  0
LINE
  5
1124C
330
E11A
100
AcDbEntity
  8
AM_5
100
AcDbLine
 10
5781.517045366191
 20
6502.498434521324
 30
0.0
 11
5781.517045366191
 21
6441.898434521326
 31
0.0
  0
LINE
  5
1124D
330
E11A
100
AcDbEntity
  8
AM_5
100
AcDbLine
 10
5822.51704536619
 20
6442.898434521325
 30
0.0
 11
5782.517045366191
 21
6442.898434521325
 31
0.0
  0
INSERT
  5
1124E
330
E11A
100
AcDbEntity
  8
AM_5
100
AcDbBlockReference
  2
_Dot
 10
5823.517045366191
 20
6442.898434521325
 30
0.0
  0
INSERT
  5
1124F
330
E11A
100
AcDbEntity
  8
AM_5
100
AcDbBlockReference
  2
_Dot
 10
5781.517045366191
 20
6442.898434521325
 30
0.0
 50
180.0
  0
MTEXT
  5
11250
330
E11A
100
AcDbEntity
  8
AM_5
 62
     2
100
AcDbMText
 10
5802.51704536619
 20
6445.998434521325
 30
0.0
 40
3.200000000000001
 41
0.0
 71
     5
 72
     1
  1
42
 73
     1
 44
1.0
1001
ACAD
1000
MTEXTBEGIN
1070
    73
1070
     1
1070
    44
1040
1.0
1070
    74
1070
     0
1000
MTEXTEND
  0
POINT
  5
11251
330
E11A
100
AcDbEntity
  8
Defpoints
 62
     0
100
AcDbPoint
 10
5823.517045366191
 20
6463.898434521325
 30
0.0
  0
POINT
  5
11252
330
E11A
100
AcDbEntity
  8
Defpoints
 62
     0
100
AcDbPoint
 10
5781.517045366191
 20
6503.498434521326
 30
0.0
  0
POINT
  5
11253
330
E11A
100
AcDbEntity
  8
Defpoints
 62
     0
100
AcDbPoint
 10
5781.517045366191
 20
6442.898434521325
 30
0.0
  0
ENDBLK
  5
E125
330
E11A
100
AcDbEntity
  8
0
100
AcDbBlockEnd
  0
BLOCK
  5
E14C
330
E140
100
AcDbEntity
  8
0
100
AcDbBlockBegin
  2
*D9
 70
     1
 10
0.0
 20
0.0
 30
0.0
  3
*D9
  1

  0
LINE
  5
11254
330
E140
100
AcDbEntity
  8
AM_5
100
AcDbLine
 10
5823.517045366191
 20
6462.898434521325
 30
0.0
 11
5823.517045366191
 21
6441.898434521326
 31
0.0
  0
LINE
  5
11255
330
E140
100
AcDbEntity
  8
AM_5
100
AcDbLine
 10
5825.51704536619
 20
6462.898434521325
 30
0.0
 11
5825.51704536619
 21
6441.898434521326
 31
0.0
  0
LINE
  5
11256
330
E140
100
AcDbEntity
  8
AM_5
100
AcDbLine
 10
5822.51704536619
 20
6442.898434521325
 30
0.0
 11
5821.51704536619
 21
6442.898434521325
 31
0.0
  0
LINE
  5
11257
330
E140
100
AcDbEntity
  8
AM_5
100
AcDbLine
 10
5826.51704536619
 20
6442.898434521325
 30
0.0
 11
5827.517045366191
 21
6442.898434521325
 31
0.0
  0
LINE
  5
11258
330
E140
100
AcDbEntity
  8
AM_5
100
AcDbLine
 10
5824.51704536619
 20
6442.898434521325
 30
0.0
 11
5829.228594983266
 21
6432.567793330561
 31
0.0
  0
LINE
  5
11259
330
E140
100
AcDbEntity
  8
AM_5
100
AcDbLine
 10
5829.228594983266
 20
6432.567793330561
 30
0.0
 11
5843.940594983266
 21
6432.567793330561
 31
0.0
  0
MTEXT
  5
1125A
330
E140
100
AcDbEntity
  8
AM_5
 62
     2
100
AcDbMText
 10
5836.584594983265
 20
6435.667793330563
 30
0.0
 40
3.200000000000001
 41
0.0
 71
     5
 72
     1
  1
チリ2～6
 73
     1
 44
1.0
1001
ACAD
1000
MTEXTBEGIN
1070
    73
1070
     1
1070
    44
1040
1.0
1070
    74
1070
     0
1000
MTEXTEND
  0
LINE
  5
1125B
330
E140
100
AcDbEntity
  8
AM_5
100
AcDbLine
 10
5823.517045366191
 20
6442.898434521325
 30
0.0
 11
5825.51704536619
 21
6442.898434521325
 31
0.0
  0
LINE
  5
1125C
330
E140
100
AcDbEntity
  8
AM_5
100
AcDbLine
 10
5823.517045366191
 20
6442.898434521325
 30
0.0
 11
5825.51704536619
 21
6442.898434521325
 31
0.0
  0
INSERT
  5
1125D
330
E140
100
AcDbEntity
  8
AM_5
100
AcDbBlockReference
  2
_Dot
 10
5823.517045366191
 20
6442.898434521325
 30
0.0
  0
INSERT
  5
1125E
330
E140
100
AcDbEntity
  8
AM_5
100
AcDbBlockReference
  2
_Dot
 10
5825.51704536619
 20
6442.898434521325
 30
0.0
 50
180.0
  0
POINT
  5
1125F
330
E140
100
AcDbEntity
  8
Defpoints
 62
     0
100
AcDbPoint
 10
5823.517045366191
 20
6463.898434521325
 30
0.0
  0
POINT
  5
11260
330
E140
100
AcDbEntity
  8
Defpoints
 62
     0
100
AcDbPoint
 10
5825.51704536619
 20
6463.898434521325
 30
0.0
  0
POINT
  5
11261
330
E140
100
AcDbEntity
  8
Defpoints
 62
     0
100
AcDbPoint
 10
5825.51704536619
 20
6442.898434521325
 30
0.0
  0
ENDBLK
  5
E14D
330
E140
100
AcDbEntity
  8
0
100
AcDbBlockEnd
  0
BLOCK
  5
E1AE
330
E1A4
100
AcDbEntity
  8
0
100
AcDbBlockBegin
  2
*D10
 70
     1
 10
0.0
 20
0.0
 30
0.0
  3
*D10
  1

  0
LINE
  5
11262
330
E1A4
100
AcDbEntity
  8
AM_5
100
AcDbLine
 10
6004.628476223544
 20
6461.898434521327
 30
0.0
 11
6004.628476223544
 21
6444.898434521324
 31
0.0
  0
LINE
  5
11263
330
E1A4
100
AcDbEntity
  8
AM_5
100
AcDbLine
 10
5979.828476223545
 20
6461.898434521327
 30
0.0
 11
5979.828476223545
 21
6444.898434521324
 31
0.0
  0
LINE
  5
11264
330
E1A4
100
AcDbEntity
  8
AM_5
100
AcDbLine
 10
6003.628476223545
 20
6445.898434521325
 30
0.0
 11
5980.828476223543
 21
6445.898434521325
 31
0.0
  0
INSERT
  5
11265
330
E1A4
100
AcDbEntity
  8
AM_5
100
AcDbBlockReference
  2
_Dot
 10
6004.628476223544
 20
6445.898434521325
 30
0.0
  0
INSERT
  5
11266
330
E1A4
100
AcDbEntity
  8
AM_5
100
AcDbBlockReference
  2
_Dot
 10
5979.828476223545
 20
6445.898434521325
 30
0.0
 50
180.0
  0
MTEXT
  5
11267
330
E1A4
100
AcDbEntity
  8
AM_5
 62
     2
100
AcDbMText
 10
5992.228476223544
 20
6451.66510118799
 30
0.0
 40
3.200000000000001
 41
0.0
 71
     5
 72
     1
  1
24.8\P（切欠き25）
 73
     1
 44
1.0
1001
ACAD
1000
MTEXTBEGIN
1070
    73
1070
     1
1070
    44
1040
1.0
1070
    74
1070
     0
1000
MTEXTEND
  0
POINT
  5
11268
330
E1A4
100
AcDbEntity
  8
Defpoints
 62
     0
100
AcDbPoint
 10
6004.628476223544
 20
6462.898434521325
 30
0.0
  0
POINT
  5
11269
330
E1A4
100
AcDbEntity
  8
Defpoints
 62
     0
100
AcDbPoint
 10
5979.828476223545
 20
6462.898434521325
 30
0.0
  0
POINT
  5
1126A
330
E1A4
100
AcDbEntity
  8
Defpoints
 62
     0
100
AcDbPoint
 10
5979.828476223545
 20
6445.898434521325
 30
0.0
  0
ENDBLK
  5
E1AF
330
E1A4
100
AcDbEntity
  8
0
100
AcDbBlockEnd
  0
BLOCK
  5
E213
330
E209
100
AcDbEntity
  8
0
100
AcDbBlockBegin
  2
*D11
 70
     1
 10
0.0
 20
0.0
 30
0.0
  3
*D11
  1

  0
LINE
  5
1126B
330
E209
100
AcDbEntity
  8
AM_5
100
AcDbLine
 10
6059.628476223545
 20
6461.898434521327
 30
0.0
 11
6059.628476223545
 21
6444.898434521324
 31
0.0
  0
LINE
  5
1126C
330
E209
100
AcDbEntity
  8
AM_5
100
AcDbLine
 10
6034.828476223545
 20
6461.898434521327
 30
0.0
 11
6034.828476223545
 21
6444.898434521324
 31
0.0
  0
LINE
  5
1126D
330
E209
100
AcDbEntity
  8
AM_5
100
AcDbLine
 10
6058.628476223543
 20
6445.898434521325
 30
0.0
 11
6035.828476223543
 21
6445.898434521325
 31
0.0
  0
INSERT
  5
1126E
330
E209
100
AcDbEntity
  8
AM_5
100
AcDbBlockReference
  2
_Dot
 10
6059.628476223545
 20
6445.898434521325
 30
0.0
  0
INSERT
  5
1126F
330
E209
100
AcDbEntity
  8
AM_5
100
AcDbBlockReference
  2
_Dot
 10
6034.828476223545
 20
6445.898434521325
 30
0.0
 50
180.0
  0
MTEXT
  5
11270
330
E209
100
AcDbEntity
  8
AM_5
 62
     2
100
AcDbMText
 10
6047.228476223545
 20
6451.66510118799
 30
0.0
 40
3.200000000000001
 41
0.0
 71
     5
 72
     1
  1
24.8\P（切欠き25）
 73
     1
 44
1.0
1001
ACAD
1000
MTEXTBEGIN
1070
    73
1070
     1
1070
    44
1040
1.0
1070
    74
1070
     0
1000
MTEXTEND
  0
POINT
  5
11271
330
E209
100
AcDbEntity
  8
Defpoints
 62
     0
100
AcDbPoint
 10
6059.628476223545
 20
6462.898434521325
 30
0.0
  0
POINT
  5
11272
330
E209
100
AcDbEntity
  8
Defpoints
 62
     0
100
AcDbPoint
 10
6034.828476223545
 20
6462.898434521325
 30
0.0
  0
POINT
  5
11273
330
E209
100
AcDbEntity
  8
Defpoints
 62
     0
100
AcDbPoint
 10
6034.828476223545
 20
6445.898434521325
 30
0.0
  0
ENDBLK
  5
E214
330
E209
100
AcDbEntity
  8
0
100
AcDbBlockEnd
  0
BLOCK
  5
E238
330
E22E
100
AcDbEntity
  8
0
100
AcDbBlockBegin
  2
*D12
 70
     1
 10
0.0
 20
0.0
 30
0.0
  3
*D12
  1

  0
LINE
  5
11274
330
E22E
100
AcDbEntity
  8
AM_5
100
AcDbLine
 10
5983.128476223544
 20
6472.798434521326
 30
0.0
 11
5966.828476223543
 21
6472.798434521326
 31
0.0
  0
LINE
  5
11275
330
E22E
100
AcDbEntity
  8
AM_5
100
AcDbLine
 10
5983.128476223544
 20
6612.798434521327
 30
0.0
 11
5966.828476223543
 21
6612.798434521327
 31
0.0
  0
LINE
  5
11276
330
E22E
100
AcDbEntity
  8
AM_5
100
AcDbLine
 10
5967.828476223544
 20
6473.798434521325
 30
0.0
 11
5967.828476223544
 21
6611.798434521324
 31
0.0
  0
INSERT
  5
11277
330
E22E
100
AcDbEntity
  8
AM_5
100
AcDbBlockReference
  2
_Dot
 10
5967.828476223544
 20
6472.798434521326
 30
0.0
 50
270.0
  0
INSERT
  5
11278
330
E22E
100
AcDbEntity
  8
AM_5
100
AcDbBlockReference
  2
_Dot
 10
5967.828476223544
 20
6612.798434521327
 30
0.0
 50
90.0
  0
MTEXT
  5
11279
330
E22E
100
AcDbEntity
  8
AM_5
 62
     2
100
AcDbMText
 10
5964.728476223542
 20
6542.798434521327
 30
0.0
 40
3.200000000000001
 41
0.0
 71
     5
 72
     1
  1
140
 11
0.0000000000000001
 21
1.0
 31
0.0
 73
     1
 44
1.0
1001
ACAD
1000
MTEXTBEGIN
1070
    73
1070
     1
1070
    44
1040
1.0
1070
    74
1070
     0
1000
MTEXTEND
  0
POINT
  5
1127A
330
E22E
100
AcDbEntity
  8
Defpoints
 62
     0
100
AcDbPoint
 10
5984.128476223544
 20
6472.798434521326
 30
0.0
  0
POINT
  5
1127B
330
E22E
100
AcDbEntity
  8
Defpoints
 62
     0
100
AcDbPoint
 10
5984.128476223544
 20
6612.798434521327
 30
0.0
  0
POINT
  5
1127C
330
E22E
100
AcDbEntity
  8
Defpoints
 62
     0
100
AcDbPoint
 10
5967.828476223544
 20
6612.798434521327
 30
0.0
  0
ENDBLK
  5
E239
330
E22E
100
AcDbEntity
  8
0
100
AcDbBlockEnd
  0
BLOCK
  5
E25E
330
E254
100
AcDbEntity
  8
0
100
AcDbBlockBegin
  2
*D13
 70
     1
 10
0.0
 20
0.0
 30
0.0
  3
*D13
  1

  0
LINE
  5
1127D
330
E254
100
AcDbEntity
  8
AM_5
100
AcDbLine
 10
5978.828476223544
 20
6462.898434521325
 30
0.0
 11
5958.778475723546
 21
6462.898434521325
 31
0.0
  0
LINE
  5
1127E
330
E254
100
AcDbEntity
  8
AM_5
100
AcDbLine
 10
5978.828476223544
 20
6622.698434521327
 30
0.0
 11
5958.778475723546
 21
6622.698434521327
 31
0.0
  0
LINE
  5
1127F
330
E254
100
AcDbEntity
  8
AM_5
100
AcDbLine
 10
5959.778475723545
 20
6463.898434521325
 30
0.0
 11
5959.778475723545
 21
6621.698434521326
 31
0.0
  0
INSERT
  5
11280
330
E254
100
AcDbEntity
  8
AM_5
100
AcDbBlockReference
  2
_Dot
 10
5959.778475723545
 20
6462.898434521325
 30
0.0
 50
270.0
  0
INSERT
  5
11281
330
E254
100
AcDbEntity
  8
AM_5
100
AcDbBlockReference
  2
_Dot
 10
5959.778475723545
 20
6622.698434521327
 30
0.0
 50
90.0
  0
MTEXT
  5
11282
330
E254
100
AcDbEntity
  8
AM_5
 62
     2
100
AcDbMText
 10
5956.678475723544
 20
6542.798434521327
 30
0.0
 40
3.200000000000001
 41
0.0
 71
     5
 72
     1
  1
159.8（切欠き160）
 11
0.0000000000000001
 21
1.0
 31
0.0
 73
     1
 44
1.0
1001
ACAD
1000
MTEXTBEGIN
1070
    73
1070
     1
1070
    44
1040
1.0
1070
    74
1070
     0
1000
MTEXTEND
  0
POINT
  5
11283
330
E254
100
AcDbEntity
  8
Defpoints
 62
     0
100
AcDbPoint
 10
5979.828476223545
 20
6462.898434521325
 30
0.0
  0
POINT
  5
11284
330
E254
100
AcDbEntity
  8
Defpoints
 62
     0
100
AcDbPoint
 10
5979.828476223545
 20
6622.698434521327
 30
0.0
  0
POINT
  5
11285
330
E254
100
AcDbEntity
  8
Defpoints
 62
     0
100
AcDbPoint
 10
5959.778475723545
 20
6622.698434521327
 30
0.0
  0
ENDBLK
  5
E25F
330
E254
100
AcDbEntity
  8
0
100
AcDbBlockEnd
  0
BLOCK
  5
E2DC
330
E2D2
100
AcDbEntity
  8
0
100
AcDbBlockBegin
  2
*D14
 70
     1
 10
0.0
 20
0.0
 30
0.0
  3
*D14
  1

  0
LINE
  5
11286
330
E2D2
100
AcDbEntity
  8
AM_5
100
AcDbLine
 10
5829.51704536619
 20
6601.798434521325
 30
0.0
 11
5858.517045366191
 21
6601.798434521325
 31
0.0
  0
LINE
  5
11287
330
E2D2
100
AcDbEntity
  8
AM_5
100
AcDbLine
 10
5829.51704536619
 20
6483.798434521324
 30
0.0
 11
5858.517045366191
 21
6483.798434521324
 31
0.0
  0
LINE
  5
11288
330
E2D2
100
AcDbEntity
  8
AM_5
100
AcDbLine
 10
5857.517045366191
 20
6600.798434521326
 30
0.0
 11
5857.517045366191
 21
6484.798434521325
 31
0.0
  0
INSERT
  5
11289
330
E2D2
100
AcDbEntity
  8
AM_5
100
AcDbBlockReference
  2
_Dot
 10
5857.517045366191
 20
6601.798434521325
 30
0.0
 50
90.0
  0
INSERT
  5
1128A
330
E2D2
100
AcDbEntity
  8
AM_5
100
AcDbBlockReference
  2
_Dot
 10
5857.517045366191
 20
6483.798434521324
 30
0.0
 50
270.0
  0
MTEXT
  5
1128B
330
E2D2
100
AcDbEntity
  8
AM_5
 62
     2
100
AcDbMText
 10
5854.417045366189
 20
6542.798434521327
 30
0.0
 40
3.200000000000001
 41
0.0
 71
     5
 72
     1
  1
118（切欠き120）
 11
0.0000000000000001
 21
1.0
 31
0.0
 73
     1
 44
1.0
1001
ACAD
1000
MTEXTBEGIN
1070
    73
1070
     1
1070
    44
1040
1.0
1070
    74
1070
     0
1000
MTEXTEND
  0
POINT
  5
1128C
330
E2D2
100
AcDbEntity
  8
Defpoints
 62
     0
100
AcDbPoint
 10
5828.51704536619
 20
6601.798434521325
 30
0.0
  0
POINT
  5
1128D
330
E2D2
100
AcDbEntity
  8
Defpoints
 62
     0
100
AcDbPoint
 10
5828.51704536619
 20
6483.798434521324
 30
0.0
  0
POINT
  5
1128E
330
E2D2
100
AcDbEntity
  8
Defpoints
 62
     0
100
AcDbPoint
 10
5857.517045366191
 20
6483.798434521324
 30
0.0
  0
ENDBLK
  5
E2DD
330
E2D2
100
AcDbEntity
  8
0
100
AcDbBlockEnd
  0
BLOCK
  5
E390
330
E386
100
AcDbEntity
  8
0
100
AcDbBlockBegin
  2
*D15
 70
     1
 10
0.0
 20
0.0
 30
0.0
  3
*D15
  1

  0
LINE
  5
1128F
330
E386
100
AcDbEntity
  8
AM_5
100
AcDbLine
 10
5819.51704536619
 20
6483.798434521324
 30
0.0
 11
5765.828387076314
 21
6483.798434521324
 31
0.0
  0
LINE
  5
11290
330
E386
100
AcDbEntity
  8
AM_5
100
AcDbLine
 10
5819.51704536619
 20
6601.798434521325
 30
0.0
 11
5765.828387076314
 21
6601.798434521325
 31
0.0
  0
LINE
  5
11291
330
E386
100
AcDbEntity
  8
AM_5
100
AcDbLine
 10
5766.828387076316
 20
6484.798434521325
 30
0.0
 11
5766.828387076316
 21
6600.798434521326
 31
0.0
  0
INSERT
  5
11292
330
E386
100
AcDbEntity
  8
AM_5
100
AcDbBlockReference
  2
_Dot
 10
5766.828387076316
 20
6483.798434521324
 30
0.0
 50
270.0
  0
INSERT
  5
11293
330
E386
100
AcDbEntity
  8
AM_5
100
AcDbBlockReference
  2
_Dot
 10
5766.828387076316
 20
6601.798434521325
 30
0.0
 50
90.0
  0
MTEXT
  5
11294
330
E386
100
AcDbEntity
  8
AM_5
 62
     2
100
AcDbMText
 10
5763.728387076313
 20
6542.798434521327
 30
0.0
 40
3.200000000000001
 41
0.0
 71
     5
 72
     1
  1
118（切欠き120）
 11
0.0000000000000001
 21
1.0
 31
0.0
 73
     1
 44
1.0
1001
ACAD
1000
MTEXTBEGIN
1070
    73
1070
     1
1070
    44
1040
1.0
1070
    74
1070
     0
1000
MTEXTEND
  0
POINT
  5
11295
330
E386
100
AcDbEntity
  8
Defpoints
 62
     0
100
AcDbPoint
 10
5820.517045366191
 20
6483.798434521324
 30
0.0
  0
POINT
  5
11296
330
E386
100
AcDbEntity
  8
Defpoints
 62
     0
100
AcDbPoint
 10
5820.517045366191
 20
6601.798434521325
 30
0.0
  0
POINT
  5
11297
330
E386
100
AcDbEntity
  8
Defpoints
 62
     0
100
AcDbPoint
 10
5766.828387076316
 20
6601.798434521325
 30
0.0
  0
ENDBLK
  5
E391
330
E386
100
AcDbEntity
  8
0
100
AcDbBlockEnd
  0
BLOCK
  5
E40D
330
E40C
100
AcDbEntity
  8
0
100
AcDbBlockBegin
  2
_None
 70
     0
 10
0.0
 20
0.0
 30
0.0
  3
_None
  1

  0
ENDBLK
  5
E40E
330
E40C
100
AcDbEntity
  8
0
100
AcDbBlockEnd
  0
BLOCK
  5
E9E1
330
E9D8
100
AcDbEntity
  8
0
100
AcDbBlockBegin
  2
*D17
 70
     1
 10
0.0
 20
0.0
 30
0.0
  3
*D17
  1

  0
LINE
  5
112AC
330
E9D8
100
AcDbEntity
  8
AM_5
100
AcDbLine
 10
5947.591917295409
 20
6634.431868721441
 30
0.0
 11
5976.057250628741
 21
6634.431868721442
 31
0.0
  0
LINE
  5
112AD
330
E9D8
100
AcDbEntity
  8
AM_5
100
AcDbLine
 10
5976.057250628741
 20
6634.431868721442
 30
0.0
 11
5988.456519806437
 21
6617.844457191456
 31
0.0
  0
MTEXT
  5
112AE
330
E9D8
100
AcDbEntity
  8
AM_5
 62
     2
100
AcDbMText
 10
5960.978583962077
 20
6637.53186872144
 30
0.0
 40
3.200000000000001
 41
0.0
 71
     5
 72
     1
  1
4-%%c5.4×\U+22058.6皿孔
 73
     1
 44
1.0
1001
ACAD
1000
MTEXTBEGIN
1070
    73
1070
     1
1070
    44
1040
1.0
1070
    74
1070
     0
1000
MTEXTEND
  0
INSERT
  5
112AF
330
E9D8
100
AcDbEntity
  8
AM_5
100
AcDbBlockReference
  2
_OPEN30
 10
5989.653966288058
 20
6616.242545232684
 30
0.0
 41
2.0
 42
2.0
 43
2.0
 50
306.7785111262161
  0
POINT
  5
112B0
330
E9D8
100
AcDbEntity
  8
Defpoints
 62
     0
100
AcDbPoint
 10
5989.653966288058
 20
6616.242545232684
 30
0.0
  0
POINT
  5
112B1
330
E9D8
100
AcDbEntity
  8
Defpoints
 62
     0
100
AcDbPoint
 10
5994.802986159026
 20
6609.354323809968
 30
0.0
  0
ENDBLK
  5
E9E2
330
E9D8
100
AcDbEntity
  8
0
100
AcDbBlockEnd
  0
BLOCK
  5
F6AE
330
F6A6
100
AcDbEntity
  8
0
100
AcDbBlockBegin
  2
*D18
 70
     1
 10
0.0
 20
0.0
 30
0.0
  3
*D18
  1

  0
LINE
  5
11305
330
F6A6
100
AcDbEntity
  8
AM_5
100
AcDbLine
 10
5936.606939727333
 20
6627.098434521325
 30
0.0
 11
5936.606939727333
 21
6639.098442150721
 31
0.0
  0
LINE
  5
11306
330
F6A6
100
AcDbEntity
  8
AM_5
100
AcDbLine
 10
5875.050566648053
 20
6638.09844215072
 30
0.0
 11
5935.606939727333
 21
6638.09844215072
 31
0.0
  0
INSERT
  5
11307
330
F6A6
100
AcDbEntity
  8
AM_5
100
AcDbBlockReference
  2
_OPEN30
 10
5936.606939727333
 20
6638.09844215072
 30
0.0
  0
MTEXT
  5
11308
330
F6A6
100
AcDbEntity
  8
AM_5
 62
     2
100
AcDbMText
 10
5905.328753187693
 20
6641.198442150723
 30
0.0
 40
3.200000000000001
 41
0.0
 71
     5
 72
     1
  1
枠側リード線
 73
     1
 44
1.0
1001
ACAD
1000
MTEXTBEGIN
1070
    73
1070
     1
1070
    44
1040
1.0
1070
    74
1070
     0
1000
MTEXTEND
  0
POINT
  5
11309
330
F6A6
100
AcDbEntity
  8
Defpoints
 62
     0
100
AcDbPoint
 10
5875.050566648053
 20
6638.09844215072
 30
0.0
  0
POINT
  5
1130A
330
F6A6
100
AcDbEntity
  8
Defpoints
 62
     0
100
AcDbPoint
 10
5936.606939727333
 20
6626.098434521326
 30
0.0
  0
POINT
  5
1130B
330
F6A6
100
AcDbEntity
  8
Defpoints
 62
     0
100
AcDbPoint
 10
5936.606939727333
 20
6638.09844215072
 30
0.0
  0
ENDBLK
  5
F6AF
330
F6A6
100
AcDbEntity
  8
0
100
AcDbBlockEnd
  0
BLOCK
  5
FDD3
330
FDCB
100
AcDbEntity
  8
0
100
AcDbBlockBegin
  2
*D19
 70
     1
 10
0.0
 20
0.0
 30
0.0
  3
*D19
  1

  0
LINE
  5
112FE
330
FDCB
100
AcDbEntity
  8
AM_5
100
AcDbLine
 10
5705.875353078122
 20
6625.798439098966
 30
0.0
 11
5705.875353078122
 21
6639.098442150721
 31
0.0
  0
LINE
  5
112FF
330
FDCB
100
AcDbEntity
  8
AM_5
100
AcDbLine
 10
5773.983524084328
 20
6638.09844215072
 30
0.0
 11
5706.875353078125
 21
6638.09844215072
 31
0.0
  0
INSERT
  5
11300
330
FDCB
100
AcDbEntity
  8
AM_5
100
AcDbBlockReference
  2
_OPEN30
 10
5705.875353078122
 20
6638.09844215072
 30
0.0
 50
180.0
  0
MTEXT
  5
11301
330
FDCB
100
AcDbEntity
  8
AM_5
 62
     2
100
AcDbMText
 10
5740.429438581226
 20
6641.198442150723
 30
0.0
 40
3.200000000000001
 41
0.0
 71
     5
 72
     1
  1
扉側リード線
 73
     1
 44
1.0
1001
ACAD
1000
MTEXTBEGIN
1070
    73
1070
     1
1070
    44
1040
1.0
1070
    74
1070
     0
1000
MTEXTEND
  0
POINT
  5
11302
330
FDCB
100
AcDbEntity
  8
Defpoints
 62
     0
100
AcDbPoint
 10
5773.983524084328
 20
6638.09844215072
 30
0.0
  0
POINT
  5
11303
330
FDCB
100
AcDbEntity
  8
Defpoints
 62
     0
100
AcDbPoint
 10
5705.875353078122
 20
6624.798439098967
 30
0.0
  0
POINT
  5
11304
330
FDCB
100
AcDbEntity
  8
Defpoints
 62
     0
100
AcDbPoint
 10
5705.875353078122
 20
6638.09844215072
 30
0.0
  0
ENDBLK
  5
FDD4
330
FDCB
100
AcDbEntity
  8
0
100
AcDbBlockEnd
  0
ENDSEC
  0
SECTION
  2
ENTITIES
  0
LINE
  5
DC38
102
{ACAD_REACTORS
330
E0FF
102
}
330
1F
100
AcDbEntity
  8
フロントプレート-AM_0
100
AcDbLine
 10
5820.517045366191
 20
6622.698434521327
 30
0.0
 11
5820.517045366191
 21
6462.898434521325
 31
0.0
  0
LINE
  5
DC39
330
1F
100
AcDbEntity
  8
フロントプレート-AM_0
 48
0.15
100
AcDbLine
 10
5820.517045366191
 20
6462.898434521325
 30
0.0
 11
5822.51704536619
 21
6462.898434521325
 31
0.0
  0
LINE
  5
DC3B
102
{ACAD_REACTORS
330
E0FF
330
E127
330
E14F
102
}
330
1F
100
AcDbEntity
  8
フロントプレート-AM_0
100
AcDbLine
 10
5823.517045366191
 20
6463.898434521325
 30
0.0
 11
5823.517045366191
 21
6621.698434521326
 31
0.0
  0
ARC
  5
DC3D
330
1F
100
AcDbEntity
  8
フロントプレート-AM_0
 48
0.3
100
AcDbCircle
 10
5822.51704536619
 20
6463.898434521325
 30
0.0
 40
0.9999999999999998
100
AcDbArc
 50
270.0
 51
0.0
1001
GENIUS_GENODEF_13
1002
{
1000
HIER
1070
     0
1002
}
1002
{
1000
MANEDIT
1070
     0
1002
}
1002
{
1000
NOSEL
1070
     0
1002
}
1002
{
1000
BEHIND
1070
     0
1002
}
1002
{
1000
OTHER
1070
     0
1002
}
1002
{
1000
REACTOR
1002
}
1001
GENIUS_GENOBJ-N-FIL_13
1002
{
1000
OWNER
1000
GEN
1002
}
  0
LINE
  5
DC3E
330
1F
100
AcDbEntity
  8
フロントプレート-AM_0
 48
0.15
100
AcDbLine
 10
5820.517045366191
 20
6463.898434521325
 30
0.0
 11
5822.51704536619
 21
6463.898434521325
 31
0.0
  0
LINE
  5
DC3F
330
1F
100
AcDbEntity
  8
フロントプレート-AM_0
 48
0.15
100
AcDbLine
 10
5822.51704536619
 20
6622.698434521327
 30
0.0
 11
5820.517045366191
 21
6622.698434521327
 31
0.0
  0
ARC
  5
DC40
330
1F
100
AcDbEntity
  8
フロントプレート-AM_0
 48
0.3
100
AcDbCircle
 10
5822.51704536619
 20
6621.698434521326
 30
0.0
 40
0.9999999999999998
100
AcDbArc
 50
0.0
 51
90.0
1001
GENIUS_GENOBJ-N-FIL_13
1002
{
1000
OWNER
1000
GEN
1002
}
1001
GENIUS_GENODEF_13
1002
{
1000
HIER
1070
     0
1002
}
1002
{
1000
MANEDIT
1070
     0
1002
}
1002
{
1000
NOSEL
1070
     0
1002
}
1002
{
1000
BEHIND
1070
     0
1002
}
1002
{
1000
OTHER
1070
     0
1002
}
1002
{
1000
REACTOR
1002
}
  0
LINE
  5
DC41
330
1F
100
AcDbEntity
  8
フロントプレート-AM_0
 48
0.15
100
AcDbLine
 10
5822.51704536619
 20
6621.698434521326
 30
0.0
 11
5820.517045366191
 21
6621.698434521326
 31
0.0
  0
LINE
  5
DC67
330
1F
100
AcDbEntity
  8
ケース-AM_0
100
AcDbLine
 10
5820.517045366191
 20
6464.698434521324
 30
0.0
 11
5820.517045366191
 21
6483.798434521324
 31
0.0
  0
LINE
  5
DCA4
102
{ACAD_REACTORS
330
E0AF
102
}
330
1F
100
AcDbEntity
  8
フロントプレート-AM_0
100
AcDbLine
 10
5828.51704536619
 20
6622.698434521327
 30
0.0
 11
5828.51704536619
 21
6462.898434521325
 31
0.0
  0
LINE
  5
DCA6
330
1F
100
AcDbEntity
  8
フロントプレート-AM_0
 48
0.15
100
AcDbLine
 10
5828.51704536619
 20
6462.898434521325
 30
0.0
 11
5826.51704536619
 21
6462.898434521325
 31
0.0
  0
LINE
  5
DCA9
102
{ACAD_REACTORS
330
E0AF
330
E14F
330
E0D7
102
}
330
1F
100
AcDbEntity
  8
フロントプレート-AM_0
100
AcDbLine
 10
5825.51704536619
 20
6463.898434521325
 30
0.0
 11
5825.51704536619
 21
6621.698434521326
 31
0.0
  0
ARC
  5
DCAA
330
1F
100
AcDbEntity
  8
フロントプレート-AM_0
 48
0.3
100
AcDbCircle
 10
5826.51704536619
 20
6463.898434521325
 30
0.0
 40
1.0
100
AcDbArc
 50
180.0
 51
270.0
1001
GENIUS_GENODEF_13
1002
{
1000
HIER
1070
     0
1002
}
1002
{
1000
MANEDIT
1070
     0
1002
}
1002
{
1000
NOSEL
1070
     0
1002
}
1002
{
1000
BEHIND
1070
     0
1002
}
1002
{
1000
OTHER
1070
     0
1002
}
1002
{
1000
REACTOR
1002
}
1001
GENIUS_GENOBJ-N-FIL_13
1002
{
1000
OWNER
1000
GEN
1002
}
  0
LINE
  5
DCAC
330
1F
100
AcDbEntity
  8
フロントプレート-AM_0
 48
0.2101000400320117
100
AcDbLine
 10
5825.51704536619
 20
6491.998434521327
 30
0.0
 11
5823.517045366188
 21
6491.998434521327
 31
0.0
  0
LINE
  5
DCB2
330
1F
100
AcDbEntity
  8
フロントプレート-AM_0
 48
0.15
100
AcDbLine
 10
5826.51704536619
 20
6622.698434521327
 30
0.0
 11
5828.51704536619
 21
6622.698434521327
 31
0.0
  0
ARC
  5
DCB3
330
1F
100
AcDbEntity
  8
フロントプレート-AM_0
 48
0.3
100
AcDbCircle
 10
5826.51704536619
 20
6621.698434521326
 30
0.0
 40
1.0
100
AcDbArc
 50
90.0
 51
180.0
1001
GENIUS_GENOBJ-N-FIL_13
1002
{
1000
OWNER
1000
GEN
1002
}
1001
GENIUS_GENODEF_13
1002
{
1000
HIER
1070
     0
1002
}
1002
{
1000
MANEDIT
1070
     0
1002
}
1002
{
1000
NOSEL
1070
     0
1002
}
1002
{
1000
BEHIND
1070
     0
1002
}
1002
{
1000
OTHER
1070
     0
1002
}
1002
{
1000
REACTOR
1002
}
  0
LINE
  5
DCD6
330
1F
100
AcDbEntity
  8
フロントプレート-AM_7
 48
0.55
100
AcDbLine
 10
5816.51704536619
 20
6612.798434521327
 30
0.0
 11
5832.51704536619
 21
6612.798434521327
 31
0.0
1001
GENIUS_GENODEF_13
1002
{
1000
HIER
1070
     0
1002
}
1002
{
1000
MANEDIT
1070
     0
1002
}
1002
{
1000
NOSEL
1070
     0
1002
}
1002
{
1000
BEHIND
1070
     0
1002
}
1002
{
1000
OTHER
1070
     0
1002
}
1002
{
1000
REACTOR
1002
}
1001
GENIUS_GENOBJ-N-CEN_13
1002
{
1000
OWNER
1000
GEN
1002
}
1001
GENIUS_GENCEN_19
1002
{
1040
4.0
1002
}
  0
SPLINE
  5
DD2E
330
1F
100
AcDbEntity
  8
ケーブル-AM_2
100
AcDbSpline
210
0.0
220
0.0
230
1.0
 70
     8
 71
     3
 72
    10
 73
     6
 74
     4
 42
0.0000000001
 43
0.0000000001
 44
0.0000000001
 40
0.0
 40
0.0
 40
0.0
 40
0.0
 40
6.160228551647346
 40
9.717729254176468
 40
17.29340307935976
 40
17.29340307935976
 40
17.29340307935976
 40
17.29340307935976
 10
5766.081282305743
 20
6626.513474396403
 30
0.0
 10
5764.03561382561
 20
6624.662247815319
 30
0.0
 10
5760.808582187568
 20
6621.741947285513
 30
0.0
 10
5767.642770188974
 20
6618.094982925004
 30
0.0
 10
5764.648354428764
 20
6614.296566078938
 30
0.0
 10
5762.610775924999
 20
6611.711897437821
 30
0.0
 11
5766.081282305743
 21
6626.513474396403
 31
0.0
 11
5762.784306335145
 21
6621.309786736883
 31
0.0
 11
5765.299839205979
 21
6618.794253866048
 31
0.0
 11
5762.610775924999
 21
6611.711897437821
 31
0.0
  0
SPLINE
  5
DD39
330
1F
100
AcDbEntity
  8
ケーブル-AM_2
100
AcDbSpline
210
0.0
220
0.0
230
1.0
 70
     8
 71
     3
 72
    10
 73
     6
 74
     4
 42
0.0000000001
 43
0.0000000001
 44
0.0000000001
 40
0.0
 40
0.0
 40
0.0
 40
0.0
 40
6.160228551646783
 40
9.717729254177193
 40
17.29340307936113
 40
17.29340307936113
 40
17.29340307936113
 40
17.29340307936113
 10
5885.001661207877
 20
6626.513482025801
 30
0.0
 10
5887.047329688011
 20
6624.662255444718
 30
0.0
 10
5890.274361326055
 20
6621.741954914914
 30
0.0
 10
5883.440173324646
 20
6618.094990554403
 30
0.0
 10
5886.434589084855
 20
6614.296573708337
 30
0.0
 10
5888.472167588624
 20
6611.711905067221
 30
0.0
 11
5885.001661207877
 21
6626.513482025801
 31
0.0
 11
5888.298637178476
 21
6621.309794366283
 31
0.0
 11
5885.783104307641
 21
6618.794261495448
 31
0.0
 11
5888.472167588624
 21
6611.711905067221
 31
0.0
  0
LINE
  5
DDAE
330
1F
100
AcDbEntity
  8
AM_0
100
AcDbLine
 10
5826.51704536619
 20
6463.898434521325
 30
0.0
 11
5828.51704536619
 21
6463.898434521325
 31
0.0
  0
LINE
  5
DDAF
330
1F
100
AcDbEntity
  8
AM_0
100
AcDbLine
 10
5826.51704536619
 20
6621.698434521326
 30
0.0
 11
5828.51704536619
 21
6621.698434521326
 31
0.0
  0
SPLINE
  5
DE50
330
1F
100
AcDbEntity
  8
ケーブル-AM_2
100
AcDbSpline
210
0.0
220
0.0
230
1.0
 70
     8
 71
     3
 72
    10
 73
     6
 74
     4
 42
0.0000000001
 43
0.0000000001
 44
0.0000000001
 40
0.0
 40
0.0
 40
0.0
 40
0.0
 40
6.501643325817279
 40
9.788493634522939
 40
17.3641674597072
 40
17.3641674597072
 40
17.3641674597072
 40
17.3641674597072
 10
5889.202387215871
 20
6626.513482025801
 30
0.0
 10
5891.366246713864
 20
6624.451864445103
 30
0.0
 10
5894.624026918137
 20
6621.34801368704
 30
0.0
 10
5887.557937171772
 20
6618.178787274257
 30
0.0
 10
5890.571319376043
 20
6614.368942939096
 30
0.0
 10
5892.672893596618
 20
6611.711905067221
 30
0.0
 11
5889.202387215871
 21
6626.513482025801
 31
0.0
 11
5892.499363186471
 21
6620.909794366283
 31
0.0
 11
5889.983830315635
 21
6618.794261495448
 31
0.0
 11
5892.672893596618
 21
6611.711905067221
 31
0.0
  0
LINE
  5
DE53
330
1F
100
AcDbEntity
  8
AM_0
 48
0.5
100
AcDbLine
 10
5926.706938201459
 20
6617.698440624846
 30
0.0
 11
5926.706938201459
 21
6611.098449780117
 31
0.0
  0
LINE
  5
DE54
330
1F
100
AcDbEntity
  8
AM_0
 48
0.5
100
AcDbLine
 10
5916.806944304971
 20
6624.798446728366
 30
0.0
 11
5916.806944304971
 21
6612.398452831875
 31
0.0
  0
LINE
  5
DE55
330
1F
100
AcDbEntity
  8
AM_0
 48
0.5
100
AcDbLine
 10
5936.606939727333
 20
6626.098434521326
 30
0.0
 11
5936.606939727333
 21
6611.098449780117
 31
0.0
  0
LINE
  5
DE56
330
1F
100
AcDbEntity
  8
AM_2
 48
0.5
100
AcDbLine
 10
5905.370022978812
 20
6617.098434521323
 30
0.0
 11
5916.806944304971
 21
6616.423660351407
 31
0.0
  0
LINE
  5
DE58
330
1F
100
AcDbEntity
  8
AM_0
 48
0.5
100
AcDbLine
 10
5926.706938201459
 20
6615.258453442227
 30
0.0
 11
5916.806944304971
 21
6615.258453442227
 31
0.0
  0
LINE
  5
DE59
330
1F
100
AcDbEntity
  8
AM_0
 48
0.5
100
AcDbLine
 10
5916.806944304971
 20
6612.398452831875
 30
0.0
 11
5926.706938201459
 21
6612.398452831875
 31
0.0
  0
LINE
  5
DE5A
330
1F
100
AcDbEntity
  8
AM_2
 48
0.5
100
AcDbLine
 10
5895.692422008031
 20
6615.598442150721
 30
0.0
 11
5916.806944304971
 21
6613.418441845545
 31
0.0
  0
LINE
  5
DE5B
330
1F
100
AcDbEntity
  8
AM_0
 48
0.5
100
AcDbLine
 10
5926.706938201459
 20
6611.098449780117
 30
0.0
 11
5936.606939727333
 21
6611.098449780117
 31
0.0
  0
LINE
  5
DE5C
330
1F
100
AcDbEntity
  8
AM_0
 48
0.5
100
AcDbLine
 10
5926.706938201459
 20
6617.258453442225
 30
0.0
 11
5916.806944304971
 21
6617.258453442225
 31
0.0
  0
LINE
  5
DE5D
330
1F
100
AcDbEntity
  8
AM_0
 48
0.5
100
AcDbLine
 10
5916.806944304971
 20
6624.798446728366
 30
0.0
 11
5926.706938201459
 21
6624.798446728366
 31
0.0
  0
LINE
  5
DE5E
330
1F
100
AcDbEntity
  8
AM_0
 48
0.5
100
AcDbLine
 10
5926.706938201459
 20
6619.938446118005
 30
0.0
 11
5916.806944304971
 21
6619.938446118005
 31
0.0
  0
LINE
  5
DE5F
330
1F
100
AcDbEntity
  8
AM_0
 48
0.5
100
AcDbLine
 10
5926.706938201459
 20
6621.938446118005
 30
0.0
 11
5916.806944304971
 21
6621.938446118005
 31
0.0
  0
LINE
  5
DE60
330
1F
100
AcDbEntity
  8
AM_2
 48
0.5
100
AcDbLine
 10
5916.806944304971
 20
6620.773223950036
 30
0.0
 11
5905.369893666192
 21
6620.098442150721
 31
0.0
  0
LINE
  5
DE61
330
1F
100
AcDbEntity
  8
AM_2
 48
0.5
100
AcDbLine
 10
5916.806944304971
 20
6623.778442455895
 30
0.0
 11
5895.845482870694
 21
6621.598442150721
 31
0.0
  0
LINE
  5
DE62
330
1F
100
AcDbEntity
  8
AM_2
 48
0.5
100
AcDbLine
 10
5905.369810515911
 20
6617.098449780117
 30
0.0
 11
5916.806944304971
 21
6617.098449780117
 31
0.0
  0
LINE
  5
DE63
330
1F
100
AcDbEntity
  8
AM_2
 48
0.5
100
AcDbLine
 10
5905.370069915321
 20
6620.098449780114
 30
0.0
 11
5916.806944304971
 21
6620.098449780114
 31
0.0
  0
LINE
  5
DE64
330
1F
100
AcDbEntity
  8
AM_0
 48
0.5
100
AcDbLine
 10
5926.706938201459
 20
6626.098434521326
 30
0.0
 11
5936.606939727333
 21
6626.098434521326
 31
0.0
  0
LINE
  5
DE65
330
1F
100
AcDbEntity
  8
AM_0
 48
0.5
100
AcDbLine
 10
5934.606939727333
 20
6619.498443676606
 30
0.0
 11
5926.706938201459
 21
6619.498443676606
 31
0.0
  0
LINE
  5
DE66
330
1F
100
AcDbEntity
  8
AM_0
 48
0.5
100
AcDbLine
 10
5934.606939727333
 20
6617.698440624846
 30
0.0
 11
5926.706938201459
 21
6617.698440624846
 31
0.0
  0
LINE
  5
DE67
330
1F
100
AcDbEntity
  8
AM_0
 48
0.5
100
AcDbLine
 10
5926.706938201459
 20
6626.098434521326
 30
0.0
 11
5926.706938201459
 21
6619.498443676606
 31
0.0
  0
LINE
  5
DE68
330
1F
100
AcDbEntity
  8
AM_0
 48
0.5
100
AcDbLine
 10
5927.606939727333
 20
6619.498443676606
 30
0.0
 11
5927.606939727333
 21
6617.698440624846
 31
0.0
  0
LINE
  5
DE69
330
1F
100
AcDbEntity
  8
AM_0
 48
0.5
100
AcDbLine
 10
5934.606939727333
 20
6619.498443676606
 30
0.0
 11
5934.606939727333
 21
6617.698440624846
 31
0.0
  0
SPLINE
  5
DE6A
330
1F
100
AcDbEntity
  8
ケーブル-AM_2
100
AcDbSpline
210
0.0
220
0.0
230
1.0
 70
     8
 71
     3
 72
    10
 73
     6
 74
     4
 42
0.0000000001
 43
0.0000000001
 44
0.0000000001
 40
0.0
 40
0.0
 40
0.0
 40
0.0
 40
6.160228551647833
 40
9.717729254178241
 40
17.29340307936154
 40
17.29340307936154
 40
17.29340307936154
 40
17.29340307936154
 10
5761.456398009755
 20
6626.513474396403
 30
0.0
 10
5759.410729529621
 20
6624.662247815319
 30
0.0
 10
5756.183697891578
 20
6621.741947285511
 30
0.0
 10
5763.017885892987
 20
6618.094982925005
 30
0.0
 10
5760.023470132776
 20
6614.296566078938
 30
0.0
 10
5757.985891629012
 20
6611.711897437821
 30
0.0
 11
5761.456398009755
 21
6626.513474396403
 31
0.0
 11
5758.159422039156
 21
6621.309786736883
 31
0.0
 11
5760.674954909991
 21
6618.794253866048
 31
0.0
 11
5757.985891629012
 21
6611.711897437821
 31
0.0
  0
LINE
  5
DE6D
330
1F
100
AcDbEntity
  8
AM_0
 48
0.5
100
AcDbLine
 10
5705.875353078122
 20
6624.798439098967
 30
0.0
 11
5705.875353078122
 21
6612.398445202477
 31
0.0
  0
LINE
  5
DE6E
330
1F
100
AcDbEntity
  8
AM_0
 48
0.5
100
AcDbLine
 10
5725.675340871092
 20
6624.798439098967
 30
0.0
 11
5725.675340871092
 21
6612.398445202477
 31
0.0
  0
ARC
  5
DE6F
330
1F
100
AcDbEntity
  8
AM_0
 48
0.5
100
AcDbCircle
 10
5716.775346974613
 20
6616.258445812826
 30
0.0
 40
1.0
100
AcDbArc
 50
90.00000250446868
 51
270.0000006832691
  0
LINE
  5
DE70
330
1F
100
AcDbEntity
  8
AM_2
 48
0.5
100
AcDbLine
 10
5725.675340871092
 20
6616.423652722007
 30
0.0
 11
5745.675340871093
 21
6617.603645397787
 31
0.0
  0
LINE
  5
DE71
330
1F
100
AcDbEntity
  8
AM_0
 48
0.5
100
AcDbLine
 10
5745.675340871093
 20
6622.098426891928
 30
0.0
 11
5745.675340871093
 21
6615.098426891927
 31
0.0
  0
LINE
  5
DE72
330
1F
100
AcDbEntity
  8
AM_0
 48
0.5
100
AcDbLine
 10
5716.775346974613
 20
6615.258445812827
 30
0.0
 11
5725.675340871092
 21
6615.258445812827
 31
0.0
  0
LINE
  5
DE73
330
1F
100
AcDbEntity
  8
AM_0
 48
0.5
100
AcDbLine
 10
5725.675340871092
 20
6612.398445202477
 30
0.0
 11
5705.875353078122
 21
6612.398445202477
 31
0.0
  0
LINE
  5
DE74
330
1F
100
AcDbEntity
  8
AM_2
 48
0.5
100
AcDbLine
 10
5725.675340871092
 20
6613.418434216147
 30
0.0
 11
5745.675340871093
 21
6615.498426891926
 31
0.0
  0
LINE
  5
DE75
330
1F
100
AcDbEntity
  8
AM_0
 48
0.5
100
AcDbLine
 10
5716.775346974613
 20
6617.258445812827
 30
0.0
 11
5725.675340871092
 21
6617.258445812827
 31
0.0
  0
LINE
  5
DE76
330
1F
100
AcDbEntity
  8
AM_0
 48
0.5
100
AcDbLine
 10
5716.775346974613
 20
6619.938438488607
 30
0.0
 11
5725.675340871092
 21
6619.938438488607
 31
0.0
  0
LINE
  5
DE77
330
1F
100
AcDbEntity
  8
AM_0
 48
0.5
100
AcDbLine
 10
5716.775346974613
 20
6621.938438488607
 30
0.0
 11
5725.675340871092
 21
6621.938438488607
 31
0.0
  0
LINE
  5
DE78
330
1F
100
AcDbEntity
  8
AM_0
 48
0.5
100
AcDbLine
 10
5725.675340871092
 20
6624.798439098967
 30
0.0
 11
5705.875353078122
 21
6624.798439098967
 31
0.0
  0
LINE
  5
DE79
330
1F
100
AcDbEntity
  8
AM_0
 48
0.5
100
AcDbLine
 10
5712.875353078122
 20
6623.798439098966
 30
0.0
 11
5705.875353078122
 21
6623.798439098966
 31
0.0
  0
LINE
  5
DE7A
330
1F
100
AcDbEntity
  8
AM_0
 48
0.5
100
AcDbLine
 10
5707.875353078122
 20
6617.898445202475
 30
0.0
 11
5712.875353078122
 21
6617.898445202475
 31
0.0
  0
LINE
  5
DE7B
330
1F
100
AcDbEntity
  8
AM_0
 48
0.5
100
AcDbLine
 10
5707.875353078122
 20
6619.298439098966
 30
0.0
 11
5712.875353078122
 21
6619.298439098966
 31
0.0
  0
LINE
  5
DE7C
330
1F
100
AcDbEntity
  8
AM_0
 48
0.5
100
AcDbLine
 10
5707.875353078122
 20
6619.298439098966
 30
0.0
 11
5707.875353078122
 21
6617.898445202475
 31
0.0
  0
ARC
  5
DE7D
330
1F
100
AcDbEntity
  8
AM_0
 48
0.5
100
AcDbCircle
 10
5716.775346974613
 20
6620.938438488607
 30
0.0
 40
1.0
100
AcDbArc
 50
90.00000250446868
 51
270.0000006832691
  0
LINE
  5
DE7E
330
1F
100
AcDbEntity
  8
AM_0
 48
0.5
100
AcDbLine
 10
5712.875353078122
 20
6624.798439098967
 30
0.0
 11
5712.875353078122
 21
6623.798439098966
 31
0.0
  0
LINE
  5
DE7F
330
1F
100
AcDbEntity
  8
AM_0
 48
0.5
100
AcDbLine
 10
5710.375353078124
 20
6619.298439098966
 30
0.0
 11
5710.375353078124
 21
6617.898445202475
 31
0.0
  0
LINE
  5
DE80
330
1F
100
AcDbEntity
  8
AM_0
 48
0.5
100
AcDbLine
 10
5712.875353078122
 20
6619.298439098966
 30
0.0
 11
5712.875353078122
 21
6617.898445202475
 31
0.0
  0
LINE
  5
DE81
330
1F
100
AcDbEntity
  8
AM_2
 48
0.5
100
AcDbLine
 10
5725.675340871092
 20
6620.773216320637
 30
0.0
 11
5745.675340871093
 21
6619.593223644857
 31
0.0
  0
LINE
  5
DE82
330
1F
100
AcDbEntity
  8
AM_2
 48
0.5
100
AcDbLine
 10
5725.675340871092
 20
6623.778434826497
 30
0.0
 11
5745.675340871093
 21
6621.698426891928
 31
0.0
  0
LINE
  5
DE83
330
1F
100
AcDbEntity
  8
AM_2
 48
0.5
100
AcDbLine
 10
5725.675340871092
 20
6617.098442150717
 30
0.0
 11
5737.112474660164
 21
6617.098442150717
 31
0.0
  0
LINE
  5
DE84
330
1F
100
AcDbEntity
  8
AM_2
 48
0.5
100
AcDbLine
 10
5725.675340871092
 20
6620.098442150717
 30
0.0
 11
5737.112200001953
 21
6620.098442150717
 31
0.0
  0
LINE
  5
DE85
330
1F
100
AcDbEntity
  8
フロントプレート-AM_0
100
AcDbLine
 10
6034.828476223545
 20
6622.698434521327
 30
0.0
 11
6034.828476223545
 21
6523.624061096715
 31
0.0
  0
LINE
  5
DE86
330
1F
100
AcDbEntity
  8
フロントプレート-AM_0
100
AcDbLine
 10
6034.828476223545
 20
6462.898434521325
 30
0.0
 11
6059.628476223545
 21
6462.898434521325
 31
0.0
  0
LINE
  5
DE87
330
1F
100
AcDbEntity
  8
フロントプレート-AM_0
 48
0.15
100
AcDbLine
 10
6040.228476223546
 20
6489.998434521324
 30
0.0
 11
6054.228476223544
 21
6489.998434521324
 31
0.0
  0
LINE
  5
DE89
330
1F
100
AcDbEntity
  8
フロントプレート-AM_0
 48
0.15
100
AcDbLine
 10
6053.715225923305
 20
6491.998434521324
 30
0.0
 11
6055.228476223545
 21
6491.998434521324
 31
0.0
  0
ARC
  5
DE8B
330
1F
100
AcDbEntity
  8
フロントプレート-AM_0
 48
0.3
100
AcDbCircle
 10
6054.228476223544
 20
6490.998434521326
 30
0.0
 40
1.0
100
AcDbArc
 50
270.0
 51
0.0
1001
GENIUS_GENODEF_13
1002
{
1000
HIER
1070
     0
1002
}
1002
{
1000
MANEDIT
1070
     0
1002
}
1002
{
1000
NOSEL
1070
     0
1002
}
1002
{
1000
BEHIND
1070
     0
1002
}
1002
{
1000
OTHER
1070
     0
1002
}
1002
{
1000
REACTOR
1002
}
1001
GENIUS_GENOBJ-N-FIL_13
1002
{
1000
OWNER
1000
GEN
1002
}
  0
LINE
  5
DE8C
330
1F
100
AcDbEntity
  8
フロントプレート-AM_0
 48
0.6999999999999093
100
AcDbLine
 10
6040.228476223545
 20
6570.998434521327
 30
0.0
 11
6054.228476223542
 21
6570.998434521325
 31
0.0
  0
ARC
  5
DE8D
330
1F
100
AcDbEntity
  8
フロントプレート-AM_0
 48
0.3
100
AcDbCircle
 10
6054.228476223542
 20
6569.998434521327
 30
0.0
 40
1.0
100
AcDbArc
 50
0.0
 51
90.0
1001
GENIUS_GENODEF_13
1002
{
1000
HIER
1070
     0
1002
}
1002
{
1000
MANEDIT
1070
     0
1002
}
1002
{
1000
NOSEL
1070
     0
1002
}
1002
{
1000
BEHIND
1070
     0
1002
}
1002
{
1000
OTHER
1070
     0
1002
}
1002
{
1000
REACTOR
1002
}
1001
GENIUS_GENOBJ-N-FIL_13
1002
{
1000
OWNER
1000
GEN
1002
}
  0
LINE
  5
DE8E
330
1F
100
AcDbEntity
  8
フロントプレート-AM_0
100
AcDbLine
 10
6059.628476223544
 20
6622.698434521327
 30
0.0
 11
6059.628476223544
 21
6462.898434521325
 31
0.0
  0
LINE
  5
DE8F
330
1F
100
AcDbEntity
  8
フロントプレート-AM_0
100
AcDbLine
 10
6034.828476223545
 20
6622.698434521327
 30
0.0
 11
6059.628476223544
 21
6622.698434521327
 31
0.0
  0
LINE
  5
DE90
102
{ACAD_REACTORS
330
DF40
102
}
330
1F
100
AcDbEntity
  8
フロントプレート-AM_7
100
AcDbLine
 10
6047.228476223544
 20
6458.898434521326
 30
0.0
 11
6047.228476223544
 21
6626.698434521327
 31
0.0
1001
GENIUS_GENOBJ-N-CEN_13
1002
{
1000
OWNER
1000
GEN
1002
}
1001
GENIUS_GENODEF_13
1002
{
1000
HIER
1070
     0
1002
}
1002
{
1000
MANEDIT
1070
     0
1002
}
1002
{
1000
NOSEL
1070
     0
1002
}
1002
{
1000
BEHIND
1070
     0
1002
}
1002
{
1000
OTHER
1070
     0
1002
}
1002
{
1000
REACTOR
1002
}
1001
GENIUS_GENCEN_19
1002
{
1040
4.0
1002
}
  0
LINE
  5
DE91
330
1F
100
AcDbEntity
  8
フロントプレート-AM_7
100
AcDbLine
 10
6030.828476223543
 20
6542.798434521326
 30
0.0
 11
6063.628476223544
 21
6542.798434521326
 31
0.0
1001
GENIUS_GENOBJ-N-CEN_13
1002
{
1000
OWNER
1000
GEN
1002
}
1001
GENIUS_GENODEF_13
1002
{
1000
HIER
1070
     0
1002
}
1002
{
1000
MANEDIT
1070
     0
1002
}
1002
{
1000
NOSEL
1070
     0
1002
}
1002
{
1000
BEHIND
1070
     0
1002
}
1002
{
1000
OTHER
1070
     0
1002
}
1002
{
1000
REACTOR
1002
}
1001
GENIUS_GENCEN_19
1002
{
1040
4.0
1002
}
  0
CIRCLE
  5
DE92
330
1F
100
AcDbEntity
  8
フロントプレート-AM_0
 48
0.41
100
AcDbCircle
 10
6047.228476223544
 20
6612.798434521327
 30
0.0
 40
4.299999999999998
  0
CIRCLE
  5
DE93
330
1F
100
AcDbEntity
  8
フロントプレート-AM_0
 48
0.4
100
AcDbCircle
 10
6047.228476223544
 20
6612.798434521327
 30
0.0
 40
2.7
  0
CIRCLE
  5
DE94
330
1F
100
AcDbEntity
  8
フロントプレート-AM_0
 48
0.41
100
AcDbCircle
 10
6047.228476223544
 20
6472.798434521326
 30
0.0
 40
4.299999999999998
  0
CIRCLE
  5
DE95
330
1F
100
AcDbEntity
  8
フロントプレート-AM_0
 48
0.4
100
AcDbCircle
 10
6047.228476223544
 20
6472.798434521326
 30
0.0
 40
2.7
  0
LINE
  5
DE96
330
1F
100
AcDbEntity
  8
フロントプレート-AM_0
100
AcDbLine
 10
6055.228476223544
 20
6490.998434521326
 30
0.0
 11
6055.228476223542
 21
6569.998434521327
 31
0.0
  0
LINE
  5
DE97
330
1F
100
AcDbEntity
  8
フロントプレート-AM_0
100
AcDbLine
 10
6039.228476223546
 20
6490.998434521324
 30
0.0
 11
6039.228476223546
 21
6513.001389569716
 31
0.0
  0
ARC
  5
DE98
330
1F
100
AcDbEntity
  8
フロントプレート-AM_0
 48
0.3
100
AcDbCircle
 10
6040.228476223546
 20
6490.998434521324
 30
0.0
 40
1.0
100
AcDbArc
 50
180.0
 51
270.0
1001
GENIUS_GENOBJ-N-FIL_13
1002
{
1000
OWNER
1000
GEN
1002
}
1001
GENIUS_GENODEF_13
1002
{
1000
HIER
1070
     0
1002
}
1002
{
1000
MANEDIT
1070
     0
1002
}
1002
{
1000
NOSEL
1070
     0
1002
}
1002
{
1000
BEHIND
1070
     0
1002
}
1002
{
1000
OTHER
1070
     0
1002
}
1002
{
1000
REACTOR
1002
}
  0
ARC
  5
DE99
330
1F
100
AcDbEntity
  8
フロントプレート-AM_0
 48
0.3
100
AcDbCircle
 10
6040.228476223545
 20
6569.998434521327
 30
0.0
 40
1.0
100
AcDbArc
 50
90.0
 51
180.0
1001
GENIUS_GENODEF_13
1002
{
1000
HIER
1070
     0
1002
}
1002
{
1000
MANEDIT
1070
     0
1002
}
1002
{
1000
NOSEL
1070
     0
1002
}
1002
{
1000
BEHIND
1070
     0
1002
}
1002
{
1000
OTHER
1070
     0
1002
}
1002
{
1000
REACTOR
1002
}
1001
GENIUS_GENOBJ-N-FIL_13
1002
{
1000
OWNER
1000
GEN
1002
}
  0
LINE
  5
DE9A
330
1F
100
AcDbEntity
  8
フロントプレート-AM_0
100
AcDbLine
 10
6053.228476223541
 20
6539.331008874139
 30
0.0
 11
6053.228476223542
 21
6494.998434521324
 31
0.0
  0
LINE
  5
DE9B
330
1F
100
AcDbEntity
  8
フロントプレート-AM_0
100
AcDbLine
 10
6054.215225923304
 20
6494.998434521324
 30
0.0
 11
6054.215225923302
 21
6539.331008874142
 31
0.0
  0
ELLIPSE
  5
DE9C
330
1F
100
AcDbEntity
  8
フロントプレート-AM_0
 48
1.01
100
AcDbEllipse
 10
6054.701975623064
 20
6494.998434521324
 30
0.0
 11
-0.0138039188160445
 21
3.001142697513388
 31
0.0
210
0.0
220
0.0
230
1.0
 40
0.1621847365623374
 41
1.570050349429914
 42
3.113240282856209
  0
ELLIPSE
  5
DE9D
330
1F
100
AcDbEntity
  8
フロントプレート-AM_0
 48
1.01
100
AcDbEllipse
 10
6053.715225923305
 20
6494.998434521324
 30
0.0
 11
-0.0000000000005539
 21
3.0
 31
0.0
210
0.0
220
0.0
230
1.0
 40
0.1622498999207285
 41
1.570796326794865
 42
3.141592653588653
  0
LINE
  5
DEA0
330
1F
100
AcDbEntity
  8
フロントプレート-AM_0
 48
0.15
100
AcDbLine
 10
6040.741726523785
 20
6491.998434521324
 30
0.0
 11
6039.228476223545
 21
6491.998434521324
 31
0.0
  0
LINE
  5
DEA3
330
1F
100
AcDbEntity
  8
フロントプレート-AM_0
100
AcDbLine
 10
6040.241726523786
 20
6494.998434521324
 30
0.0
 11
6040.241726523786
 21
6513.774056871717
 31
0.0
  0
ELLIPSE
  5
DEA4
330
1F
100
AcDbEntity
  8
フロントプレート-AM_0
 48
1.01
100
AcDbEllipse
 10
6039.754976824026
 20
6494.998434521324
 30
0.0
 11
0.0138039188160445
 21
3.001142697513388
 31
0.0
210
0.0
220
0.0
230
-1.0
 40
0.1621847365623374
 41
1.570050349429914
 42
3.113240282856209
  0
ELLIPSE
  5
DEA5
330
1F
100
AcDbEntity
  8
フロントプレート-AM_0
 48
1.01
100
AcDbEllipse
 10
6040.741726523785
 20
6494.998434521324
 30
0.0
 11
0.0000000000005539
 21
3.0
 31
0.0
210
0.0
220
0.0
230
-1.0
 40
0.1622498999207285
 41
1.570796326794865
 42
3.141592653588653
  0
LINE
  5
DEA8
330
1F
100
AcDbEntity
  8
フロントプレート-AM_0
 48
0.3125
100
AcDbLine
 10
6055.228476223545
 20
6491.998434521324
 30
0.0
 11
6053.715225923305
 21
6491.998434521324
 31
0.0
  0
LINE
  5
DEA9
330
1F
100
AcDbEntity
  8
フロントプレート-AM_7
 48
0.8100000000000362
100
AcDbLine
 10
6039.128476223543
 20
6472.798434521326
 30
0.0
 11
6055.328476223543
 21
6472.798434521326
 31
0.0
1001
GENIUS_GENODEF_13
1002
{
1000
HIER
1070
     0
1002
}
1002
{
1000
MANEDIT
1070
     0
1002
}
1002
{
1000
NOSEL
1070
     0
1002
}
1002
{
1000
BEHIND
1070
     0
1002
}
1002
{
1000
OTHER
1070
     0
1002
}
1002
{
1000
REACTOR
1002
}
1001
GENIUS_GENOBJ-N-CEN_13
1002
{
1000
OWNER
1000
GEN
1002
}
1001
GENIUS_GENCEN_19
1002
{
1040
4.0
1002
}
  0
LINE
  5
DEAA
330
1F
100
AcDbEntity
  8
フロントプレート-AM_7
 48
0.8100000000000362
100
AcDbLine
 10
6039.128476223543
 20
6612.798434521327
 30
0.0
 11
6055.328476223543
 21
6612.798434521327
 31
0.0
1001
GENIUS_GENODEF_13
1002
{
1000
HIER
1070
     0
1002
}
1002
{
1000
MANEDIT
1070
     0
1002
}
1002
{
1000
NOSEL
1070
     0
1002
}
1002
{
1000
BEHIND
1070
     0
1002
}
1002
{
1000
OTHER
1070
     0
1002
}
1002
{
1000
REACTOR
1002
}
1001
GENIUS_GENOBJ-N-CEN_13
1002
{
1000
OWNER
1000
GEN
1002
}
1001
GENIUS_GENCEN_19
1002
{
1040
4.0
1002
}
  0
LINE
  5
DEAB
330
1F
100
AcDbEntity
  8
フロントプレート-AM_0
 48
0.15
100
AcDbLine
 10
6047.728476223544
 20
6598.298434521327
 30
0.0
 11
6046.871359524324
 21
6598.298434521327
 31
0.0
  0
LINE
  5
DEAC
330
1F
100
AcDbEntity
  8
フロントプレート-AM_0
 48
0.15
100
AcDbLine
 10
6050.014181789943
 20
6601.584140087727
 30
0.0
 11
6050.871359524323
 21
6601.584140087727
 31
0.0
  0
LINE
  5
DEAD
330
1F
100
AcDbEntity
  8
フロントプレート-AM_0
 48
0.15
100
AcDbLine
 10
6051.299887356353
 20
6601.584140087727
 30
0.0
 11
6052.157065090725
 21
6601.584140087727
 31
0.0
  0
LINE
  5
DEAE
330
1F
100
AcDbEntity
  8
フロントプレート-AM_0
 48
0.15
100
AcDbLine
 10
6052.585653957914
 20
6599.155551220547
 30
0.0
 11
6052.585653957914
 21
6598.369845654136
 31
0.0
  0
LINE
  5
DEAF
330
1F
100
AcDbEntity
  8
フロントプレート-AM_0
 48
0.15
100
AcDbLine
 10
6054.585653957913
 20
6601.454135204915
 30
0.0
 11
6054.585653957913
 21
6600.726962353357
 31
0.0
  0
LINE
  5
DEB0
330
1F
100
AcDbEntity
  8
フロントプレート-AM_0
 48
0.1642852783199942
100
AcDbLine
 10
6052.157065090725
 20
6601.584140087727
 30
0.0
 11
6052.157065090725
 21
6598.298434521327
 31
0.0
  0
LINE
  5
DEB1
330
1F
100
AcDbEntity
  8
フロントプレート-AM_0
 48
0.15
100
AcDbLine
 10
6050.871359524323
 20
6601.584140087727
 30
0.0
 11
6050.060629543853
 21
6598.763690258626
 31
0.0
  0
LINE
  5
DEB2
330
1F
100
AcDbEntity
  8
フロントプレート-AM_0
 48
0.15
100
AcDbLine
 10
6050.014212307525
 20
6601.584155346516
 30
0.0
 11
6049.441061672752
 21
6599.590182568197
 31
0.0
  0
LINE
  5
DEB3
330
1F
100
AcDbEntity
  8
フロントプレート-AM_0
 48
0.1642852783199942
100
AcDbLine
 10
6051.299887356353
 20
6601.584140087727
 30
0.0
 11
6051.299887356353
 21
6598.298434521327
 31
0.0
  0
LINE
  5
DEB4
330
1F
100
AcDbEntity
  8
フロントプレート-AM_0
 48
0.15
100
AcDbLine
 10
6048.014181789944
 20
6601.584185864097
 30
0.0
 11
6048.824942287994
 21
6598.763690258626
 31
0.0
  0
LINE
  5
DEB5
330
1F
100
AcDbEntity
  8
フロントプレート-AM_0
 48
0.15
100
AcDbLine
 10
6049.442770657134
 20
6599.584155346517
 30
0.0
 11
6048.871329006744
 21
6601.584140087727
 31
0.0
  0
LINE
  5
DEB6
330
1F
100
AcDbEntity
  8
フロントプレート-AM_0
 48
0.15
100
AcDbLine
 10
6046.871359524324
 20
6598.655581738118
 30
0.0
 11
6046.157065090724
 21
6598.298434521327
 31
0.0
  0
LINE
  5
DEB7
330
1F
100
AcDbEntity
  8
フロントプレート-AM_0
 48
0.15
100
AcDbLine
 10
6044.014181789943
 20
6598.298434521327
 30
0.0
 11
6043.157065090724
 21
6598.298434521327
 31
0.0
  0
LINE
  5
DEB8
330
1F
100
AcDbEntity
  8
フロントプレート-AM_0
 48
0.15
100
AcDbLine
 10
6046.871359524324
 20
6598.655551220544
 30
0.0
 11
6046.871359524324
 21
6598.298434521327
 31
0.0
  0
LINE
  5
DEB9
330
1F
100
AcDbEntity
  8
フロントプレート-AM_0
 48
0.15
100
AcDbLine
 10
6047.728476223544
 20
6599.941256786947
 30
0.0
 11
6047.728476223544
 21
6598.298434521327
 31
0.0
  0
LINE
  5
DEBA
330
1F
100
AcDbEntity
  8
フロントプレート-AM_0
 48
0.15
100
AcDbLine
 10
6042.728476223544
 20
6599.155551220547
 30
0.0
 11
6042.728476223544
 21
6598.298434521327
 31
0.0
  0
LINE
  5
DEBB
330
1F
100
AcDbEntity
  8
フロントプレート-AM_0
 48
0.15
100
AcDbLine
 10
6042.728476223544
 20
6598.298434521327
 30
0.0
 11
6042.228476223544
 21
6598.298434521327
 31
0.0
  0
LINE
  5
DEBC
330
1F
100
AcDbEntity
  8
フロントプレート-AM_0
 48
0.15
100
AcDbLine
 10
6042.728476223544
 20
6603.298434521327
 30
0.0
 11
6042.228476223544
 21
6603.298434521327
 31
0.0
  0
LINE
  5
DEBD
330
1F
100
AcDbEntity
  8
フロントプレート-AM_0
 48
0.25
100
AcDbLine
 10
6043.157065090724
 20
6603.298434521327
 30
0.0
 11
6043.157065090724
 21
6598.298434521327
 31
0.0
  0
LINE
  5
DEBE
330
1F
100
AcDbEntity
  8
フロントプレート-AM_0
 48
0.25
100
AcDbLine
 10
6044.014181789943
 20
6603.298434521327
 30
0.0
 11
6044.014181789943
 21
6598.298434521327
 31
0.0
  0
LINE
  5
DEBF
330
1F
100
AcDbEntity
  8
フロントプレート-AM_0
 48
0.15
100
AcDbLine
 10
6042.728476223544
 20
6599.155551220547
 30
0.0
 11
6042.228476223544
 21
6599.155551220547
 31
0.0
  0
LINE
  5
DEC0
330
1F
100
AcDbEntity
  8
フロントプレート-AM_0
 48
0.15
100
AcDbLine
 10
6042.728476223544
 20
6602.441256786946
 30
0.0
 11
6042.228476223544
 21
6602.441256786946
 31
0.0
  0
LINE
  5
DEC1
330
1F
100
AcDbEntity
  8
フロントプレート-AM_0
 48
0.15
100
AcDbLine
 10
6042.728476223544
 20
6603.298434521327
 30
0.0
 11
6042.728476223544
 21
6602.441256786946
 31
0.0
  0
LINE
  5
DEC2
330
1F
100
AcDbEntity
  8
フロントプレート-AM_0
 48
0.15
100
AcDbLine
 10
6052.157065090725
 20
6598.298434521327
 30
0.0
 11
6051.299887356353
 21
6598.298434521327
 31
0.0
  0
LINE
  5
DEC3
330
1F
100
AcDbEntity
  8
フロントプレート-AM_0
 48
0.15
100
AcDbLine
 10
6044.014181789943
 20
6603.298434521327
 30
0.0
 11
6043.157065090724
 21
6603.298434521327
 31
0.0
  0
LINE
  5
DEC4
330
1F
100
AcDbEntity
  8
フロントプレート-AM_0
 48
0.15
100
AcDbLine
 10
6048.014181789944
 20
6601.584140087727
 30
0.0
 11
6048.871359524325
 21
6601.584140087727
 31
0.0
  0
LINE
  5
DEC5
330
1F
100
AcDbEntity
  8
フロントプレート-AM_0
 48
0.15
100
AcDbLine
 10
6053.499869045804
 20
6600.311602856286
 30
0.0
 11
6054.082571682524
 21
6600.128375317225
 31
0.0
  0
LINE
  5
DEC6
330
1F
100
AcDbEntity
  8
フロントプレート-AM_0
 48
0.15
100
AcDbLine
 10
6053.285605129794
 20
6599.630206371905
 30
0.0
 11
6053.868307766504
 21
6599.446963574056
 31
0.0
  0
CIRCLE
  5
DEC7
330
1F
100
AcDbEntity
  8
フロントプレート-AM_0
 48
0.4
100
AcDbCircle
 10
6051.728476223544
 20
6602.584140087727
 30
0.0
 40
0.4285714328289
  0
ARC
  5
DEC8
330
1F
100
AcDbEntity
  8
フロントプレート-AM_0
 48
0.3
100
AcDbCircle
 10
6053.379965481354
 20
6599.725741650226
 30
0.0
 40
1.571428537368799
100
AcDbArc
 50
239.636644257233
 51
311.270920366582
  0
ARC
  5
DEC9
330
1F
100
AcDbEntity
  8
フロントプレート-AM_0
 48
0.3
100
AcDbCircle
 10
6049.442770657134
 20
6598.941256786947
 30
0.0
 40
0.6428571343421999
100
AcDbArc
 50
196.0371698792257
 51
343.962826819409
  0
CIRCLE
  5
DECA
330
1F
100
AcDbEntity
  8
フロントプレート-AM_0
 48
0.4
100
AcDbCircle
 10
6046.085653957914
 20
6599.941256786947
 30
0.0
 40
0.7857142686844
  0
ARC
  5
DECB
330
1F
100
AcDbEntity
  8
フロントプレート-AM_0
 48
0.3
100
AcDbCircle
 10
6046.085653957914
 20
6599.941256786947
 30
0.0
 40
1.6428571939468
100
AcDbArc
 50
0.0000025044687019
 51
272.4918995792921
  0
ARC
  5
DECC
330
1F
100
AcDbEntity
  8
フロントプレート-AM_0
 48
0.3
100
AcDbCircle
 10
6042.228476223544
 20
6600.798434521326
 30
0.0
 40
1.6428571939468
100
AcDbArc
 50
90.00000933465788
 51
270.0000006832691
  0
ARC
  5
DECD
330
1F
100
AcDbEntity
  8
フロントプレート-AM_0
 48
0.3
100
AcDbCircle
 10
6042.228476223544
 20
6600.798434521326
 30
0.0
 40
2.5
100
AcDbArc
 50
90.00000933465788
 51
270.0000006832691
  0
ARC
  5
DECE
330
1F
100
AcDbEntity
  8
フロントプレート-AM_0
 48
0.3
100
AcDbCircle
 10
6053.585653957913
 20
6600.584140087724
 30
0.0
 40
1.0
100
AcDbArc
 50
145.1390336739179
 51
252.5443594290282
  0
ARC
  5
DECF
330
1F
100
AcDbEntity
  8
フロントプレート-AM_0
 48
0.3
100
AcDbCircle
 10
6053.585653957913
 20
6600.584140087724
 30
0.0
 40
0.2857142984867
100
AcDbArc
 50
113.1570007343888
 51
252.5443594290282
  0
ARC
  5
DED0
330
1F
100
AcDbEntity
  8
フロントプレート-AM_0
 48
0.3
100
AcDbCircle
 10
6053.803976711823
 20
6599.242587353356
 30
0.0
 40
0.9285714030265999
100
AcDbArc
 50
311.270920366582
 51
72.54437491062114
  0
ARC
  5
DED1
330
1F
100
AcDbEntity
  8
フロントプレート-AM_0
 48
0.3
100
AcDbCircle
 10
6053.803976711823
 20
6599.242587353356
 30
0.0
 40
0.2142857164145
100
AcDbArc
 50
294.1146633791661
 51
72.54437491062114
  0
ARC
  5
DED2
330
1F
100
AcDbEntity
  8
フロントプレート-AM_0
 48
0.3
100
AcDbCircle
 10
6053.337057766504
 20
6600.285678173666
 30
0.0
 40
1.3571428060532
100
AcDbArc
 50
236.3792860609033
 51
294.1146633791661
  0
ARC
  5
DED3
330
1F
100
AcDbEntity
  8
フロントプレート-AM_0
 48
0.3
100
AcDbCircle
 10
6053.922690090725
 20
6599.796054150226
 30
0.0
 40
1.142857193946799
100
AcDbArc
 50
54.54516329659211
 51
113.1569939042413
  0
ARC
  5
DED4
330
1F
100
AcDbEntity
  8
フロントプレート-AM_0
 48
0.3
100
AcDbCircle
 10
6053.922690090725
 20
6599.796054150226
 30
0.0
 40
1.7857142686844
100
AcDbArc
 50
68.20794244808611
 51
130.4108508798061
  0
LINE
  5
DEDE
102
{ACAD_REACTORS
330
E1B1
330
E261
102
}
330
1F
100
AcDbEntity
  8
フロントプレート-AM_0
100
AcDbLine
 10
5979.828476223545
 20
6622.698434521327
 30
0.0
 11
5979.828476223545
 21
6462.898434521325
 31
0.0
  0
LINE
  5
DEDF
102
{ACAD_REACTORS
330
E1B1
102
}
330
1F
100
AcDbEntity
  8
フロントプレート-AM_0
100
AcDbLine
 10
5979.828476223545
 20
6462.898434521325
 30
0.0
 11
6004.628476223544
 21
6462.898434521325
 31
0.0
  0
LINE
  5
DEE5
330
1F
100
AcDbEntity
  8
フロントプレート-AM_0
100
AcDbLine
 10
6004.628476223544
 20
6622.698434521327
 30
0.0
 11
6004.628476223544
 21
6523.624061096715
 31
0.0
  0
LINE
  5
DEE6
330
1F
100
AcDbEntity
  8
フロントプレート-AM_0
100
AcDbLine
 10
5979.828476223545
 20
6622.698434521327
 30
0.0
 11
6004.628476223544
 21
6622.698434521327
 31
0.0
  0
LINE
  5
DEE7
102
{ACAD_REACTORS
330
DF40
102
}
330
1F
100
AcDbEntity
  8
フロントプレート-AM_7
100
AcDbLine
 10
5992.228476223544
 20
6458.898434521326
 30
0.0
 11
5992.228476223544
 21
6626.698434521327
 31
0.0
1001
GENIUS_GENOBJ-N-CEN_13
1002
{
1000
OWNER
1000
GEN
1002
}
1001
GENIUS_GENODEF_13
1002
{
1000
HIER
1070
     0
1002
}
1002
{
1000
MANEDIT
1070
     0
1002
}
1002
{
1000
NOSEL
1070
     0
1002
}
1002
{
1000
BEHIND
1070
     0
1002
}
1002
{
1000
OTHER
1070
     0
1002
}
1002
{
1000
REACTOR
1002
}
1001
GENIUS_GENCEN_19
1002
{
1040
4.0
1002
}
  0
LINE
  5
DEE8
330
1F
100
AcDbEntity
  8
フロントプレート-AM_7
100
AcDbLine
 10
5975.828476223544
 20
6542.798434521326
 30
0.0
 11
6008.628476223544
 21
6542.798434521326
 31
0.0
1001
GENIUS_GENOBJ-N-CEN_13
1002
{
1000
OWNER
1000
GEN
1002
}
1001
GENIUS_GENODEF_13
1002
{
1000
HIER
1070
     0
1002
}
1002
{
1000
MANEDIT
1070
     0
1002
}
1002
{
1000
NOSEL
1070
     0
1002
}
1002
{
1000
BEHIND
1070
     0
1002
}
1002
{
1000
OTHER
1070
     0
1002
}
1002
{
1000
REACTOR
1002
}
1001
GENIUS_GENCEN_19
1002
{
1040
4.0
1002
}
  0
CIRCLE
  5
DEE9
102
{ACAD_REACTORS
330
E9E4
102
}
330
1F
100
AcDbEntity
  8
フロントプレート-AM_0
 48
0.41
100
AcDbCircle
 10
5992.228476223544
 20
6612.798434521327
 30
0.0
 40
4.299999999999998
  0
CIRCLE
  5
DEEA
330
1F
100
AcDbEntity
  8
フロントプレート-AM_0
 48
0.4
100
AcDbCircle
 10
5992.228476223544
 20
6612.798434521327
 30
0.0
 40
2.7
  0
CIRCLE
  5
DEEB
330
1F
100
AcDbEntity
  8
フロントプレート-AM_0
 48
0.41
100
AcDbCircle
 10
5992.228476223544
 20
6472.798434521326
 30
0.0
 40
4.299999999999998
  0
CIRCLE
  5
DEEC
330
1F
100
AcDbEntity
  8
フロントプレート-AM_0
 48
0.4
100
AcDbCircle
 10
5992.228476223544
 20
6472.798434521326
 30
0.0
 40
2.7
  0
LINE
  5
DEF1
102
{ACAD_REACTORS
330
E23B
102
}
330
1F
100
AcDbEntity
  8
フロントプレート-AM_7
 48
0.8100000000000362
100
AcDbLine
 10
5984.128476223544
 20
6472.798434521326
 30
0.0
 11
6000.328476223543
 21
6472.798434521326
 31
0.0
1001
GENIUS_GENODEF_13
1002
{
1000
HIER
1070
     0
1002
}
1002
{
1000
MANEDIT
1070
     0
1002
}
1002
{
1000
NOSEL
1070
     0
1002
}
1002
{
1000
BEHIND
1070
     0
1002
}
1002
{
1000
OTHER
1070
     0
1002
}
1002
{
1000
REACTOR
1002
}
1001
GENIUS_GENOBJ-N-CEN_13
1002
{
1000
OWNER
1000
GEN
1002
}
1001
GENIUS_GENCEN_19
1002
{
1040
4.0
1002
}
  0
LINE
  5
DEF2
330
1F
100
AcDbEntity
  8
フロントプレート-AM_7
 48
0.8100000000000362
100
AcDbLine
 10
5984.128476223544
 20
6612.798434521327
 30
0.0
 11
6000.328476223543
 21
6612.798434521327
 31
0.0
1001
GENIUS_GENODEF_13
1002
{
1000
HIER
1070
     0
1002
}
1002
{
1000
MANEDIT
1070
     0
1002
}
1002
{
1000
NOSEL
1070
     0
1002
}
1002
{
1000
BEHIND
1070
     0
1002
}
1002
{
1000
OTHER
1070
     0
1002
}
1002
{
1000
REACTOR
1002
}
1001
GENIUS_GENOBJ-N-CEN_13
1002
{
1000
OWNER
1000
GEN
1002
}
1001
GENIUS_GENCEN_19
1002
{
1040
4.0
1002
}
  0
DIMENSION
  5
DF32
102
{ACAD_XDICTIONARY
360
DF3F
102
}
102
{ACAD_REACTORS
330
DF40
102
}
330
1F
100
AcDbEntity
  8
AM_5
100
AcDbDimension
  2
*D4
 10
6047.228476223544
 20
6638.698434521327
 30
0.0
 11
6019.728476223544
 21
6644.465101187993
 31
0.0
 70
    32
  1
使用可能範囲\P25～125
 71
     5
 42
55.0
  3
SYS$0
100
AcDbAlignedDimension
 13
5992.228476223544
 23
6626.698434521327
 33
0.0
 14
6047.228476223544
 24
6626.698434521327
 34
0.0
100
AcDbRotatedDimension
  0
LINE
  5
DFC2
330
1F
100
AcDbEntity
  8
ケーブル-AM_0
100
AcDbLine
 10
6052.728476223542
 20
6570.998434521325
 30
0.0
 11
6052.728476223542
 21
6539.623748593662
 31
0.0
  0
LINE
  5
DFC3
330
1F
100
AcDbEntity
  8
ケーブル-AM_0
100
AcDbLine
 10
6041.728476223545
 20
6570.998434521328
 30
0.0
 11
6041.728476223544
 21
6539.623748593662
 31
0.0
  0
LINE
  5
DFC4
330
1F
100
AcDbEntity
  8
ケーブル-AM_7
100
AcDbLine
 10
6047.228476223544
 20
6573.991041463267
 30
0.0
 11
6047.228476223544
 21
6536.998434521327
 31
0.0
  0
ARC
  5
DFD4
330
1F
100
AcDbEntity
  8
ケーブル-AM_7
100
AcDbCircle
 10
6019.728476223544
 20
6539.623748593662
 30
0.0
 40
27.5
100
AcDbArc
 50
180.0
 51
0.0
  0
LINE
  5
DFE5
330
1F
100
AcDbEntity
  8
ケーブル-AM_0
100
AcDbLine
 10
5986.728476223547
 20
6570.898434521325
 30
0.0
 11
5986.728476223546
 21
6539.623748593662
 31
0.0
  0
LINE
  5
DFE6
330
1F
100
AcDbEntity
  8
ケーブル-AM_0
100
AcDbLine
 10
5997.728476223544
 20
6570.898434521325
 30
0.0
 11
5997.728476223545
 21
6539.623748593662
 31
0.0
  0
ARC
  5
DFE7
330
1F
100
AcDbEntity
  8
ケーブル-AM_0
100
AcDbCircle
 10
6019.728476223544
 20
6539.623748593662
 30
0.0
 40
33.0
100
AcDbArc
 50
179.9999999999984
 51
0.0
  0
ARC
  5
DFE8
330
1F
100
AcDbEntity
  8
ケーブル-AM_0
100
AcDbCircle
 10
6019.728476223544
 20
6539.623748593662
 30
0.0
 40
22.0
100
AcDbArc
 50
180.0
 51
0.0
  0
LINE
  5
E081
330
1F
100
AcDbEntity
  8
フロントプレート-AM_0
100
AcDbLine
 10
6004.628476223544
 20
6510.281117491459
 30
0.0
 11
6004.628476223544
 21
6462.898434521325
 31
0.0
  0
LINE
  5
E083
330
1F
100
AcDbEntity
  8
フロントプレート-AM_0
100
AcDbLine
 10
6034.828476223545
 20
6510.281117491459
 30
0.0
 11
6034.828476223545
 21
6462.898434521325
 31
0.0
  0
LINE
  5
E084
330
1F
100
AcDbEntity
  8
フロントプレート-AM_0
100
AcDbLine
 10
6041.228476223547
 20
6514.588773059424
 30
0.0
 11
6041.228476223547
 21
6494.998434521324
 31
0.0
  0
LINE
  5
E085
330
1F
100
AcDbEntity
  8
フロントプレート-AM_0
100
AcDbLine
 10
6039.228476223546
 20
6529.437974199933
 30
0.0
 11
6039.228476223545
 21
6569.998434521327
 31
0.0
  0
DIMENSION
  5
E09F
102
{ACAD_XDICTIONARY
360
E0AE
102
}
102
{ACAD_REACTORS
330
E0AF
102
}
330
1F
100
AcDbEntity
  8
AM_5
100
AcDbDimension
  2
*D5
 10
5828.51704536619
 20
6450.898434521326
 30
0.0
 11
5832.763712032857
 21
6453.998434521324
 31
0.0
 70
    32
 71
     5
 42
3.0
  3
SYS$0
100
AcDbAlignedDimension
 13
5825.51704536619
 23
6463.898434521325
 33
0.0
 14
5828.51704536619
 24
6462.898434521325
 34
0.0
 50
0.0000000000001018
100
AcDbRotatedDimension
  0
DIMENSION
  5
E0C9
102
{ACAD_XDICTIONARY
360
E0D6
102
}
102
{ACAD_REACTORS
330
E0D7
102
}
330
1F
100
AcDbEntity
  8
AM_5
100
AcDbDimension
  2
*D6
 10
5845.51704536619
 20
6442.898434521325
 30
0.0
 11
5835.517045366191
 21
6445.998434521325
 31
0.0
 70
    32
 71
     5
 42
20.0
  3
SYS$0
100
AcDbAlignedDimension
 13
5825.51704536619
 23
6463.898434521325
 33
0.0
 14
5845.51704536619
 24
6514.95047792697
 34
0.0
 50
0.0000000000001018
100
AcDbRotatedDimension
  0
DIMENSION
  5
E0EF
102
{ACAD_XDICTIONARY
360
E0FE
102
}
102
{ACAD_REACTORS
330
E0FF
102
}
330
1F
100
AcDbEntity
  8
AM_5
100
AcDbDimension
  2
*D7
 10
5820.517045366191
 20
6450.898434521326
 30
0.0
 11
5816.270378699524
 21
6453.998434521324
 31
0.0
 70
    32
 71
     5
 42
3.0
  3
SYS$0
100
AcDbAlignedDimension
 13
5823.517045366191
 23
6463.898434521325
 33
0.0
 14
5820.517045366191
 24
6462.898434521325
 34
0.0
 50
0.0000000000001018
100
AcDbRotatedDimension
  0
DIMENSION
  5
E119
102
{ACAD_XDICTIONARY
360
E126
102
}
102
{ACAD_REACTORS
330
E127
102
}
330
1F
100
AcDbEntity
  8
AM_5
100
AcDbDimension
  2
*D8
 10
5781.517045366191
 20
6442.898434521325
 30
0.0
 11
5802.51704536619
 21
6445.998434521325
 31
0.0
 70
    32
 71
     5
 42
41.99999999999909
  3
SYS$0
100
AcDbAlignedDimension
 13
5823.517045366191
 23
6463.898434521325
 33
0.0
 14
5781.517045366191
 24
6503.498434521326
 34
0.0
 50
0.0000000000001018
100
AcDbRotatedDimension
  0
DIMENSION
  5
E13F
102
{ACAD_XDICTIONARY
360
E14E
102
}
102
{ACAD_REACTORS
330
E14F
102
}
330
1F
100
AcDbEntity
  8
AM_5
100
AcDbDimension
  2
*D9
 10
5825.51704536619
 20
6442.898434521325
 30
0.0
 11
5830.728594983266
 21
6432.567793330561
 31
0.0
 70
   160
  1
チリ<>～6
 71
     5
 42
2.0
  3
SYS$0
100
AcDbAlignedDimension
 13
5823.517045366191
 23
6463.898434521325
 33
0.0
 14
5825.51704536619
 24
6463.898434521325
 34
0.0
 50
0.0000000000001018
100
AcDbRotatedDimension
1001
ACAD
1000
DSTYLE
1002
{
1070
   279
1070
     1
1002
}
  0
DIMENSION
  5
E1A3
102
{ACAD_XDICTIONARY
360
E1B0
102
}
102
{ACAD_REACTORS
330
E1B1
102
}
330
1F
100
AcDbEntity
  8
AM_5
100
AcDbDimension
  2
*D10
 10
5979.828476223545
 20
6445.898434521325
 30
0.0
 11
5992.228476223544
 21
6451.66510118799
 31
0.0
 70
    32
  1
<>\P（切欠き25）
 71
     5
 42
24.80000000000018
  3
SYS$0
100
AcDbAlignedDimension
 13
6004.628476223544
 23
6462.898434521325
 33
0.0
 14
5979.828476223545
 24
6462.898434521325
 34
0.0
 50
0.0000000000001018
100
AcDbRotatedDimension
  0
DIMENSION
  5
E206
330
1F
100
AcDbEntity
  8
AM_5
100
AcDbDimension
  2
*D11
 10
6034.828476223545
 20
6445.898434521325
 30
0.0
 11
6047.228476223545
 21
6451.66510118799
 31
0.0
 70
    32
  1
<>\P（切欠き25）
 71
     5
 42
24.80000000000018
  3
SYS$0
100
AcDbAlignedDimension
 13
6059.628476223545
 23
6462.898434521325
 33
0.0
 14
6034.828476223545
 24
6462.898434521325
 34
0.0
 50
0.0000000000001018
100
AcDbRotatedDimension
  0
DIMENSION
  5
E22D
102
{ACAD_XDICTIONARY
360
E23A
102
}
102
{ACAD_REACTORS
330
E23B
102
}
330
1F
100
AcDbEntity
  8
AM_5
100
AcDbDimension
  2
*D12
 10
5967.828476223544
 20
6612.798434521327
 30
0.0
 11
5964.728476223542
 21
6542.798434521327
 31
0.0
 70
    32
 71
     5
 42
140.0
  3
SYS$0
100
AcDbAlignedDimension
 13
5984.128476223544
 23
6472.798434521326
 33
0.0
 14
5984.128476223544
 24
6612.798434521327
 34
0.0
 50
90.00000000000005
100
AcDbRotatedDimension
  0
DIMENSION
  5
E253
102
{ACAD_XDICTIONARY
360
E260
102
}
102
{ACAD_REACTORS
330
E261
102
}
330
1F
100
AcDbEntity
  8
AM_5
100
AcDbDimension
  2
*D13
 10
5959.778475723545
 20
6622.698434521327
 30
0.0
 11
5956.678475723544
 21
6542.798434521327
 31
0.0
 70
    32
  1
<>（切欠き160）
 71
     5
 42
159.8000000000011
  3
SYS$0
100
AcDbAlignedDimension
 13
5979.828476223545
 23
6462.898434521325
 33
0.0
 14
5979.828476223545
 24
6622.698434521327
 34
0.0
 50
90.0
100
AcDbRotatedDimension
  0
DIMENSION
  5
E2D1
330
1F
100
AcDbEntity
  8
AM_5
100
AcDbDimension
  2
*D14
 10
5857.517045366191
 20
6483.798434521324
 30
0.0
 11
5854.417045366189
 21
6542.798434521327
 31
0.0
 70
    32
  1
<>（切欠き120）
 71
     5
 42
118.0
  3
SYS$0
100
AcDbAlignedDimension
 13
5828.51704536619
 23
6601.798434521325
 33
0.0
 14
5828.51704536619
 24
6483.798434521324
 34
0.0
 50
90.00000000000005
100
AcDbRotatedDimension
1001
ACAD
1000
DSTYLE
1002
{
1070
   271
1070
     0
1002
}
  0
DIMENSION
  5
E385
330
1F
100
AcDbEntity
  8
AM_5
100
AcDbDimension
  2
*D15
 10
5766.828387076316
 20
6601.798434521325
 30
0.0
 11
5763.728387076313
 21
6542.798434521327
 31
0.0
 70
    32
  1
<>（切欠き120）
 71
     5
 42
118.0
  3
SYS$0
100
AcDbAlignedDimension
 13
5820.517045366191
 23
6483.798434521324
 33
0.0
 14
5820.517045366191
 24
6601.798434521325
 34
0.0
 50
90.00000000000005
100
AcDbRotatedDimension
1001
ACAD
1000
DSTYLE
1002
{
1070
   271
1070
     0
1002
}
  0
LINE
  5
E495
330
1F
100
AcDbEntity
  8
AM_2
100
AcDbLine
 10
5694.456552614195
 20
6688.062992781613
 30
0.0
 11
5789.026064109612
 21
6688.062992781613
 31
0.0
  0
LINE
  5
E496
330
1F
100
AcDbEntity
  8
AM_2
100
AcDbLine
 10
5694.456552614195
 20
6648.062992781612
 30
0.0
 11
5789.026064109612
 21
6648.062992781612
 31
0.0
  0
LINE
  5
E498
330
1F
100
AcDbEntity
  8
AM_2
100
AcDbLine
 10
5694.456552614195
 20
6648.062992781612
 30
0.0
 11
5789.026064109612
 21
6648.062992781612
 31
0.0
  0
LINE
  5
E499
330
1F
100
AcDbEntity
  8
AM_2
100
AcDbLine
 10
5694.456552614192
 20
6656.062992781612
 30
0.0
 11
5789.02606410961
 21
6656.062992781612
 31
0.0
  0
LINE
  5
E49A
330
1F
100
AcDbEntity
  8
AM_2
100
AcDbLine
 10
5717.456552614194
 20
6672.062992781613
 30
0.0
 11
5789.026064109612
 21
6672.062992781613
 31
0.0
  0
LINE
  5
E49B
330
1F
100
AcDbEntity
  8
AM_2
100
AcDbLine
 10
5717.456552614194
 20
6680.062992781613
 30
0.0
 11
5789.026064109612
 21
6680.062992781613
 31
0.0
  0
LINE
  5
E49C
330
1F
100
AcDbEntity
  8
AM_0
100
AcDbLine
 10
5789.026064109612
 20
6704.062992781611
 30
0.0
 11
5789.026064109612
 21
6648.062992781612
 31
0.0
  0
LINE
  5
E49D
330
1F
100
AcDbEntity
  8
AM_2
100
AcDbLine
 10
5717.456552614193
 20
6704.062992781611
 30
0.0
 11
5717.456552614193
 21
6648.062992781612
 31
0.0
  0
MTEXT
  5
E49F
330
1F
100
AcDbEntity
  8
AM_6
100
AcDbMText
 10
5705.956552614193
 20
6652.062992781613
 30
0.0
 40
3.2
 41
23.0
 71
     5
 72
     5
  1
セットビス
 73
     1
 44
1.0
1001
ACAD
1000
MTEXTBEGIN
1070
    73
1070
     1
1070
    44
1040
1.0
1070
    74
1070
     0
1000
MTEXTEND
  0
MTEXT
  5
E4A2
330
1F
100
AcDbEntity
  8
AM_6
100
AcDbMText
 10
5705.956552614193
 20
6672.062992781613
 30
0.0
 40
3.2
 41
23.0
 71
     5
 72
     5
  1
基本部材
 73
     1
 44
1.0
1001
ACAD
1000
MTEXTBEGIN
1070
    73
1070
     1
1070
    44
1040
1.0
1070
    74
1070
     0
1000
MTEXTEND
1000
ACAD_MTEXT_DEFINED_HEIGHT_BEGIN
1070
    46
1040
32.00000000000019
1000
ACAD_MTEXT_DEFINED_HEIGHT_END
  0
MTEXT
  5
E4A4
330
1F
100
AcDbEntity
  8
AM_6
100
AcDbMText
 10
5717.456552614193
 20
6652.062992781613
 30
0.0
 40
3.2
 41
90.0
 71
     4
 72
     5
  1
　M4×12十字孔付皿小ネジ　4本
 73
     1
 44
1.0
1001
ACAD
1000
MTEXTBEGIN
1070
    73
1070
     1
1070
    44
1040
1.0
1070
    74
1070
     0
1000
MTEXTEND
  0
MTEXT
  5
E4A6
330
1F
100
AcDbEntity
  8
AM_6
100
AcDbMText
 10
5717.456552614193
 20
6668.062992781613
 30
0.0
 40
3.2
 41
90.0
 71
     4
 72
     5
  1
　リード線：UL1007　AWG22
 73
     1
 44
1.0
1001
ACAD
1000
MTEXTBEGIN
1070
    73
1070
     1
1070
    44
1040
1.0
1070
    74
1070
     0
1000
MTEXTEND
  0
MTEXT
  5
E4A8
330
1F
100
AcDbEntity
  8
AM_6
100
AcDbMText
 10
5717.456552614193
 20
6684.062992781612
 30
0.0
 40
3.2
 41
90.0
 71
     4
 72
     5
  1
　フロントプレート：ステンレス
 73
     1
 44
1.0
1001
ACAD
1000
MTEXTBEGIN
1070
    73
1070
     1
1070
    44
1040
1.0
1070
    74
1070
     0
1000
MTEXTEND
  0
LINE
  5
E4AA
330
1F
100
AcDbEntity
  8
AM_0
100
AcDbLine
 10
5694.456552614195
 20
6648.062992781612
 30
0.0
 11
5789.026064109612
 21
6648.062992781612
 31
0.0
  0
MTEXT
  5
E4AF
330
1F
100
AcDbEntity
  8
AM_6
100
AcDbMText
 10
5717.456552614192
 20
6676.062992781611
 30
0.0
 40
3.2
 41
90.0
 71
     4
 72
     5
  1
　ケース：スチール
 73
     1
 44
1.0
1001
ACAD
1000
MTEXTBEGIN
1070
    73
1070
     1
1070
    44
1040
1.0
1070
    74
1070
     0
1000
MTEXTEND
  0
DIMENSION
  5
E9D7
102
{ACAD_XDICTIONARY
360
E9E3
102
}
102
{ACAD_REACTORS
330
E9E4
102
}
330
1F
100
AcDbEntity
  8
AM_5
100
AcDbDimension
  2
*D17
 10
5994.802986159026
 20
6609.354323809968
 30
0.0
 11
5960.978583962077
 21
6634.431868721439
 31
0.0
 70
   163
  1
4-%%c5.4×<>皿孔
 71
     5
 42
8.599999999999454
  3
SYS$3
100
AcDbDiametricDimension
 15
5989.653966288058
 25
6616.242545232684
 35
0.0
 40
0.0
  0
LINE
  5
EA1C
330
1F
100
AcDbEntity
  8
フロントプレート-AM_7
 48
0.55
100
AcDbLine
 10
5816.51704536619
 20
6472.798434521326
 30
0.0
 11
5832.51704536619
 21
6472.798434521326
 31
0.0
1001
GENIUS_GENODEF_13
1002
{
1000
HIER
1070
     0
1002
}
1002
{
1000
MANEDIT
1070
     0
1002
}
1002
{
1000
NOSEL
1070
     0
1002
}
1002
{
1000
BEHIND
1070
     0
1002
}
1002
{
1000
OTHER
1070
     0
1002
}
1002
{
1000
REACTOR
1002
}
1001
GENIUS_GENOBJ-N-CEN_13
1002
{
1000
OWNER
1000
GEN
1002
}
1001
GENIUS_GENCEN_19
1002
{
1040
4.0
1002
}
  0
LINE
  5
EA36
330
1F
100
AcDbEntity
  8
フロントプレート-AM_0
 48
0.2185474903505565
100
AcDbLine
 10
6041.228476223546
 20
6539.331008874139
 30
0.0
 11
6041.228476223546
 21
6534.960059067128
 31
0.0
  0
LINE
  5
EA37
330
1F
100
AcDbEntity
  8
フロントプレート-AM_0
 48
0.382875787779858
100
AcDbLine
 10
6040.241726523786
 20
6531.673493118548
 30
0.0
 11
6040.241726523786
 21
6539.331008874146
 31
0.0
  0
ELLIPSE
  5
EA38
330
1F
100
AcDbEntity
  8
フロントプレート-AM_0
 48
1.01
100
AcDbEllipse
 10
6057.460223921712
 20
6539.331008874146
 30
0.0
 11
0.0
 21
20.0
 31
0.0
210
0.0
220
0.0
230
1.0
 40
0.1622498999204708
 41
1.006800995936139
 42
1.570796326794896
  0
LINE
  5
EA39
330
1F
100
AcDbEntity
  8
フロントプレート-AM_0
 48
0.2501110980651333
100
AcDbLine
 10
6055.228476223544
 20
6554.998434521326
 30
0.0
 11
6054.717791451797
 21
6550.022349150872
 31
0.0
  0
LINE
  5
EA3A
330
1F
100
AcDbEntity
  8
フロントプレート-AM_0
 48
0.2499784373580131
100
AcDbLine
 10
6054.215047995247
 20
6554.998434521334
 30
0.0
 11
6053.731041752039
 21
6550.022349150873
 31
0.0
  0
ELLIPSE
  5
EA3B
330
1F
100
AcDbEntity
  8
フロントプレート-AM_0
 48
1.01
100
AcDbEllipse
 10
6056.473474221953
 20
6539.331008874146
 30
0.0
 11
0.0
 21
20.0
 31
0.0
210
0.0
220
0.0
230
1.0
 40
0.1622498999204708
 41
1.006800995936139
 42
1.570796326794896
  0
ELLIPSE
  5
EA3D
330
1F
100
AcDbEntity
  8
フロントプレート-AM_0
 48
1.01
100
AcDbEllipse
 10
6036.996728525377
 20
6539.331008874146
 30
0.0
 11
0.0
 21
20.0
 31
0.0
210
0.0
220
0.0
230
-1.0
 40
0.1622498999204708
 41
1.006800995936139
 42
1.570796326794896
  0
LINE
  5
EA3E
330
1F
100
AcDbEntity
  8
フロントプレート-AM_0
 48
0.2501110980651333
100
AcDbLine
 10
6039.228476223544
 20
6554.998434521326
 30
0.0
 11
6039.73916099529
 21
6550.022349150872
 31
0.0
  0
LINE
  5
EA3F
330
1F
100
AcDbEntity
  8
フロントプレート-AM_0
 48
0.2499784373580131
100
AcDbLine
 10
6040.241904451841
 20
6554.998434521334
 30
0.0
 11
6040.72591069505
 21
6550.022349150873
 31
0.0
  0
ELLIPSE
  5
EA40
330
1F
100
AcDbEntity
  8
フロントプレート-AM_0
 48
1.01
100
AcDbEllipse
 10
6037.983478225136
 20
6539.331008874146
 30
0.0
 11
0.0
 21
20.0
 31
0.0
210
0.0
220
0.0
230
-1.0
 40
0.1622498999204708
 41
1.006800995936139
 42
1.570796326794896
  0
LINE
  5
EAF4
330
1F
100
AcDbEntity
  8
フロントプレート-AM_0
 48
0.3039389504583774
100
AcDbLine
 10
5825.51704536619
 20
6554.998434521327
 30
0.0
 11
5823.517045366188
 21
6551.752866697103
 31
0.0
  0
LINE
  5
ED2D
330
1F
100
AcDbEntity
  8
AM_0
 48
0.5
100
AcDbLine
 10
5914.451973203489
 20
6591.202532791303
 30
0.0
 11
5916.95197320349
 21
6593.702532791302
 31
0.0
  0
LINE
  5
ED2E
330
1F
100
AcDbEntity
  8
AM_0
100
AcDbLine
 10
5937.80197167761
 20
6596.952532791303
 30
0.0
 11
5900.301964048214
 21
6596.952532791303
 31
0.0
  0
LINE
  5
ED2F
330
1F
100
AcDbEntity
  8
AM_0
100
AcDbLine
 10
5937.80197167761
 20
6559.452532791309
 30
0.0
 11
5900.301964048214
 21
6559.452532791309
 31
0.0
  0
LINE
  5
ED30
330
1F
100
AcDbEntity
  8
AM_0
100
AcDbLine
 10
5932.051971677609
 20
6562.702532791307
 30
0.0
 11
5906.051964048214
 21
6562.702532791307
 31
0.0
  0
CIRCLE
  5
ED31
330
1F
100
AcDbEntity
  8
AM_2
100
AcDbCircle
 10
5909.851967099974
 20
6569.002532028368
 30
0.0
 40
3.125
  0
CIRCLE
  5
ED32
330
1F
100
AcDbEntity
  8
AM_2
100
AcDbCircle
 10
5909.851967099974
 20
6569.002532028368
 30
0.0
 40
2.5
  0
LINE
  5
ED33
330
1F
100
AcDbEntity
  8
AM_0
100
AcDbLine
 10
5900.301964048214
 20
6559.452532791309
 30
0.0
 11
5900.301964048214
 21
6596.952532791303
 31
0.0
  0
LINE
  5
ED34
330
1F
100
AcDbEntity
  8
AM_0
100
AcDbLine
 10
5903.551964048214
 20
6565.202532791307
 30
0.0
 11
5903.551964048214
 21
6593.702532791302
 31
0.0
  0
LINE
  5
ED35
330
1F
100
AcDbEntity
  8
AM_0
 48
0.5
100
AcDbLine
 10
5903.551964048214
 20
6565.202536606005
 30
0.0
 11
5906.051964048214
 21
6562.702536606003
 31
0.0
  0
LINE
  5
ED36
330
1F
100
AcDbEntity
  8
AM_0
 48
0.5
100
AcDbLine
 10
5914.451973203489
 20
6591.202532791303
 30
0.0
 11
5911.951973203489
 21
6593.702532791302
 31
0.0
  0
CIRCLE
  5
ED37
330
1F
100
AcDbEntity
  8
AM_2
 48
0.5
100
AcDbCircle
 10
5912.851982358765
 20
6590.652529739549
 30
0.0
 40
1.25
  0
CIRCLE
  5
ED38
330
1F
100
AcDbEntity
  8
AM_2
100
AcDbCircle
 10
5909.851967099974
 20
6578.202532791303
 30
0.0
 40
3.125
  0
CIRCLE
  5
ED39
330
1F
100
AcDbEntity
  8
AM_2
100
AcDbCircle
 10
5909.851967099974
 20
6578.202532791303
 30
0.0
 40
2.5
  0
CIRCLE
  5
ED3A
330
1F
100
AcDbEntity
  8
AM_2
100
AcDbCircle
 10
5909.851967099974
 20
6587.402529739549
 30
0.0
 40
3.125
  0
CIRCLE
  5
ED3B
330
1F
100
AcDbEntity
  8
AM_2
100
AcDbCircle
 10
5909.851967099974
 20
6587.402529739549
 30
0.0
 40
2.5
  0
CIRCLE
  5
ED3C
330
1F
100
AcDbEntity
  8
AM_2
 48
0.5
100
AcDbCircle
 10
5912.851982358765
 20
6581.452532791303
 30
0.0
 40
1.25
  0
CIRCLE
  5
ED3D
330
1F
100
AcDbEntity
  8
AM_2
 48
0.5
100
AcDbCircle
 10
5912.851982358765
 20
6572.252535843064
 30
0.0
 40
1.25
  0
MTEXT
  5
ED3E
330
1F
100
AcDbEntity
  8
AM_6
100
AcDbMText
 10
5912.566232357097
 20
6572.252535843064
 30
0.0
 40
1.6
 41
0.0
 71
     4
 72
     5
  1
９
 73
     1
 44
1.0
1001
ACAD
1000
MTEXTBEGIN
1070
    73
1070
     1
1070
    44
1040
1.0
1070
    74
1070
     0
1000
MTEXTEND
  0
MTEXT
  5
ED3F
330
1F
100
AcDbEntity
  8
AM_6
100
AcDbMText
 10
5912.566232357097
 20
6581.452532791303
 30
0.0
 40
1.6
 41
0.0
 71
     4
 72
     5
  1
６
 73
     1
 44
1.0
1001
ACAD
1000
MTEXTBEGIN
1070
    73
1070
     1
1070
    44
1040
1.0
1070
    74
1070
     0
1000
MTEXTEND
  0
MTEXT
  5
ED40
330
1F
100
AcDbEntity
  8
AM_6
100
AcDbMText
 10
5912.566232357097
 20
6590.652529739549
 30
0.0
 40
1.6
 41
0.0
 71
     4
 72
     5
  1
３
 73
     1
 44
1.0
1001
ACAD
1000
MTEXTBEGIN
1070
    73
1070
     1
1070
    44
1040
1.0
1070
    74
1070
     0
1000
MTEXTEND
  0
LINE
  5
ED41
330
1F
100
AcDbEntity
  8
AM_0
 48
0.5
100
AcDbLine
 10
5911.951973203489
 20
6593.702532791302
 30
0.0
 11
5903.551964048214
 21
6593.702532791302
 31
0.0
  0
CIRCLE
  5
ED42
330
1F
100
AcDbEntity
  8
AM_2
100
AcDbCircle
 10
5928.251968625854
 20
6569.002532028368
 30
0.0
 40
3.125
  0
CIRCLE
  5
ED43
330
1F
100
AcDbEntity
  8
AM_2
100
AcDbCircle
 10
5928.251968625854
 20
6569.002532028368
 30
0.0
 40
2.5
  0
LINE
  5
ED44
330
1F
100
AcDbEntity
  8
AM_0
100
AcDbLine
 10
5937.80197167761
 20
6559.452532791309
 30
0.0
 11
5937.80197167761
 21
6596.952532791303
 31
0.0
  0
LINE
  5
ED45
330
1F
100
AcDbEntity
  8
AM_0
100
AcDbLine
 10
5934.55197167761
 20
6565.202532791307
 30
0.0
 11
5934.55197167761
 21
6593.702532791302
 31
0.0
  0
CIRCLE
  5
ED46
330
1F
100
AcDbEntity
  8
AM_2
100
AcDbCircle
 10
5919.05197167761
 20
6569.002532028368
 30
0.0
 40
3.125
  0
CIRCLE
  5
ED47
330
1F
100
AcDbEntity
  8
AM_2
100
AcDbCircle
 10
5919.05197167761
 20
6569.002532028368
 30
0.0
 40
2.5
  0
LINE
  5
ED48
330
1F
100
AcDbEntity
  8
AM_0
 48
0.5
100
AcDbLine
 10
5932.051971677609
 20
6562.702532791307
 30
0.0
 11
5934.55197167761
 21
6565.202532791307
 31
0.0
  0
LINE
  5
ED49
330
1F
100
AcDbEntity
  8
AM_0
 48
0.5
100
AcDbLine
 10
5934.55197167761
 20
6593.702532791302
 30
0.0
 11
5926.15197015173
 21
6593.702532791302
 31
0.0
  0
CIRCLE
  5
ED4A
330
1F
100
AcDbEntity
  8
AM_2
100
AcDbCircle
 10
5928.251968625854
 20
6587.402529739549
 30
0.0
 40
3.125
  0
CIRCLE
  5
ED4B
330
1F
100
AcDbEntity
  8
AM_2
100
AcDbCircle
 10
5928.251968625854
 20
6587.402529739549
 30
0.0
 40
2.5
  0
CIRCLE
  5
ED4C
330
1F
100
AcDbEntity
  8
AM_2
 48
0.5
100
AcDbCircle
 10
5931.251968625854
 20
6572.252535843064
 30
0.0
 40
1.25
  0
CIRCLE
  5
ED4D
330
1F
100
AcDbEntity
  8
AM_2
 48
0.5
100
AcDbCircle
 10
5931.251968625854
 20
6581.452532791303
 30
0.0
 40
1.25
  0
CIRCLE
  5
ED4E
330
1F
100
AcDbEntity
  8
AM_2
100
AcDbCircle
 10
5928.251968625854
 20
6578.202532791303
 30
0.0
 40
2.5
  0
CIRCLE
  5
ED4F
330
1F
100
AcDbEntity
  8
AM_2
100
AcDbCircle
 10
5928.251968625854
 20
6578.202532791303
 30
0.0
 40
3.125
  0
CIRCLE
  5
ED50
330
1F
100
AcDbEntity
  8
AM_2
 48
0.5
100
AcDbCircle
 10
5931.251968625854
 20
6590.652529739549
 30
0.0
 40
1.25
  0
LINE
  5
ED51
330
1F
100
AcDbEntity
  8
AM_0
 48
0.5
100
AcDbLine
 10
5923.65196252234
 20
6591.2025404207
 30
0.0
 11
5926.151962522339
 21
6593.702540420699
 31
0.0
  0
LINE
  5
ED52
330
1F
100
AcDbEntity
  8
AM_0
 48
0.5
100
AcDbLine
 10
5923.65196252234
 20
6591.2025404207
 30
0.0
 11
5921.15197015173
 21
6593.702532791302
 31
0.0
  0
CIRCLE
  5
ED53
330
1F
100
AcDbEntity
  8
AM_2
 48
0.5
100
AcDbCircle
 10
5922.05197167761
 20
6590.652529739549
 30
0.0
 40
1.25
  0
CIRCLE
  5
ED54
330
1F
100
AcDbEntity
  8
AM_2
 48
0.5
100
AcDbCircle
 10
5922.05197167761
 20
6572.252535843064
 30
0.0
 40
1.25
  0
CIRCLE
  5
ED55
330
1F
100
AcDbEntity
  8
AM_2
 48
0.5
100
AcDbCircle
 10
5922.05197167761
 20
6581.452532791303
 30
0.0
 40
1.25
  0
CIRCLE
  5
ED56
330
1F
100
AcDbEntity
  8
AM_2
100
AcDbCircle
 10
5919.05197167761
 20
6578.202532791303
 30
0.0
 40
2.5
  0
CIRCLE
  5
ED57
330
1F
100
AcDbEntity
  8
AM_2
100
AcDbCircle
 10
5919.05197167761
 20
6578.202532791303
 30
0.0
 40
3.125
  0
MTEXT
  5
ED58
330
1F
100
AcDbEntity
  8
AM_6
100
AcDbMText
 10
5921.766221675941
 20
6572.252535843064
 30
0.0
 40
1.6
 41
0.0
 71
     4
 72
     5
  1
８
 73
     1
 44
1.0
1001
ACAD
1000
MTEXTBEGIN
1070
    73
1070
     1
1070
    44
1040
1.0
1070
    74
1070
     0
1000
MTEXTEND
  0
CIRCLE
  5
ED59
330
1F
100
AcDbEntity
  8
AM_2
100
AcDbCircle
 10
5919.05197167761
 20
6587.402529739549
 30
0.0
 40
2.5
  0
CIRCLE
  5
ED5A
330
1F
100
AcDbEntity
  8
AM_2
100
AcDbCircle
 10
5919.05197167761
 20
6587.402529739549
 30
0.0
 40
3.125
  0
MTEXT
  5
ED5B
330
1F
100
AcDbEntity
  8
AM_6
100
AcDbMText
 10
5921.766221675941
 20
6581.452532791303
 30
0.0
 40
1.6
 41
0.0
 71
     4
 72
     5
  1
５
 73
     1
 44
1.0
1001
ACAD
1000
MTEXTBEGIN
1070
    73
1070
     1
1070
    44
1040
1.0
1070
    74
1070
     0
1000
MTEXTEND
  0
MTEXT
  5
ED5C
330
1F
100
AcDbEntity
  8
AM_6
100
AcDbMText
 10
5921.766221675941
 20
6590.652529739549
 30
0.0
 40
1.6
 41
0.0
 71
     4
 72
     5
  1
２
 73
     1
 44
1.0
1001
ACAD
1000
MTEXTBEGIN
1070
    73
1070
     1
1070
    44
1040
1.0
1070
    74
1070
     0
1000
MTEXTEND
  0
LINE
  5
ED5D
330
1F
100
AcDbEntity
  8
AM_0
 48
0.5
100
AcDbLine
 10
5921.15197015173
 20
6593.702532791302
 30
0.0
 11
5916.95197320349
 21
6593.702532791302
 31
0.0
  0
MTEXT
  5
ED5E
330
1F
100
AcDbEntity
  8
AM_6
100
AcDbMText
 10
5930.966218624186
 20
6572.252535843064
 30
0.0
 40
1.6
 41
0.0
 71
     4
 72
     5
  1
７
 73
     1
 44
1.0
1001
ACAD
1000
MTEXTBEGIN
1070
    73
1070
     1
1070
    44
1040
1.0
1070
    74
1070
     0
1000
MTEXTEND
  0
MTEXT
  5
ED5F
330
1F
100
AcDbEntity
  8
AM_6
100
AcDbMText
 10
5930.966218624186
 20
6581.452532791303
 30
0.0
 40
1.6
 41
0.0
 71
     4
 72
     5
  1
４
 73
     1
 44
1.0
1001
ACAD
1000
MTEXTBEGIN
1070
    73
1070
     1
1070
    44
1040
1.0
1070
    74
1070
     0
1000
MTEXTEND
  0
MTEXT
  5
ED60
330
1F
100
AcDbEntity
  8
AM_6
100
AcDbMText
 10
5930.966218624186
 20
6590.652529739549
 30
0.0
 40
1.6
 41
0.0
 71
     4
 72
     5
  1
１
 73
     1
 44
1.0
1001
ACAD
1000
MTEXTBEGIN
1070
    73
1070
     1
1070
    44
1040
1.0
1070
    74
1070
     0
1000
MTEXTEND
  0
MTEXT
  5
ED61
330
1F
100
AcDbEntity
  8
AM_6
100
AcDbMText
 10
5918.60548732049
 20
6569.002532028368
 30
0.0
 40
2.5
 41
0.0
 71
     4
 72
     5
  1
黄
 73
     1
 44
1.0
1001
ACAD
1000
MTEXTBEGIN
1070
    73
1070
     1
1070
    44
1040
1.0
1070
    74
1070
     0
1000
MTEXTEND
  0
MTEXT
  5
ED62
330
1F
100
AcDbEntity
  8
AM_6
100
AcDbMText
 10
5918.60548732049
 20
6578.202532791303
 30
0.0
 40
2.5
 41
0.0
 71
     4
 72
     5
  1
橙
 73
     1
 44
1.0
1001
ACAD
1000
MTEXTBEGIN
1070
    73
1070
     1
1070
    44
1040
1.0
1070
    74
1070
     0
1000
MTEXTEND
  0
MTEXT
  5
ED63
330
1F
100
AcDbEntity
  8
AM_6
100
AcDbMText
 10
5918.60548732049
 20
6587.402529739549
 30
0.0
 40
2.5
 41
0.0
 71
     4
 72
     5
  1
茶
 73
     1
 44
1.0
1001
ACAD
1000
MTEXTBEGIN
1070
    73
1070
     1
1070
    44
1040
1.0
1070
    74
1070
     0
1000
MTEXTEND
  0
MTEXT
  5
ED64
330
1F
100
AcDbEntity
  8
AM_6
100
AcDbMText
 10
5927.805484268737
 20
6569.002532028368
 30
0.0
 40
2.5
 41
0.0
 71
     4
 72
     5
  1
黒
 73
     1
 44
1.0
1001
ACAD
1000
MTEXTBEGIN
1070
    73
1070
     1
1070
    44
1040
1.0
1070
    74
1070
     0
1000
MTEXTEND
  0
MTEXT
  5
ED65
330
1F
100
AcDbEntity
  8
AM_6
100
AcDbMText
 10
5927.805484268737
 20
6587.402529739549
 30
0.0
 40
2.5
 41
0.0
 71
     4
 72
     5
  1
青
 73
     1
 44
1.0
1001
ACAD
1000
MTEXTBEGIN
1070
    73
1070
     1
1070
    44
1040
1.0
1070
    74
1070
     0
1000
MTEXTEND
  0
MTEXT
  5
ED66
330
1F
100
AcDbEntity
  8
AM_6
100
AcDbMText
 10
5927.805484268737
 20
6578.202532791303
 30
0.0
 40
2.5
 41
0.0
 71
     4
 72
     5
  1
白
 73
     1
 44
1.0
1001
ACAD
1000
MTEXTBEGIN
1070
    73
1070
     1
1070
    44
1040
1.0
1070
    74
1070
     0
1000
MTEXTEND
  0
MTEXT
  5
ED67
330
1F
100
AcDbEntity
  8
AM_6
100
AcDbMText
 10
5909.405482742856
 20
6569.002532028368
 30
0.0
 40
2.5
 41
0.0
 71
     4
 72
     5
  1
赤
 73
     1
 44
1.0
1001
ACAD
1000
MTEXTBEGIN
1070
    73
1070
     1
1070
    44
1040
1.0
1070
    74
1070
     0
1000
MTEXTEND
  0
MTEXT
  5
ED68
330
1F
100
AcDbEntity
  8
AM_6
100
AcDbMText
 10
5909.405482742856
 20
6587.402529739549
 30
0.0
 40
2.5
 41
0.0
 71
     4
 72
     5
  1
緑
 73
     1
 44
1.0
1001
ACAD
1000
MTEXTBEGIN
1070
    73
1070
     1
1070
    44
1040
1.0
1070
    74
1070
     0
1000
MTEXTEND
  0
MTEXT
  5
ED69
330
1F
100
AcDbEntity
  8
AM_6
100
AcDbMText
 10
5909.405482742856
 20
6578.202532791303
 30
0.0
 40
2.5
 41
0.0
 71
     4
 72
     5
  1
灰
 73
     1
 44
1.0
1001
ACAD
1000
MTEXTBEGIN
1070
    73
1070
     1
1070
    44
1040
1.0
1070
    74
1070
     0
1000
MTEXTEND
  0
LINE
  5
EDB1
330
1F
100
AcDbEntity
  8
AM_2
 48
0.5
100
AcDbLine
 10
5744.069049760629
 20
6565.202536606006
 30
0.0
 11
5741.569049760627
 21
6562.702532791309
 31
0.0
  0
LINE
  5
EDB2
330
1F
100
AcDbEntity
  8
AM_0
100
AcDbLine
 10
5713.069034501838
 20
6562.702532791309
 30
0.0
 11
5744.069034501838
 21
6562.702532791309
 31
0.0
  0
LINE
  5
EDB3
330
1F
100
AcDbEntity
  8
AM_0
100
AcDbLine
 10
5713.069034501838
 20
6593.702532791303
 30
0.0
 11
5744.069034501838
 21
6593.702532791303
 31
0.0
  0
LINE
  5
EDB4
330
1F
100
AcDbEntity
  8
AM_2
 48
0.5
100
AcDbLine
 10
5715.569034501839
 20
6562.702536606007
 30
0.0
 11
5713.069034501838
 21
6565.202540420703
 31
0.0
  0
LINE
  5
EDB5
330
1F
100
AcDbEntity
  8
AM_0
100
AcDbLine
 10
5713.069034501838
 20
6562.702532791309
 30
0.0
 11
5713.069034501838
 21
6593.702532791303
 31
0.0
  0
LINE
  5
EDB6
330
1F
100
AcDbEntity
  8
AM_0
 48
0.5
100
AcDbLine
 10
5711.819034501838
 20
6579.952532791306
 30
0.0
 11
5713.069034501838
 21
6579.952532791306
 31
0.0
  0
LINE
  5
EDB7
330
1F
100
AcDbEntity
  8
AM_0
 48
0.5
100
AcDbLine
 10
5711.819034501838
 20
6576.452532791305
 30
0.0
 11
5713.069034501838
 21
6576.452532791305
 31
0.0
  0
LINE
  5
EDB8
330
1F
100
AcDbEntity
  8
AM_0
 48
0.5
100
AcDbLine
 10
5711.819034501838
 20
6576.452532791305
 30
0.0
 11
5711.819034501838
 21
6579.952532791306
 31
0.0
  0
MTEXT
  5
EDB9
330
1F
100
AcDbEntity
  8
AM_6
100
AcDbMText
 10
5737.322562351756
 20
6569.00253202837
 30
0.0
 40
2.5
 41
0.0
 71
     4
 72
     5
  1
赤
 73
     1
 44
1.0
1001
ACAD
1000
MTEXTBEGIN
1070
    73
1070
     1
1070
    44
1040
1.0
1070
    74
1070
     0
1000
MTEXTEND
  0
CIRCLE
  5
EDBA
330
1F
100
AcDbEntity
  8
AM_2
100
AcDbCircle
 10
5728.569034501838
 20
6569.00253202837
 30
0.0
 40
3.125
  0
MTEXT
  5
EDBB
330
1F
100
AcDbEntity
  8
AM_6
100
AcDbMText
 10
5728.122550144719
 20
6569.00253202837
 30
0.0
 40
2.5
 41
0.0
 71
     4
 72
     5
  1
黄
 73
     1
 44
1.0
1001
ACAD
1000
MTEXTBEGIN
1070
    73
1070
     1
1070
    44
1040
1.0
1070
    74
1070
     0
1000
MTEXTEND
  0
CIRCLE
  5
EDBC
330
1F
100
AcDbEntity
  8
AM_2
100
AcDbCircle
 10
5728.569034501838
 20
6569.00253202837
 30
0.0
 40
2.5
  0
CIRCLE
  5
EDBD
330
1F
100
AcDbEntity
  8
AM_2
100
AcDbCircle
 10
5737.769046708874
 20
6569.00253202837
 30
0.0
 40
3.125
  0
CIRCLE
  5
EDBE
330
1F
100
AcDbEntity
  8
AM_2
100
AcDbCircle
 10
5737.769046708874
 20
6569.00253202837
 30
0.0
 40
2.5
  0
MTEXT
  5
EDBF
330
1F
100
AcDbEntity
  8
AM_6
100
AcDbMText
 10
5718.922553196479
 20
6569.00253202837
 30
0.0
 40
2.5
 41
0.0
 71
     4
 72
     5
  1
黒
 73
     1
 44
1.0
1001
ACAD
1000
MTEXTBEGIN
1070
    73
1070
     1
1070
    44
1040
1.0
1070
    74
1070
     0
1000
MTEXTEND
  0
CIRCLE
  5
EDC0
330
1F
100
AcDbEntity
  8
AM_2
100
AcDbCircle
 10
5719.369037553599
 20
6569.00253202837
 30
0.0
 40
3.125
  0
CIRCLE
  5
EDC1
330
1F
100
AcDbEntity
  8
AM_2
100
AcDbCircle
 10
5719.369037553599
 20
6569.00253202837
 30
0.0
 40
2.5
  0
CIRCLE
  5
EDC2
330
1F
100
AcDbEntity
  8
AM_2
100
AcDbCircle
 10
5728.569034501838
 20
6587.402529739549
 30
0.0
 40
3.125
  0
CIRCLE
  5
EDC3
330
1F
100
AcDbEntity
  8
AM_2
100
AcDbCircle
 10
5728.569034501838
 20
6587.402529739549
 30
0.0
 40
2.5
  0
CIRCLE
  5
EDC4
330
1F
100
AcDbEntity
  8
AM_2
100
AcDbCircle
 10
5728.569034501838
 20
6578.202532791305
 30
0.0
 40
2.5
  0
CIRCLE
  5
EDC5
330
1F
100
AcDbEntity
  8
AM_2
100
AcDbCircle
 10
5728.569034501838
 20
6578.202532791305
 30
0.0
 40
3.125
  0
LINE
  5
EDC6
330
1F
100
AcDbEntity
  8
AM_2
 48
0.5
100
AcDbLine
 10
5723.969043657113
 20
6591.202532791306
 30
0.0
 11
5721.469043657115
 21
6593.702540420699
 31
0.0
  0
LINE
  5
EDC7
330
1F
100
AcDbEntity
  8
AM_2
 48
0.5
100
AcDbLine
 10
5723.969043657113
 20
6591.202532791306
 30
0.0
 11
5726.469043657115
 21
6593.702532791303
 31
0.0
  0
CIRCLE
  5
EDC8
330
1F
100
AcDbEntity
  8
AM_2
 48
0.5
100
AcDbCircle
 10
5725.569034501838
 20
6590.652529739549
 30
0.0
 40
1.25
  0
CIRCLE
  5
EDC9
330
1F
100
AcDbEntity
  8
AM_2
 48
0.5
100
AcDbCircle
 10
5716.369037553599
 20
6590.652529739549
 30
0.0
 40
1.25
  0
MTEXT
  5
EDCA
330
1F
100
AcDbEntity
  8
AM_6
100
AcDbMText
 10
5718.922553196479
 20
6587.402529739549
 30
0.0
 40
2.5
 41
0.0
 71
     4
 72
     5
  1
青
 73
     1
 44
1.0
1001
ACAD
1000
MTEXTBEGIN
1070
    73
1070
     1
1070
    44
1040
1.0
1070
    74
1070
     0
1000
MTEXTEND
  0
CIRCLE
  5
EDCB
330
1F
100
AcDbEntity
  8
AM_2
100
AcDbCircle
 10
5719.369037553599
 20
6587.402529739549
 30
0.0
 40
3.125
  0
CIRCLE
  5
EDCC
330
1F
100
AcDbEntity
  8
AM_2
100
AcDbCircle
 10
5719.369037553599
 20
6587.402529739549
 30
0.0
 40
2.5
  0
CIRCLE
  5
EDCD
330
1F
100
AcDbEntity
  8
AM_2
100
AcDbCircle
 10
5719.369037553599
 20
6578.202532791305
 30
0.0
 40
2.5
  0
CIRCLE
  5
EDCE
330
1F
100
AcDbEntity
  8
AM_2
100
AcDbCircle
 10
5719.369037553599
 20
6578.202532791305
 30
0.0
 40
3.125
  0
CIRCLE
  5
EDCF
330
1F
100
AcDbEntity
  8
AM_2
 48
0.5
100
AcDbCircle
 10
5716.369037553599
 20
6581.452532791306
 30
0.0
 40
1.25
  0
MTEXT
  5
EDD0
330
1F
100
AcDbEntity
  8
AM_6
100
AcDbMText
 10
5716.08328755193
 20
6572.252535843067
 30
0.0
 40
1.6
 41
0.0
 71
     4
 72
     5
  1
７
 73
     1
 44
1.0
1001
ACAD
1000
MTEXTBEGIN
1070
    73
1070
     1
1070
    44
1040
1.0
1070
    74
1070
     0
1000
MTEXTEND
  0
CIRCLE
  5
EDD1
330
1F
100
AcDbEntity
  8
AM_2
 48
0.5
100
AcDbCircle
 10
5716.369037553599
 20
6572.252535843067
 30
0.0
 40
1.25
  0
MTEXT
  5
EDD2
330
1F
100
AcDbEntity
  8
AM_6
100
AcDbMText
 10
5718.922553196479
 20
6578.202532791305
 30
0.0
 40
2.5
 41
0.0
 71
     4
 72
     5
  1
白
 73
     1
 44
1.0
1001
ACAD
1000
MTEXTBEGIN
1070
    73
1070
     1
1070
    44
1040
1.0
1070
    74
1070
     0
1000
MTEXTEND
  0
MTEXT
  5
EDD3
330
1F
100
AcDbEntity
  8
AM_6
100
AcDbMText
 10
5716.08328755193
 20
6581.452532791306
 30
0.0
 40
1.6
 41
0.0
 71
     4
 72
     5
  1
４
 73
     1
 44
1.0
1001
ACAD
1000
MTEXTBEGIN
1070
    73
1070
     1
1070
    44
1040
1.0
1070
    74
1070
     0
1000
MTEXTEND
  0
MTEXT
  5
EDD4
330
1F
100
AcDbEntity
  8
AM_6
100
AcDbMText
 10
5716.08328755193
 20
6590.652529739549
 30
0.0
 40
1.6
 41
0.0
 71
     4
 72
     5
  1
１
 73
     1
 44
1.0
1001
ACAD
1000
MTEXTBEGIN
1070
    73
1070
     1
1070
    44
1040
1.0
1070
    74
1070
     0
1000
MTEXTEND
  0
CIRCLE
  5
EDD5
330
1F
100
AcDbEntity
  8
AM_2
 48
0.5
100
AcDbCircle
 10
5725.569034501838
 20
6581.452532791306
 30
0.0
 40
1.25
  0
MTEXT
  5
EDD6
330
1F
100
AcDbEntity
  8
AM_6
100
AcDbMText
 10
5725.283284500171
 20
6572.252535843067
 30
0.0
 40
1.6
 41
0.0
 71
     4
 72
     5
  1
８
 73
     1
 44
1.0
1001
ACAD
1000
MTEXTBEGIN
1070
    73
1070
     1
1070
    44
1040
1.0
1070
    74
1070
     0
1000
MTEXTEND
  0
CIRCLE
  5
EDD7
330
1F
100
AcDbEntity
  8
AM_2
 48
0.5
100
AcDbCircle
 10
5725.569034501838
 20
6572.252535843067
 30
0.0
 40
1.25
  0
MTEXT
  5
EDD8
330
1F
100
AcDbEntity
  8
AM_6
100
AcDbMText
 10
5725.283284500171
 20
6581.452532791306
 30
0.0
 40
1.6
 41
0.0
 71
     4
 72
     5
  1
５
 73
     1
 44
1.0
1001
ACAD
1000
MTEXTBEGIN
1070
    73
1070
     1
1070
    44
1040
1.0
1070
    74
1070
     0
1000
MTEXTEND
  0
MTEXT
  5
EDD9
330
1F
100
AcDbEntity
  8
AM_6
100
AcDbMText
 10
5725.283284500171
 20
6590.652529739549
 30
0.0
 40
1.6
 41
0.0
 71
     4
 72
     5
  1
２
 73
     1
 44
1.0
1001
ACAD
1000
MTEXTBEGIN
1070
    73
1070
     1
1070
    44
1040
1.0
1070
    74
1070
     0
1000
MTEXTEND
  0
LINE
  5
EDDA
330
1F
100
AcDbEntity
  8
AM_2
 48
0.5
100
AcDbLine
 10
5733.169040605353
 20
6591.202532791306
 30
0.0
 11
5730.669040605354
 21
6593.702532791303
 31
0.0
  0
LINE
  5
EDDB
330
1F
100
AcDbEntity
  8
AM_2
 48
0.5
100
AcDbLine
 10
5733.169040605353
 20
6591.202532791306
 30
0.0
 11
5735.669040605354
 21
6593.702532791303
 31
0.0
  0
CIRCLE
  5
EDDC
330
1F
100
AcDbEntity
  8
AM_2
 48
0.5
100
AcDbCircle
 10
5734.769031450083
 20
6590.652529739549
 30
0.0
 40
1.25
  0
MTEXT
  5
EDDD
330
1F
100
AcDbEntity
  8
AM_6
100
AcDbMText
 10
5734.483281448414
 20
6581.452532791306
 30
0.0
 40
1.6
 41
0.0
 71
     4
 72
     5
  1
６
 73
     1
 44
1.0
1001
ACAD
1000
MTEXTBEGIN
1070
    73
1070
     1
1070
    44
1040
1.0
1070
    74
1070
     0
1000
MTEXTEND
  0
MTEXT
  5
EDDE
330
1F
100
AcDbEntity
  8
AM_6
100
AcDbMText
 10
5734.483281448414
 20
6572.252535843067
 30
0.0
 40
1.6
 41
0.0
 71
     4
 72
     5
  1
９
 73
     1
 44
1.0
1001
ACAD
1000
MTEXTBEGIN
1070
    73
1070
     1
1070
    44
1040
1.0
1070
    74
1070
     0
1000
MTEXTEND
  0
CIRCLE
  5
EDDF
330
1F
100
AcDbEntity
  8
AM_2
100
AcDbCircle
 10
5737.769046708874
 20
6587.402529739549
 30
0.0
 40
3.125
  0
CIRCLE
  5
EDE0
330
1F
100
AcDbEntity
  8
AM_2
100
AcDbCircle
 10
5737.769046708874
 20
6578.202532791305
 30
0.0
 40
3.125
  0
CIRCLE
  5
EDE1
330
1F
100
AcDbEntity
  8
AM_2
 48
0.5
100
AcDbCircle
 10
5734.769031450083
 20
6572.252535843067
 30
0.0
 40
1.25
  0
CIRCLE
  5
EDE2
330
1F
100
AcDbEntity
  8
AM_2
 48
0.5
100
AcDbCircle
 10
5734.769031450083
 20
6581.452532791306
 30
0.0
 40
1.25
  0
MTEXT
  5
EDE3
330
1F
100
AcDbEntity
  8
AM_6
100
AcDbMText
 10
5734.483281448414
 20
6590.652529739549
 30
0.0
 40
1.6
 41
0.0
 71
     4
 72
     5
  1
３
 73
     1
 44
1.0
1001
ACAD
1000
MTEXTBEGIN
1070
    73
1070
     1
1070
    44
1040
1.0
1070
    74
1070
     0
1000
MTEXTEND
  0
MTEXT
  5
EDE4
330
1F
100
AcDbEntity
  8
AM_6
100
AcDbMText
 10
5728.122550144719
 20
6578.202532791305
 30
0.0
 40
2.5
 41
0.0
 71
     4
 72
     5
  1
橙
 73
     1
 44
1.0
1001
ACAD
1000
MTEXTBEGIN
1070
    73
1070
     1
1070
    44
1040
1.0
1070
    74
1070
     0
1000
MTEXTEND
  0
MTEXT
  5
EDE5
330
1F
100
AcDbEntity
  8
AM_6
100
AcDbMText
 10
5728.122550144719
 20
6587.402529739549
 30
0.0
 40
2.5
 41
0.0
 71
     4
 72
     5
  1
茶
 73
     1
 44
1.0
1001
ACAD
1000
MTEXTBEGIN
1070
    73
1070
     1
1070
    44
1040
1.0
1070
    74
1070
     0
1000
MTEXTEND
  0
CIRCLE
  5
EDE6
330
1F
100
AcDbEntity
  8
AM_2
100
AcDbCircle
 10
5737.769046708874
 20
6578.202532791305
 30
0.0
 40
2.5
  0
MTEXT
  5
EDE7
330
1F
100
AcDbEntity
  8
AM_6
100
AcDbMText
 10
5737.322562351756
 20
6587.402529739549
 30
0.0
 40
2.5
 41
0.0
 71
     4
 72
     5
  1
緑
 73
     1
 44
1.0
1001
ACAD
1000
MTEXTBEGIN
1070
    73
1070
     1
1070
    44
1040
1.0
1070
    74
1070
     0
1000
MTEXTEND
  0
CIRCLE
  5
EDE8
330
1F
100
AcDbEntity
  8
AM_2
100
AcDbCircle
 10
5737.769046708874
 20
6587.402529739549
 30
0.0
 40
2.5
  0
LINE
  5
EDE9
330
1F
100
AcDbEntity
  8
AM_0
100
AcDbLine
 10
5744.069034501838
 20
6562.702532791309
 30
0.0
 11
5744.069034501838
 21
6593.702532791303
 31
0.0
  0
ARC
  5
EDEA
330
1F
100
AcDbEntity
  8
AM_0
 48
0.5
100
AcDbCircle
 10
5744.069034501838
 20
6572.352530502492
 30
0.0
 40
2.5
100
AcDbArc
 50
269.9999974955313
 51
89.99999567427956
  0
LINE
  5
EDEB
330
1F
100
AcDbEntity
  8
AM_0
 48
0.5
100
AcDbLine
 10
5744.069034501838
 20
6579.952532791306
 30
0.0
 11
5745.319034501839
 21
6579.952532791306
 31
0.0
  0
LINE
  5
EDEC
330
1F
100
AcDbEntity
  8
AM_0
 48
0.5
100
AcDbLine
 10
5744.069034501838
 20
6576.452532791305
 30
0.0
 11
5745.319034501839
 21
6576.452532791305
 31
0.0
  0
LINE
  5
EDED
330
1F
100
AcDbEntity
  8
AM_0
 48
0.5
100
AcDbLine
 10
5745.319034501839
 20
6576.452532791305
 30
0.0
 11
5745.319034501839
 21
6579.952532791306
 31
0.0
  0
ARC
  5
EDEE
330
1F
100
AcDbEntity
  8
AM_0
 48
0.5
100
AcDbCircle
 10
5744.069034501838
 20
6584.052531265431
 30
0.0
 40
2.5
100
AcDbArc
 50
269.9999974955313
 51
89.99999567427956
  0
MTEXT
  5
EDEF
330
1F
100
AcDbEntity
  8
AM_6
100
AcDbMText
 10
5737.322562351756
 20
6578.202532791305
 30
0.0
 40
2.5
 41
0.0
 71
     4
 72
     5
  1
灰
 73
     1
 44
1.0
1001
ACAD
1000
MTEXTBEGIN
1070
    73
1070
     1
1070
    44
1040
1.0
1070
    74
1070
     0
1000
MTEXTEND
  0
MTEXT
  5
EDFB
330
1F
100
AcDbEntity
  8
AM_6
100
AcDbMText
 10
5910.803248946944
 20
6551.85486477313
 30
0.0
 40
3.2
 41
0.0
 71
     4
 72
     5
  1
\Lプラグ側配線図\l
 73
     1
 44
1.0
1001
ACAD
1000
MTEXTBEGIN
1070
    73
1070
     1
1070
    44
1040
1.0
1070
    74
1070
     0
1000
MTEXTEND
  0
MTEXT
  5
EDFC
330
1F
100
AcDbEntity
  8
AM_6
100
AcDbMText
 10
5714.54847303956
 20
6552.579061916535
 30
0.0
 40
3.2
 41
0.0
 71
     4
 72
     5
  1
\Lリセプタクル側配線図\l
 73
     1
 44
1.0
1001
ACAD
1000
MTEXTBEGIN
1070
    73
1070
     1
1070
    44
1040
1.0
1070
    74
1070
     0
1000
MTEXTEND
  0
LINE
  5
EE60
330
1F
100
AcDbEntity
  8
AM_0
100
AcDbLine
 10
5745.675340871093
 20
6622.098426891928
 30
0.0
 11
5758.082160502238
 21
6622.098426891928
 31
0.0
  0
LINE
  5
EE61
330
1F
100
AcDbEntity
  8
ケーブル-AM_0
100
AcDbLine
 10
5773.414857266643
 20
6622.098426891928
 30
0.0
 11
5762.707044798225
 21
6622.098426891928
 31
0.0
  0
LINE
  5
EE66
330
1F
100
AcDbEntity
  8
ケーブル-AM_0
100
AcDbLine
 10
5773.773754030258
 20
6615.098426891925
 30
0.0
 11
5765.026572478854
 21
6615.098426891927
 31
0.0
  0
LINE
  5
EE67
330
1F
100
AcDbEntity
  8
AM_0
100
AcDbLine
 10
5745.675340871093
 20
6615.098426891927
 30
0.0
 11
5760.106481166214
 21
6615.098426891927
 31
0.0
  0
LINE
  5
EF5E
330
1F
100
AcDbEntity
  8
ケーブル-AM_0
100
AcDbLine
 10
5794.897295029948
 20
6598.117021515967
 30
0.0
 11
5799.849721029929
 21
6603.069447515946
 31
0.0
  0
LINE
  5
F0F2
330
1F
100
AcDbEntity
  8
ケーブル-AM_2
100
AcDbLine
 10
5887.154478379316
 20
6620.098442150721
 30
0.0
 11
5875.050566648053
 21
6620.098442150721
 31
0.0
  0
LINE
  5
F0F3
330
1F
100
AcDbEntity
  8
ケーブル-AM_2
100
AcDbLine
 10
5875.050566648053
 20
6621.598442150721
 30
0.0
 11
5888.415907112342
 21
6621.598442150721
 31
0.0
  0
LINE
  5
F0F4
330
1F
100
AcDbEntity
  8
ケーブル-AM_2
100
AcDbLine
 10
5885.342969753128
 20
6617.098442150721
 30
0.0
 11
5875.050566648053
 21
6617.098442150721
 31
0.0
  0
LINE
  5
F0F5
330
1F
100
AcDbEntity
  8
ケーブル-AM_2
100
AcDbLine
 10
5885.798828731903
 20
6615.598442150721
 30
0.0
 11
5875.050566648053
 21
6615.598442150721
 31
0.0
  0
LINE
  5
F0FE
330
1F
100
AcDbEntity
  8
ブッシュ-AM_7
100
AcDbLine
 10
5875.050566648053
 20
6618.598442150721
 30
0.0
 11
5940.606939727334
 21
6618.598442150721
 31
0.0
  0
LINE
  5
F109
330
1F
100
AcDbEntity
  8
ケーブル-AM_2
100
AcDbLine
 10
5889.9665632954
 20
6615.598442150721
 30
0.0
 11
5895.692422008031
 21
6615.598442150721
 31
0.0
  0
LINE
  5
F10A
330
1F
100
AcDbEntity
  8
ケーブル-AM_2
100
AcDbLine
 10
5889.485273621264
 20
6617.098442150721
 30
0.0
 11
5905.369810515911
 21
6617.098449780117
 31
0.0
  0
LINE
  5
F10B
330
1F
100
AcDbEntity
  8
ケーブル-AM_2
100
AcDbLine
 10
5891.626780263663
 20
6620.098442150721
 30
0.0
 11
5905.369893666189
 21
6620.098442150721
 31
0.0
  0
LINE
  5
F10C
330
1F
100
AcDbEntity
  8
ケーブル-AM_2
100
AcDbLine
 10
5892.756966125904
 20
6621.598442150721
 30
0.0
 11
5895.845482870694
 21
6621.598442150721
 31
0.0
  0
LINE
  5
F5CD
330
1F
100
AcDbEntity
  8
ケース-AM_0
 48
0.8
100
AcDbLine
 10
5820.517045366191
 20
6604.798434521327
 30
0.0
 11
5820.517045366191
 21
6620.798434521325
 31
0.0
  0
DIMENSION
  5
F6A5
330
1F
100
AcDbEntity
  8
AM_5
100
AcDbDimension
  2
*D18
 10
5936.606939727333
 20
6638.09844215072
 30
0.0
 11
5905.328753187693
 21
6641.198442150723
 31
0.0
 70
    32
  1
枠側リード線
 71
     5
 42
61.55637307928009
  3
SYS$0
100
AcDbAlignedDimension
 13
5875.050566648053
 23
6638.09844215072
 33
0.0
 14
5936.606939727333
 24
6626.098434521326
 34
0.0
100
AcDbRotatedDimension
1001
ACAD
1000
DSTYLE
1002
{
1070
    75
1070
     1
1070
   173
1070
     1
1070
   342
1005
0
1070
   343
1005
E40C
1070
   344
1005
A66
1002
}
  0
ARC
  5
F74A
330
1F
100
AcDbEntity
  8
フロントプレート-AM_0
100
AcDbCircle
 10
6055.228476224391
 20
6554.99843452056
 30
0.0
 40
1.013428228296106
100
AcDbArc
 50
90.0
 51
179.999999999531
  0
ARC
  5
F74B
330
1F
100
AcDbEntity
  8
フロントプレート-AM_0
100
AcDbCircle
 10
6039.228476224395
 20
6554.998434520562
 30
0.0
 40
1.013428228296106
100
AcDbArc
 50
0.0000000004689919
 51
90.0
  0
LINE
  5
F953
330
1F
100
AcDbEntity
  8
ケース-AM_7
100
AcDbLine
 10
5865.858178492626
 20
6614.790830306145
 30
0.0
 11
5837.462986912257
 21
6586.395638725767
 31
0.0
1001
GENIUS_GENOBJ-N-CEN_13
1002
{
1000
OWNER
1000
GEN
1002
}
1001
GENIUS_GENODEF_13
1002
{
1000
HIER
1070
     0
1002
}
1002
{
1000
MANEDIT
1070
     0
1002
}
1002
{
1000
NOSEL
1070
     0
1002
}
1002
{
1000
BEHIND
1070
     0
1002
}
1002
{
1000
OTHER
1070
     0
1002
}
1002
{
1000
REACTOR
1002
}
1001
GENIUS_GENCEN_19
1002
{
1040
4.0
1002
}
  0
LINE
  5
FAE0
330
1F
100
AcDbEntity
  8
ケーブル-AM_2
100
AcDbLine
 10
5866.918838664407
 20
6613.730170134367
 30
0.0
 11
5843.29628808404
 21
6590.107619553994
 31
0.0
1001
GENIUS_GENOBJ-N-CEN_13
1002
{
1000
OWNER
1000
GEN
1002
}
1001
GENIUS_GENODEF_13
1002
{
1000
HIER
1070
     0
1002
}
1002
{
1000
MANEDIT
1070
     0
1002
}
1002
{
1000
NOSEL
1070
     0
1002
}
1002
{
1000
BEHIND
1070
     0
1002
}
1002
{
1000
OTHER
1070
     0
1002
}
1002
{
1000
REACTOR
1002
}
1001
GENIUS_GENCEN_19
1002
{
1040
4.0
1002
}
  0
LINE
  5
FAE1
330
1F
100
AcDbEntity
  8
ケーブル-AM_2
100
AcDbLine
 10
5867.979498836186
 20
6612.669509962586
 30
0.0
 11
5844.35694825582
 21
6589.046959382216
 31
0.0
1001
GENIUS_GENOBJ-N-CEN_13
1002
{
1000
OWNER
1000
GEN
1002
}
1001
GENIUS_GENODEF_13
1002
{
1000
HIER
1070
     0
1002
}
1002
{
1000
MANEDIT
1070
     0
1002
}
1002
{
1000
NOSEL
1070
     0
1002
}
1002
{
1000
BEHIND
1070
     0
1002
}
1002
{
1000
OTHER
1070
     0
1002
}
1002
{
1000
REACTOR
1002
}
1001
GENIUS_GENCEN_19
1002
{
1040
4.0
1002
}
  0
LINE
  5
FAE2
330
1F
100
AcDbEntity
  8
ケーブル-AM_2
100
AcDbLine
 10
5864.797518320846
 20
6615.851490477925
 30
0.0
 11
5841.174967740482
 21
6592.228939897552
 31
0.0
1001
GENIUS_GENOBJ-N-CEN_13
1002
{
1000
OWNER
1000
GEN
1002
}
1001
GENIUS_GENODEF_13
1002
{
1000
HIER
1070
     0
1002
}
1002
{
1000
MANEDIT
1070
     0
1002
}
1002
{
1000
NOSEL
1070
     0
1002
}
1002
{
1000
BEHIND
1070
     0
1002
}
1002
{
1000
OTHER
1070
     0
1002
}
1002
{
1000
REACTOR
1002
}
1001
GENIUS_GENCEN_19
1002
{
1040
4.0
1002
}
  0
LINE
  5
FAE3
330
1F
100
AcDbEntity
  8
ケーブル-AM_2
100
AcDbLine
 10
5863.736858149066
 20
6616.912150649705
 30
0.0
 11
5840.114307568702
 21
6593.289600069333
 31
0.0
1001
GENIUS_GENOBJ-N-CEN_13
1002
{
1000
OWNER
1000
GEN
1002
}
1001
GENIUS_GENODEF_13
1002
{
1000
HIER
1070
     0
1002
}
1002
{
1000
MANEDIT
1070
     0
1002
}
1002
{
1000
NOSEL
1070
     0
1002
}
1002
{
1000
BEHIND
1070
     0
1002
}
1002
{
1000
OTHER
1070
     0
1002
}
1002
{
1000
REACTOR
1002
}
1001
GENIUS_GENCEN_19
1002
{
1040
4.0
1002
}
  0
ARC
  5
FAE7
330
1F
100
AcDbEntity
  8
ケーブル-AM_2
100
AcDbCircle
 10
5875.050566648053
 20
6605.598442150721
 30
0.0
 40
10.0
100
AcDbArc
 50
90.0
 51
135.0000000000086
1001
GENIUS_GENOBJ-N-CEN_13
1002
{
1000
OWNER
1000
GEN
1002
}
1001
GENIUS_GENCEN_19
1002
{
1040
4.0
1002
}
1001
GENIUS_GENODEF_13
1002
{
1000
HIER
1070
     0
1002
}
1002
{
1000
MANEDIT
1070
     0
1002
}
1002
{
1000
NOSEL
1070
     0
1002
}
1002
{
1000
BEHIND
1070
     0
1002
}
1002
{
1000
OTHER
1070
     0
1002
}
1002
{
1000
REACTOR
1002
}
1001
GENIUS_GENOBJ-N-FIL_13
1002
{
1000
OWNER
1000
GEN
1002
}
  0
ARC
  5
FAE8
330
1F
100
AcDbEntity
  8
ケーブル-AM_2
100
AcDbCircle
 10
5875.050566648053
 20
6605.598442150721
 30
0.0
 40
11.5
100
AcDbArc
 50
90.0
 51
135.0000000000096
1001
GENIUS_GENOBJ-N-CEN_13
1002
{
1000
OWNER
1000
GEN
1002
}
1001
GENIUS_GENCEN_19
1002
{
1040
4.0
1002
}
1001
GENIUS_GENODEF_13
1002
{
1000
HIER
1070
     0
1002
}
1002
{
1000
MANEDIT
1070
     0
1002
}
1002
{
1000
NOSEL
1070
     0
1002
}
1002
{
1000
BEHIND
1070
     0
1002
}
1002
{
1000
OTHER
1070
     0
1002
}
1002
{
1000
REACTOR
1002
}
1001
GENIUS_GENOBJ-N-FIL_13
1002
{
1000
OWNER
1000
GEN
1002
}
  0
ARC
  5
FAE9
330
1F
100
AcDbEntity
  8
ブッシュ-AM_7
100
AcDbCircle
 10
5875.050566648053
 20
6605.598442150721
 30
0.0
 40
13.0
100
AcDbArc
 50
90.0
 51
135.0000000000084
1001
GENIUS_GENOBJ-N-CEN_13
1002
{
1000
OWNER
1000
GEN
1002
}
1001
GENIUS_GENCEN_19
1002
{
1040
4.0
1002
}
1001
GENIUS_GENODEF_13
1002
{
1000
HIER
1070
     0
1002
}
1002
{
1000
MANEDIT
1070
     0
1002
}
1002
{
1000
NOSEL
1070
     0
1002
}
1002
{
1000
BEHIND
1070
     0
1002
}
1002
{
1000
OTHER
1070
     0
1002
}
1002
{
1000
REACTOR
1002
}
1001
GENIUS_GENOBJ-N-FIL_13
1002
{
1000
OWNER
1000
GEN
1002
}
  0
ARC
  5
FAEA
330
1F
100
AcDbEntity
  8
ケーブル-AM_2
100
AcDbCircle
 10
5875.050566648053
 20
6605.598442150721
 30
0.0
 40
14.5
100
AcDbArc
 50
90.0
 51
135.0000000000102
1001
GENIUS_GENOBJ-N-CEN_13
1002
{
1000
OWNER
1000
GEN
1002
}
1001
GENIUS_GENCEN_19
1002
{
1040
4.0
1002
}
1001
GENIUS_GENODEF_13
1002
{
1000
HIER
1070
     0
1002
}
1002
{
1000
MANEDIT
1070
     0
1002
}
1002
{
1000
NOSEL
1070
     0
1002
}
1002
{
1000
BEHIND
1070
     0
1002
}
1002
{
1000
OTHER
1070
     0
1002
}
1002
{
1000
REACTOR
1002
}
1001
GENIUS_GENOBJ-N-FIL_13
1002
{
1000
OWNER
1000
GEN
1002
}
  0
ARC
  5
FAEB
330
1F
100
AcDbEntity
  8
ケーブル-AM_2
100
AcDbCircle
 10
5875.050566648053
 20
6605.598442150721
 30
0.0
 40
16.0
100
AcDbArc
 50
90.0
 51
135.0000000000092
1001
GENIUS_GENOBJ-N-CEN_13
1002
{
1000
OWNER
1000
GEN
1002
}
1001
GENIUS_GENCEN_19
1002
{
1040
4.0
1002
}
1001
GENIUS_GENODEF_13
1002
{
1000
HIER
1070
     0
1002
}
1002
{
1000
MANEDIT
1070
     0
1002
}
1002
{
1000
NOSEL
1070
     0
1002
}
1002
{
1000
BEHIND
1070
     0
1002
}
1002
{
1000
OTHER
1070
     0
1002
}
1002
{
1000
REACTOR
1002
}
1001
GENIUS_GENOBJ-N-FIL_13
1002
{
1000
OWNER
1000
GEN
1002
}
  0
ARC
  5
FB0B
330
1F
100
AcDbEntity
  8
ケーブル-AM_5
100
AcDbCircle
 10
5875.050566648053
 20
6605.598442150721
 30
0.0
 40
32.5
100
AcDbArc
 50
90.0
 51
135.0000000000092
1001
GENIUS_GENOBJ-N-CEN_13
1002
{
1000
OWNER
1000
GEN
1002
}
1001
GENIUS_GENCEN_19
1002
{
1040
4.0
1002
}
1001
GENIUS_GENODEF_13
1002
{
1000
HIER
1070
     0
1002
}
1002
{
1000
MANEDIT
1070
     0
1002
}
1002
{
1000
NOSEL
1070
     0
1002
}
1002
{
1000
BEHIND
1070
     0
1002
}
1002
{
1000
OTHER
1070
     0
1002
}
1002
{
1000
REACTOR
1002
}
1001
GENIUS_GENOBJ-N-FIL_13
1002
{
1000
OWNER
1000
GEN
1002
}
  0
LINE
  5
FB0C
330
1F
100
AcDbEntity
  8
ケーブル-AM_5
100
AcDbLine
 10
5852.069596259486
 20
6628.579412539281
 30
0.0
 11
5827.563491975642
 21
6604.073308255428
 31
0.0
1001
GENIUS_GENOBJ-N-CEN_13
1002
{
1000
OWNER
1000
GEN
1002
}
1001
GENIUS_GENODEF_13
1002
{
1000
HIER
1070
     0
1002
}
1002
{
1000
MANEDIT
1070
     0
1002
}
1002
{
1000
NOSEL
1070
     0
1002
}
1002
{
1000
BEHIND
1070
     0
1002
}
1002
{
1000
OTHER
1070
     0
1002
}
1002
{
1000
REACTOR
1002
}
1001
GENIUS_GENCEN_19
1002
{
1040
4.0
1002
}
  0
LINE
  5
FDBB
330
1F
100
AcDbEntity
  8
ケース-AM_7
100
AcDbLine
 10
5783.321034842115
 20
6614.645707703783
 30
0.0
 11
5811.571103820124
 21
6586.395638725767
 31
0.0
1001
GENIUS_GENOBJ-N-CEN_13
1002
{
1000
OWNER
1000
GEN
1002
}
1001
GENIUS_GENODEF_13
1002
{
1000
HIER
1070
     0
1002
}
1002
{
1000
MANEDIT
1070
     0
1002
}
1002
{
1000
NOSEL
1070
     0
1002
}
1002
{
1000
BEHIND
1070
     0
1002
}
1002
{
1000
OTHER
1070
     0
1002
}
1002
{
1000
REACTOR
1002
}
1001
GENIUS_GENCEN_19
1002
{
1040
4.0
1002
}
  0
LINE
  5
FDBC
330
1F
100
AcDbEntity
  8
ケーブル-AM_2
100
AcDbLine
 10
5798.434168201719
 20
6601.653894687736
 30
0.0
 11
5807.859122991899
 21
6592.228939897555
 31
0.0
1001
GENIUS_GENOBJ-N-CEN_13
1002
{
1000
OWNER
1000
GEN
1002
}
1001
GENIUS_GENODEF_13
1002
{
1000
HIER
1070
     0
1002
}
1002
{
1000
MANEDIT
1070
     0
1002
}
1002
{
1000
NOSEL
1070
     0
1002
}
1002
{
1000
BEHIND
1070
     0
1002
}
1002
{
1000
OTHER
1070
     0
1002
}
1002
{
1000
REACTOR
1002
}
1001
GENIUS_GENCEN_19
1002
{
1040
4.0
1002
}
  0
LINE
  5
FDBD
330
1F
100
AcDbEntity
  8
ケーブル-AM_2
100
AcDbLine
 10
5799.494828373497
 20
6602.714554859516
 30
0.0
 11
5808.919783163677
 21
6593.289600069333
 31
0.0
1001
GENIUS_GENOBJ-N-CEN_13
1002
{
1000
OWNER
1000
GEN
1002
}
1001
GENIUS_GENODEF_13
1002
{
1000
HIER
1070
     0
1002
}
1002
{
1000
MANEDIT
1070
     0
1002
}
1002
{
1000
NOSEL
1070
     0
1002
}
1002
{
1000
BEHIND
1070
     0
1002
}
1002
{
1000
OTHER
1070
     0
1002
}
1002
{
1000
REACTOR
1002
}
1001
GENIUS_GENCEN_19
1002
{
1040
4.0
1002
}
  0
LINE
  5
FDBE
330
1F
100
AcDbEntity
  8
ケーブル-AM_2
100
AcDbLine
 10
5796.31284785816
 20
6599.532574344177
 30
0.0
 11
5805.737802648338
 21
6590.107619553994
 31
0.0
1001
GENIUS_GENOBJ-N-CEN_13
1002
{
1000
OWNER
1000
GEN
1002
}
1001
GENIUS_GENODEF_13
1002
{
1000
HIER
1070
     0
1002
}
1002
{
1000
MANEDIT
1070
     0
1002
}
1002
{
1000
NOSEL
1070
     0
1002
}
1002
{
1000
BEHIND
1070
     0
1002
}
1002
{
1000
OTHER
1070
     0
1002
}
1002
{
1000
REACTOR
1002
}
1001
GENIUS_GENCEN_19
1002
{
1040
4.0
1002
}
  0
LINE
  5
FDBF
330
1F
100
AcDbEntity
  8
ケーブル-AM_2
100
AcDbLine
 10
5795.252187686378
 20
6598.471914172396
 30
0.0
 11
5804.677142476559
 21
6589.046959382213
 31
0.0
1001
GENIUS_GENOBJ-N-CEN_13
1002
{
1000
OWNER
1000
GEN
1002
}
1001
GENIUS_GENODEF_13
1002
{
1000
HIER
1070
     0
1002
}
1002
{
1000
MANEDIT
1070
     0
1002
}
1002
{
1000
NOSEL
1070
     0
1002
}
1002
{
1000
BEHIND
1070
     0
1002
}
1002
{
1000
OTHER
1070
     0
1002
}
1002
{
1000
REACTOR
1002
}
1001
GENIUS_GENCEN_19
1002
{
1040
4.0
1002
}
  0
LINE
  5
FDC0
330
1F
100
AcDbEntity
  8
ケーブル-AM_0
100
AcDbLine
 10
5799.849721029929
 20
6603.069447515946
 30
0.0
 11
5785.797247842104
 21
6617.121920703772
 31
0.0
  0
LINE
  5
FDC1
330
1F
100
AcDbEntity
  8
ケーブル-AM_0
100
AcDbLine
 10
5794.897295029948
 20
6598.117021515967
 30
0.0
 11
5780.844821842123
 21
6612.169494703791
 31
0.0
  0
ARC
  5
FDC2
330
1F
100
AcDbEntity
  8
ケーブル-AM_0
100
AcDbCircle
 10
5773.773754030258
 20
6605.098426891927
 30
0.0
 40
10.0
100
AcDbArc
 50
45.0
 51
90.00000000000211
1001
GENIUS_GENODEF_13
1002
{
1000
HIER
1070
     0
1002
}
1002
{
1000
MANEDIT
1070
     0
1002
}
1002
{
1000
NOSEL
1070
     0
1002
}
1002
{
1000
BEHIND
1070
     0
1002
}
1002
{
1000
OTHER
1070
     0
1002
}
1002
{
1000
REACTOR
1002
}
1001
GENIUS_GENOBJ-N-FIL_13
1002
{
1000
OWNER
1000
GEN
1002
}
  0
ARC
  5
FDC3
330
1F
100
AcDbEntity
  8
ケース-AM_7
100
AcDbCircle
 10
5773.773754030258
 20
6605.098426891927
 30
0.0
 40
13.5018940079103
100
AcDbArc
 50
45.0
 51
90.95933483453135
1001
GENIUS_GENODEF_13
1002
{
1000
HIER
1070
     0
1002
}
1002
{
1000
MANEDIT
1070
     0
1002
}
1002
{
1000
NOSEL
1070
     0
1002
}
1002
{
1000
BEHIND
1070
     0
1002
}
1002
{
1000
OTHER
1070
     0
1002
}
1002
{
1000
REACTOR
1002
}
1001
GENIUS_GENOBJ-N-FIL_13
1002
{
1000
OWNER
1000
GEN
1002
}
  0
ARC
  5
FDC4
330
1F
100
AcDbEntity
  8
ケーブル-AM_0
100
AcDbCircle
 10
5773.773754030258
 20
6605.098426891927
 30
0.0
 40
17.0037880158206
100
AcDbArc
 50
45.0
 51
91.20942444977051
1001
GENIUS_GENODEF_13
1002
{
1000
HIER
1070
     0
1002
}
1002
{
1000
MANEDIT
1070
     0
1002
}
1002
{
1000
NOSEL
1070
     0
1002
}
1002
{
1000
BEHIND
1070
     0
1002
}
1002
{
1000
OTHER
1070
     0
1002
}
1002
{
1000
REACTOR
1002
}
1001
GENIUS_GENOBJ-N-FIL_13
1002
{
1000
OWNER
1000
GEN
1002
}
  0
LINE
  5
FDC5
330
1F
100
AcDbEntity
  8
ケーブル-AM_7
100
AcDbLine
 10
5773.547694935527
 20
6618.598428339575
 30
0.0
 11
5701.875353078122
 21
6618.598442150721
 31
0.0
1001
GENIUS_GENOBJ-N-CEN_13
1002
{
1000
OWNER
1000
GEN
1002
}
1001
GENIUS_GENODEF_13
1002
{
1000
HIER
1070
     0
1002
}
1002
{
1000
MANEDIT
1070
     0
1002
}
1002
{
1000
NOSEL
1070
     0
1002
}
1002
{
1000
BEHIND
1070
     0
1002
}
1002
{
1000
OTHER
1070
     0
1002
}
1002
{
1000
REACTOR
1002
}
1001
GENIUS_GENCEN_19
1002
{
1040
4.0
1002
}
  0
LINE
  5
FDC8
330
1F
100
AcDbEntity
  8
ケーブル-AM_5
100
AcDbLine
 10
5796.964494472894
 20
6628.579412539281
 30
0.0
 11
5821.470598756739
 21
6604.073308255428
 31
0.0
1001
GENIUS_GENOBJ-N-CEN_13
1002
{
1000
OWNER
1000
GEN
1002
}
1001
GENIUS_GENODEF_13
1002
{
1000
HIER
1070
     0
1002
}
1002
{
1000
MANEDIT
1070
     0
1002
}
1002
{
1000
NOSEL
1070
     0
1002
}
1002
{
1000
BEHIND
1070
     0
1002
}
1002
{
1000
OTHER
1070
     0
1002
}
1002
{
1000
REACTOR
1002
}
1001
GENIUS_GENCEN_19
1002
{
1040
4.0
1002
}
  0
ARC
  5
FDC9
330
1F
100
AcDbEntity
  8
ケーブル-AM_5
100
AcDbCircle
 10
5773.983524084328
 20
6605.598442150721
 30
0.0
 40
32.5
100
AcDbArc
 50
44.99999999999054
 51
90.0
1001
GENIUS_GENOBJ-N-CEN_13
1002
{
1000
OWNER
1000
GEN
1002
}
1001
GENIUS_GENCEN_19
1002
{
1040
4.0
1002
}
1001
GENIUS_GENODEF_13
1002
{
1000
HIER
1070
     0
1002
}
1002
{
1000
MANEDIT
1070
     0
1002
}
1002
{
1000
NOSEL
1070
     0
1002
}
1002
{
1000
BEHIND
1070
     0
1002
}
1002
{
1000
OTHER
1070
     0
1002
}
1002
{
1000
REACTOR
1002
}
1001
GENIUS_GENOBJ-N-FIL_13
1002
{
1000
OWNER
1000
GEN
1002
}
  0
DIMENSION
  5
FDCA
330
1F
100
AcDbEntity
  8
AM_5
100
AcDbDimension
  2
*D19
 10
5705.875353078122
 20
6638.09844215072
 30
0.0
 11
5740.429438581226
 21
6641.198442150723
 31
0.0
 70
    32
  1
扉側リード線
 71
     5
 42
68.10817100620443
  3
SYS$0
100
AcDbAlignedDimension
 13
5773.983524084328
 23
6638.09844215072
 33
0.0
 14
5705.875353078122
 24
6624.798439098967
 34
0.0
 50
180.0
100
AcDbRotatedDimension
1001
ACAD
1000
DSTYLE
1002
{
1070
    75
1070
     1
1070
   173
1070
     1
1070
   342
1005
0
1070
   343
1005
E40C
1070
   344
1005
A66
1002
}
  0
LINE
  5
103EA
330
1F
100
AcDbEntity
  8
ケース-AM_0
 48
0.15
100
AcDbLine
 10
5782.717045366191
 20
6561.498434521324
 30
0.0
 11
5782.717045366191
 21
6560.304425061841
 31
0.0
  0
LINE
  5
103EC
330
1F
100
AcDbEntity
  8
ケース-AM_0
 48
0.15
100
AcDbLine
 10
5783.51704536619
 20
6560.784220958954
 30
0.0
 11
5783.51704536619
 21
6563.788517960095
 31
0.0
  0
LINE
  5
103ED
330
1F
100
AcDbEntity
  8
ケース-AM_0
 48
0.15
100
AcDbLine
 10
5781.517045366191
 20
6560.284220958954
 30
0.0
 11
5783.01704536619
 21
6560.284220958954
 31
0.0
  0
ARC
  5
103EE
330
1F
100
AcDbEntity
  8
ケース-AM_0
 48
0.15
100
AcDbCircle
 10
5783.01704536619
 20
6560.784220958954
 30
0.0
 40
0.5
100
AcDbArc
 50
270.0
 51
0.0
1001
GENIUS_GENOBJ-N-FIL_13
1002
{
1000
OWNER
1000
GEN
1002
}
1001
GENIUS_GENODEF_13
1002
{
1000
HIER
1070
     0
1002
}
1002
{
1000
MANEDIT
1070
     0
1002
}
1002
{
1000
NOSEL
1070
     0
1002
}
1002
{
1000
BEHIND
1070
     0
1002
}
1002
{
1000
OTHER
1070
     0
1002
}
1002
{
1000
REACTOR
1002
}
  0
ARC
  5
103EF
330
1F
100
AcDbEntity
  8
ケース-AM_0
100
AcDbCircle
 10
5782.717045366191
 20
6561.498434521324
 30
0.0
 40
1.199999999999999
100
AcDbArc
 50
135.0021376801024
 51
180.0
1001
GENIUS_GENODEF_13
1002
{
1000
HIER
1070
     0
1002
}
1002
{
1000
MANEDIT
1070
     0
1002
}
1002
{
1000
NOSEL
1070
     0
1002
}
1002
{
1000
BEHIND
1070
     0
1002
}
1002
{
1000
OTHER
1070
     0
1002
}
1002
{
1000
REACTOR
1002
}
1001
GENIUS_GENOBJ-N-FIL_13
1002
{
1000
OWNER
1000
GEN
1002
}
  0
LINE
  5
103F0
330
1F
100
AcDbEntity
  8
ケース-AM_0
100
AcDbLine
 10
5782.717045366191
 20
6561.498434521324
 30
0.0
 11
5783.51704536619
 21
6562.298494218843
 31
0.0
  0
LINE
  5
103F1
330
1F
100
AcDbEntity
  8
ケース-AM_0
100
AcDbLine
 10
5781.86848557115
 20
6562.346930999954
 30
0.0
 11
5820.517045366191
 21
6600.998374823807
 31
0.0
  0
ARC
  5
103F3
330
1F
100
AcDbEntity
  8
ケース-AM_0
100
AcDbCircle
 10
5784.017045366191
 20
6563.788517960095
 30
0.0
 40
0.5
100
AcDbArc
 50
135.0021376801024
 51
180.0
1001
GENIUS_GENODEF_13
1002
{
1000
HIER
1070
     0
1002
}
1002
{
1000
MANEDIT
1070
     0
1002
}
1002
{
1000
NOSEL
1070
     0
1002
}
1002
{
1000
BEHIND
1070
     0
1002
}
1002
{
1000
OTHER
1070
     0
1002
}
1002
{
1000
REACTOR
1002
}
1001
GENIUS_GENOBJ-N-FIL_13
1002
{
1000
OWNER
1000
GEN
1002
}
  0
LINE
  5
10428
330
1F
100
AcDbEntity
  8
ケース-AM_0
 48
0.15
100
AcDbLine
 10
5782.717045366191
 20
6504.535092960129
 30
0.0
 11
5782.717045366191
 21
6503.498434521326
 31
0.0
  0
LINE
  5
10429
330
1F
100
AcDbEntity
  8
ケース-AM_0
 48
0.15
100
AcDbLine
 10
5781.517045366191
 20
6503.498434521326
 30
0.0
 11
5781.517045366191
 21
6504.555297063014
 31
0.0
  0
LINE
  5
1042A
330
1F
100
AcDbEntity
  8
ケース-AM_0
 48
0.15
100
AcDbLine
 10
5783.51704536619
 20
6502.104485124522
 30
0.0
 11
5783.51704536619
 21
6504.055297063016
 31
0.0
  0
ARC
  5
1042B
330
1F
100
AcDbEntity
  8
ケース-AM_0
 48
0.15
100
AcDbCircle
 10
5783.01704536619
 20
6504.055297063016
 30
0.0
 40
0.5
100
AcDbArc
 50
0.0
 51
90.0
1001
GENIUS_GENODEF_13
1002
{
1000
HIER
1070
     0
1002
}
1002
{
1000
MANEDIT
1070
     0
1002
}
1002
{
1000
NOSEL
1070
     0
1002
}
1002
{
1000
BEHIND
1070
     0
1002
}
1002
{
1000
OTHER
1070
     0
1002
}
1002
{
1000
REACTOR
1002
}
1001
GENIUS_GENOBJ-N-FIL_13
1002
{
1000
OWNER
1000
GEN
1002
}
  0
LINE
  5
1042C
330
1F
100
AcDbEntity
  8
ケース-AM_0
 48
0.1757246256744501
100
AcDbLine
 10
5820.517045366191
 20
6485.798434521327
 30
0.0
 11
5817.227690703369
 21
6485.798434521327
 31
0.0
  0
LINE
  5
1042D
330
1F
100
AcDbEntity
  8
ケース-AM_0
100
AcDbLine
 10
5781.517045366191
 20
6561.498434521324
 30
0.0
 11
5781.517045366191
 21
6504.555297063014
 31
0.0
  0
LINE
  5
1042E
330
1F
100
AcDbEntity
  8
ケース-AM_0
 48
0.15
100
AcDbLine
 10
5783.01704536619
 20
6504.555297063014
 30
0.0
 11
5781.517045366191
 21
6504.555297063014
 31
0.0
  0
ARC
  5
1042F
330
1F
100
AcDbEntity
  8
ケース-AM_0
100
AcDbCircle
 10
5782.717045366191
 20
6503.498434521326
 30
0.0
 40
1.199999999999999
100
AcDbArc
 50
180.0
 51
244.5486695747683
  0
LINE
  5
10430
330
1F
100
AcDbEntity
  8
ケース-AM_0
100
AcDbLine
 10
5782.717045366191
 20
6503.498434521326
 30
0.0
 11
5783.51704536619
 21
6503.117687915707
 31
0.0
  0
LINE
  5
10431
330
1F
100
AcDbEntity
  8
ケース-AM_0
100
AcDbLine
 10
5782.201352271431
 20
6502.414893736669
 30
0.0
 11
5820.517045366191
 21
6484.179181126944
 31
0.0
  0
ARC
  5
10432
330
1F
100
AcDbEntity
  8
ケース-AM_0
100
AcDbCircle
 10
5817.227690703369
 20
6486.298434521327
 30
0.0
 40
0.5
100
AcDbArc
 50
244.5486695747683
 51
270.0
1001
GENIUS_GENODEF_13
1002
{
1000
HIER
1070
     0
1002
}
1002
{
1000
MANEDIT
1070
     0
1002
}
1002
{
1000
NOSEL
1070
     0
1002
}
1002
{
1000
BEHIND
1070
     0
1002
}
1002
{
1000
OTHER
1070
     0
1002
}
1002
{
1000
REACTOR
1002
}
1001
GENIUS_GENOBJ-N-FIL_13
1002
{
1000
OWNER
1000
GEN
1002
}
  0
ARC
  5
10433
330
1F
100
AcDbEntity
  8
ケース-AM_0
100
AcDbCircle
 10
5784.017045366191
 20
6502.104485124522
 30
0.0
 40
0.5
100
AcDbArc
 50
180.0
 51
244.5486695747683
1001
GENIUS_GENODEF_13
1002
{
1000
HIER
1070
     0
1002
}
1002
{
1000
MANEDIT
1070
     0
1002
}
1002
{
1000
NOSEL
1070
     0
1002
}
1002
{
1000
BEHIND
1070
     0
1002
}
1002
{
1000
OTHER
1070
     0
1002
}
1002
{
1000
REACTOR
1002
}
1001
GENIUS_GENOBJ-N-FIL_13
1002
{
1000
OWNER
1000
GEN
1002
}
  0
LINE
  5
10612
330
1F
100
AcDbEntity
  8
ケース-AM_0
100
AcDbLine
 10
5845.517045366189
 20
6516.118449441086
 30
0.0
 11
5845.517045366189
 21
6582.498434521328
 31
0.0
  0
LINE
  5
10623
330
1F
100
AcDbEntity
  8
ケース-AM_0
 48
0.15
100
AcDbLine
 10
5844.317045366191
 20
6516.098434521328
 30
0.0
 11
5844.317045366191
 21
6515.098434521326
 31
0.0
  0
LINE
  5
10624
330
1F
100
AcDbEntity
  8
ケース-AM_0
 48
0.15
100
AcDbLine
 10
5845.517045366189
 20
6515.098434521326
 30
0.0
 11
5845.517045366189
 21
6516.118449441086
 31
0.0
  0
ARC
  5
10625
330
1F
100
AcDbEntity
  8
ケース-AM_0
 48
0.15
100
AcDbCircle
 10
5844.317045366191
 20
6515.098434521326
 30
0.0
 40
1.199999999999999
100
AcDbArc
 50
330.1197089964133
 51
0.0
1001
GENIUS_GENODEF_13
1002
{
1000
HIER
1070
     0
1002
}
1002
{
1000
MANEDIT
1070
     0
1002
}
1002
{
1000
NOSEL
1070
     0
1002
}
1002
{
1000
BEHIND
1070
     0
1002
}
1002
{
1000
OTHER
1070
     0
1002
}
1002
{
1000
REACTOR
1002
}
1001
GENIUS_GENOBJ-N-FIL_13
1002
{
1000
OWNER
1000
GEN
1002
}
  0
LINE
  5
10628
330
1F
100
AcDbEntity
  8
ケース-AM_0
 48
0.2203634202114813
100
AcDbLine
 10
5843.017045366188
 20
6515.598434521327
 30
0.0
 11
5843.017045366188
 21
6510.711181036857
 31
0.0
  0
ARC
  5
10629
330
1F
100
AcDbEntity
  8
ケース-AM_0
 48
0.2203634202114813
100
AcDbCircle
 10
5843.517045366191
 20
6515.598434521327
 30
0.0
 40
0.5
100
AcDbArc
 50
90.0
 51
180.0
1001
GENIUS_GENOBJ-N-FIL_13
1002
{
1000
OWNER
1000
GEN
1002
}
1001
GENIUS_GENODEF_13
1002
{
1000
HIER
1070
     0
1002
}
1002
{
1000
MANEDIT
1070
     0
1002
}
1002
{
1000
NOSEL
1070
     0
1002
}
1002
{
1000
BEHIND
1070
     0
1002
}
1002
{
1000
OTHER
1070
     0
1002
}
1002
{
1000
REACTOR
1002
}
  0
LINE
  5
1062A
330
1F
100
AcDbEntity
  8
ケース-AM_0
 48
0.15
100
AcDbLine
 10
5828.576809105571
 20
6485.798434521327
 30
0.0
 11
5828.517045366191
 21
6485.798434521327
 31
0.0
  0
LINE
  5
1062C
330
1F
100
AcDbEntity
  8
ケース-AM_0
 48
0.15
100
AcDbLine
 10
5843.517045366191
 20
6516.098434521328
 30
0.0
 11
5845.517045366189
 21
6516.098434521328
 31
0.0
  0
ARC
  5
1062F
330
1F
100
AcDbEntity
  8
ケース-AM_0
 48
0.3
100
AcDbCircle
 10
5842.017045366191
 20
6510.711181036857
 30
0.0
 40
0.9999999999999854
100
AcDbArc
 50
330.1358355037333
 51
0.0
  0
LINE
  5
10631
330
1F
100
AcDbEntity
  8
ケース-AM_0
100
AcDbLine
 10
5844.317045366191
 20
6515.098434521326
 30
0.0
 11
5843.017045366188
 21
6512.835864552616
 31
0.0
  0
LINE
  5
10632
330
1F
100
AcDbEntity
  8
ケース-AM_0
100
AcDbLine
 10
5845.357527171252
 20
6514.500607110334
 30
0.0
 11
5828.51704536619
 21
6485.190785271303
 31
0.0
  0
ARC
  5
10633
330
1F
100
AcDbEntity
  8
ケース-AM_0
100
AcDbCircle
 10
5828.576809105571
 20
6486.298434521327
 30
0.0
 40
0.5
100
AcDbArc
 50
270.0
 51
330.1197089964133
1001
GENIUS_GENOBJ-N-FIL_13
1002
{
1000
OWNER
1000
GEN
1002
}
1001
GENIUS_GENODEF_13
1002
{
1000
HIER
1070
     0
1002
}
1002
{
1000
MANEDIT
1070
     0
1002
}
1002
{
1000
NOSEL
1070
     0
1002
}
1002
{
1000
BEHIND
1070
     0
1002
}
1002
{
1000
OTHER
1070
     0
1002
}
1002
{
1000
REACTOR
1002
}
  0
LINE
  5
106B8
330
1F
100
AcDbEntity
  8
ケース-AM_0
100
AcDbLine
 10
5816.014560642464
 20
6594.798434521326
 30
0.0
 11
5820.517045366191
 21
6599.301255229001
 31
0.0
  0
ARC
  5
10804
330
1F
100
AcDbEntity
  8
ケーブル-AM_0
 48
0.4
100
AcDbCircle
 10
5829.868713728907
 20
6597.231796808961
 30
0.0
 40
0.410044149841876
100
AcDbArc
 50
10.03033606203979
 51
190.0303360620396
  0
LINE
  5
10805
330
1F
100
AcDbEntity
  8
ケーブル-AM_0
 48
0.7900000000000275
100
AcDbLine
 10
5830.272490630492
 20
6597.303214023745
 30
0.0
 11
5830.715518389157
 21
6594.798434521326
 31
0.0
  0
LINE
  5
10806
330
1F
100
AcDbEntity
  8
ケーブル-AM_0
100
AcDbLine
 10
5829.464936827324
 20
6597.160379594178
 30
0.0
 11
5829.882701037989
 21
6594.798434521327
 31
0.0
  0
LINE
  5
10807
330
1F
100
AcDbEntity
  8
ケース-AM_0
 48
0.175
100
AcDbLine
 10
5816.508719254122
 20
6595.29305213441
 30
0.0
 11
5818.406056823317
 21
6595.29305213441
 31
0.0
  0
LINE
  5
10808
330
1F
100
AcDbEntity
  8
ケース-AM_0
 48
0.15
100
AcDbLine
 10
5818.618304372408
 20
6596.49305213441
 30
0.0
 11
5817.708719254122
 21
6596.49305213441
 31
0.0
  0
LINE
  5
10809
330
1F
100
AcDbEntity
  8
ケース-AM_0
100
AcDbLine
 10
5819.521521430644
 20
6596.891076275777
 30
0.0
 11
5820.517045366191
 21
6597.886768164904
 31
0.0
  0
ARC
  5
1080A
330
1F
100
AcDbEntity
  8
ケース-AM_0
100
AcDbCircle
 10
5818.709301455389
 20
6597.49305213441
 30
0.0
 40
2.2
100
AcDbArc
 50
284.250235157264
 51
315.0048327415694
1001
GENIUS_GENODEF_13
1002
{
1000
HIER
1070
     0
1002
}
1002
{
1000
MANEDIT
1070
     0
1002
}
1002
{
1000
NOSEL
1070
     0
1002
}
1002
{
1000
BEHIND
1070
     0
1002
}
1002
{
1000
OTHER
1070
     0
1002
}
1002
{
1000
REACTOR
1002
}
1001
GENIUS_GENOBJ-N-FIL_13
1002
{
1000
OWNER
1000
GEN
1002
}
  0
LINE
  5
1080B
330
1F
100
AcDbEntity
  8
ケース-AM_0
100
AcDbLine
 10
5820.265067581999
 20
6595.937548434865
 30
0.0
 11
5820.517045366191
 21
6596.189568729909
 31
0.0
  0
ARC
  5
1080C
330
1F
100
AcDbEntity
  8
ケーブル-AM_0
 48
0.4
100
AcDbCircle
 10
5819.165377003471
 20
6597.231796808961
 30
0.0
 40
0.410044149841876
100
AcDbArc
 50
349.9696639379625
 51
169.9696639379625
  0
LINE
  5
1080D
330
1F
100
AcDbEntity
  8
ケーブル-AM_0
 48
0.7900000000000275
100
AcDbLine
 10
5818.761600101889
 20
6597.303214023745
 30
0.0
 11
5818.318572343224
 21
6594.798434521326
 31
0.0
  0
LINE
  5
1080E
330
1F
100
AcDbEntity
  8
ケーブル-AM_0
100
AcDbLine
 10
5819.569153905056
 20
6597.160379594178
 30
0.0
 11
5819.151389694391
 21
6594.798434521327
 31
0.0
  0
LINE
  5
108BD
330
1F
100
AcDbEntity
  8
フロントプレート-AM_0
 48
0.15
100
AcDbLine
 10
5992.728476223544
 20
6598.298434521327
 30
0.0
 11
5991.871359524323
 21
6598.298434521327
 31
0.0
  0
LINE
  5
108BE
330
1F
100
AcDbEntity
  8
フロントプレート-AM_0
 48
0.15
100
AcDbLine
 10
5995.014181789944
 20
6601.584140087727
 30
0.0
 11
5995.871359524326
 21
6601.584140087727
 31
0.0
  0
LINE
  5
108BF
330
1F
100
AcDbEntity
  8
フロントプレート-AM_0
 48
0.15
100
AcDbLine
 10
5996.299887356354
 20
6601.584140087727
 30
0.0
 11
5997.157065090725
 21
6601.584140087727
 31
0.0
  0
LINE
  5
108C0
330
1F
100
AcDbEntity
  8
フロントプレート-AM_0
 48
0.15
100
AcDbLine
 10
5997.585653957912
 20
6599.155551220547
 30
0.0
 11
5997.585653957912
 21
6598.369845654136
 31
0.0
  0
LINE
  5
108C1
330
1F
100
AcDbEntity
  8
フロントプレート-AM_0
 48
0.15
100
AcDbLine
 10
5999.585653957914
 20
6601.454135204915
 30
0.0
 11
5999.585653957914
 21
6600.726962353357
 31
0.0
  0
LINE
  5
108C2
330
1F
100
AcDbEntity
  8
フロントプレート-AM_0
 48
0.1642852783199942
100
AcDbLine
 10
5997.157065090725
 20
6601.584140087727
 30
0.0
 11
5997.157065090725
 21
6598.298434521327
 31
0.0
  0
LINE
  5
108C3
330
1F
100
AcDbEntity
  8
フロントプレート-AM_0
 48
0.15
100
AcDbLine
 10
5995.871359524326
 20
6601.584140087727
 30
0.0
 11
5995.060629543853
 21
6598.763690258626
 31
0.0
  0
LINE
  5
108C4
330
1F
100
AcDbEntity
  8
フロントプレート-AM_0
 48
0.15
100
AcDbLine
 10
5995.014212307523
 20
6601.584155346516
 30
0.0
 11
5994.441061672754
 21
6599.590182568197
 31
0.0
  0
LINE
  5
108C5
330
1F
100
AcDbEntity
  8
フロントプレート-AM_0
 48
0.1642852783199942
100
AcDbLine
 10
5996.299887356354
 20
6601.584140087727
 30
0.0
 11
5996.299887356354
 21
6598.298434521327
 31
0.0
  0
LINE
  5
108C6
330
1F
100
AcDbEntity
  8
フロントプレート-AM_0
 48
0.15
100
AcDbLine
 10
5993.014181789944
 20
6601.584185864097
 30
0.0
 11
5993.824942287996
 21
6598.763690258626
 31
0.0
  0
LINE
  5
108C7
330
1F
100
AcDbEntity
  8
フロントプレート-AM_0
 48
0.15
100
AcDbLine
 10
5994.442770657133
 20
6599.584155346517
 30
0.0
 11
5993.871329006744
 21
6601.584140087727
 31
0.0
  0
LINE
  5
108C8
330
1F
100
AcDbEntity
  8
フロントプレート-AM_0
 48
0.15
100
AcDbLine
 10
5991.871359524323
 20
6598.655581738118
 30
0.0
 11
5991.157065090725
 21
6598.298434521327
 31
0.0
  0
LINE
  5
108C9
330
1F
100
AcDbEntity
  8
フロントプレート-AM_0
 48
0.15
100
AcDbLine
 10
5989.014181789944
 20
6598.298434521327
 30
0.0
 11
5988.157065090724
 21
6598.298434521327
 31
0.0
  0
LINE
  5
108CA
330
1F
100
AcDbEntity
  8
フロントプレート-AM_0
 48
0.15
100
AcDbLine
 10
5991.871359524323
 20
6598.655551220544
 30
0.0
 11
5991.871359524323
 21
6598.298434521327
 31
0.0
  0
LINE
  5
108CB
330
1F
100
AcDbEntity
  8
フロントプレート-AM_0
 48
0.15
100
AcDbLine
 10
5992.728476223544
 20
6599.941256786947
 30
0.0
 11
5992.728476223544
 21
6598.298434521327
 31
0.0
  0
LINE
  5
108CC
330
1F
100
AcDbEntity
  8
フロントプレート-AM_0
 48
0.15
100
AcDbLine
 10
5987.728476223544
 20
6599.155551220547
 30
0.0
 11
5987.728476223544
 21
6598.298434521327
 31
0.0
  0
LINE
  5
108CD
330
1F
100
AcDbEntity
  8
フロントプレート-AM_0
 48
0.15
100
AcDbLine
 10
5987.728476223544
 20
6598.298434521327
 30
0.0
 11
5987.228476223544
 21
6598.298434521327
 31
0.0
  0
LINE
  5
108CE
330
1F
100
AcDbEntity
  8
フロントプレート-AM_0
 48
0.15
100
AcDbLine
 10
5987.728476223544
 20
6603.298434521327
 30
0.0
 11
5987.228476223544
 21
6603.298434521327
 31
0.0
  0
LINE
  5
108CF
330
1F
100
AcDbEntity
  8
フロントプレート-AM_0
 48
0.25
100
AcDbLine
 10
5988.157065090724
 20
6603.298434521327
 30
0.0
 11
5988.157065090724
 21
6598.298434521327
 31
0.0
  0
LINE
  5
108D0
330
1F
100
AcDbEntity
  8
フロントプレート-AM_0
 48
0.25
100
AcDbLine
 10
5989.014181789944
 20
6603.298434521327
 30
0.0
 11
5989.014181789944
 21
6598.298434521327
 31
0.0
  0
LINE
  5
108D1
330
1F
100
AcDbEntity
  8
フロントプレート-AM_0
 48
0.15
100
AcDbLine
 10
5987.728476223544
 20
6599.155551220547
 30
0.0
 11
5987.228476223544
 21
6599.155551220547
 31
0.0
  0
LINE
  5
108D2
330
1F
100
AcDbEntity
  8
フロントプレート-AM_0
 48
0.15
100
AcDbLine
 10
5987.728476223544
 20
6602.441256786946
 30
0.0
 11
5987.228476223544
 21
6602.441256786946
 31
0.0
  0
LINE
  5
108D3
330
1F
100
AcDbEntity
  8
フロントプレート-AM_0
 48
0.15
100
AcDbLine
 10
5987.728476223544
 20
6603.298434521327
 30
0.0
 11
5987.728476223544
 21
6602.441256786946
 31
0.0
  0
LINE
  5
108D4
330
1F
100
AcDbEntity
  8
フロントプレート-AM_0
 48
0.15
100
AcDbLine
 10
5997.157065090725
 20
6598.298434521327
 30
0.0
 11
5996.299887356354
 21
6598.298434521327
 31
0.0
  0
LINE
  5
108D5
330
1F
100
AcDbEntity
  8
フロントプレート-AM_0
 48
0.15
100
AcDbLine
 10
5989.014181789944
 20
6603.298434521327
 30
0.0
 11
5988.157065090724
 21
6603.298434521327
 31
0.0
  0
LINE
  5
108D6
330
1F
100
AcDbEntity
  8
フロントプレート-AM_0
 48
0.15
100
AcDbLine
 10
5993.014181789944
 20
6601.584140087727
 30
0.0
 11
5993.871359524323
 21
6601.584140087727
 31
0.0
  0
LINE
  5
108D7
330
1F
100
AcDbEntity
  8
フロントプレート-AM_0
 48
0.15
100
AcDbLine
 10
5998.499869045804
 20
6600.311602856286
 30
0.0
 11
5999.082571682524
 21
6600.128375317225
 31
0.0
  0
LINE
  5
108D8
330
1F
100
AcDbEntity
  8
フロントプレート-AM_0
 48
0.15
100
AcDbLine
 10
5998.285605129794
 20
6599.630206371905
 30
0.0
 11
5998.868307766503
 21
6599.446963574056
 31
0.0
  0
CIRCLE
  5
108D9
330
1F
100
AcDbEntity
  8
フロントプレート-AM_0
 48
0.4
100
AcDbCircle
 10
5996.728476223545
 20
6602.584140087727
 30
0.0
 40
0.4285714328289
  0
ARC
  5
108DA
330
1F
100
AcDbEntity
  8
フロントプレート-AM_0
 48
0.3
100
AcDbCircle
 10
5998.379965481354
 20
6599.725741650226
 30
0.0
 40
1.571428537368799
100
AcDbArc
 50
239.6366442572331
 51
311.2709203665819
  0
ARC
  5
108DB
330
1F
100
AcDbEntity
  8
フロントプレート-AM_0
 48
0.3
100
AcDbCircle
 10
5994.442770657133
 20
6598.941256786947
 30
0.0
 40
0.6428571343421999
100
AcDbArc
 50
196.0371698792257
 51
343.9628268194089
  0
CIRCLE
  5
108DC
330
1F
100
AcDbEntity
  8
フロントプレート-AM_0
 48
0.4
100
AcDbCircle
 10
5991.085653957913
 20
6599.941256786947
 30
0.0
 40
0.7857142686844
  0
ARC
  5
108DD
330
1F
100
AcDbEntity
  8
フロントプレート-AM_0
 48
0.3
100
AcDbCircle
 10
5991.085653957913
 20
6599.941256786947
 30
0.0
 40
1.6428571939468
100
AcDbArc
 50
0.0000025044687019
 51
272.4918995792921
  0
ARC
  5
108DE
330
1F
100
AcDbEntity
  8
フロントプレート-AM_0
 48
0.3
100
AcDbCircle
 10
5987.228476223544
 20
6600.798434521326
 30
0.0
 40
1.6428571939468
100
AcDbArc
 50
90.00000933465788
 51
270.0000006832691
  0
ARC
  5
108DF
330
1F
100
AcDbEntity
  8
フロントプレート-AM_0
 48
0.3
100
AcDbCircle
 10
5987.228476223544
 20
6600.798434521326
 30
0.0
 40
2.5
100
AcDbArc
 50
90.00000933465788
 51
270.0000006832691
  0
ARC
  5
108E0
330
1F
100
AcDbEntity
  8
フロントプレート-AM_0
 48
0.3
100
AcDbCircle
 10
5998.585653957912
 20
6600.584140087724
 30
0.0
 40
1.0
100
AcDbArc
 50
145.1390336739179
 51
252.5443594290281
  0
ARC
  5
108E1
330
1F
100
AcDbEntity
  8
フロントプレート-AM_0
 48
0.3
100
AcDbCircle
 10
5998.585653957912
 20
6600.584140087724
 30
0.0
 40
0.2857142984867
100
AcDbArc
 50
113.1570007343887
 51
252.5443594290281
  0
ARC
  5
108E2
330
1F
100
AcDbEntity
  8
フロントプレート-AM_0
 48
0.3
100
AcDbCircle
 10
5998.803976711823
 20
6599.242587353356
 30
0.0
 40
0.9285714030265999
100
AcDbArc
 50
311.2709203665819
 51
72.54437491062123
  0
ARC
  5
108E3
330
1F
100
AcDbEntity
  8
フロントプレート-AM_0
 48
0.3
100
AcDbCircle
 10
5998.803976711823
 20
6599.242587353356
 30
0.0
 40
0.2142857164145
100
AcDbArc
 50
294.1146633791662
 51
72.54437491062123
  0
ARC
  5
108E4
330
1F
100
AcDbEntity
  8
フロントプレート-AM_0
 48
0.3
100
AcDbCircle
 10
5998.337057766502
 20
6600.285678173666
 30
0.0
 40
1.3571428060532
100
AcDbArc
 50
236.3792860609033
 51
294.1146633791662
  0
ARC
  5
108E5
330
1F
100
AcDbEntity
  8
フロントプレート-AM_0
 48
0.3
100
AcDbCircle
 10
5998.922690090724
 20
6599.796054150226
 30
0.0
 40
1.142857193946799
100
AcDbArc
 50
54.54516329659213
 51
113.1569939042412
  0
ARC
  5
108E6
330
1F
100
AcDbEntity
  8
フロントプレート-AM_0
 48
0.3
100
AcDbCircle
 10
5998.922690090724
 20
6599.796054150226
 30
0.0
 40
1.7857142686844
100
AcDbArc
 50
68.20794244808631
 51
130.4108508798061
  0
LINE
  5
10A5C
330
1F
100
AcDbEntity
  8
ケース-AM_0
 48
0.15
100
AcDbLine
 10
5844.317045366191
 20
6582.998434521328
 30
0.0
 11
5844.317045366191
 21
6583.490146978198
 31
0.0
  0
LINE
  5
10A5D
330
1F
100
AcDbEntity
  8
ケース-AM_0
 48
0.15
100
AcDbLine
 10
5845.517045366189
 20
6583.50137824648
 30
0.0
 11
5845.517045366189
 21
6582.498434521328
 31
0.0
  0
LINE
  5
10A61
330
1F
100
AcDbEntity
  8
ケース-AM_0
 48
0.15
100
AcDbLine
 10
5830.415786359973
 20
6596.49305213441
 30
0.0
 11
5831.325371478257
 21
6596.49305213441
 31
0.0
  0
LINE
  5
10A62
330
1F
100
AcDbEntity
  8
ケース-AM_0
 48
0.15
100
AcDbLine
 10
5830.628033909063
 20
6595.29305213441
 30
0.0
 11
5832.524417272478
 21
6595.29305213441
 31
0.0
  0
LINE
  5
10A65
330
1F
100
AcDbEntity
  8
ケース-AM_0
100
AcDbLine
 10
5832.618032229043
 20
6595.199421384184
 30
0.0
 11
5828.51704536619
 21
6599.301100119345
 31
0.0
  0
LINE
  5
10A66
330
1F
100
AcDbEntity
  8
ケース-AM_0
100
AcDbLine
 10
5829.512569301734
 20
6596.891076275777
 30
0.0
 11
5828.51704536619
 21
6597.886768164902
 31
0.0
  0
ARC
  5
10A68
330
1F
100
AcDbEntity
  8
ケース-AM_0
100
AcDbCircle
 10
5830.324789276989
 20
6597.49305213441
 30
0.0
 40
2.2
100
AcDbArc
 50
224.9951672584423
 51
255.7497648427534
1001
GENIUS_GENODEF_13
1002
{
1000
HIER
1070
     0
1002
}
1002
{
1000
MANEDIT
1070
     0
1002
}
1002
{
1000
NOSEL
1070
     0
1002
}
1002
{
1000
BEHIND
1070
     0
1002
}
1002
{
1000
OTHER
1070
     0
1002
}
1002
{
1000
REACTOR
1002
}
1001
GENIUS_GENOBJ-N-FIL_13
1002
{
1000
OWNER
1000
GEN
1002
}
  0
LINE
  5
10A69
330
1F
100
AcDbEntity
  8
ケース-AM_0
100
AcDbLine
 10
5828.769023150383
 20
6595.937548434865
 30
0.0
 11
5828.51704536619
 21
6596.189568729909
 31
0.0
  0
LINE
  5
10A6A
330
1F
100
AcDbEntity
  8
ケース-AM_0
100
AcDbLine
 10
5845.165645071613
 20
6584.346891084717
 30
0.0
 11
5828.517045366191
 21
6600.998299554337
 31
0.0
  0
ARC
  5
10A6B
330
1F
100
AcDbEntity
  8
ケース-AM_0
100
AcDbCircle
 10
5844.317045366191
 20
6583.498434521328
 30
0.0
 40
1.199999999999999
100
AcDbArc
 50
0.0
 51
44.9951672584055
1001
GENIUS_GENODEF_13
1002
{
1000
HIER
1070
     0
1002
}
1002
{
1000
MANEDIT
1070
     0
1002
}
1002
{
1000
NOSEL
1070
     0
1002
}
1002
{
1000
BEHIND
1070
     0
1002
}
1002
{
1000
OTHER
1070
     0
1002
}
1002
{
1000
REACTOR
1002
}
1001
GENIUS_GENOBJ-N-FIL_13
1002
{
1000
OWNER
1000
GEN
1002
}
  0
LINE
  5
10A6D
330
1F
100
AcDbEntity
  8
ケース-AM_0
100
AcDbLine
 10
5844.765607245534
 20
6584.746996400672
 30
0.0
 11
5843.663491975597
 21
6583.644881130734
 31
0.0
  0
LINE
  5
10A6E
330
1F
100
AcDbEntity
  8
ケース-AM_0
100
AcDbLine
 10
5845.517045366189
 20
6582.998434521328
 30
0.0
 11
5828.517045366191
 21
6582.998434521328
 31
0.0
  0
LINE
  5
10A6F
330
1F
100
AcDbEntity
  8
ケース-AM_0
100
AcDbLine
 10
5833.466560369485
 20
6596.047949524628
 30
0.0
 11
5832.36349197559
 21
6594.944881130732
 31
0.0
  0
LINE
  5
10A70
330
1F
100
AcDbEntity
  8
ケース-AM_0
100
AcDbLine
 10
5843.912901594626
 20
6583.894290749762
 30
0.0
 11
5844.317045366191
 21
6583.490146978198
 31
0.0
  0
LINE
  5
10A71
330
1F
100
AcDbEntity
  8
ケース-AM_0
100
AcDbLine
 10
5843.309938585004
 20
6583.498434521327
 30
0.0
 11
5828.51704536619
 21
6583.498434521328
 31
0.0
  0
ARC
  5
10A72
330
1F
100
AcDbEntity
  8
ケース-AM_0
100
AcDbCircle
 10
5843.309938585004
 20
6583.998434521326
 30
0.0
 40
0.5
100
AcDbArc
 50
270.0
 51
314.9999999999997
1001
GENIUS_GENOBJ-N-FIL_13
1002
{
1000
OWNER
1000
GEN
1002
}
1001
GENIUS_GENODEF_13
1002
{
1000
HIER
1070
     0
1002
}
1002
{
1000
MANEDIT
1070
     0
1002
}
1002
{
1000
NOSEL
1070
     0
1002
}
1002
{
1000
BEHIND
1070
     0
1002
}
1002
{
1000
OTHER
1070
     0
1002
}
1002
{
1000
REACTOR
1002
}
  0
LINE
  5
10A73
330
1F
100
AcDbEntity
  8
ケース-AM_0
 48
0.15
100
AcDbLine
 10
5832.009938584997
 20
6594.798434521326
 30
0.0
 11
5828.517045366191
 21
6594.798434521326
 31
0.0
  0
ARC
  5
10A74
330
1F
100
AcDbEntity
  8
ケース-AM_0
 48
0.15
100
AcDbCircle
 10
5832.009938584997
 20
6595.298434521327
 30
0.0
 40
0.5
100
AcDbArc
 50
270.0
 51
314.9999999999997
1001
GENIUS_GENOBJ-N-FIL_13
1002
{
1000
OWNER
1000
GEN
1002
}
1001
GENIUS_GENODEF_13
1002
{
1000
HIER
1070
     0
1002
}
1002
{
1000
MANEDIT
1070
     0
1002
}
1002
{
1000
NOSEL
1070
     0
1002
}
1002
{
1000
BEHIND
1070
     0
1002
}
1002
{
1000
OTHER
1070
     0
1002
}
1002
{
1000
REACTOR
1002
}
  0
LINE
  5
10E2A
330
1F
100
AcDbEntity
  8
ケース-AM_0
 48
0.15
100
AcDbLine
 10
5814.524685389475
 20
6594.798434521326
 30
0.0
 11
5820.517045366191
 21
6594.798434521326
 31
0.0
  0
ARC
  5
10E2B
330
1F
100
AcDbEntity
  8
ケース-AM_0
100
AcDbCircle
 10
5814.524685389475
 20
6594.298434521326
 30
0.0
 40
0.5
100
AcDbArc
 50
90.0
 51
135.0021376801023
1001
GENIUS_GENODEF_13
1002
{
1000
HIER
1070
     0
1002
}
1002
{
1000
MANEDIT
1070
     0
1002
}
1002
{
1000
NOSEL
1070
     0
1002
}
1002
{
1000
BEHIND
1070
     0
1002
}
1002
{
1000
OTHER
1070
     0
1002
}
1002
{
1000
REACTOR
1002
}
1001
GENIUS_GENOBJ-N-FIL_13
1002
{
1000
OWNER
1000
GEN
1002
}
  0
LINE
  5
10E5E
330
1F
100
AcDbEntity
  8
AM_2
100
AcDbLine
 10
5717.456552614193
 20
6664.062992781612
 30
0.0
 11
5789.02606410961
 21
6664.062992781612
 31
0.0
  0
MTEXT
  5
10E5F
330
1F
100
AcDbEntity
  8
AM_6
100
AcDbMText
 10
5717.456552614193
 20
6660.062992781611
 30
0.0
 40
3.2
 41
90.0
 71
     4
 72
     5
  1
　コネクタ：モレックス製　1625-09P,R
 73
     1
 44
1.0
1001
ACAD
1000
MTEXTBEGIN
1070
    73
1070
     1
1070
    44
1040
1.0
1070
    74
1070
     0
1000
MTEXTEND
  0
MTEXT
  5
10EB8
330
1F
100
AcDbEntity
  8
ケーブル-AM_6
370
    30
100
AcDbMText
 10
5992.228476223544
 20
6590.798434521325
 30
0.0
 40
2.5
 41
10.12831673675646
 71
     5
 72
     5
  1
{\T2;TKH}
 73
     1
 44
1.0
1001
ACAD
1000
MTEXTBEGIN
1070
    73
1070
     1
1070
    44
1040
1.0
1070
    74
1070
     0
1000
MTEXTEND
  0
MTEXT
  5
10EB9
330
1F
100
AcDbEntity
  8
ケーブル-AM_6
370
    30
100
AcDbMText
 10
6047.228476223544
 20
6590.798434521325
 30
0.0
 40
2.5
 41
10.12831673675646
 71
     5
 72
     5
  1
{\T2;TKH}
 73
     1
 44
1.0
1001
ACAD
1000
MTEXTBEGIN
1070
    73
1070
     1
1070
    44
1040
1.0
1070
    74
1070
     0
1000
MTEXTEND
  0
LINE
  5
1101E
330
1F
100
AcDbEntity
  8
フロントプレート-AM_0
 48
0.7999999999999093
100
AcDbLine
 10
5984.228476223545
 20
6484.298434521327
 30
0.0
 11
6000.228476223544
 21
6484.298434521327
 31
0.0
  0
ARC
  5
1101F
330
1F
100
AcDbEntity
  8
フロントプレート-AM_0
 48
0.3
100
AcDbCircle
 10
6000.228476223544
 20
6485.298434521327
 30
0.0
 40
1.0
100
AcDbArc
 50
270.0
 51
0.0
1001
GENIUS_GENODEF_13
1002
{
1000
HIER
1070
     0
1002
}
1002
{
1000
MANEDIT
1070
     0
1002
}
1002
{
1000
NOSEL
1070
     0
1002
}
1002
{
1000
BEHIND
1070
     0
1002
}
1002
{
1000
OTHER
1070
     0
1002
}
1002
{
1000
REACTOR
1002
}
1001
GENIUS_GENOBJ-N-FIL_13
1002
{
1000
OWNER
1000
GEN
1002
}
  0
LINE
  5
11020
330
1F
100
AcDbEntity
  8
フロントプレート-AM_0
 48
0.7999999999999093
100
AcDbLine
 10
5984.228476223545
 20
6570.898434521327
 30
0.0
 11
6000.228476223544
 21
6570.898434521325
 31
0.0
  0
ARC
  5
11021
330
1F
100
AcDbEntity
  8
フロントプレート-AM_0
 48
0.3
100
AcDbCircle
 10
6000.228476223544
 20
6569.898434521326
 30
0.0
 40
1.0
100
AcDbArc
 50
0.0
 51
90.0
1001
GENIUS_GENODEF_13
1002
{
1000
HIER
1070
     0
1002
}
1002
{
1000
MANEDIT
1070
     0
1002
}
1002
{
1000
NOSEL
1070
     0
1002
}
1002
{
1000
BEHIND
1070
     0
1002
}
1002
{
1000
OTHER
1070
     0
1002
}
1002
{
1000
REACTOR
1002
}
1001
GENIUS_GENOBJ-N-FIL_13
1002
{
1000
OWNER
1000
GEN
1002
}
  0
LINE
  5
11022
330
1F
100
AcDbEntity
  8
フロントプレート-AM_0
100
AcDbLine
 10
6001.228476223544
 20
6485.298434521327
 30
0.0
 11
6001.228476223542
 21
6512.29702174978
 31
0.0
  0
LINE
  5
11023
330
1F
100
AcDbEntity
  8
フロントプレート-AM_0
100
AcDbLine
 10
5983.228476223546
 20
6485.298434521324
 30
0.0
 11
5983.228476223545
 21
6569.898434521326
 31
0.0
  0
ARC
  5
11024
330
1F
100
AcDbEntity
  8
フロントプレート-AM_0
 48
0.3
100
AcDbCircle
 10
5984.228476223545
 20
6485.298434521324
 30
0.0
 40
1.0
100
AcDbArc
 50
180.0
 51
270.0
1001
GENIUS_GENOBJ-N-FIL_13
1002
{
1000
OWNER
1000
GEN
1002
}
1001
GENIUS_GENODEF_13
1002
{
1000
HIER
1070
     0
1002
}
1002
{
1000
MANEDIT
1070
     0
1002
}
1002
{
1000
NOSEL
1070
     0
1002
}
1002
{
1000
BEHIND
1070
     0
1002
}
1002
{
1000
OTHER
1070
     0
1002
}
1002
{
1000
REACTOR
1002
}
  0
ARC
  5
11025
330
1F
100
AcDbEntity
  8
フロントプレート-AM_0
 48
0.3
100
AcDbCircle
 10
5984.228476223545
 20
6569.898434521326
 30
0.0
 40
1.0
100
AcDbArc
 50
90.0
 51
180.0
1001
GENIUS_GENODEF_13
1002
{
1000
HIER
1070
     0
1002
}
1002
{
1000
MANEDIT
1070
     0
1002
}
1002
{
1000
NOSEL
1070
     0
1002
}
1002
{
1000
BEHIND
1070
     0
1002
}
1002
{
1000
OTHER
1070
     0
1002
}
1002
{
1000
REACTOR
1002
}
1001
GENIUS_GENOBJ-N-FIL_13
1002
{
1000
OWNER
1000
GEN
1002
}
  0
LINE
  5
11026
330
1F
100
AcDbEntity
  8
フロントプレート-AM_0
100
AcDbLine
 10
6001.228476223542
 20
6527.717867693872
 30
0.0
 11
6001.228476223542
 21
6569.898434521326
 31
0.0
  0
LINE
  5
11151
330
1F
100
AcDbEntity
  8
ブッシュ-AM_0
100
AcDbLine
 10
5803.231850010778
 20
6587.601666916434
 30
0.0
 11
5811.010024603829
 21
6595.379841509487
 31
0.0
  0
ARC
  5
11152
330
1F
100
AcDbEntity
  8
ブッシュ-AM_0
100
AcDbCircle
 10
5804.646063573152
 20
6586.187453354061
 30
0.0
 40
2.0
100
AcDbArc
 50
134.9999999999999
 51
225.0
1001
GENIUS_GENOBJ-N-FIL_13
1002
{
1000
OWNER
1000
GEN
1002
}
1001
GENIUS_GENODEF_13
1002
{
1000
HIER
1070
     0
1002
}
1002
{
1000
MANEDIT
1070
     0
1002
}
1002
{
1000
NOSEL
1070
     0
1002
}
1002
{
1000
BEHIND
1070
     0
1002
}
1002
{
1000
OTHER
1070
     0
1002
}
1002
{
1000
REACTOR
1002
}
  0
LINE
  5
11153
330
1F
100
AcDbEntity
  8
ブッシュ-AM_0
100
AcDbLine
 10
5813.838451728577
 20
6595.379841509487
 30
0.0
 11
5814.368781814466
 21
6594.849511423595
 31
0.0
  0
ARC
  5
11154
330
1F
100
AcDbEntity
  8
ブッシュ-AM_0
100
AcDbCircle
 10
5812.424238166204
 20
6593.965627947112
 30
0.0
 40
2.0
100
AcDbArc
 50
45.0
 51
134.9999999999999
1001
GENIUS_GENODEF_13
1002
{
1000
HIER
1070
     0
1002
}
1002
{
1000
MANEDIT
1070
     0
1002
}
1002
{
1000
NOSEL
1070
     0
1002
}
1002
{
1000
BEHIND
1070
     0
1002
}
1002
{
1000
OTHER
1070
     0
1002
}
1002
{
1000
REACTOR
1002
}
1001
GENIUS_GENOBJ-N-FIL_13
1002
{
1000
OWNER
1000
GEN
1002
}
  0
LINE
  5
11155
330
1F
100
AcDbEntity
  8
ブッシュ-AM_0
100
AcDbLine
 10
5803.231850010778
 20
6584.773239791688
 30
0.0
 11
5803.762180096668
 21
6584.242909705797
 31
0.0
  0
LINE
  5
11157
330
1F
100
AcDbEntity
  8
ブッシュ-AM_0
100
AcDbLine
 10
5845.802240721601
 20
6587.601666916434
 30
0.0
 11
5838.02406612855
 21
6595.379841509487
 31
0.0
  0
ARC
  5
11158
330
1F
100
AcDbEntity
  8
ブッシュ-AM_0
100
AcDbCircle
 10
5844.388027159229
 20
6586.187453354061
 30
0.0
 40
2.0
100
AcDbArc
 50
315.0000000000048
 51
44.99999999999515
1001
GENIUS_GENOBJ-N-FIL_13
1002
{
1000
OWNER
1000
GEN
1002
}
1001
GENIUS_GENODEF_13
1002
{
1000
HIER
1070
     0
1002
}
1002
{
1000
MANEDIT
1070
     0
1002
}
1002
{
1000
NOSEL
1070
     0
1002
}
1002
{
1000
BEHIND
1070
     0
1002
}
1002
{
1000
OTHER
1070
     0
1002
}
1002
{
1000
REACTOR
1002
}
  0
LINE
  5
11159
330
1F
100
AcDbEntity
  8
ブッシュ-AM_0
100
AcDbLine
 10
5835.195639003804
 20
6595.379841509487
 30
0.0
 11
5834.665308917912
 21
6594.849511423595
 31
0.0
  0
ARC
  5
1115A
330
1F
100
AcDbEntity
  8
ブッシュ-AM_0
100
AcDbCircle
 10
5836.609852566176
 20
6593.965627947112
 30
0.0
 40
2.0
100
AcDbArc
 50
44.99999999999515
 51
135.0000000000048
1001
GENIUS_GENODEF_13
1002
{
1000
HIER
1070
     0
1002
}
1002
{
1000
MANEDIT
1070
     0
1002
}
1002
{
1000
NOSEL
1070
     0
1002
}
1002
{
1000
BEHIND
1070
     0
1002
}
1002
{
1000
OTHER
1070
     0
1002
}
1002
{
1000
REACTOR
1002
}
1001
GENIUS_GENOBJ-N-FIL_13
1002
{
1000
OWNER
1000
GEN
1002
}
  0
LINE
  5
1115B
330
1F
100
AcDbEntity
  8
ブッシュ-AM_0
100
AcDbLine
 10
5845.802240721601
 20
6584.773239791688
 30
0.0
 11
5845.271910635712
 21
6584.242909705797
 31
0.0
  0
LINE
  5
1115C
330
1F
100
AcDbEntity
  8
ブッシュ-AM_0
100
AcDbLine
 10
5845.271910635712
 20
6584.242909705797
 30
0.0
 11
5845.165645071613
 21
6584.346891084717
 31
0.0
  0
TEXT
  5
111C6
330
1F
100
AcDbEntity
  8
AM_6
 60
     1
100
AcDbText
 10
6091.456552614193
 20
6411.062992781612
 30
0.0
 40
2.5
  1
!GENTITLE-INSERT
100
AcDbText
  0
TEXT
  5
111C7
330
1F
100
AcDbEntity
  8
AM_6
 60
     1
100
AcDbText
 10
5682.956552614193
 20
6402.562992781611
 30
0.0
 40
2.5
  1
!GENTITLE-LL
100
AcDbText
  0
TEXT
  5
111C8
330
1F
100
AcDbEntity
  8
AM_6
 60
     1
100
AcDbText
 10
6102.956552614195
 20
6699.562992781611
 30
0.0
 40
2.5
  1
!GENTITLE-RU
100
AcDbText
  0
TEXT
  5
111C9
330
1F
100
AcDbEntity
  8
AM_6
 60
     1
100
AcDbText
 10
6102.956552614195
 20
6699.562992781611
 30
0.0
 40
2.5
  1
!GENTITLE-MAX
100
AcDbText
  0
LINE
  5
111CB
330
1F
100
AcDbEntity
  8
size
100
AcDbLine
 10
5682.956552614193
 20
6415.562992781612
 30
0.0
 11
6102.956552614195
 21
6415.562992781612
 31
0.0
1001
GENIUS_GENREC_14
1002
{
1000
PYDIR
1011
5682.956552614193
1021
6712.562992781612
1031
0.0
1002
}
1002
{
1000
PXDIR
1011
6102.956552614195
1021
6415.562992781612
1031
0.0
1002
}
1002
{
1000
PORI
1011
5682.956552614193
1021
6415.562992781612
1031
0.0
1002
}
1002
{
1000
PINS
1011
5892.956552614194
1021
6564.062992781612
1031
0.0
1002
}
1002
{
1000
HVAL
1000
297
1002
}
1002
{
1000
H
1070
     2
1002
}
1002
{
1000
WVAL
1000
420
1002
}
1002
{
1000
W
1070
     2
1002
}
1002
{
1000
C
1070
     4
1002
}
1001
GENIUS_GENOBJ-N-REC_13
1002
{
1000
OWNER
1000
GEN
1002
}
1001
GENIUS_GENODEF_13
1002
{
1000
HIER
1070
     0
1002
}
1002
{
1000
MANEDIT
1070
     0
1002
}
1002
{
1000
NOSEL
1070
     0
1002
}
1002
{
1000
BEHIND
1070
     0
1002
}
1002
{
1000
OTHER
1070
     0
1002
}
1002
{
1000
REACTOR
1002
}
  0
LINE
  5
111CC
330
1F
100
AcDbEntity
  8
size
100
AcDbLine
 10
6102.956552614195
 20
6415.562992781612
 30
0.0
 11
6102.956552614195
 21
6712.562992781612
 31
0.0
1001
GENIUS_GENREC_14
1002
{
1000
PYDIR
1011
5682.956552614193
1021
6712.562992781612
1031
0.0
1002
}
1002
{
1000
PXDIR
1011
6102.956552614195
1021
6415.562992781612
1031
0.0
1002
}
1002
{
1000
PORI
1011
5682.956552614193
1021
6415.562992781612
1031
0.0
1002
}
1002
{
1000
PINS
1011
5892.956552614194
1021
6564.062992781612
1031
0.0
1002
}
1002
{
1000
HVAL
1000
297
1002
}
1002
{
1000
H
1070
     2
1002
}
1002
{
1000
WVAL
1000
420
1002
}
1002
{
1000
W
1070
     2
1002
}
1002
{
1000
C
1070
     4
1002
}
1001
GENIUS_GENOBJ-N-REC_13
1002
{
1000
OWNER
1000
GEN
1002
}
1001
GENIUS_GENODEF_13
1002
{
1000
HIER
1070
     0
1002
}
1002
{
1000
MANEDIT
1070
     0
1002
}
1002
{
1000
NOSEL
1070
     0
1002
}
1002
{
1000
BEHIND
1070
     0
1002
}
1002
{
1000
OTHER
1070
     0
1002
}
1002
{
1000
REACTOR
1002
}
  0
LINE
  5
111CD
330
1F
100
AcDbEntity
  8
size
100
AcDbLine
 10
6102.956552614195
 20
6712.562992781612
 30
0.0
 11
5682.956552614193
 21
6712.562992781612
 31
0.0
1001
GENIUS_GENREC_14
1002
{
1000
PYDIR
1011
5682.956552614193
1021
6712.562992781612
1031
0.0
1002
}
1002
{
1000
PXDIR
1011
6102.956552614195
1021
6415.562992781612
1031
0.0
1002
}
1002
{
1000
PORI
1011
5682.956552614193
1021
6415.562992781612
1031
0.0
1002
}
1002
{
1000
PINS
1011
5892.956552614194
1021
6564.062992781612
1031
0.0
1002
}
1002
{
1000
HVAL
1000
297
1002
}
1002
{
1000
H
1070
     2
1002
}
1002
{
1000
WVAL
1000
420
1002
}
1002
{
1000
W
1070
     2
1002
}
1002
{
1000
C
1070
     4
1002
}
1001
GENIUS_GENOBJ-N-REC_13
1002
{
1000
OWNER
1000
GEN
1002
}
1001
GENIUS_GENODEF_13
1002
{
1000
HIER
1070
     0
1002
}
1002
{
1000
MANEDIT
1070
     0
1002
}
1002
{
1000
NOSEL
1070
     0
1002
}
1002
{
1000
BEHIND
1070
     0
1002
}
1002
{
1000
OTHER
1070
     0
1002
}
1002
{
1000
REACTOR
1002
}
  0
LINE
  5
111CE
330
1F
100
AcDbEntity
  8
size
100
AcDbLine
 10
5682.956552614193
 20
6712.562992781612
 30
0.0
 11
5682.956552614193
 21
6415.562992781612
 31
0.0
1001
GENIUS_GENREC_14
1002
{
1000
PYDIR
1011
5682.956552614193
1021
6712.562992781612
1031
0.0
1002
}
1002
{
1000
PXDIR
1011
6102.956552614195
1021
6415.562992781612
1031
0.0
1002
}
1002
{
1000
PORI
1011
5682.956552614193
1021
6415.562992781612
1031
0.0
1002
}
1002
{
1000
PINS
1011
5892.956552614194
1021
6564.062992781612
1031
0.0
1002
}
1002
{
1000
HVAL
1000
297
1002
}
1002
{
1000
H
1070
     2
1002
}
1002
{
1000
WVAL
1000
420
1002
}
1002
{
1000
W
1070
     2
1002
}
1002
{
1000
C
1070
     4
1002
}
1001
GENIUS_GENOBJ-N-REC_13
1002
{
1000
OWNER
1000
GEN
1002
}
1001
GENIUS_GENODEF_13
1002
{
1000
HIER
1070
     0
1002
}
1002
{
1000
MANEDIT
1070
     0
1002
}
1002
{
1000
NOSEL
1070
     0
1002
}
1002
{
1000
BEHIND
1070
     0
1002
}
1002
{
1000
OTHER
1070
     0
1002
}
1002
{
1000
REACTOR
1002
}
  0
LINE
  5
111CF
330
1F
100
AcDbEntity
  8
waku
100
AcDbLine
 10
6091.456552614193
 20
6424.062992781611
 30
0.0
 11
6091.456552614193
 21
6704.062992781611
 31
0.0
1001
GENIUS_GENREC_14
1002
{
1000
PYDIR
1011
5682.956552614193
1021
6712.562992781612
1031
0.0
1002
}
1002
{
1000
PXDIR
1011
6102.956552614195
1021
6415.562992781612
1031
0.0
1002
}
1002
{
1000
PORI
1011
5682.956552614193
1021
6415.562992781612
1031
0.0
1002
}
1002
{
1000
PINS
1011
5892.956552614194
1021
6564.062992781612
1031
0.0
1002
}
1002
{
1000
HVAL
1000
297
1002
}
1002
{
1000
H
1070
     2
1002
}
1002
{
1000
WVAL
1000
420
1002
}
1002
{
1000
W
1070
     2
1002
}
1002
{
1000
C
1070
     4
1002
}
1001
GENIUS_GENOBJ-N-REC_13
1002
{
1000
OWNER
1000
GEN
1002
}
1001
GENIUS_GENODEF_13
1002
{
1000
HIER
1070
     0
1002
}
1002
{
1000
MANEDIT
1070
     0
1002
}
1002
{
1000
NOSEL
1070
     0
1002
}
1002
{
1000
BEHIND
1070
     0
1002
}
1002
{
1000
OTHER
1070
     0
1002
}
1002
{
1000
REACTOR
1002
}
  0
LINE
  5
111D0
330
1F
100
AcDbEntity
  8
waku
100
AcDbLine
 10
5694.456552614195
 20
6704.062992781611
 30
0.0
 11
5694.456552614195
 21
6424.062992781611
 31
0.0
1001
GENIUS_GENREC_14
1002
{
1000
PYDIR
1011
5682.956552614193
1021
6712.562992781612
1031
0.0
1002
}
1002
{
1000
PXDIR
1011
6102.956552614195
1021
6415.562992781612
1031
0.0
1002
}
1002
{
1000
PORI
1011
5682.956552614193
1021
6415.562992781612
1031
0.0
1002
}
1002
{
1000
PINS
1011
5892.956552614194
1021
6564.062992781612
1031
0.0
1002
}
1002
{
1000
HVAL
1000
297
1002
}
1002
{
1000
H
1070
     2
1002
}
1002
{
1000
WVAL
1000
420
1002
}
1002
{
1000
W
1070
     2
1002
}
1002
{
1000
C
1070
     4
1002
}
1001
GENIUS_GENOBJ-N-REC_13
1002
{
1000
OWNER
1000
GEN
1002
}
1001
GENIUS_GENODEF_13
1002
{
1000
HIER
1070
     0
1002
}
1002
{
1000
MANEDIT
1070
     0
1002
}
1002
{
1000
NOSEL
1070
     0
1002
}
1002
{
1000
BEHIND
1070
     0
1002
}
1002
{
1000
OTHER
1070
     0
1002
}
1002
{
1000
REACTOR
1002
}
  0
LINE
  5
111D1
330
1F
100
AcDbEntity
  8
waku
100
AcDbLine
 10
6091.456552614193
 20
6704.062992781611
 30
0.0
 11
5694.456552614195
 21
6704.062992781611
 31
0.0
1001
GENIUS_GENREC_14
1002
{
1000
PYDIR
1011
5682.956552614193
1021
6712.562992781612
1031
0.0
1002
}
1002
{
1000
PXDIR
1011
6102.956552614195
1021
6415.562992781612
1031
0.0
1002
}
1002
{
1000
PORI
1011
5682.956552614193
1021
6415.562992781612
1031
0.0
1002
}
1002
{
1000
PINS
1011
5892.956552614194
1021
6564.062992781612
1031
0.0
1002
}
1002
{
1000
HVAL
1000
297
1002
}
1002
{
1000
H
1070
     2
1002
}
1002
{
1000
WVAL
1000
420
1002
}
1002
{
1000
W
1070
     2
1002
}
1002
{
1000
C
1070
     4
1002
}
1001
GENIUS_GENOBJ-N-REC_13
1002
{
1000
OWNER
1000
GEN
1002
}
1001
GENIUS_GENODEF_13
1002
{
1000
HIER
1070
     0
1002
}
1002
{
1000
MANEDIT
1070
     0
1002
}
1002
{
1000
NOSEL
1070
     0
1002
}
1002
{
1000
BEHIND
1070
     0
1002
}
1002
{
1000
OTHER
1070
     0
1002
}
1002
{
1000
REACTOR
1002
}
  0
TEXT
  5
111D2
330
1F
100
AcDbEntity
  8
AM_6
 60
     1
100
AcDbText
 10
5682.956552614193
 20
6402.562992781611
 30
0.0
 40
2.5
  1
!GENTITLE-LL
100
AcDbText
  0
TEXT
  5
111D3
330
1F
100
AcDbEntity
  8
AM_6
 60
     1
100
AcDbText
 10
6091.456552614193
 20
6691.062992781613
 30
0.0
 40
2.5
  1
!GENTITLE-RU
100
AcDbText
  0
TEXT
  5
111D4
330
1F
100
AcDbEntity
  8
AM_6
 60
     1
100
AcDbText
 10
6102.956552614195
 20
6699.562992781611
 30
0.0
 40
2.5
  1
!GENTITLE-MAX
100
AcDbText
  0
TEXT
  5
111D5
330
1F
100
AcDbEntity
  8
AM_6
 60
     1
100
AcDbText
 10
6091.456552614193
 20
6411.062992781612
 30
0.0
 40
2.5
  1
!GENTITLE-INSERT
100
AcDbText
  0
LINE
  5
111D6
330
1F
100
AcDbEntity
  8
waku
100
AcDbLine
 10
5694.456552614195
 20
6424.062992781611
 30
0.0
 11
6091.456552614193
 21
6424.062992781611
 31
0.0
  0
LINE
  5
112B9
330
1F
100
AcDbEntity
  8
AM_2
100
AcDbLine
 10
5694.456552614192
 20
6696.062992781611
 30
0.0
 11
5789.02606410961
 21
6696.062992781611
 31
0.0
  0
MTEXT
  5
112C0
330
1F
100
AcDbEntity
  8
AM_6
100
AcDbMText
 10
5705.956552614193
 20
6692.062992781612
 30
0.0
 40
3.2
 41
23.0
 71
     5
 72
     5
  1
品番
 73
     1
 44
1.0
1001
ACAD
1000
MTEXTBEGIN
1070
    73
1070
     1
1070
    44
1040
1.0
1070
    74
1070
     0
1000
MTEXTEND
1000
ACAD_MTEXT_DEFINED_HEIGHT_BEGIN
1070
    46
1040
7.999999999999275
1000
ACAD_MTEXT_DEFINED_HEIGHT_END
  0
MTEXT
  5
112C1
330
1F
100
AcDbEntity
  8
AM_6
100
AcDbMText
 10
5705.956552614193
 20
6700.062992781612
 30
0.0
 40
3.2
 41
23.0
 71
     5
 72
     5
  1
品名
 73
     1
 44
1.0
1001
ACAD
1000
MTEXTBEGIN
1070
    73
1070
     1
1070
    44
1040
1.0
1070
    74
1070
     0
1000
MTEXTEND
1000
ACAD_MTEXT_DEFINED_HEIGHT_BEGIN
1070
    46
1040
7.999999999999275
1000
ACAD_MTEXT_DEFINED_HEIGHT_END
  0
MTEXT
  5
112C2
330
1F
100
AcDbEntity
  8
AM_6
100
AcDbMText
 10
5717.456552614194
 20
6692.062992781612
 30
0.0
 40
3.2
 41
71.56951149541872
 71
     4
 72
     5
  1
　品番一覧表参照
 73
     1
 44
1.0
1001
ACAD
1000
MTEXTBEGIN
1070
    73
1070
     1
1070
    44
1040
1.0
1070
    74
1070
     0
1000
MTEXTEND
1000
ACAD_MTEXT_DEFINED_HEIGHT_BEGIN
1070
    46
1040
7.999999999999275
1000
ACAD_MTEXT_DEFINED_HEIGHT_END
  0
MTEXT
  5
112C3
330
1F
100
AcDbEntity
  8
AM_6
100
AcDbMText
 10
5717.456552614194
 20
6700.062992781612
 30
0.0
 40
3.2
 41
71.56951149541872
 71
     4
 72
     5
  1
　通電金具
 73
     1
 44
1.0
1001
ACAD
1000
MTEXTBEGIN
1070
    73
1070
     1
1070
    44
1040
1.0
1070
    74
1070
     0
1000
MTEXTEND
1000
ACAD_MTEXT_DEFINED_HEIGHT_BEGIN
1070
    46
1040
7.999999999999275
1000
ACAD_MTEXT_DEFINED_HEIGHT_END
  0
LINE
  5
112E8
330
1F
100
AcDbEntity
  8
102
100
AcDbLine
 10
5877.832356462771
 20
6686.614106574238
 30
0.0
 11
5877.832356462769
 21
6658.61410657424
 31
0.0
  0
MTEXT
  5
112E9
330
1F
100
AcDbEntity
  8
104
100
AcDbMText
 10
5862.832356462773
 20
6683.814106574239
 30
0.0
 40
3.2
 41
30.0
 71
     5
 72
     5
  1
扉側リード線長さ
 73
     1
 44
1.0
1001
ACAD
1000
MTEXTBEGIN
1070
    73
1070
     1
1070
    44
1040
1.0
1070
    74
1070
     0
1000
MTEXTEND
1000
ACAD_MTEXT_DEFINED_HEIGHT_BEGIN
1070
    46
1040
5.599999999996756
1000
ACAD_MTEXT_DEFINED_HEIGHT_END
  0
MTEXT
  5
112EA
330
1F
100
AcDbEntity
  8
104
100
AcDbMText
 10
5862.832356462773
 20
6672.614106574241
 30
0.0
 40
3.2
 41
29.99999999999727
 71
     5
 72
     5
  1
2200
 73
     1
 44
1.0
1001
ACAD
1000
MTEXTBEGIN
1070
    73
1070
     1
1070
    44
1040
1.0
1070
    74
1070
     0
1000
MTEXTEND
1000
ACAD_MTEXT_DEFINED_HEIGHT_BEGIN
1070
    46
1040
5.60000000000009
1000
ACAD_MTEXT_DEFINED_HEIGHT_END
  0
LINE
  5
112EB
330
1F
100
AcDbEntity
  8
105
100
AcDbLine
 10
5817.832356462769
 20
6658.61410657424
 30
0.0
 11
5907.832356462769
 21
6658.614106574241
 31
0.0
  0
LINE
  5
112EC
330
1F
100
AcDbEntity
  8
102
100
AcDbLine
 10
5817.83235646277
 20
6664.214106574241
 30
0.0
 11
5877.832356462769
 21
6664.214106574239
 31
0.0
  0
LINE
  5
112ED
330
1F
100
AcDbEntity
  8
102
100
AcDbLine
 10
5817.832356462771
 20
6669.814106574239
 30
0.0
 11
5877.832356462769
 21
6669.814106574242
 31
0.0
  0
LINE
  5
112EE
330
1F
100
AcDbEntity
  8
105
100
AcDbLine
 10
5817.832356462771
 20
6686.614106574238
 30
0.0
 11
5907.832356462771
 21
6686.614106574238
 31
0.0
  0
LINE
  5
112EF
330
1F
100
AcDbEntity
  8
102
100
AcDbLine
 10
5817.832356462771
 20
6681.014106574242
 30
0.0
 11
5907.83235646277
 21
6681.014106574242
 31
0.0
  0
LINE
  5
112F0
330
1F
100
AcDbEntity
  8
102
100
AcDbLine
 10
5847.83235646277
 20
6686.614106574238
 30
0.0
 11
5847.832356462769
 21
6658.61410657424
 31
0.0
  0
MTEXT
  5
112F1
330
1F
100
AcDbEntity
  8
104
100
AcDbMText
 10
5862.832356462771
 20
6667.01410657424
 30
0.0
 40
3.2
 41
29.99999999999727
 71
     5
 72
     5
  1
2800
 73
     1
 44
1.0
1001
ACAD
1000
MTEXTBEGIN
1070
    73
1070
     1
1070
    44
1040
1.0
1070
    74
1070
     0
1000
MTEXTEND
1000
ACAD_MTEXT_DEFINED_HEIGHT_BEGIN
1070
    46
1040
5.60000000000009
1000
ACAD_MTEXT_DEFINED_HEIGHT_END
  0
MTEXT
  5
112F2
330
1F
100
AcDbEntity
  8
104
100
AcDbMText
 10
5862.832356462773
 20
6661.41410657424
 30
0.0
 40
3.2
 41
29.99999999999727
 71
     5
 72
     5
  1
3200
 73
     1
 44
1.0
1001
ACAD
1000
MTEXTBEGIN
1070
    73
1070
     1
1070
    44
1040
1.0
1070
    74
1070
     0
1000
MTEXTEND
1000
ACAD_MTEXT_DEFINED_HEIGHT_BEGIN
1070
    46
1040
5.60000000000009
1000
ACAD_MTEXT_DEFINED_HEIGHT_END
  0
MTEXT
  5
112F3
330
1F
100
AcDbEntity
  8
104
100
AcDbMText
 10
5832.832356462771
 20
6683.814106574239
 30
0.0
 40
3.2
 41
30.0
 71
     5
 72
     5
  1
品番
 73
     1
 44
1.0
1001
ACAD
1000
MTEXTBEGIN
1070
    73
1070
     1
1070
    44
1040
1.0
1070
    74
1070
     0
1000
MTEXTEND
1000
ACAD_MTEXT_DEFINED_HEIGHT_BEGIN
1070
    46
1040
5.599999999996756
1000
ACAD_MTEXT_DEFINED_HEIGHT_END
  0
MTEXT
  5
112F4
330
1F
100
AcDbEntity
  8
104
100
AcDbMText
 10
5832.832356462771
 20
6672.614106574241
 30
0.0
 40
3.2
 41
29.99999999999727
 71
     5
 72
     5
  1
TKH-9A22
 73
     1
 44
1.0
1001
ACAD
1000
MTEXTBEGIN
1070
    73
1070
     1
1070
    44
1040
1.0
1070
    74
1070
     0
1000
MTEXTEND
1000
ACAD_MTEXT_DEFINED_HEIGHT_BEGIN
1070
    46
1040
5.60000000000009
1000
ACAD_MTEXT_DEFINED_HEIGHT_END
  0
LINE
  5
112F5
330
1F
100
AcDbEntity
  8
105
100
AcDbLine
 10
5817.832356462773
 20
6686.614106574238
 30
0.0
 11
5817.832356462769
 21
6658.61410657424
 31
0.0
  0
MTEXT
  5
112F6
330
1F
100
AcDbEntity
  8
104
100
AcDbMText
 10
5832.832356462771
 20
6667.01410657424
 30
0.0
 40
3.2
 41
29.99999999999727
 71
     5
 72
     5
  1
TKH-9A28
 73
     1
 44
1.0
1001
ACAD
1000
MTEXTBEGIN
1070
    73
1070
     1
1070
    44
1040
1.0
1070
    74
1070
     0
1000
MTEXTEND
1000
ACAD_MTEXT_DEFINED_HEIGHT_BEGIN
1070
    46
1040
5.60000000000009
1000
ACAD_MTEXT_DEFINED_HEIGHT_END
  0
MTEXT
  5
112F7
330
1F
100
AcDbEntity
  8
104
100
AcDbMText
 10
5832.832356462771
 20
6661.41410657424
 30
0.0
 40
3.2
 41
29.99999999999727
 71
     5
 72
     5
  1
TKH-9A32
 73
     1
 44
1.0
1001
ACAD
1000
MTEXTBEGIN
1070
    73
1070
     1
1070
    44
1040
1.0
1070
    74
1070
     0
1000
MTEXTEND
1000
ACAD_MTEXT_DEFINED_HEIGHT_BEGIN
1070
    46
1040
5.60000000000009
1000
ACAD_MTEXT_DEFINED_HEIGHT_END
  0
MTEXT
  5
112F8
330
1F
100
AcDbEntity
  8
104
100
AcDbMText
 10
5862.832356462774
 20
6678.214106574241
 30
0.0
 40
3.2
 41
29.99999999999727
 71
     5
 72
     5
  1
1500
 73
     1
 44
1.0
1001
ACAD
1000
MTEXTBEGIN
1070
    73
1070
     1
1070
    44
1040
1.0
1070
    74
1070
     0
1000
MTEXTEND
1000
ACAD_MTEXT_DEFINED_HEIGHT_BEGIN
1070
    46
1040
5.60000000000009
1000
ACAD_MTEXT_DEFINED_HEIGHT_END
  0
LINE
  5
112F9
330
1F
100
AcDbEntity
  8
102
100
AcDbLine
 10
5817.832356462771
 20
6675.41410657424
 30
0.0
 11
5877.83235646277
 21
6675.41410657424
 31
0.0
  0
MTEXT
  5
112FA
330
1F
100
AcDbEntity
  8
104
100
AcDbMText
 10
5832.832356462773
 20
6678.214106574241
 30
0.0
 40
3.2
 41
29.99999999999727
 71
     5
 72
     5
  1
TKH-9A
 73
     1
 44
1.0
1001
ACAD
1000
MTEXTBEGIN
1070
    73
1070
     1
1070
    44
1040
1.0
1070
    74
1070
     0
1000
MTEXTEND
1000
ACAD_MTEXT_DEFINED_HEIGHT_BEGIN
1070
    46
1040
5.60000000000009
1000
ACAD_MTEXT_DEFINED_HEIGHT_END
  0
MTEXT
  5
112FB
330
1F
100
AcDbEntity
  8
104
100
AcDbMText
 10
5892.832356462772
 20
6683.814106574239
 30
0.0
 40
3.2
 41
30.0
 71
     5
 72
     5
  1
枠側リード線長さ
 73
     1
 44
1.0
1001
ACAD
1000
MTEXTBEGIN
1070
    73
1070
     1
1070
    44
1040
1.0
1070
    74
1070
     0
1000
MTEXTEND
1000
ACAD_MTEXT_DEFINED_HEIGHT_BEGIN
1070
    46
1040
5.599999999996756
1000
ACAD_MTEXT_DEFINED_HEIGHT_END
  0
LINE
  5
112FC
330
1F
100
AcDbEntity
  8
105
100
AcDbLine
 10
5907.832356462773
 20
6686.614106574238
 30
0.0
 11
5907.832356462769
 21
6658.61410657424
 31
0.0
  0
MTEXT
  5
112FD
330
1F
100
AcDbEntity
  8
104
100
AcDbMText
 10
5892.832356462772
 20
6669.814106574242
 30
0.0
 40
3.2
 41
30.00000000000046
 71
     5
 72
     5
  1
150
 73
     1
 44
1.0
1001
ACAD
1000
MTEXTBEGIN
1070
    73
1070
     1
1070
    44
1040
1.0
1070
    74
1070
     0
1000
MTEXTEND
1000
ACAD_MTEXT_DEFINED_HEIGHT_BEGIN
1070
    46
1040
44.80000000000287
1000
ACAD_MTEXT_DEFINED_HEIGHT_END
  0
MTEXT
  5
1130C
330
1F
100
AcDbEntity
  8
104
100
AcDbMText
 10
5862.832356462773
 20
6689.414106574236
 30
0.0
 40
3.2
 41
89.99999999999909
 71
     5
 72
     5
  1
品番一覧表
 73
     1
 44
1.0
1001
ACAD
1000
MTEXTBEGIN
1070
    73
1070
     1
1070
    44
1040
1.0
1070
    74
1070
     0
1000
MTEXTEND
1000
ACAD_MTEXT_DEFINED_HEIGHT_BEGIN
1070
    46
1040
5.599999999996756
1000
ACAD_MTEXT_DEFINED_HEIGHT_END
  0
ENDSEC
  0
SECTION
  2
OBJECTS
  0
DICTIONARY
  5
C
330
0
100
AcDbDictionary
281
     1
  3
ACAD_2007HEADERVARS_RT
350
113FB
  3
ACAD_BGPLOT_KEY
350
AB06
  3
ACAD_COLOR
350
A91D
  3
ACAD_GROUP
350
D
  3
ACAD_LAYOUT
350
1A
  3
ACAD_MATERIAL
350
A91C
  3
ACAD_MLINESTYLE
350
17
  3
ACAD_PLOTSETTINGS
350
19
  3
ACAD_PLOTSTYLENAME
350
E
  3
ACAD_TABLESTYLE
350
AAB9
  3
ACAD_VISUALSTYLE
350
EAB7
  3
AcAsAppObject
350
3DA1
  3
ACASGREF_MASTER
350
3DE9
  3
AcDbVariableDictionary
350
34
  3
AcmDictionary
350
47
  3
AD_GREF_MODULE
350
3DEA
  3
AD_MAPI_MODULE
350
3E06
  3
AMG
350
2B
  3
AMGSNAPSETTINGS
350
7D
  3
ASE_INDEX_DICTIONARY
350
9F48
  3
DWGPROPS
350
113FA
  3
MAPISURF_MODULE
350
3DEB
  0
DICTIONARY
  5
3F95
330
2
100
AcDbDictionary
280
     1
281
     1
  3
ACAD_LAYERFILTERS
360
10E91
  3
ACAD_LAYERSTATES
360
3F96
  3
ACLYDICTIONARY
360
10E90
  3
AMLAYER_GROUPCOLORS
360
AAB4
  0
DICTIONARY
  5
8A
330
1F
100
AcDbDictionary
280
     1
281
     1
  3
ACAD_SORTENTS
360
C2FD
  0
DICTIONARY
  5
DF3F
330
DF32
100
AcDbDictionary
280
     1
281
     1
  3
ACAD_DIMASSOC
360
DF40
  0
DICTIONARY
  5
E0AE
330
E09F
100
AcDbDictionary
280
     1
281
     1
  3
ACAD_DIMASSOC
360
E0AF
  0
DICTIONARY
  5
E0D6
330
E0C9
100
AcDbDictionary
280
     1
281
     1
  3
ACAD_DIMASSOC
360
E0D7
  0
DICTIONARY
  5
E0FE
330
E0EF
100
AcDbDictionary
280
     1
281
     1
  3
ACAD_DIMASSOC
360
E0FF
  0
DICTIONARY
  5
E126
330
E119
100
AcDbDictionary
280
     1
281
     1
  3
ACAD_DIMASSOC
360
E127
  0
DICTIONARY
  5
E14E
330
E13F
100
AcDbDictionary
280
     1
281
     1
  3
ACAD_DIMASSOC
360
E14F
  0
DICTIONARY
  5
E1B0
330
E1A3
100
AcDbDictionary
280
     1
281
     1
  3
ACAD_DIMASSOC
360
E1B1
  0
DICTIONARY
  5
E23A
330
E22D
100
AcDbDictionary
280
     1
281
     1
  3
ACAD_DIMASSOC
360
E23B
  0
DICTIONARY
  5
E260
330
E253
100
AcDbDictionary
280
     1
281
     1
  3
ACAD_DIMASSOC
360
E261
  0
DICTIONARY
  5
E9E3
330
E9D7
100
AcDbDictionary
280
     1
281
     1
  3
ACAD_DIMASSOC
360
E9E4
  0
DICTIONARY
  5
113FB
102
{ACAD_REACTORS
330
C
102
}
330
C
100
AcDbDictionary
281
     1
  3
DIMARCSYM
350
113FD
  3
DIMFXL
350
113FC
  0
DICTIONARY
  5
AB06
102
{ACAD_REACTORS
330
C
102
}
330
C
100
AcDbDictionary
280
     1
281
     1
  0
DICTIONARY
  5
A91D
102
{ACAD_REACTORS
330
C
102
}
330
C
100
AcDbDictionary
281
     1
  0
DICTIONARY
  5
D
102
{ACAD_REACTORS
330
C
102
}
330
C
100
AcDbDictionary
281
     1
  0
DICTIONARY
  5
1A
102
{ACAD_REACTORS
330
C
102
}
330
C
100
AcDbDictionary
281
     1
  3
Model
350
22
  3
ﾚｲｱｳﾄ1
350
1E
  3
ﾚｲｱｳﾄ2
350
26
  0
DICTIONARY
  5
A91C
102
{ACAD_REACTORS
330
C
102
}
330
C
100
AcDbDictionary
281
     1
  3
ByBlock
350
EAB6
  3
ByLayer
350
EAB5
  3
Global
350
DDE5
  0
DICTIONARY
  5
17
102
{ACAD_REACTORS
330
C
102
}
330
C
100
AcDbDictionary
281
     1
  3
Standard
350
18
  0
DICTIONARY
  5
19
102
{ACAD_REACTORS
330
C
102
}
330
C
100
AcDbDictionary
281
     1
  3
01 A3フィット
350
DB97
  3
02 A3
350
DB98
  3
03 A2フィット
350
DB99
  3
04 A2
350
DB9A
  3
05 A1フィット
350
DB9B
  3
06 A1
350
DB9C
  3
06 A4フィット
350
DB9D
  3
07 A4
350
DB9E
  0
ACDBDICTIONARYWDFLT
  5
E
102
{ACAD_REACTORS
330
C
102
}
330
C
100
AcDbDictionary
281
     1
  3
Normal
350
F
100
AcDbDictionaryWithDefault
340
F
  0
DICTIONARY
  5
AAB9
102
{ACAD_REACTORS
330
C
102
}
330
C
100
AcDbDictionary
281
     1
  3
Standard
350
AABA
  0
DICTIONARY
  5
EAB7
102
{ACAD_REACTORS
330
C
102
}
330
C
100
AcDbDictionary
281
     1
  3
2dWireframe
350
EABD
  3
3D Hidden
350
EABF
  3
3dWireframe
350
EABE
  3
Basic
350
EABC
  3
Brighten
350
EAC3
  3
ColorChange
350
EAC7
  3
Conceptual
350
EAC0
  3
Dim
350
EAC2
  3
Facepattern
350
EAC6
  3
Flat
350
EAB8
  3
FlatWithEdges
350
EAB9
  3
Gouraud
350
EABA
  3
GouraudWithEdges
350
EABB
  3
Linepattern
350
EAC5
  3
Realistic
350
EAC1
  3
Thicken
350
EAC4
  0
ACAD_PROXY_OBJECT
  5
3DA1
102
{ACAD_REACTORS
330
C
102
}
330
C
100
AcDbProxyObject
 90
      499
 91
      576
 95
   917527
 70
     0
 93
       10
310
407F
 94
        0
1001
ACAD
1000
AcRTDxfName
1000
ASAPP
1000
AcRTDxfName
1000
ASAPP
  0
ACAD_PROXY_OBJECT
  5
3DE9
102
{ACAD_REACTORS
330
C
102
}
330
C
100
AcDbProxyObject
 90
      499
 91
      581
 95
   917527
 70
     0
 93
       34
310
010000407F
 94
        0
1001
ACAD
1000
AcRTDxfName
1000
ACASGREFMASTER
1000
AcRTDxfName
1000
ACASGREFMASTER
  0
DICTIONARY
  5
34
102
{ACAD_REACTORS
330
C
102
}
330
C
100
AcDbDictionary
281
     1
  3
CTABLESTYLE
350
AAF3
  3
DIMASSOC
350
A10C
  3
FIELDEVAL
350
AB07
  3
INDEXCTL
350
35
  3
SORTENTS
350
194C
  0
DICTIONARY
  5
47
102
{ACAD_REACTORS
330
C
102
}
330
C
100
AcDbDictionary
281
     1
  3
AcmBOM
350
7E8
  3
AcmStdDictionary
350
4C
  3
AMDTSECTSYM_ARROWCOLOR
350
A929
  0
ACAD_PROXY_OBJECT
  5
3DEA
102
{ACAD_REACTORS
330
C
102
}
330
C
100
AcDbProxyObject
 90
      499
 91
      582
 95
   917527
 70
     0
 93
      114
310
00000043800000000000000000003F
 94
        0
1001
ACAD
1000
AcRTDxfName
1000
ACADGREFMODULE
1000
AcRTDxfName
1000
ACADGREFMODULE
  0
ACAD_PROXY_OBJECT
  5
3E06
102
{ACAD_REACTORS
330
C
102
}
330
C
100
AcDbProxyObject
 90
      499
 91
      594
 95
   917527
 70
     0
 93
       34
310
05000044FF
 94
        0
1001
ACAD
1000
AcRTDxfName
1000
MAPIADMODULE
1000
AcRTDxfName
1000
MAPIADMODULE
  0
DICTIONARY
  5
2B
102
{ACAD_REACTORS
330
C
102
}
330
C
100
AcDbDictionary
281
     1
  0
DICTIONARY
  5
7D
102
{ACAD_REACTORS
330
C
102
}
330
C
100
AcDbDictionary
281
     1
  0
DICTIONARY
  5
9F48
102
{ACAD_REACTORS
330
C
102
}
330
C
100
AcDbDictionary
281
     1
  3
ASEBlockHierarchyIndexRecord
350
9F49
1001
DCO15
1040
1425739953.442
  0
XRECORD
  5
113FA
102
{ACAD_REACTORS
330
C
102
}
330
C
100
AcDbXrecord
280
     1
  1
DWGPROPS COOKIE
  2

  3

  4

  6

  7

  8
Administrator
  9

300
AmdtFileType=84
301
=
302
=
303
=
304
=
305
=
306
=
307
=
308
=
309
=
 40
3.340250520833333
 41
2454315.390774016
 42
2456696.647665463
  1

 90
        1
  0
ACAD_PROXY_OBJECT
  5
3DEB
102
{ACAD_REACTORS
330
C
102
}
330
C
100
AcDbProxyObject
 90
      499
 91
      583
 95
   917527
 70
     0
 93
        8
310
047E
 94
        0
1001
ACAD
1000
AcRTDxfName
1000
AMDTMAPISURFMOUDULE
1000
AcRTDxfName
1000
AMDTMAPISURFMOUDULE
  0
DICTIONARY
  5
10E91
102
{ACAD_REACTORS
330
3F95
102
}
330
3F95
100
AcDbDictionary
281
     1
  0
DICTIONARY
  5
3F96
102
{ACAD_REACTORS
330
3F95
102
}
330
3F95
100
AcDbDictionary
281
     1
  3
20011210
350
3FB7
  0
DICTIONARY
  5
10E90
102
{ACAD_REACTORS
330
3F95
102
}
330
3F95
100
AcDbDictionary
281
     1
1001
ACAD
1000
<All
  0
DICTIONARY
  5
AAB4
102
{ACAD_REACTORS
330
3F95
102
}
330
3F95
100
AcDbDictionary
280
     1
281
     1
  3
ケース
360
C551
  3
ケーブル
360
D474
  3
シール
360
DFEC
  3
フロントプレート
360
C54C
  0
SORTENTSTABLE
  5
C2FD
102
{ACAD_REACTORS
330
8A
102
}
330
8A
100
AcDbSortentsTable
330
1F
331
F5CD
  5
FDC4
331
DEB8
  5
DEF1
331
DDAE
  5
DE7C
331
DE8D
  5
DEC0
331
EE66
  5
DE74
331
DE56
  5
DE82
331
DEC0
  5
DEF9
331
DCB3
  5
DE71
331
DEC8
  5
DF05
331
DE95
  5
DEC8
331
DE5E
  5
DE89
331
DE66
  5
DE93
331
DED0
  5
E452
331
10A62
  5
10E5F
331
11021
  5
111C7
331
EA36
  5
ED63
331
1080B
  5
108CB
331
10A6A
  5
11020
331
11151
  5
111CD
331
DFE7
  5
E77C
331
EA3E
  5
EDB1
331
108C3
  5
108D5
331
10A72
  5
11151
331
10624
  5
1080B
331
11159
  5
111D4
331
1062C
  5
108BE
331
108CB
  5
108DD
331
FDBD
  5
1042E
331
10E2A
  5
11154
331
EDBC
  5
EE6B
331
E22D
  5
EB5C
331
EDC4
  5
EF61
331
EDCC
  5
EF6D
331
EDD4
  5
EF75
331
ED55
  5
EDDD
331
EF5E
  5
FAE8
331
DE99
  5
DECD
331
DE6E
  5
DE9B
331
F0FE
  5
FAE9
331
DE76
  5
DEA3
331
DEA9
  5
DEDB
331
DE7E
  5
DEB2
331
DE86
  5
DEBB
331
DEB1
  5
DEEA
331
111C9
  5
DC3B
331
108D3
  5
108E5
331
E49F
  5
ED54
331
ED2E
  5
EDB6
331
FDC5
  5
FDC2
331
111D1
  5
DCAC
331
103ED
  5
10616
331
ED36
  5
EDBE
331
108DB
  5
10A68
331
108E3
  5
10A71
331
ED3E
  5
EDC6
331
E4AF
  5
ED60
331
10804
  5
108C4
331
1042D
  5
1063B
331
ED5D
  5
EDE5
331
EDDC
  5
EF7D
331
ED42
  5
EDCA
331
ED65
  5
EDED
331
E9D7
  5
ED61
331
EDE4
  5
F2A4
331
EDEC
  5
F8D2
331
ED4A
  5
EDD2
331
EDB5
  5
EE64
331
DCA4
  5
DE6B
331
DEB9
  5
DEF2
331
DDAF
  5
DE7D
331
DE8E
  5
DEC1
331
DEE8
  5
E4A6
331
DCAC
  5
DE6F
331
DEC1
  5
DEFA
331
EE67
  5
DE99
331
DEC9
  5
DF06
331
DE5F
  5
DE8A
331
DE96
  5
DEC9
331
DE67
  5
DE94
331
DED1
  5
E495
331
EA37
  5
ED64
331
1080C
  5
108CC
331
11022
  5
111C8
331
11152
  5
111CE
331
EA3F
  5
EDB2
331
10A6B
  5
11021
331
10A73
  5
11152
331
1115A
  5
111D5
331
10625
  5
1080C
331
108C4
  5
108D6
331
10E2B
  5
11155
331
FDBE
  5
1042F
331
108CC
  5
108DE
331
EDBD
  5
EE6C
331
E206
  5
EB21
331
EDC5
  5
EF62
331
EDCD
  5
EF6E
331
E09F
  5
E780
331
E0EF
  5
E782
331
ED56
  5
EDDE
331
EDD5
  5
EF76
331
DE9A
  5
DECE
331
DE6F
  5
DE9C
331
DE77
  5
DEA6
331
DC3D
  5
DE2E
331
DEAA
  5
DEDC
331
DE7F
  5
DEB3
331
DEB2
  5
DEEB
331
DE87
  5
DEBC
331
E498
  5
ED2E
331
ED2F
  5
EDB7
331
108D4
  5
108E6
331
111D2
  5
DCAD
331
108DC
  5
10A69
331
ED37
  5
EDBF
331
103EE
  5
1062D
331
E4A8
  5
ED5E
331
10805
  5
108C5
331
ED3F
  5
EDC7
331
108E4
  5
10A72
331
1042E
  5
106BC
331
10A5C
  5
10E2A
331
EDDD
  5
F01E
331
ED5E
  5
EDE6
331
ED43
  5
EDCB
331
EDE5
  5
F2A6
331
E13F
  5
E784
331
ED66
  5
EDEE
331
ED4B
  5
EDD3
331
EDED
  5
F8D5
331
EDB6
  5
EE65
331
DEE9
  5
E4A8
331
DEBA
  5
DEF3
331
DE50
  5
DE7E
331
EE60
  5
DE98
331
DE8F
  5
DEC2
331
DEF1
  5
E774
331
DE58
  5
DE83
331
DEC2
  5
DEFB
331
DECA
  5
DF07
331
DE60
  5
DE8B
331
DE97
  5
DECA
331
DED2
  5
E496
331
11023
  5
111CA
331
FAE7
  5
103F1
331
EA38
  5
ED65
331
1080D
  5
108CD
331
11153
  5
111CF
331
E081
  5
E49F
331
EA40
  5
EDB3
331
108BD
  5
108CF
331
108C5
  5
108D7
331
10A74
  5
11153
331
1115B
  5
111D6
331
108CD
  5
108DF
331
FDBF
  5
10430
331
EDBE
  5
EE6D
331
EDC6
  5
EF63
331
EDCE
  5
EF6F
331
E385
  5
EB79
331
ED57
  5
EDDF
331
EDD6
  5
EF77
331
F6A5
  5
FDC8
331
DE68
  5
DE95
331
DE9B
  5
DECF
331
DE70
  5
DE9D
331
DC3E
  5
DE2F
331
DEA3
  5
DED4
331
DE78
  5
DEA9
331
DEAB
  5
DEDD
331
DD39
  5
DE7B
331
DE80
  5
DEB4
331
DEB3
  5
DEEC
331
E499
  5
ED31
331
111CB
  5
DC3F
331
ED30
  5
EDB8
331
108D5
  5
10A5C
331
111D3
  5
DCAF
331
103EF
  5
10630
331
ED38
  5
EDC0
331
108DD
  5
10A6A
331
108E5
  5
10A73
331
10806
  5
108C6
331
10A5D
  5
10E2B
331
1042F
  5
10804
331
ED5F
  5
EDE7
331
EDDE
  5
F10B
331
ED44
  5
EDCC
331
ED67
  5
EDEF
331
EDE6
  5
F3C5
331
EDEE
  5
F8D7
331
ED4C
  5
EDD4
331
EDB7
  5
EE66
331
DCA6
  5
DE6C
331
DEBB
  5
DEF4
331
EE61
  5
DE73
331
DEEA
  5
E4AA
331
DEC3
  5
DEFC
331
DE59
  5
DE84
331
DE90
  5
DEC3
331
DEF2
  5
E775
331
DFC2
  5
E777
331
DE61
  5
DE8C
331
DECB
  5
DF08
331
DED3
  5
E498
331
FAE0
  5
103EF
331
1080E
  5
108CE
331
EA39
  5
ED66
331
FAE8
  5
103F2
331
10A65
  5
10EB8
331
11024
  5
111CB
331
11154
  5
111D0
331
108BE
  5
108D0
331
10A6D
  5
11022
331
1115C
  5
111D7
331
108C6
  5
108D8
331
1062F
  5
108BF
331
108CE
  5
108E0
331
EDBF
  5
EE6E
331
EDC7
  5
EF64
331
ED50
  5
EDD8
331
EDCF
  5
EF70
331
EDD7
  5
EF78
331
DE69
  5
DE96
331
DE71
  5
DE9E
331
F109
  5
FB0B
331
DE9C
  5
DED0
331
DEA4
  5
DED8
331
DE79
  5
DEAA
331
DC3F
  5
DE65
331
DEAC
  5
DEDE
331
DE81
  5
DEB5
331
DC67
  5
DE6A
331
DEB4
  5
DEED
331
FDC0
  5
10431
331
E49A
  5
ED32
331
ED31
  5
EDB9
331
108D6
  5
10A5D
331
E4A2
  5
ED55
331
111CC
  5
DC40
331
111D4
  5
DCB5
331
108DE
  5
10A6B
331
E4AA
  5
ED5F
331
ED39
  5
EDC1
331
103F0
  5
10632
331
10807
  5
108C7
331
108E6
  5
10A74
331
10428
  5
10636
331
E119
  5
E783
331
ED58
  5
EDE0
331
EDDF
  5
F10C
331
ED60
  5
EDE8
331
ED45
  5
EDCD
331
ED68
  5
EDFB
331
EDE7
  5
F3C9
331
ED4D
  5
EDD5
331
EDEF
  5
FAE0
331
DE89
  5
DEBD
331
DEEB
  5
E4AF
331
DEBC
  5
DEF5
331
DE91
  5
DEC4
331
DE5A
  5
DE85
331
DEC4
  5
DEFD
331
DE62
  5
DE8E
331
DECC
  5
DF09
331
DFC3
  5
E779
331
DED4
  5
E499
331
10430
  5
10805
331
FAE1
  5
103F0
331
FAE9
  5
103F3
331
10A66
  5
10EB9
331
11025
  5
111CC
331
EA3A
  5
ED67
331
108BF
  5
108D1
331
10A6E
  5
11023
331
E083
  5
DEBA
331
11155
  5
111D1
331
108C7
  5
108D9
331
10628
  5
1080D
331
108CF
  5
108E1
331
EDB8
  5
EE67
331
DF32
  5
E776
331
EDC0
  5
EE6F
331
EDC8
  5
EF65
331
EDD0
  5
EF71
331
ED51
  5
EDD9
331
F0F2
  5
FAED
331
DE6A
  5
DE97
331
DC38
  5
DD45
331
DE9D
  5
DED1
331
DE72
  5
DE9F
331
F10A
  5
FB0C
331
DC40
  5
DE68
331
DEA5
  5
DED9
331
DE7A
  5
DEAC
331
DE82
  5
DEB6
331
DEAD
  5
DEDF
331
DEB5
  5
DEEE
331
E49B
  5
ED35
331
FDC1
  5
10432
331
10E5E
  5
11157
331
111CD
  5
DC41
331
106B8
  5
108C3
331
ED32
  5
EDBA
331
108D7
  5
10A61
331
111D5
  5
DCB6
331
103F1
  5
10633
331
ED3A
  5
EDC2
331
108DF
  5
10A6D
331
10429
  5
10637
331
1101E
  5
1115B
331
ED59
  5
EDE1
331
EDD8
  5
EF79
331
ED61
  5
EDE9
331
EDE0
  5
F180
331
ED46
  5
EDCE
331
ED69
  5
EDFC
331
EDE8
  5
F56E
331
EDB1
  5
EE60
331
ED4E
  5
EDD6
331
F74A
  5
FDC9
331
EDFB
  5
FAE1
331
DE53
  5
DE7F
331
DEBD
  5
DEF6
331
DEEC
  5
E773
331
DEC5
  5
DF02
331
DE5B
  5
DE86
331
DE92
  5
DEC5
331
DFC4
  5
E77A
331
DE63
  5
DE90
331
DECD
  5
DF0A
331
10808
  5
108C8
331
FAE2
  5
FF57
331
DFD4
  5
E77B
331
10431
  5
10806
331
11026
  5
111C9
331
EA3B
  5
ED68
331
FAEA
  5
10429
331
E084
  5
DED3
331
108C0
  5
108D2
331
10A6F
  5
11024
331
10629
  5
1080E
331
108C8
  5
108DA
331
111C6
  5
DC20
331
EDB9
  5
EE68
331
EDC1
  5
EE70
331
EDC9
  5
EF69
331
ED52
  5
EDDA
331
EDD1
  5
EF72
331
F0F3
  5
FB0A
331
DE73
  5
DEA0
331
F10B
  5
FC49
331
DC39
  5
DD50
331
DC41
  5
DE69
331
DE7B
  5
DEAD
331
DEAE
  5
DEE6
331
DE83
  5
DEB7
331
DEB6
  5
DEEF
331
DEE5
  5
E49C
331
108D0
  5
108E2
331
FDC2
  5
DE75
331
E49C
  5
ED3D
331
10631
  5
108C0
331
108D8
  5
10A62
331
ED33
  5
EDBB
331
103EA
  5
10610
331
10E5F
  5
11158
331
E4A4
  5
ED5C
331
111CE
  5
DC67
331
111D6
  5
DCD9
331
ED3B
  5
EDC3
331
108E0
  5
10A6E
331
1042A
  5
10638
331
1101F
  5
1115C
331
EA1C
  5
ED62
331
FDC8
  5
10433
331
ED5A
  5
EDE2
331
EDD9
  5
EF7A
331
EDE1
  5
F186
331
ED62
  5
EDEA
331
ED47
  5
EDCF
331
EDE9
  5
F64F
331
E1A3
  5
EB20
331
EDB2
  5
EE61
331
ED4F
  5
EDD7
331
F74B
  5
FDCA
331
F953
  5
FF56
331
DFE8
  5
E77D
331
EDFC
  5
FAE3
331
DE8B
  5
DEBE
331
DE54
  5
DE80
331
DCA9
  5
DE6D
331
DEBE
  5
DEF7
331
DEC6
  5
DF03
331
DE93
  5
DEC6
331
DE5C
  5
DE87
331
DE64
  5
DE91
331
DECE
  5
DF10
331
10432
  5
10807
331
10809
  5
108C9
331
FAE3
  5
103EB
331
10A68
  5
1101E
331
FAEB
  5
1042A
331
DFE5
  5
E77E
331
10612
  5
10809
331
108C1
  5
108D3
331
FB0B
  5
1042B
331
10A70
  5
11025
331
E085
  5
DECB
331
11157
  5
111D2
331
108C9
  5
108DB
331
EAF4
  5
EDB4
331
FDBB
  5
1042C
331
E495
  5
EB7B
331
1062A
  5
108BD
331
111C7
  5
DC38
331
EDBA
  5
EE69
331
E0C9
  5
E781
331
E2D1
  5
EB6F
331
EDC2
  5
EE77
331
EDCA
  5
EF6A
331
E253
  5
EB5E
331
EDD2
  5
EF73
331
ED53
  5
EDDB
331
F0F4
  5
FAEA
331
DE74
  5
DEA1
331
F10C
  5
FDC1
331
DE7C
  5
DEB0
331
DEDE
  5
E49A
331
DE84
  5
DEB8
331
DEAF
  5
DEE7
331
DEB7
  5
DEF0
331
DEE6
  5
E4A2
331
10632
  5
108C1
331
108D1
  5
108E3
331
E49D
  5
ED52
331
FDC3
  5
DE77
331
10EB8
  5
11159
331
111CF
  5
DCA7
331
ED34
  5
EDBC
331
108D9
  5
10A65
331
108E1
  5
10A6F
331
103F3
  5
10634
331
ED3C
  5
EDC4
331
1042B
  5
10639
331
ED5B
  5
EDE3
331
EDDA
  5
EF7B
331
FDC9
  5
10517
331
ED40
  5
EDC8
331
ED63
  5
EDEB
331
EDE2
  5
F269
331
ED48
  5
EDD0
331
EDEA
  5
F8C4
331
EDB3
  5
EE62
331
DE8C
  5
DEBF
331
DE55
  5
DE81
331
DCAA
  5
DE6E
331
DEBF
  5
DEF8
331
DCB2
  5
DE70
331
DEC7
  5
DF04
331
DE5D
  5
DE88
331
DE94
  5
DEC7
331
DE65
  5
DE92
331
DECF
  5
DF11
331
1080A
  5
108CA
331
10A61
  5
10E5E
331
10433
  5
10808
331
11020
  5
111C6
331
EA3D
  5
ED69
331
10A69
  5
1101F
331
DFE6
  5
E77F
331
11158
  5
111D3
331
10623
  5
1080A
331
108C2
  5
108D4
331
FB0C
  5
103EC
331
10A71
  5
11026
331
FDBC
  5
1042D
331
E496
  5
EB7C
331
108CA
  5
108DC
331
EDBB
  5
EE6A
331
EDC3
  5
EF5E
331
EDCB
  5
EF6C
331
ED54
  5
EDDC
331
EDD3
  5
EF74
331
F0F5
  5
FAEB
331
DE98
  5
DECC
331
DE6D
  5
DE9A
331
DE75
  5
DEA2
331
DCD6
  5
DE72
331
DC3B
  5
DE2B
331
DEA0
  5
DED2
331
DEA8
  5
DEDA
331
DD2E
  5
DE7A
331
DE7D
  5
DEB1
331
DEB0
  5
DEE8
331
DE85
  5
DEB9
331
DEDF
  5
E49B
331
DEE7
  5
E4A4
331
108D2
  5
108E4
331
ED2D
  5
EDB5
331
FDC4
  5
DE79
331
10633
  5
108C2
331
111C8
  5
DC39
331
111D0
  5
DCA9
331
108DA
  5
10A66
331
ED35
  5
EDBD
331
103EC
  5
10611
331
10EB9
  5
1115A
331
E4A6
  5
ED5D
331
ED3D
  5
EDC5
331
108E2
  5
10A70
331
1042C
  5
1063A
331
EDDB
  5
EF7C
331
FDCA
  5
10518
331
ED5C
  5
EDE4
331
EDE3
  5
F2A3
331
ED64
  5
EDEC
331
ED41
  5
EDC9
331
ED49
  5
EDD1
331
EDEB
  5
F8CC
331
EDB4
  5
EE63
  0
DIMASSOC
  5
DF40
102
{ACAD_REACTORS
330
DF3F
102
}
330
DF3F
100
AcDbDimAssoc
330
DF32
 90
        3
 70
     0
 71
     0
  1
AcDbOsnapPointRef
 72
     1
331
DEE7
 73
     0
 91
        0
 40
0.0
 10
0.0
 20
0.0
 30
2.000000000000000E+50
 75
     0
  1
AcDbOsnapPointRef
 72
     1
331
DE90
 73
     0
 91
        0
 40
0.0
 10
0.0
 20
0.0
 30
2.000000000000000E+50
 75
     0
  0
DIMASSOC
  5
E0AF
102
{ACAD_REACTORS
330
E0AE
102
}
330
E0AE
100
AcDbDimAssoc
330
E09F
 90
        3
 70
     0
 71
     0
  1
AcDbOsnapPointRef
 72
    13
331
DCA9
 73
     0
 91
        0
 40
0.0
 10
0.0
 20
0.0
 30
2.000000000000000E+50
 75
     0
  1
AcDbOsnapPointRef
 72
     1
331
DCA4
 73
     0
 91
        0
 40
0.0
 10
0.0
 20
0.0
 30
2.000000000000000E+50
 75
     0
  0
DIMASSOC
  5
E0D7
102
{ACAD_REACTORS
330
E0D6
102
}
330
E0D6
100
AcDbDimAssoc
330
E0C9
 90
        1
 70
     0
 71
     0
  1
AcDbOsnapPointRef
 72
    13
331
DCA9
 73
     0
 91
        0
 40
0.0
 10
0.0
 20
0.0
 30
2.000000000000000E+50
 75
     0
  0
DIMASSOC
  5
E0FF
102
{ACAD_REACTORS
330
E0FE
102
}
330
E0FE
100
AcDbDimAssoc
330
E0EF
 90
        3
 70
     0
 71
     0
  1
AcDbOsnapPointRef
 72
    13
331
DC3B
 73
     0
 91
        0
 40
0.0
 10
0.0
 20
0.0
 30
2.000000000000000E+50
 75
     0
  1
AcDbOsnapPointRef
 72
     1
331
DC38
 73
     0
 91
        0
 40
0.0
 10
0.0
 20
0.0
 30
2.000000000000000E+50
 75
     0
  0
DIMASSOC
  5
E127
102
{ACAD_REACTORS
330
E126
102
}
330
E126
100
AcDbDimAssoc
330
E119
 90
        1
 70
     0
 71
     0
  1
AcDbOsnapPointRef
 72
    13
331
DC3B
 73
     0
 91
        0
 40
0.0
 10
0.0
 20
0.0
 30
2.000000000000000E+50
 75
     0
  0
DIMASSOC
  5
E14F
102
{ACAD_REACTORS
330
E14E
102
}
330
E14E
100
AcDbDimAssoc
330
E13F
 90
        3
 70
     0
 71
     0
  1
AcDbOsnapPointRef
 72
    13
331
DC3B
 73
     0
 91
        0
 40
0.0
 10
0.0
 20
0.0
 30
2.000000000000000E+50
 75
     0
  1
AcDbOsnapPointRef
 72
    13
331
DCA9
 73
     0
 91
        0
 40
0.0
 10
0.0
 20
0.0
 30
2.000000000000000E+50
 75
     0
  0
DIMASSOC
  5
E1B1
102
{ACAD_REACTORS
330
E1B0
102
}
330
E1B0
100
AcDbDimAssoc
330
E1A3
 90
        3
 70
     0
 71
     0
  1
AcDbOsnapPointRef
 72
     1
331
DEDF
 73
     0
 91
        0
 40
0.0
 10
0.0
 20
0.0
 30
2.000000000000000E+50
 75
     0
  1
AcDbOsnapPointRef
 72
     1
331
DEDE
 73
     0
 91
        0
 40
0.0
 10
0.0
 20
0.0
 30
2.000000000000000E+50
 75
     0
  0
DIMASSOC
  5
E23B
102
{ACAD_REACTORS
330
E23A
102
}
330
E23A
100
AcDbDimAssoc
330
E22D
 90
        1
 70
     0
 71
     0
  1
AcDbOsnapPointRef
 72
    13
331
DEF1
 73
     0
 91
        0
 40
0.0
 10
0.0
 20
0.0
 30
2.000000000000000E+50
 75
     0
  0
DIMASSOC
  5
E261
102
{ACAD_REACTORS
330
E260
102
}
330
E260
100
AcDbDimAssoc
330
E253
 90
        3
 70
     0
 71
     0
  1
AcDbOsnapPointRef
 72
     1
331
DEDE
 73
     0
 91
        0
 40
0.0
 10
0.0
 20
0.0
 30
2.000000000000000E+50
 75
     0
  1
AcDbOsnapPointRef
 72
    13
331
DEDE
 73
     0
 91
        0
 40
0.0
 10
0.0
 20
0.0
 30
2.000000000000000E+50
 75
     0
  0
DIMASSOC
  5
E9E4
102
{ACAD_REACTORS
330
E9E3
102
}
330
E9E3
100
AcDbDimAssoc
330
E9D7
 90
        2
 70
     0
 71
     0
  1
AcDbOsnapPointRef
 72
     3
331
DEE9
 73
     2
 91
        0
 40
0.0
 10
0.0
 20
0.0
 30
0.0
 75
     0
  0
XRECORD
  5
113FD
102
{ACAD_REACTORS
330
113FB
102
}
330
113FB
100
AcDbXrecord
280
     1
 70
     1
  0
XRECORD
  5
113FC
102
{ACAD_REACTORS
330
113FB
102
}
330
113FB
100
AcDbXrecord
280
     1
 40
0.0
  0
LAYOUT
  5
22
102
{ACAD_XDICTIONARY
360
11400
102
}
102
{ACAD_REACTORS
330
1A
102
}
330
1A
100
AcDbPlotSettings
  1

  2
Adobe PDF
  4
A3
  6
AM_VIEW1
 40
3.174999952316284
 41
3.174999952316284
 42
3.17498779296875
 43
3.17498779296875
 44
297.0318298339844
 45
420.1583251953125
 46
-3.159078955650329
 47
-3.095831274986721
 48
5682.956552614193
 49
6415.562992781612
140
6102.956552614195
141
6712.562992781612
142
1.0
143
1.0
 70
  3748
 72
     1
 73
     1
 74
     4
  7
monochrome.ctb
 75
     0
147
0.9787267410393917
148
-5682.956552614193
149
-6415.562992781612
100
AcDbLayout
  1
Model
 70
     1
 71
     0
 10
0.0
 20
0.0
 11
12.0
 21
9.0
 12
0.0
 22
0.0
 32
0.0
 14
0.0
 24
0.0
 34
0.0
 15
0.0
 25
0.0
 35
0.0
146
0.0
 13
0.0
 23
0.0
 33
0.0
 16
1.0
 26
0.0
 36
0.0
 17
0.0
 27
1.0
 37
0.0
 76
     0
330
1F
331
EAB3
1001
ACAD_PSEXT
1000
Adobe PDF
1000
Adobe PDF Converter
1000
My Documents\*.pdf
1000

1070
     0
  0
LAYOUT
  5
1E
102
{ACAD_XDICTIONARY
360
113FE
102
}
102
{ACAD_REACTORS
330
1A
102
}
330
1A
100
AcDbPlotSettings
  1

  2
\\ML370\XEROX
  4
A4
  6

 40
3.174999952316283
 41
3.174999952316283
 42
3.175003051757812
 43
3.17498779296875
 44
209.8674926757813
 45
296.6719970703125
 46
0.0
 47
0.0
 48
0.0
 49
0.0
140
0.0
141
0.0
142
1.0
143
1.0
 70
   688
 72
     1
 73
     1
 74
     5
  7
monochrome.ctb
 75
    16
147
1.0
148
0.0
149
0.0
100
AcDbLayout
  1
ﾚｲｱｳﾄ1
 70
     1
 71
     1
 10
-3.17498779296875
 20
-3.174999952316283
 11
293.4970092773438
 21
206.692492723465
 12
0.0
 22
0.0
 32
0.0
 14
1.000000000000000E+20
 24
1.000000000000000E+20
 34
1.000000000000000E+20
 15
-1.000000000000000E+20
 25
-1.000000000000000E+20
 35
-1.000000000000000E+20
146
0.0
 13
0.0
 23
0.0
 33
0.0
 16
1.0
 26
0.0
 36
0.0
 17
0.0
 27
1.0
 37
0.0
 76
     0
330
1B
  0
LAYOUT
  5
26
102
{ACAD_XDICTIONARY
360
11402
102
}
102
{ACAD_REACTORS
330
1A
102
}
330
1A
100
AcDbPlotSettings
  1

  2
\\ML370\XEROX
  4

  6

 40
0.0
 41
0.0
 42
0.0
 43
0.0
 44
0.0
 45
0.0
 46
0.0
 47
0.0
 48
0.0
 49
0.0
140
0.0
141
0.0
142
1.0
143
1.0
 70
   688
 72
     0
 73
     0
 74
     5
  7
monochrome.ctb
 75
    16
147
1.0
148
0.0
149
0.0
100
AcDbLayout
  1
ﾚｲｱｳﾄ2
 70
     1
 71
     2
 10
0.0
 20
0.0
 11
12.0
 21
9.0
 12
0.0
 22
0.0
 32
0.0
 14
0.0
 24
0.0
 34
0.0
 15
0.0
 25
0.0
 35
0.0
146
0.0
 13
0.0
 23
0.0
 33
0.0
 16
1.0
 26
0.0
 36
0.0
 17
0.0
 27
1.0
 37
0.0
 76
     0
330
23
  0
MATERIAL
  5
EAB6
102
{ACAD_XDICTIONARY
360
11370
102
}
102
{ACAD_REACTORS
330
A91C
102
}
330
A91C
100
AcDbMaterial
  1
ByBlock
  0
MATERIAL
  5
EAB5
102
{ACAD_XDICTIONARY
360
1136E
102
}
102
{ACAD_REACTORS
330
A91C
102
}
330
A91C
100
AcDbMaterial
  1
ByLayer
  0
MATERIAL
  5
DDE5
102
{ACAD_XDICTIONARY
360
1136C
102
}
102
{ACAD_REACTORS
330
A91C
102
}
330
A91C
100
AcDbMaterial
  1
Global
  0
MLINESTYLE
  5
18
102
{ACAD_REACTORS
330
17
102
}
330
17
100
AcDbMlineStyle
  2
STANDARD
 70
     0
  3

 62
   256
 51
90.0
 52
90.0
 71
     2
 49
0.5
 62
   256
  6
BYLAYER
 49
-0.5
 62
   256
  6
BYLAYER
  0
PLOTSETTINGS
  5
DB97
102
{ACAD_XDICTIONARY
360
11406
102
}
102
{ACAD_REACTORS
330
19
102
}
330
19
100
AcDbPlotSettings
  1
01 A3フィット
  2
FX DocuWide 2050/2051
  4
A3
  6

 40
3.174999952316283
 41
3.174999952316283
 42
3.17498779296875
 43
3.17498779296875
 44
296.989501953125
 45
419.9889831542968
 46
0.0
 47
1.29584122896196
 48
214.3704939521119
 49
367.5855324241177
140
275.6727856380065
141
407.6291914078169
142
1.0
143
1.445089120606129
 70
  3764
 72
     1
 73
     1
 74
     2
  7
monochrome.ctb
 75
     0
147
0.6919988433519999
148
0.0
149
0.0
1001
ACAD_PSEXT
1000
FX DocuWide 2050/2051
1000
FX DocuWide 2050/2051
1000
IP_192.200.15.252
1000

1070
     0
  0
PLOTSETTINGS
  5
DB98
102
{ACAD_XDICTIONARY
360
11408
102
}
102
{ACAD_REACTORS
330
19
102
}
330
19
100
AcDbPlotSettings
  1
02 A3
  2
FX DocuWide 2050/2051
  4
A3
  6

 40
3.174999952316283
 41
3.174999952316283
 42
3.17498779296875
 43
3.17498779296875
 44
296.989501953125
 45
419.9889831542968
 46
-64.68024289608003
 47
-90.18050229549407
 48
214.3704939521119
 49
367.5855324241177
140
275.6727856380065
141
407.6291914078169
142
1.0
143
1.0
 70
  3764
 72
     1
 73
     1
 74
     2
  7
monochrome.ctb
 75
    16
147
1.0
148
0.0
149
0.0
1001
ACAD_PSEXT
1000
FX DocuWide 2050/2051
1000
FX DocuWide 2050/2051
1000
IP_192.200.15.252
1000

1070
     0
  0
PLOTSETTINGS
  5
DB99
102
{ACAD_XDICTIONARY
360
1140A
102
}
102
{ACAD_REACTORS
330
19
102
}
330
19
100
AcDbPlotSettings
  1
03 A2フィット
  2
FX DocuWide 2050/2051
  4
User66
  6

 40
3.174999952316283
 41
3.174999952316283
 42
3.17498779296875
 43
3.17498779296875
 44
419.9889831542968
 45
593.97900390625
 46
0.0
 47
1.312647041252715
 48
214.3704939521119
 49
367.5855324241177
140
275.6727856380065
141
407.6291914078169
142
1.0
143
1.015378155013402
 70
  3764
 72
     1
 73
     1
 74
     2
  7
monochrome.ctb
 75
     0
147
0.9848547509738375
148
0.0
149
0.0
1001
ACAD_PSEXT
1000
FX DocuWide 2050/2051
1000
FX DocuWide 2050/2051
1000
IP_192.200.15.252
1000

1070
     0
  0
PLOTSETTINGS
  5
DB9A
102
{ACAD_XDICTIONARY
360
1140C
102
}
102
{ACAD_REACTORS
330
19
102
}
330
19
100
AcDbPlotSettings
  1
04 A2
  2
FX DocuWide 2050/2051
  4
User66
  6

 40
3.174999952316283
 41
3.174999952316283
 42
3.17498779296875
 43
3.17498779296875
 44
419.9889831542968
 45
593.97900390625
 46
-3.180502295494078
 47
-3.185491919517517
 48
214.3704939521119
 49
367.5855324241177
140
275.6727856380065
141
407.6291914078169
142
1.0
143
1.0
 70
  3764
 72
     1
 73
     1
 74
     2
  7
monochrome.ctb
 75
    16
147
1.0
148
0.0
149
0.0
1001
ACAD_PSEXT
1000
FX DocuWide 2050/2051
1000
FX DocuWide 2050/2051
1000
IP_192.200.15.252
1000

1070
     0
  0
PLOTSETTINGS
  5
DB9B
102
{ACAD_XDICTIONARY
360
1140E
102
}
102
{ACAD_REACTORS
330
19
102
}
330
19
100
AcDbPlotSettings
  1
05 A1フィット
  2
FX DocuWide 2050/2051
  4
User139
  6

 40
3.174999952316283
 41
3.174999952316283
 42
3.17498779296875
 43
3.17498779296875
 44
593.97900390625
 45
840.9939575195313
 46
0.0
 47
1.784323459012171
 48
214.3704939521119
 49
367.5855324241177
140
275.6727856380065
141
407.6291914078169
142
1.0
143
0.7147366594384652
 70
  3764
 72
     1
 73
     1
 74
     2
  7
monochrome.ctb
 75
     0
147
1.399116705145154
148
0.0
149
0.0
1001
ACAD_PSEXT
1000
FX DocuWide 2050/2051
1000
FX DocuWide 2050/2051
1000
IP_192.200.15.252
1000

1070
     0
  0
PLOTSETTINGS
  5
DB9C
102
{ACAD_XDICTIONARY
360
11410
102
}
102
{ACAD_REACTORS
330
19
102
}
330
19
100
AcDbPlotSettings
  1
06 A1
  2
FX DocuWide 2050/2051
  4
User139
  6

 40
3.174999952316283
 41
3.174999952316283
 42
3.17498779296875
 43
3.17498779296875
 44
593.97900390625
 45
840.9939575195313
 46
83.81450808048247
 47
120.3219848871231
 48
214.3704939521119
 49
367.5855324241177
140
275.6727856380065
141
407.6291914078169
142
1.0
143
1.0
 70
  3764
 72
     1
 73
     1
 74
     2
  7
monochrome.ctb
 75
    16
147
1.0
148
0.0
149
0.0
1001
ACAD_PSEXT
1000
FX DocuWide 2050/2051
1000
FX DocuWide 2050/2051
1000
IP_192.200.15.252
1000

1070
     0
  0
PLOTSETTINGS
  5
DB9D
102
{ACAD_XDICTIONARY
360
11412
102
}
102
{ACAD_REACTORS
330
19
102
}
330
19
100
AcDbPlotSettings
  1
06 A4フィット
  2
FX DocuWide 2050/2051
  4
A4
  6

 40
3.174999952316283
 41
3.174999952316283
 42
3.175003051757812
 43
3.17498779296875
 44
209.9944915771484
 45
296.989501953125
 46
0.0
 47
1.314011612960285
 48
214.3704939521119
 49
367.5855324241177
140
275.6727856380065
141
407.6291914078169
142
1.0
143
2.06241771109504
 70
  3764
 72
     1
 73
     1
 74
     2
  7
monochrome.ctb
 75
     0
147
0.4848678299358913
148
0.0
149
0.0
1001
ACAD_PSEXT
1000
FX DocuWide 2050/2051
1000
FX DocuWide 2050/2051
1000
IP_192.200.15.252
1000

1070
     0
  0
PLOTSETTINGS
  5
DB9E
102
{ACAD_XDICTIONARY
360
11414
102
}
102
{ACAD_REACTORS
330
19
102
}
330
19
100
AcDbPlotSettings
  1
07 A4
  2
FX DocuWide 2050/2051
  4
A4
  6

 40
3.174999952316283
 41
3.174999952316283
 42
3.175003051757812
 43
3.17498779296875
 44
209.9944915771484
 45
296.989501953125
 46
-108.1777557134628
 47
-151.68024289608
 48
214.3704939521119
 49
367.5855324241177
140
275.6727856380065
141
407.6291914078169
142
1.0
143
1.0
 70
  3764
 72
     1
 73
     1
 74
     2
  7
monochrome.ctb
 75
    16
147
1.0
148
0.0
149
0.0
1001
ACAD_PSEXT
1000
FX DocuWide 2050/2051
1000
FX DocuWide 2050/2051
1000
IP_192.200.15.252
1000

1070
     0
  0
ACDBPLACEHOLDER
  5
F
102
{ACAD_REACTORS
330
E
102
}
330
E
  0
TABLESTYLE
  5
AABA
102
{ACAD_XDICTIONARY
360
11404
102
}
102
{ACAD_REACTORS
330
AAB9
102
}
330
AAB9
100
AcDbTableStyle
  3
Standard
 70
     0
 71
     0
 40
1.5
 41
1.5
280
     0
281
     0
  7
STANDARD
140
4.5
170
     2
 62
     0
 63
     7
283
     0
274
    -2
284
     1
 64
     0
275
    -2
285
     1
 65
     0
276
    -2
286
     1
 66
     0
277
    -2
287
     1
 67
     0
278
    -2
288
     1
 68
     0
279
    -2
289
     1
 69
     0
  7
STANDARD
140
6.0
170
     5
 62
     0
 63
     7
283
     0
274
    -2
284
     1
 64
     0
275
    -2
285
     1
 65
     0
276
    -2
286
     1
 66
     0
277
    -2
287
     1
 67
     0
278
    -2
288
     1
 68
     0
279
    -2
289
     1
 69
     0
  7
STANDARD
140
4.5
170
     5
 62
     0
 63
     7
283
     0
274
    -2
284
     1
 64
     0
275
    -2
285
     1
 65
     0
276
    -2
286
     1
 66
     0
277
    -2
287
     1
 67
     0
278
    -2
288
     1
 68
     0
279
    -2
289
     1
 69
     0
  0
VISUALSTYLE
  5
EABD
102
{ACAD_REACTORS
330
EAB7
102
}
330
EAB7
100
AcDbVisualStyle
  2
2dWireframe
 70
     4
 71
     0
 72
     2
 73
     0
 90
        0
 40
-0.6
 41
-30.0
 62
     5
 63
     7
 74
     1
 91
        4
 64
     7
 65
   257
 75
     1
175
     1
 42
1.0
 92
        0
 66
   257
 43
1.0
 76
     1
 77
     6
 78
     2
 67
     7
 79
     5
170
     0
171
     0
290
     0
174
     0
 93
        1
 44
0.0
173
     0
291
     0
 45
0.0
1001
ACAD
1000
AcDbSavedByObjectVersion
1070
     0
1000
AcDbSavedByObjectVersion
1070
     0
  0
VISUALSTYLE
  5
EABF
102
{ACAD_REACTORS
330
EAB7
102
}
330
EAB7
100
AcDbVisualStyle
  2
3D Hidden
 70
     6
 71
     1
 72
     2
 73
     2
 90
        0
 40
-0.6
 41
-30.0
 62
     5
 63
     7
 74
     2
 91
        2
 64
     7
 65
   257
 75
     2
175
     1
 42
40.0
 92
        0
 66
   257
 43
1.0
 76
     1
 77
     6
 78
     2
 67
     7
 79
     3
170
     0
171
     0
290
     0
174
     0
 93
        1
 44
0.0
173
     0
291
     0
 45
0.0
1001
ACAD
1000
AcDbSavedByObjectVersion
1070
     0
1000
AcDbSavedByObjectVersion
1070
     0
  0
VISUALSTYLE
  5
EABE
102
{ACAD_REACTORS
330
EAB7
102
}
330
EAB7
100
AcDbVisualStyle
  2
3dWireframe
 70
     5
 71
     0
 72
     2
 73
     0
 90
        0
 40
-0.6
 41
-30.0
 62
     5
 63
     7
 74
     1
 91
        4
 64
     7
 65
   257
 75
     1
175
     1
 42
1.0
 92
        0
 66
   257
 43
1.0
 76
     1
 77
     6
 78
     2
 67
     7
 79
     5
170
     0
171
     0
290
     0
174
     0
 93
        1
 44
0.0
173
     0
291
     0
 45
0.0
1001
ACAD
1000
AcDbSavedByObjectVersion
1070
     0
1000
AcDbSavedByObjectVersion
1070
     0
  0
VISUALSTYLE
  5
EABC
102
{ACAD_REACTORS
330
EAB7
102
}
330
EAB7
100
AcDbVisualStyle
  2
Basic
 70
     7
 71
     1
 72
     0
 73
     1
 90
        0
 40
-0.6
 41
-30.0
 62
     5
 63
     7
 74
     0
 91
        4
 64
     7
 65
   257
 75
     1
175
     1
 42
1.0
 92
        8
 66
     7
 43
1.0
 76
     1
 77
     6
 78
     2
 67
     7
 79
     5
170
     0
171
     0
290
     0
174
     0
 93
        1
 44
0.0
173
     0
291
     1
 45
0.0
1001
ACAD
1000
AcDbSavedByObjectVersion
1070
     0
1000
AcDbSavedByObjectVersion
1070
     0
  0
VISUALSTYLE
  5
EAC3
102
{ACAD_REACTORS
330
EAB7
102
}
330
EAB7
100
AcDbVisualStyle
  2
Brighten
 70
    12
 71
     2
 72
     2
 73
     0
 90
        0
 40
-0.6
 41
-30.0
 62
     5
 63
     7
 74
     1
 91
        4
 64
     7
 65
   257
 75
     1
175
     1
 42
1.0
 92
        8
 66
     7
 43
1.0
 76
     1
 77
     6
 78
     2
 67
     7
 79
     5
170
     0
171
     0
290
     0
174
     0
 93
        1
 44
50.0
173
     0
291
     1
 45
0.0
1001
ACAD
1000
AcDbSavedByObjectVersion
1070
     0
1000
AcDbSavedByObjectVersion
1070
     0
  0
VISUALSTYLE
  5
EAC7
102
{ACAD_REACTORS
330
EAB7
102
}
330
EAB7
100
AcDbVisualStyle
  2
ColorChange
 70
    16
 71
     2
 72
     2
 73
     3
 90
        0
 40
-0.6
 41
-30.0
 62
     5
 63
     8
 74
     1
 91
        4
 64
     7
 65
   257
 75
     1
175
     1
 42
1.0
 92
        8
 66
     8
 43
1.0
 76
     1
 77
     6
 78
     2
 67
     7
 79
     5
170
     0
171
     0
290
     0
174
     0
 93
        1
 44
0.0
173
     0
291
     1
 45
0.0
1001
ACAD
1000
AcDbSavedByObjectVersion
1070
     0
1000
AcDbSavedByObjectVersion
1070
     0
  0
VISUALSTYLE
  5
EAC0
102
{ACAD_REACTORS
330
EAB7
102
}
330
EAB7
100
AcDbVisualStyle
  2
Conceptual
 70
     9
 71
     3
 72
     2
 73
     0
 90
        0
 40
-0.6
 41
-30.0
 62
     5
 63
     7
 74
     2
 91
        2
 64
     7
 65
   257
 75
     1
175
     1
 42
40.0
 92
        8
 66
     7
 43
1.0
 76
     1
 77
     6
 78
     2
 67
     7
 79
     3
170
     0
171
     0
290
     0
174
     0
 93
        1
 44
0.0
173
     0
291
     0
 45
0.0
1001
ACAD
1000
AcDbSavedByObjectVersion
1070
     0
1000
AcDbSavedByObjectVersion
1070
     0
  0
VISUALSTYLE
  5
EAC2
102
{ACAD_REACTORS
330
EAB7
102
}
330
EAB7
100
AcDbVisualStyle
  2
Dim
 70
    11
 71
     2
 72
     2
 73
     0
 90
        0
 40
-0.6
 41
-30.0
 62
     5
 63
     7
 74
     1
 91
        4
 64
     7
 65
   257
 75
     1
175
     1
 42
1.0
 92
        8
 66
     7
 43
1.0
 76
     1
 77
     6
 78
     2
 67
     7
 79
     5
170
     0
171
     0
290
     0
174
     0
 93
        1
 44
-50.0
173
     0
291
     1
 45
0.0
1001
ACAD
1000
AcDbSavedByObjectVersion
1070
     0
1000
AcDbSavedByObjectVersion
1070
     0
  0
VISUALSTYLE
  5
EAC6
102
{ACAD_REACTORS
330
EAB7
102
}
330
EAB7
100
AcDbVisualStyle
  2
Facepattern
 70
    15
 71
     2
 72
     2
 73
     0
 90
        0
 40
-0.6
 41
-30.0
 62
     5
 63
     7
 74
     1
 91
        4
 64
     7
 65
   257
 75
     1
175
     1
 42
1.0
 92
        8
 66
     7
 43
1.0
 76
     1
 77
     6
 78
     2
 67
     7
 79
     5
170
     0
171
     0
290
     0
174
     0
 93
        1
 44
0.0
173
     0
291
     1
 45
0.0
1001
ACAD
1000
AcDbSavedByObjectVersion
1070
     0
1000
AcDbSavedByObjectVersion
1070
     0
  0
VISUALSTYLE
  5
EAB8
102
{ACAD_REACTORS
330
EAB7
102
}
330
EAB7
100
AcDbVisualStyle
  2
Flat
 70
     0
 71
     2
 72
     1
 73
     1
 90
        2
 40
-0.6
 41
30.0
 62
     5
 63
     7
 74
     0
 91
        4
 64
     7
 65
   257
 75
     1
175
     1
 42
1.0
 92
        8
 66
     7
 43
1.0
 76
     1
 77
     6
 78
     2
 67
     7
 79
     5
170
     0
171
     0
290
     0
174
     0
 93
       13
 44
0.0
173
     0
291
     1
 45
0.0
1001
ACAD
1000
AcDbSavedByObjectVersion
1070
     0
1000
AcDbSavedByObjectVersion
1070
     0
  0
VISUALSTYLE
  5
EAB9
102
{ACAD_REACTORS
330
EAB7
102
}
330
EAB7
100
AcDbVisualStyle
  2
FlatWithEdges
 70
     1
 71
     2
 72
     1
 73
     1
 90
        2
 40
-0.6
 41
30.0
 62
     5
 63
     7
 74
     1
 91
        4
 64
     7
 65
   257
 75
     1
175
     1
 42
1.0
 92
        0
 66
   257
 43
1.0
 76
     1
 77
     6
 78
     2
 67
     7
 79
     5
170
     0
171
     0
290
     0
174
     0
 93
       13
 44
0.0
173
     0
291
     1
 45
0.0
1001
ACAD
1000
AcDbSavedByObjectVersion
1070
     0
1000
AcDbSavedByObjectVersion
1070
     0
  0
VISUALSTYLE
  5
EABA
102
{ACAD_REACTORS
330
EAB7
102
}
330
EAB7
100
AcDbVisualStyle
  2
Gouraud
 70
     2
 71
     2
 72
     2
 73
     1
 90
        2
 40
-0.6
 41
30.0
 62
     5
 63
     7
 74
     0
 91
        4
 64
     7
 65
   257
 75
     1
175
     1
 42
1.0
 92
        0
 66
     7
 43
1.0
 76
     1
 77
     6
 78
     2
 67
     7
 79
     5
170
     0
171
     0
290
     0
174
     0
 93
       13
 44
0.0
173
     0
291
     1
 45
0.0
1001
ACAD
1000
AcDbSavedByObjectVersion
1070
     0
1000
AcDbSavedByObjectVersion
1070
     0
  0
VISUALSTYLE
  5
EABB
102
{ACAD_REACTORS
330
EAB7
102
}
330
EAB7
100
AcDbVisualStyle
  2
GouraudWithEdges
 70
     3
 71
     2
 72
     2
 73
     1
 90
        2
 40
-0.6
 41
30.0
 62
     5
 63
     7
 74
     1
 91
        4
 64
     7
 65
   257
 75
     1
175
     1
 42
1.0
 92
        0
 66
   257
 43
1.0
 76
     1
 77
     6
 78
     2
 67
     7
 79
     5
170
     0
171
     0
290
     0
174
     0
 93
       13
 44
0.0
173
     0
291
     1
 45
0.0
1001
ACAD
1000
AcDbSavedByObjectVersion
1070
     0
1000
AcDbSavedByObjectVersion
1070
     0
  0
VISUALSTYLE
  5
EAC5
102
{ACAD_REACTORS
330
EAB7
102
}
330
EAB7
100
AcDbVisualStyle
  2
Linepattern
 70
    14
 71
     2
 72
     2
 73
     0
 90
        0
 40
-0.6
 41
-30.0
 62
     5
 63
     7
 74
     1
 91
        4
 64
     7
 65
   257
 75
     7
175
     7
 42
1.0
 92
        8
 66
     7
 43
1.0
 76
     1
 77
     6
 78
     2
 67
     7
 79
     5
170
     0
171
     0
290
     0
174
     0
 93
        1
 44
0.0
173
     0
291
     1
 45
0.0
1001
ACAD
1000
AcDbSavedByObjectVersion
1070
     0
1000
AcDbSavedByObjectVersion
1070
     0
  0
VISUALSTYLE
  5
EAC1
102
{ACAD_REACTORS
330
EAB7
102
}
330
EAB7
100
AcDbVisualStyle
  2
Realistic
 70
     8
 71
     2
 72
     2
 73
     0
 90
        0
 40
-0.6
 41
-30.0
 62
     5
 63
     7
 74
     1
 91
        0
 64
     7
 65
   257
 75
     1
175
     1
 42
1.0
 92
        8
 66
     8
 43
1.0
 76
     1
 77
     6
 78
     2
 67
     7
 79
     5
170
     0
171
     0
290
     0
174
     0
 93
       13
 44
0.0
173
     0
291
     0
 45
0.0
1001
ACAD
1000
AcDbSavedByObjectVersion
1070
     0
1000
AcDbSavedByObjectVersion
1070
     0
  0
VISUALSTYLE
  5
EAC4
102
{ACAD_REACTORS
330
EAB7
102
}
330
EAB7
100
AcDbVisualStyle
  2
Thicken
 70
    13
 71
     2
 72
     2
 73
     0
 90
        0
 40
-0.6
 41
-30.0
 62
     5
 63
     7
 74
     1
 91
        4
 64
     7
 65
   257
 75
     1
175
     1
 42
1.0
 92
       12
 66
     7
 43
1.0
 76
     1
 77
     6
 78
     2
 67
     7
 79
     5
170
     0
171
     0
290
     0
174
     0
 93
        1
 44
0.0
173
     0
291
     1
 45
0.0
1001
ACAD
1000
AcDbSavedByObjectVersion
1070
     0
1000
AcDbSavedByObjectVersion
1070
     0
  0
DICTIONARYVAR
  5
AAF3
102
{ACAD_REACTORS
330
34
102
}
330
34
100
DictionaryVariables
280
     0
  1
STANDARD
  0
DICTIONARYVAR
  5
A10C
102
{ACAD_REACTORS
330
34
102
}
330
34
100
DictionaryVariables
280
     0
  1
2
  0
DICTIONARYVAR
  5
AB07
102
{ACAD_REACTORS
330
34
102
}
330
34
100
DictionaryVariables
280
     0
  1
4
  0
DICTIONARYVAR
  5
35
102
{ACAD_REACTORS
330
34
102
}
330
34
100
DictionaryVariables
280
     0
  1
0
  0
DICTIONARYVAR
  5
194C
102
{ACAD_REACTORS
330
34
102
}
330
34
100
DictionaryVariables
280
     0
  1
96
  0
DICTIONARY
  5
7E8
102
{ACAD_REACTORS
330
47
102
}
330
47
100
AcDbDictionary
281
     1
  0
DICTIONARY
  5
4C
102
{ACAD_REACTORS
330
47
102
}
330
47
100
AcDbDictionary
281
     1
  0
XRECORD
  5
A929
102
{ACAD_REACTORS
330
47
102
}
330
47
100
AcDbXrecord
280
     1
 90
-1023410169
  0
XRECORD
  5
9F49
102
{ACAD_REACTORS
330
9F48
102
}
330
9F48
100
AcDbXrecord
280
     1
330
0
330
0
330
0
330
0
330
0
330
0
330
0
330
0
  0
XRECORD
  5
3FB7
102
{ACAD_REACTORS
330
3F96
102
}
330
3F96
100
AcDbXrecord
280
     1
 91
        3
330
0
 90
        8
 62
     7
370
    40
331
16
  1
Color_7
330
0
 90
        0
 62
    14
370
    -3
331
16
  1
Color_14
330
0
 90
        8
 62
     7
370
    20
331
16
  1
Color_7
330
6D1
 90
        0
 62
     7
370
    -3
331
16
  1
Color_7
330
0
 90
        8
 62
     7
370
    50
331
16
  1
Color_7
330
0
 90
        8
 62
     2
370
    35
331
16
  1
Color_2
330
0
 90
        8
 62
     7
370
    -3
331
16
  1
Color_7
330
10
 90
        8
 62
     7
370
    -3
331
16
  1
Color_7
  0
XRECORD
  5
C551
102
{ACAD_REACTORS
330
AAB4
102
}
330
AAB4
100
AcDbXrecord
280
     1
 90
-1073741824
  0
XRECORD
  5
D474
102
{ACAD_REACTORS
330
AAB4
102
}
330
AAB4
100
AcDbXrecord
280
     1
 90
-1073741824
  0
XRECORD
  5
DFEC
102
{ACAD_REACTORS
330
AAB4
102
}
330
AAB4
100
AcDbXrecord
280
     1
 90
-1073741824
  0
XRECORD
  5
C54C
102
{ACAD_REACTORS
330
AAB4
102
}
330
AAB4
100
AcDbXrecord
280
     1
 90
-1073741824
  0
DICTIONARY
  5
11400
330
22
100
AcDbDictionary
280
     1
281
     1
  3
ACAD_XREC_ROUNDTRIP
360
11401
  0
DICTIONARY
  5
113FE
330
1E
100
AcDbDictionary
280
     1
281
     1
  3
ACAD_XREC_ROUNDTRIP
360
113FF
  0
DICTIONARY
  5
11402
330
26
100
AcDbDictionary
280
     1
281
     1
  3
ACAD_XREC_ROUNDTRIP
360
11403
  0
DICTIONARY
  5
11370
330
EAB6
100
AcDbDictionary
280
     1
281
     1
  3
ACAD_XREC_ROUNDTRIP
360
11371
  0
DICTIONARY
  5
1136E
330
EAB5
100
AcDbDictionary
280
     1
281
     1
  3
ACAD_XREC_ROUNDTRIP
360
1136F
  0
DICTIONARY
  5
1136C
330
DDE5
100
AcDbDictionary
280
     1
281
     1
  3
ACAD_XREC_ROUNDTRIP
360
1136D
  0
DICTIONARY
  5
11406
330
DB97
100
AcDbDictionary
280
     1
281
     1
  3
ACAD_XREC_ROUNDTRIP
360
11407
  0
DICTIONARY
  5
11408
330
DB98
100
AcDbDictionary
280
     1
281
     1
  3
ACAD_XREC_ROUNDTRIP
360
11409
  0
DICTIONARY
  5
1140A
330
DB99
100
AcDbDictionary
280
     1
281
     1
  3
ACAD_XREC_ROUNDTRIP
360
1140B
  0
DICTIONARY
  5
1140C
330
DB9A
100
AcDbDictionary
280
     1
281
     1
  3
ACAD_XREC_ROUNDTRIP
360
1140D
  0
DICTIONARY
  5
1140E
330
DB9B
100
AcDbDictionary
280
     1
281
     1
  3
ACAD_XREC_ROUNDTRIP
360
1140F
  0
DICTIONARY
  5
11410
330
DB9C
100
AcDbDictionary
280
     1
281
     1
  3
ACAD_XREC_ROUNDTRIP
360
11411
  0
DICTIONARY
  5
11412
330
DB9D
100
AcDbDictionary
280
     1
281
     1
  3
ACAD_XREC_ROUNDTRIP
360
11413
  0
DICTIONARY
  5
11414
330
DB9E
100
AcDbDictionary
280
     1
281
     1
  3
ACAD_XREC_ROUNDTRIP
360
11415
  0
DICTIONARY
  5
11404
330
AABA
100
AcDbDictionary
280
     1
281
     1
  3
ACAD_XREC_ROUNDTRIP
360
11405
  0
XRECORD
  5
11401
102
{ACAD_REACTORS
330
11400
102
}
330
11400
100
AcDbXrecord
280
     1
102
SHADEPLOT
 70
     0
102
SHADEPLOTRESLEVEL
 70
     2
102
SHADEPLOTCUSTOMDPI
 70
   200
  0
XRECORD
  5
113FF
102
{ACAD_REACTORS
330
113FE
102
}
330
113FE
100
AcDbXrecord
280
     1
102
SHADEPLOT
 70
     0
102
SHADEPLOTRESLEVEL
 70
     2
102
SHADEPLOTCUSTOMDPI
 70
   300
  0
XRECORD
  5
11403
102
{ACAD_REACTORS
330
11402
102
}
330
11402
100
AcDbXrecord
280
     1
102
SHADEPLOT
 70
     0
102
SHADEPLOTRESLEVEL
 70
     2
102
SHADEPLOTCUSTOMDPI
 70
   300
  0
XRECORD
  5
11371
102
{ACAD_REACTORS
330
11370
102
}
330
11370
100
AcDbXrecord
280
     1
102
MATERIAL
148
0.0
149
0.0
149
0.0
 93
        0
 94
       63
282
     0
 72
     1
 77
     1
171
     1
175
     1
179
     1
273
     0
  0
XRECORD
  5
1136F
102
{ACAD_REACTORS
330
1136E
102
}
330
1136E
100
AcDbXrecord
280
     1
102
MATERIAL
148
0.0
149
0.0
149
0.0
 93
        0
 94
       63
282
     0
 72
     1
 77
     1
171
     1
175
     1
179
     1
273
     0
  0
XRECORD
  5
1136D
102
{ACAD_REACTORS
330
1136C
102
}
330
1136C
100
AcDbXrecord
280
     1
102
MATERIAL
148
0.0
149
0.0
149
0.0
 93
        0
 94
       63
282
     0
 72
     1
 77
     1
171
     1
175
     1
179
     1
273
     0
  0
XRECORD
  5
11407
102
{ACAD_REACTORS
330
11406
102
}
330
11406
100
AcDbXrecord
280
     1
102
SHADEPLOT
 70
     0
102
SHADEPLOTRESLEVEL
 70
     2
102
SHADEPLOTCUSTOMDPI
 70
   200
  0
XRECORD
  5
11409
102
{ACAD_REACTORS
330
11408
102
}
330
11408
100
AcDbXrecord
280
     1
102
SHADEPLOT
 70
     0
102
SHADEPLOTRESLEVEL
 70
     2
102
SHADEPLOTCUSTOMDPI
 70
   200
  0
XRECORD
  5
1140B
102
{ACAD_REACTORS
330
1140A
102
}
330
1140A
100
AcDbXrecord
280
     1
102
SHADEPLOT
 70
     0
102
SHADEPLOTRESLEVEL
 70
     2
102
SHADEPLOTCUSTOMDPI
 70
   200
  0
XRECORD
  5
1140D
102
{ACAD_REACTORS
330
1140C
102
}
330
1140C
100
AcDbXrecord
280
     1
102
SHADEPLOT
 70
     0
102
SHADEPLOTRESLEVEL
 70
     2
102
SHADEPLOTCUSTOMDPI
 70
   200
  0
XRECORD
  5
1140F
102
{ACAD_REACTORS
330
1140E
102
}
330
1140E
100
AcDbXrecord
280
     1
102
SHADEPLOT
 70
     0
102
SHADEPLOTRESLEVEL
 70
     2
102
SHADEPLOTCUSTOMDPI
 70
   200
  0
XRECORD
  5
11411
102
{ACAD_REACTORS
330
11410
102
}
330
11410
100
AcDbXrecord
280
     1
102
SHADEPLOT
 70
     0
102
SHADEPLOTRESLEVEL
 70
     2
102
SHADEPLOTCUSTOMDPI
 70
   200
  0
XRECORD
  5
11413
102
{ACAD_REACTORS
330
11412
102
}
330
11412
100
AcDbXrecord
280
     1
102
SHADEPLOT
 70
     0
102
SHADEPLOTRESLEVEL
 70
     2
102
SHADEPLOTCUSTOMDPI
 70
   200
  0
XRECORD
  5
11415
102
{ACAD_REACTORS
330
11414
102
}
330
11414
100
AcDbXrecord
280
     1
102
SHADEPLOT
 70
     0
102
SHADEPLOTRESLEVEL
 70
     2
102
SHADEPLOTCUSTOMDPI
 70
   200
  0
XRECORD
  5
11405
102
{ACAD_REACTORS
330
11404
102
}
330
11404
100
AcDbXrecord
280
     1
102
ACAD_ROUNDTRIP_PRE2007_TABLESTYLE
 90
        4
 91
        0
  1

 92
        4
 93
        0
  2

 94
        4
 95
        0
  3

  0
ENDSEC
  0
EOF
