  0
SECTION
  2
HEADER
  9
$ACADVER
  1
AC1015
  9
$ACADMAINTVER
 70
    20
  9
$DWGCODEPAGE
  3
ANSI_932
  9
$INSBASE
 10
0.0
 20
0.0
 30
0.0
  9
$EXTMIN
 10
-0.0000000000000568
 20
0.0
 30
0.0
  9
$EXTMAX
 10
1680.0
 20
1188.0
 30
0.0
  9
$LIMMIN
 10
-2.839556068709498
 20
-1304.060710674002
  9
$LIMMAX
 10
1677.16044393129
 20
-116.0607106740026
  9
$ORTHOMODE
 70
     0
  9
$REGENMODE
 70
     1
  9
$FILLMODE
 70
     1
  9
$QTEXTMODE
 70
     0
  9
$MIRRTEXT
 70
     0
  9
$LTSCALE
 40
1.0
  9
$ATTMODE
 70
     1
  9
$TEXTSIZE
 40
3.2
  9
$TRACEWID
 40
1.0
  9
$TEXTSTYLE
  7
STANDARD
  9
$CLAYER
  8
AM_6
  9
$CELTYPE
  6
ByLayer
  9
$CECOLOR
 62
   256
  9
$CELTSCALE
 40
1.0
  9
$DISPSILH
 70
     0
  9
$DIMSCALE
 40
1.0
  9
$DIMASZ
 40
2.5
  9
$DIMEXO
 40
1.0
  9
$DIMDLI
 40
10.0
  9
$DIMRND
 40
0.0
  9
$DIMDLE
 40
0.0
  9
$DIMEXE
 40
1.0
  9
$DIMTP
 40
0.1
  9
$DIMTM
 40
0.1
  9
$DIMTXT
 40
3.5
  9
$DIMCEN
 40
0.0
  9
$DIMTSZ
 40
0.0
  9
$DIMTOL
 70
     0
  9
$DIMLIM
 70
     0
  9
$DIMTIH
 70
     0
  9
$DIMTOH
 70
     0
  9
$DIMSE1
 70
     0
  9
$DIMSE2
 70
     0
  9
$DIMTAD
 70
     1
  9
$DIMZIN
 70
     8
  9
$DIMBLK
  1

  9
$DIMASO
 70
     1
  9
$DIMSHO
 70
     1
  9
$DIMPOST
  1

  9
$DIMAPOST
  1
"
  9
$DIMALT
 70
     0
  9
$DIMALTD
 70
     2
  9
$DIMALTF
 40
0.0393701
  9
$DIMLFAC
 40
1.0
  9
$DIMTOFL
 70
     1
  9
$DIMTVP
 40
0.0
  9
$DIMTIX
 70
     0
  9
$DIMSOXD
 70
     0
  9
$DIMSAH
 70
     0
  9
$DIMBLK1
  1

  9
$DIMBLK2
  1

  9
$DIMSTYLE
  2
SYS
  9
$DIMCLRD
 70
   256
  9
$DIMCLRE
 70
   256
  9
$DIMCLRT
 70
     7
  9
$DIMTFAC
 40
0.71
  9
$DIMGAP
 40
1.5
  9
$DIMJUST
 70
     0
  9
$DIMSD1
 70
     0
  9
$DIMSD2
 70
     0
  9
$DIMTOLJ
 70
     0
  9
$DIMTZIN
 70
     8
  9
$DIMALTZ
 70
     0
  9
$DIMALTTZ
 70
     0
  9
$DIMUPT
 70
     0
  9
$DIMDEC
 70
     1
  9
$DIMTDEC
 70
     3
  9
$DIMALTU
 70
     2
  9
$DIMALTTD
 70
     4
  9
$DIMTXSTY
  7
STANDARD
  9
$DIMAUNIT
 70
     0
  9
$DIMADEC
 70
     0
  9
$DIMALTRND
 40
0.0
  9
$DIMAZIN
 70
     2
  9
$DIMDSEP
 70
    46
  9
$DIMATFIT
 70
     3
  9
$DIMFRAC
 70
     0
  9
$DIMLDRBLK
  1

  9
$DIMLUNIT
 70
     2
  9
$DIMLWD
 70
    -1
  9
$DIMLWE
 70
    -1
  9
$DIMTMOVE
 70
     0
  9
$LUNITS
 70
     2
  9
$LUPREC
 70
     2
  9
$SKETCHINC
 40
1.0
  9
$FILLETRAD
 40
1.0
  9
$AUNITS
 70
     0
  9
$AUPREC
 70
     0
  9
$MENU
  1
.
  9
$ELEVATION
 40
0.0
  9
$PELEVATION
 40
0.0
  9
$THICKNESS
 40
0.0
  9
$LIMCHECK
 70
     0
  9
$CHAMFERA
 40
0.0
  9
$CHAMFERB
 40
0.0
  9
$CHAMFERC
 40
20.0
  9
$CHAMFERD
 40
0.0
  9
$SKPOLY
 70
     0
  9
$TDCREATE
 40
2452002.615067627
  9
$TDUCREATE
 40
2452002.240067627
  9
$TDUPDATE
 40
2456269.498519236
  9
$TDUUPDATE
 40
2456269.123519236
  9
$TDINDWG
 40
4.4414485648
  9
$TDUSRTIMER
 40
4.4414485648
  9
$USRTIMER
 70
     1
  9
$ANGBASE
 50
0.0
  9
$ANGDIR
 70
     0
  9
$PDMODE
 70
     0
  9
$PDSIZE
 40
0.0
  9
$PLINEWID
 40
0.0
  9
$SPLFRAME
 70
     0
  9
$SPLINETYPE
 70
     6
  9
$SPLINESEGS
 70
     8
  9
$HANDSEED
  5
11D91
  9
$SURFTAB1
 70
     6
  9
$SURFTAB2
 70
     6
  9
$SURFTYPE
 70
     6
  9
$SURFU
 70
     6
  9
$SURFV
 70
     6
  9
$UCSBASE
  2

  9
$UCSNAME
  2

  9
$UCSORG
 10
0.0
 20
0.0
 30
0.0
  9
$UCSXDIR
 10
1.0
 20
0.0
 30
0.0
  9
$UCSYDIR
 10
0.0
 20
1.0
 30
0.0
  9
$UCSORTHOREF
  2

  9
$UCSORTHOVIEW
 70
     0
  9
$UCSORGTOP
 10
0.0
 20
0.0
 30
0.0
  9
$UCSORGBOTTOM
 10
0.0
 20
0.0
 30
0.0
  9
$UCSORGLEFT
 10
0.0
 20
0.0
 30
0.0
  9
$UCSORGRIGHT
 10
0.0
 20
0.0
 30
0.0
  9
$UCSORGFRONT
 10
0.0
 20
0.0
 30
0.0
  9
$UCSORGBACK
 10
0.0
 20
0.0
 30
0.0
  9
$PUCSBASE
  2

  9
$PUCSNAME
  2

  9
$PUCSORG
 10
0.0
 20
0.0
 30
0.0
  9
$PUCSXDIR
 10
1.0
 20
0.0
 30
0.0
  9
$PUCSYDIR
 10
0.0
 20
1.0
 30
0.0
  9
$PUCSORTHOREF
  2

  9
$PUCSORTHOVIEW
 70
     0
  9
$PUCSORGTOP
 10
0.0
 20
0.0
 30
0.0
  9
$PUCSORGBOTTOM
 10
0.0
 20
0.0
 30
0.0
  9
$PUCSORGLEFT
 10
0.0
 20
0.0
 30
0.0
  9
$PUCSORGRIGHT
 10
0.0
 20
0.0
 30
0.0
  9
$PUCSORGFRONT
 10
0.0
 20
0.0
 30
0.0
  9
$PUCSORGBACK
 10
0.0
 20
0.0
 30
0.0
  9
$USERI1
 70
     0
  9
$USERI2
 70
     0
  9
$USERI3
 70
     0
  9
$USERI4
 70
     0
  9
$USERI5
 70
     0
  9
$USERR1
 40
0.0
  9
$USERR2
 40
0.0
  9
$USERR3
 40
0.0
  9
$USERR4
 40
0.0
  9
$USERR5
 40
0.0
  9
$WORLDVIEW
 70
     1
  9
$SHADEDGE
 70
     3
  9
$SHADEDIF
 70
    70
  9
$TILEMODE
 70
     1
  9
$MAXACTVP
 70
    64
  9
$PINSBASE
 10
0.0
 20
0.0
 30
0.0
  9
$PLIMCHECK
 70
     0
  9
$PEXTMIN
 10
1.000000000000000E+20
 20
1.000000000000000E+20
 30
1.000000000000000E+20
  9
$PEXTMAX
 10
-1.000000000000000E+20
 20
-1.000000000000000E+20
 30
-1.000000000000000E+20
  9
$PLIMMIN
 10
-3.17498779296875
 20
-3.174999952316284
  9
$PLIMMAX
 10
293.4970092773438
 20
206.692492723465
  9
$UNITMODE
 70
     0
  9
$VISRETAIN
 70
     1
  9
$PLINEGEN
 70
     0
  9
$PSLTSCALE
 70
     1
  9
$TREEDEPTH
 70
  3020
  9
$CMLSTYLE
  2
Standard
  9
$CMLJUST
 70
     0
  9
$CMLSCALE
 40
20.0
  9
$PROXYGRAPHICS
 70
     1
  9
$MEASUREMENT
 70
     1
  9
$CELWEIGHT
370
    -1
  9
$ENDCAPS
280
     0
  9
$JOINSTYLE
280
     0
  9
$LWDISPLAY
290
     1
  9
$INSUNITS
 70
     4
  9
$HYPERLINKBASE
  1

  9
$STYLESHEET
  1
monochrome.ctb
  9
$XEDIT
290
     1
  9
$CEPSNTYPE
380
     0
  9
$PSTYLEMODE
290
     1
  9
$FINGERPRINTGUID
  2
{83FB3AA1-FF18-4BFE-AFE0-611B71DE056D}
  9
$VERSIONGUID
  2
{AD218F50-F015-49E7-A479-D37D59FB0AA1}
  9
$EXTNAMES
290
     1
  9
$PSVPSCALE
 40
0.0
  9
$OLESTARTUP
290
     0
  0
ENDSEC
  0
SECTION
  2
CLASSES
  0
CLASS
  1
ACDBDICTIONARYWDFLT
  2
AcDbDictionaryWithDefault
  3
ObjectDBX Classes
 90
        0
280
     0
281
     0
  0
CLASS
  1
ACDBPLACEHOLDER
  2
AcDbPlaceHolder
  3
ObjectDBX Classes
 90
        0
280
     0
281
     0
  0
CLASS
  1
LAYOUT
  2
AcDbLayout
  3
ObjectDBX Classes
 90
        0
280
     0
281
     0
  0
CLASS
  1
AMGSETTINGSOBJ
  2
AmgSettingsObj
  3
"AcadM|Product Description: AutoCAD Mechanical|Company: Autodesk"
 90
        0
280
     0
281
     0
  0
CLASS
  1
ACME_DOCUMENT
  2
AcMeDbDoc
  3
AcMeServices
 90
        0
280
     0
281
     0
  0
CLASS
  1
ACMESCOPE
  2
AcMeScope
  3
AcMeServices
 90
        0
280
     0
281
     0
  0
CLASS
  1
ACMECOMMANDHISTORY
  2
AcMeCommandHistory
  3
AcMeServices
 90
        0
280
     0
281
     0
  0
CLASS
  1
DICTIONARYVAR
  2
AcDbDictionaryVar
  3
ObjectDBX Classes
 90
        0
280
     0
281
     0
  0
CLASS
  1
ACIMSYSVARMAN
  2
AcImSysVarManager
  3
AcMeServices
 90
        0
280
     0
281
     0
  0
CLASS
  1
ACIMREALSYSVAR
  2
AcImRealSysVar
  3
AcMeServices
 90
        0
280
     0
281
     0
  0
CLASS
  1
ACIMINTSYSVAR
  2
AcImIntSysVar
  3
AcMeServices
 90
        0
280
     0
281
     0
  0
CLASS
  1
ACMEDRAWINGMAN
  2
AcMeDrawingMan
  3
AcMeServices
 90
        0
280
     0
281
     0
  0
CLASS
  1
ACMEVIEW
  2
AcMeView
  3
AcMeServices
 90
        0
280
     0
281
     0
  0
CLASS
  1
ACDBENTITYCACHE
  2
AcMeEntityCache
  3
AcMeServices
 90
        0
280
     0
281
     0
  0
CLASS
  1
GSMANAGER
  2
AcMeGSManager
  3
AcMeServices
 90
        0
280
     0
281
     0
  0
CLASS
  1
AMDTINTERNALREACTOR
  2
AmdtInternalReactor
  3
AcMeServices
 90
        0
280
     0
281
     0
  0
CLASS
  1
ACMESTATEMGR
  2
AcMeStateMgr
  3
AcMeServices
 90
        0
280
     0
281
     0
  0
CLASS
  1
ACGREFMASTER
  2
AcGrefMaster
  3
AcAttribServices
 90
        0
280
     0
281
     0
  0
CLASS
  1
ACME_DATABASE
  2
AcMeDbDatabase
  3
AcMeServices
 90
        0
280
     0
281
     0
  0
CLASS
  1
ACRFINSADJUSTERMGR
  2
AcRfInsAdjusterMgr
  3
AcMeServices
 90
        0
280
     0
281
     0
  0
CLASS
  1
ACGREFACADMASTER
  2
AcGrefacadMaster
  3
AcGrefServices
 90
        0
280
     0
281
     0
  0
CLASS
  1
AMIMASTER
  2
AmiMaster
  3
AmiServices
 90
        0
280
     0
281
     0
  0
CLASS
  1
ACMDATADICTIONARY
  2
AcmDataDictionary
  3
"AcmSymBB|Product Description: AutoCAD Mechanical|Company: Autodesk"
 90
        0
280
     0
281
     0
  0
CLASS
  1
ACMDATAENTRYBLOCK
  2
AcmDataEntryBlock
  3
"AcmSymBB|Product Description: AutoCAD Mechanical|Company: Autodesk"
 90
        0
280
     0
281
     0
  0
CLASS
  1
ACIMSTRSYSVAR
  2
AcImStrSysVar
  3
AcMeServices
 90
        0
280
     0
281
     0
  0
CLASS
  1
ACMSTANDARDISO
  2
AcmStandardISO
  3
"Amdt_StdImp|Product Description: AutoCAD Mechanical|Company: Autodesk"
 90
        0
280
     0
281
     0
  0
CLASS
  1
AMGOBJPROPCFG
  2
AmgObjPropCfg
  3
"AmgLay|Product Description: AutoCAD Mechanical|Company: Autodesk"
 90
        1
280
     0
281
     0
  0
CLASS
  1
AMDTEDGESTANDARDISO
  2
AmdtEdgeStdISO
  3
"Amdt_StdImp|Product Description: AutoCAD Mechanical|Company: Autodesk"
 90
        0
280
     0
281
     0
  0
CLASS
  1
ACMSURFSTANDARDISO
  2
AcmSurfTextStdISO
  3
"Amdt_StdImp|Product Description: AutoCAD Mechanical|Company: Autodesk"
 90
        0
280
     0
281
     0
  0
CLASS
  1
ACMFCFSTANDARDISO
  2
AcmFCFStdISO
  3
"Amdt_StdImp|Product Description: AutoCAD Mechanical|Company: Autodesk"
 90
        0
280
     0
281
     0
  0
CLASS
  1
ACMWELDSTANDARDISO
  2
AcmWeldingStdISO
  3
"Amdt_StdImp|Product Description: AutoCAD Mechanical|Company: Autodesk"
 90
        0
280
     0
281
     0
  0
CLASS
  1
ACMIDSTANDARDISO
  2
AcmIdStdISO
  3
"Amdt_StdImp|Product Description: AutoCAD Mechanical|Company: Autodesk"
 90
        0
280
     0
281
     0
  0
CLASS
  1
ACMDATUMSTANDARDISO
  2
AcmDatumStdISO
  3
"Amdt_StdImp|Product Description: AutoCAD Mechanical|Company: Autodesk"
 90
        0
280
     0
281
     0
  0
CLASS
  1
ACMBOMSTANDARDISO
  2
AcmBOMStdISO
  3
"Amdt_StdImp|Product Description: AutoCAD Mechanical|Company: Autodesk"
 90
        0
280
     0
281
     0
  0
CLASS
  1
ACMDETAILSTANDARDISO
  2
AmdtDetailSymStdISO
  3
"Amdt_StdImp|Product Description: AutoCAD Mechanical|Company: Autodesk"
 90
        0
280
     0
281
     0
  0
CLASS
  1
ACMSECTIONSTANDARDISO
  2
AmdtSectionSymStdISO
  3
"Amdt_StdImp|Product Description: AutoCAD Mechanical|Company: Autodesk"
 90
        0
280
     0
281
     0
  0
CLASS
  1
ACMCENTERLINESTANDARDISO
  2
AmdtCenterLineStdISO
  3
"Amdt_StdImp|Product Description: AutoCAD Mechanical|Company: Autodesk"
 90
        0
280
     0
281
     0
  0
CLASS
  1
ACAMGLAYSTD
  2
AcAmgLayStd
  3
"AmgLay|Product Description: AutoCAD Mechanical|Company: Autodesk"
 90
        0
280
     0
281
     0
  0
CLASS
  1
ACAMGDIMSTD
  2
AcAmgDimStd
  3
"AmgDim|Product Description: AutoCAD Mechanical|Company: Autodesk"
 90
        0
280
     0
281
     0
  0
CLASS
  1
ACAMGTITLESTD
  2
AcAmgTitleStd
  3
"AmgTitle|Product Description: AutoCAD Mechanical|Company: Autodesk"
 90
        0
280
     0
281
     0
  0
CLASS
  1
ACAMGFILTERDAT
  2
AcAmgFilterDat
  3
"AcadM|Product Description: AutoCAD Mechanical|Company: Autodesk"
 90
        0
280
     0
281
     0
  0
CLASS
  1
LAYER_INDEX
  2
AcDbLayerIndex
  3
ObjectDBX Classes
 90
    32768
280
     0
281
     0
  0
CLASS
  1
IDBUFFER
  2
AcDbIdBuffer
  3
ObjectDBX Classes
 90
    32768
280
     0
281
     0
  0
CLASS
  1
PLOTSETTINGS
  2
AcDbPlotSettings
  3
ObjectDBX Classes
 90
        0
280
     0
281
     0
  0
CLASS
  1
AMDTFORMULAUPDATEDISPATCHER
  2
AmdtFormulaUpdateDispatcher
  3
AcMeServices
 90
        0
280
     0
281
     0
  0
CLASS
  1
ACMSTANDARDANSI
  2
AcmStandardANSI
  3
"Amdt_StdImp|Product Description: AutoCAD Mechanical|Company: Autodesk"
 90
        0
280
     0
281
     0
  0
CLASS
  1
ACMSURFSTANDARDANSI
  2
AcmSurfTextStdANSI
  3
"Amdt_StdImp|Product Description: AutoCAD Mechanical|Company: Autodesk"
 90
        0
280
     0
281
     0
  0
CLASS
  1
ACMFCFSTANDARDANSI
  2
AcmFCFStdANSI
  3
"Amdt_StdImp|Product Description: AutoCAD Mechanical|Company: Autodesk"
 90
        0
280
     0
281
     0
  0
CLASS
  1
ACMWELDSTANDARDANSI
  2
AcmWeldingStdANSI
  3
"Amdt_StdImp|Product Description: AutoCAD Mechanical|Company: Autodesk"
 90
        0
280
     0
281
     0
  0
CLASS
  1
ACMIDSTANDARDANSI
  2
AcmIdStdANSI
  3
"Amdt_StdImp|Product Description: AutoCAD Mechanical|Company: Autodesk"
 90
        0
280
     0
281
     0
  0
CLASS
  1
ACMDATUMSTANDARDANSI
  2
AcmDatumStdANSI
  3
"Amdt_StdImp|Product Description: AutoCAD Mechanical|Company: Autodesk"
 90
        0
280
     0
281
     0
  0
CLASS
  1
ACMBOMSTANDARDANSI
  2
AcmBOMStdANSI
  3
"Amdt_StdImp|Product Description: AutoCAD Mechanical|Company: Autodesk"
 90
        0
280
     0
281
     0
  0
CLASS
  1
ACMDETAILSTANDARDANSI
  2
AmdtDetailSymStdANSI
  3
"Amdt_StdImp|Product Description: AutoCAD Mechanical|Company: Autodesk"
 90
        0
280
     0
281
     0
  0
CLASS
  1
ACMSECTIONSTANDARDANSI
  2
AmdtSectionSymStdANSI
  3
"Amdt_StdImp|Product Description: AutoCAD Mechanical|Company: Autodesk"
 90
        0
280
     0
281
     0
  0
CLASS
  1
ACMCENTERLINESTANDARDANSI
  2
AmdtCenterLineStdANSI
  3
"Amdt_StdImp|Product Description: AutoCAD Mechanical|Company: Autodesk"
 90
        0
280
     0
281
     0
  0
CLASS
  1
ACMBOM
  2
AcmBom
  3
"AcmSymBB|Product Description: AutoCAD Mechanical|Company: Autodesk"
 90
        0
280
     0
281
     0
  0
CLASS
  1
ACMDATAENTRYPART
  2
AcmDataEntryPart
  3
"AcmSymBB|Product Description: AutoCAD Mechanical|Company: Autodesk"
 90
    32768
280
     0
281
     0
  0
CLASS
  1
ACMPARTREF
  2
AcmPartRef
  3
"AcmSymBB|Product Description: AutoCAD Mechanical|Company: Autodesk"
 90
    35839
280
     0
281
     1
  0
CLASS
  1
ACDBCIRCARCRES
  2
AcDbCircArcRes
  3
AcGrefServices
 90
    32768
280
     0
281
     0
  0
CLASS
  1
ACMBOMROW
  2
AcmBomRow
  3
"AcmSymBB|Product Description: AutoCAD Mechanical|Company: Autodesk"
 90
    32768
280
     0
281
     0
  0
CLASS
  1
ACMBALLOON
  2
AcmBalloon
  3
"AcmSymBB|Product Description: AutoCAD Mechanical|Company: Autodesk"
 90
    35839
280
     0
281
     1
  0
CLASS
  1
AMDTNOTE
  2
AmdtNote
  3
"AcmSymBB|Product Description: AutoCAD Mechanical|Company: Autodesk"
 90
    35839
280
     0
281
     1
  0
CLASS
  1
STDPART2D
  2
AmgStdPart
  3
"g3vace|Class: AmgStdPart|Product Description: AutoCAD Mechanical|Company: Autodesk"
 90
    35839
280
     0
281
     1
  0
CLASS
  1
ACDBSTDPARTRES_LINE
  2
AcDbStdPartRes_Line
  3
"g3vace|Class: AcDbStdPartRes_Line|Product Description: AutoCAD Mechanical|Company: Autodesk"
 90
    32768
280
     0
281
     0
  0
CLASS
  1
ACMDATAENTRY
  2
AcmDataEntry
  3
"AcmSymBB|Product Description: AutoCAD Mechanical|Company: Autodesk"
 90
        0
280
     0
281
     0
  0
CLASS
  1
ACDBOPPOLYLINERES
  2
AcDbOpPolylineRes
  3
AcGrefServices
 90
    32768
280
     0
281
     0
  0
CLASS
  1
ACMPARTLIST
  2
AcmPartList
  3
"AcmSymBB|Product Description: AutoCAD Mechanical|Company: Autodesk"
 90
    35839
280
     0
281
     1
  0
CLASS
  1
ACDBLINERES
  2
AcDbLineRes
  3
AcGrefServices
 90
    32768
280
     0
281
     0
  0
CLASS
  1
ACRFINSADJ
  2
AcRfInsAdjuster
  3
AcMeServices
 90
    32768
280
     0
281
     0
  0
CLASS
  1
AM_DRAWING_MGR
  2
AcDmDwgMgr
  3
AcMechDwgViewMgmt
 90
        0
280
     0
281
     0
  0
CLASS
  1
AM_DWG_DOCUMENT
  2
AcDmDwgDocument
  3
AcMechDwgViewMgmt
 90
        0
280
     0
281
     0
  0
CLASS
  1
AM_DWG_SHEET
  2
AcDmSheet
  3
AcMechDwgViewMgmt
 90
        0
280
     0
281
     0
  0
CLASS
  1
AM_VIEWDIMPARMAP
  2
AcDmViewDimParMap
  3
AcMechDwgViewMgmt
 90
        0
280
     0
281
     0
  0
CLASS
  1
AM_DWGMGR_NAME
  2
AcDmDwgMgrName
  3
AcMechDwgViewMgmt
 90
        0
280
     0
281
     0
  0
CLASS
  1
AMDTMENUSTATEMGR
  2
AmdtMenuStateMgr
  3
McadcomServices
 90
        0
280
     0
281
     0
  0
CLASS
  1
AMDTMCOMMENUSTATE
  2
AmdtMcomMenuState
  3
McadcomServices
 90
        0
280
     0
281
     0
  0
CLASS
  1
ASAPP
  2
AcAsAppObject
  3
AutoSurfServices
 90
        0
280
     0
281
     0
  0
CLASS
  1
IM_STATIC_MAN
  2
AcImStaticVarManager
  3
AcMeServices
 90
        0
280
     0
281
     0
  0
CLASS
  1
ACIMDBLSTATICVAR
  2
AcImDblStaticVar
  3
AcMeServices
 90
        0
280
     0
281
     0
  0
CLASS
  1
ACIMSTRSTATICVAR
  2
AcImStrStaticVar
  3
AcMeServices
 90
        0
280
     0
281
     0
  0
CLASS
  1
ACIMINTSTATICVAR
  2
AcImIntStaticVar
  3
AcMeServices
 90
        0
280
     0
281
     0
  0
CLASS
  1
ACASGREFMASTER
  2
AcAsGrefMaster
  3
AutoSurfResolverServices
 90
        0
280
     0
281
     0
  0
CLASS
  1
ACADGREFMODULE
  2
AcAdGrefModule
  3
AdGrefServices
 90
        0
280
     0
281
     0
  0
CLASS
  1
AMDTMAPISURFMOUDULE
  2
AmdtMApiSurfModule
  3
MApiSurfServices
 90
        0
280
     0
281
     0
  0
CLASS
  1
MAPIAMMOUDLE
  2
MApiAmModule
  3
MApiAmServices
 90
        0
280
     0
281
     0
  0
CLASS
  1
AMDTADMENUSTATE
  2
AmdtAdMenuState
  3
DesignerServices
 90
        0
280
     0
281
     0
  0
CLASS
  1
ADAPPL
  2
AcAdAppl
  3
DesignerServices
 90
        0
280
     0
281
     0
  0
CLASS
  1
DEPMGR
  2
AcAdDepMgr
  3
DesignerServices
 90
        0
280
     0
281
     0
  0
CLASS
  1
PARAMMGR
  2
AcAdParamMgr
  3
DesignerServices
 90
        0
280
     0
281
     0
  0
CLASS
  1
PARAMSCOPE
  2
AcAdParamScope
  3
DesignerServices
 90
        0
280
     0
281
     0
  0
CLASS
  1
NAMEDAPPL
  2
AcAdNamedAppl
  3
DesignerServices
 90
        0
280
     0
281
     0
  0
CLASS
  1
ADHNTMPLT
  2
AdHoleNoteTemplateMgr
  3
DesignerServices
 90
    32768
280
     0
281
     0
  0
CLASS
  1
AM_HNTEMPLATE_MGR_NAME
  2
AdHoleNoteTemplateMgrName
  3
DesignerServices
 90
    32768
280
     0
281
     0
  0
CLASS
  1
AMDTDMMENUSTATE
  2
AmdtDmMenuState
  3
AcMechDwgViewMgmt
 90
        0
280
     0
281
     0
  0
CLASS
  1
MAPIADMODULE
  2
MApiAdModule
  3
MApiAdServices
 90
        0
280
     0
281
     0
  0
CLASS
  1
AMDTAMMENUSTATE
  2
AmdtAmMenuState
  3
DesignerAssemblies
 90
        0
280
     0
281
     0
  0
CLASS
  1
ACAMPROJECT
  2
AcAmProject
  3
DesignerAssemblies
 90
        0
280
     0
281
     0
  0
CLASS
  1
ACAMGRCOMPDEF
  2
AcAmGrCompDef
  3
DesignerAssemblies
 90
        0
280
     0
281
     0
  0
CLASS
  1
ACCMCONTEXT
  2
AcCmContext
  3
DesignerAssemblies
 90
        0
280
     0
281
     0
  0
CLASS
  1
ACAMCOMPDEF
  2
AcAmCompDef
  3
DesignerAssemblies
 90
        0
280
     0
281
     0
  0
CLASS
  1
ACAMCOMPDEFMGR
  2
AcAmCompDefMgr
  3
DesignerAssemblies
 90
        0
280
     0
281
     0
  0
CLASS
  1
AMCONTEXTMGR
  2
AcAmContextMgr
  3
DesignerAssemblies
 90
        0
280
     0
281
     0
  0
CLASS
  1
ACAMCONTEXTMODELER
  2
AcAmContextModeler
  3
DesignerAssemblies
 90
        0
280
     0
281
     0
  0
CLASS
  1
CATALOGSTATE
  2
AcAmCatalogState
  3
DesignerAssemblies
 90
        0
280
     0
281
     0
  0
CLASS
  1
ACAMGRCOMPDEFSET
  2
AcAmGrCompDefSet
  3
DesignerAssemblies
 90
        0
280
     0
281
     0
  0
CLASS
  1
AMDTBROWSERDBTAB
  2
AmdtBrowserDbTab
  3
McadcomServices
 90
        0
280
     0
281
     0
  0
CLASS
  1
CBROWSERAPPOBJECT
  2
CBrowserAppObject
  3
McadcomServices
 90
        0
280
     0
281
     0
  0
CLASS
  1
DM_PLACEHOLDER
  2
AcDmSelsetPlaceholder
  3
AcMechDwgViewMgmt
 90
        0
280
     0
281
     0
  0
CLASS
  1
ACMPICKOBJ
  2
AcmPickEnt
  3
"AcmSymBB|Product Description: AutoCAD Mechanical|Company: Autodesk"
 90
    32768
280
     0
281
     1
  0
CLASS
  1
MATERIAL
  2
AcDbMaterial
  3
ObjectDBX Classes
 90
     1024
280
     0
281
     0
  0
CLASS
  1
VISUALSTYLE
  2
AcDbVisualStyle
  3
ObjectDBX Classes
 90
     4095
280
     0
281
     0
  0
CLASS
  1
TABLESTYLE
  2
AcDbTableStyle
  3
ObjectDBX Classes
 90
     4095
280
     0
281
     0
  0
CLASS
  1
ACRFATTGENMGR
  2
AcRfAttGeneralMgr
  3
AcAttribServices
 90
        0
280
     0
281
     0
  0
CLASS
  1
ACRFOBJATTMGR
  2
AcRfObjAttGroupMgr
  3
AcAttribServices
 90
        0
280
     0
281
     0
  0
CLASS
  1
ACRFMCADAPIATTHOLDER
  2
AcRfMCADAPIAttHolder
  3
AcAttribServices
 90
        0
280
     0
281
     0
  0
CLASS
  1
AMDTSYSATTR
  2
AmdtSystemAttribute
  3
AcAttribServices
 90
        0
280
     0
281
     0
  0
CLASS
  1
ACMTHREADLINESTANDARDISO
  2
AmdtThreadLineStdISO
  3
"Amdt_StdImp|Product Description: AutoCAD Mechanical|Company: Autodesk"
 90
        0
280
     0
281
     0
  0
CLASS
  1
ACMNOTESTANDARDISO
  2
AmdtNoteStdISO
  3
"Amdt_StdImp|Product Description: AutoCAD Mechanical|Company: Autodesk"
 90
        0
280
     0
281
     0
  0
CLASS
  1
AMDTNOTETEMPLATEDB
  2
AmdtNoteTemplateDB
  3
AMDT_STDIMP_MODULE_NAME
 90
        0
280
     0
281
     0
  0
CLASS
  1
ACMTAPERSTANDARDISO
  2
AcmTaperStdISO
  3
"Amdt_StdImp|Product Description: AutoCAD Mechanical|Company: Autodesk"
 90
        0
280
     0
281
     0
  0
CLASS
  1
ACMTHREADLINESTANDARDANSI
  2
AmdtThreadLineStdANSI
  3
"Amdt_StdImp|Product Description: AutoCAD Mechanical|Company: Autodesk"
 90
        0
280
     0
281
     0
  0
CLASS
  1
ACMNOTESTANDARDANSI
  2
AmdtNoteStdANSI
  3
"Amdt_StdImp|Product Description: AutoCAD Mechanical|Company: Autodesk"
 90
        0
280
     0
281
     0
  0
CLASS
  1
ACMTAPERSTANDARDANSI
  2
AcmTaperStdANSI
  3
"Amdt_StdImp|Product Description: AutoCAD Mechanical|Company: Autodesk"
 90
        0
280
     0
281
     0
  0
CLASS
  1
CAMSSTRUCTBTNSTATE
  2
StructBtnState
  3
L"DesignerAssemblies"
 90
        0
280
     0
281
     0
  0
CLASS
  1
SORTENTSTABLE
  2
AcDbSortentsTable
  3
ObjectDBX Classes
 90
        0
280
     0
281
     0
  0
CLASS
  1
DIMASSOC
  2
AcDbDimAssoc
  3
"AcDbDimAssoc|Product Desc:     AcDim ARX App For Dimension|Company:          Autodesk, Inc.|WEB Address:      www.autodesk.com"
 90
        0
280
     0
281
     0
  0
ENDSEC
  0
SECTION
  2
TABLES
  0
TABLE
  2
VPORT
  5
8
330
0
100
AcDbSymbolTable
 70
     1
  0
VPORT
  5
C444
330
8
100
AcDbSymbolTableRecord
100
AcDbViewportTableRecord
  2
*Active
 70
     0
 10
0.0
 20
0.0
 11
1.0
 21
1.0
 12
921.4427982792658
 22
572.7002675920592
 13
0.0
 23
0.0
 14
2.5
 24
2.5
 15
10.0
 25
10.0
 16
0.0
 26
0.0
 36
1.0
 17
0.0
 27
0.0
 37
0.0
 40
1324.295368225312
 41
1.599762470308788
 42
50.0
 43
-1370.695619172058
 44
-1370.695619172058
 50
0.0
 51
0.0
 71
    16
 72
   100
 73
     1
 74
     3
 75
     0
 76
     0
 77
     0
 78
     0
281
     0
 65
     0
110
0.0
120
0.0
130
0.0
111
1.0
121
0.0
131
0.0
112
0.0
122
1.0
132
0.0
 79
     0
146
0.0
  0
ENDTAB
  0
TABLE
  2
LTYPE
  5
5
330
0
100
AcDbSymbolTable
 70
    22
  0
LTYPE
  5
14
330
5
100
AcDbSymbolTableRecord
100
AcDbLinetypeTableRecord
  2
ByBlock
 70
     0
  3

 72
    65
 73
     0
 40
0.0
  0
LTYPE
  5
15
330
5
100
AcDbSymbolTableRecord
100
AcDbLinetypeTableRecord
  2
ByLayer
 70
     0
  3

 72
    65
 73
     0
 40
0.0
  0
LTYPE
  5
16
330
5
100
AcDbSymbolTableRecord
100
AcDbLinetypeTableRecord
  2
Continuous
 70
     0
  3
Solid line
 72
    65
 73
     0
 40
0.0
  0
LTYPE
  5
4F
330
5
100
AcDbSymbolTableRecord
100
AcDbLinetypeTableRecord
  2
AM_ISO02W050
 70
     0
  3
__ __ __ __ __ __ __ __ __ __ __ __ __ __ __
 72
    65
 73
     2
 40
7.5
 49
6.0
 74
     0
 49
-1.5
 74
     0
  0
LTYPE
  5
52
330
5
100
AcDbSymbolTableRecord
100
AcDbLinetypeTableRecord
  2
Amconstr
 70
     0
  3
_______________________
 72
    65
 73
     2
 40
9999.0
 49
9999.0
 74
     0
 49
0.0
 74
     0
  0
LTYPE
  5
64
330
5
100
AcDbSymbolTableRecord
100
AcDbLinetypeTableRecord
  2
ACISOWELD
 70
     0
  3
_ _ _ _ _
 72
    65
 73
     2
 40
2.0
 49
2.0
 74
     0
 49
-1.0
 74
     0
  0
LTYPE
  5
65
330
5
100
AcDbSymbolTableRecord
100
AcDbLinetypeTableRecord
  2
ACISOTGB
 70
     0
  3
__ . . __ . .
 72
    65
 73
     6
 40
9.0
 49
4.0
 74
     0
 49
-1.0
 74
     0
 49
1.0
 74
     0
 49
-1.0
 74
     0
 49
1.0
 74
     0
 49
-1.0
 74
     0
  0
LTYPE
  5
66
330
5
100
AcDbSymbolTableRecord
100
AcDbLinetypeTableRecord
  2
ACISOTGL
 70
     0
  3
_ _ _ _ _
 72
    65
 73
     2
 40
3.0
 49
2.0
 74
     0
 49
-1.0
 74
     0
  0
LTYPE
  5
69
330
5
100
AcDbSymbolTableRecord
100
AcDbLinetypeTableRecord
  2
CENTER
 70
     0
  3
__ . __
 72
    65
 73
     4
 40
7.0
 49
4.0
 74
     0
 49
-1.0
 74
     0
 49
1.0
 74
     0
 49
-1.0
 74
     0
  0
LTYPE
  5
A6E
330
5
100
AcDbSymbolTableRecord
100
AcDbLinetypeTableRecord
  2
PHANTOM2
 70
     0
  3
Phantom (.5x) ___ _ _ ___ _ _ ___ _ _ ___ _ _
 72
    65
 73
     6
 40
31.75
 49
15.875
 74
     0
 49
-3.174999999999999
 74
     0
 49
3.174999999999999
 74
     0
 49
-3.174999999999999
 74
     0
 49
3.174999999999999
 74
     0
 49
-3.174999999999999
 74
     0
  0
LTYPE
  5
FA3
330
5
100
AcDbSymbolTableRecord
100
AcDbLinetypeTableRecord
  2
ACANSTGB
 70
     0
  3
__ . . __ . .
 72
    65
 73
     6
 40
0.35433070866
 49
0.15748031496
 74
     0
 49
-0.03937007874
 74
     0
 49
0.03937007874
 74
     0
 49
-0.03937007874
 74
     0
 49
0.03937007874
 74
     0
 49
-0.03937007874
 74
     0
  0
LTYPE
  5
FA4
330
5
100
AcDbSymbolTableRecord
100
AcDbLinetypeTableRecord
  2
ACANSTGL
 70
     0
  3
_ _ _ _ _
 72
    65
 73
     2
 40
0.11811023622
 49
0.07874015748
 74
     0
 49
-0.03937007874
 74
     0
  0
LTYPE
  5
4DED
330
5
100
AcDbSymbolTableRecord
100
AcDbLinetypeTableRecord
  2
中線
 70
     0
  3
___________________
 72
    65
 73
     2
 40
2.0
 49
1.0
 74
     0
 49
1.0
 74
     0
  0
LTYPE
  5
4DF6
330
5
100
AcDbSymbolTableRecord
100
AcDbLinetypeTableRecord
  2
細線
 70
     0
  3
___________________
 72
    65
 73
     2
 40
2.0
 49
1.0
 74
     0
 49
1.0
 74
     0
  0
LTYPE
  5
4DF7
330
5
100
AcDbSymbolTableRecord
100
AcDbLinetypeTableRecord
  2
太線
 70
     0
  3
___________________
 72
    65
 73
     2
 40
2.0
 49
1.0
 74
     0
 49
1.0
 74
     0
  0
LTYPE
  5
4EA7
330
5
100
AcDbSymbolTableRecord
100
AcDbLinetypeTableRecord
  2
文字
 70
     0
  3
_________________
 72
    65
 73
     2
 40
2.0
 49
1.0
 74
     0
 49
1.0
 74
     0
  0
LTYPE
  5
4EA9
330
5
100
AcDbSymbolTableRecord
100
AcDbLinetypeTableRecord
  2
寸法線
 70
     0
  3
________________
 72
    65
 73
     2
 40
2.0
 49
1.0
 74
     0
 49
1.0
 74
     0
  0
LTYPE
  5
4F12
330
5
100
AcDbSymbolTableRecord
100
AcDbLinetypeTableRecord
  2
ハッチング
 70
     0
  3
_________________
 72
    65
 73
     2
 40
2.0
 49
1.0
 74
     0
 49
1.0
 74
     0
  0
LTYPE
  5
5180
330
5
100
AcDbSymbolTableRecord
100
AcDbLinetypeTableRecord
  2
陰線1
 70
     0
  3
__ __ __ __
 72
    65
 73
     2
 40
4.0
 49
2.2
 74
     0
 49
-1.8
 74
     0
  0
LTYPE
  5
5182
330
5
100
AcDbSymbolTableRecord
100
AcDbLinetypeTableRecord
  2
切断線
 70
     0
  3
/\/-/\/-/\/-/\/-/\/-/\/
 72
    65
 73
     2
 40
11.0001
 49
0.0001
 74
     4
 75
   135
340
56
 46
0.04
 50
0.0
 44
0.0
 45
0.0
 49
-11.0
 74
     0
  0
LTYPE
  5
5183
330
5
100
AcDbSymbolTableRecord
100
AcDbLinetypeTableRecord
  2
想像線1
 70
     0
  3
__ __ __ _____ __ __ ____
 72
    65
 73
     6
 40
14.5
 49
6.0
 74
     0
 49
-1.5
 74
     0
 49
2.0
 74
     0
 49
-1.5
 74
     0
 49
2.0
 74
     0
 49
-1.5
 74
     0
  0
LTYPE
  5
5185
330
5
100
AcDbSymbolTableRecord
100
AcDbLinetypeTableRecord
  2
中心線1
 70
     0
  3
___ _ ___ _ ___
 72
    65
 73
     4
 40
18.0
 49
12.0
 74
     0
 49
-2.0
 74
     0
 49
2.0
 74
     0
 49
-2.0
 74
     0
  0
LTYPE
  5
5188
330
5
100
AcDbSymbolTableRecord
100
AcDbLinetypeTableRecord
  2
補助線
 70
     0
  3
______________
 72
    65
 73
     2
 40
2.0
 49
1.0
 74
     0
 49
1.0
 74
     0
  0
LTYPE
  5
C49C
330
5
100
AcDbSymbolTableRecord
100
AcDbLinetypeTableRecord
  2
HIDDEN
 70
     0
  3
Hidden __ __ __ __ __ __ __ __ __ __ __ __ __ _
 72
    65
 73
     2
 40
9.524999999999998
 49
6.349999999999999
 74
     0
 49
-3.174999999999999
 74
     0
  0
ENDTAB
  0
TABLE
  2
LAYER
  5
2
102
{ACAD_XDICTIONARY
360
3F95
102
}
330
0
100
AcDbSymbolTable
 70
    12
  0
LAYER
  5
10
330
2
100
AcDbSymbolTableRecord
100
AcDbLayerTableRecord
  2
0
 70
     0
 62
     7
  6
Continuous
370
    -3
390
F
  0
LAYER
  5
6D1
330
2
100
AcDbSymbolTableRecord
100
AcDbLayerTableRecord
  2
Defpoints
 70
     0
 62
     7
  6
Continuous
290
     0
370
    -3
390
F
  0
LAYER
  5
A46
330
2
100
AcDbSymbolTableRecord
100
AcDbLayerTableRecord
  2
size
 70
     0
 62
     5
  6
Continuous
290
     0
370
    30
390
F
  0
LAYER
  5
A47
330
2
100
AcDbSymbolTableRecord
100
AcDbLayerTableRecord
  2
waku
 70
     0
 62
     7
  6
Continuous
370
    40
390
F
  0
LAYER
  5
A48
330
2
100
AcDbSymbolTableRecord
100
AcDbLayerTableRecord
  2
AM_6
 70
     0
 62
     2
  6
文字
370
    20
390
F
  0
LAYER
  5
5F85
330
2
100
AcDbSymbolTableRecord
100
AcDbLayerTableRecord
  2
AM_0
 70
     0
 62
     7
  6
中線
370
    30
390
F
  0
LAYER
  5
5F89
330
2
100
AcDbSymbolTableRecord
100
AcDbLayerTableRecord
  2
AM_4
 70
     0
 62
     3
  6
補助線
370
    20
390
F
  0
LAYER
  5
5F8C
330
2
100
AcDbSymbolTableRecord
100
AcDbLayerTableRecord
  2
AM_8
 70
     0
 62
     1
  6
ハッチング
370
    18
390
F
  0
LAYER
  5
BFAA
330
2
100
AcDbSymbolTableRecord
100
AcDbLayerTableRecord
  2
AM_2
 70
     0
 62
     1
  6
細線
370
    20
390
F
  0
LAYER
  5
BFAB
330
2
100
AcDbSymbolTableRecord
100
AcDbLayerTableRecord
  2
AM_5
 70
     0
 62
     3
  6
寸法線
370
    18
390
F
  0
LAYER
  5
BFAC
330
2
100
AcDbSymbolTableRecord
100
AcDbLayerTableRecord
  2
AM_7
 70
     0
 62
     4
  6
中心線1
370
    15
390
F
  0
LAYER
  5
C7E9
330
2
100
AcDbSymbolTableRecord
100
AcDbLayerTableRecord
  2
AM_11
 70
     0
 62
     2
  6
想像線1
370
    20
390
F
  0
ENDTAB
  0
TABLE
  2
STYLE
  5
3
330
0
100
AcDbSymbolTable
 70
     7
  0
STYLE
  5
11
330
3
100
AcDbSymbolTableRecord
100
AcDbTextStyleTableRecord
  2
STANDARD
 70
     0
 40
0.0
 41
0.7
 50
0.0
 71
     0
 42
3.2
  3
romans.shx
  4
extfont.shx
  0
STYLE
  5
56
330
3
100
AcDbSymbolTableRecord
100
AcDbTextStyleTableRecord
  2

 70
     1
 40
0.0
 41
1.0
 50
0.0
 71
     0
 42
2.5
  3
ltypeshp.shx
  4

  0
STYLE
  5
58
330
3
100
AcDbSymbolTableRecord
100
AcDbTextStyleTableRecord
  2
ACISOTS
 70
     0
 40
1.0
 41
1.0
 50
0.0
 71
     0
 42
2.5
  3
isocp.shx
  4
extfont.shx
  0
STYLE
  5
63
330
3
100
AcDbSymbolTableRecord
100
AcDbTextStyleTableRecord
  2
ACISOGDT
 70
     0
 40
0.0
 41
1.0
 50
0.0
 71
     0
 42
2.5
  3
amgdt.shx
  4

  0
STYLE
  5
A74
330
3
100
AcDbSymbolTableRecord
100
AcDbTextStyleTableRecord
  2
DIM
 70
     0
 40
0.0
 41
1.0
 50
0.0
 71
     0
 42
2.5
  3
monotxt.shx
  4
extfont.shx
  0
STYLE
  5
FA7
330
3
100
AcDbSymbolTableRecord
100
AcDbTextStyleTableRecord
  2
ACANSTS
 70
     0
 40
1.0
 41
1.0
 50
0.0
 71
     0
 42
0.2
  3
romans.shx
  4
extfont.shx
  0
STYLE
  5
FA8
330
3
100
AcDbSymbolTableRecord
100
AcDbTextStyleTableRecord
  2
ACANSGDT
 70
     0
 40
0.0
 41
1.0
 50
0.0
 71
     0
 42
0.2
  3
amgdtans.shx
  4

  0
ENDTAB
  0
TABLE
  2
VIEW
  5
6
330
0
100
AcDbSymbolTable
 70
     6
  0
VIEW
  5
AE1
330
6
100
AcDbSymbolTableRecord
100
AcDbViewTableRecord
  2
AM_VIEW1
 70
     0
 40
594.0
 10
472.0785933974826
 20
-413.0607106740026
 41
949.8362989323844
 11
0.0
 21
0.0
 31
1.0
 12
0.0
 22
0.0
 32
0.0
 42
50.0
 43
-1370.695619172058
 44
-1370.695619172058
 50
0.0
 71
    16
281
     0
 72
     0
  0
VIEW
  5
AE2
330
6
100
AcDbSymbolTableRecord
100
AcDbViewTableRecord
  2
AM_VIEW2
 70
     0
 40
594.0
 10
1202.242294465098
 20
-413.0607106740026
 41
949.8362989323844
 11
0.0
 21
0.0
 31
1.0
 12
0.0
 22
0.0
 32
0.0
 42
50.0
 43
-1370.695619172058
 44
-1370.695619172058
 50
0.0
 71
    16
281
     0
 72
     0
  0
VIEW
  5
AE3
330
6
100
AcDbSymbolTableRecord
100
AcDbViewTableRecord
  2
AM_VIEW3
 70
     0
 40
594.0
 10
472.0785933974826
 20
-1007.060710674002
 41
949.8362989323844
 11
0.0
 21
0.0
 31
1.0
 12
0.0
 22
0.0
 32
0.0
 42
50.0
 43
-1370.695619172058
 44
-1370.695619172058
 50
0.0
 71
    16
281
     0
 72
     0
  0
VIEW
  5
AE4
330
6
100
AcDbSymbolTableRecord
100
AcDbViewTableRecord
  2
AM_VIEW4
 70
     0
 40
594.0
 10
1202.242294465098
 20
-1007.060710674002
 41
949.8362989323844
 11
0.0
 21
0.0
 31
1.0
 12
0.0
 22
0.0
 32
0.0
 42
50.0
 43
-1370.695619172058
 44
-1370.695619172058
 50
0.0
 71
    16
281
     0
 72
     0
  0
VIEW
  5
AE5
330
6
100
AcDbSymbolTableRecord
100
AcDbViewTableRecord
  2
AM_VIEW5
 70
     0
 40
594.0
 10
837.1604439312905
 20
-710.0607106740026
 41
949.8362989323842
 11
0.0
 21
0.0
 31
1.0
 12
0.0
 22
0.0
 32
0.0
 42
50.0
 43
-1370.695619172058
 44
-1370.695619172058
 50
0.0
 71
    16
281
     0
 72
     0
  0
VIEW
  5
AE6
330
6
100
AcDbSymbolTableRecord
100
AcDbViewTableRecord
  2
AM_VIEW6
 70
     0
 40
1187.98812
 10
837.1604439312905
 20
-710.0607106740026
 41
1899.65360113879
 11
0.0
 21
0.0
 31
1.0
 12
0.0
 22
0.0
 32
0.0
 42
50.0
 43
-1370.695619172058
 44
-1370.695619172058
 50
0.0
 71
    16
281
     0
 72
     0
  0
ENDTAB
  0
TABLE
  2
UCS
  5
7
330
0
100
AcDbSymbolTable
 70
     0
  0
ENDTAB
  0
TABLE
  2
APPID
  5
9
330
0
100
AcDbSymbolTable
 70
    57
  0
APPID
  5
12
330
9
100
AcDbSymbolTableRecord
100
AcDbRegAppTableRecord
  2
ACAD
 70
     0
  0
APPID
  5
30
330
9
100
AcDbSymbolTableRecord
100
AcDbRegAppTableRecord
  2
MCAD_NO_VIS
 70
     0
  0
APPID
  5
31
330
9
100
AcDbSymbolTableRecord
100
AcDbRegAppTableRecord
  2
ACAD_TEMP_GRAPHIC
 70
     0
  0
APPID
  5
44
330
9
100
AcDbSymbolTableRecord
100
AcDbRegAppTableRecord
  2
ACATTRIBSERVICES
 70
     0
  0
APPID
  5
7A1
330
9
100
AcDbSymbolTableRecord
100
AcDbRegAppTableRecord
  2
GENIUS_GENDIMSH_14
 70
     0
  0
APPID
  5
A49
330
9
100
AcDbSymbolTableRecord
100
AcDbRegAppTableRecord
  2
GENIUS_GENREC_14
 70
     0
  0
APPID
  5
A4A
330
9
100
AcDbSymbolTableRecord
100
AcDbRegAppTableRecord
  2
GENIUS_GENOBJ-N-REC_13
 70
     0
  0
APPID
  5
A4B
330
9
100
AcDbSymbolTableRecord
100
AcDbRegAppTableRecord
  2
GENIUS_GENODEF_13
 70
     0
  0
APPID
  5
A4C
330
9
100
AcDbSymbolTableRecord
100
AcDbRegAppTableRecord
  2
DCO15
 70
     0
  0
APPID
  5
ADC
330
9
100
AcDbSymbolTableRecord
100
AcDbRegAppTableRecord
  2
GENIUS_GENOLIS_13
 70
     0
  0
APPID
  5
ADD
330
9
100
AcDbSymbolTableRecord
100
AcDbRegAppTableRecord
  2
GENIUS_GENOENT_13
 70
     0
  0
APPID
  5
ADE
330
9
100
AcDbSymbolTableRecord
100
AcDbRegAppTableRecord
  2
GENIUS_GENOBJ-N-TIT_13
 70
     0
  0
APPID
  5
ADF
330
9
100
AcDbSymbolTableRecord
100
AcDbRegAppTableRecord
  2
GENIUS_GENTITLE_13
 70
     0
  0
APPID
  5
AE0
330
9
100
AcDbSymbolTableRecord
100
AcDbRegAppTableRecord
  2
GENIUS_GENOREF_13
 70
     0
  0
APPID
  5
AE7
330
9
100
AcDbSymbolTableRecord
100
AcDbRegAppTableRecord
  2
GENIUS_GENSCREG_15
 70
     0
  0
APPID
  5
AE8
330
9
100
AcDbSymbolTableRecord
100
AcDbRegAppTableRecord
  2
GENIUS_GENOBJ-N-SDF_13
 70
     0
  0
APPID
  5
FAF
330
9
100
AcDbSymbolTableRecord
100
AcDbRegAppTableRecord
  2
GENIUS_GENBLLY_14
 70
     0
  0
APPID
  5
FB0
330
9
100
AcDbSymbolTableRecord
100
AcDbRegAppTableRecord
  2
GENIUS_GENTRA_14
 70
     0
  0
APPID
  5
1285
330
9
100
AcDbSymbolTableRecord
100
AcDbRegAppTableRecord
  2
GENIUS_GENDTOL_13
 70
     0
  0
APPID
  5
142D
330
9
100
AcDbSymbolTableRecord
100
AcDbRegAppTableRecord
  2
GENIUS_GENOBJ-N-CEN_13
 70
     0
  0
APPID
  5
1AB5
330
9
100
AcDbSymbolTableRecord
100
AcDbRegAppTableRecord
  2
GENIUS_GENOBJ-N-CRS_13
 70
     0
  0
APPID
  5
1B36
330
9
100
AcDbSymbolTableRecord
100
AcDbRegAppTableRecord
  2
GENIUS_GENOBJ-N-HTC_13
 70
     0
  0
APPID
  5
1B37
330
9
100
AcDbSymbolTableRecord
100
AcDbRegAppTableRecord
  2
GENIUS_GENHATCH_13
 70
     0
  0
APPID
  5
216D
330
9
100
AcDbSymbolTableRecord
100
AcDbRegAppTableRecord
  2
GENIUS_GENOBJ-N-FIL_13
 70
     0
  0
APPID
  5
2356
330
9
100
AcDbSymbolTableRecord
100
AcDbRegAppTableRecord
  2
GEVID990412420
 70
     0
  0
APPID
  5
2357
330
9
100
AcDbSymbolTableRecord
100
AcDbRegAppTableRecord
  2
GEVDC
 70
     0
  0
APPID
  5
2358
330
9
100
AcDbSymbolTableRecord
100
AcDbRegAppTableRecord
  2
GEVCON
 70
     0
  0
APPID
  5
235B
330
9
100
AcDbSymbolTableRecord
100
AcDbRegAppTableRecord
  2
GEVRADREF
 70
     0
  0
APPID
  5
2360
330
9
100
AcDbSymbolTableRecord
100
AcDbRegAppTableRecord
  2
GENIUS_GENBH_13
 70
     0
  0
APPID
  5
2362
330
9
100
AcDbSymbolTableRecord
100
AcDbRegAppTableRecord
  2
GENIUS_GENOBJ-NBEHI-BHF_13
 70
     0
  0
APPID
  5
2364
330
9
100
AcDbSymbolTableRecord
100
AcDbRegAppTableRecord
  2
GENIUS_GENOBJ-NBEHI-BHB_13
 70
     0
  0
APPID
  5
2379
330
9
100
AcDbSymbolTableRecord
100
AcDbRegAppTableRecord
  2
GENIUS_GENOBJ-F-SCPASSM_13
 70
     0
  0
APPID
  5
3D74
330
9
100
AcDbSymbolTableRecord
100
AcDbRegAppTableRecord
  2
GENIUS_GENDIM_13
 70
     0
  0
APPID
  5
3D76
330
9
100
AcDbSymbolTableRecord
100
AcDbRegAppTableRecord
  2
GENIUS_GE3DTOL_13
 70
     0
  0
APPID
  5
3D9C
330
9
100
AcDbSymbolTableRecord
100
AcDbRegAppTableRecord
  2
AD_DRAW
 70
     0
  0
APPID
  5
3DE8
330
9
100
AcDbSymbolTableRecord
100
AcDbRegAppTableRecord
  2
ASURF_PCURVE_APPNAME
 70
     0
  0
APPID
  5
3DED
330
9
100
AcDbSymbolTableRecord
100
AcDbRegAppTableRecord
  2
AMG_3D2D_5.0
 70
     0
  0
APPID
  5
3E1B
330
9
100
AcDbSymbolTableRecord
100
AcDbRegAppTableRecord
  2
DESIGNERASSEMBLIES
 70
     0
  0
APPID
  5
3E20
330
9
100
AcDbSymbolTableRecord
100
AcDbRegAppTableRecord
  2
ACADM_DIM_EDIT
 70
     0
  0
APPID
  5
3E21
330
9
100
AcDbSymbolTableRecord
100
AcDbRegAppTableRecord
  2
AMDT_DM_ADJ
 70
     0
  0
APPID
  5
4143
330
9
100
AcDbSymbolTableRecord
100
AcDbRegAppTableRecord
  2
GENIUS_GENFIL_13
 70
     0
  0
APPID
  5
4144
330
9
100
AcDbSymbolTableRecord
100
AcDbRegAppTableRecord
  2
GENIUS_GENOBJ-N-CHA_13
 70
     0
  0
APPID
  5
4E17
330
9
100
AcDbSymbolTableRecord
100
AcDbRegAppTableRecord
  2
GEVID1008153417
 70
     0
  0
APPID
  5
4E58
330
9
100
AcDbSymbolTableRecord
100
AcDbRegAppTableRecord
  2
GEVID1008153418
 70
     0
  0
APPID
  5
4E5E
330
9
100
AcDbSymbolTableRecord
100
AcDbRegAppTableRecord
  2
GEVID1008153419
 70
     0
  0
APPID
  5
4E64
330
9
100
AcDbSymbolTableRecord
100
AcDbRegAppTableRecord
  2
GEVID1008153420
 70
     0
  0
APPID
  5
4E75
330
9
100
AcDbSymbolTableRecord
100
AcDbRegAppTableRecord
  2
GEVID1008153421
 70
     0
  0
APPID
  5
4EB7
330
9
100
AcDbSymbolTableRecord
100
AcDbRegAppTableRecord
  2
GENIUS_AMGTXT_16
 70
     0
  0
APPID
  5
7645
330
9
100
AcDbSymbolTableRecord
100
AcDbRegAppTableRecord
  2
GENIUS_GENOBJ-N-DIM_13
 70
     0
  0
APPID
  5
C5F0
330
9
100
AcDbSymbolTableRecord
100
AcDbRegAppTableRecord
  2
GENIUS_GENCEN_19
 70
     0
  0
APPID
  5
C5FB
330
9
100
AcDbSymbolTableRecord
100
AcDbRegAppTableRecord
  2
ACAD_DSTYLE_DIMJOGGED_JOGANGLE_SYMBOL
 70
     0
  0
APPID
  5
C5FC
330
9
100
AcDbSymbolTableRecord
100
AcDbRegAppTableRecord
  2
ACAD_PSEXT
 70
     0
  0
APPID
  5
CA37
330
9
100
AcDbSymbolTableRecord
100
AcDbRegAppTableRecord
  2
AcAecLayerStandard
 70
     0
  0
APPID
  5
E64A
330
9
100
AcDbSymbolTableRecord
100
AcDbRegAppTableRecord
  2
ACAD_DSTYLE_DIMINSPECT
 70
     0
  0
APPID
  5
E64B
330
9
100
AcDbSymbolTableRecord
100
AcDbRegAppTableRecord
  2
ACAD_DSTYLE_DIMRADIAL_EXTENSION
 70
     0
  0
APPID
  5
EF08
330
9
100
AcDbSymbolTableRecord
100
AcDbRegAppTableRecord
  2
ACAD_NAV_VCDISPLAY
 70
     0
  0
APPID
  5
10A72
330
9
100
AcDbSymbolTableRecord
100
AcDbRegAppTableRecord
  2
ACAD_EXEMPT_FROM_CAD_STANDARDS
 70
     0
  0
ENDTAB
  0
TABLE
  2
DIMSTYLE
  5
A
330
0
100
AcDbSymbolTable
 70
    25
100
AcDbDimStyleTable
 71
     5
340
2515
340
251A
340
251B
340
6C
340
FA9
  0
DIMSTYLE
105
6C
330
A
100
AcDbSymbolTableRecord
100
AcDbDimStyleTableRecord
  2
AM_ISO
 70
     0
  4
"
 41
2.5
 42
1.0
 43
10.0
 44
1.0
 47
0.1
 48
0.1
 73
     0
 74
     0
 77
     1
 78
     8
 79
     2
140
3.5
141
0.0
143
0.0393701
146
0.71
147
1.5
172
     1
176
   256
177
   256
178
     2
271
     2
272
     3
274
     4
283
     0
284
     8
340
11
371
    -1
372
    -1
  0
DIMSTYLE
105
6D
330
A
100
AcDbSymbolTableRecord
100
AcDbDimStyleTableRecord
  2
AM_ISO$3
 70
     0
  4
"
 41
0.8
 42
1.0
 43
10.0
 44
1.0
 47
0.1
 48
0.1
 73
     0
 77
     1
 78
     8
 79
     2
140
3.2
141
0.0
143
0.0393701
146
0.71
147
0.9999999999999996
176
   256
177
   256
178
     2
271
     2
272
     2
283
     0
284
     8
288
     1
289
     0
340
11
342
6C4
371
    -1
372
    -1
  0
DIMSTYLE
105
6E
330
A
100
AcDbSymbolTableRecord
100
AcDbDimStyleTableRecord
  2
AM_ISO$4
 70
     0
  4
"
 41
0.8
 42
1.0
 43
10.0
 44
1.0
 47
0.1
 48
0.1
 73
     0
 77
     1
 78
     8
 79
     2
140
3.2
141
0.0
143
0.0393701
146
0.71
147
1.0
173
     1
176
   256
177
   256
178
     2
271
     2
272
     2
283
     0
284
     8
288
     1
289
     0
340
11
344
6C4
371
    -1
372
    -1
  0
DIMSTYLE
105
6F
330
A
100
AcDbSymbolTableRecord
100
AcDbDimStyleTableRecord
  2
AM_ISO$6
 70
     0
  4
"
 41
0.8
 42
1.0
 43
10.0
 44
1.0
 47
0.1
 48
0.1
 73
     0
 74
     0
 78
     8
 79
     2
140
3.2
141
0.0
143
0.0393701
146
0.71
147
1.0
172
     1
176
   256
177
   256
178
     2
271
     2
272
     2
283
     0
284
     8
340
11
341
6C4
371
    -1
372
    -1
  0
DIMSTYLE
105
70
330
A
100
AcDbSymbolTableRecord
100
AcDbDimStyleTableRecord
  2
AM_ISO$7
 70
     0
  4
"
 41
0.8
 42
1.0
 43
10.0
 44
1.0
 47
0.1
 48
0.1
 73
     0
 74
     0
 77
     1
 78
     8
 79
     2
140
3.2
141
0.0
143
0.0393701
146
0.71
147
1.0
172
     1
176
   256
177
   256
178
     2
271
     2
272
     2
283
     0
284
     8
340
11
341
6C4
342
6C4
371
    -1
372
    -1
  0
DIMSTYLE
105
71
330
A
100
AcDbSymbolTableRecord
100
AcDbDimStyleTableRecord
  2
AM_ISO$SF
 70
     0
  4
"
 41
0.8
 42
1.0
 43
10.0
 44
1.0
 47
0.1
 48
0.1
 73
     0
 74
     0
 75
     1
 76
     1
 77
     1
 78
     8
 79
     2
140
3.2
141
0.0
143
0.0393701
146
0.71
147
1.0
172
     1
176
   256
177
   256
178
     2
271
     2
272
     2
283
     0
284
     8
340
11
341
6C4
342
6C4
371
    -1
372
    -1
  0
DIMSTYLE
105
76
330
A
100
AcDbSymbolTableRecord
100
AcDbDimStyleTableRecord
  2
AM_ISO$SH
 70
     0
  4
"
 41
0.8
 42
1.0
 43
10.0
 44
1.0
 47
0.1
 48
0.1
 73
     0
 74
     0
 75
     1
 76
     1
 77
     1
 78
     8
 79
     2
140
3.2
141
0.0
143
0.0393701
144
2.0
146
0.71
147
1.0
172
     1
176
   256
177
   256
178
     2
271
     2
272
     2
283
     0
284
     8
340
11
341
6C4
342
6C4
371
    -1
372
    -1
  0
DIMSTYLE
105
6BE
330
A
100
AcDbSymbolTableRecord
100
AcDbDimStyleTableRecord
  2
AM_ISO$0
 70
     0
  4
"
 41
0.8
 42
1.0
 43
10.0
 44
1.0
 47
0.1
 48
0.1
 73
     0
 74
     0
 77
     1
 78
     8
 79
     2
140
3.2
141
0.0
143
0.0393701
146
0.71
147
0.9999999999999996
172
     1
176
   256
177
   256
178
     2
271
     2
272
     2
283
     0
284
     8
340
11
341
6C4
342
6C4
371
    -1
372
    -1
  0
DIMSTYLE
105
6BF
330
A
100
AcDbSymbolTableRecord
100
AcDbDimStyleTableRecord
  2
AM_ISO$2
 70
     0
  4
"
 41
0.8
 42
1.0
 43
10.0
 44
1.0
 47
0.1
 48
0.1
 73
     0
 74
     0
 77
     3
 78
     8
 79
     2
140
3.200000000000001
141
0.0
143
0.0393701
146
0.71
147
0.9999999999999996
172
     1
176
   256
177
   256
178
     2
271
     2
272
     2
283
     0
284
     8
340
11
342
6C4
371
    -1
372
    -1
  0
DIMSTYLE
105
A76
330
A
100
AcDbSymbolTableRecord
100
AcDbDimStyleTableRecord
  2
STANDARD
 70
     0
 41
3.0
 42
1.0
 43
7.0
 44
2.0
 73
     0
 74
     0
 77
     1
140
2.799999999999999
141
0.0
143
0.0394
147
0.7
171
     4
172
     1
173
     1
176
     3
177
     3
178
     2
271
     3
272
     3
273
     8
274
     4
289
     0
340
A74
341
A66
343
A66
344
A66
  0
DIMSTYLE
105
FA9
330
A
100
AcDbSymbolTableRecord
100
AcDbDimStyleTableRecord
  2
AM_ANSI
 70
     0
  4
mm
 41
0.1
 42
0.05
 43
0.5
 44
0.1
 47
0.1
 48
0.1
 78
     7
 79
     2
140
0.12
141
0.0
146
0.71
147
0.06
176
   256
177
   256
178
     2
274
     4
284
     7
340
11
371
    -1
372
    -1
  0
DIMSTYLE
105
FAA
330
A
100
AcDbSymbolTableRecord
100
AcDbDimStyleTableRecord
  2
AM_ANSI$3
 70
     0
  4
mm
 41
0.1
 42
0.05
 43
0.5
 44
0.1
 47
0.1
 48
0.1
 78
     7
 79
     2
140
0.12
141
0.0
146
0.71
147
0.06
176
   256
177
   256
178
     2
274
     4
284
     7
288
     1
289
     0
340
11
371
    -1
372
    -1
  0
DIMSTYLE
105
FAB
330
A
100
AcDbSymbolTableRecord
100
AcDbDimStyleTableRecord
  2
AM_ANSI$4
 70
     0
  4
mm
 41
0.1
 42
0.05
 43
0.5
 44
0.1
 47
0.1
 48
0.1
 78
     7
 79
     2
140
0.12
141
0.0
146
0.71
147
0.06
176
   256
177
   256
178
     2
274
     4
284
     7
288
     1
289
     0
340
11
371
    -1
372
    -1
  0
DIMSTYLE
105
FAC
330
A
100
AcDbSymbolTableRecord
100
AcDbDimStyleTableRecord
  2
AM_ANSI$7
 70
     0
  4
mm
 41
0.1
 42
0.05
 43
0.5
 44
0.1
 47
0.1
 48
0.1
 78
     7
 79
     2
140
0.24
141
0.0
146
0.71
147
0.06
176
   256
177
   256
178
     2
274
     4
284
     7
340
11
371
    -1
372
    -1
  0
DIMSTYLE
105
FAD
330
A
100
AcDbSymbolTableRecord
100
AcDbDimStyleTableRecord
  2
AM_ANSI$SF
 70
     0
  4
mm
 41
0.1
 42
0.05
 43
0.5
 44
0.1
 47
0.1
 48
0.1
 75
     1
 76
     1
 78
     7
 79
     2
140
0.12
141
0.0
146
0.71
147
0.06
176
   256
177
   256
178
     2
274
     4
284
     7
340
11
371
    -1
372
    -1
  0
DIMSTYLE
105
FAE
330
A
100
AcDbSymbolTableRecord
100
AcDbDimStyleTableRecord
  2
AM_ANSI$SH
 70
     0
  4
mm
 41
0.1
 42
0.05
 43
0.5
 44
0.1
 47
0.1
 48
0.1
 75
     1
 76
     1
 78
     7
 79
     2
140
0.12
141
0.0
146
0.71
147
0.06
173
     1
176
   256
177
   256
178
     2
274
     4
284
     7
340
11
343
72
371
    -1
372
    -1
  0
DIMSTYLE
105
2515
330
A
100
AcDbSymbolTableRecord
100
AcDbDimStyleTableRecord
  2
SYS
 70
     0
  4
"
 41
2.5
 42
1.0
 43
10.0
 44
1.0
 47
0.1
 48
0.1
 73
     0
 74
     0
 77
     1
 78
     8
 79
     2
140
3.5
141
0.0
143
0.0393701
146
0.71
147
1.5
172
     1
176
   256
177
   256
178
     7
271
     2
272
     3
274
     4
283
     0
284
     8
340
11
371
    -1
372
    -1
  0
DIMSTYLE
105
2516
102
{ACAD_REACTORS
330
1175E
102
}
330
A
100
AcDbSymbolTableRecord
100
AcDbDimStyleTableRecord
  2
SYS$3
 70
     0
  4
"
 41
2.0
 42
1.0
 43
10.0
 44
1.0
 47
0.1
 48
0.1
 73
     0
 77
     1
 78
     8
 79
     2
140
3.200000000000001
141
0.0
143
0.0393701
146
0.71
147
0.9999999999999996
176
   256
177
   256
178
     2
271
     1
272
     1
283
     0
284
     8
288
     1
340
11
342
A66
371
    -1
372
    -1
  0
DIMSTYLE
105
2517
330
A
100
AcDbSymbolTableRecord
100
AcDbDimStyleTableRecord
  2
SYS$4
 70
     0
  4
"
 41
2.0
 42
1.0
 43
10.0
 44
1.0
 47
0.1
 48
0.1
 73
     0
 77
     1
 78
     8
 79
     2
140
3.2
141
0.0
143
0.0393701
146
0.71
147
0.9999999999999996
173
     1
176
   256
177
   256
178
     2
271
     2
272
     2
283
     0
284
     8
288
     1
340
11
344
A66
371
    -1
372
    -1
  0
DIMSTYLE
105
2518
330
A
100
AcDbSymbolTableRecord
100
AcDbDimStyleTableRecord
  2
SYS$6
 70
     0
  4
"
 41
2.0
 42
1.0
 43
10.0
 44
1.0
 47
0.1
 48
0.1
 73
     0
 74
     0
 78
     8
 79
     2
140
3.2
141
0.0
143
0.0393701
146
0.71
147
0.9999999999999996
172
     1
176
   256
177
   256
178
     2
271
     2
272
     2
283
     0
284
     8
340
11
341
A66
371
    -1
372
    -1
  0
DIMSTYLE
105
2519
330
A
100
AcDbSymbolTableRecord
100
AcDbDimStyleTableRecord
  2
SYS$7
 70
     0
  4
"
 41
2.0
 42
1.5
 43
10.0
 44
1.0
 47
0.1
 48
0.1
 73
     0
 74
     0
 77
     1
 78
     8
 79
     2
140
3.2
141
0.0
143
0.0393701
146
0.71
147
0.9999999999999996
172
     1
176
   256
177
   256
178
     2
271
     2
272
     2
283
     0
284
     8
340
11
341
A66
342
A66
371
    -1
372
    -1
  0
DIMSTYLE
105
251A
330
A
100
AcDbSymbolTableRecord
100
AcDbDimStyleTableRecord
  2
SYS$SF
 70
     0
  4
"
 41
1.0
 42
1.0
 43
10.0
 44
1.0
 47
0.1
 48
0.1
 73
     0
 74
     0
 75
     1
 76
     1
 77
     1
 78
     8
 79
     2
140
3.2
141
0.0
143
0.0393701
146
0.71
147
0.9999999999999996
172
     1
176
   256
177
   256
178
     2
271
     2
272
     2
283
     0
284
     8
340
11
341
6C4
342
6C4
371
    -1
372
    -1
  0
DIMSTYLE
105
251B
330
A
100
AcDbSymbolTableRecord
100
AcDbDimStyleTableRecord
  2
SYS$SH
 70
     0
  4
"
 41
1.0
 42
1.0
 43
10.0
 44
1.0
 47
0.1
 48
0.1
 73
     0
 74
     0
 75
     1
 76
     1
 77
     1
 78
     8
 79
     2
140
3.2
141
0.0
143
0.0393701
144
2.0
146
0.71
147
0.9999999999999996
172
     1
173
     1
176
   256
177
   256
178
     2
271
     2
272
     2
283
     0
284
     8
340
11
341
6C4
343
72
344
6C4
371
    -1
372
    -1
  0
DIMSTYLE
105
2A59
102
{ACAD_REACTORS
330
118AF
330
118E5
102
}
330
A
100
AcDbSymbolTableRecord
100
AcDbDimStyleTableRecord
  2
SYS$2
 70
     0
  4
"
 41
1.0
 42
1.5
 43
10.0
 44
1.0
 47
0.1
 48
0.1
 73
     0
 74
     0
 77
     1
 78
     8
 79
     2
140
3.2
141
0.0
143
0.0393701
146
0.71
147
0.9999999999999996
172
     1
176
   256
177
   256
178
     2
271
     2
272
     2
283
     0
284
     8
340
11
342
6C4
371
    -1
372
    -1
  0
DIMSTYLE
105
2AAB
102
{ACAD_REACTORS
330
112AE
330
112AF
330
1127E
330
1139D
330
113A0
330
113A3
330
113A6
330
113AB
330
117C2
330
11AB5
330
11AD6
102
}
330
A
100
AcDbSymbolTableRecord
100
AcDbDimStyleTableRecord
  2
SYS$0
 70
     0
  4
"
 41
1.0
 42
1.5
 43
10.0
 44
1.0
 47
0.1
 48
0.1
 73
     0
 74
     0
 77
     1
 78
     8
 79
     2
140
3.2
141
0.0
143
0.0393701
146
0.71
147
0.9999999999999996
172
     1
176
   256
177
   256
178
     2
271
     1
272
     1
283
     0
284
     8
340
11
341
A66
342
6C4
371
    -1
372
    -1
  0
ENDTAB
  0
TABLE
  2
BLOCK_RECORD
  5
1
330
0
100
AcDbSymbolTable
 70
    19
  0
BLOCK_RECORD
  5
1F
102
{ACAD_XDICTIONARY
360
8A
102
}
330
1
100
AcDbSymbolTableRecord
100
AcDbBlockTableRecord
  2
*Model_Space
340
22
  0
BLOCK_RECORD
  5
1B
330
1
100
AcDbSymbolTableRecord
100
AcDbBlockTableRecord
  2
*Paper_Space
340
1E
  0
BLOCK_RECORD
  5
23
330
1
100
AcDbSymbolTableRecord
100
AcDbBlockTableRecord
  2
*Paper_Space0
340
26
  0
BLOCK_RECORD
  5
72
330
1
100
AcDbSymbolTableRecord
100
AcDbBlockTableRecord
  2
GENAXEH
340
0
  0
BLOCK_RECORD
  5
6C4
330
1
100
AcDbSymbolTableRecord
100
AcDbBlockTableRecord
  2
_Dot
340
0
102
{BLKREFS
331
11CC7
331
11CC8
331
11CCF
331
11CD0
331
11CD7
331
11CD8
331
11CE0
331
11CE1
331
11CE9
331
11CEA
331
11CF2
331
11CF3
331
11CFD
331
11CFE
331
11D07
331
11D08
331
11D12
331
11D13
331
11D19
331
11D1A
331
11D22
331
11D23
331
11D2D
331
11D2E
331
11D37
331
11D38
331
11D40
331
11D41
102
}
  0
BLOCK_RECORD
  5
A66
330
1
100
AcDbSymbolTableRecord
100
AcDbBlockTableRecord
  2
_OPEN30
340
0
  0
BLOCK_RECORD
  5
112B0
330
1
100
AcDbSymbolTableRecord
100
AcDbBlockTableRecord
  2
*D5
340
0
  0
BLOCK_RECORD
  5
112BB
330
1
100
AcDbSymbolTableRecord
100
AcDbBlockTableRecord
  2
*D6
340
0
  0
BLOCK_RECORD
  5
112E4
330
1
100
AcDbSymbolTableRecord
100
AcDbBlockTableRecord
  2
*D7
340
0
  0
BLOCK_RECORD
  5
113D1
330
1
100
AcDbSymbolTableRecord
100
AcDbBlockTableRecord
  2
*D8
340
0
  0
BLOCK_RECORD
  5
113DD
330
1
100
AcDbSymbolTableRecord
100
AcDbBlockTableRecord
  2
*D9
340
0
  0
BLOCK_RECORD
  5
113E9
330
1
100
AcDbSymbolTableRecord
100
AcDbBlockTableRecord
  2
*D10
340
0
  0
BLOCK_RECORD
  5
113F5
330
1
100
AcDbSymbolTableRecord
100
AcDbBlockTableRecord
  2
*D11
340
0
  0
BLOCK_RECORD
  5
11415
330
1
100
AcDbSymbolTableRecord
100
AcDbBlockTableRecord
  2
*D12
340
0
  0
BLOCK_RECORD
  5
11761
330
1
100
AcDbSymbolTableRecord
100
AcDbBlockTableRecord
  2
*D13
340
0
  0
BLOCK_RECORD
  5
117C5
330
1
100
AcDbSymbolTableRecord
100
AcDbBlockTableRecord
  2
*D14
340
0
  0
BLOCK_RECORD
  5
118B0
330
1
100
AcDbSymbolTableRecord
100
AcDbBlockTableRecord
  2
*D15
340
0
  0
BLOCK_RECORD
  5
118E6
330
1
100
AcDbSymbolTableRecord
100
AcDbBlockTableRecord
  2
*D16
340
0
  0
BLOCK_RECORD
  5
11AB6
330
1
100
AcDbSymbolTableRecord
100
AcDbBlockTableRecord
  2
*D17
340
0
  0
BLOCK_RECORD
  5
11AD7
330
1
100
AcDbSymbolTableRecord
100
AcDbBlockTableRecord
  2
*D18
340
0
  0
ENDTAB
  0
ENDSEC
  0
SECTION
  2
BLOCKS
  0
BLOCK
  5
20
330
1F
100
AcDbEntity
  8
0
100
AcDbBlockBegin
  2
*Model_Space
 70
     0
 10
0.0
 20
0.0
 30
0.0
  3
*Model_Space
  1

  0
ENDBLK
  5
21
330
1F
100
AcDbEntity
  8
0
100
AcDbBlockEnd
  0
BLOCK
  5
1C
330
1B
100
AcDbEntity
 67
     1
  8
0
100
AcDbBlockBegin
  2
*Paper_Space
 70
     0
 10
0.0
 20
0.0
 30
0.0
  3
*Paper_Space
  1

  0
ENDBLK
  5
1D
330
1B
100
AcDbEntity
 67
     1
  8
0
100
AcDbBlockEnd
  0
BLOCK
  5
24
330
23
100
AcDbEntity
 67
     1
  8
0
100
AcDbBlockBegin
  2
*Paper_Space0
 70
     0
 10
0.0
 20
0.0
 30
0.0
  3
*Paper_Space0
  1

  0
ENDBLK
  5
25
330
23
100
AcDbEntity
 67
     1
  8
0
100
AcDbBlockEnd
  0
BLOCK
  5
74
330
72
100
AcDbEntity
  8
0
100
AcDbBlockBegin
  2
GENAXEH
 70
     0
 10
0.0
 20
0.0
 30
0.0
  3
GENAXEH
  1

  0
LINE
  5
73
330
72
100
AcDbEntity
  8
0
100
AcDbLine
 10
-1.0
 20
0.0
 30
0.0
 11
1.0
 21
0.0
 31
0.0
  0
ENDBLK
  5
75
330
72
100
AcDbEntity
  8
0
100
AcDbBlockEnd
  0
BLOCK
  5
6C7
330
6C4
100
AcDbEntity
  8
0
100
AcDbBlockBegin
  2
_Dot
 70
     0
 10
0.0
 20
0.0
 30
0.0
  3
_Dot
  1

  0
LWPOLYLINE
  5
6C5
330
6C4
100
AcDbEntity
  8
0
  6
ByBlock
 62
     0
100
AcDbPolyline
 90
        2
 70
     1
 43
0.5
 10
-0.25
 20
0.0
 42
1.0
 10
0.25
 20
0.0
 42
1.0
  0
LINE
  5
6C6
330
6C4
100
AcDbEntity
  8
0
  6
ByBlock
 62
     0
370
    -2
100
AcDbLine
 10
-0.5
 20
0.0
 30
0.0
 11
-1.0
 21
0.0
 31
0.0
  0
ENDBLK
  5
6C8
330
6C4
100
AcDbEntity
  8
0
100
AcDbBlockEnd
  0
BLOCK
  5
A6A
330
A66
100
AcDbEntity
  8
0
100
AcDbBlockBegin
  2
_OPEN30
 70
     0
 10
0.0
 20
0.0
 30
0.0
  3
_OPEN30
  1

  0
LINE
  5
A67
330
A66
100
AcDbEntity
  8
0
  6
ByBlock
 62
     0
100
AcDbLine
 10
-1.0
 20
0.26794919
 30
0.0
 11
0.0
 21
0.0
 31
0.0
  0
LINE
  5
A68
330
A66
100
AcDbEntity
  8
0
  6
ByBlock
 62
     0
100
AcDbLine
 10
0.0
 20
0.0
 30
0.0
 11
-1.0
 21
-0.26794919
 31
0.0
  0
LINE
  5
A69
330
A66
100
AcDbEntity
  8
0
  6
ByBlock
 62
     0
100
AcDbLine
 10
0.0
 20
0.0
 30
0.0
 11
-1.0
 21
0.0
 31
0.0
  0
ENDBLK
  5
A6B
330
A66
100
AcDbEntity
  8
0
100
AcDbBlockEnd
  0
BLOCK
  5
112B9
330
112B0
100
AcDbEntity
  8
0
100
AcDbBlockBegin
  2
*D5
 70
     1
 10
0.0
 20
0.0
 30
0.0
  3
*D5
  1

  0
LINE
  5
11CCD
330
112B0
100
AcDbEntity
  8
AM_5
100
AcDbLine
 10
563.6524047054623
 20
295.6524077792828
 30
0.0
 11
500.478606925844
 21
295.6524077792828
 31
0.0
  0
LINE
  5
11CCE
330
112B0
100
AcDbEntity
  8
AM_5
100
AcDbLine
 10
504.4786069258441
 20
891.6524077792828
 30
0.0
 11
504.478606925844
 21
299.6524077792829
 31
0.0
  0
INSERT
  5
11CCF
330
112B0
100
AcDbEntity
  8
AM_5
100
AcDbBlockReference
  2
_Dot
 10
504.4786069258441
 20
895.6524077792828
 30
0.0
 41
4.0
 42
4.0
 43
4.0
 50
90.0
  0
INSERT
  5
11CD0
330
112B0
100
AcDbEntity
  8
AM_5
100
AcDbBlockReference
  2
_Dot
 10
504.478606925844
 20
295.6524077792828
 30
0.0
 41
4.0
 42
4.0
 43
4.0
 50
270.0
  0
MTEXT
  5
11CD1
330
112B0
100
AcDbEntity
  8
AM_5
 62
     2
100
AcDbMText
 10
494.078606925844
 20
595.6524077792829
 30
0.0
 40
12.8
 41
0.0
 71
     5
 72
     1
  1
600
 11
0.0000000000000001
 21
1.0
 31
0.0
 73
     1
 44
1.0
1001
ACAD
1000
MTEXTBEGIN
1070
    73
1070
     1
1070
    44
1040
1.0
1070
    74
1070
     0
1000
MTEXTEND
  0
POINT
  5
11CD2
330
112B0
100
AcDbEntity
  8
Defpoints
 62
     0
100
AcDbPoint
 10
541.8524052317442
 20
895.6524077792828
 30
0.0
  0
POINT
  5
11CD3
330
112B0
100
AcDbEntity
  8
Defpoints
 62
     0
100
AcDbPoint
 10
569.6524047054623
 20
295.6524077792828
 30
0.0
  0
POINT
  5
11CD4
330
112B0
100
AcDbEntity
  8
Defpoints
 62
     0
100
AcDbPoint
 10
504.478606925844
 20
295.6524077792828
 30
0.0
  0
ENDBLK
  5
112BA
330
112B0
100
AcDbEntity
  8
0
100
AcDbBlockEnd
  0
BLOCK
  5
112C4
330
112BB
100
AcDbEntity
  8
0
100
AcDbBlockBegin
  2
*D6
 70
     1
 10
0.0
 20
0.0
 30
0.0
  3
*D6
  1

  0
LINE
  5
11CD5
330
112BB
100
AcDbEntity
  8
AM_5
100
AcDbLine
 10
563.6524052887631
 20
130.6524077792828
 30
0.0
 11
468.4786069258439
 21
130.6524077792828
 31
0.0
  0
LINE
  5
11CD6
330
112BB
100
AcDbEntity
  8
AM_5
100
AcDbLine
 10
472.478606925844
 20
891.6524078719541
 30
0.0
 11
472.4786069258439
 21
134.6524077792828
 31
0.0
  0
INSERT
  5
11CD7
330
112BB
100
AcDbEntity
  8
AM_5
100
AcDbBlockReference
  2
_Dot
 10
472.478606925844
 20
895.6524078719542
 30
0.0
 41
4.0
 42
4.0
 43
4.0
 50
90.0
  0
INSERT
  5
11CD8
330
112BB
100
AcDbEntity
  8
AM_5
100
AcDbBlockReference
  2
_Dot
 10
472.4786069258439
 20
130.6524077792828
 30
0.0
 41
4.0
 42
4.0
 43
4.0
 50
270.0
  0
MTEXT
  5
11CD9
330
112BB
100
AcDbEntity
  8
AM_5
 62
     2
100
AcDbMText
 10
462.0786069258439
 20
513.1524078256186
 30
0.0
 40
12.8
 41
0.0
 71
     5
 72
     1
  1
900
 11
0.0000000000000001
 21
1.0
 31
0.0
 73
     1
 44
1.0
1001
ACAD
1000
MTEXTBEGIN
1070
    73
1070
     1
1070
    44
1040
1.0
1070
    74
1070
     0
1000
MTEXTEND
  0
POINT
  5
11CDA
330
112BB
100
AcDbEntity
  8
Defpoints
 62
     0
100
AcDbPoint
 10
541.8524052317442
 20
895.6524078719542
 30
0.0
  0
POINT
  5
11CDB
330
112BB
100
AcDbEntity
  8
Defpoints
 62
     0
100
AcDbPoint
 10
569.6524052887631
 20
130.6524077792828
 30
0.0
  0
POINT
  5
11CDC
330
112BB
100
AcDbEntity
  8
Defpoints
 62
     0
100
AcDbPoint
 10
472.4786069258439
 20
130.6524077792828
 30
0.0
  0
ENDBLK
  5
112C5
330
112BB
100
AcDbEntity
  8
0
100
AcDbBlockEnd
  0
BLOCK
  5
112ED
330
112E4
100
AcDbEntity
  8
0
100
AcDbBlockBegin
  2
*D7
 70
     1
 10
0.0
 20
0.0
 30
0.0
  3
*D7
  1

  0
LINE
  5
11CC4
330
112E4
100
AcDbEntity
  8
AM_5
100
AcDbLine
 10
806.2000005262817
 20
895.6524077792828
 30
0.0
 11
770.8262022155251
 21
895.6524077792828
 31
0.0
  0
LINE
  5
11CC5
330
112E4
100
AcDbEntity
  8
AM_5
100
AcDbLine
 10
820.2417707758879
 20
873.3524075349967
 30
0.0
 11
770.8262022155251
 21
873.3524075349967
 31
0.0
  0
LINE
  5
11CC6
330
112E4
100
AcDbEntity
  8
AM_5
100
AcDbLine
 10
774.8262022155251
 20
891.6524077792828
 30
0.0
 11
774.8262022155251
 21
877.3524075349966
 31
0.0
  0
INSERT
  5
11CC7
330
112E4
100
AcDbEntity
  8
AM_5
100
AcDbBlockReference
  2
_Dot
 10
774.8262022155251
 20
895.6524077792828
 30
0.0
 41
4.0
 42
4.0
 43
4.0
 50
90.0
  0
INSERT
  5
11CC8
330
112E4
100
AcDbEntity
  8
AM_5
100
AcDbBlockReference
  2
_Dot
 10
774.8262022155251
 20
873.3524075349967
 30
0.0
 41
4.0
 42
4.0
 43
4.0
 50
270.0
  0
MTEXT
  5
11CC9
330
112E4
100
AcDbEntity
  8
AM_5
 62
     2
100
AcDbMText
 10
764.4262022155248
 20
884.50240765714
 30
0.0
 40
12.8
 41
0.0
 71
     5
 72
     1
  1
22
 11
0.0000000000000001
 21
1.0
 31
0.0
 73
     1
 44
1.0
1001
ACAD
1000
MTEXTBEGIN
1070
    73
1070
     1
1070
    44
1040
1.0
1070
    74
1070
     0
1000
MTEXTEND
  0
POINT
  5
11CCA
330
112E4
100
AcDbEntity
  8
Defpoints
 62
     0
100
AcDbPoint
 10
812.2000005262817
 20
895.6524077792828
 30
0.0
  0
POINT
  5
11CCB
330
112E4
100
AcDbEntity
  8
Defpoints
 62
     0
100
AcDbPoint
 10
826.2417707758878
 20
873.3524075349967
 30
0.0
  0
POINT
  5
11CCC
330
112E4
100
AcDbEntity
  8
Defpoints
 62
     0
100
AcDbPoint
 10
774.8262022155251
 20
873.3524075349967
 30
0.0
  0
ENDBLK
  5
112EE
330
112E4
100
AcDbEntity
  8
0
100
AcDbBlockEnd
  0
BLOCK
  5
113DB
330
113D1
100
AcDbEntity
  8
0
100
AcDbBlockBegin
  2
*D8
 70
     1
 10
0.0
 20
0.0
 30
0.0
  3
*D8
  1

  0
LINE
  5
11CDD
330
113D1
100
AcDbEntity
  8
AM_5
100
AcDbLine
 10
1177.99999999999
 20
342.6524114502768
 30
0.0
 11
1177.99999999999
 21
276.652410440277
 31
0.0
  0
LINE
  5
11CDE
330
113D1
100
AcDbEntity
  8
AM_5
100
AcDbLine
 10
1233.99999999999
 20
342.6524114502768
 30
0.0
 11
1233.99999999999
 21
276.652410440277
 31
0.0
  0
LINE
  5
11CDF
330
113D1
100
AcDbEntity
  8
AM_5
100
AcDbLine
 10
1181.99999999999
 20
280.652410440277
 30
0.0
 11
1229.99999999999
 21
280.652410440277
 31
0.0
  0
INSERT
  5
11CE0
330
113D1
100
AcDbEntity
  8
AM_5
100
AcDbBlockReference
  2
_Dot
 10
1177.99999999999
 20
280.652410440277
 30
0.0
 41
4.0
 42
4.0
 43
4.0
 50
180.0
  0
INSERT
  5
11CE1
330
113D1
100
AcDbEntity
  8
AM_5
100
AcDbBlockReference
  2
_Dot
 10
1233.99999999999
 20
280.652410440277
 30
0.0
 41
4.0
 42
4.0
 43
4.0
  0
MTEXT
  5
11CE2
330
113D1
100
AcDbEntity
  8
AM_5
 62
     2
100
AcDbMText
 10
1205.99999999999
 20
291.052410440277
 30
0.0
 40
12.8
 41
0.0
 71
     5
 72
     1
  1
56
 73
     1
 44
1.0
1001
ACAD
1000
MTEXTBEGIN
1070
    73
1070
     1
1070
    44
1040
1.0
1070
    74
1070
     0
1000
MTEXTEND
  0
POINT
  5
11CE3
330
113D1
100
AcDbEntity
  8
Defpoints
 62
     0
100
AcDbPoint
 10
1177.99999999999
 20
348.6524114502767
 30
0.0
  0
POINT
  5
11CE4
330
113D1
100
AcDbEntity
  8
Defpoints
 62
     0
100
AcDbPoint
 10
1233.99999999999
 20
348.6524114502767
 30
0.0
  0
POINT
  5
11CE5
330
113D1
100
AcDbEntity
  8
Defpoints
 62
     0
100
AcDbPoint
 10
1233.99999999999
 20
280.652410440277
 30
0.0
  0
ENDBLK
  5
113DC
330
113D1
100
AcDbEntity
  8
0
100
AcDbBlockEnd
  0
BLOCK
  5
113E7
330
113DD
100
AcDbEntity
  8
0
100
AcDbBlockBegin
  2
*D9
 70
     1
 10
0.0
 20
0.0
 30
0.0
  3
*D9
  1

  0
LINE
  5
11CE6
330
113DD
100
AcDbEntity
  8
AM_5
100
AcDbLine
 10
1199.99999999999
 20
320.6524114502768
 30
0.0
 11
1141.99999999999
 21
320.6524114502768
 31
0.0
  0
LINE
  5
11CE7
330
113DD
100
AcDbEntity
  8
AM_5
100
AcDbLine
 10
1199.99999999999
 20
406.6524114502767
 30
0.0
 11
1141.99999999999
 21
406.6524114502768
 31
0.0
  0
LINE
  5
11CE8
330
113DD
100
AcDbEntity
  8
AM_5
100
AcDbLine
 10
1145.99999999999
 20
324.6524114502768
 30
0.0
 11
1145.99999999999
 21
402.6524114502768
 31
0.0
  0
INSERT
  5
11CE9
330
113DD
100
AcDbEntity
  8
AM_5
100
AcDbBlockReference
  2
_Dot
 10
1145.99999999999
 20
320.6524114502768
 30
0.0
 41
4.0
 42
4.0
 43
4.0
 50
270.0
  0
INSERT
  5
11CEA
330
113DD
100
AcDbEntity
  8
AM_5
100
AcDbBlockReference
  2
_Dot
 10
1145.99999999999
 20
406.6524114502768
 30
0.0
 41
4.0
 42
4.0
 43
4.0
 50
90.0
  0
MTEXT
  5
11CEB
330
113DD
100
AcDbEntity
  8
AM_5
 62
     2
100
AcDbMText
 10
1135.59999999999
 20
363.652411450277
 30
0.0
 40
12.8
 41
0.0
 71
     5
 72
     1
  1
86
 11
0.0000000000000001
 21
1.0
 31
0.0
 73
     1
 44
1.0
1001
ACAD
1000
MTEXTBEGIN
1070
    73
1070
     1
1070
    44
1040
1.0
1070
    74
1070
     0
1000
MTEXTEND
  0
POINT
  5
11CEC
330
113DD
100
AcDbEntity
  8
Defpoints
 62
     0
100
AcDbPoint
 10
1205.99999999999
 20
320.6524114502768
 30
0.0
  0
POINT
  5
11CED
330
113DD
100
AcDbEntity
  8
Defpoints
 62
     0
100
AcDbPoint
 10
1205.99999999999
 20
406.6524114502767
 30
0.0
  0
POINT
  5
11CEE
330
113DD
100
AcDbEntity
  8
Defpoints
 62
     0
100
AcDbPoint
 10
1145.99999999999
 20
406.6524114502768
 30
0.0
  0
ENDBLK
  5
113E8
330
113DD
100
AcDbEntity
  8
0
100
AcDbBlockEnd
  0
BLOCK
  5
113F3
330
113E9
100
AcDbEntity
  8
0
100
AcDbBlockBegin
  2
*D10
 70
     1
 10
0.0
 20
0.0
 30
0.0
  3
*D10
  1

  0
LINE
  5
11CEF
330
113E9
100
AcDbEntity
  8
AM_5
100
AcDbLine
 10
1445.1439358069
 20
320.6524114502768
 30
0.0
 11
1483.1439358069
 21
320.6524114502768
 31
0.0
  0
LINE
  5
11CF0
330
113E9
100
AcDbEntity
  8
AM_5
100
AcDbLine
 10
1445.1439358069
 20
392.4724114502769
 30
0.0
 11
1483.1439358069
 21
392.4724114502769
 31
0.0
  0
LINE
  5
11CF1
330
113E9
100
AcDbEntity
  8
AM_5
100
AcDbLine
 10
1479.1439358069
 20
324.6524114502768
 30
0.0
 11
1479.1439358069
 21
388.4724114502769
 31
0.0
  0
INSERT
  5
11CF2
330
113E9
100
AcDbEntity
  8
AM_5
100
AcDbBlockReference
  2
_Dot
 10
1479.1439358069
 20
320.6524114502768
 30
0.0
 41
4.0
 42
4.0
 43
4.0
 50
270.0
  0
INSERT
  5
11CF3
330
113E9
100
AcDbEntity
  8
AM_5
100
AcDbBlockReference
  2
_Dot
 10
1479.1439358069
 20
392.4724114502769
 30
0.0
 41
4.0
 42
4.0
 43
4.0
 50
90.0
  0
MTEXT
  5
11CF4
330
113E9
100
AcDbEntity
  8
AM_5
 62
     2
100
AcDbMText
 10
1468.7439358069
 20
356.5624114502771
 30
0.0
 40
12.8
 41
0.0
 71
     5
 72
     1
  1
70
 11
0.0000000000000001
 21
1.0
 31
0.0
 73
     1
 44
1.0
1001
ACAD
1000
MTEXTBEGIN
1070
    73
1070
     1
1070
    44
1040
1.0
1070
    74
1070
     0
1000
MTEXTEND
  0
POINT
  5
11CF5
330
113E9
100
AcDbEntity
  8
Defpoints
 62
     0
100
AcDbPoint
 10
1439.1439358069
 20
320.6524114502768
 30
0.0
  0
POINT
  5
11CF6
330
113E9
100
AcDbEntity
  8
Defpoints
 62
     0
100
AcDbPoint
 10
1439.1439358069
 20
392.4724114502769
 30
0.0
  0
POINT
  5
11CF7
330
113E9
100
AcDbEntity
  8
Defpoints
 62
     0
100
AcDbPoint
 10
1479.1439358069
 20
392.4724114502769
 30
0.0
  0
ENDBLK
  5
113F4
330
113E9
100
AcDbEntity
  8
0
100
AcDbBlockEnd
  0
BLOCK
  5
11400
330
113F5
100
AcDbEntity
  8
0
100
AcDbBlockBegin
  2
*D11
 70
     1
 10
0.0
 20
0.0
 30
0.0
  3
*D11
  1

  0
LINE
  5
11CF8
330
113F5
100
AcDbEntity
  8
AM_5
100
AcDbLine
 10
1419.6499358069
 20
325.4254114502769
 30
0.0
 11
1419.6499358069
 21
276.6524114502772
 31
0.0
  0
LINE
  5
11CF9
330
113F5
100
AcDbEntity
  8
AM_5
100
AcDbLine
 10
1435.039935806899
 20
317.2174114502768
 30
0.0
 11
1435.039935806899
 21
276.6524114502772
 31
0.0
  0
LINE
  5
11CFA
330
113F5
100
AcDbEntity
  8
AM_5
100
AcDbLine
 10
1415.6499358069
 20
280.6524114502772
 30
0.0
 11
1411.6499358069
 21
280.6524114502772
 31
0.0
  0
LINE
  5
11CFB
330
113F5
100
AcDbEntity
  8
AM_5
100
AcDbLine
 10
1439.039935806899
 20
280.6524114502772
 30
0.0
 11
1464.266602473566
 21
280.6524114502772
 31
0.0
  0
LINE
  5
11CFC
330
113F5
100
AcDbEntity
  8
AM_5
100
AcDbLine
 10
1419.6499358069
 20
280.6524114502772
 30
0.0
 11
1435.039935806899
 21
280.6524114502772
 31
0.0
  0
INSERT
  5
11CFD
330
113F5
100
AcDbEntity
  8
AM_5
100
AcDbBlockReference
  2
_Dot
 10
1419.6499358069
 20
280.6524114502772
 30
0.0
 41
4.0
 42
4.0
 43
4.0
  0
INSERT
  5
11CFE
330
113F5
100
AcDbEntity
  8
AM_5
100
AcDbBlockReference
  2
_Dot
 10
1435.039935806899
 20
280.6524114502772
 30
0.0
 41
4.0
 42
4.0
 43
4.0
 50
180.0
  0
MTEXT
  5
11CFF
330
113F5
100
AcDbEntity
  8
AM_5
 62
     2
100
AcDbMText
 10
1453.653269140233
 20
291.0524114502772
 30
0.0
 40
12.8
 41
0.0
 71
     5
 72
     1
  1
15
 73
     1
 44
1.0
1001
ACAD
1000
MTEXTBEGIN
1070
    73
1070
     1
1070
    44
1040
1.0
1070
    74
1070
     0
1000
MTEXTEND
  0
POINT
  5
11D00
330
113F5
100
AcDbEntity
  8
Defpoints
 62
     0
100
AcDbPoint
 10
1419.6499358069
 20
331.4254114502769
 30
0.0
  0
POINT
  5
11D01
330
113F5
100
AcDbEntity
  8
Defpoints
 62
     0
100
AcDbPoint
 10
1435.039935806899
 20
323.2174114502768
 30
0.0
  0
POINT
  5
11D02
330
113F5
100
AcDbEntity
  8
Defpoints
 62
     0
100
AcDbPoint
 10
1435.039935806899
 20
280.6524114502772
 30
0.0
  0
ENDBLK
  5
11401
330
113F5
100
AcDbEntity
  8
0
100
AcDbBlockEnd
  0
BLOCK
  5
11420
330
11415
100
AcDbEntity
  8
0
100
AcDbBlockBegin
  2
*D12
 70
     1
 10
0.0
 20
0.0
 30
0.0
  3
*D12
  1

  0
LINE
  5
11D03
330
11415
100
AcDbEntity
  8
AM_5
100
AcDbLine
 10
1374.51999999999
 20
324.912411450277
 30
0.0
 11
1374.51999999999
 21
276.6524114502772
 31
0.0
  0
LINE
  5
11D04
330
11415
100
AcDbEntity
  8
AM_5
100
AcDbLine
 10
1353.99999999999
 20
324.912411450277
 30
0.0
 11
1353.99999999999
 21
276.6524114502772
 31
0.0
  0
LINE
  5
11D05
330
11415
100
AcDbEntity
  8
AM_5
100
AcDbLine
 10
1370.51999999999
 20
280.6524114502772
 30
0.0
 11
1357.99999999999
 21
280.6524114502772
 31
0.0
  0
LINE
  5
11D06
330
11415
100
AcDbEntity
  8
AM_5
100
AcDbLine
 10
1353.99999999999
 20
280.6524114502772
 30
0.0
 11
1327.493333333324
 21
280.6524114502772
 31
0.0
  0
INSERT
  5
11D07
330
11415
100
AcDbEntity
  8
AM_5
100
AcDbBlockReference
  2
_Dot
 10
1374.51999999999
 20
280.6524114502772
 30
0.0
 41
4.0
 42
4.0
 43
4.0
  0
INSERT
  5
11D08
330
11415
100
AcDbEntity
  8
AM_5
100
AcDbBlockReference
  2
_Dot
 10
1353.99999999999
 20
280.6524114502772
 30
0.0
 41
4.0
 42
4.0
 43
4.0
 50
180.0
  0
MTEXT
  5
11D09
330
11415
100
AcDbEntity
  8
AM_5
 62
     2
100
AcDbMText
 10
1338.746666666657
 20
291.0524114502772
 30
0.0
 40
12.8
 41
0.0
 71
     5
 72
     1
  1
20
 73
     1
 44
1.0
1001
ACAD
1000
MTEXTBEGIN
1070
    73
1070
     1
1070
    44
1040
1.0
1070
    74
1070
     0
1000
MTEXTEND
  0
POINT
  5
11D0A
330
11415
100
AcDbEntity
  8
Defpoints
 62
     0
100
AcDbPoint
 10
1374.51999999999
 20
330.912411450277
 30
0.0
  0
POINT
  5
11D0B
330
11415
100
AcDbEntity
  8
Defpoints
 62
     0
100
AcDbPoint
 10
1353.99999999999
 20
330.912411450277
 30
0.0
  0
POINT
  5
11D0C
330
11415
100
AcDbEntity
  8
Defpoints
 62
     0
100
AcDbPoint
 10
1353.99999999999
 20
280.6524114502772
 30
0.0
  0
ENDBLK
  5
11421
330
11415
100
AcDbEntity
  8
0
100
AcDbBlockEnd
  0
BLOCK
  5
1176B
330
11761
100
AcDbEntity
  8
0
100
AcDbBlockBegin
  2
*D13
 70
     1
 10
0.0
 20
0.0
 30
0.0
  3
*D13
  1

  0
LINE
  5
11D0D
330
11761
100
AcDbEntity
  8
AM_5
100
AcDbLine
 10
919.7871308531103
 20
240.6524114502772
 30
0.0
 11
893.1737975197769
 21
240.6524114502772
 31
0.0
  0
LINE
  5
11D0E
330
11761
100
AcDbEntity
  8
AM_5
100
AcDbLine
 10
893.1737975197769
 20
240.6524114502772
 30
0.0
 11
859.7000696723558
 21
263.9444838940483
 31
0.0
  0
LINE
  5
11D0F
330
11761
100
AcDbEntity
  8
AM_5
100
AcDbLine
 10
820.2999314942635
 20
291.3603390065052
 30
0.0
 11
817.0165866460893
 21
293.6449935992099
 31
0.0
  0
MTEXT
  5
11D10
330
11761
100
AcDbEntity
  8
AM_5
 62
     2
100
AcDbMText
 10
908.4804641864437
 20
251.0524114502771
 30
0.0
 40
12.8
 41
0.0
 71
     5
 72
     1
  1
\U+220540
 73
     1
 44
1.0
1001
ACAD
1000
MTEXTBEGIN
1070
    73
1070
     1
1070
    44
1040
1.0
1070
    74
1070
     0
1000
MTEXTEND
  0
LINE
  5
11D11
330
11761
100
AcDbEntity
  8
AM_5
100
AcDbLine
 10
823.5832763424379
 20
289.0756844138004
 30
0.0
 11
856.4167248241814
 21
266.229138486753
 31
0.0
  0
INSERT
  5
11D12
330
11761
100
AcDbEntity
  8
AM_5
100
AcDbBlockReference
  2
_Dot
 10
823.5832763424379
 20
289.0756844138004
 30
0.0
 41
4.0
 42
4.0
 43
4.0
 50
325.1685895969107
  0
INSERT
  5
11D13
330
11761
100
AcDbEntity
  8
AM_5
100
AcDbBlockReference
  2
_Dot
 10
856.4167248241814
 20
266.229138486753
 30
0.0
 41
4.0
 42
4.0
 43
4.0
 50
145.1685895969107
  0
POINT
  5
11D14
330
11761
100
AcDbEntity
  8
Defpoints
 62
     0
100
AcDbPoint
 10
856.4167248241814
 20
266.229138486753
 30
0.0
  0
POINT
  5
11D15
330
11761
100
AcDbEntity
  8
Defpoints
 62
     0
100
AcDbPoint
 10
823.5832763424379
 20
289.0756844138004
 30
0.0
  0
ENDBLK
  5
1176C
330
11761
100
AcDbEntity
  8
0
100
AcDbBlockEnd
  0
BLOCK
  5
117CF
330
117C5
100
AcDbEntity
  8
0
100
AcDbBlockBegin
  2
*D14
 70
     1
 10
0.0
 20
0.0
 30
0.0
  3
*D14
  1

  0
LINE
  5
11D16
330
117C5
100
AcDbEntity
  8
AM_5
100
AcDbLine
 10
812.0000005833098
 20
271.6524114502763
 30
0.0
 11
812.0000005833098
 21
196.652410440276
 31
0.0
  0
LINE
  5
11D17
330
117C5
100
AcDbEntity
  8
AM_5
100
AcDbLine
 10
868.0000005833097
 20
271.6524114502763
 30
0.0
 11
868.0000005833097
 21
196.652410440276
 31
0.0
  0
LINE
  5
11D18
330
117C5
100
AcDbEntity
  8
AM_5
100
AcDbLine
 10
816.0000005833097
 20
200.6524104402761
 30
0.0
 11
864.0000005833098
 21
200.6524104402761
 31
0.0
  0
INSERT
  5
11D19
330
117C5
100
AcDbEntity
  8
AM_5
100
AcDbBlockReference
  2
_Dot
 10
812.0000005833098
 20
200.6524104402761
 30
0.0
 41
4.0
 42
4.0
 43
4.0
 50
180.0
  0
INSERT
  5
11D1A
330
117C5
100
AcDbEntity
  8
AM_5
100
AcDbBlockReference
  2
_Dot
 10
868.0000005833097
 20
200.6524104402761
 30
0.0
 41
4.0
 42
4.0
 43
4.0
  0
MTEXT
  5
11D1B
330
117C5
100
AcDbEntity
  8
AM_5
 62
     2
100
AcDbMText
 10
840.0000005833097
 20
211.0524104402761
 30
0.0
 40
12.8
 41
0.0
 71
     5
 72
     1
  1
56
 73
     1
 44
1.0
1001
ACAD
1000
MTEXTBEGIN
1070
    73
1070
     1
1070
    44
1040
1.0
1070
    74
1070
     0
1000
MTEXTEND
  0
POINT
  5
11D1C
330
117C5
100
AcDbEntity
  8
Defpoints
 62
     0
100
AcDbPoint
 10
812.0000005833098
 20
277.6524114502763
 30
0.0
  0
POINT
  5
11D1D
330
117C5
100
AcDbEntity
  8
Defpoints
 62
     0
100
AcDbPoint
 10
868.0000005833097
 20
277.6524114502763
 30
0.0
  0
POINT
  5
11D1E
330
117C5
100
AcDbEntity
  8
Defpoints
 62
     0
100
AcDbPoint
 10
868.0000005833097
 20
200.6524104402761
 30
0.0
  0
ENDBLK
  5
117D0
330
117C5
100
AcDbEntity
  8
0
100
AcDbBlockEnd
  0
BLOCK
  5
118BE
330
118B0
100
AcDbEntity
  8
0
100
AcDbBlockBegin
  2
*D15
 70
     1
 10
0.0
 20
0.0
 30
0.0
  3
*D15
  1

  0
LINE
  5
11D1F
330
118B0
100
AcDbEntity
  8
AM_5
100
AcDbLine
 10
898.088709780653
 20
853.9782551658241
 30
0.0
 11
919.6587810711767
 21
838.8747286484786
 31
0.0
  0
LINE
  5
11D20
330
118B0
100
AcDbEntity
  8
AM_5
100
AcDbLine
 10
899.173797514919
 20
894.652407715025
 30
0.0
 11
937.2454157273393
 21
894.6524077150254
 31
0.0
  0
ARC
  5
11D21
330
118B0
100
AcDbEntity
  8
AM_5
100
AcDbCircle
 10
839.9999998915866
 20
894.652407715025
 30
0.0
 40
93.24541583575259
100
AcDbArc
 50
327.4580371297781
 51
357.5419628702223
  0
INSERT
  5
11D22
330
118B0
100
AcDbEntity
  8
AM_5
100
AcDbBlockReference
  2
_Dot
 10
916.3821728940208
 20
841.1690343938831
 30
0.0
 41
4.0
 42
4.0
 43
4.0
 50
236.2290185648892
  0
INSERT
  5
11D23
330
118B0
100
AcDbEntity
  8
AM_5
100
AcDbBlockReference
  2
_Dot
 10
933.2454157273391
 20
894.6524077150252
 30
0.0
 41
4.0
 42
4.0
 43
4.0
 50
88.77098143511128
  0
MTEXT
  5
11D24
330
118B0
100
AcDbEntity
  8
AM_5
 62
     2
100
AcDbMText
 10
919.0110772659297
 20
869.7403107108712
 30
0.0
 40
12.8
 41
0.0
 71
     5
 72
     1
  1
35\U+00B0
 11
0.3007057995042694
 21
0.953716950748228
 31
0.0
 73
     1
 44
1.0
1001
ACAD
1000
MTEXTBEGIN
1070
    73
1070
     1
1070
    44
1040
1.0
1070
    74
1070
     0
1000
MTEXTEND
  0
POINT
  5
11D25
330
118B0
100
AcDbEntity
  8
Defpoints
 62
     0
100
AcDbPoint
 10
925.6194426047239
 20
857.7197852265765
 30
0.0
  0
POINT
  5
11D26
330
118B0
100
AcDbEntity
  8
Defpoints
 62
     0
100
AcDbPoint
 10
786.8262022203814
 20
931.8851016796406
 30
0.0
  0
POINT
  5
11D27
330
118B0
100
AcDbEntity
  8
Defpoints
 62
     0
100
AcDbPoint
 10
786.8262022203814
 20
894.6524077150248
 30
0.0
  0
POINT
  5
11D28
330
118B0
100
AcDbEntity
  8
Defpoints
 62
     0
100
AcDbPoint
 10
893.1737975149191
 20
894.652407715025
 30
0.0
  0
POINT
  5
11D29
330
118B0
100
AcDbEntity
  8
Defpoints
 62
     0
100
AcDbPoint
 10
893.1737975149189
 20
857.4197137839302
 30
0.0
  0
ENDBLK
  5
118BF
330
118B0
100
AcDbEntity
  8
0
100
AcDbBlockEnd
  0
BLOCK
  5
118F4
330
118E6
100
AcDbEntity
  8
0
100
AcDbBlockBegin
  2
*D16
 70
     1
 10
0.0
 20
0.0
 30
0.0
  3
*D16
  1

  0
LINE
  5
11D2A
330
118E6
100
AcDbEntity
  8
AM_5
100
AcDbLine
 10
899.173797514919
 20
894.6524077150254
 30
0.0
 11
937.2476512780886
 21
894.6524077150254
 31
0.0
  0
LINE
  5
11D2B
330
118E6
100
AcDbEntity
  8
AM_5
100
AcDbLine
 10
898.088709780653
 20
935.326560205074
 30
0.0
 11
919.6606123424205
 21
950.4313689923488
 31
0.0
  0
ARC
  5
11D2C
330
118E6
100
AcDbEntity
  8
AM_5
100
AcDbCircle
 10
839.999999976065
 20
894.652407715025
 30
0.0
 40
93.24765130202335
100
AcDbArc
 50
2.457978193151785
 51
32.54202180684857
  0
INSERT
  5
11D2D
330
118E6
100
AcDbEntity
  8
AM_5
100
AcDbBlockReference
  2
_Dot
 10
933.2476512780884
 20
894.6524077150254
 30
0.0
 41
4.0
 42
4.0
 43
4.0
 50
271.228989096576
  0
INSERT
  5
11D2E
330
118E6
100
AcDbEntity
  8
AM_5
100
AcDbBlockReference
  2
_Dot
 10
916.3840041652646
 20
948.1370632469447
 30
0.0
 41
4.0
 42
4.0
 43
4.0
 50
123.7710109034243
  0
POINT
  5
11D2F
330
118E6
100
AcDbEntity
  8
Defpoints
 62
     0
100
AcDbPoint
 10
931.3212127803661
 20
913.508721386985
 30
0.0
  0
POINT
  5
11D30
330
118E6
100
AcDbEntity
  8
Defpoints
 62
     0
100
AcDbPoint
 10
786.8262022203816
 20
857.4197136912566
 30
0.0
  0
POINT
  5
11D31
330
118E6
100
AcDbEntity
  8
Defpoints
 62
     0
100
AcDbPoint
 10
786.8262022203816
 20
894.6524077150248
 30
0.0
  0
POINT
  5
11D32
330
118E6
100
AcDbEntity
  8
Defpoints
 62
     0
100
AcDbPoint
 10
893.1737975149191
 20
894.6524077150252
 30
0.0
  0
POINT
  5
11D33
330
118E6
100
AcDbEntity
  8
Defpoints
 62
     0
100
AcDbPoint
 10
893.1737975149191
 20
931.8851015869677
 30
0.0
  0
ENDBLK
  5
118F5
330
118E6
100
AcDbEntity
  8
0
100
AcDbBlockEnd
  0
BLOCK
  5
11AC0
330
11AB6
100
AcDbEntity
  8
0
100
AcDbBlockBegin
  2
*D17
 70
     1
 10
0.0
 20
0.0
 30
0.0
  3
*D17
  1

  0
LINE
  5
11D34
330
11AB6
100
AcDbEntity
  8
AM_5
100
AcDbLine
 10
817.5000000000011
 20
1029.951203889643
 30
0.0
 11
817.5000000000011
 21
1086.0
 31
0.0
  0
LINE
  5
11D35
330
11AB6
100
AcDbEntity
  8
AM_5
100
AcDbLine
 10
862.4999999999994
 20
1029.951203889642
 30
0.0
 11
862.4999999999994
 21
1086.0
 31
0.0
  0
LINE
  5
11D36
330
11AB6
100
AcDbEntity
  8
AM_5
100
AcDbLine
 10
821.5000000000012
 20
1082.0
 30
0.0
 11
858.4999999999993
 21
1082.0
 31
0.0
  0
INSERT
  5
11D37
330
11AB6
100
AcDbEntity
  8
AM_5
100
AcDbBlockReference
  2
_Dot
 10
817.5000000000011
 20
1082.0
 30
0.0
 41
4.0
 42
4.0
 43
4.0
 50
180.0
  0
INSERT
  5
11D38
330
11AB6
100
AcDbEntity
  8
AM_5
100
AcDbBlockReference
  2
_Dot
 10
862.4999999999994
 20
1082.0
 30
0.0
 41
4.0
 42
4.0
 43
4.0
  0
MTEXT
  5
11D39
330
11AB6
100
AcDbEntity
  8
AM_5
 62
     2
100
AcDbMText
 10
840.0000000000002
 20
1092.4
 30
0.0
 40
12.8
 41
0.0
 71
     5
 72
     1
  1
45
 73
     1
 44
1.0
1001
ACAD
1000
MTEXTBEGIN
1070
    73
1070
     1
1070
    44
1040
1.0
1070
    74
1070
     0
1000
MTEXTEND
  0
POINT
  5
11D3A
330
11AB6
100
AcDbEntity
  8
Defpoints
 62
     0
100
AcDbPoint
 10
817.5000000000011
 20
1023.951203889643
 30
0.0
  0
POINT
  5
11D3B
330
11AB6
100
AcDbEntity
  8
Defpoints
 62
     0
100
AcDbPoint
 10
862.4999999999994
 20
1023.951203889642
 30
0.0
  0
POINT
  5
11D3C
330
11AB6
100
AcDbEntity
  8
Defpoints
 62
     0
100
AcDbPoint
 10
862.4999999999994
 20
1082.0
 30
0.0
  0
ENDBLK
  5
11AC1
330
11AB6
100
AcDbEntity
  8
0
100
AcDbBlockEnd
  0
BLOCK
  5
11AE1
330
11AD7
100
AcDbEntity
  8
0
100
AcDbBlockBegin
  2
*D18
 70
     1
 10
0.0
 20
0.0
 30
0.0
  3
*D18
  1

  0
LINE
  5
11D3D
330
11AD7
100
AcDbEntity
  8
AM_5
100
AcDbLine
 10
806.8262022155249
 20
900.6524077317843
 30
0.0
 11
806.8262022155249
 21
931.6524077792825
 31
0.0
  0
LINE
  5
11D3E
330
11AD7
100
AcDbEntity
  8
AM_5
100
AcDbLine
 10
873.1737975188975
 20
900.6524077150253
 30
0.0
 11
873.1737975188975
 21
931.6524077792825
 31
0.0
  0
LINE
  5
11D3F
330
11AD7
100
AcDbEntity
  8
AM_5
100
AcDbLine
 10
810.8262022155248
 20
927.6524077792826
 30
0.0
 11
869.1737975188974
 21
927.6524077792826
 31
0.0
  0
INSERT
  5
11D40
330
11AD7
100
AcDbEntity
  8
AM_5
100
AcDbBlockReference
  2
_Dot
 10
806.8262022155249
 20
927.6524077792826
 30
0.0
 41
4.0
 42
4.0
 43
4.0
 50
180.0
  0
INSERT
  5
11D41
330
11AD7
100
AcDbEntity
  8
AM_5
100
AcDbBlockReference
  2
_Dot
 10
873.1737975188975
 20
927.6524077792826
 30
0.0
 41
4.0
 42
4.0
 43
4.0
  0
MTEXT
  5
11D42
330
11AD7
100
AcDbEntity
  8
AM_5
 62
     2
100
AcDbMText
 10
839.9999998672111
 20
938.0524077792825
 30
0.0
 40
12.8
 41
0.0
 71
     5
 72
     1
  1
%%c66.4
 73
     1
 44
1.0
1001
ACAD
1000
MTEXTBEGIN
1070
    73
1070
     1
1070
    44
1040
1.0
1070
    74
1070
     0
1000
MTEXTEND
  0
POINT
  5
11D43
330
11AD7
100
AcDbEntity
  8
Defpoints
 62
     0
100
AcDbPoint
 10
806.8262022155249
 20
894.6524077317842
 30
0.0
  0
POINT
  5
11D44
330
11AD7
100
AcDbEntity
  8
Defpoints
 62
     0
100
AcDbPoint
 10
873.1737975188975
 20
894.6524077150252
 30
0.0
  0
POINT
  5
11D45
330
11AD7
100
AcDbEntity
  8
Defpoints
 62
     0
100
AcDbPoint
 10
873.1737975188975
 20
927.6524077792826
 30
0.0
  0
ENDBLK
  5
11AE2
330
11AD7
100
AcDbEntity
  8
0
100
AcDbBlockEnd
  0
ENDSEC
  0
SECTION
  2
ENTITIES
  0
LWPOLYLINE
  5
10FEB
330
1F
100
AcDbEntity
  8
waku
100
AcDbPolyline
 90
        4
 70
     1
 43
0.0
 10
46.00000000000004
 20
1154.0
 10
1633.999999999999
 20
1154.0
 10
1633.999999999999
 20
34.0
 10
45.99999999999994
 20
34.0
1001
GENIUS_GENREC_14
1002
{
1000
PYDIR
1011
45.99999999999996
1021
34.0
1031
0.0
1002
}
1002
{
1000
PXDIR
1011
1633.999999999999
1021
1154.0
1031
0.0
1002
}
1002
{
1000
PORI
1011
46.00000000000004
1021
1154.0
1031
0.0
1002
}
1002
{
1000
PINS
1011
46.00000000000004
1021
1154.0
1031
0.0
1002
}
1002
{
1000
PINS2
1011
1633.999999999999
1021
34.0
1031
0.0
1002
}
1002
{
1000
C
1070
     1
1002
}
1001
GENIUS_GENOBJ-N-REC_13
1002
{
1000
OWNER
1000
GEN
1002
}
1001
GENIUS_GENODEF_13
1002
{
1000
HIER
1070
     0
1002
}
1002
{
1000
MANEDIT
1070
     0
1002
}
1002
{
1000
NOSEL
1070
     0
1002
}
1002
{
1000
BEHIND
1070
     0
1002
}
1002
{
1000
OTHER
1070
     0
1002
}
1002
{
1000
REACTOR
1002
}
  0
LWPOLYLINE
  5
10FEC
330
1F
100
AcDbEntity
  8
size
100
AcDbPolyline
 90
        4
 70
     1
 43
0.0
 10
-0.0000000000000568
 20
1188.0
 10
1680.0
 20
1188.0
 10
1680.0
 20
0.0
 10
-0.0000000000000568
 20
0.0
1001
GENIUS_GENREC_14
1002
{
1000
PYDIR
1011
-0.0000000000001297
1021
0.0
1031
0.0
1002
}
1002
{
1000
PXDIR
1011
1680.0
1021
1188.0
1031
0.0
1002
}
1002
{
1000
PORI
1011
-0.0000000000000568
1021
1188.0
1031
0.0
1002
}
1002
{
1000
PINS
1011
-0.0000000000000568
1021
1188.0
1031
0.0
1002
}
1002
{
1000
PINS2
1011
1680.0
1021
0.0
1031
0.0
1002
}
1002
{
1000
C
1070
     1
1002
}
1001
GENIUS_GENODEF_13
1002
{
1000
HIER
1070
     0
1002
}
1002
{
1000
MANEDIT
1070
     0
1002
}
1002
{
1000
NOSEL
1070
     0
1002
}
1002
{
1000
BEHIND
1070
     0
1002
}
1002
{
1000
OTHER
1070
     0
1002
}
1002
{
1000
REACTOR
1002
}
1001
GENIUS_GENOBJ-N-REC_13
1002
{
1000
OWNER
1000
GEN
1002
}
  0
LINE
  5
10FED
330
1F
100
AcDbEntity
  8
AM_0
100
AcDbLine
 10
577.6524041221615
 20
450.65240420096
 30
0.0
 11
577.6524047054623
 21
815.652407871954
 31
0.0
  0
LINE
  5
10FEE
330
1F
100
AcDbEntity
  8
AM_0
100
AcDbLine
 10
561.6524041221615
 20
450.65240420096
 30
0.0
 11
561.6524047054623
 21
815.652407871954
 31
0.0
  0
LINE
  5
10FEF
330
1F
100
AcDbEntity
  8
AM_7
 48
3.0
100
AcDbLine
 10
569.6524047054623
 20
904.5941453648593
 30
0.0
 11
569.6524047054623
 21
120.0816791691477
 31
0.0
  0
LINE
  5
10FF0
330
1F
100
AcDbEntity
  8
AM_0
100
AcDbLine
 10
579.6524041221615
 20
417.5695614884857
 30
0.0
 11
579.6524041221615
 21
410.7019139577569
 31
0.0
  0
LINE
  5
10FF1
330
1F
100
AcDbEntity
  8
AM_0
100
AcDbLine
 10
559.6524041221615
 20
449.15240420096
 30
0.0
 11
559.6524041221615
 21
410.7019139577569
 31
0.0
  0
ARC
  5
10FF2
330
1F
100
AcDbEntity
  8
AM_0
100
AcDbCircle
 10
562.8821099762423
 20
402.15240420096
 30
0.0
 40
1.5
100
AcDbArc
 50
191.3099324740504
 51
270.0
  0
LINE
  5
10FF3
330
1F
100
AcDbEntity
  8
AM_0
100
AcDbLine
 10
561.4112389627022
 20
401.8582299982531
 30
0.0
 11
559.6621137843118
 21
410.6038558901877
 31
0.0
  0
ARC
  5
10FF4
330
1F
100
AcDbEntity
  8
AM_0
100
AcDbCircle
 10
560.1524041221615
 20
410.701913957756
 30
0.0
 40
0.5
100
AcDbArc
 50
180.0
 51
191.3099324740504
  0
LINE
  5
10FF5
330
1F
100
AcDbEntity
  8
AM_0
100
AcDbLine
 10
579.6426944600021
 20
410.6038558901877
 30
0.0
 11
577.8935692816227
 21
401.8582299982531
 31
0.0
  0
ARC
  5
10FF6
330
1F
100
AcDbEntity
  8
AM_0
100
AcDbCircle
 10
576.4226982680826
 20
402.15240420096
 30
0.0
 40
1.5
100
AcDbArc
 50
270.0
 51
348.6900675259497
  0
LINE
  5
10FF7
330
1F
100
AcDbEntity
  8
AM_0
100
AcDbLine
 10
569.6524041221615
 20
400.65240420096
 30
0.0
 11
563.4024041221615
 21
400.65240420096
 31
0.0
  0
LINE
  5
10FF8
330
1F
100
AcDbEntity
  8
AM_0
100
AcDbLine
 10
576.4226982680826
 20
400.65240420096
 30
0.0
 11
562.8821099762423
 21
400.65240420096
 31
0.0
  0
ARC
  5
10FF9
330
1F
100
AcDbEntity
  8
AM_0
100
AcDbCircle
 10
579.1524041221615
 20
410.701913957756
 30
0.0
 40
0.5
100
AcDbArc
 50
348.6900675259497
 51
0.0
  0
ARC
  5
10FFA
330
1F
100
AcDbEntity
  8
AM_0
100
AcDbCircle
 10
578.6524041221615
 20
429.65240420096
 30
0.0
 40
11.0
100
AcDbArc
 50
90.0
 51
270.0
  0
LINE
  5
10FFB
330
1F
100
AcDbEntity
  8
AM_0
100
AcDbLine
 10
577.6524041221615
 20
418.697953050857
 30
0.0
 11
577.6524041221615
 21
440.6068553510631
 31
0.0
  0
LINE
  5
10FFC
330
1F
100
AcDbEntity
  8
AM_0
100
AcDbLine
 10
578.6524041221615
 20
418.65240420096
 30
0.0
 11
578.6524041221615
 21
418.65240420096
 31
0.0
  0
ARC
  5
10FFD
330
1F
100
AcDbEntity
  8
AM_0
100
AcDbCircle
 10
579.4524041221627
 20
417.5695614884857
 30
0.0
 40
0.2
100
AcDbArc
 50
0.0
 51
44.99999999998183
  0
LINE
  5
10FFE
330
1F
100
AcDbEntity
  8
AM_0
100
AcDbLine
 10
579.5938254784029
 20
417.7109828447233
 30
0.0
 11
578.6524041221615
 21
418.65240420096
 31
0.0
  0
LINE
  5
10FFF
330
1F
100
AcDbEntity
  8
AM_0
100
AcDbLine
 10
578.1524041221615
 20
450.65240420096
 30
0.0
 11
561.1524041221615
 21
450.65240420096
 31
0.0
  0
ARC
  5
11000
330
1F
100
AcDbEntity
  8
AM_0
100
AcDbCircle
 10
561.1524041221615
 20
449.15240420096
 30
0.0
 40
1.5
100
AcDbArc
 50
90.0
 51
180.0
  0
ARC
  5
11001
330
1F
100
AcDbEntity
  8
AM_0
100
AcDbCircle
 10
578.1524041221615
 20
449.15240420096
 30
0.0
 40
1.5
100
AcDbArc
 50
0.0
 51
90.0
  0
LINE
  5
11002
330
1F
100
AcDbEntity
  8
AM_0
100
AcDbLine
 10
579.6524041221615
 20
449.15240420096
 30
0.0
 11
579.6524041221615
 21
441.7352469134348
 31
0.0
  0
LINE
  5
11003
330
1F
100
AcDbEntity
  8
AM_0
100
AcDbLine
 10
579.6524041221615
 20
444.15240420096
 30
0.0
 11
579.6524041221615
 21
441.7352469134348
 31
0.0
  0
LINE
  5
11004
330
1F
100
AcDbEntity
  8
AM_0
100
AcDbLine
 10
578.6524041221615
 20
440.65240420096
 30
0.0
 11
578.6524041221615
 21
440.65240420096
 31
0.0
  0
LINE
  5
11005
330
1F
100
AcDbEntity
  8
AM_0
100
AcDbLine
 10
579.5938254784029
 20
441.5938255571968
 30
0.0
 11
578.6524041221615
 21
440.65240420096
 31
0.0
  0
ARC
  5
11006
330
1F
100
AcDbEntity
  8
AM_0
100
AcDbCircle
 10
579.4524041221627
 20
441.7352469134348
 30
0.0
 40
0.2
100
AcDbArc
 50
315.0000000000182
 51
0.0
  0
LINE
  5
11007
330
1F
100
AcDbEntity
  8
AM_0
100
AcDbLine
 10
576.3197774961823
 20
857.6531925276357
 30
0.0
 11
577.2024047054634
 21
817.6524078719539
 31
0.0
  0
LINE
  5
11008
330
1F
100
AcDbEntity
  8
AM_0
100
AcDbLine
 10
562.8197774961951
 20
857.6531925276357
 30
0.0
 11
562.102404705463
 21
817.6524078719539
 31
0.0
  0
LINE
  5
11009
330
1F
100
AcDbEntity
  8
AM_0
100
AcDbLine
 10
577.9024047054623
 20
815.652407871954
 30
0.0
 11
561.4024047054623
 21
815.652407871954
 31
0.0
  0
LINE
  5
1100A
330
1F
100
AcDbEntity
  8
AM_0
100
AcDbLine
 10
577.6524047054623
 20
815.652407871954
 30
0.0
 11
561.6524047054623
 21
815.652407871954
 31
0.0
  0
ARC
  5
1100B
330
1F
100
AcDbEntity
  8
AM_0
100
AcDbCircle
 10
562.102404705463
 20
816.9524078719542
 30
0.0
 40
0.7
100
AcDbArc
 50
90.0
 51
180.0
  0
LINE
  5
1100C
330
1F
100
AcDbEntity
  8
AM_0
100
AcDbLine
 10
561.4024047054623
 20
815.652407871954
 30
0.0
 11
561.4024047054623
 21
816.9524078719542
 31
0.0
  0
ARC
  5
1100E
330
1F
100
AcDbEntity
  8
AM_0
100
AcDbCircle
 10
577.2024047054634
 20
816.9524078719542
 30
0.0
 40
0.7
100
AcDbArc
 50
0.0
 51
90.0
  0
LINE
  5
1100F
330
1F
100
AcDbEntity
  8
AM_0
100
AcDbLine
 10
577.2024047054634
 20
817.6524078719539
 30
0.0
 11
562.102404705463
 21
817.6524078719539
 31
0.0
  0
LINE
  5
11010
330
1F
100
AcDbEntity
  8
AM_0
100
AcDbLine
 10
577.9024047054623
 20
815.652407871954
 30
0.0
 11
577.6307944165033
 21
815.652407871954
 31
0.0
  0
LINE
  5
11011
330
1F
100
AcDbEntity
  8
AM_0
100
AcDbLine
 10
577.9024047054623
 20
815.652407871954
 30
0.0
 11
577.9024047054623
 21
816.9524078719542
 31
0.0
  0
ARC
  5
11012
330
1F
100
AcDbEntity
  8
AM_0
100
AcDbCircle
 10
563.5197774961831
 20
858.953192527637
 30
0.0
 40
0.7
100
AcDbArc
 50
90.0
 51
180.0
  0
LINE
  5
11013
330
1F
100
AcDbEntity
  8
AM_0
100
AcDbLine
 10
576.3197774961823
 20
857.6531925276357
 30
0.0
 11
562.8197774961951
 21
857.6531925276357
 31
0.0
  0
LINE
  5
11014
330
1F
100
AcDbEntity
  8
AM_0
100
AcDbLine
 10
562.8197774961951
 20
858.953192527637
 30
0.0
 11
562.8197774961951
 21
857.6531925276357
 31
0.0
  0
LINE
  5
11015
330
1F
100
AcDbEntity
  8
AM_0
100
AcDbLine
 10
565.8957325803526
 20
872.9895096929897
 30
0.0
 11
564.0697774961823
 21
859.6531925276359
 31
0.0
  0
LINE
  5
11016
330
1F
100
AcDbEntity
  8
AM_0
100
AcDbLine
 10
575.0697774961951
 20
859.6531925276359
 30
0.0
 11
573.2438224120251
 21
872.9895096929885
 31
0.0
  0
LINE
  5
11017
330
1F
100
AcDbEntity
  8
AM_0
100
AcDbLine
 10
576.3197774961823
 20
858.953192527637
 30
0.0
 11
576.3197774961823
 21
857.6531925276357
 31
0.0
  0
ARC
  5
11018
330
1F
100
AcDbEntity
  8
AM_0
100
AcDbCircle
 10
575.6197774961834
 20
858.953192527637
 30
0.0
 40
0.7
100
AcDbArc
 50
0.0
 51
90.0
  0
LINE
  5
11019
330
1F
100
AcDbEntity
  8
AM_0
100
AcDbLine
 10
575.6197774961834
 20
859.6531925276359
 30
0.0
 11
563.5197774961831
 21
859.6531925276359
 31
0.0
  0
LINE
  5
1101A
330
1F
100
AcDbEntity
  8
AM_0
100
AcDbLine
 10
575.6524041221616
 20
400.65240420096
 30
0.0
 11
575.6524041221616
 21
392.152406465937
 31
0.0
  0
LINE
  5
1101B
330
1F
100
AcDbEntity
  8
AM_0
100
AcDbLine
 10
563.6524041221615
 20
400.65240420096
 30
0.0
 11
563.6524041221615
 21
392.152406465937
 31
0.0
  0
ARC
  5
1101C
330
1F
100
AcDbEntity
  8
AM_0
100
AcDbCircle
 10
569.6524047054623
 20
332.6524077792819
 30
0.0
 40
20.0
100
AcDbArc
 50
288.5528618955654
 51
12.00000000001567
  0
ARC
  5
1101D
330
1F
100
AcDbEntity
  8
AM_0
100
AcDbCircle
 10
569.6524047054623
 20
332.6524077792819
 30
0.0
 40
27.99999999999998
100
AcDbArc
 50
298.6988856440321
 51
12.00000000001567
  0
ELLIPSE
  5
1101E
330
1F
100
AcDbEntity
  8
AM_0
100
AcDbEllipse
 10
579.7518187808925
 20
367.89985470694
 30
0.0
 11
8.175423163914651
 21
7.361184079895203
 31
0.0
210
0.0
220
0.0
230
1.0
 40
0.9998984660146593
 41
-0.5235108437009531
 42
0.5235108438009073
  0
ELLIPSE
  5
1101F
330
1F
100
AcDbEntity
  8
AM_0
100
AcDbEllipse
 10
560.2032901334419
 20
366.152103140596
 30
0.0
 11
-2.517598984167776
 21
3.108975828577752
 31
0.0
210
0.0
220
0.0
230
1.0
 40
0.999873919231028
 41
-0.5425865398248233
 42
0.68055507894631
  0
ELLIPSE
  5
11020
330
1F
100
AcDbEntity
  8
AM_0
100
AcDbEllipse
 10
579.1015192774936
 20
366.152103140596
 30
0.0
 11
2.51759898548902
 21
3.108975827507595
 31
0.0
210
0.0
220
0.0
230
0.9999999999999998
 40
0.9998739192309407
 41
-0.6805550785213219
 42
0.5425865402499133
  0
LINE
  5
11021
330
1F
100
AcDbEntity
  8
AM_0
100
AcDbLine
 10
542.264271013542
 20
338.473936897446
 30
0.0
 11
548.7927007005724
 21
370.1877670406598
 31
0.0
  0
LINE
  5
11022
330
1F
100
AcDbEntity
  8
AM_0
100
AcDbLine
 10
579.6524020360026
 20
368.152409982611
 30
0.0
 11
579.6524020360026
 21
370.1143937229408
 31
0.0
  0
LINE
  5
11023
330
1F
100
AcDbEntity
  8
AM_0
100
AcDbLine
 10
559.6524062083223
 20
370.1143937229408
 30
0.0
 11
559.6524062083223
 21
368.152409982611
 31
0.0
  0
ARC
  5
11024
330
1F
100
AcDbEntity
  8
AM_0
100
AcDbCircle
 10
569.6524047054623
 20
332.6524077792819
 30
0.0
 40
20.0
100
AcDbArc
 50
167.9999999999843
 51
251.4471381045511
  0
ARC
  5
11025
330
1F
100
AcDbEntity
  8
AM_0
100
AcDbCircle
 10
569.6524047054623
 20
332.6524077792819
 30
0.0
 40
27.99999999999998
100
AcDbArc
 50
167.9999999999843
 51
241.3011143559678
  0
ARC
  5
11026
330
1F
100
AcDbEntity
  8
AM_0
100
AcDbCircle
 10
569.6524047054623
 20
308.6524077792828
 30
0.0
 40
12.99999999999998
100
AcDbArc
 50
185.8933537042886
 51
354.1066462956854
  0
ARC
  5
11027
330
1F
100
AcDbEntity
  8
AM_0
100
AcDbCircle
 10
569.6524047054623
 20
308.6524077792828
 30
0.0
 40
5.0
100
AcDbArc
 50
180.0
 51
0.0
  0
ARC
  5
11028
330
1F
100
AcDbEntity
  8
AM_0
100
AcDbCircle
 10
569.6524047054623
 20
308.6524077792828
 30
0.0
 40
5.002933574754138
100
AcDbArc
 50
180.0
 51
0.0
  0
ARC
  5
11029
330
1F
100
AcDbEntity
  8
AM_0
100
AcDbCircle
 10
562.6490986613731
 20
311.7933737242579
 30
0.0
 40
2.000374760287884
100
AcDbArc
 50
0.0140197228394673
 51
71.42820705322559
  0
LINE
  5
1102A
330
1F
100
AcDbEntity
  8
AM_0
100
AcDbLine
 10
556.7211093829115
 20
307.3176600790812
 30
0.0
 11
556.7211168334921
 21
307.317604665388
 31
0.0
  0
SPLINE
  5
1102B
330
1F
100
AcDbEntity
  8
AM_0
100
AcDbSpline
210
0.0
220
0.0
230
1.0
 70
     8
 71
     3
 72
    10
 73
     6
 74
     0
 42
0.0000000001
 43
0.0000000001
 40
0.0
 40
0.0
 40
0.0
 40
0.0
 40
0.3024748699608323
 40
0.6512371276381316
 40
1.0
 40
1.0
 40
1.0
 40
1.0
 10
556.7211093829115
 20
307.3176600790812
 30
0.0
 10
556.7026366587429
 20
307.4133646263722
 30
0.0
 10
556.6628643503023
 20
307.6194192797302
 30
0.0
 10
556.4854421858232
 20
307.900852417974
 30
0.0
 10
556.2995985132126
 20
308.0283013878038
 30
0.0
 10
556.2066765950236
 20
308.0920259288741
 30
0.0
  0
LINE
  5
1102C
330
1F
100
AcDbEntity
  8
AM_0
100
AcDbLine
 10
563.2888155448123
 20
313.691797741777
 30
0.0
 11
563.2889571495613
 21
313.691750216758
 31
0.0
  0
LINE
  5
1102D
330
1F
100
AcDbEntity
  8
AM_0
100
AcDbLine
 10
564.6524014399525
 20
311.7958087294592
 30
0.0
 11
564.6524014399525
 21
308.6524078442949
 31
0.0
  0
LINE
  5
1102E
330
1F
100
AcDbEntity
  8
AM_0
100
AcDbLine
 10
564.6494733617725
 20
311.7938631966008
 30
0.0
 11
564.6494733617725
 21
308.6524078442949
 31
0.0
  0
LINE
  5
1102F
330
1F
100
AcDbEntity
  8
AM_0
100
AcDbLine
 10
564.6494733617725
 20
308.6524078442949
 30
0.0
 11
564.6524014399525
 21
308.6524078442949
 31
0.0
  0
LINE
  5
11030
330
1F
100
AcDbEntity
  8
AM_0
100
AcDbLine
 10
564.6524014399525
 20
311.7959735735549
 30
0.0
 11
564.6524014399525
 21
311.7958087294592
 31
0.0
  0
LWPOLYLINE
  5
11031
330
1F
100
AcDbEntity
  8
AM_0
100
AcDbPolyline
 90
        3
 70
   128
 43
0.0
 10
564.6524014399525
 20
311.7959735735549
 10
564.6512838528612
 20
311.795169842173
 10
564.6494733617725
 20
311.7938631966008
  0
LINE
  5
11032
330
1F
100
AcDbEntity
  8
AM_0
100
AcDbLine
 10
574.6524068043724
 20
311.7958087294592
 30
0.0
 11
574.6524068043724
 21
308.6524078442949
 31
0.0
  0
LINE
  5
11033
330
1F
100
AcDbEntity
  8
AM_0
100
AcDbLine
 10
574.6553348825433
 20
311.7938631966008
 30
0.0
 11
574.6553348825433
 21
308.6524078442949
 31
0.0
  0
LINE
  5
11034
330
1F
100
AcDbEntity
  8
AM_0
100
AcDbLine
 10
574.6553348825433
 20
308.6524078442949
 30
0.0
 11
574.6524068043724
 21
308.6524078442949
 31
0.0
  0
LINE
  5
11035
330
1F
100
AcDbEntity
  8
AM_0
100
AcDbLine
 10
576.0158522613725
 20
313.691750216758
 30
0.0
 11
576.0159938661232
 21
313.691797741777
 31
0.0
  0
LINE
  5
11036
330
1F
100
AcDbEntity
  8
AM_0
100
AcDbLine
 10
574.6524068043724
 20
311.7959735735549
 30
0.0
 11
574.6524068043724
 21
311.7958087294592
 31
0.0
  0
LWPOLYLINE
  5
11037
330
1F
100
AcDbEntity
  8
AM_0
100
AcDbPolyline
 90
        3
 70
   128
 43
0.0
 10
574.6524068043724
 20
311.7959735735549
 10
574.6535243914619
 20
311.795169842173
 10
574.6553348825433
 20
311.7938631966008
  0
ARC
  5
11038
330
1F
100
AcDbEntity
  8
AM_0
100
AcDbCircle
 10
576.6557095829426
 20
311.7933737242579
 30
0.0
 40
2.000374760287884
100
AcDbArc
 50
108.5717929467744
 51
179.9859802771605
  0
LINE
  5
11039
330
1F
100
AcDbEntity
  8
AM_0
100
AcDbLine
 10
582.5836988614025
 20
307.3176600790812
 30
0.0
 11
582.5836988614025
 21
307.317604665388
 31
0.0
  0
SPLINE
  5
1103A
330
1F
100
AcDbEntity
  8
AM_0
100
AcDbSpline
210
0.0
220
0.0
230
1.0
 70
     8
 71
     3
 72
    10
 73
     6
 74
     0
 42
0.0000000001
 43
0.0000000001
 40
0.0
 40
0.0
 40
0.0
 40
0.0
 40
0.3024748699608323
 40
0.6512371276381316
 40
1.0
 40
1.0
 40
1.0
 40
1.0
 10
582.5836988614025
 20
307.3176600790812
 30
0.0
 10
582.6021715855728
 20
307.4133646263722
 30
0.0
 10
582.6419438940225
 20
307.6194192797302
 30
0.0
 10
582.8193660585017
 20
307.900852417974
 30
0.0
 10
583.0052097311123
 20
308.0283013878038
 30
0.0
 10
583.0981316493013
 20
308.0920259288741
 30
0.0
  0
LINE
  5
1103B
330
1F
100
AcDbEntity
  8
AM_0
100
AcDbLine
 10
583.0981838033618
 20
308.0920538685518
 30
0.0
 11
583.0981316493013
 21
308.0920259288741
 31
0.0
  0
LINE
  5
1103C
330
1F
100
AcDbEntity
  8
AM_0
100
AcDbLine
 10
556.2904807255724
 20
366.9841738461751
 30
0.0
 11
550.0894519017235
 21
336.8106432079571
 31
0.0
  0
LINE
  5
1103D
330
1F
100
AcDbEntity
  8
AM_0
100
AcDbLine
 10
583.0143275187525
 20
366.9841738461751
 30
0.0
 11
589.2153563426033
 21
336.8106432079571
 31
0.0
  0
LINE
  5
1103E
330
1F
100
AcDbEntity
  8
AM_0
100
AcDbLine
 10
578.6524074600235
 20
367.1524079560541
 30
0.0
 11
560.652408234882
 21
367.1524079560541
 31
0.0
  0
ARC
  5
1103F
330
1F
100
AcDbEntity
  8
AM_0
100
AcDbCircle
 10
560.6524047054732
 20
368.1524077792819
 30
0.0
 40
1.0
100
AcDbArc
 50
180.0
 51
270.0
  0
LINE
  5
11040
330
1F
100
AcDbEntity
  8
AM_0
100
AcDbLine
 10
556.2905556214315
 20
366.9845371002411
 30
0.0
 11
556.2904786820432
 21
366.9841751837371
 31
0.0
  0
ARC
  5
11041
330
1F
100
AcDbEntity
  8
AM_0
100
AcDbCircle
 10
578.6524047054623
 20
368.1524077792819
 30
0.0
 40
1.0
100
AcDbArc
 50
270.0
 51
0.0
  0
ELLIPSE
  5
11042
330
1F
100
AcDbEntity
  8
AM_0
100
AcDbEllipse
 10
559.5529906300432
 20
367.89985470694
 30
0.0
 11
-8.175423163780875
 21
7.361184080043658
 31
0.0
210
0.0
220
0.0
230
1.0
 40
0.9998984660146966
 41
-0.5235108437827161
 42
0.523510843719103
  0
LINE
  5
11043
330
1F
100
AcDbEntity
  8
AM_0
100
AcDbLine
 10
548.7927007005724
 20
370.1877670406598
 30
0.0
 11
548.7928497121826
 21
370.188474845816
 31
0.0
  0
LINE
  5
11044
330
1F
100
AcDbEntity
  8
AM_0
100
AcDbLine
 10
560.9059589431723
 20
392.0059578537239
 30
0.0
 11
559.1988521144827
 21
390.2988510250348
 31
0.0
  0
LINE
  5
11045
330
1F
100
AcDbEntity
  8
AM_0
100
AcDbLine
 10
580.1059561298313
 20
390.2988510250348
 30
0.0
 11
578.3988493011435
 21
392.0059578537239
 31
0.0
  0
LINE
  5
11046
330
1F
100
AcDbEntity
  8
AM_0
100
AcDbLine
 10
579.5859726593931
 20
370.1524065851468
 30
0.0
 11
559.7188355849226
 21
370.1524065851468
 31
0.0
  0
LINE
  5
11047
330
1F
100
AcDbEntity
  8
AM_0
100
AcDbLine
 10
571.8524041102424
 20
389.1524078368438
 30
0.0
 11
580.2524047420517
 21
389.1524078368438
 31
0.0
  0
LINE
  5
11048
330
1F
100
AcDbEntity
  8
AM_0
100
AcDbLine
 10
576.948727898403
 20
385.6524081944717
 30
0.0
 11
572.0524074957826
 21
385.6524081944717
 31
0.0
  0
SPLINE
  5
11049
330
1F
100
AcDbEntity
  8
AM_0
100
AcDbSpline
210
0.0
220
0.0
230
1.0
 70
     8
 71
     3
 72
    15
 73
    11
 74
     0
 42
0.0000000001
 43
0.0000000001
 40
0.0
 40
0.0
 40
0.0
 40
0.0
 40
0.1342400856730974
 40
0.2684792969621194
 40
0.4027201865689852
 40
0.536959883998358
 40
0.6712067218394317
 40
0.8054539601848881
 40
0.9870466892121971
 40
1.0
 40
1.0
 40
1.0
 40
1.0
 10
556.288469068813
 20
378.4061150669349
 30
0.0
 10
556.4988560908438
 20
378.4862561385789
 30
0.0
 10
556.9196287645442
 20
378.6465377598629
 30
0.0
 10
557.4892777459223
 20
379.0155698357421
 30
0.0
 10
557.9909093154616
 20
379.4692518060688
 30
0.0
 10
558.4101227551524
 20
380.0012197308078
 30
0.0
 10
558.7324401148813
 20
380.5967658112099
 30
0.0
 10
558.9774900358021
 20
381.3120404093088
 30
0.0
 10
559.0505690162132
 20
381.8634913016321
 30
0.0
 10
559.0522959685018
 20
382.188992071925
 30
0.0
 10
559.0524109528538
 20
382.2106646417869
 30
0.0
  0
LINE
  5
1104A
330
1F
100
AcDbEntity
  8
AM_0
100
AcDbLine
 10
560.0479947851123
 20
370.1524065851468
 30
0.0
 11
560.2001728938118
 21
370.155342113902
 31
0.0
  0
LINE
  5
1104B
330
1F
100
AcDbEntity
  8
AM_0
100
AcDbLine
 10
560.2001728938118
 20
370.155342113902
 30
0.0
 11
560.2025496290222
 21
370.1524065851468
 31
0.0
  0
ELLIPSE
  5
1104C
330
1F
100
AcDbEntity
  8
AM_0
100
AcDbEllipse
 10
569.6524047054732
 20
370.1524077792819
 30
0.0
 11
8.600000000000022
 21
0.0000000000002087
 31
0.0
210
0.0
220
0.0
230
1.0
 40
0.0087268677907721
 41
2.988945925374144
 42
3.141592653587023
  0
LINE
  5
1104D
330
1F
100
AcDbEntity
  8
AM_0
100
AcDbLine
 10
561.1524017975822
 20
370.1752351640958
 30
0.0
 11
561.1524017975822
 21
370.1524065851468
 31
0.0
  0
LINE
  5
1104E
330
1F
100
AcDbEntity
  8
AM_0
100
AcDbLine
 10
556.1528536007823
 20
378.3620523332852
 30
0.0
 11
556.2884541676536
 21
378.4061076163548
 31
0.0
  0
LINE
  5
1104F
330
1F
100
AcDbEntity
  8
AM_0
100
AcDbLine
 10
556.1521681473728
 20
378.3618213652871
 30
0.0
 11
556.1528536007823
 21
378.3620523332852
 31
0.0
  0
SPLINE
  5
11050
330
1F
100
AcDbEntity
  8
AM_0
100
AcDbSpline
210
0.0
220
0.0
230
1.0
 70
    11
 71
     3
 72
    27
 73
    23
 74
     0
 42
0.0000000001
 43
0.0000000001
 40
0.0
 40
0.0
 40
0.0
 40
0.0
 40
0.053190837502511
 40
0.1063644588411779
 40
0.1599829458734431
 40
0.2139181760639307
 40
0.2673623781766122
 40
0.3202709806289082
 40
0.3734354276904858
 40
0.4272439893572347
 40
0.4810891067632594
 40
0.4999996709334277
 40
0.5531905084359387
 40
0.6063644557744308
 40
0.6599824399142228
 40
0.7139179319798159
 40
0.7673620942642306
 40
0.8202713499507698
 40
0.8734357970123472
 40
0.9272443586790963
 40
0.9810894760851207
 40
1.0
 40
1.0
 40
1.0
 40
1.0
 10
569.6524041221615
 20
378.9024056910766
 30
0.0
 10
569.4570990118823
 20
378.8833243975191
 30
0.0
 10
569.0665520053222
 20
378.8451679864038
 30
0.0
 10
568.545773984662
 20
378.5480433240373
 30
0.0
 10
568.1463228911231
 20
378.1084103740222
 30
0.0
 10
567.9149367407823
 20
377.5553539978437
 30
0.0
 10
567.8798851032821
 20
376.959314013307
 30
0.0
 10
568.0417607921222
 20
376.3883405972429
 30
0.0
 10
568.3813861118939
 20
375.9019239440827
 30
0.0
 10
568.8646127452718
 20
375.551958814609
 30
0.0
 10
569.3175009300226
 20
375.4181369226531
 30
0.0
 10
569.7774508388716
 20
375.3908238049307
 30
0.0
 10
570.2385614862629
 20
375.468429966068
 30
0.0
 10
570.7589483359821
 20
375.7544006535272
 30
0.0
 10
571.1585075960226
 20
376.1970479694383
 30
0.0
 10
571.3898774531732
 20
376.7492783208873
 30
0.0
 10
571.4249215572323
 20
377.345570122905
 30
0.0
 10
571.2630465907237
 20
377.9163733123642
 30
0.0
 10
570.9234337668436
 20
378.4032427054281
 30
0.0
 10
570.4401506259816
 20
378.7515574734312
 30
0.0
 10
569.987429218732
 20
378.890209967135
 30
0.0
 10
569.7215190467828
 20
378.8998897406309
 30
0.0
 10
569.6524041221615
 20
378.9024056910766
 30
0.0
  0
LINE
  5
11051
330
1F
100
AcDbEntity
  8
AM_0
100
AcDbLine
 10
559.0524035022732
 20
389.1524078368438
 30
0.0
 11
567.4524041340824
 21
389.1524078368438
 31
0.0
  0
LINE
  5
11052
330
1F
100
AcDbEntity
  8
AM_0
100
AcDbLine
 10
562.3560803459128
 20
385.6524081944717
 30
0.0
 11
567.2524081991229
 21
385.6524081944717
 31
0.0
  0
LINE
  5
11053
330
1F
100
AcDbEntity
  8
AM_0
100
AcDbLine
 10
561.1524017975822
 20
389.1524078368438
 30
0.0
 11
561.1524017975822
 21
385.6524081944717
 31
0.0
  0
LINE
  5
11054
330
1F
100
AcDbEntity
  8
AM_0
100
AcDbLine
 10
561.3004820869442
 20
385.6524081944717
 30
0.0
 11
559.9560844228723
 21
385.6524081944717
 31
0.0
  0
LINE
  5
11055
330
1F
100
AcDbEntity
  8
AM_0
100
AcDbLine
 10
559.931549660963
 20
382.4524061798352
 30
0.0
 11
561.1315476224932
 21
382.4524061798352
 31
0.0
  0
SPLINE
  5
11056
330
1F
100
AcDbEntity
  8
AM_0
100
AcDbSpline
210
0.0
220
0.0
230
1.0
 70
     8
 71
     3
 72
    12
 73
     8
 74
     0
 42
0.0000000001
 43
0.0000000001
 40
0.0
 40
0.0
 40
0.0
 40
0.0
 40
0.2224642550582935
 40
0.4450335550800851
 40
0.6642561061077418
 40
0.8776088832847314
 40
1.0
 40
1.0
 40
1.0
 40
1.0
 10
559.9560844228723
 20
385.6524081944717
 30
0.0
 10
559.9049324860621
 20
385.6466634154108
 30
0.0
 10
559.8026044591039
 20
385.6351711446723
 30
0.0
 10
559.6667586613326
 20
385.5451272735759
 30
0.0
 10
559.5663620623524
 20
385.4133471631067
 30
0.0
 10
559.5172089699132
 20
385.2736070157498
 30
0.0
 10
559.5126053307827
 20
385.1847858092251
 30
0.0
 10
559.5109271333727
 20
385.1524071811927
 30
0.0
  0
LINE
  5
11057
330
1F
100
AcDbEntity
  8
AM_0
100
AcDbLine
 10
559.5524045155522
 20
385.6524081944717
 30
0.0
 11
559.9560844228723
 21
385.6524081944717
 31
0.0
  0
ARC
  5
11058
330
1F
100
AcDbEntity
  8
AM_0
100
AcDbCircle
 10
559.5524047054619
 20
385.1524077792819
 30
0.0
 40
0.5
100
AcDbArc
 50
90.0
 51
180.0
  0
LINE
  5
11059
330
1F
100
AcDbEntity
  8
AM_0
100
AcDbLine
 10
559.5109271333727
 20
385.1524071811927
 30
0.0
 11
559.5109271333727
 21
383.6524041413559
 31
0.0
  0
LINE
  5
1105A
330
1F
100
AcDbEntity
  8
AM_0
100
AcDbLine
 10
559.0524035022732
 20
385.1524071811927
 30
0.0
 11
559.0524035022732
 21
382.210977566172
 31
0.0
  0
ELLIPSE
  5
1105B
330
1F
100
AcDbEntity
  8
AM_0
100
AcDbEllipse
 10
569.6524047054732
 20
386.95480816196
 30
0.0
 11
10.59952876819905
 21
4.746143309354986
 31
0.0
210
0.0
220
0.0
230
0.9999999999999998
 40
0.021059087650206
 41
3.133359080520137
 42
3.148456782041151
  0
SPLINE
  5
1105C
330
1F
100
AcDbEntity
  8
AM_0
100
AcDbSpline
210
0.0
220
0.0
230
1.0
 70
     8
 71
     3
 72
    13
 73
     9
 74
     0
 42
0.0000000001
 43
0.0000000001
 40
0.0
 40
0.0
 40
0.0
 40
0.0
 40
0.1442953361041094
 40
0.3522100091917457
 40
0.5632040336883214
 40
0.7789635683386839
 40
0.9967937324363282
 40
0.9999999999999998
 40
0.9999999999999998
 40
0.9999999999999998
 40
0.9999999999999998
 10
559.5109271333727
 20
383.6524041413559
 30
0.0
 10
559.5127587775529
 20
383.5613409046368
 30
0.0
 10
559.517229631772
 20
383.339064950972
 30
0.0
 10
559.5605432764529
 20
383.0060565505669
 30
0.0
 10
559.6458016418942
 20
382.7033281360209
 30
0.0
 10
559.770067379393
 20
382.5016508919289
 30
0.0
 10
559.8752614267229
 20
382.4526329894229
 30
0.0
 10
559.930744840383
 20
382.4524094228041
 30
0.0
 10
559.931549660963
 20
382.4524061798352
 30
0.0
  0
LINE
  5
1105D
330
1F
100
AcDbEntity
  8
AM_0
100
AcDbLine
 10
559.0524035022732
 20
382.210977566172
 30
0.0
 11
559.0524035022732
 21
382.2105007290138
 31
0.0
  0
LINE
  5
1105E
330
1F
100
AcDbEntity
  8
AM_0
100
AcDbLine
 10
561.3004820869442
 20
383.6524041413559
 30
0.0
 11
561.3004820869442
 21
385.6524081944717
 31
0.0
  0
SPLINE
  5
1105F
330
1F
100
AcDbEntity
  8
AM_0
100
AcDbSpline
210
0.0
220
0.0
230
1.0
 70
     8
 71
     3
 72
    11
 73
     7
 74
     0
 42
0.0000000001
 43
0.0000000001
 40
0.0
 40
0.0
 40
0.0
 40
0.0
 40
0.2651715875892639
 40
0.5880517581800533
 40
0.903943630094146
 40
1.0
 40
1.0
 40
1.0
 40
1.0
 10
561.4794226811424
 20
382.6084809421786
 30
0.0
 10
561.4494122782831
 20
382.6672812764769
 30
0.0
 10
561.382860388912
 20
382.7976785044739
 30
0.0
 10
561.3251543141228
 20
383.1263083129402
 30
0.0
 10
561.3021767745627
 20
383.4340262200121
 30
0.0
 10
561.3008025280119
 20
383.6111120154428
 30
0.0
 10
561.3004820869442
 20
383.6524041413559
 30
0.0
  0
SPLINE
  5
11060
330
1F
100
AcDbEntity
  8
AM_0
100
AcDbSpline
210
0.0
220
0.0
230
1.0
 70
     8
 71
     3
 72
    12
 73
     8
 74
     0
 42
0.0000000001
 43
0.0000000001
 40
0.0
 40
0.0
 40
0.0
 40
0.0
 40
0.2075443089644129
 40
0.4149956787548483
 40
0.6247659325089368
 40
0.8397472004965047
 40
0.9999999999999998
 40
0.9999999999999998
 40
0.9999999999999998
 40
0.9999999999999998
 10
561.9109305069938
 20
385.1524071811927
 30
0.0
 10
561.9156638800519
 20
385.20752386503
 30
0.0
 10
561.9251285065616
 20
385.317732551232
 30
0.0
 10
561.9987134414038
 20
385.4649969922389
 30
0.0
 10
562.1075429975422
 20
385.5780428247649
 30
0.0
 10
562.2332603381943
 20
385.6423527074781
 30
0.0
 10
562.3193245423932
 20
385.6493989331052
 30
0.0
 10
562.3560803459128
 20
385.6524081944717
 30
0.0
  0
LINE
  5
11061
330
1F
100
AcDbEntity
  8
AM_0
100
AcDbLine
 10
561.9109305069938
 20
383.6524041413559
 30
0.0
 11
561.9109305069938
 21
385.1524071811927
 31
0.0
  0
SPLINE
  5
11062
330
1F
100
AcDbEntity
  8
AM_0
100
AcDbSpline
210
0.0
220
0.0
230
1.0
 70
     8
 71
     3
 72
    12
 73
     8
 74
     0
 42
0.0000000001
 43
0.0000000001
 40
0.0
 40
0.0
 40
0.0
 40
0.0
 40
0.2103069506345876
 40
0.4262052656584677
 40
0.6440335641950511
 40
0.8601537119585163
 40
1.0
 40
1.0
 40
1.0
 40
1.0
 10
561.1315476224932
 20
382.4524061798352
 30
0.0
 10
561.2118705490316
 20
382.4651509228238
 30
0.0
 10
561.3746519223728
 20
382.4909792492517
 30
0.0
 10
561.6085936313717
 20
382.694263052108
 30
0.0
 10
561.7946865838035
 20
382.9992307860407
 30
0.0
 10
561.8964963824433
 20
383.3396607766608
 30
0.0
 10
561.9068592949312
 20
383.564193418721
 30
0.0
 10
561.9109305069938
 20
383.6524041413559
 30
0.0
  0
LINE
  5
11063
330
1F
100
AcDbEntity
  8
AM_0
100
AcDbLine
 10
559.0524035022732
 20
389.945298623969
 30
0.0
 11
559.0524035022732
 21
389.1524078368438
 31
0.0
  0
ARC
  5
11064
330
1F
100
AcDbEntity
  8
AM_0
100
AcDbCircle
 10
559.5524047054619
 20
389.9453009980957
 30
0.0
 40
0.5
100
AcDbArc
 50
135.0000000000181
 51
180.0
  0
SPLINE
  5
11065
330
1F
100
AcDbEntity
  8
AM_0
100
AcDbSpline
210
0.0
220
0.0
230
1.0
 70
     8
 71
     3
 72
    12
 73
     8
 74
     0
 42
0.0000000001
 43
0.0000000001
 40
0.0
 40
0.0
 40
0.0
 40
0.0
 40
0.2105802109662034
 40
0.4210624887067515
 40
0.6341398041422523
 40
0.8507098093972539
 40
1.0
 40
1.0
 40
1.0
 40
1.0
 10
567.4524041340824
 20
387.3524071692718
 30
0.0
 10
567.4653272421725
 20
387.2193628945047
 30
0.0
 10
567.4911674482733
 20
386.9533362190409
 30
0.0
 10
567.6922841603624
 20
386.59776131533
 30
0.0
 10
567.9903855879435
 20
386.3253059841682
 30
0.0
 10
568.3295724859123
 20
386.1748466078411
 30
0.0
 10
568.5588463199925
 20
386.1589115492502
 30
0.0
 10
568.6524020956018
 20
386.1524092077512
 30
0.0
  0
SPLINE
  5
11066
330
1F
100
AcDbEntity
  8
AM_0
100
AcDbSpline
210
0.0
220
0.0
230
1.0
 70
     8
 71
     3
 72
    12
 73
     8
 74
     0
 42
0.0000000001
 43
0.0000000001
 40
0.0
 40
0.0
 40
0.0
 40
0.0
 40
0.2159000845318164
 40
0.4317353505324416
 40
0.6488716350138147
 40
0.8647711145598911
 40
0.9999999999999998
 40
0.9999999999999998
 40
0.9999999999999998
 40
0.9999999999999998
 10
570.6524061487231
 20
386.1524092077512
 30
0.0
 10
570.7880335747737
 20
386.1658458442039
 30
0.0
 10
571.0592477081823
 20
386.1927150831011
 30
0.0
 10
571.4195889750023
 20
386.4011794026101
 30
0.0
 10
571.6914769281335
 20
386.7081689321708
 30
0.0
 10
571.8329455442941
 20
387.0461494322831
 30
0.0
 10
571.8469937659225
 20
387.2672539359351
 30
0.0
 10
571.8524041102424
 20
387.3524071692718
 30
0.0
  0
LINE
  5
11067
330
1F
100
AcDbEntity
  8
AM_0
100
AcDbLine
 10
568.452406160644
 20
382.4524061798352
 30
0.0
 11
570.8524020836827
 21
382.4524061798352
 31
0.0
  0
SPLINE
  5
11068
330
1F
100
AcDbEntity
  8
AM_0
100
AcDbSpline
210
0.0
220
0.0
230
1.0
 70
    24
 71
     3
 72
    12
 73
     8
 74
     0
 42
0.0000000001
 43
0.0000000001
 40
0.0
 40
0.0
 40
0.0
 40
0.0
 40
0.2224586193176896
 40
0.4450329307841764
 40
0.6642564381432973
 40
0.8776092673112088
 40
1.0
 40
1.0
 40
1.0
 40
1.0
 10
567.2524081991229
 20
385.6524081944717
 30
0.0
 10
567.2524081991229
 20
385.646662947735
 30
0.0
 10
567.2524081991229
 20
385.6351694663799
 30
0.0
 10
567.2524081991229
 20
385.5451285092472
 30
0.0
 10
567.2524081991229
 20
385.413347365783
 30
0.0
 10
567.2524081991229
 20
385.2736072799039
 30
0.0
 10
567.2524081991229
 20
385.1847858288079
 30
0.0
 10
567.2524081991229
 20
385.1524071811927
 30
0.0
  0
SPLINE
  5
11069
330
1F
100
AcDbEntity
  8
AM_0
100
AcDbSpline
210
0.0
220
0.0
230
1.0
 70
     8
 71
     3
 72
    12
 73
     8
 74
     0
 42
0.0000000001
 43
0.0000000001
 40
0.0
 40
0.0
 40
0.0
 40
0.0
 40
0.2096516105512975
 40
0.4191925812806952
 40
0.6317558771779203
 40
0.8486288490026819
 40
1.0
 40
1.0
 40
1.0
 40
1.0
 10
567.2524081991229
 20
383.6524041413559
 30
0.0
 10
567.2652617612818
 20
383.5197480057336
 30
0.0
 10
567.2909621023733
 20
383.2545057413508
 30
0.0
 10
567.4908734108827
 20
382.899809026294
 30
0.0
 10
567.7875387363725
 20
382.6272315574747
 30
0.0
 10
568.126973770211
 20
382.4753221712663
 30
0.0
 10
568.3576031823737
 20
382.4590819266309
 30
0.0
 10
568.452406160644
 20
382.4524061798352
 30
0.0
  0
LINE
  5
1106A
330
1F
100
AcDbEntity
  8
AM_0
100
AcDbLine
 10
567.2524081991229
 20
385.1524071811927
 30
0.0
 11
567.2524081991229
 21
383.6524041413559
 31
0.0
  0
LINE
  5
1106B
330
1F
100
AcDbEntity
  8
AM_0
100
AcDbLine
 10
568.6524020956018
 20
386.1524092077512
 30
0.0
 11
570.6524061487231
 21
386.1524092077512
 31
0.0
  0
SPLINE
  5
1106C
330
1F
100
AcDbEntity
  8
AM_0
100
AcDbSpline
210
0.0
220
0.0
230
1.0
 70
    24
 71
     3
 72
    12
 73
     8
 74
     0
 42
0.0000000001
 43
0.0000000001
 40
0.0
 40
0.0
 40
0.0
 40
0.0
 40
0.2224586193176896
 40
0.4450329307841764
 40
0.6642564381432973
 40
0.8776092673112088
 40
1.0
 40
1.0
 40
1.0
 40
1.0
 10
572.0524074957826
 20
385.6524081944717
 30
0.0
 10
572.0524074957826
 20
385.646662947735
 30
0.0
 10
572.0524074957826
 20
385.6351694663799
 30
0.0
 10
572.0524074957826
 20
385.5451285092472
 30
0.0
 10
572.0524074957826
 20
385.413347365783
 30
0.0
 10
572.0524074957826
 20
385.2736072799039
 30
0.0
 10
572.0524074957826
 20
385.1847858288079
 30
0.0
 10
572.0524074957826
 20
385.1524071811927
 30
0.0
  0
LINE
  5
1106D
330
1F
100
AcDbEntity
  8
AM_0
100
AcDbLine
 10
572.0524074957826
 20
385.1524071811927
 30
0.0
 11
572.0524074957826
 21
383.6524041413559
 31
0.0
  0
SPLINE
  5
1106E
330
1F
100
AcDbEntity
  8
AM_0
100
AcDbSpline
210
0.0
220
0.0
230
1.0
 70
     8
 71
     3
 72
    12
 73
     8
 74
     0
 42
0.0000000001
 43
0.0000000001
 40
0.0
 40
0.0
 40
0.0
 40
0.0
 40
0.2096510079034625
 40
0.4191913763030616
 40
0.6317569357031695
 40
0.8486292841221461
 40
1.0
 40
1.0
 40
1.0
 40
1.0
 10
572.0524074957826
 20
383.6524041413559
 30
0.0
 10
572.0395538405115
 20
383.519748103342
 30
0.0
 10
572.0138533132518
 20
383.254506034124
 30
0.0
 10
571.813942497563
 20
382.8998062349929
 30
0.0
 10
571.5172697544946
 20
382.627233829241
 30
0.0
 10
571.1778347114228
 20
382.4753219196168
 30
0.0
 10
570.9472051310818
 20
382.459081853322
 30
0.0
 10
570.8524020836827
 20
382.4524061798352
 30
0.0
  0
LINE
  5
1106F
330
1F
100
AcDbEntity
  8
AM_0
100
AcDbLine
 10
567.4524041340824
 20
389.1524078368438
 30
0.0
 11
567.4524041340824
 21
387.3524071692718
 31
0.0
  0
LINE
  5
11070
330
1F
100
AcDbEntity
  8
AM_0
100
AcDbLine
 10
571.8524041102424
 20
387.3524071692718
 30
0.0
 11
571.8524041102424
 21
389.1524078368438
 31
0.0
  0
SPLINE
  5
11071
330
1F
100
AcDbEntity
  8
AM_0
100
AcDbSpline
210
0.0
220
0.0
230
1.0
 70
     8
 71
     3
 72
    15
 73
    11
 74
     0
 42
0.0000000001
 43
0.0000000001
 40
0.0
 40
0.0
 40
0.0
 40
0.0
 40
0.1323222055744279
 40
0.2684818896339857
 40
0.4008044275562407
 40
0.5369650614541227
 40
0.6692947882991475
 40
0.8054616955154148
 40
0.9870472042478175
 40
1.0
 40
1.0
 40
1.0
 40
1.0
 10
583.0163391755119
 20
378.4061150669349
 30
0.0
 10
582.8088183952037
 20
378.4847761306651
 30
0.0
 10
582.3877585209935
 20
378.6443795089417
 30
0.0
 10
581.8208522461733
 20
379.0119497098249
 30
0.0
 10
581.3155774105122
 20
379.4662965177417
 30
0.0
 10
580.8985222663319
 20
379.9960776970411
 30
0.0
 10
580.5730248595733
 20
380.5934295496527
 30
0.0
 10
580.3280046799024
 20
381.3089397133258
 30
0.0
 10
580.2542354922421
 20
381.8634894517668
 30
0.0
 10
580.2525120426031
 20
382.188991956446
 30
0.0
 10
580.2523972914729
 20
382.2106646417869
 30
0.0
  0
LINE
  5
11072
330
1F
100
AcDbEntity
  8
AM_0
100
AcDbLine
 10
579.2568134592035
 20
370.1524065851468
 30
0.0
 11
579.1046353505113
 21
370.155342113902
 31
0.0
  0
LINE
  5
11073
330
1F
100
AcDbEntity
  8
AM_0
100
AcDbLine
 10
583.1526475475326
 20
378.3618213652871
 30
0.0
 11
583.1519546435316
 21
378.3620523332852
 31
0.0
  0
LINE
  5
11074
330
1F
100
AcDbEntity
  8
AM_0
100
AcDbLine
 10
583.1519546435316
 20
378.3620523332852
 30
0.0
 11
583.0163615272518
 21
378.4061076163548
 31
0.0
  0
LINE
  5
11075
330
1F
100
AcDbEntity
  8
AM_0
100
AcDbLine
 10
583.0163615272518
 20
378.4061076163548
 30
0.0
 11
583.0163391755119
 21
378.4061150669349
 31
0.0
  0
LINE
  5
11076
330
1F
100
AcDbEntity
  8
AM_0
100
AcDbLine
 10
578.1524064467427
 20
385.6524081944717
 30
0.0
 11
578.1524064467427
 21
389.1524078368438
 31
0.0
  0
SPLINE
  5
11077
330
1F
100
AcDbEntity
  8
AM_0
100
AcDbSpline
210
0.0
220
0.0
230
1.0
 70
     8
 71
     3
 72
    12
 73
     8
 74
     0
 42
0.0000000001
 43
0.0000000001
 40
0.0
 40
0.0
 40
0.0
 40
0.0
 40
0.2075443089644129
 40
0.4149956787548483
 40
0.6247659325089368
 40
0.8397472004965047
 40
0.9999999999999998
 40
0.9999999999999998
 40
0.9999999999999998
 40
0.9999999999999998
 10
577.393877737331
 20
385.1524071811927
 30
0.0
 10
577.389144364262
 20
385.20752386503
 30
0.0
 10
577.3796797377614
 20
385.317732551232
 30
0.0
 10
577.306094802923
 20
385.4649969922389
 30
0.0
 10
577.1972652467826
 20
385.5780428247649
 30
0.0
 10
577.0715479061323
 20
385.6423527074781
 30
0.0
 10
576.9854837019335
 20
385.6493989331052
 30
0.0
 10
576.948727898403
 20
385.6524081944717
 30
0.0
  0
LINE
  5
11078
330
1F
100
AcDbEntity
  8
AM_0
100
AcDbLine
 10
578.0043261573734
 20
385.6524081944717
 30
0.0
 11
579.3487238214526
 21
385.6524081944717
 31
0.0
  0
SPLINE
  5
11079
330
1F
100
AcDbEntity
  8
AM_0
100
AcDbSpline
210
0.0
220
0.0
230
1.0
 70
     8
 71
     3
 72
    12
 73
     8
 74
     0
 42
0.0000000001
 43
0.0000000001
 40
0.0
 40
0.0
 40
0.0
 40
0.0
 40
0.2224632427753143
 40
0.4450315300361389
 40
0.6642584442746302
 40
0.8776102506287575
 40
1.0
 40
1.0
 40
1.0
 40
1.0
 10
579.3487238214526
 20
385.6524081944717
 30
0.0
 10
579.3998758944832
 20
385.6466635217667
 30
0.0
 10
579.5022041939424
 20
385.6351714637922
 30
0.0
 10
579.6380490537427
 20
385.5451252777011
 30
0.0
 10
579.7384536182232
 20
385.4133494635016
 30
0.0
 10
579.7876101238722
 20
385.2736074042759
 30
0.0
 10
579.7922058171531
 20
385.1847858131741
 30
0.0
 10
579.7938811109522
 20
385.1524071811927
 30
0.0
  0
ARC
  5
1107A
330
1F
100
AcDbEntity
  8
AM_0
100
AcDbCircle
 10
579.7524047054626
 20
385.1524077792819
 30
0.0
 40
0.5
100
AcDbArc
 50
0.0
 51
90.0
  0
LINE
  5
1107B
330
1F
100
AcDbEntity
  8
AM_0
100
AcDbLine
 10
579.7524037287727
 20
385.6524081944717
 30
0.0
 11
579.3487238214526
 21
385.6524081944717
 31
0.0
  0
SPLINE
  5
1107C
330
1F
100
AcDbEntity
  8
AM_0
100
AcDbSpline
210
0.0
220
0.0
230
1.0
 70
     8
 71
     3
 72
    11
 73
     7
 74
     0
 42
0.0000000001
 43
0.0000000001
 40
0.0
 40
0.0
 40
0.0
 40
0.0
 40
0.2651705420013533
 40
0.5880511720185846
 40
0.9039434934154638
 40
1.0
 40
1.0
 40
1.0
 40
1.0
 10
577.8253930137631
 20
382.6084809421786
 30
0.0
 10
577.8554003474524
 20
382.6672814067729
 30
0.0
 10
577.9219456266234
 20
382.7976793079088
 30
0.0
 10
577.9796546081121
 20
383.1263082293158
 30
0.0
 10
578.0026314278235
 20
383.4340262251849
 30
0.0
 10
578.0040057083821
 20
383.611112016421
 30
0.0
 10
578.0043261573734
 20
383.6524041413559
 30
0.0
  0
LINE
  5
1107D
330
1F
100
AcDbEntity
  8
AM_0
100
AcDbLine
 10
578.0043261573734
 20
383.6524041413559
 30
0.0
 11
578.0043261573734
 21
385.6524081944717
 31
0.0
  0
ELLIPSE
  5
1107E
330
1F
100
AcDbEntity
  8
AM_0
100
AcDbEllipse
 10
569.6524047054732
 20
386.95480816196
 30
0.0
 11
-10.59952876819692
 21
4.746143309354869
 31
0.0
210
0.0
220
0.0
230
0.9999999999999998
 40
0.0210590876472438
 41
3.134728525140741
 42
3.149826226662908
  0
LINE
  5
1107F
330
1F
100
AcDbEntity
  8
AM_0
100
AcDbLine
 10
580.2524047420517
 20
385.1524071811927
 30
0.0
 11
580.2524047420517
 21
382.210977566172
 31
0.0
  0
LINE
  5
11080
330
1F
100
AcDbEntity
  8
AM_0
100
AcDbLine
 10
579.7938811109522
 20
385.1524071811927
 30
0.0
 11
579.7938811109522
 21
383.6524041413559
 31
0.0
  0
SPLINE
  5
11081
330
1F
100
AcDbEntity
  8
AM_0
100
AcDbSpline
210
0.0
220
0.0
230
1.0
 70
     8
 71
     3
 72
    13
 73
     9
 74
     0
 42
0.0000000001
 43
0.0000000001
 40
0.0
 40
0.0
 40
0.0
 40
0.0
 40
0.1442953361041094
 40
0.3522100091917457
 40
0.5632040336883214
 40
0.7789635683386839
 40
0.9967937324363282
 40
0.9999999999999998
 40
0.9999999999999998
 40
0.9999999999999998
 40
0.9999999999999998
 10
579.7938811109522
 20
383.6524041413559
 30
0.0
 10
579.792049466772
 20
383.5613409046368
 30
0.0
 10
579.7875786125437
 20
383.339064950972
 30
0.0
 10
579.7442649678611
 20
383.0060565505669
 30
0.0
 10
579.6590066024324
 20
382.7033281360209
 30
0.0
 10
579.5347408649319
 20
382.5016508919289
 30
0.0
 10
579.429546817602
 20
382.4526329894229
 30
0.0
 10
579.3740634039328
 20
382.4524094228041
 30
0.0
 10
579.3732585833528
 20
382.4524061798352
 30
0.0
  0
LINE
  5
11082
330
1F
100
AcDbEntity
  8
AM_0
100
AcDbLine
 10
579.3732585833528
 20
382.4524061798352
 30
0.0
 11
578.1732606218334
 21
382.4524061798352
 31
0.0
  0
SPLINE
  5
11083
330
1F
100
AcDbEntity
  8
AM_0
100
AcDbSpline
210
0.0
220
0.0
230
1.0
 70
     8
 71
     3
 72
    12
 73
     8
 74
     0
 42
0.0000000001
 43
0.0000000001
 40
0.0
 40
0.0
 40
0.0
 40
0.0
 40
0.210307102677496
 40
0.4262055737866011
 40
0.6440322708792186
 40
0.8601536108556461
 40
0.9999999999999998
 40
0.9999999999999998
 40
0.9999999999999998
 40
0.9999999999999998
 10
578.1732606218334
 20
382.4524061798352
 30
0.0
 10
578.0929379286622
 20
382.4651510155291
 30
0.0
 10
577.9301570282947
 20
382.4909795298331
 30
0.0
 10
577.6962123277932
 20
382.694261335379
 30
0.0
 10
577.5101333322033
 20
382.9992338674728
 30
0.0
 10
577.4083101671618
 20
383.3396596376679
 30
0.0
 10
577.3979484628831
 20
383.564193281773
 30
0.0
 10
577.393877737331
 20
383.6524041413559
 30
0.0
  0
LINE
  5
11084
330
1F
100
AcDbEntity
  8
AM_0
100
AcDbLine
 10
577.393877737331
 20
383.6524041413559
 30
0.0
 11
577.393877737331
 21
385.1524071811927
 31
0.0
  0
LINE
  5
11085
330
1F
100
AcDbEntity
  8
AM_0
100
AcDbLine
 10
580.2524047420517
 20
382.2105007290138
 30
0.0
 11
580.2524047420517
 21
382.210977566172
 31
0.0
  0
LINE
  5
11086
330
1F
100
AcDbEntity
  8
AM_0
100
AcDbLine
 10
580.2524047420517
 20
389.1524078368438
 30
0.0
 11
580.2524047420517
 21
389.945298623969
 31
0.0
  0
ARC
  5
11087
330
1F
100
AcDbEntity
  8
AM_0
100
AcDbCircle
 10
579.7524047054626
 20
389.9453009980957
 30
0.0
 40
0.500000000000004
100
AcDbArc
 50
0.0
 51
44.99999999998183
  0
LINE
  5
11088
330
1F
100
AcDbEntity
  8
AM_0
100
AcDbLine
 10
561.2595113442436
 20
392.152406465937
 30
0.0
 11
578.0452969000813
 21
392.152406465937
 31
0.0
  0
ARC
  5
11089
330
1F
100
AcDbEntity
  8
AM_0
100
AcDbCircle
 10
561.259511486654
 20
391.6524077792819
 30
0.0
 40
0.5000000000000444
100
AcDbArc
 50
90.0
 51
135.0000000000181
  0
ARC
  5
1108A
330
1F
100
AcDbEntity
  8
AM_0
100
AcDbCircle
 10
578.0452979242832
 20
391.6524077792819
 30
0.0
 40
0.500000000000004
100
AcDbArc
 50
44.99999999998183
 51
90.0
  0
LINE
  5
1108B
330
1F
100
AcDbEntity
  8
AM_0
100
AcDbLine
 10
597.0405372307737
 20
338.473936897446
 30
0.0
 11
590.5121075437524
 21
370.1877670406598
 31
0.0
  0
LINE
  5
1108C
330
1F
100
AcDbEntity
  8
AM_0
100
AcDbLine
 10
590.5121075437524
 20
370.1877670406598
 30
0.0
 11
590.5119585321423
 21
370.188474845816
 31
0.0
  0
ARC
  5
1108D
330
1F
100
AcDbEntity
  8
AM_0
100
AcDbCircle
 10
569.6524052887631
 20
167.6524077792819
 30
0.0
 40
20.0
100
AcDbArc
 50
288.5528618955654
 51
12.00000000001567
  0
ARC
  5
1108E
330
1F
100
AcDbEntity
  8
AM_0
100
AcDbCircle
 10
569.6524052887631
 20
167.6524077792819
 30
0.0
 40
27.99999999999998
100
AcDbArc
 50
298.6988856440321
 51
12.00000000001567
  0
ELLIPSE
  5
1108F
330
1F
100
AcDbEntity
  8
AM_0
100
AcDbEllipse
 10
579.7518193641932
 20
202.89985470694
 30
0.0
 11
8.175423164385428
 21
7.361184079372227
 31
0.0
210
0.0
220
0.0
230
1.0
 40
0.9998984660147254
 41
-0.5235108436369407
 42
0.5235108438648349
  0
ELLIPSE
  5
11090
330
1F
100
AcDbEntity
  8
AM_0
100
AcDbEllipse
 10
560.2032907167427
 20
201.1521031405973
 30
0.0
 11
-2.517598984603304
 21
3.108975828224909
 31
0.0
210
0.0
220
0.0
230
0.9999999999999998
 40
0.9998739192309928
 41
-0.5425865399649517
 42
0.6805550788062052
  0
ELLIPSE
  5
11091
330
1F
100
AcDbEntity
  8
AM_0
100
AcDbEllipse
 10
579.1015198607834
 20
201.1521031405973
 30
0.0
 11
2.517598985013735
 21
3.108975827892702
 31
0.0
210
0.0
220
0.0
230
1.0
 40
0.9998739192309058
 41
-0.6805550786741982
 42
0.5425865400970445
  0
LINE
  5
11092
330
1F
100
AcDbEntity
  8
AM_0
100
AcDbLine
 10
542.2642715968428
 20
173.4739368974469
 30
0.0
 11
548.7927012838732
 21
205.1877670406602
 31
0.0
  0
LINE
  5
11093
330
1F
100
AcDbEntity
  8
AM_0
100
AcDbLine
 10
579.6524026193034
 20
203.152409982612
 30
0.0
 11
579.6524026193034
 21
205.1143937229408
 31
0.0
  0
LINE
  5
11094
330
1F
100
AcDbEntity
  8
AM_0
100
AcDbLine
 10
559.6524067916231
 20
205.1143937229408
 30
0.0
 11
559.6524067916231
 21
203.152409982612
 31
0.0
  0
ARC
  5
11095
330
1F
100
AcDbEntity
  8
AM_0
100
AcDbCircle
 10
569.6524052887631
 20
167.6524077792819
 30
0.0
 40
20.0
100
AcDbArc
 50
167.9999999999843
 51
251.4471381045511
  0
ARC
  5
11096
330
1F
100
AcDbEntity
  8
AM_0
100
AcDbCircle
 10
569.6524052887631
 20
167.6524077792819
 30
0.0
 40
27.99999999999998
100
AcDbArc
 50
167.9999999999843
 51
241.3011143559678
  0
ARC
  5
11097
330
1F
100
AcDbEntity
  8
AM_0
100
AcDbCircle
 10
569.6524052887631
 20
143.6524077792828
 30
0.0
 40
12.99999999999998
100
AcDbArc
 50
185.8933537042886
 51
354.1066462956854
  0
ARC
  5
11098
330
1F
100
AcDbEntity
  8
AM_0
100
AcDbCircle
 10
569.6524052887631
 20
143.6524077792828
 30
0.0
 40
5.0
100
AcDbArc
 50
180.0
 51
0.0
  0
ARC
  5
11099
330
1F
100
AcDbEntity
  8
AM_0
100
AcDbCircle
 10
569.6524052887631
 20
143.6524077792828
 30
0.0
 40
5.002933574754138
100
AcDbArc
 50
180.0
 51
0.0
  0
ARC
  5
1109A
330
1F
100
AcDbEntity
  8
AM_0
100
AcDbCircle
 10
562.6490992446739
 20
146.7933737242583
 30
0.0
 40
2.000374760287884
100
AcDbArc
 50
0.0140197228394673
 51
71.42820705322559
  0
LINE
  5
1109B
330
1F
100
AcDbEntity
  8
AM_0
100
AcDbLine
 10
556.7211099662123
 20
142.3176600790821
 30
0.0
 11
556.7211174167929
 21
142.317604665388
 31
0.0
  0
SPLINE
  5
1109C
330
1F
100
AcDbEntity
  8
AM_0
100
AcDbSpline
210
0.0
220
0.0
230
1.0
 70
     8
 71
     3
 72
    10
 73
     6
 74
     0
 42
0.0000000001
 43
0.0000000001
 40
0.0
 40
0.0
 40
0.0
 40
0.0
 40
0.3024748699608323
 40
0.6512371276381316
 40
1.0
 40
1.0
 40
1.0
 40
1.0
 10
556.7211099662123
 20
142.3176600790821
 30
0.0
 10
556.7026372420437
 20
142.4133646263722
 30
0.0
 10
556.6628649336031
 20
142.6194192797311
 30
0.0
 10
556.485442769124
 20
142.9008524179753
 30
0.0
 10
556.2995990965133
 20
143.0283013878042
 30
0.0
 10
556.2066771783244
 20
143.092025928875
 30
0.0
  0
LINE
  5
1109D
330
1F
100
AcDbEntity
  8
AM_0
100
AcDbLine
 10
563.2888161281131
 20
148.691797741777
 30
0.0
 11
563.288957732862
 21
148.6917502167589
 31
0.0
  0
LINE
  5
1109E
330
1F
100
AcDbEntity
  8
AM_0
100
AcDbLine
 10
564.6524020232533
 20
146.7958087294601
 30
0.0
 11
564.6524020232533
 21
143.6524078442953
 31
0.0
  0
LINE
  5
1109F
330
1F
100
AcDbEntity
  8
AM_0
100
AcDbLine
 10
564.6494739450733
 20
146.7938631966008
 30
0.0
 11
564.6494739450733
 21
143.6524078442953
 31
0.0
  0
LINE
  5
110A0
330
1F
100
AcDbEntity
  8
AM_0
100
AcDbLine
 10
564.6494739450733
 20
143.6524078442953
 30
0.0
 11
564.6524020232533
 21
143.6524078442953
 31
0.0
  0
LINE
  5
110A1
330
1F
100
AcDbEntity
  8
AM_0
100
AcDbLine
 10
564.6524020232533
 20
146.7959735735548
 30
0.0
 11
564.6524020232533
 21
146.7958087294601
 31
0.0
  0
LWPOLYLINE
  5
110A2
330
1F
100
AcDbEntity
  8
AM_0
100
AcDbPolyline
 90
        3
 70
   128
 43
0.0
 10
564.6524020232533
 20
146.7959735735548
 10
564.651284436162
 20
146.795169842173
 10
564.6494739450733
 20
146.7938631966008
  0
LINE
  5
110A3
330
1F
100
AcDbEntity
  8
AM_0
100
AcDbLine
 10
574.6524073876732
 20
146.7958087294601
 30
0.0
 11
574.6524073876732
 21
143.6524078442953
 31
0.0
  0
LINE
  5
110A4
330
1F
100
AcDbEntity
  8
AM_0
100
AcDbLine
 10
574.6553354658441
 20
146.7938631966008
 30
0.0
 11
574.6553354658441
 21
143.6524078442953
 31
0.0
  0
LINE
  5
110A5
330
1F
100
AcDbEntity
  8
AM_0
100
AcDbLine
 10
574.6553354658441
 20
143.6524078442953
 30
0.0
 11
574.6524073876732
 21
143.6524078442953
 31
0.0
  0
LINE
  5
110A6
330
1F
100
AcDbEntity
  8
AM_0
100
AcDbLine
 10
576.0158528446733
 20
148.6917502167589
 30
0.0
 11
576.015994449424
 21
148.691797741777
 31
0.0
  0
LINE
  5
110A7
330
1F
100
AcDbEntity
  8
AM_0
100
AcDbLine
 10
574.6524073876732
 20
146.7959735735548
 30
0.0
 11
574.6524073876732
 21
146.7958087294601
 31
0.0
  0
LWPOLYLINE
  5
110A8
330
1F
100
AcDbEntity
  8
AM_0
100
AcDbPolyline
 90
        3
 70
   128
 43
0.0
 10
574.6524073876732
 20
146.7959735735548
 10
574.6535249747627
 20
146.795169842173
 10
574.6553354658441
 20
146.7938631966008
  0
ARC
  5
110A9
330
1F
100
AcDbEntity
  8
AM_0
100
AcDbCircle
 10
576.6557101662434
 20
146.7933737242583
 30
0.0
 40
2.000374760287884
100
AcDbArc
 50
108.5717929467744
 51
179.9859802771605
  0
LINE
  5
110AA
330
1F
100
AcDbEntity
  8
AM_0
100
AcDbLine
 10
582.5836994447032
 20
142.3176600790821
 30
0.0
 11
582.5836994447032
 21
142.317604665388
 31
0.0
  0
SPLINE
  5
110AB
330
1F
100
AcDbEntity
  8
AM_0
100
AcDbSpline
210
0.0
220
0.0
230
1.0
 70
     8
 71
     3
 72
    10
 73
     6
 74
     0
 42
0.0000000001
 43
0.0000000001
 40
0.0
 40
0.0
 40
0.0
 40
0.0
 40
0.3024748699608323
 40
0.6512371276381316
 40
1.0
 40
1.0
 40
1.0
 40
1.0
 10
582.5836994447032
 20
142.3176600790821
 30
0.0
 10
582.6021721688736
 20
142.4133646263722
 30
0.0
 10
582.6419444773233
 20
142.6194192797311
 30
0.0
 10
582.8193666418025
 20
142.9008524179753
 30
0.0
 10
583.0052103144131
 20
143.0283013878042
 30
0.0
 10
583.0981322326021
 20
143.092025928875
 30
0.0
  0
LINE
  5
110AC
330
1F
100
AcDbEntity
  8
AM_0
100
AcDbLine
 10
583.0981843866626
 20
143.0920538685523
 30
0.0
 11
583.0981322326021
 21
143.092025928875
 31
0.0
  0
LINE
  5
110AD
330
1F
100
AcDbEntity
  8
AM_0
100
AcDbLine
 10
556.2904813088731
 20
201.9841738461755
 30
0.0
 11
550.0894524850242
 21
171.8106432079571
 31
0.0
  0
LINE
  5
110AE
330
1F
100
AcDbEntity
  8
AM_0
100
AcDbLine
 10
583.0143281020533
 20
201.9841738461755
 30
0.0
 11
589.2153569259041
 21
171.8106432079571
 31
0.0
  0
LINE
  5
110AF
330
1F
100
AcDbEntity
  8
AM_0
100
AcDbLine
 10
578.6524080433243
 20
202.1524079560541
 30
0.0
 11
560.6524088181828
 21
202.1524079560541
 31
0.0
  0
ARC
  5
110B0
330
1F
100
AcDbEntity
  8
AM_0
100
AcDbCircle
 10
560.652405288774
 20
203.1524077792828
 30
0.0
 40
1.0
100
AcDbArc
 50
180.0
 51
270.0
  0
LINE
  5
110B1
330
1F
100
AcDbEntity
  8
AM_0
100
AcDbLine
 10
556.2905562047323
 20
201.9845371002412
 30
0.0
 11
556.290479265344
 21
201.9841751837371
 31
0.0
  0
ARC
  5
110B2
330
1F
100
AcDbEntity
  8
AM_0
100
AcDbCircle
 10
578.6524052887631
 20
203.1524077792828
 30
0.0
 40
1.0
100
AcDbArc
 50
270.0
 51
0.0
  0
ELLIPSE
  5
110B3
330
1F
100
AcDbEntity
  8
AM_0
100
AcDbEllipse
 10
559.5529912133439
 20
202.89985470694
 30
0.0
 11
-8.175423163358566
 21
7.361184080512967
 31
0.0
210
0.0
220
0.0
230
1.0
 40
0.9998984660146057
 41
-0.5235108437253635
 42
0.5235108437765322
  0
LINE
  5
110B4
330
1F
100
AcDbEntity
  8
AM_0
100
AcDbLine
 10
548.7927012838732
 20
205.1877670406602
 30
0.0
 11
548.7928502954834
 21
205.188474845816
 31
0.0
  0
LINE
  5
110B5
330
1F
100
AcDbEntity
  8
AM_0
100
AcDbLine
 10
560.9059595264731
 20
227.0059578537239
 30
0.0
 11
559.1988526977835
 21
225.2988510250352
 31
0.0
  0
LINE
  5
110B6
330
1F
100
AcDbEntity
  8
AM_0
100
AcDbLine
 10
580.105956713132
 20
225.2988510250352
 30
0.0
 11
578.3988498844442
 21
227.0059578537239
 31
0.0
  0
LINE
  5
110B7
330
1F
100
AcDbEntity
  8
AM_0
100
AcDbLine
 10
579.5859732426939
 20
205.1524065851472
 30
0.0
 11
559.7188361682234
 21
205.1524065851472
 31
0.0
  0
LINE
  5
110B8
330
1F
100
AcDbEntity
  8
AM_0
100
AcDbLine
 10
571.8524046935432
 20
224.1524078368438
 30
0.0
 11
580.2524053253525
 21
224.1524078368438
 31
0.0
  0
LINE
  5
110B9
330
1F
100
AcDbEntity
  8
AM_0
100
AcDbLine
 10
576.9487284817038
 20
220.6524081944717
 30
0.0
 11
572.0524080790834
 21
220.6524081944717
 31
0.0
  0
SPLINE
  5
110BA
330
1F
100
AcDbEntity
  8
AM_0
100
AcDbSpline
210
0.0
220
0.0
230
1.0
 70
     8
 71
     3
 72
    15
 73
    11
 74
     0
 42
0.0000000001
 43
0.0000000001
 40
0.0
 40
0.0
 40
0.0
 40
0.0
 40
0.1342400856730974
 40
0.2684792969621194
 40
0.4027201865689852
 40
0.536959883998358
 40
0.6712067218394317
 40
0.8054539601848881
 40
0.9870466892121971
 40
1.0
 40
1.0
 40
1.0
 40
1.0
 10
556.2884696521138
 20
213.4061150669349
 30
0.0
 10
556.4988566741446
 20
213.4862561385798
 30
0.0
 10
556.919629347845
 20
213.6465377598629
 30
0.0
 10
557.4892783292231
 20
214.0155698357421
 30
0.0
 10
557.9909098987624
 20
214.4692518060692
 30
0.0
 10
558.4101233384532
 20
215.0012197308079
 30
0.0
 10
558.7324406981821
 20
215.5967658112099
 30
0.0
 10
558.9774906191029
 20
216.3120404093088
 30
0.0
 10
559.050569599514
 20
216.8634913016322
 30
0.0
 10
559.0522965518026
 20
217.188992071925
 30
0.0
 10
559.0524115361546
 20
217.2106646417869
 30
0.0
  0
LINE
  5
110BB
330
1F
100
AcDbEntity
  8
AM_0
100
AcDbLine
 10
560.0479953684131
 20
205.1524065851472
 30
0.0
 11
560.2001734771126
 21
205.1553421139019
 31
0.0
  0
LINE
  5
110BC
330
1F
100
AcDbEntity
  8
AM_0
100
AcDbLine
 10
560.2001734771126
 20
205.1553421139019
 30
0.0
 11
560.202550212323
 21
205.1524065851472
 31
0.0
  0
ELLIPSE
  5
110BD
330
1F
100
AcDbEntity
  8
AM_0
100
AcDbEllipse
 10
569.6524052887631
 20
205.1524077792819
 30
0.0
 11
8.599999999999909
 21
0.0000000000000845
 31
0.0
210
0.0
220
0.0
230
1.0
 40
0.0087268677908533
 41
2.988945925374151
 42
3.141592653588652
  0
LINE
  5
110BE
330
1F
100
AcDbEntity
  8
AM_0
100
AcDbLine
 10
561.152402380883
 20
205.1752351640962
 30
0.0
 11
561.152402380883
 21
205.1524065851472
 31
0.0
  0
LINE
  5
110BF
330
1F
100
AcDbEntity
  8
AM_0
100
AcDbLine
 10
556.1528541840831
 20
213.3620523332852
 30
0.0
 11
556.2884547509544
 21
213.4061076163553
 31
0.0
  0
LINE
  5
110C0
330
1F
100
AcDbEntity
  8
AM_0
100
AcDbLine
 10
556.1521687306736
 20
213.3618213652872
 30
0.0
 11
556.1528541840831
 21
213.3620523332852
 31
0.0
  0
SPLINE
  5
110C1
330
1F
100
AcDbEntity
  8
AM_0
100
AcDbSpline
210
0.0
220
0.0
230
1.0
 70
    11
 71
     3
 72
    27
 73
    23
 74
     0
 42
0.0000000001
 43
0.0000000001
 40
0.0
 40
0.0
 40
0.0
 40
0.0
 40
0.053190837502511
 40
0.1063644588411779
 40
0.1599829458734431
 40
0.2139181760639307
 40
0.2673623781766122
 40
0.3202709806289082
 40
0.3734354276904858
 40
0.4272439893572347
 40
0.4810891067632594
 40
0.4999996709334277
 40
0.5531905084359387
 40
0.6063644557744308
 40
0.6599824399142228
 40
0.7139179319798159
 40
0.7673620942642306
 40
0.8202713499507698
 40
0.8734357970123472
 40
0.9272443586790963
 40
0.9810894760851207
 40
1.0
 40
1.0
 40
1.0
 40
1.0
 10
569.6524047054623
 20
213.9024056910766
 30
0.0
 10
569.4570995951831
 20
213.8833243975191
 30
0.0
 10
569.066552588623
 20
213.8451679864038
 30
0.0
 10
568.5457745679628
 20
213.5480433240373
 30
0.0
 10
568.1463234744239
 20
213.1084103740223
 30
0.0
 10
567.914937324083
 20
212.5553539978437
 30
0.0
 10
567.8798856865829
 20
211.9593140133074
 30
0.0
 10
568.041761375423
 20
211.3883405972428
 30
0.0
 10
568.3813866951947
 20
210.901923944084
 30
0.0
 10
568.8646133285725
 20
210.5519588146099
 30
0.0
 10
569.3175015133125
 20
210.4181369226535
 30
0.0
 10
569.7774514221724
 20
210.3908238049316
 30
0.0
 10
570.2385620695637
 20
210.4684299660689
 30
0.0
 10
570.7589489192829
 20
210.7544006535281
 30
0.0
 10
571.1585081793233
 20
211.1970479694382
 30
0.0
 10
571.389878036474
 20
211.7492783208882
 30
0.0
 10
571.4249221405331
 20
212.345570122905
 30
0.0
 10
571.2630471740245
 20
212.9163733123651
 30
0.0
 10
570.9234343501444
 20
213.4032427054281
 30
0.0
 10
570.4401512092823
 20
213.7515574734312
 30
0.0
 10
569.9874298020327
 20
213.890209967135
 30
0.0
 10
569.7215196300836
 20
213.8998897406309
 30
0.0
 10
569.6524047054623
 20
213.9024056910766
 30
0.0
  0
LINE
  5
110C2
330
1F
100
AcDbEntity
  8
AM_0
100
AcDbLine
 10
559.052404085574
 20
224.1524078368438
 30
0.0
 11
567.4524047173832
 21
224.1524078368438
 31
0.0
  0
LINE
  5
110C3
330
1F
100
AcDbEntity
  8
AM_0
100
AcDbLine
 10
562.3560809292135
 20
220.6524081944717
 30
0.0
 11
567.2524087824236
 21
220.6524081944717
 31
0.0
  0
LINE
  5
110C4
330
1F
100
AcDbEntity
  8
AM_0
100
AcDbLine
 10
561.152402380883
 20
224.1524078368438
 30
0.0
 11
561.152402380883
 21
220.6524081944717
 31
0.0
  0
LINE
  5
110C5
330
1F
100
AcDbEntity
  8
AM_0
100
AcDbLine
 10
561.300482670245
 20
220.6524081944717
 30
0.0
 11
559.9560850061731
 21
220.6524081944717
 31
0.0
  0
LINE
  5
110C6
330
1F
100
AcDbEntity
  8
AM_0
100
AcDbLine
 10
559.9315502442638
 20
217.4524061798352
 30
0.0
 11
561.131548205794
 21
217.4524061798352
 31
0.0
  0
SPLINE
  5
110C7
330
1F
100
AcDbEntity
  8
AM_0
100
AcDbSpline
210
0.0
220
0.0
230
1.0
 70
     8
 71
     3
 72
    12
 73
     8
 74
     0
 42
0.0000000001
 43
0.0000000001
 40
0.0
 40
0.0
 40
0.0
 40
0.0
 40
0.2224642550582935
 40
0.4450335550800851
 40
0.6642561061077418
 40
0.8776088832847314
 40
1.0
 40
1.0
 40
1.0
 40
1.0
 10
559.9560850061731
 20
220.6524081944717
 30
0.0
 10
559.9049330693629
 20
220.6466634154113
 30
0.0
 10
559.8026050424047
 20
220.6351711446732
 30
0.0
 10
559.6667592446334
 20
220.5451272735763
 30
0.0
 10
559.5663626456532
 20
220.4133471631067
 30
0.0
 10
559.517209553214
 20
220.2736070157498
 30
0.0
 10
559.5126059140835
 20
220.184785809226
 30
0.0
 10
559.5109277166735
 20
220.1524071811927
 30
0.0
  0
LINE
  5
110C8
330
1F
100
AcDbEntity
  8
AM_0
100
AcDbLine
 10
559.552405098853
 20
220.6524081944717
 30
0.0
 11
559.9560850061731
 21
220.6524081944717
 31
0.0
  0
ARC
  5
110C9
330
1F
100
AcDbEntity
  8
AM_0
100
AcDbCircle
 10
559.5524052887627
 20
220.1524077792819
 30
0.0
 40
0.5
100
AcDbArc
 50
90.0
 51
180.0
  0
LINE
  5
110CA
330
1F
100
AcDbEntity
  8
AM_0
100
AcDbLine
 10
559.5109277166735
 20
220.1524071811927
 30
0.0
 11
559.5109277166735
 21
218.6524041413559
 31
0.0
  0
LINE
  5
110CB
330
1F
100
AcDbEntity
  8
AM_0
100
AcDbLine
 10
559.052404085574
 20
220.1524071811927
 30
0.0
 11
559.052404085574
 21
217.210977566172
 31
0.0
  0
ELLIPSE
  5
110CC
330
1F
100
AcDbEntity
  8
AM_0
100
AcDbEllipse
 10
569.6524052887631
 20
221.95480816196
 30
0.0
 11
10.59952876819951
 21
4.746143309355707
 31
0.0
210
0.0
220
0.0
230
1.0
 40
0.0210590876438742
 41
3.133359080517745
 42
3.148456782041991
  0
SPLINE
  5
110CD
330
1F
100
AcDbEntity
  8
AM_0
100
AcDbSpline
210
0.0
220
0.0
230
1.0
 70
     8
 71
     3
 72
    13
 73
     9
 74
     0
 42
0.0000000001
 43
0.0000000001
 40
0.0
 40
0.0
 40
0.0
 40
0.0
 40
0.1442953361041094
 40
0.3522100091917457
 40
0.5632040336883214
 40
0.7789635683386839
 40
0.9967937324363282
 40
0.9999999999999998
 40
0.9999999999999998
 40
0.9999999999999998
 40
0.9999999999999998
 10
559.5109277166735
 20
218.6524041413559
 30
0.0
 10
559.5127593608537
 20
218.5613409046373
 30
0.0
 10
559.5172302150728
 20
218.339064950972
 30
0.0
 10
559.5605438597536
 20
218.0060565505673
 30
0.0
 10
559.645802225195
 20
217.7033281360209
 30
0.0
 10
559.7700679626938
 20
217.5016508919289
 30
0.0
 10
559.8752620100237
 20
217.4526329894234
 30
0.0
 10
559.9307454236837
 20
217.4524094228054
 30
0.0
 10
559.9315502442638
 20
217.4524061798352
 30
0.0
  0
LINE
  5
110CE
330
1F
100
AcDbEntity
  8
AM_0
100
AcDbLine
 10
559.052404085574
 20
217.210977566172
 30
0.0
 11
559.052404085574
 21
217.2105007290138
 31
0.0
  0
LINE
  5
110CF
330
1F
100
AcDbEntity
  8
AM_0
100
AcDbLine
 10
561.300482670245
 20
218.6524041413559
 30
0.0
 11
561.300482670245
 21
220.6524081944717
 31
0.0
  0
SPLINE
  5
110D0
330
1F
100
AcDbEntity
  8
AM_0
100
AcDbSpline
210
0.0
220
0.0
230
1.0
 70
     8
 71
     3
 72
    11
 73
     7
 74
     0
 42
0.0000000001
 43
0.0000000001
 40
0.0
 40
0.0
 40
0.0
 40
0.0
 40
0.2651715875892639
 40
0.5880517581800533
 40
0.903943630094146
 40
1.0
 40
1.0
 40
1.0
 40
1.0
 10
561.4794232644432
 20
217.60848094218
 30
0.0
 10
561.4494128615839
 20
217.6672812764773
 30
0.0
 10
561.3828609722128
 20
217.7976785044739
 30
0.0
 10
561.3251548974236
 20
218.1263083129402
 30
0.0
 10
561.3021773578635
 20
218.4340262200121
 30
0.0
 10
561.3008031113127
 20
218.6111120154428
 30
0.0
 10
561.300482670245
 20
218.6524041413559
 30
0.0
  0
SPLINE
  5
110D1
330
1F
100
AcDbEntity
  8
AM_0
100
AcDbSpline
210
0.0
220
0.0
230
1.0
 70
     8
 71
     3
 72
    12
 73
     8
 74
     0
 42
0.0000000001
 43
0.0000000001
 40
0.0
 40
0.0
 40
0.0
 40
0.0
 40
0.2075443089644129
 40
0.4149956787548483
 40
0.6247659325089368
 40
0.8397472004965047
 40
0.9999999999999998
 40
0.9999999999999998
 40
0.9999999999999998
 40
0.9999999999999998
 10
561.9109310902946
 20
220.1524071811927
 30
0.0
 10
561.9156644633527
 20
220.2075238650305
 30
0.0
 10
561.9251290898624
 20
220.3177325512334
 30
0.0
 10
561.9987140247046
 20
220.4649969922393
 30
0.0
 10
562.107543580843
 20
220.5780428247649
 30
0.0
 10
562.2332609214951
 20
220.642352707478
 30
0.0
 10
562.319325125694
 20
220.6493989331052
 30
0.0
 10
562.3560809292135
 20
220.6524081944717
 30
0.0
  0
LINE
  5
110D2
330
1F
100
AcDbEntity
  8
AM_0
100
AcDbLine
 10
561.9109310902946
 20
218.6524041413559
 30
0.0
 11
561.9109310902946
 21
220.1524071811927
 31
0.0
  0
SPLINE
  5
110D3
330
1F
100
AcDbEntity
  8
AM_0
100
AcDbSpline
210
0.0
220
0.0
230
1.0
 70
     8
 71
     3
 72
    12
 73
     8
 74
     0
 42
0.0000000001
 43
0.0000000001
 40
0.0
 40
0.0
 40
0.0
 40
0.0
 40
0.2103069506345876
 40
0.4262052656584677
 40
0.6440335641950511
 40
0.8601537119585163
 40
1.0
 40
1.0
 40
1.0
 40
1.0
 10
561.131548205794
 20
217.4524061798352
 30
0.0
 10
561.2118711323325
 20
217.4651509228243
 30
0.0
 10
561.3746525056736
 20
217.4909792492517
 30
0.0
 10
561.6085942146725
 20
217.6942630521089
 30
0.0
 10
561.7946871671043
 20
217.9992307860412
 30
0.0
 10
561.8964969657441
 20
218.3396607766608
 30
0.0
 10
561.906859878232
 20
218.5641934187211
 30
0.0
 10
561.9109310902946
 20
218.6524041413559
 30
0.0
  0
LINE
  5
110D4
330
1F
100
AcDbEntity
  8
AM_0
100
AcDbLine
 10
559.052404085574
 20
224.9452986239694
 30
0.0
 11
559.052404085574
 21
224.1524078368438
 31
0.0
  0
ARC
  5
110D5
330
1F
100
AcDbEntity
  8
AM_0
100
AcDbCircle
 10
559.5524052887627
 20
224.9453009980962
 30
0.0
 40
0.5
100
AcDbArc
 50
135.0000000000181
 51
180.0
  0
SPLINE
  5
110D6
330
1F
100
AcDbEntity
  8
AM_0
100
AcDbSpline
210
0.0
220
0.0
230
1.0
 70
     8
 71
     3
 72
    12
 73
     8
 74
     0
 42
0.0000000001
 43
0.0000000001
 40
0.0
 40
0.0
 40
0.0
 40
0.0
 40
0.2105802109662034
 40
0.4210624887067515
 40
0.6341398041422523
 40
0.8507098093972539
 40
1.0
 40
1.0
 40
1.0
 40
1.0
 10
567.4524047173832
 20
222.3524071692718
 30
0.0
 10
567.4653278254623
 20
222.2193628945051
 30
0.0
 10
567.4911680315741
 20
221.9533362190414
 30
0.0
 10
567.6922847436541
 20
221.5977613153309
 30
0.0
 10
567.9903861712443
 20
221.3253059841691
 30
0.0
 10
568.3295730692131
 20
221.1748466078411
 30
0.0
 10
568.5588469032933
 20
221.1589115492502
 30
0.0
 10
568.6524026789026
 20
221.1524092077511
 30
0.0
  0
SPLINE
  5
110D7
330
1F
100
AcDbEntity
  8
AM_0
100
AcDbSpline
210
0.0
220
0.0
230
1.0
 70
     8
 71
     3
 72
    12
 73
     8
 74
     0
 42
0.0000000001
 43
0.0000000001
 40
0.0
 40
0.0
 40
0.0
 40
0.0
 40
0.2159000845318164
 40
0.4317353505324416
 40
0.6488716350138147
 40
0.8647711145598911
 40
0.9999999999999998
 40
0.9999999999999998
 40
0.9999999999999998
 40
0.9999999999999998
 10
570.6524067320239
 20
221.1524092077511
 30
0.0
 10
570.7880341580745
 20
221.1658458442053
 30
0.0
 10
571.0592482914831
 20
221.1927150831011
 30
0.0
 10
571.419589558303
 20
221.401179402611
 30
0.0
 10
571.6914775114234
 20
221.7081689321712
 30
0.0
 10
571.8329461275949
 20
222.0461494322831
 30
0.0
 10
571.8469943492233
 20
222.2672539359351
 30
0.0
 10
571.8524046935432
 20
222.3524071692718
 30
0.0
  0
LINE
  5
110D8
330
1F
100
AcDbEntity
  8
AM_0
100
AcDbLine
 10
568.4524067439448
 20
217.4524061798352
 30
0.0
 11
570.8524026669834
 21
217.4524061798352
 31
0.0
  0
SPLINE
  5
110D9
330
1F
100
AcDbEntity
  8
AM_0
100
AcDbSpline
210
0.0
220
0.0
230
1.0
 70
    24
 71
     3
 72
    12
 73
     8
 74
     0
 42
0.0000000001
 43
0.0000000001
 40
0.0
 40
0.0
 40
0.0
 40
0.0
 40
0.2224586193176896
 40
0.4450329307841764
 40
0.6642564381432973
 40
0.8776092673112088
 40
1.0
 40
1.0
 40
1.0
 40
1.0
 10
567.2524087824236
 20
220.6524081944717
 30
0.0
 10
567.2524087824236
 20
220.646662947735
 30
0.0
 10
567.2524087824236
 20
220.6351694663799
 30
0.0
 10
567.2524087824236
 20
220.5451285092472
 30
0.0
 10
567.2524087824236
 20
220.4133473657839
 30
0.0
 10
567.2524087824236
 20
220.2736072799053
 30
0.0
 10
567.2524087824236
 20
220.1847858288079
 30
0.0
 10
567.2524087824236
 20
220.1524071811927
 30
0.0
  0
SPLINE
  5
110DA
330
1F
100
AcDbEntity
  8
AM_0
100
AcDbSpline
210
0.0
220
0.0
230
1.0
 70
     8
 71
     3
 72
    12
 73
     8
 74
     0
 42
0.0000000001
 43
0.0000000001
 40
0.0
 40
0.0
 40
0.0
 40
0.0
 40
0.2096516105512975
 40
0.4191925812806952
 40
0.6317558771779203
 40
0.8486288490026819
 40
1.0
 40
1.0
 40
1.0
 40
1.0
 10
567.2524087824236
 20
218.6524041413559
 30
0.0
 10
567.2652623445825
 20
218.5197480057341
 30
0.0
 10
567.2909626856741
 20
218.2545057413508
 30
0.0
 10
567.4908739941835
 20
217.899809026294
 30
0.0
 10
567.7875393196733
 20
217.6272315574752
 30
0.0
 10
568.1269743535118
 20
217.4753221712663
 30
0.0
 10
568.3576037656745
 20
217.4590819266314
 30
0.0
 10
568.4524067439448
 20
217.4524061798352
 30
0.0
  0
LINE
  5
110DB
330
1F
100
AcDbEntity
  8
AM_0
100
AcDbLine
 10
567.2524087824236
 20
220.1524071811927
 30
0.0
 11
567.2524087824236
 21
218.6524041413559
 31
0.0
  0
LINE
  5
110DC
330
1F
100
AcDbEntity
  8
AM_0
100
AcDbLine
 10
568.6524026789026
 20
221.1524092077511
 30
0.0
 11
570.6524067320239
 21
221.1524092077511
 31
0.0
  0
SPLINE
  5
110DD
330
1F
100
AcDbEntity
  8
AM_0
100
AcDbSpline
210
0.0
220
0.0
230
1.0
 70
    24
 71
     3
 72
    12
 73
     8
 74
     0
 42
0.0000000001
 43
0.0000000001
 40
0.0
 40
0.0
 40
0.0
 40
0.0
 40
0.2224586193176896
 40
0.4450329307841764
 40
0.6642564381432973
 40
0.8776092673112088
 40
1.0
 40
1.0
 40
1.0
 40
1.0
 10
572.0524080790834
 20
220.6524081944717
 30
0.0
 10
572.0524080790834
 20
220.646662947735
 30
0.0
 10
572.0524080790834
 20
220.6351694663799
 30
0.0
 10
572.0524080790834
 20
220.5451285092472
 30
0.0
 10
572.0524080790834
 20
220.4133473657839
 30
0.0
 10
572.0524080790834
 20
220.2736072799053
 30
0.0
 10
572.0524080790834
 20
220.1847858288079
 30
0.0
 10
572.0524080790834
 20
220.1524071811927
 30
0.0
  0
LINE
  5
110DE
330
1F
100
AcDbEntity
  8
AM_0
100
AcDbLine
 10
572.0524080790834
 20
220.1524071811927
 30
0.0
 11
572.0524080790834
 21
218.6524041413559
 31
0.0
  0
SPLINE
  5
110DF
330
1F
100
AcDbEntity
  8
AM_0
100
AcDbSpline
210
0.0
220
0.0
230
1.0
 70
     8
 71
     3
 72
    12
 73
     8
 74
     0
 42
0.0000000001
 43
0.0000000001
 40
0.0
 40
0.0
 40
0.0
 40
0.0
 40
0.2096510079034625
 40
0.4191913763030616
 40
0.6317569357031695
 40
0.8486292841221461
 40
1.0
 40
1.0
 40
1.0
 40
1.0
 10
572.0524080790834
 20
218.6524041413559
 30
0.0
 10
572.0395544238122
 20
218.5197481033419
 30
0.0
 10
572.0138538965526
 20
218.2545060341245
 30
0.0
 10
571.8139430808638
 20
217.8998062349929
 30
0.0
 10
571.5172703377954
 20
217.627233829241
 30
0.0
 10
571.1778352947236
 20
217.4753219196173
 30
0.0
 10
570.9472057143826
 20
217.4590818533216
 30
0.0
 10
570.8524026669834
 20
217.4524061798352
 30
0.0
  0
LINE
  5
110E0
330
1F
100
AcDbEntity
  8
AM_0
100
AcDbLine
 10
567.4524047173832
 20
224.1524078368438
 30
0.0
 11
567.4524047173832
 21
222.3524071692718
 31
0.0
  0
LINE
  5
110E1
330
1F
100
AcDbEntity
  8
AM_0
100
AcDbLine
 10
571.8524046935432
 20
222.3524071692718
 30
0.0
 11
571.8524046935432
 21
224.1524078368438
 31
0.0
  0
SPLINE
  5
110E2
330
1F
100
AcDbEntity
  8
AM_0
100
AcDbSpline
210
0.0
220
0.0
230
1.0
 70
     8
 71
     3
 72
    15
 73
    11
 74
     0
 42
0.0000000001
 43
0.0000000001
 40
0.0
 40
0.0
 40
0.0
 40
0.0
 40
0.1323222055744279
 40
0.2684818896339857
 40
0.4008044275562407
 40
0.5369650614541227
 40
0.6692947882991475
 40
0.8054616955154148
 40
0.9870472042478175
 40
1.0
 40
1.0
 40
1.0
 40
1.0
 10
583.0163397588127
 20
213.4061150669349
 30
0.0
 10
582.8088189785045
 20
213.4847761306651
 30
0.0
 10
582.3877591042943
 20
213.6443795089422
 30
0.0
 10
581.8208528294741
 20
214.0119497098249
 30
0.0
 10
581.315577993813
 20
214.4662965177422
 30
0.0
 10
580.8985228496327
 20
214.996077697042
 30
0.0
 10
580.5730254428741
 20
215.5934295496527
 30
0.0
 10
580.3280052632032
 20
216.3089397133262
 30
0.0
 10
580.2542360755429
 20
216.8634894517663
 30
0.0
 10
580.2525126259039
 20
217.1889919564464
 30
0.0
 10
580.2523978747736
 20
217.2106646417869
 30
0.0
  0
LINE
  5
110E3
330
1F
100
AcDbEntity
  8
AM_0
100
AcDbLine
 10
579.2568140425043
 20
205.1524065851472
 30
0.0
 11
579.1046359338121
 21
205.1553421139019
 31
0.0
  0
LINE
  5
110E4
330
1F
100
AcDbEntity
  8
AM_0
100
AcDbLine
 10
583.1526481308334
 20
213.3618213652872
 30
0.0
 11
583.1519552268324
 21
213.3620523332852
 31
0.0
  0
LINE
  5
110E5
330
1F
100
AcDbEntity
  8
AM_0
100
AcDbLine
 10
583.1519552268324
 20
213.3620523332852
 30
0.0
 11
583.0163621105526
 21
213.4061076163553
 31
0.0
  0
LINE
  5
110E6
330
1F
100
AcDbEntity
  8
AM_0
100
AcDbLine
 10
583.0163621105526
 20
213.4061076163553
 30
0.0
 11
583.0163397588127
 21
213.4061150669349
 31
0.0
  0
LINE
  5
110E7
330
1F
100
AcDbEntity
  8
AM_0
100
AcDbLine
 10
578.1524070300434
 20
220.6524081944717
 30
0.0
 11
578.1524070300434
 21
224.1524078368438
 31
0.0
  0
SPLINE
  5
110E8
330
1F
100
AcDbEntity
  8
AM_0
100
AcDbSpline
210
0.0
220
0.0
230
1.0
 70
     8
 71
     3
 72
    12
 73
     8
 74
     0
 42
0.0000000001
 43
0.0000000001
 40
0.0
 40
0.0
 40
0.0
 40
0.0
 40
0.2075443089644129
 40
0.4149956787548483
 40
0.6247659325089368
 40
0.8397472004965047
 40
0.9999999999999998
 40
0.9999999999999998
 40
0.9999999999999998
 40
0.9999999999999998
 10
577.3938783206318
 20
220.1524071811927
 30
0.0
 10
577.3891449475628
 20
220.2075238650305
 30
0.0
 10
577.3796803210622
 20
220.3177325512334
 30
0.0
 10
577.3060953862238
 20
220.4649969922393
 30
0.0
 10
577.1972658300834
 20
220.5780428247649
 30
0.0
 10
577.0715484894331
 20
220.642352707478
 30
0.0
 10
576.9854842852343
 20
220.6493989331052
 30
0.0
 10
576.9487284817038
 20
220.6524081944717
 30
0.0
  0
LINE
  5
110E9
330
1F
100
AcDbEntity
  8
AM_0
100
AcDbLine
 10
578.0043267406742
 20
220.6524081944717
 30
0.0
 11
579.3487244047534
 21
220.6524081944717
 31
0.0
  0
SPLINE
  5
110EA
330
1F
100
AcDbEntity
  8
AM_0
100
AcDbSpline
210
0.0
220
0.0
230
1.0
 70
     8
 71
     3
 72
    12
 73
     8
 74
     0
 42
0.0000000001
 43
0.0000000001
 40
0.0
 40
0.0
 40
0.0
 40
0.0
 40
0.2224632427753143
 40
0.4450315300361389
 40
0.6642584442746302
 40
0.8776102506287575
 40
1.0
 40
1.0
 40
1.0
 40
1.0
 10
579.3487244047534
 20
220.6524081944717
 30
0.0
 10
579.399876477784
 20
220.6466635217666
 30
0.0
 10
579.5022047772432
 20
220.6351714637922
 30
0.0
 10
579.6380496370435
 20
220.5451252777011
 30
0.0
 10
579.7384542015239
 20
220.4133494635016
 30
0.0
 10
579.787610707173
 20
220.2736074042759
 30
0.0
 10
579.7922064004539
 20
220.1847858131741
 30
0.0
 10
579.7938816942529
 20
220.1524071811927
 30
0.0
  0
ARC
  5
110EB
330
1F
100
AcDbEntity
  8
AM_0
100
AcDbCircle
 10
579.7524052887634
 20
220.1524077792819
 30
0.0
 40
0.5
100
AcDbArc
 50
0.0
 51
90.0
  0
LINE
  5
110EC
330
1F
100
AcDbEntity
  8
AM_0
100
AcDbLine
 10
579.7524043120735
 20
220.6524081944717
 30
0.0
 11
579.3487244047534
 21
220.6524081944717
 31
0.0
  0
SPLINE
  5
110ED
330
1F
100
AcDbEntity
  8
AM_0
100
AcDbSpline
210
0.0
220
0.0
230
1.0
 70
     8
 71
     3
 72
    11
 73
     7
 74
     0
 42
0.0000000001
 43
0.0000000001
 40
0.0
 40
0.0
 40
0.0
 40
0.0
 40
0.2651705420013533
 40
0.5880511720185846
 40
0.9039434934154638
 40
1.0
 40
1.0
 40
1.0
 40
1.0
 10
577.8253935970639
 20
217.60848094218
 30
0.0
 10
577.8554009307533
 20
217.6672814067742
 30
0.0
 10
577.9219462099241
 20
217.7976793079088
 30
0.0
 10
577.9796551914129
 20
218.1263082293162
 30
0.0
 10
578.0026320111243
 20
218.4340262251863
 30
0.0
 10
578.0040062916829
 20
218.6111120164214
 30
0.0
 10
578.0043267406742
 20
218.6524041413559
 30
0.0
  0
LINE
  5
110EE
330
1F
100
AcDbEntity
  8
AM_0
100
AcDbLine
 10
578.0043267406742
 20
218.6524041413559
 30
0.0
 11
578.0043267406742
 21
220.6524081944717
 31
0.0
  0
ELLIPSE
  5
110EF
330
1F
100
AcDbEntity
  8
AM_0
100
AcDbEllipse
 10
569.6524052887631
 20
221.95480816196
 30
0.0
 11
-10.59952876819715
 21
4.746143309354204
 31
0.0
210
0.0
220
0.0
230
1.0
 40
0.0210590876448574
 41
3.134728525137644
 42
3.149826226661269
  0
LINE
  5
110F0
330
1F
100
AcDbEntity
  8
AM_0
100
AcDbLine
 10
580.2524053253525
 20
220.1524071811927
 30
0.0
 11
580.2524053253525
 21
217.210977566172
 31
0.0
  0
LINE
  5
110F1
330
1F
100
AcDbEntity
  8
AM_0
100
AcDbLine
 10
579.7938816942529
 20
220.1524071811927
 30
0.0
 11
579.7938816942529
 21
218.6524041413559
 31
0.0
  0
SPLINE
  5
110F2
330
1F
100
AcDbEntity
  8
AM_0
100
AcDbSpline
210
0.0
220
0.0
230
1.0
 70
     8
 71
     3
 72
    13
 73
     9
 74
     0
 42
0.0000000001
 43
0.0000000001
 40
0.0
 40
0.0
 40
0.0
 40
0.0
 40
0.1442953361041094
 40
0.3522100091917457
 40
0.5632040336883214
 40
0.7789635683386839
 40
0.9967937324363282
 40
0.9999999999999998
 40
0.9999999999999998
 40
0.9999999999999998
 40
0.9999999999999998
 10
579.7938816942529
 20
218.6524041413559
 30
0.0
 10
579.7920500500728
 20
218.5613409046373
 30
0.0
 10
579.7875791958445
 20
218.339064950972
 30
0.0
 10
579.7442655511619
 20
218.0060565505673
 30
0.0
 10
579.6590071857332
 20
217.7033281360209
 30
0.0
 10
579.5347414482327
 20
217.5016508919289
 30
0.0
 10
579.4295474009028
 20
217.4526329894234
 30
0.0
 10
579.3740639872336
 20
217.4524094228054
 30
0.0
 10
579.3732591666536
 20
217.4524061798352
 30
0.0
  0
LINE
  5
110F3
330
1F
100
AcDbEntity
  8
AM_0
100
AcDbLine
 10
579.3732591666536
 20
217.4524061798352
 30
0.0
 11
578.1732612051342
 21
217.4524061798352
 31
0.0
  0
SPLINE
  5
110F4
330
1F
100
AcDbEntity
  8
AM_0
100
AcDbSpline
210
0.0
220
0.0
230
1.0
 70
     8
 71
     3
 72
    12
 73
     8
 74
     0
 42
0.0000000001
 43
0.0000000001
 40
0.0
 40
0.0
 40
0.0
 40
0.0
 40
0.210307102677496
 40
0.4262055737866011
 40
0.6440322708792186
 40
0.8601536108556461
 40
0.9999999999999998
 40
0.9999999999999998
 40
0.9999999999999998
 40
0.9999999999999998
 10
578.1732612051342
 20
217.4524061798352
 30
0.0
 10
578.092938511963
 20
217.465151015529
 30
0.0
 10
577.9301576115955
 20
217.4909795298331
 30
0.0
 10
577.6962129110939
 20
217.694261335379
 30
0.0
 10
577.5101339155041
 20
217.9992338674729
 30
0.0
 10
577.4083107504626
 20
218.3396596376679
 30
0.0
 10
577.3979490461839
 20
218.564193281773
 30
0.0
 10
577.3938783206318
 20
218.6524041413559
 30
0.0
  0
LINE
  5
110F5
330
1F
100
AcDbEntity
  8
AM_0
100
AcDbLine
 10
577.3938783206318
 20
218.6524041413559
 30
0.0
 11
577.3938783206318
 21
220.1524071811927
 31
0.0
  0
LINE
  5
110F6
330
1F
100
AcDbEntity
  8
AM_0
100
AcDbLine
 10
580.2524053253525
 20
217.2105007290138
 30
0.0
 11
580.2524053253525
 21
217.210977566172
 31
0.0
  0
LINE
  5
110F7
330
1F
100
AcDbEntity
  8
AM_0
100
AcDbLine
 10
580.2524053253525
 20
224.1524078368438
 30
0.0
 11
580.2524053253525
 21
224.9452986239694
 31
0.0
  0
ARC
  5
110F8
330
1F
100
AcDbEntity
  8
AM_0
100
AcDbCircle
 10
579.7524052887634
 20
224.9453009980962
 30
0.0
 40
0.500000000000004
100
AcDbArc
 50
0.0
 51
44.99999999998183
  0
LINE
  5
110F9
330
1F
100
AcDbEntity
  8
AM_0
100
AcDbLine
 10
561.2595119275444
 20
227.152406465937
 30
0.0
 11
578.0452974833821
 21
227.152406465937
 31
0.0
  0
ARC
  5
110FA
330
1F
100
AcDbEntity
  8
AM_0
100
AcDbCircle
 10
561.2595120699548
 20
226.6524077792829
 30
0.0
 40
0.5000000000000444
100
AcDbArc
 50
90.0
 51
135.0000000000181
  0
ARC
  5
110FB
330
1F
100
AcDbEntity
  8
AM_0
100
AcDbCircle
 10
578.045298507584
 20
226.6524077792829
 30
0.0
 40
0.500000000000004
100
AcDbArc
 50
44.99999999998183
 51
90.0
  0
LINE
  5
110FC
330
1F
100
AcDbEntity
  8
AM_0
100
AcDbLine
 10
597.0405378140745
 20
173.4739368974469
 30
0.0
 11
590.5121081270532
 21
205.1877670406602
 31
0.0
  0
LINE
  5
110FD
330
1F
100
AcDbEntity
  8
AM_0
100
AcDbLine
 10
590.5121081270532
 20
205.1877670406602
 30
0.0
 11
590.5119591154431
 21
205.188474845816
 31
0.0
  0
LINE
  5
110FE
330
1F
100
AcDbEntity
  8
AM_0
100
AcDbLine
 10
575.6524047054623
 20
258.4685033669771
 30
0.0
 11
575.6524047054623
 21
227.152406465937
 31
0.0
  0
LINE
  5
110FF
330
1F
100
AcDbEntity
  8
AM_0
100
AcDbLine
 10
563.6524047054623
 20
267.7609032601031
 30
0.0
 11
563.6524047054623
 21
227.152406465937
 31
0.0
  0
LINE
  5
11100
330
1F
100
AcDbEntity
  8
AM_0
100
AcDbLine
 10
833.8999999999995
 20
345.652407871954
 30
0.0
 11
833.8999999999995
 21
337.1524101369314
 31
0.0
  0
LINE
  5
11101
330
1F
100
AcDbEntity
  8
AM_0
100
AcDbLine
 10
846.1000000000002
 20
345.652407871954
 30
0.0
 11
846.1000000000002
 21
337.1524101369314
 31
0.0
  0
LINE
  5
11102
330
1F
100
AcDbEntity
  8
AM_0
100
AcDbLine
 10
847.9999999999998
 20
395.652407871954
 30
0.0
 11
847.9999999999998
 21
765.6524078719553
 31
0.0
  0
LINE
  5
11103
330
1F
100
AcDbEntity
  8
AM_0
100
AcDbLine
 10
831.9999999999998
 20
395.652407871954
 30
0.0
 11
831.9999999999998
 21
765.6524078719553
 31
0.0
  0
LINE
  5
11104
330
1F
100
AcDbEntity
  8
AM_7
 48
3.0
100
AcDbLine
 10
839.9999999999998
 20
904.2909959331224
 30
0.0
 11
839.9999999999998
 21
227.7018538069679
 31
0.0
  0
LINE
  5
11105
330
1F
100
AcDbEntity
  8
AM_0
100
AcDbLine
 10
849.9999999999998
 20
362.5695651594792
 30
0.0
 11
849.9999999999998
 21
355.7019176287508
 31
0.0
  0
LINE
  5
11106
330
1F
100
AcDbEntity
  8
AM_0
100
AcDbLine
 10
829.9999999999998
 20
394.152407871954
 30
0.0
 11
829.9999999999998
 21
355.7019176287508
 31
0.0
  0
LINE
  5
11107
330
1F
100
AcDbEntity
  8
AM_0
100
AcDbLine
 10
831.7588348405404
 20
346.8582336692461
 30
0.0
 11
830.0097096621611
 21
355.6038595611822
 31
0.0
  0
ARC
  5
11108
330
1F
100
AcDbEntity
  8
AM_0
100
AcDbCircle
 10
833.2297058540788
 20
347.152407871954
 30
0.0
 40
1.5
100
AcDbArc
 50
191.3099324740504
 51
270.0
  0
ARC
  5
11109
330
1F
100
AcDbEntity
  8
AM_0
100
AcDbCircle
 10
830.4999999999999
 20
355.7019176287499
 30
0.0
 40
0.5
100
AcDbArc
 50
180.0
 51
191.3099324740504
  0
LINE
  5
1110A
330
1F
100
AcDbEntity
  8
AM_0
100
AcDbLine
 10
849.9902903378496
 20
355.6038595611813
 30
0.0
 11
848.241165159461
 21
346.8582336692461
 31
0.0
  0
ARC
  5
1110B
330
1F
100
AcDbEntity
  8
AM_0
100
AcDbCircle
 10
846.770294145921
 20
347.152407871954
 30
0.0
 40
1.5
100
AcDbArc
 50
270.0
 51
348.6900675259497
  0
ARC
  5
1110C
330
1F
100
AcDbEntity
  8
AM_0
100
AcDbCircle
 10
849.4999999999999
 20
355.7019176287499
 30
0.0
 40
0.5
100
AcDbArc
 50
348.6900675259497
 51
0.0
  0
LINE
  5
1110D
330
1F
100
AcDbEntity
  8
AM_0
100
AcDbLine
 10
847.9999999999998
 20
363.6979567218509
 30
0.0
 11
847.9999999999998
 21
385.6068590220571
 31
0.0
  0
ARC
  5
1110E
330
1F
100
AcDbEntity
  8
AM_0
100
AcDbCircle
 10
848.9999999999998
 20
374.652407871954
 30
0.0
 40
11.0
100
AcDbArc
 50
90.0
 51
270.0
  0
LINE
  5
1110F
330
1F
100
AcDbEntity
  8
AM_0
100
AcDbLine
 10
848.9999999999998
 20
363.652407871954
 30
0.0
 11
848.9999999999998
 21
363.652407871954
 31
0.0
  0
ARC
  5
11110
330
1F
100
AcDbEntity
  8
AM_0
100
AcDbCircle
 10
849.7999999999992
 20
362.5695651594783
 30
0.0
 40
0.2
100
AcDbArc
 50
0.0
 51
44.99999999998183
  0
LINE
  5
11111
330
1F
100
AcDbEntity
  8
AM_0
100
AcDbLine
 10
849.9414213562394
 20
362.7109865157172
 30
0.0
 11
848.9999999999998
 21
363.652407871954
 31
0.0
  0
LINE
  5
11112
330
1F
100
AcDbEntity
  8
AM_0
100
AcDbLine
 10
848.4999999999999
 20
395.652407871954
 30
0.0
 11
831.4999999999999
 21
395.652407871954
 31
0.0
  0
ARC
  5
11113
330
1F
100
AcDbEntity
  8
AM_0
100
AcDbCircle
 10
831.4999999999999
 20
394.152407871954
 30
0.0
 40
1.5
100
AcDbArc
 50
90.0
 51
180.0
  0
ARC
  5
11114
330
1F
100
AcDbEntity
  8
AM_0
100
AcDbCircle
 10
848.4999999999999
 20
394.152407871954
 30
0.0
 40
1.5
100
AcDbArc
 50
0.0
 51
90.0
  0
LINE
  5
11115
330
1F
100
AcDbEntity
  8
AM_0
100
AcDbLine
 10
849.9999999999998
 20
394.152407871954
 30
0.0
 11
849.9999999999998
 21
386.7352505844292
 31
0.0
  0
LINE
  5
11116
330
1F
100
AcDbEntity
  8
AM_0
100
AcDbLine
 10
849.9999999999998
 20
389.1524078719549
 30
0.0
 11
849.9999999999998
 21
386.7352505844292
 31
0.0
  0
ARC
  5
11117
330
1F
100
AcDbEntity
  8
AM_0
100
AcDbCircle
 10
849.7999999999992
 20
386.7352505844283
 30
0.0
 40
0.2
100
AcDbArc
 50
315.0000000000182
 51
0.0
  0
LINE
  5
11118
330
1F
100
AcDbEntity
  8
AM_0
100
AcDbLine
 10
849.9414213562394
 20
386.5938292281912
 30
0.0
 11
848.9999999999998
 21
385.652407871954
 31
0.0
  0
LINE
  5
11119
330
1F
100
AcDbEntity
  8
AM_0
100
AcDbLine
 10
848.9999999999998
 20
385.652407871954
 30
0.0
 11
848.9999999999998
 21
385.652407871954
 31
0.0
  0
LINE
  5
1111A
330
1F
100
AcDbEntity
  8
AM_0
100
AcDbLine
 10
846.7499999999999
 20
807.653192527638
 30
0.0
 11
847.63262720927
 21
767.6524078719553
 31
0.0
  0
LINE
  5
1111B
330
1F
100
AcDbEntity
  8
AM_0
100
AcDbLine
 10
833.2499999999999
 20
807.6531925276372
 30
0.0
 11
832.5326272092715
 21
767.6524078719553
 31
0.0
  0
LINE
  5
1111C
330
1F
100
AcDbEntity
  8
AM_0
100
AcDbLine
 10
847.9999999999998
 20
765.6524078719553
 30
0.0
 11
831.9999999999998
 21
765.6524078719553
 31
0.0
  0
LINE
  5
1111D
330
1F
100
AcDbEntity
  8
AM_0
100
AcDbLine
 10
848.2499999999998
 20
765.6524078719553
 30
0.0
 11
831.7499999999999
 21
765.6524078719553
 31
0.0
  0
ARC
  5
1111E
330
1F
100
AcDbEntity
  8
AM_0
100
AcDbCircle
 10
832.4500000000005
 20
766.952407871955
 30
0.0
 40
0.7
100
AcDbArc
 50
90.0
 51
180.0
  0
LINE
  5
1111F
330
1F
100
AcDbEntity
  8
AM_0
100
AcDbLine
 10
831.7499999999999
 20
765.6524078719553
 30
0.0
 11
831.7499999999999
 21
766.952407871955
 31
0.0
  0
LINE
  5
11121
330
1F
100
AcDbEntity
  8
AM_0
100
AcDbLine
 10
847.5499999999991
 20
767.6524078719553
 30
0.0
 11
832.4500000000005
 21
767.6524078719553
 31
0.0
  0
ARC
  5
11122
330
1F
100
AcDbEntity
  8
AM_0
100
AcDbCircle
 10
847.5499999999991
 20
766.952407871955
 30
0.0
 40
0.7
100
AcDbArc
 50
0.0
 51
90.0
  0
LINE
  5
11123
330
1F
100
AcDbEntity
  8
AM_0
100
AcDbLine
 10
848.2499999999998
 20
765.6524078719553
 30
0.0
 11
847.9783897110408
 21
765.6524078719553
 31
0.0
  0
LINE
  5
11124
330
1F
100
AcDbEntity
  8
AM_0
100
AcDbLine
 10
848.2499999999998
 20
765.6524078719553
 30
0.0
 11
848.2499999999998
 21
766.952407871955
 31
0.0
  0
ARC
  5
1113B
330
1F
100
AcDbEntity
  8
AM_0
100
AcDbCircle
 10
833.9500000000006
 20
808.953192527637
 30
0.0
 40
0.7
100
AcDbArc
 50
90.0
 51
180.0
  0
LINE
  5
1113C
330
1F
100
AcDbEntity
  8
AM_0
100
AcDbLine
 10
846.7499999999999
 20
807.6531925276372
 30
0.0
 11
833.2499999999999
 21
807.6531925276372
 31
0.0
  0
LINE
  5
1113D
330
1F
100
AcDbEntity
  8
AM_0
100
AcDbLine
 10
833.2499999999999
 20
808.953192527637
 30
0.0
 11
833.2499999999999
 21
807.6531925276372
 31
0.0
  0
LINE
  5
1113E
330
1F
100
AcDbEntity
  8
AM_0
100
AcDbLine
 10
846.7499999999999
 20
808.953192527637
 30
0.0
 11
846.7499999999999
 21
807.6531925276372
 31
0.0
  0
ARC
  5
1113F
330
1F
100
AcDbEntity
  8
AM_0
100
AcDbCircle
 10
846.050000000001
 20
808.953192527637
 30
0.0
 40
0.7
100
AcDbArc
 50
0.0
 51
90.0
  0
LINE
  5
11140
330
1F
100
AcDbEntity
  8
AM_0
100
AcDbLine
 10
846.050000000001
 20
809.6531925276371
 30
0.0
 11
833.9500000000006
 21
809.6531925276371
 31
0.0
  0
CIRCLE
  5
11141
330
1F
100
AcDbEntity
  8
AM_4
100
AcDbCircle
 10
839.9999999999998
 20
325.652407871954
 30
0.0
 40
1.5
  0
CIRCLE
  5
11142
330
1F
100
AcDbEntity
  8
AM_4
100
AcDbCircle
 10
839.9999999999998
 20
325.652407871954
 30
0.0
 40
0.9
  0
ARC
  5
11143
330
1F
100
AcDbEntity
  8
AM_0
100
AcDbCircle
 10
840.0000005833097
 20
277.6524114502772
 30
0.0
 40
20.0
100
AcDbArc
 50
288.5530103009451
 51
12.00000000001624
  0
ARC
  5
11144
330
1F
100
AcDbEntity
  8
AM_0
100
AcDbCircle
 10
840.0000005833097
 20
277.6524114502772
 30
0.0
 40
27.99999999999998
100
AcDbArc
 50
298.6988856440321
 51
12.00000000001624
  0
ELLIPSE
  5
11145
330
1F
100
AcDbEntity
  8
AM_0
100
AcDbEllipse
 10
850.0994146587308
 20
312.8998583779339
 30
0.0
 11
8.175423163537406
 21
7.361184080315359
 31
0.0
210
0.0
220
0.0
230
1.0
 40
0.9998984660143657
 41
-0.5235108437523881
 42
0.523510843749695
  0
ELLIPSE
  5
11146
330
1F
100
AcDbEntity
  8
AM_0
100
AcDbEllipse
 10
830.5508860112894
 20
311.1521068115899
 30
0.0
 11
-2.517598988186082
 21
3.108975825323744
 31
0.0
210
0.0
220
0.0
230
1.0
 40
0.9998739192314511
 41
-0.542586541117085
 42
0.6805550776535858
  0
ELLIPSE
  5
11147
330
1F
100
AcDbEntity
  8
AM_0
100
AcDbEllipse
 10
849.4491151553301
 20
311.1521068115899
 30
0.0
 11
2.517598983174964
 21
3.108975829381448
 31
0.0
210
0.0
220
0.0
230
1.0
 40
0.9998739192309376
 41
-0.6805550792655727
 42
0.5425865395054288
  0
LINE
  5
11148
330
1F
100
AcDbEntity
  8
AM_0
100
AcDbLine
 10
812.6118668913894
 20
283.4739405684413
 30
0.0
 11
819.1402965784108
 21
315.1877707116532
 31
0.0
  0
LINE
  5
11149
330
1F
100
AcDbEntity
  8
AM_0
100
AcDbLine
 10
849.999997913841
 20
313.1524136536063
 30
0.0
 11
849.999997913841
 21
315.1143973939352
 31
0.0
  0
LINE
  5
1114A
330
1F
100
AcDbEntity
  8
AM_0
100
AcDbLine
 10
830.0000020861606
 20
315.1143973939352
 30
0.0
 11
830.0000020861606
 21
313.1524136536063
 31
0.0
  0
ARC
  5
1114B
330
1F
100
AcDbEntity
  8
AM_0
100
AcDbCircle
 10
840.0000005833097
 20
277.6524114502772
 30
0.0
 40
20.0
100
AcDbArc
 50
167.9999999999837
 51
251.4469864941587
  0
ARC
  5
1114C
330
1F
100
AcDbEntity
  8
AM_0
100
AcDbCircle
 10
840.0000005833097
 20
277.6524114502772
 30
0.0
 40
27.99999999999998
100
AcDbArc
 50
167.9999999999837
 51
241.3011143559678
  0
ARC
  5
1114D
330
1F
100
AcDbEntity
  8
AM_0
100
AcDbCircle
 10
840.0000005833097
 20
253.6524114502772
 30
0.0
 40
12.99999999999998
100
AcDbArc
 50
185.8933537043147
 51
354.1066462956853
  0
ARC
  5
1114E
330
1F
100
AcDbEntity
  8
AM_0
100
AcDbCircle
 10
840.0000005833097
 20
253.6524114502772
 30
0.0
 40
5.0
100
AcDbArc
 50
180.0
 51
0.0
  0
LINE
  5
1114F
330
1F
100
AcDbEntity
  8
AM_0
100
AcDbLine
 10
827.0687052607607
 20
252.3176637500764
 30
0.0
 11
827.0687127113395
 21
252.3176083363824
 31
0.0
  0
SPLINE
  5
11150
330
1F
100
AcDbEntity
  8
AM_0
100
AcDbSpline
210
0.0
220
0.0
230
1.0
 70
     8
 71
     3
 72
    10
 73
     6
 74
     0
 42
0.0000000001
 43
0.0000000001
 40
0.0
 40
0.0
 40
0.0
 40
0.0
 40
0.3024748699608323
 40
0.6512371276381316
 40
1.0
 40
1.0
 40
1.0
 40
1.0
 10
827.0687052607607
 20
252.3176637500764
 30
0.0
 10
827.0502325365905
 20
252.413368297367
 30
0.0
 10
827.0104602281406
 20
252.6194229507246
 30
0.0
 10
826.8330380636616
 20
252.9008560889679
 30
0.0
 10
826.647194391049
 20
253.0283050587982
 30
0.0
 10
826.554272472862
 20
253.0920295998685
 30
0.0
  0
LINE
  5
11151
330
1F
100
AcDbEntity
  8
AM_0
100
AcDbLine
 10
826.5542203187996
 20
253.0920575395462
 30
0.0
 11
826.554272472862
 21
253.0920295998685
 31
0.0
  0
LINE
  5
11152
330
1F
100
AcDbEntity
  8
AM_0
100
AcDbLine
 10
834.9999973177908
 20
256.7957589316493
 30
0.0
 11
834.9999973177908
 21
253.6524115152892
 31
0.0
  0
LINE
  5
11153
330
1F
100
AcDbEntity
  8
AM_0
100
AcDbLine
 10
845.0000026822106
 20
256.7957585401046
 30
0.0
 11
845.0000026822106
 21
253.6524115152892
 31
0.0
  0
LINE
  5
11154
330
1F
100
AcDbEntity
  8
AM_0
100
AcDbLine
 10
852.9312947392499
 20
252.3176637500764
 30
0.0
 11
852.9312947392499
 21
252.3176083363824
 31
0.0
  0
SPLINE
  5
11155
330
1F
100
AcDbEntity
  8
AM_0
100
AcDbSpline
210
0.0
220
0.0
230
1.0
 70
     8
 71
     3
 72
    10
 73
     6
 74
     0
 42
0.0000000001
 43
0.0000000001
 40
0.0
 40
0.0
 40
0.0
 40
0.0
 40
0.3024748699608323
 40
0.6512371276381316
 40
1.0
 40
1.0
 40
1.0
 40
1.0
 10
852.9312947392499
 20
252.3176637500764
 30
0.0
 10
852.9497674634111
 20
252.413368297367
 30
0.0
 10
852.9895397718609
 20
252.6194229507246
 30
0.0
 10
853.16696193634
 20
252.9008560889679
 30
0.0
 10
853.3528056089506
 20
253.0283050587982
 30
0.0
 10
853.4457275271414
 20
253.0920295998685
 30
0.0
  0
LINE
  5
11156
330
1F
100
AcDbEntity
  8
AM_0
100
AcDbLine
 10
826.6380766034107
 20
311.9841775171681
 30
0.0
 11
820.4370477795599
 21
281.810646878951
 31
0.0
  0
LINE
  5
11157
330
1F
100
AcDbEntity
  8
AM_0
100
AcDbLine
 10
853.3619233965909
 20
311.9841775171681
 30
0.0
 11
859.5629522204397
 21
281.810646878951
 31
0.0
  0
LINE
  5
11158
330
1F
100
AcDbEntity
  8
AM_0
100
AcDbLine
 10
853.3642256259916
 20
311.9874706737933
 30
0.0
 11
859.5658206939715
 21
281.8112541012688
 31
0.0
  0
LINE
  5
11159
330
1F
100
AcDbEntity
  8
AM_0
100
AcDbLine
 10
849.0000033378617
 20
312.152411627048
 30
0.0
 11
831.0000041127203
 21
312.152411627048
 31
0.0
  0
ARC
  5
1115A
330
1F
100
AcDbEntity
  8
AM_0
100
AcDbCircle
 10
831.0000005833098
 20
313.1524114502772
 30
0.0
 40
1.0
100
AcDbArc
 50
180.0
 51
270.0
  0
LINE
  5
1115B
330
1F
100
AcDbEntity
  8
AM_0
100
AcDbLine
 10
826.6381514992698
 20
311.9845407712341
 30
0.0
 11
826.6380745598798
 21
311.984178854731
 31
0.0
  0
LINE
  5
1115C
330
1F
100
AcDbEntity
  8
AM_0
100
AcDbLine
 10
826.6381511092202
 20
311.9845425956191
 30
0.0
 11
826.6357743740117
 21
311.9874706737933
 31
0.0
  0
ARC
  5
1115D
330
1F
100
AcDbEntity
  8
AM_0
100
AcDbCircle
 10
849.0000005833097
 20
313.1524114502772
 30
0.0
 40
1.0
100
AcDbArc
 50
270.0
 51
0.0
  0
LINE
  5
1115E
330
1F
100
AcDbEntity
  8
AM_0
100
AcDbLine
 10
853.3618488907794
 20
311.9845425956191
 30
0.0
 11
853.3642256259916
 21
311.9874706737933
 31
0.0
  0
LINE
  5
1115F
330
1F
100
AcDbEntity
  8
AM_0
100
AcDbLine
 10
853.3619266067288
 20
311.984178854731
 30
0.0
 11
853.3618496673406
 21
311.9845407712364
 31
0.0
  0
ELLIPSE
  5
11160
330
1F
100
AcDbEntity
  8
AM_0
100
AcDbEllipse
 10
829.9005865078905
 20
312.8998583779339
 30
0.0
 11
-8.175423162537745
 21
7.361184081423681
 31
0.0
210
0.0
220
0.0
230
0.9999999999999998
 40
0.9998984660148632
 41
-0.5235108436138065
 42
0.5235108438878724
  0
LINE
  5
11161
330
1F
100
AcDbEntity
  8
AM_0
100
AcDbLine
 10
819.1402965784108
 20
315.1877707116532
 30
0.0
 11
819.1404455900208
 21
315.1884785168109
 31
0.0
  0
LINE
  5
11162
330
1F
100
AcDbEntity
  8
AM_0
100
AcDbLine
 10
831.2535548210197
 20
337.0059615247192
 30
0.0
 11
829.5464479923301
 21
335.2988546960282
 31
0.0
  0
LINE
  5
11163
330
1F
100
AcDbEntity
  8
AM_0
100
AcDbLine
 10
850.4535520076787
 20
335.2988546960282
 30
0.0
 11
848.7464451789909
 21
337.0059615247192
 31
0.0
  0
LINE
  5
11164
330
1F
100
AcDbEntity
  8
AM_0
100
AcDbLine
 10
849.9335685372406
 20
315.1524102561402
 30
0.0
 11
830.0664314627701
 21
315.1524102561402
 31
0.0
  0
LINE
  5
11165
330
1F
100
AcDbEntity
  8
AM_0
100
AcDbLine
 10
842.1999999880789
 20
334.1524115078391
 30
0.0
 11
850.6000006198918
 21
334.1524115078391
 31
0.0
  0
ELLIPSE
  5
11166
330
1F
100
AcDbEntity
  8
AM_0
100
AcDbEllipse
 10
840.0000005833097
 20
365.1524114502731
 30
0.0
 11
-8.881816225011755
 21
0.0387544718408566
 31
0.0
210
0.0
220
0.0
230
1.0
 40
0.0169009011660212
 41
3.394248278198178
 42
6.535840931787971
  0
LINE
  5
11167
330
1F
100
AcDbEntity
  8
AM_0
100
AcDbLine
 10
847.2963237762504
 20
330.6524118654652
 30
0.0
 11
842.4000033736209
 21
330.6524118654652
 31
0.0
  0
SPLINE
  5
11168
330
1F
100
AcDbEntity
  8
AM_0
100
AcDbSpline
210
0.0
220
0.0
230
1.0
 70
     8
 71
     3
 72
    15
 73
    11
 74
     0
 42
0.0000000001
 43
0.0000000001
 40
0.0
 40
0.0
 40
0.0
 40
0.0
 40
0.1342400856730974
 40
0.2684792969621194
 40
0.4027201865689852
 40
0.536959883998358
 40
0.6712067218394317
 40
0.8054539601848881
 40
0.9870466892121971
 40
1.0
 40
1.0
 40
1.0
 40
1.0
 10
826.6360649466495
 20
323.4061187379302
 30
0.0
 10
826.8464519686911
 20
323.4862598095742
 30
0.0
 10
827.2672246423915
 20
323.6465414308559
 30
0.0
 10
827.8368736237606
 20
324.015573506736
 30
0.0
 10
828.3385051932999
 20
324.4692554770631
 30
0.0
 10
828.7577186329908
 20
325.0012234018023
 30
0.0
 10
829.0800359927214
 20
325.5967694822029
 30
0.0
 10
829.3250859136495
 20
326.3120440803032
 30
0.0
 10
829.3981648940606
 20
326.863494972627
 30
0.0
 10
829.3998918463493
 20
327.1889957429189
 30
0.0
 10
829.4000068306903
 20
327.2106683127822
 30
0.0
  0
LINE
  5
11169
330
1F
100
AcDbEntity
  8
AM_0
100
AcDbLine
 10
830.3955906629616
 20
315.1524102561402
 30
0.0
 11
830.54776877165
 21
315.155345784895
 31
0.0
  0
LINE
  5
1116A
330
1F
100
AcDbEntity
  8
AM_0
100
AcDbLine
 10
830.54776877165
 20
315.155345784895
 30
0.0
 11
830.5501455068624
 21
315.1524102561402
 31
0.0
  0
ELLIPSE
  5
1116B
330
1F
100
AcDbEntity
  8
AM_0
100
AcDbEllipse
 10
840.0000005833097
 20
315.1524114502772
 30
0.0
 11
8.600000000000362
 21
0.0000000000001781
 31
0.0
210
0.0
220
0.0
230
1.0
 40
0.0087268677909042
 41
2.988945925373835
 42
3.141592653587431
  0
LINE
  5
1116C
330
1F
100
AcDbEntity
  8
AM_0
100
AcDbLine
 10
831.4999976754204
 20
315.1752388350901
 30
0.0
 11
831.4999976754204
 21
315.1524102561402
 31
0.0
  0
LINE
  5
1116D
330
1F
100
AcDbEntity
  8
AM_0
100
AcDbLine
 10
826.5004494786298
 20
323.3620560042782
 30
0.0
 11
826.6360500454901
 21
323.4061112873492
 31
0.0
  0
LINE
  5
1116E
330
1F
100
AcDbEntity
  8
AM_0
100
AcDbLine
 10
826.4997640252111
 20
323.3618250362811
 30
0.0
 11
826.5004494786298
 21
323.3620560042782
 31
0.0
  0
SPLINE
  5
1116F
330
1F
100
AcDbEntity
  8
AM_0
100
AcDbSpline
210
0.0
220
0.0
230
1.0
 70
    11
 71
     3
 72
    27
 73
    23
 74
     0
 42
0.0000000001
 43
0.0000000001
 40
0.0
 40
0.0
 40
0.0
 40
0.0
 40
0.053190837502511
 40
0.1063644588411779
 40
0.1599829458734431
 40
0.2139181760639307
 40
0.2673623781766122
 40
0.3202709806289082
 40
0.3734354276904858
 40
0.4272439893572347
 40
0.4810891067632594
 40
0.4999996709334277
 40
0.5531905084359387
 40
0.6063644557744308
 40
0.6599824399142228
 40
0.7139179319798159
 40
0.7673620942642306
 40
0.8202713499507698
 40
0.8734357970123472
 40
0.9272443586790963
 40
0.9810894760851207
 40
1.0
 40
1.0
 40
1.0
 40
1.0
 10
839.9999999999998
 20
323.9024093620701
 30
0.0
 10
839.8046948897299
 20
323.8833280685121
 30
0.0
 10
839.4141478831624
 20
323.8451716573982
 30
0.0
 10
838.8933698625113
 20
323.5480469950312
 30
0.0
 10
838.4939187689614
 20
323.1084140450162
 30
0.0
 10
838.2625326186206
 20
322.5553576688371
 30
0.0
 10
838.2274809811205
 20
321.9593176843
 30
0.0
 10
838.3893566699606
 20
321.3883442682381
 30
0.0
 10
838.7289819897304
 20
320.9019276150771
 30
0.0
 10
839.2122086231118
 20
320.5519624856042
 30
0.0
 10
839.665096807861
 20
320.4181405936461
 30
0.0
 10
840.1250467167118
 20
320.3908274759251
 30
0.0
 10
840.5861573640994
 20
320.4684336370628
 30
0.0
 10
841.1065442138296
 20
320.7544043245211
 30
0.0
 10
841.5061034738609
 20
321.1970516404308
 30
0.0
 10
841.7374733310115
 20
321.7492819918821
 30
0.0
 10
841.7725174350707
 20
322.3455737938989
 30
0.0
 10
841.6106424685603
 20
322.9163769833581
 30
0.0
 10
841.2710296446801
 20
323.403246376422
 30
0.0
 10
840.7877465038199
 20
323.7515611444251
 30
0.0
 10
840.3350250965702
 20
323.8902136381289
 30
0.0
 10
840.0691149246302
 20
323.8998934116262
 30
0.0
 10
839.9999999999998
 20
323.9024093620701
 30
0.0
  0
SPLINE
  5
11170
330
1F
100
AcDbEntity
  8
AM_0
100
AcDbSpline
210
0.0
220
0.0
230
1.0
 70
     8
 71
     3
 72
     9
 73
     5
 74
     0
 42
0.0000000001
 43
0.0000000001
 40
0.0
 40
0.0
 40
0.0
 40
0.0
 40
0.4916803725966349
 40
1.0
 40
1.0
 40
1.0
 40
1.0
 10
840.6105750799214
 20
323.7706309430541
 30
0.0
 10
840.4070837324415
 20
323.7149663692362
 30
0.0
 10
839.993214562919
 20
323.601753442872
 30
0.0
 10
839.5793589224611
 20
323.7162811254489
 30
0.0
 10
839.36898797751
 20
323.7744977943821
 30
0.0
  0
LINE
  5
11171
330
1F
100
AcDbEntity
  8
AM_0
100
AcDbLine
 10
829.3999993801115
 20
334.1524115078391
 30
0.0
 11
837.8000000119207
 21
334.1524115078391
 31
0.0
  0
LINE
  5
11172
330
1F
100
AcDbEntity
  8
AM_0
100
AcDbLine
 10
832.7036762237602
 20
330.6524118654652
 30
0.0
 11
837.6000040769612
 21
330.6524118654652
 31
0.0
  0
LINE
  5
11173
330
1F
100
AcDbEntity
  8
AM_0
100
AcDbLine
 10
831.4999976754204
 20
334.1524115078391
 30
0.0
 11
831.4999976754204
 21
330.6524118654652
 31
0.0
  0
LINE
  5
11174
330
1F
100
AcDbEntity
  8
AM_0
100
AcDbLine
 10
831.6480779647916
 20
330.6524118654652
 30
0.0
 11
830.3036803007106
 21
330.6524118654652
 31
0.0
  0
LINE
  5
11175
330
1F
100
AcDbEntity
  8
AM_0
100
AcDbLine
 10
830.2791455388105
 20
327.4524098508282
 30
0.0
 11
831.4791435003296
 21
327.4524098508282
 31
0.0
  0
SPLINE
  5
11176
330
1F
100
AcDbEntity
  8
AM_0
100
AcDbSpline
210
0.0
220
0.0
230
1.0
 70
     8
 71
     3
 72
    12
 73
     8
 74
     0
 42
0.0000000001
 43
0.0000000001
 40
0.0
 40
0.0
 40
0.0
 40
0.0
 40
0.2224642550582935
 40
0.4450335550800851
 40
0.6642561061077418
 40
0.8776088832847314
 40
1.0
 40
1.0
 40
1.0
 40
1.0
 10
830.3036803007106
 20
330.6524118654652
 30
0.0
 10
830.2525283639004
 20
330.6466670864052
 30
0.0
 10
830.1502003369513
 20
330.6351748156649
 30
0.0
 10
830.0143545391691
 20
330.5451309445702
 30
0.0
 10
829.9139579401998
 20
330.413350834101
 30
0.0
 10
829.8648048477497
 20
330.2736106867451
 30
0.0
 10
829.8602012086211
 20
330.184789480219
 30
0.0
 10
829.8585230112111
 20
330.1524108521871
 30
0.0
  0
LINE
  5
11177
330
1F
100
AcDbEntity
  8
AM_0
100
AcDbLine
 10
829.9000003933905
 20
330.6524118654652
 30
0.0
 11
830.3036803007106
 21
330.6524118654652
 31
0.0
  0
ARC
  5
11178
330
1F
100
AcDbEntity
  8
AM_0
100
AcDbCircle
 10
829.9000005833113
 20
330.1524114502763
 30
0.0
 40
0.5
100
AcDbArc
 50
90.0
 51
180.0
  0
LINE
  5
11179
330
1F
100
AcDbEntity
  8
AM_0
100
AcDbLine
 10
829.8585230112111
 20
330.1524108521871
 30
0.0
 11
829.8585230112111
 21
328.6524078123512
 31
0.0
  0
LINE
  5
1117A
330
1F
100
AcDbEntity
  8
AM_0
100
AcDbLine
 10
829.3999993801115
 20
330.1524108521871
 30
0.0
 11
829.3999993801115
 21
327.2109812371664
 31
0.0
  0
SPLINE
  5
1117B
330
1F
100
AcDbEntity
  8
AM_0
100
AcDbSpline
210
0.0
220
0.0
230
1.0
 70
     8
 71
     3
 72
    13
 73
     9
 74
     0
 42
0.0000000001
 43
0.0000000001
 40
0.0
 40
0.0
 40
0.0
 40
0.0
 40
0.1442953361041094
 40
0.3522100091917457
 40
0.5632040336883214
 40
0.7789635683386839
 40
0.9967937324363282
 40
0.9999999999999998
 40
0.9999999999999998
 40
0.9999999999999998
 40
0.9999999999999998
 10
829.8585230112111
 20
328.6524078123512
 30
0.0
 10
829.8603546553913
 20
328.5613445756312
 30
0.0
 10
829.8648255096194
 20
328.3390686219673
 30
0.0
 10
829.9081391543003
 20
328.0060602215613
 30
0.0
 10
829.9933975197308
 20
327.7033318070162
 30
0.0
 10
830.1176632572294
 20
327.5016545629232
 30
0.0
 10
830.2228573045612
 20
327.4526366604159
 30
0.0
 10
830.2783407182195
 20
327.452413093798
 30
0.0
 10
830.2791455388105
 20
327.4524098508282
 30
0.0
  0
LINE
  5
1117C
330
1F
100
AcDbEntity
  8
AM_0
100
AcDbLine
 10
831.6480779647916
 20
328.6524078123512
 30
0.0
 11
831.6480779647916
 21
330.6524118654652
 31
0.0
  0
SPLINE
  5
1117D
330
1F
100
AcDbEntity
  8
AM_0
100
AcDbSpline
210
0.0
220
0.0
230
1.0
 70
     8
 71
     3
 72
    11
 73
     7
 74
     0
 42
0.0000000001
 43
0.0000000001
 40
0.0
 40
0.0
 40
0.0
 40
0.0
 40
0.2651715875892639
 40
0.5880517581800533
 40
0.903943630094146
 40
1.0
 40
1.0
 40
1.0
 40
1.0
 10
831.8270185589788
 20
327.608484613173
 30
0.0
 10
831.7970081561306
 20
327.6672849474703
 30
0.0
 10
831.7304562667503
 20
327.7976821754683
 30
0.0
 10
831.6727501919611
 20
328.1263119839341
 30
0.0
 10
831.6497726523992
 20
328.434029891006
 30
0.0
 10
831.6483984058503
 20
328.6111156864372
 30
0.0
 10
831.6480779647916
 20
328.6524078123512
 30
0.0
  0
SPLINE
  5
1117E
330
1F
100
AcDbEntity
  8
AM_0
100
AcDbSpline
210
0.0
220
0.0
230
1.0
 70
     8
 71
     3
 72
    12
 73
     8
 74
     0
 42
0.0000000001
 43
0.0000000001
 40
0.0
 40
0.0
 40
0.0
 40
0.0
 40
0.2075443089644129
 40
0.4149956787548483
 40
0.6247659325089368
 40
0.8397472004965047
 40
0.9999999999999998
 40
0.9999999999999998
 40
0.9999999999999998
 40
0.9999999999999998
 10
832.2585263848303
 20
330.1524108521871
 30
0.0
 10
832.2632597578994
 20
330.2075275360244
 30
0.0
 10
832.2727243843999
 20
330.3177362222259
 30
0.0
 10
832.3463093192403
 20
330.4650006632323
 30
0.0
 10
832.4551388753787
 20
330.5780464957602
 30
0.0
 10
832.5808562160307
 20
330.6423563784711
 30
0.0
 10
832.6669204202298
 20
330.6494026040991
 30
0.0
 10
832.7036762237602
 20
330.6524118654652
 30
0.0
  0
LINE
  5
1117F
330
1F
100
AcDbEntity
  8
AM_0
100
AcDbLine
 10
832.2585263848303
 20
328.6524078123512
 30
0.0
 11
832.2585263848303
 21
330.1524108521871
 31
0.0
  0
SPLINE
  5
11180
330
1F
100
AcDbEntity
  8
AM_0
100
AcDbSpline
210
0.0
220
0.0
230
1.0
 70
     8
 71
     3
 72
    12
 73
     8
 74
     0
 42
0.0000000001
 43
0.0000000001
 40
0.0
 40
0.0
 40
0.0
 40
0.0
 40
0.2103069506345876
 40
0.4262052656584677
 40
0.6440335641950511
 40
0.8601537119585163
 40
1.0
 40
1.0
 40
1.0
 40
1.0
 10
831.4791435003296
 20
327.4524098508282
 30
0.0
 10
831.5594664268699
 20
327.4651545938173
 30
0.0
 10
831.7222478002111
 20
327.4909829202461
 30
0.0
 10
831.956189509219
 20
327.6942667231033
 30
0.0
 10
832.1422824616401
 20
327.9992344570351
 30
0.0
 10
832.2440922602908
 20
328.3396644476552
 30
0.0
 10
832.2544551727785
 20
328.564197089715
 30
0.0
 10
832.2585263848303
 20
328.6524078123512
 30
0.0
  0
LINE
  5
11181
330
1F
100
AcDbEntity
  8
AM_0
100
AcDbLine
 10
829.3999993801115
 20
334.9453022949624
 30
0.0
 11
829.3999993801115
 21
334.1524115078391
 31
0.0
  0
ARC
  5
11182
330
1F
100
AcDbEntity
  8
AM_0
100
AcDbCircle
 10
829.9000005833113
 20
334.9453046690901
 30
0.0
 40
0.5
100
AcDbArc
 50
135.0000000000182
 51
180.0
  0
SPLINE
  5
11183
330
1F
100
AcDbEntity
  8
AM_0
100
AcDbSpline
210
0.0
220
0.0
230
1.0
 70
     8
 71
     3
 72
    12
 73
     8
 74
     0
 42
0.0000000001
 43
0.0000000001
 40
0.0
 40
0.0
 40
0.0
 40
0.0
 40
0.2105802109662034
 40
0.4210624887067515
 40
0.6341398041422523
 40
0.8507098093972539
 40
1.0
 40
1.0
 40
1.0
 40
1.0
 10
837.8000000119207
 20
332.3524108402662
 30
0.0
 10
837.8129231200109
 20
332.2193665654991
 30
0.0
 10
837.8387633261098
 20
331.9533398900344
 30
0.0
 10
838.0398800382007
 20
331.5977649863253
 30
0.0
 10
838.33798146578
 20
331.325309655163
 30
0.0
 10
838.6771683637507
 20
331.1748502788351
 30
0.0
 10
838.9064421978289
 20
331.1589152202441
 30
0.0
 10
838.9999979734401
 20
331.1524128787441
 30
0.0
  0
SPLINE
  5
11184
330
1F
100
AcDbEntity
  8
AM_0
100
AcDbSpline
210
0.0
220
0.0
230
1.0
 70
     8
 71
     3
 72
    12
 73
     8
 74
     0
 42
0.0000000001
 43
0.0000000001
 40
0.0
 40
0.0
 40
0.0
 40
0.0
 40
0.2159000845318164
 40
0.4317353505324416
 40
0.6488716350138147
 40
0.8647711145598911
 40
0.9999999999999998
 40
0.9999999999999998
 40
0.9999999999999998
 40
0.9999999999999998
 10
841.0000020265615
 20
331.1524128787441
 30
0.0
 10
841.1356294526102
 20
331.1658495151992
 30
0.0
 10
841.4068435860297
 20
331.1927187540951
 30
0.0
 10
841.7671848528406
 20
331.401183073604
 30
0.0
 10
842.03907280597
 20
331.7081726031661
 30
0.0
 10
842.1805414221307
 20
332.0461531032761
 30
0.0
 10
842.19458964377
 20
332.267257606929
 30
0.0
 10
842.1999999880789
 20
332.3524108402662
 30
0.0
  0
LINE
  5
11185
330
1F
100
AcDbEntity
  8
AM_0
100
AcDbLine
 10
838.8000020384804
 20
327.4524098508282
 30
0.0
 11
841.199997961521
 21
327.4524098508282
 31
0.0
  0
SPLINE
  5
11186
330
1F
100
AcDbEntity
  8
AM_0
100
AcDbSpline
210
0.0
220
0.0
230
1.0
 70
    24
 71
     3
 72
    12
 73
     8
 74
     0
 42
0.0000000001
 43
0.0000000001
 40
0.0
 40
0.0
 40
0.0
 40
0.0
 40
0.2224586193176896
 40
0.4450329307841764
 40
0.6642564381432973
 40
0.8776092673112088
 40
1.0
 40
1.0
 40
1.0
 40
1.0
 10
837.6000040769612
 20
330.6524118654652
 30
0.0
 10
837.6000040769612
 20
330.646666618728
 30
0.0
 10
837.6000040769612
 20
330.6351731373738
 30
0.0
 10
837.6000040769612
 20
330.5451321802411
 30
0.0
 10
837.6000040769612
 20
330.4133510367778
 30
0.0
 10
837.6000040769612
 20
330.2736109508983
 30
0.0
 10
837.6000040769612
 20
330.1847894998009
 30
0.0
 10
837.6000040769612
 20
330.1524108521871
 30
0.0
  0
SPLINE
  5
11187
330
1F
100
AcDbEntity
  8
AM_0
100
AcDbSpline
210
0.0
220
0.0
230
1.0
 70
     8
 71
     3
 72
    12
 73
     8
 74
     0
 42
0.0000000001
 43
0.0000000001
 40
0.0
 40
0.0
 40
0.0
 40
0.0
 40
0.2096516105512975
 40
0.4191925812806952
 40
0.6317558771779203
 40
0.8486288490026819
 40
1.0
 40
1.0
 40
1.0
 40
1.0
 10
837.6000040769612
 20
328.6524078123512
 30
0.0
 10
837.6128576391201
 20
328.5197516767271
 30
0.0
 10
837.6385579802207
 20
328.2545094123461
 30
0.0
 10
837.8384692887211
 20
327.8998126972879
 30
0.0
 10
838.1351346142199
 20
327.6272352284691
 30
0.0
 10
838.4745696480512
 20
327.4753258422588
 30
0.0
 10
838.7051990602103
 20
327.4590855976239
 30
0.0
 10
838.8000020384804
 20
327.4524098508282
 30
0.0
  0
LINE
  5
11188
330
1F
100
AcDbEntity
  8
AM_0
100
AcDbLine
 10
837.6000040769612
 20
330.1524108521871
 30
0.0
 11
837.6000040769612
 21
328.6524078123512
 31
0.0
  0
SPLINE
  5
11189
330
1F
100
AcDbEntity
  8
AM_0
100
AcDbSpline
210
0.0
220
0.0
230
1.0
 70
     8
 71
     3
 72
     9
 73
     5
 74
     0
 42
0.0000000001
 43
0.0000000001
 40
0.0
 40
0.0
 40
0.0
 40
0.0
 40
0.0831329895758583
 40
1.0
 40
1.0
 40
1.0
 40
1.0
 10
839.143287539491
 20
327.4524098508282
 30
0.0
 10
839.1636577964199
 20
327.4658791771612
 30
0.0
 10
839.4086899676203
 20
327.6279006129571
 30
0.0
 10
839.7171673054707
 20
327.6374118538893
 30
0.0
 10
839.9999999999998
 20
327.6461323969302
 30
0.0
  0
SPLINE
  5
1118A
330
1F
100
AcDbEntity
  8
AM_0
100
AcDbSpline
210
0.0
220
0.0
230
1.0
 70
     8
 71
     3
 72
     9
 73
     5
 74
     0
 42
0.0000000001
 43
0.0000000001
 40
0.0
 40
0.0
 40
0.0
 40
0.0
 40
0.9022265132390415
 40
0.9999999999999998
 40
0.9999999999999998
 40
0.9999999999999998
 40
0.9999999999999998
 10
839.9999999999998
 20
327.6461323969302
 30
0.0
 10
840.2835777199614
 20
327.64161603297
 30
0.0
 10
840.5978865058294
 20
327.6366102346579
 30
0.0
 10
840.8447432172305
 20
327.4688157068704
 30
0.0
 10
840.8688792586415
 20
327.4524098508282
 30
0.0
  0
LINE
  5
1118B
330
1F
100
AcDbEntity
  8
AM_0
100
AcDbLine
 10
838.9999979734401
 20
331.1524128787441
 30
0.0
 11
841.0000020265615
 21
331.1524128787441
 31
0.0
  0
SPLINE
  5
1118C
330
1F
100
AcDbEntity
  8
AM_0
100
AcDbSpline
210
0.0
220
0.0
230
1.0
 70
    24
 71
     3
 72
    12
 73
     8
 74
     0
 42
0.0000000001
 43
0.0000000001
 40
0.0
 40
0.0
 40
0.0
 40
0.0
 40
0.2224586193176896
 40
0.4450329307841764
 40
0.6642564381432973
 40
0.8776092673112088
 40
1.0
 40
1.0
 40
1.0
 40
1.0
 10
842.4000033736209
 20
330.6524118654652
 30
0.0
 10
842.4000033736209
 20
330.646666618728
 30
0.0
 10
842.4000033736209
 20
330.6351731373738
 30
0.0
 10
842.4000033736209
 20
330.5451321802411
 30
0.0
 10
842.4000033736209
 20
330.4133510367778
 30
0.0
 10
842.4000033736209
 20
330.2736109508983
 30
0.0
 10
842.4000033736209
 20
330.1847894998009
 30
0.0
 10
842.4000033736209
 20
330.1524108521871
 30
0.0
  0
LINE
  5
1118D
330
1F
100
AcDbEntity
  8
AM_0
100
AcDbLine
 10
842.4000033736209
 20
330.1524108521871
 30
0.0
 11
842.4000033736209
 21
328.6524078123512
 31
0.0
  0
SPLINE
  5
1118E
330
1F
100
AcDbEntity
  8
AM_0
100
AcDbSpline
210
0.0
220
0.0
230
1.0
 70
     8
 71
     3
 72
    12
 73
     8
 74
     0
 42
0.0000000001
 43
0.0000000001
 40
0.0
 40
0.0
 40
0.0
 40
0.0
 40
0.2096510079034625
 40
0.4191913763030616
 40
0.6317569357031695
 40
0.8486292841221461
 40
1.0
 40
1.0
 40
1.0
 40
1.0
 10
842.4000033736209
 20
328.6524078123512
 30
0.0
 10
842.3871497183498
 20
328.5197517743372
 30
0.0
 10
842.3614491910919
 20
328.2545097051193
 30
0.0
 10
842.1615383753996
 20
327.8998099059872
 30
0.0
 10
841.8648656323311
 20
327.627237500235
 30
0.0
 10
841.5254305892702
 20
327.4753255906112
 30
0.0
 10
841.2948010089202
 20
327.4590855243164
 30
0.0
 10
841.199997961521
 20
327.4524098508282
 30
0.0
  0
LINE
  5
1118F
330
1F
100
AcDbEntity
  8
AM_0
100
AcDbLine
 10
837.8000000119207
 20
334.1524115078391
 30
0.0
 11
837.8000000119207
 21
332.3524108402662
 31
0.0
  0
LINE
  5
11190
330
1F
100
AcDbEntity
  8
AM_0
100
AcDbLine
 10
842.1999999880789
 20
332.3524108402662
 30
0.0
 11
842.1999999880789
 21
334.1524115078391
 31
0.0
  0
SPLINE
  5
11191
330
1F
100
AcDbEntity
  8
AM_0
100
AcDbSpline
210
0.0
220
0.0
230
1.0
 70
     8
 71
     3
 72
    15
 73
    11
 74
     0
 42
0.0000000001
 43
0.0000000001
 40
0.0
 40
0.0
 40
0.0
 40
0.0
 40
0.1323222055744279
 40
0.2684818896339857
 40
0.4008044275562407
 40
0.5369650614541227
 40
0.6692947882991475
 40
0.8054616955154148
 40
0.9870472042478175
 40
1.0
 40
1.0
 40
1.0
 40
1.0
 10
853.3639350533503
 20
323.4061187379302
 30
0.0
 10
853.1564142730511
 20
323.484779801659
 30
0.0
 10
852.7353543988409
 20
323.6443831799361
 30
0.0
 10
852.1684481240116
 20
324.0119533808193
 30
0.0
 10
851.6631732883487
 20
324.4663001887361
 30
0.0
 10
851.2461181441702
 20
324.9960813680359
 30
0.0
 10
850.9206207374099
 20
325.5934332206479
 30
0.0
 10
850.6756005577408
 20
326.3089433843193
 30
0.0
 10
850.6018313700787
 20
326.8634931227611
 30
0.0
 10
850.6001079204414
 20
327.188995627439
 30
0.0
 10
850.5999931693112
 20
327.2106683127822
 30
0.0
  0
LINE
  5
11192
330
1F
100
AcDbEntity
  8
AM_0
100
AcDbLine
 10
849.6044093370509
 20
315.1524102561402
 30
0.0
 11
849.4522312283496
 21
315.155345784895
 31
0.0
  0
ELLIPSE
  5
11193
330
1F
100
AcDbEntity
  8
AM_0
100
AcDbEllipse
 10
840.0000005833097
 20
315.1524114502772
 30
0.0
 11
8.600000000000362
 21
0.0000000000002564
 31
0.0
210
0.0
220
0.0
230
1.0
 40
0.0087268677905764
 41
-0.0000000000003886
 42
0.1526467282159836
  0
LINE
  5
11194
330
1F
100
AcDbEntity
  8
AM_0
100
AcDbLine
 10
849.4498551876112
 20
315.1524114388672
 30
0.0
 11
849.4494851832513
 21
315.1524114502772
 31
0.0
  0
LINE
  5
11195
330
1F
100
AcDbEntity
  8
AM_0
100
AcDbLine
 10
849.4522312283496
 20
315.155345784895
 30
0.0
 11
849.449854493141
 21
315.1524102561402
 31
0.0
  0
LINE
  5
11196
330
1F
100
AcDbEntity
  8
AM_0
100
AcDbLine
 10
848.5000023245792
 20
315.1524102561402
 30
0.0
 11
848.5000023245792
 21
315.1752388350901
 31
0.0
  0
LINE
  5
11197
330
1F
100
AcDbEntity
  8
AM_0
100
AcDbLine
 10
853.500243425371
 20
323.3618250362811
 30
0.0
 11
853.4995505213791
 21
323.3620560042782
 31
0.0
  0
LINE
  5
11198
330
1F
100
AcDbEntity
  8
AM_0
100
AcDbLine
 10
853.4995505213791
 20
323.3620560042782
 30
0.0
 11
853.3639574050901
 21
323.4061112873492
 31
0.0
  0
LINE
  5
11199
330
1F
100
AcDbEntity
  8
AM_0
100
AcDbLine
 10
853.3639574050901
 20
323.4061112873492
 30
0.0
 11
853.3639350533503
 21
323.4061187379302
 31
0.0
  0
LINE
  5
1119A
330
1F
100
AcDbEntity
  8
AM_0
100
AcDbLine
 10
848.5000023245792
 20
330.6524118654652
 30
0.0
 11
848.5000023245792
 21
334.1524115078391
 31
0.0
  0
SPLINE
  5
1119B
330
1F
100
AcDbEntity
  8
AM_0
100
AcDbSpline
210
0.0
220
0.0
230
1.0
 70
     8
 71
     3
 72
    12
 73
     8
 74
     0
 42
0.0000000001
 43
0.0000000001
 40
0.0
 40
0.0
 40
0.0
 40
0.0
 40
0.2075443089644129
 40
0.4149956787548483
 40
0.6247659325089368
 40
0.8397472004965047
 40
0.9999999999999998
 40
0.9999999999999998
 40
0.9999999999999998
 40
0.9999999999999998
 10
847.7414736151711
 20
330.1524108521871
 30
0.0
 10
847.7367402421112
 20
330.2075275360244
 30
0.0
 10
847.7272756155997
 20
330.3177362222259
 30
0.0
 10
847.6536906807613
 20
330.4650006632323
 30
0.0
 10
847.5448611246209
 20
330.5780464957602
 30
0.0
 10
847.4191437839706
 20
330.6423563784711
 30
0.0
 10
847.33307957977
 20
330.6494026040991
 30
0.0
 10
847.2963237762504
 20
330.6524118654652
 30
0.0
  0
LINE
  5
1119C
330
1F
100
AcDbEntity
  8
AM_0
100
AcDbLine
 10
848.3519220352208
 20
330.6524118654652
 30
0.0
 11
849.696319699291
 21
330.6524118654652
 31
0.0
  0
SPLINE
  5
1119D
330
1F
100
AcDbEntity
  8
AM_0
100
AcDbSpline
210
0.0
220
0.0
230
1.0
 70
     8
 71
     3
 72
    12
 73
     8
 74
     0
 42
0.0000000001
 43
0.0000000001
 40
0.0
 40
0.0
 40
0.0
 40
0.0
 40
0.2224632427753143
 40
0.4450315300361389
 40
0.6642584442746302
 40
0.8776102506287575
 40
1.0
 40
1.0
 40
1.0
 40
1.0
 10
849.696319699291
 20
330.6524118654652
 30
0.0
 10
849.7474717723196
 20
330.646667192761
 30
0.0
 10
849.8498000717789
 20
330.6351751347852
 30
0.0
 10
849.9856449315792
 20
330.545128948695
 30
0.0
 10
850.0860494960615
 20
330.413353134496
 30
0.0
 10
850.1352060017106
 20
330.2736110752712
 30
0.0
 10
850.1398016949895
 20
330.184789484169
 30
0.0
 10
850.1414769887905
 20
330.1524108521871
 30
0.0
  0
ARC
  5
1119E
330
1F
100
AcDbEntity
  8
AM_0
100
AcDbCircle
 10
850.1000005833102
 20
330.1524114502763
 30
0.0
 40
0.5
100
AcDbArc
 50
0.0
 51
90.0
  0
LINE
  5
1119F
330
1F
100
AcDbEntity
  8
AM_0
100
AcDbLine
 10
850.0999996066109
 20
330.6524118654652
 30
0.0
 11
849.696319699291
 21
330.6524118654652
 31
0.0
  0
SPLINE
  5
111A0
330
1F
100
AcDbEntity
  8
AM_0
100
AcDbSpline
210
0.0
220
0.0
230
1.0
 70
     8
 71
     3
 72
    11
 73
     7
 74
     0
 42
0.0000000001
 43
0.0000000001
 40
0.0
 40
0.0
 40
0.0
 40
0.0
 40
0.2651705420013533
 40
0.5880511720185846
 40
0.9039434934154638
 40
1.0
 40
1.0
 40
1.0
 40
1.0
 10
848.1729888915996
 20
327.608484613173
 30
0.0
 10
848.2029962252907
 20
327.6672850777672
 30
0.0
 10
848.2695415044616
 20
327.797682978904
 30
0.0
 10
848.3272504859504
 20
328.1263119003093
 30
0.0
 10
848.3502273056618
 20
328.4340298961788
 30
0.0
 10
848.3516015862203
 20
328.611115687414
 30
0.0
 10
848.3519220352208
 20
328.6524078123512
 30
0.0
  0
LINE
  5
111A1
330
1F
100
AcDbEntity
  8
AM_0
100
AcDbLine
 10
848.3519220352208
 20
328.6524078123512
 30
0.0
 11
848.3519220352208
 21
330.6524118654652
 31
0.0
  0
LINE
  5
111A2
330
1F
100
AcDbEntity
  8
AM_0
100
AcDbLine
 10
850.6000006198918
 20
330.1524108521871
 30
0.0
 11
850.6000006198918
 21
327.2109812371664
 31
0.0
  0
LINE
  5
111A3
330
1F
100
AcDbEntity
  8
AM_0
100
AcDbLine
 10
850.1414769887905
 20
330.1524108521871
 30
0.0
 11
850.1414769887905
 21
328.6524078123512
 31
0.0
  0
SPLINE
  5
111A4
330
1F
100
AcDbEntity
  8
AM_0
100
AcDbSpline
210
0.0
220
0.0
230
1.0
 70
     8
 71
     3
 72
    13
 73
     9
 74
     0
 42
0.0000000001
 43
0.0000000001
 40
0.0
 40
0.0
 40
0.0
 40
0.0
 40
0.1442953361041094
 40
0.3522100091917457
 40
0.5632040336883214
 40
0.7789635683386839
 40
0.9967937324363282
 40
0.9999999999999998
 40
0.9999999999999998
 40
0.9999999999999998
 40
0.9999999999999998
 10
850.1414769887905
 20
328.6524078123512
 30
0.0
 10
850.1396453446103
 20
328.5613445756312
 30
0.0
 10
850.1351744903912
 20
328.3390686219673
 30
0.0
 10
850.0918608457121
 20
328.0060602215613
 30
0.0
 10
850.0066024802707
 20
327.7033318070162
 30
0.0
 10
849.8823367427702
 20
327.5016545629232
 30
0.0
 10
849.7771426954404
 20
327.4526366604159
 30
0.0
 10
849.7216592817803
 20
327.452413093798
 30
0.0
 10
849.7208544612002
 20
327.4524098508282
 30
0.0
  0
LINE
  5
111A5
330
1F
100
AcDbEntity
  8
AM_0
100
AcDbLine
 10
849.7208544612002
 20
327.4524098508282
 30
0.0
 11
848.52085649967
 21
327.4524098508282
 31
0.0
  0
SPLINE
  5
111A6
330
1F
100
AcDbEntity
  8
AM_0
100
AcDbSpline
210
0.0
220
0.0
230
1.0
 70
     8
 71
     3
 72
    12
 73
     8
 74
     0
 42
0.0000000001
 43
0.0000000001
 40
0.0
 40
0.0
 40
0.0
 40
0.0
 40
0.210307102677496
 40
0.4262055737866011
 40
0.6440322708792186
 40
0.8601536108556461
 40
0.9999999999999998
 40
0.9999999999999998
 40
0.9999999999999998
 40
0.9999999999999998
 10
848.52085649967
 20
327.4524098508282
 30
0.0
 10
848.4405338065116
 20
327.4651546865234
 30
0.0
 10
848.2777529061294
 20
327.490983200827
 30
0.0
 10
848.0438082056297
 20
327.6942650063729
 30
0.0
 10
847.8577292100398
 20
327.9992375384682
 30
0.0
 10
847.7559060450001
 20
328.3396633086622
 30
0.0
 10
847.7455443407196
 20
328.564196952766
 30
0.0
 10
847.7414736151711
 20
328.6524078123512
 30
0.0
  0
LINE
  5
111A7
330
1F
100
AcDbEntity
  8
AM_0
100
AcDbLine
 10
847.7414736151711
 20
328.6524078123512
 30
0.0
 11
847.7414736151711
 21
330.1524108521871
 31
0.0
  0
LINE
  5
111A8
330
1F
100
AcDbEntity
  8
AM_0
100
AcDbLine
 10
850.6000006198918
 20
334.1524115078391
 30
0.0
 11
850.6000006198918
 21
334.9453022949624
 31
0.0
  0
ARC
  5
111A9
330
1F
100
AcDbEntity
  8
AM_0
100
AcDbCircle
 10
850.1000005833102
 20
334.9453046690901
 30
0.0
 40
0.500000000000004
100
AcDbArc
 50
0.0
 51
44.99999999998175
  0
LINE
  5
111AA
330
1F
100
AcDbEntity
  8
AM_0
100
AcDbLine
 10
831.60710722208
 20
337.1524101369314
 30
0.0
 11
848.3928927779196
 21
337.1524101369314
 31
0.0
  0
ARC
  5
111AB
330
1F
100
AcDbEntity
  8
AM_0
100
AcDbCircle
 10
831.6071073645016
 20
336.6524114502772
 30
0.0
 40
0.5000000000000444
100
AcDbArc
 50
90.0
 51
135.0000000000182
  0
ARC
  5
111AC
330
1F
100
AcDbEntity
  8
AM_0
100
AcDbCircle
 10
848.3928938021199
 20
336.6524114502772
 30
0.0
 40
0.500000000000004
100
AcDbArc
 50
44.99999999998175
 51
90.0
  0
LINE
  5
111AD
330
1F
100
AcDbEntity
  8
AM_0
100
AcDbLine
 10
867.3881331086212
 20
283.4739405684413
 30
0.0
 11
860.8597034215907
 21
315.1877707116532
 31
0.0
  0
LINE
  5
111AE
330
1F
100
AcDbEntity
  8
AM_0
100
AcDbLine
 10
860.8597034215907
 20
315.1877707116532
 30
0.0
 11
860.8595544099806
 21
315.1884785168109
 31
0.0
  0
LINE
  5
111AF
330
1F
100
AcDbEntity
  8
AM_0
100
AcDbLine
 10
846.770294145921
 20
345.652407871954
 30
0.0
 11
833.2297058540788
 21
345.652407871954
 31
0.0
  0
LINE
  5
111B0
330
1F
100
AcDbEntity
  8
AM_0
100
AcDbLine
 10
846.770294145921
 20
345.652407871954
 30
0.0
 11
833.2297058540788
 21
345.652407871954
 31
0.0
  0
ARC
  5
111B1
330
1F
100
AcDbEntity
  8
AM_0
100
AcDbCircle
 10
832.9999973177908
 20
256.7957589316493
 30
0.0
 40
2.0
100
AcDbArc
 50
0.0
 51
71.44698649427147
  0
ARC
  5
111B2
330
1F
100
AcDbEntity
  8
AM_0
100
AcDbCircle
 10
847.0000026822107
 20
256.7957585401055
 30
0.0
 40
2.0
100
AcDbArc
 50
108.5530103009451
 51
180.0
  0
SPLINE
  5
111B4
330
1F
100
AcDbEntity
  8
AM_8
100
AcDbSpline
210
0.0
220
0.0
230
1.0
 70
     8
 71
     3
 72
    10
 73
     6
 74
     4
 42
0.0000000001
 43
0.0000000001
 44
0.0000000001
 40
0.0
 40
0.0
 40
0.0
 40
0.0
 40
14.09129823153287
 40
25.63766890331828
 40
45.8542111935091
 40
45.8542111935091
 40
45.8542111935091
 40
45.8542111935091
 10
552.5622947664989
 20
260.4325109366528
 30
0.0
 10
556.8828719349962
 20
264.7010375472169
 30
0.0
 10
564.7437180470526
 20
272.4671830185943
 30
0.0
 10
574.3136788879134
 20
252.2558471824186
 30
0.0
 10
584.1668811470115
 20
262.7454587001082
 30
0.0
 10
590.4382732074096
 20
269.4219141974017
 30
0.0
 11
552.5622947664989
 21
260.4325109366528
 31
0.0
 11
564.765717007309
 21
267.4781600524193
 31
0.0
 11
572.930234007422
 21
259.3136430523064
 31
0.0
 11
590.4382732074096
 21
269.4219141974017
 31
0.0
  0
CIRCLE
  5
111B5
330
1F
100
AcDbEntity
  8
AM_11
100
AcDbCircle
 10
840.0000005833097
 20
277.6524114502763
 30
0.0
 40
20.0
  0
ARC
  5
111B6
330
1F
100
AcDbEntity
  8
AM_0
100
AcDbCircle
 10
839.9999999999993
 20
1016.826203889642
 30
0.0
 40
27.8
100
AcDbArc
 50
98.27271109569776
 51
261.7272889043041
  0
CIRCLE
  5
111B7
330
1F
100
AcDbEntity
  8
AM_0
100
AcDbCircle
 10
862.5000000000012
 20
1016.826203889643
 30
0.0
 40
2.25
  0
LINE
  5
111B8
330
1F
100
AcDbEntity
  8
AM_2
100
AcDbLine
 10
838.8366025403787
 20
1003.676203889642
 30
0.0
 11
839.9133974605272
 21
1001.811140380181
 31
0.0
  0
LINE
  5
111B9
330
1F
100
AcDbEntity
  8
AM_2
100
AcDbLine
 10
841.1633974596213
 20
1003.676203889642
 30
0.0
 11
840.0866025412845
 21
1001.811140380181
 31
0.0
  0
ARC
  5
111BA
330
1F
100
AcDbEntity
  8
AM_0
100
AcDbCircle
 10
840.0000000000011
 20
1016.826203889641
 30
0.0
 40
27.8
100
AcDbArc
 50
8.272711095685
 51
171.7272889042891
  0
ARC
  5
111BB
330
1F
100
AcDbEntity
  8
AM_0
100
AcDbCircle
 10
839.9999999999998
 20
1039.326203889642
 30
0.0
 40
4.25
100
AcDbArc
 50
179.9999999999739
 51
359.999999999974
  0
CIRCLE
  5
111BC
330
1F
100
AcDbEntity
  8
AM_4
100
AcDbCircle
 10
839.9999999999998
 20
1039.326203889642
 30
0.0
 40
3.5
  0
LINE
  5
111BD
330
1F
100
AcDbEntity
  8
AM_0
100
AcDbLine
 10
844.0000000000008
 20
1044.336929070923
 30
0.0
 11
836.0000000000006
 21
1044.336929070923
 31
0.0
  0
LINE
  5
111BE
330
1F
100
AcDbEntity
  8
AM_0
100
AcDbLine
 10
835.7499999999998
 20
1044.336929070923
 30
0.0
 11
835.7500000000001
 21
1039.326203889641
 31
0.0
  0
POINT
  5
111BF
330
1F
100
AcDbEntity
  8
AM_0
100
AcDbPoint
 10
867.5107251812821
 20
1012.826203889642
 30
0.0
 50
360.0
  0
ARC
  5
111C0
330
1F
100
AcDbEntity
  8
AM_4
100
AcDbCircle
 10
839.9999999999998
 20
1039.326203889642
 30
0.0
 40
2.105811807586974
100
AcDbArc
 50
346.264614599182
 51
13.73538540081799
  0
LINE
  5
111C1
330
1F
100
AcDbEntity
  8
AM_4
100
AcDbLine
 10
842.0455912028
 20
1038.826203889642
 30
0.0
 11
840.9999999999998
 21
1038.826203889642
 31
0.0
  0
LINE
  5
111C2
330
1F
100
AcDbEntity
  8
AM_4
100
AcDbLine
 10
842.0455912028005
 20
1039.826203889642
 30
0.0
 11
841.0000000000001
 21
1039.826203889641
 31
0.0
  0
ARC
  5
111C3
330
1F
100
AcDbEntity
  8
AM_4
100
AcDbCircle
 10
838.9999999999997
 20
1038.326203889642
 30
0.0
 40
0.5
100
AcDbArc
 50
359.999999999974
 51
90.00000000001303
  0
LINE
  5
111C4
330
1F
100
AcDbEntity
  8
AM_4
100
AcDbLine
 10
839.0000000000002
 20
1038.826203889642
 30
0.0
 11
837.9544087971996
 21
1038.826203889642
 31
0.0
  0
LINE
  5
111C5
330
1F
100
AcDbEntity
  8
AM_4
100
AcDbLine
 10
839.5000000000003
 20
1038.326203889641
 30
0.0
 11
839.5000000000003
 21
1037.280612686841
 31
0.0
  0
LINE
  5
111C6
330
1F
100
AcDbEntity
  8
AM_4
100
AcDbLine
 10
839.0000000000002
 20
1039.826203889641
 30
0.0
 11
837.9544087971996
 21
1039.826203889642
 31
0.0
  0
LINE
  5
111C7
330
1F
100
AcDbEntity
  8
AM_4
100
AcDbLine
 10
840.4999999999997
 20
1038.326203889642
 30
0.0
 11
840.5000000000002
 21
1037.280612686842
 31
0.0
  0
ARC
  5
111C8
330
1F
100
AcDbEntity
  8
AM_4
100
AcDbCircle
 10
839.9999999999998
 20
1039.326203889642
 30
0.0
 40
2.105811807586974
100
AcDbArc
 50
166.264614599182
 51
193.7353854008179
  0
ARC
  5
111C9
330
1F
100
AcDbEntity
  8
AM_4
100
AcDbCircle
 10
839.9999999999998
 20
1039.326203889642
 30
0.0
 40
2.105811807586974
100
AcDbArc
 50
256.2646145991792
 51
283.7353854008208
  0
ARC
  5
111CA
330
1F
100
AcDbEntity
  8
AM_4
100
AcDbCircle
 10
840.9999999999993
 20
1038.326203889642
 30
0.0
 40
0.5
100
AcDbArc
 50
90.00000000001303
 51
179.9999999999739
  0
ARC
  5
111CB
330
1F
100
AcDbEntity
  8
AM_4
100
AcDbCircle
 10
839.9999999999998
 20
1039.326203889642
 30
0.0
 40
2.105811807586974
100
AcDbArc
 50
76.26461459917924
 51
103.7353854008207
  0
LINE
  5
111CC
330
1F
100
AcDbEntity
  8
AM_4
100
AcDbLine
 10
839.4999999999996
 20
1041.371795092442
 30
0.0
 11
839.5000000000003
 21
1040.326203889641
 31
0.0
  0
LINE
  5
111CD
330
1F
100
AcDbEntity
  8
AM_4
100
AcDbLine
 10
840.4999999999999
 20
1041.371795092442
 30
0.0
 11
840.4999999999999
 21
1040.326203889642
 31
0.0
  0
ARC
  5
111CE
330
1F
100
AcDbEntity
  8
AM_4
100
AcDbCircle
 10
838.9999999999997
 20
1040.326203889642
 30
0.0
 40
0.5
100
AcDbArc
 50
270.000000000013
 51
359.999999999974
  0
ARC
  5
111CF
330
1F
100
AcDbEntity
  8
AM_4
100
AcDbCircle
 10
840.9999999999998
 20
1040.326203889642
 30
0.0
 40
0.5
100
AcDbArc
 50
179.9999999999739
 51
270.000000000013
  0
LINE
  5
111D0
330
1F
100
AcDbEntity
  8
AM_0
100
AcDbLine
 10
844.2500000000004
 20
1044.336929070923
 30
0.0
 11
844.2500000000002
 21
1039.326203889642
 31
0.0
  0
LINE
  5
111D1
330
1F
100
AcDbEntity
  8
AM_2
100
AcDbLine
 10
838.8366025403788
 20
1029.976203889642
 30
0.0
 11
839.9133974605277
 21
1031.841267399103
 31
0.0
  0
LINE
  5
111D2
330
1F
100
AcDbEntity
  8
AM_2
100
AcDbLine
 10
841.1633974596213
 20
1029.976203889642
 30
0.0
 11
840.086602541284
 21
1031.841267399103
 31
0.0
  0
ARC
  5
111D3
330
1F
100
AcDbEntity
  8
AM_2
100
AcDbCircle
 10
840.0000000009052
 20
1031.791267399104
 30
0.0
 40
0.1
100
AcDbArc
 50
30.00000000000095
 51
149.999999999999
  0
ARC
  5
111D4
330
1F
100
AcDbEntity
  8
AM_2
100
AcDbCircle
 10
841.0767949192429
 20
1029.926203889641
 30
0.0
 40
0.1
100
AcDbArc
 50
270.000000000013
 51
30.00000000000095
  0
ARC
  5
111D5
330
1F
100
AcDbEntity
  8
AM_2
100
AcDbCircle
 10
838.9232050807565
 20
1029.926203889643
 30
0.0
 40
0.1
100
AcDbArc
 50
149.999999999999
 51
270.000000000013
  0
LINE
  5
111D6
330
1F
100
AcDbEntity
  8
AM_2
100
AcDbLine
 10
838.9232050807565
 20
1029.826203889642
 30
0.0
 11
841.0767949192436
 21
1029.826203889642
 31
0.0
  0
CIRCLE
  5
111D7
330
1F
100
AcDbEntity
  8
AM_0
100
AcDbCircle
 10
817.5000000000016
 20
1016.826203889642
 30
0.0
 40
2.25
  0
CIRCLE
  5
111D8
330
1F
100
AcDbEntity
  8
AM_0
100
AcDbCircle
 10
839.9999999999995
 20
1016.826203889641
 30
0.0
 40
3.5
  0
ARC
  5
111D9
330
1F
100
AcDbEntity
  8
AM_2
100
AcDbCircle
 10
841.0767949192429
 20
1003.726203889642
 30
0.0
 40
0.1
100
AcDbArc
 50
329.9999999999991
 51
90.00000000001303
  0
ARC
  5
111DA
330
1F
100
AcDbEntity
  8
AM_2
100
AcDbCircle
 10
838.9232050807567
 20
1003.726203889642
 30
0.0
 40
0.1
100
AcDbArc
 50
90.00000000001303
 51
210.000000000001
  0
LINE
  5
111DB
330
1F
100
AcDbEntity
  8
AM_2
100
AcDbLine
 10
838.9232050807574
 20
1003.826203889642
 30
0.0
 11
841.0767949192438
 21
1003.826203889642
 31
0.0
  0
ARC
  5
111DC
330
1F
100
AcDbEntity
  8
AM_4
100
AcDbCircle
 10
839.9999999999998
 20
994.3262038896421
 30
0.0
 40
2.105811807586974
100
AcDbArc
 50
256.2646145991792
 51
283.7353854008208
  0
CIRCLE
  5
111DD
330
1F
100
AcDbEntity
  8
AM_4
100
AcDbCircle
 10
839.9999999999998
 20
994.3262038896421
 30
0.0
 40
3.5
  0
LINE
  5
111DE
330
1F
100
AcDbEntity
  8
AM_0
100
AcDbLine
 10
835.7499999999998
 20
989.3154787083608
 30
0.0
 11
835.7500000000007
 21
994.326203889641
 31
0.0
  0
LINE
  5
111DF
330
1F
100
AcDbEntity
  8
AM_0
100
AcDbLine
 10
844.2499999999997
 20
989.3154787083606
 30
0.0
 11
844.2500000000002
 21
994.3262038896419
 31
0.0
  0
ARC
  5
111E0
330
1F
100
AcDbEntity
  8
AM_0
100
AcDbCircle
 10
839.9999999999998
 20
994.3262038896421
 30
0.0
 40
4.25
100
AcDbArc
 50
359.999999999974
 51
179.9999999999739
  0
ARC
  5
111E1
330
1F
100
AcDbEntity
  8
AM_2
100
AcDbCircle
 10
840.0000000009056
 20
1001.861140380181
 30
0.0
 40
0.1
100
AcDbArc
 50
210.000000000001
 51
329.9999999999991
  0
LINE
  5
111E2
330
1F
100
AcDbEntity
  8
AM_4
100
AcDbLine
 10
842.0455912027998
 20
993.8262038896418
 30
0.0
 11
841.0000000000005
 21
993.8262038896418
 31
0.0
  0
ARC
  5
111E3
330
1F
100
AcDbEntity
  8
AM_4
100
AcDbCircle
 10
838.9999999999995
 20
993.3262038896419
 30
0.0
 40
0.5
100
AcDbArc
 50
359.999999999974
 51
90.00000000001303
  0
LINE
  5
111E4
330
1F
100
AcDbEntity
  8
AM_4
100
AcDbLine
 10
839.5000000000003
 20
992.2806126868422
 30
0.0
 11
839.4999999999997
 21
993.3262038896419
 31
0.0
  0
LINE
  5
111E5
330
1F
100
AcDbEntity
  8
AM_4
100
AcDbLine
 10
839.0000000000007
 20
993.8262038896423
 30
0.0
 11
837.9544087972002
 21
993.8262038896422
 31
0.0
  0
LINE
  5
111E6
330
1F
100
AcDbEntity
  8
AM_4
100
AcDbLine
 10
840.5000000000002
 20
992.2806126868421
 30
0.0
 11
840.5000000000002
 21
993.3262038896414
 31
0.0
  0
ARC
  5
111E7
330
1F
100
AcDbEntity
  8
AM_4
100
AcDbCircle
 10
840.9999999999998
 20
993.3262038896421
 30
0.0
 40
0.5
100
AcDbArc
 50
90.00000000001303
 51
179.9999999999739
  0
LINE
  5
111E8
330
1F
100
AcDbEntity
  8
AM_4
100
AcDbLine
 10
842.0455912028003
 20
994.8262038896423
 30
0.0
 11
841.0000000000001
 21
994.8262038896423
 31
0.0
  0
ARC
  5
111E9
330
1F
100
AcDbEntity
  8
AM_4
100
AcDbCircle
 10
838.9999999999997
 20
995.3262038896424
 30
0.0
 40
0.5
100
AcDbArc
 50
270.000000000013
 51
359.999999999974
  0
LINE
  5
111EA
330
1F
100
AcDbEntity
  8
AM_4
100
AcDbLine
 10
839.0
 20
994.8262038896418
 30
0.0
 11
837.9544087972002
 21
994.8262038896425
 31
0.0
  0
LINE
  5
111EB
330
1F
100
AcDbEntity
  8
AM_4
100
AcDbLine
 10
839.5000000000003
 20
995.3262038896424
 30
0.0
 11
839.4999999999997
 21
996.3717950924424
 31
0.0
  0
LINE
  5
111EC
330
1F
100
AcDbEntity
  8
AM_4
100
AcDbLine
 10
840.5000000000004
 20
995.326203889642
 30
0.0
 11
840.5000000000002
 21
996.3717950924422
 31
0.0
  0
ARC
  5
111ED
330
1F
100
AcDbEntity
  8
AM_4
100
AcDbCircle
 10
839.9999999999998
 20
994.3262038896421
 30
0.0
 40
2.105811807586974
100
AcDbArc
 50
76.26461459917924
 51
103.7353854008207
  0
ARC
  5
111EE
330
1F
100
AcDbEntity
  8
AM_4
100
AcDbCircle
 10
840.9999999999998
 20
995.3262038896419
 30
0.0
 40
0.5
100
AcDbArc
 50
179.9999999999739
 51
270.000000000013
  0
ARC
  5
111EF
330
1F
100
AcDbEntity
  8
AM_4
100
AcDbCircle
 10
839.9999999999998
 20
994.3262038896421
 30
0.0
 40
2.105811807586974
100
AcDbArc
 50
166.264614599182
 51
193.7353854008179
  0
ARC
  5
111F0
330
1F
100
AcDbEntity
  8
AM_4
100
AcDbCircle
 10
839.9999999999998
 20
994.3262038896421
 30
0.0
 40
2.105811807586974
100
AcDbArc
 50
346.264614599182
 51
13.73538540081799
  0
LINE
  5
111F1
330
1F
100
AcDbEntity
  8
AM_0
100
AcDbLine
 10
843.9999999999994
 20
989.3154787083608
 30
0.0
 11
836.0
 21
989.3154787083604
 31
0.0
  0
POINT
  5
111F2
330
1F
100
AcDbEntity
  8
AM_0
100
AcDbPoint
 10
812.4892748187191
 20
1012.826203889641
 30
0.0
 50
360.0
  0
LINE
  5
111F3
330
1F
100
AcDbEntity
  8
AM_0
100
AcDbLine
 10
832.1514336793198
 20
1047.126204222446
 30
0.0
 11
832.155881488927
 21
1047.091294778077
 31
0.0
  0
ARC
  5
111F4
330
1F
100
AcDbEntity
  8
AM_0
100
AcDbCircle
 10
840.0
 20
1016.826203889641
 30
0.0
 40
31.26509252883689
100
AcDbArc
 50
104.5302196291675
 51
152.9360292573795
  0
LINE
  5
111F5
330
1F
100
AcDbEntity
  8
AM_0
100
AcDbLine
 10
812.1114949303867
 20
1031.036104796915
 30
0.0
 11
812.1584649588736
 21
1031.051354053541
 31
0.0
  0
LINE
  5
111F6
330
1F
100
AcDbEntity
  8
AM_0
100
AcDbLine
 10
812.1114949303867
 20
1031.036104796915
 30
0.0
 11
813.6458061693993
 21
1033.712484995095
 31
0.0
  0
ARC
  5
111F7
330
1F
100
AcDbEntity
  8
AM_0
100
AcDbCircle
 10
840.0
 20
1016.826203889641
 30
0.0
 40
31.30000000000006
100
AcDbArc
 50
104.5220712403853
 51
129.3505353626802
  0
LINE
  5
111F8
330
1F
100
AcDbEntity
  8
AM_0
100
AcDbLine
 10
832.155881488927
 20
1047.091294778077
 30
0.0
 11
847.8441172993509
 21
1047.091296095166
 31
0.0
  0
ARC
  5
111F9
330
1F
100
AcDbEntity
  8
AM_0
100
AcDbCircle
 10
840.0
 20
1016.826203889641
 30
0.0
 40
31.265092528837
100
AcDbArc
 50
20.03198536633863
 51
75.46978037082066
  0
LINE
  5
111FA
330
1F
100
AcDbEntity
  8
AM_0
100
AcDbLine
 10
867.494218114438
 20
1026.851855897351
 30
0.0
 11
869.3736027243669
 21
1027.535895297416
 31
0.0
  0
ARC
  5
111FB
330
1F
100
AcDbEntity
  8
AM_0
100
AcDbCircle
 10
840.0
 20
1016.826203889641
 30
0.0
 40
29.26509252883712
100
AcDbArc
 50
332.9316574433184
 51
20.03417127227528
  0
LINE
  5
111FC
330
1F
100
AcDbEntity
  8
AM_0
100
AcDbLine
 10
867.8415377806711
 20
1002.601056465286
 30
0.0
 11
866.059524244604
 21
1003.509039193646
 31
0.0
  0
ARC
  5
111FD
330
1F
100
AcDbEntity
  8
AM_0
100
AcDbCircle
 10
840.0
 20
1016.826203889641
 30
0.0
 40
31.26509252883693
100
AcDbArc
 50
200.0319853663386
 51
332.9360292573795
  0
LINE
  5
111FE
330
1F
100
AcDbEntity
  8
AM_0
100
AcDbLine
 10
812.5057819909281
 20
1006.800551987299
 30
0.0
 11
810.6263973810003
 21
1006.116512587234
 31
0.0
  0
ARC
  5
111FF
330
1F
100
AcDbEntity
  8
AM_0
100
AcDbCircle
 10
840.0
 20
1016.826203889641
 30
0.0
 40
29.26509252883711
100
AcDbArc
 50
152.9316574433184
 51
200.0341712722753
  0
LINE
  5
11200
330
1F
100
AcDbEntity
  8
AM_0
100
AcDbLine
 10
812.1584649588736
 20
1031.051354053541
 30
0.0
 11
813.9404784949409
 21
1030.143371325181
 31
0.0
  0
CIRCLE
  5
11201
330
1F
100
AcDbEntity
  8
AM_0
100
AcDbCircle
 10
840.0
 20
1016.826203889641
 30
0.0
 40
28.00436343389521
  0
LINE
  5
11202
330
1F
100
AcDbEntity
  8
AM_0
100
AcDbLine
 10
813.8935071493644
 20
1030.128123385644
 30
0.0
 11
813.9404784949409
 21
1030.143371325181
 31
0.0
  0
LINE
  5
11203
330
1F
100
AcDbEntity
  8
AM_0
100
AcDbLine
 10
812.1114949303867
 20
1031.036104796915
 30
0.0
 11
813.8935071493644
 21
1030.128123385644
 31
0.0
  0
CIRCLE
  5
11204
330
1F
100
AcDbEntity
  8
AM_0
100
AcDbCircle
 10
840.0
 20
1016.826203889641
 30
0.0
 40
28.00000000000011
  0
SPLINE
  5
11205
330
1F
100
AcDbEntity
  8
AM_0
100
AcDbSpline
210
0.0
220
0.0
230
1.0
 70
    12
 71
     3
 72
    10
 73
     6
 74
     0
 42
0.0000000001
 43
0.0000000001
 40
0.0
 40
0.0
 40
0.0
 40
0.0
 40
0.5
 40
0.5
 40
1.0
 40
1.0
 40
1.0
 40
1.0
 10
812.4889515220296
 20
1006.808398182243
 30
0.0
 41
1.0
 10
812.4874825870849
 20
1006.809083025762
 30
0.0
 41
1.0
 10
812.4676602143159
 20
1006.859988313579
 30
0.0
 41
1.0
 10
812.4040179706932
 20
1007.032821572622
 30
0.0
 41
1.0
 10
812.3606452009861
 20
1007.15403620426
 30
0.0
 41
1.0
 10
812.3178253516542
 20
1007.278181975846
 30
0.0
 41
1.0
  0
ARC
  5
11206
330
1F
100
AcDbEntity
  8
AM_0
100
AcDbCircle
 10
840.0
 20
1016.826203889641
 30
0.0
 40
29.28254626441842
100
AcDbArc
 50
178.9163547650151
 51
199.0301276978987
  0
ELLIPSE
  5
11207
330
1F
100
AcDbEntity
  8
AM_0
100
AcDbEllipse
 10
840.011139634117
 20
1016.953530490238
 30
0.0
 11
2.552951272709169
 21
29.18036657588734
 31
0.0
210
0.0
220
0.0
230
1.0
 40
0.9999904801770068
 41
1.575459011648916
 42
1.643502221877436
  0
LINE
  5
11208
330
1F
100
AcDbEntity
  8
AM_0
100
AcDbLine
 10
810.8114964614927
 20
1019.379867005621
 30
0.0
 11
810.8194648500388
 21
1019.370370793815
 31
0.0
  0
ARC
  5
11209
330
1F
100
AcDbEntity
  8
AM_0
100
AcDbCircle
 10
840.0
 20
1016.826203889641
 30
0.0
 40
29.29999999999996
100
AcDbArc
 50
152.9999999999975
 51
175.0000000000002
  0
LINE
  5
1120A
330
1F
100
AcDbEntity
  8
AM_0
100
AcDbLine
 10
812.488952227482
 20
1006.808399203656
 30
0.0
 11
812.5057819909281
 21
1006.800551987299
 31
0.0
  0
LINE
  5
1120B
330
1F
100
AcDbEntity
  8
AM_0
100
AcDbLine
 10
832.1514336793198
 20
1047.126204222446
 30
0.0
 11
847.8485651089574
 21
1047.126202905356
 31
0.0
  0
LINE
  5
1120C
330
1F
100
AcDbEntity
  8
AM_0
100
AcDbLine
 10
847.8441172993509
 20
1047.091296095166
 30
0.0
 11
847.8485651089574
 21
1047.126202905356
 31
0.0
  0
ELLIPSE
  5
1120D
330
1F
100
AcDbEntity
  8
AM_0
100
AcDbEllipse
 10
840.0119002452431
 20
1016.962224315189
 30
0.0
 11
2.727266077029524
 21
31.17279390700559
 31
0.0
210
0.0
220
0.0
230
1.0
 40
0.999990480177013
 41
1.575439885720252
 42
1.639127289711706
  0
ARC
  5
1120E
330
1F
100
AcDbEntity
  8
AM_0
100
AcDbCircle
 10
840.0
 20
1016.826203889641
 30
0.0
 40
31.28254626441862
100
AcDbArc
 50
178.665614913333
 51
199.0921403130548
  0
SPLINE
  5
1120F
330
1F
100
AcDbEntity
  8
AM_0
100
AcDbSpline
210
0.0
220
0.0
230
1.0
 70
    12
 71
     3
 72
    10
 73
     6
 74
     0
 42
0.0000000001
 43
0.0000000001
 40
0.0
 40
0.0
 40
0.0
 40
0.0
 40
0.5
 40
0.5
 40
1.0
 40
1.0
 40
1.0
 40
1.0
 10
810.4381880393523
 20
1006.59404994295
 30
0.0
 41
1.0
 10
810.4811419637162
 20
1006.469951357096
 30
0.0
 41
1.0
 10
810.5244773659203
 20
1006.349059733907
 30
0.0
 41
1.0
 10
810.5882142982565
 20
1006.176125664175
 30
0.0
 41
1.0
 10
810.6080973437997
 20
1006.125042732419
 30
0.0
 41
1.0
 10
810.6095662612604
 20
1006.124357888604
 30
0.0
 41
1.0
  0
LWPOLYLINE
  5
11210
330
1F
100
AcDbEntity
  8
AM_0
100
AcDbPolyline
 90
        3
 70
   128
 43
0.0
 10
810.6263973810003
 20
1006.116512587234
 10
810.6152080512647
 20
1006.121727601193
 10
810.6095649833759
 20
1006.124357169413
  0
LINE
  5
11211
330
1F
100
AcDbEntity
  8
AM_0
100
AcDbLine
 10
867.8885025408019
 20
1002.616300453557
 30
0.0
 11
867.8415377806711
 21
1002.601056465286
 31
0.0
  0
LINE
  5
11212
330
1F
100
AcDbEntity
  8
AM_0
100
AcDbLine
 10
867.8885025408019
 20
1002.616300453557
 30
0.0
 11
866.3541913017896
 21
999.9399202553764
 31
0.0
  0
ARC
  5
11213
330
1F
100
AcDbEntity
  8
AM_0
100
AcDbCircle
 10
840.0
 20
1016.826203889641
 30
0.0
 40
31.3
100
AcDbArc
 50
175.0000000000002
 51
309.3505353626802
  0
LINE
  5
11214
330
1F
100
AcDbEntity
  8
AM_0
100
AcDbLine
 10
808.8270753196294
 20
1019.544682256723
 30
0.0
 11
808.8191069310829
 21
1019.554178468528
 31
0.0
  0
ARC
  5
11215
330
1F
100
AcDbEntity
  8
AM_0
100
AcDbCircle
 10
840.0
 20
1016.826203889641
 30
0.0
 40
31.3000000000001
100
AcDbArc
 50
355.0000000000002
 51
75.47792875958792
  0
LINE
  5
11216
330
1F
100
AcDbEntity
  8
AM_0
100
AcDbLine
 10
871.1729221515591
 20
1014.107722993749
 30
0.0
 11
871.1808958084619
 21
1014.0982320503
 31
0.0
  0
ELLIPSE
  5
11217
330
1F
100
AcDbEntity
  8
AM_0
100
AcDbEllipse
 10
839.9880997547567
 20
1016.690183464094
 30
0.0
 11
2.727266077261083
 21
31.17279390698556
 31
0.0
210
0.0
220
0.0
230
0.9999999999999998
 40
0.9999904801770039
 41
4.717032539317488
 42
4.780719943308948
  0
ARC
  5
11218
330
1F
100
AcDbEntity
  8
AM_0
100
AcDbCircle
 10
840.0
 20
1016.826203889641
 30
0.0
 40
31.28254626441845
100
AcDbArc
 50
358.665614913333
 51
19.0921403130548
  0
SPLINE
  5
11219
330
1F
100
AcDbEntity
  8
AM_0
100
AcDbSpline
210
0.0
220
0.0
230
1.0
 70
    12
 71
     3
 72
    10
 73
     6
 74
     0
 42
0.0000000001
 43
0.0000000001
 40
0.0
 40
0.0
 40
0.0
 40
0.0
 40
0.5
 40
0.5
 40
1.0
 40
1.0
 40
1.0
 40
1.0
 10
869.561811960648
 20
1027.058357836331
 30
0.0
 41
1.0
 10
869.518858036284
 20
1027.182456422186
 30
0.0
 41
1.0
 10
869.4755226340792
 20
1027.303348045374
 30
0.0
 41
1.0
 10
869.4117857017424
 20
1027.476282115107
 30
0.0
 41
1.0
 10
869.3919026561994
 20
1027.527365046865
 30
0.0
 41
1.0
 10
869.3904337387392
 20
1027.528049890679
 30
0.0
 41
1.0
  0
LWPOLYLINE
  5
1121A
330
1F
100
AcDbEntity
  8
AM_0
100
AcDbPolyline
 90
        3
 70
   128
 43
0.0
 10
869.3736027243669
 20
1027.535895297416
 10
869.3847920541021
 20
1027.530680283457
 10
869.3904351219909
 20
1027.528050715236
  0
LINE
  5
1121B
330
1F
100
AcDbEntity
  8
AM_0
100
AcDbLine
 10
810.6095649833759
 20
1006.124357169413
 30
0.0
 11
812.488952227482
 21
1006.808399203656
 31
0.0
  0
SPLINE
  5
1121C
330
1F
100
AcDbEntity
  8
AM_0
100
AcDbSpline
210
0.0
220
0.0
230
1.0
 70
    12
 71
     3
 72
    10
 73
     6
 74
     0
 42
0.0000000001
 43
0.0000000001
 40
0.0
 40
0.0
 40
0.0
 40
0.0
 40
0.5
 40
0.5
 40
1.0
 40
1.0
 40
1.0
 40
1.0
 10
867.5110484779704
 20
1026.844009597039
 30
0.0
 41
1.0
 10
867.5125174129149
 20
1026.84332475352
 30
0.0
 41
1.0
 10
867.5323397856839
 20
1026.792419465703
 30
0.0
 41
1.0
 10
867.5959820293067
 20
1026.61958620666
 30
0.0
 41
1.0
 10
867.6393547990139
 20
1026.498371575022
 30
0.0
 41
1.0
 10
867.6821746483447
 20
1026.374225803437
 30
0.0
 41
1.0
  0
ARC
  5
1121D
330
1F
100
AcDbEntity
  8
AM_0
100
AcDbCircle
 10
840.0
 20
1016.826203889641
 30
0.0
 40
29.28254626441852
100
AcDbArc
 50
358.9163547650151
 51
19.03012769789877
  0
ELLIPSE
  5
1121E
330
1F
100
AcDbEntity
  8
AM_0
100
AcDbEllipse
 10
839.9888603658826
 20
1016.698877289044
 30
0.0
 11
2.552951272775897
 21
29.18036657588131
 31
0.0
210
0.0
220
0.0
230
0.9999999999999998
 40
0.9999904801770098
 41
4.717051665241012
 42
4.785094875469531
  0
LINE
  5
1121F
330
1F
100
AcDbEntity
  8
AM_0
100
AcDbLine
 10
869.1885062780524
 20
1014.272543513207
 30
0.0
 11
869.1805326211499
 21
1014.282034456655
 31
0.0
  0
ARC
  5
11220
330
1F
100
AcDbEntity
  8
AM_0
100
AcDbCircle
 10
840.0
 20
1016.826203889641
 30
0.0
 40
29.30000000000005
100
AcDbArc
 50
332.9999999999976
 51
355.0000000000002
  0
LINE
  5
11221
330
1F
100
AcDbEntity
  8
AM_0
100
AcDbLine
 10
866.1064903218241
 20
1003.524281864828
 30
0.0
 11
866.059524244604
 21
1003.509039193646
 31
0.0
  0
LINE
  5
11222
330
1F
100
AcDbEntity
  8
AM_0
100
AcDbLine
 10
867.5110505120617
 20
1026.844011315172
 30
0.0
 11
867.494218114438
 21
1026.851855897351
 31
0.0
  0
LINE
  5
11223
330
1F
100
AcDbEntity
  8
AM_0
100
AcDbLine
 10
869.3904351219909
 20
1027.528050715236
 30
0.0
 11
867.5110505120617
 21
1026.844011315172
 31
0.0
  0
LINE
  5
11224
330
1F
100
AcDbEntity
  8
AM_0
100
AcDbLine
 10
867.8885025408019
 20
1002.616300453557
 30
0.0
 11
866.1064903218241
 21
1003.524281864828
 31
0.0
  0
LINE
  5
11225
330
1F
100
AcDbEntity
  8
AM_0
100
AcDbLine
 10
812.3178261443607
 20
1007.278183123682
 30
0.0
 11
810.4381879947963
 21
1006.594049551753
 31
0.0
  0
LINE
  5
11226
330
1F
100
AcDbEntity
  8
AM_0
100
AcDbLine
 10
867.6821739610057
 20
1026.374224760968
 30
0.0
 11
869.5618121105697
 21
1027.058358332897
 31
0.0
  0
LINE
  5
11227
330
1F
100
AcDbEntity
  8
AM_0
100
AcDbLine
 10
810.8194648500388
 20
1019.370370793815
 30
0.0
 11
808.8270753196294
 21
1019.544682256723
 31
0.0
  0
LINE
  5
11228
330
1F
100
AcDbEntity
  8
AM_0
100
AcDbLine
 10
808.7259360540931
 20
1017.554689828322
 30
0.0
 11
810.7226904175016
 21
1017.379996409601
 31
0.0
  0
LINE
  5
11229
330
1F
100
AcDbEntity
  8
AM_0
100
AcDbLine
 10
871.2740640512732
 20
1016.097718056327
 30
0.0
 11
869.2773096878651
 21
1016.272411475049
 31
0.0
  0
LINE
  5
1122A
330
1F
100
AcDbEntity
  8
AM_0
100
AcDbLine
 10
869.1805326211499
 20
1014.282034456655
 30
0.0
 11
871.1729221515591
 21
1014.107722993749
 31
0.0
  0
LINE
  5
1122B
330
1F
100
AcDbEntity
  8
AM_0
100
AcDbLine
 10
810.8114964614927
 20
1019.379867005621
 30
0.0
 11
808.8191069310829
 21
1019.554178468528
 31
0.0
  0
LINE
  5
1122C
330
1F
100
AcDbEntity
  8
AM_0
100
AcDbLine
 10
869.1885062780524
 20
1014.272543513207
 30
0.0
 11
871.1808958084619
 21
1014.0982320503
 31
0.0
  0
LINE
  5
1122D
330
1F
100
AcDbEntity
  8
AM_0
100
AcDbLine
 10
866.322353309007
 20
999.946849460689
 30
0.0
 11
866.6610651399757
 21
999.7298155813714
 31
0.0
  0
ARC
  5
1122E
330
1F
100
AcDbEntity
  8
AM_0
100
AcDbCircle
 10
840.0
 20
1016.826203889641
 30
0.0
 40
31.6717375913618
100
AcDbArc
 50
327.3300118118876
 51
329.2708357659216
  0
ARC
  5
1122F
330
1F
100
AcDbEntity
  8
AM_0
100
AcDbCircle
 10
840.0
 20
1016.826203889641
 30
0.0
 40
31.6717375913618
100
AcDbArc
 50
329.2708357659216
 51
127.4302349594099
  0
ARC
  5
11230
330
1F
100
AcDbEntity
  8
AM_0
100
AcDbCircle
 10
840.0
 20
1016.826203889641
 30
0.0
 40
31.67173759136161
100
AcDbArc
 50
127.4302349594099
 51
129.3710589134414
  0
LINE
  5
11231
330
1F
100
AcDbEntity
  8
AM_0
100
AcDbLine
 10
819.90934679119
 20
1041.31016830143
 30
0.0
 11
820.164418201289
 21
1040.999094266373
 31
0.0
  0
LINE
  5
11232
330
1F
100
AcDbEntity
  8
AM_0
100
AcDbLine
 10
813.6776494305383
 20
1033.705561058138
 30
0.0
 11
813.3389323312133
 21
1033.9225896691
 31
0.0
  0
ARC
  5
11233
330
1F
100
AcDbEntity
  8
AM_0
100
AcDbCircle
 10
840.0
 20
1016.826203889641
 30
0.0
 40
31.67173759136176
100
AcDbArc
 50
147.3300118118876
 51
149.2708357659216
  0
ARC
  5
11234
330
1F
100
AcDbEntity
  8
AM_0
100
AcDbCircle
 10
840.0
 20
1016.826203889641
 30
0.0
 40
31.67173759136176
100
AcDbArc
 50
149.2708357659216
 51
307.43023495941
  0
ARC
  5
11235
330
1F
100
AcDbEntity
  8
AM_0
100
AcDbCircle
 10
840.0
 20
1016.826203889641
 30
0.0
 40
31.67173759136161
100
AcDbArc
 50
307.43023495941
 51
309.3710589134413
  0
LINE
  5
11236
330
1F
100
AcDbEntity
  8
AM_0
100
AcDbLine
 10
860.0906506799985
 20
992.342236949041
 30
0.0
 11
859.835584538256
 21
992.6533162524547
 31
0.0
  0
CIRCLE
  5
11237
330
1F
100
AcDbEntity
  8
AM_0
100
AcDbCircle
 10
840.0
 20
1016.826203889641
 30
0.0
 40
33.17379611035856
  0
LINE
  5
11238
330
1F
100
AcDbEntity
  8
AM_0
100
AcDbLine
 10
813.6619760712481
 20
1033.702131358341
 30
0.0
 11
813.3901723622905
 21
1033.876280819299
 31
0.0
  0
LINE
  5
11239
330
1F
100
AcDbEntity
  8
AM_0
100
AcDbLine
 10
813.3389323312133
 20
1033.9225896691
 30
0.0
 11
813.3901723622905
 21
1033.876280819299
 31
0.0
  0
LINE
  5
1123A
330
1F
100
AcDbEntity
  8
AM_0
100
AcDbLine
 10
819.961316489582
 20
1041.264678680997
 30
0.0
 11
820.1659960739302
 21
1041.015060019425
 31
0.0
  0
LINE
  5
1123B
330
1F
100
AcDbEntity
  8
AM_0
100
AcDbLine
 10
819.961316489582
 20
1041.264678680997
 30
0.0
 11
819.90934679119
 21
1041.31016830143
 31
0.0
  0
ARC
  5
1123C
330
1F
100
AcDbEntity
  8
AM_0
100
AcDbCircle
 10
840.0
 20
1016.826203889641
 30
0.0
 40
31.60360747829352
100
AcDbArc
 50
147.3505353626609
 51
149.2946676464991
  0
LINE
  5
1123D
330
1F
100
AcDbEntity
  8
AM_0
100
AcDbLine
 10
812.8270667585827
 20
1032.963730426231
 30
0.0
 11
812.7752195494688
 21
1033.009845663947
 31
0.0
  0
ARC
  5
1123E
330
1F
100
AcDbEntity
  8
AM_0
100
AcDbCircle
 10
840.0
 20
1016.826203889641
 30
0.0
 40
31.41758462238945
100
AcDbArc
 50
329.3602746555325
 51
127.3407960697893
  0
LWPOLYLINE
  5
1123F
330
1F
100
AcDbEntity
  8
AM_0
100
AcDbPolyline
 90
        3
 70
   128
 43
0.0
 10
820.801927480598
 20
1041.930427665897
 10
820.8495876637293
 20
1041.888035838829
 10
820.943517183992
 20
1041.804495516725
  0
LINE
  5
11240
330
1F
100
AcDbEntity
  8
AM_0
100
AcDbLine
 10
820.7500736860394
 20
1041.976538952346
 30
0.0
 11
820.801927480598
 21
1041.930427665897
 31
0.0
  0
LINE
  5
11241
330
1F
100
AcDbEntity
  8
AM_0
100
AcDbLine
 10
867.1729307126064
 20
1000.68867482424
 30
0.0
 11
867.2247831900763
 21
1000.642564854881
 31
0.0
  0
LWPOLYLINE
  5
11242
330
1F
100
AcDbEntity
  8
AM_0
100
AcDbPolyline
 90
        3
 70
   128
 43
0.0
 10
867.0313410092118
 20
1000.814606973413
 10
867.1252705294739
 20
1000.731066651309
 10
867.1729307126064
 20
1000.68867482424
  0
ARC
  5
11243
330
1F
100
AcDbEntity
  8
AM_0
100
AcDbCircle
 10
840.0
 20
1016.826203889641
 30
0.0
 40
31.60360747829391
100
AcDbArc
 50
127.4064030788395
 51
129.3505353626802
  0
LWPOLYLINE
  5
11244
330
1F
100
AcDbEntity
  8
AM_0
100
AcDbPolyline
 90
        3
 70
   128
 43
0.0
 10
812.9686617303327
 20
1032.837803545415
 10
812.87473221007
 20
1032.921343867519
 10
812.8270667585827
 20
1032.963730426231
  0
ARC
  5
11245
330
1F
100
AcDbEntity
  8
AM_0
100
AcDbCircle
 10
840.0
 20
1016.826203889641
 30
0.0
 40
31.41758462238943
100
AcDbArc
 50
149.3602746555325
 51
307.3407960697894
  0
LWPOLYLINE
  5
11246
330
1F
100
AcDbEntity
  8
AM_0
100
AcDbPolyline
 90
        3
 70
   128
 43
0.0
 10
859.1980752589464
 20
991.7219828529308
 10
859.1504098074594
 20
991.7643694116422
 10
859.0564802871968
 20
991.8479097337467
  0
LINE
  5
11247
330
1F
100
AcDbEntity
  8
AM_0
100
AcDbLine
 10
859.2499237851491
 20
991.6758662981258
 30
0.0
 11
859.1980752589464
 21
991.7219828529308
 31
0.0
  0
LINE
  5
11248
330
1F
100
AcDbEntity
  8
AM_0
100
AcDbLine
 10
860.0386809816061
 20
992.387726569475
 30
0.0
 11
859.8340013972588
 21
992.6373452310471
 31
0.0
  0
LWPOLYLINE
  5
11249
330
1F
100
AcDbEntity
  8
AM_0
100
AcDbPolyline
 90
        3
 70
   128
 43
0.0
 10
860.0386809816061
 20
992.387726569475
 10
860.0646671478914
 20
992.3649857105246
 10
860.0906506799985
 20
992.342236949041
  0
LINE
  5
1124A
330
1F
100
AcDbEntity
  8
AM_0
100
AcDbLine
 10
866.3380266682963
 20
999.9502791604873
 30
0.0
 11
866.6098251088985
 21
999.7761244311728
 31
0.0
  0
LINE
  5
1124B
330
1F
100
AcDbEntity
  8
AM_0
100
AcDbLine
 10
866.6610651399757
 20
999.7298155813714
 30
0.0
 11
866.6098251088985
 21
999.7761244311728
 31
0.0
  0
ARC
  5
1124C
330
1F
100
AcDbEntity
  8
AM_0
100
AcDbCircle
 10
840.0
 20
1016.826203889641
 30
0.0
 40
31.60360747829373
100
AcDbArc
 50
307.4064030788396
 51
309.3505353626802
  0
ARC
  5
1124D
330
1F
100
AcDbEntity
  8
AM_0
100
AcDbCircle
 10
840.0
 20
1016.826203889641
 30
0.0
 40
31.60360747829355
100
AcDbArc
 50
327.3505353626609
 51
329.2946676464992
  0
ARC
  5
1124E
330
1F
100
AcDbEntity
  8
AM_0
100
AcDbCircle
 10
840.0
 20
1016.826203889641
 30
0.0
 40
27.80000000000026
100
AcDbArc
 50
146.4107773787557
 51
303.5892226212377
  0
ARC
  5
1124F
330
1F
100
AcDbEntity
  8
AM_0
100
AcDbCircle
 10
840.0
 20
1016.826203889641
 30
0.0
 40
27.80000000000028
100
AcDbArc
 50
326.4107773787557
 51
123.5892226212376
  0
LINE
  5
11250
330
1F
100
AcDbEntity
  8
AM_0
100
AcDbLine
 10
820.943517183992
 20
1041.804495516725
 30
0.0
 11
820.0792644451396
 21
1041.12083148703
 31
0.0
  0
LINE
  5
11251
330
1F
100
AcDbEntity
  8
AM_0
100
AcDbLine
 10
813.5468045393359
 20
1033.775925221727
 30
0.0
 11
812.9686617303327
 21
1032.837803545415
 31
0.0
  0
LINE
  5
11252
330
1F
100
AcDbEntity
  8
AM_0
100
AcDbLine
 10
859.0564802871968
 20
991.8479097337467
 30
0.0
 11
859.9207330260487
 21
992.5315737634427
 31
0.0
  0
LINE
  5
11253
330
1F
100
AcDbEntity
  8
AM_0
100
AcDbLine
 10
866.4531982002092
 20
999.8764852971003
 30
0.0
 11
867.0313410092118
 21
1000.814606973413
 31
0.0
  0
CIRCLE
  5
11254
330
1F
100
AcDbEntity
  8
AM_0
100
AcDbCircle
 10
824.0900974233024
 20
1000.916301312944
 30
0.0
 40
2.25
  0
CIRCLE
  5
11255
330
1F
100
AcDbEntity
  8
AM_0
100
AcDbCircle
 10
855.9099025766968
 20
1032.736106466338
 30
0.0
 40
2.25
  0
CIRCLE
  5
11256
330
1F
100
AcDbEntity
  8
AM_0
100
AcDbCircle
 10
855.9099025766988
 20
1000.916301312944
 30
0.0
 40
2.25
  0
CIRCLE
  5
11257
330
1F
100
AcDbEntity
  8
AM_0
100
AcDbCircle
 10
824.0900974233042
 20
1032.736106466339
 30
0.0
 40
2.25
  0
LINE
  5
11258
330
1F
100
AcDbEntity
  8
AM_0
100
AcDbLine
 10
808.734906854006
 20
895.1524077555339
 30
0.0
 11
808.7305445390667
 21
894.6524077317842
 31
0.0
  0
LINE
  5
11259
330
1F
100
AcDbEntity
  8
AM_0
100
AcDbLine
 10
871.2694589215249
 20
894.6524077317842
 30
0.0
 11
871.2650928812948
 21
895.1524077555339
 31
0.0
  0
ARC
  5
1125A
330
1F
100
AcDbEntity
  8
AM_0
100
AcDbCircle
 10
854.7878241097849
 20
878.3864775464106
 30
0.0
 40
0.2999999999999655
100
AcDbArc
 50
347.7300712364934
 51
353.479080717633
  0
ARC
  5
1125B
330
1F
100
AcDbEntity
  8
AM_0
100
AcDbCircle
 10
825.2121754765049
 20
878.3864775464106
 30
0.0
 40
0.2999999999999655
100
AcDbArc
 50
186.5209192823932
 51
192.2699287635066
  0
LINE
  5
1125C
330
1F
100
AcDbEntity
  8
AM_0
100
AcDbLine
 10
824.9190319496127
 20
878.3227215161712
 30
0.0
 11
825.94862023172
 21
873.5886524072082
 31
0.0
  0
LINE
  5
1125D
330
1F
100
AcDbEntity
  8
AM_0
100
AcDbLine
 10
854.0513832288707
 20
873.5886524072082
 30
0.0
 11
855.0809715109789
 21
878.3227215161712
 31
0.0
  0
ARC
  5
1125E
330
1F
100
AcDbEntity
  8
AM_0
100
AcDbCircle
 10
853.7582324297169
 20
873.6524077555339
 30
0.0
 40
0.2999999999998692
100
AcDbArc
 50
270.0
 51
347.7300712364668
  0
ARC
  5
1125F
330
1F
100
AcDbEntity
  8
AM_0
100
AcDbCircle
 10
826.241767156573
 20
873.6524077555339
 30
0.0
 40
0.2999999999998692
100
AcDbArc
 50
192.2699287635066
 51
270.0
  0
LINE
  5
11260
330
1F
100
AcDbEntity
  8
AM_0
100
AcDbLine
 10
806.8262022155249
 20
894.6524077317842
 30
0.0
 11
807.0844691413368
 21
889.7243762029503
 31
0.0
  0
LINE
  5
11261
102
{ACAD_REACTORS
330
11AE4
102
}
330
1F
100
AcDbEntity
  8
AM_0
100
AcDbLine
 10
872.9155305939638
 20
889.7243762029503
 30
0.0
 11
873.1737975197757
 21
894.6524077317842
 31
0.0
  0
ARC
  5
11262
330
1F
100
AcDbEntity
  8
AM_0
100
AcDbCircle
 10
860.9319743006118
 20
890.3524077555337
 30
0.0
 40
11.99999999999999
100
AcDbArc
 50
270.0
 51
356.9999999999944
  0
ARC
  5
11263
330
1F
100
AcDbEntity
  8
AM_0
100
AcDbCircle
 10
819.0680252856788
 20
890.3524077555337
 30
0.0
 40
11.99999999999999
100
AcDbArc
 50
183.0000000000056
 51
270.0
  0
LINE
  5
11264
330
1F
100
AcDbEntity
  8
AM_0
100
AcDbLine
 10
867.7999992090189
 20
895.1524077555339
 30
0.0
 11
867.7999992090189
 21
895.6524077792826
 31
0.0
  0
LINE
  5
11265
330
1F
100
AcDbEntity
  8
AM_0
100
AcDbLine
 10
812.2000005262817
 20
895.6524077792826
 30
0.0
 11
812.2000005262817
 21
895.1524077555339
 31
0.0
  0
LINE
  5
11266
330
1F
100
AcDbEntity
  8
AM_0
100
AcDbLine
 10
849.6282417493787
 20
895.1524077555339
 30
0.0
 11
808.734906854006
 21
895.1524077555339
 31
0.0
  0
LINE
  5
11267
330
1F
100
AcDbEntity
  8
AM_0
100
AcDbLine
 10
849.6337402778587
 20
894.6524077317842
 30
0.0
 11
849.6282417493787
 21
895.1524077555339
 31
0.0
  0
LINE
  5
11268
330
1F
100
AcDbEntity
  8
AM_0
100
AcDbLine
 10
866.5326629000629
 20
894.6524077317842
 30
0.0
 11
866.5305543857538
 21
895.1524077555339
 31
0.0
  0
LINE
  5
11269
330
1F
100
AcDbEntity
  8
AM_0
100
AcDbLine
 10
849.6282417493787
 20
895.1524077555339
 30
0.0
 11
866.5305543857538
 21
895.1524077555339
 31
0.0
  0
LINE
  5
1126A
330
1F
100
AcDbEntity
  8
AM_0
100
AcDbLine
 10
868.3431688862768
 20
895.1524077555339
 30
0.0
 11
868.3452774005857
 21
894.6524077317842
 31
0.0
  0
LINE
  5
1126B
330
1F
100
AcDbEntity
  8
AM_0
100
AcDbLine
 10
871.2650928812948
 20
895.1524077555339
 30
0.0
 11
868.3431688862768
 21
895.1524077555339
 31
0.0
  0
LINE
  5
1126C
102
{ACAD_REACTORS
330
11280
102
}
330
1F
100
AcDbEntity
  8
AM_0
100
AcDbLine
 10
826.2417707758878
 20
873.3524075349967
 30
0.0
 11
853.7582326847038
 21
873.3524075349967
 31
0.0
  0
LINE
  5
1126D
330
1F
100
AcDbEntity
  8
AM_0
100
AcDbLine
 10
866.5305543857538
 20
895.1524077555339
 30
0.0
 11
868.3431688862768
 21
895.1524077555339
 31
0.0
  0
LINE
  5
1126E
102
{ACAD_REACTORS
330
11AE4
102
}
330
1F
100
AcDbEntity
  8
AM_0
100
AcDbLine
 10
806.8262022155249
 20
894.6524077317842
 30
0.0
 11
873.1737975197757
 21
894.6524077317842
 31
0.0
  0
LINE
  5
1126F
330
1F
100
AcDbEntity
  8
AM_0
100
AcDbLine
 10
819.068023951622
 20
878.3524083545605
 30
0.0
 11
860.9319720583888
 21
878.3524083545605
 31
0.0
  0
SPLINE
  5
11270
330
1F
100
AcDbEntity
  8
AM_0
100
AcDbSpline
210
0.0
220
0.0
230
1.0
 70
    12
 71
     3
 72
    11
 73
     7
 74
     0
 42
0.0000000001
 43
0.0000000001
 40
0.0
 40
0.0
 40
0.0
 40
0.0
 40
0.3284506678289525
 40
0.6570348950618637
 40
0.9818228742490632
 40
1.0
 40
1.0
 40
1.0
 40
1.0
 10
845.5000017004929
 20
895.6524077792826
 30
0.0
 41
1.0
 10
845.3857099604519
 20
895.6414376882355
 30
0.0
 41
1.0
 10
845.1570800053946
 20
895.6194930453255
 30
0.0
 41
1.0
 10
844.8635464657778
 20
895.4383501651744
 30
0.0
 41
1.0
 10
844.6829980206228
 20
895.2706601093566
 30
0.0
 41
1.0
 10
844.6397689259978
 20
895.1583596706594
 30
0.0
 41
1.0
 10
844.6374777871097
 20
895.1524077555339
 30
0.0
 41
1.0
  0
LINE
  5
11271
330
1F
100
AcDbEntity
  8
AM_0
100
AcDbLine
 10
845.5000017004929
 20
895.6524077792826
 30
0.0
 11
867.7999992090189
 21
895.6524077792826
 31
0.0
  0
SPLINE
  5
11272
330
1F
100
AcDbEntity
  8
AM_0
100
AcDbSpline
210
0.0
220
0.0
230
1.0
 70
    12
 71
     3
 72
    11
 73
     7
 74
     0
 42
0.0000000001
 43
0.0000000001
 40
0.0
 40
0.0
 40
0.0
 40
0.0
 40
0.1288592315315861
 40
0.4474473222425272
 40
0.7701132268178741
 40
1.0
 40
1.0
 40
1.0
 40
1.0
 10
835.3506121951069
 20
895.1524077555339
 30
0.0
 41
1.0
 10
835.3306385415647
 20
895.1928862878382
 30
0.0
 41
1.0
 10
835.2612825653817
 20
895.3334428523383
 30
0.0
 41
1.0
 10
835.0461204071029
 20
895.5067310268248
 30
0.0
 41
1.0
 10
834.7692006112257
 20
895.6339944071267
 30
0.0
 41
1.0
 10
834.5790944683656
 20
895.6469977878711
 30
0.0
 41
1.0
 10
834.5000017600979
 20
895.6524077792826
 30
0.0
 41
1.0
  0
LINE
  5
11273
330
1F
100
AcDbEntity
  8
AM_0
100
AcDbLine
 10
812.2000005262817
 20
895.6524077792826
 30
0.0
 11
834.5000017600979
 21
895.6524077792826
 31
0.0
  0
LINE
  5
11274
330
1F
100
AcDbEntity
  8
AM_0
100
AcDbLine
 10
834.5000017600979
 20
895.6524077792826
 30
0.0
 11
845.5000017004929
 21
895.6524077792826
 31
0.0
  0
LINE
  5
11275
102
{ACAD_REACTORS
330
118C1
330
118F7
330
11AE4
102
}
330
1F
100
AcDbEntity
  8
AM_7
 48
2.0
100
AcDbLine
 10
786.8262022203816
 20
894.6524077150247
 30
0.0
 11
893.1737975149191
 21
894.6524077150252
 31
0.0
  0
LINE
  5
11276
102
{ACAD_REACTORS
330
118C1
102
}
330
1F
100
AcDbEntity
  8
AM_7
 48
2.0
100
AcDbLine
 10
786.8262022203816
 20
931.8851016796404
 30
0.0
 11
893.1737975149191
 21
857.4197137839304
 31
0.0
  0
MTEXT
  5
11277
330
1F
100
AcDbEntity
  8
AM_6
100
AcDbMText
 10
917.9981519123929
 20
918.2166070451483
 30
0.0
 40
12.8
 41
17.23209102869077
 71
     5
 72
     5
  1
35°
 11
-0.2588190451025207
 21
0.9659258262890682
 31
0.0
 73
     1
 44
1.0
1001
ACAD
1000
MTEXTBEGIN
1070
    73
1070
     1
1070
    44
1040
1.0
1070
    74
1070
     0
1000
MTEXTEND
  0
DIMENSION
  5
1127E
102
{ACAD_XDICTIONARY
360
1127F
102
}
102
{ACAD_REACTORS
330
11280
102
}
330
1F
100
AcDbEntity
  8
AM_5
100
AcDbDimension
  2
*D7
 10
774.8262022155251
 20
873.3524075349967
 30
0.0
 11
774.8262022155248
 21
884.50240765714
 31
0.0
 70
   160
  1
22
 71
     5
 42
22.30000024428614
  3
SYS$0
100
AcDbAlignedDimension
 13
812.2000005262817
 23
895.6524077792828
 33
0.0
 14
826.2417707758878
 24
873.3524075349967
 34
0.0
 50
90.0
100
AcDbRotatedDimension
1001
ACAD
1000
DSTYLE
1002
{
1070
    75
1070
     0
1070
    40
1040
4.0
1070
   271
1070
     1
1002
}
  0
LINE
  5
11281
330
1F
100
AcDbEntity
  8
AM_7
 48
2.0
100
AcDbLine
 10
839.9999999999998
 20
1062.0
 30
0.0
 11
839.9999999999998
 21
971.6524077792827
 31
0.0
1001
GENIUS_GENOBJ-N-CEN_13
1002
{
1000
OWNER
1000
GEN
1002
}
1001
GENIUS_GENODEF_13
1002
{
1000
HIER
1070
     0
1002
}
1002
{
1000
MANEDIT
1070
     0
1002
}
1002
{
1000
NOSEL
1070
     0
1002
}
1002
{
1000
BEHIND
1070
     0
1002
}
1002
{
1000
OTHER
1070
     0
1002
}
1002
{
1000
REACTOR
1002
}
1001
GENIUS_GENCEN_19
1002
{
1040
12.0
1002
}
  0
LINE
  5
11282
330
1F
100
AcDbEntity
  8
AM_7
 48
2.0
100
AcDbLine
 10
794.8262038896412
 20
1016.826203889641
 30
0.0
 11
885.1737961103584
 21
1016.826203889641
 31
0.0
1001
GENIUS_GENODEF_13
1002
{
1000
HIER
1070
     0
1002
}
1002
{
1000
MANEDIT
1070
     0
1002
}
1002
{
1000
NOSEL
1070
     0
1002
}
1002
{
1000
BEHIND
1070
     0
1002
}
1002
{
1000
OTHER
1070
     0
1002
}
1002
{
1000
REACTOR
1002
}
1001
GENIUS_GENOBJ-N-CEN_13
1002
{
1000
OWNER
1000
GEN
1002
}
1001
GENIUS_GENCEN_19
1002
{
1040
12.0
1002
}
  0
LINE
  5
11283
102
{ACAD_REACTORS
330
11AC3
102
}
330
1F
100
AcDbEntity
  8
AM_7
 48
0.5
100
AcDbLine
 10
817.5000000000011
 20
1009.701203889643
 30
0.0
 11
817.5000000000011
 21
1023.951203889643
 31
0.0
1001
GENIUS_GENODEF_13
1002
{
1000
HIER
1070
     0
1002
}
1002
{
1000
MANEDIT
1070
     0
1002
}
1002
{
1000
NOSEL
1070
     0
1002
}
1002
{
1000
BEHIND
1070
     0
1002
}
1002
{
1000
OTHER
1070
     0
1002
}
1002
{
1000
REACTOR
1002
}
1001
GENIUS_GENOBJ-N-CEN_13
1002
{
1000
OWNER
1000
GEN
1002
}
1001
GENIUS_GENCEN_19
1002
{
1040
12.0
1002
}
  0
LINE
  5
11285
102
{ACAD_REACTORS
330
11AC3
102
}
330
1F
100
AcDbEntity
  8
AM_7
 48
0.5
100
AcDbLine
 10
862.4999999999991
 20
1009.701203889643
 30
0.0
 11
862.4999999999992
 21
1023.951203889643
 31
0.0
1001
GENIUS_GENODEF_13
1002
{
1000
HIER
1070
     0
1002
}
1002
{
1000
MANEDIT
1070
     0
1002
}
1002
{
1000
NOSEL
1070
     0
1002
}
1002
{
1000
BEHIND
1070
     0
1002
}
1002
{
1000
OTHER
1070
     0
1002
}
1002
{
1000
REACTOR
1002
}
1001
GENIUS_GENOBJ-N-CEN_13
1002
{
1000
OWNER
1000
GEN
1002
}
1001
GENIUS_GENCEN_19
1002
{
1040
12.0
1002
}
  0
LINE
  5
11290
330
1F
100
AcDbEntity
  8
AM_0
100
AcDbLine
 10
538.3873115594684
 20
895.1524078482055
 30
0.0
 11
538.3829492445292
 21
894.6524078244559
 31
0.0
  0
LINE
  5
11291
330
1F
100
AcDbEntity
  8
AM_0
100
AcDbLine
 10
600.9218636269873
 20
894.6524078244559
 30
0.0
 11
600.9174975867573
 21
895.1524078482055
 31
0.0
  0
ARC
  5
11292
330
1F
100
AcDbEntity
  8
AM_0
100
AcDbCircle
 10
584.4402288152474
 20
878.3864776390821
 30
0.0
 40
0.2999999999999655
100
AcDbArc
 50
347.7300712364934
 51
353.479080717633
  0
ARC
  5
11293
330
1F
100
AcDbEntity
  8
AM_0
100
AcDbCircle
 10
554.8645801819674
 20
878.3864776390821
 30
0.0
 40
0.2999999999999655
100
AcDbArc
 50
186.5209192823932
 51
192.2699287635066
  0
LINE
  5
11294
330
1F
100
AcDbEntity
  8
AM_0
100
AcDbLine
 10
554.5714366550752
 20
878.3227216088429
 30
0.0
 11
555.6010249371824
 21
873.5886524998798
 31
0.0
  0
LINE
  5
11295
330
1F
100
AcDbEntity
  8
AM_0
100
AcDbLine
 10
583.7037879343332
 20
873.5886524998798
 30
0.0
 11
584.7333762164413
 21
878.3227216088429
 31
0.0
  0
ARC
  5
11296
330
1F
100
AcDbEntity
  8
AM_0
100
AcDbCircle
 10
583.4106371351793
 20
873.6524078482055
 30
0.0
 40
0.2999999999998692
100
AcDbArc
 50
270.0
 51
347.7300712364668
  0
ARC
  5
11297
330
1F
100
AcDbEntity
  8
AM_0
100
AcDbCircle
 10
555.8941718620355
 20
873.6524078482055
 30
0.0
 40
0.2999999999998692
100
AcDbArc
 50
192.2699287635066
 51
270.0
  0
LINE
  5
11298
330
1F
100
AcDbEntity
  8
AM_0
100
AcDbLine
 10
536.4786069209872
 20
894.6524078244559
 30
0.0
 11
536.7368738467993
 21
889.724376295622
 31
0.0
  0
LINE
  5
11299
330
1F
100
AcDbEntity
  8
AM_0
100
AcDbLine
 10
602.5679352994262
 20
889.724376295622
 30
0.0
 11
602.8262022252382
 21
894.6524078244559
 31
0.0
  0
ARC
  5
1129A
330
1F
100
AcDbEntity
  8
AM_0
100
AcDbCircle
 10
590.5843790060743
 20
890.3524078482053
 30
0.0
 40
11.99999999999999
100
AcDbArc
 50
270.0
 51
356.9999999999944
  0
ARC
  5
1129B
330
1F
100
AcDbEntity
  8
AM_0
100
AcDbCircle
 10
548.7204299911412
 20
890.3524078482053
 30
0.0
 40
11.99999999999999
100
AcDbArc
 50
183.0000000000056
 51
270.0
  0
LINE
  5
1129C
330
1F
100
AcDbEntity
  8
AM_0
100
AcDbLine
 10
597.4524039144813
 20
895.1524078482055
 30
0.0
 11
597.4524039144813
 21
895.6524078719542
 31
0.0
  0
LINE
  5
1129D
330
1F
100
AcDbEntity
  8
AM_0
100
AcDbLine
 10
541.8524052317442
 20
895.6524078719542
 30
0.0
 11
541.8524052317442
 21
895.1524078482055
 31
0.0
  0
LINE
  5
1129E
330
1F
100
AcDbEntity
  8
AM_0
100
AcDbLine
 10
579.2806464548412
 20
895.1524078482055
 30
0.0
 11
538.3873115594684
 21
895.1524078482055
 31
0.0
  0
LINE
  5
1129F
330
1F
100
AcDbEntity
  8
AM_0
100
AcDbLine
 10
579.2861449833211
 20
894.6524078244559
 30
0.0
 11
579.2806464548412
 21
895.1524078482055
 31
0.0
  0
LINE
  5
112A0
330
1F
100
AcDbEntity
  8
AM_0
100
AcDbLine
 10
596.1850676055254
 20
894.6524078244559
 30
0.0
 11
596.1829590912162
 21
895.1524078482055
 31
0.0
  0
LINE
  5
112A1
330
1F
100
AcDbEntity
  8
AM_0
100
AcDbLine
 10
579.2806464548412
 20
895.1524078482055
 30
0.0
 11
596.1829590912162
 21
895.1524078482055
 31
0.0
  0
LINE
  5
112A2
330
1F
100
AcDbEntity
  8
AM_0
100
AcDbLine
 10
597.9955735917393
 20
895.1524078482055
 30
0.0
 11
597.9976821060482
 21
894.6524078244559
 31
0.0
  0
LINE
  5
112A3
330
1F
100
AcDbEntity
  8
AM_0
100
AcDbLine
 10
600.9174975867573
 20
895.1524078482055
 30
0.0
 11
597.9955735917393
 21
895.1524078482055
 31
0.0
  0
LINE
  5
112A4
330
1F
100
AcDbEntity
  8
AM_0
100
AcDbLine
 10
555.8941754813503
 20
873.3524076276683
 30
0.0
 11
583.4106373901662
 21
873.3524076276683
 31
0.0
  0
LINE
  5
112A5
330
1F
100
AcDbEntity
  8
AM_0
100
AcDbLine
 10
596.1829590912162
 20
895.1524078482055
 30
0.0
 11
597.9955735917393
 21
895.1524078482055
 31
0.0
  0
LINE
  5
112A6
330
1F
100
AcDbEntity
  8
AM_0
100
AcDbLine
 10
536.4786069209872
 20
894.6524078244559
 30
0.0
 11
602.8262022252382
 21
894.6524078244559
 31
0.0
  0
LINE
  5
112A7
330
1F
100
AcDbEntity
  8
AM_0
100
AcDbLine
 10
548.7204286570844
 20
878.3524084472322
 30
0.0
 11
590.5843767638513
 21
878.3524084472322
 31
0.0
  0
SPLINE
  5
112A8
330
1F
100
AcDbEntity
  8
AM_0
100
AcDbSpline
210
0.0
220
0.0
230
1.0
 70
    12
 71
     3
 72
    11
 73
     7
 74
     0
 42
0.0000000001
 43
0.0000000001
 40
0.0
 40
0.0
 40
0.0
 40
0.0
 40
0.3284506678289525
 40
0.6570348950618637
 40
0.9818228742490632
 40
1.0
 40
1.0
 40
1.0
 40
1.0
 10
575.1524064059553
 20
895.6524078719542
 30
0.0
 41
1.0
 10
575.0381146659143
 20
895.6414377809071
 30
0.0
 41
1.0
 10
574.8094847108571
 20
895.619493137997
 30
0.0
 41
1.0
 10
574.5159511712403
 20
895.438350257846
 30
0.0
 41
1.0
 10
574.3354027260854
 20
895.2706602020283
 30
0.0
 41
1.0
 10
574.2921736314603
 20
895.1583597633309
 30
0.0
 41
1.0
 10
574.2898824925722
 20
895.1524078482055
 30
0.0
 41
1.0
  0
LINE
  5
112A9
330
1F
100
AcDbEntity
  8
AM_0
100
AcDbLine
 10
575.1524064059553
 20
895.6524078719542
 30
0.0
 11
597.4524039144813
 21
895.6524078719542
 31
0.0
  0
SPLINE
  5
112AA
330
1F
100
AcDbEntity
  8
AM_0
100
AcDbSpline
210
0.0
220
0.0
230
1.0
 70
    12
 71
     3
 72
    11
 73
     7
 74
     0
 42
0.0000000001
 43
0.0000000001
 40
0.0
 40
0.0
 40
0.0
 40
0.0
 40
0.1288592315315861
 40
0.4474473222425272
 40
0.7701132268178741
 40
1.0
 40
1.0
 40
1.0
 40
1.0
 10
565.0030169005693
 20
895.1524078482055
 30
0.0
 41
1.0
 10
564.9830432470272
 20
895.1928863805099
 30
0.0
 41
1.0
 10
564.9136872708441
 20
895.3334429450098
 30
0.0
 41
1.0
 10
564.6985251125653
 20
895.5067311194964
 30
0.0
 41
1.0
 10
564.4216053166882
 20
895.6339944997983
 30
0.0
 41
1.0
 10
564.2314991738281
 20
895.6469978805428
 30
0.0
 41
1.0
 10
564.1524064655603
 20
895.6524078719542
 30
0.0
 41
1.0
  0
LINE
  5
112AB
330
1F
100
AcDbEntity
  8
AM_0
100
AcDbLine
 10
541.8524052317442
 20
895.6524078719542
 30
0.0
 11
564.1524064655603
 21
895.6524078719542
 31
0.0
  0
LINE
  5
112AC
330
1F
100
AcDbEntity
  8
AM_0
100
AcDbLine
 10
564.1524064655603
 20
895.6524078719542
 30
0.0
 11
575.1524064059553
 21
895.6524078719542
 31
0.0
  0
LINE
  5
112AD
330
1F
100
AcDbEntity
  8
AM_11
 48
2.0
100
AcDbLine
 10
440.478606925844
 20
895.6524077792828
 30
0.0
 11
642.8262022203815
 21
895.6524077792828
 31
0.0
1001
GENIUS_GENREC_14
1002
{
1000
PYDIR
1011
149.8131083814334
1021
916.264077029793
1031
0.0
1002
}
1002
{
1000
PXDIR
1011
677.3942885540192
1021
895.6524078719539
1031
0.0
1002
}
1002
{
1000
PORI
1011
149.8131083814334
1021
895.6524078719539
1031
0.0
1002
}
1002
{
1000
PINS
1011
149.8131083814334
1021
895.6524078719539
1031
0.0
1002
}
1002
{
1000
PINS2
1011
709.2998210582664
1021
916.264077029793
1031
0.0
1002
}
1002
{
1000
C
1070
     1
1002
}
1001
GENIUS_GENOBJ-N-REC_13
1002
{
1000
OWNER
1000
GEN
1002
}
1001
GENIUS_GENODEF_13
1002
{
1000
HIER
1070
     0
1002
}
1002
{
1000
MANEDIT
1070
     0
1002
}
1002
{
1000
NOSEL
1070
     0
1002
}
1002
{
1000
BEHIND
1070
     0
1002
}
1002
{
1000
OTHER
1070
     0
1002
}
1002
{
1000
REACTOR
1002
}
  0
DIMENSION
  5
112AE
330
1F
100
AcDbEntity
  8
AM_5
100
AcDbDimension
  2
*D5
 10
504.478606925844
 20
295.6524077792828
 30
0.0
 11
494.078606925844
 21
595.6524077792829
 31
0.0
 70
    32
 71
     5
 42
600.0
  3
SYS$0
100
AcDbAlignedDimension
 13
541.8524052317442
 23
895.6524077792828
 33
0.0
 14
569.6524047054623
 24
295.6524077792828
 34
0.0
 50
90.0
100
AcDbRotatedDimension
1001
ACAD
1000
DSTYLE
1002
{
1070
    75
1070
     1
1070
    76
1070
     0
1070
    40
1040
4.0
1070
   271
1070
     1
1002
}
  0
DIMENSION
  5
112AF
330
1F
100
AcDbEntity
  8
AM_5
100
AcDbDimension
  2
*D6
 10
472.4786069258439
 20
130.6524077792828
 30
0.0
 11
462.0786069258439
 21
513.1524078256186
 31
0.0
 70
    32
  1
900
 71
     5
 42
765.0000000926714
  3
SYS$0
100
AcDbAlignedDimension
 13
541.8524052317442
 23
895.6524078719542
 33
0.0
 14
569.6524052887631
 24
130.6524077792828
 34
0.0
 50
90.0
100
AcDbRotatedDimension
1001
ACAD
1000
DSTYLE
1002
{
1070
    75
1070
     1
1070
    76
1070
     0
1070
    40
1040
4.0
1070
   271
1070
     1
1002
}
  0
LINE
  5
11320
330
1F
100
AcDbEntity
  8
AM_0
100
AcDbLine
 10
1274.0
 20
1154.0
 30
0.0
 11
1274.000000000014
 21
706.0
 31
0.0
  0
LINE
  5
11321
330
1F
100
AcDbEntity
  8
AM_0
100
AcDbLine
 10
1274.0
 20
1154.0
 30
0.0
 11
1633.999999999999
 21
1154.0
 31
0.0
  0
LINE
  5
11322
330
1F
100
AcDbEntity
  8
AM_0
100
AcDbLine
 10
1633.999999999999
 20
1154.0
 30
0.0
 11
1633.999999999981
 21
706.0
 31
0.0
  0
LINE
  5
11323
330
1F
100
AcDbEntity
  8
AM_0
100
AcDbLine
 10
1353.999999999976
 20
706.0
 30
0.0
 11
1354.0
 21
1154.0
 31
0.0
  0
LINE
  5
11324
330
1F
100
AcDbEntity
  8
AM_5
100
AcDbLine
 10
1274.0
 20
1122.0
 30
0.0
 11
1633.999999999999
 21
1122.0
 31
0.0
  0
LINE
  5
11325
330
1F
100
AcDbEntity
  8
AM_5
100
AcDbLine
 10
1273.999999999998
 20
1090.0
 30
0.0
 11
1633.999999999999
 21
1090.0
 31
0.0
  0
MTEXT
  5
11326
330
1F
100
AcDbEntity
  8
AM_6
100
AcDbMText
 10
1314.0
 20
1138.0
 30
0.0
 40
12.8
 41
80.0
 71
     5
 72
     5
  1
品　名
 73
     1
 44
1.0
1001
ACAD
1000
MTEXTBEGIN
1070
    73
1070
     1
1070
    44
1040
1.0
1070
    74
1070
     0
1000
MTEXTEND
  0
MTEXT
  5
11327
330
1F
100
AcDbEntity
  8
AM_6
100
AcDbMText
 10
1354.0
 20
1138.000000000001
 30
0.0
 40
12.8
 41
279.9999999999994
 71
     4
 72
     5
  1
　室内物干し
 73
     1
 44
1.0
1001
ACAD
1000
MTEXTBEGIN
1070
    73
1070
     1
1070
    44
1040
1.0
1070
    74
1070
     0
1000
MTEXTEND
1000
ACAD_MTEXT_DEFINED_HEIGHT_BEGIN
1070
    46
1040
3.200000000000756
1000
ACAD_MTEXT_DEFINED_HEIGHT_END
  0
MTEXT
  5
11328
330
1F
100
AcDbEntity
  8
AM_6
100
AcDbMText
 10
1313.999999999999
 20
1106.0
 30
0.0
 40
12.8
 41
80.0
 71
     5
 72
     5
  1
品　番
 73
     1
 44
1.0
1001
ACAD
1000
MTEXTBEGIN
1070
    73
1070
     1
1070
    44
1040
1.0
1070
    74
1070
     0
1000
MTEXTEND
  0
MTEXT
  5
11329
330
1F
100
AcDbEntity
  8
AM_6
100
AcDbMText
 10
1353.999999999999
 20
1106.000000000001
 30
0.0
 40
12.8
 41
279.9999999999993
 71
     4
 72
     5
  1
　TA6090
 73
     1
 44
1.0
1001
ACAD
1000
MTEXTBEGIN
1070
    73
1070
     1
1070
    44
1040
1.0
1070
    74
1070
     0
1000
MTEXTEND
1000
ACAD_MTEXT_DEFINED_HEIGHT_BEGIN
1070
    46
1040
4.876190476191229
1000
ACAD_MTEXT_DEFINED_HEIGHT_END
  0
MTEXT
  5
1132A
330
1F
100
AcDbEntity
  8
AM_6
100
AcDbMText
 10
1313.999999999999
 20
1074.0
 30
0.0
 40
12.8
 41
80.0
 71
     5
 72
     5
  1
材　質
 73
     1
 44
1.0
1001
ACAD
1000
MTEXTBEGIN
1070
    73
1070
     1
1070
    44
1040
1.0
1070
    74
1070
     0
1000
MTEXTEND
  0
MTEXT
  5
1132B
330
1F
100
AcDbEntity
  8
AM_6
100
AcDbMText
 10
1413.999999999994
 20
1073.999999999998
 30
0.0
 40
12.8
 41
119.9999999999901
 71
     5
 72
     5
  1
アーム
 73
     1
 44
1.0
1001
ACAD
1000
MTEXTBEGIN
1070
    73
1070
     1
1070
    44
1040
1.0
1070
    74
1070
     0
1000
MTEXTEND
1000
ACAD_MTEXT_DEFINED_HEIGHT_BEGIN
1070
    46
1040
6.399999999996135
1000
ACAD_MTEXT_DEFINED_HEIGHT_END
  0
LINE
  5
1132C
330
1F
100
AcDbEntity
  8
AM_5
100
AcDbLine
 10
1353.999999999996
 20
1058.0
 30
0.0
 11
1633.999999999998
 21
1058.0
 31
0.0
  0
LINE
  5
1132D
330
1F
100
AcDbEntity
  8
AM_5
100
AcDbLine
 10
1273.999999999997
 20
962.0
 30
0.0
 11
1633.999999999993
 21
962.0
 31
0.0
  0
MTEXT
  5
1132E
330
1F
100
AcDbEntity
  8
AM_6
100
AcDbMText
 10
1313.999999999993
 20
946.0
 30
0.0
 40
12.8
 41
80.0
 71
     5
 72
     5
  1
仕上げ
 73
     1
 44
1.0
1001
ACAD
1000
MTEXTBEGIN
1070
    73
1070
     1
1070
    44
1040
1.0
1070
    74
1070
     0
1000
MTEXTEND
  0
LINE
  5
1132F
330
1F
100
AcDbEntity
  8
AM_5
100
AcDbLine
 10
1353.999999999994
 20
1026.0
 30
0.0
 11
1633.999999999996
 21
1026.0
 31
0.0
  0
LINE
  5
11330
330
1F
100
AcDbEntity
  8
AM_5
100
AcDbLine
 10
1423.999999999985
 20
994.000000000001
 30
0.0
 11
1633.999999999996
 21
994.0
 31
0.0
  0
LINE
  5
11331
330
1F
100
AcDbEntity
  8
AM_5
100
AcDbLine
 10
1423.999999999983
 20
962.0
 30
0.0
 11
1423.999999999986
 21
1026.0
 31
0.0
  0
MTEXT
  5
11332
330
1F
100
AcDbEntity
  8
AM_6
100
AcDbMText
 10
1388.99999999999
 20
994.0000000000004
 30
0.0
 40
12.8
 41
69.99999999999023
 71
     5
 72
     5
  1
ブラケット
 73
     1
 44
1.0
1001
ACAD
1000
MTEXTBEGIN
1070
    73
1070
     1
1070
    44
1040
1.0
1070
    74
1070
     0
1000
MTEXTEND
1000
ACAD_MTEXT_DEFINED_HEIGHT_BEGIN
1070
    46
1040
12.80000000000102
1000
ACAD_MTEXT_DEFINED_HEIGHT_END
  0
MTEXT
  5
11333
330
1F
100
AcDbEntity
  8
AM_6
100
AcDbMText
 10
1473.999999999989
 20
1073.999999999999
 30
0.0
 40
12.8
 41
240.0000000000013
 71
     4
 72
     5
  1
　アルミ押出材
 73
     1
 44
1.0
1001
ACAD
1000
MTEXTBEGIN
1070
    73
1070
     1
1070
    44
1040
1.0
1070
    74
1070
     0
1000
MTEXTEND
1000
ACAD_MTEXT_DEFINED_HEIGHT_BEGIN
1070
    46
1040
6.399999999997215
1000
ACAD_MTEXT_DEFINED_HEIGHT_END
  0
MTEXT
  5
11334
330
1F
100
AcDbEntity
  8
AM_6
100
AcDbMText
 10
1473.999999999987
 20
1042.0
 30
0.0
 40
12.8
 41
240.0000000000007
 71
     4
 72
     5
  1
　ABS樹脂
 73
     1
 44
1.0
1001
ACAD
1000
MTEXTBEGIN
1070
    73
1070
     1
1070
    44
1040
1.0
1070
    74
1070
     0
1000
MTEXTEND
1000
ACAD_MTEXT_DEFINED_HEIGHT_BEGIN
1070
    46
1040
6.399999999999319
1000
ACAD_MTEXT_DEFINED_HEIGHT_END
  0
MTEXT
  5
11335
330
1F
100
AcDbEntity
  8
AM_6
100
AcDbMText
 10
1413.999999999992
 20
1042.0
 30
0.0
 40
12.8
 41
119.9999999999901
 71
     5
 72
     5
  1
リング
 73
     1
 44
1.0
1001
ACAD
1000
MTEXTBEGIN
1070
    73
1070
     1
1070
    44
1040
1.0
1070
    74
1070
     0
1000
MTEXTEND
1000
ACAD_MTEXT_DEFINED_HEIGHT_BEGIN
1070
    46
1040
6.399999999999319
1000
ACAD_MTEXT_DEFINED_HEIGHT_END
  0
LINE
  5
11336
330
1F
100
AcDbEntity
  8
AM_5
100
AcDbLine
 10
1473.999999999976
 20
834.0
 30
0.0
 11
1473.999999999989
 21
1090.0
 31
0.0
  0
MTEXT
  5
11337
330
1F
100
AcDbEntity
  8
AM_6
100
AcDbMText
 10
1448.999999999984
 20
1010.0
 30
0.0
 40
12.8
 41
49.99999999999016
 71
     5
 72
     5
  1
カバー
 73
     1
 44
1.0
1001
ACAD
1000
MTEXTBEGIN
1070
    73
1070
     1
1070
    44
1040
1.0
1070
    74
1070
     0
1000
MTEXTEND
1000
ACAD_MTEXT_DEFINED_HEIGHT_BEGIN
1070
    46
1040
6.399999999999319
1000
ACAD_MTEXT_DEFINED_HEIGHT_END
  0
MTEXT
  5
11338
330
1F
100
AcDbEntity
  8
AM_6
100
AcDbMText
 10
1448.999999999982
 20
978.0
 30
0.0
 40
12.8
 41
49.99999999998994
 71
     5
 72
     5
  1
台座
 73
     1
 44
1.0
1001
ACAD
1000
MTEXTBEGIN
1070
    73
1070
     1
1070
    44
1040
1.0
1070
    74
1070
     0
1000
MTEXTEND
1000
ACAD_MTEXT_DEFINED_HEIGHT_BEGIN
1070
    46
1040
6.399999999999319
1000
ACAD_MTEXT_DEFINED_HEIGHT_END
  0
MTEXT
  5
11339
330
1F
100
AcDbEntity
  8
AM_6
100
AcDbMText
 10
1473.999999999986
 20
1010.0
 30
0.0
 40
12.8
 41
240.0000000000007
 71
     4
 72
     5
  1
　ABS樹脂
 73
     1
 44
1.0
1001
ACAD
1000
MTEXTBEGIN
1070
    73
1070
     1
1070
    44
1040
1.0
1070
    74
1070
     0
1000
MTEXTEND
1000
ACAD_MTEXT_DEFINED_HEIGHT_BEGIN
1070
    46
1040
6.399999999999319
1000
ACAD_MTEXT_DEFINED_HEIGHT_END
  0
MTEXT
  5
1133A
330
1F
100
AcDbEntity
  8
AM_6
100
AcDbMText
 10
1473.999999999984
 20
978.000000000001
 30
0.0
 40
12.8
 41
240.0000000000007
 71
     4
 72
     5
  1
　ステンレス
 73
     1
 44
1.0
1001
ACAD
1000
MTEXTBEGIN
1070
    73
1070
     1
1070
    44
1040
1.0
1070
    74
1070
     0
1000
MTEXTEND
1000
ACAD_MTEXT_DEFINED_HEIGHT_BEGIN
1070
    46
1040
6.399999999999319
1000
ACAD_MTEXT_DEFINED_HEIGHT_END
  0
MTEXT
  5
1133B
330
1F
100
AcDbEntity
  8
AM_6
100
AcDbMText
 10
1413.999999999987
 20
945.9999999999984
 30
0.0
 40
12.8
 41
119.9999999999901
 71
     5
 72
     5
  1
アーム
 73
     1
 44
1.0
1001
ACAD
1000
MTEXTBEGIN
1070
    73
1070
     1
1070
    44
1040
1.0
1070
    74
1070
     0
1000
MTEXTEND
1000
ACAD_MTEXT_DEFINED_HEIGHT_BEGIN
1070
    46
1040
6.399999999996135
1000
ACAD_MTEXT_DEFINED_HEIGHT_END
  0
LINE
  5
1133C
330
1F
100
AcDbEntity
  8
AM_5
100
AcDbLine
 10
1353.999999999989
 20
930.0
 30
0.0
 11
1633.999999999991
 21
930.0
 31
0.0
  0
LINE
  5
1133D
330
1F
100
AcDbEntity
  8
AM_5
100
AcDbLine
 10
1273.99999999999
 20
834.0
 30
0.0
 11
1633.999999999987
 21
834.0
 31
0.0
  0
LINE
  5
1133E
330
1F
100
AcDbEntity
  8
AM_5
100
AcDbLine
 10
1353.999999999988
 20
898.0
 30
0.0
 11
1633.999999999989
 21
898.0
 31
0.0
  0
LINE
  5
1133F
330
1F
100
AcDbEntity
  8
AM_5
100
AcDbLine
 10
1423.999999999978
 20
866.0000000000009
 30
0.0
 11
1633.999999999989
 21
866.0
 31
0.0
  0
LINE
  5
11340
330
1F
100
AcDbEntity
  8
AM_5
100
AcDbLine
 10
1423.999999999976
 20
834.0
 30
0.0
 11
1423.999999999979
 21
898.0
 31
0.0
  0
MTEXT
  5
11341
330
1F
100
AcDbEntity
  8
AM_6
100
AcDbMText
 10
1388.999999999983
 20
866.0000000000005
 30
0.0
 40
12.8
 41
69.99999999999023
 71
     5
 72
     5
  1
ブラケット
 73
     1
 44
1.0
1001
ACAD
1000
MTEXTBEGIN
1070
    73
1070
     1
1070
    44
1040
1.0
1070
    74
1070
     0
1000
MTEXTEND
1000
ACAD_MTEXT_DEFINED_HEIGHT_BEGIN
1070
    46
1040
12.80000000000102
1000
ACAD_MTEXT_DEFINED_HEIGHT_END
  0
MTEXT
  5
11342
330
1F
100
AcDbEntity
  8
AM_6
100
AcDbMText
 10
1473.999999999982
 20
945.9999999999991
 30
0.0
 40
12.8
 41
240.0000000000013
 71
     4
 72
     5
  1
　ウレタン粉体塗装
 73
     1
 44
1.0
1001
ACAD
1000
MTEXTBEGIN
1070
    73
1070
     1
1070
    44
1040
1.0
1070
    74
1070
     0
1000
MTEXTEND
1000
ACAD_MTEXT_DEFINED_HEIGHT_BEGIN
1070
    46
1040
6.399999999997215
1000
ACAD_MTEXT_DEFINED_HEIGHT_END
  0
MTEXT
  5
11343
330
1F
100
AcDbEntity
  8
AM_6
100
AcDbMText
 10
1473.99999999998
 20
914.0
 30
0.0
 40
12.8
 41
240.0000000000007
 71
     4
 72
     5
  1
　生地
 73
     1
 44
1.0
1001
ACAD
1000
MTEXTBEGIN
1070
    73
1070
     1
1070
    44
1040
1.0
1070
    74
1070
     0
1000
MTEXTEND
1000
ACAD_MTEXT_DEFINED_HEIGHT_BEGIN
1070
    46
1040
6.399999999999319
1000
ACAD_MTEXT_DEFINED_HEIGHT_END
  0
MTEXT
  5
11344
330
1F
100
AcDbEntity
  8
AM_6
100
AcDbMText
 10
1413.999999999985
 20
914.0
 30
0.0
 40
12.8
 41
119.9999999999901
 71
     5
 72
     5
  1
リング
 73
     1
 44
1.0
1001
ACAD
1000
MTEXTBEGIN
1070
    73
1070
     1
1070
    44
1040
1.0
1070
    74
1070
     0
1000
MTEXTEND
1000
ACAD_MTEXT_DEFINED_HEIGHT_BEGIN
1070
    46
1040
6.399999999999319
1000
ACAD_MTEXT_DEFINED_HEIGHT_END
  0
MTEXT
  5
11345
330
1F
100
AcDbEntity
  8
AM_6
100
AcDbMText
 10
1448.999999999977
 20
882.0
 30
0.0
 40
12.8
 41
49.99999999999016
 71
     5
 72
     5
  1
カバー
 73
     1
 44
1.0
1001
ACAD
1000
MTEXTBEGIN
1070
    73
1070
     1
1070
    44
1040
1.0
1070
    74
1070
     0
1000
MTEXTEND
1000
ACAD_MTEXT_DEFINED_HEIGHT_BEGIN
1070
    46
1040
6.399999999999319
1000
ACAD_MTEXT_DEFINED_HEIGHT_END
  0
MTEXT
  5
11346
330
1F
100
AcDbEntity
  8
AM_6
100
AcDbMText
 10
1448.999999999975
 20
850.0
 30
0.0
 40
12.8
 41
49.99999999998994
 71
     5
 72
     5
  1
台座
 73
     1
 44
1.0
1001
ACAD
1000
MTEXTBEGIN
1070
    73
1070
     1
1070
    44
1040
1.0
1070
    74
1070
     0
1000
MTEXTEND
1000
ACAD_MTEXT_DEFINED_HEIGHT_BEGIN
1070
    46
1040
6.399999999999319
1000
ACAD_MTEXT_DEFINED_HEIGHT_END
  0
MTEXT
  5
11347
330
1F
100
AcDbEntity
  8
AM_6
100
AcDbMText
 10
1473.999999999979
 20
882.0
 30
0.0
 40
12.8
 41
240.0000000000007
 71
     4
 72
     5
  1
　生地
 73
     1
 44
1.0
1001
ACAD
1000
MTEXTBEGIN
1070
    73
1070
     1
1070
    44
1040
1.0
1070
    74
1070
     0
1000
MTEXTEND
1000
ACAD_MTEXT_DEFINED_HEIGHT_BEGIN
1070
    46
1040
6.399999999999319
1000
ACAD_MTEXT_DEFINED_HEIGHT_END
  0
MTEXT
  5
11348
330
1F
100
AcDbEntity
  8
AM_6
100
AcDbMText
 10
1473.999999999977
 20
850.0000000000008
 30
0.0
 40
12.8
 41
240.0000000000007
 71
     4
 72
     5
  1
　生地
 73
     1
 44
1.0
1001
ACAD
1000
MTEXTBEGIN
1070
    73
1070
     1
1070
    44
1040
1.0
1070
    74
1070
     0
1000
MTEXTEND
1000
ACAD_MTEXT_DEFINED_HEIGHT_BEGIN
1070
    46
1040
6.399999999999319
1000
ACAD_MTEXT_DEFINED_HEIGHT_END
  0
MTEXT
  5
11349
330
1F
100
AcDbEntity
  8
AM_6
100
AcDbMText
 10
1313.999999999993
 20
818.0
 30
0.0
 40
12.8
 41
80.0
 71
     5
 72
     5
  1
備  考
 73
     1
 44
1.0
1001
ACAD
1000
MTEXTBEGIN
1070
    73
1070
     1
1070
    44
1040
1.0
1070
    74
1070
     0
1000
MTEXTEND
  0
LINE
  5
1134A
330
1F
100
AcDbEntity
  8
AM_5
100
AcDbLine
 10
1353.999999999989
 20
802.0
 30
0.0
 11
1633.999999999991
 21
802.0
 31
0.0
  0
LINE
  5
1134B
330
1F
100
AcDbEntity
  8
AM_5
100
AcDbLine
 10
1353.999999999988
 20
770.0
 30
0.0
 11
1633.999999999989
 21
770.0
 31
0.0
  0
MTEXT
  5
1134D
330
1F
100
AcDbEntity
  8
AM_6
100
AcDbMText
 10
1354.0
 20
818.0000000000015
 30
0.0
 40
12.8
 41
279.9999999999994
 71
     4
 72
     5
  1
　取付ビス類は別途手配となります。
 73
     1
 44
1.0
1001
ACAD
1000
MTEXTBEGIN
1070
    73
1070
     1
1070
    44
1040
1.0
1070
    74
1070
     0
1000
MTEXTEND
1000
ACAD_MTEXT_DEFINED_HEIGHT_BEGIN
1070
    46
1040
3.200000000000756
1000
ACAD_MTEXT_DEFINED_HEIGHT_END
  0
MTEXT
  5
1134E
330
1F
100
AcDbEntity
  8
AM_6
100
AcDbMText
 10
1353.999999999981
 20
786.0000000000018
 30
0.0
 40
12.8
 41
279.9999999999994
 71
     4
 72
     5
  1
　長さ調整は無段階で可能です。
 73
     1
 44
1.0
1001
ACAD
1000
MTEXTBEGIN
1070
    73
1070
     1
1070
    44
1040
1.0
1070
    74
1070
     0
1000
MTEXTEND
1000
ACAD_MTEXT_DEFINED_HEIGHT_BEGIN
1070
    46
1040
3.200000000000756
1000
ACAD_MTEXT_DEFINED_HEIGHT_END
  0
MTEXT
  5
1134F
330
1F
100
AcDbEntity
  8
AM_6
100
AcDbMText
 10
1354.0
 20
754.0000000000018
 30
0.0
 40
12.8
 41
279.9999999999994
 71
     4
 72
     5
  1
　未使用時の収納用フックが付属します。
 73
     1
 44
1.0
1001
ACAD
1000
MTEXTBEGIN
1070
    73
1070
     1
1070
    44
1040
1.0
1070
    74
1070
     0
1000
MTEXTEND
1000
ACAD_MTEXT_DEFINED_HEIGHT_BEGIN
1070
    46
1040
3.200000000000756
1000
ACAD_MTEXT_DEFINED_HEIGHT_END
  0
ARC
  5
11350
330
1F
100
AcDbEntity
  8
AM_0
100
AcDbCircle
 10
1215.836838750415
 20
391.8533551981964
 30
0.0
 40
4.0
100
AcDbArc
 50
48.95955582634438
 51
128.7091694105211
  0
ARC
  5
11351
330
1F
100
AcDbEntity
  8
AM_0
100
AcDbCircle
 10
1215.836838750415
 20
391.8533551981964
 30
0.0
 40
4.0
100
AcDbArc
 50
136.5127970014763
 51
38.14492035357186
  0
LINE
  5
11352
330
1F
100
AcDbEntity
  8
AM_0
100
AcDbLine
 10
1201.600224472607
 20
388.2079670058324
 30
0.0
 11
1223.599102109523
 21
370.430189228055
 31
0.0
  0
LINE
  5
11353
330
1F
100
AcDbEntity
  8
AM_0
100
AcDbLine
 10
1197.161699509763
 20
384.1190781169439
 30
0.0
 11
1219.597385369572
 21
363.3190781169437
 31
0.0
  0
ARC
  5
11354
102
{ACAD_REACTORS
330
1139F
330
113A2
102
}
330
1F
100
AcDbEntity
  8
AM_0
100
AcDbCircle
 10
1205.99999999999
 20
348.6524114502767
 30
0.0
 40
28.0
100
AcDbArc
 50
157.7229440287634
 51
51.0575587310228
  0
ARC
  5
11355
330
1F
100
AcDbEntity
  8
AM_0
100
AcDbCircle
 10
1205.99999999999
 20
348.6524114502767
 30
0.0
 40
20.0
100
AcDbArc
 50
160.066451287361
 51
47.1665719339251
  0
ARC
  5
11356
102
{ACAD_REACTORS
330
113A2
102
}
330
1F
100
AcDbEntity
  8
AM_0
100
AcDbCircle
 10
1205.99999999999
 20
393.6524114502768
 30
0.0
 40
13.0
100
AcDbArc
 50
2.961104865249689
 51
227.1665719339251
  0
ARC
  5
11357
330
1F
100
AcDbEntity
  8
AM_0
100
AcDbCircle
 10
1186.340350937055
 20
362.4182459227022
 30
0.0
 40
7.0
100
AcDbArc
 50
277.0395063289502
 51
206.7568541071094
  0
ARC
  5
11358
330
1F
100
AcDbEntity
  8
AM_0
100
AcDbCircle
 10
1186.340350937055
 20
362.4182459227022
 30
0.0
 40
7.0
100
AcDbArc
 50
214.970117528569
 51
270.129647385058
  0
ARC
  5
11359
330
1F
100
AcDbEntity
  8
AM_0
100
AcDbCircle
 10
1205.99999999999
 20
393.6524114502768
 30
0.0
 40
7.0
100
AcDbArc
 50
7.830609547978102
 51
231.0575587310228
  0
ARC
  5
1135C
330
1F
100
AcDbEntity
  8
AM_0
100
AcDbCircle
 10
1364.259999999991
 20
330.912411450277
 30
0.0
 40
8.721
100
AcDbArc
 50
270.0
 51
0.0
  0
ARC
  5
1135D
330
1F
100
AcDbEntity
  8
AM_0
100
AcDbCircle
 10
1364.259999999991
 20
330.912411450277
 30
0.0
 40
10.25999999999999
100
AcDbArc
 50
270.0
 51
0.0
  0
ARC
  5
1135E
330
1F
100
AcDbEntity
  8
AM_0
100
AcDbCircle
 10
1364.259999999991
 20
330.912411450277
 30
0.0
 40
8.721
100
AcDbArc
 50
180.0
 51
270.0
  0
ARC
  5
1135F
330
1F
100
AcDbEntity
  8
AM_0
100
AcDbCircle
 10
1364.259999999991
 20
330.912411450277
 30
0.0
 40
10.25999999999999
100
AcDbArc
 50
180.0
 51
270.0
  0
LINE
  5
11360
330
1F
100
AcDbEntity
  8
AM_0
100
AcDbLine
 10
1435.0399358069
 20
389.9074114502769
 30
0.0
 11
1435.0399358069
 21
323.2174114502768
 31
0.0
  0
LINE
  5
11361
330
1F
100
AcDbEntity
  8
AM_0
100
AcDbLine
 10
1436.5789358069
 20
391.959411450277
 30
0.0
 11
1436.5789358069
 21
321.1654114502771
 31
0.0
  0
LINE
  5
11362
102
{ACAD_REACTORS
330
113A5
102
}
330
1F
100
AcDbEntity
  8
AM_0
100
AcDbLine
 10
1439.1439358069
 20
392.4724114502769
 30
0.0
 11
1439.1439358069
 21
320.6524114502768
 31
0.0
  0
LINE
  5
11363
330
1F
100
AcDbEntity
  8
AM_0
100
AcDbLine
 10
1364.259999999991
 20
320.6524114502772
 30
0.0
 11
1364.259999999991
 21
320.6524114502772
 31
0.0
  0
LINE
  5
11364
330
1F
100
AcDbEntity
  8
AM_0
100
AcDbLine
 10
1436.065935806899
 20
322.191411450277
 30
0.0
 11
1436.5789358069
 21
322.191411450277
 31
0.0
  0
ARC
  5
11365
330
1F
100
AcDbEntity
  8
AM_0
100
AcDbCircle
 10
1437.0919358069
 20
321.1654114502771
 30
0.0
 40
0.513
100
AcDbArc
 50
180.0
 51
270.0
  0
ARC
  5
11366
330
1F
100
AcDbEntity
  8
AM_0
100
AcDbCircle
 10
1436.065935806899
 20
323.2174114502768
 30
0.0
 40
1.026
100
AcDbArc
 50
180.0
 51
270.0
  0
LINE
  5
11367
330
1F
100
AcDbEntity
  8
AM_0
100
AcDbLine
 10
1437.0919358069
 20
320.6524114502768
 30
0.0
 11
1439.1439358069
 21
320.6524114502768
 31
0.0
  0
LINE
  5
11368
330
1F
100
AcDbEntity
  8
AM_0
100
AcDbLine
 10
1355.582714560983
 20
372.6193114502767
 30
0.0
 11
1359.155714447633
 21
337.0684114502769
 31
0.0
  0
LINE
  5
11369
330
1F
100
AcDbEntity
  8
AM_0
100
AcDbLine
 10
1372.937285438997
 20
372.6193114502767
 30
0.0
 11
1369.364285552347
 21
337.0684114502769
 31
0.0
  0
LINE
  5
1136A
330
1F
100
AcDbEntity
  8
AM_0
100
AcDbLine
 10
1374.34483084889
 20
371.2342114502767
 30
0.0
 11
1370.895571218054
 21
336.9145114502771
 31
0.0
  0
LINE
  5
1136B
330
1F
100
AcDbEntity
  8
AM_0
100
AcDbLine
 10
1354.175169151091
 20
371.2342114502767
 30
0.0
 11
1357.624428781927
 21
336.9145114502771
 31
0.0
  0
LINE
  5
1136C
330
1F
100
AcDbEntity
  8
AM_0
100
AcDbLine
 10
1353.99999999999
 20
382.2124114502767
 30
0.0
 11
1353.99999999999
 21
330.912411450277
 31
0.0
  0
LINE
  5
1136D
330
1F
100
AcDbEntity
  8
AM_0
100
AcDbLine
 10
1374.51999999999
 20
382.2124114502767
 30
0.0
 11
1374.51999999999
 21
330.912411450277
 31
0.0
  0
ARC
  5
1136E
330
1F
100
AcDbEntity
  8
AM_0
100
AcDbCircle
 10
1364.259999999991
 20
337.5814114502769
 30
0.0
 40
5.129999999999995
100
AcDbArc
 50
185.7391704772615
 51
354.2608295227385
  0
ARC
  5
1136F
330
1F
100
AcDbEntity
  8
AM_0
100
AcDbCircle
 10
1364.259999999991
 20
337.5814114502769
 30
0.0
 40
6.668999999999996
100
AcDbArc
 50
185.7391704772615
 51
354.2608295227385
  0
LINE
  5
11370
330
1F
100
AcDbEntity
  8
AM_0
100
AcDbLine
 10
1355.53899999999
 20
353.6084551296208
 30
0.0
 11
1355.53899999999
 21
330.912411450277
 31
0.0
  0
LINE
  5
11371
330
1F
100
AcDbEntity
  8
AM_0
100
AcDbLine
 10
1372.98099999999
 20
353.6084551296208
 30
0.0
 11
1372.98099999999
 21
330.912411450277
 31
0.0
  0
ARC
  5
11372
330
1F
100
AcDbEntity
  8
AM_0
100
AcDbCircle
 10
1364.259999999991
 20
382.2124114502767
 30
0.0
 40
8.721
100
AcDbArc
 50
0.0
 51
90.0
  0
ARC
  5
11373
330
1F
100
AcDbEntity
  8
AM_0
100
AcDbCircle
 10
1364.259999999991
 20
382.2124114502767
 30
0.0
 40
10.25999999999999
100
AcDbArc
 50
0.0
 51
90.0
  0
ARC
  5
11374
330
1F
100
AcDbEntity
  8
AM_0
100
AcDbCircle
 10
1364.259999999991
 20
373.4914114502767
 30
0.0
 40
8.721
100
AcDbArc
 50
354.2608295227385
 51
185.7391704772615
  0
LINE
  5
11375
330
1F
100
AcDbEntity
  8
AM_0
100
AcDbLine
 10
1355.53899999999
 20
382.2124114502767
 30
0.0
 11
1355.53899999999
 21
376.6094638501008
 31
0.0
  0
ARC
  5
11376
330
1F
100
AcDbEntity
  8
AM_0
100
AcDbCircle
 10
1356.216883372034
 20
371.439411450277
 30
0.0
 40
2.052
100
AcDbArc
 50
109.2677672461917
 51
185.7391704772615
  0
ARC
  5
11377
330
1F
100
AcDbEntity
  8
AM_0
100
AcDbCircle
 10
1364.259999999991
 20
382.2124114502767
 30
0.0
 40
8.721
100
AcDbArc
 50
90.0
 51
180.0
  0
ARC
  5
11378
330
1F
100
AcDbEntity
  8
AM_0
100
AcDbCircle
 10
1364.259999999991
 20
382.2124114502767
 30
0.0
 40
10.25999999999999
100
AcDbArc
 50
90.0
 51
180.0
  0
LINE
  5
11379
330
1F
100
AcDbEntity
  8
AM_0
100
AcDbLine
 10
1364.259999999991
 20
392.4724114502769
 30
0.0
 11
1364.259999999991
 21
392.4724114502769
 31
0.0
  0
LINE
  5
1137A
330
1F
100
AcDbEntity
  8
AM_0
100
AcDbLine
 10
1372.98099999999
 20
382.2124114502767
 30
0.0
 11
1372.98099999999
 21
376.6094638501008
 31
0.0
  0
ARC
  5
1137B
330
1F
100
AcDbEntity
  8
AM_0
100
AcDbCircle
 10
1372.303116627946
 20
371.439411450277
 30
0.0
 40
2.052
100
AcDbArc
 50
354.2608295227385
 51
70.73223275380809
  0
LINE
  5
1137C
330
1F
100
AcDbEntity
  8
AM_0
100
AcDbLine
 10
1417.0849358069
 20
373.3764722385831
 30
0.0
 11
1417.0849358069
 21
331.4254114502769
 31
0.0
  0
ARC
  5
1137D
330
1F
100
AcDbEntity
  8
AM_0
100
AcDbCircle
 10
1927.5199358069
 20
357.5877561500947
 30
0.0
 40
513.0
100
AcDbArc
 50
177.3581029687196
 51
182.6992232223771
  0
LINE
  5
1137E
102
{ACAD_REACTORS
330
113A8
102
}
330
1F
100
AcDbEntity
  8
AM_0
100
AcDbLine
 10
1419.6499358069
 20
381.6994114502768
 30
0.0
 11
1419.6499358069
 21
331.4254114502769
 31
0.0
  0
LINE
  5
1137F
330
1F
100
AcDbEntity
  8
AM_0
100
AcDbLine
 10
1435.0399358069
 20
357.5884114502769
 30
0.0
 11
1419.949032458451
 21
357.5884114502769
 31
0.0
  0
LINE
  5
11380
330
1F
100
AcDbEntity
  8
AM_0
100
AcDbLine
 10
1435.0399358069
 20
357.5884114502769
 30
0.0
 11
1419.6499358069
 21
357.5884114502769
 31
0.0
  0
LINE
  5
11381
330
1F
100
AcDbEntity
  8
AM_0
100
AcDbLine
 10
1435.0399358069
 20
345.276411450277
 30
0.0
 11
1419.6499358069
 21
345.276411450277
 31
0.0
  0
ARC
  5
11382
330
1F
100
AcDbEntity
  8
AM_0
100
AcDbCircle
 10
1417.5979358069
 20
331.4254114502769
 30
0.0
 40
0.513
100
AcDbArc
 50
180.0
 51
270.0
  0
LINE
  5
11383
330
1F
100
AcDbEntity
  8
AM_0
100
AcDbLine
 10
1417.5979358069
 20
330.912411450277
 30
0.0
 11
1419.1369358069
 21
330.912411450277
 31
0.0
  0
ARC
  5
11384
330
1F
100
AcDbEntity
  8
AM_0
100
AcDbCircle
 10
1419.1369358069
 20
331.4254114502769
 30
0.0
 40
0.513
100
AcDbArc
 50
270.0
 51
0.0
  0
LINE
  5
11385
330
1F
100
AcDbEntity
  8
AM_0
100
AcDbLine
 10
1416.113964044293
 20
332.4514114502767
 30
0.0
 11
1417.0849358069
 21
332.4514114502767
 31
0.0
  0
LINE
  5
11386
330
1F
100
AcDbEntity
  8
AM_0
100
AcDbLine
 10
1417.0849358069
 20
373.3764722385831
 30
0.0
 11
1419.6499358069
 21
373.3764722385831
 31
0.0
  0
ARC
  5
11387
330
1F
100
AcDbEntity
  8
AM_0
100
AcDbCircle
 10
1419.1369358069
 20
381.6994114502768
 30
0.0
 40
0.513
100
AcDbArc
 50
0.0
 51
90.0
  0
LINE
  5
11388
330
1F
100
AcDbEntity
  8
AM_0
100
AcDbLine
 10
1416.090096880754
 20
382.2124114502767
 30
0.0
 11
1419.1369358069
 21
382.2124114502767
 31
0.0
  0
ARC
  5
11389
330
1F
100
AcDbEntity
  8
AM_0
100
AcDbCircle
 10
1437.0919358069
 20
391.959411450277
 30
0.0
 40
0.513
100
AcDbArc
 50
90.0
 51
180.0
  0
LINE
  5
1138A
330
1F
100
AcDbEntity
  8
AM_0
100
AcDbLine
 10
1436.065935806899
 20
390.9334114502767
 30
0.0
 11
1436.5789358069
 21
390.9334114502767
 31
0.0
  0
ARC
  5
1138B
330
1F
100
AcDbEntity
  8
AM_0
100
AcDbCircle
 10
1436.065935806899
 20
389.9074114502769
 30
0.0
 40
1.026
100
AcDbArc
 50
90.0
 51
180.0
  0
LINE
  5
1138C
330
1F
100
AcDbEntity
  8
AM_0
100
AcDbLine
 10
1437.0919358069
 20
392.4724114502769
 30
0.0
 11
1439.1439358069
 21
392.4724114502769
 31
0.0
  0
POINT
  5
1138D
330
1F
100
AcDbEntity
  8
AM_0
100
AcDbPoint
 10
1435.0399358069
 20
323.2174114502768
 30
0.0
 50
360.0
  0
POINT
  5
1138E
330
1F
100
AcDbEntity
  8
AM_0
100
AcDbPoint
 10
1436.5789358069
 20
322.191411450277
 30
0.0
 50
360.0
  0
POINT
  5
1138F
330
1F
100
AcDbEntity
  8
AM_0
100
AcDbPoint
 10
1436.5789358069
 20
321.1654114502771
 30
0.0
 50
360.0
  0
POINT
  5
11390
330
1F
100
AcDbEntity
  8
AM_0
100
AcDbPoint
 10
1439.1439358069
 20
320.6524114502768
 30
0.0
 50
360.0
  0
POINT
  5
11391
330
1F
100
AcDbEntity
  8
AM_0
100
AcDbPoint
 10
1419.6499358069
 20
331.4254114502769
 30
0.0
 50
360.0
  0
POINT
  5
11392
330
1F
100
AcDbEntity
  8
AM_0
100
AcDbPoint
 10
1439.1439358069
 20
320.6524114502768
 30
0.0
 50
360.0
  0
POINT
  5
11393
330
1F
100
AcDbEntity
  8
AM_0
100
AcDbPoint
 10
1419.6499358069
 20
331.4254114502769
 30
0.0
 50
360.0
  0
LINE
  5
11394
330
1F
100
AcDbEntity
  8
AM_0
100
AcDbLine
 10
1364.259999999991
 20
320.6524114502772
 30
0.0
 11
1364.259999999991
 21
320.6524114502772
 31
0.0
  0
POINT
  5
11395
330
1F
100
AcDbEntity
  8
AM_0
100
AcDbPoint
 10
1419.6499358069
 20
331.4254114502769
 30
0.0
 50
360.0
  0
POINT
  5
11396
330
1F
100
AcDbEntity
  8
AM_0
100
AcDbPoint
 10
1439.1439358069
 20
320.6524114502768
 30
0.0
 50
360.0
  0
ARC
  5
11397
330
1F
100
AcDbEntity
  8
AM_0
100
AcDbCircle
 10
1416.090096880754
 20
381.1864114502768
 30
0.0
 40
1.026
100
AcDbArc
 50
90.0
 51
177.3581029687196
  0
ARC
  5
11398
330
1F
100
AcDbEntity
  8
AM_0
100
AcDbCircle
 10
1416.113964044293
 20
333.477411450277
 30
0.0
 40
1.026
100
AcDbArc
 50
182.699223222351
 51
270.0
  0
POINT
  5
11399
330
1F
100
AcDbEntity
  8
AM_0
100
AcDbPoint
 10
1439.1439358069
 20
320.6524114502768
 30
0.0
 50
360.0
  0
DIMENSION
  5
1139D
102
{ACAD_XDICTIONARY
360
1139E
102
}
102
{ACAD_REACTORS
330
1139F
102
}
330
1F
100
AcDbEntity
  8
AM_5
100
AcDbDimension
  2
*D8
 10
1233.99999999999
 20
280.652410440277
 30
0.0
 11
1205.99999999999
 21
291.052410440277
 31
0.0
 70
    32
 71
     5
 42
56.0
  3
SYS$0
100
AcDbAlignedDimension
 13
1177.99999999999
 23
348.6524114502767
 33
0.0
 14
1233.99999999999
 24
348.6524114502767
 34
0.0
100
AcDbRotatedDimension
1001
ACAD
1000
DSTYLE
1002
{
1070
    40
1040
4.0
1070
   271
1070
     1
1002
}
  0
DIMENSION
  5
113A0
102
{ACAD_XDICTIONARY
360
113A1
102
}
102
{ACAD_REACTORS
330
113A2
102
}
330
1F
100
AcDbEntity
  8
AM_5
100
AcDbDimension
  2
*D9
 10
1145.99999999999
 20
406.6524114502768
 30
0.0
 11
1135.59999999999
 21
363.652411450277
 31
0.0
 70
    32
 71
     5
 42
86.0
  3
SYS$0
100
AcDbAlignedDimension
 13
1205.99999999999
 23
320.6524114502768
 33
0.0
 14
1205.99999999999
 24
406.6524114502767
 34
0.0
 50
90.0
100
AcDbRotatedDimension
1001
ACAD
1000
DSTYLE
1002
{
1070
    40
1040
4.0
1070
   271
1070
     1
1002
}
  0
DIMENSION
  5
113A3
102
{ACAD_XDICTIONARY
360
113A4
102
}
102
{ACAD_REACTORS
330
113A5
102
}
330
1F
100
AcDbEntity
  8
AM_5
100
AcDbDimension
  2
*D10
 10
1479.1439358069
 20
392.4724114502769
 30
0.0
 11
1468.7439358069
 21
356.5624114502771
 31
0.0
 70
    32
  1
70
 71
     5
 42
71.82000000000016
  3
SYS$0
100
AcDbAlignedDimension
 13
1439.1439358069
 23
320.6524114502768
 33
0.0
 14
1439.1439358069
 24
392.4724114502769
 34
0.0
 50
90.0
100
AcDbRotatedDimension
1001
ACAD
1000
DSTYLE
1002
{
1070
    40
1040
4.0
1070
   271
1070
     1
1002
}
  0
DIMENSION
  5
113A6
102
{ACAD_XDICTIONARY
360
113A7
102
}
102
{ACAD_REACTORS
330
113A8
102
}
330
1F
100
AcDbEntity
  8
AM_5
100
AcDbDimension
  2
*D11
 10
1435.039935806899
 20
280.6524114502772
 30
0.0
 11
1453.653269140233
 21
291.0524114502772
 31
0.0
 70
    32
  1
15
 71
     5
 42
15.38999999999919
  3
SYS$0
100
AcDbAlignedDimension
 13
1419.6499358069
 23
331.4254114502769
 33
0.0
 14
1435.039935806899
 24
323.2174114502768
 34
0.0
100
AcDbRotatedDimension
1001
ACAD
1000
DSTYLE
1002
{
1070
    40
1040
4.0
1070
   271
1070
     1
1002
}
  0
DIMENSION
  5
113AB
330
1F
100
AcDbEntity
  8
AM_5
100
AcDbDimension
  2
*D12
 10
1353.99999999999
 20
280.6524114502772
 30
0.0
 11
1338.746666666657
 21
291.0524114502772
 31
0.0
 70
    32
  1
20
 71
     5
 42
20.51999999999953
  3
SYS$0
100
AcDbAlignedDimension
 13
1374.51999999999
 23
330.912411450277
 33
0.0
 14
1353.99999999999
 24
330.912411450277
 34
0.0
100
AcDbRotatedDimension
1001
ACAD
1000
DSTYLE
1002
{
1070
    40
1040
4.0
1070
   271
1070
     1
1002
}
  0
LWPOLYLINE
  5
114E3
330
1F
100
AcDbEntity
  8
AM_0
100
AcDbPolyline
 90
        4
 70
     1
 43
0.0
 10
1164.464414208801
 20
240.6524114502772
 10
1244.464414208801
 20
240.6524114502772
 10
1244.464414208801
 20
208.6524114502772
 10
1164.464414208801
 20
208.6524114502772
1001
GENIUS_GENREC_14
1002
{
1000
PYDIR
1011
1164.464414208801
1021
208.6524114502772
1031
0.0
1002
}
1002
{
1000
PXDIR
1011
1244.464414208801
1021
240.6524114502772
1031
0.0
1002
}
1002
{
1000
PORI
1011
1164.464414208801
1021
240.6524114502772
1031
0.0
1002
}
1002
{
1000
PINS
1011
1164.464414208801
1021
240.6524114502772
1031
0.0
1002
}
1002
{
1000
PINS2
1011
1244.464414208801
1021
208.6524114502772
1031
0.0
1002
}
1002
{
1000
C
1070
     1
1002
}
1001
GENIUS_GENOBJ-N-REC_13
1002
{
1000
OWNER
1000
GEN
1002
}
1001
GENIUS_GENODEF_13
1002
{
1000
HIER
1070
     0
1002
}
1002
{
1000
MANEDIT
1070
     0
1002
}
1002
{
1000
NOSEL
1070
     0
1002
}
1002
{
1000
BEHIND
1070
     0
1002
}
1002
{
1000
OTHER
1070
     0
1002
}
1002
{
1000
REACTOR
1002
}
  0
MTEXT
  5
114E4
330
1F
100
AcDbEntity
  8
AM_6
100
AcDbMText
 10
1204.464414208801
 20
224.6524114502772
 30
0.0
 40
12.8
 41
80.0
 71
     5
 72
     5
  1
S 字フック
 73
     1
 44
1.0
1001
ACAD
1000
MTEXTBEGIN
1070
    73
1070
     1
1070
    44
1040
1.0
1070
    74
1070
     0
1000
MTEXTEND
  0
LWPOLYLINE
  5
114E5
330
1F
100
AcDbEntity
  8
AM_0
100
AcDbPolyline
 90
        4
 70
     1
 43
0.0
 10
1356.571967903445
 20
240.6524114502772
 10
1436.571967903445
 20
240.6524114502772
 10
1436.571967903445
 20
208.6524114502772
 10
1356.571967903445
 20
208.6524114502772
1001
GENIUS_GENREC_14
1002
{
1000
PYDIR
1011
1356.571967903445
1021
208.6524114502772
1031
0.0
1002
}
1002
{
1000
PXDIR
1011
1436.571967903445
1021
240.6524114502772
1031
0.0
1002
}
1002
{
1000
PORI
1011
1356.571967903445
1021
240.6524114502772
1031
0.0
1002
}
1002
{
1000
PINS
1011
1356.571967903445
1021
240.6524114502772
1031
0.0
1002
}
1002
{
1000
PINS2
1011
1436.571967903445
1021
208.6524114502772
1031
0.0
1002
}
1002
{
1000
C
1070
     1
1002
}
1001
GENIUS_GENOBJ-N-REC_13
1002
{
1000
OWNER
1000
GEN
1002
}
1001
GENIUS_GENODEF_13
1002
{
1000
HIER
1070
     0
1002
}
1002
{
1000
MANEDIT
1070
     0
1002
}
1002
{
1000
NOSEL
1070
     0
1002
}
1002
{
1000
BEHIND
1070
     0
1002
}
1002
{
1000
OTHER
1070
     0
1002
}
1002
{
1000
REACTOR
1002
}
  0
MTEXT
  5
114E6
330
1F
100
AcDbEntity
  8
AM_6
100
AcDbMText
 10
1396.571967903445
 20
224.6524114502772
 30
0.0
 40
12.8
 41
80.0
 71
     5
 72
     5
  1
壁掛けフック
 73
     1
 44
1.0
1001
ACAD
1000
MTEXTBEGIN
1070
    73
1070
     1
1070
    44
1040
1.0
1070
    74
1070
     0
1000
MTEXTEND
  0
HATCH
  5
116DA
330
1F
100
AcDbEntity
  8
AM_8
100
AcDbHatch
 10
0.0
 20
0.0
 30
0.0
210
0.0
220
0.0
230
1.0
  2
ANSI34
 70
     0
 71
     0
 91
        1
 92
        1
 93
        4
 72
     1
 10
642.8262022203815
 20
911.6524077792828
 11
440.478606925844
 21
911.6524077792828
 72
     1
 10
440.478606925844
 20
911.6524077792828
 11
440.478606925844
 21
895.6524077792828
 72
     1
 10
440.478606925844
 20
895.6524077792828
 11
642.8262022203815
 21
895.6524077792828
 72
     1
 10
642.8262022203815
 20
895.6524077792828
 11
642.8262022203815
 21
911.6524077792828
 97
        0
 75
     0
 76
     1
 52
0.0
 41
2.0
 77
     0
 78
     4
 53
45.0
 43
2.839556068709725
 44
2835.941761708154
 45
-26.94076836320746
 46
26.94076836320747
 79
     0
 53
45.0
 43
11.81981606870972
 44
2835.941761708154
 45
-26.94076836320746
 46
26.94076836320747
 79
     0
 53
45.0
 43
20.80007606870973
 44
2835.941761708154
 45
-26.94076836320746
 46
26.94076836320747
 79
     0
 53
45.0
 43
29.78035606870973
 44
2835.941761708154
 45
-26.94076836320746
 46
26.94076836320747
 79
     0
 98
        1
 10
268.1523769494199
 20
2694.649434909032
1001
GENIUS_GENODEF_13
1002
{
1000
HIER
1070
     0
1002
}
1002
{
1000
MANEDIT
1070
     0
1002
}
1002
{
1000
NOSEL
1070
     0
1002
}
1002
{
1000
BEHIND
1070
     0
1002
}
1002
{
1000
OTHER
1070
     0
1002
}
1002
{
1000
REACTOR
1002
}
1001
GENIUS_GENOBJ-N-HTC_13
1002
{
1000
OWNER
1000
GEN
1002
}
1001
GENIUS_GENHATCH_13
1002
{
1000
DATA
1040
0.0
1042
1.0
1000
ANSI34
1070
     0
1011
606.9767991771625
1021
902.4529228665723
1031
0.0
1002
}
1002
{
1000
UCS
1010
0.0
1020
0.0
1030
0.0
1010
1.0
1020
0.0
1030
0.0
1010
0.0
1020
1.0
1030
0.0
1002
}
  0
DIMENSION
  5
1175E
330
1F
100
AcDbEntity
  8
AM_5
100
AcDbDimension
  2
*D13
 10
823.5832763424379
 20
289.0756844138004
 30
0.0
 11
908.4804641864437
 21
240.6524114502771
 31
0.0
 70
   163
 71
     5
 42
39.99999999999977
  3
SYS$3
100
AcDbDiametricDimension
 15
856.4167248241814
 25
266.229138486753
 35
0.0
 40
0.0
1001
ACAD
1000
DSTYLE
1002
{
1070
   147
1040
4.0
1070
    41
1040
4.0
1070
   140
1040
12.8
1070
   172
1070
     1
1070
   173
1070
     1
1070
   342
1005
0
1070
   343
1005
6C4
1070
   344
1005
6C4
1002
}
  0
DIMENSION
  5
117C2
330
1F
100
AcDbEntity
  8
AM_5
100
AcDbDimension
  2
*D14
 10
868.0000005833097
 20
200.6524104402761
 30
0.0
 11
840.0000005833097
 21
211.0524104402761
 31
0.0
 70
    32
  1
56
 71
     5
 42
56.0
  3
SYS$0
100
AcDbAlignedDimension
 13
812.0000005833098
 23
277.6524114502763
 33
0.0
 14
868.0000005833097
 24
277.6524114502763
 34
0.0
100
AcDbRotatedDimension
1001
ACAD
1000
DSTYLE
1002
{
1070
    40
1040
4.0
1070
   271
1070
     1
1002
}
  0
ARC
  5
11893
330
1F
100
AcDbEntity
  8
AM_0
100
AcDbCircle
 10
563.9142190607632
 20
873.2608105806775
 30
0.0
 40
2.0
100
AcDbArc
 50
352.203766424106
 51
2.624980301594954
  0
ARC
  5
11894
330
1F
100
AcDbEntity
  8
AM_0
100
AcDbCircle
 10
575.2253359316234
 20
873.2608105806775
 30
0.0
 40
2.0
100
AcDbArc
 50
177.375019698405
 51
187.796233575894
  0
LINE
  5
118A5
102
{ACAD_REACTORS
330
118F7
102
}
330
1F
100
AcDbEntity
  8
AM_7
 48
2.0
100
AcDbLine
 10
786.8262022203816
 20
857.4197136912566
 30
0.0
 11
893.1737975149191
 21
931.8851015869677
 31
0.0
  0
DIMENSION
  5
118AF
102
{ACAD_XDICTIONARY
360
118C0
102
}
102
{ACAD_REACTORS
330
118C1
102
}
330
1F
100
AcDbEntity
  8
AM_5
100
AcDbDimension
  2
*D15
 10
893.1737975149191
 20
857.4197137839304
 30
0.0
 11
919.0110772659297
 21
869.7403107108712
 31
0.0
 70
    34
 71
     5
 42
0.6108652381980156
  3
SYS$2
100
AcDb2LineAngularDimension
 13
786.8262022203816
 23
894.6524077150247
 33
0.0
 14
893.1737975149191
 24
894.6524077150252
 34
0.0
 15
786.8262022203816
 25
931.8851016796404
 35
0.0
 16
925.6194426047239
 26
857.7197852265765
 36
0.0
1001
ACAD
1000
DSTYLE
1002
{
1070
    40
1040
4.0
1070
   271
1070
     1
1002
}
  0
DIMENSION
  5
118E5
102
{ACAD_XDICTIONARY
360
118F6
102
}
102
{ACAD_REACTORS
330
118F7
102
}
330
1F
100
AcDbEntity
  8
AM_5
100
AcDbDimension
  2
*D16
 10
893.1737975149191
 20
931.8851015869677
 30
0.0
 11
-591.1750623586938
 21
1162.914197638833
 31
0.0
 70
    34
  1
 
 71
     5
 42
0.6108652381980136
  3
SYS$2
100
AcDb2LineAngularDimension
 13
786.8262022203816
 23
894.6524077150247
 33
0.0
 14
893.1737975149191
 24
894.6524077150252
 34
0.0
 15
786.8262022203816
 25
857.4197136912566
 35
0.0
 16
931.3212127803661
 26
913.508721386985
 36
0.0
1001
ACAD
1000
DSTYLE
1002
{
1070
    40
1040
4.0
1070
   271
1070
     1
1002
}
  0
LINE
  5
11A4C
330
1F
100
AcDbEntity
  8
AM_0
100
AcDbLine
 10
845.4173727907299
 20
809.653192527638
 30
0.0
 11
843.5914177065614
 21
822.9895096929904
 31
0.0
  0
LINE
  5
11A4D
330
1F
100
AcDbEntity
  8
AM_0
100
AcDbLine
 10
836.243327874893
 20
822.9895096929904
 30
0.0
 11
834.41737279073
 21
809.6531925276371
 31
0.0
  0
ARC
  5
11A4E
330
1F
100
AcDbEntity
  8
AM_0
100
AcDbCircle
 10
849.2430924482022
 20
831.1235260860289
 30
0.0
 40
4.190612233125642
100
AcDbArc
 50
140.3536614816946
 51
218.6115062229168
  0
ARC
  5
11A4F
330
1F
100
AcDbEntity
  8
AM_0
100
AcDbCircle
 10
850.1673727907299
 20
831.1878465035952
 30
0.0
 40
2.0
100
AcDbArc
 50
284.9999999999944
 51
0.0
  0
ARC
  5
11A50
330
1F
100
AcDbEntity
  8
AM_0
100
AcDbCircle
 10
829.6673727907299
 20
831.1878465035952
 30
0.0
 40
2.0
100
AcDbArc
 50
180.0
 51
255.0000000000055
  0
ARC
  5
11A51
330
1F
100
AcDbEntity
  8
AM_0
100
AcDbCircle
 10
830.5916531332631
 20
831.1235260860289
 30
0.0
 40
4.190612233125642
100
AcDbArc
 50
321.3884937770831
 51
39.64633851830535
  0
LINE
  5
11A52
330
1F
100
AcDbEntity
  8
AM_0
100
AcDbLine
 10
833.4868823368005
 20
828.0938596444221
 30
0.0
 11
829.1497347005215
 21
829.255994851017
 31
0.0
  0
ARC
  5
11A53
330
1F
100
AcDbEntity
  8
AM_0
100
AcDbCircle
 10
839.9173727907299
 20
830.8939396103378
 30
0.0
 40
7.5
100
AcDbArc
 50
200.6289495487748
 51
233.464414084338
  0
ARC
  5
11A54
330
1F
100
AcDbEntity
  8
AM_0
100
AcDbCircle
 10
834.2618143553016
 20
823.2608105806789
 30
0.0
 40
2.0
100
AcDbArc
 50
352.203766424106
 51
53.46441408433802
  0
ARC
  5
11A55
330
1F
100
AcDbEntity
  8
AM_0
100
AcDbCircle
 10
845.5729312261619
 20
823.2608105806789
 30
0.0
 40
2.0
100
AcDbArc
 50
126.535585915662
 51
187.796233575894
  0
LINE
  5
11A56
330
1F
100
AcDbEntity
  8
AM_0
100
AcDbLine
 10
842.9317537857413
 20
823.823016102829
 30
0.0
 11
836.9029917957202
 21
823.823016102829
 31
0.0
  0
LINE
  5
11A57
330
1F
100
AcDbEntity
  8
AM_0
100
AcDbLine
 10
846.3478632446612
 20
828.0938596444221
 30
0.0
 11
850.6850108809311
 21
829.255994851017
 31
0.0
  0
ARC
  5
11A58
330
1F
100
AcDbEntity
  8
AM_0
100
AcDbCircle
 10
839.9173727907299
 20
830.8939396103378
 30
0.0
 40
7.5
100
AcDbArc
 50
306.535585915662
 51
339.3710504512252
  0
LINE
  5
11A59
330
1F
100
AcDbEntity
  8
AM_0
100
AcDbLine
 10
833.4868823368005
 20
834.1531925276372
 30
0.0
 11
828.6673727907299
 21
834.1531925276372
 31
0.0
  0
ARC
  5
11A5A
330
1F
100
AcDbEntity
  8
AM_0
100
AcDbCircle
 10
839.9173727907299
 20
830.8939396103378
 30
0.0
 40
7.5
100
AcDbArc
 50
115.679288619405
 51
154.2422518418022
  0
LINE
  5
11A5B
330
1F
100
AcDbEntity
  8
AM_0
100
AcDbLine
 10
827.6673727907299
 20
833.1531925276372
 30
0.0
 11
827.6673727907299
 21
831.1878465035952
 31
0.0
  0
ARC
  5
11A5C
330
1F
100
AcDbEntity
  8
AM_0
100
AcDbCircle
 10
828.6673727907299
 20
833.1531925276372
 30
0.0
 40
1.0
100
AcDbArc
 50
90.0
 51
180.0
  0
ARC
  5
11A5D
330
1F
100
AcDbEntity
  8
AM_0
100
AcDbCircle
 10
851.1673727907298
 20
833.1531925276372
 30
0.0
 40
1.0
100
AcDbArc
 50
0.0
 51
90.0
  0
ARC
  5
11A5E
330
1F
100
AcDbEntity
  8
AM_0
100
AcDbCircle
 10
839.9173727907299
 20
830.8939396103378
 30
0.0
 40
7.5
100
AcDbArc
 50
25.75774815819782
 51
64.32071138059495
  0
LINE
  5
11A5F
330
1F
100
AcDbEntity
  8
AM_0
100
AcDbLine
 10
846.3478632446612
 20
834.1531925276372
 30
0.0
 11
851.1673727907298
 21
834.1531925276372
 31
0.0
  0
LINE
  5
11A60
330
1F
100
AcDbEntity
  8
AM_0
100
AcDbLine
 10
843.1673727907298
 20
837.6531925276372
 30
0.0
 11
836.6673727907299
 21
837.6531925276372
 31
0.0
  0
LINE
  5
11A61
330
1F
100
AcDbEntity
  8
AM_0
100
AcDbLine
 10
852.1673727907298
 20
833.1531925276372
 30
0.0
 11
852.1673727907298
 21
831.1878465035952
 31
0.0
  0
DIMENSION
  5
11AB5
102
{ACAD_XDICTIONARY
360
11AC2
102
}
102
{ACAD_REACTORS
330
11AC3
102
}
330
1F
100
AcDbEntity
  8
AM_5
100
AcDbDimension
  2
*D17
 10
862.4999999999994
 20
1082.0
 30
0.0
 11
840.0000000000002
 21
1092.4
 31
0.0
 70
    32
 71
     5
 42
44.99999999999829
  3
SYS$0
100
AcDbAlignedDimension
 13
817.5000000000011
 23
1023.951203889643
 33
0.0
 14
862.4999999999994
 24
1023.951203889642
 34
0.0
100
AcDbRotatedDimension
1001
ACAD
1000
DSTYLE
1002
{
1070
    40
1040
4.0
1002
}
  0
DIMENSION
  5
11AD6
102
{ACAD_XDICTIONARY
360
11AE3
102
}
102
{ACAD_REACTORS
330
11AE4
102
}
330
1F
100
AcDbEntity
  8
AM_5
100
AcDbDimension
  2
*D18
 10
873.1737975188975
 20
927.6524077792826
 30
0.0
 11
839.9999998672111
 21
938.0524077792825
 31
0.0
 70
    32
  1
%%c66.4
 71
     5
 42
66.3475953033726
  3
SYS$0
100
AcDbAlignedDimension
 13
806.8262022155249
 23
894.6524077317842
 33
0.0
 14
873.1737975188975
 24
894.6524077150252
 34
0.0
100
AcDbRotatedDimension
1001
ACAD
1000
DSTYLE
1002
{
1070
    40
1040
4.0
1002
}
  0
LINE
  5
11B3A
330
1F
100
AcDbEntity
  8
AM_5
100
AcDbLine
 10
1353.999999999977
 20
738.0
 30
0.0
 11
1633.999999999979
 21
738.0
 31
0.0
  0
LINE
  5
11B3B
330
1F
100
AcDbEntity
  8
AM_0
100
AcDbLine
 10
1273.99999999998
 20
706.0
 30
0.0
 11
1633.999999999976
 21
706.0
 31
0.0
  0
MTEXT
  5
11B3C
330
1F
100
AcDbEntity
  8
AM_6
100
AcDbMText
 10
1353.999999999989
 20
722.0000000000018
 30
0.0
 40
12.8
 41
279.9999999999994
 71
     4
 72
     5
  1
　耐荷重：8kg
 73
     1
 44
1.0
1001
ACAD
1000
MTEXTBEGIN
1070
    73
1070
     1
1070
    44
1040
1.0
1070
    74
1070
     0
1000
MTEXTEND
1000
ACAD_MTEXT_DEFINED_HEIGHT_BEGIN
1070
    46
1040
3.200000000000756
1000
ACAD_MTEXT_DEFINED_HEIGHT_END
  0
ENDSEC
  0
SECTION
  2
OBJECTS
  0
DICTIONARY
  5
C
330
0
100
AcDbDictionary
281
     1
  3
ACAD_COLOR
350
C45B
  3
ACAD_GROUP
350
D
  3
ACAD_LAYOUT
350
1A
  3
ACAD_MATERIAL
350
C446
  3
ACAD_MLINESTYLE
350
17
  3
ACAD_PLOTSETTINGS
350
19
  3
ACAD_PLOTSTYLENAME
350
E
  3
ACAD_TABLESTYLE
350
C45C
  3
ACAD_VISUALSTYLE
350
C44A
  3
AcAsAppObject
350
3DA1
  3
ACASGREF_MASTER
350
3DE9
  3
AcDbVariableDictionary
350
34
  3
AcmDictionary
350
47
  3
AD_GREF_MODULE
350
3DEA
  3
AD_MAPI_MODULE
350
3E06
  3
AMG
350
2B
  3
AMGSNAPSETTINGS
350
7D
  3
ASE_INDEX_DICTIONARY
350
ECD6
  3
DWGPROPS
350
11D80
  3
MAPISURF_MODULE
350
3DEB
  0
DICTIONARY
  5
3F95
330
2
100
AcDbDictionary
280
     1
281
     1
  3
ACAD_LAYERFILTERS
360
CB0C
  3
ACAD_LAYERSTATES
360
3F96
  3
ACLYDICTIONARY
360
CB0B
  3
AMLAYER_GROUPCOLORS
360
CB2F
  0
DICTIONARY
  5
8A
330
1F
100
AcDbDictionary
280
     1
281
     1
  3
ACAD_SORTENTS
360
103E8
  0
DICTIONARY
  5
1127F
330
1127E
100
AcDbDictionary
280
     1
281
     1
  3
ACAD_DIMASSOC
360
11280
  0
DICTIONARY
  5
1139E
330
1139D
100
AcDbDictionary
280
     1
281
     1
  3
ACAD_DIMASSOC
360
1139F
  0
DICTIONARY
  5
113A1
330
113A0
100
AcDbDictionary
280
     1
281
     1
  3
ACAD_DIMASSOC
360
113A2
  0
DICTIONARY
  5
113A4
330
113A3
100
AcDbDictionary
280
     1
281
     1
  3
ACAD_DIMASSOC
360
113A5
  0
DICTIONARY
  5
113A7
330
113A6
100
AcDbDictionary
280
     1
281
     1
  3
ACAD_DIMASSOC
360
113A8
  0
DICTIONARY
  5
118C0
330
118AF
100
AcDbDictionary
280
     1
281
     1
  3
ACAD_DIMASSOC
360
118C1
  0
DICTIONARY
  5
118F6
330
118E5
100
AcDbDictionary
280
     1
281
     1
  3
ACAD_DIMASSOC
360
118F7
  0
DICTIONARY
  5
11AC2
330
11AB5
100
AcDbDictionary
280
     1
281
     1
  3
ACAD_DIMASSOC
360
11AC3
  0
DICTIONARY
  5
11AE3
330
11AD6
100
AcDbDictionary
280
     1
281
     1
  3
ACAD_DIMASSOC
360
11AE4
  0
DICTIONARY
  5
C45B
102
{ACAD_REACTORS
330
C
102
}
330
C
100
AcDbDictionary
281
     1
  0
DICTIONARY
  5
D
102
{ACAD_REACTORS
330
C
102
}
330
C
100
AcDbDictionary
281
     1
  0
DICTIONARY
  5
1A
102
{ACAD_REACTORS
330
C
102
}
330
C
100
AcDbDictionary
281
     1
  3
Model
350
22
  3
ﾚｲｱｳﾄ1
350
1E
  3
ﾚｲｱｳﾄ2
350
26
  0
DICTIONARY
  5
C446
102
{ACAD_REACTORS
330
C
102
}
330
C
100
AcDbDictionary
281
     1
  3
ByBlock
350
C448
  3
ByLayer
350
C447
  3
Global
350
C449
  0
DICTIONARY
  5
17
102
{ACAD_REACTORS
330
C
102
}
330
C
100
AcDbDictionary
281
     1
  3
Standard
350
18
  0
DICTIONARY
  5
19
102
{ACAD_REACTORS
330
C
102
}
330
C
100
AcDbDictionary
281
     1
  3
-00
350
C85D
  0
ACDBDICTIONARYWDFLT
  5
E
102
{ACAD_REACTORS
330
C
102
}
330
C
100
AcDbDictionary
281
     1
  3
Normal
350
F
100
AcDbDictionaryWithDefault
340
F
  0
DICTIONARY
  5
C45C
102
{ACAD_REACTORS
330
C
102
}
330
C
100
AcDbDictionary
281
     1
  3
Standard
350
C45D
  0
DICTIONARY
  5
C44A
102
{ACAD_REACTORS
330
C
102
}
330
C
100
AcDbDictionary
281
     1
  3
2dWireframe
350
C450
  3
3D Hidden
350
C452
  3
3dWireframe
350
C451
  3
Basic
350
C44F
  3
Brighten
350
C456
  3
ColorChange
350
C45A
  3
Conceptual
350
C453
  3
Dim
350
C455
  3
Facepattern
350
C459
  3
Flat
350
C44B
  3
FlatWithEdges
350
C44C
  3
Gouraud
350
C44D
  3
GouraudWithEdges
350
C44E
  3
Linepattern
350
C458
  3
Realistic
350
C454
  3
Thicken
350
C457
  0
ACAD_PROXY_OBJECT
  5
3DA1
102
{ACAD_REACTORS
330
C
102
}
330
C
100
AcDbProxyObject
 90
      499
 91
      576
 95
   720919
 70
     0
 93
       10
310
407F
 94
        0
1001
ACAD
1000
AcRTDxfName
1000
ASAPP
  0
ACAD_PROXY_OBJECT
  5
3DE9
102
{ACAD_REACTORS
330
C
102
}
330
C
100
AcDbProxyObject
 90
      499
 91
      581
 95
   720919
 70
     0
 93
       34
310
010000407F
 94
        0
1001
ACAD
1000
AcRTDxfName
1000
ACASGREFMASTER
  0
DICTIONARY
  5
34
102
{ACAD_REACTORS
330
C
102
}
330
C
100
AcDbDictionary
281
     1
  3
CTABLESTYLE
350
C4A2
  3
DIMASSOC
350
AC85
  3
INDEXCTL
350
35
  3
SORTENTS
350
194C
  0
DICTIONARY
  5
47
102
{ACAD_REACTORS
330
C
102
}
330
C
100
AcDbDictionary
281
     1
  3
AcmBOM
350
7E8
  3
AcmStdDictionary
350
4C
  3
AMDTSECTSYM_ARROWCOLOR
350
C487
  0
ACAD_PROXY_OBJECT
  5
3DEA
102
{ACAD_REACTORS
330
C
102
}
330
C
100
AcDbProxyObject
 90
      499
 91
      582
 95
   720919
 70
     0
 93
      114
310
00000043800000000000000000003F
 94
        0
1001
ACAD
1000
AcRTDxfName
1000
ACADGREFMODULE
  0
ACAD_PROXY_OBJECT
  5
3E06
102
{ACAD_REACTORS
330
C
102
}
330
C
100
AcDbProxyObject
 90
      499
 91
      594
 95
   720919
 70
     0
 93
       34
310
05000044FF
 94
        0
1001
ACAD
1000
AcRTDxfName
1000
MAPIADMODULE
  0
DICTIONARY
  5
2B
102
{ACAD_REACTORS
330
C
102
}
330
C
100
AcDbDictionary
281
     1
  0
DICTIONARY
  5
7D
102
{ACAD_REACTORS
330
C
102
}
330
C
100
AcDbDictionary
281
     1
  0
DICTIONARY
  5
ECD6
102
{ACAD_REACTORS
330
C
102
}
330
C
100
AcDbDictionary
281
     1
  3
ASEBlockHierarchyIndexRecord
350
ECD7
1001
DCO15
1040
1767534411.125
  0
XRECORD
  5
11D80
102
{ACAD_REACTORS
330
C
102
}
330
C
100
AcDbXrecord
280
     1
  1
DWGPROPS COOKIE
  2

  3

  4

  6

  7

  8
shibutanishibutani
  9

300
AmdtFileType=84
301
=
302
=
303
=
304
=
305
=
306
=
307
=
308
=
309
=
 40
4.441448206018518
 41
2452002.615067627
 42
2456269.498519236
  1

 90
        1
  0
ACAD_PROXY_OBJECT
  5
3DEB
102
{ACAD_REACTORS
330
C
102
}
330
C
100
AcDbProxyObject
 90
      499
 91
      583
 95
   720919
 70
     0
 93
        8
310
047E
 94
        0
1001
ACAD
1000
AcRTDxfName
1000
AMDTMAPISURFMOUDULE
  0
DICTIONARY
  5
CB0C
102
{ACAD_REACTORS
330
3F95
102
}
330
3F95
100
AcDbDictionary
281
     1
  3
50
350
CB0E
  0
DICTIONARY
  5
3F96
102
{ACAD_REACTORS
330
3F95
102
}
330
3F95
100
AcDbDictionary
281
     1
  3
20011210
350
3FB7
  0
DICTIONARY
  5
CB0B
102
{ACAD_REACTORS
330
3F95
102
}
330
3F95
100
AcDbDictionary
281
     1
  3
*A1
350
CB0D
1001
ACAD
1000
<All
  0
DICTIONARY
  5
CB2F
102
{ACAD_REACTORS
330
3F95
102
}
330
3F95
100
AcDbDictionary
280
     1
281
     1
  0
SORTENTSTABLE
  5
103E8
102
{ACAD_REACTORS
330
8A
102
}
330
8A
100
AcDbSortentsTable
330
1F
331
11140
  5
11140
331
110BA
  5
110BA
331
11044
  5
11044
331
11083
  5
11083
331
110F9
  5
110F9
331
11148
  5
11148
331
110C2
  5
110C2
331
1104C
  5
1104C
331
1108B
  5
1108B
331
11101
  5
11101
331
11187
  5
11187
331
11150
  5
11150
331
110CA
  5
110CA
331
11093
  5
11093
331
11109
  5
11109
331
1118F
  5
1118F
331
11054
  5
11054
331
11158
  5
11158
331
11197
  5
11197
331
1105C
  5
1105C
331
110D2
  5
110D2
331
11199
  5
11199
331
111D8
  5
111D8
331
10FEC
  5
10FEC
331
11295
  5
11295
331
11353
  5
11353
331
11217
  5
11217
331
111E0
  5
111E0
331
11256
  5
11256
331
11392
  5
11392
331
10FF4
  5
10FF4
331
111A1
  5
111A1
331
1129D
  5
1129D
331
1125E
  5
1125E
331
11324
  5
11324
331
111E8
  5
111E8
331
10FFC
  5
10FFC
331
111A9
  5
111A9
331
1121F
  5
1121F
331
11363
  5
11363
331
1132C
  5
1132C
331
11266
  5
11266
331
111F0
  5
111F0
331
11004
  5
11004
331
111B1
  5
111B1
331
11227
  5
11227
331
112A5
  5
112A5
331
11334
  5
11334
331
1126E
  5
1126E
331
1122F
  5
1122F
331
112AD
  5
112AD
331
1136B
  5
1136B
331
11111
  5
11111
331
1109B
  5
1109B
331
11064
  5
11064
331
110DA
  5
110DA
331
11160
  5
11160
331
11025
  5
11025
331
11119
  5
11119
331
110E2
  5
110E2
331
11168
  5
11168
331
1106C
  5
1106C
331
1102D
  5
1102D
331
110A3
  5
110A3
331
11170
  5
11170
331
110EA
  5
110EA
331
11074
  5
11074
331
11035
  5
11035
331
110AB
  5
110AB
331
11121
  5
11121
331
110F2
  5
110F2
331
11178
  5
11178
331
1107C
  5
1107C
331
1103D
  5
1103D
331
110B3
  5
110B3
331
1100C
  5
1100C
331
111B9
  5
111B9
331
111F8
  5
111F8
331
1133C
  5
1133C
331
11373
  5
11373
331
11237
  5
11237
331
11014
  5
11014
331
111C1
  5
111C1
331
11200
  5
11200
331
11276
  5
11276
331
1137B
  5
1137B
331
1123F
  5
1123F
331
1101C
  5
1101C
331
111C9
  5
111C9
331
11208
  5
11208
331
1127E
  5
1127E
331
11344
  5
11344
331
114E5
  5
114E5
331
111D1
  5
111D1
331
11247
  5
11247
331
11383
  5
11383
331
1124F
  5
1124F
331
1138B
  5
1138B
331
11180
  5
11180
331
11141
  5
11141
331
110BB
  5
110BB
331
11045
  5
11045
331
11084
  5
11084
331
110FA
  5
110FA
331
11149
  5
11149
331
110C3
  5
110C3
331
1104D
  5
1104D
331
1108C
  5
1108C
331
11102
  5
11102
331
11188
  5
11188
331
11151
  5
11151
331
110CB
  5
110CB
331
11055
  5
11055
331
11094
  5
11094
331
1110A
  5
1110A
331
11190
  5
11190
331
110D3
  5
110D3
331
11159
  5
11159
331
1105D
  5
1105D
331
11210
  5
11210
331
10FED
  5
10FED
331
1119A
  5
1119A
331
111D9
  5
111D9
331
11296
  5
11296
331
11354
  5
11354
331
11218
  5
11218
331
111A2
  5
111A2
331
111E1
  5
111E1
331
11257
  5
11257
331
11393
  5
11393
331
10FF5
  5
10FF5
331
1135C
  5
1135C
331
1129E
  5
1129E
331
11220
  5
11220
331
111E9
  5
111E9
331
1125F
  5
1125F
331
11325
  5
11325
331
10FFD
  5
10FFD
331
111AA
  5
111AA
331
11364
  5
11364
331
112A6
  5
112A6
331
11267
  5
11267
331
1132D
  5
1132D
331
113A3
  5
113A3
331
111F1
  5
111F1
331
11005
  5
11005
331
111B2
  5
111B2
331
11228
  5
11228
331
1136C
  5
1136C
331
11335
  5
11335
331
113AB
  5
113AB
331
1126F
  5
1126F
331
112AE
  5
112AE
331
11112
  5
11112
331
1109C
  5
1109C
331
11026
  5
11026
331
11065
  5
11065
331
110DB
  5
110DB
331
11161
  5
11161
331
1111A
  5
1111A
331
110A4
  5
110A4
331
1106D
  5
1106D
331
110E3
  5
110E3
331
11169
  5
11169
331
1102E
  5
1102E
331
11122
  5
11122
331
110EB
  5
110EB
331
11171
  5
11171
331
11075
  5
11075
331
11036
  5
11036
331
110AC
  5
110AC
331
110F3
  5
110F3
331
11179
  5
11179
331
1107D
  5
1107D
331
1103E
  5
1103E
331
110B4
  5
110B4
331
111F9
  5
111F9
331
111BA
  5
111BA
331
11230
  5
11230
331
11277
  5
11277
331
1133D
  5
1133D
331
11238
  5
11238
331
11374
  5
11374
331
11015
  5
11015
331
111C2
  5
111C2
331
11201
  5
11201
331
11345
  5
11345
331
11240
  5
11240
331
1137C
  5
1137C
331
1101D
  5
1101D
331
111CA
  5
111CA
331
11209
  5
11209
331
114E6
  5
114E6
331
11384
  5
11384
331
111D2
  5
111D2
331
11248
  5
11248
331
1134D
  5
1134D
331
1138C
  5
1138C
331
11181
  5
11181
331
110FB
  5
110FB
331
110BC
  5
110BC
331
11142
  5
11142
331
11046
  5
11046
331
11085
  5
11085
331
11189
  5
11189
331
1114A
  5
1114A
331
110C4
  5
110C4
331
1104E
  5
1104E
331
1108D
  5
1108D
331
11103
  5
11103
331
11152
  5
11152
331
110CC
  5
110CC
331
11056
  5
11056
331
11095
  5
11095
331
1110B
  5
1110B
331
11191
  5
11191
331
1105E
  5
1105E
331
110D4
  5
110D4
331
1115A
  5
1115A
331
11211
  5
11211
331
10FEE
  5
10FEE
331
1119B
  5
1119B
331
111DA
  5
111DA
331
11250
  5
11250
331
11394
  5
11394
331
11297
  5
11297
331
11355
  5
11355
331
11219
  5
11219
331
10FF6
  5
10FF6
331
111A3
  5
111A3
331
111E2
  5
111E2
331
11258
  5
11258
331
1135D
  5
1135D
331
1129F
  5
1129F
331
11221
  5
11221
331
111AB
  5
111AB
331
111EA
  5
111EA
331
11260
  5
11260
331
11326
  5
11326
331
10FFE
  5
10FFE
331
11365
  5
11365
331
112A7
  5
112A7
331
11229
  5
11229
331
111F2
  5
111F2
331
11268
  5
11268
331
1132E
  5
1132E
331
11006
  5
11006
331
1136D
  5
1136D
331
112AF
  5
112AF
331
11336
  5
11336
331
11113
  5
11113
331
1109D
  5
1109D
331
11027
  5
11027
331
11066
  5
11066
331
110DC
  5
110DC
331
11162
  5
11162
331
1111B
  5
1111B
331
110A5
  5
110A5
331
1102F
  5
1102F
331
1106E
  5
1106E
331
110E4
  5
110E4
331
1116A
  5
1116A
331
11123
  5
11123
331
110AD
  5
110AD
331
11076
  5
11076
331
110EC
  5
110EC
331
11172
  5
11172
331
11037
  5
11037
331
1113B
  5
1113B
331
110F4
  5
110F4
331
1117A
  5
1117A
331
1107E
  5
1107E
331
1103F
  5
1103F
331
110B5
  5
110B5
331
11270
  5
11270
331
111FA
  5
111FA
331
1100E
  5
1100E
331
111BB
  5
111BB
331
11231
  5
11231
331
1133E
  5
1133E
331
11202
  5
11202
331
11016
  5
11016
331
111C3
  5
111C3
331
11239
  5
11239
331
11375
  5
11375
331
11346
  5
11346
331
11241
  5
11241
331
1137D
  5
1137D
331
1101E
  5
1101E
331
111CB
  5
111CB
331
1120A
  5
1120A
331
1134E
  5
1134E
331
111D3
  5
111D3
331
11249
  5
11249
331
11385
  5
11385
331
1138D
  5
1138D
331
11182
  5
11182
331
110FC
  5
110FC
331
11086
  5
11086
331
11047
  5
11047
331
110BD
  5
110BD
331
11143
  5
11143
331
1118A
  5
1118A
331
11104
  5
11104
331
110C5
  5
110C5
331
1114B
  5
1114B
331
1104F
  5
1104F
331
1108E
  5
1108E
331
11192
  5
11192
331
11153
  5
11153
331
110CD
  5
110CD
331
11057
  5
11057
331
11096
  5
11096
331
1110C
  5
1110C
331
1105F
  5
1105F
331
110D5
  5
110D5
331
1115B
  5
1115B
331
11251
  5
11251
331
11212
  5
11212
331
11290
  5
11290
331
10FEF
  5
10FEF
331
1119C
  5
1119C
331
111DB
  5
111DB
331
11395
  5
11395
331
11298
  5
11298
331
11356
  5
11356
331
1121A
  5
1121A
331
10FF7
  5
10FF7
331
111A4
  5
111A4
331
111E3
  5
111E3
331
11259
  5
11259
331
1139D
  5
1139D
331
1135E
  5
1135E
331
112A0
  5
112A0
331
11222
  5
11222
331
10FFF
  5
10FFF
331
111AC
  5
111AC
331
111EB
  5
111EB
331
11261
  5
11261
331
11327
  5
11327
331
11366
  5
11366
331
112A8
  5
112A8
331
1122A
  5
1122A
331
111B4
  5
111B4
331
111F3
  5
111F3
331
11269
  5
11269
331
1132F
  5
1132F
331
11007
  5
11007
331
1136E
  5
1136E
331
11337
  5
11337
331
11020
  5
11020
331
11163
  5
11163
331
11114
  5
11114
331
1109E
  5
1109E
331
11028
  5
11028
331
11067
  5
11067
331
110DD
  5
110DD
331
1111C
  5
1111C
331
110A6
  5
110A6
331
11030
  5
11030
331
1106F
  5
1106F
331
110E5
  5
110E5
331
1116B
  5
1116B
331
11124
  5
11124
331
110AE
  5
110AE
331
11038
  5
11038
331
11077
  5
11077
331
110ED
  5
110ED
331
11173
  5
11173
331
1113C
  5
1113C
331
110B6
  5
110B6
331
1107F
  5
1107F
331
110F5
  5
110F5
331
1117B
  5
1117B
331
11271
  5
11271
331
111FB
  5
111FB
331
1100F
  5
1100F
331
111BC
  5
111BC
331
11232
  5
11232
331
1133F
  5
1133F
331
11203
  5
11203
331
11017
  5
11017
331
111C4
  5
111C4
331
1123A
  5
1123A
331
11376
  5
11376
331
11281
  5
11281
331
11347
  5
11347
331
1120B
  5
1120B
331
1101F
  5
1101F
331
111CC
  5
111CC
331
11242
  5
11242
331
1137E
  5
1137E
331
1134F
  5
1134F
331
111D4
  5
111D4
331
1124A
  5
1124A
331
11386
  5
11386
331
1138E
  5
1138E
331
11040
  5
11040
331
11183
  5
11183
331
110FD
  5
110FD
331
11087
  5
11087
331
11048
  5
11048
331
110BE
  5
110BE
331
11144
  5
11144
331
1118B
  5
1118B
331
11105
  5
11105
331
1108F
  5
1108F
331
11050
  5
11050
331
110C6
  5
110C6
331
1114C
  5
1114C
331
11193
  5
11193
331
1110D
  5
1110D
331
110CE
  5
110CE
331
11154
  5
11154
331
11058
  5
11058
331
11097
  5
11097
331
110D6
  5
110D6
331
1115C
  5
1115C
331
11252
  5
11252
331
111DC
  5
111DC
331
10FF0
  5
10FF0
331
1119D
  5
1119D
331
11213
  5
11213
331
11291
  5
11291
331
11396
  5
11396
331
11320
  5
11320
331
1125A
  5
1125A
331
1121B
  5
1121B
331
11299
  5
11299
331
11357
  5
11357
331
10FF8
  5
10FF8
331
111A5
  5
111A5
331
111E4
  5
111E4
331
11328
  5
11328
331
112A1
  5
112A1
331
1135F
  5
1135F
331
11223
  5
11223
331
11000
  5
11000
331
111AD
  5
111AD
331
111EC
  5
111EC
331
11262
  5
11262
331
113A6
  5
113A6
331
11367
  5
11367
331
112A9
  5
112A9
331
1122B
  5
1122B
331
111B5
  5
111B5
331
111F4
  5
111F4
331
1126A
  5
1126A
331
11330
  5
11330
331
1136F
  5
1136F
331
11060
  5
11060
331
11021
  5
11021
331
11164
  5
11164
331
110DE
  5
110DE
331
1109F
  5
1109F
331
11115
  5
11115
331
11029
  5
11029
331
11068
  5
11068
331
1116C
  5
1116C
331
1111D
  5
1111D
331
110A7
  5
110A7
331
11031
  5
11031
331
11070
  5
11070
331
110E6
  5
110E6
331
110AF
  5
110AF
331
11039
  5
11039
331
11078
  5
11078
331
110EE
  5
110EE
331
11174
  5
11174
331
1113D
  5
1113D
331
110B7
  5
110B7
331
110F6
  5
110F6
331
1117C
  5
1117C
331
11008
  5
11008
331
11272
  5
11272
331
11338
  5
11338
331
111FC
  5
111FC
331
11010
  5
11010
331
111BD
  5
111BD
331
11233
  5
11233
331
11377
  5
11377
331
11340
  5
11340
331
11204
  5
11204
331
11018
  5
11018
331
111C5
  5
111C5
331
1123B
  5
1123B
331
11282
  5
11282
331
11348
  5
11348
331
1120C
  5
1120C
331
111CD
  5
111CD
331
11243
  5
11243
331
1137F
  5
1137F
331
111D5
  5
111D5
331
1124B
  5
1124B
331
11387
  5
11387
331
1138F
  5
1138F
331
11080
  5
11080
331
11041
  5
11041
331
11184
  5
11184
331
110FE
  5
110FE
331
11088
  5
11088
331
11049
  5
11049
331
110BF
  5
110BF
331
11145
  5
11145
331
1118C
  5
1118C
331
11106
  5
11106
331
11090
  5
11090
331
11051
  5
11051
331
110C7
  5
110C7
331
1114D
  5
1114D
331
11194
  5
11194
331
1110E
  5
1110E
331
11059
  5
11059
331
110CF
  5
110CF
331
11155
  5
11155
331
110D7
  5
110D7
331
1115D
  5
1115D
331
11253
  5
11253
331
111DD
  5
111DD
331
10FF1
  5
10FF1
331
1119E
  5
1119E
331
11214
  5
11214
331
11292
  5
11292
331
11350
  5
11350
331
11397
  5
11397
331
11321
  5
11321
331
1125B
  5
1125B
331
111E5
  5
111E5
331
10FF9
  5
10FF9
331
111A6
  5
111A6
331
1121C
  5
1121C
331
1129A
  5
1129A
331
11358
  5
11358
331
11329
  5
11329
331
11263
  5
11263
331
11224
  5
11224
331
112A2
  5
112A2
331
11360
  5
11360
331
11001
  5
11001
331
111AE
  5
111AE
331
111ED
  5
111ED
331
11331
  5
11331
331
112AA
  5
112AA
331
11368
  5
11368
331
1122C
  5
1122C
331
111B6
  5
111B6
331
111F5
  5
111F5
331
1126B
  5
1126B
331
11061
  5
11061
331
11022
  5
11022
331
11098
  5
11098
331
11165
  5
11165
331
110DF
  5
110DF
331
11069
  5
11069
331
1102A
  5
1102A
331
110A0
  5
110A0
331
11116
  5
11116
331
1116D
  5
1116D
331
110E7
  5
110E7
331
110A8
  5
110A8
331
1111E
  5
1111E
331
11032
  5
11032
331
11071
  5
11071
331
11175
  5
11175
331
110B0
  5
110B0
331
1103A
  5
1103A
331
11079
  5
11079
331
110EF
  5
110EF
331
1113E
  5
1113E
331
110F7
  5
110F7
331
1117D
  5
1117D
331
11009
  5
11009
331
11370
  5
11370
331
11234
  5
11234
331
111FD
  5
111FD
331
11273
  5
11273
331
11339
  5
11339
331
11011
  5
11011
331
111BE
  5
111BE
331
11378
  5
11378
331
11341
  5
11341
331
11205
  5
11205
331
11019
  5
11019
331
111C6
  5
111C6
331
1123C
  5
1123C
331
11380
  5
11380
331
11283
  5
11283
331
11349
  5
11349
331
1120D
  5
1120D
331
111CE
  5
111CE
331
11244
  5
11244
331
111D6
  5
111D6
331
1124C
  5
1124C
331
11388
  5
11388
331
110B8
  5
110B8
331
11081
  5
11081
331
11042
  5
11042
331
11146
  5
11146
331
110FF
  5
110FF
331
11185
  5
11185
331
11089
  5
11089
331
1104A
  5
1104A
331
110C0
  5
110C0
331
1118D
  5
1118D
331
11107
  5
11107
331
11091
  5
11091
331
11052
  5
11052
331
110C8
  5
110C8
331
1114E
  5
1114E
331
11195
  5
11195
331
1110F
  5
1110F
331
1105A
  5
1105A
331
110D0
  5
110D0
331
11156
  5
11156
331
1115E
  5
1115E
331
11351
  5
11351
331
11390
  5
11390
331
11254
  5
11254
331
111DE
  5
111DE
331
10FF2
  5
10FF2
331
1119F
  5
1119F
331
11215
  5
11215
331
11293
  5
11293
331
11398
  5
11398
331
11322
  5
11322
331
1125C
  5
1125C
331
111E6
  5
111E6
331
10FFA
  5
10FFA
331
111A7
  5
111A7
331
1121D
  5
1121D
331
1129B
  5
1129B
331
11359
  5
11359
331
113A0
  5
113A0
331
1132A
  5
1132A
331
11264
  5
11264
331
111EE
  5
111EE
331
11002
  5
11002
331
111AF
  5
111AF
331
11225
  5
11225
331
112A3
  5
112A3
331
11361
  5
11361
331
11332
  5
11332
331
1126C
  5
1126C
331
1122D
  5
1122D
331
112AB
  5
112AB
331
11369
  5
11369
331
111B7
  5
111B7
331
111F6
  5
111F6
331
110D8
  5
110D8
331
11062
  5
11062
331
11023
  5
11023
331
11099
  5
11099
331
11166
  5
11166
331
110E0
  5
110E0
331
1106A
  5
1106A
331
1102B
  5
1102B
331
110A1
  5
110A1
331
11117
  5
11117
331
1116E
  5
1116E
331
110E8
  5
110E8
331
11072
  5
11072
331
11033
  5
11033
331
110A9
  5
110A9
331
1111F
  5
1111F
331
110F0
  5
110F0
331
11176
  5
11176
331
110B1
  5
110B1
331
1103B
  5
1103B
331
1107A
  5
1107A
331
1117E
  5
1117E
331
1113F
  5
1113F
331
1100A
  5
1100A
331
11371
  5
11371
331
11235
  5
11235
331
111BF
  5
111BF
331
111FE
  5
111FE
331
11274
  5
11274
331
1133A
  5
1133A
331
11012
  5
11012
331
11379
  5
11379
331
1123D
  5
1123D
331
11206
  5
11206
331
11342
  5
11342
331
1101A
  5
1101A
331
111C7
  5
111C7
331
11381
  5
11381
331
1134A
  5
1134A
331
114E3
  5
114E3
331
1120E
  5
1120E
331
111CF
  5
111CF
331
11245
  5
11245
331
11389
  5
11389
331
111D7
  5
111D7
331
1124D
  5
1124D
331
110B9
  5
110B9
331
11043
  5
11043
331
11082
  5
11082
331
110F8
  5
110F8
331
11147
  5
11147
331
110C1
  5
110C1
331
1108A
  5
1108A
331
11100
  5
11100
331
11186
  5
11186
331
1104B
  5
1104B
331
1114F
  5
1114F
331
11108
  5
11108
331
1118E
  5
1118E
331
11092
  5
11092
331
11053
  5
11053
331
110C9
  5
110C9
331
11196
  5
11196
331
1105B
  5
1105B
331
110D1
  5
110D1
331
11157
  5
11157
331
1115F
  5
1115F
331
10FEB
  5
10FEB
331
11198
  5
11198
331
11294
  5
11294
331
11352
  5
11352
331
11255
  5
11255
331
11391
  5
11391
331
111DF
  5
111DF
331
10FF3
  5
10FF3
331
111A0
  5
111A0
331
11216
  5
11216
331
11323
  5
11323
331
11399
  5
11399
331
1125D
  5
1125D
331
111E7
  5
111E7
331
10FFB
  5
10FFB
331
111A8
  5
111A8
331
1121E
  5
1121E
331
1129C
  5
1129C
331
1132B
  5
1132B
331
11265
  5
11265
331
111EF
  5
111EF
331
11003
  5
11003
331
111B0
  5
111B0
331
11226
  5
11226
331
112A4
  5
112A4
331
11362
  5
11362
331
11333
  5
11333
331
1126D
  5
1126D
331
111F7
  5
111F7
331
1122E
  5
1122E
331
112AC
  5
112AC
331
1136A
  5
1136A
331
11110
  5
11110
331
110D9
  5
110D9
331
11063
  5
11063
331
11024
  5
11024
331
1109A
  5
1109A
331
11167
  5
11167
331
110E1
  5
110E1
331
1106B
  5
1106B
331
1102C
  5
1102C
331
110A2
  5
110A2
331
11118
  5
11118
331
110E9
  5
110E9
331
1116F
  5
1116F
331
11073
  5
11073
331
11034
  5
11034
331
110AA
  5
110AA
331
110F1
  5
110F1
331
11177
  5
11177
331
1107B
  5
1107B
331
1103C
  5
1103C
331
110B2
  5
110B2
331
1117F
  5
1117F
331
1100B
  5
1100B
331
111B8
  5
111B8
331
11372
  5
11372
331
11236
  5
11236
331
11013
  5
11013
331
111C0
  5
111C0
331
111FF
  5
111FF
331
11275
  5
11275
331
1133B
  5
1133B
331
1137A
  5
1137A
331
1123E
  5
1123E
331
111C8
  5
111C8
331
11207
  5
11207
331
11343
  5
11343
331
1101B
  5
1101B
331
11382
  5
11382
331
11246
  5
11246
331
1120F
  5
1120F
331
11285
  5
11285
331
1134B
  5
1134B
331
114E4
  5
114E4
331
111D0
  5
111D0
331
1138A
  5
1138A
331
1124E
  5
1124E
  0
DIMASSOC
  5
11280
102
{ACAD_REACTORS
330
1127F
102
}
330
1127F
100
AcDbDimAssoc
330
1127E
 90
        2
 70
     0
 71
     0
  1
AcDbOsnapPointRef
 72
    13
331
1126C
 73
     0
 91
        0
 40
0.0
 10
0.0
 20
0.0
 30
2.000000000000000E+50
 75
     0
  0
DIMASSOC
  5
1139F
102
{ACAD_REACTORS
330
1139E
102
}
330
1139E
100
AcDbDimAssoc
330
1139D
 90
        3
 70
     0
 71
     0
  1
AcDbOsnapPointRef
 72
     5
331
11354
 73
     0
 91
        0
 40
3.141592653589793
 10
0.0
 20
0.0
 30
0.0
 75
     0
  1
AcDbOsnapPointRef
 72
     5
331
11354
 73
     0
 91
        0
 40
6.283185307179586
 10
0.0
 20
0.0
 30
0.0
 75
     0
  0
DIMASSOC
  5
113A2
102
{ACAD_REACTORS
330
113A1
102
}
330
113A1
100
AcDbDimAssoc
330
113A0
 90
        3
 70
     0
 71
     0
  1
AcDbOsnapPointRef
 72
     5
331
11354
 73
     0
 91
        0
 40
4.712388980384689
 10
0.0
 20
0.0
 30
0.0
 75
     0
  1
AcDbOsnapPointRef
 72
     5
331
11356
 73
     0
 91
        0
 40
1.570796326794896
 10
0.0
 20
0.0
 30
0.0
 75
     0
  0
DIMASSOC
  5
113A5
102
{ACAD_REACTORS
330
113A4
102
}
330
113A4
100
AcDbDimAssoc
330
113A3
 90
        3
 70
     0
 71
     0
  1
AcDbOsnapPointRef
 72
     1
331
11362
 73
     0
 91
        0
 40
0.0
 10
0.0
 20
0.0
 30
2.000000000000000E+50
 75
     0
  1
AcDbOsnapPointRef
 72
    13
331
11362
 73
     0
 91
        0
 40
0.0
 10
0.0
 20
0.0
 30
2.000000000000000E+50
 75
     0
  0
DIMASSOC
  5
113A8
102
{ACAD_REACTORS
330
113A7
102
}
330
113A7
100
AcDbDimAssoc
330
113A6
 90
        1
 70
     0
 71
     0
  1
AcDbOsnapPointRef
 72
     1
331
1137E
 73
     0
 91
        0
 40
0.0
 10
0.0
 20
0.0
 30
2.000000000000000E+50
 75
     0
  0
DIMASSOC
  5
118C1
102
{ACAD_REACTORS
330
118C0
102
}
330
118C0
100
AcDbDimAssoc
330
118AF
 90
       15
 70
     0
 71
     0
  1
AcDbOsnapPointRef
 72
    13
331
11275
 73
     2
 91
        0
 40
0.0
 10
0.0
 20
0.0
 30
2.000000000000000E+50
 75
     0
  1
AcDbOsnapPointRef
 72
     1
331
11275
 73
     2
 91
        0
 40
0.0
 10
0.0
 20
0.0
 30
2.000000000000000E+50
 75
     0
  1
AcDbOsnapPointRef
 72
    13
331
11276
 73
     2
 91
        0
 40
0.0
 10
0.0
 20
0.0
 30
2.000000000000000E+50
 75
     0
  1
AcDbOsnapPointRef
 72
     1
331
11276
 73
     2
 91
        0
 40
0.0
 10
0.0
 20
0.0
 30
2.000000000000000E+50
 75
     0
  0
DIMASSOC
  5
118F7
102
{ACAD_REACTORS
330
118F6
102
}
330
118F6
100
AcDbDimAssoc
330
118E5
 90
       15
 70
     0
 71
     0
  1
AcDbOsnapPointRef
 72
    13
331
11275
 73
     2
 91
        0
 40
0.0
 10
0.0
 20
0.0
 30
2.000000000000000E+50
 75
     0
  1
AcDbOsnapPointRef
 72
     1
331
11275
 73
     2
 91
        0
 40
0.0
 10
0.0
 20
0.0
 30
2.000000000000000E+50
 75
     0
  1
AcDbOsnapPointRef
 72
    13
331
118A5
 73
     2
 91
        0
 40
0.0
 10
0.0
 20
0.0
 30
2.000000000000000E+50
 75
     0
  1
AcDbOsnapPointRef
 72
     1
331
118A5
 73
     2
 91
        0
 40
0.0
 10
0.0
 20
0.0
 30
2.000000000000000E+50
 75
     0
  0
DIMASSOC
  5
11AC3
102
{ACAD_REACTORS
330
11AC2
102
}
330
11AC2
100
AcDbDimAssoc
330
11AB5
 90
        3
 70
     0
 71
     0
  1
AcDbOsnapPointRef
 72
     1
331
11283
 73
     0
 91
        0
 40
0.0
 10
0.0
 20
0.0
 30
2.000000000000000E+50
 75
     0
  1
AcDbOsnapPointRef
 72
     8
331
11285
 73
     0
 91
        0
 40
0.9999999999999522
 10
0.0
 20
0.0
 30
0.0
 75
     1
  1
AcDbOsnapPointRef
 72
     1
331
11283
 73
     0
 91
        0
 40
0.0
 10
0.0
 20
0.0
 30
2.000000000000000E+50
 75
     0
  0
DIMASSOC
  5
11AE4
102
{ACAD_REACTORS
330
11AE3
102
}
330
11AE3
100
AcDbDimAssoc
330
11AD6
 90
        3
 70
     0
 71
     0
  1
AcDbOsnapPointRef
 72
    13
331
1126E
 73
     0
 91
        0
 40
0.0
 10
0.0
 20
0.0
 30
2.000000000000000E+50
 75
     0
  1
AcDbOsnapPointRef
 72
    11
331
11261
 73
     0
 91
        0
 40
0.9999999965992438
 10
0.0
 20
0.0
 30
0.0
332
11275
 74
     0
 92
        0
 75
     0
  0
LAYOUT
  5
22
102
{ACAD_XDICTIONARY
360
11D83
102
}
102
{ACAD_REACTORS
330
1A
102
}
330
1A
100
AcDbPlotSettings
  1

  2
Adobe PDF
  4
A4
  6

 40
3.174999952316284
 41
3.174999952316284
 42
3.175003051757812
 43
3.17498779296875
 44
209.9733276367187
 45
297.0318298339844
 46
0.0000000000000142
 47
1.364832920257498
 48
-2.839556068709782
 49
-2835.941761708154
140
1677.16044393129
141
-1647.941761708154
142
1.0
143
5.834302146589847
 70
  3764
 72
     1
 73
     1
 74
     4
  7
monochrome.ctb
 75
     0
147
0.1714001049096335
148
2.839556068709782
149
2835.941761708154
100
AcDbLayout
  1
Model
 70
     1
 71
     0
 10
0.0
 20
0.0
 11
12.0
 21
9.0
 12
0.0
 22
0.0
 32
0.0
 14
0.0
 24
0.0
 34
0.0
 15
0.0
 25
0.0
 35
0.0
146
0.0
 13
0.0
 23
0.0
 33
0.0
 16
1.0
 26
0.0
 36
0.0
 17
0.0
 27
1.0
 37
0.0
 76
     0
330
1F
331
C444
1001
ACAD_PSEXT
1000
Adobe PDF
1000
Adobe PDF Converter
1000
My Documents\*.pdf
1000

1070
     0
  0
LAYOUT
  5
1E
102
{ACAD_XDICTIONARY
360
11D81
102
}
102
{ACAD_REACTORS
330
1A
102
}
330
1A
100
AcDbPlotSettings
  1

  2
\\ML370\XEROX
  4
A4
  6

 40
3.174999952316284
 41
3.174999952316284
 42
3.175003051757812
 43
3.17498779296875
 44
209.8674926757813
 45
296.6719970703125
 46
0.0
 47
0.0
 48
0.0
 49
0.0
140
0.0
141
0.0
142
1.0
143
1.0
 70
   688
 72
     1
 73
     1
 74
     5
  7
monochrome.ctb
 75
    16
147
1.0
148
0.0
149
0.0
100
AcDbLayout
  1
ﾚｲｱｳﾄ1
 70
     1
 71
     1
 10
-3.17498779296875
 20
-3.174999952316284
 11
293.4970092773438
 21
206.692492723465
 12
0.0
 22
0.0
 32
0.0
 14
1.000000000000000E+20
 24
1.000000000000000E+20
 34
1.000000000000000E+20
 15
-1.000000000000000E+20
 25
-1.000000000000000E+20
 35
-1.000000000000000E+20
146
0.0
 13
0.0
 23
0.0
 33
0.0
 16
1.0
 26
0.0
 36
0.0
 17
0.0
 27
1.0
 37
0.0
 76
     0
330
1B
  0
LAYOUT
  5
26
102
{ACAD_XDICTIONARY
360
11D85
102
}
102
{ACAD_REACTORS
330
1A
102
}
330
1A
100
AcDbPlotSettings
  1

  2
\\ML370\XEROX
  4

  6

 40
0.0
 41
0.0
 42
0.0
 43
0.0
 44
0.0
 45
0.0
 46
0.0
 47
0.0
 48
0.0
 49
0.0
140
0.0
141
0.0
142
1.0
143
1.0
 70
   688
 72
     0
 73
     0
 74
     5
  7
monochrome.ctb
 75
    16
147
1.0
148
0.0
149
0.0
100
AcDbLayout
  1
ﾚｲｱｳﾄ2
 70
     1
 71
     2
 10
0.0
 20
0.0
 11
12.0
 21
9.0
 12
0.0
 22
0.0
 32
0.0
 14
0.0
 24
0.0
 34
0.0
 15
0.0
 25
0.0
 35
0.0
146
0.0
 13
0.0
 23
0.0
 33
0.0
 16
1.0
 26
0.0
 36
0.0
 17
0.0
 27
1.0
 37
0.0
 76
     0
330
23
  0
MATERIAL
  5
C448
102
{ACAD_XDICTIONARY
360
11D89
102
}
102
{ACAD_REACTORS
330
C446
102
}
330
C446
100
AcDbMaterial
  1
ByBlock
  0
MATERIAL
  5
C447
102
{ACAD_XDICTIONARY
360
11D87
102
}
102
{ACAD_REACTORS
330
C446
102
}
330
C446
100
AcDbMaterial
  1
ByLayer
  0
MATERIAL
  5
C449
102
{ACAD_XDICTIONARY
360
11D8B
102
}
102
{ACAD_REACTORS
330
C446
102
}
330
C446
100
AcDbMaterial
  1
Global
  0
MLINESTYLE
  5
18
102
{ACAD_REACTORS
330
17
102
}
330
17
100
AcDbMlineStyle
  2
STANDARD
 70
     0
  3

 62
   256
 51
90.0
 52
90.0
 71
     2
 49
0.5
 62
   256
  6
BYLAYER
 49
-0.5
 62
   256
  6
BYLAYER
  0
PLOTSETTINGS
  5
C85D
102
{ACAD_XDICTIONARY
360
11D8F
102
}
102
{ACAD_REACTORS
330
19
102
}
330
19
100
AcDbPlotSettings
  1
-00
  2
RICOH imagio Wide 7040e RP-GL/2
  4
A3
  6
AM_VIEW1
 40
5.069416522979736
 41
7.228392601013183
 42
5.23870849609375
 43
7.05908203125
 44
419.9889831542968
 45
296.9683227539062
 46
-5.159570932388305
 47
-7.159575939178466
 48
347.0000006405867
 49
-0.0000003719120514
140
767.0000006405866
141
296.9999996280879
142
1.0
143
1.0
 70
 11956
 72
     1
 73
     0
 74
     4
  7
monochrome.ctb
 75
    16
147
1.0
148
-347.0000006405867
149
0.0000003719120514
1001
ACAD_PSEXT
1000
RICOH imagio Wide 7040e RP-GL/2
1000
RICOH imagio Wide 7040e RP-GL/2
1000
\\ADMINISTRATOR
1000
RP-GL/2 Driver (Windows 2000/XP/Server 2003)
1070
     0
  0
ACDBPLACEHOLDER
  5
F
102
{ACAD_REACTORS
330
E
102
}
330
E
  0
TABLESTYLE
  5
C45D
102
{ACAD_XDICTIONARY
360
11D8D
102
}
102
{ACAD_REACTORS
330
C45C
102
}
330
C45C
100
AcDbTableStyle
  3
Standard
 70
     0
 71
     0
 40
1.5
 41
1.5
280
     0
281
     0
  7
STANDARD
140
4.5
170
     2
 62
     0
 63
     7
283
     0
274
    -2
284
     1
 64
     0
275
    -2
285
     1
 65
     0
276
    -2
286
     1
 66
     0
277
    -2
287
     1
 67
     0
278
    -2
288
     1
 68
     0
279
    -2
289
     1
 69
     0
  7
STANDARD
140
6.0
170
     5
 62
     0
 63
     7
283
     0
274
    -2
284
     1
 64
     0
275
    -2
285
     1
 65
     0
276
    -2
286
     1
 66
     0
277
    -2
287
     1
 67
     0
278
    -2
288
     1
 68
     0
279
    -2
289
     1
 69
     0
  7
STANDARD
140
4.5
170
     5
 62
     0
 63
     7
283
     0
274
    -2
284
     1
 64
     0
275
    -2
285
     1
 65
     0
276
    -2
286
     1
 66
     0
277
    -2
287
     1
 67
     0
278
    -2
288
     1
 68
     0
279
    -2
289
     1
 69
     0
  0
VISUALSTYLE
  5
C450
102
{ACAD_REACTORS
330
C44A
102
}
330
C44A
100
AcDbVisualStyle
  2
2dWireframe
 70
     4
 71
     0
 72
     2
 73
     0
 90
        0
 40
-0.6
 41
-30.0
 62
     5
 63
     7
 74
     1
 91
        4
 64
     7
 65
   257
 75
     1
175
     1
 42
1.0
 92
        0
 66
   257
 43
1.0
 76
     1
 77
     6
 78
     2
 67
     7
 79
     5
170
     0
171
     0
290
     0
174
     0
 93
        1
 44
0.0
173
     0
291
     0
 45
0.0
1001
ACAD
1000
AcDbSavedByObjectVersion
1070
     0
  0
VISUALSTYLE
  5
C452
102
{ACAD_REACTORS
330
C44A
102
}
330
C44A
100
AcDbVisualStyle
  2
3D Hidden
 70
     6
 71
     1
 72
     2
 73
     2
 90
        0
 40
-0.6
 41
-30.0
 62
     5
 63
     7
 74
     2
 91
        2
 64
     7
 65
   257
 75
     2
175
     1
 42
40.0
 92
        0
 66
   257
 43
1.0
 76
     1
 77
     6
 78
     2
 67
     7
 79
     3
170
     0
171
     0
290
     0
174
     0
 93
        1
 44
0.0
173
     0
291
     0
 45
0.0
1001
ACAD
1000
AcDbSavedByObjectVersion
1070
     0
  0
VISUALSTYLE
  5
C451
102
{ACAD_REACTORS
330
C44A
102
}
330
C44A
100
AcDbVisualStyle
  2
3dWireframe
 70
     5
 71
     0
 72
     2
 73
     0
 90
        0
 40
-0.6
 41
-30.0
 62
     5
 63
     7
 74
     1
 91
        4
 64
     7
 65
   257
 75
     1
175
     1
 42
1.0
 92
        0
 66
   257
 43
1.0
 76
     1
 77
     6
 78
     2
 67
     7
 79
     5
170
     0
171
     0
290
     0
174
     0
 93
        1
 44
0.0
173
     0
291
     0
 45
0.0
1001
ACAD
1000
AcDbSavedByObjectVersion
1070
     0
  0
VISUALSTYLE
  5
C44F
102
{ACAD_REACTORS
330
C44A
102
}
330
C44A
100
AcDbVisualStyle
  2
Basic
 70
     7
 71
     1
 72
     0
 73
     1
 90
        0
 40
-0.6
 41
-30.0
 62
     5
 63
     7
 74
     0
 91
        4
 64
     7
 65
   257
 75
     1
175
     1
 42
1.0
 92
        8
 66
     7
 43
1.0
 76
     1
 77
     6
 78
     2
 67
     7
 79
     5
170
     0
171
     0
290
     0
174
     0
 93
        1
 44
0.0
173
     0
291
     1
 45
0.0
1001
ACAD
1000
AcDbSavedByObjectVersion
1070
     0
  0
VISUALSTYLE
  5
C456
102
{ACAD_REACTORS
330
C44A
102
}
330
C44A
100
AcDbVisualStyle
  2
Brighten
 70
    12
 71
     2
 72
     2
 73
     0
 90
        0
 40
-0.6
 41
-30.0
 62
     5
 63
     7
 74
     1
 91
        4
 64
     7
 65
   257
 75
     1
175
     1
 42
1.0
 92
        8
 66
     7
 43
1.0
 76
     1
 77
     6
 78
     2
 67
     7
 79
     5
170
     0
171
     0
290
     0
174
     0
 93
        1
 44
50.0
173
     0
291
     1
 45
0.0
1001
ACAD
1000
AcDbSavedByObjectVersion
1070
     0
  0
VISUALSTYLE
  5
C45A
102
{ACAD_REACTORS
330
C44A
102
}
330
C44A
100
AcDbVisualStyle
  2
ColorChange
 70
    16
 71
     2
 72
     2
 73
     3
 90
        0
 40
-0.6
 41
-30.0
 62
     5
 63
     8
 74
     1
 91
        4
 64
     7
 65
   257
 75
     1
175
     1
 42
1.0
 92
        8
 66
     8
 43
1.0
 76
     1
 77
     6
 78
     2
 67
     7
 79
     5
170
     0
171
     0
290
     0
174
     0
 93
        1
 44
0.0
173
     0
291
     1
 45
0.0
1001
ACAD
1000
AcDbSavedByObjectVersion
1070
     0
  0
VISUALSTYLE
  5
C453
102
{ACAD_REACTORS
330
C44A
102
}
330
C44A
100
AcDbVisualStyle
  2
Conceptual
 70
     9
 71
     3
 72
     2
 73
     0
 90
        0
 40
-0.6
 41
-30.0
 62
     5
 63
     7
 74
     2
 91
        2
 64
     7
 65
   257
 75
     1
175
     1
 42
40.0
 92
        8
 66
     7
 43
1.0
 76
     1
 77
     6
 78
     2
 67
     7
 79
     3
170
     0
171
     0
290
     0
174
     0
 93
        1
 44
0.0
173
     0
291
     0
 45
0.0
1001
ACAD
1000
AcDbSavedByObjectVersion
1070
     0
  0
VISUALSTYLE
  5
C455
102
{ACAD_REACTORS
330
C44A
102
}
330
C44A
100
AcDbVisualStyle
  2
Dim
 70
    11
 71
     2
 72
     2
 73
     0
 90
        0
 40
-0.6
 41
-30.0
 62
     5
 63
     7
 74
     1
 91
        4
 64
     7
 65
   257
 75
     1
175
     1
 42
1.0
 92
        8
 66
     7
 43
1.0
 76
     1
 77
     6
 78
     2
 67
     7
 79
     5
170
     0
171
     0
290
     0
174
     0
 93
        1
 44
-50.0
173
     0
291
     1
 45
0.0
1001
ACAD
1000
AcDbSavedByObjectVersion
1070
     0
  0
VISUALSTYLE
  5
C459
102
{ACAD_REACTORS
330
C44A
102
}
330
C44A
100
AcDbVisualStyle
  2
Facepattern
 70
    15
 71
     2
 72
     2
 73
     0
 90
        0
 40
-0.6
 41
-30.0
 62
     5
 63
     7
 74
     1
 91
        4
 64
     7
 65
   257
 75
     1
175
     1
 42
1.0
 92
        8
 66
     7
 43
1.0
 76
     1
 77
     6
 78
     2
 67
     7
 79
     5
170
     0
171
     0
290
     0
174
     0
 93
        1
 44
0.0
173
     0
291
     1
 45
0.0
1001
ACAD
1000
AcDbSavedByObjectVersion
1070
     0
  0
VISUALSTYLE
  5
C44B
102
{ACAD_REACTORS
330
C44A
102
}
330
C44A
100
AcDbVisualStyle
  2
Flat
 70
     0
 71
     2
 72
     1
 73
     1
 90
        2
 40
-0.6
 41
30.0
 62
     5
 63
     7
 74
     0
 91
        4
 64
     7
 65
   257
 75
     1
175
     1
 42
1.0
 92
        8
 66
     7
 43
1.0
 76
     1
 77
     6
 78
     2
 67
     7
 79
     5
170
     0
171
     0
290
     0
174
     0
 93
       13
 44
0.0
173
     0
291
     1
 45
0.0
1001
ACAD
1000
AcDbSavedByObjectVersion
1070
     0
  0
VISUALSTYLE
  5
C44C
102
{ACAD_REACTORS
330
C44A
102
}
330
C44A
100
AcDbVisualStyle
  2
FlatWithEdges
 70
     1
 71
     2
 72
     1
 73
     1
 90
        2
 40
-0.6
 41
30.0
 62
     5
 63
     7
 74
     1
 91
        4
 64
     7
 65
   257
 75
     1
175
     1
 42
1.0
 92
        0
 66
   257
 43
1.0
 76
     1
 77
     6
 78
     2
 67
     7
 79
     5
170
     0
171
     0
290
     0
174
     0
 93
       13
 44
0.0
173
     0
291
     1
 45
0.0
1001
ACAD
1000
AcDbSavedByObjectVersion
1070
     0
  0
VISUALSTYLE
  5
C44D
102
{ACAD_REACTORS
330
C44A
102
}
330
C44A
100
AcDbVisualStyle
  2
Gouraud
 70
     2
 71
     2
 72
     2
 73
     1
 90
        2
 40
-0.6
 41
30.0
 62
     5
 63
     7
 74
     0
 91
        4
 64
     7
 65
   257
 75
     1
175
     1
 42
1.0
 92
        0
 66
     7
 43
1.0
 76
     1
 77
     6
 78
     2
 67
     7
 79
     5
170
     0
171
     0
290
     0
174
     0
 93
       13
 44
0.0
173
     0
291
     1
 45
0.0
1001
ACAD
1000
AcDbSavedByObjectVersion
1070
     0
  0
VISUALSTYLE
  5
C44E
102
{ACAD_REACTORS
330
C44A
102
}
330
C44A
100
AcDbVisualStyle
  2
GouraudWithEdges
 70
     3
 71
     2
 72
     2
 73
     1
 90
        2
 40
-0.6
 41
30.0
 62
     5
 63
     7
 74
     1
 91
        4
 64
     7
 65
   257
 75
     1
175
     1
 42
1.0
 92
        0
 66
   257
 43
1.0
 76
     1
 77
     6
 78
     2
 67
     7
 79
     5
170
     0
171
     0
290
     0
174
     0
 93
       13
 44
0.0
173
     0
291
     1
 45
0.0
1001
ACAD
1000
AcDbSavedByObjectVersion
1070
     0
  0
VISUALSTYLE
  5
C458
102
{ACAD_REACTORS
330
C44A
102
}
330
C44A
100
AcDbVisualStyle
  2
Linepattern
 70
    14
 71
     2
 72
     2
 73
     0
 90
        0
 40
-0.6
 41
-30.0
 62
     5
 63
     7
 74
     1
 91
        4
 64
     7
 65
   257
 75
     7
175
     7
 42
1.0
 92
        8
 66
     7
 43
1.0
 76
     1
 77
     6
 78
     2
 67
     7
 79
     5
170
     0
171
     0
290
     0
174
     0
 93
        1
 44
0.0
173
     0
291
     1
 45
0.0
1001
ACAD
1000
AcDbSavedByObjectVersion
1070
     0
  0
VISUALSTYLE
  5
C454
102
{ACAD_REACTORS
330
C44A
102
}
330
C44A
100
AcDbVisualStyle
  2
Realistic
 70
     8
 71
     2
 72
     2
 73
     0
 90
        0
 40
-0.6
 41
-30.0
 62
     5
 63
     7
 74
     1
 91
        0
 64
     7
 65
   257
 75
     1
175
     1
 42
1.0
 92
        8
 66
     8
 43
1.0
 76
     1
 77
     6
 78
     2
 67
     7
 79
     5
170
     0
171
     0
290
     0
174
     0
 93
       13
 44
0.0
173
     0
291
     0
 45
0.0
1001
ACAD
1000
AcDbSavedByObjectVersion
1070
     0
  0
VISUALSTYLE
  5
C457
102
{ACAD_REACTORS
330
C44A
102
}
330
C44A
100
AcDbVisualStyle
  2
Thicken
 70
    13
 71
     2
 72
     2
 73
     0
 90
        0
 40
-0.6
 41
-30.0
 62
     5
 63
     7
 74
     1
 91
        4
 64
     7
 65
   257
 75
     1
175
     1
 42
1.0
 92
       12
 66
     7
 43
1.0
 76
     1
 77
     6
 78
     2
 67
     7
 79
     5
170
     0
171
     0
290
     0
174
     0
 93
        1
 44
0.0
173
     0
291
     1
 45
0.0
1001
ACAD
1000
AcDbSavedByObjectVersion
1070
     0
  0
DICTIONARYVAR
  5
C4A2
102
{ACAD_REACTORS
330
34
102
}
330
34
100
DictionaryVariables
280
     0
  1
STANDARD
  0
DICTIONARYVAR
  5
AC85
102
{ACAD_REACTORS
330
34
102
}
330
34
100
DictionaryVariables
280
     0
  1
2
  0
DICTIONARYVAR
  5
35
102
{ACAD_REACTORS
330
34
102
}
330
34
100
DictionaryVariables
280
     0
  1
0
  0
DICTIONARYVAR
  5
194C
102
{ACAD_REACTORS
330
34
102
}
330
34
100
DictionaryVariables
280
     0
  1
96
  0
DICTIONARY
  5
7E8
102
{ACAD_REACTORS
330
47
102
}
330
47
100
AcDbDictionary
281
     1
  0
DICTIONARY
  5
4C
102
{ACAD_REACTORS
330
47
102
}
330
47
100
AcDbDictionary
281
     1
  0
XRECORD
  5
C487
102
{ACAD_REACTORS
330
47
102
}
330
47
100
AcDbXrecord
280
     1
 90
-1023410169
  0
XRECORD
  5
ECD7
102
{ACAD_REACTORS
330
ECD6
102
}
330
ECD6
100
AcDbXrecord
280
     1
330
0
330
0
330
0
330
0
330
0
330
0
330
0
330
0
330
0
330
0
330
0
330
0
330
0
330
0
330
0
330
0
330
0
330
0
330
0
330
0
330
0
330
0
330
0
330
0
330
0
330
0
330
0
330
0
330
0
330
0
330
0
330
0
330
0
330
0
330
0
330
0
330
0
330
0
330
0
330
0
330
0
330
0
330
0
330
0
330
0
330
0
330
0
330
0
330
0
330
0
330
0
330
0
330
0
330
0
330
0
330
0
330
0
330
0
330
0
330
0
  0
XRECORD
  5
CB0E
102
{ACAD_REACTORS
330
CB0C
102
}
330
CB0C
100
AcDbXrecord
280
     1
  1
50
  1
*-50
  1
*
  1
*
 70
     0
  1
*
  1
*
1001
ACAD
1000
( NAME== "*-50" )
  0
XRECORD
  5
3FB7
102
{ACAD_REACTORS
330
3F96
102
}
330
3F96
100
AcDbXrecord
280
     1
 91
        3
330
A47
 90
        8
 62
     7
370
    40
331
16
  1
Color_7
330
A46
 90
        0
 62
    14
370
    -3
331
16
  1
Color_14
330
0
 90
        8
 62
     7
370
    20
331
16
  1
Color_7
330
6D1
 90
        0
 62
     7
370
    -3
331
16
  1
Color_7
330
0
 90
        8
 62
     7
370
    50
331
16
  1
Color_7
330
A48
 90
        8
 62
     2
370
    35
331
16
  1
Color_2
330
0
 90
        8
 62
     7
370
    -3
331
16
  1
Color_7
330
10
 90
        8
 62
     7
370
    -3
331
16
  1
Color_7
  0
XRECORD
  5
CB0D
102
{ACAD_REACTORS
330
CB0B
102
}
330
CB0B
100
AcDbXrecord
280
     1
  1
AcLyLayerFilter
 90
        1
300
50
301
( NAME== "*-50" )
  0
DICTIONARY
  5
11D83
330
22
100
AcDbDictionary
280
     1
281
     1
  3
ACAD_XREC_ROUNDTRIP
360
11D84
  0
DICTIONARY
  5
11D81
330
1E
100
AcDbDictionary
280
     1
281
     1
  3
ACAD_XREC_ROUNDTRIP
360
11D82
  0
DICTIONARY
  5
11D85
330
26
100
AcDbDictionary
280
     1
281
     1
  3
ACAD_XREC_ROUNDTRIP
360
11D86
  0
DICTIONARY
  5
11D89
330
C448
100
AcDbDictionary
280
     1
281
     1
  3
ACAD_XREC_ROUNDTRIP
360
11D8A
  0
DICTIONARY
  5
11D87
330
C447
100
AcDbDictionary
280
     1
281
     1
  3
ACAD_XREC_ROUNDTRIP
360
11D88
  0
DICTIONARY
  5
11D8B
330
C449
100
AcDbDictionary
280
     1
281
     1
  3
ACAD_XREC_ROUNDTRIP
360
11D8C
  0
DICTIONARY
  5
11D8F
330
C85D
100
AcDbDictionary
280
     1
281
     1
  3
ACAD_XREC_ROUNDTRIP
360
11D90
  0
DICTIONARY
  5
11D8D
330
C45D
100
AcDbDictionary
280
     1
281
     1
  3
ACAD_XREC_ROUNDTRIP
360
11D8E
  0
XRECORD
  5
11D84
102
{ACAD_REACTORS
330
11D83
102
}
330
11D83
100
AcDbXrecord
280
     1
102
SHADEPLOT
 70
     1
102
SHADEPLOTRESLEVEL
 70
     2
102
SHADEPLOTCUSTOMDPI
 70
   300
  0
XRECORD
  5
11D82
102
{ACAD_REACTORS
330
11D81
102
}
330
11D81
100
AcDbXrecord
280
     1
102
SHADEPLOT
 70
     0
102
SHADEPLOTRESLEVEL
 70
     2
102
SHADEPLOTCUSTOMDPI
 70
   300
  0
XRECORD
  5
11D86
102
{ACAD_REACTORS
330
11D85
102
}
330
11D85
100
AcDbXrecord
280
     1
102
SHADEPLOT
 70
     0
102
SHADEPLOTRESLEVEL
 70
     2
102
SHADEPLOTCUSTOMDPI
 70
   300
  0
XRECORD
  5
11D8A
102
{ACAD_REACTORS
330
11D89
102
}
330
11D89
100
AcDbXrecord
280
     1
102
MATERIAL
148
0.0
149
0.0
149
0.0
 93
        0
 94
       63
282
     0
 72
     1
 77
     1
171
     1
175
     1
179
     1
273
     0
  0
XRECORD
  5
11D88
102
{ACAD_REACTORS
330
11D87
102
}
330
11D87
100
AcDbXrecord
280
     1
102
MATERIAL
148
0.0
149
0.0
149
0.0
 93
        0
 94
       63
282
     0
 72
     1
 77
     1
171
     1
175
     1
179
     1
273
     0
  0
XRECORD
  5
11D8C
102
{ACAD_REACTORS
330
11D8B
102
}
330
11D8B
100
AcDbXrecord
280
     1
102
MATERIAL
148
0.0
149
0.0
149
0.0
 93
        0
 94
       63
282
     0
 72
     1
 77
     1
171
     1
175
     1
179
     1
273
     0
  0
XRECORD
  5
11D90
102
{ACAD_REACTORS
330
11D8F
102
}
330
11D8F
100
AcDbXrecord
280
     1
102
SHADEPLOT
 70
     0
102
SHADEPLOTRESLEVEL
 70
     2
102
SHADEPLOTCUSTOMDPI
 70
   300
  0
XRECORD
  5
11D8E
102
{ACAD_REACTORS
330
11D8D
102
}
330
11D8D
100
AcDbXrecord
280
     1
102
ACAD_ROUNDTRIP_PRE2007_TABLESTYLE
 90
      512
 91
        0
  1

 92
      512
 93
        0
  2

 94
      512
 95
        0
  3

  0
ENDSEC
  0
EOF
