  0
SECTION
  2
HEADER
  9
$EXTMAX
 10
170
 20
173
 30
0
  9
$EXTMIN
 10
-211
 20
-100
 30
0
  9
$LIMMAX
 10
170
 20
173
  9
$LIMMIN
 10
-211
 20
-100
  9
$PLIMMAX
 10
170
 20
173
  9
$PLIMMIN
 10
-211
 20
-100
  9
$TEXTSIZE
 40
3.2
  9
$DIMSHO
 70
     0
  9
$DIMASZ
 40
1.0
  9
$DIMTAD
 70
     1
  9
$DIMTIH
 70
     0
  9
$DIMTOH
 70
     0
  9
$DIMEXE
 40
2.54
  9
$DIMEXO
 40
2.54
  9
$DIMTVP
 40
1.0
  9
$DIMSAH
 70
     1
  9
$DIMDLE
 40
0.0
  9
$DIMTXT
 40
3.2
  9
$DIMGAP
 40
1.6
  0
ENDSEC
  0
SECTION
  2
TABLES
  0
TABLE
  2
LTYPE
 70
     6
  0
LTYPE
  2
CONTINUOUS
 70
    64
  3
Solid line
 72
    65
 73
     0
 40
0.0
  0
LTYPE
  2
DASHED
 70
    64
  3
__ __ __ __ __ __ __ __ __ __ __ __ __ __ __
 72
    65
 73
     2
 40
3.5
 49
2.0
 49
-1.5
  0
LTYPE
  2
CENTER
 70
    64
  3
____ _ ____ _ ____ _ ____ _ ____ _ ____ _ ____
 72
    65
 73
     4
 40
17.5
 49
13.0
 49
-1.5
 49
1.5
 49
-1.5
  0
LTYPE
  2
PHANTOM
 70
    64
  3
_____ _ _ _____ _ _ _____ _ _ _____ _ _ ____  
 72
    65
 73
     6
 40
15.5
 49
8.0
 49
-1.5
 49
1.5
 49
-1.5
 49
1.5
 49
-1.5
  0
LTYPE
  2
DOT
 70
    64
  3
. . . . . . . . . . . . . . . . . . . . . . . .
 72
    65
 73
     2
 40
0.25
 49
0.0
 49
-0.25
  0
LTYPE
  2
HIDDEN
 70
    64
  3
__ __ __ __ __ __ __ __ __ __ __ __ __ __ __
 72
    65
 73
     2
 40
3.5
 49
2.0
 49
-1.5
  0
ENDTAB
  0
TABLE
  2
LAYER
 70
     4
  0
LAYER
  2
0
 70
     0
 62
     7
  6
CONTINUOUS
  0
LAYER
  2
1
 70
     0
 62
     7
  6
CONTINUOUS
  0
LAYER
  2
2
 70
     0
 62
     7
  6
CONTINUOUS
  0
LAYER
  2
DEFPOINTS
 70
     0
 62
     7
  6
CONTINUOUS
  0
ENDTAB
  0
TABLE
  2
STYLE
 70
     1
  0
STYLE
  2
STANDARD
 70
     0
 40
0.0
 41
1.0
 50
0.0
 71
     0
 42
0.2
  3
txt
  4
BIGFONT
  0
ENDTAB
  0
TABLE
  2
DIMSTYLE
 70
     1
  0
DIMSTYLE
  2
DIMSTYLE
 70
     0
  3

  4

  5
_DOT
  6
_DOT
  7
_DOT
 40
1
 41
1
 42
2.54
 43
0.38
 44
2.54
 45
0
 46
0
 47
0
 48
0
140
3.2
141
0.09
142
0
143
25.4
144
1
145
0
146
1
147
1.6
 71
     0
 72
     0
 73
     0
 74
     0
 75
     0
 76
     0
 78
     0
170
     0
171
     2
 77
     0
172
     0
173
     1
174
     0
175
     0
176
     0
177
     0
178
     0
  0
ENDTAB
  0
ENDSEC
  0
SECTION
  2
BLOCKS
  0
BLOCK
  8
0
  2
_DOT
 70
    64
 10
0
 20
0
  3
_DOT
  0
POLYLINE
  8
0
  6
BYBLOCK
 62
     0
 66
     1
 10
0
 20
0
 70
     1
 40
0.40000001
 41
0.40000001
  0
VERTEX
  8
0
  6
BYBLOCK
 62
     0
 10
-0.2
 20
0
 42
1
  0
VERTEX
  8
0
  6
BYBLOCK
 62
     0
 10
0.2
 20
0
 42
1
  0
SEQEND
  8
0
  6
BYBLOCK
 62
     0
  0
LINE
  8
0
  6
BYBLOCK
 62
     0
 10
-0.40000001
 20
0
 11
-3
 21
0
  0
ENDBLK
  8
0
  0
BLOCK
  8
0
  2
_NONE
 70
    64
 10
0
 20
0
  3
_NONE
  0
CIRCLE
  8
0
  6
BYBLOCK
 62
     0
 10
0
 20
0
 40
0.001
  0
ENDBLK
  8
0
  0
BLOCK
  8
0
  2
*D1
 70
    65
 10
0
 20
0
  0
LINE
  8
0
  6
CONTINUOUS
 62
     7
 10
-21.908268
 20
52.341755
 11
38.091732
 21
52.341755
  0
INSERT
  8
0
  6
CONTINUOUS
 62
     7
  2
_DOT
 10
-21.908268
 20
52.341755
 50
180
  0
INSERT
  8
0
  6
CONTINUOUS
 62
     7
  2
_DOT
 10
38.091732
 20
52.341755
  0
LINE
  8
0
  6
CONTINUOUS
 62
     7
 10
-21.908268
 20
33.881755
 11
-21.908268
 21
53.541756
  0
LINE
  8
0
  6
CONTINUOUS
 62
     7
 10
38.091732
 20
33.881755
 11
38.091732
 21
53.541756
  0
TEXT
  8
0
  6
CONTINUOUS
 62
     7
 10
5.348732
 20
53.141755
 40
3.2
 41
1.1020982
  1
60
  0
POINT
  8
DEFPOINTS
  6
CONTINUOUS
 62
     7
 10
-21.908268
 20
31.341755
  0
POINT
  8
DEFPOINTS
  6
CONTINUOUS
 62
     7
 10
38.091732
 20
31.341755
  0
POINT
  8
DEFPOINTS
  6
CONTINUOUS
 62
     7
 10
38.091732
 20
52.341755
  0
ENDBLK
  8
0
  0
BLOCK
  8
0
  2
*D2
 70
    65
 10
0
 20
0
  0
LINE
  8
0
  6
CONTINUOUS
 62
     7
 10
-21.908268
 20
42.341755
 11
-4.9082685
 21
42.341755
  0
INSERT
  8
0
  6
CONTINUOUS
 62
     7
  2
_DOT
 10
-21.908268
 20
42.341755
 50
180
  0
INSERT
  8
0
  6
CONTINUOUS
 62
     7
  2
_DOT
 10
-4.9082685
 20
42.341755
  0
LINE
  8
0
  6
CONTINUOUS
 62
     7
 10
-21.908268
 20
33.881755
 11
-21.908268
 21
43.541756
  0
LINE
  8
0
  6
CONTINUOUS
 62
     7
 10
-4.9082685
 20
14.881756
 11
-4.9082685
 21
43.541756
  0
TEXT
  8
0
  6
CONTINUOUS
 62
     7
 10
-16.151268
 20
43.141755
 40
3.2
 41
1.2857812
  1
17
  0
POINT
  8
DEFPOINTS
  6
CONTINUOUS
 62
     7
 10
-21.908268
 20
31.341755
  0
POINT
  8
DEFPOINTS
  6
CONTINUOUS
 62
     7
 10
-4.9082685
 20
12.341756
  0
POINT
  8
DEFPOINTS
  6
CONTINUOUS
 62
     7
 10
-4.9082685
 20
42.341755
  0
ENDBLK
  8
0
  0
BLOCK
  8
0
  2
*D3
 70
    65
 10
0
 20
0
  0
LINE
  8
0
  6
CONTINUOUS
 62
     7
 10
-4.9082685
 20
42.341755
 11
21.091732
 21
42.341755
  0
INSERT
  8
0
  6
CONTINUOUS
 62
     7
  2
_DOT
 10
-4.9082685
 20
42.341755
 50
180
  0
INSERT
  8
0
  6
CONTINUOUS
 62
     7
  2
_DOT
 10
21.091732
 20
42.341755
  0
LINE
  8
0
  6
CONTINUOUS
 62
     7
 10
-4.9082685
 20
14.881756
 11
-4.9082685
 21
43.541756
  0
LINE
  8
0
  6
CONTINUOUS
 62
     7
 10
21.091732
 20
14.881756
 11
21.091732
 21
43.541756
  0
TEXT
  8
0
  6
CONTINUOUS
 62
     7
 10
5.348732
 20
43.141755
 40
3.2
 41
1.028625
  1
26
  0
POINT
  8
DEFPOINTS
  6
CONTINUOUS
 62
     7
 10
-4.9082685
 20
12.341756
  0
POINT
  8
DEFPOINTS
  6
CONTINUOUS
 62
     7
 10
21.091732
 20
12.341756
  0
POINT
  8
DEFPOINTS
  6
CONTINUOUS
 62
     7
 10
21.091732
 20
42.341755
  0
ENDBLK
  8
0
  0
BLOCK
  8
0
  2
*D4
 70
    65
 10
0
 20
0
  0
LINE
  8
0
  6
CONTINUOUS
 62
     7
 10
21.091732
 20
42.341755
 11
38.091732
 21
42.341755
  0
INSERT
  8
0
  6
CONTINUOUS
 62
     7
  2
_DOT
 10
21.091732
 20
42.341755
 50
180
  0
INSERT
  8
0
  6
CONTINUOUS
 62
     7
  2
_DOT
 10
38.091732
 20
42.341755
  0
LINE
  8
0
  6
CONTINUOUS
 62
     7
 10
21.091732
 20
14.881756
 11
21.091732
 21
43.541756
  0
LINE
  8
0
  6
CONTINUOUS
 62
     7
 10
38.091732
 20
33.881755
 11
38.091732
 21
43.541756
  0
TEXT
  8
0
  6
CONTINUOUS
 62
     7
 10
26.848732
 20
43.141755
 40
3.2
 41
1.2857812
  1
17
  0
POINT
  8
DEFPOINTS
  6
CONTINUOUS
 62
     7
 10
21.091732
 20
12.341756
  0
POINT
  8
DEFPOINTS
  6
CONTINUOUS
 62
     7
 10
38.091732
 20
31.341755
  0
POINT
  8
DEFPOINTS
  6
CONTINUOUS
 62
     7
 10
38.091732
 20
42.341755
  0
ENDBLK
  8
0
  0
BLOCK
  8
0
  2
*D5
 70
    65
 10
0
 20
0
  0
LINE
  8
0
  6
CONTINUOUS
 62
     7
 10
-31.908268
 20
32.341755
 11
-31.908268
 21
15.341756
  0
INSERT
  8
0
  6
CONTINUOUS
 62
     7
  2
_DOT
 10
-31.908268
 20
32.341755
 50
90
  0
INSERT
  8
0
  6
CONTINUOUS
 62
     7
  2
_DOT
 10
-31.908268
 20
15.341756
 50
270
  0
LINE
  8
0
  6
CONTINUOUS
 62
     7
 10
-23.448268
 20
32.341755
 11
-33.108269
 21
32.341755
  0
LINE
  8
0
  6
CONTINUOUS
 62
     7
 10
-7.4482684
 20
15.341756
 11
-33.108269
 21
15.341756
  0
TEXT
  8
0
  6
CONTINUOUS
 62
     7
 10
-32.708268
 20
21.098755
 40
3.2
 41
1.2857812
  1
17
 50
90.000003
  0
POINT
  8
DEFPOINTS
  6
CONTINUOUS
 62
     7
 10
-20.908268
 20
32.341755
  0
POINT
  8
DEFPOINTS
  6
CONTINUOUS
 62
     7
 10
-4.9082685
 20
15.341756
  0
POINT
  8
DEFPOINTS
  6
CONTINUOUS
 62
     7
 10
-31.908268
 20
15.341756
  0
ENDBLK
  8
0
  0
BLOCK
  8
0
  2
*D6
 70
    65
 10
0
 20
0
  0
LINE
  8
0
  6
CONTINUOUS
 62
     7
 10
-31.908268
 20
15.341756
 11
-31.908268
 21
-70.658241
  0
INSERT
  8
0
  6
CONTINUOUS
 62
     7
  2
_DOT
 10
-31.908268
 20
-70.658241
 50
270
  0
LINE
  8
0
  6
CONTINUOUS
 62
     7
 10
-7.4482684
 20
-70.658241
 11
-33.108269
 21
-70.658241
  0
TEXT
  8
0
  6
CONTINUOUS
 62
     7
 10
-32.708268
 20
-30.401245
 40
3.2
 41
1.028625
  1
86
 50
90.000003
  0
POINT
  8
DEFPOINTS
  6
CONTINUOUS
 62
     7
 10
-4.9082685
 20
15.341756
  0
POINT
  8
DEFPOINTS
  6
CONTINUOUS
 62
     7
 10
-4.9082685
 20
-70.658241
  0
POINT
  8
DEFPOINTS
  6
CONTINUOUS
 62
     7
 10
-31.908268
 20
-70.658241
  0
ENDBLK
  8
0
  0
BLOCK
  8
0
  2
*D7
 70
    65
 10
0
 20
0
  0
LINE
  8
0
  6
CONTINUOUS
 62
     7
 10
-31.908268
 20
-70.658241
 11
-31.908268
 21
-87.658241
  0
INSERT
  8
0
  6
CONTINUOUS
 62
     7
  2
_DOT
 10
-31.908268
 20
-87.658241
 50
270
  0
LINE
  8
0
  6
CONTINUOUS
 62
     7
 10
-23.448268
 20
-87.658241
 11
-33.108269
 21
-87.658241
  0
TEXT
  8
0
  6
CONTINUOUS
 62
     7
 10
-32.708268
 20
-81.901241
 40
3.2
 41
1.2857812
  1
17
 50
90.000003
  0
POINT
  8
DEFPOINTS
  6
CONTINUOUS
 62
     7
 10
-4.9082685
 20
-70.658241
  0
POINT
  8
DEFPOINTS
  6
CONTINUOUS
 62
     7
 10
-20.908268
 20
-87.658241
  0
POINT
  8
DEFPOINTS
  6
CONTINUOUS
 62
     7
 10
-31.908268
 20
-87.658241
  0
ENDBLK
  8
0
  0
BLOCK
  8
0
  2
*D8
 70
    65
 10
0
 20
0
  0
LINE
  8
0
  6
CONTINUOUS
 62
     7
 10
-41.908268
 20
32.341755
 11
-41.908268
 21
-87.658241
  0
INSERT
  8
0
  6
CONTINUOUS
 62
     7
  2
_DOT
 10
-41.908268
 20
32.341755
 50
90
  0
INSERT
  8
0
  6
CONTINUOUS
 62
     7
  2
_DOT
 10
-41.908268
 20
-87.658241
 50
270
  0
LINE
  8
0
  6
CONTINUOUS
 62
     7
 10
-23.448268
 20
32.341755
 11
-43.108269
 21
32.341755
  0
LINE
  8
0
  6
CONTINUOUS
 62
     7
 10
-23.448268
 20
-87.658241
 11
-43.108269
 21
-87.658241
  0
TEXT
  8
0
  6
CONTINUOUS
 62
     7
 10
-42.708268
 20
-32.001245
 40
3.2
 41
1.2214687
  1
120
 50
90.000003
  0
POINT
  8
DEFPOINTS
  6
CONTINUOUS
 62
     7
 10
-20.908268
 20
32.341755
  0
POINT
  8
DEFPOINTS
  6
CONTINUOUS
 62
     7
 10
-20.908268
 20
-87.658241
  0
POINT
  8
DEFPOINTS
  6
CONTINUOUS
 62
     7
 10
-41.908268
 20
-87.658241
  0
ENDBLK
  8
0
  0
BLOCK
  8
0
  2
*D9
 70
    65
 10
0
 20
0
  0
LINE
  8
0
  6
CONTINUOUS
 62
     7
 10
53.091732
 20
7.3417554
 11
53.091732
 21
-62.658245
  0
INSERT
  8
0
  6
CONTINUOUS
 62
     7
  2
_DOT
 10
53.091732
 20
7.3417554
 50
90
  0
INSERT
  8
0
  6
CONTINUOUS
 62
     7
  2
_DOT
 10
53.091732
 20
-62.658245
 50
270
  0
LINE
  8
0
  6
CONTINUOUS
 62
     7
 10
16.631732
 20
7.3417554
 11
54.291733
 21
7.3417554
  0
LINE
  8
0
  6
CONTINUOUS
 62
     7
 10
16.631732
 20
-62.658245
 11
54.291733
 21
-62.658245
  0
TEXT
  8
0
  6
CONTINUOUS
 62
     7
 10
52.291732
 20
-30.401245
 40
3.2
 41
1.1020982
  1
70
 50
90.000003
  0
POINT
  8
DEFPOINTS
  6
CONTINUOUS
 62
     7
 10
14.091732
 20
7.3417554
  0
POINT
  8
DEFPOINTS
  6
CONTINUOUS
 62
     7
 10
14.091732
 20
-62.658245
  0
POINT
  8
DEFPOINTS
  6
CONTINUOUS
 62
     7
 10
53.091732
 20
-62.658245
  0
ENDBLK
  8
0
  0
BLOCK
  8
0
  2
*D10
 70
    65
 10
0
 20
0
  0
LINE
  8
0
  6
CONTINUOUS
 62
     7
 10
108.09173
 20
141.13504
 11
98.346054
 21
141.13504
  0
LINE
  8
0
  6
CONTINUOUS
 62
     7
 10
108.09173
 20
141.13504
 11
109.59173
 21
141.13504
  0
INSERT
  8
0
  6
CONTINUOUS
 62
     7
  2
_DOT
 10
108.09173
 20
141.13504
 50
180
  0
INSERT
  8
0
  6
CONTINUOUS
 62
     7
  2
_DOT
 10
109.59173
 20
141.13504
  0
LINE
  8
0
  6
CONTINUOUS
 62
     7
 10
108.09173
 20
133.73176
 11
108.09173
 21
142.33505
  0
LINE
  8
0
  6
CONTINUOUS
 62
     7
 10
109.59173
 20
133.73176
 11
109.59173
 21
142.33505
  0
TEXT
  8
0
  6
CONTINUOUS
 62
     7
 10
98.026057
 20
141.93504
 40
3.2
 41
1.628625
  1
1.5
  0
POINT
  8
DEFPOINTS
  6
CONTINUOUS
 62
     7
 10
108.09173
 20
131.19176
  0
POINT
  8
DEFPOINTS
  6
CONTINUOUS
 62
     7
 10
109.59173
 20
131.19176
  0
POINT
  8
DEFPOINTS
  6
CONTINUOUS
 62
     7
 10
109.59173
 20
141.13504
  0
ENDBLK
  8
0
  0
BLOCK
  8
0
  2
*D11
 70
    65
 10
0
 20
0
  0
LINE
  8
0
  6
CONTINUOUS
 62
     7
 10
124.89173
 20
141.13504
 11
109.59173
 21
141.13504
  0
INSERT
  8
0
  6
CONTINUOUS
 62
     7
  2
_DOT
 10
124.89173
 20
141.13504
  0
INSERT
  8
0
  6
CONTINUOUS
 62
     7
  2
_DOT
 10
109.59173
 20
141.13504
 50
180
  0
LINE
  8
0
  6
CONTINUOUS
 62
     7
 10
124.89173
 20
105.73174
 11
124.89173
 21
142.33505
  0
TEXT
  8
0
  6
CONTINUOUS
 62
     7
 10
111.29873
 20
141.93504
 40
3.2
 41
1.3928906
  1
15.3
  0
POINT
  8
DEFPOINTS
  6
CONTINUOUS
 62
     7
 10
124.89173
 20
103.19174
  0
POINT
  8
DEFPOINTS
  6
CONTINUOUS
 62
     7
 10
109.59173
 20
131.19176
  0
POINT
  8
DEFPOINTS
  6
CONTINUOUS
 62
     7
 10
109.59173
 20
141.13504
  0
ENDBLK
  8
0
  0
BLOCK
  8
0
  2
*D12
 70
    65
 10
0
 20
0
  0
LINE
  8
0
  6
CONTINUOUS
 62
     7
 10
126.39173
 20
141.13504
 11
145.59174
 21
141.13504
  0
INSERT
  8
0
  6
CONTINUOUS
 62
     7
  2
_DOT
 10
126.39173
 20
141.13504
 50
180
  0
INSERT
  8
0
  6
CONTINUOUS
 62
     7
  2
_DOT
 10
145.59174
 20
141.13504
  0
LINE
  8
0
  6
CONTINUOUS
 62
     7
 10
126.39173
 20
118.73176
 11
126.39173
 21
142.33505
  0
LINE
  8
0
  6
CONTINUOUS
 62
     7
 10
145.59174
 20
133.73176
 11
145.59174
 21
142.33505
  0
TEXT
  8
0
  6
CONTINUOUS
 62
     7
 10
130.04873
 20
141.93504
 40
3.2
 41
1.3928906
  1
19.2
  0
POINT
  8
DEFPOINTS
  6
CONTINUOUS
 62
     7
 10
126.39173
 20
116.19176
  0
POINT
  8
DEFPOINTS
  6
CONTINUOUS
 62
     7
 10
145.59174
 20
131.19176
  0
POINT
  8
DEFPOINTS
  6
CONTINUOUS
 62
     7
 10
145.59174
 20
141.13504
  0
ENDBLK
  8
0
  0
BLOCK
  8
0
  2
*D13
 70
    65
 10
0
 20
0
  0
LINE
  8
0
  6
CONTINUOUS
 62
     7
 10
147.09174
 20
141.13504
 11
155.52606
 21
141.13504
  0
LINE
  8
0
  6
CONTINUOUS
 62
     7
 10
145.59174
 20
141.13504
 11
147.09174
 21
141.13504
  0
INSERT
  8
0
  6
CONTINUOUS
 62
     7
  2
_DOT
 10
145.59174
 20
141.13504
 50
180
  0
INSERT
  8
0
  6
CONTINUOUS
 62
     7
  2
_DOT
 10
147.09174
 20
141.13504
  0
LINE
  8
0
  6
CONTINUOUS
 62
     7
 10
145.59174
 20
133.73176
 11
145.59174
 21
142.33505
  0
LINE
  8
0
  6
CONTINUOUS
 62
     7
 10
147.09174
 20
133.73176
 11
147.09174
 21
142.33505
  0
TEXT
  8
0
  6
CONTINUOUS
 62
     7
 10
147.16005
 20
141.93504
 40
3.2
 41
1.628625
  1
1.5
  0
POINT
  8
DEFPOINTS
  6
CONTINUOUS
 62
     7
 10
145.59174
 20
131.19176
  0
POINT
  8
DEFPOINTS
  6
CONTINUOUS
 62
     7
 10
147.09174
 20
131.19176
  0
POINT
  8
DEFPOINTS
  6
CONTINUOUS
 62
     7
 10
147.09174
 20
141.13504
  0
ENDBLK
  8
0
  0
BLOCK
  8
0
  2
*D14
 70
    65
 10
0
 20
0
  0
LINE
  8
0
  6
CONTINUOUS
 62
     7
 10
-126.90827
 20
27.341755
 11
-126.90827
 21
-82.658241
  0
INSERT
  8
0
  6
CONTINUOUS
 62
     7
  2
_DOT
 10
-126.90827
 20
27.341755
 50
90
  0
INSERT
  8
0
  6
CONTINUOUS
 62
     7
  2
_DOT
 10
-126.90827
 20
-82.658241
 50
270
  0
LINE
  8
0
  6
CONTINUOUS
 62
     7
 10
-119.44827
 20
27.341755
 11
-128.10826
 21
27.341755
  0
LINE
  8
0
  6
CONTINUOUS
 62
     7
 10
-119.44827
 20
-82.658241
 11
-128.10826
 21
-82.658241
  0
TEXT
  8
0
  6
CONTINUOUS
 62
     7
 10
-127.70827
 20
-32.001245
 40
3.2
 41
1.4370221
  1
110
 50
90.000003
  0
POINT
  8
DEFPOINTS
  6
CONTINUOUS
 62
     7
 10
-116.90827
 20
27.341755
  0
POINT
  8
DEFPOINTS
  6
CONTINUOUS
 62
     7
 10
-116.90827
 20
-82.658241
  0
POINT
  8
DEFPOINTS
  6
CONTINUOUS
 62
     7
 10
-126.90827
 20
-82.658241
  0
ENDBLK
  8
0
  0
BLOCK
  8
0
  2
*D15
 70
    65
 10
0
 20
0
  0
LINE
  8
0
  6
CONTINUOUS
 62
     7
 10
-116.90827
 20
37.341755
 11
-66.908272
 21
37.341755
  0
INSERT
  8
0
  6
CONTINUOUS
 62
     7
  2
_DOT
 10
-116.90827
 20
37.341755
 50
180
  0
INSERT
  8
0
  6
CONTINUOUS
 62
     7
  2
_DOT
 10
-66.908272
 20
37.341755
  0
LINE
  8
0
  6
CONTINUOUS
 62
     7
 10
-116.90827
 20
29.881755
 11
-116.90827
 21
38.541756
  0
LINE
  8
0
  6
CONTINUOUS
 62
     7
 10
-66.908272
 20
29.881755
 11
-66.908272
 21
38.541756
  0
TEXT
  8
0
  6
CONTINUOUS
 62
     7
 10
-94.651272
 20
38.141755
 40
3.2
 41
1.1020982
  1
50
  0
POINT
  8
DEFPOINTS
  6
CONTINUOUS
 62
     7
 10
-116.90827
 20
27.341755
  0
POINT
  8
DEFPOINTS
  6
CONTINUOUS
 62
     7
 10
-66.908272
 20
27.341755
  0
POINT
  8
DEFPOINTS
  6
CONTINUOUS
 62
     7
 10
-66.908272
 20
37.341755
  0
ENDBLK
  8
0
  0
BLOCK
  8
0
  2
*D16
 70
    65
 10
0
 20
0
  0
LINE
  8
0
  6
CONTINUOUS
 62
     7
 10
109.59173
 20
48.23946
 11
145.59174
 21
48.23946
  0
INSERT
  8
0
  6
CONTINUOUS
 62
     7
  2
_DOT
 10
109.59173
 20
48.23946
 50
180
  0
INSERT
  8
0
  6
CONTINUOUS
 62
     7
  2
_DOT
 10
145.59174
 20
48.23946
  0
LINE
  8
0
  6
CONTINUOUS
 62
     7
 10
109.59173
 20
34.881755
 11
109.59173
 21
49.439461
  0
LINE
  8
0
  6
CONTINUOUS
 62
     7
 10
145.59174
 20
34.881755
 11
145.59174
 21
49.439461
  0
TEXT
  8
0
  6
CONTINUOUS
 62
     7
 10
124.84874
 20
49.03946
 40
3.2
 41
1.028625
  1
Dt
  0
POINT
  8
DEFPOINTS
  6
CONTINUOUS
 62
     7
 10
109.59173
 20
32.341755
  0
POINT
  8
DEFPOINTS
  6
CONTINUOUS
 62
     7
 10
145.59174
 20
32.341755
  0
POINT
  8
DEFPOINTS
  6
CONTINUOUS
 62
     7
 10
145.59174
 20
48.23946
  0
ENDBLK
  8
0
  0
BLOCK
  8
0
  2
KOZU0001
 70
    64
 10
0
 20
0
  0
LINE
  8
0
  6
CONTINUOUS
 62
     7
 10
-69.192847
 20
-82.658241
 11
-66.908272
 21
-80.373662
  0
LINE
  8
0
  6
CONTINUOUS
 62
     7
 10
-73.68297
 20
-82.658241
 11
-66.908272
 21
-75.883529
  0
LINE
  8
0
  6
CONTINUOUS
 62
     7
 10
-78.173094
 20
-82.658241
 11
-66.908272
 21
-71.393397
  0
LINE
  8
0
  6
CONTINUOUS
 62
     7
 10
-82.663217
 20
-82.658241
 11
-66.908272
 21
-66.903264
  0
LINE
  8
0
  6
CONTINUOUS
 62
     7
 10
-87.153341
 20
-82.658241
 11
-66.908272
 21
-62.413132
  0
LINE
  8
0
  6
CONTINUOUS
 62
     7
 10
-91.643464
 20
-82.658241
 11
-66.908272
 21
-57.922999
  0
LINE
  8
0
  6
CONTINUOUS
 62
     7
 10
-96.133588
 20
-82.658241
 11
-66.908272
 21
-53.432867
  0
LINE
  8
0
  6
CONTINUOUS
 62
     7
 10
-100.62371
 20
-82.658241
 11
-66.908272
 21
-48.942734
  0
LINE
  8
0
  6
CONTINUOUS
 62
     7
 10
-105.11383
 20
-82.658241
 11
-66.908272
 21
-44.452602
  0
LINE
  8
0
  6
CONTINUOUS
 62
     7
 10
-109.60396
 20
-82.658241
 11
-66.908272
 21
-39.962469
  0
LINE
  8
0
  6
CONTINUOUS
 62
     7
 10
-114.09408
 20
-82.658241
 11
-66.908272
 21
-35.472337
  0
LINE
  8
0
  6
CONTINUOUS
 62
     7
 10
-116.90827
 20
-80.982304
 11
-66.908272
 21
-30.982204
  0
LINE
  8
0
  6
CONTINUOUS
 62
     7
 10
-116.90827
 20
-76.492172
 11
-66.908272
 21
-26.492072
  0
LINE
  8
0
  6
CONTINUOUS
 62
     7
 10
-116.90827
 20
-72.002039
 11
-66.908272
 21
-22.001939
  0
LINE
  8
0
  6
CONTINUOUS
 62
     7
 10
-116.90827
 20
-67.511907
 11
-66.908272
 21
-17.511807
  0
LINE
  8
0
  6
CONTINUOUS
 62
     7
 10
-116.90827
 20
-63.021774
 11
-66.908272
 21
-13.021674
  0
LINE
  8
0
  6
CONTINUOUS
 62
     7
 10
-116.90827
 20
-58.531642
 11
-66.908272
 21
-8.5315419
  0
LINE
  8
0
  6
CONTINUOUS
 62
     7
 10
-116.90827
 20
-54.041509
 11
-66.908272
 21
-4.0414094
  0
LINE
  8
0
  6
CONTINUOUS
 62
     7
 10
-116.90827
 20
-49.551377
 11
-66.908272
 21
0.44872303
  0
LINE
  8
0
  6
CONTINUOUS
 62
     7
 10
-116.90827
 20
-45.061244
 11
-66.908272
 21
4.9388555
  0
LINE
  8
0
  6
CONTINUOUS
 62
     7
 10
-116.90827
 20
-40.571112
 11
-66.908272
 21
9.428988
  0
LINE
  8
0
  6
CONTINUOUS
 62
     7
 10
-116.90827
 20
-36.08098
 11
-66.908272
 21
13.91912
  0
LINE
  8
0
  6
CONTINUOUS
 62
     7
 10
-116.90827
 20
-31.590847
 11
-66.908272
 21
18.409253
  0
LINE
  8
0
  6
CONTINUOUS
 62
     7
 10
-116.90827
 20
-27.100715
 11
-66.908272
 21
22.899385
  0
LINE
  8
0
  6
CONTINUOUS
 62
     7
 10
-116.90827
 20
-22.610582
 11
-66.956035
 21
27.341755
  0
LINE
  8
0
  6
CONTINUOUS
 62
     7
 10
-116.90827
 20
-18.12045
 11
-71.446158
 21
27.341755
  0
LINE
  8
0
  6
CONTINUOUS
 62
     7
 10
-116.90827
 20
-13.630317
 11
-75.936282
 21
27.341755
  0
LINE
  8
0
  6
CONTINUOUS
 62
     7
 10
-116.90827
 20
-9.1401846
 11
-80.426405
 21
27.341755
  0
LINE
  8
0
  6
CONTINUOUS
 62
     7
 10
-116.90827
 20
-4.6500521
 11
-84.916529
 21
27.341755
  0
LINE
  8
0
  6
CONTINUOUS
 62
     7
 10
-116.90827
 20
-0.15991965
 11
-89.406652
 21
27.341755
  0
LINE
  8
0
  6
CONTINUOUS
 62
     7
 10
-116.90827
 20
4.3302128
 11
-93.896776
 21
27.341755
  0
LINE
  8
0
  6
CONTINUOUS
 62
     7
 10
-116.90827
 20
8.8203453
 11
-98.386899
 21
27.341755
  0
LINE
  8
0
  6
CONTINUOUS
 62
     7
 10
-116.90827
 20
13.310478
 11
-102.87702
 21
27.341755
  0
LINE
  8
0
  6
CONTINUOUS
 62
     7
 10
-116.90827
 20
17.80061
 11
-107.36715
 21
27.341755
  0
LINE
  8
0
  6
CONTINUOUS
 62
     7
 10
-116.90827
 20
22.290743
 11
-111.85727
 21
27.341755
  0
LINE
  8
0
  6
CONTINUOUS
 62
     7
 10
-116.90827
 20
26.780875
 11
-116.34739
 21
27.341755
  0
ENDBLK
  8
0
  0
ENDSEC
  0
SECTION
  2
ENTITIES
  0
POINT
  8
0
  6
CONTINUOUS
 62
     7
 10
-211
 20
173
  0
POINT
  8
0
  6
CONTINUOUS
 62
     7
 10
-154.86255
 20
120.91318
  0
POINT
  8
0
  6
CONTINUOUS
 62
     7
 10
147.09174
 20
-62.658245
  0
POINT
  8
0
  6
CONTINUOUS
 62
     7
 10
-21.908268
 20
32.341755
  0
POINT
  8
0
  6
CONTINUOUS
 62
     7
 10
-21.908268
 20
42.341755
  0
POINT
  8
0
  6
CONTINUOUS
 62
     7
 10
-21.908268
 20
52.341755
  0
POINT
  8
0
  6
CONTINUOUS
 62
     7
 10
-31.908268
 20
32.341755
  0
POINT
  8
0
  6
CONTINUOUS
 62
     7
 10
-41.908268
 20
32.341755
  0
POINT
  8
0
  6
CONTINUOUS
 62
     7
 10
108.09173
 20
101.19176
  0
POINT
  8
0
  6
CONTINUOUS
 62
     7
 10
108.09173
 20
101.19176
  0
POINT
  8
0
  6
CONTINUOUS
 62
     7
 10
108.09173
 20
131.19176
  0
POINT
  8
0
  6
CONTINUOUS
 62
     7
 10
108.09173
 20
141.19176
  0
POINT
  8
0
  6
CONTINUOUS
 62
     7
 10
108.09173
 20
151.19176
  0
POINT
  8
0
  6
CONTINUOUS
 62
     7
 10
38.091732
 20
-27.658245
  0
POINT
  8
0
  6
CONTINUOUS
 62
     7
 10
53.091732
 20
-27.658245
  0
POINT
  8
0
  6
CONTINUOUS
 62
     7
 10
-158.0296
 20
112.87566
  0
POINT
  8
0
  6
CONTINUOUS
 62
     7
 10
-116.90827
 20
27.341755
  0
POINT
  8
0
  6
CONTINUOUS
 62
     7
 10
-126.90827
 20
27.341755
  0
POINT
  8
0
  6
CONTINUOUS
 62
     7
 10
-116.90827
 20
37.341755
  0
LINE
  8
0
  6
CONTINUOUS
 62
     7
 10
170
 20
173
 11
170
 21
-100
  0
LINE
  8
0
  6
CONTINUOUS
 62
     7
 10
-211
 20
-100
 11
170
 21
-100
  0
LINE
  8
0
  6
CONTINUOUS
 62
     7
 10
-211
 20
173
 11
170
 21
173
  0
LINE
  8
0
  6
CONTINUOUS
 62
     7
 10
-211
 20
173
 11
-211
 21
-100
  0
LINE
  8
0
  6
CONTINUOUS
 62
     7
 10
-191
 20
173
 11
-191
 21
77
  0
LINE
  8
0
  6
CONTINUOUS
 62
     7
 10
-211
 20
165
 11
-101
 21
165
  0
LINE
  8
0
  6
CONTINUOUS
 62
     7
 10
-211
 20
157
 11
-101
 21
157
  0
LINE
  8
0
  6
CONTINUOUS
 62
     7
 10
-211
 20
149
 11
-101
 21
149
  0
LINE
  8
0
  6
CONTINUOUS
 62
     7
 10
-211
 20
141
 11
-101
 21
141
  0
LINE
  8
0
  6
CONTINUOUS
 62
     7
 10
-191
 20
117
 11
-101
 21
117
  0
LINE
  8
0
  6
CONTINUOUS
 62
     7
 10
-191
 20
109
 11
-101
 21
109
  0
LINE
  8
0
  6
CONTINUOUS
 62
     7
 10
-211
 20
101
 11
-101
 21
101
  0
LINE
  8
0
  6
CONTINUOUS
 62
     7
 10
-191
 20
93
 11
-101
 21
93
  0
LINE
  8
0
  6
CONTINUOUS
 62
     7
 10
-191
 20
85
 11
-101
 21
85
  0
LINE
  8
0
  6
CONTINUOUS
 62
     7
 10
-211
 20
77
 11
-101
 21
77
  0
LINE
  8
0
  6
CONTINUOUS
 62
     7
 10
-211
 20
173
 11
-211
 21
77
  0
LINE
  8
0
  6
CONTINUOUS
 62
     7
 10
-211
 20
173
 11
-101
 21
173
  0
LINE
  8
0
  6
CONTINUOUS
 62
     7
 10
-101
 20
173
 11
-101
 21
77
  0
LINE
  8
0
  6
CONTINUOUS
 62
     7
 10
-211
 20
133
 11
-101
 21
133
  0
LINE
  8
0
  6
CONTINUOUS
 62
     7
 10
-211
 20
125
 11
-101
 21
125
  0
LINE
  8
0
  6
CONTINUOUS
 62
     7
 10
-191
 20
117
 11
-101
 21
117
  0
LINE
  8
0
  6
CONTINUOUS
 62
     7
 10
-21.908268
 20
31.341755
 11
-21.908268
 21
-86.658241
  0
LINE
  8
0
  6
CONTINUOUS
 62
     7
 10
38.091732
 20
31.341755
 11
38.091732
 21
-86.658241
  0
LINE
  8
0
  6
CONTINUOUS
 62
     7
 10
-20.908268
 20
32.341755
 11
37.091732
 21
32.341755
  0
LINE
  8
0
  6
CONTINUOUS
 62
     7
 10
-20.908268
 20
-87.658241
 11
37.091732
 21
-87.658241
  0
LINE
  8
0
  6
CONTINUOUS
 62
     7
 10
108.09173
 20
131.19176
 11
109.59173
 21
131.19176
  0
LINE
  8
0
  6
CONTINUOUS
 62
     7
 10
108.09173
 20
71.191757
 11
109.59173
 21
71.191757
  0
LINE
  8
0
  6
CONTINUOUS
 62
     7
 10
108.09173
 20
32.341755
 11
109.59173
 21
32.341755
  0
LINE
  8
0
  6
CONTINUOUS
 62
     7
 10
108.09173
 20
-87.658241
 11
109.59173
 21
-87.658241
  0
LINE
  8
0
  6
CONTINUOUS
 62
     7
 10
108.09173
 20
131.19176
 11
108.09173
 21
71.191757
  0
LINE
  8
0
  6
CONTINUOUS
 62
     7
 10
147.09174
 20
131.19176
 11
147.09174
 21
71.191757
  0
LINE
  8
0
  6
CONTINUOUS
 62
     7
 10
109.59173
 20
131.19176
 11
109.59173
 21
71.191757
  0
LINE
  8
0
  6
CONTINUOUS
 62
     7
 10
145.59174
 20
131.19176
 11
145.59174
 21
71.191757
  0
LINE
  8
0
  6
CONTINUOUS
 62
     7
 10
108.09173
 20
32.341755
 11
108.09173
 21
-87.658241
  0
LINE
  8
0
  6
CONTINUOUS
 62
     7
 10
147.09174
 20
32.341755
 11
147.09174
 21
-87.658241
  0
LINE
  8
0
  6
CONTINUOUS
 62
     7
 10
109.59173
 20
32.341755
 11
109.59173
 21
12.341756
  0
LINE
  8
0
  6
CENTER
 62
     7
 10
8.091732
 20
35.341755
 11
8.091732
 21
-90.658241
  0
LINE
  8
0
  6
CENTER
 62
     7
 10
105.09173
 20
101.19176
 11
150.09174
 21
101.19176
  0
LINE
  8
0
  6
CONTINUOUS
 62
     7
 10
-4.9082685
 20
15.341756
 11
21.091732
 21
15.341756
  0
LINE
  8
0
  6
CONTINUOUS
 62
     7
 10
21.091732
 20
12.341756
 11
21.091732
 21
-67.658241
  0
LINE
  8
0
  6
CONTINUOUS
 62
     7
 10
-4.9082685
 20
-70.658241
 11
21.091732
 21
-70.658241
  0
LINE
  8
0
  6
CONTINUOUS
 62
     7
 10
-4.9082685
 20
12.341756
 11
-4.9082685
 21
-67.658241
  0
LINE
  8
0
  6
CENTER
 62
     7
 10
105.09173
 20
-62.658245
 11
150.09174
 21
-62.658245
  0
LINE
  8
0
  6
CENTER
 62
     7
 10
105.09173
 20
7.3417554
 11
150.09174
 21
7.3417554
  0
LINE
  8
0
  6
CONTINUOUS
 62
     7
 10
6.0917315
 20
6.8417554
 11
6.5917315
 21
6.8417554
  0
LINE
  8
0
  6
CONTINUOUS
 62
     7
 10
7.5917315
 20
5.8417554
 11
7.5917315
 21
5.3417554
  0
LINE
  8
0
  6
CONTINUOUS
 62
     7
 10
7.5917315
 20
9.3417559
 11
7.5917315
 21
8.8417559
  0
LINE
  8
0
  6
CONTINUOUS
 62
     7
 10
8.591732
 20
5.8417554
 11
8.591732
 21
5.3417554
  0
LINE
  8
0
  6
CONTINUOUS
 62
     7
 10
9.591732
 20
7.8417554
 11
10.091732
 21
7.8417554
  0
LINE
  8
0
  6
CONTINUOUS
 62
     7
 10
9.591732
 20
6.8417554
 11
10.091732
 21
6.8417554
  0
LINE
  8
0
  6
CONTINUOUS
 62
     7
 10
8.591732
 20
9.3417559
 11
8.591732
 21
8.8417559
  0
LINE
  8
0
  6
CONTINUOUS
 62
     7
 10
6.0917315
 20
7.8417554
 11
6.5917315
 21
7.8417554
  0
LINE
  8
0
  6
CONTINUOUS
 62
     7
 10
6.0917315
 20
-63.158245
 11
6.5917315
 21
-63.158245
  0
LINE
  8
0
  6
CONTINUOUS
 62
     7
 10
9.591732
 20
-62.158245
 11
10.091732
 21
-62.158245
  0
LINE
  8
0
  6
CONTINUOUS
 62
     7
 10
9.591732
 20
-63.158245
 11
10.091732
 21
-63.158245
  0
LINE
  8
0
  6
CONTINUOUS
 62
     7
 10
7.5917315
 20
-60.658245
 11
7.5917315
 21
-61.158245
  0
LINE
  8
0
  6
CONTINUOUS
 62
     7
 10
8.591732
 20
-60.658245
 11
8.591732
 21
-61.158245
  0
LINE
  8
0
  6
CONTINUOUS
 62
     7
 10
8.591732
 20
-64.158241
 11
8.591732
 21
-64.658241
  0
LINE
  8
0
  6
CONTINUOUS
 62
     7
 10
6.0917315
 20
-62.158245
 11
6.5917315
 21
-62.158245
  0
LINE
  8
0
  6
CONTINUOUS
 62
     7
 10
7.5917315
 20
-64.158241
 11
7.5917315
 21
-64.658241
  0
LINE
  8
0
  6
PHANTOM
 62
     7
 10
145.59174
 20
32.341755
 11
145.59174
 21
27.341755
  0
LINE
  8
0
  6
CONTINUOUS
 62
     7
 10
145.59174
 20
-87.658241
 11
147.09174
 21
-87.658241
  0
LINE
  8
0
  6
CONTINUOUS
 62
     7
 10
145.59174
 20
32.341755
 11
147.09174
 21
32.341755
  0
LINE
  8
0
  6
PHANTOM
 62
     7
 10
145.59174
 20
-82.658241
 11
145.59174
 21
-87.658241
  0
LINE
  8
0
  6
CONTINUOUS
 62
     7
 10
145.59174
 20
32.341755
 11
145.59174
 21
12.341756
  0
LINE
  8
0
  6
CONTINUOUS
 62
     7
 10
131.09174
 20
12.728208
 11
131.09174
 21
-68.044693
  0
LINE
  8
0
  6
CONTINUOUS
 62
     7
 10
124.09173
 20
12.7282
 11
124.09173
 21
-68.044693
  0
LINE
  8
0
  6
CENTER
 62
     7
 10
-24.908268
 20
-27.658245
 11
41.091732
 21
-27.658245
  0
LINE
  8
0
  6
CONTINUOUS
 62
     7
 10
109.59173
 20
26.341755
 11
110.39173
 21
26.341755
  0
LINE
  8
0
  6
CONTINUOUS
 62
     7
 10
108.09173
 20
12.341756
 11
111.09173
 21
12.341756
  0
LINE
  8
0
  6
CONTINUOUS
 62
     7
 10
108.09173
 20
-67.658241
 11
111.09173
 21
-67.658241
  0
LINE
  8
0
  6
CONTINUOUS
 62
     7
 10
144.09174
 20
12.341756
 11
147.09174
 21
12.341756
  0
LINE
  8
0
  6
CONTINUOUS
 62
     7
 10
144.09174
 20
-67.658241
 11
147.09174
 21
-67.658241
  0
LINE
  8
0
  6
CONTINUOUS
 62
     7
 10
145.59174
 20
-67.658241
 11
145.59174
 21
-87.658241
  0
LINE
  8
0
  6
CONTINUOUS
 62
     7
 10
109.59173
 20
-67.658241
 11
109.59173
 21
-87.658241
  0
LINE
  8
0
  6
CONTINUOUS
 62
     7
 10
126.39173
 20
18.591755
 11
126.39173
 21
-73.908241
  0
LINE
  8
0
  6
CONTINUOUS
 62
     7
 10
121.62968
 20
15.341756
 11
121.62968
 21
15.341756
  0
LINE
  8
0
  6
CONTINUOUS
 62
     7
 10
144.09174
 20
-81.658241
 11
145.59174
 21
-81.658241
  0
LINE
  8
0
  6
CONTINUOUS
 62
     7
 10
144.09174
 20
26.341755
 11
145.59174
 21
26.341755
  0
LINE
  8
0
  6
CONTINUOUS
 62
     7
 10
127.89173
 20
20.091755
 11
144.09174
 21
20.091755
  0
LINE
  8
0
  6
CONTINUOUS
 62
     7
 10
127.89173
 20
-75.408241
 11
144.09174
 21
-75.408241
  0
LINE
  8
0
  6
CONTINUOUS
 62
     7
 10
144.09174
 20
-75.408241
 11
144.09174
 21
-81.658241
  0
LINE
  8
0
  6
CONTINUOUS
 62
     7
 10
144.09174
 20
26.341755
 11
144.09174
 21
20.091755
  0
LINE
  8
0
  6
CONTINUOUS
 62
     7
 10
127.89173
 20
18.591755
 11
127.89173
 21
-73.908241
  0
LINE
  8
0
  6
CONTINUOUS
 62
     7
 10
127.89173
 20
18.591755
 11
144.09174
 21
18.591755
  0
LINE
  8
0
  6
CONTINUOUS
 62
     7
 10
127.89173
 20
-73.908241
 11
144.09174
 21
-73.908241
  0
LINE
  8
0
  6
CONTINUOUS
 62
     7
 10
144.09174
 20
26.341755
 11
144.09174
 21
20.091755
  0
LINE
  8
0
  6
CONTINUOUS
 62
     7
 10
144.09174
 20
12.341756
 11
144.09174
 21
-67.658241
  0
LINE
  8
0
  6
CONTINUOUS
 62
     7
 10
111.09173
 20
12.341756
 11
111.09173
 21
-67.658241
  0
LINE
  8
0
  6
CONTINUOUS
 62
     7
 10
124.89173
 20
-60.658245
 11
126.39173
 21
-60.658245
  0
LINE
  8
0
  6
CONTINUOUS
 62
     7
 10
133.69908
 20
15.521566
 11
144.79173
 21
16.286575
  0
LINE
  8
0
  6
CONTINUOUS
 62
     7
 10
133.6991
 20
-70.838066
 11
144.79173
 21
-71.603073
  0
LINE
  8
0
  6
CONTINUOUS
 62
     7
 10
144.79173
 20
-67.658241
 11
144.79173
 21
-73.908241
  0
LINE
  8
0
  6
CONTINUOUS
 62
     7
 10
128.89172
 20
10.341756
 11
128.89172
 21
4.3417554
  0
LINE
  8
0
  6
CONTINUOUS
 62
     7
 10
144.79173
 20
-73.908241
 11
145.59174
 21
-73.908241
  0
LINE
  8
0
  6
CONTINUOUS
 62
     7
 10
144.79173
 20
18.765102
 11
144.79173
 21
12.341756
  0
LINE
  8
0
  6
CONTINUOUS
 62
     7
 10
110.39173
 20
-71.603073
 11
121.48438
 21
-70.838066
  0
LINE
  8
0
  6
CONTINUOUS
 62
     7
 10
110.39173
 20
16.286573
 11
121.48438
 21
15.521563
  0
LINE
  8
0
  6
CONTINUOUS
 62
     7
 10
109.59173
 20
-81.658241
 11
110.39173
 21
-81.658241
  0
LINE
  8
0
  6
CONTINUOUS
 62
     7
 10
110.39173
 20
-67.658241
 11
110.39173
 21
-81.658241
  0
LINE
  8
0
  6
CONTINUOUS
 62
     7
 10
110.39173
 20
26.341755
 11
110.39173
 21
12.341756
  0
LINE
  8
0
  6
CONTINUOUS
 62
     7
 10
124.89173
 20
-64.658241
 11
126.39173
 21
-64.658241
  0
LINE
  8
0
  6
CONTINUOUS
 62
     7
 10
124.89173
 20
9.3417559
 11
126.39173
 21
9.3417559
  0
LINE
  8
0
  6
CONTINUOUS
 62
     7
 10
124.89173
 20
5.3417554
 11
126.39173
 21
5.3417554
  0
LINE
  8
0
  6
CONTINUOUS
 62
     7
 10
124.89173
 20
8.6417589
 11
126.39173
 21
8.6417589
  0
LINE
  8
0
  6
CONTINUOUS
 62
     7
 10
124.89173
 20
6.0417523
 11
126.39173
 21
6.0417523
  0
LINE
  8
0
  6
CONTINUOUS
 62
     7
 10
124.89173
 20
-63.958244
 11
126.39173
 21
-63.958244
  0
LINE
  8
0
  6
CONTINUOUS
 62
     7
 10
124.89173
 20
-61.358246
 11
126.39173
 21
-61.358246
  0
LINE
  8
0
  6
CONTINUOUS
 62
     7
 10
129.39172
 20
9.3417559
 11
129.39172
 21
5.3417554
  0
LINE
  8
0
  6
CONTINUOUS
 62
     7
 10
129.39172
 20
-60.658245
 11
129.39172
 21
-64.658241
  0
LINE
  8
0
  6
CONTINUOUS
 62
     7
 10
127.89173
 20
4.3417554
 11
128.89172
 21
4.3417554
  0
LINE
  8
0
  6
CONTINUOUS
 62
     7
 10
127.89173
 20
10.341756
 11
128.89172
 21
10.341756
  0
LINE
  8
0
  6
CONTINUOUS
 62
     7
 10
127.89173
 20
-65.658241
 11
128.89172
 21
-65.658241
  0
LINE
  8
0
  6
CONTINUOUS
 62
     7
 10
127.89173
 20
-59.658245
 11
128.89172
 21
-59.658245
  0
LINE
  8
0
  6
CONTINUOUS
 62
     7
 10
124.09173
 20
-65.458244
 11
124.89173
 21
-64.658241
  0
LINE
  8
0
  6
CONTINUOUS
 62
     7
 10
124.09174
 20
10.141769
 11
124.89174
 21
9.3417702
  0
LINE
  8
0
  6
CONTINUOUS
 62
     7
 10
124.89173
 20
9.3417559
 11
124.89173
 21
5.3417554
  0
LINE
  8
0
  6
CONTINUOUS
 62
     7
 10
124.09172
 20
4.5417609
 11
124.89172
 21
5.3417659
  0
LINE
  8
0
  6
CONTINUOUS
 62
     7
 10
124.09172
 20
-59.858234
 11
124.89173
 21
-60.658241
  0
LINE
  8
0
  6
CONTINUOUS
 62
     7
 10
124.89173
 20
-60.658245
 11
124.89173
 21
-64.658241
  0
LINE
  8
0
  6
CONTINUOUS
 62
     7
 10
145.59174
 20
131.19176
 11
147.09174
 21
131.19176
  0
LINE
  8
0
  6
CONTINUOUS
 62
     7
 10
145.59174
 20
71.191757
 11
147.09174
 21
71.191757
  0
LINE
  8
0
  6
CONTINUOUS
 62
     7
 10
109.59173
 20
125.19176
 11
110.39173
 21
125.19176
  0
LINE
  8
0
  6
CONTINUOUS
 62
     7
 10
109.59173
 20
77.191757
 11
110.39173
 21
77.191757
  0
LINE
  8
0
  6
CONTINUOUS
 62
     7
 10
144.79173
 20
125.19176
 11
144.79173
 21
116.19176
  0
LINE
  8
0
  6
CONTINUOUS
 62
     7
 10
110.39173
 20
125.19176
 11
110.39173
 21
77.191757
  0
LINE
  8
0
  6
CONTINUOUS
 62
     7
 10
131.09174
 20
116.69176
 11
131.09174
 21
116.19176
  0
LINE
  8
0
  6
CONTINUOUS
 62
     7
 10
111.89173
 20
119.49176
 11
121.29173
 21
119.49176
  0
LINE
  8
0
  6
CONTINUOUS
 62
     7
 10
111.89173
 20
82.891754
 11
121.29173
 21
82.891754
  0
LINE
  8
0
  6
CONTINUOUS
 62
     7
 10
124.09173
 20
116.69176
 11
124.09173
 21
85.691757
  0
LINE
  8
0
  6
CONTINUOUS
 62
     7
 10
133.89172
 20
119.49176
 11
143.29173
 21
119.49176
  0
LINE
  8
0
  6
CONTINUOUS
 62
     7
 10
133.89172
 20
82.891754
 11
143.29173
 21
82.891754
  0
LINE
  8
0
  6
CONTINUOUS
 62
     7
 10
144.79173
 20
125.19176
 11
145.59174
 21
125.19176
  0
LINE
  8
0
  6
CONTINUOUS
 62
     7
 10
144.79173
 20
77.191757
 11
145.59174
 21
77.191757
  0
LINE
  8
0
  6
CONTINUOUS
 62
     7
 10
144.79173
 20
116.44176
 11
145.59174
 21
116.44176
  0
LINE
  8
0
  6
CONTINUOUS
 62
     7
 10
144.79173
 20
85.941757
 11
145.59174
 21
85.941757
  0
LINE
  8
0
  6
CONTINUOUS
 62
     7
 10
126.39173
 20
86.191757
 11
145.59174
 21
86.191757
  0
LINE
  8
0
  6
CONTINUOUS
 62
     7
 10
126.39173
 20
116.19176
 11
145.59174
 21
116.19176
  0
LINE
  8
0
  6
CONTINUOUS
 62
     7
 10
126.39173
 20
116.19176
 11
126.39173
 21
86.191757
  0
LINE
  8
0
  6
CONTINUOUS
 62
     7
 10
144.09174
 20
116.19176
 11
144.09174
 21
86.191757
  0
LINE
  8
0
  6
CONTINUOUS
 62
     7
 10
144.79173
 20
86.191757
 11
144.79173
 21
77.191757
  0
LINE
  8
0
  6
CONTINUOUS
 62
     7
 10
131.09174
 20
86.191757
 11
131.09174
 21
85.691757
  0
LINE
  8
0
  6
CONTINUOUS
 62
     7
 10
124.89173
 20
103.19174
 11
124.89173
 21
99.191757
  0
LINE
  8
0
  6
CONTINUOUS
 62
     7
 10
124.09173
 20
103.99174
 11
124.89173
 21
103.19174
  0
LINE
  8
0
  6
CONTINUOUS
 62
     7
 10
124.89173
 20
99.191765
 11
124.09173
 21
98.391754
  0
LINE
  8
0
  6
CONTINUOUS
 62
     7
 10
124.89173
 20
99.191757
 11
126.39173
 21
99.191757
  0
LINE
  8
0
  6
CONTINUOUS
 62
     7
 10
124.89173
 20
103.19176
 11
126.39173
 21
103.19176
  0
LINE
  8
0
  6
CONTINUOUS
 62
     7
 10
124.89173
 20
102.49176
 11
126.39173
 21
102.49176
  0
LINE
  8
0
  6
CONTINUOUS
 62
     7
 10
124.89173
 20
99.891754
 11
126.39173
 21
99.891754
  0
LINE
  8
0
  6
CONTINUOUS
 62
     7
 10
109.59173
 20
12.341756
 11
109.59173
 21
-67.658241
  0
LINE
  8
0
  6
CONTINUOUS
 62
     7
 10
145.59174
 20
12.341756
 11
145.59174
 21
-67.658241
  0
LINE
  8
0
  6
CONTINUOUS
 62
     7
 10
144.79173
 20
18.765102
 11
145.59174
 21
18.765102
  0
LINE
  8
0
  6
CONTINUOUS
 62
     7
 10
128.89172
 20
-59.658245
 11
128.89172
 21
-65.658241
  0
LINE
  8
0
  6
CONTINUOUS
 62
     7
 10
128.89172
 20
-64.658241
 11
129.39172
 21
-64.658241
  0
LINE
  8
0
  6
CONTINUOUS
 62
     7
 10
128.89172
 20
-60.658245
 11
129.39172
 21
-60.658245
  0
LINE
  8
0
  6
CONTINUOUS
 62
     7
 10
128.89172
 20
9.3417559
 11
129.39172
 21
9.3417559
  0
LINE
  8
0
  6
CONTINUOUS
 62
     7
 10
128.89172
 20
5.3417554
 11
129.39172
 21
5.3417554
  0
LINE
  8
0
  6
CENTER
 62
     7
 10
105.09173
 20
-27.658245
 11
150.09174
 21
-27.658245
  0
LINE
  8
0
  6
CENTER
 62
     7
 10
8.091732
 20
13.341756
 11
8.091732
 21
1.3417554
  0
LINE
  8
0
  6
CENTER
 62
     7
 10
2.0917318
 20
7.3417554
 11
14.091732
 21
7.3417554
  0
LINE
  8
0
  6
CENTER
 62
     7
 10
8.091732
 20
-56.658245
 11
8.091732
 21
-68.658241
  0
LINE
  8
0
  6
CENTER
 62
     7
 10
2.0917318
 20
-62.658245
 11
14.091732
 21
-62.658245
  0
LINE
  8
0
  6
CENTER
 62
     7
 10
-124.90827
 20
-27.658245
 11
-58.908268
 21
-27.658245
  0
LINE
  8
0
  6
CENTER
 62
     7
 10
-91.908272
 20
30.341755
 11
-91.908272
 21
-85.658241
  0
LINE
  8
0
  6
CONTINUOUS
 62
     7
 10
-116.90827
 20
27.341755
 11
-116.90827
 21
-82.658241
  0
LINE
  8
0
  6
CONTINUOUS
 62
     7
 10
-66.908272
 20
27.341755
 11
-66.908272
 21
-82.658241
  0
LINE
  8
0
  6
CONTINUOUS
 62
     7
 10
-116.90827
 20
27.341755
 11
-66.908272
 21
27.341755
  0
LINE
  8
0
  6
CONTINUOUS
 62
     7
 10
-116.90827
 20
-82.658241
 11
-66.908272
 21
-82.658241
  0
ARC
  8
0
  6
CONTINUOUS
 62
     7
 10
-20.908268
 20
31.341755
 40
1
 50
90
 51
180
  0
ARC
  8
0
  6
CONTINUOUS
 62
     7
 10
37.091732
 20
31.341755
 40
1
 50
0
 51
90
  0
ARC
  8
0
  6
CONTINUOUS
 62
     7
 10
-20.908268
 20
-86.658241
 40
1
 50
180
 51
270
  0
ARC
  8
0
  6
CONTINUOUS
 62
     7
 10
37.091732
 20
-86.658241
 40
1
 50
270
 51
360
  0
CIRCLE
  8
0
  6
CONTINUOUS
 62
     7
 10
8.091732
 20
-62.658245
 40
3
  0
CIRCLE
  8
0
  6
CONTINUOUS
 62
     7
 10
8.091732
 20
7.3417554
 40
3
  0
ARC
  8
0
  6
CONTINUOUS
 62
     7
 10
6.0917315
 20
7.3417554
 40
0.5
 50
90
 51
270
  0
ARC
  8
0
  6
CONTINUOUS
 62
     7
 10
8.091732
 20
9.3417559
 40
0.5
 50
0
 51
180
  0
ARC
  8
0
  6
CONTINUOUS
 62
     7
 10
10.091732
 20
7.3417554
 40
0.5
 50
270
 51
90
  0
ARC
  8
0
  6
CONTINUOUS
 62
     7
 10
8.091732
 20
5.3417554
 40
0.5
 50
180
 51
360
  0
ARC
  8
0
  6
CONTINUOUS
 62
     7
 10
6.5917315
 20
5.8417554
 40
1
 50
0
 51
89.999973
  0
ARC
  8
0
  6
CONTINUOUS
 62
     7
 10
9.591732
 20
8.8417559
 40
1
 50
180
 51
270.00005
  0
ARC
  8
0
  6
CONTINUOUS
 62
     7
 10
9.591732
 20
5.8417554
 40
1
 50
90
 51
179.99997
  0
ARC
  8
0
  6
CONTINUOUS
 62
     7
 10
6.5917315
 20
8.8417559
 40
1
 50
270.00003
 51
360
  0
ARC
  8
0
  6
CONTINUOUS
 62
     7
 10
10.091732
 20
-62.658245
 40
0.5
 50
270
 51
90
  0
ARC
  8
0
  6
CONTINUOUS
 62
     7
 10
8.091732
 20
-60.658245
 40
0.5
 50
0
 51
180
  0
ARC
  8
0
  6
CONTINUOUS
 62
     7
 10
6.0917315
 20
-62.658245
 40
0.5
 50
90
 51
270
  0
ARC
  8
0
  6
CONTINUOUS
 62
     7
 10
8.091732
 20
-64.658241
 40
0.5
 50
180
 51
360
  0
ARC
  8
0
  6
CONTINUOUS
 62
     7
 10
6.5917315
 20
-64.158241
 40
1
 50
0
 51
89.999973
  0
ARC
  8
0
  6
CONTINUOUS
 62
     7
 10
9.591732
 20
-61.158245
 40
1
 50
180
 51
270.00005
  0
ARC
  8
0
  6
CONTINUOUS
 62
     7
 10
9.591732
 20
-64.158241
 40
1
 50
90
 51
180
  0
ARC
  8
0
  6
CONTINUOUS
 62
     7
 10
6.5917315
 20
-61.158245
 40
1
 50
270.00003
 51
360
  0
ARC
  8
0
  6
CONTINUOUS
 62
     7
 10
121.29173
 20
-68.044693
 40
2.8
 50
273.94527
 51
360
  0
ARC
  8
0
  6
CONTINUOUS
 62
     7
 10
133.89174
 20
-68.044693
 40
2.8
 50
180
 51
266.05489
  0
ARC
  8
0
  6
CONTINUOUS
 62
     7
 10
127.89173
 20
-73.908241
 40
1.5
 50
180
 51
270
  0
ARC
  8
0
  6
CONTINUOUS
 62
     7
 10
127.89173
 20
18.591755
 40
1.5
 50
90
 51
180
  0
ARC
  8
0
  6
CONTINUOUS
 62
     7
 10
144.09174
 20
-75.408241
 40
1.5
 50
0
 51
90
  0
ARC
  8
0
  6
CONTINUOUS
 62
     7
 10
144.09174
 20
20.091755
 40
1.5
 50
270
 51
360
  0
ARC
  8
0
  6
CONTINUOUS
 62
     7
 10
121.29173
 20
12.7282
 40
2.8
 50
0
 51
86.054888
  0
ARC
  8
0
  6
CONTINUOUS
 62
     7
 10
133.89174
 20
12.728208
 40
2.8
 50
93.945112
 51
179.99996
  0
ARC
  8
0
  6
CONTINUOUS
 62
     7
 10
-4.9082685
 20
-69.158241
 40
1.5
 50
89.999982
 51
270
  0
ARC
  8
0
  6
CONTINUOUS
 62
     7
 10
21.091732
 20
-69.158241
 40
1.5
 50
270
 51
90
  0
ARC
  8
0
  6
CONTINUOUS
 62
     7
 10
21.091732
 20
13.841756
 40
1.5
 50
270
 51
90
  0
ARC
  8
0
  6
CONTINUOUS
 62
     7
 10
-4.9082685
 20
13.841756
 40
1.5
 50
89.999982
 51
270
  0
ARC
  8
0
  6
CONTINUOUS
 62
     7
 10
121.29173
 20
116.69176
 40
2.8
 50
0
 51
90
  0
ARC
  8
0
  6
CONTINUOUS
 62
     7
 10
121.29173
 20
85.691757
 40
2.8
 50
270
 51
360
  0
ARC
  8
0
  6
CONTINUOUS
 62
     7
 10
133.89172
 20
116.69176
 40
2.8
 50
90
 51
180
  0
ARC
  8
0
  6
CONTINUOUS
 62
     7
 10
133.89172
 20
85.691757
 40
2.8
 50
180
 51
270
  0
ARC
  8
0
  6
CONTINUOUS
 62
     7
 10
111.89173
 20
120.99176
 40
1.5
 50
180
 51
270
  0
ARC
  8
0
  6
CONTINUOUS
 62
     7
 10
111.89173
 20
81.391754
 40
1.5
 50
90
 51
180
  0
ARC
  8
0
  6
CONTINUOUS
 62
     7
 10
143.29173
 20
81.391754
 40
1.5
 50
0
 51
90
  0
ARC
  8
0
  6
CONTINUOUS
 62
     7
 10
143.29173
 20
120.99176
 40
1.5
 50
270
 51
360
  0
CIRCLE
  8
0
  6
CONTINUOUS
 62
     7
 10
-159.04744
 20
120.81508
 40
1.5
  0
CIRCLE
  8
0
  6
CONTINUOUS
 62
     7
 10
-161.00557
 20
112.78677
 40
1.5
  0
TEXT
  8
0
  6
CONTINUOUS
 62
     7
 10
-205.343
 20
167.4
 40
3.2
 41
0.85537027
  1
品　名
  0
TEXT
  8
0
  6
CONTINUOUS
 62
     7
 10
-205.343
 20
159.4
 40
3.2
 41
0.85537027
  1
品　番
  0
TEXT
  8
0
  6
CONTINUOUS
 62
     7
 10
-188.143
 20
87.4
 40
3.2
 41
0.90047268
  1
＊
  0
TEXT
  8
0
  6
CONTINUOUS
 62
     7
 10
-188.143
 20
79.4
 40
3.2
 41
0.90047268
  1
＊
  0
TEXT
  8
0
  6
CONTINUOUS
 62
     7
 10
-188.143
 20
167.4
 40
3.2
 41
0.84892707
  1
引戸用引手
  0
TEXT
  8
0
  6
CONTINUOUS
 62
     7
 10
-205.343
 20
151.4
 40
3.2
 41
0.85537027
  1
材　質
  0
TEXT
  8
0
  6
CONTINUOUS
 62
     7
 10
-205.343
 20
143.4
 40
3.2
 41
0.85537027
  1
仕上げ
  0
TEXT
  8
0
  6
CONTINUOUS
 62
     7
 10
-188.143
 20
103.4
 40
3.2
 41
0.90047268
  1
＊
  0
TEXT
  8
0
  6
CONTINUOUS
 62
     7
 10
-188.03105
 20
111.4
 40
3.2
 41
0.75933985
  1
Ｍ４×６サラ小ネジ＋ＳＵＳ　　２本付（Ｄｔ＝３６ｍｍ用）
  0
TEXT
  8
0
  6
CONTINUOUS
 62
     7
 10
-208.543
 20
119.4
 40
3.2
 41
0.84892707
  1
セットビス
  0
TEXT
  8
0
  6
CONTINUOUS
 62
     7
 10
-187.99515
 20
119.4
 40
3.2
 41
0.73285128
  1
Ｍ４×１０サラ小ネジ＋ＳＵＳ　　２本付（Ｄｔ＝４０ｍｍ用）
  0
TEXT
  8
0
  6
CONTINUOUS
 62
     7
 10
-188.143
 20
143.4
 40
3.2
 41
0.84741102
  1
ヘアーライン
  0
TEXT
  8
0
  6
CONTINUOUS
 62
     7
 10
-203.743
 20
95.4
 40
3.2
 41
0.86439075
  1
備考
  0
TEXT
  8
0
  6
CONTINUOUS
 62
     7
 10
-188.143
 20
151.4
 40
3.2
 41
0.84892707
  1
ステンレス
  0
TEXT
  8
0
  6
CONTINUOUS
 62
     7
 10
-188.143
 20
159.4
 40
3.2
 41
1.0348628
  1
SU-60
  0
TEXT
  8
0
  6
CONTINUOUS
 62
     7
 10
-205.343
 20
135.4
 40
3.2
 41
0.85537027
  1
定　尺
  0
TEXT
  8
0
  6
CONTINUOUS
 62
     7
 10
-206.943
 20
127.4
 40
3.2
 41
0.85127005
  1
左右勝手
  0
TEXT
  8
0
  6
CONTINUOUS
 62
     7
 10
-188.37853
 20
134.96998
 40
3.2
 41
0.90047268
  1
＊
  0
TEXT
  8
0
  6
CONTINUOUS
 62
     7
 10
-188.37853
 20
127.36617
 40
3.2
 41
0.86439075
  1
無し
  0
TEXT
  8
0
  6
CONTINUOUS
 62
     7
 10
-103.79392
 20
-94.00715
 40
3.2
 41
0.84741102
  1
切欠推奨寸法
  0
INSERT
  8
0
  6
CONTINUOUS
 62
     7
  2
KOZU0001
 10
0
 20
0
  0
DIMENSION
  8
0
  6
CONTINUOUS
 62
     7
  2
*D1
 70
     0
 10
38.091732
 20
52.341755
 11
8.091732
 21
52.341755
  3
DIMSTYLE
 13
-21.908268
 23
31.341755
 14
38.091732
 24
31.341755
 50
0
1001
ACAD
1000
DSTYLE
1002
{
1070
    77
1070
     1
1070
   172
1070
     1
1002
}
  0
DIMENSION
  8
0
  6
CONTINUOUS
 62
     7
  2
*D2
 70
     0
 10
-4.9082685
 20
42.341755
 11
-13.408268
 21
42.341755
  3
DIMSTYLE
 13
-21.908268
 23
31.341755
 14
-4.9082685
 24
12.341756
 50
0
1001
ACAD
1000
DSTYLE
1002
{
1070
    77
1070
     1
1070
   172
1070
     1
1002
}
  0
DIMENSION
  8
0
  6
CONTINUOUS
 62
     7
  2
*D3
 70
     0
 10
21.091732
 20
42.341755
 11
8.091732
 21
42.341755
  3
DIMSTYLE
 13
-4.9082685
 23
12.341756
 14
21.091732
 24
12.341756
 50
0
1001
ACAD
1000
DSTYLE
1002
{
1070
    77
1070
     1
1070
   172
1070
     1
1002
}
  0
DIMENSION
  8
0
  6
CONTINUOUS
 62
     7
  2
*D4
 70
     0
 10
38.091732
 20
42.341755
 11
29.591732
 21
42.341755
  3
DIMSTYLE
 13
21.091732
 23
12.341756
 14
38.091732
 24
31.341755
 50
0
1001
ACAD
1000
DSTYLE
1002
{
1070
    77
1070
     1
1070
   172
1070
     1
1002
}
  0
DIMENSION
  8
0
  6
CONTINUOUS
 62
     7
  2
*D5
 70
     0
 10
-31.908268
 20
15.341756
 11
-31.908268
 21
23.841755
  3
DIMSTYLE
 13
-20.908268
 23
32.341755
 14
-4.9082685
 24
15.341756
 50
90
1001
ACAD
1000
DSTYLE
1002
{
1070
    77
1070
     1
1070
   172
1070
     1
1002
}
  0
DIMENSION
  8
0
  6
CONTINUOUS
 62
     7
  2
*D6
 70
     0
 10
-31.908268
 20
-70.658241
 11
-31.908268
 21
-27.658245
  3
DIMSTYLE
 13
-4.9082685
 23
15.341756
 14
-4.9082685
 24
-70.658241
 50
90
1001
ACAD
1000
DSTYLE
1002
{
1070
     6
1000
_NONE
1070
    77
1070
     1
1070
   172
1070
     1
1070
    75
1070
     1
1002
}
  0
DIMENSION
  8
0
  6
CONTINUOUS
 62
     7
  2
*D7
 70
     0
 10
-31.908268
 20
-87.658241
 11
-31.908268
 21
-79.158241
  3
DIMSTYLE
 13
-4.9082685
 23
-70.658241
 14
-20.908268
 24
-87.658241
 50
90
1001
ACAD
1000
DSTYLE
1002
{
1070
     6
1000
_NONE
1070
    77
1070
     1
1070
   172
1070
     1
1070
    75
1070
     1
1002
}
  0
DIMENSION
  8
0
  6
CONTINUOUS
 62
     7
  2
*D8
 70
     0
 10
-41.908268
 20
-87.658241
 11
-41.908268
 21
-27.658245
  3
DIMSTYLE
 13
-20.908268
 23
32.341755
 14
-20.908268
 24
-87.658241
 50
90
1001
ACAD
1000
DSTYLE
1002
{
1070
    77
1070
     1
1070
   172
1070
     1
1002
}
  0
DIMENSION
  8
0
  6
CONTINUOUS
 62
     7
  2
*D9
 70
     0
 10
53.091732
 20
-62.658245
 11
53.091732
 21
-27.658245
  3
DIMSTYLE
 13
14.091732
 23
7.3417554
 14
14.091732
 24
-62.658245
 50
90
1001
ACAD
1000
DSTYLE
1002
{
1070
    77
1070
     1
1070
   172
1070
     1
1002
}
  0
DIMENSION
  8
0
  6
CONTINUOUS
 62
     7
  2
*D10
 70
     0
 10
109.59173
 20
141.13504
 11
102.36906
 21
141.13504
  3
DIMSTYLE
 13
108.09173
 23
131.19176
 14
109.59173
 24
131.19176
 50
0
1001
ACAD
1000
DSTYLE
1002
{
1070
    77
1070
     1
1070
   172
1070
     1
1002
}
  0
DIMENSION
  8
0
  6
CONTINUOUS
 62
     7
  2
*D11
 70
     0
 10
109.59173
 20
141.13504
 11
117.24173
 21
141.13504
  3
DIMSTYLE
 13
124.89173
 23
103.19174
 14
109.59173
 24
131.19176
 50
0
1001
ACAD
1000
DSTYLE
1002
{
1070
    77
1070
     1
1070
   172
1070
     1
1070
    76
1070
     1
1002
}
  0
DIMENSION
  8
0
  6
CONTINUOUS
 62
     7
  2
*D12
 70
     0
 10
145.59174
 20
141.13504
 11
135.99173
 21
141.13504
  3
DIMSTYLE
 13
126.39173
 23
116.19176
 14
145.59174
 24
131.19176
 50
0
1001
ACAD
1000
DSTYLE
1002
{
1070
    77
1070
     1
1070
   172
1070
     1
1002
}
  0
DIMENSION
  8
0
  6
CONTINUOUS
 62
     7
  2
*D13
 70
     0
 10
147.09174
 20
141.13504
 11
151.50305
 21
141.13504
  3
DIMSTYLE
 13
145.59174
 23
131.19176
 14
147.09174
 24
131.19176
 50
0
1001
ACAD
1000
DSTYLE
1002
{
1070
    77
1070
     1
1070
   172
1070
     1
1002
}
  0
DIMENSION
  8
0
  6
CONTINUOUS
 62
     7
  2
*D14
 70
     0
 10
-126.90827
 20
-82.658241
 11
-126.90827
 21
-27.658245
  3
DIMSTYLE
 13
-116.90827
 23
27.341755
 14
-116.90827
 24
-82.658241
 50
90
1001
ACAD
1000
DSTYLE
1002
{
1070
    77
1070
     1
1070
   172
1070
     1
1002
}
  0
DIMENSION
  8
0
  6
CONTINUOUS
 62
     7
  2
*D15
 70
     0
 10
-66.908272
 20
37.341755
 11
-91.908272
 21
37.341755
  3
DIMSTYLE
 13
-116.90827
 23
27.341755
 14
-66.908272
 24
27.341755
 50
0
1001
ACAD
1000
DSTYLE
1002
{
1070
    77
1070
     1
1070
   172
1070
     1
1002
}
  0
DIMENSION
  8
0
  6
CONTINUOUS
 62
     7
  2
*D16
 70
     0
 10
145.59174
 20
48.23946
 11
127.59174
 21
48.23946
  3
DIMSTYLE
 13
109.59173
 23
32.341755
 14
145.59174
 24
32.341755
 50
0
1001
ACAD
1000
DSTYLE
1002
{
1070
    77
1070
     1
1070
   172
1070
     1
1002
}
  0
ENDSEC
  0
EOF
