  0
SECTION
  2
HEADER
  9
$EXTMAX
 10
170
 20
173
 30
0
  9
$EXTMIN
 10
-211
 20
-100
 30
0
  9
$LIMMAX
 10
170
 20
173
  9
$LIMMIN
 10
-211
 20
-100
  9
$PLIMMAX
 10
170
 20
173
  9
$PLIMMIN
 10
-211
 20
-100
  9
$TEXTSIZE
 40
3.2
  9
$DIMSHO
 70
     0
  9
$DIMASZ
 40
1.0
  9
$DIMTAD
 70
     1
  9
$DIMTIH
 70
     0
  9
$DIMTOH
 70
     0
  9
$DIMEXE
 40
2.54
  9
$DIMEXO
 40
2.54
  9
$DIMTVP
 40
1.0
  9
$DIMSAH
 70
     1
  9
$DIMDLE
 40
0.0
  9
$DIMTXT
 40
3.2
  9
$DIMGAP
 40
1.6
  0
ENDSEC
  0
SECTION
  2
TABLES
  0
TABLE
  2
LTYPE
 70
     6
  0
LTYPE
  2
CONTINUOUS
 70
    64
  3
Solid line
 72
    65
 73
     0
 40
0.0
  0
LTYPE
  2
DASHED
 70
    64
  3
__ __ __ __ __ __ __ __ __ __ __ __ __ __ __
 72
    65
 73
     2
 40
3.5
 49
2.0
 49
-1.5
  0
LTYPE
  2
CENTER
 70
    64
  3
____ _ ____ _ ____ _ ____ _ ____ _ ____ _ ____
 72
    65
 73
     4
 40
17.5
 49
13.0
 49
-1.5
 49
1.5
 49
-1.5
  0
LTYPE
  2
PHANTOM
 70
    64
  3
_____ _ _ _____ _ _ _____ _ _ _____ _ _ ____  
 72
    65
 73
     6
 40
15.5
 49
8.0
 49
-1.5
 49
1.5
 49
-1.5
 49
1.5
 49
-1.5
  0
LTYPE
  2
DOT
 70
    64
  3
. . . . . . . . . . . . . . . . . . . . . . . .
 72
    65
 73
     2
 40
0.25
 49
0.0
 49
-0.25
  0
LTYPE
  2
HIDDEN
 70
    64
  3
__ __ __ __ __ __ __ __ __ __ __ __ __ __ __
 72
    65
 73
     2
 40
3.5
 49
2.0
 49
-1.5
  0
ENDTAB
  0
TABLE
  2
LAYER
 70
     4
  0
LAYER
  2
0
 70
     0
 62
     7
  6
CONTINUOUS
  0
LAYER
  2
1
 70
     0
 62
     7
  6
CONTINUOUS
  0
LAYER
  2
2
 70
     0
 62
     7
  6
CONTINUOUS
  0
LAYER
  2
DEFPOINTS
 70
     0
 62
     7
  6
CONTINUOUS
  0
ENDTAB
  0
TABLE
  2
STYLE
 70
     1
  0
STYLE
  2
STANDARD
 70
     0
 40
0.0
 41
1.0
 50
0.0
 71
     0
 42
0.2
  3
txt
  4
BIGFONT
  0
ENDTAB
  0
TABLE
  2
DIMSTYLE
 70
     1
  0
DIMSTYLE
  2
DIMSTYLE
 70
     0
  3

  4

  5
_DOT
  6
_DOT
  7
_DOT
 40
1
 41
1
 42
2.54
 43
0.38
 44
2.54
 45
0
 46
0
 47
0
 48
0
140
3.2
141
0.09
142
0
143
25.4
144
1
145
0
146
1
147
1.6
 71
     0
 72
     0
 73
     0
 74
     0
 75
     0
 76
     0
 78
     0
170
     0
171
     2
 77
     0
172
     0
173
     1
174
     0
175
     0
176
     0
177
     0
178
     0
  0
ENDTAB
  0
ENDSEC
  0
SECTION
  2
BLOCKS
  0
BLOCK
  8
0
  2
_DOT
 70
    64
 10
0
 20
0
  3
_DOT
  0
POLYLINE
  8
0
  6
BYBLOCK
 62
     0
 66
     1
 10
0
 20
0
 70
     1
 40
0.40000001
 41
0.40000001
  0
VERTEX
  8
0
  6
BYBLOCK
 62
     0
 10
-0.2
 20
0
 42
1
  0
VERTEX
  8
0
  6
BYBLOCK
 62
     0
 10
0.2
 20
0
 42
1
  0
SEQEND
  8
0
  6
BYBLOCK
 62
     0
  0
LINE
  8
0
  6
BYBLOCK
 62
     0
 10
-0.40000001
 20
0
 11
-3
 21
0
  0
ENDBLK
  8
0
  0
BLOCK
  8
0
  2
_NONE
 70
    64
 10
0
 20
0
  3
_NONE
  0
CIRCLE
  8
0
  6
BYBLOCK
 62
     0
 10
0
 20
0
 40
0.001
  0
ENDBLK
  8
0
  0
BLOCK
  8
0
  2
*D1
 70
    65
 10
0
 20
0
  0
LINE
  8
0
  6
CONTINUOUS
 62
     7
 10
158.10449
 20
87.603348
 11
158.10449
 21
69.103348
  0
INSERT
  8
0
  6
CONTINUOUS
 62
     7
  2
_DOT
 10
158.10449
 20
87.603348
 50
90
  0
INSERT
  8
0
  6
CONTINUOUS
 62
     7
  2
_DOT
 10
158.10449
 20
69.103348
 50
270
  0
LINE
  8
0
  6
CONTINUOUS
 62
     7
 10
134.9445
 20
87.603348
 11
159.30449
 21
87.603348
  0
LINE
  8
0
  6
CONTINUOUS
 62
     7
 10
134.9445
 20
69.103348
 11
159.30449
 21
69.103348
  0
TEXT
  8
0
  6
CONTINUOUS
 62
     7
 10
157.30449
 20
72.410348
 40
3.2
 41
1.3928906
  1
18.5
 50
90.000003
  0
POINT
  8
DEFPOINTS
  6
CONTINUOUS
 62
     7
 10
132.4045
 20
87.603348
  0
POINT
  8
DEFPOINTS
  6
CONTINUOUS
 62
     7
 10
132.4045
 20
69.103348
  0
POINT
  8
DEFPOINTS
  6
CONTINUOUS
 62
     7
 10
158.10449
 20
69.103348
  0
ENDBLK
  8
0
  0
BLOCK
  8
0
  2
*D2
 70
    65
 10
0
 20
0
  0
LINE
  8
0
  6
CONTINUOUS
 62
     7
 10
158.10449
 20
69.103348
 11
158.10449
 21
-43.896645
  0
INSERT
  8
0
  6
CONTINUOUS
 62
     7
  2
_DOT
 10
158.10449
 20
-43.896645
 50
270
  0
LINE
  8
0
  6
CONTINUOUS
 62
     7
 10
134.9445
 20
-43.896645
 11
159.30449
 21
-43.896645
  0
TEXT
  8
0
  6
CONTINUOUS
 62
     7
 10
157.30449
 20
8.2603525
 40
3.2
 41
1.3571875
  1
113
 50
90.000003
  0
POINT
  8
DEFPOINTS
  6
CONTINUOUS
 62
     7
 10
132.4045
 20
69.103348
  0
POINT
  8
DEFPOINTS
  6
CONTINUOUS
 62
     7
 10
132.4045
 20
-43.896645
  0
POINT
  8
DEFPOINTS
  6
CONTINUOUS
 62
     7
 10
158.10449
 20
-43.896645
  0
ENDBLK
  8
0
  0
BLOCK
  8
0
  2
*D3
 70
    65
 10
0
 20
0
  0
LINE
  8
0
  6
CONTINUOUS
 62
     7
 10
158.10449
 20
-43.896645
 11
158.10449
 21
-62.396645
  0
INSERT
  8
0
  6
CONTINUOUS
 62
     7
  2
_DOT
 10
158.10449
 20
-62.396645
 50
270
  0
LINE
  8
0
  6
CONTINUOUS
 62
     7
 10
134.9445
 20
-62.396645
 11
159.30449
 21
-62.396645
  0
TEXT
  8
0
  6
CONTINUOUS
 62
     7
 10
157.30449
 20
-59.089645
 40
3.2
 41
1.3928906
  1
18.5
 50
90.000003
  0
POINT
  8
DEFPOINTS
  6
CONTINUOUS
 62
     7
 10
132.4045
 20
-43.896645
  0
POINT
  8
DEFPOINTS
  6
CONTINUOUS
 62
     7
 10
132.4045
 20
-62.396645
  0
POINT
  8
DEFPOINTS
  6
CONTINUOUS
 62
     7
 10
158.10449
 20
-62.396645
  0
ENDBLK
  8
0
  0
BLOCK
  8
0
  2
*D4
 70
    65
 10
0
 20
0
  0
LINE
  8
0
  6
CONTINUOUS
 62
     7
 10
70.957756
 20
87.603348
 11
70.957756
 21
102.81142
  0
LINE
  8
0
  6
CONTINUOUS
 62
     7
 10
70.957756
 20
87.603348
 11
70.957756
 21
69.103348
  0
INSERT
  8
0
  6
CONTINUOUS
 62
     7
  2
_DOT
 10
70.957756
 20
87.603348
 50
90
  0
INSERT
  8
0
  6
CONTINUOUS
 62
     7
  2
_DOT
 10
70.957756
 20
69.103348
 50
270
  0
LINE
  8
0
  6
CONTINUOUS
 62
     7
 10
58.394496
 20
87.603348
 11
72.157761
 21
87.603348
  0
LINE
  8
0
  6
CONTINUOUS
 62
     7
 10
49.894496
 20
69.103348
 11
72.157761
 21
69.103348
  0
TEXT
  8
0
  6
CONTINUOUS
 62
     7
 10
70.157756
 20
91.245416
 40
3.2
 41
1.3928906
  1
18.5
 50
90.000003
  0
POINT
  8
DEFPOINTS
  6
CONTINUOUS
 62
     7
 10
55.854496
 20
87.603348
  0
POINT
  8
DEFPOINTS
  6
CONTINUOUS
 62
     7
 10
47.354496
 20
69.103348
  0
POINT
  8
DEFPOINTS
  6
CONTINUOUS
 62
     7
 10
70.957756
 20
69.103348
  0
ENDBLK
  8
0
  0
BLOCK
  8
0
  2
*D5
 70
    65
 10
0
 20
0
  0
LINE
  8
0
  6
CONTINUOUS
 62
     7
 10
70.854492
 20
-43.896645
 11
70.854492
 21
69.103348
  0
INSERT
  8
0
  6
CONTINUOUS
 62
     7
  2
_DOT
 10
70.854492
 20
-43.896645
 50
270
  0
INSERT
  8
0
  6
CONTINUOUS
 62
     7
  2
_DOT
 10
70.854492
 20
69.103348
 50
90
  0
LINE
  8
0
  6
CONTINUOUS
 62
     7
 10
49.894496
 20
-43.896645
 11
72.054497
 21
-43.896645
  0
LINE
  8
0
  6
CONTINUOUS
 62
     7
 10
49.894496
 20
69.103348
 11
72.054497
 21
69.103348
  0
TEXT
  8
0
  6
CONTINUOUS
 62
     7
 10
70.054492
 20
8.2603525
 40
3.2
 41
1.3571875
  1
113
 50
90.000003
  0
POINT
  8
DEFPOINTS
  6
CONTINUOUS
 62
     7
 10
47.354496
 20
-43.896645
  0
POINT
  8
DEFPOINTS
  6
CONTINUOUS
 62
     7
 10
47.354496
 20
69.103348
  0
POINT
  8
DEFPOINTS
  6
CONTINUOUS
 62
     7
 10
70.854492
 20
69.103348
  0
ENDBLK
  8
0
  0
BLOCK
  8
0
  2
*D6
 70
    65
 10
0
 20
0
  0
LINE
  8
0
  6
CONTINUOUS
 62
     7
 10
70.854492
 20
-62.396645
 11
70.854492
 21
-75.187958
  0
LINE
  8
0
  6
CONTINUOUS
 62
     7
 10
70.854492
 20
-62.396645
 11
70.854492
 21
-43.896645
  0
INSERT
  8
0
  6
CONTINUOUS
 62
     7
  2
_DOT
 10
70.854492
 20
-62.396645
 50
270
  0
INSERT
  8
0
  6
CONTINUOUS
 62
     7
  2
_DOT
 10
70.854492
 20
-43.896645
 50
90
  0
LINE
  8
0
  6
CONTINUOUS
 62
     7
 10
58.394496
 20
-62.396645
 11
72.054497
 21
-62.396645
  0
TEXT
  8
0
  6
CONTINUOUS
 62
     7
 10
70.054492
 20
-75.507957
 40
3.2
 41
1.3928906
  1
18.5
 50
90.000003
  0
POINT
  8
DEFPOINTS
  6
CONTINUOUS
 62
     7
 10
55.854496
 20
-62.396645
  0
POINT
  8
DEFPOINTS
  6
CONTINUOUS
 62
     7
 10
47.354496
 20
-43.896645
  0
POINT
  8
DEFPOINTS
  6
CONTINUOUS
 62
     7
 10
70.854492
 20
-43.896645
  0
ENDBLK
  8
0
  0
BLOCK
  8
0
  2
*D7
 70
    65
 10
0
 20
0
  0
LINE
  8
0
  6
CONTINUOUS
 62
     7
 10
80.854492
 20
87.603348
 11
80.854492
 21
80.603348
  0
INSERT
  8
0
  6
CONTINUOUS
 62
     7
  2
_DOT
 10
80.854492
 20
87.603348
 50
90
  0
INSERT
  8
0
  6
CONTINUOUS
 62
     7
  2
_DOT
 10
80.854492
 20
80.603348
 50
270
  0
LINE
  8
0
  6
CONTINUOUS
 62
     7
 10
58.394496
 20
87.603348
 11
82.054497
 21
87.603348
  0
LINE
  8
0
  6
CONTINUOUS
 62
     7
 10
57.934493
 20
80.603348
 11
82.054497
 21
80.603348
  0
TEXT
  8
0
  6
CONTINUOUS
 62
     7
 10
80.054492
 20
82.960348
 40
3.2
 41
1
  1
7
 50
90.000003
  0
POINT
  8
DEFPOINTS
  6
CONTINUOUS
 62
     7
 10
55.854496
 20
87.603348
  0
POINT
  8
DEFPOINTS
  6
CONTINUOUS
 62
     7
 10
55.394493
 20
80.603348
  0
POINT
  8
DEFPOINTS
  6
CONTINUOUS
 62
     7
 10
80.854492
 20
80.603348
  0
ENDBLK
  8
0
  0
BLOCK
  8
0
  2
*D8
 70
    65
 10
0
 20
0
  0
LINE
  8
0
  6
CONTINUOUS
 62
     7
 10
80.854492
 20
80.603348
 11
80.854492
 21
-55.396645
  0
INSERT
  8
0
  6
CONTINUOUS
 62
     7
  2
_DOT
 10
80.854492
 20
-55.396645
 50
270
  0
LINE
  8
0
  6
CONTINUOUS
 62
     7
 10
57.934493
 20
-55.396645
 11
82.054497
 21
-55.396645
  0
TEXT
  8
0
  6
CONTINUOUS
 62
     7
 10
80.054492
 20
8.2603525
 40
3.2
 41
1.1633036
  1
136
 50
90.000003
  0
POINT
  8
DEFPOINTS
  6
CONTINUOUS
 62
     7
 10
55.394493
 20
80.603348
  0
POINT
  8
DEFPOINTS
  6
CONTINUOUS
 62
     7
 10
55.394493
 20
-55.396645
  0
POINT
  8
DEFPOINTS
  6
CONTINUOUS
 62
     7
 10
80.854492
 20
-55.396645
  0
ENDBLK
  8
0
  0
BLOCK
  8
0
  2
*D9
 70
    65
 10
0
 20
0
  0
LINE
  8
0
  6
CONTINUOUS
 62
     7
 10
80.854492
 20
-55.396645
 11
80.854492
 21
-62.396645
  0
INSERT
  8
0
  6
CONTINUOUS
 62
     7
  2
_DOT
 10
80.854492
 20
-62.396645
 50
270
  0
LINE
  8
0
  6
CONTINUOUS
 62
     7
 10
58.394496
 20
-62.396645
 11
82.054497
 21
-62.396645
  0
TEXT
  8
0
  6
CONTINUOUS
 62
     7
 10
80.054492
 20
-60.039645
 40
3.2
 41
1
  1
7
 50
90.000003
  0
POINT
  8
DEFPOINTS
  6
CONTINUOUS
 62
     7
 10
55.394493
 20
-55.396645
  0
POINT
  8
DEFPOINTS
  6
CONTINUOUS
 62
     7
 10
55.854496
 20
-62.396645
  0
POINT
  8
DEFPOINTS
  6
CONTINUOUS
 62
     7
 10
80.854492
 20
-62.396645
  0
ENDBLK
  8
0
  0
BLOCK
  8
0
  2
*D10
 70
    65
 10
0
 20
0
  0
LINE
  8
0
  6
CONTINUOUS
 62
     7
 10
90.854492
 20
87.603348
 11
90.854492
 21
-62.396645
  0
INSERT
  8
0
  6
CONTINUOUS
 62
     7
  2
_DOT
 10
90.854492
 20
87.603348
 50
90
  0
INSERT
  8
0
  6
CONTINUOUS
 62
     7
  2
_DOT
 10
90.854492
 20
-62.396645
 50
270
  0
LINE
  8
0
  6
CONTINUOUS
 62
     7
 10
58.394496
 20
87.603348
 11
92.054497
 21
87.603348
  0
LINE
  8
0
  6
CONTINUOUS
 62
     7
 10
58.394496
 20
-62.396645
 11
92.054497
 21
-62.396645
  0
TEXT
  8
0
  6
CONTINUOUS
 62
     7
 10
90.054492
 20
8.2603525
 40
3.2
 41
1.2214687
  1
150
 50
90.000003
  0
POINT
  8
DEFPOINTS
  6
CONTINUOUS
 62
     7
 10
55.854496
 20
87.603348
  0
POINT
  8
DEFPOINTS
  6
CONTINUOUS
 62
     7
 10
55.854496
 20
-62.396645
  0
POINT
  8
DEFPOINTS
  6
CONTINUOUS
 62
     7
 10
90.854492
 20
-62.396645
  0
ENDBLK
  8
0
  0
BLOCK
  8
0
  2
*D11
 70
    65
 10
0
 20
0
  0
LINE
  8
0
  6
CONTINUOUS
 62
     7
 10
26.354494
 20
149.00334
 11
50.354496
 21
149.00334
  0
INSERT
  8
0
  6
CONTINUOUS
 62
     7
  2
_DOT
 10
26.354494
 20
149.00334
 50
180
  0
INSERT
  8
0
  6
CONTINUOUS
 62
     7
  2
_DOT
 10
50.354496
 20
149.00334
  0
LINE
  8
0
  6
CONTINUOUS
 62
     7
 10
26.354494
 20
140.04334
 11
26.354494
 21
150.20334
  0
LINE
  8
0
  6
CONTINUOUS
 62
     7
 10
50.354496
 20
140.04334
 11
50.354496
 21
150.20334
  0
TEXT
  8
0
  6
CONTINUOUS
 62
     7
 10
35.611496
 20
149.80334
 40
3.2
 41
1.028625
  1
24
  0
POINT
  8
DEFPOINTS
  6
CONTINUOUS
 62
     7
 10
26.354494
 20
137.50334
  0
POINT
  8
DEFPOINTS
  6
CONTINUOUS
 62
     7
 10
50.354496
 20
137.50334
  0
POINT
  8
DEFPOINTS
  6
CONTINUOUS
 62
     7
 10
50.354496
 20
149.00334
  0
ENDBLK
  8
0
  0
BLOCK
  8
0
  2
*D12
 70
    65
 10
0
 20
0
  0
LINE
  8
0
  6
CONTINUOUS
 62
     7
 10
20.854494
 20
149.00334
 11
26.354494
 21
149.00334
  0
INSERT
  8
0
  6
CONTINUOUS
 62
     7
  2
_DOT
 10
20.854494
 20
149.00334
 50
180
  0
INSERT
  8
0
  6
CONTINUOUS
 62
     7
  2
_DOT
 10
26.354494
 20
149.00334
  0
LINE
  8
0
  6
CONTINUOUS
 62
     7
 10
20.854494
 20
130.84334
 11
20.854494
 21
150.20334
  0
LINE
  8
0
  6
CONTINUOUS
 62
     7
 10
26.354494
 20
140.04334
 11
26.354494
 21
150.20334
  0
TEXT
  8
0
  6
CONTINUOUS
 62
     7
 10
19.261494
 20
149.80334
 40
3.2
 41
1.3571875
  1
5.5
  0
POINT
  8
DEFPOINTS
  6
CONTINUOUS
 62
     7
 10
20.854494
 20
128.30334
  0
POINT
  8
DEFPOINTS
  6
CONTINUOUS
 62
     7
 10
26.354494
 20
137.50334
  0
POINT
  8
DEFPOINTS
  6
CONTINUOUS
 62
     7
 10
26.354494
 20
149.00334
  0
ENDBLK
  8
0
  0
BLOCK
  8
0
  2
*D13
 70
    65
 10
0
 20
0
  0
LINE
  8
0
  6
CONTINUOUS
 62
     7
 10
50.354496
 20
149.00334
 11
55.854496
 21
149.00334
  0
INSERT
  8
0
  6
CONTINUOUS
 62
     7
  2
_DOT
 10
50.354496
 20
149.00334
 50
180
  0
INSERT
  8
0
  6
CONTINUOUS
 62
     7
  2
_DOT
 10
55.854496
 20
149.00334
  0
LINE
  8
0
  6
CONTINUOUS
 62
     7
 10
50.354496
 20
140.04334
 11
50.354496
 21
150.20334
  0
LINE
  8
0
  6
CONTINUOUS
 62
     7
 10
55.854496
 20
130.84334
 11
55.854496
 21
150.20334
  0
TEXT
  8
0
  6
CONTINUOUS
 62
     7
 10
48.761496
 20
149.80334
 40
3.2
 41
1.3571875
  1
5.5
  0
POINT
  8
DEFPOINTS
  6
CONTINUOUS
 62
     7
 10
50.354496
 20
137.50334
  0
POINT
  8
DEFPOINTS
  6
CONTINUOUS
 62
     7
 10
55.854496
 20
128.30334
  0
POINT
  8
DEFPOINTS
  6
CONTINUOUS
 62
     7
 10
55.854496
 20
149.00334
  0
ENDBLK
  8
0
  0
BLOCK
  8
0
  2
*D14
 70
    65
 10
0
 20
0
  0
LINE
  8
0
  6
CONTINUOUS
 62
     7
 10
20.854494
 20
97.603348
 11
27.854494
 21
97.603348
  0
INSERT
  8
0
  6
CONTINUOUS
 62
     7
  2
_DOT
 10
20.854494
 20
97.603348
 50
180
  0
INSERT
  8
0
  6
CONTINUOUS
 62
     7
  2
_DOT
 10
27.854494
 20
97.603348
  0
LINE
  8
0
  6
CONTINUOUS
 62
     7
 10
20.854494
 20
90.143348
 11
20.854494
 21
98.803352
  0
LINE
  8
0
  6
CONTINUOUS
 62
     7
 10
27.854494
 20
89.683349
 11
27.854494
 21
98.803352
  0
TEXT
  8
0
  6
CONTINUOUS
 62
     7
 10
23.211494
 20
98.403348
 40
3.2
 41
1
  1
7
  0
POINT
  8
DEFPOINTS
  6
CONTINUOUS
 62
     7
 10
20.854494
 20
87.603348
  0
POINT
  8
DEFPOINTS
  6
CONTINUOUS
 62
     7
 10
27.854494
 20
87.143349
  0
POINT
  8
DEFPOINTS
  6
CONTINUOUS
 62
     7
 10
27.854494
 20
97.603348
  0
ENDBLK
  8
0
  0
BLOCK
  8
0
  2
*D15
 70
    65
 10
0
 20
0
  0
LINE
  8
0
  6
CONTINUOUS
 62
     7
 10
27.854494
 20
97.603348
 11
48.854496
 21
97.603348
  0
INSERT
  8
0
  6
CONTINUOUS
 62
     7
  2
_DOT
 10
27.854494
 20
97.603348
 50
180
  0
INSERT
  8
0
  6
CONTINUOUS
 62
     7
  2
_DOT
 10
48.854496
 20
97.603348
  0
LINE
  8
0
  6
CONTINUOUS
 62
     7
 10
27.854494
 20
89.683349
 11
27.854494
 21
98.803352
  0
LINE
  8
0
  6
CONTINUOUS
 62
     7
 10
48.854496
 20
89.683349
 11
48.854496
 21
98.803352
  0
TEXT
  8
0
  6
CONTINUOUS
 62
     7
 10
35.611496
 20
98.403348
 40
3.2
 41
1.186875
  1
21
  0
POINT
  8
DEFPOINTS
  6
CONTINUOUS
 62
     7
 10
27.854494
 20
87.143349
  0
POINT
  8
DEFPOINTS
  6
CONTINUOUS
 62
     7
 10
48.854496
 20
87.143349
  0
POINT
  8
DEFPOINTS
  6
CONTINUOUS
 62
     7
 10
48.854496
 20
97.603348
  0
ENDBLK
  8
0
  0
BLOCK
  8
0
  2
*D16
 70
    65
 10
0
 20
0
  0
LINE
  8
0
  6
CONTINUOUS
 62
     7
 10
48.854496
 20
97.603348
 11
55.854496
 21
97.603348
  0
INSERT
  8
0
  6
CONTINUOUS
 62
     7
  2
_DOT
 10
55.854496
 20
97.603348
  0
LINE
  8
0
  6
CONTINUOUS
 62
     7
 10
55.854496
 20
90.143348
 11
55.854496
 21
98.803352
  0
TEXT
  8
0
  6
CONTINUOUS
 62
     7
 10
51.211496
 20
98.403348
 40
3.2
 41
1
  1
7
  0
POINT
  8
DEFPOINTS
  6
CONTINUOUS
 62
     7
 10
48.854496
 20
87.143349
  0
POINT
  8
DEFPOINTS
  6
CONTINUOUS
 62
     7
 10
55.854496
 20
87.603348
  0
POINT
  8
DEFPOINTS
  6
CONTINUOUS
 62
     7
 10
55.854496
 20
97.603348
  0
ENDBLK
  8
0
  0
BLOCK
  8
0
  2
*D17
 70
    65
 10
0
 20
0
  0
LINE
  8
0
  6
CONTINUOUS
 62
     7
 10
20.854494
 20
107.60335
 11
55.854496
 21
107.60335
  0
INSERT
  8
0
  6
CONTINUOUS
 62
     7
  2
_DOT
 10
20.854494
 20
107.60335
 50
180
  0
INSERT
  8
0
  6
CONTINUOUS
 62
     7
  2
_DOT
 10
55.854496
 20
107.60335
  0
LINE
  8
0
  6
CONTINUOUS
 62
     7
 10
20.854494
 20
90.143348
 11
20.854494
 21
108.80335
  0
LINE
  8
0
  6
CONTINUOUS
 62
     7
 10
55.854496
 20
90.143348
 11
55.854496
 21
108.80335
  0
TEXT
  8
0
  6
CONTINUOUS
 62
     7
 10
35.611496
 20
108.40335
 40
3.2
 41
1.028625
  1
35
  0
POINT
  8
DEFPOINTS
  6
CONTINUOUS
 62
     7
 10
20.854494
 20
87.603348
  0
POINT
  8
DEFPOINTS
  6
CONTINUOUS
 62
     7
 10
55.854496
 20
87.603348
  0
POINT
  8
DEFPOINTS
  6
CONTINUOUS
 62
     7
 10
55.854496
 20
107.60335
  0
ENDBLK
  8
0
  0
BLOCK
  8
0
  2
*D18
 70
    65
 10
0
 20
0
  0
LINE
  8
0
  6
CONTINUOUS
 62
     7
 10
130.10449
 20
97.031792
 11
120.29324
 21
97.031792
  0
LINE
  8
0
  6
CONTINUOUS
 62
     7
 10
130.10449
 20
97.031792
 11
132.4045
 21
97.031792
  0
INSERT
  8
0
  6
CONTINUOUS
 62
     7
  2
_DOT
 10
130.10449
 20
97.031792
 50
180
  0
INSERT
  8
0
  6
CONTINUOUS
 62
     7
  2
_DOT
 10
132.4045
 20
97.031792
  0
LINE
  8
0
  6
CONTINUOUS
 62
     7
 10
130.10449
 20
90.143348
 11
130.10449
 21
98.231789
  0
LINE
  8
0
  6
CONTINUOUS
 62
     7
 10
132.4045
 20
90.143348
 11
132.4045
 21
98.231789
  0
TEXT
  8
0
  6
CONTINUOUS
 62
     7
 10
119.97324
 20
97.831792
 40
3.2
 41
1.3571875
  1
2.3
  0
POINT
  8
DEFPOINTS
  6
CONTINUOUS
 62
     7
 10
130.10449
 20
87.603348
  0
POINT
  8
DEFPOINTS
  6
CONTINUOUS
 62
     7
 10
132.4045
 20
87.603348
  0
POINT
  8
DEFPOINTS
  6
CONTINUOUS
 62
     7
 10
132.4045
 20
97.031792
  0
ENDBLK
  8
0
  0
BLOCK
  8
0
  2
*D19
 70
    65
 10
0
 20
0
  0
LINE
  8
0
  6
CONTINUOUS
 62
     7
 10
143.10449
 20
97.031792
 11
132.4045
 21
97.031792
  0
INSERT
  8
0
  6
CONTINUOUS
 62
     7
  2
_DOT
 10
143.10449
 20
97.031792
  0
INSERT
  8
0
  6
CONTINUOUS
 62
     7
  2
_DOT
 10
132.4045
 20
97.031792
 50
180
  0
LINE
  8
0
  6
CONTINUOUS
 62
     7
 10
143.10449
 20
52.20859
 11
143.10449
 21
98.231789
  0
TEXT
  8
0
  6
CONTINUOUS
 62
     7
 10
131.81149
 20
97.831792
 40
3.2
 41
1.48575
  1
10.7
  0
POINT
  8
DEFPOINTS
  6
CONTINUOUS
 62
     7
 10
143.10449
 20
49.668591
  0
POINT
  8
DEFPOINTS
  6
CONTINUOUS
 62
     7
 10
132.4045
 20
87.603348
  0
POINT
  8
DEFPOINTS
  6
CONTINUOUS
 62
     7
 10
132.4045
 20
97.031792
  0
ENDBLK
  8
0
  0
BLOCK
  8
0
  2
*D20
 70
    65
 10
0
 20
0
  0
LINE
  8
0
  6
CONTINUOUS
 62
     7
 10
130.10449
 20
107.60335
 11
143.10449
 21
107.60335
  0
INSERT
  8
0
  6
CONTINUOUS
 62
     7
  2
_DOT
 10
130.10449
 20
107.60335
 50
180
  0
INSERT
  8
0
  6
CONTINUOUS
 62
     7
  2
_DOT
 10
143.10449
 20
107.60335
  0
LINE
  8
0
  6
CONTINUOUS
 62
     7
 10
130.10449
 20
90.143348
 11
130.10449
 21
108.80335
  0
LINE
  8
0
  6
CONTINUOUS
 62
     7
 10
143.10449
 20
52.20859
 11
143.10449
 21
108.80335
  0
TEXT
  8
0
  6
CONTINUOUS
 62
     7
 10
133.86149
 20
108.40335
 40
3.2
 41
1.2857812
  1
13
  0
POINT
  8
DEFPOINTS
  6
CONTINUOUS
 62
     7
 10
130.10449
 20
87.603348
  0
POINT
  8
DEFPOINTS
  6
CONTINUOUS
 62
     7
 10
143.10449
 20
49.668591
  0
POINT
  8
DEFPOINTS
  6
CONTINUOUS
 62
     7
 10
143.10449
 20
107.60335
  0
ENDBLK
  8
0
  0
BLOCK
  8
0
  2
*D21
 70
    65
 10
0
 20
0
  0
LINE
  8
0
  6
CONTINUOUS
 62
     7
 10
-54.645504
 20
-44.896648
 11
-54.645504
 21
70.103348
  0
INSERT
  8
0
  6
CONTINUOUS
 62
     7
  2
_DOT
 10
-54.645504
 20
-44.896648
 50
270
  0
INSERT
  8
0
  6
CONTINUOUS
 62
     7
  2
_DOT
 10
-54.645504
 20
70.103348
 50
90
  0
LINE
  8
0
  6
CONTINUOUS
 62
     7
 10
-47.185504
 20
-44.896648
 11
-55.845505
 21
-44.896648
  0
LINE
  8
0
  6
CONTINUOUS
 62
     7
 10
-47.185504
 20
70.103348
 11
-55.845505
 21
70.103348
  0
TEXT
  8
0
  6
CONTINUOUS
 62
     7
 10
-55.445504
 20
8.2603506
 40
3.2
 41
1.3571875
  1
115
 50
90.000003
  0
POINT
  8
DEFPOINTS
  6
CONTINUOUS
 62
     7
 10
-44.645504
 20
-44.896648
  0
POINT
  8
DEFPOINTS
  6
CONTINUOUS
 62
     7
 10
-44.645504
 20
70.103348
  0
POINT
  8
DEFPOINTS
  6
CONTINUOUS
 62
     7
 10
-54.645504
 20
70.103348
  0
ENDBLK
  8
0
  0
BLOCK
  8
0
  2
*D22
 70
    65
 10
0
 20
0
  0
LINE
  8
0
  6
CONTINUOUS
 62
     7
 10
-21.145506
 20
-72.396645
 11
-42.145508
 21
-72.396645
  0
INSERT
  8
0
  6
CONTINUOUS
 62
     7
  2
_DOT
 10
-21.145506
 20
-72.396645
  0
INSERT
  8
0
  6
CONTINUOUS
 62
     7
  2
_DOT
 10
-42.145508
 20
-72.396645
 50
180
  0
LINE
  8
0
  6
CONTINUOUS
 62
     7
 10
-21.145506
 20
-64.476645
 11
-21.145506
 21
-73.596642
  0
LINE
  8
0
  6
CONTINUOUS
 62
     7
 10
-42.145508
 20
-64.476645
 11
-42.145508
 21
-73.596642
  0
TEXT
  8
0
  6
CONTINUOUS
 62
     7
 10
-34.708548
 20
-71.596645
 40
3.2
 41
1.3253538
  1
21
  0
POINT
  8
DEFPOINTS
  6
CONTINUOUS
 62
     7
 10
-21.145506
 20
-61.936646
  0
POINT
  8
DEFPOINTS
  6
CONTINUOUS
 62
     7
 10
-42.145508
 20
-61.936646
  0
POINT
  8
DEFPOINTS
  6
CONTINUOUS
 62
     7
 10
-42.145508
 20
-72.396645
  0
ENDBLK
  8
0
  0
BLOCK
  8
0
  2
*D23
 70
    65
 10
0
 20
0
  0
LINE
  8
0
  6
CONTINUOUS
 62
     7
 10
-18.645506
 20
97.603348
 11
-44.645504
 21
97.603348
  0
INSERT
  8
0
  6
CONTINUOUS
 62
     7
  2
_DOT
 10
-18.645506
 20
97.603348
  0
INSERT
  8
0
  6
CONTINUOUS
 62
     7
  2
_DOT
 10
-44.645504
 20
97.603348
 50
180
  0
LINE
  8
0
  6
CONTINUOUS
 62
     7
 10
-18.645506
 20
72.643348
 11
-18.645506
 21
98.803345
  0
LINE
  8
0
  6
CONTINUOUS
 62
     7
 10
-44.645504
 20
72.643348
 11
-44.645504
 21
98.803345
  0
TEXT
  8
0
  6
CONTINUOUS
 62
     7
 10
-34.708544
 20
98.403348
 40
3.2
 41
1.14864
  1
26
  0
POINT
  8
DEFPOINTS
  6
CONTINUOUS
 62
     7
 10
-18.645506
 20
70.103348
  0
POINT
  8
DEFPOINTS
  6
CONTINUOUS
 62
     7
 10
-44.645504
 20
70.103348
  0
POINT
  8
DEFPOINTS
  6
CONTINUOUS
 62
     7
 10
-44.645504
 20
97.603348
  0
ENDBLK
  8
0
  0
BLOCK
  8
0
  2
*D24
 70
    65
 10
0
 20
0
  0
LINE
  8
0
  6
CONTINUOUS
 62
     7
 10
-66.959816
 20
80.603348
 11
-66.959816
 21
-55.396645
  0
INSERT
  8
0
  6
CONTINUOUS
 62
     7
  2
_DOT
 10
-66.959816
 20
80.603348
 50
90
  0
INSERT
  8
0
  6
CONTINUOUS
 62
     7
  2
_DOT
 10
-66.959816
 20
-55.396645
 50
270
  0
LINE
  8
0
  6
CONTINUOUS
 62
     7
 10
-51.225509
 20
80.603348
 11
-68.159813
 21
80.603348
  0
LINE
  8
0
  6
CONTINUOUS
 62
     7
 10
-51.225509
 20
-55.396645
 11
-68.159813
 21
-55.396645
  0
TEXT
  8
0
  6
CONTINUOUS
 62
     7
 10
-67.759816
 20
7.9403116
 40
3.2
 41
1.2490286
  1
136
 50
90.000003
  0
POINT
  8
DEFPOINTS
  6
CONTINUOUS
 62
     7
 10
-48.685509
 20
80.603348
  0
POINT
  8
DEFPOINTS
  6
CONTINUOUS
 62
     7
 10
-48.685509
 20
-55.396645
  0
POINT
  8
DEFPOINTS
  6
CONTINUOUS
 62
     7
 10
-66.959816
 20
-55.396645
  0
ENDBLK
  8
0
  0
BLOCK
  8
0
  2
*D25
 70
    65
 10
0
 20
0
  0
LINE
  8
0
  6
CONTINUOUS
 62
     7
 10
-41.063278
 20
78.921455
 11
-47.834072
 21
89.44397
  0
INSERT
  8
0
  6
CONTINUOUS
 62
     7
  2
_DOT
 10
-41.063278
 20
78.921455
 50
302.75957
  0
LINE
  8
0
  6
CONTINUOUS
 62
     7
 10
-47.834072
 20
89.44397
 11
-65.814262
 21
89.44397
  0
TEXT
  8
0
  6
CONTINUOUS
 62
     7
 10
-65.814261
 20
90.06897
 40
2.5
 41
0.87156303
  1
４－Ｍ４タップ
  0
POINT
  8
DEFPOINTS
  6
CONTINUOUS
 62
     7
 10
-41.063278
 20
78.921455
  0
POINT
  8
DEFPOINTS
  6
CONTINUOUS
 62
     7
 10
-47.834072
 20
89.44397
  0
ENDBLK
  8
0
  0
BLOCK
  8
0
  2
KOZU0001
 70
    64
 10
0
 20
0
  0
LINE
  8
0
  6
CONTINUOUS
 62
     7
 10
0
 20
0
 11
-15.725967
 21
-36.154495
  0
LINE
  8
0
  6
CONTINUOUS
 62
     7
 10
-15.725967
 20
-36.154495
 11
15.810165
 21
-36.154495
  0
CIRCLE
  8
0
  6
CONTINUOUS
 62
     7
 10
0
 20
0
 40
0.40000001
  0
TEXT
  8
0
  6
CONTINUOUS
 62
     7
 10
-12.989834
 20
-35.354495
 40
3.2
 41
0.84496202
  1
４－%%C５×%%C８サラ
  0
ENDBLK
  8
0
  0
BLOCK
  8
0
  2
KOZU0002
 70
    64
 10
0
 20
0
  0
LINE
  8
0
  6
CONTINUOUS
 62
     7
 10
-22.451082
 20
-44.896648
 11
-18.645506
 21
-41.091064
  0
LINE
  8
0
  6
CONTINUOUS
 62
     7
 10
-26.941206
 20
-44.896648
 11
-18.645506
 21
-36.600932
  0
LINE
  8
0
  6
CONTINUOUS
 62
     7
 10
-31.431329
 20
-44.896648
 11
-18.645506
 21
-32.110799
  0
LINE
  8
0
  6
CONTINUOUS
 62
     7
 10
-35.921453
 20
-44.896648
 11
-18.645506
 21
-27.620667
  0
LINE
  8
0
  6
CONTINUOUS
 62
     7
 10
-40.411576
 20
-44.896648
 11
-18.645506
 21
-23.130534
  0
LINE
  8
0
  6
CONTINUOUS
 62
     7
 10
-44.645504
 20
-44.640452
 11
-18.645506
 21
-18.640402
  0
LINE
  8
0
  6
CONTINUOUS
 62
     7
 10
-44.645504
 20
-40.150319
 11
-18.645506
 21
-14.150269
  0
LINE
  8
0
  6
CONTINUOUS
 62
     7
 10
-44.645504
 20
-35.660187
 11
-18.645506
 21
-9.6601368
  0
LINE
  8
0
  6
CONTINUOUS
 62
     7
 10
-44.645504
 20
-31.170054
 11
-18.645506
 21
-5.1700044
  0
LINE
  8
0
  6
CONTINUOUS
 62
     7
 10
-44.645504
 20
-26.679922
 11
-18.645506
 21
-0.67987187
  0
LINE
  8
0
  6
CONTINUOUS
 62
     7
 10
-44.645504
 20
-22.189789
 11
-18.645506
 21
3.8102606
  0
LINE
  8
0
  6
CONTINUOUS
 62
     7
 10
-44.645504
 20
-17.699657
 11
-18.645506
 21
8.3003931
  0
LINE
  8
0
  6
CONTINUOUS
 62
     7
 10
-44.645504
 20
-13.209525
 11
-18.645506
 21
12.790526
  0
LINE
  8
0
  6
CONTINUOUS
 62
     7
 10
-44.645504
 20
-8.719392
 11
-18.645506
 21
17.280658
  0
LINE
  8
0
  6
CONTINUOUS
 62
     7
 10
-44.645504
 20
-4.2292595
 11
-18.645506
 21
21.770791
  0
LINE
  8
0
  6
CONTINUOUS
 62
     7
 10
-44.645504
 20
0.26087293
 11
-18.645506
 21
26.260923
  0
LINE
  8
0
  6
CONTINUOUS
 62
     7
 10
-44.645504
 20
4.7510054
 11
-18.645506
 21
30.751056
  0
LINE
  8
0
  6
CONTINUOUS
 62
     7
 10
-44.645504
 20
9.2411379
 11
-18.645506
 21
35.241188
  0
LINE
  8
0
  6
CONTINUOUS
 62
     7
 10
-44.645504
 20
13.73127
 11
-18.645506
 21
39.73132
  0
LINE
  8
0
  6
CONTINUOUS
 62
     7
 10
-44.645504
 20
18.221403
 11
-18.645506
 21
44.221453
  0
LINE
  8
0
  6
CONTINUOUS
 62
     7
 10
-44.645504
 20
22.711535
 11
-18.645506
 21
48.711585
  0
LINE
  8
0
  6
CONTINUOUS
 62
     7
 10
-44.645504
 20
27.201668
 11
-18.645506
 21
53.201718
  0
LINE
  8
0
  6
CONTINUOUS
 62
     7
 10
-44.645504
 20
31.6918
 11
-18.645506
 21
57.69185
  0
LINE
  8
0
  6
CONTINUOUS
 62
     7
 10
-44.645504
 20
36.181933
 11
-18.645506
 21
62.181983
  0
LINE
  8
0
  6
CONTINUOUS
 62
     7
 10
-44.645504
 20
40.672065
 11
-18.645506
 21
66.672115
  0
LINE
  8
0
  6
CONTINUOUS
 62
     7
 10
-44.645504
 20
45.162198
 11
-19.704404
 21
70.103348
  0
LINE
  8
0
  6
CONTINUOUS
 62
     7
 10
-44.645504
 20
49.65233
 11
-24.194527
 21
70.103348
  0
LINE
  8
0
  6
CONTINUOUS
 62
     7
 10
-44.645504
 20
54.142463
 11
-28.684651
 21
70.103348
  0
LINE
  8
0
  6
CONTINUOUS
 62
     7
 10
-44.645504
 20
58.632595
 11
-33.174774
 21
70.103348
  0
LINE
  8
0
  6
CONTINUOUS
 62
     7
 10
-44.645504
 20
63.122728
 11
-37.664898
 21
70.103348
  0
LINE
  8
0
  6
CONTINUOUS
 62
     7
 10
-44.645504
 20
67.61286
 11
-42.155021
 21
70.103348
  0
ENDBLK
  8
0
  0
ENDSEC
  0
SECTION
  2
ENTITIES
  0
LINE
  8
0
  6
CONTINUOUS
 62
     7
 10
170
 20
173
 11
170
 21
-100
  0
LINE
  8
0
  6
CONTINUOUS
 62
     7
 10
-211
 20
-100
 11
170
 21
-100
  0
LINE
  8
0
  6
CONTINUOUS
 62
     7
 10
-211
 20
173
 11
170
 21
173
  0
LINE
  8
0
  6
CONTINUOUS
 62
     7
 10
-211
 20
173
 11
-211
 21
-100
  0
LINE
  8
0
  6
CONTINUOUS
 62
     7
 10
-191
 20
173
 11
-191
 21
77
  0
LINE
  8
0
  6
CONTINUOUS
 62
     7
 10
-211
 20
165
 11
-101
 21
165
  0
LINE
  8
0
  6
CONTINUOUS
 62
     7
 10
-211
 20
157
 11
-101
 21
157
  0
LINE
  8
0
  6
CONTINUOUS
 62
     7
 10
-211
 20
149
 11
-101
 21
149
  0
LINE
  8
0
  6
CONTINUOUS
 62
     7
 10
-211
 20
141
 11
-101
 21
141
  0
LINE
  8
0
  6
CONTINUOUS
 62
     7
 10
-191
 20
117
 11
-101
 21
117
  0
LINE
  8
0
  6
CONTINUOUS
 62
     7
 10
-191
 20
109
 11
-101
 21
109
  0
LINE
  8
0
  6
CONTINUOUS
 62
     7
 10
-211
 20
101
 11
-101
 21
101
  0
LINE
  8
0
  6
CONTINUOUS
 62
     7
 10
-191
 20
93
 11
-101
 21
93
  0
LINE
  8
0
  6
CONTINUOUS
 62
     7
 10
-191
 20
85
 11
-101
 21
85
  0
LINE
  8
0
  6
CONTINUOUS
 62
     7
 10
-211
 20
77
 11
-101
 21
77
  0
LINE
  8
0
  6
CONTINUOUS
 62
     7
 10
-211
 20
173
 11
-211
 21
77
  0
LINE
  8
0
  6
CONTINUOUS
 62
     7
 10
-211
 20
173
 11
-101
 21
173
  0
LINE
  8
0
  6
CONTINUOUS
 62
     7
 10
-101
 20
173
 11
-101
 21
77
  0
LINE
  8
0
  6
CONTINUOUS
 62
     7
 10
-211
 20
133
 11
-101
 21
133
  0
LINE
  8
0
  6
CONTINUOUS
 62
     7
 10
-211
 20
125
 11
-101
 21
125
  0
LINE
  8
0
  6
CONTINUOUS
 62
     7
 10
-191
 20
117
 11
-101
 21
117
  0
LINE
  8
0
  6
CONTINUOUS
 62
     7
 10
20.854494
 20
87.603348
 11
55.854496
 21
87.603348
  0
LINE
  8
0
  6
CONTINUOUS
 62
     7
 10
20.854494
 20
-62.396645
 11
55.854496
 21
-62.396645
  0
LINE
  8
0
  6
CONTINUOUS
 62
     7
 10
20.854494
 20
128.30334
 11
20.854494
 21
126.00334
  0
LINE
  8
0
  6
CONTINUOUS
 62
     7
 10
55.854496
 20
128.30334
 11
55.854496
 21
126.00334
  0
LINE
  8
0
  6
CONTINUOUS
 62
     7
 10
27.854494
 20
-42.396645
 11
27.854494
 21
67.603348
  0
LINE
  8
0
  6
CONTINUOUS
 62
     7
 10
48.854496
 20
-42.396645
 11
48.854496
 21
67.603348
  0
LINE
  8
0
  6
CONTINUOUS
 62
     7
 10
29.354494
 20
-43.896645
 11
47.354496
 21
-43.896645
  0
LINE
  8
0
  6
CONTINUOUS
 62
     7
 10
29.354494
 20
69.103348
 11
47.354496
 21
69.103348
  0
LINE
  8
0
  6
CONTINUOUS
 62
     7
 10
20.854494
 20
126.00334
 11
55.854496
 21
126.00334
  0
LINE
  8
0
  6
CONTINUOUS
 62
     7
 10
29.354494
 20
139.00334
 11
47.354496
 21
139.00334
  0
LINE
  8
0
  6
CONTINUOUS
 62
     7
 10
20.854494
 20
-62.396645
 11
20.854494
 21
87.603348
  0
LINE
  8
0
  6
CONTINUOUS
 62
     7
 10
55.854496
 20
-62.396645
 11
55.854496
 21
87.603348
  0
LINE
  8
0
  6
CONTINUOUS
 62
     7
 10
130.10449
 20
-62.396645
 11
130.10449
 21
87.603348
  0
LINE
  8
0
  6
CONTINUOUS
 62
     7
 10
132.4045
 20
-62.396645
 11
132.4045
 21
87.603348
  0
LINE
  8
0
  6
CONTINUOUS
 62
     7
 10
143.10449
 20
-24.461885
 11
143.10449
 21
49.668591
  0
LINE
  8
0
  6
CONTINUOUS
 62
     7
 10
130.10449
 20
-62.396645
 11
132.4045
 21
-62.396645
  0
LINE
  8
0
  6
CONTINUOUS
 62
     7
 10
130.10449
 20
87.603348
 11
132.4045
 21
87.603348
  0
LINE
  8
0
  6
CONTINUOUS
 62
     7
 10
20.854494
 20
128.30334
 11
55.854496
 21
128.30334
  0
LINE
  8
0
  6
CENTER
 62
     7
 10
38.354496
 20
142.00334
 11
38.354496
 21
123.00334
  0
LINE
  8
0
  6
CENTER
 62
     7
 10
-47.645504
 20
12.603351
 11
-15.645506
 21
12.603351
  0
LINE
  8
0
  6
CONTINUOUS
 62
     7
 10
26.354494
 20
137.50334
 11
26.354494
 21
129.30334
  0
LINE
  8
0
  6
CONTINUOUS
 62
     7
 10
50.354496
 20
137.50334
 11
50.354496
 21
129.30334
  0
LINE
  8
0
  6
CONTINUOUS
 62
     7
 10
27.854494
 20
139.00334
 11
48.854496
 21
139.00334
  0
LINE
  8
0
  6
CENTER
 62
     7
 10
27.854494
 20
87.143349
 11
27.854494
 21
74.063347
  0
LINE
  8
0
  6
CENTER
 62
     7
 10
21.314495
 20
80.603348
 11
34.394493
 21
80.603348
  0
LINE
  8
0
  6
CENTER
 62
     7
 10
48.854496
 20
87.143349
 11
48.854496
 21
74.063347
  0
LINE
  8
0
  6
CENTER
 62
     7
 10
42.314495
 20
80.603348
 11
55.394493
 21
80.603348
  0
LINE
  8
0
  6
CENTER
 62
     7
 10
48.854496
 20
-48.856647
 11
48.854496
 21
-61.936646
  0
LINE
  8
0
  6
CENTER
 62
     7
 10
42.314495
 20
-55.396645
 11
55.394493
 21
-55.396645
  0
LINE
  8
0
  6
CENTER
 62
     7
 10
27.854494
 20
-48.856647
 11
27.854494
 21
-61.936646
  0
LINE
  8
0
  6
CENTER
 62
     7
 10
21.314495
 20
-55.396645
 11
34.394493
 21
-55.396645
  0
LINE
  8
0
  6
CENTER
 62
     7
 10
17.854494
 20
12.603351
 11
55.854496
 21
12.603351
  0
LINE
  8
0
  6
CENTER
 62
     7
 10
38.354496
 20
90.603348
 11
38.354496
 21
-65.396645
  0
LINE
  8
0
  6
CENTER
 62
     7
 10
-31.645506
 20
73.103348
 11
-31.645506
 21
-47.896648
  0
LINE
  8
0
  6
CONTINUOUS
 62
     7
 10
-44.645504
 20
-44.896648
 11
-18.645506
 21
-44.896648
  0
LINE
  8
0
  6
CONTINUOUS
 62
     7
 10
-44.645504
 20
70.103348
 11
-18.645506
 21
70.103348
  0
LINE
  8
0
  6
CONTINUOUS
 62
     7
 10
-44.645504
 20
70.103348
 11
-44.645504
 21
-44.896648
  0
LINE
  8
0
  6
CONTINUOUS
 62
     7
 10
-18.645506
 20
70.103348
 11
-18.645506
 21
-44.896648
  0
LINE
  8
0
  6
CENTER
 62
     7
 10
127.10449
 20
12.603351
 11
146.10449
 21
12.603351
  0
LINE
  8
0
  6
CONTINUOUS
 62
     7
 10
131.60449
 20
-62.396645
 11
131.60449
 21
87.603348
  0
LINE
  8
0
  6
CONTINUOUS
 62
     7
 10
20.854494
 20
127.50334
 11
55.854496
 21
127.50334
  0
LINE
  8
0
  6
CENTER
 62
     7
 10
-48.685509
 20
-55.396645
 11
-35.605507
 21
-55.396645
  0
LINE
  8
0
  6
CENTER
 62
     7
 10
-42.145508
 20
-48.856647
 11
-42.145508
 21
-61.936646
  0
LINE
  8
0
  6
CENTER
 62
     7
 10
-21.145506
 20
87.143349
 11
-21.145506
 21
74.063347
  0
LINE
  8
0
  6
CENTER
 62
     7
 10
-27.685507
 20
80.603348
 11
-14.605509
 21
80.603348
  0
LINE
  8
0
  6
CENTER
 62
     7
 10
-48.685509
 20
80.603348
 11
-35.605507
 21
80.603348
  0
LINE
  8
0
  6
CENTER
 62
     7
 10
-42.145508
 20
87.143349
 11
-42.145508
 21
74.063347
  0
LINE
  8
0
  6
CENTER
 62
     7
 10
-27.685507
 20
-55.396645
 11
-14.605509
 21
-55.396645
  0
LINE
  8
0
  6
CENTER
 62
     7
 10
-21.145506
 20
-48.856647
 11
-21.145506
 21
-61.936646
  0
ARC
  8
0
  6
CONTINUOUS
 62
     7
 10
47.354496
 20
67.603348
 40
1.5
 50
0
 51
90
  0
ARC
  8
0
  6
CONTINUOUS
 62
     7
 10
47.354496
 20
-42.396645
 40
1.5
 50
270
 51
360
  0
ARC
  8
0
  6
CONTINUOUS
 62
     7
 10
29.354494
 20
-42.396645
 40
1.5
 50
180
 51
270
  0
ARC
  8
0
  6
CONTINUOUS
 62
     7
 10
29.354494
 20
67.603348
 40
1.5
 50
90
 51
180
  0
CIRCLE
  8
0
  6
CONTINUOUS
 62
     7
 10
27.854494
 20
-55.396645
 40
2.5
  0
ARC
  8
0
  6
CONTINUOUS
 62
     7
 10
120.10448
 20
49.668591
 40
23
 50
1.900575e-005
 51
57.670843
  0
ARC
  8
0
  6
CONTINUOUS
 62
     7
 10
120.10448
 20
-24.461885
 40
23
 50
302.32916
 51
1.900575e-005
  0
CIRCLE
  8
0
  6
CONTINUOUS
 62
     7
 10
48.854496
 20
-55.396645
 40
2.5
  0
CIRCLE
  8
0
  6
CONTINUOUS
 62
     7
 10
48.854496
 20
80.603348
 40
2.5
  0
CIRCLE
  8
0
  6
CONTINUOUS
 62
     7
 10
27.854494
 20
80.603348
 40
2.5
  0
CIRCLE
  8
0
  6
CONTINUOUS
 62
     7
 10
27.854494
 20
80.603348
 40
4
  0
CIRCLE
  8
0
  6
CONTINUOUS
 62
     7
 10
48.854496
 20
80.603348
 40
4
  0
CIRCLE
  8
0
  6
CONTINUOUS
 62
     7
 10
48.854496
 20
-55.396645
 40
4
  0
CIRCLE
  8
0
  6
CONTINUOUS
 62
     7
 10
27.854494
 20
-55.396645
 40
4
  0
ARC
  8
0
  6
CONTINUOUS
 62
     7
 10
51.354496
 20
129.30334
 40
1
 50
180
 51
270
  0
ARC
  8
0
  6
CONTINUOUS
 62
     7
 10
48.854496
 20
137.50334
 40
1.5
 50
0
 51
90
  0
ARC
  8
0
  6
CONTINUOUS
 62
     7
 10
25.354494
 20
129.30334
 40
1
 50
270
 51
360
  0
ARC
  8
0
  6
CONTINUOUS
 62
     7
 10
27.854494
 20
137.50334
 40
1.5
 50
90.000073
 51
180
  0
CIRCLE
  8
0
  6
CONTINUOUS
 62
     7
 10
26.250919
 20
-59.053802
 40
0.30000001
  0
CIRCLE
  8
0
  6
CONTINUOUS
 62
     7
 10
-154.86255
 20
120.91318
 40
1.5
  0
CIRCLE
  8
0
  6
CONTINUOUS
 62
     7
 10
-21.145506
 20
80.603348
 40
2
  0
CIRCLE
  8
0
  6
CONTINUOUS
 62
     7
 10
-21.145506
 20
80.603348
 40
1.6
  0
CIRCLE
  8
0
  6
CONTINUOUS
 62
     7
 10
-42.145508
 20
80.603348
 40
2
  0
CIRCLE
  8
0
  6
CONTINUOUS
 62
     7
 10
-42.145508
 20
80.603348
 40
1.6
  0
CIRCLE
  8
0
  6
CONTINUOUS
 62
     7
 10
-21.145508
 20
-55.396645
 40
2
  0
CIRCLE
  8
0
  6
CONTINUOUS
 62
     7
 10
-21.145508
 20
-55.396645
 40
1.6
  0
CIRCLE
  8
0
  6
CONTINUOUS
 62
     7
 10
-42.145508
 20
-55.396645
 40
2
  0
CIRCLE
  8
0
  6
CONTINUOUS
 62
     7
 10
-42.145508
 20
-55.396645
 40
1.6
  0
CIRCLE
  8
0
  6
CONTINUOUS
 62
     7
 10
-43.227737
 20
82.285248
 40
0.25
  0
TEXT
  8
0
  6
CONTINUOUS
 62
     7
 10
-188.143
 20
95.4
 40
3.2
 41
0.90047268
  1
＊
  0
TEXT
  8
0
  6
CONTINUOUS
 62
     7
 10
-205.343
 20
167.4
 40
3.2
 41
0.85537027
  1
品　名
  0
TEXT
  8
0
  6
CONTINUOUS
 62
     7
 10
-205.343
 20
159.4
 40
3.2
 41
0.85537027
  1
品　番
  0
TEXT
  8
0
  6
CONTINUOUS
 62
     7
 10
-188.143
 20
87.4
 40
3.2
 41
0.90047268
  1
＊
  0
TEXT
  8
0
  6
CONTINUOUS
 62
     7
 10
-188.143
 20
79.4
 40
3.2
 41
0.90047268
  1
＊
  0
TEXT
  8
0
  6
CONTINUOUS
 62
     7
 10
-188.143
 20
167.4
 40
3.2
 41
0.86439075
  1
引手
  0
TEXT
  8
0
  6
CONTINUOUS
 62
     7
 10
-205.343
 20
151.4
 40
3.2
 41
0.85537027
  1
材　質
  0
TEXT
  8
0
  6
CONTINUOUS
 62
     7
 10
-205.343
 20
143.4
 40
3.2
 41
0.85537027
  1
仕上げ
  0
TEXT
  8
0
  6
CONTINUOUS
 62
     7
 10
-188.143
 20
103.4
 40
3.2
 41
0.90047268
  1
＊
  0
TEXT
  8
0
  6
CONTINUOUS
 62
     7
 10
-188.143
 20
111.4
 40
3.2
 41
0.90047268
  1
＊
  0
TEXT
  8
0
  6
CONTINUOUS
 62
     7
 10
-208.543
 20
119.4
 40
3.2
 41
0.84892707
  1
セットビス
  0
TEXT
  8
0
  6
CONTINUOUS
 62
     7
 10
-188.143
 20
119.4
 40
3.2
 41
0.84248387
  1
Ｍ４×１０サラ小ネジ＋ＳＵＳ　　４本付
  0
TEXT
  8
0
  6
CONTINUOUS
 62
     7
 10
-188.143
 20
143.4
 40
3.2
 41
0.84377251
  1
ヘアーライン（シルバー）
  0
TEXT
  8
0
  6
CONTINUOUS
 62
     7
 10
-203.743
 20
95.4
 40
3.2
 41
0.86439075
  1
備考
  0
TEXT
  8
0
  6
CONTINUOUS
 62
     7
 10
-188.143
 20
151.4
 40
3.2
 41
0.84892707
  1
ステンレス
  0
TEXT
  8
0
  6
CONTINUOUS
 62
     7
 10
-188.143
 20
159.4
 40
3.2
 41
0.84741102
  1
ＳＵ－１５０
  0
TEXT
  8
0
  6
CONTINUOUS
 62
     7
 10
-205.343
 20
135.4
 40
3.2
 41
0.85537027
  1
定　尺
  0
TEXT
  8
0
  6
CONTINUOUS
 62
     7
 10
-206.943
 20
127.4
 40
3.2
 41
0.85127005
  1
左右勝手
  0
TEXT
  8
0
  6
CONTINUOUS
 62
     7
 10
-188.37853
 20
134.96998
 40
3.2
 41
0.90047268
  1
＊
  0
TEXT
  8
0
  6
CONTINUOUS
 62
     7
 10
-188.37853
 20
127.36617
 40
3.2
 41
0.86439075
  1
無し
  0
TEXT
  8
0
  6
CONTINUOUS
 62
     7
 10
-40.249792
 20
-81.724405
 40
3.2
 41
0.84741102
  1
切欠推奨寸法
  0
INSERT
  8
0
  6
CONTINUOUS
 62
     7
  2
KOZU0002
 10
0
 20
0
  0
DIMENSION
  8
0
  6
CONTINUOUS
 62
     7
  2
*D1
 70
     0
 10
158.10449
 20
69.103348
 11
158.10449
 21
78.353348
  3
DIMSTYLE
 13
132.4045
 23
87.603348
 14
132.4045
 24
69.103348
 50
90
1001
ACAD
1000
DSTYLE
1002
{
1070
    77
1070
     1
1070
   172
1070
     1
1002
}
  0
DIMENSION
  8
0
  6
CONTINUOUS
 62
     7
  2
*D2
 70
     0
 10
158.10449
 20
-43.896645
 11
158.10449
 21
12.603353
  3
DIMSTYLE
 13
132.4045
 23
69.103348
 14
132.4045
 24
-43.896645
 50
90
1001
ACAD
1000
DSTYLE
1002
{
1070
     6
1000
_NONE
1070
    77
1070
     1
1070
   172
1070
     1
1070
    75
1070
     1
1002
}
  0
DIMENSION
  8
0
  6
CONTINUOUS
 62
     7
  2
*D3
 70
     0
 10
158.10449
 20
-62.396645
 11
158.10449
 21
-53.146645
  3
DIMSTYLE
 13
132.4045
 23
-43.896645
 14
132.4045
 24
-62.396645
 50
90
1001
ACAD
1000
DSTYLE
1002
{
1070
     6
1000
_NONE
1070
    77
1070
     1
1070
   172
1070
     1
1070
    75
1070
     1
1002
}
  0
DIMENSION
  8
0
  6
CONTINUOUS
 62
     7
  2
*D4
 70
     0
 10
70.957756
 20
69.103348
 11
70.957756
 21
97.188416
  3
DIMSTYLE
 13
55.854496
 23
87.603348
 14
47.354496
 24
69.103348
 50
90
1001
ACAD
1000
DSTYLE
1002
{
1070
    77
1070
     1
1070
   172
1070
     1
1002
}
  0
DIMENSION
  8
0
  6
CONTINUOUS
 62
     7
  2
*D5
 70
     0
 10
70.854492
 20
69.103348
 11
70.854492
 21
12.603353
  3
DIMSTYLE
 13
47.354496
 23
-43.896645
 14
47.354496
 24
69.103348
 50
90
1001
ACAD
1000
DSTYLE
1002
{
1070
    77
1070
     1
1070
   172
1070
     1
1002
}
  0
DIMENSION
  8
0
  6
CONTINUOUS
 62
     7
  2
*D6
 70
     0
 10
70.854492
 20
-43.896645
 11
70.854492
 21
-69.564957
  3
DIMSTYLE
 13
55.854496
 23
-62.396645
 14
47.354496
 24
-43.896645
 50
90
1001
ACAD
1000
DSTYLE
1002
{
1070
    77
1070
     1
1070
   172
1070
     1
1070
    76
1070
     1
1002
}
  0
DIMENSION
  8
0
  6
CONTINUOUS
 62
     7
  2
*D7
 70
     0
 10
80.854492
 20
80.603348
 11
80.854492
 21
84.103348
  3
DIMSTYLE
 13
55.854496
 23
87.603348
 14
55.394493
 24
80.603348
 50
90
1001
ACAD
1000
DSTYLE
1002
{
1070
    77
1070
     1
1070
   172
1070
     1
1002
}
  0
DIMENSION
  8
0
  6
CONTINUOUS
 62
     7
  2
*D8
 70
     0
 10
80.854492
 20
-55.396645
 11
80.854492
 21
12.603353
  3
DIMSTYLE
 13
55.394493
 23
80.603348
 14
55.394493
 24
-55.396645
 50
90
1001
ACAD
1000
DSTYLE
1002
{
1070
     6
1000
_NONE
1070
    77
1070
     1
1070
   172
1070
     1
1070
    75
1070
     1
1002
}
  0
DIMENSION
  8
0
  6
CONTINUOUS
 62
     7
  2
*D9
 70
     0
 10
80.854492
 20
-62.396645
 11
80.854492
 21
-58.896645
  3
DIMSTYLE
 13
55.394493
 23
-55.396645
 14
55.854496
 24
-62.396645
 50
90
1001
ACAD
1000
DSTYLE
1002
{
1070
     6
1000
_NONE
1070
    77
1070
     1
1070
   172
1070
     1
1070
    75
1070
     1
1002
}
  0
DIMENSION
  8
0
  6
CONTINUOUS
 62
     7
  2
*D10
 70
     0
 10
90.854492
 20
-62.396645
 11
90.854492
 21
12.603353
  3
DIMSTYLE
 13
55.854496
 23
87.603348
 14
55.854496
 24
-62.396645
 50
90
1001
ACAD
1000
DSTYLE
1002
{
1070
    77
1070
     1
1070
   172
1070
     1
1002
}
  0
DIMENSION
  8
0
  6
CONTINUOUS
 62
     7
  2
*D11
 70
     0
 10
50.354496
 20
149.00334
 11
38.354496
 21
149.00334
  3
DIMSTYLE
 13
26.354494
 23
137.50334
 14
50.354496
 24
137.50334
 50
0
1001
ACAD
1000
DSTYLE
1002
{
1070
    77
1070
     1
1070
   172
1070
     1
1002
}
  0
DIMENSION
  8
0
  6
CONTINUOUS
 62
     7
  2
*D12
 70
     0
 10
26.354494
 20
149.00334
 11
23.604494
 21
149.00334
  3
DIMSTYLE
 13
20.854494
 23
128.30334
 14
26.354494
 24
137.50334
 50
0
1001
ACAD
1000
DSTYLE
1002
{
1070
    77
1070
     1
1070
   172
1070
     1
1002
}
  0
DIMENSION
  8
0
  6
CONTINUOUS
 62
     7
  2
*D13
 70
     0
 10
55.854496
 20
149.00334
 11
53.104496
 21
149.00334
  3
DIMSTYLE
 13
50.354496
 23
137.50334
 14
55.854496
 24
128.30334
 50
0
1001
ACAD
1000
DSTYLE
1002
{
1070
    77
1070
     1
1070
   172
1070
     1
1002
}
  0
DIMENSION
  8
0
  6
CONTINUOUS
 62
     7
  2
*D14
 70
     0
 10
27.854494
 20
97.603348
 11
24.354494
 21
97.603348
  3
DIMSTYLE
 13
20.854494
 23
87.603348
 14
27.854494
 24
87.143349
 50
0
1001
ACAD
1000
DSTYLE
1002
{
1070
    77
1070
     1
1070
   172
1070
     1
1002
}
  0
DIMENSION
  8
0
  6
CONTINUOUS
 62
     7
  2
*D15
 70
     0
 10
48.854496
 20
97.603348
 11
38.354496
 21
97.603348
  3
DIMSTYLE
 13
27.854494
 23
87.143349
 14
48.854496
 24
87.143349
 50
0
1001
ACAD
1000
DSTYLE
1002
{
1070
    77
1070
     1
1070
   172
1070
     1
1002
}
  0
DIMENSION
  8
0
  6
CONTINUOUS
 62
     7
  2
*D16
 70
     0
 10
55.854496
 20
97.603348
 11
52.354496
 21
97.603348
  3
DIMSTYLE
 13
48.854496
 23
87.143349
 14
55.854496
 24
87.603348
 50
0
1001
ACAD
1000
DSTYLE
1002
{
1070
     6
1000
_NONE
1070
    77
1070
     1
1070
   172
1070
     1
1070
    75
1070
     1
1002
}
  0
DIMENSION
  8
0
  6
CONTINUOUS
 62
     7
  2
*D17
 70
     0
 10
55.854496
 20
107.60335
 11
38.354496
 21
107.60335
  3
DIMSTYLE
 13
20.854494
 23
87.603348
 14
55.854496
 24
87.603348
 50
0
1001
ACAD
1000
DSTYLE
1002
{
1070
    77
1070
     1
1070
   172
1070
     1
1002
}
  0
DIMENSION
  8
0
  6
CONTINUOUS
 62
     7
  2
*D18
 70
     0
 10
132.4045
 20
97.031792
 11
124.31624
 21
97.031792
  3
DIMSTYLE
 13
130.10449
 23
87.603348
 14
132.4045
 24
87.603348
 50
0
1001
ACAD
1000
DSTYLE
1002
{
1070
    77
1070
     1
1070
   172
1070
     1
1002
}
  0
DIMENSION
  8
0
  6
CONTINUOUS
 62
     7
  2
*D19
 70
     0
 10
132.4045
 20
97.031792
 11
137.75449
 21
97.031792
  3
DIMSTYLE
 13
143.10449
 23
49.668591
 14
132.4045
 24
87.603348
 50
0
1001
ACAD
1000
DSTYLE
1002
{
1070
    77
1070
     1
1070
   172
1070
     1
1070
    76
1070
     1
1002
}
  0
DIMENSION
  8
0
  6
CONTINUOUS
 62
     7
  2
*D20
 70
     0
 10
143.10449
 20
107.60335
 11
136.60449
 21
107.60335
  3
DIMSTYLE
 13
130.10449
 23
87.603348
 14
143.10449
 24
49.668591
 50
0
1001
ACAD
1000
DSTYLE
1002
{
1070
    77
1070
     1
1070
   172
1070
     1
1002
}
  0
DIMENSION
  8
0
  6
CONTINUOUS
 62
     7
  2
*D21
 70
     0
 10
-54.645504
 20
70.103348
 11
-54.645504
 21
12.603351
  3
DIMSTYLE
 13
-44.645504
 23
-44.896648
 14
-44.645504
 24
70.103348
 50
90
1001
ACAD
1000
DSTYLE
1002
{
1070
    77
1070
     1
1070
   172
1070
     1
1002
}
  0
INSERT
  8
0
  6
CONTINUOUS
 62
     7
  2
KOZU0001
 10
29.398186
 20
-51.847649
  0
DIMENSION
  8
0
  6
CONTINUOUS
 62
     7
  2
*D22
 70
     0
 10
-42.145508
 20
-72.396645
 11
-31.645508
 21
-72.396645
  3
DIMSTYLE
 13
-21.145506
 23
-61.936646
 14
-42.145508
 24
-61.936646
 50
0
1001
ACAD
1000
DSTYLE
1002
{
1070
    77
1070
     1
1070
   172
1070
     1
1002
}
  0
DIMENSION
  8
0
  6
CONTINUOUS
 62
     7
  2
*D23
 70
     0
 10
-44.645504
 20
97.603348
 11
-31.645504
 21
97.603348
  3
DIMSTYLE
 13
-18.645506
 23
70.103348
 14
-44.645504
 24
70.103348
 50
0
1001
ACAD
1000
DSTYLE
1002
{
1070
    77
1070
     1
1070
   172
1070
     1
1002
}
  0
DIMENSION
  8
0
  6
CONTINUOUS
 62
     7
  2
*D24
 70
     0
 10
-66.959816
 20
-55.396645
 11
-66.959816
 21
12.603352
  3
DIMSTYLE
 13
-48.685509
 23
80.603348
 14
-48.685509
 24
-55.396645
 50
90
1001
ACAD
1000
DSTYLE
1002
{
1070
    77
1070
     1
1070
   172
1070
     1
1002
}
  0
INSERT
  8
0
  6
CONTINUOUS
 62
     7
  2
*D25
 10
0
 20
0
  0
ENDSEC
  0
EOF
