  0
SECTION
  2
HEADER
  9
$ACADVER
  1
AC1015
  9
$ACADMAINTVER
 70
    20
  9
$DWGCODEPAGE
  3
ANSI_932
  9
$INSBASE
 10
0.0
 20
0.0
 30
0.0
  9
$EXTMIN
 10
0.0
 20
0.0
 30
0.0
  9
$EXTMAX
 10
420.0
 20
297.0
 30
0.0
  9
$LIMMIN
 10
0.0
 20
0.0
  9
$LIMMAX
 10
420.0
 20
297.0
  9
$ORTHOMODE
 70
     0
  9
$REGENMODE
 70
     1
  9
$FILLMODE
 70
     1
  9
$QTEXTMODE
 70
     0
  9
$MIRRTEXT
 70
     0
  9
$LTSCALE
 40
1.0
  9
$ATTMODE
 70
     1
  9
$TEXTSIZE
 40
3.2
  9
$TRACEWID
 40
1.0
  9
$TEXTSTYLE
  7
STANDARD
  9
$CLAYER
  8
AM_0
  9
$CELTYPE
  6
ByLayer
  9
$CECOLOR
 62
   256
  9
$CELTSCALE
 40
1.0
  9
$DISPSILH
 70
     0
  9
$DIMSCALE
 40
1.0
  9
$DIMASZ
 40
1.0
  9
$DIMEXO
 40
1.0
  9
$DIMDLI
 40
10.0
  9
$DIMRND
 40
0.0
  9
$DIMDLE
 40
0.0
  9
$DIMEXE
 40
1.0
  9
$DIMTP
 40
0.1
  9
$DIMTM
 40
0.1
  9
$DIMTXT
 40
3.5
  9
$DIMCEN
 40
0.0
  9
$DIMTSZ
 40
0.0
  9
$DIMTOL
 70
     0
  9
$DIMLIM
 70
     0
  9
$DIMTIH
 70
     0
  9
$DIMTOH
 70
     0
  9
$DIMSE1
 70
     0
  9
$DIMSE2
 70
     0
  9
$DIMTAD
 70
     1
  9
$DIMZIN
 70
     8
  9
$DIMBLK
  1

  9
$DIMASO
 70
     1
  9
$DIMSHO
 70
     1
  9
$DIMPOST
  1

  9
$DIMAPOST
  1
"
  9
$DIMALT
 70
     0
  9
$DIMALTD
 70
     2
  9
$DIMALTF
 40
0.0393701
  9
$DIMLFAC
 40
1.0
  9
$DIMTOFL
 70
     1
  9
$DIMTVP
 40
0.0
  9
$DIMTIX
 70
     0
  9
$DIMSOXD
 70
     0
  9
$DIMSAH
 70
     0
  9
$DIMBLK1
  1

  9
$DIMBLK2
  1

  9
$DIMSTYLE
  2
SYS
  9
$DIMCLRD
 70
   256
  9
$DIMCLRE
 70
   256
  9
$DIMCLRT
 70
     7
  9
$DIMTFAC
 40
0.71
  9
$DIMGAP
 40
1.5
  9
$DIMJUST
 70
     0
  9
$DIMSD1
 70
     0
  9
$DIMSD2
 70
     0
  9
$DIMTOLJ
 70
     0
  9
$DIMTZIN
 70
     8
  9
$DIMALTZ
 70
     0
  9
$DIMALTTZ
 70
     0
  9
$DIMUPT
 70
     0
  9
$DIMDEC
 70
     2
  9
$DIMTDEC
 70
     2
  9
$DIMALTU
 70
     2
  9
$DIMALTTD
 70
     2
  9
$DIMTXSTY
  7
STANDARD
  9
$DIMAUNIT
 70
     0
  9
$DIMADEC
 70
     0
  9
$DIMALTRND
 40
0.0
  9
$DIMAZIN
 70
     2
  9
$DIMDSEP
 70
    46
  9
$DIMATFIT
 70
     3
  9
$DIMFRAC
 70
     0
  9
$DIMLDRBLK
  1

  9
$DIMLUNIT
 70
     2
  9
$DIMLWD
 70
    -1
  9
$DIMLWE
 70
    -1
  9
$DIMTMOVE
 70
     0
  9
$LUNITS
 70
     2
  9
$LUPREC
 70
     2
  9
$SKETCHINC
 40
1.0
  9
$FILLETRAD
 40
0.0
  9
$AUNITS
 70
     0
  9
$AUPREC
 70
     0
  9
$MENU
  1
.
  9
$ELEVATION
 40
0.0
  9
$PELEVATION
 40
0.0
  9
$THICKNESS
 40
0.0
  9
$LIMCHECK
 70
     0
  9
$CHAMFERA
 40
0.0
  9
$CHAMFERB
 40
0.0
  9
$CHAMFERC
 40
20.0
  9
$CHAMFERD
 40
0.0
  9
$SKPOLY
 70
     0
  9
$TDCREATE
 40
2455827.693001482
  9
$TDUCREATE
 40
2455827.318001482
  9
$TDUPDATE
 40
2456030.696746412
  9
$TDUUPDATE
 40
2456030.321746412
  9
$TDINDWG
 40
0.1135646181
  9
$TDUSRTIMER
 40
0.1135617245
  9
$USRTIMER
 70
     1
  9
$ANGBASE
 50
0.0
  9
$ANGDIR
 70
     0
  9
$PDMODE
 70
     0
  9
$PDSIZE
 40
-3.0
  9
$PLINEWID
 40
0.0
  9
$SPLFRAME
 70
     0
  9
$SPLINETYPE
 70
     6
  9
$SPLINESEGS
 70
     8
  9
$HANDSEED
  5
DF7B
  9
$SURFTAB1
 70
     6
  9
$SURFTAB2
 70
     6
  9
$SURFTYPE
 70
     6
  9
$SURFU
 70
     6
  9
$SURFV
 70
     6
  9
$UCSBASE
  2

  9
$UCSNAME
  2

  9
$UCSORG
 10
0.0
 20
0.0
 30
0.0
  9
$UCSXDIR
 10
1.0
 20
0.0
 30
0.0
  9
$UCSYDIR
 10
0.0
 20
1.0
 30
0.0
  9
$UCSORTHOREF
  2

  9
$UCSORTHOVIEW
 70
     0
  9
$UCSORGTOP
 10
0.0
 20
0.0
 30
0.0
  9
$UCSORGBOTTOM
 10
0.0
 20
0.0
 30
0.0
  9
$UCSORGLEFT
 10
0.0
 20
0.0
 30
0.0
  9
$UCSORGRIGHT
 10
0.0
 20
0.0
 30
0.0
  9
$UCSORGFRONT
 10
0.0
 20
0.0
 30
0.0
  9
$UCSORGBACK
 10
0.0
 20
0.0
 30
0.0
  9
$PUCSBASE
  2

  9
$PUCSNAME
  2

  9
$PUCSORG
 10
0.0
 20
0.0
 30
0.0
  9
$PUCSXDIR
 10
1.0
 20
0.0
 30
0.0
  9
$PUCSYDIR
 10
0.0
 20
1.0
 30
0.0
  9
$PUCSORTHOREF
  2

  9
$PUCSORTHOVIEW
 70
     0
  9
$PUCSORGTOP
 10
0.0
 20
0.0
 30
0.0
  9
$PUCSORGBOTTOM
 10
0.0
 20
0.0
 30
0.0
  9
$PUCSORGLEFT
 10
0.0
 20
0.0
 30
0.0
  9
$PUCSORGRIGHT
 10
0.0
 20
0.0
 30
0.0
  9
$PUCSORGFRONT
 10
0.0
 20
0.0
 30
0.0
  9
$PUCSORGBACK
 10
0.0
 20
0.0
 30
0.0
  9
$USERI1
 70
     0
  9
$USERI2
 70
     0
  9
$USERI3
 70
     0
  9
$USERI4
 70
     0
  9
$USERI5
 70
     0
  9
$USERR1
 40
0.0
  9
$USERR2
 40
0.0
  9
$USERR3
 40
0.0
  9
$USERR4
 40
0.0
  9
$USERR5
 40
0.0
  9
$WORLDVIEW
 70
     1
  9
$SHADEDGE
 70
     3
  9
$SHADEDIF
 70
    70
  9
$TILEMODE
 70
     1
  9
$MAXACTVP
 70
    64
  9
$PINSBASE
 10
0.0
 20
0.0
 30
0.0
  9
$PLIMCHECK
 70
     0
  9
$PEXTMIN
 10
1.000000000000000E+20
 20
1.000000000000000E+20
 30
1.000000000000000E+20
  9
$PEXTMAX
 10
-1.000000000000000E+20
 20
-1.000000000000000E+20
 30
-1.000000000000000E+20
  9
$PLIMMIN
 10
-3.17498779296875
 20
-3.174999952316283
  9
$PLIMMAX
 10
293.4970092773438
 20
206.692492723465
  9
$UNITMODE
 70
     0
  9
$VISRETAIN
 70
     1
  9
$PLINEGEN
 70
     0
  9
$PSLTSCALE
 70
     1
  9
$TREEDEPTH
 70
  3020
  9
$CMLSTYLE
  2
Standard
  9
$CMLJUST
 70
     0
  9
$CMLSCALE
 40
20.0
  9
$PROXYGRAPHICS
 70
     1
  9
$MEASUREMENT
 70
     1
  9
$CELWEIGHT
370
    -1
  9
$ENDCAPS
280
     0
  9
$JOINSTYLE
280
     0
  9
$LWDISPLAY
290
     1
  9
$INSUNITS
 70
     4
  9
$HYPERLINKBASE
  1

  9
$STYLESHEET
  1
MONOCHROME.CTB
  9
$XEDIT
290
     1
  9
$CEPSNTYPE
380
     0
  9
$PSTYLEMODE
290
     1
  9
$FINGERPRINTGUID
  2
{E330A5D0-2CCD-4E3C-98AD-D7EB06DDC488}
  9
$VERSIONGUID
  2
{5DF217B7-DFF4-4F44-9C09-71BEC15CAF42}
  9
$EXTNAMES
290
     1
  9
$PSVPSCALE
 40
0.0
  9
$OLESTARTUP
290
     0
  0
ENDSEC
  0
SECTION
  2
CLASSES
  0
CLASS
  1
ACDBDICTIONARYWDFLT
  2
AcDbDictionaryWithDefault
  3
ObjectDBX Classes
 90
        0
280
     0
281
     0
  0
CLASS
  1
ACDBPLACEHOLDER
  2
AcDbPlaceHolder
  3
ObjectDBX Classes
 90
        0
280
     0
281
     0
  0
CLASS
  1
LAYOUT
  2
AcDbLayout
  3
ObjectDBX Classes
 90
        0
280
     0
281
     0
  0
CLASS
  1
AMGSETTINGSOBJ
  2
AmgSettingsObj
  3
"AcadM|Product Description: AutoCAD Mechanical|Company: Autodesk"
 90
        0
280
     0
281
     0
  0
CLASS
  1
ACME_DOCUMENT
  2
AcMeDbDoc
  3
AcMeServices
 90
        0
280
     0
281
     0
  0
CLASS
  1
ACMESCOPE
  2
AcMeScope
  3
AcMeServices
 90
        0
280
     0
281
     0
  0
CLASS
  1
ACMECOMMANDHISTORY
  2
AcMeCommandHistory
  3
AcMeServices
 90
        0
280
     0
281
     0
  0
CLASS
  1
DICTIONARYVAR
  2
AcDbDictionaryVar
  3
ObjectDBX Classes
 90
        0
280
     0
281
     0
  0
CLASS
  1
ACIMSYSVARMAN
  2
AcImSysVarManager
  3
AcMeServices
 90
        0
280
     0
281
     0
  0
CLASS
  1
ACIMREALSYSVAR
  2
AcImRealSysVar
  3
AcMeServices
 90
        0
280
     0
281
     0
  0
CLASS
  1
ACIMINTSYSVAR
  2
AcImIntSysVar
  3
AcMeServices
 90
        0
280
     0
281
     0
  0
CLASS
  1
ACMEDRAWINGMAN
  2
AcMeDrawingMan
  3
AcMeServices
 90
        0
280
     0
281
     0
  0
CLASS
  1
ACMEVIEW
  2
AcMeView
  3
AcMeServices
 90
        0
280
     0
281
     0
  0
CLASS
  1
ACDBENTITYCACHE
  2
AcMeEntityCache
  3
AcMeServices
 90
        0
280
     0
281
     0
  0
CLASS
  1
GSMANAGER
  2
AcMeGSManager
  3
AcMeServices
 90
        0
280
     0
281
     0
  0
CLASS
  1
AMDTINTERNALREACTOR
  2
AmdtInternalReactor
  3
AcMeServices
 90
        0
280
     0
281
     0
  0
CLASS
  1
ACMESTATEMGR
  2
AcMeStateMgr
  3
AcMeServices
 90
        0
280
     0
281
     0
  0
CLASS
  1
ACGREFMASTER
  2
AcGrefMaster
  3
AcAttribServices
 90
        0
280
     0
281
     0
  0
CLASS
  1
ACME_DATABASE
  2
AcMeDbDatabase
  3
AcMeServices
 90
        0
280
     0
281
     0
  0
CLASS
  1
ACRFINSADJUSTERMGR
  2
AcRfInsAdjusterMgr
  3
AcMeServices
 90
        0
280
     0
281
     0
  0
CLASS
  1
ACGREFACADMASTER
  2
AcGrefacadMaster
  3
AcGrefServices
 90
        0
280
     0
281
     0
  0
CLASS
  1
AMIMASTER
  2
AmiMaster
  3
AmiServices
 90
        0
280
     0
281
     0
  0
CLASS
  1
ACMDATADICTIONARY
  2
AcmDataDictionary
  3
"AcmSymBB|Product Description: AutoCAD Mechanical|Company: Autodesk"
 90
        0
280
     0
281
     0
  0
CLASS
  1
ACMDATAENTRYBLOCK
  2
AcmDataEntryBlock
  3
"AcmSymBB|Product Description: AutoCAD Mechanical|Company: Autodesk"
 90
    32768
280
     0
281
     0
  0
CLASS
  1
ACIMSTRSYSVAR
  2
AcImStrSysVar
  3
AcMeServices
 90
        0
280
     0
281
     0
  0
CLASS
  1
ACMSTANDARDISO
  2
AcmStandardISO
  3
"Amdt_StdImp|Product Description: AutoCAD Mechanical|Company: Autodesk"
 90
        0
280
     0
281
     0
  0
CLASS
  1
AMGOBJPROPCFG
  2
AmgObjPropCfg
  3
"AmgLay|Product Description: AutoCAD Mechanical|Company: Autodesk"
 90
        1
280
     0
281
     0
  0
CLASS
  1
AMDTEDGESTANDARDISO
  2
AmdtEdgeStdISO
  3
"Amdt_StdImp|Product Description: AutoCAD Mechanical|Company: Autodesk"
 90
    32768
280
     0
281
     0
  0
CLASS
  1
ACMSURFSTANDARDISO
  2
AcmSurfTextStdISO
  3
"Amdt_StdImp|Product Description: AutoCAD Mechanical|Company: Autodesk"
 90
        0
280
     0
281
     0
  0
CLASS
  1
ACMFCFSTANDARDISO
  2
AcmFCFStdISO
  3
"Amdt_StdImp|Product Description: AutoCAD Mechanical|Company: Autodesk"
 90
        0
280
     0
281
     0
  0
CLASS
  1
ACMWELDSTANDARDISO
  2
AcmWeldingStdISO
  3
"Amdt_StdImp|Product Description: AutoCAD Mechanical|Company: Autodesk"
 90
        0
280
     0
281
     0
  0
CLASS
  1
ACMIDSTANDARDISO
  2
AcmIdStdISO
  3
"Amdt_StdImp|Product Description: AutoCAD Mechanical|Company: Autodesk"
 90
        0
280
     0
281
     0
  0
CLASS
  1
ACMDATUMSTANDARDISO
  2
AcmDatumStdISO
  3
"Amdt_StdImp|Product Description: AutoCAD Mechanical|Company: Autodesk"
 90
        0
280
     0
281
     0
  0
CLASS
  1
ACMBOMSTANDARDISO
  2
AcmBOMStdISO
  3
"Amdt_StdImp|Product Description: AutoCAD Mechanical|Company: Autodesk"
 90
        0
280
     0
281
     0
  0
CLASS
  1
ACMDETAILSTANDARDISO
  2
AmdtDetailSymStdISO
  3
"Amdt_StdImp|Product Description: AutoCAD Mechanical|Company: Autodesk"
 90
        0
280
     0
281
     0
  0
CLASS
  1
ACMSECTIONSTANDARDISO
  2
AmdtSectionSymStdISO
  3
"Amdt_StdImp|Product Description: AutoCAD Mechanical|Company: Autodesk"
 90
        0
280
     0
281
     0
  0
CLASS
  1
ACMCENTERLINESTANDARDISO
  2
AmdtCenterLineStdISO
  3
"Amdt_StdImp|Product Description: AutoCAD Mechanical|Company: Autodesk"
 90
        0
280
     0
281
     0
  0
CLASS
  1
ACAMGLAYSTD
  2
AcAmgLayStd
  3
"AmgLay|Product Description: AutoCAD Mechanical|Company: Autodesk"
 90
        0
280
     0
281
     0
  0
CLASS
  1
ACAMGDIMSTD
  2
AcAmgDimStd
  3
"AmgDim|Product Description: AutoCAD Mechanical|Company: Autodesk"
 90
        0
280
     0
281
     0
  0
CLASS
  1
ACAMGTITLESTD
  2
AcAmgTitleStd
  3
"AmgTitle|Product Description: AutoCAD Mechanical|Company: Autodesk"
 90
        0
280
     0
281
     0
  0
CLASS
  1
ACAMGFILTERDAT
  2
AcAmgFilterDat
  3
"AcadM|Product Description: AutoCAD Mechanical|Company: Autodesk"
 90
    32768
280
     0
281
     0
  0
CLASS
  1
LAYER_INDEX
  2
AcDbLayerIndex
  3
ObjectDBX Classes
 90
    32768
280
     0
281
     0
  0
CLASS
  1
IDBUFFER
  2
AcDbIdBuffer
  3
ObjectDBX Classes
 90
    32768
280
     0
281
     0
  0
CLASS
  1
PLOTSETTINGS
  2
AcDbPlotSettings
  3
ObjectDBX Classes
 90
    32768
280
     0
281
     0
  0
CLASS
  1
AMDTFORMULAUPDATEDISPATCHER
  2
AmdtFormulaUpdateDispatcher
  3
AcMeServices
 90
    32768
280
     0
281
     0
  0
CLASS
  1
ACMSTANDARDANSI
  2
AcmStandardANSI
  3
"Amdt_StdImp|Product Description: AutoCAD Mechanical|Company: Autodesk"
 90
    32768
280
     0
281
     0
  0
CLASS
  1
ACMSURFSTANDARDANSI
  2
AcmSurfTextStdANSI
  3
"Amdt_StdImp|Product Description: AutoCAD Mechanical|Company: Autodesk"
 90
    32768
280
     0
281
     0
  0
CLASS
  1
ACMFCFSTANDARDANSI
  2
AcmFCFStdANSI
  3
"Amdt_StdImp|Product Description: AutoCAD Mechanical|Company: Autodesk"
 90
    32768
280
     0
281
     0
  0
CLASS
  1
ACMWELDSTANDARDANSI
  2
AcmWeldingStdANSI
  3
"Amdt_StdImp|Product Description: AutoCAD Mechanical|Company: Autodesk"
 90
    32768
280
     0
281
     0
  0
CLASS
  1
ACMIDSTANDARDANSI
  2
AcmIdStdANSI
  3
"Amdt_StdImp|Product Description: AutoCAD Mechanical|Company: Autodesk"
 90
    32768
280
     0
281
     0
  0
CLASS
  1
ACMDATUMSTANDARDANSI
  2
AcmDatumStdANSI
  3
"Amdt_StdImp|Product Description: AutoCAD Mechanical|Company: Autodesk"
 90
    32768
280
     0
281
     0
  0
CLASS
  1
ACMBOMSTANDARDANSI
  2
AcmBOMStdANSI
  3
"Amdt_StdImp|Product Description: AutoCAD Mechanical|Company: Autodesk"
 90
    32768
280
     0
281
     0
  0
CLASS
  1
ACMDETAILSTANDARDANSI
  2
AmdtDetailSymStdANSI
  3
"Amdt_StdImp|Product Description: AutoCAD Mechanical|Company: Autodesk"
 90
    32768
280
     0
281
     0
  0
CLASS
  1
ACMSECTIONSTANDARDANSI
  2
AmdtSectionSymStdANSI
  3
"Amdt_StdImp|Product Description: AutoCAD Mechanical|Company: Autodesk"
 90
    32768
280
     0
281
     0
  0
CLASS
  1
ACMCENTERLINESTANDARDANSI
  2
AmdtCenterLineStdANSI
  3
"Amdt_StdImp|Product Description: AutoCAD Mechanical|Company: Autodesk"
 90
    32768
280
     0
281
     0
  0
CLASS
  1
ACMBOM
  2
AcmBom
  3
"AcmSymBB|Product Description: AutoCAD Mechanical|Company: Autodesk"
 90
    32768
280
     0
281
     0
  0
CLASS
  1
ACMDATAENTRYPART
  2
AcmDataEntryPart
  3
"AcmSymBB|Product Description: AutoCAD Mechanical|Company: Autodesk"
 90
    32768
280
     0
281
     0
  0
CLASS
  1
ACMPARTREF
  2
AcmPartRef
  3
"AcmSymBB|Product Description: AutoCAD Mechanical|Company: Autodesk"
 90
    35839
280
     0
281
     1
  0
CLASS
  1
ACDBCIRCARCRES
  2
AcDbCircArcRes
  3
AcGrefServices
 90
    32768
280
     0
281
     0
  0
CLASS
  1
ACMBOMROW
  2
AcmBomRow
  3
"AcmSymBB|Product Description: AutoCAD Mechanical|Company: Autodesk"
 90
    32768
280
     0
281
     0
  0
CLASS
  1
ACMBALLOON
  2
AcmBalloon
  3
"AcmSymBB|Product Description: AutoCAD Mechanical|Company: Autodesk"
 90
    35839
280
     0
281
     1
  0
CLASS
  1
AMDTNOTE
  2
AmdtNote
  3
"AcmSymBB|Product Description: AutoCAD Mechanical|Company: Autodesk"
 90
    35839
280
     0
281
     1
  0
CLASS
  1
STDPART2D
  2
AmgStdPart
  3
"g3vace|Class: AmgStdPart|Product Description: AutoCAD Mechanical|Company: Autodesk"
 90
    35839
280
     0
281
     1
  0
CLASS
  1
ACDBSTDPARTRES_LINE
  2
AcDbStdPartRes_Line
  3
"g3vace|Class: AcDbStdPartRes_Line|Product Description: AutoCAD Mechanical|Company: Autodesk"
 90
    32768
280
     0
281
     0
  0
CLASS
  1
ACMDATAENTRY
  2
AcmDataEntry
  3
"AcmSymBB|Product Description: AutoCAD Mechanical|Company: Autodesk"
 90
    32768
280
     0
281
     0
  0
CLASS
  1
ACDBOPPOLYLINERES
  2
AcDbOpPolylineRes
  3
AcGrefServices
 90
    32768
280
     0
281
     0
  0
CLASS
  1
ACMPARTLIST
  2
AcmPartList
  3
"AcmSymBB|Product Description: AutoCAD Mechanical|Company: Autodesk"
 90
    35839
280
     0
281
     1
  0
CLASS
  1
ACDBLINERES
  2
AcDbLineRes
  3
AcGrefServices
 90
    32768
280
     0
281
     0
  0
CLASS
  1
ACRFINSADJ
  2
AcRfInsAdjuster
  3
AcMeServices
 90
    32768
280
     0
281
     0
  0
CLASS
  1
AM_DRAWING_MGR
  2
AcDmDwgMgr
  3
AcMechDwgViewMgmt
 90
        0
280
     0
281
     0
  0
CLASS
  1
AM_DWG_DOCUMENT
  2
AcDmDwgDocument
  3
AcMechDwgViewMgmt
 90
        0
280
     0
281
     0
  0
CLASS
  1
AM_DWG_SHEET
  2
AcDmSheet
  3
AcMechDwgViewMgmt
 90
        0
280
     0
281
     0
  0
CLASS
  1
AM_VIEWDIMPARMAP
  2
AcDmViewDimParMap
  3
AcMechDwgViewMgmt
 90
        0
280
     0
281
     0
  0
CLASS
  1
AM_DWGMGR_NAME
  2
AcDmDwgMgrName
  3
AcMechDwgViewMgmt
 90
        0
280
     0
281
     0
  0
CLASS
  1
AMDTMENUSTATEMGR
  2
AmdtMenuStateMgr
  3
McadcomServices
 90
        0
280
     0
281
     0
  0
CLASS
  1
AMDTMCOMMENUSTATE
  2
AmdtMcomMenuState
  3
McadcomServices
 90
        0
280
     0
281
     0
  0
CLASS
  1
ASAPP
  2
AcAsAppObject
  3
AutoSurfServices
 90
        0
280
     0
281
     0
  0
CLASS
  1
IM_STATIC_MAN
  2
AcImStaticVarManager
  3
AcMeServices
 90
    32768
280
     0
281
     0
  0
CLASS
  1
ACIMDBLSTATICVAR
  2
AcImDblStaticVar
  3
AcMeServices
 90
    32768
280
     0
281
     0
  0
CLASS
  1
ACIMSTRSTATICVAR
  2
AcImStrStaticVar
  3
AcMeServices
 90
    32768
280
     0
281
     0
  0
CLASS
  1
ACIMINTSTATICVAR
  2
AcImIntStaticVar
  3
AcMeServices
 90
    32768
280
     0
281
     0
  0
CLASS
  1
ACASGREFMASTER
  2
AcAsGrefMaster
  3
AutoSurfResolverServices
 90
        0
280
     0
281
     0
  0
CLASS
  1
ACADGREFMODULE
  2
AcAdGrefModule
  3
AdGrefServices
 90
        0
280
     0
281
     0
  0
CLASS
  1
AMDTMAPISURFMOUDULE
  2
AmdtMApiSurfModule
  3
MApiSurfServices
 90
        0
280
     0
281
     0
  0
CLASS
  1
MAPIAMMOUDLE
  2
MApiAmModule
  3
MApiAmServices
 90
        0
280
     0
281
     0
  0
CLASS
  1
AMDTADMENUSTATE
  2
AmdtAdMenuState
  3
DesignerServices
 90
        0
280
     0
281
     0
  0
CLASS
  1
ADAPPL
  2
AcAdAppl
  3
DesignerServices
 90
        0
280
     0
281
     0
  0
CLASS
  1
DEPMGR
  2
AcAdDepMgr
  3
DesignerServices
 90
        0
280
     0
281
     0
  0
CLASS
  1
PARAMMGR
  2
AcAdParamMgr
  3
DesignerServices
 90
        0
280
     0
281
     0
  0
CLASS
  1
PARAMSCOPE
  2
AcAdParamScope
  3
DesignerServices
 90
        0
280
     0
281
     0
  0
CLASS
  1
NAMEDAPPL
  2
AcAdNamedAppl
  3
DesignerServices
 90
        0
280
     0
281
     0
  0
CLASS
  1
ADHNTMPLT
  2
AdHoleNoteTemplateMgr
  3
DesignerServices
 90
    32768
280
     0
281
     0
  0
CLASS
  1
AM_HNTEMPLATE_MGR_NAME
  2
AdHoleNoteTemplateMgrName
  3
DesignerServices
 90
    32768
280
     0
281
     0
  0
CLASS
  1
AMDTDMMENUSTATE
  2
AmdtDmMenuState
  3
AcMechDwgViewMgmt
 90
        0
280
     0
281
     0
  0
CLASS
  1
MAPIADMODULE
  2
MApiAdModule
  3
MApiAdServices
 90
        0
280
     0
281
     0
  0
CLASS
  1
AMDTAMMENUSTATE
  2
AmdtAmMenuState
  3
DesignerAssemblies
 90
        0
280
     0
281
     0
  0
CLASS
  1
ACAMPROJECT
  2
AcAmProject
  3
DesignerAssemblies
 90
        0
280
     0
281
     0
  0
CLASS
  1
ACAMGRCOMPDEF
  2
AcAmGrCompDef
  3
DesignerAssemblies
 90
        0
280
     0
281
     0
  0
CLASS
  1
ACCMCONTEXT
  2
AcCmContext
  3
DesignerAssemblies
 90
        0
280
     0
281
     0
  0
CLASS
  1
ACAMCOMPDEF
  2
AcAmCompDef
  3
DesignerAssemblies
 90
        0
280
     0
281
     0
  0
CLASS
  1
ACAMCOMPDEFMGR
  2
AcAmCompDefMgr
  3
DesignerAssemblies
 90
        0
280
     0
281
     0
  0
CLASS
  1
AMCONTEXTMGR
  2
AcAmContextMgr
  3
DesignerAssemblies
 90
        0
280
     0
281
     0
  0
CLASS
  1
ACAMCONTEXTMODELER
  2
AcAmContextModeler
  3
DesignerAssemblies
 90
        0
280
     0
281
     0
  0
CLASS
  1
CATALOGSTATE
  2
AcAmCatalogState
  3
DesignerAssemblies
 90
        0
280
     0
281
     0
  0
CLASS
  1
ACAMGRCOMPDEFSET
  2
AcAmGrCompDefSet
  3
DesignerAssemblies
 90
        0
280
     0
281
     0
  0
CLASS
  1
AMDTBROWSERDBTAB
  2
AmdtBrowserDbTab
  3
McadcomServices
 90
        0
280
     0
281
     0
  0
CLASS
  1
CBROWSERAPPOBJECT
  2
CBrowserAppObject
  3
McadcomServices
 90
        0
280
     0
281
     0
  0
CLASS
  1
DM_PLACEHOLDER
  2
AcDmSelsetPlaceholder
  3
AcMechDwgViewMgmt
 90
        0
280
     0
281
     0
  0
CLASS
  1
ACMPICKOBJ
  2
AcmPickEnt
  3
"AcmSymBB|Product Description: AutoCAD Mechanical|Company: Autodesk"
 90
    32768
280
     0
281
     1
  0
CLASS
  1
ACMNOTESTANDARDISO
  2
AmdtNoteStdISO
  3
"Amdt_StdImp|Product Description: AutoCAD Mechanical|Company: Autodesk"
 90
        0
280
     0
281
     0
  0
CLASS
  1
ACMNOTESTANDARDANSI
  2
AmdtNoteStdANSI
  3
"Amdt_StdImp|Product Description: AutoCAD Mechanical|Company: Autodesk"
 90
    32768
280
     0
281
     0
  0
CLASS
  1
ACMTHREADLINESTANDARDISO
  2
AmdtThreadLineStdISO
  3
"Amdt_StdImp|Product Description: AutoCAD Mechanical|Company: Autodesk"
 90
        0
280
     0
281
     0
  0
CLASS
  1
ACMTHREADLINESTANDARDANSI
  2
AmdtThreadLineStdANSI
  3
"Amdt_StdImp|Product Description: AutoCAD Mechanical|Company: Autodesk"
 90
    32768
280
     0
281
     0
  0
CLASS
  1
TABLESTYLE
  2
AcDbTableStyle
  3
ObjectDBX Classes
 90
     4095
280
     0
281
     0
  0
CLASS
  1
SORTENTSTABLE
  2
AcDbSortentsTable
  3
ObjectDBX Classes
 90
        0
280
     0
281
     0
  0
CLASS
  1
MATERIAL
  2
AcDbMaterial
  3
ObjectDBX Classes
 90
     1024
280
     0
281
     0
  0
CLASS
  1
VISUALSTYLE
  2
AcDbVisualStyle
  3
ObjectDBX Classes
 90
     4095
280
     0
281
     0
  0
CLASS
  1
ACRFATTGENMGR
  2
AcRfAttGeneralMgr
  3
AcAttribServices
 90
    32768
280
     0
281
     0
  0
CLASS
  1
ACRFOBJATTMGR
  2
AcRfObjAttGroupMgr
  3
AcAttribServices
 90
    32768
280
     0
281
     0
  0
CLASS
  1
ACRFMCADAPIATTHOLDER
  2
AcRfMCADAPIAttHolder
  3
AcAttribServices
 90
    32768
280
     0
281
     0
  0
CLASS
  1
AMDTSYSATTR
  2
AmdtSystemAttribute
  3
AcAttribServices
 90
    32768
280
     0
281
     0
  0
CLASS
  1
ACMTAPERSTANDARDISO
  2
AcmTaperStdISO
  3
"Amdt_StdImp|Product Description: AutoCAD Mechanical|Company: Autodesk"
 90
        0
280
     0
281
     0
  0
CLASS
  1
CAMSSTRUCTBTNSTATE
  2
StructBtnState
  3
L"DesignerAssemblies"
 90
    32768
280
     0
281
     0
  0
CLASS
  1
DIMASSOC
  2
AcDbDimAssoc
  3
"AcDbDimAssoc|Product Desc:     AcDim ARX App For Dimension|Company:          Autodesk, Inc.|WEB Address:      www.autodesk.com"
 90
    32768
280
     0
281
     0
  0
CLASS
  1
AMDTNOTETEMPLATEDB
  2
AmdtNoteTemplateDB
  3
AMDT_STDIMP_MODULE_NAME
 90
        0
280
     0
281
     0
  0
CLASS
  1
SCALE
  2
AcDbScale
  3
ObjectDBX Classes
 90
     1153
280
     0
281
     0
  0
CLASS
  1
MLEADERSTYLE
  2
AcDbMLeaderStyle
  3
ACDB_MLEADERSTYLE_CLASS
 90
     4095
280
     0
281
     0
  0
CLASS
  1
ACMANOOTATIONVIEWSTANDARDISO
  2
AmdtAnViewStdISO
  3
"Amdt_StdImp|Product Description: AutoCAD Mechanical|Company: Autodesk, Inc."
 90
    33792
280
     0
281
     0
  0
CLASS
  1
CELLSTYLEMAP
  2
AcDbCellStyleMap
  3
ObjectDBX Classes
 90
     1152
280
     0
281
     0
  0
CLASS
  1
ACMTAPERSTANDARDANSI
  2
AcmTaperStdANSI
  3
"Amdt_StdImp|Product Description: AutoCAD Mechanical|Company: Autodesk"
 90
    32768
280
     0
281
     0
  0
CLASS
  1
ACAMGHOLECHARTSTDANSI
  2
AcAmgHoleChartStdANSI
  3
ACMSYMBB_MODULE_NAME
 90
    32768
280
     0
281
     0
  0
CLASS
  1
ACMANOOTATIONVIEWSTANDARDANSI
  2
AmdtAnViewStdANSI
  3
"Amdt_StdImp|Product Description: AutoCAD Mechanical|Company: Autodesk, Inc."
 90
    33792
280
     0
281
     0
  0
CLASS
  1
AMDTEDGESTANDARDISO13715
  2
AmdtEdgeStdISO13715
  3
"Amdt_StdImp|Product Description: AutoCAD Mechanical|Company: Autodesk"
 90
        0
280
     0
281
     0
  0
CLASS
  1
ACAMGHOLECHARTSTDISO
  2
AcAmgHoleChartStdISO
  3
ACMSYMBB_MODULE_NAME
 90
        0
280
     0
281
     0
  0
ENDSEC
  0
SECTION
  2
TABLES
  0
TABLE
  2
VPORT
  5
8
330
0
100
AcDbSymbolTable
 70
     1
  0
VPORT
  5
B0EC
330
8
100
AcDbSymbolTableRecord
100
AcDbViewportTableRecord
  2
*Active
 70
     0
 10
0.0
 20
0.0
 11
1.0
 21
1.0
 12
272.5895548626477
 22
148.5085955043718
 13
0.0
 23
0.0
 14
2.5
 24
2.5
 15
10.0
 25
10.0
 16
0.0
 26
0.0
 36
1.0
 17
0.0
 27
0.0
 37
0.0
 40
298.88778399788
 41
2.04325699745547
 42
50.0
 43
-1370.695619172058
 44
-1370.695619172058
 50
0.0
 51
0.0
 71
     0
 72
   100
 73
     1
 74
     3
 75
     0
 76
     0
 77
     0
 78
     0
281
     0
 65
     0
110
0.0
120
0.0
130
0.0
111
1.0
121
0.0
131
0.0
112
0.0
122
1.0
132
0.0
 79
     0
146
0.0
  0
ENDTAB
  0
TABLE
  2
LTYPE
  5
5
330
0
100
AcDbSymbolTable
 70
    32
  0
LTYPE
  5
14
330
5
100
AcDbSymbolTableRecord
100
AcDbLinetypeTableRecord
  2
ByBlock
 70
     0
  3

 72
    65
 73
     0
 40
0.0
  0
LTYPE
  5
15
330
5
100
AcDbSymbolTableRecord
100
AcDbLinetypeTableRecord
  2
ByLayer
 70
     0
  3

 72
    65
 73
     0
 40
0.0
  0
LTYPE
  5
16
330
5
100
AcDbSymbolTableRecord
100
AcDbLinetypeTableRecord
  2
Continuous
 70
     0
  3
Solid line
 72
    65
 73
     0
 40
0.0
  0
LTYPE
  5
4F
330
5
100
AcDbSymbolTableRecord
100
AcDbLinetypeTableRecord
  2
AM_ISO02W050
 70
     0
  3
__ __ __ __ __ __ __ __ __ __ __ __ __ __ __
 72
    65
 73
     2
 40
7.5
 49
6.0
 74
     0
 49
-1.5
 74
     0
  0
LTYPE
  5
52
330
5
100
AcDbSymbolTableRecord
100
AcDbLinetypeTableRecord
  2
Amconstr
 70
     0
  3
_______________________
 72
    65
 73
     2
 40
9999.0
 49
9999.0
 74
     0
 49
0.0
 74
     0
  0
LTYPE
  5
64
330
5
100
AcDbSymbolTableRecord
100
AcDbLinetypeTableRecord
  2
ACISOWELD
 70
     0
  3
_ _ _ _ _
 72
    65
 73
     2
 40
2.0
 49
2.0
 74
     0
 49
-1.0
 74
     0
  0
LTYPE
  5
65
330
5
100
AcDbSymbolTableRecord
100
AcDbLinetypeTableRecord
  2
ACISOTGB
 70
     0
  3
__ . . __ . .
 72
    65
 73
     6
 40
9.0
 49
4.0
 74
     0
 49
-1.0
 74
     0
 49
1.0
 74
     0
 49
-1.0
 74
     0
 49
1.0
 74
     0
 49
-1.0
 74
     0
  0
LTYPE
  5
66
330
5
100
AcDbSymbolTableRecord
100
AcDbLinetypeTableRecord
  2
ACISOTGL
 70
     0
  3
_ _ _ _ _
 72
    65
 73
     2
 40
3.0
 49
2.0
 74
     0
 49
-1.0
 74
     0
  0
LTYPE
  5
69
330
5
100
AcDbSymbolTableRecord
100
AcDbLinetypeTableRecord
  2
CENTER
 70
     0
  3
__ . __
 72
    65
 73
     4
 40
7.0
 49
4.0
 74
     0
 49
-1.0
 74
     0
 49
1.0
 74
     0
 49
-1.0
 74
     0
  0
LTYPE
  5
A6E
330
5
100
AcDbSymbolTableRecord
100
AcDbLinetypeTableRecord
  2
PHANTOM2
 70
     0
  3
Phantom (.5x) ___ _ _ ___ _ _ ___ _ _ ___ _ _
 72
    65
 73
     6
 40
31.75
 49
15.875
 74
     0
 49
-3.174999999999998
 74
     0
 49
3.174999999999998
 74
     0
 49
-3.174999999999998
 74
     0
 49
3.174999999999998
 74
     0
 49
-3.174999999999998
 74
     0
  0
LTYPE
  5
4DED
330
5
100
AcDbSymbolTableRecord
100
AcDbLinetypeTableRecord
  2
中線
 70
     0
  3
___________________
 72
    65
 73
     2
 40
2.0
 49
1.0
 74
     0
 49
1.0
 74
     0
  0
LTYPE
  5
4DF6
330
5
100
AcDbSymbolTableRecord
100
AcDbLinetypeTableRecord
  2
細線
 70
     0
  3
___________________
 72
    65
 73
     2
 40
2.0
 49
1.0
 74
     0
 49
1.0
 74
     0
  0
LTYPE
  5
4DF7
330
5
100
AcDbSymbolTableRecord
100
AcDbLinetypeTableRecord
  2
太線
 70
     0
  3
___________________
 72
    65
 73
     2
 40
2.0
 49
1.0
 74
     0
 49
1.0
 74
     0
  0
LTYPE
  5
4EA7
330
5
100
AcDbSymbolTableRecord
100
AcDbLinetypeTableRecord
  2
文字
 70
     0
  3
_________________
 72
    65
 73
     2
 40
2.0
 49
1.0
 74
     0
 49
1.0
 74
     0
  0
LTYPE
  5
4EA9
330
5
100
AcDbSymbolTableRecord
100
AcDbLinetypeTableRecord
  2
寸法線
 70
     0
  3
________________
 72
    65
 73
     2
 40
2.0
 49
1.0
 74
     0
 49
1.0
 74
     0
  0
LTYPE
  5
4F12
330
5
100
AcDbSymbolTableRecord
100
AcDbLinetypeTableRecord
  2
ハッチング
 70
     0
  3
_________________
 72
    65
 73
     2
 40
2.0
 49
1.0
 74
     0
 49
1.0
 74
     0
  0
LTYPE
  5
5180
330
5
100
AcDbSymbolTableRecord
100
AcDbLinetypeTableRecord
  2
陰線1
 70
     0
  3
__ __ __ __
 72
    65
 73
     2
 40
4.0
 49
2.2
 74
     0
 49
-1.8
 74
     0
  0
LTYPE
  5
5182
330
5
100
AcDbSymbolTableRecord
100
AcDbLinetypeTableRecord
  2
切断線
 70
     0
  3
/\/-/\/-/\/-/\/-/\/-/\/
 72
    65
 73
     2
 40
11.0001
 49
0.0001
 74
     4
 75
   135
340
56
 46
0.04
 50
0.0
 44
0.0
 45
0.0
 49
-11.0
 74
     0
  0
LTYPE
  5
5183
330
5
100
AcDbSymbolTableRecord
100
AcDbLinetypeTableRecord
  2
想像線1
 70
     0
  3
__ __ __ _____ __ __ ____
 72
    65
 73
     6
 40
14.5
 49
6.0
 74
     0
 49
-1.5
 74
     0
 49
2.0
 74
     0
 49
-1.5
 74
     0
 49
2.0
 74
     0
 49
-1.5
 74
     0
  0
LTYPE
  5
5185
330
5
100
AcDbSymbolTableRecord
100
AcDbLinetypeTableRecord
  2
中心線1
 70
     0
  3
___ _ ___ _ ___
 72
    65
 73
     4
 40
18.0
 49
12.0
 74
     0
 49
-2.0
 74
     0
 49
2.0
 74
     0
 49
-2.0
 74
     0
  0
LTYPE
  5
5188
330
5
100
AcDbSymbolTableRecord
100
AcDbLinetypeTableRecord
  2
補助線
 70
     0
  3
______________
 72
    65
 73
     2
 40
2.0
 49
1.0
 74
     0
 49
1.0
 74
     0
  0
LTYPE
  5
6427
330
5
100
AcDbSymbolTableRecord
100
AcDbLinetypeTableRecord
  2
HIDDEN
 70
     0
  3
Hidden __ __ __ __ __ __ __ __ __ __ __ __ __ _
 72
    65
 73
     2
 40
0.375
 49
0.25
 74
     0
 49
-0.125
 74
     0
  0
LTYPE
  5
AC81
330
5
100
AcDbSymbolTableRecord
100
AcDbLinetypeTableRecord
  2
破断線
 70
     0
  3
/\/-/\/-/\/-/\/-/\/-/\/
 72
    65
 73
     2
 40
0.4401
 49
0.0001
 74
     4
 75
   136
340
AC80
 46
0.0016
 50
0.0
 44
0.0
 45
0.0
 49
-0.4400000000000002
 74
     0
  0
LTYPE
  5
AC9E
330
5
100
AcDbSymbolTableRecord
100
AcDbLinetypeTableRecord
  2
Amzigzag
 70
     0
  3
/\/-/\/-/\/-/\/-/\/-/\/
 72
    65
 73
     2
 40
11.0001
 49
0.0001
 74
     4
 75
   135
340
56
 46
0.04
 50
0.0
 44
0.0
 45
0.0
 49
-11.0
 74
     0
  0
LTYPE
  5
AF0F
330
5
100
AcDbSymbolTableRecord
100
AcDbLinetypeTableRecord
  2
genzigzag
 70
     0
  3
/\/-/\/-/\/-/\/-/\/-/\/
 72
    65
 73
     2
 40
12.0001
 49
0.0001
 74
     4
 75
   135
340
AC80
 46
2.0
 50
0.0
 44
0.0
 45
0.0
 49
-12.0
 74
     0
  0
LTYPE
  5
AF95
330
5
100
AcDbSymbolTableRecord
100
AcDbLinetypeTableRecord
  2
AM_ISO08W050
 70
     0
  3
____ . ____ . ____ . ____ . ____ . ____ . ____
 72
    65
 73
     4
 40
18.0
 49
12.0
 74
     0
 49
-1.5
 74
     0
 49
3.0
 74
     0
 49
-1.5
 74
     0
  0
LTYPE
  5
AF96
330
5
100
AcDbSymbolTableRecord
100
AcDbLinetypeTableRecord
  2
AM_ISO09W050
 70
     0
  3
_____ . . _____ . . _____ . . ____ .. ____
 72
    65
 73
     6
 40
22.5
 49
12.0
 74
     0
 49
-1.5
 74
     0
 49
3.0
 74
     0
 49
-1.5
 74
     0
 49
3.0
 74
     0
 49
-1.5
 74
     0
  0
LTYPE
  5
AF97
330
5
100
AcDbSymbolTableRecord
100
AcDbLinetypeTableRecord
  2
AM_ISO08W050x2
 70
     0
  3
__ . __ . __ . __ . __ . __
 72
    65
 73
     4
 40
9.0
 49
6.0
 74
     0
 49
-0.75
 74
     0
 49
1.5
 74
     0
 49
-0.75
 74
     0
  0
LTYPE
  5
AF98
330
5
100
AcDbSymbolTableRecord
100
AcDbLinetypeTableRecord
  2
AM_ISO02W050x2
 70
     0
  3
 _ _ _ _ _ _ _ _ _ _ _ _
 72
    65
 73
     2
 40
3.75
 49
3.0
 74
     0
 49
-0.75
 74
     0
  0
LTYPE
  5
B5F8
330
5
100
AcDbSymbolTableRecord
100
AcDbLinetypeTableRecord
  2
CENTER2
 70
     0
  3
Center (.5x) ___ _ ___ _ ___ _ ___ _ ___ _ ___
 72
    65
 73
     4
 40
1.125
 49
0.75
 74
     0
 49
-0.125
 74
     0
 49
0.125
 74
     0
 49
-0.125
 74
     0
  0
LTYPE
  5
B5F9
330
5
100
AcDbSymbolTableRecord
100
AcDbLinetypeTableRecord
  2
HIDDEN2
 70
     0
  3
Hidden (.5x) _ _ _ _ _ _ _ _ _ _ _ _ _ _ _ _ _
 72
    65
 73
     2
 40
0.1875
 49
0.125
 74
     0
 49
-0.0625
 74
     0
  0
LTYPE
  5
B5FA
330
5
100
AcDbSymbolTableRecord
100
AcDbLinetypeTableRecord
  2
Amzigzag2
 70
     0
  3
/\/-/\/-/\/-/\/-/\/-/\/
 72
    65
 73
     2
 40
0.4401
 49
0.0001
 74
     4
 75
   135
340
56
 46
0.0016
 50
0.0
 44
0.0
 45
0.0
 49
-0.4400000000000003
 74
     0
  0
LTYPE
  5
B5FB
330
5
100
AcDbSymbolTableRecord
100
AcDbLinetypeTableRecord
  2
ACANSTGB
 70
     0
  3
__ . . __ . .
 72
    65
 73
     6
 40
0.35433070866
 49
0.15748031496
 74
     0
 49
-0.03937007874
 74
     0
 49
0.03937007874
 74
     0
 49
-0.03937007874
 74
     0
 49
0.03937007874
 74
     0
 49
-0.03937007874
 74
     0
  0
LTYPE
  5
B5FC
330
5
100
AcDbSymbolTableRecord
100
AcDbLinetypeTableRecord
  2
ACANSTGL
 70
     0
  3
_ _ _ _ _
 72
    65
 73
     2
 40
0.11811023622
 49
0.07874015748
 74
     0
 49
-0.03937007874
 74
     0
  0
ENDTAB
  0
TABLE
  2
LAYER
  5
2
102
{ACAD_XDICTIONARY
360
3F95
102
}
330
0
100
AcDbSymbolTable
 70
    20
  0
LAYER
  5
10
102
{ACAD_XDICTIONARY
360
BAF3
102
}
330
2
100
AcDbSymbolTableRecord
100
AcDbLayerTableRecord
  2
0
 70
     0
 62
     7
  6
Continuous
370
    -3
390
F
  0
LAYER
  5
6D1
330
2
100
AcDbSymbolTableRecord
100
AcDbLayerTableRecord
  2
Defpoints
 70
     0
 62
     7
  6
Continuous
290
     0
370
    -3
390
F
  0
LAYER
  5
5F85
102
{ACAD_XDICTIONARY
360
BAF5
102
}
330
2
100
AcDbSymbolTableRecord
100
AcDbLayerTableRecord
  2
AM_0
 70
     0
 62
     7
  6
中線
370
    30
390
F
1001
AcAecLayerStandard
1000

1000

  0
LAYER
  5
AC9F
102
{ACAD_XDICTIONARY
360
BAF7
102
}
330
2
100
AcDbSymbolTableRecord
100
AcDbLayerTableRecord
  2
size
 70
     0
 62
     5
  6
Continuous
290
     0
370
    25
390
F
  0
LAYER
  5
ACA0
102
{ACAD_XDICTIONARY
360
BAF9
102
}
330
2
100
AcDbSymbolTableRecord
100
AcDbLayerTableRecord
  2
waku
 70
     0
 62
     7
  6
Continuous
370
    35
390
F
  0
LAYER
  5
ACA1
102
{ACAD_XDICTIONARY
360
BAFB
102
}
330
2
100
AcDbSymbolTableRecord
100
AcDbLayerTableRecord
  2
AM_6
 70
     0
 62
     2
  6
文字
370
    13
390
F
1001
AcAecLayerStandard
1000

1000

  0
LAYER
  5
ACC8
102
{ACAD_XDICTIONARY
360
BAFD
102
}
330
2
100
AcDbSymbolTableRecord
100
AcDbLayerTableRecord
  2
hyomoji
 70
     0
 62
     2
  6
Continuous
370
    13
390
F
  0
LAYER
  5
ACC9
102
{ACAD_XDICTIONARY
360
BAFF
102
}
330
2
100
AcDbSymbolTableRecord
100
AcDbLayerTableRecord
  2
hyosen1
 70
     0
 62
    12
  6
Continuous
370
    25
390
F
  0
LAYER
  5
ACCA
102
{ACAD_XDICTIONARY
360
BB01
102
}
330
2
100
AcDbSymbolTableRecord
100
AcDbLayerTableRecord
  2
hyosen2
 70
     0
 62
    12
  6
Continuous
370
    13
390
F
  0
LAYER
  5
AD60
102
{ACAD_XDICTIONARY
360
BB03
102
}
330
2
100
AcDbSymbolTableRecord
100
AcDbLayerTableRecord
  2
AM_1
 70
     0
 62
    30
  6
太線
370
    40
390
F
1001
AcAecLayerStandard
1000

1000

  0
LAYER
  5
AD64
102
{ACAD_XDICTIONARY
360
BB05
102
}
330
2
100
AcDbSymbolTableRecord
100
AcDbLayerTableRecord
  2
AM_2
 70
     0
 62
     1
  6
細線
370
    13
390
F
1001
AcAecLayerStandard
1000

1000

  0
LAYER
  5
AD67
102
{ACAD_XDICTIONARY
360
BB07
102
}
330
2
100
AcDbSymbolTableRecord
100
AcDbLayerTableRecord
  2
AM_3
 70
     0
 62
     6
  6
陰線1
370
    13
390
F
1001
AcAecLayerStandard
1000

1000

  0
LAYER
  5
AD68
102
{ACAD_XDICTIONARY
360
BB09
102
}
330
2
100
AcDbSymbolTableRecord
100
AcDbLayerTableRecord
  2
AM_5
 70
     0
 62
     3
  6
寸法線
370
    13
390
F
1001
AcAecLayerStandard
1000

1000

  0
LAYER
  5
AD69
102
{ACAD_XDICTIONARY
360
BB0B
102
}
330
2
100
AcDbSymbolTableRecord
100
AcDbLayerTableRecord
  2
AM_7
 70
     0
 62
     4
  6
中心線1
370
    13
390
F
1001
AcAecLayerStandard
1000

1000

  0
LAYER
  5
AD6A
102
{ACAD_XDICTIONARY
360
BB0D
102
}
330
2
100
AcDbSymbolTableRecord
100
AcDbLayerTableRecord
  2
AM_8
 70
     0
 62
     1
  6
ハッチング
370
    13
390
F
1001
AcAecLayerStandard
1000

1000

  0
LAYER
  5
AD6E
102
{ACAD_XDICTIONARY
360
BB0F
102
}
330
2
100
AcDbSymbolTableRecord
100
AcDbLayerTableRecord
  2
AM_10
 70
     0
 62
     7
  6
切断線
370
    13
390
F
1001
AcAecLayerStandard
1000

1000

  0
LAYER
  5
AD6F
102
{ACAD_XDICTIONARY
360
BB11
102
}
330
2
100
AcDbSymbolTableRecord
100
AcDbLayerTableRecord
  2
AM_11
 70
     0
 62
     2
  6
想像線1
370
    13
390
F
1001
AcAecLayerStandard
1000

1000

  0
LAYER
  5
B1B6
102
{ACAD_XDICTIONARY
360
BB13
102
}
330
2
100
AcDbSymbolTableRecord
100
AcDbLayerTableRecord
  2
AM_CL
 70
     0
 62
     1
  6
Amconstr
370
    15
390
F
1001
AcAecLayerStandard
1000

1000

  0
LAYER
  5
B2EB
102
{ACAD_XDICTIONARY
360
BB15
102
}
330
2
100
AcDbSymbolTableRecord
100
AcDbLayerTableRecord
  2
AM_14
 70
     0
 62
     5
  6
細線
370
     9
390
F
1001
AcAecLayerStandard
1000

1000

  0
LAYER
  5
B2EC
102
{ACAD_XDICTIONARY
360
BB17
102
}
330
2
100
AcDbSymbolTableRecord
100
AcDbLayerTableRecord
  2
AM_15
 70
     0
 62
     6
  6
陰線1
370
     9
390
F
1001
AcAecLayerStandard
1000

1000

  0
ENDTAB
  0
TABLE
  2
STYLE
  5
3
330
0
100
AcDbSymbolTable
 70
     8
  0
STYLE
  5
11
330
3
100
AcDbSymbolTableRecord
100
AcDbTextStyleTableRecord
  2
STANDARD
 70
     0
 40
0.0
 41
0.7
 50
0.0
 71
     0
 42
3.2
  3
romans.shx
  4
extfont.shx
  0
STYLE
  5
56
330
3
100
AcDbSymbolTableRecord
100
AcDbTextStyleTableRecord
  2

 70
     1
 40
0.0
 41
1.0
 50
0.0
 71
     0
 42
2.5
  3
ltypeshp.shx
  4

  0
STYLE
  5
58
330
3
100
AcDbSymbolTableRecord
100
AcDbTextStyleTableRecord
  2
ACISOTS
 70
     0
 40
1.0
 41
1.0
 50
0.0
 71
     0
 42
2.5
  3
isocp.shx
  4
extfont.shx
  0
STYLE
  5
63
330
3
100
AcDbSymbolTableRecord
100
AcDbTextStyleTableRecord
  2
ACISOGDT
 70
     0
 40
0.0
 41
1.0
 50
0.0
 71
     0
 42
2.5
  3
amgdt.shx
  4

  0
STYLE
  5
A74
330
3
100
AcDbSymbolTableRecord
100
AcDbTextStyleTableRecord
  2
DIM
 70
     0
 40
0.0
 41
1.0
 50
0.0
 71
     0
 42
2.5
  3
monotxt.shx
  4
extfont.shx
  0
STYLE
  5
AC80
330
3
100
AcDbSymbolTableRecord
100
AcDbTextStyleTableRecord
  2

 70
     1
 40
0.0
 41
1.0
 50
0.0
 71
     0
 42
3.2
  3
genltshp.shx
  4

  0
STYLE
  5
B5FD
330
3
100
AcDbSymbolTableRecord
100
AcDbTextStyleTableRecord
  2
ACANSTS
 70
     0
 40
1.0
 41
1.0
 50
0.0
 71
     0
 42
0.2
  3
romans.shx
  4
extfont.shx
  0
STYLE
  5
B5FE
330
3
100
AcDbSymbolTableRecord
100
AcDbTextStyleTableRecord
  2
ACANSGDT
 70
     0
 40
0.0
 41
1.0
 50
0.0
 71
     0
 42
0.2
  3
amgdt.shx
  4

  0
ENDTAB
  0
TABLE
  2
VIEW
  5
6
330
0
100
AcDbSymbolTable
 70
     6
  0
VIEW
  5
AE1
330
6
100
AcDbSymbolTableRecord
100
AcDbViewTableRecord
  2
AM_VIEW1
 70
     0
 40
148.5
 10
120.5689655172414
 20
222.75
 41
241.1379310344828
 11
0.0
 21
0.0
 31
1.0
 12
0.0
 22
0.0
 32
0.0
 42
50.0
 43
-1370.695619172058
 44
-1370.695619172058
 50
0.0
 71
     0
281
     0
 72
     0
  0
VIEW
  5
AE2
330
6
100
AcDbSymbolTableRecord
100
AcDbViewTableRecord
  2
AM_VIEW2
 70
     0
 40
148.5
 10
299.4310344827587
 20
222.75
 41
241.1379310344828
 11
0.0
 21
0.0
 31
1.0
 12
0.0
 22
0.0
 32
0.0
 42
50.0
 43
-1370.695619172058
 44
-1370.695619172058
 50
0.0
 71
     0
281
     0
 72
     0
  0
VIEW
  5
AE3
330
6
100
AcDbSymbolTableRecord
100
AcDbViewTableRecord
  2
AM_VIEW3
 70
     0
 40
148.5
 10
120.5689655172414
 20
74.25
 41
241.1379310344828
 11
0.0
 21
0.0
 31
1.0
 12
0.0
 22
0.0
 32
0.0
 42
50.0
 43
-1370.695619172058
 44
-1370.695619172058
 50
0.0
 71
     0
281
     0
 72
     0
  0
VIEW
  5
AE4
330
6
100
AcDbSymbolTableRecord
100
AcDbViewTableRecord
  2
AM_VIEW4
 70
     0
 40
148.5
 10
299.4310344827587
 20
74.25
 41
241.1379310344828
 11
0.0
 21
0.0
 31
1.0
 12
0.0
 22
0.0
 32
0.0
 42
50.0
 43
-1370.695619172058
 44
-1370.695619172058
 50
0.0
 71
     0
281
     0
 72
     0
  0
VIEW
  5
AE5
330
6
100
AcDbSymbolTableRecord
100
AcDbViewTableRecord
  2
AM_VIEW5
 70
     0
 40
148.5
 10
210.0
 20
148.5
 41
241.1379310344828
 11
0.0
 21
0.0
 31
1.0
 12
0.0
 22
0.0
 32
0.0
 42
50.0
 43
-1370.695619172058
 44
-1370.695619172058
 50
0.0
 71
     0
281
     0
 72
     0
  0
VIEW
  5
AE6
330
6
100
AcDbSymbolTableRecord
100
AcDbViewTableRecord
  2
AM_VIEW6
 70
     0
 40
296.99703
 10
210.0
 20
148.5
 41
482.2710393103448
 11
0.0
 21
0.0
 31
1.0
 12
0.0
 22
0.0
 32
0.0
 42
50.0
 43
-1370.695619172058
 44
-1370.695619172058
 50
0.0
 71
     0
281
     0
 72
     0
  0
ENDTAB
  0
TABLE
  2
UCS
  5
7
330
0
100
AcDbSymbolTable
 70
     0
  0
ENDTAB
  0
TABLE
  2
APPID
  5
9
330
0
100
AcDbSymbolTable
 70
    59
  0
APPID
  5
12
330
9
100
AcDbSymbolTableRecord
100
AcDbRegAppTableRecord
  2
ACAD
 70
     0
  0
APPID
  5
30
330
9
100
AcDbSymbolTableRecord
100
AcDbRegAppTableRecord
  2
MCAD_NO_VIS
 70
     0
  0
APPID
  5
31
330
9
100
AcDbSymbolTableRecord
100
AcDbRegAppTableRecord
  2
ACAD_TEMP_GRAPHIC
 70
     0
  0
APPID
  5
44
330
9
100
AcDbSymbolTableRecord
100
AcDbRegAppTableRecord
  2
ACATTRIBSERVICES
 70
     0
  0
APPID
  5
7A1
330
9
100
AcDbSymbolTableRecord
100
AcDbRegAppTableRecord
  2
GENIUS_GENDIMSH_14
 70
     0
  0
APPID
  5
A49
330
9
100
AcDbSymbolTableRecord
100
AcDbRegAppTableRecord
  2
GENIUS_GENREC_14
 70
     0
  0
APPID
  5
A4A
330
9
100
AcDbSymbolTableRecord
100
AcDbRegAppTableRecord
  2
GENIUS_GENOBJ-N-REC_13
 70
     0
  0
APPID
  5
A4B
330
9
100
AcDbSymbolTableRecord
100
AcDbRegAppTableRecord
  2
GENIUS_GENODEF_13
 70
     0
  0
APPID
  5
A4C
330
9
100
AcDbSymbolTableRecord
100
AcDbRegAppTableRecord
  2
DCO15
 70
     0
  0
APPID
  5
ADC
330
9
100
AcDbSymbolTableRecord
100
AcDbRegAppTableRecord
  2
GENIUS_GENOLIS_13
 70
     0
  0
APPID
  5
ADD
330
9
100
AcDbSymbolTableRecord
100
AcDbRegAppTableRecord
  2
GENIUS_GENOENT_13
 70
     0
  0
APPID
  5
ADE
330
9
100
AcDbSymbolTableRecord
100
AcDbRegAppTableRecord
  2
GENIUS_GENOBJ-N-TIT_13
 70
     0
  0
APPID
  5
ADF
330
9
100
AcDbSymbolTableRecord
100
AcDbRegAppTableRecord
  2
GENIUS_GENTITLE_13
 70
     0
  0
APPID
  5
AE0
330
9
100
AcDbSymbolTableRecord
100
AcDbRegAppTableRecord
  2
GENIUS_GENOREF_13
 70
     0
  0
APPID
  5
AE7
330
9
100
AcDbSymbolTableRecord
100
AcDbRegAppTableRecord
  2
GENIUS_GENSCREG_15
 70
     0
  0
APPID
  5
AE8
330
9
100
AcDbSymbolTableRecord
100
AcDbRegAppTableRecord
  2
GENIUS_GENOBJ-N-SDF_13
 70
     0
  0
APPID
  5
FAF
330
9
100
AcDbSymbolTableRecord
100
AcDbRegAppTableRecord
  2
GENIUS_GENBLLY_14
 70
     0
  0
APPID
  5
FB0
330
9
100
AcDbSymbolTableRecord
100
AcDbRegAppTableRecord
  2
GENIUS_GENTRA_14
 70
     0
  0
APPID
  5
1285
330
9
100
AcDbSymbolTableRecord
100
AcDbRegAppTableRecord
  2
GENIUS_GENDTOL_13
 70
     0
  0
APPID
  5
142D
330
9
100
AcDbSymbolTableRecord
100
AcDbRegAppTableRecord
  2
GENIUS_GENOBJ-N-CEN_13
 70
     0
  0
APPID
  5
1AB5
330
9
100
AcDbSymbolTableRecord
100
AcDbRegAppTableRecord
  2
GENIUS_GENOBJ-N-CRS_13
 70
     0
  0
APPID
  5
1B36
330
9
100
AcDbSymbolTableRecord
100
AcDbRegAppTableRecord
  2
GENIUS_GENOBJ-N-HTC_13
 70
     0
  0
APPID
  5
1B37
330
9
100
AcDbSymbolTableRecord
100
AcDbRegAppTableRecord
  2
GENIUS_GENHATCH_13
 70
     0
  0
APPID
  5
216D
330
9
100
AcDbSymbolTableRecord
100
AcDbRegAppTableRecord
  2
GENIUS_GENOBJ-N-FIL_13
 70
     0
  0
APPID
  5
2356
330
9
100
AcDbSymbolTableRecord
100
AcDbRegAppTableRecord
  2
GEVID990412420
 70
     0
  0
APPID
  5
2357
330
9
100
AcDbSymbolTableRecord
100
AcDbRegAppTableRecord
  2
GEVDC
 70
     0
  0
APPID
  5
2358
330
9
100
AcDbSymbolTableRecord
100
AcDbRegAppTableRecord
  2
GEVCON
 70
     0
  0
APPID
  5
235B
330
9
100
AcDbSymbolTableRecord
100
AcDbRegAppTableRecord
  2
GEVRADREF
 70
     0
  0
APPID
  5
2360
330
9
100
AcDbSymbolTableRecord
100
AcDbRegAppTableRecord
  2
GENIUS_GENBH_13
 70
     0
  0
APPID
  5
2362
330
9
100
AcDbSymbolTableRecord
100
AcDbRegAppTableRecord
  2
GENIUS_GENOBJ-NBEHI-BHF_13
 70
     0
  0
APPID
  5
2364
330
9
100
AcDbSymbolTableRecord
100
AcDbRegAppTableRecord
  2
GENIUS_GENOBJ-NBEHI-BHB_13
 70
     0
  0
APPID
  5
2379
330
9
100
AcDbSymbolTableRecord
100
AcDbRegAppTableRecord
  2
GENIUS_GENOBJ-F-SCPASSM_13
 70
     0
  0
APPID
  5
3D74
330
9
100
AcDbSymbolTableRecord
100
AcDbRegAppTableRecord
  2
GENIUS_GENDIM_13
 70
     0
  0
APPID
  5
3D76
330
9
100
AcDbSymbolTableRecord
100
AcDbRegAppTableRecord
  2
GENIUS_GE3DTOL_13
 70
     0
  0
APPID
  5
3D9C
330
9
100
AcDbSymbolTableRecord
100
AcDbRegAppTableRecord
  2
AD_DRAW
 70
     0
  0
APPID
  5
3DE8
330
9
100
AcDbSymbolTableRecord
100
AcDbRegAppTableRecord
  2
ASURF_PCURVE_APPNAME
 70
     0
  0
APPID
  5
3DED
330
9
100
AcDbSymbolTableRecord
100
AcDbRegAppTableRecord
  2
AMG_3D2D_5.0
 70
     0
  0
APPID
  5
3E1B
330
9
100
AcDbSymbolTableRecord
100
AcDbRegAppTableRecord
  2
DESIGNERASSEMBLIES
 70
     0
  0
APPID
  5
3E20
330
9
100
AcDbSymbolTableRecord
100
AcDbRegAppTableRecord
  2
ACADM_DIM_EDIT
 70
     0
  0
APPID
  5
3E21
330
9
100
AcDbSymbolTableRecord
100
AcDbRegAppTableRecord
  2
AMDT_DM_ADJ
 70
     0
  0
APPID
  5
4143
330
9
100
AcDbSymbolTableRecord
100
AcDbRegAppTableRecord
  2
GENIUS_GENFIL_13
 70
     0
  0
APPID
  5
4144
330
9
100
AcDbSymbolTableRecord
100
AcDbRegAppTableRecord
  2
GENIUS_GENOBJ-N-CHA_13
 70
     0
  0
APPID
  5
4E17
330
9
100
AcDbSymbolTableRecord
100
AcDbRegAppTableRecord
  2
GEVID1008153417
 70
     0
  0
APPID
  5
4E58
330
9
100
AcDbSymbolTableRecord
100
AcDbRegAppTableRecord
  2
GEVID1008153418
 70
     0
  0
APPID
  5
4E5E
330
9
100
AcDbSymbolTableRecord
100
AcDbRegAppTableRecord
  2
GEVID1008153419
 70
     0
  0
APPID
  5
4E64
330
9
100
AcDbSymbolTableRecord
100
AcDbRegAppTableRecord
  2
GEVID1008153420
 70
     0
  0
APPID
  5
4E75
330
9
100
AcDbSymbolTableRecord
100
AcDbRegAppTableRecord
  2
GEVID1008153421
 70
     0
  0
APPID
  5
4EB7
330
9
100
AcDbSymbolTableRecord
100
AcDbRegAppTableRecord
  2
GENIUS_AMGTXT_16
 70
     0
  0
APPID
  5
7645
330
9
100
AcDbSymbolTableRecord
100
AcDbRegAppTableRecord
  2
GENIUS_GENOBJ-N-DIM_13
 70
     0
  0
APPID
  5
AAD0
330
9
100
AcDbSymbolTableRecord
100
AcDbRegAppTableRecord
  2
ACAD_DSTYLE_DIMARC_LENGTH_SYMBOL
 70
     0
  0
APPID
  5
AAD1
330
9
100
AcDbSymbolTableRecord
100
AcDbRegAppTableRecord
  2
ACAD_DSTYLE_DIMJOGGED_JOGANGLE_SYMBOL
 70
     0
  0
APPID
  5
AAFD
330
9
100
AcDbSymbolTableRecord
100
AcDbRegAppTableRecord
  2
ACAD_PSEXT
 70
     0
  0
APPID
  5
AD61
330
9
100
AcDbSymbolTableRecord
100
AcDbRegAppTableRecord
  2
AcAecLayerStandard
 70
     0
  0
APPID
  5
AEE3
330
9
100
AcDbSymbolTableRecord
100
AcDbRegAppTableRecord
  2
ACAD_EXEMPT_FROM_CAD_STANDARDS
 70
     0
  0
APPID
  5
B1BE
330
9
100
AcDbSymbolTableRecord
100
AcDbRegAppTableRecord
  2
GENIUS_GENCEN_19
 70
     0
  0
APPID
  5
B597
330
9
100
AcDbSymbolTableRecord
100
AcDbRegAppTableRecord
  2
ACAD_MLEADERVER
 70
     0
  0
APPID
  5
B7D3
330
9
100
AcDbSymbolTableRecord
100
AcDbRegAppTableRecord
  2
ACAD_DSTYLE_DIMINSPECT
 70
     0
  0
APPID
  5
B978
330
9
100
AcDbSymbolTableRecord
100
AcDbRegAppTableRecord
  2
ACAD_DSTYLE_DIMRADIAL_EXTENSION
 70
     0
  0
APPID
  5
DEEF
330
9
100
AcDbSymbolTableRecord
100
AcDbRegAppTableRecord
  2
AcDbAttr
 70
     0
  0
ENDTAB
  0
TABLE
  2
DIMSTYLE
  5
A
330
0
100
AcDbSymbolTable
 70
    24
100
AcDbDimStyleTable
 71
     1
340
2515
  0
DIMSTYLE
105
A76
330
A
100
AcDbSymbolTableRecord
100
AcDbDimStyleTableRecord
  2
STANDARD
 70
     0
 41
3.0
 42
1.0
 43
7.0
 44
2.0
 73
     0
 74
     0
 77
     1
140
2.799999999999998
141
0.0
143
0.0394
147
0.7
171
     4
172
     1
173
     1
176
     3
177
     3
178
     2
271
     3
272
     3
273
     8
274
     4
289
     0
340
A74
341
A66
343
A66
344
A66
  0
DIMSTYLE
105
2515
330
A
100
AcDbSymbolTableRecord
100
AcDbDimStyleTableRecord
  2
SYS
 70
     0
  4
"
 41
1.0
 42
1.0
 43
10.0
 44
1.0
 47
0.1
 48
0.1
 73
     0
 74
     0
 77
     1
 78
     8
 79
     2
140
3.5
141
0.0
143
0.0393701
146
0.71
147
1.5
172
     1
176
   256
177
   256
178
     7
271
     2
272
     2
283
     0
284
     8
340
11
371
    -1
372
    -1
1001
ACAD_DSTYLE_DIMJOGGED_JOGANGLE_SYMBOL
1070
   384
1040
0.7853981633974483
1001
ACAD_DSTYLE_DIMARC_LENGTH_SYMBOL
1070
   379
1070
     1
  0
DIMSTYLE
105
2516
330
A
100
AcDbSymbolTableRecord
100
AcDbDimStyleTableRecord
  2
SYS$3
 70
     0
  4
"
 41
2.0
 42
1.0
 43
10.0
 44
1.0
 47
0.1
 48
0.1
 73
     0
 77
     1
 78
     8
 79
     2
140
3.5
141
0.0
143
0.0393701
146
0.71
147
1.5
176
   256
177
   256
178
     2
271
     2
272
     2
283
     0
284
     8
288
     1
340
11
342
A66
371
    -1
372
    -1
1001
ACAD_DSTYLE_DIMJOGGED_JOGANGLE_SYMBOL
1070
   384
1040
0.7853981633974483
1001
ACAD_DSTYLE_DIMARC_LENGTH_SYMBOL
1070
   379
1070
     1
  0
DIMSTYLE
105
2517
102
{ACAD_REACTORS
330
D9E6
102
}
330
A
100
AcDbSymbolTableRecord
100
AcDbDimStyleTableRecord
  2
SYS$4
 70
     0
  4
"
 41
2.0
 42
1.0
 43
10.0
 44
1.0
 47
0.1
 48
0.1
 73
     0
 77
     1
 78
     8
 79
     2
140
3.5
141
0.0
143
0.0393701
146
0.71
147
1.5
173
     1
176
   256
177
   256
178
     2
271
     2
272
     2
283
     0
284
     8
288
     1
340
11
344
A66
371
    -1
372
    -1
1001
ACAD_DSTYLE_DIMJOGGED_JOGANGLE_SYMBOL
1070
   384
1040
0.7853981633974483
1001
ACAD_DSTYLE_DIMARC_LENGTH_SYMBOL
1070
   379
1070
     1
  0
DIMSTYLE
105
2518
330
A
100
AcDbSymbolTableRecord
100
AcDbDimStyleTableRecord
  2
SYS$6
 70
     0
  4
"
 41
2.0
 42
1.0
 43
10.0
 44
1.0
 47
0.1
 48
0.1
 73
     0
 74
     0
 78
     8
 79
     2
140
3.5
141
0.0
143
0.0393701
146
0.71
147
1.5
172
     1
176
   256
177
   256
178
     2
271
     2
272
     2
283
     0
284
     8
340
11
341
A66
371
    -1
372
    -1
1001
ACAD_DSTYLE_DIMJOGGED_JOGANGLE_SYMBOL
1070
   384
1040
0.7853981633974483
1001
ACAD_DSTYLE_DIMARC_LENGTH_SYMBOL
1070
   379
1070
     1
  0
DIMSTYLE
105
2519
330
A
100
AcDbSymbolTableRecord
100
AcDbDimStyleTableRecord
  2
SYS$7
 70
     0
  4
"
 41
2.0
 42
1.0
 43
10.0
 44
1.0
 47
0.1
 48
0.1
 73
     0
 74
     0
 77
     1
 78
     8
 79
     2
140
5.0
141
0.0
143
0.0393701
146
0.71
147
1.5
172
     1
176
   256
177
   256
178
     2
271
     2
272
     2
283
     0
284
     8
340
11
341
A66
342
A66
371
    -1
372
    -1
1001
ACAD_DSTYLE_DIMJOGGED_JOGANGLE_SYMBOL
1070
   384
1040
0.7853981633974483
1001
ACAD_DSTYLE_DIMARC_LENGTH_SYMBOL
1070
   379
1070
     1
  0
DIMSTYLE
105
251A
330
A
100
AcDbSymbolTableRecord
100
AcDbDimStyleTableRecord
  2
SYS$SF
 70
     0
  4
"
 41
2.5
 42
1.0
 43
10.0
 44
1.0
 47
0.1
 48
0.1
 73
     0
 74
     0
 75
     1
 76
     1
 77
     1
 78
     8
 79
     2
140
3.5
141
0.0
143
0.0393701
146
0.71
147
1.5
172
     1
176
   256
177
   256
178
     2
271
     2
272
     3
283
     0
284
     8
340
11
341
6C4
342
6C4
371
    -1
372
    -1
1001
ACAD_DSTYLE_DIMJOGGED_JOGANGLE_SYMBOL
1070
   384
1040
0.7853981633974483
1001
ACAD_DSTYLE_DIMARC_LENGTH_SYMBOL
1070
   379
1070
     1
  0
DIMSTYLE
105
251B
330
A
100
AcDbSymbolTableRecord
100
AcDbDimStyleTableRecord
  2
SYS$SH
 70
     0
  4
"
 41
2.5
 42
1.0
 43
10.0
 44
1.0
 47
0.1
 48
0.1
 73
     0
 74
     0
 75
     1
 76
     1
 77
     1
 78
     8
 79
     2
140
3.5
141
0.0
143
0.0393701
144
2.0
146
0.71
147
1.5
172
     1
173
     1
176
   256
177
   256
178
     2
271
     2
272
     3
283
     0
284
     8
340
11
341
6C4
343
72
344
6C4
371
    -1
372
    -1
1001
ACAD_DSTYLE_DIMJOGGED_JOGANGLE_SYMBOL
1070
   384
1040
0.7853981633974483
1001
ACAD_DSTYLE_DIMARC_LENGTH_SYMBOL
1070
   379
1070
     1
  0
DIMSTYLE
105
2A59
330
A
100
AcDbSymbolTableRecord
100
AcDbDimStyleTableRecord
  2
SYS$2
 70
     0
  4
"
 41
1.0
 42
1.0
 43
10.0
 44
1.0
 47
0.1
 48
0.1
 73
     0
 74
     0
 77
     1
 78
     8
 79
     2
140
3.5
141
0.0
143
0.0393701
146
0.71
147
1.5
172
     1
176
   256
177
   256
178
     2
271
     2
272
     2
283
     0
284
     8
340
11
342
6C4
371
    -1
372
    -1
1001
ACAD_DSTYLE_DIMJOGGED_JOGANGLE_SYMBOL
1070
   384
1040
0.7853981633974483
1001
ACAD_DSTYLE_DIMARC_LENGTH_SYMBOL
1070
   379
1070
     1
  0
DIMSTYLE
105
2AAB
102
{ACAD_REACTORS
330
D779
330
D7AA
330
D7DB
330
D83C
330
D8CD
330
D8F5
330
D914
330
D933
330
D977
330
D99F
330
D9BE
330
DA07
330
DA08
330
DAE4
330
DB0C
330
DB31
102
}
330
A
100
AcDbSymbolTableRecord
100
AcDbDimStyleTableRecord
  2
SYS$0
 70
     0
  4
"
 41
1.0
 42
1.0
 43
10.0
 44
1.0
 47
0.1
 48
0.1
 73
     0
 74
     0
 77
     1
 78
     8
 79
     2
140
3.200000000000001
141
0.0
143
0.0393701
146
0.71
147
1.5
172
     1
176
   256
177
   256
178
     2
271
     2
272
     2
283
     0
284
     8
340
11
341
A66
342
6C4
371
    -1
372
    -1
1001
ACAD_DSTYLE_DIMJOGGED_JOGANGLE_SYMBOL
1070
   384
1040
0.7853981633974483
1001
ACAD_DSTYLE_DIMARC_LENGTH_SYMBOL
1070
   379
1070
     1
  0
DIMSTYLE
105
AF99
330
A
100
AcDbSymbolTableRecord
100
AcDbDimStyleTableRecord
  2
AM_ISO
 70
     0
  4
"
 41
2.5
 42
1.0
 43
10.0
 44
1.0
 47
0.1
 48
0.1
 73
     0
 74
     0
 77
     1
 78
     8
 79
     2
140
3.5
141
0.0
143
0.0393701
146
0.71
147
1.5
172
     1
176
   256
177
   256
178
     2
271
     2
272
     3
274
     4
283
     0
284
     8
340
11
371
    -1
372
    -1
  0
DIMSTYLE
105
AF9A
330
A
100
AcDbSymbolTableRecord
100
AcDbDimStyleTableRecord
  2
AM_ISO$3
 70
     0
  4
"
 41
2.5
 42
1.0
 43
10.0
 44
1.0
 47
0.1
 48
0.1
 73
     0
 77
     1
 78
     8
 79
     2
140
3.5
141
0.0
143
0.0393701
146
0.71
147
1.5
176
   256
177
   256
178
     2
271
     2
272
     3
274
     4
283
     0
284
     8
288
     1
289
     0
340
11
371
    -1
372
    -1
  0
DIMSTYLE
105
AF9B
330
A
100
AcDbSymbolTableRecord
100
AcDbDimStyleTableRecord
  2
AM_ISO$4
 70
     0
  4
"
 41
2.5
 42
1.0
 43
10.0
 44
1.0
 47
0.1
 48
0.1
 73
     0
 77
     1
 78
     8
 79
     2
140
3.5
141
0.0
143
0.0393701
146
0.71
147
1.5
176
   256
177
   256
178
     2
271
     2
272
     3
274
     4
283
     0
284
     8
288
     1
289
     0
340
11
371
    -1
372
    -1
  0
DIMSTYLE
105
AF9C
330
A
100
AcDbSymbolTableRecord
100
AcDbDimStyleTableRecord
  2
AM_ISO$6
 70
     0
  4
"
 41
2.5
 42
1.0
 43
10.0
 44
1.0
 47
0.1
 48
0.1
 73
     0
 74
     0
 78
     8
 79
     2
140
3.5
141
0.0
143
0.0393701
146
0.71
147
1.5
172
     1
176
   256
177
   256
178
     2
271
     2
272
     3
274
     4
283
     0
284
     8
340
11
371
    -1
372
    -1
  0
DIMSTYLE
105
AF9D
330
A
100
AcDbSymbolTableRecord
100
AcDbDimStyleTableRecord
  2
AM_ISO$7
 70
     0
  4
"
 41
2.5
 42
1.0
 43
10.0
 44
1.0
 47
0.1
 48
0.1
 73
     0
 74
     0
 77
     1
 78
     8
 79
     2
140
5.0
141
0.0
143
0.0393701
146
0.71
147
1.5
172
     1
176
   256
177
   256
178
     2
271
     2
272
     3
274
     4
283
     0
284
     8
340
11
371
    -1
372
    -1
  0
DIMSTYLE
105
AF9E
330
A
100
AcDbSymbolTableRecord
100
AcDbDimStyleTableRecord
  2
AM_ISO$SF
 70
     0
  4
"
 41
2.5
 42
1.0
 43
10.0
 44
1.0
 47
0.1
 48
0.1
 73
     0
 74
     0
 75
     1
 76
     1
 77
     1
 78
     8
 79
     2
140
3.5
141
0.0
143
0.0393701
146
0.71
147
1.5
172
     1
176
   256
177
   256
178
     2
271
     2
272
     3
274
     4
283
     0
284
     8
340
11
371
    -1
372
    -1
  0
DIMSTYLE
105
AF9F
330
A
100
AcDbSymbolTableRecord
100
AcDbDimStyleTableRecord
  2
AM_ISO$SH
 70
     0
  4
"
 41
2.5
 42
1.0
 43
10.0
 44
1.0
 47
0.1
 48
0.1
 73
     0
 74
     0
 75
     1
 76
     1
 77
     1
 78
     8
 79
     2
140
3.5
141
0.0
143
0.0393701
144
2.0
146
0.71
147
1.5
172
     1
173
     1
176
   256
177
   256
178
     2
271
     2
272
     3
274
     4
283
     0
284
     8
340
11
343
72
371
    -1
372
    -1
  0
DIMSTYLE
105
B5FF
330
A
100
AcDbSymbolTableRecord
100
AcDbDimStyleTableRecord
  2
AM_ANSI
 70
     0
  4
mm
 41
0.1
 42
0.05
 43
0.5
 44
0.1
 47
0.1
 48
0.1
 78
     7
 79
     2
140
0.12
141
0.0
146
0.71
147
0.06
176
   256
177
   256
178
     2
274
     4
284
     7
340
11
371
    -1
372
    -1
  0
DIMSTYLE
105
B600
330
A
100
AcDbSymbolTableRecord
100
AcDbDimStyleTableRecord
  2
AM_ANSI$3
 70
     0
  4
mm
 41
0.1
 42
0.05
 43
0.5
 44
0.1
 47
0.1
 48
0.1
 78
     7
 79
     2
140
0.12
141
0.0
146
0.71
147
0.06
176
   256
177
   256
178
     2
274
     4
284
     7
288
     1
289
     0
340
11
371
    -1
372
    -1
  0
DIMSTYLE
105
B601
330
A
100
AcDbSymbolTableRecord
100
AcDbDimStyleTableRecord
  2
AM_ANSI$4
 70
     0
  4
mm
 41
0.1
 42
0.05
 43
0.5
 44
0.1
 47
0.1
 48
0.1
 78
     7
 79
     2
140
0.12
141
0.0
146
0.71
147
0.06
176
   256
177
   256
178
     2
274
     4
284
     7
288
     1
289
     0
340
11
371
    -1
372
    -1
  0
DIMSTYLE
105
B602
330
A
100
AcDbSymbolTableRecord
100
AcDbDimStyleTableRecord
  2
AM_ANSI$7
 70
     0
  4
mm
 41
0.1
 42
0.05
 43
0.5
 44
0.1
 47
0.1
 48
0.1
 78
     7
 79
     2
140
0.24
141
0.0
146
0.71
147
0.06
176
   256
177
   256
178
     2
274
     4
284
     7
340
11
371
    -1
372
    -1
  0
DIMSTYLE
105
B603
330
A
100
AcDbSymbolTableRecord
100
AcDbDimStyleTableRecord
  2
AM_ANSI$SF
 70
     0
  4
mm
 41
0.1
 42
0.05
 43
0.5
 44
0.1
 47
0.1
 48
0.1
 75
     1
 76
     1
 78
     7
 79
     2
140
0.12
141
0.0
146
0.71
147
0.06
176
   256
177
   256
178
     2
274
     4
284
     7
340
11
371
    -1
372
    -1
  0
DIMSTYLE
105
B604
330
A
100
AcDbSymbolTableRecord
100
AcDbDimStyleTableRecord
  2
AM_ANSI$SH
 70
     0
  4
mm
 41
0.1
 42
0.05
 43
0.5
 44
0.1
 47
0.1
 48
0.1
 75
     1
 76
     1
 78
     7
 79
     2
140
0.12
141
0.0
146
0.71
147
0.06
173
     1
176
   256
177
   256
178
     2
274
     4
284
     7
340
11
343
72
371
    -1
372
    -1
  0
DIMSTYLE
105
BDC9
330
A
100
AcDbSymbolTableRecord
100
AcDbDimStyleTableRecord
  2
DIMSTYLE
 70
     0
 41
1.0
 42
2.54
 44
2.54
 73
     0
 74
     0
140
3.2
147
1.6
173
     1
279
     2
340
11
  0
ENDTAB
  0
TABLE
  2
BLOCK_RECORD
  5
1
330
0
100
AcDbSymbolTable
 70
    29
  0
BLOCK_RECORD
  5
1F
102
{ACAD_XDICTIONARY
360
8A
102
}
330
1
100
AcDbSymbolTableRecord
100
AcDbBlockTableRecord
  2
*Model_Space
340
22
  0
BLOCK_RECORD
  5
1B
330
1
100
AcDbSymbolTableRecord
100
AcDbBlockTableRecord
  2
*Paper_Space
340
1E
  0
BLOCK_RECORD
  5
23
330
1
100
AcDbSymbolTableRecord
100
AcDbBlockTableRecord
  2
*Paper_Space0
340
26
  0
BLOCK_RECORD
  5
72
330
1
100
AcDbSymbolTableRecord
100
AcDbBlockTableRecord
  2
GENAXEH
340
0
  0
BLOCK_RECORD
  5
6C4
330
1
100
AcDbSymbolTableRecord
100
AcDbBlockTableRecord
  2
_Dot
340
0
102
{BLKREFS
331
DD7C
331
DD7D
331
DD85
331
DD86
331
DD8E
331
DD8F
331
DD97
331
DD98
331
DDA0
331
DDA1
331
DDA9
331
DDAA
331
DDB2
331
DDB3
331
DDBB
331
DDBC
331
DDC4
331
DDC5
331
DDCD
331
DDCE
331
DDD6
331
DDD7
331
DDE4
331
DDEC
331
DDF5
331
DDF6
331
DE00
331
DE01
331
DE09
331
DE0A
102
}
  0
BLOCK_RECORD
  5
A66
330
1
100
AcDbSymbolTableRecord
100
AcDbBlockTableRecord
  2
_OPEN30
340
0
102
{BLKREFS
331
DDDF
331
DDE5
331
DDED
102
}
  0
BLOCK_RECORD
  5
BB61
102
{ACAD_XDICTIONARY
360
BB75
102
}
330
1
100
AcDbSymbolTableRecord
100
AcDbBlockTableRecord
  2
SYS図枠A3(AIS2008)
340
0
  0
BLOCK_RECORD
  5
BB8B
102
{ACAD_XDICTIONARY
360
BBE4
102
}
330
1
100
AcDbSymbolTableRecord
100
AcDbBlockTableRecord
  2
SYS表題(AIS2008)
340
0
  0
BLOCK_RECORD
  5
BCDD
330
1
100
AcDbSymbolTableRecord
100
AcDbBlockTableRecord
  2
_NONE
340
0
  0
BLOCK_RECORD
  5
BDB9
330
1
100
AcDbSymbolTableRecord
100
AcDbBlockTableRecord
  2
KOZU0001
340
0
  0
BLOCK_RECORD
  5
BDC1
330
1
100
AcDbSymbolTableRecord
100
AcDbBlockTableRecord
  2
KOZU0002
340
0
  0
BLOCK_RECORD
  5
CF9E
330
1
100
AcDbSymbolTableRecord
100
AcDbBlockTableRecord
  2
GENDOT
340
0
102
{BLKREFS
331
DBDC
102
}
  0
BLOCK_RECORD
  5
D77A
330
1
100
AcDbSymbolTableRecord
100
AcDbBlockTableRecord
  2
*D10
340
0
  0
BLOCK_RECORD
  5
D7AB
330
1
100
AcDbSymbolTableRecord
100
AcDbBlockTableRecord
  2
*D11
340
0
  0
BLOCK_RECORD
  5
D7DC
330
1
100
AcDbSymbolTableRecord
100
AcDbBlockTableRecord
  2
*D12
340
0
  0
BLOCK_RECORD
  5
D83D
330
1
100
AcDbSymbolTableRecord
100
AcDbBlockTableRecord
  2
*D13
340
0
  0
BLOCK_RECORD
  5
D8CE
330
1
100
AcDbSymbolTableRecord
100
AcDbBlockTableRecord
  2
*D14
340
0
  0
BLOCK_RECORD
  5
D8F6
330
1
100
AcDbSymbolTableRecord
100
AcDbBlockTableRecord
  2
*D15
340
0
  0
BLOCK_RECORD
  5
D915
330
1
100
AcDbSymbolTableRecord
100
AcDbBlockTableRecord
  2
*D16
340
0
  0
BLOCK_RECORD
  5
D934
330
1
100
AcDbSymbolTableRecord
100
AcDbBlockTableRecord
  2
*D17
340
0
  0
BLOCK_RECORD
  5
D978
330
1
100
AcDbSymbolTableRecord
100
AcDbBlockTableRecord
  2
*D18
340
0
  0
BLOCK_RECORD
  5
D9A0
330
1
100
AcDbSymbolTableRecord
100
AcDbBlockTableRecord
  2
*D19
340
0
  0
BLOCK_RECORD
  5
D9BF
330
1
100
AcDbSymbolTableRecord
100
AcDbBlockTableRecord
  2
*D20
340
0
  0
BLOCK_RECORD
  5
D9E7
330
1
100
AcDbSymbolTableRecord
100
AcDbBlockTableRecord
  2
*D21
340
0
  0
BLOCK_RECORD
  5
DA0A
330
1
100
AcDbSymbolTableRecord
100
AcDbBlockTableRecord
  2
*D22
340
0
  0
BLOCK_RECORD
  5
DA15
330
1
100
AcDbSymbolTableRecord
100
AcDbBlockTableRecord
  2
*D23
340
0
  0
BLOCK_RECORD
  5
DAE5
330
1
100
AcDbSymbolTableRecord
100
AcDbBlockTableRecord
  2
*D24
340
0
  0
BLOCK_RECORD
  5
DB0D
330
1
100
AcDbSymbolTableRecord
100
AcDbBlockTableRecord
  2
*D25
340
0
  0
BLOCK_RECORD
  5
DB32
330
1
100
AcDbSymbolTableRecord
100
AcDbBlockTableRecord
  2
*D26
340
0
  0
BLOCK_RECORD
  5
DC78
102
{ACAD_XDICTIONARY
360
DC86
102
}
330
1
100
AcDbSymbolTableRecord
100
AcDbBlockTableRecord
  2
A$C61B452E2
340
0
1001
ACAD
1000
DesignCenter Data
1002
{
1070
     1
1070
     4
1002
}
  0
ENDTAB
  0
ENDSEC
  0
SECTION
  2
BLOCKS
  0
BLOCK
  5
20
330
1F
100
AcDbEntity
  8
0
100
AcDbBlockBegin
  2
*Model_Space
 70
     0
 10
0.0
 20
0.0
 30
0.0
  3
*Model_Space
  1

  0
ENDBLK
  5
21
330
1F
100
AcDbEntity
  8
0
100
AcDbBlockEnd
  0
BLOCK
  5
1C
330
1B
100
AcDbEntity
 67
     1
  8
0
100
AcDbBlockBegin
  2
*Paper_Space
 70
     0
 10
0.0
 20
0.0
 30
0.0
  3
*Paper_Space
  1

  0
ENDBLK
  5
1D
330
1B
100
AcDbEntity
 67
     1
  8
0
100
AcDbBlockEnd
  0
BLOCK
  5
24
330
23
100
AcDbEntity
 67
     1
  8
0
100
AcDbBlockBegin
  2
*Paper_Space0
 70
     0
 10
0.0
 20
0.0
 30
0.0
  3
*Paper_Space0
  1

  0
ENDBLK
  5
25
330
23
100
AcDbEntity
 67
     1
  8
0
100
AcDbBlockEnd
  0
BLOCK
  5
74
330
72
100
AcDbEntity
  8
0
100
AcDbBlockBegin
  2
GENAXEH
 70
     0
 10
0.0
 20
0.0
 30
0.0
  3
GENAXEH
  1

  0
LINE
  5
73
330
72
100
AcDbEntity
  8
0
100
AcDbLine
 10
-1.0
 20
0.0
 30
0.0
 11
1.0
 21
0.0
 31
0.0
  0
ENDBLK
  5
75
330
72
100
AcDbEntity
  8
0
100
AcDbBlockEnd
  0
BLOCK
  5
6C7
330
6C4
100
AcDbEntity
  8
0
100
AcDbBlockBegin
  2
_Dot
 70
     0
 10
0.0
 20
0.0
 30
0.0
  3
_Dot
  1

  0
LWPOLYLINE
  5
6C5
330
6C4
100
AcDbEntity
  8
0
  6
ByBlock
 62
     0
100
AcDbPolyline
 90
        2
 70
     1
 43
0.5
 10
-0.25
 20
0.0
 42
1.0
 10
0.25
 20
0.0
 42
1.0
  0
LINE
  5
6C6
330
6C4
100
AcDbEntity
  8
0
  6
ByBlock
 62
     0
370
    -2
100
AcDbLine
 10
-0.5
 20
0.0
 30
0.0
 11
-1.0
 21
0.0
 31
0.0
  0
ENDBLK
  5
6C8
330
6C4
100
AcDbEntity
  8
0
100
AcDbBlockEnd
  0
BLOCK
  5
A6A
330
A66
100
AcDbEntity
  8
0
100
AcDbBlockBegin
  2
_OPEN30
 70
     0
 10
0.0
 20
0.0
 30
0.0
  3
_OPEN30
  1

  0
LINE
  5
A67
330
A66
100
AcDbEntity
  8
0
  6
ByBlock
 62
     0
100
AcDbLine
 10
-1.0
 20
0.26794919
 30
0.0
 11
0.0
 21
0.0
 31
0.0
  0
LINE
  5
A68
330
A66
100
AcDbEntity
  8
0
  6
ByBlock
 62
     0
100
AcDbLine
 10
0.0
 20
0.0
 30
0.0
 11
-1.0
 21
-0.26794919
 31
0.0
  0
LINE
  5
A69
330
A66
100
AcDbEntity
  8
0
  6
ByBlock
 62
     0
100
AcDbLine
 10
0.0
 20
0.0
 30
0.0
 11
-1.0
 21
0.0
 31
0.0
  0
ENDBLK
  5
A6B
330
A66
100
AcDbEntity
  8
0
100
AcDbBlockEnd
  0
BLOCK
  5
BB77
330
BB61
100
AcDbEntity
  8
0
100
AcDbBlockBegin
  2
SYS図枠A3(AIS2008)
 70
     0
 10
0.0
 20
0.0
 30
0.0
  3
SYS図枠A3(AIS2008)
  1

  0
TEXT
  5
BB62
330
BB61
100
AcDbEntity
  8
AM_6
 60
     1
100
AcDbText
 10
408.4999999999998
 20
8.5
 30
0.0
 40
2.5
  1
!GENTITLE-INSERT
100
AcDbText
  0
TEXT
  5
BB63
330
BB61
100
AcDbEntity
  8
AM_6
 60
     1
100
AcDbText
 10
0.0
 20
0.0
 30
0.0
 40
2.5
  1
!GENTITLE-LL
100
AcDbText
  0
TEXT
  5
BB64
330
BB61
100
AcDbEntity
  8
AM_6
 60
     1
100
AcDbText
 10
420.0
 20
297.0
 30
0.0
 40
2.5
  1
!GENTITLE-RU
100
AcDbText
  0
TEXT
  5
BB65
330
BB61
100
AcDbEntity
  8
AM_6
 60
     1
100
AcDbText
 10
420.0
 20
297.0
 30
0.0
 40
2.5
  1
!GENTITLE-MAX
100
AcDbText
  0
LINE
  5
BB66
330
BB61
100
AcDbEntity
  8
size
100
AcDbLine
 10
0.0
 20
0.0
 30
0.0
 11
420.0
 21
0.0
 31
0.0
1001
GENIUS_GENREC_14
1002
{
1000
PYDIR
1011
0.0000000000000178
1021
297.0
1031
0.0
1002
}
1002
{
1000
PXDIR
1011
420.0
1021
0.0
1031
0.0
1002
}
1002
{
1000
PORI
1011
0.0
1021
0.0
1031
0.0
1002
}
1002
{
1000
PINS
1011
210.0
1021
148.4999999999999
1031
0.0
1002
}
1002
{
1000
HVAL
1000
297
1002
}
1002
{
1000
H
1070
     2
1002
}
1002
{
1000
WVAL
1000
420
1002
}
1002
{
1000
W
1070
     2
1002
}
1002
{
1000
C
1070
     4
1002
}
1001
GENIUS_GENOBJ-N-REC_13
1002
{
1000
OWNER
1000
GEN
1002
}
1001
GENIUS_GENODEF_13
1002
{
1000
HIER
1070
     0
1002
}
1002
{
1000
MANEDIT
1070
     0
1002
}
1002
{
1000
NOSEL
1070
     0
1002
}
1002
{
1000
BEHIND
1070
     0
1002
}
1002
{
1000
OTHER
1070
     0
1002
}
1002
{
1000
REACTOR
1002
}
  0
LINE
  5
BB67
330
BB61
100
AcDbEntity
  8
size
100
AcDbLine
 10
420.0
 20
0.0
 30
0.0
 11
420.0
 21
297.0
 31
0.0
1001
GENIUS_GENREC_14
1002
{
1000
PYDIR
1011
0.0000000000000178
1021
297.0
1031
0.0
1002
}
1002
{
1000
PXDIR
1011
420.0
1021
0.0
1031
0.0
1002
}
1002
{
1000
PORI
1011
0.0
1021
0.0
1031
0.0
1002
}
1002
{
1000
PINS
1011
210.0
1021
148.4999999999999
1031
0.0
1002
}
1002
{
1000
HVAL
1000
297
1002
}
1002
{
1000
H
1070
     2
1002
}
1002
{
1000
WVAL
1000
420
1002
}
1002
{
1000
W
1070
     2
1002
}
1002
{
1000
C
1070
     4
1002
}
1001
GENIUS_GENOBJ-N-REC_13
1002
{
1000
OWNER
1000
GEN
1002
}
1001
GENIUS_GENODEF_13
1002
{
1000
HIER
1070
     0
1002
}
1002
{
1000
MANEDIT
1070
     0
1002
}
1002
{
1000
NOSEL
1070
     0
1002
}
1002
{
1000
BEHIND
1070
     0
1002
}
1002
{
1000
OTHER
1070
     0
1002
}
1002
{
1000
REACTOR
1002
}
  0
LINE
  5
BB68
330
BB61
100
AcDbEntity
  8
size
100
AcDbLine
 10
420.0
 20
297.0
 30
0.0
 11
0.0000000000000275
 21
297.0
 31
0.0
1001
GENIUS_GENREC_14
1002
{
1000
PYDIR
1011
0.0000000000000178
1021
297.0
1031
0.0
1002
}
1002
{
1000
PXDIR
1011
420.0
1021
0.0
1031
0.0
1002
}
1002
{
1000
PORI
1011
0.0
1021
0.0
1031
0.0
1002
}
1002
{
1000
PINS
1011
210.0
1021
148.4999999999999
1031
0.0
1002
}
1002
{
1000
HVAL
1000
297
1002
}
1002
{
1000
H
1070
     2
1002
}
1002
{
1000
WVAL
1000
420
1002
}
1002
{
1000
W
1070
     2
1002
}
1002
{
1000
C
1070
     4
1002
}
1001
GENIUS_GENOBJ-N-REC_13
1002
{
1000
OWNER
1000
GEN
1002
}
1001
GENIUS_GENODEF_13
1002
{
1000
HIER
1070
     0
1002
}
1002
{
1000
MANEDIT
1070
     0
1002
}
1002
{
1000
NOSEL
1070
     0
1002
}
1002
{
1000
BEHIND
1070
     0
1002
}
1002
{
1000
OTHER
1070
     0
1002
}
1002
{
1000
REACTOR
1002
}
  0
LINE
  5
BB69
330
BB61
100
AcDbEntity
  8
size
100
AcDbLine
 10
0.0000000000000275
 20
297.0
 30
0.0
 11
0.0
 21
0.0
 31
0.0
1001
GENIUS_GENREC_14
1002
{
1000
PYDIR
1011
0.0000000000000178
1021
297.0
1031
0.0
1002
}
1002
{
1000
PXDIR
1011
420.0
1021
0.0
1031
0.0
1002
}
1002
{
1000
PORI
1011
0.0
1021
0.0
1031
0.0
1002
}
1002
{
1000
PINS
1011
210.0
1021
148.4999999999999
1031
0.0
1002
}
1002
{
1000
HVAL
1000
297
1002
}
1002
{
1000
H
1070
     2
1002
}
1002
{
1000
WVAL
1000
420
1002
}
1002
{
1000
W
1070
     2
1002
}
1002
{
1000
C
1070
     4
1002
}
1001
GENIUS_GENOBJ-N-REC_13
1002
{
1000
OWNER
1000
GEN
1002
}
1001
GENIUS_GENODEF_13
1002
{
1000
HIER
1070
     0
1002
}
1002
{
1000
MANEDIT
1070
     0
1002
}
1002
{
1000
NOSEL
1070
     0
1002
}
1002
{
1000
BEHIND
1070
     0
1002
}
1002
{
1000
OTHER
1070
     0
1002
}
1002
{
1000
REACTOR
1002
}
  0
LINE
  5
BB6A
330
BB61
100
AcDbEntity
  8
waku
100
AcDbLine
 10
408.4999999999998
 20
8.5
 30
0.0
 11
408.4999999999998
 21
288.5
 31
0.0
1001
GENIUS_GENREC_14
1002
{
1000
PYDIR
1011
0.0000000000000178
1021
297.0
1031
0.0
1002
}
1002
{
1000
PXDIR
1011
420.0
1021
0.0
1031
0.0
1002
}
1002
{
1000
PORI
1011
0.0
1021
0.0
1031
0.0
1002
}
1002
{
1000
PINS
1011
210.0
1021
148.4999999999999
1031
0.0
1002
}
1002
{
1000
HVAL
1000
297
1002
}
1002
{
1000
H
1070
     2
1002
}
1002
{
1000
WVAL
1000
420
1002
}
1002
{
1000
W
1070
     2
1002
}
1002
{
1000
C
1070
     4
1002
}
1001
GENIUS_GENOBJ-N-REC_13
1002
{
1000
OWNER
1000
GEN
1002
}
1001
GENIUS_GENODEF_13
1002
{
1000
HIER
1070
     0
1002
}
1002
{
1000
MANEDIT
1070
     0
1002
}
1002
{
1000
NOSEL
1070
     0
1002
}
1002
{
1000
BEHIND
1070
     0
1002
}
1002
{
1000
OTHER
1070
     0
1002
}
1002
{
1000
REACTOR
1002
}
  0
LINE
  5
BB6B
330
BB61
100
AcDbEntity
  8
waku
100
AcDbLine
 10
11.50000000000002
 20
288.5
 30
0.0
 11
11.5
 21
8.5
 31
0.0
1001
GENIUS_GENREC_14
1002
{
1000
PYDIR
1011
0.0000000000000178
1021
297.0
1031
0.0
1002
}
1002
{
1000
PXDIR
1011
420.0
1021
0.0
1031
0.0
1002
}
1002
{
1000
PORI
1011
0.0
1021
0.0
1031
0.0
1002
}
1002
{
1000
PINS
1011
210.0
1021
148.4999999999999
1031
0.0
1002
}
1002
{
1000
HVAL
1000
297
1002
}
1002
{
1000
H
1070
     2
1002
}
1002
{
1000
WVAL
1000
420
1002
}
1002
{
1000
W
1070
     2
1002
}
1002
{
1000
C
1070
     4
1002
}
1001
GENIUS_GENOBJ-N-REC_13
1002
{
1000
OWNER
1000
GEN
1002
}
1001
GENIUS_GENODEF_13
1002
{
1000
HIER
1070
     0
1002
}
1002
{
1000
MANEDIT
1070
     0
1002
}
1002
{
1000
NOSEL
1070
     0
1002
}
1002
{
1000
BEHIND
1070
     0
1002
}
1002
{
1000
OTHER
1070
     0
1002
}
1002
{
1000
REACTOR
1002
}
  0
LINE
  5
BB6C
330
BB61
100
AcDbEntity
  8
waku
100
AcDbLine
 10
408.4999999999998
 20
288.5
 30
0.0
 11
11.50000000000002
 21
288.5
 31
0.0
1001
GENIUS_GENREC_14
1002
{
1000
PYDIR
1011
0.0000000000000178
1021
297.0
1031
0.0
1002
}
1002
{
1000
PXDIR
1011
420.0
1021
0.0
1031
0.0
1002
}
1002
{
1000
PORI
1011
0.0
1021
0.0
1031
0.0
1002
}
1002
{
1000
PINS
1011
210.0
1021
148.4999999999999
1031
0.0
1002
}
1002
{
1000
HVAL
1000
297
1002
}
1002
{
1000
H
1070
     2
1002
}
1002
{
1000
WVAL
1000
420
1002
}
1002
{
1000
W
1070
     2
1002
}
1002
{
1000
C
1070
     4
1002
}
1001
GENIUS_GENOBJ-N-REC_13
1002
{
1000
OWNER
1000
GEN
1002
}
1001
GENIUS_GENODEF_13
1002
{
1000
HIER
1070
     0
1002
}
1002
{
1000
MANEDIT
1070
     0
1002
}
1002
{
1000
NOSEL
1070
     0
1002
}
1002
{
1000
BEHIND
1070
     0
1002
}
1002
{
1000
OTHER
1070
     0
1002
}
1002
{
1000
REACTOR
1002
}
  0
TEXT
  5
BB6D
330
BB61
100
AcDbEntity
  8
AM_6
 60
     1
100
AcDbText
 10
0.0
 20
0.0
 30
0.0
 40
2.5
  1
!GENTITLE-LL
100
AcDbText
  0
TEXT
  5
BB6E
330
BB61
100
AcDbEntity
  8
AM_6
 60
     1
100
AcDbText
 10
408.4999999999998
 20
288.5
 30
0.0
 40
2.5
  1
!GENTITLE-RU
100
AcDbText
  0
TEXT
  5
BB6F
330
BB61
100
AcDbEntity
  8
AM_6
 60
     1
100
AcDbText
 10
420.0
 20
297.0
 30
0.0
 40
2.5
  1
!GENTITLE-MAX
100
AcDbText
  0
TEXT
  5
BB70
330
BB61
100
AcDbEntity
  8
AM_6
 60
     1
100
AcDbText
 10
408.4999999999998
 20
8.5
 30
0.0
 40
2.5
  1
!GENTITLE-INSERT
100
AcDbText
  0
LINE
  5
BB71
330
BB61
100
AcDbEntity
  8
waku
100
AcDbLine
 10
11.5
 20
8.5
 30
0.0
 11
408.4999999999998
 21
8.5
 31
0.0
  0
LINE
  5
BB72
330
BB61
100
AcDbEntity
  8
waku
100
AcDbLine
 10
246.499999999999
 20
33.49999999999332
 30
0.0
 11
408.4999999999998
 21
33.49999999999981
 31
0.0
  0
LINE
  5
BB73
330
BB61
100
AcDbEntity
  8
waku
100
AcDbLine
 10
246.4999999999983
 20
8.5
 30
0.0
 11
246.4999999999974
 21
33.49999999999332
 31
0.0
  0
MTEXT
  5
BB74
330
BB61
100
AcDbEntity
  8
AM_6
100
AcDbMText
 10
316.9999999999996
 20
25.74999999999989
 30
0.0
 40
4.0
 41
9.015095283510616
 71
     5
 72
     5
  1
A3
 73
     1
 44
1.0
1001
ACAD
1000
MTEXTBEGIN
1070
    73
1070
     1
1070
    44
1040
1.0
1070
    74
1070
     0
1000
MTEXTEND
  0
ENDBLK
  5
BB78
330
BB61
100
AcDbEntity
  8
0
100
AcDbBlockEnd
  0
BLOCK
  5
BBE6
330
BB8B
100
AcDbEntity
  8
0
100
AcDbBlockBegin
  2
SYS表題(AIS2008)
 70
     2
 10
0.0
 20
0.0
 30
0.0
  3
SYS表題(AIS2008)
  1

  0
LINE
  5
BB8C
330
BB8B
100
AcDbEntity
  8
waku
  6
Continuous
370
    40
100
AcDbLine
 10
-162.0
 20
0.0
 30
0.0
 11
0.0000000000004547
 21
0.0
 31
0.0
  0
LINE
  5
BB8D
330
BB8B
100
AcDbEntity
  8
hyosen2
  6
Continuous
370
    40
100
AcDbLine
 10
-115.0000000000004
 20
25.0
 30
0.0
 11
-115.0000000000004
 21
0.0
 31
0.0
  0
LINE
  5
BB8E
330
BB8B
100
AcDbEntity
  8
waku
  6
Continuous
370
    40
100
AcDbLine
 10
0.0
 20
25.0
 30
0.0
 11
0.0
 21
0.0
 31
0.0
  0
LINE
  5
BB8F
330
BB8B
100
AcDbEntity
  8
waku
  6
Continuous
370
    40
100
AcDbLine
 10
-162.0000000000007
 20
24.99999999999977
 30
0.0
 11
-162.0000000000013
 21
-0.0000000000002274
 31
0.0
  0
LINE
  5
BB90
330
BB8B
100
AcDbEntity
  8
hyosen2
  6
Continuous
370
    40
100
AcDbLine
 10
-115.0000000000004
 20
14.0
 30
0.0
 11
-68.00000000000022
 21
14.0
 31
0.0
  0
LINE
  5
BB91
330
BB8B
100
AcDbEntity
  8
hyosen2
  6
Continuous
100
AcDbLine
 10
-62.99999999999977
 20
25.0
 30
0.0
 11
-62.99999999999977
 21
0.0
 31
0.0
  0
TEXT
  5
BB92
330
BB8B
100
AcDbEntity
  8
hyomoji
  6
Continuous
100
AcDbText
 10
-66.38199999999978
 20
3.88682935783594
 30
0.0
 40
2.7
  1
図
 41
0.7
 72
     4
 11
-65.49999999999977
 21
5.14682935783594
 31
0.0
100
AcDbText
  0
TEXT
  5
BB93
330
BB8B
100
AcDbEntity
  8
hyomoji
  6
Continuous
100
AcDbText
 10
-66.38199999999978
 20
0.6847767415209991
 30
0.0
 40
2.7
  1
番
 41
0.7
 72
     4
 11
-65.49999999999977
 21
2.034776741521
 31
0.0
100
AcDbText
  0
LINE
  5
BB94
330
BB8B
100
AcDbEntity
  8
hyosen2
  6
Continuous
100
AcDbLine
 10
-16.0
 20
6.935723472010067
 30
0.0
 11
-16.0
 21
-0.0642765279899322
 31
0.0
  0
LINE
  5
BB95
330
BB8B
100
AcDbEntity
  8
hyosen1
  6
Continuous
370
    40
100
AcDbLine
 10
-68.0
 20
7.0
 30
0.0
 11
0.0
 21
7.0
 31
0.0
  0
LINE
  5
BB96
330
BB8B
100
AcDbEntity
  8
hyosen2
  6
Continuous
370
    40
100
AcDbLine
 10
-68.0
 20
25.0
 30
0.0
 11
-68.0
 21
0.0
 31
0.0
  0
LINE
  5
BB97
330
BB8B
100
AcDbEntity
  8
hyosen2
  6
Continuous
100
AcDbLine
 10
-11.0
 20
6.935723472010067
 30
0.0
 11
-11.0
 21
-0.0642765279899322
 31
0.0
  0
TEXT
  5
BB98
330
BB8B
100
AcDbEntity
  8
hyomoji
  6
Continuous
100
AcDbText
 10
-15.46193093476272
 20
4.000214592721325
 30
0.0
 40
2.5
  1
図面
 41
0.7
 72
     4
 11
-13.53693093476272
 21
5.166881259387992
 31
0.0
100
AcDbText
  0
TEXT
  5
BB99
330
BB8B
100
AcDbEntity
  8
hyomoji
  6
Continuous
100
AcDbText
 10
-15.40359760142939
 20
0.6302759610207433
 30
0.0
 40
2.5
  1
枚数
 41
0.7
 72
     4
 11
-13.53693093476272
 21
1.880275961020743
 31
0.0
100
AcDbText
  0
LINE
  5
BB9A
330
BB8B
100
AcDbEntity
  8
waku
  6
Continuous
370
    40
100
AcDbLine
 10
-162.0000000000007
 20
24.99999999999956
 30
0.0
 11
0.0
 21
25.00000000000114
 31
0.0
  0
LINE
  5
BB9B
330
BB8B
100
AcDbEntity
  8
hyosen2
  6
Continuous
370
    40
100
AcDbLine
 10
-162.0000000000002
 20
14.0
 30
0.0
 11
-115.0000000000004
 21
14.0
 31
0.0
  0
LINE
  5
BB9C
330
BB8B
100
AcDbEntity
  8
hyosen2
  6
Continuous
100
AcDbLine
 10
-150.0000000000002
 20
14.0
 30
0.0
 11
-150.0000000000002
 21
0.0
 31
0.0
  0
TEXT
  5
BB9D
330
BB8B
100
AcDbEntity
  8
hyomoji
  6
Continuous
100
AcDbText
 10
-158.2400000000002
 20
10.25
 30
0.0
 40
3.0
  1
承認
 41
0.7
 72
     4
 11
-156.0000000000002
 21
11.75
 31
0.0
100
AcDbText
  0
LINE
  5
BB9E
330
BB8B
100
AcDbEntity
  8
hyosen2
  6
Continuous
100
AcDbLine
 10
-127.0000000000002
 20
14.0
 30
0.0
 11
-127.0000000000002
 21
0.0
 31
0.0
  0
TEXT
  5
BB9F
330
BB8B
100
AcDbEntity
  8
hyomoji
  6
Continuous
100
AcDbText
 10
-140.7400000000002
 20
10.25
 30
0.0
 40
3.0
  1
確認
 41
0.7
 72
     4
 11
-138.5000000000002
 21
11.75
 31
0.0
100
AcDbText
  0
TEXT
  5
BBA0
330
BB8B
100
AcDbEntity
  8
hyomoji
  6
Continuous
100
AcDbText
 10
-123.5436856926269
 20
10.25
 30
0.0
 40
3.0
  1
作成
 41
0.7
 72
     4
 11
-121.3036856926269
 21
11.75
 31
0.0
100
AcDbText
  0
LINE
  5
BBA1
330
BB8B
100
AcDbEntity
  8
hyosen2
  6
Continuous
100
AcDbLine
 10
-162.0000000000007
 20
9.5
 30
0.0
 11
-115.0000000000009
 21
9.5
 31
0.0
  0
LINE
  5
BBA2
330
BB8B
100
AcDbEntity
  8
hyosen1
  6
Continuous
370
    40
100
AcDbLine
 10
-68.0
 20
14.0
 30
0.0
 11
0.0
 21
14.0
 31
0.0
  0
TEXT
  5
BBA3
330
BB8B
100
AcDbEntity
  8
hyomoji
  6
Continuous
100
AcDbText
 10
-66.38200000000001
 20
10.83643685350829
 30
0.0
 40
2.7
  1
品
 41
0.7
 72
     4
 11
-65.5
 21
12.09643685350829
 31
0.0
100
AcDbText
  0
TEXT
  5
BBA4
330
BB8B
100
AcDbEntity
  8
hyomoji
  6
Continuous
100
AcDbText
 10
-66.38200000000001
 20
7.751387192220041
 30
0.0
 40
2.7
  1
番
 41
0.7
 72
     4
 11
-65.5
 21
9.101387192220043
 31
0.0
100
AcDbText
  0
LINE
  5
BBA5
330
BB8B
100
AcDbEntity
  8
hyosen2
  6
Continuous
100
AcDbLine
 10
-63.0
 20
18.0
 30
0.0
 11
0.0000000000004547
 21
18.0
 31
0.0
  0
TEXT
  5
BBA6
330
BB8B
100
AcDbEntity
  8
hyomoji
  6
Continuous
100
AcDbText
 10
-66.38200000000001
 20
20.15681154346952
 30
0.0
 40
2.7
  1
品
 41
0.7
 72
     4
 11
-65.5
 21
21.41681154346952
 31
0.0
100
AcDbText
  0
TEXT
  5
BBA7
330
BB8B
100
AcDbEntity
  8
hyomoji
  6
Continuous
100
AcDbText
 10
-66.319
 20
16.7971877465483
 30
0.0
 40
2.7
  1
名
 41
0.7
 72
     4
 11
-65.5
 21
18.1471877465483
 31
0.0
100
AcDbText
  0
LWPOLYLINE
  5
BBA8
330
BB8B
100
AcDbEntity
  8
hyomoji
  6
Continuous
370
     9
100
AcDbPolyline
 90
        8
 70
   129
 43
0.0
 10
-94.71664269381063
 20
7.516722793065809
 42
-0.6021429256477857
 10
-94.74876257508388
 20
7.577406929225617
 10
-94.3643184158509
 20
8.142763822137112
 42
-0.2483280785897051
 10
-94.30007865330392
 20
8.176765682863559
 10
-93.49406859106215
 20
8.176765682863559
 42
-0.2483286500869998
 10
-93.42982873445723
 20
8.142763683815472
 10
-93.04538640247892
 20
7.57740686006491
 42
-0.6021421921708056
 10
-93.07750633078173
 20
7.516722793065809
  0
LWPOLYLINE
  5
BBA9
330
BB8B
100
AcDbEntity
  8
hyomoji
  6
Continuous
370
     9
100
AcDbPolyline
 90
       12
 70
   129
 43
0.0
 10
-95.10066352813693
 20
7.206114336880772
 10
-95.10066352813693
 20
7.381138154179552
 42
0.4422835312456968
 10
-95.14318581001337
 20
7.419805994050647
 10
-95.48861490902391
 20
7.386933916044881
 10
-94.80150443173149
 20
8.397389580015442
 42
-0.251104977230494
 10
-94.64166799998499
 20
8.487374139048597
 10
-93.16046721299699
 20
8.487374139048597
 42
-0.2453004937928962
 10
-92.99950197713904
 20
8.407546927133807
 10
-92.30556057799777
 20
7.387044538439794
 10
-92.650906417339
 20
7.419908976284203
 42
0.4422837740584967
 10
-92.69342873062667
 20
7.381241139402161
 10
-92.69342873062667
 20
7.206114336880772
  0
LWPOLYLINE
  5
BBAA
330
BB8B
100
AcDbEntity
  8
hyomoji
  6
Continuous
370
     9
100
AcDbPolyline
 90
       18
 70
   129
 43
0.0
 10
-93.52253906807527
 20
6.507245342302438
 10
-92.81460158919413
 20
6.507245342302438
 10
-92.46227902959141
 20
5.862752078807262
 42
-0.56960330458711
 10
-92.63269060855964
 20
5.575381194890269
 10
-95.16142443937722
 20
5.575381194890269
 42
-0.5696037030708911
 10
-95.33183590623185
 20
5.862752283892632
 10
-94.92603195720221
 20
6.605075352594667
 42
0.569603703070901
 10
-94.9601142505735
 20
6.66254957039473
 10
-95.48894367882551
 20
6.66254957039473
 10
-95.48894367882551
 20
6.973158026579993
 10
-92.30514857993808
 20
6.973158026579993
 10
-92.30514857993808
 20
6.66254957039473
 10
-94.16361950950046
 20
6.66254957039473
 42
0.2742066828570859
 10
-94.1977017820227
 20
6.642338759809946
 10
-94.5797550161353
 20
5.943463907013665
 42
0.5696040735836391
 10
-94.54567274361307
 20
5.885989651075306
 10
-93.24842050934783
 20
5.885989651075306
 42
0.5696036141370885
 10
-93.21433821097278
 20
5.943463859721531
  0
LWPOLYLINE
  5
BBAB
330
BB8B
100
AcDbEntity
  8
hyomoji
  6
Continuous
370
     9
100
AcDbPolyline
 90
       23
 70
   129
 43
0.0
 10
-113.7268241398469
 20
6.250351779631046
 42
0.0223985860000053
 10
-113.5470175960388
 20
6.069365314279821
 42
0.0223985860000067
 10
-113.3298184279569
 20
5.895937796930183
 42
0.0223985860000024
 10
-113.0769694554942
 20
5.731459981301894
 42
0.0220669162099173
 10
-112.7948354676327
 20
5.579344997231372
 42
0.4330144820686968
 10
-112.7627586028536
 20
5.591673044677007
 10
-112.5949318145867
 20
6.003944023309485
 42
0.1957402929298021
 10
-112.5949313315429
 20
6.414003627072816
 10
-113.0029292479371
 20
7.416268145310142
 42
-0.1957419841521856
 10
-113.0029276888965
 20
7.767750618383161
 10
-112.7323557985662
 20
8.432405278217402
 42
0.6213425724569266
 10
-112.7650957515457
 20
8.459104097606996
 42
0.0223985860000949
 10
-113.0542784116799
 20
8.305810639210902
 42
0.0223985859999093
 10
-113.3100201977245
 20
8.142141767095154
 42
0.0223985859999842
 10
-113.5302700965744
 20
7.969410104177995
 42
0.0223985860000033
 10
-113.7132623648729
 20
7.789000736989009
 42
0.0223985859999945
 10
-113.8575286275093
 20
7.602360390702187
 42
0.0223985860000046
 10
-113.9619125231659
 20
7.410985776373762
 42
0.0223985860000012
 10
-114.0255773454698
 20
7.216411492448287
 42
0.0223985859999998
 10
-114.0480117738614
 20
7.020197926266972
 42
0.0223985859999993
 10
-114.029036877982
 20
6.82391845513166
 42
0.0223985859999987
 10
-113.968803570624
 20
6.629147156783573
 42
0.0223985859999964
 10
-113.8677964283099
 20
6.437445819441562
 42
0.0223985860000002
  0
LWPOLYLINE
  5
BBAC
330
BB8B
100
AcDbEntity
  8
hyomoji
  6
Continuous
370
     9
100
AcDbPolyline
 90
       23
 70
   129
 43
0.0
 10
-103.8091594853931
 20
6.606475788939405
 42
-0.0225609849999951
 10
-103.9158153508642
 20
6.413865345290559
 42
-0.0225609850000035
 10
-104.0628916479152
 20
6.226121043267085
 42
-0.022560985000006
 10
-104.2491918991691
 20
6.044770222218629
 42
-0.0225609849999973
 10
-104.4732006090657
 20
5.87128838899889
 42
-0.0225609849999909
 10
-104.733094725593
 20
5.707086928443003
 42
-0.0225466705714752
 10
-105.0265696694339
 20
5.553590591288183
 42
-0.6820149919169938
 10
-105.0583583690729
 20
5.583821782525318
 10
-104.813222817605
 20
6.185992327983512
 42
0.1957433897416816
 10
-104.8132220528773
 20
6.596057940510036
 10
-105.2092974689358
 20
7.569019615279557
 42
-0.1957432007478236
 10
-105.2092968534884
 20
7.979084861101
 10
-105.0215968014395
 20
8.440167220227749
 42
-0.4317106519725617
 10
-104.9896131621474
 20
8.452539934886317
 42
-0.0225711483270752
 10
-104.6997818408374
 20
8.297536988598267
 42
-0.0225609850000041
 10
-104.4441260177748
 20
8.132138986989048
 42
-0.022560984999992
 10
-104.2245931138832
 20
7.957627826638144
 42
-0.0225609849999975
 10
-104.0429679754031
 20
7.775423170297017
 42
-0.0225609850000032
 10
-103.9007291656501
 20
7.5870074018585
 42
-0.0225609849999971
 10
-103.7990336827058
 20
7.393913464184605
 42
-0.0225609850000056
 10
-103.7387080447365
 20
7.197712251202119
 42
-0.0225609849999966
 10
-103.7202444694171
 20
7.0
 42
-0.0225609849999982
 10
-103.7437919592537
 20
6.802385300864671
 42
-0.0225609850000013
  0
LWPOLYLINE
  5
BBAD
330
BB8B
100
AcDbEntity
  8
hyomoji
  6
Continuous
370
     9
100
AcDbPolyline
 90
       46
 70
   129
 43
0.0
 10
-110.519768731164
 20
4.93123368852366
 42
0.0067740668000082
 10
-110.3864681614013
 20
4.913172228938265
 42
0.0067740667999966
 10
-110.2520640816365
 20
4.896651608074306
 42
0.00677406679999
 10
-110.1166558268724
 20
4.881683988101485
 42
0.0067740668000013
 10
-109.9803427321119
 20
4.868280257664763
 42
0.0067740668000002
 10
-109.8432247691212
 20
4.856450350263911
 42
0.0067636405007582
 10
-109.705614869343
 20
4.846215763771623
 42
0.3216815158956166
 10
-109.6823639763015
 20
4.860849479223816
 10
-109.0305054224016
 20
6.462145869264986
 42
0.6036079430413217
 10
-109.057350599905
 20
6.494047360847615
 42
-0.0968770041122301
 10
-110.2622835208153
 20
6.467861583611236
 42
-0.4787358622778684
 10
-110.8492829567522
 20
7.526226966682088
 10
-110.2098189151504
 20
9.097085087812047
 42
0.5685357036715338
 10
-110.2342375268879
 20
9.129384786912851
 42
0.0037682570573848
 10
-110.3092103627439
 20
9.120496988302877
 42
0.003796761400007
 10
-110.3844216056329
 20
9.111059971979782
 42
0.0037967614000019
 10
-110.4592877230613
 20
9.101138888545392
 42
0.0037967614000093
 10
-110.5337902489084
 20
9.090735902993856
 42
0.0037967613999978
 10
-110.6079119905773
 20
9.079853435023323
 42
0.0037967614000032
 10
-110.6816363922337
 20
9.068494095361755
 42
0.0037967614000015
 10
-110.754946261281
 20
9.056660431060207
 42
0.0037967613999987
 10
-110.827825041885
 20
9.044355180199318
 42
0.0037967613999957
 10
-110.9002549046868
 20
9.03158120821172
 42
0.0037967613999885
 10
-110.972219930615
 20
9.018341444206273
 42
0.0037967613999968
 10
-111.0437035638358
 20
9.004638880968057
 42
0.003796761399993
 10
-111.1146886117533
 20
8.990476765988205
 42
0.0037967614000086
 10
-111.1851597920581
 20
8.975858346757147
 42
0.0037967614000003
 10
-111.255099912154
 20
8.96078693444133
 42
0.0037967613999995
 10
-111.3244930529702
 20
8.945266094912993
 42
0.0038055234898925
 10
-111.3934824936702
 20
8.929261274685359
 42
0.2417074229057139
 10
-111.4098051015228
 20
8.915234771530322
 10
-111.8650382388573
 20
7.796940065814168
 42
0.1957404060663561
 10
-111.865038329053
 20
7.386880242530422
 10
-111.4689880787043
 20
6.413968958653639
 42
-0.1957405476044069
 10
-111.4689882806954
 20
6.00390886074274
 10
-111.7862250935463
 20
5.22460773953412
 42
0.4443455524912626
 10
-111.7710237743845
 20
5.19311367739874
 42
0.0067708198256604
 10
-111.6540216434309
 20
5.1605708935449
 42
0.0067740668000073
 10
-111.5349304364506
 20
5.129370851569773
 42
0.0067740668000071
 10
-111.4138932822307
 20
5.099552967015596
 42
0.0067740668000066
 10
-111.2909986908046
 20
5.07113908084807
 42
0.0067740667999989
 10
-111.1663370824974
 20
5.044150015212153
 42
0.0067740668000009
 10
-111.0400001511566
 20
5.018605637108294
 42
0.0067740668000062
 10
-110.9120802273951
 20
4.994524667364429
 42
0.0067740668000053
 10
-110.7826715521128
 20
4.971924807987306
 42
0.0067740668000071
 10
-110.6518690029729
 20
4.950822678486701
 42
0.0067740668000022
  0
LWPOLYLINE
  5
BBAE
330
BB8B
100
AcDbEntity
  8
hyomoji
  6
Continuous
370
     9
100
AcDbPolyline
 90
       42
 70
   129
 43
0.0
 10
-107.0325217536542
 20
4.964147322978988
 42
0.0068021948000069
 10
-106.9020636932109
 20
4.986304122771797
 42
0.0068021948000014
 10
-106.7730727343519
 20
5.009960371701253
 42
0.0068021947999925
 10
-106.6456443915033
 20
5.035098622465056
 42
0.0068021948000045
 10
-106.5198729055644
 20
5.061700281589081
 42
0.0067876847517197
 10
-106.3961149632876
 20
5.0896821989827
 42
0.2416094440683337
 10
-106.3798008370786
 20
5.10370666303288
 10
-105.9412231671285
 20
6.181086424920977
 42
0.1957413290603471
 10
-105.941223786604
 20
6.601231521413183
 10
-106.3352129692118
 20
7.569070096907807
 42
-0.1957413474957244
 10
-106.3352135592583
 20
7.979131746854137
 10
-105.9993061639691
 20
8.804298600408856
 42
0.4460668776922764
 10
-106.0146375343697
 20
8.835830324484732
 42
0.0028283786038634
 10
-106.0633916340969
 20
8.849503076646668
 42
0.0028494113000101
 10
-106.1128738376581
 20
8.863040909337769
 42
0.0028494112999968
 10
-106.1627164489871
 20
8.876338300380666
 42
0.0028494113000006
 10
-106.2129124636919
 20
8.889393466838782
 42
0.0028494113000024
 10
-106.2634555141451
 20
8.902204753128671
 42
0.002849411299989
 10
-106.3143385959552
 20
8.914770503667796
 42
0.0028494113000037
 10
-106.3655559782564
 20
8.927089062872255
 42
0.0028494112999894
 10
-106.4171000198944
 20
8.939158838834828
 42
0.0028494113000082
 10
-106.4689649900042
 20
8.950978239648975
 42
0.0028494112999955
 10
-106.5211432474314
 20
8.962545800759244
 42
0.0028494113000056
 10
-106.5736290613101
 20
8.973859930259095
 42
0.0028494113000083
 10
-106.6264147904874
 20
8.984919290946661
 42
0.0028494112999919
 10
-106.6794934305705
 20
8.9957222909145
 42
0.0028494112999998
 10
-106.7328586139322
 20
9.006267592961194
 42
0.0028494113000083
 10
-106.7865033361811
 20
9.016553859884425
 42
0.0028485312981507
 10
-106.8404039239449
 20
9.026576689379226
 42
0.3543993923517316
 10
-106.8664005303705
 20
9.012272432784355
 10
-108.5584562824822
 20
4.855704245478136
 42
0.5392714590992975
 10
-108.5361428249079
 20
4.823266086778858
 42
0.0068019099602671
 10
-108.3961118072659
 20
4.828097465976724
 42
0.0068021947999971
 10
-108.2564359679456
 20
4.834545517526747
 42
0.0068021947999996
 10
-108.1172249654992
 20
4.842605470531224
 42
0.0068021948000011
 10
-107.9785813187429
 20
4.852271275742849
 42
0.0068021947999982
 10
-107.8406081832579
 20
4.863535801417583
 42
0.0068021948000014
 10
-107.7034080778608
 20
4.876390769638645
 42
0.0068021947999974
 10
-107.567080974318
 20
4.890826565286943
 42
0.0068021948000009
 10
-107.4317293914466
 20
4.906832554423771
 42
0.0068021948000053
 10
-107.2974533010122
 20
4.924396829583201
 42
0.0068021947999869
 10
-107.164350764493
 20
4.943506528156148
 42
0.006802194800004
  0
LWPOLYLINE
  5
BBAF
330
BB8B
100
AcDbEntity
  8
hyomoji
  6
Continuous
370
     9
100
AcDbPolyline
 90
       23
 70
   129
 43
0.0
 10
-109.4231429740809
 20
6.882717884956717
 42
0.1173827961225227
 10
-108.8350126422351
 20
6.998518263554387
 42
0.1913082464585806
 10
-108.7953116152546
 20
7.039902503188159
 10
-107.9519330850698
 20
9.111683775962999
 42
0.5046897278906438
 10
-107.9716881113106
 20
9.144036257163859
 42
0.0053970181929799
 10
-108.0815331347714
 20
9.152514060678411
 42
0.0031368713999882
 10
-108.1455316208044
 20
9.156812146174617
 42
0.003136871399997
 10
-108.2096530020645
 20
9.160768799436027
 42
0.0031368714000045
 10
-108.2738858168229
 20
9.164383320022579
 42
0.0031368713999919
 10
-108.3382198768724
 20
9.167655262201831
 42
0.0031368714000049
 10
-108.402646267534
 20
9.170583989209715
 42
0.0031368713999963
 10
-108.4671535270758
 20
9.173169055312655
 42
0.0031368714000025
 10
-108.5317321040561
 20
9.175410142129068
 42
0.0031368714000093
 10
-108.5963718102691
 20
9.177306803925603
 42
0.003136871400002
 10
-108.6610624575091
 20
9.178858785996451
 42
0.0031368714000044
 10
-108.7257944943337
 20
9.18006583363649
 42
0.0031368714000004
 10
-108.7905564590121
 20
9.180927755817036
 42
0.0031368713999985
 10
-108.8553388001012
 20
9.181444361509647
 42
0.0031368713999931
 10
-108.9201313293958
 20
9.181615714389863
 42
0.0031368713999985
 10
-108.98492385869
 20
9.181441623429462
 42
0.0023783812883705
 10
-109.0340426873699
 20
9.181122365766439
 42
0.3019404427550624
 10
-109.0555989232341
 20
9.166446722909311
 10
-109.767645508102
 20
7.4172944292402
 42
0.5200087835236677
  0
LWPOLYLINE
  5
BBB0
330
BB8B
100
AcDbEntity
  8
hyomoji
  6
Continuous
370
     9
100
AcDbPolyline
 90
       70
 70
   128
 43
0.0
 10
-99.76233953213478
 20
6.306771465494874
 42
0.8374115646471505
 10
-99.83752001083464
 20
6.292915739780709
 10
-99.83752001083464
 20
5.575381194890269
 10
-100.3810849683493
 20
5.575381194890269
 10
-100.3810849683493
 20
6.281787728428298
 42
0.8134131176983945
 10
-100.455548825774
 20
6.297275260672902
 10
-100.769415810897
 20
5.575381194890269
 10
-101.1576200999968
 20
5.575381194890269
 10
-100.5509443035839
 20
7.03589334323874
 42
0.534832613937013
 10
-100.5868152422815
 20
7.089636149892385
 10
-101.0680049636264
 20
7.089636149892385
 42
0.5537200791098316
 10
-101.1032359636654
 20
7.034043017295516
 10
-100.8856723246893
 20
6.639085554925031
 10
-101.2351669936095
 20
6.662385730247023
 10
-101.2869971928119
 20
6.778995892082321
 42
0.810044809672172
 10
-101.3905813946451
 20
6.757012486332768
 10
-101.3905813946451
 20
5.575381194890269
 10
-101.8953203747317
 20
5.575381194890269
 10
-101.8953203747317
 20
6.414624213681007
 42
0.8775035382925871
 10
-101.9416452787266
 20
6.420694930355465
 10
-102.0117741193614
 20
6.15771765363479
 10
-102.3225133761698
 20
6.118874928028161
 10
-101.909605046741
 20
7.507745460299247
 42
0.4860089347694501
 10
-101.9475909800195
 20
7.555548834169713
 10
-102.2447745479931
 20
7.555548834169713
 10
-102.2447745479931
 20
7.827331185574393
 10
-101.9339469658978
 20
7.827331185574393
 42
0.4143902720061034
 10
-101.8953203747317
 20
7.866380099852448
 10
-101.8953203747317
 20
8.487374139048597
 10
-101.3905813946451
 20
8.487374139048597
 10
-101.3905813946451
 20
7.866380099852448
 42
0.4174020605283751
 10
-101.3515560309561
 20
7.827331185574393
 10
-101.2543221953897
 20
7.827331185574393
 42
0.2351357873419996
 10
-101.1307401709759
 20
7.889680286716383
 10
-101.1187989158877
 20
7.905032989719074
 10
-101.1187989158877
 20
7.555548834169713
 10
-101.3250916272889
 20
7.555548834169713
 42
0.5903409348321764
 10
-101.3576144516721
 20
7.495842772770402
 10
-101.1859875423436
 20
7.184273741280093
 42
0.7474984379804729
 10
-101.1576255300783
 20
7.193389032087452
 10
-101.1576255300783
 20
7.361418564973063
 10
-100.4196995232653
 20
7.361418564973063
 42
0.4142994654112849
 10
-100.3810849683493
 20
7.400467415574667
 10
-100.3810849683493
 20
7.788727953967963
 42
0.410941645053916
 10
-100.4196995232653
 20
7.827331185574393
 10
-100.7912990946367
 20
7.827331185574393
 42
-0.3758657869825331
 10
-101.1576255300783
 20
8.09918460794438
 10
-101.1576255300783
 20
8.487374139048597
 10
-100.6528865499915
 20
8.487374139048597
 10
-100.6528865499915
 20
8.137956133917441
 42
0.4142135623730951
 10
-100.6140440167301
 20
8.099113600655527
 10
-100.4199275016105
 20
8.099113600655527
 42
0.4142135623730951
 10
-100.3810849683493
 20
8.137956133917441
 10
-100.3810849683493
 20
8.487374139048597
 10
-99.83752001083464
 20
8.487374139048597
 10
-99.83752001083464
 20
8.137956133917441
 42
0.4142135623730951
 10
-99.79867747757294
 20
8.099113600655527
 10
-99.13863140396074
 20
8.099113600655527
 10
-99.13863140396074
 20
7.827331185574393
 10
-99.79890545591866
 20
7.827331185574393
 42
0.4142994654112849
 10
-99.83752001083464
 20
7.78828233497279
 10
-99.83752001083464
 20
7.400021796579721
 42
0.414127664552564
 10
-99.798482610895
 20
7.361418564973063
 10
-99.13863140396074
 20
7.361418564973063
 10
-99.13863140396074
 20
7.089636149892385
 10
-99.63201946690425
 20
7.089636149892385
 42
0.5442124499672577
 10
-99.66712910962996
 20
7.034687810013566
 10
-99.06095619162487
 20
5.575381194890269
 10
-99.48806833688013
 20
5.575381194890269
 10
-99.76233928528543
 20
6.306771558063018
  0
LWPOLYLINE
  5
BBB1
330
BB8B
100
AcDbEntity
  8
hyomoji
  6
Continuous
370
     9
100
AcDbPolyline
 90
       43
 70
   129
 43
0.0
 10
-97.74087392986144
 20
5.955563778585427
 42
0.4538928057970519
 10
-97.68002238129179
 20
5.900852078569414
 10
-96.92552713035276
 20
6.080493954769507
 10
-96.92552713035276
 20
5.76925577305974
 10
-98.04681412898071
 20
5.614595287471956
 10
-98.82802294777548
 20
5.575534718410835
 10
-98.82802294777548
 20
5.885989651075306
 10
-98.32330116028584
 20
5.885989651075306
 42
0.4142135623730951
 10
-98.28445862702416
 20
5.924832184336763
 10
-98.28445862702416
 20
7.051032918285727
 42
0.4109416450539177
 10
-98.32307318194011
 20
7.089636149892385
 10
-98.82802294777548
 20
7.089636149892385
 10
-98.82802294777548
 20
7.361418564973063
 10
-97.08909590725149
 20
7.361418564973063
 42
0.4890132124780574
 10
-97.01379679493015
 20
7.458208951288725
 10
-97.10002099772488
 20
7.798041312208852
 42
0.3431714260423211
 10
-97.13767055388577
 20
7.827331185574393
 10
-98.82802294777548
 20
7.827331185574393
 10
-98.82802294777548
 20
8.099113600655527
 10
-97.27627109140236
 20
8.099113600655527
 42
0.4890148091784922
 10
-97.20097207755614
 20
8.195904375080543
 10
-97.27492704572981
 20
8.487374139048597
 10
-96.73136039348309
 20
8.487374139048597
 10
-96.64027730647196
 20
8.128403185169643
 42
0.3431692821353876
 10
-96.60262782360156
 20
8.099113600655527
 10
-96.30432359000202
 20
8.099113600655527
 42
0.4142135623730951
 10
-96.22663852347887
 20
8.176798667178672
 10
-96.22663852347887
 20
8.487374139048597
 10
-95.72190018015522
 20
8.487374139048597
 10
-95.72190018015522
 20
8.105346657236623
 42
-0.3824524618302969
 10
-95.9651136815305
 20
7.827331185574393
 10
-96.51379435024182
 20
7.827331185574393
 42
0.4790978957378951
 10
-96.5519720678858
 20
7.780377008076584
 10
-96.07873821551972
 20
5.915279322624882
 42
0.3431699281256741
 10
-96.04108871056588
 20
5.885989651075306
 10
-95.72190018015522
 20
5.885989651075306
 10
-95.72190018015522
 20
5.575322530045922
 10
-96.34468932008145
 20
5.604666366295758
 42
-0.3300656182922443
 10
-96.59543910280399
 20
5.809392782018675
 10
-96.91284524296385
 20
7.06034647564138
 42
0.3431699481782171
 10
-96.95049474860343
 20
7.089636149892385
 10
-97.7022593749457
 20
7.089636149892385
 42
0.4109416450539144
 10
-97.74087392986144
 20
7.051032918285727
  0
LWPOLYLINE
  5
BBB2
330
BB8B
100
AcDbEntity
  8
hyomoji
  6
Continuous
370
     9
100
AcDbPolyline
 90
       21
 70
   128
 43
0.0
 10
-69.43627218490224
 20
8.681543250778529
 10
-69.43627218490224
 20
8.254417828748271
 10
-73.08597964968567
 20
8.254417828748271
 10
-73.08597964968567
 20
8.914499624755535
 10
-69.63040270880377
 20
8.914499624755535
 42
-0.0245951489999901
 10
-69.61133802936365
 20
8.913441706972433
 42
-0.0245951489999939
 10
-69.59245801114708
 20
8.910142001933762
 42
-0.0245951490000111
 10
-69.57394413156362
 20
8.904632411457669
 42
-0.0245951489999948
 10
-69.55597659449745
 20
8.89696623259374
 42
-0.0245951490000167
 10
-69.53872859944067
 20
8.887217584536756
 42
-0.0245951489999851
 10
-69.52236634149494
 20
8.875480644510844
 42
-0.0245951489999982
 10
-69.5070490113701
 20
8.861868883653869
 42
-0.0245951490000079
 10
-69.49292370128296
 20
8.846513920845383
 42
-0.0245951489999929
 10
-69.48012731524318
 20
8.829564185503386
 42
-0.0245951490000121
 10
-69.46878402200468
 20
8.811183516706023
 42
-0.0245951489999839
 10
-69.45900334477688
 20
8.791549634962846
 42
-0.0245951490000097
 10
-69.45087888769717
 20
8.770852295599752
 42
-0.0245951489999972
 10
-69.4444902461196
 20
8.749291633178017
 42
-0.0245951490000035
 10
-69.43989918604052
 20
8.72707599649857
 42
-0.0245951490000047
 10
-69.4371490073331
 20
8.704420229343893
 42
-0.024595148999995
 10
-69.43626772756238
 20
8.681543250778529
  0
LWPOLYLINE
  5
BBB3
330
BB8B
100
AcDbEntity
  8
hyomoji
  6
Continuous
370
     9
100
AcDbPolyline
 90
       21
 70
   128
 43
0.0
 10
-73.39658810587049
 20
6.19659804358389
 10
-69.24457124346441
 20
6.19659804358389
 42
-0.0277241649809473
 10
-69.22307761832303
 20
6.195540125801243
 42
-0.0245951490000116
 10
-69.20419696334374
 20
6.192240420762344
 42
-0.0245951489999535
 10
-69.18568372052323
 20
6.186730893962476
 42
-0.0245951490000357
 10
-69.16771618345683
 20
6.179064715098547
 42
-0.0245951489999617
 10
-69.15046755163712
 20
6.169316003365793
 42
-0.024595149000028
 10
-69.13410593045433
 20
6.157579063339651
 42
-0.0245951489999838
 10
-69.118787963567
 20
6.143967366158904
 42
-0.0245951490000106
 10
-69.10466329024257
 20
6.128612403350188
 42
-0.0245951489999761
 10
-69.09186690420233
 20
6.111662668008192
 42
-0.0245951490000292
 10
-69.08052361096451
 20
6.093281999210829
 42
-0.0245951489999958
 10
-69.07074229697378
 20
6.073648053791202
 42
-0.0245951489999834
 10
-69.06261847665632
 20
6.052950778104785
 42
-0.0245951490000133
 10
-69.05622983507917
 20
6.031390052006599
 42
-0.0245951489999937
 10
-69.05163813823719
 20
6.009174415327378
 42
-0.0245951490001447
 10
-69.04888859629295
 20
5.986518648172249
 42
-0.0188381928052038
 10
-69.0480117738616
 20
5.9690010553943
 10
-69.0480117738616
 20
5.342424884589718
 10
-73.39658810587049
 20
5.342424884589718
 10
-73.39658810587049
 20
6.196636949793854
  0
LWPOLYLINE
  5
BBB4
330
BB8B
100
AcDbEntity
  8
hyomoji
  6
Continuous
370
     9
100
AcDbPolyline
 90
       46
 70
   128
 43
0.0
 10
-79.91946565752278
 20
8.526239086362011
 42
0.0246113600000082
 10
-79.9187754066038
 20
8.503347016517409
 42
0.0246113599999873
 10
-79.91658812624702
 20
8.480676540141303
 42
0.0246113599999939
 10
-79.91292546638921
 20
8.458447149384255
 42
0.0246113600000089
 10
-79.90782308574989
 20
8.436873942734791
 42
0.0246113600000195
 10
-79.90133001506638
 20
8.41616577840341
 42
0.0246113599999893
 10
-79.89350865709798
 20
8.396523109333202
 42
0.0246113599999934
 10
-79.88443542338609
 20
8.378136009231411
 42
0.0246113599999928
 10
-79.87419818720195
 20
8.361182580664262
 42
0.0246113599999958
 10
-79.86289564678576
 20
8.345826790064165
 42
0.0246113600000034
 10
-79.85063732534605
 20
8.332217385229796
 42
0.0246113599999883
 10
-79.83754229753412
 20
8.320486112393155
 42
0.0246113600000125
 10
-79.82373600562937
 20
8.310746442692106
 42
0.0246113599999954
 10
-79.80935408011737
 20
8.303092680703684
 42
0.024611359999985
 10
-79.7945340617707
 20
8.297598945622437
 42
0.024611360000015
 10
-79.77941985899201
 20
8.294318343469056
 42
0.0246113600000176
 10
-79.76415856399717
 20
8.293282712385233
 10
-79.22064009017026
 20
8.293282712385233
 42
-0.4142135623730951
 10
-79.06526995712352
 20
8.137912579338717
 10
-79.06526995712352
 20
7.748711594328598
 42
-0.0244511737842624
 10
-79.07462846058844
 20
7.506115916052523
 42
-0.0245486219999786
 10
-79.10258234927983
 20
7.264898435690156
 42
-0.0245486220000839
 10
-79.14887373424813
 20
7.028349636796065
 42
-0.0245486219998618
 10
-79.21305560797851
 20
6.798747602111006
 42
-0.0245486220001097
 10
-79.29451031051712
 20
6.578303617945721
 42
-0.024548621999966
 10
-79.39245335004329
 20
6.369140587938089
 42
-0.0245486220000008
 10
-79.50594231755395
 20
6.173272847655424
 42
-0.0245486220000017
 10
-79.63388325448909
 20
5.992586807012457
 42
-0.0245486219999997
 10
-79.77504402475346
 20
5.82882254782271
 42
-0.0245486220000006
 10
-79.92806577644433
 20
5.683557204289853
 42
-0.0245486219999995
 10
-80.09147440358743
 20
5.558189680697523
 42
-0.0245486219999993
 10
-80.26369646520402
 20
5.453927406743559
 42
-0.0245486219999995
 10
-80.44307255733222
 20
5.371774493750763
 42
-0.0245486220000024
 10
-80.62787641591103
 20
5.312522119548702
 42
-0.0245486220000146
 10
-80.81632765203996
 20
5.276740887318737
 42
-0.0245738278590478
 10
-81.00680723741584
 20
5.264772738705231
 10
-83.25856148230673
 20
5.264772738705231
 10
-83.25856148230673
 20
5.885989651075306
 10
-81.472395231425
 20
5.885989651075306
 42
0.4142135623730951
 10
-80.23007092989315
 20
7.128313952606957
 10
-80.23007092989315
 20
7.904857379768826
 42
0.4142135623730951
 10
-80.61849626250978
 20
8.293282712385233
 10
-83.4915179836364
 20
8.293282712385233
 10
-83.4915179836364
 20
8.914499624755535
 10
-79.91946247370856
 20
8.914499624755535
 10
-79.91946247370856
 20
8.526239086362011
  0
LWPOLYLINE
  5
BBB5
330
BB8B
100
AcDbEntity
  8
hyomoji
  6
Continuous
370
     9
100
AcDbPolyline
 90
       23
 70
   129
 43
0.0
 10
-91.60627971271242
 20
5.575381194890269
 10
-91.60627971271242
 20
6.349339719704174
 42
0.4352566975870341
 10
-91.64788966816946
 20
6.388083541980448
 10
-92.14958015254067
 20
6.352248425560445
 10
-91.28410272412841
 20
7.650464568178676
 42
0.5990215383385383
 10
-91.31642166536151
 20
7.710853062262457
 10
-92.0721927153713
 20
7.710853062262457
 10
-92.0721927153713
 20
7.982635413666912
 10
-91.64531711265729
 20
7.982635413666912
 42
0.4141276645926779
 10
-91.60627971271242
 20
8.02123864527357
 10
-91.60627971271242
 20
8.526239086362011
 10
-91.06269565231263
 20
8.526239086362011
 10
-91.06269565231263
 20
8.021684264268515
 42
0.4142994653711661
 10
-91.02408109740213
 20
7.982635413666912
 10
-90.86551748421447
 20
7.982635413666912
 42
-0.5990232472207202
 10
-90.7039233199814
 20
7.680692130354144
 10
-90.88163173258704
 20
7.414132416776737
 42
0.2779035425008352
 10
-90.8860830464487
 20
7.374314542745196
 10
-90.40242475165451
 20
6.50706549938468
 10
-90.9130461012187
 20
6.545888321219762
 10
-90.98992940035371
 20
6.683748944059061
 42
0.7732509487775637
 10
-91.06269565231263
 20
6.664830072530093
 10
-91.06269565231263
 20
5.575381194890269
  0
LWPOLYLINE
  5
BBB6
330
BB8B
100
AcDbEntity
  8
hyomoji
  6
Continuous
370
     9
100
AcDbPolyline
 90
       22
 70
   129
 43
0.0
 10
-90.67443524127179
 20
5.575381194890269
 10
-90.67443524127179
 20
5.885989651075306
 10
-90.05323488473594
 20
5.885989651075306
 42
0.4142135623730951
 10
-90.01439235147428
 20
5.924832184336763
 10
-90.01439235147428
 20
7.400021796579721
 42
0.4142994653711524
 10
-90.05300690638476
 20
7.43907064718155
 10
-90.48030471737048
 20
7.43907064718155
 10
-90.48030471737048
 20
7.710853062262457
 10
-90.05342975141664
 20
7.710853062262457
 42
0.4141276645726239
 10
-90.01439235147428
 20
7.749456293868661
 10
-90.01439235147428
 20
8.526239086362011
 10
-89.47080765431133
 20
8.526239086362011
 10
-89.47080765431133
 20
7.749901912863606
 42
0.4142994653912224
 10
-89.43219309939831
 20
7.710853062262457
 10
-89.00489528841536
 20
7.710853062262457
 10
-89.00489528841536
 20
7.43907064718155
 10
-89.4317702543667
 20
7.43907064718155
 42
0.4141276645926918
 10
-89.47080765431133
 20
7.400467415574667
 10
-89.47080765431133
 20
5.924832184336763
 42
0.4142135623730951
 10
-89.43196512104988
 20
5.885989651075306
 10
-88.81076476451381
 20
5.885989651075306
 10
-88.81076476451381
 20
5.575381194890269
  0
LWPOLYLINE
  5
BBB7
330
BB8B
100
AcDbEntity
  8
hyomoji
  6
Continuous
370
     9
100
AcDbPolyline
 90
       24
 70
   129
 43
0.0
 10
-85.58827868192066
 20
5.264772738705231
 10
-88.07305081697494
 20
5.264772738705231
 10
-88.07305081697494
 20
5.885989651075306
 10
-86.17042573669506
 20
5.885989651075306
 42
0.4142135623730951
 10
-84.92810143516363
 20
7.128313952606957
 10
-84.92810143516363
 20
8.060326402084683
 10
-83.88050297316819
 20
8.060326402084683
 42
-0.0257155487687808
 10
-83.86455466869007
 20
8.059188443213086
 42
-0.024549926000034
 10
-83.84947803491854
 20
8.055833594512023
 42
-0.0245499260000084
 10
-83.83469303852869
 20
8.050278093435052
 42
-0.0245499259999808
 10
-83.82034231439524
 20
8.042575491736441
 42
-0.0245499260000123
 10
-83.80656404005618
 20
8.03279990861165
 42
-0.0245499259999841
 10
-83.79349066218059
 20
8.021045521283667
 42
-0.0245499259999858
 10
-83.78124889657465
 20
8.007425546186366
 42
-0.0245499260000007
 10
-83.76995527083861
 20
7.992071156464134
 42
-0.024549925999996
 10
-83.75971994494262
 20
7.975130272125624
 42
-0.02454992599999
 10
-83.75064098036455
 20
7.956766031809592
 42
-0.0245499260000124
 10
-83.74280625037682
 20
7.937155328233758
 42
-0.0245499259999989
 10
-83.73629025623131
 20
7.916487025256401
 42
-0.0245499259999953
 10
-83.73115603744984
 20
7.894960174941386
 42
-0.0245499260000016
 10
-83.72745389829606
 20
7.872782170945811
 42
-0.0245499260000116
 10
-83.72521886072625
 20
7.850166583526287
 42
-0.024673292203941
 10
-83.72447384820317
 20
7.82721638994576
 10
-83.72447384820317
 20
7.128577572422955
 42
-0.4142135623730951
  0
LWPOLYLINE
  5
BBB8
330
BB8B
100
AcDbEntity
  8
hyomoji
  6
Continuous
370
     9
100
AcDbPolyline
 90
       21
 70
   128
 43
0.0
 10
-85.4328397784875
 20
8.914502872245973
 42
-0.0246113600000175
 10
-85.40994815437693
 20
8.913812430298319
 42
-0.0246113599999931
 10
-85.38727748697167
 20
8.911625340970431
 42
-0.0246113599999957
 10
-85.36504809621442
 20
8.907962808465297
 42
-0.0246113600000006
 10
-85.34347457118384
 20
8.902860173120187
 42
-0.0246113599999799
 10
-85.32276640685267
 20
8.896366911408222
 42
-0.0246113600000132
 10
-85.30312418351604
 20
8.888545871821632
 42
-0.0246113600000103
 10
-85.28473701973778
 20
8.879472765461967
 42
-0.0246113599999903
 10
-85.26778320911352
 20
8.869235338248927
 42
-0.02461135999999
 10
-85.25242767321833
 20
8.857932797832518
 42
-0.0246113599999982
 10
-85.23881814103152
 20
8.84567454006901
 42
-0.0246113600000129
 10
-85.22708705922379
 20
8.832579130199292
 42
-0.024611360000001
 10
-85.21734713481761
 20
8.818773411381471
 42
-0.0246113599999927
 10
-85.20969388223944
 20
8.804390912782762
 42
-0.0246113599999869
 10
-85.2041998924526
 20
8.789571021788786
 42
-0.024611360000012
 10
-85.20091929029922
 20
8.774457073715211
 42
-0.0246113600013111
 10
-85.1998839139212
 20
8.759195396662107
 10
-85.1998839139212
 20
8.254417828748271
 10
-88.07305081697494
 20
8.254417828748271
 10
-88.07305081697494
 20
8.914499624755535
 10
-85.4328397784875
 20
8.914499624755535
  0
LWPOLYLINE
  5
BBB9
330
BB8B
100
AcDbEntity
  8
hyomoji
  6
Continuous
370
     9
100
AcDbPolyline
 90
        4
 70
   129
 43
0.0
 10
-88.07305081697494
 20
7.128462254672513
 10
-88.07305081697494
 20
7.788505144470262
 10
-85.1998839139212
 20
7.788505144470262
 10
-85.1998839139212
 20
7.128462254672513
  0
LWPOLYLINE
  5
BBBA
330
BB8B
100
AcDbEntity
  8
hyomoji
  6
Continuous
370
     9
100
AcDbPolyline
 90
       44
 70
   128
 43
0.0
 10
-74.37174773276344
 20
5.963681151450371
 42
0.2129151059966407
 10
-74.40063715169867
 20
5.950794998102537
 42
-0.220358021742929
 10
-75.88149459788451
 20
5.264772738705231
 10
-78.28874849827935
 20
5.264772738705231
 10
-78.28874849827935
 20
5.885989651075306
 10
-76.50273061313964
 20
5.885989651075306
 42
0.0137554371945167
 10
-76.43015365812153
 20
5.888354842969647
 42
0.0137524419998822
 10
-76.35779511275881
 20
5.895394574551118
 42
0.0137524420004598
 10
-76.28587593375231
 20
5.907103879070064
 42
0.013752441999331
 10
-76.21461262047751
 20
5.923447225158724
 42
0.0137524420003075
 10
-76.1442203987633
 20
5.944375263699384
 42
0.0137524420000012
 10
-76.07491258416756
 20
5.969824636787052
 42
0.0137524419999966
 10
-76.00689930842668
 20
5.999718359795223
 42
0.0137524419999995
 10
-75.94038560917443
 20
6.033966076077375
 42
0.0137524420000046
 10
-75.87557334023177
 20
6.072464056966282
 42
0.0137524419999986
 10
-75.81265798779054
 20
6.115095965890533
 42
0.0137524419999979
 10
-75.75182994394026
 20
6.161732858375899
 42
0.0137524419999975
 10
-75.6932732331411
 20
6.212233564100188
 42
0.013752441999999
 10
-75.63716551222615
 20
6.266445323658217
 42
0.0137524419999975
 10
-75.58367552334765
 20
6.324204234294483
 42
0.0137524420000003
 10
-75.53296564103016
 20
6.385335568285653
 42
0.0138047286378086
 10
-75.48501449973173
 20
6.449903806133307
 42
0.4326750878113179
 10
-75.50812793003571
 20
6.560768619332975
 10
-76.01857653173261
 20
6.872710173877521
 42
0.1380038353994479
 10
-76.09959442946615
 20
6.895505880695736
 10
-77.04629557065437
 20
6.895505880695736
 10
-77.04629557065437
 20
7.462633158448624
 42
0.483124814362098
 10
-77.0937344731376
 20
7.500715229543402
 10
-77.39202878477204
 20
7.401283899550207
 42
-0.080611490271625
 10
-77.63769029675723
 20
7.361418564973063
 10
-78.44405304475367
 20
7.361418564973063
 10
-78.44405304475367
 20
7.982635413666912
 10
-78.07282259261909
 20
7.982635413666912
 42
0.2403459008079929
 10
-77.94703331635243
 20
8.046808308710977
 10
-77.36448237994363
 20
8.850326729711241
 42
-0.2403459008079905
 10
-77.23869310367695
 20
8.914499624755535
 10
-74.33052273826318
 20
8.914499624755535
 42
-0.4142866644357847
 10
-73.94017216627048
 20
8.528231708575956
 10
-73.94017216627048
 20
7.20040165387104
 42
-0.073920925025852
 10
-74.02577777181159
 20
6.635956043364557
 42
0.5098120014094599
 10
-73.9891398827108
 20
6.584897488186924
 10
-73.86252021141467
 20
6.584897488186924
 10
-73.86252021141467
 20
5.963641733283566
 10
-74.37174773276344
 20
5.963641733283566
  0
LWPOLYLINE
  5
BBBB
330
BB8B
100
AcDbEntity
  8
hyomoji
  6
Continuous
370
     9
100
AcDbPolyline
 90
        8
 70
   129
 43
0.0
 10
-79.64764688328364
 20
8.487374139048597
 42
-0.4142135623730951
 10
-79.72533194980655
 20
8.565059205571968
 10
-79.72533194980655
 20
9.069770868532938
 42
-0.4142135623730951
 10
-79.64764688328364
 20
9.147455935055859
 10
-79.14295502364713
 20
9.147455935055859
 42
-0.4142135623730951
 10
-79.06526995712352
 20
9.069770868532938
 10
-79.06526995712352
 20
8.565059205571968
 42
-0.4142135623730951
 10
-79.14295502364713
 20
8.487374139048597
  0
LWPOLYLINE
  5
BBBC
330
BB8B
100
AcDbEntity
  8
hyomoji
  6
Continuous
370
     9
100
AcDbPolyline
 90
        8
 70
   129
 43
0.0
 10
-78.75462838927091
 20
8.487374139048597
 42
-0.4142135623730951
 10
-78.83231345579407
 20
8.565059205571968
 10
-78.83231345579407
 20
9.069770868532938
 42
-0.4142135623730951
 10
-78.75462838927091
 20
9.147455935055859
 10
-78.24993652963439
 20
9.147455935055859
 42
-0.4142135623730951
 10
-78.17225146311102
 20
9.069770868532938
 10
-78.17225146311102
 20
8.565059205571968
 42
-0.4142135623730951
 10
-78.24993652963439
 20
8.487374139048597
  0
LWPOLYLINE
  5
BBBD
330
BB8B
100
AcDbEntity
  8
hyomoji
  6
Continuous
370
     9
100
AcDbPolyline
 90
       26
 70
   129
 43
0.0
 10
-75.25867901228753
 20
7.136315150465861
 10
-75.8438622562801
 20
7.493927168456366
 42
0.1380035768931157
 10
-75.92488001949026
 20
7.516722793065809
 10
-76.91275368502373
 20
7.516722793065809
 42
-0.5877959702502288
 10
-76.9454333722108
 20
7.576180874061492
 10
-76.47548726699483
 20
8.22438360138949
 42
-0.2488102192010769
 10
-76.34727028910559
 20
8.293282712385233
 10
-75.33876402902683
 20
8.293282712385233
 42
-0.4141055155693935
 10
-75.1826257306584
 20
8.138870166012111
 10
-75.1826257306584
 20
7.439070647185871
 42
-0.0027675332005429
 10
-75.18270659953964
 20
7.421878432550101
 42
-0.0027675332004465
 10
-75.18294920618155
 20
7.404688319233173
 42
-0.0027675331990674
 10
-75.18335355058525
 20
7.387502408559156
 42
-0.0027675332013063
 10
-75.1839196327503
 20
7.370322801823248
 42
-0.0027675331985318
 10
-75.1846474526767
 20
7.353151600374302
 42
-0.0027675332011082
 10
-75.18553637360195
 20
7.335990969172597
 42
-0.0027675332007225
 10
-75.18658703228926
 20
7.318842945877121
 42
-0.0027675331990705
 10
-75.18779879197359
 20
7.301709695490217
 42
-0.0027675331994759
 10
-75.18917228942019
 20
7.284593191963267
 42
-0.0027675332004882
 10
-75.19070625110271
 20
7.267495727639242
 42
-0.0027675331980648
 10
-75.19240067701956
 20
7.250419212827409
 42
-0.0027675332032427
 10
-75.19425620393872
 20
7.233365876150855
 42
-0.0027675331997779
 10
-75.19627219509129
 20
7.216337691627812
 42
-0.0027675331988507
 10
-75.19844801371573
 20
7.199336824236977
 42
-0.0027675331998305
 10
-75.20078365981408
 20
7.182365311606417
 42
-0.0029245593357009
 10
-75.20342566968747
 20
7.164465011015637
 42
-0.498504514683721
  0
LINE
  5
BBBE
330
BB8B
100
AcDbEntity
  8
hyosen2
  6
Continuous
370
    40
100
AcDbLine
 10
-99.00000000000023
 20
25.0
 30
0.0
 11
-99.00000000000023
 21
14.0
 31
0.0
  0
LINE
  5
BBBF
330
BB8B
100
AcDbEntity
  8
AM_2
100
AcDbLine
 10
-115.0000000000004
 20
20.5
 30
0.0
 11
-68.0
 21
20.49999999999977
 31
0.0
  0
TEXT
  5
BBC0
330
BB8B
100
AcDbEntity
  8
hyomoji
  6
Continuous
100
AcDbText
 10
-108.80846541418
 20
21.23246297775404
 30
0.0
 40
3.0
  1
尺度
 41
0.7
 72
     4
 11
-106.5684654141801
 21
22.73246297775404
 31
0.0
100
AcDbText
  0
TEXT
  5
BBC1
330
BB8B
100
AcDbEntity
  8
hyomoji
  6
Continuous
100
AcDbText
 10
-79.51999999999999
 20
21.25
 30
0.0
 40
3.0
  1
投影法
 41
0.7
 72
     4
 11
-76.0
 21
22.75
 31
0.0
100
AcDbText
  0
LINE
  5
BBC2
330
BB8B
100
AcDbEntity
  8
hyosen2
  6
Continuous
370
    40
100
AcDbLine
 10
-84.0
 20
25.0
 30
0.0
 11
-84.0
 21
14.0
 31
0.0
  0
TEXT
  5
BBC3
330
BB8B
100
AcDbEntity
  8
hyomoji
  6
Continuous
100
AcDbText
 10
-95.14000000000022
 20
21.15
 30
0.0
 40
3.0
  1
サイズ
 41
0.7
 72
     4
 11
-91.50000000000023
 21
22.75
 31
0.0
100
AcDbText
  0
CIRCLE
  5
BBC4
330
BB8B
100
AcDbEntity
  8
AM_0
370
    25
100
AcDbCircle
 10
-79.26619211742924
 20
17.25
 30
0.0
 40
1.25
  0
CIRCLE
  5
BBC5
330
BB8B
100
AcDbEntity
  8
AM_0
370
    25
100
AcDbCircle
 10
-79.26619211742924
 20
17.25
 30
0.0
 40
1.9
  0
LINE
  5
BBC6
330
BB8B
100
AcDbEntity
  8
AM_0
370
    25
100
AcDbLine
 10
-75.56619211742919
 20
18.5
 30
0.0
 11
-75.56619211742919
 21
16.0
 31
0.0
  0
LINE
  5
BBC7
330
BB8B
100
AcDbEntity
  8
AM_0
370
    25
100
AcDbLine
 10
-75.56619211742919
 20
16.0
 30
0.0
 11
-71.5661921174292
 21
15.34999999999991
 31
0.0
  0
LINE
  5
BBC8
330
BB8B
100
AcDbEntity
  8
AM_0
370
    25
100
AcDbLine
 10
-71.5661921174292
 20
15.34999999999991
 30
0.0
 11
-71.5661921174292
 21
19.14999999999986
 31
0.0
  0
LINE
  5
BBC9
330
BB8B
100
AcDbEntity
  8
AM_0
370
    25
100
AcDbLine
 10
-71.5661921174292
 20
19.14999999999986
 30
0.0
 11
-75.56619211742919
 21
18.5
 31
0.0
  0
LINE
  5
BBCA
330
BB8B
100
AcDbEntity
  8
AM_2
370
     9
100
AcDbLine
 10
-73.76970082765684
 20
17.25
 30
0.0
 11
-73.03098608735286
 21
17.25
 31
0.0
  0
LINE
  5
BBCB
330
BB8B
100
AcDbEntity
  8
AM_2
370
     9
100
AcDbLine
 10
-70.28729095201743
 20
17.25
 30
0.0
 11
-72.34381719255157
 21
17.25
 31
0.0
  0
LINE
  5
BBCC
330
BB8B
100
AcDbEntity
  8
AM_2
370
     9
100
AcDbLine
 10
-79.63554948758108
 20
17.25
 30
0.0
 11
-78.89683474727712
 21
17.25
 31
0.0
  0
LINE
  5
BBCD
330
BB8B
100
AcDbEntity
  8
AM_2
370
     9
100
AcDbLine
 10
-74.45686972245835
 20
17.25
 30
0.0
 11
-78.20966585247584
 21
17.25
 31
0.0
  0
LINE
  5
BBCE
330
BB8B
100
AcDbEntity
  8
AM_2
370
     9
100
AcDbLine
 10
-79.26619211742924
 20
16.8806426298479
 30
0.0
 11
-79.26619211742924
 21
17.6193573701521
 31
0.0
  0
LINE
  5
BBCF
330
BB8B
100
AcDbEntity
  8
AM_2
370
     9
100
AcDbLine
 10
-79.26619211742924
 20
20.10439489183659
 30
0.0
 11
-79.26619211742924
 21
18.30652626495339
 31
0.0
  0
LINE
  5
BBD0
330
BB8B
100
AcDbEntity
  8
AM_2
370
     9
100
AcDbLine
 10
-79.26619211743012
 20
14.39560510816341
 30
0.0
 11
-79.26619211742945
 21
16.19347373504638
 31
0.0
  0
LINE
  5
BBD1
330
BB8B
100
AcDbEntity
  8
AM_2
370
     9
100
AcDbLine
 10
-82.12058700926581
 20
17.25000000000045
 30
0.0
 11
-80.32271838238262
 21
17.25
 31
0.0
  0
LINE
  5
BBD2
330
BB8B
100
AcDbEntity
  8
AM_2
100
AcDbLine
 10
-162.0000000000009
 20
19.49999999999977
 30
0.0
 11
-115.0000000000011
 21
19.49999999999977
 31
0.0
  0
TEXT
  5
BBD3
330
BB8B
100
AcDbEntity
  8
hyomoji
  6
Continuous
100
AcDbText
 10
-158.8197690813725
 20
20.74999999999955
 30
0.0
 40
3.0
  1
作成日
 41
0.7
 72
     4
 11
-155.4597690813725
 21
22.24999999999955
 31
0.0
100
AcDbText
  0
LINE
  5
BBD4
330
BB8B
100
AcDbEntity
  8
hyosen2
  6
Continuous
100
AcDbLine
 10
-150.0000000000002
 20
24.99999999999977
 30
0.0
 11
-150.0000000000002
 21
14.0
 31
0.0
  0
TEXT
  5
BBD5
330
BB8B
100
AcDbEntity
  8
hyomoji
  6
Continuous
100
AcDbText
 10
-158.8197690813725
 20
15.25
 30
0.0
 40
3.0
  1
更新日
 41
0.7
 72
     4
 11
-155.4597690813725
 21
16.75
 31
0.0
100
AcDbText
  0
LWPOLYLINE
  5
BBD6
330
BB8B
100
AcDbEntity
  8
hyosen2
100
AcDbPolyline
 90
        3
 70
     1
 43
0.0
 10
-144.104867507461
 20
19.44306130048881
 10
-146.8328475293819
 20
14.7180613004889
 10
-141.3768874855399
 20
14.7180613004889
  0
ATTDEF
  5
BBD7
330
BB8B
100
AcDbEntity
  8
hyomoji
100
AcDbText
 10
-39.49999999999988
 20
1.5
 30
0.0
 40
4.0
  1

 41
0.7
 72
     1
 11
-39.49999999999988
 21
3.5
 31
0.0
100
AcDbAttributeDefinition
  3
図番
  2
XXX000000-00-00
 70
     0
 74
     2
1001
AcDbAttr
1070
     0
1070
     1
  0
ATTDEF
  5
BBD8
330
BB8B
100
AcDbEntity
  8
hyomoji
100
AcDbText
 10
-31.49999999999977
 20
19.50000000000057
 30
0.0
 40
4.0
  1

 41
0.7
 72
     1
 11
-31.49999999999977
 21
21.50000000000057
 31
0.0
100
AcDbAttributeDefinition
  3
品名
  2
品名
 70
     0
 74
     2
1001
AcDbAttr
1070
     0
1070
     1
  0
ATTDEF
  5
BBD9
330
BB8B
100
AcDbEntity
  8
hyomoji
100
AcDbText
 10
-121.0000000000003
 20
3.0
 30
0.0
 40
3.5
  1

 41
0.7
 72
     1
 11
-121.0000000000003
 21
4.75
 31
0.0
100
AcDbAttributeDefinition
  3
作成
  2
作成
 70
     0
 74
     2
1001
AcDbAttr
1070
     0
1070
     1
  0
ATTDEF
  5
BBDA
330
BB8B
100
AcDbEntity
  8
hyomoji
100
AcDbText
 10
-133.0000000000001
 20
3.0
 30
0.0
 40
3.5
  1

 41
0.7
 72
     1
 11
-133.0000000000001
 21
4.75
 31
0.0
100
AcDbAttributeDefinition
  3
確認1
  2
確認1
 70
     0
 74
     2
1001
AcDbAttr
1070
     0
1070
     1
  0
ATTDEF
  5
BBDB
330
BB8B
100
AcDbEntity
  8
hyomoji
100
AcDbText
 10
-144.0000000000007
 20
3.0
 30
0.0
 40
3.5
  1

 41
0.7
 72
     1
 11
-144.0000000000007
 21
4.75
 31
0.0
100
AcDbAttributeDefinition
  3
確認2
  2
確認2
 70
     0
 74
     2
1001
AcDbAttr
1070
     0
1070
     1
  0
ATTDEF
  5
BBDC
330
BB8B
100
AcDbEntity
  8
hyomoji
100
AcDbText
 10
-156.0000000000004
 20
3.0
 30
0.0
 40
3.5
  1

 41
0.7
 72
     1
 11
-156.0000000000004
 21
4.75
 31
0.0
100
AcDbAttributeDefinition
  3
承認
  2
承認
 70
     0
 74
     2
1001
AcDbAttr
1070
     0
1070
     1
  0
ATTDEF
  5
BBDD
330
BB8B
100
AcDbEntity
  8
hyomoji
100
AcDbText
 10
-107.0000000000003
 20
15.25
 30
0.0
 40
4.0
  1

 41
0.7
 72
     1
 11
-107.0000000000003
 21
17.25
 31
0.0
100
AcDbAttributeDefinition
  3
尺度
  2
1:1
 70
     0
 74
     2
1001
AcDbAttr
1070
     0
1070
     1
  0
ATTDEF
  5
BBDE
330
BB8B
100
AcDbEntity
  8
hyomoji
100
AcDbText
 10
-127.0214335782293
 20
20.75000000000001
 30
0.0
 40
3.0
  1

 41
0.7
 72
     1
 11
-127.0214335782293
 21
22.25000000000001
 31
0.0
100
AcDbAttributeDefinition
  3
作成日
  2
2011.01.01
 70
     0
 74
     2
1001
AcDbAttr
1070
     0
1070
     1
  0
ATTDEF
  5
BBDF
330
BB8B
100
AcDbEntity
  8
hyomoji
100
AcDbText
 10
-144.2211531119989
 20
15.20883785860056
 30
0.0
 40
2.0
  1

 41
0.7
 72
     1
 11
-144.2211531119989
 21
16.20883785860056
 31
0.0
100
AcDbAttributeDefinition
  3
△
  2
1
 70
     0
 74
     2
1001
AcDbAttr
1070
     0
1070
     1
  0
ATTDEF
  5
BBE0
330
BB8B
100
AcDbEntity
  8
hyomoji
100
AcDbText
 10
-127.0214335782293
 20
15.24999999999988
 30
0.0
 40
3.0
  1

 41
0.7
 72
     1
 11
-127.0214335782293
 21
16.74999999999988
 31
0.0
100
AcDbAttributeDefinition
  3
更新日
  2
2011.01.10
 70
     0
 74
     2
1001
AcDbAttr
1070
     0
1070
     1
  0
ATTDEF
  5
BBE1
330
BB8B
100
AcDbEntity
  8
hyomoji
100
AcDbText
 10
-5.5
 20
1.5
 30
0.0
 40
4.0
  1

 41
0.7
 72
     1
 11
-5.5
 21
3.5
 31
0.0
100
AcDbAttributeDefinition
  3
図面枚数
  2
10
 70
     0
 74
     2
1001
AcDbAttr
1070
     0
1070
     1
  0
ATTDEF
  5
BBE2
330
BB8B
100
AcDbEntity
  8
hyomoji
100
AcDbText
 10
-31.49999999999989
 20
8.5
 30
0.0
 40
4.0
  1

 41
0.7
 72
     1
 11
-31.49999999999989
 21
10.5
 31
0.0
100
AcDbAttributeDefinition
  3
品番
  2
品番
 70
     0
 74
     2
1001
AcDbAttr
1070
     0
1070
     1
  0
ATTDEF
  5
BBE3
330
BB8B
100
AcDbEntity
  8
hyomoji
100
AcDbText
 10
-31.49999999999989
 20
14.5
 30
0.0
 40
3.0
  1

 41
0.7
 72
     1
 11
-31.49999999999989
 21
16.0
 31
0.0
100
AcDbAttributeDefinition
  3
現場名／部品名
  2
現場名／部品名
 70
     0
 74
     2
1001
AcDbAttr
1070
     0
1070
     1
  0
ENDBLK
  5
BBE7
330
BB8B
100
AcDbEntity
  8
0
100
AcDbBlockEnd
  0
BLOCK
  5
BCDE
330
BCDD
100
AcDbEntity
  8
0
100
AcDbBlockBegin
  2
_NONE
 70
     0
 10
0.0
 20
0.0
 30
0.0
  3
_NONE
  1

  0
CIRCLE
  5
BCDF
330
BCDD
100
AcDbEntity
  8
0
  6
ByBlock
 62
     0
100
AcDbCircle
 10
0.0
 20
0.0
 30
0.0
 40
0.001
  0
ENDBLK
  5
BCE0
330
BCDD
100
AcDbEntity
  8
0
100
AcDbBlockEnd
  0
BLOCK
  5
BDBA
330
BDB9
100
AcDbEntity
  8
0
100
AcDbBlockBegin
  2
KOZU0001
 70
     0
 10
0.0
 20
0.0
 30
0.0
  3
KOZU0001
  1

  0
LINE
  5
BDBB
330
BDB9
100
AcDbEntity
  8
0
  6
Continuous
 62
     7
100
AcDbLine
 10
0.0
 20
0.0
 30
0.0
 11
4.0133209
 21
14.086731
 31
0.0
  0
LINE
  5
BDBC
330
BDB9
100
AcDbEntity
  8
0
  6
Continuous
 62
     7
100
AcDbLine
 10
4.0133209
 20
14.086731
 30
0.0
 11
43.727425
 21
14.086731
 31
0.0
  0
LINE
  5
BDBD
330
BDB9
100
AcDbEntity
  8
0
  6
Continuous
 62
     7
100
AcDbLine
 10
0.0
 20
0.0
 30
0.0
 11
0.31657248
 21
3.162279199999998
 31
0.0
  0
LINE
  5
BDBE
330
BDB9
100
AcDbEntity
  8
0
  6
Continuous
 62
     7
100
AcDbLine
 10
0.0
 20
0.0
 30
0.0
 11
1.397557399999999
 21
2.8543057
 31
0.0
  0
TEXT
  5
BDBF
330
BDB9
100
AcDbEntity
  8
0
  6
Continuous
 62
     7
100
AcDbText
 10
5.3274217
 20
14.886731
 30
0.0
 40
3.2
  1
%%C４．５Ｘ６．５スロット
 41
0.8437725099999997
100
AcDbText
  0
ENDBLK
  5
BDC0
330
BDB9
100
AcDbEntity
  8
0
100
AcDbBlockEnd
  0
BLOCK
  5
BDC2
330
BDC1
100
AcDbEntity
  8
0
100
AcDbBlockBegin
  2
KOZU0002
 70
     0
 10
0.0
 20
0.0
 30
0.0
  3
KOZU0002
  1

  0
LINE
  5
BDC3
330
BDC1
100
AcDbEntity
  8
0
  6
Continuous
 62
     7
100
AcDbLine
 10
0.0
 20
0.0
 30
0.0
 11
-6.298398999999998
 21
15.088081
 31
0.0
  0
LINE
  5
BDC4
330
BDC1
100
AcDbEntity
  8
0
  6
Continuous
 62
     7
100
AcDbLine
 10
-6.298398999999998
 20
15.088081
 30
0.0
 11
-39.480906
 21
15.088081
 31
0.0
  0
LINE
  5
BDC5
330
BDC1
100
AcDbEntity
  8
0
  6
Continuous
 62
     7
100
AcDbLine
 10
0.0
 20
0.0
 30
0.0
 11
-1.723609999999999
 21
2.6700929
 31
0.0
  0
LINE
  5
BDC6
330
BDC1
100
AcDbEntity
  8
0
  6
Continuous
 62
     7
100
AcDbLine
 10
0.0
 20
0.0
 30
0.0
 11
-0.68635731
 21
3.103085799999998
 31
0.0
  0
TEXT
  5
BDC7
330
BDC1
100
AcDbEntity
  8
0
  6
Continuous
 62
     7
100
AcDbText
 10
-38.566906
 20
15.888081
 30
0.0
 40
3.2
  1
%%C４．５Ｘ７スロット
 41
0.8444834799999998
100
AcDbText
  0
ENDBLK
  5
BDC8
330
BDC1
100
AcDbEntity
  8
0
100
AcDbBlockEnd
  0
BLOCK
  5
CFA1
330
CF9E
100
AcDbEntity
  8
0
100
AcDbBlockBegin
  2
GENDOT
 70
     0
 10
0.0
 20
0.0
 30
0.0
  3
GENDOT
  1

  0
LINE
  5
CF9F
330
CF9E
100
AcDbEntity
  8
0
100
AcDbLine
 10
0.0
 20
0.0
 30
0.0
 11
-1.0
 21
0.0
 31
0.0
  0
LWPOLYLINE
  5
CFA0
330
CF9E
100
AcDbEntity
  8
0
100
AcDbPolyline
 90
        2
 70
     1
 43
0.25
 10
-0.125
 20
0.0
 42
1.0
 10
0.125
 20
0.0
 42
1.0
  0
ENDBLK
  5
CFA2
330
CF9E
100
AcDbEntity
  8
0
100
AcDbBlockEnd
  0
BLOCK
  5
D77B
330
D77A
100
AcDbEntity
  8
0
100
AcDbBlockBegin
  2
*D10
 70
     1
 10
0.0
 20
0.0
 30
0.0
  3
*D10
  1

  0
LINE
  5
DD79
330
D77A
100
AcDbEntity
  8
AM_5
100
AcDbLine
 10
248.4136447422543
 20
208.1504143228849
 30
0.0
 11
248.4136447422543
 21
228.6039984756012
 31
0.0
  0
LINE
  5
DD7A
330
D77A
100
AcDbEntity
  8
AM_5
100
AcDbLine
 10
284.4136447422543
 20
208.1504143228849
 30
0.0
 11
284.4136447422543
 21
228.6039984756012
 31
0.0
  0
LINE
  5
DD7B
330
D77A
100
AcDbEntity
  8
AM_5
100
AcDbLine
 10
249.4136447422543
 20
227.6039984756011
 30
0.0
 11
283.4136447422543
 21
227.6039984756011
 31
0.0
  0
INSERT
  5
DD7C
330
D77A
100
AcDbEntity
  8
AM_5
100
AcDbBlockReference
  2
_Dot
 10
248.4136447422543
 20
227.6039984756011
 30
0.0
 50
180.0
  0
INSERT
  5
DD7D
330
D77A
100
AcDbEntity
  8
AM_5
100
AcDbBlockReference
  2
_Dot
 10
284.4136447422543
 20
227.6039984756011
 30
0.0
  0
MTEXT
  5
DD7E
330
D77A
100
AcDbEntity
  8
AM_5
 62
     2
100
AcDbMText
 10
266.4136447422543
 20
230.7039984756011
 30
0.0
 40
3.200000000000001
 41
0.0
 71
     5
 72
     1
  1
%%c36
 73
     1
 44
1.0
1001
ACAD
1000
MTEXTBEGIN
1070
    73
1070
     1
1070
    44
1040
1.0
1070
    74
1070
     0
1000
MTEXTEND
  0
POINT
  5
DD7F
330
D77A
100
AcDbEntity
  8
Defpoints
 62
     0
100
AcDbPoint
 10
248.4136447422543
 20
207.1504143228849
 30
0.0
  0
POINT
  5
DD80
330
D77A
100
AcDbEntity
  8
Defpoints
 62
     0
100
AcDbPoint
 10
284.4136447422543
 20
207.1504143228849
 30
0.0
  0
POINT
  5
DD81
330
D77A
100
AcDbEntity
  8
Defpoints
 62
     0
100
AcDbPoint
 10
284.4136447422543
 20
227.6039984756011
 30
0.0
  0
ENDBLK
  5
D77C
330
D77A
100
AcDbEntity
  8
0
100
AcDbBlockEnd
  0
BLOCK
  5
D7AC
330
D7AB
100
AcDbEntity
  8
0
100
AcDbBlockBegin
  2
*D11
 70
     1
 10
0.0
 20
0.0
 30
0.0
  3
*D11
  1

  0
LINE
  5
DD82
330
D7AB
100
AcDbEntity
  8
AM_5
100
AcDbLine
 10
245.4136452422543
 20
213.1504144756012
 30
0.0
 11
245.4136452422543
 21
238.6039984756012
 31
0.0
  0
LINE
  5
DD83
330
D7AB
100
AcDbEntity
  8
AM_5
100
AcDbLine
 10
287.4136442422543
 20
213.1504144756012
 30
0.0
 11
287.4136442422543
 21
238.6039984756012
 31
0.0
  0
LINE
  5
DD84
330
D7AB
100
AcDbEntity
  8
AM_5
100
AcDbLine
 10
246.4136452422543
 20
237.6039984756011
 30
0.0
 11
286.4136442422543
 21
237.6039984756011
 31
0.0
  0
INSERT
  5
DD85
330
D7AB
100
AcDbEntity
  8
AM_5
100
AcDbBlockReference
  2
_Dot
 10
245.4136452422543
 20
237.6039984756011
 30
0.0
 50
180.0
  0
INSERT
  5
DD86
330
D7AB
100
AcDbEntity
  8
AM_5
100
AcDbBlockReference
  2
_Dot
 10
287.4136442422543
 20
237.6039984756011
 30
0.0
  0
MTEXT
  5
DD87
330
D7AB
100
AcDbEntity
  8
AM_5
 62
     2
100
AcDbMText
 10
266.4136447422543
 20
240.7039984756011
 30
0.0
 40
3.200000000000001
 41
0.0
 71
     5
 72
     1
  1
%%c42
 73
     1
 44
1.0
1001
ACAD
1000
MTEXTBEGIN
1070
    73
1070
     1
1070
    44
1040
1.0
1070
    74
1070
     0
1000
MTEXTEND
  0
POINT
  5
DD88
330
D7AB
100
AcDbEntity
  8
Defpoints
 62
     0
100
AcDbPoint
 10
245.4136452422543
 20
212.1504144756012
 30
0.0
  0
POINT
  5
DD89
330
D7AB
100
AcDbEntity
  8
Defpoints
 62
     0
100
AcDbPoint
 10
287.4136442422543
 20
212.1504144756012
 30
0.0
  0
POINT
  5
DD8A
330
D7AB
100
AcDbEntity
  8
Defpoints
 62
     0
100
AcDbPoint
 10
287.4136442422543
 20
237.6039984756011
 30
0.0
  0
ENDBLK
  5
D7AD
330
D7AB
100
AcDbEntity
  8
0
100
AcDbBlockEnd
  0
BLOCK
  5
D7DD
330
D7DC
100
AcDbEntity
  8
0
100
AcDbBlockBegin
  2
*D12
 70
     1
 10
0.0
 20
0.0
 30
0.0
  3
*D12
  1

  0
LINE
  5
DD8B
330
D7DC
100
AcDbEntity
  8
AM_5
100
AcDbLine
 10
207.9136452422543
 20
217.6504144756012
 30
0.0
 11
185.9136452422541
 21
217.6504144756012
 31
0.0
  0
LINE
  5
DD8C
330
D7DC
100
AcDbEntity
  8
AM_5
100
AcDbLine
 10
207.9136452422543
 20
199.6504144756011
 30
0.0
 11
185.9136452422541
 21
199.6504144756012
 31
0.0
  0
LINE
  5
DD8D
330
D7DC
100
AcDbEntity
  8
AM_5
100
AcDbLine
 10
186.9136452422542
 20
216.6504144756012
 30
0.0
 11
186.9136452422542
 21
200.6504144756012
 31
0.0
  0
INSERT
  5
DD8E
330
D7DC
100
AcDbEntity
  8
AM_5
100
AcDbBlockReference
  2
_Dot
 10
186.9136452422542
 20
217.6504144756012
 30
0.0
 50
90.0
  0
INSERT
  5
DD8F
330
D7DC
100
AcDbEntity
  8
AM_5
100
AcDbBlockReference
  2
_Dot
 10
186.9136452422542
 20
199.6504144756012
 30
0.0
 50
270.0
  0
MTEXT
  5
DD90
330
D7DC
100
AcDbEntity
  8
AM_5
 62
     2
100
AcDbMText
 10
183.8136452422542
 20
208.6504144756012
 30
0.0
 40
3.200000000000001
 41
0.0
 71
     5
 72
     1
  1
18
 11
0.0000000000000001
 21
1.0
 31
0.0
 73
     1
 44
1.0
1001
ACAD
1000
MTEXTBEGIN
1070
    73
1070
     1
1070
    44
1040
1.0
1070
    74
1070
     0
1000
MTEXTEND
  0
POINT
  5
DD91
330
D7DC
100
AcDbEntity
  8
Defpoints
 62
     0
100
AcDbPoint
 10
208.9136452422543
 20
217.6504144756012
 30
0.0
  0
POINT
  5
DD92
330
D7DC
100
AcDbEntity
  8
Defpoints
 62
     0
100
AcDbPoint
 10
208.9136452422543
 20
199.6504144756011
 30
0.0
  0
POINT
  5
DD93
330
D7DC
100
AcDbEntity
  8
Defpoints
 62
     0
100
AcDbPoint
 10
186.9136452422542
 20
199.6504144756012
 30
0.0
  0
ENDBLK
  5
D7DE
330
D7DC
100
AcDbEntity
  8
0
100
AcDbBlockEnd
  0
BLOCK
  5
D83E
330
D83D
100
AcDbEntity
  8
0
100
AcDbBlockBegin
  2
*D13
 70
     1
 10
0.0
 20
0.0
 30
0.0
  3
*D13
  1

  0
LINE
  5
DD94
330
D83D
100
AcDbEntity
  8
AM_5
100
AcDbLine
 10
214.9136452422543
 20
208.2504134756012
 30
0.0
 11
214.9136452422543
 21
185.5504124656011
 31
0.0
  0
LINE
  5
DD95
330
D83D
100
AcDbEntity
  8
AM_5
100
AcDbLine
 10
302.9136442422543
 20
201.1504144756012
 30
0.0
 11
302.9136442422543
 21
185.5504124656011
 31
0.0
  0
LINE
  5
DD96
330
D83D
100
AcDbEntity
  8
AM_5
100
AcDbLine
 10
215.9136452422543
 20
186.5504124656011
 30
0.0
 11
301.9136442422543
 21
186.5504124656011
 31
0.0
  0
INSERT
  5
DD97
330
D83D
100
AcDbEntity
  8
AM_5
100
AcDbBlockReference
  2
_Dot
 10
214.9136452422543
 20
186.5504124656011
 30
0.0
 50
180.0
  0
INSERT
  5
DD98
330
D83D
100
AcDbEntity
  8
AM_5
100
AcDbBlockReference
  2
_Dot
 10
302.9136442422543
 20
186.5504124656011
 30
0.0
  0
MTEXT
  5
DD99
330
D83D
100
AcDbEntity
  8
AM_5
 62
     2
100
AcDbMText
 10
258.9136447422543
 20
189.6504124656011
 30
0.0
 40
3.200000000000001
 41
0.0
 71
     5
 72
     1
  1
88
 73
     1
 44
1.0
1001
ACAD
1000
MTEXTBEGIN
1070
    73
1070
     1
1070
    44
1040
1.0
1070
    74
1070
     0
1000
MTEXTEND
  0
POINT
  5
DD9A
330
D83D
100
AcDbEntity
  8
Defpoints
 62
     0
100
AcDbPoint
 10
214.9136452422543
 20
209.2504134756012
 30
0.0
  0
POINT
  5
DD9B
330
D83D
100
AcDbEntity
  8
Defpoints
 62
     0
100
AcDbPoint
 10
302.9136442422543
 20
202.1504144756012
 30
0.0
  0
POINT
  5
DD9C
330
D83D
100
AcDbEntity
  8
Defpoints
 62
     0
100
AcDbPoint
 10
302.9136442422543
 20
186.5504124656011
 30
0.0
  0
ENDBLK
  5
D83F
330
D83D
100
AcDbEntity
  8
0
100
AcDbBlockEnd
  0
BLOCK
  5
D8CF
330
D8CE
100
AcDbEntity
  8
0
100
AcDbBlockBegin
  2
*D14
 70
     1
 10
0.0
 20
0.0
 30
0.0
  3
*D14
  1

  0
LINE
  5
DD9D
330
D8CE
100
AcDbEntity
  8
AM_5
100
AcDbLine
 10
207.9136452422543
 20
108.5406044756011
 30
0.0
 11
195.9136452422542
 21
108.5406044756011
 31
0.0
  0
LINE
  5
DD9E
330
D8CE
100
AcDbEntity
  8
AM_5
100
AcDbLine
 10
223.9136492422543
 20
140.0405971756011
 30
0.0
 11
195.9136452422542
 21
140.0405971756011
 31
0.0
  0
LINE
  5
DD9F
330
D8CE
100
AcDbEntity
  8
AM_5
100
AcDbLine
 10
196.9136452422542
 20
109.5406044756011
 30
0.0
 11
196.9136452422542
 21
139.0405971756011
 31
0.0
  0
INSERT
  5
DDA0
330
D8CE
100
AcDbEntity
  8
AM_5
100
AcDbBlockReference
  2
_Dot
 10
196.9136452422542
 20
108.5406044756011
 30
0.0
 50
270.0
  0
INSERT
  5
DDA1
330
D8CE
100
AcDbEntity
  8
AM_5
100
AcDbBlockReference
  2
_Dot
 10
196.9136452422542
 20
140.0405971756011
 30
0.0
 50
90.0
  0
MTEXT
  5
DDA2
330
D8CE
100
AcDbEntity
  8
AM_5
 62
     2
100
AcDbMText
 10
193.8136452422542
 20
124.2906008256011
 30
0.0
 40
3.200000000000001
 41
0.0
 71
     5
 72
     1
  1
31.5
 11
0.0000000000000001
 21
1.0
 31
0.0
 73
     1
 44
1.0
1001
ACAD
1000
MTEXTBEGIN
1070
    73
1070
     1
1070
    44
1040
1.0
1070
    74
1070
     0
1000
MTEXTEND
  0
POINT
  5
DDA3
330
D8CE
100
AcDbEntity
  8
Defpoints
 62
     0
100
AcDbPoint
 10
208.9136452422543
 20
108.5406044756011
 30
0.0
  0
POINT
  5
DDA4
330
D8CE
100
AcDbEntity
  8
Defpoints
 62
     0
100
AcDbPoint
 10
224.9136492422543
 20
140.0405971756011
 30
0.0
  0
POINT
  5
DDA5
330
D8CE
100
AcDbEntity
  8
Defpoints
 62
     0
100
AcDbPoint
 10
196.9136452422542
 20
140.0405971756011
 30
0.0
  0
ENDBLK
  5
D8D0
330
D8CE
100
AcDbEntity
  8
0
100
AcDbBlockEnd
  0
BLOCK
  5
D8F7
330
D8F6
100
AcDbEntity
  8
0
100
AcDbBlockBegin
  2
*D15
 70
     1
 10
0.0
 20
0.0
 30
0.0
  3
*D15
  1

  0
LINE
  5
DDA6
330
D8F6
100
AcDbEntity
  8
AM_5
100
AcDbLine
 10
207.9136452422543
 20
108.5406044756011
 30
0.0
 11
195.9136452422543
 21
108.5406044756011
 31
0.0
  0
LINE
  5
DDA7
330
D8F6
100
AcDbEntity
  8
AM_5
100
AcDbLine
 10
230.9136492422543
 20
100.0406004756011
 30
0.0
 11
195.9136452422543
 21
100.0406004756011
 31
0.0
  0
LINE
  5
DDA8
330
D8F6
100
AcDbEntity
  8
AM_5
100
AcDbLine
 10
196.9136452422543
 20
107.5406044756011
 30
0.0
 11
196.9136452422543
 21
101.0406004756011
 31
0.0
  0
INSERT
  5
DDA9
330
D8F6
100
AcDbEntity
  8
AM_5
100
AcDbBlockReference
  2
_Dot
 10
196.9136452422543
 20
108.5406044756011
 30
0.0
 50
90.0
  0
INSERT
  5
DDAA
330
D8F6
100
AcDbEntity
  8
AM_5
100
AcDbBlockReference
  2
_Dot
 10
196.9136452422543
 20
100.0406004756011
 30
0.0
 50
270.0
  0
MTEXT
  5
DDAB
330
D8F6
100
AcDbEntity
  8
AM_5
 62
     2
100
AcDbMText
 10
193.8136452422542
 20
104.2906024756012
 30
0.0
 40
3.200000000000001
 41
0.0
 71
     5
 72
     1
  1
8.5
 11
0.0000000000000001
 21
1.0
 31
0.0
 73
     1
 44
1.0
1001
ACAD
1000
MTEXTBEGIN
1070
    73
1070
     1
1070
    44
1040
1.0
1070
    74
1070
     0
1000
MTEXTEND
  0
POINT
  5
DDAC
330
D8F6
100
AcDbEntity
  8
Defpoints
 62
     0
100
AcDbPoint
 10
208.9136452422543
 20
108.5406044756011
 30
0.0
  0
POINT
  5
DDAD
330
D8F6
100
AcDbEntity
  8
Defpoints
 62
     0
100
AcDbPoint
 10
231.9136492422543
 20
100.0406004756011
 30
0.0
  0
POINT
  5
DDAE
330
D8F6
100
AcDbEntity
  8
Defpoints
 62
     0
100
AcDbPoint
 10
196.9136452422543
 20
100.0406004756011
 30
0.0
  0
ENDBLK
  5
D8F8
330
D8F6
100
AcDbEntity
  8
0
100
AcDbBlockEnd
  0
BLOCK
  5
D916
330
D915
100
AcDbEntity
  8
0
100
AcDbBlockBegin
  2
*D16
 70
     1
 10
0.0
 20
0.0
 30
0.0
  3
*D16
  1

  0
LINE
  5
DDAF
330
D915
100
AcDbEntity
  8
AM_5
100
AcDbLine
 10
208.9136452422543
 20
109.5406044756011
 30
0.0
 11
208.9136452422543
 21
153.0405981756011
 31
0.0
  0
LINE
  5
DDB0
330
D915
100
AcDbEntity
  8
AM_5
100
AcDbLine
 10
308.9136342422543
 20
109.5406044756011
 30
0.0
 11
308.9136342422543
 21
153.0405981756011
 31
0.0
  0
LINE
  5
DDB1
330
D915
100
AcDbEntity
  8
AM_5
100
AcDbLine
 10
209.9136452422543
 20
152.0405981756011
 30
0.0
 11
307.9136342422543
 21
152.0405981756011
 31
0.0
  0
INSERT
  5
DDB2
330
D915
100
AcDbEntity
  8
AM_5
100
AcDbBlockReference
  2
_Dot
 10
208.9136452422543
 20
152.0405981756011
 30
0.0
 50
180.0
  0
INSERT
  5
DDB3
330
D915
100
AcDbEntity
  8
AM_5
100
AcDbBlockReference
  2
_Dot
 10
308.9136342422543
 20
152.0405981756011
 30
0.0
  0
MTEXT
  5
DDB4
330
D915
100
AcDbEntity
  8
AM_5
 62
     2
100
AcDbMText
 10
258.9136397422543
 20
155.1405981756011
 30
0.0
 40
3.200000000000001
 41
0.0
 71
     5
 72
     1
  1
100
 73
     1
 44
1.0
1001
ACAD
1000
MTEXTBEGIN
1070
    73
1070
     1
1070
    44
1040
1.0
1070
    74
1070
     0
1000
MTEXTEND
  0
POINT
  5
DDB5
330
D915
100
AcDbEntity
  8
Defpoints
 62
     0
100
AcDbPoint
 10
208.9136452422543
 20
108.5406044756011
 30
0.0
  0
POINT
  5
DDB6
330
D915
100
AcDbEntity
  8
Defpoints
 62
     0
100
AcDbPoint
 10
308.9136342422543
 20
108.5406044756011
 30
0.0
  0
POINT
  5
DDB7
330
D915
100
AcDbEntity
  8
Defpoints
 62
     0
100
AcDbPoint
 10
308.9136342422543
 20
152.0405981756011
 30
0.0
  0
ENDBLK
  5
D917
330
D915
100
AcDbEntity
  8
0
100
AcDbBlockEnd
  0
BLOCK
  5
D935
330
D934
100
AcDbEntity
  8
0
100
AcDbBlockBegin
  2
*D17
 70
     1
 10
0.0
 20
0.0
 30
0.0
  3
*D17
  1

  0
LINE
  5
DDB8
330
D934
100
AcDbEntity
  8
AM_5
100
AcDbLine
 10
295.9136242422543
 20
107.5405954756011
 30
0.0
 11
295.9136242422543
 21
79.04059946560106
 31
0.0
  0
LINE
  5
DDB9
330
D934
100
AcDbEntity
  8
AM_5
100
AcDbLine
 10
220.9136502422543
 20
126.045096756477
 30
0.0
 11
220.9136502422543
 21
79.04059946560106
 31
0.0
  0
LINE
  5
DDBA
330
D934
100
AcDbEntity
  8
AM_5
100
AcDbLine
 10
294.9136242422543
 20
80.04059946560108
 30
0.0
 11
221.9136502422543
 21
80.04059946560108
 31
0.0
  0
INSERT
  5
DDBB
330
D934
100
AcDbEntity
  8
AM_5
100
AcDbBlockReference
  2
_Dot
 10
295.9136242422543
 20
80.04059946560108
 30
0.0
  0
INSERT
  5
DDBC
330
D934
100
AcDbEntity
  8
AM_5
100
AcDbBlockReference
  2
_Dot
 10
220.9136502422543
 20
80.04059946560108
 30
0.0
 50
180.0
  0
MTEXT
  5
DDBD
330
D934
100
AcDbEntity
  8
AM_5
 62
     2
100
AcDbMText
 10
258.4136372422543
 20
83.14059946560105
 30
0.0
 40
3.200000000000001
 41
0.0
 71
     5
 72
     1
  1
サッシ切欠：75
 73
     1
 44
1.0
1001
ACAD
1000
MTEXTBEGIN
1070
    73
1070
     1
1070
    44
1040
1.0
1070
    74
1070
     0
1000
MTEXTEND
  0
POINT
  5
DDBE
330
D934
100
AcDbEntity
  8
Defpoints
 62
     0
100
AcDbPoint
 10
295.9136242422543
 20
108.5405954756011
 30
0.0
  0
POINT
  5
DDBF
330
D934
100
AcDbEntity
  8
Defpoints
 62
     0
100
AcDbPoint
 10
220.9136502422543
 20
127.045096756477
 30
0.0
  0
POINT
  5
DDC0
330
D934
100
AcDbEntity
  8
Defpoints
 62
     0
100
AcDbPoint
 10
220.9136502422543
 20
80.04059946560108
 30
0.0
  0
ENDBLK
  5
D936
330
D934
100
AcDbEntity
  8
0
100
AcDbBlockEnd
  0
BLOCK
  5
D979
330
D978
100
AcDbEntity
  8
0
100
AcDbBlockBegin
  2
*D18
 70
     1
 10
0.0
 20
0.0
 30
0.0
  3
*D18
  1

  0
LINE
  5
DDC1
330
D978
100
AcDbEntity
  8
AM_5
100
AcDbLine
 10
142.3136432422543
 20
140.0405971756011
 30
0.0
 11
155.7136452422543
 21
140.0405971756011
 31
0.0
  0
LINE
  5
DDC2
330
D978
100
AcDbEntity
  8
AM_5
100
AcDbLine
 10
143.7136452422543
 20
128.5405999756011
 30
0.0
 11
155.7136452422543
 21
128.5405999756011
 31
0.0
  0
LINE
  5
DDC3
330
D978
100
AcDbEntity
  8
AM_5
100
AcDbLine
 10
154.7136452422543
 20
139.0405971756011
 30
0.0
 11
154.7136452422543
 21
129.5405999756011
 31
0.0
  0
INSERT
  5
DDC4
330
D978
100
AcDbEntity
  8
AM_5
100
AcDbBlockReference
  2
_Dot
 10
154.7136452422543
 20
140.0405971756011
 30
0.0
 50
90.0
  0
INSERT
  5
DDC5
330
D978
100
AcDbEntity
  8
AM_5
100
AcDbBlockReference
  2
_Dot
 10
154.7136452422543
 20
128.5405999756011
 30
0.0
 50
270.0
  0
MTEXT
  5
DDC6
330
D978
100
AcDbEntity
  8
AM_5
 62
     2
100
AcDbMText
 10
151.6136452422543
 20
134.2905985756011
 30
0.0
 40
3.200000000000001
 41
0.0
 71
     5
 72
     1
  1
11.5
 11
0.0000000000000001
 21
1.0
 31
0.0
 73
     1
 44
1.0
1001
ACAD
1000
MTEXTBEGIN
1070
    73
1070
     1
1070
    44
1040
1.0
1070
    74
1070
     0
1000
MTEXTEND
  0
POINT
  5
DDC7
330
D978
100
AcDbEntity
  8
Defpoints
 62
     0
100
AcDbPoint
 10
141.3136432422543
 20
140.0405971756011
 30
0.0
  0
POINT
  5
DDC8
330
D978
100
AcDbEntity
  8
Defpoints
 62
     0
100
AcDbPoint
 10
142.7136452422543
 20
128.5405999756011
 30
0.0
  0
POINT
  5
DDC9
330
D978
100
AcDbEntity
  8
Defpoints
 62
     0
100
AcDbPoint
 10
154.7136452422543
 20
128.5405999756011
 30
0.0
  0
ENDBLK
  5
D97A
330
D978
100
AcDbEntity
  8
0
100
AcDbBlockEnd
  0
BLOCK
  5
D9A1
330
D9A0
100
AcDbEntity
  8
0
100
AcDbBlockBegin
  2
*D19
 70
     1
 10
0.0
 20
0.0
 30
0.0
  3
*D19
  1

  0
LINE
  5
DDCA
330
D9A0
100
AcDbEntity
  8
AM_5
100
AcDbLine
 10
142.3136432422543
 20
140.0405971756011
 30
0.0
 11
165.7136452422545
 21
140.0405971756011
 31
0.0
  0
LINE
  5
DDCB
330
D9A0
100
AcDbEntity
  8
AM_5
100
AcDbLine
 10
133.7136452422543
 20
95.04059747560114
 30
0.0
 11
165.7136452422545
 21
95.04059747560111
 31
0.0
  0
LINE
  5
DDCC
330
D9A0
100
AcDbEntity
  8
AM_5
100
AcDbLine
 10
164.7136452422545
 20
139.0405971756011
 30
0.0
 11
164.7136452422545
 21
96.04059747560114
 31
0.0
  0
INSERT
  5
DDCD
330
D9A0
100
AcDbEntity
  8
AM_5
100
AcDbBlockReference
  2
_Dot
 10
164.7136452422545
 20
140.0405971756011
 30
0.0
 50
90.0
  0
INSERT
  5
DDCE
330
D9A0
100
AcDbEntity
  8
AM_5
100
AcDbBlockReference
  2
_Dot
 10
164.7136452422545
 20
95.04059747560111
 30
0.0
 50
270.0
  0
MTEXT
  5
DDCF
330
D9A0
100
AcDbEntity
  8
AM_5
 62
     2
100
AcDbMText
 10
161.6136452422545
 20
117.5405973256011
 30
0.0
 40
3.200000000000001
 41
0.0
 71
     5
 72
     1
  1
45
 11
0.0000000000000001
 21
1.0
 31
0.0
 73
     1
 44
1.0
1001
ACAD
1000
MTEXTBEGIN
1070
    73
1070
     1
1070
    44
1040
1.0
1070
    74
1070
     0
1000
MTEXTEND
  0
POINT
  5
DDD0
330
D9A0
100
AcDbEntity
  8
Defpoints
 62
     0
100
AcDbPoint
 10
141.3136432422543
 20
140.0405971756011
 30
0.0
  0
POINT
  5
DDD1
330
D9A0
100
AcDbEntity
  8
Defpoints
 62
     0
100
AcDbPoint
 10
132.7136452422543
 20
95.04059747560114
 30
0.0
  0
POINT
  5
DDD2
330
D9A0
100
AcDbEntity
  8
Defpoints
 62
     0
100
AcDbPoint
 10
164.7136452422545
 20
95.04059747560111
 30
0.0
  0
ENDBLK
  5
D9A2
330
D9A0
100
AcDbEntity
  8
0
100
AcDbBlockEnd
  0
BLOCK
  5
D9C0
330
D9BF
100
AcDbEntity
  8
0
100
AcDbBlockBegin
  2
*D20
 70
     1
 10
0.0
 20
0.0
 30
0.0
  3
*D20
  1

  0
LINE
  5
DDD3
330
D9BF
100
AcDbEntity
  8
AM_5
100
AcDbLine
 10
137.7136452422543
 20
91.04060047560114
 30
0.0
 11
137.7136452422543
 21
79.04060047560114
 31
0.0
  0
LINE
  5
DDD4
330
D9BF
100
AcDbEntity
  8
AM_5
100
AcDbLine
 10
127.7136452422543
 20
91.04060047560114
 30
0.0
 11
127.7136452422543
 21
79.04060047560114
 31
0.0
  0
LINE
  5
DDD5
330
D9BF
100
AcDbEntity
  8
AM_5
100
AcDbLine
 10
136.7136452422543
 20
80.04060047560114
 30
0.0
 11
128.7136452422543
 21
80.04060047560114
 31
0.0
  0
INSERT
  5
DDD6
330
D9BF
100
AcDbEntity
  8
AM_5
100
AcDbBlockReference
  2
_Dot
 10
137.7136452422543
 20
80.04060047560114
 30
0.0
  0
INSERT
  5
DDD7
330
D9BF
100
AcDbEntity
  8
AM_5
100
AcDbBlockReference
  2
_Dot
 10
127.7136452422543
 20
80.04060047560114
 30
0.0
 50
180.0
  0
MTEXT
  5
DDD8
330
D9BF
100
AcDbEntity
  8
AM_5
 62
     2
100
AcDbMText
 10
132.7136452422543
 20
83.14060047560113
 30
0.0
 40
3.200000000000001
 41
0.0
 71
     5
 72
     1
  1
10
 73
     1
 44
1.0
1001
ACAD
1000
MTEXTBEGIN
1070
    73
1070
     1
1070
    44
1040
1.0
1070
    74
1070
     0
1000
MTEXTEND
  0
POINT
  5
DDD9
330
D9BF
100
AcDbEntity
  8
Defpoints
 62
     0
100
AcDbPoint
 10
137.7136452422543
 20
92.04060047560114
 30
0.0
  0
POINT
  5
DDDA
330
D9BF
100
AcDbEntity
  8
Defpoints
 62
     0
100
AcDbPoint
 10
127.7136452422543
 20
92.04060047560114
 30
0.0
  0
POINT
  5
DDDB
330
D9BF
100
AcDbEntity
  8
Defpoints
 62
     0
100
AcDbPoint
 10
127.7136452422543
 20
80.04060047560114
 30
0.0
  0
ENDBLK
  5
D9C1
330
D9BF
100
AcDbEntity
  8
0
100
AcDbBlockEnd
  0
BLOCK
  5
D9E8
330
D9E7
100
AcDbEntity
  8
0
100
AcDbBlockBegin
  2
*D21
 70
     1
 10
0.0
 20
0.0
 30
0.0
  3
*D21
  1

  0
LINE
  5
DDDC
330
D9E7
100
AcDbEntity
  8
AM_5
100
AcDbLine
 10
113.2008014564476
 20
79.93318011800067
 30
0.0
 11
122.1674681231146
 21
79.93318011800069
 31
0.0
  0
LINE
  5
DDDD
330
D9E7
100
AcDbEntity
  8
AM_5
100
AcDbLine
 10
122.1674681231146
 20
79.93318011800069
 30
0.0
 11
133.7223391183345
 21
92.65079415383345
 31
0.0
  0
MTEXT
  5
DDDE
330
D9E7
100
AcDbEntity
  8
AM_5
 62
     2
100
AcDbMText
 10
116.934134789781
 20
83.18318011800071
 30
0.0
 40
3.5
 41
0.0
 71
     5
 72
     1
  1
R3.5
 73
     1
 44
1.0
1001
ACAD
1000
MTEXTBEGIN
1070
    73
1070
     1
1070
    44
1040
1.0
1070
    74
1070
     0
1000
MTEXTEND
  0
INSERT
  5
DDDF
330
D9E7
100
AcDbEntity
  8
AM_5
100
AcDbBlockReference
  2
_OPEN30
 10
135.0672642864415
 20
94.13105639147659
 30
0.0
 41
2.0
 42
2.0
 43
2.0
 50
47.74258607920917
  0
POINT
  5
DDE0
330
D9E7
100
AcDbEntity
  8
Defpoints
 62
     0
100
AcDbPoint
 10
135.0672642864415
 20
94.13105639147659
 30
0.0
  0
POINT
  5
DDE1
330
D9E7
100
AcDbEntity
  8
Defpoints
 62
     0
100
AcDbPoint
 10
132.7136452422542
 20
91.54059747560108
 30
0.0
  0
ENDBLK
  5
D9E9
330
D9E7
100
AcDbEntity
  8
0
100
AcDbBlockEnd
  0
BLOCK
  5
DA0B
330
DA0A
100
AcDbEntity
  8
0
100
AcDbBlockBegin
  2
*D22
 70
     1
 10
0.0
 20
0.0
 30
0.0
  3
*D22
  1

  0
LINE
  5
DDE2
330
DA0A
100
AcDbEntity
  8
AM_5
100
AcDbLine
 10
133.7136453338841
 20
95.04059747560114
 30
0.0
 11
155.713639391038
 21
95.04059747560114
 31
0.0
  0
LINE
  5
DDE3
330
DA0A
100
AcDbEntity
  8
AM_5
100
AcDbLine
 10
154.713639391038
 20
94.04059747560117
 30
0.0
 11
154.713639391038
 21
86.04059747560114
 31
0.0
  0
INSERT
  5
DDE4
330
DA0A
100
AcDbEntity
  8
AM_5
100
AcDbBlockReference
  2
_Dot
 10
154.713639391038
 20
95.04059747560114
 30
0.0
 50
90.0
  0
INSERT
  5
DDE5
330
DA0A
100
AcDbEntity
  8
AM_5
100
AcDbBlockReference
  2
_OPEN30
 10
154.713639391038
 20
85.04059747560114
 30
0.0
 50
270.0
  0
MTEXT
  5
DDE6
330
DA0A
100
AcDbEntity
  8
AM_5
 62
     2
100
AcDbMText
 10
151.6136393910379
 20
90.04059747560116
 30
0.0
 40
3.200000000000001
 41
0.0
 71
     5
 72
     1
  1
3
 11
0.0000000000000001
 21
1.0
 31
0.0
 73
     1
 44
1.0
1001
ACAD
1000
MTEXTBEGIN
1070
    73
1070
     1
1070
    44
1040
1.0
1070
    74
1070
     0
1000
MTEXTEND
  0
POINT
  5
DDE7
330
DA0A
100
AcDbEntity
  8
Defpoints
 62
     0
100
AcDbPoint
 10
132.7136453338841
 20
95.04059747560114
 30
0.0
  0
POINT
  5
DDE8
330
DA0A
100
AcDbEntity
  8
Defpoints
 62
     0
100
AcDbPoint
 10
132.7136453338841
 20
85.04059747560114
 30
0.0
  0
POINT
  5
DDE9
330
DA0A
100
AcDbEntity
  8
Defpoints
 62
     0
100
AcDbPoint
 10
154.713639391038
 20
85.04059747560114
 30
0.0
  0
ENDBLK
  5
DA0C
330
DA0A
100
AcDbEntity
  8
0
100
AcDbBlockEnd
  0
BLOCK
  5
DA16
330
DA15
100
AcDbEntity
  8
0
100
AcDbBlockBegin
  2
*D23
 70
     1
 10
0.0
 20
0.0
 30
0.0
  3
*D23
  1

  0
LINE
  5
DDEA
330
DA15
100
AcDbEntity
  8
AM_5
100
AcDbLine
 10
133.7136453338841
 20
95.04059747560114
 30
0.0
 11
155.713639391038
 21
95.04059747560114
 31
0.0
  0
LINE
  5
DDEB
330
DA15
100
AcDbEntity
  8
AM_5
100
AcDbLine
 10
154.713639391038
 20
96.04059747560114
 30
0.0
 11
154.713639391038
 21
104.0405974756011
 31
0.0
  0
INSERT
  5
DDEC
330
DA15
100
AcDbEntity
  8
AM_5
100
AcDbBlockReference
  2
_Dot
 10
154.713639391038
 20
95.04059747560114
 30
0.0
 50
270.0
  0
INSERT
  5
DDED
330
DA15
100
AcDbEntity
  8
AM_5
100
AcDbBlockReference
  2
_OPEN30
 10
154.713639391038
 20
105.0405974756011
 30
0.0
 50
90.0
  0
MTEXT
  5
DDEE
330
DA15
100
AcDbEntity
  8
AM_5
 62
     2
100
AcDbMText
 10
151.6136393910379
 20
100.0405974756011
 30
0.0
 40
3.200000000000001
 41
0.0
 71
     5
 72
     1
  1
2
 11
0.0000000000000001
 21
1.0
 31
0.0
 73
     1
 44
1.0
1001
ACAD
1000
MTEXTBEGIN
1070
    73
1070
     1
1070
    44
1040
1.0
1070
    74
1070
     0
1000
MTEXTEND
  0
POINT
  5
DDEF
330
DA15
100
AcDbEntity
  8
Defpoints
 62
     0
100
AcDbPoint
 10
132.7136453338841
 20
95.04059747560114
 30
0.0
  0
POINT
  5
DDF0
330
DA15
100
AcDbEntity
  8
Defpoints
 62
     0
100
AcDbPoint
 10
132.7136453338841
 20
105.0405974756011
 30
0.0
  0
POINT
  5
DDF1
330
DA15
100
AcDbEntity
  8
Defpoints
 62
     0
100
AcDbPoint
 10
154.713639391038
 20
105.0405974756011
 30
0.0
  0
ENDBLK
  5
DA17
330
DA15
100
AcDbEntity
  8
0
100
AcDbBlockEnd
  0
BLOCK
  5
DAE6
330
DAE5
100
AcDbEntity
  8
0
100
AcDbBlockBegin
  2
*D24
 70
     1
 10
0.0
 20
0.0
 30
0.0
  3
*D24
  1

  0
LINE
  5
DDF2
330
DAE5
100
AcDbEntity
  8
AM_5
100
AcDbLine
 10
209.1509422422543
 20
214.1504144756012
 30
0.0
 11
195.9136452422542
 21
214.1504144756012
 31
0.0
  0
LINE
  5
DDF3
330
DAE5
100
AcDbEntity
  8
AM_5
100
AcDbLine
 10
204.0369234490149
 20
207.1504144756012
 30
0.0
 11
195.9136452422542
 21
207.1504144756012
 31
0.0
  0
LINE
  5
DDF4
330
DAE5
100
AcDbEntity
  8
AM_5
100
AcDbLine
 10
196.9136452422542
 20
213.1504144756012
 30
0.0
 11
196.9136452422542
 21
208.1504144756012
 31
0.0
  0
INSERT
  5
DDF5
330
DAE5
100
AcDbEntity
  8
AM_5
100
AcDbBlockReference
  2
_Dot
 10
196.9136452422542
 20
214.1504144756012
 30
0.0
 50
90.0
  0
INSERT
  5
DDF6
330
DAE5
100
AcDbEntity
  8
AM_5
100
AcDbBlockReference
  2
_Dot
 10
196.9136452422542
 20
207.1504144756012
 30
0.0
 50
270.0
  0
MTEXT
  5
DDF7
330
DAE5
100
AcDbEntity
  8
AM_5
 62
     2
100
AcDbMText
 10
193.8136452422542
 20
210.6504144756012
 30
0.0
 40
3.200000000000001
 41
0.0
 71
     5
 72
     1
  1
7
 11
0.0000000000000001
 21
1.0
 31
0.0
 73
     1
 44
1.0
1001
ACAD
1000
MTEXTBEGIN
1070
    73
1070
     1
1070
    44
1040
1.0
1070
    74
1070
     0
1000
MTEXTEND
  0
POINT
  5
DDF8
330
DAE5
100
AcDbEntity
  8
Defpoints
 62
     0
100
AcDbPoint
 10
210.1509422422543
 20
214.1504144756012
 30
0.0
  0
POINT
  5
DDF9
330
DAE5
100
AcDbEntity
  8
Defpoints
 62
     0
100
AcDbPoint
 10
205.0369234490149
 20
207.1504144756012
 30
0.0
  0
POINT
  5
DDFA
330
DAE5
100
AcDbEntity
  8
Defpoints
 62
     0
100
AcDbPoint
 10
196.9136452422542
 20
207.1504144756012
 30
0.0
  0
ENDBLK
  5
DAE7
330
DAE5
100
AcDbEntity
  8
0
100
AcDbBlockEnd
  0
BLOCK
  5
DB0E
330
DB0D
100
AcDbEntity
  8
0
100
AcDbBlockBegin
  2
*D25
 70
     1
 10
0.0
 20
0.0
 30
0.0
  3
*D25
  1

  0
LINE
  5
DDFB
330
DB0D
100
AcDbEntity
  8
AM_5
100
AcDbLine
 10
209.1509422422543
 20
214.1504144756012
 30
0.0
 11
195.9136452422542
 21
214.1504144756012
 31
0.0
  0
LINE
  5
DDFC
330
DB0D
100
AcDbEntity
  8
AM_5
100
AcDbLine
 10
207.9136452422543
 20
217.6504144756012
 30
0.0
 11
195.9136452422542
 21
217.6504144756012
 31
0.0
  0
LINE
  5
DDFD
330
DB0D
100
AcDbEntity
  8
AM_5
100
AcDbLine
 10
196.9136452422542
 20
213.1504144756012
 30
0.0
 11
196.9136452422542
 21
212.1504144756012
 31
0.0
  0
LINE
  5
DDFE
330
DB0D
100
AcDbEntity
  8
AM_5
100
AcDbLine
 10
196.9136452422542
 20
218.6504144756012
 30
0.0
 11
196.9136452422542
 21
227.3437478089345
 31
0.0
  0
LINE
  5
DDFF
330
DB0D
100
AcDbEntity
  8
AM_5
100
AcDbLine
 10
196.9136452422542
 20
214.1504144756012
 30
0.0
 11
196.9136452422542
 21
217.6504144756012
 31
0.0
  0
INSERT
  5
DE00
330
DB0D
100
AcDbEntity
  8
AM_5
100
AcDbBlockReference
  2
_Dot
 10
196.9136452422542
 20
214.1504144756012
 30
0.0
 50
90.0
  0
INSERT
  5
DE01
330
DB0D
100
AcDbEntity
  8
AM_5
100
AcDbBlockReference
  2
_Dot
 10
196.9136452422542
 20
217.6504144756012
 30
0.0
 50
270.0
  0
MTEXT
  5
DE02
330
DB0D
100
AcDbEntity
  8
AM_5
 62
     2
100
AcDbMText
 10
193.8136452422542
 20
223.4970811422679
 30
0.0
 40
3.200000000000001
 41
0.0
 71
     5
 72
     1
  1
3.5
 11
0.0000000000000001
 21
1.0
 31
0.0
 73
     1
 44
1.0
1001
ACAD
1000
MTEXTBEGIN
1070
    73
1070
     1
1070
    44
1040
1.0
1070
    74
1070
     0
1000
MTEXTEND
  0
POINT
  5
DE03
330
DB0D
100
AcDbEntity
  8
Defpoints
 62
     0
100
AcDbPoint
 10
210.1509422422543
 20
214.1504144756012
 30
0.0
  0
POINT
  5
DE04
330
DB0D
100
AcDbEntity
  8
Defpoints
 62
     0
100
AcDbPoint
 10
208.9136452422543
 20
217.6504144756012
 30
0.0
  0
POINT
  5
DE05
330
DB0D
100
AcDbEntity
  8
Defpoints
 62
     0
100
AcDbPoint
 10
196.9136452422542
 20
217.6504144756012
 30
0.0
  0
ENDBLK
  5
DB0F
330
DB0D
100
AcDbEntity
  8
0
100
AcDbBlockEnd
  0
BLOCK
  5
DB33
330
DB32
100
AcDbEntity
  8
0
100
AcDbBlockBegin
  2
*D26
 70
     1
 10
0.0
 20
0.0
 30
0.0
  3
*D26
  1

  0
LINE
  5
DE06
330
DB32
100
AcDbEntity
  8
AM_5
100
AcDbLine
 10
293.7136442422543
 20
215.7504134756012
 30
0.0
 11
321.9136352422542
 21
215.7504134756011
 31
0.0
  0
LINE
  5
DE07
330
DB32
100
AcDbEntity
  8
AM_5
100
AcDbLine
 10
293.7136442422543
 20
198.5504134756011
 30
0.0
 11
321.9136352422542
 21
198.5504134756011
 31
0.0
  0
LINE
  5
DE08
330
DB32
100
AcDbEntity
  8
AM_5
100
AcDbLine
 10
320.9136352422543
 20
214.7504134756012
 30
0.0
 11
320.9136352422543
 21
199.5504134756011
 31
0.0
  0
INSERT
  5
DE09
330
DB32
100
AcDbEntity
  8
AM_5
100
AcDbBlockReference
  2
_Dot
 10
320.9136352422543
 20
215.7504134756011
 30
0.0
 50
90.0
  0
INSERT
  5
DE0A
330
DB32
100
AcDbEntity
  8
AM_5
100
AcDbBlockReference
  2
_Dot
 10
320.9136352422543
 20
198.5504134756011
 30
0.0
 50
270.0
  0
MTEXT
  5
DE0B
330
DB32
100
AcDbEntity
  8
AM_5
 62
     2
100
AcDbMText
 10
317.8136352422542
 20
207.1504134756012
 30
0.0
 40
3.200000000000001
 41
0.0
 71
     5
 72
     1
  1
17.2
 11
0.0000000000000001
 21
1.0
 31
0.0
 73
     1
 44
1.0
1001
ACAD
1000
MTEXTBEGIN
1070
    73
1070
     1
1070
    44
1040
1.0
1070
    74
1070
     0
1000
MTEXTEND
  0
POINT
  5
DE0C
330
DB32
100
AcDbEntity
  8
Defpoints
 62
     0
100
AcDbPoint
 10
292.7136442422543
 20
215.7504134756012
 30
0.0
  0
POINT
  5
DE0D
330
DB32
100
AcDbEntity
  8
Defpoints
 62
     0
100
AcDbPoint
 10
292.7136442422543
 20
198.5504134756011
 30
0.0
  0
POINT
  5
DE0E
330
DB32
100
AcDbEntity
  8
Defpoints
 62
     0
100
AcDbPoint
 10
320.9136352422543
 20
198.5504134756011
 30
0.0
  0
ENDBLK
  5
DB34
330
DB32
100
AcDbEntity
  8
0
100
AcDbBlockEnd
  0
BLOCK
  5
DC88
330
DC78
100
AcDbEntity
  8
0
100
AcDbBlockBegin
  2
A$C61B452E2
 70
     0
 10
0.0
 20
0.0
 30
0.0
  3
A$C61B452E2
  1

  0
LINE
  5
DC79
330
DC78
100
AcDbEntity
  8
AM_0
100
AcDbLine
 10
2.400002000000199
 20
-3.006654759229916
 30
0.0
 11
10.29999199999992
 21
-3.006654759229916
 31
0.0
  0
LINE
  5
DC7A
330
DC78
100
AcDbEntity
  8
AM_0
100
AcDbLine
 10
2.400001999999971
 20
2.993345240770111
 30
0.0
 11
10.29999199999997
 21
2.993345240770111
 31
0.0
  0
LINE
  5
DC7B
330
DC78
100
AcDbEntity
  8
AM_0
100
AcDbLine
 10
11.4999929999999
 20
2.993345240770081
 30
0.0
 11
19.45849609374852
 21
2.993345240770111
 31
0.0
  0
LINE
  5
DC7C
330
DC78
100
AcDbEntity
  8
AM_0
100
AcDbLine
 10
19.45849609374841
 20
2.993345240770081
 30
0.0
 11
19.99999999999841
 21
2.451841334520054
 31
0.0
  0
LINE
  5
DC7D
330
DC78
100
AcDbEntity
  8
AM_0
100
AcDbLine
 10
19.99999999999863
 20
-2.465165304228634
 30
0.0
 11
19.45850309374873
 21
-3.006661759229956
 31
0.0
  0
LINE
  5
DC7E
330
DC78
100
AcDbEntity
  8
AM_2
 48
0.5
100
AcDbLine
 10
19.99999999999863
 20
2.451841334520054
 30
0.0
 11
11.49999299999985
 21
2.451841334520082
 31
0.0
  0
LINE
  5
DC7F
330
DC78
100
AcDbEntity
  8
AM_2
 48
0.5
100
AcDbLine
 10
10.29999199999997
 20
2.451841334520024
 30
0.0
 11
2.400001999999971
 21
2.45184133452011
 31
0.0
  0
LINE
  5
DC80
330
DC78
100
AcDbEntity
  8
AM_0
 48
0.5
100
AcDbLine
 10
19.45851009375462
 20
-3.006654759229916
 30
0.0
 11
11.4999929999999
 21
-3.006654759229859
 31
0.0
  0
LINE
  5
DC81
330
DC78
100
AcDbEntity
  8
AM_0
 48
0.5
100
AcDbLine
 10
10.29999199999992
 20
-3.006654759230002
 30
0.0
 11
2.499999000000002
 21
-3.006654759229916
 31
0.0
  0
LINE
  5
DC82
330
DC78
100
AcDbEntity
  8
AM_2
 48
0.5
100
AcDbLine
 10
2.400001999999971
 20
-2.465158482379904
 30
0.0
 11
10.29999199999997
 21
-2.465158482379904
 31
0.0
  0
LINE
  5
DC83
330
DC78
100
AcDbEntity
  8
AM_2
 48
0.5
100
AcDbLine
 10
11.49999299999985
 20
-2.465158482379904
 30
0.0
 11
19.99999999999863
 21
-2.465158482379933
 31
0.0
  0
LINE
  5
DC84
330
DC78
100
AcDbEntity
  8
AM_0
 48
0.5
100
AcDbLine
 10
2.400001999999971
 20
2.993345240770081
 30
0.0
 11
10.29999199999997
 21
2.993345240770111
 31
0.0
  0
LINE
  5
DC85
330
DC78
100
AcDbEntity
  8
AM_0
 48
0.5
100
AcDbLine
 10
19.99999999999863
 20
2.465178844228574
 30
0.0
 11
19.99999999999852
 21
-2.465165304228548
 31
0.0
  0
ENDBLK
  5
DC89
330
DC78
100
AcDbEntity
  8
0
100
AcDbBlockEnd
  0
ENDSEC
  0
SECTION
  2
ENTITIES
  0
POINT
  5
BC07
330
1F
100
AcDbEntity
  8
0
 60
     1
100
AcDbPoint
 10
0.0
 20
0.0
 30
0.0
1001
GENIUS_GENOENT_13
1002
{
1000
MYREF
1005
BC07
1002
}
1002
{
1000
GRP
1005
0
1002
}
1001
GENIUS_GENOBJ-N-TIT_13
1002
{
1000
OWNER
1000
GEN
1002
}
1001
GENIUS_GENODEF_13
1002
{
1000
HIER
1070
     1
1002
}
1002
{
1000
MANEDIT
1070
     0
1002
}
1002
{
1000
NOSEL
1070
     0
1002
}
1002
{
1000
BEHIND
1070
     0
1002
}
1002
{
1000
OTHER
1070
     0
1002
}
1002
{
1000
REACTOR
1002
}
1001
GENIUS_GENOLIS_13
1002
{
1000
ENT
1005
BBF8
1005
BB86
1002
}
1001
GENIUS_GENTITLE_13
1002
{
1000
BORDER
1000
X:\図面\000 共通使用ファイル（テンプレート等）\002 SYS図枠13\AIS2008\SYS図枠A3(AIS2008)
1002
}
1002
{
1000
TITLE
1000
X:\図面\000 共通使用ファイル（テンプレート等）\002 SYS図枠13\AIS2008\SYS表題(AIS2008)
1002
}
1002
{
1000
SCALE
1000
1:1
1002
}
1002
{
1000
TITLESTD
1000
SYS
1002
}
1002
{
1000
HRA
1005
BB86
1002
}
1002
{
1000
HTIT
1005
BBF8
1002
}
1002
{
1000
INVTXTID
1005
0
1002
}
1002
{
1000
UNCHG
1002
{
1000
GEN-TITLE-SIZ
1000
GEN-TITLE-SCA
1002
}
1002
}
1002
{
1000
GENIUSID
1005
BC07
1002
}
  0
TEXT
  5
BC70
330
1F
100
AcDbEntity
  8
AM_6
 60
     1
100
AcDbText
 10
408.4999999999998
 20
8.5
 30
0.0
 40
2.5
  1
!GENTITLE-INSERT
100
AcDbText
  0
TEXT
  5
BC71
330
1F
100
AcDbEntity
  8
AM_6
 60
     1
100
AcDbText
 10
0.0
 20
0.0
 30
0.0
 40
2.5
  1
!GENTITLE-LL
100
AcDbText
  0
TEXT
  5
BC72
330
1F
100
AcDbEntity
  8
AM_6
 60
     1
100
AcDbText
 10
420.0
 20
297.0
 30
0.0
 40
2.5
  1
!GENTITLE-RU
100
AcDbText
  0
TEXT
  5
BC73
330
1F
100
AcDbEntity
  8
AM_6
 60
     1
100
AcDbText
 10
420.0
 20
297.0
 30
0.0
 40
2.5
  1
!GENTITLE-MAX
100
AcDbText
  0
LINE
  5
BC74
330
1F
100
AcDbEntity
  8
size
100
AcDbLine
 10
0.0
 20
0.0
 30
0.0
 11
420.0
 21
0.0
 31
0.0
1001
GENIUS_GENREC_14
1002
{
1000
PYDIR
1011
0.0000000000000178
1021
297.0
1031
0.0
1002
}
1002
{
1000
PXDIR
1011
420.0
1021
0.0
1031
0.0
1002
}
1002
{
1000
PORI
1011
0.0
1021
0.0
1031
0.0
1002
}
1002
{
1000
PINS
1011
210.0
1021
148.4999999999999
1031
0.0
1002
}
1002
{
1000
HVAL
1000
297
1002
}
1002
{
1000
H
1070
     2
1002
}
1002
{
1000
WVAL
1000
420
1002
}
1002
{
1000
W
1070
     2
1002
}
1002
{
1000
C
1070
     4
1002
}
1001
GENIUS_GENOBJ-N-REC_13
1002
{
1000
OWNER
1000
GEN
1002
}
1001
GENIUS_GENODEF_13
1002
{
1000
HIER
1070
     0
1002
}
1002
{
1000
MANEDIT
1070
     0
1002
}
1002
{
1000
NOSEL
1070
     0
1002
}
1002
{
1000
BEHIND
1070
     0
1002
}
1002
{
1000
OTHER
1070
     0
1002
}
1002
{
1000
REACTOR
1002
}
  0
LINE
  5
BC75
330
1F
100
AcDbEntity
  8
size
100
AcDbLine
 10
420.0
 20
0.0
 30
0.0
 11
420.0
 21
297.0
 31
0.0
1001
GENIUS_GENREC_14
1002
{
1000
PYDIR
1011
0.0000000000000178
1021
297.0
1031
0.0
1002
}
1002
{
1000
PXDIR
1011
420.0
1021
0.0
1031
0.0
1002
}
1002
{
1000
PORI
1011
0.0
1021
0.0
1031
0.0
1002
}
1002
{
1000
PINS
1011
210.0
1021
148.4999999999999
1031
0.0
1002
}
1002
{
1000
HVAL
1000
297
1002
}
1002
{
1000
H
1070
     2
1002
}
1002
{
1000
WVAL
1000
420
1002
}
1002
{
1000
W
1070
     2
1002
}
1002
{
1000
C
1070
     4
1002
}
1001
GENIUS_GENOBJ-N-REC_13
1002
{
1000
OWNER
1000
GEN
1002
}
1001
GENIUS_GENODEF_13
1002
{
1000
HIER
1070
     0
1002
}
1002
{
1000
MANEDIT
1070
     0
1002
}
1002
{
1000
NOSEL
1070
     0
1002
}
1002
{
1000
BEHIND
1070
     0
1002
}
1002
{
1000
OTHER
1070
     0
1002
}
1002
{
1000
REACTOR
1002
}
  0
LINE
  5
BC76
330
1F
100
AcDbEntity
  8
size
100
AcDbLine
 10
420.0
 20
297.0
 30
0.0
 11
0.0000000000000275
 21
297.0
 31
0.0
1001
GENIUS_GENREC_14
1002
{
1000
PYDIR
1011
0.0000000000000178
1021
297.0
1031
0.0
1002
}
1002
{
1000
PXDIR
1011
420.0
1021
0.0
1031
0.0
1002
}
1002
{
1000
PORI
1011
0.0
1021
0.0
1031
0.0
1002
}
1002
{
1000
PINS
1011
210.0
1021
148.4999999999999
1031
0.0
1002
}
1002
{
1000
HVAL
1000
297
1002
}
1002
{
1000
H
1070
     2
1002
}
1002
{
1000
WVAL
1000
420
1002
}
1002
{
1000
W
1070
     2
1002
}
1002
{
1000
C
1070
     4
1002
}
1001
GENIUS_GENOBJ-N-REC_13
1002
{
1000
OWNER
1000
GEN
1002
}
1001
GENIUS_GENODEF_13
1002
{
1000
HIER
1070
     0
1002
}
1002
{
1000
MANEDIT
1070
     0
1002
}
1002
{
1000
NOSEL
1070
     0
1002
}
1002
{
1000
BEHIND
1070
     0
1002
}
1002
{
1000
OTHER
1070
     0
1002
}
1002
{
1000
REACTOR
1002
}
  0
LINE
  5
BC77
330
1F
100
AcDbEntity
  8
size
100
AcDbLine
 10
0.0000000000000275
 20
297.0
 30
0.0
 11
0.0
 21
0.0
 31
0.0
1001
GENIUS_GENREC_14
1002
{
1000
PYDIR
1011
0.0000000000000178
1021
297.0
1031
0.0
1002
}
1002
{
1000
PXDIR
1011
420.0
1021
0.0
1031
0.0
1002
}
1002
{
1000
PORI
1011
0.0
1021
0.0
1031
0.0
1002
}
1002
{
1000
PINS
1011
210.0
1021
148.4999999999999
1031
0.0
1002
}
1002
{
1000
HVAL
1000
297
1002
}
1002
{
1000
H
1070
     2
1002
}
1002
{
1000
WVAL
1000
420
1002
}
1002
{
1000
W
1070
     2
1002
}
1002
{
1000
C
1070
     4
1002
}
1001
GENIUS_GENOBJ-N-REC_13
1002
{
1000
OWNER
1000
GEN
1002
}
1001
GENIUS_GENODEF_13
1002
{
1000
HIER
1070
     0
1002
}
1002
{
1000
MANEDIT
1070
     0
1002
}
1002
{
1000
NOSEL
1070
     0
1002
}
1002
{
1000
BEHIND
1070
     0
1002
}
1002
{
1000
OTHER
1070
     0
1002
}
1002
{
1000
REACTOR
1002
}
  0
LINE
  5
BC78
330
1F
100
AcDbEntity
  8
waku
100
AcDbLine
 10
408.4999999999998
 20
8.5
 30
0.0
 11
408.4999999999998
 21
288.5
 31
0.0
1001
GENIUS_GENREC_14
1002
{
1000
PYDIR
1011
0.0000000000000178
1021
297.0
1031
0.0
1002
}
1002
{
1000
PXDIR
1011
420.0
1021
0.0
1031
0.0
1002
}
1002
{
1000
PORI
1011
0.0
1021
0.0
1031
0.0
1002
}
1002
{
1000
PINS
1011
210.0
1021
148.4999999999999
1031
0.0
1002
}
1002
{
1000
HVAL
1000
297
1002
}
1002
{
1000
H
1070
     2
1002
}
1002
{
1000
WVAL
1000
420
1002
}
1002
{
1000
W
1070
     2
1002
}
1002
{
1000
C
1070
     4
1002
}
1001
GENIUS_GENOBJ-N-REC_13
1002
{
1000
OWNER
1000
GEN
1002
}
1001
GENIUS_GENODEF_13
1002
{
1000
HIER
1070
     0
1002
}
1002
{
1000
MANEDIT
1070
     0
1002
}
1002
{
1000
NOSEL
1070
     0
1002
}
1002
{
1000
BEHIND
1070
     0
1002
}
1002
{
1000
OTHER
1070
     0
1002
}
1002
{
1000
REACTOR
1002
}
  0
LINE
  5
BC79
330
1F
100
AcDbEntity
  8
waku
100
AcDbLine
 10
11.50000000000002
 20
288.5
 30
0.0
 11
11.5
 21
8.5
 31
0.0
1001
GENIUS_GENREC_14
1002
{
1000
PYDIR
1011
0.0000000000000178
1021
297.0
1031
0.0
1002
}
1002
{
1000
PXDIR
1011
420.0
1021
0.0
1031
0.0
1002
}
1002
{
1000
PORI
1011
0.0
1021
0.0
1031
0.0
1002
}
1002
{
1000
PINS
1011
210.0
1021
148.4999999999999
1031
0.0
1002
}
1002
{
1000
HVAL
1000
297
1002
}
1002
{
1000
H
1070
     2
1002
}
1002
{
1000
WVAL
1000
420
1002
}
1002
{
1000
W
1070
     2
1002
}
1002
{
1000
C
1070
     4
1002
}
1001
GENIUS_GENOBJ-N-REC_13
1002
{
1000
OWNER
1000
GEN
1002
}
1001
GENIUS_GENODEF_13
1002
{
1000
HIER
1070
     0
1002
}
1002
{
1000
MANEDIT
1070
     0
1002
}
1002
{
1000
NOSEL
1070
     0
1002
}
1002
{
1000
BEHIND
1070
     0
1002
}
1002
{
1000
OTHER
1070
     0
1002
}
1002
{
1000
REACTOR
1002
}
  0
LINE
  5
BC7A
330
1F
100
AcDbEntity
  8
waku
100
AcDbLine
 10
408.4999999999998
 20
288.5
 30
0.0
 11
11.50000000000002
 21
288.5
 31
0.0
1001
GENIUS_GENREC_14
1002
{
1000
PYDIR
1011
0.0000000000000178
1021
297.0
1031
0.0
1002
}
1002
{
1000
PXDIR
1011
420.0
1021
0.0
1031
0.0
1002
}
1002
{
1000
PORI
1011
0.0
1021
0.0
1031
0.0
1002
}
1002
{
1000
PINS
1011
210.0
1021
148.4999999999999
1031
0.0
1002
}
1002
{
1000
HVAL
1000
297
1002
}
1002
{
1000
H
1070
     2
1002
}
1002
{
1000
WVAL
1000
420
1002
}
1002
{
1000
W
1070
     2
1002
}
1002
{
1000
C
1070
     4
1002
}
1001
GENIUS_GENOBJ-N-REC_13
1002
{
1000
OWNER
1000
GEN
1002
}
1001
GENIUS_GENODEF_13
1002
{
1000
HIER
1070
     0
1002
}
1002
{
1000
MANEDIT
1070
     0
1002
}
1002
{
1000
NOSEL
1070
     0
1002
}
1002
{
1000
BEHIND
1070
     0
1002
}
1002
{
1000
OTHER
1070
     0
1002
}
1002
{
1000
REACTOR
1002
}
  0
TEXT
  5
BC7B
330
1F
100
AcDbEntity
  8
AM_6
 60
     1
100
AcDbText
 10
0.0
 20
0.0
 30
0.0
 40
2.5
  1
!GENTITLE-LL
100
AcDbText
  0
TEXT
  5
BC7C
330
1F
100
AcDbEntity
  8
AM_6
 60
     1
100
AcDbText
 10
408.4999999999998
 20
288.5
 30
0.0
 40
2.5
  1
!GENTITLE-RU
100
AcDbText
  0
TEXT
  5
BC7D
330
1F
100
AcDbEntity
  8
AM_6
 60
     1
100
AcDbText
 10
420.0
 20
297.0
 30
0.0
 40
2.5
  1
!GENTITLE-MAX
100
AcDbText
  0
TEXT
  5
BC7E
330
1F
100
AcDbEntity
  8
AM_6
 60
     1
100
AcDbText
 10
408.4999999999998
 20
8.5
 30
0.0
 40
2.5
  1
!GENTITLE-INSERT
100
AcDbText
  0
LINE
  5
BC7F
330
1F
100
AcDbEntity
  8
waku
100
AcDbLine
 10
11.5
 20
8.5
 30
0.0
 11
408.4999999999998
 21
8.5
 31
0.0
  0
LINE
  5
C85F
330
1F
100
AcDbEntity
  8
AM_2
100
AcDbLine
 10
31.5
 20
288.5
 30
0.0
 11
31.5
 21
208.5
 31
0.0
  0
LINE
  5
C860
330
1F
100
AcDbEntity
  8
AM_2
100
AcDbLine
 10
11.5
 20
280.5
 30
0.0
 11
121.5
 21
280.5
 31
0.0
  0
LINE
  5
C861
330
1F
100
AcDbEntity
  8
AM_2
100
AcDbLine
 10
11.5
 20
272.5
 30
0.0
 11
121.5
 21
272.5
 31
0.0
  0
LINE
  5
C862
330
1F
100
AcDbEntity
  8
AM_2
100
AcDbLine
 10
11.5
 20
256.5
 30
0.0
 11
121.5
 21
256.5
 31
0.0
  0
LINE
  5
C863
330
1F
100
AcDbEntity
  8
AM_2
100
AcDbLine
 10
31.5
 20
248.5
 30
0.0
 11
121.5
 21
248.5
 31
0.0
  0
LINE
  5
C866
330
1F
100
AcDbEntity
  8
AM_2
100
AcDbLine
 10
11.5
 20
224.5
 30
0.0
 11
121.5
 21
224.5
 31
0.0
  0
LINE
  5
C867
330
1F
100
AcDbEntity
  8
AM_2
100
AcDbLine
 10
31.5
 20
216.5
 30
0.0
 11
121.5
 21
216.5
 31
0.0
  0
LINE
  5
C86A
330
1F
100
AcDbEntity
  8
AM_0
100
AcDbLine
 10
11.5
 20
288.5
 30
0.0
 11
11.5
 21
208.5
 31
0.0
  0
LINE
  5
C86B
330
1F
100
AcDbEntity
  8
AM_0
100
AcDbLine
 10
11.5
 20
288.5
 30
0.0
 11
121.5
 21
288.5
 31
0.0
  0
LINE
  5
C86C
330
1F
100
AcDbEntity
  8
AM_0
100
AcDbLine
 10
121.5
 20
288.5
 30
0.0
 11
121.5
 21
208.5
 31
0.0
  0
LINE
  5
C86D
330
1F
100
AcDbEntity
  8
AM_2
100
AcDbLine
 10
11.5
 20
240.5
 30
0.0
 11
121.5
 21
240.5
 31
0.0
  0
LINE
  5
C86E
330
1F
100
AcDbEntity
  8
AM_2
100
AcDbLine
 10
11.5
 20
232.5
 30
0.0
 11
121.5
 21
232.5
 31
0.0
  0
LINE
  5
C870
330
1F
100
AcDbEntity
  8
AM_2
100
AcDbLine
 10
31.5
 20
264.5
 30
0.0
 11
121.5
 21
264.5
 31
0.0
  0
LINE
  5
C900
330
1F
100
AcDbEntity
  8
AM_0
100
AcDbLine
 10
11.5
 20
208.5
 30
0.0
 11
121.5
 21
208.5
 31
0.0
  0
TEXT
  5
C92A
330
1F
100
AcDbEntity
  8
AM_6
100
AcDbText
 10
34.35699999999997
 20
218.9
 30
0.0
 40
3.2
  1
※軸受：DUドライベアリング
 41
0.8419614499999998
100
AcDbText
  0
TEXT
  5
C92B
330
1F
100
AcDbEntity
  8
AM_6
100
AcDbText
 10
17.15700000000004
 20
282.9
 30
0.0
 40
3.2
  1
品　名
 41
0.85537027
100
AcDbText
  0
TEXT
  5
C92C
330
1F
100
AcDbEntity
  8
AM_6
100
AcDbText
 10
17.15700000000004
 20
274.9
 30
0.0
 40
3.2
  1
品　番
 41
0.85537027
100
AcDbText
  0
TEXT
  5
C92D
330
1F
100
AcDbEntity
  8
AM_6
100
AcDbText
 10
17.15700000000004
 20
266.9
 30
0.0
 40
3.2
  1
材　質
 41
0.85537027
100
AcDbText
  0
TEXT
  5
C92E
330
1F
100
AcDbEntity
  8
AM_6
100
AcDbText
 10
17.15700000000004
 20
250.9
 30
0.0
 40
3.2
  1
仕上げ
 41
0.85537027
100
AcDbText
  0
TEXT
  5
C931
330
1F
100
AcDbEntity
  8
AM_6
100
AcDbText
 10
13.95699999999999
 20
226.9
 30
0.0
 40
3.2
  1
セットビス
 41
0.84892707
100
AcDbText
  0
TEXT
  5
C933
330
1F
100
AcDbEntity
  8
AM_6
100
AcDbText
 10
18.757
 20
218.9
 30
0.0
 40
3.2
  1
備考
 41
0.8643907499999999
100
AcDbText
  0
TEXT
  5
C934
330
1F
100
AcDbEntity
  8
AM_6
100
AcDbText
 10
15.55700000000001
 20
234.9
 30
0.0
 40
3.2
  1
左右勝手
 41
0.8512700499999999
100
AcDbText
  0
TEXT
  5
C935
330
1F
100
AcDbEntity
  8
AM_6
100
AcDbText
 10
34.35699999999997
 20
282.9
 30
0.0
 40
3.2
  1
調整戸車
 41
0.8512700499999999
100
AcDbText
  0
TEXT
  5
C936
330
1F
100
AcDbEntity
  8
AM_6
100
AcDbText
 10
34.35699999999997
 20
274.9
 30
0.0
 40
3.2
  1
ST-518-1
 41
0.84741102
100
AcDbText
  0
TEXT
  5
C937
330
1F
100
AcDbEntity
  8
AM_6
100
AcDbText
 10
34.35699999999997
 20
266.9
 30
0.0
 40
3.2
  1
枠：スチール
 41
0.84741102
100
AcDbText
  0
TEXT
  5
C938
330
1F
100
AcDbEntity
  8
AM_6
100
AcDbText
 10
34.35699999999997
 20
250.9
 30
0.0
 40
3.2
  1
枠：有色クロメート
 41
0.84496202
100
AcDbText
  0
TEXT
  5
C93B
330
1F
100
AcDbEntity
  8
AM_6
100
AcDbText
 10
34.35699999999997
 20
242.9
 30
0.0
 40
3.2
  1
車：生地
 41
0.8512700499999999
100
AcDbText
  0
TEXT
  5
CA2F
330
1F
100
AcDbEntity
  8
AM_6
100
AcDbText
 10
34.35699999999997
 20
210.9
 30
0.0
 40
3.2
  1
※標準耐荷重：40kg／2個
 41
0.84350122
100
AcDbText
  0
TEXT
  5
CA46
330
1F
100
AcDbEntity
  8
AM_6
100
AcDbText
 10
34.12144999999998
 20
234.86617
 30
0.0
 40
3.2
  1
無し
 41
0.90047268
100
AcDbText
  0
TEXT
  5
CA47
330
1F
100
AcDbEntity
  8
AM_6
100
AcDbText
 10
34.12144999999998
 20
226.86617
 30
0.0
 40
3.2
  1
無し
 41
0.90047268
100
AcDbText
  0
LINE
  5
D50B
330
1F
100
AcDbEntity
  8
AM_0
100
AcDbLine
 10
227.3136512422543
 20
198.5504164756011
 30
0.0
 11
292.7136442422543
 21
198.5504164756011
 31
0.0
  0
LINE
  5
D50C
330
1F
100
AcDbEntity
  8
AM_0
100
AcDbLine
 10
226.1136502422543
 20
215.7504134756012
 30
0.0
 11
292.7136442422543
 21
215.7504134756012
 31
0.0
  0
LINE
  5
D50D
330
1F
100
AcDbEntity
  8
AM_0
100
AcDbLine
 10
208.9136452422543
 20
217.6504144756012
 30
0.0
 11
222.9136452422543
 21
217.6504144756012
 31
0.0
  0
LINE
  5
D50E
330
1F
100
AcDbEntity
  8
AM_7
 48
0.5
100
AcDbLine
 10
302.9136442422543
 20
212.1504144756012
 30
0.0
 11
302.9136442422543
 21
202.1504144756012
 31
0.0
  0
LINE
  5
D50F
330
1F
100
AcDbEntity
  8
AM_0
100
AcDbLine
 10
224.9136492422543
 20
214.5504164756011
 30
0.0
 11
224.9136492422543
 21
199.650414475601
 31
0.0
  0
LINE
  5
D510
330
1F
100
AcDbEntity
  8
AM_0
100
AcDbLine
 10
259.3606972422543
 20
213.3504114756012
 30
0.0
 11
274.2665962422543
 21
213.3504114756012
 31
0.0
  0
LINE
  5
D511
330
1F
100
AcDbEntity
  8
AM_0
100
AcDbLine
 10
288.1636442422543
 20
100.0406004756011
 30
0.0
 11
268.6636452422543
 21
100.0406004756011
 31
0.0
  0
LINE
  5
D512
330
1F
100
AcDbEntity
  8
AM_0
100
AcDbLine
 10
222.9136452422543
 20
214.6504144756012
 30
0.0
 11
222.9136452422543
 21
217.6504144756012
 31
0.0
  0
LINE
  5
D513
330
1F
100
AcDbEntity
  8
AM_0
100
AcDbLine
 10
229.9136492422543
 20
108.5406044756011
 30
0.0
 11
229.9136492422543
 21
102.0406004756011
 31
0.0
  0
LINE
  5
D514
330
1F
100
AcDbEntity
  8
AM_0
100
AcDbLine
 10
137.7136452422543
 20
92.04060047560114
 30
0.0
 11
135.9636452422543
 21
92.04060047560114
 31
0.0
  0
LINE
  5
D515
330
1F
100
AcDbEntity
  8
AM_7
100
AcDbLine
 10
266.4136447422543
 20
137.454251418646
 30
0.0
 11
266.4136447422543
 21
88.62694953255623
 31
0.0
  0
LINE
  5
D516
330
1F
100
AcDbEntity
  8
AM_0
100
AcDbLine
 10
268.6636452422543
 20
116.2906004756011
 30
0.0
 11
268.6636452422543
 21
100.0406004756011
 31
0.0
  0
LINE
  5
D517
330
1F
100
AcDbEntity
  8
AM_0
100
AcDbLine
 10
264.1636452422543
 20
116.2906004756011
 30
0.0
 11
264.1636452422543
 21
100.0406004756011
 31
0.0
  0
LINE
  5
D518
330
1F
100
AcDbEntity
  8
AM_0
100
AcDbLine
 10
264.1636452422543
 20
100.0406004756011
 30
0.0
 11
231.9136492422543
 21
100.0406004756011
 31
0.0
  0
LINE
  5
D519
330
1F
100
AcDbEntity
  8
AM_0
100
AcDbLine
 10
293.9136442422543
 20
199.6504144756011
 30
0.0
 11
308.9136342422543
 21
199.6504144756011
 31
0.0
  0
LINE
  5
D51A
330
1F
100
AcDbEntity
  8
AM_0
100
AcDbLine
 10
276.5201522422543
 20
215.6039664756011
 30
0.0
 11
274.2666042422543
 21
213.3504194756012
 31
0.0
  0
LINE
  5
D51B
330
1F
100
AcDbEntity
  8
AM_0
100
AcDbLine
 10
293.9136442422543
 20
140.0405971756011
 30
0.0
 11
224.9136492422543
 21
140.0405971756011
 31
0.0
  0
LINE
  5
D51C
330
1F
100
AcDbEntity
  8
AM_0
100
AcDbLine
 10
292.7136442422543
 20
214.5504164756011
 30
0.0
 11
292.7136442422543
 21
199.7504204756012
 31
0.0
  0
LINE
  5
D51D
330
1F
100
AcDbEntity
  8
AM_0
100
AcDbLine
 10
267.7041962422543
 20
114.8837044756012
 30
0.0
 11
264.4157432422543
 21
117.1863014756011
 31
0.0
  0
LINE
  5
D51E
330
1F
100
AcDbEntity
  8
AM_7
 48
1.199999999999999
100
AcDbLine
 10
205.0369234490149
 20
207.1504144756012
 30
0.0
 11
313.3399604279842
 21
207.1504144756012
 31
0.0
  0
LINE
  5
D51F
330
1F
100
AcDbEntity
  8
AM_0
100
AcDbLine
 10
276.5201752422543
 20
198.6968924756011
 30
0.0
 11
274.2666272422543
 21
200.9504404756011
 31
0.0
  0
LINE
  5
D520
330
1F
100
AcDbEntity
  8
AM_0
100
AcDbLine
 10
245.4136452422543
 20
212.1504144756012
 30
0.0
 11
287.4136442422543
 21
212.1504144756012
 31
0.0
  0
LINE
  5
D521
330
1F
100
AcDbEntity
  8
AM_7
100
AcDbLine
 10
132.7136452422543
 20
143.0405971756011
 30
0.0
 11
132.7136452422543
 21
87.16269047560116
 31
0.0
  0
LINE
  5
D524
330
1F
100
AcDbEntity
  8
AM_0
100
AcDbLine
 10
141.3136432422543
 20
100.0406004756011
 30
0.0
 11
124.1136462422542
 21
100.0406004756011
 31
0.0
  0
LINE
  5
D525
330
1F
100
AcDbEntity
  8
AM_0
100
AcDbLine
 10
293.9136442422543
 20
214.5504164756011
 30
0.0
 11
293.9136442422543
 21
199.750413475601
 31
0.0
  0
LINE
  5
D526
330
1F
100
AcDbEntity
  8
AM_0
100
AcDbLine
 10
137.7136452422543
 20
100.0406004756011
 30
0.0
 11
137.7136452422543
 21
92.04060047560114
 31
0.0
  0
LINE
  5
D527
330
1F
100
AcDbEntity
  8
AM_0
100
AcDbLine
 10
287.4136442422543
 20
212.1504144756012
 30
0.0
 11
287.4136442422543
 21
210.4004144756012
 31
0.0
  0
LINE
  5
D528
330
1F
100
AcDbEntity
  8
AM_0
100
AcDbLine
 10
287.4136442422543
 20
203.9004144756012
 30
0.0
 11
287.4136442422543
 21
202.1504144756012
 31
0.0
  0
LINE
  5
D529
330
1F
100
AcDbEntity
  8
AM_0
100
AcDbLine
 10
277.1636532422543
 20
199.7504204756012
 30
0.0
 11
292.7136442422543
 21
199.7504204756012
 31
0.0
  0
LINE
  5
D52A
330
1F
100
AcDbEntity
  8
AM_0
100
AcDbLine
 10
245.4136452422543
 20
210.4004144756012
 30
0.0
 11
287.4136442422543
 21
210.4004144756012
 31
0.0
  0
LINE
  5
D52B
330
1F
100
AcDbEntity
  8
AM_0
100
AcDbLine
 10
245.4136452422543
 20
203.9004144756012
 30
0.0
 11
287.4136442422543
 21
203.9004144756012
 31
0.0
  0
LINE
  5
D52C
330
1F
100
AcDbEntity
  8
AM_0
100
AcDbLine
 10
245.4136452422543
 20
202.1504144756012
 30
0.0
 11
287.4136442422543
 21
202.1504144756012
 31
0.0
  0
LINE
  5
D52D
330
1F
100
AcDbEntity
  8
AM_0
100
AcDbLine
 10
208.9136452422543
 20
199.6504144756011
 30
0.0
 11
226.1178250843204
 21
199.6504144756011
 31
0.0
  0
LINE
  5
D52E
330
1F
100
AcDbEntity
  8
AM_0
100
AcDbLine
 10
293.9136442422543
 20
214.6504144756012
 30
0.0
 11
308.9136342422543
 21
214.6504144756012
 31
0.0
  0
LINE
  5
D52F
330
1F
100
AcDbEntity
  8
AM_0
100
AcDbLine
 10
226.1136502422543
 20
214.5504164756011
 30
0.0
 11
226.1136502422543
 21
199.750413475601
 31
0.0
  0
LINE
  5
D530
330
1F
100
AcDbEntity
  8
AM_0
100
AcDbLine
 10
122.1136462422542
 20
108.5406044756011
 30
0.0
 11
141.3136432422543
 21
108.5406044756011
 31
0.0
  0
LINE
  5
D531
330
1F
100
AcDbEntity
  8
AM_0
100
AcDbLine
 10
141.3136432422543
 20
140.0405971756011
 30
0.0
 11
124.1136462422542
 21
140.0405971756011
 31
0.0
  0
LINE
  5
D532
330
1F
100
AcDbEntity
  8
AM_0
100
AcDbLine
 10
140.1136462422543
 20
140.0405971756011
 30
0.0
 11
140.1136462422543
 21
100.0406004756011
 31
0.0
  0
LINE
  5
D533
330
1F
100
AcDbEntity
  8
AM_0
100
AcDbLine
 10
277.1636532422543
 20
214.5504084756012
 30
0.0
 11
274.7636592422543
 21
212.1504144756012
 31
0.0
  0
LINE
  5
D534
330
1F
100
AcDbEntity
  8
AM_0
100
AcDbLine
 10
208.9136452422543
 20
105.3406044756011
 30
0.0
 11
208.9136452422543
 21
108.5406044756011
 31
0.0
  0
LINE
  5
D535
330
1F
100
AcDbEntity
  8
AM_0
100
AcDbLine
 10
226.1136502422543
 20
140.0405971756011
 30
0.0
 11
226.1136502422543
 21
108.5406024756011
 31
0.0
  0
LINE
  5
D536
330
1F
100
AcDbEntity
  8
AM_0
100
AcDbLine
 10
268.6636532422543
 20
108.7183924756011
 30
0.0
 11
265.1230952422543
 21
111.1975164756011
 31
0.0
  0
LINE
  5
D537
330
1F
100
AcDbEntity
  8
AM_0
100
AcDbLine
 10
293.9136342422543
 20
110.5405874756012
 30
0.0
 11
295.9136242422543
 21
108.5405954756011
 31
0.0
  0
LINE
  5
D538
330
1F
100
AcDbEntity
  8
AM_0
100
AcDbLine
 10
268.6636452422543
 20
105.0406004756011
 30
0.0
 11
264.1636452422543
 21
105.0406004756011
 31
0.0
  0
LINE
  5
D539
330
1F
100
AcDbEntity
  8
AM_0
100
AcDbLine
 10
308.9136342422543
 20
105.0406024756011
 30
0.0
 11
308.9136342422543
 21
108.5406044756011
 31
0.0
  0
LINE
  5
D53A
330
1F
100
AcDbEntity
  8
AM_0
100
AcDbLine
 10
122.1136462422542
 20
108.5406044756011
 30
0.0
 11
122.1136462422542
 21
105.0406024756011
 31
0.0
  0
LINE
  5
D53D
330
1F
100
AcDbEntity
  8
AM_0
100
AcDbLine
 10
276.6636452422543
 20
134.5405999756011
 30
0.0
 11
256.1636452422543
 21
134.5405999756011
 31
0.0
  0
LINE
  5
D53E
330
1F
100
AcDbEntity
  8
AM_0
100
AcDbLine
 10
224.9136492422543
 20
140.0405971756011
 30
0.0
 11
224.9136492422543
 21
108.5406044756011
 31
0.0
  0
LINE
  5
D541
330
1F
100
AcDbEntity
  8
AM_0
100
AcDbLine
 10
141.3136432422543
 20
140.0405971756011
 30
0.0
 11
141.3136432422543
 21
100.0406004756011
 31
0.0
  0
LINE
  5
D542
330
1F
100
AcDbEntity
  8
AM_0
100
AcDbLine
 10
124.1136462422542
 20
140.0405971756011
 30
0.0
 11
124.1136462422542
 21
108.5406044756011
 31
0.0
  0
LINE
  5
D543
330
1F
100
AcDbEntity
  8
AM_0
100
AcDbLine
 10
122.1136462422542
 20
107.3406044756011
 30
0.0
 11
140.1136462422543
 21
107.3406044756011
 31
0.0
  0
LINE
  5
D544
330
1F
100
AcDbEntity
  8
AM_0
100
AcDbLine
 10
245.4136452422543
 20
212.1504144756012
 30
0.0
 11
245.4136452422543
 21
210.4004144756012
 31
0.0
  0
LINE
  5
D545
330
1F
100
AcDbEntity
  8
AM_0
100
AcDbLine
 10
293.9136342422543
 20
140.0405971756011
 30
0.0
 11
293.9136342422543
 21
108.5406044756011
 31
0.0
  0
LINE
  5
D546
330
1F
100
AcDbEntity
  8
AM_0
100
AcDbLine
 10
135.9636452422543
 20
100.0406004756011
 30
0.0
 11
135.9636452422543
 21
92.04060047560114
 31
0.0
  0
LINE
  5
D547
330
1F
100
AcDbEntity
  8
AM_0
100
AcDbLine
 10
208.9136452422543
 20
108.5406044756011
 30
0.0
 11
224.9136492422543
 21
108.5406044756011
 31
0.0
  0
LINE
  5
D548
330
1F
100
AcDbEntity
  8
AM_0
100
AcDbLine
 10
208.9136452422543
 20
107.3406044756011
 30
0.0
 11
227.3136512422543
 21
107.3406044756011
 31
0.0
  0
LINE
  5
D549
330
1F
100
AcDbEntity
  8
AM_0
100
AcDbLine
 10
129.4636452422543
 20
92.04060047560114
 30
0.0
 11
127.7136452422543
 21
92.04060047560114
 31
0.0
  0
LINE
  5
D54A
330
1F
100
AcDbEntity
  8
AM_0
100
AcDbLine
 10
308.9136342422543
 20
107.3406044756011
 30
0.0
 11
292.7136442422543
 21
107.3406044756011
 31
0.0
  0
LINE
  5
D54B
330
1F
100
AcDbEntity
  8
AM_0
100
AcDbLine
 10
308.9136342422543
 20
108.5406044756011
 30
0.0
 11
290.1636442422543
 21
108.5406044756011
 31
0.0
  0
LINE
  5
D54C
330
1F
100
AcDbEntity
  8
AM_0
100
AcDbLine
 10
129.4636452422543
 20
100.0406004756011
 30
0.0
 11
129.4636452422543
 21
92.04060047560114
 31
0.0
  0
LINE
  5
D54D
330
1F
100
AcDbEntity
  8
AM_0
100
AcDbLine
 10
127.7136452422543
 20
100.0406004756011
 30
0.0
 11
127.7136452422543
 21
92.04060047560114
 31
0.0
  0
LINE
  5
D54E
330
1F
100
AcDbEntity
  8
AM_0
100
AcDbLine
 10
290.1636442422543
 20
108.5406044756011
 30
0.0
 11
290.1636442422543
 21
102.0406004756011
 31
0.0
  0
LINE
  5
D54F
330
1F
100
AcDbEntity
  8
AM_7
100
AcDbLine
 10
288.9136442422543
 20
113.0406004756011
 30
0.0
 11
243.9136452422543
 21
113.0406004756011
 31
0.0
  0
LINE
  5
D550
330
1F
100
AcDbEntity
  8
AM_0
100
AcDbLine
 10
124.1136462422542
 20
105.0406024756011
 30
0.0
 11
124.1136462422542
 21
100.0406004756011
 31
0.0
  0
LINE
  5
D551
330
1F
100
AcDbEntity
  8
AM_7
100
AcDbLine
 10
142.7136452422543
 20
128.5405999756011
 30
0.0
 11
122.7136452422542
 21
128.5405999756011
 31
0.0
  0
LINE
  5
D552
330
1F
100
AcDbEntity
  8
AM_0
100
AcDbLine
 10
277.1636612422543
 20
214.5504164756011
 30
0.0
 11
292.7136442422543
 21
214.5504164756011
 31
0.0
  0
LINE
  5
D553
330
1F
100
AcDbEntity
  8
AM_0
100
AcDbLine
 10
245.4136452422543
 20
203.9004144756012
 30
0.0
 11
245.4136452422543
 21
202.1504144756012
 31
0.0
  0
LINE
  5
D554
330
1F
100
AcDbEntity
  8
AM_0
100
AcDbLine
 10
226.1136502422543
 20
108.5406044756011
 30
0.0
 11
229.9136492422543
 21
108.5406044756011
 31
0.0
  0
LINE
  5
D555
330
1F
100
AcDbEntity
  8
AM_0
100
AcDbLine
 10
308.9136342422543
 20
214.6504144756012
 30
0.0
 11
308.9136342422543
 21
199.6504144756011
 31
0.0
  0
LINE
  5
D556
330
1F
100
AcDbEntity
  8
AM_0
100
AcDbLine
 10
208.9136452422543
 20
199.6504144756011
 30
0.0
 11
208.9136452422543
 21
217.6504144756012
 31
0.0
  0
LINE
  5
D557
330
1F
100
AcDbEntity
  8
AM_0
100
AcDbLine
 10
257.1071652422542
 20
215.6039974756012
 30
0.0
 11
259.3607202422543
 21
213.3504424756011
 31
0.0
  0
LINE
  5
D558
330
1F
100
AcDbEntity
  8
AM_0
100
AcDbLine
 10
256.4636642422542
 20
214.5504464756012
 30
0.0
 11
258.8636962422541
 21
212.1504144756011
 31
0.0
  0
LINE
  5
D559
330
1F
100
AcDbEntity
  8
AM_0
100
AcDbLine
 10
222.9136452422543
 20
214.6504144756012
 30
0.0
 11
224.9178240006974
 21
214.6504144756012
 31
0.0
  0
LINE
  5
D55A
330
1F
100
AcDbEntity
  8
AM_0
100
AcDbLine
 10
227.3136512422543
 20
213.3504194756012
 30
0.0
 11
227.3136512422543
 21
199.750413475601
 31
0.0
  0
LINE
  5
D55B
330
1F
100
AcDbEntity
  8
AM_0
100
AcDbLine
 10
226.1136502422543
 20
213.3504194756012
 30
0.0
 11
227.3136512422543
 21
213.3504194756012
 31
0.0
  0
LINE
  5
D55C
330
1F
100
AcDbEntity
  8
AM_0
100
AcDbLine
 10
226.1136502422543
 20
214.5504164756011
 30
0.0
 11
256.4636412422543
 21
214.5504164756011
 31
0.0
  0
LINE
  5
D55D
330
1F
100
AcDbEntity
  8
AM_0
100
AcDbLine
 10
238.0136512422543
 20
213.3504194756012
 30
0.0
 11
238.0136512422543
 21
200.9504174756011
 31
0.0
  0
LINE
  5
D55E
330
1F
100
AcDbEntity
  8
AM_0
100
AcDbLine
 10
239.2136522422543
 20
213.3504194756012
 30
0.0
 11
239.2136522422543
 21
200.9504174756011
 31
0.0
  0
LINE
  5
D55F
330
1F
100
AcDbEntity
  8
AM_0
100
AcDbLine
 10
277.1636762422543
 20
199.7504434756011
 30
0.0
 11
274.7636902422542
 21
202.1504374756012
 31
0.0
  0
LINE
  5
D560
330
1F
100
AcDbEntity
  8
AM_0
100
AcDbLine
 10
239.2136522422543
 20
213.3504194756012
 30
0.0
 11
257.6636302422543
 21
213.3504194756012
 31
0.0
  0
LINE
  5
D561
330
1F
100
AcDbEntity
  8
AM_0
100
AcDbLine
 10
257.1071502422543
 20
198.6968624756011
 30
0.0
 11
259.3606972422543
 21
200.9504174756011
 31
0.0
  0
LINE
  5
D562
330
1F
100
AcDbEntity
  8
AM_0
100
AcDbLine
 10
259.3606972422543
 20
200.9504174756011
 30
0.0
 11
274.2665962422543
 21
200.9504174756011
 31
0.0
  0
LINE
  5
D563
330
1F
100
AcDbEntity
  8
AM_0
100
AcDbLine
 10
256.4636412422543
 20
199.750413475601
 30
0.0
 11
258.8636422422542
 21
202.1504144756012
 31
0.0
  0
LINE
  5
D564
330
1F
100
AcDbEntity
  8
AM_0
100
AcDbLine
 10
239.2136522422543
 20
200.9504104756011
 30
0.0
 11
257.6636302422543
 21
200.9504104756011
 31
0.0
  0
LINE
  5
D565
330
1F
100
AcDbEntity
  8
AM_0
100
AcDbLine
 10
227.3136512422543
 20
199.750413475601
 30
0.0
 11
256.4636412422543
 21
199.750413475601
 31
0.0
  0
LINE
  5
D576
330
1F
100
AcDbEntity
  8
AM_7
 48
0.5
100
AcDbLine
 10
228.9136492422543
 20
128.5405999756011
 30
0.0
 11
218.9136492422543
 21
128.5405999756011
 31
0.0
  0
LINE
  5
D57B
330
1F
100
AcDbEntity
  8
AM_7
 48
0.5
100
AcDbLine
 10
214.9136452422543
 20
209.1504144756012
 30
0.0
 11
214.9136452422543
 21
219.1504144756012
 31
0.0
  0
LINE
  5
D57C
330
1F
100
AcDbEntity
  8
AM_7
 48
0.5
100
AcDbLine
 10
210.1509422422543
 20
214.1504144756012
 30
0.0
 11
219.6763482422543
 21
214.1504144756012
 31
0.0
  0
LINE
  5
D57D
330
1F
100
AcDbEntity
  8
AM_0
100
AcDbLine
 10
276.6636452422543
 20
140.0405971756011
 30
0.0
 11
276.6636452422543
 21
134.5405999756011
 31
0.0
  0
LINE
  5
D57E
330
1F
100
AcDbEntity
  8
AM_0
100
AcDbLine
 10
256.1636452422543
 20
140.0405971756011
 30
0.0
 11
256.1636452422543
 21
134.5405999756011
 31
0.0
  0
LINE
  5
D57F
330
1F
100
AcDbEntity
  8
AM_0
100
AcDbLine
 10
258.6636452422542
 20
140.0405971756011
 30
0.0
 11
258.6636452422542
 21
134.5405999756011
 31
0.0
  0
LINE
  5
D580
330
1F
100
AcDbEntity
  8
AM_0
100
AcDbLine
 10
274.1636452422543
 20
140.0405971756011
 30
0.0
 11
274.1636452422543
 21
134.5405999756011
 31
0.0
  0
LINE
  5
D581
330
1F
100
AcDbEntity
  8
AM_7
 48
0.8
100
AcDbLine
 10
140.2136452422543
 20
112.3866034756011
 30
0.0
 11
125.2136452422542
 21
112.3866034756011
 31
0.0
  0
LINE
  5
D582
330
1F
100
AcDbEntity
  8
AM_7
 48
0.5
100
AcDbLine
 10
214.9136452422543
 20
111.5406044756011
 30
0.0
 11
214.9136452422543
 21
102.3406044756011
 31
0.0
  0
LINE
  5
D583
330
1F
100
AcDbEntity
  8
AM_7
 48
0.5
100
AcDbLine
 10
302.6636442422543
 20
111.5406044756011
 30
0.0
 11
302.6636442422543
 21
102.3406044756011
 31
0.0
  0
LINE
  5
D584
330
1F
100
AcDbEntity
  8
AM_0
100
AcDbLine
 10
208.9136452422543
 20
105.0406024756011
 30
0.0
 11
227.3136512422543
 21
105.0406024756011
 31
0.0
  0
LINE
  5
D585
330
1F
100
AcDbEntity
  8
AM_0
100
AcDbLine
 10
229.6136502422543
 20
108.5406044756011
 30
0.0
 11
229.6136502422543
 21
107.3406044756011
 31
0.0
  0
LINE
  5
D586
330
1F
100
AcDbEntity
  8
AM_0
100
AcDbLine
 10
227.3136512422543
 20
108.5406044756011
 30
0.0
 11
227.3136512422543
 21
107.3406044756011
 31
0.0
  0
LINE
  5
D587
330
1F
100
AcDbEntity
  8
AM_0
100
AcDbLine
 10
308.9136342422543
 20
105.0406024756011
 30
0.0
 11
292.7136442422543
 21
105.0406024756011
 31
0.0
  0
LINE
  5
D588
330
1F
100
AcDbEntity
  8
0
  6
Continuous
 62
     3
100
AcDbLine
 10
292.7136442422543
 20
108.5406044756011
 30
0.0
 11
292.7136442422543
 21
107.3406044756011
 31
0.0
  0
LINE
  5
D589
330
1F
100
AcDbEntity
  8
AM_0
100
AcDbLine
 10
290.4136342422543
 20
108.5406044756011
 30
0.0
 11
290.4136342422543
 21
107.3406044756011
 31
0.0
  0
LINE
  5
D58A
330
1F
100
AcDbEntity
  8
AM_0
100
AcDbLine
 10
229.6136502422543
 20
214.5504164756011
 30
0.0
 11
229.6136502422543
 21
199.750413475601
 31
0.0
  0
LINE
  5
D58B
330
1F
100
AcDbEntity
  8
AM_0
100
AcDbLine
 10
290.4136342422543
 20
214.5504164756011
 30
0.0
 11
290.4136342422543
 21
199.7504204756012
 31
0.0
  0
LINE
  5
D58D
330
1F
100
AcDbEntity
  8
AM_0
100
AcDbLine
 10
122.1136462422542
 20
105.0406024756011
 30
0.0
 11
140.1136462422543
 21
105.0406024756011
 31
0.0
  0
CIRCLE
  5
D58E
330
1F
100
AcDbEntity
  8
AM_0
100
AcDbCircle
 10
214.9136452422543
 20
214.1504144756012
 30
0.0
 40
2.5
  0
ARC
  5
D58F
330
1F
100
AcDbEntity
  8
AM_0
100
AcDbCircle
 10
293.9136642422543
 20
207.1504144756012
 30
0.0
 40
2.25
100
AcDbArc
 50
269.9994200000003
 51
90.00058300000068
  0
ARC
  5
D590
330
1F
100
AcDbEntity
  8
AM_0
100
AcDbCircle
 10
266.4136452422543
 20
116.2906004756011
 30
0.0
 40
2.25
100
AcDbArc
 50
0.0000485702344598
 51
180.0
  0
CIRCLE
  5
D591
330
1F
100
AcDbEntity
  8
AM_0
100
AcDbCircle
 10
266.4136452422543
 20
113.0406004756011
 30
0.0
 40
2.25
  0
CIRCLE
  5
D592
330
1F
100
AcDbEntity
  8
AM_0
100
AcDbCircle
 10
132.7136452422543
 20
128.5405999756011
 30
0.0
 40
5.0
  0
ARC
  5
D593
330
1F
100
AcDbEntity
  8
AM_0
100
AcDbCircle
 10
130.2136452422543
 20
131.0405999756011
 30
0.0
 40
2.5
100
AcDbArc
 50
270.0
 51
0.0000163924546594
  0
ARC
  5
D594
330
1F
100
AcDbEntity
  8
AM_0
100
AcDbCircle
 10
266.4136452422543
 20
113.0406004756011
 30
0.0
 40
21.0
100
AcDbArc
 50
218.2466200000004
 51
321.7534000000004
  0
ARC
  5
D595
330
1F
100
AcDbEntity
  8
AM_0
100
AcDbCircle
 10
130.2136452422543
 20
126.0405999756011
 30
0.0
 40
2.5
100
AcDbArc
 50
0.0000327849093188
 51
90.0
  0
ARC
  5
D596
330
1F
100
AcDbEntity
  8
AM_0
100
AcDbCircle
 10
135.2136452422543
 20
131.0405999756011
 30
0.0
 40
2.5
100
AcDbArc
 50
179.999989999999
 51
270.0
  0
ARC
  5
D597
330
1F
100
AcDbEntity
  8
AM_0
100
AcDbCircle
 10
135.2136452422543
 20
126.0405999756011
 30
0.0
 40
2.5
100
AcDbArc
 50
90.0
 51
180.0
  0
ARC
  5
D59C
330
1F
100
AcDbEntity
  8
AM_0
100
AcDbCircle
 10
244.9136447422543
 20
207.1504144756012
 30
0.0
 40
3.5
100
AcDbArc
 50
291.7868400000003
 51
68.21315500000105
  0
CIRCLE
  5
D59D
330
1F
100
AcDbEntity
  8
AM_0
100
AcDbCircle
 10
302.9136442422543
 20
207.1504144756012
 30
0.0
 40
2.5
  0
ARC
  5
D59E
330
1F
100
AcDbEntity
  8
AM_0
100
AcDbCircle
 10
288.1636442422543
 20
102.0406004756011
 30
0.0
 40
2.0
100
AcDbArc
 50
270.0
 51
0.0
  0
ARC
  5
D59F
330
1F
100
AcDbEntity
  8
AM_0
100
AcDbCircle
 10
231.9136492422543
 20
102.0406004756011
 30
0.0
 40
2.0
100
AcDbArc
 50
180.0
 51
270.0
  0
ARC
  5
D5A0
330
1F
100
AcDbEntity
  8
AM_0
100
AcDbCircle
 10
132.7136452422543
 20
91.54059747560117
 30
0.0
 40
3.5
100
AcDbArc
 50
21.78678699999817
 51
158.2132100000021
  0
ARC
  5
D5A1
330
1F
100
AcDbEntity
  8
AM_0
100
AcDbCircle
 10
239.2136522422543
 20
200.9504174756011
 30
0.0
 40
1.199999999999999
100
AcDbArc
 50
180.0
 51
270.0
  0
ARC
  5
D5A2
330
1F
100
AcDbEntity
  8
AM_0
100
AcDbCircle
 10
239.2136522422543
 20
213.3504194756012
 30
0.0
 40
1.199999999999999
100
AcDbArc
 50
90.0
 51
180.0
  0
ARC
  5
D5A3
330
1F
100
AcDbEntity
  8
AM_0
100
AcDbCircle
 10
256.7535882422543
 20
199.0504164756011
 30
0.0
 40
0.5
100
AcDbArc
 50
270.0
 51
314.9999999999997
  0
ARC
  5
D5A4
330
1F
100
AcDbEntity
  8
AM_0
100
AcDbCircle
 10
276.8737052422543
 20
215.2504134756011
 30
0.0
 40
0.5
100
AcDbArc
 50
90.0
 51
134.9999999999997
  0
ARC
  5
D5A5
330
1F
100
AcDbEntity
  8
AM_0
100
AcDbCircle
 10
256.7535882422543
 20
215.2504134756011
 30
0.0
 40
0.5
100
AcDbArc
 50
45.00000000000031
 51
90.0
  0
ARC
  5
D5A6
330
1F
100
AcDbEntity
  8
AM_0
100
AcDbCircle
 10
276.8737052422543
 20
199.0504164756011
 30
0.0
 40
0.5
100
AcDbArc
 50
225.0000000000003
 51
270.0
  0
CIRCLE
  5
D5AB
330
1F
100
AcDbEntity
  8
AM_0
100
AcDbCircle
 10
132.7136452422543
 20
112.3866034756011
 30
0.0
 40
2.564000099999999
  0
ARC
  5
D5AC
330
1F
100
AcDbEntity
  8
AM_0
100
AcDbCircle
 10
287.9136447422543
 20
207.1504144756012
 30
0.0
 40
3.5
100
AcDbArc
 50
111.7868400000002
 51
248.2131599999997
  0
ARC
  5
D5AD
330
1F
100
AcDbEntity
  8
AM_0
100
AcDbCircle
 10
227.3136512422543
 20
199.750413475601
 30
0.0
 40
1.199999999999999
100
AcDbArc
 50
180.0
 51
270.0
  0
ARC
  5
D5AE
330
1F
100
AcDbEntity
  8
AM_0
100
AcDbCircle
 10
226.1136502422543
 20
214.5504164756011
 30
0.0
 40
1.199999999999999
100
AcDbArc
 50
90.0
 51
180.0
  0
ARC
  5
D5AF
330
1F
100
AcDbEntity
  8
AM_0
100
AcDbCircle
 10
292.7136442422543
 20
214.5504164756011
 30
0.0
 40
1.199999999999999
100
AcDbArc
 50
0.0
 51
90.0
  0
ARC
  5
D5B0
330
1F
100
AcDbEntity
  8
AM_0
100
AcDbCircle
 10
292.7136442422543
 20
199.750413475601
 30
0.0
 40
1.199999999999999
100
AcDbArc
 50
270.0
 51
0.0
  0
ARC
  5
D5B2
330
1F
100
AcDbEntity
  8
AM_0
100
AcDbCircle
 10
227.3136512422543
 20
107.3406044756011
 30
0.0
 40
2.299999999999998
100
AcDbArc
 50
270.0
 51
0.0
  0
ARC
  5
D5B3
330
1F
100
AcDbEntity
  8
AM_0
100
AcDbCircle
 10
293.9136342422543
 20
108.5406024756011
 30
0.0
 40
1.199999999999999
100
AcDbArc
 50
180.0
 51
270.0
  0
ARC
  5
D5B4
330
1F
100
AcDbEntity
  8
AM_0
100
AcDbCircle
 10
292.7136442422543
 20
107.3406044756011
 30
0.0
 40
2.299999999999998
100
AcDbArc
 50
180.0
 51
270.0
  0
ARC
  5
D5B5
330
1F
100
AcDbEntity
  8
AM_0
100
AcDbCircle
 10
224.9136492422543
 20
108.5406024756011
 30
0.0
 40
1.199999999999999
100
AcDbArc
 50
270.0
 51
0.0
  0
TEXT
  5
D5C6
330
1F
100
AcDbEntity
  8
AM_6
100
AcDbText
 10
34.357
 20
258.9
 30
0.0
 40
3.2
  1
車：ポリアミド樹脂
 41
0.8437725099999997
100
AcDbText
  0
TEXT
  5
D5CA
330
1F
100
AcDbEntity
  8
AM_6
100
AcDbText
 10
123.908340204373
 20
67.19431845524764
 30
0.0
 40
3.0
  1
枠t=1.2
 41
0.84740485
100
AcDbText
  0
TEXT
  5
D5CB
330
1F
100
AcDbEntity
  8
AM_6
100
AcDbText
 10
123.908340204373
 20
62.19431845524764
 30
0.0
 40
3.0
  1
補強金具t=2.3
 41
0.8449579899999999
100
AcDbText
  0
LINE
  5
D723
330
1F
100
AcDbEntity
  8
AM_7
100
AcDbLine
 10
266.4136447422543
 20
218.7504134756013
 30
0.0
 11
266.4136447422543
 21
195.5504164756011
 31
0.0
1001
GENIUS_GENOBJ-N-CEN_13
1002
{
1000
OWNER
1000
GEN
1002
}
1001
GENIUS_GENODEF_13
1002
{
1000
HIER
1070
     0
1002
}
1002
{
1000
MANEDIT
1070
     0
1002
}
1002
{
1000
NOSEL
1070
     0
1002
}
1002
{
1000
BEHIND
1070
     0
1002
}
1002
{
1000
OTHER
1070
     0
1002
}
1002
{
1000
REACTOR
1002
}
1001
GENIUS_GENCEN_19
1002
{
1040
3.0
1002
}
  0
DIMENSION
  5
D779
330
1F
100
AcDbEntity
  8
AM_5
100
AcDbDimension
  2
*D10
 10
284.4136447422543
 20
227.6039984756011
 30
0.0
 11
266.4136447422543
 21
230.7039984756011
 31
0.0
 70
    32
  1
%%c<>
 71
     5
 42
36.0
  3
SYS$0
100
AcDbAlignedDimension
 13
248.4136447422543
 23
207.1504143228849
 33
0.0
 14
284.4136447422543
 24
207.1504143228849
 34
0.0
100
AcDbRotatedDimension
1001
ACAD_DSTYLE_DIMINSPECT
1070
   396
1000
100%
1070
   395
1000

1070
   394
1070
    33
1070
   393
1070
     0
  0
DIMENSION
  5
D7AA
330
1F
100
AcDbEntity
  8
AM_5
100
AcDbDimension
  2
*D11
 10
287.4136442422543
 20
237.6039984756011
 30
0.0
 11
266.4136447422543
 21
240.7039984756011
 31
0.0
 70
    32
  1
%%c<>
 71
     5
 42
41.999999
  3
SYS$0
100
AcDbAlignedDimension
 13
245.4136452422543
 23
212.1504144756012
 33
0.0
 14
287.4136442422543
 24
212.1504144756012
 34
0.0
100
AcDbRotatedDimension
1001
ACAD_DSTYLE_DIMINSPECT
1070
   396
1000
100%
1070
   395
1000

1070
   394
1070
    33
1070
   393
1070
     0
  0
DIMENSION
  5
D7DB
330
1F
100
AcDbEntity
  8
AM_5
100
AcDbDimension
  2
*D12
 10
186.9136452422542
 20
199.6504144756012
 30
0.0
 11
183.8136452422542
 21
208.6504144756012
 31
0.0
 70
    32
 71
     5
 42
18.0
  3
SYS$0
100
AcDbAlignedDimension
 13
208.9136452422543
 23
217.6504144756012
 33
0.0
 14
208.9136452422543
 24
199.6504144756011
 34
0.0
 50
90.0
100
AcDbRotatedDimension
1001
ACAD_DSTYLE_DIMINSPECT
1070
   396
1000
100%
1070
   395
1000

1070
   394
1070
    33
1070
   393
1070
     0
  0
DIMENSION
  5
D83C
330
1F
100
AcDbEntity
  8
AM_5
100
AcDbDimension
  2
*D13
 10
302.9136442422543
 20
186.5504124656011
 30
0.0
 11
258.9136447422543
 21
189.6504124656011
 31
0.0
 70
    32
 71
     5
 42
87.99999900000001
  3
SYS$0
100
AcDbAlignedDimension
 13
214.9136452422543
 23
209.2504134756012
 33
0.0
 14
302.9136442422543
 24
202.1504144756012
 34
0.0
100
AcDbRotatedDimension
1001
ACAD_DSTYLE_DIMINSPECT
1070
   396
1000
100%
1070
   395
1000

1070
   394
1070
    33
1070
   393
1070
     0
  0
DIMENSION
  5
D8CD
330
1F
100
AcDbEntity
  8
AM_5
100
AcDbDimension
  2
*D14
 10
196.9136452422542
 20
140.0405971756011
 30
0.0
 11
193.8136452422542
 21
124.2906008256011
 31
0.0
 70
    32
 71
     5
 42
31.49999270000002
  3
SYS$0
100
AcDbAlignedDimension
 13
208.9136452422543
 23
108.5406044756011
 33
0.0
 14
224.9136492422543
 24
140.0405971756011
 34
0.0
 50
90.0
100
AcDbRotatedDimension
1001
ACAD_DSTYLE_DIMINSPECT
1070
   396
1000
100%
1070
   395
1000

1070
   394
1070
    33
1070
   393
1070
     0
  0
DIMENSION
  5
D8F5
330
1F
100
AcDbEntity
  8
AM_5
100
AcDbDimension
  2
*D15
 10
196.9136452422543
 20
100.0406004756011
 30
0.0
 11
193.8136452422542
 21
104.2906024756012
 31
0.0
 70
    32
 71
     5
 42
8.500003999999975
  3
SYS$0
100
AcDbAlignedDimension
 13
208.9136452422543
 23
108.5406044756011
 33
0.0
 14
231.9136492422543
 24
100.0406004756011
 34
0.0
 50
90.0
100
AcDbRotatedDimension
1001
ACAD_DSTYLE_DIMINSPECT
1070
   396
1000
100%
1070
   395
1000

1070
   394
1070
    33
1070
   393
1070
     0
  0
DIMENSION
  5
D914
330
1F
100
AcDbEntity
  8
AM_5
100
AcDbDimension
  2
*D16
 10
308.9136342422543
 20
152.0405981756011
 30
0.0
 11
258.9136397422543
 21
155.1405981756011
 31
0.0
 70
    32
 71
     5
 42
99.99998899999996
  3
SYS$0
100
AcDbAlignedDimension
 13
208.9136452422543
 23
108.5406044756011
 33
0.0
 14
308.9136342422543
 24
108.5406044756011
 34
0.0
100
AcDbRotatedDimension
1001
ACAD_DSTYLE_DIMINSPECT
1070
   396
1000
100%
1070
   395
1000

1070
   394
1070
    33
1070
   393
1070
     0
  0
DIMENSION
  5
D933
330
1F
100
AcDbEntity
  8
AM_5
100
AcDbDimension
  2
*D17
 10
220.9136502422543
 20
80.04059946560108
 30
0.0
 11
258.4136372422543
 21
83.14059946560105
 31
0.0
 70
    32
  1
サッシ切欠：<>
 71
     5
 42
74.99997400000002
  3
SYS$0
100
AcDbAlignedDimension
 13
295.9136242422543
 23
108.5405954756011
 33
0.0
 14
220.9136502422543
 24
127.045096756477
 34
0.0
100
AcDbRotatedDimension
1001
ACAD_DSTYLE_DIMINSPECT
1070
   396
1000
100%
1070
   395
1000

1070
   394
1070
    33
1070
   393
1070
     0
  0
DIMENSION
  5
D977
330
1F
100
AcDbEntity
  8
AM_5
100
AcDbDimension
  2
*D18
 10
154.7136452422543
 20
128.5405999756011
 30
0.0
 11
151.6136452422543
 21
134.2905985756011
 31
0.0
 70
    32
 71
     5
 42
11.49999719999999
  3
SYS$0
100
AcDbAlignedDimension
 13
141.3136432422543
 23
140.0405971756011
 33
0.0
 14
142.7136452422543
 24
128.5405999756011
 34
0.0
 50
90.0
100
AcDbRotatedDimension
1001
ACAD_DSTYLE_DIMINSPECT
1070
   396
1000
100%
1070
   395
1000

1070
   394
1070
    33
1070
   393
1070
     0
  0
DIMENSION
  5
D99F
330
1F
100
AcDbEntity
  8
AM_5
100
AcDbDimension
  2
*D19
 10
164.7136452422545
 20
95.04059747560111
 30
0.0
 11
161.6136452422545
 21
117.5405973256011
 31
0.0
 70
    32
 71
     5
 42
44.99999969999999
  3
SYS$0
100
AcDbAlignedDimension
 13
141.3136432422543
 23
140.0405971756011
 33
0.0
 14
132.7136452422543
 24
95.04059747560114
 34
0.0
 50
90.0
100
AcDbRotatedDimension
1001
ACAD_DSTYLE_DIMINSPECT
1070
   396
1000
100%
1070
   395
1000

1070
   394
1070
    33
1070
   393
1070
     0
  0
DIMENSION
  5
D9BE
330
1F
100
AcDbEntity
  8
AM_5
100
AcDbDimension
  2
*D20
 10
127.7136452422543
 20
80.04060047560114
 30
0.0
 11
132.7136452422543
 21
83.14060047560113
 31
0.0
 70
    32
 71
     5
 42
10.0
  3
SYS$0
100
AcDbAlignedDimension
 13
137.7136452422543
 23
92.04060047560114
 33
0.0
 14
127.7136452422543
 24
92.04060047560114
 34
0.0
100
AcDbRotatedDimension
1001
ACAD_DSTYLE_DIMINSPECT
1070
   396
1000
100%
1070
   395
1000

1070
   394
1070
    33
1070
   393
1070
     0
  0
DIMENSION
  5
D9E6
330
1F
100
AcDbEntity
  8
AM_5
100
AcDbDimension
  2
*D21
 10
132.7136452422542
 20
91.54059747560108
 30
0.0
 11
116.934134789781
 21
79.9331801180007
 31
0.0
 70
   164
 71
     5
 42
3.499999999999971
  3
SYS$4
100
AcDbRadialDimension
 15
135.0672642864415
 25
94.13105639147659
 35
0.0
 40
0.0
1001
ACAD_DSTYLE_DIMRADIAL_EXTENSION
1070
   387
1070
     1
1070
   388
1040
0.3802511665806699
1070
   390
1040
2.761341434649249
1001
ACAD_DSTYLE_DIMINSPECT
1070
   396
1000
100%
1070
   395
1000

1070
   394
1070
    33
1070
   393
1070
     0
  0
DIMENSION
  5
DA07
330
1F
100
AcDbEntity
  8
AM_5
100
AcDbDimension
  2
*D22
 10
154.713639391038
 20
85.04059747560114
 30
0.0
 11
151.6136393910379
 21
90.04059747560116
 31
0.0
 70
    32
  1
3
 71
     5
 42
10.0
  3
SYS$0
100
AcDbAlignedDimension
 13
132.7136453338841
 23
95.04059747560114
 33
0.0
 14
132.7136453338841
 24
85.04059747560114
 34
0.0
 50
90.0
100
AcDbRotatedDimension
1001
ACAD
1000
DSTYLE
1002
{
1070
    76
1070
     1
1070
   173
1070
     1
1070
   342
1005
0
1070
   343
1005
6C4
1070
   344
1005
A66
1002
}
1001
ACAD_DSTYLE_DIMINSPECT
1070
   396
1000
100%
1070
   395
1000

1070
   394
1070
    33
1070
   393
1070
     0
  0
DIMENSION
  5
DA08
330
1F
100
AcDbEntity
  8
AM_5
100
AcDbDimension
  2
*D23
 10
154.713639391038
 20
105.0405974756011
 30
0.0
 11
151.6136393910379
 21
100.0405974756011
 31
0.0
 70
    32
  1
2
 71
     5
 42
10.0
  3
SYS$0
100
AcDbAlignedDimension
 13
132.7136453338841
 23
95.04059747560114
 33
0.0
 14
132.7136453338841
 24
105.0405974756011
 34
0.0
 50
90.0
100
AcDbRotatedDimension
1001
ACAD
1000
DSTYLE
1002
{
1070
    76
1070
     1
1070
   173
1070
     1
1070
   342
1005
0
1070
   343
1005
6C4
1070
   344
1005
A66
1002
}
1001
ACAD_DSTYLE_DIMINSPECT
1070
   396
1000
100%
1070
   395
1000

1070
   394
1070
    33
1070
   393
1070
     0
  0
TEXT
  5
DA09
330
1F
100
AcDbEntity
  8
AM_6
100
AcDbText
 10
160.1837619308968
 20
76.66520088504029
 30
0.0
 40
3.0
  1
（調整寸法）
 50
90.00000300000001
 41
0.84740485
100
AcDbText
  0
DIMENSION
  5
DAE4
330
1F
100
AcDbEntity
  8
AM_5
100
AcDbDimension
  2
*D24
 10
196.9136452422542
 20
207.1504144756012
 30
0.0
 11
193.8136452422542
 21
210.6504144756012
 31
0.0
 70
    32
 71
     5
 42
7.0
  3
SYS$0
100
AcDbAlignedDimension
 13
210.1509422422543
 23
214.1504144756012
 33
0.0
 14
205.0369234490149
 24
207.1504144756012
 34
0.0
 50
90.0
100
AcDbRotatedDimension
1001
ACAD_DSTYLE_DIMINSPECT
1070
   396
1000
100%
1070
   395
1000

1070
   394
1070
    33
1070
   393
1070
     0
  0
DIMENSION
  5
DB0C
330
1F
100
AcDbEntity
  8
AM_5
100
AcDbDimension
  2
*D25
 10
196.9136452422542
 20
217.6504144756012
 30
0.0
 11
193.8136452422542
 21
223.4970811422679
 31
0.0
 70
    32
 71
     5
 42
3.5
  3
SYS$0
100
AcDbAlignedDimension
 13
210.1509422422543
 23
214.1504144756012
 33
0.0
 14
208.9136452422543
 24
217.6504144756012
 34
0.0
 50
90.0
100
AcDbRotatedDimension
1001
ACAD_DSTYLE_DIMINSPECT
1070
   396
1000
100%
1070
   395
1000

1070
   394
1070
    33
1070
   393
1070
     0
  0
DIMENSION
  5
DB31
330
1F
100
AcDbEntity
  8
AM_5
100
AcDbDimension
  2
*D26
 10
320.9136352422543
 20
198.5504134756011
 30
0.0
 11
317.8136352422542
 21
207.1504134756012
 31
0.0
 70
    32
 71
     5
 42
17.20000000000004
  3
SYS$0
100
AcDbAlignedDimension
 13
292.7136442422543
 23
215.7504134756012
 33
0.0
 14
292.7136442422543
 24
198.5504134756011
 34
0.0
 50
90.0
100
AcDbRotatedDimension
1001
ACAD_DSTYLE_DIMINSPECT
1070
   396
1000
100%
1070
   395
1000

1070
   394
1070
    33
1070
   393
1070
     0
  0
LINE
  5
DBD8
330
1F
100
AcDbEntity
  8
AM_5
100
AcDbLine
 10
305.5333145932487
 20
210.8092841442449
 30
0.0
 11
315.0685941124231
 21
224.1271220170522
 31
0.0
  0
LINE
  5
DBD9
330
1F
100
AcDbEntity
  8
AM_5
100
AcDbLine
 10
315.0685941124231
 20
224.1271220170522
 30
0.0
 11
326.662193855026
 21
224.1271220170522
 31
0.0
  0
LINE
  5
DBDA
330
1F
100
AcDbEntity
  8
AM_5
100
AcDbLine
 10
301.458271825035
 20
205.1177091041326
 30
0.0
 11
304.3690166594734
 21
209.18311984707
 31
0.0
  0
INSERT
  5
DBDC
330
1F
100
AcDbEntity
  8
AM_5
100
AcDbBlockReference
  2
GENDOT
 10
304.3690166594734
 20
209.18311984707
 30
0.0
 41
1.99999999999998
 42
2.0
 43
2.0
 50
234.3981680991435
  0
MTEXT
  5
DBDD
102
{ACAD_XDICTIONARY
360
DEF0
102
}
330
1F
100
AcDbEntity
  8
AM_5
 62
     2
100
AcDbMText
 10
321.3878444663342
 20
227.377122017052
 30
0.0
 40
3.5
 41
0.0
 71
     5
 72
     1
  1
2-\U+22055
 73
     1
 44
1.0
1001
ACAD
1000
MTEXTBEGIN
1070
    73
1070
     1
1070
    44
1040
1.0
1070
    74
1070
     0
1000
MTEXTEND
  0
LWPOLYLINE
  5
DBDF
330
1F
100
AcDbEntity
  8
AM_5
100
AcDbPolyline
 90
        2
 70
     1
 43
0.5
 10
301.3127345833132
 20
204.9144385669857
 42
1.0
 10
301.6038090667569
 20
205.3209796412795
 42
1.0
  0
LINE
  5
DCA0
330
1F
100
AcDbEntity
  8
AM_0
100
AcDbLine
 10
229.6136502422543
 20
204.1437597163713
 30
0.0
 11
238.0136512422543
 21
204.1437597163712
 31
0.0
  0
LINE
  5
DCA1
330
1F
100
AcDbEntity
  8
AM_0
100
AcDbLine
 10
229.6136502422543
 20
210.1437597163713
 30
0.0
 11
238.0136512422543
 21
210.1437597163713
 31
0.0
  0
LINE
  5
DCA2
330
1F
100
AcDbEntity
  8
AM_0
100
AcDbLine
 10
240.7136522422543
 20
210.1437597163713
 30
0.0
 11
244.3721453360028
 21
210.1437597163713
 31
0.0
  0
LINE
  5
DCA3
330
1F
100
AcDbEntity
  8
AM_0
100
AcDbLine
 10
244.3721453360027
 20
210.1437597163712
 30
0.0
 11
244.9136492422527
 21
209.6022558101212
 31
0.0
  0
LINE
  5
DCA4
330
1F
100
AcDbEntity
  8
AM_0
100
AcDbLine
 10
244.9136492422529
 20
204.6852491713725
 30
0.0
 11
244.372152336003
 21
204.1437527163712
 31
0.0
  0
LINE
  5
DCA5
330
1F
100
AcDbEntity
  8
AM_2
 48
0.5
100
AcDbLine
 10
244.9136492422529
 20
209.6022558101212
 30
0.0
 11
240.7136522422543
 21
209.6022558101212
 31
0.0
  0
LINE
  5
DCA6
330
1F
100
AcDbEntity
  8
AM_2
 48
0.5
100
AcDbLine
 10
238.0136512422543
 20
209.6022558101212
 30
0.0
 11
229.6136502422543
 21
209.6022558101212
 31
0.0
  0
LINE
  5
DCA7
330
1F
100
AcDbEntity
  8
AM_0
 48
0.5
100
AcDbLine
 10
244.3721593360089
 20
204.1437597163712
 30
0.0
 11
240.7136522422543
 21
204.1437597163712
 31
0.0
  0
LINE
  5
DCA8
330
1F
100
AcDbEntity
  8
AM_0
 48
0.5
100
AcDbLine
 10
238.0136512422543
 20
204.1437597163712
 30
0.0
 11
229.6136502422543
 21
204.1437597163712
 31
0.0
  0
LINE
  5
DCA9
330
1F
100
AcDbEntity
  8
AM_2
 48
0.5
100
AcDbLine
 10
229.6136502422543
 20
204.6852559932212
 30
0.0
 11
238.0136512422543
 21
204.6852559932212
 31
0.0
  0
LINE
  5
DCAA
330
1F
100
AcDbEntity
  8
AM_2
 48
0.5
100
AcDbLine
 10
240.7136522422544
 20
204.6852559932213
 30
0.0
 11
244.9136492422529
 21
204.6852559932212
 31
0.0
  0
LINE
  5
DCAB
330
1F
100
AcDbEntity
  8
AM_0
 48
0.5
100
AcDbLine
 10
229.6136502422543
 20
210.1437597163713
 30
0.0
 11
238.0136512422543
 21
210.1437597163713
 31
0.0
  0
LINE
  5
DCAC
330
1F
100
AcDbEntity
  8
AM_0
 48
0.5
100
AcDbLine
 10
244.9136492422529
 20
209.6155933198297
 30
0.0
 11
244.9136492422528
 21
204.6852491713726
 31
0.0
  0
LINE
  5
DCC0
330
1F
100
AcDbEntity
  8
AM_0
 48
0.5
100
AcDbLine
 10
224.9136492422543
 20
212.4004144756012
 30
0.0
 11
224.9136492422543
 21
201.9004144756012
 31
0.0
  0
LINE
  5
DCC1
330
1F
100
AcDbEntity
  8
AM_0
 48
0.2618560978180085
370
    30
100
AcDbLine
 10
224.9136492422556
 20
212.3696611968109
 30
0.0
 11
224.9136492422529
 21
201.9311677543914
 31
0.0
  0
LINE
  5
DCC2
330
1F
100
AcDbEntity
  8
AM_0
370
    30
100
AcDbLine
 10
223.7950259623828
 20
201.9394776613011
 30
0.0
 11
224.9136492422529
 21
201.9004144756013
 31
0.0
  0
ARC
  5
DCC3
330
1F
100
AcDbEntity
  8
AM_0
370
    30
100
AcDbCircle
 10
231.7052875591214
 20
207.4650716852392
 30
0.0
 40
10.73967686440194
100
AcDbArc
 50
185.4212442311196
 51
202.7054652938621
  0
ARC
  5
DCC4
330
1F
100
AcDbEntity
  8
AM_0
370
    30
100
AcDbCircle
 10
223.8735498299541
 20
204.1881070220944
 30
0.0
 40
2.25
100
AcDbArc
 50
202.7054652938621
 51
268.0000000002375
1001
GENIUS_GENODEF_13
1002
{
1000
HIER
1070
     0
1002
}
1002
{
1000
MANEDIT
1070
     0
1002
}
1002
{
1000
NOSEL
1070
     0
1002
}
1002
{
1000
BEHIND
1070
     0
1002
}
1002
{
1000
OTHER
1070
     0
1002
}
1002
{
1000
REACTOR
1002
}
1001
GENIUS_GENOBJ-N-FIL_13
1002
{
1000
OWNER
1000
GEN
1002
}
  0
ARC
  5
DCC5
330
1F
100
AcDbEntity
  8
AM_0
370
    30
100
AcDbCircle
 10
231.7052875591218
 20
206.8357572659631
 30
0.0
 40
10.73967686440242
100
AcDbArc
 50
157.2945347061379
 51
174.5787557688804
  0
ARC
  5
DCC6
330
1F
100
AcDbEntity
  8
AM_0
370
    30
100
AcDbCircle
 10
223.8735498299543
 20
210.112721929108
 30
0.0
 40
2.25
100
AcDbArc
 50
91.99999999976904
 51
157.2945347061379
1001
GENIUS_GENOBJ-N-FIL_13
1002
{
1000
OWNER
1000
GEN
1002
}
1001
GENIUS_GENODEF_13
1002
{
1000
HIER
1070
     0
1002
}
1002
{
1000
MANEDIT
1070
     0
1002
}
1002
{
1000
NOSEL
1070
     0
1002
}
1002
{
1000
BEHIND
1070
     0
1002
}
1002
{
1000
OTHER
1070
     0
1002
}
1002
{
1000
REACTOR
1002
}
  0
LINE
  5
DCC7
330
1F
100
AcDbEntity
  8
AM_0
 48
0.5
370
    30
100
AcDbLine
 10
221.5398161203993
 20
207.8504144756012
 30
0.0
 11
221.0136492422543
 21
207.8504144756012
 31
0.0
  0
LINE
  5
DCC8
330
1F
100
AcDbEntity
  8
AM_0
 48
0.5
370
    30
100
AcDbLine
 10
221.5398161203993
 20
206.4504144756012
 30
0.0
 11
221.0136492422543
 21
206.4504144756012
 31
0.0
  0
LINE
  5
DCC9
330
1F
100
AcDbEntity
  8
AM_0
 48
0.5
370
    30
100
AcDbLine
 10
221.5398161203993
 20
206.4504144756012
 30
0.0
 11
221.5398161203993
 21
207.8504144756012
 31
0.0
  0
LINE
  5
DCCA
330
1F
100
AcDbEntity
  8
AM_0
370
    30
100
AcDbLine
 10
223.7950259623828
 20
212.3613512899013
 30
0.0
 11
224.9136492422529
 21
212.4004144756012
 31
0.0
  0
LINE
  5
DCCB
330
1F
100
AcDbEntity
  8
AM_0
100
AcDbLine
 10
239.2136522422543
 20
211.3437597163712
 30
0.0
 11
240.7136522422543
 21
211.3437597163712
 31
0.0
  0
LINE
  5
DCCC
330
1F
100
AcDbEntity
  8
AM_0
 48
0.5
100
AcDbLine
 10
240.7136522422543
 20
202.9437597163713
 30
0.0
 11
239.2136522422543
 21
202.9437597163713
 31
0.0
  0
LINE
  5
DCCE
330
1F
100
AcDbEntity
  8
AM_0
100
AcDbLine
 10
240.7136522422542
 20
211.3437597163713
 30
0.0
 11
240.7136522422543
 21
202.9437597163713
 31
0.0
  0
LINE
  5
DCCF
330
1F
100
AcDbEntity
  8
AM_0
 48
0.5
100
AcDbLine
 10
224.9136492422543
 20
133.8405989756012
 30
0.0
 11
224.9136492422543
 21
123.3405989756012
 31
0.0
  0
LINE
  5
DCD0
330
1F
100
AcDbEntity
  8
AM_0
 48
0.2618560978180085
370
    30
100
AcDbLine
 10
224.9136492422556
 20
133.809845696811
 30
0.0
 11
224.9136492422529
 21
123.3713522543914
 31
0.0
  0
LINE
  5
DCD1
330
1F
100
AcDbEntity
  8
AM_0
370
    30
100
AcDbLine
 10
223.7950259623828
 20
123.3796621613011
 30
0.0
 11
224.9136492422529
 21
123.3405989756013
 31
0.0
  0
ARC
  5
DCD2
330
1F
100
AcDbEntity
  8
AM_0
370
    30
100
AcDbCircle
 10
231.7052875591214
 20
128.9052561852392
 30
0.0
 40
10.73967686440194
100
AcDbArc
 50
185.4212442311195
 51
202.7054652938618
  0
ARC
  5
DCD3
330
1F
100
AcDbEntity
  8
AM_0
370
    30
100
AcDbCircle
 10
223.8735498299541
 20
125.6282915220944
 30
0.0
 40
2.25
100
AcDbArc
 50
202.7054652938618
 51
268.0000000002375
1001
GENIUS_GENODEF_13
1002
{
1000
HIER
1070
     0
1002
}
1002
{
1000
MANEDIT
1070
     0
1002
}
1002
{
1000
NOSEL
1070
     0
1002
}
1002
{
1000
BEHIND
1070
     0
1002
}
1002
{
1000
OTHER
1070
     0
1002
}
1002
{
1000
REACTOR
1002
}
1001
GENIUS_GENOBJ-N-FIL_13
1002
{
1000
OWNER
1000
GEN
1002
}
  0
ARC
  5
DCD4
330
1F
100
AcDbEntity
  8
AM_0
370
    30
100
AcDbCircle
 10
231.7052875591218
 20
128.2759417659631
 30
0.0
 40
10.73967686440242
100
AcDbArc
 50
157.2945347061381
 51
174.5787557688805
  0
ARC
  5
DCD5
330
1F
100
AcDbEntity
  8
AM_0
370
    30
100
AcDbCircle
 10
223.8735498299543
 20
131.552906429108
 30
0.0
 40
2.25
100
AcDbArc
 50
91.99999999976904
 51
157.2945347061381
1001
GENIUS_GENOBJ-N-FIL_13
1002
{
1000
OWNER
1000
GEN
1002
}
1001
GENIUS_GENODEF_13
1002
{
1000
HIER
1070
     0
1002
}
1002
{
1000
MANEDIT
1070
     0
1002
}
1002
{
1000
NOSEL
1070
     0
1002
}
1002
{
1000
BEHIND
1070
     0
1002
}
1002
{
1000
OTHER
1070
     0
1002
}
1002
{
1000
REACTOR
1002
}
  0
LINE
  5
DCD6
330
1F
100
AcDbEntity
  8
AM_0
 48
0.5
370
    30
100
AcDbLine
 10
221.5398161203993
 20
129.2905989756012
 30
0.0
 11
221.0136492422543
 21
129.2905989756012
 31
0.0
  0
LINE
  5
DCD7
330
1F
100
AcDbEntity
  8
AM_0
 48
0.5
370
    30
100
AcDbLine
 10
221.5398161203993
 20
127.8905989756012
 30
0.0
 11
221.0136492422543
 21
127.8905989756012
 31
0.0
  0
LINE
  5
DCD8
330
1F
100
AcDbEntity
  8
AM_0
 48
0.5
370
    30
100
AcDbLine
 10
221.5398161203993
 20
127.8905989756012
 30
0.0
 11
221.5398161203993
 21
129.2905989756012
 31
0.0
  0
LINE
  5
DCD9
330
1F
100
AcDbEntity
  8
AM_0
370
    30
100
AcDbLine
 10
223.7950259623828
 20
133.8015357899013
 30
0.0
 11
224.9136492422529
 21
133.8405989756012
 31
0.0
  0
ENDSEC
  0
SECTION
  2
OBJECTS
  0
DICTIONARY
  5
C
330
0
100
AcDbDictionary
281
     1
  3
ACAD_2007HEADERVARS_RT
350
DF72
  3
ACAD_BGPLOT_KEY
350
AB06
  3
ACAD_COLOR
350
A91D
  3
ACAD_GROUP
350
D
  3
ACAD_LAYOUT
350
1A
  3
ACAD_MATERIAL
350
A91C
  3
ACAD_MLEADERSTYLE
350
B595
  3
ACAD_MLINESTYLE
350
17
  3
ACAD_PLOTSETTINGS
350
19
  3
ACAD_PLOTSTYLENAME
350
E
  3
ACAD_SCALELIST
350
B573
  3
ACAD_TABLESTYLE
350
AAB9
  3
ACAD_VISUALSTYLE
350
B0F1
  3
AcAsAppObject
350
3DA1
  3
ACASGREF_MASTER
350
3DE9
  3
ACDB_RECOMPOSE_DATA
350
B5B7
  3
AcDbVariableDictionary
350
34
  3
AcmDictionary
350
47
  3
AD_GREF_MODULE
350
3DEA
  3
AD_MAPI_MODULE
350
3E06
  3
AMG
350
2B
  3
AMGSNAPSETTINGS
350
7D
  3
ASE_INDEX_DICTIONARY
350
B570
  3
DWGPROPS
350
DF71
  3
MAPISURF_MODULE
350
3DEB
  0
DICTIONARY
  5
3F95
330
2
100
AcDbDictionary
280
     1
281
     1
  3
ACAD_LAYERFILTERS
360
B4F7
  3
ACAD_LAYERSTATES
360
3F96
  3
ACLYDICTIONARY
360
B4F6
  3
AMLAYER_GROUPCOLORS
360
AAB4
  0
DICTIONARY
  5
BAF3
330
10
100
AcDbDictionary
280
     1
281
     1
  3
ADSK_XREC_LAYER_RECONCILED
360
BAF4
  0
DICTIONARY
  5
BAF5
330
5F85
100
AcDbDictionary
280
     1
281
     1
  3
ADSK_XREC_LAYER_RECONCILED
360
BAF6
  0
DICTIONARY
  5
BAF7
330
AC9F
100
AcDbDictionary
280
     1
281
     1
  3
ADSK_XREC_LAYER_RECONCILED
360
BAF8
  0
DICTIONARY
  5
BAF9
330
ACA0
100
AcDbDictionary
280
     1
281
     1
  3
ADSK_XREC_LAYER_RECONCILED
360
BAFA
  0
DICTIONARY
  5
BAFB
330
ACA1
100
AcDbDictionary
280
     1
281
     1
  3
ADSK_XREC_LAYER_RECONCILED
360
BAFC
  0
DICTIONARY
  5
BAFD
330
ACC8
100
AcDbDictionary
280
     1
281
     1
  3
ADSK_XREC_LAYER_RECONCILED
360
BAFE
  0
DICTIONARY
  5
BAFF
330
ACC9
100
AcDbDictionary
280
     1
281
     1
  3
ADSK_XREC_LAYER_RECONCILED
360
BB00
  0
DICTIONARY
  5
BB01
330
ACCA
100
AcDbDictionary
280
     1
281
     1
  3
ADSK_XREC_LAYER_RECONCILED
360
BB02
  0
DICTIONARY
  5
BB03
330
AD60
100
AcDbDictionary
280
     1
281
     1
  3
ADSK_XREC_LAYER_RECONCILED
360
BB04
  0
DICTIONARY
  5
BB05
330
AD64
100
AcDbDictionary
280
     1
281
     1
  3
ADSK_XREC_LAYER_RECONCILED
360
BB06
  0
DICTIONARY
  5
BB07
330
AD67
100
AcDbDictionary
280
     1
281
     1
  3
ADSK_XREC_LAYER_RECONCILED
360
BB08
  0
DICTIONARY
  5
BB09
330
AD68
100
AcDbDictionary
280
     1
281
     1
  3
ADSK_XREC_LAYER_RECONCILED
360
BB0A
  0
DICTIONARY
  5
BB0B
330
AD69
100
AcDbDictionary
280
     1
281
     1
  3
ADSK_XREC_LAYER_RECONCILED
360
BB0C
  0
DICTIONARY
  5
BB0D
330
AD6A
100
AcDbDictionary
280
     1
281
     1
  3
ADSK_XREC_LAYER_RECONCILED
360
BB0E
  0
DICTIONARY
  5
BB0F
330
AD6E
100
AcDbDictionary
280
     1
281
     1
  3
ADSK_XREC_LAYER_RECONCILED
360
BB10
  0
DICTIONARY
  5
BB11
330
AD6F
100
AcDbDictionary
280
     1
281
     1
  3
ADSK_XREC_LAYER_RECONCILED
360
BB12
  0
DICTIONARY
  5
BB13
330
B1B6
100
AcDbDictionary
280
     1
281
     1
  3
ADSK_XREC_LAYER_RECONCILED
360
BB14
  0
DICTIONARY
  5
BB15
330
B2EB
100
AcDbDictionary
280
     1
281
     1
  3
ADSK_XREC_LAYER_RECONCILED
360
BB16
  0
DICTIONARY
  5
BB17
330
B2EC
100
AcDbDictionary
280
     1
281
     1
  3
ADSK_XREC_LAYER_RECONCILED
360
BB18
  0
DICTIONARY
  5
8A
330
1F
100
AcDbDictionary
280
     1
281
     1
  3
ACAD_SORTENTS
360
B1BA
  0
DICTIONARY
  5
BB75
330
BB61
100
AcDbDictionary
280
     1
281
     1
  3
ACAD_SORTENTS
360
BB76
  0
DICTIONARY
  5
BBE4
330
BB8B
100
AcDbDictionary
280
     1
281
     1
  3
ACAD_SORTENTS
360
BBE5
  0
DICTIONARY
  5
DC86
330
DC78
100
AcDbDictionary
280
     1
281
     1
  3
ACAD_SORTENTS
360
DC87
  0
DICTIONARY
  5
DEF0
330
DBDD
100
AcDbDictionary
280
     1
281
     1
  3
ACAD_MTEXT_2008_RT
360
DEF1
  0
DICTIONARY
  5
DF72
102
{ACAD_REACTORS
330
C
102
}
330
C
100
AcDbDictionary
281
     1
  3
DIMARCSYM
350
DF73
  0
DICTIONARY
  5
AB06
102
{ACAD_REACTORS
330
C
102
}
330
C
100
AcDbDictionary
280
     1
281
     1
  0
DICTIONARY
  5
A91D
102
{ACAD_REACTORS
330
C
102
}
330
C
100
AcDbDictionary
281
     1
  0
DICTIONARY
  5
D
102
{ACAD_REACTORS
330
C
102
}
330
C
100
AcDbDictionary
281
     1
  0
DICTIONARY
  5
1A
102
{ACAD_REACTORS
330
C
102
}
330
C
100
AcDbDictionary
281
     1
  3
Model
350
22
  3
ﾚｲｱｳﾄ1
350
1E
  3
ﾚｲｱｳﾄ2
350
26
  0
DICTIONARY
  5
A91C
102
{ACAD_REACTORS
330
C
102
}
330
C
100
AcDbDictionary
281
     1
  3
ByBlock
350
B0EF
  3
ByLayer
350
B0EE
  3
Global
350
B0F0
  0
DICTIONARY
  5
B595
102
{ACAD_REACTORS
330
C
102
}
330
C
100
AcDbDictionary
281
     1
  3
Standard
350
B596
  0
DICTIONARY
  5
17
102
{ACAD_REACTORS
330
C
102
}
330
C
100
AcDbDictionary
281
     1
  3
Standard
350
18
  0
DICTIONARY
  5
19
102
{ACAD_REACTORS
330
C
102
}
330
C
100
AcDbDictionary
281
     1
  0
ACDBDICTIONARYWDFLT
  5
E
102
{ACAD_REACTORS
330
C
102
}
330
C
100
AcDbDictionary
281
     1
  3
Normal
350
F
100
AcDbDictionaryWithDefault
340
F
  0
DICTIONARY
  5
B573
102
{ACAD_REACTORS
330
C
102
}
330
C
100
AcDbDictionary
281
     1
  3
*A1
350
C44E
  3
A0
350
B574
  3
A1
350
B575
  3
A2
350
B576
  3
A3
350
B577
  3
A4
350
B578
  3
A5
350
B579
  3
A6
350
B57A
  3
A7
350
B57B
  3
A8
350
B57C
  3
A9
350
B57D
  3
B0
350
B57E
  3
B1
350
B57F
  3
B2
350
B580
  3
B3
350
B581
  3
B4
350
B582
  3
B5
350
B583
  3
B6
350
B584
  3
B7
350
B585
  3
B8
350
B586
  3
B9
350
B587
  3
C0
350
B588
  3
C1
350
B589
  3
C2
350
B58A
  3
C3
350
B58B
  3
C4
350
B58C
  3
C5
350
B58D
  3
C6
350
B58E
  3
C7
350
B58F
  3
C8
350
B590
  3
C9
350
B591
  3
D0
350
B592
  3
D1
350
B593
  3
D2
350
B594
  0
DICTIONARY
  5
AAB9
102
{ACAD_REACTORS
330
C
102
}
330
C
100
AcDbDictionary
281
     1
  3
Standard
350
AABA
  0
DICTIONARY
  5
B0F1
102
{ACAD_REACTORS
330
C
102
}
330
C
100
AcDbDictionary
281
     1
  3
2dWireframe
350
B0F7
  3
3D Hidden
350
B0F9
  3
3dWireframe
350
B0F8
  3
Basic
350
B0F6
  3
Brighten
350
B0FD
  3
ColorChange
350
B101
  3
Conceptual
350
B0FA
  3
Dim
350
B0FC
  3
Facepattern
350
B100
  3
Flat
350
B0F2
  3
FlatWithEdges
350
B0F3
  3
Gouraud
350
B0F4
  3
GouraudWithEdges
350
B0F5
  3
Linepattern
350
B0FF
  3
Realistic
350
B0FB
  3
Thicken
350
B0FE
  0
ACAD_PROXY_OBJECT
  5
3DA1
102
{ACAD_REACTORS
330
C
102
}
330
C
100
AcDbProxyObject
 90
      499
 91
      576
 95
   917527
 70
     0
 93
       10
310
407F
 94
        0
1001
ACAD
1000
AcRTDxfName
1000
ASAPP
  0
ACAD_PROXY_OBJECT
  5
3DE9
102
{ACAD_REACTORS
330
C
102
}
330
C
100
AcDbProxyObject
 90
      499
 91
      581
 95
   917527
 70
     0
 93
       34
310
010000407F
 94
        0
1001
ACAD
1000
AcRTDxfName
1000
ACASGREFMASTER
  0
XRECORD
  5
B5B7
102
{ACAD_REACTORS
330
C
102
}
330
C
100
AcDbXrecord
280
     1
 90
        1
330
AABA
  0
DICTIONARY
  5
34
102
{ACAD_REACTORS
330
C
102
}
330
C
100
AcDbDictionary
281
     1
  3
CANNOSCALE
350
B5BA
  3
CMLEADERSTYLE
350
B5B8
  3
CTABLESTYLE
350
AAF3
  3
DIMASSOC
350
A10C
  3
FIELDEVAL
350
AB07
  3
INDEXCTL
350
35
  3
LIGHTINGUNITS
350
B5BB
  3
MSLTSCALE
350
B5B9
  3
SORTENTS
350
194C
  0
DICTIONARY
  5
47
102
{ACAD_REACTORS
330
C
102
}
330
C
100
AcDbDictionary
281
     1
  3
AcmBOM
350
7E8
  3
AcmStdDictionary
350
4C
  3
AMDTSECTSYM_ARROWCOLOR
350
A929
  0
ACAD_PROXY_OBJECT
  5
3DEA
102
{ACAD_REACTORS
330
C
102
}
330
C
100
AcDbProxyObject
 90
      499
 91
      582
 95
   917527
 70
     0
 93
      114
310
00000043800000000000000000003F
 94
        0
1001
ACAD
1000
AcRTDxfName
1000
ACADGREFMODULE
  0
ACAD_PROXY_OBJECT
  5
3E06
102
{ACAD_REACTORS
330
C
102
}
330
C
100
AcDbProxyObject
 90
      499
 91
      594
 95
   917527
 70
     0
 93
       34
310
05000044FF
 94
        0
1001
ACAD
1000
AcRTDxfName
1000
MAPIADMODULE
  0
DICTIONARY
  5
2B
102
{ACAD_REACTORS
330
C
102
}
330
C
100
AcDbDictionary
281
     1
  0
DICTIONARY
  5
7D
102
{ACAD_REACTORS
330
C
102
}
330
C
100
AcDbDictionary
281
     1
  0
DICTIONARY
  5
B570
102
{ACAD_REACTORS
330
C
102
}
330
C
100
AcDbDictionary
281
     1
  3
ASEBlockHierarchyIndexRecord
350
B571
1001
DCO15
1040
1706332604.97
  0
XRECORD
  5
DF71
102
{ACAD_REACTORS
330
C
102
}
330
C
100
AcDbXrecord
280
     1
  1
DWGPROPS COOKIE
  2

  3

  4

  6

  7

  8
Administrator
  9

300
AmdtFileType=84
301
=
302
=
303
=
304
=
305
=
306
=
307
=
308
=
309
=
 40
0.1135646180555555
 41
2455827.693001482
 42
2456030.696746412
  1

 90
        1
  0
ACAD_PROXY_OBJECT
  5
3DEB
102
{ACAD_REACTORS
330
C
102
}
330
C
100
AcDbProxyObject
 90
      499
 91
      583
 95
   917527
 70
     0
 93
        8
310
047C
 94
        0
1001
ACAD
1000
AcRTDxfName
1000
AMDTMAPISURFMOUDULE
  0
DICTIONARY
  5
B4F7
102
{ACAD_REACTORS
330
3F95
102
}
330
3F95
100
AcDbDictionary
281
     1
  0
DICTIONARY
  5
3F96
102
{ACAD_REACTORS
330
3F95
102
}
330
3F95
100
AcDbDictionary
281
     1
  3
20011210
350
3FB7
  0
DICTIONARY
  5
B4F6
102
{ACAD_REACTORS
330
3F95
102
}
330
3F95
100
AcDbDictionary
281
     1
1001
ACAD
1000
<All
  0
DICTIONARY
  5
AAB4
102
{ACAD_REACTORS
330
3F95
102
}
330
3F95
100
AcDbDictionary
280
     1
281
     1
  0
XRECORD
  5
BAF4
102
{ACAD_REACTORS
330
BAF3
102
}
330
BAF3
100
AcDbXrecord
280
     1
290
     1
  0
XRECORD
  5
BAF6
102
{ACAD_REACTORS
330
BAF5
102
}
330
BAF5
100
AcDbXrecord
280
     1
290
     1
  0
XRECORD
  5
BAF8
102
{ACAD_REACTORS
330
BAF7
102
}
330
BAF7
100
AcDbXrecord
280
     1
290
     1
  0
XRECORD
  5
BAFA
102
{ACAD_REACTORS
330
BAF9
102
}
330
BAF9
100
AcDbXrecord
280
     1
290
     1
  0
XRECORD
  5
BAFC
102
{ACAD_REACTORS
330
BAFB
102
}
330
BAFB
100
AcDbXrecord
280
     1
290
     1
  0
XRECORD
  5
BAFE
102
{ACAD_REACTORS
330
BAFD
102
}
330
BAFD
100
AcDbXrecord
280
     1
290
     1
  0
XRECORD
  5
BB00
102
{ACAD_REACTORS
330
BAFF
102
}
330
BAFF
100
AcDbXrecord
280
     1
290
     1
  0
XRECORD
  5
BB02
102
{ACAD_REACTORS
330
BB01
102
}
330
BB01
100
AcDbXrecord
280
     1
290
     1
  0
XRECORD
  5
BB04
102
{ACAD_REACTORS
330
BB03
102
}
330
BB03
100
AcDbXrecord
280
     1
290
     1
  0
XRECORD
  5
BB06
102
{ACAD_REACTORS
330
BB05
102
}
330
BB05
100
AcDbXrecord
280
     1
290
     1
  0
XRECORD
  5
BB08
102
{ACAD_REACTORS
330
BB07
102
}
330
BB07
100
AcDbXrecord
280
     1
290
     1
  0
XRECORD
  5
BB0A
102
{ACAD_REACTORS
330
BB09
102
}
330
BB09
100
AcDbXrecord
280
     1
290
     1
  0
XRECORD
  5
BB0C
102
{ACAD_REACTORS
330
BB0B
102
}
330
BB0B
100
AcDbXrecord
280
     1
290
     1
  0
XRECORD
  5
BB0E
102
{ACAD_REACTORS
330
BB0D
102
}
330
BB0D
100
AcDbXrecord
280
     1
290
     1
  0
XRECORD
  5
BB10
102
{ACAD_REACTORS
330
BB0F
102
}
330
BB0F
100
AcDbXrecord
280
     1
290
     1
  0
XRECORD
  5
BB12
102
{ACAD_REACTORS
330
BB11
102
}
330
BB11
100
AcDbXrecord
280
     1
290
     1
  0
XRECORD
  5
BB14
102
{ACAD_REACTORS
330
BB13
102
}
330
BB13
100
AcDbXrecord
280
     1
290
     1
  0
XRECORD
  5
BB16
102
{ACAD_REACTORS
330
BB15
102
}
330
BB15
100
AcDbXrecord
280
     1
290
     1
  0
XRECORD
  5
BB18
102
{ACAD_REACTORS
330
BB17
102
}
330
BB17
100
AcDbXrecord
280
     1
290
     1
  0
SORTENTSTABLE
  5
B1BA
102
{ACAD_REACTORS
330
8A
102
}
330
8A
100
AcDbSortentsTable
330
1F
331
DBD9
  5
DBDE
331
D592
  5
D595
331
D5A2
  5
D5A5
331
DCA5
  5
DCA9
331
DCC5
  5
DCCA
331
D53A
  5
D53D
331
C86E
  5
C86E
331
D542
  5
D543
331
D54A
  5
D54B
331
D50B
  5
D50B
331
D552
  5
D553
331
D513
  5
D513
331
C92E
  5
C941
331
D5B2
  5
D5B5
331
D57B
  5
D57E
331
D583
  5
D586
331
D5CA
  5
D779
331
D58B
  5
D58F
331
DCD5
  5
DCD6
331
D51B
  5
D51B
331
D55A
  5
D55B
331
C936
  5
CB11
331
D562
  5
D565
331
BC77
  5
BC76
331
BC7F
  5
BC7E
331
D52B
  5
D52B
331
C85F
  5
C85F
331
DAE4
  5
DBD8
331
D533
  5
D534
331
C867
  5
C867
331
DBDA
  5
DBDF
331
D593
  5
D596
331
D5A3
  5
D5A6
331
D5AB
  5
D5AE
331
DCA6
  5
DCAA
331
DCC6
  5
DCCB
331
D543
  5
D544
331
D50C
  5
D50C
331
D54B
  5
D54C
331
D514
  5
D514
331
D553
  5
D554
331
D779
  5
D83C
331
D5B3
  5
D5C6
331
D57C
  5
D57F
331
D5CB
  5
D7AA
331
D584
  5
D587
331
DCCE
  5
D561
331
DCD6
  5
DCD7
331
D55B
  5
D55C
331
BC70
  5
BBF8
331
D51C
  5
D51C
331
D563
  5
D575
331
BC78
  5
BC77
331
C937
  5
CB12
331
D524
  5
D524
331
D52C
  5
D52C
331
CA2F
  5
CB28
331
D534
  5
D535
331
C860
  5
C860
331
D594
  5
D597
331
D59C
  5
D59F
331
D5A4
  5
D5A7
331
D5AC
  5
D5AF
331
DCA7
  5
DCAB
331
DCC7
  5
DCCC
331
C870
  5
C870
331
D544
  5
D545
331
D54C
  5
D54D
331
C900
  5
C90E
331
D50D
  5
D50D
331
D554
  5
D555
331
DB31
  5
DBDA
331
D515
  5
D515
331
D9BE
  5
DA08
331
D7AA
  5
D8CD
331
D5B4
  5
D5CA
331
D57D
  5
D580
331
D585
  5
D588
331
D58D
  5
D590
331
DCCF
  5
DCD0
331
DCD7
  5
DCD8
331
D51D
  5
D51D
331
D55C
  5
D55D
331
BC71
  5
BC70
331
C938
  5
CB13
331
D525
  5
D525
331
D564
  5
D576
331
BC79
  5
BC78
331
D52D
  5
D52D
331
C861
  5
C861
331
D535
  5
D536
331
DBDC
  5
DCA1
331
D595
  5
D59C
331
D59D
  5
D5A0
331
D5A5
  5
D5A8
331
D5AD
  5
D5B0
331
DCA0
  5
DCA3
331
DCA8
  5
DCC0
331
DCC0
  5
DCC5
331
D53D
  5
D53E
331
CA46
  5
CB29
331
D545
  5
D546
331
D50E
  5
D50E
331
D54D
  5
D54E
331
D977
  5
D9E6
331
D516
  5
D516
331
D555
  5
D556
331
D99F
  5
DA07
331
D7DB
  5
D8F5
331
D5B5
  5
D5CB
331
D57E
  5
D581
331
D586
  5
D589
331
D58E
  5
D591
331
DCC8
  5
DCCD
331
DCD0
  5
DCD1
331
DCD8
  5
DCD9
331
D55D
  5
D55E
331
BC72
  5
BC71
331
C931
  5
C942
331
D51E
  5
D51E
331
D565
  5
D578
331
BC7A
  5
BC79
331
DA07
  5
DAE4
331
D526
  5
D526
331
D52E
  5
D52E
331
D536
  5
D537
331
C862
  5
C862
331
DBDD
  5
DCA2
331
D596
  5
D59D
331
D59E
  5
D5A1
331
D5A6
  5
D5AD
331
D5AE
  5
D5B2
331
DCA1
  5
DCA4
331
DCA9
  5
DCC1
331
DCC1
  5
DCC6
331
C86A
  5
C86A
331
D53E
  5
D541
331
CA47
  5
CB2A
331
D546
  5
D547
331
D54E
  5
D54F
331
D50F
  5
D50F
331
D517
  5
D517
331
D556
  5
D557
331
C92A
  5
C93C
331
D57F
  5
D582
331
D5C6
  5
D723
331
D587
  5
D58A
331
DCC9
  5
DCCE
331
D58F
  5
D592
331
DCD1
  5
DCD2
331
DCD9
  5
DE53
331
D51F
  5
D51F
331
D55E
  5
D560
331
BC73
  5
BC72
331
D527
  5
D527
331
BC7B
  5
BC7A
331
DA08
  5
DB0C
331
D576
  5
D57D
331
D52F
  5
D52F
331
C863
  5
C863
331
D537
  5
D538
331
D83C
  5
D914
331
D597
  5
D59E
331
D59F
  5
D5A2
331
D5AF
  5
D5B3
331
DCA2
  5
DCA5
331
DCAA
  5
DCC2
331
DCC2
  5
DCC7
331
C86B
  5
C86B
331
D547
  5
D548
331
D510
  5
D510
331
D54F
  5
D550
331
DB0C
  5
DBD9
331
C92B
  5
C93D
331
D557
  5
D558
331
D580
  5
D583
331
D588
  5
D58B
331
DCCA
  5
DCCF
331
DCD2
  5
DCD3
331
D518
  5
D518
331
D55F
  5
D562
331
BC74
  5
BC73
331
C933
  5
C943
331
D520
  5
D520
331
DA09
  5
DB31
331
D528
  5
D528
331
BC7C
  5
BC7B
331
C93B
  5
CB26
331
D530
  5
D530
331
D9E6
  5
DA09
331
D8CD
  5
D933
331
DBDF
  5
DCA0
331
D8F5
  5
D977
331
D590
  5
D593
331
D5A0
  5
D5A3
331
D723
  5
D7DB
331
DCA3
  5
DCA7
331
DCAB
  5
DCC3
331
DCC3
  5
DCC8
331
D538
  5
D539
331
C86C
  5
C86C
331
D548
  5
D549
331
D550
  5
D551
331
D511
  5
D511
331
C92C
  5
C93E
331
D5B0
  5
D5B4
331
D581
  5
D584
331
D589
  5
D58C
331
DCCB
  5
DCA6
331
DCD3
  5
DCD4
331
D519
  5
D519
331
D558
  5
D559
331
C934
  5
C944
331
D521
  5
D521
331
D560
  5
D563
331
BC75
  5
BC74
331
D529
  5
D529
331
BC7D
  5
BC7C
331
D531
  5
D531
331
DBD8
  5
DBDD
331
D591
  5
D594
331
D5A1
  5
D5A4
331
DCA4
  5
DCA8
331
DCAC
  5
DCC4
331
D539
  5
D53A
331
DCC4
  5
DCC9
331
D933
  5
D9BE
331
D541
  5
D542
331
C86D
  5
C86D
331
D549
  5
D54A
331
D512
  5
D512
331
D551
  5
D552
331
C92D
  5
C940
331
D582
  5
D585
331
D58A
  5
D58D
331
DCCC
  5
DCAC
331
DCD4
  5
DCD5
331
D51A
  5
D51A
331
D559
  5
D55A
331
D561
  5
D564
331
BC76
  5
BC75
331
C935
  5
C945
331
D52A
  5
D52A
331
BC7E
  5
BC7D
331
D532
  5
D533
331
D914
  5
D99F
331
C866
  5
C866
  0
SORTENTSTABLE
  5
BB76
102
{ACAD_REACTORS
330
BB75
102
}
330
BB75
100
AcDbSortentsTable
330
BB61
  0
SORTENTSTABLE
  5
BBE5
102
{ACAD_REACTORS
330
BBE4
102
}
330
BBE4
100
AcDbSortentsTable
330
BB8B
  0
SORTENTSTABLE
  5
DC87
102
{ACAD_REACTORS
330
DC86
102
}
330
DC86
100
AcDbSortentsTable
330
DC78
  0
XRECORD
  5
DEF1
102
{ACAD_REACTORS
330
DEF0
102
}
330
DEF0
100
AcDbXrecord
280
     1
 40
3012.0
  1
2-\U+22055
  0
XRECORD
  5
DF73
102
{ACAD_REACTORS
330
DF72
102
}
330
DF72
100
AcDbXrecord
280
     1
 70
     1
  0
LAYOUT
  5
22
102
{ACAD_XDICTIONARY
360
DF76
102
}
102
{ACAD_REACTORS
330
1A
102
}
330
1A
100
AcDbPlotSettings
  1

  2
Adobe PDF
  4
A3
  6
AM_VIEW1
 40
3.174999952316283
 41
3.174999952316283
 42
3.17498779296875
 43
3.17498779296875
 44
297.0318298339844
 45
420.1583251953125
 46
-3.159078955650328
 47
-3.095831274986267
 48
214.3704939521119
 49
367.5855324241177
140
275.6727856380065
141
407.6291914078169
142
1.0
143
1.0
 70
  3748
 72
     1
 73
     1
 74
     2
  7
monochrome.ctb
 75
     0
147
0.9787267410393916
148
0.0
149
0.0
100
AcDbLayout
  1
Model
 70
     1
 71
     0
 10
0.0
 20
0.0
 11
12.0
 21
9.0
 12
0.0
 22
0.0
 32
0.0
 14
0.0
 24
0.0
 34
0.0
 15
0.0
 25
0.0
 35
0.0
146
0.0
 13
0.0
 23
0.0
 33
0.0
 16
1.0
 26
0.0
 36
0.0
 17
0.0
 27
1.0
 37
0.0
 76
     0
330
1F
331
B0EC
1001
ACAD_PSEXT
1000
Adobe PDF
1000
Adobe PDF Converter
1000
My Documents\*.pdf
1000

1070
     0
  0
LAYOUT
  5
1E
102
{ACAD_XDICTIONARY
360
DF74
102
}
102
{ACAD_REACTORS
330
1A
102
}
330
1A
100
AcDbPlotSettings
  1

  2
\\ML370\XEROX
  4
A4
  6

 40
3.174999952316283
 41
3.174999952316283
 42
3.175003051757812
 43
3.17498779296875
 44
209.8674926757813
 45
296.6719970703125
 46
0.0
 47
0.0
 48
0.0
 49
0.0
140
0.0
141
0.0
142
1.0
143
1.0
 70
   688
 72
     1
 73
     1
 74
     5
  7
monochrome.ctb
 75
    16
147
1.0
148
0.0
149
0.0
100
AcDbLayout
  1
ﾚｲｱｳﾄ1
 70
     1
 71
     1
 10
-3.17498779296875
 20
-3.174999952316283
 11
293.4970092773438
 21
206.692492723465
 12
0.0
 22
0.0
 32
0.0
 14
1.000000000000000E+20
 24
1.000000000000000E+20
 34
1.000000000000000E+20
 15
-1.000000000000000E+20
 25
-1.000000000000000E+20
 35
-1.000000000000000E+20
146
0.0
 13
0.0
 23
0.0
 33
0.0
 16
1.0
 26
0.0
 36
0.0
 17
0.0
 27
1.0
 37
0.0
 76
     0
330
1B
  0
LAYOUT
  5
26
102
{ACAD_XDICTIONARY
360
DF78
102
}
102
{ACAD_REACTORS
330
1A
102
}
330
1A
100
AcDbPlotSettings
  1

  2
\\ML370\XEROX
  4

  6

 40
0.0
 41
0.0
 42
0.0
 43
0.0
 44
0.0
 45
0.0
 46
0.0
 47
0.0
 48
0.0
 49
0.0
140
0.0
141
0.0
142
1.0
143
1.0
 70
   688
 72
     0
 73
     0
 74
     5
  7
monochrome.ctb
 75
    16
147
1.0
148
0.0
149
0.0
100
AcDbLayout
  1
ﾚｲｱｳﾄ2
 70
     1
 71
     2
 10
0.0
 20
0.0
 11
12.0
 21
9.0
 12
0.0
 22
0.0
 32
0.0
 14
0.0
 24
0.0
 34
0.0
 15
0.0
 25
0.0
 35
0.0
146
0.0
 13
0.0
 23
0.0
 33
0.0
 16
1.0
 26
0.0
 36
0.0
 17
0.0
 27
1.0
 37
0.0
 76
     0
330
23
  0
MATERIAL
  5
B0EF
102
{ACAD_XDICTIONARY
360
DEEB
102
}
102
{ACAD_REACTORS
330
A91C
102
}
330
A91C
100
AcDbMaterial
  1
ByBlock
  0
MATERIAL
  5
B0EE
102
{ACAD_XDICTIONARY
360
DEE9
102
}
102
{ACAD_REACTORS
330
A91C
102
}
330
A91C
100
AcDbMaterial
  1
ByLayer
  0
MATERIAL
  5
B0F0
102
{ACAD_XDICTIONARY
360
DEED
102
}
102
{ACAD_REACTORS
330
A91C
102
}
330
A91C
100
AcDbMaterial
  1
Global
  0
ACAD_PROXY_OBJECT
  5
B596
102
{ACAD_REACTORS
330
B595
102
}
330
B595
100
AcDbProxyObject
 90
      499
 91
      626
 95
  6815769
 70
     1
100
AcDbMLeaderStyle
170
     2
171
     1
172
     0
 90
        2
 40
0.0
 41
0.0
173
     1
 91
-1056964608
340
14
 92
       -2
290
     1
 42
2.0
291
     1
 43
0.36
  3
Standard
 44
4.0
300

342
11
174
     1
178
     6
175
     1
176
     0
 93
-1056964608
 45
4.0
292
     0
297
     0
 46
4.0
 94
-1056964608
 47
1.0
 49
1.0
140
1.0
293
     1
141
0.0
294
     1
177
     0
142
1.0
295
     0
296
     0
143
0.125
1001
ACAD_MLEADERVER
1070
     2
1001
ACAD
1000
AcRTDxfName
1000
MLEADERSTYLE
  0
MLINESTYLE
  5
18
102
{ACAD_REACTORS
330
17
102
}
330
17
100
AcDbMlineStyle
  2
STANDARD
 70
     0
  3

 62
   256
 51
90.0
 52
90.0
 71
     2
 49
0.5
 62
   256
  6
BYLAYER
 49
-0.5
 62
   256
  6
BYLAYER
  0
ACDBPLACEHOLDER
  5
F
102
{ACAD_REACTORS
330
E
102
}
330
E
  0
ACAD_PROXY_OBJECT
  5
C44E
102
{ACAD_REACTORS
330
B573
102
}
330
B573
100
AcDbProxyObject
 90
      499
 91
      625
 95
  6815769
 70
     1
100
AcDbScale
 70
     0
300
5:1
140
5.0
141
1.0
290
     0
1001
ACAD
1000
AcRTDxfName
1000
SCALE
  0
ACAD_PROXY_OBJECT
  5
B574
102
{ACAD_REACTORS
330
B573
102
}
330
B573
100
AcDbProxyObject
 90
      499
 91
      625
 95
  6815769
 70
     1
100
AcDbScale
 70
     0
300
1:1
140
1.0
141
1.0
290
     1
1001
ACAD
1000
AcRTDxfName
1000
SCALE
  0
ACAD_PROXY_OBJECT
  5
B575
102
{ACAD_REACTORS
330
B573
102
}
330
B573
100
AcDbProxyObject
 90
      499
 91
      625
 95
  6815769
 70
     1
100
AcDbScale
 70
     0
300
1:2
140
1.0
141
2.0
290
     0
1001
ACAD
1000
AcRTDxfName
1000
SCALE
  0
ACAD_PROXY_OBJECT
  5
B576
102
{ACAD_REACTORS
330
B573
102
}
330
B573
100
AcDbProxyObject
 90
      499
 91
      625
 95
  6815769
 70
     1
100
AcDbScale
 70
     0
300
1:4
140
1.0
141
4.0
290
     0
1001
ACAD
1000
AcRTDxfName
1000
SCALE
  0
ACAD_PROXY_OBJECT
  5
B577
102
{ACAD_REACTORS
330
B573
102
}
330
B573
100
AcDbProxyObject
 90
      499
 91
      625
 95
  6815769
 70
     1
100
AcDbScale
 70
     0
300
1:5
140
1.0
141
5.0
290
     0
1001
ACAD
1000
AcRTDxfName
1000
SCALE
  0
ACAD_PROXY_OBJECT
  5
B578
102
{ACAD_REACTORS
330
B573
102
}
330
B573
100
AcDbProxyObject
 90
      499
 91
      625
 95
  6815769
 70
     1
100
AcDbScale
 70
     0
300
1:8
140
1.0
141
8.0
290
     0
1001
ACAD
1000
AcRTDxfName
1000
SCALE
  0
ACAD_PROXY_OBJECT
  5
B579
102
{ACAD_REACTORS
330
B573
102
}
330
B573
100
AcDbProxyObject
 90
      499
 91
      625
 95
  6815769
 70
     1
100
AcDbScale
 70
     0
300
1:10
140
1.0
141
10.0
290
     0
1001
ACAD
1000
AcRTDxfName
1000
SCALE
  0
ACAD_PROXY_OBJECT
  5
B57A
102
{ACAD_REACTORS
330
B573
102
}
330
B573
100
AcDbProxyObject
 90
      499
 91
      625
 95
  6815769
 70
     1
100
AcDbScale
 70
     0
300
1:16
140
1.0
141
16.0
290
     0
1001
ACAD
1000
AcRTDxfName
1000
SCALE
  0
ACAD_PROXY_OBJECT
  5
B57B
102
{ACAD_REACTORS
330
B573
102
}
330
B573
100
AcDbProxyObject
 90
      499
 91
      625
 95
  6815769
 70
     1
100
AcDbScale
 70
     0
300
1:20
140
1.0
141
20.0
290
     0
1001
ACAD
1000
AcRTDxfName
1000
SCALE
  0
ACAD_PROXY_OBJECT
  5
B57C
102
{ACAD_REACTORS
330
B573
102
}
330
B573
100
AcDbProxyObject
 90
      499
 91
      625
 95
  6815769
 70
     1
100
AcDbScale
 70
     0
300
1:30
140
1.0
141
30.0
290
     0
1001
ACAD
1000
AcRTDxfName
1000
SCALE
  0
ACAD_PROXY_OBJECT
  5
B57D
102
{ACAD_REACTORS
330
B573
102
}
330
B573
100
AcDbProxyObject
 90
      499
 91
      625
 95
  6815769
 70
     1
100
AcDbScale
 70
     0
300
1:40
140
1.0
141
40.0
290
     0
1001
ACAD
1000
AcRTDxfName
1000
SCALE
  0
ACAD_PROXY_OBJECT
  5
B57E
102
{ACAD_REACTORS
330
B573
102
}
330
B573
100
AcDbProxyObject
 90
      499
 91
      625
 95
  6815769
 70
     1
100
AcDbScale
 70
     0
300
1:50
140
1.0
141
50.0
290
     0
1001
ACAD
1000
AcRTDxfName
1000
SCALE
  0
ACAD_PROXY_OBJECT
  5
B57F
102
{ACAD_REACTORS
330
B573
102
}
330
B573
100
AcDbProxyObject
 90
      499
 91
      625
 95
  6815769
 70
     1
100
AcDbScale
 70
     0
300
1:100
140
1.0
141
100.0
290
     0
1001
ACAD
1000
AcRTDxfName
1000
SCALE
  0
ACAD_PROXY_OBJECT
  5
B580
102
{ACAD_REACTORS
330
B573
102
}
330
B573
100
AcDbProxyObject
 90
      499
 91
      625
 95
  6815769
 70
     1
100
AcDbScale
 70
     0
300
2:1
140
2.0
141
1.0
290
     0
1001
ACAD
1000
AcRTDxfName
1000
SCALE
  0
ACAD_PROXY_OBJECT
  5
B581
102
{ACAD_REACTORS
330
B573
102
}
330
B573
100
AcDbProxyObject
 90
      499
 91
      625
 95
  6815769
 70
     1
100
AcDbScale
 70
     0
300
4:1
140
4.0
141
1.0
290
     0
1001
ACAD
1000
AcRTDxfName
1000
SCALE
  0
ACAD_PROXY_OBJECT
  5
B582
102
{ACAD_REACTORS
330
B573
102
}
330
B573
100
AcDbProxyObject
 90
      499
 91
      625
 95
  6815769
 70
     1
100
AcDbScale
 70
     0
300
8:1
140
8.0
141
1.0
290
     0
1001
ACAD
1000
AcRTDxfName
1000
SCALE
  0
ACAD_PROXY_OBJECT
  5
B583
102
{ACAD_REACTORS
330
B573
102
}
330
B573
100
AcDbProxyObject
 90
      499
 91
      625
 95
  6815769
 70
     1
100
AcDbScale
 70
     0
300
10:1
140
10.0
141
1.0
290
     0
1001
ACAD
1000
AcRTDxfName
1000
SCALE
  0
ACAD_PROXY_OBJECT
  5
B584
102
{ACAD_REACTORS
330
B573
102
}
330
B573
100
AcDbProxyObject
 90
      499
 91
      625
 95
  6815769
 70
     1
100
AcDbScale
 70
     0
300
100:1
140
100.0
141
1.0
290
     0
1001
ACAD
1000
AcRTDxfName
1000
SCALE
  0
ACAD_PROXY_OBJECT
  5
B585
102
{ACAD_REACTORS
330
B573
102
}
330
B573
100
AcDbProxyObject
 90
      499
 91
      625
 95
  6815769
 70
     1
100
AcDbScale
 70
     0
300
1/128" = 1'-0"
140
0.0078125
141
12.0
290
     0
1001
ACAD
1000
AcRTDxfName
1000
SCALE
  0
ACAD_PROXY_OBJECT
  5
B586
102
{ACAD_REACTORS
330
B573
102
}
330
B573
100
AcDbProxyObject
 90
      499
 91
      625
 95
  6815769
 70
     1
100
AcDbScale
 70
     0
300
1/64" = 1'-0"
140
0.015625
141
12.0
290
     0
1001
ACAD
1000
AcRTDxfName
1000
SCALE
  0
ACAD_PROXY_OBJECT
  5
B587
102
{ACAD_REACTORS
330
B573
102
}
330
B573
100
AcDbProxyObject
 90
      499
 91
      625
 95
  6815769
 70
     1
100
AcDbScale
 70
     0
300
1/32" = 1'-0"
140
0.03125
141
12.0
290
     0
1001
ACAD
1000
AcRTDxfName
1000
SCALE
  0
ACAD_PROXY_OBJECT
  5
B588
102
{ACAD_REACTORS
330
B573
102
}
330
B573
100
AcDbProxyObject
 90
      499
 91
      625
 95
  6815769
 70
     1
100
AcDbScale
 70
     0
300
1/16" = 1'-0"
140
0.0625
141
12.0
290
     0
1001
ACAD
1000
AcRTDxfName
1000
SCALE
  0
ACAD_PROXY_OBJECT
  5
B589
102
{ACAD_REACTORS
330
B573
102
}
330
B573
100
AcDbProxyObject
 90
      499
 91
      625
 95
  6815769
 70
     1
100
AcDbScale
 70
     0
300
3/32" = 1'-0"
140
0.09375
141
12.0
290
     0
1001
ACAD
1000
AcRTDxfName
1000
SCALE
  0
ACAD_PROXY_OBJECT
  5
B58A
102
{ACAD_REACTORS
330
B573
102
}
330
B573
100
AcDbProxyObject
 90
      499
 91
      625
 95
  6815769
 70
     1
100
AcDbScale
 70
     0
300
1/8" = 1'-0"
140
0.125
141
12.0
290
     0
1001
ACAD
1000
AcRTDxfName
1000
SCALE
  0
ACAD_PROXY_OBJECT
  5
B58B
102
{ACAD_REACTORS
330
B573
102
}
330
B573
100
AcDbProxyObject
 90
      499
 91
      625
 95
  6815769
 70
     1
100
AcDbScale
 70
     0
300
3/16" = 1'-0"
140
0.1875
141
12.0
290
     0
1001
ACAD
1000
AcRTDxfName
1000
SCALE
  0
ACAD_PROXY_OBJECT
  5
B58C
102
{ACAD_REACTORS
330
B573
102
}
330
B573
100
AcDbProxyObject
 90
      499
 91
      625
 95
  6815769
 70
     1
100
AcDbScale
 70
     0
300
1/4" = 1'-0"
140
0.25
141
12.0
290
     0
1001
ACAD
1000
AcRTDxfName
1000
SCALE
  0
ACAD_PROXY_OBJECT
  5
B58D
102
{ACAD_REACTORS
330
B573
102
}
330
B573
100
AcDbProxyObject
 90
      499
 91
      625
 95
  6815769
 70
     1
100
AcDbScale
 70
     0
300
3/8" = 1'-0"
140
0.375
141
12.0
290
     0
1001
ACAD
1000
AcRTDxfName
1000
SCALE
  0
ACAD_PROXY_OBJECT
  5
B58E
102
{ACAD_REACTORS
330
B573
102
}
330
B573
100
AcDbProxyObject
 90
      499
 91
      625
 95
  6815769
 70
     1
100
AcDbScale
 70
     0
300
1/2" = 1'-0"
140
0.5
141
12.0
290
     0
1001
ACAD
1000
AcRTDxfName
1000
SCALE
  0
ACAD_PROXY_OBJECT
  5
B58F
102
{ACAD_REACTORS
330
B573
102
}
330
B573
100
AcDbProxyObject
 90
      499
 91
      625
 95
  6815769
 70
     1
100
AcDbScale
 70
     0
300
3/4" = 1'-0"
140
0.75
141
12.0
290
     0
1001
ACAD
1000
AcRTDxfName
1000
SCALE
  0
ACAD_PROXY_OBJECT
  5
B590
102
{ACAD_REACTORS
330
B573
102
}
330
B573
100
AcDbProxyObject
 90
      499
 91
      625
 95
  6815769
 70
     1
100
AcDbScale
 70
     0
300
1" = 1'-0"
140
1.0
141
12.0
290
     0
1001
ACAD
1000
AcRTDxfName
1000
SCALE
  0
ACAD_PROXY_OBJECT
  5
B591
102
{ACAD_REACTORS
330
B573
102
}
330
B573
100
AcDbProxyObject
 90
      499
 91
      625
 95
  6815769
 70
     1
100
AcDbScale
 70
     0
300
1-1/2" = 1'-0"
140
1.5
141
12.0
290
     0
1001
ACAD
1000
AcRTDxfName
1000
SCALE
  0
ACAD_PROXY_OBJECT
  5
B592
102
{ACAD_REACTORS
330
B573
102
}
330
B573
100
AcDbProxyObject
 90
      499
 91
      625
 95
  6815769
 70
     1
100
AcDbScale
 70
     0
300
3" = 1'-0"
140
3.0
141
12.0
290
     0
1001
ACAD
1000
AcRTDxfName
1000
SCALE
  0
ACAD_PROXY_OBJECT
  5
B593
102
{ACAD_REACTORS
330
B573
102
}
330
B573
100
AcDbProxyObject
 90
      499
 91
      625
 95
  6815769
 70
     1
100
AcDbScale
 70
     0
300
6" = 1'-0"
140
6.0
141
12.0
290
     0
1001
ACAD
1000
AcRTDxfName
1000
SCALE
  0
ACAD_PROXY_OBJECT
  5
B594
102
{ACAD_REACTORS
330
B573
102
}
330
B573
100
AcDbProxyObject
 90
      499
 91
      625
 95
  6815769
 70
     1
100
AcDbScale
 70
     0
300
1'-0" = 1'-0"
140
12.0
141
12.0
290
     0
1001
ACAD
1000
AcRTDxfName
1000
SCALE
  0
TABLESTYLE
  5
AABA
102
{ACAD_XDICTIONARY
360
B5B5
102
}
102
{ACAD_REACTORS
330
AAB9
102
}
330
AAB9
100
AcDbTableStyle
  3
Standard
 70
     0
 71
     0
 40
1.5
 41
1.5
280
     0
281
     0
  7
STANDARD
140
4.5
170
     2
 62
     0
 63
     7
283
     0
274
    -2
284
     1
 64
     0
275
    -2
285
     1
 65
     0
276
    -2
286
     1
 66
     0
277
    -2
287
     1
 67
     0
278
    -2
288
     1
 68
     0
279
    -2
289
     1
 69
     0
  7
STANDARD
140
6.0
170
     5
 62
     0
 63
     7
283
     0
274
    -2
284
     1
 64
     0
275
    -2
285
     1
 65
     0
276
    -2
286
     1
 66
     0
277
    -2
287
     1
 67
     0
278
    -2
288
     1
 68
     0
279
    -2
289
     1
 69
     0
  7
STANDARD
140
4.5
170
     5
 62
     0
 63
     7
283
     0
274
    -2
284
     1
 64
     0
275
    -2
285
     1
 65
     0
276
    -2
286
     1
 66
     0
277
    -2
287
     1
 67
     0
278
    -2
288
     1
 68
     0
279
    -2
289
     1
 69
     0
  0
VISUALSTYLE
  5
B0F7
102
{ACAD_REACTORS
330
B0F1
102
}
330
B0F1
100
AcDbVisualStyle
  2
2dWireframe
 70
     4
 71
     0
 72
     2
 73
     0
 90
        0
 40
-0.6
 41
-30.0
 62
     5
 63
     7
 74
     1
 91
        4
 64
     7
 65
   257
 75
     1
175
     1
 42
1.0
 92
        0
 66
   257
 43
1.0
 76
     1
 77
     6
 78
     2
 67
     7
 79
     5
170
     0
171
     0
290
     0
174
     0
 93
        1
 44
0.0
173
     0
291
     0
 45
0.0
1001
ACAD
1000
AcDbSavedByObjectVersion
1070
     0
1000
AcDbSavedByObjectVersion
1070
     0
  0
VISUALSTYLE
  5
B0F9
102
{ACAD_REACTORS
330
B0F1
102
}
330
B0F1
100
AcDbVisualStyle
  2
3D Hidden
 70
     6
 71
     1
 72
     2
 73
     2
 90
        0
 40
-0.6
 41
-30.0
 62
     5
 63
     7
 74
     2
 91
        2
 64
     7
 65
   257
 75
     2
175
     1
 42
40.0
 92
        0
 66
   257
 43
1.0
 76
     1
 77
     6
 78
     2
 67
     7
 79
     3
170
     0
171
     0
290
     0
174
     0
 93
        1
 44
0.0
173
     0
291
     0
 45
0.0
1001
ACAD
1000
AcDbSavedByObjectVersion
1070
     0
1000
AcDbSavedByObjectVersion
1070
     0
  0
VISUALSTYLE
  5
B0F8
102
{ACAD_REACTORS
330
B0F1
102
}
330
B0F1
100
AcDbVisualStyle
  2
3dWireframe
 70
     5
 71
     0
 72
     2
 73
     0
 90
        0
 40
-0.6
 41
-30.0
 62
     5
 63
     7
 74
     1
 91
        4
 64
     7
 65
   257
 75
     1
175
     1
 42
1.0
 92
        0
 66
   257
 43
1.0
 76
     1
 77
     6
 78
     2
 67
     7
 79
     5
170
     0
171
     0
290
     0
174
     0
 93
        1
 44
0.0
173
     0
291
     0
 45
0.0
1001
ACAD
1000
AcDbSavedByObjectVersion
1070
     0
1000
AcDbSavedByObjectVersion
1070
     0
  0
VISUALSTYLE
  5
B0F6
102
{ACAD_REACTORS
330
B0F1
102
}
330
B0F1
100
AcDbVisualStyle
  2
Basic
 70
     7
 71
     1
 72
     0
 73
     1
 90
        0
 40
-0.6
 41
-30.0
 62
     5
 63
     7
 74
     0
 91
        4
 64
     7
 65
   257
 75
     1
175
     1
 42
1.0
 92
        8
 66
     7
 43
1.0
 76
     1
 77
     6
 78
     2
 67
     7
 79
     5
170
     0
171
     0
290
     0
174
     0
 93
        1
 44
0.0
173
     0
291
     1
 45
0.0
1001
ACAD
1000
AcDbSavedByObjectVersion
1070
     0
1000
AcDbSavedByObjectVersion
1070
     0
  0
VISUALSTYLE
  5
B0FD
102
{ACAD_REACTORS
330
B0F1
102
}
330
B0F1
100
AcDbVisualStyle
  2
Brighten
 70
    12
 71
     2
 72
     2
 73
     0
 90
        0
 40
-0.6
 41
-30.0
 62
     5
 63
     7
 74
     1
 91
        4
 64
     7
 65
   257
 75
     1
175
     1
 42
1.0
 92
        8
 66
     7
 43
1.0
 76
     1
 77
     6
 78
     2
 67
     7
 79
     5
170
     0
171
     0
290
     0
174
     0
 93
        1
 44
50.0
173
     0
291
     1
 45
0.0
1001
ACAD
1000
AcDbSavedByObjectVersion
1070
     0
1000
AcDbSavedByObjectVersion
1070
     0
  0
VISUALSTYLE
  5
B101
102
{ACAD_REACTORS
330
B0F1
102
}
330
B0F1
100
AcDbVisualStyle
  2
ColorChange
 70
    16
 71
     2
 72
     2
 73
     3
 90
        0
 40
-0.6
 41
-30.0
 62
     5
 63
     8
 74
     1
 91
        4
 64
     7
 65
   257
 75
     1
175
     1
 42
1.0
 92
        8
 66
     8
 43
1.0
 76
     1
 77
     6
 78
     2
 67
     7
 79
     5
170
     0
171
     0
290
     0
174
     0
 93
        1
 44
0.0
173
     0
291
     1
 45
0.0
1001
ACAD
1000
AcDbSavedByObjectVersion
1070
     0
1000
AcDbSavedByObjectVersion
1070
     0
  0
VISUALSTYLE
  5
B0FA
102
{ACAD_REACTORS
330
B0F1
102
}
330
B0F1
100
AcDbVisualStyle
  2
Conceptual
 70
     9
 71
     3
 72
     2
 73
     0
 90
        0
 40
-0.6
 41
-30.0
 62
     5
 63
     7
 74
     2
 91
        2
 64
     7
 65
   257
 75
     1
175
     1
 42
40.0
 92
        8
 66
     7
 43
1.0
 76
     1
 77
     6
 78
     2
 67
     7
 79
     3
170
     0
171
     0
290
     0
174
     0
 93
        1
 44
0.0
173
     0
291
     0
 45
0.0
1001
ACAD
1000
AcDbSavedByObjectVersion
1070
     0
1000
AcDbSavedByObjectVersion
1070
     0
  0
VISUALSTYLE
  5
B0FC
102
{ACAD_REACTORS
330
B0F1
102
}
330
B0F1
100
AcDbVisualStyle
  2
Dim
 70
    11
 71
     2
 72
     2
 73
     0
 90
        0
 40
-0.6
 41
-30.0
 62
     5
 63
     7
 74
     1
 91
        4
 64
     7
 65
   257
 75
     1
175
     1
 42
1.0
 92
        8
 66
     7
 43
1.0
 76
     1
 77
     6
 78
     2
 67
     7
 79
     5
170
     0
171
     0
290
     0
174
     0
 93
        1
 44
-50.0
173
     0
291
     1
 45
0.0
1001
ACAD
1000
AcDbSavedByObjectVersion
1070
     0
1000
AcDbSavedByObjectVersion
1070
     0
  0
VISUALSTYLE
  5
B100
102
{ACAD_REACTORS
330
B0F1
102
}
330
B0F1
100
AcDbVisualStyle
  2
Facepattern
 70
    15
 71
     2
 72
     2
 73
     0
 90
        0
 40
-0.6
 41
-30.0
 62
     5
 63
     7
 74
     1
 91
        4
 64
     7
 65
   257
 75
     1
175
     1
 42
1.0
 92
        8
 66
     7
 43
1.0
 76
     1
 77
     6
 78
     2
 67
     7
 79
     5
170
     0
171
     0
290
     0
174
     0
 93
        1
 44
0.0
173
     0
291
     1
 45
0.0
1001
ACAD
1000
AcDbSavedByObjectVersion
1070
     0
1000
AcDbSavedByObjectVersion
1070
     0
  0
VISUALSTYLE
  5
B0F2
102
{ACAD_REACTORS
330
B0F1
102
}
330
B0F1
100
AcDbVisualStyle
  2
Flat
 70
     0
 71
     2
 72
     1
 73
     1
 90
        2
 40
-0.6
 41
30.0
 62
     5
 63
     7
 74
     0
 91
        4
 64
     7
 65
   257
 75
     1
175
     1
 42
1.0
 92
        8
 66
     7
 43
1.0
 76
     1
 77
     6
 78
     2
 67
     7
 79
     5
170
     0
171
     0
290
     0
174
     0
 93
       13
 44
0.0
173
     0
291
     1
 45
0.0
1001
ACAD
1000
AcDbSavedByObjectVersion
1070
     0
1000
AcDbSavedByObjectVersion
1070
     0
  0
VISUALSTYLE
  5
B0F3
102
{ACAD_REACTORS
330
B0F1
102
}
330
B0F1
100
AcDbVisualStyle
  2
FlatWithEdges
 70
     1
 71
     2
 72
     1
 73
     1
 90
        2
 40
-0.6
 41
30.0
 62
     5
 63
     7
 74
     1
 91
        4
 64
     7
 65
   257
 75
     1
175
     1
 42
1.0
 92
        0
 66
   257
 43
1.0
 76
     1
 77
     6
 78
     2
 67
     7
 79
     5
170
     0
171
     0
290
     0
174
     0
 93
       13
 44
0.0
173
     0
291
     1
 45
0.0
1001
ACAD
1000
AcDbSavedByObjectVersion
1070
     0
1000
AcDbSavedByObjectVersion
1070
     0
  0
VISUALSTYLE
  5
B0F4
102
{ACAD_REACTORS
330
B0F1
102
}
330
B0F1
100
AcDbVisualStyle
  2
Gouraud
 70
     2
 71
     2
 72
     2
 73
     1
 90
        2
 40
-0.6
 41
30.0
 62
     5
 63
     7
 74
     0
 91
        4
 64
     7
 65
   257
 75
     1
175
     1
 42
1.0
 92
        0
 66
     7
 43
1.0
 76
     1
 77
     6
 78
     2
 67
     7
 79
     5
170
     0
171
     0
290
     0
174
     0
 93
       13
 44
0.0
173
     0
291
     1
 45
0.0
1001
ACAD
1000
AcDbSavedByObjectVersion
1070
     0
1000
AcDbSavedByObjectVersion
1070
     0
  0
VISUALSTYLE
  5
B0F5
102
{ACAD_REACTORS
330
B0F1
102
}
330
B0F1
100
AcDbVisualStyle
  2
GouraudWithEdges
 70
     3
 71
     2
 72
     2
 73
     1
 90
        2
 40
-0.6
 41
30.0
 62
     5
 63
     7
 74
     1
 91
        4
 64
     7
 65
   257
 75
     1
175
     1
 42
1.0
 92
        0
 66
   257
 43
1.0
 76
     1
 77
     6
 78
     2
 67
     7
 79
     5
170
     0
171
     0
290
     0
174
     0
 93
       13
 44
0.0
173
     0
291
     1
 45
0.0
1001
ACAD
1000
AcDbSavedByObjectVersion
1070
     0
1000
AcDbSavedByObjectVersion
1070
     0
  0
VISUALSTYLE
  5
B0FF
102
{ACAD_REACTORS
330
B0F1
102
}
330
B0F1
100
AcDbVisualStyle
  2
Linepattern
 70
    14
 71
     2
 72
     2
 73
     0
 90
        0
 40
-0.6
 41
-30.0
 62
     5
 63
     7
 74
     1
 91
        4
 64
     7
 65
   257
 75
     7
175
     7
 42
1.0
 92
        8
 66
     7
 43
1.0
 76
     1
 77
     6
 78
     2
 67
     7
 79
     5
170
     0
171
     0
290
     0
174
     0
 93
        1
 44
0.0
173
     0
291
     1
 45
0.0
1001
ACAD
1000
AcDbSavedByObjectVersion
1070
     0
1000
AcDbSavedByObjectVersion
1070
     0
  0
VISUALSTYLE
  5
B0FB
102
{ACAD_REACTORS
330
B0F1
102
}
330
B0F1
100
AcDbVisualStyle
  2
Realistic
 70
     8
 71
     2
 72
     2
 73
     0
 90
        0
 40
-0.6
 41
-30.0
 62
     5
 63
     7
 74
     1
 91
        0
 64
     7
 65
   257
 75
     1
175
     1
 42
1.0
 92
        8
 66
     8
 43
1.0
 76
     1
 77
     6
 78
     2
 67
     7
 79
     5
170
     0
171
     0
290
     0
174
     0
 93
       13
 44
0.0
173
     0
291
     0
 45
0.0
1001
ACAD
1000
AcDbSavedByObjectVersion
1070
     0
1000
AcDbSavedByObjectVersion
1070
     0
  0
VISUALSTYLE
  5
B0FE
102
{ACAD_REACTORS
330
B0F1
102
}
330
B0F1
100
AcDbVisualStyle
  2
Thicken
 70
    13
 71
     2
 72
     2
 73
     0
 90
        0
 40
-0.6
 41
-30.0
 62
     5
 63
     7
 74
     1
 91
        4
 64
     7
 65
   257
 75
     1
175
     1
 42
1.0
 92
       12
 66
     7
 43
1.0
 76
     1
 77
     6
 78
     2
 67
     7
 79
     5
170
     0
171
     0
290
     0
174
     0
 93
        1
 44
0.0
173
     0
291
     1
 45
0.0
1001
ACAD
1000
AcDbSavedByObjectVersion
1070
     0
1000
AcDbSavedByObjectVersion
1070
     0
  0
DICTIONARYVAR
  5
B5BA
102
{ACAD_REACTORS
330
34
102
}
330
34
100
DictionaryVariables
280
     0
  1
1:1
  0
DICTIONARYVAR
  5
B5B8
102
{ACAD_REACTORS
330
34
102
}
330
34
100
DictionaryVariables
280
     0
  1
STANDARD
  0
DICTIONARYVAR
  5
AAF3
102
{ACAD_REACTORS
330
34
102
}
330
34
100
DictionaryVariables
280
     0
  1
STANDARD
  0
DICTIONARYVAR
  5
A10C
102
{ACAD_REACTORS
330
34
102
}
330
34
100
DictionaryVariables
280
     0
  1
1
  0
DICTIONARYVAR
  5
AB07
102
{ACAD_REACTORS
330
34
102
}
330
34
100
DictionaryVariables
280
     0
  1
4
  0
DICTIONARYVAR
  5
35
102
{ACAD_REACTORS
330
34
102
}
330
34
100
DictionaryVariables
280
     0
  1
0
  0
DICTIONARYVAR
  5
B5BB
102
{ACAD_REACTORS
330
34
102
}
330
34
100
DictionaryVariables
280
     0
  1
0
  0
DICTIONARYVAR
  5
B5B9
102
{ACAD_REACTORS
330
34
102
}
330
34
100
DictionaryVariables
280
     0
  1
0
  0
DICTIONARYVAR
  5
194C
102
{ACAD_REACTORS
330
34
102
}
330
34
100
DictionaryVariables
280
     0
  1
96
  0
DICTIONARY
  5
7E8
102
{ACAD_REACTORS
330
47
102
}
330
47
100
AcDbDictionary
281
     1
  0
DICTIONARY
  5
4C
102
{ACAD_REACTORS
330
47
102
}
330
47
100
AcDbDictionary
281
     1
  0
XRECORD
  5
A929
102
{ACAD_REACTORS
330
47
102
}
330
47
100
AcDbXrecord
280
     1
 90
-1023410169
  0
XRECORD
  5
B571
102
{ACAD_REACTORS
330
B570
102
}
330
B570
100
AcDbXrecord
280
     1
  0
XRECORD
  5
3FB7
102
{ACAD_REACTORS
330
3F96
102
}
330
3F96
100
AcDbXrecord
280
     1
 91
        3
330
0
 90
        8
 62
     7
370
    40
331
16
  1
Color_7
330
0
 90
        0
 62
    14
370
    -3
331
16
  1
Color_14
330
0
 90
        8
 62
     7
370
    20
331
16
  1
Color_7
330
6D1
 90
        0
 62
     7
370
    -3
331
16
  1
Color_7
330
0
 90
        8
 62
     7
370
    50
331
16
  1
Color_7
330
0
 90
        8
 62
     2
370
    35
331
16
  1
Color_2
330
0
 90
        8
 62
     7
370
    -3
331
16
  1
Color_7
330
10
 90
        8
 62
     7
370
    -3
331
16
  1
Color_7
  0
DICTIONARY
  5
DF76
330
22
100
AcDbDictionary
280
     1
281
     1
  3
ACAD_XREC_ROUNDTRIP
360
DF77
  0
DICTIONARY
  5
DF74
330
1E
100
AcDbDictionary
280
     1
281
     1
  3
ACAD_XREC_ROUNDTRIP
360
DF75
  0
DICTIONARY
  5
DF78
330
26
100
AcDbDictionary
280
     1
281
     1
  3
ACAD_XREC_ROUNDTRIP
360
DF79
  0
DICTIONARY
  5
DEEB
330
B0EF
100
AcDbDictionary
280
     1
281
     1
  3
ACAD_XREC_ROUNDTRIP
360
DEEC
  0
DICTIONARY
  5
DEE9
330
B0EE
100
AcDbDictionary
280
     1
281
     1
  3
ACAD_XREC_ROUNDTRIP
360
DEEA
  0
DICTIONARY
  5
DEED
330
B0F0
100
AcDbDictionary
280
     1
281
     1
  3
ACAD_XREC_ROUNDTRIP
360
DEEE
  0
DICTIONARY
  5
B5B5
330
AABA
100
AcDbDictionary
280
     1
281
     1
  3
ACAD_ROUNDTRIP_2008_TABLESTYLE_CELLSTYLEMAP
360
DEE5
  3
ACAD_XREC_ROUNDTRIP
360
DF7A
  0
XRECORD
  5
DF77
102
{ACAD_REACTORS
330
DF76
102
}
330
DF76
100
AcDbXrecord
280
     1
102
SHADEPLOT
 70
     0
102
SHADEPLOTRESLEVEL
 70
     2
102
SHADEPLOTCUSTOMDPI
 70
   200
  0
XRECORD
  5
DF75
102
{ACAD_REACTORS
330
DF74
102
}
330
DF74
100
AcDbXrecord
280
     1
102
SHADEPLOT
 70
     0
102
SHADEPLOTRESLEVEL
 70
     2
102
SHADEPLOTCUSTOMDPI
 70
   300
  0
XRECORD
  5
DF79
102
{ACAD_REACTORS
330
DF78
102
}
330
DF78
100
AcDbXrecord
280
     1
102
SHADEPLOT
 70
     0
102
SHADEPLOTRESLEVEL
 70
     2
102
SHADEPLOTCUSTOMDPI
 70
   300
  0
XRECORD
  5
DEEC
102
{ACAD_REACTORS
330
DEEB
102
}
330
DEEB
100
AcDbXrecord
280
     1
102
MATERIAL
148
0.0
149
0.0
149
0.0
 93
        0
 94
       63
282
     0
 72
     1
 77
     1
171
     1
175
     1
179
     1
273
     0
  0
XRECORD
  5
DEEA
102
{ACAD_REACTORS
330
DEE9
102
}
330
DEE9
100
AcDbXrecord
280
     1
102
MATERIAL
148
0.0
149
0.0
149
0.0
 93
        0
 94
       63
282
     0
 72
     1
 77
     1
171
     1
175
     1
179
     1
273
     0
  0
XRECORD
  5
DEEE
102
{ACAD_REACTORS
330
DEED
102
}
330
DEED
100
AcDbXrecord
280
     1
102
MATERIAL
148
0.0
149
0.0
149
0.0
 93
        0
 94
       63
282
     0
 72
     1
 77
     1
171
     1
175
     1
179
     1
273
     0
  0
ACAD_PROXY_OBJECT
  5
DEE5
102
{ACAD_REACTORS
330
B5B5
102
}
330
B5B5
100
AcDbProxyObject
 90
      499
 91
      628
 95
  6815769
 70
     1
100
AcDbCellStyleMap
 90
        3
300
CELLSTYLE
  1
TABLEFORMAT_BEGIN
 90
        5
170
     1
 91
        0
 92
    32768
 62
   257
 93
        1
300
CONTENTFORMAT
  1
CONTENTFORMAT_BEGIN
 90
        0
 91
        0
 92
        4
 93
        0
300

 40
0.0
140
1.0
 94
        5
 62
     0
340
11
144
6.0
309
CONTENTFORMAT_END
171
     1
301
MARGIN
  1
CELLMARGIN_BEGIN
 40
1.5
 40
1.5
 40
1.5
 40
1.5
 40
0.18
 40
0.18
309
CELLMARGIN_END
 94
        6
 95
        1
302
GRIDFORMAT
  1
GRIDFORMAT_BEGIN
 90
        0
 91
        1
 62
     0
 92
       -2
340
0
 93
        0
 40
0.045
309
GRIDFORMAT_END
 95
        2
302
GRIDFORMAT
  1
GRIDFORMAT_BEGIN
 90
        0
 91
        1
 62
     0
 92
       -2
340
0
 93
        0
 40
0.045
309
GRIDFORMAT_END
 95
        4
302
GRIDFORMAT
  1
GRIDFORMAT_BEGIN
 90
        0
 91
        1
 62
     0
 92
       -2
340
0
 93
        0
 40
0.045
309
GRIDFORMAT_END
 95
        8
302
GRIDFORMAT
  1
GRIDFORMAT_BEGIN
 90
        0
 91
        1
 62
     0
 92
       -2
340
0
 93
        0
 40
0.045
309
GRIDFORMAT_END
 95
       16
302
GRIDFORMAT
  1
GRIDFORMAT_BEGIN
 90
        0
 91
        1
 62
     0
 92
       -2
340
0
 93
        0
 40
0.045
309
GRIDFORMAT_END
 95
       32
302
GRIDFORMAT
  1
GRIDFORMAT_BEGIN
 90
        0
 91
        1
 62
     0
 92
       -2
340
0
 93
        0
 40
0.045
309
GRIDFORMAT_END
309
TABLEFORMAT_END
  1
CELLSTYLE_BEGIN
 90
        1
 91
        1
300
_TITLE
309
CELLSTYLE_END
300
CELLSTYLE
  1
TABLEFORMAT_BEGIN
 90
        5
170
     1
 91
        0
 92
        0
 62
   257
 93
        1
300
CONTENTFORMAT
  1
CONTENTFORMAT_BEGIN
 90
        0
 91
        0
 92
        4
 93
        0
300

 40
0.0
140
1.0
 94
        5
 62
     0
340
11
144
4.5
309
CONTENTFORMAT_END
171
     1
301
MARGIN
  1
CELLMARGIN_BEGIN
 40
1.5
 40
1.5
 40
1.5
 40
1.5
 40
0.18
 40
0.18
309
CELLMARGIN_END
 94
        6
 95
        1
302
GRIDFORMAT
  1
GRIDFORMAT_BEGIN
 90
        0
 91
        1
 62
     0
 92
       -2
340
0
 93
        0
 40
0.045
309
GRIDFORMAT_END
 95
        2
302
GRIDFORMAT
  1
GRIDFORMAT_BEGIN
 90
        0
 91
        1
 62
     0
 92
       -2
340
0
 93
        0
 40
0.045
309
GRIDFORMAT_END
 95
        4
302
GRIDFORMAT
  1
GRIDFORMAT_BEGIN
 90
        0
 91
        1
 62
     0
 92
       -2
340
0
 93
        0
 40
0.045
309
GRIDFORMAT_END
 95
        8
302
GRIDFORMAT
  1
GRIDFORMAT_BEGIN
 90
        0
 91
        1
 62
     0
 92
       -2
340
0
 93
        0
 40
0.045
309
GRIDFORMAT_END
 95
       16
302
GRIDFORMAT
  1
GRIDFORMAT_BEGIN
 90
        0
 91
        1
 62
     0
 92
       -2
340
0
 93
        0
 40
0.045
309
GRIDFORMAT_END
 95
       32
302
GRIDFORMAT
  1
GRIDFORMAT_BEGIN
 90
        0
 91
        1
 62
     0
 92
       -2
340
0
 93
        0
 40
0.045
309
GRIDFORMAT_END
309
TABLEFORMAT_END
  1
CELLSTYLE_BEGIN
 90
        2
 91
        1
300
_HEADER
309
CELLSTYLE_END
300
CELLSTYLE
  1
TABLEFORMAT_BEGIN
 90
        5
170
     1
 91
        0
 92
        0
 62
   257
 93
        1
300
CONTENTFORMAT
  1
CONTENTFORMAT_BEGIN
 90
        0
 91
        0
 92
        4
 93
        0
300

 40
0.0
140
1.0
 94
        2
 62
     0
340
11
144
4.5
309
CONTENTFORMAT_END
171
     1
301
MARGIN
  1
CELLMARGIN_BEGIN
 40
1.5
 40
1.5
 40
1.5
 40
1.5
 40
0.18
 40
0.18
309
CELLMARGIN_END
 94
        6
 95
        1
302
GRIDFORMAT
  1
GRIDFORMAT_BEGIN
 90
        0
 91
        1
 62
     0
 92
       -2
340
0
 93
        0
 40
0.045
309
GRIDFORMAT_END
 95
        2
302
GRIDFORMAT
  1
GRIDFORMAT_BEGIN
 90
        0
 91
        1
 62
     0
 92
       -2
340
0
 93
        0
 40
0.045
309
GRIDFORMAT_END
 95
        4
302
GRIDFORMAT
  1
GRIDFORMAT_BEGIN
 90
        0
 91
        1
 62
     0
 92
       -2
340
0
 93
        0
 40
0.045
309
GRIDFORMAT_END
 95
        8
302
GRIDFORMAT
  1
GRIDFORMAT_BEGIN
 90
        0
 91
        1
 62
     0
 92
       -2
340
0
 93
        0
 40
0.045
309
GRIDFORMAT_END
 95
       16
302
GRIDFORMAT
  1
GRIDFORMAT_BEGIN
 90
        0
 91
        1
 62
     0
 92
       -2
340
0
 93
        0
 40
0.045
309
GRIDFORMAT_END
 95
       32
302
GRIDFORMAT
  1
GRIDFORMAT_BEGIN
 90
        0
 91
        1
 62
     0
 92
       -2
340
0
 93
        0
 40
0.045
309
GRIDFORMAT_END
309
TABLEFORMAT_END
  1
CELLSTYLE_BEGIN
 90
        3
 91
        2
300
_DATA
309
CELLSTYLE_END
1001
ACAD
1000
AcRTDxfName
1000
CELLSTYLEMAP
  0
XRECORD
  5
DF7A
102
{ACAD_REACTORS
330
B5B5
102
}
330
B5B5
100
AcDbXrecord
280
     1
102
ACAD_ROUNDTRIP_PRE2007_TABLESTYLE
 90
        4
 91
        0
  1

 92
        4
 93
        0
  2

 94
        4
 95
        0
  3

  0
ENDSEC
  0
EOF
