  0
SECTION
  2
HEADER
  9
$ACADVER
  1
AC1015
  9
$ACADMAINTVER
 70
    20
  9
$DWGCODEPAGE
  3
ANSI_932
  9
$INSBASE
 10
0.0
 20
0.0
 30
0.0
  9
$EXTMIN
 10
0.0
 20
0.0
 30
0.0
  9
$EXTMAX
 10
420.0
 20
297.0
 30
0.0
  9
$LIMMIN
 10
0.0
 20
0.0
  9
$LIMMAX
 10
420.0
 20
297.0
  9
$ORTHOMODE
 70
     0
  9
$REGENMODE
 70
     1
  9
$FILLMODE
 70
     1
  9
$QTEXTMODE
 70
     0
  9
$MIRRTEXT
 70
     0
  9
$LTSCALE
 40
1.0
  9
$ATTMODE
 70
     1
  9
$TEXTSIZE
 40
3.2
  9
$TRACEWID
 40
1.0
  9
$TEXTSTYLE
  7
STANDARD
  9
$CLAYER
  8
AM_0
  9
$CELTYPE
  6
ByLayer
  9
$CECOLOR
 62
   256
  9
$CELTSCALE
 40
1.0
  9
$DISPSILH
 70
     0
  9
$DIMSCALE
 40
1.0
  9
$DIMASZ
 40
1.0
  9
$DIMEXO
 40
1.0
  9
$DIMDLI
 40
10.0
  9
$DIMRND
 40
0.0
  9
$DIMDLE
 40
0.0
  9
$DIMEXE
 40
1.0
  9
$DIMTP
 40
0.1
  9
$DIMTM
 40
0.1
  9
$DIMTXT
 40
3.5
  9
$DIMCEN
 40
0.0
  9
$DIMTSZ
 40
0.0
  9
$DIMTOL
 70
     0
  9
$DIMLIM
 70
     0
  9
$DIMTIH
 70
     0
  9
$DIMTOH
 70
     0
  9
$DIMSE1
 70
     0
  9
$DIMSE2
 70
     0
  9
$DIMTAD
 70
     1
  9
$DIMZIN
 70
     8
  9
$DIMBLK
  1

  9
$DIMASO
 70
     1
  9
$DIMSHO
 70
     1
  9
$DIMPOST
  1

  9
$DIMAPOST
  1
"
  9
$DIMALT
 70
     0
  9
$DIMALTD
 70
     2
  9
$DIMALTF
 40
0.0393701
  9
$DIMLFAC
 40
1.0
  9
$DIMTOFL
 70
     1
  9
$DIMTVP
 40
0.0
  9
$DIMTIX
 70
     0
  9
$DIMSOXD
 70
     0
  9
$DIMSAH
 70
     0
  9
$DIMBLK1
  1

  9
$DIMBLK2
  1

  9
$DIMSTYLE
  2
SYS
  9
$DIMCLRD
 70
   256
  9
$DIMCLRE
 70
   256
  9
$DIMCLRT
 70
     7
  9
$DIMTFAC
 40
0.71
  9
$DIMGAP
 40
1.5
  9
$DIMJUST
 70
     0
  9
$DIMSD1
 70
     0
  9
$DIMSD2
 70
     0
  9
$DIMTOLJ
 70
     0
  9
$DIMTZIN
 70
     8
  9
$DIMALTZ
 70
     0
  9
$DIMALTTZ
 70
     0
  9
$DIMUPT
 70
     0
  9
$DIMDEC
 70
     2
  9
$DIMTDEC
 70
     2
  9
$DIMALTU
 70
     2
  9
$DIMALTTD
 70
     2
  9
$DIMTXSTY
  7
STANDARD
  9
$DIMAUNIT
 70
     0
  9
$DIMADEC
 70
     0
  9
$DIMALTRND
 40
0.0
  9
$DIMAZIN
 70
     2
  9
$DIMDSEP
 70
    46
  9
$DIMATFIT
 70
     3
  9
$DIMFRAC
 70
     0
  9
$DIMLDRBLK
  1

  9
$DIMLUNIT
 70
     2
  9
$DIMLWD
 70
    -1
  9
$DIMLWE
 70
    -1
  9
$DIMTMOVE
 70
     0
  9
$LUNITS
 70
     2
  9
$LUPREC
 70
     2
  9
$SKETCHINC
 40
1.0
  9
$FILLETRAD
 40
0.0
  9
$AUNITS
 70
     0
  9
$AUPREC
 70
     0
  9
$MENU
  1
.
  9
$ELEVATION
 40
0.0
  9
$PELEVATION
 40
0.0
  9
$THICKNESS
 40
0.0
  9
$LIMCHECK
 70
     0
  9
$CHAMFERA
 40
0.0
  9
$CHAMFERB
 40
0.0
  9
$CHAMFERC
 40
20.0
  9
$CHAMFERD
 40
0.0
  9
$SKPOLY
 70
     0
  9
$TDCREATE
 40
2455827.698787616
  9
$TDUCREATE
 40
2455827.323787616
  9
$TDUPDATE
 40
2456030.681361759
  9
$TDUUPDATE
 40
2456030.306361759
  9
$TDINDWG
 40
0.0154481481
  9
$TDUSRTIMER
 40
0.0154456134
  9
$USRTIMER
 70
     1
  9
$ANGBASE
 50
0.0
  9
$ANGDIR
 70
     0
  9
$PDMODE
 70
     0
  9
$PDSIZE
 40
-3.0
  9
$PLINEWID
 40
0.0
  9
$SPLFRAME
 70
     0
  9
$SPLINETYPE
 70
     6
  9
$SPLINESEGS
 70
     8
  9
$HANDSEED
  5
C0BD
  9
$SURFTAB1
 70
     6
  9
$SURFTAB2
 70
     6
  9
$SURFTYPE
 70
     6
  9
$SURFU
 70
     6
  9
$SURFV
 70
     6
  9
$UCSBASE
  2

  9
$UCSNAME
  2

  9
$UCSORG
 10
0.0
 20
0.0
 30
0.0
  9
$UCSXDIR
 10
1.0
 20
0.0
 30
0.0
  9
$UCSYDIR
 10
0.0
 20
1.0
 30
0.0
  9
$UCSORTHOREF
  2

  9
$UCSORTHOVIEW
 70
     0
  9
$UCSORGTOP
 10
0.0
 20
0.0
 30
0.0
  9
$UCSORGBOTTOM
 10
0.0
 20
0.0
 30
0.0
  9
$UCSORGLEFT
 10
0.0
 20
0.0
 30
0.0
  9
$UCSORGRIGHT
 10
0.0
 20
0.0
 30
0.0
  9
$UCSORGFRONT
 10
0.0
 20
0.0
 30
0.0
  9
$UCSORGBACK
 10
0.0
 20
0.0
 30
0.0
  9
$PUCSBASE
  2

  9
$PUCSNAME
  2

  9
$PUCSORG
 10
0.0
 20
0.0
 30
0.0
  9
$PUCSXDIR
 10
1.0
 20
0.0
 30
0.0
  9
$PUCSYDIR
 10
0.0
 20
1.0
 30
0.0
  9
$PUCSORTHOREF
  2

  9
$PUCSORTHOVIEW
 70
     0
  9
$PUCSORGTOP
 10
0.0
 20
0.0
 30
0.0
  9
$PUCSORGBOTTOM
 10
0.0
 20
0.0
 30
0.0
  9
$PUCSORGLEFT
 10
0.0
 20
0.0
 30
0.0
  9
$PUCSORGRIGHT
 10
0.0
 20
0.0
 30
0.0
  9
$PUCSORGFRONT
 10
0.0
 20
0.0
 30
0.0
  9
$PUCSORGBACK
 10
0.0
 20
0.0
 30
0.0
  9
$USERI1
 70
     0
  9
$USERI2
 70
     0
  9
$USERI3
 70
     0
  9
$USERI4
 70
     0
  9
$USERI5
 70
     0
  9
$USERR1
 40
0.0
  9
$USERR2
 40
0.0
  9
$USERR3
 40
0.0
  9
$USERR4
 40
0.0
  9
$USERR5
 40
0.0
  9
$WORLDVIEW
 70
     1
  9
$SHADEDGE
 70
     3
  9
$SHADEDIF
 70
    70
  9
$TILEMODE
 70
     1
  9
$MAXACTVP
 70
    64
  9
$PINSBASE
 10
0.0
 20
0.0
 30
0.0
  9
$PLIMCHECK
 70
     0
  9
$PEXTMIN
 10
1.000000000000000E+20
 20
1.000000000000000E+20
 30
1.000000000000000E+20
  9
$PEXTMAX
 10
-1.000000000000000E+20
 20
-1.000000000000000E+20
 30
-1.000000000000000E+20
  9
$PLIMMIN
 10
-3.17498779296875
 20
-3.174999952316283
  9
$PLIMMAX
 10
293.4970092773438
 20
206.692492723465
  9
$UNITMODE
 70
     0
  9
$VISRETAIN
 70
     1
  9
$PLINEGEN
 70
     0
  9
$PSLTSCALE
 70
     1
  9
$TREEDEPTH
 70
  3020
  9
$CMLSTYLE
  2
Standard
  9
$CMLJUST
 70
     0
  9
$CMLSCALE
 40
20.0
  9
$PROXYGRAPHICS
 70
     1
  9
$MEASUREMENT
 70
     1
  9
$CELWEIGHT
370
    -1
  9
$ENDCAPS
280
     0
  9
$JOINSTYLE
280
     0
  9
$LWDISPLAY
290
     1
  9
$INSUNITS
 70
     4
  9
$HYPERLINKBASE
  1

  9
$STYLESHEET
  1
MONOCHROME.CTB
  9
$XEDIT
290
     1
  9
$CEPSNTYPE
380
     0
  9
$PSTYLEMODE
290
     1
  9
$FINGERPRINTGUID
  2
{3B075A76-1CAA-4609-BBB8-AF77EBD33F37}
  9
$VERSIONGUID
  2
{6C221578-FFFC-457E-97CF-2B326814E804}
  9
$EXTNAMES
290
     1
  9
$PSVPSCALE
 40
0.0
  9
$OLESTARTUP
290
     0
  0
ENDSEC
  0
SECTION
  2
CLASSES
  0
CLASS
  1
ACDBDICTIONARYWDFLT
  2
AcDbDictionaryWithDefault
  3
ObjectDBX Classes
 90
        0
280
     0
281
     0
  0
CLASS
  1
ACDBPLACEHOLDER
  2
AcDbPlaceHolder
  3
ObjectDBX Classes
 90
        0
280
     0
281
     0
  0
CLASS
  1
LAYOUT
  2
AcDbLayout
  3
ObjectDBX Classes
 90
        0
280
     0
281
     0
  0
CLASS
  1
AMGSETTINGSOBJ
  2
AmgSettingsObj
  3
"AcadM|Product Description: AutoCAD Mechanical|Company: Autodesk"
 90
        0
280
     0
281
     0
  0
CLASS
  1
ACME_DOCUMENT
  2
AcMeDbDoc
  3
AcMeServices
 90
        0
280
     0
281
     0
  0
CLASS
  1
ACMESCOPE
  2
AcMeScope
  3
AcMeServices
 90
        0
280
     0
281
     0
  0
CLASS
  1
ACMECOMMANDHISTORY
  2
AcMeCommandHistory
  3
AcMeServices
 90
        0
280
     0
281
     0
  0
CLASS
  1
DICTIONARYVAR
  2
AcDbDictionaryVar
  3
ObjectDBX Classes
 90
        0
280
     0
281
     0
  0
CLASS
  1
ACIMSYSVARMAN
  2
AcImSysVarManager
  3
AcMeServices
 90
        0
280
     0
281
     0
  0
CLASS
  1
ACIMREALSYSVAR
  2
AcImRealSysVar
  3
AcMeServices
 90
        0
280
     0
281
     0
  0
CLASS
  1
ACIMINTSYSVAR
  2
AcImIntSysVar
  3
AcMeServices
 90
        0
280
     0
281
     0
  0
CLASS
  1
ACMEDRAWINGMAN
  2
AcMeDrawingMan
  3
AcMeServices
 90
        0
280
     0
281
     0
  0
CLASS
  1
ACMEVIEW
  2
AcMeView
  3
AcMeServices
 90
        0
280
     0
281
     0
  0
CLASS
  1
ACDBENTITYCACHE
  2
AcMeEntityCache
  3
AcMeServices
 90
        0
280
     0
281
     0
  0
CLASS
  1
GSMANAGER
  2
AcMeGSManager
  3
AcMeServices
 90
        0
280
     0
281
     0
  0
CLASS
  1
AMDTINTERNALREACTOR
  2
AmdtInternalReactor
  3
AcMeServices
 90
        0
280
     0
281
     0
  0
CLASS
  1
ACMESTATEMGR
  2
AcMeStateMgr
  3
AcMeServices
 90
        0
280
     0
281
     0
  0
CLASS
  1
ACGREFMASTER
  2
AcGrefMaster
  3
AcAttribServices
 90
        0
280
     0
281
     0
  0
CLASS
  1
ACME_DATABASE
  2
AcMeDbDatabase
  3
AcMeServices
 90
        0
280
     0
281
     0
  0
CLASS
  1
ACRFINSADJUSTERMGR
  2
AcRfInsAdjusterMgr
  3
AcMeServices
 90
        0
280
     0
281
     0
  0
CLASS
  1
ACGREFACADMASTER
  2
AcGrefacadMaster
  3
AcGrefServices
 90
        0
280
     0
281
     0
  0
CLASS
  1
AMIMASTER
  2
AmiMaster
  3
AmiServices
 90
        0
280
     0
281
     0
  0
CLASS
  1
ACMDATADICTIONARY
  2
AcmDataDictionary
  3
"AcmSymBB|Product Description: AutoCAD Mechanical|Company: Autodesk"
 90
        0
280
     0
281
     0
  0
CLASS
  1
ACMDATAENTRYBLOCK
  2
AcmDataEntryBlock
  3
"AcmSymBB|Product Description: AutoCAD Mechanical|Company: Autodesk"
 90
    32768
280
     0
281
     0
  0
CLASS
  1
ACIMSTRSYSVAR
  2
AcImStrSysVar
  3
AcMeServices
 90
        0
280
     0
281
     0
  0
CLASS
  1
ACMSTANDARDISO
  2
AcmStandardISO
  3
"Amdt_StdImp|Product Description: AutoCAD Mechanical|Company: Autodesk"
 90
        0
280
     0
281
     0
  0
CLASS
  1
AMGOBJPROPCFG
  2
AmgObjPropCfg
  3
"AmgLay|Product Description: AutoCAD Mechanical|Company: Autodesk"
 90
        1
280
     0
281
     0
  0
CLASS
  1
AMDTEDGESTANDARDISO
  2
AmdtEdgeStdISO
  3
"Amdt_StdImp|Product Description: AutoCAD Mechanical|Company: Autodesk"
 90
    32768
280
     0
281
     0
  0
CLASS
  1
ACMSURFSTANDARDISO
  2
AcmSurfTextStdISO
  3
"Amdt_StdImp|Product Description: AutoCAD Mechanical|Company: Autodesk"
 90
        0
280
     0
281
     0
  0
CLASS
  1
ACMFCFSTANDARDISO
  2
AcmFCFStdISO
  3
"Amdt_StdImp|Product Description: AutoCAD Mechanical|Company: Autodesk"
 90
        0
280
     0
281
     0
  0
CLASS
  1
ACMWELDSTANDARDISO
  2
AcmWeldingStdISO
  3
"Amdt_StdImp|Product Description: AutoCAD Mechanical|Company: Autodesk"
 90
        0
280
     0
281
     0
  0
CLASS
  1
ACMIDSTANDARDISO
  2
AcmIdStdISO
  3
"Amdt_StdImp|Product Description: AutoCAD Mechanical|Company: Autodesk"
 90
        0
280
     0
281
     0
  0
CLASS
  1
ACMDATUMSTANDARDISO
  2
AcmDatumStdISO
  3
"Amdt_StdImp|Product Description: AutoCAD Mechanical|Company: Autodesk"
 90
        0
280
     0
281
     0
  0
CLASS
  1
ACMBOMSTANDARDISO
  2
AcmBOMStdISO
  3
"Amdt_StdImp|Product Description: AutoCAD Mechanical|Company: Autodesk"
 90
        0
280
     0
281
     0
  0
CLASS
  1
ACMDETAILSTANDARDISO
  2
AmdtDetailSymStdISO
  3
"Amdt_StdImp|Product Description: AutoCAD Mechanical|Company: Autodesk"
 90
        0
280
     0
281
     0
  0
CLASS
  1
ACMSECTIONSTANDARDISO
  2
AmdtSectionSymStdISO
  3
"Amdt_StdImp|Product Description: AutoCAD Mechanical|Company: Autodesk"
 90
        0
280
     0
281
     0
  0
CLASS
  1
ACMCENTERLINESTANDARDISO
  2
AmdtCenterLineStdISO
  3
"Amdt_StdImp|Product Description: AutoCAD Mechanical|Company: Autodesk"
 90
        0
280
     0
281
     0
  0
CLASS
  1
ACAMGLAYSTD
  2
AcAmgLayStd
  3
"AmgLay|Product Description: AutoCAD Mechanical|Company: Autodesk"
 90
        0
280
     0
281
     0
  0
CLASS
  1
ACAMGDIMSTD
  2
AcAmgDimStd
  3
"AmgDim|Product Description: AutoCAD Mechanical|Company: Autodesk"
 90
        0
280
     0
281
     0
  0
CLASS
  1
ACAMGTITLESTD
  2
AcAmgTitleStd
  3
"AmgTitle|Product Description: AutoCAD Mechanical|Company: Autodesk"
 90
        0
280
     0
281
     0
  0
CLASS
  1
ACAMGFILTERDAT
  2
AcAmgFilterDat
  3
"AcadM|Product Description: AutoCAD Mechanical|Company: Autodesk"
 90
    32768
280
     0
281
     0
  0
CLASS
  1
LAYER_INDEX
  2
AcDbLayerIndex
  3
ObjectDBX Classes
 90
    32768
280
     0
281
     0
  0
CLASS
  1
IDBUFFER
  2
AcDbIdBuffer
  3
ObjectDBX Classes
 90
    32768
280
     0
281
     0
  0
CLASS
  1
PLOTSETTINGS
  2
AcDbPlotSettings
  3
ObjectDBX Classes
 90
    32768
280
     0
281
     0
  0
CLASS
  1
AMDTFORMULAUPDATEDISPATCHER
  2
AmdtFormulaUpdateDispatcher
  3
AcMeServices
 90
    32768
280
     0
281
     0
  0
CLASS
  1
ACMSTANDARDANSI
  2
AcmStandardANSI
  3
"Amdt_StdImp|Product Description: AutoCAD Mechanical|Company: Autodesk"
 90
    32768
280
     0
281
     0
  0
CLASS
  1
ACMSURFSTANDARDANSI
  2
AcmSurfTextStdANSI
  3
"Amdt_StdImp|Product Description: AutoCAD Mechanical|Company: Autodesk"
 90
    32768
280
     0
281
     0
  0
CLASS
  1
ACMFCFSTANDARDANSI
  2
AcmFCFStdANSI
  3
"Amdt_StdImp|Product Description: AutoCAD Mechanical|Company: Autodesk"
 90
    32768
280
     0
281
     0
  0
CLASS
  1
ACMWELDSTANDARDANSI
  2
AcmWeldingStdANSI
  3
"Amdt_StdImp|Product Description: AutoCAD Mechanical|Company: Autodesk"
 90
    32768
280
     0
281
     0
  0
CLASS
  1
ACMIDSTANDARDANSI
  2
AcmIdStdANSI
  3
"Amdt_StdImp|Product Description: AutoCAD Mechanical|Company: Autodesk"
 90
    32768
280
     0
281
     0
  0
CLASS
  1
ACMDATUMSTANDARDANSI
  2
AcmDatumStdANSI
  3
"Amdt_StdImp|Product Description: AutoCAD Mechanical|Company: Autodesk"
 90
    32768
280
     0
281
     0
  0
CLASS
  1
ACMBOMSTANDARDANSI
  2
AcmBOMStdANSI
  3
"Amdt_StdImp|Product Description: AutoCAD Mechanical|Company: Autodesk"
 90
    32768
280
     0
281
     0
  0
CLASS
  1
ACMDETAILSTANDARDANSI
  2
AmdtDetailSymStdANSI
  3
"Amdt_StdImp|Product Description: AutoCAD Mechanical|Company: Autodesk"
 90
    32768
280
     0
281
     0
  0
CLASS
  1
ACMSECTIONSTANDARDANSI
  2
AmdtSectionSymStdANSI
  3
"Amdt_StdImp|Product Description: AutoCAD Mechanical|Company: Autodesk"
 90
    32768
280
     0
281
     0
  0
CLASS
  1
ACMCENTERLINESTANDARDANSI
  2
AmdtCenterLineStdANSI
  3
"Amdt_StdImp|Product Description: AutoCAD Mechanical|Company: Autodesk"
 90
    32768
280
     0
281
     0
  0
CLASS
  1
ACMBOM
  2
AcmBom
  3
"AcmSymBB|Product Description: AutoCAD Mechanical|Company: Autodesk"
 90
    32768
280
     0
281
     0
  0
CLASS
  1
ACMDATAENTRYPART
  2
AcmDataEntryPart
  3
"AcmSymBB|Product Description: AutoCAD Mechanical|Company: Autodesk"
 90
    32768
280
     0
281
     0
  0
CLASS
  1
ACMPARTREF
  2
AcmPartRef
  3
"AcmSymBB|Product Description: AutoCAD Mechanical|Company: Autodesk"
 90
    35839
280
     0
281
     1
  0
CLASS
  1
ACDBCIRCARCRES
  2
AcDbCircArcRes
  3
AcGrefServices
 90
    32768
280
     0
281
     0
  0
CLASS
  1
ACMBOMROW
  2
AcmBomRow
  3
"AcmSymBB|Product Description: AutoCAD Mechanical|Company: Autodesk"
 90
    32768
280
     0
281
     0
  0
CLASS
  1
ACMBALLOON
  2
AcmBalloon
  3
"AcmSymBB|Product Description: AutoCAD Mechanical|Company: Autodesk"
 90
    35839
280
     0
281
     1
  0
CLASS
  1
AMDTNOTE
  2
AmdtNote
  3
"AcmSymBB|Product Description: AutoCAD Mechanical|Company: Autodesk"
 90
    35839
280
     0
281
     1
  0
CLASS
  1
STDPART2D
  2
AmgStdPart
  3
"g3vace|Class: AmgStdPart|Product Description: AutoCAD Mechanical|Company: Autodesk"
 90
    35839
280
     0
281
     1
  0
CLASS
  1
ACDBSTDPARTRES_LINE
  2
AcDbStdPartRes_Line
  3
"g3vace|Class: AcDbStdPartRes_Line|Product Description: AutoCAD Mechanical|Company: Autodesk"
 90
    32768
280
     0
281
     0
  0
CLASS
  1
ACMDATAENTRY
  2
AcmDataEntry
  3
"AcmSymBB|Product Description: AutoCAD Mechanical|Company: Autodesk"
 90
    32768
280
     0
281
     0
  0
CLASS
  1
ACDBOPPOLYLINERES
  2
AcDbOpPolylineRes
  3
AcGrefServices
 90
    32768
280
     0
281
     0
  0
CLASS
  1
ACMPARTLIST
  2
AcmPartList
  3
"AcmSymBB|Product Description: AutoCAD Mechanical|Company: Autodesk"
 90
    35839
280
     0
281
     1
  0
CLASS
  1
ACDBLINERES
  2
AcDbLineRes
  3
AcGrefServices
 90
    32768
280
     0
281
     0
  0
CLASS
  1
ACRFINSADJ
  2
AcRfInsAdjuster
  3
AcMeServices
 90
    32768
280
     0
281
     0
  0
CLASS
  1
AM_DRAWING_MGR
  2
AcDmDwgMgr
  3
AcMechDwgViewMgmt
 90
        0
280
     0
281
     0
  0
CLASS
  1
AM_DWG_DOCUMENT
  2
AcDmDwgDocument
  3
AcMechDwgViewMgmt
 90
        0
280
     0
281
     0
  0
CLASS
  1
AM_DWG_SHEET
  2
AcDmSheet
  3
AcMechDwgViewMgmt
 90
        0
280
     0
281
     0
  0
CLASS
  1
AM_VIEWDIMPARMAP
  2
AcDmViewDimParMap
  3
AcMechDwgViewMgmt
 90
        0
280
     0
281
     0
  0
CLASS
  1
AM_DWGMGR_NAME
  2
AcDmDwgMgrName
  3
AcMechDwgViewMgmt
 90
        0
280
     0
281
     0
  0
CLASS
  1
AMDTMENUSTATEMGR
  2
AmdtMenuStateMgr
  3
McadcomServices
 90
        0
280
     0
281
     0
  0
CLASS
  1
AMDTMCOMMENUSTATE
  2
AmdtMcomMenuState
  3
McadcomServices
 90
        0
280
     0
281
     0
  0
CLASS
  1
ASAPP
  2
AcAsAppObject
  3
AutoSurfServices
 90
        0
280
     0
281
     0
  0
CLASS
  1
IM_STATIC_MAN
  2
AcImStaticVarManager
  3
AcMeServices
 90
    32768
280
     0
281
     0
  0
CLASS
  1
ACIMDBLSTATICVAR
  2
AcImDblStaticVar
  3
AcMeServices
 90
    32768
280
     0
281
     0
  0
CLASS
  1
ACIMSTRSTATICVAR
  2
AcImStrStaticVar
  3
AcMeServices
 90
    32768
280
     0
281
     0
  0
CLASS
  1
ACIMINTSTATICVAR
  2
AcImIntStaticVar
  3
AcMeServices
 90
    32768
280
     0
281
     0
  0
CLASS
  1
ACASGREFMASTER
  2
AcAsGrefMaster
  3
AutoSurfResolverServices
 90
        0
280
     0
281
     0
  0
CLASS
  1
ACADGREFMODULE
  2
AcAdGrefModule
  3
AdGrefServices
 90
        0
280
     0
281
     0
  0
CLASS
  1
AMDTMAPISURFMOUDULE
  2
AmdtMApiSurfModule
  3
MApiSurfServices
 90
        0
280
     0
281
     0
  0
CLASS
  1
MAPIAMMOUDLE
  2
MApiAmModule
  3
MApiAmServices
 90
        0
280
     0
281
     0
  0
CLASS
  1
AMDTADMENUSTATE
  2
AmdtAdMenuState
  3
DesignerServices
 90
        0
280
     0
281
     0
  0
CLASS
  1
ADAPPL
  2
AcAdAppl
  3
DesignerServices
 90
        0
280
     0
281
     0
  0
CLASS
  1
DEPMGR
  2
AcAdDepMgr
  3
DesignerServices
 90
        0
280
     0
281
     0
  0
CLASS
  1
PARAMMGR
  2
AcAdParamMgr
  3
DesignerServices
 90
        0
280
     0
281
     0
  0
CLASS
  1
PARAMSCOPE
  2
AcAdParamScope
  3
DesignerServices
 90
        0
280
     0
281
     0
  0
CLASS
  1
NAMEDAPPL
  2
AcAdNamedAppl
  3
DesignerServices
 90
        0
280
     0
281
     0
  0
CLASS
  1
ADHNTMPLT
  2
AdHoleNoteTemplateMgr
  3
DesignerServices
 90
    32768
280
     0
281
     0
  0
CLASS
  1
AM_HNTEMPLATE_MGR_NAME
  2
AdHoleNoteTemplateMgrName
  3
DesignerServices
 90
    32768
280
     0
281
     0
  0
CLASS
  1
AMDTDMMENUSTATE
  2
AmdtDmMenuState
  3
AcMechDwgViewMgmt
 90
        0
280
     0
281
     0
  0
CLASS
  1
MAPIADMODULE
  2
MApiAdModule
  3
MApiAdServices
 90
        0
280
     0
281
     0
  0
CLASS
  1
AMDTAMMENUSTATE
  2
AmdtAmMenuState
  3
DesignerAssemblies
 90
        0
280
     0
281
     0
  0
CLASS
  1
ACAMPROJECT
  2
AcAmProject
  3
DesignerAssemblies
 90
        0
280
     0
281
     0
  0
CLASS
  1
ACAMGRCOMPDEF
  2
AcAmGrCompDef
  3
DesignerAssemblies
 90
        0
280
     0
281
     0
  0
CLASS
  1
ACCMCONTEXT
  2
AcCmContext
  3
DesignerAssemblies
 90
        0
280
     0
281
     0
  0
CLASS
  1
ACAMCOMPDEF
  2
AcAmCompDef
  3
DesignerAssemblies
 90
        0
280
     0
281
     0
  0
CLASS
  1
ACAMCOMPDEFMGR
  2
AcAmCompDefMgr
  3
DesignerAssemblies
 90
        0
280
     0
281
     0
  0
CLASS
  1
AMCONTEXTMGR
  2
AcAmContextMgr
  3
DesignerAssemblies
 90
        0
280
     0
281
     0
  0
CLASS
  1
ACAMCONTEXTMODELER
  2
AcAmContextModeler
  3
DesignerAssemblies
 90
        0
280
     0
281
     0
  0
CLASS
  1
CATALOGSTATE
  2
AcAmCatalogState
  3
DesignerAssemblies
 90
        0
280
     0
281
     0
  0
CLASS
  1
ACAMGRCOMPDEFSET
  2
AcAmGrCompDefSet
  3
DesignerAssemblies
 90
        0
280
     0
281
     0
  0
CLASS
  1
AMDTBROWSERDBTAB
  2
AmdtBrowserDbTab
  3
McadcomServices
 90
        0
280
     0
281
     0
  0
CLASS
  1
CBROWSERAPPOBJECT
  2
CBrowserAppObject
  3
McadcomServices
 90
        0
280
     0
281
     0
  0
CLASS
  1
DM_PLACEHOLDER
  2
AcDmSelsetPlaceholder
  3
AcMechDwgViewMgmt
 90
        0
280
     0
281
     0
  0
CLASS
  1
ACMPICKOBJ
  2
AcmPickEnt
  3
"AcmSymBB|Product Description: AutoCAD Mechanical|Company: Autodesk"
 90
    32768
280
     0
281
     1
  0
CLASS
  1
ACMNOTESTANDARDISO
  2
AmdtNoteStdISO
  3
"Amdt_StdImp|Product Description: AutoCAD Mechanical|Company: Autodesk"
 90
        0
280
     0
281
     0
  0
CLASS
  1
ACMNOTESTANDARDANSI
  2
AmdtNoteStdANSI
  3
"Amdt_StdImp|Product Description: AutoCAD Mechanical|Company: Autodesk"
 90
    32768
280
     0
281
     0
  0
CLASS
  1
ACMTHREADLINESTANDARDISO
  2
AmdtThreadLineStdISO
  3
"Amdt_StdImp|Product Description: AutoCAD Mechanical|Company: Autodesk"
 90
        0
280
     0
281
     0
  0
CLASS
  1
ACMTHREADLINESTANDARDANSI
  2
AmdtThreadLineStdANSI
  3
"Amdt_StdImp|Product Description: AutoCAD Mechanical|Company: Autodesk"
 90
    32768
280
     0
281
     0
  0
CLASS
  1
TABLESTYLE
  2
AcDbTableStyle
  3
ObjectDBX Classes
 90
     4095
280
     0
281
     0
  0
CLASS
  1
SORTENTSTABLE
  2
AcDbSortentsTable
  3
ObjectDBX Classes
 90
        0
280
     0
281
     0
  0
CLASS
  1
MATERIAL
  2
AcDbMaterial
  3
ObjectDBX Classes
 90
     1024
280
     0
281
     0
  0
CLASS
  1
VISUALSTYLE
  2
AcDbVisualStyle
  3
ObjectDBX Classes
 90
     4095
280
     0
281
     0
  0
CLASS
  1
ACRFATTGENMGR
  2
AcRfAttGeneralMgr
  3
AcAttribServices
 90
    32768
280
     0
281
     0
  0
CLASS
  1
ACRFOBJATTMGR
  2
AcRfObjAttGroupMgr
  3
AcAttribServices
 90
    32768
280
     0
281
     0
  0
CLASS
  1
ACRFMCADAPIATTHOLDER
  2
AcRfMCADAPIAttHolder
  3
AcAttribServices
 90
    32768
280
     0
281
     0
  0
CLASS
  1
AMDTSYSATTR
  2
AmdtSystemAttribute
  3
AcAttribServices
 90
    32768
280
     0
281
     0
  0
CLASS
  1
ACMTAPERSTANDARDISO
  2
AcmTaperStdISO
  3
"Amdt_StdImp|Product Description: AutoCAD Mechanical|Company: Autodesk"
 90
        0
280
     0
281
     0
  0
CLASS
  1
CAMSSTRUCTBTNSTATE
  2
StructBtnState
  3
L"DesignerAssemblies"
 90
    32768
280
     0
281
     0
  0
CLASS
  1
DIMASSOC
  2
AcDbDimAssoc
  3
"AcDbDimAssoc|Product Desc:     AcDim ARX App For Dimension|Company:          Autodesk, Inc.|WEB Address:      www.autodesk.com"
 90
    32768
280
     0
281
     0
  0
CLASS
  1
AMDTNOTETEMPLATEDB
  2
AmdtNoteTemplateDB
  3
AMDT_STDIMP_MODULE_NAME
 90
        0
280
     0
281
     0
  0
CLASS
  1
SCALE
  2
AcDbScale
  3
ObjectDBX Classes
 90
     1153
280
     0
281
     0
  0
CLASS
  1
MLEADERSTYLE
  2
AcDbMLeaderStyle
  3
ACDB_MLEADERSTYLE_CLASS
 90
     4095
280
     0
281
     0
  0
CLASS
  1
ACMANOOTATIONVIEWSTANDARDISO
  2
AmdtAnViewStdISO
  3
"Amdt_StdImp|Product Description: AutoCAD Mechanical|Company: Autodesk, Inc."
 90
    33792
280
     0
281
     0
  0
CLASS
  1
CELLSTYLEMAP
  2
AcDbCellStyleMap
  3
ObjectDBX Classes
 90
     1152
280
     0
281
     0
  0
CLASS
  1
ACMTAPERSTANDARDANSI
  2
AcmTaperStdANSI
  3
"Amdt_StdImp|Product Description: AutoCAD Mechanical|Company: Autodesk"
 90
    32768
280
     0
281
     0
  0
CLASS
  1
ACMANOOTATIONVIEWSTANDARDANSI
  2
AmdtAnViewStdANSI
  3
"Amdt_StdImp|Product Description: AutoCAD Mechanical|Company: Autodesk, Inc."
 90
    33792
280
     0
281
     0
  0
CLASS
  1
ACAMGHOLECHARTSTDANSI
  2
AcAmgHoleChartStdANSI
  3
ACMSYMBB_MODULE_NAME
 90
    32768
280
     0
281
     0
  0
CLASS
  1
AMDTEDGESTANDARDISO13715
  2
AmdtEdgeStdISO13715
  3
"Amdt_StdImp|Product Description: AutoCAD Mechanical|Company: Autodesk"
 90
        0
280
     0
281
     0
  0
CLASS
  1
ACAMGHOLECHARTSTDISO
  2
AcAmgHoleChartStdISO
  3
ACMSYMBB_MODULE_NAME
 90
        0
280
     0
281
     0
  0
ENDSEC
  0
SECTION
  2
TABLES
  0
TABLE
  2
VPORT
  5
8
330
0
100
AcDbSymbolTable
 70
     1
  0
VPORT
  5
B0EC
330
8
100
AcDbSymbolTableRecord
100
AcDbViewportTableRecord
  2
*Active
 70
     0
 10
0.0
 20
0.0
 11
1.0
 21
1.0
 12
272.5825505966252
 22
148.500000691507
 13
0.0
 23
0.0
 14
2.5
 24
2.5
 15
10.0
 25
10.0
 16
0.0
 26
0.0
 36
1.0
 17
0.0
 27
0.0
 37
0.0
 40
298.880310058615
 41
2.04325699745547
 42
50.0
 43
-1370.695619172058
 44
-1370.695619172058
 50
0.0
 51
0.0
 71
     0
 72
   100
 73
     1
 74
     3
 75
     0
 76
     0
 77
     0
 78
     0
281
     0
 65
     0
110
0.0
120
0.0
130
0.0
111
1.0
121
0.0
131
0.0
112
0.0
122
1.0
132
0.0
 79
     0
146
0.0
  0
ENDTAB
  0
TABLE
  2
LTYPE
  5
5
330
0
100
AcDbSymbolTable
 70
    33
  0
LTYPE
  5
14
330
5
100
AcDbSymbolTableRecord
100
AcDbLinetypeTableRecord
  2
ByBlock
 70
     0
  3

 72
    65
 73
     0
 40
0.0
  0
LTYPE
  5
15
330
5
100
AcDbSymbolTableRecord
100
AcDbLinetypeTableRecord
  2
ByLayer
 70
     0
  3

 72
    65
 73
     0
 40
0.0
  0
LTYPE
  5
16
330
5
100
AcDbSymbolTableRecord
100
AcDbLinetypeTableRecord
  2
Continuous
 70
     0
  3
Solid line
 72
    65
 73
     0
 40
0.0
  0
LTYPE
  5
4F
330
5
100
AcDbSymbolTableRecord
100
AcDbLinetypeTableRecord
  2
AM_ISO02W050
 70
     0
  3
__ __ __ __ __ __ __ __ __ __ __ __ __ __ __
 72
    65
 73
     2
 40
7.5
 49
6.0
 74
     0
 49
-1.5
 74
     0
  0
LTYPE
  5
52
330
5
100
AcDbSymbolTableRecord
100
AcDbLinetypeTableRecord
  2
Amconstr
 70
     0
  3
_______________________
 72
    65
 73
     2
 40
9999.0
 49
9999.0
 74
     0
 49
0.0
 74
     0
  0
LTYPE
  5
64
330
5
100
AcDbSymbolTableRecord
100
AcDbLinetypeTableRecord
  2
ACISOWELD
 70
     0
  3
_ _ _ _ _
 72
    65
 73
     2
 40
2.0
 49
2.0
 74
     0
 49
-1.0
 74
     0
  0
LTYPE
  5
65
330
5
100
AcDbSymbolTableRecord
100
AcDbLinetypeTableRecord
  2
ACISOTGB
 70
     0
  3
__ . . __ . .
 72
    65
 73
     6
 40
9.0
 49
4.0
 74
     0
 49
-1.0
 74
     0
 49
1.0
 74
     0
 49
-1.0
 74
     0
 49
1.0
 74
     0
 49
-1.0
 74
     0
  0
LTYPE
  5
66
330
5
100
AcDbSymbolTableRecord
100
AcDbLinetypeTableRecord
  2
ACISOTGL
 70
     0
  3
_ _ _ _ _
 72
    65
 73
     2
 40
3.0
 49
2.0
 74
     0
 49
-1.0
 74
     0
  0
LTYPE
  5
69
330
5
100
AcDbSymbolTableRecord
100
AcDbLinetypeTableRecord
  2
CENTER
 70
     0
  3
__ . __
 72
    65
 73
     4
 40
7.0
 49
4.0
 74
     0
 49
-1.0
 74
     0
 49
1.0
 74
     0
 49
-1.0
 74
     0
  0
LTYPE
  5
A6E
330
5
100
AcDbSymbolTableRecord
100
AcDbLinetypeTableRecord
  2
PHANTOM2
 70
     0
  3
Phantom (.5x) ___ _ _ ___ _ _ ___ _ _ ___ _ _
 72
    65
 73
     6
 40
31.75
 49
15.875
 74
     0
 49
-3.174999999999998
 74
     0
 49
3.174999999999998
 74
     0
 49
-3.174999999999998
 74
     0
 49
3.174999999999998
 74
     0
 49
-3.174999999999998
 74
     0
  0
LTYPE
  5
4DED
330
5
100
AcDbSymbolTableRecord
100
AcDbLinetypeTableRecord
  2
中線
 70
     0
  3
___________________
 72
    65
 73
     2
 40
2.0
 49
1.0
 74
     0
 49
1.0
 74
     0
  0
LTYPE
  5
4DF6
330
5
100
AcDbSymbolTableRecord
100
AcDbLinetypeTableRecord
  2
細線
 70
     0
  3
___________________
 72
    65
 73
     2
 40
2.0
 49
1.0
 74
     0
 49
1.0
 74
     0
  0
LTYPE
  5
4DF7
330
5
100
AcDbSymbolTableRecord
100
AcDbLinetypeTableRecord
  2
太線
 70
     0
  3
___________________
 72
    65
 73
     2
 40
2.0
 49
1.0
 74
     0
 49
1.0
 74
     0
  0
LTYPE
  5
4EA7
330
5
100
AcDbSymbolTableRecord
100
AcDbLinetypeTableRecord
  2
文字
 70
     0
  3
_________________
 72
    65
 73
     2
 40
2.0
 49
1.0
 74
     0
 49
1.0
 74
     0
  0
LTYPE
  5
4EA9
330
5
100
AcDbSymbolTableRecord
100
AcDbLinetypeTableRecord
  2
寸法線
 70
     0
  3
________________
 72
    65
 73
     2
 40
2.0
 49
1.0
 74
     0
 49
1.0
 74
     0
  0
LTYPE
  5
4F12
330
5
100
AcDbSymbolTableRecord
100
AcDbLinetypeTableRecord
  2
ハッチング
 70
     0
  3
_________________
 72
    65
 73
     2
 40
2.0
 49
1.0
 74
     0
 49
1.0
 74
     0
  0
LTYPE
  5
5180
330
5
100
AcDbSymbolTableRecord
100
AcDbLinetypeTableRecord
  2
陰線1
 70
     0
  3
__ __ __ __
 72
    65
 73
     2
 40
4.0
 49
2.2
 74
     0
 49
-1.8
 74
     0
  0
LTYPE
  5
5182
330
5
100
AcDbSymbolTableRecord
100
AcDbLinetypeTableRecord
  2
切断線
 70
     0
  3
/\/-/\/-/\/-/\/-/\/-/\/
 72
    65
 73
     2
 40
11.0001
 49
0.0001
 74
     4
 75
   135
340
56
 46
0.04
 50
0.0
 44
0.0
 45
0.0
 49
-11.0
 74
     0
  0
LTYPE
  5
5183
330
5
100
AcDbSymbolTableRecord
100
AcDbLinetypeTableRecord
  2
想像線1
 70
     0
  3
__ __ __ _____ __ __ ____
 72
    65
 73
     6
 40
14.5
 49
6.0
 74
     0
 49
-1.5
 74
     0
 49
2.0
 74
     0
 49
-1.5
 74
     0
 49
2.0
 74
     0
 49
-1.5
 74
     0
  0
LTYPE
  5
5185
330
5
100
AcDbSymbolTableRecord
100
AcDbLinetypeTableRecord
  2
中心線1
 70
     0
  3
___ _ ___ _ ___
 72
    65
 73
     4
 40
18.0
 49
12.0
 74
     0
 49
-2.0
 74
     0
 49
2.0
 74
     0
 49
-2.0
 74
     0
  0
LTYPE
  5
5188
330
5
100
AcDbSymbolTableRecord
100
AcDbLinetypeTableRecord
  2
補助線
 70
     0
  3
______________
 72
    65
 73
     2
 40
2.0
 49
1.0
 74
     0
 49
1.0
 74
     0
  0
LTYPE
  5
6427
330
5
100
AcDbSymbolTableRecord
100
AcDbLinetypeTableRecord
  2
HIDDEN
 70
     0
  3
Hidden __ __ __ __ __ __ __ __ __ __ __ __ __ _
 72
    65
 73
     2
 40
0.375
 49
0.25
 74
     0
 49
-0.125
 74
     0
  0
LTYPE
  5
AC81
330
5
100
AcDbSymbolTableRecord
100
AcDbLinetypeTableRecord
  2
破断線
 70
     0
  3
/\/-/\/-/\/-/\/-/\/-/\/
 72
    65
 73
     2
 40
0.4401
 49
0.0001
 74
     4
 75
   136
340
AC80
 46
0.0016
 50
0.0
 44
0.0
 45
0.0
 49
-0.4400000000000002
 74
     0
  0
LTYPE
  5
AC9E
330
5
100
AcDbSymbolTableRecord
100
AcDbLinetypeTableRecord
  2
Amzigzag
 70
     0
  3
/\/-/\/-/\/-/\/-/\/-/\/
 72
    65
 73
     2
 40
11.0001
 49
0.0001
 74
     4
 75
   135
340
56
 46
0.04
 50
0.0
 44
0.0
 45
0.0
 49
-11.0
 74
     0
  0
LTYPE
  5
AF0F
330
5
100
AcDbSymbolTableRecord
100
AcDbLinetypeTableRecord
  2
genzigzag
 70
     0
  3
/\/-/\/-/\/-/\/-/\/-/\/
 72
    65
 73
     2
 40
12.0001
 49
0.0001
 74
     4
 75
   135
340
AC80
 46
2.0
 50
0.0
 44
0.0
 45
0.0
 49
-12.0
 74
     0
  0
LTYPE
  5
AF95
330
5
100
AcDbSymbolTableRecord
100
AcDbLinetypeTableRecord
  2
AM_ISO08W050
 70
     0
  3
____ . ____ . ____ . ____ . ____ . ____ . ____
 72
    65
 73
     4
 40
18.0
 49
12.0
 74
     0
 49
-1.5
 74
     0
 49
3.0
 74
     0
 49
-1.5
 74
     0
  0
LTYPE
  5
AF96
330
5
100
AcDbSymbolTableRecord
100
AcDbLinetypeTableRecord
  2
AM_ISO09W050
 70
     0
  3
_____ . . _____ . . _____ . . ____ .. ____
 72
    65
 73
     6
 40
22.5
 49
12.0
 74
     0
 49
-1.5
 74
     0
 49
3.0
 74
     0
 49
-1.5
 74
     0
 49
3.0
 74
     0
 49
-1.5
 74
     0
  0
LTYPE
  5
AF97
330
5
100
AcDbSymbolTableRecord
100
AcDbLinetypeTableRecord
  2
AM_ISO08W050x2
 70
     0
  3
__ . __ . __ . __ . __ . __
 72
    65
 73
     4
 40
9.0
 49
6.0
 74
     0
 49
-0.75
 74
     0
 49
1.5
 74
     0
 49
-0.75
 74
     0
  0
LTYPE
  5
AF98
330
5
100
AcDbSymbolTableRecord
100
AcDbLinetypeTableRecord
  2
AM_ISO02W050x2
 70
     0
  3
 _ _ _ _ _ _ _ _ _ _ _ _
 72
    65
 73
     2
 40
3.75
 49
3.0
 74
     0
 49
-0.75
 74
     0
  0
LTYPE
  5
B6D1
330
5
100
AcDbSymbolTableRecord
100
AcDbLinetypeTableRecord
  2
DASHED
 70
     0
  3
__ __ __ __ __ __ __ __ __ __ __ __ __ __ __
 72
    65
 73
     2
 40
3.5
 49
2.0
 74
     0
 49
-1.5
 74
     0
  0
LTYPE
  5
B6D2
330
5
100
AcDbSymbolTableRecord
100
AcDbLinetypeTableRecord
  2
CENTER2
 70
     0
  3
Center (.5x) ___ _ ___ _ ___ _ ___ _ ___ _ ___
 72
    65
 73
     4
 40
1.125
 49
0.75
 74
     0
 49
-0.125
 74
     0
 49
0.125
 74
     0
 49
-0.125
 74
     0
  0
LTYPE
  5
B6D3
330
5
100
AcDbSymbolTableRecord
100
AcDbLinetypeTableRecord
  2
HIDDEN2
 70
     0
  3
Hidden (.5x) _ _ _ _ _ _ _ _ _ _ _ _ _ _ _ _ _
 72
    65
 73
     2
 40
0.1875
 49
0.125
 74
     0
 49
-0.0625
 74
     0
  0
LTYPE
  5
B6D4
330
5
100
AcDbSymbolTableRecord
100
AcDbLinetypeTableRecord
  2
Amzigzag2
 70
     0
  3
/\/-/\/-/\/-/\/-/\/-/\/
 72
    65
 73
     2
 40
0.4401
 49
0.0001
 74
     4
 75
   136
340
AC80
 46
0.0016
 50
0.0
 44
0.0
 45
0.0
 49
-0.4400000000000002
 74
     0
  0
LTYPE
  5
B6D5
330
5
100
AcDbSymbolTableRecord
100
AcDbLinetypeTableRecord
  2
ACANSTGB
 70
     0
  3
__ . . __ . .
 72
    65
 73
     6
 40
0.35433070866
 49
0.15748031496
 74
     0
 49
-0.03937007874
 74
     0
 49
0.03937007874
 74
     0
 49
-0.03937007874
 74
     0
 49
0.03937007874
 74
     0
 49
-0.03937007874
 74
     0
  0
LTYPE
  5
B6D6
330
5
100
AcDbSymbolTableRecord
100
AcDbLinetypeTableRecord
  2
ACANSTGL
 70
     0
  3
_ _ _ _ _
 72
    65
 73
     2
 40
0.11811023622
 49
0.07874015748
 74
     0
 49
-0.03937007874
 74
     0
  0
ENDTAB
  0
TABLE
  2
LAYER
  5
2
102
{ACAD_XDICTIONARY
360
3F95
102
}
330
0
100
AcDbSymbolTable
 70
    20
  0
LAYER
  5
10
102
{ACAD_XDICTIONARY
360
BF20
102
}
330
2
100
AcDbSymbolTableRecord
100
AcDbLayerTableRecord
  2
0
 70
     0
 62
     7
  6
Continuous
370
    -3
390
F
  0
LAYER
  5
6D1
330
2
100
AcDbSymbolTableRecord
100
AcDbLayerTableRecord
  2
Defpoints
 70
     0
 62
     7
  6
Continuous
290
     0
370
    -3
390
F
  0
LAYER
  5
5F85
102
{ACAD_XDICTIONARY
360
BF22
102
}
330
2
100
AcDbSymbolTableRecord
100
AcDbLayerTableRecord
  2
AM_0
 70
     0
 62
     7
  6
中線
370
    30
390
F
1001
AcAecLayerStandard
1000

1000

  0
LAYER
  5
AC9F
102
{ACAD_XDICTIONARY
360
BF24
102
}
330
2
100
AcDbSymbolTableRecord
100
AcDbLayerTableRecord
  2
size
 70
     0
 62
     5
  6
Continuous
290
     0
370
    25
390
F
  0
LAYER
  5
ACA0
102
{ACAD_XDICTIONARY
360
BF26
102
}
330
2
100
AcDbSymbolTableRecord
100
AcDbLayerTableRecord
  2
waku
 70
     0
 62
     7
  6
Continuous
370
    35
390
F
  0
LAYER
  5
ACA1
102
{ACAD_XDICTIONARY
360
BF28
102
}
330
2
100
AcDbSymbolTableRecord
100
AcDbLayerTableRecord
  2
AM_6
 70
     0
 62
     2
  6
文字
370
    13
390
F
1001
AcAecLayerStandard
1000

1000

  0
LAYER
  5
ACC8
102
{ACAD_XDICTIONARY
360
BF2A
102
}
330
2
100
AcDbSymbolTableRecord
100
AcDbLayerTableRecord
  2
hyomoji
 70
     0
 62
     2
  6
Continuous
370
    13
390
F
  0
LAYER
  5
ACC9
102
{ACAD_XDICTIONARY
360
BF2C
102
}
330
2
100
AcDbSymbolTableRecord
100
AcDbLayerTableRecord
  2
hyosen1
 70
     0
 62
    12
  6
Continuous
370
    25
390
F
  0
LAYER
  5
ACCA
102
{ACAD_XDICTIONARY
360
BF2E
102
}
330
2
100
AcDbSymbolTableRecord
100
AcDbLayerTableRecord
  2
hyosen2
 70
     0
 62
    12
  6
Continuous
370
    13
390
F
  0
LAYER
  5
AD60
102
{ACAD_XDICTIONARY
360
BF30
102
}
330
2
100
AcDbSymbolTableRecord
100
AcDbLayerTableRecord
  2
AM_1
 70
     0
 62
    30
  6
太線
370
    40
390
F
1001
AcAecLayerStandard
1000

1000

  0
LAYER
  5
AD64
102
{ACAD_XDICTIONARY
360
BF32
102
}
330
2
100
AcDbSymbolTableRecord
100
AcDbLayerTableRecord
  2
AM_2
 70
     0
 62
     1
  6
細線
370
    13
390
F
1001
AcAecLayerStandard
1000

1000

  0
LAYER
  5
AD67
102
{ACAD_XDICTIONARY
360
BF34
102
}
330
2
100
AcDbSymbolTableRecord
100
AcDbLayerTableRecord
  2
AM_3
 70
     0
 62
     6
  6
陰線1
370
    13
390
F
1001
AcAecLayerStandard
1000

1000

  0
LAYER
  5
AD68
102
{ACAD_XDICTIONARY
360
BF36
102
}
330
2
100
AcDbSymbolTableRecord
100
AcDbLayerTableRecord
  2
AM_5
 70
     0
 62
     3
  6
寸法線
370
    13
390
F
1001
AcAecLayerStandard
1000

1000

  0
LAYER
  5
AD69
102
{ACAD_XDICTIONARY
360
BF38
102
}
330
2
100
AcDbSymbolTableRecord
100
AcDbLayerTableRecord
  2
AM_7
 70
     0
 62
     4
  6
中心線1
370
    13
390
F
1001
AcAecLayerStandard
1000

1000

  0
LAYER
  5
AD6A
102
{ACAD_XDICTIONARY
360
BF3A
102
}
330
2
100
AcDbSymbolTableRecord
100
AcDbLayerTableRecord
  2
AM_8
 70
     0
 62
     1
  6
ハッチング
370
    13
390
F
1001
AcAecLayerStandard
1000

1000

  0
LAYER
  5
AD6E
102
{ACAD_XDICTIONARY
360
BF3C
102
}
330
2
100
AcDbSymbolTableRecord
100
AcDbLayerTableRecord
  2
AM_10
 70
     0
 62
     7
  6
切断線
370
    13
390
F
1001
AcAecLayerStandard
1000

1000

  0
LAYER
  5
AD6F
102
{ACAD_XDICTIONARY
360
BF3E
102
}
330
2
100
AcDbSymbolTableRecord
100
AcDbLayerTableRecord
  2
AM_11
 70
     0
 62
     2
  6
想像線1
370
    13
390
F
1001
AcAecLayerStandard
1000

1000

  0
LAYER
  5
B1B6
102
{ACAD_XDICTIONARY
360
BF40
102
}
330
2
100
AcDbSymbolTableRecord
100
AcDbLayerTableRecord
  2
AM_CL
 70
     0
 62
     1
  6
Amconstr
370
    15
390
F
1001
AcAecLayerStandard
1000

1000

  0
LAYER
  5
B2EB
102
{ACAD_XDICTIONARY
360
BF42
102
}
330
2
100
AcDbSymbolTableRecord
100
AcDbLayerTableRecord
  2
AM_14
 70
     0
 62
     5
  6
細線
370
     9
390
F
1001
AcAecLayerStandard
1000

1000

  0
LAYER
  5
B2EC
102
{ACAD_XDICTIONARY
360
BF44
102
}
330
2
100
AcDbSymbolTableRecord
100
AcDbLayerTableRecord
  2
AM_15
 70
     0
 62
     6
  6
陰線1
370
     9
390
F
1001
AcAecLayerStandard
1000

1000

  0
ENDTAB
  0
TABLE
  2
STYLE
  5
3
330
0
100
AcDbSymbolTable
 70
     8
  0
STYLE
  5
11
330
3
100
AcDbSymbolTableRecord
100
AcDbTextStyleTableRecord
  2
STANDARD
 70
     0
 40
0.0
 41
0.7
 50
0.0
 71
     0
 42
3.2
  3
romans.shx
  4
extfont.shx
  0
STYLE
  5
56
330
3
100
AcDbSymbolTableRecord
100
AcDbTextStyleTableRecord
  2

 70
     1
 40
0.0
 41
1.0
 50
0.0
 71
     0
 42
2.5
  3
ltypeshp.shx
  4

  0
STYLE
  5
58
330
3
100
AcDbSymbolTableRecord
100
AcDbTextStyleTableRecord
  2
ACISOTS
 70
     0
 40
1.0
 41
1.0
 50
0.0
 71
     0
 42
2.5
  3
isocp.shx
  4
extfont.shx
  0
STYLE
  5
63
330
3
100
AcDbSymbolTableRecord
100
AcDbTextStyleTableRecord
  2
ACISOGDT
 70
     0
 40
0.0
 41
1.0
 50
0.0
 71
     0
 42
2.5
  3
amgdt.shx
  4

  0
STYLE
  5
A74
330
3
100
AcDbSymbolTableRecord
100
AcDbTextStyleTableRecord
  2
DIM
 70
     0
 40
0.0
 41
1.0
 50
0.0
 71
     0
 42
2.5
  3
monotxt.shx
  4
extfont.shx
  0
STYLE
  5
AC80
330
3
100
AcDbSymbolTableRecord
100
AcDbTextStyleTableRecord
  2

 70
     1
 40
0.0
 41
1.0
 50
0.0
 71
     0
 42
3.2
  3
genltshp.shx
  4

  0
STYLE
  5
B6D7
330
3
100
AcDbSymbolTableRecord
100
AcDbTextStyleTableRecord
  2
ACANSTS
 70
     0
 40
1.0
 41
1.0
 50
0.0
 71
     0
 42
3.2
  3
romans.shx
  4
extfont.shx
  0
STYLE
  5
B6D8
330
3
100
AcDbSymbolTableRecord
100
AcDbTextStyleTableRecord
  2
ACANSGDT
 70
     0
 40
0.0
 41
1.0
 50
0.0
 71
     0
 42
3.2
  3
amgdt.shx
  4

  0
ENDTAB
  0
TABLE
  2
VIEW
  5
6
330
0
100
AcDbSymbolTable
 70
     6
  0
VIEW
  5
AE1
330
6
100
AcDbSymbolTableRecord
100
AcDbViewTableRecord
  2
AM_VIEW1
 70
     0
 40
148.5
 10
120.5689655172414
 20
222.75
 41
241.1379310344828
 11
0.0
 21
0.0
 31
1.0
 12
0.0
 22
0.0
 32
0.0
 42
50.0
 43
-1370.695619172058
 44
-1370.695619172058
 50
0.0
 71
     0
281
     0
 72
     0
  0
VIEW
  5
AE2
330
6
100
AcDbSymbolTableRecord
100
AcDbViewTableRecord
  2
AM_VIEW2
 70
     0
 40
148.5
 10
299.4310344827587
 20
222.75
 41
241.1379310344828
 11
0.0
 21
0.0
 31
1.0
 12
0.0
 22
0.0
 32
0.0
 42
50.0
 43
-1370.695619172058
 44
-1370.695619172058
 50
0.0
 71
     0
281
     0
 72
     0
  0
VIEW
  5
AE3
330
6
100
AcDbSymbolTableRecord
100
AcDbViewTableRecord
  2
AM_VIEW3
 70
     0
 40
148.5
 10
120.5689655172414
 20
74.25
 41
241.1379310344828
 11
0.0
 21
0.0
 31
1.0
 12
0.0
 22
0.0
 32
0.0
 42
50.0
 43
-1370.695619172058
 44
-1370.695619172058
 50
0.0
 71
     0
281
     0
 72
     0
  0
VIEW
  5
AE4
330
6
100
AcDbSymbolTableRecord
100
AcDbViewTableRecord
  2
AM_VIEW4
 70
     0
 40
148.5
 10
299.4310344827587
 20
74.25
 41
241.1379310344828
 11
0.0
 21
0.0
 31
1.0
 12
0.0
 22
0.0
 32
0.0
 42
50.0
 43
-1370.695619172058
 44
-1370.695619172058
 50
0.0
 71
     0
281
     0
 72
     0
  0
VIEW
  5
AE5
330
6
100
AcDbSymbolTableRecord
100
AcDbViewTableRecord
  2
AM_VIEW5
 70
     0
 40
148.5
 10
210.0
 20
148.5
 41
241.1379310344828
 11
0.0
 21
0.0
 31
1.0
 12
0.0
 22
0.0
 32
0.0
 42
50.0
 43
-1370.695619172058
 44
-1370.695619172058
 50
0.0
 71
     0
281
     0
 72
     0
  0
VIEW
  5
AE6
330
6
100
AcDbSymbolTableRecord
100
AcDbViewTableRecord
  2
AM_VIEW6
 70
     0
 40
296.99703
 10
210.0
 20
148.5
 41
482.2710393103448
 11
0.0
 21
0.0
 31
1.0
 12
0.0
 22
0.0
 32
0.0
 42
50.0
 43
-1370.695619172058
 44
-1370.695619172058
 50
0.0
 71
     0
281
     0
 72
     0
  0
ENDTAB
  0
TABLE
  2
UCS
  5
7
330
0
100
AcDbSymbolTable
 70
     0
  0
ENDTAB
  0
TABLE
  2
APPID
  5
9
330
0
100
AcDbSymbolTable
 70
    59
  0
APPID
  5
12
330
9
100
AcDbSymbolTableRecord
100
AcDbRegAppTableRecord
  2
ACAD
 70
     0
  0
APPID
  5
30
330
9
100
AcDbSymbolTableRecord
100
AcDbRegAppTableRecord
  2
MCAD_NO_VIS
 70
     0
  0
APPID
  5
31
330
9
100
AcDbSymbolTableRecord
100
AcDbRegAppTableRecord
  2
ACAD_TEMP_GRAPHIC
 70
     0
  0
APPID
  5
44
330
9
100
AcDbSymbolTableRecord
100
AcDbRegAppTableRecord
  2
ACATTRIBSERVICES
 70
     0
  0
APPID
  5
7A1
330
9
100
AcDbSymbolTableRecord
100
AcDbRegAppTableRecord
  2
GENIUS_GENDIMSH_14
 70
     0
  0
APPID
  5
A49
330
9
100
AcDbSymbolTableRecord
100
AcDbRegAppTableRecord
  2
GENIUS_GENREC_14
 70
     0
  0
APPID
  5
A4A
330
9
100
AcDbSymbolTableRecord
100
AcDbRegAppTableRecord
  2
GENIUS_GENOBJ-N-REC_13
 70
     0
  0
APPID
  5
A4B
330
9
100
AcDbSymbolTableRecord
100
AcDbRegAppTableRecord
  2
GENIUS_GENODEF_13
 70
     0
  0
APPID
  5
A4C
330
9
100
AcDbSymbolTableRecord
100
AcDbRegAppTableRecord
  2
DCO15
 70
     0
  0
APPID
  5
ADC
330
9
100
AcDbSymbolTableRecord
100
AcDbRegAppTableRecord
  2
GENIUS_GENOLIS_13
 70
     0
  0
APPID
  5
ADD
330
9
100
AcDbSymbolTableRecord
100
AcDbRegAppTableRecord
  2
GENIUS_GENOENT_13
 70
     0
  0
APPID
  5
ADE
330
9
100
AcDbSymbolTableRecord
100
AcDbRegAppTableRecord
  2
GENIUS_GENOBJ-N-TIT_13
 70
     0
  0
APPID
  5
ADF
330
9
100
AcDbSymbolTableRecord
100
AcDbRegAppTableRecord
  2
GENIUS_GENTITLE_13
 70
     0
  0
APPID
  5
AE0
330
9
100
AcDbSymbolTableRecord
100
AcDbRegAppTableRecord
  2
GENIUS_GENOREF_13
 70
     0
  0
APPID
  5
AE7
330
9
100
AcDbSymbolTableRecord
100
AcDbRegAppTableRecord
  2
GENIUS_GENSCREG_15
 70
     0
  0
APPID
  5
AE8
330
9
100
AcDbSymbolTableRecord
100
AcDbRegAppTableRecord
  2
GENIUS_GENOBJ-N-SDF_13
 70
     0
  0
APPID
  5
FAF
330
9
100
AcDbSymbolTableRecord
100
AcDbRegAppTableRecord
  2
GENIUS_GENBLLY_14
 70
     0
  0
APPID
  5
FB0
330
9
100
AcDbSymbolTableRecord
100
AcDbRegAppTableRecord
  2
GENIUS_GENTRA_14
 70
     0
  0
APPID
  5
1285
330
9
100
AcDbSymbolTableRecord
100
AcDbRegAppTableRecord
  2
GENIUS_GENDTOL_13
 70
     0
  0
APPID
  5
142D
330
9
100
AcDbSymbolTableRecord
100
AcDbRegAppTableRecord
  2
GENIUS_GENOBJ-N-CEN_13
 70
     0
  0
APPID
  5
1AB5
330
9
100
AcDbSymbolTableRecord
100
AcDbRegAppTableRecord
  2
GENIUS_GENOBJ-N-CRS_13
 70
     0
  0
APPID
  5
1B36
330
9
100
AcDbSymbolTableRecord
100
AcDbRegAppTableRecord
  2
GENIUS_GENOBJ-N-HTC_13
 70
     0
  0
APPID
  5
1B37
330
9
100
AcDbSymbolTableRecord
100
AcDbRegAppTableRecord
  2
GENIUS_GENHATCH_13
 70
     0
  0
APPID
  5
216D
330
9
100
AcDbSymbolTableRecord
100
AcDbRegAppTableRecord
  2
GENIUS_GENOBJ-N-FIL_13
 70
     0
  0
APPID
  5
2356
330
9
100
AcDbSymbolTableRecord
100
AcDbRegAppTableRecord
  2
GEVID990412420
 70
     0
  0
APPID
  5
2357
330
9
100
AcDbSymbolTableRecord
100
AcDbRegAppTableRecord
  2
GEVDC
 70
     0
  0
APPID
  5
2358
330
9
100
AcDbSymbolTableRecord
100
AcDbRegAppTableRecord
  2
GEVCON
 70
     0
  0
APPID
  5
235B
330
9
100
AcDbSymbolTableRecord
100
AcDbRegAppTableRecord
  2
GEVRADREF
 70
     0
  0
APPID
  5
2360
330
9
100
AcDbSymbolTableRecord
100
AcDbRegAppTableRecord
  2
GENIUS_GENBH_13
 70
     0
  0
APPID
  5
2362
330
9
100
AcDbSymbolTableRecord
100
AcDbRegAppTableRecord
  2
GENIUS_GENOBJ-NBEHI-BHF_13
 70
     0
  0
APPID
  5
2364
330
9
100
AcDbSymbolTableRecord
100
AcDbRegAppTableRecord
  2
GENIUS_GENOBJ-NBEHI-BHB_13
 70
     0
  0
APPID
  5
2379
330
9
100
AcDbSymbolTableRecord
100
AcDbRegAppTableRecord
  2
GENIUS_GENOBJ-F-SCPASSM_13
 70
     0
  0
APPID
  5
3D74
330
9
100
AcDbSymbolTableRecord
100
AcDbRegAppTableRecord
  2
GENIUS_GENDIM_13
 70
     0
  0
APPID
  5
3D76
330
9
100
AcDbSymbolTableRecord
100
AcDbRegAppTableRecord
  2
GENIUS_GE3DTOL_13
 70
     0
  0
APPID
  5
3D9C
330
9
100
AcDbSymbolTableRecord
100
AcDbRegAppTableRecord
  2
AD_DRAW
 70
     0
  0
APPID
  5
3DE8
330
9
100
AcDbSymbolTableRecord
100
AcDbRegAppTableRecord
  2
ASURF_PCURVE_APPNAME
 70
     0
  0
APPID
  5
3DED
330
9
100
AcDbSymbolTableRecord
100
AcDbRegAppTableRecord
  2
AMG_3D2D_5.0
 70
     0
  0
APPID
  5
3E1B
330
9
100
AcDbSymbolTableRecord
100
AcDbRegAppTableRecord
  2
DESIGNERASSEMBLIES
 70
     0
  0
APPID
  5
3E20
330
9
100
AcDbSymbolTableRecord
100
AcDbRegAppTableRecord
  2
ACADM_DIM_EDIT
 70
     0
  0
APPID
  5
3E21
330
9
100
AcDbSymbolTableRecord
100
AcDbRegAppTableRecord
  2
AMDT_DM_ADJ
 70
     0
  0
APPID
  5
4143
330
9
100
AcDbSymbolTableRecord
100
AcDbRegAppTableRecord
  2
GENIUS_GENFIL_13
 70
     0
  0
APPID
  5
4144
330
9
100
AcDbSymbolTableRecord
100
AcDbRegAppTableRecord
  2
GENIUS_GENOBJ-N-CHA_13
 70
     0
  0
APPID
  5
4E17
330
9
100
AcDbSymbolTableRecord
100
AcDbRegAppTableRecord
  2
GEVID1008153417
 70
     0
  0
APPID
  5
4E58
330
9
100
AcDbSymbolTableRecord
100
AcDbRegAppTableRecord
  2
GEVID1008153418
 70
     0
  0
APPID
  5
4E5E
330
9
100
AcDbSymbolTableRecord
100
AcDbRegAppTableRecord
  2
GEVID1008153419
 70
     0
  0
APPID
  5
4E64
330
9
100
AcDbSymbolTableRecord
100
AcDbRegAppTableRecord
  2
GEVID1008153420
 70
     0
  0
APPID
  5
4E75
330
9
100
AcDbSymbolTableRecord
100
AcDbRegAppTableRecord
  2
GEVID1008153421
 70
     0
  0
APPID
  5
4EB7
330
9
100
AcDbSymbolTableRecord
100
AcDbRegAppTableRecord
  2
GENIUS_AMGTXT_16
 70
     0
  0
APPID
  5
7645
330
9
100
AcDbSymbolTableRecord
100
AcDbRegAppTableRecord
  2
GENIUS_GENOBJ-N-DIM_13
 70
     0
  0
APPID
  5
AAD0
330
9
100
AcDbSymbolTableRecord
100
AcDbRegAppTableRecord
  2
ACAD_DSTYLE_DIMARC_LENGTH_SYMBOL
 70
     0
  0
APPID
  5
AAD1
330
9
100
AcDbSymbolTableRecord
100
AcDbRegAppTableRecord
  2
ACAD_DSTYLE_DIMJOGGED_JOGANGLE_SYMBOL
 70
     0
  0
APPID
  5
AAFD
330
9
100
AcDbSymbolTableRecord
100
AcDbRegAppTableRecord
  2
ACAD_PSEXT
 70
     0
  0
APPID
  5
AD61
330
9
100
AcDbSymbolTableRecord
100
AcDbRegAppTableRecord
  2
AcAecLayerStandard
 70
     0
  0
APPID
  5
AEE3
330
9
100
AcDbSymbolTableRecord
100
AcDbRegAppTableRecord
  2
ACAD_EXEMPT_FROM_CAD_STANDARDS
 70
     0
  0
APPID
  5
B1BE
330
9
100
AcDbSymbolTableRecord
100
AcDbRegAppTableRecord
  2
GENIUS_GENCEN_19
 70
     0
  0
APPID
  5
B597
330
9
100
AcDbSymbolTableRecord
100
AcDbRegAppTableRecord
  2
ACAD_MLEADERVER
 70
     0
  0
APPID
  5
BB97
330
9
100
AcDbSymbolTableRecord
100
AcDbRegAppTableRecord
  2
ACAD_DSTYLE_DIMINSPECT
 70
     0
  0
APPID
  5
BBE1
330
9
100
AcDbSymbolTableRecord
100
AcDbRegAppTableRecord
  2
ACAD_DSTYLE_DIMRADIAL_EXTENSION
 70
     0
  0
APPID
  5
C031
330
9
100
AcDbSymbolTableRecord
100
AcDbRegAppTableRecord
  2
AcDbAttr
 70
     0
  0
ENDTAB
  0
TABLE
  2
DIMSTYLE
  5
A
330
0
100
AcDbSymbolTable
 70
    23
100
AcDbDimStyleTable
 71
     1
340
2515
  0
DIMSTYLE
105
A76
330
A
100
AcDbSymbolTableRecord
100
AcDbDimStyleTableRecord
  2
STANDARD
 70
     0
 41
3.0
 42
1.0
 43
7.0
 44
2.0
 73
     0
 74
     0
 77
     1
140
2.799999999999998
141
0.0
143
0.0394
147
0.7
171
     4
172
     1
173
     1
176
     3
177
     3
178
     2
271
     3
272
     3
273
     8
274
     4
289
     0
340
A74
341
A66
343
A66
344
A66
  0
DIMSTYLE
105
2515
330
A
100
AcDbSymbolTableRecord
100
AcDbDimStyleTableRecord
  2
SYS
 70
     0
  4
"
 41
1.0
 42
1.0
 43
10.0
 44
1.0
 47
0.1
 48
0.1
 73
     0
 74
     0
 77
     1
 78
     8
 79
     2
140
3.5
141
0.0
143
0.0393701
146
0.71
147
1.5
172
     1
176
   256
177
   256
178
     7
271
     2
272
     2
283
     0
284
     8
340
11
371
    -1
372
    -1
1001
ACAD_DSTYLE_DIMJOGGED_JOGANGLE_SYMBOL
1070
   384
1040
0.7853981633974483
1001
ACAD_DSTYLE_DIMARC_LENGTH_SYMBOL
1070
   379
1070
     1
  0
DIMSTYLE
105
2516
102
{ACAD_REACTORS
330
BC1B
102
}
330
A
100
AcDbSymbolTableRecord
100
AcDbDimStyleTableRecord
  2
SYS$3
 70
     0
  4
"
 41
2.0
 42
1.0
 43
10.0
 44
1.0
 47
0.1
 48
0.1
 73
     0
 77
     1
 78
     8
 79
     2
140
3.5
141
0.0
143
0.0393701
146
0.71
147
1.5
176
   256
177
   256
178
     2
271
     2
272
     2
283
     0
284
     8
288
     1
340
11
342
A66
371
    -1
372
    -1
1001
ACAD_DSTYLE_DIMJOGGED_JOGANGLE_SYMBOL
1070
   384
1040
0.7853981633974483
1001
ACAD_DSTYLE_DIMARC_LENGTH_SYMBOL
1070
   379
1070
     1
  0
DIMSTYLE
105
2517
102
{ACAD_REACTORS
330
BC97
330
BE76
102
}
330
A
100
AcDbSymbolTableRecord
100
AcDbDimStyleTableRecord
  2
SYS$4
 70
     0
  4
"
 41
2.0
 42
1.0
 43
10.0
 44
1.0
 47
0.1
 48
0.1
 73
     0
 77
     1
 78
     8
 79
     2
140
3.5
141
0.0
143
0.0393701
146
0.71
147
1.5
173
     1
176
   256
177
   256
178
     2
271
     2
272
     2
283
     0
284
     8
288
     1
340
11
344
A66
371
    -1
372
    -1
1001
ACAD_DSTYLE_DIMJOGGED_JOGANGLE_SYMBOL
1070
   384
1040
0.7853981633974483
1001
ACAD_DSTYLE_DIMARC_LENGTH_SYMBOL
1070
   379
1070
     1
  0
DIMSTYLE
105
2518
330
A
100
AcDbSymbolTableRecord
100
AcDbDimStyleTableRecord
  2
SYS$6
 70
     0
  4
"
 41
2.0
 42
1.0
 43
10.0
 44
1.0
 47
0.1
 48
0.1
 73
     0
 74
     0
 78
     8
 79
     2
140
3.5
141
0.0
143
0.0393701
146
0.71
147
1.5
172
     1
176
   256
177
   256
178
     2
271
     2
272
     2
283
     0
284
     8
340
11
341
A66
371
    -1
372
    -1
1001
ACAD_DSTYLE_DIMJOGGED_JOGANGLE_SYMBOL
1070
   384
1040
0.7853981633974483
1001
ACAD_DSTYLE_DIMARC_LENGTH_SYMBOL
1070
   379
1070
     1
  0
DIMSTYLE
105
2519
330
A
100
AcDbSymbolTableRecord
100
AcDbDimStyleTableRecord
  2
SYS$7
 70
     0
  4
"
 41
2.0
 42
1.0
 43
10.0
 44
1.0
 47
0.1
 48
0.1
 73
     0
 74
     0
 77
     1
 78
     8
 79
     2
140
5.0
141
0.0
143
0.0393701
146
0.71
147
1.5
172
     1
176
   256
177
   256
178
     2
271
     2
272
     2
283
     0
284
     8
340
11
341
A66
342
A66
371
    -1
372
    -1
1001
ACAD_DSTYLE_DIMJOGGED_JOGANGLE_SYMBOL
1070
   384
1040
0.7853981633974483
1001
ACAD_DSTYLE_DIMARC_LENGTH_SYMBOL
1070
   379
1070
     1
  0
DIMSTYLE
105
251A
330
A
100
AcDbSymbolTableRecord
100
AcDbDimStyleTableRecord
  2
SYS$SF
 70
     0
  4
"
 41
2.5
 42
1.0
 43
10.0
 44
1.0
 47
0.1
 48
0.1
 73
     0
 74
     0
 75
     1
 76
     1
 77
     1
 78
     8
 79
     2
140
3.5
141
0.0
143
0.0393701
146
0.71
147
1.5
172
     1
176
   256
177
   256
178
     2
271
     2
272
     3
283
     0
284
     8
340
11
341
6C4
342
6C4
371
    -1
372
    -1
1001
ACAD_DSTYLE_DIMJOGGED_JOGANGLE_SYMBOL
1070
   384
1040
0.7853981633974483
1001
ACAD_DSTYLE_DIMARC_LENGTH_SYMBOL
1070
   379
1070
     1
  0
DIMSTYLE
105
251B
330
A
100
AcDbSymbolTableRecord
100
AcDbDimStyleTableRecord
  2
SYS$SH
 70
     0
  4
"
 41
2.5
 42
1.0
 43
10.0
 44
1.0
 47
0.1
 48
0.1
 73
     0
 74
     0
 75
     1
 76
     1
 77
     1
 78
     8
 79
     2
140
3.5
141
0.0
143
0.0393701
144
2.0
146
0.71
147
1.5
172
     1
173
     1
176
   256
177
   256
178
     2
271
     2
272
     3
283
     0
284
     8
340
11
341
6C4
343
72
344
6C4
371
    -1
372
    -1
1001
ACAD_DSTYLE_DIMJOGGED_JOGANGLE_SYMBOL
1070
   384
1040
0.7853981633974483
1001
ACAD_DSTYLE_DIMARC_LENGTH_SYMBOL
1070
   379
1070
     1
  0
DIMSTYLE
105
2A59
330
A
100
AcDbSymbolTableRecord
100
AcDbDimStyleTableRecord
  2
SYS$2
 70
     0
  4
"
 41
1.0
 42
1.0
 43
10.0
 44
1.0
 47
0.1
 48
0.1
 73
     0
 74
     0
 77
     1
 78
     8
 79
     2
140
3.5
141
0.0
143
0.0393701
146
0.71
147
1.5
172
     1
176
   256
177
   256
178
     2
271
     2
272
     2
283
     0
284
     8
340
11
342
6C4
371
    -1
372
    -1
1001
ACAD_DSTYLE_DIMJOGGED_JOGANGLE_SYMBOL
1070
   384
1040
0.7853981633974483
1001
ACAD_DSTYLE_DIMARC_LENGTH_SYMBOL
1070
   379
1070
     1
  0
DIMSTYLE
105
2AAB
102
{ACAD_REACTORS
330
BB81
330
BBAA
330
BCB9
330
BD1A
330
BD4A
330
BD7B
330
BDAC
330
BDD4
330
BE4E
102
}
330
A
100
AcDbSymbolTableRecord
100
AcDbDimStyleTableRecord
  2
SYS$0
 70
     0
  4
"
 41
1.0
 42
1.0
 43
10.0
 44
1.0
 47
0.1
 48
0.1
 73
     0
 74
     0
 77
     1
 78
     8
 79
     2
140
3.200000000000001
141
0.0
143
0.0393701
146
0.71
147
1.5
172
     1
176
   256
177
   256
178
     2
271
     2
272
     2
283
     0
284
     8
340
11
341
A66
342
6C4
371
    -1
372
    -1
1001
ACAD_DSTYLE_DIMJOGGED_JOGANGLE_SYMBOL
1070
   384
1040
0.7853981633974483
1001
ACAD_DSTYLE_DIMARC_LENGTH_SYMBOL
1070
   379
1070
     1
  0
DIMSTYLE
105
AF99
330
A
100
AcDbSymbolTableRecord
100
AcDbDimStyleTableRecord
  2
AM_ISO
 70
     0
  4
"
 41
2.5
 42
1.0
 43
10.0
 44
1.0
 47
0.1
 48
0.1
 73
     0
 74
     0
 77
     1
 78
     8
 79
     2
140
3.5
141
0.0
143
0.0393701
146
0.71
147
1.5
172
     1
176
   256
177
   256
178
     2
271
     2
272
     3
274
     4
283
     0
284
     8
340
11
371
    -1
372
    -1
  0
DIMSTYLE
105
AF9A
330
A
100
AcDbSymbolTableRecord
100
AcDbDimStyleTableRecord
  2
AM_ISO$3
 70
     0
  4
"
 41
2.5
 42
1.0
 43
10.0
 44
1.0
 47
0.1
 48
0.1
 73
     0
 77
     1
 78
     8
 79
     2
140
3.5
141
0.0
143
0.0393701
146
0.71
147
1.5
176
   256
177
   256
178
     2
271
     2
272
     3
274
     4
283
     0
284
     8
288
     1
289
     0
340
11
371
    -1
372
    -1
  0
DIMSTYLE
105
AF9B
330
A
100
AcDbSymbolTableRecord
100
AcDbDimStyleTableRecord
  2
AM_ISO$4
 70
     0
  4
"
 41
2.5
 42
1.0
 43
10.0
 44
1.0
 47
0.1
 48
0.1
 73
     0
 77
     1
 78
     8
 79
     2
140
3.5
141
0.0
143
0.0393701
146
0.71
147
1.5
176
   256
177
   256
178
     2
271
     2
272
     3
274
     4
283
     0
284
     8
288
     1
289
     0
340
11
371
    -1
372
    -1
  0
DIMSTYLE
105
AF9C
330
A
100
AcDbSymbolTableRecord
100
AcDbDimStyleTableRecord
  2
AM_ISO$6
 70
     0
  4
"
 41
2.5
 42
1.0
 43
10.0
 44
1.0
 47
0.1
 48
0.1
 73
     0
 74
     0
 78
     8
 79
     2
140
3.5
141
0.0
143
0.0393701
146
0.71
147
1.5
172
     1
176
   256
177
   256
178
     2
271
     2
272
     3
274
     4
283
     0
284
     8
340
11
371
    -1
372
    -1
  0
DIMSTYLE
105
AF9D
330
A
100
AcDbSymbolTableRecord
100
AcDbDimStyleTableRecord
  2
AM_ISO$7
 70
     0
  4
"
 41
2.5
 42
1.0
 43
10.0
 44
1.0
 47
0.1
 48
0.1
 73
     0
 74
     0
 77
     1
 78
     8
 79
     2
140
5.0
141
0.0
143
0.0393701
146
0.71
147
1.5
172
     1
176
   256
177
   256
178
     2
271
     2
272
     3
274
     4
283
     0
284
     8
340
11
371
    -1
372
    -1
  0
DIMSTYLE
105
AF9E
330
A
100
AcDbSymbolTableRecord
100
AcDbDimStyleTableRecord
  2
AM_ISO$SF
 70
     0
  4
"
 41
2.5
 42
1.0
 43
10.0
 44
1.0
 47
0.1
 48
0.1
 73
     0
 74
     0
 75
     1
 76
     1
 77
     1
 78
     8
 79
     2
140
3.5
141
0.0
143
0.0393701
146
0.71
147
1.5
172
     1
176
   256
177
   256
178
     2
271
     2
272
     3
274
     4
283
     0
284
     8
340
11
371
    -1
372
    -1
  0
DIMSTYLE
105
AF9F
330
A
100
AcDbSymbolTableRecord
100
AcDbDimStyleTableRecord
  2
AM_ISO$SH
 70
     0
  4
"
 41
2.5
 42
1.0
 43
10.0
 44
1.0
 47
0.1
 48
0.1
 73
     0
 74
     0
 75
     1
 76
     1
 77
     1
 78
     8
 79
     2
140
3.5
141
0.0
143
0.0393701
144
2.0
146
0.71
147
1.5
172
     1
173
     1
176
   256
177
   256
178
     2
271
     2
272
     3
274
     4
283
     0
284
     8
340
11
343
72
371
    -1
372
    -1
  0
DIMSTYLE
105
B6D9
330
A
100
AcDbSymbolTableRecord
100
AcDbDimStyleTableRecord
  2
AM_ANSI
 70
     0
  4
mm
 41
0.1
 42
0.05
 43
0.5
 44
0.1
 47
0.1
 48
0.1
 78
     7
 79
     2
140
0.12
141
0.0
146
0.71
147
0.06
176
   256
177
   256
178
     2
274
     4
284
     7
340
11
371
    -1
372
    -1
1001
ACAD_DSTYLE_DIMARC_LENGTH_SYMBOL
1070
   379
1070
     1
  0
DIMSTYLE
105
B6DA
330
A
100
AcDbSymbolTableRecord
100
AcDbDimStyleTableRecord
  2
AM_ANSI$3
 70
     0
  4
mm
 41
0.1
 42
0.05
 43
0.5
 44
0.1
 47
0.1
 48
0.1
 78
     7
 79
     2
140
0.12
141
0.0
146
0.71
147
0.06
176
   256
177
   256
178
     2
274
     4
284
     7
288
     1
289
     0
340
11
371
    -1
372
    -1
1001
ACAD_DSTYLE_DIMARC_LENGTH_SYMBOL
1070
   379
1070
     1
  0
DIMSTYLE
105
B6DB
330
A
100
AcDbSymbolTableRecord
100
AcDbDimStyleTableRecord
  2
AM_ANSI$4
 70
     0
  4
mm
 41
0.1
 42
0.05
 43
0.5
 44
0.1
 47
0.1
 48
0.1
 78
     7
 79
     2
140
0.12
141
0.0
146
0.71
147
0.06
176
   256
177
   256
178
     2
274
     4
284
     7
288
     1
289
     0
340
11
371
    -1
372
    -1
1001
ACAD_DSTYLE_DIMARC_LENGTH_SYMBOL
1070
   379
1070
     1
  0
DIMSTYLE
105
B6DC
330
A
100
AcDbSymbolTableRecord
100
AcDbDimStyleTableRecord
  2
AM_ANSI$7
 70
     0
  4
mm
 41
0.1
 42
0.05
 43
0.5
 44
0.1
 47
0.1
 48
0.1
 78
     7
 79
     2
140
0.24
141
0.0
146
0.71
147
0.06
176
   256
177
   256
178
     2
274
     4
284
     7
340
11
371
    -1
372
    -1
1001
ACAD_DSTYLE_DIMARC_LENGTH_SYMBOL
1070
   379
1070
     1
  0
DIMSTYLE
105
B6DD
330
A
100
AcDbSymbolTableRecord
100
AcDbDimStyleTableRecord
  2
AM_ANSI$SF
 70
     0
  4
mm
 41
0.1
 42
0.05
 43
0.5
 44
0.1
 47
0.1
 48
0.1
 75
     1
 76
     1
 78
     7
 79
     2
140
0.12
141
0.0
146
0.71
147
0.06
176
   256
177
   256
178
     2
274
     4
284
     7
340
11
371
    -1
372
    -1
1001
ACAD_DSTYLE_DIMARC_LENGTH_SYMBOL
1070
   379
1070
     1
  0
DIMSTYLE
105
B6DE
330
A
100
AcDbSymbolTableRecord
100
AcDbDimStyleTableRecord
  2
AM_ANSI$SH
 70
     0
  4
mm
 41
0.1
 42
0.05
 43
0.5
 44
0.1
 47
0.1
 48
0.1
 75
     1
 76
     1
 78
     7
 79
     2
140
0.12
141
0.0
146
0.71
147
0.06
173
     1
176
   256
177
   256
178
     2
274
     4
284
     7
340
11
343
72
371
    -1
372
    -1
1001
ACAD_DSTYLE_DIMARC_LENGTH_SYMBOL
1070
   379
1070
     1
  0
ENDTAB
  0
TABLE
  2
BLOCK_RECORD
  5
1
330
0
100
AcDbSymbolTable
 70
    51
  0
BLOCK_RECORD
  5
1F
102
{ACAD_XDICTIONARY
360
8A
102
}
330
1
100
AcDbSymbolTableRecord
100
AcDbBlockTableRecord
  2
*Model_Space
340
22
  0
BLOCK_RECORD
  5
1B
330
1
100
AcDbSymbolTableRecord
100
AcDbBlockTableRecord
  2
*Paper_Space
340
1E
  0
BLOCK_RECORD
  5
23
330
1
100
AcDbSymbolTableRecord
100
AcDbBlockTableRecord
  2
*Paper_Space0
340
26
  0
BLOCK_RECORD
  5
72
330
1
100
AcDbSymbolTableRecord
100
AcDbBlockTableRecord
  2
GENAXEH
340
0
  0
BLOCK_RECORD
  5
6C4
330
1
100
AcDbSymbolTableRecord
100
AcDbBlockTableRecord
  2
_Dot
340
0
102
{BLKREFS
331
BEB2
331
BEB3
331
BEBB
331
BEBC
331
BED2
331
BED3
331
BEDD
331
BEDE
331
BEE6
331
BEE7
331
BEEF
331
BEF0
331
BEF8
331
BEF9
331
BF01
331
BF02
331
BF13
331
BF14
102
}
  0
BLOCK_RECORD
  5
A66
330
1
100
AcDbSymbolTableRecord
100
AcDbBlockTableRecord
  2
_OPEN30
340
0
102
{BLKREFS
331
BECC
331
BF1C
102
}
  0
BLOCK_RECORD
  5
B5F8
330
1
100
AcDbSymbolTableRecord
100
AcDbBlockTableRecord
  2
KOZU0001
340
0
  0
BLOCK_RECORD
  5
B5FF
330
1
100
AcDbSymbolTableRecord
100
AcDbBlockTableRecord
  2
KOZU0002
340
0
  0
BLOCK_RECORD
  5
B606
330
1
100
AcDbSymbolTableRecord
100
AcDbBlockTableRecord
  2
KOZU0003
340
0
  0
BLOCK_RECORD
  5
B60D
330
1
100
AcDbSymbolTableRecord
100
AcDbBlockTableRecord
  2
KOZU0004
340
0
  0
BLOCK_RECORD
  5
B614
330
1
100
AcDbSymbolTableRecord
100
AcDbBlockTableRecord
  2
KOZU0005
340
0
  0
BLOCK_RECORD
  5
B61B
330
1
100
AcDbSymbolTableRecord
100
AcDbBlockTableRecord
  2
KOZU0006
340
0
  0
BLOCK_RECORD
  5
B622
330
1
100
AcDbSymbolTableRecord
100
AcDbBlockTableRecord
  2
KOZU0007
340
0
  0
BLOCK_RECORD
  5
B629
330
1
100
AcDbSymbolTableRecord
100
AcDbBlockTableRecord
  2
KOZU0008
340
0
  0
BLOCK_RECORD
  5
B630
330
1
100
AcDbSymbolTableRecord
100
AcDbBlockTableRecord
  2
KOZU0009
340
0
  0
BLOCK_RECORD
  5
B637
330
1
100
AcDbSymbolTableRecord
100
AcDbBlockTableRecord
  2
KOZU0010
340
0
  0
BLOCK_RECORD
  5
B63E
330
1
100
AcDbSymbolTableRecord
100
AcDbBlockTableRecord
  2
KOZU0011
340
0
  0
BLOCK_RECORD
  5
B645
330
1
100
AcDbSymbolTableRecord
100
AcDbBlockTableRecord
  2
KOZU0012
340
0
  0
BLOCK_RECORD
  5
B64C
330
1
100
AcDbSymbolTableRecord
100
AcDbBlockTableRecord
  2
KOZU0013
340
0
  0
BLOCK_RECORD
  5
B653
330
1
100
AcDbSymbolTableRecord
100
AcDbBlockTableRecord
  2
KOZU0014
340
0
  0
BLOCK_RECORD
  5
B65A
330
1
100
AcDbSymbolTableRecord
100
AcDbBlockTableRecord
  2
KOZU0015
340
0
  0
BLOCK_RECORD
  5
B661
330
1
100
AcDbSymbolTableRecord
100
AcDbBlockTableRecord
  2
KOZU0016
340
0
  0
BLOCK_RECORD
  5
B668
330
1
100
AcDbSymbolTableRecord
100
AcDbBlockTableRecord
  2
KOZU0017
340
0
  0
BLOCK_RECORD
  5
B66F
330
1
100
AcDbSymbolTableRecord
100
AcDbBlockTableRecord
  2
KOZU0018
340
0
  0
BLOCK_RECORD
  5
B676
330
1
100
AcDbSymbolTableRecord
100
AcDbBlockTableRecord
  2
KOZU0019
340
0
  0
BLOCK_RECORD
  5
B67D
330
1
100
AcDbSymbolTableRecord
100
AcDbBlockTableRecord
  2
KOZU0020
340
0
  0
BLOCK_RECORD
  5
B684
330
1
100
AcDbSymbolTableRecord
100
AcDbBlockTableRecord
  2
KOZU0021
340
0
  0
BLOCK_RECORD
  5
B68B
330
1
100
AcDbSymbolTableRecord
100
AcDbBlockTableRecord
  2
KOZU0022
340
0
  0
BLOCK_RECORD
  5
B692
330
1
100
AcDbSymbolTableRecord
100
AcDbBlockTableRecord
  2
KOZU0023
340
0
  0
BLOCK_RECORD
  5
B699
330
1
100
AcDbSymbolTableRecord
100
AcDbBlockTableRecord
  2
KOZU0024
340
0
  0
BLOCK_RECORD
  5
B6A0
330
1
100
AcDbSymbolTableRecord
100
AcDbBlockTableRecord
  2
KOZU0025
340
0
  0
BLOCK_RECORD
  5
B6A7
330
1
100
AcDbSymbolTableRecord
100
AcDbBlockTableRecord
  2
KOZU0026
340
0
  0
BLOCK_RECORD
  5
B6AE
330
1
100
AcDbSymbolTableRecord
100
AcDbBlockTableRecord
  2
KOZU0027
340
0
  0
BLOCK_RECORD
  5
B6B5
330
1
100
AcDbSymbolTableRecord
100
AcDbBlockTableRecord
  2
KOZU0028
340
0
  0
BLOCK_RECORD
  5
B6BC
330
1
100
AcDbSymbolTableRecord
100
AcDbBlockTableRecord
  2
KOZU0029
340
0
  0
BLOCK_RECORD
  5
B6C3
330
1
100
AcDbSymbolTableRecord
100
AcDbBlockTableRecord
  2
KOZU0030
340
0
  0
BLOCK_RECORD
  5
B6CA
330
1
100
AcDbSymbolTableRecord
100
AcDbBlockTableRecord
  2
KOZU0031
340
0
  0
BLOCK_RECORD
  5
B9B5
102
{ACAD_XDICTIONARY
360
B9C9
102
}
330
1
100
AcDbSymbolTableRecord
100
AcDbBlockTableRecord
  2
SYS図枠A3(AIS2008)
340
0
  0
BLOCK_RECORD
  5
B9DF
102
{ACAD_XDICTIONARY
360
BA38
102
}
330
1
100
AcDbSymbolTableRecord
100
AcDbBlockTableRecord
  2
SYS表題(AIS2008)
340
0
  0
BLOCK_RECORD
  5
BB82
330
1
100
AcDbSymbolTableRecord
100
AcDbBlockTableRecord
  2
*D37
340
0
  0
BLOCK_RECORD
  5
BBAB
330
1
100
AcDbSymbolTableRecord
100
AcDbBlockTableRecord
  2
*D38
340
0
  0
BLOCK_RECORD
  5
BC1C
330
1
100
AcDbSymbolTableRecord
100
AcDbBlockTableRecord
  2
*D39
340
0
  0
BLOCK_RECORD
  5
BC51
330
1
100
AcDbSymbolTableRecord
100
AcDbBlockTableRecord
  2
GENDOT
340
0
102
{BLKREFS
331
BEC4
331
BEC5
102
}
  0
BLOCK_RECORD
  5
BC98
330
1
100
AcDbSymbolTableRecord
100
AcDbBlockTableRecord
  2
*D41
340
0
  0
BLOCK_RECORD
  5
BCBA
330
1
100
AcDbSymbolTableRecord
100
AcDbBlockTableRecord
  2
*D42
340
0
  0
BLOCK_RECORD
  5
BD1B
330
1
100
AcDbSymbolTableRecord
100
AcDbBlockTableRecord
  2
*D43
340
0
  0
BLOCK_RECORD
  5
BD4B
330
1
100
AcDbSymbolTableRecord
100
AcDbBlockTableRecord
  2
*D44
340
0
  0
BLOCK_RECORD
  5
BD7C
330
1
100
AcDbSymbolTableRecord
100
AcDbBlockTableRecord
  2
*D45
340
0
  0
BLOCK_RECORD
  5
BDAD
330
1
100
AcDbSymbolTableRecord
100
AcDbBlockTableRecord
  2
*D46
340
0
  0
BLOCK_RECORD
  5
BDD5
330
1
100
AcDbSymbolTableRecord
100
AcDbBlockTableRecord
  2
*D47
340
0
  0
BLOCK_RECORD
  5
BE4F
330
1
100
AcDbSymbolTableRecord
100
AcDbBlockTableRecord
  2
*D48
340
0
  0
BLOCK_RECORD
  5
BE77
330
1
100
AcDbSymbolTableRecord
100
AcDbBlockTableRecord
  2
*D49
340
0
  0
ENDTAB
  0
ENDSEC
  0
SECTION
  2
BLOCKS
  0
BLOCK
  5
20
330
1F
100
AcDbEntity
  8
0
100
AcDbBlockBegin
  2
*Model_Space
 70
     0
 10
0.0
 20
0.0
 30
0.0
  3
*Model_Space
  1

  0
ENDBLK
  5
21
330
1F
100
AcDbEntity
  8
0
100
AcDbBlockEnd
  0
BLOCK
  5
1C
330
1B
100
AcDbEntity
 67
     1
  8
0
100
AcDbBlockBegin
  2
*Paper_Space
 70
     0
 10
0.0
 20
0.0
 30
0.0
  3
*Paper_Space
  1

  0
ENDBLK
  5
1D
330
1B
100
AcDbEntity
 67
     1
  8
0
100
AcDbBlockEnd
  0
BLOCK
  5
24
330
23
100
AcDbEntity
 67
     1
  8
0
100
AcDbBlockBegin
  2
*Paper_Space0
 70
     0
 10
0.0
 20
0.0
 30
0.0
  3
*Paper_Space0
  1

  0
ENDBLK
  5
25
330
23
100
AcDbEntity
 67
     1
  8
0
100
AcDbBlockEnd
  0
BLOCK
  5
74
330
72
100
AcDbEntity
  8
0
100
AcDbBlockBegin
  2
GENAXEH
 70
     0
 10
0.0
 20
0.0
 30
0.0
  3
GENAXEH
  1

  0
LINE
  5
73
330
72
100
AcDbEntity
  8
0
100
AcDbLine
 10
-1.0
 20
0.0
 30
0.0
 11
1.0
 21
0.0
 31
0.0
  0
ENDBLK
  5
75
330
72
100
AcDbEntity
  8
0
100
AcDbBlockEnd
  0
BLOCK
  5
6C7
330
6C4
100
AcDbEntity
  8
0
100
AcDbBlockBegin
  2
_Dot
 70
     0
 10
0.0
 20
0.0
 30
0.0
  3
_Dot
  1

  0
LWPOLYLINE
  5
6C5
330
6C4
100
AcDbEntity
  8
0
  6
ByBlock
 62
     0
100
AcDbPolyline
 90
        2
 70
     1
 43
0.5
 10
-0.25
 20
0.0
 42
1.0
 10
0.25
 20
0.0
 42
1.0
  0
LINE
  5
6C6
330
6C4
100
AcDbEntity
  8
0
  6
ByBlock
 62
     0
370
    -2
100
AcDbLine
 10
-0.5
 20
0.0
 30
0.0
 11
-1.0
 21
0.0
 31
0.0
  0
ENDBLK
  5
6C8
330
6C4
100
AcDbEntity
  8
0
100
AcDbBlockEnd
  0
BLOCK
  5
A6A
330
A66
100
AcDbEntity
  8
0
100
AcDbBlockBegin
  2
_OPEN30
 70
     0
 10
0.0
 20
0.0
 30
0.0
  3
_OPEN30
  1

  0
LINE
  5
A67
330
A66
100
AcDbEntity
  8
0
  6
ByBlock
 62
     0
100
AcDbLine
 10
-1.0
 20
0.26794919
 30
0.0
 11
0.0
 21
0.0
 31
0.0
  0
LINE
  5
A68
330
A66
100
AcDbEntity
  8
0
  6
ByBlock
 62
     0
100
AcDbLine
 10
0.0
 20
0.0
 30
0.0
 11
-1.0
 21
-0.26794919
 31
0.0
  0
LINE
  5
A69
330
A66
100
AcDbEntity
  8
0
  6
ByBlock
 62
     0
100
AcDbLine
 10
0.0
 20
0.0
 30
0.0
 11
-1.0
 21
0.0
 31
0.0
  0
ENDBLK
  5
A6B
330
A66
100
AcDbEntity
  8
0
100
AcDbBlockEnd
  0
BLOCK
  5
B5F9
330
B5F8
100
AcDbEntity
  8
0
100
AcDbBlockBegin
  2
KOZU0001
 70
     0
 10
0.0
 20
0.0
 30
0.0
  3
KOZU0001
  1

  0
POLYLINE
  5
B5FA
330
B5F8
100
AcDbEntity
  8
0
  6
Continuous
 62
     7
100
AcDb2dPolyline
 66
     1
 10
0.0
 20
0.0
 30
0.0
 70
     1
 40
0.4000000100000002
 41
0.4000000100000002
  0
VERTEX
  5
B5FB
330
B5FA
100
AcDbEntity
  8
0
  6
Continuous
 62
     7
100
AcDbVertex
100
AcDb2dVertex
 10
-0.2
 20
0.0
 30
0.0
 42
1.0
  0
VERTEX
  5
B5FC
330
B5FA
100
AcDbEntity
  8
0
  6
Continuous
 62
     7
100
AcDbVertex
100
AcDb2dVertex
 10
0.2
 20
0.0
 30
0.0
 42
1.0
  0
SEQEND
  5
B5FD
330
B5FA
100
AcDbEntity
  8
0
  6
Continuous
 62
     7
  0
ENDBLK
  5
B5FE
330
B5F8
100
AcDbEntity
  8
0
100
AcDbBlockEnd
  0
BLOCK
  5
B600
330
B5FF
100
AcDbEntity
  8
0
100
AcDbBlockBegin
  2
KOZU0002
 70
     0
 10
0.0
 20
0.0
 30
0.0
  3
KOZU0002
  1

  0
POLYLINE
  5
B601
330
B5FF
100
AcDbEntity
  8
0
  6
Continuous
 62
     7
100
AcDb2dPolyline
 66
     1
 10
0.0
 20
0.0
 30
0.0
 70
     1
 40
0.4000000100000002
 41
0.4000000100000002
  0
VERTEX
  5
B602
330
B601
100
AcDbEntity
  8
0
  6
Continuous
 62
     7
100
AcDbVertex
100
AcDb2dVertex
 10
-0.2
 20
0.0
 30
0.0
 42
1.0
  0
VERTEX
  5
B603
330
B601
100
AcDbEntity
  8
0
  6
Continuous
 62
     7
100
AcDbVertex
100
AcDb2dVertex
 10
0.2
 20
0.0
 30
0.0
 42
1.0
  0
SEQEND
  5
B604
330
B601
100
AcDbEntity
  8
0
  6
Continuous
 62
     7
  0
ENDBLK
  5
B605
330
B5FF
100
AcDbEntity
  8
0
100
AcDbBlockEnd
  0
BLOCK
  5
B607
330
B606
100
AcDbEntity
  8
0
100
AcDbBlockBegin
  2
KOZU0003
 70
     0
 10
0.0
 20
0.0
 30
0.0
  3
KOZU0003
  1

  0
POLYLINE
  5
B608
330
B606
100
AcDbEntity
  8
0
  6
Continuous
 62
     7
100
AcDb2dPolyline
 66
     1
 10
0.0
 20
0.0
 30
0.0
 70
     1
 40
0.4000000100000002
 41
0.4000000100000002
  0
VERTEX
  5
B609
330
B608
100
AcDbEntity
  8
0
  6
Continuous
 62
     7
100
AcDbVertex
100
AcDb2dVertex
 10
-0.2
 20
0.0
 30
0.0
 42
1.0
  0
VERTEX
  5
B60A
330
B608
100
AcDbEntity
  8
0
  6
Continuous
 62
     7
100
AcDbVertex
100
AcDb2dVertex
 10
0.2
 20
0.0
 30
0.0
 42
1.0
  0
SEQEND
  5
B60B
330
B608
100
AcDbEntity
  8
0
  6
Continuous
 62
     7
  0
ENDBLK
  5
B60C
330
B606
100
AcDbEntity
  8
0
100
AcDbBlockEnd
  0
BLOCK
  5
B60E
330
B60D
100
AcDbEntity
  8
0
100
AcDbBlockBegin
  2
KOZU0004
 70
     0
 10
0.0
 20
0.0
 30
0.0
  3
KOZU0004
  1

  0
POLYLINE
  5
B60F
330
B60D
100
AcDbEntity
  8
0
  6
Continuous
 62
     7
100
AcDb2dPolyline
 66
     1
 10
0.0
 20
0.0
 30
0.0
 70
     1
 40
0.4000000100000002
 41
0.4000000100000002
  0
VERTEX
  5
B610
330
B60F
100
AcDbEntity
  8
0
  6
Continuous
 62
     7
100
AcDbVertex
100
AcDb2dVertex
 10
-0.2
 20
0.0
 30
0.0
 42
1.0
  0
VERTEX
  5
B611
330
B60F
100
AcDbEntity
  8
0
  6
Continuous
 62
     7
100
AcDbVertex
100
AcDb2dVertex
 10
0.2
 20
0.0
 30
0.0
 42
1.0
  0
SEQEND
  5
B612
330
B60F
100
AcDbEntity
  8
0
  6
Continuous
 62
     7
  0
ENDBLK
  5
B613
330
B60D
100
AcDbEntity
  8
0
100
AcDbBlockEnd
  0
BLOCK
  5
B615
330
B614
100
AcDbEntity
  8
0
100
AcDbBlockBegin
  2
KOZU0005
 70
     0
 10
0.0
 20
0.0
 30
0.0
  3
KOZU0005
  1

  0
POLYLINE
  5
B616
330
B614
100
AcDbEntity
  8
0
  6
Continuous
 62
     7
100
AcDb2dPolyline
 66
     1
 10
0.0
 20
0.0
 30
0.0
 70
     1
 40
0.4000000100000002
 41
0.4000000100000002
  0
VERTEX
  5
B617
330
B616
100
AcDbEntity
  8
0
  6
Continuous
 62
     7
100
AcDbVertex
100
AcDb2dVertex
 10
-0.2
 20
0.0
 30
0.0
 42
1.0
  0
VERTEX
  5
B618
330
B616
100
AcDbEntity
  8
0
  6
Continuous
 62
     7
100
AcDbVertex
100
AcDb2dVertex
 10
0.2
 20
0.0
 30
0.0
 42
1.0
  0
SEQEND
  5
B619
330
B616
100
AcDbEntity
  8
0
  6
Continuous
 62
     7
  0
ENDBLK
  5
B61A
330
B614
100
AcDbEntity
  8
0
100
AcDbBlockEnd
  0
BLOCK
  5
B61C
330
B61B
100
AcDbEntity
  8
0
100
AcDbBlockBegin
  2
KOZU0006
 70
     0
 10
0.0
 20
0.0
 30
0.0
  3
KOZU0006
  1

  0
POLYLINE
  5
B61D
330
B61B
100
AcDbEntity
  8
0
  6
Continuous
 62
     7
100
AcDb2dPolyline
 66
     1
 10
0.0
 20
0.0
 30
0.0
 70
     1
 40
0.4000000100000002
 41
0.4000000100000002
  0
VERTEX
  5
B61E
330
B61D
100
AcDbEntity
  8
0
  6
Continuous
 62
     7
100
AcDbVertex
100
AcDb2dVertex
 10
-0.2
 20
0.0
 30
0.0
 42
1.0
  0
VERTEX
  5
B61F
330
B61D
100
AcDbEntity
  8
0
  6
Continuous
 62
     7
100
AcDbVertex
100
AcDb2dVertex
 10
0.2
 20
0.0
 30
0.0
 42
1.0
  0
SEQEND
  5
B620
330
B61D
100
AcDbEntity
  8
0
  6
Continuous
 62
     7
  0
ENDBLK
  5
B621
330
B61B
100
AcDbEntity
  8
0
100
AcDbBlockEnd
  0
BLOCK
  5
B623
330
B622
100
AcDbEntity
  8
0
100
AcDbBlockBegin
  2
KOZU0007
 70
     0
 10
0.0
 20
0.0
 30
0.0
  3
KOZU0007
  1

  0
POLYLINE
  5
B624
330
B622
100
AcDbEntity
  8
0
  6
Continuous
 62
     7
100
AcDb2dPolyline
 66
     1
 10
0.0
 20
0.0
 30
0.0
 70
     1
 40
0.4000000100000002
 41
0.4000000100000002
  0
VERTEX
  5
B625
330
B624
100
AcDbEntity
  8
0
  6
Continuous
 62
     7
100
AcDbVertex
100
AcDb2dVertex
 10
-0.2
 20
0.0
 30
0.0
 42
1.0
  0
VERTEX
  5
B626
330
B624
100
AcDbEntity
  8
0
  6
Continuous
 62
     7
100
AcDbVertex
100
AcDb2dVertex
 10
0.2
 20
0.0
 30
0.0
 42
1.0
  0
SEQEND
  5
B627
330
B624
100
AcDbEntity
  8
0
  6
Continuous
 62
     7
  0
ENDBLK
  5
B628
330
B622
100
AcDbEntity
  8
0
100
AcDbBlockEnd
  0
BLOCK
  5
B62A
330
B629
100
AcDbEntity
  8
0
100
AcDbBlockBegin
  2
KOZU0008
 70
     0
 10
0.0
 20
0.0
 30
0.0
  3
KOZU0008
  1

  0
POLYLINE
  5
B62B
330
B629
100
AcDbEntity
  8
0
  6
Continuous
 62
     7
100
AcDb2dPolyline
 66
     1
 10
0.0
 20
0.0
 30
0.0
 70
     1
 40
0.4000000100000002
 41
0.4000000100000002
  0
VERTEX
  5
B62C
330
B62B
100
AcDbEntity
  8
0
  6
Continuous
 62
     7
100
AcDbVertex
100
AcDb2dVertex
 10
-0.2
 20
0.0
 30
0.0
 42
1.0
  0
VERTEX
  5
B62D
330
B62B
100
AcDbEntity
  8
0
  6
Continuous
 62
     7
100
AcDbVertex
100
AcDb2dVertex
 10
0.2
 20
0.0
 30
0.0
 42
1.0
  0
SEQEND
  5
B62E
330
B62B
100
AcDbEntity
  8
0
  6
Continuous
 62
     7
  0
ENDBLK
  5
B62F
330
B629
100
AcDbEntity
  8
0
100
AcDbBlockEnd
  0
BLOCK
  5
B631
330
B630
100
AcDbEntity
  8
0
100
AcDbBlockBegin
  2
KOZU0009
 70
     0
 10
0.0
 20
0.0
 30
0.0
  3
KOZU0009
  1

  0
POLYLINE
  5
B632
330
B630
100
AcDbEntity
  8
0
  6
Continuous
 62
     7
100
AcDb2dPolyline
 66
     1
 10
0.0
 20
0.0
 30
0.0
 70
     1
 40
0.4000000100000002
 41
0.4000000100000002
  0
VERTEX
  5
B633
330
B632
100
AcDbEntity
  8
0
  6
Continuous
 62
     7
100
AcDbVertex
100
AcDb2dVertex
 10
-0.2
 20
0.0
 30
0.0
 42
1.0
  0
VERTEX
  5
B634
330
B632
100
AcDbEntity
  8
0
  6
Continuous
 62
     7
100
AcDbVertex
100
AcDb2dVertex
 10
0.2
 20
0.0
 30
0.0
 42
1.0
  0
SEQEND
  5
B635
330
B632
100
AcDbEntity
  8
0
  6
Continuous
 62
     7
  0
ENDBLK
  5
B636
330
B630
100
AcDbEntity
  8
0
100
AcDbBlockEnd
  0
BLOCK
  5
B638
330
B637
100
AcDbEntity
  8
0
100
AcDbBlockBegin
  2
KOZU0010
 70
     0
 10
0.0
 20
0.0
 30
0.0
  3
KOZU0010
  1

  0
POLYLINE
  5
B639
330
B637
100
AcDbEntity
  8
0
  6
Continuous
 62
     7
100
AcDb2dPolyline
 66
     1
 10
0.0
 20
0.0
 30
0.0
 70
     1
 40
0.4000000100000002
 41
0.4000000100000002
  0
VERTEX
  5
B63A
330
B639
100
AcDbEntity
  8
0
  6
Continuous
 62
     7
100
AcDbVertex
100
AcDb2dVertex
 10
-0.2
 20
0.0
 30
0.0
 42
1.0
  0
VERTEX
  5
B63B
330
B639
100
AcDbEntity
  8
0
  6
Continuous
 62
     7
100
AcDbVertex
100
AcDb2dVertex
 10
0.2
 20
0.0
 30
0.0
 42
1.0
  0
SEQEND
  5
B63C
330
B639
100
AcDbEntity
  8
0
  6
Continuous
 62
     7
  0
ENDBLK
  5
B63D
330
B637
100
AcDbEntity
  8
0
100
AcDbBlockEnd
  0
BLOCK
  5
B63F
330
B63E
100
AcDbEntity
  8
0
100
AcDbBlockBegin
  2
KOZU0011
 70
     0
 10
0.0
 20
0.0
 30
0.0
  3
KOZU0011
  1

  0
POLYLINE
  5
B640
330
B63E
100
AcDbEntity
  8
0
  6
Continuous
 62
     7
100
AcDb2dPolyline
 66
     1
 10
0.0
 20
0.0
 30
0.0
 70
     1
 40
0.4000000100000002
 41
0.4000000100000002
  0
VERTEX
  5
B641
330
B640
100
AcDbEntity
  8
0
  6
Continuous
 62
     7
100
AcDbVertex
100
AcDb2dVertex
 10
-0.2
 20
0.0
 30
0.0
 42
1.0
  0
VERTEX
  5
B642
330
B640
100
AcDbEntity
  8
0
  6
Continuous
 62
     7
100
AcDbVertex
100
AcDb2dVertex
 10
0.2
 20
0.0
 30
0.0
 42
1.0
  0
SEQEND
  5
B643
330
B640
100
AcDbEntity
  8
0
  6
Continuous
 62
     7
  0
ENDBLK
  5
B644
330
B63E
100
AcDbEntity
  8
0
100
AcDbBlockEnd
  0
BLOCK
  5
B646
330
B645
100
AcDbEntity
  8
0
100
AcDbBlockBegin
  2
KOZU0012
 70
     0
 10
0.0
 20
0.0
 30
0.0
  3
KOZU0012
  1

  0
POLYLINE
  5
B647
330
B645
100
AcDbEntity
  8
0
  6
Continuous
 62
     7
100
AcDb2dPolyline
 66
     1
 10
0.0
 20
0.0
 30
0.0
 70
     1
 40
0.4000000100000002
 41
0.4000000100000002
  0
VERTEX
  5
B648
330
B647
100
AcDbEntity
  8
0
  6
Continuous
 62
     7
100
AcDbVertex
100
AcDb2dVertex
 10
-0.2
 20
0.0
 30
0.0
 42
1.0
  0
VERTEX
  5
B649
330
B647
100
AcDbEntity
  8
0
  6
Continuous
 62
     7
100
AcDbVertex
100
AcDb2dVertex
 10
0.2
 20
0.0
 30
0.0
 42
1.0
  0
SEQEND
  5
B64A
330
B647
100
AcDbEntity
  8
0
  6
Continuous
 62
     7
  0
ENDBLK
  5
B64B
330
B645
100
AcDbEntity
  8
0
100
AcDbBlockEnd
  0
BLOCK
  5
B64D
330
B64C
100
AcDbEntity
  8
0
100
AcDbBlockBegin
  2
KOZU0013
 70
     0
 10
0.0
 20
0.0
 30
0.0
  3
KOZU0013
  1

  0
POLYLINE
  5
B64E
330
B64C
100
AcDbEntity
  8
0
  6
Continuous
 62
     7
100
AcDb2dPolyline
 66
     1
 10
0.0
 20
0.0
 30
0.0
 70
     1
 40
0.4000000100000002
 41
0.4000000100000002
  0
VERTEX
  5
B64F
330
B64E
100
AcDbEntity
  8
0
  6
Continuous
 62
     7
100
AcDbVertex
100
AcDb2dVertex
 10
-0.2
 20
0.0
 30
0.0
 42
1.0
  0
VERTEX
  5
B650
330
B64E
100
AcDbEntity
  8
0
  6
Continuous
 62
     7
100
AcDbVertex
100
AcDb2dVertex
 10
0.2
 20
0.0
 30
0.0
 42
1.0
  0
SEQEND
  5
B651
330
B64E
100
AcDbEntity
  8
0
  6
Continuous
 62
     7
  0
ENDBLK
  5
B652
330
B64C
100
AcDbEntity
  8
0
100
AcDbBlockEnd
  0
BLOCK
  5
B654
330
B653
100
AcDbEntity
  8
0
100
AcDbBlockBegin
  2
KOZU0014
 70
     0
 10
0.0
 20
0.0
 30
0.0
  3
KOZU0014
  1

  0
POLYLINE
  5
B655
330
B653
100
AcDbEntity
  8
0
  6
Continuous
 62
     7
100
AcDb2dPolyline
 66
     1
 10
0.0
 20
0.0
 30
0.0
 70
     1
 40
0.4000000100000002
 41
0.4000000100000002
  0
VERTEX
  5
B656
330
B655
100
AcDbEntity
  8
0
  6
Continuous
 62
     7
100
AcDbVertex
100
AcDb2dVertex
 10
-0.2
 20
0.0
 30
0.0
 42
1.0
  0
VERTEX
  5
B657
330
B655
100
AcDbEntity
  8
0
  6
Continuous
 62
     7
100
AcDbVertex
100
AcDb2dVertex
 10
0.2
 20
0.0
 30
0.0
 42
1.0
  0
SEQEND
  5
B658
330
B655
100
AcDbEntity
  8
0
  6
Continuous
 62
     7
  0
ENDBLK
  5
B659
330
B653
100
AcDbEntity
  8
0
100
AcDbBlockEnd
  0
BLOCK
  5
B65B
330
B65A
100
AcDbEntity
  8
0
100
AcDbBlockBegin
  2
KOZU0015
 70
     0
 10
0.0
 20
0.0
 30
0.0
  3
KOZU0015
  1

  0
POLYLINE
  5
B65C
330
B65A
100
AcDbEntity
  8
0
  6
Continuous
 62
     7
100
AcDb2dPolyline
 66
     1
 10
0.0
 20
0.0
 30
0.0
 70
     1
 40
0.4000000100000002
 41
0.4000000100000002
  0
VERTEX
  5
B65D
330
B65C
100
AcDbEntity
  8
0
  6
Continuous
 62
     7
100
AcDbVertex
100
AcDb2dVertex
 10
-0.2
 20
0.0
 30
0.0
 42
1.0
  0
VERTEX
  5
B65E
330
B65C
100
AcDbEntity
  8
0
  6
Continuous
 62
     7
100
AcDbVertex
100
AcDb2dVertex
 10
0.2
 20
0.0
 30
0.0
 42
1.0
  0
SEQEND
  5
B65F
330
B65C
100
AcDbEntity
  8
0
  6
Continuous
 62
     7
  0
ENDBLK
  5
B660
330
B65A
100
AcDbEntity
  8
0
100
AcDbBlockEnd
  0
BLOCK
  5
B662
330
B661
100
AcDbEntity
  8
0
100
AcDbBlockBegin
  2
KOZU0016
 70
     0
 10
0.0
 20
0.0
 30
0.0
  3
KOZU0016
  1

  0
POLYLINE
  5
B663
330
B661
100
AcDbEntity
  8
0
  6
Continuous
 62
     7
100
AcDb2dPolyline
 66
     1
 10
0.0
 20
0.0
 30
0.0
 70
     1
 40
0.4000000100000002
 41
0.4000000100000002
  0
VERTEX
  5
B664
330
B663
100
AcDbEntity
  8
0
  6
Continuous
 62
     7
100
AcDbVertex
100
AcDb2dVertex
 10
-0.2
 20
0.0
 30
0.0
 42
1.0
  0
VERTEX
  5
B665
330
B663
100
AcDbEntity
  8
0
  6
Continuous
 62
     7
100
AcDbVertex
100
AcDb2dVertex
 10
0.2
 20
0.0
 30
0.0
 42
1.0
  0
SEQEND
  5
B666
330
B663
100
AcDbEntity
  8
0
  6
Continuous
 62
     7
  0
ENDBLK
  5
B667
330
B661
100
AcDbEntity
  8
0
100
AcDbBlockEnd
  0
BLOCK
  5
B669
330
B668
100
AcDbEntity
  8
0
100
AcDbBlockBegin
  2
KOZU0017
 70
     0
 10
0.0
 20
0.0
 30
0.0
  3
KOZU0017
  1

  0
POLYLINE
  5
B66A
330
B668
100
AcDbEntity
  8
0
  6
Continuous
 62
     7
100
AcDb2dPolyline
 66
     1
 10
0.0
 20
0.0
 30
0.0
 70
     1
 40
0.4000000100000002
 41
0.4000000100000002
  0
VERTEX
  5
B66B
330
B66A
100
AcDbEntity
  8
0
  6
Continuous
 62
     7
100
AcDbVertex
100
AcDb2dVertex
 10
-0.2
 20
0.0
 30
0.0
 42
1.0
  0
VERTEX
  5
B66C
330
B66A
100
AcDbEntity
  8
0
  6
Continuous
 62
     7
100
AcDbVertex
100
AcDb2dVertex
 10
0.2
 20
0.0
 30
0.0
 42
1.0
  0
SEQEND
  5
B66D
330
B66A
100
AcDbEntity
  8
0
  6
Continuous
 62
     7
  0
ENDBLK
  5
B66E
330
B668
100
AcDbEntity
  8
0
100
AcDbBlockEnd
  0
BLOCK
  5
B670
330
B66F
100
AcDbEntity
  8
0
100
AcDbBlockBegin
  2
KOZU0018
 70
     0
 10
0.0
 20
0.0
 30
0.0
  3
KOZU0018
  1

  0
POLYLINE
  5
B671
330
B66F
100
AcDbEntity
  8
0
  6
Continuous
 62
     7
100
AcDb2dPolyline
 66
     1
 10
0.0
 20
0.0
 30
0.0
 70
     1
 40
0.4000000100000002
 41
0.4000000100000002
  0
VERTEX
  5
B672
330
B671
100
AcDbEntity
  8
0
  6
Continuous
 62
     7
100
AcDbVertex
100
AcDb2dVertex
 10
-0.2
 20
0.0
 30
0.0
 42
1.0
  0
VERTEX
  5
B673
330
B671
100
AcDbEntity
  8
0
  6
Continuous
 62
     7
100
AcDbVertex
100
AcDb2dVertex
 10
0.2
 20
0.0
 30
0.0
 42
1.0
  0
SEQEND
  5
B674
330
B671
100
AcDbEntity
  8
0
  6
Continuous
 62
     7
  0
ENDBLK
  5
B675
330
B66F
100
AcDbEntity
  8
0
100
AcDbBlockEnd
  0
BLOCK
  5
B677
330
B676
100
AcDbEntity
  8
0
100
AcDbBlockBegin
  2
KOZU0019
 70
     0
 10
0.0
 20
0.0
 30
0.0
  3
KOZU0019
  1

  0
POLYLINE
  5
B678
330
B676
100
AcDbEntity
  8
0
  6
Continuous
 62
     7
100
AcDb2dPolyline
 66
     1
 10
0.0
 20
0.0
 30
0.0
 70
     1
 40
0.4000000100000002
 41
0.4000000100000002
  0
VERTEX
  5
B679
330
B678
100
AcDbEntity
  8
0
  6
Continuous
 62
     7
100
AcDbVertex
100
AcDb2dVertex
 10
-0.2
 20
0.0
 30
0.0
 42
1.0
  0
VERTEX
  5
B67A
330
B678
100
AcDbEntity
  8
0
  6
Continuous
 62
     7
100
AcDbVertex
100
AcDb2dVertex
 10
0.2
 20
0.0
 30
0.0
 42
1.0
  0
SEQEND
  5
B67B
330
B678
100
AcDbEntity
  8
0
  6
Continuous
 62
     7
  0
ENDBLK
  5
B67C
330
B676
100
AcDbEntity
  8
0
100
AcDbBlockEnd
  0
BLOCK
  5
B67E
330
B67D
100
AcDbEntity
  8
0
100
AcDbBlockBegin
  2
KOZU0020
 70
     0
 10
0.0
 20
0.0
 30
0.0
  3
KOZU0020
  1

  0
POLYLINE
  5
B67F
330
B67D
100
AcDbEntity
  8
0
  6
Continuous
 62
     7
100
AcDb2dPolyline
 66
     1
 10
0.0
 20
0.0
 30
0.0
 70
     1
 40
0.4000000100000002
 41
0.4000000100000002
  0
VERTEX
  5
B680
330
B67F
100
AcDbEntity
  8
0
  6
Continuous
 62
     7
100
AcDbVertex
100
AcDb2dVertex
 10
-0.2
 20
0.0
 30
0.0
 42
1.0
  0
VERTEX
  5
B681
330
B67F
100
AcDbEntity
  8
0
  6
Continuous
 62
     7
100
AcDbVertex
100
AcDb2dVertex
 10
0.2
 20
0.0
 30
0.0
 42
1.0
  0
SEQEND
  5
B682
330
B67F
100
AcDbEntity
  8
0
  6
Continuous
 62
     7
  0
ENDBLK
  5
B683
330
B67D
100
AcDbEntity
  8
0
100
AcDbBlockEnd
  0
BLOCK
  5
B685
330
B684
100
AcDbEntity
  8
0
100
AcDbBlockBegin
  2
KOZU0021
 70
     0
 10
0.0
 20
0.0
 30
0.0
  3
KOZU0021
  1

  0
POLYLINE
  5
B686
330
B684
100
AcDbEntity
  8
0
  6
Continuous
 62
     7
100
AcDb2dPolyline
 66
     1
 10
0.0
 20
0.0
 30
0.0
 70
     1
 40
0.4000000100000002
 41
0.4000000100000002
  0
VERTEX
  5
B687
330
B686
100
AcDbEntity
  8
0
  6
Continuous
 62
     7
100
AcDbVertex
100
AcDb2dVertex
 10
-0.2
 20
0.0
 30
0.0
 42
1.0
  0
VERTEX
  5
B688
330
B686
100
AcDbEntity
  8
0
  6
Continuous
 62
     7
100
AcDbVertex
100
AcDb2dVertex
 10
0.2
 20
0.0
 30
0.0
 42
1.0
  0
SEQEND
  5
B689
330
B686
100
AcDbEntity
  8
0
  6
Continuous
 62
     7
  0
ENDBLK
  5
B68A
330
B684
100
AcDbEntity
  8
0
100
AcDbBlockEnd
  0
BLOCK
  5
B68C
330
B68B
100
AcDbEntity
  8
0
100
AcDbBlockBegin
  2
KOZU0022
 70
     0
 10
0.0
 20
0.0
 30
0.0
  3
KOZU0022
  1

  0
POLYLINE
  5
B68D
330
B68B
100
AcDbEntity
  8
0
  6
Continuous
 62
     7
100
AcDb2dPolyline
 66
     1
 10
0.0
 20
0.0
 30
0.0
 70
     1
 40
0.4000000100000002
 41
0.4000000100000002
  0
VERTEX
  5
B68E
330
B68D
100
AcDbEntity
  8
0
  6
Continuous
 62
     7
100
AcDbVertex
100
AcDb2dVertex
 10
-0.2
 20
0.0
 30
0.0
 42
1.0
  0
VERTEX
  5
B68F
330
B68D
100
AcDbEntity
  8
0
  6
Continuous
 62
     7
100
AcDbVertex
100
AcDb2dVertex
 10
0.2
 20
0.0
 30
0.0
 42
1.0
  0
SEQEND
  5
B690
330
B68D
100
AcDbEntity
  8
0
  6
Continuous
 62
     7
  0
ENDBLK
  5
B691
330
B68B
100
AcDbEntity
  8
0
100
AcDbBlockEnd
  0
BLOCK
  5
B693
330
B692
100
AcDbEntity
  8
0
100
AcDbBlockBegin
  2
KOZU0023
 70
     0
 10
0.0
 20
0.0
 30
0.0
  3
KOZU0023
  1

  0
POLYLINE
  5
B694
330
B692
100
AcDbEntity
  8
0
  6
Continuous
 62
     7
100
AcDb2dPolyline
 66
     1
 10
0.0
 20
0.0
 30
0.0
 70
     1
 40
0.4000000100000002
 41
0.4000000100000002
  0
VERTEX
  5
B695
330
B694
100
AcDbEntity
  8
0
  6
Continuous
 62
     7
100
AcDbVertex
100
AcDb2dVertex
 10
-0.2
 20
0.0
 30
0.0
 42
1.0
  0
VERTEX
  5
B696
330
B694
100
AcDbEntity
  8
0
  6
Continuous
 62
     7
100
AcDbVertex
100
AcDb2dVertex
 10
0.2
 20
0.0
 30
0.0
 42
1.0
  0
SEQEND
  5
B697
330
B694
100
AcDbEntity
  8
0
  6
Continuous
 62
     7
  0
ENDBLK
  5
B698
330
B692
100
AcDbEntity
  8
0
100
AcDbBlockEnd
  0
BLOCK
  5
B69A
330
B699
100
AcDbEntity
  8
0
100
AcDbBlockBegin
  2
KOZU0024
 70
     0
 10
0.0
 20
0.0
 30
0.0
  3
KOZU0024
  1

  0
POLYLINE
  5
B69B
330
B699
100
AcDbEntity
  8
0
  6
Continuous
 62
     7
100
AcDb2dPolyline
 66
     1
 10
0.0
 20
0.0
 30
0.0
 70
     1
 40
0.4000000100000002
 41
0.4000000100000002
  0
VERTEX
  5
B69C
330
B69B
100
AcDbEntity
  8
0
  6
Continuous
 62
     7
100
AcDbVertex
100
AcDb2dVertex
 10
-0.2
 20
0.0
 30
0.0
 42
1.0
  0
VERTEX
  5
B69D
330
B69B
100
AcDbEntity
  8
0
  6
Continuous
 62
     7
100
AcDbVertex
100
AcDb2dVertex
 10
0.2
 20
0.0
 30
0.0
 42
1.0
  0
SEQEND
  5
B69E
330
B69B
100
AcDbEntity
  8
0
  6
Continuous
 62
     7
  0
ENDBLK
  5
B69F
330
B699
100
AcDbEntity
  8
0
100
AcDbBlockEnd
  0
BLOCK
  5
B6A1
330
B6A0
100
AcDbEntity
  8
0
100
AcDbBlockBegin
  2
KOZU0025
 70
     0
 10
0.0
 20
0.0
 30
0.0
  3
KOZU0025
  1

  0
POLYLINE
  5
B6A2
330
B6A0
100
AcDbEntity
  8
0
  6
Continuous
 62
     7
100
AcDb2dPolyline
 66
     1
 10
0.0
 20
0.0
 30
0.0
 70
     1
 40
0.4000000100000002
 41
0.4000000100000002
  0
VERTEX
  5
B6A3
330
B6A2
100
AcDbEntity
  8
0
  6
Continuous
 62
     7
100
AcDbVertex
100
AcDb2dVertex
 10
-0.2
 20
0.0
 30
0.0
 42
1.0
  0
VERTEX
  5
B6A4
330
B6A2
100
AcDbEntity
  8
0
  6
Continuous
 62
     7
100
AcDbVertex
100
AcDb2dVertex
 10
0.2
 20
0.0
 30
0.0
 42
1.0
  0
SEQEND
  5
B6A5
330
B6A2
100
AcDbEntity
  8
0
  6
Continuous
 62
     7
  0
ENDBLK
  5
B6A6
330
B6A0
100
AcDbEntity
  8
0
100
AcDbBlockEnd
  0
BLOCK
  5
B6A8
330
B6A7
100
AcDbEntity
  8
0
100
AcDbBlockBegin
  2
KOZU0026
 70
     0
 10
0.0
 20
0.0
 30
0.0
  3
KOZU0026
  1

  0
POLYLINE
  5
B6A9
330
B6A7
100
AcDbEntity
  8
0
  6
Continuous
 62
     7
100
AcDb2dPolyline
 66
     1
 10
0.0
 20
0.0
 30
0.0
 70
     1
 40
0.4000000100000002
 41
0.4000000100000002
  0
VERTEX
  5
B6AA
330
B6A9
100
AcDbEntity
  8
0
  6
Continuous
 62
     7
100
AcDbVertex
100
AcDb2dVertex
 10
-0.2
 20
0.0
 30
0.0
 42
1.0
  0
VERTEX
  5
B6AB
330
B6A9
100
AcDbEntity
  8
0
  6
Continuous
 62
     7
100
AcDbVertex
100
AcDb2dVertex
 10
0.2
 20
0.0
 30
0.0
 42
1.0
  0
SEQEND
  5
B6AC
330
B6A9
100
AcDbEntity
  8
0
  6
Continuous
 62
     7
  0
ENDBLK
  5
B6AD
330
B6A7
100
AcDbEntity
  8
0
100
AcDbBlockEnd
  0
BLOCK
  5
B6AF
330
B6AE
100
AcDbEntity
  8
0
100
AcDbBlockBegin
  2
KOZU0027
 70
     0
 10
0.0
 20
0.0
 30
0.0
  3
KOZU0027
  1

  0
POLYLINE
  5
B6B0
330
B6AE
100
AcDbEntity
  8
0
  6
Continuous
 62
     7
100
AcDb2dPolyline
 66
     1
 10
0.0
 20
0.0
 30
0.0
 70
     1
 40
0.4000000100000002
 41
0.4000000100000002
  0
VERTEX
  5
B6B1
330
B6B0
100
AcDbEntity
  8
0
  6
Continuous
 62
     7
100
AcDbVertex
100
AcDb2dVertex
 10
-0.2
 20
0.0
 30
0.0
 42
1.0
  0
VERTEX
  5
B6B2
330
B6B0
100
AcDbEntity
  8
0
  6
Continuous
 62
     7
100
AcDbVertex
100
AcDb2dVertex
 10
0.2
 20
0.0
 30
0.0
 42
1.0
  0
SEQEND
  5
B6B3
330
B6B0
100
AcDbEntity
  8
0
  6
Continuous
 62
     7
  0
ENDBLK
  5
B6B4
330
B6AE
100
AcDbEntity
  8
0
100
AcDbBlockEnd
  0
BLOCK
  5
B6B6
330
B6B5
100
AcDbEntity
  8
0
100
AcDbBlockBegin
  2
KOZU0028
 70
     0
 10
0.0
 20
0.0
 30
0.0
  3
KOZU0028
  1

  0
POLYLINE
  5
B6B7
330
B6B5
100
AcDbEntity
  8
0
  6
Continuous
 62
     7
100
AcDb2dPolyline
 66
     1
 10
0.0
 20
0.0
 30
0.0
 70
     1
 40
0.4000000100000002
 41
0.4000000100000002
  0
VERTEX
  5
B6B8
330
B6B7
100
AcDbEntity
  8
0
  6
Continuous
 62
     7
100
AcDbVertex
100
AcDb2dVertex
 10
-0.2
 20
0.0
 30
0.0
 42
1.0
  0
VERTEX
  5
B6B9
330
B6B7
100
AcDbEntity
  8
0
  6
Continuous
 62
     7
100
AcDbVertex
100
AcDb2dVertex
 10
0.2
 20
0.0
 30
0.0
 42
1.0
  0
SEQEND
  5
B6BA
330
B6B7
100
AcDbEntity
  8
0
  6
Continuous
 62
     7
  0
ENDBLK
  5
B6BB
330
B6B5
100
AcDbEntity
  8
0
100
AcDbBlockEnd
  0
BLOCK
  5
B6BD
330
B6BC
100
AcDbEntity
  8
0
100
AcDbBlockBegin
  2
KOZU0029
 70
     0
 10
0.0
 20
0.0
 30
0.0
  3
KOZU0029
  1

  0
POLYLINE
  5
B6BE
330
B6BC
100
AcDbEntity
  8
0
  6
Continuous
 62
     7
100
AcDb2dPolyline
 66
     1
 10
0.0
 20
0.0
 30
0.0
 70
     1
 40
0.4000000100000002
 41
0.4000000100000002
  0
VERTEX
  5
B6BF
330
B6BE
100
AcDbEntity
  8
0
  6
Continuous
 62
     7
100
AcDbVertex
100
AcDb2dVertex
 10
-0.2
 20
0.0
 30
0.0
 42
1.0
  0
VERTEX
  5
B6C0
330
B6BE
100
AcDbEntity
  8
0
  6
Continuous
 62
     7
100
AcDbVertex
100
AcDb2dVertex
 10
0.2
 20
0.0
 30
0.0
 42
1.0
  0
SEQEND
  5
B6C1
330
B6BE
100
AcDbEntity
  8
0
  6
Continuous
 62
     7
  0
ENDBLK
  5
B6C2
330
B6BC
100
AcDbEntity
  8
0
100
AcDbBlockEnd
  0
BLOCK
  5
B6C4
330
B6C3
100
AcDbEntity
  8
0
100
AcDbBlockBegin
  2
KOZU0030
 70
     0
 10
0.0
 20
0.0
 30
0.0
  3
KOZU0030
  1

  0
POLYLINE
  5
B6C5
330
B6C3
100
AcDbEntity
  8
0
  6
Continuous
 62
     7
100
AcDb2dPolyline
 66
     1
 10
0.0
 20
0.0
 30
0.0
 70
     1
 40
0.4000000100000002
 41
0.4000000100000002
  0
VERTEX
  5
B6C6
330
B6C5
100
AcDbEntity
  8
0
  6
Continuous
 62
     7
100
AcDbVertex
100
AcDb2dVertex
 10
-0.2
 20
0.0
 30
0.0
 42
1.0
  0
VERTEX
  5
B6C7
330
B6C5
100
AcDbEntity
  8
0
  6
Continuous
 62
     7
100
AcDbVertex
100
AcDb2dVertex
 10
0.2
 20
0.0
 30
0.0
 42
1.0
  0
SEQEND
  5
B6C8
330
B6C5
100
AcDbEntity
  8
0
  6
Continuous
 62
     7
  0
ENDBLK
  5
B6C9
330
B6C3
100
AcDbEntity
  8
0
100
AcDbBlockEnd
  0
BLOCK
  5
B6CB
330
B6CA
100
AcDbEntity
  8
0
100
AcDbBlockBegin
  2
KOZU0031
 70
     0
 10
0.0
 20
0.0
 30
0.0
  3
KOZU0031
  1

  0
POLYLINE
  5
B6CC
330
B6CA
100
AcDbEntity
  8
0
  6
Continuous
 62
     7
100
AcDb2dPolyline
 66
     1
 10
0.0
 20
0.0
 30
0.0
 70
     1
 40
0.4000000100000002
 41
0.4000000100000002
  0
VERTEX
  5
B6CD
330
B6CC
100
AcDbEntity
  8
0
  6
Continuous
 62
     7
100
AcDbVertex
100
AcDb2dVertex
 10
-0.2
 20
0.0
 30
0.0
 42
1.0
  0
VERTEX
  5
B6CE
330
B6CC
100
AcDbEntity
  8
0
  6
Continuous
 62
     7
100
AcDbVertex
100
AcDb2dVertex
 10
0.2
 20
0.0
 30
0.0
 42
1.0
  0
SEQEND
  5
B6CF
330
B6CC
100
AcDbEntity
  8
0
  6
Continuous
 62
     7
  0
ENDBLK
  5
B6D0
330
B6CA
100
AcDbEntity
  8
0
100
AcDbBlockEnd
  0
BLOCK
  5
B9CB
330
B9B5
100
AcDbEntity
  8
0
100
AcDbBlockBegin
  2
SYS図枠A3(AIS2008)
 70
     0
 10
0.0
 20
0.0
 30
0.0
  3
SYS図枠A3(AIS2008)
  1

  0
TEXT
  5
B9B6
330
B9B5
100
AcDbEntity
  8
AM_6
 60
     1
100
AcDbText
 10
408.4999999999998
 20
8.5
 30
0.0
 40
2.5
  1
!GENTITLE-INSERT
100
AcDbText
  0
TEXT
  5
B9B7
330
B9B5
100
AcDbEntity
  8
AM_6
 60
     1
100
AcDbText
 10
0.0
 20
0.0
 30
0.0
 40
2.5
  1
!GENTITLE-LL
100
AcDbText
  0
TEXT
  5
B9B8
330
B9B5
100
AcDbEntity
  8
AM_6
 60
     1
100
AcDbText
 10
420.0
 20
297.0
 30
0.0
 40
2.5
  1
!GENTITLE-RU
100
AcDbText
  0
TEXT
  5
B9B9
330
B9B5
100
AcDbEntity
  8
AM_6
 60
     1
100
AcDbText
 10
420.0
 20
297.0
 30
0.0
 40
2.5
  1
!GENTITLE-MAX
100
AcDbText
  0
LINE
  5
B9BA
330
B9B5
100
AcDbEntity
  8
size
100
AcDbLine
 10
0.0
 20
0.0
 30
0.0
 11
420.0
 21
0.0
 31
0.0
1001
GENIUS_GENREC_14
1002
{
1000
PYDIR
1011
0.0000000000000178
1021
297.0
1031
0.0
1002
}
1002
{
1000
PXDIR
1011
420.0
1021
0.0
1031
0.0
1002
}
1002
{
1000
PORI
1011
0.0
1021
0.0
1031
0.0
1002
}
1002
{
1000
PINS
1011
210.0
1021
148.4999999999999
1031
0.0
1002
}
1002
{
1000
HVAL
1000
297
1002
}
1002
{
1000
H
1070
     2
1002
}
1002
{
1000
WVAL
1000
420
1002
}
1002
{
1000
W
1070
     2
1002
}
1002
{
1000
C
1070
     4
1002
}
1001
GENIUS_GENOBJ-N-REC_13
1002
{
1000
OWNER
1000
GEN
1002
}
1001
GENIUS_GENODEF_13
1002
{
1000
HIER
1070
     0
1002
}
1002
{
1000
MANEDIT
1070
     0
1002
}
1002
{
1000
NOSEL
1070
     0
1002
}
1002
{
1000
BEHIND
1070
     0
1002
}
1002
{
1000
OTHER
1070
     0
1002
}
1002
{
1000
REACTOR
1002
}
  0
LINE
  5
B9BB
330
B9B5
100
AcDbEntity
  8
size
100
AcDbLine
 10
420.0
 20
0.0
 30
0.0
 11
420.0
 21
297.0
 31
0.0
1001
GENIUS_GENREC_14
1002
{
1000
PYDIR
1011
0.0000000000000178
1021
297.0
1031
0.0
1002
}
1002
{
1000
PXDIR
1011
420.0
1021
0.0
1031
0.0
1002
}
1002
{
1000
PORI
1011
0.0
1021
0.0
1031
0.0
1002
}
1002
{
1000
PINS
1011
210.0
1021
148.4999999999999
1031
0.0
1002
}
1002
{
1000
HVAL
1000
297
1002
}
1002
{
1000
H
1070
     2
1002
}
1002
{
1000
WVAL
1000
420
1002
}
1002
{
1000
W
1070
     2
1002
}
1002
{
1000
C
1070
     4
1002
}
1001
GENIUS_GENOBJ-N-REC_13
1002
{
1000
OWNER
1000
GEN
1002
}
1001
GENIUS_GENODEF_13
1002
{
1000
HIER
1070
     0
1002
}
1002
{
1000
MANEDIT
1070
     0
1002
}
1002
{
1000
NOSEL
1070
     0
1002
}
1002
{
1000
BEHIND
1070
     0
1002
}
1002
{
1000
OTHER
1070
     0
1002
}
1002
{
1000
REACTOR
1002
}
  0
LINE
  5
B9BC
330
B9B5
100
AcDbEntity
  8
size
100
AcDbLine
 10
420.0
 20
297.0
 30
0.0
 11
0.0000000000000275
 21
297.0
 31
0.0
1001
GENIUS_GENREC_14
1002
{
1000
PYDIR
1011
0.0000000000000178
1021
297.0
1031
0.0
1002
}
1002
{
1000
PXDIR
1011
420.0
1021
0.0
1031
0.0
1002
}
1002
{
1000
PORI
1011
0.0
1021
0.0
1031
0.0
1002
}
1002
{
1000
PINS
1011
210.0
1021
148.4999999999999
1031
0.0
1002
}
1002
{
1000
HVAL
1000
297
1002
}
1002
{
1000
H
1070
     2
1002
}
1002
{
1000
WVAL
1000
420
1002
}
1002
{
1000
W
1070
     2
1002
}
1002
{
1000
C
1070
     4
1002
}
1001
GENIUS_GENOBJ-N-REC_13
1002
{
1000
OWNER
1000
GEN
1002
}
1001
GENIUS_GENODEF_13
1002
{
1000
HIER
1070
     0
1002
}
1002
{
1000
MANEDIT
1070
     0
1002
}
1002
{
1000
NOSEL
1070
     0
1002
}
1002
{
1000
BEHIND
1070
     0
1002
}
1002
{
1000
OTHER
1070
     0
1002
}
1002
{
1000
REACTOR
1002
}
  0
LINE
  5
B9BD
330
B9B5
100
AcDbEntity
  8
size
100
AcDbLine
 10
0.0000000000000275
 20
297.0
 30
0.0
 11
0.0
 21
0.0
 31
0.0
1001
GENIUS_GENREC_14
1002
{
1000
PYDIR
1011
0.0000000000000178
1021
297.0
1031
0.0
1002
}
1002
{
1000
PXDIR
1011
420.0
1021
0.0
1031
0.0
1002
}
1002
{
1000
PORI
1011
0.0
1021
0.0
1031
0.0
1002
}
1002
{
1000
PINS
1011
210.0
1021
148.4999999999999
1031
0.0
1002
}
1002
{
1000
HVAL
1000
297
1002
}
1002
{
1000
H
1070
     2
1002
}
1002
{
1000
WVAL
1000
420
1002
}
1002
{
1000
W
1070
     2
1002
}
1002
{
1000
C
1070
     4
1002
}
1001
GENIUS_GENOBJ-N-REC_13
1002
{
1000
OWNER
1000
GEN
1002
}
1001
GENIUS_GENODEF_13
1002
{
1000
HIER
1070
     0
1002
}
1002
{
1000
MANEDIT
1070
     0
1002
}
1002
{
1000
NOSEL
1070
     0
1002
}
1002
{
1000
BEHIND
1070
     0
1002
}
1002
{
1000
OTHER
1070
     0
1002
}
1002
{
1000
REACTOR
1002
}
  0
LINE
  5
B9BE
330
B9B5
100
AcDbEntity
  8
waku
100
AcDbLine
 10
408.4999999999998
 20
8.5
 30
0.0
 11
408.4999999999998
 21
288.5
 31
0.0
1001
GENIUS_GENREC_14
1002
{
1000
PYDIR
1011
0.0000000000000178
1021
297.0
1031
0.0
1002
}
1002
{
1000
PXDIR
1011
420.0
1021
0.0
1031
0.0
1002
}
1002
{
1000
PORI
1011
0.0
1021
0.0
1031
0.0
1002
}
1002
{
1000
PINS
1011
210.0
1021
148.4999999999999
1031
0.0
1002
}
1002
{
1000
HVAL
1000
297
1002
}
1002
{
1000
H
1070
     2
1002
}
1002
{
1000
WVAL
1000
420
1002
}
1002
{
1000
W
1070
     2
1002
}
1002
{
1000
C
1070
     4
1002
}
1001
GENIUS_GENOBJ-N-REC_13
1002
{
1000
OWNER
1000
GEN
1002
}
1001
GENIUS_GENODEF_13
1002
{
1000
HIER
1070
     0
1002
}
1002
{
1000
MANEDIT
1070
     0
1002
}
1002
{
1000
NOSEL
1070
     0
1002
}
1002
{
1000
BEHIND
1070
     0
1002
}
1002
{
1000
OTHER
1070
     0
1002
}
1002
{
1000
REACTOR
1002
}
  0
LINE
  5
B9BF
330
B9B5
100
AcDbEntity
  8
waku
100
AcDbLine
 10
11.50000000000002
 20
288.5
 30
0.0
 11
11.5
 21
8.5
 31
0.0
1001
GENIUS_GENREC_14
1002
{
1000
PYDIR
1011
0.0000000000000178
1021
297.0
1031
0.0
1002
}
1002
{
1000
PXDIR
1011
420.0
1021
0.0
1031
0.0
1002
}
1002
{
1000
PORI
1011
0.0
1021
0.0
1031
0.0
1002
}
1002
{
1000
PINS
1011
210.0
1021
148.4999999999999
1031
0.0
1002
}
1002
{
1000
HVAL
1000
297
1002
}
1002
{
1000
H
1070
     2
1002
}
1002
{
1000
WVAL
1000
420
1002
}
1002
{
1000
W
1070
     2
1002
}
1002
{
1000
C
1070
     4
1002
}
1001
GENIUS_GENOBJ-N-REC_13
1002
{
1000
OWNER
1000
GEN
1002
}
1001
GENIUS_GENODEF_13
1002
{
1000
HIER
1070
     0
1002
}
1002
{
1000
MANEDIT
1070
     0
1002
}
1002
{
1000
NOSEL
1070
     0
1002
}
1002
{
1000
BEHIND
1070
     0
1002
}
1002
{
1000
OTHER
1070
     0
1002
}
1002
{
1000
REACTOR
1002
}
  0
LINE
  5
B9C0
330
B9B5
100
AcDbEntity
  8
waku
100
AcDbLine
 10
408.4999999999998
 20
288.5
 30
0.0
 11
11.50000000000002
 21
288.5
 31
0.0
1001
GENIUS_GENREC_14
1002
{
1000
PYDIR
1011
0.0000000000000178
1021
297.0
1031
0.0
1002
}
1002
{
1000
PXDIR
1011
420.0
1021
0.0
1031
0.0
1002
}
1002
{
1000
PORI
1011
0.0
1021
0.0
1031
0.0
1002
}
1002
{
1000
PINS
1011
210.0
1021
148.4999999999999
1031
0.0
1002
}
1002
{
1000
HVAL
1000
297
1002
}
1002
{
1000
H
1070
     2
1002
}
1002
{
1000
WVAL
1000
420
1002
}
1002
{
1000
W
1070
     2
1002
}
1002
{
1000
C
1070
     4
1002
}
1001
GENIUS_GENOBJ-N-REC_13
1002
{
1000
OWNER
1000
GEN
1002
}
1001
GENIUS_GENODEF_13
1002
{
1000
HIER
1070
     0
1002
}
1002
{
1000
MANEDIT
1070
     0
1002
}
1002
{
1000
NOSEL
1070
     0
1002
}
1002
{
1000
BEHIND
1070
     0
1002
}
1002
{
1000
OTHER
1070
     0
1002
}
1002
{
1000
REACTOR
1002
}
  0
TEXT
  5
B9C1
330
B9B5
100
AcDbEntity
  8
AM_6
 60
     1
100
AcDbText
 10
0.0
 20
0.0
 30
0.0
 40
2.5
  1
!GENTITLE-LL
100
AcDbText
  0
TEXT
  5
B9C2
330
B9B5
100
AcDbEntity
  8
AM_6
 60
     1
100
AcDbText
 10
408.4999999999998
 20
288.5
 30
0.0
 40
2.5
  1
!GENTITLE-RU
100
AcDbText
  0
TEXT
  5
B9C3
330
B9B5
100
AcDbEntity
  8
AM_6
 60
     1
100
AcDbText
 10
420.0
 20
297.0
 30
0.0
 40
2.5
  1
!GENTITLE-MAX
100
AcDbText
  0
TEXT
  5
B9C4
330
B9B5
100
AcDbEntity
  8
AM_6
 60
     1
100
AcDbText
 10
408.4999999999998
 20
8.5
 30
0.0
 40
2.5
  1
!GENTITLE-INSERT
100
AcDbText
  0
LINE
  5
B9C5
330
B9B5
100
AcDbEntity
  8
waku
100
AcDbLine
 10
11.5
 20
8.5
 30
0.0
 11
408.4999999999998
 21
8.5
 31
0.0
  0
LINE
  5
B9C6
330
B9B5
100
AcDbEntity
  8
waku
100
AcDbLine
 10
246.499999999999
 20
33.49999999999332
 30
0.0
 11
408.4999999999998
 21
33.49999999999981
 31
0.0
  0
LINE
  5
B9C7
330
B9B5
100
AcDbEntity
  8
waku
100
AcDbLine
 10
246.4999999999983
 20
8.5
 30
0.0
 11
246.4999999999974
 21
33.49999999999332
 31
0.0
  0
MTEXT
  5
B9C8
330
B9B5
100
AcDbEntity
  8
AM_6
100
AcDbMText
 10
316.9999999999996
 20
25.74999999999989
 30
0.0
 40
4.0
 41
9.015095283510616
 71
     5
 72
     5
  1
A3
 73
     1
 44
1.0
1001
ACAD
1000
MTEXTBEGIN
1070
    73
1070
     1
1070
    44
1040
1.0
1070
    74
1070
     0
1000
MTEXTEND
  0
ENDBLK
  5
B9CC
330
B9B5
100
AcDbEntity
  8
0
100
AcDbBlockEnd
  0
BLOCK
  5
BA3A
330
B9DF
100
AcDbEntity
  8
0
100
AcDbBlockBegin
  2
SYS表題(AIS2008)
 70
     2
 10
0.0
 20
0.0
 30
0.0
  3
SYS表題(AIS2008)
  1

  0
LINE
  5
B9E0
330
B9DF
100
AcDbEntity
  8
waku
  6
Continuous
370
    40
100
AcDbLine
 10
-162.0
 20
0.0
 30
0.0
 11
0.0000000000004547
 21
0.0
 31
0.0
  0
LINE
  5
B9E1
330
B9DF
100
AcDbEntity
  8
hyosen2
  6
Continuous
370
    40
100
AcDbLine
 10
-115.0000000000004
 20
25.0
 30
0.0
 11
-115.0000000000004
 21
0.0
 31
0.0
  0
LINE
  5
B9E2
330
B9DF
100
AcDbEntity
  8
waku
  6
Continuous
370
    40
100
AcDbLine
 10
0.0
 20
25.0
 30
0.0
 11
0.0
 21
0.0
 31
0.0
  0
LINE
  5
B9E3
330
B9DF
100
AcDbEntity
  8
waku
  6
Continuous
370
    40
100
AcDbLine
 10
-162.0000000000007
 20
24.99999999999977
 30
0.0
 11
-162.0000000000013
 21
-0.0000000000002274
 31
0.0
  0
LINE
  5
B9E4
330
B9DF
100
AcDbEntity
  8
hyosen2
  6
Continuous
370
    40
100
AcDbLine
 10
-115.0000000000004
 20
14.0
 30
0.0
 11
-68.00000000000022
 21
14.0
 31
0.0
  0
LINE
  5
B9E5
330
B9DF
100
AcDbEntity
  8
hyosen2
  6
Continuous
100
AcDbLine
 10
-62.99999999999977
 20
25.0
 30
0.0
 11
-62.99999999999977
 21
0.0
 31
0.0
  0
TEXT
  5
B9E6
330
B9DF
100
AcDbEntity
  8
hyomoji
  6
Continuous
100
AcDbText
 10
-66.38199999999978
 20
3.88682935783594
 30
0.0
 40
2.7
  1
図
 41
0.7
 72
     4
 11
-65.49999999999977
 21
5.14682935783594
 31
0.0
100
AcDbText
  0
TEXT
  5
B9E7
330
B9DF
100
AcDbEntity
  8
hyomoji
  6
Continuous
100
AcDbText
 10
-66.38199999999978
 20
0.6847767415209991
 30
0.0
 40
2.7
  1
番
 41
0.7
 72
     4
 11
-65.49999999999977
 21
2.034776741521
 31
0.0
100
AcDbText
  0
LINE
  5
B9E8
330
B9DF
100
AcDbEntity
  8
hyosen2
  6
Continuous
100
AcDbLine
 10
-16.0
 20
6.935723472010067
 30
0.0
 11
-16.0
 21
-0.0642765279899322
 31
0.0
  0
LINE
  5
B9E9
330
B9DF
100
AcDbEntity
  8
hyosen1
  6
Continuous
370
    40
100
AcDbLine
 10
-68.0
 20
7.0
 30
0.0
 11
0.0
 21
7.0
 31
0.0
  0
LINE
  5
B9EA
330
B9DF
100
AcDbEntity
  8
hyosen2
  6
Continuous
370
    40
100
AcDbLine
 10
-68.0
 20
25.0
 30
0.0
 11
-68.0
 21
0.0
 31
0.0
  0
LINE
  5
B9EB
330
B9DF
100
AcDbEntity
  8
hyosen2
  6
Continuous
100
AcDbLine
 10
-11.0
 20
6.935723472010067
 30
0.0
 11
-11.0
 21
-0.0642765279899322
 31
0.0
  0
TEXT
  5
B9EC
330
B9DF
100
AcDbEntity
  8
hyomoji
  6
Continuous
100
AcDbText
 10
-15.46193093476272
 20
4.000214592721325
 30
0.0
 40
2.5
  1
図面
 41
0.7
 72
     4
 11
-13.53693093476272
 21
5.166881259387992
 31
0.0
100
AcDbText
  0
TEXT
  5
B9ED
330
B9DF
100
AcDbEntity
  8
hyomoji
  6
Continuous
100
AcDbText
 10
-15.40359760142939
 20
0.6302759610207433
 30
0.0
 40
2.5
  1
枚数
 41
0.7
 72
     4
 11
-13.53693093476272
 21
1.880275961020743
 31
0.0
100
AcDbText
  0
LINE
  5
B9EE
330
B9DF
100
AcDbEntity
  8
waku
  6
Continuous
370
    40
100
AcDbLine
 10
-162.0000000000007
 20
24.99999999999956
 30
0.0
 11
0.0
 21
25.00000000000114
 31
0.0
  0
LINE
  5
B9EF
330
B9DF
100
AcDbEntity
  8
hyosen2
  6
Continuous
370
    40
100
AcDbLine
 10
-162.0000000000002
 20
14.0
 30
0.0
 11
-115.0000000000004
 21
14.0
 31
0.0
  0
LINE
  5
B9F0
330
B9DF
100
AcDbEntity
  8
hyosen2
  6
Continuous
100
AcDbLine
 10
-150.0000000000002
 20
14.0
 30
0.0
 11
-150.0000000000002
 21
0.0
 31
0.0
  0
TEXT
  5
B9F1
330
B9DF
100
AcDbEntity
  8
hyomoji
  6
Continuous
100
AcDbText
 10
-158.2400000000002
 20
10.25
 30
0.0
 40
3.0
  1
承認
 41
0.7
 72
     4
 11
-156.0000000000002
 21
11.75
 31
0.0
100
AcDbText
  0
LINE
  5
B9F2
330
B9DF
100
AcDbEntity
  8
hyosen2
  6
Continuous
100
AcDbLine
 10
-127.0000000000002
 20
14.0
 30
0.0
 11
-127.0000000000002
 21
0.0
 31
0.0
  0
TEXT
  5
B9F3
330
B9DF
100
AcDbEntity
  8
hyomoji
  6
Continuous
100
AcDbText
 10
-140.7400000000002
 20
10.25
 30
0.0
 40
3.0
  1
確認
 41
0.7
 72
     4
 11
-138.5000000000002
 21
11.75
 31
0.0
100
AcDbText
  0
TEXT
  5
B9F4
330
B9DF
100
AcDbEntity
  8
hyomoji
  6
Continuous
100
AcDbText
 10
-123.5436856926269
 20
10.25
 30
0.0
 40
3.0
  1
作成
 41
0.7
 72
     4
 11
-121.3036856926269
 21
11.75
 31
0.0
100
AcDbText
  0
LINE
  5
B9F5
330
B9DF
100
AcDbEntity
  8
hyosen2
  6
Continuous
100
AcDbLine
 10
-162.0000000000007
 20
9.5
 30
0.0
 11
-115.0000000000009
 21
9.5
 31
0.0
  0
LINE
  5
B9F6
330
B9DF
100
AcDbEntity
  8
hyosen1
  6
Continuous
370
    40
100
AcDbLine
 10
-68.0
 20
14.0
 30
0.0
 11
0.0
 21
14.0
 31
0.0
  0
TEXT
  5
B9F7
330
B9DF
100
AcDbEntity
  8
hyomoji
  6
Continuous
100
AcDbText
 10
-66.38200000000001
 20
10.83643685350829
 30
0.0
 40
2.7
  1
品
 41
0.7
 72
     4
 11
-65.5
 21
12.09643685350829
 31
0.0
100
AcDbText
  0
TEXT
  5
B9F8
330
B9DF
100
AcDbEntity
  8
hyomoji
  6
Continuous
100
AcDbText
 10
-66.38200000000001
 20
7.751387192220041
 30
0.0
 40
2.7
  1
番
 41
0.7
 72
     4
 11
-65.5
 21
9.101387192220043
 31
0.0
100
AcDbText
  0
LINE
  5
B9F9
330
B9DF
100
AcDbEntity
  8
hyosen2
  6
Continuous
100
AcDbLine
 10
-63.0
 20
18.0
 30
0.0
 11
0.0000000000004547
 21
18.0
 31
0.0
  0
TEXT
  5
B9FA
330
B9DF
100
AcDbEntity
  8
hyomoji
  6
Continuous
100
AcDbText
 10
-66.38200000000001
 20
20.15681154346952
 30
0.0
 40
2.7
  1
品
 41
0.7
 72
     4
 11
-65.5
 21
21.41681154346952
 31
0.0
100
AcDbText
  0
TEXT
  5
B9FB
330
B9DF
100
AcDbEntity
  8
hyomoji
  6
Continuous
100
AcDbText
 10
-66.319
 20
16.7971877465483
 30
0.0
 40
2.7
  1
名
 41
0.7
 72
     4
 11
-65.5
 21
18.1471877465483
 31
0.0
100
AcDbText
  0
LWPOLYLINE
  5
B9FC
330
B9DF
100
AcDbEntity
  8
hyomoji
  6
Continuous
370
     9
100
AcDbPolyline
 90
        8
 70
   129
 43
0.0
 10
-94.71664269381063
 20
7.516722793065809
 42
-0.6021429256477857
 10
-94.74876257508388
 20
7.577406929225617
 10
-94.3643184158509
 20
8.142763822137112
 42
-0.2483280785897051
 10
-94.30007865330392
 20
8.176765682863559
 10
-93.49406859106215
 20
8.176765682863559
 42
-0.2483286500869998
 10
-93.42982873445723
 20
8.142763683815472
 10
-93.04538640247892
 20
7.57740686006491
 42
-0.6021421921708056
 10
-93.07750633078173
 20
7.516722793065809
  0
LWPOLYLINE
  5
B9FD
330
B9DF
100
AcDbEntity
  8
hyomoji
  6
Continuous
370
     9
100
AcDbPolyline
 90
       12
 70
   129
 43
0.0
 10
-95.10066352813693
 20
7.206114336880772
 10
-95.10066352813693
 20
7.381138154179552
 42
0.4422835312456968
 10
-95.14318581001337
 20
7.419805994050647
 10
-95.48861490902391
 20
7.386933916044881
 10
-94.80150443173149
 20
8.397389580015442
 42
-0.251104977230494
 10
-94.64166799998499
 20
8.487374139048597
 10
-93.16046721299699
 20
8.487374139048597
 42
-0.2453004937928962
 10
-92.99950197713904
 20
8.407546927133807
 10
-92.30556057799777
 20
7.387044538439794
 10
-92.650906417339
 20
7.419908976284203
 42
0.4422837740584967
 10
-92.69342873062667
 20
7.381241139402161
 10
-92.69342873062667
 20
7.206114336880772
  0
LWPOLYLINE
  5
B9FE
330
B9DF
100
AcDbEntity
  8
hyomoji
  6
Continuous
370
     9
100
AcDbPolyline
 90
       18
 70
   129
 43
0.0
 10
-93.52253906807527
 20
6.507245342302438
 10
-92.81460158919413
 20
6.507245342302438
 10
-92.46227902959141
 20
5.862752078807262
 42
-0.56960330458711
 10
-92.63269060855964
 20
5.575381194890269
 10
-95.16142443937722
 20
5.575381194890269
 42
-0.5696037030708911
 10
-95.33183590623185
 20
5.862752283892632
 10
-94.92603195720221
 20
6.605075352594667
 42
0.569603703070901
 10
-94.9601142505735
 20
6.66254957039473
 10
-95.48894367882551
 20
6.66254957039473
 10
-95.48894367882551
 20
6.973158026579993
 10
-92.30514857993808
 20
6.973158026579993
 10
-92.30514857993808
 20
6.66254957039473
 10
-94.16361950950046
 20
6.66254957039473
 42
0.2742066828570859
 10
-94.1977017820227
 20
6.642338759809946
 10
-94.5797550161353
 20
5.943463907013665
 42
0.5696040735836391
 10
-94.54567274361307
 20
5.885989651075306
 10
-93.24842050934783
 20
5.885989651075306
 42
0.5696036141370885
 10
-93.21433821097278
 20
5.943463859721531
  0
LWPOLYLINE
  5
B9FF
330
B9DF
100
AcDbEntity
  8
hyomoji
  6
Continuous
370
     9
100
AcDbPolyline
 90
       23
 70
   129
 43
0.0
 10
-113.7268241398469
 20
6.250351779631046
 42
0.0223985860000053
 10
-113.5470175960388
 20
6.069365314279821
 42
0.0223985860000067
 10
-113.3298184279569
 20
5.895937796930183
 42
0.0223985860000024
 10
-113.0769694554942
 20
5.731459981301894
 42
0.0220669162099173
 10
-112.7948354676327
 20
5.579344997231372
 42
0.4330144820686968
 10
-112.7627586028536
 20
5.591673044677007
 10
-112.5949318145867
 20
6.003944023309485
 42
0.1957402929298021
 10
-112.5949313315429
 20
6.414003627072816
 10
-113.0029292479371
 20
7.416268145310142
 42
-0.1957419841521856
 10
-113.0029276888965
 20
7.767750618383161
 10
-112.7323557985662
 20
8.432405278217402
 42
0.6213425724569266
 10
-112.7650957515457
 20
8.459104097606996
 42
0.0223985860000949
 10
-113.0542784116799
 20
8.305810639210902
 42
0.0223985859999093
 10
-113.3100201977245
 20
8.142141767095154
 42
0.0223985859999842
 10
-113.5302700965744
 20
7.969410104177995
 42
0.0223985860000033
 10
-113.7132623648729
 20
7.789000736989009
 42
0.0223985859999945
 10
-113.8575286275093
 20
7.602360390702187
 42
0.0223985860000046
 10
-113.9619125231659
 20
7.410985776373762
 42
0.0223985860000012
 10
-114.0255773454698
 20
7.216411492448287
 42
0.0223985859999998
 10
-114.0480117738614
 20
7.020197926266972
 42
0.0223985859999993
 10
-114.029036877982
 20
6.82391845513166
 42
0.0223985859999987
 10
-113.968803570624
 20
6.629147156783573
 42
0.0223985859999964
 10
-113.8677964283099
 20
6.437445819441562
 42
0.0223985860000002
  0
LWPOLYLINE
  5
BA00
330
B9DF
100
AcDbEntity
  8
hyomoji
  6
Continuous
370
     9
100
AcDbPolyline
 90
       23
 70
   129
 43
0.0
 10
-103.8091594853931
 20
6.606475788939405
 42
-0.0225609849999951
 10
-103.9158153508642
 20
6.413865345290559
 42
-0.0225609850000035
 10
-104.0628916479152
 20
6.226121043267085
 42
-0.022560985000006
 10
-104.2491918991691
 20
6.044770222218629
 42
-0.0225609849999973
 10
-104.4732006090657
 20
5.87128838899889
 42
-0.0225609849999909
 10
-104.733094725593
 20
5.707086928443003
 42
-0.0225466705714752
 10
-105.0265696694339
 20
5.553590591288183
 42
-0.6820149919169938
 10
-105.0583583690729
 20
5.583821782525318
 10
-104.813222817605
 20
6.185992327983512
 42
0.1957433897416816
 10
-104.8132220528773
 20
6.596057940510036
 10
-105.2092974689358
 20
7.569019615279557
 42
-0.1957432007478236
 10
-105.2092968534884
 20
7.979084861101
 10
-105.0215968014395
 20
8.440167220227749
 42
-0.4317106519725617
 10
-104.9896131621474
 20
8.452539934886317
 42
-0.0225711483270752
 10
-104.6997818408374
 20
8.297536988598267
 42
-0.0225609850000041
 10
-104.4441260177748
 20
8.132138986989048
 42
-0.022560984999992
 10
-104.2245931138832
 20
7.957627826638144
 42
-0.0225609849999975
 10
-104.0429679754031
 20
7.775423170297017
 42
-0.0225609850000032
 10
-103.9007291656501
 20
7.5870074018585
 42
-0.0225609849999971
 10
-103.7990336827058
 20
7.393913464184605
 42
-0.0225609850000056
 10
-103.7387080447365
 20
7.197712251202119
 42
-0.0225609849999966
 10
-103.7202444694171
 20
7.0
 42
-0.0225609849999982
 10
-103.7437919592537
 20
6.802385300864671
 42
-0.0225609850000013
  0
LWPOLYLINE
  5
BA01
330
B9DF
100
AcDbEntity
  8
hyomoji
  6
Continuous
370
     9
100
AcDbPolyline
 90
       46
 70
   129
 43
0.0
 10
-110.519768731164
 20
4.93123368852366
 42
0.0067740668000082
 10
-110.3864681614013
 20
4.913172228938265
 42
0.0067740667999966
 10
-110.2520640816365
 20
4.896651608074306
 42
0.00677406679999
 10
-110.1166558268724
 20
4.881683988101485
 42
0.0067740668000013
 10
-109.9803427321119
 20
4.868280257664763
 42
0.0067740668000002
 10
-109.8432247691212
 20
4.856450350263911
 42
0.0067636405007582
 10
-109.705614869343
 20
4.846215763771623
 42
0.3216815158956166
 10
-109.6823639763015
 20
4.860849479223816
 10
-109.0305054224016
 20
6.462145869264986
 42
0.6036079430413217
 10
-109.057350599905
 20
6.494047360847615
 42
-0.0968770041122301
 10
-110.2622835208153
 20
6.467861583611236
 42
-0.4787358622778684
 10
-110.8492829567522
 20
7.526226966682088
 10
-110.2098189151504
 20
9.097085087812047
 42
0.5685357036715338
 10
-110.2342375268879
 20
9.129384786912851
 42
0.0037682570573848
 10
-110.3092103627439
 20
9.120496988302877
 42
0.003796761400007
 10
-110.3844216056329
 20
9.111059971979782
 42
0.0037967614000019
 10
-110.4592877230613
 20
9.101138888545392
 42
0.0037967614000093
 10
-110.5337902489084
 20
9.090735902993856
 42
0.0037967613999978
 10
-110.6079119905773
 20
9.079853435023323
 42
0.0037967614000032
 10
-110.6816363922337
 20
9.068494095361755
 42
0.0037967614000015
 10
-110.754946261281
 20
9.056660431060207
 42
0.0037967613999987
 10
-110.827825041885
 20
9.044355180199318
 42
0.0037967613999957
 10
-110.9002549046868
 20
9.03158120821172
 42
0.0037967613999885
 10
-110.972219930615
 20
9.018341444206273
 42
0.0037967613999968
 10
-111.0437035638358
 20
9.004638880968057
 42
0.003796761399993
 10
-111.1146886117533
 20
8.990476765988205
 42
0.0037967614000086
 10
-111.1851597920581
 20
8.975858346757147
 42
0.0037967614000003
 10
-111.255099912154
 20
8.96078693444133
 42
0.0037967613999995
 10
-111.3244930529702
 20
8.945266094912993
 42
0.0038055234898925
 10
-111.3934824936702
 20
8.929261274685359
 42
0.2417074229057139
 10
-111.4098051015228
 20
8.915234771530322
 10
-111.8650382388573
 20
7.796940065814168
 42
0.1957404060663561
 10
-111.865038329053
 20
7.386880242530422
 10
-111.4689880787043
 20
6.413968958653639
 42
-0.1957405476044069
 10
-111.4689882806954
 20
6.00390886074274
 10
-111.7862250935463
 20
5.22460773953412
 42
0.4443455524912626
 10
-111.7710237743845
 20
5.19311367739874
 42
0.0067708198256604
 10
-111.6540216434309
 20
5.1605708935449
 42
0.0067740668000073
 10
-111.5349304364506
 20
5.129370851569773
 42
0.0067740668000071
 10
-111.4138932822307
 20
5.099552967015596
 42
0.0067740668000066
 10
-111.2909986908046
 20
5.07113908084807
 42
0.0067740667999989
 10
-111.1663370824974
 20
5.044150015212153
 42
0.0067740668000009
 10
-111.0400001511566
 20
5.018605637108294
 42
0.0067740668000062
 10
-110.9120802273951
 20
4.994524667364429
 42
0.0067740668000053
 10
-110.7826715521128
 20
4.971924807987306
 42
0.0067740668000071
 10
-110.6518690029729
 20
4.950822678486701
 42
0.0067740668000022
  0
LWPOLYLINE
  5
BA02
330
B9DF
100
AcDbEntity
  8
hyomoji
  6
Continuous
370
     9
100
AcDbPolyline
 90
       42
 70
   129
 43
0.0
 10
-107.0325217536542
 20
4.964147322978988
 42
0.0068021948000069
 10
-106.9020636932109
 20
4.986304122771797
 42
0.0068021948000014
 10
-106.7730727343519
 20
5.009960371701253
 42
0.0068021947999925
 10
-106.6456443915033
 20
5.035098622465056
 42
0.0068021948000045
 10
-106.5198729055644
 20
5.061700281589081
 42
0.0067876847517197
 10
-106.3961149632876
 20
5.0896821989827
 42
0.2416094440683337
 10
-106.3798008370786
 20
5.10370666303288
 10
-105.9412231671285
 20
6.181086424920977
 42
0.1957413290603471
 10
-105.941223786604
 20
6.601231521413183
 10
-106.3352129692118
 20
7.569070096907807
 42
-0.1957413474957244
 10
-106.3352135592583
 20
7.979131746854137
 10
-105.9993061639691
 20
8.804298600408856
 42
0.4460668776922764
 10
-106.0146375343697
 20
8.835830324484732
 42
0.0028283786038634
 10
-106.0633916340969
 20
8.849503076646668
 42
0.0028494113000101
 10
-106.1128738376581
 20
8.863040909337769
 42
0.0028494112999968
 10
-106.1627164489871
 20
8.876338300380666
 42
0.0028494113000006
 10
-106.2129124636919
 20
8.889393466838782
 42
0.0028494113000024
 10
-106.2634555141451
 20
8.902204753128671
 42
0.002849411299989
 10
-106.3143385959552
 20
8.914770503667796
 42
0.0028494113000037
 10
-106.3655559782564
 20
8.927089062872255
 42
0.0028494112999894
 10
-106.4171000198944
 20
8.939158838834828
 42
0.0028494113000082
 10
-106.4689649900042
 20
8.950978239648975
 42
0.0028494112999955
 10
-106.5211432474314
 20
8.962545800759244
 42
0.0028494113000056
 10
-106.5736290613101
 20
8.973859930259095
 42
0.0028494113000083
 10
-106.6264147904874
 20
8.984919290946661
 42
0.0028494112999919
 10
-106.6794934305705
 20
8.9957222909145
 42
0.0028494112999998
 10
-106.7328586139322
 20
9.006267592961194
 42
0.0028494113000083
 10
-106.7865033361811
 20
9.016553859884425
 42
0.0028485312981507
 10
-106.8404039239449
 20
9.026576689379226
 42
0.3543993923517316
 10
-106.8664005303705
 20
9.012272432784355
 10
-108.5584562824822
 20
4.855704245478136
 42
0.5392714590992975
 10
-108.5361428249079
 20
4.823266086778858
 42
0.0068019099602671
 10
-108.3961118072659
 20
4.828097465976724
 42
0.0068021947999971
 10
-108.2564359679456
 20
4.834545517526747
 42
0.0068021947999996
 10
-108.1172249654992
 20
4.842605470531224
 42
0.0068021948000011
 10
-107.9785813187429
 20
4.852271275742849
 42
0.0068021947999982
 10
-107.8406081832579
 20
4.863535801417583
 42
0.0068021948000014
 10
-107.7034080778608
 20
4.876390769638645
 42
0.0068021947999974
 10
-107.567080974318
 20
4.890826565286943
 42
0.0068021948000009
 10
-107.4317293914466
 20
4.906832554423771
 42
0.0068021948000053
 10
-107.2974533010122
 20
4.924396829583201
 42
0.0068021947999869
 10
-107.164350764493
 20
4.943506528156148
 42
0.006802194800004
  0
LWPOLYLINE
  5
BA03
330
B9DF
100
AcDbEntity
  8
hyomoji
  6
Continuous
370
     9
100
AcDbPolyline
 90
       23
 70
   129
 43
0.0
 10
-109.4231429740809
 20
6.882717884956717
 42
0.1173827961225227
 10
-108.8350126422351
 20
6.998518263554387
 42
0.1913082464585806
 10
-108.7953116152546
 20
7.039902503188159
 10
-107.9519330850698
 20
9.111683775962999
 42
0.5046897278906438
 10
-107.9716881113106
 20
9.144036257163859
 42
0.0053970181929799
 10
-108.0815331347714
 20
9.152514060678411
 42
0.0031368713999882
 10
-108.1455316208044
 20
9.156812146174617
 42
0.003136871399997
 10
-108.2096530020645
 20
9.160768799436027
 42
0.0031368714000045
 10
-108.2738858168229
 20
9.164383320022579
 42
0.0031368713999919
 10
-108.3382198768724
 20
9.167655262201831
 42
0.0031368714000049
 10
-108.402646267534
 20
9.170583989209715
 42
0.0031368713999963
 10
-108.4671535270758
 20
9.173169055312655
 42
0.0031368714000025
 10
-108.5317321040561
 20
9.175410142129068
 42
0.0031368714000093
 10
-108.5963718102691
 20
9.177306803925603
 42
0.003136871400002
 10
-108.6610624575091
 20
9.178858785996451
 42
0.0031368714000044
 10
-108.7257944943337
 20
9.18006583363649
 42
0.0031368714000004
 10
-108.7905564590121
 20
9.180927755817036
 42
0.0031368713999985
 10
-108.8553388001012
 20
9.181444361509647
 42
0.0031368713999931
 10
-108.9201313293958
 20
9.181615714389863
 42
0.0031368713999985
 10
-108.98492385869
 20
9.181441623429462
 42
0.0023783812883705
 10
-109.0340426873699
 20
9.181122365766439
 42
0.3019404427550624
 10
-109.0555989232341
 20
9.166446722909311
 10
-109.767645508102
 20
7.4172944292402
 42
0.5200087835236677
  0
LWPOLYLINE
  5
BA04
330
B9DF
100
AcDbEntity
  8
hyomoji
  6
Continuous
370
     9
100
AcDbPolyline
 90
       70
 70
   128
 43
0.0
 10
-99.76233953213478
 20
6.306771465494874
 42
0.8374115646471505
 10
-99.83752001083464
 20
6.292915739780709
 10
-99.83752001083464
 20
5.575381194890269
 10
-100.3810849683493
 20
5.575381194890269
 10
-100.3810849683493
 20
6.281787728428298
 42
0.8134131176983945
 10
-100.455548825774
 20
6.297275260672902
 10
-100.769415810897
 20
5.575381194890269
 10
-101.1576200999968
 20
5.575381194890269
 10
-100.5509443035839
 20
7.03589334323874
 42
0.534832613937013
 10
-100.5868152422815
 20
7.089636149892385
 10
-101.0680049636264
 20
7.089636149892385
 42
0.5537200791098316
 10
-101.1032359636654
 20
7.034043017295516
 10
-100.8856723246893
 20
6.639085554925031
 10
-101.2351669936095
 20
6.662385730247023
 10
-101.2869971928119
 20
6.778995892082321
 42
0.810044809672172
 10
-101.3905813946451
 20
6.757012486332768
 10
-101.3905813946451
 20
5.575381194890269
 10
-101.8953203747317
 20
5.575381194890269
 10
-101.8953203747317
 20
6.414624213681007
 42
0.8775035382925871
 10
-101.9416452787266
 20
6.420694930355465
 10
-102.0117741193614
 20
6.15771765363479
 10
-102.3225133761698
 20
6.118874928028161
 10
-101.909605046741
 20
7.507745460299247
 42
0.4860089347694501
 10
-101.9475909800195
 20
7.555548834169713
 10
-102.2447745479931
 20
7.555548834169713
 10
-102.2447745479931
 20
7.827331185574393
 10
-101.9339469658978
 20
7.827331185574393
 42
0.4143902720061034
 10
-101.8953203747317
 20
7.866380099852448
 10
-101.8953203747317
 20
8.487374139048597
 10
-101.3905813946451
 20
8.487374139048597
 10
-101.3905813946451
 20
7.866380099852448
 42
0.4174020605283751
 10
-101.3515560309561
 20
7.827331185574393
 10
-101.2543221953897
 20
7.827331185574393
 42
0.2351357873419996
 10
-101.1307401709759
 20
7.889680286716383
 10
-101.1187989158877
 20
7.905032989719074
 10
-101.1187989158877
 20
7.555548834169713
 10
-101.3250916272889
 20
7.555548834169713
 42
0.5903409348321764
 10
-101.3576144516721
 20
7.495842772770402
 10
-101.1859875423436
 20
7.184273741280093
 42
0.7474984379804729
 10
-101.1576255300783
 20
7.193389032087452
 10
-101.1576255300783
 20
7.361418564973063
 10
-100.4196995232653
 20
7.361418564973063
 42
0.4142994654112849
 10
-100.3810849683493
 20
7.400467415574667
 10
-100.3810849683493
 20
7.788727953967963
 42
0.410941645053916
 10
-100.4196995232653
 20
7.827331185574393
 10
-100.7912990946367
 20
7.827331185574393
 42
-0.3758657869825331
 10
-101.1576255300783
 20
8.09918460794438
 10
-101.1576255300783
 20
8.487374139048597
 10
-100.6528865499915
 20
8.487374139048597
 10
-100.6528865499915
 20
8.137956133917441
 42
0.4142135623730951
 10
-100.6140440167301
 20
8.099113600655527
 10
-100.4199275016105
 20
8.099113600655527
 42
0.4142135623730951
 10
-100.3810849683493
 20
8.137956133917441
 10
-100.3810849683493
 20
8.487374139048597
 10
-99.83752001083464
 20
8.487374139048597
 10
-99.83752001083464
 20
8.137956133917441
 42
0.4142135623730951
 10
-99.79867747757294
 20
8.099113600655527
 10
-99.13863140396074
 20
8.099113600655527
 10
-99.13863140396074
 20
7.827331185574393
 10
-99.79890545591866
 20
7.827331185574393
 42
0.4142994654112849
 10
-99.83752001083464
 20
7.78828233497279
 10
-99.83752001083464
 20
7.400021796579721
 42
0.414127664552564
 10
-99.798482610895
 20
7.361418564973063
 10
-99.13863140396074
 20
7.361418564973063
 10
-99.13863140396074
 20
7.089636149892385
 10
-99.63201946690425
 20
7.089636149892385
 42
0.5442124499672577
 10
-99.66712910962996
 20
7.034687810013566
 10
-99.06095619162487
 20
5.575381194890269
 10
-99.48806833688013
 20
5.575381194890269
 10
-99.76233928528543
 20
6.306771558063018
  0
LWPOLYLINE
  5
BA05
330
B9DF
100
AcDbEntity
  8
hyomoji
  6
Continuous
370
     9
100
AcDbPolyline
 90
       43
 70
   129
 43
0.0
 10
-97.74087392986144
 20
5.955563778585427
 42
0.4538928057970519
 10
-97.68002238129179
 20
5.900852078569414
 10
-96.92552713035276
 20
6.080493954769507
 10
-96.92552713035276
 20
5.76925577305974
 10
-98.04681412898071
 20
5.614595287471956
 10
-98.82802294777548
 20
5.575534718410835
 10
-98.82802294777548
 20
5.885989651075306
 10
-98.32330116028584
 20
5.885989651075306
 42
0.4142135623730951
 10
-98.28445862702416
 20
5.924832184336763
 10
-98.28445862702416
 20
7.051032918285727
 42
0.4109416450539177
 10
-98.32307318194011
 20
7.089636149892385
 10
-98.82802294777548
 20
7.089636149892385
 10
-98.82802294777548
 20
7.361418564973063
 10
-97.08909590725149
 20
7.361418564973063
 42
0.4890132124780574
 10
-97.01379679493015
 20
7.458208951288725
 10
-97.10002099772488
 20
7.798041312208852
 42
0.3431714260423211
 10
-97.13767055388577
 20
7.827331185574393
 10
-98.82802294777548
 20
7.827331185574393
 10
-98.82802294777548
 20
8.099113600655527
 10
-97.27627109140236
 20
8.099113600655527
 42
0.4890148091784922
 10
-97.20097207755614
 20
8.195904375080543
 10
-97.27492704572981
 20
8.487374139048597
 10
-96.73136039348309
 20
8.487374139048597
 10
-96.64027730647196
 20
8.128403185169643
 42
0.3431692821353876
 10
-96.60262782360156
 20
8.099113600655527
 10
-96.30432359000202
 20
8.099113600655527
 42
0.4142135623730951
 10
-96.22663852347887
 20
8.176798667178672
 10
-96.22663852347887
 20
8.487374139048597
 10
-95.72190018015522
 20
8.487374139048597
 10
-95.72190018015522
 20
8.105346657236623
 42
-0.3824524618302969
 10
-95.9651136815305
 20
7.827331185574393
 10
-96.51379435024182
 20
7.827331185574393
 42
0.4790978957378951
 10
-96.5519720678858
 20
7.780377008076584
 10
-96.07873821551972
 20
5.915279322624882
 42
0.3431699281256741
 10
-96.04108871056588
 20
5.885989651075306
 10
-95.72190018015522
 20
5.885989651075306
 10
-95.72190018015522
 20
5.575322530045922
 10
-96.34468932008145
 20
5.604666366295758
 42
-0.3300656182922443
 10
-96.59543910280399
 20
5.809392782018675
 10
-96.91284524296385
 20
7.06034647564138
 42
0.3431699481782171
 10
-96.95049474860343
 20
7.089636149892385
 10
-97.7022593749457
 20
7.089636149892385
 42
0.4109416450539144
 10
-97.74087392986144
 20
7.051032918285727
  0
LWPOLYLINE
  5
BA06
330
B9DF
100
AcDbEntity
  8
hyomoji
  6
Continuous
370
     9
100
AcDbPolyline
 90
       21
 70
   128
 43
0.0
 10
-69.43627218490224
 20
8.681543250778529
 10
-69.43627218490224
 20
8.254417828748271
 10
-73.08597964968567
 20
8.254417828748271
 10
-73.08597964968567
 20
8.914499624755535
 10
-69.63040270880377
 20
8.914499624755535
 42
-0.0245951489999901
 10
-69.61133802936365
 20
8.913441706972433
 42
-0.0245951489999939
 10
-69.59245801114708
 20
8.910142001933762
 42
-0.0245951490000111
 10
-69.57394413156362
 20
8.904632411457669
 42
-0.0245951489999948
 10
-69.55597659449745
 20
8.89696623259374
 42
-0.0245951490000167
 10
-69.53872859944067
 20
8.887217584536756
 42
-0.0245951489999851
 10
-69.52236634149494
 20
8.875480644510844
 42
-0.0245951489999982
 10
-69.5070490113701
 20
8.861868883653869
 42
-0.0245951490000079
 10
-69.49292370128296
 20
8.846513920845383
 42
-0.0245951489999929
 10
-69.48012731524318
 20
8.829564185503386
 42
-0.0245951490000121
 10
-69.46878402200468
 20
8.811183516706023
 42
-0.0245951489999839
 10
-69.45900334477688
 20
8.791549634962846
 42
-0.0245951490000097
 10
-69.45087888769717
 20
8.770852295599752
 42
-0.0245951489999972
 10
-69.4444902461196
 20
8.749291633178017
 42
-0.0245951490000035
 10
-69.43989918604052
 20
8.72707599649857
 42
-0.0245951490000047
 10
-69.4371490073331
 20
8.704420229343893
 42
-0.024595148999995
 10
-69.43626772756238
 20
8.681543250778529
  0
LWPOLYLINE
  5
BA07
330
B9DF
100
AcDbEntity
  8
hyomoji
  6
Continuous
370
     9
100
AcDbPolyline
 90
       21
 70
   128
 43
0.0
 10
-73.39658810587049
 20
6.19659804358389
 10
-69.24457124346441
 20
6.19659804358389
 42
-0.0277241649809473
 10
-69.22307761832303
 20
6.195540125801243
 42
-0.0245951490000116
 10
-69.20419696334374
 20
6.192240420762344
 42
-0.0245951489999535
 10
-69.18568372052323
 20
6.186730893962476
 42
-0.0245951490000357
 10
-69.16771618345683
 20
6.179064715098547
 42
-0.0245951489999617
 10
-69.15046755163712
 20
6.169316003365793
 42
-0.024595149000028
 10
-69.13410593045433
 20
6.157579063339651
 42
-0.0245951489999838
 10
-69.118787963567
 20
6.143967366158904
 42
-0.0245951490000106
 10
-69.10466329024257
 20
6.128612403350188
 42
-0.0245951489999761
 10
-69.09186690420233
 20
6.111662668008192
 42
-0.0245951490000292
 10
-69.08052361096451
 20
6.093281999210829
 42
-0.0245951489999958
 10
-69.07074229697378
 20
6.073648053791202
 42
-0.0245951489999834
 10
-69.06261847665632
 20
6.052950778104785
 42
-0.0245951490000133
 10
-69.05622983507917
 20
6.031390052006599
 42
-0.0245951489999937
 10
-69.05163813823719
 20
6.009174415327378
 42
-0.0245951490001447
 10
-69.04888859629295
 20
5.986518648172249
 42
-0.0188381928052038
 10
-69.0480117738616
 20
5.9690010553943
 10
-69.0480117738616
 20
5.342424884589718
 10
-73.39658810587049
 20
5.342424884589718
 10
-73.39658810587049
 20
6.196636949793854
  0
LWPOLYLINE
  5
BA08
330
B9DF
100
AcDbEntity
  8
hyomoji
  6
Continuous
370
     9
100
AcDbPolyline
 90
       46
 70
   128
 43
0.0
 10
-79.91946565752278
 20
8.526239086362011
 42
0.0246113600000082
 10
-79.9187754066038
 20
8.503347016517409
 42
0.0246113599999873
 10
-79.91658812624702
 20
8.480676540141303
 42
0.0246113599999939
 10
-79.91292546638921
 20
8.458447149384255
 42
0.0246113600000089
 10
-79.90782308574989
 20
8.436873942734791
 42
0.0246113600000195
 10
-79.90133001506638
 20
8.41616577840341
 42
0.0246113599999893
 10
-79.89350865709798
 20
8.396523109333202
 42
0.0246113599999934
 10
-79.88443542338609
 20
8.378136009231411
 42
0.0246113599999928
 10
-79.87419818720195
 20
8.361182580664262
 42
0.0246113599999958
 10
-79.86289564678576
 20
8.345826790064165
 42
0.0246113600000034
 10
-79.85063732534605
 20
8.332217385229796
 42
0.0246113599999883
 10
-79.83754229753412
 20
8.320486112393155
 42
0.0246113600000125
 10
-79.82373600562937
 20
8.310746442692106
 42
0.0246113599999954
 10
-79.80935408011737
 20
8.303092680703684
 42
0.024611359999985
 10
-79.7945340617707
 20
8.297598945622437
 42
0.024611360000015
 10
-79.77941985899201
 20
8.294318343469056
 42
0.0246113600000176
 10
-79.76415856399717
 20
8.293282712385233
 10
-79.22064009017026
 20
8.293282712385233
 42
-0.4142135623730951
 10
-79.06526995712352
 20
8.137912579338717
 10
-79.06526995712352
 20
7.748711594328598
 42
-0.0244511737842624
 10
-79.07462846058844
 20
7.506115916052523
 42
-0.0245486219999786
 10
-79.10258234927983
 20
7.264898435690156
 42
-0.0245486220000839
 10
-79.14887373424813
 20
7.028349636796065
 42
-0.0245486219998618
 10
-79.21305560797851
 20
6.798747602111006
 42
-0.0245486220001097
 10
-79.29451031051712
 20
6.578303617945721
 42
-0.024548621999966
 10
-79.39245335004329
 20
6.369140587938089
 42
-0.0245486220000008
 10
-79.50594231755395
 20
6.173272847655424
 42
-0.0245486220000017
 10
-79.63388325448909
 20
5.992586807012457
 42
-0.0245486219999997
 10
-79.77504402475346
 20
5.82882254782271
 42
-0.0245486220000006
 10
-79.92806577644433
 20
5.683557204289853
 42
-0.0245486219999995
 10
-80.09147440358743
 20
5.558189680697523
 42
-0.0245486219999993
 10
-80.26369646520402
 20
5.453927406743559
 42
-0.0245486219999995
 10
-80.44307255733222
 20
5.371774493750763
 42
-0.0245486220000024
 10
-80.62787641591103
 20
5.312522119548702
 42
-0.0245486220000146
 10
-80.81632765203996
 20
5.276740887318737
 42
-0.0245738278590478
 10
-81.00680723741584
 20
5.264772738705231
 10
-83.25856148230673
 20
5.264772738705231
 10
-83.25856148230673
 20
5.885989651075306
 10
-81.472395231425
 20
5.885989651075306
 42
0.4142135623730951
 10
-80.23007092989315
 20
7.128313952606957
 10
-80.23007092989315
 20
7.904857379768826
 42
0.4142135623730951
 10
-80.61849626250978
 20
8.293282712385233
 10
-83.4915179836364
 20
8.293282712385233
 10
-83.4915179836364
 20
8.914499624755535
 10
-79.91946247370856
 20
8.914499624755535
 10
-79.91946247370856
 20
8.526239086362011
  0
LWPOLYLINE
  5
BA09
330
B9DF
100
AcDbEntity
  8
hyomoji
  6
Continuous
370
     9
100
AcDbPolyline
 90
       23
 70
   129
 43
0.0
 10
-91.60627971271242
 20
5.575381194890269
 10
-91.60627971271242
 20
6.349339719704174
 42
0.4352566975870341
 10
-91.64788966816946
 20
6.388083541980448
 10
-92.14958015254067
 20
6.352248425560445
 10
-91.28410272412841
 20
7.650464568178676
 42
0.5990215383385383
 10
-91.31642166536151
 20
7.710853062262457
 10
-92.0721927153713
 20
7.710853062262457
 10
-92.0721927153713
 20
7.982635413666912
 10
-91.64531711265729
 20
7.982635413666912
 42
0.4141276645926779
 10
-91.60627971271242
 20
8.02123864527357
 10
-91.60627971271242
 20
8.526239086362011
 10
-91.06269565231263
 20
8.526239086362011
 10
-91.06269565231263
 20
8.021684264268515
 42
0.4142994653711661
 10
-91.02408109740213
 20
7.982635413666912
 10
-90.86551748421447
 20
7.982635413666912
 42
-0.5990232472207202
 10
-90.7039233199814
 20
7.680692130354144
 10
-90.88163173258704
 20
7.414132416776737
 42
0.2779035425008352
 10
-90.8860830464487
 20
7.374314542745196
 10
-90.40242475165451
 20
6.50706549938468
 10
-90.9130461012187
 20
6.545888321219762
 10
-90.98992940035371
 20
6.683748944059061
 42
0.7732509487775637
 10
-91.06269565231263
 20
6.664830072530093
 10
-91.06269565231263
 20
5.575381194890269
  0
LWPOLYLINE
  5
BA0A
330
B9DF
100
AcDbEntity
  8
hyomoji
  6
Continuous
370
     9
100
AcDbPolyline
 90
       22
 70
   129
 43
0.0
 10
-90.67443524127179
 20
5.575381194890269
 10
-90.67443524127179
 20
5.885989651075306
 10
-90.05323488473594
 20
5.885989651075306
 42
0.4142135623730951
 10
-90.01439235147428
 20
5.924832184336763
 10
-90.01439235147428
 20
7.400021796579721
 42
0.4142994653711524
 10
-90.05300690638476
 20
7.43907064718155
 10
-90.48030471737048
 20
7.43907064718155
 10
-90.48030471737048
 20
7.710853062262457
 10
-90.05342975141664
 20
7.710853062262457
 42
0.4141276645726239
 10
-90.01439235147428
 20
7.749456293868661
 10
-90.01439235147428
 20
8.526239086362011
 10
-89.47080765431133
 20
8.526239086362011
 10
-89.47080765431133
 20
7.749901912863606
 42
0.4142994653912224
 10
-89.43219309939831
 20
7.710853062262457
 10
-89.00489528841536
 20
7.710853062262457
 10
-89.00489528841536
 20
7.43907064718155
 10
-89.4317702543667
 20
7.43907064718155
 42
0.4141276645926918
 10
-89.47080765431133
 20
7.400467415574667
 10
-89.47080765431133
 20
5.924832184336763
 42
0.4142135623730951
 10
-89.43196512104988
 20
5.885989651075306
 10
-88.81076476451381
 20
5.885989651075306
 10
-88.81076476451381
 20
5.575381194890269
  0
LWPOLYLINE
  5
BA0B
330
B9DF
100
AcDbEntity
  8
hyomoji
  6
Continuous
370
     9
100
AcDbPolyline
 90
       24
 70
   129
 43
0.0
 10
-85.58827868192066
 20
5.264772738705231
 10
-88.07305081697494
 20
5.264772738705231
 10
-88.07305081697494
 20
5.885989651075306
 10
-86.17042573669506
 20
5.885989651075306
 42
0.4142135623730951
 10
-84.92810143516363
 20
7.128313952606957
 10
-84.92810143516363
 20
8.060326402084683
 10
-83.88050297316819
 20
8.060326402084683
 42
-0.0257155487687808
 10
-83.86455466869007
 20
8.059188443213086
 42
-0.024549926000034
 10
-83.84947803491854
 20
8.055833594512023
 42
-0.0245499260000084
 10
-83.83469303852869
 20
8.050278093435052
 42
-0.0245499259999808
 10
-83.82034231439524
 20
8.042575491736441
 42
-0.0245499260000123
 10
-83.80656404005618
 20
8.03279990861165
 42
-0.0245499259999841
 10
-83.79349066218059
 20
8.021045521283667
 42
-0.0245499259999858
 10
-83.78124889657465
 20
8.007425546186366
 42
-0.0245499260000007
 10
-83.76995527083861
 20
7.992071156464134
 42
-0.024549925999996
 10
-83.75971994494262
 20
7.975130272125624
 42
-0.02454992599999
 10
-83.75064098036455
 20
7.956766031809592
 42
-0.0245499260000124
 10
-83.74280625037682
 20
7.937155328233758
 42
-0.0245499259999989
 10
-83.73629025623131
 20
7.916487025256401
 42
-0.0245499259999953
 10
-83.73115603744984
 20
7.894960174941386
 42
-0.0245499260000016
 10
-83.72745389829606
 20
7.872782170945811
 42
-0.0245499260000116
 10
-83.72521886072625
 20
7.850166583526287
 42
-0.024673292203941
 10
-83.72447384820317
 20
7.82721638994576
 10
-83.72447384820317
 20
7.128577572422955
 42
-0.4142135623730951
  0
LWPOLYLINE
  5
BA0C
330
B9DF
100
AcDbEntity
  8
hyomoji
  6
Continuous
370
     9
100
AcDbPolyline
 90
       21
 70
   128
 43
0.0
 10
-85.4328397784875
 20
8.914502872245973
 42
-0.0246113600000175
 10
-85.40994815437693
 20
8.913812430298319
 42
-0.0246113599999931
 10
-85.38727748697167
 20
8.911625340970431
 42
-0.0246113599999957
 10
-85.36504809621442
 20
8.907962808465297
 42
-0.0246113600000006
 10
-85.34347457118384
 20
8.902860173120187
 42
-0.0246113599999799
 10
-85.32276640685267
 20
8.896366911408222
 42
-0.0246113600000132
 10
-85.30312418351604
 20
8.888545871821632
 42
-0.0246113600000103
 10
-85.28473701973778
 20
8.879472765461967
 42
-0.0246113599999903
 10
-85.26778320911352
 20
8.869235338248927
 42
-0.02461135999999
 10
-85.25242767321833
 20
8.857932797832518
 42
-0.0246113599999982
 10
-85.23881814103152
 20
8.84567454006901
 42
-0.0246113600000129
 10
-85.22708705922379
 20
8.832579130199292
 42
-0.024611360000001
 10
-85.21734713481761
 20
8.818773411381471
 42
-0.0246113599999927
 10
-85.20969388223944
 20
8.804390912782762
 42
-0.0246113599999869
 10
-85.2041998924526
 20
8.789571021788786
 42
-0.024611360000012
 10
-85.20091929029922
 20
8.774457073715211
 42
-0.0246113600013111
 10
-85.1998839139212
 20
8.759195396662107
 10
-85.1998839139212
 20
8.254417828748271
 10
-88.07305081697494
 20
8.254417828748271
 10
-88.07305081697494
 20
8.914499624755535
 10
-85.4328397784875
 20
8.914499624755535
  0
LWPOLYLINE
  5
BA0D
330
B9DF
100
AcDbEntity
  8
hyomoji
  6
Continuous
370
     9
100
AcDbPolyline
 90
        4
 70
   129
 43
0.0
 10
-88.07305081697494
 20
7.128462254672513
 10
-88.07305081697494
 20
7.788505144470262
 10
-85.1998839139212
 20
7.788505144470262
 10
-85.1998839139212
 20
7.128462254672513
  0
LWPOLYLINE
  5
BA0E
330
B9DF
100
AcDbEntity
  8
hyomoji
  6
Continuous
370
     9
100
AcDbPolyline
 90
       44
 70
   128
 43
0.0
 10
-74.37174773276344
 20
5.963681151450371
 42
0.2129151059966407
 10
-74.40063715169867
 20
5.950794998102537
 42
-0.220358021742929
 10
-75.88149459788451
 20
5.264772738705231
 10
-78.28874849827935
 20
5.264772738705231
 10
-78.28874849827935
 20
5.885989651075306
 10
-76.50273061313964
 20
5.885989651075306
 42
0.0137554371945167
 10
-76.43015365812153
 20
5.888354842969647
 42
0.0137524419998822
 10
-76.35779511275881
 20
5.895394574551118
 42
0.0137524420004598
 10
-76.28587593375231
 20
5.907103879070064
 42
0.013752441999331
 10
-76.21461262047751
 20
5.923447225158724
 42
0.0137524420003075
 10
-76.1442203987633
 20
5.944375263699384
 42
0.0137524420000012
 10
-76.07491258416756
 20
5.969824636787052
 42
0.0137524419999966
 10
-76.00689930842668
 20
5.999718359795223
 42
0.0137524419999995
 10
-75.94038560917443
 20
6.033966076077375
 42
0.0137524420000046
 10
-75.87557334023177
 20
6.072464056966282
 42
0.0137524419999986
 10
-75.81265798779054
 20
6.115095965890533
 42
0.0137524419999979
 10
-75.75182994394026
 20
6.161732858375899
 42
0.0137524419999975
 10
-75.6932732331411
 20
6.212233564100188
 42
0.013752441999999
 10
-75.63716551222615
 20
6.266445323658217
 42
0.0137524419999975
 10
-75.58367552334765
 20
6.324204234294483
 42
0.0137524420000003
 10
-75.53296564103016
 20
6.385335568285653
 42
0.0138047286378086
 10
-75.48501449973173
 20
6.449903806133307
 42
0.4326750878113179
 10
-75.50812793003571
 20
6.560768619332975
 10
-76.01857653173261
 20
6.872710173877521
 42
0.1380038353994479
 10
-76.09959442946615
 20
6.895505880695736
 10
-77.04629557065437
 20
6.895505880695736
 10
-77.04629557065437
 20
7.462633158448624
 42
0.483124814362098
 10
-77.0937344731376
 20
7.500715229543402
 10
-77.39202878477204
 20
7.401283899550207
 42
-0.080611490271625
 10
-77.63769029675723
 20
7.361418564973063
 10
-78.44405304475367
 20
7.361418564973063
 10
-78.44405304475367
 20
7.982635413666912
 10
-78.07282259261909
 20
7.982635413666912
 42
0.2403459008079929
 10
-77.94703331635243
 20
8.046808308710977
 10
-77.36448237994363
 20
8.850326729711241
 42
-0.2403459008079905
 10
-77.23869310367695
 20
8.914499624755535
 10
-74.33052273826318
 20
8.914499624755535
 42
-0.4142866644357847
 10
-73.94017216627048
 20
8.528231708575956
 10
-73.94017216627048
 20
7.20040165387104
 42
-0.073920925025852
 10
-74.02577777181159
 20
6.635956043364557
 42
0.5098120014094599
 10
-73.9891398827108
 20
6.584897488186924
 10
-73.86252021141467
 20
6.584897488186924
 10
-73.86252021141467
 20
5.963641733283566
 10
-74.37174773276344
 20
5.963641733283566
  0
LWPOLYLINE
  5
BA0F
330
B9DF
100
AcDbEntity
  8
hyomoji
  6
Continuous
370
     9
100
AcDbPolyline
 90
        8
 70
   129
 43
0.0
 10
-79.64764688328364
 20
8.487374139048597
 42
-0.4142135623730951
 10
-79.72533194980655
 20
8.565059205571968
 10
-79.72533194980655
 20
9.069770868532938
 42
-0.4142135623730951
 10
-79.64764688328364
 20
9.147455935055859
 10
-79.14295502364713
 20
9.147455935055859
 42
-0.4142135623730951
 10
-79.06526995712352
 20
9.069770868532938
 10
-79.06526995712352
 20
8.565059205571968
 42
-0.4142135623730951
 10
-79.14295502364713
 20
8.487374139048597
  0
LWPOLYLINE
  5
BA10
330
B9DF
100
AcDbEntity
  8
hyomoji
  6
Continuous
370
     9
100
AcDbPolyline
 90
        8
 70
   129
 43
0.0
 10
-78.75462838927091
 20
8.487374139048597
 42
-0.4142135623730951
 10
-78.83231345579407
 20
8.565059205571968
 10
-78.83231345579407
 20
9.069770868532938
 42
-0.4142135623730951
 10
-78.75462838927091
 20
9.147455935055859
 10
-78.24993652963439
 20
9.147455935055859
 42
-0.4142135623730951
 10
-78.17225146311102
 20
9.069770868532938
 10
-78.17225146311102
 20
8.565059205571968
 42
-0.4142135623730951
 10
-78.24993652963439
 20
8.487374139048597
  0
LWPOLYLINE
  5
BA11
330
B9DF
100
AcDbEntity
  8
hyomoji
  6
Continuous
370
     9
100
AcDbPolyline
 90
       26
 70
   129
 43
0.0
 10
-75.25867901228753
 20
7.136315150465861
 10
-75.8438622562801
 20
7.493927168456366
 42
0.1380035768931157
 10
-75.92488001949026
 20
7.516722793065809
 10
-76.91275368502373
 20
7.516722793065809
 42
-0.5877959702502288
 10
-76.9454333722108
 20
7.576180874061492
 10
-76.47548726699483
 20
8.22438360138949
 42
-0.2488102192010769
 10
-76.34727028910559
 20
8.293282712385233
 10
-75.33876402902683
 20
8.293282712385233
 42
-0.4141055155693935
 10
-75.1826257306584
 20
8.138870166012111
 10
-75.1826257306584
 20
7.439070647185871
 42
-0.0027675332005429
 10
-75.18270659953964
 20
7.421878432550101
 42
-0.0027675332004465
 10
-75.18294920618155
 20
7.404688319233173
 42
-0.0027675331990674
 10
-75.18335355058525
 20
7.387502408559156
 42
-0.0027675332013063
 10
-75.1839196327503
 20
7.370322801823248
 42
-0.0027675331985318
 10
-75.1846474526767
 20
7.353151600374302
 42
-0.0027675332011082
 10
-75.18553637360195
 20
7.335990969172597
 42
-0.0027675332007225
 10
-75.18658703228926
 20
7.318842945877121
 42
-0.0027675331990705
 10
-75.18779879197359
 20
7.301709695490217
 42
-0.0027675331994759
 10
-75.18917228942019
 20
7.284593191963267
 42
-0.0027675332004882
 10
-75.19070625110271
 20
7.267495727639242
 42
-0.0027675331980648
 10
-75.19240067701956
 20
7.250419212827409
 42
-0.0027675332032427
 10
-75.19425620393872
 20
7.233365876150855
 42
-0.0027675331997779
 10
-75.19627219509129
 20
7.216337691627812
 42
-0.0027675331988507
 10
-75.19844801371573
 20
7.199336824236977
 42
-0.0027675331998305
 10
-75.20078365981408
 20
7.182365311606417
 42
-0.0029245593357009
 10
-75.20342566968747
 20
7.164465011015637
 42
-0.498504514683721
  0
LINE
  5
BA12
330
B9DF
100
AcDbEntity
  8
hyosen2
  6
Continuous
370
    40
100
AcDbLine
 10
-99.00000000000023
 20
25.0
 30
0.0
 11
-99.00000000000023
 21
14.0
 31
0.0
  0
LINE
  5
BA13
330
B9DF
100
AcDbEntity
  8
AM_2
100
AcDbLine
 10
-115.0000000000004
 20
20.5
 30
0.0
 11
-68.0
 21
20.49999999999977
 31
0.0
  0
TEXT
  5
BA14
330
B9DF
100
AcDbEntity
  8
hyomoji
  6
Continuous
100
AcDbText
 10
-108.80846541418
 20
21.23246297775404
 30
0.0
 40
3.0
  1
尺度
 41
0.7
 72
     4
 11
-106.5684654141801
 21
22.73246297775404
 31
0.0
100
AcDbText
  0
TEXT
  5
BA15
330
B9DF
100
AcDbEntity
  8
hyomoji
  6
Continuous
100
AcDbText
 10
-79.51999999999999
 20
21.25
 30
0.0
 40
3.0
  1
投影法
 41
0.7
 72
     4
 11
-76.0
 21
22.75
 31
0.0
100
AcDbText
  0
LINE
  5
BA16
330
B9DF
100
AcDbEntity
  8
hyosen2
  6
Continuous
370
    40
100
AcDbLine
 10
-84.0
 20
25.0
 30
0.0
 11
-84.0
 21
14.0
 31
0.0
  0
TEXT
  5
BA17
330
B9DF
100
AcDbEntity
  8
hyomoji
  6
Continuous
100
AcDbText
 10
-95.14000000000022
 20
21.15
 30
0.0
 40
3.0
  1
サイズ
 41
0.7
 72
     4
 11
-91.50000000000023
 21
22.75
 31
0.0
100
AcDbText
  0
CIRCLE
  5
BA18
330
B9DF
100
AcDbEntity
  8
AM_0
370
    25
100
AcDbCircle
 10
-79.26619211742924
 20
17.25
 30
0.0
 40
1.25
  0
CIRCLE
  5
BA19
330
B9DF
100
AcDbEntity
  8
AM_0
370
    25
100
AcDbCircle
 10
-79.26619211742924
 20
17.25
 30
0.0
 40
1.9
  0
LINE
  5
BA1A
330
B9DF
100
AcDbEntity
  8
AM_0
370
    25
100
AcDbLine
 10
-75.56619211742919
 20
18.5
 30
0.0
 11
-75.56619211742919
 21
16.0
 31
0.0
  0
LINE
  5
BA1B
330
B9DF
100
AcDbEntity
  8
AM_0
370
    25
100
AcDbLine
 10
-75.56619211742919
 20
16.0
 30
0.0
 11
-71.5661921174292
 21
15.34999999999991
 31
0.0
  0
LINE
  5
BA1C
330
B9DF
100
AcDbEntity
  8
AM_0
370
    25
100
AcDbLine
 10
-71.5661921174292
 20
15.34999999999991
 30
0.0
 11
-71.5661921174292
 21
19.14999999999986
 31
0.0
  0
LINE
  5
BA1D
330
B9DF
100
AcDbEntity
  8
AM_0
370
    25
100
AcDbLine
 10
-71.5661921174292
 20
19.14999999999986
 30
0.0
 11
-75.56619211742919
 21
18.5
 31
0.0
  0
LINE
  5
BA1E
330
B9DF
100
AcDbEntity
  8
AM_2
370
     9
100
AcDbLine
 10
-73.76970082765684
 20
17.25
 30
0.0
 11
-73.03098608735286
 21
17.25
 31
0.0
  0
LINE
  5
BA1F
330
B9DF
100
AcDbEntity
  8
AM_2
370
     9
100
AcDbLine
 10
-70.28729095201743
 20
17.25
 30
0.0
 11
-72.34381719255157
 21
17.25
 31
0.0
  0
LINE
  5
BA20
330
B9DF
100
AcDbEntity
  8
AM_2
370
     9
100
AcDbLine
 10
-79.63554948758108
 20
17.25
 30
0.0
 11
-78.89683474727712
 21
17.25
 31
0.0
  0
LINE
  5
BA21
330
B9DF
100
AcDbEntity
  8
AM_2
370
     9
100
AcDbLine
 10
-74.45686972245835
 20
17.25
 30
0.0
 11
-78.20966585247584
 21
17.25
 31
0.0
  0
LINE
  5
BA22
330
B9DF
100
AcDbEntity
  8
AM_2
370
     9
100
AcDbLine
 10
-79.26619211742924
 20
16.8806426298479
 30
0.0
 11
-79.26619211742924
 21
17.6193573701521
 31
0.0
  0
LINE
  5
BA23
330
B9DF
100
AcDbEntity
  8
AM_2
370
     9
100
AcDbLine
 10
-79.26619211742924
 20
20.10439489183659
 30
0.0
 11
-79.26619211742924
 21
18.30652626495339
 31
0.0
  0
LINE
  5
BA24
330
B9DF
100
AcDbEntity
  8
AM_2
370
     9
100
AcDbLine
 10
-79.26619211743012
 20
14.39560510816341
 30
0.0
 11
-79.26619211742945
 21
16.19347373504638
 31
0.0
  0
LINE
  5
BA25
330
B9DF
100
AcDbEntity
  8
AM_2
370
     9
100
AcDbLine
 10
-82.12058700926581
 20
17.25000000000045
 30
0.0
 11
-80.32271838238262
 21
17.25
 31
0.0
  0
LINE
  5
BA26
330
B9DF
100
AcDbEntity
  8
AM_2
100
AcDbLine
 10
-162.0000000000009
 20
19.49999999999977
 30
0.0
 11
-115.0000000000011
 21
19.49999999999977
 31
0.0
  0
TEXT
  5
BA27
330
B9DF
100
AcDbEntity
  8
hyomoji
  6
Continuous
100
AcDbText
 10
-158.8197690813725
 20
20.74999999999955
 30
0.0
 40
3.0
  1
作成日
 41
0.7
 72
     4
 11
-155.4597690813725
 21
22.24999999999955
 31
0.0
100
AcDbText
  0
LINE
  5
BA28
330
B9DF
100
AcDbEntity
  8
hyosen2
  6
Continuous
100
AcDbLine
 10
-150.0000000000002
 20
24.99999999999977
 30
0.0
 11
-150.0000000000002
 21
14.0
 31
0.0
  0
TEXT
  5
BA29
330
B9DF
100
AcDbEntity
  8
hyomoji
  6
Continuous
100
AcDbText
 10
-158.8197690813725
 20
15.25
 30
0.0
 40
3.0
  1
更新日
 41
0.7
 72
     4
 11
-155.4597690813725
 21
16.75
 31
0.0
100
AcDbText
  0
LWPOLYLINE
  5
BA2A
330
B9DF
100
AcDbEntity
  8
hyosen2
100
AcDbPolyline
 90
        3
 70
     1
 43
0.0
 10
-144.104867507461
 20
19.44306130048881
 10
-146.8328475293819
 20
14.7180613004889
 10
-141.3768874855399
 20
14.7180613004889
  0
ATTDEF
  5
BA2B
330
B9DF
100
AcDbEntity
  8
hyomoji
100
AcDbText
 10
-39.49999999999988
 20
1.5
 30
0.0
 40
4.0
  1

 41
0.7
 72
     1
 11
-39.49999999999988
 21
3.5
 31
0.0
100
AcDbAttributeDefinition
  3
図番
  2
XXX000000-00-00
 70
     0
 74
     2
1001
AcDbAttr
1070
     0
1070
     1
  0
ATTDEF
  5
BA2C
330
B9DF
100
AcDbEntity
  8
hyomoji
100
AcDbText
 10
-31.49999999999977
 20
19.50000000000057
 30
0.0
 40
4.0
  1

 41
0.7
 72
     1
 11
-31.49999999999977
 21
21.50000000000057
 31
0.0
100
AcDbAttributeDefinition
  3
品名
  2
品名
 70
     0
 74
     2
1001
AcDbAttr
1070
     0
1070
     1
  0
ATTDEF
  5
BA2D
330
B9DF
100
AcDbEntity
  8
hyomoji
100
AcDbText
 10
-121.0000000000003
 20
3.0
 30
0.0
 40
3.5
  1

 41
0.7
 72
     1
 11
-121.0000000000003
 21
4.75
 31
0.0
100
AcDbAttributeDefinition
  3
作成
  2
作成
 70
     0
 74
     2
1001
AcDbAttr
1070
     0
1070
     1
  0
ATTDEF
  5
BA2E
330
B9DF
100
AcDbEntity
  8
hyomoji
100
AcDbText
 10
-133.0000000000001
 20
3.0
 30
0.0
 40
3.5
  1

 41
0.7
 72
     1
 11
-133.0000000000001
 21
4.75
 31
0.0
100
AcDbAttributeDefinition
  3
確認1
  2
確認1
 70
     0
 74
     2
1001
AcDbAttr
1070
     0
1070
     1
  0
ATTDEF
  5
BA2F
330
B9DF
100
AcDbEntity
  8
hyomoji
100
AcDbText
 10
-144.0000000000007
 20
3.0
 30
0.0
 40
3.5
  1

 41
0.7
 72
     1
 11
-144.0000000000007
 21
4.75
 31
0.0
100
AcDbAttributeDefinition
  3
確認2
  2
確認2
 70
     0
 74
     2
1001
AcDbAttr
1070
     0
1070
     1
  0
ATTDEF
  5
BA30
330
B9DF
100
AcDbEntity
  8
hyomoji
100
AcDbText
 10
-156.0000000000004
 20
3.0
 30
0.0
 40
3.5
  1

 41
0.7
 72
     1
 11
-156.0000000000004
 21
4.75
 31
0.0
100
AcDbAttributeDefinition
  3
承認
  2
承認
 70
     0
 74
     2
1001
AcDbAttr
1070
     0
1070
     1
  0
ATTDEF
  5
BA31
330
B9DF
100
AcDbEntity
  8
hyomoji
100
AcDbText
 10
-107.0000000000003
 20
15.25
 30
0.0
 40
4.0
  1

 41
0.7
 72
     1
 11
-107.0000000000003
 21
17.25
 31
0.0
100
AcDbAttributeDefinition
  3
尺度
  2
1:1
 70
     0
 74
     2
1001
AcDbAttr
1070
     0
1070
     1
  0
ATTDEF
  5
BA32
330
B9DF
100
AcDbEntity
  8
hyomoji
100
AcDbText
 10
-127.0214335782293
 20
20.75000000000001
 30
0.0
 40
3.0
  1

 41
0.7
 72
     1
 11
-127.0214335782293
 21
22.25000000000001
 31
0.0
100
AcDbAttributeDefinition
  3
作成日
  2
2011.01.01
 70
     0
 74
     2
1001
AcDbAttr
1070
     0
1070
     1
  0
ATTDEF
  5
BA33
330
B9DF
100
AcDbEntity
  8
hyomoji
100
AcDbText
 10
-144.2211531119989
 20
15.20883785860056
 30
0.0
 40
2.0
  1

 41
0.7
 72
     1
 11
-144.2211531119989
 21
16.20883785860056
 31
0.0
100
AcDbAttributeDefinition
  3
△
  2
1
 70
     0
 74
     2
1001
AcDbAttr
1070
     0
1070
     1
  0
ATTDEF
  5
BA34
330
B9DF
100
AcDbEntity
  8
hyomoji
100
AcDbText
 10
-127.0214335782293
 20
15.24999999999988
 30
0.0
 40
3.0
  1

 41
0.7
 72
     1
 11
-127.0214335782293
 21
16.74999999999988
 31
0.0
100
AcDbAttributeDefinition
  3
更新日
  2
2011.01.10
 70
     0
 74
     2
1001
AcDbAttr
1070
     0
1070
     1
  0
ATTDEF
  5
BA35
330
B9DF
100
AcDbEntity
  8
hyomoji
100
AcDbText
 10
-5.5
 20
1.5
 30
0.0
 40
4.0
  1

 41
0.7
 72
     1
 11
-5.5
 21
3.5
 31
0.0
100
AcDbAttributeDefinition
  3
図面枚数
  2
10
 70
     0
 74
     2
1001
AcDbAttr
1070
     0
1070
     1
  0
ATTDEF
  5
BA36
330
B9DF
100
AcDbEntity
  8
hyomoji
100
AcDbText
 10
-31.49999999999989
 20
8.5
 30
0.0
 40
4.0
  1

 41
0.7
 72
     1
 11
-31.49999999999989
 21
10.5
 31
0.0
100
AcDbAttributeDefinition
  3
品番
  2
品番
 70
     0
 74
     2
1001
AcDbAttr
1070
     0
1070
     1
  0
ATTDEF
  5
BA37
330
B9DF
100
AcDbEntity
  8
hyomoji
100
AcDbText
 10
-31.49999999999989
 20
14.5
 30
0.0
 40
3.0
  1

 41
0.7
 72
     1
 11
-31.49999999999989
 21
16.0
 31
0.0
100
AcDbAttributeDefinition
  3
現場名／部品名
  2
現場名／部品名
 70
     0
 74
     2
1001
AcDbAttr
1070
     0
1070
     1
  0
ENDBLK
  5
BA3B
330
B9DF
100
AcDbEntity
  8
0
100
AcDbBlockEnd
  0
BLOCK
  5
BB83
330
BB82
100
AcDbEntity
  8
0
100
AcDbBlockBegin
  2
*D37
 70
     1
 10
0.0
 20
0.0
 30
0.0
  3
*D37
  1

  0
LINE
  5
BEAF
330
BB82
100
AcDbEntity
  8
AM_5
100
AcDbLine
 10
160.353320261075
 20
196.322858426743
 30
0.0
 11
160.353320261075
 21
181.2727574267431
 31
0.0
  0
LINE
  5
BEB0
330
BB82
100
AcDbEntity
  8
AM_5
100
AcDbLine
 10
242.353320261075
 20
196.322858426743
 30
0.0
 11
242.353320261075
 21
181.2727574267431
 31
0.0
  0
LINE
  5
BEB1
330
BB82
100
AcDbEntity
  8
AM_5
100
AcDbLine
 10
161.353320261075
 20
182.2727574267431
 30
0.0
 11
241.353320261075
 21
182.2727574267431
 31
0.0
  0
INSERT
  5
BEB2
330
BB82
100
AcDbEntity
  8
AM_5
100
AcDbBlockReference
  2
_Dot
 10
160.353320261075
 20
182.2727574267431
 30
0.0
 50
180.0
  0
INSERT
  5
BEB3
330
BB82
100
AcDbEntity
  8
AM_5
100
AcDbBlockReference
  2
_Dot
 10
242.353320261075
 20
182.2727574267431
 30
0.0
  0
MTEXT
  5
BEB4
330
BB82
100
AcDbEntity
  8
AM_5
 62
     2
100
AcDbMText
 10
201.353320261075
 20
185.3727574267431
 30
0.0
 40
3.200000000000001
 41
0.0
 71
     5
 72
     1
  1
82
 73
     1
 44
1.0
1001
ACAD
1000
MTEXTBEGIN
1070
    73
1070
     1
1070
    44
1040
1.0
1070
    74
1070
     0
1000
MTEXTEND
  0
POINT
  5
BEB5
330
BB82
100
AcDbEntity
  8
Defpoints
 62
     0
100
AcDbPoint
 10
160.353320261075
 20
197.322858426743
 30
0.0
  0
POINT
  5
BEB6
330
BB82
100
AcDbEntity
  8
Defpoints
 62
     0
100
AcDbPoint
 10
242.353320261075
 20
197.322858426743
 30
0.0
  0
POINT
  5
BEB7
330
BB82
100
AcDbEntity
  8
Defpoints
 62
     0
100
AcDbPoint
 10
242.353320261075
 20
182.2727574267431
 30
0.0
  0
ENDBLK
  5
BB84
330
BB82
100
AcDbEntity
  8
0
100
AcDbBlockEnd
  0
BLOCK
  5
BBAC
330
BBAB
100
AcDbEntity
  8
0
100
AcDbBlockBegin
  2
*D38
 70
     1
 10
0.0
 20
0.0
 30
0.0
  3
*D38
  1

  0
LINE
  5
BEB8
330
BBAB
100
AcDbEntity
  8
AM_5
100
AcDbLine
 10
151.353320261075
 20
193.2727584267431
 30
0.0
 11
151.353320261075
 21
171.2727574267428
 31
0.0
  0
LINE
  5
BEB9
330
BBAB
100
AcDbEntity
  8
AM_5
100
AcDbLine
 10
251.353320261075
 20
193.2727584267431
 30
0.0
 11
251.353320261075
 21
171.2727574267428
 31
0.0
  0
LINE
  5
BEBA
330
BBAB
100
AcDbEntity
  8
AM_5
100
AcDbLine
 10
152.353320261075
 20
172.2727574267428
 30
0.0
 11
250.353320261075
 21
172.2727574267428
 31
0.0
  0
INSERT
  5
BEBB
330
BBAB
100
AcDbEntity
  8
AM_5
100
AcDbBlockReference
  2
_Dot
 10
151.353320261075
 20
172.2727574267428
 30
0.0
 50
180.0
  0
INSERT
  5
BEBC
330
BBAB
100
AcDbEntity
  8
AM_5
100
AcDbBlockReference
  2
_Dot
 10
251.353320261075
 20
172.2727574267428
 30
0.0
  0
MTEXT
  5
BEBD
330
BBAB
100
AcDbEntity
  8
AM_5
 62
     2
100
AcDbMText
 10
201.353320261075
 20
175.3727574267428
 30
0.0
 40
3.200000000000001
 41
0.0
 71
     5
 72
     1
  1
100
 73
     1
 44
1.0
1001
ACAD
1000
MTEXTBEGIN
1070
    73
1070
     1
1070
    44
1040
1.0
1070
    74
1070
     0
1000
MTEXTEND
  0
POINT
  5
BEBE
330
BBAB
100
AcDbEntity
  8
Defpoints
 62
     0
100
AcDbPoint
 10
151.353320261075
 20
194.272758426743
 30
0.0
  0
POINT
  5
BEBF
330
BBAB
100
AcDbEntity
  8
Defpoints
 62
     0
100
AcDbPoint
 10
251.353320261075
 20
194.272758426743
 30
0.0
  0
POINT
  5
BEC0
330
BBAB
100
AcDbEntity
  8
Defpoints
 62
     0
100
AcDbPoint
 10
251.353320261075
 20
172.2727574267428
 30
0.0
  0
ENDBLK
  5
BBAD
330
BBAB
100
AcDbEntity
  8
0
100
AcDbBlockEnd
  0
BLOCK
  5
BC1D
330
BC1C
100
AcDbEntity
  8
0
100
AcDbBlockBegin
  2
*D39
 70
     1
 10
0.0
 20
0.0
 30
0.0
  3
*D39
  1

  0
LINE
  5
BEC1
330
BC1C
100
AcDbEntity
  8
AM_5
100
AcDbLine
 10
241.3123083361359
 20
202.6151423577977
 30
0.0
 11
243.3943321860142
 21
206.0305744956886
 31
0.0
  0
LINE
  5
BEC2
330
BC1C
100
AcDbEntity
  8
AM_5
100
AcDbLine
 10
244.4353441109533
 20
207.7382905646341
 30
0.0
 11
253.8623222102184
 21
223.2026686337448
 31
0.0
  0
LINE
  5
BEC3
330
BC1C
100
AcDbEntity
  8
AM_5
100
AcDbLine
 10
253.8623222102184
 20
223.2026686337448
 30
0.0
 11
277.3189888768852
 21
223.2026686337448
 31
0.0
  0
INSERT
  5
BEC4
330
BC1C
100
AcDbEntity
  8
AM_5
100
AcDbBlockReference
  2
GENDOT
 10
240.2712964111966
 20
200.9074262888522
 30
0.0
 41
2.0
 42
2.0
 43
2.0
 50
238.633803419374
  0
INSERT
  5
BEC5
330
BC1C
100
AcDbEntity
  8
AM_5
100
AcDbBlockReference
  2
GENDOT
 10
244.4353441109533
 20
207.7382905646341
 30
0.0
 41
2.0
 42
2.0
 43
2.0
 50
58.63380341937396
  0
MTEXT
  5
BEC6
102
{ACAD_XDICTIONARY
360
C032
102
}
330
BC1C
100
AcDbEntity
  8
AM_5
 62
     2
100
AcDbMText
 10
266.3406555435519
 20
226.4526686337447
 30
0.0
 40
3.5
 41
0.0
 71
     5
 72
     1
  1
2-%%c4×\U+22058サラ
 73
     1
 44
1.0
1001
ACAD
1000
MTEXTBEGIN
1070
    73
1070
     1
1070
    44
1040
1.0
1070
    74
1070
     0
1000
MTEXTEND
  0
POINT
  5
BEC7
330
BC1C
100
AcDbEntity
  8
Defpoints
 62
     0
100
AcDbPoint
 10
244.4353441109533
 20
207.7382905646341
 30
0.0
  0
POINT
  5
BEC8
330
BC1C
100
AcDbEntity
  8
Defpoints
 62
     0
100
AcDbPoint
 10
240.2712964111966
 20
200.9074262888522
 30
0.0
  0
ENDBLK
  5
BC1E
330
BC1C
100
AcDbEntity
  8
0
100
AcDbBlockEnd
  0
BLOCK
  5
BC54
330
BC51
100
AcDbEntity
  8
0
100
AcDbBlockBegin
  2
GENDOT
 70
     0
 10
0.0
 20
0.0
 30
0.0
  3
GENDOT
  1

  0
LINE
  5
BC52
330
BC51
100
AcDbEntity
  8
0
100
AcDbLine
 10
0.0
 20
0.0
 30
0.0
 11
-1.0
 21
0.0
 31
0.0
  0
LWPOLYLINE
  5
BC53
330
BC51
100
AcDbEntity
  8
0
100
AcDbPolyline
 90
        2
 70
     1
 43
0.25
 10
-0.125
 20
0.0
 42
1.0
 10
0.125
 20
0.0
 42
1.0
  0
ENDBLK
  5
BC55
330
BC51
100
AcDbEntity
  8
0
100
AcDbBlockEnd
  0
BLOCK
  5
BC99
330
BC98
100
AcDbEntity
  8
0
100
AcDbBlockBegin
  2
*D41
 70
     1
 10
0.0
 20
0.0
 30
0.0
  3
*D41
  1

  0
LINE
  5
BEC9
330
BC98
100
AcDbEntity
  8
AM_5
100
AcDbLine
 10
223.7641571839354
 20
126.2628446039143
 30
0.0
 11
215.9641571839354
 21
126.2628446039143
 31
0.0
  0
LINE
  5
BECA
330
BC98
100
AcDbEntity
  8
AM_5
100
AcDbLine
 10
215.9641571839354
 20
126.2628446039143
 30
0.0
 11
209.2403357319852
 21
115.385472305129
 31
0.0
  0
MTEXT
  5
BECB
330
BC98
100
AcDbEntity
  8
AM_5
 62
     2
100
AcDbMText
 10
220.6141571839354
 20
129.5128446039143
 30
0.0
 40
3.5
 41
0.0
 71
     5
 72
     1
  1
R13
 73
     1
 44
1.0
1001
ACAD
1000
MTEXTBEGIN
1070
    73
1070
     1
1070
    44
1040
1.0
1070
    74
1070
     0
1000
MTEXTEND
  0
INSERT
  5
BECC
330
BC98
100
AcDbEntity
  8
AM_5
100
AcDbBlockReference
  2
_OPEN30
 10
208.1887336691971
 20
113.6842571213443
 30
0.0
 41
2.0
 42
2.0
 43
2.0
 50
238.2778160401786
  0
POINT
  5
BECD
330
BC98
100
AcDbEntity
  8
Defpoints
 62
     0
100
AcDbPoint
 10
208.1887336691971
 20
113.6842571213443
 30
0.0
  0
POINT
  5
BECE
330
BC98
100
AcDbEntity
  8
Defpoints
 62
     0
100
AcDbPoint
 10
201.353320261075
 20
102.6263584267431
 30
0.0
  0
ENDBLK
  5
BC9A
330
BC98
100
AcDbEntity
  8
0
100
AcDbBlockEnd
  0
BLOCK
  5
BCBB
330
BCBA
100
AcDbEntity
  8
0
100
AcDbBlockBegin
  2
*D42
 70
     1
 10
0.0
 20
0.0
 30
0.0
  3
*D42
  1

  0
LINE
  5
BECF
330
BCBA
100
AcDbEntity
  8
AM_5
100
AcDbLine
 10
171.353320261075
 20
97.62635842674306
 30
0.0
 11
171.353320261075
 21
138.126359436743
 31
0.0
  0
LINE
  5
BED0
330
BCBA
100
AcDbEntity
  8
AM_5
100
AcDbLine
 10
231.353320261075
 20
97.62635842674306
 30
0.0
 11
231.353320261075
 21
138.126359436743
 31
0.0
  0
LINE
  5
BED1
330
BCBA
100
AcDbEntity
  8
AM_5
100
AcDbLine
 10
172.3533202610749
 20
137.126359436743
 30
0.0
 11
230.353320261075
 21
137.126359436743
 31
0.0
  0
INSERT
  5
BED2
330
BCBA
100
AcDbEntity
  8
AM_5
100
AcDbBlockReference
  2
_Dot
 10
171.353320261075
 20
137.126359436743
 30
0.0
 50
180.0
  0
INSERT
  5
BED3
330
BCBA
100
AcDbEntity
  8
AM_5
100
AcDbBlockReference
  2
_Dot
 10
231.353320261075
 20
137.126359436743
 30
0.0
  0
MTEXT
  5
BED4
330
BCBA
100
AcDbEntity
  8
AM_5
 62
     2
100
AcDbMText
 10
201.353320261075
 20
140.226359436743
 30
0.0
 40
3.200000000000001
 41
0.0
 71
     5
 72
     1
  1
60
 73
     1
 44
1.0
1001
ACAD
1000
MTEXTBEGIN
1070
    73
1070
     1
1070
    44
1040
1.0
1070
    74
1070
     0
1000
MTEXTEND
  0
POINT
  5
BED5
330
BCBA
100
AcDbEntity
  8
Defpoints
 62
     0
100
AcDbPoint
 10
171.353320261075
 20
96.62635842674305
 30
0.0
  0
POINT
  5
BED6
330
BCBA
100
AcDbEntity
  8
Defpoints
 62
     0
100
AcDbPoint
 10
231.353320261075
 20
96.62635842674305
 30
0.0
  0
POINT
  5
BED7
330
BCBA
100
AcDbEntity
  8
Defpoints
 62
     0
100
AcDbPoint
 10
231.353320261075
 20
137.126359436743
 30
0.0
  0
ENDBLK
  5
BCBC
330
BCBA
100
AcDbEntity
  8
0
100
AcDbBlockEnd
  0
BLOCK
  5
BD1C
330
BD1B
100
AcDbEntity
  8
0
100
AcDbBlockBegin
  2
*D43
 70
     1
 10
0.0
 20
0.0
 30
0.0
  3
*D43
  1

  0
LINE
  5
BED8
330
BD1B
100
AcDbEntity
  8
AM_5
100
AcDbLine
 10
252.3533202610749
 20
88.12635842674305
 30
0.0
 11
264.353320261075
 21
88.12635842674305
 31
0.0
  0
LINE
  5
BED9
330
BD1B
100
AcDbEntity
  8
AM_5
100
AcDbLine
 10
252.3533202610749
 20
93.12635842674305
 30
0.0
 11
264.353320261075
 21
93.12635842674305
 31
0.0
  0
LINE
  5
BEDA
330
BD1B
100
AcDbEntity
  8
AM_5
100
AcDbLine
 10
263.353320261075
 20
87.12635842674307
 30
0.0
 11
263.353320261075
 21
86.12635842674306
 31
0.0
  0
LINE
  5
BEDB
330
BD1B
100
AcDbEntity
  8
AM_5
100
AcDbLine
 10
263.353320261075
 20
94.12635842674305
 30
0.0
 11
263.353320261075
 21
95.12635842674304
 31
0.0
  0
LINE
  5
BEDC
330
BD1B
100
AcDbEntity
  8
AM_5
100
AcDbLine
 10
263.353320261075
 20
88.12635842674305
 30
0.0
 11
263.353320261075
 21
93.12635842674305
 31
0.0
  0
INSERT
  5
BEDD
330
BD1B
100
AcDbEntity
  8
AM_5
100
AcDbBlockReference
  2
_Dot
 10
263.353320261075
 20
88.12635842674305
 30
0.0
 50
90.0
  0
INSERT
  5
BEDE
330
BD1B
100
AcDbEntity
  8
AM_5
100
AcDbBlockReference
  2
_Dot
 10
263.353320261075
 20
93.12635842674305
 30
0.0
 50
270.0
  0
MTEXT
  5
BEDF
330
BD1B
100
AcDbEntity
  8
AM_5
 62
     2
100
AcDbMText
 10
260.253320261075
 20
90.62635842674307
 30
0.0
 40
3.200000000000001
 41
0.0
 71
     5
 72
     1
  1
5
 11
0.0000000000000001
 21
1.0
 31
0.0
 73
     1
 44
1.0
1001
ACAD
1000
MTEXTBEGIN
1070
    73
1070
     1
1070
    44
1040
1.0
1070
    74
1070
     0
1000
MTEXTEND
  0
POINT
  5
BEE0
330
BD1B
100
AcDbEntity
  8
Defpoints
 62
     0
100
AcDbPoint
 10
251.353320261075
 20
88.12635842674305
 30
0.0
  0
POINT
  5
BEE1
330
BD1B
100
AcDbEntity
  8
Defpoints
 62
     0
100
AcDbPoint
 10
251.353320261075
 20
93.12635842674305
 30
0.0
  0
POINT
  5
BEE2
330
BD1B
100
AcDbEntity
  8
Defpoints
 62
     0
100
AcDbPoint
 10
263.353320261075
 20
93.12635842674305
 30
0.0
  0
ENDBLK
  5
BD1D
330
BD1B
100
AcDbEntity
  8
0
100
AcDbBlockEnd
  0
BLOCK
  5
BD4C
330
BD4B
100
AcDbEntity
  8
0
100
AcDbBlockBegin
  2
*D44
 70
     1
 10
0.0
 20
0.0
 30
0.0
  3
*D44
  1

  0
LINE
  5
BEE3
330
BD4B
100
AcDbEntity
  8
AM_5
100
AcDbLine
 10
329.776170261075
 20
122.126358426743
 30
0.0
 11
307.726162261075
 21
122.126358426743
 31
0.0
  0
LINE
  5
BEE4
330
BD4B
100
AcDbEntity
  8
AM_5
100
AcDbLine
 10
329.776170261075
 20
83.12635842674305
 30
0.0
 11
307.726162261075
 21
83.12635842674305
 31
0.0
  0
LINE
  5
BEE5
330
BD4B
100
AcDbEntity
  8
AM_5
100
AcDbLine
 10
308.726162261075
 20
121.126358426743
 30
0.0
 11
308.726162261075
 21
84.12635842674305
 31
0.0
  0
INSERT
  5
BEE6
330
BD4B
100
AcDbEntity
  8
AM_5
100
AcDbBlockReference
  2
_Dot
 10
308.726162261075
 20
122.126358426743
 30
0.0
 50
90.0
  0
INSERT
  5
BEE7
330
BD4B
100
AcDbEntity
  8
AM_5
100
AcDbBlockReference
  2
_Dot
 10
308.726162261075
 20
83.12635842674305
 30
0.0
 50
270.0
  0
MTEXT
  5
BEE8
330
BD4B
100
AcDbEntity
  8
AM_5
 62
     2
100
AcDbMText
 10
305.626162261075
 20
102.6263584267431
 30
0.0
 40
3.200000000000001
 41
0.0
 71
     5
 72
     1
  1
%%c39
 11
0.0000000000000001
 21
1.0
 31
0.0
 73
     1
 44
1.0
1001
ACAD
1000
MTEXTBEGIN
1070
    73
1070
     1
1070
    44
1040
1.0
1070
    74
1070
     0
1000
MTEXTEND
  0
POINT
  5
BEE9
330
BD4B
100
AcDbEntity
  8
Defpoints
 62
     0
100
AcDbPoint
 10
330.7761702610751
 20
122.126358426743
 30
0.0
  0
POINT
  5
BEEA
330
BD4B
100
AcDbEntity
  8
Defpoints
 62
     0
100
AcDbPoint
 10
330.7761702610751
 20
83.12635842674305
 30
0.0
  0
POINT
  5
BEEB
330
BD4B
100
AcDbEntity
  8
Defpoints
 62
     0
100
AcDbPoint
 10
308.726162261075
 20
83.12635842674305
 30
0.0
  0
ENDBLK
  5
BD4D
330
BD4B
100
AcDbEntity
  8
0
100
AcDbBlockEnd
  0
BLOCK
  5
BD7D
330
BD7C
100
AcDbEntity
  8
0
100
AcDbBlockBegin
  2
*D45
 70
     1
 10
0.0
 20
0.0
 30
0.0
  3
*D45
  1

  0
LINE
  5
BEEC
330
BD7C
100
AcDbEntity
  8
AM_5
100
AcDbLine
 10
322.776166261075
 20
125.126358426743
 30
0.0
 11
297.726162261075
 21
125.126358426743
 31
0.0
  0
LINE
  5
BEED
330
BD7C
100
AcDbEntity
  8
AM_5
100
AcDbLine
 10
322.776166261075
 20
80.12635842674304
 30
0.0
 11
297.726162261075
 21
80.12635842674304
 31
0.0
  0
LINE
  5
BEEE
330
BD7C
100
AcDbEntity
  8
AM_5
100
AcDbLine
 10
298.726162261075
 20
124.126358426743
 30
0.0
 11
298.726162261075
 21
81.12635842674306
 31
0.0
  0
INSERT
  5
BEEF
330
BD7C
100
AcDbEntity
  8
AM_5
100
AcDbBlockReference
  2
_Dot
 10
298.726162261075
 20
125.126358426743
 30
0.0
 50
90.0
  0
INSERT
  5
BEF0
330
BD7C
100
AcDbEntity
  8
AM_5
100
AcDbBlockReference
  2
_Dot
 10
298.726162261075
 20
80.12635842674304
 30
0.0
 50
270.0
  0
MTEXT
  5
BEF1
330
BD7C
100
AcDbEntity
  8
AM_5
 62
     2
100
AcDbMText
 10
295.626162261075
 20
102.6263584267431
 30
0.0
 40
3.200000000000001
 41
0.0
 71
     5
 72
     1
  1
%%c45
 11
0.0000000000000001
 21
1.0
 31
0.0
 73
     1
 44
1.0
1001
ACAD
1000
MTEXTBEGIN
1070
    73
1070
     1
1070
    44
1040
1.0
1070
    74
1070
     0
1000
MTEXTEND
  0
POINT
  5
BEF2
330
BD7C
100
AcDbEntity
  8
Defpoints
 62
     0
100
AcDbPoint
 10
323.776166261075
 20
125.126358426743
 30
0.0
  0
POINT
  5
BEF3
330
BD7C
100
AcDbEntity
  8
Defpoints
 62
     0
100
AcDbPoint
 10
323.776166261075
 20
80.12635842674304
 30
0.0
  0
POINT
  5
BEF4
330
BD7C
100
AcDbEntity
  8
Defpoints
 62
     0
100
AcDbPoint
 10
298.726162261075
 20
80.12635842674304
 30
0.0
  0
ENDBLK
  5
BD7E
330
BD7C
100
AcDbEntity
  8
0
100
AcDbBlockEnd
  0
BLOCK
  5
BDAE
330
BDAD
100
AcDbEntity
  8
0
100
AcDbBlockBegin
  2
*D46
 70
     1
 10
0.0
 20
0.0
 30
0.0
  3
*D46
  1

  0
LINE
  5
BEF5
330
BDAD
100
AcDbEntity
  8
AM_5
100
AcDbLine
 10
320.726163261075
 20
116.626358426743
 30
0.0
 11
320.726163261075
 21
138.126559426743
 31
0.0
  0
LINE
  5
BEF6
330
BDAD
100
AcDbEntity
  8
AM_5
100
AcDbLine
 10
340.826173261075
 20
116.626358426743
 30
0.0
 11
340.826173261075
 21
138.126559426743
 31
0.0
  0
LINE
  5
BEF7
330
BDAD
100
AcDbEntity
  8
AM_5
100
AcDbLine
 10
321.726163261075
 20
137.126559426743
 30
0.0
 11
339.826173261075
 21
137.126559426743
 31
0.0
  0
INSERT
  5
BEF8
330
BDAD
100
AcDbEntity
  8
AM_5
100
AcDbBlockReference
  2
_Dot
 10
320.726163261075
 20
137.126559426743
 30
0.0
 50
180.0
  0
INSERT
  5
BEF9
330
BDAD
100
AcDbEntity
  8
AM_5
100
AcDbBlockReference
  2
_Dot
 10
340.826173261075
 20
137.126559426743
 30
0.0
  0
MTEXT
  5
BEFA
330
BDAD
100
AcDbEntity
  8
AM_5
 62
     2
100
AcDbMText
 10
330.776168261075
 20
140.226559426743
 30
0.0
 40
3.200000000000001
 41
0.0
 71
     5
 72
     1
  1
20.1
 73
     1
 44
1.0
1001
ACAD
1000
MTEXTBEGIN
1070
    73
1070
     1
1070
    44
1040
1.0
1070
    74
1070
     0
1000
MTEXTEND
  0
POINT
  5
BEFB
330
BDAD
100
AcDbEntity
  8
Defpoints
 62
     0
100
AcDbPoint
 10
320.726163261075
 20
115.626358426743
 30
0.0
  0
POINT
  5
BEFC
330
BDAD
100
AcDbEntity
  8
Defpoints
 62
     0
100
AcDbPoint
 10
340.826173261075
 20
115.626358426743
 30
0.0
  0
POINT
  5
BEFD
330
BDAD
100
AcDbEntity
  8
Defpoints
 62
     0
100
AcDbPoint
 10
340.826173261075
 20
137.126559426743
 30
0.0
  0
ENDBLK
  5
BDAF
330
BDAD
100
AcDbEntity
  8
0
100
AcDbBlockEnd
  0
BLOCK
  5
BDD6
330
BDD5
100
AcDbEntity
  8
0
100
AcDbBlockBegin
  2
*D47
 70
     1
 10
0.0
 20
0.0
 30
0.0
  3
*D47
  1

  0
LINE
  5
BEFE
330
BDD5
100
AcDbEntity
  8
AM_5
100
AcDbLine
 10
331.776170261075
 20
83.12635842674305
 30
0.0
 11
353.8261732610751
 21
83.12635842674302
 31
0.0
  0
LINE
  5
BEFF
330
BDD5
100
AcDbEntity
  8
AM_5
100
AcDbLine
 10
341.826173261075
 20
93.12635842674305
 30
0.0
 11
353.8261732610751
 21
93.12635842674305
 31
0.0
  0
LINE
  5
BF00
330
BDD5
100
AcDbEntity
  8
AM_5
100
AcDbLine
 10
352.826173261075
 20
84.12635842674303
 30
0.0
 11
352.826173261075
 21
92.12635842674306
 31
0.0
  0
INSERT
  5
BF01
330
BDD5
100
AcDbEntity
  8
AM_5
100
AcDbBlockReference
  2
_Dot
 10
352.826173261075
 20
83.12635842674302
 30
0.0
 50
270.0
  0
INSERT
  5
BF02
330
BDD5
100
AcDbEntity
  8
AM_5
100
AcDbBlockReference
  2
_Dot
 10
352.826173261075
 20
93.12635842674305
 30
0.0
 50
90.0
  0
MTEXT
  5
BF03
330
BDD5
100
AcDbEntity
  8
AM_5
 62
     2
100
AcDbMText
 10
349.726173261075
 20
88.12635842674309
 30
0.0
 40
3.200000000000001
 41
0.0
 71
     5
 72
     1
  1
10
 11
0.0000000000000001
 21
1.0
 31
0.0
 73
     1
 44
1.0
1001
ACAD
1000
MTEXTBEGIN
1070
    73
1070
     1
1070
    44
1040
1.0
1070
    74
1070
     0
1000
MTEXTEND
  0
POINT
  5
BF04
330
BDD5
100
AcDbEntity
  8
Defpoints
 62
     0
100
AcDbPoint
 10
330.7761702610751
 20
83.12635842674305
 30
0.0
  0
POINT
  5
BF05
330
BDD5
100
AcDbEntity
  8
Defpoints
 62
     0
100
AcDbPoint
 10
340.826173261075
 20
93.12635842674305
 30
0.0
  0
POINT
  5
BF06
330
BDD5
100
AcDbEntity
  8
Defpoints
 62
     0
100
AcDbPoint
 10
352.826173261075
 20
93.12635842674305
 30
0.0
  0
ENDBLK
  5
BDD7
330
BDD5
100
AcDbEntity
  8
0
100
AcDbBlockEnd
  0
BLOCK
  5
BE50
330
BE4F
100
AcDbEntity
  8
0
100
AcDbBlockBegin
  2
*D48
 70
     1
 10
0.0
 20
0.0
 30
0.0
  3
*D48
  1

  0
LINE
  5
BF10
330
BE4F
100
AcDbEntity
  8
AM_5
100
AcDbLine
 10
337.776170261075
 20
79.12635842674305
 30
0.0
 11
337.776170261075
 21
67.12635842674306
 31
0.0
  0
LINE
  5
BF11
330
BE4F
100
AcDbEntity
  8
AM_5
100
AcDbLine
 10
323.776166261075
 20
79.12635842674305
 30
0.0
 11
323.776166261075
 21
67.12635842674306
 31
0.0
  0
LINE
  5
BF12
330
BE4F
100
AcDbEntity
  8
AM_5
100
AcDbLine
 10
336.776170261075
 20
68.12635842674305
 30
0.0
 11
324.776166261075
 21
68.12635842674305
 31
0.0
  0
INSERT
  5
BF13
330
BE4F
100
AcDbEntity
  8
AM_5
100
AcDbBlockReference
  2
_Dot
 10
337.776170261075
 20
68.12635842674305
 30
0.0
  0
INSERT
  5
BF14
330
BE4F
100
AcDbEntity
  8
AM_5
100
AcDbBlockReference
  2
_Dot
 10
323.776166261075
 20
68.12635842674305
 30
0.0
 50
180.0
  0
MTEXT
  5
BF15
330
BE4F
100
AcDbEntity
  8
AM_5
 62
     2
100
AcDbMText
 10
330.776168261075
 20
71.22635842674305
 30
0.0
 40
3.200000000000001
 41
0.0
 71
     5
 72
     1
  1
14
 73
     1
 44
1.0
1001
ACAD
1000
MTEXTBEGIN
1070
    73
1070
     1
1070
    44
1040
1.0
1070
    74
1070
     0
1000
MTEXTEND
  0
POINT
  5
BF16
330
BE4F
100
AcDbEntity
  8
Defpoints
 62
     0
100
AcDbPoint
 10
337.776170261075
 20
80.12635842674304
 30
0.0
  0
POINT
  5
BF17
330
BE4F
100
AcDbEntity
  8
Defpoints
 62
     0
100
AcDbPoint
 10
323.776166261075
 20
80.12635842674304
 30
0.0
  0
POINT
  5
BF18
330
BE4F
100
AcDbEntity
  8
Defpoints
 62
     0
100
AcDbPoint
 10
323.776166261075
 20
68.12635842674305
 30
0.0
  0
ENDBLK
  5
BE51
330
BE4F
100
AcDbEntity
  8
0
100
AcDbBlockEnd
  0
BLOCK
  5
BE78
330
BE77
100
AcDbEntity
  8
0
100
AcDbBlockBegin
  2
*D49
 70
     1
 10
0.0
 20
0.0
 30
0.0
  3
*D49
  1

  0
LINE
  5
BF19
330
BE77
100
AcDbEntity
  8
AM_5
100
AcDbLine
 10
312.5378887667311
 20
68.16001689368818
 30
0.0
 11
321.5045554333979
 21
68.16001689368818
 31
0.0
  0
LINE
  5
BF1A
330
BE77
100
AcDbEntity
  8
AM_5
100
AcDbLine
 10
321.5045554333979
 20
68.16001689368818
 30
0.0
 11
331.7193122731035
 21
80.79275593409082
 31
0.0
  0
MTEXT
  5
BF1B
330
BE77
100
AcDbEntity
  8
AM_5
 62
     2
100
AcDbMText
 10
316.2712221000644
 20
71.41001689368818
 30
0.0
 40
3.5
 41
0.0
 71
     5
 72
     1
  1
R3.5
 73
     1
 44
1.0
1001
ACAD
1000
MTEXTBEGIN
1070
    73
1070
     1
1070
    44
1040
1.0
1070
    74
1070
     0
1000
MTEXTEND
  0
INSERT
  5
BF1C
330
BE77
100
AcDbEntity
  8
AM_5
100
AcDbBlockReference
  2
_OPEN30
 10
332.976834955808
 20
82.34795261055444
 30
0.0
 41
2.0
 42
2.0
 43
2.0
 50
51.04120444350009
  0
POINT
  5
BF1D
330
BE77
100
AcDbEntity
  8
Defpoints
 62
     0
100
AcDbPoint
 10
332.976834955808
 20
82.34795261055444
 30
0.0
  0
POINT
  5
BF1E
330
BE77
100
AcDbEntity
  8
Defpoints
 62
     0
100
AcDbPoint
 10
330.7761702610751
 20
79.62635842674308
 30
0.0
  0
ENDBLK
  5
BE79
330
BE77
100
AcDbEntity
  8
0
100
AcDbBlockEnd
  0
ENDSEC
  0
SECTION
  2
ENTITIES
  0
POINT
  5
B857
330
1F
100
AcDbEntity
  8
AM_7
100
AcDbPoint
 10
201.353340261075
 20
102.626358426743
 30
0.0
  0
POINT
  5
B85A
330
1F
100
AcDbEntity
  8
0
  6
Continuous
 62
     3
100
AcDbPoint
 10
151.353320261075
 20
194.272758426743
 30
0.0
  0
POINT
  5
B85B
330
1F
100
AcDbEntity
  8
0
  6
Continuous
 62
     3
100
AcDbPoint
 10
160.353320261075
 20
197.322858426743
 30
0.0
  0
POINT
  5
B85D
330
1F
100
AcDbEntity
  8
0
  6
Continuous
 62
     3
100
AcDbPoint
 10
160.353320261075
 20
197.322858426743
 30
0.0
  0
POINT
  5
B85E
330
1F
100
AcDbEntity
  8
0
  6
Continuous
 62
     3
100
AcDbPoint
 10
242.353320261075
 20
197.322858426743
 30
0.0
  0
POINT
  5
B860
330
1F
100
AcDbEntity
  8
0
  6
Continuous
 62
     3
100
AcDbPoint
 10
242.353320261075
 20
197.322858426743
 30
0.0
  0
POINT
  5
B861
330
1F
100
AcDbEntity
  8
0
  6
Continuous
 62
     3
100
AcDbPoint
 10
251.353320261075
 20
194.272758426743
 30
0.0
  0
POINT
  5
B863
330
1F
100
AcDbEntity
  8
0
  6
Continuous
 62
     3
100
AcDbPoint
 10
151.353320261075
 20
194.272758426743
 30
0.0
  0
POINT
  5
B864
330
1F
100
AcDbEntity
  8
0
  6
Continuous
 62
     3
100
AcDbPoint
 10
251.353320261075
 20
194.272758426743
 30
0.0
  0
POINT
  5
B866
330
1F
100
AcDbEntity
  8
0
  6
Continuous
 62
     3
100
AcDbPoint
 10
151.353320261075
 20
93.12635842674305
 30
0.0
  0
POINT
  5
B867
330
1F
100
AcDbEntity
  8
AM_0
100
AcDbPoint
 10
171.353320261075
 20
96.62635842674305
 30
0.0
  0
POINT
  5
B869
330
1F
100
AcDbEntity
  8
AM_0
100
AcDbPoint
 10
171.353320261075
 20
96.62635842674305
 30
0.0
  0
POINT
  5
B86A
330
1F
100
AcDbEntity
  8
0
  6
Continuous
 62
     3
100
AcDbPoint
 10
231.353320261075
 20
96.62635842674305
 30
0.0
  0
POINT
  5
B86C
330
1F
100
AcDbEntity
  8
0
  6
Continuous
 62
     3
100
AcDbPoint
 10
231.353320261075
 20
96.62635842674305
 30
0.0
  0
POINT
  5
B86D
330
1F
100
AcDbEntity
  8
0
  6
Continuous
 62
     3
100
AcDbPoint
 10
251.353320261075
 20
93.12635842674305
 30
0.0
  0
POINT
  5
B86F
330
1F
100
AcDbEntity
  8
0
  6
Continuous
 62
     3
100
AcDbPoint
 10
251.353320261075
 20
93.12635842674305
 30
0.0
  0
POINT
  5
B870
330
1F
100
AcDbEntity
  8
0
  6
Continuous
 62
     3
100
AcDbPoint
 10
251.353320261075
 20
88.12635842674305
 30
0.0
  0
POINT
  5
B872
330
1F
100
AcDbEntity
  8
AM_0
100
AcDbPoint
 10
320.726163261075
 20
115.626358426743
 30
0.0
  0
POINT
  5
B873
330
1F
100
AcDbEntity
  8
AM_0
100
AcDbPoint
 10
340.826173261075
 20
115.626358426743
 30
0.0
  0
POINT
  5
B875
330
1F
100
AcDbEntity
  8
AM_0
100
AcDbPoint
 10
330.776166261075
 20
122.126358426743
 30
0.0
  0
POINT
  5
B876
330
1F
100
AcDbEntity
  8
AM_0
100
AcDbPoint
 10
330.776166261075
 20
83.12635842674305
 30
0.0
  0
POINT
  5
B878
330
1F
100
AcDbEntity
  8
AM_0
100
AcDbPoint
 10
323.776166261075
 20
125.126358426743
 30
0.0
  0
POINT
  5
B879
330
1F
100
AcDbEntity
  8
AM_0
100
AcDbPoint
 10
323.776166261075
 20
80.12635842674304
 30
0.0
  0
POINT
  5
B87C
330
1F
100
AcDbEntity
  8
AM_0
100
AcDbPoint
 10
330.7761702610751
 20
79.62635842674306
 30
0.0
  0
POINT
  5
B87D
330
1F
100
AcDbEntity
  8
AM_0
100
AcDbPoint
 10
323.776166261075
 20
80.12635842674304
 30
0.0
  0
POINT
  5
B87E
330
1F
100
AcDbEntity
  8
AM_0
100
AcDbPoint
 10
337.776170261075
 20
80.12635842674304
 30
0.0
  0
POINT
  5
B880
330
1F
100
AcDbEntity
  8
AM_0
100
AcDbPoint
 10
340.826173261075
 20
93.12635842674305
 30
0.0
  0
POINT
  5
B881
330
1F
100
AcDbEntity
  8
AM_0
100
AcDbPoint
 10
330.776166261075
 20
83.12635842674305
 30
0.0
  0
POINT
  5
B884
330
1F
100
AcDbEntity
  8
AM_0
100
AcDbPoint
 10
330.776166261075
 20
83.12635842674305
 30
0.0
  0
LINE
  5
B88F
330
1F
100
AcDbEntity
  8
AM_0
100
AcDbLine
 10
171.353320261075
 20
96.62635842674305
 30
0.0
 11
193.628740261075
 21
113.0825584267431
 31
0.0
  0
LINE
  5
B890
330
1F
100
AcDbEntity
  8
AM_7
100
AcDbLine
 10
173.956980261075
 20
102.626358426743
 30
0.0
 11
227.878070261075
 21
102.626358426743
 31
0.0
  0
LINE
  5
B891
330
1F
100
AcDbEntity
  8
AM_0
100
AcDbLine
 10
151.353320261075
 20
88.12635842674305
 30
0.0
 11
178.8533202610749
 21
88.12635842674305
 31
0.0
  0
LINE
  5
B892
330
1F
100
AcDbEntity
  8
AM_0
100
AcDbLine
 10
151.353320261075
 20
93.12635842674305
 30
0.0
 11
151.353320261075
 21
88.12635842674305
 31
0.0
  0
LINE
  5
B897
330
1F
100
AcDbEntity
  8
AM_0
100
AcDbLine
 10
151.353320261075
 20
93.12635842674305
 30
0.0
 11
171.353320261075
 21
93.12635842674305
 31
0.0
  0
LINE
  5
B898
330
1F
100
AcDbEntity
  8
AM_0
100
AcDbLine
 10
171.353320261075
 20
96.62635842674305
 30
0.0
 11
171.353320261075
 21
93.12635842674305
 31
0.0
  0
LINE
  5
B89A
330
1F
100
AcDbEntity
  8
AM_0
100
AcDbLine
 10
231.353320261075
 20
93.12635842674305
 30
0.0
 11
251.353320261075
 21
93.12635842674305
 31
0.0
  0
LINE
  5
B89B
330
1F
100
AcDbEntity
  8
AM_0
100
AcDbLine
 10
223.853320261075
 20
88.12635842674305
 30
0.0
 11
251.353320261075
 21
88.12635842674305
 31
0.0
  0
LINE
  5
B89C
330
1F
100
AcDbEntity
  8
AM_7
100
AcDbLine
 10
201.353320261075
 20
128.126358426743
 30
0.0
 11
201.353320261075
 21
77.12635842674306
 31
0.0
  0
LINE
  5
B89D
330
1F
100
AcDbEntity
  8
AM_0
100
AcDbLine
 10
178.8533202610749
 20
90.426458426743
 30
0.0
 11
223.853320261075
 21
90.426458426743
 31
0.0
  0
LINE
  5
B89E
330
1F
100
AcDbEntity
  8
AM_0
100
AcDbLine
 10
178.8533202610749
 20
90.426458426743
 30
0.0
 11
178.8533202610749
 21
88.12635842674305
 31
0.0
  0
LINE
  5
B89F
330
1F
100
AcDbEntity
  8
AM_0
100
AcDbLine
 10
223.853320261075
 20
90.426458426743
 30
0.0
 11
223.853320261075
 21
88.12635842674305
 31
0.0
  0
LINE
  5
B8A3
330
1F
100
AcDbEntity
  8
AM_0
100
AcDbLine
 10
231.353310261075
 20
96.62635842674305
 30
0.0
 11
209.077820261075
 21
113.0825584267431
 31
0.0
  0
LINE
  5
B8A4
330
1F
100
AcDbEntity
  8
AM_0
100
AcDbLine
 10
231.353320261075
 20
96.62635842674305
 30
0.0
 11
231.353320261075
 21
93.12635842674305
 31
0.0
  0
LINE
  5
B8A6
330
1F
100
AcDbEntity
  8
AM_0
100
AcDbLine
 10
251.353320261075
 20
93.12635842674305
 30
0.0
 11
251.353320261075
 21
88.12635842674305
 31
0.0
  0
LINE
  5
B8AD
330
1F
100
AcDbEntity
  8
AM_0
100
AcDbLine
 10
151.353320261075
 20
196.5728584267431
 30
0.0
 11
251.353320261075
 21
196.5728584267431
 31
0.0
  0
LINE
  5
B8AE
330
1F
100
AcDbEntity
  8
AM_0
100
AcDbLine
 10
151.353320261075
 20
212.0726584267431
 30
0.0
 11
251.353320261075
 21
212.0726584267431
 31
0.0
  0
LINE
  5
B8AF
330
1F
100
AcDbEntity
  8
AM_0
100
AcDbLine
 10
151.353320261075
 20
194.272758426743
 30
0.0
 11
251.353320261075
 21
194.272758426743
 31
0.0
  0
LINE
  5
B8B0
330
1F
100
AcDbEntity
  8
AM_0
100
AcDbLine
 10
151.353320261075
 20
214.3727584267431
 30
0.0
 11
251.353320261075
 21
214.3727584267431
 31
0.0
  0
LINE
  5
B8B1
330
1F
100
AcDbEntity
  8
AM_7
100
AcDbLine
 10
148.353320261075
 20
204.3228584267431
 30
0.0
 11
254.3533202610749
 21
204.3228584267431
 31
0.0
  0
LINE
  5
B8B2
330
1F
100
AcDbEntity
  8
AM_7
 48
0.6
100
AcDbLine
 10
160.353320261075
 20
211.3228584267431
 30
0.0
 11
160.353320261075
 21
197.322858426743
 31
0.0
  0
LINE
  5
B8B3
330
1F
100
AcDbEntity
  8
AM_0
100
AcDbLine
 10
151.353320261075
 20
214.3727584267431
 30
0.0
 11
151.353320261075
 21
194.272758426743
 31
0.0
  0
LINE
  5
B8B4
330
1F
100
AcDbEntity
  8
AM_0
100
AcDbLine
 10
171.353320261075
 20
196.5726584267431
 30
0.0
 11
171.353320261075
 21
194.272758426743
 31
0.0
  0
LINE
  5
B8B5
330
1F
100
AcDbEntity
  8
AM_0
100
AcDbLine
 10
171.353320261075
 20
214.3727584267431
 30
0.0
 11
171.353320261075
 21
212.0726584267431
 31
0.0
  0
LINE
  5
B8B6
330
1F
100
AcDbEntity
  8
AM_0
100
AcDbLine
 10
223.853320261075
 20
208.322858426743
 30
0.0
 11
223.853320261075
 21
200.3228584267431
 31
0.0
  0
LINE
  5
B8B7
330
1F
100
AcDbEntity
  8
AM_0
100
AcDbLine
 10
178.8533202610749
 20
208.322858426743
 30
0.0
 11
178.8533202610749
 21
200.3228584267431
 31
0.0
  0
LINE
  5
B8B8
330
1F
100
AcDbEntity
  8
AM_0
100
AcDbLine
 10
223.853340261075
 20
208.322858426743
 30
0.0
 11
222.337910261075
 21
206.7563584267429
 31
0.0
  0
LINE
  5
B8B9
330
1F
100
AcDbEntity
  8
AM_7
 48
0.6
100
AcDbLine
 10
242.353320261075
 20
211.3228584267431
 30
0.0
 11
242.353320261075
 21
197.322858426743
 31
0.0
  0
LINE
  5
B8BA
330
1F
100
AcDbEntity
  8
AM_0
100
AcDbLine
 10
251.353320261075
 20
214.3727584267431
 30
0.0
 11
251.353320261075
 21
194.272758426743
 31
0.0
  0
LINE
  5
B8BB
330
1F
100
AcDbEntity
  8
AM_7
100
AcDbLine
 10
201.353320261075
 20
217.372758426743
 30
0.0
 11
201.353320261075
 21
191.2727584267431
 31
0.0
  0
LINE
  5
B8BF
330
1F
100
AcDbEntity
  8
AM_0
100
AcDbLine
 10
193.3533202610749
 20
196.822858426743
 30
0.0
 11
209.353320261075
 21
196.822858426743
 31
0.0
  0
LINE
  5
B8C0
330
1F
100
AcDbEntity
  8
AM_0
100
AcDbLine
 10
178.8533202610749
 20
197.322858426743
 30
0.0
 11
223.853320261075
 21
197.322858426743
 31
0.0
  0
LINE
  5
B8C1
330
1F
100
AcDbEntity
  8
AM_0
100
AcDbLine
 10
178.8533202610749
 20
200.3228584267431
 30
0.0
 11
223.853320261075
 21
200.3228584267431
 31
0.0
  0
LINE
  5
B8C2
330
1F
100
AcDbEntity
  8
AM_0
100
AcDbLine
 10
178.8532502610749
 20
200.3228584267431
 30
0.0
 11
180.4532502610749
 21
201.5227584267431
 31
0.0
  0
LINE
  5
B8C3
330
1F
100
AcDbEntity
  8
AM_0
100
AcDbLine
 10
178.8533202610749
 20
200.3226584267431
 30
0.0
 11
178.8533202610749
 21
197.3226584267431
 31
0.0
  0
LINE
  5
B8C4
330
1F
100
AcDbEntity
  8
AM_0
100
AcDbLine
 10
198.3533202610749
 20
196.8226584267431
 30
0.0
 11
198.3533202610749
 21
196.5726584267431
 31
0.0
  0
LINE
  5
B8C5
330
1F
100
AcDbEntity
  8
AM_0
100
AcDbLine
 10
204.3533202610749
 20
196.8226584267431
 30
0.0
 11
204.3533202610749
 21
196.5726584267431
 31
0.0
  0
LINE
  5
B8C6
330
1F
100
AcDbEntity
  8
AM_0
100
AcDbLine
 10
231.353320261075
 20
196.5726584267431
 30
0.0
 11
231.353320261075
 21
194.272758426743
 31
0.0
  0
LINE
  5
B8C7
330
1F
100
AcDbEntity
  8
AM_0
100
AcDbLine
 10
223.853370261075
 20
200.3226584267431
 30
0.0
 11
222.337850261075
 21
201.8890584267431
 31
0.0
  0
LINE
  5
B8C8
330
1F
100
AcDbEntity
  8
AM_0
100
AcDbLine
 10
223.853320261075
 20
200.3226584267431
 30
0.0
 11
223.853320261075
 21
197.3226584267431
 31
0.0
  0
LINE
  5
B8C9
330
1F
100
AcDbEntity
  8
AM_0
100
AcDbLine
 10
193.3533202610749
 20
211.8228584267431
 30
0.0
 11
209.353320261075
 21
211.8228584267431
 31
0.0
  0
LINE
  5
B8CA
330
1F
100
AcDbEntity
  8
AM_0
100
AcDbLine
 10
178.8533202610749
 20
211.3228584267431
 30
0.0
 11
223.853320261075
 21
211.3228584267431
 31
0.0
  0
LINE
  5
B8CB
330
1F
100
AcDbEntity
  8
AM_0
100
AcDbLine
 10
178.8533202610749
 20
208.322858426743
 30
0.0
 11
223.853320261075
 21
208.322858426743
 31
0.0
  0
LINE
  5
B8CC
330
1F
100
AcDbEntity
  8
AM_0
100
AcDbLine
 10
178.853380261075
 20
208.322858426743
 30
0.0
 11
180.453390261075
 21
207.122858426743
 31
0.0
  0
LINE
  5
B8CD
330
1F
100
AcDbEntity
  8
AM_0
100
AcDbLine
 10
178.8533202610749
 20
211.3226584267431
 30
0.0
 11
178.8533202610749
 21
208.3226584267431
 31
0.0
  0
LINE
  5
B8CE
330
1F
100
AcDbEntity
  8
AM_0
100
AcDbLine
 10
198.3533202610749
 20
212.0726584267431
 30
0.0
 11
198.3533202610749
 21
211.8226584267431
 31
0.0
  0
LINE
  5
B8CF
330
1F
100
AcDbEntity
  8
AM_0
100
AcDbLine
 10
204.3533202610749
 20
212.0726584267431
 30
0.0
 11
204.3533202610749
 21
211.8226584267431
 31
0.0
  0
LINE
  5
B8D0
330
1F
100
AcDbEntity
  8
AM_0
100
AcDbLine
 10
223.853320261075
 20
211.3226584267431
 30
0.0
 11
223.853320261075
 21
208.3226584267431
 31
0.0
  0
LINE
  5
B8D1
330
1F
100
AcDbEntity
  8
AM_0
100
AcDbLine
 10
231.353320261075
 20
214.3727584267431
 30
0.0
 11
231.353320261075
 21
212.0726584267431
 31
0.0
  0
LINE
  5
B8D2
330
1F
100
AcDbEntity
  8
AM_0
100
AcDbLine
 10
338.526170261075
 20
115.626358426743
 30
0.0
 11
338.526170261075
 21
90.426458426743
 31
0.0
  0
LINE
  5
B8D3
330
1F
100
AcDbEntity
  8
AM_0
100
AcDbLine
 10
323.026166261075
 20
115.626358426743
 30
0.0
 11
323.026166261075
 21
90.426458426743
 31
0.0
  0
LINE
  5
B8D4
330
1F
100
AcDbEntity
  8
AM_0
100
AcDbLine
 10
340.826173261075
 20
115.626358426743
 30
0.0
 11
340.826173261075
 21
90.426458426743
 31
0.0
  0
LINE
  5
B8D5
330
1F
100
AcDbEntity
  8
AM_0
100
AcDbLine
 10
320.726163261075
 20
115.626358426743
 30
0.0
 11
320.726163261075
 21
90.426458426743
 31
0.0
  0
LINE
  5
B8D6
330
1F
100
AcDbEntity
  8
AM_0
100
AcDbLine
 10
334.776170261075
 20
125.126358426743
 30
0.0
 11
334.776170261075
 21
90.426458426743
 31
0.0
  0
LINE
  5
B8D7
330
1F
100
AcDbEntity
  8
AM_0
100
AcDbLine
 10
326.7761702610751
 20
125.126358426743
 30
0.0
 11
326.7761702610751
 21
90.426458426743
 31
0.0
  0
LINE
  5
B8D8
330
1F
100
AcDbEntity
  8
AM_0
100
AcDbLine
 10
337.776170261075
 20
125.126358426743
 30
0.0
 11
337.776170261075
 21
90.426458426743
 31
0.0
  0
LINE
  5
B8D9
330
1F
100
AcDbEntity
  8
AM_0
100
AcDbLine
 10
323.776166261075
 20
125.126358426743
 30
0.0
 11
323.776166261075
 21
90.426458426743
 31
0.0
  0
LINE
  5
B8DA
330
1F
100
AcDbEntity
  8
AM_7
100
AcDbLine
 10
330.7761702610751
 20
128.126358426743
 30
0.0
 11
330.7761702610751
 21
77.12635842674306
 31
0.0
  0
LINE
  5
B8DB
330
1F
100
AcDbEntity
  8
AM_0
100
AcDbLine
 10
323.026166261075
 20
90.426458426743
 30
0.0
 11
338.526170261075
 21
90.426458426743
 31
0.0
  0
LINE
  5
B8DC
330
1F
100
AcDbEntity
  8
AM_0
100
AcDbLine
 10
323.026166261075
 20
88.12635842674305
 30
0.0
 11
338.526170261075
 21
88.12635842674305
 31
0.0
  0
LINE
  5
B8DD
330
1F
100
AcDbEntity
  8
AM_0
100
AcDbLine
 10
323.776166261075
 20
80.12635842674304
 30
0.0
 11
326.7761702610751
 21
80.12635842674304
 31
0.0
  0
LINE
  5
B8DE
330
1F
100
AcDbEntity
  8
AM_0
100
AcDbLine
 10
323.776166261075
 20
88.12635842674305
 30
0.0
 11
323.776166261075
 21
80.12635842674304
 31
0.0
  0
LINE
  5
B8DF
330
1F
100
AcDbEntity
  8
AM_0
100
AcDbLine
 10
334.776143261075
 20
80.126558426743
 30
0.0
 11
333.5761392610749
 21
81.72645842674294
 31
0.0
  0
LINE
  5
B8E0
330
1F
100
AcDbEntity
  8
AM_0
100
AcDbLine
 10
326.7761472610752
 20
80.126558426743
 30
0.0
 11
327.9761522610749
 21
81.72645842674294
 31
0.0
  0
LINE
  5
B8E1
330
1F
100
AcDbEntity
  8
AM_0
100
AcDbLine
 10
337.776170261075
 20
88.12635842674305
 30
0.0
 11
337.776170261075
 21
80.12635842674304
 31
0.0
  0
LINE
  5
B8E2
330
1F
100
AcDbEntity
  8
AM_0
100
AcDbLine
 10
334.776170261075
 20
88.12635842674305
 30
0.0
 11
334.776170261075
 21
80.12635842674304
 31
0.0
  0
LINE
  5
B8E3
330
1F
100
AcDbEntity
  8
AM_0
100
AcDbLine
 10
326.7761702610751
 20
88.12635842674305
 30
0.0
 11
326.7761702610751
 21
80.12635842674304
 31
0.0
  0
LINE
  5
B8E4
330
1F
100
AcDbEntity
  8
AM_0
100
AcDbLine
 10
334.776170261075
 20
80.12635842674304
 30
0.0
 11
337.776170261075
 21
80.12635842674304
 31
0.0
  0
LINE
  5
B8EA
330
1F
100
AcDbEntity
  8
AM_7
100
AcDbLine
 10
317.726163261075
 20
102.626358426743
 30
0.0
 11
343.826173261075
 21
102.626358426743
 31
0.0
  0
LINE
  5
B8EB
330
1F
100
AcDbEntity
  8
AM_0
100
AcDbLine
 10
323.776166261075
 20
125.126358426743
 30
0.0
 11
326.7761702610751
 21
125.126358426743
 31
0.0
  0
LINE
  5
B8EC
330
1F
100
AcDbEntity
  8
AM_0
100
AcDbLine
 10
323.276166261075
 20
110.626358426743
 30
0.0
 11
323.276166261075
 21
94.62635842674307
 31
0.0
  0
LINE
  5
B8EE
330
1F
100
AcDbEntity
  8
AM_0
100
AcDbLine
 10
323.026166261075
 20
99.62635842674307
 30
0.0
 11
323.276166261075
 21
99.62635842674307
 31
0.0
  0
LINE
  5
B8EF
330
1F
100
AcDbEntity
  8
AM_0
100
AcDbLine
 10
323.026166261075
 20
105.626358426743
 30
0.0
 11
323.276166261075
 21
105.626358426743
 31
0.0
  0
LINE
  5
B8F0
330
1F
100
AcDbEntity
  8
AM_0
100
AcDbLine
 10
320.726163261075
 20
115.626358426743
 30
0.0
 11
323.026166261075
 21
115.626358426743
 31
0.0
  0
LINE
  5
B8F1
330
1F
100
AcDbEntity
  8
AM_0
100
AcDbLine
 10
338.276170261075
 20
110.626358426743
 30
0.0
 11
338.276170261075
 21
94.62635842674307
 31
0.0
  0
LINE
  5
B8F2
330
1F
100
AcDbEntity
  8
AM_0
100
AcDbLine
 10
338.526170261075
 20
93.12635842674305
 30
0.0
 11
340.826173261075
 21
93.12635842674305
 31
0.0
  0
LINE
  5
B8F3
330
1F
100
AcDbEntity
  8
AM_0
100
AcDbLine
 10
338.276170261075
 20
99.62635842674307
 30
0.0
 11
338.526170261075
 21
99.62635842674307
 31
0.0
  0
LINE
  5
B8F5
330
1F
100
AcDbEntity
  8
AM_0
100
AcDbLine
 10
338.276170261075
 20
105.626358426743
 30
0.0
 11
338.526170261075
 21
105.626358426743
 31
0.0
  0
LINE
  5
B8F6
330
1F
100
AcDbEntity
  8
AM_0
100
AcDbLine
 10
338.526170261075
 20
115.626358426743
 30
0.0
 11
340.826173261075
 21
115.626358426743
 31
0.0
  0
LINE
  5
B8F7
330
1F
100
AcDbEntity
  8
AM_0
100
AcDbLine
 10
326.776128261075
 20
125.126558426743
 30
0.0
 11
327.976125261075
 21
123.5265584267431
 31
0.0
  0
LINE
  5
B8F8
330
1F
100
AcDbEntity
  8
AM_0
100
AcDbLine
 10
334.776170261075
 20
125.126358426743
 30
0.0
 11
337.776170261075
 21
125.126358426743
 31
0.0
  0
LINE
  5
B8F9
330
1F
100
AcDbEntity
  8
AM_0
100
AcDbLine
 10
334.776212261075
 20
125.126558426743
 30
0.0
 11
333.576215261075
 21
123.5265584267431
 31
0.0
  0
LINE
  5
B8FA
330
1F
100
AcDbEntity
  8
AM_0
100
AcDbLine
 10
11.50000000000002
 20
288.5
 30
0.0
 11
121.5
 21
288.5
 31
0.0
  0
LINE
  5
B8FB
330
1F
100
AcDbEntity
  8
AM_0
100
AcDbLine
 10
11.50000000000002
 20
288.5
 30
0.0
 11
11.50000000000002
 21
216.5
 31
0.0
  0
LINE
  5
B8FC
330
1F
100
AcDbEntity
  8
AM_2
100
AcDbLine
 10
31.50000000000003
 20
288.5
 30
0.0
 11
31.50000000000003
 21
208.5
 31
0.0
  0
LINE
  5
B8FD
330
1F
100
AcDbEntity
  8
AM_2
100
AcDbLine
 10
11.50000000000002
 20
280.5
 30
0.0
 11
121.5
 21
280.5
 31
0.0
  0
LINE
  5
B8FE
330
1F
100
AcDbEntity
  8
AM_2
100
AcDbLine
 10
11.50000000000002
 20
272.5
 30
0.0
 11
121.5
 21
272.5
 31
0.0
  0
LINE
  5
B8FF
330
1F
100
AcDbEntity
  8
AM_2
100
AcDbLine
 10
11.50000000000002
 20
256.5
 30
0.0
 11
121.5
 21
256.5
 31
0.0
  0
LINE
  5
B903
330
1F
100
AcDbEntity
  8
AM_2
100
AcDbLine
 10
11.50000000000002
 20
224.5
 30
0.0
 11
121.5
 21
224.5
 31
0.0
  0
LINE
  5
B904
330
1F
100
AcDbEntity
  8
AM_2
100
AcDbLine
 10
31.50000000000003
 20
216.5
 30
0.0
 11
121.5
 21
216.5
 31
0.0
  0
LINE
  5
B906
330
1F
100
AcDbEntity
  8
AM_0
100
AcDbLine
 10
11.50000000000002
 20
208.5
 30
0.0
 11
121.5
 21
208.5
 31
0.0
  0
LINE
  5
B907
330
1F
100
AcDbEntity
  8
AM_0
100
AcDbLine
 10
11.50000000000002
 20
288.5
 30
0.0
 11
11.50000000000002
 21
208.5
 31
0.0
  0
LINE
  5
B908
330
1F
100
AcDbEntity
  8
AM_0
100
AcDbLine
 10
11.50000000000002
 20
288.5
 30
0.0
 11
121.5
 21
288.5
 31
0.0
  0
LINE
  5
B909
330
1F
100
AcDbEntity
  8
AM_0
100
AcDbLine
 10
121.5
 20
288.5
 30
0.0
 11
121.5
 21
208.5
 31
0.0
  0
LINE
  5
B90A
330
1F
100
AcDbEntity
  8
AM_2
100
AcDbLine
 10
11.50000000000002
 20
240.5
 30
0.0
 11
121.5
 21
240.5
 31
0.0
  0
LINE
  5
B90B
330
1F
100
AcDbEntity
  8
AM_2
100
AcDbLine
 10
11.50000000000002
 20
232.5
 30
0.0
 11
121.5
 21
232.5
 31
0.0
  0
LINE
  5
B90D
330
1F
100
AcDbEntity
  8
AM_2
100
AcDbLine
 10
31.50000000000003
 20
264.5
 30
0.0
 11
121.5
 21
264.5
 31
0.0
  0
LINE
  5
B90E
330
1F
100
AcDbEntity
  8
AM_2
100
AcDbLine
 10
31.50000000000003
 20
248.5
 30
0.0
 11
121.5
 21
248.5
 31
0.0
  0
ARC
  5
B959
330
1F
100
AcDbEntity
  8
AM_0
100
AcDbCircle
 10
201.353320261075
 20
102.626358426743
 30
0.0
 40
22.5
100
AcDbArc
 50
0.0
 51
181.161099999994
  0
ARC
  5
B95A
330
1F
100
AcDbEntity
  8
AM_0
100
AcDbCircle
 10
201.353320261075
 20
102.626358426743
 30
0.0
 40
22.5
100
AcDbArc
 50
212.8349399999999
 51
327.16506
  0
ARC
  5
B95B
330
1F
100
AcDbEntity
  8
AM_0
100
AcDbCircle
 10
201.353320261075
 20
102.626358426743
 30
0.0
 40
13.0
100
AcDbArc
 50
53.54464100000136
 51
126.4553599999988
  0
CIRCLE
  5
B95C
330
1F
100
AcDbEntity
  8
AM_0
100
AcDbCircle
 10
201.353320261075
 20
102.626358426743
 30
0.0
 40
4.5
  0
CIRCLE
  5
B95D
330
1F
100
AcDbEntity
  8
AM_3
 48
0.8
100
AcDbCircle
 10
160.353320261075
 20
204.3228584267431
 30
0.0
 40
4.0
  0
CIRCLE
  5
B95E
330
1F
100
AcDbEntity
  8
AM_0
100
AcDbCircle
 10
160.353320261075
 20
204.3228584267431
 30
0.0
 40
2.0
  0
CIRCLE
  5
B95F
330
1F
100
AcDbEntity
  8
AM_3
 48
0.8
100
AcDbCircle
 10
242.353320261075
 20
204.3228584267431
 30
0.0
 40
4.0
  0
ARC
  5
B960
330
1F
100
AcDbEntity
  8
AM_0
100
AcDbCircle
 10
178.3533202610749
 20
204.3228584267431
 30
0.0
 40
3.5
100
AcDbArc
 50
306.869300000003
 51
53.13050200000318
  0
ARC
  5
B961
330
1F
100
AcDbEntity
  8
AM_0
100
AcDbCircle
 10
193.3533202610749
 20
197.322858426743
 30
0.0
 40
0.5
100
AcDbArc
 50
180.0
 51
270.0
  0
ARC
  5
B962
330
1F
100
AcDbEntity
  8
AM_0
100
AcDbCircle
 10
224.853320261075
 20
204.3228584267431
 30
0.0
 40
3.5
100
AcDbArc
 50
135.9473099999979
 51
224.052690000002
  0
ARC
  5
B963
330
1F
100
AcDbEntity
  8
AM_0
100
AcDbCircle
 10
209.353320261075
 20
197.322858426743
 30
0.0
 40
0.5
100
AcDbArc
 50
270.0
 51
0.0
  0
CIRCLE
  5
B964
330
1F
100
AcDbEntity
  8
AM_0
100
AcDbCircle
 10
242.353320261075
 20
204.3228584267431
 30
0.0
 40
2.0
  0
ARC
  5
B965
330
1F
100
AcDbEntity
  8
AM_0
100
AcDbCircle
 10
193.3533202610749
 20
211.3228584267431
 30
0.0
 40
0.5
100
AcDbArc
 50
90.0
 51
180.0
  0
ARC
  5
B966
330
1F
100
AcDbEntity
  8
AM_0
100
AcDbCircle
 10
209.353320261075
 20
211.3228584267431
 30
0.0
 40
0.5
100
AcDbArc
 50
0.0
 51
90.0
  0
ARC
  5
B967
330
1F
100
AcDbEntity
  8
AM_0
100
AcDbCircle
 10
323.026166261075
 20
90.426458426743
 30
0.0
 40
2.299999999999998
100
AcDbArc
 50
180.0
 51
270.0
  0
ARC
  5
B968
330
1F
100
AcDbEntity
  8
AM_0
100
AcDbCircle
 10
338.526170261075
 20
90.426458426743
 30
0.0
 40
2.299999999999998
100
AcDbArc
 50
270.0
 51
0.0
  0
ARC
  5
B969
330
1F
100
AcDbEntity
  8
AM_0
100
AcDbCircle
 10
330.7761702610751
 20
79.62635842674306
 30
0.0
 40
3.5
100
AcDbArc
 50
36.86962300000029
 51
143.1304099999991
  0
ARC
  5
B96A
330
1F
100
AcDbEntity
  8
AM_0
100
AcDbCircle
 10
323.776166261075
 20
94.62635842674307
 30
0.0
 40
0.5
100
AcDbArc
 50
180.0
 51
270.0
  0
ARC
  5
B96B
330
1F
100
AcDbEntity
  8
AM_0
100
AcDbCircle
 10
323.776166261075
 20
110.626358426743
 30
0.0
 40
0.5
100
AcDbArc
 50
90.0
 51
180.0
  0
ARC
  5
B96C
330
1F
100
AcDbEntity
  8
AM_0
100
AcDbCircle
 10
337.776170261075
 20
94.62635842674307
 30
0.0
 40
0.5
100
AcDbArc
 50
270.0
 51
0.0
  0
ARC
  5
B96D
330
1F
100
AcDbEntity
  8
AM_0
100
AcDbCircle
 10
337.776170261075
 20
110.626358426743
 30
0.0
 40
0.5
100
AcDbArc
 50
0.0
 51
90.0
  0
ARC
  5
B96E
330
1F
100
AcDbEntity
  8
AM_0
100
AcDbCircle
 10
330.7761702610751
 20
125.626358426743
 30
0.0
 40
3.5
100
AcDbArc
 50
216.8695099999955
 51
323.1304499999973
  0
TEXT
  5
B971
330
1F
100
AcDbEntity
  8
AM_6
100
AcDbText
 10
18.82072292389565
 20
282.9755455536258
 30
0.0
 40
3.2
  1
品　名
 41
0.60999997
100
AcDbText
  0
TEXT
  5
B972
330
1F
100
AcDbEntity
  8
AM_6
100
AcDbText
 10
18.82072292389565
 20
274.9755455536258
 30
0.0
 40
3.2
  1
品　番
 41
0.60999997
100
AcDbText
  0
TEXT
  5
B973
330
1F
100
AcDbEntity
  8
AM_6
100
AcDbText
 10
18.82072292389565
 20
266.9755455536258
 30
0.0
 40
3.2
  1
材　質
 41
0.60999997
100
AcDbText
  0
TEXT
  5
B974
330
1F
100
AcDbEntity
  8
AM_6
100
AcDbText
 10
18.82072292389565
 20
250.9755455536258
 30
0.0
 40
3.2
  1
仕上げ
 41
0.60999997
100
AcDbText
  0
TEXT
  5
B975
330
1F
100
AcDbEntity
  8
AM_6
100
AcDbText
 10
15.62071292389569
 20
226.9755455536258
 30
0.0
 40
3.2
  1
セットビス
 41
0.6099999900000001
100
AcDbText
  0
TEXT
  5
B976
330
1F
100
AcDbEntity
  8
AM_6
100
AcDbText
 10
18.2336124101632
 20
218.9755455536258
 30
0.0
 40
3.2
  1
備　考
 41
0.61
100
AcDbText
  0
TEXT
  5
B978
330
1F
100
AcDbEntity
  8
AM_6
100
AcDbText
 10
17.22071292389571
 20
234.9755455536258
 30
0.0
 40
3.2
  1
左右勝手
 41
0.60999998
100
AcDbText
  0
TEXT
  5
B979
330
1F
100
AcDbEntity
  8
AM_6
100
AcDbText
 10
34.92850000000007
 20
282.9000999999998
 30
0.0
 40
3.2
  1
戸車（フラットレール用）
 41
0.74999997
100
AcDbText
  0
TEXT
  5
B97A
330
1F
100
AcDbEntity
  8
AM_6
100
AcDbText
 10
34.92850999999999
 20
274.9000999999998
 30
0.0
 40
3.2
  1
ST-22
 41
0.75000002
100
AcDbText
  0
TEXT
  5
B97B
330
1F
100
AcDbEntity
  8
AM_6
100
AcDbText
 10
34.92850999999999
 20
266.9000999999998
 30
0.0
 40
3.2
  1
枠：スチール
 41
0.7430340100000002
100
AcDbText
  0
TEXT
  5
B97C
330
1F
100
AcDbEntity
  8
AM_6
100
AcDbText
 10
34.92850999999999
 20
250.9000999999998
 30
0.0
 40
3.2
  1
枠：有色クロメート
 41
0.7500000100000001
100
AcDbText
  0
TEXT
  5
B97D
330
1F
100
AcDbEntity
  8
AM_6
100
AcDbText
 10
34.92849000000004
 20
234.9000999999999
 30
0.0
 40
3.2
  1
無し
 41
0.74999999
100
AcDbText
  0
TEXT
  5
B97E
330
1F
100
AcDbEntity
  8
AM_6
100
AcDbText
 10
34.92850000000007
 20
218.9000999999998
 30
0.0
 40
3.2
  1
軸受：DUドライベアリング
 41
0.7310924
100
AcDbText
  0
TEXT
  5
B97F
330
1F
100
AcDbEntity
  8
AM_6
100
AcDbText
 10
34.92850999999999
 20
258.9000999999998
 30
0.0
 40
3.2
  1
車：ポリアセタール樹脂
 41
0.74923157
100
AcDbText
  0
TEXT
  5
B980
330
1F
100
AcDbEntity
  8
AM_6
100
AcDbText
 10
34.92849000000004
 20
242.9000999999999
 30
0.0
 40
3.2
  1
車：生地
 41
0.7499999800000002
100
AcDbText
  0
TEXT
  5
B990
330
1F
100
AcDbEntity
  8
0
  6
Continuous
 62
     2
100
AcDbText
 10
234.093610261075
 20
68.66405842674314
 30
0.0
 40
3.2
  1
枠 t=2.3
 41
0.92486402
100
AcDbText
  0
POINT
  5
BA5B
330
1F
100
AcDbEntity
  8
0
 60
     1
100
AcDbPoint
 10
0.0
 20
0.0
 30
0.0
1001
GENIUS_GENODEF_13
1002
{
1000
HIER
1070
     1
1002
}
1002
{
1000
MANEDIT
1070
     0
1002
}
1002
{
1000
NOSEL
1070
     0
1002
}
1002
{
1000
BEHIND
1070
     0
1002
}
1002
{
1000
OTHER
1070
     0
1002
}
1002
{
1000
REACTOR
1002
}
1001
GENIUS_GENOENT_13
1002
{
1000
MYREF
1005
BA5B
1002
}
1002
{
1000
GRP
1005
0
1002
}
1001
GENIUS_GENOLIS_13
1002
{
1000
ENT
1005
BA4C
1005
B9DA
1002
}
1001
GENIUS_GENOBJ-N-TIT_13
1002
{
1000
OWNER
1000
GEN
1002
}
1001
GENIUS_GENTITLE_13
1002
{
1000
BORDER
1000
X:\図面\000 共通使用ファイル（テンプレート等）\002 SYS図枠13\AIS2008\SYS図枠A3(AIS2008)
1002
}
1002
{
1000
TITLE
1000
X:\図面\000 共通使用ファイル（テンプレート等）\002 SYS図枠13\AIS2008\SYS表題(AIS2008)
1002
}
1002
{
1000
SCALE
1000
1:1
1002
}
1002
{
1000
TITLESTD
1000
SYS
1002
}
1002
{
1000
HRA
1005
B9DA
1002
}
1002
{
1000
HTIT
1005
BA4C
1002
}
1002
{
1000
INVTXTID
1005
0
1002
}
1002
{
1000
UNCHG
1002
{
1000
GEN-TITLE-SIZ
1000
GEN-TITLE-SCA
1002
}
1002
}
1002
{
1000
GENIUSID
1005
BA5B
1002
}
  0
TEXT
  5
BA5C
330
1F
100
AcDbEntity
  8
AM_6
 60
     1
100
AcDbText
 10
408.4999999999998
 20
8.5
 30
0.0
 40
2.5
  1
!GENTITLE-INSERT
100
AcDbText
  0
TEXT
  5
BA5D
330
1F
100
AcDbEntity
  8
AM_6
 60
     1
100
AcDbText
 10
0.0
 20
0.0
 30
0.0
 40
2.5
  1
!GENTITLE-LL
100
AcDbText
  0
TEXT
  5
BA5E
330
1F
100
AcDbEntity
  8
AM_6
 60
     1
100
AcDbText
 10
420.0
 20
297.0
 30
0.0
 40
2.5
  1
!GENTITLE-RU
100
AcDbText
  0
TEXT
  5
BA5F
330
1F
100
AcDbEntity
  8
AM_6
 60
     1
100
AcDbText
 10
420.0
 20
297.0
 30
0.0
 40
2.5
  1
!GENTITLE-MAX
100
AcDbText
  0
LINE
  5
BA60
330
1F
100
AcDbEntity
  8
size
100
AcDbLine
 10
0.0
 20
0.0
 30
0.0
 11
420.0
 21
0.0
 31
0.0
1001
GENIUS_GENREC_14
1002
{
1000
PYDIR
1011
0.0000000000000178
1021
297.0
1031
0.0
1002
}
1002
{
1000
PXDIR
1011
420.0
1021
0.0
1031
0.0
1002
}
1002
{
1000
PORI
1011
0.0
1021
0.0
1031
0.0
1002
}
1002
{
1000
PINS
1011
210.0
1021
148.4999999999999
1031
0.0
1002
}
1002
{
1000
HVAL
1000
297
1002
}
1002
{
1000
H
1070
     2
1002
}
1002
{
1000
WVAL
1000
420
1002
}
1002
{
1000
W
1070
     2
1002
}
1002
{
1000
C
1070
     4
1002
}
1001
GENIUS_GENOBJ-N-REC_13
1002
{
1000
OWNER
1000
GEN
1002
}
1001
GENIUS_GENODEF_13
1002
{
1000
HIER
1070
     0
1002
}
1002
{
1000
MANEDIT
1070
     0
1002
}
1002
{
1000
NOSEL
1070
     0
1002
}
1002
{
1000
BEHIND
1070
     0
1002
}
1002
{
1000
OTHER
1070
     0
1002
}
1002
{
1000
REACTOR
1002
}
  0
LINE
  5
BA61
330
1F
100
AcDbEntity
  8
size
100
AcDbLine
 10
420.0
 20
0.0
 30
0.0
 11
420.0
 21
297.0
 31
0.0
1001
GENIUS_GENREC_14
1002
{
1000
PYDIR
1011
0.0000000000000178
1021
297.0
1031
0.0
1002
}
1002
{
1000
PXDIR
1011
420.0
1021
0.0
1031
0.0
1002
}
1002
{
1000
PORI
1011
0.0
1021
0.0
1031
0.0
1002
}
1002
{
1000
PINS
1011
210.0
1021
148.4999999999999
1031
0.0
1002
}
1002
{
1000
HVAL
1000
297
1002
}
1002
{
1000
H
1070
     2
1002
}
1002
{
1000
WVAL
1000
420
1002
}
1002
{
1000
W
1070
     2
1002
}
1002
{
1000
C
1070
     4
1002
}
1001
GENIUS_GENOBJ-N-REC_13
1002
{
1000
OWNER
1000
GEN
1002
}
1001
GENIUS_GENODEF_13
1002
{
1000
HIER
1070
     0
1002
}
1002
{
1000
MANEDIT
1070
     0
1002
}
1002
{
1000
NOSEL
1070
     0
1002
}
1002
{
1000
BEHIND
1070
     0
1002
}
1002
{
1000
OTHER
1070
     0
1002
}
1002
{
1000
REACTOR
1002
}
  0
LINE
  5
BA62
330
1F
100
AcDbEntity
  8
size
100
AcDbLine
 10
420.0
 20
297.0
 30
0.0
 11
0.0000000000000275
 21
297.0
 31
0.0
1001
GENIUS_GENREC_14
1002
{
1000
PYDIR
1011
0.0000000000000178
1021
297.0
1031
0.0
1002
}
1002
{
1000
PXDIR
1011
420.0
1021
0.0
1031
0.0
1002
}
1002
{
1000
PORI
1011
0.0
1021
0.0
1031
0.0
1002
}
1002
{
1000
PINS
1011
210.0
1021
148.4999999999999
1031
0.0
1002
}
1002
{
1000
HVAL
1000
297
1002
}
1002
{
1000
H
1070
     2
1002
}
1002
{
1000
WVAL
1000
420
1002
}
1002
{
1000
W
1070
     2
1002
}
1002
{
1000
C
1070
     4
1002
}
1001
GENIUS_GENOBJ-N-REC_13
1002
{
1000
OWNER
1000
GEN
1002
}
1001
GENIUS_GENODEF_13
1002
{
1000
HIER
1070
     0
1002
}
1002
{
1000
MANEDIT
1070
     0
1002
}
1002
{
1000
NOSEL
1070
     0
1002
}
1002
{
1000
BEHIND
1070
     0
1002
}
1002
{
1000
OTHER
1070
     0
1002
}
1002
{
1000
REACTOR
1002
}
  0
LINE
  5
BA63
330
1F
100
AcDbEntity
  8
size
100
AcDbLine
 10
0.0000000000000275
 20
297.0
 30
0.0
 11
0.0
 21
0.0
 31
0.0
1001
GENIUS_GENREC_14
1002
{
1000
PYDIR
1011
0.0000000000000178
1021
297.0
1031
0.0
1002
}
1002
{
1000
PXDIR
1011
420.0
1021
0.0
1031
0.0
1002
}
1002
{
1000
PORI
1011
0.0
1021
0.0
1031
0.0
1002
}
1002
{
1000
PINS
1011
210.0
1021
148.4999999999999
1031
0.0
1002
}
1002
{
1000
HVAL
1000
297
1002
}
1002
{
1000
H
1070
     2
1002
}
1002
{
1000
WVAL
1000
420
1002
}
1002
{
1000
W
1070
     2
1002
}
1002
{
1000
C
1070
     4
1002
}
1001
GENIUS_GENOBJ-N-REC_13
1002
{
1000
OWNER
1000
GEN
1002
}
1001
GENIUS_GENODEF_13
1002
{
1000
HIER
1070
     0
1002
}
1002
{
1000
MANEDIT
1070
     0
1002
}
1002
{
1000
NOSEL
1070
     0
1002
}
1002
{
1000
BEHIND
1070
     0
1002
}
1002
{
1000
OTHER
1070
     0
1002
}
1002
{
1000
REACTOR
1002
}
  0
LINE
  5
BA64
330
1F
100
AcDbEntity
  8
waku
100
AcDbLine
 10
408.4999999999998
 20
8.5
 30
0.0
 11
408.4999999999998
 21
288.5
 31
0.0
1001
GENIUS_GENREC_14
1002
{
1000
PYDIR
1011
0.0000000000000178
1021
297.0
1031
0.0
1002
}
1002
{
1000
PXDIR
1011
420.0
1021
0.0
1031
0.0
1002
}
1002
{
1000
PORI
1011
0.0
1021
0.0
1031
0.0
1002
}
1002
{
1000
PINS
1011
210.0
1021
148.4999999999999
1031
0.0
1002
}
1002
{
1000
HVAL
1000
297
1002
}
1002
{
1000
H
1070
     2
1002
}
1002
{
1000
WVAL
1000
420
1002
}
1002
{
1000
W
1070
     2
1002
}
1002
{
1000
C
1070
     4
1002
}
1001
GENIUS_GENOBJ-N-REC_13
1002
{
1000
OWNER
1000
GEN
1002
}
1001
GENIUS_GENODEF_13
1002
{
1000
HIER
1070
     0
1002
}
1002
{
1000
MANEDIT
1070
     0
1002
}
1002
{
1000
NOSEL
1070
     0
1002
}
1002
{
1000
BEHIND
1070
     0
1002
}
1002
{
1000
OTHER
1070
     0
1002
}
1002
{
1000
REACTOR
1002
}
  0
LINE
  5
BA65
330
1F
100
AcDbEntity
  8
waku
100
AcDbLine
 10
11.50000000000002
 20
288.5
 30
0.0
 11
11.5
 21
8.5
 31
0.0
1001
GENIUS_GENREC_14
1002
{
1000
PYDIR
1011
0.0000000000000178
1021
297.0
1031
0.0
1002
}
1002
{
1000
PXDIR
1011
420.0
1021
0.0
1031
0.0
1002
}
1002
{
1000
PORI
1011
0.0
1021
0.0
1031
0.0
1002
}
1002
{
1000
PINS
1011
210.0
1021
148.4999999999999
1031
0.0
1002
}
1002
{
1000
HVAL
1000
297
1002
}
1002
{
1000
H
1070
     2
1002
}
1002
{
1000
WVAL
1000
420
1002
}
1002
{
1000
W
1070
     2
1002
}
1002
{
1000
C
1070
     4
1002
}
1001
GENIUS_GENOBJ-N-REC_13
1002
{
1000
OWNER
1000
GEN
1002
}
1001
GENIUS_GENODEF_13
1002
{
1000
HIER
1070
     0
1002
}
1002
{
1000
MANEDIT
1070
     0
1002
}
1002
{
1000
NOSEL
1070
     0
1002
}
1002
{
1000
BEHIND
1070
     0
1002
}
1002
{
1000
OTHER
1070
     0
1002
}
1002
{
1000
REACTOR
1002
}
  0
LINE
  5
BA66
330
1F
100
AcDbEntity
  8
waku
100
AcDbLine
 10
408.4999999999998
 20
288.5
 30
0.0
 11
11.50000000000002
 21
288.5
 31
0.0
1001
GENIUS_GENREC_14
1002
{
1000
PYDIR
1011
0.0000000000000178
1021
297.0
1031
0.0
1002
}
1002
{
1000
PXDIR
1011
420.0
1021
0.0
1031
0.0
1002
}
1002
{
1000
PORI
1011
0.0
1021
0.0
1031
0.0
1002
}
1002
{
1000
PINS
1011
210.0
1021
148.4999999999999
1031
0.0
1002
}
1002
{
1000
HVAL
1000
297
1002
}
1002
{
1000
H
1070
     2
1002
}
1002
{
1000
WVAL
1000
420
1002
}
1002
{
1000
W
1070
     2
1002
}
1002
{
1000
C
1070
     4
1002
}
1001
GENIUS_GENOBJ-N-REC_13
1002
{
1000
OWNER
1000
GEN
1002
}
1001
GENIUS_GENODEF_13
1002
{
1000
HIER
1070
     0
1002
}
1002
{
1000
MANEDIT
1070
     0
1002
}
1002
{
1000
NOSEL
1070
     0
1002
}
1002
{
1000
BEHIND
1070
     0
1002
}
1002
{
1000
OTHER
1070
     0
1002
}
1002
{
1000
REACTOR
1002
}
  0
TEXT
  5
BA67
330
1F
100
AcDbEntity
  8
AM_6
 60
     1
100
AcDbText
 10
0.0
 20
0.0
 30
0.0
 40
2.5
  1
!GENTITLE-LL
100
AcDbText
  0
TEXT
  5
BA68
330
1F
100
AcDbEntity
  8
AM_6
 60
     1
100
AcDbText
 10
408.4999999999998
 20
288.5
 30
0.0
 40
2.5
  1
!GENTITLE-RU
100
AcDbText
  0
TEXT
  5
BA69
330
1F
100
AcDbEntity
  8
AM_6
 60
     1
100
AcDbText
 10
420.0
 20
297.0
 30
0.0
 40
2.5
  1
!GENTITLE-MAX
100
AcDbText
  0
TEXT
  5
BA6A
330
1F
100
AcDbEntity
  8
AM_6
 60
     1
100
AcDbText
 10
408.4999999999998
 20
8.5
 30
0.0
 40
2.5
  1
!GENTITLE-INSERT
100
AcDbText
  0
LINE
  5
BA6B
330
1F
100
AcDbEntity
  8
waku
100
AcDbLine
 10
11.5
 20
8.5
 30
0.0
 11
408.4999999999998
 21
8.5
 31
0.0
  0
DIMENSION
  5
BB81
330
1F
100
AcDbEntity
  8
AM_5
100
AcDbDimension
  2
*D37
 10
242.353320261075
 20
182.2727574267431
 30
0.0
 11
201.353320261075
 21
185.3727574267431
 31
0.0
 70
    32
 71
     5
 42
82.0
  3
SYS$0
100
AcDbAlignedDimension
 13
160.353320261075
 23
197.322858426743
 33
0.0
 14
242.353320261075
 24
197.322858426743
 34
0.0
 50
0.0000000000001018
100
AcDbRotatedDimension
1001
ACAD_DSTYLE_DIMINSPECT
1070
   396
1000
100%
1070
   395
1000

1070
   394
1070
    33
1070
   393
1070
     0
  0
DIMENSION
  5
BBAA
330
1F
100
AcDbEntity
  8
AM_5
100
AcDbDimension
  2
*D38
 10
251.353320261075
 20
172.2727574267428
 30
0.0
 11
201.353320261075
 21
175.3727574267428
 31
0.0
 70
    32
 71
     5
 42
100.0
  3
SYS$0
100
AcDbAlignedDimension
 13
151.353320261075
 23
194.272758426743
 33
0.0
 14
251.353320261075
 24
194.272758426743
 34
0.0
 50
0.0000000000001018
100
AcDbRotatedDimension
1001
ACAD_DSTYLE_DIMINSPECT
1070
   396
1000
100%
1070
   395
1000

1070
   394
1070
    33
1070
   393
1070
     0
  0
DIMENSION
  5
BC1B
330
1F
100
AcDbEntity
  8
AM_5
100
AcDbDimension
  2
*D39
 10
240.2712964111966
 20
200.9074262888522
 30
0.0
 11
266.3406555435519
 21
223.2026686337448
 31
0.0
 70
   163
  1
2-%%c4×<>サラ
 71
     5
 42
8.0
  3
SYS$3
100
AcDbDiametricDimension
 15
244.4353441109533
 25
207.7382905646341
 35
0.0
 40
0.0
1001
ACAD_DSTYLE_DIMRADIAL_EXTENSION
1070
   387
1070
     1
1070
   388
1040
0.0
1070
   390
1040
0.0
1001
ACAD_DSTYLE_DIMINSPECT
1070
   396
1000
100%
1070
   395
1000

1070
   394
1070
    33
1070
   393
1070
     0
1001
ACAD
1000
DSTYLE
1002
{
1070
   172
1070
     1
1070
   289
1070
     2
1070
   342
1005
BC51
1002
}
  0
DIMENSION
  5
BC97
330
1F
100
AcDbEntity
  8
AM_5
100
AcDbDimension
  2
*D41
 10
201.353320261075
 20
102.6263584267431
 30
0.0
 11
220.6141571839354
 21
126.2628446039143
 31
0.0
 70
   164
 71
     5
 42
13.0
  3
SYS$4
100
AcDbRadialDimension
 15
208.1887336691971
 25
113.6842571213443
 35
0.0
 40
0.0
1001
ACAD_DSTYLE_DIMRADIAL_EXTENSION
1070
   387
1070
     1
1070
   388
1040
0.9345302822483727
1070
   390
1040
2.207062388794715
1001
ACAD_DSTYLE_DIMINSPECT
1070
   396
1000
100%
1070
   395
1000

1070
   394
1070
    33
1070
   393
1070
     0
  0
DIMENSION
  5
BCB9
330
1F
100
AcDbEntity
  8
AM_5
100
AcDbDimension
  2
*D42
 10
231.353320261075
 20
137.126359436743
 30
0.0
 11
201.353320261075
 21
140.226359436743
 31
0.0
 70
    32
 71
     5
 42
60.0
  3
SYS$0
100
AcDbAlignedDimension
 13
171.353320261075
 23
96.62635842674305
 33
0.0
 14
231.353320261075
 24
96.62635842674305
 34
0.0
100
AcDbRotatedDimension
1001
ACAD_DSTYLE_DIMINSPECT
1070
   396
1000
100%
1070
   395
1000

1070
   394
1070
    33
1070
   393
1070
     0
  0
DIMENSION
  5
BD1A
330
1F
100
AcDbEntity
  8
AM_5
100
AcDbDimension
  2
*D43
 10
263.353320261075
 20
93.12635842674305
 30
0.0
 11
260.253320261075
 21
90.62635842674307
 31
0.0
 70
    32
 71
     5
 42
5.0
  3
SYS$0
100
AcDbAlignedDimension
 13
251.353320261075
 23
88.12635842674305
 33
0.0
 14
251.353320261075
 24
93.12635842674305
 34
0.0
 50
90.00000000000005
100
AcDbRotatedDimension
1001
ACAD_DSTYLE_DIMINSPECT
1070
   396
1000
100%
1070
   395
1000

1070
   394
1070
    33
1070
   393
1070
     0
  0
DIMENSION
  5
BD4A
330
1F
100
AcDbEntity
  8
AM_5
100
AcDbDimension
  2
*D44
 10
308.726162261075
 20
83.12635842674305
 30
0.0
 11
305.626162261075
 21
102.6263584267431
 31
0.0
 70
    32
  1
%%c<>
 71
     5
 42
39.0
  3
SYS$0
100
AcDbAlignedDimension
 13
330.7761702610751
 23
122.126358426743
 33
0.0
 14
330.7761702610751
 24
83.12635842674305
 34
0.0
 50
90.0
100
AcDbRotatedDimension
1001
ACAD_DSTYLE_DIMINSPECT
1070
   396
1000
100%
1070
   395
1000

1070
   394
1070
    33
1070
   393
1070
     0
  0
DIMENSION
  5
BD7B
330
1F
100
AcDbEntity
  8
AM_5
100
AcDbDimension
  2
*D45
 10
298.726162261075
 20
80.12635842674304
 30
0.0
 11
295.626162261075
 21
102.6263584267431
 31
0.0
 70
    32
  1
%%c<>
 71
     5
 42
45.0
  3
SYS$0
100
AcDbAlignedDimension
 13
323.776166261075
 23
125.126358426743
 33
0.0
 14
323.776166261075
 24
80.12635842674304
 34
0.0
 50
90.0
100
AcDbRotatedDimension
1001
ACAD_DSTYLE_DIMINSPECT
1070
   396
1000
100%
1070
   395
1000

1070
   394
1070
    33
1070
   393
1070
     0
  0
DIMENSION
  5
BDAC
330
1F
100
AcDbEntity
  8
AM_5
100
AcDbDimension
  2
*D46
 10
340.826173261075
 20
137.126559426743
 30
0.0
 11
330.776168261075
 21
140.226559426743
 31
0.0
 70
    32
 71
     5
 42
20.10001000000006
  3
SYS$0
100
AcDbAlignedDimension
 13
320.726163261075
 23
115.626358426743
 33
0.0
 14
340.826173261075
 24
115.626358426743
 34
0.0
100
AcDbRotatedDimension
1001
ACAD_DSTYLE_DIMINSPECT
1070
   396
1000
100%
1070
   395
1000

1070
   394
1070
    33
1070
   393
1070
     0
  0
DIMENSION
  5
BDD4
330
1F
100
AcDbEntity
  8
AM_5
100
AcDbDimension
  2
*D47
 10
352.826173261075
 20
93.12635842674305
 30
0.0
 11
349.726173261075
 21
88.12635842674309
 31
0.0
 70
    32
 71
     5
 42
10.0
  3
SYS$0
100
AcDbAlignedDimension
 13
330.7761702610751
 23
83.12635842674305
 33
0.0
 14
340.826173261075
 24
93.12635842674305
 34
0.0
 50
90.00000000000005
100
AcDbRotatedDimension
1001
ACAD_DSTYLE_DIMINSPECT
1070
   396
1000
100%
1070
   395
1000

1070
   394
1070
    33
1070
   393
1070
     0
  0
DIMENSION
  5
BE4E
330
1F
100
AcDbEntity
  8
AM_5
100
AcDbDimension
  2
*D48
 10
323.776166261075
 20
68.12635842674305
 30
0.0
 11
330.776168261075
 21
71.22635842674305
 31
0.0
 70
    32
 71
     5
 42
14.00000400000005
  3
SYS$0
100
AcDbAlignedDimension
 13
337.776170261075
 23
80.12635842674304
 33
0.0
 14
323.776166261075
 24
80.12635842674304
 34
0.0
 50
0.0000000000001018
100
AcDbRotatedDimension
1001
ACAD_DSTYLE_DIMINSPECT
1070
   396
1000
100%
1070
   395
1000

1070
   394
1070
    33
1070
   393
1070
     0
  0
DIMENSION
  5
BE76
330
1F
100
AcDbEntity
  8
AM_5
100
AcDbDimension
  2
*D49
 10
330.7761702610751
 20
79.62635842674308
 30
0.0
 11
316.2712221000644
 21
68.16001689368818
 31
0.0
 70
   164
 71
     5
 42
3.500000000000055
  3
SYS$4
100
AcDbRadialDimension
 15
332.976834955808
 25
82.34795261055444
 35
0.0
 40
0.0
1001
ACAD_DSTYLE_DIMRADIAL_EXTENSION
1070
   387
1070
     1
1070
   388
1040
0.6434963153190348
1070
   390
1040
2.4980969142294
1001
ACAD_DSTYLE_DIMINSPECT
1070
   396
1000
100%
1070
   395
1000

1070
   394
1070
    33
1070
   393
1070
     0
  0
TEXT
  5
BEAD
330
1F
100
AcDbEntity
  8
AM_6
100
AcDbText
 10
34.92849000000004
 20
226.9000999999998
 30
0.0
 40
3.2
  1
無し
 41
0.74999999
100
AcDbText
  0
TEXT
  5
BEAE
330
1F
100
AcDbEntity
  8
AM_6
100
AcDbText
 10
34.92850000000007
 20
210.9000999999998
 30
0.0
 40
3.2
  1
標準耐荷重：45kg／2個
 41
0.7310924
100
AcDbText
  0
POINT
  5
BFD0
330
1F
100
AcDbEntity
  8
AM_0
100
AcDbPoint
 10
323.026166261075
 20
93.12635842674305
 30
0.0
  0
LINE
  5
BFD1
330
1F
100
AcDbEntity
  8
AM_0
100
AcDbLine
 10
320.726163261075
 20
93.12635842674305
 30
0.0
 11
323.026166261075
 21
93.12635842674305
 31
0.0
  0
ENDSEC
  0
SECTION
  2
OBJECTS
  0
DICTIONARY
  5
C
330
0
100
AcDbDictionary
281
     1
  3
ACAD_2007HEADERVARS_RT
350
C0B4
  3
ACAD_BGPLOT_KEY
350
AB06
  3
ACAD_COLOR
350
A91D
  3
ACAD_GROUP
350
D
  3
ACAD_LAYOUT
350
1A
  3
ACAD_MATERIAL
350
A91C
  3
ACAD_MLEADERSTYLE
350
B595
  3
ACAD_MLINESTYLE
350
17
  3
ACAD_PLOTSETTINGS
350
19
  3
ACAD_PLOTSTYLENAME
350
E
  3
ACAD_SCALELIST
350
B573
  3
ACAD_TABLESTYLE
350
AAB9
  3
ACAD_VISUALSTYLE
350
B0F1
  3
AcAsAppObject
350
3DA1
  3
ACASGREF_MASTER
350
3DE9
  3
ACDB_RECOMPOSE_DATA
350
B5B7
  3
AcDbVariableDictionary
350
34
  3
AcmDictionary
350
47
  3
AD_GREF_MODULE
350
3DEA
  3
AD_MAPI_MODULE
350
3E06
  3
AMG
350
2B
  3
AMGSNAPSETTINGS
350
7D
  3
ASE_INDEX_DICTIONARY
350
B570
  3
DWGPROPS
350
C0B3
  3
MAPISURF_MODULE
350
3DEB
  0
DICTIONARY
  5
3F95
330
2
100
AcDbDictionary
280
     1
281
     1
  3
ACAD_LAYERFILTERS
360
B4F7
  3
ACAD_LAYERSTATES
360
3F96
  3
ACLYDICTIONARY
360
B4F6
  3
AMLAYER_GROUPCOLORS
360
AAB4
  0
DICTIONARY
  5
BF20
330
10
100
AcDbDictionary
280
     1
281
     1
  3
ADSK_XREC_LAYER_RECONCILED
360
BF21
  0
DICTIONARY
  5
BF22
330
5F85
100
AcDbDictionary
280
     1
281
     1
  3
ADSK_XREC_LAYER_RECONCILED
360
BF23
  0
DICTIONARY
  5
BF24
330
AC9F
100
AcDbDictionary
280
     1
281
     1
  3
ADSK_XREC_LAYER_RECONCILED
360
BF25
  0
DICTIONARY
  5
BF26
330
ACA0
100
AcDbDictionary
280
     1
281
     1
  3
ADSK_XREC_LAYER_RECONCILED
360
BF27
  0
DICTIONARY
  5
BF28
330
ACA1
100
AcDbDictionary
280
     1
281
     1
  3
ADSK_XREC_LAYER_RECONCILED
360
BF29
  0
DICTIONARY
  5
BF2A
330
ACC8
100
AcDbDictionary
280
     1
281
     1
  3
ADSK_XREC_LAYER_RECONCILED
360
BF2B
  0
DICTIONARY
  5
BF2C
330
ACC9
100
AcDbDictionary
280
     1
281
     1
  3
ADSK_XREC_LAYER_RECONCILED
360
BF2D
  0
DICTIONARY
  5
BF2E
330
ACCA
100
AcDbDictionary
280
     1
281
     1
  3
ADSK_XREC_LAYER_RECONCILED
360
BF2F
  0
DICTIONARY
  5
BF30
330
AD60
100
AcDbDictionary
280
     1
281
     1
  3
ADSK_XREC_LAYER_RECONCILED
360
BF31
  0
DICTIONARY
  5
BF32
330
AD64
100
AcDbDictionary
280
     1
281
     1
  3
ADSK_XREC_LAYER_RECONCILED
360
BF33
  0
DICTIONARY
  5
BF34
330
AD67
100
AcDbDictionary
280
     1
281
     1
  3
ADSK_XREC_LAYER_RECONCILED
360
BF35
  0
DICTIONARY
  5
BF36
330
AD68
100
AcDbDictionary
280
     1
281
     1
  3
ADSK_XREC_LAYER_RECONCILED
360
BF37
  0
DICTIONARY
  5
BF38
330
AD69
100
AcDbDictionary
280
     1
281
     1
  3
ADSK_XREC_LAYER_RECONCILED
360
BF39
  0
DICTIONARY
  5
BF3A
330
AD6A
100
AcDbDictionary
280
     1
281
     1
  3
ADSK_XREC_LAYER_RECONCILED
360
BF3B
  0
DICTIONARY
  5
BF3C
330
AD6E
100
AcDbDictionary
280
     1
281
     1
  3
ADSK_XREC_LAYER_RECONCILED
360
BF3D
  0
DICTIONARY
  5
BF3E
330
AD6F
100
AcDbDictionary
280
     1
281
     1
  3
ADSK_XREC_LAYER_RECONCILED
360
BF3F
  0
DICTIONARY
  5
BF40
330
B1B6
100
AcDbDictionary
280
     1
281
     1
  3
ADSK_XREC_LAYER_RECONCILED
360
BF41
  0
DICTIONARY
  5
BF42
330
B2EB
100
AcDbDictionary
280
     1
281
     1
  3
ADSK_XREC_LAYER_RECONCILED
360
BF43
  0
DICTIONARY
  5
BF44
330
B2EC
100
AcDbDictionary
280
     1
281
     1
  3
ADSK_XREC_LAYER_RECONCILED
360
BF45
  0
DICTIONARY
  5
8A
330
1F
100
AcDbDictionary
280
     1
281
     1
  3
ACAD_SORTENTS
360
B1BA
  0
DICTIONARY
  5
B9C9
330
B9B5
100
AcDbDictionary
280
     1
281
     1
  3
ACAD_SORTENTS
360
B9CA
  0
DICTIONARY
  5
BA38
330
B9DF
100
AcDbDictionary
280
     1
281
     1
  3
ACAD_SORTENTS
360
BA39
  0
DICTIONARY
  5
C032
330
BEC6
100
AcDbDictionary
280
     1
281
     1
  3
ACAD_MTEXT_2008_RT
360
C033
  0
DICTIONARY
  5
C0B4
102
{ACAD_REACTORS
330
C
102
}
330
C
100
AcDbDictionary
281
     1
  3
DIMARCSYM
350
C0B5
  0
DICTIONARY
  5
AB06
102
{ACAD_REACTORS
330
C
102
}
330
C
100
AcDbDictionary
280
     1
281
     1
  0
DICTIONARY
  5
A91D
102
{ACAD_REACTORS
330
C
102
}
330
C
100
AcDbDictionary
281
     1
  0
DICTIONARY
  5
D
102
{ACAD_REACTORS
330
C
102
}
330
C
100
AcDbDictionary
281
     1
  0
DICTIONARY
  5
1A
102
{ACAD_REACTORS
330
C
102
}
330
C
100
AcDbDictionary
281
     1
  3
Model
350
22
  3
ﾚｲｱｳﾄ1
350
1E
  3
ﾚｲｱｳﾄ2
350
26
  0
DICTIONARY
  5
A91C
102
{ACAD_REACTORS
330
C
102
}
330
C
100
AcDbDictionary
281
     1
  3
ByBlock
350
B0EF
  3
ByLayer
350
B0EE
  3
Global
350
B0F0
  0
DICTIONARY
  5
B595
102
{ACAD_REACTORS
330
C
102
}
330
C
100
AcDbDictionary
281
     1
  3
Standard
350
B596
  0
DICTIONARY
  5
17
102
{ACAD_REACTORS
330
C
102
}
330
C
100
AcDbDictionary
281
     1
  3
Standard
350
18
  0
DICTIONARY
  5
19
102
{ACAD_REACTORS
330
C
102
}
330
C
100
AcDbDictionary
281
     1
  0
ACDBDICTIONARYWDFLT
  5
E
102
{ACAD_REACTORS
330
C
102
}
330
C
100
AcDbDictionary
281
     1
  3
Normal
350
F
100
AcDbDictionaryWithDefault
340
F
  0
DICTIONARY
  5
B573
102
{ACAD_REACTORS
330
C
102
}
330
C
100
AcDbDictionary
281
     1
  3
A0
350
B574
  3
A1
350
B575
  3
A2
350
B576
  3
A3
350
B577
  3
A4
350
B578
  3
A5
350
B579
  3
A6
350
B57A
  3
A7
350
B57B
  3
A8
350
B57C
  3
A9
350
B57D
  3
B0
350
B57E
  3
B1
350
B57F
  3
B2
350
B580
  3
B3
350
B581
  3
B4
350
B582
  3
B5
350
B583
  3
B6
350
B584
  3
B7
350
B585
  3
B8
350
B586
  3
B9
350
B587
  3
C0
350
B588
  3
C1
350
B589
  3
C2
350
B58A
  3
C3
350
B58B
  3
C4
350
B58C
  3
C5
350
B58D
  3
C6
350
B58E
  3
C7
350
B58F
  3
C8
350
B590
  3
C9
350
B591
  3
D0
350
B592
  3
D1
350
B593
  3
D2
350
B594
  0
DICTIONARY
  5
AAB9
102
{ACAD_REACTORS
330
C
102
}
330
C
100
AcDbDictionary
281
     1
  3
Standard
350
AABA
  0
DICTIONARY
  5
B0F1
102
{ACAD_REACTORS
330
C
102
}
330
C
100
AcDbDictionary
281
     1
  3
2dWireframe
350
B0F7
  3
3D Hidden
350
B0F9
  3
3dWireframe
350
B0F8
  3
Basic
350
B0F6
  3
Brighten
350
B0FD
  3
ColorChange
350
B101
  3
Conceptual
350
B0FA
  3
Dim
350
B0FC
  3
Facepattern
350
B100
  3
Flat
350
B0F2
  3
FlatWithEdges
350
B0F3
  3
Gouraud
350
B0F4
  3
GouraudWithEdges
350
B0F5
  3
Linepattern
350
B0FF
  3
Realistic
350
B0FB
  3
Thicken
350
B0FE
  0
ACAD_PROXY_OBJECT
  5
3DA1
102
{ACAD_REACTORS
330
C
102
}
330
C
100
AcDbProxyObject
 90
      499
 91
      576
 95
   917527
 70
     0
 93
       10
310
407F
 94
        0
1001
ACAD
1000
AcRTDxfName
1000
ASAPP
  0
ACAD_PROXY_OBJECT
  5
3DE9
102
{ACAD_REACTORS
330
C
102
}
330
C
100
AcDbProxyObject
 90
      499
 91
      581
 95
   917527
 70
     0
 93
       34
310
010000407F
 94
        0
1001
ACAD
1000
AcRTDxfName
1000
ACASGREFMASTER
  0
XRECORD
  5
B5B7
102
{ACAD_REACTORS
330
C
102
}
330
C
100
AcDbXrecord
280
     1
 90
        1
330
AABA
  0
DICTIONARY
  5
34
102
{ACAD_REACTORS
330
C
102
}
330
C
100
AcDbDictionary
281
     1
  3
CANNOSCALE
350
B5BA
  3
CMLEADERSTYLE
350
B5B8
  3
CTABLESTYLE
350
AAF3
  3
DIMASSOC
350
A10C
  3
FIELDEVAL
350
AB07
  3
INDEXCTL
350
35
  3
LIGHTINGUNITS
350
B5BB
  3
MSLTSCALE
350
B5B9
  3
SORTENTS
350
194C
  0
DICTIONARY
  5
47
102
{ACAD_REACTORS
330
C
102
}
330
C
100
AcDbDictionary
281
     1
  3
AcmBOM
350
7E8
  3
AcmStdDictionary
350
4C
  3
AMDTSECTSYM_ARROWCOLOR
350
A929
  0
ACAD_PROXY_OBJECT
  5
3DEA
102
{ACAD_REACTORS
330
C
102
}
330
C
100
AcDbProxyObject
 90
      499
 91
      582
 95
   917527
 70
     0
 93
      114
310
00000043800000000000000000003F
 94
        0
1001
ACAD
1000
AcRTDxfName
1000
ACADGREFMODULE
  0
ACAD_PROXY_OBJECT
  5
3E06
102
{ACAD_REACTORS
330
C
102
}
330
C
100
AcDbProxyObject
 90
      499
 91
      594
 95
   917527
 70
     0
 93
       34
310
05000044FF
 94
        0
1001
ACAD
1000
AcRTDxfName
1000
MAPIADMODULE
  0
DICTIONARY
  5
2B
102
{ACAD_REACTORS
330
C
102
}
330
C
100
AcDbDictionary
281
     1
  0
DICTIONARY
  5
7D
102
{ACAD_REACTORS
330
C
102
}
330
C
100
AcDbDictionary
281
     1
  0
DICTIONARY
  5
B570
102
{ACAD_REACTORS
330
C
102
}
330
C
100
AcDbDictionary
281
     1
  3
ASEBlockHierarchyIndexRecord
350
B571
1001
DCO15
1040
1706332604.97
  0
XRECORD
  5
C0B3
102
{ACAD_REACTORS
330
C
102
}
330
C
100
AcDbXrecord
280
     1
  1
DWGPROPS COOKIE
  2

  3

  4

  6

  7

  8
Administrator
  9

300
AmdtFileType=84
301
=
302
=
303
=
304
=
305
=
306
=
307
=
308
=
309
=
 40
0.015447962962963
 41
2455827.698787616
 42
2456030.681361759
  1

 90
        1
  0
ACAD_PROXY_OBJECT
  5
3DEB
102
{ACAD_REACTORS
330
C
102
}
330
C
100
AcDbProxyObject
 90
      499
 91
      583
 95
   917527
 70
     0
 93
        8
310
047C
 94
        0
1001
ACAD
1000
AcRTDxfName
1000
AMDTMAPISURFMOUDULE
  0
DICTIONARY
  5
B4F7
102
{ACAD_REACTORS
330
3F95
102
}
330
3F95
100
AcDbDictionary
281
     1
  0
DICTIONARY
  5
3F96
102
{ACAD_REACTORS
330
3F95
102
}
330
3F95
100
AcDbDictionary
281
     1
  3
20011210
350
3FB7
  0
DICTIONARY
  5
B4F6
102
{ACAD_REACTORS
330
3F95
102
}
330
3F95
100
AcDbDictionary
281
     1
1001
ACAD
1000
<All
  0
DICTIONARY
  5
AAB4
102
{ACAD_REACTORS
330
3F95
102
}
330
3F95
100
AcDbDictionary
280
     1
281
     1
  0
XRECORD
  5
BF21
102
{ACAD_REACTORS
330
BF20
102
}
330
BF20
100
AcDbXrecord
280
     1
290
     1
  0
XRECORD
  5
BF23
102
{ACAD_REACTORS
330
BF22
102
}
330
BF22
100
AcDbXrecord
280
     1
290
     1
  0
XRECORD
  5
BF25
102
{ACAD_REACTORS
330
BF24
102
}
330
BF24
100
AcDbXrecord
280
     1
290
     1
  0
XRECORD
  5
BF27
102
{ACAD_REACTORS
330
BF26
102
}
330
BF26
100
AcDbXrecord
280
     1
290
     1
  0
XRECORD
  5
BF29
102
{ACAD_REACTORS
330
BF28
102
}
330
BF28
100
AcDbXrecord
280
     1
290
     1
  0
XRECORD
  5
BF2B
102
{ACAD_REACTORS
330
BF2A
102
}
330
BF2A
100
AcDbXrecord
280
     1
290
     1
  0
XRECORD
  5
BF2D
102
{ACAD_REACTORS
330
BF2C
102
}
330
BF2C
100
AcDbXrecord
280
     1
290
     1
  0
XRECORD
  5
BF2F
102
{ACAD_REACTORS
330
BF2E
102
}
330
BF2E
100
AcDbXrecord
280
     1
290
     1
  0
XRECORD
  5
BF31
102
{ACAD_REACTORS
330
BF30
102
}
330
BF30
100
AcDbXrecord
280
     1
290
     1
  0
XRECORD
  5
BF33
102
{ACAD_REACTORS
330
BF32
102
}
330
BF32
100
AcDbXrecord
280
     1
290
     1
  0
XRECORD
  5
BF35
102
{ACAD_REACTORS
330
BF34
102
}
330
BF34
100
AcDbXrecord
280
     1
290
     1
  0
XRECORD
  5
BF37
102
{ACAD_REACTORS
330
BF36
102
}
330
BF36
100
AcDbXrecord
280
     1
290
     1
  0
XRECORD
  5
BF39
102
{ACAD_REACTORS
330
BF38
102
}
330
BF38
100
AcDbXrecord
280
     1
290
     1
  0
XRECORD
  5
BF3B
102
{ACAD_REACTORS
330
BF3A
102
}
330
BF3A
100
AcDbXrecord
280
     1
290
     1
  0
XRECORD
  5
BF3D
102
{ACAD_REACTORS
330
BF3C
102
}
330
BF3C
100
AcDbXrecord
280
     1
290
     1
  0
XRECORD
  5
BF3F
102
{ACAD_REACTORS
330
BF3E
102
}
330
BF3E
100
AcDbXrecord
280
     1
290
     1
  0
XRECORD
  5
BF41
102
{ACAD_REACTORS
330
BF40
102
}
330
BF40
100
AcDbXrecord
280
     1
290
     1
  0
XRECORD
  5
BF43
102
{ACAD_REACTORS
330
BF42
102
}
330
BF42
100
AcDbXrecord
280
     1
290
     1
  0
XRECORD
  5
BF45
102
{ACAD_REACTORS
330
BF44
102
}
330
BF44
100
AcDbXrecord
280
     1
290
     1
  0
SORTENTSTABLE
  5
B1BA
102
{ACAD_REACTORS
330
8A
102
}
330
8A
100
AcDbSortentsTable
330
1F
331
B85A
  5
B85A
331
B8CE
  5
B8D6
331
B897
  5
B898
331
B8D6
  5
B8DF
331
B8DE
  5
B8E7
331
B86A
  5
B86A
331
B89F
  5
B8A7
331
B872
  5
B872
331
BA6B
  5
BC97
331
B968
  5
B976
331
B978
  5
BA5D
331
B980
  5
BA65
331
B8AF
  5
B8B3
331
B8EE
  5
B8F7
331
B8B7
  5
B8C0
331
B8F6
  5
B8FF
331
B8FE
  5
B907
331
B8BF
  5
B8C6
331
B8C7
  5
B8CE
331
B990
  5
BA66
331
BC97
  5
BE9A
331
B909
  5
B95B
331
B959
  5
B965
331
BA60
  5
BA70
331
B961
  5
B96D
331
B8CF
  5
B8D8
331
B85B
  5
B85B
331
B890
  5
B890
331
B898
  5
B89A
331
B8D7
  5
B8E0
331
B863
  5
B863
331
B8DF
  5
B8E8
331
B873
  5
B873
331
B969
  5
B977
331
B971
  5
B97D
331
B979
  5
BA5E
331
B8EF
  5
B8F8
331
B8B0
  5
B8B4
331
B8F7
  5
B900
331
B8B8
  5
B8C1
331
B8C0
  5
B8C7
331
B8FF
  5
B908
331
BD1A
  5
BEA5
331
B90A
  5
B95C
331
BA61
  5
BA71
331
B95A
  5
B966
331
B962
  5
B96E
331
B8C8
  5
B8CF
331
B891
  5
B891
331
B8D0
  5
B8D9
331
BD4A
  5
BEA6
331
B864
  5
B864
331
B8D8
  5
B8E1
331
B8E0
  5
B8E9
331
B86C
  5
B86C
331
B96A
  5
B978
331
B972
  5
B97E
331
B97A
  5
BA5F
331
B87C
  5
B87C
331
B8B1
  5
B8B6
331
B8F0
  5
B8F9
331
B884
  5
B884
331
B8B9
  5
B8C2
331
B8F8
  5
B901
331
B8C1
  5
B8C8
331
B903
  5
B90C
331
B90B
  5
B95D
331
B95B
  5
B967
331
BA62
  5
BB7C
331
B963
  5
B96F
331
B8C9
  5
B8D0
331
B8D1
  5
B8DA
331
B85D
  5
B85D
331
B892
  5
B893
331
B89A
  5
B89C
331
B8D9
  5
B8E2
331
BD7B
  5
BEA7
331
B86D
  5
B86D
331
B8E1
  5
B8EA
331
B875
  5
B875
331
B96B
  5
B979
331
B973
  5
B97F
331
B97B
  5
BA60
331
B8F1
  5
B8FA
331
B87D
  5
B87D
331
B8B2
  5
B8B7
331
B8BA
  5
B8C3
331
B8F9
  5
B902
331
B8C2
  5
B8C9
331
BB81
  5
BE4E
331
BCB9
  5
BEA4
331
B904
  5
B90D
331
BA63
  5
BB7D
331
B95C
  5
B968
331
B964
  5
B972
331
B8CA
  5
B8D1
331
B85E
  5
B85E
331
B8D2
  5
B8DB
331
B866
  5
B866
331
B89B
  5
B89E
331
B8DA
  5
B8E3
331
B8E2
  5
B8EB
331
BDAC
  5
BEA8
331
B8A3
  5
B8AD
331
BDD4
  5
BEA9
331
B876
  5
B876
331
B96C
  5
B97A
331
B974
  5
B980
331
B97C
  5
BA61
331
B8EA
  5
B8F3
331
B87E
  5
B87E
331
B8B3
  5
B8B8
331
B8F2
  5
B8FB
331
B8BB
  5
B8C5
331
B8FA
  5
B903
331
B8C3
  5
B8CA
331
B857
  5
B857
331
BC1B
  5
BE99
331
BBAA
  5
BE76
331
B90D
  5
B95F
331
BA5C
  5
BA68
331
B95D
  5
B969
331
BA64
  5
BB7E
331
B965
  5
B973
331
B8CB
  5
B8D2
331
B8D3
  5
B8DC
331
B89C
  5
B8A3
331
B8DB
  5
B8E4
331
B867
  5
B867
331
B86F
  5
B86F
331
B8A4
  5
B8AE
331
B8E3
  5
B8EC
331
BA68
  5
BBAA
331
B96D
  5
B97B
331
B975
  5
B985
331
B97D
  5
BA62
331
B8EB
  5
B8F4
331
B8F3
  5
B8FC
331
B8B4
  5
B8BA
331
B8FB
  5
B904
331
B88F
  5
B88F
331
B8C4
  5
B8CB
331
B906
  5
B958
331
B90E
  5
B962
331
BA5D
  5
BA69
331
BA65
  5
BB7F
331
B95E
  5
B96A
331
B966
  5
B974
331
B8CC
  5
B8D3
331
B860
  5
B860
331
B8D4
  5
B8DD
331
B8DC
  5
B8E5
331
B89D
  5
B8A4
331
B8E4
  5
B8ED
331
B870
  5
B870
331
BA69
  5
BC1B
331
B96E
  5
B97C
331
B976
  5
B991
331
B97E
  5
BA63
331
B8AD
  5
B8B1
331
B8EC
  5
B8F5
331
B878
  5
B878
331
B880
  5
B880
331
B8B5
  5
B8BB
331
BE4E
  5
BEAB
331
B8FC
  5
B905
331
B8C5
  5
B8CC
331
B907
  5
B959
331
BA5E
  5
BA6A
331
B95F
  5
B96B
331
BA66
  5
BB80
331
B967
  5
B975
331
B8CD
  5
B8D4
331
B8D5
  5
B8DE
331
B861
  5
B861
331
B89E
  5
B8A6
331
B8DD
  5
B8E6
331
B869
  5
B869
331
B8A6
  5
B8AF
331
BA6A
  5
BC96
331
B97F
  5
BA64
331
B879
  5
B879
331
B8AE
  5
B8B2
331
B8F5
  5
B8FE
331
B881
  5
B881
331
B8B6
  5
B8BF
331
B8FD
  5
B906
331
B8C6
  5
B8CD
331
B908
  5
B95A
331
BE76
  5
BEAC
331
BA5F
  5
BA6B
331
BA67
  5
BB81
331
B960
  5
B96C
  0
SORTENTSTABLE
  5
B9CA
102
{ACAD_REACTORS
330
B9C9
102
}
330
B9C9
100
AcDbSortentsTable
330
B9B5
  0
SORTENTSTABLE
  5
BA39
102
{ACAD_REACTORS
330
BA38
102
}
330
BA38
100
AcDbSortentsTable
330
B9DF
  0
XRECORD
  5
C033
102
{ACAD_REACTORS
330
C032
102
}
330
C032
100
AcDbXrecord
280
     1
 40
1721.0
  1
2-%%c4×\U+22058サラ
  0
XRECORD
  5
C0B5
102
{ACAD_REACTORS
330
C0B4
102
}
330
C0B4
100
AcDbXrecord
280
     1
 70
     1
  0
LAYOUT
  5
22
102
{ACAD_XDICTIONARY
360
C0B8
102
}
102
{ACAD_REACTORS
330
1A
102
}
330
1A
100
AcDbPlotSettings
  1

  2
Adobe PDF
  4
A3
  6
AM_VIEW1
 40
3.174999952316283
 41
3.174999952316283
 42
3.17498779296875
 43
3.17498779296875
 44
297.0318298339844
 45
420.1583251953125
 46
-3.159078955650328
 47
-3.095831274986267
 48
214.3704939521119
 49
367.5855324241177
140
275.6727856380065
141
407.6291914078169
142
1.0
143
1.0
 70
  3748
 72
     1
 73
     1
 74
     2
  7
monochrome.ctb
 75
     0
147
0.9787267410393916
148
0.0
149
0.0
100
AcDbLayout
  1
Model
 70
     1
 71
     0
 10
0.0
 20
0.0
 11
12.0
 21
9.0
 12
0.0
 22
0.0
 32
0.0
 14
0.0
 24
0.0
 34
0.0
 15
0.0
 25
0.0
 35
0.0
146
0.0
 13
0.0
 23
0.0
 33
0.0
 16
1.0
 26
0.0
 36
0.0
 17
0.0
 27
1.0
 37
0.0
 76
     0
330
1F
331
B0EC
1001
ACAD_PSEXT
1000
Adobe PDF
1000
Adobe PDF Converter
1000
My Documents\*.pdf
1000

1070
     0
  0
LAYOUT
  5
1E
102
{ACAD_XDICTIONARY
360
C0B6
102
}
102
{ACAD_REACTORS
330
1A
102
}
330
1A
100
AcDbPlotSettings
  1

  2
\\ML370\XEROX
  4
A4
  6

 40
3.174999952316283
 41
3.174999952316283
 42
3.175003051757812
 43
3.17498779296875
 44
209.8674926757813
 45
296.6719970703125
 46
0.0
 47
0.0
 48
0.0
 49
0.0
140
0.0
141
0.0
142
1.0
143
1.0
 70
   688
 72
     1
 73
     1
 74
     5
  7
monochrome.ctb
 75
    16
147
1.0
148
0.0
149
0.0
100
AcDbLayout
  1
ﾚｲｱｳﾄ1
 70
     1
 71
     1
 10
-3.17498779296875
 20
-3.174999952316283
 11
293.4970092773438
 21
206.692492723465
 12
0.0
 22
0.0
 32
0.0
 14
1.000000000000000E+20
 24
1.000000000000000E+20
 34
1.000000000000000E+20
 15
-1.000000000000000E+20
 25
-1.000000000000000E+20
 35
-1.000000000000000E+20
146
0.0
 13
0.0
 23
0.0
 33
0.0
 16
1.0
 26
0.0
 36
0.0
 17
0.0
 27
1.0
 37
0.0
 76
     0
330
1B
  0
LAYOUT
  5
26
102
{ACAD_XDICTIONARY
360
C0BA
102
}
102
{ACAD_REACTORS
330
1A
102
}
330
1A
100
AcDbPlotSettings
  1

  2
\\ML370\XEROX
  4

  6

 40
0.0
 41
0.0
 42
0.0
 43
0.0
 44
0.0
 45
0.0
 46
0.0
 47
0.0
 48
0.0
 49
0.0
140
0.0
141
0.0
142
1.0
143
1.0
 70
   688
 72
     0
 73
     0
 74
     5
  7
monochrome.ctb
 75
    16
147
1.0
148
0.0
149
0.0
100
AcDbLayout
  1
ﾚｲｱｳﾄ2
 70
     1
 71
     2
 10
0.0
 20
0.0
 11
12.0
 21
9.0
 12
0.0
 22
0.0
 32
0.0
 14
0.0
 24
0.0
 34
0.0
 15
0.0
 25
0.0
 35
0.0
146
0.0
 13
0.0
 23
0.0
 33
0.0
 16
1.0
 26
0.0
 36
0.0
 17
0.0
 27
1.0
 37
0.0
 76
     0
330
23
  0
MATERIAL
  5
B0EF
102
{ACAD_XDICTIONARY
360
C02D
102
}
102
{ACAD_REACTORS
330
A91C
102
}
330
A91C
100
AcDbMaterial
  1
ByBlock
  0
MATERIAL
  5
B0EE
102
{ACAD_XDICTIONARY
360
C02B
102
}
102
{ACAD_REACTORS
330
A91C
102
}
330
A91C
100
AcDbMaterial
  1
ByLayer
  0
MATERIAL
  5
B0F0
102
{ACAD_XDICTIONARY
360
C02F
102
}
102
{ACAD_REACTORS
330
A91C
102
}
330
A91C
100
AcDbMaterial
  1
Global
  0
ACAD_PROXY_OBJECT
  5
B596
102
{ACAD_REACTORS
330
B595
102
}
330
B595
100
AcDbProxyObject
 90
      499
 91
      626
 95
  6815769
 70
     1
100
AcDbMLeaderStyle
170
     2
171
     1
172
     0
 90
        2
 40
0.0
 41
0.0
173
     1
 91
-1056964608
340
14
 92
       -2
290
     1
 42
2.0
291
     1
 43
0.36
  3
Standard
 44
4.0
300

342
11
174
     1
178
     6
175
     1
176
     0
 93
-1056964608
 45
4.0
292
     0
297
     0
 46
4.0
 94
-1056964608
 47
1.0
 49
1.0
140
1.0
293
     1
141
0.0
294
     1
177
     0
142
1.0
295
     0
296
     0
143
0.125
1001
ACAD_MLEADERVER
1070
     2
1001
ACAD
1000
AcRTDxfName
1000
MLEADERSTYLE
  0
MLINESTYLE
  5
18
102
{ACAD_REACTORS
330
17
102
}
330
17
100
AcDbMlineStyle
  2
STANDARD
 70
     0
  3

 62
   256
 51
90.0
 52
90.0
 71
     2
 49
0.5
 62
   256
  6
BYLAYER
 49
-0.5
 62
   256
  6
BYLAYER
  0
ACDBPLACEHOLDER
  5
F
102
{ACAD_REACTORS
330
E
102
}
330
E
  0
ACAD_PROXY_OBJECT
  5
B574
102
{ACAD_REACTORS
330
B573
102
}
330
B573
100
AcDbProxyObject
 90
      499
 91
      625
 95
  6815769
 70
     1
100
AcDbScale
 70
     0
300
1:1
140
1.0
141
1.0
290
     1
1001
ACAD
1000
AcRTDxfName
1000
SCALE
  0
ACAD_PROXY_OBJECT
  5
B575
102
{ACAD_REACTORS
330
B573
102
}
330
B573
100
AcDbProxyObject
 90
      499
 91
      625
 95
  6815769
 70
     1
100
AcDbScale
 70
     0
300
1:2
140
1.0
141
2.0
290
     0
1001
ACAD
1000
AcRTDxfName
1000
SCALE
  0
ACAD_PROXY_OBJECT
  5
B576
102
{ACAD_REACTORS
330
B573
102
}
330
B573
100
AcDbProxyObject
 90
      499
 91
      625
 95
  6815769
 70
     1
100
AcDbScale
 70
     0
300
1:4
140
1.0
141
4.0
290
     0
1001
ACAD
1000
AcRTDxfName
1000
SCALE
  0
ACAD_PROXY_OBJECT
  5
B577
102
{ACAD_REACTORS
330
B573
102
}
330
B573
100
AcDbProxyObject
 90
      499
 91
      625
 95
  6815769
 70
     1
100
AcDbScale
 70
     0
300
1:5
140
1.0
141
5.0
290
     0
1001
ACAD
1000
AcRTDxfName
1000
SCALE
  0
ACAD_PROXY_OBJECT
  5
B578
102
{ACAD_REACTORS
330
B573
102
}
330
B573
100
AcDbProxyObject
 90
      499
 91
      625
 95
  6815769
 70
     1
100
AcDbScale
 70
     0
300
1:8
140
1.0
141
8.0
290
     0
1001
ACAD
1000
AcRTDxfName
1000
SCALE
  0
ACAD_PROXY_OBJECT
  5
B579
102
{ACAD_REACTORS
330
B573
102
}
330
B573
100
AcDbProxyObject
 90
      499
 91
      625
 95
  6815769
 70
     1
100
AcDbScale
 70
     0
300
1:10
140
1.0
141
10.0
290
     0
1001
ACAD
1000
AcRTDxfName
1000
SCALE
  0
ACAD_PROXY_OBJECT
  5
B57A
102
{ACAD_REACTORS
330
B573
102
}
330
B573
100
AcDbProxyObject
 90
      499
 91
      625
 95
  6815769
 70
     1
100
AcDbScale
 70
     0
300
1:16
140
1.0
141
16.0
290
     0
1001
ACAD
1000
AcRTDxfName
1000
SCALE
  0
ACAD_PROXY_OBJECT
  5
B57B
102
{ACAD_REACTORS
330
B573
102
}
330
B573
100
AcDbProxyObject
 90
      499
 91
      625
 95
  6815769
 70
     1
100
AcDbScale
 70
     0
300
1:20
140
1.0
141
20.0
290
     0
1001
ACAD
1000
AcRTDxfName
1000
SCALE
  0
ACAD_PROXY_OBJECT
  5
B57C
102
{ACAD_REACTORS
330
B573
102
}
330
B573
100
AcDbProxyObject
 90
      499
 91
      625
 95
  6815769
 70
     1
100
AcDbScale
 70
     0
300
1:30
140
1.0
141
30.0
290
     0
1001
ACAD
1000
AcRTDxfName
1000
SCALE
  0
ACAD_PROXY_OBJECT
  5
B57D
102
{ACAD_REACTORS
330
B573
102
}
330
B573
100
AcDbProxyObject
 90
      499
 91
      625
 95
  6815769
 70
     1
100
AcDbScale
 70
     0
300
1:40
140
1.0
141
40.0
290
     0
1001
ACAD
1000
AcRTDxfName
1000
SCALE
  0
ACAD_PROXY_OBJECT
  5
B57E
102
{ACAD_REACTORS
330
B573
102
}
330
B573
100
AcDbProxyObject
 90
      499
 91
      625
 95
  6815769
 70
     1
100
AcDbScale
 70
     0
300
1:50
140
1.0
141
50.0
290
     0
1001
ACAD
1000
AcRTDxfName
1000
SCALE
  0
ACAD_PROXY_OBJECT
  5
B57F
102
{ACAD_REACTORS
330
B573
102
}
330
B573
100
AcDbProxyObject
 90
      499
 91
      625
 95
  6815769
 70
     1
100
AcDbScale
 70
     0
300
1:100
140
1.0
141
100.0
290
     0
1001
ACAD
1000
AcRTDxfName
1000
SCALE
  0
ACAD_PROXY_OBJECT
  5
B580
102
{ACAD_REACTORS
330
B573
102
}
330
B573
100
AcDbProxyObject
 90
      499
 91
      625
 95
  6815769
 70
     1
100
AcDbScale
 70
     0
300
2:1
140
2.0
141
1.0
290
     0
1001
ACAD
1000
AcRTDxfName
1000
SCALE
  0
ACAD_PROXY_OBJECT
  5
B581
102
{ACAD_REACTORS
330
B573
102
}
330
B573
100
AcDbProxyObject
 90
      499
 91
      625
 95
  6815769
 70
     1
100
AcDbScale
 70
     0
300
4:1
140
4.0
141
1.0
290
     0
1001
ACAD
1000
AcRTDxfName
1000
SCALE
  0
ACAD_PROXY_OBJECT
  5
B582
102
{ACAD_REACTORS
330
B573
102
}
330
B573
100
AcDbProxyObject
 90
      499
 91
      625
 95
  6815769
 70
     1
100
AcDbScale
 70
     0
300
8:1
140
8.0
141
1.0
290
     0
1001
ACAD
1000
AcRTDxfName
1000
SCALE
  0
ACAD_PROXY_OBJECT
  5
B583
102
{ACAD_REACTORS
330
B573
102
}
330
B573
100
AcDbProxyObject
 90
      499
 91
      625
 95
  6815769
 70
     1
100
AcDbScale
 70
     0
300
10:1
140
10.0
141
1.0
290
     0
1001
ACAD
1000
AcRTDxfName
1000
SCALE
  0
ACAD_PROXY_OBJECT
  5
B584
102
{ACAD_REACTORS
330
B573
102
}
330
B573
100
AcDbProxyObject
 90
      499
 91
      625
 95
  6815769
 70
     1
100
AcDbScale
 70
     0
300
100:1
140
100.0
141
1.0
290
     0
1001
ACAD
1000
AcRTDxfName
1000
SCALE
  0
ACAD_PROXY_OBJECT
  5
B585
102
{ACAD_REACTORS
330
B573
102
}
330
B573
100
AcDbProxyObject
 90
      499
 91
      625
 95
  6815769
 70
     1
100
AcDbScale
 70
     0
300
1/128" = 1'-0"
140
0.0078125
141
12.0
290
     0
1001
ACAD
1000
AcRTDxfName
1000
SCALE
  0
ACAD_PROXY_OBJECT
  5
B586
102
{ACAD_REACTORS
330
B573
102
}
330
B573
100
AcDbProxyObject
 90
      499
 91
      625
 95
  6815769
 70
     1
100
AcDbScale
 70
     0
300
1/64" = 1'-0"
140
0.015625
141
12.0
290
     0
1001
ACAD
1000
AcRTDxfName
1000
SCALE
  0
ACAD_PROXY_OBJECT
  5
B587
102
{ACAD_REACTORS
330
B573
102
}
330
B573
100
AcDbProxyObject
 90
      499
 91
      625
 95
  6815769
 70
     1
100
AcDbScale
 70
     0
300
1/32" = 1'-0"
140
0.03125
141
12.0
290
     0
1001
ACAD
1000
AcRTDxfName
1000
SCALE
  0
ACAD_PROXY_OBJECT
  5
B588
102
{ACAD_REACTORS
330
B573
102
}
330
B573
100
AcDbProxyObject
 90
      499
 91
      625
 95
  6815769
 70
     1
100
AcDbScale
 70
     0
300
1/16" = 1'-0"
140
0.0625
141
12.0
290
     0
1001
ACAD
1000
AcRTDxfName
1000
SCALE
  0
ACAD_PROXY_OBJECT
  5
B589
102
{ACAD_REACTORS
330
B573
102
}
330
B573
100
AcDbProxyObject
 90
      499
 91
      625
 95
  6815769
 70
     1
100
AcDbScale
 70
     0
300
3/32" = 1'-0"
140
0.09375
141
12.0
290
     0
1001
ACAD
1000
AcRTDxfName
1000
SCALE
  0
ACAD_PROXY_OBJECT
  5
B58A
102
{ACAD_REACTORS
330
B573
102
}
330
B573
100
AcDbProxyObject
 90
      499
 91
      625
 95
  6815769
 70
     1
100
AcDbScale
 70
     0
300
1/8" = 1'-0"
140
0.125
141
12.0
290
     0
1001
ACAD
1000
AcRTDxfName
1000
SCALE
  0
ACAD_PROXY_OBJECT
  5
B58B
102
{ACAD_REACTORS
330
B573
102
}
330
B573
100
AcDbProxyObject
 90
      499
 91
      625
 95
  6815769
 70
     1
100
AcDbScale
 70
     0
300
3/16" = 1'-0"
140
0.1875
141
12.0
290
     0
1001
ACAD
1000
AcRTDxfName
1000
SCALE
  0
ACAD_PROXY_OBJECT
  5
B58C
102
{ACAD_REACTORS
330
B573
102
}
330
B573
100
AcDbProxyObject
 90
      499
 91
      625
 95
  6815769
 70
     1
100
AcDbScale
 70
     0
300
1/4" = 1'-0"
140
0.25
141
12.0
290
     0
1001
ACAD
1000
AcRTDxfName
1000
SCALE
  0
ACAD_PROXY_OBJECT
  5
B58D
102
{ACAD_REACTORS
330
B573
102
}
330
B573
100
AcDbProxyObject
 90
      499
 91
      625
 95
  6815769
 70
     1
100
AcDbScale
 70
     0
300
3/8" = 1'-0"
140
0.375
141
12.0
290
     0
1001
ACAD
1000
AcRTDxfName
1000
SCALE
  0
ACAD_PROXY_OBJECT
  5
B58E
102
{ACAD_REACTORS
330
B573
102
}
330
B573
100
AcDbProxyObject
 90
      499
 91
      625
 95
  6815769
 70
     1
100
AcDbScale
 70
     0
300
1/2" = 1'-0"
140
0.5
141
12.0
290
     0
1001
ACAD
1000
AcRTDxfName
1000
SCALE
  0
ACAD_PROXY_OBJECT
  5
B58F
102
{ACAD_REACTORS
330
B573
102
}
330
B573
100
AcDbProxyObject
 90
      499
 91
      625
 95
  6815769
 70
     1
100
AcDbScale
 70
     0
300
3/4" = 1'-0"
140
0.75
141
12.0
290
     0
1001
ACAD
1000
AcRTDxfName
1000
SCALE
  0
ACAD_PROXY_OBJECT
  5
B590
102
{ACAD_REACTORS
330
B573
102
}
330
B573
100
AcDbProxyObject
 90
      499
 91
      625
 95
  6815769
 70
     1
100
AcDbScale
 70
     0
300
1" = 1'-0"
140
1.0
141
12.0
290
     0
1001
ACAD
1000
AcRTDxfName
1000
SCALE
  0
ACAD_PROXY_OBJECT
  5
B591
102
{ACAD_REACTORS
330
B573
102
}
330
B573
100
AcDbProxyObject
 90
      499
 91
      625
 95
  6815769
 70
     1
100
AcDbScale
 70
     0
300
1-1/2" = 1'-0"
140
1.5
141
12.0
290
     0
1001
ACAD
1000
AcRTDxfName
1000
SCALE
  0
ACAD_PROXY_OBJECT
  5
B592
102
{ACAD_REACTORS
330
B573
102
}
330
B573
100
AcDbProxyObject
 90
      499
 91
      625
 95
  6815769
 70
     1
100
AcDbScale
 70
     0
300
3" = 1'-0"
140
3.0
141
12.0
290
     0
1001
ACAD
1000
AcRTDxfName
1000
SCALE
  0
ACAD_PROXY_OBJECT
  5
B593
102
{ACAD_REACTORS
330
B573
102
}
330
B573
100
AcDbProxyObject
 90
      499
 91
      625
 95
  6815769
 70
     1
100
AcDbScale
 70
     0
300
6" = 1'-0"
140
6.0
141
12.0
290
     0
1001
ACAD
1000
AcRTDxfName
1000
SCALE
  0
ACAD_PROXY_OBJECT
  5
B594
102
{ACAD_REACTORS
330
B573
102
}
330
B573
100
AcDbProxyObject
 90
      499
 91
      625
 95
  6815769
 70
     1
100
AcDbScale
 70
     0
300
1'-0" = 1'-0"
140
12.0
141
12.0
290
     0
1001
ACAD
1000
AcRTDxfName
1000
SCALE
  0
TABLESTYLE
  5
AABA
102
{ACAD_XDICTIONARY
360
B5B5
102
}
102
{ACAD_REACTORS
330
AAB9
102
}
330
AAB9
100
AcDbTableStyle
  3
Standard
 70
     0
 71
     0
 40
1.5
 41
1.5
280
     0
281
     0
  7
STANDARD
140
4.5
170
     2
 62
     0
 63
     7
283
     0
274
    -2
284
     1
 64
     0
275
    -2
285
     1
 65
     0
276
    -2
286
     1
 66
     0
277
    -2
287
     1
 67
     0
278
    -2
288
     1
 68
     0
279
    -2
289
     1
 69
     0
  7
STANDARD
140
6.0
170
     5
 62
     0
 63
     7
283
     0
274
    -2
284
     1
 64
     0
275
    -2
285
     1
 65
     0
276
    -2
286
     1
 66
     0
277
    -2
287
     1
 67
     0
278
    -2
288
     1
 68
     0
279
    -2
289
     1
 69
     0
  7
STANDARD
140
4.5
170
     5
 62
     0
 63
     7
283
     0
274
    -2
284
     1
 64
     0
275
    -2
285
     1
 65
     0
276
    -2
286
     1
 66
     0
277
    -2
287
     1
 67
     0
278
    -2
288
     1
 68
     0
279
    -2
289
     1
 69
     0
  0
VISUALSTYLE
  5
B0F7
102
{ACAD_REACTORS
330
B0F1
102
}
330
B0F1
100
AcDbVisualStyle
  2
2dWireframe
 70
     4
 71
     0
 72
     2
 73
     0
 90
        0
 40
-0.6
 41
-30.0
 62
     5
 63
     7
 74
     1
 91
        4
 64
     7
 65
   257
 75
     1
175
     1
 42
1.0
 92
        0
 66
   257
 43
1.0
 76
     1
 77
     6
 78
     2
 67
     7
 79
     5
170
     0
171
     0
290
     0
174
     0
 93
        1
 44
0.0
173
     0
291
     0
 45
0.0
1001
ACAD
1000
AcDbSavedByObjectVersion
1070
     0
1000
AcDbSavedByObjectVersion
1070
     0
  0
VISUALSTYLE
  5
B0F9
102
{ACAD_REACTORS
330
B0F1
102
}
330
B0F1
100
AcDbVisualStyle
  2
3D Hidden
 70
     6
 71
     1
 72
     2
 73
     2
 90
        0
 40
-0.6
 41
-30.0
 62
     5
 63
     7
 74
     2
 91
        2
 64
     7
 65
   257
 75
     2
175
     1
 42
40.0
 92
        0
 66
   257
 43
1.0
 76
     1
 77
     6
 78
     2
 67
     7
 79
     3
170
     0
171
     0
290
     0
174
     0
 93
        1
 44
0.0
173
     0
291
     0
 45
0.0
1001
ACAD
1000
AcDbSavedByObjectVersion
1070
     0
1000
AcDbSavedByObjectVersion
1070
     0
  0
VISUALSTYLE
  5
B0F8
102
{ACAD_REACTORS
330
B0F1
102
}
330
B0F1
100
AcDbVisualStyle
  2
3dWireframe
 70
     5
 71
     0
 72
     2
 73
     0
 90
        0
 40
-0.6
 41
-30.0
 62
     5
 63
     7
 74
     1
 91
        4
 64
     7
 65
   257
 75
     1
175
     1
 42
1.0
 92
        0
 66
   257
 43
1.0
 76
     1
 77
     6
 78
     2
 67
     7
 79
     5
170
     0
171
     0
290
     0
174
     0
 93
        1
 44
0.0
173
     0
291
     0
 45
0.0
1001
ACAD
1000
AcDbSavedByObjectVersion
1070
     0
1000
AcDbSavedByObjectVersion
1070
     0
  0
VISUALSTYLE
  5
B0F6
102
{ACAD_REACTORS
330
B0F1
102
}
330
B0F1
100
AcDbVisualStyle
  2
Basic
 70
     7
 71
     1
 72
     0
 73
     1
 90
        0
 40
-0.6
 41
-30.0
 62
     5
 63
     7
 74
     0
 91
        4
 64
     7
 65
   257
 75
     1
175
     1
 42
1.0
 92
        8
 66
     7
 43
1.0
 76
     1
 77
     6
 78
     2
 67
     7
 79
     5
170
     0
171
     0
290
     0
174
     0
 93
        1
 44
0.0
173
     0
291
     1
 45
0.0
1001
ACAD
1000
AcDbSavedByObjectVersion
1070
     0
1000
AcDbSavedByObjectVersion
1070
     0
  0
VISUALSTYLE
  5
B0FD
102
{ACAD_REACTORS
330
B0F1
102
}
330
B0F1
100
AcDbVisualStyle
  2
Brighten
 70
    12
 71
     2
 72
     2
 73
     0
 90
        0
 40
-0.6
 41
-30.0
 62
     5
 63
     7
 74
     1
 91
        4
 64
     7
 65
   257
 75
     1
175
     1
 42
1.0
 92
        8
 66
     7
 43
1.0
 76
     1
 77
     6
 78
     2
 67
     7
 79
     5
170
     0
171
     0
290
     0
174
     0
 93
        1
 44
50.0
173
     0
291
     1
 45
0.0
1001
ACAD
1000
AcDbSavedByObjectVersion
1070
     0
1000
AcDbSavedByObjectVersion
1070
     0
  0
VISUALSTYLE
  5
B101
102
{ACAD_REACTORS
330
B0F1
102
}
330
B0F1
100
AcDbVisualStyle
  2
ColorChange
 70
    16
 71
     2
 72
     2
 73
     3
 90
        0
 40
-0.6
 41
-30.0
 62
     5
 63
     8
 74
     1
 91
        4
 64
     7
 65
   257
 75
     1
175
     1
 42
1.0
 92
        8
 66
     8
 43
1.0
 76
     1
 77
     6
 78
     2
 67
     7
 79
     5
170
     0
171
     0
290
     0
174
     0
 93
        1
 44
0.0
173
     0
291
     1
 45
0.0
1001
ACAD
1000
AcDbSavedByObjectVersion
1070
     0
1000
AcDbSavedByObjectVersion
1070
     0
  0
VISUALSTYLE
  5
B0FA
102
{ACAD_REACTORS
330
B0F1
102
}
330
B0F1
100
AcDbVisualStyle
  2
Conceptual
 70
     9
 71
     3
 72
     2
 73
     0
 90
        0
 40
-0.6
 41
-30.0
 62
     5
 63
     7
 74
     2
 91
        2
 64
     7
 65
   257
 75
     1
175
     1
 42
40.0
 92
        8
 66
     7
 43
1.0
 76
     1
 77
     6
 78
     2
 67
     7
 79
     3
170
     0
171
     0
290
     0
174
     0
 93
        1
 44
0.0
173
     0
291
     0
 45
0.0
1001
ACAD
1000
AcDbSavedByObjectVersion
1070
     0
1000
AcDbSavedByObjectVersion
1070
     0
  0
VISUALSTYLE
  5
B0FC
102
{ACAD_REACTORS
330
B0F1
102
}
330
B0F1
100
AcDbVisualStyle
  2
Dim
 70
    11
 71
     2
 72
     2
 73
     0
 90
        0
 40
-0.6
 41
-30.0
 62
     5
 63
     7
 74
     1
 91
        4
 64
     7
 65
   257
 75
     1
175
     1
 42
1.0
 92
        8
 66
     7
 43
1.0
 76
     1
 77
     6
 78
     2
 67
     7
 79
     5
170
     0
171
     0
290
     0
174
     0
 93
        1
 44
-50.0
173
     0
291
     1
 45
0.0
1001
ACAD
1000
AcDbSavedByObjectVersion
1070
     0
1000
AcDbSavedByObjectVersion
1070
     0
  0
VISUALSTYLE
  5
B100
102
{ACAD_REACTORS
330
B0F1
102
}
330
B0F1
100
AcDbVisualStyle
  2
Facepattern
 70
    15
 71
     2
 72
     2
 73
     0
 90
        0
 40
-0.6
 41
-30.0
 62
     5
 63
     7
 74
     1
 91
        4
 64
     7
 65
   257
 75
     1
175
     1
 42
1.0
 92
        8
 66
     7
 43
1.0
 76
     1
 77
     6
 78
     2
 67
     7
 79
     5
170
     0
171
     0
290
     0
174
     0
 93
        1
 44
0.0
173
     0
291
     1
 45
0.0
1001
ACAD
1000
AcDbSavedByObjectVersion
1070
     0
1000
AcDbSavedByObjectVersion
1070
     0
  0
VISUALSTYLE
  5
B0F2
102
{ACAD_REACTORS
330
B0F1
102
}
330
B0F1
100
AcDbVisualStyle
  2
Flat
 70
     0
 71
     2
 72
     1
 73
     1
 90
        2
 40
-0.6
 41
30.0
 62
     5
 63
     7
 74
     0
 91
        4
 64
     7
 65
   257
 75
     1
175
     1
 42
1.0
 92
        8
 66
     7
 43
1.0
 76
     1
 77
     6
 78
     2
 67
     7
 79
     5
170
     0
171
     0
290
     0
174
     0
 93
       13
 44
0.0
173
     0
291
     1
 45
0.0
1001
ACAD
1000
AcDbSavedByObjectVersion
1070
     0
1000
AcDbSavedByObjectVersion
1070
     0
  0
VISUALSTYLE
  5
B0F3
102
{ACAD_REACTORS
330
B0F1
102
}
330
B0F1
100
AcDbVisualStyle
  2
FlatWithEdges
 70
     1
 71
     2
 72
     1
 73
     1
 90
        2
 40
-0.6
 41
30.0
 62
     5
 63
     7
 74
     1
 91
        4
 64
     7
 65
   257
 75
     1
175
     1
 42
1.0
 92
        0
 66
   257
 43
1.0
 76
     1
 77
     6
 78
     2
 67
     7
 79
     5
170
     0
171
     0
290
     0
174
     0
 93
       13
 44
0.0
173
     0
291
     1
 45
0.0
1001
ACAD
1000
AcDbSavedByObjectVersion
1070
     0
1000
AcDbSavedByObjectVersion
1070
     0
  0
VISUALSTYLE
  5
B0F4
102
{ACAD_REACTORS
330
B0F1
102
}
330
B0F1
100
AcDbVisualStyle
  2
Gouraud
 70
     2
 71
     2
 72
     2
 73
     1
 90
        2
 40
-0.6
 41
30.0
 62
     5
 63
     7
 74
     0
 91
        4
 64
     7
 65
   257
 75
     1
175
     1
 42
1.0
 92
        0
 66
     7
 43
1.0
 76
     1
 77
     6
 78
     2
 67
     7
 79
     5
170
     0
171
     0
290
     0
174
     0
 93
       13
 44
0.0
173
     0
291
     1
 45
0.0
1001
ACAD
1000
AcDbSavedByObjectVersion
1070
     0
1000
AcDbSavedByObjectVersion
1070
     0
  0
VISUALSTYLE
  5
B0F5
102
{ACAD_REACTORS
330
B0F1
102
}
330
B0F1
100
AcDbVisualStyle
  2
GouraudWithEdges
 70
     3
 71
     2
 72
     2
 73
     1
 90
        2
 40
-0.6
 41
30.0
 62
     5
 63
     7
 74
     1
 91
        4
 64
     7
 65
   257
 75
     1
175
     1
 42
1.0
 92
        0
 66
   257
 43
1.0
 76
     1
 77
     6
 78
     2
 67
     7
 79
     5
170
     0
171
     0
290
     0
174
     0
 93
       13
 44
0.0
173
     0
291
     1
 45
0.0
1001
ACAD
1000
AcDbSavedByObjectVersion
1070
     0
1000
AcDbSavedByObjectVersion
1070
     0
  0
VISUALSTYLE
  5
B0FF
102
{ACAD_REACTORS
330
B0F1
102
}
330
B0F1
100
AcDbVisualStyle
  2
Linepattern
 70
    14
 71
     2
 72
     2
 73
     0
 90
        0
 40
-0.6
 41
-30.0
 62
     5
 63
     7
 74
     1
 91
        4
 64
     7
 65
   257
 75
     7
175
     7
 42
1.0
 92
        8
 66
     7
 43
1.0
 76
     1
 77
     6
 78
     2
 67
     7
 79
     5
170
     0
171
     0
290
     0
174
     0
 93
        1
 44
0.0
173
     0
291
     1
 45
0.0
1001
ACAD
1000
AcDbSavedByObjectVersion
1070
     0
1000
AcDbSavedByObjectVersion
1070
     0
  0
VISUALSTYLE
  5
B0FB
102
{ACAD_REACTORS
330
B0F1
102
}
330
B0F1
100
AcDbVisualStyle
  2
Realistic
 70
     8
 71
     2
 72
     2
 73
     0
 90
        0
 40
-0.6
 41
-30.0
 62
     5
 63
     7
 74
     1
 91
        0
 64
     7
 65
   257
 75
     1
175
     1
 42
1.0
 92
        8
 66
     8
 43
1.0
 76
     1
 77
     6
 78
     2
 67
     7
 79
     5
170
     0
171
     0
290
     0
174
     0
 93
       13
 44
0.0
173
     0
291
     0
 45
0.0
1001
ACAD
1000
AcDbSavedByObjectVersion
1070
     0
1000
AcDbSavedByObjectVersion
1070
     0
  0
VISUALSTYLE
  5
B0FE
102
{ACAD_REACTORS
330
B0F1
102
}
330
B0F1
100
AcDbVisualStyle
  2
Thicken
 70
    13
 71
     2
 72
     2
 73
     0
 90
        0
 40
-0.6
 41
-30.0
 62
     5
 63
     7
 74
     1
 91
        4
 64
     7
 65
   257
 75
     1
175
     1
 42
1.0
 92
       12
 66
     7
 43
1.0
 76
     1
 77
     6
 78
     2
 67
     7
 79
     5
170
     0
171
     0
290
     0
174
     0
 93
        1
 44
0.0
173
     0
291
     1
 45
0.0
1001
ACAD
1000
AcDbSavedByObjectVersion
1070
     0
1000
AcDbSavedByObjectVersion
1070
     0
  0
DICTIONARYVAR
  5
B5BA
102
{ACAD_REACTORS
330
34
102
}
330
34
100
DictionaryVariables
280
     0
  1
1:1
  0
DICTIONARYVAR
  5
B5B8
102
{ACAD_REACTORS
330
34
102
}
330
34
100
DictionaryVariables
280
     0
  1
STANDARD
  0
DICTIONARYVAR
  5
AAF3
102
{ACAD_REACTORS
330
34
102
}
330
34
100
DictionaryVariables
280
     0
  1
STANDARD
  0
DICTIONARYVAR
  5
A10C
102
{ACAD_REACTORS
330
34
102
}
330
34
100
DictionaryVariables
280
     0
  1
1
  0
DICTIONARYVAR
  5
AB07
102
{ACAD_REACTORS
330
34
102
}
330
34
100
DictionaryVariables
280
     0
  1
4
  0
DICTIONARYVAR
  5
35
102
{ACAD_REACTORS
330
34
102
}
330
34
100
DictionaryVariables
280
     0
  1
0
  0
DICTIONARYVAR
  5
B5BB
102
{ACAD_REACTORS
330
34
102
}
330
34
100
DictionaryVariables
280
     0
  1
0
  0
DICTIONARYVAR
  5
B5B9
102
{ACAD_REACTORS
330
34
102
}
330
34
100
DictionaryVariables
280
     0
  1
0
  0
DICTIONARYVAR
  5
194C
102
{ACAD_REACTORS
330
34
102
}
330
34
100
DictionaryVariables
280
     0
  1
96
  0
DICTIONARY
  5
7E8
102
{ACAD_REACTORS
330
47
102
}
330
47
100
AcDbDictionary
281
     1
  0
DICTIONARY
  5
4C
102
{ACAD_REACTORS
330
47
102
}
330
47
100
AcDbDictionary
281
     1
  0
XRECORD
  5
A929
102
{ACAD_REACTORS
330
47
102
}
330
47
100
AcDbXrecord
280
     1
 90
-1023410169
  0
XRECORD
  5
B571
102
{ACAD_REACTORS
330
B570
102
}
330
B570
100
AcDbXrecord
280
     1
  0
XRECORD
  5
3FB7
102
{ACAD_REACTORS
330
3F96
102
}
330
3F96
100
AcDbXrecord
280
     1
 91
        3
330
0
 90
        8
 62
     7
370
    40
331
16
  1
Color_7
330
0
 90
        0
 62
    14
370
    -3
331
16
  1
Color_14
330
0
 90
        8
 62
     7
370
    20
331
16
  1
Color_7
330
6D1
 90
        0
 62
     7
370
    -3
331
16
  1
Color_7
330
0
 90
        8
 62
     7
370
    50
331
16
  1
Color_7
330
0
 90
        8
 62
     2
370
    35
331
16
  1
Color_2
330
0
 90
        8
 62
     7
370
    -3
331
16
  1
Color_7
330
10
 90
        8
 62
     7
370
    -3
331
16
  1
Color_7
  0
DICTIONARY
  5
C0B8
330
22
100
AcDbDictionary
280
     1
281
     1
  3
ACAD_XREC_ROUNDTRIP
360
C0B9
  0
DICTIONARY
  5
C0B6
330
1E
100
AcDbDictionary
280
     1
281
     1
  3
ACAD_XREC_ROUNDTRIP
360
C0B7
  0
DICTIONARY
  5
C0BA
330
26
100
AcDbDictionary
280
     1
281
     1
  3
ACAD_XREC_ROUNDTRIP
360
C0BB
  0
DICTIONARY
  5
C02D
330
B0EF
100
AcDbDictionary
280
     1
281
     1
  3
ACAD_XREC_ROUNDTRIP
360
C02E
  0
DICTIONARY
  5
C02B
330
B0EE
100
AcDbDictionary
280
     1
281
     1
  3
ACAD_XREC_ROUNDTRIP
360
C02C
  0
DICTIONARY
  5
C02F
330
B0F0
100
AcDbDictionary
280
     1
281
     1
  3
ACAD_XREC_ROUNDTRIP
360
C030
  0
DICTIONARY
  5
B5B5
330
AABA
100
AcDbDictionary
280
     1
281
     1
  3
ACAD_ROUNDTRIP_2008_TABLESTYLE_CELLSTYLEMAP
360
C027
  3
ACAD_XREC_ROUNDTRIP
360
C0BC
  0
XRECORD
  5
C0B9
102
{ACAD_REACTORS
330
C0B8
102
}
330
C0B8
100
AcDbXrecord
280
     1
102
SHADEPLOT
 70
     0
102
SHADEPLOTRESLEVEL
 70
     2
102
SHADEPLOTCUSTOMDPI
 70
   200
  0
XRECORD
  5
C0B7
102
{ACAD_REACTORS
330
C0B6
102
}
330
C0B6
100
AcDbXrecord
280
     1
102
SHADEPLOT
 70
     0
102
SHADEPLOTRESLEVEL
 70
     2
102
SHADEPLOTCUSTOMDPI
 70
   300
  0
XRECORD
  5
C0BB
102
{ACAD_REACTORS
330
C0BA
102
}
330
C0BA
100
AcDbXrecord
280
     1
102
SHADEPLOT
 70
     0
102
SHADEPLOTRESLEVEL
 70
     2
102
SHADEPLOTCUSTOMDPI
 70
   300
  0
XRECORD
  5
C02E
102
{ACAD_REACTORS
330
C02D
102
}
330
C02D
100
AcDbXrecord
280
     1
102
MATERIAL
148
0.0
149
0.0
149
0.0
 93
        0
 94
       63
282
     0
 72
     1
 77
     1
171
     1
175
     1
179
     1
273
     0
  0
XRECORD
  5
C02C
102
{ACAD_REACTORS
330
C02B
102
}
330
C02B
100
AcDbXrecord
280
     1
102
MATERIAL
148
0.0
149
0.0
149
0.0
 93
        0
 94
       63
282
     0
 72
     1
 77
     1
171
     1
175
     1
179
     1
273
     0
  0
XRECORD
  5
C030
102
{ACAD_REACTORS
330
C02F
102
}
330
C02F
100
AcDbXrecord
280
     1
102
MATERIAL
148
0.0
149
0.0
149
0.0
 93
        0
 94
       63
282
     0
 72
     1
 77
     1
171
     1
175
     1
179
     1
273
     0
  0
ACAD_PROXY_OBJECT
  5
C027
102
{ACAD_REACTORS
330
B5B5
102
}
330
B5B5
100
AcDbProxyObject
 90
      499
 91
      628
 95
  6815769
 70
     1
100
AcDbCellStyleMap
 90
        3
300
CELLSTYLE
  1
TABLEFORMAT_BEGIN
 90
        5
170
     1
 91
        0
 92
    32768
 62
   257
 93
        1
300
CONTENTFORMAT
  1
CONTENTFORMAT_BEGIN
 90
        0
 91
        0
 92
        4
 93
        0
300

 40
0.0
140
1.0
 94
        5
 62
     0
340
11
144
6.0
309
CONTENTFORMAT_END
171
     1
301
MARGIN
  1
CELLMARGIN_BEGIN
 40
1.5
 40
1.5
 40
1.5
 40
1.5
 40
0.18
 40
0.18
309
CELLMARGIN_END
 94
        6
 95
        1
302
GRIDFORMAT
  1
GRIDFORMAT_BEGIN
 90
        0
 91
        1
 62
     0
 92
       -2
340
0
 93
        0
 40
0.045
309
GRIDFORMAT_END
 95
        2
302
GRIDFORMAT
  1
GRIDFORMAT_BEGIN
 90
        0
 91
        1
 62
     0
 92
       -2
340
0
 93
        0
 40
0.045
309
GRIDFORMAT_END
 95
        4
302
GRIDFORMAT
  1
GRIDFORMAT_BEGIN
 90
        0
 91
        1
 62
     0
 92
       -2
340
0
 93
        0
 40
0.045
309
GRIDFORMAT_END
 95
        8
302
GRIDFORMAT
  1
GRIDFORMAT_BEGIN
 90
        0
 91
        1
 62
     0
 92
       -2
340
0
 93
        0
 40
0.045
309
GRIDFORMAT_END
 95
       16
302
GRIDFORMAT
  1
GRIDFORMAT_BEGIN
 90
        0
 91
        1
 62
     0
 92
       -2
340
0
 93
        0
 40
0.045
309
GRIDFORMAT_END
 95
       32
302
GRIDFORMAT
  1
GRIDFORMAT_BEGIN
 90
        0
 91
        1
 62
     0
 92
       -2
340
0
 93
        0
 40
0.045
309
GRIDFORMAT_END
309
TABLEFORMAT_END
  1
CELLSTYLE_BEGIN
 90
        1
 91
        1
300
_TITLE
309
CELLSTYLE_END
300
CELLSTYLE
  1
TABLEFORMAT_BEGIN
 90
        5
170
     1
 91
        0
 92
        0
 62
   257
 93
        1
300
CONTENTFORMAT
  1
CONTENTFORMAT_BEGIN
 90
        0
 91
        0
 92
        4
 93
        0
300

 40
0.0
140
1.0
 94
        5
 62
     0
340
11
144
4.5
309
CONTENTFORMAT_END
171
     1
301
MARGIN
  1
CELLMARGIN_BEGIN
 40
1.5
 40
1.5
 40
1.5
 40
1.5
 40
0.18
 40
0.18
309
CELLMARGIN_END
 94
        6
 95
        1
302
GRIDFORMAT
  1
GRIDFORMAT_BEGIN
 90
        0
 91
        1
 62
     0
 92
       -2
340
0
 93
        0
 40
0.045
309
GRIDFORMAT_END
 95
        2
302
GRIDFORMAT
  1
GRIDFORMAT_BEGIN
 90
        0
 91
        1
 62
     0
 92
       -2
340
0
 93
        0
 40
0.045
309
GRIDFORMAT_END
 95
        4
302
GRIDFORMAT
  1
GRIDFORMAT_BEGIN
 90
        0
 91
        1
 62
     0
 92
       -2
340
0
 93
        0
 40
0.045
309
GRIDFORMAT_END
 95
        8
302
GRIDFORMAT
  1
GRIDFORMAT_BEGIN
 90
        0
 91
        1
 62
     0
 92
       -2
340
0
 93
        0
 40
0.045
309
GRIDFORMAT_END
 95
       16
302
GRIDFORMAT
  1
GRIDFORMAT_BEGIN
 90
        0
 91
        1
 62
     0
 92
       -2
340
0
 93
        0
 40
0.045
309
GRIDFORMAT_END
 95
       32
302
GRIDFORMAT
  1
GRIDFORMAT_BEGIN
 90
        0
 91
        1
 62
     0
 92
       -2
340
0
 93
        0
 40
0.045
309
GRIDFORMAT_END
309
TABLEFORMAT_END
  1
CELLSTYLE_BEGIN
 90
        2
 91
        1
300
_HEADER
309
CELLSTYLE_END
300
CELLSTYLE
  1
TABLEFORMAT_BEGIN
 90
        5
170
     1
 91
        0
 92
        0
 62
   257
 93
        1
300
CONTENTFORMAT
  1
CONTENTFORMAT_BEGIN
 90
        0
 91
        0
 92
        4
 93
        0
300

 40
0.0
140
1.0
 94
        2
 62
     0
340
11
144
4.5
309
CONTENTFORMAT_END
171
     1
301
MARGIN
  1
CELLMARGIN_BEGIN
 40
1.5
 40
1.5
 40
1.5
 40
1.5
 40
0.18
 40
0.18
309
CELLMARGIN_END
 94
        6
 95
        1
302
GRIDFORMAT
  1
GRIDFORMAT_BEGIN
 90
        0
 91
        1
 62
     0
 92
       -2
340
0
 93
        0
 40
0.045
309
GRIDFORMAT_END
 95
        2
302
GRIDFORMAT
  1
GRIDFORMAT_BEGIN
 90
        0
 91
        1
 62
     0
 92
       -2
340
0
 93
        0
 40
0.045
309
GRIDFORMAT_END
 95
        4
302
GRIDFORMAT
  1
GRIDFORMAT_BEGIN
 90
        0
 91
        1
 62
     0
 92
       -2
340
0
 93
        0
 40
0.045
309
GRIDFORMAT_END
 95
        8
302
GRIDFORMAT
  1
GRIDFORMAT_BEGIN
 90
        0
 91
        1
 62
     0
 92
       -2
340
0
 93
        0
 40
0.045
309
GRIDFORMAT_END
 95
       16
302
GRIDFORMAT
  1
GRIDFORMAT_BEGIN
 90
        0
 91
        1
 62
     0
 92
       -2
340
0
 93
        0
 40
0.045
309
GRIDFORMAT_END
 95
       32
302
GRIDFORMAT
  1
GRIDFORMAT_BEGIN
 90
        0
 91
        1
 62
     0
 92
       -2
340
0
 93
        0
 40
0.045
309
GRIDFORMAT_END
309
TABLEFORMAT_END
  1
CELLSTYLE_BEGIN
 90
        3
 91
        2
300
_DATA
309
CELLSTYLE_END
1001
ACAD
1000
AcRTDxfName
1000
CELLSTYLEMAP
  0
XRECORD
  5
C0BC
102
{ACAD_REACTORS
330
B5B5
102
}
330
B5B5
100
AcDbXrecord
280
     1
102
ACAD_ROUNDTRIP_PRE2007_TABLESTYLE
 90
        4
 91
        0
  1

 92
        4
 93
        0
  2

 94
        4
 95
        0
  3

  0
ENDSEC
  0
EOF
