  0
SECTION
  2
HEADER
  9
$ACADVER
  1
AC1015
  9
$ACADMAINTVER
 70
    20
  9
$DWGCODEPAGE
  3
ANSI_932
  9
$INSBASE
 10
0.0
 20
0.0
 30
0.0
  9
$EXTMIN
 10
-211.0058095178224
 20
-100.0041627253688
 30
-0.0000000000112497
  9
$EXTMAX
 10
170.0058148406556
 20
173.0041665393673
 30
0.0000000000002956
  9
$LIMMIN
 10
-211.0
 20
-100.0
  9
$LIMMAX
 10
170.0
 20
173.0
  9
$ORTHOMODE
 70
     0
  9
$REGENMODE
 70
     1
  9
$FILLMODE
 70
     1
  9
$QTEXTMODE
 70
     0
  9
$MIRRTEXT
 70
     0
  9
$LTSCALE
 40
1.0
  9
$ATTMODE
 70
     1
  9
$TEXTSIZE
 40
0.2
  9
$TRACEWID
 40
0.05
  9
$TEXTSTYLE
  7
STANDARD
  9
$CLAYER
  8
AM_0
  9
$CELTYPE
  6
ByLayer
  9
$CECOLOR
 62
   256
  9
$CELTSCALE
 40
1.0
  9
$DISPSILH
 70
     0
  9
$DIMSCALE
 40
1.0
  9
$DIMASZ
 40
1.0
  9
$DIMEXO
 40
2.54
  9
$DIMDLI
 40
0.38
  9
$DIMRND
 40
0.0
  9
$DIMDLE
 40
0.0
  9
$DIMEXE
 40
2.54
  9
$DIMTP
 40
0.0
  9
$DIMTM
 40
0.0
  9
$DIMTXT
 40
3.2
  9
$DIMCEN
 40
0.09
  9
$DIMTSZ
 40
0.0
  9
$DIMTOL
 70
     0
  9
$DIMLIM
 70
     0
  9
$DIMTIH
 70
     0
  9
$DIMTOH
 70
     0
  9
$DIMSE1
 70
     0
  9
$DIMSE2
 70
     0
  9
$DIMTAD
 70
     1
  9
$DIMZIN
 70
     0
  9
$DIMBLK
  1

  9
$DIMASO
 70
     1
  9
$DIMSHO
 70
     0
  9
$DIMPOST
  1

  9
$DIMAPOST
  1

  9
$DIMALT
 70
     0
  9
$DIMALTD
 70
     2
  9
$DIMALTF
 40
25.4
  9
$DIMLFAC
 40
1.0
  9
$DIMTOFL
 70
     0
  9
$DIMTVP
 40
1.0
  9
$DIMTIX
 70
     0
  9
$DIMSOXD
 70
     0
  9
$DIMSAH
 70
     1
  9
$DIMBLK1
  1

  9
$DIMBLK2
  1

  9
$DIMSTYLE
  2
DIMSTYLE
  9
$DIMCLRD
 70
     0
  9
$DIMCLRE
 70
     0
  9
$DIMCLRT
 70
     0
  9
$DIMTFAC
 40
1.0
  9
$DIMGAP
 40
1.6
  9
$DIMJUST
 70
     0
  9
$DIMSD1
 70
     0
  9
$DIMSD2
 70
     0
  9
$DIMTOLJ
 70
     1
  9
$DIMTZIN
 70
     0
  9
$DIMALTZ
 70
     0
  9
$DIMALTTZ
 70
     0
  9
$DIMUPT
 70
     0
  9
$DIMDEC
 70
     4
  9
$DIMTDEC
 70
     4
  9
$DIMALTU
 70
     2
  9
$DIMALTTD
 70
     2
  9
$DIMTXSTY
  7
STANDARD
  9
$DIMAUNIT
 70
     0
  9
$DIMADEC
 70
     0
  9
$DIMALTRND
 40
0.0
  9
$DIMAZIN
 70
     0
  9
$DIMDSEP
 70
    46
  9
$DIMATFIT
 70
     3
  9
$DIMFRAC
 70
     0
  9
$DIMLDRBLK
  1

  9
$DIMLUNIT
 70
     2
  9
$DIMLWD
 70
    -2
  9
$DIMLWE
 70
    -2
  9
$DIMTMOVE
 70
     0
  9
$LUNITS
 70
     2
  9
$LUPREC
 70
     4
  9
$SKETCHINC
 40
0.1
  9
$FILLETRAD
 40
0.0
  9
$AUNITS
 70
     0
  9
$AUPREC
 70
     0
  9
$MENU
  1
.
  9
$ELEVATION
 40
0.0
  9
$PELEVATION
 40
0.0
  9
$THICKNESS
 40
0.0
  9
$LIMCHECK
 70
     0
  9
$CHAMFERA
 40
0.0
  9
$CHAMFERB
 40
0.0
  9
$CHAMFERC
 40
0.0
  9
$CHAMFERD
 40
0.0
  9
$SKPOLY
 70
     0
  9
$TDCREATE
 40
2454217.695853218
  9
$TDUCREATE
 40
2454217.320853218
  9
$TDUPDATE
 40
2455078.604339734
  9
$TDUUPDATE
 40
2455078.229339734
  9
$TDINDWG
 40
0.1600880787
  9
$TDUSRTIMER
 40
0.1600878935
  9
$USRTIMER
 70
     1
  9
$ANGBASE
 50
0.0
  9
$ANGDIR
 70
     0
  9
$PDMODE
 70
     0
  9
$PDSIZE
 40
0.0
  9
$PLINEWID
 40
0.0
  9
$SPLFRAME
 70
     0
  9
$SPLINETYPE
 70
     6
  9
$SPLINESEGS
 70
     8
  9
$HANDSEED
  5
945
  9
$SURFTAB1
 70
     6
  9
$SURFTAB2
 70
     6
  9
$SURFTYPE
 70
     6
  9
$SURFU
 70
     6
  9
$SURFV
 70
     6
  9
$UCSBASE
  2

  9
$UCSNAME
  2

  9
$UCSORG
 10
0.0
 20
0.0
 30
0.0
  9
$UCSXDIR
 10
1.0
 20
0.0
 30
0.0
  9
$UCSYDIR
 10
0.0
 20
1.0
 30
0.0
  9
$UCSORTHOREF
  2

  9
$UCSORTHOVIEW
 70
     0
  9
$UCSORGTOP
 10
0.0
 20
0.0
 30
0.0
  9
$UCSORGBOTTOM
 10
0.0
 20
0.0
 30
0.0
  9
$UCSORGLEFT
 10
0.0
 20
0.0
 30
0.0
  9
$UCSORGRIGHT
 10
0.0
 20
0.0
 30
0.0
  9
$UCSORGFRONT
 10
0.0
 20
0.0
 30
0.0
  9
$UCSORGBACK
 10
0.0
 20
0.0
 30
0.0
  9
$PUCSBASE
  2

  9
$PUCSNAME
  2

  9
$PUCSORG
 10
0.0
 20
0.0
 30
0.0
  9
$PUCSXDIR
 10
1.0
 20
0.0
 30
0.0
  9
$PUCSYDIR
 10
0.0
 20
1.0
 30
0.0
  9
$PUCSORTHOREF
  2

  9
$PUCSORTHOVIEW
 70
     0
  9
$PUCSORGTOP
 10
0.0
 20
0.0
 30
0.0
  9
$PUCSORGBOTTOM
 10
0.0
 20
0.0
 30
0.0
  9
$PUCSORGLEFT
 10
0.0
 20
0.0
 30
0.0
  9
$PUCSORGRIGHT
 10
0.0
 20
0.0
 30
0.0
  9
$PUCSORGFRONT
 10
0.0
 20
0.0
 30
0.0
  9
$PUCSORGBACK
 10
0.0
 20
0.0
 30
0.0
  9
$USERI1
 70
     0
  9
$USERI2
 70
     0
  9
$USERI3
 70
     0
  9
$USERI4
 70
     0
  9
$USERI5
 70
     0
  9
$USERR1
 40
0.0
  9
$USERR2
 40
0.0
  9
$USERR3
 40
0.0
  9
$USERR4
 40
0.0
  9
$USERR5
 40
0.0
  9
$WORLDVIEW
 70
     1
  9
$SHADEDGE
 70
     3
  9
$SHADEDIF
 70
    70
  9
$TILEMODE
 70
     1
  9
$MAXACTVP
 70
    64
  9
$PINSBASE
 10
0.0
 20
0.0
 30
0.0
  9
$PLIMCHECK
 70
     0
  9
$PEXTMIN
 10
1.000000000000000E+20
 20
1.000000000000000E+20
 30
1.000000000000000E+20
  9
$PEXTMAX
 10
-1.000000000000000E+20
 20
-1.000000000000000E+20
 30
-1.000000000000000E+20
  9
$PLIMMIN
 10
-211.0
 20
-100.0
  9
$PLIMMAX
 10
170.0
 20
173.0
  9
$UNITMODE
 70
     0
  9
$VISRETAIN
 70
     1
  9
$PLINEGEN
 70
     0
  9
$PSLTSCALE
 70
     1
  9
$TREEDEPTH
 70
  3020
  9
$CMLSTYLE
  2
Standard
  9
$CMLJUST
 70
     0
  9
$CMLSCALE
 40
1.0
  9
$PROXYGRAPHICS
 70
     1
  9
$MEASUREMENT
 70
     0
  9
$CELWEIGHT
370
    -1
  9
$ENDCAPS
280
     0
  9
$JOINSTYLE
280
     0
  9
$LWDISPLAY
290
     0
  9
$INSUNITS
 70
     0
  9
$HYPERLINKBASE
  1

  9
$STYLESHEET
  1

  9
$XEDIT
290
     1
  9
$CEPSNTYPE
380
     0
  9
$PSTYLEMODE
290
     1
  9
$FINGERPRINTGUID
  2
{037C5469-503D-4C63-9652-4569A76BAE8E}
  9
$VERSIONGUID
  2
{7F0B9A0D-B1EC-470E-842D-3A79A7987BAF}
  9
$EXTNAMES
290
     1
  9
$PSVPSCALE
 40
0.0
  9
$OLESTARTUP
290
     0
  0
ENDSEC
  0
SECTION
  2
CLASSES
  0
CLASS
  1
ACDBDICTIONARYWDFLT
  2
AcDbDictionaryWithDefault
  3
ObjectDBX Classes
 90
        0
280
     0
281
     0
  0
CLASS
  1
MATERIAL
  2
AcDbMaterial
  3
ObjectDBX Classes
 90
     1153
280
     0
281
     0
  0
CLASS
  1
VISUALSTYLE
  2
AcDbVisualStyle
  3
ObjectDBX Classes
 90
     4095
280
     0
281
     0
  0
CLASS
  1
TABLESTYLE
  2
AcDbTableStyle
  3
ObjectDBX Classes
 90
     4095
280
     0
281
     0
  0
CLASS
  1
AMGSETTINGSOBJ
  2
AmgSettingsObj
  3
"AcadM|Product Description: AutoCAD Mechanical|Company: Autodesk, Inc."
 90
     1024
280
     0
281
     0
  0
CLASS
  1
ACME_DOCUMENT
  2
AcMeDbDoc
  3
AcMeServices
 90
     1024
280
     0
281
     0
  0
CLASS
  1
ACMESCOPE
  2
AcMeScope
  3
AcMeServices
 90
     1024
280
     0
281
     0
  0
CLASS
  1
ACMECOMMANDHISTORY
  2
AcMeCommandHistory
  3
AcMeServices
 90
     1024
280
     0
281
     0
  0
CLASS
  1
ACIMSYSVARMAN
  2
AcImSysVarManager
  3
AcMeServices
 90
     1024
280
     0
281
     0
  0
CLASS
  1
ACIMINTSYSVAR
  2
AcImIntSysVar
  3
AcMeServices
 90
     1024
280
     0
281
     0
  0
CLASS
  1
ACMEDRAWINGMAN
  2
AcMeDrawingMan
  3
AcMeServices
 90
     1024
280
     0
281
     0
  0
CLASS
  1
ACMEVIEW
  2
AcMeView
  3
AcMeServices
 90
     1024
280
     0
281
     0
  0
CLASS
  1
ACDBENTITYCACHE
  2
AcMeEntityCache
  3
AcMeServices
 90
     1024
280
     0
281
     0
  0
CLASS
  1
GSMANAGER
  2
AcMeGSManager
  3
AcMeServices
 90
     1024
280
     0
281
     0
  0
CLASS
  1
AMDTINTERNALREACTOR
  2
AmdtInternalReactor
  3
AcMeServices
 90
     1024
280
     0
281
     0
  0
CLASS
  1
ACMESTATEMGR
  2
AcMeStateMgr
  3
AcMeServices
 90
     1024
280
     0
281
     0
  0
CLASS
  1
ACGREFMASTER
  2
AcGrefMaster
  3
AcAttribServices
 90
     1024
280
     0
281
     0
  0
CLASS
  1
AM_DRAWING_MGR
  2
AcDmDwgMgr
  3
AcMechDwgViewMgmt
 90
     1024
280
     0
281
     0
  0
CLASS
  1
AM_DWG_DOCUMENT
  2
AcDmDwgDocument
  3
AcMechDwgViewMgmt
 90
     1024
280
     0
281
     0
  0
CLASS
  1
AM_DWG_SHEET
  2
AcDmSheet
  3
AcMechDwgViewMgmt
 90
     1024
280
     0
281
     0
  0
CLASS
  1
AM_VIEWDIMPARMAP
  2
AcDmViewDimParMap
  3
AcMechDwgViewMgmt
 90
     1024
280
     0
281
     0
  0
CLASS
  1
ACIMREALSYSVAR
  2
AcImRealSysVar
  3
AcMeServices
 90
     1024
280
     0
281
     0
  0
CLASS
  1
AM_DWGMGR_NAME
  2
AcDmDwgMgrName
  3
AcMechDwgViewMgmt
 90
     1024
280
     0
281
     0
  0
CLASS
  1
ACME_DATABASE
  2
AcMeDbDatabase
  3
AcMeServices
 90
     1024
280
     0
281
     0
  0
CLASS
  1
ACRFINSADJUSTERMGR
  2
AcRfInsAdjusterMgr
  3
AcMeServices
 90
     1024
280
     0
281
     0
  0
CLASS
  1
ACGREFACADMASTER
  2
AcGrefacadMaster
  3
AcGrefServices
 90
     1024
280
     0
281
     0
  0
CLASS
  1
AMDTMENUSTATEMGR
  2
AmdtMenuStateMgr
  3
McadcomServices
 90
     1024
280
     0
281
     0
  0
CLASS
  1
AMDTMCOMMENUSTATE
  2
AmdtMcomMenuState
  3
McadcomServices
 90
     1024
280
     0
281
     0
  0
CLASS
  1
AMIMASTER
  2
AmiMaster
  3
AmiServices
 90
     1024
280
     0
281
     0
  0
CLASS
  1
MAPIAMMOUDLE
  2
MApiAmModule
  3
MApiAmServices
 90
     1024
280
     0
281
     0
  0
CLASS
  1
ACIMSTRSYSVAR
  2
AcImStrSysVar
  3
AcMeServices
 90
     1024
280
     0
281
     0
  0
CLASS
  1
AMDTADMENUSTATE
  2
AmdtAdMenuState
  3
DesignerServices
 90
     1024
280
     0
281
     0
  0
CLASS
  1
ADAPPL
  2
AcAdAppl
  3
DesignerServices
 90
     1024
280
     0
281
     0
  0
CLASS
  1
DEPMGR
  2
AcAdDepMgr
  3
DesignerServices
 90
     1024
280
     0
281
     0
  0
CLASS
  1
PARAMMGR
  2
AcAdParamMgr
  3
DesignerServices
 90
     1024
280
     0
281
     0
  0
CLASS
  1
PARAMSCOPE
  2
AcAdParamScope
  3
DesignerServices
 90
     1024
280
     0
281
     0
  0
CLASS
  1
NAMEDAPPL
  2
AcAdNamedAppl
  3
DesignerServices
 90
     1024
280
     0
281
     0
  0
CLASS
  1
AMDTDMMENUSTATE
  2
AmdtDmMenuState
  3
AcMechDwgViewMgmt
 90
     1024
280
     0
281
     0
  0
CLASS
  1
AMDTAMMENUSTATE
  2
AmdtAmMenuState
  3
DesignerAssemblies
 90
     1024
280
     0
281
     0
  0
CLASS
  1
ACAMPROJECT
  2
AcAmProject
  3
DesignerAssemblies
 90
     1024
280
     0
281
     0
  0
CLASS
  1
ACAMGRCOMPDEF
  2
AcAmGrCompDef
  3
DesignerAssemblies
 90
     1024
280
     0
281
     0
  0
CLASS
  1
ACCMCONTEXT
  2
AcCmContext
  3
DesignerAssemblies
 90
     1024
280
     0
281
     0
  0
CLASS
  1
ACAMCOMPDEF
  2
AcAmCompDef
  3
DesignerAssemblies
 90
     1024
280
     0
281
     0
  0
CLASS
  1
ACAMCOMPDEFMGR
  2
AcAmCompDefMgr
  3
DesignerAssemblies
 90
     1024
280
     0
281
     0
  0
CLASS
  1
AMCONTEXTMGR
  2
AcAmContextMgr
  3
DesignerAssemblies
 90
     1024
280
     0
281
     0
  0
CLASS
  1
ACAMCONTEXTMODELER
  2
AcAmContextModeler
  3
DesignerAssemblies
 90
     1024
280
     0
281
     0
  0
CLASS
  1
ACMDATADICTIONARY
  2
AcmDataDictionary
  3
"AcmSymBB|Product Description: AutoCAD Mechanical|Company: Autodesk, Inc."
 90
     1024
280
     0
281
     0
  0
CLASS
  1
CATALOGSTATE
  2
AcAmCatalogState
  3
DesignerAssemblies
 90
     1024
280
     0
281
     0
  0
CLASS
  1
ACAMGRCOMPDEFSET
  2
AcAmGrCompDefSet
  3
DesignerAssemblies
 90
     1024
280
     0
281
     0
  0
CLASS
  1
AMDTBROWSERDBTAB
  2
AmdtBrowserDbTab
  3
McadcomServices
 90
     1024
280
     0
281
     0
  0
CLASS
  1
CBROWSERAPPOBJECT
  2
CBrowserAppObject
  3
McadcomServices
 90
     1024
280
     0
281
     0
  0
CLASS
  1
DM_PLACEHOLDER
  2
AcDmSelsetPlaceholder
  3
AcMechDwgViewMgmt
 90
     1024
280
     0
281
     0
  0
CLASS
  1
ACMSTANDARDANSI
  2
AcmStandardANSI
  3
"Amdt_StdImp|Product Description: AutoCAD Mechanical|Company: Autodesk, Inc."
 90
     1024
280
     0
281
     0
  0
CLASS
  1
AMGOBJPROPCFG
  2
AmgObjPropCfg
  3
"AmgLay|Product Description: AutoCAD Mechanical|Company: Autodesk, Inc."
 90
     1025
280
     0
281
     0
  0
CLASS
  1
ACMSURFSTANDARDANSI
  2
AcmSurfTextStdANSI
  3
"Amdt_StdImp|Product Description: AutoCAD Mechanical|Company: Autodesk, Inc."
 90
     1024
280
     0
281
     0
  0
CLASS
  1
ACMFCFSTANDARDANSI
  2
AcmFCFStdANSI
  3
"Amdt_StdImp|Product Description: AutoCAD Mechanical|Company: Autodesk, Inc."
 90
     1024
280
     0
281
     0
  0
CLASS
  1
ACMWELDSTANDARDANSI
  2
AcmWeldingStdANSI
  3
"Amdt_StdImp|Product Description: AutoCAD Mechanical|Company: Autodesk, Inc."
 90
     1024
280
     0
281
     0
  0
CLASS
  1
ACMIDSTANDARDANSI
  2
AcmIdStdANSI
  3
"Amdt_StdImp|Product Description: AutoCAD Mechanical|Company: Autodesk, Inc."
 90
     1024
280
     0
281
     0
  0
CLASS
  1
ACMDATUMSTANDARDANSI
  2
AcmDatumStdANSI
  3
"Amdt_StdImp|Product Description: AutoCAD Mechanical|Company: Autodesk, Inc."
 90
     1024
280
     0
281
     0
  0
CLASS
  1
ACMBOMSTANDARDANSI
  2
AcmBOMStdANSI
  3
"Amdt_StdImp|Product Description: AutoCAD Mechanical|Company: Autodesk, Inc."
 90
     1024
280
     0
281
     0
  0
CLASS
  1
ACMDETAILSTANDARDANSI
  2
AmdtDetailSymStdANSI
  3
"Amdt_StdImp|Product Description: AutoCAD Mechanical|Company: Autodesk, Inc."
 90
     1024
280
     0
281
     0
  0
CLASS
  1
ACMSECTIONSTANDARDANSI
  2
AmdtSectionSymStdANSI
  3
"Amdt_StdImp|Product Description: AutoCAD Mechanical|Company: Autodesk, Inc."
 90
     1024
280
     0
281
     0
  0
CLASS
  1
ACMCENTERLINESTANDARDANSI
  2
AmdtCenterLineStdANSI
  3
"Amdt_StdImp|Product Description: AutoCAD Mechanical|Company: Autodesk, Inc."
 90
     1024
280
     0
281
     0
  0
CLASS
  1
ACMTHREADLINESTANDARDANSI
  2
AmdtThreadLineStdANSI
  3
"Amdt_StdImp|Product Description: AutoCAD Mechanical|Company: Autodesk, Inc."
 90
     1024
280
     0
281
     0
  0
CLASS
  1
ACMNOTESTANDARDANSI
  2
AmdtNoteStdANSI
  3
"Amdt_StdImp|Product Description: AutoCAD Mechanical|Company: Autodesk, Inc."
 90
     1024
280
     0
281
     0
  0
CLASS
  1
ACMTAPERSTANDARDANSI
  2
AcmTaperStdANSI
  3
"Amdt_StdImp|Product Description: AutoCAD Mechanical|Company: Autodesk, Inc."
 90
     1024
280
     0
281
     0
  0
CLASS
  1
AMDTNOTETEMPLATEDB
  2
AmdtNoteTemplateDB
  3
AcmSymBB|Product Description: AutoCAD Mechanical|Company: Autodesk, Inc.
 90
     1024
280
     0
281
     0
  0
CLASS
  1
ACAMGLAYSTD
  2
AcAmgLayStd
  3
"AmgLay|Product Description: AutoCAD Mechanical|Company: Autodesk, Inc."
 90
     1024
280
     0
281
     0
  0
CLASS
  1
ACAMGDIMSTD
  2
AcAmgDimStd
  3
"AmgDim|Product Description: AutoCAD Mechanical|Company: Autodesk, Inc."
 90
     1024
280
     0
281
     0
  0
CLASS
  1
ACAMGHOLECHARTSTDANSI
  2
AcAmgHoleChartStdANSI
  3
AmgDim|Product Description: AutoCAD Mechanical|Company: Autodesk, Inc.
 90
     1024
280
     0
281
     0
  0
CLASS
  1
ACAMGTITLESTD
  2
AcAmgTitleStd
  3
"AmgTitle|Product Description: AutoCAD Mechanical|Company: Autodesk, Inc."
 90
     4095
280
     0
281
     0
  0
CLASS
  1
ACAMGFILTERDAT
  2
AcAmgFilterDat
  3
"AcadM|Product Description: AutoCAD Mechanical|Company: Autodesk, Inc."
 90
    33792
280
     0
281
     0
  0
CLASS
  1
DICTIONARYVAR
  2
AcDbDictionaryVar
  3
ObjectDBX Classes
 90
        0
280
     0
281
     0
  0
CLASS
  1
ACDBPLACEHOLDER
  2
AcDbPlaceHolder
  3
ObjectDBX Classes
 90
        0
280
     0
281
     0
  0
CLASS
  1
LAYOUT
  2
AcDbLayout
  3
ObjectDBX Classes
 90
        0
280
     0
281
     0
  0
CLASS
  1
CAMSSTRUCTBTNSTATE
  2
StructBtnState
  3
DesignerAssemblies
 90
     1024
280
     0
281
     0
  0
CLASS
  1
SCALE
  2
AcDbScale
  3
ObjectDBX Classes
 90
     1153
280
     0
281
     0
  0
CLASS
  1
MLEADERSTYLE
  2
AcDbMLeaderStyle
  3
ACDB_MLEADERSTYLE_CLASS
 90
     4095
280
     0
281
     0
  0
CLASS
  1
ACMANOOTATIONVIEWSTANDARDANSI
  2
AmdtAnViewStdANSI
  3
"Amdt_StdImp|Product Description: AutoCAD Mechanical|Company: Autodesk, Inc."
 90
     1024
280
     0
281
     0
  0
CLASS
  1
CELLSTYLEMAP
  2
AcDbCellStyleMap
  3
ObjectDBX Classes
 90
     1152
280
     0
281
     0
  0
CLASS
  1
ACMPARTREF
  2
AcmPartRef
  3
"AcmSymBB|Product Description: AutoCAD Mechanical|Company: Autodesk, Inc."
 90
     4095
280
     0
281
     1
  0
CLASS
  1
ACMSTANDARDISO
  2
AcmStandardISO
  3
"Amdt_StdImp|Product Description: AutoCAD Mechanical|Company: Autodesk, Inc."
 90
     1024
280
     0
281
     0
  0
CLASS
  1
AMDTEDGESTANDARDISO
  2
AmdtEdgeStdISO
  3
"Amdt_StdImp|Product Description: AutoCAD Mechanical|Company: Autodesk, Inc."
 90
     1024
280
     0
281
     0
  0
CLASS
  1
ACMSURFSTANDARDISO
  2
AcmSurfTextStdISO
  3
"Amdt_StdImp|Product Description: AutoCAD Mechanical|Company: Autodesk, Inc."
 90
     1024
280
     0
281
     0
  0
CLASS
  1
ACMFCFSTANDARDISO
  2
AcmFCFStdISO
  3
"Amdt_StdImp|Product Description: AutoCAD Mechanical|Company: Autodesk, Inc."
 90
     1024
280
     0
281
     0
  0
CLASS
  1
ACMWELDSTANDARDISO
  2
AcmWeldingStdISO
  3
"Amdt_StdImp|Product Description: AutoCAD Mechanical|Company: Autodesk, Inc."
 90
     1024
280
     0
281
     0
  0
CLASS
  1
ACMIDSTANDARDISO
  2
AcmIdStdISO
  3
"Amdt_StdImp|Product Description: AutoCAD Mechanical|Company: Autodesk, Inc."
 90
     1024
280
     0
281
     0
  0
CLASS
  1
ACMDATUMSTANDARDISO
  2
AcmDatumStdISO
  3
"Amdt_StdImp|Product Description: AutoCAD Mechanical|Company: Autodesk, Inc."
 90
     1024
280
     0
281
     0
  0
CLASS
  1
ACMBOMSTANDARDISO
  2
AcmBOMStdISO
  3
"Amdt_StdImp|Product Description: AutoCAD Mechanical|Company: Autodesk, Inc."
 90
     1024
280
     0
281
     0
  0
CLASS
  1
ACMDETAILSTANDARDISO
  2
AmdtDetailSymStdISO
  3
"Amdt_StdImp|Product Description: AutoCAD Mechanical|Company: Autodesk, Inc."
 90
     1024
280
     0
281
     0
  0
CLASS
  1
ACMSECTIONSTANDARDISO
  2
AmdtSectionSymStdISO
  3
"Amdt_StdImp|Product Description: AutoCAD Mechanical|Company: Autodesk, Inc."
 90
     1024
280
     0
281
     0
  0
CLASS
  1
ACMCENTERLINESTANDARDISO
  2
AmdtCenterLineStdISO
  3
"Amdt_StdImp|Product Description: AutoCAD Mechanical|Company: Autodesk, Inc."
 90
     1024
280
     0
281
     0
  0
CLASS
  1
ACMTHREADLINESTANDARDISO
  2
AmdtThreadLineStdISO
  3
"Amdt_StdImp|Product Description: AutoCAD Mechanical|Company: Autodesk, Inc."
 90
     1024
280
     0
281
     0
  0
CLASS
  1
ACMNOTESTANDARDISO
  2
AmdtNoteStdISO
  3
"Amdt_StdImp|Product Description: AutoCAD Mechanical|Company: Autodesk, Inc."
 90
     1024
280
     0
281
     0
  0
CLASS
  1
ACMTAPERSTANDARDISO
  2
AcmTaperStdISO
  3
"Amdt_StdImp|Product Description: AutoCAD Mechanical|Company: Autodesk, Inc."
 90
     1024
280
     0
281
     0
  0
CLASS
  1
ACMANOOTATIONVIEWSTANDARDISO
  2
AmdtAnViewStdISO
  3
"Amdt_StdImp|Product Description: AutoCAD Mechanical|Company: Autodesk, Inc."
 90
     1024
280
     0
281
     0
  0
CLASS
  1
ACMDATAENTRYBLOCK
  2
AcmDataEntryBlock
  3
AcmSymBB|Product Description: AutoCAD Mechanical|Company: Autodesk, Inc.
 90
     1024
280
     0
281
     0
  0
CLASS
  1
ACMDATAENTRYPART
  2
AcmDataEntryPart
  3
AcmSymBB|Product Description: AutoCAD Mechanical|Company: Autodesk, Inc.
 90
     1024
280
     0
281
     0
  0
ENDSEC
  0
SECTION
  2
TABLES
  0
TABLE
  2
VPORT
  5
8
330
0
100
AcDbSymbolTable
 70
     1
  0
VPORT
  5
45
330
8
100
AcDbSymbolTableRecord
100
AcDbViewportTableRecord
  2
*Active
 70
     0
 10
0.0
 20
0.0
 11
1.0
 21
1.0
 12
-20.4999973385834
 22
36.50000190699926
 13
0.0
 23
0.0
 14
1.0
 24
1.0
 15
0.0
 25
0.0
 16
0.0
 26
0.0
 36
1.0
 17
0.0
 27
0.0
 37
0.0
 40
274.74171548229
 41
1.645127118644067
 42
50.0
 43
0.0
 44
0.0
 50
0.0
 51
0.0
 71
     0
 72
   100
 73
     1
 74
     1
 75
     0
 76
     0
 77
     0
 78
     0
281
     0
 65
     0
110
0.0
120
0.0
130
0.0
111
1.0
121
0.0
131
0.0
112
0.0
122
1.0
132
0.0
 79
     0
146
0.0
  0
ENDTAB
  0
TABLE
  2
LTYPE
  5
5
330
0
100
AcDbSymbolTable
 70
    33
  0
LTYPE
  5
28
330
5
100
AcDbSymbolTableRecord
100
AcDbLinetypeTableRecord
  2
ByBlock
 70
     0
  3

 72
    65
 73
     0
 40
0.0
  0
LTYPE
  5
29
330
5
100
AcDbSymbolTableRecord
100
AcDbLinetypeTableRecord
  2
ByLayer
 70
     0
  3

 72
    65
 73
     0
 40
0.0
  0
LTYPE
  5
2A
330
5
100
AcDbSymbolTableRecord
100
AcDbLinetypeTableRecord
  2
CONTINUOUS
 70
     0
  3
Solid line
 72
    65
 73
     0
 40
0.0
  0
LTYPE
  5
3A
330
5
100
AcDbSymbolTableRecord
100
AcDbLinetypeTableRecord
  2
DASHED
 70
     0
  3
__ __ __ __ __ __ __ __ __ __ __ __ __ __ __
 72
    65
 73
     2
 40
3.5
 49
2.0
 74
     0
 49
-1.5
 74
     0
  0
LTYPE
  5
3B
330
5
100
AcDbSymbolTableRecord
100
AcDbLinetypeTableRecord
  2
CENTER
 70
     0
  3
____ _ ____ _ ____ _ ____ _ ____ _ ____ _ ____
 72
    65
 73
     4
 40
17.5
 49
13.0
 74
     0
 49
-1.5
 74
     0
 49
1.5
 74
     0
 49
-1.5
 74
     0
  0
LTYPE
  5
3C
330
5
100
AcDbSymbolTableRecord
100
AcDbLinetypeTableRecord
  2
PHANTOM
 70
     0
  3
_____ _ _ _____ _ _ _____ _ _ _____ _ _ ____  
 72
    65
 73
     6
 40
15.5
 49
8.0
 74
     0
 49
-1.5
 74
     0
 49
1.5
 74
     0
 49
-1.5
 74
     0
 49
1.5
 74
     0
 49
-1.5
 74
     0
  0
LTYPE
  5
3D
330
5
100
AcDbSymbolTableRecord
100
AcDbLinetypeTableRecord
  2
DOT
 70
     0
  3
. . . . . . . . . . . . . . . . . . . . . . . .
 72
    65
 73
     2
 40
0.25
 49
0.0
 74
     0
 49
-0.25
 74
     0
  0
LTYPE
  5
3E
330
5
100
AcDbSymbolTableRecord
100
AcDbLinetypeTableRecord
  2
HIDDEN
 70
     0
  3
__ __ __ __ __ __ __ __ __ __ __ __ __ __ __
 72
    65
 73
     2
 40
3.5
 49
2.0
 74
     0
 49
-1.5
 74
     0
  0
LTYPE
  5
138
330
5
100
AcDbSymbolTableRecord
100
AcDbLinetypeTableRecord
  2
PHANTOM2
 70
     0
  3
Phantom (.5x) ___ _ _ ___ _ _ ___ _ _ ___ _ _
 72
    65
 73
     6
 40
1.25
 49
0.625
 74
     0
 49
-0.125
 74
     0
 49
0.125
 74
     0
 49
-0.125
 74
     0
 49
0.125
 74
     0
 49
-0.125
 74
     0
  0
LTYPE
  5
16D
330
5
100
AcDbSymbolTableRecord
100
AcDbLinetypeTableRecord
  2
AM_ISO02W050
 70
     0
  3
__ __ __ __ __ __ __ __ __ __ __ __ __ __ __
 72
    65
 73
     2
 40
7.5
 49
6.0
 74
     0
 49
-1.5
 74
     0
  0
LTYPE
  5
16E
330
5
100
AcDbSymbolTableRecord
100
AcDbLinetypeTableRecord
  2
AM_ISO08W050
 70
     0
  3
____ . ____ . ____ . ____ . ____ . ____ . ____
 72
    65
 73
     4
 40
18.0
 49
12.0
 74
     0
 49
-1.5
 74
     0
 49
3.0
 74
     0
 49
-1.5
 74
     0
  0
LTYPE
  5
16F
330
5
100
AcDbSymbolTableRecord
100
AcDbLinetypeTableRecord
  2
AM_ISO09W050
 70
     0
  3
_____ . . _____ . . _____ . . ____ .. ____
 72
    65
 73
     6
 40
22.5
 49
12.0
 74
     0
 49
-1.5
 74
     0
 49
3.0
 74
     0
 49
-1.5
 74
     0
 49
3.0
 74
     0
 49
-1.5
 74
     0
  0
LTYPE
  5
170
330
5
100
AcDbSymbolTableRecord
100
AcDbLinetypeTableRecord
  2
Amconstr
 70
     0
  3
_______________________
 72
    65
 73
     2
 40
9999.0
 49
9999.0
 74
     0
 49
0.0
 74
     0
  0
LTYPE
  5
171
330
5
100
AcDbSymbolTableRecord
100
AcDbLinetypeTableRecord
  2
AM_ISO08W050x2
 70
     0
  3
__ . __ . __ . __ . __ . __
 72
    65
 73
     4
 40
9.0
 49
6.0
 74
     0
 49
-0.75
 74
     0
 49
1.5
 74
     0
 49
-0.75
 74
     0
  0
LTYPE
  5
172
330
5
100
AcDbSymbolTableRecord
100
AcDbLinetypeTableRecord
  2
AM_ISO02W050x2
 70
     0
  3
 _ _ _ _ _ _ _ _ _ _ _ _
 72
    65
 73
     2
 40
3.75
 49
3.0
 74
     0
 49
-0.75
 74
     0
  0
LTYPE
  5
175
330
5
100
AcDbSymbolTableRecord
100
AcDbLinetypeTableRecord
  2
Amzigzag
 70
     0
  3
/\/-/\/-/\/-/\/-/\/-/\/
 72
    65
 73
     2
 40
11.0001
 49
0.0001
 74
     4
 75
   136
340
174
 46
0.04
 50
0.0
 44
0.0
 45
0.0
 49
-11.0
 74
     0
  0
LTYPE
  5
176
330
5
100
AcDbSymbolTableRecord
100
AcDbLinetypeTableRecord
  2
CENTER2
 70
     0
  3
Center (.5x) ___ _ ___ _ ___ _ ___ _ ___ _ ___
 72
    65
 73
     4
 40
1.125
 49
0.75
 74
     0
 49
-0.125
 74
     0
 49
0.125
 74
     0
 49
-0.125
 74
     0
  0
LTYPE
  5
177
330
5
100
AcDbSymbolTableRecord
100
AcDbLinetypeTableRecord
  2
HIDDEN2
 70
     0
  3
Hidden (.5x) _ _ _ _ _ _ _ _ _ _ _ _ _ _ _ _ _
 72
    65
 73
     2
 40
0.1875
 49
0.125
 74
     0
 49
-0.0625
 74
     0
  0
LTYPE
  5
178
330
5
100
AcDbSymbolTableRecord
100
AcDbLinetypeTableRecord
  2
Amzigzag2
 70
     0
  3
/\/-/\/-/\/-/\/-/\/-/\/
 72
    65
 73
     2
 40
0.4401
 49
0.0001
 74
     4
 75
   136
340
174
 46
0.0016
 50
0.0
 44
0.0
 45
0.0
 49
-0.4400000000000002
 74
     0
  0
LTYPE
  5
187
330
5
100
AcDbSymbolTableRecord
100
AcDbLinetypeTableRecord
  2
ACANSTGB
 70
     0
  3
__ . . __ . .
 72
    65
 73
     6
 40
0.35433070866
 49
0.15748031496
 74
     0
 49
-0.03937007874
 74
     0
 49
0.03937007874
 74
     0
 49
-0.03937007874
 74
     0
 49
0.03937007874
 74
     0
 49
-0.03937007874
 74
     0
  0
LTYPE
  5
188
330
5
100
AcDbSymbolTableRecord
100
AcDbLinetypeTableRecord
  2
ACANSTGL
 70
     0
  3
_ _ _ _ _
 72
    65
 73
     2
 40
0.11811023622
 49
0.07874015748
 74
     0
 49
-0.03937007874
 74
     0
  0
LTYPE
  5
3A9
330
5
100
AcDbSymbolTableRecord
100
AcDbLinetypeTableRecord
  2
ACISOWELD
 70
     0
  3
_ _ _ _ _
 72
    65
 73
     2
 40
2.0
 49
2.0
 74
     0
 49
-1.0
 74
     0
  0
LTYPE
  5
3AA
330
5
100
AcDbSymbolTableRecord
100
AcDbLinetypeTableRecord
  2
ACISOTGB
 70
     0
  3
__ . . __ . .
 72
    65
 73
     6
 40
9.0
 49
4.0
 74
     0
 49
-1.0
 74
     0
 49
1.0
 74
     0
 49
-1.0
 74
     0
 49
1.0
 74
     0
 49
-1.0
 74
     0
  0
LTYPE
  5
3AB
330
5
100
AcDbSymbolTableRecord
100
AcDbLinetypeTableRecord
  2
ACISOTGL
 70
     0
  3
_ _ _ _ _
 72
    65
 73
     2
 40
3.0
 49
2.0
 74
     0
 49
-1.0
 74
     0
  0
LTYPE
  5
3AC
330
5
100
AcDbSymbolTableRecord
100
AcDbLinetypeTableRecord
  2
中線
 70
     0
  3
___________________
 72
    65
 73
     2
 40
2.0
 49
1.0
 74
     0
 49
1.0
 74
     0
  0
LTYPE
  5
3AD
330
5
100
AcDbSymbolTableRecord
100
AcDbLinetypeTableRecord
  2
細線
 70
     0
  3
___________________
 72
    65
 73
     2
 40
2.0
 49
1.0
 74
     0
 49
1.0
 74
     0
  0
LTYPE
  5
3AE
330
5
100
AcDbSymbolTableRecord
100
AcDbLinetypeTableRecord
  2
太線
 70
     0
  3
___________________
 72
    65
 73
     2
 40
2.0
 49
1.0
 74
     0
 49
1.0
 74
     0
  0
LTYPE
  5
3AF
330
5
100
AcDbSymbolTableRecord
100
AcDbLinetypeTableRecord
  2
文字
 70
     0
  3
_________________
 72
    65
 73
     2
 40
2.0
 49
1.0
 74
     0
 49
1.0
 74
     0
  0
LTYPE
  5
3B0
330
5
100
AcDbSymbolTableRecord
100
AcDbLinetypeTableRecord
  2
寸法線
 70
     0
  3
________________
 72
    65
 73
     2
 40
2.0
 49
1.0
 74
     0
 49
1.0
 74
     0
  0
LTYPE
  5
3B1
330
5
100
AcDbSymbolTableRecord
100
AcDbLinetypeTableRecord
  2
ハッチング
 70
     0
  3
_________________
 72
    65
 73
     2
 40
2.0
 49
1.0
 74
     0
 49
1.0
 74
     0
  0
LTYPE
  5
3B2
330
5
100
AcDbSymbolTableRecord
100
AcDbLinetypeTableRecord
  2
陰線1
 70
     0
  3
__ __ __ __
 72
    65
 73
     2
 40
4.0
 49
2.2
 74
     0
 49
-1.8
 74
     0
  0
LTYPE
  5
3B3
330
5
100
AcDbSymbolTableRecord
100
AcDbLinetypeTableRecord
  2
切断線
 70
     0
  3
/\/-/\/-/\/-/\/-/\/-/\/
 72
    65
 73
     2
 40
11.0001
 49
0.0001
 74
     4
 75
   135
340
3BC
 46
0.04
 50
0.0
 44
0.0
 45
0.0
 49
-11.0
 74
     0
  0
LTYPE
  5
3B4
330
5
100
AcDbSymbolTableRecord
100
AcDbLinetypeTableRecord
  2
想像線1
 70
     0
  3
__ __ __ _____ __ __ ____
 72
    65
 73
     6
 40
14.5
 49
6.0
 74
     0
 49
-1.5
 74
     0
 49
2.0
 74
     0
 49
-1.5
 74
     0
 49
2.0
 74
     0
 49
-1.5
 74
     0
  0
LTYPE
  5
3B5
330
5
100
AcDbSymbolTableRecord
100
AcDbLinetypeTableRecord
  2
中心線1
 70
     0
  3
___ _ ___ _ ___
 72
    65
 73
     4
 40
18.0
 49
12.0
 74
     0
 49
-2.0
 74
     0
 49
2.0
 74
     0
 49
-2.0
 74
     0
  0
LTYPE
  5
3B6
330
5
100
AcDbSymbolTableRecord
100
AcDbLinetypeTableRecord
  2
補助線
 70
     0
  3
______________
 72
    65
 73
     2
 40
2.0
 49
1.0
 74
     0
 49
1.0
 74
     0
  0
ENDTAB
  0
TABLE
  2
LAYER
  5
2
102
{ACAD_XDICTIONARY
360
3CC
102
}
330
0
100
AcDbSymbolTable
 70
    10
  0
LAYER
  5
25
102
{ACAD_XDICTIONARY
360
926
102
}
330
2
100
AcDbSymbolTableRecord
100
AcDbLayerTableRecord
  2
0
 70
     0
 62
     7
  6
CONTINUOUS
370
    -3
390
F
  0
LAYER
  5
3F
102
{ACAD_XDICTIONARY
360
928
102
}
330
2
100
AcDbSymbolTableRecord
100
AcDbLayerTableRecord
  2
1
 70
     0
 62
     7
  6
CONTINUOUS
370
    -3
390
F
  0
LAYER
  5
40
102
{ACAD_XDICTIONARY
360
92A
102
}
330
2
100
AcDbSymbolTableRecord
100
AcDbLayerTableRecord
  2
2
 70
     0
 62
     7
  6
CONTINUOUS
370
    -3
390
F
  0
LAYER
  5
41
330
2
100
AcDbSymbolTableRecord
100
AcDbLayerTableRecord
  2
DEFPOINTS
 70
     0
 62
     7
  6
CONTINUOUS
290
     0
370
    -3
390
F
  0
LAYER
  5
3B7
102
{ACAD_XDICTIONARY
360
92C
102
}
330
2
100
AcDbSymbolTableRecord
100
AcDbLayerTableRecord
  2
AM_0
 70
     0
 62
     7
  6
CONTINUOUS
370
    30
390
F
  0
LAYER
  5
3B8
102
{ACAD_XDICTIONARY
360
92E
102
}
330
2
100
AcDbSymbolTableRecord
100
AcDbLayerTableRecord
  2
AM_5
 70
     0
 62
     3
  6
CONTINUOUS
370
    15
390
F
  0
LAYER
  5
3B9
102
{ACAD_XDICTIONARY
360
930
102
}
330
2
100
AcDbSymbolTableRecord
100
AcDbLayerTableRecord
  2
AM_7
 70
     0
 62
     4
  6
CENTER
370
    15
390
F
  0
LAYER
  5
3BA
102
{ACAD_XDICTIONARY
360
932
102
}
330
2
100
AcDbSymbolTableRecord
100
AcDbLayerTableRecord
  2
AM_12
 70
     0
 62
     7
  6
CONTINUOUS
290
     0
370
    30
390
F
  0
LAYER
  5
3BB
102
{ACAD_XDICTIONARY
360
934
102
}
330
2
100
AcDbSymbolTableRecord
100
AcDbLayerTableRecord
  2
AM_PAREF
 70
     0
 62
     4
  6
CONTINUOUS
290
     0
370
    15
390
F
  0
LAYER
  5
588
102
{ACAD_XDICTIONARY
360
936
102
}
330
2
100
AcDbSymbolTableRecord
100
AcDbLayerTableRecord
  2
AM_CL
 70
     0
 62
     1
  6
Amconstr
370
    15
390
F
1001
AcAecLayerStandard
1000

1000

  0
ENDTAB
  0
TABLE
  2
STYLE
  5
3
330
0
100
AcDbSymbolTable
 70
     7
  0
STYLE
  5
26
330
3
100
AcDbSymbolTableRecord
100
AcDbTextStyleTableRecord
  2
STANDARD
 70
     0
 40
0.0
 41
1.0
 50
0.0
 71
     0
 42
0.2
  3
txt
  4
BIGFONT
  0
STYLE
  5
174
330
3
100
AcDbSymbolTableRecord
100
AcDbTextStyleTableRecord
  2

 70
     1
 40
0.0
 41
1.0
 50
0.0
 71
     0
 42
3.2
  3
genltshp.shx
  4

  0
STYLE
  5
179
330
3
100
AcDbSymbolTableRecord
100
AcDbTextStyleTableRecord
  2
ACANSTS
 70
     0
 40
1.0
 41
1.0
 50
0.0
 71
     0
 42
3.2
  3
romans.shx
  4
extfont.shx
  0
STYLE
  5
186
330
3
100
AcDbSymbolTableRecord
100
AcDbTextStyleTableRecord
  2
ACANSGDT
 70
     0
 40
0.0
 41
1.0
 50
0.0
 71
     0
 42
3.2
  3
amgdt.shx
  4

  0
STYLE
  5
3BC
330
3
100
AcDbSymbolTableRecord
100
AcDbTextStyleTableRecord
  2

 70
     1
 40
0.0
 41
1.0
 50
0.0
 71
     0
 42
2.5
  3
ltypeshp.shx
  4

  0
STYLE
  5
3BD
330
3
100
AcDbSymbolTableRecord
100
AcDbTextStyleTableRecord
  2
ACISOTS
 70
     0
 40
1.0
 41
1.0
 50
0.0
 71
     0
 42
2.5
  3
isocp.shx
  4
extfont.shx
  0
STYLE
  5
3BE
330
3
100
AcDbSymbolTableRecord
100
AcDbTextStyleTableRecord
  2
ACISOGDT
 70
     0
 40
0.0
 41
1.0
 50
0.0
 71
     0
 42
2.5
  3
amgdt.shx
  4

  0
ENDTAB
  0
TABLE
  2
VIEW
  5
6
330
0
100
AcDbSymbolTable
 70
     0
  0
ENDTAB
  0
TABLE
  2
UCS
  5
7
330
0
100
AcDbSymbolTable
 70
     0
  0
ENDTAB
  0
TABLE
  2
APPID
  5
9
330
0
100
AcDbSymbolTable
 70
    15
  0
APPID
  5
27
330
9
100
AcDbSymbolTableRecord
100
AcDbRegAppTableRecord
  2
ACAD
 70
     0
  0
APPID
  5
10B
330
9
100
AcDbSymbolTableRecord
100
AcDbRegAppTableRecord
  2
MCAD_NO_VIS
 70
     0
  0
APPID
  5
10C
330
9
100
AcDbSymbolTableRecord
100
AcDbRegAppTableRecord
  2
ACAD_TEMP_GRAPHIC
 70
     0
  0
APPID
  5
13A
330
9
100
AcDbSymbolTableRecord
100
AcDbRegAppTableRecord
  2
AD_DRAW
 70
     0
  0
APPID
  5
13D
330
9
100
AcDbSymbolTableRecord
100
AcDbRegAppTableRecord
  2
ACATTRIBSERVICES
 70
     0
  0
APPID
  5
15E
330
9
100
AcDbSymbolTableRecord
100
AcDbRegAppTableRecord
  2
DESIGNERASSEMBLIES
 70
     0
  0
APPID
  5
164
330
9
100
AcDbSymbolTableRecord
100
AcDbRegAppTableRecord
  2
ACADM_DIM_EDIT
 70
     0
  0
APPID
  5
165
330
9
100
AcDbSymbolTableRecord
100
AcDbRegAppTableRecord
  2
AMDT_DM_ADJ
 70
     0
  0
APPID
  5
1D3
330
9
100
AcDbSymbolTableRecord
100
AcDbRegAppTableRecord
  2
ACAD_DSTYLE_DIMARC_LENGTH_SYMBOL
 70
     0
  0
APPID
  5
275
330
9
100
AcDbSymbolTableRecord
100
AcDbRegAppTableRecord
  2
ACAD_MLEADERVER
 70
     0
  0
APPID
  5
3C9
330
9
100
AcDbSymbolTableRecord
100
AcDbRegAppTableRecord
  2
GENIUS_GENODEF_13
 70
     0
  0
APPID
  5
3CA
330
9
100
AcDbSymbolTableRecord
100
AcDbRegAppTableRecord
  2
GENIUS_GENDTOL_13
 70
     0
  0
APPID
  5
3CB
330
9
100
AcDbSymbolTableRecord
100
AcDbRegAppTableRecord
  2
GENIUS_GENOBJ-N-CEN_13
 70
     0
  0
APPID
  5
589
330
9
100
AcDbSymbolTableRecord
100
AcDbRegAppTableRecord
  2
AcAecLayerStandard
 70
     0
  0
APPID
  5
8CA
330
9
100
AcDbSymbolTableRecord
100
AcDbRegAppTableRecord
  2
ACAD_DSTYLE_DIMINSPECT
 70
     0
  0
ENDTAB
  0
TABLE
  2
DIMSTYLE
  5
A
330
0
100
AcDbSymbolTable
 70
    17
100
AcDbDimStyleTable
 71
     0
  0
DIMSTYLE
105
42
102
{ACAD_REACTORS
330
FE
330
FF
330
100
330
101
330
102
330
103
330
104
102
}
330
A
100
AcDbSymbolTableRecord
100
AcDbDimStyleTableRecord
  2
DIMSTYLE
 70
     0
 41
1.0
 42
2.54
 44
2.54
 73
     0
 74
     0
140
3.2
147
1.6
173
     1
279
     2
340
26
  0
DIMSTYLE
105
194
330
A
100
AcDbSymbolTableRecord
100
AcDbDimStyleTableRecord
  2
AM_ANSI
 70
     0
  4
mm
 41
0.1
 42
0.05
 43
0.5
 44
0.1
 47
0.1
 48
0.1
 78
     7
 79
     2
140
0.12
141
0.0
146
0.71
147
0.06
176
   256
177
   256
178
     2
274
     4
284
     7
340
26
371
    -1
372
    -1
1001
ACAD_DSTYLE_DIMARC_LENGTH_SYMBOL
1070
   379
1070
     1
  0
DIMSTYLE
105
195
330
A
100
AcDbSymbolTableRecord
100
AcDbDimStyleTableRecord
  2
AM_ANSI$3
 70
     0
  4
mm
 41
0.1
 42
0.05
 43
0.5
 44
0.1
 47
0.1
 48
0.1
 78
     7
 79
     2
140
0.12
141
0.0
146
0.71
147
0.06
176
   256
177
   256
178
     2
274
     4
284
     7
288
     1
289
     0
340
26
371
    -1
372
    -1
1001
ACAD_DSTYLE_DIMARC_LENGTH_SYMBOL
1070
   379
1070
     1
  0
DIMSTYLE
105
196
330
A
100
AcDbSymbolTableRecord
100
AcDbDimStyleTableRecord
  2
AM_ANSI$4
 70
     0
  4
mm
 41
0.1
 42
0.05
 43
0.5
 44
0.1
 47
0.1
 48
0.1
 78
     7
 79
     2
140
0.12
141
0.0
146
0.71
147
0.06
176
   256
177
   256
178
     2
274
     4
284
     7
288
     1
289
     0
340
26
371
    -1
372
    -1
1001
ACAD_DSTYLE_DIMARC_LENGTH_SYMBOL
1070
   379
1070
     1
  0
DIMSTYLE
105
197
330
A
100
AcDbSymbolTableRecord
100
AcDbDimStyleTableRecord
  2
AM_ANSI$7
 70
     0
  4
mm
 41
0.1
 42
0.05
 43
0.5
 44
0.1
 47
0.1
 48
0.1
 78
     7
 79
     2
140
0.24
141
0.0
146
0.71
147
0.06
176
   256
177
   256
178
     2
274
     4
284
     7
340
26
371
    -1
372
    -1
1001
ACAD_DSTYLE_DIMARC_LENGTH_SYMBOL
1070
   379
1070
     1
  0
DIMSTYLE
105
198
330
A
100
AcDbSymbolTableRecord
100
AcDbDimStyleTableRecord
  2
AM_ANSI$SF
 70
     0
  4
mm
 41
0.1
 42
0.05
 43
0.5
 44
0.1
 47
0.1
 48
0.1
 75
     1
 76
     1
 78
     7
 79
     2
140
0.12
141
0.0
146
0.71
147
0.06
176
   256
177
   256
178
     2
274
     4
284
     7
340
26
371
    -1
372
    -1
1001
ACAD_DSTYLE_DIMARC_LENGTH_SYMBOL
1070
   379
1070
     1
  0
DIMSTYLE
105
19D
330
A
100
AcDbSymbolTableRecord
100
AcDbDimStyleTableRecord
  2
AM_ANSI$SH
 70
     0
  4
mm
 41
0.1
 42
0.05
 43
0.5
 44
0.1
 47
0.1
 48
0.1
 75
     1
 76
     1
 78
     7
 79
     2
140
0.12
141
0.0
146
0.71
147
0.06
173
     1
176
   256
177
   256
178
     2
274
     4
284
     7
340
26
343
199
371
    -1
372
    -1
1001
ACAD_DSTYLE_DIMARC_LENGTH_SYMBOL
1070
   379
1070
     1
  0
DIMSTYLE
105
3BF
330
A
100
AcDbSymbolTableRecord
100
AcDbDimStyleTableRecord
  2
AM_ISO
 70
     0
  4
"
 41
2.5
 42
1.0
 43
10.0
 44
1.0
 47
0.1
 48
0.1
 73
     0
 74
     0
 77
     1
 78
     8
 79
     2
140
3.5
141
0.0
143
0.0393701
146
0.71
147
1.5
172
     1
176
   256
177
   256
178
     2
271
     2
272
     3
274
     4
283
     0
284
     8
340
26
371
    -1
372
    -1
  0
DIMSTYLE
105
3C0
330
A
100
AcDbSymbolTableRecord
100
AcDbDimStyleTableRecord
  2
SYS
 70
     0
  4
"
 41
2.5
 42
1.0
 43
10.0
 44
1.0
 47
0.1
 48
0.1
 73
     0
 74
     0
 77
     1
 78
     8
 79
     2
140
3.5
141
0.0
143
0.0393701
146
0.71
147
1.5
172
     1
176
   256
177
   256
178
     7
271
     2
272
     3
274
     4
283
     0
284
     8
340
26
371
    -1
372
    -1
  0
DIMSTYLE
105
3C1
330
A
100
AcDbSymbolTableRecord
100
AcDbDimStyleTableRecord
  2
SYS$3
 70
     0
  4
"
 41
2.0
 42
1.0
 43
10.0
 44
1.0
 47
0.1
 48
0.1
 73
     0
 77
     1
 78
     8
 79
     2
140
3.200000000000001
141
0.0
143
0.0393701
146
0.71
147
1.5
176
   256
177
   256
178
     2
271
     1
272
     1
283
     0
284
     8
288
     1
340
26
342
2A7
371
    -1
372
    -1
  0
DIMSTYLE
105
3C2
102
{ACAD_REACTORS
330
40D
330
416
330
417
102
}
330
A
100
AcDbSymbolTableRecord
100
AcDbDimStyleTableRecord
  2
SYS$4
 70
     0
  4
"
 41
2.0
 42
1.0
 43
10.0
 44
1.0
 47
0.1
 48
0.1
 73
     0
 77
     1
 78
     8
 79
     2
140
3.2
141
0.0
143
0.0393701
146
0.71
147
1.5
173
     1
176
   256
177
   256
178
     2
271
     2
272
     2
283
     0
284
     8
288
     1
340
26
344
2A7
371
    -1
372
    -1
  0
DIMSTYLE
105
3C3
330
A
100
AcDbSymbolTableRecord
100
AcDbDimStyleTableRecord
  2
SYS$6
 70
     0
  4
"
 41
2.0
 42
1.0
 43
10.0
 44
1.0
 47
0.1
 48
0.1
 73
     0
 74
     0
 78
     8
 79
     2
140
3.2
141
0.0
143
0.0393701
146
0.71
147
1.5
172
     1
176
   256
177
   256
178
     2
271
     2
272
     2
283
     0
284
     8
340
26
341
2A7
371
    -1
372
    -1
  0
DIMSTYLE
105
3C4
330
A
100
AcDbSymbolTableRecord
100
AcDbDimStyleTableRecord
  2
SYS$7
 70
     0
  4
"
 41
2.0
 42
1.5
 43
10.0
 44
1.0
 47
0.1
 48
0.1
 73
     0
 74
     0
 77
     1
 78
     8
 79
     2
140
3.2
141
0.0
143
0.0393701
146
0.71
147
1.5
172
     1
176
   256
177
   256
178
     2
271
     2
272
     2
283
     0
284
     8
340
26
341
2A7
342
2A7
371
    -1
372
    -1
  0
DIMSTYLE
105
3C5
330
A
100
AcDbSymbolTableRecord
100
AcDbDimStyleTableRecord
  2
SYS$SF
 70
     0
  4
"
 41
1.0
 42
1.0
 43
10.0
 44
1.0
 47
0.1
 48
0.1
 73
     0
 74
     0
 75
     1
 76
     1
 77
     1
 78
     8
 79
     2
140
3.2
141
0.0
143
0.0393701
146
0.71
147
1.5
172
     1
176
   256
177
   256
178
     2
271
     2
272
     2
283
     0
284
     8
340
26
341
46
342
46
371
    -1
372
    -1
  0
DIMSTYLE
105
3C6
330
A
100
AcDbSymbolTableRecord
100
AcDbDimStyleTableRecord
  2
SYS$SH
 70
     0
  4
"
 41
1.0
 42
1.0
 43
10.0
 44
1.0
 47
0.1
 48
0.1
 73
     0
 74
     0
 75
     1
 76
     1
 77
     1
 78
     8
 79
     2
140
3.2
141
0.0
143
0.0393701
144
2.0
146
0.71
147
1.5
172
     1
173
     1
176
   256
177
   256
178
     2
271
     2
272
     2
283
     0
284
     8
340
26
341
46
343
199
344
46
371
    -1
372
    -1
  0
DIMSTYLE
105
3C7
102
{ACAD_REACTORS
330
40C
330
410
102
}
330
A
100
AcDbSymbolTableRecord
100
AcDbDimStyleTableRecord
  2
SYS$2
 70
     0
  4
"
 41
1.0
 42
1.5
 43
10.0
 44
1.0
 47
0.1
 48
0.1
 73
     0
 74
     0
 77
     1
 78
     8
 79
     2
140
3.2
141
0.0
143
0.0393701
146
0.71
147
1.5
172
     1
176
   256
177
   256
178
     2
271
     2
272
     2
283
     0
284
     8
340
26
342
46
371
    -1
372
    -1
  0
DIMSTYLE
105
3C8
102
{ACAD_REACTORS
330
3FD
330
3FE
330
3FF
330
400
330
401
330
402
330
403
330
404
330
405
330
406
330
407
330
408
330
40A
330
40B
330
41A
102
}
330
A
100
AcDbSymbolTableRecord
100
AcDbDimStyleTableRecord
  2
SYS$0
 70
     0
  4
"
 41
1.0
 42
1.5
 43
10.0
 44
1.0
 47
0.1
 48
0.1
 73
     0
 74
     0
 77
     1
 78
     8
 79
     2
140
3.2
141
0.0
143
0.0393701
146
0.71
147
1.5
172
     1
176
   256
177
   256
178
     2
271
     1
272
     1
283
     0
284
     8
340
26
341
2A7
342
46
371
    -1
372
    -1
  0
ENDTAB
  0
TABLE
  2
BLOCK_RECORD
  5
1
330
0
100
AcDbSymbolTable
 70
    74
  0
BLOCK_RECORD
  5
36
330
1
100
AcDbSymbolTableRecord
100
AcDbBlockTableRecord
  2
*Model_Space
340
39
  0
BLOCK_RECORD
  5
32
330
1
100
AcDbSymbolTableRecord
100
AcDbBlockTableRecord
  2
*Paper_Space
340
35
  0
BLOCK_RECORD
  5
46
330
1
100
AcDbSymbolTableRecord
100
AcDbBlockTableRecord
  2
_DOT
340
0
102
{BLKREFS
331
51
331
52
331
5D
331
5E
331
69
331
6A
331
75
331
76
331
82
331
83
331
8E
331
8F
331
9A
331
9B
331
2B7
331
2B8
331
2C3
331
2C4
331
2CF
331
2D0
331
2DB
331
2DC
331
2E7
331
2E8
331
2F3
331
300
331
30C
331
318
331
324
331
335
331
336
331
340
331
341
331
34C
331
34D
331
358
331
359
331
368
331
369
331
37D
331
37E
331
3A3
331
3A4
331
58E
331
58F
331
597
331
598
331
5A0
331
5A1
331
5A9
331
5AA
331
5B2
331
5B3
331
5BD
331
5C9
331
5D4
331
5DF
331
5EA
331
5F8
331
5F9
331
600
331
601
331
609
331
60A
331
612
331
613
331
61F
331
620
331
62E
331
62F
331
64B
331
64C
331
7B4
331
7B5
331
7BD
331
7BE
331
7C6
331
7C7
331
7CF
331
7D0
331
7D8
331
7D9
331
7E3
331
7EF
331
7FA
331
805
331
810
331
81E
331
81F
331
826
331
827
331
82F
331
830
331
838
331
839
331
845
331
846
331
854
331
855
331
871
331
872
102
}
  0
BLOCK_RECORD
  5
4E
330
1
100
AcDbSymbolTableRecord
100
AcDbBlockTableRecord
  2
*D1
340
0
  0
BLOCK_RECORD
  5
5A
330
1
100
AcDbSymbolTableRecord
100
AcDbBlockTableRecord
  2
*D2
340
0
  0
BLOCK_RECORD
  5
66
330
1
100
AcDbSymbolTableRecord
100
AcDbBlockTableRecord
  2
*D3
340
0
  0
BLOCK_RECORD
  5
72
330
1
100
AcDbSymbolTableRecord
100
AcDbBlockTableRecord
  2
*D4
340
0
  0
BLOCK_RECORD
  5
7E
330
1
100
AcDbSymbolTableRecord
100
AcDbBlockTableRecord
  2
*D5
340
0
  0
BLOCK_RECORD
  5
8B
330
1
100
AcDbSymbolTableRecord
100
AcDbBlockTableRecord
  2
*D6
340
0
  0
BLOCK_RECORD
  5
97
330
1
100
AcDbSymbolTableRecord
100
AcDbBlockTableRecord
  2
*D7
340
0
  0
BLOCK_RECORD
  5
199
330
1
100
AcDbSymbolTableRecord
100
AcDbBlockTableRecord
  2
GENAXEH
340
0
  0
BLOCK_RECORD
  5
2A7
330
1
100
AcDbSymbolTableRecord
100
AcDbBlockTableRecord
  2
_OPEN30
340
0
102
{BLKREFS
331
376
331
38B
331
394
331
62A
331
639
331
63F
331
850
331
85F
331
865
102
}
  0
BLOCK_RECORD
  5
2AD
330
1
100
AcDbSymbolTableRecord
100
AcDbBlockTableRecord
  2
GENDOT
340
0
102
{BLKREFS
331
2F4
331
2FF
331
30B
331
317
331
323
331
5BE
331
5C8
331
5D3
331
5DE
331
5E9
331
7E4
331
7EE
331
7F9
331
804
331
80F
102
}
  0
BLOCK_RECORD
  5
2B2
330
1
100
AcDbSymbolTableRecord
100
AcDbBlockTableRecord
  2
*D12
340
0
  0
BLOCK_RECORD
  5
2BE
330
1
100
AcDbSymbolTableRecord
100
AcDbBlockTableRecord
  2
*D13
340
0
  0
BLOCK_RECORD
  5
2CA
330
1
100
AcDbSymbolTableRecord
100
AcDbBlockTableRecord
  2
*D14
340
0
  0
BLOCK_RECORD
  5
2D6
330
1
100
AcDbSymbolTableRecord
100
AcDbBlockTableRecord
  2
*D15
340
0
  0
BLOCK_RECORD
  5
2E2
330
1
100
AcDbSymbolTableRecord
100
AcDbBlockTableRecord
  2
*D16
340
0
  0
BLOCK_RECORD
  5
2EE
330
1
100
AcDbSymbolTableRecord
100
AcDbBlockTableRecord
  2
*D17
340
0
  0
BLOCK_RECORD
  5
2FA
330
1
100
AcDbSymbolTableRecord
100
AcDbBlockTableRecord
  2
*D18
340
0
  0
BLOCK_RECORD
  5
306
330
1
100
AcDbSymbolTableRecord
100
AcDbBlockTableRecord
  2
*D19
340
0
  0
BLOCK_RECORD
  5
312
330
1
100
AcDbSymbolTableRecord
100
AcDbBlockTableRecord
  2
*D20
340
0
  0
BLOCK_RECORD
  5
31E
330
1
100
AcDbSymbolTableRecord
100
AcDbBlockTableRecord
  2
*D21
340
0
  0
BLOCK_RECORD
  5
32A
330
1
100
AcDbSymbolTableRecord
100
AcDbBlockTableRecord
  2
*D22
340
0
  0
BLOCK_RECORD
  5
33B
330
1
100
AcDbSymbolTableRecord
100
AcDbBlockTableRecord
  2
*D23
340
0
  0
BLOCK_RECORD
  5
347
330
1
100
AcDbSymbolTableRecord
100
AcDbBlockTableRecord
  2
*D24
340
0
  0
BLOCK_RECORD
  5
353
330
1
100
AcDbSymbolTableRecord
100
AcDbBlockTableRecord
  2
*D25
340
0
  0
BLOCK_RECORD
  5
35F
330
1
100
AcDbSymbolTableRecord
100
AcDbBlockTableRecord
  2
*D26
340
0
  0
BLOCK_RECORD
  5
371
330
1
100
AcDbSymbolTableRecord
100
AcDbBlockTableRecord
  2
*D27
340
0
  0
BLOCK_RECORD
  5
37A
330
1
100
AcDbSymbolTableRecord
100
AcDbBlockTableRecord
  2
*D28
340
0
  0
BLOCK_RECORD
  5
386
330
1
100
AcDbSymbolTableRecord
100
AcDbBlockTableRecord
  2
*D29
340
0
  0
BLOCK_RECORD
  5
38F
330
1
100
AcDbSymbolTableRecord
100
AcDbBlockTableRecord
  2
*D30
340
0
  0
BLOCK_RECORD
  5
398
330
1
100
AcDbSymbolTableRecord
100
AcDbBlockTableRecord
  2
*D31
340
0
  0
BLOCK_RECORD
  5
487
330
1
100
AcDbSymbolTableRecord
100
AcDbBlockTableRecord
  2
*D33
340
0
  0
BLOCK_RECORD
  5
493
330
1
100
AcDbSymbolTableRecord
100
AcDbBlockTableRecord
  2
*D34
340
0
  0
BLOCK_RECORD
  5
49F
330
1
100
AcDbSymbolTableRecord
100
AcDbBlockTableRecord
  2
*D35
340
0
  0
BLOCK_RECORD
  5
4AB
330
1
100
AcDbSymbolTableRecord
100
AcDbBlockTableRecord
  2
*D36
340
0
  0
BLOCK_RECORD
  5
4B7
330
1
100
AcDbSymbolTableRecord
100
AcDbBlockTableRecord
  2
*D37
340
0
  0
BLOCK_RECORD
  5
4C3
330
1
100
AcDbSymbolTableRecord
100
AcDbBlockTableRecord
  2
*D38
340
0
  0
BLOCK_RECORD
  5
4D1
330
1
100
AcDbSymbolTableRecord
100
AcDbBlockTableRecord
  2
*D39
340
0
  0
BLOCK_RECORD
  5
4DF
330
1
100
AcDbSymbolTableRecord
100
AcDbBlockTableRecord
  2
*D40
340
0
  0
BLOCK_RECORD
  5
4ED
330
1
100
AcDbSymbolTableRecord
100
AcDbBlockTableRecord
  2
*D41
340
0
  0
BLOCK_RECORD
  5
4FB
330
1
100
AcDbSymbolTableRecord
100
AcDbBlockTableRecord
  2
*D42
340
0
  0
BLOCK_RECORD
  5
509
330
1
100
AcDbSymbolTableRecord
100
AcDbBlockTableRecord
  2
*D43
340
0
  0
BLOCK_RECORD
  5
51A
330
1
100
AcDbSymbolTableRecord
100
AcDbBlockTableRecord
  2
*D44
340
0
  0
BLOCK_RECORD
  5
526
330
1
100
AcDbSymbolTableRecord
100
AcDbBlockTableRecord
  2
*D45
340
0
  0
BLOCK_RECORD
  5
532
330
1
100
AcDbSymbolTableRecord
100
AcDbBlockTableRecord
  2
*D46
340
0
  0
BLOCK_RECORD
  5
53E
330
1
100
AcDbSymbolTableRecord
100
AcDbBlockTableRecord
  2
*D47
340
0
  0
BLOCK_RECORD
  5
550
330
1
100
AcDbSymbolTableRecord
100
AcDbBlockTableRecord
  2
*D48
340
0
  0
BLOCK_RECORD
  5
559
330
1
100
AcDbSymbolTableRecord
100
AcDbBlockTableRecord
  2
*D49
340
0
  0
BLOCK_RECORD
  5
565
330
1
100
AcDbSymbolTableRecord
100
AcDbBlockTableRecord
  2
*D50
340
0
  0
BLOCK_RECORD
  5
56E
330
1
100
AcDbSymbolTableRecord
100
AcDbBlockTableRecord
  2
*D51
340
0
  0
BLOCK_RECORD
  5
577
330
1
100
AcDbSymbolTableRecord
100
AcDbBlockTableRecord
  2
*D52
340
0
  0
BLOCK_RECORD
  5
69E
330
1
100
AcDbSymbolTableRecord
100
AcDbBlockTableRecord
  2
*D53
340
0
  0
BLOCK_RECORD
  5
6AA
330
1
100
AcDbSymbolTableRecord
100
AcDbBlockTableRecord
  2
*D54
340
0
  0
BLOCK_RECORD
  5
6B6
330
1
100
AcDbSymbolTableRecord
100
AcDbBlockTableRecord
  2
*D55
340
0
  0
BLOCK_RECORD
  5
6C2
330
1
100
AcDbSymbolTableRecord
100
AcDbBlockTableRecord
  2
*D56
340
0
  0
BLOCK_RECORD
  5
6CE
330
1
100
AcDbSymbolTableRecord
100
AcDbBlockTableRecord
  2
*D57
340
0
  0
BLOCK_RECORD
  5
6DA
330
1
100
AcDbSymbolTableRecord
100
AcDbBlockTableRecord
  2
*D58
340
0
  0
BLOCK_RECORD
  5
6E8
330
1
100
AcDbSymbolTableRecord
100
AcDbBlockTableRecord
  2
*D59
340
0
  0
BLOCK_RECORD
  5
6F6
330
1
100
AcDbSymbolTableRecord
100
AcDbBlockTableRecord
  2
*D60
340
0
  0
BLOCK_RECORD
  5
704
330
1
100
AcDbSymbolTableRecord
100
AcDbBlockTableRecord
  2
*D61
340
0
  0
BLOCK_RECORD
  5
712
330
1
100
AcDbSymbolTableRecord
100
AcDbBlockTableRecord
  2
*D62
340
0
  0
BLOCK_RECORD
  5
720
330
1
100
AcDbSymbolTableRecord
100
AcDbBlockTableRecord
  2
*D63
340
0
  0
BLOCK_RECORD
  5
731
330
1
100
AcDbSymbolTableRecord
100
AcDbBlockTableRecord
  2
*D64
340
0
  0
BLOCK_RECORD
  5
73D
330
1
100
AcDbSymbolTableRecord
100
AcDbBlockTableRecord
  2
*D65
340
0
  0
BLOCK_RECORD
  5
749
330
1
100
AcDbSymbolTableRecord
100
AcDbBlockTableRecord
  2
*D66
340
0
  0
BLOCK_RECORD
  5
755
330
1
100
AcDbSymbolTableRecord
100
AcDbBlockTableRecord
  2
*D67
340
0
  0
BLOCK_RECORD
  5
767
330
1
100
AcDbSymbolTableRecord
100
AcDbBlockTableRecord
  2
*D68
340
0
  0
BLOCK_RECORD
  5
770
330
1
100
AcDbSymbolTableRecord
100
AcDbBlockTableRecord
  2
*D69
340
0
  0
BLOCK_RECORD
  5
77C
330
1
100
AcDbSymbolTableRecord
100
AcDbBlockTableRecord
  2
*D70
340
0
  0
BLOCK_RECORD
  5
785
330
1
100
AcDbSymbolTableRecord
100
AcDbBlockTableRecord
  2
*D71
340
0
  0
BLOCK_RECORD
  5
78E
330
1
100
AcDbSymbolTableRecord
100
AcDbBlockTableRecord
  2
*D72
340
0
  0
BLOCK_RECORD
  5
8AB
330
1
100
AcDbSymbolTableRecord
100
AcDbBlockTableRecord
  2
*D73
340
0
  0
ENDTAB
  0
ENDSEC
  0
SECTION
  2
BLOCKS
  0
BLOCK
  5
37
330
36
100
AcDbEntity
  8
0
100
AcDbBlockBegin
  2
*Model_Space
 70
     0
 10
0.0
 20
0.0
 30
0.0
  3
*Model_Space
  1

  0
ENDBLK
  5
38
330
36
100
AcDbEntity
  8
0
100
AcDbBlockEnd
  0
BLOCK
  5
33
330
32
100
AcDbEntity
 67
     1
  8
0
100
AcDbBlockBegin
  2
*Paper_Space
 70
     0
 10
0.0
 20
0.0
 30
0.0
  3
*Paper_Space
  1

  0
ENDBLK
  5
34
330
32
100
AcDbEntity
 67
     1
  8
0
100
AcDbBlockEnd
  0
BLOCK
  5
47
330
46
100
AcDbEntity
  8
0
100
AcDbBlockBegin
  2
_DOT
 70
     0
 10
0.0
 20
0.0
 30
0.0
  3
_DOT
  1

  0
POLYLINE
  5
48
330
46
100
AcDbEntity
  8
0
  6
ByBlock
 62
     0
100
AcDb2dPolyline
 66
     1
 10
0.0
 20
0.0
 30
0.0
 70
     1
 40
0.4000000100000002
 41
0.4000000100000002
  0
VERTEX
  5
49
330
48
100
AcDbEntity
  8
0
  6
ByBlock
 62
     0
100
AcDbVertex
100
AcDb2dVertex
 10
-0.2
 20
0.0
 30
0.0
 42
1.0
  0
VERTEX
  5
4A
330
48
100
AcDbEntity
  8
0
  6
ByBlock
 62
     0
100
AcDbVertex
100
AcDb2dVertex
 10
0.2
 20
0.0
 30
0.0
 42
1.0
  0
SEQEND
  5
4B
330
48
100
AcDbEntity
  8
0
  6
ByBlock
 62
     0
  0
LINE
  5
4C
330
46
100
AcDbEntity
  8
0
  6
ByBlock
 62
     0
100
AcDbLine
 10
-0.4000000100000002
 20
0.0
 30
0.0
 11
-3.0
 21
0.0
 31
0.0
  0
ENDBLK
  5
4D
330
46
100
AcDbEntity
  8
0
100
AcDbBlockEnd
  0
BLOCK
  5
4F
330
4E
100
AcDbEntity
  8
0
100
AcDbBlockBegin
  2
*D1
 70
     1
 10
0.0
 20
0.0
 30
0.0
  3
*D1
  1

  0
LINE
  5
50
330
4E
100
AcDbEntity
  8
0
  6
Continuous
 62
     7
100
AcDbLine
 10
-52.0
 20
2.0
 30
0.0
 11
-52.0
 21
-10.0
 31
0.0
  0
INSERT
  5
51
330
4E
100
AcDbEntity
  8
0
  6
Continuous
 62
     7
100
AcDbBlockReference
  2
_DOT
 10
-52.0
 20
2.0
 30
0.0
 50
90.0
  0
INSERT
  5
52
330
4E
100
AcDbEntity
  8
0
  6
Continuous
 62
     7
100
AcDbBlockReference
  2
_DOT
 10
-52.0
 20
-10.0
 30
0.0
 50
270.0
  0
LINE
  5
53
330
4E
100
AcDbEntity
  8
0
  6
Continuous
 62
     7
100
AcDbLine
 10
-44.53999999999999
 20
2.0
 30
0.0
 11
-53.200001
 21
2.0
 31
0.0
  0
LINE
  5
54
330
4E
100
AcDbEntity
  8
0
  6
Continuous
 62
     7
100
AcDbLine
 10
-43.974536
 20
-10.0
 30
0.0
 11
-53.200001
 21
-10.0
 31
0.0
  0
TEXT
  5
55
330
4E
100
AcDbEntity
  8
0
  6
Continuous
 62
     7
100
AcDbText
 10
-52.8
 20
-6.742999999999998
 30
0.0
 40
3.2
  1
12
 50
90.00000300000001
 41
1.285781199999998
100
AcDbText
  0
POINT
  5
56
330
4E
100
AcDbEntity
  8
DEFPOINTS
  6
Continuous
 62
     7
100
AcDbPoint
 10
-42.0
 20
2.0
 30
0.0
  0
POINT
  5
57
330
4E
100
AcDbEntity
  8
DEFPOINTS
  6
Continuous
 62
     7
100
AcDbPoint
 10
-41.43453599999999
 20
-10.0
 30
0.0
  0
POINT
  5
58
330
4E
100
AcDbEntity
  8
DEFPOINTS
  6
Continuous
 62
     7
100
AcDbPoint
 10
-52.0
 20
-10.0
 30
0.0
  0
ENDBLK
  5
59
330
4E
100
AcDbEntity
  8
0
100
AcDbBlockEnd
  0
BLOCK
  5
5B
330
5A
100
AcDbEntity
  8
0
100
AcDbBlockBegin
  2
*D2
 70
     1
 10
0.0
 20
0.0
 30
0.0
  3
*D2
  1

  0
LINE
  5
5C
330
5A
100
AcDbEntity
  8
0
  6
Continuous
 62
     7
100
AcDbLine
 10
-40.49999999999999
 20
12.0
 30
0.0
 11
-31.500002
 21
12.0
 31
0.0
  0
INSERT
  5
5D
330
5A
100
AcDbEntity
  8
0
  6
Continuous
 62
     7
100
AcDbBlockReference
  2
_DOT
 10
-40.49999999999999
 20
12.0
 30
0.0
 50
180.0
  0
INSERT
  5
5E
330
5A
100
AcDbEntity
  8
0
  6
Continuous
 62
     7
100
AcDbBlockReference
  2
_DOT
 10
-31.500002
 20
12.0
 30
0.0
  0
LINE
  5
5F
330
5A
100
AcDbEntity
  8
0
  6
Continuous
 62
     7
100
AcDbLine
 10
-40.49999999999999
 20
4.540000599999999
 30
0.0
 11
-40.49999999999999
 21
13.2
 31
0.0
  0
LINE
  5
60
330
5A
100
AcDbEntity
  8
0
  6
Continuous
 62
     7
100
AcDbLine
 10
-31.500002
 20
4.5399999
 30
0.0
 11
-31.500002
 21
13.2
 31
0.0
  0
TEXT
  5
61
330
5A
100
AcDbEntity
  8
0
  6
Continuous
 62
     7
100
AcDbText
 10
-37.143
 20
12.8
 30
0.0
 40
3.2
  1
9
100
AcDbText
  0
POINT
  5
62
330
5A
100
AcDbEntity
  8
DEFPOINTS
  6
Continuous
 62
     7
100
AcDbPoint
 10
-40.49999999999999
 20
2.000000699999999
 30
0.0
  0
POINT
  5
63
330
5A
100
AcDbEntity
  8
DEFPOINTS
  6
Continuous
 62
     7
100
AcDbPoint
 10
-31.500002
 20
2.0
 30
0.0
  0
POINT
  5
64
330
5A
100
AcDbEntity
  8
DEFPOINTS
  6
Continuous
 62
     7
100
AcDbPoint
 10
-31.500002
 20
12.0
 30
0.0
  0
ENDBLK
  5
65
330
5A
100
AcDbEntity
  8
0
100
AcDbBlockEnd
  0
BLOCK
  5
67
330
66
100
AcDbEntity
  8
0
100
AcDbBlockBegin
  2
*D3
 70
     1
 10
0.0
 20
0.0
 30
0.0
  3
*D3
  1

  0
LINE
  5
68
330
66
100
AcDbEntity
  8
0
  6
Continuous
 62
     7
100
AcDbLine
 10
-42.0
 20
22.0
 30
0.0
 11
-30.0
 21
22.0
 31
0.0
  0
INSERT
  5
69
330
66
100
AcDbEntity
  8
0
  6
Continuous
 62
     7
100
AcDbBlockReference
  2
_DOT
 10
-42.0
 20
22.0
 30
0.0
 50
180.0
  0
INSERT
  5
6A
330
66
100
AcDbEntity
  8
0
  6
Continuous
 62
     7
100
AcDbBlockReference
  2
_DOT
 10
-30.0
 20
22.0
 30
0.0
  0
LINE
  5
6B
330
66
100
AcDbEntity
  8
0
  6
Continuous
 62
     7
100
AcDbLine
 10
-42.0
 20
4.5399999
 30
0.0
 11
-42.0
 21
23.200001
 31
0.0
  0
LINE
  5
6C
330
66
100
AcDbEntity
  8
0
  6
Continuous
 62
     7
100
AcDbLine
 10
-30.0
 20
4.5399999
 30
0.0
 11
-30.0
 21
23.200001
 31
0.0
  0
TEXT
  5
6D
330
66
100
AcDbEntity
  8
0
  6
Continuous
 62
     7
100
AcDbText
 10
-38.743
 20
22.8
 30
0.0
 40
3.2
  1
12
 41
1.285781199999998
100
AcDbText
  0
POINT
  5
6E
330
66
100
AcDbEntity
  8
DEFPOINTS
  6
Continuous
 62
     7
100
AcDbPoint
 10
-42.0
 20
2.0
 30
0.0
  0
POINT
  5
6F
330
66
100
AcDbEntity
  8
DEFPOINTS
  6
Continuous
 62
     7
100
AcDbPoint
 10
-30.0
 20
2.0
 30
0.0
  0
POINT
  5
70
330
66
100
AcDbEntity
  8
DEFPOINTS
  6
Continuous
 62
     7
100
AcDbPoint
 10
-30.0
 20
22.0
 30
0.0
  0
ENDBLK
  5
71
330
66
100
AcDbEntity
  8
0
100
AcDbBlockEnd
  0
BLOCK
  5
73
330
72
100
AcDbEntity
  8
0
100
AcDbBlockBegin
  2
*D4
 70
     1
 10
0.0
 20
0.0
 30
0.0
  3
*D4
  1

  0
ARC
  5
74
330
72
100
AcDbEntity
  8
0
  6
Continuous
 62
     7
100
AcDbCircle
 10
-36.0
 20
-2.499998799999999
 30
0.0
 40
34.514488
100
AcDbArc
 50
45.00000099999999
 51
135.0
  0
INSERT
  5
75
330
72
100
AcDbEntity
  8
0
  6
Continuous
 62
     7
100
AcDbBlockReference
  2
_DOT
 10
-11.594572
 20
21.90543
 30
0.0
 50
317.49086
  0
INSERT
  5
76
330
72
100
AcDbEntity
  8
0
  6
Continuous
 62
     7
100
AcDbBlockReference
  2
_DOT
 10
-60.40542900000001
 20
21.90543
 30
0.0
 50
222.50914
  0
LINE
  5
77
330
72
100
AcDbEntity
  8
0
  6
Continuous
 62
     7
100
AcDbLine
 10
-29.703949
 20
3.7960519
 30
0.0
 11
-10.746043
 21
22.753958
 31
0.0
  0
LINE
  5
78
330
72
100
AcDbEntity
  8
0
  6
Continuous
 62
     7
100
AcDbLine
 10
-42.29605099999999
 20
3.7960519
 30
0.0
 11
-61.253956
 21
22.753958
 31
0.0
  0
TEXT
  5
79
330
72
100
AcDbEntity
  8
0
  6
Continuous
 62
     7
100
AcDbText
 10
-40.343
 20
32.814488
 30
0.0
 40
3.2
  1
90%%D
 41
1.0333915
100
AcDbText
  0
POINT
  5
7A
330
72
100
AcDbEntity
  8
DEFPOINTS
  6
Continuous
 62
     7
100
AcDbPoint
 10
-31.5
 20
2.000000699999999
 30
0.0
  0
POINT
  5
7B
330
72
100
AcDbEntity
  8
DEFPOINTS
  6
Continuous
 62
     7
100
AcDbPoint
 10
-40.49999999999999
 20
2.000000699999999
 30
0.0
  0
POINT
  5
7C
330
72
100
AcDbEntity
  8
DEFPOINTS
  6
Continuous
 62
     7
100
AcDbPoint
 10
-11.594572
 20
21.90543
 30
0.0
  0
ENDBLK
  5
7D
330
72
100
AcDbEntity
  8
0
100
AcDbBlockEnd
  0
BLOCK
  5
7F
330
7E
100
AcDbEntity
  8
0
100
AcDbBlockBegin
  2
*D5
 70
     1
 10
0.0
 20
0.0
 30
0.0
  3
*D5
  1

  0
LINE
  5
80
330
7E
100
AcDbEntity
  8
0
  6
Continuous
 62
     7
100
AcDbLine
 10
-15.0
 20
-5.621319299999998
 30
0.0
 11
-15.0
 21
-16.561892
 31
0.0
  0
LINE
  5
81
330
7E
100
AcDbEntity
  8
0
  6
Continuous
 62
     7
100
AcDbLine
 10
-15.0
 20
2.0
 30
0.0
 11
-15.0
 21
-5.621319299999998
 31
0.0
  0
INSERT
  5
82
330
7E
100
AcDbEntity
  8
0
  6
Continuous
 62
     7
100
AcDbBlockReference
  2
_DOT
 10
-15.0
 20
2.0
 30
0.0
 50
90.0
  0
INSERT
  5
83
330
7E
100
AcDbEntity
  8
0
  6
Continuous
 62
     7
100
AcDbBlockReference
  2
_DOT
 10
-15.0
 20
-5.621319299999998
 30
0.0
 50
270.0
  0
LINE
  5
84
330
7E
100
AcDbEntity
  8
0
  6
Continuous
 62
     7
100
AcDbLine
 10
-27.46
 20
2.0
 30
0.0
 11
-13.8
 21
2.0
 31
0.0
  0
LINE
  5
85
330
7E
100
AcDbEntity
  8
0
  6
Continuous
 62
     7
100
AcDbLine
 10
-33.46
 20
-5.621319299999998
 30
0.0
 11
-13.8
 21
-5.621319299999998
 31
0.0
  0
TEXT
  5
86
330
7E
100
AcDbEntity
  8
0
  6
Continuous
 62
     7
100
AcDbText
 10
-15.8
 20
-16.881893
 30
0.0
 40
3.2
  1
7.6
 50
90.00000300000001
 41
1.357187499999999
100
AcDbText
  0
POINT
  5
87
330
7E
100
AcDbEntity
  8
DEFPOINTS
  6
Continuous
 62
     7
100
AcDbPoint
 10
-30.0
 20
2.0
 30
0.0
  0
POINT
  5
88
330
7E
100
AcDbEntity
  8
DEFPOINTS
  6
Continuous
 62
     7
100
AcDbPoint
 10
-36.0
 20
-5.621319299999998
 30
0.0
  0
POINT
  5
89
330
7E
100
AcDbEntity
  8
DEFPOINTS
  6
Continuous
 62
     7
100
AcDbPoint
 10
-15.0
 20
-5.621319299999998
 30
0.0
  0
ENDBLK
  5
8A
330
7E
100
AcDbEntity
  8
0
100
AcDbBlockEnd
  0
BLOCK
  5
8C
330
8B
100
AcDbEntity
  8
0
100
AcDbBlockBegin
  2
*D6
 70
     1
 10
0.0
 20
0.0
 30
0.0
  3
*D6
  1

  0
LINE
  5
8D
330
8B
100
AcDbEntity
  8
0
  6
Continuous
 62
     7
100
AcDbLine
 10
-38.5
 20
-25.0
 30
0.0
 11
-33.5
 21
-25.0
 31
0.0
  0
INSERT
  5
8E
330
8B
100
AcDbEntity
  8
0
  6
Continuous
 62
     7
100
AcDbBlockReference
  2
_DOT
 10
-38.5
 20
-25.0
 30
0.0
 50
180.0
  0
INSERT
  5
8F
330
8B
100
AcDbEntity
  8
0
  6
Continuous
 62
     7
100
AcDbBlockReference
  2
_DOT
 10
-33.5
 20
-25.0
 30
0.0
  0
LINE
  5
90
330
8B
100
AcDbEntity
  8
0
  6
Continuous
 62
     7
100
AcDbLine
 10
-38.5
 20
-12.54
 30
0.0
 11
-38.5
 21
-27.200001
 31
0.0
  0
LINE
  5
91
330
8B
100
AcDbEntity
  8
0
  6
Continuous
 62
     7
100
AcDbLine
 10
-33.5
 20
-12.54
 30
0.0
 11
-33.5
 21
-27.200001
 31
0.0
  0
TEXT
  5
92
330
8B
100
AcDbEntity
  8
0
  6
Continuous
 62
     7
100
AcDbText
 10
-37.143
 20
-24.2
 30
0.0
 40
3.2
  1
5
100
AcDbText
  0
POINT
  5
93
330
8B
100
AcDbEntity
  8
DEFPOINTS
  6
Continuous
 62
     7
100
AcDbPoint
 10
-38.5
 20
-10.0
 30
0.0
  0
POINT
  5
94
330
8B
100
AcDbEntity
  8
DEFPOINTS
  6
Continuous
 62
     7
100
AcDbPoint
 10
-33.5
 20
-10.0
 30
0.0
  0
POINT
  5
95
330
8B
100
AcDbEntity
  8
DEFPOINTS
  6
Continuous
 62
     7
100
AcDbPoint
 10
-33.5
 20
-25.0
 30
0.0
  0
ENDBLK
  5
96
330
8B
100
AcDbEntity
  8
0
100
AcDbBlockEnd
  0
BLOCK
  5
98
330
97
100
AcDbEntity
  8
0
100
AcDbBlockBegin
  2
*D7
 70
     1
 10
0.0
 20
0.0
 30
0.0
  3
*D7
  1

  0
LINE
  5
99
330
97
100
AcDbEntity
  8
0
  6
Continuous
 62
     7
100
AcDbLine
 10
-40.0
 20
-35.0
 30
0.0
 11
-32.0
 21
-35.0
 31
0.0
  0
INSERT
  5
9A
330
97
100
AcDbEntity
  8
0
  6
Continuous
 62
     7
100
AcDbBlockReference
  2
_DOT
 10
-40.0
 20
-35.0
 30
0.0
 50
180.0
  0
INSERT
  5
9B
330
97
100
AcDbEntity
  8
0
  6
Continuous
 62
     7
100
AcDbBlockReference
  2
_DOT
 10
-32.0
 20
-35.0
 30
0.0
  0
LINE
  5
9C
330
97
100
AcDbEntity
  8
0
  6
Continuous
 62
     7
100
AcDbLine
 10
-40.0
 20
-11.04
 30
0.0
 11
-40.0
 21
-36.200001
 31
0.0
  0
LINE
  5
9D
330
97
100
AcDbEntity
  8
0
  6
Continuous
 62
     7
100
AcDbLine
 10
-32.0
 20
-11.04
 30
0.0
 11
-32.0
 21
-36.200001
 31
0.0
  0
TEXT
  5
9E
330
97
100
AcDbEntity
  8
0
  6
Continuous
 62
     7
100
AcDbText
 10
-37.143
 20
-34.2
 30
0.0
 40
3.2
  1
8
100
AcDbText
  0
POINT
  5
9F
330
97
100
AcDbEntity
  8
DEFPOINTS
  6
Continuous
 62
     7
100
AcDbPoint
 10
-40.0
 20
-8.5
 30
0.0
  0
POINT
  5
A0
330
97
100
AcDbEntity
  8
DEFPOINTS
  6
Continuous
 62
     7
100
AcDbPoint
 10
-32.0
 20
-8.5
 30
0.0
  0
POINT
  5
A1
330
97
100
AcDbEntity
  8
DEFPOINTS
  6
Continuous
 62
     7
100
AcDbPoint
 10
-32.0
 20
-35.0
 30
0.0
  0
ENDBLK
  5
A2
330
97
100
AcDbEntity
  8
0
100
AcDbBlockEnd
  0
BLOCK
  5
19B
330
199
100
AcDbEntity
  8
0
100
AcDbBlockBegin
  2
GENAXEH
 70
     0
 10
0.0
 20
0.0
 30
0.0
  3
GENAXEH
  1

  0
LINE
  5
19A
330
199
100
AcDbEntity
  8
0
100
AcDbLine
 10
-1.0
 20
0.0
 30
0.0
 11
1.0
 21
0.0
 31
0.0
  0
ENDBLK
  5
19C
330
199
100
AcDbEntity
  8
0
100
AcDbBlockEnd
  0
BLOCK
  5
2A8
330
2A7
100
AcDbEntity
  8
0
100
AcDbBlockBegin
  2
_OPEN30
 70
     0
 10
0.0
 20
0.0
 30
0.0
  3
_OPEN30
  1

  0
LINE
  5
2A9
330
2A7
100
AcDbEntity
  8
0
  6
ByBlock
 62
     0
100
AcDbLine
 10
-1.0
 20
0.26794919
 30
0.0
 11
0.0
 21
0.0
 31
0.0
  0
LINE
  5
2AA
330
2A7
100
AcDbEntity
  8
0
  6
ByBlock
 62
     0
100
AcDbLine
 10
0.0
 20
0.0
 30
0.0
 11
-1.0
 21
-0.26794919
 31
0.0
  0
LINE
  5
2AB
330
2A7
100
AcDbEntity
  8
0
  6
ByBlock
 62
     0
100
AcDbLine
 10
0.0
 20
0.0
 30
0.0
 11
-1.0
 21
0.0
 31
0.0
  0
ENDBLK
  5
2AC
330
2A7
100
AcDbEntity
  8
0
100
AcDbBlockEnd
  0
BLOCK
  5
2AE
330
2AD
100
AcDbEntity
  8
0
100
AcDbBlockBegin
  2
GENDOT
 70
     0
 10
0.0
 20
0.0
 30
0.0
  3
GENDOT
  1

  0
LINE
  5
2AF
330
2AD
100
AcDbEntity
  8
0
100
AcDbLine
 10
0.0
 20
0.0
 30
0.0
 11
-1.0
 21
0.0
 31
0.0
  0
LWPOLYLINE
  5
2B0
330
2AD
100
AcDbEntity
  8
0
100
AcDbPolyline
 90
        2
 70
     1
 43
0.25
 10
-0.125
 20
0.0
 42
1.0
 10
0.125
 20
0.0
 42
1.0
  0
ENDBLK
  5
2B1
330
2AD
100
AcDbEntity
  8
0
100
AcDbBlockEnd
  0
BLOCK
  5
2B3
330
2B2
100
AcDbEntity
  8
0
100
AcDbBlockBegin
  2
*D12
 70
     1
 10
0.0
 20
0.0
 30
0.0
  3
*D12
  1

  0
LINE
  5
2B4
330
2B2
100
AcDbEntity
  8
AM_5
100
AcDbLine
 10
604.4632266788229
 20
685.6991786447123
 30
0.0
 11
604.4632266788229
 21
689.599178644714
 31
0.0
  0
LINE
  5
2B5
330
2B2
100
AcDbEntity
  8
AM_5
100
AcDbLine
 10
616.6632342945
 20
685.6991786447117
 30
0.0
 11
616.6632342945
 21
689.599178644714
 31
0.0
  0
LINE
  5
2B6
330
2B2
100
AcDbEntity
  8
AM_5
100
AcDbLine
 10
604.6632266788229
 20
689.399178644714
 30
0.0
 11
616.4632342945
 21
689.399178644714
 31
0.0
  0
INSERT
  5
2B7
330
2B2
100
AcDbEntity
  8
AM_5
100
AcDbBlockReference
  2
_DOT
 10
604.4632266788229
 20
689.399178644714
 30
0.0
 41
0.2000000000000001
 42
0.2000000000000001
 43
0.2000000000000001
 50
180.0
  0
INSERT
  5
2B8
330
2B2
100
AcDbEntity
  8
AM_5
100
AcDbBlockReference
  2
_DOT
 10
616.6632342945
 20
689.399178644714
 30
0.0
 41
0.2000000000000001
 42
0.2000000000000001
 43
0.2000000000000001
  0
MTEXT
  5
2B9
330
2B2
100
AcDbEntity
  8
AM_5
 62
     2
100
AcDbMText
 10
610.5632304866615
 20
690.2293119780473
 30
0.0
 40
0.6400000000000002
 41
0.0
 71
     5
 72
     1
  1
12.2{}{\H0.71x;\C2;\S+0.2^  0;}
 73
     1
 44
1.0
1001
ACAD
1000
MTEXTBEGIN
1070
    73
1070
     1
1070
    44
1040
1.0
1070
    74
1070
     0
1000
MTEXTEND
  0
POINT
  5
2BA
330
2B2
100
AcDbEntity
  8
DEFPOINTS
 62
     0
100
AcDbPoint
 10
604.4632266788229
 20
685.3991786447124
 30
0.0
  0
POINT
  5
2BB
330
2B2
100
AcDbEntity
  8
DEFPOINTS
 62
     0
100
AcDbPoint
 10
616.6632342945
 20
685.3991786447116
 30
0.0
  0
POINT
  5
2BC
330
2B2
100
AcDbEntity
  8
DEFPOINTS
 62
     0
100
AcDbPoint
 10
616.6632342945
 20
689.399178644714
 30
0.0
  0
ENDBLK
  5
2BD
330
2B2
100
AcDbEntity
  8
0
100
AcDbBlockEnd
  0
BLOCK
  5
2BF
330
2BE
100
AcDbEntity
  8
0
100
AcDbBlockBegin
  2
*D13
 70
     1
 10
0.0
 20
0.0
 30
0.0
  3
*D13
  1

  0
LINE
  5
2C0
330
2BE
100
AcDbEntity
  8
AM_5
100
AcDbLine
 10
606.0632304886411
 20
685.6991786447117
 30
0.0
 11
606.0632304886411
 21
687.5991786447166
 31
0.0
  0
LINE
  5
2C1
330
2BE
100
AcDbEntity
  8
AM_5
100
AcDbLine
 10
615.0632304886409
 20
685.6991786447117
 30
0.0
 11
615.0632304886409
 21
687.5991786447166
 31
0.0
  0
LINE
  5
2C2
330
2BE
100
AcDbEntity
  8
AM_5
100
AcDbLine
 10
606.2632304886411
 20
687.3991786447166
 30
0.0
 11
614.8632304886408
 21
687.3991786447166
 31
0.0
  0
INSERT
  5
2C3
330
2BE
100
AcDbEntity
  8
AM_5
100
AcDbBlockReference
  2
_DOT
 10
606.0632304886411
 20
687.3991786447166
 30
0.0
 41
0.2000000000000001
 42
0.2000000000000001
 43
0.2000000000000001
 50
180.0
  0
INSERT
  5
2C4
330
2BE
100
AcDbEntity
  8
AM_5
100
AcDbBlockReference
  2
_DOT
 10
615.0632304886409
 20
687.3991786447166
 30
0.0
 41
0.2000000000000001
 42
0.2000000000000001
 43
0.2000000000000001
  0
MTEXT
  5
2C5
330
2BE
100
AcDbEntity
  8
AM_5
 62
     2
100
AcDbMText
 10
610.563230488641
 20
688.0191786447166
 30
0.0
 40
0.6400000000000002
 41
0.0
 71
     5
 72
     1
  1
9
 73
     1
 44
1.0
1001
ACAD
1000
MTEXTBEGIN
1070
    73
1070
     1
1070
    44
1040
1.0
1070
    74
1070
     0
1000
MTEXTEND
  0
POINT
  5
2C6
330
2BE
100
AcDbEntity
  8
DEFPOINTS
 62
     0
100
AcDbPoint
 10
606.0632304886411
 20
685.3991786447116
 30
0.0
  0
POINT
  5
2C7
330
2BE
100
AcDbEntity
  8
DEFPOINTS
 62
     0
100
AcDbPoint
 10
615.0632304886409
 20
685.3991786447116
 30
0.0
  0
POINT
  5
2C8
330
2BE
100
AcDbEntity
  8
DEFPOINTS
 62
     0
100
AcDbPoint
 10
615.0632304886409
 20
687.3991786447166
 30
0.0
  0
ENDBLK
  5
2C9
330
2BE
100
AcDbEntity
  8
0
100
AcDbBlockEnd
  0
BLOCK
  5
2CB
330
2CA
100
AcDbEntity
  8
0
100
AcDbBlockBegin
  2
*D14
 70
     1
 10
0.0
 20
0.0
 30
0.0
  3
*D14
  1

  0
LINE
  5
2CC
330
2CA
100
AcDbEntity
  8
AM_5
100
AcDbLine
 10
604.1632266788229
 20
685.3991786447124
 30
0.0
 11
600.9365259490961
 21
685.3991786447124
 31
0.0
  0
LINE
  5
2CD
330
2CA
100
AcDbEntity
  8
AM_5
100
AcDbLine
 10
604.7679647312322
 20
673.3995682773271
 30
0.0
 11
600.9365259490961
 21
673.3995682773271
 31
0.0
  0
LINE
  5
2CE
330
2CA
100
AcDbEntity
  8
AM_5
100
AcDbLine
 10
601.1365259490961
 20
685.1991786447123
 30
0.0
 11
601.1365259490961
 21
673.5995682773271
 31
0.0
  0
INSERT
  5
2CF
330
2CA
100
AcDbEntity
  8
AM_5
100
AcDbBlockReference
  2
_DOT
 10
601.1365259490961
 20
685.3991786447124
 30
0.0
 41
0.2000000000000001
 42
0.2000000000000001
 43
0.2000000000000001
 50
90.0
  0
INSERT
  5
2D0
330
2CA
100
AcDbEntity
  8
AM_5
100
AcDbBlockReference
  2
_DOT
 10
601.1365259490961
 20
673.3995682773271
 30
0.0
 41
0.2000000000000001
 42
0.2000000000000001
 43
0.2000000000000001
 50
270.0
  0
MTEXT
  5
2D1
330
2CA
100
AcDbEntity
  8
AM_5
 62
     2
100
AcDbMText
 10
600.3063926157627
 20
679.3993734610198
 30
0.0
 40
0.6400000000000002
 41
0.0
 71
     5
 72
     1
  1
12{}{\H0.71x;\C2;\S+0.1^ -0.2;}
 11
0.0000000000000001
 21
1.0
 31
0.0
 73
     1
 44
1.0
1001
ACAD
1000
MTEXTBEGIN
1070
    73
1070
     1
1070
    44
1040
1.0
1070
    74
1070
     0
1000
MTEXTEND
  0
POINT
  5
2D2
330
2CA
100
AcDbEntity
  8
DEFPOINTS
 62
     0
100
AcDbPoint
 10
604.4632266788229
 20
685.3991786447124
 30
0.0
  0
POINT
  5
2D3
330
2CA
100
AcDbEntity
  8
DEFPOINTS
 62
     0
100
AcDbPoint
 10
605.0679647312322
 20
673.3995682773271
 30
0.0
  0
POINT
  5
2D4
330
2CA
100
AcDbEntity
  8
DEFPOINTS
 62
     0
100
AcDbPoint
 10
601.1365259490961
 20
673.3995682773271
 30
0.0
  0
ENDBLK
  5
2D5
330
2CA
100
AcDbEntity
  8
0
100
AcDbBlockEnd
  0
BLOCK
  5
2D7
330
2D6
100
AcDbEntity
  8
0
100
AcDbBlockBegin
  2
*D15
 70
     1
 10
0.0
 20
0.0
 30
0.0
  3
*D15
  1

  0
LINE
  5
2D8
330
2D6
100
AcDbEntity
  8
AM_5
100
AcDbLine
 10
608.0632708429141
 20
673.0991786474283
 30
0.0
 11
608.0635266259514
 21
671.1985192430208
 31
0.0
  0
LINE
  5
2D9
330
2D6
100
AcDbEntity
  8
AM_5
100
AcDbLine
 10
613.063270859445
 20
673.0991786474284
 30
0.0
 11
613.0635265519288
 21
671.1991921227408
 31
0.0
  0
LINE
  5
2DA
330
2D6
100
AcDbEntity
  8
AM_5
100
AcDbLine
 10
608.2634997089514
 20
671.3985461563988
 30
0.0
 11
612.8634996385509
 21
671.3991652057408
 31
0.0
  0
INSERT
  5
2DB
330
2D6
100
AcDbEntity
  8
AM_5
100
AcDbBlockReference
  2
_DOT
 10
608.0634997107625
 20
671.3985192412097
 30
0.0
 41
0.2000000000000001
 42
0.2000000000000001
 43
0.2000000000000001
 50
180.007710633682
  0
INSERT
  5
2DC
330
2D6
100
AcDbEntity
  8
AM_5
100
AcDbBlockReference
  2
_DOT
 10
613.0634996367399
 20
671.3991921209298
 30
0.0
 41
0.2000000000000001
 42
0.2000000000000001
 43
0.2000000000000001
 50
0.0077106336820768
  0
MTEXT
  5
2DD
330
2D6
100
AcDbEntity
  8
AM_5
 62
     2
100
AcDbMText
 10
610.5634162366655
 20
672.0188556754554
 30
0.0
 40
0.6400000000000002
 41
0.0
 71
     5
 72
     1
  1
5
 11
0.9999999909446575
 21
0.0001345759447612
 31
0.0
 73
     1
 44
1.0
1001
ACAD
1000
MTEXTBEGIN
1070
    73
1070
     1
1070
    44
1040
1.0
1070
    74
1070
     0
1000
MTEXTEND
  0
POINT
  5
2DE
330
2D6
100
AcDbEntity
  8
DEFPOINTS
 62
     0
100
AcDbPoint
 10
608.0632304701307
 20
673.3991786447116
 30
0.0
  0
POINT
  5
2DF
330
2D6
100
AcDbEntity
  8
DEFPOINTS
 62
     0
100
AcDbPoint
 10
613.0632304866614
 20
673.3991786447118
 30
0.0
  0
POINT
  5
2E0
330
2D6
100
AcDbEntity
  8
DEFPOINTS
 62
     0
100
AcDbPoint
 10
613.0634996367399
 20
671.3991921209298
 30
0.0
  0
ENDBLK
  5
2E1
330
2D6
100
AcDbEntity
  8
0
100
AcDbBlockEnd
  0
BLOCK
  5
2E3
330
2E2
100
AcDbEntity
  8
0
100
AcDbBlockBegin
  2
*D16
 70
     1
 10
0.0
 20
0.0
 30
0.0
  3
*D16
  1

  0
LINE
  5
2E4
330
2E2
100
AcDbEntity
  8
AM_5
100
AcDbLine
 10
606.5632304713646
 20
674.5991786447117
 30
0.0
 11
606.5632304713646
 21
669.7109697143117
 31
0.0
  0
LINE
  5
2E5
330
2E2
100
AcDbEntity
  8
AM_5
100
AcDbLine
 10
614.5632304866615
 20
674.5991786447117
 30
0.0
 11
614.5632304866615
 21
669.7109697143117
 31
0.0
  0
LINE
  5
2E6
330
2E2
100
AcDbEntity
  8
AM_5
100
AcDbLine
 10
606.7632304713646
 20
669.9109697143118
 30
0.0
 11
614.3632304866614
 21
669.9109697143118
 31
0.0
  0
INSERT
  5
2E7
330
2E2
100
AcDbEntity
  8
AM_5
100
AcDbBlockReference
  2
_DOT
 10
606.5632304713646
 20
669.9109697143118
 30
0.0
 41
0.2000000000000001
 42
0.2000000000000001
 43
0.2000000000000001
 50
180.0
  0
INSERT
  5
2E8
330
2E2
100
AcDbEntity
  8
AM_5
100
AcDbBlockReference
  2
_DOT
 10
614.5632304866615
 20
669.9109697143118
 30
0.0
 41
0.2000000000000001
 42
0.2000000000000001
 43
0.2000000000000001
  0
MTEXT
  5
2E9
330
2E2
100
AcDbEntity
  8
AM_5
 62
     2
100
AcDbMText
 10
610.563230479013
 20
670.5309697143118
 30
0.0
 40
0.6400000000000002
 41
0.0
 71
     5
 72
     1
  1
8
 73
     1
 44
1.0
1001
ACAD
1000
MTEXTBEGIN
1070
    73
1070
     1
1070
    44
1040
1.0
1070
    74
1070
     0
1000
MTEXTEND
  0
POINT
  5
2EA
330
2E2
100
AcDbEntity
  8
DEFPOINTS
 62
     0
100
AcDbPoint
 10
606.5632304713646
 20
674.8991786447117
 30
0.0
  0
POINT
  5
2EB
330
2E2
100
AcDbEntity
  8
DEFPOINTS
 62
     0
100
AcDbPoint
 10
614.5632304866615
 20
674.8991786447117
 30
0.0
  0
POINT
  5
2EC
330
2E2
100
AcDbEntity
  8
DEFPOINTS
 62
     0
100
AcDbPoint
 10
614.5632304866615
 20
669.9109697143118
 30
0.0
  0
ENDBLK
  5
2ED
330
2E2
100
AcDbEntity
  8
0
100
AcDbBlockEnd
  0
BLOCK
  5
2EF
330
2EE
100
AcDbEntity
  8
0
100
AcDbBlockBegin
  2
*D17
 70
     1
 10
0.0
 20
0.0
 30
0.0
  3
*D17
  1

  0
LINE
  5
2F0
330
2EE
100
AcDbEntity
  8
AM_5
100
AcDbLine
 10
616.3584962420907
 20
673.3995682773272
 30
0.0
 11
618.2716095765316
 21
673.3995682773272
 31
0.0
  0
LINE
  5
2F1
330
2EE
100
AcDbEntity
  8
AM_5
100
AcDbLine
 10
616.3716095765313
 20
674.8996373431666
 30
0.0
 11
618.2716095765316
 21
674.8996373431666
 31
0.0
  0
LINE
  5
2F2
330
2EE
100
AcDbEntity
  8
AM_5
100
AcDbLine
 10
618.0716095765315
 20
673.5995682773273
 30
0.0
 11
618.0716095765315
 21
674.6996373431665
 31
0.0
  0
INSERT
  5
2F3
330
2EE
100
AcDbEntity
  8
AM_5
100
AcDbBlockReference
  2
_DOT
 10
618.0716095765315
 20
673.3995682773272
 30
0.0
 41
0.2000000000000001
 42
0.2000000000000001
 43
0.2000000000000001
 50
270.0
  0
INSERT
  5
2F4
330
2EE
100
AcDbEntity
  8
AM_5
100
AcDbBlockReference
  2
GENDOT
 10
618.0716095765315
 20
674.8996373431666
 30
0.0
 41
0.2000000000000001
 42
0.2000000000000001
 43
0.2000000000000001
 50
90.0
  0
MTEXT
  5
2F5
330
2EE
100
AcDbEntity
  8
AM_5
 62
     2
100
AcDbMText
 10
617.4516095765315
 20
674.1496028102469
 30
0.0
 40
0.6400000000000002
 41
0.0
 71
     5
 72
     1
  1
1.5
 11
0.0000000000000001
 21
1.0
 31
0.0
 73
     1
 44
1.0
1001
ACAD
1000
MTEXTBEGIN
1070
    73
1070
     1
1070
    44
1040
1.0
1070
    74
1070
     0
1000
MTEXTEND
  0
POINT
  5
2F6
330
2EE
100
AcDbEntity
  8
DEFPOINTS
 62
     0
100
AcDbPoint
 10
616.0584962420907
 20
673.3995682773272
 30
0.0
  0
POINT
  5
2F7
330
2EE
100
AcDbEntity
  8
DEFPOINTS
 62
     0
100
AcDbPoint
 10
616.0716095765313
 20
674.8996373431666
 30
0.0
  0
POINT
  5
2F8
330
2EE
100
AcDbEntity
  8
DEFPOINTS
 62
     0
100
AcDbPoint
 10
618.0716095765315
 20
674.8996373431666
 30
0.0
  0
ENDBLK
  5
2F9
330
2EE
100
AcDbEntity
  8
0
100
AcDbBlockEnd
  0
BLOCK
  5
2FB
330
2FA
100
AcDbEntity
  8
0
100
AcDbBlockBegin
  2
*D18
 70
     1
 10
0.0
 20
0.0
 30
0.0
  3
*D18
  1

  0
LINE
  5
2FC
330
2FA
100
AcDbEntity
  8
AM_5
100
AcDbLine
 10
616.3716095765313
 20
674.8996373431666
 30
0.0
 11
618.2716095765314
 21
674.8996373431666
 31
0.0
  0
LINE
  5
2FD
330
2FA
100
AcDbEntity
  8
AM_5
100
AcDbLine
 10
616.3846768764472
 20
676.3995718277771
 30
0.0
 11
618.2716095765314
 21
676.3995718277771
 31
0.0
  0
LINE
  5
2FE
330
2FA
100
AcDbEntity
  8
AM_5
100
AcDbLine
 10
618.0716095765314
 20
675.0996373431665
 30
0.0
 11
618.0716095765314
 21
676.199571827777
 31
0.0
  0
INSERT
  5
2FF
330
2FA
100
AcDbEntity
  8
AM_5
100
AcDbBlockReference
  2
GENDOT
 10
618.0716095765314
 20
674.8996373431666
 30
0.0
 41
0.2000000000000001
 42
0.2000000000000001
 43
0.2000000000000001
 50
270.0
  0
INSERT
  5
300
330
2FA
100
AcDbEntity
  8
AM_5
100
AcDbBlockReference
  2
_DOT
 10
618.0716095765314
 20
676.3995718277771
 30
0.0
 41
0.2000000000000001
 42
0.2000000000000001
 43
0.2000000000000001
 50
90.0
  0
MTEXT
  5
301
330
2FA
100
AcDbEntity
  8
AM_5
 62
     2
100
AcDbMText
 10
617.4516095765312
 20
675.6496045854719
 30
0.0
 40
0.6400000000000002
 41
0.0
 71
     5
 72
     1
  1
1.5
 11
0.0000000000000001
 21
1.0
 31
0.0
 73
     1
 44
1.0
1001
ACAD
1000
MTEXTBEGIN
1070
    73
1070
     1
1070
    44
1040
1.0
1070
    74
1070
     0
1000
MTEXTEND
  0
POINT
  5
302
330
2FA
100
AcDbEntity
  8
DEFPOINTS
 62
     0
100
AcDbPoint
 10
616.0716095765313
 20
674.8996373431666
 30
0.0
  0
POINT
  5
303
330
2FA
100
AcDbEntity
  8
DEFPOINTS
 62
     0
100
AcDbPoint
 10
616.0846768764472
 20
676.3995718277771
 30
0.0
  0
POINT
  5
304
330
2FA
100
AcDbEntity
  8
DEFPOINTS
 62
     0
100
AcDbPoint
 10
618.0716095765314
 20
676.3995718277771
 30
0.0
  0
ENDBLK
  5
305
330
2FA
100
AcDbEntity
  8
0
100
AcDbBlockEnd
  0
BLOCK
  5
307
330
306
100
AcDbEntity
  8
0
100
AcDbBlockBegin
  2
*D19
 70
     1
 10
0.0
 20
0.0
 30
0.0
  3
*D19
  1

  0
LINE
  5
308
330
306
100
AcDbEntity
  8
AM_5
100
AcDbLine
 10
616.3846768764472
 20
676.3995718277771
 30
0.0
 11
618.2716095765306
 21
676.3995718277771
 31
0.0
  0
LINE
  5
309
330
306
100
AcDbEntity
  8
AM_5
100
AcDbLine
 10
616.3977671936256
 20
677.8995736030019
 30
0.0
 11
618.2716095765306
 21
677.8995736030019
 31
0.0
  0
LINE
  5
30A
330
306
100
AcDbEntity
  8
AM_5
100
AcDbLine
 10
618.0716095765306
 20
676.5995718277771
 30
0.0
 11
618.0716095765306
 21
677.6995736030019
 31
0.0
  0
INSERT
  5
30B
330
306
100
AcDbEntity
  8
AM_5
100
AcDbBlockReference
  2
GENDOT
 10
618.0716095765306
 20
676.3995718277771
 30
0.0
 41
0.2000000000000001
 42
0.2000000000000001
 43
0.2000000000000001
 50
270.0
  0
INSERT
  5
30C
330
306
100
AcDbEntity
  8
AM_5
100
AcDbBlockReference
  2
_DOT
 10
618.0716095765306
 20
677.8995736030019
 30
0.0
 41
0.2000000000000001
 42
0.2000000000000001
 43
0.2000000000000001
 50
90.0
  0
MTEXT
  5
30D
330
306
100
AcDbEntity
  8
AM_5
 62
     2
100
AcDbMText
 10
617.4516095765304
 20
677.1495727153896
 30
0.0
 40
0.6400000000000002
 41
0.0
 71
     5
 72
     1
  1
1.5
 11
0.0000000000000001
 21
1.0
 31
0.0
 73
     1
 44
1.0
1001
ACAD
1000
MTEXTBEGIN
1070
    73
1070
     1
1070
    44
1040
1.0
1070
    74
1070
     0
1000
MTEXTEND
  0
POINT
  5
30E
330
306
100
AcDbEntity
  8
DEFPOINTS
 62
     0
100
AcDbPoint
 10
616.0846768764472
 20
676.3995718277771
 30
0.0
  0
POINT
  5
30F
330
306
100
AcDbEntity
  8
DEFPOINTS
 62
     0
100
AcDbPoint
 10
616.0977671936255
 20
677.8995736030019
 30
0.0
  0
POINT
  5
310
330
306
100
AcDbEntity
  8
DEFPOINTS
 62
     0
100
AcDbPoint
 10
618.0716095765306
 20
677.8995736030019
 30
0.0
  0
ENDBLK
  5
311
330
306
100
AcDbEntity
  8
0
100
AcDbBlockEnd
  0
BLOCK
  5
313
330
312
100
AcDbEntity
  8
0
100
AcDbBlockBegin
  2
*D20
 70
     1
 10
0.0
 20
0.0
 30
0.0
  3
*D20
  1

  0
LINE
  5
314
330
312
100
AcDbEntity
  8
AM_5
100
AcDbLine
 10
616.3977671936256
 20
677.8995736030019
 30
0.0
 11
618.2716095765297
 21
677.8995736030019
 31
0.0
  0
LINE
  5
315
330
312
100
AcDbEntity
  8
AM_5
100
AcDbLine
 10
616.4108941199779
 20
679.403770374076
 30
0.0
 11
618.2716095765297
 21
679.403770374076
 31
0.0
  0
LINE
  5
316
330
312
100
AcDbEntity
  8
AM_5
100
AcDbLine
 10
618.0716095765297
 20
678.0995736030019
 30
0.0
 11
618.0716095765297
 21
679.2037703740759
 31
0.0
  0
INSERT
  5
317
330
312
100
AcDbEntity
  8
AM_5
100
AcDbBlockReference
  2
GENDOT
 10
618.0716095765297
 20
677.8995736030019
 30
0.0
 41
0.2000000000000001
 42
0.2000000000000001
 43
0.2000000000000001
 50
270.0
  0
INSERT
  5
318
330
312
100
AcDbEntity
  8
AM_5
100
AcDbBlockReference
  2
_DOT
 10
618.0716095765297
 20
679.403770374076
 30
0.0
 41
0.2000000000000001
 42
0.2000000000000001
 43
0.2000000000000001
 50
90.0
  0
MTEXT
  5
319
330
312
100
AcDbEntity
  8
AM_5
 62
     2
100
AcDbMText
 10
617.4516095765295
 20
678.6516719885391
 30
0.0
 40
0.6400000000000002
 41
0.0
 71
     5
 72
     1
  1
1.5
 11
0.0000000000000001
 21
1.0
 31
0.0
 73
     1
 44
1.0
1001
ACAD
1000
MTEXTBEGIN
1070
    73
1070
     1
1070
    44
1040
1.0
1070
    74
1070
     0
1000
MTEXTEND
  0
POINT
  5
31A
330
312
100
AcDbEntity
  8
DEFPOINTS
 62
     0
100
AcDbPoint
 10
616.0977671936255
 20
677.8995736030019
 30
0.0
  0
POINT
  5
31B
330
312
100
AcDbEntity
  8
DEFPOINTS
 62
     0
100
AcDbPoint
 10
616.1108941199779
 20
679.403770374076
 30
0.0
  0
POINT
  5
31C
330
312
100
AcDbEntity
  8
DEFPOINTS
 62
     0
100
AcDbPoint
 10
618.0716095765297
 20
679.403770374076
 30
0.0
  0
ENDBLK
  5
31D
330
312
100
AcDbEntity
  8
0
100
AcDbBlockEnd
  0
BLOCK
  5
31F
330
31E
100
AcDbEntity
  8
0
100
AcDbBlockBegin
  2
*D21
 70
     1
 10
0.0
 20
0.0
 30
0.0
  3
*D21
  1

  0
LINE
  5
320
330
31E
100
AcDbEntity
  8
AM_5
100
AcDbLine
 10
616.4108941199779
 20
679.403770374076
 30
0.0
 11
618.2716095765289
 21
679.403770374076
 31
0.0
  0
LINE
  5
321
330
31E
100
AcDbEntity
  8
AM_5
100
AcDbLine
 10
616.9239674544111
 20
680.8996444440659
 30
0.0
 11
618.2716095765289
 21
680.8996444440659
 31
0.0
  0
LINE
  5
322
330
31E
100
AcDbEntity
  8
AM_5
100
AcDbLine
 10
618.0716095765289
 20
679.6037703740759
 30
0.0
 11
618.0716095765289
 21
680.6996444440659
 31
0.0
  0
INSERT
  5
323
330
31E
100
AcDbEntity
  8
AM_5
100
AcDbBlockReference
  2
GENDOT
 10
618.0716095765289
 20
679.403770374076
 30
0.0
 41
0.2000000000000001
 42
0.2000000000000001
 43
0.2000000000000001
 50
270.0
  0
INSERT
  5
324
330
31E
100
AcDbEntity
  8
AM_5
100
AcDbBlockReference
  2
_DOT
 10
618.0716095765289
 20
680.8996444440659
 30
0.0
 41
0.2000000000000001
 42
0.2000000000000001
 43
0.2000000000000001
 50
90.0
  0
MTEXT
  5
325
330
31E
100
AcDbEntity
  8
AM_5
 62
     2
100
AcDbMText
 10
617.4516095765287
 20
680.1517074090711
 30
0.0
 40
0.6400000000000002
 41
0.0
 71
     5
 72
     1
  1
1.5
 11
0.0000000000000001
 21
1.0
 31
0.0
 73
     1
 44
1.0
1001
ACAD
1000
MTEXTBEGIN
1070
    73
1070
     1
1070
    44
1040
1.0
1070
    74
1070
     0
1000
MTEXTEND
  0
POINT
  5
326
330
31E
100
AcDbEntity
  8
DEFPOINTS
 62
     0
100
AcDbPoint
 10
616.1108941199779
 20
679.403770374076
 30
0.0
  0
POINT
  5
327
330
31E
100
AcDbEntity
  8
DEFPOINTS
 62
     0
100
AcDbPoint
 10
616.6239674544112
 20
680.8996444440659
 30
0.0
  0
POINT
  5
328
330
31E
100
AcDbEntity
  8
DEFPOINTS
 62
     0
100
AcDbPoint
 10
618.0716095765289
 20
680.8996444440659
 30
0.0
  0
ENDBLK
  5
329
330
31E
100
AcDbEntity
  8
0
100
AcDbBlockEnd
  0
BLOCK
  5
32B
330
32A
100
AcDbEntity
  8
0
100
AcDbBlockBegin
  2
*D22
 70
     1
 10
0.0
 20
0.0
 30
0.0
  3
*D22
  1

  0
LINE
  5
32C
330
32A
100
AcDbEntity
  8
AM_5
100
AcDbLine
 10
616.9414171250231
 20
682.8991786447117
 30
0.0
 11
618.2716095769176
 21
682.8991786447117
 31
0.0
  0
LINE
  5
32D
330
32A
100
AcDbEntity
  8
AM_5
100
AcDbLine
 10
616.9414171250231
 20
681.8999804991628
 30
0.0
 11
618.2716095769176
 21
681.8999804991628
 31
0.0
  0
LINE
  5
32E
330
32A
100
AcDbEntity
  8
AM_5
100
AcDbLine
 10
618.0716095769176
 20
683.0991786447117
 30
0.0
 11
618.0716095769176
 21
683.2991786447117
 31
0.0
  0
LINE
  5
32F
330
32A
100
AcDbEntity
  8
AM_5
100
AcDbLine
 10
618.0716095769176
 20
681.6999804991628
 30
0.0
 11
618.0716095769176
 21
681.4999804991629
 31
0.0
  0
LINE
  5
330
330
32A
100
AcDbEntity
  8
AM_5
100
AcDbLine
 10
618.0716095769176
 20
682.3995795719373
 30
0.0
 11
620.0587864959185
 21
681.770083288279
 31
0.0
  0
LINE
  5
331
330
32A
100
AcDbEntity
  8
AM_5
100
AcDbLine
 10
620.0587864959185
 20
681.770083288279
 30
0.0
 11
620.0587864959185
 21
681.0634166216122
 31
0.0
  0
MTEXT
  5
332
330
32A
100
AcDbEntity
  8
AM_5
 62
     2
100
AcDbMText
 10
619.4387864959184
 20
681.4167499549458
 30
0.0
 40
0.6400000000000002
 41
0.0
 71
     5
 72
     1
  1
1
 11
0.0000000000000001
 21
1.0
 31
0.0
 73
     1
 44
1.0
1001
ACAD
1000
MTEXTBEGIN
1070
    73
1070
     1
1070
    44
1040
1.0
1070
    74
1070
     0
1000
MTEXTEND
  0
LINE
  5
333
330
32A
100
AcDbEntity
  8
AM_5
100
AcDbLine
 10
618.0716095769176
 20
682.8991786447117
 30
0.0
 11
618.0716095769176
 21
681.8999804991628
 31
0.0
  0
LINE
  5
334
330
32A
100
AcDbEntity
  8
AM_5
100
AcDbLine
 10
618.0716095769176
 20
682.8991786447117
 30
0.0
 11
618.0716095769176
 21
681.8999804991628
 31
0.0
  0
INSERT
  5
335
330
32A
100
AcDbEntity
  8
AM_5
100
AcDbBlockReference
  2
_DOT
 10
618.0716095769176
 20
682.8991786447117
 30
0.0
 41
0.2000000000000001
 42
0.2000000000000001
 43
0.2000000000000001
 50
270.0
  0
INSERT
  5
336
330
32A
100
AcDbEntity
  8
AM_5
100
AcDbBlockReference
  2
_DOT
 10
618.0716095769176
 20
681.8999804991628
 30
0.0
 41
0.2000000000000001
 42
0.2000000000000001
 43
0.2000000000000001
 50
90.0
  0
POINT
  5
337
330
32A
100
AcDbEntity
  8
DEFPOINTS
 62
     0
100
AcDbPoint
 10
616.6414171250231
 20
682.8991786447117
 30
0.0
  0
POINT
  5
338
330
32A
100
AcDbEntity
  8
DEFPOINTS
 62
     0
100
AcDbPoint
 10
616.6414171250231
 20
681.8999804991628
 30
0.0
  0
POINT
  5
339
330
32A
100
AcDbEntity
  8
DEFPOINTS
 62
     0
100
AcDbPoint
 10
618.0716095769176
 20
681.8999804991628
 30
0.0
  0
ENDBLK
  5
33A
330
32A
100
AcDbEntity
  8
0
100
AcDbBlockEnd
  0
BLOCK
  5
33C
330
33B
100
AcDbEntity
  8
0
100
AcDbBlockBegin
  2
*D23
 70
     1
 10
0.0
 20
0.0
 30
0.0
  3
*D23
  1

  0
LINE
  5
33D
330
33B
100
AcDbEntity
  8
AM_5
100
AcDbLine
 10
616.9632342945
 20
685.3991786447116
 30
0.0
 11
620.271609576918
 21
685.3991786447116
 31
0.0
  0
LINE
  5
33E
330
33B
100
AcDbEntity
  8
AM_5
100
AcDbLine
 10
616.4418180522485
 20
682.3995795719371
 30
0.0
 11
620.271609576918
 21
682.3995795719371
 31
0.0
  0
LINE
  5
33F
330
33B
100
AcDbEntity
  8
AM_5
100
AcDbLine
 10
620.071609576918
 20
685.1991786447116
 30
0.0
 11
620.071609576918
 21
682.5995795719371
 31
0.0
  0
INSERT
  5
340
330
33B
100
AcDbEntity
  8
AM_5
100
AcDbBlockReference
  2
_DOT
 10
620.071609576918
 20
685.3991786447116
 30
0.0
 41
0.2000000000000001
 42
0.2000000000000001
 43
0.2000000000000001
 50
90.0
  0
INSERT
  5
341
330
33B
100
AcDbEntity
  8
AM_5
100
AcDbBlockReference
  2
_DOT
 10
620.071609576918
 20
682.3995795719371
 30
0.0
 41
0.2000000000000001
 42
0.2000000000000001
 43
0.2000000000000001
 50
270.0
  0
MTEXT
  5
342
330
33B
100
AcDbEntity
  8
AM_5
 62
     2
100
AcDbMText
 10
619.4516095769179
 20
683.8993791083245
 30
0.0
 40
0.6400000000000002
 41
0.0
 71
     5
 72
     1
  1
3
 11
0.0000000000000001
 21
1.0
 31
0.0
 73
     1
 44
1.0
1001
ACAD
1000
MTEXTBEGIN
1070
    73
1070
     1
1070
    44
1040
1.0
1070
    74
1070
     0
1000
MTEXTEND
  0
POINT
  5
343
330
33B
100
AcDbEntity
  8
DEFPOINTS
 62
     0
100
AcDbPoint
 10
616.6632342945
 20
685.3991786447116
 30
0.0
  0
POINT
  5
344
330
33B
100
AcDbEntity
  8
DEFPOINTS
 62
     0
100
AcDbPoint
 10
616.1418180522486
 20
682.3995795719371
 30
0.0
  0
POINT
  5
345
330
33B
100
AcDbEntity
  8
DEFPOINTS
 62
     0
100
AcDbPoint
 10
620.071609576918
 20
682.3995795719371
 30
0.0
  0
ENDBLK
  5
346
330
33B
100
AcDbEntity
  8
0
100
AcDbBlockEnd
  0
BLOCK
  5
348
330
347
100
AcDbEntity
  8
0
100
AcDbBlockBegin
  2
*D24
 70
     1
 10
0.0
 20
0.0
 30
0.0
  3
*D24
  1

  0
LINE
  5
349
330
347
100
AcDbEntity
  8
AM_5
100
AcDbLine
 10
616.9632342945
 20
685.3991786447116
 30
0.0
 11
618.2716095769182
 21
685.3991786447116
 31
0.0
  0
LINE
  5
34A
330
347
100
AcDbEntity
  8
AM_5
100
AcDbLine
 10
616.9414171250231
 20
682.8991786447117
 30
0.0
 11
618.2716095769182
 21
682.8991786447117
 31
0.0
  0
LINE
  5
34B
330
347
100
AcDbEntity
  8
AM_5
100
AcDbLine
 10
618.0716095769181
 20
685.1991786447116
 30
0.0
 11
618.0716095769181
 21
683.0991786447117
 31
0.0
  0
INSERT
  5
34C
330
347
100
AcDbEntity
  8
AM_5
100
AcDbBlockReference
  2
_DOT
 10
618.0716095769181
 20
685.3991786447116
 30
0.0
 41
0.2000000000000001
 42
0.2000000000000001
 43
0.2000000000000001
 50
90.0
  0
INSERT
  5
34D
330
347
100
AcDbEntity
  8
AM_5
100
AcDbBlockReference
  2
_DOT
 10
618.0716095769181
 20
682.8991786447117
 30
0.0
 41
0.2000000000000001
 42
0.2000000000000001
 43
0.2000000000000001
 50
270.0
  0
MTEXT
  5
34E
330
347
100
AcDbEntity
  8
AM_5
 62
     2
100
AcDbMText
 10
617.451609576918
 20
683.6893226030976
 30
0.0
 40
0.6400000000000002
 41
0.0
 71
     5
 72
     1
  1
a
 11
0.0000000000000001
 21
1.0
 31
0.0
 73
     1
 44
1.0
1001
ACAD
1000
MTEXTBEGIN
1070
    73
1070
     1
1070
    44
1040
1.0
1070
    74
1070
     0
1000
MTEXTEND
  0
POINT
  5
34F
330
347
100
AcDbEntity
  8
DEFPOINTS
 62
     0
100
AcDbPoint
 10
616.6632342945
 20
685.3991786447116
 30
0.0
  0
POINT
  5
350
330
347
100
AcDbEntity
  8
DEFPOINTS
 62
     0
100
AcDbPoint
 10
616.6414171250231
 20
682.8991786447117
 30
0.0
  0
POINT
  5
351
330
347
100
AcDbEntity
  8
DEFPOINTS
 62
     0
100
AcDbPoint
 10
618.0716095769181
 20
682.8991786447117
 30
0.0
  0
ENDBLK
  5
352
330
347
100
AcDbEntity
  8
0
100
AcDbBlockEnd
  0
BLOCK
  5
354
330
353
100
AcDbEntity
  8
0
100
AcDbBlockBegin
  2
*D25
 70
     1
 10
0.0
 20
0.0
 30
0.0
  3
*D25
  1

  0
LINE
  5
355
330
353
100
AcDbEntity
  8
AM_5
100
AcDbLine
 10
615.375366328856
 20
685.6113106790676
 30
0.0
 11
617.4688699202175
 21
687.7048142704291
 31
0.0
  0
LINE
  5
356
330
353
100
AcDbEntity
  8
AM_5
100
AcDbLine
 10
613.1682595492693
 20
679.8686700012734
 30
0.0
 11
619.2366368693212
 21
685.9370473213252
 31
0.0
  0
LINE
  5
357
330
353
100
AcDbEntity
  8
AM_5
100
AcDbLine
 10
617.4688699202173
 20
687.4219715579544
 30
0.0
 11
618.9537941568466
 21
685.9370473213251
 31
0.0
  0
INSERT
  5
358
330
353
100
AcDbEntity
  8
AM_5
100
AcDbBlockReference
  2
_DOT
 10
617.32744856398
 20
687.5633929141916
 30
0.0
 41
0.2000000000000001
 42
0.2000000000000001
 43
0.2000000000000001
 50
135.0
  0
INSERT
  5
359
330
353
100
AcDbEntity
  8
AM_5
100
AcDbBlockReference
  2
_DOT
 10
619.0952155130839
 20
685.7956259650879
 30
0.0
 41
0.2000000000000001
 42
0.2000000000000001
 43
0.2000000000000001
 50
315.0000000000001
  0
MTEXT
  5
35A
330
353
100
AcDbEntity
  8
AM_5
 62
     2
100
AcDbMText
 10
618.6497382428676
 20
687.1179156439755
 30
0.0
 40
0.6400000000000002
 41
0.0
 71
     5
 72
     1
  1
2.5
 11
0.7071067811865481
 21
-0.707106781186547
 31
0.0
 73
     1
 44
1.0
1001
ACAD
1000
MTEXTBEGIN
1070
    73
1070
     1
1070
    44
1040
1.0
1070
    74
1070
     0
1000
MTEXTEND
  0
POINT
  5
35B
330
353
100
AcDbEntity
  8
DEFPOINTS
 62
     0
100
AcDbPoint
 10
615.1632342945
 20
685.3991786447116
 30
0.0
  0
POINT
  5
35C
330
353
100
AcDbEntity
  8
DEFPOINTS
 62
     0
100
AcDbPoint
 10
612.9561275149134
 20
679.6565379669174
 30
0.0
  0
POINT
  5
35D
330
353
100
AcDbEntity
  8
DEFPOINTS
 62
     0
100
AcDbPoint
 10
619.0952155130839
 20
685.7956259650879
 30
0.0
  0
ENDBLK
  5
35E
330
353
100
AcDbEntity
  8
0
100
AcDbBlockEnd
  0
BLOCK
  5
360
330
35F
100
AcDbEntity
  8
0
100
AcDbBlockBegin
  2
*D26
 70
     1
 10
0.0
 20
0.0
 30
0.0
  3
*D26
  1

  0
LINE
  5
361
330
35F
100
AcDbEntity
  8
AM_5
100
AcDbLine
 10
604.4632266788229
 20
682.5990834487473
 30
0.0
 11
604.4632266788231
 21
668.8013637245273
 31
0.0
  0
LINE
  5
362
330
35F
100
AcDbEntity
  8
AM_5
100
AcDbLine
 10
604.4876618089493
 20
682.5991900677924
 30
0.0
 11
604.6080680999197
 21
668.8019957184609
 31
0.0
  0
ARC
  5
363
330
35F
100
AcDbEntity
  8
AM_5
100
AcDbCircle
 10
604.4632266788227
 20
685.3991786447124
 30
0.0
 40
16.3978149201852
100
AcDbArc
 50
268.6023210910361
 51
270.000000000001
  0
LINE
  5
364
330
35F
100
AcDbEntity
  8
AM_5
100
AcDbLine
 10
604.0632564320572
 20
669.0062424233286
 30
0.0
 11
601.9278919375006
 21
669.0583430508361
 31
0.0
  0
ARC
  5
365
330
35F
100
AcDbEntity
  8
AM_5
100
AcDbCircle
 10
604.4632266788227
 20
685.3991786447124
 30
0.0
 40
16.3978149201852
100
AcDbArc
 50
268.6023470825173
 51
269.3011735412591
  0
ARC
  5
366
330
35F
100
AcDbEntity
  8
AM_5
100
AcDbCircle
 10
604.4632266788227
 20
685.3991786447124
 30
0.0
 40
16.3978149201852
100
AcDbArc
 50
271.1988264587431
 51
271.8976529174849
  0
ARC
  5
367
330
35F
100
AcDbEntity
  8
AM_5
100
AcDbCircle
 10
604.4632266788227
 20
685.3991786447124
 30
0.0
 40
16.3978149201852
100
AcDbArc
 50
270.000000000001
 51
270.5000000000012
  0
INSERT
  5
368
330
35F
100
AcDbEntity
  8
AM_5
100
AcDbBlockReference
  2
_DOT
 10
604.4632266788233
 20
669.0013637245272
 30
0.0
 41
0.2
 42
0.2
 43
0.2
 50
359.6505867706301
  0
INSERT
  5
369
330
35F
100
AcDbEntity
  8
AM_5
100
AcDbBlockReference
  2
_DOT
 10
604.60632279282
 20
669.0019881030736
 30
0.0
 41
0.2
 42
0.2
 43
0.2
 50
180.8494132293721
  0
MTEXT
  5
36A
330
35F
100
AcDbEntity
  8
AM_5
 62
     2
100
AcDbMText
 10
603.0121837570402
 20
669.7130425202141
 30
0.0
 40
0.6400000000000002
 41
0.0
 71
     5
 72
     1
  1
0%%d50'
 11
0.9997024787250404
 21
-0.0243916795446741
 31
0.0
 73
     1
 44
1.0
1001
ACAD
1000
MTEXTBEGIN
1070
    73
1070
     1
1070
    44
1040
1.0
1070
    74
1070
     0
1000
MTEXTEND
  0
POINT
  5
36B
330
35F
100
AcDbEntity
  8
DEFPOINTS
 62
     0
100
AcDbPoint
 10
604.5586247608378
 20
669.0016412270818
 30
0.0
  0
POINT
  5
36C
330
35F
100
AcDbEntity
  8
DEFPOINTS
 62
     0
100
AcDbPoint
 10
604.4632266788227
 20
685.3991786447124
 30
0.0
  0
POINT
  5
36D
330
35F
100
AcDbEntity
  8
DEFPOINTS
 62
     0
100
AcDbPoint
 10
604.4632266788227
 20
685.3991786447124
 30
0.0
  0
POINT
  5
36E
330
35F
100
AcDbEntity
  8
DEFPOINTS
 62
     0
100
AcDbPoint
 10
604.4632266788229
 20
682.8990834487474
 30
0.0
  0
POINT
  5
36F
330
35F
100
AcDbEntity
  8
DEFPOINTS
 62
     0
100
AcDbPoint
 10
604.4850438482998
 20
682.8991786447117
 30
0.0
  0
ENDBLK
  5
370
330
35F
100
AcDbEntity
  8
0
100
AcDbBlockEnd
  0
BLOCK
  5
372
330
371
100
AcDbEntity
  8
0
100
AcDbBlockBegin
  2
*D27
 70
     1
 10
0.0
 20
0.0
 30
0.0
  3
*D27
  1

  0
LINE
  5
373
330
371
100
AcDbEntity
  8
AM_5
100
AcDbLine
 10
602.4569453942724
 20
678.5510363030844
 30
0.0
 11
604.1222787276057
 21
678.5510363030844
 31
0.0
  0
LINE
  5
374
330
371
100
AcDbEntity
  8
AM_5
100
AcDbLine
 10
604.1222787276057
 20
678.5510363030844
 30
0.0
 11
604.6506438476557
 21
676.7731835675686
 31
0.0
  0
MTEXT
  5
375
330
371
100
AcDbEntity
  8
AM_5
 62
     2
100
AcDbMText
 10
603.139612060939
 20
679.1710363030845
 30
0.0
 40
0.6400000000000002
 41
0.0
 71
     5
 72
     1
  1
R0.2
 73
     1
 44
1.0
1001
ACAD
1000
MTEXTBEGIN
1070
    73
1070
     1
1070
    44
1040
1.0
1070
    74
1070
     0
1000
MTEXTEND
  0
INSERT
  5
376
330
371
100
AcDbEntity
  8
AM_5
100
AcDbBlockReference
  2
_OPEN30
 10
604.7645951585518
 20
676.389758087527
 30
0.0
 41
0.4
 42
0.4
 43
0.4
 50
286.5515727716233
  0
POINT
  5
377
330
371
100
AcDbEntity
  8
DEFPOINTS
 62
     0
100
AcDbPoint
 10
604.7645951585518
 20
676.389758087527
 30
0.0
  0
POINT
  5
378
330
371
100
AcDbEntity
  8
DEFPOINTS
 62
     0
100
AcDbPoint
 10
604.821570814
 20
676.1980453475058
 30
0.0
  0
ENDBLK
  5
379
330
371
100
AcDbEntity
  8
0
100
AcDbBlockEnd
  0
BLOCK
  5
37B
330
37A
100
AcDbEntity
  8
0
100
AcDbBlockBegin
  2
*D28
 70
     1
 10
0.0
 20
0.0
 30
0.0
  3
*D28
  1

  0
ARC
  5
37C
330
37A
100
AcDbEntity
  8
AM_5
100
AcDbCircle
 10
610.5632304812368
 20
680.8991786521159
 30
0.0
 40
3.207545852355578
100
AcDbArc
 50
48.57314082931025
 51
131.4268591706902
  0
INSERT
  5
37D
330
37A
100
AcDbEntity
  8
AM_5
100
AcDbBlockReference
  2
_DOT
 10
612.8313079044041
 20
683.1672560752835
 30
0.0
 41
0.2
 42
0.2
 43
0.2
 50
316.7865704146551
  0
INSERT
  5
37E
330
37A
100
AcDbEntity
  8
AM_5
100
AcDbBlockReference
  2
_DOT
 10
608.2951530580694
 20
683.1672560752835
 30
0.0
 41
0.2
 42
0.2
 43
0.2
 50
223.2134295853454
  0
MTEXT
  5
37F
330
37A
100
AcDbEntity
  8
AM_5
 62
     2
100
AcDbMText
 10
609.5418976121065
 20
684.5879435432847
 30
0.0
 40
0.6400000000000002
 41
0.0
 71
     5
 72
     1
  1
90°
 11
0.9637415287653569
 21
0.266837526845481
 31
0.0
 73
     1
 44
1.0
1001
ACAD
1000
MTEXTBEGIN
1070
    73
1070
     1
1070
    44
1040
1.0
1070
    74
1070
     0
1000
MTEXTEND
  0
POINT
  5
380
330
37A
100
AcDbEntity
  8
DEFPOINTS
 62
     0
100
AcDbPoint
 10
611.3934044358662
 20
683.9974300299127
 30
0.0
  0
POINT
  5
381
330
37A
100
AcDbEntity
  8
DEFPOINTS
 62
     0
100
AcDbPoint
 10
610.5632304812368
 20
680.8991786521159
 30
0.0
  0
POINT
  5
382
330
37A
100
AcDbEntity
  8
DEFPOINTS
 62
     0
100
AcDbPoint
 10
606.0632304886411
 20
685.3991786447116
 30
0.0
  0
POINT
  5
383
330
37A
100
AcDbEntity
  8
DEFPOINTS
 62
     0
100
AcDbPoint
 10
610.5632304812368
 20
680.8991786521159
 30
0.0
  0
POINT
  5
384
330
37A
100
AcDbEntity
  8
DEFPOINTS
 62
     0
100
AcDbPoint
 10
615.0632304738325
 20
685.3991786447116
 30
0.0
  0
ENDBLK
  5
385
330
37A
100
AcDbEntity
  8
0
100
AcDbBlockEnd
  0
BLOCK
  5
387
330
386
100
AcDbEntity
  8
0
100
AcDbBlockBegin
  2
*D29
 70
     1
 10
0.0
 20
0.0
 30
0.0
  3
*D29
  1

  0
LINE
  5
388
330
386
100
AcDbEntity
  8
AM_5
100
AcDbLine
 10
609.5574960137139
 20
676.5334647241314
 30
0.0
 11
608.6601626803805
 21
676.5334647241314
 31
0.0
  0
LINE
  5
389
330
386
100
AcDbEntity
  8
AM_5
100
AcDbLine
 10
608.6601626803805
 20
676.5334647241314
 30
0.0
 11
607.3151800621259
 21
679.4957561805732
 31
0.0
  0
MTEXT
  5
38A
330
386
100
AcDbEntity
  8
AM_5
 62
     2
100
AcDbMText
 10
609.2588293470471
 20
677.1534647241313
 30
0.0
 40
0.6400000000000002
 41
0.0
 71
     5
 72
     1
  1
R1
 73
     1
 44
1.0
1001
ACAD
1000
MTEXTBEGIN
1070
    73
1070
     1
1070
    44
1040
1.0
1070
    74
1070
     0
1000
MTEXTEND
  0
INSERT
  5
38B
330
386
100
AcDbEntity
  8
AM_5
100
AcDbBlockReference
  2
_OPEN30
 10
607.1498131213012
 20
679.8599728398328
 30
0.0
 41
0.4
 42
0.4
 43
0.4
 50
114.4196890777281
  0
POINT
  5
38C
330
386
100
AcDbEntity
  8
DEFPOINTS
 62
     0
100
AcDbPoint
 10
607.1498131213012
 20
679.8599728398328
 30
0.0
  0
POINT
  5
38D
330
386
100
AcDbEntity
  8
DEFPOINTS
 62
     0
100
AcDbPoint
 10
607.5632304733631
 20
678.9494311916833
 30
0.0
  0
ENDBLK
  5
38E
330
386
100
AcDbEntity
  8
0
100
AcDbBlockEnd
  0
BLOCK
  5
390
330
38F
100
AcDbEntity
  8
0
100
AcDbBlockBegin
  2
*D30
 70
     1
 10
0.0
 20
0.0
 30
0.0
  3
*D30
  1

  0
LINE
  5
391
330
38F
100
AcDbEntity
  8
AM_5
100
AcDbLine
 10
612.5702484256301
 20
676.6047959466727
 30
0.0
 11
611.6729150922967
 21
676.6047959466727
 31
0.0
  0
LINE
  5
392
330
38F
100
AcDbEntity
  8
AM_5
100
AcDbLine
 10
611.6729150922967
 20
676.6047959466727
 30
0.0
 11
611.1999347637913
 21
677.5310192506587
 31
0.0
  0
MTEXT
  5
393
330
38F
100
AcDbEntity
  8
AM_5
 62
     2
100
AcDbMText
 10
612.2715817589635
 20
677.2247959466727
 30
0.0
 40
0.6400000000000002
 41
0.0
 71
     5
 72
     1
  1
R1
 73
     1
 44
1.0
1001
ACAD
1000
MTEXTBEGIN
1070
    73
1070
     1
1070
    44
1040
1.0
1070
    74
1070
     0
1000
MTEXTEND
  0
INSERT
  5
394
330
38F
100
AcDbEntity
  8
AM_5
100
AcDbBlockReference
  2
_OPEN30
 10
611.0180192528276
 20
677.8872589829611
 30
0.0
 41
0.4
 42
0.4
 43
0.4
 50
117.0513446205346
  0
POINT
  5
395
330
38F
100
AcDbEntity
  8
DEFPOINTS
 62
     0
100
AcDbPoint
 10
611.0180192528276
 20
677.8872589829611
 30
0.0
  0
POINT
  5
396
330
38F
100
AcDbEntity
  8
DEFPOINTS
 62
     0
100
AcDbPoint
 10
610.5632304754189
 20
678.7778583137162
 30
0.0
  0
ENDBLK
  5
397
330
38F
100
AcDbEntity
  8
0
100
AcDbBlockEnd
  0
BLOCK
  5
399
330
398
100
AcDbEntity
  8
0
100
AcDbBlockBegin
  2
*D31
 70
     1
 10
0.0
 20
0.0
 30
0.0
  3
*D31
  1

  0
LINE
  5
39A
330
398
100
AcDbEntity
  8
AM_5
100
AcDbLine
 10
605.0679647312322
 20
673.0995682773271
 30
0.0
 11
605.0679647312322
 21
669.6639834702434
 31
0.0
  0
LINE
  5
39B
330
398
100
AcDbEntity
  8
AM_5
100
AcDbLine
 10
604.6061555907688
 20
678.8333097334033
 30
0.0
 11
604.6061555907688
 21
669.6639834702434
 31
0.0
  0
LINE
  5
39C
330
398
100
AcDbEntity
  8
AM_5
100
AcDbLine
 10
605.2679647312323
 20
669.8639834702435
 30
0.0
 11
605.4679647312322
 21
669.8639834702435
 31
0.0
  0
LINE
  5
39D
330
398
100
AcDbEntity
  8
AM_5
100
AcDbLine
 10
604.4061555907688
 20
669.8639834702435
 30
0.0
 11
604.2061555907688
 21
669.8639834702435
 31
0.0
  0
LINE
  5
39E
330
398
100
AcDbEntity
  8
AM_5
100
AcDbLine
 10
604.8370601610005
 20
669.8639834702435
 30
0.0
 11
605.8121921527064
 21
668.125526152514
 31
0.0
  0
LINE
  5
39F
330
398
100
AcDbEntity
  8
AM_5
100
AcDbLine
 10
605.8121921527064
 20
668.125526152514
 30
0.0
 11
607.3508588193731
 21
668.125526152514
 31
0.0
  0
MTEXT
  5
3A0
330
398
100
AcDbEntity
  8
AM_5
 62
     2
100
AcDbMText
 10
606.5815254860397
 20
668.745526152514
 30
0.0
 40
0.6400000000000002
 41
0.0
 71
     5
 72
     1
  1
0.5
 73
     1
 44
1.0
1001
ACAD
1000
MTEXTBEGIN
1070
    73
1070
     1
1070
    44
1040
1.0
1070
    74
1070
     0
1000
MTEXTEND
  0
LINE
  5
3A1
330
398
100
AcDbEntity
  8
AM_5
100
AcDbLine
 10
605.0679647312322
 20
669.8639834702435
 30
0.0
 11
604.6061555907688
 21
669.8639834702435
 31
0.0
  0
LINE
  5
3A2
330
398
100
AcDbEntity
  8
AM_5
100
AcDbLine
 10
605.0679647312322
 20
669.8639834702435
 30
0.0
 11
604.6061555907688
 21
669.8639834702435
 31
0.0
  0
INSERT
  5
3A3
330
398
100
AcDbEntity
  8
AM_5
100
AcDbBlockReference
  2
_DOT
 10
605.0679647312322
 20
669.8639834702435
 30
0.0
 41
0.2000000000000001
 42
0.2000000000000001
 43
0.2000000000000001
 50
180.0
  0
INSERT
  5
3A4
330
398
100
AcDbEntity
  8
AM_5
100
AcDbBlockReference
  2
_DOT
 10
604.6061555907688
 20
669.8639834702435
 30
0.0
 41
0.2000000000000001
 42
0.2000000000000001
 43
0.2000000000000001
  0
POINT
  5
3A5
330
398
100
AcDbEntity
  8
DEFPOINTS
 62
     0
100
AcDbPoint
 10
605.0679647312322
 20
673.3995682773271
 30
0.0
  0
POINT
  5
3A6
330
398
100
AcDbEntity
  8
DEFPOINTS
 62
     0
100
AcDbPoint
 10
604.6061555907688
 20
679.1333097334033
 30
0.0
  0
POINT
  5
3A7
330
398
100
AcDbEntity
  8
DEFPOINTS
 62
     0
100
AcDbPoint
 10
604.6061555907688
 20
669.8639834702435
 30
0.0
  0
ENDBLK
  5
3A8
330
398
100
AcDbEntity
  8
0
100
AcDbBlockEnd
  0
BLOCK
  5
488
330
487
100
AcDbEntity
  8
0
100
AcDbBlockBegin
  2
*D33
 70
     1
 10
0.0
 20
0.0
 30
0.0
  3
*D33
  1

  0
LINE
  5
58B
330
487
100
AcDbEntity
  8
AM_5
100
AcDbLine
 10
9.346871542412031
 20
2.300000000000681
 30
0.0
 11
9.346871542412031
 21
6.200000000002273
 31
0.0
  0
LINE
  5
58C
330
487
100
AcDbEntity
  8
AM_5
100
AcDbLine
 10
21.54687915808915
 20
2.299999999999999
 30
0.0
 11
21.54687915808915
 21
6.200000000002273
 31
0.0
  0
LINE
  5
58D
330
487
100
AcDbEntity
  8
AM_5
100
AcDbLine
 10
9.546871542412031
 20
6.000000000002273
 30
0.0
 11
21.34687915808916
 21
6.000000000002273
 31
0.0
  0
INSERT
  5
58E
330
487
100
AcDbEntity
  8
AM_5
100
AcDbBlockReference
  2
_DOT
 10
9.346871542412031
 20
6.000000000002273
 30
0.0
 41
0.2000000000000001
 42
0.2000000000000001
 43
0.2000000000000001
 50
180.0
  0
INSERT
  5
58F
330
487
100
AcDbEntity
  8
AM_5
100
AcDbBlockReference
  2
_DOT
 10
21.54687915808915
 20
6.000000000002273
 30
0.0
 41
0.2000000000000001
 42
0.2000000000000001
 43
0.2000000000000001
  0
MTEXT
  5
590
330
487
100
AcDbEntity
  8
AM_5
 62
     2
100
AcDbMText
 10
15.44687535025059
 20
6.830133333335607
 30
0.0
 40
0.6400000000000002
 41
0.0
 71
     5
 72
     1
  1
12.2{}{\H0.71x;\C2;\S+0.2^  0;}
 73
     1
 44
1.0
1001
ACAD
1000
MTEXTBEGIN
1070
    73
1070
     1
1070
    44
1040
1.0
1070
    74
1070
     0
1000
MTEXTEND
  0
POINT
  5
591
330
487
100
AcDbEntity
  8
DEFPOINTS
 62
     0
100
AcDbPoint
 10
9.346871542412031
 20
2.000000000000682
 30
0.0
  0
POINT
  5
592
330
487
100
AcDbEntity
  8
DEFPOINTS
 62
     0
100
AcDbPoint
 10
21.54687915808915
 20
2.0
 30
0.0
  0
POINT
  5
593
330
487
100
AcDbEntity
  8
DEFPOINTS
 62
     0
100
AcDbPoint
 10
21.54687915808915
 20
6.000000000002273
 30
0.0
  0
ENDBLK
  5
489
330
487
100
AcDbEntity
  8
0
100
AcDbBlockEnd
  0
BLOCK
  5
494
330
493
100
AcDbEntity
  8
0
100
AcDbBlockBegin
  2
*D34
 70
     1
 10
0.0
 20
0.0
 30
0.0
  3
*D34
  1

  0
LINE
  5
594
330
493
100
AcDbEntity
  8
AM_5
100
AcDbLine
 10
10.94687535223022
 20
2.299999999999999
 30
0.0
 11
10.94687535223022
 21
4.200000000004888
 31
0.0
  0
LINE
  5
595
330
493
100
AcDbEntity
  8
AM_5
100
AcDbLine
 10
19.94687535222999
 20
2.299999999999999
 30
0.0
 11
19.94687535222999
 21
4.200000000004888
 31
0.0
  0
LINE
  5
596
330
493
100
AcDbEntity
  8
AM_5
100
AcDbLine
 10
11.14687535223022
 20
4.000000000004888
 30
0.0
 11
19.74687535222999
 21
4.000000000004888
 31
0.0
  0
INSERT
  5
597
330
493
100
AcDbEntity
  8
AM_5
100
AcDbBlockReference
  2
_DOT
 10
10.94687535223022
 20
4.000000000004888
 30
0.0
 41
0.2000000000000001
 42
0.2000000000000001
 43
0.2000000000000001
 50
180.0
  0
INSERT
  5
598
330
493
100
AcDbEntity
  8
AM_5
100
AcDbBlockReference
  2
_DOT
 10
19.94687535222999
 20
4.000000000004888
 30
0.0
 41
0.2000000000000001
 42
0.2000000000000001
 43
0.2000000000000001
  0
MTEXT
  5
599
330
493
100
AcDbEntity
  8
AM_5
 62
     2
100
AcDbMText
 10
15.44687535223011
 20
4.620000000004888
 30
0.0
 40
0.6400000000000002
 41
0.0
 71
     5
 72
     1
  1
9
 73
     1
 44
1.0
1001
ACAD
1000
MTEXTBEGIN
1070
    73
1070
     1
1070
    44
1040
1.0
1070
    74
1070
     0
1000
MTEXTEND
  0
POINT
  5
59A
330
493
100
AcDbEntity
  8
DEFPOINTS
 62
     0
100
AcDbPoint
 10
10.94687535223022
 20
2.0
 30
0.0
  0
POINT
  5
59B
330
493
100
AcDbEntity
  8
DEFPOINTS
 62
     0
100
AcDbPoint
 10
19.94687535222999
 20
2.0
 30
0.0
  0
POINT
  5
59C
330
493
100
AcDbEntity
  8
DEFPOINTS
 62
     0
100
AcDbPoint
 10
19.94687535222999
 20
4.000000000004888
 30
0.0
  0
ENDBLK
  5
495
330
493
100
AcDbEntity
  8
0
100
AcDbBlockEnd
  0
BLOCK
  5
4A0
330
49F
100
AcDbEntity
  8
0
100
AcDbBlockBegin
  2
*D35
 70
     1
 10
0.0
 20
0.0
 30
0.0
  3
*D35
  1

  0
LINE
  5
59D
330
49F
100
AcDbEntity
  8
AM_5
100
AcDbLine
 10
9.046871542412031
 20
2.000000000000682
 30
0.0
 11
5.820170812685137
 21
2.000000000000683
 31
0.0
  0
LINE
  5
59E
330
49F
100
AcDbEntity
  8
AM_5
100
AcDbLine
 10
9.651609594821319
 20
-9.999610367384548
 30
0.0
 11
5.820170812685135
 21
-9.999610367384548
 31
0.0
  0
LINE
  5
59F
330
49F
100
AcDbEntity
  8
AM_5
100
AcDbLine
 10
6.020170812685137
 20
1.800000000000682
 30
0.0
 11
6.020170812685135
 21
-9.799610367384548
 31
0.0
  0
INSERT
  5
5A0
330
49F
100
AcDbEntity
  8
AM_5
100
AcDbBlockReference
  2
_DOT
 10
6.020170812685138
 20
2.000000000000683
 30
0.0
 41
0.2000000000000001
 42
0.2000000000000001
 43
0.2000000000000001
 50
90.0
  0
INSERT
  5
5A1
330
49F
100
AcDbEntity
  8
AM_5
100
AcDbBlockReference
  2
_DOT
 10
6.020170812685135
 20
-9.999610367384548
 30
0.0
 41
0.2000000000000001
 42
0.2000000000000001
 43
0.2000000000000001
 50
270.0
  0
MTEXT
  5
5A2
330
49F
100
AcDbEntity
  8
AM_5
 62
     2
100
AcDbMText
 10
5.190037479351803
 20
-3.999805183691819
 30
0.0
 40
0.6400000000000002
 41
0.0
 71
     5
 72
     1
  1
12{}{\H0.71x;\C2;\S+0.1^ -0.2;}
 11
0.0000000000000001
 21
1.0
 31
0.0
 73
     1
 44
1.0
1001
ACAD
1000
MTEXTBEGIN
1070
    73
1070
     1
1070
    44
1040
1.0
1070
    74
1070
     0
1000
MTEXTEND
  0
POINT
  5
5A3
330
49F
100
AcDbEntity
  8
DEFPOINTS
 62
     0
100
AcDbPoint
 10
9.346871542412031
 20
2.000000000000682
 30
0.0
  0
POINT
  5
5A4
330
49F
100
AcDbEntity
  8
DEFPOINTS
 62
     0
100
AcDbPoint
 10
9.95160959482132
 20
-9.999610367384548
 30
0.0
  0
POINT
  5
5A5
330
49F
100
AcDbEntity
  8
DEFPOINTS
 62
     0
100
AcDbPoint
 10
6.020170812685135
 20
-9.999610367384548
 30
0.0
  0
ENDBLK
  5
4A1
330
49F
100
AcDbEntity
  8
0
100
AcDbBlockEnd
  0
BLOCK
  5
4AC
330
4AB
100
AcDbEntity
  8
0
100
AcDbBlockBegin
  2
*D36
 70
     1
 10
0.0
 20
0.0
 30
0.0
  3
*D36
  1

  0
LINE
  5
5A6
330
4AB
100
AcDbEntity
  8
AM_5
100
AcDbLine
 10
12.94691570650317
 20
-10.2999999972834
 30
0.0
 11
12.94717148954058
 21
-12.20065940169096
 31
0.0
  0
LINE
  5
5A7
330
4AB
100
AcDbEntity
  8
AM_5
100
AcDbLine
 10
17.94691572303403
 20
-10.2999999972834
 30
0.0
 11
17.94717141551801
 21
-12.19998652197083
 31
0.0
  0
LINE
  5
5A8
330
4AB
100
AcDbEntity
  8
AM_5
100
AcDbLine
 10
13.14714457254055
 20
-12.00063248831306
 30
0.0
 11
17.74714450214012
 21
-12.00001343897086
 31
0.0
  0
INSERT
  5
5A9
330
4AB
100
AcDbEntity
  8
AM_5
100
AcDbBlockReference
  2
_DOT
 10
12.94714457435162
 20
-12.00065940350202
 30
0.0
 41
0.2000000000000001
 42
0.2000000000000001
 43
0.2000000000000001
 50
180.0077106336842
  0
INSERT
  5
5AA
330
4AB
100
AcDbEntity
  8
AM_5
100
AcDbBlockReference
  2
_DOT
 10
17.94714450032905
 20
-11.9999865237819
 30
0.0
 41
0.2000000000000001
 42
0.2000000000000001
 43
0.2000000000000001
 50
0.0077106336842142
  0
MTEXT
  5
5AB
330
4AB
100
AcDbEntity
  8
AM_5
 62
     2
100
AcDbMText
 10
15.44706110025456
 20
-11.38032296925628
 30
0.0
 40
0.6400000000000002
 41
0.0
 71
     5
 72
     1
  1
5
 11
0.9999999909446575
 21
0.0001345759447985
 31
0.0
 73
     1
 44
1.0
1001
ACAD
1000
MTEXTBEGIN
1070
    73
1070
     1
1070
    44
1040
1.0
1070
    74
1070
     0
1000
MTEXTEND
  0
POINT
  5
5AC
330
4AB
100
AcDbEntity
  8
DEFPOINTS
 62
     0
100
AcDbPoint
 10
12.94687533371973
 20
-10.0
 30
0.0
  0
POINT
  5
5AD
330
4AB
100
AcDbEntity
  8
DEFPOINTS
 62
     0
100
AcDbPoint
 10
17.94687535025059
 20
-10.0
 30
0.0
  0
POINT
  5
5AE
330
4AB
100
AcDbEntity
  8
DEFPOINTS
 62
     0
100
AcDbPoint
 10
17.94714450032905
 20
-11.9999865237819
 30
0.0
  0
ENDBLK
  5
4AD
330
4AB
100
AcDbEntity
  8
0
100
AcDbBlockEnd
  0
BLOCK
  5
4B8
330
4B7
100
AcDbEntity
  8
0
100
AcDbBlockBegin
  2
*D37
 70
     1
 10
0.0
 20
0.0
 30
0.0
  3
*D37
  1

  0
LINE
  5
5AF
330
4B7
100
AcDbEntity
  8
AM_5
100
AcDbLine
 10
11.44687533495369
 20
-8.8
 30
0.0
 11
11.44687533495369
 21
-13.68820893039988
 31
0.0
  0
LINE
  5
5B0
330
4B7
100
AcDbEntity
  8
AM_5
100
AcDbLine
 10
19.44687535025059
 20
-8.8
 30
0.0
 11
19.44687535025059
 21
-13.68820893039988
 31
0.0
  0
LINE
  5
5B1
330
4B7
100
AcDbEntity
  8
AM_5
100
AcDbLine
 10
11.64687533495369
 20
-13.48820893039988
 30
0.0
 11
19.24687535025059
 21
-13.48820893039988
 31
0.0
  0
INSERT
  5
5B2
330
4B7
100
AcDbEntity
  8
AM_5
100
AcDbBlockReference
  2
_DOT
 10
11.44687533495369
 20
-13.48820893039988
 30
0.0
 41
0.2000000000000001
 42
0.2000000000000001
 43
0.2000000000000001
 50
180.0
  0
INSERT
  5
5B3
330
4B7
100
AcDbEntity
  8
AM_5
100
AcDbBlockReference
  2
_DOT
 10
19.44687535025059
 20
-13.48820893039988
 30
0.0
 41
0.2000000000000001
 42
0.2000000000000001
 43
0.2000000000000001
  0
MTEXT
  5
5B4
330
4B7
100
AcDbEntity
  8
AM_5
 62
     2
100
AcDbMText
 10
15.44687534260214
 20
-12.86820893039988
 30
0.0
 40
0.6400000000000002
 41
0.0
 71
     5
 72
     1
  1
8
 73
     1
 44
1.0
1001
ACAD
1000
MTEXTBEGIN
1070
    73
1070
     1
1070
    44
1040
1.0
1070
    74
1070
     0
1000
MTEXTEND
  0
POINT
  5
5B5
330
4B7
100
AcDbEntity
  8
DEFPOINTS
 62
     0
100
AcDbPoint
 10
11.44687533495369
 20
-8.5
 30
0.0
  0
POINT
  5
5B6
330
4B7
100
AcDbEntity
  8
DEFPOINTS
 62
     0
100
AcDbPoint
 10
19.44687535025059
 20
-8.5
 30
0.0
  0
POINT
  5
5B7
330
4B7
100
AcDbEntity
  8
DEFPOINTS
 62
     0
100
AcDbPoint
 10
19.44687535025059
 20
-13.48820893039988
 30
0.0
  0
ENDBLK
  5
4B9
330
4B7
100
AcDbEntity
  8
0
100
AcDbBlockEnd
  0
BLOCK
  5
4C4
330
4C3
100
AcDbEntity
  8
0
100
AcDbBlockBegin
  2
*D38
 70
     1
 10
0.0
 20
0.0
 30
0.0
  3
*D38
  1

  0
LINE
  5
5B8
330
4C3
100
AcDbEntity
  8
AM_5
100
AcDbLine
 10
21.24214110567987
 20
-9.999610367384434
 30
0.0
 11
23.15525444012071
 21
-9.999610367384434
 31
0.0
  0
LINE
  5
5B9
330
4C3
100
AcDbEntity
  8
AM_5
100
AcDbLine
 10
21.25525444012049
 20
-8.49954130154515
 30
0.0
 11
23.15525444012071
 21
-8.49954130154515
 31
0.0
  0
LINE
  5
5BA
330
4C3
100
AcDbEntity
  8
AM_5
100
AcDbLine
 10
22.95525444012071
 20
-10.19961036738443
 30
0.0
 11
22.95525444012071
 21
-10.39961036738443
 31
0.0
  0
LINE
  5
5BB
330
4C3
100
AcDbEntity
  8
AM_5
100
AcDbLine
 10
22.95525444012071
 20
-8.299541301545151
 30
0.0
 11
22.95525444012071
 21
-8.09954130154515
 31
0.0
  0
LINE
  5
5BC
330
4C3
100
AcDbEntity
  8
AM_5
100
AcDbLine
 10
22.95525444012071
 20
-9.999610367384434
 30
0.0
 11
22.95525444012071
 21
-8.49954130154515
 31
0.0
  0
INSERT
  5
5BD
330
4C3
100
AcDbEntity
  8
AM_5
100
AcDbBlockReference
  2
_DOT
 10
22.95525444012071
 20
-9.999610367384434
 30
0.0
 41
0.2000000000000001
 42
0.2000000000000001
 43
0.2000000000000001
 50
90.0
  0
INSERT
  5
5BE
330
4C3
100
AcDbEntity
  8
AM_5
100
AcDbBlockReference
  2
GENDOT
 10
22.95525444012071
 20
-8.49954130154515
 30
0.0
 41
0.2000000000000001
 42
0.2000000000000001
 43
0.2000000000000001
 50
270.0
  0
MTEXT
  5
5BF
330
4C3
100
AcDbEntity
  8
AM_5
 62
     2
100
AcDbMText
 10
22.33525444012071
 20
-9.249575834464788
 30
0.0
 40
0.6400000000000002
 41
0.0
 71
     5
 72
     1
  1
1.5
 11
0.0000000000000001
 21
1.0
 31
0.0
 73
     1
 44
1.0
1001
ACAD
1000
MTEXTBEGIN
1070
    73
1070
     1
1070
    44
1040
1.0
1070
    74
1070
     0
1000
MTEXTEND
  0
POINT
  5
5C0
330
4C3
100
AcDbEntity
  8
DEFPOINTS
 62
     0
100
AcDbPoint
 10
20.94214110567987
 20
-9.999610367384434
 30
0.0
  0
POINT
  5
5C1
330
4C3
100
AcDbEntity
  8
DEFPOINTS
 62
     0
100
AcDbPoint
 10
20.95525444012048
 20
-8.49954130154515
 30
0.0
  0
POINT
  5
5C2
330
4C3
100
AcDbEntity
  8
DEFPOINTS
 62
     0
100
AcDbPoint
 10
22.95525444012071
 20
-8.49954130154515
 30
0.0
  0
ENDBLK
  5
4C5
330
4C3
100
AcDbEntity
  8
0
100
AcDbBlockEnd
  0
BLOCK
  5
4D2
330
4D1
100
AcDbEntity
  8
0
100
AcDbBlockBegin
  2
*D39
 70
     1
 10
0.0
 20
0.0
 30
0.0
  3
*D39
  1

  0
LINE
  5
5C3
330
4D1
100
AcDbEntity
  8
AM_5
100
AcDbLine
 10
21.25525444012049
 20
-8.49954130154515
 30
0.0
 11
23.15525444012048
 21
-8.49954130154515
 31
0.0
  0
LINE
  5
5C4
330
4D1
100
AcDbEntity
  8
AM_5
100
AcDbLine
 10
21.26832174003634
 20
-6.999606816934601
 30
0.0
 11
23.15525444012048
 21
-6.999606816934602
 31
0.0
  0
LINE
  5
5C5
330
4D1
100
AcDbEntity
  8
AM_5
100
AcDbLine
 10
22.95525444012048
 20
-8.699541301545149
 30
0.0
 11
22.95525444012048
 21
-8.89954130154515
 31
0.0
  0
LINE
  5
5C6
330
4D1
100
AcDbEntity
  8
AM_5
100
AcDbLine
 10
22.95525444012048
 20
-6.799606816934602
 30
0.0
 11
22.95525444012048
 21
-6.599606816934602
 31
0.0
  0
LINE
  5
5C7
330
4D1
100
AcDbEntity
  8
AM_5
100
AcDbLine
 10
22.95525444012048
 20
-8.49954130154515
 30
0.0
 11
22.95525444012048
 21
-6.999606816934602
 31
0.0
  0
INSERT
  5
5C8
330
4D1
100
AcDbEntity
  8
AM_5
100
AcDbBlockReference
  2
GENDOT
 10
22.95525444012048
 20
-8.49954130154515
 30
0.0
 41
0.2000000000000001
 42
0.2000000000000001
 43
0.2000000000000001
 50
90.0
  0
INSERT
  5
5C9
330
4D1
100
AcDbEntity
  8
AM_5
100
AcDbBlockReference
  2
_DOT
 10
22.95525444012048
 20
-6.999606816934602
 30
0.0
 41
0.2000000000000001
 42
0.2000000000000001
 43
0.2000000000000001
 50
270.0
  0
MTEXT
  5
5CA
330
4D1
100
AcDbEntity
  8
AM_5
 62
     2
100
AcDbMText
 10
22.33525444012048
 20
-7.749574059239872
 30
0.0
 40
0.6400000000000002
 41
0.0
 71
     5
 72
     1
  1
1.5
 11
0.0000000000000001
 21
1.0
 31
0.0
 73
     1
 44
1.0
1001
ACAD
1000
MTEXTBEGIN
1070
    73
1070
     1
1070
    44
1040
1.0
1070
    74
1070
     0
1000
MTEXTEND
  0
POINT
  5
5CB
330
4D1
100
AcDbEntity
  8
DEFPOINTS
 62
     0
100
AcDbPoint
 10
20.95525444012048
 20
-8.49954130154515
 30
0.0
  0
POINT
  5
5CC
330
4D1
100
AcDbEntity
  8
DEFPOINTS
 62
     0
100
AcDbPoint
 10
20.96832174003635
 20
-6.999606816934601
 30
0.0
  0
POINT
  5
5CD
330
4D1
100
AcDbEntity
  8
DEFPOINTS
 62
     0
100
AcDbPoint
 10
22.95525444012048
 20
-6.999606816934602
 30
0.0
  0
ENDBLK
  5
4D3
330
4D1
100
AcDbEntity
  8
0
100
AcDbBlockEnd
  0
BLOCK
  5
4E0
330
4DF
100
AcDbEntity
  8
0
100
AcDbBlockBegin
  2
*D40
 70
     1
 10
0.0
 20
0.0
 30
0.0
  3
*D40
  1

  0
LINE
  5
5CE
330
4DF
100
AcDbEntity
  8
AM_5
100
AcDbLine
 10
21.26832174003634
 20
-6.999606816934601
 30
0.0
 11
23.15525444011969
 21
-6.999606816934602
 31
0.0
  0
LINE
  5
5CF
330
4DF
100
AcDbEntity
  8
AM_5
100
AcDbLine
 10
21.2814120572147
 20
-5.499605041709742
 30
0.0
 11
23.15525444011969
 21
-5.499605041709743
 31
0.0
  0
LINE
  5
5D0
330
4DF
100
AcDbEntity
  8
AM_5
100
AcDbLine
 10
22.95525444011969
 20
-7.199606816934602
 30
0.0
 11
22.95525444011969
 21
-7.399606816934602
 31
0.0
  0
LINE
  5
5D1
330
4DF
100
AcDbEntity
  8
AM_5
100
AcDbLine
 10
22.95525444011969
 20
-5.299605041709742
 30
0.0
 11
22.95525444011969
 21
-5.099605041709742
 31
0.0
  0
LINE
  5
5D2
330
4DF
100
AcDbEntity
  8
AM_5
100
AcDbLine
 10
22.95525444011969
 20
-6.999606816934602
 30
0.0
 11
22.95525444011969
 21
-5.499605041709743
 31
0.0
  0
INSERT
  5
5D3
330
4DF
100
AcDbEntity
  8
AM_5
100
AcDbBlockReference
  2
GENDOT
 10
22.95525444011969
 20
-6.999606816934602
 30
0.0
 41
0.2000000000000001
 42
0.2000000000000001
 43
0.2000000000000001
 50
90.0
  0
INSERT
  5
5D4
330
4DF
100
AcDbEntity
  8
AM_5
100
AcDbBlockReference
  2
_DOT
 10
22.95525444011969
 20
-5.499605041709743
 30
0.0
 41
0.2000000000000001
 42
0.2000000000000001
 43
0.2000000000000001
 50
270.0
  0
MTEXT
  5
5D5
330
4DF
100
AcDbEntity
  8
AM_5
 62
     2
100
AcDbMText
 10
22.33525444011969
 20
-6.249605929322169
 30
0.0
 40
0.6400000000000002
 41
0.0
 71
     5
 72
     1
  1
1.5
 11
0.0000000000000001
 21
1.0
 31
0.0
 73
     1
 44
1.0
1001
ACAD
1000
MTEXTBEGIN
1070
    73
1070
     1
1070
    44
1040
1.0
1070
    74
1070
     0
1000
MTEXTEND
  0
POINT
  5
5D6
330
4DF
100
AcDbEntity
  8
DEFPOINTS
 62
     0
100
AcDbPoint
 10
20.96832174003635
 20
-6.999606816934601
 30
0.0
  0
POINT
  5
5D7
330
4DF
100
AcDbEntity
  8
DEFPOINTS
 62
     0
100
AcDbPoint
 10
20.9814120572147
 20
-5.499605041709742
 30
0.0
  0
POINT
  5
5D8
330
4DF
100
AcDbEntity
  8
DEFPOINTS
 62
     0
100
AcDbPoint
 10
22.95525444011969
 20
-5.499605041709743
 30
0.0
  0
ENDBLK
  5
4E1
330
4DF
100
AcDbEntity
  8
0
100
AcDbBlockEnd
  0
BLOCK
  5
4EE
330
4ED
100
AcDbEntity
  8
0
100
AcDbBlockBegin
  2
*D41
 70
     1
 10
0.0
 20
0.0
 30
0.0
  3
*D41
  1

  0
LINE
  5
5D9
330
4ED
100
AcDbEntity
  8
AM_5
100
AcDbLine
 10
21.2814120572147
 20
-5.499605041709742
 30
0.0
 11
23.15525444011878
 21
-5.499605041709743
 31
0.0
  0
LINE
  5
5DA
330
4ED
100
AcDbEntity
  8
AM_5
100
AcDbLine
 10
21.29453898356706
 20
-3.995408270635721
 30
0.0
 11
23.15525444011878
 21
-3.995408270635722
 31
0.0
  0
LINE
  5
5DB
330
4ED
100
AcDbEntity
  8
AM_5
100
AcDbLine
 10
22.95525444011878
 20
-5.699605041709743
 30
0.0
 11
22.95525444011878
 21
-5.899605041709743
 31
0.0
  0
LINE
  5
5DC
330
4ED
100
AcDbEntity
  8
AM_5
100
AcDbLine
 10
22.95525444011878
 20
-3.795408270635721
 30
0.0
 11
22.95525444011878
 21
-3.595408270635721
 31
0.0
  0
LINE
  5
5DD
330
4ED
100
AcDbEntity
  8
AM_5
100
AcDbLine
 10
22.95525444011878
 20
-5.499605041709743
 30
0.0
 11
22.95525444011878
 21
-3.995408270635721
 31
0.0
  0
INSERT
  5
5DE
330
4ED
100
AcDbEntity
  8
AM_5
100
AcDbBlockReference
  2
GENDOT
 10
22.95525444011878
 20
-5.499605041709743
 30
0.0
 41
0.2000000000000001
 42
0.2000000000000001
 43
0.2000000000000001
 50
90.0
  0
INSERT
  5
5DF
330
4ED
100
AcDbEntity
  8
AM_5
100
AcDbBlockReference
  2
_DOT
 10
22.95525444011878
 20
-3.995408270635721
 30
0.0
 41
0.2000000000000001
 42
0.2000000000000001
 43
0.2000000000000001
 50
270.0
  0
MTEXT
  5
5E0
330
4ED
100
AcDbEntity
  8
AM_5
 62
     2
100
AcDbMText
 10
22.33525444011878
 20
-4.747506656172729
 30
0.0
 40
0.6400000000000002
 41
0.0
 71
     5
 72
     1
  1
1.5
 11
0.0000000000000001
 21
1.0
 31
0.0
 73
     1
 44
1.0
1001
ACAD
1000
MTEXTBEGIN
1070
    73
1070
     1
1070
    44
1040
1.0
1070
    74
1070
     0
1000
MTEXTEND
  0
POINT
  5
5E1
330
4ED
100
AcDbEntity
  8
DEFPOINTS
 62
     0
100
AcDbPoint
 10
20.9814120572147
 20
-5.499605041709742
 30
0.0
  0
POINT
  5
5E2
330
4ED
100
AcDbEntity
  8
DEFPOINTS
 62
     0
100
AcDbPoint
 10
20.99453898356705
 20
-3.995408270635721
 30
0.0
  0
POINT
  5
5E3
330
4ED
100
AcDbEntity
  8
DEFPOINTS
 62
     0
100
AcDbPoint
 10
22.95525444011878
 20
-3.995408270635721
 30
0.0
  0
ENDBLK
  5
4EF
330
4ED
100
AcDbEntity
  8
0
100
AcDbBlockEnd
  0
BLOCK
  5
4FC
330
4FB
100
AcDbEntity
  8
0
100
AcDbBlockBegin
  2
*D42
 70
     1
 10
0.0
 20
0.0
 30
0.0
  3
*D42
  1

  0
LINE
  5
5E4
330
4FB
100
AcDbEntity
  8
AM_5
100
AcDbLine
 10
21.29453898356706
 20
-3.995408270635721
 30
0.0
 11
23.15525444011798
 21
-3.995408270635722
 31
0.0
  0
LINE
  5
5E5
330
4FB
100
AcDbEntity
  8
AM_5
100
AcDbLine
 10
21.80761231800027
 20
-2.499534200645712
 30
0.0
 11
23.15525444011798
 21
-2.499534200645712
 31
0.0
  0
LINE
  5
5E6
330
4FB
100
AcDbEntity
  8
AM_5
100
AcDbLine
 10
22.95525444011798
 20
-4.195408270635722
 30
0.0
 11
22.95525444011798
 21
-4.395408270635722
 31
0.0
  0
LINE
  5
5E7
330
4FB
100
AcDbEntity
  8
AM_5
100
AcDbLine
 10
22.95525444011798
 20
-2.299534200645712
 30
0.0
 11
22.95525444011798
 21
-2.099534200645712
 31
0.0
  0
LINE
  5
5E8
330
4FB
100
AcDbEntity
  8
AM_5
100
AcDbLine
 10
22.95525444011798
 20
-3.995408270635721
 30
0.0
 11
22.95525444011798
 21
-2.499534200645712
 31
0.0
  0
INSERT
  5
5E9
330
4FB
100
AcDbEntity
  8
AM_5
100
AcDbBlockReference
  2
GENDOT
 10
22.95525444011798
 20
-3.995408270635721
 30
0.0
 41
0.2000000000000001
 42
0.2000000000000001
 43
0.2000000000000001
 50
90.0
  0
INSERT
  5
5EA
330
4FB
100
AcDbEntity
  8
AM_5
100
AcDbBlockReference
  2
_DOT
 10
22.95525444011798
 20
-2.499534200645712
 30
0.0
 41
0.2000000000000001
 42
0.2000000000000001
 43
0.2000000000000001
 50
270.0
  0
MTEXT
  5
5EB
330
4FB
100
AcDbEntity
  8
AM_5
 62
     2
100
AcDbMText
 10
22.33525444011798
 20
-3.247471235640713
 30
0.0
 40
0.6400000000000002
 41
0.0
 71
     5
 72
     1
  1
1.5
 11
0.0000000000000001
 21
1.0
 31
0.0
 73
     1
 44
1.0
1001
ACAD
1000
MTEXTBEGIN
1070
    73
1070
     1
1070
    44
1040
1.0
1070
    74
1070
     0
1000
MTEXTEND
  0
POINT
  5
5EC
330
4FB
100
AcDbEntity
  8
DEFPOINTS
 62
     0
100
AcDbPoint
 10
20.99453898356705
 20
-3.995408270635721
 30
0.0
  0
POINT
  5
5ED
330
4FB
100
AcDbEntity
  8
DEFPOINTS
 62
     0
100
AcDbPoint
 10
21.50761231800027
 20
-2.499534200645712
 30
0.0
  0
POINT
  5
5EE
330
4FB
100
AcDbEntity
  8
DEFPOINTS
 62
     0
100
AcDbPoint
 10
22.95525444011798
 20
-2.499534200645712
 30
0.0
  0
ENDBLK
  5
4FD
330
4FB
100
AcDbEntity
  8
0
100
AcDbBlockEnd
  0
BLOCK
  5
50A
330
509
100
AcDbEntity
  8
0
100
AcDbBlockBegin
  2
*D43
 70
     1
 10
0.0
 20
0.0
 30
0.0
  3
*D43
  1

  0
LINE
  5
5EF
330
509
100
AcDbEntity
  8
AM_5
100
AcDbLine
 10
21.82506198861227
 20
-0.5000000000000001
 30
0.0
 11
23.15525444050668
 21
-0.5000000000000005
 31
0.0
  0
LINE
  5
5F0
330
509
100
AcDbEntity
  8
AM_5
100
AcDbLine
 10
21.82506198861227
 20
-1.499198145548803
 30
0.0
 11
23.15525444050668
 21
-1.499198145548803
 31
0.0
  0
LINE
  5
5F1
330
509
100
AcDbEntity
  8
AM_5
100
AcDbLine
 10
22.95525444050668
 20
-0.3000000000000003
 30
0.0
 11
22.95525444050668
 21
-0.1000000000000003
 31
0.0
  0
LINE
  5
5F2
330
509
100
AcDbEntity
  8
AM_5
100
AcDbLine
 10
22.95525444050668
 20
-1.699198145548803
 30
0.0
 11
22.95525444050668
 21
-1.899198145548803
 31
0.0
  0
LINE
  5
5F3
330
509
100
AcDbEntity
  8
AM_5
100
AcDbLine
 10
22.95525444050668
 20
-0.9995990727744018
 30
0.0
 11
24.94243135950751
 21
-1.62909535643253
 31
0.0
  0
LINE
  5
5F4
330
509
100
AcDbEntity
  8
AM_5
100
AcDbLine
 10
24.94243135950751
 20
-1.62909535643253
 30
0.0
 11
24.94243135950751
 21
-2.442428689765863
 31
0.0
  0
MTEXT
  5
5F5
330
509
100
AcDbEntity
  8
AM_5
 62
     2
100
AcDbMText
 10
24.32243135950751
 20
-2.035762023099192
 30
0.0
 40
0.6400000000000002
 41
0.0
 71
     5
 72
     1
  1
1
 11
0.0000000000000001
 21
1.0
 31
0.0
 73
     1
 44
1.0
1001
ACAD
1000
MTEXTBEGIN
1070
    73
1070
     1
1070
    44
1040
1.0
1070
    74
1070
     0
1000
MTEXTEND
  0
LINE
  5
5F6
330
509
100
AcDbEntity
  8
AM_5
100
AcDbLine
 10
22.95525444050668
 20
-0.5000000000000005
 30
0.0
 11
22.95525444050668
 21
-1.499198145548803
 31
0.0
  0
LINE
  5
5F7
330
509
100
AcDbEntity
  8
AM_5
100
AcDbLine
 10
22.95525444050668
 20
-0.5000000000000005
 30
0.0
 11
22.95525444050668
 21
-1.499198145548803
 31
0.0
  0
INSERT
  5
5F8
330
509
100
AcDbEntity
  8
AM_5
100
AcDbBlockReference
  2
_DOT
 10
22.95525444050668
 20
-0.5000000000000005
 30
0.0
 41
0.2000000000000001
 42
0.2000000000000001
 43
0.2000000000000001
 50
270.0
  0
INSERT
  5
5F9
330
509
100
AcDbEntity
  8
AM_5
100
AcDbBlockReference
  2
_DOT
 10
22.95525444050668
 20
-1.499198145548803
 30
0.0
 41
0.2000000000000001
 42
0.2000000000000001
 43
0.2000000000000001
 50
90.0
  0
POINT
  5
5FA
330
509
100
AcDbEntity
  8
DEFPOINTS
 62
     0
100
AcDbPoint
 10
21.52506198861226
 20
-0.5
 30
0.0
  0
POINT
  5
5FB
330
509
100
AcDbEntity
  8
DEFPOINTS
 62
     0
100
AcDbPoint
 10
21.52506198861226
 20
-1.499198145548803
 30
0.0
  0
POINT
  5
5FC
330
509
100
AcDbEntity
  8
DEFPOINTS
 62
     0
100
AcDbPoint
 10
22.95525444050668
 20
-1.499198145548803
 30
0.0
  0
ENDBLK
  5
50B
330
509
100
AcDbEntity
  8
0
100
AcDbBlockEnd
  0
BLOCK
  5
51B
330
51A
100
AcDbEntity
  8
0
100
AcDbBlockBegin
  2
*D44
 70
     1
 10
0.0
 20
0.0
 30
0.0
  3
*D44
  1

  0
LINE
  5
5FD
330
51A
100
AcDbEntity
  8
AM_5
100
AcDbLine
 10
21.84687915808916
 20
2.0
 30
0.0
 11
25.15525444050713
 21
1.999999999999999
 31
0.0
  0
LINE
  5
5FE
330
51A
100
AcDbEntity
  8
AM_5
100
AcDbLine
 10
21.3254629158377
 20
-0.9995990727745722
 30
0.0
 11
25.15525444050713
 21
-0.9995990727745731
 31
0.0
  0
LINE
  5
5FF
330
51A
100
AcDbEntity
  8
AM_5
100
AcDbLine
 10
24.95525444050713
 20
1.799999999999999
 30
0.0
 11
24.95525444050713
 21
-0.7995990727745732
 31
0.0
  0
INSERT
  5
600
330
51A
100
AcDbEntity
  8
AM_5
100
AcDbBlockReference
  2
_DOT
 10
24.95525444050713
 20
1.999999999999999
 30
0.0
 41
0.2000000000000001
 42
0.2000000000000001
 43
0.2000000000000001
 50
90.0
  0
INSERT
  5
601
330
51A
100
AcDbEntity
  8
AM_5
100
AcDbBlockReference
  2
_DOT
 10
24.95525444050713
 20
-0.9995990727745731
 30
0.0
 41
0.2000000000000001
 42
0.2000000000000001
 43
0.2000000000000001
 50
270.0
  0
MTEXT
  5
602
330
51A
100
AcDbEntity
  8
AM_5
 62
     2
100
AcDbMText
 10
24.33525444050713
 20
0.5002004636127172
 30
0.0
 40
0.6400000000000002
 41
0.0
 71
     5
 72
     1
  1
3
 11
0.0000000000000001
 21
1.0
 31
0.0
 73
     1
 44
1.0
1001
ACAD
1000
MTEXTBEGIN
1070
    73
1070
     1
1070
    44
1040
1.0
1070
    74
1070
     0
1000
MTEXTEND
  0
POINT
  5
603
330
51A
100
AcDbEntity
  8
DEFPOINTS
 62
     0
100
AcDbPoint
 10
21.54687915808915
 20
2.0
 30
0.0
  0
POINT
  5
604
330
51A
100
AcDbEntity
  8
DEFPOINTS
 62
     0
100
AcDbPoint
 10
21.02546291583769
 20
-0.999599072774572
 30
0.0
  0
POINT
  5
605
330
51A
100
AcDbEntity
  8
DEFPOINTS
 62
     0
100
AcDbPoint
 10
24.95525444050713
 20
-0.9995990727745731
 30
0.0
  0
ENDBLK
  5
51C
330
51A
100
AcDbEntity
  8
0
100
AcDbBlockEnd
  0
BLOCK
  5
527
330
526
100
AcDbEntity
  8
0
100
AcDbBlockBegin
  2
*D45
 70
     1
 10
0.0
 20
0.0
 30
0.0
  3
*D45
  1

  0
LINE
  5
606
330
526
100
AcDbEntity
  8
AM_5
100
AcDbLine
 10
21.84687915808916
 20
2.0
 30
0.0
 11
23.15525444050713
 21
1.999999999999999
 31
0.0
  0
LINE
  5
607
330
526
100
AcDbEntity
  8
AM_5
100
AcDbLine
 10
21.82506198861227
 20
-0.5000000000000001
 30
0.0
 11
23.15525444050713
 21
-0.5000000000000005
 31
0.0
  0
LINE
  5
608
330
526
100
AcDbEntity
  8
AM_5
100
AcDbLine
 10
22.95525444050714
 20
1.799999999999999
 30
0.0
 11
22.95525444050714
 21
-0.3000000000000003
 31
0.0
  0
INSERT
  5
609
330
526
100
AcDbEntity
  8
AM_5
100
AcDbBlockReference
  2
_DOT
 10
22.95525444050714
 20
1.999999999999999
 30
0.0
 41
0.2000000000000001
 42
0.2000000000000001
 43
0.2000000000000001
 50
90.0
  0
INSERT
  5
60A
330
526
100
AcDbEntity
  8
AM_5
100
AcDbBlockReference
  2
_DOT
 10
22.95525444050714
 20
-0.5000000000000005
 30
0.0
 41
0.2000000000000001
 42
0.2000000000000001
 43
0.2000000000000001
 50
270.0
  0
MTEXT
  5
60B
330
526
100
AcDbEntity
  8
AM_5
 62
     2
100
AcDbMText
 10
22.33525444050713
 20
0.2901439583858974
 30
0.0
 40
0.6400000000000002
 41
0.0
 71
     5
 72
     1
  1
a
 11
0.0000000000000001
 21
1.0
 31
0.0
 73
     1
 44
1.0
1001
ACAD
1000
MTEXTBEGIN
1070
    73
1070
     1
1070
    44
1040
1.0
1070
    74
1070
     0
1000
MTEXTEND
  0
POINT
  5
60C
330
526
100
AcDbEntity
  8
DEFPOINTS
 62
     0
100
AcDbPoint
 10
21.54687915808915
 20
2.0
 30
0.0
  0
POINT
  5
60D
330
526
100
AcDbEntity
  8
DEFPOINTS
 62
     0
100
AcDbPoint
 10
21.52506198861226
 20
-0.5
 30
0.0
  0
POINT
  5
60E
330
526
100
AcDbEntity
  8
DEFPOINTS
 62
     0
100
AcDbPoint
 10
22.95525444050714
 20
-0.5000000000000005
 30
0.0
  0
ENDBLK
  5
528
330
526
100
AcDbEntity
  8
0
100
AcDbBlockEnd
  0
BLOCK
  5
533
330
532
100
AcDbEntity
  8
0
100
AcDbBlockBegin
  2
*D46
 70
     1
 10
0.0
 20
0.0
 30
0.0
  3
*D46
  1

  0
LINE
  5
60F
330
532
100
AcDbEntity
  8
AM_5
100
AcDbLine
 10
20.25901119244512
 20
2.212132034355963
 30
0.0
 11
22.35251478380646
 21
4.305635625717307
 31
0.0
  0
LINE
  5
610
330
532
100
AcDbEntity
  8
AM_5
100
AcDbLine
 10
18.05190441285848
 20
-3.530508643438305
 30
0.0
 11
24.12028173291027
 21
2.537868676613497
 31
0.0
  0
LINE
  5
611
330
532
100
AcDbEntity
  8
AM_5
100
AcDbLine
 10
22.35251478380646
 20
4.022792913242691
 30
0.0
 11
23.83743902043566
 21
2.537868676613497
 31
0.0
  0
INSERT
  5
612
330
532
100
AcDbEntity
  8
AM_5
100
AcDbBlockReference
  2
_DOT
 10
22.21109342756915
 20
4.164214269479998
 30
0.0
 41
0.2000000000000001
 42
0.2000000000000001
 43
0.2000000000000001
 50
135.0
  0
INSERT
  5
613
330
532
100
AcDbEntity
  8
AM_5
100
AcDbBlockReference
  2
_DOT
 10
23.97886037667296
 20
2.396447320376188
 30
0.0
 41
0.2000000000000001
 42
0.2000000000000001
 43
0.2000000000000001
 50
315.0000000000001
  0
MTEXT
  5
614
330
532
100
AcDbEntity
  8
AM_5
 62
     2
100
AcDbMText
 10
23.53338310645672
 20
3.718736999263756
 30
0.0
 40
0.6400000000000002
 41
0.0
 71
     5
 72
     1
  1
2.5
 11
0.7071067811865481
 21
-0.707106781186547
 31
0.0
 73
     1
 44
1.0
1001
ACAD
1000
MTEXTBEGIN
1070
    73
1070
     1
1070
    44
1040
1.0
1070
    74
1070
     0
1000
MTEXTEND
  0
POINT
  5
615
330
532
100
AcDbEntity
  8
DEFPOINTS
 62
     0
100
AcDbPoint
 10
20.04687915808915
 20
1.999999999999998
 30
0.0
  0
POINT
  5
616
330
532
100
AcDbEntity
  8
DEFPOINTS
 62
     0
100
AcDbPoint
 10
17.83977237850251
 20
-3.74264067779427
 30
0.0
  0
POINT
  5
617
330
532
100
AcDbEntity
  8
DEFPOINTS
 62
     0
100
AcDbPoint
 10
23.97886037667296
 20
2.396447320376188
 30
0.0
  0
ENDBLK
  5
534
330
532
100
AcDbEntity
  8
0
100
AcDbBlockEnd
  0
BLOCK
  5
53F
330
53E
100
AcDbEntity
  8
0
100
AcDbBlockBegin
  2
*D47
 70
     1
 10
0.0
 20
0.0
 30
0.0
  3
*D47
  1

  0
LINE
  5
618
330
53E
100
AcDbEntity
  8
AM_5
100
AcDbLine
 10
9.34687154241203
 20
-0.8000951959642634
 30
0.0
 11
9.346871542412028
 21
-14.59781492018449
 31
0.0
  0
LINE
  5
619
330
53E
100
AcDbEntity
  8
AM_5
100
AcDbLine
 10
9.371306672538432
 20
-0.7999885769192514
 30
0.0
 11
9.491712963508382
 21
-14.59718292625088
 31
0.0
  0
ARC
  5
61A
330
53E
100
AcDbEntity
  8
AM_5
100
AcDbCircle
 10
9.34687154241203
 20
2.000000000000682
 30
0.0
 40
16.39781492018517
100
AcDbArc
 50
268.6023210910351
 51
270.0
  0
LINE
  5
61B
330
53E
100
AcDbEntity
  8
AM_5
100
AcDbLine
 10
8.946901295646087
 20
-14.39293622138289
 30
0.0
 11
6.107746256066971
 21
-14.32366385147603
 31
0.0
  0
ARC
  5
61C
330
53E
100
AcDbEntity
  8
AM_5
100
AcDbCircle
 10
9.34687154241203
 20
2.000000000000682
 30
0.0
 40
16.39781492018517
100
AcDbArc
 50
268.6023470825163
 51
269.3011735412581
  0
ARC
  5
61D
330
53E
100
AcDbEntity
  8
AM_5
100
AcDbCircle
 10
9.34687154241203
 20
2.000000000000682
 30
0.0
 40
16.39781492018517
100
AcDbArc
 50
271.1988264587416
 51
271.8976529174835
  0
ARC
  5
61E
330
53E
100
AcDbEntity
  8
AM_5
100
AcDbCircle
 10
9.34687154241203
 20
2.000000000000682
 30
0.0
 40
16.39781492018517
100
AcDbArc
 50
270.0
 51
270.4999999999997
  0
INSERT
  5
61F
330
53E
100
AcDbEntity
  8
AM_5
100
AcDbBlockReference
  2
_DOT
 10
9.346871542412028
 20
-14.39781492018449
 30
0.0
 41
0.2
 42
0.2
 43
0.2
 50
359.650586770629
  0
INSERT
  5
620
330
53E
100
AcDbEntity
  8
AM_5
100
AcDbBlockReference
  2
_DOT
 10
9.489967656408708
 20
-14.39719054163804
 30
0.0
 41
0.2
 42
0.2
 43
0.2
 50
180.8494132293706
  0
MTEXT
  5
621
330
53E
100
AcDbEntity
  8
AM_5
 62
     2
100
AcDbMText
 10
7.542446617174224
 20
-13.73848449961993
 30
0.0
 40
0.6400000000000002
 41
0.0
 71
     5
 72
     1
  1
0%%d50'
 11
0.9997024787250406
 21
-0.0243916795446688
 31
0.0
 73
     1
 44
1.0
1001
ACAD
1000
MTEXTBEGIN
1070
    73
1070
     1
1070
    44
1040
1.0
1070
    74
1070
     0
1000
MTEXTEND
  0
POINT
  5
622
330
53E
100
AcDbEntity
  8
DEFPOINTS
 62
     0
100
AcDbPoint
 10
9.442269624426515
 20
-14.39753741762991
 30
0.0
  0
POINT
  5
623
330
53E
100
AcDbEntity
  8
DEFPOINTS
 62
     0
100
AcDbPoint
 10
9.34687154241203
 20
2.000000000000682
 30
0.0
  0
POINT
  5
624
330
53E
100
AcDbEntity
  8
DEFPOINTS
 62
     0
100
AcDbPoint
 10
9.34687154241203
 20
2.000000000000682
 30
0.0
  0
POINT
  5
625
330
53E
100
AcDbEntity
  8
DEFPOINTS
 62
     0
100
AcDbPoint
 10
9.34687154241203
 20
-0.5000951959642635
 30
0.0
  0
POINT
  5
626
330
53E
100
AcDbEntity
  8
DEFPOINTS
 62
     0
100
AcDbPoint
 10
9.368688711888921
 20
-0.5
 30
0.0
  0
ENDBLK
  5
540
330
53E
100
AcDbEntity
  8
0
100
AcDbBlockEnd
  0
BLOCK
  5
551
330
550
100
AcDbEntity
  8
0
100
AcDbBlockBegin
  2
*D48
 70
     1
 10
0.0
 20
0.0
 30
0.0
  3
*D48
  1

  0
LINE
  5
627
330
550
100
AcDbEntity
  8
AM_5
100
AcDbLine
 10
6.892590257861175
 20
-4.84814234162718
 30
0.0
 11
9.005923591194509
 21
-4.848142341627182
 31
0.0
  0
LINE
  5
628
330
550
100
AcDbEntity
  8
AM_5
100
AcDbLine
 10
9.005923591194509
 20
-4.848142341627182
 30
0.0
 11
9.534288711244752
 21
-6.625995077143146
 31
0.0
  0
MTEXT
  5
629
330
550
100
AcDbEntity
  8
AM_5
 62
     2
100
AcDbMText
 10
7.799256924527842
 20
-4.22814234162718
 30
0.0
 40
0.6400000000000002
 41
0.0
 71
     5
 72
     1
  1
R0.2
 73
     1
 44
1.0
1001
ACAD
1000
MTEXTBEGIN
1070
    73
1070
     1
1070
    44
1040
1.0
1070
    74
1070
     0
1000
MTEXTEND
  0
INSERT
  5
62A
330
550
100
AcDbEntity
  8
AM_5
100
AcDbBlockReference
  2
_OPEN30
 10
9.648240022140949
 20
-7.009420557184624
 30
0.0
 41
0.4
 42
0.4
 43
0.4
 50
286.5515727716326
  0
POINT
  5
62B
330
550
100
AcDbEntity
  8
DEFPOINTS
 62
     0
100
AcDbPoint
 10
9.648240022140949
 20
-7.009420557184624
 30
0.0
  0
POINT
  5
62C
330
550
100
AcDbEntity
  8
DEFPOINTS
 62
     0
100
AcDbPoint
 10
9.70521567758919
 20
-7.20113329720584
 30
0.0
  0
ENDBLK
  5
552
330
550
100
AcDbEntity
  8
0
100
AcDbBlockEnd
  0
BLOCK
  5
55A
330
559
100
AcDbEntity
  8
0
100
AcDbBlockBegin
  2
*D49
 70
     1
 10
0.0
 20
0.0
 30
0.0
  3
*D49
  1

  0
ARC
  5
62D
330
559
100
AcDbEntity
  8
AM_5
100
AcDbCircle
 10
15.44687534482591
 20
-2.499999992595689
 30
0.0
 40
3.207545852355598
100
AcDbArc
 50
48.5731408293103
 51
131.4268591706897
  0
INSERT
  5
62E
330
559
100
AcDbEntity
  8
AM_5
100
AcDbBlockReference
  2
_DOT
 10
17.71495276799334
 20
-0.2319225694282609
 30
0.0
 41
0.2
 42
0.2
 43
0.2
 50
316.7865704146552
  0
INSERT
  5
62F
330
559
100
AcDbEntity
  8
AM_5
100
AcDbBlockReference
  2
_DOT
 10
13.17879792165848
 20
-0.2319225694282641
 30
0.0
 41
0.2
 42
0.2
 43
0.2
 50
223.2134295853449
  0
MTEXT
  5
630
330
559
100
AcDbEntity
  8
AM_5
 62
     2
100
AcDbMText
 10
14.42554247569567
 20
1.188764898572995
 30
0.0
 40
0.6400000000000002
 41
0.0
 71
     5
 72
     1
  1
90\U+00B0
 11
0.9637415287653569
 21
0.266837526845481
 31
0.0
 73
     1
 44
1.0
1001
ACAD
1000
MTEXTBEGIN
1070
    73
1070
     1
1070
    44
1040
1.0
1070
    74
1070
     0
1000
MTEXTEND
  0
POINT
  5
631
330
559
100
AcDbEntity
  8
DEFPOINTS
 62
     0
100
AcDbPoint
 10
16.27704929945514
 20
0.5982513852009661
 30
0.0
  0
POINT
  5
632
330
559
100
AcDbEntity
  8
DEFPOINTS
 62
     0
100
AcDbPoint
 10
15.44687534482591
 20
-2.499999992595689
 30
0.0
  0
POINT
  5
633
330
559
100
AcDbEntity
  8
DEFPOINTS
 62
     0
100
AcDbPoint
 10
10.94687535223022
 20
1.999999999999999
 30
0.0
  0
POINT
  5
634
330
559
100
AcDbEntity
  8
DEFPOINTS
 62
     0
100
AcDbPoint
 10
15.44687534482591
 20
-2.499999992595689
 30
0.0
  0
POINT
  5
635
330
559
100
AcDbEntity
  8
DEFPOINTS
 62
     0
100
AcDbPoint
 10
19.9468753374216
 20
2.0
 30
0.0
  0
ENDBLK
  5
55B
330
559
100
AcDbEntity
  8
0
100
AcDbBlockEnd
  0
BLOCK
  5
566
330
565
100
AcDbEntity
  8
0
100
AcDbBlockBegin
  2
*D50
 70
     1
 10
0.0
 20
0.0
 30
0.0
  3
*D50
  1

  0
LINE
  5
636
330
565
100
AcDbEntity
  8
AM_5
100
AcDbLine
 10
14.6971408773029
 20
-6.865713920580333
 30
0.0
 11
13.54380754396957
 21
-6.865713920580331
 31
0.0
  0
LINE
  5
637
330
565
100
AcDbEntity
  8
AM_5
100
AcDbLine
 10
13.54380754396957
 20
-6.865713920580331
 30
0.0
 11
12.19882492571505
 21
-3.90342246413853
 31
0.0
  0
MTEXT
  5
638
330
565
100
AcDbEntity
  8
AM_5
 62
     2
100
AcDbMText
 10
14.27047421063624
 20
-6.245713920580334
 30
0.0
 40
0.6400000000000002
 41
0.0
 71
     5
 72
     1
  1
R1
 73
     1
 44
1.0
1001
ACAD
1000
MTEXTBEGIN
1070
    73
1070
     1
1070
    44
1040
1.0
1070
    74
1070
     0
1000
MTEXTEND
  0
INSERT
  5
639
330
565
100
AcDbEntity
  8
AM_5
100
AcDbBlockReference
  2
_OPEN30
 10
12.03345798489033
 20
-3.539205804878861
 30
0.0
 41
0.4
 42
0.4
 43
0.4
 50
114.419689077728
  0
POINT
  5
63A
330
565
100
AcDbEntity
  8
DEFPOINTS
 62
     0
100
AcDbPoint
 10
12.03345798489033
 20
-3.539205804878861
 30
0.0
  0
POINT
  5
63B
330
565
100
AcDbEntity
  8
DEFPOINTS
 62
     0
100
AcDbPoint
 10
12.4468753369523
 20
-4.449747453028409
 30
0.0
  0
ENDBLK
  5
567
330
565
100
AcDbEntity
  8
0
100
AcDbBlockEnd
  0
BLOCK
  5
56F
330
56E
100
AcDbEntity
  8
0
100
AcDbBlockBegin
  2
*D51
 70
     1
 10
0.0
 20
0.0
 30
0.0
  3
*D51
  1

  0
LINE
  5
63C
330
56E
100
AcDbEntity
  8
AM_5
100
AcDbLine
 10
17.70989328921917
 20
-6.794382698038958
 30
0.0
 11
16.55655995588584
 21
-6.794382698038959
 31
0.0
  0
LINE
  5
63D
330
56E
100
AcDbEntity
  8
AM_5
100
AcDbLine
 10
16.55655995588584
 20
-6.794382698038959
 30
0.0
 11
16.08357962738041
 21
-5.868159394052878
 31
0.0
  0
MTEXT
  5
63E
330
56E
100
AcDbEntity
  8
AM_5
 62
     2
100
AcDbMText
 10
17.2832266225525
 20
-6.174382698038957
 30
0.0
 40
0.6400000000000002
 41
0.0
 71
     5
 72
     1
  1
R1
 73
     1
 44
1.0
1001
ACAD
1000
MTEXTBEGIN
1070
    73
1070
     1
1070
    44
1040
1.0
1070
    74
1070
     0
1000
MTEXTEND
  0
INSERT
  5
63F
330
56E
100
AcDbEntity
  8
AM_5
100
AcDbBlockReference
  2
_OPEN30
 10
15.90166411641678
 20
-5.511919661750538
 30
0.0
 41
0.4
 42
0.4
 43
0.4
 50
117.0513446205346
  0
POINT
  5
640
330
56E
100
AcDbEntity
  8
DEFPOINTS
 62
     0
100
AcDbPoint
 10
15.90166411641678
 20
-5.511919661750538
 30
0.0
  0
POINT
  5
641
330
56E
100
AcDbEntity
  8
DEFPOINTS
 62
     0
100
AcDbPoint
 10
15.4468753390081
 20
-4.621320330995445
 30
0.0
  0
ENDBLK
  5
570
330
56E
100
AcDbEntity
  8
0
100
AcDbBlockEnd
  0
BLOCK
  5
578
330
577
100
AcDbEntity
  8
0
100
AcDbBlockBegin
  2
*D52
 70
     1
 10
0.0
 20
0.0
 30
0.0
  3
*D52
  1

  0
LINE
  5
642
330
577
100
AcDbEntity
  8
AM_5
100
AcDbLine
 10
9.95160959482132
 20
-10.29961036738455
 30
0.0
 11
9.95160959482132
 21
-13.73519517446818
 31
0.0
  0
LINE
  5
643
330
577
100
AcDbEntity
  8
AM_5
100
AcDbLine
 10
9.489800454357919
 20
-4.565868911308416
 30
0.0
 11
9.489800454357919
 21
-13.73519517446818
 31
0.0
  0
LINE
  5
644
330
577
100
AcDbEntity
  8
AM_5
100
AcDbLine
 10
10.15160959482132
 20
-13.53519517446818
 30
0.0
 11
10.35160959482132
 21
-13.53519517446818
 31
0.0
  0
LINE
  5
645
330
577
100
AcDbEntity
  8
AM_5
100
AcDbLine
 10
9.289800454357919
 20
-13.53519517446818
 30
0.0
 11
9.089800454357918
 21
-13.53519517446818
 31
0.0
  0
LINE
  5
646
330
577
100
AcDbEntity
  8
AM_5
100
AcDbLine
 10
9.720705024589619
 20
-13.53519517446818
 30
0.0
 11
10.69583701629547
 21
-15.27365249219769
 31
0.0
  0
LINE
  5
647
330
577
100
AcDbEntity
  8
AM_5
100
AcDbLine
 10
10.69583701629547
 20
-15.27365249219769
 30
0.0
 11
12.4691703496288
 21
-15.27365249219769
 31
0.0
  0
MTEXT
  5
648
330
577
100
AcDbEntity
  8
AM_5
 62
     2
100
AcDbMText
 10
11.58250368296213
 20
-14.65365249219769
 30
0.0
 40
0.6400000000000002
 41
0.0
 71
     5
 72
     1
  1
0.5
 73
     1
 44
1.0
1001
ACAD
1000
MTEXTBEGIN
1070
    73
1070
     1
1070
    44
1040
1.0
1070
    74
1070
     0
1000
MTEXTEND
  0
LINE
  5
649
330
577
100
AcDbEntity
  8
AM_5
100
AcDbLine
 10
9.95160959482132
 20
-13.53519517446818
 30
0.0
 11
9.489800454357919
 21
-13.53519517446818
 31
0.0
  0
LINE
  5
64A
330
577
100
AcDbEntity
  8
AM_5
100
AcDbLine
 10
9.95160959482132
 20
-13.53519517446818
 30
0.0
 11
9.489800454357919
 21
-13.53519517446818
 31
0.0
  0
INSERT
  5
64B
330
577
100
AcDbEntity
  8
AM_5
100
AcDbBlockReference
  2
_DOT
 10
9.95160959482132
 20
-13.53519517446818
 30
0.0
 41
0.2000000000000001
 42
0.2000000000000001
 43
0.2000000000000001
 50
180.0
  0
INSERT
  5
64C
330
577
100
AcDbEntity
  8
AM_5
100
AcDbBlockReference
  2
_DOT
 10
9.489800454357919
 20
-13.53519517446818
 30
0.0
 41
0.2000000000000001
 42
0.2000000000000001
 43
0.2000000000000001
  0
POINT
  5
64D
330
577
100
AcDbEntity
  8
DEFPOINTS
 62
     0
100
AcDbPoint
 10
9.95160959482132
 20
-9.999610367384548
 30
0.0
  0
POINT
  5
64E
330
577
100
AcDbEntity
  8
DEFPOINTS
 62
     0
100
AcDbPoint
 10
9.489800454357919
 20
-4.265868911308416
 30
0.0
  0
POINT
  5
64F
330
577
100
AcDbEntity
  8
DEFPOINTS
 62
     0
100
AcDbPoint
 10
9.489800454357919
 20
-13.53519517446818
 30
0.0
  0
ENDBLK
  5
579
330
577
100
AcDbEntity
  8
0
100
AcDbBlockEnd
  0
BLOCK
  5
69F
330
69E
100
AcDbEntity
  8
0
100
AcDbBlockBegin
  2
*D53
 70
     1
 10
0.0
 20
0.0
 30
0.0
  3
*D53
  1

  0
LINE
  5
7B1
330
69E
100
AcDbEntity
  8
AM_5
100
AcDbLine
 10
34.70519918350613
 20
2.300000000000681
 30
0.0
 11
34.70519918350613
 21
6.200000000002273
 31
0.0
  0
LINE
  5
7B2
330
69E
100
AcDbEntity
  8
AM_5
100
AcDbLine
 10
46.90520679918324
 20
2.299999999999999
 30
0.0
 11
46.90520679918324
 21
6.200000000002273
 31
0.0
  0
LINE
  5
7B3
330
69E
100
AcDbEntity
  8
AM_5
100
AcDbLine
 10
34.90519918350613
 20
6.000000000002273
 30
0.0
 11
46.70520679918324
 21
6.000000000002273
 31
0.0
  0
INSERT
  5
7B4
330
69E
100
AcDbEntity
  8
AM_5
100
AcDbBlockReference
  2
_DOT
 10
34.70519918350613
 20
6.000000000002273
 30
0.0
 41
0.2000000000000001
 42
0.2000000000000001
 43
0.2000000000000001
 50
180.0
  0
INSERT
  5
7B5
330
69E
100
AcDbEntity
  8
AM_5
100
AcDbBlockReference
  2
_DOT
 10
46.90520679918324
 20
6.000000000002273
 30
0.0
 41
0.2000000000000001
 42
0.2000000000000001
 43
0.2000000000000001
  0
MTEXT
  5
7B6
330
69E
100
AcDbEntity
  8
AM_5
 62
     2
100
AcDbMText
 10
40.80520299134469
 20
6.830133333335607
 30
0.0
 40
0.6400000000000002
 41
0.0
 71
     5
 72
     1
  1
12.2{}{\H0.71x;\C2;\S+0.2^  0;}
 73
     1
 44
1.0
1001
ACAD
1000
MTEXTBEGIN
1070
    73
1070
     1
1070
    44
1040
1.0
1070
    74
1070
     0
1000
MTEXTEND
  0
POINT
  5
7B7
330
69E
100
AcDbEntity
  8
DEFPOINTS
 62
     0
100
AcDbPoint
 10
34.70519918350613
 20
2.000000000000682
 30
0.0
  0
POINT
  5
7B8
330
69E
100
AcDbEntity
  8
DEFPOINTS
 62
     0
100
AcDbPoint
 10
46.90520679918324
 20
2.0
 30
0.0
  0
POINT
  5
7B9
330
69E
100
AcDbEntity
  8
DEFPOINTS
 62
     0
100
AcDbPoint
 10
46.90520679918324
 20
6.000000000002273
 30
0.0
  0
ENDBLK
  5
6A0
330
69E
100
AcDbEntity
  8
0
100
AcDbBlockEnd
  0
BLOCK
  5
6AB
330
6AA
100
AcDbEntity
  8
0
100
AcDbBlockBegin
  2
*D54
 70
     1
 10
0.0
 20
0.0
 30
0.0
  3
*D54
  1

  0
LINE
  5
7BA
330
6AA
100
AcDbEntity
  8
AM_5
100
AcDbLine
 10
36.30520299332431
 20
2.299999999999999
 30
0.0
 11
36.30520299332431
 21
4.200000000004888
 31
0.0
  0
LINE
  5
7BB
330
6AA
100
AcDbEntity
  8
AM_5
100
AcDbLine
 10
45.30520299332408
 20
2.299999999999999
 30
0.0
 11
45.30520299332408
 21
4.200000000004888
 31
0.0
  0
LINE
  5
7BC
330
6AA
100
AcDbEntity
  8
AM_5
100
AcDbLine
 10
36.50520299332432
 20
4.000000000004888
 30
0.0
 11
45.10520299332408
 21
4.000000000004888
 31
0.0
  0
INSERT
  5
7BD
330
6AA
100
AcDbEntity
  8
AM_5
100
AcDbBlockReference
  2
_DOT
 10
36.30520299332431
 20
4.000000000004888
 30
0.0
 41
0.2000000000000001
 42
0.2000000000000001
 43
0.2000000000000001
 50
180.0
  0
INSERT
  5
7BE
330
6AA
100
AcDbEntity
  8
AM_5
100
AcDbBlockReference
  2
_DOT
 10
45.30520299332408
 20
4.000000000004888
 30
0.0
 41
0.2000000000000001
 42
0.2000000000000001
 43
0.2000000000000001
  0
MTEXT
  5
7BF
330
6AA
100
AcDbEntity
  8
AM_5
 62
     2
100
AcDbMText
 10
40.8052029933242
 20
4.620000000004888
 30
0.0
 40
0.6400000000000002
 41
0.0
 71
     5
 72
     1
  1
9
 73
     1
 44
1.0
1001
ACAD
1000
MTEXTBEGIN
1070
    73
1070
     1
1070
    44
1040
1.0
1070
    74
1070
     0
1000
MTEXTEND
  0
POINT
  5
7C0
330
6AA
100
AcDbEntity
  8
DEFPOINTS
 62
     0
100
AcDbPoint
 10
36.30520299332431
 20
2.0
 30
0.0
  0
POINT
  5
7C1
330
6AA
100
AcDbEntity
  8
DEFPOINTS
 62
     0
100
AcDbPoint
 10
45.30520299332408
 20
2.0
 30
0.0
  0
POINT
  5
7C2
330
6AA
100
AcDbEntity
  8
DEFPOINTS
 62
     0
100
AcDbPoint
 10
45.30520299332408
 20
4.000000000004888
 30
0.0
  0
ENDBLK
  5
6AC
330
6AA
100
AcDbEntity
  8
0
100
AcDbBlockEnd
  0
BLOCK
  5
6B7
330
6B6
100
AcDbEntity
  8
0
100
AcDbBlockBegin
  2
*D55
 70
     1
 10
0.0
 20
0.0
 30
0.0
  3
*D55
  1

  0
LINE
  5
7C3
330
6B6
100
AcDbEntity
  8
AM_5
100
AcDbLine
 10
34.40519918350613
 20
2.000000000000682
 30
0.0
 11
31.17849845377923
 21
2.000000000000682
 31
0.0
  0
LINE
  5
7C4
330
6B6
100
AcDbEntity
  8
AM_5
100
AcDbLine
 10
35.00993723591542
 20
-9.999610367384548
 30
0.0
 11
31.17849845377923
 21
-9.999610367384548
 31
0.0
  0
LINE
  5
7C5
330
6B6
100
AcDbEntity
  8
AM_5
100
AcDbLine
 10
31.37849845377923
 20
1.800000000000682
 30
0.0
 11
31.37849845377923
 21
-9.799610367384548
 31
0.0
  0
INSERT
  5
7C6
330
6B6
100
AcDbEntity
  8
AM_5
100
AcDbBlockReference
  2
_DOT
 10
31.37849845377923
 20
2.000000000000682
 30
0.0
 41
0.2000000000000001
 42
0.2000000000000001
 43
0.2000000000000001
 50
90.0
  0
INSERT
  5
7C7
330
6B6
100
AcDbEntity
  8
AM_5
100
AcDbBlockReference
  2
_DOT
 10
31.37849845377923
 20
-9.999610367384548
 30
0.0
 41
0.2000000000000001
 42
0.2000000000000001
 43
0.2000000000000001
 50
270.0
  0
MTEXT
  5
7C8
330
6B6
100
AcDbEntity
  8
AM_5
 62
     2
100
AcDbMText
 10
30.5483651204459
 20
-3.999805183691819
 30
0.0
 40
0.6400000000000002
 41
0.0
 71
     5
 72
     1
  1
12{}{\H0.71x;\C2;\S+0.1^ -0.2;}
 11
0.0000000000000001
 21
1.0
 31
0.0
 73
     1
 44
1.0
1001
ACAD
1000
MTEXTBEGIN
1070
    73
1070
     1
1070
    44
1040
1.0
1070
    74
1070
     0
1000
MTEXTEND
  0
POINT
  5
7C9
330
6B6
100
AcDbEntity
  8
DEFPOINTS
 62
     0
100
AcDbPoint
 10
34.70519918350613
 20
2.000000000000682
 30
0.0
  0
POINT
  5
7CA
330
6B6
100
AcDbEntity
  8
DEFPOINTS
 62
     0
100
AcDbPoint
 10
35.30993723591541
 20
-9.999610367384548
 30
0.0
  0
POINT
  5
7CB
330
6B6
100
AcDbEntity
  8
DEFPOINTS
 62
     0
100
AcDbPoint
 10
31.37849845377923
 20
-9.999610367384548
 30
0.0
  0
ENDBLK
  5
6B8
330
6B6
100
AcDbEntity
  8
0
100
AcDbBlockEnd
  0
BLOCK
  5
6C3
330
6C2
100
AcDbEntity
  8
0
100
AcDbBlockBegin
  2
*D56
 70
     1
 10
0.0
 20
0.0
 30
0.0
  3
*D56
  1

  0
LINE
  5
7CC
330
6C2
100
AcDbEntity
  8
AM_5
100
AcDbLine
 10
38.30524334759726
 20
-10.2999999972834
 30
0.0
 11
38.30549913063467
 21
-12.20065940169096
 31
0.0
  0
LINE
  5
7CD
330
6C2
100
AcDbEntity
  8
AM_5
100
AcDbLine
 10
43.30524336412813
 20
-10.2999999972834
 30
0.0
 11
43.3054990566121
 21
-12.19998652197083
 31
0.0
  0
LINE
  5
7CE
330
6C2
100
AcDbEntity
  8
AM_5
100
AcDbLine
 10
38.50547221363464
 20
-12.00063248831307
 30
0.0
 11
43.1054721432342
 21
-12.00001343897086
 31
0.0
  0
INSERT
  5
7CF
330
6C2
100
AcDbEntity
  8
AM_5
100
AcDbBlockReference
  2
_DOT
 10
38.3054722154457
 20
-12.00065940350203
 30
0.0
 41
0.2000000000000001
 42
0.2000000000000001
 43
0.2000000000000001
 50
180.0077106336842
  0
INSERT
  5
7D0
330
6C2
100
AcDbEntity
  8
AM_5
100
AcDbBlockReference
  2
_DOT
 10
43.30547214142314
 20
-11.9999865237819
 30
0.0
 41
0.2000000000000001
 42
0.2000000000000001
 43
0.2000000000000001
 50
0.0077106336842142
  0
MTEXT
  5
7D1
330
6C2
100
AcDbEntity
  8
AM_5
 62
     2
100
AcDbMText
 10
40.80538874134865
 20
-11.38032296925628
 30
0.0
 40
0.6400000000000002
 41
0.0
 71
     5
 72
     1
  1
5
 11
0.9999999909446575
 21
0.0001345759447985
 31
0.0
 73
     1
 44
1.0
1001
ACAD
1000
MTEXTBEGIN
1070
    73
1070
     1
1070
    44
1040
1.0
1070
    74
1070
     0
1000
MTEXTEND
  0
POINT
  5
7D2
330
6C2
100
AcDbEntity
  8
DEFPOINTS
 62
     0
100
AcDbPoint
 10
38.30520297481383
 20
-10.0
 30
0.0
  0
POINT
  5
7D3
330
6C2
100
AcDbEntity
  8
DEFPOINTS
 62
     0
100
AcDbPoint
 10
43.30520299134469
 20
-10.0
 30
0.0
  0
POINT
  5
7D4
330
6C2
100
AcDbEntity
  8
DEFPOINTS
 62
     0
100
AcDbPoint
 10
43.30547214142314
 20
-11.9999865237819
 30
0.0
  0
ENDBLK
  5
6C4
330
6C2
100
AcDbEntity
  8
0
100
AcDbBlockEnd
  0
BLOCK
  5
6CF
330
6CE
100
AcDbEntity
  8
0
100
AcDbBlockBegin
  2
*D57
 70
     1
 10
0.0
 20
0.0
 30
0.0
  3
*D57
  1

  0
LINE
  5
7D5
330
6CE
100
AcDbEntity
  8
AM_5
100
AcDbLine
 10
36.80520297604778
 20
-8.8
 30
0.0
 11
36.80520297604778
 21
-13.68820893039988
 31
0.0
  0
LINE
  5
7D6
330
6CE
100
AcDbEntity
  8
AM_5
100
AcDbLine
 10
44.80520299134468
 20
-8.8
 30
0.0
 11
44.80520299134468
 21
-13.68820893039988
 31
0.0
  0
LINE
  5
7D7
330
6CE
100
AcDbEntity
  8
AM_5
100
AcDbLine
 10
37.00520297604779
 20
-13.48820893039988
 30
0.0
 11
44.60520299134468
 21
-13.48820893039988
 31
0.0
  0
INSERT
  5
7D8
330
6CE
100
AcDbEntity
  8
AM_5
100
AcDbBlockReference
  2
_DOT
 10
36.80520297604778
 20
-13.48820893039988
 30
0.0
 41
0.2000000000000001
 42
0.2000000000000001
 43
0.2000000000000001
 50
180.0
  0
INSERT
  5
7D9
330
6CE
100
AcDbEntity
  8
AM_5
100
AcDbBlockReference
  2
_DOT
 10
44.80520299134468
 20
-13.48820893039988
 30
0.0
 41
0.2000000000000001
 42
0.2000000000000001
 43
0.2000000000000001
  0
MTEXT
  5
7DA
330
6CE
100
AcDbEntity
  8
AM_5
 62
     2
100
AcDbMText
 10
40.80520298369623
 20
-12.86820893039988
 30
0.0
 40
0.6400000000000002
 41
0.0
 71
     5
 72
     1
  1
8
 73
     1
 44
1.0
1001
ACAD
1000
MTEXTBEGIN
1070
    73
1070
     1
1070
    44
1040
1.0
1070
    74
1070
     0
1000
MTEXTEND
  0
POINT
  5
7DB
330
6CE
100
AcDbEntity
  8
DEFPOINTS
 62
     0
100
AcDbPoint
 10
36.80520297604778
 20
-8.5
 30
0.0
  0
POINT
  5
7DC
330
6CE
100
AcDbEntity
  8
DEFPOINTS
 62
     0
100
AcDbPoint
 10
44.80520299134468
 20
-8.5
 30
0.0
  0
POINT
  5
7DD
330
6CE
100
AcDbEntity
  8
DEFPOINTS
 62
     0
100
AcDbPoint
 10
44.80520299134468
 20
-13.48820893039988
 30
0.0
  0
ENDBLK
  5
6D0
330
6CE
100
AcDbEntity
  8
0
100
AcDbBlockEnd
  0
BLOCK
  5
6DB
330
6DA
100
AcDbEntity
  8
0
100
AcDbBlockBegin
  2
*D58
 70
     1
 10
0.0
 20
0.0
 30
0.0
  3
*D58
  1

  0
LINE
  5
7DE
330
6DA
100
AcDbEntity
  8
AM_5
100
AcDbLine
 10
46.60046874677395
 20
-9.999610367384434
 30
0.0
 11
48.51358208121481
 21
-9.999610367384434
 31
0.0
  0
LINE
  5
7DF
330
6DA
100
AcDbEntity
  8
AM_5
100
AcDbLine
 10
46.61358208121457
 20
-8.49954130154515
 30
0.0
 11
48.51358208121481
 21
-8.49954130154515
 31
0.0
  0
LINE
  5
7E0
330
6DA
100
AcDbEntity
  8
AM_5
100
AcDbLine
 10
48.3135820812148
 20
-10.19961036738443
 30
0.0
 11
48.3135820812148
 21
-10.39961036738443
 31
0.0
  0
LINE
  5
7E1
330
6DA
100
AcDbEntity
  8
AM_5
100
AcDbLine
 10
48.3135820812148
 20
-8.299541301545151
 30
0.0
 11
48.3135820812148
 21
-8.09954130154515
 31
0.0
  0
LINE
  5
7E2
330
6DA
100
AcDbEntity
  8
AM_5
100
AcDbLine
 10
48.3135820812148
 20
-9.999610367384434
 30
0.0
 11
48.3135820812148
 21
-8.49954130154515
 31
0.0
  0
INSERT
  5
7E3
330
6DA
100
AcDbEntity
  8
AM_5
100
AcDbBlockReference
  2
_DOT
 10
48.3135820812148
 20
-9.999610367384434
 30
0.0
 41
0.2000000000000001
 42
0.2000000000000001
 43
0.2000000000000001
 50
90.0
  0
INSERT
  5
7E4
330
6DA
100
AcDbEntity
  8
AM_5
100
AcDbBlockReference
  2
GENDOT
 10
48.3135820812148
 20
-8.49954130154515
 30
0.0
 41
0.2000000000000001
 42
0.2000000000000001
 43
0.2000000000000001
 50
270.0
  0
MTEXT
  5
7E5
330
6DA
100
AcDbEntity
  8
AM_5
 62
     2
100
AcDbMText
 10
47.6935820812148
 20
-9.249575834464785
 30
0.0
 40
0.6400000000000002
 41
0.0
 71
     5
 72
     1
  1
1.5
 11
0.0000000000000001
 21
1.0
 31
0.0
 73
     1
 44
1.0
1001
ACAD
1000
MTEXTBEGIN
1070
    73
1070
     1
1070
    44
1040
1.0
1070
    74
1070
     0
1000
MTEXTEND
  0
POINT
  5
7E6
330
6DA
100
AcDbEntity
  8
DEFPOINTS
 62
     0
100
AcDbPoint
 10
46.30046874677396
 20
-9.999610367384434
 30
0.0
  0
POINT
  5
7E7
330
6DA
100
AcDbEntity
  8
DEFPOINTS
 62
     0
100
AcDbPoint
 10
46.31358208121457
 20
-8.49954130154515
 30
0.0
  0
POINT
  5
7E8
330
6DA
100
AcDbEntity
  8
DEFPOINTS
 62
     0
100
AcDbPoint
 10
48.3135820812148
 20
-8.49954130154515
 30
0.0
  0
ENDBLK
  5
6DC
330
6DA
100
AcDbEntity
  8
0
100
AcDbBlockEnd
  0
BLOCK
  5
6E9
330
6E8
100
AcDbEntity
  8
0
100
AcDbBlockBegin
  2
*D59
 70
     1
 10
0.0
 20
0.0
 30
0.0
  3
*D59
  1

  0
LINE
  5
7E9
330
6E8
100
AcDbEntity
  8
AM_5
100
AcDbLine
 10
46.61358208121457
 20
-8.49954130154515
 30
0.0
 11
48.51358208121458
 21
-8.49954130154515
 31
0.0
  0
LINE
  5
7EA
330
6E8
100
AcDbEntity
  8
AM_5
100
AcDbLine
 10
46.62664938113043
 20
-6.999606816934601
 30
0.0
 11
48.51358208121458
 21
-6.999606816934601
 31
0.0
  0
LINE
  5
7EB
330
6E8
100
AcDbEntity
  8
AM_5
100
AcDbLine
 10
48.31358208121457
 20
-8.699541301545149
 30
0.0
 11
48.31358208121457
 21
-8.89954130154515
 31
0.0
  0
LINE
  5
7EC
330
6E8
100
AcDbEntity
  8
AM_5
100
AcDbLine
 10
48.31358208121457
 20
-6.799606816934601
 30
0.0
 11
48.31358208121457
 21
-6.599606816934601
 31
0.0
  0
LINE
  5
7ED
330
6E8
100
AcDbEntity
  8
AM_5
100
AcDbLine
 10
48.31358208121457
 20
-8.49954130154515
 30
0.0
 11
48.31358208121457
 21
-6.999606816934601
 31
0.0
  0
INSERT
  5
7EE
330
6E8
100
AcDbEntity
  8
AM_5
100
AcDbBlockReference
  2
GENDOT
 10
48.31358208121457
 20
-8.49954130154515
 30
0.0
 41
0.2000000000000001
 42
0.2000000000000001
 43
0.2000000000000001
 50
90.0
  0
INSERT
  5
7EF
330
6E8
100
AcDbEntity
  8
AM_5
100
AcDbBlockReference
  2
_DOT
 10
48.31358208121457
 20
-6.999606816934601
 30
0.0
 41
0.2000000000000001
 42
0.2000000000000001
 43
0.2000000000000001
 50
270.0
  0
MTEXT
  5
7F0
330
6E8
100
AcDbEntity
  8
AM_5
 62
     2
100
AcDbMText
 10
47.69358208121458
 20
-7.749574059239868
 30
0.0
 40
0.6400000000000002
 41
0.0
 71
     5
 72
     1
  1
1.5
 11
0.0000000000000001
 21
1.0
 31
0.0
 73
     1
 44
1.0
1001
ACAD
1000
MTEXTBEGIN
1070
    73
1070
     1
1070
    44
1040
1.0
1070
    74
1070
     0
1000
MTEXTEND
  0
POINT
  5
7F1
330
6E8
100
AcDbEntity
  8
DEFPOINTS
 62
     0
100
AcDbPoint
 10
46.31358208121457
 20
-8.49954130154515
 30
0.0
  0
POINT
  5
7F2
330
6E8
100
AcDbEntity
  8
DEFPOINTS
 62
     0
100
AcDbPoint
 10
46.32664938113044
 20
-6.999606816934601
 30
0.0
  0
POINT
  5
7F3
330
6E8
100
AcDbEntity
  8
DEFPOINTS
 62
     0
100
AcDbPoint
 10
48.31358208121457
 20
-6.999606816934601
 30
0.0
  0
ENDBLK
  5
6EA
330
6E8
100
AcDbEntity
  8
0
100
AcDbBlockEnd
  0
BLOCK
  5
6F7
330
6F6
100
AcDbEntity
  8
0
100
AcDbBlockBegin
  2
*D60
 70
     1
 10
0.0
 20
0.0
 30
0.0
  3
*D60
  1

  0
LINE
  5
7F4
330
6F6
100
AcDbEntity
  8
AM_5
100
AcDbLine
 10
46.62664938113043
 20
-6.999606816934601
 30
0.0
 11
48.51358208121379
 21
-6.999606816934601
 31
0.0
  0
LINE
  5
7F5
330
6F6
100
AcDbEntity
  8
AM_5
100
AcDbLine
 10
46.63973969830879
 20
-5.499605041709742
 30
0.0
 11
48.51358208121379
 21
-5.499605041709742
 31
0.0
  0
LINE
  5
7F6
330
6F6
100
AcDbEntity
  8
AM_5
100
AcDbLine
 10
48.31358208121378
 20
-7.199606816934601
 30
0.0
 11
48.31358208121378
 21
-7.399606816934602
 31
0.0
  0
LINE
  5
7F7
330
6F6
100
AcDbEntity
  8
AM_5
100
AcDbLine
 10
48.31358208121378
 20
-5.299605041709742
 30
0.0
 11
48.31358208121378
 21
-5.099605041709741
 31
0.0
  0
LINE
  5
7F8
330
6F6
100
AcDbEntity
  8
AM_5
100
AcDbLine
 10
48.31358208121378
 20
-6.999606816934601
 30
0.0
 11
48.31358208121378
 21
-5.499605041709742
 31
0.0
  0
INSERT
  5
7F9
330
6F6
100
AcDbEntity
  8
AM_5
100
AcDbBlockReference
  2
GENDOT
 10
48.31358208121378
 20
-6.999606816934601
 30
0.0
 41
0.2000000000000001
 42
0.2000000000000001
 43
0.2000000000000001
 50
90.0
  0
INSERT
  5
7FA
330
6F6
100
AcDbEntity
  8
AM_5
100
AcDbBlockReference
  2
_DOT
 10
48.31358208121378
 20
-5.499605041709742
 30
0.0
 41
0.2000000000000001
 42
0.2000000000000001
 43
0.2000000000000001
 50
270.0
  0
MTEXT
  5
7FB
330
6F6
100
AcDbEntity
  8
AM_5
 62
     2
100
AcDbMText
 10
47.69358208121378
 20
-6.249605929322163
 30
0.0
 40
0.6400000000000002
 41
0.0
 71
     5
 72
     1
  1
1.5
 11
0.0000000000000001
 21
1.0
 31
0.0
 73
     1
 44
1.0
1001
ACAD
1000
MTEXTBEGIN
1070
    73
1070
     1
1070
    44
1040
1.0
1070
    74
1070
     0
1000
MTEXTEND
  0
POINT
  5
7FC
330
6F6
100
AcDbEntity
  8
DEFPOINTS
 62
     0
100
AcDbPoint
 10
46.32664938113044
 20
-6.999606816934601
 30
0.0
  0
POINT
  5
7FD
330
6F6
100
AcDbEntity
  8
DEFPOINTS
 62
     0
100
AcDbPoint
 10
46.33973969830878
 20
-5.499605041709742
 30
0.0
  0
POINT
  5
7FE
330
6F6
100
AcDbEntity
  8
DEFPOINTS
 62
     0
100
AcDbPoint
 10
48.31358208121378
 20
-5.499605041709742
 30
0.0
  0
ENDBLK
  5
6F8
330
6F6
100
AcDbEntity
  8
0
100
AcDbBlockEnd
  0
BLOCK
  5
705
330
704
100
AcDbEntity
  8
0
100
AcDbBlockBegin
  2
*D61
 70
     1
 10
0.0
 20
0.0
 30
0.0
  3
*D61
  1

  0
LINE
  5
7FF
330
704
100
AcDbEntity
  8
AM_5
100
AcDbLine
 10
46.63973969830879
 20
-5.499605041709742
 30
0.0
 11
48.51358208121287
 21
-5.499605041709742
 31
0.0
  0
LINE
  5
800
330
704
100
AcDbEntity
  8
AM_5
100
AcDbLine
 10
46.65286662466114
 20
-3.995408270635721
 30
0.0
 11
48.51358208121287
 21
-3.995408270635721
 31
0.0
  0
LINE
  5
801
330
704
100
AcDbEntity
  8
AM_5
100
AcDbLine
 10
48.31358208121287
 20
-5.699605041709742
 30
0.0
 11
48.31358208121287
 21
-5.899605041709742
 31
0.0
  0
LINE
  5
802
330
704
100
AcDbEntity
  8
AM_5
100
AcDbLine
 10
48.31358208121287
 20
-3.795408270635721
 30
0.0
 11
48.31358208121287
 21
-3.595408270635721
 31
0.0
  0
LINE
  5
803
330
704
100
AcDbEntity
  8
AM_5
100
AcDbLine
 10
48.31358208121287
 20
-5.499605041709742
 30
0.0
 11
48.31358208121287
 21
-3.995408270635721
 31
0.0
  0
INSERT
  5
804
330
704
100
AcDbEntity
  8
AM_5
100
AcDbBlockReference
  2
GENDOT
 10
48.31358208121287
 20
-5.499605041709742
 30
0.0
 41
0.2000000000000001
 42
0.2000000000000001
 43
0.2000000000000001
 50
90.0
  0
INSERT
  5
805
330
704
100
AcDbEntity
  8
AM_5
100
AcDbBlockReference
  2
_DOT
 10
48.31358208121287
 20
-3.995408270635721
 30
0.0
 41
0.2000000000000001
 42
0.2000000000000001
 43
0.2000000000000001
 50
270.0
  0
MTEXT
  5
806
330
704
100
AcDbEntity
  8
AM_5
 62
     2
100
AcDbMText
 10
47.69358208121287
 20
-4.747506656172723
 30
0.0
 40
0.6400000000000002
 41
0.0
 71
     5
 72
     1
  1
1.5
 11
0.0000000000000001
 21
1.0
 31
0.0
 73
     1
 44
1.0
1001
ACAD
1000
MTEXTBEGIN
1070
    73
1070
     1
1070
    44
1040
1.0
1070
    74
1070
     0
1000
MTEXTEND
  0
POINT
  5
807
330
704
100
AcDbEntity
  8
DEFPOINTS
 62
     0
100
AcDbPoint
 10
46.33973969830878
 20
-5.499605041709742
 30
0.0
  0
POINT
  5
808
330
704
100
AcDbEntity
  8
DEFPOINTS
 62
     0
100
AcDbPoint
 10
46.35286662466114
 20
-3.995408270635721
 30
0.0
  0
POINT
  5
809
330
704
100
AcDbEntity
  8
DEFPOINTS
 62
     0
100
AcDbPoint
 10
48.31358208121287
 20
-3.995408270635721
 30
0.0
  0
ENDBLK
  5
706
330
704
100
AcDbEntity
  8
0
100
AcDbBlockEnd
  0
BLOCK
  5
713
330
712
100
AcDbEntity
  8
0
100
AcDbBlockBegin
  2
*D62
 70
     1
 10
0.0
 20
0.0
 30
0.0
  3
*D62
  1

  0
LINE
  5
80A
330
712
100
AcDbEntity
  8
AM_5
100
AcDbLine
 10
46.65286662466114
 20
-3.995408270635721
 30
0.0
 11
48.51358208121208
 21
-3.995408270635721
 31
0.0
  0
LINE
  5
80B
330
712
100
AcDbEntity
  8
AM_5
100
AcDbLine
 10
47.16593995909436
 20
-2.499534200645712
 30
0.0
 11
48.51358208121208
 21
-2.499534200645712
 31
0.0
  0
LINE
  5
80C
330
712
100
AcDbEntity
  8
AM_5
100
AcDbLine
 10
48.31358208121208
 20
-4.195408270635721
 30
0.0
 11
48.31358208121208
 21
-4.395408270635721
 31
0.0
  0
LINE
  5
80D
330
712
100
AcDbEntity
  8
AM_5
100
AcDbLine
 10
48.31358208121208
 20
-2.299534200645712
 30
0.0
 11
48.31358208121208
 21
-2.099534200645712
 31
0.0
  0
LINE
  5
80E
330
712
100
AcDbEntity
  8
AM_5
100
AcDbLine
 10
48.31358208121208
 20
-3.995408270635721
 30
0.0
 11
48.31358208121208
 21
-2.499534200645712
 31
0.0
  0
INSERT
  5
80F
330
712
100
AcDbEntity
  8
AM_5
100
AcDbBlockReference
  2
GENDOT
 10
48.31358208121208
 20
-3.995408270635721
 30
0.0
 41
0.2000000000000001
 42
0.2000000000000001
 43
0.2000000000000001
 50
90.0
  0
INSERT
  5
810
330
712
100
AcDbEntity
  8
AM_5
100
AcDbBlockReference
  2
_DOT
 10
48.31358208121208
 20
-2.499534200645712
 30
0.0
 41
0.2000000000000001
 42
0.2000000000000001
 43
0.2000000000000001
 50
270.0
  0
MTEXT
  5
811
330
712
100
AcDbEntity
  8
AM_5
 62
     2
100
AcDbMText
 10
47.69358208121207
 20
-3.247471235640709
 30
0.0
 40
0.6400000000000002
 41
0.0
 71
     5
 72
     1
  1
1.5
 11
0.0000000000000001
 21
1.0
 31
0.0
 73
     1
 44
1.0
1001
ACAD
1000
MTEXTBEGIN
1070
    73
1070
     1
1070
    44
1040
1.0
1070
    74
1070
     0
1000
MTEXTEND
  0
POINT
  5
812
330
712
100
AcDbEntity
  8
DEFPOINTS
 62
     0
100
AcDbPoint
 10
46.35286662466114
 20
-3.995408270635721
 30
0.0
  0
POINT
  5
813
330
712
100
AcDbEntity
  8
DEFPOINTS
 62
     0
100
AcDbPoint
 10
46.86593995909436
 20
-2.499534200645712
 30
0.0
  0
POINT
  5
814
330
712
100
AcDbEntity
  8
DEFPOINTS
 62
     0
100
AcDbPoint
 10
48.31358208121208
 20
-2.499534200645712
 30
0.0
  0
ENDBLK
  5
714
330
712
100
AcDbEntity
  8
0
100
AcDbBlockEnd
  0
BLOCK
  5
721
330
720
100
AcDbEntity
  8
0
100
AcDbBlockBegin
  2
*D63
 70
     1
 10
0.0
 20
0.0
 30
0.0
  3
*D63
  1

  0
LINE
  5
815
330
720
100
AcDbEntity
  8
AM_5
100
AcDbLine
 10
47.18338962970635
 20
-0.5
 30
0.0
 11
48.51358208160077
 21
-0.5000000000000005
 31
0.0
  0
LINE
  5
816
330
720
100
AcDbEntity
  8
AM_5
100
AcDbLine
 10
47.18338962970635
 20
-1.499198145548803
 30
0.0
 11
48.51358208160077
 21
-1.499198145548803
 31
0.0
  0
LINE
  5
817
330
720
100
AcDbEntity
  8
AM_5
100
AcDbLine
 10
48.31358208160077
 20
-0.3000000000000003
 30
0.0
 11
48.31358208160077
 21
-0.1000000000000003
 31
0.0
  0
LINE
  5
818
330
720
100
AcDbEntity
  8
AM_5
100
AcDbLine
 10
48.31358208160077
 20
-1.699198145548803
 30
0.0
 11
48.31358208160077
 21
-1.899198145548803
 31
0.0
  0
LINE
  5
819
330
720
100
AcDbEntity
  8
AM_5
100
AcDbLine
 10
48.31358208160077
 20
-0.9995990727744018
 30
0.0
 11
50.3007590006016
 21
-1.629095356432534
 31
0.0
  0
LINE
  5
81A
330
720
100
AcDbEntity
  8
AM_5
100
AcDbLine
 10
50.3007590006016
 20
-1.629095356432534
 30
0.0
 11
50.3007590006016
 21
-2.442428689765867
 31
0.0
  0
MTEXT
  5
81B
330
720
100
AcDbEntity
  8
AM_5
 62
     2
100
AcDbMText
 10
49.6807590006016
 20
-2.035762023099192
 30
0.0
 40
0.6400000000000002
 41
0.0
 71
     5
 72
     1
  1
1
 11
0.0000000000000001
 21
1.0
 31
0.0
 73
     1
 44
1.0
1001
ACAD
1000
MTEXTBEGIN
1070
    73
1070
     1
1070
    44
1040
1.0
1070
    74
1070
     0
1000
MTEXTEND
  0
LINE
  5
81C
330
720
100
AcDbEntity
  8
AM_5
100
AcDbLine
 10
48.31358208160077
 20
-0.5000000000000005
 30
0.0
 11
48.31358208160077
 21
-1.499198145548803
 31
0.0
  0
LINE
  5
81D
330
720
100
AcDbEntity
  8
AM_5
100
AcDbLine
 10
48.31358208160077
 20
-0.5000000000000005
 30
0.0
 11
48.31358208160077
 21
-1.499198145548803
 31
0.0
  0
INSERT
  5
81E
330
720
100
AcDbEntity
  8
AM_5
100
AcDbBlockReference
  2
_DOT
 10
48.31358208160077
 20
-0.5000000000000005
 30
0.0
 41
0.2000000000000001
 42
0.2000000000000001
 43
0.2000000000000001
 50
270.0
  0
INSERT
  5
81F
330
720
100
AcDbEntity
  8
AM_5
100
AcDbBlockReference
  2
_DOT
 10
48.31358208160077
 20
-1.499198145548803
 30
0.0
 41
0.2000000000000001
 42
0.2000000000000001
 43
0.2000000000000001
 50
90.0
  0
POINT
  5
820
330
720
100
AcDbEntity
  8
DEFPOINTS
 62
     0
100
AcDbPoint
 10
46.88338962970635
 20
-0.5
 30
0.0
  0
POINT
  5
821
330
720
100
AcDbEntity
  8
DEFPOINTS
 62
     0
100
AcDbPoint
 10
46.88338962970635
 20
-1.499198145548803
 30
0.0
  0
POINT
  5
822
330
720
100
AcDbEntity
  8
DEFPOINTS
 62
     0
100
AcDbPoint
 10
48.31358208160077
 20
-1.499198145548803
 30
0.0
  0
ENDBLK
  5
722
330
720
100
AcDbEntity
  8
0
100
AcDbBlockEnd
  0
BLOCK
  5
732
330
731
100
AcDbEntity
  8
0
100
AcDbBlockBegin
  2
*D64
 70
     1
 10
0.0
 20
0.0
 30
0.0
  3
*D64
  1

  0
LINE
  5
823
330
731
100
AcDbEntity
  8
AM_5
100
AcDbLine
 10
47.20520679918324
 20
1.999999999999999
 30
0.0
 11
50.51358208160123
 21
1.999999999999998
 31
0.0
  0
LINE
  5
824
330
731
100
AcDbEntity
  8
AM_5
100
AcDbLine
 10
46.68379055693178
 20
-0.999599072774572
 30
0.0
 11
50.51358208160123
 21
-0.9995990727745731
 31
0.0
  0
LINE
  5
825
330
731
100
AcDbEntity
  8
AM_5
100
AcDbLine
 10
50.31358208160122
 20
1.799999999999998
 30
0.0
 11
50.31358208160122
 21
-0.7995990727745732
 31
0.0
  0
INSERT
  5
826
330
731
100
AcDbEntity
  8
AM_5
100
AcDbBlockReference
  2
_DOT
 10
50.31358208160122
 20
1.999999999999999
 30
0.0
 41
0.2000000000000001
 42
0.2000000000000001
 43
0.2000000000000001
 50
90.0
  0
INSERT
  5
827
330
731
100
AcDbEntity
  8
AM_5
100
AcDbBlockReference
  2
_DOT
 10
50.31358208160122
 20
-0.9995990727745731
 30
0.0
 41
0.2000000000000001
 42
0.2000000000000001
 43
0.2000000000000001
 50
270.0
  0
MTEXT
  5
828
330
731
100
AcDbEntity
  8
AM_5
 62
     2
100
AcDbMText
 10
49.69358208160123
 20
0.5002004636127211
 30
0.0
 40
0.6400000000000002
 41
0.0
 71
     5
 72
     1
  1
3
 11
0.0000000000000001
 21
1.0
 31
0.0
 73
     1
 44
1.0
1001
ACAD
1000
MTEXTBEGIN
1070
    73
1070
     1
1070
    44
1040
1.0
1070
    74
1070
     0
1000
MTEXTEND
  0
POINT
  5
829
330
731
100
AcDbEntity
  8
DEFPOINTS
 62
     0
100
AcDbPoint
 10
46.90520679918324
 20
1.999999999999999
 30
0.0
  0
POINT
  5
82A
330
731
100
AcDbEntity
  8
DEFPOINTS
 62
     0
100
AcDbPoint
 10
46.38379055693178
 20
-0.999599072774572
 30
0.0
  0
POINT
  5
82B
330
731
100
AcDbEntity
  8
DEFPOINTS
 62
     0
100
AcDbPoint
 10
50.31358208160122
 20
-0.9995990727745731
 30
0.0
  0
ENDBLK
  5
733
330
731
100
AcDbEntity
  8
0
100
AcDbBlockEnd
  0
BLOCK
  5
73E
330
73D
100
AcDbEntity
  8
0
100
AcDbBlockBegin
  2
*D65
 70
     1
 10
0.0
 20
0.0
 30
0.0
  3
*D65
  1

  0
LINE
  5
82C
330
73D
100
AcDbEntity
  8
AM_5
100
AcDbLine
 10
47.20520679918324
 20
1.999999999999999
 30
0.0
 11
48.51358208160123
 21
1.999999999999999
 31
0.0
  0
LINE
  5
82D
330
73D
100
AcDbEntity
  8
AM_5
100
AcDbLine
 10
47.18338962970635
 20
-0.5
 30
0.0
 11
48.51358208160123
 21
-0.5000000000000005
 31
0.0
  0
LINE
  5
82E
330
73D
100
AcDbEntity
  8
AM_5
100
AcDbLine
 10
48.31358208160122
 20
1.799999999999999
 30
0.0
 11
48.31358208160122
 21
-0.3000000000000003
 31
0.0
  0
INSERT
  5
82F
330
73D
100
AcDbEntity
  8
AM_5
100
AcDbBlockReference
  2
_DOT
 10
48.31358208160122
 20
1.999999999999999
 30
0.0
 41
0.2000000000000001
 42
0.2000000000000001
 43
0.2000000000000001
 50
90.0
  0
INSERT
  5
830
330
73D
100
AcDbEntity
  8
AM_5
100
AcDbBlockReference
  2
_DOT
 10
48.31358208160122
 20
-0.5000000000000005
 30
0.0
 41
0.2000000000000001
 42
0.2000000000000001
 43
0.2000000000000001
 50
270.0
  0
MTEXT
  5
831
330
73D
100
AcDbEntity
  8
AM_5
 62
     2
100
AcDbMText
 10
47.69358208160123
 20
0.2901439583858974
 30
0.0
 40
0.6400000000000002
 41
0.0
 71
     5
 72
     1
  1
a
 11
0.0000000000000001
 21
1.0
 31
0.0
 73
     1
 44
1.0
1001
ACAD
1000
MTEXTBEGIN
1070
    73
1070
     1
1070
    44
1040
1.0
1070
    74
1070
     0
1000
MTEXTEND
  0
POINT
  5
832
330
73D
100
AcDbEntity
  8
DEFPOINTS
 62
     0
100
AcDbPoint
 10
46.90520679918324
 20
1.999999999999999
 30
0.0
  0
POINT
  5
833
330
73D
100
AcDbEntity
  8
DEFPOINTS
 62
     0
100
AcDbPoint
 10
46.88338962970635
 20
-0.5
 30
0.0
  0
POINT
  5
834
330
73D
100
AcDbEntity
  8
DEFPOINTS
 62
     0
100
AcDbPoint
 10
48.31358208160122
 20
-0.5000000000000005
 30
0.0
  0
ENDBLK
  5
73F
330
73D
100
AcDbEntity
  8
0
100
AcDbBlockEnd
  0
BLOCK
  5
74A
330
749
100
AcDbEntity
  8
0
100
AcDbBlockBegin
  2
*D66
 70
     1
 10
0.0
 20
0.0
 30
0.0
  3
*D66
  1

  0
LINE
  5
835
330
749
100
AcDbEntity
  8
AM_5
100
AcDbLine
 10
45.6173388335392
 20
2.21213203435596
 30
0.0
 11
47.71084242490054
 21
4.305635625717311
 31
0.0
  0
LINE
  5
836
330
749
100
AcDbEntity
  8
AM_5
100
AcDbLine
 10
43.41023205395257
 20
-3.530508643438306
 30
0.0
 11
49.47860937400436
 21
2.537868676613506
 31
0.0
  0
LINE
  5
837
330
749
100
AcDbEntity
  8
AM_5
100
AcDbLine
 10
47.71084242490054
 20
4.022792913242689
 30
0.0
 11
49.19576666152973
 21
2.537868676613506
 31
0.0
  0
INSERT
  5
838
330
749
100
AcDbEntity
  8
AM_5
100
AcDbBlockReference
  2
_DOT
 10
47.56942106866325
 20
4.164214269479998
 30
0.0
 41
0.2000000000000001
 42
0.2000000000000001
 43
0.2000000000000001
 50
135.0000000000001
  0
INSERT
  5
839
330
749
100
AcDbEntity
  8
AM_5
100
AcDbBlockReference
  2
_DOT
 10
49.33718801776705
 20
2.396447320376193
 30
0.0
 41
0.2000000000000001
 42
0.2000000000000001
 43
0.2000000000000001
 50
315.0000000000001
  0
MTEXT
  5
83A
330
749
100
AcDbEntity
  8
AM_5
 62
     2
100
AcDbMText
 10
48.8917107475508
 20
3.718736999263757
 30
0.0
 40
0.6400000000000002
 41
0.0
 71
     5
 72
     1
  1
2.5
 11
0.7071067811865488
 21
-0.7071067811865463
 31
0.0
 73
     1
 44
1.0
1001
ACAD
1000
MTEXTBEGIN
1070
    73
1070
     1
1070
    44
1040
1.0
1070
    74
1070
     0
1000
MTEXTEND
  0
POINT
  5
83B
330
749
100
AcDbEntity
  8
DEFPOINTS
 62
     0
100
AcDbPoint
 10
45.40520679918325
 20
2.0
 30
0.0
  0
POINT
  5
83C
330
749
100
AcDbEntity
  8
DEFPOINTS
 62
     0
100
AcDbPoint
 10
43.19810001959661
 20
-3.74264067779427
 30
0.0
  0
POINT
  5
83D
330
749
100
AcDbEntity
  8
DEFPOINTS
 62
     0
100
AcDbPoint
 10
49.33718801776705
 20
2.396447320376193
 30
0.0
  0
ENDBLK
  5
74B
330
749
100
AcDbEntity
  8
0
100
AcDbBlockEnd
  0
BLOCK
  5
756
330
755
100
AcDbEntity
  8
0
100
AcDbBlockBegin
  2
*D67
 70
     1
 10
0.0
 20
0.0
 30
0.0
  3
*D67
  1

  0
LINE
  5
83E
330
755
100
AcDbEntity
  8
AM_5
100
AcDbLine
 10
34.70519918350613
 20
-0.8000951959642632
 30
0.0
 11
34.70519918350613
 21
-14.59781492018449
 31
0.0
  0
LINE
  5
83F
330
755
100
AcDbEntity
  8
AM_5
100
AcDbLine
 10
34.72963431363253
 20
-0.7999885769192514
 30
0.0
 11
34.85004060460244
 21
-14.59718292625088
 31
0.0
  0
ARC
  5
840
330
755
100
AcDbEntity
  8
AM_5
100
AcDbCircle
 10
34.70519918350613
 20
2.000000000000682
 30
0.0
 40
16.39781492018517
100
AcDbArc
 50
268.6023210910351
 51
270.0
  0
LINE
  5
841
330
755
100
AcDbEntity
  8
AM_5
100
AcDbLine
 10
34.30522893674019
 20
-14.39293622138289
 30
0.0
 11
31.46607389716107
 21
-14.32366385147603
 31
0.0
  0
ARC
  5
842
330
755
100
AcDbEntity
  8
AM_5
100
AcDbCircle
 10
34.70519918350613
 20
2.000000000000682
 30
0.0
 40
16.39781492018517
100
AcDbArc
 50
268.6023470825163
 51
269.3011735412581
  0
ARC
  5
843
330
755
100
AcDbEntity
  8
AM_5
100
AcDbCircle
 10
34.70519918350613
 20
2.000000000000682
 30
0.0
 40
16.39781492018517
100
AcDbArc
 50
271.1988264587415
 51
271.8976529174834
  0
ARC
  5
844
330
755
100
AcDbEntity
  8
AM_5
100
AcDbCircle
 10
34.70519918350613
 20
2.000000000000682
 30
0.0
 40
16.39781492018517
100
AcDbArc
 50
270.0
 51
270.4999999999996
  0
INSERT
  5
845
330
755
100
AcDbEntity
  8
AM_5
100
AcDbBlockReference
  2
_DOT
 10
34.70519918350613
 20
-14.39781492018449
 30
0.0
 41
0.2
 42
0.2
 43
0.2
 50
359.650586770629
  0
INSERT
  5
846
330
755
100
AcDbEntity
  8
AM_5
100
AcDbBlockReference
  2
_DOT
 10
34.84829529750277
 20
-14.39719054163805
 30
0.0
 41
0.2
 42
0.2
 43
0.2
 50
180.8494132293706
  0
MTEXT
  5
847
330
755
100
AcDbEntity
  8
AM_5
 62
     2
100
AcDbMText
 10
32.90077425826833
 20
-13.73848449961993
 30
0.0
 40
0.6400000000000002
 41
0.0
 71
     5
 72
     1
  1
0%%d50'
 11
0.9997024787250406
 21
-0.0243916795446688
 31
0.0
 73
     1
 44
1.0
1001
ACAD
1000
MTEXTBEGIN
1070
    73
1070
     1
1070
    44
1040
1.0
1070
    74
1070
     0
1000
MTEXTEND
  0
POINT
  5
848
330
755
100
AcDbEntity
  8
DEFPOINTS
 62
     0
100
AcDbPoint
 10
34.8005972655206
 20
-14.39753741762991
 30
0.0
  0
POINT
  5
849
330
755
100
AcDbEntity
  8
DEFPOINTS
 62
     0
100
AcDbPoint
 10
34.70519918350613
 20
2.000000000000682
 30
0.0
  0
POINT
  5
84A
330
755
100
AcDbEntity
  8
DEFPOINTS
 62
     0
100
AcDbPoint
 10
34.70519918350613
 20
2.000000000000682
 30
0.0
  0
POINT
  5
84B
330
755
100
AcDbEntity
  8
DEFPOINTS
 62
     0
100
AcDbPoint
 10
34.70519918350613
 20
-0.5000951959642634
 30
0.0
  0
POINT
  5
84C
330
755
100
AcDbEntity
  8
DEFPOINTS
 62
     0
100
AcDbPoint
 10
34.72701635298302
 20
-0.5
 30
0.0
  0
ENDBLK
  5
757
330
755
100
AcDbEntity
  8
0
100
AcDbBlockEnd
  0
BLOCK
  5
768
330
767
100
AcDbEntity
  8
0
100
AcDbBlockBegin
  2
*D68
 70
     1
 10
0.0
 20
0.0
 30
0.0
  3
*D68
  1

  0
LINE
  5
84D
330
767
100
AcDbEntity
  8
AM_5
100
AcDbLine
 10
32.25091789895528
 20
-4.84814234162718
 30
0.0
 11
34.36425123228861
 21
-4.84814234162718
 31
0.0
  0
LINE
  5
84E
330
767
100
AcDbEntity
  8
AM_5
100
AcDbLine
 10
34.36425123228861
 20
-4.84814234162718
 30
0.0
 11
34.89261635233885
 21
-6.625995077143144
 31
0.0
  0
MTEXT
  5
84F
330
767
100
AcDbEntity
  8
AM_5
 62
     2
100
AcDbMText
 10
33.15758456562195
 20
-4.22814234162718
 30
0.0
 40
0.6400000000000002
 41
0.0
 71
     5
 72
     1
  1
R0.2
 73
     1
 44
1.0
1001
ACAD
1000
MTEXTBEGIN
1070
    73
1070
     1
1070
    44
1040
1.0
1070
    74
1070
     0
1000
MTEXTEND
  0
INSERT
  5
850
330
767
100
AcDbEntity
  8
AM_5
100
AcDbBlockReference
  2
_OPEN30
 10
35.00656766323505
 20
-7.00942055718462
 30
0.0
 41
0.4
 42
0.4
 43
0.4
 50
286.5515727716326
  0
POINT
  5
851
330
767
100
AcDbEntity
  8
DEFPOINTS
 62
     0
100
AcDbPoint
 10
35.00656766323505
 20
-7.00942055718462
 30
0.0
  0
POINT
  5
852
330
767
100
AcDbEntity
  8
DEFPOINTS
 62
     0
100
AcDbPoint
 10
35.06354331868329
 20
-7.201133297205839
 30
0.0
  0
ENDBLK
  5
769
330
767
100
AcDbEntity
  8
0
100
AcDbBlockEnd
  0
BLOCK
  5
771
330
770
100
AcDbEntity
  8
0
100
AcDbBlockBegin
  2
*D69
 70
     1
 10
0.0
 20
0.0
 30
0.0
  3
*D69
  1

  0
ARC
  5
853
330
770
100
AcDbEntity
  8
AM_5
100
AcDbCircle
 10
40.80520298592
 20
-2.499999992595691
 30
0.0
 40
3.2075458523556
100
AcDbArc
 50
48.5731408293103
 51
131.4268591706897
  0
INSERT
  5
854
330
770
100
AcDbEntity
  8
AM_5
100
AcDbBlockReference
  2
_DOT
 10
43.07328040908743
 20
-0.2319225694282618
 30
0.0
 41
0.2
 42
0.2
 43
0.2
 50
316.7865704146552
  0
INSERT
  5
855
330
770
100
AcDbEntity
  8
AM_5
100
AcDbBlockReference
  2
_DOT
 10
38.53712556275258
 20
-0.2319225694282636
 30
0.0
 41
0.2
 42
0.2
 43
0.2
 50
223.2134295853449
  0
MTEXT
  5
856
330
770
100
AcDbEntity
  8
AM_5
 62
     2
100
AcDbMText
 10
39.78387011678976
 20
1.188764898572998
 30
0.0
 40
0.6400000000000002
 41
0.0
 71
     5
 72
     1
  1
90\U+00B0
 11
0.9637415287653569
 21
0.266837526845481
 31
0.0
 73
     1
 44
1.0
1001
ACAD
1000
MTEXTBEGIN
1070
    73
1070
     1
1070
    44
1040
1.0
1070
    74
1070
     0
1000
MTEXTEND
  0
POINT
  5
857
330
770
100
AcDbEntity
  8
DEFPOINTS
 62
     0
100
AcDbPoint
 10
41.63537694054923
 20
0.5982513852009692
 30
0.0
  0
POINT
  5
858
330
770
100
AcDbEntity
  8
DEFPOINTS
 62
     0
100
AcDbPoint
 10
40.80520298592
 20
-2.499999992595691
 30
0.0
  0
POINT
  5
859
330
770
100
AcDbEntity
  8
DEFPOINTS
 62
     0
100
AcDbPoint
 10
36.30520299332431
 20
2.0
 30
0.0
  0
POINT
  5
85A
330
770
100
AcDbEntity
  8
DEFPOINTS
 62
     0
100
AcDbPoint
 10
40.80520298592
 20
-2.499999992595691
 30
0.0
  0
POINT
  5
85B
330
770
100
AcDbEntity
  8
DEFPOINTS
 62
     0
100
AcDbPoint
 10
45.3052029785157
 20
2.000000000000001
 30
0.0
  0
ENDBLK
  5
772
330
770
100
AcDbEntity
  8
0
100
AcDbBlockEnd
  0
BLOCK
  5
77D
330
77C
100
AcDbEntity
  8
0
100
AcDbBlockBegin
  2
*D70
 70
     1
 10
0.0
 20
0.0
 30
0.0
  3
*D70
  1

  0
LINE
  5
85C
330
77C
100
AcDbEntity
  8
AM_5
100
AcDbLine
 10
40.05546851839699
 20
-6.865713920580342
 30
0.0
 11
38.90213518506367
 21
-6.865713920580342
 31
0.0
  0
LINE
  5
85D
330
77C
100
AcDbEntity
  8
AM_5
100
AcDbLine
 10
38.90213518506367
 20
-6.865713920580342
 30
0.0
 11
37.55715256680915
 21
-3.903422464138531
 31
0.0
  0
MTEXT
  5
85E
330
77C
100
AcDbEntity
  8
AM_5
 62
     2
100
AcDbMText
 10
39.62880185173034
 20
-6.245713920580336
 30
0.0
 40
0.6400000000000002
 41
0.0
 71
     5
 72
     1
  1
R1
 73
     1
 44
1.0
1001
ACAD
1000
MTEXTBEGIN
1070
    73
1070
     1
1070
    44
1040
1.0
1070
    74
1070
     0
1000
MTEXTEND
  0
INSERT
  5
85F
330
77C
100
AcDbEntity
  8
AM_5
100
AcDbBlockReference
  2
_OPEN30
 10
37.39178562598443
 20
-3.539205804878863
 30
0.0
 41
0.4
 42
0.4
 43
0.4
 50
114.4196890777281
  0
POINT
  5
860
330
77C
100
AcDbEntity
  8
DEFPOINTS
 62
     0
100
AcDbPoint
 10
37.39178562598443
 20
-3.539205804878863
 30
0.0
  0
POINT
  5
861
330
77C
100
AcDbEntity
  8
DEFPOINTS
 62
     0
100
AcDbPoint
 10
37.8052029780464
 20
-4.449747453028409
 30
0.0
  0
ENDBLK
  5
77E
330
77C
100
AcDbEntity
  8
0
100
AcDbBlockEnd
  0
BLOCK
  5
786
330
785
100
AcDbEntity
  8
0
100
AcDbBlockBegin
  2
*D71
 70
     1
 10
0.0
 20
0.0
 30
0.0
  3
*D71
  1

  0
LINE
  5
862
330
785
100
AcDbEntity
  8
AM_5
100
AcDbLine
 10
43.06822093031327
 20
-6.794382698038962
 30
0.0
 11
41.91488759697993
 21
-6.794382698038962
 31
0.0
  0
LINE
  5
863
330
785
100
AcDbEntity
  8
AM_5
100
AcDbLine
 10
41.91488759697993
 20
-6.794382698038962
 30
0.0
 11
41.4419072684745
 21
-5.868159394052874
 31
0.0
  0
MTEXT
  5
864
330
785
100
AcDbEntity
  8
AM_5
 62
     2
100
AcDbMText
 10
42.64155426364659
 20
-6.174382698038955
 30
0.0
 40
0.6400000000000002
 41
0.0
 71
     5
 72
     1
  1
R1
 73
     1
 44
1.0
1001
ACAD
1000
MTEXTBEGIN
1070
    73
1070
     1
1070
    44
1040
1.0
1070
    74
1070
     0
1000
MTEXTEND
  0
INSERT
  5
865
330
785
100
AcDbEntity
  8
AM_5
100
AcDbBlockReference
  2
_OPEN30
 10
41.25999175751087
 20
-5.511919661750535
 30
0.0
 41
0.4
 42
0.4
 43
0.4
 50
117.0513446205346
  0
POINT
  5
866
330
785
100
AcDbEntity
  8
DEFPOINTS
 62
     0
100
AcDbPoint
 10
41.25999175751087
 20
-5.511919661750535
 30
0.0
  0
POINT
  5
867
330
785
100
AcDbEntity
  8
DEFPOINTS
 62
     0
100
AcDbPoint
 10
40.80520298010219
 20
-4.621320330995452
 30
0.0
  0
ENDBLK
  5
787
330
785
100
AcDbEntity
  8
0
100
AcDbBlockEnd
  0
BLOCK
  5
78F
330
78E
100
AcDbEntity
  8
0
100
AcDbBlockBegin
  2
*D72
 70
     1
 10
0.0
 20
0.0
 30
0.0
  3
*D72
  1

  0
LINE
  5
868
330
78E
100
AcDbEntity
  8
AM_5
100
AcDbLine
 10
35.30993723591541
 20
-10.29961036738455
 30
0.0
 11
35.30993723591541
 21
-13.73519517446818
 31
0.0
  0
LINE
  5
869
330
78E
100
AcDbEntity
  8
AM_5
100
AcDbLine
 10
34.84812809545201
 20
-4.565868911308416
 30
0.0
 11
34.84812809545201
 21
-13.73519517446818
 31
0.0
  0
LINE
  5
86A
330
78E
100
AcDbEntity
  8
AM_5
100
AcDbLine
 10
35.50993723591542
 20
-13.53519517446818
 30
0.0
 11
35.70993723591541
 21
-13.53519517446818
 31
0.0
  0
LINE
  5
86B
330
78E
100
AcDbEntity
  8
AM_5
100
AcDbLine
 10
34.64812809545201
 20
-13.53519517446818
 30
0.0
 11
34.44812809545201
 21
-13.53519517446818
 31
0.0
  0
LINE
  5
86C
330
78E
100
AcDbEntity
  8
AM_5
100
AcDbLine
 10
35.07903266568372
 20
-13.53519517446818
 30
0.0
 11
36.05416465738957
 21
-15.27365249219769
 31
0.0
  0
LINE
  5
86D
330
78E
100
AcDbEntity
  8
AM_5
100
AcDbLine
 10
36.05416465738957
 20
-15.27365249219769
 30
0.0
 11
37.8274979907229
 21
-15.27365249219769
 31
0.0
  0
MTEXT
  5
86E
330
78E
100
AcDbEntity
  8
AM_5
 62
     2
100
AcDbMText
 10
36.94083132405623
 20
-14.65365249219769
 30
0.0
 40
0.6400000000000002
 41
0.0
 71
     5
 72
     1
  1
0.5
 73
     1
 44
1.0
1001
ACAD
1000
MTEXTBEGIN
1070
    73
1070
     1
1070
    44
1040
1.0
1070
    74
1070
     0
1000
MTEXTEND
  0
LINE
  5
86F
330
78E
100
AcDbEntity
  8
AM_5
100
AcDbLine
 10
35.30993723591541
 20
-13.53519517446818
 30
0.0
 11
34.84812809545201
 21
-13.53519517446818
 31
0.0
  0
LINE
  5
870
330
78E
100
AcDbEntity
  8
AM_5
100
AcDbLine
 10
35.30993723591541
 20
-13.53519517446818
 30
0.0
 11
34.84812809545201
 21
-13.53519517446818
 31
0.0
  0
INSERT
  5
871
330
78E
100
AcDbEntity
  8
AM_5
100
AcDbBlockReference
  2
_DOT
 10
35.30993723591541
 20
-13.53519517446818
 30
0.0
 41
0.2000000000000001
 42
0.2000000000000001
 43
0.2000000000000001
 50
180.0
  0
INSERT
  5
872
330
78E
100
AcDbEntity
  8
AM_5
100
AcDbBlockReference
  2
_DOT
 10
34.84812809545201
 20
-13.53519517446818
 30
0.0
 41
0.2000000000000001
 42
0.2000000000000001
 43
0.2000000000000001
  0
POINT
  5
873
330
78E
100
AcDbEntity
  8
DEFPOINTS
 62
     0
100
AcDbPoint
 10
35.30993723591541
 20
-9.999610367384548
 30
0.0
  0
POINT
  5
874
330
78E
100
AcDbEntity
  8
DEFPOINTS
 62
     0
100
AcDbPoint
 10
34.84812809545201
 20
-4.265868911308416
 30
0.0
  0
POINT
  5
875
330
78E
100
AcDbEntity
  8
DEFPOINTS
 62
     0
100
AcDbPoint
 10
34.84812809545201
 20
-13.53519517446818
 30
0.0
  0
ENDBLK
  5
790
330
78E
100
AcDbEntity
  8
0
100
AcDbBlockEnd
  0
BLOCK
  5
8AC
330
8AB
100
AcDbEntity
  8
0
100
AcDbBlockBegin
  2
*D73
 70
     1
 10
0.0
 20
0.0
 30
0.0
  3
*D73
  1

  0
LINE
  5
901
330
8AB
100
AcDbEntity
  8
0
  6
Continuous
 62
     0
370
    -2
100
AcDbLine
 10
-42.09999619428573
 20
4.53912734643289
 30
0.0
 11
-42.09999619428573
 21
24.54
 31
0.0
  0
LINE
  5
902
330
8AB
100
AcDbEntity
  8
0
  6
Continuous
 62
     0
370
    -2
100
AcDbLine
 10
-29.89999619414092
 20
4.540000000000341
 30
0.0
 11
-29.89999619414092
 21
24.54
 31
0.0
  0
LINE
  5
903
330
8AB
100
AcDbEntity
  8
0
  6
Continuous
 62
     0
370
    -2
100
AcDbLine
 10
-41.09999619428573
 20
22.0
 30
0.0
 11
-30.89999619414092
 21
22.0
 31
0.0
  0
SOLID
  5
904
330
8AB
100
AcDbEntity
  8
0
  6
Continuous
 62
     0
100
AcDbTrace
 10
-41.09999619428573
 20
22.16666666666667
 30
0.0
 11
-41.09999619428573
 21
21.83333333333333
 31
0.0
 12
-42.09999619428573
 22
22.0
 32
0.0
 13
-42.09999619428573
 23
22.0
 33
0.0
  0
SOLID
  5
905
330
8AB
100
AcDbEntity
  8
0
  6
Continuous
 62
     0
100
AcDbTrace
 10
-30.89999619414092
 20
22.16666666666667
 30
0.0
 11
-30.89999619414092
 21
21.83333333333333
 31
0.0
 12
-29.89999619414092
 22
22.0
 32
0.0
 13
-29.89999619414092
 23
22.0
 33
0.0
  0
MTEXT
  5
906
330
8AB
100
AcDbEntity
  8
0
  6
Continuous
 62
     0
100
AcDbMText
 10
-35.99999619421332
 20
25.2
 30
0.0
 40
3.2
 41
0.0
 71
     5
 72
     1
  1
\A1;12.2
 73
     1
 44
1.0
1001
ACAD
1000
MTEXTBEGIN
1070
    73
1070
     1
1070
    44
1040
1.0
1070
    74
1070
     0
1000
MTEXTEND
  0
POINT
  5
907
330
8AB
100
AcDbEntity
  8
DEFPOINTS
  6
Continuous
 62
     0
100
AcDbPoint
 10
-42.09999619428573
 20
1.99912734643289
 30
0.0
  0
POINT
  5
908
330
8AB
100
AcDbEntity
  8
DEFPOINTS
  6
Continuous
 62
     0
100
AcDbPoint
 10
-29.89999619414092
 20
2.000000000000341
 30
0.0
  0
POINT
  5
909
330
8AB
100
AcDbEntity
  8
DEFPOINTS
  6
Continuous
 62
     0
100
AcDbPoint
 10
-29.89999619414092
 20
22.0
 30
0.0
  0
ENDBLK
  5
8AD
330
8AB
100
AcDbEntity
  8
0
100
AcDbBlockEnd
  0
ENDSEC
  0
SECTION
  2
ENTITIES
  0
LINE
  5
A3
330
36
100
AcDbEntity
  8
0
  6
Continuous
 62
     7
100
AcDbLine
 10
170.0
 20
173.0
 30
0.0
 11
170.0
 21
-100.0
 31
0.0
  0
LINE
  5
A4
330
36
100
AcDbEntity
  8
0
  6
Continuous
 62
     7
100
AcDbLine
 10
-211.0
 20
-100.0
 30
0.0
 11
170.0
 21
-100.0
 31
0.0
  0
LINE
  5
A5
330
36
100
AcDbEntity
  8
0
  6
Continuous
 62
     7
100
AcDbLine
 10
-211.0
 20
173.0
 30
0.0
 11
170.0
 21
173.0
 31
0.0
  0
LINE
  5
A6
330
36
100
AcDbEntity
  8
0
  6
Continuous
 62
     7
100
AcDbLine
 10
-211.0
 20
173.0
 30
0.0
 11
-211.0
 21
-100.0
 31
0.0
  0
LINE
  5
A7
330
36
100
AcDbEntity
  8
0
  6
Continuous
 62
     7
100
AcDbLine
 10
-191.0
 20
173.0
 30
0.0
 11
-191.0
 21
77.0
 31
0.0
  0
LINE
  5
A8
330
36
100
AcDbEntity
  8
0
  6
Continuous
 62
     7
100
AcDbLine
 10
-211.0
 20
165.0
 30
0.0
 11
-101.0
 21
165.0
 31
0.0
  0
LINE
  5
A9
330
36
100
AcDbEntity
  8
0
  6
Continuous
 62
     7
100
AcDbLine
 10
-211.0
 20
157.0
 30
0.0
 11
-101.0
 21
157.0
 31
0.0
  0
LINE
  5
AA
330
36
100
AcDbEntity
  8
0
  6
Continuous
 62
     7
100
AcDbLine
 10
-211.0
 20
149.0
 30
0.0
 11
-101.0
 21
149.0
 31
0.0
  0
LINE
  5
AB
330
36
100
AcDbEntity
  8
0
  6
Continuous
 62
     7
100
AcDbLine
 10
-211.0
 20
141.0
 30
0.0
 11
-101.0
 21
141.0
 31
0.0
  0
LINE
  5
AC
330
36
100
AcDbEntity
  8
0
  6
Continuous
 62
     7
100
AcDbLine
 10
-191.0
 20
117.0
 30
0.0
 11
-101.0
 21
117.0
 31
0.0
  0
LINE
  5
AD
330
36
100
AcDbEntity
  8
0
  6
Continuous
 62
     7
100
AcDbLine
 10
-191.0
 20
109.0
 30
0.0
 11
-101.0
 21
109.0
 31
0.0
  0
LINE
  5
AE
330
36
100
AcDbEntity
  8
0
  6
Continuous
 62
     7
100
AcDbLine
 10
-211.0
 20
101.0
 30
0.0
 11
-101.0
 21
101.0
 31
0.0
  0
LINE
  5
AF
330
36
100
AcDbEntity
  8
0
  6
Continuous
 62
     7
100
AcDbLine
 10
-191.0
 20
93.0
 30
0.0
 11
-101.0
 21
93.0
 31
0.0
  0
LINE
  5
B0
330
36
100
AcDbEntity
  8
0
  6
Continuous
 62
     7
100
AcDbLine
 10
-191.0
 20
85.0
 30
0.0
 11
-101.0
 21
85.0
 31
0.0
  0
LINE
  5
B1
330
36
100
AcDbEntity
  8
0
  6
Continuous
 62
     7
100
AcDbLine
 10
-211.0
 20
77.0
 30
0.0
 11
-101.0
 21
77.0
 31
0.0
  0
LINE
  5
B2
330
36
100
AcDbEntity
  8
0
  6
Continuous
 62
     7
100
AcDbLine
 10
-211.0
 20
173.0
 30
0.0
 11
-211.0
 21
77.0
 31
0.0
  0
LINE
  5
B3
330
36
100
AcDbEntity
  8
0
  6
Continuous
 62
     7
100
AcDbLine
 10
-211.0
 20
173.0
 30
0.0
 11
-101.0
 21
173.0
 31
0.0
  0
LINE
  5
B4
330
36
100
AcDbEntity
  8
0
  6
Continuous
 62
     7
100
AcDbLine
 10
-101.0
 20
173.0
 30
0.0
 11
-101.0
 21
77.0
 31
0.0
  0
LINE
  5
B5
330
36
100
AcDbEntity
  8
0
  6
Continuous
 62
     7
100
AcDbLine
 10
-211.0
 20
133.0
 30
0.0
 11
-101.0
 21
133.0
 31
0.0
  0
LINE
  5
B6
330
36
100
AcDbEntity
  8
0
  6
Continuous
 62
     7
100
AcDbLine
 10
-211.0
 20
125.0
 30
0.0
 11
-101.0
 21
125.0
 31
0.0
  0
LINE
  5
B7
330
36
100
AcDbEntity
  8
0
  6
Continuous
 62
     7
100
AcDbLine
 10
-191.0
 20
117.0
 30
0.0
 11
-101.0
 21
117.0
 31
0.0
  0
TEXT
  5
EB
330
36
100
AcDbEntity
  8
0
  6
Continuous
 62
     7
100
AcDbText
 10
-205.343
 20
167.4
 30
0.0
 40
3.2
  1
品　名
 41
0.85537027
100
AcDbText
  0
TEXT
  5
EC
330
36
100
AcDbEntity
  8
0
  6
Continuous
 62
     7
100
AcDbText
 10
-205.343
 20
159.4
 30
0.0
 40
3.2
  1
品　番
 41
0.85537027
100
AcDbText
  0
TEXT
  5
ED
330
36
100
AcDbEntity
  8
0
  6
Continuous
 62
     7
100
AcDbText
 10
-188.143
 20
87.4
 30
0.0
 40
3.2
  1
＊
 41
0.90047268
100
AcDbText
  0
TEXT
  5
EE
330
36
100
AcDbEntity
  8
0
  6
Continuous
 62
     7
100
AcDbText
 10
-188.143
 20
79.40000000000002
 30
0.0
 40
3.2
  1
＊
 41
0.90047268
100
AcDbText
  0
TEXT
  5
EF
330
36
100
AcDbEntity
  8
0
  6
Continuous
 62
     7
100
AcDbText
 10
-205.343
 20
151.4
 30
0.0
 40
3.2
  1
材　質
 41
0.85537027
100
AcDbText
  0
TEXT
  5
F0
330
36
100
AcDbEntity
  8
0
  6
Continuous
 62
     7
100
AcDbText
 10
-205.343
 20
143.4
 30
0.0
 40
3.2
  1
仕上げ
 41
0.85537027
100
AcDbText
  0
TEXT
  5
F1
330
36
100
AcDbEntity
  8
0
  6
Continuous
 62
     7
100
AcDbText
 10
-188.143
 20
103.4
 30
0.0
 40
3.2
  1
＊
 41
0.90047268
100
AcDbText
  0
TEXT
  5
F2
330
36
100
AcDbEntity
  8
0
  6
Continuous
 62
     7
100
AcDbText
 10
-188.143
 20
111.4
 30
0.0
 40
3.2
  1
＊
 41
0.90047268
100
AcDbText
  0
TEXT
  5
F3
330
36
100
AcDbEntity
  8
0
  6
Continuous
 62
     7
100
AcDbText
 10
-208.543
 20
119.4
 30
0.0
 40
3.2
  1
セットビス
 41
0.84892707
100
AcDbText
  0
TEXT
  5
F4
330
36
100
AcDbEntity
  8
0
  6
Continuous
 62
     7
100
AcDbText
 10
-188.143
 20
119.4
 30
0.0
 40
3.2
  1
＊
 41
0.90047268
100
AcDbText
  0
TEXT
  5
F5
330
36
100
AcDbEntity
  8
0
  6
Continuous
 62
     7
100
AcDbText
 10
-203.743
 20
95.4
 30
0.0
 40
3.2
  1
備考
 41
0.8643907499999999
100
AcDbText
  0
TEXT
  5
F6
330
36
100
AcDbEntity
  8
0
  6
Continuous
 62
     7
100
AcDbText
 10
-205.343
 20
135.4
 30
0.0
 40
3.2
  1
定　尺
 41
0.85537027
100
AcDbText
  0
TEXT
  5
F7
330
36
100
AcDbEntity
  8
0
  6
Continuous
 62
     7
100
AcDbText
 10
-206.943
 20
127.4
 30
0.0
 40
3.2
  1
左右勝手
 41
0.8512700499999999
100
AcDbText
  0
TEXT
  5
F8
330
36
100
AcDbEntity
  8
0
  6
Continuous
 62
     7
100
AcDbText
 10
-188.37855
 20
134.96998
 30
0.0
 40
3.2
  1
２０００ｍｍ、４０００ｍｍ
 41
0.8423746600000001
100
AcDbText
  0
TEXT
  5
F9
330
36
100
AcDbEntity
  8
0
  6
Continuous
 62
     7
100
AcDbText
 10
-188.143
 20
167.4
 30
0.0
 40
3.2
  1
ディグレール
 41
0.84741102
100
AcDbText
  0
TEXT
  5
FA
330
36
100
AcDbEntity
  8
0
  6
Continuous
 62
     7
100
AcDbText
 10
-188.143
 20
159.4
 30
0.0
 40
3.2
  1
ＳＲ－７－１２
 41
0.84634979
100
AcDbText
  0
TEXT
  5
FB
330
36
100
AcDbEntity
  8
0
  6
Continuous
 62
     7
100
AcDbText
 10
-188.143
 20
151.4
 30
0.0
 40
3.2
  1
アルミ
 41
0.85537027
100
AcDbText
  0
TEXT
  5
FC
330
36
100
AcDbEntity
  8
0
  6
Continuous
 62
     7
100
AcDbText
 10
-188.143
 20
143.4
 30
0.0
 40
3.2
  1
アルマイト（シルバー）
 41
0.8428951399999997
100
AcDbText
  0
TEXT
  5
FD
330
36
100
AcDbEntity
  8
0
  6
Continuous
 62
     7
100
AcDbText
 10
-188.37855
 20
127.36617
 30
0.0
 40
3.2
  1
＊
 41
0.90047268
100
AcDbText
  0
DIMENSION
  5
FE
330
36
100
AcDbEntity
  8
0
  6
Continuous
 62
     7
100
AcDbDimension
  2
*D1
 10
-52.0
 20
-10.0
 30
0.0
 11
-52.0
 21
-4.0
 31
0.0
 71
     5
 42
-1.0
  3
DIMSTYLE
100
AcDbAlignedDimension
 13
-42.0
 23
2.0
 33
0.0
 14
-41.43453599999999
 24
-10.0
 34
0.0
 50
90.0
100
AcDbRotatedDimension
1001
ACAD
1000
DSTYLE
1002
{
1070
    77
1070
     1
1070
   172
1070
     1
1002
}
  0
DIMENSION
  5
FF
330
36
100
AcDbEntity
  8
0
  6
Continuous
 62
     7
100
AcDbDimension
  2
*D2
 10
-31.500002
 20
12.0
 30
0.0
 11
-36.0
 21
12.0
 31
0.0
 71
     5
 42
-1.0
  3
DIMSTYLE
100
AcDbAlignedDimension
 13
-40.49999999999999
 23
2.000000699999999
 33
0.0
 14
-31.500002
 24
2.0
 34
0.0
100
AcDbRotatedDimension
1001
ACAD
1000
DSTYLE
1002
{
1070
    77
1070
     1
1070
   172
1070
     1
1002
}
  0
DIMENSION
  5
100
330
36
100
AcDbEntity
  8
0
  6
Continuous
 62
     7
100
AcDbDimension
  2
*D73
 10
-29.89999619414092
 20
22.0
 30
0.0
 11
-35.99999619421332
 21
25.2
 31
0.0
 70
    32
  1
<>
 71
     5
 42
12.20000000014481
  3
DIMSTYLE
100
AcDbAlignedDimension
 13
-42.09999619428573
 23
1.99912734643289
 33
0.0
 14
-29.89999619414092
 24
2.000000000000341
 34
0.0
100
AcDbRotatedDimension
1001
ACAD_DSTYLE_DIMINSPECT
1070
   396
1000
100%
1070
   395
1000

1070
   394
1070
    33
1070
   393
1070
     0
1001
ACAD
1000
DSTYLE
1002
{
1070
    77
1070
     1
1070
   172
1070
     1
1070
   271
1070
     1
1002
}
  0
DIMENSION
  5
101
330
36
100
AcDbEntity
  8
0
  6
Continuous
 62
     7
100
AcDbDimension
  2
*D4
 10
-11.594572
 20
21.90543
 30
0.0
 11
-36.0
 21
32.014488
 31
0.0
 70
     5
 71
     5
 42
-1.0
  3
DIMSTYLE
100
AcDb3PointAngularDimension
 13
-31.5
 23
2.000000699999999
 33
0.0
 14
-40.49999999999999
 24
2.000000699999999
 34
0.0
 15
-36.0
 25
-2.499998799999999
 35
0.0
1001
ACAD
1000
DSTYLE
1002
{
1070
    77
1070
     1
1070
   172
1070
     1
1002
}
  0
DIMENSION
  5
102
330
36
100
AcDbEntity
  8
0
  6
Continuous
 62
     7
100
AcDbDimension
  2
*D5
 10
-15.0
 20
-5.621319299999998
 30
0.0
 11
-15.0
 21
-12.538893
 31
0.0
 71
     5
 42
-1.0
  3
DIMSTYLE
100
AcDbAlignedDimension
 13
-30.0
 23
2.0
 33
0.0
 14
-36.0
 24
-5.621319299999998
 34
0.0
 50
90.0
100
AcDbRotatedDimension
1001
ACAD
1000
DSTYLE
1002
{
1070
    77
1070
     1
1070
   172
1070
     1
1002
}
  0
DIMENSION
  5
103
330
36
100
AcDbEntity
  8
0
  6
Continuous
 62
     7
100
AcDbDimension
  2
*D6
 10
-33.5
 20
-25.0
 30
0.0
 11
-36.0
 21
-25.0
 31
0.0
 71
     5
 42
-1.0
  3
DIMSTYLE
100
AcDbAlignedDimension
 13
-38.5
 23
-10.0
 33
0.0
 14
-33.5
 24
-10.0
 34
0.0
100
AcDbRotatedDimension
1001
ACAD
1000
DSTYLE
1002
{
1070
    77
1070
     1
1070
   172
1070
     1
1002
}
  0
DIMENSION
  5
104
330
36
100
AcDbEntity
  8
0
  6
Continuous
 62
     7
100
AcDbDimension
  2
*D7
 10
-32.0
 20
-35.0
 30
0.0
 11
-36.0
 21
-35.0
 31
0.0
 71
     5
 42
-1.0
  3
DIMSTYLE
100
AcDbAlignedDimension
 13
-40.0
 23
-8.5
 33
0.0
 14
-32.0
 24
-8.5
 34
0.0
100
AcDbRotatedDimension
1001
ACAD
1000
DSTYLE
1002
{
1070
    77
1070
     1
1070
   172
1070
     1
1002
}
  0
LINE
  5
876
330
36
100
AcDbEntity
  8
AM_0
100
AcDbLine
 10
-32.00000000197948
 20
-8.5
 30
0.0
 11
-32.00000000197937
 21
-4.449747448098378
 31
0.0
  0
LINE
  5
877
330
36
100
AcDbEntity
  8
AM_0
100
AcDbLine
 10
-40.00000001727638
 20
-8.5
 30
0.0
 11
-40.00000001527777
 21
-4.449747452534438
 31
0.0
  0
ARC
  5
878
330
36
100
AcDbEntity
  8
AM_0
100
AcDbCircle
 10
-30.24524481825139
 20
-5.699575407410975
 30
0.0
 40
0.2
100
AcDbArc
 50
341.1163602033837
 51
90.00771063367771
  0
ARC
  5
879
330
36
100
AcDbEntity
  8
AM_0
100
AcDbCircle
 10
-41.75474996107251
 20
-5.70113504526023
 30
0.0
 40
0.2
100
AcDbArc
 50
90.0
 51
198.8844469741477
  0
LINE
  5
87A
330
36
100
AcDbEntity
  8
AM_0
100
AcDbLine
 10
-41.52143307037371
 20
-7.001133297205569
 30
0.0
 11
-41.94398461144097
 21
-5.765867163253915
 31
0.0
  0
LINE
  5
87B
330
36
100
AcDbEntity
  8
AM_0
100
AcDbLine
 10
-41.74165967464144
 20
-7.001133297205569
 30
0.0
 11
-41.52143307037371
 21
-7.001133297205569
 31
0.0
  0
LINE
  5
87C
330
36
100
AcDbEntity
  8
AM_0
100
AcDbLine
 10
-41.50834278394264
 20
-8.501131549150954
 30
0.0
 11
-41.93089432500991
 21
-7.2658654151993
 31
0.0
  0
ARC
  5
87D
330
36
100
AcDbEntity
  8
AM_0
100
AcDbCircle
 10
-41.74165967464144
 20
-7.201133297205615
 30
0.0
 40
0.2
100
AcDbArc
 50
90.0
 51
198.8844469741477
  0
LINE
  5
87E
330
36
100
AcDbEntity
  8
AM_0
100
AcDbLine
 10
-41.72847989696887
 20
-8.501131549150954
 30
0.0
 11
-41.50834278394264
 21
-8.501131549150954
 31
0.0
  0
LINE
  5
87F
330
36
100
AcDbEntity
  8
AM_0
100
AcDbLine
 10
-41.49526575740875
 20
-9.999610367384434
 30
0.0
 11
-41.9176949527941
 21
-8.765920920571375
 31
0.0
  0
ARC
  5
880
330
36
100
AcDbEntity
  8
AM_0
100
AcDbCircle
 10
-41.72847989696887
 20
-8.701131549151
 30
0.0
 40
0.2
100
AcDbArc
 50
90.0
 51
198.9017828559757
  0
LINE
  5
881
330
36
100
AcDbEntity
  8
AM_0
100
AcDbLine
 10
-38.50000001851034
 20
-10.0
 30
0.0
 11
-41.49526575740875
 21
-9.999610367384548
 31
0.0
  0
LINE
  5
882
330
36
100
AcDbEntity
  8
AM_0
100
AcDbLine
 10
-38.50000001851034
 20
-8.5
 30
0.0
 11
-40.00000001727638
 21
-8.5
 31
0.0
  0
LINE
  5
883
330
36
100
AcDbEntity
  8
AM_0
100
AcDbLine
 10
-38.50000001851034
 20
-10.0
 30
0.0
 11
-38.50000001851034
 21
-8.5
 31
0.0
  0
LINE
  5
884
330
36
100
AcDbEntity
  8
AM_0
100
AcDbLine
 10
-30.47855361219373
 20
-6.999606816934601
 30
0.0
 11
-30.0560092559618
 21
-5.764304859478329
 31
0.0
  0
LINE
  5
885
330
36
100
AcDbEntity
  8
AM_0
100
AcDbLine
 10
-30.25836205061872
 20
-6.99957718444682
 30
0.0
 11
-30.47855361219373
 21
-6.999606816934601
 31
0.0
  0
LINE
  5
886
330
36
100
AcDbEntity
  8
AM_0
100
AcDbLine
 10
-30.49164392937197
 20
-8.499608592159461
 30
0.0
 11
-30.06909957314016
 21
-7.264306634703075
 31
0.0
  0
ARC
  5
887
330
36
100
AcDbEntity
  8
AM_0
100
AcDbCircle
 10
-30.25833513542974
 20
-7.199577182635721
 30
0.0
 40
0.2
100
AcDbArc
 50
341.1163602033837
 51
90.00771063367771
  0
LINE
  5
888
330
36
100
AcDbEntity
  8
AM_0
100
AcDbLine
 10
-30.27141257198101
 20
-8.499541301545036
 30
0.0
 11
-30.49162091210959
 21
-8.49954130154515
 31
0.0
  0
LINE
  5
889
330
36
100
AcDbEntity
  8
AM_0
100
AcDbLine
 10
-30.50473424655021
 20
-9.999610367384434
 30
0.0
 11
-30.08217700969143
 21
-8.764270753612436
 31
0.0
  0
ARC
  5
88A
330
36
100
AcDbEntity
  8
AM_0
100
AcDbCircle
 10
-30.27141257198101
 20
-8.699541301545082
 30
0.0
 40
0.2
100
AcDbArc
 50
341.1163602033897
 51
89.99999999998697
  0
LINE
  5
88B
330
36
100
AcDbEntity
  8
AM_0
100
AcDbLine
 10
-33.50000000197948
 20
-10.0
 30
0.0
 11
-30.50473424655021
 21
-9.999610367384434
 31
0.0
  0
LINE
  5
88C
330
36
100
AcDbEntity
  8
AM_0
100
AcDbLine
 10
-33.50000000197948
 20
-8.5
 30
0.0
 11
-32.00000000197948
 21
-8.5
 31
0.0
  0
LINE
  5
88D
330
36
100
AcDbEntity
  8
AM_0
100
AcDbLine
 10
-33.50000000197948
 20
-10.0
 30
0.0
 11
-33.50000000197948
 21
-8.5
 31
0.0
  0
LINE
  5
88E
330
36
100
AcDbEntity
  8
AM_0
100
AcDbLine
 10
-42.0607229688596
 20
-2.501138541369414
 30
0.0
 11
-42.06072355609452
 21
-2.501071250913242
 31
0.0
  0
LINE
  5
88F
330
36
100
AcDbEntity
  8
AM_0
100
AcDbLine
 10
-42.10000380981804
 20
2.000000000000681
 30
0.0
 11
-42.07818664034115
 21
-0.5000000000000005
 31
0.0
  0
LINE
  5
890
330
36
100
AcDbEntity
  8
AM_0
100
AcDbLine
 10
-42.06953527189894
 20
-1.491348631557798
 30
0.0
 11
-42.0607229688596
 21
-2.501138541369414
 31
0.0
  0
LINE
  5
891
330
36
100
AcDbEntity
  8
AM_0
100
AcDbLine
 10
-41.57818664034115
 20
-1.0
 30
0.0
 11
-42.06953527189894
 21
-1.491348631557798
 31
0.0
  0
LINE
  5
892
330
36
100
AcDbEntity
  8
AM_0
100
AcDbLine
 10
-42.07818664034115
 20
-0.5000000000000005
 30
0.0
 11
-41.57818664034115
 21
-1.0
 31
0.0
  0
LINE
  5
893
330
36
100
AcDbEntity
  8
AM_0
100
AcDbLine
 10
-41.76784024750369
 20
-4.001136793314685
 30
0.0
 11
-41.54761364323572
 21
-4.001136793314799
 31
0.0
  0
LINE
  5
894
330
36
100
AcDbEntity
  8
AM_0
100
AcDbLine
 10
-41.53452335680477
 20
-5.501135045260184
 30
0.0
 11
-41.95707489787215
 21
-4.265868911308416
 31
0.0
  0
ARC
  5
895
330
36
100
AcDbEntity
  8
AM_0
100
AcDbCircle
 10
-41.76784024750369
 20
-4.201136793314731
 30
0.0
 40
0.2
100
AcDbArc
 50
90.0
 51
198.8844469741477
  0
LINE
  5
896
330
36
100
AcDbEntity
  8
AM_0
100
AcDbLine
 10
-41.75474996107251
 20
-5.501135045260184
 30
0.0
 11
-41.53452335680477
 21
-5.501135045260184
 31
0.0
  0
LINE
  5
897
330
36
100
AcDbEntity
  8
AM_0
100
AcDbLine
 10
-41.54761364323572
 20
-4.001136793314799
 30
0.0
 11
-42.0607229688596
 21
-2.501138541369414
 31
0.0
  0
LINE
  5
898
330
36
100
AcDbEntity
  8
AM_0
100
AcDbLine
 10
-40.49999999999985
 20
1.999999999999999
 30
0.0
 11
-42.10000380981804
 21
2.000000000000681
 31
0.0
  0
LINE
  5
899
330
36
100
AcDbEntity
  8
AM_0
100
AcDbLine
 10
-30.03926684206848
 20
-2.499534200645712
 30
0.0
 11
-30.03926684206848
 21
-2.499534200645712
 31
0.0
  0
LINE
  5
89A
330
36
100
AcDbEntity
  8
AM_0
100
AcDbLine
 10
-29.89999619414092
 20
1.999999999999999
 30
0.0
 11
-29.92181336361781
 21
-0.5000000000000005
 31
0.0
  0
LINE
  5
89B
330
36
100
AcDbEntity
  8
AM_0
100
AcDbLine
 10
-29.93045779492157
 20
-1.490553714245152
 30
0.0
 11
-29.93926303422992
 21
-2.499534200645712
 31
0.0
  0
LINE
  5
89C
330
36
100
AcDbEntity
  8
AM_0
100
AcDbLine
 10
-30.42141243639238
 20
-0.9995990727745724
 30
0.0
 11
-29.93045779492169
 21
-1.490553714245266
 31
0.0
  0
LINE
  5
89D
330
36
100
AcDbEntity
  8
AM_0
100
AcDbLine
 10
-29.92181336361781
 20
-0.5000000000000005
 30
0.0
 11
-30.42141243639238
 21
-0.9995990727745724
 31
0.0
  0
LINE
  5
89E
330
36
100
AcDbEntity
  8
AM_0
100
AcDbLine
 10
-30.22958195017142
 20
-3.997352218995616
 30
0.0
 11
-30.45233636866313
 21
-3.995408270635721
 31
0.0
  0
LINE
  5
89F
330
36
100
AcDbEntity
  8
AM_0
100
AcDbLine
 10
-30.46546329501549
 20
-5.499605041709742
 30
0.0
 11
-30.04209472893327
 21
-4.262082924708352
 31
0.0
  0
ARC
  5
8A0
330
36
100
AcDbEntity
  8
AM_0
100
AcDbCircle
 10
-30.2313272572712
 20
-4.197344603608485
 30
0.0
 40
0.2
100
AcDbArc
 50
341.1136748613836
 51
89.49999999998238
  0
LINE
  5
8A1
330
36
100
AcDbEntity
  8
AM_0
100
AcDbLine
 10
-30.24527173344037
 20
-5.499575409222074
 30
0.0
 11
-30.46546329501549
 21
-5.499605041709742
 31
0.0
  0
LINE
  5
8A2
330
36
100
AcDbEntity
  8
AM_0
100
AcDbLine
 10
-30.45233636866313
 20
-3.995408270635721
 30
0.0
 11
-29.93926303422992
 21
-2.499534200645712
 31
0.0
  0
LINE
  5
8A3
330
36
100
AcDbEntity
  8
AM_0
100
AcDbLine
 10
-31.50000000000008
 20
1.999999999999999
 30
0.0
 11
-29.89999619414092
 21
1.999999999999999
 31
0.0
  0
LINE
  5
8A4
330
36
100
AcDbEntity
  8
AM_0
100
AcDbLine
 10
-40.49999999999985
 20
1.999999999999999
 30
0.0
 11
-36.00000000740416
 21
-2.49999999259569
 31
0.0
  0
LINE
  5
8A5
330
36
100
AcDbEntity
  8
AM_0
100
AcDbLine
 10
-36.00000000740416
 20
-2.49999999259569
 30
0.0
 11
-31.50000001480847
 21
1.999999999999999
 31
0.0
  0
LINE
  5
8A6
330
36
100
AcDbEntity
  8
AM_0
100
AcDbLine
 10
-38.29289323409122
 20
-3.7426406718414
 30
0.0
 11
-36.70710679440796
 21
-5.328427112180747
 31
0.0
  0
LINE
  5
8A7
330
36
100
AcDbEntity
  8
AM_0
100
AcDbLine
 10
-35.29289323269117
 20
-5.328427112837061
 30
0.0
 11
-33.70710678250961
 21
-3.742640666255511
 31
0.0
  0
ARC
  5
8A8
330
36
100
AcDbEntity
  8
AM_0
100
AcDbCircle
 10
-39.00000001527777
 20
-4.449747453027953
 30
0.0
 40
1.0
100
AcDbArc
 50
45.00000000000002
 51
179.9999999717237
  0
ARC
  5
8A9
330
36
100
AcDbEntity
  8
AM_0
100
AcDbCircle
 10
-33.00000000197937
 20
-4.449747448098378
 30
0.0
 40
1.0
100
AcDbArc
 50
0.0
 51
134.9999999468198
  0
ARC
  5
8AA
330
36
100
AcDbEntity
  8
AM_0
100
AcDbCircle
 10
-36.0000000132214
 20
-4.621320330994194
 30
0.0
 40
1.0
100
AcDbArc
 50
225.0
 51
314.9999999468199
  0
ENDSEC
  0
SECTION
  2
OBJECTS
  0
DICTIONARY
  5
C
330
0
100
AcDbDictionary
281
     1
  3
ACAD_2007HEADERVARS_RT
350
93E
  3
ACAD_COLOR
350
2F
  3
ACAD_GROUP
350
D
  3
ACAD_LAYOUT
350
2E
  3
ACAD_MATERIAL
350
10
  3
ACAD_MLEADERSTYLE
350
273
  3
ACAD_MLINESTYLE
350
2B
  3
ACAD_PLOTSETTINGS
350
2D
  3
ACAD_PLOTSTYLENAME
350
E
  3
ACAD_SCALELIST
350
251
  3
ACAD_TABLESTYLE
350
30
  3
ACAD_VISUALSTYLE
350
14
  3
ACDB_RECOMPOSE_DATA
350
93C
  3
AcDbVariableDictionary
350
1C1
  3
AcmDictionary
350
15F
  3
AMG
350
106
  3
AMGSNAPSETTINGS
350
1BA
  3
DWGPROPS
350
93D
  0
DICTIONARY
  5
3CC
330
2
100
AcDbDictionary
280
     1
281
     1
  3
ACAD_LAYERSTATES
360
3CD
  0
DICTIONARY
  5
926
330
25
100
AcDbDictionary
280
     1
281
     1
  3
ADSK_XREC_LAYER_RECONCILED
360
927
  0
DICTIONARY
  5
928
330
3F
100
AcDbDictionary
280
     1
281
     1
  3
ADSK_XREC_LAYER_RECONCILED
360
929
  0
DICTIONARY
  5
92A
330
40
100
AcDbDictionary
280
     1
281
     1
  3
ADSK_XREC_LAYER_RECONCILED
360
92B
  0
DICTIONARY
  5
92C
330
3B7
100
AcDbDictionary
280
     1
281
     1
  3
ADSK_XREC_LAYER_RECONCILED
360
92D
  0
DICTIONARY
  5
92E
330
3B8
100
AcDbDictionary
280
     1
281
     1
  3
ADSK_XREC_LAYER_RECONCILED
360
92F
  0
DICTIONARY
  5
930
330
3B9
100
AcDbDictionary
280
     1
281
     1
  3
ADSK_XREC_LAYER_RECONCILED
360
931
  0
DICTIONARY
  5
932
330
3BA
100
AcDbDictionary
280
     1
281
     1
  3
ADSK_XREC_LAYER_RECONCILED
360
933
  0
DICTIONARY
  5
934
330
3BB
100
AcDbDictionary
280
     1
281
     1
  3
ADSK_XREC_LAYER_RECONCILED
360
935
  0
DICTIONARY
  5
936
330
588
100
AcDbDictionary
280
     1
281
     1
  3
ADSK_XREC_LAYER_RECONCILED
360
937
  0
DICTIONARY
  5
93E
102
{ACAD_REACTORS
330
C
102
}
330
C
100
AcDbDictionary
281
     1
  3
DIMARCSYM
350
93F
  0
DICTIONARY
  5
2F
102
{ACAD_REACTORS
330
C
102
}
330
C
100
AcDbDictionary
281
     1
  0
DICTIONARY
  5
D
102
{ACAD_REACTORS
330
C
102
}
330
C
100
AcDbDictionary
281
     1
  0
DICTIONARY
  5
2E
102
{ACAD_REACTORS
330
C
102
}
330
C
100
AcDbDictionary
281
     1
  3
Model
350
39
  3
レイアウト1
350
35
  0
DICTIONARY
  5
10
102
{ACAD_REACTORS
330
C
102
}
330
C
100
AcDbDictionary
281
     1
  3
ByBlock
350
12
  3
ByLayer
350
11
  3
Global
350
13
  0
DICTIONARY
  5
273
102
{ACAD_REACTORS
330
C
102
}
330
C
100
AcDbDictionary
281
     1
  3
Standard
350
274
  0
DICTIONARY
  5
2B
102
{ACAD_REACTORS
330
C
102
}
330
C
100
AcDbDictionary
281
     1
  3
Standard
350
2C
  0
DICTIONARY
  5
2D
102
{ACAD_REACTORS
330
C
102
}
330
C
100
AcDbDictionary
281
     1
  0
ACDBDICTIONARYWDFLT
  5
E
102
{ACAD_REACTORS
330
C
102
}
330
C
100
AcDbDictionary
281
     1
  3
Normal
350
F
100
AcDbDictionaryWithDefault
340
F
  0
DICTIONARY
  5
251
102
{ACAD_REACTORS
330
C
102
}
330
C
100
AcDbDictionary
281
     1
  3
A0
350
252
  3
A1
350
253
  3
A2
350
254
  3
A3
350
255
  3
A4
350
256
  3
A5
350
257
  3
A6
350
258
  3
A7
350
259
  3
A8
350
25A
  3
A9
350
25B
  3
B0
350
25C
  3
B1
350
25D
  3
B2
350
25E
  3
B3
350
25F
  3
B4
350
260
  3
B5
350
261
  3
B6
350
262
  3
B7
350
263
  3
B8
350
264
  3
B9
350
265
  3
C0
350
266
  3
C1
350
267
  3
C2
350
268
  3
C3
350
269
  3
C4
350
26A
  3
C5
350
26B
  3
C6
350
26C
  3
C7
350
26D
  3
C8
350
26E
  3
C9
350
26F
  3
D0
350
270
  3
D1
350
271
  3
D2
350
272
  0
DICTIONARY
  5
30
102
{ACAD_REACTORS
330
C
102
}
330
C
100
AcDbDictionary
281
     1
  3
Standard
350
31
  0
DICTIONARY
  5
14
102
{ACAD_REACTORS
330
C
102
}
330
C
100
AcDbDictionary
281
     1
  3
2dWireframe
350
1A
  3
3D Hidden
350
1C
  3
3dWireframe
350
1B
  3
Basic
350
19
  3
Brighten
350
20
  3
ColorChange
350
24
  3
Conceptual
350
1D
  3
Dim
350
1F
  3
Facepattern
350
23
  3
Flat
350
15
  3
FlatWithEdges
350
16
  3
Gouraud
350
17
  3
GouraudWithEdges
350
18
  3
Linepattern
350
22
  3
Realistic
350
1E
  3
Thicken
350
21
  0
XRECORD
  5
93C
102
{ACAD_REACTORS
330
C
102
}
330
C
100
AcDbXrecord
280
     1
 90
        1
330
31
  0
DICTIONARY
  5
1C1
102
{ACAD_REACTORS
330
C
102
}
330
C
100
AcDbDictionary
281
     1
  3
CANNOSCALE
350
939
  3
CMLEADERSTYLE
350
938
  3
CTABLESTYLE
350
1C2
  3
DIMASSOC
350
1C5
  3
INDEXCTL
350
1C4
  3
SORTENTS
350
1C3
  0
DICTIONARY
  5
15F
102
{ACAD_REACTORS
330
C
102
}
330
C
100
AcDbDictionary
281
     1
  3
AcmStdDictionary
350
16A
  3
AMDTSECTSYM_ARROWCOLOR
350
18B
  0
DICTIONARY
  5
106
102
{ACAD_REACTORS
330
C
102
}
330
C
100
AcDbDictionary
281
     1
  0
DICTIONARY
  5
1BA
102
{ACAD_REACTORS
330
C
102
}
330
C
100
AcDbDictionary
281
     1
  0
XRECORD
  5
93D
102
{ACAD_REACTORS
330
C
102
}
330
C
100
AcDbXrecord
280
     1
  1
DWGPROPS COOKIE
  2

  3

  4

  6

  7

  8
Administrator
  9

300
=
301
=
302
=
303
=
304
=
305
=
306
=
307
=
308
=
309
=
 40
0.1600878935185185
 41
2454217.695853218
 42
2455078.604339734
  1

 90
        0
  0
DICTIONARY
  5
3CD
102
{ACAD_REACTORS
330
3CC
102
}
330
3CC
100
AcDbDictionary
281
     1
  0
XRECORD
  5
927
102
{ACAD_REACTORS
330
926
102
}
330
926
100
AcDbXrecord
280
     1
290
     1
  0
XRECORD
  5
929
102
{ACAD_REACTORS
330
928
102
}
330
928
100
AcDbXrecord
280
     1
290
     1
  0
XRECORD
  5
92B
102
{ACAD_REACTORS
330
92A
102
}
330
92A
100
AcDbXrecord
280
     1
290
     1
  0
XRECORD
  5
92D
102
{ACAD_REACTORS
330
92C
102
}
330
92C
100
AcDbXrecord
280
     1
290
     1
  0
XRECORD
  5
92F
102
{ACAD_REACTORS
330
92E
102
}
330
92E
100
AcDbXrecord
280
     1
290
     1
  0
XRECORD
  5
931
102
{ACAD_REACTORS
330
930
102
}
330
930
100
AcDbXrecord
280
     1
290
     1
  0
XRECORD
  5
933
102
{ACAD_REACTORS
330
932
102
}
330
932
100
AcDbXrecord
280
     1
290
     1
  0
XRECORD
  5
935
102
{ACAD_REACTORS
330
934
102
}
330
934
100
AcDbXrecord
280
     1
290
     1
  0
XRECORD
  5
937
102
{ACAD_REACTORS
330
936
102
}
330
936
100
AcDbXrecord
280
     1
290
     1
  0
XRECORD
  5
93F
102
{ACAD_REACTORS
330
93E
102
}
330
93E
100
AcDbXrecord
280
     1
 70
     1
  0
LAYOUT
  5
39
102
{ACAD_XDICTIONARY
360
943
102
}
102
{ACAD_REACTORS
330
2E
102
}
330
2E
100
AcDbPlotSettings
  1

  2
\\CAD-SRV01\FX DocuColor 1250 PLW
  4

  6

 40
0.0
 41
0.0
 42
0.0
 43
0.0
 44
0.0
 45
0.0
 46
0.0
 47
0.0
 48
0.0
 49
0.0
140
0.0
141
0.0
142
1.0
143
1.0
 70
  1712
 72
     0
 73
     0
 74
     0
  7

 75
     0
147
1.0
148
0.0
149
0.0
100
AcDbLayout
  1
Model
 70
     1
 71
     0
 10
0.0
 20
0.0
 11
12.0
 21
9.0
 12
0.0
 22
0.0
 32
0.0
 14
0.0
 24
0.0
 34
0.0
 15
0.0
 25
0.0
 35
0.0
146
0.0
 13
0.0
 23
0.0
 33
0.0
 16
1.0
 26
0.0
 36
0.0
 17
0.0
 27
1.0
 37
0.0
 76
     0
330
36
331
45
  0
LAYOUT
  5
35
102
{ACAD_XDICTIONARY
360
941
102
}
102
{ACAD_REACTORS
330
2E
102
}
330
2E
100
AcDbPlotSettings
  1

  2
\\CAD-SRV01\FX DocuColor 1250 PLW
  4

  6

 40
0.0
 41
0.0
 42
0.0
 43
0.0
 44
0.0
 45
0.0
 46
0.0
 47
0.0
 48
0.0
 49
0.0
140
0.0
141
0.0
142
1.0
143
1.0
 70
   688
 72
     0
 73
     0
 74
     5
  7

 75
    16
147
1.0
148
0.0
149
0.0
100
AcDbLayout
  1
レイアウト1
 70
     1
 71
     1
 10
-211.0
 20
-100.0
 11
170.0
 21
173.0
 12
0.0
 22
0.0
 32
0.0
 14
1.000000000000000E+20
 24
1.000000000000000E+20
 34
1.000000000000000E+20
 15
-1.000000000000000E+20
 25
-1.000000000000000E+20
 35
-1.000000000000000E+20
146
0.0
 13
0.0
 23
0.0
 33
0.0
 16
1.0
 26
0.0
 36
0.0
 17
0.0
 27
1.0
 37
0.0
 76
     0
330
32
  0
MATERIAL
  5
12
102
{ACAD_XDICTIONARY
360
1C9
102
}
102
{ACAD_REACTORS
330
10
102
}
330
10
100
AcDbMaterial
  1
ByBlock
 73
     1
 78
     1
172
     1
176
     1
270
     1
274
     1
  0
MATERIAL
  5
11
102
{ACAD_XDICTIONARY
360
1C7
102
}
102
{ACAD_REACTORS
330
10
102
}
330
10
100
AcDbMaterial
  1
ByLayer
 73
     1
 78
     1
172
     1
176
     1
270
     1
274
     1
  0
MATERIAL
  5
13
102
{ACAD_XDICTIONARY
360
1CB
102
}
102
{ACAD_REACTORS
330
10
102
}
330
10
100
AcDbMaterial
  1
Global
 73
     1
 78
     1
172
     1
176
     1
270
     1
274
     1
  0
MLEADERSTYLE
  5
274
102
{ACAD_REACTORS
330
273
102
}
330
273
100
AcDbMLeaderStyle
170
     2
171
     1
172
     0
 90
        2
 40
0.0
 41
0.0
173
     1
 91
-1056964608
340
28
 92
       -2
290
     1
 42
0.09
291
     1
 43
0.36
  3
Standard
 44
0.18
300

342
26
174
     1
178
     6
175
     1
176
     0
 93
-1056964608
 45
0.18
292
     0
297
     0
 46
0.18
 94
-1056964608
 47
1.0
 49
1.0
140
1.0
293
     1
141
0.0
294
     1
177
     0
142
1.0
295
     0
296
     0
143
0.125
1001
ACAD_MLEADERVER
1070
     2
  0
MLINESTYLE
  5
2C
102
{ACAD_REACTORS
330
2B
102
}
330
2B
100
AcDbMlineStyle
  2
STANDARD
 70
     0
  3

 62
   256
 51
90.0
 52
90.0
 71
     2
 49
0.5
 62
   256
  6
BYLAYER
 49
-0.5
 62
   256
  6
BYLAYER
  0
ACDBPLACEHOLDER
  5
F
102
{ACAD_REACTORS
330
E
102
}
330
E
  0
SCALE
  5
252
102
{ACAD_REACTORS
330
251
102
}
330
251
100
AcDbScale
 70
     0
300
1:1
140
1.0
141
1.0
290
     1
  0
SCALE
  5
253
102
{ACAD_REACTORS
330
251
102
}
330
251
100
AcDbScale
 70
     0
300
1:2
140
1.0
141
2.0
290
     0
  0
SCALE
  5
254
102
{ACAD_REACTORS
330
251
102
}
330
251
100
AcDbScale
 70
     0
300
1:4
140
1.0
141
4.0
290
     0
  0
SCALE
  5
255
102
{ACAD_REACTORS
330
251
102
}
330
251
100
AcDbScale
 70
     0
300
1:5
140
1.0
141
5.0
290
     0
  0
SCALE
  5
256
102
{ACAD_REACTORS
330
251
102
}
330
251
100
AcDbScale
 70
     0
300
1:8
140
1.0
141
8.0
290
     0
  0
SCALE
  5
257
102
{ACAD_REACTORS
330
251
102
}
330
251
100
AcDbScale
 70
     0
300
1:10
140
1.0
141
10.0
290
     0
  0
SCALE
  5
258
102
{ACAD_REACTORS
330
251
102
}
330
251
100
AcDbScale
 70
     0
300
1:16
140
1.0
141
16.0
290
     0
  0
SCALE
  5
259
102
{ACAD_REACTORS
330
251
102
}
330
251
100
AcDbScale
 70
     0
300
1:20
140
1.0
141
20.0
290
     0
  0
SCALE
  5
25A
102
{ACAD_REACTORS
330
251
102
}
330
251
100
AcDbScale
 70
     0
300
1:30
140
1.0
141
30.0
290
     0
  0
SCALE
  5
25B
102
{ACAD_REACTORS
330
251
102
}
330
251
100
AcDbScale
 70
     0
300
1:40
140
1.0
141
40.0
290
     0
  0
SCALE
  5
25C
102
{ACAD_REACTORS
330
251
102
}
330
251
100
AcDbScale
 70
     0
300
1:50
140
1.0
141
50.0
290
     0
  0
SCALE
  5
25D
102
{ACAD_REACTORS
330
251
102
}
330
251
100
AcDbScale
 70
     0
300
1:100
140
1.0
141
100.0
290
     0
  0
SCALE
  5
25E
102
{ACAD_REACTORS
330
251
102
}
330
251
100
AcDbScale
 70
     0
300
2:1
140
2.0
141
1.0
290
     0
  0
SCALE
  5
25F
102
{ACAD_REACTORS
330
251
102
}
330
251
100
AcDbScale
 70
     0
300
4:1
140
4.0
141
1.0
290
     0
  0
SCALE
  5
260
102
{ACAD_REACTORS
330
251
102
}
330
251
100
AcDbScale
 70
     0
300
8:1
140
8.0
141
1.0
290
     0
  0
SCALE
  5
261
102
{ACAD_REACTORS
330
251
102
}
330
251
100
AcDbScale
 70
     0
300
10:1
140
10.0
141
1.0
290
     0
  0
SCALE
  5
262
102
{ACAD_REACTORS
330
251
102
}
330
251
100
AcDbScale
 70
     0
300
100:1
140
100.0
141
1.0
290
     0
  0
SCALE
  5
263
102
{ACAD_REACTORS
330
251
102
}
330
251
100
AcDbScale
 70
     0
300
1/128" = 1'-0"
140
0.0078125
141
12.0
290
     0
  0
SCALE
  5
264
102
{ACAD_REACTORS
330
251
102
}
330
251
100
AcDbScale
 70
     0
300
1/64" = 1'-0"
140
0.015625
141
12.0
290
     0
  0
SCALE
  5
265
102
{ACAD_REACTORS
330
251
102
}
330
251
100
AcDbScale
 70
     0
300
1/32" = 1'-0"
140
0.03125
141
12.0
290
     0
  0
SCALE
  5
266
102
{ACAD_REACTORS
330
251
102
}
330
251
100
AcDbScale
 70
     0
300
1/16" = 1'-0"
140
0.0625
141
12.0
290
     0
  0
SCALE
  5
267
102
{ACAD_REACTORS
330
251
102
}
330
251
100
AcDbScale
 70
     0
300
3/32" = 1'-0"
140
0.09375
141
12.0
290
     0
  0
SCALE
  5
268
102
{ACAD_REACTORS
330
251
102
}
330
251
100
AcDbScale
 70
     0
300
1/8" = 1'-0"
140
0.125
141
12.0
290
     0
  0
SCALE
  5
269
102
{ACAD_REACTORS
330
251
102
}
330
251
100
AcDbScale
 70
     0
300
3/16" = 1'-0"
140
0.1875
141
12.0
290
     0
  0
SCALE
  5
26A
102
{ACAD_REACTORS
330
251
102
}
330
251
100
AcDbScale
 70
     0
300
1/4" = 1'-0"
140
0.25
141
12.0
290
     0
  0
SCALE
  5
26B
102
{ACAD_REACTORS
330
251
102
}
330
251
100
AcDbScale
 70
     0
300
3/8" = 1'-0"
140
0.375
141
12.0
290
     0
  0
SCALE
  5
26C
102
{ACAD_REACTORS
330
251
102
}
330
251
100
AcDbScale
 70
     0
300
1/2" = 1'-0"
140
0.5
141
12.0
290
     0
  0
SCALE
  5
26D
102
{ACAD_REACTORS
330
251
102
}
330
251
100
AcDbScale
 70
     0
300
3/4" = 1'-0"
140
0.75
141
12.0
290
     0
  0
SCALE
  5
26E
102
{ACAD_REACTORS
330
251
102
}
330
251
100
AcDbScale
 70
     0
300
1" = 1'-0"
140
1.0
141
12.0
290
     0
  0
SCALE
  5
26F
102
{ACAD_REACTORS
330
251
102
}
330
251
100
AcDbScale
 70
     0
300
1-1/2" = 1'-0"
140
1.5
141
12.0
290
     0
  0
SCALE
  5
270
102
{ACAD_REACTORS
330
251
102
}
330
251
100
AcDbScale
 70
     0
300
3" = 1'-0"
140
3.0
141
12.0
290
     0
  0
SCALE
  5
271
102
{ACAD_REACTORS
330
251
102
}
330
251
100
AcDbScale
 70
     0
300
6" = 1'-0"
140
6.0
141
12.0
290
     0
  0
SCALE
  5
272
102
{ACAD_REACTORS
330
251
102
}
330
251
100
AcDbScale
 70
     0
300
1'-0" = 1'-0"
140
12.0
141
12.0
290
     0
  0
TABLESTYLE
  5
31
102
{ACAD_XDICTIONARY
360
93A
102
}
102
{ACAD_REACTORS
330
30
102
}
330
30
100
AcDbTableStyle
  3
Standard
 70
     0
 71
     0
 40
0.06
 41
0.06
280
     0
281
     0
  7
STANDARD
140
0.18
170
     2
 62
     0
 63
     7
283
     0
274
    -2
284
     1
 64
     0
275
    -2
285
     1
 65
     0
276
    -2
286
     1
 66
     0
277
    -2
287
     1
 67
     0
278
    -2
288
     1
 68
     0
279
    -2
289
     1
 69
     0
  7
STANDARD
140
0.25
170
     5
 62
     0
 63
     7
283
     0
274
    -2
284
     1
 64
     0
275
    -2
285
     1
 65
     0
276
    -2
286
     1
 66
     0
277
    -2
287
     1
 67
     0
278
    -2
288
     1
 68
     0
279
    -2
289
     1
 69
     0
  7
STANDARD
140
0.18
170
     5
 62
     0
 63
     7
283
     0
274
    -2
284
     1
 64
     0
275
    -2
285
     1
 65
     0
276
    -2
286
     1
 66
     0
277
    -2
287
     1
 67
     0
278
    -2
288
     1
 68
     0
279
    -2
289
     1
 69
     0
  0
VISUALSTYLE
  5
1A
102
{ACAD_REACTORS
330
14
102
}
330
14
100
AcDbVisualStyle
  2
2dWireframe
 70
     4
 71
     0
 72
     2
 73
     0
 90
        0
 40
-0.6
 41
-30.0
 62
     5
 63
     7
 74
     1
 91
        4
 64
     7
 65
   257
 75
     1
175
     1
 42
1.0
 92
        0
 66
   257
 43
1.0
 76
     1
 77
     6
 78
     2
 67
     7
 79
     5
170
     0
171
     0
290
     0
174
     0
 93
        1
 44
0.0
173
     0
291
     0
 45
0.0
1001
ACAD
1000
AcDbSavedByObjectVersion
1070
     0
  0
VISUALSTYLE
  5
1C
102
{ACAD_REACTORS
330
14
102
}
330
14
100
AcDbVisualStyle
  2
3D Hidden
 70
     6
 71
     1
 72
     2
 73
     2
 90
        0
 40
-0.6
 41
-30.0
 62
     5
 63
     7
 74
     2
 91
        2
 64
     7
 65
   257
 75
     2
175
     1
 42
40.0
 92
        0
 66
   257
 43
1.0
 76
     1
 77
     6
 78
     2
 67
     7
 79
     3
170
     0
171
     0
290
     0
174
     0
 93
        1
 44
0.0
173
     0
291
     0
 45
0.0
1001
ACAD
1000
AcDbSavedByObjectVersion
1070
     0
  0
VISUALSTYLE
  5
1B
102
{ACAD_REACTORS
330
14
102
}
330
14
100
AcDbVisualStyle
  2
3dWireframe
 70
     5
 71
     0
 72
     2
 73
     0
 90
        0
 40
-0.6
 41
-30.0
 62
     5
 63
     7
 74
     1
 91
        4
 64
     7
 65
   257
 75
     1
175
     1
 42
1.0
 92
        0
 66
   257
 43
1.0
 76
     1
 77
     6
 78
     2
 67
     7
 79
     5
170
     0
171
     0
290
     0
174
     0
 93
        1
 44
0.0
173
     0
291
     0
 45
0.0
1001
ACAD
1000
AcDbSavedByObjectVersion
1070
     0
  0
VISUALSTYLE
  5
19
102
{ACAD_REACTORS
330
14
102
}
330
14
100
AcDbVisualStyle
  2
Basic
 70
     7
 71
     1
 72
     0
 73
     1
 90
        0
 40
-0.6
 41
-30.0
 62
     5
 63
     7
 74
     0
 91
        4
 64
     7
 65
   257
 75
     1
175
     1
 42
1.0
 92
        8
 66
     7
 43
1.0
 76
     1
 77
     6
 78
     2
 67
     7
 79
     5
170
     0
171
     0
290
     0
174
     0
 93
        1
 44
0.0
173
     0
291
     1
 45
0.0
1001
ACAD
1000
AcDbSavedByObjectVersion
1070
     0
  0
VISUALSTYLE
  5
20
102
{ACAD_REACTORS
330
14
102
}
330
14
100
AcDbVisualStyle
  2
Brighten
 70
    12
 71
     2
 72
     2
 73
     0
 90
        0
 40
-0.6
 41
-30.0
 62
     5
 63
     7
 74
     1
 91
        4
 64
     7
 65
   257
 75
     1
175
     1
 42
1.0
 92
        8
 66
     7
 43
1.0
 76
     1
 77
     6
 78
     2
 67
     7
 79
     5
170
     0
171
     0
290
     0
174
     0
 93
        1
 44
50.0
173
     0
291
     1
 45
0.0
1001
ACAD
1000
AcDbSavedByObjectVersion
1070
     0
  0
VISUALSTYLE
  5
24
102
{ACAD_REACTORS
330
14
102
}
330
14
100
AcDbVisualStyle
  2
ColorChange
 70
    16
 71
     2
 72
     2
 73
     3
 90
        0
 40
-0.6
 41
-30.0
 62
     5
 63
     8
 74
     1
 91
        4
 64
     7
 65
   257
 75
     1
175
     1
 42
1.0
 92
        8
 66
     8
 43
1.0
 76
     1
 77
     6
 78
     2
 67
     7
 79
     5
170
     0
171
     0
290
     0
174
     0
 93
        1
 44
0.0
173
     0
291
     1
 45
0.0
1001
ACAD
1000
AcDbSavedByObjectVersion
1070
     0
  0
VISUALSTYLE
  5
1D
102
{ACAD_REACTORS
330
14
102
}
330
14
100
AcDbVisualStyle
  2
Conceptual
 70
     9
 71
     3
 72
     2
 73
     0
 90
        0
 40
-0.6
 41
-30.0
 62
     5
 63
     7
 74
     2
 91
        2
 64
     7
 65
   257
 75
     1
175
     1
 42
40.0
 92
        8
 66
     7
 43
1.0
 76
     1
 77
     6
 78
     2
 67
     7
 79
     3
170
     0
171
     0
290
     0
174
     0
 93
        1
 44
0.0
173
     0
291
     0
 45
0.0
1001
ACAD
1000
AcDbSavedByObjectVersion
1070
     0
  0
VISUALSTYLE
  5
1F
102
{ACAD_REACTORS
330
14
102
}
330
14
100
AcDbVisualStyle
  2
Dim
 70
    11
 71
     2
 72
     2
 73
     0
 90
        0
 40
-0.6
 41
-30.0
 62
     5
 63
     7
 74
     1
 91
        4
 64
     7
 65
   257
 75
     1
175
     1
 42
1.0
 92
        8
 66
     7
 43
1.0
 76
     1
 77
     6
 78
     2
 67
     7
 79
     5
170
     0
171
     0
290
     0
174
     0
 93
        1
 44
-50.0
173
     0
291
     1
 45
0.0
1001
ACAD
1000
AcDbSavedByObjectVersion
1070
     0
  0
VISUALSTYLE
  5
23
102
{ACAD_REACTORS
330
14
102
}
330
14
100
AcDbVisualStyle
  2
Facepattern
 70
    15
 71
     2
 72
     2
 73
     0
 90
        0
 40
-0.6
 41
-30.0
 62
     5
 63
     7
 74
     1
 91
        4
 64
     7
 65
   257
 75
     1
175
     1
 42
1.0
 92
        8
 66
     7
 43
1.0
 76
     1
 77
     6
 78
     2
 67
     7
 79
     5
170
     0
171
     0
290
     0
174
     0
 93
        1
 44
0.0
173
     0
291
     1
 45
0.0
1001
ACAD
1000
AcDbSavedByObjectVersion
1070
     0
  0
VISUALSTYLE
  5
15
102
{ACAD_REACTORS
330
14
102
}
330
14
100
AcDbVisualStyle
  2
Flat
 70
     0
 71
     2
 72
     1
 73
     1
 90
        2
 40
-0.6
 41
30.0
 62
     5
 63
     7
 74
     0
 91
        4
 64
     7
 65
   257
 75
     1
175
     1
 42
1.0
 92
        8
 66
     7
 43
1.0
 76
     1
 77
     6
 78
     2
 67
     7
 79
     5
170
     0
171
     0
290
     0
174
     0
 93
       13
 44
0.0
173
     0
291
     1
 45
0.0
1001
ACAD
1000
AcDbSavedByObjectVersion
1070
     0
  0
VISUALSTYLE
  5
16
102
{ACAD_REACTORS
330
14
102
}
330
14
100
AcDbVisualStyle
  2
FlatWithEdges
 70
     1
 71
     2
 72
     1
 73
     1
 90
        2
 40
-0.6
 41
30.0
 62
     5
 63
     7
 74
     1
 91
        4
 64
     7
 65
   257
 75
     1
175
     1
 42
1.0
 92
        0
 66
   257
 43
1.0
 76
     1
 77
     6
 78
     2
 67
     7
 79
     5
170
     0
171
     0
290
     0
174
     0
 93
       13
 44
0.0
173
     0
291
     1
 45
0.0
1001
ACAD
1000
AcDbSavedByObjectVersion
1070
     0
  0
VISUALSTYLE
  5
17
102
{ACAD_REACTORS
330
14
102
}
330
14
100
AcDbVisualStyle
  2
Gouraud
 70
     2
 71
     2
 72
     2
 73
     1
 90
        2
 40
-0.6
 41
30.0
 62
     5
 63
     7
 74
     0
 91
        4
 64
     7
 65
   257
 75
     1
175
     1
 42
1.0
 92
        0
 66
     7
 43
1.0
 76
     1
 77
     6
 78
     2
 67
     7
 79
     5
170
     0
171
     0
290
     0
174
     0
 93
       13
 44
0.0
173
     0
291
     1
 45
0.0
1001
ACAD
1000
AcDbSavedByObjectVersion
1070
     0
  0
VISUALSTYLE
  5
18
102
{ACAD_REACTORS
330
14
102
}
330
14
100
AcDbVisualStyle
  2
GouraudWithEdges
 70
     3
 71
     2
 72
     2
 73
     1
 90
        2
 40
-0.6
 41
30.0
 62
     5
 63
     7
 74
     1
 91
        4
 64
     7
 65
   257
 75
     1
175
     1
 42
1.0
 92
        0
 66
   257
 43
1.0
 76
     1
 77
     6
 78
     2
 67
     7
 79
     5
170
     0
171
     0
290
     0
174
     0
 93
       13
 44
0.0
173
     0
291
     1
 45
0.0
1001
ACAD
1000
AcDbSavedByObjectVersion
1070
     0
  0
VISUALSTYLE
  5
22
102
{ACAD_REACTORS
330
14
102
}
330
14
100
AcDbVisualStyle
  2
Linepattern
 70
    14
 71
     2
 72
     2
 73
     0
 90
        0
 40
-0.6
 41
-30.0
 62
     5
 63
     7
 74
     1
 91
        4
 64
     7
 65
   257
 75
     7
175
     7
 42
1.0
 92
        8
 66
     7
 43
1.0
 76
     1
 77
     6
 78
     2
 67
     7
 79
     5
170
     0
171
     0
290
     0
174
     0
 93
        1
 44
0.0
173
     0
291
     1
 45
0.0
1001
ACAD
1000
AcDbSavedByObjectVersion
1070
     0
  0
VISUALSTYLE
  5
1E
102
{ACAD_REACTORS
330
14
102
}
330
14
100
AcDbVisualStyle
  2
Realistic
 70
     8
 71
     2
 72
     2
 73
     0
 90
        0
 40
-0.6
 41
-30.0
 62
     5
 63
     7
 74
     1
 91
        0
 64
     7
 65
   257
 75
     1
175
     1
 42
1.0
 92
        8
 66
     8
 43
1.0
 76
     1
 77
     6
 78
     2
 67
     7
 79
     5
170
     0
171
     0
290
     0
174
     0
 93
       13
 44
0.0
173
     0
291
     0
 45
0.0
1001
ACAD
1000
AcDbSavedByObjectVersion
1070
     0
  0
VISUALSTYLE
  5
21
102
{ACAD_REACTORS
330
14
102
}
330
14
100
AcDbVisualStyle
  2
Thicken
 70
    13
 71
     2
 72
     2
 73
     0
 90
        0
 40
-0.6
 41
-30.0
 62
     5
 63
     7
 74
     1
 91
        4
 64
     7
 65
   257
 75
     1
175
     1
 42
1.0
 92
       12
 66
     7
 43
1.0
 76
     1
 77
     6
 78
     2
 67
     7
 79
     5
170
     0
171
     0
290
     0
174
     0
 93
        1
 44
0.0
173
     0
291
     1
 45
0.0
1001
ACAD
1000
AcDbSavedByObjectVersion
1070
     0
  0
DICTIONARYVAR
  5
939
102
{ACAD_REACTORS
330
1C1
102
}
330
1C1
100
DictionaryVariables
280
     0
  1
1:1
  0
DICTIONARYVAR
  5
938
102
{ACAD_REACTORS
330
1C1
102
}
330
1C1
100
DictionaryVariables
280
     0
  1
STANDARD
  0
DICTIONARYVAR
  5
1C2
102
{ACAD_REACTORS
330
1C1
102
}
330
1C1
100
DictionaryVariables
280
     0
  1
STANDARD
  0
DICTIONARYVAR
  5
1C5
102
{ACAD_REACTORS
330
1C1
102
}
330
1C1
100
DictionaryVariables
280
     0
  1
1
  0
DICTIONARYVAR
  5
1C4
102
{ACAD_REACTORS
330
1C1
102
}
330
1C1
100
DictionaryVariables
280
     0
  1
0
  0
DICTIONARYVAR
  5
1C3
102
{ACAD_REACTORS
330
1C1
102
}
330
1C1
100
DictionaryVariables
280
     0
  1
127
  0
DICTIONARY
  5
16A
102
{ACAD_REACTORS
330
15F
102
}
330
15F
100
AcDbDictionary
281
     1
  0
XRECORD
  5
18B
102
{ACAD_REACTORS
330
15F
102
}
330
15F
100
AcDbXrecord
280
     1
 90
-1023410169
  0
DICTIONARY
  5
943
330
39
100
AcDbDictionary
280
     1
281
     1
  3
ACAD_XREC_ROUNDTRIP
360
944
  0
DICTIONARY
  5
941
330
35
100
AcDbDictionary
280
     1
281
     1
  3
ACAD_XREC_ROUNDTRIP
360
942
  0
DICTIONARY
  5
1C9
330
12
100
AcDbDictionary
280
     1
281
     1
  3
ACAD_XREC_ROUNDTRIP
360
1CA
  0
DICTIONARY
  5
1C7
330
11
100
AcDbDictionary
280
     1
281
     1
  3
ACAD_XREC_ROUNDTRIP
360
1C8
  0
DICTIONARY
  5
1CB
330
13
100
AcDbDictionary
280
     1
281
     1
  3
ACAD_XREC_ROUNDTRIP
360
1CC
  0
DICTIONARY
  5
93A
330
31
100
AcDbDictionary
280
     1
281
     1
  3
ACAD_ROUNDTRIP_2008_TABLESTYLE_CELLSTYLEMAP
360
93B
  3
ACAD_XREC_ROUNDTRIP
360
940
  0
XRECORD
  5
944
102
{ACAD_REACTORS
330
943
102
}
330
943
100
AcDbXrecord
280
     1
102
SHADEPLOT
 70
     0
102
SHADEPLOTRESLEVEL
 70
     2
102
SHADEPLOTCUSTOMDPI
 70
   300
  0
XRECORD
  5
942
102
{ACAD_REACTORS
330
941
102
}
330
941
100
AcDbXrecord
280
     1
102
SHADEPLOT
 70
     0
102
SHADEPLOTRESLEVEL
 70
     2
102
SHADEPLOTCUSTOMDPI
 70
   300
  0
XRECORD
  5
1CA
102
{ACAD_REACTORS
330
1C9
102
}
330
1C9
100
AcDbXrecord
280
     1
102
MATERIAL
148
0.0
149
0.0
149
0.0
 93
        0
 94
       63
282
     0
 72
     1
 77
     1
171
     1
175
     1
179
     1
273
     0
  0
XRECORD
  5
1C8
102
{ACAD_REACTORS
330
1C7
102
}
330
1C7
100
AcDbXrecord
280
     1
102
MATERIAL
148
0.0
149
0.0
149
0.0
 93
        0
 94
       63
282
     0
 72
     1
 77
     1
171
     1
175
     1
179
     1
273
     0
  0
XRECORD
  5
1CC
102
{ACAD_REACTORS
330
1CB
102
}
330
1CB
100
AcDbXrecord
280
     1
102
MATERIAL
148
0.0
149
0.0
149
0.0
 93
        0
 94
       63
282
     0
 72
     1
 77
     1
171
     1
175
     1
179
     1
273
     0
  0
CELLSTYLEMAP
  5
93B
102
{ACAD_REACTORS
330
93A
102
}
330
93A
100
AcDbCellStyleMap
 90
        3
300
CELLSTYLE
  1
TABLEFORMAT_BEGIN
 90
        5
170
     1
 91
        0
 92
    32768
 62
   257
 93
        1
300
CONTENTFORMAT
  1
CONTENTFORMAT_BEGIN
 90
        0
 91
        0
 92
      512
 93
        0
300

 40
0.0
140
1.0
 94
        5
 62
     0
340
26
144
0.25
309
CONTENTFORMAT_END
171
     0
 94
        6
 95
        1
302
GRIDFORMAT
  1
GRIDFORMAT_BEGIN
 90
        0
 91
        1
 62
     0
 92
       -2
340
0
 93
        0
 40
0.045
309
GRIDFORMAT_END
 95
        2
302
GRIDFORMAT
  1
GRIDFORMAT_BEGIN
 90
        0
 91
        1
 62
     0
 92
       -2
340
0
 93
        0
 40
0.045
309
GRIDFORMAT_END
 95
        4
302
GRIDFORMAT
  1
GRIDFORMAT_BEGIN
 90
        0
 91
        1
 62
     0
 92
       -2
340
0
 93
        0
 40
0.045
309
GRIDFORMAT_END
 95
        8
302
GRIDFORMAT
  1
GRIDFORMAT_BEGIN
 90
        0
 91
        1
 62
     0
 92
       -2
340
0
 93
        0
 40
0.045
309
GRIDFORMAT_END
 95
       16
302
GRIDFORMAT
  1
GRIDFORMAT_BEGIN
 90
        0
 91
        1
 62
     0
 92
       -2
340
0
 93
        0
 40
0.045
309
GRIDFORMAT_END
 95
       32
302
GRIDFORMAT
  1
GRIDFORMAT_BEGIN
 90
        0
 91
        1
 62
     0
 92
       -2
340
0
 93
        0
 40
0.045
309
GRIDFORMAT_END
309
TABLEFORMAT_END
  1
CELLSTYLE_BEGIN
 90
        1
 91
        1
300
_TITLE
309
CELLSTYLE_END
300
CELLSTYLE
  1
TABLEFORMAT_BEGIN
 90
        5
170
     1
 91
        0
 92
        0
 62
   257
 93
        1
300
CONTENTFORMAT
  1
CONTENTFORMAT_BEGIN
 90
        0
 91
        0
 92
      512
 93
        0
300

 40
0.0
140
1.0
 94
        5
 62
     0
340
26
144
0.18
309
CONTENTFORMAT_END
171
     0
 94
        6
 95
        1
302
GRIDFORMAT
  1
GRIDFORMAT_BEGIN
 90
        0
 91
        1
 62
     0
 92
       -2
340
0
 93
        0
 40
0.045
309
GRIDFORMAT_END
 95
        2
302
GRIDFORMAT
  1
GRIDFORMAT_BEGIN
 90
        0
 91
        1
 62
     0
 92
       -2
340
0
 93
        0
 40
0.045
309
GRIDFORMAT_END
 95
        4
302
GRIDFORMAT
  1
GRIDFORMAT_BEGIN
 90
        0
 91
        1
 62
     0
 92
       -2
340
0
 93
        0
 40
0.045
309
GRIDFORMAT_END
 95
        8
302
GRIDFORMAT
  1
GRIDFORMAT_BEGIN
 90
        0
 91
        1
 62
     0
 92
       -2
340
0
 93
        0
 40
0.045
309
GRIDFORMAT_END
 95
       16
302
GRIDFORMAT
  1
GRIDFORMAT_BEGIN
 90
        0
 91
        1
 62
     0
 92
       -2
340
0
 93
        0
 40
0.045
309
GRIDFORMAT_END
 95
       32
302
GRIDFORMAT
  1
GRIDFORMAT_BEGIN
 90
        0
 91
        1
 62
     0
 92
       -2
340
0
 93
        0
 40
0.045
309
GRIDFORMAT_END
309
TABLEFORMAT_END
  1
CELLSTYLE_BEGIN
 90
        2
 91
        1
300
_HEADER
309
CELLSTYLE_END
300
CELLSTYLE
  1
TABLEFORMAT_BEGIN
 90
        5
170
     1
 91
        0
 92
        0
 62
   257
 93
        1
300
CONTENTFORMAT
  1
CONTENTFORMAT_BEGIN
 90
        0
 91
        0
 92
      512
 93
        0
300

 40
0.0
140
1.0
 94
        2
 62
     0
340
26
144
0.18
309
CONTENTFORMAT_END
171
     0
 94
        6
 95
        1
302
GRIDFORMAT
  1
GRIDFORMAT_BEGIN
 90
        0
 91
        1
 62
     0
 92
       -2
340
0
 93
        0
 40
0.045
309
GRIDFORMAT_END
 95
        2
302
GRIDFORMAT
  1
GRIDFORMAT_BEGIN
 90
        0
 91
        1
 62
     0
 92
       -2
340
0
 93
        0
 40
0.045
309
GRIDFORMAT_END
 95
        4
302
GRIDFORMAT
  1
GRIDFORMAT_BEGIN
 90
        0
 91
        1
 62
     0
 92
       -2
340
0
 93
        0
 40
0.045
309
GRIDFORMAT_END
 95
        8
302
GRIDFORMAT
  1
GRIDFORMAT_BEGIN
 90
        0
 91
        1
 62
     0
 92
       -2
340
0
 93
        0
 40
0.045
309
GRIDFORMAT_END
 95
       16
302
GRIDFORMAT
  1
GRIDFORMAT_BEGIN
 90
        0
 91
        1
 62
     0
 92
       -2
340
0
 93
        0
 40
0.045
309
GRIDFORMAT_END
 95
       32
302
GRIDFORMAT
  1
GRIDFORMAT_BEGIN
 90
        0
 91
        1
 62
     0
 92
       -2
340
0
 93
        0
 40
0.045
309
GRIDFORMAT_END
309
TABLEFORMAT_END
  1
CELLSTYLE_BEGIN
 90
        3
 91
        2
300
_DATA
309
CELLSTYLE_END
  0
XRECORD
  5
940
102
{ACAD_REACTORS
330
93A
102
}
330
93A
100
AcDbXrecord
280
     1
102
ACAD_ROUNDTRIP_PRE2007_TABLESTYLE
 90
      512
 91
        0
  1

 92
      512
 93
        0
  2

 94
      512
 95
        0
  3

  0
ENDSEC
  0
EOF
