  0
SECTION
  2
HEADER
  9
$ACADVER
  1
AC1009
  9
$INSBASE
 10
0.0
 20
0.0
 30
0.0
  9
$EXTMIN
 10
-211.01162631019429
 20
-100.0083306632102
 30
-0.0015258207003583
  9
$EXTMAX
 10
170.01162808436399
 20
173.00833193446539
 30
0.0000000349246037
  9
$LIMMIN
 10
-211.0
 20
-100.0
  9
$LIMMAX
 10
170.0
 20
173.0
  9
$ORTHOMODE
 70
     0
  9
$REGENMODE
 70
     1
  9
$FILLMODE
 70
     1
  9
$QTEXTMODE
 70
     0
  9
$MIRRTEXT
 70
     1
  9
$DRAGMODE
 70
     2
  9
$LTSCALE
 40
1.0
  9
$OSMODE
 70
    37
  9
$ATTMODE
 70
     1
  9
$TEXTSIZE
 40
0.2
  9
$TRACEWID
 40
0.05
  9
$TEXTSTYLE
  7
STANDARD
  9
$CLAYER
  8
0
  9
$CELTYPE
  6
CONTINUOUS
  9
$CECOLOR
 62
   256
  9
$DIMSCALE
 40
1.0
  9
$DIMASZ
 40
1.0
  9
$DIMEXO
 40
2.54
  9
$DIMDLI
 40
0.38
  9
$DIMRND
 40
0.0
  9
$DIMDLE
 40
0.0
  9
$DIMEXE
 40
2.54
  9
$DIMTP
 40
0.0
  9
$DIMTM
 40
0.0
  9
$DIMTXT
 40
3.2000000000000002
  9
$DIMCEN
 40
0.09
  9
$DIMTSZ
 40
0.0
  9
$DIMTOL
 70
     0
  9
$DIMLIM
 70
     0
  9
$DIMTIH
 70
     0
  9
$DIMTOH
 70
     0
  9
$DIMSE1
 70
     0
  9
$DIMSE2
 70
     0
  9
$DIMTAD
 70
     1
  9
$DIMZIN
 70
     0
  9
$DIMBLK
  1

  9
$DIMASO
 70
     1
  9
$DIMSHO
 70
     0
  9
$DIMPOST
  1

  9
$DIMAPOST
  1

  9
$DIMALT
 70
     0
  9
$DIMALTD
 70
     2
  9
$DIMALTF
 40
25.399999999999999
  9
$DIMLFAC
 40
1.0
  9
$DIMTOFL
 70
     0
  9
$DIMTVP
 40
1.0
  9
$DIMTIX
 70
     0
  9
$DIMSOXD
 70
     0
  9
$DIMSAH
 70
     1
  9
$DIMBLK1
  1

  9
$DIMBLK2
  1

  9
$DIMSTYLE
  2
DIMSTYLE
  9
$DIMCLRD
 70
     0
  9
$DIMCLRE
 70
     0
  9
$DIMCLRT
 70
     0
  9
$DIMTFAC
 40
1.0
  9
$DIMGAP
 40
1.6000000000000001
  9
$LUNITS
 70
     2
  9
$LUPREC
 70
     4
  9
$SKETCHINC
 40
0.1
  9
$FILLETRAD
 40
0.0
  9
$AUNITS
 70
     0
  9
$AUPREC
 70
     0
  9
$MENU
  1
.
  9
$ELEVATION
 40
0.0
  9
$PELEVATION
 40
0.0
  9
$THICKNESS
 40
0.0
  9
$LIMCHECK
 70
     0
  9
$BLIPMODE
 70
     0
  9
$CHAMFERA
 40
0.0
  9
$CHAMFERB
 40
0.0
  9
$SKPOLY
 70
     0
  9
$TDCREATE
 40
2452811.665601504
  9
$TDUPDATE
 40
2452811.6712494441
  9
$TDINDWG
 40
0.0056486343
  9
$TDUSRTIMER
 40
0.0056486343
  9
$USRTIMER
 70
     1
  9
$ANGBASE
 50
0.0
  9
$ANGDIR
 70
     0
  9
$PDMODE
 70
     0
  9
$PDSIZE
 40
0.0
  9
$PLINEWID
 40
0.0
  9
$COORDS
 70
     1
  9
$SPLFRAME
 70
     0
  9
$SPLINETYPE
 70
     6
  9
$SPLINESEGS
 70
     8
  9
$ATTDIA
 70
     0
  9
$ATTREQ
 70
     1
  9
$HANDLING
 70
 22529
  9
$HANDSEED
  5
176
  9
$SURFTAB1
 70
     6
  9
$SURFTAB2
 70
     6
  9
$SURFTYPE
 70
     6
  9
$SURFU
 70
     6
  9
$SURFV
 70
     6
  9
$UCSNAME
  2

  9
$UCSORG
 10
0.0
 20
0.0
 30
0.0
  9
$UCSXDIR
 10
1.0
 20
0.0
 30
0.0
  9
$UCSYDIR
 10
0.0
 20
1.0
 30
0.0
  9
$PUCSNAME
  2

  9
$PUCSORG
 10
0.0
 20
0.0
 30
0.0
  9
$PUCSXDIR
 10
1.0
 20
0.0
 30
0.0
  9
$PUCSYDIR
 10
0.0
 20
1.0
 30
0.0
  9
$USERI1
 70
     0
  9
$USERI2
 70
     0
  9
$USERI3
 70
     0
  9
$USERI4
 70
     0
  9
$USERI5
 70
     0
  9
$USERR1
 40
0.0
  9
$USERR2
 40
0.0
  9
$USERR3
 40
0.0
  9
$USERR4
 40
0.0
  9
$USERR5
 40
0.0
  9
$WORLDVIEW
 70
     1
  9
$SHADEDGE
 70
     3
  9
$SHADEDIF
 70
    70
  9
$TILEMODE
 70
     1
  9
$MAXACTVP
 70
    64
  9
$PLIMCHECK
 70
     0
  9
$PEXTMIN
 10
1.0000000000000000E+020
 20
1.0000000000000000E+020
 30
1.0000000000000000E+020
  9
$PEXTMAX
 10
-1.0000000000000000E+020
 20
-1.0000000000000000E+020
 30
-1.0000000000000000E+020
  9
$PLIMMIN
 10
-211.0
 20
-100.0
  9
$PLIMMAX
 10
170.0
 20
173.0
  9
$UNITMODE
 70
     0
  9
$VISRETAIN
 70
     1
  9
$PLINEGEN
 70
     0
  9
$PSLTSCALE
 70
     1
  0
ENDSEC
  0
SECTION
  2
TABLES
  0
TABLE
  2
VPORT
 70
     7
  0
VPORT
  2
*ACTIVE
 70
     0
 10
0.0
 20
0.0
 11
1.0
 21
1.0
 12
-20.49999911291517
 22
36.500000635627607
 13
0.0
 23
0.0
 14
1.0
 24
1.0
 15
0.0
 25
0.0
 16
0.0
 26
0.0
 36
1.0
 17
0.0
 27
0.0
 37
0.0
 40
275.09283493682148
 41
1.5139593908629441
 42
50.0
 43
0.0
 44
0.0
 50
0.0
 51
0.0
 71
     0
 72
   100
 73
     1
 74
     1
 75
     0
 76
     0
 77
     0
 78
     0
  0
ENDTAB
  0
TABLE
  2
LTYPE
 70
     6
  0
LTYPE
  2
CONTINUOUS
 70
     0
  3
Solid line
 72
    65
 73
     0
 40
0.0
  0
LTYPE
  2
DASHED
 70
     0
  3
__ __ __ __ __ __ __ __ __ __ __ __ __ __ __
 72
    65
 73
     2
 40
3.5
 49
2.0
 49
-1.5
  0
LTYPE
  2
CENTER
 70
     0
  3
____ _ ____ _ ____ _ ____ _ ____ _ ____ _ ____
 72
    65
 73
     4
 40
17.5
 49
13.0
 49
-1.5
 49
1.5
 49
-1.5
  0
LTYPE
  2
PHANTOM
 70
     0
  3
_____ _ _ _____ _ _ _____ _ _ _____ _ _ ____  
 72
    65
 73
     6
 40
15.5
 49
8.0
 49
-1.5
 49
1.5
 49
-1.5
 49
1.5
 49
-1.5
  0
LTYPE
  2
DOT
 70
     0
  3
. . . . . . . . . . . . . . . . . . . . . . . .
 72
    65
 73
     2
 40
0.25
 49
0.0
 49
-0.25
  0
LTYPE
  2
HIDDEN
 70
     0
  3
__ __ __ __ __ __ __ __ __ __ __ __ __ __ __
 72
    65
 73
     2
 40
3.5
 49
2.0
 49
-1.5
  0
ENDTAB
  0
TABLE
  2
LAYER
 70
     4
  0
LAYER
  2
0
 70
     0
 62
     7
  6
CONTINUOUS
  0
LAYER
  2
1
 70
     0
 62
     7
  6
CONTINUOUS
  0
LAYER
  2
2
 70
     0
 62
     7
  6
CONTINUOUS
  0
LAYER
  2
DEFPOINTS
 70
     0
 62
     7
  6
CONTINUOUS
  0
ENDTAB
  0
TABLE
  2
STYLE
 70
     1
  0
STYLE
  2
STANDARD
 70
     0
 40
0.0
 41
1.0
 50
0.0
 71
     0
 42
0.2
  3
txt
  4
BIGFONT
  0
ENDTAB
  0
TABLE
  2
VIEW
 70
     0
  0
ENDTAB
  0
TABLE
  2
UCS
 70
     0
  0
ENDTAB
  0
TABLE
  2
APPID
 70
     1
  0
APPID
  2
ACAD
 70
     0
  0
ENDTAB
  0
TABLE
  2
DIMSTYLE
 70
     1
  0
DIMSTYLE
  2
DIMSTYLE
 70
     0
  3

  4

  5

  6

  7

 40
1.0
 41
1.0
 42
2.54
 43
0.38
 44
2.54
 45
0.0
 46
0.0
 47
0.0
 48
0.0
140
3.2000000000000002
141
0.09
142
0.0
143
25.399999999999999
144
1.0
145
0.0
146
1.0
147
1.6000000000000001
 71
     0
 72
     0
 73
     0
 74
     0
 75
     0
 76
     0
 77
     0
 78
     0
170
     0
171
     2
172
     0
173
     1
174
     0
175
     0
176
     0
177
     0
178
     0
  0
ENDTAB
  0
ENDSEC
  0
SECTION
  2
BLOCKS
  0
BLOCK
  8
0
  2
$MODEL_SPACE
 70
     0
 10
0.0
 20
0.0
 30
0.0
  3
$MODEL_SPACE
  1

  0
ENDBLK
  5
20
  8
0
  0
BLOCK
 67
     1
  8
0
  2
$PAPER_SPACE
 70
     0
 10
0.0
 20
0.0
 30
0.0
  3
$PAPER_SPACE
  1

  0
ENDBLK
  5
1C
 67
     1
  8
0
  0
BLOCK
  8
0
  2
_DOT
 70
     0
 10
0.0
 20
0.0
 30
0.0
  3
_DOT
  1

  0
POLYLINE
  5
30
  8
0
  6
BYBLOCK
 62
     0
 66
     1
 10
0.0
 20
0.0
 30
0.0
 70
     1
 40
0.4000000100000001
 41
0.4000000100000001
  0
VERTEX
  5
173
  8
0
  6
BYBLOCK
 62
     0
 10
-0.2
 20
0.0
 30
0.0
 42
1.0
  0
VERTEX
  5
174
  8
0
  6
BYBLOCK
 62
     0
 10
0.2
 20
0.0
 30
0.0
 42
1.0
  0
SEQEND
  5
175
  8
0
  6
BYBLOCK
 62
     0
  0
LINE
  5
34
  8
0
  6
BYBLOCK
 62
     0
 10
-0.4000000100000001
 20
0.0
 30
0.0
 11
-3.0
 21
0.0
 31
0.0
  0
ENDBLK
  5
35
  8
0
  0
BLOCK
  8
0
  2
_NONE
 70
     0
 10
0.0
 20
0.0
 30
0.0
  3
_NONE
  1

  0
CIRCLE
  5
38
  8
0
  6
BYBLOCK
 62
     0
 10
0.0
 20
0.0
 30
0.0
 40
0.001
  0
ENDBLK
  5
39
  8
0
  0
BLOCK
  8
0
  2
*D2
 70
     1
 10
0.0
 20
0.0
 30
0.0
  3
*D2
  1

  0
LINE
  5
3C
  8
0
  6
CONTINUOUS
 62
     7
 10
-66.5
 20
-15.0
 30
0.0
 11
-58.5
 21
-15.0
 31
0.0
  0
INSERT
  5
3D
  8
0
  6
CONTINUOUS
 62
     7
  2
_DOT
 10
-66.5
 20
-15.0
 30
0.0
 50
180.0
  0
INSERT
  5
3E
  8
0
  6
CONTINUOUS
 62
     7
  2
_DOT
 10
-58.5
 20
-15.0
 30
0.0
  0
LINE
  5
3F
  8
0
  6
CONTINUOUS
 62
     7
 10
-66.5
 20
-0.039999924
 30
0.0
 11
-66.5
 21
-16.200001
 31
0.0
  0
LINE
  5
40
  8
0
  6
CONTINUOUS
 62
     7
 10
-58.5
 20
-2.5399999000000002
 30
0.0
 11
-58.5
 21
-16.200001
 31
0.0
  0
TEXT
  5
41
  8
0
  6
CONTINUOUS
 62
     7
 10
-63.643000000000001
 20
-14.19999999999999
 30
0.0
 40
3.2000000000000002
  1
8
  0
POINT
  5
42
  8
DEFPOINTS
  6
CONTINUOUS
 62
     7
 10
-66.5
 20
2.5
 30
0.0
  0
POINT
  5
43
  8
DEFPOINTS
  6
CONTINUOUS
 62
     7
 10
-58.5
 20
0.0
 30
0.0
  0
POINT
  5
44
  8
DEFPOINTS
  6
CONTINUOUS
 62
     7
 10
-58.5
 20
-15.0
 30
0.0
  0
ENDBLK
  5
45
  8
0
  0
BLOCK
  8
0
  2
*D3
 70
     1
 10
0.0
 20
0.0
 30
0.0
  3
*D3
  1

  0
LINE
  5
48
  8
0
  6
CONTINUOUS
 62
     7
 10
-4.5
 20
-15.0
 30
0.0
 11
3.5
 21
-15.0
 31
0.0
  0
INSERT
  5
49
  8
0
  6
CONTINUOUS
 62
     7
  2
_DOT
 10
-4.5
 20
-15.0
 30
0.0
 50
180.0
  0
INSERT
  5
4A
  8
0
  6
CONTINUOUS
 62
     7
  2
_DOT
 10
3.5
 20
-15.0
 30
0.0
  0
LINE
  5
4B
  8
0
  6
CONTINUOUS
 62
     7
 10
-4.5
 20
-2.5399999000000002
 30
0.0
 11
-4.5
 21
-16.200001
 31
0.0
  0
LINE
  5
4C
  8
0
  6
CONTINUOUS
 62
     7
 10
3.5
 20
-0.039999924
 30
0.0
 11
3.5
 21
-16.200001
 31
0.0
  0
TEXT
  5
4D
  8
0
  6
CONTINUOUS
 62
     7
 10
-1.6429999999999989
 20
-14.19999999999999
 30
0.0
 40
3.2000000000000002
  1
8
  0
POINT
  5
4E
  8
DEFPOINTS
  6
CONTINUOUS
 62
     7
 10
-4.5
 20
0.0
 30
0.0
  0
POINT
  5
4F
  8
DEFPOINTS
  6
CONTINUOUS
 62
     7
 10
3.5
 20
2.5
 30
0.0
  0
POINT
  5
50
  8
DEFPOINTS
  6
CONTINUOUS
 62
     7
 10
3.5
 20
-15.0
 30
0.0
  0
ENDBLK
  5
51
  8
0
  0
BLOCK
  8
0
  2
*D4
 70
     1
 10
0.0
 20
0.0
 30
0.0
  3
*D4
  1

  0
LINE
  5
54
  8
0
  6
CONTINUOUS
 62
     7
 10
22.0
 20
15.0
 30
0.0
 11
22.0
 21
0.0
 31
0.0
  0
INSERT
  5
55
  8
0
  6
CONTINUOUS
 62
     7
  2
_DOT
 10
22.0
 20
15.0
 30
0.0
 50
90.0
  0
INSERT
  5
56
  8
0
  6
CONTINUOUS
 62
     7
  2
_DOT
 10
22.0
 20
0.0
 30
0.0
 50
270.0
  0
LINE
  5
57
  8
0
  6
CONTINUOUS
 62
     7
 10
-6.2100000999999994
 20
15.0
 30
0.0
 11
23.200001
 21
15.0
 31
0.0
  0
LINE
  5
58
  8
0
  6
CONTINUOUS
 62
     7
 10
3.5399998999999989
 20
0.0
 30
0.0
 11
23.200001
 21
0.0
 31
0.0
  0
TEXT
  5
59
  8
0
  6
CONTINUOUS
 62
     7
 10
21.199999999999999
 20
4.7569999999999988
 30
0.0
 40
3.2000000000000002
  1
15
 50
90.000003000000007
 41
1.2857811999999991
  0
POINT
  5
5A
  8
DEFPOINTS
  6
CONTINUOUS
 62
     7
 10
-8.75
 20
15.0
 30
0.0
  0
POINT
  5
5B
  8
DEFPOINTS
  6
CONTINUOUS
 62
     7
 10
1.0
 20
0.0
 30
0.0
  0
POINT
  5
5C
  8
DEFPOINTS
  6
CONTINUOUS
 62
     7
 10
22.0
 20
0.0
 30
0.0
  0
ENDBLK
  5
5D
  8
0
  0
BLOCK
  8
0
  2
*D5
 70
     1
 10
0.0
 20
0.0
 30
0.0
  3
*D5
  1

  0
LINE
  5
60
  8
0
  6
CONTINUOUS
 62
     7
 10
22.0
 20
15.0
 30
0.0
 11
22.0
 21
20.0
 31
0.0
  0
INSERT
  5
61
  8
0
  6
CONTINUOUS
 62
     7
  2
_DOT
 10
22.0
 20
15.0
 30
0.0
 50
270.0
  0
INSERT
  5
62
  8
0
  6
CONTINUOUS
 62
     7
  2
_DOT
 10
22.0
 20
20.0
 30
0.0
 50
90.0
  0
LINE
  5
63
  8
0
  6
CONTINUOUS
 62
     7
 10
3.5399998999999989
 20
20.0
 30
0.0
 11
23.200001
 21
20.0
 31
0.0
  0
TEXT
  5
64
  8
0
  6
CONTINUOUS
 62
     7
 10
21.199999999999999
 20
16.356999999999989
 30
0.0
 40
3.2000000000000002
  1
5
 50
90.000003000000007
  0
POINT
  5
65
  8
DEFPOINTS
  6
CONTINUOUS
 62
     7
 10
-16.75
 20
15.0
 30
0.0
  0
POINT
  5
66
  8
DEFPOINTS
  6
CONTINUOUS
 62
     7
 10
1.0
 20
20.0
 30
0.0
  0
POINT
  5
67
  8
DEFPOINTS
  6
CONTINUOUS
 62
     7
 10
22.0
 20
20.0
 30
0.0
  0
ENDBLK
  5
68
  8
0
  0
BLOCK
  8
0
  2
*D6
 70
     1
 10
0.0
 20
0.0
 30
0.0
  3
*D6
  1

  0
LINE
  5
6B
  8
0
  6
CONTINUOUS
 62
     7
 10
28.5
 20
20.0
 30
0.0
 11
28.5
 21
0.0
 31
0.0
  0
INSERT
  5
6C
  8
0
  6
CONTINUOUS
 62
     7
  2
_DOT
 10
28.5
 20
20.0
 30
0.0
 50
90.0
  0
INSERT
  5
6D
  8
0
  6
CONTINUOUS
 62
     7
  2
_DOT
 10
28.5
 20
0.0
 30
0.0
 50
270.0
  0
LINE
  5
6E
  8
0
  6
CONTINUOUS
 62
     7
 10
3.5399998999999989
 20
20.0
 30
0.0
 11
29.700001
 21
20.0
 31
0.0
  0
LINE
  5
6F
  8
0
  6
CONTINUOUS
 62
     7
 10
3.5399998999999989
 20
0.0
 30
0.0
 11
29.700001
 21
0.0
 31
0.0
  0
TEXT
  5
70
  8
0
  6
CONTINUOUS
 62
     7
 10
27.699999999999999
 20
7.2569999999999997
 30
0.0
 40
3.2000000000000002
  1
20
 50
90.000003000000007
 41
1.102098199999999
  0
POINT
  5
71
  8
DEFPOINTS
  6
CONTINUOUS
 62
     7
 10
1.0
 20
20.0
 30
0.0
  0
POINT
  5
72
  8
DEFPOINTS
  6
CONTINUOUS
 62
     7
 10
1.0
 20
0.0
 30
0.0
  0
POINT
  5
73
  8
DEFPOINTS
  6
CONTINUOUS
 62
     7
 10
28.5
 20
0.0
 30
0.0
  0
ENDBLK
  5
74
  8
0
  0
BLOCK
  8
0
  2
*D7
 70
     1
 10
0.0
 20
0.0
 30
0.0
  3
*D7
  1

  0
LINE
  5
77
  8
0
  6
CONTINUOUS
 62
     7
 10
-54.25
 20
30.0
 30
0.0
 11
-43.75
 21
30.0
 31
0.0
  0
INSERT
  5
78
  8
0
  6
CONTINUOUS
 62
     7
  2
_DOT
 10
-54.25
 20
30.0
 30
0.0
 50
180.0
  0
INSERT
  5
79
  8
0
  6
CONTINUOUS
 62
     7
  2
_DOT
 10
-43.75
 20
30.0
 30
0.0
  0
LINE
  5
7A
  8
0
  6
CONTINUOUS
 62
     7
 10
-54.25
 20
19.289999999999999
 30
0.0
 11
-54.25
 21
31.200001
 31
0.0
  0
LINE
  5
7B
  8
0
  6
CONTINUOUS
 62
     7
 10
-43.75
 20
19.289999999999999
 30
0.0
 11
-43.75
 21
31.200001
 31
0.0
  0
TEXT
  5
7C
  8
0
  6
CONTINUOUS
 62
     7
 10
-54.942999999999998
 20
30.800000000000001
 30
0.0
 40
3.2000000000000002
  1
10.5
 41
1.485749999999999
  0
POINT
  5
7D
  8
DEFPOINTS
  6
CONTINUOUS
 62
     7
 10
-54.25
 20
16.75
 30
0.0
  0
POINT
  5
7E
  8
DEFPOINTS
  6
CONTINUOUS
 62
     7
 10
-43.75
 20
16.75
 30
0.0
  0
POINT
  5
7F
  8
DEFPOINTS
  6
CONTINUOUS
 62
     7
 10
-43.75
 20
30.0
 30
0.0
  0
ENDBLK
  5
80
  8
0
  0
BLOCK
  8
0
  2
*D8
 70
     1
 10
0.0
 20
0.0
 30
0.0
  3
*D8
  1

  0
LINE
  5
83
  8
0
  6
CONTINUOUS
 62
     7
 10
-58.25
 20
40.0
 30
0.0
 11
-39.75
 21
40.0
 31
0.0
  0
INSERT
  5
84
  8
0
  6
CONTINUOUS
 62
     7
  2
_DOT
 10
-58.25
 20
40.0
 30
0.0
 50
180.0
  0
INSERT
  5
85
  8
0
  6
CONTINUOUS
 62
     7
  2
_DOT
 10
-39.75
 20
40.0
 30
0.0
  0
LINE
  5
86
  8
0
  6
CONTINUOUS
 62
     7
 10
-58.25
 20
22.539999999999999
 30
0.0
 11
-58.25
 21
41.200001
 31
0.0
  0
LINE
  5
87
  8
0
  6
CONTINUOUS
 62
     7
 10
-39.75
 20
22.539999999999999
 30
0.0
 11
-39.75
 21
41.200001
 31
0.0
  0
TEXT
  5
88
  8
0
  6
CONTINUOUS
 62
     7
 10
-54.942999999999998
 20
40.799999999999997
 30
0.0
 40
3.2000000000000002
  1
18.5
 41
1.3928906000000001
  0
POINT
  5
89
  8
DEFPOINTS
  6
CONTINUOUS
 62
     7
 10
-58.25
 20
20.0
 30
0.0
  0
POINT
  5
8A
  8
DEFPOINTS
  6
CONTINUOUS
 62
     7
 10
-39.75
 20
20.0
 30
0.0
  0
POINT
  5
8B
  8
DEFPOINTS
  6
CONTINUOUS
 62
     7
 10
-39.75
 20
40.0
 30
0.0
  0
ENDBLK
  5
8C
  8
0
  0
BLOCK
  8
0
  2
*D9
 70
     1
 10
0.0
 20
0.0
 30
0.0
  3
*D9
  1

  0
LINE
  5
8F
  8
0
  6
CONTINUOUS
 62
     7
 10
-66.5
 20
-25.0
 30
0.0
 11
-49.0
 21
-25.0
 31
0.0
  0
INSERT
  5
90
  8
0
  6
CONTINUOUS
 62
     7
  2
_DOT
 10
-66.5
 20
-25.0
 30
0.0
 50
180.0
  0
INSERT
  5
91
  8
0
  6
CONTINUOUS
 62
     7
  2
_DOT
 10
-49.0
 20
-25.0
 30
0.0
  0
LINE
  5
92
  8
0
  6
CONTINUOUS
 62
     7
 10
-66.5
 20
-0.039999924
 30
0.0
 11
-66.5
 21
-26.200001
 31
0.0
  0
LINE
  5
93
  8
0
  6
CONTINUOUS
 62
     7
 10
-49.0
 20
9.9200000999999993
 30
0.0
 11
-49.0
 21
-26.200001
 31
0.0
  0
TEXT
  5
94
  8
0
  6
CONTINUOUS
 62
     7
 10
-63.943000000000012
 20
-24.199999999999989
 30
0.0
 40
3.2000000000000002
  1
17.5
 41
1.3928906000000001
  0
POINT
  5
95
  8
DEFPOINTS
  6
CONTINUOUS
 62
     7
 10
-66.5
 20
2.5
 30
0.0
  0
POINT
  5
96
  8
DEFPOINTS
  6
CONTINUOUS
 62
     7
 10
-49.0
 20
12.460000000000001
 30
0.0
  0
POINT
  5
97
  8
DEFPOINTS
  6
CONTINUOUS
 62
     7
 10
-49.0
 20
-25.0
 30
0.0
  0
ENDBLK
  5
98
  8
0
  0
BLOCK
  8
0
  2
*D10
 70
     1
 10
0.0
 20
0.0
 30
0.0
  3
*D10
  1

  0
LINE
  5
9B
  8
0
  6
CONTINUOUS
 62
     7
 10
-14.0
 20
-25.0
 30
0.0
 11
3.5
 21
-25.0
 31
0.0
  0
INSERT
  5
9C
  8
0
  6
CONTINUOUS
 62
     7
  2
_DOT
 10
-14.0
 20
-25.0
 30
0.0
 50
180.0
  0
INSERT
  5
9D
  8
0
  6
CONTINUOUS
 62
     7
  2
_DOT
 10
3.5
 20
-25.0
 30
0.0
  0
LINE
  5
9E
  8
0
  6
CONTINUOUS
 62
     7
 10
-14.0
 20
9.9200000999999993
 30
0.0
 11
-14.0
 21
-26.200001
 31
0.0
  0
LINE
  5
9F
  8
0
  6
CONTINUOUS
 62
     7
 10
3.5
 20
-0.039999924
 30
0.0
 11
3.5
 21
-26.200001
 31
0.0
  0
TEXT
  5
A0
  8
0
  6
CONTINUOUS
 62
     7
 10
-10.943
 20
-24.199999999999989
 30
0.0
 40
3.2000000000000002
  1
17.5
 41
1.3928906000000001
  0
POINT
  5
A1
  8
DEFPOINTS
  6
CONTINUOUS
 62
     7
 10
-14.0
 20
12.460000000000001
 30
0.0
  0
POINT
  5
A2
  8
DEFPOINTS
  6
CONTINUOUS
 62
     7
 10
3.5
 20
2.5
 30
0.0
  0
POINT
  5
A3
  8
DEFPOINTS
  6
CONTINUOUS
 62
     7
 10
3.5
 20
-25.0
 30
0.0
  0
ENDBLK
  5
A4
  8
0
  0
BLOCK
  8
0
  2
*D11
 70
     1
 10
0.0
 20
0.0
 30
0.0
  3
*D11
  1

  0
LINE
  5
A7
  8
0
  6
CONTINUOUS
 62
     7
 10
-49.0
 20
-25.0
 30
0.0
 11
-14.0
 21
-25.0
 31
0.0
  0
INSERT
  5
A8
  8
0
  6
CONTINUOUS
 62
     7
  2
_DOT
 10
-49.0
 20
-25.0
 30
0.0
 50
180.0
  0
INSERT
  5
A9
  8
0
  6
CONTINUOUS
 62
     7
  2
_DOT
 10
-14.0
 20
-25.0
 30
0.0
  0
LINE
  5
AA
  8
0
  6
CONTINUOUS
 62
     7
 10
-49.0
 20
9.9200000999999993
 30
0.0
 11
-49.0
 21
-26.200001
 31
0.0
  0
TEXT
  5
AB
  8
0
  6
CONTINUOUS
 62
     7
 10
-35.243000000000002
 20
-24.199999999999989
 30
0.0
 40
3.2000000000000002
  1
35
 41
1.028624999999999
  0
POINT
  5
AC
  8
DEFPOINTS
  6
CONTINUOUS
 62
     7
 10
-49.0
 20
12.460000000000001
 30
0.0
  0
POINT
  5
AD
  8
DEFPOINTS
  6
CONTINUOUS
 62
     7
 10
-14.0
 20
12.460000000000001
 30
0.0
  0
POINT
  5
AE
  8
DEFPOINTS
  6
CONTINUOUS
 62
     7
 10
-14.0
 20
-25.0
 30
0.0
  0
ENDBLK
  5
AF
  8
0
  0
BLOCK
  8
0
  2
*D12
 70
     1
 10
0.0
 20
0.0
 30
0.0
  3
*D12
  1

  0
LINE
  5
B2
  8
0
  6
CONTINUOUS
 62
     7
 10
3.5
 20
-35.0
 30
0.0
 11
-66.5
 21
-35.0
 31
0.0
  0
INSERT
  5
B3
  8
0
  6
CONTINUOUS
 62
     7
  2
_DOT
 10
3.5
 20
-35.0
 30
0.0
  0
INSERT
  5
B4
  8
0
  6
CONTINUOUS
 62
     7
  2
_DOT
 10
-66.5
 20
-35.0
 30
0.0
 50
180.0
  0
LINE
  5
B5
  8
0
  6
CONTINUOUS
 62
     7
 10
3.5
 20
-0.039999924
 30
0.0
 11
3.5
 21
-36.200001
 31
0.0
  0
LINE
  5
B6
  8
0
  6
CONTINUOUS
 62
     7
 10
-66.5
 20
-0.039999924
 30
0.0
 11
-66.5
 21
-36.200001
 31
0.0
  0
TEXT
  5
B7
  8
0
  6
CONTINUOUS
 62
     7
 10
-35.243000000000002
 20
-34.200000000000003
 30
0.0
 40
3.2000000000000002
  1
70
 41
1.102098199999999
  0
POINT
  5
B8
  8
DEFPOINTS
  6
CONTINUOUS
 62
     7
 10
3.5
 20
2.5
 30
0.0
  0
POINT
  5
B9
  8
DEFPOINTS
  6
CONTINUOUS
 62
     7
 10
-66.5
 20
2.5
 30
0.0
  0
POINT
  5
BA
  8
DEFPOINTS
  6
CONTINUOUS
 62
     7
 10
-66.5
 20
-35.0
 30
0.0
  0
ENDBLK
  5
BB
  8
0
  0
BLOCK
  8
0
  2
*D13
 70
     1
 10
0.0
 20
0.0
 30
0.0
  3
*D13
  1

  0
LINE
  5
BE
  8
0
  6
CONTINUOUS
 62
     7
 10
-12.292369000000001
 20
19.466575999999989
 30
0.0
 11
-4.9999995000000004
 21
30.0
 31
0.0
  0
INSERT
  5
BF
  8
0
  6
CONTINUOUS
 62
     7
  2
_DOT
 10
-12.292369000000001
 20
19.466575999999989
 30
0.0
 50
235.30484999999999
  0
LINE
  5
C0
  8
0
  6
CONTINUOUS
 62
     7
 10
-5.0
 20
30.0
 30
0.0
 11
4.8117751999999996
 21
30.0
 31
0.0
  0
TEXT
  5
C1
  8
0
  6
CONTINUOUS
 62
     7
 10
-3.8742245999999989
 20
30.800000000000001
 30
0.0
 40
3.2000000000000002
  1
R 3
 41
1.3571874999999991
  0
POINT
  5
C2
  8
DEFPOINTS
  6
CONTINUOUS
 62
     7
 10
-12.292369000000001
 20
19.466575999999989
 30
0.0
  0
POINT
  5
C3
  8
DEFPOINTS
  6
CONTINUOUS
 62
     7
 10
-4.9999995000000004
 20
30.0
 30
0.0
  0
ENDBLK
  5
C4
  8
0
  0
BLOCK
  8
0
  2
*D14
 70
     1
 10
0.0
 20
0.0
 30
0.0
  3
*D14
  1

  0
LINE
  5
C7
  8
0
  6
CONTINUOUS
 62
     7
 10
-23.388450999999989
 20
19.129345000000001
 30
0.0
 11
-10.0
 21
40.0
 31
0.0
  0
INSERT
  5
C8
  8
0
  6
CONTINUOUS
 62
     7
  2
_DOT
 10
-23.388450999999989
 20
19.129345000000001
 30
0.0
 50
237.31997000000001
  0
LINE
  5
C9
  8
0
  6
CONTINUOUS
 62
     7
 10
-10.0
 20
40.0
 30
0.0
 11
2.7229999999999999
 21
40.0
 31
0.0
  0
TEXT
  5
CA
  8
0
  6
CONTINUOUS
 62
     7
 10
-12.04299999999999
 20
40.799999999999997
 30
0.0
 40
3.2000000000000002
  1
R 5.5
 41
1.4143125000000001
  0
POINT
  5
CB
  8
DEFPOINTS
  6
CONTINUOUS
 62
     7
 10
-23.388450999999989
 20
19.129345000000001
 30
0.0
  0
POINT
  5
CC
  8
DEFPOINTS
  6
CONTINUOUS
 62
     7
 10
-10.0
 20
40.0
 30
0.0
  0
ENDBLK
  5
CD
  8
0
  0
ENDSEC
  0
SECTION
  2
ENTITIES
  0
POINT
  5
CE
  8
0
  6
CONTINUOUS
 62
     7
 10
-66.5
 20
20.0
 30
0.0
  0
POINT
  5
CF
  8
0
  6
CONTINUOUS
 62
     7
 10
3.5
 20
20.0
 30
0.0
  0
LINE
  5
D0
  8
0
  6
CONTINUOUS
 62
     7
 10
170.0
 20
173.0
 30
0.0
 11
170.0
 21
-100.0
 31
0.0
  0
LINE
  5
D1
  8
0
  6
CONTINUOUS
 62
     7
 10
-211.0
 20
-100.0
 30
0.0
 11
170.0
 21
-100.0
 31
0.0
  0
LINE
  5
D2
  8
0
  6
CONTINUOUS
 62
     7
 10
-211.0
 20
173.0
 30
0.0
 11
170.0
 21
173.0
 31
0.0
  0
LINE
  5
D3
  8
0
  6
CONTINUOUS
 62
     7
 10
-211.0
 20
173.0
 30
0.0
 11
-211.0
 21
-100.0
 31
0.0
  0
LINE
  5
D4
  8
0
  6
CONTINUOUS
 62
     7
 10
-191.0
 20
173.0
 30
0.0
 11
-191.0
 21
77.0
 31
0.0
  0
LINE
  5
D5
  8
0
  6
CONTINUOUS
 62
     7
 10
-211.0
 20
165.0
 30
0.0
 11
-101.0
 21
165.0
 31
0.0
  0
LINE
  5
D6
  8
0
  6
CONTINUOUS
 62
     7
 10
-211.0
 20
157.0
 30
0.0
 11
-101.0
 21
157.0
 31
0.0
  0
LINE
  5
D7
  8
0
  6
CONTINUOUS
 62
     7
 10
-211.0
 20
149.0
 30
0.0
 11
-101.0
 21
149.0
 31
0.0
  0
LINE
  5
D8
  8
0
  6
CONTINUOUS
 62
     7
 10
-211.0
 20
141.0
 30
0.0
 11
-101.0
 21
141.0
 31
0.0
  0
LINE
  5
D9
  8
0
  6
CONTINUOUS
 62
     7
 10
-191.0
 20
117.0
 30
0.0
 11
-101.0
 21
117.0
 31
0.0
  0
LINE
  5
DA
  8
0
  6
CONTINUOUS
 62
     7
 10
-191.0
 20
109.0
 30
0.0
 11
-101.0
 21
109.0
 31
0.0
  0
LINE
  5
DB
  8
0
  6
CONTINUOUS
 62
     7
 10
-211.0
 20
101.0
 30
0.0
 11
-101.0
 21
101.0
 31
0.0
  0
LINE
  5
DC
  8
0
  6
CONTINUOUS
 62
     7
 10
-191.0
 20
93.0
 30
0.0
 11
-101.0
 21
93.0
 31
0.0
  0
LINE
  5
DD
  8
0
  6
CONTINUOUS
 62
     7
 10
-191.0
 20
85.0
 30
0.0
 11
-101.0
 21
85.0
 31
0.0
  0
LINE
  5
DE
  8
0
  6
CONTINUOUS
 62
     7
 10
-211.0
 20
77.0
 30
0.0
 11
-101.0
 21
77.0
 31
0.0
  0
LINE
  5
DF
  8
0
  6
CONTINUOUS
 62
     7
 10
-211.0
 20
173.0
 30
0.0
 11
-211.0
 21
77.0
 31
0.0
  0
LINE
  5
E0
  8
0
  6
CONTINUOUS
 62
     7
 10
-211.0
 20
173.0
 30
0.0
 11
-101.0
 21
173.0
 31
0.0
  0
LINE
  5
E1
  8
0
  6
CONTINUOUS
 62
     7
 10
-101.0
 20
173.0
 30
0.0
 11
-101.0
 21
77.0
 31
0.0
  0
LINE
  5
E2
  8
0
  6
CONTINUOUS
 62
     7
 10
-211.0
 20
133.0
 30
0.0
 11
-101.0
 21
133.0
 31
0.0
  0
LINE
  5
E3
  8
0
  6
CONTINUOUS
 62
     7
 10
-211.0
 20
125.0
 30
0.0
 11
-101.0
 21
125.0
 31
0.0
  0
LINE
  5
E4
  8
0
  6
CONTINUOUS
 62
     7
 10
-191.0
 20
117.0
 30
0.0
 11
-101.0
 21
117.0
 31
0.0
  0
LINE
  5
E5
  8
0
  6
CONTINUOUS
 62
     7
 10
-64.5
 20
0.0
 30
0.0
 11
-58.5
 21
0.0
 31
0.0
  0
LINE
  5
E6
  8
0
  6
CONTINUOUS
 62
     7
 10
3.5
 20
18.5
 30
0.0
 11
3.5
 21
2.0
 31
0.0
  0
LINE
  5
E7
  8
0
  6
CONTINUOUS
 62
     7
 10
-65.0
 20
20.0
 30
0.0
 11
-61.358157999999989
 21
20.0
 31
0.0
  0
LINE
  5
E8
  8
0
  6
CONTINUOUS
 62
     7
 10
-66.5
 20
18.5
 30
0.0
 11
-66.5
 21
2.0
 31
0.0
  0
LINE
  5
E9
  8
0
  6
CONTINUOUS
 62
     7
 10
-58.5
 20
2.0
 30
0.0
 11
-58.5
 21
0.0
 31
0.0
  0
LINE
  5
EA
  8
0
  6
CONTINUOUS
 62
     7
 10
-4.5
 20
2.0
 30
0.0
 11
-4.5
 21
0.0
 31
0.0
  0
LINE
  5
EB
  8
0
  6
CONTINUOUS
 62
     7
 10
-4.5
 20
0.0
 30
0.0
 11
1.5
 21
0.0
 31
0.0
  0
LINE
  5
EC
  8
0
  6
CONTINUOUS
 62
     7
 10
-56.646542000000011
 20
17.337374000000001
 30
0.0
 11
-55.749148999999989
 21
15.847200000000001
 31
0.0
  0
LINE
  5
ED
  8
0
  6
CONTINUOUS
 62
     7
 10
-41.353458000000003
 20
17.337371999999998
 30
0.0
 11
-42.250850999999997
 21
15.847198000000001
 31
0.0
  0
LINE
  5
EE
  8
0
  6
CONTINUOUS
 62
     7
 10
2.0
 20
20.0
 30
0.0
 11
-1.6418418999999991
 21
20.0
 31
0.0
  0
LINE
  5
EF
  8
0
  6
CENTER
 62
     7
 10
-49.0
 20
22.040001
 30
0.0
 11
-49.0
 21
11.960000000000001
 31
0.0
  0
LINE
  5
F0
  8
0
  6
CENTER
 62
     7
 10
-54.040001000000011
 20
17.0
 30
0.0
 11
-43.959998999999989
 21
17.0
 31
0.0
  0
LINE
  5
F1
  8
0
  6
CONTINUOUS
 62
     7
 10
-21.646543999999992
 20
17.337371999999998
 30
0.0
 11
-20.749148999999999
 21
15.847199
 31
0.0
  0
LINE
  5
F2
  8
0
  6
CONTINUOUS
 62
     7
 10
-6.3534569999999988
 20
17.337371999999998
 30
0.0
 11
-7.2508511999999996
 21
15.847198000000001
 31
0.0
  0
LINE
  5
F3
  8
0
  6
CONTINUOUS
 62
     7
 10
-36.64184199999999
 20
20.0
 30
0.0
 11
-26.358158
 21
20.0
 31
0.0
  0
LINE
  5
F4
  8
0
  6
CONTINUOUS
 62
     7
 10
-51.76923
 20
18.153846999999999
 30
0.0
 11
-52.634613000000002
 21
16.076923000000001
 31
0.0
  0
LINE
  5
F5
  8
0
  6
CONTINUOUS
 62
     7
 10
-46.230766000000003
 20
18.153845
 30
0.0
 11
-45.365383000000001
 21
16.076920999999992
 31
0.0
  0
LINE
  5
F6
  8
0
  6
CONTINUOUS
 62
     7
 10
-11.230769
 20
18.153846999999999
 30
0.0
 11
-10.365385
 21
16.076923000000001
 31
0.0
  0
LINE
  5
F7
  8
0
  6
CONTINUOUS
 62
     7
 10
-16.76923
 20
18.153846999999999
 30
0.0
 11
-17.634615
 21
16.076923000000001
 31
0.0
  0
LINE
  5
F8
  8
0
  6
CENTER
 62
     7
 10
-19.040001
 20
17.0
 30
0.0
 11
-8.9599990999999992
 21
17.0
 31
0.0
  0
LINE
  5
F9
  8
0
  6
CENTER
 62
     7
 10
-14.0
 20
22.040001
 30
0.0
 11
-14.0
 21
11.960000000000001
 31
0.0
  0
LINE
  5
FA
  8
0
  6
CONTINUOUS
 62
     7
 10
-64.5
 20
2.0
 30
0.0
 11
-58.5
 21
2.0
 31
0.0
  0
LINE
  5
FB
  8
0
  6
CONTINUOUS
 62
     7
 10
-64.5
 20
18.0
 30
0.0
 11
-64.5
 21
2.0
 31
0.0
  0
LINE
  5
FC
  8
0
  6
CONTINUOUS
 62
     7
 10
-64.5
 20
18.0
 30
0.0
 11
-61.358157999999989
 21
18.0
 31
0.0
  0
LINE
  5
FD
  8
0
  6
CONTINUOUS
 62
     7
 10
-58.359859
 20
16.305603000000001
 30
0.0
 11
-57.462463
 21
14.815428999999989
 31
0.0
  0
LINE
  5
FE
  8
0
  6
CONTINUOUS
 62
     7
 10
-49.923076999999999
 20
17.384615
 30
0.0
 11
-50.788460000000001
 21
15.307693
 31
0.0
  0
LINE
  5
FF
  8
0
  6
CONTINUOUS
 62
     7
 10
-48.076920000000001
 20
17.384613000000002
 30
0.0
 11
-47.211536000000002
 21
15.307691
 31
0.0
  0
LINE
  5
100
  8
0
  6
CONTINUOUS
 62
     7
 10
-39.640140999999993
 20
16.305599000000001
 30
0.0
 11
-40.537537
 21
14.815427
 31
0.0
  0
LINE
  5
101
  8
0
  6
CONTINUOUS
 62
     7
 10
-36.64184199999999
 20
18.0
 30
0.0
 11
-26.358158
 21
18.0
 31
0.0
  0
LINE
  5
102
  8
0
  6
CONTINUOUS
 62
     7
 10
-23.359857999999999
 20
16.305600999999999
 30
0.0
 11
-22.462463
 21
14.815428000000001
 31
0.0
  0
LINE
  5
103
  8
0
  6
CONTINUOUS
 62
     7
 10
-14.923076999999999
 20
17.384615
 30
0.0
 11
-15.788462000000001
 21
15.307693
 31
0.0
  0
LINE
  5
104
  8
0
  6
CONTINUOUS
 62
     7
 10
-13.076923000000001
 20
17.384615
 30
0.0
 11
-12.211537999999999
 21
15.307693
 31
0.0
  0
LINE
  5
105
  8
0
  6
CONTINUOUS
 62
     7
 10
-4.6401424000000002
 20
16.305600999999999
 30
0.0
 11
-5.5375365999999993
 21
14.815427
 31
0.0
  0
LINE
  5
106
  8
0
  6
CONTINUOUS
 62
     7
 10
1.5
 20
18.0
 30
0.0
 11
-1.6418418999999991
 21
18.0
 31
0.0
  0
LINE
  5
107
  8
0
  6
CONTINUOUS
 62
     7
 10
1.5
 20
18.0
 30
0.0
 11
1.5
 21
2.0
 31
0.0
  0
LINE
  5
108
  8
0
  6
CONTINUOUS
 62
     7
 10
-4.5
 20
2.0
 30
0.0
 11
1.5
 21
2.0
 31
0.0
  0
ARC
  5
109
  8
0
  6
CONTINUOUS
 62
     7
 10
-54.25
 20
16.75
 30
0.0
 40
1.75
 50
211.0567099999999
 51
337.38013000000001
  0
ARC
  5
10A
  8
0
  6
CONTINUOUS
 62
     7
 10
-61.358157999999989
 20
14.5
 30
0.0
 40
5.5
 50
31.056674999999998
 51
90.0
  0
ARC
  5
10B
  8
0
  6
CONTINUOUS
 62
     7
 10
-43.75
 20
16.75
 30
0.0
 40
1.75
 50
202.61986999999999
 51
328.94328999999988
  0
ARC
  5
10C
  8
0
  6
CONTINUOUS
 62
     7
 10
-36.64184199999999
 20
14.5
 30
0.0
 40
5.5
 50
90.0
 51
148.94332
  0
ARC
  5
10D
  8
0
  6
CONTINUOUS
 62
     7
 10
-26.358158
 20
14.5
 30
0.0
 40
5.5
 50
31.056685999999999
 51
90.0
  0
ARC
  5
10E
  8
0
  6
CONTINUOUS
 62
     7
 10
-1.6418418999999991
 20
14.5
 30
0.0
 40
5.5
 50
90.000001999999981
 51
148.94332
  0
ARC
  5
10F
  8
0
  6
CONTINUOUS
 62
     7
 10
-49.0
 20
17.0
 30
0.0
 40
3.0
 50
22.619882
 51
157.38012000000001
  0
ARC
  5
110
  8
0
  6
CONTINUOUS
 62
     7
 10
-14.0
 20
17.0
 30
0.0
 40
3.0
 50
22.619875
 51
157.38013000000001
  0
ARC
  5
111
  8
0
  6
CONTINUOUS
 62
     7
 10
-19.25
 20
16.75
 30
0.0
 40
1.75
 50
211.05667999999989
 51
337.38015000000001
  0
ARC
  5
112
  8
0
  6
CONTINUOUS
 62
     7
 10
-8.75
 20
16.75
 30
0.0
 40
1.75
 50
202.61985000000001
 51
328.94331
  0
ARC
  5
113
  8
0
  6
CONTINUOUS
 62
     7
 10
-64.5
 20
2.0
 30
0.0
 40
2.0
 50
179.99998999999991
 51
270.0
  0
ARC
  5
114
  8
0
  6
CONTINUOUS
 62
     7
 10
1.5
 20
2.0
 30
0.0
 40
2.0
 50
270.0
 51
0.0
  0
ARC
  5
115
  8
0
  6
CONTINUOUS
 62
     7
 10
-61.358157999999989
 20
14.5
 30
0.0
 40
3.5
 50
31.056711
 51
90.0
  0
ARC
  5
116
  8
0
  6
CONTINUOUS
 62
     7
 10
-54.25
 20
16.75
 30
0.0
 40
3.75
 50
211.05670000000001
 51
337.38015000000001
  0
ARC
  5
117
  8
0
  6
CONTINUOUS
 62
     7
 10
-49.0
 20
17.0
 30
0.0
 40
1.0
 50
22.619848000000001
 51
157.3801499999999
  0
ARC
  5
118
  8
0
  6
CONTINUOUS
 62
     7
 10
-43.75
 20
16.75
 30
0.0
 40
3.75
 50
202.61985000000001
 51
328.94330000000002
  0
ARC
  5
119
  8
0
  6
CONTINUOUS
 62
     7
 10
-36.64184199999999
 20
14.5
 30
0.0
 40
3.5
 50
90.0
 51
148.94332
  0
ARC
  5
11A
  8
0
  6
CONTINUOUS
 62
     7
 10
-26.358158
 20
14.5
 30
0.0
 40
3.5
 50
31.056695000000001
 51
90.0
  0
ARC
  5
11B
  8
0
  6
CONTINUOUS
 62
     7
 10
-19.25
 20
16.75
 30
0.0
 40
3.75
 50
211.05669
 51
337.38013999999998
  0
ARC
  5
11C
  8
0
  6
CONTINUOUS
 62
     7
 10
-14.0
 20
17.0
 30
0.0
 40
1.0
 50
22.619848000000001
 51
157.3801499999999
  0
ARC
  5
11D
  8
0
  6
CONTINUOUS
 62
     7
 10
-8.75
 20
16.75
 30
0.0
 40
3.75
 50
202.61985999999999
 51
328.94331
  0
ARC
  5
11E
  8
0
  6
CONTINUOUS
 62
     7
 10
-1.6418418999999991
 20
14.5
 30
0.0
 40
3.5
 50
90.000001999999981
 51
148.94331
  0
ARC
  5
11F
  8
0
  6
CONTINUOUS
 62
     7
 10
-65.0
 20
18.5
 30
0.0
 40
1.5
 50
90.0
 51
180.0
  0
ARC
  5
120
  8
0
  6
CONTINUOUS
 62
     7
 10
2.0
 20
18.5
 30
0.0
 40
1.5
 50
0.0
 51
90.000005000000016
  0
TEXT
  5
121
  8
0
  6
CONTINUOUS
 62
     7
 10
-188.14299999999989
 20
95.400000000000006
 30
0.0
 40
3.2000000000000002
  1
＊
 41
0.90047268
  0
TEXT
  5
122
  8
0
  6
CONTINUOUS
 62
     7
 10
-205.34299999999999
 20
167.40000000000001
 30
0.0
 40
3.2000000000000002
  1
品　名
 41
0.85537027
  0
TEXT
  5
123
  8
0
  6
CONTINUOUS
 62
     7
 10
-205.34299999999999
 20
159.40000000000001
 30
0.0
 40
3.2000000000000002
  1
品　番
 41
0.85537027
  0
TEXT
  5
124
  8
0
  6
CONTINUOUS
 62
     7
 10
-188.14299999999989
 20
87.400000000000006
 30
0.0
 40
3.2000000000000002
  1
＊
 41
0.90047268
  0
TEXT
  5
125
  8
0
  6
CONTINUOUS
 62
     7
 10
-188.14299999999989
 20
79.400000000000006
 30
0.0
 40
3.2000000000000002
  1
＊
 41
0.90047268
  0
TEXT
  5
126
  8
0
  6
CONTINUOUS
 62
     7
 10
-205.34299999999999
 20
151.40000000000001
 30
0.0
 40
3.2000000000000002
  1
材　質
 41
0.85537027
  0
TEXT
  5
127
  8
0
  6
CONTINUOUS
 62
     7
 10
-205.34299999999999
 20
143.40000000000001
 30
0.0
 40
3.2000000000000002
  1
仕上げ
 41
0.85537027
  0
TEXT
  5
128
  8
0
  6
CONTINUOUS
 62
     7
 10
-188.14299999999989
 20
103.40000000000001
 30
0.0
 40
3.2000000000000002
  1
＊
 41
0.90047268
  0
TEXT
  5
129
  8
0
  6
CONTINUOUS
 62
     7
 10
-188.14299999999989
 20
111.40000000000001
 30
0.0
 40
3.2000000000000002
  1
＊
 41
0.90047268
  0
TEXT
  5
12A
  8
0
  6
CONTINUOUS
 62
     7
 10
-208.54300000000001
 20
119.40000000000001
 30
0.0
 40
3.2000000000000002
  1
セットビス
 41
0.84892707
  0
TEXT
  5
12B
  8
0
  6
CONTINUOUS
 62
     7
 10
-188.14299999999989
 20
119.40000000000001
 30
0.0
 40
3.2000000000000002
  1
＊
 41
0.90047268
  0
TEXT
  5
12C
  8
0
  6
CONTINUOUS
 62
     7
 10
-203.74299999999999
 20
95.400000000000006
 30
0.0
 40
3.2000000000000002
  1
備考
 41
0.8643907499999999
  0
TEXT
  5
12D
  8
0
  6
CONTINUOUS
 62
     7
 10
-205.34299999999999
 20
135.40000000000001
 30
0.0
 40
3.2000000000000002
  1
定　尺
 41
0.85537027
  0
TEXT
  5
12E
  8
0
  6
CONTINUOUS
 62
     7
 10
-206.9429999999999
 20
127.40000000000001
 30
0.0
 40
3.2000000000000002
  1
左右勝手
 41
0.8512700499999999
  0
TEXT
  5
12F
  8
0
  6
CONTINUOUS
 62
     7
 10
-188.3785499999999
 20
134.96997999999999
 30
0.0
 40
3.2000000000000002
  1
１８２９ｍｍ、２４３８ｍｍ
 41
0.8435012200000001
  0
TEXT
  5
130
  8
0
  6
CONTINUOUS
 62
     7
 10
-188.14299999999989
 20
167.40000000000001
 30
0.0
 40
3.2000000000000002
  1
フラットレール
 41
0.84634979
  0
TEXT
  5
131
  8
0
  6
CONTINUOUS
 62
     7
 10
-188.14299999999989
 20
159.40000000000001
 30
0.0
 40
3.2000000000000002
  1
ＳＲ－１９－３５
 41
0.8455654
  0
TEXT
  5
132
  8
0
  6
CONTINUOUS
 62
     7
 10
-188.14299999999989
 20
151.40000000000001
 30
0.0
 40
3.2000000000000002
  1
ステンレス
 41
0.84892707
  0
TEXT
  5
133
  8
0
  6
CONTINUOUS
 62
     7
 10
-188.14299999999989
 20
143.40000000000001
 30
0.0
 40
3.2000000000000002
  1
ヘアーライン
 41
0.84741102
  0
TEXT
  5
134
  8
0
  6
CONTINUOUS
 62
     7
 10
-188.3785499999999
 20
127.3661699999999
 30
0.0
 40
3.2000000000000002
  1
＊
 41
0.90047268
  0
TEXT
  5
135
  8
0
  6
CONTINUOUS
 62
     7
 10
33.457000000000001
 20
-16.600000000000001
 30
0.0
 40
3.2000000000000002
  1
ｔ＝２.０
 41
0.84892707
  0
DIMENSION
  5
136
  8
0
  6
CONTINUOUS
 62
     7
  2
*D2
 10
-58.5
 20
-15.0
 30
0.0
 11
-62.5
 21
-15.0
 31
0.0
 13
-66.5
 23
2.5
 33
0.0
 14
-58.5
 24
0.0
 34
0.0
1001
ACAD
1000
DSTYLE
1002
{
1070
    77
1070
     1
1070
   172
1070
     1
1002
}
  0
DIMENSION
  5
137
  8
0
  6
CONTINUOUS
 62
     7
  2
*D3
 10
3.5
 20
-15.0
 30
0.0
 11
-0.5
 21
-15.0
 31
0.0
 13
-4.5
 23
0.0
 33
0.0
 14
3.5
 24
2.5
 34
0.0
1001
ACAD
1000
DSTYLE
1002
{
1070
    77
1070
     1
1070
   172
1070
     1
1002
}
  0
DIMENSION
  5
138
  8
0
  6
CONTINUOUS
 62
     7
  2
*D4
 10
22.0
 20
0.0
 30
0.0
 11
22.0
 21
7.5
 31
0.0
 13
-8.75
 23
15.0
 33
0.0
 14
1.0
 24
0.0
 34
0.0
 50
90.0
1001
ACAD
1000
DSTYLE
1002
{
1070
    77
1070
     1
1070
   172
1070
     1
1002
}
  0
DIMENSION
  5
139
  8
0
  6
CONTINUOUS
 62
     7
  2
*D5
 10
22.0
 20
20.0
 30
0.0
 11
22.0
 21
17.5
 31
0.0
 13
-16.75
 23
15.0
 33
0.0
 14
1.0
 24
20.0
 34
0.0
 50
90.0
1001
ACAD
1000
DSTYLE
1002
{
1070
    77
1070
     1
1070
   172
1070
     1
1070
    75
1070
     1
1002
}
  0
DIMENSION
  5
13A
  8
0
  6
CONTINUOUS
 62
     7
  2
*D6
 10
28.5
 20
0.0
 30
0.0
 11
28.5
 21
10.0
 31
0.0
 13
1.0
 23
20.0
 33
0.0
 14
1.0
 24
0.0
 34
0.0
 50
90.0
1001
ACAD
1000
DSTYLE
1002
{
1070
    77
1070
     1
1070
   172
1070
     1
1002
}
  0
DIMENSION
  5
13B
  8
0
  6
CONTINUOUS
 62
     7
  2
*D7
 10
-43.75
 20
30.0
 30
0.0
 11
-49.0
 21
30.0
 31
0.0
 13
-54.25
 23
16.75
 33
0.0
 14
-43.75
 24
16.75
 34
0.0
1001
ACAD
1000
DSTYLE
1002
{
1070
    77
1070
     1
1070
   172
1070
     1
1002
}
  0
DIMENSION
  5
13C
  8
0
  6
CONTINUOUS
 62
     7
  2
*D8
 10
-39.75
 20
40.0
 30
0.0
 11
-49.0
 21
40.0
 31
0.0
 13
-58.25
 23
20.0
 33
0.0
 14
-39.75
 24
20.0
 34
0.0
1001
ACAD
1000
DSTYLE
1002
{
1070
    77
1070
     1
1070
   172
1070
     1
1002
}
  0
DIMENSION
  5
13D
  8
0
  6
CONTINUOUS
 62
     7
  2
*D9
 10
-49.0
 20
-25.0
 30
0.0
 11
-58.0
 21
-25.0
 31
0.0
 13
-66.5
 23
2.5
 33
0.0
 14
-49.0
 24
12.460000000000001
 34
0.0
1001
ACAD
1000
DSTYLE
1002
{
1070
    77
1070
     1
1070
   172
1070
     1
1002
}
  0
DIMENSION
  5
13E
  8
0
  6
CONTINUOUS
 62
     7
  2
*D10
 10
3.5
 20
-25.0
 30
0.0
 11
-5.0
 21
-25.0
 31
0.0
 13
-14.0
 23
12.460000000000001
 33
0.0
 14
3.5
 24
2.5
 34
0.0
1001
ACAD
1000
DSTYLE
1002
{
1070
    77
1070
     1
1070
   172
1070
     1
1002
}
  0
DIMENSION
  5
13F
  8
0
  6
CONTINUOUS
 62
     7
  2
*D11
 10
-14.0
 20
-25.0
 30
0.0
 11
-32.5
 21
-25.0
 31
0.0
 13
-49.0
 23
12.460000000000001
 33
0.0
 14
-14.0
 24
12.460000000000001
 34
0.0
1001
ACAD
1000
DSTYLE
1002
{
1070
    77
1070
     1
1070
   172
1070
     1
1070
    76
1070
     1
1002
}
  0
DIMENSION
  5
140
  8
0
  6
CONTINUOUS
 62
     7
  2
*D12
 10
-66.5
 20
-35.0
 30
0.0
 11
-32.5
 21
-35.0
 31
0.0
 13
3.5
 23
2.5
 33
0.0
 14
-66.5
 24
2.5
 34
0.0
1001
ACAD
1000
DSTYLE
1002
{
1070
    77
1070
     1
1070
   172
1070
     1
1002
}
  0
INSERT
  5
141
  8
0
  6
CONTINUOUS
 62
     7
  2
*D13
 10
0.0
 20
0.0
 30
0.0
  0
INSERT
  5
142
  8
0
  6
CONTINUOUS
 62
     7
  2
*D14
 10
0.0
 20
0.0
 30
0.0
  0
ENDSEC
  0
EOF
