  0
SECTION
  2
HEADER
  9
$EXTMAX
 10
170
 20
173
 30
0
  9
$EXTMIN
 10
-211
 20
-100
 30
0
  9
$LIMMAX
 10
170
 20
173
  9
$LIMMIN
 10
-211
 20
-100
  9
$PLIMMAX
 10
170
 20
173
  9
$PLIMMIN
 10
-211
 20
-100
  9
$TEXTSIZE
 40
3.2
  9
$DIMSHO
 70
     0
  9
$DIMASZ
 40
1.0
  9
$DIMTAD
 70
     1
  9
$DIMTIH
 70
     0
  9
$DIMTOH
 70
     0
  9
$DIMEXE
 40
2.54
  9
$DIMEXO
 40
2.54
  9
$DIMTVP
 40
1.0
  9
$DIMSAH
 70
     1
  9
$DIMDLE
 40
0.0
  9
$DIMTXT
 40
3.2
  9
$DIMGAP
 40
1.6
  0
ENDSEC
  0
SECTION
  2
TABLES
  0
TABLE
  2
LTYPE
 70
     6
  0
LTYPE
  2
CONTINUOUS
 70
    64
  3
Solid line
 72
    65
 73
     0
 40
0.0
  0
LTYPE
  2
DASHED
 70
    64
  3
__ __ __ __ __ __ __ __ __ __ __ __ __ __ __
 72
    65
 73
     2
 40
3.5
 49
2.0
 49
-1.5
  0
LTYPE
  2
CENTER
 70
    64
  3
____ _ ____ _ ____ _ ____ _ ____ _ ____ _ ____
 72
    65
 73
     4
 40
17.5
 49
13.0
 49
-1.5
 49
1.5
 49
-1.5
  0
LTYPE
  2
PHANTOM
 70
    64
  3
_____ _ _ _____ _ _ _____ _ _ _____ _ _ ____  
 72
    65
 73
     6
 40
15.5
 49
8.0
 49
-1.5
 49
1.5
 49
-1.5
 49
1.5
 49
-1.5
  0
LTYPE
  2
DOT
 70
    64
  3
. . . . . . . . . . . . . . . . . . . . . . . .
 72
    65
 73
     2
 40
0.25
 49
0.0
 49
-0.25
  0
LTYPE
  2
HIDDEN
 70
    64
  3
__ __ __ __ __ __ __ __ __ __ __ __ __ __ __
 72
    65
 73
     2
 40
3.5
 49
2.0
 49
-1.5
  0
ENDTAB
  0
TABLE
  2
LAYER
 70
     4
  0
LAYER
  2
0
 70
     0
 62
     7
  6
CONTINUOUS
  0
LAYER
  2
1
 70
     0
 62
     7
  6
CONTINUOUS
  0
LAYER
  2
2
 70
     0
 62
     7
  6
CONTINUOUS
  0
LAYER
  2
DEFPOINTS
 70
     0
 62
     7
  6
CONTINUOUS
  0
ENDTAB
  0
TABLE
  2
STYLE
 70
     1
  0
STYLE
  2
STANDARD
 70
     0
 40
0.0
 41
1.0
 50
0.0
 71
     0
 42
0.2
  3
txt
  4
BIGFONT
  0
ENDTAB
  0
TABLE
  2
DIMSTYLE
 70
     1
  0
DIMSTYLE
  2
DIMSTYLE
 70
     0
  3

  4

  5
_DOT
  6
_DOT
  7
_DOT
 40
1
 41
1
 42
2.54
 43
0.38
 44
2.54
 45
0
 46
0
 47
0
 48
0
140
3.2
141
0.09
142
0
143
25.4
144
1
145
0
146
1
147
1.6
 71
     0
 72
     0
 73
     0
 74
     0
 75
     0
 76
     0
 78
     0
170
     0
171
     2
 77
     0
172
     0
173
     1
174
     0
175
     0
176
     0
177
     0
178
     0
  0
ENDTAB
  0
ENDSEC
  0
SECTION
  2
BLOCKS
  0
BLOCK
  8
0
  2
_DOT
 70
    64
 10
0
 20
0
  3
_DOT
  0
POLYLINE
  8
0
  6
BYBLOCK
 62
     0
 66
     1
 10
0
 20
0
 70
     1
 40
0.40000001
 41
0.40000001
  0
VERTEX
  8
0
  6
BYBLOCK
 62
     0
 10
-0.2
 20
0
 42
1
  0
VERTEX
  8
0
  6
BYBLOCK
 62
     0
 10
0.2
 20
0
 42
1
  0
SEQEND
  8
0
  6
BYBLOCK
 62
     0
  0
LINE
  8
0
  6
BYBLOCK
 62
     0
 10
-0.40000001
 20
0
 11
-3
 21
0
  0
ENDBLK
  8
0
  0
BLOCK
  8
0
  2
_NONE
 70
    64
 10
0
 20
0
  3
_NONE
  0
CIRCLE
  8
0
  6
BYBLOCK
 62
     0
 10
0
 20
0
 40
0.001
  0
ENDBLK
  8
0
  0
BLOCK
  8
0
  2
*D1
 70
    65
 10
0
 20
0
  0
LINE
  8
0
  6
CONTINUOUS
 62
     7
 10
-66.5
 20
-15
 11
-58.5
 21
-15
  0
INSERT
  8
0
  6
CONTINUOUS
 62
     7
  2
_DOT
 10
-66.5
 20
-15
 50
180
  0
INSERT
  8
0
  6
CONTINUOUS
 62
     7
  2
_DOT
 10
-58.5
 20
-15
  0
LINE
  8
0
  6
CONTINUOUS
 62
     7
 10
-66.5
 20
-0.039999924
 11
-66.5
 21
-16.200001
  0
LINE
  8
0
  6
CONTINUOUS
 62
     7
 10
-58.5
 20
-2.5399999
 11
-58.5
 21
-16.200001
  0
TEXT
  8
0
  6
CONTINUOUS
 62
     7
 10
-63.643
 20
-14.2
 40
3.2
 41
1
  1
8
  0
POINT
  8
DEFPOINTS
  6
CONTINUOUS
 62
     7
 10
-66.5
 20
2.5
  0
POINT
  8
DEFPOINTS
  6
CONTINUOUS
 62
     7
 10
-58.5
 20
0
  0
POINT
  8
DEFPOINTS
  6
CONTINUOUS
 62
     7
 10
-58.5
 20
-15
  0
ENDBLK
  8
0
  0
BLOCK
  8
0
  2
*D2
 70
    65
 10
0
 20
0
  0
LINE
  8
0
  6
CONTINUOUS
 62
     7
 10
-6.5
 20
-15
 11
1.5
 21
-15
  0
INSERT
  8
0
  6
CONTINUOUS
 62
     7
  2
_DOT
 10
-6.5
 20
-15
 50
180
  0
INSERT
  8
0
  6
CONTINUOUS
 62
     7
  2
_DOT
 10
1.5
 20
-15
  0
LINE
  8
0
  6
CONTINUOUS
 62
     7
 10
-6.5
 20
-2.5399999
 11
-6.5
 21
-16.200001
  0
LINE
  8
0
  6
CONTINUOUS
 62
     7
 10
1.5
 20
-0.039999924
 11
1.5
 21
-16.200001
  0
TEXT
  8
0
  6
CONTINUOUS
 62
     7
 10
-3.643
 20
-14.2
 40
3.2
 41
1
  1
8
  0
POINT
  8
DEFPOINTS
  6
CONTINUOUS
 62
     7
 10
-6.5
 20
0
  0
POINT
  8
DEFPOINTS
  6
CONTINUOUS
 62
     7
 10
1.5
 20
2.5
  0
POINT
  8
DEFPOINTS
  6
CONTINUOUS
 62
     7
 10
1.5
 20
-15
  0
ENDBLK
  8
0
  0
BLOCK
  8
0
  2
*D3
 70
    65
 10
0
 20
0
  0
LINE
  8
0
  6
CONTINUOUS
 62
     7
 10
20
 20
15
 11
20
 21
0
  0
INSERT
  8
0
  6
CONTINUOUS
 62
     7
  2
_DOT
 10
20
 20
15
 50
90
  0
INSERT
  8
0
  6
CONTINUOUS
 62
     7
  2
_DOT
 10
20
 20
0
 50
270
  0
LINE
  8
0
  6
CONTINUOUS
 62
     7
 10
-7.7100001
 20
15
 11
21.200001
 21
15
  0
LINE
  8
0
  6
CONTINUOUS
 62
     7
 10
1.5399999
 20
0
 11
21.200001
 21
0
  0
TEXT
  8
0
  6
CONTINUOUS
 62
     7
 10
19.2
 20
4.757
 40
3.2
 41
1.2857812
  1
15
 50
90.000003
  0
POINT
  8
DEFPOINTS
  6
CONTINUOUS
 62
     7
 10
-10.25
 20
15
  0
POINT
  8
DEFPOINTS
  6
CONTINUOUS
 62
     7
 10
-1
 20
0
  0
POINT
  8
DEFPOINTS
  6
CONTINUOUS
 62
     7
 10
20
 20
0
  0
ENDBLK
  8
0
  0
BLOCK
  8
0
  2
*D4
 70
    65
 10
0
 20
0
  0
LINE
  8
0
  6
CONTINUOUS
 62
     7
 10
20
 20
15
 11
20
 21
20
  0
INSERT
  8
0
  6
CONTINUOUS
 62
     7
  2
_DOT
 10
20
 20
15
 50
270
  0
INSERT
  8
0
  6
CONTINUOUS
 62
     7
  2
_DOT
 10
20
 20
20
 50
90
  0
LINE
  8
0
  6
CONTINUOUS
 62
     7
 10
1.5399999
 20
20
 11
21.200001
 21
20
  0
TEXT
  8
0
  6
CONTINUOUS
 62
     7
 10
19.2
 20
16.357
 40
3.2
 41
1
  1
5
 50
90.000003
  0
POINT
  8
DEFPOINTS
  6
CONTINUOUS
 62
     7
 10
-18.25
 20
15
  0
POINT
  8
DEFPOINTS
  6
CONTINUOUS
 62
     7
 10
-1
 20
20
  0
POINT
  8
DEFPOINTS
  6
CONTINUOUS
 62
     7
 10
20
 20
20
  0
ENDBLK
  8
0
  0
BLOCK
  8
0
  2
*D5
 70
    65
 10
0
 20
0
  0
LINE
  8
0
  6
CONTINUOUS
 62
     7
 10
26.5
 20
20
 11
26.5
 21
0
  0
INSERT
  8
0
  6
CONTINUOUS
 62
     7
  2
_DOT
 10
26.5
 20
20
 50
90
  0
INSERT
  8
0
  6
CONTINUOUS
 62
     7
  2
_DOT
 10
26.5
 20
0
 50
270
  0
LINE
  8
0
  6
CONTINUOUS
 62
     7
 10
1.5399999
 20
20
 11
27.700001
 21
20
  0
LINE
  8
0
  6
CONTINUOUS
 62
     7
 10
1.5399999
 20
0
 11
27.700001
 21
0
  0
TEXT
  8
0
  6
CONTINUOUS
 62
     7
 10
25.7
 20
7.257
 40
3.2
 41
1.1020982
  1
20
 50
90.000003
  0
POINT
  8
DEFPOINTS
  6
CONTINUOUS
 62
     7
 10
-1
 20
20
  0
POINT
  8
DEFPOINTS
  6
CONTINUOUS
 62
     7
 10
-1
 20
0
  0
POINT
  8
DEFPOINTS
  6
CONTINUOUS
 62
     7
 10
26.5
 20
0
  0
ENDBLK
  8
0
  0
BLOCK
  8
0
  2
*D6
 70
    65
 10
0
 20
0
  0
LINE
  8
0
  6
CONTINUOUS
 62
     7
 10
-54.75
 20
30
 11
-44.25
 21
30
  0
INSERT
  8
0
  6
CONTINUOUS
 62
     7
  2
_DOT
 10
-54.75
 20
30
 50
180
  0
INSERT
  8
0
  6
CONTINUOUS
 62
     7
  2
_DOT
 10
-44.25
 20
30
  0
LINE
  8
0
  6
CONTINUOUS
 62
     7
 10
-54.75
 20
19.29
 11
-54.75
 21
31.200001
  0
LINE
  8
0
  6
CONTINUOUS
 62
     7
 10
-44.25
 20
19.29
 11
-44.25
 21
31.200001
  0
TEXT
  8
0
  6
CONTINUOUS
 62
     7
 10
-55.443
 20
30.8
 40
3.2
 41
1.48575
  1
10.5
  0
POINT
  8
DEFPOINTS
  6
CONTINUOUS
 62
     7
 10
-54.75
 20
16.75
  0
POINT
  8
DEFPOINTS
  6
CONTINUOUS
 62
     7
 10
-44.25
 20
16.75
  0
POINT
  8
DEFPOINTS
  6
CONTINUOUS
 62
     7
 10
-44.25
 20
30
  0
ENDBLK
  8
0
  0
BLOCK
  8
0
  2
*D7
 70
    65
 10
0
 20
0
  0
LINE
  8
0
  6
CONTINUOUS
 62
     7
 10
-58.75
 20
40
 11
-40.25
 21
40
  0
INSERT
  8
0
  6
CONTINUOUS
 62
     7
  2
_DOT
 10
-58.75
 20
40
 50
180
  0
INSERT
  8
0
  6
CONTINUOUS
 62
     7
  2
_DOT
 10
-40.25
 20
40
  0
LINE
  8
0
  6
CONTINUOUS
 62
     7
 10
-58.75
 20
22.54
 11
-58.75
 21
41.200001
  0
LINE
  8
0
  6
CONTINUOUS
 62
     7
 10
-40.25
 20
22.54
 11
-40.25
 21
41.200001
  0
TEXT
  8
0
  6
CONTINUOUS
 62
     7
 10
-55.443
 20
40.8
 40
3.2
 41
1.3928906
  1
18.5
  0
POINT
  8
DEFPOINTS
  6
CONTINUOUS
 62
     7
 10
-58.75
 20
20
  0
POINT
  8
DEFPOINTS
  6
CONTINUOUS
 62
     7
 10
-40.25
 20
20
  0
POINT
  8
DEFPOINTS
  6
CONTINUOUS
 62
     7
 10
-40.25
 20
40
  0
ENDBLK
  8
0
  0
BLOCK
  8
0
  2
*D8
 70
    65
 10
0
 20
0
  0
LINE
  8
0
  6
CONTINUOUS
 62
     7
 10
-66.5
 20
-25
 11
-49.5
 21
-25
  0
INSERT
  8
0
  6
CONTINUOUS
 62
     7
  2
_DOT
 10
-66.5
 20
-25
 50
180
  0
INSERT
  8
0
  6
CONTINUOUS
 62
     7
  2
_DOT
 10
-49.5
 20
-25
  0
LINE
  8
0
  6
CONTINUOUS
 62
     7
 10
-66.5
 20
-0.039999924
 11
-66.5
 21
-26.200001
  0
LINE
  8
0
  6
CONTINUOUS
 62
     7
 10
-49.5
 20
9.9200001
 11
-49.5
 21
-26.200001
  0
TEXT
  8
0
  6
CONTINUOUS
 62
     7
 10
-60.743
 20
-24.2
 40
3.2
 41
1.2857812
  1
17
  0
POINT
  8
DEFPOINTS
  6
CONTINUOUS
 62
     7
 10
-66.5
 20
2.5
  0
POINT
  8
DEFPOINTS
  6
CONTINUOUS
 62
     7
 10
-49.5
 20
12.46
  0
POINT
  8
DEFPOINTS
  6
CONTINUOUS
 62
     7
 10
-49.5
 20
-25
  0
ENDBLK
  8
0
  0
BLOCK
  8
0
  2
*D9
 70
    65
 10
0
 20
0
  0
LINE
  8
0
  6
CONTINUOUS
 62
     7
 10
-13.606475
 20
19.132349
 11
-0.99999976
 21
30
  0
INSERT
  8
0
  6
CONTINUOUS
 62
     7
  2
_DOT
 10
-13.606475
 20
19.132349
 50
220.76361
  0
LINE
  8
0
  6
CONTINUOUS
 62
     7
 10
-1
 20
30
 11
13.775198
 21
30
  0
TEXT
  8
0
  6
CONTINUOUS
 62
     7
 10
-0.99080205
 20
30.8
 40
3.2
 41
1.4143125
  1
R 2.5
  0
POINT
  8
DEFPOINTS
  6
CONTINUOUS
 62
     7
 10
-13.606475
 20
19.132349
  0
POINT
  8
DEFPOINTS
  6
CONTINUOUS
 62
     7
 10
-0.99999976
 20
30
  0
ENDBLK
  8
0
  0
BLOCK
  8
0
  2
*D10
 70
    65
 10
0
 20
0
  0
LINE
  8
0
  6
CONTINUOUS
 62
     7
 10
-15.5
 20
-25
 11
1.5
 21
-25
  0
INSERT
  8
0
  6
CONTINUOUS
 62
     7
  2
_DOT
 10
-15.5
 20
-25
 50
180
  0
INSERT
  8
0
  6
CONTINUOUS
 62
     7
  2
_DOT
 10
1.5
 20
-25
  0
LINE
  8
0
  6
CONTINUOUS
 62
     7
 10
-15.5
 20
9.9200001
 11
-15.5
 21
-26.200001
  0
LINE
  8
0
  6
CONTINUOUS
 62
     7
 10
1.5
 20
-0.039999924
 11
1.5
 21
-26.200001
  0
TEXT
  8
0
  6
CONTINUOUS
 62
     7
 10
-9.743
 20
-24.2
 40
3.2
 41
1.2857812
  1
17
  0
POINT
  8
DEFPOINTS
  6
CONTINUOUS
 62
     7
 10
-15.5
 20
12.46
  0
POINT
  8
DEFPOINTS
  6
CONTINUOUS
 62
     7
 10
1.5
 20
2.5
  0
POINT
  8
DEFPOINTS
  6
CONTINUOUS
 62
     7
 10
1.5
 20
-25
  0
ENDBLK
  8
0
  0
BLOCK
  8
0
  2
*D11
 70
    65
 10
0
 20
0
  0
LINE
  8
0
  6
CONTINUOUS
 62
     7
 10
-49.5
 20
-25
 11
-15.5
 21
-25
  0
INSERT
  8
0
  6
CONTINUOUS
 62
     7
  2
_DOT
 10
-49.5
 20
-25
 50
180
  0
INSERT
  8
0
  6
CONTINUOUS
 62
     7
  2
_DOT
 10
-15.5
 20
-25
  0
LINE
  8
0
  6
CONTINUOUS
 62
     7
 10
-49.5
 20
9.9200001
 11
-49.5
 21
-26.200001
  0
TEXT
  8
0
  6
CONTINUOUS
 62
     7
 10
-35.243
 20
-24.2
 40
3.2
 41
1.028625
  1
34
  0
POINT
  8
DEFPOINTS
  6
CONTINUOUS
 62
     7
 10
-49.5
 20
12.46
  0
POINT
  8
DEFPOINTS
  6
CONTINUOUS
 62
     7
 10
-15.5
 20
12.46
  0
POINT
  8
DEFPOINTS
  6
CONTINUOUS
 62
     7
 10
-15.5
 20
-25
  0
ENDBLK
  8
0
  0
BLOCK
  8
0
  2
*D12
 70
    65
 10
0
 20
0
  0
LINE
  8
0
  6
CONTINUOUS
 62
     7
 10
1.5
 20
-35
 11
-66.5
 21
-35
  0
INSERT
  8
0
  6
CONTINUOUS
 62
     7
  2
_DOT
 10
1.5
 20
-35
  0
INSERT
  8
0
  6
CONTINUOUS
 62
     7
  2
_DOT
 10
-66.5
 20
-35
 50
180
  0
LINE
  8
0
  6
CONTINUOUS
 62
     7
 10
1.5
 20
-0.039999924
 11
1.5
 21
-36.200001
  0
LINE
  8
0
  6
CONTINUOUS
 62
     7
 10
-66.5
 20
-0.039999924
 11
-66.5
 21
-36.200001
  0
TEXT
  8
0
  6
CONTINUOUS
 62
     7
 10
-35.243
 20
-34.2
 40
3.2
 41
1.028625
  1
68
  0
POINT
  8
DEFPOINTS
  6
CONTINUOUS
 62
     7
 10
1.5
 20
2.5
  0
POINT
  8
DEFPOINTS
  6
CONTINUOUS
 62
     7
 10
-66.5
 20
2.5
  0
POINT
  8
DEFPOINTS
  6
CONTINUOUS
 62
     7
 10
-66.5
 20
-35
  0
ENDBLK
  8
0
  0
ENDSEC
  0
SECTION
  2
ENTITIES
  0
LINE
  8
0
  6
CONTINUOUS
 62
     7
 10
170
 20
173
 11
170
 21
-100
  0
LINE
  8
0
  6
CONTINUOUS
 62
     7
 10
-211
 20
-100
 11
170
 21
-100
  0
LINE
  8
0
  6
CONTINUOUS
 62
     7
 10
-211
 20
173
 11
170
 21
173
  0
LINE
  8
0
  6
CONTINUOUS
 62
     7
 10
-211
 20
173
 11
-211
 21
-100
  0
LINE
  8
0
  6
CONTINUOUS
 62
     7
 10
-191
 20
173
 11
-191
 21
77
  0
LINE
  8
0
  6
CONTINUOUS
 62
     7
 10
-211
 20
165
 11
-101
 21
165
  0
LINE
  8
0
  6
CONTINUOUS
 62
     7
 10
-211
 20
157
 11
-101
 21
157
  0
LINE
  8
0
  6
CONTINUOUS
 62
     7
 10
-211
 20
149
 11
-101
 21
149
  0
LINE
  8
0
  6
CONTINUOUS
 62
     7
 10
-211
 20
141
 11
-101
 21
141
  0
LINE
  8
0
  6
CONTINUOUS
 62
     7
 10
-191
 20
117
 11
-101
 21
117
  0
LINE
  8
0
  6
CONTINUOUS
 62
     7
 10
-191
 20
109
 11
-101
 21
109
  0
LINE
  8
0
  6
CONTINUOUS
 62
     7
 10
-211
 20
101
 11
-101
 21
101
  0
LINE
  8
0
  6
CONTINUOUS
 62
     7
 10
-191
 20
93
 11
-101
 21
93
  0
LINE
  8
0
  6
CONTINUOUS
 62
     7
 10
-191
 20
85
 11
-101
 21
85
  0
LINE
  8
0
  6
CONTINUOUS
 62
     7
 10
-211
 20
77
 11
-101
 21
77
  0
LINE
  8
0
  6
CONTINUOUS
 62
     7
 10
-211
 20
173
 11
-211
 21
77
  0
LINE
  8
0
  6
CONTINUOUS
 62
     7
 10
-211
 20
173
 11
-101
 21
173
  0
LINE
  8
0
  6
CONTINUOUS
 62
     7
 10
-101
 20
173
 11
-101
 21
77
  0
LINE
  8
0
  6
CONTINUOUS
 62
     7
 10
-211
 20
133
 11
-101
 21
133
  0
LINE
  8
0
  6
CONTINUOUS
 62
     7
 10
-211
 20
125
 11
-101
 21
125
  0
LINE
  8
0
  6
CONTINUOUS
 62
     7
 10
-191
 20
117
 11
-101
 21
117
  0
LINE
  8
0
  6
CONTINUOUS
 62
     7
 10
-64
 20
0
 11
-58.5
 21
0
  0
LINE
  8
0
  6
CONTINUOUS
 62
     7
 10
1.5
 20
17.5
 11
1.5
 21
2.5
  0
LINE
  8
0
  6
CONTINUOUS
 62
     7
 10
-64
 20
20
 11
-61.858158
 21
20
  0
LINE
  8
0
  6
CONTINUOUS
 62
     7
 10
-66.5
 20
17.5
 11
-66.5
 21
2.5
  0
LINE
  8
0
  6
CONTINUOUS
 62
     7
 10
-64
 20
1.5
 11
-58.5
 21
1.5
  0
LINE
  8
0
  6
CONTINUOUS
 62
     7
 10
0
 20
17.5
 11
0
 21
2.5
  0
LINE
  8
0
  6
CONTINUOUS
 62
     7
 10
-65
 20
17.5
 11
-65
 21
2.5
  0
LINE
  8
0
  6
CONTINUOUS
 62
     7
 10
-64
 20
18.5
 11
-61.858158
 21
18.5
  0
LINE
  8
0
  6
CONTINUOUS
 62
     7
 10
-58.5
 20
1.5
 11
-58.5
 21
0
  0
LINE
  8
0
  6
CONTINUOUS
 62
     7
 10
-6.5
 20
1.5
 11
-6.5
 21
0
  0
LINE
  8
0
  6
CONTINUOUS
 62
     7
 10
-6.5
 20
0
 11
-1
 21
0
  0
LINE
  8
0
  6
CONTINUOUS
 62
     7
 10
-6.5
 20
1.5
 11
-1
 21
1.5
  0
LINE
  8
0
  6
CONTINUOUS
 62
     7
 10
-51.694809
 20
18.697001
 11
-53.213634
 21
15.9121
  0
LINE
  8
0
  6
CONTINUOUS
 62
     7
 10
-50.377922
 20
17.978802
 11
-51.896748
 21
15.193899
  0
LINE
  8
0
  6
CONTINUOUS
 62
     7
 10
-57.146545
 20
17.337374
 11
-56.249149
 21
15.847199
  0
LINE
  8
0
  6
CONTINUOUS
 62
     7
 10
-58.43153
 20
16.563543
 11
-57.534134
 21
15.073371
  0
LINE
  8
0
  6
CONTINUOUS
 62
     7
 10
-48.622074
 20
17.9788
 11
-47.103252
 21
15.193898
  0
LINE
  8
0
  6
CONTINUOUS
 62
     7
 10
-47.305191
 20
18.697001
 11
-45.786366
 21
15.912098
  0
LINE
  8
0
  6
CONTINUOUS
 62
     7
 10
-41.853458
 20
17.337372
 11
-42.750851
 21
15.847198
  0
LINE
  8
0
  6
CONTINUOUS
 62
     7
 10
-40.56847
 20
16.563543
 11
-41.465866
 21
15.07337
  0
LINE
  8
0
  6
CONTINUOUS
 62
     7
 10
-1
 20
20
 11
-3.1418419
 21
20
  0
LINE
  8
0
  6
CONTINUOUS
 62
     7
 10
-1
 20
18.5
 11
-3.1418419
 21
18.5
  0
LINE
  8
0
  6
CENTER
 62
     7
 10
-49.5
 20
22.540001
 11
-49.5
 21
12.46
  0
LINE
  8
0
  6
CENTER
 62
     7
 10
-54.540001
 20
17.5
 11
-44.459999
 21
17.5
  0
LINE
  8
0
  6
CONTINUOUS
 62
     7
 10
-14.622076
 20
17.978802
 11
-13.103251
 21
15.193898
  0
LINE
  8
0
  6
CONTINUOUS
 62
     7
 10
-16.377922
 20
17.9788
 11
-17.896748
 21
15.193899
  0
LINE
  8
0
  6
CONTINUOUS
 62
     7
 10
-17.694809
 20
18.697001
 11
-19.213633
 21
15.9121
  0
LINE
  8
0
  6
CONTINUOUS
 62
     7
 10
-23.146544
 20
17.337374
 11
-22.249149
 21
15.8472
  0
LINE
  8
0
  6
CONTINUOUS
 62
     7
 10
-6.5684719
 20
16.563543
 11
-7.4658656
 21
15.07337
  0
LINE
  8
0
  6
CONTINUOUS
 62
     7
 10
-7.8534579
 20
17.337372
 11
-8.7508516
 21
15.847199
  0
LINE
  8
0
  6
CONTINUOUS
 62
     7
 10
-13.30519
 20
18.697002
 11
-11.786366
 21
15.912099
  0
LINE
  8
0
  6
CENTER
 62
     7
 10
-20.540001
 20
17.5
 11
-10.459999
 21
17.5
  0
LINE
  8
0
  6
CONTINUOUS
 62
     7
 10
-24.43153
 20
16.563545
 11
-23.534136
 21
15.073371
  0
LINE
  8
0
  6
CENTER
 62
     7
 10
-15.5
 20
22.540001
 11
-15.5
 21
12.46
  0
LINE
  8
0
  6
CONTINUOUS
 62
     7
 10
-37.141842
 20
20
 11
-27.858158
 21
20
  0
LINE
  8
0
  6
CONTINUOUS
 62
     7
 10
-37.141842
 20
18.5
 11
-27.858158
 21
18.5
  0
ARC
  8
0
  6
CONTINUOUS
 62
     7
 10
-64
 20
2.5
 40
2.5
 50
179.99999
 51
270
  0
ARC
  8
0
  6
CONTINUOUS
 62
     7
 10
-64
 20
17.5
 40
2.5
 50
90
 51
180
  0
ARC
  8
0
  6
CONTINUOUS
 62
     7
 10
-1
 20
17.5
 40
2.5
 50
0
 51
90.000003
  0
ARC
  8
0
  6
CONTINUOUS
 62
     7
 10
-1
 20
2.5
 40
2.5
 50
270
 51
360
  0
ARC
  8
0
  6
CONTINUOUS
 62
     7
 10
-49.5
 20
17.5
 40
2.5
 50
28.607079
 51
151.39292
  0
ARC
  8
0
  6
CONTINUOUS
 62
     7
 10
-54.75
 20
16.75
 40
1.75
 50
211.05671
 51
331.39291
  0
ARC
  8
0
  6
CONTINUOUS
 62
     7
 10
-54.75
 20
16.75
 40
3.25
 50
211.05667
 51
331.39292
  0
ARC
  8
0
  6
CONTINUOUS
 62
     7
 10
-49.5
 20
17.5
 40
1
 50
28.607102
 51
151.3929
  0
ARC
  8
0
  6
CONTINUOUS
 62
     7
 10
-61.858158
 20
14.5
 40
5.5
 50
31.056675
 51
90
  0
ARC
  8
0
  6
CONTINUOUS
 62
     7
 10
-61.858158
 20
14.5
 40
4
 50
31.056693
 51
90
  0
ARC
  8
0
  6
CONTINUOUS
 62
     7
 10
-44.25
 20
16.75
 40
3.25
 50
208.60708
 51
328.94333
  0
ARC
  8
0
  6
CONTINUOUS
 62
     7
 10
-44.25
 20
16.75
 40
1.75
 50
208.60709
 51
328.94329
  0
ARC
  8
0
  6
CONTINUOUS
 62
     7
 10
-37.141842
 20
14.5
 40
5.5
 50
90
 51
148.94332
  0
ARC
  8
0
  6
CONTINUOUS
 62
     7
 10
-37.141842
 20
14.5
 40
4
 50
90
 51
148.94331
  0
ARC
  8
0
  6
CONTINUOUS
 62
     7
 10
-64
 20
2.5
 40
1
 50
179.99999
 51
270
  0
ARC
  8
0
  6
CONTINUOUS
 62
     7
 10
-64
 20
17.5
 40
1
 50
90
 51
180
  0
ARC
  8
0
  6
CONTINUOUS
 62
     7
 10
-1
 20
2.5
 40
1
 50
270
 51
360
  0
ARC
  8
0
  6
CONTINUOUS
 62
     7
 10
-1
 20
17.5
 40
1
 50
0
 51
90
  0
ARC
  8
0
  6
CONTINUOUS
 62
     7
 10
-20.75
 20
16.75
 40
3.25
 50
211.05669
 51
331.39292
  0
ARC
  8
0
  6
CONTINUOUS
 62
     7
 10
-15.5
 20
17.5
 40
1
 50
28.607049
 51
151.39295
  0
ARC
  8
0
  6
CONTINUOUS
 62
     7
 10
-15.5
 20
17.5
 40
2.5
 50
28.607069
 51
151.39292
  0
ARC
  8
0
  6
CONTINUOUS
 62
     7
 10
-20.75
 20
16.75
 40
1.75
 50
211.05668
 51
331.39294
  0
ARC
  8
0
  6
CONTINUOUS
 62
     7
 10
-10.25
 20
16.75
 40
3.25
 50
208.60708
 51
328.94331
  0
ARC
  8
0
  6
CONTINUOUS
 62
     7
 10
-27.858158
 20
14.5
 40
5.5
 50
31.056686
 51
90
  0
ARC
  8
0
  6
CONTINUOUS
 62
     7
 10
-27.858158
 20
14.5
 40
4
 50
31.056679
 51
90
  0
ARC
  8
0
  6
CONTINUOUS
 62
     7
 10
-3.1418419
 20
14.5
 40
5.5
 50
90.000002
 51
148.94332
  0
ARC
  8
0
  6
CONTINUOUS
 62
     7
 10
-3.1418419
 20
14.5
 40
4
 50
90.000003
 51
148.94331
  0
ARC
  8
0
  6
CONTINUOUS
 62
     7
 10
-10.25
 20
16.75
 40
1.75
 50
208.60707
 51
328.94331
  0
TEXT
  8
0
  6
CONTINUOUS
 62
     7
 10
-188.143
 20
95.4
 40
3.2
 41
0.90047268
  1
＊
  0
TEXT
  8
0
  6
CONTINUOUS
 62
     7
 10
-205.343
 20
167.4
 40
3.2
 41
0.85537027
  1
品　名
  0
TEXT
  8
0
  6
CONTINUOUS
 62
     7
 10
-205.343
 20
159.4
 40
3.2
 41
0.85537027
  1
品　番
  0
TEXT
  8
0
  6
CONTINUOUS
 62
     7
 10
-188.143
 20
87.4
 40
3.2
 41
0.90047268
  1
＊
  0
TEXT
  8
0
  6
CONTINUOUS
 62
     7
 10
-188.143
 20
79.4
 40
3.2
 41
0.90047268
  1
＊
  0
TEXT
  8
0
  6
CONTINUOUS
 62
     7
 10
-205.343
 20
151.4
 40
3.2
 41
0.85537027
  1
材　質
  0
TEXT
  8
0
  6
CONTINUOUS
 62
     7
 10
-205.343
 20
143.4
 40
3.2
 41
0.85537027
  1
仕上げ
  0
TEXT
  8
0
  6
CONTINUOUS
 62
     7
 10
-188.143
 20
103.4
 40
3.2
 41
0.90047268
  1
＊
  0
TEXT
  8
0
  6
CONTINUOUS
 62
     7
 10
-188.143
 20
111.4
 40
3.2
 41
0.90047268
  1
＊
  0
TEXT
  8
0
  6
CONTINUOUS
 62
     7
 10
-208.543
 20
119.4
 40
3.2
 41
0.84892707
  1
セットビス
  0
TEXT
  8
0
  6
CONTINUOUS
 62
     7
 10
-188.143
 20
119.4
 40
3.2
 41
0.90047268
  1
＊
  0
TEXT
  8
0
  6
CONTINUOUS
 62
     7
 10
-203.743
 20
95.4
 40
3.2
 41
0.86439075
  1
備考
  0
TEXT
  8
0
  6
CONTINUOUS
 62
     7
 10
-205.343
 20
135.4
 40
3.2
 41
0.85537027
  1
定　尺
  0
TEXT
  8
0
  6
CONTINUOUS
 62
     7
 10
-206.943
 20
127.4
 40
3.2
 41
0.85127005
  1
左右勝手
  0
TEXT
  8
0
  6
CONTINUOUS
 62
     7
 10
-188.37855
 20
134.96998
 40
3.2
 41
0.84377251
  1
１８２９ｍ、２４３８ｍｍ
  0
TEXT
  8
0
  6
CONTINUOUS
 62
     7
 10
-188.143
 20
167.4
 40
3.2
 41
0.84634979
  1
フラットレール
  0
TEXT
  8
0
  6
CONTINUOUS
 62
     7
 10
-188.143
 20
159.4
 40
3.2
 41
0.8455654
  1
ＳＲ－１８－３４
  0
TEXT
  8
0
  6
CONTINUOUS
 62
     7
 10
-188.143
 20
151.4
 40
3.2
 41
0.84892707
  1
ステンレス
  0
TEXT
  8
0
  6
CONTINUOUS
 62
     7
 10
-188.143
 20
143.4
 40
3.2
 41
0.84741102
  1
ヘアーライン
  0
TEXT
  8
0
  6
CONTINUOUS
 62
     7
 10
-188.37855
 20
127.36617
 40
3.2
 41
0.90047268
  1
＊
  0
TEXT
  8
0
  6
CONTINUOUS
 62
     7
 10
33.457
 20
-16.6
 40
3.2
 41
0.84892707
  1
ｔ＝１．５
  0
DIMENSION
  8
0
  6
CONTINUOUS
 62
     7
  2
*D1
 70
     0
 10
-58.5
 20
-15
 11
-62.5
 21
-15
  3
DIMSTYLE
 13
-66.5
 23
2.5
 14
-58.5
 24
0
 50
0
1001
ACAD
1000
DSTYLE
1002
{
1070
    77
1070
     1
1070
   172
1070
     1
1002
}
  0
DIMENSION
  8
0
  6
CONTINUOUS
 62
     7
  2
*D2
 70
     0
 10
1.5
 20
-15
 11
-2.5
 21
-15
  3
DIMSTYLE
 13
-6.5
 23
0
 14
1.5
 24
2.5
 50
0
1001
ACAD
1000
DSTYLE
1002
{
1070
    77
1070
     1
1070
   172
1070
     1
1002
}
  0
DIMENSION
  8
0
  6
CONTINUOUS
 62
     7
  2
*D3
 70
     0
 10
20
 20
0
 11
20
 21
7.5
  3
DIMSTYLE
 13
-10.25
 23
15
 14
-1
 24
0
 50
90
1001
ACAD
1000
DSTYLE
1002
{
1070
    77
1070
     1
1070
   172
1070
     1
1002
}
  0
DIMENSION
  8
0
  6
CONTINUOUS
 62
     7
  2
*D4
 70
     0
 10
20
 20
20
 11
20
 21
17.5
  3
DIMSTYLE
 13
-18.25
 23
15
 14
-1
 24
20
 50
90
1001
ACAD
1000
DSTYLE
1002
{
1070
    77
1070
     1
1070
   172
1070
     1
1070
    75
1070
     1
1002
}
  0
DIMENSION
  8
0
  6
CONTINUOUS
 62
     7
  2
*D5
 70
     0
 10
26.5
 20
0
 11
26.5
 21
10
  3
DIMSTYLE
 13
-1
 23
20
 14
-1
 24
0
 50
90
1001
ACAD
1000
DSTYLE
1002
{
1070
    77
1070
     1
1070
   172
1070
     1
1002
}
  0
DIMENSION
  8
0
  6
CONTINUOUS
 62
     7
  2
*D6
 70
     0
 10
-44.25
 20
30
 11
-49.5
 21
30
  3
DIMSTYLE
 13
-54.75
 23
16.75
 14
-44.25
 24
16.75
 50
0
1001
ACAD
1000
DSTYLE
1002
{
1070
    77
1070
     1
1070
   172
1070
     1
1002
}
  0
DIMENSION
  8
0
  6
CONTINUOUS
 62
     7
  2
*D7
 70
     0
 10
-40.25
 20
40
 11
-49.5
 21
40
  3
DIMSTYLE
 13
-58.75
 23
20
 14
-40.25
 24
20
 50
0
1001
ACAD
1000
DSTYLE
1002
{
1070
    77
1070
     1
1070
   172
1070
     1
1002
}
  0
DIMENSION
  8
0
  6
CONTINUOUS
 62
     7
  2
*D8
 70
     0
 10
-49.5
 20
-25
 11
-58
 21
-25
  3
DIMSTYLE
 13
-66.5
 23
2.5
 14
-49.5
 24
12.46
 50
0
1001
ACAD
1000
DSTYLE
1002
{
1070
    77
1070
     1
1070
   172
1070
     1
1002
}
  0
INSERT
  8
0
  6
CONTINUOUS
 62
     7
  2
*D9
 10
0
 20
0
  0
DIMENSION
  8
0
  6
CONTINUOUS
 62
     7
  2
*D10
 70
     0
 10
1.5
 20
-25
 11
-7
 21
-25
  3
DIMSTYLE
 13
-15.5
 23
12.46
 14
1.5
 24
2.5
 50
0
1001
ACAD
1000
DSTYLE
1002
{
1070
    77
1070
     1
1070
   172
1070
     1
1002
}
  0
DIMENSION
  8
0
  6
CONTINUOUS
 62
     7
  2
*D11
 70
     0
 10
-15.5
 20
-25
 11
-32.5
 21
-25
  3
DIMSTYLE
 13
-49.5
 23
12.46
 14
-15.5
 24
12.46
 50
0
1001
ACAD
1000
DSTYLE
1002
{
1070
    77
1070
     1
1070
   172
1070
     1
1070
    76
1070
     1
1002
}
  0
DIMENSION
  8
0
  6
CONTINUOUS
 62
     7
  2
*D12
 70
     0
 10
-66.5
 20
-35
 11
-32.5
 21
-35
  3
DIMSTYLE
 13
1.5
 23
2.5
 14
-66.5
 24
2.5
 50
0
1001
ACAD
1000
DSTYLE
1002
{
1070
    77
1070
     1
1070
   172
1070
     1
1002
}
  0
ENDSEC
  0
EOF
