  0
SECTION
  2
HEADER
  9
$ACADVER
  1
AC1015
  9
$ACADMAINTVER
 70
    20
  9
$DWGCODEPAGE
  3
ANSI_932
  9
$INSBASE
 10
0.0
 20
0.0
 30
0.0
  9
$EXTMIN
 10
0.0000030047867767
 20
-0.0000019211120161
 30
0.0
  9
$EXTMAX
 10
4200.000003004785
 20
2969.999998078888
 30
0.0
  9
$LIMMIN
 10
1700.85588156276
 20
1647.985052086429
  9
$LIMMAX
 10
1997.85588156276
 20
1857.985052086429
  9
$ORTHOMODE
 70
     0
  9
$REGENMODE
 70
     1
  9
$FILLMODE
 70
     1
  9
$QTEXTMODE
 70
     0
  9
$MIRRTEXT
 70
     0
  9
$LTSCALE
 40
1.0
  9
$ATTMODE
 70
     1
  9
$TEXTSIZE
 40
3.2
  9
$TRACEWID
 40
1.0
  9
$TEXTSTYLE
  7
STANDARD
  9
$CLAYER
  8
AM_0
  9
$CELTYPE
  6
ByLayer
  9
$CECOLOR
 62
   256
  9
$CELTSCALE
 40
1.0
  9
$DISPSILH
 70
     0
  9
$DIMSCALE
 40
1.0
  9
$DIMASZ
 40
1.0
  9
$DIMEXO
 40
1.0
  9
$DIMDLI
 40
10.0
  9
$DIMRND
 40
0.0
  9
$DIMDLE
 40
0.0
  9
$DIMEXE
 40
1.0
  9
$DIMTP
 40
0.1
  9
$DIMTM
 40
0.1
  9
$DIMTXT
 40
3.5
  9
$DIMCEN
 40
0.0
  9
$DIMTSZ
 40
0.0
  9
$DIMTOL
 70
     0
  9
$DIMLIM
 70
     0
  9
$DIMTIH
 70
     0
  9
$DIMTOH
 70
     0
  9
$DIMSE1
 70
     0
  9
$DIMSE2
 70
     0
  9
$DIMTAD
 70
     1
  9
$DIMZIN
 70
     8
  9
$DIMBLK
  1

  9
$DIMASO
 70
     1
  9
$DIMSHO
 70
     1
  9
$DIMPOST
  1

  9
$DIMAPOST
  1
"
  9
$DIMALT
 70
     0
  9
$DIMALTD
 70
     2
  9
$DIMALTF
 40
0.0393701
  9
$DIMLFAC
 40
1.0
  9
$DIMTOFL
 70
     1
  9
$DIMTVP
 40
0.0
  9
$DIMTIX
 70
     0
  9
$DIMSOXD
 70
     0
  9
$DIMSAH
 70
     0
  9
$DIMBLK1
  1

  9
$DIMBLK2
  1

  9
$DIMSTYLE
  2
SYS
  9
$DIMCLRD
 70
   256
  9
$DIMCLRE
 70
   256
  9
$DIMCLRT
 70
     7
  9
$DIMTFAC
 40
0.71
  9
$DIMGAP
 40
1.5
  9
$DIMJUST
 70
     0
  9
$DIMSD1
 70
     0
  9
$DIMSD2
 70
     0
  9
$DIMTOLJ
 70
     0
  9
$DIMTZIN
 70
     8
  9
$DIMALTZ
 70
     0
  9
$DIMALTTZ
 70
     0
  9
$DIMUPT
 70
     0
  9
$DIMDEC
 70
     2
  9
$DIMTDEC
 70
     2
  9
$DIMALTU
 70
     2
  9
$DIMALTTD
 70
     2
  9
$DIMTXSTY
  7
STANDARD
  9
$DIMAUNIT
 70
     0
  9
$DIMADEC
 70
     0
  9
$DIMALTRND
 40
0.0
  9
$DIMAZIN
 70
     2
  9
$DIMDSEP
 70
    46
  9
$DIMATFIT
 70
     3
  9
$DIMFRAC
 70
     0
  9
$DIMLDRBLK
  1

  9
$DIMLUNIT
 70
     2
  9
$DIMLWD
 70
    -1
  9
$DIMLWE
 70
    -1
  9
$DIMTMOVE
 70
     0
  9
$LUNITS
 70
     2
  9
$LUPREC
 70
     2
  9
$SKETCHINC
 40
1.0
  9
$FILLETRAD
 40
0.0
  9
$AUNITS
 70
     0
  9
$AUPREC
 70
     0
  9
$MENU
  1
.
  9
$ELEVATION
 40
0.0
  9
$PELEVATION
 40
0.0
  9
$THICKNESS
 40
0.0
  9
$LIMCHECK
 70
     0
  9
$CHAMFERA
 40
0.0
  9
$CHAMFERB
 40
0.0
  9
$CHAMFERC
 40
20.0
  9
$CHAMFERD
 40
0.0
  9
$SKPOLY
 70
     0
  9
$TDCREATE
 40
2456413.594324723
  9
$TDUCREATE
 40
2456413.219324723
  9
$TDUPDATE
 40
2456413.594758565
  9
$TDUUPDATE
 40
2456413.219758565
  9
$TDINDWG
 40
0.0004365625
  9
$TDUSRTIMER
 40
0.0004365625
  9
$USRTIMER
 70
     1
  9
$ANGBASE
 50
0.0
  9
$ANGDIR
 70
     0
  9
$PDMODE
 70
     0
  9
$PDSIZE
 40
-3.0
  9
$PLINEWID
 40
0.0
  9
$SPLFRAME
 70
     0
  9
$SPLINETYPE
 70
     6
  9
$SPLINESEGS
 70
     8
  9
$HANDSEED
  5
BA09
  9
$SURFTAB1
 70
     6
  9
$SURFTAB2
 70
     6
  9
$SURFTYPE
 70
     6
  9
$SURFU
 70
     6
  9
$SURFV
 70
     6
  9
$UCSBASE
  2

  9
$UCSNAME
  2

  9
$UCSORG
 10
0.0
 20
0.0
 30
0.0
  9
$UCSXDIR
 10
1.0
 20
0.0
 30
0.0
  9
$UCSYDIR
 10
0.0
 20
1.0
 30
0.0
  9
$UCSORTHOREF
  2

  9
$UCSORTHOVIEW
 70
     0
  9
$UCSORGTOP
 10
0.0
 20
0.0
 30
0.0
  9
$UCSORGBOTTOM
 10
0.0
 20
0.0
 30
0.0
  9
$UCSORGLEFT
 10
0.0
 20
0.0
 30
0.0
  9
$UCSORGRIGHT
 10
0.0
 20
0.0
 30
0.0
  9
$UCSORGFRONT
 10
0.0
 20
0.0
 30
0.0
  9
$UCSORGBACK
 10
0.0
 20
0.0
 30
0.0
  9
$PUCSBASE
  2

  9
$PUCSNAME
  2

  9
$PUCSORG
 10
0.0
 20
0.0
 30
0.0
  9
$PUCSXDIR
 10
1.0
 20
0.0
 30
0.0
  9
$PUCSYDIR
 10
0.0
 20
1.0
 30
0.0
  9
$PUCSORTHOREF
  2

  9
$PUCSORTHOVIEW
 70
     0
  9
$PUCSORGTOP
 10
0.0
 20
0.0
 30
0.0
  9
$PUCSORGBOTTOM
 10
0.0
 20
0.0
 30
0.0
  9
$PUCSORGLEFT
 10
0.0
 20
0.0
 30
0.0
  9
$PUCSORGRIGHT
 10
0.0
 20
0.0
 30
0.0
  9
$PUCSORGFRONT
 10
0.0
 20
0.0
 30
0.0
  9
$PUCSORGBACK
 10
0.0
 20
0.0
 30
0.0
  9
$USERI1
 70
     0
  9
$USERI2
 70
     0
  9
$USERI3
 70
     0
  9
$USERI4
 70
     0
  9
$USERI5
 70
     0
  9
$USERR1
 40
0.0
  9
$USERR2
 40
0.0
  9
$USERR3
 40
0.0
  9
$USERR4
 40
0.0
  9
$USERR5
 40
0.0
  9
$WORLDVIEW
 70
     1
  9
$SHADEDGE
 70
     3
  9
$SHADEDIF
 70
    70
  9
$TILEMODE
 70
     1
  9
$MAXACTVP
 70
    64
  9
$PINSBASE
 10
0.0
 20
0.0
 30
0.0
  9
$PLIMCHECK
 70
     0
  9
$PEXTMIN
 10
1.000000000000000E+20
 20
1.000000000000000E+20
 30
1.000000000000000E+20
  9
$PEXTMAX
 10
-1.000000000000000E+20
 20
-1.000000000000000E+20
 30
-1.000000000000000E+20
  9
$PLIMMIN
 10
-3.17498779296875
 20
-3.174999952316284
  9
$PLIMMAX
 10
293.4970092773438
 20
206.692492723465
  9
$UNITMODE
 70
     0
  9
$VISRETAIN
 70
     1
  9
$PLINEGEN
 70
     0
  9
$PSLTSCALE
 70
     1
  9
$TREEDEPTH
 70
  3020
  9
$CMLSTYLE
  2
Standard
  9
$CMLJUST
 70
     0
  9
$CMLSCALE
 40
20.0
  9
$PROXYGRAPHICS
 70
     1
  9
$MEASUREMENT
 70
     1
  9
$CELWEIGHT
370
    -1
  9
$ENDCAPS
280
     0
  9
$JOINSTYLE
280
     0
  9
$LWDISPLAY
290
     1
  9
$INSUNITS
 70
     4
  9
$HYPERLINKBASE
  1

  9
$STYLESHEET
  1
monochrome.ctb
  9
$XEDIT
290
     1
  9
$CEPSNTYPE
380
     0
  9
$PSTYLEMODE
290
     1
  9
$FINGERPRINTGUID
  2
{C66BA714-813F-4385-B5BA-EB2203B6A9E4}
  9
$VERSIONGUID
  2
{49346DB1-2FD2-4153-9B29-2F2FA31537B6}
  9
$EXTNAMES
290
     1
  9
$PSVPSCALE
 40
0.0
  9
$OLESTARTUP
290
     0
  0
ENDSEC
  0
SECTION
  2
CLASSES
  0
CLASS
  1
ACDBDICTIONARYWDFLT
  2
AcDbDictionaryWithDefault
  3
ObjectDBX Classes
 90
        0
280
     0
281
     0
  0
CLASS
  1
ACDBPLACEHOLDER
  2
AcDbPlaceHolder
  3
ObjectDBX Classes
 90
        0
280
     0
281
     0
  0
CLASS
  1
LAYOUT
  2
AcDbLayout
  3
ObjectDBX Classes
 90
        0
280
     0
281
     0
  0
CLASS
  1
AMGSETTINGSOBJ
  2
AmgSettingsObj
  3
"AcadM|Product Description: AutoCAD Mechanical|Company: Autodesk"
 90
        0
280
     0
281
     0
  0
CLASS
  1
ACME_DOCUMENT
  2
AcMeDbDoc
  3
AcMeServices
 90
        0
280
     0
281
     0
  0
CLASS
  1
ACMESCOPE
  2
AcMeScope
  3
AcMeServices
 90
        0
280
     0
281
     0
  0
CLASS
  1
ACMECOMMANDHISTORY
  2
AcMeCommandHistory
  3
AcMeServices
 90
        0
280
     0
281
     0
  0
CLASS
  1
DICTIONARYVAR
  2
AcDbDictionaryVar
  3
ObjectDBX Classes
 90
        0
280
     0
281
     0
  0
CLASS
  1
ACIMSYSVARMAN
  2
AcImSysVarManager
  3
AcMeServices
 90
        0
280
     0
281
     0
  0
CLASS
  1
ACIMREALSYSVAR
  2
AcImRealSysVar
  3
AcMeServices
 90
        0
280
     0
281
     0
  0
CLASS
  1
ACIMINTSYSVAR
  2
AcImIntSysVar
  3
AcMeServices
 90
        0
280
     0
281
     0
  0
CLASS
  1
ACMEDRAWINGMAN
  2
AcMeDrawingMan
  3
AcMeServices
 90
        0
280
     0
281
     0
  0
CLASS
  1
ACMEVIEW
  2
AcMeView
  3
AcMeServices
 90
        0
280
     0
281
     0
  0
CLASS
  1
ACDBENTITYCACHE
  2
AcMeEntityCache
  3
AcMeServices
 90
        0
280
     0
281
     0
  0
CLASS
  1
GSMANAGER
  2
AcMeGSManager
  3
AcMeServices
 90
        0
280
     0
281
     0
  0
CLASS
  1
AMDTINTERNALREACTOR
  2
AmdtInternalReactor
  3
AcMeServices
 90
        0
280
     0
281
     0
  0
CLASS
  1
ACMESTATEMGR
  2
AcMeStateMgr
  3
AcMeServices
 90
        0
280
     0
281
     0
  0
CLASS
  1
ACGREFMASTER
  2
AcGrefMaster
  3
AcAttribServices
 90
        0
280
     0
281
     0
  0
CLASS
  1
ACME_DATABASE
  2
AcMeDbDatabase
  3
AcMeServices
 90
        0
280
     0
281
     0
  0
CLASS
  1
ACRFINSADJUSTERMGR
  2
AcRfInsAdjusterMgr
  3
AcMeServices
 90
        0
280
     0
281
     0
  0
CLASS
  1
ACGREFACADMASTER
  2
AcGrefacadMaster
  3
AcGrefServices
 90
        0
280
     0
281
     0
  0
CLASS
  1
AMIMASTER
  2
AmiMaster
  3
AmiServices
 90
        0
280
     0
281
     0
  0
CLASS
  1
ACMDATADICTIONARY
  2
AcmDataDictionary
  3
"AcmSymBB|Product Description: AutoCAD Mechanical|Company: Autodesk"
 90
        0
280
     0
281
     0
  0
CLASS
  1
ACMDATAENTRYBLOCK
  2
AcmDataEntryBlock
  3
"AcmSymBB|Product Description: AutoCAD Mechanical|Company: Autodesk"
 90
        0
280
     0
281
     0
  0
CLASS
  1
ACIMSTRSYSVAR
  2
AcImStrSysVar
  3
AcMeServices
 90
        0
280
     0
281
     0
  0
CLASS
  1
ACMSTANDARDISO
  2
AcmStandardISO
  3
"Amdt_StdImp|Product Description: AutoCAD Mechanical|Company: Autodesk"
 90
        0
280
     0
281
     0
  0
CLASS
  1
AMGOBJPROPCFG
  2
AmgObjPropCfg
  3
"AmgLay|Product Description: AutoCAD Mechanical|Company: Autodesk"
 90
        1
280
     0
281
     0
  0
CLASS
  1
AMDTEDGESTANDARDISO
  2
AmdtEdgeStdISO
  3
"Amdt_StdImp|Product Description: AutoCAD Mechanical|Company: Autodesk"
 90
        0
280
     0
281
     0
  0
CLASS
  1
ACMSURFSTANDARDISO
  2
AcmSurfTextStdISO
  3
"Amdt_StdImp|Product Description: AutoCAD Mechanical|Company: Autodesk"
 90
        0
280
     0
281
     0
  0
CLASS
  1
ACMFCFSTANDARDISO
  2
AcmFCFStdISO
  3
"Amdt_StdImp|Product Description: AutoCAD Mechanical|Company: Autodesk"
 90
        0
280
     0
281
     0
  0
CLASS
  1
ACMWELDSTANDARDISO
  2
AcmWeldingStdISO
  3
"Amdt_StdImp|Product Description: AutoCAD Mechanical|Company: Autodesk"
 90
        0
280
     0
281
     0
  0
CLASS
  1
ACMIDSTANDARDISO
  2
AcmIdStdISO
  3
"Amdt_StdImp|Product Description: AutoCAD Mechanical|Company: Autodesk"
 90
        0
280
     0
281
     0
  0
CLASS
  1
ACMDATUMSTANDARDISO
  2
AcmDatumStdISO
  3
"Amdt_StdImp|Product Description: AutoCAD Mechanical|Company: Autodesk"
 90
        0
280
     0
281
     0
  0
CLASS
  1
ACMBOMSTANDARDISO
  2
AcmBOMStdISO
  3
"Amdt_StdImp|Product Description: AutoCAD Mechanical|Company: Autodesk"
 90
        0
280
     0
281
     0
  0
CLASS
  1
ACMDETAILSTANDARDISO
  2
AmdtDetailSymStdISO
  3
"Amdt_StdImp|Product Description: AutoCAD Mechanical|Company: Autodesk"
 90
        0
280
     0
281
     0
  0
CLASS
  1
ACMSECTIONSTANDARDISO
  2
AmdtSectionSymStdISO
  3
"Amdt_StdImp|Product Description: AutoCAD Mechanical|Company: Autodesk"
 90
        0
280
     0
281
     0
  0
CLASS
  1
ACMCENTERLINESTANDARDISO
  2
AmdtCenterLineStdISO
  3
"Amdt_StdImp|Product Description: AutoCAD Mechanical|Company: Autodesk"
 90
        0
280
     0
281
     0
  0
CLASS
  1
ACAMGLAYSTD
  2
AcAmgLayStd
  3
"AmgLay|Product Description: AutoCAD Mechanical|Company: Autodesk"
 90
        0
280
     0
281
     0
  0
CLASS
  1
ACAMGDIMSTD
  2
AcAmgDimStd
  3
"AmgDim|Product Description: AutoCAD Mechanical|Company: Autodesk"
 90
        0
280
     0
281
     0
  0
CLASS
  1
ACAMGTITLESTD
  2
AcAmgTitleStd
  3
"AmgTitle|Product Description: AutoCAD Mechanical|Company: Autodesk"
 90
        0
280
     0
281
     0
  0
CLASS
  1
ACAMGFILTERDAT
  2
AcAmgFilterDat
  3
"AcadM|Product Description: AutoCAD Mechanical|Company: Autodesk"
 90
        0
280
     0
281
     0
  0
CLASS
  1
LAYER_INDEX
  2
AcDbLayerIndex
  3
ObjectDBX Classes
 90
    32768
280
     0
281
     0
  0
CLASS
  1
IDBUFFER
  2
AcDbIdBuffer
  3
ObjectDBX Classes
 90
    32768
280
     0
281
     0
  0
CLASS
  1
PLOTSETTINGS
  2
AcDbPlotSettings
  3
ObjectDBX Classes
 90
    32768
280
     0
281
     0
  0
CLASS
  1
AMDTFORMULAUPDATEDISPATCHER
  2
AmdtFormulaUpdateDispatcher
  3
AcMeServices
 90
        0
280
     0
281
     0
  0
CLASS
  1
ACMSTANDARDANSI
  2
AcmStandardANSI
  3
"Amdt_StdImp|Product Description: AutoCAD Mechanical|Company: Autodesk"
 90
    32768
280
     0
281
     0
  0
CLASS
  1
ACMSURFSTANDARDANSI
  2
AcmSurfTextStdANSI
  3
"Amdt_StdImp|Product Description: AutoCAD Mechanical|Company: Autodesk"
 90
    32768
280
     0
281
     0
  0
CLASS
  1
ACMFCFSTANDARDANSI
  2
AcmFCFStdANSI
  3
"Amdt_StdImp|Product Description: AutoCAD Mechanical|Company: Autodesk"
 90
    32768
280
     0
281
     0
  0
CLASS
  1
ACMWELDSTANDARDANSI
  2
AcmWeldingStdANSI
  3
"Amdt_StdImp|Product Description: AutoCAD Mechanical|Company: Autodesk"
 90
    32768
280
     0
281
     0
  0
CLASS
  1
ACMIDSTANDARDANSI
  2
AcmIdStdANSI
  3
"Amdt_StdImp|Product Description: AutoCAD Mechanical|Company: Autodesk"
 90
    32768
280
     0
281
     0
  0
CLASS
  1
ACMDATUMSTANDARDANSI
  2
AcmDatumStdANSI
  3
"Amdt_StdImp|Product Description: AutoCAD Mechanical|Company: Autodesk"
 90
    32768
280
     0
281
     0
  0
CLASS
  1
ACMBOMSTANDARDANSI
  2
AcmBOMStdANSI
  3
"Amdt_StdImp|Product Description: AutoCAD Mechanical|Company: Autodesk"
 90
    32768
280
     0
281
     0
  0
CLASS
  1
ACMDETAILSTANDARDANSI
  2
AmdtDetailSymStdANSI
  3
"Amdt_StdImp|Product Description: AutoCAD Mechanical|Company: Autodesk"
 90
    32768
280
     0
281
     0
  0
CLASS
  1
ACMSECTIONSTANDARDANSI
  2
AmdtSectionSymStdANSI
  3
"Amdt_StdImp|Product Description: AutoCAD Mechanical|Company: Autodesk"
 90
    32768
280
     0
281
     0
  0
CLASS
  1
ACMCENTERLINESTANDARDANSI
  2
AmdtCenterLineStdANSI
  3
"Amdt_StdImp|Product Description: AutoCAD Mechanical|Company: Autodesk"
 90
    32768
280
     0
281
     0
  0
CLASS
  1
ACMBOM
  2
AcmBom
  3
"AcmSymBB|Product Description: AutoCAD Mechanical|Company: Autodesk"
 90
        0
280
     0
281
     0
  0
CLASS
  1
ACMDATAENTRYPART
  2
AcmDataEntryPart
  3
"AcmSymBB|Product Description: AutoCAD Mechanical|Company: Autodesk"
 90
    32768
280
     0
281
     0
  0
CLASS
  1
ACMPARTREF
  2
AcmPartRef
  3
"AcmSymBB|Product Description: AutoCAD Mechanical|Company: Autodesk"
 90
    35839
280
     0
281
     1
  0
CLASS
  1
ACDBCIRCARCRES
  2
AcDbCircArcRes
  3
AcGrefServices
 90
    32768
280
     0
281
     0
  0
CLASS
  1
ACMBOMROW
  2
AcmBomRow
  3
"AcmSymBB|Product Description: AutoCAD Mechanical|Company: Autodesk"
 90
    32768
280
     0
281
     0
  0
CLASS
  1
ACMBALLOON
  2
AcmBalloon
  3
"AcmSymBB|Product Description: AutoCAD Mechanical|Company: Autodesk"
 90
    35839
280
     0
281
     1
  0
CLASS
  1
AMDTNOTE
  2
AmdtNote
  3
"AcmSymBB|Product Description: AutoCAD Mechanical|Company: Autodesk"
 90
    35839
280
     0
281
     1
  0
CLASS
  1
STDPART2D
  2
AmgStdPart
  3
"g3vace|Class: AmgStdPart|Product Description: AutoCAD Mechanical|Company: Autodesk"
 90
    35839
280
     0
281
     1
  0
CLASS
  1
ACDBSTDPARTRES_LINE
  2
AcDbStdPartRes_Line
  3
"g3vace|Class: AcDbStdPartRes_Line|Product Description: AutoCAD Mechanical|Company: Autodesk"
 90
    32768
280
     0
281
     0
  0
CLASS
  1
ACMDATAENTRY
  2
AcmDataEntry
  3
"AcmSymBB|Product Description: AutoCAD Mechanical|Company: Autodesk"
 90
        0
280
     0
281
     0
  0
CLASS
  1
ACDBOPPOLYLINERES
  2
AcDbOpPolylineRes
  3
AcGrefServices
 90
    32768
280
     0
281
     0
  0
CLASS
  1
ACMPARTLIST
  2
AcmPartList
  3
"AcmSymBB|Product Description: AutoCAD Mechanical|Company: Autodesk"
 90
    35839
280
     0
281
     1
  0
CLASS
  1
ACDBLINERES
  2
AcDbLineRes
  3
AcGrefServices
 90
    32768
280
     0
281
     0
  0
CLASS
  1
ACRFINSADJ
  2
AcRfInsAdjuster
  3
AcMeServices
 90
    32768
280
     0
281
     0
  0
CLASS
  1
AM_DRAWING_MGR
  2
AcDmDwgMgr
  3
AcMechDwgViewMgmt
 90
        0
280
     0
281
     0
  0
CLASS
  1
AM_DWG_DOCUMENT
  2
AcDmDwgDocument
  3
AcMechDwgViewMgmt
 90
        0
280
     0
281
     0
  0
CLASS
  1
AM_DWG_SHEET
  2
AcDmSheet
  3
AcMechDwgViewMgmt
 90
        0
280
     0
281
     0
  0
CLASS
  1
AM_VIEWDIMPARMAP
  2
AcDmViewDimParMap
  3
AcMechDwgViewMgmt
 90
        0
280
     0
281
     0
  0
CLASS
  1
AM_DWGMGR_NAME
  2
AcDmDwgMgrName
  3
AcMechDwgViewMgmt
 90
        0
280
     0
281
     0
  0
CLASS
  1
AMDTMENUSTATEMGR
  2
AmdtMenuStateMgr
  3
McadcomServices
 90
        0
280
     0
281
     0
  0
CLASS
  1
AMDTMCOMMENUSTATE
  2
AmdtMcomMenuState
  3
McadcomServices
 90
        0
280
     0
281
     0
  0
CLASS
  1
ASAPP
  2
AcAsAppObject
  3
AutoSurfServices
 90
        0
280
     0
281
     0
  0
CLASS
  1
IM_STATIC_MAN
  2
AcImStaticVarManager
  3
AcMeServices
 90
        0
280
     0
281
     0
  0
CLASS
  1
ACIMDBLSTATICVAR
  2
AcImDblStaticVar
  3
AcMeServices
 90
        0
280
     0
281
     0
  0
CLASS
  1
ACIMSTRSTATICVAR
  2
AcImStrStaticVar
  3
AcMeServices
 90
        0
280
     0
281
     0
  0
CLASS
  1
ACIMINTSTATICVAR
  2
AcImIntStaticVar
  3
AcMeServices
 90
        0
280
     0
281
     0
  0
CLASS
  1
ACASGREFMASTER
  2
AcAsGrefMaster
  3
AutoSurfResolverServices
 90
        0
280
     0
281
     0
  0
CLASS
  1
ACADGREFMODULE
  2
AcAdGrefModule
  3
AdGrefServices
 90
        0
280
     0
281
     0
  0
CLASS
  1
AMDTMAPISURFMOUDULE
  2
AmdtMApiSurfModule
  3
MApiSurfServices
 90
        0
280
     0
281
     0
  0
CLASS
  1
MAPIAMMOUDLE
  2
MApiAmModule
  3
MApiAmServices
 90
        0
280
     0
281
     0
  0
CLASS
  1
AMDTADMENUSTATE
  2
AmdtAdMenuState
  3
DesignerServices
 90
        0
280
     0
281
     0
  0
CLASS
  1
ADAPPL
  2
AcAdAppl
  3
DesignerServices
 90
        0
280
     0
281
     0
  0
CLASS
  1
DEPMGR
  2
AcAdDepMgr
  3
DesignerServices
 90
        0
280
     0
281
     0
  0
CLASS
  1
PARAMMGR
  2
AcAdParamMgr
  3
DesignerServices
 90
        0
280
     0
281
     0
  0
CLASS
  1
PARAMSCOPE
  2
AcAdParamScope
  3
DesignerServices
 90
        0
280
     0
281
     0
  0
CLASS
  1
NAMEDAPPL
  2
AcAdNamedAppl
  3
DesignerServices
 90
        0
280
     0
281
     0
  0
CLASS
  1
ADHNTMPLT
  2
AdHoleNoteTemplateMgr
  3
DesignerServices
 90
    32768
280
     0
281
     0
  0
CLASS
  1
AM_HNTEMPLATE_MGR_NAME
  2
AdHoleNoteTemplateMgrName
  3
DesignerServices
 90
    32768
280
     0
281
     0
  0
CLASS
  1
AMDTDMMENUSTATE
  2
AmdtDmMenuState
  3
AcMechDwgViewMgmt
 90
        0
280
     0
281
     0
  0
CLASS
  1
MAPIADMODULE
  2
MApiAdModule
  3
MApiAdServices
 90
        0
280
     0
281
     0
  0
CLASS
  1
AMDTAMMENUSTATE
  2
AmdtAmMenuState
  3
DesignerAssemblies
 90
        0
280
     0
281
     0
  0
CLASS
  1
ACAMPROJECT
  2
AcAmProject
  3
DesignerAssemblies
 90
        0
280
     0
281
     0
  0
CLASS
  1
ACAMGRCOMPDEF
  2
AcAmGrCompDef
  3
DesignerAssemblies
 90
        0
280
     0
281
     0
  0
CLASS
  1
ACCMCONTEXT
  2
AcCmContext
  3
DesignerAssemblies
 90
        0
280
     0
281
     0
  0
CLASS
  1
ACAMCOMPDEF
  2
AcAmCompDef
  3
DesignerAssemblies
 90
        0
280
     0
281
     0
  0
CLASS
  1
ACAMCOMPDEFMGR
  2
AcAmCompDefMgr
  3
DesignerAssemblies
 90
        0
280
     0
281
     0
  0
CLASS
  1
AMCONTEXTMGR
  2
AcAmContextMgr
  3
DesignerAssemblies
 90
        0
280
     0
281
     0
  0
CLASS
  1
ACAMCONTEXTMODELER
  2
AcAmContextModeler
  3
DesignerAssemblies
 90
        0
280
     0
281
     0
  0
CLASS
  1
CATALOGSTATE
  2
AcAmCatalogState
  3
DesignerAssemblies
 90
        0
280
     0
281
     0
  0
CLASS
  1
ACAMGRCOMPDEFSET
  2
AcAmGrCompDefSet
  3
DesignerAssemblies
 90
        0
280
     0
281
     0
  0
CLASS
  1
AMDTBROWSERDBTAB
  2
AmdtBrowserDbTab
  3
McadcomServices
 90
        0
280
     0
281
     0
  0
CLASS
  1
CBROWSERAPPOBJECT
  2
CBrowserAppObject
  3
McadcomServices
 90
        0
280
     0
281
     0
  0
CLASS
  1
DM_PLACEHOLDER
  2
AcDmSelsetPlaceholder
  3
AcMechDwgViewMgmt
 90
        0
280
     0
281
     0
  0
CLASS
  1
ACMPICKOBJ
  2
AcmPickEnt
  3
"AcmSymBB|Product Description: AutoCAD Mechanical|Company: Autodesk"
 90
    32768
280
     0
281
     1
  0
CLASS
  1
ACMNOTESTANDARDISO
  2
AmdtNoteStdISO
  3
"Amdt_StdImp|Product Description: AutoCAD Mechanical|Company: Autodesk"
 90
        0
280
     0
281
     0
  0
CLASS
  1
ACMNOTESTANDARDANSI
  2
AmdtNoteStdANSI
  3
"Amdt_StdImp|Product Description: AutoCAD Mechanical|Company: Autodesk"
 90
    32768
280
     0
281
     0
  0
CLASS
  1
ACMTHREADLINESTANDARDISO
  2
AmdtThreadLineStdISO
  3
"Amdt_StdImp|Product Description: AutoCAD Mechanical|Company: Autodesk"
 90
        0
280
     0
281
     0
  0
CLASS
  1
ACMTHREADLINESTANDARDANSI
  2
AmdtThreadLineStdANSI
  3
"Amdt_StdImp|Product Description: AutoCAD Mechanical|Company: Autodesk"
 90
    32768
280
     0
281
     0
  0
CLASS
  1
TABLESTYLE
  2
AcDbTableStyle
  3
ObjectDBX Classes
 90
     4095
280
     0
281
     0
  0
CLASS
  1
SORTENTSTABLE
  2
AcDbSortentsTable
  3
ObjectDBX Classes
 90
        0
280
     0
281
     0
  0
CLASS
  1
MATERIAL
  2
AcDbMaterial
  3
ObjectDBX Classes
 90
     1024
280
     0
281
     0
  0
CLASS
  1
VISUALSTYLE
  2
AcDbVisualStyle
  3
ObjectDBX Classes
 90
     4095
280
     0
281
     0
  0
CLASS
  1
ACRFATTGENMGR
  2
AcRfAttGeneralMgr
  3
AcAttribServices
 90
        0
280
     0
281
     0
  0
CLASS
  1
ACRFOBJATTMGR
  2
AcRfObjAttGroupMgr
  3
AcAttribServices
 90
        0
280
     0
281
     0
  0
CLASS
  1
ACRFMCADAPIATTHOLDER
  2
AcRfMCADAPIAttHolder
  3
AcAttribServices
 90
        0
280
     0
281
     0
  0
CLASS
  1
AMDTSYSATTR
  2
AmdtSystemAttribute
  3
AcAttribServices
 90
        0
280
     0
281
     0
  0
CLASS
  1
ACMTAPERSTANDARDISO
  2
AcmTaperStdISO
  3
"Amdt_StdImp|Product Description: AutoCAD Mechanical|Company: Autodesk"
 90
        0
280
     0
281
     0
  0
CLASS
  1
CAMSSTRUCTBTNSTATE
  2
StructBtnState
  3
L"DesignerAssemblies"
 90
        0
280
     0
281
     0
  0
CLASS
  1
DIMASSOC
  2
AcDbDimAssoc
  3
"AcDbDimAssoc|Product Desc:     AcDim ARX App For Dimension|Company:          Autodesk, Inc.|WEB Address:      www.autodesk.com"
 90
    32768
280
     0
281
     0
  0
CLASS
  1
AMDTEDGESTANDARDISO13715
  2
AmdtEdgeStdISO13715
  3
"Amdt_StdImp|Product Description: AutoCAD Mechanical|Company: Autodesk"
 90
        0
280
     0
281
     0
  0
CLASS
  1
AMDTNOTETEMPLATEDB
  2
AmdtNoteTemplateDB
  3
AMDT_STDIMP_MODULE_NAME
 90
        0
280
     0
281
     0
  0
CLASS
  1
ACAMGHOLECHARTSTDISO
  2
AcAmgHoleChartStdISO
  3
ACMSYMBB_MODULE_NAME
 90
        0
280
     0
281
     0
  0
ENDSEC
  0
SECTION
  2
TABLES
  0
TABLE
  2
VPORT
  5
8
330
0
100
AcDbSymbolTable
 70
     1
  0
VPORT
  5
B0EC
330
8
100
AcDbSymbolTableRecord
100
AcDbViewportTableRecord
  2
*Active
 70
     0
 10
0.0
 20
0.0
 11
1.0
 21
1.0
 12
2100.000003004787
 22
1484.999998078888
 13
0.0
 23
0.0
 14
2.5
 24
2.5
 15
10.0
 25
10.0
 16
0.0
 26
0.0
 36
1.0
 17
0.0
 27
0.0
 37
0.0
 40
3000.982011664413
 41
1.407124681933842
 42
50.0
 43
-1370.695619172058
 44
-1370.695619172058
 50
0.0
 51
0.0
 71
    16
 72
   100
 73
     1
 74
     3
 75
     0
 76
     0
 77
     0
 78
     0
281
     0
 65
     0
110
0.0
120
0.0
130
0.0
111
1.0
121
0.0
131
0.0
112
0.0
122
1.0
132
0.0
 79
     0
146
0.0
  0
ENDTAB
  0
TABLE
  2
LTYPE
  5
5
330
0
100
AcDbSymbolTable
 70
    28
  0
LTYPE
  5
14
330
5
100
AcDbSymbolTableRecord
100
AcDbLinetypeTableRecord
  2
ByBlock
 70
     0
  3

 72
    65
 73
     0
 40
0.0
  0
LTYPE
  5
15
330
5
100
AcDbSymbolTableRecord
100
AcDbLinetypeTableRecord
  2
ByLayer
 70
     0
  3

 72
    65
 73
     0
 40
0.0
  0
LTYPE
  5
16
330
5
100
AcDbSymbolTableRecord
100
AcDbLinetypeTableRecord
  2
Continuous
 70
     0
  3
Solid line
 72
    65
 73
     0
 40
0.0
  0
LTYPE
  5
4F
330
5
100
AcDbSymbolTableRecord
100
AcDbLinetypeTableRecord
  2
AM_ISO02W050
 70
     0
  3
__ __ __ __ __ __ __ __ __ __ __ __ __ __ __
 72
    65
 73
     2
 40
7.5
 49
6.0
 74
     0
 49
-1.5
 74
     0
  0
LTYPE
  5
52
330
5
100
AcDbSymbolTableRecord
100
AcDbLinetypeTableRecord
  2
Amconstr
 70
     0
  3
_______________________
 72
    65
 73
     2
 40
9999.0
 49
9999.0
 74
     0
 49
0.0
 74
     0
  0
LTYPE
  5
64
330
5
100
AcDbSymbolTableRecord
100
AcDbLinetypeTableRecord
  2
ACISOWELD
 70
     0
  3
_ _ _ _ _
 72
    65
 73
     2
 40
2.0
 49
2.0
 74
     0
 49
-1.0
 74
     0
  0
LTYPE
  5
65
330
5
100
AcDbSymbolTableRecord
100
AcDbLinetypeTableRecord
  2
ACISOTGB
 70
     0
  3
__ . . __ . .
 72
    65
 73
     6
 40
9.0
 49
4.0
 74
     0
 49
-1.0
 74
     0
 49
1.0
 74
     0
 49
-1.0
 74
     0
 49
1.0
 74
     0
 49
-1.0
 74
     0
  0
LTYPE
  5
66
330
5
100
AcDbSymbolTableRecord
100
AcDbLinetypeTableRecord
  2
ACISOTGL
 70
     0
  3
_ _ _ _ _
 72
    65
 73
     2
 40
3.0
 49
2.0
 74
     0
 49
-1.0
 74
     0
  0
LTYPE
  5
69
330
5
100
AcDbSymbolTableRecord
100
AcDbLinetypeTableRecord
  2
CENTER
 70
     0
  3
__ . __
 72
    65
 73
     4
 40
7.0
 49
4.0
 74
     0
 49
-1.0
 74
     0
 49
1.0
 74
     0
 49
-1.0
 74
     0
  0
LTYPE
  5
A6E
330
5
100
AcDbSymbolTableRecord
100
AcDbLinetypeTableRecord
  2
PHANTOM2
 70
     0
  3
Phantom (.5x) ___ _ _ ___ _ _ ___ _ _ ___ _ _
 72
    65
 73
     6
 40
31.75
 49
15.875
 74
     0
 49
-3.174999999999999
 74
     0
 49
3.174999999999999
 74
     0
 49
-3.174999999999999
 74
     0
 49
3.174999999999999
 74
     0
 49
-3.174999999999999
 74
     0
  0
LTYPE
  5
4DED
330
5
100
AcDbSymbolTableRecord
100
AcDbLinetypeTableRecord
  2
中線
 70
     0
  3
___________________
 72
    65
 73
     2
 40
2.0
 49
1.0
 74
     0
 49
1.0
 74
     0
  0
LTYPE
  5
4DF6
330
5
100
AcDbSymbolTableRecord
100
AcDbLinetypeTableRecord
  2
細線
 70
     0
  3
___________________
 72
    65
 73
     2
 40
2.0
 49
1.0
 74
     0
 49
1.0
 74
     0
  0
LTYPE
  5
4DF7
330
5
100
AcDbSymbolTableRecord
100
AcDbLinetypeTableRecord
  2
太線
 70
     0
  3
___________________
 72
    65
 73
     2
 40
2.0
 49
1.0
 74
     0
 49
1.0
 74
     0
  0
LTYPE
  5
4EA7
330
5
100
AcDbSymbolTableRecord
100
AcDbLinetypeTableRecord
  2
文字
 70
     0
  3
_________________
 72
    65
 73
     2
 40
2.0
 49
1.0
 74
     0
 49
1.0
 74
     0
  0
LTYPE
  5
4EA9
330
5
100
AcDbSymbolTableRecord
100
AcDbLinetypeTableRecord
  2
寸法線
 70
     0
  3
________________
 72
    65
 73
     2
 40
2.0
 49
1.0
 74
     0
 49
1.0
 74
     0
  0
LTYPE
  5
4F12
330
5
100
AcDbSymbolTableRecord
100
AcDbLinetypeTableRecord
  2
ハッチング
 70
     0
  3
_________________
 72
    65
 73
     2
 40
2.0
 49
1.0
 74
     0
 49
1.0
 74
     0
  0
LTYPE
  5
5180
330
5
100
AcDbSymbolTableRecord
100
AcDbLinetypeTableRecord
  2
陰線1
 70
     0
  3
__ __ __ __
 72
    65
 73
     2
 40
4.0
 49
2.2
 74
     0
 49
-1.8
 74
     0
  0
LTYPE
  5
5182
330
5
100
AcDbSymbolTableRecord
100
AcDbLinetypeTableRecord
  2
切断線
 70
     0
  3
/\/-/\/-/\/-/\/-/\/-/\/
 72
    65
 73
     2
 40
11.0001
 49
0.0001
 74
     4
 75
   135
340
56
 46
0.04
 50
0.0
 44
0.0
 45
0.0
 49
-11.0
 74
     0
  0
LTYPE
  5
5183
330
5
100
AcDbSymbolTableRecord
100
AcDbLinetypeTableRecord
  2
想像線1
 70
     0
  3
__ __ __ _____ __ __ ____
 72
    65
 73
     6
 40
14.5
 49
6.0
 74
     0
 49
-1.5
 74
     0
 49
2.0
 74
     0
 49
-1.5
 74
     0
 49
2.0
 74
     0
 49
-1.5
 74
     0
  0
LTYPE
  5
5185
330
5
100
AcDbSymbolTableRecord
100
AcDbLinetypeTableRecord
  2
中心線1
 70
     0
  3
___ _ ___ _ ___
 72
    65
 73
     4
 40
18.0
 49
12.0
 74
     0
 49
-2.0
 74
     0
 49
2.0
 74
     0
 49
-2.0
 74
     0
  0
LTYPE
  5
5188
330
5
100
AcDbSymbolTableRecord
100
AcDbLinetypeTableRecord
  2
補助線
 70
     0
  3
______________
 72
    65
 73
     2
 40
2.0
 49
1.0
 74
     0
 49
1.0
 74
     0
  0
LTYPE
  5
6427
330
5
100
AcDbSymbolTableRecord
100
AcDbLinetypeTableRecord
  2
HIDDEN
 70
     0
  3
Hidden __ __ __ __ __ __ __ __ __ __ __ __ __ _
 72
    65
 73
     2
 40
0.375
 49
0.25
 74
     0
 49
-0.125
 74
     0
  0
LTYPE
  5
AC81
330
5
100
AcDbSymbolTableRecord
100
AcDbLinetypeTableRecord
  2
破断線
 70
     0
  3
/\/-/\/-/\/-/\/-/\/-/\/
 72
    65
 73
     2
 40
0.4401
 49
0.0001
 74
     4
 75
   136
340
AC80
 46
0.0016
 50
0.0
 44
0.0
 45
0.0
 49
-0.4400000000000001
 74
     0
  0
LTYPE
  5
AC9E
330
5
100
AcDbSymbolTableRecord
100
AcDbLinetypeTableRecord
  2
Amzigzag
 70
     0
  3
/\/-/\/-/\/-/\/-/\/-/\/
 72
    65
 73
     2
 40
11.0001
 49
0.0001
 74
     4
 75
   135
340
56
 46
0.04
 50
0.0
 44
0.0
 45
0.0
 49
-11.0
 74
     0
  0
LTYPE
  5
AF0F
330
5
100
AcDbSymbolTableRecord
100
AcDbLinetypeTableRecord
  2
genzigzag
 70
     0
  3
/\/-/\/-/\/-/\/-/\/-/\/
 72
    65
 73
     2
 40
12.0001
 49
0.0001
 74
     4
 75
   135
340
AC80
 46
2.0
 50
0.0
 44
0.0
 45
0.0
 49
-12.0
 74
     0
  0
LTYPE
  5
AF95
330
5
100
AcDbSymbolTableRecord
100
AcDbLinetypeTableRecord
  2
AM_ISO08W050
 70
     0
  3
____ . ____ . ____ . ____ . ____ . ____ . ____
 72
    65
 73
     4
 40
18.0
 49
12.0
 74
     0
 49
-1.5
 74
     0
 49
3.0
 74
     0
 49
-1.5
 74
     0
  0
LTYPE
  5
AF96
330
5
100
AcDbSymbolTableRecord
100
AcDbLinetypeTableRecord
  2
AM_ISO09W050
 70
     0
  3
_____ . . _____ . . _____ . . ____ .. ____
 72
    65
 73
     6
 40
22.5
 49
12.0
 74
     0
 49
-1.5
 74
     0
 49
3.0
 74
     0
 49
-1.5
 74
     0
 49
3.0
 74
     0
 49
-1.5
 74
     0
  0
LTYPE
  5
AF97
330
5
100
AcDbSymbolTableRecord
100
AcDbLinetypeTableRecord
  2
AM_ISO08W050x2
 70
     0
  3
__ . __ . __ . __ . __ . __
 72
    65
 73
     4
 40
9.0
 49
6.0
 74
     0
 49
-0.75
 74
     0
 49
1.5
 74
     0
 49
-0.75
 74
     0
  0
LTYPE
  5
AF98
330
5
100
AcDbSymbolTableRecord
100
AcDbLinetypeTableRecord
  2
AM_ISO02W050x2
 70
     0
  3
 _ _ _ _ _ _ _ _ _ _ _ _
 72
    65
 73
     2
 40
3.75
 49
3.0
 74
     0
 49
-0.75
 74
     0
  0
LTYPE
  5
B5CE
330
5
100
AcDbSymbolTableRecord
100
AcDbLinetypeTableRecord
  2
HIDDEN2
 70
     0
  3
Hidden (.5x) _ _ _ _ _ _ _ _ _ _ _ _ _ _ _ _ _
 72
    65
 73
     2
 40
4.762499999999998
 49
3.174999999999998
 74
     4
 75
     0
340
0
 46
1.0
 50
0.0
 44
0.0
 45
0.0
 49
-1.587499999999999
 74
     4
 75
     0
340
0
 46
1.0
 50
0.0
 44
0.0
 45
0.0
  0
ENDTAB
  0
TABLE
  2
LAYER
  5
2
102
{ACAD_XDICTIONARY
360
3F95
102
}
330
0
100
AcDbSymbolTable
 70
    23
  0
LAYER
  5
10
330
2
100
AcDbSymbolTableRecord
100
AcDbLayerTableRecord
  2
0
 70
     0
 62
     7
  6
Continuous
370
    -3
390
F
  0
LAYER
  5
6D1
330
2
100
AcDbSymbolTableRecord
100
AcDbLayerTableRecord
  2
Defpoints
 70
     0
 62
     7
  6
Continuous
290
     0
370
    -3
390
F
  0
LAYER
  5
5F85
330
2
100
AcDbSymbolTableRecord
100
AcDbLayerTableRecord
  2
AM_0
 70
     0
 62
     7
  6
中線
370
    30
390
F
1001
AcAecLayerStandard
1000

1000

  0
LAYER
  5
AC9F
330
2
100
AcDbSymbolTableRecord
100
AcDbLayerTableRecord
  2
size
 70
     0
 62
     5
  6
Continuous
290
     0
370
    25
390
F
  0
LAYER
  5
ACA0
330
2
100
AcDbSymbolTableRecord
100
AcDbLayerTableRecord
  2
waku
 70
     0
 62
     7
  6
Continuous
370
    35
390
F
  0
LAYER
  5
ACA1
330
2
100
AcDbSymbolTableRecord
100
AcDbLayerTableRecord
  2
AM_6
 70
     0
 62
     2
  6
文字
370
    13
390
F
1001
AcAecLayerStandard
1000

1000

  0
LAYER
  5
ACC8
330
2
100
AcDbSymbolTableRecord
100
AcDbLayerTableRecord
  2
hyomoji
 70
     0
 62
     2
  6
Continuous
370
    13
390
F
  0
LAYER
  5
ACC9
330
2
100
AcDbSymbolTableRecord
100
AcDbLayerTableRecord
  2
hyosen1
 70
     0
 62
     1
  6
Continuous
370
    30
390
F
  0
LAYER
  5
ACCA
330
2
100
AcDbSymbolTableRecord
100
AcDbLayerTableRecord
  2
hyosen2
 70
     0
 62
     1
  6
Continuous
370
    13
390
F
  0
LAYER
  5
AD60
330
2
100
AcDbSymbolTableRecord
100
AcDbLayerTableRecord
  2
AM_1
 70
     0
 62
    30
  6
太線
370
    40
390
F
1001
AcAecLayerStandard
1000

1000

  0
LAYER
  5
AD64
330
2
100
AcDbSymbolTableRecord
100
AcDbLayerTableRecord
  2
AM_2
 70
     0
 62
     1
  6
細線
370
    13
390
F
1001
AcAecLayerStandard
1000

1000

  0
LAYER
  5
AD67
330
2
100
AcDbSymbolTableRecord
100
AcDbLayerTableRecord
  2
AM_3
 70
     0
 62
     6
  6
陰線1
370
    13
390
F
1001
AcAecLayerStandard
1000

1000

  0
LAYER
  5
AD68
330
2
100
AcDbSymbolTableRecord
100
AcDbLayerTableRecord
  2
AM_5
 70
     0
 62
     3
  6
寸法線
370
    13
390
F
1001
AcAecLayerStandard
1000

1000

  0
LAYER
  5
AD69
330
2
100
AcDbSymbolTableRecord
100
AcDbLayerTableRecord
  2
AM_7
 70
     0
 62
     4
  6
中心線1
370
    13
390
F
1001
AcAecLayerStandard
1000

1000

  0
LAYER
  5
AD6A
330
2
100
AcDbSymbolTableRecord
100
AcDbLayerTableRecord
  2
AM_8
 70
     0
 62
     1
  6
ハッチング
370
    13
390
F
1001
AcAecLayerStandard
1000

1000

  0
LAYER
  5
AD6E
330
2
100
AcDbSymbolTableRecord
100
AcDbLayerTableRecord
  2
AM_10
 70
     0
 62
     7
  6
切断線
370
    30
390
F
1001
AcAecLayerStandard
1000

1000

  0
LAYER
  5
AD6F
330
2
100
AcDbSymbolTableRecord
100
AcDbLayerTableRecord
  2
AM_11
 70
     0
 62
     2
  6
想像線1
370
    13
390
F
1001
AcAecLayerStandard
1000

1000

  0
LAYER
  5
B1B6
330
2
100
AcDbSymbolTableRecord
100
AcDbLayerTableRecord
  2
AM_CL
 70
     1
 62
    -1
  6
Amconstr
370
    13
390
F
1001
AcAecLayerStandard
1000

1000

  0
LAYER
  5
B5CF
102
{ACAD_XDICTIONARY
360
B5D0
102
}
330
2
100
AcDbSymbolTableRecord
100
AcDbLayerTableRecord
  2
OBJECT
 70
     0
 62
     7
  6
Continuous
370
    -3
390
F
  0
LAYER
  5
B5D2
102
{ACAD_XDICTIONARY
360
B5D3
102
}
330
2
100
AcDbSymbolTableRecord
100
AcDbLayerTableRecord
  2
HIDDEN
 70
     0
 62
     2
  6
HIDDEN2
370
    -3
390
F
  0
LAYER
  5
B5D5
102
{ACAD_XDICTIONARY
360
B5D6
102
}
330
2
100
AcDbSymbolTableRecord
100
AcDbLayerTableRecord
  2
PHANTOM
 70
     0
 62
     6
  6
PHANTOM2
370
    -3
390
F
  0
LAYER
  5
B5D8
102
{ACAD_XDICTIONARY
360
B5D9
102
}
330
2
100
AcDbSymbolTableRecord
100
AcDbLayerTableRecord
  2
004
 70
     0
 62
   163
  6
中線
370
    35
390
F
  0
LAYER
  5
B5DA
102
{ACAD_XDICTIONARY
360
B5DB
102
}
330
2
100
AcDbSymbolTableRecord
100
AcDbLayerTableRecord
  2
003
 70
     0
 62
   141
  6
中線
370
    35
390
F
  0
ENDTAB
  0
TABLE
  2
STYLE
  5
3
330
0
100
AcDbSymbolTable
 70
     6
  0
STYLE
  5
11
330
3
100
AcDbSymbolTableRecord
100
AcDbTextStyleTableRecord
  2
STANDARD
 70
     0
 40
0.0
 41
0.7
 50
0.0
 71
     0
 42
3.2
  3
romans.shx
  4
extfont.shx
  0
STYLE
  5
56
330
3
100
AcDbSymbolTableRecord
100
AcDbTextStyleTableRecord
  2

 70
     1
 40
0.0
 41
1.0
 50
0.0
 71
     0
 42
2.5
  3
ltypeshp.shx
  4

  0
STYLE
  5
58
330
3
100
AcDbSymbolTableRecord
100
AcDbTextStyleTableRecord
  2
ACISOTS
 70
     0
 40
1.0
 41
1.0
 50
0.0
 71
     0
 42
2.5
  3
isocp.shx
  4
extfont.shx
  0
STYLE
  5
63
330
3
100
AcDbSymbolTableRecord
100
AcDbTextStyleTableRecord
  2
ACISOGDT
 70
     0
 40
0.0
 41
1.0
 50
0.0
 71
     0
 42
2.5
  3
amgdt.shx
  4

  0
STYLE
  5
A74
330
3
100
AcDbSymbolTableRecord
100
AcDbTextStyleTableRecord
  2
DIM
 70
     0
 40
0.0
 41
1.0
 50
0.0
 71
     0
 42
2.5
  3
monotxt.shx
  4
extfont.shx
  0
STYLE
  5
AC80
330
3
100
AcDbSymbolTableRecord
100
AcDbTextStyleTableRecord
  2

 70
     1
 40
0.0
 41
1.0
 50
0.0
 71
     0
 42
3.2
  3
genltshp.shx
  4

  0
ENDTAB
  0
TABLE
  2
VIEW
  5
6
330
0
100
AcDbSymbolTable
 70
     6
  0
VIEW
  5
AE1
330
6
100
AcDbSymbolTableRecord
100
AcDbViewTableRecord
  2
AM_VIEW1
 70
     0
 40
129.7276464542651
 10
1775.10588156276
 20
1793.121228859297
 41
148.5
 11
0.0
 21
0.0
 31
1.0
 12
0.0
 22
0.0
 32
0.0
 42
50.0
 43
-1370.695619172058
 44
-1370.695619172058
 50
0.0
 71
    16
281
     0
 72
     0
  0
VIEW
  5
AE2
330
6
100
AcDbSymbolTableRecord
100
AcDbViewTableRecord
  2
AM_VIEW2
 70
     0
 40
129.7276464542651
 10
1923.60588156276
 20
1793.121228859297
 41
148.5
 11
0.0
 21
0.0
 31
1.0
 12
0.0
 22
0.0
 32
0.0
 42
50.0
 43
-1370.695619172058
 44
-1370.695619172058
 50
0.0
 71
    16
281
     0
 72
     0
  0
VIEW
  5
AE3
330
6
100
AcDbSymbolTableRecord
100
AcDbViewTableRecord
  2
AM_VIEW3
 70
     0
 40
129.7276464542651
 10
1775.10588156276
 20
1712.848875313562
 41
148.5
 11
0.0
 21
0.0
 31
1.0
 12
0.0
 22
0.0
 32
0.0
 42
50.0
 43
-1370.695619172058
 44
-1370.695619172058
 50
0.0
 71
    16
281
     0
 72
     0
  0
VIEW
  5
AE4
330
6
100
AcDbSymbolTableRecord
100
AcDbViewTableRecord
  2
AM_VIEW4
 70
     0
 40
129.7276464542651
 10
1923.60588156276
 20
1712.848875313562
 41
148.5
 11
0.0
 21
0.0
 31
1.0
 12
0.0
 22
0.0
 32
0.0
 42
50.0
 43
-1370.695619172058
 44
-1370.695619172058
 50
0.0
 71
    16
281
     0
 72
     0
  0
VIEW
  5
AE5
330
6
100
AcDbSymbolTableRecord
100
AcDbViewTableRecord
  2
AM_VIEW5
 70
     0
 40
129.7276464542651
 10
1849.35588156276
 20
1752.985052086429
 41
148.5
 11
0.0
 21
0.0
 31
1.0
 12
0.0
 22
0.0
 32
0.0
 42
50.0
 43
-1370.695619172058
 44
-1370.695619172058
 50
0.0
 71
    16
281
     0
 72
     0
  0
VIEW
  5
AE6
330
6
100
AcDbSymbolTableRecord
100
AcDbViewTableRecord
  2
AM_VIEW6
 70
     0
 40
259.4526983556011
 10
1849.35588156276
 20
1752.985052086429
 41
296.99703
 11
0.0
 21
0.0
 31
1.0
 12
0.0
 22
0.0
 32
0.0
 42
50.0
 43
-1370.695619172058
 44
-1370.695619172058
 50
0.0
 71
    16
281
     0
 72
     0
  0
ENDTAB
  0
TABLE
  2
UCS
  5
7
330
0
100
AcDbSymbolTable
 70
     0
  0
ENDTAB
  0
TABLE
  2
APPID
  5
9
330
0
100
AcDbSymbolTable
 70
    56
  0
APPID
  5
12
330
9
100
AcDbSymbolTableRecord
100
AcDbRegAppTableRecord
  2
ACAD
 70
     0
  0
APPID
  5
30
330
9
100
AcDbSymbolTableRecord
100
AcDbRegAppTableRecord
  2
MCAD_NO_VIS
 70
     0
  0
APPID
  5
31
330
9
100
AcDbSymbolTableRecord
100
AcDbRegAppTableRecord
  2
ACAD_TEMP_GRAPHIC
 70
     0
  0
APPID
  5
44
330
9
100
AcDbSymbolTableRecord
100
AcDbRegAppTableRecord
  2
ACATTRIBSERVICES
 70
     0
  0
APPID
  5
7A1
330
9
100
AcDbSymbolTableRecord
100
AcDbRegAppTableRecord
  2
GENIUS_GENDIMSH_14
 70
     0
  0
APPID
  5
A49
330
9
100
AcDbSymbolTableRecord
100
AcDbRegAppTableRecord
  2
GENIUS_GENREC_14
 70
     0
  0
APPID
  5
A4A
330
9
100
AcDbSymbolTableRecord
100
AcDbRegAppTableRecord
  2
GENIUS_GENOBJ-N-REC_13
 70
     0
  0
APPID
  5
A4B
330
9
100
AcDbSymbolTableRecord
100
AcDbRegAppTableRecord
  2
GENIUS_GENODEF_13
 70
     0
  0
APPID
  5
A4C
330
9
100
AcDbSymbolTableRecord
100
AcDbRegAppTableRecord
  2
DCO15
 70
     0
  0
APPID
  5
ADC
330
9
100
AcDbSymbolTableRecord
100
AcDbRegAppTableRecord
  2
GENIUS_GENOLIS_13
 70
     0
  0
APPID
  5
ADD
330
9
100
AcDbSymbolTableRecord
100
AcDbRegAppTableRecord
  2
GENIUS_GENOENT_13
 70
     0
  0
APPID
  5
ADE
330
9
100
AcDbSymbolTableRecord
100
AcDbRegAppTableRecord
  2
GENIUS_GENOBJ-N-TIT_13
 70
     0
  0
APPID
  5
ADF
330
9
100
AcDbSymbolTableRecord
100
AcDbRegAppTableRecord
  2
GENIUS_GENTITLE_13
 70
     0
  0
APPID
  5
AE0
330
9
100
AcDbSymbolTableRecord
100
AcDbRegAppTableRecord
  2
GENIUS_GENOREF_13
 70
     0
  0
APPID
  5
AE7
330
9
100
AcDbSymbolTableRecord
100
AcDbRegAppTableRecord
  2
GENIUS_GENSCREG_15
 70
     0
  0
APPID
  5
AE8
330
9
100
AcDbSymbolTableRecord
100
AcDbRegAppTableRecord
  2
GENIUS_GENOBJ-N-SDF_13
 70
     0
  0
APPID
  5
FAF
330
9
100
AcDbSymbolTableRecord
100
AcDbRegAppTableRecord
  2
GENIUS_GENBLLY_14
 70
     0
  0
APPID
  5
FB0
330
9
100
AcDbSymbolTableRecord
100
AcDbRegAppTableRecord
  2
GENIUS_GENTRA_14
 70
     0
  0
APPID
  5
1285
330
9
100
AcDbSymbolTableRecord
100
AcDbRegAppTableRecord
  2
GENIUS_GENDTOL_13
 70
     0
  0
APPID
  5
142D
330
9
100
AcDbSymbolTableRecord
100
AcDbRegAppTableRecord
  2
GENIUS_GENOBJ-N-CEN_13
 70
     0
  0
APPID
  5
1AB5
330
9
100
AcDbSymbolTableRecord
100
AcDbRegAppTableRecord
  2
GENIUS_GENOBJ-N-CRS_13
 70
     0
  0
APPID
  5
1B36
330
9
100
AcDbSymbolTableRecord
100
AcDbRegAppTableRecord
  2
GENIUS_GENOBJ-N-HTC_13
 70
     0
  0
APPID
  5
1B37
330
9
100
AcDbSymbolTableRecord
100
AcDbRegAppTableRecord
  2
GENIUS_GENHATCH_13
 70
     0
  0
APPID
  5
216D
330
9
100
AcDbSymbolTableRecord
100
AcDbRegAppTableRecord
  2
GENIUS_GENOBJ-N-FIL_13
 70
     0
  0
APPID
  5
2356
330
9
100
AcDbSymbolTableRecord
100
AcDbRegAppTableRecord
  2
GEVID990412420
 70
     0
  0
APPID
  5
2357
330
9
100
AcDbSymbolTableRecord
100
AcDbRegAppTableRecord
  2
GEVDC
 70
     0
  0
APPID
  5
2358
330
9
100
AcDbSymbolTableRecord
100
AcDbRegAppTableRecord
  2
GEVCON
 70
     0
  0
APPID
  5
235B
330
9
100
AcDbSymbolTableRecord
100
AcDbRegAppTableRecord
  2
GEVRADREF
 70
     0
  0
APPID
  5
2360
330
9
100
AcDbSymbolTableRecord
100
AcDbRegAppTableRecord
  2
GENIUS_GENBH_13
 70
     0
  0
APPID
  5
2362
330
9
100
AcDbSymbolTableRecord
100
AcDbRegAppTableRecord
  2
GENIUS_GENOBJ-NBEHI-BHF_13
 70
     0
  0
APPID
  5
2364
330
9
100
AcDbSymbolTableRecord
100
AcDbRegAppTableRecord
  2
GENIUS_GENOBJ-NBEHI-BHB_13
 70
     0
  0
APPID
  5
2379
330
9
100
AcDbSymbolTableRecord
100
AcDbRegAppTableRecord
  2
GENIUS_GENOBJ-F-SCPASSM_13
 70
     0
  0
APPID
  5
3D74
330
9
100
AcDbSymbolTableRecord
100
AcDbRegAppTableRecord
  2
GENIUS_GENDIM_13
 70
     0
  0
APPID
  5
3D76
330
9
100
AcDbSymbolTableRecord
100
AcDbRegAppTableRecord
  2
GENIUS_GE3DTOL_13
 70
     0
  0
APPID
  5
3D9C
330
9
100
AcDbSymbolTableRecord
100
AcDbRegAppTableRecord
  2
AD_DRAW
 70
     0
  0
APPID
  5
3DE8
330
9
100
AcDbSymbolTableRecord
100
AcDbRegAppTableRecord
  2
ASURF_PCURVE_APPNAME
 70
     0
  0
APPID
  5
3DED
330
9
100
AcDbSymbolTableRecord
100
AcDbRegAppTableRecord
  2
AMG_3D2D_5.0
 70
     0
  0
APPID
  5
3E1B
330
9
100
AcDbSymbolTableRecord
100
AcDbRegAppTableRecord
  2
DESIGNERASSEMBLIES
 70
     0
  0
APPID
  5
3E20
330
9
100
AcDbSymbolTableRecord
100
AcDbRegAppTableRecord
  2
ACADM_DIM_EDIT
 70
     0
  0
APPID
  5
3E21
330
9
100
AcDbSymbolTableRecord
100
AcDbRegAppTableRecord
  2
AMDT_DM_ADJ
 70
     0
  0
APPID
  5
4143
330
9
100
AcDbSymbolTableRecord
100
AcDbRegAppTableRecord
  2
GENIUS_GENFIL_13
 70
     0
  0
APPID
  5
4144
330
9
100
AcDbSymbolTableRecord
100
AcDbRegAppTableRecord
  2
GENIUS_GENOBJ-N-CHA_13
 70
     0
  0
APPID
  5
4E17
330
9
100
AcDbSymbolTableRecord
100
AcDbRegAppTableRecord
  2
GEVID1008153417
 70
     0
  0
APPID
  5
4E58
330
9
100
AcDbSymbolTableRecord
100
AcDbRegAppTableRecord
  2
GEVID1008153418
 70
     0
  0
APPID
  5
4E5E
330
9
100
AcDbSymbolTableRecord
100
AcDbRegAppTableRecord
  2
GEVID1008153419
 70
     0
  0
APPID
  5
4E64
330
9
100
AcDbSymbolTableRecord
100
AcDbRegAppTableRecord
  2
GEVID1008153420
 70
     0
  0
APPID
  5
4E75
330
9
100
AcDbSymbolTableRecord
100
AcDbRegAppTableRecord
  2
GEVID1008153421
 70
     0
  0
APPID
  5
4EB7
330
9
100
AcDbSymbolTableRecord
100
AcDbRegAppTableRecord
  2
GENIUS_AMGTXT_16
 70
     0
  0
APPID
  5
7645
330
9
100
AcDbSymbolTableRecord
100
AcDbRegAppTableRecord
  2
GENIUS_GENOBJ-N-DIM_13
 70
     0
  0
APPID
  5
AAD0
330
9
100
AcDbSymbolTableRecord
100
AcDbRegAppTableRecord
  2
ACAD_DSTYLE_DIMARC_LENGTH_SYMBOL
 70
     0
  0
APPID
  5
AAD1
330
9
100
AcDbSymbolTableRecord
100
AcDbRegAppTableRecord
  2
ACAD_DSTYLE_DIMJOGGED_JOGANGLE_SYMBOL
 70
     0
  0
APPID
  5
AAFD
330
9
100
AcDbSymbolTableRecord
100
AcDbRegAppTableRecord
  2
ACAD_PSEXT
 70
     0
  0
APPID
  5
AD61
330
9
100
AcDbSymbolTableRecord
100
AcDbRegAppTableRecord
  2
AcAecLayerStandard
 70
     0
  0
APPID
  5
AEE3
330
9
100
AcDbSymbolTableRecord
100
AcDbRegAppTableRecord
  2
ACAD_EXEMPT_FROM_CAD_STANDARDS
 70
     0
  0
APPID
  5
B1BE
330
9
100
AcDbSymbolTableRecord
100
AcDbRegAppTableRecord
  2
GENIUS_GENCEN_19
 70
     0
  0
APPID
  5
B5DE
330
9
100
AcDbSymbolTableRecord
100
AcDbRegAppTableRecord
  2
ACAD_DSTYLE_DIMINSPECT
 70
     0
  0
ENDTAB
  0
TABLE
  2
DIMSTYLE
  5
A
330
0
100
AcDbSymbolTable
 70
    19
100
AcDbDimStyleTable
 71
     1
340
2515
  0
DIMSTYLE
105
A76
330
A
100
AcDbSymbolTableRecord
100
AcDbDimStyleTableRecord
  2
STANDARD
 70
     0
 41
3.0
 42
1.0
 43
7.0
 44
2.0
 73
     0
 74
     0
 77
     1
140
2.799999999999999
141
0.0
143
0.0394
147
0.7
171
     4
172
     1
173
     1
176
     3
177
     3
178
     2
271
     3
272
     3
273
     8
274
     4
289
     0
340
A74
341
A66
343
A66
344
A66
  0
DIMSTYLE
105
2515
330
A
100
AcDbSymbolTableRecord
100
AcDbDimStyleTableRecord
  2
SYS
 70
     0
  4
"
 41
1.0
 42
1.0
 43
10.0
 44
1.0
 47
0.1
 48
0.1
 73
     0
 74
     0
 77
     1
 78
     8
 79
     2
140
3.5
141
0.0
143
0.0393701
146
0.71
147
1.5
172
     1
176
   256
177
   256
178
     7
271
     2
272
     2
283
     0
284
     8
340
11
371
    -1
372
    -1
1001
ACAD_DSTYLE_DIMJOGGED_JOGANGLE_SYMBOL
1070
   384
1040
0.7853981633974483
1001
ACAD_DSTYLE_DIMARC_LENGTH_SYMBOL
1070
   379
1070
     1
  0
DIMSTYLE
105
2516
330
A
100
AcDbSymbolTableRecord
100
AcDbDimStyleTableRecord
  2
SYS$3
 70
     0
  4
"
 41
2.0
 42
1.0
 43
10.0
 44
1.0
 47
0.1
 48
0.1
 73
     0
 77
     1
 78
     8
 79
     2
140
3.5
141
0.0
143
0.0393701
146
0.71
147
1.5
176
   256
177
   256
178
     2
271
     2
272
     2
283
     0
284
     8
288
     1
340
11
342
A66
371
    -1
372
    -1
1001
ACAD_DSTYLE_DIMJOGGED_JOGANGLE_SYMBOL
1070
   384
1040
0.7853981633974483
1001
ACAD_DSTYLE_DIMARC_LENGTH_SYMBOL
1070
   379
1070
     1
  0
DIMSTYLE
105
2517
330
A
100
AcDbSymbolTableRecord
100
AcDbDimStyleTableRecord
  2
SYS$4
 70
     0
  4
"
 41
2.0
 42
1.0
 43
10.0
 44
1.0
 47
0.1
 48
0.1
 73
     0
 77
     1
 78
     8
 79
     2
140
3.5
141
0.0
143
0.0393701
146
0.71
147
1.5
173
     1
176
   256
177
   256
178
     2
271
     2
272
     2
283
     0
284
     8
288
     1
340
11
344
A66
371
    -1
372
    -1
1001
ACAD_DSTYLE_DIMJOGGED_JOGANGLE_SYMBOL
1070
   384
1040
0.7853981633974483
1001
ACAD_DSTYLE_DIMARC_LENGTH_SYMBOL
1070
   379
1070
     1
  0
DIMSTYLE
105
2518
330
A
100
AcDbSymbolTableRecord
100
AcDbDimStyleTableRecord
  2
SYS$6
 70
     0
  4
"
 41
2.0
 42
1.0
 43
10.0
 44
1.0
 47
0.1
 48
0.1
 73
     0
 74
     0
 78
     8
 79
     2
140
3.5
141
0.0
143
0.0393701
146
0.71
147
1.5
172
     1
176
   256
177
   256
178
     2
271
     2
272
     2
283
     0
284
     8
340
11
341
A66
371
    -1
372
    -1
1001
ACAD_DSTYLE_DIMJOGGED_JOGANGLE_SYMBOL
1070
   384
1040
0.7853981633974483
1001
ACAD_DSTYLE_DIMARC_LENGTH_SYMBOL
1070
   379
1070
     1
  0
DIMSTYLE
105
2519
330
A
100
AcDbSymbolTableRecord
100
AcDbDimStyleTableRecord
  2
SYS$7
 70
     0
  4
"
 41
2.0
 42
1.0
 43
10.0
 44
1.0
 47
0.1
 48
0.1
 73
     0
 74
     0
 77
     1
 78
     8
 79
     2
140
5.0
141
0.0
143
0.0393701
146
0.71
147
1.5
172
     1
176
   256
177
   256
178
     2
271
     2
272
     2
283
     0
284
     8
340
11
341
A66
342
A66
371
    -1
372
    -1
1001
ACAD_DSTYLE_DIMJOGGED_JOGANGLE_SYMBOL
1070
   384
1040
0.7853981633974483
1001
ACAD_DSTYLE_DIMARC_LENGTH_SYMBOL
1070
   379
1070
     1
  0
DIMSTYLE
105
251A
330
A
100
AcDbSymbolTableRecord
100
AcDbDimStyleTableRecord
  2
SYS$SF
 70
     0
  4
"
 41
2.5
 42
1.0
 43
10.0
 44
1.0
 47
0.1
 48
0.1
 73
     0
 74
     0
 75
     1
 76
     1
 77
     1
 78
     8
 79
     2
140
3.5
141
0.0
143
0.0393701
146
0.71
147
1.5
172
     1
176
   256
177
   256
178
     2
271
     2
272
     3
283
     0
284
     8
340
11
341
6C4
342
6C4
371
    -1
372
    -1
1001
ACAD_DSTYLE_DIMJOGGED_JOGANGLE_SYMBOL
1070
   384
1040
0.7853981633974483
1001
ACAD_DSTYLE_DIMARC_LENGTH_SYMBOL
1070
   379
1070
     1
  0
DIMSTYLE
105
251B
330
A
100
AcDbSymbolTableRecord
100
AcDbDimStyleTableRecord
  2
SYS$SH
 70
     0
  4
"
 41
2.5
 42
1.0
 43
10.0
 44
1.0
 47
0.1
 48
0.1
 73
     0
 74
     0
 75
     1
 76
     1
 77
     1
 78
     8
 79
     2
140
3.5
141
0.0
143
0.0393701
144
2.0
146
0.71
147
1.5
172
     1
173
     1
176
   256
177
   256
178
     2
271
     2
272
     3
283
     0
284
     8
340
11
341
6C4
343
72
344
6C4
371
    -1
372
    -1
1001
ACAD_DSTYLE_DIMJOGGED_JOGANGLE_SYMBOL
1070
   384
1040
0.7853981633974483
1001
ACAD_DSTYLE_DIMARC_LENGTH_SYMBOL
1070
   379
1070
     1
  0
DIMSTYLE
105
2A59
330
A
100
AcDbSymbolTableRecord
100
AcDbDimStyleTableRecord
  2
SYS$2
 70
     0
  4
"
 41
1.0
 42
1.0
 43
10.0
 44
1.0
 47
0.1
 48
0.1
 73
     0
 74
     0
 77
     1
 78
     8
 79
     2
140
3.5
141
0.0
143
0.0393701
146
0.71
147
1.5
172
     1
176
   256
177
   256
178
     2
271
     2
272
     2
283
     0
284
     8
340
11
342
6C4
371
    -1
372
    -1
1001
ACAD_DSTYLE_DIMJOGGED_JOGANGLE_SYMBOL
1070
   384
1040
0.7853981633974483
1001
ACAD_DSTYLE_DIMARC_LENGTH_SYMBOL
1070
   379
1070
     1
  0
DIMSTYLE
105
2AAB
102
{ACAD_REACTORS
330
B7F9
330
B7FA
330
B7FB
330
B7FC
330
B7FD
330
B7FE
330
B7FF
330
B800
330
B801
330
B840
330
B849
102
}
330
A
100
AcDbSymbolTableRecord
100
AcDbDimStyleTableRecord
  2
SYS$0
 70
     0
  4
"
 41
1.0
 42
1.0
 43
10.0
 44
1.0
 47
0.1
 48
0.1
 73
     0
 74
     0
 77
     1
 78
     8
 79
     2
140
3.200000000000001
141
0.0
143
0.0393701
146
0.71
147
1.5
172
     1
176
   256
177
   256
178
     2
271
     2
272
     2
283
     0
284
     8
340
11
341
A66
342
6C4
371
    -1
372
    -1
1001
ACAD_DSTYLE_DIMJOGGED_JOGANGLE_SYMBOL
1070
   384
1040
0.7853981633974483
1001
ACAD_DSTYLE_DIMARC_LENGTH_SYMBOL
1070
   379
1070
     1
  0
DIMSTYLE
105
AF99
330
A
100
AcDbSymbolTableRecord
100
AcDbDimStyleTableRecord
  2
AM_ISO
 70
     0
  4
"
 41
2.5
 42
1.0
 43
10.0
 44
1.0
 47
0.1
 48
0.1
 73
     0
 74
     0
 77
     1
 78
     8
 79
     2
140
3.5
141
0.0
143
0.0393701
146
0.71
147
1.5
172
     1
176
   256
177
   256
178
     2
271
     2
272
     3
274
     4
283
     0
284
     8
340
11
371
    -1
372
    -1
  0
DIMSTYLE
105
AF9A
330
A
100
AcDbSymbolTableRecord
100
AcDbDimStyleTableRecord
  2
AM_ISO$3
 70
     0
  4
"
 41
2.5
 42
1.0
 43
10.0
 44
1.0
 47
0.1
 48
0.1
 73
     0
 77
     1
 78
     8
 79
     2
140
3.5
141
0.0
143
0.0393701
146
0.71
147
1.5
176
   256
177
   256
178
     2
271
     2
272
     3
274
     4
283
     0
284
     8
288
     1
289
     0
340
11
371
    -1
372
    -1
  0
DIMSTYLE
105
AF9B
330
A
100
AcDbSymbolTableRecord
100
AcDbDimStyleTableRecord
  2
AM_ISO$4
 70
     0
  4
"
 41
2.5
 42
1.0
 43
10.0
 44
1.0
 47
0.1
 48
0.1
 73
     0
 77
     1
 78
     8
 79
     2
140
3.5
141
0.0
143
0.0393701
146
0.71
147
1.5
176
   256
177
   256
178
     2
271
     2
272
     3
274
     4
283
     0
284
     8
288
     1
289
     0
340
11
371
    -1
372
    -1
  0
DIMSTYLE
105
AF9C
330
A
100
AcDbSymbolTableRecord
100
AcDbDimStyleTableRecord
  2
AM_ISO$6
 70
     0
  4
"
 41
2.5
 42
1.0
 43
10.0
 44
1.0
 47
0.1
 48
0.1
 73
     0
 74
     0
 78
     8
 79
     2
140
3.5
141
0.0
143
0.0393701
146
0.71
147
1.5
172
     1
176
   256
177
   256
178
     2
271
     2
272
     3
274
     4
283
     0
284
     8
340
11
371
    -1
372
    -1
  0
DIMSTYLE
105
AF9D
330
A
100
AcDbSymbolTableRecord
100
AcDbDimStyleTableRecord
  2
AM_ISO$7
 70
     0
  4
"
 41
2.5
 42
1.0
 43
10.0
 44
1.0
 47
0.1
 48
0.1
 73
     0
 74
     0
 77
     1
 78
     8
 79
     2
140
5.0
141
0.0
143
0.0393701
146
0.71
147
1.5
172
     1
176
   256
177
   256
178
     2
271
     2
272
     3
274
     4
283
     0
284
     8
340
11
371
    -1
372
    -1
  0
DIMSTYLE
105
AF9E
330
A
100
AcDbSymbolTableRecord
100
AcDbDimStyleTableRecord
  2
AM_ISO$SF
 70
     0
  4
"
 41
2.5
 42
1.0
 43
10.0
 44
1.0
 47
0.1
 48
0.1
 73
     0
 74
     0
 75
     1
 76
     1
 77
     1
 78
     8
 79
     2
140
3.5
141
0.0
143
0.0393701
146
0.71
147
1.5
172
     1
176
   256
177
   256
178
     2
271
     2
272
     3
274
     4
283
     0
284
     8
340
11
371
    -1
372
    -1
  0
DIMSTYLE
105
AF9F
330
A
100
AcDbSymbolTableRecord
100
AcDbDimStyleTableRecord
  2
AM_ISO$SH
 70
     0
  4
"
 41
2.5
 42
1.0
 43
10.0
 44
1.0
 47
0.1
 48
0.1
 73
     0
 74
     0
 75
     1
 76
     1
 77
     1
 78
     8
 79
     2
140
3.5
141
0.0
143
0.0393701
144
2.0
146
0.71
147
1.5
172
     1
173
     1
176
   256
177
   256
178
     2
271
     2
272
     3
274
     4
283
     0
284
     8
340
11
343
72
371
    -1
372
    -1
  0
DIMSTYLE
105
B5DC
330
A
100
AcDbSymbolTableRecord
100
AcDbDimStyleTableRecord
  2
AM_ISO$0
 70
     0
  4
"
 41
0.8
 42
1.0
 43
10.0
 44
1.0
 47
0.1
 48
0.1
 73
     0
 74
     0
 77
     1
 78
     8
 79
     2
140
3.2
141
0.0
143
0.0393701
146
0.71
147
0.9999999999999996
172
     1
176
   256
177
   256
178
     2
271
     2
272
     2
283
     0
284
     8
340
11
341
6C4
342
6C4
371
    -1
372
    -1
  0
DIMSTYLE
105
B5DD
330
A
100
AcDbSymbolTableRecord
100
AcDbDimStyleTableRecord
  2
AM_ISO$2
 70
     0
  4
"
 41
0.8
 42
1.0
 43
10.0
 44
1.0
 47
0.1
 48
0.1
 73
     0
 74
     0
 77
     3
 78
     8
 79
     2
140
3.200000000000001
141
0.0
143
0.0393701
146
0.71
147
0.9999999999999996
172
     1
176
   256
177
   256
178
     2
271
     2
272
     2
283
     0
284
     8
340
11
342
6C4
371
    -1
372
    -1
  0
ENDTAB
  0
TABLE
  2
BLOCK_RECORD
  5
1
330
0
100
AcDbSymbolTable
 70
    28
  0
BLOCK_RECORD
  5
1F
102
{ACAD_XDICTIONARY
360
8A
102
}
330
1
100
AcDbSymbolTableRecord
100
AcDbBlockTableRecord
  2
*Model_Space
340
22
  0
BLOCK_RECORD
  5
1B
330
1
100
AcDbSymbolTableRecord
100
AcDbBlockTableRecord
  2
*Paper_Space
340
1E
  0
BLOCK_RECORD
  5
23
330
1
100
AcDbSymbolTableRecord
100
AcDbBlockTableRecord
  2
*Paper_Space0
340
26
  0
BLOCK_RECORD
  5
72
330
1
100
AcDbSymbolTableRecord
100
AcDbBlockTableRecord
  2
GENAXEH
340
0
  0
BLOCK_RECORD
  5
6C4
330
1
100
AcDbSymbolTableRecord
100
AcDbBlockTableRecord
  2
_Dot
340
0
102
{BLKREFS
331
B549
331
B54A
331
B557
331
B558
331
B563
331
B564
331
B571
331
B572
331
B57F
331
B580
331
B58B
331
B58C
331
B597
331
B598
331
B5A3
331
B5A4
331
B5AF
331
B5B0
331
B5BB
331
B5BC
331
B5C7
331
B5C8
331
B992
331
B993
331
B99D
331
B99E
331
B9A6
331
B9A7
331
B9B1
331
B9B2
331
B9BC
331
B9BD
331
B9C5
331
B9C6
331
B9CE
331
B9CF
331
B9D7
331
B9D8
331
B9E0
331
B9E1
331
B9E9
331
B9EA
331
B9F2
331
B9F3
102
}
  0
BLOCK_RECORD
  5
A66
330
1
100
AcDbSymbolTableRecord
100
AcDbBlockTableRecord
  2
_OPEN30
340
0
  0
BLOCK_RECORD
  5
B542
330
1
100
AcDbSymbolTableRecord
100
AcDbBlockTableRecord
  2
*D5
340
0
  0
BLOCK_RECORD
  5
B550
330
1
100
AcDbSymbolTableRecord
100
AcDbBlockTableRecord
  2
*D6
340
0
  0
BLOCK_RECORD
  5
B55E
330
1
100
AcDbSymbolTableRecord
100
AcDbBlockTableRecord
  2
*D7
340
0
  0
BLOCK_RECORD
  5
B56A
330
1
100
AcDbSymbolTableRecord
100
AcDbBlockTableRecord
  2
*D8
340
0
  0
BLOCK_RECORD
  5
B578
330
1
100
AcDbSymbolTableRecord
100
AcDbBlockTableRecord
  2
*D9
340
0
  0
BLOCK_RECORD
  5
B586
330
1
100
AcDbSymbolTableRecord
100
AcDbBlockTableRecord
  2
*D10
340
0
  0
BLOCK_RECORD
  5
B592
330
1
100
AcDbSymbolTableRecord
100
AcDbBlockTableRecord
  2
*D11
340
0
  0
BLOCK_RECORD
  5
B59E
330
1
100
AcDbSymbolTableRecord
100
AcDbBlockTableRecord
  2
*D12
340
0
  0
BLOCK_RECORD
  5
B5AA
330
1
100
AcDbSymbolTableRecord
100
AcDbBlockTableRecord
  2
*D13
340
0
  0
BLOCK_RECORD
  5
B5B6
330
1
100
AcDbSymbolTableRecord
100
AcDbBlockTableRecord
  2
*D14
340
0
  0
BLOCK_RECORD
  5
B5C2
330
1
100
AcDbSymbolTableRecord
100
AcDbBlockTableRecord
  2
*D15
340
0
  0
BLOCK_RECORD
  5
B901
330
1
100
AcDbSymbolTableRecord
100
AcDbBlockTableRecord
  2
*D17
340
0
  0
BLOCK_RECORD
  5
B90F
330
1
100
AcDbSymbolTableRecord
100
AcDbBlockTableRecord
  2
*D18
340
0
  0
BLOCK_RECORD
  5
B91D
330
1
100
AcDbSymbolTableRecord
100
AcDbBlockTableRecord
  2
*D19
340
0
  0
BLOCK_RECORD
  5
B929
330
1
100
AcDbSymbolTableRecord
100
AcDbBlockTableRecord
  2
*D20
340
0
  0
BLOCK_RECORD
  5
B937
330
1
100
AcDbSymbolTableRecord
100
AcDbBlockTableRecord
  2
*D21
340
0
  0
BLOCK_RECORD
  5
B945
330
1
100
AcDbSymbolTableRecord
100
AcDbBlockTableRecord
  2
*D22
340
0
  0
BLOCK_RECORD
  5
B951
330
1
100
AcDbSymbolTableRecord
100
AcDbBlockTableRecord
  2
*D23
340
0
  0
BLOCK_RECORD
  5
B95D
330
1
100
AcDbSymbolTableRecord
100
AcDbBlockTableRecord
  2
*D24
340
0
  0
BLOCK_RECORD
  5
B969
330
1
100
AcDbSymbolTableRecord
100
AcDbBlockTableRecord
  2
*D25
340
0
  0
BLOCK_RECORD
  5
B975
330
1
100
AcDbSymbolTableRecord
100
AcDbBlockTableRecord
  2
*D26
340
0
  0
BLOCK_RECORD
  5
B981
330
1
100
AcDbSymbolTableRecord
100
AcDbBlockTableRecord
  2
*D27
340
0
  0
ENDTAB
  0
ENDSEC
  0
SECTION
  2
BLOCKS
  0
BLOCK
  5
20
330
1F
100
AcDbEntity
  8
0
100
AcDbBlockBegin
  2
*Model_Space
 70
     0
 10
0.0
 20
0.0
 30
0.0
  3
*Model_Space
  1

  0
ENDBLK
  5
21
330
1F
100
AcDbEntity
  8
0
100
AcDbBlockEnd
  0
BLOCK
  5
1C
330
1B
100
AcDbEntity
 67
     1
  8
0
100
AcDbBlockBegin
  2
*Paper_Space
 70
     0
 10
0.0
 20
0.0
 30
0.0
  3
*Paper_Space
  1

  0
ENDBLK
  5
1D
330
1B
100
AcDbEntity
 67
     1
  8
0
100
AcDbBlockEnd
  0
BLOCK
  5
24
330
23
100
AcDbEntity
 67
     1
  8
0
100
AcDbBlockBegin
  2
*Paper_Space0
 70
     0
 10
0.0
 20
0.0
 30
0.0
  3
*Paper_Space0
  1

  0
ENDBLK
  5
25
330
23
100
AcDbEntity
 67
     1
  8
0
100
AcDbBlockEnd
  0
BLOCK
  5
74
330
72
100
AcDbEntity
  8
0
100
AcDbBlockBegin
  2
GENAXEH
 70
     0
 10
0.0
 20
0.0
 30
0.0
  3
GENAXEH
  1

  0
LINE
  5
73
330
72
100
AcDbEntity
  8
0
100
AcDbLine
 10
-1.0
 20
0.0
 30
0.0
 11
1.0
 21
0.0
 31
0.0
  0
ENDBLK
  5
75
330
72
100
AcDbEntity
  8
0
100
AcDbBlockEnd
  0
BLOCK
  5
6C7
330
6C4
100
AcDbEntity
  8
0
100
AcDbBlockBegin
  2
_Dot
 70
     0
 10
0.0
 20
0.0
 30
0.0
  3
_Dot
  1

  0
LWPOLYLINE
  5
6C5
330
6C4
100
AcDbEntity
  8
0
  6
ByBlock
 62
     0
100
AcDbPolyline
 90
        2
 70
     1
 43
0.5
 10
-0.25
 20
0.0
 42
1.0
 10
0.25
 20
0.0
 42
1.0
  0
LINE
  5
6C6
330
6C4
100
AcDbEntity
  8
0
  6
ByBlock
 62
     0
370
    -2
100
AcDbLine
 10
-0.5
 20
0.0
 30
0.0
 11
-1.0
 21
0.0
 31
0.0
  0
ENDBLK
  5
6C8
330
6C4
100
AcDbEntity
  8
0
100
AcDbBlockEnd
  0
BLOCK
  5
A6A
330
A66
100
AcDbEntity
  8
0
100
AcDbBlockBegin
  2
_OPEN30
 70
     0
 10
0.0
 20
0.0
 30
0.0
  3
_OPEN30
  1

  0
LINE
  5
A67
330
A66
100
AcDbEntity
  8
0
  6
ByBlock
 62
     0
100
AcDbLine
 10
-1.0
 20
0.26794919
 30
0.0
 11
0.0
 21
0.0
 31
0.0
  0
LINE
  5
A68
330
A66
100
AcDbEntity
  8
0
  6
ByBlock
 62
     0
100
AcDbLine
 10
0.0
 20
0.0
 30
0.0
 11
-1.0
 21
-0.26794919
 31
0.0
  0
LINE
  5
A69
330
A66
100
AcDbEntity
  8
0
  6
ByBlock
 62
     0
100
AcDbLine
 10
0.0
 20
0.0
 30
0.0
 11
-1.0
 21
0.0
 31
0.0
  0
ENDBLK
  5
A6B
330
A66
100
AcDbEntity
  8
0
100
AcDbBlockEnd
  0
BLOCK
  5
B543
330
B542
100
AcDbEntity
  8
0
100
AcDbBlockBegin
  2
*D5
 70
     1
 10
0.0
 20
0.0
 30
0.0
  3
*D5
  1

  0
LINE
  5
B544
330
B542
100
AcDbEntity
  8
AM_5
100
AcDbLine
 10
1957.823701541917
 20
1312.189384114043
 30
0.0
 11
1957.823701541917
 21
755.9633426849922
 31
0.0
  0
LINE
  5
B545
330
B542
100
AcDbEntity
  8
AM_5
100
AcDbLine
 10
1953.023701541918
 20
1312.189384114043
 30
0.0
 11
1953.023701541918
 21
755.9633426849922
 31
0.0
  0
LINE
  5
B546
330
B542
100
AcDbEntity
  8
AM_5
100
AcDbLine
 10
1967.823701541917
 20
765.9633426849921
 30
0.0
 11
1977.823701541917
 21
765.9633426849921
 31
0.0
  0
LINE
  5
B547
330
B542
100
AcDbEntity
  8
AM_5
100
AcDbLine
 10
1943.023701541918
 20
765.9633426849921
 30
0.0
 11
1652.356837850749
 21
765.9633426849921
 31
0.0
  0
LINE
  5
B548
330
B542
100
AcDbEntity
  8
AM_5
100
AcDbLine
 10
1957.823701541917
 20
765.9633426849921
 30
0.0
 11
1953.023701541918
 21
765.9633426849921
 31
0.0
  0
INSERT
  5
B549
330
B542
100
AcDbEntity
  8
AM_5
100
AcDbBlockReference
  2
_Dot
 10
1957.823701541917
 20
765.9633426849921
 30
0.0
 41
10.0
 42
10.0
 43
10.0
 50
180.0
  0
INSERT
  5
B54A
330
B542
100
AcDbEntity
  8
AM_5
100
AcDbBlockReference
  2
_Dot
 10
1953.023701541918
 20
765.9633426849921
 30
0.0
 41
10.0
 42
10.0
 43
10.0
  0
MTEXT
  5
B54B
330
B542
100
AcDbEntity
  8
AM_5
 62
     2
100
AcDbMText
 10
1773.063504517415
 20
796.9633426849922
 30
0.0
 40
32.00000000000001
 41
0.0
 71
     5
 72
     1
  1
取付部板厚：4.8
 73
     1
 44
1.0
1001
ACAD
1000
MTEXTBEGIN
1070
    73
1070
     1
1070
    44
1040
1.0
1070
    74
1070
     0
1000
MTEXTEND
  0
POINT
  5
B54C
330
B542
100
AcDbEntity
  8
Defpoints
 62
     0
100
AcDbPoint
 10
1957.823701541917
 20
1322.189384114043
 30
0.0
  0
POINT
  5
B54D
330
B542
100
AcDbEntity
  8
Defpoints
 62
     0
100
AcDbPoint
 10
1953.023701541918
 20
1322.189384114043
 30
0.0
  0
POINT
  5
B54E
330
B542
100
AcDbEntity
  8
Defpoints
 62
     0
100
AcDbPoint
 10
1953.023701541918
 20
765.9633426849921
 30
0.0
  0
ENDBLK
  5
B54F
330
B542
100
AcDbEntity
  8
0
100
AcDbBlockEnd
  0
BLOCK
  5
B551
330
B550
100
AcDbEntity
  8
0
100
AcDbBlockBegin
  2
*D6
 70
     1
 10
0.0
 20
0.0
 30
0.0
  3
*D6
  1

  0
LINE
  5
B552
330
B550
100
AcDbEntity
  8
AM_5
100
AcDbLine
 10
1976.002401650573
 20
1716.73480346663
 30
0.0
 11
1976.002401650573
 21
1879.189383994833
 31
0.0
  0
LINE
  5
B553
330
B550
100
AcDbEntity
  8
AM_5
100
AcDbLine
 10
1953.023701541914
 20
1759.189383994833
 30
0.0
 11
1953.023701541914
 21
1879.189383994833
 31
0.0
  0
LINE
  5
B554
330
B550
100
AcDbEntity
  8
AM_5
100
AcDbLine
 10
1986.002401650574
 20
1869.189383994833
 30
0.0
 11
1996.002401650574
 21
1869.189383994833
 31
0.0
  0
LINE
  5
B555
330
B550
100
AcDbEntity
  8
AM_5
100
AcDbLine
 10
1943.023701541914
 20
1869.189383994833
 30
0.0
 11
1866.757034875247
 21
1869.189383994833
 31
0.0
  0
LINE
  5
B556
330
B550
100
AcDbEntity
  8
AM_5
100
AcDbLine
 10
1976.002401650573
 20
1869.189383994833
 30
0.0
 11
1953.023701541914
 21
1869.189383994833
 31
0.0
  0
INSERT
  5
B557
330
B550
100
AcDbEntity
  8
AM_5
100
AcDbBlockReference
  2
_Dot
 10
1976.002401650573
 20
1869.189383994833
 30
0.0
 41
10.0
 42
10.0
 43
10.0
 50
180.0
  0
INSERT
  5
B558
330
B550
100
AcDbEntity
  8
AM_5
100
AcDbBlockReference
  2
_Dot
 10
1953.023701541914
 20
1869.189383994833
 30
0.0
 41
10.0
 42
10.0
 43
10.0
  0
MTEXT
  5
B559
330
B550
100
AcDbEntity
  8
AM_5
 62
     2
100
AcDbMText
 10
1899.890368208581
 20
1900.189383994833
 30
0.0
 40
32.00000000000001
 41
0.0
 71
     5
 72
     1
  1
23
 73
     1
 44
1.0
1001
ACAD
1000
MTEXTBEGIN
1070
    73
1070
     1
1070
    44
1040
1.0
1070
    74
1070
     0
1000
MTEXTEND
  0
POINT
  5
B55A
330
B550
100
AcDbEntity
  8
Defpoints
 62
     0
100
AcDbPoint
 10
1976.002401650573
 20
1706.73480346663
 30
0.0
  0
POINT
  5
B55B
330
B550
100
AcDbEntity
  8
Defpoints
 62
     0
100
AcDbPoint
 10
1953.023701541914
 20
1749.189383994833
 30
0.0
  0
POINT
  5
B55C
330
B550
100
AcDbEntity
  8
Defpoints
 62
     0
100
AcDbPoint
 10
1953.023701541914
 20
1869.189383994833
 30
0.0
  0
ENDBLK
  5
B55D
330
B550
100
AcDbEntity
  8
0
100
AcDbBlockEnd
  0
BLOCK
  5
B55F
330
B55E
100
AcDbEntity
  8
0
100
AcDbBlockBegin
  2
*D7
 70
     1
 10
0.0
 20
0.0
 30
0.0
  3
*D7
  1

  0
LINE
  5
B560
330
B55E
100
AcDbEntity
  8
AM_5
100
AcDbLine
 10
1903.422917638717
 20
1573.189383994835
 30
0.0
 11
1783.422917638717
 21
1573.189383994835
 31
0.0
  0
LINE
  5
B561
330
B55E
100
AcDbEntity
  8
AM_5
100
AcDbLine
 10
1903.422917638717
 20
1343.189383994837
 30
0.0
 11
1783.422917638717
 21
1343.189383994837
 31
0.0
  0
LINE
  5
B562
330
B55E
100
AcDbEntity
  8
AM_5
100
AcDbLine
 10
1793.422917638717
 20
1563.189383994835
 30
0.0
 11
1793.422917638717
 21
1353.189383994837
 31
0.0
  0
INSERT
  5
B563
330
B55E
100
AcDbEntity
  8
AM_5
100
AcDbBlockReference
  2
_Dot
 10
1793.422917638717
 20
1573.189383994835
 30
0.0
 41
10.0
 42
10.0
 43
10.0
 50
90.0
  0
INSERT
  5
B564
330
B55E
100
AcDbEntity
  8
AM_5
100
AcDbBlockReference
  2
_Dot
 10
1793.422917638717
 20
1343.189383994837
 30
0.0
 41
10.0
 42
10.0
 43
10.0
 50
270.0
  0
MTEXT
  5
B565
330
B55E
100
AcDbEntity
  8
AM_5
 62
     2
100
AcDbMText
 10
1762.422917638717
 20
1458.189383994836
 30
0.0
 40
32.00000000000001
 41
0.0
 71
     5
 72
     1
  1
230
 11
0.0000000000000001
 21
1.0
 31
0.0
 73
     1
 44
1.0
1001
ACAD
1000
MTEXTBEGIN
1070
    73
1070
     1
1070
    44
1040
1.0
1070
    74
1070
     0
1000
MTEXTEND
  0
POINT
  5
B566
330
B55E
100
AcDbEntity
  8
Defpoints
 62
     0
100
AcDbPoint
 10
1913.422917638717
 20
1573.189383994835
 30
0.0
  0
POINT
  5
B567
330
B55E
100
AcDbEntity
  8
Defpoints
 62
     0
100
AcDbPoint
 10
1913.422917638717
 20
1343.189383994837
 30
0.0
  0
POINT
  5
B568
330
B55E
100
AcDbEntity
  8
Defpoints
 62
     0
100
AcDbPoint
 10
1793.422917638717
 20
1343.189383994837
 30
0.0
  0
ENDBLK
  5
B569
330
B55E
100
AcDbEntity
  8
0
100
AcDbBlockEnd
  0
BLOCK
  5
B56B
330
B56A
100
AcDbEntity
  8
0
100
AcDbBlockBegin
  2
*D8
 70
     1
 10
0.0
 20
0.0
 30
0.0
  3
*D8
  1

  0
LINE
  5
B56C
330
B56A
100
AcDbEntity
  8
AM_5
100
AcDbLine
 10
1903.422917638717
 20
1573.189383994835
 30
0.0
 11
1783.422917638717
 21
1573.189383994835
 31
0.0
  0
LINE
  5
B56D
330
B56A
100
AcDbEntity
  8
AM_5
100
AcDbLine
 10
1963.570376270307
 20
1599.189379226462
 30
0.0
 11
1783.422917638717
 21
1599.189379226462
 31
0.0
  0
LINE
  5
B56E
330
B56A
100
AcDbEntity
  8
AM_5
100
AcDbLine
 10
1793.422917638717
 20
1563.189383994835
 30
0.0
 11
1793.422917638717
 21
1553.189383994835
 31
0.0
  0
LINE
  5
B56F
330
B56A
100
AcDbEntity
  8
AM_5
100
AcDbLine
 10
1793.422917638717
 20
1609.189379226461
 30
0.0
 11
1793.422917638717
 21
1766.20757879184
 31
0.0
  0
LINE
  5
B570
330
B56A
100
AcDbEntity
  8
AM_5
100
AcDbLine
 10
1793.422917638717
 20
1573.189383994835
 30
0.0
 11
1793.422917638717
 21
1599.189379226462
 31
0.0
  0
INSERT
  5
B571
330
B56A
100
AcDbEntity
  8
AM_5
100
AcDbBlockReference
  2
_Dot
 10
1793.422917638717
 20
1573.189383994835
 30
0.0
 41
10.0
 42
10.0
 43
10.0
 50
90.0
  0
INSERT
  5
B572
330
B56A
100
AcDbEntity
  8
AM_5
100
AcDbBlockReference
  2
_Dot
 10
1793.422917638717
 20
1599.189379226462
 30
0.0
 41
10.0
 42
10.0
 43
10.0
 50
270.0
  0
MTEXT
  5
B573
330
B56A
100
AcDbEntity
  8
AM_5
 62
     2
100
AcDbMText
 10
1762.422917638717
 20
1733.074245458507
 30
0.0
 40
32.00000000000001
 41
0.0
 71
     5
 72
     1
  1
26
 11
0.0000000000000001
 21
1.0
 31
0.0
 73
     1
 44
1.0
1001
ACAD
1000
MTEXTBEGIN
1070
    73
1070
     1
1070
    44
1040
1.0
1070
    74
1070
     0
1000
MTEXTEND
  0
POINT
  5
B574
330
B56A
100
AcDbEntity
  8
Defpoints
 62
     0
100
AcDbPoint
 10
1913.422917638717
 20
1573.189383994835
 30
0.0
  0
POINT
  5
B575
330
B56A
100
AcDbEntity
  8
Defpoints
 62
     0
100
AcDbPoint
 10
1973.570376270307
 20
1599.189379226462
 30
0.0
  0
POINT
  5
B576
330
B56A
100
AcDbEntity
  8
Defpoints
 62
     0
100
AcDbPoint
 10
1793.422917638717
 20
1599.189379226462
 30
0.0
  0
ENDBLK
  5
B577
330
B56A
100
AcDbEntity
  8
0
100
AcDbBlockEnd
  0
BLOCK
  5
B579
330
B578
100
AcDbEntity
  8
0
100
AcDbBlockBegin
  2
*D9
 70
     1
 10
0.0
 20
0.0
 30
0.0
  3
*D9
  1

  0
LINE
  5
B57A
330
B578
100
AcDbEntity
  8
AM_5
100
AcDbLine
 10
1903.422917638717
 20
1343.189383994837
 30
0.0
 11
1783.422917638717
 21
1343.189383994837
 31
0.0
  0
LINE
  5
B57B
330
B578
100
AcDbEntity
  8
AM_5
100
AcDbLine
 10
1963.570376270301
 20
1317.189388882412
 30
0.0
 11
1783.422917638717
 21
1317.189388882412
 31
0.0
  0
LINE
  5
B57C
330
B578
100
AcDbEntity
  8
AM_5
100
AcDbLine
 10
1793.422917638717
 20
1353.189383994837
 30
0.0
 11
1793.422917638717
 21
1363.189383994837
 31
0.0
  0
LINE
  5
B57D
330
B578
100
AcDbEntity
  8
AM_5
100
AcDbLine
 10
1793.422917638717
 20
1307.189388882412
 30
0.0
 11
1793.422917638717
 21
1230.922722215746
 31
0.0
  0
LINE
  5
B57E
330
B578
100
AcDbEntity
  8
AM_5
100
AcDbLine
 10
1793.422917638717
 20
1343.189383994837
 30
0.0
 11
1793.422917638717
 21
1317.189388882412
 31
0.0
  0
INSERT
  5
B57F
330
B578
100
AcDbEntity
  8
AM_5
100
AcDbBlockReference
  2
_Dot
 10
1793.422917638717
 20
1343.189383994837
 30
0.0
 41
10.0
 42
10.0
 43
10.0
 50
270.0
  0
INSERT
  5
B580
330
B578
100
AcDbEntity
  8
AM_5
100
AcDbBlockReference
  2
_Dot
 10
1793.422917638717
 20
1317.189388882412
 30
0.0
 41
10.0
 42
10.0
 43
10.0
 50
90.0
  0
MTEXT
  5
B581
330
B578
100
AcDbEntity
  8
AM_5
 62
     2
100
AcDbMText
 10
1762.422917638717
 20
1264.056055549079
 30
0.0
 40
32.00000000000001
 41
0.0
 71
     5
 72
     1
  1
26
 11
0.0000000000000001
 21
1.0
 31
0.0
 73
     1
 44
1.0
1001
ACAD
1000
MTEXTBEGIN
1070
    73
1070
     1
1070
    44
1040
1.0
1070
    74
1070
     0
1000
MTEXTEND
  0
POINT
  5
B582
330
B578
100
AcDbEntity
  8
Defpoints
 62
     0
100
AcDbPoint
 10
1913.422917638717
 20
1343.189383994837
 30
0.0
  0
POINT
  5
B583
330
B578
100
AcDbEntity
  8
Defpoints
 62
     0
100
AcDbPoint
 10
1973.5703762703
 20
1317.189388882412
 30
0.0
  0
POINT
  5
B584
330
B578
100
AcDbEntity
  8
Defpoints
 62
     0
100
AcDbPoint
 10
1793.422917638717
 20
1317.189388882412
 30
0.0
  0
ENDBLK
  5
B585
330
B578
100
AcDbEntity
  8
0
100
AcDbBlockEnd
  0
BLOCK
  5
B587
330
B586
100
AcDbEntity
  8
0
100
AcDbBlockBegin
  2
*D10
 70
     1
 10
0.0
 20
0.0
 30
0.0
  3
*D10
  1

  0
LINE
  5
B588
330
B586
100
AcDbEntity
  8
AM_5
100
AcDbLine
 10
1963.570376270307
 20
1599.189379226462
 30
0.0
 11
1683.422917638717
 21
1599.189379226462
 31
0.0
  0
LINE
  5
B589
330
B586
100
AcDbEntity
  8
AM_5
100
AcDbLine
 10
1963.570376270307
 20
1317.189388882396
 30
0.0
 11
1683.422917638717
 21
1317.189388882396
 31
0.0
  0
LINE
  5
B58A
330
B586
100
AcDbEntity
  8
AM_5
100
AcDbLine
 10
1693.422917638717
 20
1589.189379226462
 30
0.0
 11
1693.422917638717
 21
1327.189388882396
 31
0.0
  0
INSERT
  5
B58B
330
B586
100
AcDbEntity
  8
AM_5
100
AcDbBlockReference
  2
_Dot
 10
1693.422917638717
 20
1599.189379226462
 30
0.0
 41
10.0
 42
10.0
 43
10.0
 50
90.0
  0
INSERT
  5
B58C
330
B586
100
AcDbEntity
  8
AM_5
100
AcDbBlockReference
  2
_Dot
 10
1693.422917638717
 20
1317.189388882396
 30
0.0
 41
10.0
 42
10.0
 43
10.0
 50
270.0
  0
MTEXT
  5
B58D
330
B586
100
AcDbEntity
  8
AM_5
 62
     2
100
AcDbMText
 10
1662.422917638717
 20
1458.189384054429
 30
0.0
 40
32.00000000000001
 41
0.0
 71
     5
 72
     1
  1
282
 11
0.0000000000000001
 21
1.0
 31
0.0
 73
     1
 44
1.0
1001
ACAD
1000
MTEXTBEGIN
1070
    73
1070
     1
1070
    44
1040
1.0
1070
    74
1070
     0
1000
MTEXTEND
  0
POINT
  5
B58E
330
B586
100
AcDbEntity
  8
Defpoints
 62
     0
100
AcDbPoint
 10
1973.570376270307
 20
1599.189379226462
 30
0.0
  0
POINT
  5
B58F
330
B586
100
AcDbEntity
  8
Defpoints
 62
     0
100
AcDbPoint
 10
1973.570376270307
 20
1317.189388882396
 30
0.0
  0
POINT
  5
B590
330
B586
100
AcDbEntity
  8
Defpoints
 62
     0
100
AcDbPoint
 10
1693.422917638717
 20
1317.189388882396
 30
0.0
  0
ENDBLK
  5
B591
330
B586
100
AcDbEntity
  8
0
100
AcDbBlockEnd
  0
BLOCK
  5
B593
330
B592
100
AcDbEntity
  8
0
100
AcDbBlockBegin
  2
*D11
 70
     1
 10
0.0
 20
0.0
 30
0.0
  3
*D11
  1

  0
LINE
  5
B594
330
B592
100
AcDbEntity
  8
AM_5
100
AcDbLine
 10
1963.570376270301
 20
1317.189388882412
 30
0.0
 11
1683.422917638649
 21
1317.189388882412
 31
0.0
  0
LINE
  5
B595
330
B592
100
AcDbEntity
  8
AM_5
100
AcDbLine
 10
1966.267413974293
 20
919.1893817298604
 30
0.0
 11
1683.422917638649
 21
919.1893817298604
 31
0.0
  0
LINE
  5
B596
330
B592
100
AcDbEntity
  8
AM_5
100
AcDbLine
 10
1693.422917638649
 20
1307.189388882412
 30
0.0
 11
1693.422917638649
 21
929.1893817298607
 31
0.0
  0
INSERT
  5
B597
330
B592
100
AcDbEntity
  8
AM_5
100
AcDbBlockReference
  2
_Dot
 10
1693.422917638649
 20
1317.189388882412
 30
0.0
 41
10.0
 42
10.0
 43
10.0
 50
90.0
  0
INSERT
  5
B598
330
B592
100
AcDbEntity
  8
AM_5
100
AcDbBlockReference
  2
_Dot
 10
1693.422917638649
 20
919.1893817298604
 30
0.0
 41
10.0
 42
10.0
 43
10.0
 50
270.0
  0
MTEXT
  5
B599
330
B592
100
AcDbEntity
  8
AM_5
 62
     2
100
AcDbMText
 10
1662.422917638649
 20
1118.189385306137
 30
0.0
 40
32.00000000000001
 41
0.0
 71
     5
 72
     1
  1
398
 11
0.0000000000000001
 21
1.0
 31
0.0
 73
     1
 44
1.0
1001
ACAD
1000
MTEXTBEGIN
1070
    73
1070
     1
1070
    44
1040
1.0
1070
    74
1070
     0
1000
MTEXTEND
  0
POINT
  5
B59A
330
B592
100
AcDbEntity
  8
Defpoints
 62
     0
100
AcDbPoint
 10
1973.5703762703
 20
1317.189388882412
 30
0.0
  0
POINT
  5
B59B
330
B592
100
AcDbEntity
  8
Defpoints
 62
     0
100
AcDbPoint
 10
1976.267413974294
 20
919.1893817298604
 30
0.0
  0
POINT
  5
B59C
330
B592
100
AcDbEntity
  8
Defpoints
 62
     0
100
AcDbPoint
 10
1693.422917638649
 20
919.1893817298604
 30
0.0
  0
ENDBLK
  5
B59D
330
B592
100
AcDbEntity
  8
0
100
AcDbBlockEnd
  0
BLOCK
  5
B59F
330
B59E
100
AcDbEntity
  8
0
100
AcDbBlockBegin
  2
*D12
 70
     1
 10
0.0
 20
0.0
 30
0.0
  3
*D12
  1

  0
LINE
  5
B5A0
330
B59E
100
AcDbEntity
  8
AM_5
100
AcDbLine
 10
1966.267413478784
 20
919.1893817298604
 30
0.0
 11
1583.422917638623
 21
919.1893817298604
 31
0.0
  0
LINE
  5
B5A1
330
B59E
100
AcDbEntity
  8
AM_5
100
AcDbLine
 10
1943.023701541914
 20
549.1893839948334
 30
0.0
 11
1583.422917638623
 21
549.1893839948335
 31
0.0
  0
LINE
  5
B5A2
330
B59E
100
AcDbEntity
  8
AM_5
100
AcDbLine
 10
1593.422917638623
 20
909.1893817298606
 30
0.0
 11
1593.422917638623
 21
559.1893839948335
 31
0.0
  0
INSERT
  5
B5A3
330
B59E
100
AcDbEntity
  8
AM_5
100
AcDbBlockReference
  2
_Dot
 10
1593.422917638623
 20
919.1893817298604
 30
0.0
 41
10.0
 42
10.0
 43
10.0
 50
90.0
  0
INSERT
  5
B5A4
330
B59E
100
AcDbEntity
  8
AM_5
100
AcDbBlockReference
  2
_Dot
 10
1593.422917638623
 20
549.1893839948335
 30
0.0
 41
10.0
 42
10.0
 43
10.0
 50
270.0
  0
MTEXT
  5
B5A5
330
B59E
100
AcDbEntity
  8
AM_5
 62
     2
100
AcDbMText
 10
1562.422917638623
 20
734.1893828623473
 30
0.0
 40
32.00000000000001
 41
0.0
 71
     5
 72
     1
  1
370
 11
0.0000000000000001
 21
1.0
 31
0.0
 73
     1
 44
1.0
1001
ACAD
1000
MTEXTBEGIN
1070
    73
1070
     1
1070
    44
1040
1.0
1070
    74
1070
     0
1000
MTEXTEND
  0
POINT
  5
B5A6
330
B59E
100
AcDbEntity
  8
Defpoints
 62
     0
100
AcDbPoint
 10
1976.267413478785
 20
919.1893817298604
 30
0.0
  0
POINT
  5
B5A7
330
B59E
100
AcDbEntity
  8
Defpoints
 62
     0
100
AcDbPoint
 10
1953.023701541914
 20
549.1893839948334
 30
0.0
  0
POINT
  5
B5A8
330
B59E
100
AcDbEntity
  8
Defpoints
 62
     0
100
AcDbPoint
 10
1593.422917638623
 20
549.1893839948335
 30
0.0
  0
ENDBLK
  5
B5A9
330
B59E
100
AcDbEntity
  8
0
100
AcDbBlockEnd
  0
BLOCK
  5
B5AB
330
B5AA
100
AcDbEntity
  8
0
100
AcDbBlockBegin
  2
*D13
 70
     1
 10
0.0
 20
0.0
 30
0.0
  3
*D13
  1

  0
LINE
  5
B5AC
330
B5AA
100
AcDbEntity
  8
AM_5
100
AcDbLine
 10
1966.763993137373
 20
1675.189389120833
 30
0.0
 11
1583.422917638623
 21
1675.189389120833
 31
0.0
  0
LINE
  5
B5AD
330
B5AA
100
AcDbEntity
  8
AM_5
100
AcDbLine
 10
1966.267413478784
 20
919.1893817298604
 30
0.0
 11
1583.422917638623
 21
919.1893817298604
 31
0.0
  0
LINE
  5
B5AE
330
B5AA
100
AcDbEntity
  8
AM_5
100
AcDbLine
 10
1593.422917638623
 20
1665.189389120833
 30
0.0
 11
1593.422917638623
 21
929.1893817298607
 31
0.0
  0
INSERT
  5
B5AF
330
B5AA
100
AcDbEntity
  8
AM_5
100
AcDbBlockReference
  2
_Dot
 10
1593.422917638623
 20
1675.189389120833
 30
0.0
 41
10.0
 42
10.0
 43
10.0
 50
90.0
  0
INSERT
  5
B5B0
330
B5AA
100
AcDbEntity
  8
AM_5
100
AcDbBlockReference
  2
_Dot
 10
1593.422917638623
 20
919.1893817298604
 30
0.0
 41
10.0
 42
10.0
 43
10.0
 50
270.0
  0
MTEXT
  5
B5B1
330
B5AA
100
AcDbEntity
  8
AM_5
 62
     2
100
AcDbMText
 10
1562.422917638623
 20
1297.189385425347
 30
0.0
 40
32.00000000000001
 41
0.0
 71
     5
 72
     1
  1
756
 11
0.0000000000000001
 21
1.0
 31
0.0
 73
     1
 44
1.0
1001
ACAD
1000
MTEXTBEGIN
1070
    73
1070
     1
1070
    44
1040
1.0
1070
    74
1070
     0
1000
MTEXTEND
  0
POINT
  5
B5B2
330
B5AA
100
AcDbEntity
  8
Defpoints
 62
     0
100
AcDbPoint
 10
1976.763993137373
 20
1675.189389120833
 30
0.0
  0
POINT
  5
B5B3
330
B5AA
100
AcDbEntity
  8
Defpoints
 62
     0
100
AcDbPoint
 10
1976.267413478785
 20
919.1893817298604
 30
0.0
  0
POINT
  5
B5B4
330
B5AA
100
AcDbEntity
  8
Defpoints
 62
     0
100
AcDbPoint
 10
1593.422917638623
 20
919.1893817298604
 30
0.0
  0
ENDBLK
  5
B5B5
330
B5AA
100
AcDbEntity
  8
0
100
AcDbBlockEnd
  0
BLOCK
  5
B5B7
330
B5B6
100
AcDbEntity
  8
0
100
AcDbBlockBegin
  2
*D14
 70
     1
 10
0.0
 20
0.0
 30
0.0
  3
*D14
  1

  0
LINE
  5
B5B8
330
B5B6
100
AcDbEntity
  8
AM_5
100
AcDbLine
 10
2023.452401650537
 20
2059.189383994812
 30
0.0
 11
2023.452401650537
 21
2172.969770073478
 31
0.0
  0
LINE
  5
B5B9
330
B5B6
100
AcDbEntity
  8
AM_5
100
AcDbLine
 10
1953.023701541914
 20
1759.189383994833
 30
0.0
 11
1953.023701541914
 21
2172.969770073478
 31
0.0
  0
LINE
  5
B5BA
330
B5B6
100
AcDbEntity
  8
AM_5
100
AcDbLine
 10
2013.452401650537
 20
2162.969770073479
 30
0.0
 11
1963.023701541914
 21
2162.969770073479
 31
0.0
  0
INSERT
  5
B5BB
330
B5B6
100
AcDbEntity
  8
AM_5
100
AcDbBlockReference
  2
_Dot
 10
2023.452401650537
 20
2162.969770073479
 30
0.0
 41
10.0
 42
10.0
 43
10.0
  0
INSERT
  5
B5BC
330
B5B6
100
AcDbEntity
  8
AM_5
100
AcDbBlockReference
  2
_Dot
 10
1953.023701541914
 20
2162.969770073479
 30
0.0
 41
10.0
 42
10.0
 43
10.0
 50
180.0
  0
MTEXT
  5
B5BD
330
B5B6
100
AcDbEntity
  8
AM_5
 62
     2
100
AcDbMText
 10
1988.238051596226
 20
2193.969770073478
 30
0.0
 40
32.00000000000001
 41
0.0
 71
     5
 72
     1
  1
70
 73
     1
 44
1.0
1001
ACAD
1000
MTEXTBEGIN
1070
    73
1070
     1
1070
    44
1040
1.0
1070
    74
1070
     0
1000
MTEXTEND
  0
POINT
  5
B5BE
330
B5B6
100
AcDbEntity
  8
Defpoints
 62
     0
100
AcDbPoint
 10
2023.452401650537
 20
2049.189383994812
 30
0.0
  0
POINT
  5
B5BF
330
B5B6
100
AcDbEntity
  8
Defpoints
 62
     0
100
AcDbPoint
 10
1953.023701541914
 20
1749.189383994833
 30
0.0
  0
POINT
  5
B5C0
330
B5B6
100
AcDbEntity
  8
Defpoints
 62
     0
100
AcDbPoint
 10
1953.023701541914
 20
2162.969770073479
 30
0.0
  0
ENDBLK
  5
B5C1
330
B5B6
100
AcDbEntity
  8
0
100
AcDbBlockEnd
  0
BLOCK
  5
B5C3
330
B5C2
100
AcDbEntity
  8
0
100
AcDbBlockBegin
  2
*D15
 70
     1
 10
0.0
 20
0.0
 30
0.0
  3
*D15
  1

  0
LINE
  5
B5C4
330
B5C2
100
AcDbEntity
  8
AM_5
100
AcDbLine
 10
1966.802401650591
 20
2050.189383994817
 30
0.0
 11
1583.422917638629
 21
2050.189383994817
 31
0.0
  0
LINE
  5
B5C5
330
B5C2
100
AcDbEntity
  8
AM_5
100
AcDbLine
 10
1966.802401650591
 20
1675.189383994817
 30
0.0
 11
1583.422917638629
 21
1675.189383994817
 31
0.0
  0
LINE
  5
B5C6
330
B5C2
100
AcDbEntity
  8
AM_5
100
AcDbLine
 10
1593.422917638629
 20
2040.189383994817
 30
0.0
 11
1593.422917638629
 21
1685.189383994817
 31
0.0
  0
INSERT
  5
B5C7
330
B5C2
100
AcDbEntity
  8
AM_5
100
AcDbBlockReference
  2
_Dot
 10
1593.422917638629
 20
2050.189383994817
 30
0.0
 41
10.0
 42
10.0
 43
10.0
 50
90.0
  0
INSERT
  5
B5C8
330
B5C2
100
AcDbEntity
  8
AM_5
100
AcDbBlockReference
  2
_Dot
 10
1593.422917638629
 20
1675.189383994817
 30
0.0
 41
10.0
 42
10.0
 43
10.0
 50
270.0
  0
MTEXT
  5
B5C9
330
B5C2
100
AcDbEntity
  8
AM_5
 62
     2
100
AcDbMText
 10
1562.422917638629
 20
1862.689383994817
 30
0.0
 40
32.00000000000001
 41
0.0
 71
     5
 72
     1
  1
375
 11
0.0000000000000001
 21
1.0
 31
0.0
 73
     1
 44
1.0
1001
ACAD
1000
MTEXTBEGIN
1070
    73
1070
     1
1070
    44
1040
1.0
1070
    74
1070
     0
1000
MTEXTEND
  0
POINT
  5
B5CA
330
B5C2
100
AcDbEntity
  8
Defpoints
 62
     0
100
AcDbPoint
 10
1976.80240165059
 20
2050.189383994817
 30
0.0
  0
POINT
  5
B5CB
330
B5C2
100
AcDbEntity
  8
Defpoints
 62
     0
100
AcDbPoint
 10
1976.80240165059
 20
1675.189383994817
 30
0.0
  0
POINT
  5
B5CC
330
B5C2
100
AcDbEntity
  8
Defpoints
 62
     0
100
AcDbPoint
 10
1593.422917638629
 20
1675.189383994817
 30
0.0
  0
ENDBLK
  5
B5CD
330
B5C2
100
AcDbEntity
  8
0
100
AcDbBlockEnd
  0
BLOCK
  5
B90D
330
B901
100
AcDbEntity
  8
0
100
AcDbBlockBegin
  2
*D17
 70
     1
 10
0.0
 20
0.0
 30
0.0
  3
*D17
  1

  0
LINE
  5
B98D
330
B901
100
AcDbEntity
  8
AM_5
100
AcDbLine
 10
1957.823704546704
 20
1312.189382192931
 30
0.0
 11
1957.823704546704
 21
755.9633407638801
 31
0.0
  0
LINE
  5
B98E
330
B901
100
AcDbEntity
  8
AM_5
100
AcDbLine
 10
1953.023704546705
 20
1312.189382192931
 30
0.0
 11
1953.023704546705
 21
755.9633407638801
 31
0.0
  0
LINE
  5
B98F
330
B901
100
AcDbEntity
  8
AM_5
100
AcDbLine
 10
1967.823704546704
 20
765.9633407638802
 30
0.0
 11
1977.823704546704
 21
765.9633407638802
 31
0.0
  0
LINE
  5
B990
330
B901
100
AcDbEntity
  8
AM_5
100
AcDbLine
 10
1943.023704546705
 20
765.9633407638802
 30
0.0
 11
1652.356840855535
 21
765.9633407638802
 31
0.0
  0
LINE
  5
B991
330
B901
100
AcDbEntity
  8
AM_5
100
AcDbLine
 10
1957.823704546704
 20
765.9633407638802
 30
0.0
 11
1953.023704546705
 21
765.9633407638802
 31
0.0
  0
INSERT
  5
B992
330
B901
100
AcDbEntity
  8
AM_5
100
AcDbBlockReference
  2
_Dot
 10
1957.823704546704
 20
765.9633407638802
 30
0.0
 41
10.0
 42
10.0
 43
10.0
 50
180.0
  0
INSERT
  5
B993
330
B901
100
AcDbEntity
  8
AM_5
100
AcDbBlockReference
  2
_Dot
 10
1953.023704546705
 20
765.9633407638802
 30
0.0
 41
10.0
 42
10.0
 43
10.0
  0
MTEXT
  5
B994
330
B901
100
AcDbEntity
  8
AM_5
 62
     2
100
AcDbMText
 10
1773.063507522202
 20
796.9633407638801
 30
0.0
 40
32.00000000000001
 41
0.0
 71
     5
 72
     1
  1
取付部板厚：4.8
 73
     1
 44
1.0
1001
ACAD
1000
MTEXTBEGIN
1070
    73
1070
     1
1070
    44
1040
1.0
1070
    74
1070
     0
1000
MTEXTEND
  0
POINT
  5
B995
330
B901
100
AcDbEntity
  8
Defpoints
 62
     0
100
AcDbPoint
 10
1957.823704546704
 20
1322.189382192931
 30
0.0
  0
POINT
  5
B996
330
B901
100
AcDbEntity
  8
Defpoints
 62
     0
100
AcDbPoint
 10
1953.023704546705
 20
1322.189382192931
 30
0.0
  0
POINT
  5
B997
330
B901
100
AcDbEntity
  8
Defpoints
 62
     0
100
AcDbPoint
 10
1953.023704546705
 20
765.9633407638802
 30
0.0
  0
ENDBLK
  5
B90E
330
B901
100
AcDbEntity
  8
0
100
AcDbBlockEnd
  0
BLOCK
  5
B91B
330
B90F
100
AcDbEntity
  8
0
100
AcDbBlockBegin
  2
*D18
 70
     1
 10
0.0
 20
0.0
 30
0.0
  3
*D18
  1

  0
LINE
  5
B998
330
B90F
100
AcDbEntity
  8
AM_5
100
AcDbLine
 10
1976.00240465536
 20
1716.734801545518
 30
0.0
 11
1976.00240465536
 21
1879.189382073721
 31
0.0
  0
LINE
  5
B999
330
B90F
100
AcDbEntity
  8
AM_5
100
AcDbLine
 10
1953.023704546701
 20
1759.189382073721
 30
0.0
 11
1953.023704546701
 21
1879.189382073721
 31
0.0
  0
LINE
  5
B99A
330
B90F
100
AcDbEntity
  8
AM_5
100
AcDbLine
 10
1986.00240465536
 20
1869.189382073721
 30
0.0
 11
1996.00240465536
 21
1869.189382073721
 31
0.0
  0
LINE
  5
B99B
330
B90F
100
AcDbEntity
  8
AM_5
100
AcDbLine
 10
1943.023704546701
 20
1869.189382073721
 30
0.0
 11
1866.757037880034
 21
1869.189382073721
 31
0.0
  0
LINE
  5
B99C
330
B90F
100
AcDbEntity
  8
AM_5
100
AcDbLine
 10
1976.00240465536
 20
1869.189382073721
 30
0.0
 11
1953.023704546701
 21
1869.189382073721
 31
0.0
  0
INSERT
  5
B99D
330
B90F
100
AcDbEntity
  8
AM_5
100
AcDbBlockReference
  2
_Dot
 10
1976.00240465536
 20
1869.189382073721
 30
0.0
 41
10.0
 42
10.0
 43
10.0
 50
180.0
  0
INSERT
  5
B99E
330
B90F
100
AcDbEntity
  8
AM_5
100
AcDbBlockReference
  2
_Dot
 10
1953.023704546701
 20
1869.189382073721
 30
0.0
 41
10.0
 42
10.0
 43
10.0
  0
MTEXT
  5
B99F
330
B90F
100
AcDbEntity
  8
AM_5
 62
     2
100
AcDbMText
 10
1899.890371213367
 20
1900.189382073721
 30
0.0
 40
32.00000000000001
 41
0.0
 71
     5
 72
     1
  1
23
 73
     1
 44
1.0
1001
ACAD
1000
MTEXTBEGIN
1070
    73
1070
     1
1070
    44
1040
1.0
1070
    74
1070
     0
1000
MTEXTEND
  0
POINT
  5
B9A0
330
B90F
100
AcDbEntity
  8
Defpoints
 62
     0
100
AcDbPoint
 10
1976.00240465536
 20
1706.734801545518
 30
0.0
  0
POINT
  5
B9A1
330
B90F
100
AcDbEntity
  8
Defpoints
 62
     0
100
AcDbPoint
 10
1953.023704546701
 20
1749.189382073721
 30
0.0
  0
POINT
  5
B9A2
330
B90F
100
AcDbEntity
  8
Defpoints
 62
     0
100
AcDbPoint
 10
1953.023704546701
 20
1869.189382073721
 30
0.0
  0
ENDBLK
  5
B91C
330
B90F
100
AcDbEntity
  8
0
100
AcDbBlockEnd
  0
BLOCK
  5
B927
330
B91D
100
AcDbEntity
  8
0
100
AcDbBlockBegin
  2
*D19
 70
     1
 10
0.0
 20
0.0
 30
0.0
  3
*D19
  1

  0
LINE
  5
B9A3
330
B91D
100
AcDbEntity
  8
AM_5
100
AcDbLine
 10
1903.422920643504
 20
1573.189382073723
 30
0.0
 11
1783.422920643504
 21
1573.189382073723
 31
0.0
  0
LINE
  5
B9A4
330
B91D
100
AcDbEntity
  8
AM_5
100
AcDbLine
 10
1903.422920643504
 20
1343.189382073725
 30
0.0
 11
1783.422920643504
 21
1343.189382073725
 31
0.0
  0
LINE
  5
B9A5
330
B91D
100
AcDbEntity
  8
AM_5
100
AcDbLine
 10
1793.422920643504
 20
1563.189382073723
 30
0.0
 11
1793.422920643504
 21
1353.189382073725
 31
0.0
  0
INSERT
  5
B9A6
330
B91D
100
AcDbEntity
  8
AM_5
100
AcDbBlockReference
  2
_Dot
 10
1793.422920643504
 20
1573.189382073723
 30
0.0
 41
10.0
 42
10.0
 43
10.0
 50
90.0
  0
INSERT
  5
B9A7
330
B91D
100
AcDbEntity
  8
AM_5
100
AcDbBlockReference
  2
_Dot
 10
1793.422920643504
 20
1343.189382073725
 30
0.0
 41
10.0
 42
10.0
 43
10.0
 50
270.0
  0
MTEXT
  5
B9A8
330
B91D
100
AcDbEntity
  8
AM_5
 62
     2
100
AcDbMText
 10
1762.422920643503
 20
1458.189382073724
 30
0.0
 40
32.00000000000001
 41
0.0
 71
     5
 72
     1
  1
230
 11
0.0000000000000001
 21
1.0
 31
0.0
 73
     1
 44
1.0
1001
ACAD
1000
MTEXTBEGIN
1070
    73
1070
     1
1070
    44
1040
1.0
1070
    74
1070
     0
1000
MTEXTEND
  0
POINT
  5
B9A9
330
B91D
100
AcDbEntity
  8
Defpoints
 62
     0
100
AcDbPoint
 10
1913.422920643504
 20
1573.189382073723
 30
0.0
  0
POINT
  5
B9AA
330
B91D
100
AcDbEntity
  8
Defpoints
 62
     0
100
AcDbPoint
 10
1913.422920643504
 20
1343.189382073725
 30
0.0
  0
POINT
  5
B9AB
330
B91D
100
AcDbEntity
  8
Defpoints
 62
     0
100
AcDbPoint
 10
1793.422920643504
 20
1343.189382073725
 30
0.0
  0
ENDBLK
  5
B928
330
B91D
100
AcDbEntity
  8
0
100
AcDbBlockEnd
  0
BLOCK
  5
B935
330
B929
100
AcDbEntity
  8
0
100
AcDbBlockBegin
  2
*D20
 70
     1
 10
0.0
 20
0.0
 30
0.0
  3
*D20
  1

  0
LINE
  5
B9AC
330
B929
100
AcDbEntity
  8
AM_5
100
AcDbLine
 10
1903.422920643504
 20
1573.189382073723
 30
0.0
 11
1783.422920643503
 21
1573.189382073723
 31
0.0
  0
LINE
  5
B9AD
330
B929
100
AcDbEntity
  8
AM_5
100
AcDbLine
 10
1963.570379275093
 20
1599.18937730535
 30
0.0
 11
1783.422920643503
 21
1599.18937730535
 31
0.0
  0
LINE
  5
B9AE
330
B929
100
AcDbEntity
  8
AM_5
100
AcDbLine
 10
1793.422920643503
 20
1563.189382073723
 30
0.0
 11
1793.422920643503
 21
1553.189382073723
 31
0.0
  0
LINE
  5
B9AF
330
B929
100
AcDbEntity
  8
AM_5
100
AcDbLine
 10
1793.422920643503
 20
1609.18937730535
 30
0.0
 11
1793.422920643503
 21
1766.207576870728
 31
0.0
  0
LINE
  5
B9B0
330
B929
100
AcDbEntity
  8
AM_5
100
AcDbLine
 10
1793.422920643503
 20
1573.189382073723
 30
0.0
 11
1793.422920643503
 21
1599.18937730535
 31
0.0
  0
INSERT
  5
B9B1
330
B929
100
AcDbEntity
  8
AM_5
100
AcDbBlockReference
  2
_Dot
 10
1793.422920643503
 20
1573.189382073723
 30
0.0
 41
10.0
 42
10.0
 43
10.0
 50
90.0
  0
INSERT
  5
B9B2
330
B929
100
AcDbEntity
  8
AM_5
100
AcDbBlockReference
  2
_Dot
 10
1793.422920643503
 20
1599.18937730535
 30
0.0
 41
10.0
 42
10.0
 43
10.0
 50
270.0
  0
MTEXT
  5
B9B3
330
B929
100
AcDbEntity
  8
AM_5
 62
     2
100
AcDbMText
 10
1762.422920643503
 20
1733.074243537395
 30
0.0
 40
32.00000000000001
 41
0.0
 71
     5
 72
     1
  1
26
 11
0.0000000000000001
 21
1.0
 31
0.0
 73
     1
 44
1.0
1001
ACAD
1000
MTEXTBEGIN
1070
    73
1070
     1
1070
    44
1040
1.0
1070
    74
1070
     0
1000
MTEXTEND
  0
POINT
  5
B9B4
330
B929
100
AcDbEntity
  8
Defpoints
 62
     0
100
AcDbPoint
 10
1913.422920643504
 20
1573.189382073723
 30
0.0
  0
POINT
  5
B9B5
330
B929
100
AcDbEntity
  8
Defpoints
 62
     0
100
AcDbPoint
 10
1973.570379275093
 20
1599.18937730535
 30
0.0
  0
POINT
  5
B9B6
330
B929
100
AcDbEntity
  8
Defpoints
 62
     0
100
AcDbPoint
 10
1793.422920643503
 20
1599.18937730535
 30
0.0
  0
ENDBLK
  5
B936
330
B929
100
AcDbEntity
  8
0
100
AcDbBlockEnd
  0
BLOCK
  5
B943
330
B937
100
AcDbEntity
  8
0
100
AcDbBlockBegin
  2
*D21
 70
     1
 10
0.0
 20
0.0
 30
0.0
  3
*D21
  1

  0
LINE
  5
B9B7
330
B937
100
AcDbEntity
  8
AM_5
100
AcDbLine
 10
1903.422920643504
 20
1343.189382073725
 30
0.0
 11
1783.422920643504
 21
1343.189382073725
 31
0.0
  0
LINE
  5
B9B8
330
B937
100
AcDbEntity
  8
AM_5
100
AcDbLine
 10
1963.570379275088
 20
1317.1893869613
 30
0.0
 11
1783.422920643504
 21
1317.1893869613
 31
0.0
  0
LINE
  5
B9B9
330
B937
100
AcDbEntity
  8
AM_5
100
AcDbLine
 10
1793.422920643504
 20
1353.189382073725
 30
0.0
 11
1793.422920643504
 21
1363.189382073725
 31
0.0
  0
LINE
  5
B9BA
330
B937
100
AcDbEntity
  8
AM_5
100
AcDbLine
 10
1793.422920643504
 20
1307.1893869613
 30
0.0
 11
1793.422920643504
 21
1230.922720294633
 31
0.0
  0
LINE
  5
B9BB
330
B937
100
AcDbEntity
  8
AM_5
100
AcDbLine
 10
1793.422920643504
 20
1343.189382073725
 30
0.0
 11
1793.422920643504
 21
1317.1893869613
 31
0.0
  0
INSERT
  5
B9BC
330
B937
100
AcDbEntity
  8
AM_5
100
AcDbBlockReference
  2
_Dot
 10
1793.422920643504
 20
1343.189382073725
 30
0.0
 41
10.0
 42
10.0
 43
10.0
 50
270.0
  0
INSERT
  5
B9BD
330
B937
100
AcDbEntity
  8
AM_5
100
AcDbBlockReference
  2
_Dot
 10
1793.422920643504
 20
1317.1893869613
 30
0.0
 41
10.0
 42
10.0
 43
10.0
 50
90.0
  0
MTEXT
  5
B9BE
330
B937
100
AcDbEntity
  8
AM_5
 62
     2
100
AcDbMText
 10
1762.422920643503
 20
1264.056053627967
 30
0.0
 40
32.00000000000001
 41
0.0
 71
     5
 72
     1
  1
26
 11
0.0000000000000001
 21
1.0
 31
0.0
 73
     1
 44
1.0
1001
ACAD
1000
MTEXTBEGIN
1070
    73
1070
     1
1070
    44
1040
1.0
1070
    74
1070
     0
1000
MTEXTEND
  0
POINT
  5
B9BF
330
B937
100
AcDbEntity
  8
Defpoints
 62
     0
100
AcDbPoint
 10
1913.422920643504
 20
1343.189382073725
 30
0.0
  0
POINT
  5
B9C0
330
B937
100
AcDbEntity
  8
Defpoints
 62
     0
100
AcDbPoint
 10
1973.570379275087
 20
1317.1893869613
 30
0.0
  0
POINT
  5
B9C1
330
B937
100
AcDbEntity
  8
Defpoints
 62
     0
100
AcDbPoint
 10
1793.422920643504
 20
1317.1893869613
 30
0.0
  0
ENDBLK
  5
B944
330
B937
100
AcDbEntity
  8
0
100
AcDbBlockEnd
  0
BLOCK
  5
B94F
330
B945
100
AcDbEntity
  8
0
100
AcDbBlockBegin
  2
*D22
 70
     1
 10
0.0
 20
0.0
 30
0.0
  3
*D22
  1

  0
LINE
  5
B9C2
330
B945
100
AcDbEntity
  8
AM_5
100
AcDbLine
 10
1963.570379275093
 20
1599.18937730535
 30
0.0
 11
1683.422920643504
 21
1599.18937730535
 31
0.0
  0
LINE
  5
B9C3
330
B945
100
AcDbEntity
  8
AM_5
100
AcDbLine
 10
1963.570379275093
 20
1317.189386961284
 30
0.0
 11
1683.422920643504
 21
1317.189386961284
 31
0.0
  0
LINE
  5
B9C4
330
B945
100
AcDbEntity
  8
AM_5
100
AcDbLine
 10
1693.422920643504
 20
1589.18937730535
 30
0.0
 11
1693.422920643504
 21
1327.189386961284
 31
0.0
  0
INSERT
  5
B9C5
330
B945
100
AcDbEntity
  8
AM_5
100
AcDbBlockReference
  2
_Dot
 10
1693.422920643504
 20
1599.18937730535
 30
0.0
 41
10.0
 42
10.0
 43
10.0
 50
90.0
  0
INSERT
  5
B9C6
330
B945
100
AcDbEntity
  8
AM_5
100
AcDbBlockReference
  2
_Dot
 10
1693.422920643504
 20
1317.189386961284
 30
0.0
 41
10.0
 42
10.0
 43
10.0
 50
270.0
  0
MTEXT
  5
B9C7
330
B945
100
AcDbEntity
  8
AM_5
 62
     2
100
AcDbMText
 10
1662.422920643503
 20
1458.189382133317
 30
0.0
 40
32.00000000000001
 41
0.0
 71
     5
 72
     1
  1
282
 11
0.0000000000000001
 21
1.0
 31
0.0
 73
     1
 44
1.0
1001
ACAD
1000
MTEXTBEGIN
1070
    73
1070
     1
1070
    44
1040
1.0
1070
    74
1070
     0
1000
MTEXTEND
  0
POINT
  5
B9C8
330
B945
100
AcDbEntity
  8
Defpoints
 62
     0
100
AcDbPoint
 10
1973.570379275093
 20
1599.18937730535
 30
0.0
  0
POINT
  5
B9C9
330
B945
100
AcDbEntity
  8
Defpoints
 62
     0
100
AcDbPoint
 10
1973.570379275093
 20
1317.189386961284
 30
0.0
  0
POINT
  5
B9CA
330
B945
100
AcDbEntity
  8
Defpoints
 62
     0
100
AcDbPoint
 10
1693.422920643504
 20
1317.189386961284
 30
0.0
  0
ENDBLK
  5
B950
330
B945
100
AcDbEntity
  8
0
100
AcDbBlockEnd
  0
BLOCK
  5
B95B
330
B951
100
AcDbEntity
  8
0
100
AcDbBlockBegin
  2
*D23
 70
     1
 10
0.0
 20
0.0
 30
0.0
  3
*D23
  1

  0
LINE
  5
B9CB
330
B951
100
AcDbEntity
  8
AM_5
100
AcDbLine
 10
1963.570379275088
 20
1317.1893869613
 30
0.0
 11
1683.422920643436
 21
1317.1893869613
 31
0.0
  0
LINE
  5
B9CC
330
B951
100
AcDbEntity
  8
AM_5
100
AcDbLine
 10
1966.267416979081
 20
919.1893798087484
 30
0.0
 11
1683.422920643436
 21
919.1893798087486
 31
0.0
  0
LINE
  5
B9CD
330
B951
100
AcDbEntity
  8
AM_5
100
AcDbLine
 10
1693.422920643436
 20
1307.1893869613
 30
0.0
 11
1693.422920643436
 21
929.1893798087485
 31
0.0
  0
INSERT
  5
B9CE
330
B951
100
AcDbEntity
  8
AM_5
100
AcDbBlockReference
  2
_Dot
 10
1693.422920643436
 20
1317.1893869613
 30
0.0
 41
10.0
 42
10.0
 43
10.0
 50
90.0
  0
INSERT
  5
B9CF
330
B951
100
AcDbEntity
  8
AM_5
100
AcDbBlockReference
  2
_Dot
 10
1693.422920643436
 20
919.1893798087486
 30
0.0
 41
10.0
 42
10.0
 43
10.0
 50
270.0
  0
MTEXT
  5
B9D0
330
B951
100
AcDbEntity
  8
AM_5
 62
     2
100
AcDbMText
 10
1662.422920643435
 20
1118.189383385025
 30
0.0
 40
32.00000000000001
 41
0.0
 71
     5
 72
     1
  1
398
 11
0.0000000000000001
 21
1.0
 31
0.0
 73
     1
 44
1.0
1001
ACAD
1000
MTEXTBEGIN
1070
    73
1070
     1
1070
    44
1040
1.0
1070
    74
1070
     0
1000
MTEXTEND
  0
POINT
  5
B9D1
330
B951
100
AcDbEntity
  8
Defpoints
 62
     0
100
AcDbPoint
 10
1973.570379275087
 20
1317.1893869613
 30
0.0
  0
POINT
  5
B9D2
330
B951
100
AcDbEntity
  8
Defpoints
 62
     0
100
AcDbPoint
 10
1976.267416979081
 20
919.1893798087484
 30
0.0
  0
POINT
  5
B9D3
330
B951
100
AcDbEntity
  8
Defpoints
 62
     0
100
AcDbPoint
 10
1693.422920643436
 20
919.1893798087486
 30
0.0
  0
ENDBLK
  5
B95C
330
B951
100
AcDbEntity
  8
0
100
AcDbBlockEnd
  0
BLOCK
  5
B967
330
B95D
100
AcDbEntity
  8
0
100
AcDbBlockBegin
  2
*D24
 70
     1
 10
0.0
 20
0.0
 30
0.0
  3
*D24
  1

  0
LINE
  5
B9D4
330
B95D
100
AcDbEntity
  8
AM_5
100
AcDbLine
 10
1966.267416483572
 20
919.1893798087484
 30
0.0
 11
1583.42292064341
 21
919.1893798087486
 31
0.0
  0
LINE
  5
B9D5
330
B95D
100
AcDbEntity
  8
AM_5
100
AcDbLine
 10
1943.023704546701
 20
549.1893820737214
 30
0.0
 11
1583.42292064341
 21
549.1893820737215
 31
0.0
  0
LINE
  5
B9D6
330
B95D
100
AcDbEntity
  8
AM_5
100
AcDbLine
 10
1593.42292064341
 20
909.1893798087484
 30
0.0
 11
1593.42292064341
 21
559.1893820737214
 31
0.0
  0
INSERT
  5
B9D7
330
B95D
100
AcDbEntity
  8
AM_5
100
AcDbBlockReference
  2
_Dot
 10
1593.42292064341
 20
919.1893798087486
 30
0.0
 41
10.0
 42
10.0
 43
10.0
 50
90.0
  0
INSERT
  5
B9D8
330
B95D
100
AcDbEntity
  8
AM_5
100
AcDbBlockReference
  2
_Dot
 10
1593.42292064341
 20
549.1893820737215
 30
0.0
 41
10.0
 42
10.0
 43
10.0
 50
270.0
  0
MTEXT
  5
B9D9
330
B95D
100
AcDbEntity
  8
AM_5
 62
     2
100
AcDbMText
 10
1562.422920643409
 20
734.1893809412352
 30
0.0
 40
32.00000000000001
 41
0.0
 71
     5
 72
     1
  1
370
 11
0.0000000000000001
 21
1.0
 31
0.0
 73
     1
 44
1.0
1001
ACAD
1000
MTEXTBEGIN
1070
    73
1070
     1
1070
    44
1040
1.0
1070
    74
1070
     0
1000
MTEXTEND
  0
POINT
  5
B9DA
330
B95D
100
AcDbEntity
  8
Defpoints
 62
     0
100
AcDbPoint
 10
1976.267416483572
 20
919.1893798087484
 30
0.0
  0
POINT
  5
B9DB
330
B95D
100
AcDbEntity
  8
Defpoints
 62
     0
100
AcDbPoint
 10
1953.023704546701
 20
549.1893820737214
 30
0.0
  0
POINT
  5
B9DC
330
B95D
100
AcDbEntity
  8
Defpoints
 62
     0
100
AcDbPoint
 10
1593.42292064341
 20
549.1893820737215
 30
0.0
  0
ENDBLK
  5
B968
330
B95D
100
AcDbEntity
  8
0
100
AcDbBlockEnd
  0
BLOCK
  5
B973
330
B969
100
AcDbEntity
  8
0
100
AcDbBlockBegin
  2
*D25
 70
     1
 10
0.0
 20
0.0
 30
0.0
  3
*D25
  1

  0
LINE
  5
B9DD
330
B969
100
AcDbEntity
  8
AM_5
100
AcDbLine
 10
1966.76399614216
 20
1675.189387199721
 30
0.0
 11
1583.42292064341
 21
1675.189387199721
 31
0.0
  0
LINE
  5
B9DE
330
B969
100
AcDbEntity
  8
AM_5
100
AcDbLine
 10
1966.267416483572
 20
919.1893798087484
 30
0.0
 11
1583.42292064341
 21
919.1893798087486
 31
0.0
  0
LINE
  5
B9DF
330
B969
100
AcDbEntity
  8
AM_5
100
AcDbLine
 10
1593.42292064341
 20
1665.189387199721
 30
0.0
 11
1593.42292064341
 21
929.1893798087485
 31
0.0
  0
INSERT
  5
B9E0
330
B969
100
AcDbEntity
  8
AM_5
100
AcDbBlockReference
  2
_Dot
 10
1593.42292064341
 20
1675.189387199721
 30
0.0
 41
10.0
 42
10.0
 43
10.0
 50
90.0
  0
INSERT
  5
B9E1
330
B969
100
AcDbEntity
  8
AM_5
100
AcDbBlockReference
  2
_Dot
 10
1593.42292064341
 20
919.1893798087486
 30
0.0
 41
10.0
 42
10.0
 43
10.0
 50
270.0
  0
MTEXT
  5
B9E2
330
B969
100
AcDbEntity
  8
AM_5
 62
     2
100
AcDbMText
 10
1562.422920643409
 20
1297.189383504235
 30
0.0
 40
32.00000000000001
 41
0.0
 71
     5
 72
     1
  1
756
 11
0.0000000000000001
 21
1.0
 31
0.0
 73
     1
 44
1.0
1001
ACAD
1000
MTEXTBEGIN
1070
    73
1070
     1
1070
    44
1040
1.0
1070
    74
1070
     0
1000
MTEXTEND
  0
POINT
  5
B9E3
330
B969
100
AcDbEntity
  8
Defpoints
 62
     0
100
AcDbPoint
 10
1976.76399614216
 20
1675.189387199721
 30
0.0
  0
POINT
  5
B9E4
330
B969
100
AcDbEntity
  8
Defpoints
 62
     0
100
AcDbPoint
 10
1976.267416483572
 20
919.1893798087484
 30
0.0
  0
POINT
  5
B9E5
330
B969
100
AcDbEntity
  8
Defpoints
 62
     0
100
AcDbPoint
 10
1593.42292064341
 20
919.1893798087486
 30
0.0
  0
ENDBLK
  5
B974
330
B969
100
AcDbEntity
  8
0
100
AcDbBlockEnd
  0
BLOCK
  5
B97F
330
B975
100
AcDbEntity
  8
0
100
AcDbBlockBegin
  2
*D26
 70
     1
 10
0.0
 20
0.0
 30
0.0
  3
*D26
  1

  0
LINE
  5
B9E6
330
B975
100
AcDbEntity
  8
AM_5
100
AcDbLine
 10
2023.452404655324
 20
2059.1893820737
 30
0.0
 11
2023.452404655324
 21
2172.969768152366
 31
0.0
  0
LINE
  5
B9E7
330
B975
100
AcDbEntity
  8
AM_5
100
AcDbLine
 10
1953.023704546701
 20
1759.189382073721
 30
0.0
 11
1953.023704546701
 21
2172.969768152366
 31
0.0
  0
LINE
  5
B9E8
330
B975
100
AcDbEntity
  8
AM_5
100
AcDbLine
 10
2013.452404655324
 20
2162.969768152366
 30
0.0
 11
1963.023704546701
 21
2162.969768152366
 31
0.0
  0
INSERT
  5
B9E9
330
B975
100
AcDbEntity
  8
AM_5
100
AcDbBlockReference
  2
_Dot
 10
2023.452404655324
 20
2162.969768152366
 30
0.0
 41
10.0
 42
10.0
 43
10.0
  0
INSERT
  5
B9EA
330
B975
100
AcDbEntity
  8
AM_5
100
AcDbBlockReference
  2
_Dot
 10
1953.023704546701
 20
2162.969768152366
 30
0.0
 41
10.0
 42
10.0
 43
10.0
 50
180.0
  0
MTEXT
  5
B9EB
330
B975
100
AcDbEntity
  8
AM_5
 62
     2
100
AcDbMText
 10
1988.238054601012
 20
2193.969768152366
 30
0.0
 40
32.00000000000001
 41
0.0
 71
     5
 72
     1
  1
70
 73
     1
 44
1.0
1001
ACAD
1000
MTEXTBEGIN
1070
    73
1070
     1
1070
    44
1040
1.0
1070
    74
1070
     0
1000
MTEXTEND
  0
POINT
  5
B9EC
330
B975
100
AcDbEntity
  8
Defpoints
 62
     0
100
AcDbPoint
 10
2023.452404655324
 20
2049.1893820737
 30
0.0
  0
POINT
  5
B9ED
330
B975
100
AcDbEntity
  8
Defpoints
 62
     0
100
AcDbPoint
 10
1953.023704546701
 20
1749.189382073721
 30
0.0
  0
POINT
  5
B9EE
330
B975
100
AcDbEntity
  8
Defpoints
 62
     0
100
AcDbPoint
 10
1953.023704546701
 20
2162.969768152366
 30
0.0
  0
ENDBLK
  5
B980
330
B975
100
AcDbEntity
  8
0
100
AcDbBlockEnd
  0
BLOCK
  5
B98B
330
B981
100
AcDbEntity
  8
0
100
AcDbBlockBegin
  2
*D27
 70
     1
 10
0.0
 20
0.0
 30
0.0
  3
*D27
  1

  0
LINE
  5
B9EF
330
B981
100
AcDbEntity
  8
AM_5
100
AcDbLine
 10
1966.802404655377
 20
2050.189382073705
 30
0.0
 11
1583.422920643416
 21
2050.189382073705
 31
0.0
  0
LINE
  5
B9F0
330
B981
100
AcDbEntity
  8
AM_5
100
AcDbLine
 10
1966.802404655377
 20
1675.189382073705
 30
0.0
 11
1583.422920643416
 21
1675.189382073705
 31
0.0
  0
LINE
  5
B9F1
330
B981
100
AcDbEntity
  8
AM_5
100
AcDbLine
 10
1593.422920643416
 20
2040.189382073705
 30
0.0
 11
1593.422920643416
 21
1685.189382073704
 31
0.0
  0
INSERT
  5
B9F2
330
B981
100
AcDbEntity
  8
AM_5
100
AcDbBlockReference
  2
_Dot
 10
1593.422920643416
 20
2050.189382073705
 30
0.0
 41
10.0
 42
10.0
 43
10.0
 50
90.0
  0
INSERT
  5
B9F3
330
B981
100
AcDbEntity
  8
AM_5
100
AcDbBlockReference
  2
_Dot
 10
1593.422920643416
 20
1675.189382073705
 30
0.0
 41
10.0
 42
10.0
 43
10.0
 50
270.0
  0
MTEXT
  5
B9F4
330
B981
100
AcDbEntity
  8
AM_5
 62
     2
100
AcDbMText
 10
1562.422920643415
 20
1862.689382073705
 30
0.0
 40
32.00000000000001
 41
0.0
 71
     5
 72
     1
  1
375
 11
0.0000000000000001
 21
1.0
 31
0.0
 73
     1
 44
1.0
1001
ACAD
1000
MTEXTBEGIN
1070
    73
1070
     1
1070
    44
1040
1.0
1070
    74
1070
     0
1000
MTEXTEND
  0
POINT
  5
B9F5
330
B981
100
AcDbEntity
  8
Defpoints
 62
     0
100
AcDbPoint
 10
1976.802404655376
 20
2050.189382073705
 30
0.0
  0
POINT
  5
B9F6
330
B981
100
AcDbEntity
  8
Defpoints
 62
     0
100
AcDbPoint
 10
1976.802404655376
 20
1675.189382073705
 30
0.0
  0
POINT
  5
B9F7
330
B981
100
AcDbEntity
  8
Defpoints
 62
     0
100
AcDbPoint
 10
1593.422920643416
 20
1675.189382073705
 30
0.0
  0
ENDBLK
  5
B98C
330
B981
100
AcDbEntity
  8
0
100
AcDbBlockEnd
  0
ENDSEC
  0
SECTION
  2
ENTITIES
  0
TEXT
  5
B77F
330
1F
100
AcDbEntity
  8
AM_6
 60
     1
100
AcDbText
 10
4085.000003004785
 20
3433.461007743556
 30
0.0
 40
25.0
  1
!GENTITLE-INSERT
100
AcDbText
  0
TEXT
  5
B780
330
1F
100
AcDbEntity
  8
AM_6
 60
     1
100
AcDbText
 10
0.0000030047869817
 20
3348.461007743556
 30
0.0
 40
25.0
  1
!GENTITLE-LL
100
AcDbText
  0
TEXT
  5
B781
330
1F
100
AcDbEntity
  8
AM_6
 60
     1
100
AcDbText
 10
4200.000003004787
 20
6318.461007743557
 30
0.0
 40
25.0
  1
!GENTITLE-RU
100
AcDbText
  0
TEXT
  5
B782
330
1F
100
AcDbEntity
  8
AM_6
 60
     1
100
AcDbText
 10
4200.000003004787
 20
6318.461007743557
 30
0.0
 40
25.0
  1
!GENTITLE-MAX
100
AcDbText
  0
TEXT
  5
B783
330
1F
100
AcDbEntity
  8
AM_6
 60
     1
100
AcDbText
 10
0.0000030047869817
 20
3348.461007743556
 30
0.0
 40
25.0
  1
!GENTITLE-LL
100
AcDbText
  0
TEXT
  5
B784
330
1F
100
AcDbEntity
  8
AM_6
 60
     1
100
AcDbText
 10
4085.000003004786
 20
6233.461007743557
 30
0.0
 40
25.0
  1
!GENTITLE-RU
100
AcDbText
  0
TEXT
  5
B785
330
1F
100
AcDbEntity
  8
AM_6
 60
     1
100
AcDbText
 10
4200.000003004787
 20
6318.461007743557
 30
0.0
 40
25.0
  1
!GENTITLE-MAX
100
AcDbText
  0
TEXT
  5
B786
330
1F
100
AcDbEntity
  8
AM_6
 60
     1
100
AcDbText
 10
4085.000003004785
 20
3433.461007743556
 30
0.0
 40
25.0
  1
!GENTITLE-INSERT
100
AcDbText
  0
LINE
  5
B787
330
1F
100
AcDbEntity
  8
size
100
AcDbLine
 10
0.0000030047867767
 20
-0.0000019211120161
 30
0.0
 11
4200.000003004785
 21
-0.0000019211120161
 31
0.0
1001
GENIUS_GENREC_14
1002
{
1000
PYDIR
1011
0.0000030047869543
1021
2969.999998078888
1031
0.0
1002
}
1002
{
1000
PXDIR
1011
4200.000003004785
1021
-0.0000019211120161
1031
0.0
1002
}
1002
{
1000
PORI
1011
0.0000030047867767
1021
-0.0000019211120161
1031
0.0
1002
}
1002
{
1000
PINS
1011
2100.000003004787
1021
1484.999998078888
1031
0.0
1002
}
1002
{
1000
HVAL
1000
297
1002
}
1002
{
1000
H
1070
     2
1002
}
1002
{
1000
WVAL
1000
420
1002
}
1002
{
1000
W
1070
     2
1002
}
1002
{
1000
C
1070
     4
1002
}
1001
GENIUS_GENOBJ-N-REC_13
1002
{
1000
OWNER
1000
GEN
1002
}
1001
GENIUS_GENODEF_13
1002
{
1000
HIER
1070
     0
1002
}
1002
{
1000
MANEDIT
1070
     0
1002
}
1002
{
1000
NOSEL
1070
     0
1002
}
1002
{
1000
BEHIND
1070
     0
1002
}
1002
{
1000
OTHER
1070
     0
1002
}
1002
{
1000
REACTOR
1002
}
  0
LINE
  5
B788
330
1F
100
AcDbEntity
  8
size
100
AcDbLine
 10
4200.000003004785
 20
-0.0000019211120161
 30
0.0
 11
4200.000003004785
 21
2969.999998078888
 31
0.0
1001
GENIUS_GENREC_14
1002
{
1000
PYDIR
1011
0.0000030047869543
1021
2969.999998078888
1031
0.0
1002
}
1002
{
1000
PXDIR
1011
4200.000003004785
1021
-0.0000019211120161
1031
0.0
1002
}
1002
{
1000
PORI
1011
0.0000030047867767
1021
-0.0000019211120161
1031
0.0
1002
}
1002
{
1000
PINS
1011
2100.000003004787
1021
1484.999998078888
1031
0.0
1002
}
1002
{
1000
HVAL
1000
297
1002
}
1002
{
1000
H
1070
     2
1002
}
1002
{
1000
WVAL
1000
420
1002
}
1002
{
1000
W
1070
     2
1002
}
1002
{
1000
C
1070
     4
1002
}
1001
GENIUS_GENOBJ-N-REC_13
1002
{
1000
OWNER
1000
GEN
1002
}
1001
GENIUS_GENODEF_13
1002
{
1000
HIER
1070
     0
1002
}
1002
{
1000
MANEDIT
1070
     0
1002
}
1002
{
1000
NOSEL
1070
     0
1002
}
1002
{
1000
BEHIND
1070
     0
1002
}
1002
{
1000
OTHER
1070
     0
1002
}
1002
{
1000
REACTOR
1002
}
  0
LINE
  5
B789
330
1F
100
AcDbEntity
  8
size
100
AcDbLine
 10
4200.000003004785
 20
2969.999998078888
 30
0.0
 11
0.000003004787052
 21
2969.999998078888
 31
0.0
1001
GENIUS_GENREC_14
1002
{
1000
PYDIR
1011
0.0000030047869543
1021
2969.999998078888
1031
0.0
1002
}
1002
{
1000
PXDIR
1011
4200.000003004785
1021
-0.0000019211120161
1031
0.0
1002
}
1002
{
1000
PORI
1011
0.0000030047867767
1021
-0.0000019211120161
1031
0.0
1002
}
1002
{
1000
PINS
1011
2100.000003004787
1021
1484.999998078888
1031
0.0
1002
}
1002
{
1000
HVAL
1000
297
1002
}
1002
{
1000
H
1070
     2
1002
}
1002
{
1000
WVAL
1000
420
1002
}
1002
{
1000
W
1070
     2
1002
}
1002
{
1000
C
1070
     4
1002
}
1001
GENIUS_GENOBJ-N-REC_13
1002
{
1000
OWNER
1000
GEN
1002
}
1001
GENIUS_GENODEF_13
1002
{
1000
HIER
1070
     0
1002
}
1002
{
1000
MANEDIT
1070
     0
1002
}
1002
{
1000
NOSEL
1070
     0
1002
}
1002
{
1000
BEHIND
1070
     0
1002
}
1002
{
1000
OTHER
1070
     0
1002
}
1002
{
1000
REACTOR
1002
}
  0
LINE
  5
B78A
330
1F
100
AcDbEntity
  8
size
100
AcDbLine
 10
0.000003004787052
 20
2969.999998078888
 30
0.0
 11
0.0000030047867767
 21
-0.0000019211120161
 31
0.0
1001
GENIUS_GENREC_14
1002
{
1000
PYDIR
1011
0.0000030047869543
1021
2969.999998078888
1031
0.0
1002
}
1002
{
1000
PXDIR
1011
4200.000003004785
1021
-0.0000019211120161
1031
0.0
1002
}
1002
{
1000
PORI
1011
0.0000030047867767
1021
-0.0000019211120161
1031
0.0
1002
}
1002
{
1000
PINS
1011
2100.000003004787
1021
1484.999998078888
1031
0.0
1002
}
1002
{
1000
HVAL
1000
297
1002
}
1002
{
1000
H
1070
     2
1002
}
1002
{
1000
WVAL
1000
420
1002
}
1002
{
1000
W
1070
     2
1002
}
1002
{
1000
C
1070
     4
1002
}
1001
GENIUS_GENOBJ-N-REC_13
1002
{
1000
OWNER
1000
GEN
1002
}
1001
GENIUS_GENODEF_13
1002
{
1000
HIER
1070
     0
1002
}
1002
{
1000
MANEDIT
1070
     0
1002
}
1002
{
1000
NOSEL
1070
     0
1002
}
1002
{
1000
BEHIND
1070
     0
1002
}
1002
{
1000
OTHER
1070
     0
1002
}
1002
{
1000
REACTOR
1002
}
  0
LINE
  5
B78B
330
1F
100
AcDbEntity
  8
waku
100
AcDbLine
 10
4085.000003004785
 20
84.99999807888798
 30
0.0
 11
4085.000003004786
 21
2884.999998078888
 31
0.0
1001
GENIUS_GENREC_14
1002
{
1000
PYDIR
1011
0.0000030047869543
1021
2969.999998078888
1031
0.0
1002
}
1002
{
1000
PXDIR
1011
4200.000003004785
1021
-0.0000019211120161
1031
0.0
1002
}
1002
{
1000
PORI
1011
0.0000030047867767
1021
-0.0000019211120161
1031
0.0
1002
}
1002
{
1000
PINS
1011
2100.000003004787
1021
1484.999998078888
1031
0.0
1002
}
1002
{
1000
HVAL
1000
297
1002
}
1002
{
1000
H
1070
     2
1002
}
1002
{
1000
WVAL
1000
420
1002
}
1002
{
1000
W
1070
     2
1002
}
1002
{
1000
C
1070
     4
1002
}
1001
GENIUS_GENOBJ-N-REC_13
1002
{
1000
OWNER
1000
GEN
1002
}
1001
GENIUS_GENODEF_13
1002
{
1000
HIER
1070
     0
1002
}
1002
{
1000
MANEDIT
1070
     0
1002
}
1002
{
1000
NOSEL
1070
     0
1002
}
1002
{
1000
BEHIND
1070
     0
1002
}
1002
{
1000
OTHER
1070
     0
1002
}
1002
{
1000
REACTOR
1002
}
  0
LINE
  5
B78C
330
1F
100
AcDbEntity
  8
waku
100
AcDbLine
 10
115.000003004787
 20
2884.999998078888
 30
0.0
 11
115.0000030047868
 21
84.99999807888798
 31
0.0
1001
GENIUS_GENREC_14
1002
{
1000
PYDIR
1011
0.0000030047869543
1021
2969.999998078888
1031
0.0
1002
}
1002
{
1000
PXDIR
1011
4200.000003004785
1021
-0.0000019211120161
1031
0.0
1002
}
1002
{
1000
PORI
1011
0.0000030047867767
1021
-0.0000019211120161
1031
0.0
1002
}
1002
{
1000
PINS
1011
2100.000003004787
1021
1484.999998078888
1031
0.0
1002
}
1002
{
1000
HVAL
1000
297
1002
}
1002
{
1000
H
1070
     2
1002
}
1002
{
1000
WVAL
1000
420
1002
}
1002
{
1000
W
1070
     2
1002
}
1002
{
1000
C
1070
     4
1002
}
1001
GENIUS_GENOBJ-N-REC_13
1002
{
1000
OWNER
1000
GEN
1002
}
1001
GENIUS_GENODEF_13
1002
{
1000
HIER
1070
     0
1002
}
1002
{
1000
MANEDIT
1070
     0
1002
}
1002
{
1000
NOSEL
1070
     0
1002
}
1002
{
1000
BEHIND
1070
     0
1002
}
1002
{
1000
OTHER
1070
     0
1002
}
1002
{
1000
REACTOR
1002
}
  0
LINE
  5
B78D
330
1F
100
AcDbEntity
  8
waku
100
AcDbLine
 10
4085.000003004786
 20
2884.999998078888
 30
0.0
 11
115.000003004787
 21
2884.999998078888
 31
0.0
1001
GENIUS_GENREC_14
1002
{
1000
PYDIR
1011
0.0000030047869543
1021
2969.999998078888
1031
0.0
1002
}
1002
{
1000
PXDIR
1011
4200.000003004785
1021
-0.0000019211120161
1031
0.0
1002
}
1002
{
1000
PORI
1011
0.0000030047867767
1021
-0.0000019211120161
1031
0.0
1002
}
1002
{
1000
PINS
1011
2100.000003004787
1021
1484.999998078888
1031
0.0
1002
}
1002
{
1000
HVAL
1000
297
1002
}
1002
{
1000
H
1070
     2
1002
}
1002
{
1000
WVAL
1000
420
1002
}
1002
{
1000
W
1070
     2
1002
}
1002
{
1000
C
1070
     4
1002
}
1001
GENIUS_GENOBJ-N-REC_13
1002
{
1000
OWNER
1000
GEN
1002
}
1001
GENIUS_GENODEF_13
1002
{
1000
HIER
1070
     0
1002
}
1002
{
1000
MANEDIT
1070
     0
1002
}
1002
{
1000
NOSEL
1070
     0
1002
}
1002
{
1000
BEHIND
1070
     0
1002
}
1002
{
1000
OTHER
1070
     0
1002
}
1002
{
1000
REACTOR
1002
}
  0
LINE
  5
B78E
330
1F
100
AcDbEntity
  8
waku
100
AcDbLine
 10
115.0000030047868
 20
84.99999807888798
 30
0.0
 11
4085.000003004785
 21
84.99999807888798
 31
0.0
  0
LINE
  5
B78F
330
1F
100
AcDbEntity
  8
AM_2
100
AcDbLine
 10
315.0000078080373
 20
2884.999998078888
 30
0.0
 11
315.0000078080373
 21
2484.999998078888
 31
0.0
  0
LINE
  5
B790
330
1F
100
AcDbEntity
  8
AM_2
100
AcDbLine
 10
115.0000078080372
 20
2804.999998078888
 30
0.0
 11
1380.094082005888
 21
2804.999998078888
 31
0.0
  0
LINE
  5
B791
330
1F
100
AcDbEntity
  8
AM_2
100
AcDbLine
 10
115.0000078080372
 20
2724.999998078888
 30
0.0
 11
1380.094082005888
 21
2724.999998078888
 31
0.0
  0
LINE
  5
B792
330
1F
100
AcDbEntity
  8
AM_2
100
AcDbLine
 10
315.0000078080373
 20
2644.999998078888
 30
0.0
 11
1380.094082005888
 21
2644.999998078888
 31
0.0
  0
LINE
  5
B793
330
1F
100
AcDbEntity
  8
AM_2
100
AcDbLine
 10
315.0000078080373
 20
2644.999998078888
 30
0.0
 11
1380.094082005888
 21
2644.999998078888
 31
0.0
  0
LINE
  5
B794
330
1F
100
AcDbEntity
  8
AM_2
100
AcDbLine
 10
115.0000078080372
 20
2564.999998078886
 30
0.0
 11
1380.094082005888
 21
2564.999998078888
 31
0.0
  0
LINE
  5
B795
330
1F
100
AcDbEntity
  8
AM_0
100
AcDbLine
 10
115.0000078080372
 20
2484.999998078888
 30
0.0
 11
1380.094082005888
 21
2484.999998078888
 31
0.0
  0
LINE
  5
B796
330
1F
100
AcDbEntity
  8
AM_0
100
AcDbLine
 10
115.0000078080372
 20
2884.999998078888
 30
0.0
 11
115.0000078080372
 21
2324.999998078888
 31
0.0
  0
LINE
  5
B797
330
1F
100
AcDbEntity
  8
AM_0
100
AcDbLine
 10
115.0000078080372
 20
2884.999998078888
 30
0.0
 11
1215.000007808038
 21
2884.999998078888
 31
0.0
  0
LINE
  5
B798
330
1F
100
AcDbEntity
  8
AM_0
100
AcDbLine
 10
1380.094082005888
 20
2884.999998078888
 30
0.0
 11
1380.094082005888
 21
2484.999998078888
 31
0.0
  0
TEXT
  5
B799
330
1F
100
AcDbEntity
  8
AM_6
100
AcDbText
 10
171.5700078080369
 20
2828.999998078888
 30
0.0
 40
32.0
  1
品　名
 41
0.85537027
100
AcDbText
  0
TEXT
  5
B79A
330
1F
100
AcDbEntity
  8
AM_6
100
AcDbText
 10
171.5700078080369
 20
2748.999998078888
 30
0.0
 40
32.0
  1
品　番
 41
0.85537027
100
AcDbText
  0
TEXT
  5
B79B
330
1F
100
AcDbEntity
  8
AM_6
100
AcDbText
 10
171.5700078080369
 20
2668.999998078888
 30
0.0
 40
32.0
  1
材　質
 41
0.85537027
100
AcDbText
  0
TEXT
  5
B79C
330
1F
100
AcDbEntity
  8
AM_6
100
AcDbText
 10
171.5700078080369
 20
2508.999998078888
 30
0.0
 40
32.0
  1
仕上げ
 41
0.85537027
100
AcDbText
  0
TEXT
  5
B79D
330
1F
100
AcDbEntity
  8
AM_6
100
AcDbText
 10
338.6972928314024
 20
2828.999998078888
 30
0.0
 40
32.0
  1
腰壁用可動式ポール
 41
0.85537027
100
AcDbText
  0
TEXT
  5
B79E
330
1F
100
AcDbEntity
  8
AM_6
100
AcDbText
 10
338.6972928314024
 20
2748.999998078888
 30
0.0
 40
32.0
  1
SEK-P
 41
0.85537027
100
AcDbText
  0
TEXT
  5
B79F
330
1F
100
AcDbEntity
  8
AM_6
100
AcDbText
 10
338.6972928314024
 20
2508.999998078888
 30
0.0
 40
32.0
  1
シルバー、ホワイト、ダークブロンズ、ステンカラー
 41
0.85537027
100
AcDbText
  0
TEXT
  5
B7A0
330
1F
100
AcDbEntity
  8
AM_6
100
AcDbText
 10
338.6972928314024
 20
2668.999998078888
 30
0.0
 40
32.0
  1
ブラケット：アルミダイキャスト（焼付塗装）
 41
0.85537027
100
AcDbText
  0
TEXT
  5
B7A1
330
1F
100
AcDbEntity
  8
AM_6
100
AcDbText
 10
338.6972928314024
 20
2588.999998078888
 30
0.0
 40
32.0
  1
スライド柱：アルミ押出材（アルマイト）※ホワイトのみ電着塗装
 41
0.85537027
100
AcDbText
  0
LINE
  5
B7A2
330
1F
100
AcDbEntity
  8
AM_0
100
AcDbLine
 10
1470.148938320017
 20
2884.999998078888
 30
0.0
 11
2635.243012517867
 21
2884.999998078888
 31
0.0
  0
LINE
  5
B7A3
330
1F
100
AcDbEntity
  8
AM_2
100
AcDbLine
 10
1670.148938320017
 20
2724.999998078888
 30
0.0
 11
2635.243012517867
 21
2724.999998078888
 31
0.0
  0
LINE
  5
B7A4
330
1F
100
AcDbEntity
  8
AM_2
100
AcDbLine
 10
1670.148938320017
 20
2644.999998078888
 30
0.0
 11
2635.243012517867
 21
2644.999998078888
 31
0.0
  0
TEXT
  5
B7A5
330
1F
100
AcDbEntity
  8
AM_6
100
AcDbText
 10
1526.718938320017
 20
2828.999998078888
 30
0.0
 40
32.0
  1
備　考
 41
0.85537027
100
AcDbText
  0
TEXT
  5
B7A6
330
1F
100
AcDbEntity
  8
AM_6
100
AcDbText
 10
1693.846223343381
 20
2748.999998078888
 30
0.0
 40
32.0
  1
取付ビスは別途手配となります
 41
0.85537027
100
AcDbText
  0
TEXT
  5
B7A7
330
1F
100
AcDbEntity
  8
AM_6
100
AcDbText
 10
1693.846223343381
 20
2668.999998078888
 30
0.0
 40
32.0
  1
本製品は2本で1セットとなっております
 41
0.85537027
100
AcDbText
  0
TEXT
  5
B7A8
330
1F
100
AcDbEntity
  8
AM_6
100
AcDbText
 10
1693.846223343381
 20
2588.999998078888
 30
0.0
 40
32.0
  1
公営住宅建設基準（床から650mm以内に「足のかかる部分」
 41
0.85537027
100
AcDbText
  0
LINE
  5
B7A9
330
1F
100
AcDbEntity
  8
AM_0
100
AcDbLine
 10
1470.148938320017
 20
2508.700101059082
 30
0.0
 11
1470.148938320017
 21
2884.999998078888
 31
0.0
  0
LINE
  5
B7AA
330
1F
100
AcDbEntity
  8
AM_2
100
AcDbLine
 10
1670.148938320017
 20
2884.999998078888
 30
0.0
 11
1670.148938320017
 21
2508.700101059082
 31
0.0
  0
LINE
  5
B7AB
330
1F
100
AcDbEntity
  8
AM_0
100
AcDbLine
 10
2635.243012517867
 20
2508.700101059082
 30
0.0
 11
2635.243012517867
 21
2884.999998078888
 31
0.0
  0
LINE
  5
B7AC
330
1F
100
AcDbEntity
  8
AM_0
100
AcDbLine
 10
1470.148938320017
 20
2508.700101059082
 30
0.0
 11
2635.243012517867
 21
2508.700101059082
 31
0.0
  0
TEXT
  5
B7AD
330
1F
100
AcDbEntity
  8
AM_6
100
AcDbText
 10
1693.846223343381
 20
2537.947042997236
 30
0.0
 40
32.0
  1
が無き事）にご注意の上取付位置の設定を行ってください
 41
0.85537027
100
AcDbText
  0
LINE
  5
B7AE
330
1F
100
AcDbEntity
  8
AM_7
 48
0.3
370
    15
100
AcDbLine
 10
1969.171112512647
 20
1343.189382073725
 30
0.0
 11
1913.422920643504
 21
1343.189382073725
 31
0.0
  0
LINE
  5
B7AF
330
1F
100
AcDbEntity
  8
AM_7
 48
0.3
370
    15
100
AcDbLine
 10
1969.171112512647
 20
1573.189382073723
 30
0.0
 11
1913.422920643504
 21
1573.189382073723
 31
0.0
  0
LINE
  5
B7B0
330
1F
100
AcDbEntity
  8
AM_0
100
AcDbLine
 10
1953.023704546701
 20
1588.189382073721
 30
0.0
 11
1953.023704546705
 21
1322.189382192931
 31
0.0
  0
LINE
  5
B7B1
330
1F
100
AcDbEntity
  8
AM_0
100
AcDbLine
 10
1975.445001232635
 20
1598.69810837253
 30
0.0
 11
1975.52370171548
 21
1594.189382073721
 31
0.0
  0
ARC
  5
B7B2
330
1F
100
AcDbEntity
  8
AM_0
100
AcDbCircle
 10
1974.945079196567
 20
1598.689379818016
 30
0.0
 40
0.5000000000003979
100
AcDbArc
 50
1.000000000079952
 51
90.0
  0
LINE
  5
B7B3
330
1F
100
AcDbEntity
  8
AM_0
100
AcDbLine
 10
1973.315725880872
 20
1598.423465070567
 30
0.0
 11
1973.264108258498
 21
1594.189382073721
 31
0.0
  0
SPLINE
  5
B7B4
330
1F
100
AcDbEntity
  8
AM_0
100
AcDbSpline
210
0.0
220
0.0
230
1.0
 70
     8
 71
     3
 72
     9
 73
     5
 74
     0
 42
0.0000000001
 43
0.0000000001
 40
0.0
 40
0.0
 40
0.0
 40
0.0
 40
0.9831571320026474
 40
1.0
 40
1.0
 40
1.0
 40
1.0
 10
1973.408917742972
 20
1598.69810837253
 30
0.0
 10
1973.377839429088
 20
1598.609537287198
 30
0.0
 10
1973.346228699856
 20
1598.519448854281
 30
0.0
 10
1973.316231126069
 20
1598.425054934913
 30
0.0
 10
1973.315725880864
 20
1598.423465070567
 30
0.0
  0
SPLINE
  5
B7B5
330
1F
100
AcDbEntity
  8
AM_0
100
AcDbSpline
210
0.0
220
0.0
230
1.0
 70
     8
 71
     3
 72
    11
 73
     7
 74
     0
 42
0.0000000001
 43
0.0000000001
 40
0.0
 40
0.0
 40
0.0
 40
0.0
 40
0.0158619254052377
 40
0.3422404339475555
 40
0.6710582453604764
 40
1.0
 40
1.0
 40
1.0
 40
1.0
 10
1973.94747923613
 20
1599.18937730535
 30
0.0
 10
1973.944809447438
 20
1599.189365198506
 30
0.0
 10
1973.887205491439
 20
1599.189103978383
 30
0.0
 10
1973.774249537427
 20
1599.16733786195
 30
0.0
 10
1973.624126181664
 20
1599.084835838516
 30
0.0
 10
1973.556097774202
 20
1598.994124847105
 30
0.0
 10
1973.522077161079
 20
1598.94876080497
 30
0.0
  0
SPLINE
  5
B7B6
330
1F
100
AcDbEntity
  8
AM_0
100
AcDbSpline
210
0.0
220
0.0
230
1.0
 70
     8
 71
     3
 72
    10
 73
     6
 74
     0
 42
0.0000000001
 43
0.0000000001
 40
0.0
 40
0.0
 40
0.0
 40
0.0
 40
0.4042453379784613
 40
0.8095035933320302
 40
1.0
 40
1.0
 40
1.0
 40
1.0
 10
1973.408917742972
 20
1598.69810837253
 30
0.0
 10
1973.419931781378
 20
1598.728700779717
 30
0.0
 10
1973.441987455956
 20
1598.789962249507
 30
0.0
 10
1973.482470842328
 20
1598.880952030235
 30
0.0
 10
1973.512481165979
 20
1598.932331793378
 30
0.0
 10
1973.522077161079
 20
1598.94876080497
 30
0.0
  0
LINE
  5
B7B7
330
1F
100
AcDbEntity
  8
AM_0
100
AcDbLine
 10
1972.196656125795
 20
1599.038480696518
 30
0.0
 11
1972.498989510548
 21
1599.092944440684
 31
0.0
  0
SPLINE
  5
B7B8
330
1F
100
AcDbEntity
  8
AM_0
100
AcDbSpline
210
0.0
220
0.0
230
1.0
 70
     8
 71
     3
 72
    12
 73
     8
 74
     0
 42
0.0000000001
 43
0.0000000001
 40
0.0
 40
0.0
 40
0.0
 40
0.0
 40
0.0111931308692241
 40
0.0799202734372893
 40
0.2299399060181879
 40
0.8479266471747378
 40
1.0
 40
1.0
 40
1.0
 40
1.0
 10
1972.498989510539
 20
1599.092944440684
 30
0.0
 10
1972.503611601176
 20
1599.093781323016
 30
0.0
 10
1972.536613872815
 20
1599.099756761502
 30
0.0
 10
1972.630910079652
 20
1599.115885086929
 30
0.0
 10
1972.96607143783
 20
1599.165701241684
 30
0.0
 10
1973.307539339864
 20
1599.187776702388
 30
0.0
 10
1973.527033108302
 20
1599.189113342422
 30
0.0
 10
1973.570379275087
 20
1599.18937730535
 30
0.0
  0
LINE
  5
B7B9
330
1F
100
AcDbEntity
  8
AM_0
100
AcDbLine
 10
1975.923702898634
 20
1594.189382073721
 30
0.0
 11
1953.023704546701
 21
1594.189382073721
 31
0.0
  0
SPLINE
  5
B7BA
330
1F
100
AcDbEntity
  8
AM_0
100
AcDbSpline
210
0.0
220
0.0
230
1.0
 70
     8
 71
     3
 72
    20
 73
    16
 74
     0
 42
0.0000000001
 43
0.0000000001
 40
0.0
 40
0.0
 40
0.0
 40
0.0
 40
0.1674764094402142
 40
0.3259715000797111
 40
0.5411192149655513
 40
0.7900359655266983
 40
0.8193299175853498
 40
0.9045711499986609
 40
0.9487429652228112
 40
0.9723431500835783
 40
0.9850582731177228
 40
0.9919230260083788
 40
0.9956195951218139
 40
0.9960380654991174
 40
1.0
 40
1.0
 40
1.0
 40
1.0
 10
1953.559356588129
 20
1596.232055601916
 30
0.0
 10
1953.568085872294
 20
1596.322208623448
 30
0.0
 10
1953.585076312086
 20
1596.497679997313
 30
0.0
 10
1953.705567494954
 20
1596.760881082727
 30
0.0
 10
1953.91439482618
 20
1597.00627572883
 30
0.0
 10
1954.131324839096
 20
1597.127499364801
 30
0.0
 10
1954.298917281924
 20
1597.181416557859
 30
0.0
 10
1954.373739879769
 20
1597.198787638093
 30
0.0
 10
1954.446742541406
 20
1597.208674265993
 30
0.0
 10
1954.485315077139
 20
1597.21198056026
 30
0.0
 10
1954.506035961257
 20
1597.213223294811
 30
0.0
 10
1954.517216986353
 20
1597.213731529501
 30
0.0
 10
1954.522489249926
 20
1597.213923651191
 30
0.0
 10
1954.526372241106
 20
1597.214068651451
 30
0.0
 10
1954.528476419848
 20
1597.214129053716
 30
0.0
 10
1954.530379581455
 20
1597.214183685622
 30
0.0
  0
LINE
  5
B7BB
330
1F
100
AcDbEntity
  8
AM_0
100
AcDbLine
 10
1953.523701834691
 20
1594.189382073721
 30
0.0
 11
1953.559125620139
 21
1596.218666908583
 31
0.0
  0
LINE
  5
B7BC
330
1F
100
AcDbEntity
  8
AM_0
100
AcDbLine
 10
1953.559125620139
 20
1596.218666908583
 30
0.0
 11
1953.559356588136
 21
1596.232055601916
 31
0.0
  0
ARC
  5
B7BD
330
1F
100
AcDbEntity
  8
AM_0
100
AcDbCircle
 10
1951.071145745099
 20
1717.164314542579
 30
0.0
 40
120.0
100
AcDbArc
 50
271.6518910009189
 51
280.13952974753
  0
LINE
  5
B7BE
330
1F
100
AcDbEntity
  8
AM_0
100
AcDbLine
 10
1967.525618928682
 20
1389.43950730308
 30
0.0
 11
1967.547948318731
 21
1389.621346173128
 31
0.0
  0
ARC
  5
B7BF
330
1F
100
AcDbEntity
  8
AM_0
100
AcDbCircle
 10
1965.323703152732
 20
1395.189379808737
 30
0.0
 40
7.937384108313466
100
AcDbArc
 50
240.2132204553169
 51
285.7867795447831
  0
LINE
  5
B7C0
330
1F
100
AcDbEntity
  8
AM_0
100
AcDbLine
 10
1970.016165483009
 20
1409.725866195998
 30
0.0
 11
1967.550194668782
 21
1389.642140743574
 31
0.0
  0
LINE
  5
B7C1
330
1F
100
AcDbEntity
  8
AM_0
100
AcDbLine
 10
1961.82135011555
 20
1390.345557508311
 30
0.0
 11
1964.287320929778
 21
1410.429275510151
 31
0.0
  0
ARC
  5
B7C2
330
1F
100
AcDbEntity
  8
AM_0
100
AcDbCircle
 10
1967.151743303818
 20
1410.077572083367
 30
0.0
 40
2.8859328121916
100
AcDbArc
 50
352.9999999999678
 51
172.9999999999678
  0
LINE
  5
B7C3
330
1F
100
AcDbEntity
  8
AM_0
100
AcDbLine
 10
1967.550194668782
 20
1389.642140743574
 30
0.0
 11
1967.545698243391
 21
1389.600544152102
 31
0.0
  0
LINE
  5
B7C4
330
1F
100
AcDbEntity
  8
AM_0
100
AcDbLine
 10
1961.815646696103
 20
1390.30410992845
 30
0.0
 11
1961.82135011555
 21
1390.345557508311
 31
0.0
  0
SPLINE
  5
B7C5
330
1F
100
AcDbEntity
  8
AM_0
100
AcDbSpline
210
0.0
220
0.0
230
1.0
 70
     8
 71
     3
 72
    11
 73
     7
 74
     0
 42
0.0000000001
 43
0.0000000001
 40
0.0
 40
0.0
 40
0.0
 40
0.0
 40
0.2671379928848945
 40
0.5384756951254632
 40
0.8160093841641867
 40
1.0
 40
1.0
 40
1.0
 40
1.0
 10
1961.015368658308
 20
1389.274260876021
 30
0.0
 10
1961.130941510041
 20
1389.225503706625
 30
0.0
 10
1961.363904148532
 20
1389.127222850356
 30
0.0
 10
1961.607236339902
 20
1389.375579106029
 30
0.0
 10
1961.741098726797
 20
1389.806003811323
 30
0.0
 10
1961.794398346409
 20
1390.162135129259
 30
0.0
 10
1961.815646696096
 20
1390.30410992845
 30
0.0
  0
SPLINE
  5
B7C6
330
1F
100
AcDbEntity
  8
AM_0
100
AcDbSpline
210
0.0
220
0.0
230
1.0
 70
     8
 71
     3
 72
    13
 73
     9
 74
     0
 42
0.0000000001
 43
0.0000000001
 40
0.0
 40
0.0
 40
0.0
 40
0.0
 40
0.327685943523192
 40
0.5692678644728355
 40
0.6405289703830137
 40
0.8717306573540321
 40
0.9120544596020302
 40
1.0
 40
1.0
 40
1.0
 40
1.0
 10
1967.545698243384
 20
1389.600544152102
 30
0.0
 10
1967.524046255437
 20
1389.349835483755
 30
0.0
 10
1967.486431639396
 20
1388.914295323852
 30
0.0
 10
1967.561812687653
 20
1388.592979769678
 30
0.0
 10
1967.687532778352
 20
1388.414941643675
 30
0.0
 10
1967.809633728133
 20
1388.36754674609
 30
0.0
 10
1967.967506839183
 20
1388.378797407339
 30
0.0
 10
1968.030129293228
 20
1388.395938689345
 30
0.0
 10
1968.073065239197
 20
1388.407691297371
 30
0.0
  0
LINE
  5
B7C7
330
1F
100
AcDbEntity
  8
AM_0
100
AcDbLine
 10
1970.016165483009
 20
1409.725866195998
 30
0.0
 11
1970.12938078047
 21
1409.711963412604
 31
0.0
  0
LINE
  5
B7C8
330
1F
100
AcDbEntity
  8
AM_0
100
AcDbLine
 10
1970.12938078047
 20
1409.711963412604
 30
0.0
 11
1969.424891132126
 21
1403.974345800719
 31
0.0
  0
LINE
  5
B7C9
330
1F
100
AcDbEntity
  8
AM_0
100
AcDbLine
 10
1969.304754245292
 20
1403.926900503477
 30
0.0
 11
1967.545698243391
 21
1389.600544152102
 31
0.0
  0
LINE
  5
B7CA
330
1F
100
AcDbEntity
  8
AM_0
100
AcDbLine
 10
1963.469615983976
 20
1404.705568132243
 30
0.0
 11
1964.174105632316
 21
1410.443178293547
 31
0.0
  0
LINE
  5
B7CB
330
1F
100
AcDbEntity
  8
AM_0
100
AcDbLine
 10
1964.287320929778
 20
1410.429275510151
 30
0.0
 11
1964.174105632316
 21
1410.443178293547
 31
0.0
  0
LINE
  5
B7CC
330
1F
100
AcDbEntity
  8
AM_0
100
AcDbLine
 10
1963.574702698003
 20
1404.630458829245
 30
0.0
 11
1961.815646696103
 21
1390.30410992845
 31
0.0
  0
ARC
  5
B7CD
330
1F
100
AcDbEntity
  8
AM_0
100
AcDbCircle
 10
1967.151743303818
 20
1410.077572083367
 30
0.0
 40
3.000000000000308
100
AcDbArc
 50
352.9999999999678
 51
172.9999999999678
  0
SPLINE
  5
B7CE
330
1F
100
AcDbEntity
  8
AM_0
100
AcDbSpline
210
0.0
220
0.0
230
1.0
 70
     8
 71
     3
 72
    11
 73
     7
 74
     0
 42
0.0000000001
 43
0.0000000001
 40
0.0
 40
0.0
 40
0.0
 40
0.0
 40
0.0029846835235403
 40
0.1494053440213463
 40
0.6611304713786427
 40
1.0
 40
1.0
 40
1.0
 40
1.0
 10
1969.304754245285
 20
1403.926900503477
 30
0.0
 10
1969.304507029899
 20
1403.924228318317
 30
0.0
 10
1969.292132081539
 20
1403.790465813818
 30
0.0
 10
1969.28215422352
 20
1403.19557078787
 30
0.0
 10
1969.494770460371
 20
1402.256069196374
 30
0.0
 10
1970.167670942626
 20
1401.567579818528
 30
0.0
 10
1970.435748654609
 20
1401.293291625819
 30
0.0
  0
SPLINE
  5
B7CF
330
1F
100
AcDbEntity
  8
AM_0
100
AcDbSpline
210
0.0
220
0.0
230
1.0
 70
     8
 71
     3
 72
    10
 73
     6
 74
     0
 42
0.0000000001
 43
0.0000000001
 40
0.0
 40
0.0
 40
0.0
 40
0.0
 40
0.3393877964849686
 40
0.678779125149139
 40
1.0
 40
1.0
 40
1.0
 40
1.0
 10
1969.42489113212
 20
1403.974345800719
 30
0.0
 10
1969.417503163904
 20
1403.636482096936
 30
0.0
 10
1969.402727150608
 20
1402.960751173018
 30
0.0
 10
1969.787477154418
 20
1402.009582614865
 30
0.0
 10
1970.247930289786
 20
1401.540795735946
 30
0.0
 10
1970.471824365857
 20
1401.312849399886
 30
0.0
  0
LINE
  5
B7D0
330
1F
100
AcDbEntity
  8
AM_0
100
AcDbLine
 10
1970.471824365865
 20
1401.312849399886
 30
0.0
 11
1970.435748654615
 21
1401.293291625819
 31
0.0
  0
SPLINE
  5
B7D1
330
1F
100
AcDbEntity
  8
AM_0
100
AcDbSpline
210
0.0
220
0.0
230
1.0
 70
     8
 71
     3
 72
    11
 73
     7
 74
     0
 42
0.0000000001
 43
0.0000000001
 40
0.0
 40
0.0
 40
0.0
 40
0.0
 40
0.3229944316782651
 40
0.8298693297523572
 40
0.9970163390997742
 40
1.0
 40
1.0
 40
1.0
 40
1.0
 10
1961.840174007421
 20
1402.348696169695
 30
0.0
 10
1962.153005332262
 20
1402.539375015668
 30
0.0
 10
1962.95676259992
 20
1403.029286019057
 30
0.0
 10
1963.407675163166
 20
1403.883749326128
 30
0.0
 10
1963.551075112149
 20
1404.476695692593
 30
0.0
 10
1963.574295471759
 20
1404.627808690148
 30
0.0
 10
1963.574702697998
 20
1404.630458829245
 30
0.0
  0
SPLINE
  5
B7D2
330
1F
100
AcDbEntity
  8
AM_0
100
AcDbSpline
210
0.0
220
0.0
230
1.0
 70
     8
 71
     3
 72
    10
 73
     6
 74
     0
 42
0.0000000001
 43
0.0000000001
 40
0.0
 40
0.0
 40
0.0
 40
0.0
 40
0.3393891930642368
 40
0.6787769656071188
 40
1.0
 40
1.0
 40
1.0
 40
1.0
 10
1961.809902298454
 20
1402.376397428355
 30
0.0
 10
1962.097114804072
 20
1402.554490045896
 30
0.0
 10
1962.671538613201
 20
1402.910674535543
 30
0.0
 10
1963.258910136807
 20
1403.751954793221
 30
0.0
 10
1963.400680112406
 20
1404.393577897736
 30
0.0
 10
1963.469615983967
 20
1404.705568132243
 30
0.0
  0
LINE
  5
B7D3
330
1F
100
AcDbEntity
  8
AM_0
100
AcDbLine
 10
1961.840174007429
 20
1402.348696169695
 30
0.0
 11
1961.809902298462
 21
1402.376397428355
 31
0.0
  0
SPLINE
  5
B7D4
330
1F
100
AcDbEntity
  8
AM_0
100
AcDbSpline
210
0.0
220
0.0
230
1.0
 70
     8
 71
     3
 72
    16
 73
    12
 74
     0
 42
0.0000000001
 43
0.0000000001
 40
0.0
 40
0.0
 40
0.0
 40
0.0
 40
0.0607783739768817
 40
0.167909121828628
 40
0.3100726173959021
 40
0.4520122140674582
 40
0.583028331371195
 40
0.6963209965337961
 40
0.7986413162924783
 40
0.9013709472475881
 40
1.0
 40
1.0
 40
1.0
 40
1.0
 10
1970.435748654609
 20
1401.293291625819
 30
0.0
 10
1970.674245291347
 20
1401.084229001649
 30
0.0
 10
1971.333127031935
 20
1400.506663013385
 30
0.0
 10
1972.452421978861
 20
1399.017712168851
 30
0.0
 10
1973.309093840991
 20
1396.741806652445
 30
0.0
 10
1973.380295151773
 20
1394.1500355082
 30
0.0
 10
1972.697203262726
 20
1391.845747626198
 30
0.0
 10
1971.534626100666
 20
1390.042893099559
 30
0.0
 10
1970.135322833829
 20
1388.741706341231
 30
0.0
 10
1968.64371368861
 20
1387.896565242748
 30
0.0
 10
1967.864704501948
 20
1387.664874736093
 30
0.0
 10
1967.483131992821
 20
1387.551388618788
 30
0.0
  0
SPLINE
  5
B7D5
330
1F
100
AcDbEntity
  8
AM_0
100
AcDbSpline
210
0.0
220
0.0
230
1.0
 70
     8
 71
     3
 72
    16
 73
    12
 74
     0
 42
0.0000000001
 43
0.0000000001
 40
0.0
 40
0.0
 40
0.0
 40
0.0
 40
0.0460266283103123
 40
0.1471454801487202
 40
0.251488155633154
 40
0.3925350530953835
 40
0.5352262060672147
 40
0.6690711543493916
 40
0.7850640947506423
 40
0.8935450112400181
 40
1.0
 40
1.0
 40
1.0
 40
1.0
 10
1961.380618470911
 20
1388.30067860826
 30
0.0
 10
1961.230139950511
 20
1388.38569536158
 30
0.0
 10
1960.749065517059
 20
1388.657490873146
 30
0.0
 10
1959.727424248838
 20
1389.430825582259
 30
0.0
 10
1958.424212007218
 20
1390.972306358092
 30
0.0
 10
1957.441408404105
 20
1393.180174504164
 30
0.0
 10
1957.217887832711
 20
1395.775033588857
 30
0.0
 10
1957.785386554972
 20
1398.156336840261
 30
0.0
 10
1958.891977311448
 20
1400.068887336606
 30
0.0
 10
1960.324193628989
 20
1401.51948558477
 30
0.0
 10
1961.338032605318
 20
1402.074034985639
 30
0.0
 10
1961.840174007421
 20
1402.348696169695
 30
0.0
  0
ARC
  5
B7D6
330
1F
100
AcDbEntity
  8
AM_0
100
AcDbCircle
 10
1965.323703152732
 20
1395.189379808737
 30
0.0
 40
8.000000000000186
100
AcDbArc
 50
116.054440406197
 51
49.94555959380624
  0
LINE
  5
B7D7
330
1F
100
AcDbEntity
  8
AM_0
100
AcDbLine
 10
1973.223703759921
 20
1594.189382073721
 30
0.0
 11
1973.223703759921
 21
1396.450332281432
 31
0.0
  0
LINE
  5
B7D8
330
1F
100
AcDbEntity
  8
AM_0
100
AcDbLine
 10
1973.986348915111
 20
1317.680648443541
 30
0.0
 11
1973.931382256756
 21
1322.189382192931
 31
0.0
  0
LINE
  5
B7D9
330
1F
100
AcDbEntity
  8
AM_0
100
AcDbLine
 10
1975.52370171548
 20
1322.189382192931
 30
0.0
 11
1975.445001232635
 21
1317.680648443541
 31
0.0
  0
LINE
  5
B7DA
330
1F
100
AcDbEntity
  8
AM_0
100
AcDbLine
 10
1974.945078450451
 20
1317.1893869613
 30
0.0
 11
1974.691229718936
 21
1317.1893869613
 31
0.0
  0
ARC
  5
B7DB
330
1F
100
AcDbEntity
  8
AM_0
100
AcDbCircle
 10
1974.945079196567
 20
1317.689379808738
 30
0.0
 40
0.499999999999951
100
AcDbArc
 50
270.0
 51
359.0000000000243
  0
LINE
  5
B7DC
330
1F
100
AcDbEntity
  8
AM_0
100
AcDbLine
 10
1974.691229718936
 20
1317.1893869613
 30
0.0
 11
1974.455713140976
 21
1317.1893869613
 31
0.0
  0
ARC
  5
B7DD
330
1F
100
AcDbEntity
  8
AM_0
100
AcDbCircle
 10
1974.471108473678
 20
1317.67394831456
 30
0.0
 40
0.4848058594409073
100
AcDbArc
 50
179.2081338822915
 51
268.18022845456
  0
LINE
  5
B7DE
330
1F
100
AcDbEntity
  8
AM_0
100
AcDbLine
 10
1973.264108258498
 20
1322.189382192931
 30
0.0
 11
1973.315725880872
 21
1317.955291745505
 31
0.0
  0
SPLINE
  5
B7DF
330
1F
100
AcDbEntity
  8
AM_0
100
AcDbSpline
210
0.0
220
0.0
230
1.0
 70
     8
 71
     3
 72
     9
 73
     5
 74
     0
 42
0.0000000001
 43
0.0000000001
 40
0.0
 40
0.0
 40
0.0
 40
0.0
 40
0.0168428148246873
 40
1.0
 40
1.0
 40
1.0
 40
1.0
 10
1973.315725880864
 20
1317.955291745505
 30
0.0
 10
1973.316231126069
 20
1317.953701881129
 30
0.0
 10
1973.346228795462
 20
1317.859307661352
 30
0.0
 10
1973.377839475625
 20
1317.769219382336
 30
0.0
 10
1973.408917742972
 20
1317.680648443541
 30
0.0
  0
SPLINE
  5
B7E0
330
1F
100
AcDbEntity
  8
AM_0
100
AcDbSpline
210
0.0
220
0.0
230
1.0
 70
     8
 71
     3
 72
    10
 73
     6
 74
     0
 42
0.0000000001
 43
0.0000000001
 40
0.0
 40
0.0
 40
0.0
 40
0.0
 40
0.3970373042188434
 40
0.7910331814164567
 40
1.0
 40
1.0
 40
1.0
 40
1.0
 10
1973.522077161079
 20
1317.429996011097
 30
0.0
 10
1973.5025791588
 20
1317.464878279706
 30
0.0
 10
1973.463732514809
 20
1317.534375608015
 30
0.0
 10
1973.430436016073
 20
1317.621504585714
 30
0.0
 10
1973.414455914713
 20
1317.665426551034
 30
0.0
 10
1973.408917742972
 20
1317.680648443541
 30
0.0
  0
SPLINE
  5
B7E1
330
1F
100
AcDbEntity
  8
AM_0
100
AcDbSpline
210
0.0
220
0.0
230
1.0
 70
     8
 71
     3
 72
    11
 73
     7
 74
     0
 42
0.0000000001
 43
0.0000000001
 40
0.0
 40
0.0
 40
0.0
 40
0.0
 40
0.3288928406397311
 40
0.6576340607078249
 40
0.9841387008275063
 40
1.0
 40
1.0
 40
1.0
 40
1.0
 10
1973.522077161079
 20
1317.429996011097
 30
0.0
 10
1973.556090224493
 20
1317.384636803023
 30
0.0
 10
1973.624100671136
 20
1317.293939297601
 30
0.0
 10
1973.774223601956
 20
1317.211439562049
 30
0.0
 10
1973.887182006164
 20
1317.189660377732
 30
0.0
 10
1973.944809443625
 20
1317.189399067419
 30
0.0
 10
1973.94747923613
 20
1317.1893869613
 30
0.0
  0
LINE
  5
B7E2
330
1F
100
AcDbEntity
  8
AM_0
100
AcDbLine
 10
1974.455713140976
 20
1317.1893869613
 30
0.0
 11
1973.947479236137
 21
1317.1893869613
 31
0.0
  0
SPLINE
  5
B7E3
330
1F
100
AcDbEntity
  8
AM_0
100
AcDbSpline
210
0.0
220
0.0
230
1.0
 70
    24
 71
     3
 72
    10
 73
     6
 74
     0
 42
0.0000000001
 43
0.0000000001
 40
0.0
 40
0.0
 40
0.0
 40
0.0
 40
0.0545266779042384
 40
0.6145462254681651
 40
1.0
 40
1.0
 40
1.0
 40
1.0
 10
1973.94747923613
 20
1317.1893869613
 30
0.0
 10
1973.946271349052
 20
1317.1893869613
 30
0.0
 10
1973.932657784682
 20
1317.1893869613
 30
0.0
 10
1973.837138315271
 20
1317.1893869613
 30
0.0
 10
1973.647636158059
 20
1317.1893869613
 30
0.0
 10
1973.570379275087
 20
1317.1893869613
 30
0.0
  0
LINE
  5
B7E4
330
1F
100
AcDbEntity
  8
AM_0
100
AcDbLine
 10
1972.498989510548
 20
1317.285812375388
 30
0.0
 11
1972.196656125795
 21
1317.340276119551
 31
0.0
  0
SPLINE
  5
B7E5
330
1F
100
AcDbEntity
  8
AM_0
100
AcDbSpline
210
0.0
220
0.0
230
1.0
 70
     8
 71
     3
 72
    12
 73
     8
 74
     0
 42
0.0000000001
 43
0.0000000001
 40
0.0
 40
0.0
 40
0.0
 40
0.0
 40
0.1520743980119648
 40
0.770059947013713
 40
0.9200788629321571
 40
0.988807402383696
 40
1.0
 40
1.0
 40
1.0
 40
1.0
 10
1973.570379275087
 20
1317.1893869613
 30
0.0
 10
1973.527033097327
 20
1317.18965072178
 30
0.0
 10
1973.307540823635
 20
1317.190986327206
 30
0.0
 10
1972.966077092354
 20
1317.213078853257
 30
0.0
 10
1972.630906300227
 20
1317.262856783015
 30
0.0
 10
1972.536616004058
 20
1317.278999979974
 30
0.0
 10
1972.503611626032
 20
1317.284975526786
 30
0.0
 10
1972.498989510539
 20
1317.285812375388
 30
0.0
  0
LINE
  5
B7E6
330
1F
100
AcDbEntity
  8
AM_0
100
AcDbLine
 10
1975.472654062521
 20
1317.1893869613
 30
0.0
 11
1974.945078450451
 21
1317.1893869613
 31
0.0
  0
LINE
  5
B7E7
330
1F
100
AcDbEntity
  8
AM_0
100
AcDbLine
 10
1975.923702898634
 20
1317.1893869613
 30
0.0
 11
1975.472654062521
 21
1317.1893869613
 31
0.0
  0
SPLINE
  5
B7E8
330
1F
100
AcDbEntity
  8
AM_0
100
AcDbSpline
210
0.0
220
0.0
230
1.0
 70
     8
 71
     3
 72
    20
 73
    16
 74
     0
 42
0.0000000001
 43
0.0000000001
 40
0.0
 40
0.0
 40
0.0
 40
0.0
 40
0.1674811695695967
 40
0.3259685248038936
 40
0.5411196197716503
 40
0.7900352182138716
 40
0.8193300000788601
 40
0.9045719024133827
 40
0.9487432463986172
 40
0.9723438296094798
 40
0.9850582136260872
 40
0.9919234968707256
 40
0.9956197143001272
 40
0.9960380580241567
 40
0.9999999999999998
 40
0.9999999999999998
 40
0.9999999999999998
 40
0.9999999999999998
 10
1953.559356588129
 20
1320.146701214156
 30
0.0
 10
1953.568084758724
 20
1320.056544946549
 30
0.0
 10
1953.585072393197
 20
1319.881073843561
 30
0.0
 10
1953.705574186245
 20
1319.617882885465
 30
0.0
 10
1953.914388964959
 20
1319.372469931336
 30
0.0
 10
1954.131329068349
 20
1319.251285885361
 30
0.0
 10
1954.298916343848
 20
1319.197334299436
 30
0.0
 10
1954.373737966281
 20
1319.179962590323
 30
0.0
 10
1954.446744270931
 20
1319.170093986166
 30
0.0
 10
1954.485313250002
 20
1319.166779176526
 30
0.0
 10
1954.506037340195
 20
1319.165526991292
 30
0.0
 10
1954.517216416733
 20
1319.165056611954
 30
0.0
 10
1954.522488834994
 20
1319.164810963312
 30
0.0
 10
1954.526372873503
 20
1319.164719459996
 30
0.0
 10
1954.528476691123
 20
1319.164646538285
 30
0.0
 10
1954.530379581455
 20
1319.16458058103
 30
0.0
  0
LINE
  5
B7E9
330
1F
100
AcDbEntity
  8
AM_0
100
AcDbLine
 10
1953.559125620139
 20
1320.160097358069
 30
0.0
 11
1953.523701834691
 21
1322.189382192931
 31
0.0
  0
LINE
  5
B7EA
330
1F
100
AcDbEntity
  8
AM_0
100
AcDbLine
 10
1953.559356588136
 20
1320.146701214156
 30
0.0
 11
1953.559125620139
 21
1320.160097358069
 31
0.0
  0
ARC
  5
B7EB
330
1F
100
AcDbEntity
  8
AM_0
100
AcDbCircle
 10
1951.071145745099
 20
1199.214445084192
 30
0.0
 40
120.0000000000001
100
AcDbArc
 50
79.86047025246995
 51
88.34810899908097
  0
LINE
  5
B7EC
330
1F
100
AcDbEntity
  8
AM_0
100
AcDbLine
 10
1953.023704546701
 20
1322.189382192931
 30
0.0
 11
1975.923702898634
 21
1322.189382192931
 31
0.0
  0
LINE
  5
B7ED
330
1F
100
AcDbEntity
  8
AM_0
100
AcDbLine
 10
1975.223707813036
 20
1594.189382073721
 30
0.0
 11
1975.223704087745
 21
1322.189382192931
 31
0.0
  0
LINE
  5
B7EE
330
1F
100
AcDbEntity
  8
AM_0
100
AcDbLine
 10
1973.223703759921
 20
1393.928429958662
 30
0.0
 11
1973.223703759921
 21
1322.189382192931
 31
0.0
  0
LINE
  5
B7EF
330
1F
100
AcDbEntity
  8
AM_0
100
AcDbLine
 10
1953.023704546701
 20
1594.189382073721
 30
0.0
 11
1953.023704546701
 21
1322.189382192931
 31
0.0
  0
LINE
  5
B7F0
330
1F
100
AcDbEntity
  8
AM_0
100
AcDbLine
 10
1975.223700362455
 20
1594.189382073721
 30
0.0
 11
1975.223700362455
 21
1322.189382192931
 31
0.0
  0
LINE
  5
B7F1
330
1F
100
AcDbEntity
  8
AM_0
 48
0.5
100
AcDbLine
 10
1953.023704546701
 20
549.1893820737214
 30
0.0
 11
1953.023704546701
 21
1749.189382073721
 31
0.0
  0
HATCH
  5
B7F2
330
1F
100
AcDbEntity
  8
AM_8
 48
0.5
100
AcDbHatch
 10
0.0
 20
0.0
 30
0.0
210
0.0
220
0.0
230
1.0
  2
ANSI34
 70
     0
 71
     0
 91
        1
 92
        7
 72
     0
 73
     1
 93
        6
 10
1953.023704546701
 20
1749.189382073721
 10
1903.0237045467
 20
1749.189382073721
 10
1903.0237045467
 20
499.1893820737213
 10
2453.023704546703
 20
499.1893820737213
 10
2453.023704546705
 20
549.1893820737214
 10
1953.023704546701
 20
549.1893820737214
 97
        0
 75
     0
 76
     1
 52
0.0
 41
5.0
 77
     0
 78
     4
 53
45.0
 43
8770.123287531456
 44
1169.250100064583
 45
-67.35192090801866
 46
67.35192090801866
 79
     0
 53
45.0
 43
8792.573937531457
 44
1169.250100064583
 45
-67.35192090801866
 46
67.35192090801866
 79
     0
 53
45.0
 43
8815.024587531452
 44
1169.250100064583
 45
-67.35192090801866
 46
67.35192090801866
 79
     0
 53
45.0
 43
8837.475287531454
 44
1169.250100064583
 45
-67.35192090801866
 46
67.35192090801866
 79
     0
 47
0.0
 98
        1
 10
-2410.335707528024
 20
-87.4350142612684
  0
LINE
  5
B7F3
330
1F
100
AcDbEntity
  8
AM_0
 48
0.5
100
AcDbLine
 10
2453.023704546703
 20
549.1893820737214
 30
0.0
 11
1953.023704546701
 21
549.1893820737214
 31
0.0
  0
LINE
  5
B7F4
330
1F
100
AcDbEntity
  8
AM_0
 48
0.5
100
AcDbLine
 10
1953.023704546701
 20
1749.189382073721
 30
0.0
 11
1903.0237045467
 21
1749.189382073721
 31
0.0
  0
LINE
  5
B7F5
330
1F
100
AcDbEntity
  8
AM_3
100
AcDbLine
 10
1957.823704546704
 20
1594.189382073721
 30
0.0
 11
1957.823704546704
 21
1322.189382192931
 31
0.0
  0
LINE
  5
B7F6
330
1F
100
AcDbEntity
  8
HIDDEN
 48
0.5
100
AcDbLine
 10
1953.023704546701
 20
1594.189382073721
 30
0.0
 11
1957.823704546704
 21
1594.189382073721
 31
0.0
  0
LINE
  5
B7F7
330
1F
100
AcDbEntity
  8
HIDDEN
 48
0.5
100
AcDbLine
 10
1953.023704546705
 20
1322.189382192931
 30
0.0
 11
1957.823704546704
 21
1322.189382192931
 31
0.0
  0
LINE
  5
B7F8
330
1F
100
AcDbEntity
  8
AM_0
 48
0.1
100
AcDbLine
 10
1973.570379275087
 20
1599.18937730535
 30
0.0
 11
1975.923702898634
 21
1599.18937730535
 31
0.0
  0
DIMENSION
  5
B7F9
330
1F
100
AcDbEntity
  8
AM_5
100
AcDbDimension
  2
*D17
 10
1953.023704546705
 20
765.9633407638802
 30
0.0
 11
1773.063507522202
 21
765.9633407638802
 31
0.0
 70
   160
  1
取付部板厚：<>
 71
     5
 42
4.799999999999272
  3
SYS$0
100
AcDbAlignedDimension
 13
1957.823704546704
 23
1322.189382192931
 33
0.0
 14
1953.023704546705
 24
1322.189382192931
 34
0.0
100
AcDbRotatedDimension
1001
ACAD_DSTYLE_DIMINSPECT
1070
   396
1000
100%
1070
   395
1000

1070
   394
1070
    33
1070
   393
1070
     0
1001
ACAD
1000
DSTYLE
1002
{
1070
    40
1040
10.0
1002
}
  0
DIMENSION
  5
B7FA
330
1F
100
AcDbEntity
  8
AM_5
100
AcDbDimension
  2
*D18
 10
1953.023704546701
 20
1869.189382073721
 30
0.0
 11
1899.890371213367
 21
1900.189382073721
 31
0.0
 70
    32
 71
     5
 42
22.97870010865904
  3
SYS$0
100
AcDbAlignedDimension
 13
1976.00240465536
 23
1706.734801545518
 33
0.0
 14
1953.023704546701
 24
1749.189382073721
 34
0.0
100
AcDbRotatedDimension
1001
ACAD_DSTYLE_DIMINSPECT
1070
   396
1000
100%
1070
   395
1000

1070
   394
1070
    33
1070
   393
1070
     0
1001
ACAD
1000
DSTYLE
1002
{
1070
    40
1040
10.0
1070
   271
1070
     1
1002
}
  0
DIMENSION
  5
B7FB
330
1F
100
AcDbEntity
  8
AM_5
100
AcDbDimension
  2
*D19
 10
1793.422920643504
 20
1343.189382073725
 30
0.0
 11
1762.422920643503
 21
1458.189382073724
 31
0.0
 70
    32
 71
     5
 42
229.9999999999979
  3
SYS$0
100
AcDbAlignedDimension
 13
1913.422920643504
 23
1573.189382073723
 33
0.0
 14
1913.422920643504
 24
1343.189382073725
 34
0.0
 50
90.0
100
AcDbRotatedDimension
1001
ACAD_DSTYLE_DIMINSPECT
1070
   396
1000
100%
1070
   395
1000

1070
   394
1070
    33
1070
   393
1070
     0
1001
ACAD
1000
DSTYLE
1002
{
1070
    40
1040
10.0
1002
}
  0
DIMENSION
  5
B7FC
330
1F
100
AcDbEntity
  8
AM_5
100
AcDbDimension
  2
*D20
 10
1793.422920643503
 20
1599.18937730535
 30
0.0
 11
1793.422920643503
 21
1733.074243537395
 31
0.0
 70
   160
 71
     5
 42
25.99999523162705
  3
SYS$0
100
AcDbAlignedDimension
 13
1913.422920643504
 23
1573.189382073723
 33
0.0
 14
1973.570379275093
 24
1599.18937730535
 34
0.0
 50
90.0
100
AcDbRotatedDimension
1001
ACAD_DSTYLE_DIMINSPECT
1070
   396
1000
100%
1070
   395
1000

1070
   394
1070
    33
1070
   393
1070
     0
1001
ACAD
1000
DSTYLE
1002
{
1070
    40
1040
10.0
1002
}
  0
DIMENSION
  5
B7FD
330
1F
100
AcDbEntity
  8
AM_5
100
AcDbDimension
  2
*D21
 10
1793.422920643504
 20
1317.1893869613
 30
0.0
 11
1762.422920643503
 21
1264.056053627967
 31
0.0
 70
    32
 71
     5
 42
25.99999511242504
  3
SYS$0
100
AcDbAlignedDimension
 13
1913.422920643504
 23
1343.189382073725
 33
0.0
 14
1973.570379275087
 24
1317.1893869613
 34
0.0
 50
90.0
100
AcDbRotatedDimension
1001
ACAD_DSTYLE_DIMINSPECT
1070
   396
1000
100%
1070
   395
1000

1070
   394
1070
    33
1070
   393
1070
     0
1001
ACAD
1000
DSTYLE
1002
{
1070
    40
1040
10.0
1002
}
  0
DIMENSION
  5
B7FE
330
1F
100
AcDbEntity
  8
AM_5
100
AcDbDimension
  2
*D22
 10
1693.422920643504
 20
1317.189386961284
 30
0.0
 11
1662.422920643503
 21
1458.189382133317
 31
0.0
 70
    32
 71
     5
 42
281.9999903440662
  3
SYS$0
100
AcDbAlignedDimension
 13
1973.570379275093
 23
1599.18937730535
 33
0.0
 14
1973.570379275093
 24
1317.189386961284
 34
0.0
 50
90.0
100
AcDbRotatedDimension
1001
ACAD
1000
DSTYLE
1002
{
1070
    40
1040
10.0
1002
}
1001
ACAD_DSTYLE_DIMINSPECT
1070
   396
1000
100%
1070
   395
1000

1070
   394
1070
    33
1070
   393
1070
     0
  0
DIMENSION
  5
B7FF
330
1F
100
AcDbEntity
  8
AM_5
100
AcDbDimension
  2
*D23
 10
1693.422920643436
 20
919.1893798087486
 30
0.0
 11
1662.422920643435
 21
1118.189383385025
 31
0.0
 70
    32
 71
     5
 42
398.0000071525516
  3
SYS$0
100
AcDbAlignedDimension
 13
1973.570379275087
 23
1317.1893869613
 33
0.0
 14
1976.267416979081
 24
919.1893798087484
 34
0.0
 50
90.0
100
AcDbRotatedDimension
1001
ACAD
1000
DSTYLE
1002
{
1070
    40
1040
10.0
1002
}
1001
ACAD_DSTYLE_DIMINSPECT
1070
   396
1000
100%
1070
   395
1000

1070
   394
1070
    33
1070
   393
1070
     0
  0
DIMENSION
  5
B800
330
1F
100
AcDbEntity
  8
AM_5
100
AcDbDimension
  2
*D24
 10
1593.42292064341
 20
549.1893820737215
 30
0.0
 11
1562.422920643409
 21
734.1893809412352
 31
0.0
 70
    32
 71
     5
 42
369.999997735027
  3
SYS$0
100
AcDbAlignedDimension
 13
1976.267416483572
 23
919.1893798087484
 33
0.0
 14
1953.023704546701
 24
549.1893820737214
 34
0.0
 50
90.0
100
AcDbRotatedDimension
1001
ACAD
1000
DSTYLE
1002
{
1070
    40
1040
10.0
1002
}
1001
ACAD_DSTYLE_DIMINSPECT
1070
   396
1000
100%
1070
   395
1000

1070
   394
1070
    33
1070
   393
1070
     0
  0
DIMENSION
  5
B801
330
1F
100
AcDbEntity
  8
AM_5
100
AcDbDimension
  2
*D25
 10
1593.42292064341
 20
919.1893798087486
 30
0.0
 11
1562.422920643409
 21
1297.189383504235
 31
0.0
 70
    32
 71
     5
 42
756.0000073909726
  3
SYS$0
100
AcDbAlignedDimension
 13
1976.76399614216
 23
1675.189387199721
 33
0.0
 14
1976.267416483572
 24
919.1893798087484
 34
0.0
 50
90.0
100
AcDbRotatedDimension
1001
ACAD
1000
DSTYLE
1002
{
1070
    40
1040
10.0
1002
}
1001
ACAD_DSTYLE_DIMINSPECT
1070
   396
1000
100%
1070
   395
1000

1070
   394
1070
    33
1070
   393
1070
     0
  0
LINE
  5
B802
330
1F
100
AcDbEntity
  8
AM_0
100
AcDbLine
 10
2453.023704546703
 20
549.1893820737214
 30
0.0
 11
2453.023704546703
 21
499.1893820737213
 31
0.0
  0
LINE
  5
B803
330
1F
100
AcDbEntity
  8
AM_0
100
AcDbLine
 10
1981.262404655333
 20
922.1893820737051
 30
0.0
 11
1981.262404655339
 21
1670.189382073704
 31
0.0
  0
LINE
  5
B804
330
1F
100
AcDbEntity
  8
AM_0
100
AcDbLine
 10
1981.262404655339
 20
1706.734801545518
 30
0.0
 11
1981.262404655344
 21
2045.189382073703
 31
0.0
  0
LINE
  5
B805
330
1F
100
AcDbEntity
  8
AM_0
100
AcDbLine
 10
1981.742404655358
 20
922.1893820737051
 30
0.0
 11
1981.742404655365
 21
1670.189382073704
 31
0.0
  0
LINE
  5
B806
330
1F
100
AcDbEntity
  8
AM_0
100
AcDbLine
 10
1981.742404655365
 20
1706.734801545518
 30
0.0
 11
1981.742404655368
 21
2045.189382073703
 31
0.0
  0
LINE
  5
B807
330
1F
100
AcDbEntity
  8
AM_0
100
AcDbLine
 10
1976.002404655353
 20
922.1893820737051
 30
0.0
 11
1976.00240465536
 21
1670.189382073704
 31
0.0
  0
LINE
  5
B808
330
1F
100
AcDbEntity
  8
AM_0
100
AcDbLine
 10
1976.00240465536
 20
1706.734801545518
 30
0.0
 11
1976.002404655364
 21
2045.189382073703
 31
0.0
  0
LINE
  5
B809
330
1F
100
AcDbEntity
  8
AM_0
100
AcDbLine
 10
2023.252404655335
 20
922.1893820737051
 30
0.0
 11
2023.252404655342
 21
1670.189382073704
 31
0.0
  0
LINE
  5
B80A
330
1F
100
AcDbEntity
  8
AM_0
100
AcDbLine
 10
2023.252404655342
 20
1706.734801545518
 30
0.0
 11
2023.252404655346
 21
2045.189382073703
 31
0.0
  0
LINE
  5
B80B
330
1F
100
AcDbEntity
  8
AM_2
 48
0.1
370
    15
100
AcDbLine
 10
1997.226894959199
 20
2045.189382073703
 30
0.0
 11
1997.226894959197
 21
1706.734801545518
 31
0.0
  0
LINE
  5
B80C
330
1F
100
AcDbEntity
  8
AM_2
 48
0.1
370
    15
100
AcDbLine
 10
1997.226894959197
 20
1670.189382073704
 30
0.0
 11
1997.226894959193
 21
922.1893820737051
 31
0.0
  0
LINE
  5
B80D
330
1F
100
AcDbEntity
  8
AM_2
 48
0.1
370
    15
100
AcDbLine
 10
2002.857335198079
 20
2045.189382073703
 30
0.0
 11
2002.857335198079
 21
1706.734801545518
 31
0.0
  0
LINE
  5
B80E
330
1F
100
AcDbEntity
  8
AM_2
 48
0.1
370
    15
100
AcDbLine
 10
2002.857335198079
 20
1670.189382073704
 30
0.0
 11
2002.857335198079
 21
922.1893820737051
 31
0.0
  0
LINE
  5
B80F
330
1F
100
AcDbEntity
  8
AM_0
100
AcDbLine
 10
2023.452408040886
 20
1674.189390179936
 30
0.0
 11
2023.452408040886
 21
1671.975554463689
 31
0.0
  0
ARC
  5
B810
330
1F
100
AcDbEntity
  8
AM_0
100
AcDbCircle
 10
2022.452406450598
 20
1674.189401147206
 30
0.0
 40
0.9999999999999428
100
AcDbArc
 50
0.0
 51
90.0
  0
ARC
  5
B811
330
1F
100
AcDbEntity
  8
AM_0
100
AcDbCircle
 10
1976.802404655376
 20
1674.189382073699
 30
0.0
 40
0.9999999999999428
100
AcDbArc
 50
90.0
 51
180.0
  0
LINE
  5
B812
330
1F
100
AcDbEntity
  8
AM_0
100
AcDbLine
 10
1975.802404655316
 20
1674.189382073699
 30
0.0
 11
1975.802404655316
 21
1670.189382073704
 31
0.0
  0
LINE
  5
B813
330
1F
100
AcDbEntity
  8
AM_0
100
AcDbLine
 10
2022.452404655325
 20
1675.189382073705
 30
0.0
 11
1976.802404655376
 21
1675.189382073705
 31
0.0
  0
LINE
  5
B814
330
1F
100
AcDbEntity
  8
AM_0
100
AcDbLine
 10
2023.452404655314
 20
1670.189382073704
 30
0.0
 11
1975.802404655316
 21
1670.189382073704
 31
0.0
  0
LINE
  5
B815
330
1F
100
AcDbEntity
  8
AM_0
100
AcDbLine
 10
2023.452404655313
 20
1674.189382073699
 30
0.0
 11
2023.452404655313
 21
1670.189382073704
 31
0.0
  0
ARC
  5
B816
330
1F
100
AcDbEntity
  8
AM_0
100
AcDbCircle
 10
2022.452404655325
 20
1674.189382073699
 30
0.0
 40
0.9999999999999428
100
AcDbArc
 50
0.0
 51
90.0
  0
LINE
  5
B817
330
1F
100
AcDbEntity
  8
AM_0
100
AcDbLine
 10
1977.002404655338
 20
922.1893820737051
 30
0.0
 11
1975.802404655311
 21
922.1893820737051
 31
0.0
  0
ARC
  5
B818
330
1F
100
AcDbEntity
  8
AM_0
100
AcDbCircle
 10
1976.802404655367
 20
920.1893820736975
 30
0.0
 40
0.9999999999999428
100
AcDbArc
 50
180.0
 51
270.0
  0
LINE
  5
B819
330
1F
100
AcDbEntity
  8
AM_0
100
AcDbLine
 10
1975.802404655311
 20
920.1893820736975
 30
0.0
 11
1975.802404655311
 21
922.1893820737051
 31
0.0
  0
LINE
  5
B81A
330
1F
100
AcDbEntity
  8
AM_0
100
AcDbLine
 10
2020.252404655309
 20
922.1893820737051
 30
0.0
 11
2008.131742870513
 21
922.1893820737051
 31
0.0
  0
LINE
  5
B81B
330
1F
100
AcDbEntity
  8
AM_0
100
AcDbLine
 10
2020.252404655309
 20
919.1893820737121
 30
0.0
 11
2008.131742870513
 21
919.1893820737121
 31
0.0
  0
LINE
  5
B81C
330
1F
100
AcDbEntity
  8
AM_0
100
AcDbLine
 10
1996.66178210338
 20
922.1893820737051
 30
0.0
 11
1988.809069471151
 21
922.1893820737051
 31
0.0
  0
LINE
  5
B81D
330
1F
100
AcDbEntity
  8
AM_0
100
AcDbLine
 10
1996.66178210338
 20
919.1893820737121
 30
0.0
 11
1988.809069471151
 21
919.1893820737121
 31
0.0
  0
LINE
  5
B81E
330
1F
100
AcDbEntity
  8
AM_0
100
AcDbLine
 10
1997.697778559716
 20
922.1893820737051
 30
0.0
 11
1996.66178210338
 21
922.1893820737051
 31
0.0
  0
LINE
  5
B81F
330
1F
100
AcDbEntity
  8
AM_0
100
AcDbLine
 10
1998.067777294179
 20
919.1893820737121
 30
0.0
 11
1996.66178210338
 21
919.1893820737121
 31
0.0
  0
LINE
  5
B820
330
1F
100
AcDbEntity
  8
AM_0
100
AcDbLine
 10
1988.809069471151
 20
922.1893820737051
 30
0.0
 11
1985.910679240967
 21
922.1893820737051
 31
0.0
  0
LINE
  5
B821
330
1F
100
AcDbEntity
  8
AM_0
100
AcDbLine
 10
1988.809069471151
 20
919.1893820737121
 30
0.0
 11
1985.410956787434
 21
919.1893820737121
 31
0.0
  0
LINE
  5
B822
330
1F
100
AcDbEntity
  8
AM_0
100
AcDbLine
 10
1985.910679240967
 20
922.1893820737051
 30
0.0
 11
1985.398184098573
 21
922.1893820737051
 31
0.0
  0
LINE
  5
B823
330
1F
100
AcDbEntity
  8
AM_0
100
AcDbLine
 10
1985.410956787434
 20
919.1893820737121
 30
0.0
 11
1984.89846164511
 21
919.1893820737121
 31
0.0
  0
LINE
  5
B824
330
1F
100
AcDbEntity
  8
AM_0
100
AcDbLine
 10
1985.398184098573
 20
922.1893820737051
 30
0.0
 11
1983.7990722474
 21
922.1893820737051
 31
0.0
  0
LINE
  5
B825
330
1F
100
AcDbEntity
  8
AM_0
100
AcDbLine
 10
1984.89846164511
 20
919.1893820737121
 30
0.0
 11
1983.7990722474
 21
919.1893820737121
 31
0.0
  0
LINE
  5
B826
330
1F
100
AcDbEntity
  8
AM_0
100
AcDbLine
 10
1977.002404655338
 20
919.1893820737121
 30
0.0
 11
1976.802404655367
 21
919.1893820737121
 31
0.0
  0
LINE
  5
B827
330
1F
100
AcDbEntity
  8
AM_0
100
AcDbLine
 10
1983.7990722474
 20
922.1893820737051
 30
0.0
 11
1977.002404655338
 21
922.1893820737051
 31
0.0
  0
LINE
  5
B828
330
1F
100
AcDbEntity
  8
AM_0
100
AcDbLine
 10
1983.7990722474
 20
919.1893820737121
 30
0.0
 11
1977.002404655338
 21
919.1893820737121
 31
0.0
  0
LINE
  5
B829
330
1F
100
AcDbEntity
  8
AM_0
100
AcDbLine
 10
2008.131742870513
 20
922.1893820737051
 30
0.0
 11
1997.697778559716
 21
922.1893820737051
 31
0.0
  0
LINE
  5
B82A
330
1F
100
AcDbEntity
  8
AM_0
100
AcDbLine
 10
2008.131742870513
 20
919.1893820737121
 30
0.0
 11
1998.067777294179
 21
919.1893820737121
 31
0.0
  0
LINE
  5
B82B
330
1F
100
AcDbEntity
  8
AM_0
100
AcDbLine
 10
2023.452404655306
 20
922.1893820737051
 30
0.0
 11
2020.252404655309
 21
922.1893820737051
 31
0.0
  0
LINE
  5
B82C
330
1F
100
AcDbEntity
  8
AM_0
100
AcDbLine
 10
2023.452404655306
 20
920.1893820736975
 30
0.0
 11
2023.452404655306
 21
922.1893820737051
 31
0.0
  0
LINE
  5
B82D
330
1F
100
AcDbEntity
  8
AM_0
100
AcDbLine
 10
2022.452404655317
 20
919.1893820737121
 30
0.0
 11
2020.252404655309
 21
919.1893820737121
 31
0.0
  0
ARC
  5
B82E
330
1F
100
AcDbEntity
  8
AM_0
100
AcDbCircle
 10
2022.452404655317
 20
920.1893820736975
 30
0.0
 40
0.9999999999998719
100
AcDbArc
 50
270.0
 51
0.0
  0
ARC
  5
B82F
330
1F
100
AcDbEntity
  8
AM_2
100
AcDbCircle
 10
2018.763370527498
 20
928.0115344957275
 30
0.0
 40
7.210308308054888
100
AcDbArc
 50
355.7690909296255
 51
4.230909070374453
  0
ARC
  5
B830
330
1F
100
AcDbEntity
  8
AM_2
100
AcDbCircle
 10
2024.728239428781
 20
927.385763336878
 30
0.0
 40
1.686083500717879
100
AcDbArc
 50
32.77602717025617
 51
43.36415756461393
  0
SPLINE
  5
B831
330
1F
100
AcDbEntity
  8
AM_2
100
AcDbSpline
210
0.0
220
0.0
230
1.0
 70
     8
 71
     3
 72
     9
 73
     5
 74
     0
 42
0.0000000001
 43
0.0000000001
 40
0.0
 40
0.0
 40
0.0
 40
0.0
 40
0.6889752934585283
 40
1.0
 40
1.0
 40
1.0
 40
1.0
 10
2026.186172317668
 20
928.2904955304941
 30
0.0
 10
2026.179331955109
 20
928.2854067683173
 30
0.0
 10
2026.169403641792
 20
928.2780207818696
 30
0.0
 10
2026.15146599403
 20
928.2936686639104
 30
0.0
 10
2026.145886942469
 20
928.2985355418013
 30
0.0
  0
SPLINE
  5
B832
330
1F
100
AcDbEntity
  8
AM_2
100
AcDbSpline
210
0.0
220
0.0
230
1.0
 70
     8
 71
     3
 72
    10
 73
     6
 74
     0
 42
0.0000000001
 43
0.0000000001
 40
0.0
 40
0.0
 40
0.0
 40
0.0
 40
0.1934342676342652
 40
0.6052533626658661
 40
1.0
 40
1.0
 40
1.0
 40
1.0
 10
2026.145886942469
 20
928.8141998092715
 30
0.0
 10
2026.158312964211
 20
928.7648221357622
 30
0.0
 10
2026.197193828253
 20
928.6103200234872
 30
0.0
 10
2026.233003301271
 20
928.4017312658516
 30
0.0
 10
2026.220704914027
 20
928.330457111787
 30
0.0
 10
2026.214685879369
 20
928.295574359533
 30
0.0
  0
SPLINE
  5
B833
330
1F
100
AcDbEntity
  8
AM_2
100
AcDbSpline
210
0.0
220
0.0
230
1.0
 70
     8
 71
     3
 72
    11
 73
     7
 74
     0
 42
0.0000000001
 43
0.0000000001
 40
0.0
 40
0.0
 40
0.0
 40
0.0
 40
0.0122146441132022
 40
0.3572808696832175
 40
0.6880419583377049
 40
1.0
 40
1.0
 40
1.0
 40
1.0
 10
2026.178730598958
 20
927.2486449778323
 30
0.0
 10
2026.179628436528
 20
927.2514717374242
 30
0.0
 10
2026.205890369327
 20
927.3341550402372
 30
0.0
 10
2026.22908290972
 20
927.5566091753381
 30
0.0
 10
2026.224893057207
 20
927.9197121378336
 30
0.0
 10
2026.183927331539
 20
928.1666817744801
 30
0.0
 10
2026.164043704351
 20
928.2865539870353
 30
0.0
  0
SPLINE
  5
B834
330
1F
100
AcDbEntity
  8
AM_2
100
AcDbSpline
210
0.0
220
0.0
230
1.0
 70
     8
 71
     3
 72
    11
 73
     7
 74
     0
 42
0.0000000001
 43
0.0000000001
 40
0.0
 40
0.0
 40
0.0
 40
0.0
 40
0.1599128296385191
 40
0.5003652096180887
 40
0.8267037252204973
 40
1.0
 40
1.0
 40
1.0
 40
1.0
 10
2026.145886942469
 20
925.5645643381241
 30
0.0
 10
2026.158406037092
 20
925.6141903388442
 30
0.0
 10
2026.197578125009
 20
925.7694694638731
 30
0.0
 10
2026.229352125386
 20
925.9672911998903
 30
0.0
 10
2026.227735096081
 20
926.0941161238253
 30
0.0
 10
2026.196875753766
 20
926.0897744935308
 30
0.0
 10
2026.186172317668
 20
926.0882686169015
 30
0.0
  0
ARC
  5
B835
330
1F
100
AcDbEntity
  8
AM_2
100
AcDbCircle
 10
2020.673546046725
 20
926.9942733996167
 30
0.0
 40
5.656021824583182
100
AcDbArc
 50
339.0037358999447
 51
345.3581313656906
  0
ARC
  5
B836
330
1F
100
AcDbEntity
  8
AM_2
100
AcDbCircle
 10
2024.757487419387
 20
925.1859812010835
 30
0.0
 40
1.21629270902062
100
AcDbArc
 50
349.6605163877924
 51
10.33948361220756
  0
ARC
  5
B837
330
1F
100
AcDbEntity
  8
AM_2
100
AcDbCircle
 10
2020.673546046649
 20
927.4308742841995
 30
0.0
 40
5.656021824709736
100
AcDbArc
 50
339.0037358999447
 51
345.3581313656906
  0
SPLINE
  5
B838
330
1F
100
AcDbEntity
  8
AM_2
100
AcDbSpline
210
0.0
220
0.0
230
1.0
 70
     8
 71
     3
 72
    12
 73
     8
 74
     0
 42
0.0000000001
 43
0.0000000001
 40
0.0
 40
0.0
 40
0.0
 40
0.0
 40
0.1316630312848348
 40
0.4119719499473613
 40
0.6806603240216969
 40
0.9450551574712648
 40
0.9999999999999998
 40
0.9999999999999998
 40
0.9999999999999998
 40
0.9999999999999998
 10
2026.145886942469
 20
927.2346372066195
 30
0.0
 10
2026.158369590952
 20
927.1984868538227
 30
0.0
 10
2026.197427639113
 20
927.0853728598403
 30
0.0
 10
2026.230781880747
 20
926.8243088182016
 30
0.0
 10
2026.222489728084
 20
926.4548042858033
 30
0.0
 10
2026.182800373133
 20
926.1722616315774
 30
0.0
 10
2026.151305821798
 20
926.0262821184252
 30
0.0
 10
2026.145886942469
 20
926.001165222661
 30
0.0
  0
ARC
  5
B839
330
1F
100
AcDbEntity
  8
AM_2
100
AcDbCircle
 10
2024.728239428712
 20
926.3218650016668
 30
0.0
 40
1.68608350075165
100
AcDbArc
 50
32.77602717034913
 51
43.36415756454214
  0
LINE
  5
B83A
330
1F
100
AcDbEntity
  8
AM_2
100
AcDbLine
 10
2024.975880038304
 20
923.1893820737051
 30
0.0
 11
2024.975880038304
 21
931.1893820736996
 31
0.0
  0
LINE
  5
B83B
330
1F
100
AcDbEntity
  8
AM_2
100
AcDbLine
 10
2025.969720834813
 20
928.2566504072919
 30
0.0
 11
2026.187466697427
 21
928.2757007017963
 31
0.0
  0
ARC
  5
B83C
330
1F
100
AcDbEntity
  8
AM_2
100
AcDbCircle
 10
2019.85240465537
 20
927.189382073705
 30
0.0
 40
6.500000000000202
100
AcDbArc
 50
322.0201275551378
 51
345.9054585467757
  0
ARC
  5
B83D
330
1F
100
AcDbEntity
  8
AM_2
100
AcDbCircle
 10
2019.85240465537
 20
927.189382073705
 30
0.0
 40
6.500000000000187
100
AcDbArc
 50
13.96802056601923
 51
37.97987244486218
  0
LINE
  5
B83E
330
1F
100
AcDbEntity
  8
AM_2
100
AcDbLine
 10
2024.975880038304
 20
931.1893820736996
 30
0.0
 11
2023.252404655335
 21
931.1893820736996
 31
0.0
  0
LINE
  5
B83F
330
1F
100
AcDbEntity
  8
AM_2
100
AcDbLine
 10
2023.252404655335
 20
923.1893820737051
 30
0.0
 11
2024.975880038304
 21
923.1893820737051
 31
0.0
  0
DIMENSION
  5
B840
330
1F
100
AcDbEntity
  8
AM_5
100
AcDbDimension
  2
*D26
 10
1953.023704546701
 20
2162.969768152366
 30
0.0
 11
1988.238054601012
 21
2193.969768152366
 31
0.0
 70
    32
 71
     5
 42
70.42870010862293
  3
SYS$0
100
AcDbAlignedDimension
 13
2023.452404655324
 23
2049.1893820737
 33
0.0
 14
1953.023704546701
 24
1749.189382073721
 34
0.0
100
AcDbRotatedDimension
1001
ACAD_DSTYLE_DIMINSPECT
1070
   396
1000
100%
1070
   395
1000

1070
   394
1070
    33
1070
   393
1070
     0
1001
ACAD
1000
DSTYLE
1002
{
1070
    40
1040
10.0
1070
   271
1070
     0
1002
}
  0
LINE
  5
B841
330
1F
100
AcDbEntity
  8
AM_0
100
AcDbLine
 10
2023.452408040886
 20
2049.189390179937
 30
0.0
 11
2023.452408040886
 21
2046.975554463689
 31
0.0
  0
ARC
  5
B842
330
1F
100
AcDbEntity
  8
AM_0
100
AcDbCircle
 10
2022.452406450598
 20
2049.189401147206
 30
0.0
 40
0.9999999999999428
100
AcDbArc
 50
0.0
 51
90.0
  0
ARC
  5
B843
330
1F
100
AcDbEntity
  8
AM_0
100
AcDbCircle
 10
1976.802404655376
 20
2049.1893820737
 30
0.0
 40
0.9999999999999428
100
AcDbArc
 50
90.0
 51
180.0
  0
LINE
  5
B844
330
1F
100
AcDbEntity
  8
AM_0
100
AcDbLine
 10
1975.802404655316
 20
2045.189382073705
 30
0.0
 11
1975.802404655316
 21
2049.1893820737
 31
0.0
  0
LINE
  5
B845
330
1F
100
AcDbEntity
  8
AM_0
100
AcDbLine
 10
2022.452404655325
 20
2050.189382073705
 30
0.0
 11
1976.802404655376
 21
2050.189382073705
 31
0.0
  0
LINE
  5
B846
330
1F
100
AcDbEntity
  8
AM_0
100
AcDbLine
 10
2023.452404655313
 20
2045.189382073705
 30
0.0
 11
1975.802404655316
 21
2045.189382073705
 31
0.0
  0
LINE
  5
B847
330
1F
100
AcDbEntity
  8
AM_0
100
AcDbLine
 10
2023.452404655313
 20
2049.1893820737
 30
0.0
 11
2023.452404655313
 21
2045.189382073705
 31
0.0
  0
ARC
  5
B848
330
1F
100
AcDbEntity
  8
AM_0
100
AcDbCircle
 10
2022.452404655325
 20
2049.1893820737
 30
0.0
 40
0.9999999999999428
100
AcDbArc
 50
0.0
 51
90.0
  0
DIMENSION
  5
B849
330
1F
100
AcDbEntity
  8
AM_5
100
AcDbDimension
  2
*D27
 10
1593.422920643416
 20
1675.189382073705
 30
0.0
 11
1562.422920643415
 21
1862.689382073705
 31
0.0
 70
    32
 71
     5
 42
375.0000000000002
  3
SYS$0
100
AcDbAlignedDimension
 13
1976.802404655376
 23
2050.189382073705
 33
0.0
 14
1976.802404655376
 24
1675.189382073705
 34
0.0
 50
90.0
100
AcDbRotatedDimension
1001
ACAD_DSTYLE_DIMINSPECT
1070
   396
1000
100%
1070
   395
1000

1070
   394
1070
    33
1070
   393
1070
     0
1001
ACAD
1000
DSTYLE
1002
{
1070
    40
1040
10.0
1002
}
  0
LINE
  5
B84A
330
1F
100
AcDbEntity
  8
AM_2
100
AcDbLine
 10
1670.148938320017
 20
2804.999998078888
 30
0.0
 11
2635.243012517867
 21
2804.999998078888
 31
0.0
  0
TEXT
  5
B84B
330
1F
100
AcDbEntity
  8
AM_6
100
AcDbText
 10
1693.846223343381
 20
2828.999998078888
 30
0.0
 40
32.0
  1
対応品番：KAシリーズ・KBシリーズ
 41
0.85537027
100
AcDbText
  0
ARC
  5
B84C
330
1F
100
AcDbEntity
  8
003
  6
想像線1
 48
0.5
370
    13
100
AcDbCircle
 10
2116.002404655341
 20
1688.689382073712
 30
0.0
 40
27.5
100
AcDbArc
 50
0.0
 51
180.0
  0
LINE
  5
B84D
330
1F
100
AcDbEntity
  8
003
  6
想像線1
 48
0.5
370
    13
100
AcDbLine
 10
2143.502404655345
 20
1347.032974245972
 30
0.0
 11
2143.502404655345
 21
1229.18938207371
 31
0.0
  0
LINE
  5
B84E
330
1F
100
AcDbEntity
  8
003
  6
想像線1
 48
0.5
370
    13
100
AcDbLine
 10
2098.502404655349
 20
1191.189382073714
 30
0.0
 11
2098.502404655349
 21
1323.989382073713
 31
0.0
  0
LINE
  5
B84F
330
1F
100
AcDbEntity
  8
003
  6
想像線1
 48
0.5
370
    13
100
AcDbLine
 10
2088.502404655349
 20
1260.189382073712
 30
0.0
 11
2088.502404655349
 21
1178.506006864068
 31
0.0
  0
ARC
  5
B850
330
1F
100
AcDbEntity
  8
003
  6
想像線1
 48
0.5
370
    13
100
AcDbCircle
 10
2079.052902105829
 20
1180.391821406584
 30
0.0
 40
1.000000000000405
100
AcDbArc
 50
84.79001259719984
 51
173.6206297915455
  0
ARC
  5
B851
330
1F
100
AcDbEntity
  8
003
  6
想像線1
 48
0.5
370
    13
100
AcDbCircle
 10
2083.502404655349
 20
1229.18938207371
 30
0.0
 40
59.99999999999985
100
AcDbArc
 50
264.5917912004804
 51
270.0
  0
LINE
  5
B852
330
1F
100
AcDbEntity
  8
003
  6
想像線1
 48
0.5
370
    13
100
AcDbLine
 10
2078.059094115827
 20
1180.502932517695
 30
0.0
 11
2076.947790787014
 21
1170.563133370278
 31
0.0
  0
ARC
  5
B853
330
1F
100
AcDbEntity
  8
003
  6
想像線1
 48
0.5
370
    13
100
AcDbCircle
 10
2077.941598777012
 20
1170.452022259164
 30
0.0
 40
1.000000000000279
100
AcDbArc
 50
173.6206297915455
 51
264.5917912004804
  0
LINE
  5
B854
330
1F
100
AcDbEntity
  8
003
  6
想像線1
 48
0.5
370
    13
100
AcDbLine
 10
2076.947790787014
 20
1170.563133370278
 30
0.0
 11
2076.947790787014
 21
1170.340911148048
 31
0.0
  0
ARC
  5
B855
330
1F
100
AcDbEntity
  8
003
  6
想像線1
 48
0.5
370
    13
100
AcDbCircle
 10
2083.502404655344
 20
1229.189382073712
 30
0.0
 40
60.00000000000092
100
AcDbArc
 50
275.937772451621
 51
0.0
  0
LINE
  5
B856
330
1F
100
AcDbEntity
  8
003
  6
想像線1
 48
0.5
370
    13
100
AcDbLine
 10
2078.502404655341
 20
1229.189382073712
 30
0.0
 11
2078.502404655341
 21
1184.468022523712
 31
0.0
  0
LINE
  5
B857
330
1F
100
AcDbEntity
  8
003
  6
想像線1
 48
0.5
370
    13
100
AcDbLine
 10
2078.502404655341
 20
1184.468022523712
 30
0.0
 11
2078.059094115827
 21
1180.502932517695
 31
0.0
  0
LINE
  5
B858
330
1F
100
AcDbEntity
  8
003
  6
想像線1
 48
0.5
370
    13
100
AcDbLine
 10
2107.228541385427
 20
1176.075269903419
 30
0.0
 11
2098.502404655349
 21
1191.189382073714
 31
0.0
  0
ARC
  5
B859
330
1F
100
AcDbEntity
  8
003
  6
想像線1
 48
0.5
370
    13
100
AcDbCircle
 10
2083.502404655349
 20
1229.18938207371
 30
0.0
 40
48.00000000000011
100
AcDbArc
 50
264.7900125971998
 51
270.0
  0
ARC
  5
B85A
330
1F
100
AcDbEntity
  8
003
  6
想像線1
 48
0.5
370
    13
100
AcDbCircle
 10
2083.502404655344
 20
1229.189382073712
 30
0.0
 40
60.0
100
AcDbArc
 50
270.0
 51
275.937772451621
  0
ARC
  5
B85B
330
1F
100
AcDbEntity
  8
003
  6
想像線1
 48
0.5
370
    13
100
AcDbCircle
 10
2108.960592192995
 20
1177.075269903419
 30
0.0
 40
2.0
100
AcDbArc
 50
210.0
 51
296.0359029922598
  0
ARC
  5
B85C
330
1F
100
AcDbEntity
  8
003
  6
想像線1
 48
0.5
370
    13
100
AcDbCircle
 10
2083.502404655349
 20
1175.18938207371
 30
0.0
 40
5.999999999999943
100
AcDbArc
 50
270.0
 51
90.0
  0
LINE
  5
B85D
330
1F
100
AcDbEntity
  8
003
  6
想像線1
 48
0.5
370
    13
100
AcDbLine
 10
2083.508423861699
 20
1234.189378450625
 30
0.0
 11
2083.496385448976
 21
1234.189378450625
 31
0.0
  0
ARC
  5
B85E
330
1F
100
AcDbEntity
  8
003
  6
想像線1
 48
0.5
370
    13
100
AcDbCircle
 10
2088.002404655349
 20
1234.689378450624
 30
0.0
 40
0.5
100
AcDbArc
 50
270.0
 51
0.0
  0
LINE
  5
B85F
330
1F
100
AcDbEntity
  8
003
  6
想像線1
 48
0.5
370
    13
100
AcDbLine
 10
2083.50842386171
 20
1234.189378450625
 30
0.0
 11
2088.002404655349
 21
1234.189378450625
 31
0.0
  0
CIRCLE
  5
B860
330
1F
100
AcDbEntity
  8
003
  6
想像線1
 48
0.5
370
    13
100
AcDbCircle
 10
2083.502404655344
 20
1229.189382073712
 30
0.0
 40
5.0
  0
LINE
  5
B861
330
1F
100
AcDbEntity
  8
003
  6
想像線1
 48
0.5
370
    13
100
AcDbLine
 10
2091.502404655349
 20
1262.787458285066
 30
0.0
 11
2091.502404655341
 21
1538.957976848501
 31
0.0
  0
LINE
  5
B862
330
1F
100
AcDbEntity
  8
003
  6
想像線1
 48
0.5
370
    13
100
AcDbLine
 10
2088.502404655342
 20
1538.957976848501
 30
0.0
 11
2088.502404655349
 21
1260.189382073712
 31
0.0
  0
LINE
  5
B863
330
1F
100
AcDbEntity
  8
003
  6
想像線1
 48
0.5
370
    13
100
AcDbLine
 10
2143.502404655345
 20
1507.032974245977
 30
0.0
 11
2143.502404655345
 21
1470.345789901451
 31
0.0
  0
LINE
  5
B864
330
1F
100
AcDbEntity
  8
003
  6
想像線1
 48
0.5
370
    13
100
AcDbLine
 10
2138.502404655344
 20
1511.340030500793
 30
0.0
 11
2138.502404655344
 21
1466.038733646633
 31
0.0
  0
LINE
  5
B865
330
1F
100
AcDbEntity
  8
003
  6
想像線1
 48
0.4
370
    13
100
AcDbLine
 10
2098.502404655349
 20
1413.389382073715
 30
0.0
 11
2098.502404655349
 21
1483.989382073713
 31
0.0
  0
LINE
  5
B866
330
1F
100
AcDbEntity
  8
003
  6
想像線1
 48
0.4
370
    13
100
AcDbLine
 10
2101.002404655371
 20
1413.389382073715
 30
0.0
 11
2101.002404655371
 21
1483.989382073713
 31
0.0
  0
CIRCLE
  5
B867
330
1F
100
AcDbEntity
  8
003
  6
想像線1
 48
0.5
370
    13
100
AcDbCircle
 10
2123.502404655371
 20
1368.689382073712
 30
0.0
 40
22.0
  0
ARC
  5
B868
330
1F
100
AcDbEntity
  8
003
  6
想像線1
 48
0.5
370
    13
100
AcDbCircle
 10
2123.502404655371
 20
1368.689382073712
 30
0.0
 40
27.0
100
AcDbArc
 50
324.1752256312692
 51
35.82477436873082
  0
LINE
  5
B869
330
1F
100
AcDbEntity
  8
003
  6
想像線1
 48
0.4
370
    13
100
AcDbLine
 10
2098.502404655349
 20
1333.389382073715
 30
0.0
 11
2098.502404655349
 21
1403.989382073713
 31
0.0
  0
LINE
  5
B86A
330
1F
100
AcDbEntity
  8
003
  6
想像線1
 48
0.4
370
    13
100
AcDbLine
 10
2101.002404655371
 20
1333.389382073715
 30
0.0
 11
2101.002404655371
 21
1403.989382073713
 31
0.0
  0
LINE
  5
B86B
330
1F
100
AcDbEntity
  8
003
  6
想像線1
 48
0.5
370
    13
100
AcDbLine
 10
2138.502404655344
 20
1351.34003050079
 30
0.0
 11
2138.502404655344
 21
1264.189382073712
 31
0.0
  0
LINE
  5
B86C
330
1F
100
AcDbEntity
  8
003
  6
想像線1
 48
0.5
370
    13
100
AcDbLine
 10
2101.002404655371
 20
1264.189382073712
 30
0.0
 11
2101.002404655371
 21
1323.989382073713
 31
0.0
  0
ARC
  5
B86D
330
1F
100
AcDbEntity
  8
003
  6
想像線1
 48
0.5
370
    13
100
AcDbCircle
 10
2128.502404655342
 20
1264.189382073712
 30
0.0
 40
10.0
100
AcDbArc
 50
270.0
 51
0.0
  0
ARC
  5
B86E
330
1F
100
AcDbEntity
  8
003
  6
想像線1
 48
0.5
370
    13
100
AcDbCircle
 10
2091.002404655349
 20
1262.787458285066
 30
0.0
 40
0.5
100
AcDbArc
 50
330.0
 51
0.0
  0
ARC
  5
B86F
330
1F
100
AcDbEntity
  8
003
  6
想像線1
 48
0.5
370
    13
100
AcDbCircle
 10
2089.213729520751
 20
1259.689382073712
 30
0.0
 40
0.5
100
AcDbArc
 50
270.0
 51
330.0
  0
LINE
  5
B870
330
1F
100
AcDbEntity
  8
003
  6
想像線1
 48
0.5
370
    13
100
AcDbLine
 10
2089.646742222646
 20
1259.439382073714
 30
0.0
 11
2091.43541735724
 21
1262.537458285066
 31
0.0
  0
LINE
  5
B871
330
1F
100
AcDbEntity
  8
003
  6
想像線1
 48
0.5
370
    13
100
AcDbLine
 10
2088.502404655349
 20
1259.189382073712
 30
0.0
 11
2089.213729520751
 21
1259.189382073712
 31
0.0
  0
ARC
  5
B872
330
1F
100
AcDbEntity
  8
003
  6
想像線1
 48
0.5
370
    13
100
AcDbCircle
 10
2111.002404655369
 20
1264.189382073712
 30
0.0
 40
10.0
100
AcDbArc
 50
180.0
 51
270.0
  0
LINE
  5
B873
330
1F
100
AcDbEntity
  8
003
  6
想像線1
 48
0.5
370
    13
100
AcDbLine
 10
2111.002404655369
 20
1254.189382073712
 30
0.0
 11
2128.502404655342
 21
1254.189382073712
 31
0.0
  0
LINE
  5
B874
330
1F
100
AcDbEntity
  8
003
  6
想像線1
 48
0.5
370
    13
100
AcDbLine
 10
2098.702404655349
 20
1324.189382073714
 30
0.0
 11
2100.802404655373
 21
1324.189382073714
 31
0.0
  0
ARC
  5
B875
330
1F
100
AcDbEntity
  8
003
  6
想像線1
 48
0.5
370
    13
100
AcDbCircle
 10
2100.802404655373
 20
1323.989382073713
 30
0.0
 40
0.2
100
AcDbArc
 50
0.0
 51
90.0
  0
ARC
  5
B876
330
1F
100
AcDbEntity
  8
003
  6
想像線1
 48
0.5
370
    13
100
AcDbCircle
 10
2098.702404655349
 20
1323.989382073713
 30
0.0
 40
0.2
100
AcDbArc
 50
90.0
 51
180.0
  0
LINE
  5
B877
330
1F
100
AcDbEntity
  8
003
  6
想像線1
 48
0.5
370
    13
100
AcDbLine
 10
2098.702404655349
 20
1333.189382073712
 30
0.0
 11
2100.802404655373
 21
1333.189382073712
 31
0.0
  0
ARC
  5
B878
330
1F
100
AcDbEntity
  8
003
  6
想像線1
 48
0.5
370
    13
100
AcDbCircle
 10
2098.702404655349
 20
1333.389382073715
 30
0.0
 40
0.2
100
AcDbArc
 50
180.0
 51
270.0
  0
ARC
  5
B879
330
1F
100
AcDbEntity
  8
003
  6
想像線1
 48
0.5
370
    13
100
AcDbCircle
 10
2100.802404655373
 20
1333.389382073715
 30
0.0
 40
0.2
100
AcDbArc
 50
270.0
 51
0.0
  0
ARC
  5
B87A
330
1F
100
AcDbEntity
  8
003
  6
想像線1
 48
0.5
370
    13
100
AcDbCircle
 10
2153.502404655342
 20
1347.032974245972
 30
0.0
 40
10.0
100
AcDbArc
 50
144.1752256312691
 51
180.0
  0
ARC
  5
B87B
330
1F
100
AcDbEntity
  8
003
  6
想像線1
 48
0.5
370
    13
100
AcDbCircle
 10
2141.502404655344
 20
1351.34003050079
 30
0.0
 40
3.0
100
AcDbArc
 50
136.0544804376184
 51
180.0
  0
LINE
  5
B87C
330
1F
100
AcDbEntity
  8
003
  6
想像線1
 48
0.5
370
    13
100
AcDbLine
 10
2143.502404655345
 20
1427.032974245973
 30
0.0
 11
2143.502404655345
 21
1390.345789901453
 31
0.0
  0
LINE
  5
B87D
330
1F
100
AcDbEntity
  8
003
  6
想像線1
 48
0.5
370
    13
100
AcDbLine
 10
2138.502404655344
 20
1431.340030500792
 30
0.0
 11
2138.502404655344
 21
1386.038733646633
 31
0.0
  0
LINE
  5
B87E
330
1F
100
AcDbEntity
  8
003
  6
想像線1
 48
0.5
370
    13
100
AcDbLine
 10
2098.702404655349
 20
1404.189382073714
 30
0.0
 11
2100.802404655373
 21
1404.189382073714
 31
0.0
  0
ARC
  5
B87F
330
1F
100
AcDbEntity
  8
003
  6
想像線1
 48
0.5
370
    13
100
AcDbCircle
 10
2100.802404655373
 20
1403.989382073713
 30
0.0
 40
0.2
100
AcDbArc
 50
0.0
 51
90.0
  0
ARC
  5
B880
330
1F
100
AcDbEntity
  8
003
  6
想像線1
 48
0.5
370
    13
100
AcDbCircle
 10
2098.702404655349
 20
1403.989382073713
 30
0.0
 40
0.2
100
AcDbArc
 50
90.0
 51
180.0
  0
ARC
  5
B881
330
1F
100
AcDbEntity
  8
003
  6
想像線1
 48
0.5
370
    13
100
AcDbCircle
 10
2100.802404655373
 20
1413.389382073715
 30
0.0
 40
0.2
100
AcDbArc
 50
270.0
 51
0.0
  0
ARC
  5
B882
330
1F
100
AcDbEntity
  8
003
  6
想像線1
 48
0.5
370
    13
100
AcDbCircle
 10
2098.702404655349
 20
1413.389382073715
 30
0.0
 40
0.2
100
AcDbArc
 50
180.0
 51
270.0
  0
LINE
  5
B883
330
1F
100
AcDbEntity
  8
003
  6
想像線1
 48
0.5
370
    13
100
AcDbLine
 10
2098.702404655349
 20
1413.189382073714
 30
0.0
 11
2100.802404655373
 21
1413.189382073714
 31
0.0
  0
ARC
  5
B884
330
1F
100
AcDbEntity
  8
003
  6
想像線1
 48
0.5
370
    13
100
AcDbCircle
 10
2153.502404655342
 20
1390.345789901453
 30
0.0
 40
10.0
100
AcDbArc
 50
180.0
 51
215.8247743687308
  0
ARC
  5
B885
330
1F
100
AcDbEntity
  8
003
  6
想像線1
 48
0.5
370
    13
100
AcDbCircle
 10
2141.502404655344
 20
1386.038733646633
 30
0.0
 40
3.0
100
AcDbArc
 50
180.0
 51
223.9455195623815
  0
CIRCLE
  5
B886
330
1F
100
AcDbEntity
  8
003
  6
想像線1
 48
0.5
370
    13
100
AcDbCircle
 10
2123.502404655367
 20
1448.68938207371
 30
0.0
 40
22.0
  0
ARC
  5
B887
330
1F
100
AcDbEntity
  8
003
  6
想像線1
 48
0.5
370
    13
100
AcDbCircle
 10
2141.502404655344
 20
1466.038733646633
 30
0.0
 40
3.0
100
AcDbArc
 50
180.0
 51
223.9455195623815
  0
ARC
  5
B888
330
1F
100
AcDbEntity
  8
003
  6
想像線1
 48
0.5
370
    13
100
AcDbCircle
 10
2123.502404655367
 20
1448.68938207371
 30
0.0
 40
27.0
100
AcDbArc
 50
324.1752256312692
 51
35.82477436873082
  0
ARC
  5
B889
330
1F
100
AcDbEntity
  8
003
  6
想像線1
 48
0.5
370
    13
100
AcDbCircle
 10
2153.502404655342
 20
1427.032974245973
 30
0.0
 40
10.0
100
AcDbArc
 50
144.1752256312691
 51
180.0
  0
ARC
  5
B88A
330
1F
100
AcDbEntity
  8
003
  6
想像線1
 48
0.5
370
    13
100
AcDbCircle
 10
2141.502404655344
 20
1431.340030500792
 30
0.0
 40
3.0
100
AcDbArc
 50
136.0544804376184
 51
180.0
  0
ARC
  5
B88B
330
1F
100
AcDbEntity
  8
003
  6
想像線1
 48
0.5
370
    13
100
AcDbCircle
 10
2153.502404655342
 20
1470.345789901451
 30
0.0
 40
10.0
100
AcDbArc
 50
180.0
 51
215.8247743687308
  0
ARC
  5
B88C
330
1F
100
AcDbEntity
  8
003
  6
想像線1
 48
0.5
370
    13
100
AcDbCircle
 10
2123.502404655367
 20
1608.689382073712
 30
0.0
 40
22.0
100
AcDbArc
 50
197.8704932575022
 51
168.4509246313108
  0
ARC
  5
B88D
330
1F
100
AcDbEntity
  8
003
  6
想像線1
 48
0.5
370
    13
100
AcDbCircle
 10
2123.502404655367
 20
1608.689382073712
 30
0.0
 40
27.0
100
AcDbArc
 50
324.1752256312692
 51
35.82477436873082
  0
LINE
  5
B88E
330
1F
100
AcDbEntity
  8
003
  6
想像線1
 48
0.4
370
    13
100
AcDbLine
 10
2101.002404655371
 20
1493.389382073713
 30
0.0
 11
2101.002404655371
 21
1559.578904683088
 31
0.0
  0
LINE
  5
B88F
330
1F
100
AcDbEntity
  8
003
  6
想像線1
 48
0.4
370
    13
100
AcDbLine
 10
2098.502404655349
 20
1493.389382073713
 30
0.0
 11
2098.502404655349
 21
1542.317200186716
 31
0.0
  0
CIRCLE
  5
B890
330
1F
100
AcDbEntity
  8
003
  6
想像線1
 48
0.5
370
    13
100
AcDbCircle
 10
2123.502404655367
 20
1528.689382073712
 30
0.0
 40
22.0
  0
ARC
  5
B891
330
1F
100
AcDbEntity
  8
003
  6
想像線1
 48
0.5
370
    13
100
AcDbCircle
 10
2123.502404655367
 20
1528.689382073712
 30
0.0
 40
27.0
100
AcDbArc
 50
324.1752256312692
 51
35.82477436873082
  0
LINE
  5
B892
330
1F
100
AcDbEntity
  8
003
  6
想像線1
 48
0.5
370
    13
100
AcDbLine
 10
2098.702404655349
 20
1493.189382073712
 30
0.0
 11
2100.802404655373
 21
1493.189382073712
 31
0.0
  0
ARC
  5
B893
330
1F
100
AcDbEntity
  8
003
  6
想像線1
 48
0.5
370
    13
100
AcDbCircle
 10
2098.702404655349
 20
1493.389382073713
 30
0.0
 40
0.2
100
AcDbArc
 50
180.0
 51
270.0
  0
ARC
  5
B894
330
1F
100
AcDbEntity
  8
003
  6
想像線1
 48
0.5
370
    13
100
AcDbCircle
 10
2100.802404655373
 20
1493.389382073713
 30
0.0
 40
0.2
100
AcDbArc
 50
270.0
 51
0.0
  0
LINE
  5
B895
330
1F
100
AcDbEntity
  8
003
  6
想像線1
 48
0.5
370
    13
100
AcDbLine
 10
2098.702404655349
 20
1484.189382073712
 30
0.0
 11
2100.802404655373
 21
1484.189382073712
 31
0.0
  0
ARC
  5
B896
330
1F
100
AcDbEntity
  8
003
  6
想像線1
 48
0.5
370
    13
100
AcDbCircle
 10
2100.802404655373
 20
1483.989382073713
 30
0.0
 40
0.2
100
AcDbArc
 50
0.0
 51
90.0
  0
ARC
  5
B897
330
1F
100
AcDbEntity
  8
003
  6
想像線1
 48
0.5
370
    13
100
AcDbCircle
 10
2098.702404655349
 20
1483.989382073713
 30
0.0
 40
0.2
100
AcDbArc
 50
90.0
 51
180.0
  0
ARC
  5
B898
330
1F
100
AcDbEntity
  8
003
  6
想像線1
 48
0.5
370
    13
100
AcDbCircle
 10
2153.502404655342
 20
1507.032974245977
 30
0.0
 40
10.0
100
AcDbArc
 50
144.1752256312691
 51
180.0
  0
ARC
  5
B899
330
1F
100
AcDbEntity
  8
003
  6
想像線1
 48
0.5
370
    13
100
AcDbCircle
 10
2141.502404655344
 20
1511.340030500793
 30
0.0
 40
3.0
100
AcDbArc
 50
136.0544804376184
 51
180.0
  0
LINE
  5
B89A
330
1F
100
AcDbEntity
  8
003
  6
想像線1
 48
0.5
370
    13
100
AcDbLine
 10
2143.502404655345
 20
1587.032974245975
 30
0.0
 11
2143.502404655345
 21
1550.345789901454
 31
0.0
  0
LINE
  5
B89B
330
1F
100
AcDbEntity
  8
003
  6
想像線1
 48
0.5
370
    13
100
AcDbLine
 10
2138.502404655344
 20
1591.34003050079
 30
0.0
 11
2138.502404655344
 21
1546.038733646633
 31
0.0
  0
ARC
  5
B89C
330
1F
100
AcDbEntity
  8
003
  6
想像線1
 48
0.5
370
    13
100
AcDbCircle
 10
2141.502404655344
 20
1546.038733646633
 30
0.0
 40
3.0
100
AcDbArc
 50
180.0
 51
223.9455195623815
  0
ARC
  5
B89D
330
1F
100
AcDbEntity
  8
003
  6
想像線1
 48
0.5
370
    13
100
AcDbCircle
 10
2153.502404655342
 20
1550.345789901451
 30
0.0
 40
10.0
100
AcDbArc
 50
180.0
 51
215.8247743687308
  0
ARC
  5
B89E
330
1F
100
AcDbEntity
  8
003
  6
想像線1
 48
0.5
370
    13
100
AcDbCircle
 10
2153.502404655342
 20
1587.032974245975
 30
0.0
 40
10.0
100
AcDbArc
 50
144.1752256312691
 51
180.0
  0
ARC
  5
B89F
330
1F
100
AcDbEntity
  8
003
  6
想像線1
 48
0.5
370
    13
100
AcDbCircle
 10
2141.502404655344
 20
1591.34003050079
 30
0.0
 40
3.0
100
AcDbArc
 50
136.0544804376184
 51
180.0
  0
LINE
  5
B8A0
330
1F
100
AcDbEntity
  8
003
  6
想像線1
 48
0.5
370
    13
100
AcDbLine
 10
2088.502404655342
 20
1688.689382073712
 30
0.0
 11
2088.502404655342
 21
1643.961069759038
 31
0.0
  0
LINE
  5
B8A1
330
1F
100
AcDbEntity
  8
003
  6
想像線1
 48
0.5
370
    13
100
AcDbLine
 10
2143.502404655345
 20
1688.689382073712
 30
0.0
 11
2143.502404655345
 21
1630.345789901451
 31
0.0
  0
LINE
  5
B8A2
330
1F
100
AcDbEntity
  8
003
  6
想像線1
 48
0.5
370
    13
100
AcDbLine
 10
2138.502404655344
 20
1688.689382073712
 30
0.0
 11
2138.502404655344
 21
1626.038733646632
 31
0.0
  0
CIRCLE
  5
B8A3
330
1F
100
AcDbEntity
  8
003
  6
想像線1
 48
0.5
370
    13
100
AcDbCircle
 10
2106.002404655375
 20
1650.711069759028
 30
0.0
 40
8.0
  0
ARC
  5
B8A4
330
1F
100
AcDbEntity
  8
003
  6
想像線1
 48
0.5
370
    13
100
AcDbCircle
 10
2094.752404655342
 20
1655.711069759028
 30
0.0
 40
3.0
100
AcDbArc
 50
90.0
 51
180.0
  0
LINE
  5
B8A5
330
1F
100
AcDbEntity
  8
003
  6
想像線1
 48
0.5
370
    13
100
AcDbLine
 10
2101.002404655371
 20
1623.340141924477
 30
0.0
 11
2101.002404655371
 21
1642.711069759029
 31
0.0
  0
LINE
  5
B8A6
330
1F
100
AcDbEntity
  8
003
  6
想像線1
 48
0.5
370
    13
100
AcDbLine
 10
2098.502404655349
 20
1640.601846420832
 30
0.0
 11
2098.502404655349
 21
1642.711069759026
 31
0.0
  0
LINE
  5
B8A7
330
1F
100
AcDbEntity
  8
003
  6
想像線1
 48
0.5
370
    13
100
AcDbLine
 10
2097.689103241548
 20
1642.711069759029
 30
0.0
 11
2106.002404655375
 21
1642.711069759029
 31
0.0
  0
ARC
  5
B8A8
330
1F
100
AcDbEntity
  8
003
  6
想像線1
 48
0.5
370
    13
100
AcDbCircle
 10
2094.752404655342
 20
1645.711069759028
 30
0.0
 40
3.0
100
AcDbArc
 50
180.0
 51
215.6853347124063
  0
LINE
  5
B8A9
330
1F
100
AcDbEntity
  8
003
  6
想像線1
 48
0.5
370
    13
100
AcDbLine
 10
2091.752404655342
 20
1645.71106975903
 30
0.0
 11
2091.752404655342
 21
1655.711069759028
 31
0.0
  0
ARC
  5
B8AA
330
1F
100
AcDbEntity
  8
003
  6
想像線1
 48
0.5
370
    13
100
AcDbCircle
 10
2153.502404655342
 20
1630.345789901451
 30
0.0
 40
10.0
100
AcDbArc
 50
180.0
 51
215.8247743687308
  0
ARC
  5
B8AB
330
1F
100
AcDbEntity
  8
003
  6
想像線1
 48
0.5
370
    13
100
AcDbCircle
 10
2141.502404655344
 20
1626.038733646632
 30
0.0
 40
3.0
100
AcDbArc
 50
180.0
 51
223.9455195623815
  0
CIRCLE
  5
B8AC
330
1F
100
AcDbEntity
  8
003
  6
想像線1
 48
0.5
370
    13
100
AcDbCircle
 10
2116.002404655341
 20
1688.689382073712
 30
0.0
 40
22.49999999998834
  0
LINE
  5
B8AD
330
1F
100
AcDbEntity
  8
003
  6
想像線1
 48
0.5
370
    13
100
AcDbLine
 10
2094.752404655342
 20
1658.711069759029
 30
0.0
 11
2106.002404655375
 21
1658.711069759029
 31
0.0
  0
LINE
  5
B8AE
330
1F
100
AcDbEntity
  8
003
  6
想像線1
 48
0.5
370
    13
100
AcDbLine
 10
2101.002404655371
 20
1658.711069759029
 30
0.0
 11
2101.002404655371
 21
1671.918872242456
 31
0.0
  0
LINE
  5
B8AF
330
1F
100
AcDbEntity
  8
003
  6
想像線1
 48
0.5
370
    13
100
AcDbLine
 10
2138.502404655344
 20
1689.97562454015
 30
0.0
 11
2138.502404655344
 21
1688.689382073712
 31
0.0
  0
ARC
  5
B8B0
330
1F
100
AcDbEntity
  8
004
  6
想像線1
 48
0.5
370
    13
100
AcDbCircle
 10
2094.032138722622
 20
1545.457976848499
 30
0.0
 40
5.0
100
AcDbArc
 50
270.0
 51
350.7528045496262
  0
ARC
  5
B8B1
330
1F
100
AcDbEntity
  8
004
  6
想像線1
 48
0.5
370
    13
100
AcDbCircle
 10
2095.252404655341
 20
1541.957976848499
 30
0.0
 40
3.0
100
AcDbArc
 50
270.0
 51
0.0000000002084408
  0
ARC
  5
B8B2
330
1F
100
AcDbEntity
  8
004
  6
想像線1
 48
0.5
370
    13
100
AcDbCircle
 10
2094.032138722626
 20
1545.457976848499
 30
0.0
 40
5.0
100
AcDbArc
 50
270.0
 51
350.7528045496262
  0
LINE
  5
B8B3
330
1F
100
AcDbEntity
  8
004
  6
想像線1
 48
0.5
370
    13
100
AcDbLine
 10
2092.252404655333
 20
1540.457976848499
 30
0.0
 11
2095.252404655338
 21
1540.457976848501
 31
0.0
  0
LINE
  5
B8B4
330
1F
100
AcDbEntity
  8
PHANTOM
  6
想像線1
 48
0.5
370
    13
100
AcDbLine
 10
2092.252404655333
 20
1540.457976848499
 30
0.0
 11
2092.252404655333
 21
1538.957976848499
 31
0.0
  0
LINE
  5
B8B5
330
1F
100
AcDbEntity
  8
PHANTOM
  6
想像線1
 48
0.5
370
    13
100
AcDbLine
 10
2098.252404655342
 20
1542.776679502595
 30
0.0
 11
2098.252404655342
 21
1541.957976848506
 31
0.0
  0
ARC
  5
B8B6
330
1F
100
AcDbEntity
  8
004
  6
想像線1
 48
0.5
370
    13
100
AcDbCircle
 10
2095.252404655338
 20
1543.457976848499
 30
0.0
 40
3.0
100
AcDbArc
 50
270.0
 51
342.9950042242402
  0
LINE
  5
B8B7
330
1F
100
AcDbEntity
  8
004
  6
想像線1
 48
0.5
370
    13
100
AcDbLine
 10
2028.25240465534
 20
1589.959523303773
 30
0.0
 11
2028.25240465534
 21
1557.457976848508
 31
0.0
  0
LINE
  5
B8B8
330
1F
100
AcDbEntity
  8
004
  6
想像線1
 48
0.5
370
    13
100
AcDbLine
 10
2023.252404655341
 20
1636.961069759037
 30
0.0
 11
2023.252404655341
 21
1545.957976848515
 31
0.0
  0
LINE
  5
B8B9
330
1F
100
AcDbEntity
  8
004
  6
想像線1
 48
0.5
370
    13
100
AcDbLine
 10
2023.252404655341
 20
1666.95797684851
 30
0.0
 11
2023.252404655341
 21
1513.457976848514
 31
0.0
  0
ARC
  5
B8BA
330
1F
100
AcDbEntity
  8
OBJECT
  6
想像線1
 48
0.5
370
    13
100
AcDbCircle
 10
1811.484877896972
 20
1591.459523303784
 30
0.0
 40
291.2675267583707
100
AcDbArc
 50
350.7528045496262
 51
9.247195450373768
  0
ARC
  5
B8BB
330
1F
100
AcDbEntity
  8
004
  6
想像線1
 48
0.5
370
    13
100
AcDbCircle
 10
1811.484877896972
 20
1591.459523303784
 30
0.0
 40
291.2675267583707
100
AcDbArc
 50
350.7528045496262
 51
9.247195450373768
  0
ARC
  5
B8BC
330
1F
100
AcDbEntity
  8
004
  6
想像線1
 48
0.5
370
    13
100
AcDbCircle
 10
1811.484877896976
 20
1591.459523303784
 30
0.0
 40
271.7675267583707
100
AcDbArc
 50
350.1448814532703
 51
9.855118546729761
  0
LINE
  5
B8BD
330
1F
100
AcDbEntity
  8
004
  6
想像線1
 48
0.5
370
    13
100
AcDbLine
 10
2040.25240465534
 20
1540.457976848503
 30
0.0
 11
2094.032138722618
 21
1540.457976848499
 31
0.0
  0
LINE
  5
B8BE
330
1F
100
AcDbEntity
  8
004
  6
想像線1
 48
0.5
370
    13
100
AcDbLine
 10
2040.25240465534
 20
1540.457976848503
 30
0.0
 11
2094.032138722622
 21
1540.457976848499
 31
0.0
  0
LINE
  5
B8BF
330
1F
100
AcDbEntity
  8
004
  6
想像線1
 48
0.5
370
    13
100
AcDbLine
 10
2062.603535781044
 20
1538.957976848503
 30
0.0
 11
2095.252404655338
 21
1538.957976848499
 31
0.0
  0
LINE
  5
B8C0
330
1F
100
AcDbEntity
  8
004
  6
想像線1
 48
0.5
370
    13
100
AcDbLine
 10
2031.252404655341
 20
1545.457976848515
 30
0.0
 11
2023.252404655341
 21
1545.457976848515
 31
0.0
  0
LINE
  5
B8C1
330
1F
100
AcDbEntity
  8
004
  6
想像線1
 48
0.5
370
    13
100
AcDbLine
 10
2023.252404655341
 20
1539.157976848503
 30
0.0
 11
2023.752404655341
 21
1539.157976848503
 31
0.0
  0
LINE
  5
B8C2
330
1F
100
AcDbEntity
  8
004
  6
想像線1
 48
0.5
370
    13
100
AcDbLine
 10
2040.25240465534
 20
1540.457976848503
 30
0.0
 11
2031.252404655341
 21
1540.457976848503
 31
0.0
  0
LINE
  5
B8C3
330
1F
100
AcDbEntity
  8
004
  6
想像線1
 48
0.5
370
    13
100
AcDbLine
 10
2040.25240465534
 20
1540.457976848503
 30
0.0
 11
2031.752404655345
 21
1540.457976848503
 31
0.0
  0
LINE
  5
B8C4
330
1F
100
AcDbEntity
  8
004
  6
想像線1
 48
0.5
370
    13
100
AcDbLine
 10
2031.252404655341
 20
1540.457976848503
 30
0.0
 11
2031.252404655341
 21
1545.457976848515
 31
0.0
  0
ARC
  5
B8C5
330
1F
100
AcDbEntity
  8
004
  6
想像線1
 48
0.5
370
    13
100
AcDbCircle
 10
2062.603535781044
 20
1539.957976848502
 30
0.0
 40
1.0
100
AcDbArc
 50
180.0
 51
270.0
  0
LINE
  5
B8C6
330
1F
100
AcDbEntity
  8
004
  6
想像線1
 48
0.5
370
    13
100
AcDbLine
 10
2061.603535781044
 20
1540.457976848503
 30
0.0
 11
2061.603535781044
 21
1539.957976848502
 31
0.0
  0
LINE
  5
B8C7
330
1F
100
AcDbEntity
  8
004
  6
想像線1
 48
0.5
370
    13
100
AcDbLine
 10
2077.248038176836
 20
1538.957976848503
 30
0.0
 11
2077.248038176836
 21
1540.457976848503
 31
0.0
  0
ARC
  5
B8C8
330
1F
100
AcDbEntity
  8
004
  6
想像線1
 48
0.5
370
    13
100
AcDbCircle
 10
2094.032138722618
 20
1545.457976848499
 30
0.0
 40
5.0
100
AcDbArc
 50
270.0
 51
350.7528045496262
  0
ARC
  5
B8C9
330
1F
100
AcDbEntity
  8
004
  6
想像線1
 48
0.5
370
    13
100
AcDbCircle
 10
2095.252404655338
 20
1541.957976848499
 30
0.0
 40
3.0
100
AcDbArc
 50
270.0
 51
0.0000000002084408
  0
ARC
  5
B8CA
330
1F
100
AcDbEntity
  8
004
  6
想像線1
 48
0.5
370
    13
100
AcDbCircle
 10
2094.032138722622
 20
1545.457976848499
 30
0.0
 40
5.0
100
AcDbArc
 50
270.0
 51
350.7528045496262
  0
LINE
  5
B8CB
330
1F
100
AcDbEntity
  8
004
  6
想像線1
 48
0.5
370
    13
100
AcDbLine
 10
2092.252404655331
 20
1540.457976848501
 30
0.0
 11
2095.252404655334
 21
1540.457976848503
 31
0.0
  0
LINE
  5
B8CC
330
1F
100
AcDbEntity
  8
004
  6
想像線1
 48
0.5
370
    13
100
AcDbLine
 10
2092.252404655331
 20
1540.457976848501
 30
0.0
 11
2092.252404655331
 21
1538.957976848499
 31
0.0
  0
LINE
  5
B8CD
330
1F
100
AcDbEntity
  8
004
  6
想像線1
 48
0.5
370
    13
100
AcDbLine
 10
2098.252404655338
 20
1542.776679502595
 30
0.0
 11
2098.252404655338
 21
1541.957976848506
 31
0.0
  0
ARC
  5
B8CE
330
1F
100
AcDbEntity
  8
004
  6
想像線1
 48
0.5
370
    13
100
AcDbCircle
 10
2095.252404655334
 20
1543.457976848502
 30
0.0
 40
3.0
100
AcDbArc
 50
270.0
 51
342.9950042242402
  0
ARC
  5
B8CF
330
1F
100
AcDbEntity
  8
004
  6
想像線1
 48
0.5
370
    13
100
AcDbCircle
 10
2076.286390663678
 20
1545.457976848506
 30
0.0
 40
3.0
100
AcDbArc
 50
270.0
 51
350.1448814532703
  0
LINE
  5
B8D0
330
1F
100
AcDbEntity
  8
004
  6
想像線1
 48
0.5
370
    13
100
AcDbLine
 10
2043.252404655341
 20
1542.457976848508
 30
0.0
 11
2076.286390663678
 21
1542.457976848506
 31
0.0
  0
ARC
  5
B8D1
330
1F
100
AcDbEntity
  8
004
  6
想像線1
 48
0.5
370
    13
100
AcDbCircle
 10
2043.252404655345
 20
1557.457976848508
 30
0.0
 40
15.0
100
AcDbArc
 50
180.0
 51
270.0
  0
LINE
  5
B8D2
330
1F
100
AcDbEntity
  8
004
  6
想像線1
 48
0.5
370
    13
100
AcDbLine
 10
2031.252404655341
 20
1540.457976848503
 30
0.0
 11
2031.252404655341
 21
1545.457976848515
 31
0.0
  0
LINE
  5
B8D3
330
1F
100
AcDbEntity
  8
004
  6
想像線1
 48
0.5
370
    13
100
AcDbLine
 10
2031.252404655341
 20
1540.457976848503
 30
0.0
 11
2031.252404655341
 21
1545.457976848515
 31
0.0
  0
ARC
  5
B8D4
330
1F
100
AcDbEntity
  8
004
  6
想像線1
 48
0.5
370
    13
100
AcDbCircle
 10
2038.252404655341
 20
1535.457976848504
 30
0.0
 40
5.0
100
AcDbArc
 50
90.0
 51
180.0
  0
LINE
  5
B8D5
330
1F
100
AcDbEntity
  8
004
  6
想像線1
 48
0.5
370
    13
100
AcDbLine
 10
2040.25240465534
 20
1540.457976848506
 30
0.0
 11
2031.252404655341
 21
1540.457976848503
 31
0.0
  0
LINE
  5
B8D6
330
1F
100
AcDbEntity
  8
004
  6
想像線1
 48
0.5
370
    13
100
AcDbLine
 10
2040.25240465534
 20
1540.457976848506
 30
0.0
 11
2031.752404655338
 21
1540.457976848506
 31
0.0
  0
LINE
  5
B8D7
330
1F
100
AcDbEntity
  8
004
  6
想像線1
 48
0.5
370
    13
100
AcDbLine
 10
2040.25240465534
 20
1540.457976848506
 30
0.0
 11
2031.752404655338
 21
1540.457976848506
 31
0.0
  0
LINE
  5
B8D8
330
1F
100
AcDbEntity
  8
004
  6
想像線1
 48
0.5
370
    13
100
AcDbLine
 10
2040.25240465534
 20
1540.457976848503
 30
0.0
 11
2031.252404655341
 21
1540.457976848503
 31
0.0
  0
ARC
  5
B8D9
330
1F
100
AcDbEntity
  8
004
  6
想像線1
 48
0.5
370
    13
100
AcDbCircle
 10
2030.252404655341
 20
1516.457976848515
 30
0.0
 40
3.0
100
AcDbArc
 50
270.0
 51
0.0
  0
LINE
  5
B8DA
330
1F
100
AcDbEntity
  8
004
  6
想像線1
 48
0.5
370
    13
100
AcDbLine
 10
2025.252404655338
 20
1539.157976848503
 30
0.0
 11
2025.252404655338
 21
1523.972695474277
 31
0.0
  0
LINE
  5
B8DB
330
1F
100
AcDbEntity
  8
004
  6
想像線1
 48
0.5
370
    13
100
AcDbLine
 10
2033.252404655338
 20
1516.457976848515
 30
0.0
 11
2033.252404655338
 21
1535.457976848504
 31
0.0
  0
LINE
  5
B8DC
330
1F
100
AcDbEntity
  8
004
  6
想像線1
 48
0.5
370
    13
100
AcDbLine
 10
2030.252404655341
 20
1513.457976848514
 30
0.0
 11
2023.252404655338
 21
1513.457976848514
 31
0.0
  0
LINE
  5
B8DD
330
1F
100
AcDbEntity
  8
004
  6
想像線1
 48
0.5
370
    13
100
AcDbLine
 10
2023.252404655338
 20
1539.157976848503
 30
0.0
 11
2025.252404655338
 21
1539.157976848503
 31
0.0
  0
LINE
  5
B8DE
330
1F
100
AcDbEntity
  8
004
  6
想像線1
 48
0.5
370
    13
100
AcDbLine
 10
2031.252404655341
 20
1545.457976848515
 30
0.0
 11
2023.252404655341
 21
1545.457976848515
 31
0.0
  0
LINE
  5
B8DF
330
1F
100
AcDbEntity
  8
004
  6
想像線1
 48
0.5
370
    13
100
AcDbLine
 10
2031.252404655341
 20
1545.457976848515
 30
0.0
 11
2023.252404655341
 21
1545.457976848515
 31
0.0
  0
ARC
  5
B8E0
330
1F
100
AcDbEntity
  8
004
  6
想像線1
 48
0.5
370
    13
100
AcDbCircle
 10
2030.252404655341
 20
1663.957976848513
 30
0.0
 40
3.0
100
AcDbArc
 50
0.0
 51
90.0
  0
LINE
  5
B8E1
330
1F
100
AcDbEntity
  8
004
  6
想像線1
 48
0.5
370
    13
100
AcDbLine
 10
2094.032138722626
 20
1642.461069759037
 30
0.0
 11
2040.25240465534
 21
1642.461069759037
 31
0.0
  0
LINE
  5
B8E2
330
1F
100
AcDbEntity
  8
004
  6
想像線1
 48
0.5
370
    13
100
AcDbLine
 10
2094.032138722626
 20
1642.461069759038
 30
0.0
 11
2040.25240465534
 21
1642.461069759038
 31
0.0
  0
LINE
  5
B8E3
330
1F
100
AcDbEntity
  8
004
  6
想像線1
 48
0.5
370
    13
100
AcDbLine
 10
2095.252404655341
 20
1643.961069759037
 30
0.0
 11
2066.768978330955
 21
1643.961069759037
 31
0.0
  0
LINE
  5
B8E4
330
1F
100
AcDbEntity
  8
004
  6
想像線1
 48
0.5
370
    13
100
AcDbLine
 10
2023.252404655341
 20
1637.461069759037
 30
0.0
 11
2031.252404655341
 21
1637.461069759037
 31
0.0
  0
LINE
  5
B8E5
330
1F
100
AcDbEntity
  8
004
  6
想像線1
 48
0.5
370
    13
100
AcDbLine
 10
2023.252404655341
 20
1643.761069759036
 30
0.0
 11
2023.752404655341
 21
1643.761069759036
 31
0.0
  0
LINE
  5
B8E6
330
1F
100
AcDbEntity
  8
004
  6
想像線1
 48
0.5
370
    13
100
AcDbLine
 10
2031.252404655341
 20
1642.461069759037
 30
0.0
 11
2040.25240465534
 21
1642.461069759037
 31
0.0
  0
LINE
  5
B8E7
330
1F
100
AcDbEntity
  8
004
  6
想像線1
 48
0.5
370
    13
100
AcDbLine
 10
2031.752404655345
 20
1642.461069759038
 30
0.0
 11
2040.25240465534
 21
1642.461069759038
 31
0.0
  0
LINE
  5
B8E8
330
1F
100
AcDbEntity
  8
004
  6
想像線1
 48
0.5
370
    13
100
AcDbLine
 10
2031.252404655341
 20
1637.461069759037
 30
0.0
 11
2031.252404655341
 21
1642.461069759037
 31
0.0
  0
ARC
  5
B8E9
330
1F
100
AcDbEntity
  8
004
  6
想像線1
 48
0.5
370
    13
100
AcDbCircle
 10
2066.768978330955
 20
1642.961069759037
 30
0.0
 40
1.0
100
AcDbArc
 50
90.0
 51
180.0
  0
LINE
  5
B8EA
330
1F
100
AcDbEntity
  8
004
  6
想像線1
 48
0.5
370
    13
100
AcDbLine
 10
2065.768978330955
 20
1642.461069759037
 30
0.0
 11
2065.768978330955
 21
1642.961069759037
 31
0.0
  0
LINE
  5
B8EB
330
1F
100
AcDbEntity
  8
004
  6
想像線1
 48
0.5
370
    13
100
AcDbLine
 10
2086.752404655327
 20
1642.461069759037
 30
0.0
 11
2086.752404655327
 21
1643.961069759037
 31
0.0
  0
ARC
  5
B8EC
330
1F
100
AcDbEntity
  8
004
  6
想像線1
 48
0.5
370
    13
100
AcDbCircle
 10
2095.252404655341
 20
1640.961069759036
 30
0.0
 40
3.0
100
AcDbArc
 50
0.0
 51
90.0
  0
ARC
  5
B8ED
330
1F
100
AcDbEntity
  8
OBJECT
  6
想像線1
 48
0.5
370
    13
100
AcDbCircle
 10
2094.032138722626
 20
1637.461069759037
 30
0.0
 40
5.0
100
AcDbArc
 50
9.247195450373768
 51
90.0
  0
ARC
  5
B8EE
330
1F
100
AcDbEntity
  8
004
  6
想像線1
 48
0.5
370
    13
100
AcDbCircle
 10
2094.032138722626
 20
1637.461069759039
 30
0.0
 40
5.0
100
AcDbArc
 50
9.247195450373768
 51
90.0
  0
LINE
  5
B8EF
330
1F
100
AcDbEntity
  8
004
  6
想像線1
 48
0.5
370
    13
100
AcDbLine
 10
2098.252404655342
 20
1640.14236710494
 30
0.0
 11
2098.252404655342
 21
1640.961069759036
 31
0.0
  0
ARC
  5
B8F0
330
1F
100
AcDbEntity
  8
004
  6
想像線1
 48
0.5
370
    13
100
AcDbCircle
 10
2095.002404655338
 20
1639.461069759028
 30
0.0
 40
3.25
100
AcDbArc
 50
15.20803650494037
 51
112.6198649475906
  0
ARC
  5
B8F1
330
1F
100
AcDbEntity
  8
004
  6
想像線1
 48
0.5
370
    13
100
AcDbCircle
 10
2043.252404655345
 20
1625.461069759042
 30
0.0
 40
15.0
100
AcDbArc
 50
90.0
 51
180.0
  0
LINE
  5
B8F2
330
1F
100
AcDbEntity
  8
004
  6
想像線1
 48
0.5
370
    13
100
AcDbLine
 10
2076.286390663678
 20
1640.461069759042
 30
0.0
 11
2043.252404655345
 21
1640.461069759042
 31
0.0
  0
ARC
  5
B8F3
330
1F
100
AcDbEntity
  8
004
  6
想像線1
 48
0.5
370
    13
100
AcDbCircle
 10
2076.286390663678
 20
1637.461069759042
 30
0.0
 40
3.0
100
AcDbArc
 50
9.855118546729761
 51
90.0
  0
LINE
  5
B8F4
330
1F
100
AcDbEntity
  8
004
  6
想像線1
 48
0.5
370
    13
100
AcDbLine
 10
2031.252404655341
 20
1637.46106975904
 30
0.0
 11
2031.252404655341
 21
1642.461069759041
 31
0.0
  0
ARC
  5
B8F5
330
1F
100
AcDbEntity
  8
004
  6
想像線1
 48
0.5
370
    13
100
AcDbCircle
 10
2038.252404655341
 20
1647.461069759038
 30
0.0
 40
5.0
100
AcDbArc
 50
180.0
 51
270.0
  0
LINE
  5
B8F6
330
1F
100
AcDbEntity
  8
004
  6
想像線1
 48
0.5
370
    13
100
AcDbLine
 10
2031.252404655341
 20
1637.46106975904
 30
0.0
 11
2031.252404655341
 21
1642.461069759038
 31
0.0
  0
LINE
  5
B8F7
330
1F
100
AcDbEntity
  8
004
  6
想像線1
 48
0.5
370
    13
100
AcDbLine
 10
2025.252404655341
 20
1663.614831098003
 30
0.0
 11
2025.252404655341
 21
1643.761069759038
 31
0.0
  0
LINE
  5
B8F8
330
1F
100
AcDbEntity
  8
004
  6
想像線1
 48
0.5
370
    13
100
AcDbLine
 10
2033.252404655338
 20
1647.461069759038
 30
0.0
 11
2033.252404655338
 21
1663.957976848513
 31
0.0
  0
LINE
  5
B8F9
330
1F
100
AcDbEntity
  8
004
  6
想像線1
 48
0.5
370
    13
100
AcDbLine
 10
2023.252404655338
 20
1643.761069759038
 30
0.0
 11
2023.752404655338
 21
1643.761069759038
 31
0.0
  0
LINE
  5
B8FA
330
1F
100
AcDbEntity
  8
004
  6
想像線1
 48
0.5
370
    13
100
AcDbLine
 10
2023.252404655341
 20
1637.46106975904
 30
0.0
 11
2031.252404655341
 21
1637.46106975904
 31
0.0
  0
LINE
  5
B8FB
330
1F
100
AcDbEntity
  8
004
  6
想像線1
 48
0.5
370
    13
100
AcDbLine
 10
2023.252404655338
 20
1637.46106975904
 30
0.0
 11
2031.252404655341
 21
1637.46106975904
 31
0.0
  0
LINE
  5
B8FC
330
1F
100
AcDbEntity
  8
004
  6
想像線1
 48
0.5
370
    13
100
AcDbLine
 10
2023.252404655341
 20
1643.761069759038
 30
0.0
 11
2025.252404655341
 21
1643.761069759038
 31
0.0
  0
LINE
  5
B8FD
330
1F
100
AcDbEntity
  8
004
  6
想像線1
 48
0.5
370
    13
100
AcDbLine
 10
2028.25240465534
 20
1592.959523303773
 30
0.0
 11
2029.752404655341
 21
1591.459523303773
 31
0.0
  0
LINE
  5
B8FE
330
1F
100
AcDbEntity
  8
004
  6
想像線1
 48
0.5
370
    13
100
AcDbLine
 10
2029.752404655341
 20
1591.459523303773
 30
0.0
 11
2028.25240465534
 21
1589.959523303773
 31
0.0
  0
LINE
  5
B8FF
330
1F
100
AcDbEntity
  8
004
  6
想像線1
 48
0.5
370
    13
100
AcDbLine
 10
2028.25240465534
 20
1625.461069759042
 30
0.0
 11
2028.25240465534
 21
1592.959523303773
 31
0.0
  0
LINE
  5
B900
330
1F
100
AcDbEntity
  8
004
  6
想像線1
 48
0.5
370
    13
100
AcDbLine
 10
2023.252404655341
 20
1666.957976848514
 30
0.0
 11
2030.252404655341
 21
1666.957976848514
 31
0.0
  0
ENDSEC
  0
SECTION
  2
OBJECTS
  0
DICTIONARY
  5
C
330
0
100
AcDbDictionary
281
     1
  3
ACAD_2007HEADERVARS_RT
350
B9F9
  3
ACAD_BGPLOT_KEY
350
AB06
  3
ACAD_COLOR
350
A91D
  3
ACAD_GROUP
350
D
  3
ACAD_LAYOUT
350
1A
  3
ACAD_MATERIAL
350
A91C
  3
ACAD_MLINESTYLE
350
17
  3
ACAD_PLOTSETTINGS
350
19
  3
ACAD_PLOTSTYLENAME
350
E
  3
ACAD_TABLESTYLE
350
AAB9
  3
ACAD_VISUALSTYLE
350
B0F1
  3
AcAsAppObject
350
3DA1
  3
ACASGREF_MASTER
350
3DE9
  3
AcDbVariableDictionary
350
34
  3
AcmDictionary
350
47
  3
AD_GREF_MODULE
350
3DEA
  3
AD_MAPI_MODULE
350
3E06
  3
AMG
350
2B
  3
AMGSNAPSETTINGS
350
7D
  3
ASE_INDEX_DICTIONARY
350
B331
  3
DWGPROPS
350
B9F8
  3
MAPISURF_MODULE
350
3DEB
  0
DICTIONARY
  5
3F95
330
2
100
AcDbDictionary
280
     1
281
     1
  3
ACAD_LAYERFILTERS
360
B523
  3
ACAD_LAYERSTATES
360
3F96
  3
ACLYDICTIONARY
360
B522
  3
AMLAYER_GROUPCOLORS
360
AAB4
  0
DICTIONARY
  5
B5D0
330
B5CF
100
AcDbDictionary
280
     1
281
     1
  3
ADSK_XREC_LAYER_RECONCILED
360
B5D1
  0
DICTIONARY
  5
B5D3
330
B5D2
100
AcDbDictionary
280
     1
281
     1
  3
ADSK_XREC_LAYER_RECONCILED
360
B5D4
  0
DICTIONARY
  5
B5D6
330
B5D5
100
AcDbDictionary
280
     1
281
     1
  3
ADSK_XREC_LAYER_RECONCILED
360
B5D7
  0
DICTIONARY
  5
B5D9
330
B5D8
100
AcDbDictionary
280
     1
281
     1
  0
DICTIONARY
  5
B5DB
330
B5DA
100
AcDbDictionary
280
     1
281
     1
  0
DICTIONARY
  5
8A
330
1F
100
AcDbDictionary
280
     1
281
     1
  3
ACAD_SORTENTS
360
B1BA
  0
DICTIONARY
  5
B9F9
102
{ACAD_REACTORS
330
C
102
}
330
C
100
AcDbDictionary
281
     1
  3
DIMARCSYM
350
B9FA
  0
DICTIONARY
  5
AB06
102
{ACAD_REACTORS
330
C
102
}
330
C
100
AcDbDictionary
280
     1
281
     1
  0
DICTIONARY
  5
A91D
102
{ACAD_REACTORS
330
C
102
}
330
C
100
AcDbDictionary
281
     1
  0
DICTIONARY
  5
D
102
{ACAD_REACTORS
330
C
102
}
330
C
100
AcDbDictionary
281
     1
  0
DICTIONARY
  5
1A
102
{ACAD_REACTORS
330
C
102
}
330
C
100
AcDbDictionary
281
     1
  3
Model
350
22
  3
ﾚｲｱｳﾄ1
350
1E
  3
ﾚｲｱｳﾄ2
350
26
  0
DICTIONARY
  5
A91C
102
{ACAD_REACTORS
330
C
102
}
330
C
100
AcDbDictionary
281
     1
  3
ByBlock
350
B0EF
  3
ByLayer
350
B0EE
  3
Global
350
B0F0
  0
DICTIONARY
  5
17
102
{ACAD_REACTORS
330
C
102
}
330
C
100
AcDbDictionary
281
     1
  3
Standard
350
18
  0
DICTIONARY
  5
19
102
{ACAD_REACTORS
330
C
102
}
330
C
100
AcDbDictionary
281
     1
  0
ACDBDICTIONARYWDFLT
  5
E
102
{ACAD_REACTORS
330
C
102
}
330
C
100
AcDbDictionary
281
     1
  3
Normal
350
F
100
AcDbDictionaryWithDefault
340
F
  0
DICTIONARY
  5
AAB9
102
{ACAD_REACTORS
330
C
102
}
330
C
100
AcDbDictionary
281
     1
  3
Standard
350
AABA
  0
DICTIONARY
  5
B0F1
102
{ACAD_REACTORS
330
C
102
}
330
C
100
AcDbDictionary
281
     1
  3
2dWireframe
350
B0F7
  3
3D Hidden
350
B0F9
  3
3dWireframe
350
B0F8
  3
Basic
350
B0F6
  3
Brighten
350
B0FD
  3
ColorChange
350
B101
  3
Conceptual
350
B0FA
  3
Dim
350
B0FC
  3
Facepattern
350
B100
  3
Flat
350
B0F2
  3
FlatWithEdges
350
B0F3
  3
Gouraud
350
B0F4
  3
GouraudWithEdges
350
B0F5
  3
Linepattern
350
B0FF
  3
Realistic
350
B0FB
  3
Thicken
350
B0FE
  0
ACAD_PROXY_OBJECT
  5
3DA1
102
{ACAD_REACTORS
330
C
102
}
330
C
100
AcDbProxyObject
 90
      499
 91
      576
 95
   917527
 70
     0
 93
       10
310
407F
 94
        0
1001
ACAD
1000
AcRTDxfName
1000
ASAPP
  0
ACAD_PROXY_OBJECT
  5
3DE9
102
{ACAD_REACTORS
330
C
102
}
330
C
100
AcDbProxyObject
 90
      499
 91
      581
 95
   917527
 70
     0
 93
       34
310
010000407F
 94
        0
1001
ACAD
1000
AcRTDxfName
1000
ACASGREFMASTER
  0
DICTIONARY
  5
34
102
{ACAD_REACTORS
330
C
102
}
330
C
100
AcDbDictionary
281
     1
  3
CTABLESTYLE
350
AAF3
  3
DIMASSOC
350
A10C
  3
FIELDEVAL
350
AB07
  3
INDEXCTL
350
35
  3
SORTENTS
350
194C
  0
DICTIONARY
  5
47
102
{ACAD_REACTORS
330
C
102
}
330
C
100
AcDbDictionary
281
     1
  3
AcmBOM
350
7E8
  3
AcmStdDictionary
350
4C
  3
AMDTSECTSYM_ARROWCOLOR
350
A929
  0
ACAD_PROXY_OBJECT
  5
3DEA
102
{ACAD_REACTORS
330
C
102
}
330
C
100
AcDbProxyObject
 90
      499
 91
      582
 95
   917527
 70
     0
 93
      114
310
00000043800000000000000000003F
 94
        0
1001
ACAD
1000
AcRTDxfName
1000
ACADGREFMODULE
  0
ACAD_PROXY_OBJECT
  5
3E06
102
{ACAD_REACTORS
330
C
102
}
330
C
100
AcDbProxyObject
 90
      499
 91
      594
 95
   917527
 70
     0
 93
       34
310
05000044FF
 94
        0
1001
ACAD
1000
AcRTDxfName
1000
MAPIADMODULE
  0
DICTIONARY
  5
2B
102
{ACAD_REACTORS
330
C
102
}
330
C
100
AcDbDictionary
281
     1
  0
DICTIONARY
  5
7D
102
{ACAD_REACTORS
330
C
102
}
330
C
100
AcDbDictionary
281
     1
  0
DICTIONARY
  5
B331
102
{ACAD_REACTORS
330
C
102
}
330
C
100
AcDbDictionary
281
     1
  3
ASEBlockHierarchyIndexRecord
350
B332
1001
DCO15
1040
1594111214.218
  0
XRECORD
  5
B9F8
102
{ACAD_REACTORS
330
C
102
}
330
C
100
AcDbXrecord
280
     1
  1
DWGPROPS COOKIE
  2

  3

  4

  6

  7

  8
Administrator
  9

300
AmdtFileType=84
301
=
302
=
303
=
304
=
305
=
306
=
307
=
308
=
309
=
 40
0.0004363773148148
 41
2456413.594324723
 42
2456413.594758565
  1

 90
        1
  0
ACAD_PROXY_OBJECT
  5
3DEB
102
{ACAD_REACTORS
330
C
102
}
330
C
100
AcDbProxyObject
 90
      499
 91
      583
 95
   917527
 70
     0
 93
        8
310
047E
 94
        0
1001
ACAD
1000
AcRTDxfName
1000
AMDTMAPISURFMOUDULE
  0
DICTIONARY
  5
B523
102
{ACAD_REACTORS
330
3F95
102
}
330
3F95
100
AcDbDictionary
281
     1
  0
DICTIONARY
  5
3F96
102
{ACAD_REACTORS
330
3F95
102
}
330
3F95
100
AcDbDictionary
281
     1
  3
20011210
350
3FB7
  0
DICTIONARY
  5
B522
102
{ACAD_REACTORS
330
3F95
102
}
330
3F95
100
AcDbDictionary
281
     1
1001
ACAD
1000
<All
  0
DICTIONARY
  5
AAB4
102
{ACAD_REACTORS
330
3F95
102
}
330
3F95
100
AcDbDictionary
280
     1
281
     1
  0
XRECORD
  5
B5D1
102
{ACAD_REACTORS
330
B5D0
102
}
330
B5D0
100
AcDbXrecord
280
     1
290
     1
  0
XRECORD
  5
B5D4
102
{ACAD_REACTORS
330
B5D3
102
}
330
B5D3
100
AcDbXrecord
280
     1
290
     1
  0
XRECORD
  5
B5D7
102
{ACAD_REACTORS
330
B5D6
102
}
330
B5D6
100
AcDbXrecord
280
     1
290
     1
  0
SORTENTSTABLE
  5
B1BA
102
{ACAD_REACTORS
330
8A
102
}
330
8A
100
AcDbSortentsTable
330
1F
  0
XRECORD
  5
B9FA
102
{ACAD_REACTORS
330
B9F9
102
}
330
B9F9
100
AcDbXrecord
280
     1
 70
     1
  0
LAYOUT
  5
22
102
{ACAD_XDICTIONARY
360
B9FD
102
}
102
{ACAD_REACTORS
330
1A
102
}
330
1A
100
AcDbPlotSettings
  1

  2
DocuCentre-II C5400
  4
A3
  6
AM_VIEW1
 40
4.857749938964843
 41
4.942420959472656
 42
4.9423828125
 43
4.857757568359375
 44
297.0106506347656
 45
420.0313415527343
 46
0.0
 47
2.016715294974204
 48
214.3704939521119
 49
367.5855324241176
140
275.6727856380065
141
407.629191407817
142
1.0
143
0.7311709945292711
 70
  3764
 72
     1
 73
     1
 74
     2
  7
monochrome.ctb
 75
     0
147
1.367669132777622
148
-1700.85588156276
149
-1647.985052086429
100
AcDbLayout
  1
Model
 70
     1
 71
     0
 10
0.0
 20
0.0
 11
12.0
 21
9.0
 12
0.0
 22
0.0
 32
0.0
 14
0.0
 24
0.0
 34
0.0
 15
0.0
 25
0.0
 35
0.0
146
0.0
 13
0.0
 23
0.0
 33
0.0
 16
1.0
 26
0.0
 36
0.0
 17
0.0
 27
1.0
 37
0.0
 76
     0
330
1F
331
B0EC
1001
ACAD_PSEXT
1000
DocuCentre-II C5400
1000
FX DocuCentre-II C5400
1000
192.168.2.200
1000

1070
     0
  0
LAYOUT
  5
1E
102
{ACAD_XDICTIONARY
360
B9FB
102
}
102
{ACAD_REACTORS
330
1A
102
}
330
1A
100
AcDbPlotSettings
  1

  2
\\ML370\XEROX
  4
A4
  6

 40
3.174999952316284
 41
3.174999952316284
 42
3.175003051757812
 43
3.17498779296875
 44
209.8674926757813
 45
296.6719970703125
 46
0.0
 47
0.0
 48
0.0
 49
0.0
140
0.0
141
0.0
142
1.0
143
1.0
 70
   688
 72
     1
 73
     1
 74
     5
  7
monochrome.ctb
 75
    16
147
1.0
148
0.0
149
0.0
100
AcDbLayout
  1
ﾚｲｱｳﾄ1
 70
     1
 71
     1
 10
-3.17498779296875
 20
-3.174999952316284
 11
293.4970092773438
 21
206.692492723465
 12
0.0
 22
0.0
 32
0.0
 14
1.000000000000000E+20
 24
1.000000000000000E+20
 34
1.000000000000000E+20
 15
-1.000000000000000E+20
 25
-1.000000000000000E+20
 35
-1.000000000000000E+20
146
0.0
 13
0.0
 23
0.0
 33
0.0
 16
1.0
 26
0.0
 36
0.0
 17
0.0
 27
1.0
 37
0.0
 76
     0
330
1B
  0
LAYOUT
  5
26
102
{ACAD_XDICTIONARY
360
B9FF
102
}
102
{ACAD_REACTORS
330
1A
102
}
330
1A
100
AcDbPlotSettings
  1

  2
\\ML370\XEROX
  4

  6

 40
0.0
 41
0.0
 42
0.0
 43
0.0
 44
0.0
 45
0.0
 46
0.0
 47
0.0
 48
0.0
 49
0.0
140
0.0
141
0.0
142
1.0
143
1.0
 70
   688
 72
     0
 73
     0
 74
     5
  7
monochrome.ctb
 75
    16
147
1.0
148
0.0
149
0.0
100
AcDbLayout
  1
ﾚｲｱｳﾄ2
 70
     1
 71
     2
 10
0.0
 20
0.0
 11
12.0
 21
9.0
 12
0.0
 22
0.0
 32
0.0
 14
0.0
 24
0.0
 34
0.0
 15
0.0
 25
0.0
 35
0.0
146
0.0
 13
0.0
 23
0.0
 33
0.0
 16
1.0
 26
0.0
 36
0.0
 17
0.0
 27
1.0
 37
0.0
 76
     0
330
23
  0
MATERIAL
  5
B0EF
102
{ACAD_XDICTIONARY
360
BA05
102
}
102
{ACAD_REACTORS
330
A91C
102
}
330
A91C
100
AcDbMaterial
  1
ByBlock
  0
MATERIAL
  5
B0EE
102
{ACAD_XDICTIONARY
360
BA03
102
}
102
{ACAD_REACTORS
330
A91C
102
}
330
A91C
100
AcDbMaterial
  1
ByLayer
  0
MATERIAL
  5
B0F0
102
{ACAD_XDICTIONARY
360
BA07
102
}
102
{ACAD_REACTORS
330
A91C
102
}
330
A91C
100
AcDbMaterial
  1
Global
  0
MLINESTYLE
  5
18
102
{ACAD_REACTORS
330
17
102
}
330
17
100
AcDbMlineStyle
  2
STANDARD
 70
     0
  3

 62
   256
 51
90.0
 52
90.0
 71
     2
 49
0.5
 62
   256
  6
BYLAYER
 49
-0.5
 62
   256
  6
BYLAYER
  0
ACDBPLACEHOLDER
  5
F
102
{ACAD_REACTORS
330
E
102
}
330
E
  0
TABLESTYLE
  5
AABA
102
{ACAD_XDICTIONARY
360
BA01
102
}
102
{ACAD_REACTORS
330
AAB9
102
}
330
AAB9
100
AcDbTableStyle
  3
Standard
 70
     0
 71
     0
 40
1.5
 41
1.5
280
     0
281
     0
  7
STANDARD
140
4.5
170
     2
 62
     0
 63
     7
283
     0
274
    -2
284
     1
 64
     0
275
    -2
285
     1
 65
     0
276
    -2
286
     1
 66
     0
277
    -2
287
     1
 67
     0
278
    -2
288
     1
 68
     0
279
    -2
289
     1
 69
     0
  7
STANDARD
140
6.0
170
     5
 62
     0
 63
     7
283
     0
274
    -2
284
     1
 64
     0
275
    -2
285
     1
 65
     0
276
    -2
286
     1
 66
     0
277
    -2
287
     1
 67
     0
278
    -2
288
     1
 68
     0
279
    -2
289
     1
 69
     0
  7
STANDARD
140
4.5
170
     5
 62
     0
 63
     7
283
     0
274
    -2
284
     1
 64
     0
275
    -2
285
     1
 65
     0
276
    -2
286
     1
 66
     0
277
    -2
287
     1
 67
     0
278
    -2
288
     1
 68
     0
279
    -2
289
     1
 69
     0
  0
VISUALSTYLE
  5
B0F7
102
{ACAD_REACTORS
330
B0F1
102
}
330
B0F1
100
AcDbVisualStyle
  2
2dWireframe
 70
     4
 71
     0
 72
     2
 73
     0
 90
        0
 40
-0.6
 41
-30.0
 62
     5
 63
     7
 74
     1
 91
        4
 64
     7
 65
   257
 75
     1
175
     1
 42
1.0
 92
        0
 66
   257
 43
1.0
 76
     1
 77
     6
 78
     2
 67
     7
 79
     5
170
     0
171
     0
290
     0
174
     0
 93
        1
 44
0.0
173
     0
291
     0
 45
0.0
1001
ACAD
1000
AcDbSavedByObjectVersion
1070
     0
  0
VISUALSTYLE
  5
B0F9
102
{ACAD_REACTORS
330
B0F1
102
}
330
B0F1
100
AcDbVisualStyle
  2
3D Hidden
 70
     6
 71
     1
 72
     2
 73
     2
 90
        0
 40
-0.6
 41
-30.0
 62
     5
 63
     7
 74
     2
 91
        2
 64
     7
 65
   257
 75
     2
175
     1
 42
40.0
 92
        0
 66
   257
 43
1.0
 76
     1
 77
     6
 78
     2
 67
     7
 79
     3
170
     0
171
     0
290
     0
174
     0
 93
        1
 44
0.0
173
     0
291
     0
 45
0.0
1001
ACAD
1000
AcDbSavedByObjectVersion
1070
     0
  0
VISUALSTYLE
  5
B0F8
102
{ACAD_REACTORS
330
B0F1
102
}
330
B0F1
100
AcDbVisualStyle
  2
3dWireframe
 70
     5
 71
     0
 72
     2
 73
     0
 90
        0
 40
-0.6
 41
-30.0
 62
     5
 63
     7
 74
     1
 91
        4
 64
     7
 65
   257
 75
     1
175
     1
 42
1.0
 92
        0
 66
   257
 43
1.0
 76
     1
 77
     6
 78
     2
 67
     7
 79
     5
170
     0
171
     0
290
     0
174
     0
 93
        1
 44
0.0
173
     0
291
     0
 45
0.0
1001
ACAD
1000
AcDbSavedByObjectVersion
1070
     0
  0
VISUALSTYLE
  5
B0F6
102
{ACAD_REACTORS
330
B0F1
102
}
330
B0F1
100
AcDbVisualStyle
  2
Basic
 70
     7
 71
     1
 72
     0
 73
     1
 90
        0
 40
-0.6
 41
-30.0
 62
     5
 63
     7
 74
     0
 91
        4
 64
     7
 65
   257
 75
     1
175
     1
 42
1.0
 92
        8
 66
     7
 43
1.0
 76
     1
 77
     6
 78
     2
 67
     7
 79
     5
170
     0
171
     0
290
     0
174
     0
 93
        1
 44
0.0
173
     0
291
     1
 45
0.0
1001
ACAD
1000
AcDbSavedByObjectVersion
1070
     0
  0
VISUALSTYLE
  5
B0FD
102
{ACAD_REACTORS
330
B0F1
102
}
330
B0F1
100
AcDbVisualStyle
  2
Brighten
 70
    12
 71
     2
 72
     2
 73
     0
 90
        0
 40
-0.6
 41
-30.0
 62
     5
 63
     7
 74
     1
 91
        4
 64
     7
 65
   257
 75
     1
175
     1
 42
1.0
 92
        8
 66
     7
 43
1.0
 76
     1
 77
     6
 78
     2
 67
     7
 79
     5
170
     0
171
     0
290
     0
174
     0
 93
        1
 44
50.0
173
     0
291
     1
 45
0.0
1001
ACAD
1000
AcDbSavedByObjectVersion
1070
     0
  0
VISUALSTYLE
  5
B101
102
{ACAD_REACTORS
330
B0F1
102
}
330
B0F1
100
AcDbVisualStyle
  2
ColorChange
 70
    16
 71
     2
 72
     2
 73
     3
 90
        0
 40
-0.6
 41
-30.0
 62
     5
 63
     8
 74
     1
 91
        4
 64
     7
 65
   257
 75
     1
175
     1
 42
1.0
 92
        8
 66
     8
 43
1.0
 76
     1
 77
     6
 78
     2
 67
     7
 79
     5
170
     0
171
     0
290
     0
174
     0
 93
        1
 44
0.0
173
     0
291
     1
 45
0.0
1001
ACAD
1000
AcDbSavedByObjectVersion
1070
     0
  0
VISUALSTYLE
  5
B0FA
102
{ACAD_REACTORS
330
B0F1
102
}
330
B0F1
100
AcDbVisualStyle
  2
Conceptual
 70
     9
 71
     3
 72
     2
 73
     0
 90
        0
 40
-0.6
 41
-30.0
 62
     5
 63
     7
 74
     2
 91
        2
 64
     7
 65
   257
 75
     1
175
     1
 42
40.0
 92
        8
 66
     7
 43
1.0
 76
     1
 77
     6
 78
     2
 67
     7
 79
     3
170
     0
171
     0
290
     0
174
     0
 93
        1
 44
0.0
173
     0
291
     0
 45
0.0
1001
ACAD
1000
AcDbSavedByObjectVersion
1070
     0
  0
VISUALSTYLE
  5
B0FC
102
{ACAD_REACTORS
330
B0F1
102
}
330
B0F1
100
AcDbVisualStyle
  2
Dim
 70
    11
 71
     2
 72
     2
 73
     0
 90
        0
 40
-0.6
 41
-30.0
 62
     5
 63
     7
 74
     1
 91
        4
 64
     7
 65
   257
 75
     1
175
     1
 42
1.0
 92
        8
 66
     7
 43
1.0
 76
     1
 77
     6
 78
     2
 67
     7
 79
     5
170
     0
171
     0
290
     0
174
     0
 93
        1
 44
-50.0
173
     0
291
     1
 45
0.0
1001
ACAD
1000
AcDbSavedByObjectVersion
1070
     0
  0
VISUALSTYLE
  5
B100
102
{ACAD_REACTORS
330
B0F1
102
}
330
B0F1
100
AcDbVisualStyle
  2
Facepattern
 70
    15
 71
     2
 72
     2
 73
     0
 90
        0
 40
-0.6
 41
-30.0
 62
     5
 63
     7
 74
     1
 91
        4
 64
     7
 65
   257
 75
     1
175
     1
 42
1.0
 92
        8
 66
     7
 43
1.0
 76
     1
 77
     6
 78
     2
 67
     7
 79
     5
170
     0
171
     0
290
     0
174
     0
 93
        1
 44
0.0
173
     0
291
     1
 45
0.0
1001
ACAD
1000
AcDbSavedByObjectVersion
1070
     0
  0
VISUALSTYLE
  5
B0F2
102
{ACAD_REACTORS
330
B0F1
102
}
330
B0F1
100
AcDbVisualStyle
  2
Flat
 70
     0
 71
     2
 72
     1
 73
     1
 90
        2
 40
-0.6
 41
30.0
 62
     5
 63
     7
 74
     0
 91
        4
 64
     7
 65
   257
 75
     1
175
     1
 42
1.0
 92
        8
 66
     7
 43
1.0
 76
     1
 77
     6
 78
     2
 67
     7
 79
     5
170
     0
171
     0
290
     0
174
     0
 93
       13
 44
0.0
173
     0
291
     1
 45
0.0
1001
ACAD
1000
AcDbSavedByObjectVersion
1070
     0
  0
VISUALSTYLE
  5
B0F3
102
{ACAD_REACTORS
330
B0F1
102
}
330
B0F1
100
AcDbVisualStyle
  2
FlatWithEdges
 70
     1
 71
     2
 72
     1
 73
     1
 90
        2
 40
-0.6
 41
30.0
 62
     5
 63
     7
 74
     1
 91
        4
 64
     7
 65
   257
 75
     1
175
     1
 42
1.0
 92
        0
 66
   257
 43
1.0
 76
     1
 77
     6
 78
     2
 67
     7
 79
     5
170
     0
171
     0
290
     0
174
     0
 93
       13
 44
0.0
173
     0
291
     1
 45
0.0
1001
ACAD
1000
AcDbSavedByObjectVersion
1070
     0
  0
VISUALSTYLE
  5
B0F4
102
{ACAD_REACTORS
330
B0F1
102
}
330
B0F1
100
AcDbVisualStyle
  2
Gouraud
 70
     2
 71
     2
 72
     2
 73
     1
 90
        2
 40
-0.6
 41
30.0
 62
     5
 63
     7
 74
     0
 91
        4
 64
     7
 65
   257
 75
     1
175
     1
 42
1.0
 92
        0
 66
     7
 43
1.0
 76
     1
 77
     6
 78
     2
 67
     7
 79
     5
170
     0
171
     0
290
     0
174
     0
 93
       13
 44
0.0
173
     0
291
     1
 45
0.0
1001
ACAD
1000
AcDbSavedByObjectVersion
1070
     0
  0
VISUALSTYLE
  5
B0F5
102
{ACAD_REACTORS
330
B0F1
102
}
330
B0F1
100
AcDbVisualStyle
  2
GouraudWithEdges
 70
     3
 71
     2
 72
     2
 73
     1
 90
        2
 40
-0.6
 41
30.0
 62
     5
 63
     7
 74
     1
 91
        4
 64
     7
 65
   257
 75
     1
175
     1
 42
1.0
 92
        0
 66
   257
 43
1.0
 76
     1
 77
     6
 78
     2
 67
     7
 79
     5
170
     0
171
     0
290
     0
174
     0
 93
       13
 44
0.0
173
     0
291
     1
 45
0.0
1001
ACAD
1000
AcDbSavedByObjectVersion
1070
     0
  0
VISUALSTYLE
  5
B0FF
102
{ACAD_REACTORS
330
B0F1
102
}
330
B0F1
100
AcDbVisualStyle
  2
Linepattern
 70
    14
 71
     2
 72
     2
 73
     0
 90
        0
 40
-0.6
 41
-30.0
 62
     5
 63
     7
 74
     1
 91
        4
 64
     7
 65
   257
 75
     7
175
     7
 42
1.0
 92
        8
 66
     7
 43
1.0
 76
     1
 77
     6
 78
     2
 67
     7
 79
     5
170
     0
171
     0
290
     0
174
     0
 93
        1
 44
0.0
173
     0
291
     1
 45
0.0
1001
ACAD
1000
AcDbSavedByObjectVersion
1070
     0
  0
VISUALSTYLE
  5
B0FB
102
{ACAD_REACTORS
330
B0F1
102
}
330
B0F1
100
AcDbVisualStyle
  2
Realistic
 70
     8
 71
     2
 72
     2
 73
     0
 90
        0
 40
-0.6
 41
-30.0
 62
     5
 63
     7
 74
     1
 91
        0
 64
     7
 65
   257
 75
     1
175
     1
 42
1.0
 92
        8
 66
     8
 43
1.0
 76
     1
 77
     6
 78
     2
 67
     7
 79
     5
170
     0
171
     0
290
     0
174
     0
 93
       13
 44
0.0
173
     0
291
     0
 45
0.0
1001
ACAD
1000
AcDbSavedByObjectVersion
1070
     0
  0
VISUALSTYLE
  5
B0FE
102
{ACAD_REACTORS
330
B0F1
102
}
330
B0F1
100
AcDbVisualStyle
  2
Thicken
 70
    13
 71
     2
 72
     2
 73
     0
 90
        0
 40
-0.6
 41
-30.0
 62
     5
 63
     7
 74
     1
 91
        4
 64
     7
 65
   257
 75
     1
175
     1
 42
1.0
 92
       12
 66
     7
 43
1.0
 76
     1
 77
     6
 78
     2
 67
     7
 79
     5
170
     0
171
     0
290
     0
174
     0
 93
        1
 44
0.0
173
     0
291
     1
 45
0.0
1001
ACAD
1000
AcDbSavedByObjectVersion
1070
     0
  0
DICTIONARYVAR
  5
AAF3
102
{ACAD_REACTORS
330
34
102
}
330
34
100
DictionaryVariables
280
     0
  1
STANDARD
  0
DICTIONARYVAR
  5
A10C
102
{ACAD_REACTORS
330
34
102
}
330
34
100
DictionaryVariables
280
     0
  1
1
  0
DICTIONARYVAR
  5
AB07
102
{ACAD_REACTORS
330
34
102
}
330
34
100
DictionaryVariables
280
     0
  1
4
  0
DICTIONARYVAR
  5
35
102
{ACAD_REACTORS
330
34
102
}
330
34
100
DictionaryVariables
280
     0
  1
0
  0
DICTIONARYVAR
  5
194C
102
{ACAD_REACTORS
330
34
102
}
330
34
100
DictionaryVariables
280
     0
  1
96
  0
DICTIONARY
  5
7E8
102
{ACAD_REACTORS
330
47
102
}
330
47
100
AcDbDictionary
281
     1
  0
DICTIONARY
  5
4C
102
{ACAD_REACTORS
330
47
102
}
330
47
100
AcDbDictionary
281
     1
  0
XRECORD
  5
A929
102
{ACAD_REACTORS
330
47
102
}
330
47
100
AcDbXrecord
280
     1
 90
-1023410169
  0
XRECORD
  5
B332
102
{ACAD_REACTORS
330
B331
102
}
330
B331
100
AcDbXrecord
280
     1
  0
XRECORD
  5
3FB7
102
{ACAD_REACTORS
330
3F96
102
}
330
3F96
100
AcDbXrecord
280
     1
 91
        3
330
0
 90
        8
 62
     7
370
    40
331
16
  1
Color_7
330
0
 90
        0
 62
    14
370
    -3
331
16
  1
Color_14
330
0
 90
        8
 62
     7
370
    20
331
16
  1
Color_7
330
6D1
 90
        0
 62
     7
370
    -3
331
16
  1
Color_7
330
0
 90
        8
 62
     7
370
    50
331
16
  1
Color_7
330
0
 90
        8
 62
     2
370
    35
331
16
  1
Color_2
330
0
 90
        8
 62
     7
370
    -3
331
16
  1
Color_7
330
10
 90
        8
 62
     7
370
    -3
331
16
  1
Color_7
  0
DICTIONARY
  5
B9FD
330
22
100
AcDbDictionary
280
     1
281
     1
  3
ACAD_XREC_ROUNDTRIP
360
B9FE
  0
DICTIONARY
  5
B9FB
330
1E
100
AcDbDictionary
280
     1
281
     1
  3
ACAD_XREC_ROUNDTRIP
360
B9FC
  0
DICTIONARY
  5
B9FF
330
26
100
AcDbDictionary
280
     1
281
     1
  3
ACAD_XREC_ROUNDTRIP
360
BA00
  0
DICTIONARY
  5
BA05
330
B0EF
100
AcDbDictionary
280
     1
281
     1
  3
ACAD_XREC_ROUNDTRIP
360
BA06
  0
DICTIONARY
  5
BA03
330
B0EE
100
AcDbDictionary
280
     1
281
     1
  3
ACAD_XREC_ROUNDTRIP
360
BA04
  0
DICTIONARY
  5
BA07
330
B0F0
100
AcDbDictionary
280
     1
281
     1
  3
ACAD_XREC_ROUNDTRIP
360
BA08
  0
DICTIONARY
  5
BA01
330
AABA
100
AcDbDictionary
280
     1
281
     1
  3
ACAD_XREC_ROUNDTRIP
360
BA02
  0
XRECORD
  5
B9FE
102
{ACAD_REACTORS
330
B9FD
102
}
330
B9FD
100
AcDbXrecord
280
     1
102
SHADEPLOT
 70
     0
102
SHADEPLOTRESLEVEL
 70
     2
102
SHADEPLOTCUSTOMDPI
 70
   200
  0
XRECORD
  5
B9FC
102
{ACAD_REACTORS
330
B9FB
102
}
330
B9FB
100
AcDbXrecord
280
     1
102
SHADEPLOT
 70
     0
102
SHADEPLOTRESLEVEL
 70
     2
102
SHADEPLOTCUSTOMDPI
 70
   300
  0
XRECORD
  5
BA00
102
{ACAD_REACTORS
330
B9FF
102
}
330
B9FF
100
AcDbXrecord
280
     1
102
SHADEPLOT
 70
     0
102
SHADEPLOTRESLEVEL
 70
     2
102
SHADEPLOTCUSTOMDPI
 70
   300
  0
XRECORD
  5
BA06
102
{ACAD_REACTORS
330
BA05
102
}
330
BA05
100
AcDbXrecord
280
     1
102
MATERIAL
148
0.0
149
0.0
149
0.0
 93
        0
 94
       63
282
     0
 72
     1
 77
     1
171
     1
175
     1
179
     1
273
     0
  0
XRECORD
  5
BA04
102
{ACAD_REACTORS
330
BA03
102
}
330
BA03
100
AcDbXrecord
280
     1
102
MATERIAL
148
0.0
149
0.0
149
0.0
 93
        0
 94
       63
282
     0
 72
     1
 77
     1
171
     1
175
     1
179
     1
273
     0
  0
XRECORD
  5
BA08
102
{ACAD_REACTORS
330
BA07
102
}
330
BA07
100
AcDbXrecord
280
     1
102
MATERIAL
148
0.0
149
0.0
149
0.0
 93
        0
 94
       63
282
     0
 72
     1
 77
     1
171
     1
175
     1
179
     1
273
     0
  0
XRECORD
  5
BA02
102
{ACAD_REACTORS
330
BA01
102
}
330
BA01
100
AcDbXrecord
280
     1
102
ACAD_ROUNDTRIP_PRE2007_TABLESTYLE
 90
        4
 91
        0
  1

 92
        4
 93
        0
  2

 94
        4
 95
        0
  3

  0
ENDSEC
  0
EOF
