  0
SECTION
  2
HEADER
  9
$ACADVER
  1
AC1015
  9
$ACADMAINTVER
 70
    20
  9
$DWGCODEPAGE
  3
ANSI_932
  9
$INSBASE
 10
0.0
 20
0.0
 30
0.0
  9
$EXTMIN
 10
597.1040812061732
 20
473.8379568249913
 30
-0.000000000000013
  9
$EXTMAX
 10
978.1561838443149
 20
746.9005568261377
 30
0.0000000000000023
  9
$LIMMIN
 10
1674.644559120579
 20
764.2205712412
  9
$LIMMAX
 10
2094.644559120579
 20
1061.2205712412
  9
$ORTHOMODE
 70
     0
  9
$REGENMODE
 70
     1
  9
$FILLMODE
 70
     1
  9
$QTEXTMODE
 70
     0
  9
$MIRRTEXT
 70
     0
  9
$LTSCALE
 40
1.0
  9
$ATTMODE
 70
     1
  9
$TEXTSIZE
 40
3.2
  9
$TRACEWID
 40
1.0
  9
$TEXTSTYLE
  7
STANDARD
  9
$CLAYER
  8
AM_3
  9
$CELTYPE
  6
ByLayer
  9
$CECOLOR
 62
   256
  9
$CELTSCALE
 40
1.0
  9
$DISPSILH
 70
     0
  9
$DIMSCALE
 40
1.0
  9
$DIMASZ
 40
1.0
  9
$DIMEXO
 40
1.0
  9
$DIMDLI
 40
10.0
  9
$DIMRND
 40
0.0
  9
$DIMDLE
 40
0.0
  9
$DIMEXE
 40
1.0
  9
$DIMTP
 40
0.00000000001
  9
$DIMTM
 40
0.0
  9
$DIMTXT
 40
3.5
  9
$DIMCEN
 40
0.0
  9
$DIMTSZ
 40
0.0
  9
$DIMTOL
 70
     0
  9
$DIMLIM
 70
     0
  9
$DIMTIH
 70
     0
  9
$DIMTOH
 70
     0
  9
$DIMSE1
 70
     0
  9
$DIMSE2
 70
     0
  9
$DIMTAD
 70
     1
  9
$DIMZIN
 70
     8
  9
$DIMBLK
  1

  9
$DIMASO
 70
     1
  9
$DIMSHO
 70
     1
  9
$DIMPOST
  1

  9
$DIMAPOST
  1
"
  9
$DIMALT
 70
     0
  9
$DIMALTD
 70
     2
  9
$DIMALTF
 40
0.0393701
  9
$DIMLFAC
 40
1.0
  9
$DIMTOFL
 70
     1
  9
$DIMTVP
 40
0.0
  9
$DIMTIX
 70
     0
  9
$DIMSOXD
 70
     0
  9
$DIMSAH
 70
     0
  9
$DIMBLK1
  1

  9
$DIMBLK2
  1

  9
$DIMSTYLE
  2
SYS
  9
$DIMCLRD
 70
   256
  9
$DIMCLRE
 70
   256
  9
$DIMCLRT
 70
     7
  9
$DIMTFAC
 40
0.71
  9
$DIMGAP
 40
1.5
  9
$DIMJUST
 70
     0
  9
$DIMSD1
 70
     0
  9
$DIMSD2
 70
     0
  9
$DIMTOLJ
 70
     0
  9
$DIMTZIN
 70
     8
  9
$DIMALTZ
 70
     0
  9
$DIMALTTZ
 70
     0
  9
$DIMUPT
 70
     0
  9
$DIMDEC
 70
     2
  9
$DIMTDEC
 70
     2
  9
$DIMALTU
 70
     2
  9
$DIMALTTD
 70
     2
  9
$DIMTXSTY
  7
STANDARD
  9
$DIMAUNIT
 70
     0
  9
$DIMADEC
 70
     0
  9
$DIMALTRND
 40
0.0
  9
$DIMAZIN
 70
     2
  9
$DIMDSEP
 70
    46
  9
$DIMATFIT
 70
     3
  9
$DIMFRAC
 70
     0
  9
$DIMLDRBLK
  1

  9
$DIMLUNIT
 70
     2
  9
$DIMLWD
 70
    -1
  9
$DIMLWE
 70
    -1
  9
$DIMTMOVE
 70
     0
  9
$LUNITS
 70
     2
  9
$LUPREC
 70
     2
  9
$SKETCHINC
 40
1.0
  9
$FILLETRAD
 40
0.3
  9
$AUNITS
 70
     0
  9
$AUPREC
 70
     0
  9
$MENU
  1
.
  9
$ELEVATION
 40
0.0
  9
$PELEVATION
 40
0.0
  9
$THICKNESS
 40
0.0
  9
$LIMCHECK
 70
     0
  9
$CHAMFERA
 40
4.0
  9
$CHAMFERB
 40
4.0
  9
$CHAMFERC
 40
20.0
  9
$CHAMFERD
 40
0.0
  9
$SKPOLY
 70
     0
  9
$TDCREATE
 40
2453649.383785440
  9
$TDUCREATE
 40
2453649.008785440
  9
$TDUPDATE
 40
2455995.695005961
  9
$TDUUPDATE
 40
2455995.320005961
  9
$TDINDWG
 40
4.0585217708
  9
$TDUSRTIMER
 40
4.0585199653
  9
$USRTIMER
 70
     1
  9
$ANGBASE
 50
0.0
  9
$ANGDIR
 70
     0
  9
$PDMODE
 70
     0
  9
$PDSIZE
 40
-3.0
  9
$PLINEWID
 40
0.0
  9
$SPLFRAME
 70
     0
  9
$SPLINETYPE
 70
     6
  9
$SPLINESEGS
 70
     8
  9
$HANDSEED
  5
2C8AA
  9
$SURFTAB1
 70
     6
  9
$SURFTAB2
 70
     6
  9
$SURFTYPE
 70
     6
  9
$SURFU
 70
     6
  9
$SURFV
 70
     6
  9
$UCSBASE
  2

  9
$UCSNAME
  2

  9
$UCSORG
 10
0.0
 20
0.0
 30
0.0
  9
$UCSXDIR
 10
1.0
 20
0.0
 30
0.0
  9
$UCSYDIR
 10
0.0
 20
1.0
 30
0.0
  9
$UCSORTHOREF
  2

  9
$UCSORTHOVIEW
 70
     0
  9
$UCSORGTOP
 10
0.0
 20
0.0
 30
0.0
  9
$UCSORGBOTTOM
 10
0.0
 20
0.0
 30
0.0
  9
$UCSORGLEFT
 10
0.0
 20
0.0
 30
0.0
  9
$UCSORGRIGHT
 10
0.0
 20
0.0
 30
0.0
  9
$UCSORGFRONT
 10
0.0
 20
0.0
 30
0.0
  9
$UCSORGBACK
 10
0.0
 20
0.0
 30
0.0
  9
$PUCSBASE
  2

  9
$PUCSNAME
  2

  9
$PUCSORG
 10
0.0
 20
0.0
 30
0.0
  9
$PUCSXDIR
 10
1.0
 20
0.0
 30
0.0
  9
$PUCSYDIR
 10
0.0
 20
1.0
 30
0.0
  9
$PUCSORTHOREF
  2

  9
$PUCSORTHOVIEW
 70
     0
  9
$PUCSORGTOP
 10
0.0
 20
0.0
 30
0.0
  9
$PUCSORGBOTTOM
 10
0.0
 20
0.0
 30
0.0
  9
$PUCSORGLEFT
 10
0.0
 20
0.0
 30
0.0
  9
$PUCSORGRIGHT
 10
0.0
 20
0.0
 30
0.0
  9
$PUCSORGFRONT
 10
0.0
 20
0.0
 30
0.0
  9
$PUCSORGBACK
 10
0.0
 20
0.0
 30
0.0
  9
$USERI1
 70
     0
  9
$USERI2
 70
     0
  9
$USERI3
 70
     0
  9
$USERI4
 70
     0
  9
$USERI5
 70
     0
  9
$USERR1
 40
0.0
  9
$USERR2
 40
0.0
  9
$USERR3
 40
0.0
  9
$USERR4
 40
0.0
  9
$USERR5
 40
0.0
  9
$WORLDVIEW
 70
     1
  9
$SHADEDGE
 70
     3
  9
$SHADEDIF
 70
    70
  9
$TILEMODE
 70
     1
  9
$MAXACTVP
 70
    64
  9
$PINSBASE
 10
0.0
 20
0.0
 30
0.0
  9
$PLIMCHECK
 70
     0
  9
$PEXTMIN
 10
1.000000000000000E+20
 20
1.000000000000000E+20
 30
1.000000000000000E+20
  9
$PEXTMAX
 10
-1.000000000000000E+20
 20
-1.000000000000000E+20
 30
-1.000000000000000E+20
  9
$PLIMMIN
 10
-3.17498779296875
 20
-3.174999952316281
  9
$PLIMMAX
 10
293.4970092773438
 20
206.692492723465
  9
$UNITMODE
 70
     0
  9
$VISRETAIN
 70
     1
  9
$PLINEGEN
 70
     0
  9
$PSLTSCALE
 70
     1
  9
$TREEDEPTH
 70
  3020
  9
$CMLSTYLE
  2
Standard
  9
$CMLJUST
 70
     0
  9
$CMLSCALE
 40
20.0
  9
$PROXYGRAPHICS
 70
     1
  9
$MEASUREMENT
 70
     1
  9
$CELWEIGHT
370
    -1
  9
$ENDCAPS
280
     0
  9
$JOINSTYLE
280
     0
  9
$LWDISPLAY
290
     0
  9
$INSUNITS
 70
     4
  9
$HYPERLINKBASE
  1

  9
$STYLESHEET
  1
MONOCHROME.CTB
  9
$XEDIT
290
     1
  9
$CEPSNTYPE
380
     0
  9
$PSTYLEMODE
290
     1
  9
$FINGERPRINTGUID
  2
{B162FF57-C0FD-4460-858E-E788DC9173F6}
  9
$VERSIONGUID
  2
{700E9A85-0962-4607-9B45-971CE6100DAF}
  9
$EXTNAMES
290
     1
  9
$PSVPSCALE
 40
0.0
  9
$OLESTARTUP
290
     0
  0
ENDSEC
  0
SECTION
  2
CLASSES
  0
CLASS
  1
ACDBDICTIONARYWDFLT
  2
AcDbDictionaryWithDefault
  3
ObjectDBX Classes
 90
        0
280
     0
281
     0
  0
CLASS
  1
ACDBPLACEHOLDER
  2
AcDbPlaceHolder
  3
ObjectDBX Classes
 90
        0
280
     0
281
     0
  0
CLASS
  1
LAYOUT
  2
AcDbLayout
  3
ObjectDBX Classes
 90
        0
280
     0
281
     0
  0
CLASS
  1
AMGSETTINGSOBJ
  2
AmgSettingsObj
  3
"AcadM|Product Description: AutoCAD Mechanical|Company: Autodesk"
 90
        0
280
     0
281
     0
  0
CLASS
  1
ACME_DOCUMENT
  2
AcMeDbDoc
  3
AcMeServices
 90
        0
280
     0
281
     0
  0
CLASS
  1
ACMESCOPE
  2
AcMeScope
  3
AcMeServices
 90
        0
280
     0
281
     0
  0
CLASS
  1
ACMECOMMANDHISTORY
  2
AcMeCommandHistory
  3
AcMeServices
 90
        0
280
     0
281
     0
  0
CLASS
  1
DICTIONARYVAR
  2
AcDbDictionaryVar
  3
ObjectDBX Classes
 90
        0
280
     0
281
     0
  0
CLASS
  1
ACIMSYSVARMAN
  2
AcImSysVarManager
  3
AcMeServices
 90
        0
280
     0
281
     0
  0
CLASS
  1
ACIMREALSYSVAR
  2
AcImRealSysVar
  3
AcMeServices
 90
        0
280
     0
281
     0
  0
CLASS
  1
ACIMINTSYSVAR
  2
AcImIntSysVar
  3
AcMeServices
 90
        0
280
     0
281
     0
  0
CLASS
  1
ACMEDRAWINGMAN
  2
AcMeDrawingMan
  3
AcMeServices
 90
        0
280
     0
281
     0
  0
CLASS
  1
ACMEVIEW
  2
AcMeView
  3
AcMeServices
 90
        0
280
     0
281
     0
  0
CLASS
  1
ACDBENTITYCACHE
  2
AcMeEntityCache
  3
AcMeServices
 90
        0
280
     0
281
     0
  0
CLASS
  1
GSMANAGER
  2
AcMeGSManager
  3
AcMeServices
 90
        0
280
     0
281
     0
  0
CLASS
  1
AMDTINTERNALREACTOR
  2
AmdtInternalReactor
  3
AcMeServices
 90
        0
280
     0
281
     0
  0
CLASS
  1
ACMESTATEMGR
  2
AcMeStateMgr
  3
AcMeServices
 90
        0
280
     0
281
     0
  0
CLASS
  1
ACGREFMASTER
  2
AcGrefMaster
  3
AcAttribServices
 90
        0
280
     0
281
     0
  0
CLASS
  1
ACME_DATABASE
  2
AcMeDbDatabase
  3
AcMeServices
 90
        0
280
     0
281
     0
  0
CLASS
  1
ACRFINSADJUSTERMGR
  2
AcRfInsAdjusterMgr
  3
AcMeServices
 90
        0
280
     0
281
     0
  0
CLASS
  1
ACGREFACADMASTER
  2
AcGrefacadMaster
  3
AcGrefServices
 90
        0
280
     0
281
     0
  0
CLASS
  1
AMIMASTER
  2
AmiMaster
  3
AmiServices
 90
        0
280
     0
281
     0
  0
CLASS
  1
ACMDATADICTIONARY
  2
AcmDataDictionary
  3
"AcmSymBB|Product Description: AutoCAD Mechanical|Company: Autodesk"
 90
        0
280
     0
281
     0
  0
CLASS
  1
ACMDATAENTRYBLOCK
  2
AcmDataEntryBlock
  3
"AcmSymBB|Product Description: AutoCAD Mechanical|Company: Autodesk"
 90
    32768
280
     0
281
     0
  0
CLASS
  1
ACIMSTRSYSVAR
  2
AcImStrSysVar
  3
AcMeServices
 90
        0
280
     0
281
     0
  0
CLASS
  1
ACMSTANDARDISO
  2
AcmStandardISO
  3
"Amdt_StdImp|Product Description: AutoCAD Mechanical|Company: Autodesk"
 90
        0
280
     0
281
     0
  0
CLASS
  1
AMGOBJPROPCFG
  2
AmgObjPropCfg
  3
"AmgLay|Product Description: AutoCAD Mechanical|Company: Autodesk"
 90
        1
280
     0
281
     0
  0
CLASS
  1
AMDTEDGESTANDARDISO
  2
AmdtEdgeStdISO
  3
"Amdt_StdImp|Product Description: AutoCAD Mechanical|Company: Autodesk"
 90
    32768
280
     0
281
     0
  0
CLASS
  1
ACMSURFSTANDARDISO
  2
AcmSurfTextStdISO
  3
"Amdt_StdImp|Product Description: AutoCAD Mechanical|Company: Autodesk"
 90
        0
280
     0
281
     0
  0
CLASS
  1
ACMFCFSTANDARDISO
  2
AcmFCFStdISO
  3
"Amdt_StdImp|Product Description: AutoCAD Mechanical|Company: Autodesk"
 90
        0
280
     0
281
     0
  0
CLASS
  1
ACMWELDSTANDARDISO
  2
AcmWeldingStdISO
  3
"Amdt_StdImp|Product Description: AutoCAD Mechanical|Company: Autodesk"
 90
        0
280
     0
281
     0
  0
CLASS
  1
ACMIDSTANDARDISO
  2
AcmIdStdISO
  3
"Amdt_StdImp|Product Description: AutoCAD Mechanical|Company: Autodesk"
 90
        0
280
     0
281
     0
  0
CLASS
  1
ACMDATUMSTANDARDISO
  2
AcmDatumStdISO
  3
"Amdt_StdImp|Product Description: AutoCAD Mechanical|Company: Autodesk"
 90
        0
280
     0
281
     0
  0
CLASS
  1
ACMBOMSTANDARDISO
  2
AcmBOMStdISO
  3
"Amdt_StdImp|Product Description: AutoCAD Mechanical|Company: Autodesk"
 90
        0
280
     0
281
     0
  0
CLASS
  1
ACMDETAILSTANDARDISO
  2
AmdtDetailSymStdISO
  3
"Amdt_StdImp|Product Description: AutoCAD Mechanical|Company: Autodesk"
 90
        0
280
     0
281
     0
  0
CLASS
  1
ACMSECTIONSTANDARDISO
  2
AmdtSectionSymStdISO
  3
"Amdt_StdImp|Product Description: AutoCAD Mechanical|Company: Autodesk"
 90
        0
280
     0
281
     0
  0
CLASS
  1
ACMCENTERLINESTANDARDISO
  2
AmdtCenterLineStdISO
  3
"Amdt_StdImp|Product Description: AutoCAD Mechanical|Company: Autodesk"
 90
        0
280
     0
281
     0
  0
CLASS
  1
ACAMGLAYSTD
  2
AcAmgLayStd
  3
"AmgLay|Product Description: AutoCAD Mechanical|Company: Autodesk"
 90
        0
280
     0
281
     0
  0
CLASS
  1
ACAMGDIMSTD
  2
AcAmgDimStd
  3
"AmgDim|Product Description: AutoCAD Mechanical|Company: Autodesk"
 90
        0
280
     0
281
     0
  0
CLASS
  1
ACAMGTITLESTD
  2
AcAmgTitleStd
  3
"AmgTitle|Product Description: AutoCAD Mechanical|Company: Autodesk"
 90
        0
280
     0
281
     0
  0
CLASS
  1
ACAMGFILTERDAT
  2
AcAmgFilterDat
  3
"AcadM|Product Description: AutoCAD Mechanical|Company: Autodesk"
 90
    32768
280
     0
281
     0
  0
CLASS
  1
LAYER_INDEX
  2
AcDbLayerIndex
  3
ObjectDBX Classes
 90
    32768
280
     0
281
     0
  0
CLASS
  1
IDBUFFER
  2
AcDbIdBuffer
  3
ObjectDBX Classes
 90
    32768
280
     0
281
     0
  0
CLASS
  1
PLOTSETTINGS
  2
AcDbPlotSettings
  3
ObjectDBX Classes
 90
        0
280
     0
281
     0
  0
CLASS
  1
AMDTFORMULAUPDATEDISPATCHER
  2
AmdtFormulaUpdateDispatcher
  3
AcMeServices
 90
    32768
280
     0
281
     0
  0
CLASS
  1
ACMSTANDARDANSI
  2
AcmStandardANSI
  3
"Amdt_StdImp|Product Description: AutoCAD Mechanical|Company: Autodesk"
 90
    32768
280
     0
281
     0
  0
CLASS
  1
ACMSURFSTANDARDANSI
  2
AcmSurfTextStdANSI
  3
"Amdt_StdImp|Product Description: AutoCAD Mechanical|Company: Autodesk"
 90
    32768
280
     0
281
     0
  0
CLASS
  1
ACMFCFSTANDARDANSI
  2
AcmFCFStdANSI
  3
"Amdt_StdImp|Product Description: AutoCAD Mechanical|Company: Autodesk"
 90
    32768
280
     0
281
     0
  0
CLASS
  1
ACMWELDSTANDARDANSI
  2
AcmWeldingStdANSI
  3
"Amdt_StdImp|Product Description: AutoCAD Mechanical|Company: Autodesk"
 90
    32768
280
     0
281
     0
  0
CLASS
  1
ACMIDSTANDARDANSI
  2
AcmIdStdANSI
  3
"Amdt_StdImp|Product Description: AutoCAD Mechanical|Company: Autodesk"
 90
    32768
280
     0
281
     0
  0
CLASS
  1
ACMDATUMSTANDARDANSI
  2
AcmDatumStdANSI
  3
"Amdt_StdImp|Product Description: AutoCAD Mechanical|Company: Autodesk"
 90
    32768
280
     0
281
     0
  0
CLASS
  1
ACMBOMSTANDARDANSI
  2
AcmBOMStdANSI
  3
"Amdt_StdImp|Product Description: AutoCAD Mechanical|Company: Autodesk"
 90
    32768
280
     0
281
     0
  0
CLASS
  1
ACMDETAILSTANDARDANSI
  2
AmdtDetailSymStdANSI
  3
"Amdt_StdImp|Product Description: AutoCAD Mechanical|Company: Autodesk"
 90
    32768
280
     0
281
     0
  0
CLASS
  1
ACMSECTIONSTANDARDANSI
  2
AmdtSectionSymStdANSI
  3
"Amdt_StdImp|Product Description: AutoCAD Mechanical|Company: Autodesk"
 90
    32768
280
     0
281
     0
  0
CLASS
  1
ACMCENTERLINESTANDARDANSI
  2
AmdtCenterLineStdANSI
  3
"Amdt_StdImp|Product Description: AutoCAD Mechanical|Company: Autodesk"
 90
    32768
280
     0
281
     0
  0
CLASS
  1
ACMBOM
  2
AcmBom
  3
"AcmSymBB|Product Description: AutoCAD Mechanical|Company: Autodesk"
 90
    32768
280
     0
281
     0
  0
CLASS
  1
ACMDATAENTRYPART
  2
AcmDataEntryPart
  3
"AcmSymBB|Product Description: AutoCAD Mechanical|Company: Autodesk"
 90
    32768
280
     0
281
     0
  0
CLASS
  1
ACMPARTREF
  2
AcmPartRef
  3
"AcmSymBB|Product Description: AutoCAD Mechanical|Company: Autodesk"
 90
    35839
280
     0
281
     1
  0
CLASS
  1
ACDBCIRCARCRES
  2
AcDbCircArcRes
  3
AcGrefServices
 90
    32768
280
     0
281
     0
  0
CLASS
  1
ACMBOMROW
  2
AcmBomRow
  3
"AcmSymBB|Product Description: AutoCAD Mechanical|Company: Autodesk"
 90
    32768
280
     0
281
     0
  0
CLASS
  1
ACMBALLOON
  2
AcmBalloon
  3
"AcmSymBB|Product Description: AutoCAD Mechanical|Company: Autodesk"
 90
    35839
280
     0
281
     1
  0
CLASS
  1
AMDTNOTE
  2
AmdtNote
  3
"AcmSymBB|Product Description: AutoCAD Mechanical|Company: Autodesk"
 90
    35839
280
     0
281
     1
  0
CLASS
  1
STDPART2D
  2
AmgStdPart
  3
"g3vace|Class: AmgStdPart|Product Description: AutoCAD Mechanical|Company: Autodesk"
 90
    35839
280
     0
281
     1
  0
CLASS
  1
ACDBSTDPARTRES_LINE
  2
AcDbStdPartRes_Line
  3
"g3vace|Class: AcDbStdPartRes_Line|Product Description: AutoCAD Mechanical|Company: Autodesk"
 90
    32768
280
     0
281
     0
  0
CLASS
  1
ACMDATAENTRY
  2
AcmDataEntry
  3
"AcmSymBB|Product Description: AutoCAD Mechanical|Company: Autodesk"
 90
    32768
280
     0
281
     0
  0
CLASS
  1
ACDBOPPOLYLINERES
  2
AcDbOpPolylineRes
  3
AcGrefServices
 90
    32768
280
     0
281
     0
  0
CLASS
  1
ACMPARTLIST
  2
AcmPartList
  3
"AcmSymBB|Product Description: AutoCAD Mechanical|Company: Autodesk"
 90
    35839
280
     0
281
     1
  0
CLASS
  1
ACDBLINERES
  2
AcDbLineRes
  3
AcGrefServices
 90
    32768
280
     0
281
     0
  0
CLASS
  1
ACRFINSADJ
  2
AcRfInsAdjuster
  3
AcMeServices
 90
    32768
280
     0
281
     0
  0
CLASS
  1
AM_DRAWING_MGR
  2
AcDmDwgMgr
  3
AcMechDwgViewMgmt
 90
        0
280
     0
281
     0
  0
CLASS
  1
AM_DWG_DOCUMENT
  2
AcDmDwgDocument
  3
AcMechDwgViewMgmt
 90
        0
280
     0
281
     0
  0
CLASS
  1
AM_DWG_SHEET
  2
AcDmSheet
  3
AcMechDwgViewMgmt
 90
        0
280
     0
281
     0
  0
CLASS
  1
AM_VIEWDIMPARMAP
  2
AcDmViewDimParMap
  3
AcMechDwgViewMgmt
 90
        0
280
     0
281
     0
  0
CLASS
  1
AM_DWGMGR_NAME
  2
AcDmDwgMgrName
  3
AcMechDwgViewMgmt
 90
        0
280
     0
281
     0
  0
CLASS
  1
AMDTMENUSTATEMGR
  2
AmdtMenuStateMgr
  3
McadcomServices
 90
        0
280
     0
281
     0
  0
CLASS
  1
AMDTMCOMMENUSTATE
  2
AmdtMcomMenuState
  3
McadcomServices
 90
        0
280
     0
281
     0
  0
CLASS
  1
ASAPP
  2
AcAsAppObject
  3
AutoSurfServices
 90
        0
280
     0
281
     0
  0
CLASS
  1
IM_STATIC_MAN
  2
AcImStaticVarManager
  3
AcMeServices
 90
    32768
280
     0
281
     0
  0
CLASS
  1
ACIMDBLSTATICVAR
  2
AcImDblStaticVar
  3
AcMeServices
 90
    32768
280
     0
281
     0
  0
CLASS
  1
ACIMSTRSTATICVAR
  2
AcImStrStaticVar
  3
AcMeServices
 90
    32768
280
     0
281
     0
  0
CLASS
  1
ACIMINTSTATICVAR
  2
AcImIntStaticVar
  3
AcMeServices
 90
    32768
280
     0
281
     0
  0
CLASS
  1
ACASGREFMASTER
  2
AcAsGrefMaster
  3
AutoSurfResolverServices
 90
        0
280
     0
281
     0
  0
CLASS
  1
ACADGREFMODULE
  2
AcAdGrefModule
  3
AdGrefServices
 90
        0
280
     0
281
     0
  0
CLASS
  1
AMDTMAPISURFMOUDULE
  2
AmdtMApiSurfModule
  3
MApiSurfServices
 90
        0
280
     0
281
     0
  0
CLASS
  1
MAPIAMMOUDLE
  2
MApiAmModule
  3
MApiAmServices
 90
        0
280
     0
281
     0
  0
CLASS
  1
AMDTADMENUSTATE
  2
AmdtAdMenuState
  3
DesignerServices
 90
        0
280
     0
281
     0
  0
CLASS
  1
ADAPPL
  2
AcAdAppl
  3
DesignerServices
 90
        0
280
     0
281
     0
  0
CLASS
  1
DEPMGR
  2
AcAdDepMgr
  3
DesignerServices
 90
        0
280
     0
281
     0
  0
CLASS
  1
PARAMMGR
  2
AcAdParamMgr
  3
DesignerServices
 90
        0
280
     0
281
     0
  0
CLASS
  1
PARAMSCOPE
  2
AcAdParamScope
  3
DesignerServices
 90
        0
280
     0
281
     0
  0
CLASS
  1
NAMEDAPPL
  2
AcAdNamedAppl
  3
DesignerServices
 90
        0
280
     0
281
     0
  0
CLASS
  1
ADHNTMPLT
  2
AdHoleNoteTemplateMgr
  3
DesignerServices
 90
    32768
280
     0
281
     0
  0
CLASS
  1
AM_HNTEMPLATE_MGR_NAME
  2
AdHoleNoteTemplateMgrName
  3
DesignerServices
 90
    32768
280
     0
281
     0
  0
CLASS
  1
AMDTDMMENUSTATE
  2
AmdtDmMenuState
  3
AcMechDwgViewMgmt
 90
        0
280
     0
281
     0
  0
CLASS
  1
MAPIADMODULE
  2
MApiAdModule
  3
MApiAdServices
 90
        0
280
     0
281
     0
  0
CLASS
  1
AMDTAMMENUSTATE
  2
AmdtAmMenuState
  3
DesignerAssemblies
 90
        0
280
     0
281
     0
  0
CLASS
  1
ACAMPROJECT
  2
AcAmProject
  3
DesignerAssemblies
 90
        0
280
     0
281
     0
  0
CLASS
  1
ACAMGRCOMPDEF
  2
AcAmGrCompDef
  3
DesignerAssemblies
 90
        0
280
     0
281
     0
  0
CLASS
  1
ACCMCONTEXT
  2
AcCmContext
  3
DesignerAssemblies
 90
        0
280
     0
281
     0
  0
CLASS
  1
ACAMCOMPDEF
  2
AcAmCompDef
  3
DesignerAssemblies
 90
        0
280
     0
281
     0
  0
CLASS
  1
ACAMCOMPDEFMGR
  2
AcAmCompDefMgr
  3
DesignerAssemblies
 90
        0
280
     0
281
     0
  0
CLASS
  1
AMCONTEXTMGR
  2
AcAmContextMgr
  3
DesignerAssemblies
 90
        0
280
     0
281
     0
  0
CLASS
  1
ACAMCONTEXTMODELER
  2
AcAmContextModeler
  3
DesignerAssemblies
 90
        0
280
     0
281
     0
  0
CLASS
  1
CATALOGSTATE
  2
AcAmCatalogState
  3
DesignerAssemblies
 90
        0
280
     0
281
     0
  0
CLASS
  1
ACAMGRCOMPDEFSET
  2
AcAmGrCompDefSet
  3
DesignerAssemblies
 90
        0
280
     0
281
     0
  0
CLASS
  1
AMDTBROWSERDBTAB
  2
AmdtBrowserDbTab
  3
McadcomServices
 90
        0
280
     0
281
     0
  0
CLASS
  1
CBROWSERAPPOBJECT
  2
CBrowserAppObject
  3
McadcomServices
 90
        0
280
     0
281
     0
  0
CLASS
  1
DM_PLACEHOLDER
  2
AcDmSelsetPlaceholder
  3
AcMechDwgViewMgmt
 90
        0
280
     0
281
     0
  0
CLASS
  1
ACMPICKOBJ
  2
AcmPickEnt
  3
"AcmSymBB|Product Description: AutoCAD Mechanical|Company: Autodesk"
 90
    32768
280
     0
281
     1
  0
CLASS
  1
ACMNOTESTANDARDISO
  2
AmdtNoteStdISO
  3
"Amdt_StdImp|Product Description: AutoCAD Mechanical|Company: Autodesk"
 90
        0
280
     0
281
     0
  0
CLASS
  1
ACMNOTESTANDARDANSI
  2
AmdtNoteStdANSI
  3
"Amdt_StdImp|Product Description: AutoCAD Mechanical|Company: Autodesk"
 90
    32768
280
     0
281
     0
  0
CLASS
  1
ACMTHREADLINESTANDARDISO
  2
AmdtThreadLineStdISO
  3
"Amdt_StdImp|Product Description: AutoCAD Mechanical|Company: Autodesk"
 90
        0
280
     0
281
     0
  0
CLASS
  1
ACMTHREADLINESTANDARDANSI
  2
AmdtThreadLineStdANSI
  3
"Amdt_StdImp|Product Description: AutoCAD Mechanical|Company: Autodesk"
 90
    32768
280
     0
281
     0
  0
CLASS
  1
TABLESTYLE
  2
AcDbTableStyle
  3
ObjectDBX Classes
 90
     4095
280
     0
281
     0
  0
CLASS
  1
SORTENTSTABLE
  2
AcDbSortentsTable
  3
ObjectDBX Classes
 90
        0
280
     0
281
     0
  0
CLASS
  1
AMDTEDGESTANDARDISO13715
  2
AmdtEdgeStdISO13715
  3
"Amdt_StdImp|Product Description: AutoCAD Mechanical|Company: Autodesk"
 90
        0
280
     0
281
     0
  0
CLASS
  1
AMDTNOTETEMPLATEDB
  2
AmdtNoteTemplateDB
  3
AMDT_STDIMP_MODULE_NAME
 90
        0
280
     0
281
     0
  0
CLASS
  1
ACAMGHOLECHARTSTDISO
  2
AcAmgHoleChartStdISO
  3
ACMSYMBB_MODULE_NAME
 90
        0
280
     0
281
     0
  0
CLASS
  1
ACAMGHOLECHARTSTDANSI
  2
AcAmgHoleChartStdANSI
  3
ACMSYMBB_MODULE_NAME
 90
    32768
280
     0
281
     0
  0
CLASS
  1
AMDTACMWBLOCKBOMENTITY
  2
AmdtAcmWblockBomEntity
  3
"AcmSymBB|Product Description: AutoCAD Mechanical|Company: Autodesk"
 90
     3071
280
     0
281
     1
  0
CLASS
  1
AMDTDETAILSYM
  2
AmdtDetailSym
  3
"AcmSymBB|Product Description: AutoCAD Mechanical|Company: Autodesk"
 90
    35839
280
     0
281
     1
  0
CLASS
  1
AMDTDETAILSYMLABEL
  2
AmdtDetailSymLabel
  3
"AcmSymBB|Product Description: AutoCAD Mechanical|Company: Autodesk"
 90
    35839
280
     0
281
     1
  0
CLASS
  1
ACDBELLIPSERES
  2
AcDbEllipseRes
  3
AcGrefServices
 90
    32768
280
     0
281
     0
  0
CLASS
  1
MATERIAL
  2
AcDbMaterial
  3
ObjectDBX Classes
 90
     1024
280
     0
281
     0
  0
CLASS
  1
VISUALSTYLE
  2
AcDbVisualStyle
  3
ObjectDBX Classes
 90
     4095
280
     0
281
     0
  0
CLASS
  1
ACRFATTGENMGR
  2
AcRfAttGeneralMgr
  3
AcAttribServices
 90
    32768
280
     0
281
     0
  0
CLASS
  1
ACRFOBJATTMGR
  2
AcRfObjAttGroupMgr
  3
AcAttribServices
 90
    32768
280
     0
281
     0
  0
CLASS
  1
ACRFMCADAPIATTHOLDER
  2
AcRfMCADAPIAttHolder
  3
AcAttribServices
 90
    32768
280
     0
281
     0
  0
CLASS
  1
AMDTSYSATTR
  2
AmdtSystemAttribute
  3
AcAttribServices
 90
    32768
280
     0
281
     0
  0
CLASS
  1
ACMTAPERSTANDARDISO
  2
AcmTaperStdISO
  3
"Amdt_StdImp|Product Description: AutoCAD Mechanical|Company: Autodesk"
 90
        0
280
     0
281
     0
  0
CLASS
  1
ACMTAPERSTANDARDANSI
  2
AcmTaperStdANSI
  3
"Amdt_StdImp|Product Description: AutoCAD Mechanical|Company: Autodesk"
 90
    32768
280
     0
281
     0
  0
CLASS
  1
CAMSSTRUCTBTNSTATE
  2
StructBtnState
  3
L"DesignerAssemblies"
 90
    32768
280
     0
281
     0
  0
ENDSEC
  0
SECTION
  2
TABLES
  0
TABLE
  2
VPORT
  5
8
330
0
100
AcDbSymbolTable
 70
     1
  0
VPORT
  5
2BF2A
330
8
100
AcDbSymbolTableRecord
100
AcDbViewportTableRecord
  2
*Active
 70
     0
 10
0.0
 20
0.0
 11
1.0
 21
1.0
 12
787.6301325252441
 22
610.3692568255645
 13
0.0
 23
0.0
 14
2.5
 24
2.5
 15
10.0
 25
10.0
 16
0.0
 26
0.0
 36
1.0
 17
0.0
 27
0.0
 37
0.0
 40
543.1347167364049
 41
0.7089552238805971
 42
50.0
 43
-1370.695619172058
 44
-1370.695619172058
 50
0.0
 51
0.0
 71
    16
 72
   100
 73
     1
 74
     3
 75
     0
 76
     0
 77
     0
 78
     0
281
     0
 65
     0
110
0.0
120
0.0
130
0.0
111
1.0
121
0.0
131
0.0
112
0.0
122
1.0
132
0.0
 79
     0
146
0.0
  0
ENDTAB
  0
TABLE
  2
LTYPE
  5
5
330
0
100
AcDbSymbolTable
 70
    38
  0
LTYPE
  5
14
330
5
100
AcDbSymbolTableRecord
100
AcDbLinetypeTableRecord
  2
ByBlock
 70
     0
  3

 72
    65
 73
     0
 40
0.0
  0
LTYPE
  5
15
330
5
100
AcDbSymbolTableRecord
100
AcDbLinetypeTableRecord
  2
ByLayer
 70
     0
  3

 72
    65
 73
     0
 40
0.0
  0
LTYPE
  5
16
330
5
100
AcDbSymbolTableRecord
100
AcDbLinetypeTableRecord
  2
Continuous
 70
     0
  3
Solid line
 72
    65
 73
     0
 40
0.0
  0
LTYPE
  5
4F
330
5
100
AcDbSymbolTableRecord
100
AcDbLinetypeTableRecord
  2
AM_ISO02W050
 70
     0
  3
__ __ __ __ __ __ __ __ __ __ __ __ __ __ __
 72
    65
 73
     2
 40
7.5
 49
6.0
 74
     0
 49
-1.5
 74
     0
  0
LTYPE
  5
52
330
5
100
AcDbSymbolTableRecord
100
AcDbLinetypeTableRecord
  2
Amconstr
 70
     0
  3
_______________________
 72
    65
 73
     2
 40
9999.0
 49
9999.0
 74
     0
 49
0.0
 74
     0
  0
LTYPE
  5
64
330
5
100
AcDbSymbolTableRecord
100
AcDbLinetypeTableRecord
  2
ACISOWELD
 70
     0
  3
_ _ _ _ _
 72
    65
 73
     2
 40
2.0
 49
2.0
 74
     0
 49
-1.0
 74
     0
  0
LTYPE
  5
65
330
5
100
AcDbSymbolTableRecord
100
AcDbLinetypeTableRecord
  2
ACISOTGB
 70
     0
  3
__ . . __ . .
 72
    65
 73
     6
 40
9.0
 49
4.0
 74
     0
 49
-1.0
 74
     0
 49
1.0
 74
     0
 49
-1.0
 74
     0
 49
1.0
 74
     0
 49
-1.0
 74
     0
  0
LTYPE
  5
66
330
5
100
AcDbSymbolTableRecord
100
AcDbLinetypeTableRecord
  2
ACISOTGL
 70
     0
  3
_ _ _ _ _
 72
    65
 73
     2
 40
3.0
 49
2.0
 74
     0
 49
-1.0
 74
     0
  0
LTYPE
  5
69
330
5
100
AcDbSymbolTableRecord
100
AcDbLinetypeTableRecord
  2
CENTER
 70
     0
  3
__ . __
 72
    65
 73
     4
 40
7.0
 49
4.0
 74
     0
 49
-1.0
 74
     0
 49
1.0
 74
     0
 49
-1.0
 74
     0
  0
LTYPE
  5
A6E
330
5
100
AcDbSymbolTableRecord
100
AcDbLinetypeTableRecord
  2
PHANTOM2
 70
     0
  3
Phantom (.5x) ___ _ _ ___ _ _ ___ _ _ ___ _ _
 72
    65
 73
     6
 40
31.75
 49
15.875
 74
     0
 49
-3.174999999999998
 74
     0
 49
3.174999999999998
 74
     0
 49
-3.174999999999998
 74
     0
 49
3.174999999999998
 74
     0
 49
-3.174999999999998
 74
     0
  0
LTYPE
  5
4DED
330
5
100
AcDbSymbolTableRecord
100
AcDbLinetypeTableRecord
  2
中線
 70
     0
  3
___________________
 72
    65
 73
     2
 40
2.0
 49
1.0
 74
     0
 49
1.0
 74
     0
  0
LTYPE
  5
4DF6
330
5
100
AcDbSymbolTableRecord
100
AcDbLinetypeTableRecord
  2
細線
 70
     0
  3
___________________
 72
    65
 73
     2
 40
2.0
 49
1.0
 74
     0
 49
1.0
 74
     0
  0
LTYPE
  5
4DF7
330
5
100
AcDbSymbolTableRecord
100
AcDbLinetypeTableRecord
  2
太線
 70
     0
  3
___________________
 72
    65
 73
     2
 40
2.0
 49
1.0
 74
     0
 49
1.0
 74
     0
  0
LTYPE
  5
4EA7
330
5
100
AcDbSymbolTableRecord
100
AcDbLinetypeTableRecord
  2
文字
 70
     0
  3
_________________
 72
    65
 73
     2
 40
2.0
 49
1.0
 74
     0
 49
1.0
 74
     0
  0
LTYPE
  5
4EA9
330
5
100
AcDbSymbolTableRecord
100
AcDbLinetypeTableRecord
  2
寸法線
 70
     0
  3
________________
 72
    65
 73
     2
 40
2.0
 49
1.0
 74
     0
 49
1.0
 74
     0
  0
LTYPE
  5
4F12
330
5
100
AcDbSymbolTableRecord
100
AcDbLinetypeTableRecord
  2
ハッチング
 70
     0
  3
_________________
 72
    65
 73
     2
 40
2.0
 49
1.0
 74
     0
 49
1.0
 74
     0
  0
LTYPE
  5
5180
330
5
100
AcDbSymbolTableRecord
100
AcDbLinetypeTableRecord
  2
陰線1
 70
     0
  3
__ __ __ __
 72
    65
 73
     2
 40
4.0
 49
2.2
 74
     0
 49
-1.8
 74
     0
  0
LTYPE
  5
5182
330
5
100
AcDbSymbolTableRecord
100
AcDbLinetypeTableRecord
  2
切断線
 70
     0
  3
/\/-/\/-/\/-/\/-/\/-/\/
 72
    65
 73
     2
 40
11.0001
 49
0.0001
 74
     4
 75
   135
340
56
 46
0.04
 50
0.0
 44
0.0
 45
0.0
 49
-11.0
 74
     0
  0
LTYPE
  5
5183
330
5
100
AcDbSymbolTableRecord
100
AcDbLinetypeTableRecord
  2
想像線1
 70
     0
  3
__ __ __ _____ __ __ ____
 72
    65
 73
     6
 40
14.5
 49
6.0
 74
     0
 49
-1.5
 74
     0
 49
2.0
 74
     0
 49
-1.5
 74
     0
 49
2.0
 74
     0
 49
-1.5
 74
     0
  0
LTYPE
  5
5185
330
5
100
AcDbSymbolTableRecord
100
AcDbLinetypeTableRecord
  2
中心線1
 70
     0
  3
___ _ ___ _ ___
 72
    65
 73
     4
 40
18.0
 49
12.0
 74
     0
 49
-2.0
 74
     0
 49
2.0
 74
     0
 49
-2.0
 74
     0
  0
LTYPE
  5
5188
330
5
100
AcDbSymbolTableRecord
100
AcDbLinetypeTableRecord
  2
補助線
 70
     0
  3
______________
 72
    65
 73
     2
 40
2.0
 49
1.0
 74
     0
 49
1.0
 74
     0
  0
LTYPE
  5
6427
330
5
100
AcDbSymbolTableRecord
100
AcDbLinetypeTableRecord
  2
HIDDEN
 70
     0
  3
Hidden __ __ __ __ __ __ __ __ __ __ __ __ __ _
 72
    65
 73
     2
 40
0.375
 49
0.25
 74
     0
 49
-0.125
 74
     0
  0
LTYPE
  5
AC81
330
5
100
AcDbSymbolTableRecord
100
AcDbLinetypeTableRecord
  2
破断線
 70
     0
  3
/\/-/\/-/\/-/\/-/\/-/\/
 72
    65
 73
     2
 40
0.4401
 49
0.0001
 74
     4
 75
   136
340
AC80
 46
0.0016
 50
0.0
 44
0.0
 45
0.0
 49
-0.4400000000000003
 74
     0
  0
LTYPE
  5
AC9E
330
5
100
AcDbSymbolTableRecord
100
AcDbLinetypeTableRecord
  2
Amzigzag
 70
     0
  3
/\/-/\/-/\/-/\/-/\/-/\/
 72
    65
 73
     2
 40
11.0001
 49
0.0001
 74
     4
 75
   135
340
56
 46
0.04
 50
0.0
 44
0.0
 45
0.0
 49
-11.0
 74
     0
  0
LTYPE
  5
12FB3
330
5
100
AcDbSymbolTableRecord
100
AcDbLinetypeTableRecord
  2
CENTER2
 70
     0
  3
Center (.5x) ___ _ ___ _ ___ _ ___ _ ___ _ ___
 72
    65
 73
     4
 40
1.125
 49
0.75
 74
     0
 49
-0.125
 74
     0
 49
0.125
 74
     0
 49
-0.125
 74
     0
  0
LTYPE
  5
12FB4
330
5
100
AcDbSymbolTableRecord
100
AcDbLinetypeTableRecord
  2
HIDDEN2
 70
     0
  3
Hidden (.5x) _ _ _ _ _ _ _ _ _ _ _ _ _ _ _ _ _
 72
    65
 73
     2
 40
0.1875
 49
0.125
 74
     0
 49
-0.0625
 74
     0
  0
LTYPE
  5
12FB5
330
5
100
AcDbSymbolTableRecord
100
AcDbLinetypeTableRecord
  2
Amzigzag2
 70
     0
  3
/\/-/\/-/\/-/\/-/\/-/\/
 72
    65
 73
     2
 40
0.4401
 49
0.0001
 74
     4
 75
   136
340
AC80
 46
0.0016
 50
0.0
 44
0.0
 45
0.0
 49
-0.4400000000000003
 74
     0
  0
LTYPE
  5
12FB6
330
5
100
AcDbSymbolTableRecord
100
AcDbLinetypeTableRecord
  2
ACANSTGB
 70
     0
  3
__ . . __ . .
 72
    65
 73
     6
 40
0.35433070866
 49
0.15748031496
 74
     0
 49
-0.03937007874
 74
     0
 49
0.03937007874
 74
     0
 49
-0.03937007874
 74
     0
 49
0.03937007874
 74
     0
 49
-0.03937007874
 74
     0
  0
LTYPE
  5
12FB7
330
5
100
AcDbSymbolTableRecord
100
AcDbLinetypeTableRecord
  2
ACANSTGL
 70
     0
  3
_ _ _ _ _
 72
    65
 73
     2
 40
0.11811023622
 49
0.07874015748
 74
     0
 49
-0.03937007874
 74
     0
  0
LTYPE
  5
142AB
330
5
100
AcDbSymbolTableRecord
100
AcDbLinetypeTableRecord
  2
陰線2
 70
     0
  3
_ _ _ _
 72
    65
 73
     2
 40
1.199999999999999
 49
0.7
 74
     0
 49
-0.5
 74
     0
  0
LTYPE
  5
142AC
330
5
100
AcDbSymbolTableRecord
100
AcDbLinetypeTableRecord
  2
想像線2
 70
     0
  3
__ _ _ __ _ _ __
 72
    65
 73
     6
 40
6.9
 49
2.5
 74
     0
 49
-0.8
 74
     0
 49
1.0
 74
     0
 49
-0.8
 74
     0
 49
1.0
 74
     0
 49
-0.8
 74
     0
  0
LTYPE
  5
142AD
330
5
100
AcDbSymbolTableRecord
100
AcDbLinetypeTableRecord
  2
中心線2
 70
     0
  3
 -+-
 72
    65
 73
     4
 40
9.5
 49
6.0
 74
     0
 49
-1.0
 74
     0
 49
1.5
 74
     0
 49
-1.0
 74
     0
  0
LTYPE
  5
142AE
330
5
100
AcDbSymbolTableRecord
100
AcDbLinetypeTableRecord
  2
中心線3
 70
     0
  3
 +
 72
    65
 73
     4
 40
3.799999999999998
 49
2.0
 74
     0
 49
-0.6
 74
     0
 49
0.6
 74
     0
 49
-0.6
 74
     0
  0
LTYPE
  5
142AF
330
5
100
AcDbSymbolTableRecord
100
AcDbLinetypeTableRecord
  2
AM_ISO08W050
 70
     0
  3
____ . ____ . ____ . ____ . ____ . ____ . ____
 72
    65
 73
     4
 40
18.0
 49
12.0
 74
     0
 49
-1.5
 74
     0
 49
3.0
 74
     0
 49
-1.5
 74
     0
  0
LTYPE
  5
142B0
330
5
100
AcDbSymbolTableRecord
100
AcDbLinetypeTableRecord
  2
AM_ISO09W050
 70
     0
  3
_____ . . _____ . . _____ . . ____ .. ____
 72
    65
 73
     6
 40
22.5
 49
12.0
 74
     0
 49
-1.5
 74
     0
 49
3.0
 74
     0
 49
-1.5
 74
     0
 49
3.0
 74
     0
 49
-1.5
 74
     0
  0
LTYPE
  5
142B1
330
5
100
AcDbSymbolTableRecord
100
AcDbLinetypeTableRecord
  2
AM_ISO08W050x2
 70
     0
  3
__ . __ . __ . __ . __ . __
 72
    65
 73
     4
 40
9.0
 49
6.0
 74
     0
 49
-0.75
 74
     0
 49
1.5
 74
     0
 49
-0.75
 74
     0
  0
LTYPE
  5
142B2
330
5
100
AcDbSymbolTableRecord
100
AcDbLinetypeTableRecord
  2
AM_ISO02W050x2
 70
     0
  3
 _ _ _ _ _ _ _ _ _ _ _ _
 72
    65
 73
     2
 40
3.75
 49
3.0
 74
     0
 49
-0.75
 74
     0
  0
LTYPE
  5
1668F
330
5
100
AcDbSymbolTableRecord
100
AcDbLinetypeTableRecord
  2
genzigzag
 70
     0
  3
/\/-/\/-/\/-/\/-/\/-/\/
 72
    65
 73
     2
 40
12.0001
 49
0.0001
 74
     4
 75
   135
340
AC80
 46
2.0
 50
0.0
 44
0.0
 45
0.0
 49
-12.0
 74
     0
  0
LTYPE
  5
1A4D4
330
5
100
AcDbSymbolTableRecord
100
AcDbLinetypeTableRecord
  2
DASHED
 70
     0
  3
__ __ __ __ __ __ __ __ __ __ __ __ __ __ __
 72
    65
 73
     2
 40
3.5
 49
2.0
 74
     0
 49
-1.5
 74
     0
  0
LTYPE
  5
25137
330
5
100
AcDbSymbolTableRecord
100
AcDbLinetypeTableRecord
  2
想像線
 70
     0
  3
__ __ __ _____ __ __ ____
 72
    65
 73
     6
 40
12.5
 49
5.0
 74
     0
 49
-1.5
 74
     0
 49
1.5
 74
     0
 49
-1.5
 74
     0
 49
1.5
 74
     0
 49
-1.5
 74
     0
  0
ENDTAB
  0
TABLE
  2
LAYER
  5
2
102
{ACAD_XDICTIONARY
360
3F95
102
}
330
0
100
AcDbSymbolTable
 70
    43
  0
LAYER
  5
10
330
2
100
AcDbSymbolTableRecord
100
AcDbLayerTableRecord
  2
0
 70
     0
 62
     7
  6
Continuous
370
    -3
390
F
  0
LAYER
  5
6D1
330
2
100
AcDbSymbolTableRecord
100
AcDbLayerTableRecord
  2
Defpoints
 70
     0
 62
     7
  6
Continuous
290
     0
370
    -3
390
F
  0
LAYER
  5
5F85
330
2
100
AcDbSymbolTableRecord
100
AcDbLayerTableRecord
  2
AM_0
 70
     0
 62
     7
  6
中線
370
    30
390
F
  0
LAYER
  5
AC9F
330
2
100
AcDbSymbolTableRecord
100
AcDbLayerTableRecord
  2
size
 70
     0
 62
     5
  6
Continuous
290
     0
370
    30
390
F
  0
LAYER
  5
ACA0
330
2
100
AcDbSymbolTableRecord
100
AcDbLayerTableRecord
  2
waku
 70
     0
 62
     7
  6
Continuous
370
    40
390
F
  0
LAYER
  5
ACA1
330
2
100
AcDbSymbolTableRecord
100
AcDbLayerTableRecord
  2
AM_6
 70
     0
 62
     2
  6
文字
370
    20
390
F
  0
LAYER
  5
ACC8
330
2
100
AcDbSymbolTableRecord
100
AcDbLayerTableRecord
  2
hyomoji
 70
     0
 62
     2
  6
Continuous
370
    20
390
F
  0
LAYER
  5
ACC9
330
2
100
AcDbSymbolTableRecord
100
AcDbLayerTableRecord
  2
hyosen1
 70
     0
 62
     1
  6
Continuous
370
    30
390
F
  0
LAYER
  5
ACCA
330
2
100
AcDbSymbolTableRecord
100
AcDbLayerTableRecord
  2
hyosen2
 70
     0
 62
     1
  6
Continuous
370
    20
390
F
  0
LAYER
  5
AD60
330
2
100
AcDbSymbolTableRecord
100
AcDbLayerTableRecord
  2
AM_1
 70
     0
 62
    30
  6
太線
370
    40
390
F
1001
AcAecLayerStandard
1000

1000

  0
LAYER
  5
AD64
330
2
100
AcDbSymbolTableRecord
100
AcDbLayerTableRecord
  2
AM_2
 70
     0
 62
     1
  6
細線
370
    20
390
F
1001
AcAecLayerStandard
1000

1000

  0
LAYER
  5
AD67
330
2
100
AcDbSymbolTableRecord
100
AcDbLayerTableRecord
  2
AM_3
 70
     0
 62
     6
  6
陰線1
370
    18
390
F
1001
AcAecLayerStandard
1000

1000

  0
LAYER
  5
AD68
330
2
100
AcDbSymbolTableRecord
100
AcDbLayerTableRecord
  2
AM_5
 70
     0
 62
     3
  6
寸法線
370
    20
390
F
1001
AcAecLayerStandard
1000

1000

  0
LAYER
  5
AD69
330
2
100
AcDbSymbolTableRecord
100
AcDbLayerTableRecord
  2
AM_7
 70
     0
 62
     4
  6
中心線1
370
    20
390
F
1001
AcAecLayerStandard
1000

1000

  0
LAYER
  5
AD6A
330
2
100
AcDbSymbolTableRecord
100
AcDbLayerTableRecord
  2
AM_8
 70
     0
 62
     1
  6
ハッチング
370
    18
390
F
1001
AcAecLayerStandard
1000

1000

  0
LAYER
  5
AD6E
330
2
100
AcDbSymbolTableRecord
100
AcDbLayerTableRecord
  2
AM_10
 70
     0
 62
     7
  6
破断線
370
    30
390
F
1001
AcAecLayerStandard
1000

1000

  0
LAYER
  5
AD6F
330
2
100
AcDbSymbolTableRecord
100
AcDbLayerTableRecord
  2
AM_11
 70
     0
 62
     2
  6
想像線1
370
    18
390
F
1001
AcAecLayerStandard
1000

1000

  0
LAYER
  5
12FB8
330
2
100
AcDbSymbolTableRecord
100
AcDbLayerTableRecord
  2
P020
 70
     0
 62
     7
  6
Continuous
370
    -3
390
F
  0
LAYER
  5
12FB9
330
2
100
AcDbSymbolTableRecord
100
AcDbLayerTableRecord
  2
P0210
 70
     0
 62
     7
  6
Continuous
370
    -3
390
F
  0
LAYER
  5
12FBA
330
2
100
AcDbSymbolTableRecord
100
AcDbLayerTableRecord
  2
P0211
 70
     0
 62
     7
  6
Continuous
370
    -3
390
F
  0
LAYER
  5
12FBB
330
2
100
AcDbSymbolTableRecord
100
AcDbLayerTableRecord
  2
P0212
 70
     0
 62
     7
  6
Continuous
370
    -3
390
F
  0
LAYER
  5
12FBC
330
2
100
AcDbSymbolTableRecord
100
AcDbLayerTableRecord
  2
P0213
 70
     0
 62
     7
  6
Continuous
370
    -3
390
F
  0
LAYER
  5
12FBD
330
2
100
AcDbSymbolTableRecord
100
AcDbLayerTableRecord
  2
P010
 70
     0
 62
     7
  6
Continuous
370
    -3
390
F
  0
LAYER
  5
12FBE
330
2
100
AcDbSymbolTableRecord
100
AcDbLayerTableRecord
  2
P011
 70
     0
 62
     7
  6
Continuous
370
    -3
390
F
  0
LAYER
  5
12FBF
330
2
100
AcDbSymbolTableRecord
100
AcDbLayerTableRecord
  2
P012
 70
     0
 62
     7
  6
Continuous
370
    -3
390
F
  0
LAYER
  5
13A52
330
2
100
AcDbSymbolTableRecord
100
AcDbLayerTableRecord
  2
AM_CL
 70
     0
 62
     1
  6
Amconstr
370
    20
390
F
1001
AcAecLayerStandard
1000

1000

  0
LAYER
  5
142B3
330
2
100
AcDbSymbolTableRecord
100
AcDbLayerTableRecord
  2
1
 70
     0
 62
     7
  6
Continuous
370
    -3
390
F
  0
LAYER
  5
142B4
330
2
100
AcDbSymbolTableRecord
100
AcDbLayerTableRecord
  2
AM_BOR
 70
     0
 62
     7
  6
Continuous
370
    30
390
F
  0
LAYER
  5
142B5
330
2
100
AcDbSymbolTableRecord
100
AcDbLayerTableRecord
  2
AM_4
 70
     0
 62
     3
  6
補助線
370
    20
390
F
  0
LAYER
  5
142B6
330
2
100
AcDbSymbolTableRecord
100
AcDbLayerTableRecord
  2
AM_FEA-AM_1
 70
     0
 62
    30
  6
太線
370
    40
390
F
  0
LAYER
  5
142B7
330
2
100
AcDbSymbolTableRecord
100
AcDbLayerTableRecord
  2
AM_FEA-AM_6
 70
     0
 62
     2
  6
文字
370
    20
390
F
  0
LAYER
  5
142B8
330
2
100
AcDbSymbolTableRecord
100
AcDbLayerTableRecord
  2
AM_12
 70
     0
 62
     7
  6
Continuous
290
     0
370
    20
390
F
  0
LAYER
  5
142B9
330
2
100
AcDbSymbolTableRecord
100
AcDbLayerTableRecord
  2
AM_PAREF
 70
     0
 62
     4
  6
Continuous
290
     0
370
    20
390
F
  0
LAYER
  5
142BA
330
2
100
AcDbSymbolTableRecord
100
AcDbLayerTableRecord
  2
busen1
 70
     0
 62
    30
  6
Continuous
370
    40
390
F
  0
LAYER
  5
142BB
330
2
100
AcDbSymbolTableRecord
100
AcDbLayerTableRecord
  2
busen2
 70
     0
 62
     2
  6
Continuous
370
    20
390
F
  0
LAYER
  5
142BC
330
2
100
AcDbSymbolTableRecord
100
AcDbLayerTableRecord
  2
PV0001_1
 70
     0
 62
     7
  6
Continuous
370
    -3
390
F
  0
LAYER
  5
1A4D5
330
2
100
AcDbSymbolTableRecord
100
AcDbLayerTableRecord
  2
P0215
 70
     0
 62
     7
  6
Continuous
370
    -3
390
F
  0
LAYER
  5
1A4D6
330
2
100
AcDbSymbolTableRecord
100
AcDbLayerTableRecord
  2
P0216
 70
     0
 62
     7
  6
Continuous
370
    -3
390
F
  0
LAYER
  5
1A4D7
330
2
100
AcDbSymbolTableRecord
100
AcDbLayerTableRecord
  2
P0224
 70
     0
 62
     7
  6
Continuous
370
    -3
390
F
  0
LAYER
  5
1A4D8
330
2
100
AcDbSymbolTableRecord
100
AcDbLayerTableRecord
  2
P0225
 70
     0
 62
     7
  6
Continuous
370
    -3
390
F
  0
LAYER
  5
1A4D9
330
2
100
AcDbSymbolTableRecord
100
AcDbLayerTableRecord
  2
P0222
 70
     0
 62
     7
  6
Continuous
370
    -3
390
F
  0
LAYER
  5
25C9A
330
2
100
AcDbSymbolTableRecord
100
AcDbLayerTableRecord
  2
枠
 70
     0
 62
     3
  6
Continuous
370
    40
390
F
  0
LAYER
  5
25C9B
330
2
100
AcDbSymbolTableRecord
100
AcDbLayerTableRecord
  2
イラスト
 70
     0
 62
     7
  6
Continuous
370
    -3
390
F
  0
ENDTAB
  0
TABLE
  2
STYLE
  5
3
330
0
100
AcDbSymbolTable
 70
    16
  0
STYLE
  5
11
330
3
100
AcDbSymbolTableRecord
100
AcDbTextStyleTableRecord
  2
STANDARD
 70
     0
 40
0.0
 41
0.7
 50
0.0
 71
     0
 42
3.2
  3
romans.shx
  4
extfont.shx
  0
STYLE
  5
56
330
3
100
AcDbSymbolTableRecord
100
AcDbTextStyleTableRecord
  2

 70
     1
 40
0.0
 41
1.0
 50
0.0
 71
     0
 42
2.5
  3
ltypeshp.shx
  4

  0
STYLE
  5
58
330
3
100
AcDbSymbolTableRecord
100
AcDbTextStyleTableRecord
  2
ACISOTS
 70
     0
 40
1.0
 41
1.0
 50
0.0
 71
     0
 42
2.5
  3
isocp.shx
  4
extfont.shx
  0
STYLE
  5
63
330
3
100
AcDbSymbolTableRecord
100
AcDbTextStyleTableRecord
  2
ACISOGDT
 70
     0
 40
0.0
 41
1.0
 50
0.0
 71
     0
 42
2.5
  3
amgdt.shx
  4

  0
STYLE
  5
A74
330
3
100
AcDbSymbolTableRecord
100
AcDbTextStyleTableRecord
  2
DIM
 70
     0
 40
0.0
 41
1.0
 50
0.0
 71
     0
 42
2.5
  3
monotxt.shx
  4
extfont.shx
  0
STYLE
  5
AC80
330
3
100
AcDbSymbolTableRecord
100
AcDbTextStyleTableRecord
  2

 70
     1
 40
0.0
 41
1.0
 50
0.0
 71
     0
 42
3.2
  3
genltshp.shx
  4

  0
STYLE
  5
12FC0
330
3
100
AcDbSymbolTableRecord
100
AcDbTextStyleTableRecord
  2
DIMENSION
 70
     0
 40
0.0
 41
0.8
 50
0.0
 71
     0
 42
0.2
  3
romans.shx
  4
EXTFONT.shx
  0
STYLE
  5
12FC1
330
3
100
AcDbSymbolTableRecord
100
AcDbTextStyleTableRecord
  2
ACANSTS
 70
     0
 40
1.0
 41
1.0
 50
0.0
 71
     0
 42
0.2
  3
romans.shx
  4
extfont.shx
  0
STYLE
  5
12FC2
330
3
100
AcDbSymbolTableRecord
100
AcDbTextStyleTableRecord
  2
ACANSGDT
 70
     0
 40
0.0
 41
1.0
 50
0.0
 71
     0
 42
0.2
  3
AMGDT
  4

  0
STYLE
  5
142BD
330
3
100
AcDbSymbolTableRecord
100
AcDbTextStyleTableRecord
  2
USER1
 70
     0
 40
0.0
 41
1.0
 50
0.0
 71
     0
 42
2.5
  3
TXT.SHX
  4

  0
STYLE
  5
142BE
330
3
100
AcDbSymbolTableRecord
100
AcDbTextStyleTableRecord
  2
USER2
 70
     0
 40
0.0
 41
1.0
 50
0.0
 71
     0
 42
2.5
  3
SIMPLEX.SHX
  4

  0
STYLE
  5
142BF
330
3
100
AcDbSymbolTableRecord
100
AcDbTextStyleTableRecord
  2
USER3
 70
     0
 40
0.0
 41
1.0
 50
0.0
 71
     0
 42
2.5
  3
ITALIC.SHX
  4

  0
STYLE
  5
1431D
330
3
100
AcDbSymbolTableRecord
100
AcDbTextStyleTableRecord
  2
SYS文字
 70
     0
 40
0.0
 41
0.8
 50
5.0
 71
     0
 42
3.2
  3
romans.shx
  4
extfont.shx
  0
STYLE
  5
18D93
330
3
100
AcDbSymbolTableRecord
100
AcDbTextStyleTableRecord
  2
KNJYOKO
 70
     0
 40
0.0
 41
1.0
 50
0.0
 71
     0
 42
5.850000000000001
  3
ROMANS
  4
EXTFONT
  0
STYLE
  5
25C9C
330
3
100
AcDbSymbolTableRecord
100
AcDbTextStyleTableRecord
  2
丸ゴシック
 70
     0
 40
3.0
 41
1.0
 50
0.0
 71
     0
 42
2.5
  3

  4

1001
ACAD
1000
ＦＡ 丸ゴシックＭ
1071
    32817
  0
STYLE
  5
25C9D
330
3
100
AcDbSymbolTableRecord
100
AcDbTextStyleTableRecord
  2
注意
 70
     0
 40
2.5
 41
1.0
 50
0.0
 71
     0
 42
2.5
  3

  4

1001
ACAD
1000
ＤＦＰ極太ゴシック体
1071
    32770
  0
ENDTAB
  0
TABLE
  2
VIEW
  5
6
330
0
100
AcDbSymbolTable
 70
     6
  0
VIEW
  5
AE1
330
6
100
AcDbSymbolTableRecord
100
AcDbViewTableRecord
  2
AM_VIEW1
 70
     0
 40
181.5909090909091
 10
1779.644559120579
 20
970.4251166957453
 41
210.0
 11
0.0
 21
0.0
 31
1.0
 12
0.0
 22
0.0
 32
0.0
 42
50.0
 43
-1370.695619172058
 44
-1370.695619172058
 50
0.0
 71
    16
281
     0
 72
     0
  0
VIEW
  5
AE2
330
6
100
AcDbSymbolTableRecord
100
AcDbViewTableRecord
  2
AM_VIEW2
 70
     0
 40
181.5909090909091
 10
1989.644559120579
 20
970.4251166957453
 41
210.0
 11
0.0
 21
0.0
 31
1.0
 12
0.0
 22
0.0
 32
0.0
 42
50.0
 43
-1370.695619172058
 44
-1370.695619172058
 50
0.0
 71
    16
281
     0
 72
     0
  0
VIEW
  5
AE3
330
6
100
AcDbSymbolTableRecord
100
AcDbViewTableRecord
  2
AM_VIEW3
 70
     0
 40
181.5909090909091
 10
1779.644559120579
 20
855.0160257866544
 41
210.0
 11
0.0
 21
0.0
 31
1.0
 12
0.0
 22
0.0
 32
0.0
 42
50.0
 43
-1370.695619172058
 44
-1370.695619172058
 50
0.0
 71
    16
281
     0
 72
     0
  0
VIEW
  5
AE4
330
6
100
AcDbSymbolTableRecord
100
AcDbViewTableRecord
  2
AM_VIEW4
 70
     0
 40
181.5909090909091
 10
1989.644559120579
 20
855.0160257866544
 41
210.0
 11
0.0
 21
0.0
 31
1.0
 12
0.0
 22
0.0
 32
0.0
 42
50.0
 43
-1370.695619172058
 44
-1370.695619172058
 50
0.0
 71
    16
281
     0
 72
     0
  0
VIEW
  5
AE5
330
6
100
AcDbSymbolTableRecord
100
AcDbViewTableRecord
  2
AM_VIEW5
 70
     0
 40
181.590909090909
 10
1884.644559120579
 20
912.7205712411999
 41
210.0
 11
0.0
 21
0.0
 31
1.0
 12
0.0
 22
0.0
 32
0.0
 42
50.0
 43
-1370.695619172058
 44
-1370.695619172058
 50
0.0
 71
    16
281
     0
 72
     0
  0
VIEW
  5
AE6
330
6
100
AcDbSymbolTableRecord
100
AcDbViewTableRecord
  2
AM_VIEW6
 70
     0
 40
363.1781863636364
 10
1884.644559120579
 20
912.7205712411999
 41
419.9957999999998
 11
0.0
 21
0.0
 31
1.0
 12
0.0
 22
0.0
 32
0.0
 42
50.0
 43
-1370.695619172058
 44
-1370.695619172058
 50
0.0
 71
    16
281
     0
 72
     0
  0
ENDTAB
  0
TABLE
  2
UCS
  5
7
330
0
100
AcDbSymbolTable
 70
     0
  0
ENDTAB
  0
TABLE
  2
APPID
  5
9
330
0
100
AcDbSymbolTable
 70
    57
  0
APPID
  5
12
330
9
100
AcDbSymbolTableRecord
100
AcDbRegAppTableRecord
  2
ACAD
 70
     0
  0
APPID
  5
30
330
9
100
AcDbSymbolTableRecord
100
AcDbRegAppTableRecord
  2
MCAD_NO_VIS
 70
     0
  0
APPID
  5
31
330
9
100
AcDbSymbolTableRecord
100
AcDbRegAppTableRecord
  2
ACAD_TEMP_GRAPHIC
 70
     0
  0
APPID
  5
44
330
9
100
AcDbSymbolTableRecord
100
AcDbRegAppTableRecord
  2
ACATTRIBSERVICES
 70
     0
  0
APPID
  5
7A1
330
9
100
AcDbSymbolTableRecord
100
AcDbRegAppTableRecord
  2
GENIUS_GENDIMSH_14
 70
     0
  0
APPID
  5
A49
330
9
100
AcDbSymbolTableRecord
100
AcDbRegAppTableRecord
  2
GENIUS_GENREC_14
 70
     0
  0
APPID
  5
A4A
330
9
100
AcDbSymbolTableRecord
100
AcDbRegAppTableRecord
  2
GENIUS_GENOBJ-N-REC_13
 70
     0
  0
APPID
  5
A4B
330
9
100
AcDbSymbolTableRecord
100
AcDbRegAppTableRecord
  2
GENIUS_GENODEF_13
 70
     0
  0
APPID
  5
A4C
330
9
100
AcDbSymbolTableRecord
100
AcDbRegAppTableRecord
  2
DCO15
 70
     0
  0
APPID
  5
ADC
330
9
100
AcDbSymbolTableRecord
100
AcDbRegAppTableRecord
  2
GENIUS_GENOLIS_13
 70
     0
  0
APPID
  5
ADD
330
9
100
AcDbSymbolTableRecord
100
AcDbRegAppTableRecord
  2
GENIUS_GENOENT_13
 70
     0
  0
APPID
  5
ADE
330
9
100
AcDbSymbolTableRecord
100
AcDbRegAppTableRecord
  2
GENIUS_GENOBJ-N-TIT_13
 70
     0
  0
APPID
  5
ADF
330
9
100
AcDbSymbolTableRecord
100
AcDbRegAppTableRecord
  2
GENIUS_GENTITLE_13
 70
     0
  0
APPID
  5
AE0
330
9
100
AcDbSymbolTableRecord
100
AcDbRegAppTableRecord
  2
GENIUS_GENOREF_13
 70
     0
  0
APPID
  5
AE7
330
9
100
AcDbSymbolTableRecord
100
AcDbRegAppTableRecord
  2
GENIUS_GENSCREG_15
 70
     0
  0
APPID
  5
AE8
330
9
100
AcDbSymbolTableRecord
100
AcDbRegAppTableRecord
  2
GENIUS_GENOBJ-N-SDF_13
 70
     0
  0
APPID
  5
FAF
330
9
100
AcDbSymbolTableRecord
100
AcDbRegAppTableRecord
  2
GENIUS_GENBLLY_14
 70
     0
  0
APPID
  5
FB0
330
9
100
AcDbSymbolTableRecord
100
AcDbRegAppTableRecord
  2
GENIUS_GENTRA_14
 70
     0
  0
APPID
  5
1285
330
9
100
AcDbSymbolTableRecord
100
AcDbRegAppTableRecord
  2
GENIUS_GENDTOL_13
 70
     0
  0
APPID
  5
142D
330
9
100
AcDbSymbolTableRecord
100
AcDbRegAppTableRecord
  2
GENIUS_GENOBJ-N-CEN_13
 70
     0
  0
APPID
  5
1AB5
330
9
100
AcDbSymbolTableRecord
100
AcDbRegAppTableRecord
  2
GENIUS_GENOBJ-N-CRS_13
 70
     0
  0
APPID
  5
1B36
330
9
100
AcDbSymbolTableRecord
100
AcDbRegAppTableRecord
  2
GENIUS_GENOBJ-N-HTC_13
 70
     0
  0
APPID
  5
1B37
330
9
100
AcDbSymbolTableRecord
100
AcDbRegAppTableRecord
  2
GENIUS_GENHATCH_13
 70
     0
  0
APPID
  5
216D
330
9
100
AcDbSymbolTableRecord
100
AcDbRegAppTableRecord
  2
GENIUS_GENOBJ-N-FIL_13
 70
     0
  0
APPID
  5
2356
330
9
100
AcDbSymbolTableRecord
100
AcDbRegAppTableRecord
  2
GEVID990412420
 70
     0
  0
APPID
  5
2357
330
9
100
AcDbSymbolTableRecord
100
AcDbRegAppTableRecord
  2
GEVDC
 70
     0
  0
APPID
  5
2358
330
9
100
AcDbSymbolTableRecord
100
AcDbRegAppTableRecord
  2
GEVCON
 70
     0
  0
APPID
  5
235B
330
9
100
AcDbSymbolTableRecord
100
AcDbRegAppTableRecord
  2
GEVRADREF
 70
     0
  0
APPID
  5
2360
330
9
100
AcDbSymbolTableRecord
100
AcDbRegAppTableRecord
  2
GENIUS_GENBH_13
 70
     0
  0
APPID
  5
2362
330
9
100
AcDbSymbolTableRecord
100
AcDbRegAppTableRecord
  2
GENIUS_GENOBJ-NBEHI-BHF_13
 70
     0
  0
APPID
  5
2364
330
9
100
AcDbSymbolTableRecord
100
AcDbRegAppTableRecord
  2
GENIUS_GENOBJ-NBEHI-BHB_13
 70
     0
  0
APPID
  5
2379
330
9
100
AcDbSymbolTableRecord
100
AcDbRegAppTableRecord
  2
GENIUS_GENOBJ-F-SCPASSM_13
 70
     0
  0
APPID
  5
3D74
330
9
100
AcDbSymbolTableRecord
100
AcDbRegAppTableRecord
  2
GENIUS_GENDIM_13
 70
     0
  0
APPID
  5
3D76
330
9
100
AcDbSymbolTableRecord
100
AcDbRegAppTableRecord
  2
GENIUS_GE3DTOL_13
 70
     0
  0
APPID
  5
3D9C
330
9
100
AcDbSymbolTableRecord
100
AcDbRegAppTableRecord
  2
AD_DRAW
 70
     0
  0
APPID
  5
3DE8
330
9
100
AcDbSymbolTableRecord
100
AcDbRegAppTableRecord
  2
ASURF_PCURVE_APPNAME
 70
     0
  0
APPID
  5
3DED
330
9
100
AcDbSymbolTableRecord
100
AcDbRegAppTableRecord
  2
AMG_3D2D_5.0
 70
     0
  0
APPID
  5
3E1B
330
9
100
AcDbSymbolTableRecord
100
AcDbRegAppTableRecord
  2
DESIGNERASSEMBLIES
 70
     0
  0
APPID
  5
3E20
330
9
100
AcDbSymbolTableRecord
100
AcDbRegAppTableRecord
  2
ACADM_DIM_EDIT
 70
     0
  0
APPID
  5
3E21
330
9
100
AcDbSymbolTableRecord
100
AcDbRegAppTableRecord
  2
AMDT_DM_ADJ
 70
     0
  0
APPID
  5
4143
330
9
100
AcDbSymbolTableRecord
100
AcDbRegAppTableRecord
  2
GENIUS_GENFIL_13
 70
     0
  0
APPID
  5
4144
330
9
100
AcDbSymbolTableRecord
100
AcDbRegAppTableRecord
  2
GENIUS_GENOBJ-N-CHA_13
 70
     0
  0
APPID
  5
4E17
330
9
100
AcDbSymbolTableRecord
100
AcDbRegAppTableRecord
  2
GEVID1008153417
 70
     0
  0
APPID
  5
4E58
330
9
100
AcDbSymbolTableRecord
100
AcDbRegAppTableRecord
  2
GEVID1008153418
 70
     0
  0
APPID
  5
4E5E
330
9
100
AcDbSymbolTableRecord
100
AcDbRegAppTableRecord
  2
GEVID1008153419
 70
     0
  0
APPID
  5
4E64
330
9
100
AcDbSymbolTableRecord
100
AcDbRegAppTableRecord
  2
GEVID1008153420
 70
     0
  0
APPID
  5
4E75
330
9
100
AcDbSymbolTableRecord
100
AcDbRegAppTableRecord
  2
GEVID1008153421
 70
     0
  0
APPID
  5
4EB7
330
9
100
AcDbSymbolTableRecord
100
AcDbRegAppTableRecord
  2
GENIUS_AMGTXT_16
 70
     0
  0
APPID
  5
7645
330
9
100
AcDbSymbolTableRecord
100
AcDbRegAppTableRecord
  2
GENIUS_GENOBJ-N-DIM_13
 70
     0
  0
APPID
  5
AAD0
330
9
100
AcDbSymbolTableRecord
100
AcDbRegAppTableRecord
  2
ACAD_DSTYLE_DIMARC_LENGTH_SYMBOL
 70
     0
  0
APPID
  5
AAD1
330
9
100
AcDbSymbolTableRecord
100
AcDbRegAppTableRecord
  2
ACAD_DSTYLE_DIMJOGGED_JOGANGLE_SYMBOL
 70
     0
  0
APPID
  5
AAFD
330
9
100
AcDbSymbolTableRecord
100
AcDbRegAppTableRecord
  2
ACAD_PSEXT
 70
     0
  0
APPID
  5
AD61
330
9
100
AcDbSymbolTableRecord
100
AcDbRegAppTableRecord
  2
AcAecLayerStandard
 70
     0
  0
APPID
  5
1396D
330
9
100
AcDbSymbolTableRecord
100
AcDbRegAppTableRecord
  2
ACAD_EXEMPT_FROM_CAD_STANDARDS
 70
     0
  0
APPID
  5
15F56
330
9
100
AcDbSymbolTableRecord
100
AcDbRegAppTableRecord
  2
GENIUS_GENOBJ-N-ZOO_13
 70
     0
  0
APPID
  5
15F57
330
9
100
AcDbSymbolTableRecord
100
AcDbRegAppTableRecord
  2
GENIUS_GENZOO_16
 70
     0
  0
APPID
  5
16690
330
9
100
AcDbSymbolTableRecord
100
AcDbRegAppTableRecord
  2
GENIUS_GENCEN_19
 70
     0
  0
ENDTAB
  0
TABLE
  2
DIMSTYLE
  5
A
330
0
100
AcDbSymbolTable
 70
    30
100
AcDbDimStyleTable
 71
     1
340
2515
  0
DIMSTYLE
105
A76
330
A
100
AcDbSymbolTableRecord
100
AcDbDimStyleTableRecord
  2
STANDARD
 70
     0
 41
3.0
 42
1.0
 43
7.0
 44
2.0
 73
     0
 74
     0
 77
     1
140
2.799999999999998
141
0.0
143
0.0394
147
0.7
171
     4
172
     1
173
     1
176
     3
177
     3
178
     2
271
     3
272
     3
273
     8
274
     4
289
     0
340
A74
341
A66
343
A66
344
A66
  0
DIMSTYLE
105
2515
330
A
100
AcDbSymbolTableRecord
100
AcDbDimStyleTableRecord
  2
SYS
 70
     0
  4
"
 41
1.0
 42
1.0
 43
10.0
 44
1.0
 47
0.1
 48
0.1
 73
     0
 74
     0
 77
     1
 78
     8
 79
     2
140
3.5
141
0.0
143
0.0393701
146
0.71
147
1.5
172
     1
176
   256
177
   256
178
     7
271
     2
272
     2
283
     0
284
     8
340
11
371
    -1
372
    -1
1001
ACAD_DSTYLE_DIMJOGGED_JOGANGLE_SYMBOL
1070
   384
1040
0.7853981633974483
1001
ACAD_DSTYLE_DIMARC_LENGTH_SYMBOL
1070
   379
1070
     1
  0
DIMSTYLE
105
2516
102
{ACAD_REACTORS
330
23A87
102
}
330
A
100
AcDbSymbolTableRecord
100
AcDbDimStyleTableRecord
  2
SYS$3
 70
     0
  4
"
 41
2.0
 42
1.0
 43
10.0
 44
1.0
 47
0.1
 48
0.1
 73
     0
 77
     1
 78
     8
 79
     2
140
3.5
141
0.0
143
0.0393701
146
0.71
147
1.5
176
   256
177
   256
178
     2
271
     2
272
     2
283
     0
284
     8
288
     1
340
11
342
A66
371
    -1
372
    -1
1001
ACAD_DSTYLE_DIMJOGGED_JOGANGLE_SYMBOL
1070
   384
1040
0.7853981633974483
1001
ACAD_DSTYLE_DIMARC_LENGTH_SYMBOL
1070
   379
1070
     1
  0
DIMSTYLE
105
2517
330
A
100
AcDbSymbolTableRecord
100
AcDbDimStyleTableRecord
  2
SYS$4
 70
     0
  4
"
 41
2.0
 42
1.0
 43
10.0
 44
1.0
 47
0.1
 48
0.1
 73
     0
 77
     1
 78
     8
 79
     2
140
3.5
141
0.0
143
0.0393701
146
0.71
147
1.5
173
     1
176
   256
177
   256
178
     2
271
     2
272
     2
283
     0
284
     8
288
     1
340
11
344
A66
371
    -1
372
    -1
1001
ACAD_DSTYLE_DIMJOGGED_JOGANGLE_SYMBOL
1070
   384
1040
0.7853981633974483
1001
ACAD_DSTYLE_DIMARC_LENGTH_SYMBOL
1070
   379
1070
     1
  0
DIMSTYLE
105
2518
330
A
100
AcDbSymbolTableRecord
100
AcDbDimStyleTableRecord
  2
SYS$6
 70
     0
  4
"
 41
2.0
 42
1.0
 43
10.0
 44
1.0
 47
0.1
 48
0.1
 73
     0
 74
     0
 78
     8
 79
     2
140
3.5
141
0.0
143
0.0393701
146
0.71
147
1.5
172
     1
176
   256
177
   256
178
     2
271
     2
272
     2
283
     0
284
     8
340
11
341
A66
371
    -1
372
    -1
1001
ACAD_DSTYLE_DIMJOGGED_JOGANGLE_SYMBOL
1070
   384
1040
0.7853981633974483
1001
ACAD_DSTYLE_DIMARC_LENGTH_SYMBOL
1070
   379
1070
     1
  0
DIMSTYLE
105
2519
330
A
100
AcDbSymbolTableRecord
100
AcDbDimStyleTableRecord
  2
SYS$7
 70
     0
  4
"
 41
2.0
 42
1.0
 43
10.0
 44
1.0
 47
0.1
 48
0.1
 73
     0
 74
     0
 77
     1
 78
     8
 79
     2
140
5.0
141
0.0
143
0.0393701
146
0.71
147
1.5
172
     1
176
   256
177
   256
178
     2
271
     2
272
     2
283
     0
284
     8
340
11
341
A66
342
A66
371
    -1
372
    -1
1001
ACAD_DSTYLE_DIMJOGGED_JOGANGLE_SYMBOL
1070
   384
1040
0.7853981633974483
1001
ACAD_DSTYLE_DIMARC_LENGTH_SYMBOL
1070
   379
1070
     1
  0
DIMSTYLE
105
251A
330
A
100
AcDbSymbolTableRecord
100
AcDbDimStyleTableRecord
  2
SYS$SF
 70
     0
  4
"
 41
2.5
 42
1.0
 43
10.0
 44
1.0
 47
0.1
 48
0.1
 73
     0
 74
     0
 75
     1
 76
     1
 77
     1
 78
     8
 79
     2
140
3.5
141
0.0
143
0.0393701
146
0.71
147
1.5
172
     1
176
   256
177
   256
178
     2
271
     2
272
     3
283
     0
284
     8
340
11
341
6C4
342
6C4
371
    -1
372
    -1
1001
ACAD_DSTYLE_DIMJOGGED_JOGANGLE_SYMBOL
1070
   384
1040
0.7853981633974483
1001
ACAD_DSTYLE_DIMARC_LENGTH_SYMBOL
1070
   379
1070
     1
  0
DIMSTYLE
105
251B
330
A
100
AcDbSymbolTableRecord
100
AcDbDimStyleTableRecord
  2
SYS$SH
 70
     0
  4
"
 41
2.5
 42
1.0
 43
10.0
 44
1.0
 47
0.1
 48
0.1
 73
     0
 74
     0
 75
     1
 76
     1
 77
     1
 78
     8
 79
     2
140
3.5
141
0.0
143
0.0393701
144
2.0
146
0.71
147
1.5
172
     1
173
     1
176
   256
177
   256
178
     2
271
     2
272
     3
283
     0
284
     8
340
11
341
6C4
343
72
344
6C4
371
    -1
372
    -1
1001
ACAD_DSTYLE_DIMJOGGED_JOGANGLE_SYMBOL
1070
   384
1040
0.7853981633974483
1001
ACAD_DSTYLE_DIMARC_LENGTH_SYMBOL
1070
   379
1070
     1
  0
DIMSTYLE
105
2A59
330
A
100
AcDbSymbolTableRecord
100
AcDbDimStyleTableRecord
  2
SYS$2
 70
     0
  4
"
 41
1.0
 42
1.0
 43
10.0
 44
1.0
 47
0.1
 48
0.1
 73
     0
 74
     0
 77
     1
 78
     8
 79
     2
140
3.5
141
0.0
143
0.0393701
146
0.71
147
1.5
172
     1
176
   256
177
   256
178
     2
271
     2
272
     2
283
     0
284
     8
340
11
342
6C4
371
    -1
372
    -1
1001
ACAD_DSTYLE_DIMJOGGED_JOGANGLE_SYMBOL
1070
   384
1040
0.7853981633974483
1001
ACAD_DSTYLE_DIMARC_LENGTH_SYMBOL
1070
   379
1070
     1
  0
DIMSTYLE
105
2AAB
102
{ACAD_REACTORS
330
20B4D
330
20AE4
330
20AE5
330
223D0
330
223CC
330
223CD
330
223CE
330
2BF88
330
2BF9E
330
2BFE6
330
2C051
330
2C086
330
2C0FB
330
2C111
102
}
330
A
100
AcDbSymbolTableRecord
100
AcDbDimStyleTableRecord
  2
SYS$0
 70
     0
  4
"
 41
1.0
 42
1.0
 43
10.0
 44
1.0
 47
0.1
 48
0.1
 73
     0
 74
     0
 77
     1
 78
     8
 79
     2
140
3.200000000000001
141
0.0
143
0.0393701
146
0.71
147
1.5
172
     1
176
   256
177
   256
178
     2
271
     2
272
     2
283
     0
284
     8
340
11
341
A66
342
6C4
371
    -1
372
    -1
1001
ACAD_DSTYLE_DIMJOGGED_JOGANGLE_SYMBOL
1070
   384
1040
0.7853981633974483
1001
ACAD_DSTYLE_DIMARC_LENGTH_SYMBOL
1070
   379
1070
     1
  0
DIMSTYLE
105
12E9B
330
A
100
AcDbSymbolTableRecord
100
AcDbDimStyleTableRecord
  2
AM_ISO
 70
     0
  4
"
 41
2.5
 42
1.0
 43
10.0
 44
1.0
 47
0.1
 48
0.1
 73
     0
 74
     0
 77
     1
 78
     8
 79
     2
140
3.5
141
0.0
143
0.0393701
146
0.71
147
1.5
172
     1
176
   256
177
   256
178
     2
271
     2
272
     3
274
     4
283
     0
284
     8
340
11
371
    -1
372
    -1
1001
ACAD_DSTYLE_DIMJOGGED_JOGANGLE_SYMBOL
1070
   384
1040
0.7853981633974483
1001
ACAD_DSTYLE_DIMARC_LENGTH_SYMBOL
1070
   379
1070
     1
  0
DIMSTYLE
105
12E9C
330
A
100
AcDbSymbolTableRecord
100
AcDbDimStyleTableRecord
  2
AM_ANSI
 70
     0
  4
mm
 41
0.1
 42
0.05
 43
0.5
 44
0.1
 47
0.1
 48
0.1
 78
     7
 79
     2
140
0.12
141
0.0
146
0.71
147
0.06
176
   256
177
   256
178
     2
274
     4
284
     7
340
11
371
    -1
372
    -1
1001
ACAD_DSTYLE_DIMJOGGED_JOGANGLE_SYMBOL
1070
   384
1040
0.7853981633974483
1001
ACAD_DSTYLE_DIMARC_LENGTH_SYMBOL
1070
   379
1070
     1
  0
DIMSTYLE
105
12FC3
330
A
100
AcDbSymbolTableRecord
100
AcDbDimStyleTableRecord
  2
DIMENSION-1：1
 70
     0
 41
2.0
 42
0.8
 43
10.0
 44
1.0
 46
3.0
 73
     0
 74
     0
 77
     1
 78
     8
 79
     2
140
3.5
141
-1.5
145
0.5
147
0.5
172
     1
283
     2
289
     1
340
12FC0
341
A66
342
A66
  0
DIMSTYLE
105
12FC4
330
A
100
AcDbSymbolTableRecord
100
AcDbDimStyleTableRecord
  2
AM_ANSI$3
 70
     0
  4
mm
 41
0.1
 42
0.05
 43
0.5
 44
0.1
 47
0.1
 48
0.1
 78
     7
 79
     2
140
0.12
141
0.0
146
0.71
147
0.06
176
   256
177
   256
178
     2
274
     4
284
     7
288
     1
289
     0
340
11
371
    -1
372
    -1
1001
ACAD_DSTYLE_DIMJOGGED_JOGANGLE_SYMBOL
1070
   384
1040
0.7853981633974483
1001
ACAD_DSTYLE_DIMARC_LENGTH_SYMBOL
1070
   379
1070
     1
  0
DIMSTYLE
105
12FC5
330
A
100
AcDbSymbolTableRecord
100
AcDbDimStyleTableRecord
  2
AM_ANSI$4
 70
     0
  4
mm
 41
0.1
 42
0.05
 43
0.5
 44
0.1
 47
0.1
 48
0.1
 78
     7
 79
     2
140
0.12
141
0.0
146
0.71
147
0.06
176
   256
177
   256
178
     2
274
     4
284
     7
288
     1
289
     0
340
11
371
    -1
372
    -1
1001
ACAD_DSTYLE_DIMJOGGED_JOGANGLE_SYMBOL
1070
   384
1040
0.7853981633974483
1001
ACAD_DSTYLE_DIMARC_LENGTH_SYMBOL
1070
   379
1070
     1
  0
DIMSTYLE
105
12FC6
330
A
100
AcDbSymbolTableRecord
100
AcDbDimStyleTableRecord
  2
AM_ANSI$7
 70
     0
  4
mm
 41
0.1
 42
0.05
 43
0.5
 44
0.1
 47
0.1
 48
0.1
 78
     7
 79
     2
140
0.24
141
0.0
146
0.71
147
0.06
176
   256
177
   256
178
     2
274
     4
284
     7
340
11
371
    -1
372
    -1
1001
ACAD_DSTYLE_DIMJOGGED_JOGANGLE_SYMBOL
1070
   384
1040
0.7853981633974483
1001
ACAD_DSTYLE_DIMARC_LENGTH_SYMBOL
1070
   379
1070
     1
  0
DIMSTYLE
105
12FC7
330
A
100
AcDbSymbolTableRecord
100
AcDbDimStyleTableRecord
  2
AM_ANSI$SF
 70
     0
  4
mm
 41
0.1
 42
0.05
 43
0.5
 44
0.1
 47
0.1
 48
0.1
 75
     1
 76
     1
 78
     7
 79
     2
140
0.12
141
0.0
146
0.71
147
0.06
176
   256
177
   256
178
     2
274
     4
284
     7
340
11
371
    -1
372
    -1
1001
ACAD_DSTYLE_DIMJOGGED_JOGANGLE_SYMBOL
1070
   384
1040
0.7853981633974483
1001
ACAD_DSTYLE_DIMARC_LENGTH_SYMBOL
1070
   379
1070
     1
  0
DIMSTYLE
105
12FC8
330
A
100
AcDbSymbolTableRecord
100
AcDbDimStyleTableRecord
  2
AM_ANSI$SH
 70
     0
  4
mm
 41
0.1
 42
0.05
 43
0.5
 44
0.1
 47
0.1
 48
0.1
 75
     1
 76
     1
 78
     7
 79
     2
140
0.12
141
0.0
146
0.71
147
0.06
173
     1
176
   256
177
   256
178
     2
274
     4
284
     7
340
11
343
72
371
    -1
372
    -1
1001
ACAD_DSTYLE_DIMJOGGED_JOGANGLE_SYMBOL
1070
   384
1040
0.7853981633974483
1001
ACAD_DSTYLE_DIMARC_LENGTH_SYMBOL
1070
   379
1070
     1
  0
DIMSTYLE
105
142C0
330
A
100
AcDbSymbolTableRecord
100
AcDbDimStyleTableRecord
  2
AM_ISO$3
 70
     0
  4
"
 41
0.8
 42
1.0
 43
10.0
 44
1.0
 47
0.1
 48
0.1
 73
     0
 77
     1
 78
     8
 79
     2
140
3.2
141
0.0
143
0.0393701
146
0.71
147
0.9999999999999996
176
   256
177
   256
178
     2
271
     2
272
     2
283
     0
284
     8
288
     1
289
     0
340
11
342
6C4
371
    -1
372
    -1
1001
ACAD_DSTYLE_DIMJOGGED_JOGANGLE_SYMBOL
1070
   384
1040
0.7853981633974483
1001
ACAD_DSTYLE_DIMARC_LENGTH_SYMBOL
1070
   379
1070
     1
  0
DIMSTYLE
105
142C1
330
A
100
AcDbSymbolTableRecord
100
AcDbDimStyleTableRecord
  2
AM_ISO$4
 70
     0
  4
"
 41
0.8
 42
1.0
 43
10.0
 44
1.0
 47
0.1
 48
0.1
 73
     0
 77
     1
 78
     8
 79
     2
140
3.2
141
0.0
143
0.0393701
146
0.71
147
1.0
173
     1
176
   256
177
   256
178
     2
271
     2
272
     2
283
     0
284
     8
288
     1
289
     0
340
11
344
6C4
371
    -1
372
    -1
1001
ACAD_DSTYLE_DIMJOGGED_JOGANGLE_SYMBOL
1070
   384
1040
0.7853981633974483
1001
ACAD_DSTYLE_DIMARC_LENGTH_SYMBOL
1070
   379
1070
     1
  0
DIMSTYLE
105
142C2
330
A
100
AcDbSymbolTableRecord
100
AcDbDimStyleTableRecord
  2
AM_ISO$6
 70
     0
  4
"
 41
0.8
 42
1.0
 43
10.0
 44
1.0
 47
0.1
 48
0.1
 73
     0
 74
     0
 78
     8
 79
     2
140
3.2
141
0.0
143
0.0393701
146
0.71
147
1.0
172
     1
176
   256
177
   256
178
     2
271
     2
272
     2
283
     0
284
     8
340
11
341
6C4
371
    -1
372
    -1
1001
ACAD_DSTYLE_DIMJOGGED_JOGANGLE_SYMBOL
1070
   384
1040
0.7853981633974483
1001
ACAD_DSTYLE_DIMARC_LENGTH_SYMBOL
1070
   379
1070
     1
  0
DIMSTYLE
105
142C3
330
A
100
AcDbSymbolTableRecord
100
AcDbDimStyleTableRecord
  2
AM_ISO$7
 70
     0
  4
"
 41
0.8
 42
1.0
 43
10.0
 44
1.0
 47
0.1
 48
0.1
 73
     0
 74
     0
 77
     1
 78
     8
 79
     2
140
3.2
141
0.0
143
0.0393701
146
0.71
147
1.0
172
     1
176
   256
177
   256
178
     2
271
     2
272
     2
283
     0
284
     8
340
11
341
6C4
342
6C4
371
    -1
372
    -1
1001
ACAD_DSTYLE_DIMJOGGED_JOGANGLE_SYMBOL
1070
   384
1040
0.7853981633974483
1001
ACAD_DSTYLE_DIMARC_LENGTH_SYMBOL
1070
   379
1070
     1
  0
DIMSTYLE
105
142C4
330
A
100
AcDbSymbolTableRecord
100
AcDbDimStyleTableRecord
  2
AM_ISO$SF
 70
     0
  4
"
 41
0.8
 42
1.0
 43
10.0
 44
1.0
 47
0.1
 48
0.1
 73
     0
 74
     0
 75
     1
 76
     1
 77
     1
 78
     8
 79
     2
140
3.2
141
0.0
143
0.0393701
146
0.71
147
1.0
172
     1
176
   256
177
   256
178
     2
271
     2
272
     2
283
     0
284
     8
340
11
341
6C4
342
6C4
371
    -1
372
    -1
1001
ACAD_DSTYLE_DIMJOGGED_JOGANGLE_SYMBOL
1070
   384
1040
0.7853981633974483
1001
ACAD_DSTYLE_DIMARC_LENGTH_SYMBOL
1070
   379
1070
     1
  0
DIMSTYLE
105
142C5
330
A
100
AcDbSymbolTableRecord
100
AcDbDimStyleTableRecord
  2
AM_ISO$SH
 70
     0
  4
"
 41
0.8
 42
1.0
 43
10.0
 44
1.0
 47
0.1
 48
0.1
 73
     0
 74
     0
 75
     1
 76
     1
 77
     1
 78
     8
 79
     2
140
3.2
141
0.0
143
0.0393701
144
2.0
146
0.71
147
1.0
172
     1
176
   256
177
   256
178
     2
271
     2
272
     2
283
     0
284
     8
340
11
341
6C4
342
6C4
371
    -1
372
    -1
1001
ACAD_DSTYLE_DIMJOGGED_JOGANGLE_SYMBOL
1070
   384
1040
0.7853981633974483
1001
ACAD_DSTYLE_DIMARC_LENGTH_SYMBOL
1070
   379
1070
     1
  0
DIMSTYLE
105
142C6
330
A
100
AcDbSymbolTableRecord
100
AcDbDimStyleTableRecord
  2
AM_ISO$0
 70
     0
  4
"
 41
0.8
 42
1.0
 43
10.0
 44
1.0
 47
0.1
 48
0.1
 73
     0
 74
     0
 77
     1
 78
     8
 79
     2
140
3.2
141
0.0
143
0.0393701
146
0.71
147
0.9999999999999996
172
     1
176
   256
177
   256
178
     2
271
     2
272
     2
283
     0
284
     8
340
11
341
6C4
342
6C4
371
    -1
372
    -1
1001
ACAD_DSTYLE_DIMJOGGED_JOGANGLE_SYMBOL
1070
   384
1040
0.7853981633974483
1001
ACAD_DSTYLE_DIMARC_LENGTH_SYMBOL
1070
   379
1070
     1
  0
DIMSTYLE
105
142C7
330
A
100
AcDbSymbolTableRecord
100
AcDbDimStyleTableRecord
  2
AM_ISO$2
 70
     0
  4
"
 41
0.8
 42
1.0
 43
10.0
 44
1.0
 47
0.1
 48
0.1
 73
     0
 74
     0
 77
     3
 78
     8
 79
     2
140
3.200000000000001
141
0.0
143
0.0393701
146
0.71
147
0.9999999999999996
172
     1
176
   256
177
   256
178
     2
271
     2
272
     2
283
     0
284
     8
340
11
342
6C4
371
    -1
372
    -1
1001
ACAD_DSTYLE_DIMJOGGED_JOGANGLE_SYMBOL
1070
   384
1040
0.7853981633974483
1001
ACAD_DSTYLE_DIMARC_LENGTH_SYMBOL
1070
   379
1070
     1
  0
DIMSTYLE
105
142C8
330
A
100
AcDbSymbolTableRecord
100
AcDbDimStyleTableRecord
  2
SYMBOL
 70
     0
  4
"
 41
2.5
 42
1.0
 43
10.0
 44
1.0
 47
0.1
 48
0.1
 73
     0
 74
     0
 77
     1
 78
     8
 79
     2
140
3.5
141
0.0
143
0.0393701
146
0.71
147
1.5
172
     1
176
   256
177
   256
178
     7
271
     2
272
     3
274
     4
283
     0
284
     8
340
11
371
    -1
372
    -1
  0
DIMSTYLE
105
25C9E
330
A
100
AcDbSymbolTableRecord
100
AcDbDimStyleTableRecord
  2
イラスト寸法－３Ｄ
 70
     0
 41
2.5
 42
0.0
 43
3.75
 44
0.0
 73
     0
 74
     0
 77
     1
 78
     8
140
3.0
141
2.5
143
0.03937008
147
0.8
171
     3
172
     1
271
     2
272
     2
274
     3
283
     0
284
     8
340
11
  0
DIMSTYLE
105
2C21C
330
A
100
AcDbSymbolTableRecord
100
AcDbDimStyleTableRecord
  2
DIMSTYLE
 70
     0
 41
1.0
 42
2.54
 44
2.54
 73
     0
 74
     0
140
3.2
147
1.6
173
     1
279
     2
340
11
  0
DIMSTYLE
105
2C3EB
330
A
100
AcDbSymbolTableRecord
100
AcDbDimStyleTableRecord
  2
DIMSTYLE$0
 70
     0
 41
1.0
 42
2.54
 44
2.54
 73
     0
 74
     0
140
3.2
147
1.6
173
     1
279
     2
340
11
  0
ENDTAB
  0
TABLE
  2
BLOCK_RECORD
  5
1
330
0
100
AcDbSymbolTable
 70
    20
  0
BLOCK_RECORD
  5
1F
102
{ACAD_XDICTIONARY
360
8A
102
}
330
1
100
AcDbSymbolTableRecord
100
AcDbBlockTableRecord
  2
*Model_Space
340
22
  0
BLOCK_RECORD
  5
1B
330
1
100
AcDbSymbolTableRecord
100
AcDbBlockTableRecord
  2
*Paper_Space
340
1E
  0
BLOCK_RECORD
  5
23
330
1
100
AcDbSymbolTableRecord
100
AcDbBlockTableRecord
  2
*Paper_Space0
340
26
  0
BLOCK_RECORD
  5
72
330
1
100
AcDbSymbolTableRecord
100
AcDbBlockTableRecord
  2
GENAXEH
340
0
  0
BLOCK_RECORD
  5
6C4
330
1
100
AcDbSymbolTableRecord
100
AcDbBlockTableRecord
  2
_Dot
340
0
102
{BLKREFS
331
2C52E
331
2C52F
331
2C537
331
2C538
331
2C540
331
2C541
331
2C549
331
2C54A
331
2C552
331
2C553
331
2C55C
331
2C55D
331
2C565
331
2C566
331
2C574
331
2C575
331
2C57D
331
2C57E
331
2C586
331
2C587
331
2C58F
331
2C590
331
2C598
331
2C599
331
2C5A1
331
2C5A2
331
2C5AA
331
2C5AB
102
}
  0
BLOCK_RECORD
  5
A66
330
1
100
AcDbSymbolTableRecord
100
AcDbBlockTableRecord
  2
_OPEN30
340
0
102
{BLKREFS
331
2C56E
102
}
  0
BLOCK_RECORD
  5
20C7F
330
1
100
AcDbSymbolTableRecord
100
AcDbBlockTableRecord
  2
*D4
340
0
  0
BLOCK_RECORD
  5
20C89
330
1
100
AcDbSymbolTableRecord
100
AcDbBlockTableRecord
  2
*D5
340
0
  0
BLOCK_RECORD
  5
20C93
330
1
100
AcDbSymbolTableRecord
100
AcDbBlockTableRecord
  2
*D6
340
0
  0
BLOCK_RECORD
  5
223F6
330
1
100
AcDbSymbolTableRecord
100
AcDbBlockTableRecord
  2
*D7
340
0
  0
BLOCK_RECORD
  5
22414
330
1
100
AcDbSymbolTableRecord
100
AcDbBlockTableRecord
  2
*D8
340
0
  0
BLOCK_RECORD
  5
2241E
330
1
100
AcDbSymbolTableRecord
100
AcDbBlockTableRecord
  2
*D9
340
0
  0
BLOCK_RECORD
  5
22428
330
1
100
AcDbSymbolTableRecord
100
AcDbBlockTableRecord
  2
*D10
340
0
  0
BLOCK_RECORD
  5
23A88
330
1
100
AcDbSymbolTableRecord
100
AcDbBlockTableRecord
  2
*D11
340
0
  0
BLOCK_RECORD
  5
2BF89
330
1
100
AcDbSymbolTableRecord
100
AcDbBlockTableRecord
  2
*D12
340
0
  0
BLOCK_RECORD
  5
2BF9F
330
1
100
AcDbSymbolTableRecord
100
AcDbBlockTableRecord
  2
*D13
340
0
  0
BLOCK_RECORD
  5
2BFE7
330
1
100
AcDbSymbolTableRecord
100
AcDbBlockTableRecord
  2
*D14
340
0
  0
BLOCK_RECORD
  5
2C052
330
1
100
AcDbSymbolTableRecord
100
AcDbBlockTableRecord
  2
*D15
340
0
  0
BLOCK_RECORD
  5
2C087
330
1
100
AcDbSymbolTableRecord
100
AcDbBlockTableRecord
  2
*D16
340
0
  0
BLOCK_RECORD
  5
2C0FC
330
1
100
AcDbSymbolTableRecord
100
AcDbBlockTableRecord
  2
*D17
340
0
  0
BLOCK_RECORD
  5
2C112
330
1
100
AcDbSymbolTableRecord
100
AcDbBlockTableRecord
  2
*D18
340
0
  0
ENDTAB
  0
ENDSEC
  0
SECTION
  2
BLOCKS
  0
BLOCK
  5
20
330
1F
100
AcDbEntity
  8
0
100
AcDbBlockBegin
  2
*Model_Space
 70
     0
 10
0.0
 20
0.0
 30
0.0
  3
*Model_Space
  1

  0
ENDBLK
  5
21
330
1F
100
AcDbEntity
  8
0
100
AcDbBlockEnd
  0
BLOCK
  5
1C
330
1B
100
AcDbEntity
 67
     1
  8
0
100
AcDbBlockBegin
  2
*Paper_Space
 70
     0
 10
0.0
 20
0.0
 30
0.0
  3
*Paper_Space
  1

  0
ENDBLK
  5
1D
330
1B
100
AcDbEntity
 67
     1
  8
0
100
AcDbBlockEnd
  0
BLOCK
  5
24
330
23
100
AcDbEntity
 67
     1
  8
0
100
AcDbBlockBegin
  2
*Paper_Space0
 70
     0
 10
0.0
 20
0.0
 30
0.0
  3
*Paper_Space0
  1

  0
ENDBLK
  5
25
330
23
100
AcDbEntity
 67
     1
  8
0
100
AcDbBlockEnd
  0
BLOCK
  5
74
330
72
100
AcDbEntity
  8
0
100
AcDbBlockBegin
  2
GENAXEH
 70
     0
 10
0.0
 20
0.0
 30
0.0
  3
GENAXEH
  1

  0
LINE
  5
73
330
72
100
AcDbEntity
  8
0
100
AcDbLine
 10
-1.0
 20
0.0
 30
0.0
 11
1.0
 21
0.0
 31
0.0
  0
ENDBLK
  5
75
330
72
100
AcDbEntity
  8
0
100
AcDbBlockEnd
  0
BLOCK
  5
6C7
330
6C4
100
AcDbEntity
  8
0
100
AcDbBlockBegin
  2
_Dot
 70
     0
 10
0.0
 20
0.0
 30
0.0
  3
_Dot
  1

  0
LWPOLYLINE
  5
6C5
330
6C4
100
AcDbEntity
  8
0
  6
ByBlock
 62
     0
100
AcDbPolyline
 90
        2
 70
     1
 43
0.5
 10
-0.25
 20
0.0
 42
1.0
 10
0.25
 20
0.0
 42
1.0
  0
LINE
  5
6C6
330
6C4
100
AcDbEntity
  8
0
  6
ByBlock
 62
     0
370
    -2
100
AcDbLine
 10
-0.5
 20
0.0
 30
0.0
 11
-1.0
 21
0.0
 31
0.0
  0
ENDBLK
  5
6C8
330
6C4
100
AcDbEntity
  8
0
100
AcDbBlockEnd
  0
BLOCK
  5
A6A
330
A66
100
AcDbEntity
  8
0
100
AcDbBlockBegin
  2
_OPEN30
 70
     0
 10
0.0
 20
0.0
 30
0.0
  3
_OPEN30
  1

  0
LINE
  5
A67
330
A66
100
AcDbEntity
  8
0
  6
ByBlock
 62
     0
100
AcDbLine
 10
-1.0
 20
0.26794919
 30
0.0
 11
0.0
 21
0.0
 31
0.0
  0
LINE
  5
A68
330
A66
100
AcDbEntity
  8
0
  6
ByBlock
 62
     0
100
AcDbLine
 10
0.0
 20
0.0
 30
0.0
 11
-1.0
 21
-0.26794919
 31
0.0
  0
LINE
  5
A69
330
A66
100
AcDbEntity
  8
0
  6
ByBlock
 62
     0
100
AcDbLine
 10
0.0
 20
0.0
 30
0.0
 11
-1.0
 21
0.0
 31
0.0
  0
ENDBLK
  5
A6B
330
A66
100
AcDbEntity
  8
0
100
AcDbBlockEnd
  0
BLOCK
  5
20D55
330
20C7F
100
AcDbEntity
  8
0
100
AcDbBlockBegin
  2
*D4
 70
     1
 10
0.0
 20
0.0
 30
0.0
  3
*D4
  1

  0
LINE
  5
2C53D
330
20C7F
100
AcDbEntity
  8
AM_5
 48
1.01
100
AcDbLine
 10
772.3056208376394
 20
585.6488779102114
 30
0.0
 11
772.3056208376394
 21
599.3688598988017
 31
0.0
  0
LINE
  5
2C53E
330
20C7F
100
AcDbEntity
  8
AM_5
 48
1.01
100
AcDbLine
 10
788.3056208376395
 20
585.6488779102114
 30
0.0
 11
788.3056208376395
 21
599.3688598988017
 31
0.0
  0
LINE
  5
2C53F
330
20C7F
100
AcDbEntity
  8
AM_5
 48
1.01
100
AcDbLine
 10
773.3056208376396
 20
598.3688598988017
 30
0.0
 11
787.3056208376395
 21
598.3688598988017
 31
0.0
  0
INSERT
  5
2C540
330
20C7F
100
AcDbEntity
  8
AM_5
 48
1.01
100
AcDbBlockReference
  2
_Dot
 10
772.3056208376394
 20
598.3688598988017
 30
0.0
 50
180.0
  0
INSERT
  5
2C541
330
20C7F
100
AcDbEntity
  8
AM_5
 48
1.01
100
AcDbBlockReference
  2
_Dot
 10
788.3056208376395
 20
598.3688598988017
 30
0.0
  0
MTEXT
  5
2C542
330
20C7F
100
AcDbEntity
  8
AM_5
 62
     2
 48
1.01
100
AcDbMText
 10
780.3056208376395
 20
601.4688598988016
 30
0.0
 40
3.200000000000001
 41
0.0
 71
     5
 72
     1
  1
16
 73
     1
 44
1.0
1001
ACAD
1000
MTEXTBEGIN
1070
    73
1070
     1
1070
    44
1040
1.0
1070
    74
1070
     0
1000
MTEXTEND
  0
POINT
  5
2C543
330
20C7F
100
AcDbEntity
  8
Defpoints
 62
     0
 48
1.01
100
AcDbPoint
 10
772.3056208376394
 20
584.6488779102112
 30
0.0
  0
POINT
  5
2C544
330
20C7F
100
AcDbEntity
  8
Defpoints
 62
     0
 48
1.01
100
AcDbPoint
 10
788.3056208376395
 20
584.6488779102112
 30
0.0
  0
POINT
  5
2C545
330
20C7F
100
AcDbEntity
  8
Defpoints
 62
     0
 48
1.01
100
AcDbPoint
 10
788.3056208376395
 20
598.3688598988017
 30
0.0
  0
ENDBLK
  5
20D56
330
20C7F
100
AcDbEntity
  8
0
100
AcDbBlockEnd
  0
BLOCK
  5
20D57
330
20C89
100
AcDbEntity
  8
0
100
AcDbBlockBegin
  2
*D5
 70
     1
 10
0.0
 20
0.0
 30
0.0
  3
*D5
  1

  0
LINE
  5
2C52B
330
20C89
100
AcDbEntity
  8
AM_5
 48
1.01
100
AcDbLine
 10
763.8056208376731
 20
589.6488779102171
 30
0.0
 11
763.8056208376731
 21
608.6802134240634
 31
0.0
  0
LINE
  5
2C52C
330
20C89
100
AcDbEntity
  8
AM_5
 48
1.01
100
AcDbLine
 10
796.8056208376731
 20
589.6488779102171
 30
0.0
 11
796.8056208376731
 21
608.6802134240634
 31
0.0
  0
LINE
  5
2C52D
330
20C89
100
AcDbEntity
  8
AM_5
 48
1.01
100
AcDbLine
 10
764.8056208376731
 20
607.6802134240632
 30
0.0
 11
795.8056208376731
 21
607.6802134240632
 31
0.0
  0
INSERT
  5
2C52E
330
20C89
100
AcDbEntity
  8
AM_5
 48
1.01
100
AcDbBlockReference
  2
_Dot
 10
763.8056208376731
 20
607.6802134240632
 30
0.0
 50
180.0
  0
INSERT
  5
2C52F
330
20C89
100
AcDbEntity
  8
AM_5
 48
1.01
100
AcDbBlockReference
  2
_Dot
 10
796.8056208376731
 20
607.6802134240632
 30
0.0
  0
MTEXT
  5
2C530
330
20C89
100
AcDbEntity
  8
AM_5
 62
     2
 48
1.01
100
AcDbMText
 10
780.3056208376731
 20
610.7802134240634
 30
0.0
 40
3.200000000000001
 41
0.0
 71
     5
 72
     1
  1
33
 73
     1
 44
1.0
1001
ACAD
1000
MTEXTBEGIN
1070
    73
1070
     1
1070
    44
1040
1.0
1070
    74
1070
     0
1000
MTEXTEND
  0
POINT
  5
2C531
330
20C89
100
AcDbEntity
  8
Defpoints
 62
     0
 48
1.01
100
AcDbPoint
 10
763.8056208376731
 20
588.6488779102172
 30
0.0
  0
POINT
  5
2C532
330
20C89
100
AcDbEntity
  8
Defpoints
 62
     0
 48
1.01
100
AcDbPoint
 10
796.8056208376731
 20
588.6488779102172
 30
0.0
  0
POINT
  5
2C533
330
20C89
100
AcDbEntity
  8
Defpoints
 62
     0
 48
1.01
100
AcDbPoint
 10
796.8056208376731
 20
607.6802134240632
 30
0.0
  0
ENDBLK
  5
20D58
330
20C89
100
AcDbEntity
  8
0
100
AcDbBlockEnd
  0
BLOCK
  5
20D59
330
20C93
100
AcDbEntity
  8
0
100
AcDbBlockBegin
  2
*D6
 70
     1
 10
0.0
 20
0.0
 30
0.0
  3
*D6
  1

  0
LINE
  5
2C534
330
20C93
100
AcDbEntity
  8
AM_5
 48
1.01
100
AcDbLine
 10
751.8056208376528
 20
582.7759868522587
 30
0.0
 11
751.8056208376528
 21
618.7364751923069
 31
0.0
  0
LINE
  5
2C535
330
20C93
100
AcDbEntity
  8
AM_5
 48
1.01
100
AcDbLine
 10
808.8056208376347
 20
582.775986852184
 30
0.0
 11
808.8056208376347
 21
618.7364751923069
 31
0.0
  0
LINE
  5
2C536
330
20C93
100
AcDbEntity
  8
AM_5
 48
1.01
100
AcDbLine
 10
752.805620837653
 20
617.7364751923069
 30
0.0
 11
807.8056208376349
 21
617.7364751923069
 31
0.0
  0
INSERT
  5
2C537
330
20C93
100
AcDbEntity
  8
AM_5
 48
1.01
100
AcDbBlockReference
  2
_Dot
 10
751.8056208376528
 20
617.7364751923069
 30
0.0
 50
180.0
  0
INSERT
  5
2C538
330
20C93
100
AcDbEntity
  8
AM_5
 48
1.01
100
AcDbBlockReference
  2
_Dot
 10
808.8056208376347
 20
617.7364751923069
 30
0.0
  0
MTEXT
  5
2C539
330
20C93
100
AcDbEntity
  8
AM_5
 62
     2
 48
1.01
100
AcDbMText
 10
780.3056208376439
 20
620.8364751923069
 30
0.0
 40
3.200000000000001
 41
0.0
 71
     5
 72
     1
  1
57
 73
     1
 44
1.0
1001
ACAD
1000
MTEXTBEGIN
1070
    73
1070
     1
1070
    44
1040
1.0
1070
    74
1070
     0
1000
MTEXTEND
  0
POINT
  5
2C53A
330
20C93
100
AcDbEntity
  8
Defpoints
 62
     0
 48
1.01
100
AcDbPoint
 10
751.8056208376528
 20
581.7759868522585
 30
0.0
  0
POINT
  5
2C53B
330
20C93
100
AcDbEntity
  8
Defpoints
 62
     0
 48
1.01
100
AcDbPoint
 10
808.8056208376347
 20
581.7759868521838
 30
0.0
  0
POINT
  5
2C53C
330
20C93
100
AcDbEntity
  8
Defpoints
 62
     0
 48
1.01
100
AcDbPoint
 10
808.8056208376347
 20
617.7364751923069
 30
0.0
  0
ENDBLK
  5
20D5A
330
20C93
100
AcDbEntity
  8
0
100
AcDbBlockEnd
  0
BLOCK
  5
2247B
330
223F6
100
AcDbEntity
  8
0
100
AcDbBlockBegin
  2
*D7
 70
     1
 10
0.0
 20
0.0
 30
0.0
  3
*D7
  1

  0
LINE
  5
2C562
330
223F6
100
AcDbEntity
  8
AM_5
 48
1.01
100
AcDbLine
 10
869.5081131575419
 20
565.6488779118513
 30
0.0
 11
841.083855743472
 21
565.6488779118513
 31
0.0
  0
LINE
  5
2C563
330
223F6
100
AcDbEntity
  8
AM_5
 48
1.01
100
AcDbLine
 10
871.3838490888857
 20
588.6488779103457
 30
0.0
 11
841.083855743472
 21
588.6488779103457
 31
0.0
  0
LINE
  5
2C564
330
223F6
100
AcDbEntity
  8
AM_5
 48
1.01
100
AcDbLine
 10
842.083855743472
 20
566.6488779118513
 30
0.0
 11
842.083855743472
 21
587.6488779103457
 31
0.0
  0
INSERT
  5
2C565
330
223F6
100
AcDbEntity
  8
AM_5
 48
1.01
100
AcDbBlockReference
  2
_Dot
 10
842.083855743472
 20
565.6488779118513
 30
0.0
 50
270.0
  0
INSERT
  5
2C566
330
223F6
100
AcDbEntity
  8
AM_5
 48
1.01
100
AcDbBlockReference
  2
_Dot
 10
842.083855743472
 20
588.6488779103457
 30
0.0
 50
90.0
  0
MTEXT
  5
2C567
330
223F6
100
AcDbEntity
  8
AM_5
 62
     2
 48
1.01
100
AcDbMText
 10
838.9838557434718
 20
577.6679269298385
 30
0.0
 40
3.200000000000001
 41
0.0
 71
     5
 72
     1
  1
23
 11
0.0000000000000001
 21
1.0
 31
0.0
 73
     1
 44
1.0
1001
ACAD
1000
MTEXTBEGIN
1070
    73
1070
     1
1070
    44
1040
1.0
1070
    74
1070
     0
1000
MTEXTEND
  0
POINT
  5
2C568
330
223F6
100
AcDbEntity
  8
Defpoints
 62
     0
 48
1.01
100
AcDbPoint
 10
870.508113157542
 20
565.6488779118513
 30
0.0
  0
POINT
  5
2C569
330
223F6
100
AcDbEntity
  8
Defpoints
 62
     0
 48
1.01
100
AcDbPoint
 10
872.3838490888857
 20
588.6488779103457
 30
0.0
  0
POINT
  5
2C56A
330
223F6
100
AcDbEntity
  8
Defpoints
 62
     0
 48
1.01
100
AcDbPoint
 10
842.083855743472
 20
588.6488779103457
 30
0.0
  0
ENDBLK
  5
2247C
330
223F6
100
AcDbEntity
  8
0
100
AcDbBlockEnd
  0
BLOCK
  5
22481
330
22414
100
AcDbEntity
  8
0
100
AcDbBlockBegin
  2
*D8
 70
     1
 10
0.0
 20
0.0
 30
0.0
  3
*D8
  1

  0
LINE
  5
2C546
330
22414
100
AcDbEntity
  8
AM_5
 48
1.01
100
AcDbLine
 10
865.3838490888446
 20
573.1908380203264
 30
0.0
 11
865.3838490888446
 21
617.6866486419385
 31
0.0
  0
LINE
  5
2C547
330
22414
100
AcDbEntity
  8
AM_5
 48
1.01
100
AcDbLine
 10
897.3838490888399
 20
585.5246138415623
 30
0.0
 11
897.3838490888399
 21
617.6866486419385
 31
0.0
  0
LINE
  5
2C548
330
22414
100
AcDbEntity
  8
AM_5
 48
1.01
100
AcDbLine
 10
866.3838490888446
 20
616.6866486419385
 30
0.0
 11
896.3838490888399
 21
616.6866486419385
 31
0.0
  0
INSERT
  5
2C549
330
22414
100
AcDbEntity
  8
AM_5
 48
1.01
100
AcDbBlockReference
  2
_Dot
 10
865.3838490888446
 20
616.6866486419385
 30
0.0
 50
180.0
  0
INSERT
  5
2C54A
330
22414
100
AcDbEntity
  8
AM_5
 48
1.01
100
AcDbBlockReference
  2
_Dot
 10
897.3838490888399
 20
616.6866486419385
 30
0.0
  0
MTEXT
  5
2C54B
330
22414
100
AcDbEntity
  8
AM_5
 62
     2
 48
1.01
100
AcDbMText
 10
881.3838490888421
 20
619.7866486419384
 30
0.0
 40
3.200000000000001
 41
0.0
 71
     5
 72
     1
  1
32
 73
     1
 44
1.0
1001
ACAD
1000
MTEXTBEGIN
1070
    73
1070
     1
1070
    44
1040
1.0
1070
    74
1070
     0
1000
MTEXTEND
  0
POINT
  5
2C54C
330
22414
100
AcDbEntity
  8
Defpoints
 62
     0
 48
1.01
100
AcDbPoint
 10
865.3838490888446
 20
572.1908380203264
 30
0.0
  0
POINT
  5
2C54D
330
22414
100
AcDbEntity
  8
Defpoints
 62
     0
 48
1.01
100
AcDbPoint
 10
897.3838490888399
 20
584.5246138415623
 30
0.0
  0
POINT
  5
2C54E
330
22414
100
AcDbEntity
  8
Defpoints
 62
     0
 48
1.01
100
AcDbPoint
 10
897.3838490888399
 20
616.6866486419385
 30
0.0
  0
ENDBLK
  5
22482
330
22414
100
AcDbEntity
  8
0
100
AcDbBlockEnd
  0
BLOCK
  5
22483
330
2241E
100
AcDbEntity
  8
0
100
AcDbBlockBegin
  2
*D9
 70
     1
 10
0.0
 20
0.0
 30
0.0
  3
*D9
  1

  0
LINE
  5
2C54F
330
2241E
100
AcDbEntity
  8
AM_5
 48
1.01
100
AcDbLine
 10
883.883849088853
 20
583.6488779102851
 30
0.0
 11
883.883849088853
 21
598.0819203676484
 31
0.0
  0
LINE
  5
2C550
330
2241E
100
AcDbEntity
  8
AM_5
 48
1.01
100
AcDbLine
 10
892.3838490889226
 20
582.3988779117852
 30
0.0
 11
892.3838490889226
 21
598.0819203676484
 31
0.0
  0
LINE
  5
2C551
330
2241E
100
AcDbEntity
  8
AM_5
 48
1.01
100
AcDbLine
 10
884.883849088853
 20
597.0819203676484
 30
0.0
 11
891.3838490889226
 21
597.0819203676484
 31
0.0
  0
INSERT
  5
2C552
330
2241E
100
AcDbEntity
  8
AM_5
 48
1.01
100
AcDbBlockReference
  2
_Dot
 10
883.883849088853
 20
597.0819203676484
 30
0.0
 50
180.0
  0
INSERT
  5
2C553
330
2241E
100
AcDbEntity
  8
AM_5
 48
1.01
100
AcDbBlockReference
  2
_Dot
 10
892.3838490889226
 20
597.0819203676484
 30
0.0
  0
MTEXT
  5
2C554
330
2241E
100
AcDbEntity
  8
AM_5
 62
     2
 48
1.01
100
AcDbMText
 10
888.1020276330243
 20
600.1819203676484
 30
0.0
 40
3.200000000000001
 41
0.0
 71
     5
 72
     1
  1
8.5
 73
     1
 44
1.0
1001
ACAD
1000
MTEXTBEGIN
1070
    73
1070
     1
1070
    44
1040
1.0
1070
    74
1070
     0
1000
MTEXTEND
  0
POINT
  5
2C555
330
2241E
100
AcDbEntity
  8
Defpoints
 62
     0
 48
1.01
100
AcDbPoint
 10
883.883849088853
 20
582.6488779102851
 30
0.0
  0
POINT
  5
2C556
330
2241E
100
AcDbEntity
  8
Defpoints
 62
     0
 48
1.01
100
AcDbPoint
 10
892.3838490889226
 20
581.3988779117852
 30
0.0
  0
POINT
  5
2C557
330
2241E
100
AcDbEntity
  8
Defpoints
 62
     0
 48
1.01
100
AcDbPoint
 10
892.3838490889226
 20
597.0819203676484
 30
0.0
  0
ENDBLK
  5
22484
330
2241E
100
AcDbEntity
  8
0
100
AcDbBlockEnd
  0
BLOCK
  5
22485
330
22428
100
AcDbEntity
  8
0
100
AcDbBlockBegin
  2
*D10
 70
     1
 10
0.0
 20
0.0
 30
0.0
  3
*D10
  1

  0
LINE
  5
2C558
330
22428
100
AcDbEntity
  8
AM_5
 48
1.01
100
AcDbLine
 10
886.8838490888274
 20
564.9488779118132
 30
0.0
 11
886.8838490888274
 21
556.3488779118233
 31
0.0
  0
LINE
  5
2C559
330
22428
100
AcDbEntity
  8
AM_5
 48
1.01
100
AcDbLine
 10
892.383849088911
 20
576.1488779117935
 30
0.0
 11
892.383849088911
 21
556.3488779118233
 31
0.0
  0
LINE
  5
2C55A
330
22428
100
AcDbEntity
  8
AM_5
 48
1.01
100
AcDbLine
 10
887.8838490888274
 20
557.3488779118234
 30
0.0
 11
891.383849088911
 21
557.3488779118234
 31
0.0
  0
LINE
  5
2C55B
330
22428
100
AcDbEntity
  8
AM_5
 48
1.01
100
AcDbLine
 10
892.383849088911
 20
557.3488779118234
 30
0.0
 11
901.0771824222443
 21
557.3488779118234
 31
0.0
  0
INSERT
  5
2C55C
330
22428
100
AcDbEntity
  8
AM_5
 48
1.01
100
AcDbBlockReference
  2
_Dot
 10
886.8838490888274
 20
557.3488779118234
 30
0.0
 50
180.0
  0
INSERT
  5
2C55D
330
22428
100
AcDbEntity
  8
AM_5
 48
1.01
100
AcDbBlockReference
  2
_Dot
 10
892.383849088911
 20
557.3488779118234
 30
0.0
  0
MTEXT
  5
2C55E
330
22428
100
AcDbEntity
  8
AM_5
 62
     2
 48
1.01
100
AcDbMText
 10
897.2305157555776
 20
560.4488779118233
 30
0.0
 40
3.200000000000001
 41
0.0
 71
     5
 72
     1
  1
5.5
 73
     1
 44
1.0
1001
ACAD
1000
MTEXTBEGIN
1070
    73
1070
     1
1070
    44
1040
1.0
1070
    74
1070
     0
1000
MTEXTEND
  0
POINT
  5
2C55F
330
22428
100
AcDbEntity
  8
Defpoints
 62
     0
 48
1.01
100
AcDbPoint
 10
886.8838490888274
 20
565.9488779118133
 30
0.0
  0
POINT
  5
2C560
330
22428
100
AcDbEntity
  8
Defpoints
 62
     0
 48
1.01
100
AcDbPoint
 10
892.383849088911
 20
577.1488779117935
 30
0.0
  0
POINT
  5
2C561
330
22428
100
AcDbEntity
  8
Defpoints
 62
     0
 48
1.01
100
AcDbPoint
 10
892.383849088911
 20
557.3488779118234
 30
0.0
  0
ENDBLK
  5
22486
330
22428
100
AcDbEntity
  8
0
100
AcDbBlockEnd
  0
BLOCK
  5
23A8E
330
23A88
100
AcDbEntity
  8
0
100
AcDbBlockBegin
  2
*D11
 70
     1
 10
0.0
 20
0.0
 30
0.0
  3
*D11
  1

  0
LINE
  5
2C56B
330
23A88
100
AcDbEntity
  8
AM_5
 48
1.01
100
AcDbLine
 10
810.1784867521709
 20
552.3908914170093
 30
0.0
 11
785.9051534188368
 21
552.3908914170097
 31
0.0
  0
LINE
  5
2C56C
330
23A88
100
AcDbEntity
  8
AM_5
 48
1.01
100
AcDbLine
 10
785.9051534188368
 20
552.3908914170097
 30
0.0
 11
781.1920056074573
 21
574.4923382403324
 31
0.0
  0
MTEXT
  5
2C56D
330
23A88
100
AcDbEntity
  8
AM_5
 62
     2
 48
1.01
100
AcDbMText
 10
800.3784867521712
 20
558.5575580836763
 30
0.0
 40
3.5
 41
0.0
 71
     5
 72
     1
  1
\U+22054.5孔\P固定ネジ取付用
 73
     1
 44
1.0
1001
ACAD
1000
MTEXTBEGIN
1070
    73
1070
     1
1070
    44
1040
1.0
1070
    74
1070
     0
1000
MTEXTEND
  0
INSERT
  5
2C56E
330
23A88
100
AcDbEntity
  8
AM_5
 48
1.01
100
AcDbBlockReference
  2
_OPEN30
 10
780.7748833628374
 20
576.4483569092216
 30
0.0
 41
2.0
 42
2.0
 43
2.0
 50
102.0380436574902
  0
POINT
  5
2C56F
330
23A88
100
AcDbEntity
  8
Defpoints
 62
     0
 48
1.01
100
AcDbPoint
 10
780.7748833628374
 20
576.4483569092216
 30
0.0
  0
POINT
  5
2C570
330
23A88
100
AcDbEntity
  8
Defpoints
 62
     0
 48
1.01
100
AcDbPoint
 10
779.8363583124423
 20
580.8493989142224
 30
0.0
  0
ENDBLK
  5
23A8F
330
23A88
100
AcDbEntity
  8
0
100
AcDbBlockEnd
  0
BLOCK
  5
2BF93
330
2BF89
100
AcDbEntity
  8
0
100
AcDbBlockBegin
  2
*D12
 70
     1
 10
0.0
 20
0.0
 30
0.0
  3
*D12
  1

  0
LINE
  5
2C571
330
2BF89
100
AcDbEntity
  8
AM_5
100
AcDbLine
 10
762.8056208376532
 20
588.6488779102172
 30
0.0
 11
738.805619827653
 21
588.6488779102172
 31
0.0
  0
LINE
  5
2C572
330
2BF89
100
AcDbEntity
  8
AM_5
100
AcDbLine
 10
747.5242912316722
 20
575.1488779118564
 30
0.0
 11
738.805619827653
 21
575.1488779118564
 31
0.0
  0
LINE
  5
2C573
330
2BF89
100
AcDbEntity
  8
AM_5
100
AcDbLine
 10
739.8056198276532
 20
587.6488779102173
 30
0.0
 11
739.8056198276532
 21
576.1488779118564
 31
0.0
  0
INSERT
  5
2C574
330
2BF89
100
AcDbEntity
  8
AM_5
100
AcDbBlockReference
  2
_Dot
 10
739.8056198276532
 20
588.6488779102172
 30
0.0
 50
90.0
  0
INSERT
  5
2C575
330
2BF89
100
AcDbEntity
  8
AM_5
100
AcDbBlockReference
  2
_Dot
 10
739.8056198276532
 20
575.1488779118564
 30
0.0
 50
270.0
  0
MTEXT
  5
2C576
330
2BF89
100
AcDbEntity
  8
AM_5
 62
     2
100
AcDbMText
 10
736.7056198276531
 20
581.8988779110369
 30
0.0
 40
3.200000000000001
 41
0.0
 71
     5
 72
     1
  1
13.5
 11
0.0000000000000001
 21
1.0
 31
0.0
 73
     1
 44
1.0
1001
ACAD
1000
MTEXTBEGIN
1070
    73
1070
     1
1070
    44
1040
1.0
1070
    74
1070
     0
1000
MTEXTEND
  0
POINT
  5
2C577
330
2BF89
100
AcDbEntity
  8
Defpoints
 62
     0
100
AcDbPoint
 10
763.8056208376532
 20
588.6488779102172
 30
0.0
  0
POINT
  5
2C578
330
2BF89
100
AcDbEntity
  8
Defpoints
 62
     0
100
AcDbPoint
 10
748.5242912316722
 20
575.1488779118564
 30
0.0
  0
POINT
  5
2C579
330
2BF89
100
AcDbEntity
  8
Defpoints
 62
     0
100
AcDbPoint
 10
739.8056198276532
 20
575.1488779118564
 30
0.0
  0
ENDBLK
  5
2BF94
330
2BF89
100
AcDbEntity
  8
0
100
AcDbBlockEnd
  0
BLOCK
  5
2BFA9
330
2BF9F
100
AcDbEntity
  8
0
100
AcDbBlockBegin
  2
*D13
 70
     1
 10
0.0
 20
0.0
 30
0.0
  3
*D13
  1

  0
LINE
  5
2C57A
330
2BF9F
100
AcDbEntity
  8
AM_5
100
AcDbLine
 10
797.8056208377116
 20
584.6488779118564
 30
0.0
 11
830.4383450439321
 21
584.6488779118564
 31
0.0
  0
LINE
  5
2C57B
330
2BF9F
100
AcDbEntity
  8
AM_5
100
AcDbLine
 10
797.8056208376515
 20
565.6488779118562
 30
0.0
 11
830.4383450439321
 21
565.6488779118562
 31
0.0
  0
LINE
  5
2C57C
330
2BF9F
100
AcDbEntity
  8
AM_5
100
AcDbLine
 10
829.4383450439321
 20
583.6488779118564
 30
0.0
 11
829.4383450439321
 21
566.6488779118561
 31
0.0
  0
INSERT
  5
2C57D
330
2BF9F
100
AcDbEntity
  8
AM_5
100
AcDbBlockReference
  2
_Dot
 10
829.4383450439321
 20
584.6488779118564
 30
0.0
 50
90.0
  0
INSERT
  5
2C57E
330
2BF9F
100
AcDbEntity
  8
AM_5
100
AcDbBlockReference
  2
_Dot
 10
829.4383450439321
 20
565.6488779118562
 30
0.0
 50
270.0
  0
MTEXT
  5
2C57F
330
2BF9F
100
AcDbEntity
  8
AM_5
 62
     2
100
AcDbMText
 10
826.338345043932
 20
575.1488779118564
 30
0.0
 40
3.200000000000001
 41
0.0
 71
     5
 72
     1
  1
19
 11
0.0000000000000001
 21
1.0
 31
0.0
 73
     1
 44
1.0
1001
ACAD
1000
MTEXTBEGIN
1070
    73
1070
     1
1070
    44
1040
1.0
1070
    74
1070
     0
1000
MTEXTEND
  0
POINT
  5
2C580
330
2BF9F
100
AcDbEntity
  8
Defpoints
 62
     0
100
AcDbPoint
 10
796.8056208377113
 20
584.6488779118564
 30
0.0
  0
POINT
  5
2C581
330
2BF9F
100
AcDbEntity
  8
Defpoints
 62
     0
100
AcDbPoint
 10
796.8056208376515
 20
565.6488779118562
 30
0.0
  0
POINT
  5
2C582
330
2BF9F
100
AcDbEntity
  8
Defpoints
 62
     0
100
AcDbPoint
 10
829.4383450439321
 20
565.6488779118562
 30
0.0
  0
ENDBLK
  5
2BFAA
330
2BF9F
100
AcDbEntity
  8
0
100
AcDbBlockEnd
  0
BLOCK
  5
2BFF1
330
2BFE7
100
AcDbEntity
  8
0
100
AcDbBlockBegin
  2
*D14
 70
     1
 10
0.0
 20
0.0
 30
0.0
  3
*D14
  1

  0
LINE
  5
2C583
330
2BFE7
100
AcDbEntity
  8
AM_5
100
AcDbLine
 10
809.8056208376377
 20
582.6594695516043
 30
0.0
 11
821.7520934091226
 21
582.6594695516043
 31
0.0
  0
LINE
  5
2C584
330
2BFE7
100
AcDbEntity
  8
AM_5
100
AcDbLine
 10
809.8056208376002
 20
567.6382862719597
 30
0.0
 11
821.7520934091226
 21
567.6382862719597
 31
0.0
  0
LINE
  5
2C585
330
2BFE7
100
AcDbEntity
  8
AM_5
100
AcDbLine
 10
820.7520934091226
 20
581.6594695516041
 30
0.0
 11
820.7520934091226
 21
568.6382862719597
 31
0.0
  0
INSERT
  5
2C586
330
2BFE7
100
AcDbEntity
  8
AM_5
100
AcDbBlockReference
  2
_Dot
 10
820.7520934091226
 20
582.6594695516043
 30
0.0
 50
90.0
  0
INSERT
  5
2C587
330
2BFE7
100
AcDbEntity
  8
AM_5
100
AcDbBlockReference
  2
_Dot
 10
820.7520934091226
 20
567.6382862719597
 30
0.0
 50
270.0
  0
MTEXT
  5
2C588
330
2BFE7
100
AcDbEntity
  8
AM_5
 62
     2
100
AcDbMText
 10
817.6520934091225
 20
575.148877911782
 30
0.0
 40
3.200000000000001
 41
0.0
 71
     5
 72
     1
  1
15
 11
0.0000000000000001
 21
1.0
 31
0.0
 73
     1
 44
1.0
1001
ACAD
1000
MTEXTBEGIN
1070
    73
1070
     1
1070
    44
1040
1.0
1070
    74
1070
     0
1000
MTEXTEND
  0
POINT
  5
2C589
330
2BFE7
100
AcDbEntity
  8
Defpoints
 62
     0
100
AcDbPoint
 10
808.8056208376377
 20
582.6594695516043
 30
0.0
  0
POINT
  5
2C58A
330
2BFE7
100
AcDbEntity
  8
Defpoints
 62
     0
100
AcDbPoint
 10
808.8056208376002
 20
567.6382862719597
 30
0.0
  0
POINT
  5
2C58B
330
2BFE7
100
AcDbEntity
  8
Defpoints
 62
     0
100
AcDbPoint
 10
820.7520934091226
 20
567.6382862719597
 30
0.0
  0
ENDBLK
  5
2BFF2
330
2BFE7
100
AcDbEntity
  8
0
100
AcDbBlockEnd
  0
BLOCK
  5
2C05C
330
2C052
100
AcDbEntity
  8
0
100
AcDbBlockBegin
  2
*D15
 70
     1
 10
0.0
 20
0.0
 30
0.0
  3
*D15
  1

  0
LINE
  5
2C58C
330
2C052
100
AcDbEntity
  8
AM_5
100
AcDbLine
 10
873.8838490888531
 20
576.1488779118527
 30
0.0
 11
873.8838490888531
 21
608.0819203676481
 31
0.0
  0
LINE
  5
2C58D
330
2C052
100
AcDbEntity
  8
AM_5
100
AcDbLine
 10
892.3838490889231
 20
582.6488779102641
 30
0.0
 11
892.3838490889231
 21
608.0819203676481
 31
0.0
  0
LINE
  5
2C58E
330
2C052
100
AcDbEntity
  8
AM_5
100
AcDbLine
 10
874.883849088853
 20
607.0819203676482
 30
0.0
 11
891.3838490889235
 21
607.0819203676482
 31
0.0
  0
INSERT
  5
2C58F
330
2C052
100
AcDbEntity
  8
AM_5
100
AcDbBlockReference
  2
_Dot
 10
873.8838490888531
 20
607.0819203676482
 30
0.0
 50
180.0
  0
INSERT
  5
2C590
330
2C052
100
AcDbEntity
  8
AM_5
100
AcDbBlockReference
  2
_Dot
 10
892.3838490889231
 20
607.0819203676482
 30
0.0
  0
MTEXT
  5
2C591
330
2C052
100
AcDbEntity
  8
AM_5
 62
     2
100
AcDbMText
 10
883.1338490888882
 20
610.1819203676482
 30
0.0
 40
3.200000000000001
 41
0.0
 71
     5
 72
     1
  1
18.5
 73
     1
 44
1.0
1001
ACAD
1000
MTEXTBEGIN
1070
    73
1070
     1
1070
    44
1040
1.0
1070
    74
1070
     0
1000
MTEXTEND
  0
POINT
  5
2C592
330
2C052
100
AcDbEntity
  8
Defpoints
 62
     0
100
AcDbPoint
 10
873.8838490888531
 20
575.1488779118528
 30
0.0
  0
POINT
  5
2C593
330
2C052
100
AcDbEntity
  8
Defpoints
 62
     0
100
AcDbPoint
 10
892.3838490889231
 20
581.6488779102638
 30
0.0
  0
POINT
  5
2C594
330
2C052
100
AcDbEntity
  8
Defpoints
 62
     0
100
AcDbPoint
 10
892.3838490889231
 20
607.0819203676482
 30
0.0
  0
ENDBLK
  5
2C05D
330
2C052
100
AcDbEntity
  8
0
100
AcDbBlockEnd
  0
BLOCK
  5
2C091
330
2C087
100
AcDbEntity
  8
0
100
AcDbBlockBegin
  2
*D16
 70
     1
 10
0.0
 20
0.0
 30
0.0
  3
*D16
  1

  0
LINE
  5
2C595
330
2C087
100
AcDbEntity
  8
AM_5
100
AcDbLine
 10
873.8838490888531
 20
576.1488779118527
 30
0.0
 11
873.8838490888531
 21
607.6866486419382
 31
0.0
  0
LINE
  5
2C596
330
2C087
100
AcDbEntity
  8
AM_5
100
AcDbLine
 10
865.3838490888446
 20
573.3488779118712
 30
0.0
 11
865.3838490888446
 21
607.6866486419382
 31
0.0
  0
LINE
  5
2C597
330
2C087
100
AcDbEntity
  8
AM_5
100
AcDbLine
 10
872.8838490888531
 20
606.6866486419383
 30
0.0
 11
866.3838490888448
 21
606.6866486419383
 31
0.0
  0
INSERT
  5
2C598
330
2C087
100
AcDbEntity
  8
AM_5
100
AcDbBlockReference
  2
_Dot
 10
873.8838490888531
 20
606.6866486419383
 30
0.0
  0
INSERT
  5
2C599
330
2C087
100
AcDbEntity
  8
AM_5
100
AcDbBlockReference
  2
_Dot
 10
865.3838490888446
 20
606.6866486419383
 30
0.0
 50
180.0
  0
MTEXT
  5
2C59A
330
2C087
100
AcDbEntity
  8
AM_5
 62
     2
100
AcDbMText
 10
869.6338490888489
 20
609.7866486419381
 30
0.0
 40
3.200000000000001
 41
0.0
 71
     5
 72
     1
  1
8.5
 73
     1
 44
1.0
1001
ACAD
1000
MTEXTBEGIN
1070
    73
1070
     1
1070
    44
1040
1.0
1070
    74
1070
     0
1000
MTEXTEND
  0
POINT
  5
2C59B
330
2C087
100
AcDbEntity
  8
Defpoints
 62
     0
100
AcDbPoint
 10
873.8838490888531
 20
575.1488779118528
 30
0.0
  0
POINT
  5
2C59C
330
2C087
100
AcDbEntity
  8
Defpoints
 62
     0
100
AcDbPoint
 10
865.3838490888446
 20
572.3488779118712
 30
0.0
  0
POINT
  5
2C59D
330
2C087
100
AcDbEntity
  8
Defpoints
 62
     0
100
AcDbPoint
 10
865.3838490888446
 20
606.6866486419383
 30
0.0
  0
ENDBLK
  5
2C092
330
2C087
100
AcDbEntity
  8
0
100
AcDbBlockEnd
  0
BLOCK
  5
2C106
330
2C0FC
100
AcDbEntity
  8
0
100
AcDbBlockBegin
  2
*D17
 70
     1
 10
0.0
 20
0.0
 30
0.0
  3
*D17
  1

  0
LINE
  5
2C59E
330
2C0FC
100
AcDbEntity
  8
AM_5
100
AcDbLine
 10
860.3838490888531
 20
575.1488779118528
 30
0.0
 11
851.8838480788527
 21
575.1488779118528
 31
0.0
  0
LINE
  5
2C59F
330
2C0FC
100
AcDbEntity
  8
AM_5
100
AcDbLine
 10
883.8838490888557
 20
583.6488779102851
 30
0.0
 11
851.8838480788527
 21
583.6488779102851
 31
0.0
  0
LINE
  5
2C5A0
330
2C0FC
100
AcDbEntity
  8
AM_5
100
AcDbLine
 10
852.8838480788527
 20
576.1488779118527
 30
0.0
 11
852.8838480788527
 21
582.6488779102851
 31
0.0
  0
INSERT
  5
2C5A1
330
2C0FC
100
AcDbEntity
  8
AM_5
100
AcDbBlockReference
  2
_Dot
 10
852.8838480788527
 20
575.1488779118528
 30
0.0
 50
270.0
  0
INSERT
  5
2C5A2
330
2C0FC
100
AcDbEntity
  8
AM_5
100
AcDbBlockReference
  2
_Dot
 10
852.8838480788527
 20
583.6488779102851
 30
0.0
 50
90.0
  0
MTEXT
  5
2C5A3
330
2C0FC
100
AcDbEntity
  8
AM_5
 62
     2
100
AcDbMText
 10
849.7838480788526
 20
579.3988779110692
 30
0.0
 40
3.200000000000001
 41
0.0
 71
     5
 72
     1
  1
8.5
 11
0.0000000000000001
 21
1.0
 31
0.0
 73
     1
 44
1.0
1001
ACAD
1000
MTEXTBEGIN
1070
    73
1070
     1
1070
    44
1040
1.0
1070
    74
1070
     0
1000
MTEXTEND
  0
POINT
  5
2C5A4
330
2C0FC
100
AcDbEntity
  8
Defpoints
 62
     0
100
AcDbPoint
 10
861.3838490888531
 20
575.1488779118528
 30
0.0
  0
POINT
  5
2C5A5
330
2C0FC
100
AcDbEntity
  8
Defpoints
 62
     0
100
AcDbPoint
 10
884.8838490888557
 20
583.6488779102851
 30
0.0
  0
POINT
  5
2C5A6
330
2C0FC
100
AcDbEntity
  8
Defpoints
 62
     0
100
AcDbPoint
 10
852.8838480788527
 20
583.6488779102851
 30
0.0
  0
ENDBLK
  5
2C107
330
2C0FC
100
AcDbEntity
  8
0
100
AcDbBlockEnd
  0
BLOCK
  5
2C11C
330
2C112
100
AcDbEntity
  8
0
100
AcDbBlockBegin
  2
*D18
 70
     1
 10
0.0
 20
0.0
 30
0.0
  3
*D18
  1

  0
LINE
  5
2C5A7
330
2C112
100
AcDbEntity
  8
AM_5
100
AcDbLine
 10
883.8838490888557
 20
583.6488779102851
 30
0.0
 11
851.86936543666
 21
583.6488779102851
 31
0.0
  0
LINE
  5
2C5A8
330
2C112
100
AcDbEntity
  8
AM_5
100
AcDbLine
 10
871.5081131575978
 20
588.6488779103455
 30
0.0
 11
851.86936543666
 21
588.6488779103455
 31
0.0
  0
LINE
  5
2C5A9
330
2C112
100
AcDbEntity
  8
AM_5
100
AcDbLine
 10
852.8693654366604
 20
584.6488779102851
 30
0.0
 11
852.8693654366604
 21
587.6488779103453
 31
0.0
  0
INSERT
  5
2C5AA
330
2C112
100
AcDbEntity
  8
AM_5
100
AcDbBlockReference
  2
_Dot
 10
852.8693654366604
 20
583.6488779102851
 30
0.0
 50
270.0
  0
INSERT
  5
2C5AB
330
2C112
100
AcDbEntity
  8
AM_5
100
AcDbBlockReference
  2
_Dot
 10
852.8693654366604
 20
588.6488779103455
 30
0.0
 50
90.0
  0
MTEXT
  5
2C5AC
330
2C112
100
AcDbEntity
  8
AM_5
 62
     2
100
AcDbMText
 10
849.7693654366596
 20
586.1488779103154
 30
0.0
 40
3.200000000000001
 41
0.0
 71
     5
 72
     1
  1
5
 11
0.0000000000000001
 21
1.0
 31
0.0
 73
     1
 44
1.0
1001
ACAD
1000
MTEXTBEGIN
1070
    73
1070
     1
1070
    44
1040
1.0
1070
    74
1070
     0
1000
MTEXTEND
  0
POINT
  5
2C5AD
330
2C112
100
AcDbEntity
  8
Defpoints
 62
     0
100
AcDbPoint
 10
884.8838490888557
 20
583.6488779102851
 30
0.0
  0
POINT
  5
2C5AE
330
2C112
100
AcDbEntity
  8
Defpoints
 62
     0
100
AcDbPoint
 10
872.5081131575977
 20
588.6488779103455
 30
0.0
  0
POINT
  5
2C5AF
330
2C112
100
AcDbEntity
  8
Defpoints
 62
     0
100
AcDbPoint
 10
852.8693654366604
 20
588.6488779103455
 30
0.0
  0
ENDBLK
  5
2C11D
330
2C112
100
AcDbEntity
  8
0
100
AcDbBlockEnd
  0
ENDSEC
  0
SECTION
  2
ENTITIES
  0
AMDTACMWBLOCKBOMENTITY
  5
14825
330
1F
100
AcDbEntity
  8
AM_5
 48
1.01
 92
        8
310
0800000000000000
  0
AMDTACMWBLOCKBOMENTITY
  5
14826
330
1F
100
AcDbEntity
  8
AM_5
 48
1.01
 92
        8
310
0800000000000000
  0
AMDTACMWBLOCKBOMENTITY
  5
14827
330
1F
100
AcDbEntity
  8
AM_5
 48
1.01
 92
        8
310
0800000000000000
  0
AMDTACMWBLOCKBOMENTITY
  5
14828
330
1F
100
AcDbEntity
  8
AM_5
 48
1.01
 92
        8
310
0800000000000000
  0
AMDTACMWBLOCKBOMENTITY
  5
14829
330
1F
100
AcDbEntity
  8
AM_5
 48
1.01
 92
        8
310
0800000000000000
  0
AMDTACMWBLOCKBOMENTITY
  5
1482A
330
1F
100
AcDbEntity
  8
AM_5
 48
1.01
 92
        8
310
0800000000000000
  0
DIMENSION
  5
20AE4
330
1F
100
AcDbEntity
  8
AM_5
 48
1.01
100
AcDbDimension
  2
*D5
 10
796.8056208376731
 20
607.6802134240632
 30
0.0
 11
780.3056208376731
 21
610.7802134240634
 31
0.0
 70
    32
 71
     5
 42
33.0
  3
SYS$0
100
AcDbAlignedDimension
 13
763.8056208376731
 23
588.6488779102172
 33
0.0
 14
796.8056208376731
 24
588.6488779102172
 34
0.0
100
AcDbRotatedDimension
1001
ACAD
1000
DSTYLE
1002
{
1070
    47
1040
0.00000000001
1070
    48
1040
0.0
1002
}
  0
DIMENSION
  5
20AE5
330
1F
100
AcDbEntity
  8
AM_5
 48
1.01
100
AcDbDimension
  2
*D6
 10
808.8056208376347
 20
617.7364751923069
 30
0.0
 11
780.3056208376439
 21
620.8364751923069
 31
0.0
 70
    32
 71
     5
 42
56.99999999998181
  3
SYS$0
100
AcDbAlignedDimension
 13
751.8056208376528
 23
581.7759868522585
 33
0.0
 14
808.8056208376347
 24
581.7759868521838
 34
0.0
100
AcDbRotatedDimension
1001
ACAD
1000
DSTYLE
1002
{
1070
    47
1040
0.00000000001
1070
    48
1040
0.0
1002
}
  0
DIMENSION
  5
20B4D
330
1F
100
AcDbEntity
  8
AM_5
 48
1.01
100
AcDbDimension
  2
*D4
 10
788.3056208376395
 20
598.3688598988017
 30
0.0
 11
780.3056208376395
 21
601.4688598988016
 31
0.0
 70
    32
 71
     5
 42
15.99999999999988
  3
SYS$0
100
AcDbAlignedDimension
 13
772.3056208376394
 23
584.6488779102112
 33
0.0
 14
788.3056208376395
 24
584.6488779102112
 34
0.0
100
AcDbRotatedDimension
1001
ACAD
1000
DSTYLE
1002
{
1070
    47
1040
0.00000000001
1070
    48
1040
0.0
1002
}
  0
DIMENSION
  5
223CC
330
1F
100
AcDbEntity
  8
AM_5
 48
1.01
100
AcDbDimension
  2
*D8
 10
897.3838490888399
 20
616.6866486419385
 30
0.0
 11
881.3838490888421
 21
619.7866486419384
 31
0.0
 70
    32
 71
     5
 42
31.99999999999523
  3
SYS$0
100
AcDbAlignedDimension
 13
865.3838490888446
 23
572.1908380203264
 33
0.0
 14
897.3838490888399
 24
584.5246138415623
 34
0.0
100
AcDbRotatedDimension
1001
ACAD
1000
DSTYLE
1002
{
1070
    47
1040
0.00000000001
1070
    48
1040
0.0
1002
}
  0
DIMENSION
  5
223CD
330
1F
100
AcDbEntity
  8
AM_5
 48
1.01
100
AcDbDimension
  2
*D9
 10
892.3838490889226
 20
597.0819203676484
 30
0.0
 11
888.1020276330243
 21
597.0819203676484
 31
0.0
 70
   160
 71
     5
 42
8.500000000069576
  3
SYS$0
100
AcDbAlignedDimension
 13
883.883849088853
 23
582.6488779102851
 33
0.0
 14
892.3838490889226
 24
581.3988779117852
 34
0.0
100
AcDbRotatedDimension
1001
ACAD
1000
DSTYLE
1002
{
1070
    47
1040
0.00000000001
1070
    48
1040
0.0
1002
}
  0
DIMENSION
  5
223CE
330
1F
100
AcDbEntity
  8
AM_5
 48
1.01
100
AcDbDimension
  2
*D10
 10
892.383849088911
 20
557.3488779118234
 30
0.0
 11
897.2305157555776
 21
560.4488779118233
 31
0.0
 70
    32
 71
     5
 42
5.500000000083558
  3
SYS$0
100
AcDbAlignedDimension
 13
886.8838490888274
 23
565.9488779118133
 33
0.0
 14
892.383849088911
 24
577.1488779117935
 34
0.0
100
AcDbRotatedDimension
1001
ACAD
1000
DSTYLE
1002
{
1070
    47
1040
0.00000000001
1070
    48
1040
0.0
1002
}
  0
DIMENSION
  5
223D0
330
1F
100
AcDbEntity
  8
AM_5
 48
1.01
100
AcDbDimension
  2
*D7
 10
842.083855743472
 20
588.6488779103457
 30
0.0
 11
842.083855743472
 21
577.6679269298385
 31
0.0
 70
   160
 71
     5
 42
22.99999999849456
  3
SYS$0
100
AcDbAlignedDimension
 13
870.508113157542
 23
565.6488779118513
 33
0.0
 14
872.3838490888857
 24
588.6488779103457
 34
0.0
 50
90.0
100
AcDbRotatedDimension
1001
ACAD
1000
DSTYLE
1002
{
1070
    47
1040
0.00000000001
1070
    48
1040
0.0
1002
}
  0
LINE
  5
223D1
330
1F
100
AcDbEntity
  8
AM_7
100
AcDbLine
 10
873.8838490888531
 20
562.6488779118528
 30
0.0
 11
873.8838490888531
 21
587.6488779118528
 31
0.0
  0
LINE
  5
223D2
330
1F
100
AcDbEntity
  8
AM_7
100
AcDbLine
 10
886.3838490888531
 20
575.1488779118528
 30
0.0
 11
861.3838490888531
 21
575.1488779118528
 31
0.0
  0
DIMENSION
  5
23A87
330
1F
100
AcDbEntity
  8
AM_5
 48
1.01
100
AcDbDimension
  2
*D11
 10
779.8363583124423
 20
580.8493989142224
 30
0.0
 11
800.3784867521712
 21
552.3908914170097
 31
0.0
 70
   163
  1
<>孔\P固定ネジ取付用
 71
     5
 42
4.500000000000168
  3
SYS$3
100
AcDbDiametricDimension
 15
780.7748833628374
 25
576.4483569092216
 35
0.0
 40
0.0
1001
ACAD
1000
DSTYLE
1002
{
1070
    47
1040
0.00000000001
1070
    48
1040
0.0
1002
}
  0
LINE
  5
2ADF5
330
1F
100
AcDbEntity
  8
AM_0
100
AcDbLine
 10
763.8056208376532
 20
588.6488779102172
 30
0.0
 11
763.8056208376532
 21
565.6488779117222
 31
0.0
  0
LINE
  5
2ADF7
330
1F
100
AcDbEntity
  8
AM_0
 48
0.6627108940402195
100
AcDbLine
 10
751.8056208376532
 20
581.7759868522585
 30
0.0
 11
751.8056208376535
 21
568.5217689714544
 31
0.0
  0
LINE
  5
2ADF9
330
1F
100
AcDbEntity
  8
AM_0
100
AcDbLine
 10
763.8056208376532
 20
588.6488779102172
 30
0.0
 11
796.8056208376532
 21
588.6488779102172
 31
0.0
  0
LINE
  5
2ADFA
330
1F
100
AcDbEntity
  8
AM_0
100
AcDbLine
 10
763.8056208376532
 20
565.6488779117222
 30
0.0
 11
796.8056208376532
 21
565.6488779117222
 31
0.0
  0
LINE
  5
2ADFB
330
1F
100
AcDbEntity
  8
AM_0
100
AcDbLine
 10
763.8056208376532
 20
572.6488779117191
 30
0.0
 11
796.8056208376532
 21
572.6488779117191
 31
0.0
  0
LINE
  5
2ADFC
330
1F
100
AcDbEntity
  8
AM_0
100
AcDbLine
 10
763.8056208376532
 20
584.6488779102115
 30
0.0
 11
796.8056208376532
 21
584.6488779102115
 31
0.0
  0
LINE
  5
2ADFD
330
1F
100
AcDbEntity
  8
AM_0
 48
0.9500000000000028
100
AcDbLine
 10
796.8056208376515
 20
565.6488779118562
 30
0.0
 11
796.8056208377113
 21
584.6488779118564
 31
0.0
  0
LINE
  5
2ADFE
330
1F
100
AcDbEntity
  8
AM_0
 48
0.9500000000000028
100
AcDbLine
 10
763.8056208375878
 20
565.6488779118562
 30
0.0
 11
763.8056208375279
 21
584.6488779118564
 31
0.0
  0
LINE
  5
2ADFF
330
1F
100
AcDbEntity
  8
AM_0
100
AcDbLine
 10
796.8056208376532
 20
565.6488779117222
 30
0.0
 11
796.8056208376532
 21
588.6488779102172
 31
0.0
  0
LINE
  5
2AE00
330
1F
100
AcDbEntity
  8
AM_7
 48
0.6000000000000029
100
AcDbLine
 10
788.3056208376189
 20
572.6488779117222
 30
0.0
 11
788.3056208376189
 21
584.6488779117222
 31
0.0
  0
LINE
  5
2AE01
330
1F
100
AcDbEntity
  8
AM_7
100
AcDbLine
 10
780.3056208376586
 20
592.4550997931032
 30
0.0
 11
780.3056208376204
 21
564.842656030341
 31
0.0
  0
LINE
  5
2AE02
330
1F
100
AcDbEntity
  8
AM_7
 48
0.6000000000000029
100
AcDbLine
 10
772.305620837619
 20
572.6488779117222
 30
0.0
 11
772.305620837619
 21
584.6488779117222
 31
0.0
  0
LINE
  5
2AE03
330
1F
100
AcDbEntity
  8
AM_7
100
AcDbLine
 10
748.5242912316722
 20
575.1488779118564
 30
0.0
 11
772.305620837619
 21
575.1488779118564
 31
0.0
  0
LINE
  5
2AE04
330
1F
100
AcDbEntity
  8
AM_0
 48
0.15
100
AcDbLine
 10
771.055620837619
 20
577.9271900752352
 30
0.0
 11
771.055620837619
 21
579.3705657482095
 31
0.0
  0
LINE
  5
2AE05
330
1F
100
AcDbEntity
  8
AM_0
 48
0.15
100
AcDbLine
 10
773.5556208376189
 20
579.3705657482095
 30
0.0
 11
773.5556208376189
 21
577.9271900752352
 31
0.0
  0
LINE
  5
2AE06
330
1F
100
AcDbEntity
  8
AM_0
 48
0.15
100
AcDbLine
 10
772.305620837619
 20
580.0922535846965
 30
0.0
 11
771.055620837619
 21
579.3705657482095
 31
0.0
  0
LINE
  5
2AE07
330
1F
100
AcDbEntity
  8
AM_0
 48
0.15
100
AcDbLine
 10
772.305620837619
 20
577.2055022387485
 30
0.0
 11
773.5556208376189
 21
577.9271900752352
 31
0.0
  0
LINE
  5
2AE08
330
1F
100
AcDbEntity
  8
AM_0
 48
0.15
100
AcDbLine
 10
772.305620837619
 20
580.0922535846965
 30
0.0
 11
773.5556208376189
 21
579.3705657482091
 31
0.0
  0
LINE
  5
2AE09
330
1F
100
AcDbEntity
  8
AM_0
 48
0.15
100
AcDbLine
 10
772.305620837619
 20
577.2055022387482
 30
0.0
 11
771.055620837619
 21
577.9271900752352
 31
0.0
  0
CIRCLE
  5
2AE0A
330
1F
100
AcDbEntity
  8
AM_0
 48
0.4
100
AcDbCircle
 10
772.305620837619
 20
578.6488779117226
 30
0.0
 40
2.5
  0
CIRCLE
  5
2AE0B
330
1F
100
AcDbEntity
  8
AM_2
 48
0.4
100
AcDbCircle
 10
772.305620837619
 20
578.6488779117226
 30
0.0
 40
2.1
  0
LINE
  5
2AE0C
330
1F
100
AcDbEntity
  8
AM_0
 48
0.15
100
AcDbLine
 10
787.055620837619
 20
577.9271900752352
 30
0.0
 11
787.055620837619
 21
579.3705657482095
 31
0.0
  0
LINE
  5
2AE0D
330
1F
100
AcDbEntity
  8
AM_0
 48
0.15
100
AcDbLine
 10
789.555620837619
 20
579.3705657482095
 30
0.0
 11
789.555620837619
 21
577.9271900752352
 31
0.0
  0
LINE
  5
2AE0E
330
1F
100
AcDbEntity
  8
AM_0
 48
0.15
100
AcDbLine
 10
788.3056208376189
 20
580.0922535846965
 30
0.0
 11
787.055620837619
 21
579.3705657482095
 31
0.0
  0
LINE
  5
2AE0F
330
1F
100
AcDbEntity
  8
AM_0
 48
0.15
100
AcDbLine
 10
788.3056208376189
 20
577.2055022387485
 30
0.0
 11
789.555620837619
 21
577.9271900752352
 31
0.0
  0
LINE
  5
2AE10
330
1F
100
AcDbEntity
  8
AM_0
 48
0.15
100
AcDbLine
 10
788.3056208376189
 20
580.0922535846965
 30
0.0
 11
789.555620837619
 21
579.3705657482091
 31
0.0
  0
LINE
  5
2AE11
330
1F
100
AcDbEntity
  8
AM_0
 48
0.15
100
AcDbLine
 10
788.3056208376189
 20
577.2055022387482
 30
0.0
 11
787.055620837619
 21
577.9271900752352
 31
0.0
  0
CIRCLE
  5
2AE12
330
1F
100
AcDbEntity
  8
AM_0
 48
0.4
100
AcDbCircle
 10
788.3056208376189
 20
578.6488779117226
 30
0.0
 40
2.5
  0
CIRCLE
  5
2AE13
330
1F
100
AcDbEntity
  8
AM_2
 48
0.4
100
AcDbCircle
 10
788.3056208376189
 20
578.6488779117226
 30
0.0
 40
2.1
  0
LINE
  5
2AE14
330
1F
100
AcDbEntity
  8
AM_0
100
AcDbLine
 10
763.8056208376532
 20
570.6488779117425
 30
0.0
 11
796.8056208376532
 21
570.6488779117425
 31
0.0
  0
LINE
  5
2AE1D
330
1F
100
AcDbEntity
  8
AM_7
100
AcDbLine
 10
798.8692611632504
 20
578.6488779117221
 30
0.0
 11
761.6033811553377
 21
578.6488779117222
 31
0.0
  0
LINE
  5
2AE34
330
1F
100
AcDbEntity
  8
AM_0
 48
0.5610277140825739
100
AcDbLine
 10
752.6705076329172
 20
582.7668170203026
 30
0.0
 11
763.8056208375294
 21
584.1488779118564
 31
0.0
  0
ARC
  5
2AE35
330
1F
100
AcDbEntity
  8
AM_0
 48
0.3
100
AcDbCircle
 10
752.8056208376532
 20
581.7759868522585
 30
0.0
 40
1.0
100
AcDbArc
 50
97.76516601851179
 51
180.0
1001
GENIUS_GENODEF_13
1002
{
1000
HIER
1070
     0
1002
}
1002
{
1000
MANEDIT
1070
     0
1002
}
1002
{
1000
NOSEL
1070
     0
1002
}
1002
{
1000
BEHIND
1070
     0
1002
}
1002
{
1000
OTHER
1070
     0
1002
}
1002
{
1000
REACTOR
1002
}
1001
GENIUS_GENOBJ-N-FIL_13
1002
{
1000
OWNER
1000
GEN
1002
}
  0
LINE
  5
2AE37
330
1F
100
AcDbEntity
  8
AM_0
 48
0.561207388030679
100
AcDbLine
 10
752.6669415172508
 20
567.5313814202843
 30
0.0
 11
763.8056208375862
 21
566.1488779118561
 31
0.0
  0
ARC
  5
2AE38
330
1F
100
AcDbEntity
  8
AM_0
 48
0.3
100
AcDbCircle
 10
752.8056208376532
 20
568.5217689714544
 30
0.0
 40
1.0
100
AcDbArc
 50
180.0
 51
262.2348339815278
1001
GENIUS_GENOBJ-N-FIL_13
1002
{
1000
OWNER
1000
GEN
1002
}
1001
GENIUS_GENODEF_13
1002
{
1000
HIER
1070
     0
1002
}
1002
{
1000
MANEDIT
1070
     0
1002
}
1002
{
1000
NOSEL
1070
     0
1002
}
1002
{
1000
BEHIND
1070
     0
1002
}
1002
{
1000
OTHER
1070
     0
1002
}
1002
{
1000
REACTOR
1002
}
  0
LINE
  5
2AE39
330
1F
100
AcDbEntity
  8
AM_0
 48
0.6627108940402167
100
AcDbLine
 10
808.8056208376354
 20
581.7759868521841
 30
0.0
 11
808.8056208376022
 21
568.5217689713797
 31
0.0
  0
LINE
  5
2AE3A
330
1F
100
AcDbEntity
  8
AM_0
 48
0.95
100
AcDbLine
 10
796.8056208376564
 20
565.6488779118115
 30
0.0
 11
796.8056208377682
 21
584.6488779118113
 31
0.0
  0
LINE
  5
2AE3B
330
1F
100
AcDbEntity
  8
AM_0
 48
0.5610277140825171
100
AcDbLine
 10
807.9407340423852
 20
582.7668170202287
 30
0.0
 11
796.805620837765
 21
584.1488779118114
 31
0.0
  0
ARC
  5
2AE3C
330
1F
100
AcDbEntity
  8
AM_0
 48
0.3
100
AcDbCircle
 10
807.8056208376349
 20
581.7759868521866
 30
0.0
 40
0.9999999999999998
100
AcDbArc
 50
359.9999999998437
 51
82.23483398133044
1001
GENIUS_GENODEF_13
1002
{
1000
HIER
1070
     0
1002
}
1002
{
1000
MANEDIT
1070
     0
1002
}
1002
{
1000
NOSEL
1070
     0
1002
}
1002
{
1000
BEHIND
1070
     0
1002
}
1002
{
1000
OTHER
1070
     0
1002
}
1002
{
1000
REACTOR
1002
}
1001
GENIUS_GENOBJ-N-FIL_13
1002
{
1000
OWNER
1000
GEN
1002
}
  0
LINE
  5
2AE3D
330
1F
100
AcDbEntity
  8
AM_0
 48
0.5610277140853273
100
AcDbLine
 10
807.9407340423298
 20
567.5309388033376
 30
0.0
 11
796.8056208376593
 21
566.1488779118115
 31
0.0
  0
ARC
  5
2AE3E
330
1F
100
AcDbEntity
  8
AM_0
 48
0.3
100
AcDbCircle
 10
807.8056208375985
 20
568.5217689713822
 30
0.0
 40
0.9999999999999998
100
AcDbArc
 50
277.7651660183145
 51
359.9999999998437
1001
GENIUS_GENOBJ-N-FIL_13
1002
{
1000
OWNER
1000
GEN
1002
}
1001
GENIUS_GENODEF_13
1002
{
1000
HIER
1070
     0
1002
}
1002
{
1000
MANEDIT
1070
     0
1002
}
1002
{
1000
NOSEL
1070
     0
1002
}
1002
{
1000
BEHIND
1070
     0
1002
}
1002
{
1000
OTHER
1070
     0
1002
}
1002
{
1000
REACTOR
1002
}
  0
LINE
  5
2AE58
330
1F
100
AcDbEntity
  8
AM_3
 48
0.15
100
AcDbLine
 10
771.3056208375576
 20
576.648873911919
 30
0.0
 11
770.8056208375579
 21
577.1488739119193
 31
0.0
  0
LINE
  5
2AE70
330
1F
100
AcDbEntity
  8
AM_3
 48
0.15
100
AcDbLine
 10
789.3056208377487
 20
576.648873911919
 30
0.0
 11
789.8056208377489
 21
577.1488739119193
 31
0.0
  0
LINE
  5
2AE9B
330
1F
100
AcDbEntity
  8
AM_7
100
AcDbLine
 10
788.3056208376189
 20
575.1488779118564
 30
0.0
 11
811.5409857576945
 21
575.1488779118564
 31
0.0
  0
CIRCLE
  5
2AE9C
330
1F
100
AcDbEntity
  8
AM_0
 48
0.4
100
AcDbCircle
 10
780.3056208376395
 20
578.6488779117222
 30
0.0
 40
2.25
  0
LINE
  5
2AED1
330
1F
100
AcDbEntity
  8
AM_0
 48
0.268786796489016
100
AcDbLine
 10
897.383849088839
 20
584.6488779102762
 30
0.0
 11
897.3838490888804
 21
579.273141980496
 31
0.0
  0
ARC
  5
2AED2
330
1F
100
AcDbEntity
  8
AM_0
 48
0.3
100
AcDbCircle
 10
897.0838490888805
 20
579.2731419804937
 30
0.0
 40
0.3
100
AcDbArc
 50
315.0000000001611
 51
0.0000000004396799
1001
GENIUS_GENODEF_13
1002
{
1000
HIER
1070
     0
1002
}
1002
{
1000
MANEDIT
1070
     0
1002
}
1002
{
1000
NOSEL
1070
     0
1002
}
1002
{
1000
BEHIND
1070
     0
1002
}
1002
{
1000
OTHER
1070
     0
1002
}
1002
{
1000
REACTOR
1002
}
1001
GENIUS_GENOBJ-N-FIL_13
1002
{
1000
OWNER
1000
GEN
1002
}
  0
LINE
  5
2AED3
330
1F
100
AcDbEntity
  8
AM_0
 48
0.9875735931246651
100
AcDbLine
 10
893.2595850200968
 20
588.6488779102879
 30
0.0
 11
872.5081131575977
 21
588.6488779103455
 31
0.0
  0
LINE
  5
2AED4
330
1F
100
AcDbEntity
  8
AM_0
 48
0.15
100
AcDbLine
 10
865.3838490888405
 20
570.7731419805749
 30
0.0
 11
865.3838490888446
 21
572.1908380203264
 31
0.0
  0
LINE
  5
2AED5
330
1F
100
AcDbEntity
  8
AM_3
 48
0.15
100
AcDbLine
 10
865.3838490888446
 20
572.1908380203264
 30
0.0
 11
865.3838490888446
 21
572.3488779118712
 31
0.0
  0
LINE
  5
2AED6
330
1F
100
AcDbEntity
  8
AM_0
 48
0.15
100
AcDbLine
 10
894.2595850201911
 20
576.148877911789
 30
0.0
 11
893.3838490889085
 21
576.1488779117907
 31
0.0
  0
LINE
  5
2AED7
330
1F
100
AcDbEntity
  8
AM_0
 48
0.2249999999235342
100
AcDbLine
 10
892.383849088911
 20
577.1488779117935
 30
0.0
 11
892.3838490889231
 21
581.6488779102638
 31
0.0
  0
LINE
  5
2AED8
330
1F
100
AcDbEntity
  8
AM_0
 48
0.1699999999987085
100
AcDbLine
 10
886.8838490888368
 20
569.348877911787
 30
0.0
 11
886.8838490888274
 21
565.9488779118133
 31
0.0
  0
LINE
  5
2AED9
330
1F
100
AcDbEntity
  8
AM_0
 48
0.15
100
AcDbLine
 10
886.5838490888377
 20
569.648877911788
 30
0.0
 11
885.1838490888507
 21
569.6488779117935
 31
0.0
  0
ARC
  5
2AEDA
330
1F
100
AcDbEntity
  8
AM_0
 48
0.3
100
AcDbCircle
 10
885.1838490888518
 20
569.9488779117935
 30
0.0
 40
0.3
100
AcDbArc
 50
179.9999999999951
 51
269.9999999997785
1001
GENIUS_GENODEF_13
1002
{
1000
HIER
1070
     0
1002
}
1002
{
1000
MANEDIT
1070
     0
1002
}
1002
{
1000
NOSEL
1070
     0
1002
}
1002
{
1000
BEHIND
1070
     0
1002
}
1002
{
1000
OTHER
1070
     0
1002
}
1002
{
1000
REACTOR
1002
}
1001
GENIUS_GENOBJ-N-FIL_13
1002
{
1000
OWNER
1000
GEN
1002
}
  0
LINE
  5
2AEDB
330
1F
100
AcDbEntity
  8
AM_3
 48
0.15
100
AcDbLine
 10
865.6838490888459
 20
572.6488779118706
 30
0.0
 11
868.383849088854
 21
572.6488779118601
 31
0.0
  0
LINE
  5
2AEDC
330
1F
100
AcDbEntity
  8
AM_0
 48
0.3411269837219742
100
AcDbLine
 10
865.4717170544842
 20
570.5610099462185
 30
0.0
 11
870.2959811231821
 21
565.7367458774957
 31
0.0
  0
LINE
  5
2AEDE
330
1F
100
AcDbEntity
  8
AM_0
 48
0.8037867965644181
100
AcDbLine
 10
886.5838490888267
 20
565.648877911814
 30
0.0
 11
870.5081131575381
 21
565.6488779118507
 31
0.0
  0
LINE
  5
2AEDF
330
1F
100
AcDbEntity
  8
AM_0
 48
0.2766295090405931
100
AcDbLine
 10
893.471717054451
 20
588.5610099446449
 30
0.0
 11
897.383849088839
 21
584.6488779102762
 31
0.0
  0
ARC
  5
2AEE0
330
1F
100
AcDbEntity
  8
AM_0
 48
0.3
100
AcDbCircle
 10
893.383849088911
 20
577.1488779117908
 30
0.0
 40
1.0
100
AcDbArc
 50
179.9999999998403
 51
269.9999999998437
  0
LINE
  5
2AEE1
330
1F
100
AcDbEntity
  8
AM_0
 48
0.2250000000036493
100
AcDbLine
 10
889.3838490889287
 20
583.6488779102726
 30
0.0
 11
884.8838490888557
 21
583.6488779102851
 31
0.0
  0
ARC
  5
2AEE2
330
1F
100
AcDbEntity
  8
AM_0
 48
0.3
100
AcDbCircle
 10
884.883849088853
 20
582.6488779102851
 30
0.0
 40
1.0
100
AcDbArc
 50
89.99999999984366
 51
179.9999999999966
1001
GENIUS_GENODEF_13
1002
{
1000
HIER
1070
     0
1002
}
1002
{
1000
MANEDIT
1070
     0
1002
}
1002
{
1000
NOSEL
1070
     0
1002
}
1002
{
1000
BEHIND
1070
     0
1002
}
1002
{
1000
OTHER
1070
     0
1002
}
1002
{
1000
REACTOR
1002
}
1001
GENIUS_GENOBJ-N-FIL_13
1002
{
1000
OWNER
1000
GEN
1002
}
  0
LINE
  5
2AEE3
330
1F
100
AcDbEntity
  8
AM_0
 48
0.199705627483692
100
AcDbLine
 10
894.4717170545485
 20
576.2367458774336
 30
0.0
 11
897.2959811232369
 21
579.0610099461382
 31
0.0
  0
ARC
  5
2AEE4
330
1F
100
AcDbEntity
  8
AM_0
 48
0.3066941738241576
100
AcDbCircle
 10
889.5075517568042
 20
580.5844319120978
 30
0.0
 40
3.066941738241575
100
AcDbArc
 50
20.30825796268175
 51
92.31160698503876
  0
ARC
  5
2AEE5
330
1F
100
AcDbEntity
  8
AM_0
 48
0.3
100
AcDbCircle
 10
870.5081131575392
 20
565.9488779118512
 30
0.0
 40
0.3
100
AcDbArc
 50
224.999999999848
 51
269.9999999998437
  0
ARC
  5
2AEE6
330
1F
100
AcDbEntity
  8
AM_0
 48
0.3
100
AcDbCircle
 10
865.6838490888409
 20
570.773141980574
 30
0.0
 40
0.3
100
AcDbArc
 50
179.9999999998403
 51
224.999999999848
  0
ARC
  5
2AEE7
330
1F
100
AcDbEntity
  8
AM_3
 48
0.3
100
AcDbCircle
 10
865.6838490888448
 20
572.3488779118707
 30
0.0
 40
0.3
100
AcDbArc
 50
89.99999999984366
 51
179.9999999998403
  0
ARC
  5
2AEE8
330
1F
100
AcDbEntity
  8
AM_0
 48
0.3
100
AcDbCircle
 10
886.5838490888275
 20
565.9488779118141
 30
0.0
 40
0.3
100
AcDbArc
 50
269.9999999998437
 51
359.9999999998404
  0
ARC
  5
2AEE9
330
1F
100
AcDbEntity
  8
AM_0
 48
0.3
100
AcDbCircle
 10
886.5838490888368
 20
569.3488779117882
 30
0.0
 40
0.3
100
AcDbArc
 50
359.9999999998404
 51
89.99999999984366
  0
ARC
  5
2AEEC
330
1F
100
AcDbEntity
  8
AM_0
 48
0.3
100
AcDbCircle
 10
897.0838490888397
 20
584.5246138415632
 30
0.0
 40
0.3
100
AcDbArc
 50
359.9999999998404
 51
45.00000000014279
  0
ARC
  5
2AEED
330
1F
100
AcDbEntity
  8
AM_0
 48
0.3
100
AcDbCircle
 10
894.259585020192
 20
576.448877911789
 30
0.0
 40
0.3
100
AcDbArc
 50
269.9999999998437
 51
315.0000000001609
  0
CIRCLE
  5
2AEEE
330
1F
100
AcDbEntity
  8
AM_0
 48
0.9
100
AcDbCircle
 10
873.8838490888531
 20
575.1488779118528
 30
0.0
 40
9.0
  0
LINE
  5
2AEEF
330
1F
100
AcDbEntity
  8
AM_0
 48
0.15
100
AcDbLine
 10
872.3838490888512
 20
574.6488779118569
 30
0.0
 11
871.7838490888516
 21
574.6488779118585
 31
0.0
  0
LINE
  5
2AEF0
330
1F
100
AcDbEntity
  8
AM_0
 48
0.15
100
AcDbLine
 10
875.9838490888514
 20
574.6488779118472
 30
0.0
 11
875.3838490888513
 21
574.6488779118488
 31
0.0
  0
LINE
  5
2AEF1
330
1F
100
AcDbEntity
  8
AM_0
 48
0.15
100
AcDbLine
 10
874.3838490888487
 20
573.6488779118514
 30
0.0
 11
874.3838490888469
 21
573.0488779118513
 31
0.0
  0
LINE
  5
2AEF2
330
1F
100
AcDbEntity
  8
AM_0
 48
0.15
100
AcDbLine
 10
874.3838490888586
 20
577.2488779118512
 30
0.0
 11
874.3838490888567
 21
576.6488779118516
 31
0.0
  0
LINE
  5
2AEF3
330
1F
100
AcDbEntity
  8
AM_0
 48
0.15
100
AcDbLine
 10
872.3838490888541
 20
575.6488779118567
 30
0.0
 11
871.783849088854
 21
575.6488779118585
 31
0.0
  0
LINE
  5
2AEF4
330
1F
100
AcDbEntity
  8
AM_0
 48
0.15
100
AcDbLine
 10
875.9838490888537
 20
575.6488779118467
 30
0.0
 11
875.3838490888542
 21
575.6488779118487
 31
0.0
  0
LINE
  5
2AEF5
330
1F
100
AcDbEntity
  8
AM_0
 48
0.15
100
AcDbLine
 10
873.3838490888487
 20
573.6488779118542
 30
0.0
 11
873.3838490888469
 21
573.0488779118541
 31
0.0
  0
LINE
  5
2AEF6
330
1F
100
AcDbEntity
  8
AM_0
 48
0.15
100
AcDbLine
 10
873.3838490888585
 20
577.2488779118541
 30
0.0
 11
873.3838490888567
 21
576.6488779118542
 31
0.0
  0
ARC
  5
2AEF7
330
1F
100
AcDbEntity
  8
AM_0
 48
0.3
100
AcDbCircle
 10
875.3838490888487
 20
573.6488779118487
 30
0.0
 40
1.0
100
AcDbArc
 50
89.99999999984366
 51
179.9999999998403
  0
ARC
  5
2AEF8
330
1F
100
AcDbEntity
  8
AM_0
 48
0.3
100
AcDbCircle
 10
875.3838490888567
 20
576.6488779118487
 30
0.0
 40
1.0
100
AcDbArc
 50
179.9999999998403
 51
269.9999999998437
  0
ARC
  5
2AEF9
330
1F
100
AcDbEntity
  8
AM_0
 48
0.3
100
AcDbCircle
 10
872.3838490888567
 20
576.6488779118567
 30
0.0
 40
1.0
100
AcDbArc
 50
269.9999999998437
 51
359.9999999998404
  0
ARC
  5
2AEFA
330
1F
100
AcDbEntity
  8
AM_0
 48
0.3
100
AcDbCircle
 10
872.3838490888487
 20
573.648877911857
 30
0.0
 40
1.0
100
AcDbArc
 50
359.9999999998404
 51
89.99999999984366
  0
CIRCLE
  5
2AEFB
330
1F
100
AcDbEntity
  8
AM_0
 48
0.4
100
AcDbCircle
 10
873.8838490888531
 20
575.1488779118528
 30
0.0
 40
3.5
  0
LINE
  5
2AEFC
330
1F
100
AcDbEntity
  8
AM_0
 48
0.15
100
AcDbLine
 10
871.783849088854
 20
575.6488779118585
 30
0.0
 11
871.7838490888516
 21
574.6488779118585
 31
0.0
  0
LINE
  5
2AEFD
330
1F
100
AcDbEntity
  8
AM_0
 48
0.15
100
AcDbLine
 10
875.9838490888537
 20
575.6488779118467
 30
0.0
 11
875.9838490888514
 21
574.6488779118472
 31
0.0
  0
LINE
  5
2AEFE
330
1F
100
AcDbEntity
  8
AM_0
 48
0.15
100
AcDbLine
 10
874.3838490888469
 20
573.0488779118513
 30
0.0
 11
873.3838490888469
 21
573.0488779118541
 31
0.0
  0
LINE
  5
2AEFF
330
1F
100
AcDbEntity
  8
AM_0
 48
0.15
100
AcDbLine
 10
874.3838490888586
 20
577.2488779118512
 30
0.0
 11
873.3838490888585
 21
577.2488779118541
 31
0.0
  0
LINE
  5
2AF00
330
1F
100
AcDbEntity
  8
AM_7
100
AcDbLine
 10
873.8838490888181
 20
562.6488779118528
 30
0.0
 11
873.8838490888872
 21
587.6488779118528
 31
0.0
  0
LINE
  5
2AF01
330
1F
100
AcDbEntity
  8
AM_7
100
AcDbLine
 10
886.3838490888531
 20
575.1488779118184
 30
0.0
 11
861.3838490888531
 21
575.1488779118875
 31
0.0
  0
LINE
  5
2AF02
330
1F
100
AcDbEntity
  8
AM_0
 48
0.15
100
AcDbLine
 10
868.3838490888788
 20
584.5246138416447
 30
0.0
 11
868.3838490888751
 21
582.2727813362578
 31
0.0
  0
LINE
  5
2AF03
330
1F
100
AcDbEntity
  8
AM_3
 48
0.4811951712198777
100
AcDbLine
 10
868.3838490888751
 20
582.2727813362578
 30
0.0
 11
868.3838490888593
 21
572.6488779118601
 31
0.0
  0
LINE
  5
2AF04
330
1F
100
AcDbEntity
  8
AM_0
 48
0.15
100
AcDbLine
 10
886.5838490888377
 20
569.648877911788
 30
0.0
 11
885.1838490888368
 21
569.6488779117935
 31
0.0
  0
ARC
  5
2AF06
330
1F
100
AcDbEntity
  8
AM_0
 48
0.3
100
AcDbCircle
 10
893.2595883316116
 20
588.3488779102881
 30
0.0
 40
0.3
100
AcDbArc
 50
45.00000000014279
 51
89.99999999984366
  0
LINE
  5
2AF07
330
1F
100
AcDbEntity
  8
AM_0
 48
0.2200000000012523
100
AcDbLine
 10
884.8838490888523
 20
574.3488779118187
 30
0.0
 11
884.8838490888519
 21
569.9488779117935
 31
0.0
  0
LINE
  5
2AF08
330
1F
100
AcDbEntity
  8
AM_0
 48
0.3849999999233149
100
AcDbLine
 10
883.883849088853
 20
582.6488779102851
 30
0.0
 11
883.8838490888521
 21
574.9488779118187
 31
0.0
  0
ARC
  5
2AF09
330
1F
100
AcDbEntity
  8
AM_0
 48
0.3
100
AcDbCircle
 10
884.183849088852
 20
574.9488779118187
 30
0.0
 40
0.3
100
AcDbArc
 50
179.9999999999966
 51
270.0
  0
ARC
  5
2AF0A
330
1F
100
AcDbEntity
  8
AM_0
 48
0.3
100
AcDbCircle
 10
884.5838490888523
 20
574.3488779118187
 30
0.0
 40
0.3
100
AcDbArc
 50
359.9999999999984
 51
90.0
  0
LINE
  5
2AF0B
330
1F
100
AcDbEntity
  8
AM_0
 48
0.15
100
AcDbLine
 10
884.5838490888523
 20
574.6488779118188
 30
0.0
 11
884.183849088852
 21
574.6488779118188
 31
0.0
  0
CIRCLE
  5
2AF0C
330
1F
100
AcDbEntity
  8
AM_0
 48
0.75
100
AcDbCircle
 10
873.8838490888531
 20
575.1488779118528
 30
0.0
 40
7.5
  0
CIRCLE
  5
2AF0D
330
1F
100
AcDbEntity
  8
AM_0
 48
0.4
100
AcDbCircle
 10
873.8838490888518
 20
575.148877911881
 30
0.0
 40
3.999999999999087
  0
LINE
  5
2AF0E
330
1F
100
AcDbEntity
  8
AM_0
 48
0.15
100
AcDbLine
 10
883.8838490888521
 20
576.5231194063288
 30
0.0
 11
883.8838490888521
 21
574.9488779118187
 31
0.0
  0
LINE
  5
2AF0F
330
1F
100
AcDbEntity
  8
AM_3
 48
0.15
100
AcDbLine
 10
883.3796075942755
 20
579.2738779117537
 30
0.0
 11
883.3796075942759
 21
578.023877911754
 31
0.0
  0
LINE
  5
2AF10
330
1F
100
AcDbEntity
  8
AM_7
100
AcDbLine
 10
863.7757216812017
 20
578.6488779117616
 30
0.0
 11
898.6330245494118
 21
578.6488779117616
 31
0.0
  0
LINE
  5
2AF11
330
1F
100
AcDbEntity
  8
AM_3
 48
0.15
100
AcDbLine
 10
883.3796075942755
 20
579.2738779117537
 30
0.0
 11
881.5046075942921
 21
581.1488779117387
 31
0.0
  0
LINE
  5
2AF12
330
1F
100
AcDbEntity
  8
AM_3
 48
0.15
100
AcDbLine
 10
883.3796075942755
 20
578.0238779117537
 30
0.0
 11
881.5046075942621
 21
576.1488779117265
 31
0.0
  0
LINE
  5
2AF13
330
1F
100
AcDbEntity
  8
AM_3
 48
0.2500000000004206
100
AcDbLine
 10
881.5046075942621
 20
576.1488779117265
 30
0.0
 11
881.5046075942621
 21
581.1488779117349
 31
0.0
  0
LINE
  5
2AF14
330
1F
100
AcDbEntity
  8
AM_3
 48
0.15
100
AcDbLine
 10
867.3796075942759
 20
576.6072112450721
 30
0.0
 11
867.8379409276129
 21
576.1488779117358
 31
0.0
  0
LINE
  5
2AF15
330
1F
100
AcDbEntity
  8
AM_3
 48
0.15
100
AcDbLine
 10
867.3796075942759
 20
580.6905445784052
 30
0.0
 11
867.8379409276047
 21
581.1488779117355
 31
0.0
  0
LINE
  5
2AF16
330
1F
100
AcDbEntity
  8
AM_3
 48
0.7957954080624404
100
AcDbLine
 10
867.8379409276042
 20
581.1488779117349
 30
0.0
 11
883.8838490888527
 21
581.1488779117352
 31
0.0
  0
LINE
  5
2AF17
330
1F
100
AcDbEntity
  8
AM_3
 48
0.81871207472891
100
AcDbLine
 10
867.3796075942746
 20
580.6905445784042
 30
0.0
 11
883.8838490888527
 21
580.6905445783891
 31
0.0
  0
LINE
  5
2AF18
330
1F
100
AcDbEntity
  8
AM_3
 48
0.8187120747288759
100
AcDbLine
 10
867.3796075942746
 20
576.6072112450731
 30
0.0
 11
883.8838490888521
 21
576.6072112450882
 31
0.0
  0
LINE
  5
2AF19
330
1F
100
AcDbEntity
  8
AM_3
 48
0.795795408061963
100
AcDbLine
 10
867.8379409276136
 20
576.1488779117351
 30
0.0
 11
883.8838490888527
 21
576.1488779117351
 31
0.0
  0
LINE
  5
2AF1A
330
1F
100
AcDbEntity
  8
AM_3
 48
0.2500000000003808
100
AcDbLine
 10
867.8379409276129
 20
581.1488779117435
 30
0.0
 11
867.8379409276129
 21
576.1488779117358
 31
0.0
  0
LINE
  5
2AF1B
330
1F
100
AcDbEntity
  8
AM_3
 48
0.2041666666666344
100
AcDbLine
 10
867.3796075942759
 20
580.6905445784057
 30
0.0
 11
867.3796075942746
 21
576.6072112450731
 31
0.0
  0
LINE
  5
2B049
330
1F
100
AcDbEntity
  8
AM_3
 48
0.2499999999973397
100
AcDbLine
 10
892.383849088921
 20
580.8987881585195
 30
0.0
 11
897.3838490888679
 21
580.8987881585195
 31
0.0
  0
LINE
  5
2B3F9
330
1F
100
AcDbEntity
  8
AM_0
100
AcDbLine
 10
763.8056208376586
 20
678.0416889249187
 30
0.0
 11
796.8056208376586
 21
678.0416889249187
 31
0.0
  0
LINE
  5
2B3FA
330
1F
100
AcDbEntity
  8
AM_0
100
AcDbLine
 10
763.8056208376586
 20
682.041688924961
 30
0.0
 11
796.8056208376586
 21
682.041688924961
 31
0.0
  0
LINE
  5
2B3FF
330
1F
100
AcDbEntity
  8
AM_0
100
AcDbLine
 10
796.8056208376586
 20
682.041688924961
 30
0.0
 11
796.8056208376586
 21
652.0416889250011
 31
0.0
  0
LINE
  5
2B403
330
1F
100
AcDbEntity
  8
AM_0
 48
0.9499999999254439
100
AcDbLine
 10
796.8056208376586
 20
668.0416889242152
 30
0.0
 11
796.8056208376586
 21
649.5416889257048
 31
0.0
  0
LINE
  5
2B409
330
1F
100
AcDbEntity
  8
AM_0
100
AcDbLine
 10
763.8056208376586
 20
682.041688924961
 30
0.0
 11
763.8056208376586
 21
649.5416889252979
 31
0.0
  0
LINE
  5
2B40C
330
1F
100
AcDbEntity
  8
AM_7
100
AcDbLine
 10
772.3056208376217
 20
648.2533700119139
 30
0.0
 11
772.3056208376217
 21
669.7363930235706
 31
0.0
  0
LINE
  5
2B40D
330
1F
100
AcDbEntity
  8
AM_7
100
AcDbLine
 10
788.3056208376217
 20
648.2533700119139
 30
0.0
 11
788.3056208376217
 21
669.7363930235706
 31
0.0
  0
LINE
  5
2B40E
330
1F
100
AcDbEntity
  8
AM_7
100
AcDbLine
 10
786.8194579486899
 20
658.5416889257507
 30
0.0
 11
811.5409857576715
 21
658.5416889257507
 31
0.0
  0
LINE
  5
2B421
330
1F
100
AcDbEntity
  8
AM_7
100
AcDbLine
 10
773.3000508586972
 20
658.5416889257507
 30
0.0
 11
749.070255917609
 21
658.5416889257507
 31
0.0
  0
LINE
  5
2B436
330
1F
100
AcDbEntity
  8
AM_0
 48
0.2041666666666629
100
AcDbLine
 10
770.2639541709552
 20
652.0416889249611
 30
0.0
 11
774.3472875042884
 21
652.0416889249611
 31
0.0
  0
LINE
  5
2B43B
330
1F
100
AcDbEntity
  8
AM_0
 48
0.15
100
AcDbLine
 10
770.2639541709552
 20
652.0416889249611
 30
0.0
 11
769.8056208376189
 21
652.500022258298
 31
0.0
  0
LINE
  5
2B43C
330
1F
100
AcDbEntity
  8
AM_0
 48
0.15
100
AcDbLine
 10
774.3472875042884
 20
652.0416889249611
 30
0.0
 11
774.8056208376185
 21
652.5000222582903
 31
0.0
  0
LINE
  5
2B43D
330
1F
100
AcDbEntity
  8
AM_0
 48
0.25
100
AcDbLine
 10
769.8056208376189
 20
652.500022258298
 30
0.0
 11
774.8056208376189
 21
652.500022258298
 31
0.0
  0
LINE
  5
2B445
330
1F
100
AcDbEntity
  8
AM_0
 48
0.1770833333355711
100
AcDbLine
 10
774.8056208376181
 20
652.5000222582897
 30
0.0
 11
774.805620837618
 21
653.0416889257503
 31
0.0
  0
LINE
  5
2B447
330
1F
100
AcDbEntity
  8
AM_2
 48
0.2000000000020066
100
AcDbLine
 10
774.3472875042884
 20
652.0416889249611
 30
0.0
 11
774.3472875042872
 21
653.0416889257503
 31
0.0
  0
LINE
  5
2B449
330
1F
100
AcDbEntity
  8
AM_2
 48
0.2000000000020066
100
AcDbLine
 10
770.2639541709552
 20
652.0416889249611
 30
0.0
 11
770.2639541709562
 21
653.0416889257503
 31
0.0
  0
LINE
  5
2B44B
330
1F
100
AcDbEntity
  8
AM_0
 48
0.1770833333351305
100
AcDbLine
 10
769.8056208376181
 20
652.5000222582985
 30
0.0
 11
769.8056208376182
 21
653.0416889257507
 31
0.0
  0
LINE
  5
2B452
330
1F
100
AcDbEntity
  8
AM_0
 48
0.2041666666666629
100
AcDbLine
 10
790.3472875042506
 20
652.0416889249611
 30
0.0
 11
786.2639541709174
 21
652.0416889249611
 31
0.0
  0
LINE
  5
2B457
330
1F
100
AcDbEntity
  8
AM_0
 48
0.15
100
AcDbLine
 10
790.3472875042506
 20
652.0416889249611
 30
0.0
 11
790.8056208375868
 21
652.500022258298
 31
0.0
  0
LINE
  5
2B458
330
1F
100
AcDbEntity
  8
AM_0
 48
0.15
100
AcDbLine
 10
786.2639541709174
 20
652.0416889249611
 30
0.0
 11
785.8056208375873
 21
652.5000222582903
 31
0.0
  0
LINE
  5
2B459
330
1F
100
AcDbEntity
  8
AM_0
 48
0.25
100
AcDbLine
 10
790.8056208375868
 20
652.500022258298
 30
0.0
 11
785.8056208375868
 21
652.500022258298
 31
0.0
  0
LINE
  5
2B461
330
1F
100
AcDbEntity
  8
AM_0
 48
0.1770833333355711
100
AcDbLine
 10
785.8056208375877
 20
652.5000222582897
 30
0.0
 11
785.8056208375877
 21
653.0416889257503
 31
0.0
  0
LINE
  5
2B463
330
1F
100
AcDbEntity
  8
AM_2
 48
0.2000000000020066
100
AcDbLine
 10
786.2639541709174
 20
652.0416889249611
 30
0.0
 11
786.2639541709186
 21
653.0416889257503
 31
0.0
  0
LINE
  5
2B465
330
1F
100
AcDbEntity
  8
AM_2
 48
0.2000000000020066
100
AcDbLine
 10
790.3472875042506
 20
652.0416889249611
 30
0.0
 11
790.3472875042492
 21
653.0416889257507
 31
0.0
  0
LINE
  5
2B467
330
1F
100
AcDbEntity
  8
AM_0
 48
0.1770833333351305
100
AcDbLine
 10
790.8056208375877
 20
652.5000222582985
 30
0.0
 11
790.8056208375877
 21
653.0416889257507
 31
0.0
  0
LINE
  5
2B469
330
1F
100
AcDbEntity
  8
AM_0
 48
0.9500000000000028
100
AcDbLine
 10
796.8056208376582
 20
649.5416889257048
 30
0.0
 11
796.8056208377166
 21
668.0416889257505
 31
0.0
  0
LINE
  5
2B46A
330
1F
100
AcDbEntity
  8
AM_0
 48
0.6627108940402167
100
AcDbLine
 10
808.8056208376404
 20
665.1687978660783
 30
0.0
 11
808.8056208376038
 21
651.9145799852739
 31
0.0
  0
LINE
  5
2B46B
330
1F
100
AcDbEntity
  8
AM_0
 48
0.95
100
AcDbLine
 10
796.8056208376646
 20
649.5416889257056
 30
0.0
 11
796.8056208377734
 21
668.0416889257056
 31
0.0
  0
LINE
  5
2B46C
330
1F
100
AcDbEntity
  8
AM_0
 48
0.5610277140825171
100
AcDbLine
 10
807.9407340423777
 20
666.1596280341248
 30
0.0
 11
796.8056208377702
 21
667.5416889257056
 31
0.0
  0
ARC
  5
2B46D
330
1F
100
AcDbEntity
  8
AM_0
 48
0.3
100
AcDbCircle
 10
807.8056208376404
 20
665.168797866081
 30
0.0
 40
0.9999999999999998
100
AcDbArc
 50
359.9999999998437
 51
82.23483398133044
1001
GENIUS_GENODEF_13
1002
{
1000
HIER
1070
     0
1002
}
1002
{
1000
MANEDIT
1070
     0
1002
}
1002
{
1000
NOSEL
1070
     0
1002
}
1002
{
1000
BEHIND
1070
     0
1002
}
1002
{
1000
OTHER
1070
     0
1002
}
1002
{
1000
REACTOR
1002
}
1001
GENIUS_GENOBJ-N-FIL_13
1002
{
1000
OWNER
1000
GEN
1002
}
  0
LINE
  5
2B46E
330
1F
100
AcDbEntity
  8
AM_0
 48
0.5610277140853273
100
AcDbLine
 10
807.9407340423355
 20
650.923749817232
 30
0.0
 11
796.8056208376646
 21
649.5416889257056
 31
0.0
  0
ARC
  5
2B46F
330
1F
100
AcDbEntity
  8
AM_0
 48
0.3
100
AcDbCircle
 10
807.8056208376038
 20
651.9145799852765
 30
0.0
 40
0.9999999999999998
100
AcDbArc
 50
277.7651660183145
 51
359.9999999998437
1001
GENIUS_GENOBJ-N-FIL_13
1002
{
1000
OWNER
1000
GEN
1002
}
1001
GENIUS_GENODEF_13
1002
{
1000
HIER
1070
     0
1002
}
1002
{
1000
MANEDIT
1070
     0
1002
}
1002
{
1000
NOSEL
1070
     0
1002
}
1002
{
1000
BEHIND
1070
     0
1002
}
1002
{
1000
OTHER
1070
     0
1002
}
1002
{
1000
REACTOR
1002
}
  0
LINE
  5
2B488
330
1F
100
AcDbEntity
  8
AM_0
 48
0.6627108940402167
100
AcDbLine
 10
751.805620838117
 20
665.1687978651742
 30
0.0
 11
751.8056208385737
 21
651.9145799843701
 31
0.0
  0
LINE
  5
2B489
330
1F
100
AcDbEntity
  8
AM_0
 48
0.5610277140825142
100
AcDbLine
 10
752.6705076333483
 20
666.1596280332481
 30
0.0
 11
763.8056208379119
 21
667.5416889251822
 31
0.0
  0
ARC
  5
2B48A
330
1F
100
AcDbEntity
  8
AM_0
 48
0.3
100
AcDbCircle
 10
752.8056208381171
 20
665.1687978652089
 30
0.0
 40
0.9999999999999998
100
AcDbArc
 50
97.76516602048388
 51
180.0000000019736
1001
GENIUS_GENODEF_13
1002
{
1000
HIER
1070
     0
1002
}
1002
{
1000
MANEDIT
1070
     0
1002
}
1002
{
1000
NOSEL
1070
     0
1002
}
1002
{
1000
BEHIND
1070
     0
1002
}
1002
{
1000
OTHER
1070
     0
1002
}
1002
{
1000
REACTOR
1002
}
1001
GENIUS_GENOBJ-N-FIL_13
1002
{
1000
OWNER
1000
GEN
1002
}
  0
LINE
  5
2B48B
330
1F
100
AcDbEntity
  8
AM_0
 48
0.5610277140853303
100
AcDbLine
 10
752.6705076338734
 20
650.9237498163555
 30
0.0
 11
763.8056208385883
 21
649.5416889251826
 31
0.0
  0
ARC
  5
2B48C
330
1F
100
AcDbEntity
  8
AM_0
 48
0.3
100
AcDbCircle
 10
752.8056208385737
 20
651.9145799844046
 30
0.0
 40
0.9999999999999998
100
AcDbArc
 50
180.0000000019736
 51
262.2348339834999
1001
GENIUS_GENOBJ-N-FIL_13
1002
{
1000
OWNER
1000
GEN
1002
}
1001
GENIUS_GENODEF_13
1002
{
1000
HIER
1070
     0
1002
}
1002
{
1000
MANEDIT
1070
     0
1002
}
1002
{
1000
NOSEL
1070
     0
1002
}
1002
{
1000
BEHIND
1070
     0
1002
}
1002
{
1000
OTHER
1070
     0
1002
}
1002
{
1000
REACTOR
1002
}
  0
LINE
  5
2B66D
330
1F
100
AcDbEntity
  8
AM_0
100
AcDbLine
 10
763.8056208376586
 20
653.0416889257503
 30
0.0
 11
796.8056208376854
 21
653.0416889257507
 31
0.0
  0
LINE
  5
2B677
330
1F
100
AcDbEntity
  8
AM_0
100
AcDbLine
 10
763.8056208376586
 20
650.0416889257507
 30
0.0
 11
796.8056208376676
 21
650.0416889257507
 31
0.0
  0
LINE
  5
2B80D
330
1F
100
AcDbEntity
  8
AM_7
100
AcDbLine
 10
780.3056208376586
 20
686.041688924961
 30
0.0
 11
780.3056208376586
 21
645.5416889252979
 31
0.0
1001
GENIUS_GENODEF_13
1002
{
1000
HIER
1070
     0
1002
}
1002
{
1000
MANEDIT
1070
     0
1002
}
1002
{
1000
NOSEL
1070
     0
1002
}
1002
{
1000
BEHIND
1070
     0
1002
}
1002
{
1000
OTHER
1070
     0
1002
}
1002
{
1000
REACTOR
1002
}
1001
GENIUS_GENOBJ-N-CEN_13
1002
{
1000
OWNER
1000
GEN
1002
}
1001
GENIUS_GENCEN_19
1002
{
1040
4.0
1002
}
  0
LINE
  5
2BE01
330
1F
100
AcDbEntity
  8
AM_0
 48
0.15
100
AcDbLine
 10
872.2959811232417
 20
588.561009944702
 30
0.0
 11
868.4717170545233
 21
584.7367458760007
 31
0.0
1001
GENIUS_GENFIL_13
1070
     0
1040
4.0
1040
4.0
1040
20.0
1040
0.0
1002
{
1002
}
1001
GENIUS_GENODEF_13
1002
{
1000
HIER
1070
     0
1002
}
1002
{
1000
MANEDIT
1070
     0
1002
}
1002
{
1000
NOSEL
1070
     0
1002
}
1002
{
1000
BEHIND
1070
     0
1002
}
1002
{
1000
OTHER
1070
     0
1002
}
1002
{
1000
REACTOR
1002
}
1001
GENIUS_GENOBJ-N-CHA_13
1002
{
1000
OWNER
1000
GEN
1002
}
  0
ARC
  5
2BE11
330
1F
100
AcDbEntity
  8
AM_0
 48
0.15
100
AcDbCircle
 10
868.6838490888789
 20
584.5246138416441
 30
0.0
 40
0.3
100
AcDbArc
 50
134.9999999998727
 51
179.9999999999039
1001
GENIUS_GENFIL_13
1070
     0
1040
4.0
1040
4.0
1040
20.0
1040
0.0
1002
{
1002
}
1001
GENIUS_GENOBJ-N-CHA_13
1002
{
1000
OWNER
1000
GEN
1002
}
1001
GENIUS_GENOBJ-N-FIL_13
1002
{
1000
OWNER
1000
GEN
1002
}
1001
GENIUS_GENODEF_13
1002
{
1000
HIER
1070
     0
1002
}
1002
{
1000
MANEDIT
1070
     0
1002
}
1002
{
1000
NOSEL
1070
     0
1002
}
1002
{
1000
BEHIND
1070
     0
1002
}
1002
{
1000
OTHER
1070
     0
1002
}
1002
{
1000
REACTOR
1002
}
  0
ARC
  5
2BE13
330
1F
100
AcDbEntity
  8
AM_0
 48
0.9875735931246651
100
AcDbCircle
 10
872.5081131575972
 20
588.3488779103454
 30
0.0
 40
0.3
100
AcDbArc
 50
89.99999999984119
 51
134.999999999873
1001
GENIUS_GENOBJ-N-FIL_13
1002
{
1000
OWNER
1000
GEN
1002
}
1001
GENIUS_GENODEF_13
1002
{
1000
HIER
1070
     0
1002
}
1002
{
1000
MANEDIT
1070
     0
1002
}
1002
{
1000
NOSEL
1070
     0
1002
}
1002
{
1000
BEHIND
1070
     0
1002
}
1002
{
1000
OTHER
1070
     0
1002
}
1002
{
1000
REACTOR
1002
}
  0
LINE
  5
2BE46
330
1F
100
AcDbEntity
  8
AM_0
100
AcDbLine
 10
763.8056208376586
 20
657.0416889257503
 30
0.0
 11
796.8056208376854
 21
657.0416889257507
 31
0.0
  0
DIMENSION
  5
2BF88
330
1F
100
AcDbEntity
  8
AM_5
100
AcDbDimension
  2
*D12
 10
739.8056198276532
 20
575.1488779118564
 30
0.0
 11
736.7056198276531
 21
581.8988779110369
 31
0.0
 70
    32
 71
     5
 42
13.49999999836086
  3
SYS$0
100
AcDbAlignedDimension
 13
763.8056208376532
 23
588.6488779102172
 33
0.0
 14
748.5242912316722
 24
575.1488779118564
 34
0.0
 50
90.0
100
AcDbRotatedDimension
1001
ACAD
1000
DSTYLE
1002
{
1070
    47
1040
0.00000000001
1070
    48
1040
0.0
1002
}
  0
DIMENSION
  5
2BF9E
330
1F
100
AcDbEntity
  8
AM_5
100
AcDbDimension
  2
*D13
 10
829.4383450439321
 20
565.6488779118562
 30
0.0
 11
829.4383450439321
 21
575.1488779118564
 31
0.0
 70
   160
 71
     5
 42
19.00000000000011
  3
SYS$0
100
AcDbAlignedDimension
 13
796.8056208377113
 23
584.6488779118564
 33
0.0
 14
796.8056208376515
 24
565.6488779118562
 34
0.0
 50
90.0
100
AcDbRotatedDimension
1001
ACAD
1000
DSTYLE
1002
{
1070
    47
1040
0.00000000001
1070
    48
1040
0.0
1002
}
  0
DIMENSION
  5
2BFE6
330
1F
100
AcDbEntity
  8
AM_5
100
AcDbDimension
  2
*D14
 10
820.7520934091226
 20
567.6382862719597
 30
0.0
 11
820.7520934091222
 21
575.148877911782
 31
0.0
 70
   160
 71
     5
 42
15.02118327964445
  3
SYS$0
100
AcDbAlignedDimension
 13
808.8056208376377
 23
582.6594695516043
 33
0.0
 14
808.8056208376002
 24
567.6382862719597
 34
0.0
 50
90.0
100
AcDbRotatedDimension
1001
ACAD
1000
DSTYLE
1002
{
1070
    47
1040
0.00000000001
1070
    48
1040
0.0
1070
   271
1070
     0
1002
}
  0
DIMENSION
  5
2C051
330
1F
100
AcDbEntity
  8
AM_5
100
AcDbDimension
  2
*D15
 10
892.3838490889231
 20
607.0819203676482
 30
0.0
 11
883.1338490888882
 21
610.1819203676482
 31
0.0
 70
    32
 71
     5
 42
18.50000000007048
  3
SYS$0
100
AcDbAlignedDimension
 13
873.8838490888531
 23
575.1488779118528
 33
0.0
 14
892.3838490889231
 24
581.6488779102638
 34
0.0
100
AcDbRotatedDimension
1001
ACAD
1000
DSTYLE
1002
{
1070
    47
1040
0.00000000001
1070
    48
1040
0.0
1002
}
  0
DIMENSION
  5
2C086
330
1F
100
AcDbEntity
  8
AM_5
100
AcDbDimension
  2
*D16
 10
865.3838490888446
 20
606.6866486419383
 30
0.0
 11
869.6338490888489
 21
609.7866486419381
 31
0.0
 70
    32
 71
     5
 42
8.500000000008185
  3
SYS$0
100
AcDbAlignedDimension
 13
873.8838490888531
 23
575.1488779118528
 33
0.0
 14
865.3838490888446
 24
572.3488779118712
 34
0.0
100
AcDbRotatedDimension
1001
ACAD
1000
DSTYLE
1002
{
1070
    47
1040
0.00000000001
1070
    48
1040
0.0
1002
}
  0
DIMENSION
  5
2C0FB
330
1F
100
AcDbEntity
  8
AM_5
100
AcDbDimension
  2
*D17
 10
852.8838480788527
 20
583.6488779102851
 30
0.0
 11
849.7838480788526
 21
579.3988779110692
 31
0.0
 70
    32
 71
     5
 42
8.499999998432258
  3
SYS$0
100
AcDbAlignedDimension
 13
861.3838490888531
 23
575.1488779118528
 33
0.0
 14
884.8838490888557
 24
583.6488779102851
 34
0.0
 50
90.0
100
AcDbRotatedDimension
1001
ACAD
1000
DSTYLE
1002
{
1070
    47
1040
0.00000000001
1070
    48
1040
0.0
1002
}
  0
DIMENSION
  5
2C111
330
1F
100
AcDbEntity
  8
AM_5
100
AcDbDimension
  2
*D18
 10
852.8693654366604
 20
588.6488779103455
 30
0.0
 11
852.86936543666
 21
586.1488779103154
 31
0.0
 70
   160
 71
     5
 42
5.000000000060366
  3
SYS$0
100
AcDbAlignedDimension
 13
884.8838490888557
 23
583.6488779102851
 33
0.0
 14
872.5081131575977
 24
588.6488779103455
 34
0.0
 50
89.99999999984082
100
AcDbRotatedDimension
1001
ACAD
1000
DSTYLE
1002
{
1070
    47
1040
0.00000000001
1070
    48
1040
0.0
1002
}
  0
MTEXT
  5
2C130
330
1F
100
AcDbEntity
  8
AM_0
100
AcDbMText
 10
620.2552693711309
 20
729.4883754674374
 30
0.0
 40
3.2
 41
153.6771860352011
 71
     1
 72
     5
  1
ストッパー：亜鉛ダイキャスト/戸当りゴム：ゴム
 73
     1
 44
1.0
1001
ACAD
1000
MTEXTBEGIN
1070
    73
1070
     1
1070
    44
1040
1.0
1070
    74
1070
     0
1000
MTEXTEND
1000
ACAD_MTEXT_DEFINED_HEIGHT_BEGIN
1070
    46
1040
5.016731579055335
1000
ACAD_MTEXT_DEFINED_HEIGHT_END
  0
MTEXT
  5
2C131
330
1F
100
AcDbEntity
  8
AM_0
100
AcDbMText
 10
620.1292167331972
 20
721.0671639863185
 30
0.0
 40
3.2
 41
78.04104204195573
 71
     1
 72
     5
  1
ストッパー：クロメート/戸当りゴム：生地
 73
     1
 44
1.0
1001
ACAD
1000
MTEXTBEGIN
1070
    73
1070
     1
1070
    44
1040
1.0
1070
    74
1070
     0
1000
MTEXTEND
  0
MTEXT
  5
2C132
330
1F
100
AcDbEntity
  8
AM_0
100
AcDbMText
 10
619.9724191256413
 20
696.3522027777983
 30
0.0
 40
3.2
 41
74.3774959818587
 71
     1
 72
     5
  1
呼び４×30タッピンネジ＋SUS：1本付
 73
     1
 44
1.0
1001
ACAD
1000
MTEXTBEGIN
1070
    73
1070
     1
1070
    44
1040
1.0
1070
    74
1070
     0
1000
MTEXTEND
  0
MTEXT
  5
2C133
330
1F
100
AcDbEntity
  8
AM_0
100
AcDbMText
 10
623.2040680714434
 20
672.5161992969086
 30
0.0
 40
3.2
 41
112.8737724143601
 71
     1
 72
     5
  1
六角棒スパナ付
 73
     1
 44
1.0
1001
ACAD
1000
MTEXTBEGIN
1070
    73
1070
     1
1070
    44
1040
1.0
1070
    74
1070
     0
1000
MTEXTEND
  0
LINE
  5
2C442
330
1F
100
AcDbEntity
  8
0
  6
Continuous
 62
     7
100
AcDbLine
 10
978.1200398261187
 20
746.8687426404698
 30
0.0
 11
978.1200398261187
 21
473.8687426404696
 31
0.0
  0
LINE
  5
2C443
330
1F
100
AcDbEntity
  8
0
  6
Continuous
 62
     7
100
AcDbLine
 10
597.1200398261187
 20
473.8687426404696
 30
0.0
 11
978.1200398261187
 21
473.8687426404696
 31
0.0
  0
LINE
  5
2C444
330
1F
100
AcDbEntity
  8
0
  6
Continuous
 62
     7
100
AcDbLine
 10
597.1200398261187
 20
746.8687426404698
 30
0.0
 11
978.1200398261187
 21
746.8687426404698
 31
0.0
  0
LINE
  5
2C445
330
1F
100
AcDbEntity
  8
0
  6
Continuous
 62
     7
100
AcDbLine
 10
597.1200398261187
 20
746.8687426404698
 30
0.0
 11
597.1200398261187
 21
473.8687426404696
 31
0.0
  0
LINE
  5
2C446
330
1F
100
AcDbEntity
  8
0
  6
Continuous
 62
     7
100
AcDbLine
 10
617.1200398261187
 20
746.8687426404698
 30
0.0
 11
617.1200398261187
 21
650.8687426404697
 31
0.0
  0
LINE
  5
2C447
330
1F
100
AcDbEntity
  8
0
  6
Continuous
 62
     7
100
AcDbLine
 10
597.1200398261187
 20
738.8687426404698
 30
0.0
 11
707.1200398261187
 21
738.8687426404698
 31
0.0
  0
LINE
  5
2C448
330
1F
100
AcDbEntity
  8
0
  6
Continuous
 62
     7
100
AcDbLine
 10
597.1200398261187
 20
730.8687426404698
 30
0.0
 11
707.1200398261187
 21
730.8687426404698
 31
0.0
  0
LINE
  5
2C449
330
1F
100
AcDbEntity
  8
0
  6
Continuous
 62
     7
100
AcDbLine
 10
597.1200398261187
 20
722.8687426404698
 30
0.0
 11
707.1200398261187
 21
722.8687426404698
 31
0.0
  0
LINE
  5
2C44A
330
1F
100
AcDbEntity
  8
0
  6
Continuous
 62
     7
100
AcDbLine
 10
597.1200398261187
 20
714.8687426404698
 30
0.0
 11
707.1200398261187
 21
714.8687426404698
 31
0.0
  0
LINE
  5
2C44B
330
1F
100
AcDbEntity
  8
0
  6
Continuous
 62
     7
100
AcDbLine
 10
617.1200398261187
 20
690.8687426404697
 30
0.0
 11
707.1200398261187
 21
690.8687426404697
 31
0.0
  0
LINE
  5
2C44C
330
1F
100
AcDbEntity
  8
0
  6
Continuous
 62
     7
100
AcDbLine
 10
617.1200398261187
 20
682.8687426404695
 30
0.0
 11
707.1200398261187
 21
682.8687426404695
 31
0.0
  0
LINE
  5
2C44D
330
1F
100
AcDbEntity
  8
0
  6
Continuous
 62
     7
100
AcDbLine
 10
597.1200398261187
 20
674.8687426404695
 30
0.0
 11
707.1200398261187
 21
674.8687426404695
 31
0.0
  0
LINE
  5
2C44E
330
1F
100
AcDbEntity
  8
0
  6
Continuous
 62
     7
100
AcDbLine
 10
617.1200398261187
 20
666.8687426404695
 30
0.0
 11
707.1200398261187
 21
666.8687426404695
 31
0.0
  0
LINE
  5
2C44F
330
1F
100
AcDbEntity
  8
0
  6
Continuous
 62
     7
100
AcDbLine
 10
617.1200398261187
 20
658.8687426404695
 30
0.0
 11
707.1200398261187
 21
658.8687426404695
 31
0.0
  0
LINE
  5
2C450
330
1F
100
AcDbEntity
  8
0
  6
Continuous
 62
     7
100
AcDbLine
 10
597.1200398261187
 20
650.8687426404697
 30
0.0
 11
707.1200398261187
 21
650.8687426404697
 31
0.0
  0
LINE
  5
2C451
330
1F
100
AcDbEntity
  8
0
  6
Continuous
 62
     7
100
AcDbLine
 10
597.1200398261187
 20
746.8687426404698
 30
0.0
 11
597.1200398261187
 21
650.8687426404697
 31
0.0
  0
LINE
  5
2C452
330
1F
100
AcDbEntity
  8
0
  6
Continuous
 62
     7
100
AcDbLine
 10
597.1200398261187
 20
746.8687426404698
 30
0.0
 11
707.1200398261187
 21
746.8687426404698
 31
0.0
  0
LINE
  5
2C453
330
1F
100
AcDbEntity
  8
0
  6
Continuous
 62
     7
100
AcDbLine
 10
707.1200398261187
 20
746.8687426404698
 30
0.0
 11
707.1200398261187
 21
650.8687426404697
 31
0.0
  0
LINE
  5
2C454
330
1F
100
AcDbEntity
  8
0
  6
Continuous
 62
     7
100
AcDbLine
 10
597.1200398261187
 20
706.8687426404697
 30
0.0
 11
707.1200398261187
 21
706.8687426404697
 31
0.0
  0
LINE
  5
2C455
330
1F
100
AcDbEntity
  8
0
  6
Continuous
 62
     7
100
AcDbLine
 10
597.1200398261187
 20
698.8687426404697
 30
0.0
 11
707.1200398261187
 21
698.8687426404697
 31
0.0
  0
LINE
  5
2C456
330
1F
100
AcDbEntity
  8
0
  6
Continuous
 62
     7
100
AcDbLine
 10
617.1200398261187
 20
690.8687426404697
 30
0.0
 11
707.1200398261187
 21
690.8687426404697
 31
0.0
  0
TEXT
  5
2C478
330
1F
100
AcDbEntity
  8
0
  6
Continuous
 62
     7
100
AcDbText
 10
602.7770398261187
 20
741.2687426404698
 30
0.0
 40
3.2
  1
品　名
 41
0.85537027
100
AcDbText
  0
TEXT
  5
2C479
330
1F
100
AcDbEntity
  8
0
  6
Continuous
 62
     7
100
AcDbText
 10
602.7770398261187
 20
733.2687426404698
 30
0.0
 40
3.2
  1
品　番
 41
0.85537027
100
AcDbText
  0
TEXT
  5
2C47A
330
1F
100
AcDbEntity
  8
0
  6
Continuous
 62
     7
100
AcDbText
 10
619.9770398261188
 20
661.2687426404697
 30
0.0
 40
3.2
  1
受注生産品
 41
0.90047268
100
AcDbText
  0
TEXT
  5
2C47B
330
1F
100
AcDbEntity
  8
0
  6
Continuous
 62
     7
100
AcDbText
 10
619.9770398261188
 20
653.2687426404698
 30
0.0
 40
3.2
  1
＊
 41
0.90047268
100
AcDbText
  0
TEXT
  5
2C47C
330
1F
100
AcDbEntity
  8
0
  6
Continuous
 62
     7
100
AcDbText
 10
602.7770398261187
 20
725.2687426404698
 30
0.0
 40
3.2
  1
材　質
 41
0.85537027
100
AcDbText
  0
TEXT
  5
2C47D
330
1F
100
AcDbEntity
  8
0
  6
Continuous
 62
     7
100
AcDbText
 10
602.7770398261187
 20
717.2687426404698
 30
0.0
 40
3.2
  1
仕上げ
 41
0.85537027
100
AcDbText
  0
TEXT
  5
2C47E
330
1F
100
AcDbEntity
  8
0
  6
Continuous
 62
     7
100
AcDbText
 10
619.9770398261188
 20
669.1832849711836
 30
0.0
 40
3.2
  1
＊
 41
0.90047268
100
AcDbText
  0
TEXT
  5
2C47F
330
1F
100
AcDbEntity
  8
0
  6
Continuous
 62
     7
100
AcDbText
 10
619.9770398261188
 20
685.2687426404697
 30
0.0
 40
3.2
  1
＊
 41
0.90047268
100
AcDbText
  0
TEXT
  5
2C480
330
1F
100
AcDbEntity
  8
0
  6
Continuous
 62
     7
100
AcDbText
 10
599.5770398261186
 20
693.2687426404697
 30
0.0
 40
3.2
  1
セットビス
 41
0.84892707
100
AcDbText
  0
TEXT
  5
2C482
330
1F
100
AcDbEntity
  8
0
  6
Continuous
 62
     7
100
AcDbText
 10
604.3770398261187
 20
669.2687426404697
 30
0.0
 40
3.2
  1
備考
 41
0.8643907499999999
100
AcDbText
  0
TEXT
  5
2C483
330
1F
100
AcDbEntity
  8
0
  6
Continuous
 62
     7
100
AcDbText
 10
602.7770398261187
 20
709.2687426404697
 30
0.0
 40
3.2
  1
定　尺
 41
0.85537027
100
AcDbText
  0
TEXT
  5
2C484
330
1F
100
AcDbEntity
  8
0
  6
Continuous
 62
     7
100
AcDbText
 10
601.1770398261187
 20
701.2687426404697
 30
0.0
 40
3.2
  1
左右勝手
 41
0.8512700499999999
100
AcDbText
  0
TEXT
  5
2C485
330
1F
100
AcDbEntity
  8
0
  6
Continuous
 62
     7
100
AcDbText
 10
619.7414898261188
 20
708.8387226404697
 30
0.0
 40
3.2
  1
＊
 41
0.90047268
100
AcDbText
  0
TEXT
  5
2C486
330
1F
100
AcDbEntity
  8
0
  6
Continuous
 62
     7
100
AcDbText
 10
619.9770398261188
 20
741.2687426404698
 30
0.0
 40
3.2
  1
上吊引戸用戸当り(調整式)
 41
0.84741102
100
AcDbText
  0
TEXT
  5
2C487
330
1F
100
AcDbEntity
  8
0
  6
Continuous
 62
     7
100
AcDbText
 10
619.9770398261188
 20
733.2687426404698
 30
0.0
 40
3.2
  1
SC-09
 41
0.84634979
100
AcDbText
  0
TEXT
  5
2C48A
330
1F
100
AcDbEntity
  8
0
  6
Continuous
 62
     7
100
AcDbText
 10
619.9724191256413
 20
701.2349126404696
 30
0.0
 40
3.2
  1
無し
 41
0.8643907499999999
100
AcDbText
  0
TEXT
  5
2C5E8
330
1F
100
AcDbEntity
  8
0
  6
Continuous
 62
     7
100
AcDbText
 10
619.9770398261188
 20
677.5883245677577
 30
0.0
 40
3.2
  1
＊
 41
0.90047268
100
AcDbText
  0
ENDSEC
  0
SECTION
  2
OBJECTS
  0
DICTIONARY
  5
C
330
0
100
AcDbDictionary
281
     1
  3
ACAD_2007HEADERVARS_RT
350
2C87C
  3
ACAD_BGPLOT_KEY
350
AB06
  3
ACAD_COLOR
350
A91D
  3
ACAD_GROUP
350
D
  3
ACAD_LAYOUT
350
1A
  3
ACAD_MATERIAL
350
A91C
  3
ACAD_MLINESTYLE
350
17
  3
ACAD_PLOTSETTINGS
350
19
  3
ACAD_PLOTSTYLENAME
350
E
  3
ACAD_TABLESTYLE
350
AAB9
  3
ACAD_VISUALSTYLE
350
2BF2F
  3
AcAsAppObject
350
3DA1
  3
ACASGREF_MASTER
350
3DE9
  3
AcDbVariableDictionary
350
34
  3
AcmDictionary
350
47
  3
AD_GREF_MODULE
350
3DEA
  3
AD_MAPI_MODULE
350
3E06
  3
AEC_CLASSIFICATION_SYSTEM_DEFS
350
2425E
  3
AEC_PROPERTY_SET_DEFS
350
2425F
  3
AMG
350
2B
  3
AMGSNAPSETTINGS
350
7D
  3
ASE_INDEX_DICTIONARY
350
28FC7
  3
DWGPROPS
350
2C87B
  3
MAPISURF_MODULE
350
3DEB
  0
DICTIONARY
  5
3F95
330
2
100
AcDbDictionary
280
     1
281
     1
  3
ACAD_LAYERFILTERS
360
AE5F
  3
ACAD_LAYERSTATES
360
3F96
  3
ACLYDICTIONARY
360
AE5E
  3
AMLAYER_GROUPCOLORS
360
AAB4
  0
DICTIONARY
  5
8A
330
1F
100
AcDbDictionary
280
     1
281
     1
  3
ACAD_SORTENTS
360
14A63
  0
DICTIONARY
  5
2C87C
102
{ACAD_REACTORS
330
C
102
}
330
C
100
AcDbDictionary
281
     1
  3
DIMARCSYM
350
2C87D
  0
DICTIONARY
  5
AB06
102
{ACAD_REACTORS
330
C
102
}
330
C
100
AcDbDictionary
280
     1
281
     1
  0
DICTIONARY
  5
A91D
102
{ACAD_REACTORS
330
C
102
}
330
C
100
AcDbDictionary
281
     1
  0
DICTIONARY
  5
D
102
{ACAD_REACTORS
330
C
102
}
330
C
100
AcDbDictionary
281
     1
  0
DICTIONARY
  5
1A
102
{ACAD_REACTORS
330
C
102
}
330
C
100
AcDbDictionary
281
     1
  3
Model
350
22
  3
ﾚｲｱｳﾄ1
350
1E
  3
ﾚｲｱｳﾄ2
350
26
  0
DICTIONARY
  5
A91C
102
{ACAD_REACTORS
330
C
102
}
330
C
100
AcDbDictionary
281
     1
  3
ByBlock
350
2BF2D
  3
ByLayer
350
2BF2C
  3
Global
350
2BF2E
  0
DICTIONARY
  5
17
102
{ACAD_REACTORS
330
C
102
}
330
C
100
AcDbDictionary
281
     1
  3
Standard
350
18
  0
DICTIONARY
  5
19
102
{ACAD_REACTORS
330
C
102
}
330
C
100
AcDbDictionary
281
     1
  3
01   A1　１：１
350
142C9
  3
01 A3フィット
350
AAFE
  3
02   A2　１：１
350
142CA
  3
02 A3
350
AAFF
  3
03   A3　１：１
350
142CB
  3
03 A2フィット
350
AB00
  3
04   A4  １：１
350
142CC
  3
04 A2
350
AB01
  3
05   A1 自動調整
350
142CD
  3
05 A1フィット
350
AB04
  3
06   A2 自動調整
350
142CE
  3
06 A1
350
AB05
  3
06 A4フィット
350
AB02
  3
07   A3 自動調整
350
142CF
  3
07 A4
350
AB03
  3
08   A4 自動調整
350
142D0
  3
09   A1をA3に
350
142D1
  3
10   A2をA3に
350
142D2
  0
ACDBDICTIONARYWDFLT
  5
E
102
{ACAD_REACTORS
330
C
102
}
330
C
100
AcDbDictionary
281
     1
  3
Normal
350
F
100
AcDbDictionaryWithDefault
340
F
  0
DICTIONARY
  5
AAB9
102
{ACAD_REACTORS
330
C
102
}
330
C
100
AcDbDictionary
281
     1
  3
Standard
350
AABA
  0
DICTIONARY
  5
2BF2F
102
{ACAD_REACTORS
330
C
102
}
330
C
100
AcDbDictionary
281
     1
  3
2dWireframe
350
2BF35
  3
3D Hidden
350
2BF37
  3
3dWireframe
350
2BF36
  3
Basic
350
2BF34
  3
Brighten
350
2BF3B
  3
ColorChange
350
2BF3F
  3
Conceptual
350
2BF38
  3
Dim
350
2BF3A
  3
Facepattern
350
2BF3E
  3
Flat
350
2BF30
  3
FlatWithEdges
350
2BF31
  3
Gouraud
350
2BF32
  3
GouraudWithEdges
350
2BF33
  3
Linepattern
350
2BF3D
  3
Realistic
350
2BF39
  3
Thicken
350
2BF3C
  0
ACAD_PROXY_OBJECT
  5
3DA1
102
{ACAD_REACTORS
330
C
102
}
330
C
100
AcDbProxyObject
 90
      499
 91
      576
 95
       23
 70
     0
 93
       10
310
407F
 94
        0
1001
ACAD
1000
AcRTDxfName
1000
ASAPP
1000
AcRTDxfName
1000
ASAPP
1000
AcRTDxfName
1000
ASAPP
  0
ACAD_PROXY_OBJECT
  5
3DE9
102
{ACAD_REACTORS
330
C
102
}
330
C
100
AcDbProxyObject
 90
      499
 91
      581
 95
       23
 70
     0
 93
       34
310
010000407F
 94
        0
1001
ACAD
1000
AcRTDxfName
1000
ACASGREFMASTER
1000
AcRTDxfName
1000
ACASGREFMASTER
1000
AcRTDxfName
1000
ACASGREFMASTER
  0
DICTIONARY
  5
34
102
{ACAD_REACTORS
330
C
102
}
330
C
100
AcDbDictionary
281
     1
  3
CTABLESTYLE
350
AAF3
  3
DIMASSOC
350
A10C
  3
FIELDEVAL
350
AB07
  3
INDEXCTL
350
35
  3
LOFTANG1
350
2C879
  3
LOFTANG2
350
2C87A
  3
SORTENTS
350
194C
  0
DICTIONARY
  5
47
102
{ACAD_REACTORS
330
C
102
}
330
C
100
AcDbDictionary
281
     1
  3
AcmBOM
350
7E8
  3
AcmStdDictionary
350
4C
  3
AMDTSECTSYM_ARROWCOLOR
350
A929
  0
ACAD_PROXY_OBJECT
  5
3DEA
102
{ACAD_REACTORS
330
C
102
}
330
C
100
AcDbProxyObject
 90
      499
 91
      582
 95
       23
 70
     0
 93
      114
310
00000043800000000000000000003F
 94
        0
1001
ACAD
1000
AcRTDxfName
1000
ACADGREFMODULE
1000
AcRTDxfName
1000
ACADGREFMODULE
1000
AcRTDxfName
1000
ACADGREFMODULE
  0
ACAD_PROXY_OBJECT
  5
3E06
102
{ACAD_REACTORS
330
C
102
}
330
C
100
AcDbProxyObject
 90
      499
 91
      594
 95
       23
 70
     0
 93
       34
310
05000044FF
 94
        0
1001
ACAD
1000
AcRTDxfName
1000
MAPIADMODULE
1000
AcRTDxfName
1000
MAPIADMODULE
1000
AcRTDxfName
1000
MAPIADMODULE
  0
DICTIONARY
  5
2425E
102
{ACAD_REACTORS
330
C
102
}
330
C
100
AcDbDictionary
281
     1
  0
DICTIONARY
  5
2425F
102
{ACAD_REACTORS
330
C
102
}
330
C
100
AcDbDictionary
281
     1
  0
DICTIONARY
  5
2B
102
{ACAD_REACTORS
330
C
102
}
330
C
100
AcDbDictionary
281
     1
  0
DICTIONARY
  5
7D
102
{ACAD_REACTORS
330
C
102
}
330
C
100
AcDbDictionary
281
     1
  0
DICTIONARY
  5
28FC7
102
{ACAD_REACTORS
330
C
102
}
330
C
100
AcDbDictionary
281
     1
  3
ASEBlockHierarchyIndexRecord
350
28FC8
1001
DCO15
1040
1553348649.859
  0
XRECORD
  5
2C87B
102
{ACAD_REACTORS
330
C
102
}
330
C
100
AcDbXrecord
280
     1
  1
DWGPROPS COOKIE
  2

  3

  4

  6

  7

  8
Administrator
  9

300
AmdtFileType=84
301
=
302
=
303
=
304
=
305
=
306
=
307
=
308
=
309
=
 40
4.058521597222222
 41
2453649.38378544
 42
2455995.695005961
  1

 90
        1
  0
ACAD_PROXY_OBJECT
  5
3DEB
102
{ACAD_REACTORS
330
C
102
}
330
C
100
AcDbProxyObject
 90
      499
 91
      583
 95
       23
 70
     0
 93
        8
310
047E
 94
        0
1001
ACAD
1000
AcRTDxfName
1000
AMDTMAPISURFMOUDULE
1000
AcRTDxfName
1000
AMDTMAPISURFMOUDULE
1000
AcRTDxfName
1000
AMDTMAPISURFMOUDULE
  0
DICTIONARY
  5
AE5F
102
{ACAD_REACTORS
330
3F95
102
}
330
3F95
100
AcDbDictionary
281
     1
  0
DICTIONARY
  5
3F96
102
{ACAD_REACTORS
330
3F95
102
}
330
3F95
100
AcDbDictionary
281
     1
  3
20011210
350
3FB7
  0
DICTIONARY
  5
AE5E
102
{ACAD_REACTORS
330
3F95
102
}
330
3F95
100
AcDbDictionary
281
     1
1001
ACAD
1000
<All
  0
DICTIONARY
  5
AAB4
102
{ACAD_REACTORS
330
3F95
102
}
330
3F95
100
AcDbDictionary
280
     1
281
     1
  0
SORTENTSTABLE
  5
14A63
102
{ACAD_REACTORS
330
8A
102
}
330
8A
100
AcDbSortentsTable
330
1F
331
2B43D
  5
2B469
331
2B48C
  5
2B527
331
2AF16
  5
2B0EE
331
2B445
  5
2B46A
331
223D0
  5
223E7
331
2AE9C
  5
2AEB2
331
2AED4
  5
2AEE6
331
2AEF7
  5
2AF09
331
2AEFF
  5
2AF11
331
2B40E
  5
2B452
331
2B465
  5
2B47E
331
2AF07
  5
2AF1A
331
2AF0F
  5
2AFEE
331
2B436
  5
2B45B
331
2B46D
  5
2B486
331
1482A
  5
149CF
331
2ADFA
  5
2AE09
331
2AEDC
  5
2AEF0
331
2AE02
  5
2AE11
331
2AE1D
  5
2AE44
331
2AEE4
  5
2AEF7
331
2AEEC
  5
2AEFD
331
2AE35
  5
2AE46
331
2AE0A
  5
2AE39
331
2AE3D
  5
2AE4D
331
2AF17
  5
2B0EF
331
2B66D
  5
2B453
331
2B3FF
  5
2B441
331
2B80D
  5
2BBF4
331
223D1
  5
223E8
331
2AED5
  5
2AEE7
331
2AEF0
  5
2AF01
331
2AEF8
  5
2AF0A
331
2AF00
  5
2AF12
331
2AF08
  5
2AF1B
331
2B46E
  5
2B487
331
2ADFB
  5
2AE0A
331
2AE03
  5
2AE12
331
2AEE5
  5
2AEF8
331
2AE0B
  5
2AE3A
331
2AEED
  5
2AEFE
331
2AE3E
  5
2AE4E
331
2AF10
  5
2B049
331
2AF18
  5
2B0F0
331
2B447
  5
2B46C
331
223D2
  5
22650
331
2AED6
  5
2AEE8
331
2AEF1
  5
2AF02
331
2B457
  5
2B477
331
2AEF9
  5
2AF0B
331
2AF01
  5
2AF13
331
2B467
  5
2B480
331
2AF09
  5
2AFAC
331
2BE46
  5
2B454
331
2B46F
  5
2B488
331
2ADFC
  5
2AE0B
331
2AEDE
  5
2AEF1
331
2AEE6
  5
2AEF9
331
2AE04
  5
2AE14
331
2AEEE
  5
2AEFF
331
2AE37
  5
2AE47
331
2AE0C
  5
2AE3B
331
2AF11
  5
2B0E4
331
2AF19
  5
2B0F1
331
2B049
  5
2B108
331
2B677
  5
2B455
331
2B3F9
  5
2B43A
331
2AED7
  5
2AEE9
331
2ADF5
  5
2AE06
331
2AEF2
  5
2AF03
331
2B409
  5
2B443
331
2B458
  5
2B478
331
2AEFA
  5
2AF0C
331
2AF02
  5
2AF14
331
2B421
  5
2B456
331
2AF0A
  5
2AFB1
331
14825
  5
149BC
331
2AE10
  5
2AE3F
331
2ADFD
  5
2AE0C
331
2AEDF
  5
2AEF2
331
2AE05
  5
2AE15
331
2AEE7
  5
2AEFA
331
2AE0D
  5
2AE3C
331
2AE38
  5
2AE48
331
2AEEF
  5
2AF00
331
2B488
  5
2B4A1
331
2AF12
  5
2B0E9
331
2AF1A
  5
2B0F2
331
2B449
  5
2B46E
331
2B3FA
  5
2B43C
331
20AE4
  5
20B00
331
2AE58
  5
2AE68
331
223CC
  5
223E3
331
2AE70
  5
2AEB1
331
2AEF3
  5
2AF04
331
2B459
  5
2B479
331
2AEFB
  5
2AF0D
331
2B461
  5
2B47A
331
2AF03
  5
2AF17
331
2B469
  5
2B482
331
2AF0B
  5
2AFCA
331
14826
  5
149BF
331
2AE11
  5
2AE40
331
2AED8
  5
2AEEA
331
2ADFE
  5
2AE0D
331
2AEE0
  5
2AEF3
331
2AEE8
  5
2AEFB
331
20B4D
  5
20BD3
331
2AE06
  5
2AE1E
331
2AE0E
  5
2AE3D
331
2AE39
  5
2AE49
331
2AF13
  5
2B0EA
331
2B489
  5
2B4A2
331
2AF1B
  5
2B0F3
331
20AE5
  5
20B01
331
223CD
  5
223E4
331
2AED1
  5
2AEE2
331
2ADF7
  5
2AE07
331
2B403
  5
2B442
331
2B452
  5
2B472
331
2AEF4
  5
2AF06
331
2BE01
  5
2AF15
331
2AEFC
  5
2AF0E
331
2BE11
  5
2AF16
331
2AF04
  5
2AF18
331
2B46A
  5
2B483
331
2AF0C
  5
2AFE3
331
14827
  5
149C7
331
2AED9
  5
2AEEC
331
2AE12
  5
2AE41
331
2ADFF
  5
2AE0E
331
2AEE1
  5
2AEF4
331
2AE07
  5
2AE35
331
2AEE9
  5
2AEFC
331
2AE3A
  5
2AE4A
331
2AE0F
  5
2AE3E
331
2B43B
  5
2B467
331
2B48A
  5
2B4A3
331
2AF14
  5
2B0EB
331
2B44B
  5
2B470
331
223CE
  5
223E5
331
2AED2
  5
2AEE3
331
2AEF5
  5
2AF07
331
2AEFD
  5
2AF0F
331
2B40C
  5
2B44B
331
2B463
  5
2B47C
331
2AF0D
  5
2AFE8
331
2B46B
  5
2B484
331
14828
  5
149CD
331
2AE13
  5
2AE42
331
2AEDA
  5
2AEED
331
2AE00
  5
2AE0F
331
23A87
  5
23AE4
331
2AEE2
  5
2AEF5
331
2AE08
  5
2AE36
331
2AE3B
  5
2AE4B
331
2AF15
  5
2B0EC
331
2B43C
  5
2B468
331
2B48B
  5
2B4A4
331
2AE9B
  5
2AE13
331
2AED3
  5
2AEE4
331
2AEF6
  5
2AF08
331
2BE13
  5
2AEE5
331
2AEFE
  5
2AF10
331
2B40D
  5
2B44C
331
2AF06
  5
2AF19
331
2B46C
  5
2B485
331
2AF0E
  5
2AFE9
331
14829
  5
149CE
331
2AEDB
  5
2AEEE
331
2AE14
  5
2AE43
331
2ADF9
  5
2AE08
331
2AE01
  5
2AE10
331
2AEE3
  5
2AEF6
331
2AE34
  5
2AE45
331
2AE09
  5
2AE38
331
2AE3C
  5
2AE4C
  0
XRECORD
  5
2C87D
102
{ACAD_REACTORS
330
2C87C
102
}
330
2C87C
100
AcDbXrecord
280
     1
 70
     1
  0
LAYOUT
  5
22
102
{ACAD_XDICTIONARY
360
2C880
102
}
102
{ACAD_REACTORS
330
1A
102
}
330
1A
100
AcDbPlotSettings
  1

  2
FX DocuWide 2050/2051
  4
A4
  6
AM_VIEW1
 40
3.174999952316281
 41
3.174999952316281
 42
3.175003051757812
 43
3.17498779296875
 44
209.9944915771484
 45
296.989501953125
 46
0.0
 47
1.328704577503771
 48
639.9401978755431
 49
282.3332894229819
140
1059.940197875543
141
579.3332894229819
142
1.0
143
1.458423952845778
 70
  3764
 72
     1
 73
     1
 74
     4
  7
monochrome.ctb
 75
     0
147
0.6856716786972199
148
-639.9401978755431
149
-282.3332894229819
100
AcDbLayout
  1
Model
 70
     1
 71
     0
 10
0.0
 20
0.0
 11
12.0
 21
9.0
 12
0.0
 22
0.0
 32
0.0
 14
0.0
 24
0.0
 34
0.0
 15
0.0
 25
0.0
 35
0.0
146
0.0
 13
0.0
 23
0.0
 33
0.0
 16
1.0
 26
0.0
 36
0.0
 17
0.0
 27
1.0
 37
0.0
 76
     0
330
1F
331
2BF2A
1001
ACAD_PSEXT
1000
FX DocuWide 2050/2051
1000
FX DocuWide 2050/2051
1000
IP_192.168.2.203
1000

1070
     0
  0
LAYOUT
  5
1E
102
{ACAD_XDICTIONARY
360
2C87E
102
}
102
{ACAD_REACTORS
330
1A
102
}
330
1A
100
AcDbPlotSettings
  1

  2
\\ML370\XEROX
  4
A4
  6

 40
3.174999952316281
 41
3.174999952316281
 42
3.175003051757812
 43
3.17498779296875
 44
209.8674926757813
 45
296.6719970703125
 46
0.0
 47
0.0
 48
0.0
 49
0.0
140
0.0
141
0.0
142
1.0
143
1.0
 70
   688
 72
     1
 73
     1
 74
     5
  7
monochrome.ctb
 75
    16
147
1.0
148
0.0
149
0.0
100
AcDbLayout
  1
ﾚｲｱｳﾄ1
 70
     1
 71
     1
 10
-3.17498779296875
 20
-3.174999952316281
 11
293.4970092773438
 21
206.692492723465
 12
0.0
 22
0.0
 32
0.0
 14
1.000000000000000E+20
 24
1.000000000000000E+20
 34
1.000000000000000E+20
 15
-1.000000000000000E+20
 25
-1.000000000000000E+20
 35
-1.000000000000000E+20
146
0.0
 13
0.0
 23
0.0
 33
0.0
 16
1.0
 26
0.0
 36
0.0
 17
0.0
 27
1.0
 37
0.0
 76
     0
330
1B
  0
LAYOUT
  5
26
102
{ACAD_XDICTIONARY
360
2C882
102
}
102
{ACAD_REACTORS
330
1A
102
}
330
1A
100
AcDbPlotSettings
  1

  2
\\ML370\XEROX
  4

  6

 40
0.0
 41
0.0
 42
0.0
 43
0.0
 44
0.0
 45
0.0
 46
0.0
 47
0.0
 48
0.0
 49
0.0
140
0.0
141
0.0
142
1.0
143
1.0
 70
   688
 72
     0
 73
     0
 74
     5
  7
monochrome.ctb
 75
    16
147
1.0
148
0.0
149
0.0
100
AcDbLayout
  1
ﾚｲｱｳﾄ2
 70
     1
 71
     2
 10
0.0
 20
0.0
 11
12.0
 21
9.0
 12
0.0
 22
0.0
 32
0.0
 14
0.0
 24
0.0
 34
0.0
 15
0.0
 25
0.0
 35
0.0
146
0.0
 13
0.0
 23
0.0
 33
0.0
 16
1.0
 26
0.0
 36
0.0
 17
0.0
 27
1.0
 37
0.0
 76
     0
330
23
  0
MATERIAL
  5
2BF2D
102
{ACAD_XDICTIONARY
360
2C721
102
}
102
{ACAD_REACTORS
330
A91C
102
}
330
A91C
100
AcDbMaterial
  1
ByBlock
  0
MATERIAL
  5
2BF2C
102
{ACAD_XDICTIONARY
360
2C71F
102
}
102
{ACAD_REACTORS
330
A91C
102
}
330
A91C
100
AcDbMaterial
  1
ByLayer
  0
MATERIAL
  5
2BF2E
102
{ACAD_XDICTIONARY
360
2C723
102
}
102
{ACAD_REACTORS
330
A91C
102
}
330
A91C
100
AcDbMaterial
  1
Global
  0
MLINESTYLE
  5
18
102
{ACAD_REACTORS
330
17
102
}
330
17
100
AcDbMlineStyle
  2
STANDARD
 70
     0
  3

 62
   256
 51
90.0
 52
90.0
 71
     2
 49
0.5
 62
   256
  6
BYLAYER
 49
-0.5
 62
   256
  6
BYLAYER
  0
PLOTSETTINGS
  5
142C9
102
{ACAD_XDICTIONARY
360
2C896
102
}
102
{ACAD_REACTORS
330
19
102
}
330
19
100
AcDbPlotSettings
  1
01   A1　１：１
  2
\\ML370\Fuji Xerox BT8050(AutoCAD)
  4
User122
  6

 40
3.174999952316281
 41
3.174999952316281
 42
3.17498779296875
 43
3.17498779296875
 44
593.7249755859375
 45
840.6129760742187
 46
145.19
 47
207.13
 48
214.3704939521119
 49
367.5855324241177
140
275.6727856380065
141
407.6291914078168
142
1.0
143
1.0
 70
  1716
 72
     1
 73
     1
 74
     2
  7
monochrome.ctb
 75
    16
147
1.0
148
-538.139750291099
149
411.0980235086544
  0
PLOTSETTINGS
  5
AAFE
102
{ACAD_XDICTIONARY
360
2C886
102
}
102
{ACAD_REACTORS
330
19
102
}
330
19
100
AcDbPlotSettings
  1
01 A3フィット
  2
FX DocuWide 2050/2051
  4
A3
  6
AM_VIEW1
 40
3.174999952316281
 41
3.174999952316281
 42
3.17498779296875
 43
3.17498779296875
 44
296.989501953125
 45
419.9889831542968
 46
0.0
 47
1.295841228961958
 48
214.3704939521119
 49
367.5855324241177
140
275.6727856380065
141
407.6291914078168
142
1.0
143
1.445089120606129
 70
  3764
 72
     1
 73
     1
 74
     2
  7
monochrome.ctb
 75
     0
147
0.6919988433519999
148
0.0
149
0.0
1001
ACAD_PSEXT
1000
FX DocuWide 2050/2051
1000
FX DocuWide 2050/2051
1000
IP_192.200.15.252
1000

1070
     0
  0
PLOTSETTINGS
  5
142CA
102
{ACAD_XDICTIONARY
360
2C898
102
}
102
{ACAD_REACTORS
330
19
102
}
330
19
100
AcDbPlotSettings
  1
02   A2　１：１
  2
\\ML370\Fuji Xerox BT8050(AutoCAD)
  4
User123
  6

 40
3.174999952316281
 41
3.174999952316281
 42
3.17498779296875
 43
3.17498779296875
 44
420.0
 45
594.0
 46
58.33
 47
83.83
 48
214.3704939521119
 49
367.5855324241177
140
275.6727856380065
141
407.6291914078168
142
1.0
143
1.0
 70
  1716
 72
     1
 73
     1
 74
     2
  7
monochrome.ctb
 75
    16
147
1.0
148
-538.139750291099
149
411.0980235086544
  0
PLOTSETTINGS
  5
AAFF
102
{ACAD_XDICTIONARY
360
2C888
102
}
102
{ACAD_REACTORS
330
19
102
}
330
19
100
AcDbPlotSettings
  1
02 A3
  2
FX DocuWide 2050/2051
  4
A3
  6
AM_VIEW1
 40
3.174999952316281
 41
3.174999952316281
 42
3.17498779296875
 43
3.17498779296875
 44
296.989501953125
 45
419.9889831542968
 46
-64.68024289608003
 47
-90.18050229549407
 48
214.3704939521119
 49
367.5855324241177
140
275.6727856380065
141
407.6291914078168
142
1.0
143
1.0
 70
  3764
 72
     1
 73
     1
 74
     2
  7
monochrome.ctb
 75
    16
147
1.0
148
0.0
149
0.0
1001
ACAD_PSEXT
1000
FX DocuWide 2050/2051
1000
FX DocuWide 2050/2051
1000
IP_192.200.15.252
1000

1070
     0
  0
PLOTSETTINGS
  5
142CB
102
{ACAD_XDICTIONARY
360
2C89A
102
}
102
{ACAD_REACTORS
330
19
102
}
330
19
100
AcDbPlotSettings
  1
03   A3　１：１
  2
\\ML370\Fuji Xerox BT8050(AutoCAD)
  4
User124
  6

 40
3.174999952316281
 41
3.174999952316281
 42
3.17498779296875
 43
3.17498779296875
 44
297.0
 45
420.0
 46
-3.169999999999998
 47
-3.169999999999998
 48
214.3704939521119
 49
367.5855324241177
140
275.6727856380065
141
407.6291914078168
142
1.0
143
1.0
 70
  1716
 72
     1
 73
     1
 74
     2
  7
monochrome.ctb
 75
    16
147
1.0
148
-538.139750291099
149
411.0980235086544
  0
PLOTSETTINGS
  5
AB00
102
{ACAD_XDICTIONARY
360
2C88A
102
}
102
{ACAD_REACTORS
330
19
102
}
330
19
100
AcDbPlotSettings
  1
03 A2フィット
  2
FX DocuWide 2050/2051
  4
User66
  6
AM_VIEW1
 40
3.174999952316281
 41
3.174999952316281
 42
3.17498779296875
 43
3.17498779296875
 44
419.9889831542968
 45
593.97900390625
 46
0.0
 47
1.312647041252715
 48
214.3704939521119
 49
367.5855324241177
140
275.6727856380065
141
407.6291914078168
142
1.0
143
1.015378155013402
 70
  3764
 72
     1
 73
     1
 74
     2
  7
monochrome.ctb
 75
     0
147
0.9848547509738375
148
0.0
149
0.0
1001
ACAD_PSEXT
1000
FX DocuWide 2050/2051
1000
FX DocuWide 2050/2051
1000
IP_192.200.15.252
1000

1070
     0
  0
PLOTSETTINGS
  5
142CC
102
{ACAD_XDICTIONARY
360
2C89C
102
}
102
{ACAD_REACTORS
330
19
102
}
330
19
100
AcDbPlotSettings
  1
04   A4  １：１
  2
\\ML370\Fuji Xerox BT8050(AutoCAD)
  4
User125
  6

 40
3.174999952316281
 41
3.174999952316281
 42
3.175003051757812
 43
3.17498779296875
 44
210.0
 45
297.0
 46
-46.68
 47
-64.67
 48
214.3704939521119
 49
367.5855324241177
140
275.6727856380065
141
407.6291914078168
142
1.0
143
1.0
 70
  1716
 72
     1
 73
     1
 74
     2
  7
monochrome.ctb
 75
    16
147
1.0
148
-538.139750291099
149
411.0980235086544
  0
PLOTSETTINGS
  5
AB01
102
{ACAD_XDICTIONARY
360
2C88C
102
}
102
{ACAD_REACTORS
330
19
102
}
330
19
100
AcDbPlotSettings
  1
04 A2
  2
FX DocuWide 2050/2051
  4
User66
  6
AM_VIEW1
 40
3.174999952316281
 41
3.174999952316281
 42
3.17498779296875
 43
3.17498779296875
 44
419.9889831542968
 45
593.97900390625
 46
-3.180502295494078
 47
-3.185491919517517
 48
214.3704939521119
 49
367.5855324241177
140
275.6727856380065
141
407.6291914078168
142
1.0
143
1.0
 70
  3764
 72
     1
 73
     1
 74
     2
  7
monochrome.ctb
 75
    16
147
1.0
148
0.0
149
0.0
1001
ACAD_PSEXT
1000
FX DocuWide 2050/2051
1000
FX DocuWide 2050/2051
1000
IP_192.200.15.252
1000

1070
     0
  0
PLOTSETTINGS
  5
142CD
102
{ACAD_XDICTIONARY
360
2C89E
102
}
102
{ACAD_REACTORS
330
19
102
}
330
19
100
AcDbPlotSettings
  1
05   A1 自動調整
  2
\\ML370\Fuji Xerox BT8050(AutoCAD)
  4
User122
  6

 40
3.174999952316281
 41
3.174999952316281
 42
3.17498779296875
 43
3.17498779296875
 44
593.7249755859375
 45
840.6129760742187
 46
0.0
 47
1.77
 48
214.3704939521119
 49
367.5855324241177
140
275.6727856380065
141
407.6291914078168
142
1.0
143
0.7150457692181145
 70
  1716
 72
     1
 73
     1
 74
     2
  7
monochrome.ctb
 75
     0
147
1.398511875811077
148
-408.2719444961221
149
-428.6675171947153
  0
PLOTSETTINGS
  5
AB04
102
{ACAD_XDICTIONARY
360
2C892
102
}
102
{ACAD_REACTORS
330
19
102
}
330
19
100
AcDbPlotSettings
  1
05 A1フィット
  2
FX DocuWide 2050/2051
  4
User139
  6
AM_VIEW1
 40
3.174999952316281
 41
3.174999952316281
 42
3.17498779296875
 43
3.17498779296875
 44
593.97900390625
 45
840.9939575195313
 46
0.0
 47
1.784323459012171
 48
214.3704939521119
 49
367.5855324241177
140
275.6727856380065
141
407.6291914078168
142
1.0
143
0.7147366594384652
 70
  3764
 72
     1
 73
     1
 74
     2
  7
monochrome.ctb
 75
     0
147
1.399116705145154
148
0.0
149
0.0
1001
ACAD_PSEXT
1000
FX DocuWide 2050/2051
1000
FX DocuWide 2050/2051
1000
IP_192.200.15.252
1000

1070
     0
  0
PLOTSETTINGS
  5
142CE
102
{ACAD_XDICTIONARY
360
2C8A0
102
}
102
{ACAD_REACTORS
330
19
102
}
330
19
100
AcDbPlotSettings
  1
06   A2 自動調整
  2
\\ML370\Fuji Xerox BT8050(AutoCAD)
  4
User123
  6

 40
3.174999952316281
 41
3.174999952316281
 42
3.17498779296875
 43
3.17498779296875
 44
420.0
 45
594.0
 46
0.0
 47
1.32
 48
214.3704939521119
 49
367.5855324241177
140
275.6727856380065
141
407.6291914078168
142
1.0
143
1.015351112189439
 70
  1716
 72
     1
 73
     1
 74
     2
  7
monochrome.ctb
 75
     0
147
0.9848809815588451
148
-408.2719444961221
149
-428.6675171947153
  0
PLOTSETTINGS
  5
AB05
102
{ACAD_XDICTIONARY
360
2C894
102
}
102
{ACAD_REACTORS
330
19
102
}
330
19
100
AcDbPlotSettings
  1
06 A1
  2
FX DocuWide 2050/2051
  4
User139
  6
AM_VIEW1
 40
3.174999952316281
 41
3.174999952316281
 42
3.17498779296875
 43
3.17498779296875
 44
593.97900390625
 45
840.9939575195313
 46
83.81450808048247
 47
120.3219848871231
 48
214.3704939521119
 49
367.5855324241177
140
275.6727856380065
141
407.6291914078168
142
1.0
143
1.0
 70
  3764
 72
     1
 73
     1
 74
     2
  7
monochrome.ctb
 75
    16
147
1.0
148
0.0
149
0.0
1001
ACAD_PSEXT
1000
FX DocuWide 2050/2051
1000
FX DocuWide 2050/2051
1000
IP_192.200.15.252
1000

1070
     0
  0
PLOTSETTINGS
  5
AB02
102
{ACAD_XDICTIONARY
360
2C88E
102
}
102
{ACAD_REACTORS
330
19
102
}
330
19
100
AcDbPlotSettings
  1
06 A4フィット
  2
FX DocuWide 2050/2051
  4
A4
  6
AM_VIEW1
 40
3.174999952316281
 41
3.174999952316281
 42
3.175003051757812
 43
3.17498779296875
 44
209.9944915771484
 45
296.989501953125
 46
0.0
 47
1.314011612960285
 48
214.3704939521119
 49
367.5855324241177
140
275.6727856380065
141
407.6291914078168
142
1.0
143
2.06241771109504
 70
  3764
 72
     1
 73
     1
 74
     2
  7
monochrome.ctb
 75
     0
147
0.4848678299358913
148
0.0
149
0.0
1001
ACAD_PSEXT
1000
FX DocuWide 2050/2051
1000
FX DocuWide 2050/2051
1000
IP_192.200.15.252
1000

1070
     0
  0
PLOTSETTINGS
  5
142CF
102
{ACAD_XDICTIONARY
360
2C8A2
102
}
102
{ACAD_REACTORS
330
19
102
}
330
19
100
AcDbPlotSettings
  1
07   A3 自動調整
  2
\\ML370\Fuji Xerox BT8050(AutoCAD)
  4
User124
  6

 40
3.174999952316281
 41
3.174999952316281
 42
3.17498779296875
 43
3.17498779296875
 44
297.0
 45
420.0
 46
0.0
 47
1.29
 48
214.3704939521119
 49
367.5855324241177
140
275.6727856380065
141
407.6291914078168
142
1.0
143
1.445036925138428
 70
  1716
 72
     1
 73
     1
 74
     2
  7
monochrome.ctb
 75
     0
147
0.6920238387017023
148
-408.2719444961221
149
-428.6675171947153
  0
PLOTSETTINGS
  5
AB03
102
{ACAD_XDICTIONARY
360
2C890
102
}
102
{ACAD_REACTORS
330
19
102
}
330
19
100
AcDbPlotSettings
  1
07 A4
  2
FX DocuWide 2050/2051
  4
A4
  6
AM_VIEW1
 40
3.174999952316281
 41
3.174999952316281
 42
3.175003051757812
 43
3.17498779296875
 44
209.9944915771484
 45
296.989501953125
 46
-108.1777557134628
 47
-151.68024289608
 48
214.3704939521119
 49
367.5855324241177
140
275.6727856380065
141
407.6291914078168
142
1.0
143
1.0
 70
  3764
 72
     1
 73
     1
 74
     2
  7
monochrome.ctb
 75
    16
147
1.0
148
0.0
149
0.0
1001
ACAD_PSEXT
1000
FX DocuWide 2050/2051
1000
FX DocuWide 2050/2051
1000
IP_192.200.15.252
1000

1070
     0
  0
PLOTSETTINGS
  5
142D0
102
{ACAD_XDICTIONARY
360
2C8A4
102
}
102
{ACAD_REACTORS
330
19
102
}
330
19
100
AcDbPlotSettings
  1
08   A4 自動調整
  2
\\ML370\Fuji Xerox BT8050(AutoCAD)
  4
User125
  6

 40
3.174999952316281
 41
3.174999952316281
 42
3.175003051757812
 43
3.17498779296875
 44
210.0
 45
297.0
 46
0.0
 47
1.32
 48
214.3704939521119
 49
367.5855324241177
140
275.6727856380065
141
407.6291914078168
142
1.0
143
2.062361925831023
 70
  1716
 72
     1
 73
     1
 74
     2
  7
monochrome.ctb
 75
     0
147
0.484880945228395
148
-408.2719444961221
149
-428.6675171947153
  0
PLOTSETTINGS
  5
142D1
102
{ACAD_XDICTIONARY
360
2C8A6
102
}
102
{ACAD_REACTORS
330
19
102
}
330
19
100
AcDbPlotSettings
  1
09   A1をA3に
  2
\\ML370\Fuji Xerox BT8050(AutoCAD)
  4
User124
  6

 40
3.174999952316281
 41
3.174999952316281
 42
3.17498779296875
 43
3.17498779296875
 44
297.0
 45
420.0
 46
-3.169999999999998
 47
-3.419999999999998
 48
214.3704939521119
 49
367.5855324241177
140
275.6727856380065
141
407.6291914078168
142
1.0
143
20.0
 70
  1716
 72
     1
 73
     1
 74
     2
  7
monochrome.ctb
 75
    22
147
0.05
148
-66.24202774817149
149
-81.38953477958603
  0
PLOTSETTINGS
  5
142D2
102
{ACAD_XDICTIONARY
360
2C8A8
102
}
102
{ACAD_REACTORS
330
19
102
}
330
19
100
AcDbPlotSettings
  1
10   A2をA3に
  2
\\ML370\Fuji Xerox BT8050(AutoCAD)
  4
User124
  6

 40
3.174999952316281
 41
3.174999952316281
 42
3.17498779296875
 43
3.17498779296875
 44
297.0
 45
420.0
 46
-3.189999999999998
 47
-3.22
 48
214.3704939521119
 49
367.5855324241177
140
275.6727856380065
141
407.6291914078168
142
1.0
143
1.414
 70
  1700
 72
     1
 73
     1
 74
     2
  7
monochrome.ctb
 75
     0
147
0.7072135785007072
148
-408.2719444961221
149
-428.6675171947153
  0
ACDBPLACEHOLDER
  5
F
102
{ACAD_REACTORS
330
E
102
}
330
E
  0
TABLESTYLE
  5
AABA
102
{ACAD_XDICTIONARY
360
2C884
102
}
102
{ACAD_REACTORS
330
AAB9
102
}
330
AAB9
100
AcDbTableStyle
  3
Standard
 70
     0
 71
     0
 40
1.5
 41
1.5
280
     0
281
     0
  7
STANDARD
140
4.5
170
     2
 62
     0
 63
     7
283
     0
274
    -2
284
     1
 64
     0
275
    -2
285
     1
 65
     0
276
    -2
286
     1
 66
     0
277
    -2
287
     1
 67
     0
278
    -2
288
     1
 68
     0
279
    -2
289
     1
 69
     0
  7
STANDARD
140
6.0
170
     5
 62
     0
 63
     7
283
     0
274
    -2
284
     1
 64
     0
275
    -2
285
     1
 65
     0
276
    -2
286
     1
 66
     0
277
    -2
287
     1
 67
     0
278
    -2
288
     1
 68
     0
279
    -2
289
     1
 69
     0
  7
STANDARD
140
4.5
170
     5
 62
     0
 63
     7
283
     0
274
    -2
284
     1
 64
     0
275
    -2
285
     1
 65
     0
276
    -2
286
     1
 66
     0
277
    -2
287
     1
 67
     0
278
    -2
288
     1
 68
     0
279
    -2
289
     1
 69
     0
  0
VISUALSTYLE
  5
2BF35
102
{ACAD_REACTORS
330
2BF2F
102
}
330
2BF2F
100
AcDbVisualStyle
  2
2dWireframe
 70
     4
 71
     0
 72
     2
 73
     0
 90
        0
 40
-0.6
 41
-30.0
 62
     5
 63
     7
 74
     1
 91
        4
 64
     7
 65
   257
 75
     1
175
     1
 42
1.0
 92
        0
 66
   257
 43
1.0
 76
     1
 77
     6
 78
     2
 67
     7
 79
     5
170
     0
171
     0
290
     0
174
     0
 93
        1
 44
0.0
173
     0
291
     0
 45
0.0
1001
ACAD
1000
AcDbSavedByObjectVersion
1070
     0
1000
AcDbSavedByObjectVersion
1070
     0
  0
VISUALSTYLE
  5
2BF37
102
{ACAD_REACTORS
330
2BF2F
102
}
330
2BF2F
100
AcDbVisualStyle
  2
3D Hidden
 70
     6
 71
     1
 72
     2
 73
     2
 90
        0
 40
-0.6
 41
-30.0
 62
     5
 63
     7
 74
     2
 91
        2
 64
     7
 65
   257
 75
     2
175
     1
 42
40.0
 92
        0
 66
   257
 43
1.0
 76
     1
 77
     6
 78
     2
 67
     7
 79
     3
170
     0
171
     0
290
     0
174
     0
 93
        1
 44
0.0
173
     0
291
     0
 45
0.0
1001
ACAD
1000
AcDbSavedByObjectVersion
1070
     0
1000
AcDbSavedByObjectVersion
1070
     0
  0
VISUALSTYLE
  5
2BF36
102
{ACAD_REACTORS
330
2BF2F
102
}
330
2BF2F
100
AcDbVisualStyle
  2
3dWireframe
 70
     5
 71
     0
 72
     2
 73
     0
 90
        0
 40
-0.6
 41
-30.0
 62
     5
 63
     7
 74
     1
 91
        4
 64
     7
 65
   257
 75
     1
175
     1
 42
1.0
 92
        0
 66
   257
 43
1.0
 76
     1
 77
     6
 78
     2
 67
     7
 79
     5
170
     0
171
     0
290
     0
174
     0
 93
        1
 44
0.0
173
     0
291
     0
 45
0.0
1001
ACAD
1000
AcDbSavedByObjectVersion
1070
     0
1000
AcDbSavedByObjectVersion
1070
     0
  0
VISUALSTYLE
  5
2BF34
102
{ACAD_REACTORS
330
2BF2F
102
}
330
2BF2F
100
AcDbVisualStyle
  2
Basic
 70
     7
 71
     1
 72
     0
 73
     1
 90
        0
 40
-0.6
 41
-30.0
 62
     5
 63
     7
 74
     0
 91
        4
 64
     7
 65
   257
 75
     1
175
     1
 42
1.0
 92
        8
 66
     7
 43
1.0
 76
     1
 77
     6
 78
     2
 67
     7
 79
     5
170
     0
171
     0
290
     0
174
     0
 93
        1
 44
0.0
173
     0
291
     1
 45
0.0
1001
ACAD
1000
AcDbSavedByObjectVersion
1070
     0
1000
AcDbSavedByObjectVersion
1070
     0
  0
VISUALSTYLE
  5
2BF3B
102
{ACAD_REACTORS
330
2BF2F
102
}
330
2BF2F
100
AcDbVisualStyle
  2
Brighten
 70
    12
 71
     2
 72
     2
 73
     0
 90
        0
 40
-0.6
 41
-30.0
 62
     5
 63
     7
 74
     1
 91
        4
 64
     7
 65
   257
 75
     1
175
     1
 42
1.0
 92
        8
 66
     7
 43
1.0
 76
     1
 77
     6
 78
     2
 67
     7
 79
     5
170
     0
171
     0
290
     0
174
     0
 93
        1
 44
50.0
173
     0
291
     1
 45
0.0
1001
ACAD
1000
AcDbSavedByObjectVersion
1070
     0
1000
AcDbSavedByObjectVersion
1070
     0
  0
VISUALSTYLE
  5
2BF3F
102
{ACAD_REACTORS
330
2BF2F
102
}
330
2BF2F
100
AcDbVisualStyle
  2
ColorChange
 70
    16
 71
     2
 72
     2
 73
     3
 90
        0
 40
-0.6
 41
-30.0
 62
     5
 63
     8
 74
     1
 91
        4
 64
     7
 65
   257
 75
     1
175
     1
 42
1.0
 92
        8
 66
     8
 43
1.0
 76
     1
 77
     6
 78
     2
 67
     7
 79
     5
170
     0
171
     0
290
     0
174
     0
 93
        1
 44
0.0
173
     0
291
     1
 45
0.0
1001
ACAD
1000
AcDbSavedByObjectVersion
1070
     0
1000
AcDbSavedByObjectVersion
1070
     0
  0
VISUALSTYLE
  5
2BF38
102
{ACAD_REACTORS
330
2BF2F
102
}
330
2BF2F
100
AcDbVisualStyle
  2
Conceptual
 70
     9
 71
     3
 72
     2
 73
     0
 90
        0
 40
-0.6
 41
-30.0
 62
     5
 63
     7
 74
     2
 91
        2
 64
     7
 65
   257
 75
     1
175
     1
 42
40.0
 92
        8
 66
     7
 43
1.0
 76
     1
 77
     6
 78
     2
 67
     7
 79
     3
170
     0
171
     0
290
     0
174
     0
 93
        1
 44
0.0
173
     0
291
     0
 45
0.0
1001
ACAD
1000
AcDbSavedByObjectVersion
1070
     0
1000
AcDbSavedByObjectVersion
1070
     0
  0
VISUALSTYLE
  5
2BF3A
102
{ACAD_REACTORS
330
2BF2F
102
}
330
2BF2F
100
AcDbVisualStyle
  2
Dim
 70
    11
 71
     2
 72
     2
 73
     0
 90
        0
 40
-0.6
 41
-30.0
 62
     5
 63
     7
 74
     1
 91
        4
 64
     7
 65
   257
 75
     1
175
     1
 42
1.0
 92
        8
 66
     7
 43
1.0
 76
     1
 77
     6
 78
     2
 67
     7
 79
     5
170
     0
171
     0
290
     0
174
     0
 93
        1
 44
-50.0
173
     0
291
     1
 45
0.0
1001
ACAD
1000
AcDbSavedByObjectVersion
1070
     0
1000
AcDbSavedByObjectVersion
1070
     0
  0
VISUALSTYLE
  5
2BF3E
102
{ACAD_REACTORS
330
2BF2F
102
}
330
2BF2F
100
AcDbVisualStyle
  2
Facepattern
 70
    15
 71
     2
 72
     2
 73
     0
 90
        0
 40
-0.6
 41
-30.0
 62
     5
 63
     7
 74
     1
 91
        4
 64
     7
 65
   257
 75
     1
175
     1
 42
1.0
 92
        8
 66
     7
 43
1.0
 76
     1
 77
     6
 78
     2
 67
     7
 79
     5
170
     0
171
     0
290
     0
174
     0
 93
        1
 44
0.0
173
     0
291
     1
 45
0.0
1001
ACAD
1000
AcDbSavedByObjectVersion
1070
     0
1000
AcDbSavedByObjectVersion
1070
     0
  0
VISUALSTYLE
  5
2BF30
102
{ACAD_REACTORS
330
2BF2F
102
}
330
2BF2F
100
AcDbVisualStyle
  2
Flat
 70
     0
 71
     2
 72
     1
 73
     1
 90
        2
 40
-0.6
 41
30.0
 62
     5
 63
     7
 74
     0
 91
        4
 64
     7
 65
   257
 75
     1
175
     1
 42
1.0
 92
        8
 66
     7
 43
1.0
 76
     1
 77
     6
 78
     2
 67
     7
 79
     5
170
     0
171
     0
290
     0
174
     0
 93
       13
 44
0.0
173
     0
291
     1
 45
0.0
1001
ACAD
1000
AcDbSavedByObjectVersion
1070
     0
1000
AcDbSavedByObjectVersion
1070
     0
  0
VISUALSTYLE
  5
2BF31
102
{ACAD_REACTORS
330
2BF2F
102
}
330
2BF2F
100
AcDbVisualStyle
  2
FlatWithEdges
 70
     1
 71
     2
 72
     1
 73
     1
 90
        2
 40
-0.6
 41
30.0
 62
     5
 63
     7
 74
     1
 91
        4
 64
     7
 65
   257
 75
     1
175
     1
 42
1.0
 92
        0
 66
   257
 43
1.0
 76
     1
 77
     6
 78
     2
 67
     7
 79
     5
170
     0
171
     0
290
     0
174
     0
 93
       13
 44
0.0
173
     0
291
     1
 45
0.0
1001
ACAD
1000
AcDbSavedByObjectVersion
1070
     0
1000
AcDbSavedByObjectVersion
1070
     0
  0
VISUALSTYLE
  5
2BF32
102
{ACAD_REACTORS
330
2BF2F
102
}
330
2BF2F
100
AcDbVisualStyle
  2
Gouraud
 70
     2
 71
     2
 72
     2
 73
     1
 90
        2
 40
-0.6
 41
30.0
 62
     5
 63
     7
 74
     0
 91
        4
 64
     7
 65
   257
 75
     1
175
     1
 42
1.0
 92
        0
 66
     7
 43
1.0
 76
     1
 77
     6
 78
     2
 67
     7
 79
     5
170
     0
171
     0
290
     0
174
     0
 93
       13
 44
0.0
173
     0
291
     1
 45
0.0
1001
ACAD
1000
AcDbSavedByObjectVersion
1070
     0
1000
AcDbSavedByObjectVersion
1070
     0
  0
VISUALSTYLE
  5
2BF33
102
{ACAD_REACTORS
330
2BF2F
102
}
330
2BF2F
100
AcDbVisualStyle
  2
GouraudWithEdges
 70
     3
 71
     2
 72
     2
 73
     1
 90
        2
 40
-0.6
 41
30.0
 62
     5
 63
     7
 74
     1
 91
        4
 64
     7
 65
   257
 75
     1
175
     1
 42
1.0
 92
        0
 66
   257
 43
1.0
 76
     1
 77
     6
 78
     2
 67
     7
 79
     5
170
     0
171
     0
290
     0
174
     0
 93
       13
 44
0.0
173
     0
291
     1
 45
0.0
1001
ACAD
1000
AcDbSavedByObjectVersion
1070
     0
1000
AcDbSavedByObjectVersion
1070
     0
  0
VISUALSTYLE
  5
2BF3D
102
{ACAD_REACTORS
330
2BF2F
102
}
330
2BF2F
100
AcDbVisualStyle
  2
Linepattern
 70
    14
 71
     2
 72
     2
 73
     0
 90
        0
 40
-0.6
 41
-30.0
 62
     5
 63
     7
 74
     1
 91
        4
 64
     7
 65
   257
 75
     7
175
     7
 42
1.0
 92
        8
 66
     7
 43
1.0
 76
     1
 77
     6
 78
     2
 67
     7
 79
     5
170
     0
171
     0
290
     0
174
     0
 93
        1
 44
0.0
173
     0
291
     1
 45
0.0
1001
ACAD
1000
AcDbSavedByObjectVersion
1070
     0
1000
AcDbSavedByObjectVersion
1070
     0
  0
VISUALSTYLE
  5
2BF39
102
{ACAD_REACTORS
330
2BF2F
102
}
330
2BF2F
100
AcDbVisualStyle
  2
Realistic
 70
     8
 71
     2
 72
     2
 73
     0
 90
        0
 40
-0.6
 41
-30.0
 62
     5
 63
     7
 74
     1
 91
        0
 64
     7
 65
   257
 75
     1
175
     1
 42
1.0
 92
        8
 66
     8
 43
1.0
 76
     1
 77
     6
 78
     2
 67
     7
 79
     5
170
     0
171
     0
290
     0
174
     0
 93
       13
 44
0.0
173
     0
291
     0
 45
0.0
1001
ACAD
1000
AcDbSavedByObjectVersion
1070
     0
1000
AcDbSavedByObjectVersion
1070
     0
  0
VISUALSTYLE
  5
2BF3C
102
{ACAD_REACTORS
330
2BF2F
102
}
330
2BF2F
100
AcDbVisualStyle
  2
Thicken
 70
    13
 71
     2
 72
     2
 73
     0
 90
        0
 40
-0.6
 41
-30.0
 62
     5
 63
     7
 74
     1
 91
        4
 64
     7
 65
   257
 75
     1
175
     1
 42
1.0
 92
       12
 66
     7
 43
1.0
 76
     1
 77
     6
 78
     2
 67
     7
 79
     5
170
     0
171
     0
290
     0
174
     0
 93
        1
 44
0.0
173
     0
291
     1
 45
0.0
1001
ACAD
1000
AcDbSavedByObjectVersion
1070
     0
1000
AcDbSavedByObjectVersion
1070
     0
  0
DICTIONARYVAR
  5
AAF3
102
{ACAD_REACTORS
330
34
102
}
330
34
100
DictionaryVariables
280
     0
  1
STANDARD
  0
DICTIONARYVAR
  5
A10C
102
{ACAD_REACTORS
330
34
102
}
330
34
100
DictionaryVariables
280
     0
  1
1
  0
DICTIONARYVAR
  5
AB07
102
{ACAD_REACTORS
330
34
102
}
330
34
100
DictionaryVariables
280
     0
  1
4
  0
DICTIONARYVAR
  5
35
102
{ACAD_REACTORS
330
34
102
}
330
34
100
DictionaryVariables
280
     0
  1
0
  0
DICTIONARYVAR
  5
2C879
102
{ACAD_REACTORS
330
34
102
}
330
34
100
DictionaryVariables
280
     0
  1
1.570796
  0
DICTIONARYVAR
  5
2C87A
102
{ACAD_REACTORS
330
34
102
}
330
34
100
DictionaryVariables
280
     0
  1
1.570796
  0
DICTIONARYVAR
  5
194C
102
{ACAD_REACTORS
330
34
102
}
330
34
100
DictionaryVariables
280
     0
  1
96
  0
DICTIONARY
  5
7E8
102
{ACAD_REACTORS
330
47
102
}
330
47
100
AcDbDictionary
281
     1
  0
DICTIONARY
  5
4C
102
{ACAD_REACTORS
330
47
102
}
330
47
100
AcDbDictionary
281
     1
  0
XRECORD
  5
A929
102
{ACAD_REACTORS
330
47
102
}
330
47
100
AcDbXrecord
280
     1
 90
-1023410169
  0
XRECORD
  5
28FC8
102
{ACAD_REACTORS
330
28FC7
102
}
330
28FC7
100
AcDbXrecord
280
     1
330
0
330
0
330
0
330
0
330
0
330
0
330
0
330
0
330
0
330
0
330
0
330
0
330
0
330
0
330
0
330
0
330
0
330
0
330
0
330
0
330
0
330
0
330
0
330
0
330
0
330
0
330
0
330
0
330
0
330
0
330
0
330
0
330
0
330
0
330
0
330
0
330
0
330
0
330
0
330
0
330
0
330
0
330
0
330
0
330
0
330
0
330
0
330
0
330
0
330
0
330
0
330
0
330
0
330
0
330
0
330
0
330
0
330
0
330
0
330
0
330
0
330
0
330
0
330
0
330
0
330
0
330
0
330
0
330
0
330
0
330
0
330
0
330
0
330
0
330
0
330
0
330
0
330
0
330
0
330
0
330
0
330
0
330
0
330
0
330
0
330
0
330
0
330
0
330
0
330
0
330
0
330
0
330
0
330
0
330
0
330
0
330
0
330
0
330
0
330
0
330
0
330
0
330
0
330
0
330
0
330
0
330
0
330
0
330
0
330
0
330
0
330
0
330
0
330
0
330
0
330
0
330
0
330
0
330
0
330
0
330
0
330
0
330
0
330
0
330
0
330
0
330
0
330
0
330
0
330
0
330
0
330
0
330
0
330
0
330
0
330
0
330
0
330
0
330
0
330
0
330
0
330
0
330
0
330
0
330
0
330
0
330
0
330
0
330
0
330
0
330
0
330
0
330
0
330
0
330
0
330
0
330
0
330
0
330
0
330
0
330
0
330
0
330
0
330
0
330
0
330
0
330
0
330
0
330
0
330
0
330
0
330
0
330
0
330
0
330
0
330
0
330
0
330
0
  0
XRECORD
  5
3FB7
102
{ACAD_REACTORS
330
3F96
102
}
330
3F96
100
AcDbXrecord
280
     1
 91
        3
330
0
 90
        8
 62
     7
370
    40
331
16
  1
Color_7
330
0
 90
        0
 62
    14
370
    -3
331
16
  1
Color_14
330
0
 90
        8
 62
     7
370
    20
331
16
  1
Color_7
330
6D1
 90
        0
 62
     7
370
    -3
331
16
  1
Color_7
330
0
 90
        8
 62
     7
370
    50
331
16
  1
Color_7
330
0
 90
        8
 62
     2
370
    35
331
16
  1
Color_2
330
0
 90
        8
 62
     7
370
    -3
331
16
  1
Color_7
330
10
 90
        8
 62
     7
370
    -3
331
16
  1
Color_7
  0
DICTIONARY
  5
2C880
330
22
100
AcDbDictionary
280
     1
281
     1
  3
ACAD_XREC_ROUNDTRIP
360
2C881
  0
DICTIONARY
  5
2C87E
330
1E
100
AcDbDictionary
280
     1
281
     1
  3
ACAD_XREC_ROUNDTRIP
360
2C87F
  0
DICTIONARY
  5
2C882
330
26
100
AcDbDictionary
280
     1
281
     1
  3
ACAD_XREC_ROUNDTRIP
360
2C883
  0
DICTIONARY
  5
2C721
330
2BF2D
100
AcDbDictionary
280
     1
281
     1
  3
ACAD_XREC_ROUNDTRIP
360
2C722
  0
DICTIONARY
  5
2C71F
330
2BF2C
100
AcDbDictionary
280
     1
281
     1
  3
ACAD_XREC_ROUNDTRIP
360
2C720
  0
DICTIONARY
  5
2C723
330
2BF2E
100
AcDbDictionary
280
     1
281
     1
  3
ACAD_XREC_ROUNDTRIP
360
2C724
  0
DICTIONARY
  5
2C896
330
142C9
100
AcDbDictionary
280
     1
281
     1
  3
ACAD_XREC_ROUNDTRIP
360
2C897
  0
DICTIONARY
  5
2C886
330
AAFE
100
AcDbDictionary
280
     1
281
     1
  3
ACAD_XREC_ROUNDTRIP
360
2C887
  0
DICTIONARY
  5
2C898
330
142CA
100
AcDbDictionary
280
     1
281
     1
  3
ACAD_XREC_ROUNDTRIP
360
2C899
  0
DICTIONARY
  5
2C888
330
AAFF
100
AcDbDictionary
280
     1
281
     1
  3
ACAD_XREC_ROUNDTRIP
360
2C889
  0
DICTIONARY
  5
2C89A
330
142CB
100
AcDbDictionary
280
     1
281
     1
  3
ACAD_XREC_ROUNDTRIP
360
2C89B
  0
DICTIONARY
  5
2C88A
330
AB00
100
AcDbDictionary
280
     1
281
     1
  3
ACAD_XREC_ROUNDTRIP
360
2C88B
  0
DICTIONARY
  5
2C89C
330
142CC
100
AcDbDictionary
280
     1
281
     1
  3
ACAD_XREC_ROUNDTRIP
360
2C89D
  0
DICTIONARY
  5
2C88C
330
AB01
100
AcDbDictionary
280
     1
281
     1
  3
ACAD_XREC_ROUNDTRIP
360
2C88D
  0
DICTIONARY
  5
2C89E
330
142CD
100
AcDbDictionary
280
     1
281
     1
  3
ACAD_XREC_ROUNDTRIP
360
2C89F
  0
DICTIONARY
  5
2C892
330
AB04
100
AcDbDictionary
280
     1
281
     1
  3
ACAD_XREC_ROUNDTRIP
360
2C893
  0
DICTIONARY
  5
2C8A0
330
142CE
100
AcDbDictionary
280
     1
281
     1
  3
ACAD_XREC_ROUNDTRIP
360
2C8A1
  0
DICTIONARY
  5
2C894
330
AB05
100
AcDbDictionary
280
     1
281
     1
  3
ACAD_XREC_ROUNDTRIP
360
2C895
  0
DICTIONARY
  5
2C88E
330
AB02
100
AcDbDictionary
280
     1
281
     1
  3
ACAD_XREC_ROUNDTRIP
360
2C88F
  0
DICTIONARY
  5
2C8A2
330
142CF
100
AcDbDictionary
280
     1
281
     1
  3
ACAD_XREC_ROUNDTRIP
360
2C8A3
  0
DICTIONARY
  5
2C890
330
AB03
100
AcDbDictionary
280
     1
281
     1
  3
ACAD_XREC_ROUNDTRIP
360
2C891
  0
DICTIONARY
  5
2C8A4
330
142D0
100
AcDbDictionary
280
     1
281
     1
  3
ACAD_XREC_ROUNDTRIP
360
2C8A5
  0
DICTIONARY
  5
2C8A6
330
142D1
100
AcDbDictionary
280
     1
281
     1
  3
ACAD_XREC_ROUNDTRIP
360
2C8A7
  0
DICTIONARY
  5
2C8A8
330
142D2
100
AcDbDictionary
280
     1
281
     1
  3
ACAD_XREC_ROUNDTRIP
360
2C8A9
  0
DICTIONARY
  5
2C884
330
AABA
100
AcDbDictionary
280
     1
281
     1
  3
ACAD_XREC_ROUNDTRIP
360
2C885
  0
XRECORD
  5
2C881
102
{ACAD_REACTORS
330
2C880
102
}
330
2C880
100
AcDbXrecord
280
     1
102
SHADEPLOT
 70
     0
102
SHADEPLOTRESLEVEL
 70
     2
102
SHADEPLOTCUSTOMDPI
 70
   200
  0
XRECORD
  5
2C87F
102
{ACAD_REACTORS
330
2C87E
102
}
330
2C87E
100
AcDbXrecord
280
     1
102
SHADEPLOT
 70
     0
102
SHADEPLOTRESLEVEL
 70
     2
102
SHADEPLOTCUSTOMDPI
 70
   300
  0
XRECORD
  5
2C883
102
{ACAD_REACTORS
330
2C882
102
}
330
2C882
100
AcDbXrecord
280
     1
102
SHADEPLOT
 70
     0
102
SHADEPLOTRESLEVEL
 70
     2
102
SHADEPLOTCUSTOMDPI
 70
   300
  0
XRECORD
  5
2C722
102
{ACAD_REACTORS
330
2C721
102
}
330
2C721
100
AcDbXrecord
280
     1
102
MATERIAL
148
0.0
149
0.0
149
0.0
 93
        0
 94
       63
282
     0
 72
     1
 77
     1
171
     1
175
     1
179
     1
273
     0
  0
XRECORD
  5
2C720
102
{ACAD_REACTORS
330
2C71F
102
}
330
2C71F
100
AcDbXrecord
280
     1
102
MATERIAL
148
0.0
149
0.0
149
0.0
 93
        0
 94
       63
282
     0
 72
     1
 77
     1
171
     1
175
     1
179
     1
273
     0
  0
XRECORD
  5
2C724
102
{ACAD_REACTORS
330
2C723
102
}
330
2C723
100
AcDbXrecord
280
     1
102
MATERIAL
148
0.0
149
0.0
149
0.0
 93
        0
 94
       63
282
     0
 72
     1
 77
     1
171
     1
175
     1
179
     1
273
     0
  0
XRECORD
  5
2C897
102
{ACAD_REACTORS
330
2C896
102
}
330
2C896
100
AcDbXrecord
280
     1
102
SHADEPLOT
 70
     0
102
SHADEPLOTRESLEVEL
 70
     2
102
SHADEPLOTCUSTOMDPI
 70
   300
  0
XRECORD
  5
2C887
102
{ACAD_REACTORS
330
2C886
102
}
330
2C886
100
AcDbXrecord
280
     1
102
SHADEPLOT
 70
     0
102
SHADEPLOTRESLEVEL
 70
     2
102
SHADEPLOTCUSTOMDPI
 70
   200
  0
XRECORD
  5
2C899
102
{ACAD_REACTORS
330
2C898
102
}
330
2C898
100
AcDbXrecord
280
     1
102
SHADEPLOT
 70
     0
102
SHADEPLOTRESLEVEL
 70
     2
102
SHADEPLOTCUSTOMDPI
 70
   300
  0
XRECORD
  5
2C889
102
{ACAD_REACTORS
330
2C888
102
}
330
2C888
100
AcDbXrecord
280
     1
102
SHADEPLOT
 70
     0
102
SHADEPLOTRESLEVEL
 70
     2
102
SHADEPLOTCUSTOMDPI
 70
   200
  0
XRECORD
  5
2C89B
102
{ACAD_REACTORS
330
2C89A
102
}
330
2C89A
100
AcDbXrecord
280
     1
102
SHADEPLOT
 70
     0
102
SHADEPLOTRESLEVEL
 70
     2
102
SHADEPLOTCUSTOMDPI
 70
   300
  0
XRECORD
  5
2C88B
102
{ACAD_REACTORS
330
2C88A
102
}
330
2C88A
100
AcDbXrecord
280
     1
102
SHADEPLOT
 70
     0
102
SHADEPLOTRESLEVEL
 70
     2
102
SHADEPLOTCUSTOMDPI
 70
   200
  0
XRECORD
  5
2C89D
102
{ACAD_REACTORS
330
2C89C
102
}
330
2C89C
100
AcDbXrecord
280
     1
102
SHADEPLOT
 70
     0
102
SHADEPLOTRESLEVEL
 70
     2
102
SHADEPLOTCUSTOMDPI
 70
   300
  0
XRECORD
  5
2C88D
102
{ACAD_REACTORS
330
2C88C
102
}
330
2C88C
100
AcDbXrecord
280
     1
102
SHADEPLOT
 70
     0
102
SHADEPLOTRESLEVEL
 70
     2
102
SHADEPLOTCUSTOMDPI
 70
   200
  0
XRECORD
  5
2C89F
102
{ACAD_REACTORS
330
2C89E
102
}
330
2C89E
100
AcDbXrecord
280
     1
102
SHADEPLOT
 70
     0
102
SHADEPLOTRESLEVEL
 70
     2
102
SHADEPLOTCUSTOMDPI
 70
   300
  0
XRECORD
  5
2C893
102
{ACAD_REACTORS
330
2C892
102
}
330
2C892
100
AcDbXrecord
280
     1
102
SHADEPLOT
 70
     0
102
SHADEPLOTRESLEVEL
 70
     2
102
SHADEPLOTCUSTOMDPI
 70
   200
  0
XRECORD
  5
2C8A1
102
{ACAD_REACTORS
330
2C8A0
102
}
330
2C8A0
100
AcDbXrecord
280
     1
102
SHADEPLOT
 70
     0
102
SHADEPLOTRESLEVEL
 70
     2
102
SHADEPLOTCUSTOMDPI
 70
   300
  0
XRECORD
  5
2C895
102
{ACAD_REACTORS
330
2C894
102
}
330
2C894
100
AcDbXrecord
280
     1
102
SHADEPLOT
 70
     0
102
SHADEPLOTRESLEVEL
 70
     2
102
SHADEPLOTCUSTOMDPI
 70
   200
  0
XRECORD
  5
2C88F
102
{ACAD_REACTORS
330
2C88E
102
}
330
2C88E
100
AcDbXrecord
280
     1
102
SHADEPLOT
 70
     0
102
SHADEPLOTRESLEVEL
 70
     2
102
SHADEPLOTCUSTOMDPI
 70
   200
  0
XRECORD
  5
2C8A3
102
{ACAD_REACTORS
330
2C8A2
102
}
330
2C8A2
100
AcDbXrecord
280
     1
102
SHADEPLOT
 70
     0
102
SHADEPLOTRESLEVEL
 70
     2
102
SHADEPLOTCUSTOMDPI
 70
   300
  0
XRECORD
  5
2C891
102
{ACAD_REACTORS
330
2C890
102
}
330
2C890
100
AcDbXrecord
280
     1
102
SHADEPLOT
 70
     0
102
SHADEPLOTRESLEVEL
 70
     2
102
SHADEPLOTCUSTOMDPI
 70
   200
  0
XRECORD
  5
2C8A5
102
{ACAD_REACTORS
330
2C8A4
102
}
330
2C8A4
100
AcDbXrecord
280
     1
102
SHADEPLOT
 70
     0
102
SHADEPLOTRESLEVEL
 70
     2
102
SHADEPLOTCUSTOMDPI
 70
   300
  0
XRECORD
  5
2C8A7
102
{ACAD_REACTORS
330
2C8A6
102
}
330
2C8A6
100
AcDbXrecord
280
     1
102
SHADEPLOT
 70
     0
102
SHADEPLOTRESLEVEL
 70
     2
102
SHADEPLOTCUSTOMDPI
 70
   300
  0
XRECORD
  5
2C8A9
102
{ACAD_REACTORS
330
2C8A8
102
}
330
2C8A8
100
AcDbXrecord
280
     1
102
SHADEPLOT
 70
     0
102
SHADEPLOTRESLEVEL
 70
     2
102
SHADEPLOTCUSTOMDPI
 70
   300
  0
XRECORD
  5
2C885
102
{ACAD_REACTORS
330
2C884
102
}
330
2C884
100
AcDbXrecord
280
     1
102
ACAD_ROUNDTRIP_PRE2007_TABLESTYLE
 90
        4
 91
        0
  1

 92
        4
 93
        0
  2

 94
        4
 95
        0
  3

  0
ENDSEC
  0
EOF
