  0
SECTION
  2
HEADER
  9
$ACADVER
  1
AC1015
  9
$ACADMAINTVER
 70
    20
  9
$DWGCODEPAGE
  3
ANSI_932
  9
$INSBASE
 10
0.0
 20
0.0
 30
0.0
  9
$EXTMIN
 10
-211.0058095178222
 20
-100.0041627253688
 30
-0.0000000000112497
  9
$EXTMAX
 10
170.0058148406557
 20
173.0041665393673
 30
0.0000000000002956
  9
$LIMMIN
 10
-211.0
 20
-100.0
  9
$LIMMAX
 10
170.0
 20
173.0
  9
$ORTHOMODE
 70
     1
  9
$REGENMODE
 70
     1
  9
$FILLMODE
 70
     1
  9
$QTEXTMODE
 70
     0
  9
$MIRRTEXT
 70
     1
  9
$LTSCALE
 40
1.0
  9
$ATTMODE
 70
     1
  9
$TEXTSIZE
 40
0.2
  9
$TRACEWID
 40
0.05
  9
$TEXTSTYLE
  7
STANDARD
  9
$CLAYER
  8
0
  9
$CELTYPE
  6
CONTINUOUS
  9
$CECOLOR
 62
   256
  9
$CELTSCALE
 40
1.0
  9
$DISPSILH
 70
     0
  9
$DIMSCALE
 40
1.0
  9
$DIMASZ
 40
1.0
  9
$DIMEXO
 40
2.54
  9
$DIMDLI
 40
0.38
  9
$DIMRND
 40
0.0
  9
$DIMDLE
 40
0.0
  9
$DIMEXE
 40
2.54
  9
$DIMTP
 40
0.0
  9
$DIMTM
 40
0.0
  9
$DIMTXT
 40
3.2
  9
$DIMCEN
 40
0.09
  9
$DIMTSZ
 40
0.0
  9
$DIMTOL
 70
     0
  9
$DIMLIM
 70
     0
  9
$DIMTIH
 70
     0
  9
$DIMTOH
 70
     0
  9
$DIMSE1
 70
     0
  9
$DIMSE2
 70
     0
  9
$DIMTAD
 70
     1
  9
$DIMZIN
 70
     0
  9
$DIMBLK
  1

  9
$DIMASO
 70
     1
  9
$DIMSHO
 70
     0
  9
$DIMPOST
  1

  9
$DIMAPOST
  1

  9
$DIMALT
 70
     0
  9
$DIMALTD
 70
     2
  9
$DIMALTF
 40
25.4
  9
$DIMLFAC
 40
1.0
  9
$DIMTOFL
 70
     0
  9
$DIMTVP
 40
1.0
  9
$DIMTIX
 70
     0
  9
$DIMSOXD
 70
     0
  9
$DIMSAH
 70
     1
  9
$DIMBLK1
  1

  9
$DIMBLK2
  1

  9
$DIMSTYLE
  2
DIMSTYLE
  9
$DIMCLRD
 70
     0
  9
$DIMCLRE
 70
     0
  9
$DIMCLRT
 70
     0
  9
$DIMTFAC
 40
1.0
  9
$DIMGAP
 40
1.6
  9
$DIMJUST
 70
     0
  9
$DIMSD1
 70
     0
  9
$DIMSD2
 70
     0
  9
$DIMTOLJ
 70
     1
  9
$DIMTZIN
 70
     0
  9
$DIMALTZ
 70
     0
  9
$DIMALTTZ
 70
     0
  9
$DIMUPT
 70
     0
  9
$DIMDEC
 70
     4
  9
$DIMTDEC
 70
     4
  9
$DIMALTU
 70
     2
  9
$DIMALTTD
 70
     2
  9
$DIMTXSTY
  7
STANDARD
  9
$DIMAUNIT
 70
     0
  9
$DIMADEC
 70
     0
  9
$DIMALTRND
 40
0.0
  9
$DIMAZIN
 70
     0
  9
$DIMDSEP
 70
    46
  9
$DIMATFIT
 70
     3
  9
$DIMFRAC
 70
     0
  9
$DIMLDRBLK
  1

  9
$DIMLUNIT
 70
     2
  9
$DIMLWD
 70
    -2
  9
$DIMLWE
 70
    -2
  9
$DIMTMOVE
 70
     0
  9
$LUNITS
 70
     2
  9
$LUPREC
 70
     4
  9
$SKETCHINC
 40
0.1
  9
$FILLETRAD
 40
0.0
  9
$AUNITS
 70
     0
  9
$AUPREC
 70
     0
  9
$MENU
  1
.
  9
$ELEVATION
 40
0.0
  9
$PELEVATION
 40
0.0
  9
$THICKNESS
 40
0.0
  9
$LIMCHECK
 70
     0
  9
$CHAMFERA
 40
0.0
  9
$CHAMFERB
 40
0.0
  9
$CHAMFERC
 40
0.0
  9
$CHAMFERD
 40
0.0
  9
$SKPOLY
 70
     0
  9
$TDCREATE
 40
2452816.720450011
  9
$TDUCREATE
 40
2452816.345450012
  9
$TDUPDATE
 40
2454597.603904977
  9
$TDUUPDATE
 40
2454597.228904977
  9
$TDINDWG
 40
0.0150015394
  9
$TDUSRTIMER
 40
0.0150013542
  9
$USRTIMER
 70
     1
  9
$ANGBASE
 50
0.0
  9
$ANGDIR
 70
     0
  9
$PDMODE
 70
     0
  9
$PDSIZE
 40
0.0
  9
$PLINEWID
 40
0.0
  9
$SPLFRAME
 70
     0
  9
$SPLINETYPE
 70
     6
  9
$SPLINESEGS
 70
     8
  9
$HANDSEED
  5
DA1
  9
$SURFTAB1
 70
     6
  9
$SURFTAB2
 70
     6
  9
$SURFTYPE
 70
     6
  9
$SURFU
 70
     6
  9
$SURFV
 70
     6
  9
$UCSBASE
  2

  9
$UCSNAME
  2

  9
$UCSORG
 10
0.0
 20
0.0
 30
0.0
  9
$UCSXDIR
 10
1.0
 20
0.0
 30
0.0
  9
$UCSYDIR
 10
0.0
 20
1.0
 30
0.0
  9
$UCSORTHOREF
  2

  9
$UCSORTHOVIEW
 70
     0
  9
$UCSORGTOP
 10
0.0
 20
0.0
 30
0.0
  9
$UCSORGBOTTOM
 10
0.0
 20
0.0
 30
0.0
  9
$UCSORGLEFT
 10
0.0
 20
0.0
 30
0.0
  9
$UCSORGRIGHT
 10
0.0
 20
0.0
 30
0.0
  9
$UCSORGFRONT
 10
0.0
 20
0.0
 30
0.0
  9
$UCSORGBACK
 10
0.0
 20
0.0
 30
0.0
  9
$PUCSBASE
  2

  9
$PUCSNAME
  2

  9
$PUCSORG
 10
0.0
 20
0.0
 30
0.0
  9
$PUCSXDIR
 10
1.0
 20
0.0
 30
0.0
  9
$PUCSYDIR
 10
0.0
 20
1.0
 30
0.0
  9
$PUCSORTHOREF
  2

  9
$PUCSORTHOVIEW
 70
     0
  9
$PUCSORGTOP
 10
0.0
 20
0.0
 30
0.0
  9
$PUCSORGBOTTOM
 10
0.0
 20
0.0
 30
0.0
  9
$PUCSORGLEFT
 10
0.0
 20
0.0
 30
0.0
  9
$PUCSORGRIGHT
 10
0.0
 20
0.0
 30
0.0
  9
$PUCSORGFRONT
 10
0.0
 20
0.0
 30
0.0
  9
$PUCSORGBACK
 10
0.0
 20
0.0
 30
0.0
  9
$USERI1
 70
     0
  9
$USERI2
 70
     0
  9
$USERI3
 70
     0
  9
$USERI4
 70
     0
  9
$USERI5
 70
     0
  9
$USERR1
 40
0.0
  9
$USERR2
 40
0.0
  9
$USERR3
 40
0.0
  9
$USERR4
 40
0.0
  9
$USERR5
 40
0.0
  9
$WORLDVIEW
 70
     1
  9
$SHADEDGE
 70
     3
  9
$SHADEDIF
 70
    70
  9
$TILEMODE
 70
     1
  9
$MAXACTVP
 70
    64
  9
$PINSBASE
 10
0.0
 20
0.0
 30
0.0
  9
$PLIMCHECK
 70
     0
  9
$PEXTMIN
 10
1.000000000000000E+20
 20
1.000000000000000E+20
 30
1.000000000000000E+20
  9
$PEXTMAX
 10
-1.000000000000000E+20
 20
-1.000000000000000E+20
 30
-1.000000000000000E+20
  9
$PLIMMIN
 10
-211.0
 20
-100.0
  9
$PLIMMAX
 10
170.0
 20
173.0
  9
$UNITMODE
 70
     0
  9
$VISRETAIN
 70
     1
  9
$PLINEGEN
 70
     0
  9
$PSLTSCALE
 70
     1
  9
$TREEDEPTH
 70
  3020
  9
$CMLSTYLE
  2
Standard
  9
$CMLJUST
 70
     0
  9
$CMLSCALE
 40
1.0
  9
$PROXYGRAPHICS
 70
     1
  9
$MEASUREMENT
 70
     0
  9
$CELWEIGHT
370
    -1
  9
$ENDCAPS
280
     0
  9
$JOINSTYLE
280
     0
  9
$LWDISPLAY
290
     0
  9
$INSUNITS
 70
     0
  9
$HYPERLINKBASE
  1

  9
$STYLESHEET
  1
monochrome.ctb
  9
$XEDIT
290
     1
  9
$CEPSNTYPE
380
     0
  9
$PSTYLEMODE
290
     1
  9
$FINGERPRINTGUID
  2
{7C281F75-D1BB-4117-84EE-91F53D1A6E70}
  9
$VERSIONGUID
  2
{C3626DD4-1517-41BF-A4A8-060F544A2377}
  9
$EXTNAMES
290
     1
  9
$PSVPSCALE
 40
0.0
  9
$OLESTARTUP
290
     0
  0
ENDSEC
  0
SECTION
  2
CLASSES
  0
CLASS
  1
ACDBDICTIONARYWDFLT
  2
AcDbDictionaryWithDefault
  3
ObjectDBX Classes
 90
        0
280
     0
281
     0
  0
CLASS
  1
MATERIAL
  2
AcDbMaterial
  3
ObjectDBX Classes
 90
     1024
280
     0
281
     0
  0
CLASS
  1
VISUALSTYLE
  2
AcDbVisualStyle
  3
ObjectDBX Classes
 90
     4095
280
     0
281
     0
  0
CLASS
  1
TABLESTYLE
  2
AcDbTableStyle
  3
ObjectDBX Classes
 90
     4095
280
     0
281
     0
  0
CLASS
  1
AMGSETTINGSOBJ
  2
AmgSettingsObj
  3
"AcadM|Product Description: AutoCAD Mechanical|Company: Autodesk"
 90
        0
280
     0
281
     0
  0
CLASS
  1
ACME_DOCUMENT
  2
AcMeDbDoc
  3
AcMeServices
 90
        0
280
     0
281
     0
  0
CLASS
  1
ACMESCOPE
  2
AcMeScope
  3
AcMeServices
 90
        0
280
     0
281
     0
  0
CLASS
  1
ACMECOMMANDHISTORY
  2
AcMeCommandHistory
  3
AcMeServices
 90
        0
280
     0
281
     0
  0
CLASS
  1
ACIMSYSVARMAN
  2
AcImSysVarManager
  3
AcMeServices
 90
        0
280
     0
281
     0
  0
CLASS
  1
ACIMINTSYSVAR
  2
AcImIntSysVar
  3
AcMeServices
 90
        0
280
     0
281
     0
  0
CLASS
  1
ACMEDRAWINGMAN
  2
AcMeDrawingMan
  3
AcMeServices
 90
        0
280
     0
281
     0
  0
CLASS
  1
ACMEVIEW
  2
AcMeView
  3
AcMeServices
 90
        0
280
     0
281
     0
  0
CLASS
  1
ACDBENTITYCACHE
  2
AcMeEntityCache
  3
AcMeServices
 90
        0
280
     0
281
     0
  0
CLASS
  1
GSMANAGER
  2
AcMeGSManager
  3
AcMeServices
 90
        0
280
     0
281
     0
  0
CLASS
  1
AMDTINTERNALREACTOR
  2
AmdtInternalReactor
  3
AcMeServices
 90
        0
280
     0
281
     0
  0
CLASS
  1
ACMESTATEMGR
  2
AcMeStateMgr
  3
AcMeServices
 90
        0
280
     0
281
     0
  0
CLASS
  1
ACGREFMASTER
  2
AcGrefMaster
  3
AcAttribServices
 90
        0
280
     0
281
     0
  0
CLASS
  1
AM_DRAWING_MGR
  2
AcDmDwgMgr
  3
AcMechDwgViewMgmt
 90
        0
280
     0
281
     0
  0
CLASS
  1
AM_DWG_DOCUMENT
  2
AcDmDwgDocument
  3
AcMechDwgViewMgmt
 90
        0
280
     0
281
     0
  0
CLASS
  1
AM_DWG_SHEET
  2
AcDmSheet
  3
AcMechDwgViewMgmt
 90
        0
280
     0
281
     0
  0
CLASS
  1
AM_VIEWDIMPARMAP
  2
AcDmViewDimParMap
  3
AcMechDwgViewMgmt
 90
        0
280
     0
281
     0
  0
CLASS
  1
ACIMREALSYSVAR
  2
AcImRealSysVar
  3
AcMeServices
 90
        0
280
     0
281
     0
  0
CLASS
  1
AM_DWGMGR_NAME
  2
AcDmDwgMgrName
  3
AcMechDwgViewMgmt
 90
        0
280
     0
281
     0
  0
CLASS
  1
ACME_DATABASE
  2
AcMeDbDatabase
  3
AcMeServices
 90
        0
280
     0
281
     0
  0
CLASS
  1
ACRFINSADJUSTERMGR
  2
AcRfInsAdjusterMgr
  3
AcMeServices
 90
        0
280
     0
281
     0
  0
CLASS
  1
ACGREFACADMASTER
  2
AcGrefacadMaster
  3
AcGrefServices
 90
        0
280
     0
281
     0
  0
CLASS
  1
AMDTMENUSTATEMGR
  2
AmdtMenuStateMgr
  3
McadcomServices
 90
        0
280
     0
281
     0
  0
CLASS
  1
AMDTMCOMMENUSTATE
  2
AmdtMcomMenuState
  3
McadcomServices
 90
        0
280
     0
281
     0
  0
CLASS
  1
AMIMASTER
  2
AmiMaster
  3
AmiServices
 90
        0
280
     0
281
     0
  0
CLASS
  1
MAPIAMMOUDLE
  2
MApiAmModule
  3
MApiAmServices
 90
        0
280
     0
281
     0
  0
CLASS
  1
ACIMSTRSYSVAR
  2
AcImStrSysVar
  3
AcMeServices
 90
        0
280
     0
281
     0
  0
CLASS
  1
AMDTADMENUSTATE
  2
AmdtAdMenuState
  3
DesignerServices
 90
        0
280
     0
281
     0
  0
CLASS
  1
ADAPPL
  2
AcAdAppl
  3
DesignerServices
 90
        0
280
     0
281
     0
  0
CLASS
  1
DEPMGR
  2
AcAdDepMgr
  3
DesignerServices
 90
        0
280
     0
281
     0
  0
CLASS
  1
PARAMMGR
  2
AcAdParamMgr
  3
DesignerServices
 90
        0
280
     0
281
     0
  0
CLASS
  1
PARAMSCOPE
  2
AcAdParamScope
  3
DesignerServices
 90
        0
280
     0
281
     0
  0
CLASS
  1
NAMEDAPPL
  2
AcAdNamedAppl
  3
DesignerServices
 90
        0
280
     0
281
     0
  0
CLASS
  1
AMDTDMMENUSTATE
  2
AmdtDmMenuState
  3
AcMechDwgViewMgmt
 90
        0
280
     0
281
     0
  0
CLASS
  1
AMDTAMMENUSTATE
  2
AmdtAmMenuState
  3
DesignerAssemblies
 90
        0
280
     0
281
     0
  0
CLASS
  1
ACAMPROJECT
  2
AcAmProject
  3
DesignerAssemblies
 90
        0
280
     0
281
     0
  0
CLASS
  1
ACAMGRCOMPDEF
  2
AcAmGrCompDef
  3
DesignerAssemblies
 90
        0
280
     0
281
     0
  0
CLASS
  1
ACCMCONTEXT
  2
AcCmContext
  3
DesignerAssemblies
 90
        0
280
     0
281
     0
  0
CLASS
  1
ACAMCOMPDEF
  2
AcAmCompDef
  3
DesignerAssemblies
 90
        0
280
     0
281
     0
  0
CLASS
  1
ACAMCOMPDEFMGR
  2
AcAmCompDefMgr
  3
DesignerAssemblies
 90
        0
280
     0
281
     0
  0
CLASS
  1
AMCONTEXTMGR
  2
AcAmContextMgr
  3
DesignerAssemblies
 90
        0
280
     0
281
     0
  0
CLASS
  1
ACAMCONTEXTMODELER
  2
AcAmContextModeler
  3
DesignerAssemblies
 90
        0
280
     0
281
     0
  0
CLASS
  1
ACMDATADICTIONARY
  2
AcmDataDictionary
  3
"AcmSymBB|Product Description: AutoCAD Mechanical|Company: Autodesk"
 90
        0
280
     0
281
     0
  0
CLASS
  1
CATALOGSTATE
  2
AcAmCatalogState
  3
DesignerAssemblies
 90
        0
280
     0
281
     0
  0
CLASS
  1
ACAMGRCOMPDEFSET
  2
AcAmGrCompDefSet
  3
DesignerAssemblies
 90
        0
280
     0
281
     0
  0
CLASS
  1
AMDTBROWSERDBTAB
  2
AmdtBrowserDbTab
  3
McadcomServices
 90
        0
280
     0
281
     0
  0
CLASS
  1
CBROWSERAPPOBJECT
  2
CBrowserAppObject
  3
McadcomServices
 90
        0
280
     0
281
     0
  0
CLASS
  1
DM_PLACEHOLDER
  2
AcDmSelsetPlaceholder
  3
AcMechDwgViewMgmt
 90
        0
280
     0
281
     0
  0
CLASS
  1
ACMSTANDARDANSI
  2
AcmStandardANSI
  3
"Amdt_StdImp|Product Description: AutoCAD Mechanical|Company: Autodesk"
 90
        0
280
     0
281
     0
  0
CLASS
  1
AMGOBJPROPCFG
  2
AmgObjPropCfg
  3
"AmgLay|Product Description: AutoCAD Mechanical|Company: Autodesk"
 90
        1
280
     0
281
     0
  0
CLASS
  1
ACMSURFSTANDARDANSI
  2
AcmSurfTextStdANSI
  3
"Amdt_StdImp|Product Description: AutoCAD Mechanical|Company: Autodesk"
 90
        0
280
     0
281
     0
  0
CLASS
  1
ACMFCFSTANDARDANSI
  2
AcmFCFStdANSI
  3
"Amdt_StdImp|Product Description: AutoCAD Mechanical|Company: Autodesk"
 90
        0
280
     0
281
     0
  0
CLASS
  1
ACMWELDSTANDARDANSI
  2
AcmWeldingStdANSI
  3
"Amdt_StdImp|Product Description: AutoCAD Mechanical|Company: Autodesk"
 90
        0
280
     0
281
     0
  0
CLASS
  1
ACMIDSTANDARDANSI
  2
AcmIdStdANSI
  3
"Amdt_StdImp|Product Description: AutoCAD Mechanical|Company: Autodesk"
 90
        0
280
     0
281
     0
  0
CLASS
  1
ACMDATUMSTANDARDANSI
  2
AcmDatumStdANSI
  3
"Amdt_StdImp|Product Description: AutoCAD Mechanical|Company: Autodesk"
 90
        0
280
     0
281
     0
  0
CLASS
  1
ACMBOMSTANDARDANSI
  2
AcmBOMStdANSI
  3
"Amdt_StdImp|Product Description: AutoCAD Mechanical|Company: Autodesk"
 90
        0
280
     0
281
     0
  0
CLASS
  1
ACMDETAILSTANDARDANSI
  2
AmdtDetailSymStdANSI
  3
"Amdt_StdImp|Product Description: AutoCAD Mechanical|Company: Autodesk"
 90
        0
280
     0
281
     0
  0
CLASS
  1
ACMSECTIONSTANDARDANSI
  2
AmdtSectionSymStdANSI
  3
"Amdt_StdImp|Product Description: AutoCAD Mechanical|Company: Autodesk"
 90
        0
280
     0
281
     0
  0
CLASS
  1
ACMCENTERLINESTANDARDANSI
  2
AmdtCenterLineStdANSI
  3
"Amdt_StdImp|Product Description: AutoCAD Mechanical|Company: Autodesk"
 90
        0
280
     0
281
     0
  0
CLASS
  1
ACMTHREADLINESTANDARDANSI
  2
AmdtThreadLineStdANSI
  3
"Amdt_StdImp|Product Description: AutoCAD Mechanical|Company: Autodesk"
 90
        0
280
     0
281
     0
  0
CLASS
  1
ACMNOTESTANDARDANSI
  2
AmdtNoteStdANSI
  3
"Amdt_StdImp|Product Description: AutoCAD Mechanical|Company: Autodesk"
 90
        0
280
     0
281
     0
  0
CLASS
  1
ACMTAPERSTANDARDANSI
  2
AcmTaperStdANSI
  3
"Amdt_StdImp|Product Description: AutoCAD Mechanical|Company: Autodesk"
 90
        0
280
     0
281
     0
  0
CLASS
  1
AMDTNOTETEMPLATEDB
  2
AmdtNoteTemplateDB
  3
AMDT_STDIMP_MODULE_NAME
 90
        0
280
     0
281
     0
  0
CLASS
  1
ACAMGLAYSTD
  2
AcAmgLayStd
  3
"AmgLay|Product Description: AutoCAD Mechanical|Company: Autodesk"
 90
        0
280
     0
281
     0
  0
CLASS
  1
ACAMGDIMSTD
  2
AcAmgDimStd
  3
"AmgDim|Product Description: AutoCAD Mechanical|Company: Autodesk"
 90
        0
280
     0
281
     0
  0
CLASS
  1
ACAMGHOLECHARTSTDANSI
  2
AcAmgHoleChartStdANSI
  3
ACMSYMBB_MODULE_NAME
 90
        0
280
     0
281
     0
  0
CLASS
  1
ACAMGTITLESTD
  2
AcAmgTitleStd
  3
"AmgTitle|Product Description: AutoCAD Mechanical|Company: Autodesk"
 90
        0
280
     0
281
     0
  0
CLASS
  1
ACAMGFILTERDAT
  2
AcAmgFilterDat
  3
"AcadM|Product Description: AutoCAD Mechanical|Company: Autodesk"
 90
        0
280
     0
281
     0
  0
CLASS
  1
CAMSSTRUCTBTNSTATE
  2
StructBtnState
  3
L"DesignerAssemblies"
 90
        0
280
     0
281
     0
  0
CLASS
  1
DICTIONARYVAR
  2
AcDbDictionaryVar
  3
ObjectDBX Classes
 90
        0
280
     0
281
     0
  0
CLASS
  1
SORTENTSTABLE
  2
AcDbSortentsTable
  3
ObjectDBX Classes
 90
        0
280
     0
281
     0
  0
CLASS
  1
ACMSTANDARDISO
  2
AcmStandardISO
  3
"Amdt_StdImp|Product Description: AutoCAD Mechanical|Company: Autodesk"
 90
        0
280
     0
281
     0
  0
CLASS
  1
AMDTEDGESTANDARDISO
  2
AmdtEdgeStdISO
  3
"Amdt_StdImp|Product Description: AutoCAD Mechanical|Company: Autodesk"
 90
        0
280
     0
281
     0
  0
CLASS
  1
ACMSURFSTANDARDISO
  2
AcmSurfTextStdISO
  3
"Amdt_StdImp|Product Description: AutoCAD Mechanical|Company: Autodesk"
 90
        0
280
     0
281
     0
  0
CLASS
  1
ACMFCFSTANDARDISO
  2
AcmFCFStdISO
  3
"Amdt_StdImp|Product Description: AutoCAD Mechanical|Company: Autodesk"
 90
        0
280
     0
281
     0
  0
CLASS
  1
ACMWELDSTANDARDISO
  2
AcmWeldingStdISO
  3
"Amdt_StdImp|Product Description: AutoCAD Mechanical|Company: Autodesk"
 90
        0
280
     0
281
     0
  0
CLASS
  1
ACMIDSTANDARDISO
  2
AcmIdStdISO
  3
"Amdt_StdImp|Product Description: AutoCAD Mechanical|Company: Autodesk"
 90
        0
280
     0
281
     0
  0
CLASS
  1
ACMDATUMSTANDARDISO
  2
AcmDatumStdISO
  3
"Amdt_StdImp|Product Description: AutoCAD Mechanical|Company: Autodesk"
 90
        0
280
     0
281
     0
  0
CLASS
  1
ACMBOMSTANDARDISO
  2
AcmBOMStdISO
  3
"Amdt_StdImp|Product Description: AutoCAD Mechanical|Company: Autodesk"
 90
        0
280
     0
281
     0
  0
CLASS
  1
ACMDETAILSTANDARDISO
  2
AmdtDetailSymStdISO
  3
"Amdt_StdImp|Product Description: AutoCAD Mechanical|Company: Autodesk"
 90
        0
280
     0
281
     0
  0
CLASS
  1
ACMSECTIONSTANDARDISO
  2
AmdtSectionSymStdISO
  3
"Amdt_StdImp|Product Description: AutoCAD Mechanical|Company: Autodesk"
 90
        0
280
     0
281
     0
  0
CLASS
  1
ACMCENTERLINESTANDARDISO
  2
AmdtCenterLineStdISO
  3
"Amdt_StdImp|Product Description: AutoCAD Mechanical|Company: Autodesk"
 90
        0
280
     0
281
     0
  0
CLASS
  1
ACMNOTESTANDARDISO
  2
AmdtNoteStdISO
  3
"Amdt_StdImp|Product Description: AutoCAD Mechanical|Company: Autodesk"
 90
        0
280
     0
281
     0
  0
CLASS
  1
ACMTHREADLINESTANDARDISO
  2
AmdtThreadLineStdISO
  3
"Amdt_StdImp|Product Description: AutoCAD Mechanical|Company: Autodesk"
 90
        0
280
     0
281
     0
  0
CLASS
  1
ACMTAPERSTANDARDISO
  2
AcmTaperStdISO
  3
"Amdt_StdImp|Product Description: AutoCAD Mechanical|Company: Autodesk"
 90
        0
280
     0
281
     0
  0
CLASS
  1
ACMDATAENTRYBLOCK
  2
AcmDataEntryBlock
  3
"AcmSymBB|Product Description: AutoCAD Mechanical|Company: Autodesk"
 90
        0
280
     0
281
     0
  0
CLASS
  1
ACDBPLACEHOLDER
  2
AcDbPlaceHolder
  3
ObjectDBX Classes
 90
        0
280
     0
281
     0
  0
CLASS
  1
LAYOUT
  2
AcDbLayout
  3
ObjectDBX Classes
 90
        0
280
     0
281
     0
  0
ENDSEC
  0
SECTION
  2
TABLES
  0
TABLE
  2
VPORT
  5
383
330
0
100
AcDbSymbolTable
 70
     1
  0
VPORT
  5
3B5
330
383
100
AcDbSymbolTableRecord
100
AcDbViewportTableRecord
  2
*ACTIVE
 70
     0
 10
0.0
 20
0.0
 11
1.0
 21
1.0
 12
-8.545980048694048
 22
30.21304703059679
 13
0.0
 23
0.0
 14
1.0
 24
1.0
 15
0.0
 25
0.0
 16
0.0
 26
0.0
 36
1.0
 17
0.0
 27
0.0
 37
0.0
 40
318.3655722650973
 41
1.718510405257393
 42
50.0
 43
0.0
 44
0.0
 50
0.0
 51
0.0
 71
     0
 72
   100
 73
     1
 74
     1
 75
     0
 76
     0
 77
     0
 78
     0
281
     0
 65
     0
110
0.0
120
0.0
130
0.0
111
1.0
121
0.0
131
0.0
112
0.0
122
1.0
132
0.0
 79
     0
146
0.0
  0
ENDTAB
  0
TABLE
  2
LTYPE
  5
380
330
0
100
AcDbSymbolTable
 70
    34
  0
LTYPE
  5
3A3
330
380
100
AcDbSymbolTableRecord
100
AcDbLinetypeTableRecord
  2
ByBlock
 70
     0
  3

 72
    65
 73
     0
 40
0.0
  0
LTYPE
  5
3A4
330
380
100
AcDbSymbolTableRecord
100
AcDbLinetypeTableRecord
  2
ByLayer
 70
     0
  3

 72
    65
 73
     0
 40
0.0
  0
LTYPE
  5
3A5
330
380
100
AcDbSymbolTableRecord
100
AcDbLinetypeTableRecord
  2
CONTINUOUS
 70
     0
  3
Solid line
 72
    65
 73
     0
 40
0.0
  0
LTYPE
  5
3B6
330
380
100
AcDbSymbolTableRecord
100
AcDbLinetypeTableRecord
  2
DASHED
 70
     0
  3
__ __ __ __ __ __ __ __ __ __ __ __ __ __ __
 72
    65
 73
     2
 40
3.5
 49
2.0
 74
     0
 49
-1.5
 74
     0
  0
LTYPE
  5
3B7
330
380
100
AcDbSymbolTableRecord
100
AcDbLinetypeTableRecord
  2
CENTER
 70
     0
  3
____ _ ____ _ ____ _ ____ _ ____ _ ____ _ ____
 72
    65
 73
     4
 40
17.5
 49
13.0
 74
     0
 49
-1.5
 74
     0
 49
1.5
 74
     0
 49
-1.5
 74
     0
  0
LTYPE
  5
3B8
330
380
100
AcDbSymbolTableRecord
100
AcDbLinetypeTableRecord
  2
PHANTOM
 70
     0
  3
_____ _ _ _____ _ _ _____ _ _ _____ _ _ ____  
 72
    65
 73
     6
 40
15.5
 49
8.0
 74
     0
 49
-1.5
 74
     0
 49
1.5
 74
     0
 49
-1.5
 74
     0
 49
1.5
 74
     0
 49
-1.5
 74
     0
  0
LTYPE
  5
3B9
330
380
100
AcDbSymbolTableRecord
100
AcDbLinetypeTableRecord
  2
DOT
 70
     0
  3
. . . . . . . . . . . . . . . . . . . . . . . .
 72
    65
 73
     2
 40
0.25
 49
0.0
 74
     0
 49
-0.25
 74
     0
  0
LTYPE
  5
3BA
330
380
100
AcDbSymbolTableRecord
100
AcDbLinetypeTableRecord
  2
HIDDEN
 70
     0
  3
__ __ __ __ __ __ __ __ __ __ __ __ __ __ __
 72
    65
 73
     2
 40
3.5
 49
2.0
 74
     0
 49
-1.5
 74
     0
  0
LTYPE
  5
448
330
380
100
AcDbSymbolTableRecord
100
AcDbLinetypeTableRecord
  2
PHANTOM2
 70
     0
  3
Phantom (.5x) ___ _ _ ___ _ _ ___ _ _ ___ _ _
 72
    65
 73
     6
 40
1.25
 49
0.625
 74
     0
 49
-0.125
 74
     0
 49
0.125
 74
     0
 49
-0.125
 74
     0
 49
0.125
 74
     0
 49
-0.125
 74
     0
  0
LTYPE
  5
47D
330
380
100
AcDbSymbolTableRecord
100
AcDbLinetypeTableRecord
  2
AM_ISO02W050
 70
     0
  3
__ __ __ __ __ __ __ __ __ __ __ __ __ __ __
 72
    65
 73
     2
 40
7.5
 49
6.0
 74
     0
 49
-1.5
 74
     0
  0
LTYPE
  5
47E
330
380
100
AcDbSymbolTableRecord
100
AcDbLinetypeTableRecord
  2
AM_ISO08W050
 70
     0
  3
____ . ____ . ____ . ____ . ____ . ____ . ____
 72
    65
 73
     4
 40
18.0
 49
12.0
 74
     0
 49
-1.5
 74
     0
 49
3.0
 74
     0
 49
-1.5
 74
     0
  0
LTYPE
  5
47F
330
380
100
AcDbSymbolTableRecord
100
AcDbLinetypeTableRecord
  2
AM_ISO09W050
 70
     0
  3
_____ . . _____ . . _____ . . ____ .. ____
 72
    65
 73
     6
 40
22.5
 49
12.0
 74
     0
 49
-1.5
 74
     0
 49
3.0
 74
     0
 49
-1.5
 74
     0
 49
3.0
 74
     0
 49
-1.5
 74
     0
  0
LTYPE
  5
480
330
380
100
AcDbSymbolTableRecord
100
AcDbLinetypeTableRecord
  2
Amconstr
 70
     0
  3
_______________________
 72
    65
 73
     2
 40
9999.0
 49
9999.0
 74
     0
 49
0.0
 74
     0
  0
LTYPE
  5
481
330
380
100
AcDbSymbolTableRecord
100
AcDbLinetypeTableRecord
  2
AM_ISO08W050x2
 70
     0
  3
__ . __ . __ . __ . __ . __
 72
    65
 73
     4
 40
9.0
 49
6.0
 74
     0
 49
-0.75
 74
     0
 49
1.5
 74
     0
 49
-0.75
 74
     0
  0
LTYPE
  5
482
330
380
100
AcDbSymbolTableRecord
100
AcDbLinetypeTableRecord
  2
AM_ISO02W050x2
 70
     0
  3
 _ _ _ _ _ _ _ _ _ _ _ _
 72
    65
 73
     2
 40
3.75
 49
3.0
 74
     0
 49
-0.75
 74
     0
  0
LTYPE
  5
485
330
380
100
AcDbSymbolTableRecord
100
AcDbLinetypeTableRecord
  2
Amzigzag
 70
     0
  3
/\/-/\/-/\/-/\/-/\/-/\/
 72
    65
 73
     2
 40
11.0001
 49
0.0001
 74
     4
 75
   136
340
484
 46
0.04
 50
0.0
 44
0.0
 45
0.0
 49
-11.0
 74
     0
  0
LTYPE
  5
486
330
380
100
AcDbSymbolTableRecord
100
AcDbLinetypeTableRecord
  2
CENTER2
 70
     0
  3
Center (.5x) ___ _ ___ _ ___ _ ___ _ ___ _ ___
 72
    65
 73
     4
 40
1.125
 49
0.75
 74
     0
 49
-0.125
 74
     0
 49
0.125
 74
     0
 49
-0.125
 74
     0
  0
LTYPE
  5
487
330
380
100
AcDbSymbolTableRecord
100
AcDbLinetypeTableRecord
  2
HIDDEN2
 70
     0
  3
Hidden (.5x) _ _ _ _ _ _ _ _ _ _ _ _ _ _ _ _ _
 72
    65
 73
     2
 40
0.1875
 49
0.125
 74
     0
 49
-0.0625
 74
     0
  0
LTYPE
  5
488
330
380
100
AcDbSymbolTableRecord
100
AcDbLinetypeTableRecord
  2
Amzigzag2
 70
     0
  3
/\/-/\/-/\/-/\/-/\/-/\/
 72
    65
 73
     2
 40
0.4401
 49
0.0001
 74
     4
 75
   136
340
484
 46
0.0016
 50
0.0
 44
0.0
 45
0.0
 49
-0.4400000000000001
 74
     0
  0
LTYPE
  5
497
330
380
100
AcDbSymbolTableRecord
100
AcDbLinetypeTableRecord
  2
ACANSTGB
 70
     0
  3
__ . . __ . .
 72
    65
 73
     6
 40
0.35433070866
 49
0.15748031496
 74
     0
 49
-0.03937007874
 74
     0
 49
0.03937007874
 74
     0
 49
-0.03937007874
 74
     0
 49
0.03937007874
 74
     0
 49
-0.03937007874
 74
     0
  0
LTYPE
  5
498
330
380
100
AcDbSymbolTableRecord
100
AcDbLinetypeTableRecord
  2
ACANSTGL
 70
     0
  3
_ _ _ _ _
 72
    65
 73
     2
 40
0.11811023622
 49
0.07874015748
 74
     0
 49
-0.03937007874
 74
     0
  0
LTYPE
  5
67F
330
380
100
AcDbSymbolTableRecord
100
AcDbLinetypeTableRecord
  2
ACISOWELD
 70
     0
  3
_ _ _ _ _
 72
    65
 73
     2
 40
2.0
 49
2.0
 74
     0
 49
-1.0
 74
     0
  0
LTYPE
  5
680
330
380
100
AcDbSymbolTableRecord
100
AcDbLinetypeTableRecord
  2
ACISOTGB
 70
     0
  3
__ . . __ . .
 72
    65
 73
     6
 40
9.0
 49
4.0
 74
     0
 49
-1.0
 74
     0
 49
1.0
 74
     0
 49
-1.0
 74
     0
 49
1.0
 74
     0
 49
-1.0
 74
     0
  0
LTYPE
  5
681
330
380
100
AcDbSymbolTableRecord
100
AcDbLinetypeTableRecord
  2
ACISOTGL
 70
     0
  3
_ _ _ _ _
 72
    65
 73
     2
 40
3.0
 49
2.0
 74
     0
 49
-1.0
 74
     0
  0
LTYPE
  5
682
330
380
100
AcDbSymbolTableRecord
100
AcDbLinetypeTableRecord
  2
中線
 70
     0
  3
___________________
 72
    65
 73
     2
 40
2.0
 49
1.0
 74
     0
 49
1.0
 74
     0
  0
LTYPE
  5
683
330
380
100
AcDbSymbolTableRecord
100
AcDbLinetypeTableRecord
  2
細線
 70
     0
  3
___________________
 72
    65
 73
     2
 40
2.0
 49
1.0
 74
     0
 49
1.0
 74
     0
  0
LTYPE
  5
684
330
380
100
AcDbSymbolTableRecord
100
AcDbLinetypeTableRecord
  2
太線
 70
     0
  3
___________________
 72
    65
 73
     2
 40
2.0
 49
1.0
 74
     0
 49
1.0
 74
     0
  0
LTYPE
  5
685
330
380
100
AcDbSymbolTableRecord
100
AcDbLinetypeTableRecord
  2
文字
 70
     0
  3
_________________
 72
    65
 73
     2
 40
2.0
 49
1.0
 74
     0
 49
1.0
 74
     0
  0
LTYPE
  5
686
330
380
100
AcDbSymbolTableRecord
100
AcDbLinetypeTableRecord
  2
寸法線
 70
     0
  3
________________
 72
    65
 73
     2
 40
2.0
 49
1.0
 74
     0
 49
1.0
 74
     0
  0
LTYPE
  5
687
330
380
100
AcDbSymbolTableRecord
100
AcDbLinetypeTableRecord
  2
ハッチング
 70
     0
  3
_________________
 72
    65
 73
     2
 40
2.0
 49
1.0
 74
     0
 49
1.0
 74
     0
  0
LTYPE
  5
688
330
380
100
AcDbSymbolTableRecord
100
AcDbLinetypeTableRecord
  2
陰線1
 70
     0
  3
__ __ __ __
 72
    65
 73
     2
 40
4.0
 49
2.2
 74
     0
 49
-1.8
 74
     0
  0
LTYPE
  5
689
330
380
100
AcDbSymbolTableRecord
100
AcDbLinetypeTableRecord
  2
切断線
 70
     0
  3
/\/-/\/-/\/-/\/-/\/-/\/
 72
    65
 73
     2
 40
11.0001
 49
0.0001
 74
     4
 75
   135
340
695
 46
0.04
 50
0.0
 44
0.0
 45
0.0
 49
-11.0
 74
     0
  0
LTYPE
  5
68A
330
380
100
AcDbSymbolTableRecord
100
AcDbLinetypeTableRecord
  2
想像線1
 70
     0
  3
__ __ __ _____ __ __ ____
 72
    65
 73
     6
 40
14.5
 49
6.0
 74
     0
 49
-1.5
 74
     0
 49
2.0
 74
     0
 49
-1.5
 74
     0
 49
2.0
 74
     0
 49
-1.5
 74
     0
  0
LTYPE
  5
68B
330
380
100
AcDbSymbolTableRecord
100
AcDbLinetypeTableRecord
  2
中心線1
 70
     0
  3
___ _ ___ _ ___
 72
    65
 73
     4
 40
18.0
 49
12.0
 74
     0
 49
-2.0
 74
     0
 49
2.0
 74
     0
 49
-2.0
 74
     0
  0
LTYPE
  5
68C
330
380
100
AcDbSymbolTableRecord
100
AcDbLinetypeTableRecord
  2
補助線
 70
     0
  3
______________
 72
    65
 73
     2
 40
2.0
 49
1.0
 74
     0
 49
1.0
 74
     0
  0
ENDTAB
  0
TABLE
  2
LAYER
  5
37D
102
{ACAD_XDICTIONARY
360
6A5
102
}
330
0
100
AcDbSymbolTable
 70
    12
  0
LAYER
  5
3A0
330
37D
100
AcDbSymbolTableRecord
100
AcDbLayerTableRecord
  2
0
 70
     0
 62
     7
  6
CONTINUOUS
370
    -3
390
38A
  0
LAYER
  5
3BB
330
37D
100
AcDbSymbolTableRecord
100
AcDbLayerTableRecord
  2
1
 70
     0
 62
     7
  6
CONTINUOUS
370
    -3
390
38A
  0
LAYER
  5
3BC
330
37D
100
AcDbSymbolTableRecord
100
AcDbLayerTableRecord
  2
2
 70
     0
 62
     7
  6
CONTINUOUS
370
    -3
390
38A
  0
LAYER
  5
3BD
330
37D
100
AcDbSymbolTableRecord
100
AcDbLayerTableRecord
  2
DEFPOINTS
 70
     0
 62
     7
  6
CONTINUOUS
290
     0
370
    -3
390
38A
  0
LAYER
  5
68D
330
37D
100
AcDbSymbolTableRecord
100
AcDbLayerTableRecord
  2
AM_0
 70
     0
 62
     7
  6
CONTINUOUS
370
    30
390
38A
1001
AcAecLayerStandard
1000

1000

  0
LAYER
  5
68E
330
37D
100
AcDbSymbolTableRecord
100
AcDbLayerTableRecord
  2
AM_2
 70
     0
 62
     5
  6
CONTINUOUS
370
    30
390
38A
1001
AcAecLayerStandard
1000

1000

  0
LAYER
  5
68F
330
37D
100
AcDbSymbolTableRecord
100
AcDbLayerTableRecord
  2
AM_3
 70
     0
 62
     6
  6
HIDDEN
370
    15
390
38A
1001
AcAecLayerStandard
1000

1000

  0
LAYER
  5
690
330
37D
100
AcDbSymbolTableRecord
100
AcDbLayerTableRecord
  2
AM_5
 70
     0
 62
     3
  6
CONTINUOUS
370
    15
390
38A
1001
AcAecLayerStandard
1000

1000

  0
LAYER
  5
691
330
37D
100
AcDbSymbolTableRecord
100
AcDbLayerTableRecord
  2
AM_7
 70
     0
 62
     4
  6
CENTER
370
    15
390
38A
1001
AcAecLayerStandard
1000

1000

  0
LAYER
  5
692
330
37D
100
AcDbSymbolTableRecord
100
AcDbLayerTableRecord
  2
AM_11
 70
     0
 62
     3
  6
PHANTOM2
370
    15
390
38A
1001
AcAecLayerStandard
1000

1000

  0
LAYER
  5
693
330
37D
100
AcDbSymbolTableRecord
100
AcDbLayerTableRecord
  2
AM_CL
 70
     0
 62
     1
  6
Amconstr
370
    15
390
38A
1001
AcAecLayerStandard
1000

1000

  0
LAYER
  5
694
330
37D
100
AcDbSymbolTableRecord
100
AcDbLayerTableRecord
  2
P0210
 70
     0
 62
     7
  6
CONTINUOUS
370
    -3
390
38A
  0
ENDTAB
  0
TABLE
  2
STYLE
  5
37E
330
0
100
AcDbSymbolTable
 70
     8
  0
STYLE
  5
3A1
330
37E
100
AcDbSymbolTableRecord
100
AcDbTextStyleTableRecord
  2
STANDARD
 70
     0
 40
0.0
 41
1.0
 50
0.0
 71
     0
 42
0.2
  3
txt
  4
BIGFONT
  0
STYLE
  5
484
330
37E
100
AcDbSymbolTableRecord
100
AcDbTextStyleTableRecord
  2

 70
     1
 40
0.0
 41
1.0
 50
0.0
 71
     0
 42
0.2
  3
genltshp.shx
  4

  0
STYLE
  5
489
330
37E
100
AcDbSymbolTableRecord
100
AcDbTextStyleTableRecord
  2
ACANSTS
 70
     0
 40
1.0
 41
1.0
 50
0.0
 71
     0
 42
0.2
  3
romans.shx
  4
extfont.shx
  0
STYLE
  5
496
330
37E
100
AcDbSymbolTableRecord
100
AcDbTextStyleTableRecord
  2
ACANSGDT
 70
     0
 40
0.0
 41
1.0
 50
0.0
 71
     0
 42
0.2
  3
amgdt.shx
  4

  0
STYLE
  5
695
330
37E
100
AcDbSymbolTableRecord
100
AcDbTextStyleTableRecord
  2

 70
     1
 40
0.0
 41
1.0
 50
0.0
 71
     0
 42
2.5
  3
ltypeshp.shx
  4

  0
STYLE
  5
696
330
37E
100
AcDbSymbolTableRecord
100
AcDbTextStyleTableRecord
  2
ACISOTS
 70
     0
 40
1.0
 41
1.0
 50
0.0
 71
     0
 42
2.5
  3
isocp.shx
  4
extfont.shx
  0
STYLE
  5
697
330
37E
100
AcDbSymbolTableRecord
100
AcDbTextStyleTableRecord
  2
ACISOGDT
 70
     0
 40
0.0
 41
1.0
 50
0.0
 71
     0
 42
2.5
  3
amgdt.shx
  4

  0
ENDTAB
  0
TABLE
  2
VIEW
  5
381
330
0
100
AcDbSymbolTable
 70
     0
  0
ENDTAB
  0
TABLE
  2
UCS
  5
382
330
0
100
AcDbSymbolTable
 70
     0
  0
ENDTAB
  0
TABLE
  2
APPID
  5
384
330
0
100
AcDbSymbolTable
 70
    14
  0
APPID
  5
3A2
330
384
100
AcDbSymbolTableRecord
100
AcDbRegAppTableRecord
  2
ACAD
 70
     0
  0
APPID
  5
41B
330
384
100
AcDbSymbolTableRecord
100
AcDbRegAppTableRecord
  2
MCAD_NO_VIS
 70
     0
  0
APPID
  5
41C
330
384
100
AcDbSymbolTableRecord
100
AcDbRegAppTableRecord
  2
ACAD_TEMP_GRAPHIC
 70
     0
  0
APPID
  5
44A
330
384
100
AcDbSymbolTableRecord
100
AcDbRegAppTableRecord
  2
AD_DRAW
 70
     0
  0
APPID
  5
44D
330
384
100
AcDbSymbolTableRecord
100
AcDbRegAppTableRecord
  2
ACATTRIBSERVICES
 70
     0
  0
APPID
  5
46E
330
384
100
AcDbSymbolTableRecord
100
AcDbRegAppTableRecord
  2
DESIGNERASSEMBLIES
 70
     0
  0
APPID
  5
474
330
384
100
AcDbSymbolTableRecord
100
AcDbRegAppTableRecord
  2
ACADM_DIM_EDIT
 70
     0
  0
APPID
  5
475
330
384
100
AcDbSymbolTableRecord
100
AcDbRegAppTableRecord
  2
AMDT_DM_ADJ
 70
     0
  0
APPID
  5
6A1
330
384
100
AcDbSymbolTableRecord
100
AcDbRegAppTableRecord
  2
GENIUS_GENDTOL_13
 70
     0
  0
APPID
  5
6A2
330
384
100
AcDbSymbolTableRecord
100
AcDbRegAppTableRecord
  2
ACAD_DSTYLE_DIMJOGGED_JOGANGLE_SYMBOL
 70
     0
  0
APPID
  5
6A3
330
384
100
AcDbSymbolTableRecord
100
AcDbRegAppTableRecord
  2
ACAD_PSEXT
 70
     0
  0
APPID
  5
6A4
330
384
100
AcDbSymbolTableRecord
100
AcDbRegAppTableRecord
  2
AcAecLayerStandard
 70
     0
  0
APPID
  5
D6C
330
384
100
AcDbSymbolTableRecord
100
AcDbRegAppTableRecord
  2
ACAD_EXEMPT_FROM_CAD_STANDARDS
 70
     0
  0
APPID
  5
DA0
330
384
100
AcDbSymbolTableRecord
100
AcDbRegAppTableRecord
  2
ACAD_DSTYLE_DIMARC_LENGTH_SYMBOL
 70
     0
  0
ENDTAB
  0
TABLE
  2
DIMSTYLE
  5
385
330
0
100
AcDbSymbolTable
 70
    18
100
AcDbDimStyleTable
 71
     1
340
3BE
  0
DIMSTYLE
105
3BE
102
{ACAD_REACTORS
330
344
330
345
330
346
330
347
330
349
330
34A
330
34B
330
34C
330
34D
330
34E
330
34F
330
350
330
351
330
352
330
353
330
355
330
356
330
357
330
35A
330
35B
330
35C
330
35D
330
35E
330
35F
330
360
330
361
330
362
330
363
330
364
330
365
330
367
330
368
102
}
330
385
100
AcDbSymbolTableRecord
100
AcDbDimStyleTableRecord
  2
DIMSTYLE
 70
     0
 41
1.0
 42
2.54
 44
2.54
 73
     0
 74
     0
140
3.2
147
1.6
173
     1
279
     2
340
3A1
  0
DIMSTYLE
105
4A4
330
385
100
AcDbSymbolTableRecord
100
AcDbDimStyleTableRecord
  2
AM_ANSI
 70
     0
  4
mm
 41
0.1
 42
0.05
 43
0.5
 44
0.1
 47
0.1
 48
0.1
 78
     7
 79
     2
140
0.12
141
0.0
146
0.71
147
0.06
176
   256
177
   256
178
     2
274
     4
284
     7
340
3A1
371
    -1
372
    -1
1001
ACAD_DSTYLE_DIMARC_LENGTH_SYMBOL
1070
   379
1070
     1
  0
DIMSTYLE
105
4A5
330
385
100
AcDbSymbolTableRecord
100
AcDbDimStyleTableRecord
  2
AM_ANSI$3
 70
     0
  4
mm
 41
0.1
 42
0.05
 43
0.5
 44
0.1
 47
0.1
 48
0.1
 78
     7
 79
     2
140
0.12
141
0.0
146
0.71
147
0.06
176
   256
177
   256
178
     2
274
     4
284
     7
288
     1
289
     0
340
3A1
371
    -1
372
    -1
1001
ACAD_DSTYLE_DIMARC_LENGTH_SYMBOL
1070
   379
1070
     1
  0
DIMSTYLE
105
4A6
330
385
100
AcDbSymbolTableRecord
100
AcDbDimStyleTableRecord
  2
AM_ANSI$4
 70
     0
  4
mm
 41
0.1
 42
0.05
 43
0.5
 44
0.1
 47
0.1
 48
0.1
 78
     7
 79
     2
140
0.12
141
0.0
146
0.71
147
0.06
176
   256
177
   256
178
     2
274
     4
284
     7
288
     1
289
     0
340
3A1
371
    -1
372
    -1
1001
ACAD_DSTYLE_DIMARC_LENGTH_SYMBOL
1070
   379
1070
     1
  0
DIMSTYLE
105
4A7
330
385
100
AcDbSymbolTableRecord
100
AcDbDimStyleTableRecord
  2
AM_ANSI$7
 70
     0
  4
mm
 41
0.1
 42
0.05
 43
0.5
 44
0.1
 47
0.1
 48
0.1
 78
     7
 79
     2
140
0.24
141
0.0
146
0.71
147
0.06
176
   256
177
   256
178
     2
274
     4
284
     7
340
3A1
371
    -1
372
    -1
1001
ACAD_DSTYLE_DIMARC_LENGTH_SYMBOL
1070
   379
1070
     1
  0
DIMSTYLE
105
4A8
330
385
100
AcDbSymbolTableRecord
100
AcDbDimStyleTableRecord
  2
AM_ANSI$SF
 70
     0
  4
mm
 41
0.1
 42
0.05
 43
0.5
 44
0.1
 47
0.1
 48
0.1
 75
     1
 76
     1
 78
     7
 79
     2
140
0.12
141
0.0
146
0.71
147
0.06
176
   256
177
   256
178
     2
274
     4
284
     7
340
3A1
371
    -1
372
    -1
1001
ACAD_DSTYLE_DIMARC_LENGTH_SYMBOL
1070
   379
1070
     1
  0
DIMSTYLE
105
4AD
330
385
100
AcDbSymbolTableRecord
100
AcDbDimStyleTableRecord
  2
AM_ANSI$SH
 70
     0
  4
mm
 41
0.1
 42
0.05
 43
0.5
 44
0.1
 47
0.1
 48
0.1
 75
     1
 76
     1
 78
     7
 79
     2
140
0.12
141
0.0
146
0.71
147
0.06
173
     1
176
   256
177
   256
178
     2
274
     4
284
     7
340
3A1
343
4A9
371
    -1
372
    -1
1001
ACAD_DSTYLE_DIMARC_LENGTH_SYMBOL
1070
   379
1070
     1
  0
DIMSTYLE
105
698
330
385
100
AcDbSymbolTableRecord
100
AcDbDimStyleTableRecord
  2
SYS
 70
     0
  4
"
 41
1.0
 42
1.0
 43
10.0
 44
1.0
 47
0.1
 48
0.1
 73
     0
 74
     0
 77
     1
 78
     8
 79
     2
140
3.5
141
0.0
143
0.0393701
146
0.71
147
1.5
172
     1
176
   256
177
   256
178
     7
271
     2
272
     2
283
     0
284
     8
340
3A1
371
    -1
372
    -1
1001
ACAD_DSTYLE_DIMJOGGED_JOGANGLE_SYMBOL
1070
   384
1040
0.7853981633974483
1001
ACAD_DSTYLE_DIMARC_LENGTH_SYMBOL
1070
   379
1070
     1
  0
DIMSTYLE
105
699
102
{ACAD_REACTORS
330
851
330
852
330
853
330
87F
102
}
330
385
100
AcDbSymbolTableRecord
100
AcDbDimStyleTableRecord
  2
SYS$3
 70
     0
  4
"
 41
2.0
 42
1.0
 43
10.0
 44
1.0
 47
0.1
 48
0.1
 73
     0
 77
     1
 78
     8
 79
     2
140
3.5
141
0.0
143
0.0393701
146
0.71
147
1.5
176
   256
177
   256
178
     2
271
     2
272
     2
283
     0
284
     8
288
     1
340
3A1
342
3C9
371
    -1
372
    -1
1001
ACAD_DSTYLE_DIMJOGGED_JOGANGLE_SYMBOL
1070
   384
1040
0.7853981633974483
1001
ACAD_DSTYLE_DIMARC_LENGTH_SYMBOL
1070
   379
1070
     1
  0
DIMSTYLE
105
69A
102
{ACAD_REACTORS
330
6B4
102
}
330
385
100
AcDbSymbolTableRecord
100
AcDbDimStyleTableRecord
  2
SYS$4
 70
     0
  4
"
 41
2.0
 42
1.0
 43
10.0
 44
1.0
 47
0.1
 48
0.1
 73
     0
 77
     1
 78
     8
 79
     2
140
3.5
141
0.0
143
0.0393701
146
0.71
147
1.5
173
     1
176
   256
177
   256
178
     2
271
     2
272
     2
283
     0
284
     8
288
     1
340
3A1
344
3C9
371
    -1
372
    -1
1001
ACAD_DSTYLE_DIMJOGGED_JOGANGLE_SYMBOL
1070
   384
1040
0.7853981633974483
1001
ACAD_DSTYLE_DIMARC_LENGTH_SYMBOL
1070
   379
1070
     1
  0
DIMSTYLE
105
69B
330
385
100
AcDbSymbolTableRecord
100
AcDbDimStyleTableRecord
  2
SYS$6
 70
     0
  4
"
 41
2.0
 42
1.0
 43
10.0
 44
1.0
 47
0.1
 48
0.1
 73
     0
 74
     0
 78
     8
 79
     2
140
3.5
141
0.0
143
0.0393701
146
0.71
147
1.5
172
     1
176
   256
177
   256
178
     2
271
     2
272
     2
283
     0
284
     8
340
3A1
341
3C9
371
    -1
372
    -1
1001
ACAD_DSTYLE_DIMJOGGED_JOGANGLE_SYMBOL
1070
   384
1040
0.7853981633974483
1001
ACAD_DSTYLE_DIMARC_LENGTH_SYMBOL
1070
   379
1070
     1
  0
DIMSTYLE
105
69C
330
385
100
AcDbSymbolTableRecord
100
AcDbDimStyleTableRecord
  2
SYS$7
 70
     0
  4
"
 41
2.0
 42
1.0
 43
10.0
 44
1.0
 47
0.1
 48
0.1
 73
     0
 74
     0
 77
     1
 78
     8
 79
     2
140
5.0
141
0.0
143
0.0393701
146
0.71
147
1.5
172
     1
176
   256
177
   256
178
     2
271
     2
272
     2
283
     0
284
     8
340
3A1
341
3C9
342
3C9
371
    -1
372
    -1
1001
ACAD_DSTYLE_DIMJOGGED_JOGANGLE_SYMBOL
1070
   384
1040
0.7853981633974483
1001
ACAD_DSTYLE_DIMARC_LENGTH_SYMBOL
1070
   379
1070
     1
  0
DIMSTYLE
105
69D
330
385
100
AcDbSymbolTableRecord
100
AcDbDimStyleTableRecord
  2
SYS$SF
 70
     0
  4
"
 41
2.5
 42
1.0
 43
10.0
 44
1.0
 47
0.1
 48
0.1
 73
     0
 74
     0
 75
     1
 76
     1
 77
     1
 78
     8
 79
     2
140
3.5
141
0.0
143
0.0393701
146
0.71
147
1.5
172
     1
176
   256
177
   256
178
     2
271
     2
272
     3
283
     0
284
     8
340
3A1
341
3C5
342
3C5
371
    -1
372
    -1
1001
ACAD_DSTYLE_DIMJOGGED_JOGANGLE_SYMBOL
1070
   384
1040
0.7853981633974483
1001
ACAD_DSTYLE_DIMARC_LENGTH_SYMBOL
1070
   379
1070
     1
  0
DIMSTYLE
105
69E
330
385
100
AcDbSymbolTableRecord
100
AcDbDimStyleTableRecord
  2
SYS$SH
 70
     0
  4
"
 41
2.5
 42
1.0
 43
10.0
 44
1.0
 47
0.1
 48
0.1
 73
     0
 74
     0
 75
     1
 76
     1
 77
     1
 78
     8
 79
     2
140
3.5
141
0.0
143
0.0393701
144
2.0
146
0.71
147
1.5
172
     1
173
     1
176
   256
177
   256
178
     2
271
     2
272
     3
283
     0
284
     8
340
3A1
341
3C5
343
4A9
344
3C5
371
    -1
372
    -1
1001
ACAD_DSTYLE_DIMJOGGED_JOGANGLE_SYMBOL
1070
   384
1040
0.7853981633974483
1001
ACAD_DSTYLE_DIMARC_LENGTH_SYMBOL
1070
   379
1070
     1
  0
DIMSTYLE
105
69F
330
385
100
AcDbSymbolTableRecord
100
AcDbDimStyleTableRecord
  2
SYS$2
 70
     0
  4
"
 41
1.0
 42
1.0
 43
10.0
 44
1.0
 47
0.1
 48
0.1
 73
     0
 74
     0
 77
     1
 78
     8
 79
     2
140
3.5
141
0.0
143
0.0393701
146
0.71
147
1.5
172
     1
176
   256
177
   256
178
     2
271
     2
272
     2
283
     0
284
     8
340
3A1
342
3C5
371
    -1
372
    -1
1001
ACAD_DSTYLE_DIMJOGGED_JOGANGLE_SYMBOL
1070
   384
1040
0.7853981633974483
1001
ACAD_DSTYLE_DIMARC_LENGTH_SYMBOL
1070
   379
1070
     1
  0
DIMSTYLE
105
6A0
102
{ACAD_REACTORS
330
6A8
330
6A9
330
6AA
330
6AB
330
6AD
330
6B0
330
6B2
330
6B3
330
6BD
330
6BE
330
6BF
330
6C0
330
6C1
330
6C2
330
6B8
330
6B9
330
6BA
330
6BB
330
6B5
330
6B6
330
6C3
330
6C4
330
6BC
330
6B7
330
6C5
330
87E
330
6B1
330
6AE
330
6AC
330
6AF
330
880
330
881
102
}
330
385
100
AcDbSymbolTableRecord
100
AcDbDimStyleTableRecord
  2
SYS$0
 70
     0
  4
"
 41
1.0
 42
1.0
 43
10.0
 44
1.0
 47
0.1
 48
0.1
 73
     0
 74
     0
 77
     1
 78
     8
 79
     2
140
3.200000000000001
141
0.0
143
0.0393701
146
0.71
147
1.5
172
     1
176
   256
177
   256
178
     2
271
     2
272
     2
283
     0
284
     8
340
3A1
341
3C9
342
3C5
371
    -1
372
    -1
1001
ACAD_DSTYLE_DIMJOGGED_JOGANGLE_SYMBOL
1070
   384
1040
0.7853981633974483
1001
ACAD_DSTYLE_DIMARC_LENGTH_SYMBOL
1070
   379
1070
     1
  0
ENDTAB
  0
TABLE
  2
BLOCK_RECORD
  5
37C
330
0
100
AcDbSymbolTable
 70
   121
  0
BLOCK_RECORD
  5
3B1
330
37C
100
AcDbSymbolTableRecord
100
AcDbBlockTableRecord
  2
*Model_Space
340
3B4
  0
BLOCK_RECORD
  5
3AD
330
37C
100
AcDbSymbolTableRecord
100
AcDbBlockTableRecord
  2
*Paper_Space
340
3B0
  0
BLOCK_RECORD
  5
3C5
330
37C
100
AcDbSymbolTableRecord
100
AcDbBlockTableRecord
  2
_DOT
340
0
102
{BLKREFS
331
43
331
44
331
4F
331
59
331
63
331
64
331
6F
331
70
331
7A
331
7B
331
86
331
87
331
92
331
93
331
9E
331
9F
331
AB
331
AC
331
B7
331
B8
331
C3
331
C4
331
CF
331
D0
331
DB
331
DC
331
E7
331
E8
331
FD
331
FE
331
10A
331
10B
331
115
331
116
331
121
331
12A
331
133
331
134
331
13F
331
140
331
14B
331
14C
331
156
331
157
331
161
331
162
331
16C
331
16D
331
179
331
17A
331
185
331
186
331
190
331
191
331
19C
331
19D
331
1A7
331
1A8
331
1B3
331
1B4
331
1C0
331
1C1
331
1CB
331
1CC
331
657
331
658
331
66C
331
66D
331
678
331
679
331
509
331
50A
331
514
331
515
331
51F
331
520
331
52B
331
52C
331
536
331
537
331
541
331
542
331
54C
331
54D
331
558
331
559
331
56D
331
56E
331
579
331
57A
331
585
331
586
331
591
331
592
331
59D
331
59E
331
5A9
331
5AA
331
5B5
331
5B6
331
5C0
331
5C1
331
5CC
331
5CD
331
5D8
331
5D9
331
5E4
331
5E5
331
5F0
331
5F1
331
5FD
331
5FE
331
609
331
60A
331
615
331
616
331
623
331
624
331
630
331
631
331
4DC
331
4DD
331
4E7
331
4E8
331
4F2
331
4F3
331
4FD
331
4FE
331
C32
331
C33
331
C41
331
C42
331
C4A
331
C4B
331
C53
331
C54
331
C5B
331
C5C
331
C63
331
C64
331
C6B
331
C6C
331
C74
331
C75
331
C7C
331
C7D
331
C84
331
C85
331
C8D
331
C8E
331
C95
331
C96
331
C9D
331
C9E
331
CA5
331
CA6
331
CAE
331
CAF
331
CBD
331
CBE
331
CC6
331
CC7
331
CCF
331
CD0
331
CD8
331
CD9
331
CE1
331
CE2
331
CEA
331
CEB
331
CF3
331
CF4
331
CFB
331
CFC
331
D04
331
D05
331
D0D
331
D0E
331
D16
331
D17
331
D1F
331
D20
331
D29
331
D2A
331
D32
331
D33
331
D3B
331
D3C
331
D46
331
D47
331
D50
331
D51
102
}
  0
BLOCK_RECORD
  5
3C7
330
37C
100
AcDbSymbolTableRecord
100
AcDbBlockTableRecord
  2
_NONE
340
0
  0
BLOCK_RECORD
  5
3C9
330
37C
100
AcDbSymbolTableRecord
100
AcDbBlockTableRecord
  2
_OPEN30
340
0
102
{BLKREFS
331
F3
331
63C
331
645
331
64E
331
663
331
564
331
C20
331
C26
331
C2C
331
C3B
331
CB7
102
}
  0
BLOCK_RECORD
  5
3CB
330
37C
100
AcDbSymbolTableRecord
100
AcDbBlockTableRecord
  2
*D5
340
0
  0
BLOCK_RECORD
  5
3CD
330
37C
100
AcDbSymbolTableRecord
100
AcDbBlockTableRecord
  2
*D6
340
0
  0
BLOCK_RECORD
  5
3CF
330
37C
100
AcDbSymbolTableRecord
100
AcDbBlockTableRecord
  2
*D7
340
0
  0
BLOCK_RECORD
  5
3D1
330
37C
100
AcDbSymbolTableRecord
100
AcDbBlockTableRecord
  2
*D8
340
0
  0
BLOCK_RECORD
  5
3D3
330
37C
100
AcDbSymbolTableRecord
100
AcDbBlockTableRecord
  2
*D9
340
0
  0
BLOCK_RECORD
  5
3D5
330
37C
100
AcDbSymbolTableRecord
100
AcDbBlockTableRecord
  2
*D10
340
0
  0
BLOCK_RECORD
  5
3D7
330
37C
100
AcDbSymbolTableRecord
100
AcDbBlockTableRecord
  2
*D11
340
0
  0
BLOCK_RECORD
  5
3D9
330
37C
100
AcDbSymbolTableRecord
100
AcDbBlockTableRecord
  2
*D12
340
0
  0
BLOCK_RECORD
  5
3DB
330
37C
100
AcDbSymbolTableRecord
100
AcDbBlockTableRecord
  2
*D13
340
0
  0
BLOCK_RECORD
  5
3DD
330
37C
100
AcDbSymbolTableRecord
100
AcDbBlockTableRecord
  2
*D14
340
0
  0
BLOCK_RECORD
  5
3DF
330
37C
100
AcDbSymbolTableRecord
100
AcDbBlockTableRecord
  2
*D15
340
0
  0
BLOCK_RECORD
  5
3E1
330
37C
100
AcDbSymbolTableRecord
100
AcDbBlockTableRecord
  2
*D16
340
0
  0
BLOCK_RECORD
  5
3E3
330
37C
100
AcDbSymbolTableRecord
100
AcDbBlockTableRecord
  2
*D17
340
0
  0
BLOCK_RECORD
  5
3E5
330
37C
100
AcDbSymbolTableRecord
100
AcDbBlockTableRecord
  2
*D18
340
0
  0
BLOCK_RECORD
  5
3E7
330
37C
100
AcDbSymbolTableRecord
100
AcDbBlockTableRecord
  2
*D19
340
0
  0
BLOCK_RECORD
  5
3E9
330
37C
100
AcDbSymbolTableRecord
100
AcDbBlockTableRecord
  2
*D20
340
0
102
{BLKREFS
331
354
102
}
  0
BLOCK_RECORD
  5
3EB
330
37C
100
AcDbSymbolTableRecord
100
AcDbBlockTableRecord
  2
*D21
340
0
  0
BLOCK_RECORD
  5
3ED
330
37C
100
AcDbSymbolTableRecord
100
AcDbBlockTableRecord
  2
*D22
340
0
  0
BLOCK_RECORD
  5
3EF
330
37C
100
AcDbSymbolTableRecord
100
AcDbBlockTableRecord
  2
*D23
340
0
  0
BLOCK_RECORD
  5
3F1
330
37C
100
AcDbSymbolTableRecord
100
AcDbBlockTableRecord
  2
*D24
340
0
102
{BLKREFS
331
358
102
}
  0
BLOCK_RECORD
  5
3F3
330
37C
100
AcDbSymbolTableRecord
100
AcDbBlockTableRecord
  2
*D25
340
0
102
{BLKREFS
331
359
102
}
  0
BLOCK_RECORD
  5
3F5
330
37C
100
AcDbSymbolTableRecord
100
AcDbBlockTableRecord
  2
*D26
340
0
  0
BLOCK_RECORD
  5
3F7
330
37C
100
AcDbSymbolTableRecord
100
AcDbBlockTableRecord
  2
*D27
340
0
  0
BLOCK_RECORD
  5
3F9
330
37C
100
AcDbSymbolTableRecord
100
AcDbBlockTableRecord
  2
*D28
340
0
  0
BLOCK_RECORD
  5
3FB
330
37C
100
AcDbSymbolTableRecord
100
AcDbBlockTableRecord
  2
*D29
340
0
  0
BLOCK_RECORD
  5
3FD
330
37C
100
AcDbSymbolTableRecord
100
AcDbBlockTableRecord
  2
*D30
340
0
  0
BLOCK_RECORD
  5
3FF
330
37C
100
AcDbSymbolTableRecord
100
AcDbBlockTableRecord
  2
*D31
340
0
  0
BLOCK_RECORD
  5
401
330
37C
100
AcDbSymbolTableRecord
100
AcDbBlockTableRecord
  2
*D32
340
0
  0
BLOCK_RECORD
  5
403
330
37C
100
AcDbSymbolTableRecord
100
AcDbBlockTableRecord
  2
*D33
340
0
  0
BLOCK_RECORD
  5
405
330
37C
100
AcDbSymbolTableRecord
100
AcDbBlockTableRecord
  2
*D34
340
0
  0
BLOCK_RECORD
  5
407
330
37C
100
AcDbSymbolTableRecord
100
AcDbBlockTableRecord
  2
*D35
340
0
  0
BLOCK_RECORD
  5
409
330
37C
100
AcDbSymbolTableRecord
100
AcDbBlockTableRecord
  2
*D36
340
0
  0
BLOCK_RECORD
  5
40B
330
37C
100
AcDbSymbolTableRecord
100
AcDbBlockTableRecord
  2
*D37
340
0
  0
BLOCK_RECORD
  5
40D
330
37C
100
AcDbSymbolTableRecord
100
AcDbBlockTableRecord
  2
*D38
340
0
  0
BLOCK_RECORD
  5
40F
330
37C
100
AcDbSymbolTableRecord
100
AcDbBlockTableRecord
  2
*D39
340
0
  0
BLOCK_RECORD
  5
411
330
37C
100
AcDbSymbolTableRecord
100
AcDbBlockTableRecord
  2
KOZU0001
340
0
102
{BLKREFS
331
348
102
}
  0
BLOCK_RECORD
  5
413
330
37C
100
AcDbSymbolTableRecord
100
AcDbBlockTableRecord
  2
KOZU0002
340
0
102
{BLKREFS
331
366
102
}
  0
BLOCK_RECORD
  5
4A9
330
37C
100
AcDbSymbolTableRecord
100
AcDbBlockTableRecord
  2
GENAXEH
340
0
  0
ENDTAB
  0
ENDSEC
  0
SECTION
  2
BLOCKS
  0
BLOCK
  5
3B2
330
3B1
100
AcDbEntity
  8
0
100
AcDbBlockBegin
  2
*Model_Space
 70
     0
 10
0.0
 20
0.0
 30
0.0
  3
*Model_Space
  1

  0
ENDBLK
  5
3B3
330
3B1
100
AcDbEntity
  8
0
100
AcDbBlockEnd
  0
BLOCK
  5
3AE
330
3AD
100
AcDbEntity
 67
     1
  8
0
100
AcDbBlockBegin
  2
*Paper_Space
 70
     0
 10
0.0
 20
0.0
 30
0.0
  3
*Paper_Space
  1

  0
ENDBLK
  5
3AF
330
3AD
100
AcDbEntity
 67
     1
  8
0
100
AcDbBlockEnd
  0
BLOCK
  5
3C6
330
3C5
100
AcDbEntity
  8
0
100
AcDbBlockBegin
  2
_DOT
 70
     0
 10
0.0
 20
0.0
 30
0.0
  3
_DOT
  1

  0
POLYLINE
  5
30
330
3C5
100
AcDbEntity
  8
0
  6
ByBlock
 62
     0
100
AcDb2dPolyline
 66
     1
 10
0.0
 20
0.0
 30
0.0
 70
     1
 40
0.4000000100000002
 41
0.4000000100000002
  0
VERTEX
  5
379
330
30
100
AcDbEntity
  8
0
  6
ByBlock
 62
     0
100
AcDbVertex
100
AcDb2dVertex
 10
-0.2
 20
0.0
 30
0.0
 42
1.0
  0
VERTEX
  5
37A
330
30
100
AcDbEntity
  8
0
  6
ByBlock
 62
     0
100
AcDbVertex
100
AcDb2dVertex
 10
0.2
 20
0.0
 30
0.0
 42
1.0
  0
SEQEND
  5
37B
330
30
100
AcDbEntity
  8
0
  6
ByBlock
 62
     0
  0
LINE
  5
34
330
3C5
100
AcDbEntity
  8
0
  6
ByBlock
 62
     0
100
AcDbLine
 10
-0.4000000100000002
 20
0.0
 30
0.0
 11
-3.0
 21
0.0
 31
0.0
  0
ENDBLK
  5
35
330
3C5
100
AcDbEntity
  8
0
100
AcDbBlockEnd
  0
BLOCK
  5
3C8
330
3C7
100
AcDbEntity
  8
0
100
AcDbBlockBegin
  2
_NONE
 70
     0
 10
0.0
 20
0.0
 30
0.0
  3
_NONE
  1

  0
CIRCLE
  5
38
330
3C7
100
AcDbEntity
  8
0
  6
ByBlock
 62
     0
100
AcDbCircle
 10
0.0
 20
0.0
 30
0.0
 40
0.001
  0
ENDBLK
  5
39
330
3C7
100
AcDbEntity
  8
0
100
AcDbBlockEnd
  0
BLOCK
  5
3CA
330
3C9
100
AcDbEntity
  8
0
100
AcDbBlockBegin
  2
_OPEN30
 70
     0
 10
0.0
 20
0.0
 30
0.0
  3
_OPEN30
  1

  0
LINE
  5
3C
330
3C9
100
AcDbEntity
  8
0
  6
ByBlock
 62
     0
100
AcDbLine
 10
0.0
 20
0.0
 30
0.0
 11
-3.0
 21
-0.9999999799999999
 31
0.0
  0
LINE
  5
3D
330
3C9
100
AcDbEntity
  8
0
  6
ByBlock
 62
     0
100
AcDbLine
 10
0.0
 20
0.0
 30
0.0
 11
-3.0
 21
0.9999999799999999
 31
0.0
  0
LINE
  5
3E
330
3C9
100
AcDbEntity
  8
0
  6
ByBlock
 62
     0
100
AcDbLine
 10
0.0
 20
0.0
 30
0.0
 11
-3.0
 21
0.0
 31
0.0
  0
ENDBLK
  5
3F
330
3C9
100
AcDbEntity
  8
0
100
AcDbBlockEnd
  0
BLOCK
  5
3CC
330
3CB
100
AcDbEntity
  8
0
100
AcDbBlockBegin
  2
*D5
 70
     1
 10
0.0
 20
0.0
 30
0.0
  3
*D5
  1

  0
LINE
  5
42
330
3CB
100
AcDbEntity
  8
0
  6
Continuous
 62
     7
100
AcDbLine
 10
-39.221394
 20
120.4905499999999
 30
0.0
 11
110.7785999999999
 21
120.4905499999999
 31
0.0
  0
INSERT
  5
43
330
3CB
100
AcDbEntity
  8
0
  6
Continuous
 62
     7
100
AcDbBlockReference
  2
_DOT
 10
-39.221394
 20
120.4905499999999
 30
0.0
 50
180.0
  0
INSERT
  5
44
330
3CB
100
AcDbEntity
  8
0
  6
Continuous
 62
     7
100
AcDbBlockReference
  2
_DOT
 10
110.7785999999999
 20
120.4905499999999
 30
0.0
  0
LINE
  5
45
330
3CB
100
AcDbEntity
  8
0
  6
Continuous
 62
     7
100
AcDbLine
 10
-39.221394
 20
100.03054
 30
0.0
 11
-39.221394
 21
121.69053
 31
0.0
  0
LINE
  5
46
330
3CB
100
AcDbEntity
  8
0
  6
Continuous
 62
     7
100
AcDbLine
 10
110.7785999999999
 20
100.03054
 30
0.0
 11
110.7785999999999
 21
121.69053
 31
0.0
  0
TEXT
  5
47
330
3CB
100
AcDbEntity
  8
0
  6
Continuous
 62
     7
100
AcDbText
 10
31.435606
 20
121.2905499999999
 30
0.0
 40
3.2
  1
150
 41
1.221468699999999
100
AcDbText
  0
POINT
  5
48
330
3CB
100
AcDbEntity
  8
DEFPOINTS
  6
Continuous
 62
     7
100
AcDbPoint
 10
-39.221394
 20
97.49054
 30
0.0
  0
POINT
  5
49
330
3CB
100
AcDbEntity
  8
DEFPOINTS
  6
Continuous
 62
     7
100
AcDbPoint
 10
110.7785999999999
 20
97.49054
 30
0.0
  0
POINT
  5
4A
330
3CB
100
AcDbEntity
  8
DEFPOINTS
  6
Continuous
 62
     7
100
AcDbPoint
 10
110.7785999999999
 20
120.4905499999999
 30
0.0
  0
ENDBLK
  5
4B
330
3CB
100
AcDbEntity
  8
0
100
AcDbBlockEnd
  0
BLOCK
  5
3CE
330
3CD
100
AcDbEntity
  8
0
100
AcDbBlockBegin
  2
*D6
 70
     1
 10
0.0
 20
0.0
 30
0.0
  3
*D6
  1

  0
LINE
  5
4E
330
3CD
100
AcDbEntity
  8
0
  6
Continuous
 62
     7
100
AcDbLine
 10
95.77860300000001
 20
110.49055
 30
0.0
 11
110.7785999999999
 21
110.49055
 31
0.0
  0
INSERT
  5
4F
330
3CD
100
AcDbEntity
  8
0
  6
Continuous
 62
     7
100
AcDbBlockReference
  2
_DOT
 10
110.7785999999999
 20
110.49055
 30
0.0
  0
LINE
  5
50
330
3CD
100
AcDbEntity
  8
0
  6
Continuous
 62
     7
100
AcDbLine
 10
110.7785999999999
 20
100.03054
 30
0.0
 11
110.7785999999999
 21
111.69053
 31
0.0
  0
TEXT
  5
51
330
3CD
100
AcDbEntity
  8
0
  6
Continuous
 62
     7
100
AcDbText
 10
100.5356
 20
111.2905499999999
 30
0.0
 40
3.2
  1
15
 41
1.285781199999999
100
AcDbText
  0
POINT
  5
52
330
3CD
100
AcDbEntity
  8
DEFPOINTS
  6
Continuous
 62
     7
100
AcDbPoint
 10
95.77860300000001
 20
105.49055
 30
0.0
  0
POINT
  5
53
330
3CD
100
AcDbEntity
  8
DEFPOINTS
  6
Continuous
 62
     7
100
AcDbPoint
 10
110.7785999999999
 20
97.49054
 30
0.0
  0
POINT
  5
54
330
3CD
100
AcDbEntity
  8
DEFPOINTS
  6
Continuous
 62
     7
100
AcDbPoint
 10
110.7785999999999
 20
110.49055
 30
0.0
  0
ENDBLK
  5
55
330
3CD
100
AcDbEntity
  8
0
100
AcDbBlockEnd
  0
BLOCK
  5
3D0
330
3CF
100
AcDbEntity
  8
0
100
AcDbBlockBegin
  2
*D7
 70
     1
 10
0.0
 20
0.0
 30
0.0
  3
*D7
  1

  0
LINE
  5
58
330
3CF
100
AcDbEntity
  8
0
  6
Continuous
 62
     7
100
AcDbLine
 10
-24.221394
 20
110.49055
 30
0.0
 11
95.77860300000001
 21
110.49055
 31
0.0
  0
INSERT
  5
59
330
3CF
100
AcDbEntity
  8
0
  6
Continuous
 62
     7
100
AcDbBlockReference
  2
_DOT
 10
95.77860300000001
 20
110.49055
 30
0.0
  0
LINE
  5
5A
330
3CF
100
AcDbEntity
  8
0
  6
Continuous
 62
     7
100
AcDbLine
 10
95.77860300000001
 20
108.03055
 30
0.0
 11
95.77860300000001
 21
111.69053
 31
0.0
  0
TEXT
  5
5B
330
3CF
100
AcDbEntity
  8
0
  6
Continuous
 62
     7
100
AcDbText
 10
31.435606
 20
111.2905499999999
 30
0.0
 40
3.2
  1
120
 41
1.221468699999999
100
AcDbText
  0
POINT
  5
5C
330
3CF
100
AcDbEntity
  8
DEFPOINTS
  6
Continuous
 62
     7
100
AcDbPoint
 10
-24.221394
 20
105.49055
 30
0.0
  0
POINT
  5
5D
330
3CF
100
AcDbEntity
  8
DEFPOINTS
  6
Continuous
 62
     7
100
AcDbPoint
 10
95.77860300000001
 20
105.49055
 30
0.0
  0
POINT
  5
5E
330
3CF
100
AcDbEntity
  8
DEFPOINTS
  6
Continuous
 62
     7
100
AcDbPoint
 10
95.77860300000001
 20
110.49055
 30
0.0
  0
ENDBLK
  5
5F
330
3CF
100
AcDbEntity
  8
0
100
AcDbBlockEnd
  0
BLOCK
  5
3D2
330
3D1
100
AcDbEntity
  8
0
100
AcDbBlockBegin
  2
*D8
 70
     1
 10
0.0
 20
0.0
 30
0.0
  3
*D8
  1

  0
LINE
  5
62
330
3D1
100
AcDbEntity
  8
0
  6
Continuous
 62
     7
100
AcDbLine
 10
-39.221394
 20
110.49055
 30
0.0
 11
-24.221394
 21
110.49055
 31
0.0
  0
INSERT
  5
63
330
3D1
100
AcDbEntity
  8
0
  6
Continuous
 62
     7
100
AcDbBlockReference
  2
_DOT
 10
-39.221394
 20
110.49055
 30
0.0
 50
180.0
  0
INSERT
  5
64
330
3D1
100
AcDbEntity
  8
0
  6
Continuous
 62
     7
100
AcDbBlockReference
  2
_DOT
 10
-24.221394
 20
110.49055
 30
0.0
  0
LINE
  5
65
330
3D1
100
AcDbEntity
  8
0
  6
Continuous
 62
     7
100
AcDbLine
 10
-39.221394
 20
100.03054
 30
0.0
 11
-39.221394
 21
111.69053
 31
0.0
  0
LINE
  5
66
330
3D1
100
AcDbEntity
  8
0
  6
Continuous
 62
     7
100
AcDbLine
 10
-24.221394
 20
108.03055
 30
0.0
 11
-24.221394
 21
111.69053
 31
0.0
  0
TEXT
  5
67
330
3D1
100
AcDbEntity
  8
0
  6
Continuous
 62
     7
100
AcDbText
 10
-34.464394
 20
111.2905499999999
 30
0.0
 40
3.2
  1
15
 41
1.285781199999999
100
AcDbText
  0
POINT
  5
68
330
3D1
100
AcDbEntity
  8
DEFPOINTS
  6
Continuous
 62
     7
100
AcDbPoint
 10
-39.221394
 20
97.49054
 30
0.0
  0
POINT
  5
69
330
3D1
100
AcDbEntity
  8
DEFPOINTS
  6
Continuous
 62
     7
100
AcDbPoint
 10
-24.221394
 20
105.49055
 30
0.0
  0
POINT
  5
6A
330
3D1
100
AcDbEntity
  8
DEFPOINTS
  6
Continuous
 62
     7
100
AcDbPoint
 10
-24.221394
 20
110.49055
 30
0.0
  0
ENDBLK
  5
6B
330
3D1
100
AcDbEntity
  8
0
100
AcDbBlockEnd
  0
BLOCK
  5
3D4
330
3D3
100
AcDbEntity
  8
0
100
AcDbBlockBegin
  2
*D9
 70
     1
 10
0.0
 20
0.0
 30
0.0
  3
*D9
  1

  0
LINE
  5
6E
330
3D3
100
AcDbEntity
  8
0
  6
Continuous
 62
     7
100
AcDbLine
 10
-49.22139399999999
 20
100.4905399999999
 30
0.0
 11
-49.22139399999999
 21
86.49053999999997
 31
0.0
  0
INSERT
  5
6F
330
3D3
100
AcDbEntity
  8
0
  6
Continuous
 62
     7
100
AcDbBlockReference
  2
_DOT
 10
-49.22139399999999
 20
100.4905399999999
 30
0.0
 50
90.0
  0
INSERT
  5
70
330
3D3
100
AcDbEntity
  8
0
  6
Continuous
 62
     7
100
AcDbBlockReference
  2
_DOT
 10
-49.22139399999999
 20
86.49053999999997
 30
0.0
 50
270.0
  0
LINE
  5
71
330
3D3
100
AcDbEntity
  8
0
  6
Continuous
 62
     7
100
AcDbLine
 10
-38.761394
 20
100.4905399999999
 30
0.0
 11
-50.42139399999999
 21
100.4905399999999
 31
0.0
  0
TEXT
  5
72
330
3D3
100
AcDbEntity
  8
0
  6
Continuous
 62
     7
100
AcDbText
 10
-50.021394
 20
92.34754
 30
0.0
 40
3.2
  1
〃
 50
90.00000300000001
 41
0.90047268
100
AcDbText
  0
POINT
  5
73
330
3D3
100
AcDbEntity
  8
DEFPOINTS
  6
Continuous
 62
     7
100
AcDbPoint
 10
-36.221394
 20
100.4905399999999
 30
0.0
  0
POINT
  5
74
330
3D3
100
AcDbEntity
  8
DEFPOINTS
  6
Continuous
 62
     7
100
AcDbPoint
 10
-44.22139399999999
 20
86.49053999999997
 30
0.0
  0
POINT
  5
75
330
3D3
100
AcDbEntity
  8
DEFPOINTS
  6
Continuous
 62
     7
100
AcDbPoint
 10
-49.22139399999999
 20
86.49053999999997
 30
0.0
  0
ENDBLK
  5
76
330
3D3
100
AcDbEntity
  8
0
100
AcDbBlockEnd
  0
BLOCK
  5
3D6
330
3D5
100
AcDbEntity
  8
0
100
AcDbBlockBegin
  2
*D10
 70
     1
 10
0.0
 20
0.0
 30
0.0
  3
*D10
  1

  0
LINE
  5
79
330
3D5
100
AcDbEntity
  8
0
  6
Continuous
 62
     7
100
AcDbLine
 10
-49.22139399999999
 20
72.49053999999998
 30
0.0
 11
-49.22139399999999
 21
86.49053999999997
 31
0.0
  0
INSERT
  5
7A
330
3D5
100
AcDbEntity
  8
0
  6
Continuous
 62
     7
100
AcDbBlockReference
  2
_DOT
 10
-49.22139399999999
 20
72.49053999999998
 30
0.0
 50
270.0
  0
INSERT
  5
7B
330
3D5
100
AcDbEntity
  8
0
  6
Continuous
 62
     7
100
AcDbBlockReference
  2
_DOT
 10
-49.22139399999999
 20
86.49053999999997
 30
0.0
 50
90.0
  0
LINE
  5
7C
330
3D5
100
AcDbEntity
  8
0
  6
Continuous
 62
     7
100
AcDbLine
 10
-38.761394
 20
72.49053999999998
 30
0.0
 11
-50.42139399999999
 21
72.49053999999998
 31
0.0
  0
LINE
  5
7D
330
3D5
100
AcDbEntity
  8
0
  6
Continuous
 62
     7
100
AcDbLine
 10
-46.761394
 20
86.49053999999997
 30
0.0
 11
-50.42139399999999
 21
86.49053999999997
 31
0.0
  0
TEXT
  5
7E
330
3D5
100
AcDbEntity
  8
0
  6
Continuous
 62
     7
100
AcDbText
 10
-50.021394
 20
78.34754000000002
 30
0.0
 40
3.2
  1
〃
 50
90.00000300000001
 41
0.90047268
100
AcDbText
  0
POINT
  5
7F
330
3D5
100
AcDbEntity
  8
DEFPOINTS
  6
Continuous
 62
     7
100
AcDbPoint
 10
-36.221394
 20
72.49053999999998
 30
0.0
  0
POINT
  5
80
330
3D5
100
AcDbEntity
  8
DEFPOINTS
  6
Continuous
 62
     7
100
AcDbPoint
 10
-44.22139399999999
 20
86.49053999999997
 30
0.0
  0
POINT
  5
81
330
3D5
100
AcDbEntity
  8
DEFPOINTS
  6
Continuous
 62
     7
100
AcDbPoint
 10
-49.22139399999999
 20
86.49053999999997
 30
0.0
  0
ENDBLK
  5
82
330
3D5
100
AcDbEntity
  8
0
100
AcDbBlockEnd
  0
BLOCK
  5
3D8
330
3D7
100
AcDbEntity
  8
0
100
AcDbBlockBegin
  2
*D11
 70
     1
 10
0.0
 20
0.0
 30
0.0
  3
*D11
  1

  0
LINE
  5
85
330
3D7
100
AcDbEntity
  8
0
  6
Continuous
 62
     7
100
AcDbLine
 10
-59.22139399999998
 20
100.4905399999999
 30
0.0
 11
-59.22139399999998
 21
72.49053999999998
 31
0.0
  0
INSERT
  5
86
330
3D7
100
AcDbEntity
  8
0
  6
Continuous
 62
     7
100
AcDbBlockReference
  2
_DOT
 10
-59.22139399999998
 20
100.4905399999999
 30
0.0
 50
90.0
  0
INSERT
  5
87
330
3D7
100
AcDbEntity
  8
0
  6
Continuous
 62
     7
100
AcDbBlockReference
  2
_DOT
 10
-59.22139399999998
 20
72.49053999999998
 30
0.0
 50
270.0
  0
LINE
  5
88
330
3D7
100
AcDbEntity
  8
0
  6
Continuous
 62
     7
100
AcDbLine
 10
-38.761394
 20
100.4905399999999
 30
0.0
 11
-60.42139399999999
 21
100.4905399999999
 31
0.0
  0
LINE
  5
89
330
3D7
100
AcDbEntity
  8
0
  6
Continuous
 62
     7
100
AcDbLine
 10
-38.761394
 20
72.49053999999998
 30
0.0
 11
-60.42139399999999
 21
72.49053999999998
 31
0.0
  0
TEXT
  5
8A
330
3D7
100
AcDbEntity
  8
0
  6
Continuous
 62
     7
100
AcDbText
 10
-60.021393
 20
83.74754000000001
 30
0.0
 40
3.2
  1
28
 50
90.00000300000001
 41
1.028624999999999
100
AcDbText
  0
POINT
  5
8B
330
3D7
100
AcDbEntity
  8
DEFPOINTS
  6
Continuous
 62
     7
100
AcDbPoint
 10
-36.221394
 20
100.4905399999999
 30
0.0
  0
POINT
  5
8C
330
3D7
100
AcDbEntity
  8
DEFPOINTS
  6
Continuous
 62
     7
100
AcDbPoint
 10
-36.221394
 20
72.49053999999998
 30
0.0
  0
POINT
  5
8D
330
3D7
100
AcDbEntity
  8
DEFPOINTS
  6
Continuous
 62
     7
100
AcDbPoint
 10
-59.22139399999998
 20
72.49053999999998
 30
0.0
  0
ENDBLK
  5
8E
330
3D7
100
AcDbEntity
  8
0
100
AcDbBlockEnd
  0
BLOCK
  5
3DA
330
3D9
100
AcDbEntity
  8
0
100
AcDbBlockBegin
  2
*D12
 70
     1
 10
0.0
 20
0.0
 30
0.0
  3
*D12
  1

  0
LINE
  5
91
330
3D9
100
AcDbEntity
  8
0
  6
Continuous
 62
     7
100
AcDbLine
 10
135.7785899999998
 20
-83.47515899999997
 30
0.0
 11
135.7785899999998
 21
-65.475151
 31
0.0
  0
INSERT
  5
92
330
3D9
100
AcDbEntity
  8
0
  6
Continuous
 62
     7
100
AcDbBlockReference
  2
_DOT
 10
135.7785899999998
 20
-83.47515899999997
 30
0.0
 50
270.0
  0
INSERT
  5
93
330
3D9
100
AcDbEntity
  8
0
  6
Continuous
 62
     7
100
AcDbBlockReference
  2
_DOT
 10
135.7785899999998
 20
-65.475151
 30
0.0
 50
90.0
  0
LINE
  5
94
330
3D9
100
AcDbEntity
  8
0
  6
Continuous
 62
     7
100
AcDbLine
 10
113.3186
 20
-83.47515899999997
 30
0.0
 11
136.9785899999999
 21
-83.47515899999997
 31
0.0
  0
LINE
  5
95
330
3D9
100
AcDbEntity
  8
0
  6
Continuous
 62
     7
100
AcDbLine
 10
43.318603
 20
-65.475151
 30
0.0
 11
136.9785899999999
 21
-65.475151
 31
0.0
  0
TEXT
  5
96
330
3D9
100
AcDbEntity
  8
0
  6
Continuous
 62
     7
100
AcDbText
 10
134.9785999999998
 20
-77.218159
 30
0.0
 40
3.2
  1
18
 50
90.00000300000001
 41
1.285781199999999
100
AcDbText
  0
POINT
  5
97
330
3D9
100
AcDbEntity
  8
DEFPOINTS
  6
Continuous
 62
     7
100
AcDbPoint
 10
110.7785999999999
 20
-83.47515899999997
 30
0.0
  0
POINT
  5
98
330
3D9
100
AcDbEntity
  8
DEFPOINTS
  6
Continuous
 62
     7
100
AcDbPoint
 10
40.778603
 20
-65.475151
 30
0.0
  0
POINT
  5
99
330
3D9
100
AcDbEntity
  8
DEFPOINTS
  6
Continuous
 62
     7
100
AcDbPoint
 10
135.7785899999998
 20
-65.475151
 30
0.0
  0
ENDBLK
  5
9A
330
3D9
100
AcDbEntity
  8
0
100
AcDbBlockEnd
  0
BLOCK
  5
3DC
330
3DB
100
AcDbEntity
  8
0
100
AcDbBlockBegin
  2
*D13
 70
     1
 10
0.0
 20
0.0
 30
0.0
  3
*D13
  1

  0
LINE
  5
9D
330
3DB
100
AcDbEntity
  8
0
  6
Continuous
 62
     7
100
AcDbLine
 10
125.7786
 20
-78.97515899999998
 30
0.0
 11
125.7786
 21
-65.475151
 31
0.0
  0
INSERT
  5
9E
330
3DB
100
AcDbEntity
  8
0
  6
Continuous
 62
     7
100
AcDbBlockReference
  2
_DOT
 10
125.7786
 20
-78.97515899999998
 30
0.0
 50
270.0
  0
INSERT
  5
9F
330
3DB
100
AcDbEntity
  8
0
  6
Continuous
 62
     7
100
AcDbBlockReference
  2
_DOT
 10
125.7786
 20
-65.475151
 30
0.0
 50
90.0
  0
LINE
  5
A0
330
3DB
100
AcDbEntity
  8
0
  6
Continuous
 62
     7
100
AcDbLine
 10
113.3186
 20
-78.97515899999998
 30
0.0
 11
126.9786
 21
-78.97515899999998
 31
0.0
  0
LINE
  5
A1
330
3DB
100
AcDbEntity
  8
0
  6
Continuous
 62
     7
100
AcDbLine
 10
43.318603
 20
-65.475151
 30
0.0
 11
126.9786
 21
-65.475151
 31
0.0
  0
TEXT
  5
A2
330
3DB
100
AcDbEntity
  8
0
  6
Continuous
 62
     7
100
AcDbText
 10
124.9786
 20
-78.16815099999998
 30
0.0
 40
3.2
  1
13.5
 50
90.00000300000001
 41
1.3928906
100
AcDbText
  0
POINT
  5
A3
330
3DB
100
AcDbEntity
  8
DEFPOINTS
  6
Continuous
 62
     7
100
AcDbPoint
 10
110.7785999999999
 20
-78.97515899999998
 30
0.0
  0
POINT
  5
A4
330
3DB
100
AcDbEntity
  8
DEFPOINTS
  6
Continuous
 62
     7
100
AcDbPoint
 10
40.778603
 20
-65.475151
 30
0.0
  0
POINT
  5
A5
330
3DB
100
AcDbEntity
  8
DEFPOINTS
  6
Continuous
 62
     7
100
AcDbPoint
 10
125.7786
 20
-65.475151
 30
0.0
  0
ENDBLK
  5
A6
330
3DB
100
AcDbEntity
  8
0
100
AcDbBlockEnd
  0
BLOCK
  5
3DE
330
3DD
100
AcDbEntity
  8
0
100
AcDbBlockBegin
  2
*D14
 70
     1
 10
0.0
 20
0.0
 30
0.0
  3
*D14
  1

  0
LINE
  5
A9
330
3DD
100
AcDbEntity
  8
0
  6
Continuous
 62
     7
100
AcDbLine
 10
125.6752199999999
 20
-83.47515899999997
 30
0.0
 11
125.6752199999999
 21
-93.357086
 31
0.0
  0
LINE
  5
AA
330
3DD
100
AcDbEntity
  8
0
  6
Continuous
 62
     7
100
AcDbLine
 10
125.6752199999999
 20
-83.47515899999997
 30
0.0
 11
125.6752199999999
 21
-78.97515899999998
 31
0.0
  0
INSERT
  5
AB
330
3DD
100
AcDbEntity
  8
0
  6
Continuous
 62
     7
100
AcDbBlockReference
  2
_DOT
 10
125.6752199999999
 20
-83.47515899999997
 30
0.0
 50
270.0
  0
INSERT
  5
AC
330
3DD
100
AcDbEntity
  8
0
  6
Continuous
 62
     7
100
AcDbBlockReference
  2
_DOT
 10
125.6752199999999
 20
-78.97515899999998
 30
0.0
 50
90.0
  0
LINE
  5
AD
330
3DD
100
AcDbEntity
  8
0
  6
Continuous
 62
     7
100
AcDbLine
 10
113.3186
 20
-83.47515899999997
 30
0.0
 11
126.8752199999999
 21
-83.47515899999997
 31
0.0
  0
LINE
  5
AE
330
3DD
100
AcDbEntity
  8
0
  6
Continuous
 62
     7
100
AcDbLine
 10
113.3186
 20
-78.97515899999998
 30
0.0
 11
126.8752199999999
 21
-78.97515899999998
 31
0.0
  0
TEXT
  5
AF
330
3DD
100
AcDbEntity
  8
0
  6
Continuous
 62
     7
100
AcDbText
 10
124.8752199999999
 20
-93.35708399999999
 30
0.0
 40
3.2
  1
4.5
 50
90.00000300000001
 41
1.357187499999999
100
AcDbText
  0
POINT
  5
B0
330
3DD
100
AcDbEntity
  8
DEFPOINTS
  6
Continuous
 62
     7
100
AcDbPoint
 10
110.7785999999999
 20
-83.47515899999997
 30
0.0
  0
POINT
  5
B1
330
3DD
100
AcDbEntity
  8
DEFPOINTS
  6
Continuous
 62
     7
100
AcDbPoint
 10
110.7785999999999
 20
-78.97515899999998
 30
0.0
  0
POINT
  5
B2
330
3DD
100
AcDbEntity
  8
DEFPOINTS
  6
Continuous
 62
     7
100
AcDbPoint
 10
125.6752199999999
 20
-78.97515899999998
 30
0.0
  0
ENDBLK
  5
B3
330
3DD
100
AcDbEntity
  8
0
100
AcDbBlockEnd
  0
BLOCK
  5
3E0
330
3DF
100
AcDbEntity
  8
0
100
AcDbBlockBegin
  2
*D15
 70
     1
 10
0.0
 20
0.0
 30
0.0
  3
*D15
  1

  0
LINE
  5
B6
330
3DF
100
AcDbEntity
  8
0
  6
Continuous
 62
     7
100
AcDbLine
 10
-49.22139399999999
 20
-83.47515899999997
 30
0.0
 11
-49.22139399999999
 21
-70.475151
 31
0.0
  0
INSERT
  5
B7
330
3DF
100
AcDbEntity
  8
0
  6
Continuous
 62
     7
100
AcDbBlockReference
  2
_DOT
 10
-49.22139399999999
 20
-83.47515899999997
 30
0.0
 50
270.0
  0
INSERT
  5
B8
330
3DF
100
AcDbEntity
  8
0
  6
Continuous
 62
     7
100
AcDbBlockReference
  2
_DOT
 10
-49.22139399999999
 20
-70.475151
 30
0.0
 50
90.0
  0
LINE
  5
B9
330
3DF
100
AcDbEntity
  8
0
  6
Continuous
 62
     7
100
AcDbLine
 10
-41.761394
 20
-83.47515899999997
 30
0.0
 11
-50.42139099999999
 21
-83.47515899999997
 31
0.0
  0
LINE
  5
BA
330
3DF
100
AcDbEntity
  8
0
  6
Continuous
 62
     7
100
AcDbLine
 10
3.738605999999998
 20
-70.475151
 30
0.0
 11
-50.42139099999999
 21
-70.475151
 31
0.0
  0
TEXT
  5
BB
330
3DF
100
AcDbEntity
  8
0
  6
Continuous
 62
     7
100
AcDbText
 10
-50.02139299999999
 20
-79.718159
 30
0.0
 40
3.2
  1
13
 50
90.00000300000001
 41
1.285781199999999
100
AcDbText
  0
POINT
  5
BC
330
3DF
100
AcDbEntity
  8
DEFPOINTS
  6
Continuous
 62
     7
100
AcDbPoint
 10
-39.221394
 20
-83.47515899999997
 30
0.0
  0
POINT
  5
BD
330
3DF
100
AcDbEntity
  8
DEFPOINTS
  6
Continuous
 62
     7
100
AcDbPoint
 10
6.278605899999999
 20
-70.475151
 30
0.0
  0
POINT
  5
BE
330
3DF
100
AcDbEntity
  8
DEFPOINTS
  6
Continuous
 62
     7
100
AcDbPoint
 10
-49.22139399999999
 20
-70.475151
 30
0.0
  0
ENDBLK
  5
BF
330
3DF
100
AcDbEntity
  8
0
100
AcDbBlockEnd
  0
BLOCK
  5
3E2
330
3E1
100
AcDbEntity
  8
0
100
AcDbBlockBegin
  2
*D16
 70
     1
 10
0.0
 20
0.0
 30
0.0
  3
*D16
  1

  0
LINE
  5
C2
330
3E1
100
AcDbEntity
  8
0
  6
Continuous
 62
     7
100
AcDbLine
 10
-59.22139399999998
 20
-83.47515899999997
 30
0.0
 11
-59.22139399999998
 21
-23.47515299999999
 31
0.0
  0
INSERT
  5
C3
330
3E1
100
AcDbEntity
  8
0
  6
Continuous
 62
     7
100
AcDbBlockReference
  2
_DOT
 10
-59.22139399999998
 20
-83.47515899999997
 30
0.0
 50
270.0
  0
INSERT
  5
C4
330
3E1
100
AcDbEntity
  8
0
  6
Continuous
 62
     7
100
AcDbBlockReference
  2
_DOT
 10
-59.22139399999998
 20
-23.47515299999999
 30
0.0
 50
90.0
  0
LINE
  5
C5
330
3E1
100
AcDbEntity
  8
0
  6
Continuous
 62
     7
100
AcDbLine
 10
-41.761394
 20
-83.47515899999997
 30
0.0
 11
-60.42139099999999
 21
-83.47515899999997
 31
0.0
  0
LINE
  5
C6
330
3E1
100
AcDbEntity
  8
0
  6
Continuous
 62
     7
100
AcDbLine
 10
20.248876
 20
-23.47515299999999
 30
0.0
 11
-60.42139099999999
 21
-23.47515299999999
 31
0.0
  0
TEXT
  5
C7
330
3E1
100
AcDbEntity
  8
0
  6
Continuous
 62
     7
100
AcDbText
 10
-60.021393
 20
-56.218151
 30
0.0
 40
3.2
  1
60
 50
90.00000300000001
 41
1.102098199999999
100
AcDbText
  0
POINT
  5
C8
330
3E1
100
AcDbEntity
  8
DEFPOINTS
  6
Continuous
 62
     7
100
AcDbPoint
 10
-39.221394
 20
-83.47515899999997
 30
0.0
  0
POINT
  5
C9
330
3E1
100
AcDbEntity
  8
DEFPOINTS
  6
Continuous
 62
     7
100
AcDbPoint
 10
22.788876
 20
-23.47515299999999
 30
0.0
  0
POINT
  5
CA
330
3E1
100
AcDbEntity
  8
DEFPOINTS
  6
Continuous
 62
     7
100
AcDbPoint
 10
-59.22139399999998
 20
-23.47515299999999
 30
0.0
  0
ENDBLK
  5
CB
330
3E1
100
AcDbEntity
  8
0
100
AcDbBlockEnd
  0
BLOCK
  5
3E4
330
3E3
100
AcDbEntity
  8
0
100
AcDbBlockBegin
  2
*D17
 70
     1
 10
0.0
 20
0.0
 30
0.0
  3
*D17
  1

  0
LINE
  5
CE
330
3E3
100
AcDbEntity
  8
0
  6
Continuous
 62
     7
100
AcDbLine
 10
-153.75569
 20
-1.475124399999999
 30
0.0
 11
-153.75569
 21
-45.475124
 31
0.0
  0
INSERT
  5
CF
330
3E3
100
AcDbEntity
  8
0
  6
Continuous
 62
     7
100
AcDbBlockReference
  2
_DOT
 10
-153.75569
 20
-1.475124399999999
 30
0.0
 50
90.0
  0
INSERT
  5
D0
330
3E3
100
AcDbEntity
  8
0
  6
Continuous
 62
     7
100
AcDbBlockReference
  2
_DOT
 10
-153.75569
 20
-45.475124
 30
0.0
 50
270.0
  0
LINE
  5
D1
330
3E3
100
AcDbEntity
  8
0
  6
Continuous
 62
     7
100
AcDbLine
 10
-128.2956899999998
 20
-1.475124399999999
 30
0.0
 11
-154.9557
 21
-1.475124399999999
 31
0.0
  0
LINE
  5
D2
330
3E3
100
AcDbEntity
  8
0
  6
Continuous
 62
     7
100
AcDbLine
 10
-128.2956899999998
 20
-45.475124
 30
0.0
 11
-154.9557
 21
-45.475124
 31
0.0
  0
TEXT
  5
D3
330
3E3
100
AcDbEntity
  8
0
  6
Continuous
 62
     7
100
AcDbText
 10
-154.55569
 20
-27.818126
 30
0.0
 40
3.2
  1
%%C44
 50
90.00000300000001
 41
0.9501896099999999
100
AcDbText
  0
POINT
  5
D4
330
3E3
100
AcDbEntity
  8
DEFPOINTS
  6
Continuous
 62
     7
100
AcDbPoint
 10
-125.7556899999999
 20
-1.475124399999999
 30
0.0
  0
POINT
  5
D5
330
3E3
100
AcDbEntity
  8
DEFPOINTS
  6
Continuous
 62
     7
100
AcDbPoint
 10
-125.7556899999999
 20
-45.475124
 30
0.0
  0
POINT
  5
D6
330
3E3
100
AcDbEntity
  8
DEFPOINTS
  6
Continuous
 62
     7
100
AcDbPoint
 10
-153.75569
 20
-45.475124
 30
0.0
  0
ENDBLK
  5
D7
330
3E3
100
AcDbEntity
  8
0
100
AcDbBlockEnd
  0
BLOCK
  5
3E6
330
3E5
100
AcDbEntity
  8
0
100
AcDbBlockBegin
  2
*D18
 70
     1
 10
0.0
 20
0.0
 30
0.0
  3
*D18
  1

  0
LINE
  5
DA
330
3E5
100
AcDbEntity
  8
0
  6
Continuous
 62
     7
100
AcDbLine
 10
-163.7556899999999
 20
1.5248756
 30
0.0
 11
-163.7556899999999
 21
-48.475124
 31
0.0
  0
INSERT
  5
DB
330
3E5
100
AcDbEntity
  8
0
  6
Continuous
 62
     7
100
AcDbBlockReference
  2
_DOT
 10
-163.7556899999999
 20
1.5248756
 30
0.0
 50
90.0
  0
INSERT
  5
DC
330
3E5
100
AcDbEntity
  8
0
  6
Continuous
 62
     7
100
AcDbBlockReference
  2
_DOT
 10
-163.7556899999999
 20
-48.475124
 30
0.0
 50
270.0
  0
LINE
  5
DD
330
3E5
100
AcDbEntity
  8
0
  6
Continuous
 62
     7
100
AcDbLine
 10
-134.7956899999998
 20
1.5248756
 30
0.0
 11
-164.9557
 21
1.5248756
 31
0.0
  0
LINE
  5
DE
330
3E5
100
AcDbEntity
  8
0
  6
Continuous
 62
     7
100
AcDbLine
 10
-134.7956899999998
 20
-48.475124
 30
0.0
 11
-164.9557
 21
-48.475124
 31
0.0
  0
TEXT
  5
DF
330
3E5
100
AcDbEntity
  8
0
  6
Continuous
 62
     7
100
AcDbText
 10
-164.55569
 20
-27.818126
 30
0.0
 40
3.2
  1
%%C50
 50
90.00000300000001
 41
0.98864326
100
AcDbText
  0
POINT
  5
E0
330
3E5
100
AcDbEntity
  8
DEFPOINTS
  6
Continuous
 62
     7
100
AcDbPoint
 10
-132.2556899999999
 20
1.5248756
 30
0.0
  0
POINT
  5
E1
330
3E5
100
AcDbEntity
  8
DEFPOINTS
  6
Continuous
 62
     7
100
AcDbPoint
 10
-132.2556899999999
 20
-48.475124
 30
0.0
  0
POINT
  5
E2
330
3E5
100
AcDbEntity
  8
DEFPOINTS
  6
Continuous
 62
     7
100
AcDbPoint
 10
-163.7556899999999
 20
-48.475124
 30
0.0
  0
ENDBLK
  5
E3
330
3E5
100
AcDbEntity
  8
0
100
AcDbBlockEnd
  0
BLOCK
  5
3E8
330
3E7
100
AcDbEntity
  8
0
100
AcDbBlockBegin
  2
*D19
 70
     1
 10
0.0
 20
0.0
 30
0.0
  3
*D19
  1

  0
LINE
  5
E6
330
3E7
100
AcDbEntity
  8
0
  6
Continuous
 62
     7
100
AcDbLine
 10
-153.75569
 20
-45.475124
 30
0.0
 11
-153.75569
 21
-83.475128
 31
0.0
  0
INSERT
  5
E7
330
3E7
100
AcDbEntity
  8
0
  6
Continuous
 62
     7
100
AcDbBlockReference
  2
_DOT
 10
-153.75569
 20
-45.475124
 30
0.0
 50
90.0
  0
INSERT
  5
E8
330
3E7
100
AcDbEntity
  8
0
  6
Continuous
 62
     7
100
AcDbBlockReference
  2
_DOT
 10
-153.75569
 20
-83.475128
 30
0.0
 50
270.0
  0
LINE
  5
E9
330
3E7
100
AcDbEntity
  8
0
  6
Continuous
 62
     7
100
AcDbLine
 10
-128.2956899999998
 20
-45.475124
 30
0.0
 11
-154.9557
 21
-45.475124
 31
0.0
  0
LINE
  5
EA
330
3E7
100
AcDbEntity
  8
0
  6
Continuous
 62
     7
100
AcDbLine
 10
-141.2956899999998
 20
-83.475128
 30
0.0
 11
-154.9557
 21
-83.475128
 31
0.0
  0
TEXT
  5
EB
330
3E7
100
AcDbEntity
  8
0
  6
Continuous
 62
     7
100
AcDbText
 10
-154.55569
 20
-67.21812800000001
 30
0.0
 40
3.2
  1
38
 50
90.00000300000001
 41
1.028624999999999
100
AcDbText
  0
POINT
  5
EC
330
3E7
100
AcDbEntity
  8
DEFPOINTS
  6
Continuous
 62
     7
100
AcDbPoint
 10
-125.7556899999999
 20
-45.475124
 30
0.0
  0
POINT
  5
ED
330
3E7
100
AcDbEntity
  8
DEFPOINTS
  6
Continuous
 62
     7
100
AcDbPoint
 10
-138.7556899999999
 20
-83.475128
 30
0.0
  0
POINT
  5
EE
330
3E7
100
AcDbEntity
  8
DEFPOINTS
  6
Continuous
 62
     7
100
AcDbPoint
 10
-153.75569
 20
-83.475128
 30
0.0
  0
ENDBLK
  5
EF
330
3E7
100
AcDbEntity
  8
0
100
AcDbBlockEnd
  0
BLOCK
  5
3EA
330
3E9
100
AcDbEntity
  8
0
100
AcDbBlockBegin
  2
*D20
 70
     1
 10
0.0
 20
0.0
 30
0.0
  3
*D20
  1

  0
LINE
  5
F2
330
3E9
100
AcDbEntity
  8
0
  6
Continuous
 62
     7
100
AcDbLine
 10
-128.0830699999999
 20
-43.044564
 30
0.0
 11
-135.07526
 21
-32.738052
 31
0.0
  0
INSERT
  5
F3
330
3E9
100
AcDbEntity
  8
0
  6
Continuous
 62
     7
100
AcDbBlockReference
  2
_OPEN30
 10
-126.39881
 20
-45.527161
 30
0.0
 50
304.15393
  0
LINE
  5
F4
330
3E9
100
AcDbEntity
  8
0
  6
Continuous
 62
     7
100
AcDbLine
 10
-135.07526
 20
-32.738056
 30
0.0
 11
-141.81825
 21
-32.738056
 31
0.0
  0
TEXT
  5
F5
330
3E9
100
AcDbEntity
  8
0
  6
Continuous
 62
     7
100
AcDbText
 10
-141.8182699999999
 20
-31.938056
 30
0.0
 40
3.2
  1
R4
 41
1.028624999999999
100
AcDbText
  0
POINT
  5
F6
330
3E9
100
AcDbEntity
  8
DEFPOINTS
  6
Continuous
 62
     7
100
AcDbPoint
 10
-126.39881
 20
-45.527161
 30
0.0
  0
POINT
  5
F7
330
3E9
100
AcDbEntity
  8
DEFPOINTS
  6
Continuous
 62
     7
100
AcDbPoint
 10
-135.07526
 20
-32.738052
 30
0.0
  0
ENDBLK
  5
F8
330
3E9
100
AcDbEntity
  8
0
100
AcDbBlockEnd
  0
BLOCK
  5
3EC
330
3EB
100
AcDbEntity
  8
0
100
AcDbBlockBegin
  2
*D21
 70
     1
 10
0.0
 20
0.0
 30
0.0
  3
*D21
  1

  0
LINE
  5
FB
330
3EB
100
AcDbEntity
  8
0
  6
Continuous
 62
     7
100
AcDbLine
 10
-129.5056899999999
 20
-59.01301199999998
 30
0.0
 11
-139.94789
 21
-59.01301199999998
 31
0.0
  0
LINE
  5
FC
330
3EB
100
AcDbEntity
  8
0
  6
Continuous
 62
     7
100
AcDbLine
 10
-129.5056899999999
 20
-59.01301199999998
 30
0.0
 11
-122.0056899999999
 21
-59.01301199999998
 31
0.0
  0
INSERT
  5
FD
330
3EB
100
AcDbEntity
  8
0
  6
Continuous
 62
     7
100
AcDbBlockReference
  2
_DOT
 10
-129.5056899999999
 20
-59.01301199999998
 30
0.0
 50
180.0
  0
INSERT
  5
FE
330
3EB
100
AcDbEntity
  8
0
  6
Continuous
 62
     7
100
AcDbBlockReference
  2
_DOT
 10
-122.0056899999999
 20
-59.01301199999998
 30
0.0
  0
LINE
  5
FF
330
3EB
100
AcDbEntity
  8
0
  6
Continuous
 62
     7
100
AcDbLine
 10
-129.5056899999999
 20
-51.015124
 30
0.0
 11
-129.5056899999999
 21
-60.21301300000001
 31
0.0
  0
LINE
  5
100
330
3EB
100
AcDbEntity
  8
0
  6
Continuous
 62
     7
100
AcDbLine
 10
-122.0056899999999
 20
-51.015124
 30
0.0
 11
-122.0056899999999
 21
-60.21301300000001
 31
0.0
  0
TEXT
  5
101
330
3EB
100
AcDbEntity
  8
0
  6
Continuous
 62
     7
100
AcDbText
 10
-139.9479
 20
-58.213012
 30
0.0
 40
3.2
  1
7.5
 41
1.357187499999999
100
AcDbText
  0
POINT
  5
102
330
3EB
100
AcDbEntity
  8
DEFPOINTS
  6
Continuous
 62
     7
100
AcDbPoint
 10
-129.5056899999999
 20
-48.475124
 30
0.0
  0
POINT
  5
103
330
3EB
100
AcDbEntity
  8
DEFPOINTS
  6
Continuous
 62
     7
100
AcDbPoint
 10
-122.0056899999999
 20
-48.475124
 30
0.0
  0
POINT
  5
104
330
3EB
100
AcDbEntity
  8
DEFPOINTS
  6
Continuous
 62
     7
100
AcDbPoint
 10
-122.0056899999999
 20
-59.01301199999998
 30
0.0
  0
ENDBLK
  5
105
330
3EB
100
AcDbEntity
  8
0
100
AcDbBlockEnd
  0
BLOCK
  5
3EE
330
3ED
100
AcDbEntity
  8
0
100
AcDbBlockBegin
  2
*D22
 70
     1
 10
0.0
 20
0.0
 30
0.0
  3
*D22
  1

  0
LINE
  5
108
330
3ED
100
AcDbEntity
  8
0
  6
Continuous
 62
     7
100
AcDbLine
 10
-125.7556899999999
 20
-69.999916
 30
0.0
 11
-138.45793
 21
-69.999916
 31
0.0
  0
LINE
  5
109
330
3ED
100
AcDbEntity
  8
0
  6
Continuous
 62
     7
100
AcDbLine
 10
-125.7556899999999
 20
-69.999916
 30
0.0
 11
-110.7556899999999
 21
-69.999916
 31
0.0
  0
INSERT
  5
10A
330
3ED
100
AcDbEntity
  8
0
  6
Continuous
 62
     7
100
AcDbBlockReference
  2
_DOT
 10
-125.7556899999999
 20
-69.999916
 30
0.0
 50
180.0
  0
INSERT
  5
10B
330
3ED
100
AcDbEntity
  8
0
  6
Continuous
 62
     7
100
AcDbBlockReference
  2
_DOT
 10
-110.7556899999999
 20
-69.999916
 30
0.0
  0
LINE
  5
10C
330
3ED
100
AcDbEntity
  8
0
  6
Continuous
 62
     7
100
AcDbLine
 10
-125.7556899999999
 20
-53.015124
 30
0.0
 11
-125.7556899999999
 21
-71.19992100000001
 31
0.0
  0
TEXT
  5
10D
330
3ED
100
AcDbEntity
  8
0
  6
Continuous
 62
     7
100
AcDbText
 10
-138.4579399999998
 20
-69.199916
 30
0.0
 40
3.2
  1
15
 41
1.285781199999999
100
AcDbText
  0
POINT
  5
10E
330
3ED
100
AcDbEntity
  8
DEFPOINTS
  6
Continuous
 62
     7
100
AcDbPoint
 10
-125.7556899999999
 20
-50.475124
 30
0.0
  0
POINT
  5
10F
330
3ED
100
AcDbEntity
  8
DEFPOINTS
  6
Continuous
 62
     7
100
AcDbPoint
 10
-110.7556899999999
 20
-59.48519499999999
 30
0.0
  0
POINT
  5
110
330
3ED
100
AcDbEntity
  8
DEFPOINTS
  6
Continuous
 62
     7
100
AcDbPoint
 10
-110.7556899999999
 20
-69.999916
 30
0.0
  0
ENDBLK
  5
111
330
3ED
100
AcDbEntity
  8
0
100
AcDbBlockEnd
  0
BLOCK
  5
3F0
330
3EF
100
AcDbEntity
  8
0
100
AcDbBlockBegin
  2
*D23
 70
     1
 10
0.0
 20
0.0
 30
0.0
  3
*D23
  1

  0
LINE
  5
114
330
3EF
100
AcDbEntity
  8
0
  6
Continuous
 62
     7
100
AcDbLine
 10
10.77860599999999
 20
-95.622894
 30
0.0
 11
60.77860300000001
 21
-95.622894
 31
0.0
  0
INSERT
  5
115
330
3EF
100
AcDbEntity
  8
0
  6
Continuous
 62
     7
100
AcDbBlockReference
  2
_DOT
 10
10.77860599999999
 20
-95.622894
 30
0.0
 50
180.0
  0
INSERT
  5
116
330
3EF
100
AcDbEntity
  8
0
  6
Continuous
 62
     7
100
AcDbBlockReference
  2
_DOT
 10
60.77860300000001
 20
-95.622894
 30
0.0
  0
LINE
  5
117
330
3EF
100
AcDbEntity
  8
0
  6
Continuous
 62
     7
100
AcDbLine
 10
10.77860599999999
 20
-77.515128
 30
0.0
 11
10.77860599999999
 21
-96.822891
 31
0.0
  0
LINE
  5
118
330
3EF
100
AcDbEntity
  8
0
  6
Continuous
 62
     7
100
AcDbLine
 10
60.77860300000001
 20
-77.515128
 30
0.0
 11
60.77860300000001
 21
-96.822891
 31
0.0
  0
TEXT
  5
119
330
3EF
100
AcDbEntity
  8
0
  6
Continuous
 62
     7
100
AcDbText
 10
32.374634
 20
-94.822894
 30
0.0
 40
3.2
  1
50
 41
1.102098199999999
100
AcDbText
  0
POINT
  5
11A
330
3EF
100
AcDbEntity
  8
DEFPOINTS
  6
Continuous
 62
     7
100
AcDbPoint
 10
10.77860599999999
 20
-74.97512799999999
 30
0.0
  0
POINT
  5
11B
330
3EF
100
AcDbEntity
  8
DEFPOINTS
  6
Continuous
 62
     7
100
AcDbPoint
 10
60.77860300000001
 20
-74.97512799999999
 30
0.0
  0
POINT
  5
11C
330
3EF
100
AcDbEntity
  8
DEFPOINTS
  6
Continuous
 62
     7
100
AcDbPoint
 10
60.77860300000001
 20
-95.622894
 30
0.0
  0
ENDBLK
  5
11D
330
3EF
100
AcDbEntity
  8
0
100
AcDbBlockEnd
  0
BLOCK
  5
3F2
330
3F1
100
AcDbEntity
  8
0
100
AcDbBlockBegin
  2
*D24
 70
     1
 10
0.0
 20
0.0
 30
0.0
  3
*D24
  1

  0
LINE
  5
120
330
3F1
100
AcDbEntity
  8
0
  6
Continuous
 62
     7
100
AcDbLine
 10
9.7736406
 20
-68.574455
 30
0.0
 11
6.3410811
 21
-62.082516
 31
0.0
  0
INSERT
  5
121
330
3F1
100
AcDbEntity
  8
0
  6
Continuous
 62
     7
100
AcDbBlockReference
  2
_DOT
 10
9.7736406
 20
-68.574455
 30
0.0
 50
297.86728
  0
LINE
  5
122
330
3F1
100
AcDbEntity
  8
0
  6
Continuous
 62
     7
100
AcDbLine
 10
6.3410811
 20
-62.082516
 30
0.0
 11
-22.35764899999999
 21
-62.082516
 31
0.0
  0
TEXT
  5
123
330
3F1
100
AcDbEntity
  8
0
  6
Continuous
 62
     7
100
AcDbText
 10
-22.67764899999999
 20
-61.282516
 30
0.0
 40
3.2
  1
2-%%C4.3
 41
1.101035599999999
100
AcDbText
  0
POINT
  5
124
330
3F1
100
AcDbEntity
  8
DEFPOINTS
  6
Continuous
 62
     7
100
AcDbPoint
 10
9.7736406
 20
-68.574455
 30
0.0
  0
POINT
  5
125
330
3F1
100
AcDbEntity
  8
DEFPOINTS
  6
Continuous
 62
     7
100
AcDbPoint
 10
6.3410811
 20
-62.082516
 30
0.0
  0
ENDBLK
  5
126
330
3F1
100
AcDbEntity
  8
0
100
AcDbBlockEnd
  0
BLOCK
  5
3F4
330
3F3
100
AcDbEntity
  8
0
100
AcDbBlockBegin
  2
*D25
 70
     1
 10
0.0
 20
0.0
 30
0.0
  3
*D25
  1

  0
LINE
  5
129
330
3F3
100
AcDbEntity
  8
0
  6
Continuous
 62
     7
100
AcDbLine
 10
33.669228
 20
-63.34192999999999
 30
0.0
 11
66.892471
 21
-96.94024699999999
 31
0.0
  0
INSERT
  5
12A
330
3F3
100
AcDbEntity
  8
0
  6
Continuous
 62
     7
100
AcDbBlockReference
  2
_DOT
 10
33.669228
 20
-63.34192999999999
 30
0.0
 50
134.6784
  0
LINE
  5
12B
330
3F3
100
AcDbEntity
  8
0
  6
Continuous
 62
     7
100
AcDbLine
 10
66.892471
 20
-96.94025400000001
 30
0.0
 11
81.570412
 21
-96.94025400000001
 31
0.0
  0
TEXT
  5
12C
330
3F3
100
AcDbEntity
  8
0
  6
Continuous
 62
     7
100
AcDbText
 10
66.484412
 20
-96.14025400000002
 30
0.0
 40
3.2
  1
Ｍ６タップ
 41
0.84892707
100
AcDbText
  0
POINT
  5
12D
330
3F3
100
AcDbEntity
  8
DEFPOINTS
  6
Continuous
 62
     7
100
AcDbPoint
 10
33.669228
 20
-63.34192999999999
 30
0.0
  0
POINT
  5
12E
330
3F3
100
AcDbEntity
  8
DEFPOINTS
  6
Continuous
 62
     7
100
AcDbPoint
 10
66.892471
 20
-96.94024699999999
 30
0.0
  0
ENDBLK
  5
12F
330
3F3
100
AcDbEntity
  8
0
100
AcDbBlockEnd
  0
BLOCK
  5
3F6
330
3F5
100
AcDbEntity
  8
0
100
AcDbBlockBegin
  2
*D26
 70
     1
 10
0.0
 20
0.0
 30
0.0
  3
*D26
  1

  0
LINE
  5
132
330
3F5
100
AcDbEntity
  8
0
  6
Continuous
 62
     7
100
AcDbLine
 10
0.7786026000000002
 20
40.51480499999999
 30
0.0
 11
90.77860300000001
 21
40.51480499999999
 31
0.0
  0
INSERT
  5
133
330
3F5
100
AcDbEntity
  8
0
  6
Continuous
 62
     7
100
AcDbBlockReference
  2
_DOT
 10
0.7786026000000002
 20
40.51480499999999
 30
0.0
 50
180.0
  0
INSERT
  5
134
330
3F5
100
AcDbEntity
  8
0
  6
Continuous
 62
     7
100
AcDbBlockReference
  2
_DOT
 10
90.77860300000001
 20
40.51480499999999
 30
0.0
  0
LINE
  5
135
330
3F5
100
AcDbEntity
  8
0
  6
Continuous
 62
     7
100
AcDbLine
 10
0.7786026000000002
 20
13.054803
 30
0.0
 11
0.7786026000000002
 21
41.71481299999999
 31
0.0
  0
LINE
  5
136
330
3F5
100
AcDbEntity
  8
0
  6
Continuous
 62
     7
100
AcDbLine
 10
90.77860300000001
 20
13.054803
 30
0.0
 11
90.77860300000001
 21
41.71481299999999
 31
0.0
  0
TEXT
  5
137
330
3F5
100
AcDbEntity
  8
0
  6
Continuous
 62
     7
100
AcDbText
 10
43.03561799999999
 20
41.13980499999999
 30
0.0
 40
2.5
  1
90
 41
1.410685699999999
100
AcDbText
  0
POINT
  5
138
330
3F5
100
AcDbEntity
  8
DEFPOINTS
  6
Continuous
 62
     7
100
AcDbPoint
 10
0.7786026000000002
 20
10.514803
 30
0.0
  0
POINT
  5
139
330
3F5
100
AcDbEntity
  8
DEFPOINTS
  6
Continuous
 62
     7
100
AcDbPoint
 10
90.77860300000001
 20
10.514803
 30
0.0
  0
POINT
  5
13A
330
3F5
100
AcDbEntity
  8
DEFPOINTS
  6
Continuous
 62
     7
100
AcDbPoint
 10
90.77860300000001
 20
40.51480499999999
 30
0.0
  0
ENDBLK
  5
13B
330
3F5
100
AcDbEntity
  8
0
100
AcDbBlockEnd
  0
BLOCK
  5
3F8
330
3F7
100
AcDbEntity
  8
0
100
AcDbBlockBegin
  2
*D27
 70
     1
 10
0.0
 20
0.0
 30
0.0
  3
*D27
  1

  0
LINE
  5
13E
330
3F7
100
AcDbEntity
  8
0
  6
Continuous
 62
     7
100
AcDbLine
 10
0.7786026000000002
 20
30.514803
 30
0.0
 11
70.77860300000001
 21
30.514803
 31
0.0
  0
INSERT
  5
13F
330
3F7
100
AcDbEntity
  8
0
  6
Continuous
 62
     7
100
AcDbBlockReference
  2
_DOT
 10
0.7786026000000002
 20
30.514803
 30
0.0
 50
180.0
  0
INSERT
  5
140
330
3F7
100
AcDbEntity
  8
0
  6
Continuous
 62
     7
100
AcDbBlockReference
  2
_DOT
 10
70.77860300000001
 20
30.514803
 30
0.0
  0
LINE
  5
141
330
3F7
100
AcDbEntity
  8
0
  6
Continuous
 62
     7
100
AcDbLine
 10
0.7786026000000002
 20
13.054803
 30
0.0
 11
0.7786026000000002
 21
31.714815
 31
0.0
  0
LINE
  5
142
330
3F7
100
AcDbEntity
  8
0
  6
Continuous
 62
     7
100
AcDbLine
 10
70.77860300000001
 20
13.054803
 30
0.0
 11
70.77860300000001
 21
31.714815
 31
0.0
  0
TEXT
  5
143
330
3F7
100
AcDbEntity
  8
0
  6
Continuous
 62
     7
100
AcDbText
 10
33.035618
 20
31.139803
 30
0.0
 40
2.5
  1
70
 41
1.410685699999999
100
AcDbText
  0
POINT
  5
144
330
3F7
100
AcDbEntity
  8
DEFPOINTS
  6
Continuous
 62
     7
100
AcDbPoint
 10
0.7786026000000002
 20
10.514803
 30
0.0
  0
POINT
  5
145
330
3F7
100
AcDbEntity
  8
DEFPOINTS
  6
Continuous
 62
     7
100
AcDbPoint
 10
70.77860300000001
 20
10.514803
 30
0.0
  0
POINT
  5
146
330
3F7
100
AcDbEntity
  8
DEFPOINTS
  6
Continuous
 62
     7
100
AcDbPoint
 10
70.77860300000001
 20
30.514803
 30
0.0
  0
ENDBLK
  5
147
330
3F7
100
AcDbEntity
  8
0
100
AcDbBlockEnd
  0
BLOCK
  5
3FA
330
3F9
100
AcDbEntity
  8
0
100
AcDbBlockBegin
  2
*D28
 70
     1
 10
0.0
 20
0.0
 30
0.0
  3
*D28
  1

  0
LINE
  5
14A
330
3F9
100
AcDbEntity
  8
0
  6
Continuous
 62
     7
100
AcDbLine
 10
70.77860300000001
 20
30.514803
 30
0.0
 11
90.77860300000001
 21
30.514803
 31
0.0
  0
INSERT
  5
14B
330
3F9
100
AcDbEntity
  8
0
  6
Continuous
 62
     7
100
AcDbBlockReference
  2
_DOT
 10
70.77860300000001
 20
30.514803
 30
0.0
 50
180.0
  0
INSERT
  5
14C
330
3F9
100
AcDbEntity
  8
0
  6
Continuous
 62
     7
100
AcDbBlockReference
  2
_DOT
 10
90.77860300000001
 20
30.514803
 30
0.0
  0
LINE
  5
14D
330
3F9
100
AcDbEntity
  8
0
  6
Continuous
 62
     7
100
AcDbLine
 10
90.77860300000001
 20
13.054803
 30
0.0
 11
90.77860300000001
 21
31.714815
 31
0.0
  0
TEXT
  5
14E
330
3F9
100
AcDbEntity
  8
0
  6
Continuous
 62
     7
100
AcDbText
 10
78.03560299999998
 20
31.139803
 30
0.0
 40
2.5
  1
20
 41
1.410685699999999
100
AcDbText
  0
POINT
  5
14F
330
3F9
100
AcDbEntity
  8
DEFPOINTS
  6
Continuous
 62
     7
100
AcDbPoint
 10
70.77860300000001
 20
10.514803
 30
0.0
  0
POINT
  5
150
330
3F9
100
AcDbEntity
  8
DEFPOINTS
  6
Continuous
 62
     7
100
AcDbPoint
 10
90.77860300000001
 20
10.514803
 30
0.0
  0
POINT
  5
151
330
3F9
100
AcDbEntity
  8
DEFPOINTS
  6
Continuous
 62
     7
100
AcDbPoint
 10
90.77860300000001
 20
30.514803
 30
0.0
  0
ENDBLK
  5
152
330
3F9
100
AcDbEntity
  8
0
100
AcDbBlockEnd
  0
BLOCK
  5
3FC
330
3FB
100
AcDbEntity
  8
0
100
AcDbBlockBegin
  2
*D29
 70
     1
 10
0.0
 20
0.0
 30
0.0
  3
*D29
  1

  0
LINE
  5
155
330
3FB
100
AcDbEntity
  8
0
  6
Continuous
 62
     7
100
AcDbLine
 10
70.77860300000001
 20
20.514803
 30
0.0
 11
85.77860300000001
 21
20.514803
 31
0.0
  0
INSERT
  5
156
330
3FB
100
AcDbEntity
  8
0
  6
Continuous
 62
     7
100
AcDbBlockReference
  2
_DOT
 10
70.77860300000001
 20
20.514803
 30
0.0
 50
180.0
  0
INSERT
  5
157
330
3FB
100
AcDbEntity
  8
0
  6
Continuous
 62
     7
100
AcDbBlockReference
  2
_DOT
 10
85.77860300000001
 20
20.514803
 30
0.0
  0
LINE
  5
158
330
3FB
100
AcDbEntity
  8
0
  6
Continuous
 62
     7
100
AcDbLine
 10
85.77860300000001
 20
15.051098
 30
0.0
 11
85.77860300000001
 21
21.714815
 31
0.0
  0
TEXT
  5
159
330
3FB
100
AcDbEntity
  8
0
  6
Continuous
 62
     7
100
AcDbText
 10
75.53560299999998
 20
21.139803
 30
0.0
 40
2.5
  1
15
 41
1.645799999999999
100
AcDbText
  0
POINT
  5
15A
330
3FB
100
AcDbEntity
  8
DEFPOINTS
  6
Continuous
 62
     7
100
AcDbPoint
 10
70.77860300000001
 20
10.514803
 30
0.0
  0
POINT
  5
15B
330
3FB
100
AcDbEntity
  8
DEFPOINTS
  6
Continuous
 62
     7
100
AcDbPoint
 10
85.77860300000001
 20
12.511098
 30
0.0
  0
POINT
  5
15C
330
3FB
100
AcDbEntity
  8
DEFPOINTS
  6
Continuous
 62
     7
100
AcDbPoint
 10
85.77860300000001
 20
20.514803
 30
0.0
  0
ENDBLK
  5
15D
330
3FB
100
AcDbEntity
  8
0
100
AcDbBlockEnd
  0
BLOCK
  5
3FE
330
3FD
100
AcDbEntity
  8
0
100
AcDbBlockBegin
  2
*D30
 70
     1
 10
0.0
 20
0.0
 30
0.0
  3
*D30
  1

  0
LINE
  5
160
330
3FD
100
AcDbEntity
  8
0
  6
Continuous
 62
     7
100
AcDbLine
 10
85.77860300000001
 20
20.514803
 30
0.0
 11
90.77860300000001
 21
20.514803
 31
0.0
  0
INSERT
  5
161
330
3FD
100
AcDbEntity
  8
0
  6
Continuous
 62
     7
100
AcDbBlockReference
  2
_DOT
 10
85.77860300000001
 20
20.514803
 30
0.0
 50
180.0
  0
INSERT
  5
162
330
3FD
100
AcDbEntity
  8
0
  6
Continuous
 62
     7
100
AcDbBlockReference
  2
_DOT
 10
90.77860300000001
 20
20.514803
 30
0.0
  0
LINE
  5
163
330
3FD
100
AcDbEntity
  8
0
  6
Continuous
 62
     7
100
AcDbLine
 10
90.77860300000001
 20
13.054803
 30
0.0
 11
90.77860300000001
 21
21.714815
 31
0.0
  0
TEXT
  5
164
330
3FD
100
AcDbEntity
  8
0
  6
Continuous
 62
     7
100
AcDbText
 10
87.13560300000001
 20
21.139803
 30
0.0
 40
2.5
  1
5
100
AcDbText
  0
POINT
  5
165
330
3FD
100
AcDbEntity
  8
DEFPOINTS
  6
Continuous
 62
     7
100
AcDbPoint
 10
85.77860300000001
 20
8.554811500000001
 30
0.0
  0
POINT
  5
166
330
3FD
100
AcDbEntity
  8
DEFPOINTS
  6
Continuous
 62
     7
100
AcDbPoint
 10
90.77860300000001
 20
10.514803
 30
0.0
  0
POINT
  5
167
330
3FD
100
AcDbEntity
  8
DEFPOINTS
  6
Continuous
 62
     7
100
AcDbPoint
 10
90.77860300000001
 20
20.514803
 30
0.0
  0
ENDBLK
  5
168
330
3FD
100
AcDbEntity
  8
0
100
AcDbBlockEnd
  0
BLOCK
  5
400
330
3FF
100
AcDbEntity
  8
0
100
AcDbBlockBegin
  2
*D31
 70
     1
 10
0.0
 20
0.0
 30
0.0
  3
*D31
  1

  0
LINE
  5
16B
330
3FF
100
AcDbEntity
  8
0
  6
Continuous
 62
     7
100
AcDbLine
 10
-49.22139399999999
 20
10.514803
 30
0.0
 11
-49.22139399999999
 21
-51.485199
 31
0.0
  0
INSERT
  5
16C
330
3FF
100
AcDbEntity
  8
0
  6
Continuous
 62
     7
100
AcDbBlockReference
  2
_DOT
 10
-49.22139399999999
 20
10.514803
 30
0.0
 50
90.0
  0
INSERT
  5
16D
330
3FF
100
AcDbEntity
  8
0
  6
Continuous
 62
     7
100
AcDbBlockReference
  2
_DOT
 10
-49.22139399999999
 20
-51.485199
 30
0.0
 50
270.0
  0
LINE
  5
16E
330
3FF
100
AcDbEntity
  8
0
  6
Continuous
 62
     7
100
AcDbLine
 10
-1.7613973
 20
10.514803
 30
0.0
 11
-50.42139399999999
 21
10.514803
 31
0.0
  0
LINE
  5
16F
330
3FF
100
AcDbEntity
  8
0
  6
Continuous
 62
     7
100
AcDbLine
 10
-1.7613973
 20
-51.485199
 30
0.0
 11
-50.42139399999999
 21
-51.485199
 31
0.0
  0
TEXT
  5
170
330
3FF
100
AcDbEntity
  8
0
  6
Continuous
 62
     7
100
AcDbText
 10
-49.846393
 20
-8.5729246
 30
0.0
 40
2.5
  1
62
 50
90.00000300000001
 41
1.31664
100
AcDbText
  0
POINT
  5
171
330
3FF
100
AcDbEntity
  8
DEFPOINTS
  6
Continuous
 62
     7
100
AcDbPoint
 10
0.7786026000000002
 20
10.514803
 30
0.0
  0
POINT
  5
172
330
3FF
100
AcDbEntity
  8
DEFPOINTS
  6
Continuous
 62
     7
100
AcDbPoint
 10
0.7786026000000002
 20
-51.485199
 30
0.0
  0
POINT
  5
173
330
3FF
100
AcDbEntity
  8
DEFPOINTS
  6
Continuous
 62
     7
100
AcDbPoint
 10
-49.22139399999999
 20
-51.485199
 30
0.0
  0
ENDBLK
  5
174
330
3FF
100
AcDbEntity
  8
0
100
AcDbBlockEnd
  0
BLOCK
  5
402
330
401
100
AcDbEntity
  8
0
100
AcDbBlockBegin
  2
*D32
 70
     1
 10
0.0
 20
0.0
 30
0.0
  3
*D32
  1

  0
LINE
  5
177
330
401
100
AcDbEntity
  8
0
  6
Continuous
 62
     7
100
AcDbLine
 10
105.48341
 20
10.514803
 30
0.0
 11
105.48341
 21
21.627798
 31
0.0
  0
LINE
  5
178
330
401
100
AcDbEntity
  8
0
  6
Continuous
 62
     7
100
AcDbLine
 10
105.48341
 20
10.514803
 30
0.0
 11
105.48341
 21
4.0148029
 31
0.0
  0
INSERT
  5
179
330
401
100
AcDbEntity
  8
0
  6
Continuous
 62
     7
100
AcDbBlockReference
  2
_DOT
 10
105.48341
 20
10.514803
 30
0.0
 50
90.0
  0
INSERT
  5
17A
330
401
100
AcDbEntity
  8
0
  6
Continuous
 62
     7
100
AcDbBlockReference
  2
_DOT
 10
105.48341
 20
4.0148029
 30
0.0
 50
270.0
  0
LINE
  5
17B
330
401
100
AcDbEntity
  8
0
  6
Continuous
 62
     7
100
AcDbLine
 10
93.318603
 20
10.514803
 30
0.0
 11
106.6834
 21
10.514803
 31
0.0
  0
LINE
  5
17C
330
401
100
AcDbEntity
  8
0
  6
Continuous
 62
     7
100
AcDbLine
 10
96.718787
 20
4.0148029
 30
0.0
 11
106.6834
 21
4.0148029
 31
0.0
  0
TEXT
  5
17D
330
401
100
AcDbEntity
  8
0
  6
Continuous
 62
     7
100
AcDbText
 10
104.6834099999999
 20
13.26179699999999
 30
0.0
 40
3.2
  1
6.5
 50
90.00000300000001
 41
1.357187499999999
100
AcDbText
  0
POINT
  5
17E
330
401
100
AcDbEntity
  8
DEFPOINTS
  6
Continuous
 62
     7
100
AcDbPoint
 10
90.77860300000001
 20
10.514803
 30
0.0
  0
POINT
  5
17F
330
401
100
AcDbEntity
  8
DEFPOINTS
  6
Continuous
 62
     7
100
AcDbPoint
 10
94.17878700000001
 20
4.0148029
 30
0.0
  0
POINT
  5
180
330
401
100
AcDbEntity
  8
DEFPOINTS
  6
Continuous
 62
     7
100
AcDbPoint
 10
105.48341
 20
4.0148029
 30
0.0
  0
ENDBLK
  5
181
330
401
100
AcDbEntity
  8
0
100
AcDbBlockEnd
  0
BLOCK
  5
404
330
403
100
AcDbEntity
  8
0
100
AcDbBlockBegin
  2
*D33
 70
     1
 10
0.0
 20
0.0
 30
0.0
  3
*D33
  1

  0
LINE
  5
184
330
403
100
AcDbEntity
  8
0
  6
Continuous
 62
     7
100
AcDbLine
 10
105.48341
 20
-9.4851971
 30
0.0
 11
105.48341
 21
4.0148029
 31
0.0
  0
INSERT
  5
185
330
403
100
AcDbEntity
  8
0
  6
Continuous
 62
     7
100
AcDbBlockReference
  2
_DOT
 10
105.48341
 20
-9.4851971
 30
0.0
 50
270.0
  0
INSERT
  5
186
330
403
100
AcDbEntity
  8
0
  6
Continuous
 62
     7
100
AcDbBlockReference
  2
_DOT
 10
105.48341
 20
4.0148029
 30
0.0
 50
90.0
  0
LINE
  5
187
330
403
100
AcDbEntity
  8
0
  6
Continuous
 62
     7
100
AcDbLine
 10
93.318603
 20
-9.4851971
 30
0.0
 11
106.6834
 21
-9.4851971
 31
0.0
  0
TEXT
  5
188
330
403
100
AcDbEntity
  8
0
  6
Continuous
 62
     7
100
AcDbText
 10
104.6834099999999
 20
-8.678197099999998
 30
0.0
 40
3.2
  1
13.5
 50
90.00000300000001
 41
1.3928906
100
AcDbText
  0
POINT
  5
189
330
403
100
AcDbEntity
  8
DEFPOINTS
  6
Continuous
 62
     7
100
AcDbPoint
 10
90.77860300000001
 20
-9.4851971
 30
0.0
  0
POINT
  5
18A
330
403
100
AcDbEntity
  8
DEFPOINTS
  6
Continuous
 62
     7
100
AcDbPoint
 10
90.318611
 20
4.0148029
 30
0.0
  0
POINT
  5
18B
330
403
100
AcDbEntity
  8
DEFPOINTS
  6
Continuous
 62
     7
100
AcDbPoint
 10
105.48341
 20
4.0148029
 30
0.0
  0
ENDBLK
  5
18C
330
403
100
AcDbEntity
  8
0
100
AcDbBlockEnd
  0
BLOCK
  5
406
330
405
100
AcDbEntity
  8
0
100
AcDbBlockBegin
  2
*D34
 70
     1
 10
0.0
 20
0.0
 30
0.0
  3
*D34
  1

  0
LINE
  5
18F
330
405
100
AcDbEntity
  8
0
  6
Continuous
 62
     7
100
AcDbLine
 10
112.8333999999999
 20
10.514803
 30
0.0
 11
112.8333999999999
 21
-9.4851971
 31
0.0
  0
INSERT
  5
190
330
405
100
AcDbEntity
  8
0
  6
Continuous
 62
     7
100
AcDbBlockReference
  2
_DOT
 10
112.8333999999999
 20
10.514803
 30
0.0
 50
90.0
  0
INSERT
  5
191
330
405
100
AcDbEntity
  8
0
  6
Continuous
 62
     7
100
AcDbBlockReference
  2
_DOT
 10
112.8333999999999
 20
-9.4851971
 30
0.0
 50
270.0
  0
LINE
  5
192
330
405
100
AcDbEntity
  8
0
  6
Continuous
 62
     7
100
AcDbLine
 10
93.318603
 20
10.514803
 30
0.0
 11
114.0333899999999
 21
10.514803
 31
0.0
  0
LINE
  5
193
330
405
100
AcDbEntity
  8
0
  6
Continuous
 62
     7
100
AcDbLine
 10
93.318603
 20
-9.4851971
 30
0.0
 11
114.0333899999999
 21
-9.4851971
 31
0.0
  0
TEXT
  5
194
330
405
100
AcDbEntity
  8
0
  6
Continuous
 62
     7
100
AcDbText
 10
112.0333999999999
 20
-6.1029277
 30
0.0
 40
3.2
  1
20
 50
90.00000300000001
 41
1.102098199999999
100
AcDbText
  0
POINT
  5
195
330
405
100
AcDbEntity
  8
DEFPOINTS
  6
Continuous
 62
     7
100
AcDbPoint
 10
90.77860300000001
 20
10.514803
 30
0.0
  0
POINT
  5
196
330
405
100
AcDbEntity
  8
DEFPOINTS
  6
Continuous
 62
     7
100
AcDbPoint
 10
90.77860300000001
 20
-9.4851971
 30
0.0
  0
POINT
  5
197
330
405
100
AcDbEntity
  8
DEFPOINTS
  6
Continuous
 62
     7
100
AcDbPoint
 10
112.8333999999999
 20
-9.4851971
 30
0.0
  0
ENDBLK
  5
198
330
405
100
AcDbEntity
  8
0
100
AcDbBlockEnd
  0
BLOCK
  5
408
330
407
100
AcDbEntity
  8
0
100
AcDbBlockBegin
  2
*D35
 70
     1
 10
0.0
 20
0.0
 30
0.0
  3
*D35
  1

  0
LINE
  5
19B
330
407
100
AcDbEntity
  8
0
  6
Continuous
 62
     7
100
AcDbLine
 10
112.8333999999999
 20
-9.4851971
 30
0.0
 11
112.8333999999999
 21
-51.485199
 31
0.0
  0
INSERT
  5
19C
330
407
100
AcDbEntity
  8
0
  6
Continuous
 62
     7
100
AcDbBlockReference
  2
_DOT
 10
112.8333999999999
 20
-9.4851971
 30
0.0
 50
90.0
  0
INSERT
  5
19D
330
407
100
AcDbEntity
  8
0
  6
Continuous
 62
     7
100
AcDbBlockReference
  2
_DOT
 10
112.8333999999999
 20
-51.485199
 30
0.0
 50
270.0
  0
LINE
  5
19E
330
407
100
AcDbEntity
  8
0
  6
Continuous
 62
     7
100
AcDbLine
 10
73.31860299999998
 20
-51.485199
 30
0.0
 11
114.0333899999999
 21
-51.485199
 31
0.0
  0
TEXT
  5
19F
330
407
100
AcDbEntity
  8
0
  6
Continuous
 62
     7
100
AcDbText
 10
112.0333999999999
 20
-33.22819699999999
 30
0.0
 40
3.2
  1
42
 50
90.00000300000001
 41
1.028624999999999
100
AcDbText
  0
POINT
  5
1A0
330
407
100
AcDbEntity
  8
DEFPOINTS
  6
Continuous
 62
     7
100
AcDbPoint
 10
90.77860300000001
 20
-9.4851971
 30
0.0
  0
POINT
  5
1A1
330
407
100
AcDbEntity
  8
DEFPOINTS
  6
Continuous
 62
     7
100
AcDbPoint
 10
70.77860300000001
 20
-51.485199
 30
0.0
  0
POINT
  5
1A2
330
407
100
AcDbEntity
  8
DEFPOINTS
  6
Continuous
 62
     7
100
AcDbPoint
 10
112.8333999999999
 20
-51.485199
 30
0.0
  0
ENDBLK
  5
1A3
330
407
100
AcDbEntity
  8
0
100
AcDbBlockEnd
  0
BLOCK
  5
40A
330
409
100
AcDbEntity
  8
0
100
AcDbBlockBegin
  2
*D36
 70
     1
 10
0.0
 20
0.0
 30
0.0
  3
*D36
  1

  0
LINE
  5
1A6
330
409
100
AcDbEntity
  8
0
  6
Continuous
 62
     7
100
AcDbLine
 10
-69.79754599999999
 20
-83.475128
 30
0.0
 11
-69.79754599999999
 21
10.514803
 31
0.0
  0
INSERT
  5
1A7
330
409
100
AcDbEntity
  8
0
  6
Continuous
 62
     7
100
AcDbBlockReference
  2
_DOT
 10
-69.79754599999999
 20
-83.475128
 30
0.0
 50
270.0
  0
INSERT
  5
1A8
330
409
100
AcDbEntity
  8
0
  6
Continuous
 62
     7
100
AcDbBlockReference
  2
_DOT
 10
-69.79754599999999
 20
10.514803
 30
0.0
 50
90.0
  0
LINE
  5
1A9
330
409
100
AcDbEntity
  8
0
  6
Continuous
 62
     7
100
AcDbLine
 10
-41.761394
 20
-83.475128
 30
0.0
 11
-70.99754299999998
 21
-83.475128
 31
0.0
  0
LINE
  5
1AA
330
409
100
AcDbEntity
  8
0
  6
Continuous
 62
     7
100
AcDbLine
 10
-1.7613973
 20
10.514803
 30
0.0
 11
-70.99754299999998
 21
10.514803
 31
0.0
  0
TEXT
  5
1AB
330
409
100
AcDbEntity
  8
0
  6
Continuous
 62
     7
100
AcDbText
 10
-70.59754599999999
 20
-42.42316399999999
 30
0.0
 40
3.2
  1
(94)
 50
90.00000300000001
 41
1.1939062
100
AcDbText
  0
POINT
  5
1AC
330
409
100
AcDbEntity
  8
DEFPOINTS
  6
Continuous
 62
     7
100
AcDbPoint
 10
-39.221394
 20
-83.475128
 30
0.0
  0
POINT
  5
1AD
330
409
100
AcDbEntity
  8
DEFPOINTS
  6
Continuous
 62
     7
100
AcDbPoint
 10
0.7786026000000002
 20
10.514803
 30
0.0
  0
POINT
  5
1AE
330
409
100
AcDbEntity
  8
DEFPOINTS
  6
Continuous
 62
     7
100
AcDbPoint
 10
-69.79754599999999
 20
10.514803
 30
0.0
  0
ENDBLK
  5
1AF
330
409
100
AcDbEntity
  8
0
100
AcDbBlockEnd
  0
BLOCK
  5
40C
330
40B
100
AcDbEntity
  8
0
100
AcDbBlockBegin
  2
*D37
 70
     1
 10
0.0
 20
0.0
 30
0.0
  3
*D37
  1

  0
LINE
  5
1B2
330
40B
100
AcDbEntity
  8
0
  6
Continuous
 62
     7
100
AcDbLine
 10
-9.2213974
 20
-51.485199
 30
0.0
 11
-9.2213974
 21
-36.485199
 31
0.0
  0
INSERT
  5
1B3
330
40B
100
AcDbEntity
  8
0
  6
Continuous
 62
     7
100
AcDbBlockReference
  2
_DOT
 10
-9.2213974
 20
-51.485199
 30
0.0
 50
270.0
  0
INSERT
  5
1B4
330
40B
100
AcDbEntity
  8
0
  6
Continuous
 62
     7
100
AcDbBlockReference
  2
_DOT
 10
-9.2213974
 20
-36.485199
 30
0.0
 50
90.0
  0
LINE
  5
1B5
330
40B
100
AcDbEntity
  8
0
  6
Continuous
 62
     7
100
AcDbLine
 10
-1.7613973
 20
-51.485199
 30
0.0
 11
-10.42137899999999
 21
-51.485199
 31
0.0
  0
LINE
  5
1B6
330
40B
100
AcDbEntity
  8
0
  6
Continuous
 62
     7
100
AcDbLine
 10
2.9486246
 20
-36.485199
 30
0.0
 11
-10.42137899999999
 21
-36.485199
 31
0.0
  0
TEXT
  5
1B7
330
40B
100
AcDbEntity
  8
0
  6
Continuous
 62
     7
100
AcDbText
 10
-9.846397299999999
 20
-46.72819899999999
 30
0.0
 40
2.5
  1
15
 50
90.00000300000001
 41
1.645799999999999
100
AcDbText
  0
POINT
  5
1B8
330
40B
100
AcDbEntity
  8
DEFPOINTS
  6
Continuous
 62
     7
100
AcDbPoint
 10
0.7786026000000002
 20
-51.485199
 30
0.0
  0
POINT
  5
1B9
330
40B
100
AcDbEntity
  8
DEFPOINTS
  6
Continuous
 62
     7
100
AcDbPoint
 10
5.488624599999999
 20
-36.485199
 30
0.0
  0
POINT
  5
1BA
330
40B
100
AcDbEntity
  8
DEFPOINTS
  6
Continuous
 62
     7
100
AcDbPoint
 10
-9.2213974
 20
-36.485199
 30
0.0
  0
ENDBLK
  5
1BB
330
40B
100
AcDbEntity
  8
0
100
AcDbBlockEnd
  0
BLOCK
  5
40E
330
40D
100
AcDbEntity
  8
0
100
AcDbBlockBegin
  2
*D38
 70
     1
 10
0.0
 20
0.0
 30
0.0
  3
*D38
  1

  0
LINE
  5
1BE
330
40D
100
AcDbEntity
  8
0
  6
Continuous
 62
     7
100
AcDbLine
 10
-108.4556899999999
 20
-69.999916
 30
0.0
 11
-95.917641
 21
-69.999916
 31
0.0
  0
LINE
  5
1BF
330
40D
100
AcDbEntity
  8
0
  6
Continuous
 62
     7
100
AcDbLine
 10
-110.7556899999999
 20
-69.999916
 30
0.0
 11
-108.4556899999999
 21
-69.999916
 31
0.0
  0
INSERT
  5
1C0
330
40D
100
AcDbEntity
  8
0
  6
Continuous
 62
     7
100
AcDbBlockReference
  2
_DOT
 10
-110.7556899999999
 20
-69.999916
 30
0.0
 50
180.0
  0
INSERT
  5
1C1
330
40D
100
AcDbEntity
  8
0
  6
Continuous
 62
     7
100
AcDbBlockReference
  2
_DOT
 10
-108.4556899999999
 20
-69.999916
 30
0.0
  0
LINE
  5
1C2
330
40D
100
AcDbEntity
  8
0
  6
Continuous
 62
     7
100
AcDbLine
 10
-108.4556899999999
 20
-52.02519500000001
 30
0.0
 11
-108.4556899999999
 21
-71.19991299999999
 31
0.0
  0
TEXT
  5
1C3
330
40D
100
AcDbEntity
  8
0
  6
Continuous
 62
     7
100
AcDbText
 10
-104.28364
 20
-69.199916
 30
0.0
 40
3.2
  1
2.3
 41
1.357187499999999
100
AcDbText
  0
POINT
  5
1C4
330
40D
100
AcDbEntity
  8
DEFPOINTS
  6
Continuous
 62
     7
100
AcDbPoint
 10
-110.7556899999999
 20
-83.475128
 30
0.0
  0
POINT
  5
1C5
330
40D
100
AcDbEntity
  8
DEFPOINTS
  6
Continuous
 62
     7
100
AcDbPoint
 10
-108.4556899999999
 20
-49.48519499999999
 30
0.0
  0
POINT
  5
1C6
330
40D
100
AcDbEntity
  8
DEFPOINTS
  6
Continuous
 62
     7
100
AcDbPoint
 10
-108.4556899999999
 20
-69.999916
 30
0.0
  0
ENDBLK
  5
1C7
330
40D
100
AcDbEntity
  8
0
100
AcDbBlockEnd
  0
BLOCK
  5
410
330
40F
100
AcDbEntity
  8
0
100
AcDbBlockBegin
  2
*D39
 70
     1
 10
0.0
 20
0.0
 30
0.0
  3
*D39
  1

  0
LINE
  5
1CA
330
40F
100
AcDbEntity
  8
0
  6
Continuous
 62
     7
100
AcDbLine
 10
-120.4556899999999
 20
30.514803
 30
0.0
 11
-108.4556899999999
 21
30.514803
 31
0.0
  0
INSERT
  5
1CB
330
40F
100
AcDbEntity
  8
0
  6
Continuous
 62
     7
100
AcDbBlockReference
  2
_DOT
 10
-120.4556899999999
 20
30.514803
 30
0.0
 50
180.0
  0
INSERT
  5
1CC
330
40F
100
AcDbEntity
  8
0
  6
Continuous
 62
     7
100
AcDbBlockReference
  2
_DOT
 10
-108.4556899999999
 20
30.514803
 30
0.0
  0
LINE
  5
1CD
330
40F
100
AcDbEntity
  8
0
  6
Continuous
 62
     7
100
AcDbLine
 10
-120.4556899999999
 20
13.054803
 30
0.0
 11
-120.4556899999999
 21
31.714804
 31
0.0
  0
LINE
  5
1CE
330
40F
100
AcDbEntity
  8
0
  6
Continuous
 62
     7
100
AcDbLine
 10
-108.4556899999999
 20
13.054803
 30
0.0
 11
-108.4556899999999
 21
31.714804
 31
0.0
  0
TEXT
  5
1CF
330
40F
100
AcDbEntity
  8
0
  6
Continuous
 62
     7
100
AcDbText
 10
-117.1986899999999
 20
31.314803
 30
0.0
 40
3.2
  1
12
 41
1.285781199999999
100
AcDbText
  0
POINT
  5
1D0
330
40F
100
AcDbEntity
  8
DEFPOINTS
  6
Continuous
 62
     7
100
AcDbPoint
 10
-120.4556899999999
 20
10.514803
 30
0.0
  0
POINT
  5
1D1
330
40F
100
AcDbEntity
  8
DEFPOINTS
  6
Continuous
 62
     7
100
AcDbPoint
 10
-108.4556899999999
 20
10.514803
 30
0.0
  0
POINT
  5
1D2
330
40F
100
AcDbEntity
  8
DEFPOINTS
  6
Continuous
 62
     7
100
AcDbPoint
 10
-108.4556899999999
 20
30.514803
 30
0.0
  0
ENDBLK
  5
1D3
330
40F
100
AcDbEntity
  8
0
100
AcDbBlockEnd
  0
BLOCK
  5
412
330
411
100
AcDbEntity
  8
0
100
AcDbBlockBegin
  2
KOZU0001
 70
     0
 10
0.0
 20
0.0
 30
0.0
  3
KOZU0001
  1

  0
LINE
  5
1D6
330
411
100
AcDbEntity
  8
0
  6
Continuous
 62
     7
100
AcDbLine
 10
0.0
 20
0.0
 30
0.0
 11
9.701484699999998
 21
-24.386189
 31
0.0
  0
LINE
  5
1D7
330
411
100
AcDbEntity
  8
0
  6
Continuous
 62
     7
100
AcDbLine
 10
9.701484699999998
 20
-24.386189
 30
0.0
 11
60.87916599999999
 21
-24.386189
 31
0.0
  0
LINE
  5
1D8
330
411
100
AcDbEntity
  8
0
  6
Continuous
 62
     7
100
AcDbLine
 10
0.0
 20
0.0
 30
0.0
 11
1.6784577
 21
-2.698704799999998
 31
0.0
  0
LINE
  5
1D9
330
411
100
AcDbEntity
  8
0
  6
Continuous
 62
     7
100
AcDbLine
 10
0.0
 20
0.0
 30
0.0
 11
0.63406919
 21
-3.1141907
 31
0.0
  0
TEXT
  5
1DA
330
411
100
AcDbEntity
  8
0
  6
Continuous
 62
     7
100
AcDbText
 10
12.879172
 20
-23.58618799999999
 30
0.0
 40
3.2
  1
２－%%C８．５×１８．５スロット
 41
0.84306961
100
AcDbText
  0
ENDBLK
  5
1DB
330
411
100
AcDbEntity
  8
0
100
AcDbBlockEnd
  0
BLOCK
  5
414
330
413
100
AcDbEntity
  8
0
100
AcDbBlockBegin
  2
KOZU0002
 70
     0
 10
0.0
 20
0.0
 30
0.0
  3
KOZU0002
  1

  0
LINE
  5
1DE
330
413
100
AcDbEntity
  8
0
  6
Continuous
 62
     7
100
AcDbLine
 10
0.0
 20
0.0
 30
0.0
 11
-28.169105
 21
51.626289
 31
0.0
  0
LINE
  5
1DF
330
413
100
AcDbEntity
  8
0
  6
Continuous
 62
     7
100
AcDbLine
 10
-28.169105
 20
51.626289
 30
0.0
 11
-79.846204
 21
51.626289
 31
0.0
  0
LINE
  5
1E0
330
413
100
AcDbEntity
  8
0
  6
Continuous
 62
     7
100
AcDbLine
 10
0.0
 20
0.0
 30
0.0
 11
-1.991571
 21
2.476665699999999
 31
0.0
  0
LINE
  5
1E1
330
413
100
AcDbEntity
  8
0
  6
Continuous
 62
     7
100
AcDbLine
 10
0.0
 20
0.0
 30
0.0
 11
-1.0048912
 21
3.0150326
 31
0.0
  0
TEXT
  5
1E2
330
413
100
AcDbEntity
  8
0
  6
Continuous
 62
     7
100
AcDbText
 10
-78.932202
 20
52.42627399999999
 30
0.0
 40
3.2
  1
２－%%C５．５ｘ１７．５スロット
 41
0.84306961
100
AcDbText
  0
ENDBLK
  5
1E3
330
413
100
AcDbEntity
  8
0
100
AcDbBlockEnd
  0
BLOCK
  5
4AB
330
4A9
100
AcDbEntity
  8
0
100
AcDbBlockBegin
  2
GENAXEH
 70
     0
 10
0.0
 20
0.0
 30
0.0
  3
GENAXEH
  1

  0
LINE
  5
4AA
330
4A9
100
AcDbEntity
  8
0
100
AcDbLine
 10
-1.0
 20
0.0
 30
0.0
 11
1.0
 21
0.0
 31
0.0
  0
ENDBLK
  5
4AC
330
4A9
100
AcDbEntity
  8
0
100
AcDbBlockEnd
  0
ENDSEC
  0
SECTION
  2
ENTITIES
  0
POINT
  5
1E4
330
3B1
100
AcDbEntity
  8
0
  6
Continuous
 62
     7
100
AcDbPoint
 10
9.773641599999999
 20
-68.574455
 30
0.0
  0
POINT
  5
1E5
330
3B1
100
AcDbEntity
  8
0
  6
Continuous
 62
     7
100
AcDbPoint
 10
11.791782
 20
-72.37022399999998
 30
0.0
  0
LINE
  5
1E6
330
3B1
100
AcDbEntity
  8
0
  6
Continuous
 62
     7
100
AcDbLine
 10
170.0
 20
173.0
 30
0.0
 11
170.0
 21
-100.0
 31
0.0
  0
LINE
  5
1E7
330
3B1
100
AcDbEntity
  8
0
  6
Continuous
 62
     7
100
AcDbLine
 10
-211.0
 20
-100.0
 30
0.0
 11
170.0
 21
-100.0
 31
0.0
  0
LINE
  5
1E8
330
3B1
100
AcDbEntity
  8
0
  6
Continuous
 62
     7
100
AcDbLine
 10
-211.0
 20
173.0
 30
0.0
 11
170.0
 21
173.0
 31
0.0
  0
LINE
  5
1E9
330
3B1
100
AcDbEntity
  8
0
  6
Continuous
 62
     7
100
AcDbLine
 10
-211.0
 20
173.0
 30
0.0
 11
-211.0
 21
-100.0
 31
0.0
  0
LINE
  5
1EA
330
3B1
100
AcDbEntity
  8
0
  6
Continuous
 62
     7
100
AcDbLine
 10
-39.221394
 20
97.49054
 30
0.0
 11
-39.221394
 21
75.49053999999998
 31
0.0
  0
LINE
  5
1EB
330
3B1
100
AcDbEntity
  8
0
  6
Continuous
 62
     7
100
AcDbLine
 10
110.77861
 20
97.49054
 30
0.0
 11
110.77861
 21
75.49053999999998
 31
0.0
  0
LINE
  5
1EC
330
3B1
100
AcDbEntity
  8
0
  6
Continuous
 62
     7
100
AcDbLine
 10
-36.221394
 20
100.4905399999999
 30
0.0
 11
107.77861
 21
100.4905399999999
 31
0.0
  0
LINE
  5
1ED
330
3B1
100
AcDbEntity
  8
0
  6
Continuous
 62
     7
100
AcDbLine
 10
-36.221394
 20
72.49053999999998
 30
0.0
 11
-7.221393599999998
 21
72.49053999999998
 31
0.0
  0
LINE
  5
1EE
330
3B1
100
AcDbEntity
  8
0
  6
Continuous
 62
     7
100
AcDbLine
 10
-39.221394
 20
-78.975128
 30
0.0
 11
-39.221394
 21
-83.475128
 31
0.0
  0
LINE
  5
1EF
330
3B1
100
AcDbEntity
  8
0
  6
Continuous
 62
     7
100
AcDbLine
 10
110.77861
 20
-78.975128
 30
0.0
 11
110.77861
 21
-83.475128
 31
0.0
  0
LINE
  5
1F0
330
3B1
100
AcDbEntity
  8
0
  6
Continuous
 62
     7
100
AcDbLine
 10
-39.221394
 20
-78.975128
 30
0.0
 11
0.77860695
 21
-78.975128
 31
0.0
  0
LINE
  5
1F1
330
3B1
100
AcDbEntity
  8
0
  6
Continuous
 62
     7
100
AcDbLine
 10
0.77860695
 20
-49.48519499999999
 30
0.0
 11
0.77860695
 21
-83.475128
 31
0.0
  0
LINE
  5
1F2
330
3B1
100
AcDbEntity
  8
0
  6
Continuous
 62
     7
100
AcDbLine
 10
70.77861
 20
-49.48519499999999
 30
0.0
 11
70.77861
 21
-83.475128
 31
0.0
  0
LINE
  5
1F3
330
3B1
100
AcDbEntity
  8
0
  6
Continuous
 62
     7
100
AcDbLine
 10
70.77861
 20
-78.975128
 30
0.0
 11
110.77861
 21
-78.975128
 31
0.0
  0
LINE
  5
1F4
330
3B1
100
AcDbEntity
  8
0
  6
CENTER
 62
     7
100
AcDbLine
 10
-42.22139399999999
 20
86.49053999999997
 30
0.0
 11
115.77861
 21
86.49053999999997
 31
0.0
  0
LINE
  5
1F5
330
3B1
100
AcDbEntity
  8
0
  6
CENTER
 62
     7
100
AcDbLine
 10
95.77861
 20
105.49053
 30
0.0
 11
95.77861
 21
67.49054
 31
0.0
  0
LINE
  5
1F6
330
3B1
100
AcDbEntity
  8
0
  6
CENTER
 62
     7
100
AcDbLine
 10
-24.221394
 20
105.49053
 30
0.0
 11
-24.221394
 21
67.49054
 31
0.0
  0
LINE
  5
1F7
330
3B1
100
AcDbEntity
  8
0
  6
Continuous
 62
     7
100
AcDbLine
 10
-28.471394
 20
91.49053999999999
 30
0.0
 11
-28.471394
 21
81.49053999999997
 31
0.0
  0
LINE
  5
1F8
330
3B1
100
AcDbEntity
  8
0
  6
Continuous
 62
     7
100
AcDbLine
 10
-19.971394
 20
91.49053999999999
 30
0.0
 11
-19.971394
 21
81.49053999999997
 31
0.0
  0
LINE
  5
1F9
330
3B1
100
AcDbEntity
  8
0
  6
Continuous
 62
     7
100
AcDbLine
 10
100.02861
 20
91.49053999999999
 30
0.0
 11
100.02861
 21
81.49053999999997
 31
0.0
  0
LINE
  5
1FA
330
3B1
100
AcDbEntity
  8
0
  6
Continuous
 62
     7
100
AcDbLine
 10
91.52860999999999
 20
91.49053999999999
 30
0.0
 11
91.52860999999999
 21
81.49053999999997
 31
0.0
  0
LINE
  5
1FB
330
3B1
100
AcDbEntity
  8
0
  6
Continuous
 62
     7
100
AcDbLine
 10
-4.721393099999999
 20
76.99053999999998
 30
0.0
 11
0.77860695
 21
76.99053999999998
 31
0.0
  0
LINE
  5
1FC
330
3B1
100
AcDbEntity
  8
0
  6
Continuous
 62
     7
100
AcDbLine
 10
-7.221413099999998
 20
72.49053999999998
 30
0.0
 11
-4.721408799999998
 21
76.99054699999997
 31
0.0
  0
LINE
  5
1FD
330
3B1
100
AcDbEntity
  8
0
  6
Continuous
 62
     7
100
AcDbLine
 10
76.27861800000002
 20
76.990555
 30
0.0
 11
78.77861800000002
 21
72.490555
 31
0.0
  0
LINE
  5
1FE
330
3B1
100
AcDbEntity
  8
0
  6
Continuous
 62
     7
100
AcDbLine
 10
78.77861
 20
72.49053999999998
 30
0.0
 11
107.77861
 21
72.49053999999998
 31
0.0
  0
LINE
  5
1FF
330
3B1
100
AcDbEntity
  8
0
  6
CENTER
 62
     7
100
AcDbLine
 10
15.278606
 20
-70.47512799999998
 30
0.0
 11
6.278606899999999
 21
-70.47512799999998
 31
0.0
  0
LINE
  5
200
330
3B1
100
AcDbEntity
  8
0
  6
CENTER
 62
     7
100
AcDbLine
 10
10.77860599999999
 20
-65.975128
 30
0.0
 11
10.77860599999999
 21
-74.97512799999999
 31
0.0
  0
LINE
  5
201
330
3B1
100
AcDbEntity
  8
0
  6
CENTER
 62
     7
100
AcDbLine
 10
65.27861
 20
-70.47512799999998
 30
0.0
 11
56.278606
 21
-70.47512799999998
 31
0.0
  0
LINE
  5
202
330
3B1
100
AcDbEntity
  8
0
  6
CENTER
 62
     7
100
AcDbLine
 10
60.77860300000001
 20
-65.975128
 30
0.0
 11
60.77860300000001
 21
-74.97512799999999
 31
0.0
  0
LINE
  5
203
330
3B1
100
AcDbEntity
  8
0
  6
Continuous
 62
     7
100
AcDbLine
 10
-7.221393599999998
 20
-78.975128
 30
0.0
 11
-7.221393599999998
 21
-83.475128
 31
0.0
  0
LINE
  5
204
330
3B1
100
AcDbEntity
  8
0
  6
Continuous
 62
     7
100
AcDbLine
 10
-4.721393099999999
 20
-78.975128
 30
0.0
 11
-4.721393099999999
 21
-83.475128
 31
0.0
  0
LINE
  5
205
330
3B1
100
AcDbEntity
  8
0
  6
Continuous
 62
     7
100
AcDbLine
 10
76.27861
 20
-78.975128
 30
0.0
 11
76.27861
 21
-83.475128
 31
0.0
  0
LINE
  5
206
330
3B1
100
AcDbEntity
  8
0
  6
Continuous
 62
     7
100
AcDbLine
 10
78.77861
 20
-78.975128
 30
0.0
 11
78.77861
 21
-83.475128
 31
0.0
  0
LINE
  5
207
330
3B1
100
AcDbEntity
  8
0
  6
Continuous
 62
     7
100
AcDbLine
 10
-115.2556899999999
 20
1.5248756
 30
0.0
 11
-110.7556899999999
 21
1.5248756
 31
0.0
  0
LINE
  5
208
330
3B1
100
AcDbEntity
  8
0
  6
Continuous
 62
     7
100
AcDbLine
 10
-138.7556899999999
 20
-83.475128
 30
0.0
 11
-110.7556899999999
 21
-83.475128
 31
0.0
  0
LINE
  5
209
330
3B1
100
AcDbEntity
  8
0
  6
Continuous
 62
     7
100
AcDbLine
 10
-138.7556899999999
 20
-78.975128
 30
0.0
 11
-110.7556899999999
 21
-78.975128
 31
0.0
  0
LINE
  5
20A
330
3B1
100
AcDbEntity
  8
0
  6
Continuous
 62
     7
100
AcDbLine
 10
-110.7556899999999
 20
1.5248756
 30
0.0
 11
-110.7556899999999
 21
0.5148038900000002
 31
0.0
  0
LINE
  5
20B
330
3B1
100
AcDbEntity
  8
0
  6
Continuous
 62
     7
100
AcDbLine
 10
-138.7556899999999
 20
-78.975128
 30
0.0
 11
-138.7556899999999
 21
-83.475128
 31
0.0
  0
LINE
  5
20C
330
3B1
100
AcDbEntity
  8
0
  6
Continuous
 62
     7
100
AcDbLine
 10
-115.2556899999999
 20
1.5248756
 30
0.0
 11
-115.2556899999999
 21
-78.975128
 31
0.0
  0
LINE
  5
20D
330
3B1
100
AcDbEntity
  8
0
  6
CENTER
 62
     7
100
AcDbLine
 10
-124.7556899999999
 20
-73.975128
 30
0.0
 11
-124.7556899999999
 21
-91.51724200000002
 31
0.0
  0
LINE
  5
20E
330
3B1
100
AcDbEntity
  8
0
  6
Continuous
 62
     7
100
AcDbLine
 10
-39.221394
 20
-83.475128
 30
0.0
 11
110.77861
 21
-83.475128
 31
0.0
  0
LINE
  5
20F
330
3B1
100
AcDbEntity
  8
0
  6
Continuous
 62
     7
100
AcDbLine
 10
-115.2556899999999
 20
-30.97512599999999
 30
0.0
 11
-117.7556899999999
 21
-30.97512599999999
 31
0.0
  0
LINE
  5
210
330
3B1
100
AcDbEntity
  8
0
  6
DASHED
 62
     7
100
AcDbLine
 10
-132.2556899999999
 20
-28.47512599999999
 30
0.0
 11
-132.2556899999999
 21
-23.47512599999999
 31
0.0
  0
LINE
  5
211
330
3B1
100
AcDbEntity
  8
0
  6
CENTER
 62
     7
100
AcDbLine
 10
-114.7556899999999
 20
-23.47512599999999
 30
0.0
 11
-136.7556899999999
 21
-23.47512599999999
 31
0.0
  0
LINE
  5
212
330
3B1
100
AcDbEntity
  8
0
  6
Continuous
 62
     7
100
AcDbLine
 10
-122.0056899999999
 20
-48.475124
 30
0.0
 11
-122.0056899999999
 21
-23.47512599999999
 31
0.0
  0
LINE
  5
213
330
3B1
100
AcDbEntity
  8
0
  6
Continuous
 62
     7
100
AcDbLine
 10
-129.5056899999999
 20
-48.475124
 30
0.0
 11
-129.5056899999999
 21
-23.47512599999999
 31
0.0
  0
LINE
  5
214
330
3B1
100
AcDbEntity
  8
0
  6
Continuous
 62
     7
100
AcDbLine
 10
-133.7556899999999
 20
-45.87704099999998
 30
0.0
 11
-133.7556899999999
 21
-23.47512599999999
 31
0.0
  0
LINE
  5
215
330
3B1
100
AcDbEntity
  8
0
  6
Continuous
 62
     7
100
AcDbLine
 10
-117.7556899999999
 20
-45.87704099999998
 30
0.0
 11
-117.7556899999999
 21
-23.47512599999999
 31
0.0
  0
LINE
  5
216
330
3B1
100
AcDbEntity
  8
0
  6
Continuous
 62
     7
100
AcDbLine
 10
-119.2556899999999
 20
-48.475124
 30
0.0
 11
-119.2556899999999
 21
-23.47512599999999
 31
0.0
  0
LINE
  5
217
330
3B1
100
AcDbEntity
  8
0
  6
Continuous
 62
     7
100
AcDbLine
 10
-132.2556899999999
 20
-48.475124
 30
0.0
 11
-132.2556899999999
 21
1.5248756
 31
0.0
  0
LINE
  5
218
330
3B1
100
AcDbEntity
  8
0
  6
Continuous
 62
     7
100
AcDbLine
 10
-117.7556999999999
 20
-45.877033
 30
0.0
 11
-119.2557
 21
-48.475113
 31
0.0
  0
LINE
  5
219
330
3B1
100
AcDbEntity
  8
0
  6
Continuous
 62
     7
100
AcDbLine
 10
-129.5056899999999
 20
-48.475124
 30
0.0
 11
-132.2556899999999
 21
-48.475124
 31
0.0
  0
LINE
  5
21A
330
3B1
100
AcDbEntity
  8
0
  6
CENTER
 62
     7
100
AcDbLine
 10
-125.7556899999999
 20
-50.475124
 30
0.0
 11
-125.7556899999999
 21
3.5248756
 31
0.0
  0
LINE
  5
21B
330
3B1
100
AcDbEntity
  8
0
  6
Continuous
 62
     7
100
AcDbLine
 10
-119.2556899999999
 20
-48.475124
 30
0.0
 11
-122.0056899999999
 21
-48.475124
 31
0.0
  0
LINE
  5
21C
330
3B1
100
AcDbEntity
  8
0
  6
Continuous
 62
     7
100
AcDbLine
 10
-132.2556899999999
 20
-48.475109
 30
0.0
 11
-133.7556899999999
 21
-45.877029
 31
0.0
  0
LINE
  5
21D
330
3B1
100
AcDbEntity
  8
0
  6
Continuous
 62
     7
100
AcDbLine
 10
-117.7556899999999
 20
-1.0732393
 30
0.0
 11
-117.7556899999999
 21
-23.47512599999999
 31
0.0
  0
LINE
  5
21E
330
3B1
100
AcDbEntity
  8
0
  6
Continuous
 62
     7
100
AcDbLine
 10
-133.7556899999999
 20
-1.0732393
 30
0.0
 11
-133.7556899999999
 21
-23.47512599999999
 31
0.0
  0
LINE
  5
21F
330
3B1
100
AcDbEntity
  8
0
  6
Continuous
 62
     7
100
AcDbLine
 10
-129.5056899999999
 20
1.5248756
 30
0.0
 11
-129.5056899999999
 21
-23.47512599999999
 31
0.0
  0
LINE
  5
220
330
3B1
100
AcDbEntity
  8
0
  6
Continuous
 62
     7
100
AcDbLine
 10
-122.0056899999999
 20
1.5248756
 30
0.0
 11
-122.0056899999999
 21
-23.47512599999999
 31
0.0
  0
LINE
  5
221
330
3B1
100
AcDbEntity
  8
0
  6
Continuous
 62
     7
100
AcDbLine
 10
-115.2556899999999
 20
-15.975125
 30
0.0
 11
-117.7556899999999
 21
-15.975125
 31
0.0
  0
LINE
  5
222
330
3B1
100
AcDbEntity
  8
0
  6
Continuous
 62
     7
100
AcDbLine
 10
-117.75571
 20
-1.0732044
 30
0.0
 11
-119.25571
 21
1.5248718
 31
0.0
  0
LINE
  5
223
330
3B1
100
AcDbEntity
  8
0
  6
Continuous
 62
     7
100
AcDbLine
 10
-119.2556899999999
 20
1.5248756
 30
0.0
 11
-122.0056899999999
 21
1.5248756
 31
0.0
  0
LINE
  5
224
330
3B1
100
AcDbEntity
  8
0
  6
Continuous
 62
     7
100
AcDbLine
 10
-119.2556899999999
 20
1.5248756
 30
0.0
 11
-119.2556899999999
 21
-23.47512599999999
 31
0.0
  0
LINE
  5
225
330
3B1
100
AcDbEntity
  8
0
  6
Continuous
 62
     7
100
AcDbLine
 10
-129.5056899999999
 20
1.5248756
 30
0.0
 11
-132.2556899999999
 21
1.5248756
 31
0.0
  0
LINE
  5
226
330
3B1
100
AcDbEntity
  8
0
  6
Continuous
 62
     7
100
AcDbLine
 10
-132.25568
 20
1.524835699999998
 30
0.0
 11
-133.75568
 21
-1.0732405
 31
0.0
  0
LINE
  5
227
330
3B1
100
AcDbEntity
  8
0
  6
Continuous
 62
     7
100
AcDbLine
 10
-191.0
 20
173.0
 30
0.0
 11
-191.0
 21
93.0
 31
0.0
  0
LINE
  5
228
330
3B1
100
AcDbEntity
  8
0
  6
Continuous
 62
     7
100
AcDbLine
 10
-211.0
 20
165.0
 30
0.0
 11
-101.00001
 21
165.0
 31
0.0
  0
LINE
  5
229
330
3B1
100
AcDbEntity
  8
0
  6
Continuous
 62
     7
100
AcDbLine
 10
-191.0
 20
157.0
 30
0.0
 11
-101.00001
 21
157.0
 31
0.0
  0
LINE
  5
22A
330
3B1
100
AcDbEntity
  8
0
  6
Continuous
 62
     7
100
AcDbLine
 10
-211.0
 20
141.0
 30
0.0
 11
-101.00001
 21
141.0
 31
0.0
  0
LINE
  5
22B
330
3B1
100
AcDbEntity
  8
0
  6
Continuous
 62
     7
100
AcDbLine
 10
-211.0
 20
133.0
 30
0.0
 11
-101.00001
 21
133.0
 31
0.0
  0
LINE
  5
22C
330
3B1
100
AcDbEntity
  8
0
  6
Continuous
 62
     7
100
AcDbLine
 10
-191.0
 20
109.0
 30
0.0
 11
-101.00001
 21
109.0
 31
0.0
  0
LINE
  5
22D
330
3B1
100
AcDbEntity
  8
0
  6
Continuous
 62
     7
100
AcDbLine
 10
-191.0
 20
101.0
 30
0.0
 11
-101.00001
 21
101.0
 31
0.0
  0
LINE
  5
22E
330
3B1
100
AcDbEntity
  8
0
  6
Continuous
 62
     7
100
AcDbLine
 10
-211.0
 20
93.0
 30
0.0
 11
-101.00001
 21
93.0
 31
0.0
  0
LINE
  5
22F
330
3B1
100
AcDbEntity
  8
0
  6
Continuous
 62
     7
100
AcDbLine
 10
-211.0
 20
173.0
 30
0.0
 11
-211.0
 21
77.0
 31
0.0
  0
LINE
  5
230
330
3B1
100
AcDbEntity
  8
0
  6
Continuous
 62
     7
100
AcDbLine
 10
-211.0
 20
173.0
 30
0.0
 11
-101.00001
 21
173.0
 31
0.0
  0
LINE
  5
231
330
3B1
100
AcDbEntity
  8
0
  6
Continuous
 62
     7
100
AcDbLine
 10
-101.00001
 20
173.0
 30
0.0
 11
-101.00001
 21
93.0
 31
0.0
  0
LINE
  5
232
330
3B1
100
AcDbEntity
  8
0
  6
Continuous
 62
     7
100
AcDbLine
 10
-211.0
 20
125.0
 30
0.0
 11
-101.00001
 21
125.0
 31
0.0
  0
LINE
  5
233
330
3B1
100
AcDbEntity
  8
0
  6
Continuous
 62
     7
100
AcDbLine
 10
-211.0
 20
117.0
 30
0.0
 11
-101.00001
 21
117.0
 31
0.0
  0
LINE
  5
234
330
3B1
100
AcDbEntity
  8
0
  6
Continuous
 62
     7
100
AcDbLine
 10
-191.0
 20
109.0
 30
0.0
 11
-101.00001
 21
109.0
 31
0.0
  0
LINE
  5
235
330
3B1
100
AcDbEntity
  8
0
  6
CENTER
 62
     7
100
AcDbLine
 10
41.77860599999998
 20
-65.47512799999998
 30
0.0
 11
29.77860599999999
 21
-65.47512799999998
 31
0.0
  0
LINE
  5
236
330
3B1
100
AcDbEntity
  8
0
  6
CENTER
 62
     7
100
AcDbLine
 10
35.77860599999999
 20
-59.475124
 30
0.0
 11
35.77860599999999
 21
-71.475128
 31
0.0
  0
LINE
  5
237
330
3B1
100
AcDbEntity
  8
0
  6
Continuous
 62
     7
100
AcDbLine
 10
-211.0
 20
149.0
 30
0.0
 11
-101.00001
 21
149.0
 31
0.0
  0
LINE
  5
238
330
3B1
100
AcDbEntity
  8
0
  6
CENTER
 62
     7
100
AcDbLine
 10
-119.06844
 20
-23.485197
 30
0.0
 11
-102.10231
 21
-23.485197
 31
0.0
  0
LINE
  5
239
330
3B1
100
AcDbEntity
  8
0
  6
CENTER
 62
     7
100
AcDbLine
 10
35.77860599999999
 20
99.49054
 30
0.0
 11
35.77860599999999
 21
67.290543
 31
0.0
  0
LINE
  5
23A
330
3B1
100
AcDbEntity
  8
0
  6
Continuous
 62
     7
100
AcDbLine
 10
-110.7556899999999
 20
10.514803
 30
0.0
 11
-110.7556899999999
 21
-83.475128
 31
0.0
  0
LINE
  5
23B
330
3B1
100
AcDbEntity
  8
0
  6
Continuous
 62
     7
100
AcDbLine
 10
-107.4556899999999
 20
-43.485195
 30
0.0
 11
-106.0196199999999
 21
-43.485195
 31
0.0
  0
LINE
  5
23C
330
3B1
100
AcDbEntity
  8
0
  6
Continuous
 62
     7
100
AcDbLine
 10
-108.4556899999999
 20
-33.485199
 30
0.0
 11
-107.4556899999999
 21
-33.485199
 31
0.0
  0
LINE
  5
23D
330
3B1
100
AcDbEntity
  8
0
  6
Continuous
 62
     7
100
AcDbLine
 10
-105.25568
 20
-38.985199
 30
0.0
 11
-104.7303499999999
 21
-38.985199
 31
0.0
  0
LINE
  5
23E
330
3B1
100
AcDbEntity
  8
0
  6
Continuous
 62
     7
100
AcDbLine
 10
-107.4556899999999
 20
-33.485199
 30
0.0
 11
-107.4556899999999
 21
-45.485195
 31
0.0
  0
LINE
  5
23F
330
3B1
100
AcDbEntity
  8
0
  6
Continuous
 62
     7
100
AcDbLine
 10
-105.25568
 20
-39.985199
 30
0.0
 11
-104.72717
 21
-39.985199
 31
0.0
  0
LINE
  5
240
330
3B1
100
AcDbEntity
  8
0
  6
Continuous
 62
     7
100
AcDbLine
 10
-107.4556899999999
 20
-35.485199
 30
0.0
 11
-106.0196199999999
 21
-35.485199
 31
0.0
  0
LINE
  5
241
330
3B1
100
AcDbEntity
  8
0
  6
Continuous
 62
     7
100
AcDbLine
 10
-105.25568
 20
-38.985199
 30
0.0
 11
-105.25568
 21
-39.985199
 31
0.0
  0
LINE
  5
242
330
3B1
100
AcDbEntity
  8
0
  6
Continuous
 62
     7
100
AcDbLine
 10
-108.4556899999999
 20
-45.485195
 30
0.0
 11
-107.4556899999999
 21
-45.485195
 31
0.0
  0
LINE
  5
243
330
3B1
100
AcDbEntity
  8
0
  6
Continuous
 62
     7
100
AcDbLine
 10
-106.4556899999999
 20
-35.485199
 30
0.0
 11
-106.4556899999999
 21
-43.485195
 31
0.0
  0
LINE
  5
244
330
3B1
100
AcDbEntity
  8
0
  6
Continuous
 62
     7
100
AcDbLine
 10
10.278606
 20
-37.285187
 30
0.0
 11
11.27860599999999
 21
-37.285187
 31
0.0
  0
LINE
  5
245
330
3B1
100
AcDbEntity
  8
0
  6
Continuous
 62
     7
100
AcDbLine
 10
11.27860599999999
 20
-37.285187
 30
0.0
 11
11.27860599999999
 21
-38.485199
 31
0.0
  0
LINE
  5
246
330
3B1
100
AcDbEntity
  8
0
  6
Continuous
 62
     7
100
AcDbLine
 10
11.778606
 20
-38.985199
 30
0.0
 11
12.978619
 21
-38.985199
 31
0.0
  0
LINE
  5
247
330
3B1
100
AcDbEntity
  8
0
  6
Continuous
 62
     7
100
AcDbLine
 10
12.978619
 20
-38.985199
 30
0.0
 11
12.978619
 21
-39.985199
 31
0.0
  0
LINE
  5
248
330
3B1
100
AcDbEntity
  8
0
  6
Continuous
 62
     7
100
AcDbLine
 10
12.978619
 20
-39.985199
 30
0.0
 11
11.778606
 21
-39.985199
 31
0.0
  0
LINE
  5
249
330
3B1
100
AcDbEntity
  8
0
  6
Continuous
 62
     7
100
AcDbLine
 10
11.27860599999999
 20
-40.485199
 30
0.0
 11
11.27860599999999
 21
-41.685181
 31
0.0
  0
LINE
  5
24A
330
3B1
100
AcDbEntity
  8
0
  6
Continuous
 62
     7
100
AcDbLine
 10
11.27860599999999
 20
-41.685181
 30
0.0
 11
10.278606
 21
-41.685181
 31
0.0
  0
LINE
  5
24B
330
3B1
100
AcDbEntity
  8
0
  6
Continuous
 62
     7
100
AcDbLine
 10
10.278606
 20
-41.685181
 30
0.0
 11
10.278606
 21
-40.485199
 31
0.0
  0
LINE
  5
24C
330
3B1
100
AcDbEntity
  8
0
  6
Continuous
 62
     7
100
AcDbLine
 10
9.778606399999999
 20
-39.985199
 30
0.0
 11
8.5785952
 21
-39.985199
 31
0.0
  0
LINE
  5
24D
330
3B1
100
AcDbEntity
  8
0
  6
Continuous
 62
     7
100
AcDbLine
 10
8.5785952
 20
-39.985199
 30
0.0
 11
8.5785952
 21
-38.985199
 31
0.0
  0
LINE
  5
24E
330
3B1
100
AcDbEntity
  8
0
  6
Continuous
 62
     7
100
AcDbLine
 10
8.5785952
 20
-38.985199
 30
0.0
 11
9.778606399999999
 21
-38.985199
 31
0.0
  0
LINE
  5
24F
330
3B1
100
AcDbEntity
  8
0
  6
Continuous
 62
     7
100
AcDbLine
 10
10.278606
 20
-38.485199
 30
0.0
 11
10.278606
 21
-37.285187
 31
0.0
  0
LINE
  5
250
330
3B1
100
AcDbEntity
  8
0
  6
Continuous
 62
     7
100
AcDbLine
 10
60.278603
 20
-37.285187
 30
0.0
 11
61.278603
 21
-37.285187
 31
0.0
  0
LINE
  5
251
330
3B1
100
AcDbEntity
  8
0
  6
Continuous
 62
     7
100
AcDbLine
 10
61.278603
 20
-37.285187
 30
0.0
 11
61.278603
 21
-38.485199
 31
0.0
  0
LINE
  5
252
330
3B1
100
AcDbEntity
  8
0
  6
Continuous
 62
     7
100
AcDbLine
 10
61.77861
 20
-38.985199
 30
0.0
 11
62.97862199999999
 21
-38.985199
 31
0.0
  0
LINE
  5
253
330
3B1
100
AcDbEntity
  8
0
  6
Continuous
 62
     7
100
AcDbLine
 10
62.97862199999999
 20
-38.985199
 30
0.0
 11
62.97862199999999
 21
-39.985199
 31
0.0
  0
LINE
  5
254
330
3B1
100
AcDbEntity
  8
0
  6
Continuous
 62
     7
100
AcDbLine
 10
62.97862199999999
 20
-39.985199
 30
0.0
 11
61.77861
 21
-39.985199
 31
0.0
  0
LINE
  5
255
330
3B1
100
AcDbEntity
  8
0
  6
Continuous
 62
     7
100
AcDbLine
 10
61.278603
 20
-40.485199
 30
0.0
 11
61.278603
 21
-41.685181
 31
0.0
  0
LINE
  5
256
330
3B1
100
AcDbEntity
  8
0
  6
Continuous
 62
     7
100
AcDbLine
 10
61.278603
 20
-41.685181
 30
0.0
 11
60.278603
 21
-41.685181
 31
0.0
  0
LINE
  5
257
330
3B1
100
AcDbEntity
  8
0
  6
Continuous
 62
     7
100
AcDbLine
 10
60.278603
 20
-41.685181
 30
0.0
 11
60.278603
 21
-40.485199
 31
0.0
  0
LINE
  5
258
330
3B1
100
AcDbEntity
  8
0
  6
Continuous
 62
     7
100
AcDbLine
 10
59.77860299999999
 20
-39.985199
 30
0.0
 11
58.57859000000001
 21
-39.985199
 31
0.0
  0
LINE
  5
259
330
3B1
100
AcDbEntity
  8
0
  6
Continuous
 62
     7
100
AcDbLine
 10
58.57859000000001
 20
-39.985199
 30
0.0
 11
58.57859000000001
 21
-38.985199
 31
0.0
  0
LINE
  5
25A
330
3B1
100
AcDbEntity
  8
0
  6
Continuous
 62
     7
100
AcDbLine
 10
58.57859000000001
 20
-38.985199
 30
0.0
 11
59.77860299999999
 21
-38.985199
 31
0.0
  0
LINE
  5
25B
330
3B1
100
AcDbEntity
  8
0
  6
Continuous
 62
     7
100
AcDbLine
 10
60.278603
 20
-38.485199
 30
0.0
 11
60.278603
 21
-37.285187
 31
0.0
  0
LINE
  5
25C
330
3B1
100
AcDbEntity
  8
0
  6
Continuous
 62
     7
100
AcDbLine
 10
73.078621
 20
76.99053999999998
 30
0.0
 11
76.27861
 21
76.99053999999998
 31
0.0
  0
LINE
  5
25D
330
3B1
100
AcDbEntity
  8
0
  6
DASHED
 62
     7
100
AcDbLine
 10
-28.471394
 20
-78.975128
 30
0.0
 11
-28.471394
 21
-83.475128
 31
0.0
  0
LINE
  5
25E
330
3B1
100
AcDbEntity
  8
0
  6
DASHED
 62
     7
100
AcDbLine
 10
-19.971394
 20
-78.975128
 30
0.0
 11
-19.971394
 21
-83.475128
 31
0.0
  0
LINE
  5
25F
330
3B1
100
AcDbEntity
  8
0
  6
CENTER
 62
     7
100
AcDbLine
 10
-24.221394
 20
-75.975128
 30
0.0
 11
-24.221394
 21
-86.47512799999999
 31
0.0
  0
LINE
  5
260
330
3B1
100
AcDbEntity
  8
0
  6
DASHED
 62
     7
100
AcDbLine
 10
91.52860999999999
 20
-78.975128
 30
0.0
 11
91.52860999999999
 21
-83.475128
 31
0.0
  0
LINE
  5
261
330
3B1
100
AcDbEntity
  8
0
  6
CENTER
 62
     7
100
AcDbLine
 10
95.77861
 20
-75.975128
 30
0.0
 11
95.77861
 21
-86.47512799999999
 31
0.0
  0
LINE
  5
262
330
3B1
100
AcDbEntity
  8
0
  6
DASHED
 62
     7
100
AcDbLine
 10
100.02861
 20
-78.975128
 30
0.0
 11
100.02861
 21
-83.475128
 31
0.0
  0
LINE
  5
263
330
3B1
100
AcDbEntity
  8
0
  6
DASHED
 62
     7
100
AcDbLine
 10
-134.0056899999999
 20
-78.975128
 30
0.0
 11
-134.0056899999999
 21
-83.475128
 31
0.0
  0
LINE
  5
264
330
3B1
100
AcDbEntity
  8
0
  6
DASHED
 62
     7
100
AcDbLine
 10
-115.5056899999999
 20
-78.975128
 30
0.0
 11
-115.5056899999999
 21
-83.475128
 31
0.0
  0
LINE
  5
265
330
3B1
100
AcDbEntity
  8
0
  6
Continuous
 62
     7
100
AcDbLine
 10
0.7786021800000002
 20
1.5248756
 30
0.0
 11
0.7786021800000002
 21
-49.48519499999999
 31
0.0
  0
LINE
  5
266
330
3B1
100
AcDbEntity
  8
0
  6
CENTER
 62
     7
100
AcDbLine
 10
60.77860300000001
 20
-24.612812
 30
0.0
 11
60.77860300000001
 21
-47.358307
 31
0.0
  0
LINE
  5
267
330
3B1
100
AcDbEntity
  8
0
  6
CENTER
 62
     7
100
AcDbLine
 10
55.028603
 20
-39.485199
 30
0.0
 11
66.528603
 21
-39.485199
 31
0.0
  0
LINE
  5
268
330
3B1
100
AcDbEntity
  8
0
  6
CENTER
 62
     7
100
AcDbLine
 10
35.778603
 20
-9.4851971
 30
0.0
 11
35.778603
 21
-37.485199
 31
0.0
  0
LINE
  5
269
330
3B1
100
AcDbEntity
  8
0
  6
CENTER
 62
     7
100
AcDbLine
 10
21.778603
 20
-23.485197
 30
0.0
 11
49.77860299999999
 21
-23.485197
 31
0.0
  0
LINE
  5
26A
330
3B1
100
AcDbEntity
  8
0
  6
CENTER
 62
     7
100
AcDbLine
 10
10.77860299999999
 20
-25.358566
 30
0.0
 11
10.77860299999999
 21
-47.731186
 31
0.0
  0
LINE
  5
26B
330
3B1
100
AcDbEntity
  8
0
  6
CENTER
 62
     7
100
AcDbLine
 10
5.028602099999999
 20
-39.485199
 30
0.0
 11
16.528603
 21
-39.485199
 31
0.0
  0
LINE
  5
26C
330
3B1
100
AcDbEntity
  8
0
  6
Continuous
 62
     7
100
AcDbLine
 10
-108.4556899999999
 20
10.514803
 30
0.0
 11
-108.4556899999999
 21
-49.48519499999999
 31
0.0
  0
LINE
  5
26D
330
3B1
100
AcDbEntity
  8
0
  6
Continuous
 62
     7
100
AcDbLine
 10
-110.7556899999999
 20
-49.48519499999999
 30
0.0
 11
-108.4556899999999
 21
-49.48519499999999
 31
0.0
  0
LINE
  5
26E
330
3B1
100
AcDbEntity
  8
0
  6
Continuous
 62
     7
100
AcDbLine
 10
0.77860695
 20
70.19053599999999
 30
0.0
 11
70.77861
 21
70.19053599999999
 31
0.0
  0
LINE
  5
26F
330
3B1
100
AcDbEntity
  8
0
  6
Continuous
 62
     7
100
AcDbLine
 10
0.77860695
 20
72.49053999999998
 30
0.0
 11
0.77860695
 21
70.19053599999999
 31
0.0
  0
LINE
  5
270
330
3B1
100
AcDbEntity
  8
0
  6
Continuous
 62
     7
100
AcDbLine
 10
0.77860695
 20
72.49053999999998
 30
0.0
 11
20.778606
 21
72.49053999999998
 31
0.0
  0
LINE
  5
271
330
3B1
100
AcDbEntity
  8
0
  6
Continuous
 62
     7
100
AcDbLine
 10
50.77860600000001
 20
72.49053999999998
 30
0.0
 11
70.77861
 21
72.49053999999998
 31
0.0
  0
LINE
  5
272
330
3B1
100
AcDbEntity
  8
0
  6
Continuous
 62
     7
100
AcDbLine
 10
0.77860695
 20
72.49053999999998
 30
0.0
 11
70.77861799999999
 21
72.49053999999998
 31
0.0
  0
LINE
  5
273
330
3B1
100
AcDbEntity
  8
0
  6
Continuous
 62
     7
100
AcDbLine
 10
0.77860695
 20
76.99053999999998
 30
0.0
 11
0.77860695
 21
72.49053999999998
 31
0.0
  0
LINE
  5
274
330
3B1
100
AcDbEntity
  8
0
  6
Continuous
 62
     7
100
AcDbLine
 10
70.77861
 20
79.896461
 30
0.0
 11
70.77861
 21
72.49053999999998
 31
0.0
  0
LINE
  5
275
330
3B1
100
AcDbEntity
  8
0
  6
Continuous
 62
     7
100
AcDbLine
 10
0.77860695
 20
76.99053999999998
 30
0.0
 11
70.77861
 21
76.99053999999998
 31
0.0
  0
LINE
  5
276
330
3B1
100
AcDbEntity
  8
0
  6
Continuous
 62
     7
100
AcDbLine
 10
14.778603
 20
69.19053599999999
 30
0.0
 11
14.778603
 21
67.754471
 31
0.0
  0
LINE
  5
277
330
3B1
100
AcDbEntity
  8
0
  6
Continuous
 62
     7
100
AcDbLine
 10
11.278603
 20
66.99052399999999
 30
0.0
 11
10.278603
 21
66.99052399999999
 31
0.0
  0
LINE
  5
278
330
3B1
100
AcDbEntity
  8
0
  6
Continuous
 62
     7
100
AcDbLine
 10
16.778603
 20
70.19053599999999
 30
0.0
 11
16.778603
 21
69.19053599999999
 31
0.0
  0
LINE
  5
279
330
3B1
100
AcDbEntity
  8
0
  6
Continuous
 62
     7
100
AcDbLine
 10
6.778603099999999
 20
69.19053599999999
 30
0.0
 11
6.778603099999999
 21
67.754471
 31
0.0
  0
LINE
  5
27A
330
3B1
100
AcDbEntity
  8
0
  6
Continuous
 62
     7
100
AcDbLine
 10
16.778603
 20
69.19053599999999
 30
0.0
 11
4.778603099999998
 21
69.19053599999999
 31
0.0
  0
LINE
  5
27B
330
3B1
100
AcDbEntity
  8
0
  6
Continuous
 62
     7
100
AcDbLine
 10
10.278603
 20
66.99052399999999
 30
0.0
 11
10.278603
 21
66.462021
 31
0.0
  0
LINE
  5
27C
330
3B1
100
AcDbEntity
  8
0
  6
Continuous
 62
     7
100
AcDbLine
 10
11.278603
 20
66.99052399999999
 30
0.0
 11
11.278603
 21
66.465195
 31
0.0
  0
LINE
  5
27D
330
3B1
100
AcDbEntity
  8
0
  6
Continuous
 62
     7
100
AcDbLine
 10
14.778603
 20
68.190536
 30
0.0
 11
6.778603099999999
 21
68.190536
 31
0.0
  0
LINE
  5
27E
330
3B1
100
AcDbEntity
  8
0
  6
Continuous
 62
     7
100
AcDbLine
 10
4.778603099999998
 20
70.19053599999999
 30
0.0
 11
4.778603099999998
 21
69.19053599999999
 31
0.0
  0
LINE
  5
27F
330
3B1
100
AcDbEntity
  8
0
  6
Continuous
 62
     7
100
AcDbLine
 10
56.77860299999999
 20
69.19053599999999
 30
0.0
 11
56.77860299999999
 21
67.754471
 31
0.0
  0
LINE
  5
280
330
3B1
100
AcDbEntity
  8
0
  6
Continuous
 62
     7
100
AcDbLine
 10
66.778595
 20
70.19053599999999
 30
0.0
 11
66.778595
 21
69.19053599999999
 31
0.0
  0
LINE
  5
281
330
3B1
100
AcDbEntity
  8
0
  6
Continuous
 62
     7
100
AcDbLine
 10
60.27859499999999
 20
66.99052399999999
 30
0.0
 11
60.27859499999999
 21
66.462021
 31
0.0
  0
LINE
  5
282
330
3B1
100
AcDbEntity
  8
0
  6
Continuous
 62
     7
100
AcDbLine
 10
64.778595
 20
68.190536
 30
0.0
 11
56.77860299999999
 21
68.190536
 31
0.0
  0
LINE
  5
283
330
3B1
100
AcDbEntity
  8
0
  6
Continuous
 62
     7
100
AcDbLine
 10
61.27859499999999
 20
66.99052399999999
 30
0.0
 11
60.27859499999999
 21
66.99052399999999
 31
0.0
  0
LINE
  5
284
330
3B1
100
AcDbEntity
  8
0
  6
Continuous
 62
     7
100
AcDbLine
 10
61.27859499999999
 20
66.99052399999999
 30
0.0
 11
61.27859499999999
 21
66.465195
 31
0.0
  0
LINE
  5
285
330
3B1
100
AcDbEntity
  8
0
  6
Continuous
 62
     7
100
AcDbLine
 10
66.778595
 20
69.19053599999999
 30
0.0
 11
54.778599
 21
69.19053599999999
 31
0.0
  0
LINE
  5
286
330
3B1
100
AcDbEntity
  8
0
  6
Continuous
 62
     7
100
AcDbLine
 10
64.778595
 20
69.19053599999999
 30
0.0
 11
64.778595
 21
67.754471
 31
0.0
  0
LINE
  5
287
330
3B1
100
AcDbEntity
  8
0
  6
Continuous
 62
     7
100
AcDbLine
 10
54.778599
 20
70.19053599999999
 30
0.0
 11
54.778599
 21
69.19053599999999
 31
0.0
  0
LINE
  5
288
330
3B1
100
AcDbEntity
  8
0
  6
CENTER
 62
     7
100
AcDbLine
 10
10.77860299999999
 20
79.99053999999998
 30
0.0
 11
10.77860299999999
 21
61.990528
 31
0.0
  0
LINE
  5
289
330
3B1
100
AcDbEntity
  8
0
  6
CENTER
 62
     7
100
AcDbLine
 10
60.77860300000001
 20
79.99053999999998
 30
0.0
 11
60.77860300000001
 21
61.990528
 31
0.0
  0
LINE
  5
28A
330
3B1
100
AcDbEntity
  8
0
  6
Continuous
 62
     7
100
AcDbLine
 10
13.38676099999999
 20
79.49053999999998
 30
0.0
 11
58.190567
 21
79.49053999999998
 31
0.0
  0
LINE
  5
28B
330
3B1
100
AcDbEntity
  8
0
  6
Continuous
 62
     7
100
AcDbLine
 10
58.19055899999999
 20
95.49053999999999
 30
0.0
 11
35.78867699999999
 21
95.49053999999999
 31
0.0
  0
LINE
  5
28C
330
3B1
100
AcDbEntity
  8
0
  6
Continuous
 62
     7
100
AcDbLine
 10
60.78867299999998
 20
80.99053999999998
 30
0.0
 11
60.78867299999998
 21
83.74053999999999
 31
0.0
  0
LINE
  5
28D
330
3B1
100
AcDbEntity
  8
0
  6
Continuous
 62
     7
100
AcDbLine
 10
13.38676099999999
 20
95.49053999999999
 30
0.0
 11
35.78867699999999
 21
95.49053999999999
 31
0.0
  0
LINE
  5
28E
330
3B1
100
AcDbEntity
  8
0
  6
Continuous
 62
     7
100
AcDbLine
 10
10.78867699999999
 20
91.24053999999999
 30
0.0
 11
35.78867699999999
 21
91.24053999999999
 31
0.0
  0
LINE
  5
28F
330
3B1
100
AcDbEntity
  8
0
  6
Continuous
 62
     7
100
AcDbLine
 10
10.78867699999999
 20
83.74053999999999
 30
0.0
 11
60.78867299999998
 21
83.74053999999999
 31
0.0
  0
LINE
  5
290
330
3B1
100
AcDbEntity
  8
0
  6
Continuous
 62
     7
100
AcDbLine
 10
58.190601
 20
79.490555
 30
0.0
 11
60.78867699999999
 21
80.990555
 31
0.0
  0
LINE
  5
291
330
3B1
100
AcDbEntity
  8
0
  6
Continuous
 62
     7
100
AcDbLine
 10
60.78867299999998
 20
91.24053999999999
 30
0.0
 11
35.78867699999999
 21
91.24053999999999
 31
0.0
  0
LINE
  5
292
330
3B1
100
AcDbEntity
  8
0
  6
Continuous
 62
     7
100
AcDbLine
 10
13.386772
 20
79.490555
 30
0.0
 11
10.78869599999999
 21
80.990555
 31
0.0
  0
LINE
  5
293
330
3B1
100
AcDbEntity
  8
0
  6
Continuous
 62
     7
100
AcDbLine
 10
10.78867699999999
 20
93.99053999999999
 30
0.0
 11
60.78867299999998
 21
93.99053999999999
 31
0.0
  0
LINE
  5
294
330
3B1
100
AcDbEntity
  8
0
  6
CENTER
 62
     7
100
AcDbLine
 10
8.7886772
 20
87.49053999999999
 30
0.0
 11
62.78867299999999
 21
87.49053999999999
 31
0.0
  0
LINE
  5
295
330
3B1
100
AcDbEntity
  8
0
  6
Continuous
 62
     7
100
AcDbLine
 10
10.78867699999999
 20
80.99053999999998
 30
0.0
 11
10.78867699999999
 21
83.74053999999999
 31
0.0
  0
LINE
  5
296
330
3B1
100
AcDbEntity
  8
0
  6
Continuous
 62
     7
100
AcDbLine
 10
10.78867699999999
 20
80.99053999999998
 30
0.0
 11
60.78867299999998
 21
80.99053999999998
 31
0.0
  0
LINE
  5
297
330
3B1
100
AcDbEntity
  8
0
  6
Continuous
 62
     7
100
AcDbLine
 10
10.78867699999999
 20
91.24053999999999
 30
0.0
 11
10.78867699999999
 21
93.99053999999999
 31
0.0
  0
LINE
  5
298
330
3B1
100
AcDbEntity
  8
0
  6
Continuous
 62
     7
100
AcDbLine
 10
10.78869599999999
 20
93.99053999999999
 30
0.0
 11
13.386772
 21
95.49053999999999
 31
0.0
  0
LINE
  5
299
330
3B1
100
AcDbEntity
  8
0
  6
Continuous
 62
     7
100
AcDbLine
 10
60.78864300000001
 20
93.990524
 30
0.0
 11
58.190567
 21
95.49052399999998
 31
0.0
  0
LINE
  5
29A
330
3B1
100
AcDbEntity
  8
0
  6
Continuous
 62
     7
100
AcDbLine
 10
60.78867299999998
 20
91.24053999999999
 30
0.0
 11
60.78867299999998
 21
93.99053999999999
 31
0.0
  0
LINE
  5
29B
330
3B1
100
AcDbEntity
  8
0
  6
CENTER
 62
     7
100
AcDbLine
 10
-116.56855
 20
-39.485195
 30
0.0
 11
-102.10231
 21
-39.485195
 31
0.0
  0
LINE
  5
29C
330
3B1
100
AcDbEntity
  8
0
  6
Continuous
 62
     7
100
AcDbLine
 10
-81.00000799999998
 20
165.0
 30
0.0
 11
8.9999847
 21
165.0
 31
0.0
  0
LINE
  5
29D
330
3B1
100
AcDbEntity
  8
0
  6
Continuous
 62
     7
100
AcDbLine
 10
-81.00000799999998
 20
149.0
 30
0.0
 11
8.9999847
 21
149.0
 31
0.0
  0
LINE
  5
29E
330
3B1
100
AcDbEntity
  8
0
  6
Continuous
 62
     7
100
AcDbLine
 10
-81.00000799999998
 20
157.0
 30
0.0
 11
8.9999847
 21
157.0
 31
0.0
  0
LINE
  5
29F
330
3B1
100
AcDbEntity
  8
0
  6
Continuous
 62
     7
100
AcDbLine
 10
-81.00000799999998
 20
173.0
 30
0.0
 11
-81.00000799999998
 21
141.0
 31
0.0
  0
LINE
  5
2A0
330
3B1
100
AcDbEntity
  8
0
  6
Continuous
 62
     7
100
AcDbLine
 10
8.9999847
 20
173.0
 30
0.0
 11
8.9999847
 21
141.0
 31
0.0
  0
LINE
  5
2A1
330
3B1
100
AcDbEntity
  8
0
  6
Continuous
 62
     7
100
AcDbLine
 10
11.791781
 20
-72.370216
 30
0.0
 11
9.773642499999999
 21
-68.574455
 31
0.0
  0
LINE
  5
2A2
330
3B1
100
AcDbEntity
  8
0
  6
Continuous
 62
     7
100
AcDbLine
 10
-81.00000799999998
 20
141.0
 30
0.0
 11
-81.00000799999998
 21
133.0
 31
0.0
  0
LINE
  5
2A3
330
3B1
100
AcDbEntity
  8
0
  6
Continuous
 62
     7
100
AcDbLine
 10
-81.00000799999998
 20
141.0
 30
0.0
 11
8.9999847
 21
141.0
 31
0.0
  0
LINE
  5
2A4
330
3B1
100
AcDbEntity
  8
0
  6
Continuous
 62
     7
100
AcDbLine
 10
-101.00001
 20
133.0
 30
0.0
 11
8.9999847
 21
133.0
 31
0.0
  0
LINE
  5
2A5
330
3B1
100
AcDbEntity
  8
0
  6
Continuous
 62
     7
100
AcDbLine
 10
8.9999847
 20
141.0
 30
0.0
 11
8.9999847
 21
133.0
 31
0.0
  0
LINE
  5
2A6
330
3B1
100
AcDbEntity
  8
0
  6
Continuous
 62
     7
100
AcDbLine
 10
0.7786026000000002
 20
-2.488517299999998
 30
0.0
 11
0.7786026000000002
 21
-47.48851799999999
 31
0.0
  0
LINE
  5
2A7
330
3B1
100
AcDbEntity
  8
0
  6
Continuous
 62
     7
100
AcDbLine
 10
70.77860300000001
 20
-9.4851971
 30
0.0
 11
70.77860300000001
 21
-51.485199
 31
0.0
  0
LINE
  5
2A8
330
3B1
100
AcDbEntity
  8
0
  6
Continuous
 62
     7
100
AcDbLine
 10
0.7786026000000002
 20
10.514803
 30
0.0
 11
0.7786026000000002
 21
-51.485199
 31
0.0
  0
LINE
  5
2A9
330
3B1
100
AcDbEntity
  8
0
  6
Continuous
 62
     7
100
AcDbLine
 10
73.078621
 20
10.514803
 30
0.0
 11
73.078621
 21
-9.4851971
 31
0.0
  0
LINE
  5
2AA
330
3B1
100
AcDbEntity
  8
0
  6
Continuous
 62
     7
100
AcDbLine
 10
70.77860300000001
 20
-9.4851971
 30
0.0
 11
90.77860300000001
 21
-9.4851971
 31
0.0
  0
LINE
  5
2AB
330
3B1
100
AcDbEntity
  8
0
  6
Continuous
 62
     7
100
AcDbLine
 10
0.7786026000000002
 20
10.514803
 30
0.0
 11
90.77860300000001
 21
10.514803
 31
0.0
  0
LINE
  5
2AC
330
3B1
100
AcDbEntity
  8
0
  6
Continuous
 62
     7
100
AcDbLine
 10
90.77860300000001
 20
10.514803
 30
0.0
 11
90.77860300000001
 21
7.1468949
 31
0.0
  0
LINE
  5
2AD
330
3B1
100
AcDbEntity
  8
0
  6
Continuous
 62
     7
100
AcDbLine
 10
13.528603
 20
-30.48519699999999
 30
0.0
 11
13.528603
 21
-34.152515
 31
0.0
  0
LINE
  5
2AE
330
3B1
100
AcDbEntity
  8
0
  6
Continuous
 62
     7
100
AcDbLine
 10
8.028602599999999
 20
-30.48519699999999
 30
0.0
 11
8.028602599999999
 21
-34.15251899999999
 31
0.0
  0
LINE
  5
2AF
330
3B1
100
AcDbEntity
  8
0
  6
Continuous
 62
     7
100
AcDbLine
 10
63.52860299999999
 20
-30.48519699999999
 30
0.0
 11
63.52860299999999
 21
-34.152515
 31
0.0
  0
LINE
  5
2B0
330
3B1
100
AcDbEntity
  8
0
  6
Continuous
 62
     7
100
AcDbLine
 10
58.02860299999999
 20
-30.48519699999999
 30
0.0
 11
58.02860299999999
 21
-34.152515
 31
0.0
  0
LINE
  5
2B1
330
3B1
100
AcDbEntity
  8
0
  6
Continuous
 62
     7
100
AcDbLine
 10
0.7786026000000002
 20
-51.485199
 30
0.0
 11
70.77860300000001
 21
-51.485199
 31
0.0
  0
LINE
  5
2B2
330
3B1
100
AcDbEntity
  8
0
  6
Continuous
 62
     7
100
AcDbLine
 10
24.778603
 20
-11.485197
 30
0.0
 11
24.778603
 21
-28.48519699999999
 31
0.0
  0
LINE
  5
2B3
330
3B1
100
AcDbEntity
  8
0
  6
Continuous
 62
     7
100
AcDbLine
 10
46.77860299999999
 20
-11.485197
 30
0.0
 11
46.77860299999999
 21
-28.48519699999999
 31
0.0
  0
LINE
  5
2B4
330
3B1
100
AcDbEntity
  8
0
  6
Continuous
 62
     7
100
AcDbLine
 10
-120.4556899999999
 20
10.514803
 30
0.0
 11
-120.4556899999999
 21
1.5248756
 31
0.0
  0
LINE
  5
2B5
330
3B1
100
AcDbEntity
  8
0
  6
Continuous
 62
     7
100
AcDbLine
 10
-108.4556899999999
 20
10.514803
 30
0.0
 11
-120.4556899999999
 21
10.514803
 31
0.0
  0
LINE
  5
2B6
330
3B1
100
AcDbEntity
  8
0
  6
Continuous
 62
     7
100
AcDbLine
 10
-115.2556899999999
 20
-9.4851971
 30
0.0
 11
-117.7556899999999
 21
-9.4851971
 31
0.0
  0
LINE
  5
2B7
330
3B1
100
AcDbEntity
  8
0
  6
CENTER
 62
     7
100
AcDbLine
 10
-130.7116649999999
 20
4.0148029
 30
0.0
 11
-106.8303076182267
 21
4.0148029
 31
0.0
  0
LINE
  5
2B8
330
3B1
100
AcDbEntity
  8
0
  6
CENTER
 62
     7
100
AcDbLine
 10
4.504107999999999
 20
-36.485199
 30
0.0
 11
17.204315
 21
-36.485199
 31
0.0
  0
LINE
  5
2B9
330
3B1
100
AcDbEntity
  8
0
  6
CENTER
 62
     7
100
AcDbLine
 10
67.053101
 20
-36.485199
 30
0.0
 11
54.35289
 21
-36.485199
 31
0.0
  0
LINE
  5
2BA
330
3B1
100
AcDbEntity
  8
0
  6
Continuous
 62
     7
100
AcDbLine
 10
73.07860599999999
 20
82.19053599999998
 30
0.0
 11
90.77860300000001
 21
82.19053599999998
 31
0.0
  0
LINE
  5
2BB
330
3B1
100
AcDbEntity
  8
0
  6
Continuous
 62
     7
100
AcDbLine
 10
73.078621
 20
72.49053999999998
 30
0.0
 11
73.078621
 21
79.89053299999998
 31
0.0
  0
LINE
  5
2BC
330
3B1
100
AcDbEntity
  8
0
  6
Continuous
 62
     7
100
AcDbLine
 10
90.77860300000001
 20
79.89053299999998
 30
0.0
 11
90.77860300000001
 21
82.19053599999998
 31
0.0
  0
LINE
  5
2BD
330
3B1
100
AcDbEntity
  8
0
  6
Continuous
 62
     7
100
AcDbLine
 10
73.078621
 20
79.89053299999998
 30
0.0
 11
91.67859599999998
 21
79.89053299999998
 31
0.0
  0
LINE
  5
2BE
330
3B1
100
AcDbEntity
  8
0
  6
CENTER
 62
     7
100
AcDbLine
 10
85.77860299999997
 20
70.05098433622606
 30
0.0
 11
85.77860299999997
 21
88.22068749999997
 31
0.0
  0
LINE
  5
2C7
330
3B1
100
AcDbEntity
  8
0
  6
Continuous
 62
     7
100
AcDbLine
 10
86.534721
 20
5.3604908
 30
0.0
 11
86.534721
 21
6.5148029
 31
0.0
  0
LINE
  5
2C8
330
3B1
100
AcDbEntity
  8
0
  6
Continuous
 62
     7
100
AcDbLine
 10
86.534721
 20
6.5148029
 30
0.0
 11
85.02246900000001
 21
6.5148029
 31
0.0
  0
LINE
  5
2C9
330
3B1
100
AcDbEntity
  8
0
  6
Continuous
 62
     7
100
AcDbLine
 10
85.02246900000001
 20
6.5148029
 30
0.0
 11
85.02246900000001
 21
5.3604908
 31
0.0
  0
LINE
  5
2CA
330
3B1
100
AcDbEntity
  8
0
  6
Continuous
 62
     7
100
AcDbLine
 10
84.43289900000001
 20
4.770921699999999
 30
0.0
 11
83.27860300000001
 21
4.770921699999999
 31
0.0
  0
LINE
  5
2CD
330
3B1
100
AcDbEntity
  8
0
  6
Continuous
 62
     7
100
AcDbLine
 10
83.27860300000001
 20
4.770921699999999
 30
0.0
 11
83.27860300000001
 21
3.258684199999999
 31
0.0
  0
LINE
  5
2CE
330
3B1
100
AcDbEntity
  8
0
  6
Continuous
 62
     7
100
AcDbLine
 10
83.27860300000001
 20
3.258684199999999
 30
0.0
 11
84.43289900000001
 21
3.258684199999999
 31
0.0
  0
LINE
  5
2CF
330
3B1
100
AcDbEntity
  8
0
  6
Continuous
 62
     7
100
AcDbLine
 10
85.02246900000001
 20
2.669115099999999
 30
0.0
 11
85.02246900000001
 21
1.514802899999999
 31
0.0
  0
LINE
  5
2D0
330
3B1
100
AcDbEntity
  8
0
  6
Continuous
 62
     7
100
AcDbLine
 10
85.02246900000001
 20
1.514802899999999
 30
0.0
 11
86.534721
 21
1.514802899999999
 31
0.0
  0
LINE
  5
2D1
330
3B1
100
AcDbEntity
  8
0
  6
Continuous
 62
     7
100
AcDbLine
 10
86.534721
 20
1.514802899999999
 30
0.0
 11
86.534721
 21
2.669115099999999
 31
0.0
  0
LINE
  5
2D2
330
3B1
100
AcDbEntity
  8
0
  6
Continuous
 62
     7
100
AcDbLine
 10
87.12429
 20
3.258684199999999
 30
0.0
 11
88.27860300000001
 21
3.258684199999999
 31
0.0
  0
LINE
  5
2D3
330
3B1
100
AcDbEntity
  8
0
  6
Continuous
 62
     7
100
AcDbLine
 10
88.27860300000001
 20
3.258684199999999
 30
0.0
 11
88.27860300000001
 21
4.770921699999999
 31
0.0
  0
LINE
  5
2D5
330
3B1
100
AcDbEntity
  8
0
  6
Continuous
 62
     7
100
AcDbLine
 10
88.27860300000001
 20
4.770921699999999
 30
0.0
 11
87.12429
 21
4.770921699999999
 31
0.0
  0
LINE
  5
2D6
330
3B1
100
AcDbEntity
  8
0
  6
Continuous
 62
     7
100
AcDbLine
 10
90.77860300000001
 20
0.88271081
 30
0.0
 11
90.77860300000001
 21
-9.4851971
 31
0.0
  0
LINE
  5
2D7
330
3B1
100
AcDbEntity
  8
0
  6
CENTER
 62
     7
100
AcDbLine
 10
94.21860499999999
 20
4.0148029
 30
0.0
 11
77.33859999999999
 21
4.0148029
 31
0.0
  0
LINE
  5
2D8
330
3B1
100
AcDbEntity
  8
0
  6
CENTER
 62
     7
100
AcDbLine
 10
85.77860300000001
 20
12.454803
 30
0.0
 11
85.77860300000001
 21
-4.4251971
 31
0.0
  0
LINE
  5
2DB
330
3B1
100
AcDbEntity
  8
0
  6
Continuous
 62
     7
100
AcDbLine
 10
13.278603
 20
78.19053599999998
 30
0.0
 11
8.278602599999999
 21
78.19053599999998
 31
0.0
  0
LINE
  5
2DC
330
3B1
100
AcDbEntity
  8
0
  6
Continuous
 62
     7
100
AcDbLine
 10
8.278602599999999
 20
78.19053599999998
 30
0.0
 11
8.278602599999999
 21
76.99053999999998
 31
0.0
  0
LINE
  5
2DD
330
3B1
100
AcDbEntity
  8
0
  6
Continuous
 62
     7
100
AcDbLine
 10
13.278603
 20
78.19053599999998
 30
0.0
 11
13.278603
 21
76.99053999999998
 31
0.0
  0
LINE
  5
2DE
330
3B1
100
AcDbEntity
  8
0
  6
Continuous
 62
     7
100
AcDbLine
 10
12.903603
 20
78.19053599999998
 30
0.0
 11
12.903603
 21
76.99053999999998
 31
0.0
  0
LINE
  5
2DF
330
3B1
100
AcDbEntity
  8
0
  6
Continuous
 62
     7
100
AcDbLine
 10
8.653602599999999
 20
78.19053599999998
 30
0.0
 11
8.653602599999999
 21
76.99053999999998
 31
0.0
  0
LINE
  5
2E0
330
3B1
100
AcDbEntity
  8
0
  6
Continuous
 62
     7
100
AcDbLine
 10
58.27860300000001
 20
78.19053599999998
 30
0.0
 11
58.27860300000001
 21
76.99053999999998
 31
0.0
  0
LINE
  5
2E1
330
3B1
100
AcDbEntity
  8
0
  6
Continuous
 62
     7
100
AcDbLine
 10
63.27860300000001
 20
78.19053599999998
 30
0.0
 11
58.27860300000001
 21
78.19053599999998
 31
0.0
  0
LINE
  5
2E2
330
3B1
100
AcDbEntity
  8
0
  6
Continuous
 62
     7
100
AcDbLine
 10
63.27860300000001
 20
78.19053599999998
 30
0.0
 11
63.27860300000001
 21
76.99053999999998
 31
0.0
  0
LINE
  5
2E3
330
3B1
100
AcDbEntity
  8
0
  6
Continuous
 62
     7
100
AcDbLine
 10
58.65360299999999
 20
78.19053599999998
 30
0.0
 11
58.65360299999999
 21
76.99053999999998
 31
0.0
  0
LINE
  5
2E4
330
3B1
100
AcDbEntity
  8
0
  6
Continuous
 62
     7
100
AcDbLine
 10
62.90360299999999
 20
78.19053599999998
 30
0.0
 11
62.90360299999999
 21
76.99053999999998
 31
0.0
  0
LINE
  5
2E5
330
3B1
100
AcDbEntity
  8
0
  6
Continuous
 62
     7
100
AcDbLine
 10
-116.45569
 20
-41.98519499999999
 30
0.0
 11
-115.2556899999999
 21
-41.98519499999999
 31
0.0
  0
LINE
  5
2E6
330
3B1
100
AcDbEntity
  8
0
  6
Continuous
 62
     7
100
AcDbLine
 10
-116.45569
 20
-36.985195
 30
0.0
 11
-116.45569
 21
-41.98519499999999
 31
0.0
  0
LINE
  5
2E7
330
3B1
100
AcDbEntity
  8
0
  6
Continuous
 62
     7
100
AcDbLine
 10
-116.45569
 20
-36.985195
 30
0.0
 11
-115.2556899999999
 21
-36.985195
 31
0.0
  0
LINE
  5
2E8
330
3B1
100
AcDbEntity
  8
0
  6
Continuous
 62
     7
100
AcDbLine
 10
-116.45569
 20
-41.610195
 30
0.0
 11
-115.2556899999999
 21
-41.610195
 31
0.0
  0
LINE
  5
2E9
330
3B1
100
AcDbEntity
  8
0
  6
Continuous
 62
     7
100
AcDbLine
 10
-116.45569
 20
-37.360195
 30
0.0
 11
-115.2556899999999
 21
-37.360195
 31
0.0
  0
ARC
  5
2EA
330
3B1
100
AcDbEntity
  8
0
  6
Continuous
 62
     7
100
AcDbCircle
 10
-36.221394
 20
97.49054
 30
0.0
 40
3.0
100
AcDbArc
 50
90.0
 51
180.0
  0
ARC
  5
2EB
330
3B1
100
AcDbEntity
  8
0
  6
Continuous
 62
     7
100
AcDbCircle
 10
107.77861
 20
97.49054
 30
0.0
 40
3.0
100
AcDbArc
 50
0.0
 51
90.0
  0
ARC
  5
2EC
330
3B1
100
AcDbEntity
  8
0
  6
Continuous
 62
     7
100
AcDbCircle
 10
107.77861
 20
75.49053999999998
 30
0.0
 40
3.0
100
AcDbArc
 50
270.0
 51
0.0
  0
ARC
  5
2ED
330
3B1
100
AcDbEntity
  8
0
  6
Continuous
 62
     7
100
AcDbCircle
 10
-36.221394
 20
75.49053999999998
 30
0.0
 40
3.0
100
AcDbArc
 50
180.0
 51
270.0
  0
ARC
  5
2EE
330
3B1
100
AcDbEntity
  8
0
  6
Continuous
 62
     7
100
AcDbCircle
 10
95.77861
 20
91.49053999999999
 30
0.0
 40
4.25
100
AcDbArc
 50
0.0
 51
180.0
  0
ARC
  5
2EF
330
3B1
100
AcDbEntity
  8
0
  6
Continuous
 62
     7
100
AcDbCircle
 10
95.77861
 20
81.49053999999997
 30
0.0
 40
4.25
100
AcDbArc
 50
180.0
 51
0.0
  0
ARC
  5
2F0
330
3B1
100
AcDbEntity
  8
0
  6
Continuous
 62
     7
100
AcDbCircle
 10
-24.221394
 20
81.49053999999997
 30
0.0
 40
4.25
100
AcDbArc
 50
180.0
 51
0.0
  0
ARC
  5
2F1
330
3B1
100
AcDbEntity
  8
0
  6
Continuous
 62
     7
100
AcDbCircle
 10
-24.221394
 20
91.49053999999999
 30
0.0
 40
4.25
100
AcDbArc
 50
0.0
 51
180.0
  0
CIRCLE
  5
2F2
330
3B1
100
AcDbEntity
  8
0
  6
Continuous
 62
     7
100
AcDbCircle
 10
60.77860300000001
 20
-70.47512799999998
 30
0.0
 40
2.1500001
  0
CIRCLE
  5
2F3
330
3B1
100
AcDbEntity
  8
0
  6
Continuous
 62
     7
100
AcDbCircle
 10
10.77860599999999
 20
-70.47512799999998
 30
0.0
 40
2.1500001
  0
CIRCLE
  5
2F4
330
3B1
100
AcDbEntity
  8
0
  6
Continuous
 62
     7
100
AcDbCircle
 10
35.78886
 20
-23.485197
 30
0.0
 40
10.0
  0
CIRCLE
  5
2F5
330
3B1
100
AcDbEntity
  8
0
  6
Continuous
 62
     7
100
AcDbCircle
 10
35.77860599999999
 20
-65.47512799999998
 30
0.0
 40
3.0
  0
CIRCLE
  5
2F6
330
3B1
100
AcDbEntity
  8
0
  6
Continuous
 62
     7
100
AcDbCircle
 10
35.77860599999999
 20
-65.47512799999998
 30
0.0
 40
2.549999999999998
  0
ARC
  5
2F7
330
3B1
100
AcDbEntity
  8
0
  6
Continuous
 62
     7
100
AcDbCircle
 10
-125.7556899999999
 20
-49.475124
 30
0.0
 40
4.0
100
AcDbArc
 50
20.364135
 51
159.6358699999999
  0
ARC
  5
2F8
330
3B1
100
AcDbEntity
  8
0
  6
Continuous
 62
     7
100
AcDbCircle
 10
-125.7556899999999
 20
2.5248756
 30
0.0
 40
4.0
100
AcDbArc
 50
200.3641399999999
 51
339.63586
  0
ARC
  5
2F9
330
3B1
100
AcDbEntity
  8
0
  6
Continuous
 62
     7
100
AcDbCircle
 10
-106.0196199999999
 20
-37.485199
 30
0.0
 40
2.0
100
AcDbArc
 50
41.81022999999999
 51
90.0
  0
ARC
  5
2FA
330
3B1
100
AcDbEntity
  8
0
  6
Continuous
 62
     7
100
AcDbCircle
 10
-106.0196199999999
 20
-41.485199
 30
0.0
 40
2.0
100
AcDbArc
 50
270.0
 51
318.18977
  0
ARC
  5
2FB
330
3B1
100
AcDbEntity
  8
0
  6
Continuous
 62
     7
100
AcDbCircle
 10
-104.72717
 20
-40.985199
 30
0.0
 40
1.0
100
AcDbArc
 50
6.6408857
 51
90.0
  0
ARC
  5
2FC
330
3B1
100
AcDbEntity
  8
0
  6
Continuous
 62
     7
100
AcDbCircle
 10
-108.25568
 20
-39.485199
 30
0.0
 40
5.0
100
AcDbArc
 50
0.0
 51
41.810333
  0
ARC
  5
2FD
330
3B1
100
AcDbEntity
  8
0
  6
Continuous
 62
     7
100
AcDbCircle
 10
-104.7303499999999
 20
-37.985199
 30
0.0
 40
1.0
100
AcDbArc
 50
270.0
 51
353.6879299999998
  0
ARC
  5
2FE
330
3B1
100
AcDbEntity
  8
0
  6
Continuous
 62
     7
100
AcDbCircle
 10
-108.25568
 20
-39.485199
 30
0.0
 40
5.0
100
AcDbArc
 50
318.18967
 51
0.0
  0
ARC
  5
2FF
330
3B1
100
AcDbEntity
  8
0
  6
Continuous
 62
     7
100
AcDbCircle
 10
-105.7204599999999
 20
-41.10083
 30
0.0
 40
2.0
100
AcDbArc
 50
333.3540199999999
 51
6.641019500000002
  0
ARC
  5
300
330
3B1
100
AcDbEntity
  8
0
  6
Continuous
 62
     7
100
AcDbCircle
 10
-105.7242699999999
 20
-37.87524400000001
 30
0.0
 40
2.0
100
AcDbArc
 50
353.6879499999998
 51
32.455703
  0
CIRCLE
  5
301
330
3B1
100
AcDbEntity
  8
0
  6
Continuous
 62
     7
100
AcDbCircle
 10
10.77860599999999
 20
-39.485199
 30
0.0
 40
4.0
  0
CIRCLE
  5
302
330
3B1
100
AcDbEntity
  8
0
  6
Continuous
 62
     7
100
AcDbCircle
 10
10.77860599999999
 20
-39.485199
 30
0.0
 40
6.0
  0
ARC
  5
303
330
3B1
100
AcDbEntity
  8
0
  6
Continuous
 62
     7
100
AcDbCircle
 10
11.778606
 20
-38.485199
 30
0.0
 40
0.5
100
AcDbArc
 50
180.0
 51
270.0
  0
ARC
  5
304
330
3B1
100
AcDbEntity
  8
0
  6
Continuous
 62
     7
100
AcDbCircle
 10
9.778606399999999
 20
-38.485199
 30
0.0
 40
0.5
100
AcDbArc
 50
270.0
 51
0.0
  0
ARC
  5
305
330
3B1
100
AcDbEntity
  8
0
  6
Continuous
 62
     7
100
AcDbCircle
 10
9.778606399999999
 20
-40.485199
 30
0.0
 40
0.5
100
AcDbArc
 50
0.0
 51
90.0
  0
ARC
  5
306
330
3B1
100
AcDbEntity
  8
0
  6
Continuous
 62
     7
100
AcDbCircle
 10
11.778606
 20
-40.485199
 30
0.0
 40
0.5
100
AcDbArc
 50
90.0
 51
180.0
  0
CIRCLE
  5
307
330
3B1
100
AcDbEntity
  8
0
  6
Continuous
 62
     7
100
AcDbCircle
 10
60.77860300000001
 20
-39.485199
 30
0.0
 40
4.0
  0
CIRCLE
  5
308
330
3B1
100
AcDbEntity
  8
0
  6
Continuous
 62
     7
100
AcDbCircle
 10
60.77860300000001
 20
-39.485199
 30
0.0
 40
6.0
  0
ARC
  5
309
330
3B1
100
AcDbEntity
  8
0
  6
Continuous
 62
     7
100
AcDbCircle
 10
61.77861
 20
-38.485199
 30
0.0
 40
0.5
100
AcDbArc
 50
180.0
 51
270.0
  0
ARC
  5
30A
330
3B1
100
AcDbEntity
  8
0
  6
Continuous
 62
     7
100
AcDbCircle
 10
59.77860299999999
 20
-38.485199
 30
0.0
 40
0.5
100
AcDbArc
 50
270.0
 51
0.0
  0
ARC
  5
30B
330
3B1
100
AcDbEntity
  8
0
  6
Continuous
 62
     7
100
AcDbCircle
 10
59.77860299999999
 20
-40.485199
 30
0.0
 40
0.5
100
AcDbArc
 50
0.0
 51
90.0
  0
ARC
  5
30C
330
3B1
100
AcDbEntity
  8
0
  6
Continuous
 62
     7
100
AcDbCircle
 10
61.77861
 20
-40.485199
 30
0.0
 40
0.5
100
AcDbArc
 50
90.0
 51
180.0
  0
CIRCLE
  5
30D
330
3B1
100
AcDbEntity
  8
0
  6
Continuous
 62
     7
100
AcDbCircle
 10
11.791782
 20
-72.37022399999998
 30
0.0
 40
0.30000001
  0
CIRCLE
  5
30E
330
3B1
100
AcDbEntity
  8
0
  6
Continuous
 62
     7
100
AcDbCircle
 10
10.77860299999999
 20
-39.485199
 30
0.0
 40
2.75
  0
CIRCLE
  5
30F
330
3B1
100
AcDbEntity
  8
0
  6
Continuous
 62
     7
100
AcDbCircle
 10
60.77860300000001
 20
-39.485199
 30
0.0
 40
2.75
  0
ARC
  5
310
330
3B1
100
AcDbEntity
  8
0
  6
Continuous
 62
     7
100
AcDbCircle
 10
12.778603
 20
67.754471
 30
0.0
 40
2.0
100
AcDbArc
 50
311.8102499999999
 51
0.0
  0
ARC
  5
311
330
3B1
100
AcDbEntity
  8
0
  6
Continuous
 62
     7
100
AcDbCircle
 10
8.778602599999999
 20
67.754471
 30
0.0
 40
2.0
100
AcDbArc
 50
180.0
 51
228.18974
  0
ARC
  5
312
330
3B1
100
AcDbEntity
  8
0
  6
Continuous
 62
     7
100
AcDbCircle
 10
9.278602599999999
 20
66.462021
 30
0.0
 40
1.0
100
AcDbArc
 50
276.64094
 51
0.0
  0
ARC
  5
313
330
3B1
100
AcDbEntity
  8
0
  6
Continuous
 62
     7
100
AcDbCircle
 10
10.77860299999999
 20
69.990524
 30
0.0
 40
5.0
100
AcDbArc
 50
270.0
 51
311.8103500000001
  0
ARC
  5
314
330
3B1
100
AcDbEntity
  8
0
  6
Continuous
 62
     7
100
AcDbCircle
 10
12.278603
 20
66.465195
 30
0.0
 40
1.0
100
AcDbArc
 50
180.0
 51
263.6879299999999
  0
ARC
  5
315
330
3B1
100
AcDbEntity
  8
0
  6
Continuous
 62
     7
100
AcDbCircle
 10
10.77860299999999
 20
69.990524
 30
0.0
 40
5.0
100
AcDbArc
 50
228.18965
 51
270.0
  0
ARC
  5
316
330
3B1
100
AcDbEntity
  8
0
  6
Continuous
 62
     7
100
AcDbCircle
 10
9.162971499999999
 20
67.45530699999999
 30
0.0
 40
2.0
100
AcDbArc
 50
243.3539700000001
 51
276.6409899999999
  0
ARC
  5
317
330
3B1
100
AcDbEntity
  8
0
  6
Continuous
 62
     7
100
AcDbCircle
 10
12.388557
 20
67.45912199999999
 30
0.0
 40
2.0
100
AcDbArc
 50
263.68792
 51
302.4556999999999
  0
ARC
  5
318
330
3B1
100
AcDbEntity
  8
0
  6
Continuous
 62
     7
100
AcDbCircle
 10
59.278595
 20
66.462021
 30
0.0
 40
1.0
100
AcDbArc
 50
276.64089
 51
0.0
  0
ARC
  5
319
330
3B1
100
AcDbEntity
  8
0
  6
Continuous
 62
     7
100
AcDbCircle
 10
62.278595
 20
66.465195
 30
0.0
 40
1.0
100
AcDbArc
 50
180.0
 51
263.6879299999999
  0
ARC
  5
31A
330
3B1
100
AcDbEntity
  8
0
  6
Continuous
 62
     7
100
AcDbCircle
 10
58.77859499999999
 20
67.754471
 30
0.0
 40
2.0
100
AcDbArc
 50
180.0
 51
228.18977
  0
ARC
  5
31B
330
3B1
100
AcDbEntity
  8
0
  6
Continuous
 62
     7
100
AcDbCircle
 10
62.77859499999999
 20
67.754471
 30
0.0
 40
2.0
100
AcDbArc
 50
311.81031
 51
0.0
  0
ARC
  5
31C
330
3B1
100
AcDbEntity
  8
0
  6
Continuous
 62
     7
100
AcDbCircle
 10
60.77859499999998
 20
69.990524
 30
0.0
 40
5.0
100
AcDbArc
 50
270.0
 51
311.81037
  0
ARC
  5
31D
330
3B1
100
AcDbEntity
  8
0
  6
Continuous
 62
     7
100
AcDbCircle
 10
62.38855
 20
67.45912199999999
 30
0.0
 40
2.0
100
AcDbArc
 50
263.68795
 51
302.4556999999999
  0
ARC
  5
31E
330
3B1
100
AcDbEntity
  8
0
  6
Continuous
 62
     7
100
AcDbCircle
 10
59.162964
 20
67.45530699999999
 30
0.0
 40
2.0
100
AcDbArc
 50
243.35402
 51
276.64102
  0
ARC
  5
31F
330
3B1
100
AcDbEntity
  8
0
  6
Continuous
 62
     7
100
AcDbCircle
 10
60.77859499999998
 20
69.990524
 30
0.0
 40
5.0
100
AcDbArc
 50
228.18967
 51
270.0
  0
ARC
  5
320
330
3B1
100
AcDbEntity
  8
0
  6
Continuous
 62
     7
100
AcDbCircle
 10
9.7886772
 20
87.49053999999999
 30
0.0
 40
4.0
100
AcDbArc
 50
290.3641299999999
 51
69.63586499999999
  0
ARC
  5
321
330
3B1
100
AcDbEntity
  8
0
  6
Continuous
 62
     7
100
AcDbCircle
 10
61.788673
 20
87.49053999999999
 30
0.0
 40
4.0
100
AcDbArc
 50
110.36413
 51
249.63587
  0
CIRCLE
  5
322
330
3B1
100
AcDbEntity
  8
0
  6
Continuous
 62
     7
100
AcDbCircle
 10
37.887985
 20
-67.608322
 30
0.0
 40
0.4000000100000002
  0
ARC
  5
323
330
3B1
100
AcDbEntity
  8
0
  6
Continuous
 62
     7
100
AcDbCircle
 10
10.77860299999999
 20
-30.48519699999999
 30
0.0
 40
2.75
100
AcDbArc
 50
0.0
 51
180.0
  0
ARC
  5
324
330
3B1
100
AcDbEntity
  8
0
  6
Continuous
 62
     7
100
AcDbCircle
 10
60.77860300000001
 20
-30.48519699999999
 30
0.0
 40
2.75
100
AcDbArc
 50
0.0
 51
180.0
  0
ARC
  5
325
330
3B1
100
AcDbEntity
  8
0
  6
Continuous
 62
     7
100
AcDbCircle
 10
35.778618
 20
-28.48519699999999
 30
0.0
 40
11.0
100
AcDbArc
 50
179.9999899999999
 51
0.0
  0
ARC
  5
326
330
3B1
100
AcDbEntity
  8
0
  6
Continuous
 62
     7
100
AcDbCircle
 10
35.778618
 20
-11.485197
 30
0.0
 40
11.0
100
AcDbArc
 50
0.0
 51
180.0
  0
ARC
  5
327
330
3B1
100
AcDbEntity
  8
0
  6
Continuous
 62
     7
100
AcDbCircle
 10
73.07860599999999
 20
79.89053299999998
 30
0.0
 40
2.299999999999998
100
AcDbArc
 50
90.0
 51
180.0
  0
ARC
  5
328
330
3B1
100
AcDbEntity
  8
0
  6
Continuous
 62
     7
100
AcDbCircle
 10
70.77861799999999
 20
72.49053999999998
 30
0.0
 40
2.299999999999998
100
AcDbArc
 50
270.0
 51
0.0
  0
ARC
  5
32A
330
3B1
100
AcDbEntity
  8
0
  6
Continuous
 62
     7
100
AcDbCircle
 10
87.12429
 20
5.3604908
 30
0.0
 40
0.58956915
100
AcDbArc
 50
180.0
 51
270.0
  0
ARC
  5
32B
330
3B1
100
AcDbEntity
  8
0
  6
Continuous
 62
     7
100
AcDbCircle
 10
87.12429
 20
2.669115099999999
 30
0.0
 40
0.58956915
100
AcDbArc
 50
90.0
 51
180.0
  0
ARC
  5
32C
330
3B1
100
AcDbEntity
  8
0
  6
Continuous
 62
     7
100
AcDbCircle
 10
84.43289900000001
 20
2.669115099999999
 30
0.0
 40
0.58956915
100
AcDbArc
 50
0.0
 51
90.0
  0
ARC
  5
32D
330
3B1
100
AcDbEntity
  8
0
  6
Continuous
 62
     7
100
AcDbCircle
 10
84.43289900000001
 20
5.3604908
 30
0.0
 40
0.58956915
100
AcDbArc
 50
270.0
 51
0.0
  0
CIRCLE
  5
32E
330
3B1
100
AcDbEntity
  8
0
  6
Continuous
 62
     7
100
AcDbCircle
 10
85.77860300000001
 20
4.0148029
 30
0.0
 40
5.900000099999998
  0
TEXT
  5
32F
330
3B1
100
AcDbEntity
  8
0
  6
Continuous
 62
     7
100
AcDbText
 10
-205.343
 20
167.4
 30
0.0
 40
3.2
  1
品　名
 41
0.85537027
100
AcDbText
  0
TEXT
  5
330
330
3B1
100
AcDbEntity
  8
0
  6
Continuous
 62
     7
100
AcDbText
 10
-205.343
 20
159.4
 30
0.0
 40
3.2
  1
品　番
 41
0.85537027
100
AcDbText
  0
TEXT
  5
331
330
3B1
100
AcDbEntity
  8
0
  6
Continuous
 62
     7
100
AcDbText
 10
-188.1429999999999
 20
167.4
 30
0.0
 40
3.2
  1
ワイヤー取付座付上吊車
 41
0.8440946700000001
100
AcDbText
  0
TEXT
  5
332
330
3B1
100
AcDbEntity
  8
0
  6
Continuous
 62
     7
100
AcDbText
 10
-205.343
 20
143.4
 30
0.0
 40
3.2
  1
材　質
 41
0.85537027
100
AcDbText
  0
TEXT
  5
333
330
3B1
100
AcDbEntity
  8
0
  6
Continuous
 62
     7
100
AcDbText
 10
-205.343
 20
135.4
 30
0.0
 40
3.2
  1
仕上げ
 41
0.85537027
100
AcDbText
  0
TEXT
  5
334
330
3B1
100
AcDbEntity
  8
0
  6
Continuous
 62
     7
100
AcDbText
 10
-188.1429999999999
 20
95.4
 30
0.0
 40
3.2
  1
＊
 41
0.90047268
100
AcDbText
  0
TEXT
  5
335
330
3B1
100
AcDbEntity
  8
0
  6
Continuous
 62
     7
100
AcDbText
 10
-188.1429999999999
 20
103.4
 30
0.0
 40
3.2
  1
＊
 41
0.90047268
100
AcDbText
  0
TEXT
  5
336
330
3B1
100
AcDbEntity
  8
0
  6
Continuous
 62
     7
100
AcDbText
 10
-208.543
 20
111.4
 30
0.0
 40
3.2
  1
セットビス
 41
0.84892707
100
AcDbText
  0
TEXT
  5
337
330
3B1
100
AcDbEntity
  8
0
  6
Continuous
 62
     7
100
AcDbText
 10
-188.1429999999999
 20
135.4
 30
0.0
 40
3.2
  1
（枠）有色クロメート（車）生地
 41
0.84306961
100
AcDbText
  0
TEXT
  5
338
330
3B1
100
AcDbEntity
  8
0
  6
Continuous
 62
     7
100
AcDbText
 10
-188.1429999999999
 20
143.4
 30
0.0
 40
3.2
  1
（枠）スチール（車）ポリアセタール樹脂
 41
0.84248387
100
AcDbText
  0
TEXT
  5
339
330
3B1
100
AcDbEntity
  8
0
  6
Continuous
 62
     7
100
AcDbText
 10
-188.1429999999999
 20
159.4
 30
0.0
 40
3.2
  1
ＳＢ－４１３
 41
0.84741102
100
AcDbText
  0
TEXT
  5
33A
330
3B1
100
AcDbEntity
  8
0
  6
Continuous
 62
     7
100
AcDbText
 10
-205.343
 20
127.4
 30
0.0
 40
3.2
  1
定　尺
 41
0.85537027
100
AcDbText
  0
TEXT
  5
33B
330
3B1
100
AcDbEntity
  8
0
  6
Continuous
 62
     7
100
AcDbText
 10
-206.9429999999999
 20
119.4
 30
0.0
 40
3.2
  1
左右勝手
 41
0.8512700499999999
100
AcDbText
  0
TEXT
  5
33C
330
3B1
100
AcDbEntity
  8
0
  6
Continuous
 62
     7
100
AcDbText
 10
-78.14300799999998
 20
167.4
 30
0.0
 40
3.2
  1
標準耐荷重量：　８０ｋｇ／２コ
 41
0.84306961
100
AcDbText
  0
TEXT
  5
33D
330
3B1
100
AcDbEntity
  8
0
  6
Continuous
 62
     7
100
AcDbText
 10
-78.14300799999998
 20
159.4
 30
0.0
 40
3.2
  1
軸受：ボールベアリング
 41
0.8440946700000001
100
AcDbText
  0
TEXT
  5
33E
330
3B1
100
AcDbEntity
  8
0
  6
Continuous
 62
     7
100
AcDbText
 10
-93.74300799999996
 20
167.4
 30
0.0
 40
3.2
  1
備考
 41
0.8643907499999999
100
AcDbText
  0
TEXT
  5
33F
330
3B1
100
AcDbEntity
  8
0
  6
Continuous
 62
     7
100
AcDbText
 10
-78.14300799999998
 20
151.4
 30
0.0
 40
3.2
  1
上吊車は、ＨＴ－３２０を使用。
 41
0.84306961
100
AcDbText
  0
TEXT
  5
342
330
3B1
100
AcDbEntity
  8
0
  6
Continuous
 62
     7
100
AcDbText
 10
-188.1429999999999
 20
111.4
 30
0.0
 40
3.2
  1
＊
 41
0.90047268
100
AcDbText
  0
TEXT
  5
343
330
3B1
100
AcDbEntity
  8
0
  6
Continuous
 62
     7
100
AcDbText
 10
-188.1429999999999
 20
119.4
 30
0.0
 40
3.2
  1
左勝手
 41
0.85537027
100
AcDbText
  0
DIMENSION
  5
344
330
3B1
100
AcDbEntity
  8
0
  6
Continuous
 62
     7
100
AcDbDimension
  2
*D5
 10
110.7785999999999
 20
120.4905499999999
 30
0.0
 11
35.77860599999999
 21
120.4905499999999
 31
0.0
 71
     5
 42
-1.0
  3
DIMSTYLE
100
AcDbAlignedDimension
 13
-39.221394
 23
97.49054
 33
0.0
 14
110.7785999999999
 24
97.49054
 34
0.0
100
AcDbRotatedDimension
1001
ACAD
1000
DSTYLE
1002
{
1070
    77
1070
     1
1070
   172
1070
     1
1002
}
  0
DIMENSION
  5
345
330
3B1
100
AcDbEntity
  8
0
  6
Continuous
 62
     7
100
AcDbDimension
  2
*D6
 10
110.7785999999999
 20
110.49055
 30
0.0
 11
103.2785999999999
 21
110.49055
 31
0.0
 71
     5
 42
-1.0
  3
DIMSTYLE
100
AcDbAlignedDimension
 13
95.77860300000001
 23
105.49055
 33
0.0
 14
110.7785999999999
 24
97.49054
 34
0.0
100
AcDbRotatedDimension
1001
ACAD
1000
DSTYLE
1002
{
1070
     6
1000
_NONE
1070
    77
1070
     1
1070
   172
1070
     1
1070
    75
1070
     1
1002
}
  0
DIMENSION
  5
346
330
3B1
100
AcDbEntity
  8
0
  6
Continuous
 62
     7
100
AcDbDimension
  2
*D7
 10
95.77860300000001
 20
110.49055
 30
0.0
 11
35.77860599999999
 21
110.49055
 31
0.0
 71
     5
 42
-1.0
  3
DIMSTYLE
100
AcDbAlignedDimension
 13
-24.221394
 23
105.49055
 33
0.0
 14
95.77860300000001
 24
105.49055
 34
0.0
100
AcDbRotatedDimension
1001
ACAD
1000
DSTYLE
1002
{
1070
     6
1000
_NONE
1070
    77
1070
     1
1070
   172
1070
     1
1070
    75
1070
     1
1002
}
  0
DIMENSION
  5
347
330
3B1
100
AcDbEntity
  8
0
  6
Continuous
 62
     7
100
AcDbDimension
  2
*D8
 10
-24.221394
 20
110.49055
 30
0.0
 11
-31.721394
 21
110.49055
 31
0.0
 71
     5
 42
-1.0
  3
DIMSTYLE
100
AcDbAlignedDimension
 13
-39.221394
 23
97.49054
 33
0.0
 14
-24.221394
 24
105.49055
 34
0.0
100
AcDbRotatedDimension
1001
ACAD
1000
DSTYLE
1002
{
1070
    77
1070
     1
1070
   172
1070
     1
1002
}
  0
INSERT
  5
348
330
3B1
100
AcDbEntity
  8
0
  6
Continuous
 62
     7
100
AcDbBlockReference
  2
KOZU0001
 10
95.77861
 20
86.49054699999997
 30
0.0
  0
DIMENSION
  5
349
330
3B1
100
AcDbEntity
  8
0
  6
Continuous
 62
     7
100
AcDbDimension
  2
*D9
 10
-49.22139399999999
 20
86.49053999999997
 30
0.0
 11
-49.22139399999999
 21
93.49054
 31
0.0
 71
     5
 42
-1.0
  3
DIMSTYLE
100
AcDbAlignedDimension
 13
-36.221394
 23
100.4905399999999
 33
0.0
 14
-44.22139399999999
 24
86.49053999999997
 34
0.0
 50
90.0
100
AcDbRotatedDimension
1001
ACAD
1000
DSTYLE
1002
{
1070
    77
1070
     1
1070
   172
1070
     1
1070
    76
1070
     1
1002
}
  0
DIMENSION
  5
34A
330
3B1
100
AcDbEntity
  8
0
  6
Continuous
 62
     7
100
AcDbDimension
  2
*D10
 10
-49.22139399999999
 20
86.49053999999997
 30
0.0
 11
-49.22139399999999
 21
79.49053999999998
 31
0.0
 71
     5
 42
-1.0
  3
DIMSTYLE
100
AcDbAlignedDimension
 13
-36.221394
 23
72.49053999999998
 33
0.0
 14
-44.22139399999999
 24
86.49053999999997
 34
0.0
 50
90.0
100
AcDbRotatedDimension
1001
ACAD
1000
DSTYLE
1002
{
1070
    77
1070
     1
1070
   172
1070
     1
1002
}
  0
DIMENSION
  5
34B
330
3B1
100
AcDbEntity
  8
0
  6
Continuous
 62
     7
100
AcDbDimension
  2
*D11
 10
-59.22139399999998
 20
72.49053999999998
 30
0.0
 11
-59.22139399999998
 21
86.49053999999997
 31
0.0
 71
     5
 42
-1.0
  3
DIMSTYLE
100
AcDbAlignedDimension
 13
-36.221394
 23
100.4905399999999
 33
0.0
 14
-36.221394
 24
72.49053999999998
 34
0.0
 50
90.0
100
AcDbRotatedDimension
1001
ACAD
1000
DSTYLE
1002
{
1070
    77
1070
     1
1070
   172
1070
     1
1002
}
  0
DIMENSION
  5
34C
330
3B1
100
AcDbEntity
  8
0
  6
Continuous
 62
     7
100
AcDbDimension
  2
*D12
 10
135.7785899999998
 20
-65.475151
 30
0.0
 11
135.7785899999998
 21
-74.47515899999998
 31
0.0
 71
     5
 42
-1.0
  3
DIMSTYLE
100
AcDbAlignedDimension
 13
110.7785999999999
 23
-83.47515899999997
 33
0.0
 14
40.778603
 24
-65.475151
 34
0.0
 50
90.0
100
AcDbRotatedDimension
1001
ACAD
1000
DSTYLE
1002
{
1070
    77
1070
     1
1070
   172
1070
     1
1002
}
  0
DIMENSION
  5
34D
330
3B1
100
AcDbEntity
  8
0
  6
Continuous
 62
     7
100
AcDbDimension
  2
*D13
 10
125.7786
 20
-65.475151
 30
0.0
 11
125.7786
 21
-72.22515099999998
 31
0.0
 71
     5
 42
-1.0
  3
DIMSTYLE
100
AcDbAlignedDimension
 13
110.7785999999999
 23
-78.97515899999998
 33
0.0
 14
40.778603
 24
-65.475151
 34
0.0
 50
90.0
100
AcDbRotatedDimension
1001
ACAD
1000
DSTYLE
1002
{
1070
    77
1070
     1
1070
   172
1070
     1
1002
}
  0
DIMENSION
  5
34E
330
3B1
100
AcDbEntity
  8
0
  6
Continuous
 62
     7
100
AcDbDimension
  2
*D14
 10
125.6752199999999
 20
-78.97515899999998
 30
0.0
 11
125.6752199999999
 21
-89.01408399999999
 31
0.0
 71
     5
 42
-1.0
  3
DIMSTYLE
100
AcDbAlignedDimension
 13
110.7785999999999
 23
-83.47515899999997
 33
0.0
 14
110.7785999999999
 24
-78.97515899999998
 34
0.0
 50
90.0
100
AcDbRotatedDimension
1001
ACAD
1000
DSTYLE
1002
{
1070
    77
1070
     1
1070
   172
1070
     1
1002
}
  0
DIMENSION
  5
34F
330
3B1
100
AcDbEntity
  8
0
  6
Continuous
 62
     7
100
AcDbDimension
  2
*D15
 10
-49.22139399999999
 20
-70.475151
 30
0.0
 11
-49.22139399999999
 21
-76.97515899999998
 31
0.0
 71
     5
 42
-1.0
  3
DIMSTYLE
100
AcDbAlignedDimension
 13
-39.221394
 23
-83.47515899999997
 33
0.0
 14
6.278605899999999
 24
-70.475151
 34
0.0
 50
90.0
100
AcDbRotatedDimension
1001
ACAD
1000
DSTYLE
1002
{
1070
    77
1070
     1
1070
   172
1070
     1
1002
}
  0
DIMENSION
  5
350
330
3B1
100
AcDbEntity
  8
0
  6
Continuous
 62
     7
100
AcDbDimension
  2
*D16
 10
-59.22139399999998
 20
-23.47515299999999
 30
0.0
 11
-59.22139399999998
 21
-53.47515099999999
 31
0.0
 71
     5
 42
-1.0
  3
DIMSTYLE
100
AcDbAlignedDimension
 13
-39.221394
 23
-83.47515899999997
 33
0.0
 14
22.788876
 24
-23.47515299999999
 34
0.0
 50
90.0
100
AcDbRotatedDimension
1001
ACAD
1000
DSTYLE
1002
{
1070
    77
1070
     1
1070
   172
1070
     1
1002
}
  0
DIMENSION
  5
351
330
3B1
100
AcDbEntity
  8
0
  6
Continuous
 62
     7
100
AcDbDimension
  2
*D17
 10
-153.75569
 20
-45.475124
 30
0.0
 11
-153.75569
 21
-23.47512599999999
 31
0.0
 71
     5
 42
-1.0
  3
DIMSTYLE
100
AcDbAlignedDimension
 13
-125.7556899999999
 23
-1.475124399999999
 33
0.0
 14
-125.7556899999999
 24
-45.475124
 34
0.0
 50
90.0
100
AcDbRotatedDimension
1001
ACAD
1000
DSTYLE
1002
{
1070
    77
1070
     1
1070
   172
1070
     1
1002
}
  0
DIMENSION
  5
352
330
3B1
100
AcDbEntity
  8
0
  6
Continuous
 62
     7
100
AcDbDimension
  2
*D18
 10
-163.7556899999999
 20
-48.475124
 30
0.0
 11
-163.7556899999999
 21
-23.47512599999999
 31
0.0
 71
     5
 42
-1.0
  3
DIMSTYLE
100
AcDbAlignedDimension
 13
-132.2556899999999
 23
1.5248756
 33
0.0
 14
-132.2556899999999
 24
-48.475124
 34
0.0
 50
90.0
100
AcDbRotatedDimension
1001
ACAD
1000
DSTYLE
1002
{
1070
    77
1070
     1
1070
   172
1070
     1
1002
}
  0
DIMENSION
  5
353
330
3B1
100
AcDbEntity
  8
0
  6
Continuous
 62
     7
100
AcDbDimension
  2
*D19
 10
-153.75569
 20
-83.475128
 30
0.0
 11
-153.75569
 21
-64.475128
 31
0.0
 71
     5
 42
-1.0
  3
DIMSTYLE
100
AcDbAlignedDimension
 13
-125.7556899999999
 23
-45.475124
 33
0.0
 14
-138.7556899999999
 24
-83.475128
 34
0.0
 50
90.0
100
AcDbRotatedDimension
1001
ACAD
1000
DSTYLE
1002
{
1070
    77
1070
     1
1070
   172
1070
     1
1002
}
  0
INSERT
  5
354
330
3B1
100
AcDbEntity
  8
0
  6
Continuous
 62
     7
100
AcDbBlockReference
  2
*D20
 10
0.0
 20
0.0
 30
0.0
  0
DIMENSION
  5
355
330
3B1
100
AcDbEntity
  8
0
  6
Continuous
 62
     7
100
AcDbDimension
  2
*D21
 10
-122.0056899999999
 20
-59.01301199999998
 30
0.0
 11
-135.6048999999999
 21
-59.01301199999998
 31
0.0
 71
     5
 42
-1.0
  3
DIMSTYLE
100
AcDbAlignedDimension
 13
-129.5056899999999
 23
-48.475124
 33
0.0
 14
-122.0056899999999
 24
-48.475124
 34
0.0
100
AcDbRotatedDimension
1001
ACAD
1000
DSTYLE
1002
{
1070
    77
1070
     1
1070
   172
1070
     1
1002
}
  0
DIMENSION
  5
356
330
3B1
100
AcDbEntity
  8
0
  6
Continuous
 62
     7
100
AcDbDimension
  2
*D22
 10
-110.7556899999999
 20
-69.999916
 30
0.0
 11
-135.7149399999999
 21
-69.999916
 31
0.0
 71
     5
 42
-1.0
  3
DIMSTYLE
100
AcDbAlignedDimension
 13
-125.7556899999999
 23
-50.475124
 33
0.0
 14
-110.7556899999999
 24
-59.48519499999999
 34
0.0
100
AcDbRotatedDimension
1001
ACAD
1000
DSTYLE
1002
{
1070
    77
1070
     1
1070
   172
1070
     1
1070
    76
1070
     1
1002
}
  0
DIMENSION
  5
357
330
3B1
100
AcDbEntity
  8
0
  6
Continuous
 62
     7
100
AcDbDimension
  2
*D23
 10
60.77860300000001
 20
-95.622894
 30
0.0
 11
35.117634
 21
-95.622894
 31
0.0
 71
     5
 42
-1.0
  3
DIMSTYLE
100
AcDbAlignedDimension
 13
10.77860599999999
 23
-74.97512799999999
 33
0.0
 14
60.77860300000001
 24
-74.97512799999999
 34
0.0
100
AcDbRotatedDimension
1001
ACAD
1000
DSTYLE
1002
{
1070
    77
1070
     1
1070
   172
1070
     1
1002
}
  0
INSERT
  5
358
330
3B1
100
AcDbEntity
  8
0
  6
Continuous
 62
     7
100
AcDbBlockReference
  2
*D24
 10
0.0
 20
0.0
 30
0.0
  0
INSERT
  5
359
330
3B1
100
AcDbEntity
  8
0
  6
Continuous
 62
     7
100
AcDbBlockReference
  2
*D25
 10
0.0
 20
0.0
 30
0.0
  0
DIMENSION
  5
35A
330
3B1
100
AcDbEntity
  8
0
  6
Continuous
 62
     7
100
AcDbDimension
  2
*D26
 10
90.77860300000001
 20
40.51480499999999
 30
0.0
 11
45.77861799999999
 21
40.51480499999999
 31
0.0
 71
     5
 42
-1.0
  3
DIMSTYLE
100
AcDbAlignedDimension
 13
0.7786026000000002
 23
10.514803
 33
0.0
 14
90.77860300000001
 24
10.514803
 34
0.0
100
AcDbRotatedDimension
1001
ACAD
1000
DSTYLE
1002
{
1070
    77
1070
     1
1070
   172
1070
     1
1002
}
  0
DIMENSION
  5
35B
330
3B1
100
AcDbEntity
  8
0
  6
Continuous
 62
     7
100
AcDbDimension
  2
*D27
 10
70.77860300000001
 20
30.514803
 30
0.0
 11
35.778618
 21
30.514803
 31
0.0
 71
     5
 42
-1.0
  3
DIMSTYLE
100
AcDbAlignedDimension
 13
0.7786026000000002
 23
10.514803
 33
0.0
 14
70.77860300000001
 24
10.514803
 34
0.0
100
AcDbRotatedDimension
1001
ACAD
1000
DSTYLE
1002
{
1070
    77
1070
     1
1070
   172
1070
     1
1002
}
  0
DIMENSION
  5
35C
330
3B1
100
AcDbEntity
  8
0
  6
Continuous
 62
     7
100
AcDbDimension
  2
*D28
 10
90.77860300000001
 20
30.514803
 30
0.0
 11
80.77860300000001
 21
30.514803
 31
0.0
 71
     5
 42
-1.0
  3
DIMSTYLE
100
AcDbAlignedDimension
 13
70.77860300000001
 23
10.514803
 33
0.0
 14
90.77860300000001
 24
10.514803
 34
0.0
100
AcDbRotatedDimension
1001
ACAD
1000
DSTYLE
1002
{
1070
    77
1070
     1
1070
   172
1070
     1
1070
    75
1070
     1
1002
}
  0
DIMENSION
  5
35D
330
3B1
100
AcDbEntity
  8
0
  6
Continuous
 62
     7
100
AcDbDimension
  2
*D29
 10
85.77860300000001
 20
20.514803
 30
0.0
 11
78.27860300000001
 21
20.514803
 31
0.0
 71
     5
 42
-1.0
  3
DIMSTYLE
100
AcDbAlignedDimension
 13
70.77860300000001
 23
10.514803
 33
0.0
 14
85.77860300000001
 24
12.511098
 34
0.0
100
AcDbRotatedDimension
1001
ACAD
1000
DSTYLE
1002
{
1070
    77
1070
     1
1070
   172
1070
     1
1070
    75
1070
     1
1002
}
  0
DIMENSION
  5
35E
330
3B1
100
AcDbEntity
  8
0
  6
Continuous
 62
     7
100
AcDbDimension
  2
*D30
 10
90.77860300000001
 20
20.514803
 30
0.0
 11
88.27860300000001
 21
20.514803
 31
0.0
 71
     5
 42
-1.0
  3
DIMSTYLE
100
AcDbAlignedDimension
 13
85.77860300000001
 23
8.554811500000001
 33
0.0
 14
90.77860300000001
 24
10.514803
 34
0.0
100
AcDbRotatedDimension
1001
ACAD
1000
DSTYLE
1002
{
1070
    77
1070
     1
1070
   172
1070
     1
1070
    75
1070
     1
1002
}
  0
DIMENSION
  5
35F
330
3B1
100
AcDbEntity
  8
0
  6
Continuous
 62
     7
100
AcDbDimension
  2
*D31
 10
-49.22139399999999
 20
-51.485199
 30
0.0
 11
-49.22139399999999
 21
-5.8299246
 31
0.0
 71
     5
 42
-1.0
  3
DIMSTYLE
100
AcDbAlignedDimension
 13
0.7786026000000002
 23
10.514803
 33
0.0
 14
0.7786026000000002
 24
-51.485199
 34
0.0
 50
90.0
100
AcDbRotatedDimension
1001
ACAD
1000
DSTYLE
1002
{
1070
    77
1070
     1
1070
   172
1070
     1
1002
}
  0
DIMENSION
  5
360
330
3B1
100
AcDbEntity
  8
0
  6
Continuous
 62
     7
100
AcDbDimension
  2
*D32
 10
105.48341
 20
4.0148029
 30
0.0
 11
105.48341
 21
17.604797
 31
0.0
 71
     5
 42
-1.0
  3
DIMSTYLE
100
AcDbAlignedDimension
 13
90.77860300000001
 23
10.514803
 33
0.0
 14
94.17878700000001
 24
4.0148029
 34
0.0
 50
90.0
100
AcDbRotatedDimension
1001
ACAD
1000
DSTYLE
1002
{
1070
    77
1070
     1
1070
   172
1070
     1
1002
}
  0
DIMENSION
  5
361
330
3B1
100
AcDbEntity
  8
0
  6
Continuous
 62
     7
100
AcDbDimension
  2
*D33
 10
105.48341
 20
4.0148029
 30
0.0
 11
105.48341
 21
-2.7351971
 31
0.0
 71
     5
 42
-1.0
  3
DIMSTYLE
100
AcDbAlignedDimension
 13
90.77860300000001
 23
-9.4851971
 33
0.0
 14
90.318611
 24
4.0148029
 34
0.0
 50
90.0
100
AcDbRotatedDimension
1001
ACAD
1000
DSTYLE
1002
{
1070
    77
1070
     1
1070
   172
1070
     1
1070
    76
1070
     1
1002
}
  0
DIMENSION
  5
362
330
3B1
100
AcDbEntity
  8
0
  6
Continuous
 62
     7
100
AcDbDimension
  2
*D34
 10
112.8333999999999
 20
-9.4851971
 30
0.0
 11
112.8333999999999
 21
-3.3599277
 31
0.0
 71
     5
 42
-1.0
  3
DIMSTYLE
100
AcDbAlignedDimension
 13
90.77860300000001
 23
10.514803
 33
0.0
 14
90.77860300000001
 24
-9.4851971
 34
0.0
 50
90.0
100
AcDbRotatedDimension
1001
ACAD
1000
DSTYLE
1002
{
1070
    77
1070
     1
1070
   172
1070
     1
1002
}
  0
DIMENSION
  5
363
330
3B1
100
AcDbEntity
  8
0
  6
Continuous
 62
     7
100
AcDbDimension
  2
*D35
 10
112.8333999999999
 20
-51.485199
 30
0.0
 11
112.8333999999999
 21
-30.48519699999999
 31
0.0
 71
     5
 42
-1.0
  3
DIMSTYLE
100
AcDbAlignedDimension
 13
90.77860300000001
 23
-9.4851971
 33
0.0
 14
70.77860300000001
 24
-51.485199
 34
0.0
 50
90.0
100
AcDbRotatedDimension
1001
ACAD
1000
DSTYLE
1002
{
1070
    77
1070
     1
1070
   172
1070
     1
1070
    75
1070
     1
1002
}
  0
DIMENSION
  5
364
330
3B1
100
AcDbEntity
  8
0
  6
Continuous
 62
     7
100
AcDbDimension
  2
*D36
 10
-69.79754599999999
 20
10.514803
 30
0.0
 11
-69.79754599999999
 21
-36.480164
 31
0.0
 71
     5
 42
-1.0
  3
DIMSTYLE
100
AcDbAlignedDimension
 13
-39.221394
 23
-83.475128
 33
0.0
 14
0.7786026000000002
 24
10.514803
 34
0.0
 50
90.0
100
AcDbRotatedDimension
1001
ACAD
1000
DSTYLE
1002
{
1070
    77
1070
     1
1070
   172
1070
     1
1002
}
  0
DIMENSION
  5
365
330
3B1
100
AcDbEntity
  8
0
  6
Continuous
 62
     7
100
AcDbDimension
  2
*D37
 10
-9.2213974
 20
-36.485199
 30
0.0
 11
-9.2213974
 21
-43.985199
 31
0.0
 71
     5
 42
-1.0
  3
DIMSTYLE
100
AcDbAlignedDimension
 13
0.7786026000000002
 23
-51.485199
 33
0.0
 14
5.488624599999999
 24
-36.485199
 34
0.0
 50
90.0
100
AcDbRotatedDimension
1001
ACAD
1000
DSTYLE
1002
{
1070
    77
1070
     1
1070
   172
1070
     1
1002
}
  0
INSERT
  5
366
330
3B1
100
AcDbEntity
  8
0
  6
Continuous
 62
     7
100
AcDbBlockReference
  2
KOZU0002
 10
9.703953699999999
 20
-27.95386699999999
 30
0.0
  0
DIMENSION
  5
367
330
3B1
100
AcDbEntity
  8
0
  6
Continuous
 62
     7
100
AcDbDimension
  2
*D38
 10
-108.4556899999999
 20
-69.999916
 30
0.0
 11
-99.94064300000003
 21
-69.999916
 31
0.0
 71
     5
 42
-1.0
  3
DIMSTYLE
100
AcDbAlignedDimension
 13
-110.7556899999999
 23
-83.475128
 33
0.0
 14
-108.4556899999999
 24
-49.48519499999999
 34
0.0
100
AcDbRotatedDimension
1001
ACAD
1000
DSTYLE
1002
{
1070
    77
1070
     1
1070
   172
1070
     1
1070
    75
1070
     1
1002
}
  0
DIMENSION
  5
368
330
3B1
100
AcDbEntity
  8
0
  6
Continuous
 62
     7
100
AcDbDimension
  2
*D39
 10
-108.4556899999999
 20
30.514803
 30
0.0
 11
-114.4556899999999
 21
30.514803
 31
0.0
 71
     5
 42
-1.0
  3
DIMSTYLE
100
AcDbAlignedDimension
 13
-120.4556899999999
 23
10.514803
 33
0.0
 14
-108.4556899999999
 24
10.514803
 34
0.0
100
AcDbRotatedDimension
1001
ACAD
1000
DSTYLE
1002
{
1070
    77
1070
     1
1070
   172
1070
     1
1002
}
  0
TEXT
  5
371
330
3B1
100
AcDbEntity
  8
0
  6
Continuous
 62
     7
100
AcDbText
 10
-78.37855799999998
 20
143.3661699999999
 30
0.0
 40
3.2
  1
SLM-６０　セット販売品
 41
0.85537027
100
AcDbText
  0
LINE
  5
D57
330
3B1
100
AcDbEntity
  8
AM_0
 48
0.225
100
AcDbLine
 10
-115.25567779297
 20
1.514787641210027
 30
0.0
 11
-110.75567779297
 21
1.514787641210027
 31
0.0
  0
LINE
  5
D58
330
3B1
100
AcDbEntity
  8
AM_3
 48
0.5899999999999637
100
AcDbLine
 10
-114.1557022070297
 20
9.914802899999635
 30
0.0
 11
-114.1557022070297
 21
-1.885197099999636
 31
0.0
  0
LINE
  5
D59
330
3B1
100
AcDbEntity
  8
AM_3
 48
0.5899999999999637
100
AcDbLine
 10
-113.7557022070301
 20
9.914802899999635
 30
0.0
 11
-113.7557022070301
 21
-1.885197099999636
 31
0.0
  0
LINE
  5
D5A
330
3B1
100
AcDbEntity
  8
AM_3
 48
0.15
100
AcDbLine
 10
-114.1557022070297
 20
9.914802899999635
 30
0.0
 11
-113.7557022070301
 21
9.914802899999635
 31
0.0
  0
LINE
  5
D5B
330
3B1
100
AcDbEntity
  8
AM_3
 48
0.15
100
AcDbLine
 10
-114.1557022070297
 20
-1.885197099999636
 30
0.0
 11
-113.7557022070301
 21
-1.885197099999636
 31
0.0
  0
LINE
  5
D5C
330
3B1
100
AcDbEntity
  8
AM_0
 48
0.4599999999999455
100
AcDbLine
 10
-123.3557022070296
 20
1.514802900000908
 30
0.0
 11
-122.0056899999999
 21
1.514802899999999
 31
0.0
  0
LINE
  5
D5D
330
3B1
100
AcDbEntity
  8
AM_3
100
AcDbLine
 10
-122.0056899999999
 20
1.514802899999999
 30
0.0
 11
-115.25567779297
 21
1.514802899999544
 31
0.0
  0
LINE
  5
D5E
330
3B1
100
AcDbEntity
  8
AM_2
 48
0.3
100
AcDbLine
 10
-124.1557022070298
 20
2.31480290000109
 30
0.0
 11
-120.4556899999999
 21
2.314802900000636
 31
0.0
  0
LINE
  5
D5F
330
3B1
100
AcDbEntity
  8
AM_3
100
AcDbLine
 10
-120.4556899999999
 20
2.314802900000636
 30
0.0
 11
-118.1557022070298
 21
2.314802900000181
 31
0.0
  0
LINE
  5
D60
330
3B1
100
AcDbEntity
  8
AM_0
 48
0.4599999999999455
100
AcDbLine
 10
-123.3557022070296
 20
6.514802899999999
 30
0.0
 11
-120.4556899999999
 21
6.514802899999999
 31
0.0
  0
LINE
  5
D61
330
3B1
100
AcDbEntity
  8
AM_3
100
AcDbLine
 10
-120.4556899999999
 20
6.514802899999999
 30
0.0
 11
-114.1557022070307
 21
6.514802899999999
 31
0.0
  0
LINE
  5
D62
330
3B1
100
AcDbEntity
  8
AM_2
 48
0.3
100
AcDbLine
 10
-124.1557022070298
 20
5.714802899999817
 30
0.0
 11
-120.4556899999999
 21
5.714802899999817
 31
0.0
  0
LINE
  5
D63
330
3B1
100
AcDbEntity
  8
AM_3
100
AcDbLine
 10
-120.4556899999999
 20
5.714802899999817
 30
0.0
 11
-118.1557022070298
 21
5.714802899999817
 31
0.0
  0
LINE
  5
D64
330
3B1
100
AcDbEntity
  8
AM_0
 48
0.1699999999999363
100
AcDbLine
 10
-124.1557022070298
 20
5.714802899999817
 30
0.0
 11
-124.1557022070298
 21
2.31480290000109
 31
0.0
  0
LINE
  5
D65
330
3B1
100
AcDbEntity
  8
AM_2
 48
0.25
100
AcDbLine
 10
-123.3557022070296
 20
6.514802899999999
 30
0.0
 11
-123.3557022070296
 21
1.514802899999999
 31
0.0
  0
LINE
  5
D66
330
3B1
100
AcDbEntity
  8
AM_0
 48
0.15
100
AcDbLine
 10
-123.3557022070296
 20
1.514802900000908
 30
0.0
 11
-124.1557022070298
 21
2.31480290000109
 31
0.0
  0
LINE
  5
D67
330
3B1
100
AcDbEntity
  8
AM_0
 48
0.15
100
AcDbLine
 10
-124.1557022070298
 20
5.714802899999817
 30
0.0
 11
-123.3557022070296
 21
6.514802899999999
 31
0.0
  0
LINE
  5
D68
330
3B1
100
AcDbEntity
  8
AM_3
 48
0.15
100
AcDbLine
 10
-118.1557022070298
 20
2.314802900000181
 30
0.0
 11
-117.3557022070296
 21
1.514802899999999
 31
0.0
  0
LINE
  5
D69
330
3B1
100
AcDbEntity
  8
AM_3
 48
0.15
100
AcDbLine
 10
-117.3557022070296
 20
6.514802899999999
 30
0.0
 11
-118.1557022070298
 21
5.714802899999817
 31
0.0
  0
ARC
  5
D6A
330
3B1
100
AcDbEntity
  8
AM_3
 48
0.779629629629628
100
AcDbCircle
 10
-118.8519985033259
 20
4.014802899999999
 30
0.0
 40
7.796296296296279
100
AcDbArc
 50
310.8197656675784
 51
49.18023433242154
  0
LINE
  5
D72
330
3B1
100
AcDbEntity
  8
P0210
 48
0.5899999999999637
100
AcDbLine
 10
91.67860299999961
 20
75.89053299999998
 30
0.0
 11
79.87860300000034
 21
75.89053299999998
 31
0.0
  0
LINE
  5
D73
330
3B1
100
AcDbEntity
  8
P0210
 48
0.5899999999999637
100
AcDbLine
 10
91.67860299999961
 20
75.49053300000034
 30
0.0
 11
79.87860300000034
 21
75.49053300000034
 31
0.0
  0
LINE
  5
D74
330
3B1
100
AcDbEntity
  8
AM_0
 48
0.15
100
AcDbLine
 10
91.67860299999961
 20
75.89053299999998
 30
0.0
 11
91.67860299999961
 21
75.49053300000034
 31
0.0
  0
LINE
  5
D75
330
3B1
100
AcDbEntity
  8
AM_0
 48
0.15
100
AcDbLine
 10
79.87860300000034
 20
75.89053299999998
 30
0.0
 11
79.87860300000034
 21
75.49053300000034
 31
0.0
  0
LINE
  5
D76
330
3B1
100
AcDbEntity
  8
AM_0
 48
0.15
100
AcDbLine
 10
83.27860300000088
 20
85.0905329999998
 30
0.0
 11
83.27860299999997
 21
82.19053605176005
 31
0.0
  0
LINE
  5
D77
330
3B1
100
AcDbEntity
  8
AM_3
 48
0.15
100
AcDbLine
 10
83.27860299999997
 20
82.19053605176005
 30
0.0
 11
83.27860299999997
 21
79.89053299999998
 31
0.0
  0
LINE
  5
D78
330
3B1
100
AcDbEntity
  8
AM_0
 48
0.1999999999999545
100
AcDbLine
 10
83.27860299999997
 20
79.89053299999998
 30
0.0
 11
83.27860299999906
 21
75.89053300000088
 31
0.0
  0
LINE
  5
D79
330
3B1
100
AcDbEntity
  8
AM_2
 48
0.1849998474119957
100
AcDbLine
 10
84.07860300000107
 20
85.89053299999998
 30
0.0
 11
84.07860300000061
 21
82.19053605176005
 31
0.0
  0
LINE
  5
D7A
330
3B1
100
AcDbEntity
  8
AM_3
 48
0.15
100
AcDbLine
 10
84.07860300000061
 20
82.19053605176005
 30
0.0
 11
84.07860300000015
 21
79.89053299999998
 31
0.0
  0
LINE
  5
D7B
330
3B1
100
AcDbEntity
  8
AM_0
 48
0.15
100
AcDbLine
 10
88.27860299999997
 20
85.0905329999998
 30
0.0
 11
88.27860299999997
 21
82.19053605176005
 31
0.0
  0
LINE
  5
D7C
330
3B1
100
AcDbEntity
  8
AM_3
 48
0.15
100
AcDbLine
 10
88.27860299999997
 20
82.19053605176005
 30
0.0
 11
88.27860299999997
 21
79.89053299999998
 31
0.0
  0
LINE
  5
D7D
330
3B1
100
AcDbEntity
  8
AM_0
 48
0.1999999999999545
100
AcDbLine
 10
88.27860299999997
 20
79.89053299999998
 30
0.0
 11
88.27860299999997
 21
75.89053300000088
 31
0.0
  0
LINE
  5
D7E
330
3B1
100
AcDbEntity
  8
AM_2
 48
0.1849998474119957
100
AcDbLine
 10
87.47860299999979
 20
85.89053299999998
 30
0.0
 11
87.47860299999979
 21
82.19053605176005
 31
0.0
  0
LINE
  5
D7F
330
3B1
100
AcDbEntity
  8
AM_3
 48
0.15
100
AcDbLine
 10
87.47860299999979
 20
82.19053605176005
 30
0.0
 11
87.47860299999979
 21
79.89053299999998
 31
0.0
  0
LINE
  5
D80
330
3B1
100
AcDbEntity
  8
AM_0
 48
0.25
100
AcDbLine
 10
88.27860299999997
 20
79.89053299999998
 30
0.0
 11
83.27860299999997
 21
79.89053299999998
 31
0.0
  0
LINE
  5
D81
330
3B1
100
AcDbEntity
  8
AM_0
 48
0.1699999999999363
100
AcDbLine
 10
87.47860299999979
 20
85.89053299999998
 30
0.0
 11
84.07860300000107
 21
85.89053299999998
 31
0.0
  0
LINE
  5
D82
330
3B1
100
AcDbEntity
  8
AM_2
 48
0.25
100
AcDbLine
 10
88.27860299999997
 20
85.0905329999998
 30
0.0
 11
83.27860299999997
 21
85.0905329999998
 31
0.0
  0
LINE
  5
D83
330
3B1
100
AcDbEntity
  8
AM_0
 48
0.15
100
AcDbLine
 10
83.27860300000088
 20
85.0905329999998
 30
0.0
 11
84.07860300000107
 21
85.89053299999998
 31
0.0
  0
LINE
  5
D84
330
3B1
100
AcDbEntity
  8
AM_0
 48
0.15
100
AcDbLine
 10
87.47860299999979
 20
85.89053299999998
 30
0.0
 11
88.27860299999997
 21
85.0905329999998
 31
0.0
  0
LINE
  5
D85
330
3B1
100
AcDbEntity
  8
AM_CL
  6
Continuous
 48
0.15
100
AcDbLine
 10
84.07860300000015
 20
79.89053299999998
 30
0.0
 11
83.27860299999997
 21
79.09053299999979
 31
0.0
  0
LINE
  5
D86
330
3B1
100
AcDbEntity
  8
AM_CL
  6
Continuous
 48
0.15
100
AcDbLine
 10
88.27860299999997
 20
79.09053299999979
 30
0.0
 11
87.47860299999979
 21
79.89053299999998
 31
0.0
  0
ARC
  5
D87
330
3B1
100
AcDbEntity
  8
AM_0
 48
0.779629629629628
100
AcDbCircle
 10
85.77860299999997
 20
80.58682929629615
 30
0.0
 40
7.796296296296279
100
AcDbArc
 50
220.8197656675963
 51
319.1802343324036
  0
ENDSEC
  0
SECTION
  2
OBJECTS
  0
DICTIONARY
  5
387
330
0
100
AcDbDictionary
281
     1
  3
ACAD_COLOR
350
3AA
  3
ACAD_GROUP
350
388
  3
ACAD_LAYOUT
350
3A9
  3
ACAD_MATERIAL
350
38B
  3
ACAD_MLINESTYLE
350
3A6
  3
ACAD_PLOTSETTINGS
350
3A8
  3
ACAD_PLOTSTYLENAME
350
389
  3
ACAD_TABLESTYLE
350
3AB
  3
ACAD_VISUALSTYLE
350
38F
  3
AcDbVariableDictionary
350
4B8
  3
AcmDictionary
350
46F
  3
AMG
350
416
  3
AMGSNAPSETTINGS
350
4B0
  3
DWGPROPS
350
D93
  0
DICTIONARY
  5
6A5
330
37D
100
AcDbDictionary
280
     1
281
     1
  3
ACAD_LAYERSTATES
360
6A6
  0
DICTIONARY
  5
3AA
102
{ACAD_REACTORS
330
387
102
}
330
387
100
AcDbDictionary
281
     1
  0
DICTIONARY
  5
388
102
{ACAD_REACTORS
330
387
102
}
330
387
100
AcDbDictionary
281
     1
  0
DICTIONARY
  5
3A9
102
{ACAD_REACTORS
330
387
102
}
330
387
100
AcDbDictionary
281
     1
  3
Model
350
3B4
  3
レイアウト1
350
3B0
  0
DICTIONARY
  5
38B
102
{ACAD_REACTORS
330
387
102
}
330
387
100
AcDbDictionary
281
     1
  3
ByBlock
350
38D
  3
ByLayer
350
38C
  3
Global
350
38E
  0
DICTIONARY
  5
3A6
102
{ACAD_REACTORS
330
387
102
}
330
387
100
AcDbDictionary
281
     1
  3
Standard
350
3A7
  0
DICTIONARY
  5
3A8
102
{ACAD_REACTORS
330
387
102
}
330
387
100
AcDbDictionary
281
     1
  0
ACDBDICTIONARYWDFLT
  5
389
102
{ACAD_REACTORS
330
387
102
}
330
387
100
AcDbDictionary
281
     1
  3
Normal
350
38A
100
AcDbDictionaryWithDefault
340
38A
  0
DICTIONARY
  5
3AB
102
{ACAD_REACTORS
330
387
102
}
330
387
100
AcDbDictionary
281
     1
  3
Standard
350
3AC
  0
DICTIONARY
  5
38F
102
{ACAD_REACTORS
330
387
102
}
330
387
100
AcDbDictionary
281
     1
  3
2dWireframe
350
395
  3
3D Hidden
350
397
  3
3dWireframe
350
396
  3
Basic
350
394
  3
Brighten
350
39B
  3
ColorChange
350
39F
  3
Conceptual
350
398
  3
Dim
350
39A
  3
Facepattern
350
39E
  3
Flat
350
390
  3
FlatWithEdges
350
391
  3
Gouraud
350
392
  3
GouraudWithEdges
350
393
  3
Linepattern
350
39D
  3
Realistic
350
399
  3
Thicken
350
39C
  0
DICTIONARY
  5
4B8
102
{ACAD_REACTORS
330
387
102
}
330
387
100
AcDbDictionary
281
     1
  3
CTABLESTYLE
350
4B9
  3
DIMASSOC
350
D92
  3
INDEXCTL
350
D91
  3
SORTENTS
350
D90
  0
DICTIONARY
  5
46F
102
{ACAD_REACTORS
330
387
102
}
330
387
100
AcDbDictionary
281
     1
  3
AcmStdDictionary
350
47A
  3
AMDTSECTSYM_ARROWCOLOR
350
49B
  0
DICTIONARY
  5
416
102
{ACAD_REACTORS
330
387
102
}
330
387
100
AcDbDictionary
281
     1
  0
DICTIONARY
  5
4B0
102
{ACAD_REACTORS
330
387
102
}
330
387
100
AcDbDictionary
281
     1
  0
XRECORD
  5
D93
102
{ACAD_REACTORS
330
387
102
}
330
387
100
AcDbXrecord
280
     1
  1
DWGPROPS COOKIE
  2

  3

  4

  6

  7

  8
OSK-CAD06
  9

300
=
301
=
302
=
303
=
304
=
305
=
306
=
307
=
308
=
309
=
 40
0.0150008101851852
 41
2452816.720450011
 42
2454597.603904977
  1

 90
        0
  0
DICTIONARY
  5
6A6
102
{ACAD_REACTORS
330
6A5
102
}
330
6A5
100
AcDbDictionary
281
     1
  0
LAYOUT
  5
3B4
102
{ACAD_XDICTIONARY
360
D9E
102
}
102
{ACAD_REACTORS
330
3A9
102
}
330
3A9
100
AcDbPlotSettings
  1

  2
\\CAD-SRV01\FX DocuColor 1250 PLW
  4
A4
  6

 40
4.773083209991455
 41
4.815417766571044
 42
4.815399169921875
 43
4.7730712890625
 44
209.9733276367187
 45
296.9683227539062
 46
0.0
 47
0.0
 48
0.0
 49
0.0
140
0.0
141
0.0
142
1.0
143
48.35659258320879
 70
 11952
 72
     0
 73
     1
 74
     0
  7
monochrome.ctb
 75
     0
147
0.020679703564292
148
7165.422660625665
149
3275.831373189577
100
AcDbLayout
  1
Model
 70
     1
 71
     0
 10
0.0
 20
0.0
 11
12.0
 21
9.0
 12
0.0
 22
0.0
 32
0.0
 14
0.0
 24
0.0
 34
0.0
 15
0.0
 25
0.0
 35
0.0
146
0.0
 13
0.0
 23
0.0
 33
0.0
 16
1.0
 26
0.0
 36
0.0
 17
0.0
 27
1.0
 37
0.0
 76
     0
330
3B1
331
3B5
1001
ACAD_PSEXT
1000
\\CAD-SRV01\FX DocuColor 1250 PLW
1000
FX DocuColor 1250 PLW
1000
\\Cad-srv01
1000

1070
     0
  0
LAYOUT
  5
3B0
102
{ACAD_XDICTIONARY
360
D9C
102
}
102
{ACAD_REACTORS
330
3A9
102
}
330
3A9
100
AcDbPlotSettings
  1

  2
\\CAD-SRV01\FX DocuColor 1250 PLW
  4

  6

 40
0.0
 41
0.0
 42
0.0
 43
0.0
 44
0.0
 45
0.0
 46
0.0
 47
0.0
 48
0.0
 49
0.0
140
0.0
141
0.0
142
1.0
143
1.0
 70
   688
 72
     0
 73
     0
 74
     5
  7
monochrome.ctb
 75
    16
147
1.0
148
0.0
149
0.0
100
AcDbLayout
  1
レイアウト1
 70
     1
 71
     1
 10
-211.0
 20
-100.0
 11
170.0
 21
173.0
 12
0.0
 22
0.0
 32
0.0
 14
1.000000000000000E+20
 24
1.000000000000000E+20
 34
1.000000000000000E+20
 15
-1.000000000000000E+20
 25
-1.000000000000000E+20
 35
-1.000000000000000E+20
146
0.0
 13
0.0
 23
0.0
 33
0.0
 16
1.0
 26
0.0
 36
0.0
 17
0.0
 27
1.0
 37
0.0
 76
     0
330
3AD
  0
MATERIAL
  5
38D
102
{ACAD_XDICTIONARY
360
D96
102
}
102
{ACAD_REACTORS
330
38B
102
}
330
38B
100
AcDbMaterial
  1
ByBlock
  0
MATERIAL
  5
38C
102
{ACAD_XDICTIONARY
360
D94
102
}
102
{ACAD_REACTORS
330
38B
102
}
330
38B
100
AcDbMaterial
  1
ByLayer
  0
MATERIAL
  5
38E
102
{ACAD_XDICTIONARY
360
D98
102
}
102
{ACAD_REACTORS
330
38B
102
}
330
38B
100
AcDbMaterial
  1
Global
  0
MLINESTYLE
  5
3A7
102
{ACAD_REACTORS
330
3A6
102
}
330
3A6
100
AcDbMlineStyle
  2
STANDARD
 70
     0
  3

 62
   256
 51
90.0
 52
90.0
 71
     2
 49
0.5
 62
   256
  6
BYLAYER
 49
-0.5
 62
   256
  6
BYLAYER
  0
ACDBPLACEHOLDER
  5
38A
102
{ACAD_REACTORS
330
389
102
}
330
389
  0
TABLESTYLE
  5
3AC
102
{ACAD_XDICTIONARY
360
D9A
102
}
102
{ACAD_REACTORS
330
3AB
102
}
330
3AB
100
AcDbTableStyle
  3
Standard
 70
     0
 71
     0
 40
0.06
 41
0.06
280
     0
281
     0
  7
STANDARD
140
0.18
170
     2
 62
     0
 63
     7
283
     0
274
    -2
284
     1
 64
     0
275
    -2
285
     1
 65
     0
276
    -2
286
     1
 66
     0
277
    -2
287
     1
 67
     0
278
    -2
288
     1
 68
     0
279
    -2
289
     1
 69
     0
  7
STANDARD
140
0.25
170
     5
 62
     0
 63
     7
283
     0
274
    -2
284
     1
 64
     0
275
    -2
285
     1
 65
     0
276
    -2
286
     1
 66
     0
277
    -2
287
     1
 67
     0
278
    -2
288
     1
 68
     0
279
    -2
289
     1
 69
     0
  7
STANDARD
140
0.18
170
     5
 62
     0
 63
     7
283
     0
274
    -2
284
     1
 64
     0
275
    -2
285
     1
 65
     0
276
    -2
286
     1
 66
     0
277
    -2
287
     1
 67
     0
278
    -2
288
     1
 68
     0
279
    -2
289
     1
 69
     0
  0
VISUALSTYLE
  5
395
102
{ACAD_REACTORS
330
38F
102
}
330
38F
100
AcDbVisualStyle
  2
2dWireframe
 70
     4
 71
     0
 72
     2
 73
     0
 90
        0
 40
-0.6
 41
-30.0
 62
     5
 63
     7
 74
     1
 91
        4
 64
     7
 65
   257
 75
     1
175
     1
 42
1.0
 92
        0
 66
   257
 43
1.0
 76
     1
 77
     6
 78
     2
 67
     7
 79
     5
170
     0
171
     0
290
     0
174
     0
 93
        1
 44
0.0
173
     0
291
     0
 45
0.0
1001
ACAD
1000
AcDbSavedByObjectVersion
1070
     0
  0
VISUALSTYLE
  5
397
102
{ACAD_REACTORS
330
38F
102
}
330
38F
100
AcDbVisualStyle
  2
3D Hidden
 70
     6
 71
     1
 72
     2
 73
     2
 90
        0
 40
-0.6
 41
-30.0
 62
     5
 63
     7
 74
     2
 91
        2
 64
     7
 65
   257
 75
     2
175
     1
 42
40.0
 92
        0
 66
   257
 43
1.0
 76
     1
 77
     6
 78
     2
 67
     7
 79
     3
170
     0
171
     0
290
     0
174
     0
 93
        1
 44
0.0
173
     0
291
     0
 45
0.0
1001
ACAD
1000
AcDbSavedByObjectVersion
1070
     0
  0
VISUALSTYLE
  5
396
102
{ACAD_REACTORS
330
38F
102
}
330
38F
100
AcDbVisualStyle
  2
3dWireframe
 70
     5
 71
     0
 72
     2
 73
     0
 90
        0
 40
-0.6
 41
-30.0
 62
     5
 63
     7
 74
     1
 91
        4
 64
     7
 65
   257
 75
     1
175
     1
 42
1.0
 92
        0
 66
   257
 43
1.0
 76
     1
 77
     6
 78
     2
 67
     7
 79
     5
170
     0
171
     0
290
     0
174
     0
 93
        1
 44
0.0
173
     0
291
     0
 45
0.0
1001
ACAD
1000
AcDbSavedByObjectVersion
1070
     0
  0
VISUALSTYLE
  5
394
102
{ACAD_REACTORS
330
38F
102
}
330
38F
100
AcDbVisualStyle
  2
Basic
 70
     7
 71
     1
 72
     0
 73
     1
 90
        0
 40
-0.6
 41
-30.0
 62
     5
 63
     7
 74
     0
 91
        4
 64
     7
 65
   257
 75
     1
175
     1
 42
1.0
 92
        8
 66
     7
 43
1.0
 76
     1
 77
     6
 78
     2
 67
     7
 79
     5
170
     0
171
     0
290
     0
174
     0
 93
        1
 44
0.0
173
     0
291
     1
 45
0.0
1001
ACAD
1000
AcDbSavedByObjectVersion
1070
     0
  0
VISUALSTYLE
  5
39B
102
{ACAD_REACTORS
330
38F
102
}
330
38F
100
AcDbVisualStyle
  2
Brighten
 70
    12
 71
     2
 72
     2
 73
     0
 90
        0
 40
-0.6
 41
-30.0
 62
     5
 63
     7
 74
     1
 91
        4
 64
     7
 65
   257
 75
     1
175
     1
 42
1.0
 92
        8
 66
     7
 43
1.0
 76
     1
 77
     6
 78
     2
 67
     7
 79
     5
170
     0
171
     0
290
     0
174
     0
 93
        1
 44
50.0
173
     0
291
     1
 45
0.0
1001
ACAD
1000
AcDbSavedByObjectVersion
1070
     0
  0
VISUALSTYLE
  5
39F
102
{ACAD_REACTORS
330
38F
102
}
330
38F
100
AcDbVisualStyle
  2
ColorChange
 70
    16
 71
     2
 72
     2
 73
     3
 90
        0
 40
-0.6
 41
-30.0
 62
     5
 63
     8
 74
     1
 91
        4
 64
     7
 65
   257
 75
     1
175
     1
 42
1.0
 92
        8
 66
     8
 43
1.0
 76
     1
 77
     6
 78
     2
 67
     7
 79
     5
170
     0
171
     0
290
     0
174
     0
 93
        1
 44
0.0
173
     0
291
     1
 45
0.0
1001
ACAD
1000
AcDbSavedByObjectVersion
1070
     0
  0
VISUALSTYLE
  5
398
102
{ACAD_REACTORS
330
38F
102
}
330
38F
100
AcDbVisualStyle
  2
Conceptual
 70
     9
 71
     3
 72
     2
 73
     0
 90
        0
 40
-0.6
 41
-30.0
 62
     5
 63
     7
 74
     2
 91
        2
 64
     7
 65
   257
 75
     1
175
     1
 42
40.0
 92
        8
 66
     7
 43
1.0
 76
     1
 77
     6
 78
     2
 67
     7
 79
     3
170
     0
171
     0
290
     0
174
     0
 93
        1
 44
0.0
173
     0
291
     0
 45
0.0
1001
ACAD
1000
AcDbSavedByObjectVersion
1070
     0
  0
VISUALSTYLE
  5
39A
102
{ACAD_REACTORS
330
38F
102
}
330
38F
100
AcDbVisualStyle
  2
Dim
 70
    11
 71
     2
 72
     2
 73
     0
 90
        0
 40
-0.6
 41
-30.0
 62
     5
 63
     7
 74
     1
 91
        4
 64
     7
 65
   257
 75
     1
175
     1
 42
1.0
 92
        8
 66
     7
 43
1.0
 76
     1
 77
     6
 78
     2
 67
     7
 79
     5
170
     0
171
     0
290
     0
174
     0
 93
        1
 44
-50.0
173
     0
291
     1
 45
0.0
1001
ACAD
1000
AcDbSavedByObjectVersion
1070
     0
  0
VISUALSTYLE
  5
39E
102
{ACAD_REACTORS
330
38F
102
}
330
38F
100
AcDbVisualStyle
  2
Facepattern
 70
    15
 71
     2
 72
     2
 73
     0
 90
        0
 40
-0.6
 41
-30.0
 62
     5
 63
     7
 74
     1
 91
        4
 64
     7
 65
   257
 75
     1
175
     1
 42
1.0
 92
        8
 66
     7
 43
1.0
 76
     1
 77
     6
 78
     2
 67
     7
 79
     5
170
     0
171
     0
290
     0
174
     0
 93
        1
 44
0.0
173
     0
291
     1
 45
0.0
1001
ACAD
1000
AcDbSavedByObjectVersion
1070
     0
  0
VISUALSTYLE
  5
390
102
{ACAD_REACTORS
330
38F
102
}
330
38F
100
AcDbVisualStyle
  2
Flat
 70
     0
 71
     2
 72
     1
 73
     1
 90
        2
 40
-0.6
 41
30.0
 62
     5
 63
     7
 74
     0
 91
        4
 64
     7
 65
   257
 75
     1
175
     1
 42
1.0
 92
        8
 66
     7
 43
1.0
 76
     1
 77
     6
 78
     2
 67
     7
 79
     5
170
     0
171
     0
290
     0
174
     0
 93
       13
 44
0.0
173
     0
291
     1
 45
0.0
1001
ACAD
1000
AcDbSavedByObjectVersion
1070
     0
  0
VISUALSTYLE
  5
391
102
{ACAD_REACTORS
330
38F
102
}
330
38F
100
AcDbVisualStyle
  2
FlatWithEdges
 70
     1
 71
     2
 72
     1
 73
     1
 90
        2
 40
-0.6
 41
30.0
 62
     5
 63
     7
 74
     1
 91
        4
 64
     7
 65
   257
 75
     1
175
     1
 42
1.0
 92
        0
 66
   257
 43
1.0
 76
     1
 77
     6
 78
     2
 67
     7
 79
     5
170
     0
171
     0
290
     0
174
     0
 93
       13
 44
0.0
173
     0
291
     1
 45
0.0
1001
ACAD
1000
AcDbSavedByObjectVersion
1070
     0
  0
VISUALSTYLE
  5
392
102
{ACAD_REACTORS
330
38F
102
}
330
38F
100
AcDbVisualStyle
  2
Gouraud
 70
     2
 71
     2
 72
     2
 73
     1
 90
        2
 40
-0.6
 41
30.0
 62
     5
 63
     7
 74
     0
 91
        4
 64
     7
 65
   257
 75
     1
175
     1
 42
1.0
 92
        0
 66
     7
 43
1.0
 76
     1
 77
     6
 78
     2
 67
     7
 79
     5
170
     0
171
     0
290
     0
174
     0
 93
       13
 44
0.0
173
     0
291
     1
 45
0.0
1001
ACAD
1000
AcDbSavedByObjectVersion
1070
     0
  0
VISUALSTYLE
  5
393
102
{ACAD_REACTORS
330
38F
102
}
330
38F
100
AcDbVisualStyle
  2
GouraudWithEdges
 70
     3
 71
     2
 72
     2
 73
     1
 90
        2
 40
-0.6
 41
30.0
 62
     5
 63
     7
 74
     1
 91
        4
 64
     7
 65
   257
 75
     1
175
     1
 42
1.0
 92
        0
 66
   257
 43
1.0
 76
     1
 77
     6
 78
     2
 67
     7
 79
     5
170
     0
171
     0
290
     0
174
     0
 93
       13
 44
0.0
173
     0
291
     1
 45
0.0
1001
ACAD
1000
AcDbSavedByObjectVersion
1070
     0
  0
VISUALSTYLE
  5
39D
102
{ACAD_REACTORS
330
38F
102
}
330
38F
100
AcDbVisualStyle
  2
Linepattern
 70
    14
 71
     2
 72
     2
 73
     0
 90
        0
 40
-0.6
 41
-30.0
 62
     5
 63
     7
 74
     1
 91
        4
 64
     7
 65
   257
 75
     7
175
     7
 42
1.0
 92
        8
 66
     7
 43
1.0
 76
     1
 77
     6
 78
     2
 67
     7
 79
     5
170
     0
171
     0
290
     0
174
     0
 93
        1
 44
0.0
173
     0
291
     1
 45
0.0
1001
ACAD
1000
AcDbSavedByObjectVersion
1070
     0
  0
VISUALSTYLE
  5
399
102
{ACAD_REACTORS
330
38F
102
}
330
38F
100
AcDbVisualStyle
  2
Realistic
 70
     8
 71
     2
 72
     2
 73
     0
 90
        0
 40
-0.6
 41
-30.0
 62
     5
 63
     7
 74
     1
 91
        0
 64
     7
 65
   257
 75
     1
175
     1
 42
1.0
 92
        8
 66
     8
 43
1.0
 76
     1
 77
     6
 78
     2
 67
     7
 79
     5
170
     0
171
     0
290
     0
174
     0
 93
       13
 44
0.0
173
     0
291
     0
 45
0.0
1001
ACAD
1000
AcDbSavedByObjectVersion
1070
     0
  0
VISUALSTYLE
  5
39C
102
{ACAD_REACTORS
330
38F
102
}
330
38F
100
AcDbVisualStyle
  2
Thicken
 70
    13
 71
     2
 72
     2
 73
     0
 90
        0
 40
-0.6
 41
-30.0
 62
     5
 63
     7
 74
     1
 91
        4
 64
     7
 65
   257
 75
     1
175
     1
 42
1.0
 92
       12
 66
     7
 43
1.0
 76
     1
 77
     6
 78
     2
 67
     7
 79
     5
170
     0
171
     0
290
     0
174
     0
 93
        1
 44
0.0
173
     0
291
     1
 45
0.0
1001
ACAD
1000
AcDbSavedByObjectVersion
1070
     0
  0
DICTIONARYVAR
  5
4B9
102
{ACAD_REACTORS
330
4B8
102
}
330
4B8
100
DictionaryVariables
280
     0
  1
STANDARD
  0
DICTIONARYVAR
  5
D92
102
{ACAD_REACTORS
330
4B8
102
}
330
4B8
100
DictionaryVariables
280
     0
  1
1
  0
DICTIONARYVAR
  5
D91
102
{ACAD_REACTORS
330
4B8
102
}
330
4B8
100
DictionaryVariables
280
     0
  1
0
  0
DICTIONARYVAR
  5
D90
102
{ACAD_REACTORS
330
4B8
102
}
330
4B8
100
DictionaryVariables
280
     0
  1
127
  0
DICTIONARY
  5
47A
102
{ACAD_REACTORS
330
46F
102
}
330
46F
100
AcDbDictionary
281
     1
  0
XRECORD
  5
49B
102
{ACAD_REACTORS
330
46F
102
}
330
46F
100
AcDbXrecord
280
     1
 90
-1023410169
  0
DICTIONARY
  5
D9E
330
3B4
100
AcDbDictionary
280
     1
281
     1
  3
ACAD_XREC_ROUNDTRIP
360
D9F
  0
DICTIONARY
  5
D9C
330
3B0
100
AcDbDictionary
280
     1
281
     1
  3
ACAD_XREC_ROUNDTRIP
360
D9D
  0
DICTIONARY
  5
D96
330
38D
100
AcDbDictionary
280
     1
281
     1
  3
ACAD_XREC_ROUNDTRIP
360
D97
  0
DICTIONARY
  5
D94
330
38C
100
AcDbDictionary
280
     1
281
     1
  3
ACAD_XREC_ROUNDTRIP
360
D95
  0
DICTIONARY
  5
D98
330
38E
100
AcDbDictionary
280
     1
281
     1
  3
ACAD_XREC_ROUNDTRIP
360
D99
  0
DICTIONARY
  5
D9A
330
3AC
100
AcDbDictionary
280
     1
281
     1
  3
ACAD_XREC_ROUNDTRIP
360
D9B
  0
XRECORD
  5
D9F
102
{ACAD_REACTORS
330
D9E
102
}
330
D9E
100
AcDbXrecord
280
     1
102
SHADEPLOT
 70
     0
102
SHADEPLOTRESLEVEL
 70
     2
102
SHADEPLOTCUSTOMDPI
 70
   300
  0
XRECORD
  5
D9D
102
{ACAD_REACTORS
330
D9C
102
}
330
D9C
100
AcDbXrecord
280
     1
102
SHADEPLOT
 70
     0
102
SHADEPLOTRESLEVEL
 70
     2
102
SHADEPLOTCUSTOMDPI
 70
   300
  0
XRECORD
  5
D97
102
{ACAD_REACTORS
330
D96
102
}
330
D96
100
AcDbXrecord
280
     1
102
MATERIAL
148
0.0
149
0.0
149
0.0
 93
        0
 94
       63
282
     0
 72
     1
 77
     1
171
     1
175
     1
179
     1
273
     0
  0
XRECORD
  5
D95
102
{ACAD_REACTORS
330
D94
102
}
330
D94
100
AcDbXrecord
280
     1
102
MATERIAL
148
0.0
149
0.0
149
0.0
 93
        0
 94
       63
282
     0
 72
     1
 77
     1
171
     1
175
     1
179
     1
273
     0
  0
XRECORD
  5
D99
102
{ACAD_REACTORS
330
D98
102
}
330
D98
100
AcDbXrecord
280
     1
102
MATERIAL
148
0.0
149
0.0
149
0.0
 93
        0
 94
       63
282
     0
 72
     1
 77
     1
171
     1
175
     1
179
     1
273
     0
  0
XRECORD
  5
D9B
102
{ACAD_REACTORS
330
D9A
102
}
330
D9A
100
AcDbXrecord
280
     1
102
ACAD_ROUNDTRIP_PRE2007_TABLESTYLE
 90
      512
 91
        0
  1

 92
      512
 93
        0
  2

 94
      512
 95
        0
  3

  0
ENDSEC
  0
EOF
