  0
SECTION
  2
HEADER
  9
$EXTMAX
 10
170
 20
173
 30
0
  9
$EXTMIN
 10
-211
 20
-100
 30
0
  9
$LIMMAX
 10
170
 20
173
  9
$LIMMIN
 10
-211
 20
-100
  9
$PLIMMAX
 10
170
 20
173
  9
$PLIMMIN
 10
-211
 20
-100
  9
$TEXTSIZE
 40
3.2
  9
$DIMSHO
 70
     0
  9
$DIMASZ
 40
1.0
  9
$DIMTAD
 70
     1
  9
$DIMTIH
 70
     0
  9
$DIMTOH
 70
     0
  9
$DIMEXE
 40
2.54
  9
$DIMEXO
 40
2.54
  9
$DIMTVP
 40
1.0
  9
$DIMSAH
 70
     1
  9
$DIMDLE
 40
0.0
  9
$DIMTXT
 40
3.2
  9
$DIMGAP
 40
1.6
  0
ENDSEC
  0
SECTION
  2
TABLES
  0
TABLE
  2
LTYPE
 70
     6
  0
LTYPE
  2
CONTINUOUS
 70
    64
  3
Solid line
 72
    65
 73
     0
 40
0.0
  0
LTYPE
  2
DASHED
 70
    64
  3
__ __ __ __ __ __ __ __ __ __ __ __ __ __ __
 72
    65
 73
     2
 40
3.5
 49
2.0
 49
-1.5
  0
LTYPE
  2
CENTER
 70
    64
  3
____ _ ____ _ ____ _ ____ _ ____ _ ____ _ ____
 72
    65
 73
     4
 40
17.5
 49
13.0
 49
-1.5
 49
1.5
 49
-1.5
  0
LTYPE
  2
PHANTOM
 70
    64
  3
_____ _ _ _____ _ _ _____ _ _ _____ _ _ ____  
 72
    65
 73
     6
 40
15.5
 49
8.0
 49
-1.5
 49
1.5
 49
-1.5
 49
1.5
 49
-1.5
  0
LTYPE
  2
DOT
 70
    64
  3
. . . . . . . . . . . . . . . . . . . . . . . .
 72
    65
 73
     2
 40
0.25
 49
0.0
 49
-0.25
  0
LTYPE
  2
HIDDEN
 70
    64
  3
__ __ __ __ __ __ __ __ __ __ __ __ __ __ __
 72
    65
 73
     2
 40
3.5
 49
2.0
 49
-1.5
  0
ENDTAB
  0
TABLE
  2
LAYER
 70
     4
  0
LAYER
  2
0
 70
     0
 62
     7
  6
CONTINUOUS
  0
LAYER
  2
1
 70
     0
 62
     7
  6
CONTINUOUS
  0
LAYER
  2
2
 70
     0
 62
     7
  6
CONTINUOUS
  0
LAYER
  2
DEFPOINTS
 70
     0
 62
     7
  6
CONTINUOUS
  0
ENDTAB
  0
TABLE
  2
STYLE
 70
     1
  0
STYLE
  2
STANDARD
 70
     0
 40
0.0
 41
1.0
 50
0.0
 71
     0
 42
0.2
  3
txt
  4
BIGFONT
  0
ENDTAB
  0
TABLE
  2
DIMSTYLE
 70
     1
  0
DIMSTYLE
  2
DIMSTYLE
 70
     0
  3

  4

  5
_DOT
  6
_DOT
  7
_DOT
 40
1
 41
1
 42
2.54
 43
0.38
 44
2.54
 45
0
 46
0
 47
0
 48
0
140
3.2
141
0.09
142
0
143
25.4
144
1
145
0
146
1
147
1.6
 71
     0
 72
     0
 73
     0
 74
     0
 75
     0
 76
     0
 78
     0
170
     0
171
     2
 77
     0
172
     0
173
     1
174
     0
175
     0
176
     0
177
     0
178
     0
  0
ENDTAB
  0
ENDSEC
  0
SECTION
  2
BLOCKS
  0
BLOCK
  8
0
  2
_DOT
 70
    64
 10
0
 20
0
  3
_DOT
  0
POLYLINE
  8
0
  6
BYBLOCK
 62
     0
 66
     1
 10
0
 20
0
 70
     1
 40
0.40000001
 41
0.40000001
  0
VERTEX
  8
0
  6
BYBLOCK
 62
     0
 10
-0.2
 20
0
 42
1
  0
VERTEX
  8
0
  6
BYBLOCK
 62
     0
 10
0.2
 20
0
 42
1
  0
SEQEND
  8
0
  6
BYBLOCK
 62
     0
  0
LINE
  8
0
  6
BYBLOCK
 62
     0
 10
-0.40000001
 20
0
 11
-3
 21
0
  0
ENDBLK
  8
0
  0
BLOCK
  8
0
  2
_NONE
 70
    64
 10
0
 20
0
  3
_NONE
  0
CIRCLE
  8
0
  6
BYBLOCK
 62
     0
 10
0
 20
0
 40
0.001
  0
ENDBLK
  8
0
  0
BLOCK
  8
0
  2
*D1
 70
    65
 10
0
 20
0
  0
LINE
  8
0
  6
CONTINUOUS
 62
     7
 10
60
 20
95
 11
60
 21
85
  0
INSERT
  8
0
  6
CONTINUOUS
 62
     7
  2
_DOT
 10
60
 20
95
 50
90
  0
INSERT
  8
0
  6
CONTINUOUS
 62
     7
  2
_DOT
 10
60
 20
85
 50
270
  0
LINE
  8
0
  6
CONTINUOUS
 62
     7
 10
47.54
 20
95
 11
61.200001
 21
95
  0
LINE
  8
0
  6
CONTINUOUS
 62
     7
 10
47.54
 20
85
 11
61.200001
 21
85
  0
TEXT
  8
0
  6
CONTINUOUS
 62
     7
 10
59.2
 20
87.257
 40
3.2
 41
1.4026704
  1
10
 50
90.000003
  0
POINT
  8
DEFPOINTS
  6
CONTINUOUS
 62
     7
 10
45
 20
95
  0
POINT
  8
DEFPOINTS
  6
CONTINUOUS
 62
     7
 10
45
 20
85
  0
POINT
  8
DEFPOINTS
  6
CONTINUOUS
 62
     7
 10
60
 20
85
  0
ENDBLK
  8
0
  0
BLOCK
  8
0
  2
*D2
 70
    65
 10
0
 20
0
  0
LINE
  8
0
  6
CONTINUOUS
 62
     7
 10
-20.799999
 20
60
 11
45
 21
60
  0
INSERT
  8
0
  6
CONTINUOUS
 62
     7
  2
_DOT
 10
-20.799999
 20
60
 50
180
  0
INSERT
  8
0
  6
CONTINUOUS
 62
     7
  2
_DOT
 10
45
 20
60
  0
LINE
  8
0
  6
CONTINUOUS
 62
     7
 10
-20.799999
 20
82.46
 11
-20.799999
 21
58.799999
  0
LINE
  8
0
  6
CONTINUOUS
 62
     7
 10
45
 20
82.46
 11
45
 21
58.799999
  0
TEXT
  8
0
  6
CONTINUOUS
 62
     7
 10
6.1570004
 20
60.8
 40
3.2
 41
1.238125
  1
65.8
  0
POINT
  8
DEFPOINTS
  6
CONTINUOUS
 62
     7
 10
-20.799999
 20
85
  0
POINT
  8
DEFPOINTS
  6
CONTINUOUS
 62
     7
 10
45
 20
85
  0
POINT
  8
DEFPOINTS
  6
CONTINUOUS
 62
     7
 10
45
 20
60
  0
ENDBLK
  8
0
  0
BLOCK
  8
0
  2
*D3
 70
    65
 10
0
 20
0
  0
LINE
  8
0
  6
CONTINUOUS
 62
     7
 10
75
 20
70
 11
95
 21
70
  0
INSERT
  8
0
  6
CONTINUOUS
 62
     7
  2
_DOT
 10
75
 20
70
 50
180
  0
INSERT
  8
0
  6
CONTINUOUS
 62
     7
  2
_DOT
 10
95
 20
70
  0
LINE
  8
0
  6
CONTINUOUS
 62
     7
 10
75
 20
84.46
 11
75
 21
68.800003
  0
LINE
  8
0
  6
CONTINUOUS
 62
     7
 10
95
 20
82.46
 11
95
 21
68.800003
  0
TEXT
  8
0
  6
CONTINUOUS
 62
     7
 10
82.257
 20
70.8
 40
3.2
 41
1.1020982
  1
20
  0
POINT
  8
DEFPOINTS
  6
CONTINUOUS
 62
     7
 10
75
 20
87
  0
POINT
  8
DEFPOINTS
  6
CONTINUOUS
 62
     7
 10
95
 20
85
  0
POINT
  8
DEFPOINTS
  6
CONTINUOUS
 62
     7
 10
95
 20
70
  0
ENDBLK
  8
0
  0
BLOCK
  8
0
  2
*D4
 70
    65
 10
0
 20
0
  0
LINE
  8
0
  6
CONTINUOUS
 62
     7
 10
-8.4120312
 20
88.690887
 11
-30.000006
 21
70
  0
INSERT
  8
0
  6
CONTINUOUS
 62
     7
  2
_DOT
 10
-8.4120312
 20
88.690887
 50
40.886043
  0
LINE
  8
0
  6
CONTINUOUS
 62
     7
 10
-30.000008
 20
70
 11
-51.409496
 21
70
  0
TEXT
  8
0
  6
CONTINUOUS
 62
     7
 10
-51.409496
 20
70.8
 40
3.2
 41
0.84634979
  1
２－Ｍ４タップ
  0
POINT
  8
DEFPOINTS
  6
CONTINUOUS
 62
     7
 10
-8.4120312
 20
88.690887
  0
POINT
  8
DEFPOINTS
  6
CONTINUOUS
 62
     7
 10
-30.000006
 20
70
  0
ENDBLK
  8
0
  0
BLOCK
  8
0
  2
*D5
 70
    65
 10
0
 20
0
  0
LINE
  8
0
  6
CONTINUOUS
 62
     7
 10
-20.799999
 20
70
 11
-6.9000001
 21
70
  0
INSERT
  8
0
  6
CONTINUOUS
 62
     7
  2
_DOT
 10
-20.799999
 20
70
 50
180
  0
INSERT
  8
0
  6
CONTINUOUS
 62
     7
  2
_DOT
 10
-6.9000001
 20
70
  0
LINE
  8
0
  6
CONTINUOUS
 62
     7
 10
-20.799999
 20
82.46
 11
-20.799999
 21
68.800003
  0
LINE
  8
0
  6
CONTINUOUS
 62
     7
 10
-6.9000001
 20
82.919999
 11
-6.9000001
 21
68.800003
  0
TEXT
  8
0
  6
CONTINUOUS
 62
     7
 10
-19.793
 20
70.8
 40
3.2
 41
1.3928906
  1
13.9
  0
POINT
  8
DEFPOINTS
  6
CONTINUOUS
 62
     7
 10
-20.799999
 20
85
  0
POINT
  8
DEFPOINTS
  6
CONTINUOUS
 62
     7
 10
-6.9000001
 20
85.459999
  0
POINT
  8
DEFPOINTS
  6
CONTINUOUS
 62
     7
 10
-6.9000001
 20
70
  0
ENDBLK
  8
0
  0
BLOCK
  8
0
  2
*D6
 70
    65
 10
0
 20
0
  0
LINE
  8
0
  6
CONTINUOUS
 62
     7
 10
-6.9000001
 20
70
 11
31.1
 21
70
  0
INSERT
  8
0
  6
CONTINUOUS
 62
     7
  2
_DOT
 10
-6.9000001
 20
70
 50
180
  0
INSERT
  8
0
  6
CONTINUOUS
 62
     7
  2
_DOT
 10
31.1
 20
70
  0
LINE
  8
0
  6
CONTINUOUS
 62
     7
 10
31.1
 20
82.919999
 11
31.1
 21
68.800003
  0
TEXT
  8
0
  6
CONTINUOUS
 62
     7
 10
9.3570004
 20
70.8
 40
3.2
 41
1.028625
  1
38
  0
POINT
  8
DEFPOINTS
  6
CONTINUOUS
 62
     7
 10
-6.9000001
 20
85.459999
  0
POINT
  8
DEFPOINTS
  6
CONTINUOUS
 62
     7
 10
31.1
 20
85.459999
  0
POINT
  8
DEFPOINTS
  6
CONTINUOUS
 62
     7
 10
31.1
 20
70
  0
ENDBLK
  8
0
  0
BLOCK
  8
0
  2
*D7
 70
    65
 10
0
 20
0
  0
LINE
  8
0
  6
CONTINUOUS
 62
     7
 10
31.1
 20
70
 11
45
 21
70
  0
INSERT
  8
0
  6
CONTINUOUS
 62
     7
  2
_DOT
 10
31.1
 20
70
 50
180
  0
INSERT
  8
0
  6
CONTINUOUS
 62
     7
  2
_DOT
 10
45
 20
70
  0
LINE
  8
0
  6
CONTINUOUS
 62
     7
 10
45
 20
82.46
 11
45
 21
68.800003
  0
TEXT
  8
0
  6
CONTINUOUS
 62
     7
 10
32.106999
 20
70.8
 40
3.2
 41
1.3928906
  1
13.9
  0
POINT
  8
DEFPOINTS
  6
CONTINUOUS
 62
     7
 10
31.1
 20
85.459999
  0
POINT
  8
DEFPOINTS
  6
CONTINUOUS
 62
     7
 10
45
 20
85
  0
POINT
  8
DEFPOINTS
  6
CONTINUOUS
 62
     7
 10
45
 20
70
  0
ENDBLK
  8
0
  0
BLOCK
  8
0
  2
KOZU0001
 70
    64
 10
0
 20
0
  0
LINE
  8
0
  6
CONTINUOUS
 62
     7
 10
0
 20
0
 11
-10.585785
 21
-14.585785
  0
LINE
  8
0
  6
CONTINUOUS
 62
     7
 10
-10.585785
 20
-14.585785
 11
15.713387
 21
-14.585785
  0
LINE
  8
0
  6
CONTINUOUS
 62
     7
 10
0
 20
0
 11
-1.3824594
 21
-2.8616488
  0
LINE
  8
0
  6
CONTINUOUS
 62
     7
 10
0
 20
0
 11
-2.2921327
 21
-2.2014439
  0
TEXT
  8
0
  6
CONTINUOUS
 62
     7
 10
-6.6866126
 20
-13.785787
 40
3.2
 41
0.84634979
  1
溶接にて取付け
  0
ENDBLK
  8
0
  0
BLOCK
  8
0
  2
KOZU0002
 70
    64
 10
0
 20
0
  0
LINE
  8
0
  6
CONTINUOUS
 62
     7
 10
0
 20
0
 11
8.9999962
 21
-20.999997
  0
LINE
  8
0
  6
CONTINUOUS
 62
     7
 10
8.9999962
 20
-20.999997
 11
43.343861
 21
-20.999997
  0
LINE
  8
0
  6
CONTINUOUS
 62
     7
 10
0
 20
0
 11
1.7487388
 21
-2.6537032
  0
LINE
  8
0
  6
CONTINUOUS
 62
     7
 10
0
 20
0
 11
0.71561973
 21
-3.0964683
  0
TEXT
  8
0
  6
CONTINUOUS
 62
     7
 10
11.343859
 20
-20.199999
 40
3.2
 41
0.84448348
  1
竪枠へビスにて取付け
  0
ENDBLK
  8
0
  0
BLOCK
  8
0
  2
KOZU0003
 70
    64
 10
0
 20
0
  0
LINE
  8
0
  6
CONTINUOUS
 62
     7
 10
0
 20
0
 11
5.5857849
 21
-14.585786
  0
LINE
  8
0
  6
CONTINUOUS
 62
     7
 10
5.5857849
 20
-14.585786
 11
29.417477
 21
-14.585786
  0
LINE
  8
0
  6
CONTINUOUS
 62
     7
 10
0
 20
0
 11
1.6435057
 21
-2.7201317
  0
LINE
  8
0
  6
CONTINUOUS
 62
     7
 10
0
 20
0
 11
0.59384447
 21
-3.1221109
  0
TEXT
  8
0
  6
CONTINUOUS
 62
     7
 10
7.0174775
 20
-13.785788
 40
3.2
 41
0.84634979
  1
溶接にて取付け
  0
ENDBLK
  8
0
  0
BLOCK
  8
0
  2
KOZU0004
 70
    64
 10
0
 20
0
  0
ENDBLK
  8
0
  0
ENDSEC
  0
SECTION
  2
ENTITIES
  0
POINT
  8
0
  6
CONTINUOUS
 62
     7
 10
35
 20
-9
  0
POINT
  8
0
  6
CONTINUOUS
 62
     7
 10
-8.4120293
 20
88.690887
  0
POINT
  8
0
  6
CONTINUOUS
 62
     7
 10
-5.3879781
 20
91.30912
  0
LINE
  8
0
  6
CONTINUOUS
 62
     7
 10
170
 20
173
 11
170
 21
-100
  0
LINE
  8
0
  6
CONTINUOUS
 62
     7
 10
-211
 20
-100
 11
170
 21
-100
  0
LINE
  8
0
  6
CONTINUOUS
 62
     7
 10
-211
 20
173
 11
170
 21
173
  0
LINE
  8
0
  6
CONTINUOUS
 62
     7
 10
-211
 20
173
 11
-211
 21
-100
  0
LINE
  8
0
  6
CONTINUOUS
 62
     7
 10
-191
 20
173
 11
-191
 21
77
  0
LINE
  8
0
  6
CONTINUOUS
 62
     7
 10
-211
 20
165
 11
-101
 21
165
  0
LINE
  8
0
  6
CONTINUOUS
 62
     7
 10
-211
 20
157
 11
-101
 21
157
  0
LINE
  8
0
  6
CONTINUOUS
 62
     7
 10
-211
 20
149
 11
-101
 21
149
  0
LINE
  8
0
  6
CONTINUOUS
 62
     7
 10
-211
 20
141
 11
-101
 21
141
  0
LINE
  8
0
  6
CONTINUOUS
 62
     7
 10
-191
 20
117
 11
-101
 21
117
  0
LINE
  8
0
  6
CONTINUOUS
 62
     7
 10
-191
 20
109
 11
-101
 21
109
  0
LINE
  8
0
  6
CONTINUOUS
 62
     7
 10
-211
 20
101
 11
-101
 21
101
  0
LINE
  8
0
  6
CONTINUOUS
 62
     7
 10
-191
 20
93
 11
-101
 21
93
  0
LINE
  8
0
  6
CONTINUOUS
 62
     7
 10
-191
 20
85
 11
-101
 21
85
  0
LINE
  8
0
  6
CONTINUOUS
 62
     7
 10
-211
 20
77
 11
-101
 21
77
  0
LINE
  8
0
  6
CONTINUOUS
 62
     7
 10
-211
 20
173
 11
-211
 21
77
  0
LINE
  8
0
  6
CONTINUOUS
 62
     7
 10
-211
 20
173
 11
-101
 21
173
  0
LINE
  8
0
  6
CONTINUOUS
 62
     7
 10
-101
 20
173
 11
-101
 21
77
  0
LINE
  8
0
  6
CONTINUOUS
 62
     7
 10
-211
 20
133
 11
-101
 21
133
  0
LINE
  8
0
  6
CONTINUOUS
 62
     7
 10
-211
 20
125
 11
-101
 21
125
  0
LINE
  8
0
  6
CONTINUOUS
 62
     7
 10
-191
 20
117
 11
-101
 21
117
  0
LINE
  8
0
  6
CONTINUOUS
 62
     7
 10
-20.799999
 20
135
 11
45
 21
135
  0
LINE
  8
0
  6
CONTINUOUS
 62
     7
 10
-20.799999
 20
155
 11
-20.799999
 21
135
  0
LINE
  8
0
  6
CONTINUOUS
 62
     7
 10
45
 20
155
 11
45
 21
135
  0
LINE
  8
0
  6
CONTINUOUS
 62
     7
 10
75
 20
93
 11
75
 21
87
  0
LINE
  8
0
  6
CONTINUOUS
 62
     7
 10
-20.799999
 20
95
 11
45
 21
95
  0
LINE
  8
0
  6
CONTINUOUS
 62
     7
 10
-20.799999
 20
85
 11
45
 21
85
  0
LINE
  8
0
  6
CONTINUOUS
 62
     7
 10
-20.799999
 20
155
 11
45
 21
155
  0
LINE
  8
0
  6
CONTINUOUS
 62
     7
 10
-20.799999
 20
95
 11
-20.799999
 21
85
  0
LINE
  8
0
  6
CONTINUOUS
 62
     7
 10
45
 20
95
 11
45
 21
85
  0
LINE
  8
0
  6
CONTINUOUS
 62
     7
 10
77
 20
95
 11
95
 21
95
  0
LINE
  8
0
  6
CONTINUOUS
 62
     7
 10
77
 20
85
 11
95
 21
85
  0
LINE
  8
0
  6
CONTINUOUS
 62
     7
 10
95
 20
95
 11
95
 21
93
  0
LINE
  8
0
  6
CONTINUOUS
 62
     7
 10
77
 20
93
 11
95
 21
93
  0
LINE
  8
0
  6
CONTINUOUS
 62
     7
 10
77
 20
87
 11
95
 21
87
  0
LINE
  8
0
  6
CONTINUOUS
 62
     7
 10
77
 20
93
 11
77
 21
87
  0
LINE
  8
0
  6
DASHED
 62
     7
 10
-20.799999
 20
137
 11
45
 21
137
  0
LINE
  8
0
  6
CONTINUOUS
 62
     7
 10
95
 20
87
 11
95
 21
85
  0
LINE
  8
0
  6
DASHED
 62
     7
 10
-20.799999
 20
93
 11
45
 21
93
  0
LINE
  8
0
  6
DASHED
 62
     7
 10
-20.799999
 20
87
 11
45
 21
87
  0
LINE
  8
0
  6
CENTER
 62
     7
 10
-6.9000001
 20
94.540001
 11
-6.9000001
 21
85.459999
  0
LINE
  8
0
  6
CENTER
 62
     7
 10
-11.44
 20
90
 11
-2.3599999
 21
90
  0
LINE
  8
0
  6
CENTER
 62
     7
 10
31.1
 20
94.540001
 11
31.1
 21
85.459999
  0
LINE
  8
0
  6
CENTER
 62
     7
 10
26.559999
 20
90
 11
35.639999
 21
90
  0
LINE
  8
0
  6
PHANTOM
 62
     7
 10
-19.853456
 20
1.3373717
 11
-20.750851
 21
-0.15280171
  0
LINE
  8
0
  6
PHANTOM
 62
     7
 10
-78
 20
-16
 11
-72
 21
-16
  0
LINE
  8
0
  6
PHANTOM
 62
     7
 10
-78
 20
4
 11
-74.858154
 21
4
  0
LINE
  8
0
  6
PHANTOM
 62
     7
 10
-10
 20
2
 11
-10
 21
-14
  0
LINE
  8
0
  6
PHANTOM
 62
     7
 10
-80
 20
2
 11
-80
 21
-14
  0
LINE
  8
0
  6
PHANTOM
 62
     7
 10
-28.423077
 20
1.3846155
 11
-29.28846
 21
-0.69230753
  0
LINE
  8
0
  6
PHANTOM
 62
     7
 10
-72
 20
-14
 11
-72
 21
-16
  0
LINE
  8
0
  6
PHANTOM
 62
     7
 10
-18
 20
-14
 11
-18
 21
-16
  0
LINE
  8
0
  6
PHANTOM
 62
     7
 10
-18
 20
-16
 11
-12
 21
-16
  0
LINE
  8
0
  6
PHANTOM
 62
     7
 10
-78
 20
2
 11
-78
 21
-14
  0
LINE
  8
0
  6
PHANTOM
 62
     7
 10
-59.730766
 20
2.1538451
 11
-58.865383
 21
0.076921925
  0
LINE
  8
0
  6
PHANTOM
 62
     7
 10
-36.859856
 20
0.30560058
 11
-35.962463
 21
-1.1845728
  0
LINE
  8
0
  6
PHANTOM
 62
     7
 10
-18.140142
 20
0.30559993
 11
-19.037537
 21
-1.1845735
  0
LINE
  8
0
  6
PHANTOM
 62
     7
 10
-18
 20
-14
 11
-12
 21
-14
  0
LINE
  8
0
  6
PHANTOM
 62
     7
 10
-12
 20
2
 11
-15.141842
 21
2
  0
LINE
  8
0
  6
PHANTOM
 62
     7
 10
-70.146538
 20
1.3373748
 11
-69.249146
 21
-0.15279856
  0
LINE
  8
0
  6
PHANTOM
 62
     7
 10
-71.859856
 20
0.30560309
 11
-70.962463
 21
-1.1845703
  0
LINE
  8
0
  6
PHANTOM
 62
     7
 10
-50.141842
 20
2
 11
-39.858158
 21
2
  0
LINE
  8
0
  6
PHANTOM
 62
     7
 10
-54.853455
 20
1.3373718
 11
-55.750851
 21
-0.1528016
  0
LINE
  8
0
  6
PHANTOM
 62
     7
 10
-12
 20
4
 11
-15.141842
 21
4
  0
LINE
  8
0
  6
PHANTOM
 62
     7
 10
-26.576923
 20
1.3846153
 11
-25.711538
 21
-0.69230783
  0
LINE
  8
0
  6
PHANTOM
 62
     7
 10
-65.269234
 20
2.1538463
 11
-66.134613
 21
0.076923087
  0
LINE
  8
0
  6
PHANTOM
 62
     7
 10
-35.146542
 20
1.3373723
 11
-34.249149
 21
-0.15280108
  0
LINE
  8
0
  6
PHANTOM
 62
     7
 10
-50.141842
 20
4
 11
-39.858158
 21
4
  0
LINE
  8
0
  6
PHANTOM
 62
     7
 10
-63.423077
 20
1.3846154
 11
-64.28846
 21
-0.69230771
  0
LINE
  8
0
  6
PHANTOM
 62
     7
 10
-78
 20
2
 11
-74.858154
 21
2
  0
LINE
  8
0
  6
PHANTOM
 62
     7
 10
-24.73077
 20
2.153846
 11
-23.865385
 21
0.076922968
  0
LINE
  8
0
  6
PHANTOM
 62
     7
 10
-53.140141
 20
0.30560005
 11
-54.037537
 21
-1.1845734
  0
LINE
  8
0
  6
PHANTOM
 62
     7
 10
-61.57692
 20
1.3846142
 11
-60.711536
 21
-0.69230884
  0
LINE
  8
0
  6
PHANTOM
 62
     7
 10
-78
 20
-14
 11
-72
 21
-14
  0
LINE
  8
0
  6
PHANTOM
 62
     7
 10
-30.26923
 20
2.1538463
 11
-31.134615
 21
0.076923221
  0
LINE
  8
0
  6
PHANTOM
 62
     7
 10
-12
 20
4
 11
-10
 21
1.9999998
  0
LINE
  8
0
  6
PHANTOM
 62
     7
 10
-12
 20
2
 11
-12
 21
-14
  0
LINE
  8
0
  6
PHANTOM
 62
     7
 10
-78
 20
3.9999988
 11
-80
 21
1.9999994
  0
LINE
  8
0
  6
PHANTOM
 62
     7
 10
6.6000023
 20
-16
 11
86.600006
 21
-16
  0
LINE
  8
0
  6
PHANTOM
 62
     7
 10
6.6000023
 20
34
 11
6.6000023
 21
-16
  0
LINE
  8
0
  6
PHANTOM
 62
     7
 10
8.2000008
 20
34
 11
8.2000008
 21
-16
  0
LINE
  8
0
  6
PHANTOM
 62
     7
 10
35
 20
-13
 11
33.27652
 21
-13
  0
LINE
  8
0
  6
PHANTOM
 62
     7
 10
32.134705
 20
-9.5
 11
31.919266
 21
-9.5
  0
LINE
  8
0
  6
PHANTOM
 62
     7
 10
36.399994
 20
-11
 11
36.399994
 21
-7
  0
LINE
  8
0
  6
PHANTOM
 62
     7
 10
32.134705
 20
-8.5
 11
32.134705
 21
-9.5
  0
LINE
  8
0
  6
PHANTOM
 62
     2
 10
36.400005
 20
-10.620994
 11
35.743561
 21
-10.999991
  0
LINE
  8
0
  6
PHANTOM
 62
     2
 10
35.743557
 20
-6.9999981
 11
36.399998
 21
-7.3789959
  0
LINE
  8
0
  6
PHANTOM
 62
     7
 10
32.134705
 20
-8.5
 11
31.919266
 21
-8.5
  0
LINE
  8
0
  6
PHANTOM
 62
     7
 10
33.27652
 20
-5
 11
35
 21
-5
  0
LINE
  8
0
  6
PHANTOM
 62
     2
 10
36.399994
 20
-10.620995
 11
41
 21
-10.620995
  0
LINE
  8
0
  6
PHANTOM
 62
     2
 10
41
 20
-7.3789978
 11
36.399994
 21
-7.3789978
  0
LINE
  8
0
  6
PHANTOM
 62
     7
 10
41
 20
-7
 11
35.199997
 21
-7
  0
LINE
  8
0
  6
PHANTOM
 62
     7
 10
41
 20
-11
 11
35.199997
 21
-11
  0
LINE
  8
0
  6
PHANTOM
 62
     7
 10
35
 20
-5
 11
35
 21
-13
  0
LINE
  8
0
  6
PHANTOM
 62
     7
 10
41
 20
-7
 11
41
 21
-11
  0
LINE
  8
0
  6
PHANTOM
 62
     7
 10
35
 20
34
 11
35
 21
-16
  0
LINE
  8
0
  6
PHANTOM
 62
     7
 10
31.899994
 20
-9
 11
41
 21
-9
  0
LINE
  8
0
  6
PHANTOM
 62
     7
 10
36.600002
 20
34
 11
36.600002
 21
-16
  0
LINE
  8
0
  6
PHANTOM
 62
     7
 10
36.600002
 20
-14
 11
86.600006
 21
-14
  0
LINE
  8
0
  6
PHANTOM
 62
     7
 10
36.600002
 20
4
 11
86.600006
 21
4
  0
LINE
  8
0
  6
PHANTOM
 62
     7
 10
36.600002
 20
-3
 11
86.600006
 21
-3
  0
LINE
  8
0
  6
CONTINUOUS
 62
     7
 10
38.600002
 20
-14
 11
56.600002
 21
-14
  0
LINE
  8
0
  6
CONTINUOUS
 62
     7
 10
38.600002
 20
-4
 11
56.600002
 21
-4
  0
LINE
  8
0
  6
CONTINUOUS
 62
     7
 10
38.600002
 20
-6
 11
38.600002
 21
-12
  0
LINE
  8
0
  6
CONTINUOUS
 62
     7
 10
38.600002
 20
-6
 11
56.600002
 21
-6
  0
LINE
  8
0
  6
CONTINUOUS
 62
     7
 10
56.600002
 20
-4
 11
56.600002
 21
-6
  0
LINE
  8
0
  6
CONTINUOUS
 62
     7
 10
36.600002
 20
-6
 11
36.600002
 21
-12
  0
LINE
  8
0
  6
CONTINUOUS
 62
     7
 10
38.600002
 20
-12
 11
56.600002
 21
-12
  0
LINE
  8
0
  6
CONTINUOUS
 62
     7
 10
56.600002
 20
-12
 11
56.600002
 21
-14
  0
LINE
  8
0
  6
CONTINUOUS
 62
     7
 10
-12.1
 20
-4
 11
-12.1
 21
-14
  0
LINE
  8
0
  6
CONTINUOUS
 62
     7
 10
-77.900002
 20
-4
 11
-77.900002
 21
-14
  0
LINE
  8
0
  6
CONTINUOUS
 62
     7
 10
-77.900002
 20
-14
 11
-12.1
 21
-14
  0
LINE
  8
0
  6
CONTINUOUS
 62
     7
 10
-77.900002
 20
-4
 11
-12.1
 21
-4
  0
LINE
  8
0
  6
DASHED
 62
     7
 10
-77.900002
 20
-12
 11
-12.1
 21
-12
  0
LINE
  8
0
  6
DASHED
 62
     7
 10
-77.900002
 20
-6
 11
-12.1
 21
-6
  0
LINE
  8
0
  6
CENTER
 62
     7
 10
-30.540001
 20
-9
 11
-21.459999
 21
-9
  0
LINE
  8
0
  6
CENTER
 62
     7
 10
-64
 20
-4.46
 11
-64
 21
-13.54
  0
LINE
  8
0
  6
CENTER
 62
     7
 10
-68.540001
 20
-9
 11
-59.459999
 21
-9
  0
LINE
  8
0
  6
CENTER
 62
     7
 10
-26
 20
-4.46
 11
-26
 21
-13.54
  0
LINE
  8
0
  6
CONTINUOUS
 62
     7
 10
-8.4120283
 20
88.690895
 11
-5.3879766
 21
91.30912
  0
ARC
  8
0
  6
CONTINUOUS
 62
     7
 10
77
 20
93
 40
2
 50
90
 51
180
  0
ARC
  8
0
  6
CONTINUOUS
 62
     7
 10
77
 20
87
 40
2
 50
180
 51
270
  0
CIRCLE
  8
0
  6
CONTINUOUS
 62
     7
 10
-6.9000001
 20
90
 40
2
  0
CIRCLE
  8
0
  6
CONTINUOUS
 62
     7
 10
-6.9000001
 20
90
 40
1.6210022
  0
CIRCLE
  8
0
  6
CONTINUOUS
 62
     7
 10
31.1
 20
90
 40
2
  0
CIRCLE
  8
0
  6
CONTINUOUS
 62
     7
 10
31.1
 20
90
 40
1.6210022
  0
ARC
  8
0
  6
PHANTOM
 62
     7
 10
-39.858158
 20
-1.5
 40
5.5
 50
31.056682
 51
90
  0
ARC
  8
0
  6
PHANTOM
 62
     7
 10
-32.75
 20
0.75
 40
3.75
 50
211.0567
 51
337.38013
  0
ARC
  8
0
  6
PHANTOM
 62
     7
 10
-74.858154
 20
-1.5
 40
3.5
 50
31.056705
 51
90
  0
ARC
  8
0
  6
PHANTOM
 62
     7
 10
-27.5
 20
1
 40
1
 50
22.619873
 51
157.38013
  0
ARC
  8
0
  6
PHANTOM
 62
     7
 10
-12
 20
-14
 40
2
 50
270
 51
360
  0
ARC
  8
0
  6
PHANTOM
 62
     7
 10
-78
 20
-14
 40
2
 50
180
 51
270
  0
ARC
  8
0
  6
PHANTOM
 62
     7
 10
-15.141842
 20
-1.5
 40
3.5
 50
90
 51
148.94331
  0
ARC
  8
0
  6
PHANTOM
 62
     7
 10
-62.5
 20
1
 40
3
 50
22.619873
 51
157.38016
  0
ARC
  8
0
  6
PHANTOM
 62
     7
 10
-67.75
 20
0.75
 40
1.75
 50
211.05664
 51
337.38016
  0
ARC
  8
0
  6
PHANTOM
 62
     7
 10
-39.858158
 20
-1.5
 40
3.5
 50
31.056705
 51
90
  0
ARC
  8
0
  6
PHANTOM
 62
     7
 10
-74.858154
 20
-1.5
 40
5.5
 50
31.056682
 51
90
  0
ARC
  8
0
  6
PHANTOM
 62
     7
 10
-50.141842
 20
-1.5
 40
5.5
 50
90
 51
148.94332
  0
ARC
  8
0
  6
PHANTOM
 62
     7
 10
-22.25
 20
0.75
 40
3.75
 50
202.61986
 51
328.94332
  0
ARC
  8
0
  6
PHANTOM
 62
     7
 10
-50.141842
 20
-1.5
 40
3.5
 50
90
 51
148.94333
  0
ARC
  8
0
  6
PHANTOM
 62
     7
 10
-57.25
 20
0.75
 40
1.75
 50
202.61988
 51
328.9433
  0
ARC
  8
0
  6
PHANTOM
 62
     7
 10
-67.75
 20
0.75
 40
3.75
 50
211.0567
 51
337.38015
  0
ARC
  8
0
  6
PHANTOM
 62
     7
 10
-32.75
 20
0.75
 40
1.75
 50
211.0567
 51
337.38014
  0
ARC
  8
0
  6
PHANTOM
 62
     7
 10
-27.5
 20
1
 40
3
 50
22.619873
 51
157.38014
  0
ARC
  8
0
  6
PHANTOM
 62
     7
 10
-62.5
 20
1
 40
1
 50
22.619873
 51
157.38013
  0
ARC
  8
0
  6
PHANTOM
 62
     7
 10
-15.141842
 20
-1.5
 40
5.5
 50
90
 51
148.94331
  0
ARC
  8
0
  6
PHANTOM
 62
     7
 10
-57.25
 20
0.75
 40
3.75
 50
202.61985
 51
328.9433
  0
ARC
  8
0
  6
PHANTOM
 62
     7
 10
-22.25
 20
0.75
 40
1.75
 50
202.61986
 51
328.94333
  0
ARC
  8
0
  6
PHANTOM
 62
     7
 10
35.199997
 20
-11.199997
 40
0.2
 50
90
 51
180
  0
ARC
  8
0
  6
PHANTOM
 62
     7
 10
35.199997
 20
-6.7999954
 40
0.2
 50
180
 51
270
  0
ARC
  8
0
  6
PHANTOM
 62
     7
 10
38.399994
 20
-9
 40
6.5
 50
142.02012
 51
175.58827
  0
ARC
  8
0
  6
PHANTOM
 62
     7
 10
38.399994
 20
-9
 40
6.5
 50
184.41173
 51
217.97988
  0
ARC
  8
0
  6
CONTINUOUS
 62
     7
 10
38.600002
 20
-6
 40
2
 50
90
 51
180
  0
ARC
  8
0
  6
CONTINUOUS
 62
     7
 10
38.600002
 20
-12
 40
2
 50
180
 51
270
  0
CIRCLE
  8
0
  6
CONTINUOUS
 62
     7
 10
-64
 20
-9
 40
2
  0
CIRCLE
  8
0
  6
CONTINUOUS
 62
     7
 10
-26
 20
-9
 40
1.6210022
  0
CIRCLE
  8
0
  6
CONTINUOUS
 62
     7
 10
-26
 20
-9
 40
2
  0
CIRCLE
  8
0
  6
CONTINUOUS
 62
     7
 10
-64
 20
-9
 40
1.6210022
  0
ARC
  8
0
  6
PHANTOM
 62
     7
 10
-72
 20
-14
 40
2
 50
270
 51
360
  0
ARC
  8
0
  6
PHANTOM
 62
     7
 10
-18
 20
-14
 40
2
 50
180
 51
270
  0
CIRCLE
  8
0
  6
CONTINUOUS
 62
     7
 10
-5.3879781
 20
91.30912
 40
0.2
  0
TEXT
  8
0
  6
CONTINUOUS
 62
     7
 10
-188.143
 20
95.4
 40
3.2
 41
0.84289514
  1
ＳＲ－１９－３５フラットレール用
  0
TEXT
  8
0
  6
CONTINUOUS
 62
     7
 10
-205.343
 20
167.4
 40
3.2
 41
0.85537027
  1
品　名
  0
TEXT
  8
0
  6
CONTINUOUS
 62
     7
 10
-205.343
 20
159.4
 40
3.2
 41
0.85537027
  1
品　番
  0
TEXT
  8
0
  6
CONTINUOUS
 62
     7
 10
-188.143
 20
87.4
 40
3.2
 41
0.90047268
  1
＊
  0
TEXT
  8
0
  6
CONTINUOUS
 62
     7
 10
-188.143
 20
79.4
 40
3.2
 41
0.90047268
  1
＊
  0
TEXT
  8
0
  6
CONTINUOUS
 62
     7
 10
-205.343
 20
151.4
 40
3.2
 41
0.85537027
  1
材　質
  0
TEXT
  8
0
  6
CONTINUOUS
 62
     7
 10
-205.343
 20
143.4
 40
3.2
 41
0.85537027
  1
仕上げ
  0
TEXT
  8
0
  6
CONTINUOUS
 62
     7
 10
-188.143
 20
103.4
 40
3.2
 41
0.90047268
  1
＊
  0
TEXT
  8
0
  6
CONTINUOUS
 62
     7
 10
-188.143
 20
111.4
 40
3.2
 41
0.90047268
  1
＊
  0
TEXT
  8
0
  6
CONTINUOUS
 62
     7
 10
-208.543
 20
119.4
 40
3.2
 41
0.84892707
  1
セットビス
  0
TEXT
  8
0
  6
CONTINUOUS
 62
     7
 10
-188.143
 20
119.4
 40
3.2
 41
0.90047268
  1
＊
  0
TEXT
  8
0
  6
CONTINUOUS
 62
     7
 10
-203.743
 20
95.4
 40
3.2
 41
0.86439075
  1
備考
  0
TEXT
  8
0
  6
CONTINUOUS
 62
     7
 10
-205.343
 20
135.4
 40
3.2
 41
0.85537027
  1
定　尺
  0
TEXT
  8
0
  6
CONTINUOUS
 62
     7
 10
-206.943
 20
127.4
 40
3.2
 41
0.85127005
  1
左右勝手
  0
TEXT
  8
0
  6
CONTINUOUS
 62
     7
 10
-188.37855
 20
134.96998
 40
3.2
 41
0.90047268
  1
＊
  0
TEXT
  8
0
  6
CONTINUOUS
 62
     7
 10
-188.143
 20
167.4
 40
3.2
 41
0.8455654
  1
サイドジョイント
  0
TEXT
  8
0
  6
CONTINUOUS
 62
     7
 10
-188.143
 20
159.4
 40
3.2
 41
0.84892707
  1
ＳＢ－２９
  0
TEXT
  8
0
  6
CONTINUOUS
 62
     7
 10
-188.143
 20
151.4
 40
3.2
 41
0.84892707
  1
ステンレス
  0
TEXT
  8
0
  6
CONTINUOUS
 62
     7
 10
-188.143
 20
143.4
 40
3.2
 41
0.86439075
  1
生地
  0
TEXT
  8
0
  6
CONTINUOUS
 62
     7
 10
-188.37855
 20
127.36617
 40
3.2
 41
0.90047268
  1
＊
  0
TEXT
  8
0
  6
CONTINUOUS
 62
     7
 10
112.457
 20
88.4
 40
3.2
 41
1.2122679
  1
t=2.0
  0
INSERT
  8
0
  6
CONTINUOUS
 62
     7
  2
KOZU0004
 10
0
 20
0
  0
DIMENSION
  8
0
  6
CONTINUOUS
 62
     7
  2
*D1
 70
     0
 10
60
 20
85
 11
60
 21
90
  3
DIMSTYLE
 13
45
 23
95
 14
45
 24
85
 50
90
1001
ACAD
1000
DSTYLE
1002
{
1070
    77
1070
     1
1070
   172
1070
     1
1002
}
  0
INSERT
  8
0
  6
CONTINUOUS
 62
     7
  2
KOZU0001
 10
-19.414213
 20
-15.414213
  0
DIMENSION
  8
0
  6
CONTINUOUS
 62
     7
  2
*D2
 70
     0
 10
45
 20
60
 11
12.1
 21
60
  3
DIMSTYLE
 13
-20.799999
 23
85
 14
45
 24
85
 50
0
1001
ACAD
1000
DSTYLE
1002
{
1070
    77
1070
     1
1070
   172
1070
     1
1002
}
  0
DIMENSION
  8
0
  6
CONTINUOUS
 62
     7
  2
*D3
 70
     0
 10
95
 20
70
 11
85
 21
70
  3
DIMSTYLE
 13
75
 23
87
 14
95
 24
85
 50
0
1001
ACAD
1000
DSTYLE
1002
{
1070
    77
1070
     1
1070
   172
1070
     1
1002
}
  0
INSERT
  8
0
  6
CONTINUOUS
 62
     7
  2
*D4
 10
0
 20
0
  0
DIMENSION
  8
0
  6
CONTINUOUS
 62
     7
  2
*D5
 70
     0
 10
-6.9000001
 20
70
 11
-13.85
 21
70
  3
DIMSTYLE
 13
-20.799999
 23
85
 14
-6.9000001
 24
85.459999
 50
0
1001
ACAD
1000
DSTYLE
1002
{
1070
    77
1070
     1
1070
   172
1070
     1
1002
}
  0
DIMENSION
  8
0
  6
CONTINUOUS
 62
     7
  2
*D6
 70
     0
 10
31.1
 20
70
 11
12.1
 21
70
  3
DIMSTYLE
 13
-6.9000001
 23
85.459999
 14
31.1
 24
85.459999
 50
0
1001
ACAD
1000
DSTYLE
1002
{
1070
    77
1070
     1
1070
   172
1070
     1
1070
    75
1070
     1
1002
}
  0
DIMENSION
  8
0
  6
CONTINUOUS
 62
     7
  2
*D7
 70
     0
 10
45
 20
70
 11
38.049999
 21
70
  3
DIMSTYLE
 13
31.1
 23
85.459999
 14
45
 24
85
 50
0
1001
ACAD
1000
DSTYLE
1002
{
1070
    77
1070
     1
1070
   172
1070
     1
1070
    75
1070
     1
1002
}
  0
INSERT
  8
0
  6
CONTINUOUS
 62
     7
  2
KOZU0002
 10
41.000004
 20
-9.000001
  0
INSERT
  8
0
  6
CONTINUOUS
 62
     7
  2
KOZU0003
 10
-70.585785
 20
-15.414212
  0
ENDSEC
  0
EOF
