  0
SECTION
  2
HEADER
  9
$EXTMAX
 10
170
 20
173
 30
0
  9
$EXTMIN
 10
-211
 20
-100
 30
0
  9
$LIMMAX
 10
170
 20
173
  9
$LIMMIN
 10
-211
 20
-100
  9
$PLIMMAX
 10
170
 20
173
  9
$PLIMMIN
 10
-211
 20
-100
  9
$TEXTSIZE
 40
3.2
  9
$DIMSHO
 70
     0
  9
$DIMASZ
 40
1.0
  9
$DIMTAD
 70
     1
  9
$DIMTIH
 70
     0
  9
$DIMTOH
 70
     0
  9
$DIMEXE
 40
2.54
  9
$DIMEXO
 40
2.54
  9
$DIMTVP
 40
1.0
  9
$DIMSAH
 70
     1
  9
$DIMDLE
 40
0.0
  9
$DIMTXT
 40
3.2
  9
$DIMGAP
 40
1.6
  0
ENDSEC
  0
SECTION
  2
TABLES
  0
TABLE
  2
LTYPE
 70
     6
  0
LTYPE
  2
CONTINUOUS
 70
    64
  3
Solid line
 72
    65
 73
     0
 40
0.0
  0
LTYPE
  2
DASHED
 70
    64
  3
__ __ __ __ __ __ __ __ __ __ __ __ __ __ __
 72
    65
 73
     2
 40
3.5
 49
2.0
 49
-1.5
  0
LTYPE
  2
CENTER
 70
    64
  3
____ _ ____ _ ____ _ ____ _ ____ _ ____ _ ____
 72
    65
 73
     4
 40
17.5
 49
13.0
 49
-1.5
 49
1.5
 49
-1.5
  0
LTYPE
  2
PHANTOM
 70
    64
  3
_____ _ _ _____ _ _ _____ _ _ _____ _ _ ____  
 72
    65
 73
     6
 40
15.5
 49
8.0
 49
-1.5
 49
1.5
 49
-1.5
 49
1.5
 49
-1.5
  0
LTYPE
  2
DOT
 70
    64
  3
. . . . . . . . . . . . . . . . . . . . . . . .
 72
    65
 73
     2
 40
0.25
 49
0.0
 49
-0.25
  0
LTYPE
  2
HIDDEN
 70
    64
  3
__ __ __ __ __ __ __ __ __ __ __ __ __ __ __
 72
    65
 73
     2
 40
3.5
 49
2.0
 49
-1.5
  0
ENDTAB
  0
TABLE
  2
LAYER
 70
     4
  0
LAYER
  2
0
 70
     0
 62
     7
  6
CONTINUOUS
  0
LAYER
  2
1
 70
     0
 62
     7
  6
CONTINUOUS
  0
LAYER
  2
2
 70
     0
 62
     7
  6
CONTINUOUS
  0
LAYER
  2
DEFPOINTS
 70
     0
 62
     7
  6
CONTINUOUS
  0
ENDTAB
  0
TABLE
  2
STYLE
 70
     1
  0
STYLE
  2
STANDARD
 70
     0
 40
0.0
 41
1.0
 50
0.0
 71
     0
 42
0.2
  3
txt
  4
BIGFONT
  0
ENDTAB
  0
TABLE
  2
DIMSTYLE
 70
     1
  0
DIMSTYLE
  2
DIMSTYLE
 70
     0
  3

  4

  5
_DOT
  6
_DOT
  7
_DOT
 40
1
 41
1
 42
2.54
 43
0.38
 44
2.54
 45
0
 46
0
 47
0
 48
0
140
3.2
141
0.09
142
0
143
25.4
144
1
145
0
146
1
147
1.6
 71
     0
 72
     0
 73
     0
 74
     0
 75
     0
 76
     0
 78
     0
170
     0
171
     2
 77
     0
172
     0
173
     1
174
     0
175
     0
176
     0
177
     0
178
     0
  0
ENDTAB
  0
ENDSEC
  0
SECTION
  2
BLOCKS
  0
BLOCK
  8
0
  2
_DOT
 70
    64
 10
0
 20
0
  3
_DOT
  0
POLYLINE
  8
0
  6
BYBLOCK
 62
     0
 66
     1
 10
0
 20
0
 70
     1
 40
0.40000001
 41
0.40000001
  0
VERTEX
  8
0
  6
BYBLOCK
 62
     0
 10
-0.2
 20
0
 42
1
  0
VERTEX
  8
0
  6
BYBLOCK
 62
     0
 10
0.2
 20
0
 42
1
  0
SEQEND
  8
0
  6
BYBLOCK
 62
     0
  0
LINE
  8
0
  6
BYBLOCK
 62
     0
 10
-0.40000001
 20
0
 11
-3
 21
0
  0
ENDBLK
  8
0
  0
BLOCK
  8
0
  2
_NONE
 70
    64
 10
0
 20
0
  3
_NONE
  0
CIRCLE
  8
0
  6
BYBLOCK
 62
     0
 10
0
 20
0
 40
0.001
  0
ENDBLK
  8
0
  0
BLOCK
  8
0
  2
*D1
 70
    65
 10
0
 20
0
  0
LINE
  8
0
  6
CONTINUOUS
 62
     7
 10
60.000015
 20
10
 11
60.000015
 21
-0.57685852
  0
LINE
  8
0
  6
CONTINUOUS
 62
     7
 10
60.000015
 20
15.5
 11
60.000015
 21
10
  0
INSERT
  8
0
  6
CONTINUOUS
 62
     7
  2
_DOT
 10
60.000015
 20
15.5
 50
90
  0
INSERT
  8
0
  6
CONTINUOUS
 62
     7
  2
_DOT
 10
60.000015
 20
10
 50
270
  0
LINE
  8
0
  6
CONTINUOUS
 62
     7
 10
13.540015
 20
10
 11
61.200012
 21
10
  0
TEXT
  8
0
  6
CONTINUOUS
 62
     7
 10
59.200015
 20
-0.57687149
 40
3.2
 41
1.3571875
  1
5.5
 50
90.000003
  0
POINT
  8
DEFPOINTS
  6
CONTINUOUS
 62
     7
 10
45.000015
 20
15.5
  0
POINT
  8
DEFPOINTS
  6
CONTINUOUS
 62
     7
 10
11.000015
 20
10
  0
POINT
  8
DEFPOINTS
  6
CONTINUOUS
 62
     7
 10
60.000015
 20
10
  0
ENDBLK
  8
0
  0
BLOCK
  8
0
  2
*D2
 70
    65
 10
0
 20
0
  0
LINE
  8
0
  6
CONTINUOUS
 62
     7
 10
60.000015
 20
39
 11
60.000015
 21
49.453964
  0
LINE
  8
0
  6
CONTINUOUS
 62
     7
 10
60.000015
 20
39
 11
60.000015
 21
33.5
  0
INSERT
  8
0
  6
CONTINUOUS
 62
     7
  2
_DOT
 10
60.000015
 20
39
 50
90
  0
INSERT
  8
0
  6
CONTINUOUS
 62
     7
  2
_DOT
 10
60.000015
 20
33.5
 50
270
  0
LINE
  8
0
  6
CONTINUOUS
 62
     7
 10
-1.4599848
 20
39
 11
61.200012
 21
39
  0
TEXT
  8
0
  6
CONTINUOUS
 62
     7
 10
59.200015
 20
40.767962
 40
3.2
 41
1.3571875
  1
5.5
 50
90.000003
  0
POINT
  8
DEFPOINTS
  6
CONTINUOUS
 62
     7
 10
-3.9999847
 20
39
  0
POINT
  8
DEFPOINTS
  6
CONTINUOUS
 62
     7
 10
45.000015
 20
33.5
  0
POINT
  8
DEFPOINTS
  6
CONTINUOUS
 62
     7
 10
60.000015
 20
33.5
  0
ENDBLK
  8
0
  0
BLOCK
  8
0
  2
*D3
 70
    65
 10
0
 20
0
  0
LINE
  8
0
  6
CONTINUOUS
 62
     7
 10
60.000015
 20
33.5
 11
60.000015
 21
15.5
  0
INSERT
  8
0
  6
CONTINUOUS
 62
     7
  2
_DOT
 10
60.000015
 20
33.5
 50
90
  0
INSERT
  8
0
  6
CONTINUOUS
 62
     7
  2
_DOT
 10
60.000015
 20
15.5
 50
270
  0
LINE
  8
0
  6
CONTINUOUS
 62
     7
 10
47.540015
 20
33.5
 11
61.200012
 21
33.5
  0
LINE
  8
0
  6
CONTINUOUS
 62
     7
 10
47.540015
 20
15.5
 11
61.200012
 21
15.5
  0
TEXT
  8
0
  6
CONTINUOUS
 62
     7
 10
59.200015
 20
21.757
 40
3.2
 41
1.2857812
  1
18
 50
90.000003
  0
POINT
  8
DEFPOINTS
  6
CONTINUOUS
 62
     7
 10
45.000015
 20
33.5
  0
POINT
  8
DEFPOINTS
  6
CONTINUOUS
 62
     7
 10
45.000015
 20
15.5
  0
POINT
  8
DEFPOINTS
  6
CONTINUOUS
 62
     7
 10
60.000015
 20
15.5
  0
ENDBLK
  8
0
  0
BLOCK
  8
0
  2
*D4
 70
    65
 10
0
 20
0
  0
LINE
  8
0
  6
CONTINUOUS
 62
     7
 10
11.000015
 20
-5
 11
45.000015
 21
-5
  0
INSERT
  8
0
  6
CONTINUOUS
 62
     7
  2
_DOT
 10
45.000015
 20
-5
  0
LINE
  8
0
  6
CONTINUOUS
 62
     7
 10
45.000015
 20
12.96
 11
45.000015
 21
-6.1999969
  0
TEXT
  8
0
  6
CONTINUOUS
 62
     7
 10
25.257015
 20
-4.2
 40
3.2
 41
1.028625
  1
34
  0
POINT
  8
DEFPOINTS
  6
CONTINUOUS
 62
     7
 10
11.000015
 20
10
  0
POINT
  8
DEFPOINTS
  6
CONTINUOUS
 62
     7
 10
45.000015
 20
15.5
  0
POINT
  8
DEFPOINTS
  6
CONTINUOUS
 62
     7
 10
45.000015
 20
-5
  0
ENDBLK
  8
0
  0
BLOCK
  8
0
  2
*D5
 70
    65
 10
0
 20
0
  0
LINE
  8
0
  6
CONTINUOUS
 62
     7
 10
-55
 20
-5
 11
11.000015
 21
-5
  0
INSERT
  8
0
  6
CONTINUOUS
 62
     7
  2
_DOT
 10
11.000015
 20
-5
  0
LINE
  8
0
  6
CONTINUOUS
 62
     7
 10
11.000015
 20
7.4600001
 11
11.000015
 21
-6.1999969
  0
TEXT
  8
0
  6
CONTINUOUS
 62
     7
 10
-24.743
 20
-4.2
 40
3.2
 41
1.028625
  1
66
  0
POINT
  8
DEFPOINTS
  6
CONTINUOUS
 62
     7
 10
-55
 20
31
  0
POINT
  8
DEFPOINTS
  6
CONTINUOUS
 62
     7
 10
11.000015
 20
10
  0
POINT
  8
DEFPOINTS
  6
CONTINUOUS
 62
     7
 10
11.000015
 20
-5
  0
ENDBLK
  8
0
  0
BLOCK
  8
0
  2
*D6
 70
    65
 10
0
 20
0
  0
LINE
  8
0
  6
CONTINUOUS
 62
     7
 10
-89
 20
-5
 11
-55
 21
-5
  0
INSERT
  8
0
  6
CONTINUOUS
 62
     7
  2
_DOT
 10
-89
 20
-5
 50
180
  0
INSERT
  8
0
  6
CONTINUOUS
 62
     7
  2
_DOT
 10
-55
 20
-5
  0
LINE
  8
0
  6
CONTINUOUS
 62
     7
 10
-89
 20
12.96
 11
-89
 21
-6.1999969
  0
LINE
  8
0
  6
CONTINUOUS
 62
     7
 10
-55
 20
28.46
 11
-55
 21
-6.1999969
  0
TEXT
  8
0
  6
CONTINUOUS
 62
     7
 10
-74.743
 20
-4.2
 40
3.2
 41
1.028625
  1
34
  0
POINT
  8
DEFPOINTS
  6
CONTINUOUS
 62
     7
 10
-89
 20
15.5
  0
POINT
  8
DEFPOINTS
  6
CONTINUOUS
 62
     7
 10
-55
 20
31
  0
POINT
  8
DEFPOINTS
  6
CONTINUOUS
 62
     7
 10
-55
 20
-5
  0
ENDBLK
  8
0
  0
BLOCK
  8
0
  2
*D7
 70
    65
 10
0
 20
0
  0
LINE
  8
0
  6
CONTINUOUS
 62
     7
 10
70.000015
 20
39
 11
70.000015
 21
10
  0
INSERT
  8
0
  6
CONTINUOUS
 62
     7
  2
_DOT
 10
70.000015
 20
39
 50
90
  0
INSERT
  8
0
  6
CONTINUOUS
 62
     7
  2
_DOT
 10
70.000015
 20
10
 50
270
  0
LINE
  8
0
  6
CONTINUOUS
 62
     7
 10
-1.4599848
 20
39
 11
71.200012
 21
39
  0
LINE
  8
0
  6
CONTINUOUS
 62
     7
 10
13.540015
 20
10
 11
71.200012
 21
10
  0
TEXT
  8
0
  6
CONTINUOUS
 62
     7
 10
69.200015
 20
21.757
 40
3.2
 41
1.028625
  1
29
 50
90.000003
  0
POINT
  8
DEFPOINTS
  6
CONTINUOUS
 62
     7
 10
-3.9999847
 20
39
  0
POINT
  8
DEFPOINTS
  6
CONTINUOUS
 62
     7
 10
11.000015
 20
10
  0
POINT
  8
DEFPOINTS
  6
CONTINUOUS
 62
     7
 10
70.000015
 20
10
  0
ENDBLK
  8
0
  0
BLOCK
  8
0
  2
*D8
 70
    65
 10
0
 20
0
  0
LINE
  8
0
  6
CONTINUOUS
 62
     7
 10
-89
 20
49
 11
-81
 21
49
  0
INSERT
  8
0
  6
CONTINUOUS
 62
     7
  2
_DOT
 10
-89
 20
49
 50
180
  0
INSERT
  8
0
  6
CONTINUOUS
 62
     7
  2
_DOT
 10
-81
 20
49
  0
LINE
  8
0
  6
CONTINUOUS
 62
     7
 10
-89
 20
36.04
 11
-89
 21
50.200001
  0
LINE
  8
0
  6
CONTINUOUS
 62
     7
 10
-81
 20
34.29
 11
-81
 21
50.200001
  0
TEXT
  8
0
  6
CONTINUOUS
 62
     7
 10
-86.143
 20
49.8
 40
3.2
 41
1
  1
8
  0
POINT
  8
DEFPOINTS
  6
CONTINUOUS
 62
     7
 10
-89
 20
33.5
  0
POINT
  8
DEFPOINTS
  6
CONTINUOUS
 62
     7
 10
-81
 20
31.75
  0
POINT
  8
DEFPOINTS
  6
CONTINUOUS
 62
     7
 10
-81
 20
49
  0
ENDBLK
  8
0
  0
BLOCK
  8
0
  2
*D9
 70
    65
 10
0
 20
0
  0
LINE
  8
0
  6
CONTINUOUS
 62
     7
 10
-81
 20
49
 11
37.000015
 21
49
  0
INSERT
  8
0
  6
CONTINUOUS
 62
     7
  2
_DOT
 10
-81
 20
49
 50
180
  0
INSERT
  8
0
  6
CONTINUOUS
 62
     7
  2
_DOT
 10
37.000015
 20
49
  0
LINE
  8
0
  6
CONTINUOUS
 62
     7
 10
37.000015
 20
34.29
 11
37.000015
 21
50.200001
  0
TEXT
  8
0
  6
CONTINUOUS
 62
     7
 10
-26.342992
 20
49.8
 40
3.2
 41
1.3571875
  1
118
  0
POINT
  8
DEFPOINTS
  6
CONTINUOUS
 62
     7
 10
-81
 20
31.75
  0
POINT
  8
DEFPOINTS
  6
CONTINUOUS
 62
     7
 10
37.000015
 20
31.75
  0
POINT
  8
DEFPOINTS
  6
CONTINUOUS
 62
     7
 10
37.000015
 20
49
  0
ENDBLK
  8
0
  0
BLOCK
  8
0
  2
*D10
 70
    65
 10
0
 20
0
  0
LINE
  8
0
  6
CONTINUOUS
 62
     7
 10
37.000015
 20
49
 11
45.000015
 21
49
  0
INSERT
  8
0
  6
CONTINUOUS
 62
     7
  2
_DOT
 10
37.000015
 20
49
 50
180
  0
INSERT
  8
0
  6
CONTINUOUS
 62
     7
  2
_DOT
 10
45.000015
 20
49
  0
LINE
  8
0
  6
CONTINUOUS
 62
     7
 10
45.000015
 20
36.04
 11
45.000015
 21
50.200001
  0
TEXT
  8
0
  6
CONTINUOUS
 62
     7
 10
39.857015
 20
49.8
 40
3.2
 41
1
  1
8
  0
POINT
  8
DEFPOINTS
  6
CONTINUOUS
 62
     7
 10
37.000015
 20
31.75
  0
POINT
  8
DEFPOINTS
  6
CONTINUOUS
 62
     7
 10
45.000015
 20
33.5
  0
POINT
  8
DEFPOINTS
  6
CONTINUOUS
 62
     7
 10
45.000015
 20
49
  0
ENDBLK
  8
0
  0
BLOCK
  8
0
  2
*D11
 70
    65
 10
0
 20
0
  0
LINE
  8
0
  6
CONTINUOUS
 62
     7
 10
-44.225872
 20
10.607573
 11
-47.502949
 21
-0.5534448
  0
LINE
  8
0
  6
CONTINUOUS
 62
     7
 10
-40
 20
25
 11
-44.225872
 21
10.607573
  0
INSERT
  8
0
  6
CONTINUOUS
 62
     7
  2
_DOT
 10
-44.225872
 20
10.607573
 50
253.63683
  0
TEXT
  8
0
  6
CONTINUOUS
 62
     7
 10
-48.273075
 20
-0.326785
 40
3.2
 41
1.1633036
  1
R15
 50
73.600001
  0
POINT
  8
DEFPOINTS
  6
CONTINUOUS
 62
     7
 10
-40
 20
25
  0
POINT
  8
DEFPOINTS
  6
CONTINUOUS
 62
     7
 10
-44.225872
 20
10.607573
  0
ENDBLK
  8
0
  0
BLOCK
  8
0
  2
*D12
 70
    65
 10
0
 20
0
  0
LINE
  8
0
  6
CONTINUOUS
 62
     7
 10
-82.218323
 20
22.608389
 11
-100
 21
-5.0000019
  0
INSERT
  8
0
  6
CONTINUOUS
 62
     7
  2
_DOT
 10
-82.218323
 20
22.608389
 50
57.215716
  0
LINE
  8
0
  6
CONTINUOUS
 62
     7
 10
-100
 20
-5
 11
-119.25071
 21
-5
  0
TEXT
  8
0
  6
CONTINUOUS
 62
     7
 10
-119.5707
 20
-4.2
 40
3.2
 41
1.1010356
  1
3-%%C4.5
  0
POINT
  8
DEFPOINTS
  6
CONTINUOUS
 62
     7
 10
-82.218323
 20
22.608389
  0
POINT
  8
DEFPOINTS
  6
CONTINUOUS
 62
     7
 10
-100
 20
-5.0000019
  0
ENDBLK
  8
0
  0
BLOCK
  8
0
  2
*D13
 70
    65
 10
0
 20
0
  0
LINE
  8
0
  6
CONTINUOUS
 62
     7
 10
-89
 20
-15
 11
45.000015
 21
-15
  0
INSERT
  8
0
  6
CONTINUOUS
 62
     7
  2
_DOT
 10
-89
 20
-15
 50
180
  0
INSERT
  8
0
  6
CONTINUOUS
 62
     7
  2
_DOT
 10
45.000015
 20
-15
  0
LINE
  8
0
  6
CONTINUOUS
 62
     7
 10
-89
 20
12.96
 11
-89
 21
-16.200001
  0
LINE
  8
0
  6
CONTINUOUS
 62
     7
 10
45.000015
 20
12.96
 11
45.000015
 21
-16.200001
  0
TEXT
  8
0
  6
CONTINUOUS
 62
     7
 10
-26.342992
 20
-14.2
 40
3.2
 41
1.1633036
  1
134
  0
POINT
  8
DEFPOINTS
  6
CONTINUOUS
 62
     7
 10
-89
 20
15.5
  0
POINT
  8
DEFPOINTS
  6
CONTINUOUS
 62
     7
 10
45.000015
 20
15.5
  0
POINT
  8
DEFPOINTS
  6
CONTINUOUS
 62
     7
 10
45.000015
 20
-15
  0
ENDBLK
  8
0
  0
BLOCK
  8
0
  2
*D14
 70
    65
 10
0
 20
0
  0
LINE
  8
0
  6
CONTINUOUS
 62
     7
 10
70.000015
 20
-76.897438
 11
70.000015
 21
-46.89743
  0
INSERT
  8
0
  6
CONTINUOUS
 62
     7
  2
_DOT
 10
70.000015
 20
-76.897438
 50
270
  0
INSERT
  8
0
  6
CONTINUOUS
 62
     7
  2
_DOT
 10
70.000015
 20
-46.89743
 50
90
  0
LINE
  8
0
  6
CONTINUOUS
 62
     7
 10
47.540015
 20
-76.897438
 11
71.200012
 21
-76.897438
  0
LINE
  8
0
  6
CONTINUOUS
 62
     7
 10
13.540015
 20
-46.89743
 11
71.200012
 21
-46.89743
  0
TEXT
  8
0
  6
CONTINUOUS
 62
     7
 10
69.200015
 20
-64.640434
 40
3.2
 41
1.1020982
  1
30
 50
90.000003
  0
POINT
  8
DEFPOINTS
  6
CONTINUOUS
 62
     7
 10
45.000015
 20
-76.897438
  0
POINT
  8
DEFPOINTS
  6
CONTINUOUS
 62
     7
 10
11.000015
 20
-46.89743
  0
POINT
  8
DEFPOINTS
  6
CONTINUOUS
 62
     7
 10
70.000015
 20
-46.89743
  0
ENDBLK
  8
0
  0
BLOCK
  8
0
  2
*D15
 70
    65
 10
0
 20
0
  0
LINE
  8
0
  6
CONTINUOUS
 62
     7
 10
60
 20
-76.897438
 11
60
 21
-93.582672
  0
LINE
  8
0
  6
CONTINUOUS
 62
     7
 10
60
 20
-76.897438
 11
60
 21
-75.697433
  0
INSERT
  8
0
  6
CONTINUOUS
 62
     7
  2
_DOT
 10
60
 20
-76.897438
 50
270
  0
INSERT
  8
0
  6
CONTINUOUS
 62
     7
  2
_DOT
 10
60
 20
-75.697433
 50
90
  0
LINE
  8
0
  6
CONTINUOUS
 62
     7
 10
47.540015
 20
-76.897438
 11
61.200001
 21
-76.897438
  0
LINE
  8
0
  6
CONTINUOUS
 62
     7
 10
47.540015
 20
-75.697433
 11
61.200001
 21
-75.697433
  0
TEXT
  8
0
  6
CONTINUOUS
 62
     7
 10
59.2
 20
-93.902673
 40
3.2
 41
1.2857386
  1
t=1.2
 50
90.000003
  0
POINT
  8
DEFPOINTS
  6
CONTINUOUS
 62
     7
 10
45.000015
 20
-76.897438
  0
POINT
  8
DEFPOINTS
  6
CONTINUOUS
 62
     7
 10
45.000015
 20
-75.697433
  0
POINT
  8
DEFPOINTS
  6
CONTINUOUS
 62
     7
 10
60
 20
-75.697433
  0
ENDBLK
  8
0
  0
BLOCK
  8
0
  2
*D16
 70
    65
 10
0
 20
0
  0
LINE
  8
0
  6
CONTINUOUS
 62
     7
 10
60
 20
-48.497437
 11
60
 21
-65.077194
  0
LINE
  8
0
  6
CONTINUOUS
 62
     7
 10
60
 20
-46.89743
 11
60
 21
-48.497437
  0
INSERT
  8
0
  6
CONTINUOUS
 62
     7
  2
_DOT
 10
60
 20
-46.89743
 50
90
  0
INSERT
  8
0
  6
CONTINUOUS
 62
     7
  2
_DOT
 10
60
 20
-48.497437
 50
270
  0
LINE
  8
0
  6
CONTINUOUS
 62
     7
 10
13.540015
 20
-46.89743
 11
61.200001
 21
-46.89743
  0
LINE
  8
0
  6
CONTINUOUS
 62
     7
 10
13.540015
 20
-48.497437
 11
61.200001
 21
-48.497437
  0
TEXT
  8
0
  6
CONTINUOUS
 62
     7
 10
59.2
 20
-65.397191
 40
3.2
 41
1.2857386
  1
t=1.6
 50
90.000003
  0
POINT
  8
DEFPOINTS
  6
CONTINUOUS
 62
     7
 10
11.000015
 20
-46.89743
  0
POINT
  8
DEFPOINTS
  6
CONTINUOUS
 62
     7
 10
11.000015
 20
-48.497437
  0
POINT
  8
DEFPOINTS
  6
CONTINUOUS
 62
     7
 10
60
 20
-48.497437
  0
ENDBLK
  8
0
  0
BLOCK
  8
0
  2
*D17
 70
    65
 10
0
 20
0
  0
LINE
  8
0
  6
CONTINUOUS
 62
     7
 10
145
 20
-58.89743
 11
145
 21
-76.897438
  0
INSERT
  8
0
  6
CONTINUOUS
 62
     7
  2
_DOT
 10
145
 20
-58.89743
 50
90
  0
INSERT
  8
0
  6
CONTINUOUS
 62
     7
  2
_DOT
 10
145
 20
-76.897438
 50
270
  0
LINE
  8
0
  6
CONTINUOUS
 62
     7
 10
130.52079
 20
-58.89743
 11
146.2
 21
-58.89743
  0
LINE
  8
0
  6
CONTINUOUS
 62
     7
 10
132.27079
 20
-76.897438
 11
146.2
 21
-76.897438
  0
TEXT
  8
0
  6
CONTINUOUS
 62
     7
 10
144.2
 20
-70.64043
 40
3.2
 41
1.2857812
  1
18
 50
90.000003
  0
POINT
  8
DEFPOINTS
  6
CONTINUOUS
 62
     7
 10
127.98079
 20
-58.89743
  0
POINT
  8
DEFPOINTS
  6
CONTINUOUS
 62
     7
 10
129.73079
 20
-76.897438
  0
POINT
  8
DEFPOINTS
  6
CONTINUOUS
 62
     7
 10
145
 20
-76.897438
  0
ENDBLK
  8
0
  0
BLOCK
  8
0
  2
*D18
 70
    65
 10
0
 20
0
  0
LINE
  8
0
  6
CONTINUOUS
 62
     7
 10
145
 20
-44.89743
 11
145
 21
-38.856998
  0
LINE
  8
0
  6
CONTINUOUS
 62
     7
 10
145
 20
-44.89743
 11
145
 21
-46.89743
  0
INSERT
  8
0
  6
CONTINUOUS
 62
     7
  2
_DOT
 10
145
 20
-44.89743
 50
90
  0
INSERT
  8
0
  6
CONTINUOUS
 62
     7
  2
_DOT
 10
145
 20
-46.89743
 50
270
  0
LINE
  8
0
  6
CONTINUOUS
 62
     7
 10
128.77079
 20
-44.89743
 11
146.2
 21
-44.89743
  0
LINE
  8
0
  6
CONTINUOUS
 62
     7
 10
137.77077
 20
-46.89743
 11
146.2
 21
-46.89743
  0
TEXT
  8
0
  6
CONTINUOUS
 62
     7
 10
144.2
 20
-41.143
 40
3.2
 41
1
  1
2
 50
90.000003
  0
POINT
  8
DEFPOINTS
  6
CONTINUOUS
 62
     7
 10
126.23079
 20
-44.89743
  0
POINT
  8
DEFPOINTS
  6
CONTINUOUS
 62
     7
 10
135.23077
 20
-46.89743
  0
POINT
  8
DEFPOINTS
  6
CONTINUOUS
 62
     7
 10
145
 20
-46.89743
  0
ENDBLK
  8
0
  0
BLOCK
  8
0
  2
*D19
 70
    65
 10
0
 20
0
  0
LINE
  8
0
  6
CONTINUOUS
 62
     7
 10
95
 20
-45.39743
 11
95
 21
-35.977001
  0
LINE
  8
0
  6
CONTINUOUS
 62
     7
 10
95
 20
-45.39743
 11
95
 21
-46.89743
  0
INSERT
  8
0
  6
CONTINUOUS
 62
     7
  2
_DOT
 10
95
 20
-45.39743
 50
90
  0
INSERT
  8
0
  6
CONTINUOUS
 62
     7
  2
_DOT
 10
95
 20
-46.89743
 50
270
  0
LINE
  8
0
  6
CONTINUOUS
 62
     7
 10
111.69079
 20
-45.39743
 11
93.800003
 21
-45.39743
  0
LINE
  8
0
  6
CONTINUOUS
 62
     7
 10
103.69079
 20
-46.89743
 11
93.800003
 21
-46.89743
  0
TEXT
  8
0
  6
CONTINUOUS
 62
     7
 10
94.2
 20
-44.343
 40
3.2
 41
1.628625
  1
1.5
 50
90.000003
  0
POINT
  8
DEFPOINTS
  6
CONTINUOUS
 62
     7
 10
114.23079
 20
-45.39743
  0
POINT
  8
DEFPOINTS
  6
CONTINUOUS
 62
     7
 10
106.23079
 20
-46.89743
  0
POINT
  8
DEFPOINTS
  6
CONTINUOUS
 62
     7
 10
95
 20
-46.89743
  0
ENDBLK
  8
0
  0
BLOCK
  8
0
  2
*D20
 70
    65
 10
0
 20
0
  0
LINE
  8
0
  6
CONTINUOUS
 62
     7
 10
-44.25
 20
-36.89743
 11
0.25001526
 21
-36.89743
  0
INSERT
  8
0
  6
CONTINUOUS
 62
     7
  2
_DOT
 10
-44.25
 20
-36.89743
 50
180
  0
INSERT
  8
0
  6
CONTINUOUS
 62
     7
  2
_DOT
 10
0.25001526
 20
-36.89743
  0
LINE
  8
0
  6
CONTINUOUS
 62
     7
 10
-44.25
 20
-44.35743
 11
-44.25
 21
-36.69743
  0
LINE
  8
0
  6
CONTINUOUS
 62
     7
 10
0.25001526
 20
-44.35743
 11
0.25001526
 21
-36.69743
  0
TEXT
  8
0
  6
CONTINUOUS
 62
     7
 10
-31.142992
 20
-36.09743
 40
3.2
 41
1.2857344
  1
(44.5)
  0
POINT
  8
DEFPOINTS
  6
CONTINUOUS
 62
     7
 10
-44.25
 20
-46.89743
  0
POINT
  8
DEFPOINTS
  6
CONTINUOUS
 62
     7
 10
0.25001526
 20
-46.89743
  0
POINT
  8
DEFPOINTS
  6
CONTINUOUS
 62
     7
 10
0.25001526
 20
-36.89743
  0
ENDBLK
  8
0
  0
ENDSEC
  0
SECTION
  2
ENTITIES
  0
POINT
  8
0
  6
CONTINUOUS
 62
     7
 10
-79.78167
 20
26.391607
  0
POINT
  8
0
  6
CONTINUOUS
 62
     7
 10
-82.218323
 20
22.608389
  0
LINE
  8
0
  6
CONTINUOUS
 62
     7
 10
170
 20
173
 11
170
 21
-100
  0
LINE
  8
0
  6
CONTINUOUS
 62
     7
 10
-211
 20
-100
 11
170
 21
-100
  0
LINE
  8
0
  6
CONTINUOUS
 62
     7
 10
-211
 20
173
 11
170
 21
173
  0
LINE
  8
0
  6
CONTINUOUS
 62
     7
 10
-211
 20
173
 11
-211
 21
-100
  0
LINE
  8
0
  6
CONTINUOUS
 62
     7
 10
-191
 20
173
 11
-191
 21
77
  0
LINE
  8
0
  6
CONTINUOUS
 62
     7
 10
-211
 20
165
 11
-101
 21
165
  0
LINE
  8
0
  6
CONTINUOUS
 62
     7
 10
-211
 20
157
 11
-101
 21
157
  0
LINE
  8
0
  6
CONTINUOUS
 62
     7
 10
-211
 20
149
 11
-101
 21
149
  0
LINE
  8
0
  6
CONTINUOUS
 62
     7
 10
-211
 20
141
 11
-101
 21
141
  0
LINE
  8
0
  6
CONTINUOUS
 62
     7
 10
-191
 20
117
 11
-101
 21
117
  0
LINE
  8
0
  6
CONTINUOUS
 62
     7
 10
-191
 20
109
 11
-101
 21
109
  0
LINE
  8
0
  6
CONTINUOUS
 62
     7
 10
-211
 20
101
 11
-101
 21
101
  0
LINE
  8
0
  6
CONTINUOUS
 62
     7
 10
-191
 20
93
 11
-101
 21
93
  0
LINE
  8
0
  6
CONTINUOUS
 62
     7
 10
-191
 20
85
 11
-101
 21
85
  0
LINE
  8
0
  6
CONTINUOUS
 62
     7
 10
-211
 20
77
 11
-101
 21
77
  0
LINE
  8
0
  6
CONTINUOUS
 62
     7
 10
-211
 20
173
 11
-211
 21
77
  0
LINE
  8
0
  6
CONTINUOUS
 62
     7
 10
-211
 20
173
 11
-101
 21
173
  0
LINE
  8
0
  6
CONTINUOUS
 62
     7
 10
-101
 20
173
 11
-101
 21
77
  0
LINE
  8
0
  6
CONTINUOUS
 62
     7
 10
-211
 20
133
 11
-101
 21
133
  0
LINE
  8
0
  6
CONTINUOUS
 62
     7
 10
-211
 20
125
 11
-101
 21
125
  0
LINE
  8
0
  6
CONTINUOUS
 62
     7
 10
-191
 20
117
 11
-101
 21
117
  0
LINE
  8
0
  6
CONTINUOUS
 62
     7
 10
11.000015
 20
15.5
 11
45.000015
 21
15.5
  0
LINE
  8
0
  6
CONTINUOUS
 62
     7
 10
-42.649994
 20
31
 11
-42.649994
 21
19
  0
LINE
  8
0
  6
CONTINUOUS
 62
     7
 10
-89
 20
33.5
 11
-89
 21
15.5
  0
LINE
  8
0
  6
CONTINUOUS
 62
     7
 10
-89
 20
33.5
 11
-55
 21
33.5
  0
LINE
  8
0
  6
CONTINUOUS
 62
     7
 10
-89
 20
15.5
 11
-51.608185
 21
15.5
  0
LINE
  8
0
  6
CONTINUOUS
 62
     7
 10
45.000015
 20
33.5
 11
45.000015
 21
15.5
  0
LINE
  8
0
  6
CONTINUOUS
 62
     7
 10
-1.3499908
 20
18
 11
-1.3499908
 21
30
  0
LINE
  8
0
  6
CENTER
 62
     7
 10
-94
 20
24.5
 11
50.000015
 21
24.5
  0
LINE
  8
0
  6
CENTER
 62
     7
 10
-22
 20
44
 11
-22
 21
5
  0
LINE
  8
0
  6
CONTINUOUS
 62
     7
 10
9.3000183
 20
24.5
 11
9.3000183
 21
18
  0
LINE
  8
0
  6
CONTINUOUS
 62
     7
 10
-53.747711
 20
19
 11
-42.649994
 21
19
  0
LINE
  8
0
  6
CONTINUOUS
 62
     7
 10
11.000015
 20
18
 11
11.000015
 21
10
  0
LINE
  8
0
  6
CONTINUOUS
 62
     7
 10
-40
 20
10
 11
11.000015
 21
10
  0
LINE
  8
0
  6
CONTINUOUS
 62
     7
 10
-55
 20
39
 11
-55
 21
31
  0
LINE
  8
0
  6
CONTINUOUS
 62
     7
 10
-55
 20
39
 11
-3.9999847
 21
39
  0
LINE
  8
0
  6
CONTINUOUS
 62
     7
 10
-53.299988
 20
24.5
 11
-53.299988
 21
31
  0
LINE
  8
0
  6
CONTINUOUS
 62
     7
 10
7.6082001
 20
33.5
 11
45.000015
 21
33.5
  0
LINE
  8
0
  6
CENTER
 62
     7
 10
37.000015
 20
31.75
 11
37.000015
 21
17.25
  0
LINE
  8
0
  6
CENTER
 62
     7
 10
-81
 20
31.75
 11
-81
 21
17.25
  0
LINE
  8
0
  6
CONTINUOUS
 62
     7
 10
-55
 20
31
 11
-42.649994
 21
31
  0
LINE
  8
0
  6
CONTINUOUS
 62
     7
 10
9.7477417
 20
30
 11
-1.3499908
 21
30
  0
LINE
  8
0
  6
CONTINUOUS
 62
     7
 10
11.000015
 20
18
 11
-1.3499908
 21
18
  0
LINE
  8
0
  6
CONTINUOUS
 62
     7
 10
-89
 20
-75.697433
 11
-89
 21
-76.897438
  0
LINE
  8
0
  6
CONTINUOUS
 62
     7
 10
-89
 20
-76.897438
 11
-62.364166
 21
-76.897438
  0
LINE
  8
0
  6
CONTINUOUS
 62
     7
 10
45.000015
 20
-75.697433
 11
45.000015
 21
-76.897438
  0
LINE
  8
0
  6
CONTINUOUS
 62
     7
 10
11.000015
 20
-46.89743
 11
11.000015
 21
-48.497437
  0
LINE
  8
0
  6
CONTINUOUS
 62
     7
 10
-55
 20
-48.497437
 11
11.000015
 21
-48.497437
  0
LINE
  8
0
  6
CONTINUOUS
 62
     7
 10
-55
 20
-46.89743
 11
11.000015
 21
-46.89743
  0
LINE
  8
0
  6
CONTINUOUS
 62
     7
 10
-89
 20
-75.697433
 11
-62.364166
 21
-75.697433
  0
LINE
  8
0
  6
CONTINUOUS
 62
     7
 10
-55
 20
-46.89743
 11
-55
 21
-48.497437
  0
LINE
  8
0
  6
CONTINUOUS
 62
     7
 10
6.4130492
 20
-68.79744
 11
-3.5173709
 21
-51.597446
  0
LINE
  8
0
  6
CONTINUOUS
 62
     7
 10
-35.113251
 20
-49.697433
 11
-8.8867493
 21
-49.697433
  0
LINE
  8
0
  6
CONTINUOUS
 62
     7
 10
18.364197
 20
-76.897438
 11
45.000015
 21
-76.897438
  0
LINE
  8
0
  6
CENTER
 62
     7
 10
-81
 20
-70.697433
 11
-81
 21
-81.897438
  0
LINE
  8
0
  6
CONTINUOUS
 62
     7
 10
18.364197
 20
-75.697433
 11
45.000015
 21
-75.697433
  0
LINE
  8
0
  6
CONTINUOUS
 62
     7
 10
-49.373775
 20
-69.397438
 11
-39.443352
 21
-52.197441
  0
LINE
  8
0
  6
CENTER
 62
     7
 10
37.000015
 20
-70.697433
 11
37.000015
 21
-81.897438
  0
LINE
  8
0
  6
CONTINUOUS
 62
     7
 10
5.3738079
 20
-69.397446
 11
-4.556612
 21
-52.197453
  0
LINE
  8
0
  6
CONTINUOUS
 62
     7
 10
-50.413017
 20
-68.797432
 11
-40.482594
 21
-51.597435
  0
LINE
  8
0
  6
CONTINUOUS
 62
     7
 10
111.73079
 20
-76.897438
 11
129.73079
 21
-76.897438
  0
LINE
  8
0
  6
CONTINUOUS
 62
     7
 10
111.73079
 20
-75.697433
 11
129.73079
 21
-75.697433
  0
LINE
  8
0
  6
CONTINUOUS
 62
     7
 10
111.73079
 20
-48.497437
 11
111.73079
 21
-76.897438
  0
LINE
  8
0
  6
CONTINUOUS
 62
     7
 10
129.73079
 20
-48.497437
 11
129.73079
 21
-76.897438
  0
LINE
  8
0
  6
CONTINUOUS
 62
     7
 10
106.23079
 20
-46.89743
 11
106.23079
 21
-48.497437
  0
LINE
  8
0
  6
CENTER
 62
     7
 10
120.73079
 20
-51.64743
 11
120.73079
 21
-66.14743
  0
LINE
  8
0
  6
DASHED
 62
     7
 10
111.73079
 20
-49.697433
 11
129.73079
 21
-49.697433
  0
LINE
  8
0
  6
CONTINUOUS
 62
     7
 10
135.23077
 20
-46.89743
 11
135.23077
 21
-48.497437
  0
LINE
  8
0
  6
CONTINUOUS
 62
     7
 10
106.23079
 20
-46.89743
 11
135.23077
 21
-46.89743
  0
LINE
  8
0
  6
CONTINUOUS
 62
     7
 10
106.23079
 20
-48.497437
 11
135.23077
 21
-48.497437
  0
LINE
  8
0
  6
CONTINUOUS
 62
     7
 10
126.23079
 20
-43.296051
 11
126.23079
 21
-46.89743
  0
LINE
  8
0
  6
CONTINUOUS
 62
     7
 10
127.23079
 20
-43.796051
 11
127.23079
 21
-46.89743
  0
LINE
  8
0
  6
CONTINUOUS
 62
     7
 10
114.23079
 20
-43.796051
 11
114.23079
 21
-46.89743
  0
LINE
  8
0
  6
CENTER
 62
     7
 10
113.48079
 20
-58.89743
 11
127.98079
 21
-58.89743
  0
LINE
  8
0
  6
CONTINUOUS
 62
     7
 10
126.16418
 20
-43.298824
 11
114.16418
 21
-43.798824
  0
LINE
  8
0
  6
CONTINUOUS
 62
     7
 10
126.23079
 20
-44.89743
 11
114.23079
 21
-45.39743
  0
LINE
  8
0
  6
CENTER
 62
     7
 10
120.73079
 20
-70.697433
 11
120.73079
 21
-81.897438
  0
LINE
  8
0
  6
CONTINUOUS
 62
     7
 10
126.23079
 20
-43.754375
 11
127.29739
 21
-43.798817
  0
LINE
  8
0
  6
CONTINUOUS
 62
     7
 10
115.29739
 20
-43.298817
 11
120.73078
 21
-43.525208
  0
LINE
  8
0
  6
DASHED
 62
     7
 10
126.23078
 20
-45.35577
 11
127.23079
 21
-45.397438
  0
LINE
  8
0
  6
CONTINUOUS
 62
     7
 10
115.23079
 20
-43.296051
 11
115.23079
 21
-43.754379
  0
LINE
  8
0
  6
CONTINUOUS
 62
     7
 10
-53.299988
 20
-43.796051
 11
-53.299988
 21
-45.396042
  0
LINE
  8
0
  6
CONTINUOUS
 62
     7
 10
-1.3499908
 20
-46.396042
 11
-1.3499908
 21
-46.89743
  0
LINE
  8
0
  6
CONTINUOUS
 62
     7
 10
0.25001526
 20
-46.396042
 11
0.25001526
 21
-46.89743
  0
LINE
  8
0
  6
CONTINUOUS
 62
     7
 10
9.3000183
 20
-43.796051
 11
9.3000183
 21
-45.396042
  0
LINE
  8
0
  6
CONTINUOUS
 62
     7
 10
-52.047729
 20
-44.896042
 11
-45.849976
 21
-44.896042
  0
LINE
  8
0
  6
CONTINUOUS
 62
     7
 10
1.2500153
 20
-45.396042
 11
9.3000183
 21
-45.396042
  0
LINE
  8
0
  6
CONTINUOUS
 62
     7
 10
1.2500153
 20
-43.796051
 11
9.3000183
 21
-43.796051
  0
LINE
  8
0
  6
CONTINUOUS
 62
     7
 10
-52.047729
 20
-43.296051
 11
-45.25
 21
-43.296051
  0
LINE
  8
0
  6
CONTINUOUS
 62
     7
 10
-53.299995
 20
-45.396034
 11
-52.047718
 21
-44.896034
  0
LINE
  8
0
  6
CONTINUOUS
 62
     7
 10
-42.649994
 20
-45.896042
 11
-42.649994
 21
-46.89743
  0
LINE
  8
0
  6
CONTINUOUS
 62
     7
 10
-53.299984
 20
-45.396042
 11
-45.957901
 21
-44.899685
  0
LINE
  8
0
  6
CONTINUOUS
 62
     7
 10
-53.299995
 20
-43.79604
 11
-52.047722
 21
-43.296036
  0
LINE
  8
0
  6
CONTINUOUS
 62
     7
 10
9.3000078
 20
-43.796051
 11
8.0477324
 21
-43.296051
  0
LINE
  8
0
  6
CONTINUOUS
 62
     7
 10
-44.25
 20
-46.496048
 11
-44.25
 21
-46.89743
  0
LINE
  8
0
  6
CONTINUOUS
 62
     7
 10
8.0477371
 20
-43.296051
 11
1.0618707
 21
-43.802868
  0
LINE
  8
0
  6
CENTER
 62
     7
 10
-4.6720858
 20
-61.997444
 11
5.0274091
 21
-56.397438
  0
LINE
  8
0
  6
CONTINUOUS
 62
     7
 10
-52.047729
 20
-43.296051
 11
-52.047729
 21
-44.896042
  0
LINE
  8
0
  6
CONTINUOUS
 62
     7
 10
-79.78167
 20
26.391607
 11
-82.218323
 21
22.608389
  0
ARC
  8
0
  6
CONTINUOUS
 62
     7
 10
-5.6999817
 20
24
 40
15
 50
1.9102132
 51
23.578178
  0
ARC
  8
0
  6
CONTINUOUS
 62
     7
 10
-3.9999847
 20
24
 40
15
 50
23.578178
 51
90.000003
  0
ARC
  8
0
  6
CONTINUOUS
 62
     7
 10
-40
 20
25
 40
15
 50
203.57818
 51
270
  0
ARC
  8
0
  6
CONTINUOUS
 62
     7
 10
-38.299988
 20
25
 40
15
 50
181.91021
 51
203.57818
  0
CIRCLE
  8
0
  6
CONTINUOUS
 62
     7
 10
37.000015
 20
24.5
 40
2.25
  0
CIRCLE
  8
0
  6
CONTINUOUS
 62
     7
 10
-81
 20
24.5
 40
2.25
  0
ARC
  8
0
  6
CONTINUOUS
 62
     7
 10
-35.113251
 20
-54.697433
 40
5
 50
90
 51
150
  0
ARC
  8
0
  6
CONTINUOUS
 62
     7
 10
-62.364166
 20
-61.89743
 40
13.8
 50
270
 51
329.99999
  0
ARC
  8
0
  6
CONTINUOUS
 62
     7
 10
18.364197
 20
-61.89743
 40
13.8
 50
210.00001
 51
270
  0
ARC
  8
0
  6
CONTINUOUS
 62
     7
 10
-62.364166
 20
-61.89743
 40
15
 50
270
 51
330
  0
ARC
  8
0
  6
CONTINUOUS
 62
     7
 10
18.364197
 20
-61.89743
 40
15
 50
210
 51
270
  0
ARC
  8
0
  6
CONTINUOUS
 62
     7
 10
-8.8867493
 20
-54.697433
 40
6.1999998
 50
29.999989
 51
90
  0
ARC
  8
0
  6
CONTINUOUS
 62
     7
 10
-8.8867493
 20
-54.697433
 40
5
 50
30.000001
 51
90
  0
ARC
  8
0
  6
CONTINUOUS
 62
     7
 10
-35.113251
 20
-54.697433
 40
6.1999998
 50
90
 51
150.00001
  0
CIRCLE
  8
0
  6
CONTINUOUS
 62
     7
 10
120.73079
 20
-58.89743
 40
2.25
  0
ARC
  8
0
  6
CONTINUOUS
 62
     7
 10
-45.25
 20
-45.896042
 40
2.5999999
 50
0
 51
90
  0
ARC
  8
0
  6
CONTINUOUS
 62
     7
 10
1.2500153
 20
-46.396042
 40
2.5999999
 50
90.000003
 51
180
  0
ARC
  8
0
  6
CONTINUOUS
 62
     7
 10
-45.849976
 20
-46.496048
 40
1.6
 50
0
 51
90
  0
ARC
  8
0
  6
CONTINUOUS
 62
     7
 10
1.2500153
 20
-46.396042
 40
1
 50
90
 51
180
  0
CIRCLE
  8
0
  6
CONTINUOUS
 62
     7
 10
-79.78167
 20
26.391607
 40
0.25
  0
TEXT
  8
0
  6
CONTINUOUS
 62
     7
 10
-188.143
 20
95.4
 40
3.2
 41
0.84409467
  1
６８ｍｍ・ｔ＝１．５用
  0
TEXT
  8
0
  6
CONTINUOUS
 62
     7
 10
-205.343
 20
167.4
 40
3.2
 41
0.85537027
  1
品　名
  0
TEXT
  8
0
  6
CONTINUOUS
 62
     7
 10
-205.343
 20
159.4
 40
3.2
 41
0.85537027
  1
品　番
  0
TEXT
  8
0
  6
CONTINUOUS
 62
     7
 10
-188.143
 20
87.4
 40
3.2
 41
0.90047268
  1
＊
  0
TEXT
  8
0
  6
CONTINUOUS
 62
     7
 10
-188.143
 20
79.4
 40
3.2
 41
0.90047268
  1
＊
  0
TEXT
  8
0
  6
CONTINUOUS
 62
     7
 10
-205.343
 20
151.4
 40
3.2
 41
0.85537027
  1
材　質
  0
TEXT
  8
0
  6
CONTINUOUS
 62
     7
 10
-205.343
 20
143.4
 40
3.2
 41
0.85537027
  1
仕上げ
  0
TEXT
  8
0
  6
CONTINUOUS
 62
     7
 10
-188.143
 20
103.4
 40
3.2
 41
0.90047268
  1
＊
  0
TEXT
  8
0
  6
CONTINUOUS
 62
     7
 10
-188.143
 20
111.4
 40
3.2
 41
0.90047268
  1
＊
  0
TEXT
  8
0
  6
CONTINUOUS
 62
     7
 10
-208.543
 20
119.4
 40
3.2
 41
0.84892707
  1
セットビス
  0
TEXT
  8
0
  6
CONTINUOUS
 62
     7
 10
-188.143
 20
119.4
 40
3.2
 41
0.90047268
  1
＊
  0
TEXT
  8
0
  6
CONTINUOUS
 62
     7
 10
-203.743
 20
95.4
 40
3.2
 41
0.86439075
  1
備考
  0
TEXT
  8
0
  6
CONTINUOUS
 62
     7
 10
-205.343
 20
135.4
 40
3.2
 41
0.85537027
  1
定　尺
  0
TEXT
  8
0
  6
CONTINUOUS
 62
     7
 10
-206.943
 20
127.4
 40
3.2
 41
0.85127005
  1
左右勝手
  0
TEXT
  8
0
  6
CONTINUOUS
 62
     7
 10
-188.37855
 20
134.96998
 40
3.2
 41
0.90047268
  1
＊
  0
TEXT
  8
0
  6
CONTINUOUS
 62
     7
 10
-188.143
 20
167.4
 40
3.2
 41
0.84377251
  1
フラットレール用アンカー
  0
TEXT
  8
0
  6
CONTINUOUS
 62
     7
 10
-188.143
 20
159.4
 40
3.2
 41
0.84892707
  1
ＳＢ－２８
  0
TEXT
  8
0
  6
CONTINUOUS
 62
     7
 10
-188.143
 20
151.4
 40
3.2
 41
0.85127005
  1
スチール
  0
TEXT
  8
0
  6
CONTINUOUS
 62
     7
 10
-188.143
 20
143.4
 40
3.2
 41
0.84634979
  1
有色クロメート
  0
TEXT
  8
0
  6
CONTINUOUS
 62
     7
 10
-188.37855
 20
127.36617
 40
3.2
 41
0.90047268
  1
＊
  0
DIMENSION
  8
0
  6
CONTINUOUS
 62
     7
  2
*D1
 70
     0
 10
60.000015
 20
10
 11
60.000015
 21
3.7661285
  3
DIMSTYLE
 13
45.000015
 23
15.5
 14
11.000015
 24
10
 50
90
1001
ACAD
1000
DSTYLE
1002
{
1070
    77
1070
     1
1070
   172
1070
     1
1070
    75
1070
     1
1002
}
  0
DIMENSION
  8
0
  6
CONTINUOUS
 62
     7
  2
*D2
 70
     0
 10
60.000015
 20
33.5
 11
60.000015
 21
45.110962
  3
DIMSTYLE
 13
-3.9999847
 23
39
 14
45.000015
 24
33.5
 50
90
1001
ACAD
1000
DSTYLE
1002
{
1070
    77
1070
     1
1070
   172
1070
     1
1070
    76
1070
     1
1002
}
  0
DIMENSION
  8
0
  6
CONTINUOUS
 62
     7
  2
*D3
 70
     0
 10
60.000015
 20
15.5
 11
60.000015
 21
24.5
  3
DIMSTYLE
 13
45.000015
 23
33.5
 14
45.000015
 24
15.5
 50
90
1001
ACAD
1000
DSTYLE
1002
{
1070
    77
1070
     1
1070
   172
1070
     1
1002
}
  0
DIMENSION
  8
0
  6
CONTINUOUS
 62
     7
  2
*D4
 70
     0
 10
45.000015
 20
-5
 11
28.000015
 21
-5
  3
DIMSTYLE
 13
11.000015
 23
10
 14
45.000015
 24
15.5
 50
0
1001
ACAD
1000
DSTYLE
1002
{
1070
     6
1000
_NONE
1070
    77
1070
     1
1070
   172
1070
     1
1070
    75
1070
     1
1002
}
  0
DIMENSION
  8
0
  6
CONTINUOUS
 62
     7
  2
*D5
 70
     0
 10
11.000015
 20
-5
 11
-22
 21
-5
  3
DIMSTYLE
 13
-55
 23
31
 14
11.000015
 24
10
 50
0
1001
ACAD
1000
DSTYLE
1002
{
1070
     6
1000
_NONE
1070
    77
1070
     1
1070
   172
1070
     1
1070
    75
1070
     1
1002
}
  0
DIMENSION
  8
0
  6
CONTINUOUS
 62
     7
  2
*D6
 70
     0
 10
-55
 20
-5
 11
-72
 21
-5
  3
DIMSTYLE
 13
-89
 23
15.5
 14
-55
 24
31
 50
0
1001
ACAD
1000
DSTYLE
1002
{
1070
    77
1070
     1
1070
   172
1070
     1
1002
}
  0
DIMENSION
  8
0
  6
CONTINUOUS
 62
     7
  2
*D7
 70
     0
 10
70.000015
 20
10
 11
70.000015
 21
24.5
  3
DIMSTYLE
 13
-3.9999847
 23
39
 14
11.000015
 24
10
 50
90
1001
ACAD
1000
DSTYLE
1002
{
1070
    77
1070
     1
1070
   172
1070
     1
1002
}
  0
DIMENSION
  8
0
  6
CONTINUOUS
 62
     7
  2
*D8
 70
     0
 10
-81
 20
49
 11
-85
 21
49
  3
DIMSTYLE
 13
-89
 23
33.5
 14
-81
 24
31.75
 50
0
1001
ACAD
1000
DSTYLE
1002
{
1070
    77
1070
     1
1070
   172
1070
     1
1002
}
  0
DIMENSION
  8
0
  6
CONTINUOUS
 62
     7
  2
*D9
 70
     0
 10
37.000015
 20
49
 11
-21.999992
 21
49
  3
DIMSTYLE
 13
-81
 23
31.75
 14
37.000015
 24
31.75
 50
0
1001
ACAD
1000
DSTYLE
1002
{
1070
    77
1070
     1
1070
   172
1070
     1
1070
    75
1070
     1
1002
}
  0
DIMENSION
  8
0
  6
CONTINUOUS
 62
     7
  2
*D10
 70
     0
 10
45.000015
 20
49
 11
41.000015
 21
49
  3
DIMSTYLE
 13
37.000015
 23
31.75
 14
45.000015
 24
33.5
 50
0
1001
ACAD
1000
DSTYLE
1002
{
1070
    77
1070
     1
1070
   172
1070
     1
1070
    75
1070
     1
1002
}
  0
DIMENSION
  8
0
  6
CONTINUOUS
 62
     7
  2
*D11
 70
     4
 11
-46.279415
 21
3.6136425
 10
-40
 20
25
  3
DIMSTYLE
 15
-44.225874
 25
10.607572
1001
ACAD
1000
DSTYLE
1002
{
1070
    77
1070
     1
1070
   172
1070
     1
1002
}
  0
INSERT
  8
0
  6
CONTINUOUS
 62
     7
  2
*D12
 10
0
 20
0
  0
DIMENSION
  8
0
  6
CONTINUOUS
 62
     7
  2
*D13
 70
     0
 10
45.000015
 20
-15
 11
-21.999992
 21
-15
  3
DIMSTYLE
 13
-89
 23
15.5
 14
45.000015
 24
15.5
 50
0
1001
ACAD
1000
DSTYLE
1002
{
1070
    77
1070
     1
1070
   172
1070
     1
1002
}
  0
DIMENSION
  8
0
  6
CONTINUOUS
 62
     7
  2
*D14
 70
     0
 10
70.000015
 20
-46.89743
 11
70.000015
 21
-61.897434
  3
DIMSTYLE
 13
45.000015
 23
-76.897438
 14
11.000015
 24
-46.89743
 50
90
1001
ACAD
1000
DSTYLE
1002
{
1070
    77
1070
     1
1070
   172
1070
     1
1002
}
  0
DIMENSION
  8
0
  6
CONTINUOUS
 62
     7
  2
*D15
 70
     0
 10
60
 20
-75.697433
 11
60
 21
-86.359673
  3
DIMSTYLE
 13
45.000015
 23
-76.897438
 14
45.000015
 24
-75.697433
 50
90
1001
ACAD
1000
DSTYLE
1002
{
1070
    77
1070
     1
1070
   172
1070
     1
1002
}
  0
DIMENSION
  8
0
  6
CONTINUOUS
 62
     7
  2
*D16
 70
     0
 10
60
 20
-48.497437
 11
60
 21
-57.854191
  3
DIMSTYLE
 13
11.000015
 23
-46.89743
 14
11.000015
 24
-48.497437
 50
90
1001
ACAD
1000
DSTYLE
1002
{
1070
    77
1070
     1
1070
   172
1070
     1
1002
}
  0
DIMENSION
  8
0
  6
CONTINUOUS
 62
     7
  2
*D17
 70
     0
 10
145
 20
-76.897438
 11
145
 21
-67.89743
  3
DIMSTYLE
 13
127.98079
 23
-58.89743
 14
129.73079
 24
-76.897438
 50
90
1001
ACAD
1000
DSTYLE
1002
{
1070
    77
1070
     1
1070
   172
1070
     1
1002
}
  0
DIMENSION
  8
0
  6
CONTINUOUS
 62
     7
  2
*D18
 70
     0
 10
145
 20
-46.89743
 11
145
 21
-40
  3
DIMSTYLE
 13
126.23079
 23
-44.89743
 14
135.23077
 24
-46.89743
 50
90
1001
ACAD
1000
DSTYLE
1002
{
1070
    77
1070
     1
1070
   172
1070
     1
1002
}
  0
DIMENSION
  8
0
  6
CONTINUOUS
 62
     7
  2
*D19
 70
     0
 10
95
 20
-46.89743
 11
95
 21
-40
  3
DIMSTYLE
 13
114.23079
 23
-45.39743
 14
106.23079
 24
-46.89743
 50
90
1001
ACAD
1000
DSTYLE
1002
{
1070
    77
1070
     1
1070
   172
1070
     1
1002
}
  0
DIMENSION
  8
0
  6
CONTINUOUS
 62
     7
  2
*D20
 70
     0
 10
0.25001526
 20
-36.89743
 11
-21.999992
 21
-36.89743
  3
DIMSTYLE
 13
-44.25
 23
-46.89743
 14
0.25001526
 24
-46.89743
 50
0
1001
ACAD
1000
DSTYLE
1002
{
1070
    77
1070
     1
1070
   172
1070
     1
1002
}
  0
ENDSEC
  0
EOF
