  0
SECTION
  2
HEADER
  9
$EXTMAX
 10
170
 20
173
 30
0
  9
$EXTMIN
 10
-211
 20
-100
 30
0
  9
$LIMMAX
 10
170
 20
173
  9
$LIMMIN
 10
-211
 20
-100
  9
$PLIMMAX
 10
170
 20
173
  9
$PLIMMIN
 10
-211
 20
-100
  9
$TEXTSIZE
 40
3.2
  9
$DIMSHO
 70
     0
  9
$DIMASZ
 40
1.0
  9
$DIMTAD
 70
     1
  9
$DIMTIH
 70
     0
  9
$DIMTOH
 70
     0
  9
$DIMEXE
 40
2.54
  9
$DIMEXO
 40
2.54
  9
$DIMTVP
 40
1.0
  9
$DIMSAH
 70
     1
  9
$DIMDLE
 40
0.0
  9
$DIMTXT
 40
3.2
  9
$DIMGAP
 40
1.6
  0
ENDSEC
  0
SECTION
  2
TABLES
  0
TABLE
  2
LTYPE
 70
     6
  0
LTYPE
  2
CONTINUOUS
 70
    64
  3
Solid line
 72
    65
 73
     0
 40
0.0
  0
LTYPE
  2
DASHED
 70
    64
  3
__ __ __ __ __ __ __ __ __ __ __ __ __ __ __
 72
    65
 73
     2
 40
3.5
 49
2.0
 49
-1.5
  0
LTYPE
  2
CENTER
 70
    64
  3
____ _ ____ _ ____ _ ____ _ ____ _ ____ _ ____
 72
    65
 73
     4
 40
17.5
 49
13.0
 49
-1.5
 49
1.5
 49
-1.5
  0
LTYPE
  2
PHANTOM
 70
    64
  3
_____ _ _ _____ _ _ _____ _ _ _____ _ _ ____  
 72
    65
 73
     6
 40
15.5
 49
8.0
 49
-1.5
 49
1.5
 49
-1.5
 49
1.5
 49
-1.5
  0
LTYPE
  2
DOT
 70
    64
  3
. . . . . . . . . . . . . . . . . . . . . . . .
 72
    65
 73
     2
 40
0.25
 49
0.0
 49
-0.25
  0
LTYPE
  2
HIDDEN
 70
    64
  3
__ __ __ __ __ __ __ __ __ __ __ __ __ __ __
 72
    65
 73
     2
 40
3.5
 49
2.0
 49
-1.5
  0
ENDTAB
  0
TABLE
  2
LAYER
 70
     4
  0
LAYER
  2
0
 70
     0
 62
     7
  6
CONTINUOUS
  0
LAYER
  2
1
 70
     0
 62
     7
  6
CONTINUOUS
  0
LAYER
  2
2
 70
     0
 62
     7
  6
CONTINUOUS
  0
LAYER
  2
DEFPOINTS
 70
     0
 62
     7
  6
CONTINUOUS
  0
ENDTAB
  0
TABLE
  2
STYLE
 70
     1
  0
STYLE
  2
STANDARD
 70
     0
 40
0.0
 41
1.0
 50
0.0
 71
     0
 42
0.2
  3
txt
  4
BIGFONT
  0
ENDTAB
  0
TABLE
  2
DIMSTYLE
 70
     1
  0
DIMSTYLE
  2
DIMSTYLE
 70
     0
  3

  4

  5
_DOT
  6
_DOT
  7
_DOT
 40
1
 41
1
 42
2.54
 43
0.38
 44
2.54
 45
0
 46
0
 47
0
 48
0
140
3.2
141
0.09
142
0
143
25.4
144
1
145
0
146
1
147
1.6
 71
     0
 72
     0
 73
     0
 74
     0
 75
     0
 76
     0
 78
     0
170
     0
171
     2
 77
     0
172
     0
173
     1
174
     0
175
     0
176
     0
177
     0
178
     0
  0
ENDTAB
  0
ENDSEC
  0
SECTION
  2
BLOCKS
  0
BLOCK
  8
0
  2
_DOT
 70
    64
 10
0
 20
0
  3
_DOT
  0
POLYLINE
  8
0
  6
BYBLOCK
 62
     0
 66
     1
 10
0
 20
0
 70
     1
 40
0.40000001
 41
0.40000001
  0
VERTEX
  8
0
  6
BYBLOCK
 62
     0
 10
-0.2
 20
0
 42
1
  0
VERTEX
  8
0
  6
BYBLOCK
 62
     0
 10
0.2
 20
0
 42
1
  0
SEQEND
  8
0
  6
BYBLOCK
 62
     0
  0
LINE
  8
0
  6
BYBLOCK
 62
     0
 10
-0.40000001
 20
0
 11
-3
 21
0
  0
ENDBLK
  8
0
  0
BLOCK
  8
0
  2
_NONE
 70
    64
 10
0
 20
0
  3
_NONE
  0
CIRCLE
  8
0
  6
BYBLOCK
 62
     0
 10
0
 20
0
 40
0.001
  0
ENDBLK
  8
0
  0
BLOCK
  8
0
  2
*D1
 70
    65
 10
0
 20
0
  0
LINE
  8
0
  6
CONTINUOUS
 62
     7
 10
-101.1863
 20
28.815737
 11
-101.1863
 21
20.815737
  0
INSERT
  8
0
  6
CONTINUOUS
 62
     7
  2
_DOT
 10
-101.1863
 20
28.815737
 50
90
  0
INSERT
  8
0
  6
CONTINUOUS
 62
     7
  2
_DOT
 10
-101.1863
 20
20.815737
 50
270
  0
LINE
  8
0
  6
CONTINUOUS
 62
     7
 10
-59.726298
 20
28.815737
 11
-102.3863
 21
28.815737
  0
LINE
  8
0
  6
CONTINUOUS
 62
     7
 10
-74.726302
 20
20.815737
 11
-102.3863
 21
20.815737
  0
TEXT
  8
0
  6
CONTINUOUS
 62
     7
 10
-101.9863
 20
23.672879
 40
3.2
 41
1
  1
8
 50
90.000003
  0
POINT
  8
DEFPOINTS
  6
CONTINUOUS
 62
     7
 10
-57.186298
 20
28.815737
  0
POINT
  8
DEFPOINTS
  6
CONTINUOUS
 62
     7
 10
-72.186302
 20
20.815737
  0
POINT
  8
DEFPOINTS
  6
CONTINUOUS
 62
     7
 10
-101.1863
 20
20.815737
  0
ENDBLK
  8
0
  0
BLOCK
  8
0
  2
*D2
 70
    65
 10
0
 20
0
  0
LINE
  8
0
  6
CONTINUOUS
 62
     7
 10
57.813717
 20
35.315735
 11
57.813717
 21
44.315735
  0
INSERT
  8
0
  6
CONTINUOUS
 62
     7
  2
_DOT
 10
57.813717
 20
35.315735
 50
270
  0
INSERT
  8
0
  6
CONTINUOUS
 62
     7
  2
_DOT
 10
57.813717
 20
44.315735
 50
90
  0
LINE
  8
0
  6
CONTINUOUS
 62
     7
 10
50.353717
 20
35.315735
 11
59.013714
 21
35.315735
  0
LINE
  8
0
  6
CONTINUOUS
 62
     7
 10
45.353717
 20
44.315735
 11
59.013714
 21
44.315735
  0
TEXT
  8
0
  6
CONTINUOUS
 62
     7
 10
57.013717
 20
38.672877
 40
3.2
 41
1
  1
9
 50
90.000003
  0
POINT
  8
DEFPOINTS
  6
CONTINUOUS
 62
     7
 10
47.813717
 20
35.315735
  0
POINT
  8
DEFPOINTS
  6
CONTINUOUS
 62
     7
 10
42.813717
 20
44.315735
  0
POINT
  8
DEFPOINTS
  6
CONTINUOUS
 62
     7
 10
57.813717
 20
44.315735
  0
ENDBLK
  8
0
  0
BLOCK
  8
0
  2
*D3
 70
    65
 10
0
 20
0
  0
LINE
  8
0
  6
CONTINUOUS
 62
     7
 10
57.813717
 20
26.315737
 11
57.813717
 21
35.315735
  0
INSERT
  8
0
  6
CONTINUOUS
 62
     7
  2
_DOT
 10
57.813717
 20
26.315737
 50
270
  0
INSERT
  8
0
  6
CONTINUOUS
 62
     7
  2
_DOT
 10
57.813717
 20
35.315735
 50
90
  0
LINE
  8
0
  6
CONTINUOUS
 62
     7
 10
45.353717
 20
26.315737
 11
59.013714
 21
26.315737
  0
TEXT
  8
0
  6
CONTINUOUS
 62
     7
 10
57.013717
 20
29.672879
 40
3.2
 41
1
  1
9
 50
90.000003
  0
POINT
  8
DEFPOINTS
  6
CONTINUOUS
 62
     7
 10
42.813717
 20
26.315737
  0
POINT
  8
DEFPOINTS
  6
CONTINUOUS
 62
     7
 10
47.813717
 20
35.315735
  0
POINT
  8
DEFPOINTS
  6
CONTINUOUS
 62
     7
 10
57.813717
 20
35.315735
  0
ENDBLK
  8
0
  0
BLOCK
  8
0
  2
*D4
 70
    65
 10
0
 20
0
  0
LINE
  8
0
  6
CONTINUOUS
 62
     7
 10
67.813713
 20
26.315737
 11
67.813713
 21
44.315735
  0
INSERT
  8
0
  6
CONTINUOUS
 62
     7
  2
_DOT
 10
67.813713
 20
26.315737
 50
270
  0
INSERT
  8
0
  6
CONTINUOUS
 62
     7
  2
_DOT
 10
67.813713
 20
44.315735
 50
90
  0
LINE
  8
0
  6
CONTINUOUS
 62
     7
 10
45.353717
 20
26.315737
 11
69.013718
 21
26.315737
  0
LINE
  8
0
  6
CONTINUOUS
 62
     7
 10
45.353717
 20
44.315735
 11
69.013718
 21
44.315735
  0
TEXT
  8
0
  6
CONTINUOUS
 62
     7
 10
67.013713
 20
32.572877
 40
3.2
 41
1.2857145
  1
18
 50
90.000003
  0
POINT
  8
DEFPOINTS
  6
CONTINUOUS
 62
     7
 10
42.813717
 20
26.315737
  0
POINT
  8
DEFPOINTS
  6
CONTINUOUS
 62
     7
 10
42.813717
 20
44.315735
  0
POINT
  8
DEFPOINTS
  6
CONTINUOUS
 62
     7
 10
67.813713
 20
44.315735
  0
ENDBLK
  8
0
  0
BLOCK
  8
0
  2
*D5
 70
    65
 10
0
 20
0
  0
LINE
  8
0
  6
CONTINUOUS
 62
     7
 10
-101.1863
 20
40.815735
 11
-101.1863
 21
28.815737
  0
INSERT
  8
0
  6
CONTINUOUS
 62
     7
  2
_DOT
 10
-101.1863
 20
40.815735
 50
90
  0
INSERT
  8
0
  6
CONTINUOUS
 62
     7
  2
_DOT
 10
-101.1863
 20
28.815737
 50
270
  0
LINE
  8
0
  6
CONTINUOUS
 62
     7
 10
-59.726298
 20
40.815735
 11
-102.3863
 21
40.815735
  0
TEXT
  8
0
  6
CONTINUOUS
 62
     7
 10
-101.9863
 20
32.072877
 40
3.2
 41
1.2857145
  1
12
 50
90.000003
  0
POINT
  8
DEFPOINTS
  6
CONTINUOUS
 62
     7
 10
-57.186298
 20
40.815735
  0
POINT
  8
DEFPOINTS
  6
CONTINUOUS
 62
     7
 10
-72.186302
 20
28.815737
  0
POINT
  8
DEFPOINTS
  6
CONTINUOUS
 62
     7
 10
-101.1863
 20
28.815737
  0
ENDBLK
  8
0
  0
BLOCK
  8
0
  2
*D6
 70
    65
 10
0
 20
0
  0
LINE
  8
0
  6
CONTINUOUS
 62
     7
 10
-101.1863
 20
49.815735
 11
-101.1863
 21
40.815735
  0
INSERT
  8
0
  6
CONTINUOUS
 62
     7
  2
_DOT
 10
-101.1863
 20
49.815735
 50
90
  0
INSERT
  8
0
  6
CONTINUOUS
 62
     7
  2
_DOT
 10
-101.1863
 20
40.815735
 50
270
  0
LINE
  8
0
  6
CONTINUOUS
 62
     7
 10
-73.02629
 20
49.815735
 11
-102.3863
 21
49.815735
  0
TEXT
  8
0
  6
CONTINUOUS
 62
     7
 10
-101.9863
 20
44.172877
 40
3.2
 41
1
  1
9
 50
90.000003
  0
POINT
  8
DEFPOINTS
  6
CONTINUOUS
 62
     7
 10
-70.48629
 20
49.815735
  0
POINT
  8
DEFPOINTS
  6
CONTINUOUS
 62
     7
 10
-70.934013
 20
40.815735
  0
POINT
  8
DEFPOINTS
  6
CONTINUOUS
 62
     7
 10
-101.1863
 20
40.815735
  0
ENDBLK
  8
0
  0
BLOCK
  8
0
  2
*D7
 70
    65
 10
0
 20
0
  0
LINE
  8
0
  6
CONTINUOUS
 62
     7
 10
-111.1863
 20
49.815735
 11
-111.1863
 21
20.815737
  0
INSERT
  8
0
  6
CONTINUOUS
 62
     7
  2
_DOT
 10
-111.1863
 20
49.815735
 50
90
  0
INSERT
  8
0
  6
CONTINUOUS
 62
     7
  2
_DOT
 10
-111.1863
 20
20.815737
 50
270
  0
LINE
  8
0
  6
CONTINUOUS
 62
     7
 10
-59.726298
 20
49.815735
 11
-112.3863
 21
49.815735
  0
LINE
  8
0
  6
CONTINUOUS
 62
     7
 10
-59.726298
 20
20.815737
 11
-112.3863
 21
20.815737
  0
TEXT
  8
0
  6
CONTINUOUS
 62
     7
 10
-111.9863
 20
32.572877
 40
3.2
 41
1.0285716
  1
29
 50
90.000003
  0
POINT
  8
DEFPOINTS
  6
CONTINUOUS
 62
     7
 10
-57.186298
 20
49.815735
  0
POINT
  8
DEFPOINTS
  6
CONTINUOUS
 62
     7
 10
-57.186298
 20
20.815737
  0
POINT
  8
DEFPOINTS
  6
CONTINUOUS
 62
     7
 10
-111.1863
 20
20.815737
  0
ENDBLK
  8
0
  0
BLOCK
  8
0
  2
*D8
 70
    65
 10
0
 20
0
  0
LINE
  8
0
  6
CONTINUOUS
 62
     7
 10
-57.186298
 20
5.8157368
 11
8.813715
 21
5.8157368
  0
INSERT
  8
0
  6
CONTINUOUS
 62
     7
  2
_DOT
 10
-57.186298
 20
5.8157368
 50
180
  0
INSERT
  8
0
  6
CONTINUOUS
 62
     7
  2
_DOT
 10
8.813715
 20
5.8157368
  0
LINE
  8
0
  6
CONTINUOUS
 62
     7
 10
-57.186298
 20
18.275737
 11
-57.186298
 21
4.6157365
  0
LINE
  8
0
  6
CONTINUOUS
 62
     7
 10
8.813715
 20
39.275735
 11
8.813715
 21
4.6157365
  0
TEXT
  8
0
  6
CONTINUOUS
 62
     7
 10
-26.92915
 20
6.6157368
 40
3.2
 41
0.8643459
  1
６６
  0
POINT
  8
DEFPOINTS
  6
CONTINUOUS
 62
     7
 10
-57.186298
 20
20.815737
  0
POINT
  8
DEFPOINTS
  6
CONTINUOUS
 62
     7
 10
8.813715
 20
41.815735
  0
POINT
  8
DEFPOINTS
  6
CONTINUOUS
 62
     7
 10
8.813715
 20
5.8157368
  0
ENDBLK
  8
0
  0
BLOCK
  8
0
  2
*D9
 70
    65
 10
0
 20
0
  0
LINE
  8
0
  6
CONTINUOUS
 62
     7
 10
-100.61211
 20
-66.081703
 11
-100.61211
 21
-81.054489
  0
LINE
  8
0
  6
CONTINUOUS
 62
     7
 10
-100.61211
 20
-66.081703
 11
-100.61211
 21
-64.881699
  0
INSERT
  8
0
  6
CONTINUOUS
 62
     7
  2
_DOT
 10
-100.61211
 20
-66.081703
 50
270
  0
INSERT
  8
0
  6
CONTINUOUS
 62
     7
  2
_DOT
 10
-100.61211
 20
-64.881699
 50
90
  0
LINE
  8
0
  6
CONTINUOUS
 62
     7
 10
-93.726302
 20
-66.081703
 11
-101.8121
 21
-66.081703
  0
LINE
  8
0
  6
CONTINUOUS
 62
     7
 10
-93.726302
 20
-64.881699
 11
-101.8121
 21
-64.881699
  0
TEXT
  8
0
  6
CONTINUOUS
 62
     7
 10
-101.41211
 20
-81.374485
 40
3.2
 41
1.2857144
  1
t=1.2
 50
90.000003
  0
POINT
  8
DEFPOINTS
  6
CONTINUOUS
 62
     7
 10
-91.186302
 20
-66.081703
  0
POINT
  8
DEFPOINTS
  6
CONTINUOUS
 62
     7
 10
-91.186302
 20
-64.881699
  0
POINT
  8
DEFPOINTS
  6
CONTINUOUS
 62
     7
 10
-100.61211
 20
-64.881699
  0
ENDBLK
  8
0
  0
BLOCK
  8
0
  2
*D10
 70
    65
 10
0
 20
0
  0
LINE
  8
0
  6
CONTINUOUS
 62
     7
 10
-100.61211
 20
-37.681702
 11
-100.61211
 21
-51.654114
  0
LINE
  8
0
  6
CONTINUOUS
 62
     7
 10
-100.61211
 20
-37.681702
 11
-100.61211
 21
-36.081696
  0
INSERT
  8
0
  6
CONTINUOUS
 62
     7
  2
_DOT
 10
-100.61211
 20
-37.681702
 50
270
  0
INSERT
  8
0
  6
CONTINUOUS
 62
     7
  2
_DOT
 10
-100.61211
 20
-36.081696
 50
90
  0
LINE
  8
0
  6
CONTINUOUS
 62
     7
 10
-59.726298
 20
-37.681702
 11
-101.8121
 21
-37.681702
  0
LINE
  8
0
  6
CONTINUOUS
 62
     7
 10
-74.726302
 20
-36.081696
 11
-101.8121
 21
-36.081696
  0
TEXT
  8
0
  6
CONTINUOUS
 62
     7
 10
-101.41211
 20
-51.974117
 40
3.2
 41
1.2857144
  1
t=1.6
 50
90.000003
  0
POINT
  8
DEFPOINTS
  6
CONTINUOUS
 62
     7
 10
-57.186298
 20
-37.681702
  0
POINT
  8
DEFPOINTS
  6
CONTINUOUS
 62
     7
 10
-72.186302
 20
-36.081696
  0
POINT
  8
DEFPOINTS
  6
CONTINUOUS
 62
     7
 10
-100.61211
 20
-36.081696
  0
ENDBLK
  8
0
  0
BLOCK
  8
0
  2
*D11
 70
    65
 10
0
 20
0
  0
LINE
  8
0
  6
CONTINUOUS
 62
     7
 10
-111.1863
 20
-66.081703
 11
-111.1863
 21
-36.081696
  0
INSERT
  8
0
  6
CONTINUOUS
 62
     7
  2
_DOT
 10
-111.1863
 20
-66.081703
 50
270
  0
INSERT
  8
0
  6
CONTINUOUS
 62
     7
  2
_DOT
 10
-111.1863
 20
-36.081696
 50
90
  0
LINE
  8
0
  6
CONTINUOUS
 62
     7
 10
-93.726302
 20
-66.081703
 11
-112.3863
 21
-66.081703
  0
LINE
  8
0
  6
CONTINUOUS
 62
     7
 10
-59.726298
 20
-36.081696
 11
-112.3863
 21
-36.081696
  0
TEXT
  8
0
  6
CONTINUOUS
 62
     7
 10
-111.9863
 20
-53.824557
 40
3.2
 41
1.102041
  1
30
 50
90.000003
  0
POINT
  8
DEFPOINTS
  6
CONTINUOUS
 62
     7
 10
-91.186302
 20
-66.081703
  0
POINT
  8
DEFPOINTS
  6
CONTINUOUS
 62
     7
 10
-57.186298
 20
-36.081696
  0
POINT
  8
DEFPOINTS
  6
CONTINUOUS
 62
     7
 10
-111.1863
 20
-36.081696
  0
ENDBLK
  8
0
  0
BLOCK
  8
0
  2
*D12
 70
    65
 10
0
 20
0
  0
LINE
  8
0
  6
CONTINUOUS
 62
     7
 10
144.6631
 20
-34.081696
 11
144.6631
 21
-27.691462
  0
LINE
  8
0
  6
CONTINUOUS
 62
     7
 10
144.6631
 20
-36.081696
 11
144.6631
 21
-34.081696
  0
INSERT
  8
0
  6
CONTINUOUS
 62
     7
  2
_DOT
 10
144.6631
 20
-36.081696
 50
270
  0
INSERT
  8
0
  6
CONTINUOUS
 62
     7
  2
_DOT
 10
144.6631
 20
-34.081696
 50
90
  0
LINE
  8
0
  6
CONTINUOUS
 62
     7
 10
135.58448
 20
-36.081696
 11
145.8631
 21
-36.081696
  0
LINE
  8
0
  6
CONTINUOUS
 62
     7
 10
127.58449
 20
-34.081696
 11
145.8631
 21
-34.081696
  0
TEXT
  8
0
  6
CONTINUOUS
 62
     7
 10
143.8631
 20
-29.977178
 40
3.2
 41
1
  1
2
 50
90.000003
  0
POINT
  8
DEFPOINTS
  6
CONTINUOUS
 62
     7
 10
133.04448
 20
-36.081696
  0
POINT
  8
DEFPOINTS
  6
CONTINUOUS
 62
     7
 10
125.04449
 20
-34.081696
  0
POINT
  8
DEFPOINTS
  6
CONTINUOUS
 62
     7
 10
144.6631
 20
-34.081696
  0
ENDBLK
  8
0
  0
BLOCK
  8
0
  2
*D13
 70
    65
 10
0
 20
0
  0
LINE
  8
0
  6
CONTINUOUS
 62
     7
 10
97.139397
 20
-33.581696
 11
97.139397
 21
-21.90925
  0
LINE
  8
0
  6
CONTINUOUS
 62
     7
 10
97.139397
 20
-36.081696
 11
97.139397
 21
-33.581696
  0
INSERT
  8
0
  6
CONTINUOUS
 62
     7
  2
_DOT
 10
97.139397
 20
-36.081696
 50
270
  0
INSERT
  8
0
  6
CONTINUOUS
 62
     7
  2
_DOT
 10
97.139397
 20
-33.581696
 50
90
  0
LINE
  8
0
  6
CONTINUOUS
 62
     7
 10
101.50449
 20
-36.081696
 11
95.9394
 21
-36.081696
  0
LINE
  8
0
  6
CONTINUOUS
 62
     7
 10
110.50449
 20
-33.581696
 11
95.9394
 21
-33.581696
  0
TEXT
  8
0
  6
CONTINUOUS
 62
     7
 10
96.339397
 20
-30.274966
 40
3.2
 41
1.357143
  1
2.5
 50
90.000003
  0
POINT
  8
DEFPOINTS
  6
CONTINUOUS
 62
     7
 10
104.04449
 20
-36.081696
  0
POINT
  8
DEFPOINTS
  6
CONTINUOUS
 62
     7
 10
113.04449
 20
-33.581696
  0
POINT
  8
DEFPOINTS
  6
CONTINUOUS
 62
     7
 10
97.139397
 20
-33.581696
  0
ENDBLK
  8
0
  0
BLOCK
  8
0
  2
*D14
 70
    65
 10
0
 20
0
  0
LINE
  8
0
  6
CONTINUOUS
 62
     7
 10
144.65616
 20
-48.081696
 11
144.65616
 21
-66.081703
  0
INSERT
  8
0
  6
CONTINUOUS
 62
     7
  2
_DOT
 10
144.65616
 20
-48.081696
 50
90
  0
INSERT
  8
0
  6
CONTINUOUS
 62
     7
  2
_DOT
 10
144.65616
 20
-66.081703
 50
270
  0
LINE
  8
0
  6
CONTINUOUS
 62
     7
 10
128.33449
 20
-48.081696
 11
145.85616
 21
-48.081696
  0
LINE
  8
0
  6
CONTINUOUS
 62
     7
 10
130.08449
 20
-66.081703
 11
145.85616
 21
-66.081703
  0
TEXT
  8
0
  6
CONTINUOUS
 62
     7
 10
143.85616
 20
-59.3857
 40
3.2
 41
1.08
  1
18
 50
90.000003
  0
POINT
  8
DEFPOINTS
  6
CONTINUOUS
 62
     7
 10
125.79449
 20
-48.081696
  0
POINT
  8
DEFPOINTS
  6
CONTINUOUS
 62
     7
 10
127.54449
 20
-66.081703
  0
POINT
  8
DEFPOINTS
  6
CONTINUOUS
 62
     7
 10
144.65616
 20
-66.081703
  0
ENDBLK
  8
0
  0
BLOCK
  8
0
  2
*D15
 70
    65
 10
0
 20
0
  0
LINE
  8
0
  6
CONTINUOUS
 62
     7
 10
-91.186302
 20
59.815735
 11
-83.186302
 21
59.815735
  0
INSERT
  8
0
  6
CONTINUOUS
 62
     7
  2
_DOT
 10
-91.186302
 20
59.815735
 50
180
  0
INSERT
  8
0
  6
CONTINUOUS
 62
     7
  2
_DOT
 10
-83.186302
 20
59.815735
  0
LINE
  8
0
  6
CONTINUOUS
 62
     7
 10
-91.186302
 20
46.855735
 11
-91.186302
 21
61.015736
  0
LINE
  8
0
  6
CONTINUOUS
 62
     7
 10
-83.186302
 20
45.105735
 11
-83.186302
 21
61.015736
  0
TEXT
  8
0
  6
CONTINUOUS
 62
     7
 10
-88.210302
 20
60.615735
 40
3.2
 41
1
  1
8
  0
POINT
  8
DEFPOINTS
  6
CONTINUOUS
 62
     7
 10
-91.186302
 20
44.315735
  0
POINT
  8
DEFPOINTS
  6
CONTINUOUS
 62
     7
 10
-83.186302
 20
42.565735
  0
POINT
  8
DEFPOINTS
  6
CONTINUOUS
 62
     7
 10
-83.186302
 20
59.815735
  0
ENDBLK
  8
0
  0
BLOCK
  8
0
  2
*D16
 70
    65
 10
0
 20
0
  0
LINE
  8
0
  6
CONTINUOUS
 62
     7
 10
-83.186302
 20
59.815735
 11
34.813717
 21
59.815735
  0
INSERT
  8
0
  6
CONTINUOUS
 62
     7
  2
_DOT
 10
34.813717
 20
59.815735
  0
LINE
  8
0
  6
CONTINUOUS
 62
     7
 10
34.813717
 20
45.105735
 11
34.813717
 21
61.015736
  0
TEXT
  8
0
  6
CONTINUOUS
 62
     7
 10
-27.770293
 20
60.615735
 40
3.2
 41
1.1200001
  1
118
  0
POINT
  8
DEFPOINTS
  6
CONTINUOUS
 62
     7
 10
-83.186302
 20
42.565735
  0
POINT
  8
DEFPOINTS
  6
CONTINUOUS
 62
     7
 10
34.813717
 20
42.565735
  0
POINT
  8
DEFPOINTS
  6
CONTINUOUS
 62
     7
 10
34.813717
 20
59.815735
  0
ENDBLK
  8
0
  0
BLOCK
  8
0
  2
*D17
 70
    65
 10
0
 20
0
  0
LINE
  8
0
  6
CONTINUOUS
 62
     7
 10
34.813717
 20
59.815735
 11
42.813717
 21
59.815735
  0
INSERT
  8
0
  6
CONTINUOUS
 62
     7
  2
_DOT
 10
42.813717
 20
59.815735
  0
LINE
  8
0
  6
CONTINUOUS
 62
     7
 10
42.813717
 20
46.855735
 11
42.813717
 21
61.015736
  0
TEXT
  8
0
  6
CONTINUOUS
 62
     7
 10
37.789717
 20
60.615735
 40
3.2
 41
1
  1
8
  0
POINT
  8
DEFPOINTS
  6
CONTINUOUS
 62
     7
 10
34.813717
 20
42.565735
  0
POINT
  8
DEFPOINTS
  6
CONTINUOUS
 62
     7
 10
42.813717
 20
44.315735
  0
POINT
  8
DEFPOINTS
  6
CONTINUOUS
 62
     7
 10
42.813717
 20
59.815735
  0
ENDBLK
  8
0
  0
BLOCK
  8
0
  2
*D18
 70
    65
 10
0
 20
0
  0
LINE
  8
0
  6
CONTINUOUS
 62
     7
 10
-91.186302
 20
5.8157368
 11
-57.186329
 21
5.8157368
  0
INSERT
  8
0
  6
CONTINUOUS
 62
     7
  2
_DOT
 10
-91.186302
 20
5.8157368
 50
180
  0
INSERT
  8
0
  6
CONTINUOUS
 62
     7
  2
_DOT
 10
-57.186329
 20
5.8157368
  0
LINE
  8
0
  6
CONTINUOUS
 62
     7
 10
-91.186302
 20
23.775737
 11
-91.186302
 21
4.6157365
  0
LINE
  8
0
  6
CONTINUOUS
 62
     7
 10
-57.186329
 20
18.275737
 11
-57.186329
 21
4.6157365
  0
TEXT
  8
0
  6
CONTINUOUS
 62
     7
 10
-76.490318
 20
6.6157368
 40
3.2
 41
0.86400004
  1
34
  0
POINT
  8
DEFPOINTS
  6
CONTINUOUS
 62
     7
 10
-91.186302
 20
26.315737
  0
POINT
  8
DEFPOINTS
  6
CONTINUOUS
 62
     7
 10
-57.186329
 20
20.815737
  0
POINT
  8
DEFPOINTS
  6
CONTINUOUS
 62
     7
 10
-57.186329
 20
5.8157368
  0
ENDBLK
  8
0
  0
BLOCK
  8
0
  2
*D19
 70
    65
 10
0
 20
0
  0
LINE
  8
0
  6
CONTINUOUS
 62
     7
 10
42.813717
 20
5.8157368
 11
8.8136997
 21
5.8157368
  0
INSERT
  8
0
  6
CONTINUOUS
 62
     7
  2
_DOT
 10
42.813717
 20
5.8157368
  0
INSERT
  8
0
  6
CONTINUOUS
 62
     7
  2
_DOT
 10
8.8136997
 20
5.8157368
 50
180
  0
LINE
  8
0
  6
CONTINUOUS
 62
     7
 10
42.813717
 20
23.775737
 11
42.813717
 21
4.6157365
  0
LINE
  8
0
  6
CONTINUOUS
 62
     7
 10
8.8136997
 20
41.775735
 11
8.8136997
 21
4.6157365
  0
TEXT
  8
0
  6
CONTINUOUS
 62
     7
 10
23.509707
 20
6.6157368
 40
3.2
 41
0.86400004
  1
34
  0
POINT
  8
DEFPOINTS
  6
CONTINUOUS
 62
     7
 10
42.813717
 20
26.315737
  0
POINT
  8
DEFPOINTS
  6
CONTINUOUS
 62
     7
 10
8.8136997
 20
44.315735
  0
POINT
  8
DEFPOINTS
  6
CONTINUOUS
 62
     7
 10
8.8136997
 20
5.8157368
  0
ENDBLK
  8
0
  0
BLOCK
  8
0
  2
*D20
 70
    65
 10
0
 20
0
  0
LINE
  8
0
  6
CONTINUOUS
 62
     7
 10
-91.186302
 20
-4.1842632
 11
42.813717
 21
-4.1842632
  0
INSERT
  8
0
  6
CONTINUOUS
 62
     7
  2
_DOT
 10
-91.186302
 20
-4.1842632
 50
180
  0
INSERT
  8
0
  6
CONTINUOUS
 62
     7
  2
_DOT
 10
42.813717
 20
-4.1842632
  0
LINE
  8
0
  6
CONTINUOUS
 62
     7
 10
-91.186302
 20
23.775737
 11
-91.186302
 21
-5.3842635
  0
LINE
  8
0
  6
CONTINUOUS
 62
     7
 10
42.813717
 20
23.775737
 11
42.813717
 21
-5.3842635
  0
TEXT
  8
0
  6
CONTINUOUS
 62
     7
 10
-27.770293
 20
-3.3842632
 40
3.2
 41
0.96000005
  1
134
  0
POINT
  8
DEFPOINTS
  6
CONTINUOUS
 62
     7
 10
-91.186302
 20
26.315737
  0
POINT
  8
DEFPOINTS
  6
CONTINUOUS
 62
     7
 10
42.813717
 20
26.315737
  0
POINT
  8
DEFPOINTS
  6
CONTINUOUS
 62
     7
 10
42.813717
 20
-4.1842632
  0
ENDBLK
  8
0
  0
BLOCK
  8
0
  2
*D21
 70
    65
 10
0
 20
0
  0
LINE
  8
0
  6
CONTINUOUS
 62
     7
 10
-46.436298
 20
-22.480314
 11
-1.9363
 21
-22.480314
  0
INSERT
  8
0
  6
CONTINUOUS
 62
     7
  2
_DOT
 10
-46.436298
 20
-22.480314
 50
180
  0
INSERT
  8
0
  6
CONTINUOUS
 62
     7
  2
_DOT
 10
-1.9363
 20
-22.480314
  0
LINE
  8
0
  6
CONTINUOUS
 62
     7
 10
-46.436298
 20
-32.540307
 11
-46.436298
 21
-21.280313
  0
LINE
  8
0
  6
CONTINUOUS
 62
     7
 10
-1.9363
 20
-32.640313
 11
-1.9363
 21
-21.280313
  0
TEXT
  8
0
  6
CONTINUOUS
 62
     7
 10
-29.9863
 20
-21.855314
 40
2.5
 41
1.044
  1
(44.5)
  0
POINT
  8
DEFPOINTS
  6
CONTINUOUS
 62
     7
 10
-46.436298
 20
-35.080307
  0
POINT
  8
DEFPOINTS
  6
CONTINUOUS
 62
     7
 10
-1.9363
 20
-35.180313
  0
POINT
  8
DEFPOINTS
  6
CONTINUOUS
 62
     7
 10
-1.9363
 20
-22.480314
  0
ENDBLK
  8
0
  0
BLOCK
  8
0
  2
KOZU0001
 70
    64
 10
0
 20
0
  0
LINE
  8
0
  6
CONTINUOUS
 62
     7
 10
0
 20
0
 11
7.5874505
 21
-10.802624
  0
LINE
  8
0
  6
CONTINUOUS
 62
     7
 10
7.5874505
 20
-10.802624
 11
19.233952
 21
-10.802624
  0
LINE
  8
0
  6
CONTINUOUS
 62
     7
 10
0
 20
0
 11
2.5426108
 21
-1.8801941
  0
LINE
  8
0
  6
CONTINUOUS
 62
     7
 10
0
 20
0
 11
0.90597216
 21
-3.0297218
  0
TEXT
  8
0
  6
CONTINUOUS
 62
     7
 10
9.6339526
 20
-10.002618
 40
3.2
 41
0.85534224
  1
Ｒ１５
  0
ENDBLK
  8
0
  0
BLOCK
  8
0
  2
KOZU0002
 70
    64
 10
0
 20
0
  0
LINE
  8
0
  6
CONTINUOUS
 62
     7
 10
0
 20
0
 11
10.092426
 21
-24.106535
  0
LINE
  8
0
  6
CONTINUOUS
 62
     7
 10
10.092426
 20
-24.106535
 11
30.413918
 21
-24.106535
  0
CIRCLE
  8
0
  6
CONTINUOUS
 62
     7
 10
0
 20
0
 40
0.40000001
  0
TEXT
  8
0
  6
CONTINUOUS
 62
     7
 10
11.213918
 20
-23.306535
 40
3.2
 41
1.1010185
  1
3-%%C4.5
  0
ENDBLK
  8
0
  0
ENDSEC
  0
SECTION
  2
ENTITIES
  0
POINT
  8
0
  6
CONTINUOUS
 62
     7
 10
-24.1863
 20
38.815735
  0
POINT
  8
0
  6
CONTINUOUS
 62
     7
 10
-24.1863
 20
35.315735
  0
POINT
  8
0
  6
CONTINUOUS
 62
     7
 10
-83.186302
 20
35.315735
  0
POINT
  8
0
  6
CONTINUOUS
 62
     7
 10
34.813717
 20
35.315735
  0
POINT
  8
0
  6
CONTINUOUS
 62
     7
 10
-24.1863
 20
31.815737
  0
POINT
  8
0
  6
CONTINUOUS
 62
     7
 10
-24.1863
 20
38.815735
  0
POINT
  8
0
  6
CONTINUOUS
 62
     7
 10
-40.186298
 20
-38.881699
  0
POINT
  8
0
  6
CONTINUOUS
 62
     7
 10
-40.186298
 20
-38.881699
  0
POINT
  8
0
  6
CONTINUOUS
 62
     7
 10
-8.1863003
 20
-38.881699
  0
POINT
  8
0
  6
CONTINUOUS
 62
     7
 10
-40.186298
 20
-38.881699
  0
POINT
  8
0
  6
CONTINUOUS
 62
     7
 10
-8.1863003
 20
-38.881699
  0
POINT
  8
0
  6
CONTINUOUS
 62
     7
 10
118.54449
 20
-48.081696
  0
POINT
  8
0
  6
CONTINUOUS
 62
     7
 10
20.861444
 20
40.815735
  0
POINT
  8
0
  6
CONTINUOUS
 62
     7
 10
-1.4890344
 20
-48.081696
  0
POINT
  8
0
  6
CONTINUOUS
 62
     7
 10
125.04449
 20
-34.081696
  0
POINT
  8
0
  6
CONTINUOUS
 62
     7
 10
113.04449
 20
-33.581696
  0
POINT
  8
0
  6
CONTINUOUS
 62
     7
 10
35.687973
 20
33.239868
  0
POINT
  8
0
  6
CONTINUOUS
 62
     7
 10
-24.1863
 20
49.815735
  0
POINT
  8
0
  6
CONTINUOUS
 62
     7
 10
-24.1863
 20
59.815735
  0
POINT
  8
0
  6
CONTINUOUS
 62
     7
 10
-24.1863
 20
20.815737
  0
POINT
  8
0
  6
CONTINUOUS
 62
     7
 10
-24.1863
 20
5.8157368
  0
POINT
  8
0
  6
CONTINUOUS
 62
     7
 10
42.813717
 20
44.315735
  0
POINT
  8
0
  6
CONTINUOUS
 62
     7
 10
57.813717
 20
44.315735
  0
POINT
  8
0
  6
CONTINUOUS
 62
     7
 10
67.813713
 20
44.315735
  0
POINT
  8
0
  6
CONTINUOUS
 62
     7
 10
-91.186302
 20
44.315735
  0
POINT
  8
0
  6
CONTINUOUS
 62
     7
 10
-101.1863
 20
44.315735
  0
POINT
  8
0
  6
CONTINUOUS
 62
     7
 10
-111.1863
 20
44.315735
  0
POINT
  8
0
  6
CONTINUOUS
 62
     7
 10
-24.1863
 20
-4.1842632
  0
POINT
  8
0
  6
CONTINUOUS
 62
     7
 10
-47.429436
 20
-32.480316
  0
POINT
  8
0
  6
CONTINUOUS
 62
     7
 10
-47.429436
 20
-22.480314
  0
POINT
  8
0
  6
CONTINUOUS
 62
     7
 10
-91.186302
 20
-64.881699
  0
POINT
  8
0
  6
CONTINUOUS
 62
     7
 10
-101.1863
 20
-64.881699
  0
POINT
  8
0
  6
CONTINUOUS
 62
     7
 10
-111.1863
 20
-64.881699
  0
LINE
  8
0
  6
CONTINUOUS
 62
     7
 10
170
 20
173
 11
170
 21
-100
  0
LINE
  8
0
  6
CONTINUOUS
 62
     7
 10
-211
 20
-100
 11
170
 21
-100
  0
LINE
  8
0
  6
CONTINUOUS
 62
     7
 10
-211
 20
173
 11
170
 21
173
  0
LINE
  8
0
  6
CONTINUOUS
 62
     7
 10
-211
 20
173
 11
-211
 21
-100
  0
LINE
  8
0
  6
CONTINUOUS
 62
     7
 10
-191
 20
173
 11
-191
 21
69.5
  0
LINE
  8
0
  6
CONTINUOUS
 62
     7
 10
-211
 20
165
 11
-101
 21
165
  0
LINE
  8
0
  6
CONTINUOUS
 62
     7
 10
-211
 20
157
 11
-101
 21
157
  0
LINE
  8
0
  6
CONTINUOUS
 62
     7
 10
-211
 20
141.5
 11
-101
 21
141.5
  0
LINE
  8
0
  6
CONTINUOUS
 62
     7
 10
-211
 20
133.5
 11
-101
 21
133.5
  0
LINE
  8
0
  6
CONTINUOUS
 62
     7
 10
-191
 20
109.5
 11
-101
 21
109.5
  0
LINE
  8
0
  6
CONTINUOUS
 62
     7
 10
-191
 20
101.5
 11
-101
 21
101.5
  0
LINE
  8
0
  6
CONTINUOUS
 62
     7
 10
-211
 20
93.5
 11
-101
 21
93.5
  0
LINE
  8
0
  6
CONTINUOUS
 62
     7
 10
-191
 20
85.5
 11
-101
 21
85.5
  0
LINE
  8
0
  6
CONTINUOUS
 62
     7
 10
-191
 20
77.5
 11
-101
 21
77.5
  0
LINE
  8
0
  6
CONTINUOUS
 62
     7
 10
-211
 20
69.5
 11
-101
 21
69.5
  0
LINE
  8
0
  6
CONTINUOUS
 62
     7
 10
-211
 20
173
 11
-211
 21
69.5
  0
LINE
  8
0
  6
CONTINUOUS
 62
     7
 10
-211
 20
173
 11
-101
 21
173
  0
LINE
  8
0
  6
CONTINUOUS
 62
     7
 10
-101
 20
173
 11
-101
 21
69.5
  0
LINE
  8
0
  6
CONTINUOUS
 62
     7
 10
-211
 20
125.5
 11
-101
 21
125.5
  0
LINE
  8
0
  6
CONTINUOUS
 62
     7
 10
-211
 20
117.5
 11
-101
 21
117.5
  0
LINE
  8
0
  6
CONTINUOUS
 62
     7
 10
-191
 20
109.5
 11
-101
 21
109.5
  0
LINE
  8
0
  6
CONTINUOUS
 62
     7
 10
-191
 20
149.25
 11
-101
 21
149.25
  0
LINE
  8
0
  6
CONTINUOUS
 62
     7
 10
5.4218845
 20
26.315737
 11
42.813717
 21
26.315737
  0
LINE
  8
0
  6
CONTINUOUS
 62
     7
 10
-44.836292
 20
28.815737
 11
-44.836292
 21
40.815735
  0
LINE
  8
0
  6
CONTINUOUS
 62
     7
 10
-91.186302
 20
44.315735
 11
-91.186302
 21
26.315737
  0
LINE
  8
0
  6
CONTINUOUS
 62
     7
 10
-91.186302
 20
44.315735
 11
-53.794514
 21
44.315735
  0
LINE
  8
0
  6
CONTINUOUS
 62
     7
 10
-91.186302
 20
26.315737
 11
-57.186329
 21
26.315737
  0
LINE
  8
0
  6
CONTINUOUS
 62
     7
 10
42.813717
 20
44.315735
 11
42.813717
 21
26.315737
  0
LINE
  8
0
  6
CONTINUOUS
 62
     7
 10
-3.5362909
 20
41.815735
 11
-3.5362909
 21
29.815737
  0
LINE
  8
0
  6
CENTER
 62
     7
 10
-96.186302
 20
35.315735
 11
47.813717
 21
35.315735
  0
LINE
  8
0
  6
CENTER
 62
     7
 10
-24.1863
 20
54.815735
 11
-24.1863
 21
15.815737
  0
LINE
  8
0
  6
CONTINUOUS
 62
     7
 10
7.113718
 20
35.315735
 11
7.113718
 21
41.815735
  0
LINE
  8
0
  6
CONTINUOUS
 62
     7
 10
-55.93401
 20
40.815735
 11
-44.836292
 21
40.815735
  0
LINE
  8
0
  6
CONTINUOUS
 62
     7
 10
-57.186329
 20
28.815737
 11
-57.186329
 21
20.815737
  0
LINE
  8
0
  6
CONTINUOUS
 62
     7
 10
-42.186298
 20
49.815735
 11
8.813715
 21
49.815735
  0
LINE
  8
0
  6
CONTINUOUS
 62
     7
 10
8.8136997
 20
49.815735
 11
8.8136997
 21
41.815735
  0
LINE
  8
0
  6
CONTINUOUS
 62
     7
 10
-57.186298
 20
20.815737
 11
-6.186285
 21
20.815737
  0
LINE
  8
0
  6
CONTINUOUS
 62
     7
 10
-55.486286
 20
35.315735
 11
-55.486286
 21
28.815737
  0
LINE
  8
0
  6
CONTINUOUS
 62
     7
 10
8.8136997
 20
44.315735
 11
42.813717
 21
44.315735
  0
LINE
  8
0
  6
CENTER
 62
     7
 10
34.813717
 20
42.565735
 11
34.813717
 21
28.065737
  0
LINE
  8
0
  6
CENTER
 62
     7
 10
-83.186302
 20
42.565735
 11
-83.186302
 21
28.065737
  0
LINE
  8
0
  6
CONTINUOUS
 62
     7
 10
-57.186298
 20
28.815737
 11
-44.836292
 21
28.815737
  0
LINE
  8
0
  6
CONTINUOUS
 62
     7
 10
7.5614414
 20
29.815737
 11
-3.5362909
 21
29.815737
  0
LINE
  8
0
  6
CONTINUOUS
 62
     7
 10
8.813715
 20
41.815735
 11
-3.5362909
 21
41.815735
  0
LINE
  8
0
  6
CONTINUOUS
 62
     7
 10
-91.186302
 20
-64.881699
 11
-91.186302
 21
-66.081703
  0
LINE
  8
0
  6
CONTINUOUS
 62
     7
 10
-91.186302
 20
-66.081703
 11
-64.550468
 21
-66.081703
  0
LINE
  8
0
  6
CONTINUOUS
 62
     7
 10
42.813717
 20
-64.881699
 11
42.813717
 21
-66.081703
  0
LINE
  8
0
  6
CONTINUOUS
 62
     7
 10
8.813715
 20
-36.081696
 11
8.813715
 21
-37.681702
  0
LINE
  8
0
  6
CONTINUOUS
 62
     7
 10
-57.186298
 20
-37.681702
 11
8.813715
 21
-37.681702
  0
LINE
  8
0
  6
CONTINUOUS
 62
     7
 10
-57.186298
 20
-36.081696
 11
8.813715
 21
-36.081696
  0
LINE
  8
0
  6
CONTINUOUS
 62
     7
 10
-91.186302
 20
-64.881699
 11
-64.550468
 21
-64.881699
  0
LINE
  8
0
  6
CONTINUOUS
 62
     7
 10
-57.186298
 20
-36.081696
 11
-57.186298
 21
-37.681702
  0
LINE
  8
0
  6
CONTINUOUS
 62
     7
 10
4.2267499
 20
-57.981705
 11
-5.70367
 21
-40.781712
  0
LINE
  8
0
  6
CONTINUOUS
 62
     7
 10
-37.299549
 20
-38.881699
 11
-11.07305
 21
-38.881699
  0
LINE
  8
0
  6
CONTINUOUS
 62
     7
 10
16.177896
 20
-66.081703
 11
42.813717
 21
-66.081703
  0
LINE
  8
0
  6
CENTER
 62
     7
 10
-83.186302
 20
-59.881699
 11
-83.186302
 21
-71.081703
  0
LINE
  8
0
  6
CONTINUOUS
 62
     7
 10
16.177896
 20
-64.881699
 11
42.813717
 21
-64.881699
  0
LINE
  8
0
  6
CONTINUOUS
 62
     7
 10
-51.560078
 20
-58.581703
 11
-41.62965
 21
-41.381702
  0
LINE
  8
0
  6
CENTER
 62
     7
 10
34.813717
 20
-59.881699
 11
34.813717
 21
-71.081703
  0
LINE
  8
0
  6
CONTINUOUS
 62
     7
 10
3.1875091
 20
-58.581711
 11
-6.7429109
 21
-41.381718
  0
LINE
  8
0
  6
CONTINUOUS
 62
     7
 10
-52.599319
 20
-57.981697
 11
-42.668892
 21
-40.781696
  0
LINE
  8
0
  6
CONTINUOUS
 62
     7
 10
109.54449
 20
-66.081703
 11
127.54449
 21
-66.081703
  0
LINE
  8
0
  6
CONTINUOUS
 62
     7
 10
109.54449
 20
-64.881699
 11
127.54449
 21
-64.881699
  0
LINE
  8
0
  6
CONTINUOUS
 62
     7
 10
109.54449
 20
-37.681702
 11
109.54449
 21
-66.081703
  0
LINE
  8
0
  6
CONTINUOUS
 62
     7
 10
127.54449
 20
-37.681702
 11
127.54449
 21
-66.081703
  0
LINE
  8
0
  6
CONTINUOUS
 62
     7
 10
104.04449
 20
-36.081696
 11
104.04449
 21
-37.681702
  0
LINE
  8
0
  6
CENTER
 62
     7
 10
118.54449
 20
-40.831696
 11
118.54449
 21
-55.331696
  0
LINE
  8
0
  6
DASHED
 62
     7
 10
109.54449
 20
-38.881699
 11
127.54449
 21
-38.881699
  0
LINE
  8
0
  6
CONTINUOUS
 62
     7
 10
133.04448
 20
-36.081696
 11
133.04448
 21
-37.681702
  0
LINE
  8
0
  6
CONTINUOUS
 62
     7
 10
104.04449
 20
-36.081696
 11
133.04448
 21
-36.081696
  0
LINE
  8
0
  6
CONTINUOUS
 62
     7
 10
104.04449
 20
-37.681702
 11
133.04448
 21
-37.681702
  0
LINE
  8
0
  6
CONTINUOUS
 62
     7
 10
113.04449
 20
-31.980314
 11
113.04449
 21
-36.081696
  0
LINE
  8
0
  6
CONTINUOUS
 62
     7
 10
112.04449
 20
-32.480301
 11
112.04449
 21
-36.081696
  0
LINE
  8
0
  6
CONTINUOUS
 62
     7
 10
125.04449
 20
-32.480316
 11
125.04449
 21
-36.081696
  0
LINE
  8
0
  6
CENTER
 62
     7
 10
111.29449
 20
-48.081696
 11
125.79449
 21
-48.081696
  0
LINE
  8
0
  6
CONTINUOUS
 62
     7
 10
113.11111
 20
-31.983089
 11
125.11111
 21
-32.483089
  0
LINE
  8
0
  6
CONTINUOUS
 62
     7
 10
113.04449
 20
-33.581692
 11
125.0445
 21
-34.081692
  0
LINE
  8
0
  6
CENTER
 62
     7
 10
118.54449
 20
-59.881699
 11
118.54449
 21
-71.081703
  0
LINE
  8
0
  6
CONTINUOUS
 62
     7
 10
113.04449
 20
-32.438641
 11
111.97787
 21
-32.483082
  0
LINE
  8
0
  6
CONTINUOUS
 62
     7
 10
123.97788
 20
-31.983084
 11
118.54449
 21
-32.209473
  0
LINE
  8
0
  6
DASHED
 62
     7
 10
113.04449
 20
-34.040035
 11
112.04449
 21
-34.081703
  0
LINE
  8
0
  6
CONTINUOUS
 62
     7
 10
124.04449
 20
-31.980299
 11
124.04449
 21
-32.480316
  0
LINE
  8
0
  6
CONTINUOUS
 62
     7
 10
7.1136875
 20
-32.480316
 11
7.1136875
 21
-34.080307
  0
LINE
  8
0
  6
CONTINUOUS
 62
     7
 10
-44.836323
 20
-35.080307
 11
-44.836323
 21
-36.081696
  0
LINE
  8
0
  6
CONTINUOUS
 62
     7
 10
-46.436298
 20
-35.080307
 11
-46.436298
 21
-36.081696
  0
LINE
  8
0
  6
CONTINUOUS
 62
     7
 10
-55.486317
 20
-32.480316
 11
-55.486317
 21
-34.080307
  0
LINE
  8
0
  6
CONTINUOUS
 62
     7
 10
5.8614292
 20
-33.580307
 11
-0.33632448
 21
-33.580307
  0
LINE
  8
0
  6
CONTINUOUS
 62
     7
 10
-47.436298
 20
-34.080307
 11
-55.486317
 21
-34.080307
  0
LINE
  8
0
  6
CONTINUOUS
 62
     7
 10
-47.436298
 20
-32.480316
 11
-55.486317
 21
-32.480316
  0
LINE
  8
0
  6
CONTINUOUS
 62
     7
 10
5.8614292
 20
-31.980314
 11
-0.93630004
 21
-31.980314
  0
LINE
  8
0
  6
CONTINUOUS
 62
     7
 10
7.1136909
 20
-34.080296
 11
5.8614159
 21
-33.580296
  0
LINE
  8
0
  6
CONTINUOUS
 62
     7
 10
-3.5363061
 20
-34.580307
 11
-3.5363061
 21
-36.081696
  0
LINE
  8
0
  6
CONTINUOUS
 62
     7
 10
7.1136851
 20
-34.080307
 11
-0.22839709
 21
-33.58395
  0
LINE
  8
0
  6
CONTINUOUS
 62
     7
 10
7.1136923
 20
-32.480301
 11
5.8614173
 21
-31.980299
  0
LINE
  8
0
  6
CONTINUOUS
 62
     7
 10
-55.486301
 20
-32.48032
 11
-54.234028
 21
-31.980318
  0
LINE
  8
0
  6
CONTINUOUS
 62
     7
 10
-1.9363
 20
-35.180313
 11
-1.9363
 21
-36.081696
  0
LINE
  8
0
  6
CONTINUOUS
 62
     7
 10
-54.234035
 20
-31.98031
 11
-47.248184
 21
-32.487125
  0
LINE
  8
0
  6
CENTER
 62
     7
 10
-6.8583851
 20
-51.181713
 11
2.84111
 21
-45.581707
  0
LINE
  8
0
  6
CONTINUOUS
 62
     7
 10
5.8614292
 20
-31.980314
 11
5.8614292
 21
-33.580307
  0
ARC
  8
0
  6
CONTINUOUS
 62
     7
 10
-7.886282
 20
35.815735
 40
15
 50
336.42182
 51
358.08979
  0
ARC
  8
0
  6
CONTINUOUS
 62
     7
 10
-42.186298
 20
34.815735
 40
15
 50
90
 51
156.42182
  0
ARC
  8
0
  6
CONTINUOUS
 62
     7
 10
-6.1863003
 20
35.815735
 40
15
 50
270
 51
336.42182
  0
ARC
  8
0
  6
CONTINUOUS
 62
     7
 10
-40.486286
 20
34.815735
 40
15
 50
156.42182
 51
178.08979
  0
CIRCLE
  8
0
  6
CONTINUOUS
 62
     7
 10
34.813717
 20
35.315735
 40
2.25
  0
CIRCLE
  8
0
  6
CONTINUOUS
 62
     7
 10
-83.186302
 20
35.315735
 40
2.25
  0
ARC
  8
0
  6
CONTINUOUS
 62
     7
 10
-37.299549
 20
-43.881699
 40
5
 50
90
 51
150
  0
ARC
  8
0
  6
CONTINUOUS
 62
     7
 10
-64.550468
 20
-51.081696
 40
13.8
 50
270
 51
329.99999
  0
ARC
  8
0
  6
CONTINUOUS
 62
     7
 10
16.177896
 20
-51.081696
 40
13.8
 50
210.00001
 51
270
  0
ARC
  8
0
  6
CONTINUOUS
 62
     7
 10
-64.550468
 20
-51.081696
 40
15
 50
270
 51
330
  0
ARC
  8
0
  6
CONTINUOUS
 62
     7
 10
16.177896
 20
-51.081696
 40
15
 50
210
 51
270
  0
ARC
  8
0
  6
CONTINUOUS
 62
     7
 10
-11.07305
 20
-43.881699
 40
6.1999998
 50
29.99999
 51
90
  0
ARC
  8
0
  6
CONTINUOUS
 62
     7
 10
-11.07305
 20
-43.881699
 40
5
 50
30.000001
 51
90
  0
ARC
  8
0
  6
CONTINUOUS
 62
     7
 10
-37.299549
 20
-43.881699
 40
6.1999998
 50
90
 51
150.00001
  0
CIRCLE
  8
0
  6
CONTINUOUS
 62
     7
 10
118.54449
 20
-48.081696
 40
2.25
  0
ARC
  8
0
  6
CONTINUOUS
 62
     7
 10
-0.93630004
 20
-34.580307
 40
2.5999999
 50
89.999996
 51
180
  0
ARC
  8
0
  6
CONTINUOUS
 62
     7
 10
-47.436298
 20
-35.080307
 40
2.5999999
 50
0
 51
90
  0
ARC
  8
0
  6
CONTINUOUS
 62
     7
 10
-0.33632448
 20
-35.180313
 40
1.6
 50
89.999996
 51
180
  0
ARC
  8
0
  6
CONTINUOUS
 62
     7
 10
-47.436298
 20
-35.080307
 40
1
 50
0
 51
90
  0
CIRCLE
  8
0
  6
CONTINUOUS
 62
     7
 10
35.687973
 20
33.239868
 40
0.30000001
  0
TEXT
  8
0
  6
CONTINUOUS
 62
     7
 10
-188.143
 20
87.9
 40
3.2
 41
0.84409467
  1
６８ｍｍ　ｔ＝２．０用
  0
TEXT
  8
0
  6
CONTINUOUS
 62
     7
 10
-205.343
 20
167.4
 40
3.2
 41
0.85537027
  1
品　名
  0
TEXT
  8
0
  6
CONTINUOUS
 62
     7
 10
-205.343
 20
159.4
 40
3.2
 41
0.85537027
  1
品　番
  0
TEXT
  8
0
  6
CONTINUOUS
 62
     7
 10
-188.143
 20
79.9
 40
3.2
 41
0.90047268
  1
＊
  0
TEXT
  8
0
  6
CONTINUOUS
 62
     7
 10
-188.143
 20
71.9
 40
3.2
 41
0.90047268
  1
＊
  0
TEXT
  8
0
  6
CONTINUOUS
 62
     7
 10
-205.343
 20
151.4
 40
3.2
 41
0.85537027
  1
材　質
  0
TEXT
  8
0
  6
CONTINUOUS
 62
     7
 10
-205.343
 20
135.9
 40
3.2
 41
0.85537027
  1
仕上げ
  0
TEXT
  8
0
  6
CONTINUOUS
 62
     7
 10
-188.143
 20
95.9
 40
3.2
 41
0.90047268
  1
＊
  0
TEXT
  8
0
  6
CONTINUOUS
 62
     7
 10
-188.143
 20
103.9
 40
3.2
 41
0.90047268
  1
＊
  0
TEXT
  8
0
  6
CONTINUOUS
 62
     7
 10
-208.543
 20
111.9
 40
3.2
 41
0.84892707
  1
セットビス
  0
TEXT
  8
0
  6
CONTINUOUS
 62
     7
 10
-188.143
 20
111.9
 40
3.2
 41
0.90047268
  1
＊
  0
TEXT
  8
0
  6
CONTINUOUS
 62
     7
 10
-203.743
 20
87.9
 40
3.2
 41
0.86439075
  1
備考
  0
TEXT
  8
0
  6
CONTINUOUS
 62
     7
 10
-205.343
 20
127.9
 40
3.2
 41
0.85537027
  1
定　尺
  0
TEXT
  8
0
  6
CONTINUOUS
 62
     7
 10
-206.943
 20
119.9
 40
3.2
 41
0.85127005
  1
左右勝手
  0
TEXT
  8
0
  6
CONTINUOUS
 62
     7
 10
-188.37855
 20
127.46998
 40
3.2
 41
0.90047268
  1
＊
  0
TEXT
  8
0
  6
CONTINUOUS
 62
     7
 10
-188.143
 20
167.4
 40
3.2
 41
0.85127005
  1
アンカー
  0
TEXT
  8
0
  6
CONTINUOUS
 62
     7
 10
-188.143
 20
159.4
 40
3.2
 41
0.84892707
  1
ＳＢ－２４
  0
TEXT
  8
0
  6
CONTINUOUS
 62
     7
 10
-188.143
 20
151.4
 40
3.2
 41
0.85127005
  1
スチール
  0
TEXT
  8
0
  6
CONTINUOUS
 62
     7
 10
-188.143
 20
135.9
 40
3.2
 41
0.84634979
  1
有色クロメート
  0
TEXT
  8
0
  6
CONTINUOUS
 62
     7
 10
-188.37855
 20
119.86617
 40
3.2
 41
0.86439075
  1
無し
  0
TEXT
  8
0
  6
CONTINUOUS
 62
     7
 10
-188.143
 20
143.775
 40
3.2
 41
0.90047268
  1
＊
  0
DIMENSION
  8
0
  6
CONTINUOUS
 62
     7
  2
*D1
 70
     0
 10
-101.1863
 20
20.815737
 11
-101.1863
 21
24.815737
  3
DIMSTYLE
 13
-57.186298
 23
28.815737
 14
-72.186302
 24
20.815737
 50
90
1001
ACAD
1000
DSTYLE
1002
{
1070
    77
1070
     1
1070
   172
1070
     1
1002
}
  0
INSERT
  8
0
  6
CONTINUOUS
 62
     7
  2
KOZU0001
 10
3.8376384
 20
24.656822
  0
DIMENSION
  8
0
  6
CONTINUOUS
 62
     7
  2
*D2
 70
     0
 10
57.813717
 20
44.315735
 11
57.813717
 21
39.815735
  3
DIMSTYLE
 13
47.813717
 23
35.315735
 14
42.813717
 24
44.315735
 50
90
1001
ACAD
1000
DSTYLE
1002
{
1070
    77
1070
     1
1070
   172
1070
     1
1002
}
  0
DIMENSION
  8
0
  6
CONTINUOUS
 62
     7
  2
*D3
 70
     0
 10
57.813717
 20
35.315735
 11
57.813717
 21
30.815737
  3
DIMSTYLE
 13
42.813717
 23
26.315737
 14
47.813717
 24
35.315735
 50
90
1001
ACAD
1000
DSTYLE
1002
{
1070
    77
1070
     1
1070
   172
1070
     1
1070
    76
1070
     1
1002
}
  0
DIMENSION
  8
0
  6
CONTINUOUS
 62
     7
  2
*D4
 70
     0
 10
67.813713
 20
44.315735
 11
67.813713
 21
35.315735
  3
DIMSTYLE
 13
42.813717
 23
26.315737
 14
42.813717
 24
44.315735
 50
90
1001
ACAD
1000
DSTYLE
1002
{
1070
    77
1070
     1
1070
   172
1070
     1
1002
}
  0
DIMENSION
  8
0
  6
CONTINUOUS
 62
     7
  2
*D5
 70
     0
 10
-101.1863
 20
28.815737
 11
-101.1863
 21
34.815735
  3
DIMSTYLE
 13
-57.186298
 23
40.815735
 14
-72.186302
 24
28.815737
 50
90
1001
ACAD
1000
DSTYLE
1002
{
1070
    77
1070
     1
1070
   172
1070
     1
1070
    76
1070
     1
1002
}
  0
DIMENSION
  8
0
  6
CONTINUOUS
 62
     7
  2
*D6
 70
     0
 10
-101.1863
 20
40.815735
 11
-101.1863
 21
45.315735
  3
DIMSTYLE
 13
-70.48629
 23
49.815735
 14
-70.934013
 24
40.815735
 50
90
1001
ACAD
1000
DSTYLE
1002
{
1070
    77
1070
     1
1070
   172
1070
     1
1070
    76
1070
     1
1002
}
  0
DIMENSION
  8
0
  6
CONTINUOUS
 62
     7
  2
*D7
 70
     0
 10
-111.1863
 20
20.815737
 11
-111.1863
 21
35.315735
  3
DIMSTYLE
 13
-57.186298
 23
49.815735
 14
-57.186298
 24
20.815737
 50
90
1001
ACAD
1000
DSTYLE
1002
{
1070
    77
1070
     1
1070
   172
1070
     1
1002
}
  0
DIMENSION
  8
0
  6
CONTINUOUS
 62
     7
  2
*D8
 70
     0
 10
8.813715
 20
5.8157368
 11
-24.186293
 21
5.8157368
  3
DIMSTYLE
 13
-57.186298
 23
20.815737
 14
8.813715
 24
41.815735
 50
0
1001
ACAD
1000
DSTYLE
1002
{
1070
    77
1070
     1
1070
   172
1070
     1
1002
}
  0
INSERT
  8
0
  6
CONTINUOUS
 62
     7
  2
KOZU0002
 10
33.944809
 20
37.39119
  0
DIMENSION
  8
0
  6
CONTINUOUS
 62
     7
  2
*D9
 70
     0
 10
-100.61211
 20
-64.881699
 11
-100.61211
 21
-73.831627
  3
DIMSTYLE
 13
-91.186302
 23
-66.081703
 14
-91.186302
 24
-64.881699
 50
90
1001
ACAD
1000
DSTYLE
1002
{
1070
    77
1070
     1
1070
   172
1070
     1
1002
}
  0
DIMENSION
  8
0
  6
CONTINUOUS
 62
     7
  2
*D10
 70
     0
 10
-100.61211
 20
-36.081696
 11
-100.61211
 21
-44.431259
  3
DIMSTYLE
 13
-57.186298
 23
-37.681702
 14
-72.186302
 24
-36.081696
 50
90
1001
ACAD
1000
DSTYLE
1002
{
1070
    77
1070
     1
1070
   172
1070
     1
1002
}
  0
DIMENSION
  8
0
  6
CONTINUOUS
 62
     7
  2
*D11
 70
     0
 10
-111.1863
 20
-36.081696
 11
-111.1863
 21
-51.081699
  3
DIMSTYLE
 13
-91.186302
 23
-66.081703
 14
-57.186298
 24
-36.081696
 50
90
1001
ACAD
1000
DSTYLE
1002
{
1070
    77
1070
     1
1070
   172
1070
     1
1002
}
  0
DIMENSION
  8
0
  6
CONTINUOUS
 62
     7
  2
*D12
 70
     0
 10
144.6631
 20
-34.081696
 11
144.6631
 21
-28.83432
  3
DIMSTYLE
 13
133.04448
 23
-36.081696
 14
125.04449
 24
-34.081696
 50
90
1001
ACAD
1000
DSTYLE
1002
{
1070
    77
1070
     1
1070
   172
1070
     1
1002
}
  0
DIMENSION
  8
0
  6
CONTINUOUS
 62
     7
  2
*D13
 70
     0
 10
97.139397
 20
-33.581696
 11
97.139397
 21
-25.932108
  3
DIMSTYLE
 13
104.04449
 23
-36.081696
 14
113.04449
 24
-33.581696
 50
90
1001
ACAD
1000
DSTYLE
1002
{
1070
    77
1070
     1
1070
   172
1070
     1
1002
}
  0
DIMENSION
  8
0
  6
CONTINUOUS
 62
     7
  2
*D14
 70
     0
 10
144.65616
 20
-66.081703
 11
144.65616
 21
-57.081699
  3
DIMSTYLE
 13
125.79449
 23
-48.081696
 14
127.54449
 24
-66.081703
 50
90
1001
ACAD
1000
DSTYLE
1002
{
1070
    77
1070
     1
1070
   172
1070
     1
1002
}
  0
DIMENSION
  8
0
  6
CONTINUOUS
 62
     7
  2
*D15
 70
     0
 10
-83.186302
 20
59.815735
 11
-87.186302
 21
59.815735
  3
DIMSTYLE
 13
-91.186302
 23
44.315735
 14
-83.186302
 24
42.565735
 50
0
1001
ACAD
1000
DSTYLE
1002
{
1070
    77
1070
     1
1070
   172
1070
     1
1002
}
  0
DIMENSION
  8
0
  6
CONTINUOUS
 62
     7
  2
*D16
 70
     0
 10
34.813717
 20
59.815735
 11
-24.186293
 21
59.815735
  3
DIMSTYLE
 13
-83.186302
 23
42.565735
 14
34.813717
 24
42.565735
 50
0
1001
ACAD
1000
DSTYLE
1002
{
1070
     6
1000
_NONE
1070
    77
1070
     1
1070
   172
1070
     1
1070
    75
1070
     1
1002
}
  0
DIMENSION
  8
0
  6
CONTINUOUS
 62
     7
  2
*D17
 70
     0
 10
42.813717
 20
59.815735
 11
38.813717
 21
59.815735
  3
DIMSTYLE
 13
34.813717
 23
42.565735
 14
42.813717
 24
44.315735
 50
0
1001
ACAD
1000
DSTYLE
1002
{
1070
     6
1000
_NONE
1070
    77
1070
     1
1070
   172
1070
     1
1070
    75
1070
     1
1002
}
  0
DIMENSION
  8
0
  6
CONTINUOUS
 62
     7
  2
*D18
 70
     0
 10
-57.186329
 20
5.8157368
 11
-74.186317
 21
5.8157368
  3
DIMSTYLE
 13
-91.186302
 23
26.315737
 14
-57.186329
 24
20.815737
 50
0
1001
ACAD
1000
DSTYLE
1002
{
1070
    77
1070
     1
1070
   172
1070
     1
1002
}
  0
DIMENSION
  8
0
  6
CONTINUOUS
 62
     7
  2
*D19
 70
     0
 10
8.8136997
 20
5.8157368
 11
25.813707
 21
5.8157368
  3
DIMSTYLE
 13
42.813717
 23
26.315737
 14
8.8136997
 24
44.315735
 50
0
1001
ACAD
1000
DSTYLE
1002
{
1070
    77
1070
     1
1070
   172
1070
     1
1002
}
  0
DIMENSION
  8
0
  6
CONTINUOUS
 62
     7
  2
*D20
 70
     0
 10
42.813717
 20
-4.1842632
 11
-24.186293
 21
-4.1842632
  3
DIMSTYLE
 13
-91.186302
 23
26.315737
 14
42.813717
 24
26.315737
 50
0
1001
ACAD
1000
DSTYLE
1002
{
1070
    77
1070
     1
1070
   172
1070
     1
1002
}
  0
DIMENSION
  8
0
  6
CONTINUOUS
 62
     7
  2
*D21
 70
     0
 10
-1.9363
 20
-22.480314
 11
-24.1863
 21
-22.480314
  3
DIMSTYLE
 13
-46.436298
 23
-35.080307
 14
-1.9363
 24
-35.180313
 50
0
1001
ACAD
1000
DSTYLE
1002
{
1070
    77
1070
     1
1070
   172
1070
     1
1002
}
  0
ENDSEC
  0
EOF
