  0
SECTION
  2
HEADER
  9
$ACADVER
  1
AC1009
  9
$DWGCODEPAGE
  3
ansi_932
  9
$INSBASE
 10
0.0
 20
0.0
 30
0.0
  9
$EXTMIN
 10
1034.492073076211
 20
-2750.030984464395
 30
0.0
  9
$EXTMAX
 10
1454.492073076211
 20
-2453.030984464395
 30
0.0
  9
$LIMMIN
 10
5052.022008786014
 20
-4235.539802526837
  9
$LIMMAX
 10
9252.022008786013
 20
-1265.539802526837
  9
$ORTHOMODE
 70
     1
  9
$REGENMODE
 70
     1
  9
$FILLMODE
 70
     1
  9
$QTEXTMODE
 70
     0
  9
$MIRRTEXT
 70
     0
  9
$DRAGMODE
 70
     2
  9
$LTSCALE
 40
1.0
  9
$OSMODE
 70
  2487
  9
$ATTMODE
 70
     1
  9
$TEXTSIZE
 40
3.2
  9
$TRACEWID
 40
1.0
  9
$TEXTSTYLE
  7
STANDARD
  9
$CLAYER
  8
AM_CL
  9
$CELTYPE
  6
BYLAYER
  9
$CECOLOR
 62
   256
  9
$DIMSCALE
 40
1.0
  9
$DIMASZ
 40
1.0
  9
$DIMEXO
 40
1.0
  9
$DIMDLI
 40
10.0
  9
$DIMRND
 40
0.0
  9
$DIMDLE
 40
0.0
  9
$DIMEXE
 40
1.0
  9
$DIMTP
 40
0.1
  9
$DIMTM
 40
0.1
  9
$DIMTXT
 40
3.5
  9
$DIMCEN
 40
0.0
  9
$DIMTSZ
 40
0.0
  9
$DIMTOL
 70
     0
  9
$DIMLIM
 70
     0
  9
$DIMTIH
 70
     0
  9
$DIMTOH
 70
     0
  9
$DIMSE1
 70
     0
  9
$DIMSE2
 70
     0
  9
$DIMTAD
 70
     1
  9
$DIMZIN
 70
     8
  9
$DIMBLK
  1

  9
$DIMASO
 70
     1
  9
$DIMSHO
 70
     1
  9
$DIMPOST
  1

  9
$DIMAPOST
  1
"
  9
$DIMALT
 70
     0
  9
$DIMALTD
 70
     2
  9
$DIMALTF
 40
0.0393701
  9
$DIMLFAC
 40
1.0
  9
$DIMTOFL
 70
     1
  9
$DIMTVP
 40
0.0
  9
$DIMTIX
 70
     0
  9
$DIMSOXD
 70
     0
  9
$DIMSAH
 70
     0
  9
$DIMBLK1
  1

  9
$DIMBLK2
  1

  9
$DIMSTYLE
  2
SYS
  9
$DIMCLRD
 70
   256
  9
$DIMCLRE
 70
   256
  9
$DIMCLRT
 70
     7
  9
$DIMTFAC
 40
0.71
  9
$DIMGAP
 40
1.5
  9
$LUNITS
 70
     2
  9
$LUPREC
 70
     2
  9
$SKETCHINC
 40
1.0
  9
$FILLETRAD
 40
1.0
  9
$AUNITS
 70
     0
  9
$AUPREC
 70
     0
  9
$MENU
  1
.
  9
$ELEVATION
 40
0.0
  9
$PELEVATION
 40
0.0
  9
$THICKNESS
 40
0.0
  9
$LIMCHECK
 70
     0
  9
$CHAMFERA
 40
0.0
  9
$CHAMFERB
 40
0.0
  9
$SKPOLY
 70
     0
  9
$TDCREATE
 40
2455567.680725069
  9
$TDUPDATE
 40
2459941.716418831
  9
$TDINDWG
 40
2.7935127894
  9
$TDUSRTIMER
 40
2.7935111458
  9
$USRTIMER
 70
     1
  9
$ANGBASE
 50
0.0
  9
$ANGDIR
 70
     0
  9
$PDMODE
 70
     0
  9
$PDSIZE
 40
-3.0
  9
$PLINEWID
 40
0.0
  9
$COORDS
 70
     0
  9
$SPLFRAME
 70
     0
  9
$SPLINETYPE
 70
     6
  9
$SPLINESEGS
 70
     8
  9
$ATTDIA
 70
     1
  9
$ATTREQ
 70
     1
  9
$HANDLING
 70
     1
  9
$HANDSEED
  5
4739E
  9
$SURFTAB1
 70
     6
  9
$SURFTAB2
 70
     6
  9
$SURFTYPE
 70
     6
  9
$SURFU
 70
     6
  9
$SURFV
 70
     6
  9
$UCSNAME
  2

  9
$UCSORG
 10
0.0
 20
0.0
 30
0.0
  9
$UCSXDIR
 10
1.0
 20
0.0
 30
0.0
  9
$UCSYDIR
 10
0.0
 20
1.0
 30
0.0
  9
$PUCSNAME
  2

  9
$PUCSORG
 10
0.0
 20
0.0
 30
0.0
  9
$PUCSXDIR
 10
1.0
 20
0.0
 30
0.0
  9
$PUCSYDIR
 10
0.0
 20
1.0
 30
0.0
  9
$USERI1
 70
     0
  9
$USERI2
 70
     0
  9
$USERI3
 70
     0
  9
$USERI4
 70
     0
  9
$USERI5
 70
     0
  9
$USERR1
 40
0.0
  9
$USERR2
 40
0.0
  9
$USERR3
 40
0.0
  9
$USERR4
 40
0.0
  9
$USERR5
 40
0.0
  9
$WORLDVIEW
 70
     1
  9
$SHADEDGE
 70
     3
  9
$SHADEDIF
 70
    70
  9
$TILEMODE
 70
     1
  9
$MAXACTVP
 70
    64
  9
$PLIMCHECK
 70
     0
  9
$PEXTMIN
 10
1.000000000000000E+20
 20
1.000000000000000E+20
 30
1.000000000000000E+20
  9
$PEXTMAX
 10
-1.000000000000000E+20
 20
-1.000000000000000E+20
 30
-1.000000000000000E+20
  9
$PLIMMIN
 10
-3.17498779296875
 20
-3.174999952316284
  9
$PLIMMAX
 10
293.4970092773438
 20
206.692492723465
  9
$UNITMODE
 70
     0
  9
$VISRETAIN
 70
     1
  9
$PLINEGEN
 70
     0
  9
$PSLTSCALE
 70
     1
  0
ENDSEC
  0
SECTION
  2
TABLES
  0
TABLE
  2
VPORT
 70
     1
  0
VPORT
  2
*ACTIVE
 70
     0
 10
0.0
 20
0.0
 11
1.0
 21
1.0
 12
1244.492073076211
 22
-2601.530984464395
 13
0.0
 23
0.0
 14
2.5
 24
2.5
 15
10.0
 25
10.0
 16
0.0
 26
0.0
 36
1.0
 17
0.0
 27
0.0
 37
0.0
 40
300.0422535211268
 41
2.073510773130545
 42
50.0
 43
-1370.695619172058
 44
-1370.695619172058
 50
0.0
 51
0.0
 71
     0
 72
   100
 73
     1
 74
     3
 75
     0
 76
     0
 77
     0
 78
     0
  0
ENDTAB
  0
TABLE
  2
LTYPE
 70
    30
  0
LTYPE
  2
CONTINUOUS
 70
     0
  3
Solid line
 72
    65
 73
     0
 40
0.0
  0
LTYPE
  2
AM_ISO02W050
 70
     0
  3
__ __ __ __ __ __ __ __ __ __ __ __ __ __ __
 72
    65
 73
     2
 40
7.5
 49
6.0
 49
-1.5
  0
LTYPE
  2
AMCONSTR
 70
     0
  3
_______________________
 72
    65
 73
     2
 40
9999.0
 49
9999.0
 49
0.0
  0
LTYPE
  2
ACISOWELD
 70
     0
  3
_ _ _ _ _
 72
    65
 73
     2
 40
2.0
 49
2.0
 49
-1.0
  0
LTYPE
  2
ACISOTGB
 70
     0
  3
__ . . __ . .
 72
    65
 73
     6
 40
9.0
 49
4.0
 49
-1.0
 49
1.0
 49
-1.0
 49
1.0
 49
-1.0
  0
LTYPE
  2
ACISOTGL
 70
     0
  3
_ _ _ _ _
 72
    65
 73
     2
 40
3.0
 49
2.0
 49
-1.0
  0
LTYPE
  2
CENTER
 70
     0
  3
__ . __
 72
    65
 73
     4
 40
7.0
 49
4.0
 49
-1.0
 49
1.0
 49
-1.0
  0
LTYPE
  2
PHANTOM2
 70
     0
  3
Phantom (.5x) ___ _ _ ___ _ _ ___ _ _ ___ _ _
 72
    65
 73
     6
 40
31.75
 49
15.875
 49
-3.174999999999999
 49
3.174999999999999
 49
-3.174999999999999
 49
3.174999999999999
 49
-3.174999999999999
  0
LTYPE
  2
中線
 70
     0
  3
___________________
 72
    65
 73
     2
 40
2.0
 49
1.0
 49
1.0
  0
LTYPE
  2
細線
 70
     0
  3
___________________
 72
    65
 73
     2
 40
2.0
 49
1.0
 49
1.0
  0
LTYPE
  2
太線
 70
     0
  3
___________________
 72
    65
 73
     2
 40
2.0
 49
1.0
 49
1.0
  0
LTYPE
  2
文字
 70
     0
  3
_________________
 72
    65
 73
     2
 40
2.0
 49
1.0
 49
1.0
  0
LTYPE
  2
寸法線
 70
     0
  3
________________
 72
    65
 73
     2
 40
2.0
 49
1.0
 49
1.0
  0
LTYPE
  2
ハッチング
 70
     0
  3
_________________
 72
    65
 73
     2
 40
2.0
 49
1.0
 49
1.0
  0
LTYPE
  2
陰線1
 70
     0
  3
__ __ __ __
 72
    65
 73
     2
 40
4.0
 49
2.2
 49
-1.8
  0
LTYPE
  2
切断線
 70
     0
  3
/\/-/\/-/\/-/\/-/\/-/\/
 72
    65
 73
     2
 40
11.0001
 49
0.0001
 49
-11.0
  0
LTYPE
  2
想像線1
 70
     0
  3
__ __ __ _____ __ __ ____
 72
    65
 73
     6
 40
14.5
 49
6.0
 49
-1.5
 49
2.0
 49
-1.5
 49
2.0
 49
-1.5
  0
LTYPE
  2
中心線1
 70
     0
  3
___ _ ___ _ ___
 72
    65
 73
     4
 40
18.0
 49
12.0
 49
-2.0
 49
2.0
 49
-2.0
  0
LTYPE
  2
補助線
 70
     0
  3
______________
 72
    65
 73
     2
 40
2.0
 49
1.0
 49
1.0
  0
LTYPE
  2
HIDDEN
 70
     0
  3
Hidden __ __ __ __ __ __ __ __ __ __ __ __ __ _
 72
    65
 73
     2
 40
0.375
 49
0.25
 49
-0.125
  0
LTYPE
  2
AM_ISO08W050
 70
     0
  3
____ . ____ . ____ . ____ . ____ . ____ . ____
 72
    65
 73
     4
 40
18.0
 49
12.0
 49
-1.5
 49
3.0
 49
-1.5
  0
LTYPE
  2
ACANSTGB
 70
     0
  3
__ . . __ . .
 72
    65
 73
     6
 40
0.35433070866
 49
0.15748031496
 49
-0.03937007874
 49
0.03937007874
 49
-0.03937007874
 49
0.03937007874
 49
-0.03937007874
  0
LTYPE
  2
ACANSTGL
 70
     0
  3
_ _ _ _ _
 72
    65
 73
     2
 40
0.11811023622
 49
0.07874015748
 49
-0.03937007874
  0
LTYPE
  2
ACJISTGB
 70
     0
  3
__ . . __ . .
 72
    65
 73
     6
 40
9.0
 49
4.0
 49
-1.0
 49
1.0
 49
-1.0
 49
1.0
 49
-1.0
  0
LTYPE
  2
ACJISTGL
 70
     0
  3
_ _ _ _ _
 72
    65
 73
     2
 40
3.0
 49
2.0
 49
-1.0
  0
LTYPE
  2
ACJISWELD
 70
     0
  3
_ _ _ _ _
 72
    65
 73
     2
 40
2.0
 49
2.0
 49
-1.0
  0
LTYPE
  2
AM_ISO09W050
 70
     0
  3
_____ . . _____ . . _____ . . ____ .. ____
 72
    65
 73
     6
 40
22.5
 49
12.0
 49
-1.5
 49
3.0
 49
-1.5
 49
3.0
 49
-1.5
  0
LTYPE
  2
AM_ISO08W050X2
 70
     0
  3
__ . __ . __ . __ . __ . __
 72
    65
 73
     4
 40
9.0
 49
6.0
 49
-0.75
 49
1.5
 49
-0.75
  0
LTYPE
  2
AM_ISO02W050X2
 70
     0
  3
 _ _ _ _ _ _ _ _ _ _ _ _
 72
    65
 73
     2
 40
3.75
 49
3.0
 49
-0.75
  0
LTYPE
  2
AMZIGZAG
 70
     0
  3
/\/-/\/-/\/-/\/-/\/-/\/
 72
    65
 73
     2
 40
11.0001
 49
0.0001
 49
-11.0
  0
ENDTAB
  0
TABLE
  2
LAYER
 70
    26
  0
LAYER
  2
0
 70
     0
 62
     7
  6
CONTINUOUS
  0
LAYER
  2
DEFPOINTS
 70
     0
 62
     7
  6
CONTINUOUS
  0
LAYER
  2
AM_0
 70
     0
 62
     7
  6
中線
  0
LAYER
  2
SIZE
 70
     0
 62
     5
  6
CONTINUOUS
  0
LAYER
  2
WAKU
 70
     0
 62
     7
  6
CONTINUOUS
  0
LAYER
  2
AM_6
 70
     0
 62
     2
  6
文字
  0
LAYER
  2
AM_2
 70
     0
 62
     1
  6
細線
  0
LAYER
  2
AM_5
 70
     0
 62
     3
  6
寸法線
  0
LAYER
  2
0部品8
 70
     0
 62
    40
  6
細線
  0
LAYER
  2
0部品6
 70
     0
 62
    13
  6
細線
  0
LAYER
  2
0部品7
 70
     0
 62
   210
  6
細線
  0
LAYER
  2
0部品4
 70
     0
 62
    70
  6
細線
  0
LAYER
  2
0部品9
 70
     0
 62
    10
  6
CONTINUOUS
  0
LAYER
  2
0部品10
 70
     0
 62
   131
  6
CONTINUOUS
  0
LAYER
  2
0部品12
 70
     0
 62
    53
  6
CONTINUOUS
  0
LAYER
  2
0部品1
 70
     0
 62
   213
  6
細線
  0
LAYER
  2
0部品2
 70
     0
 62
   163
  6
細線
  0
LAYER
  2
0部品3
 70
     0
 62
   122
  6
細線
  0
LAYER
  2
0部品5
 70
     0
 62
    52
  6
細線
  0
LAYER
  2
0部品11
 70
     0
 62
   103
  6
CONTINUOUS
  0
LAYER
  2
0部品13
 70
     0
 62
   241
  6
細線
  0
LAYER
  2
0部品14
 70
     0
 62
   110
  6
細線
  0
LAYER
  2
0部品15
 70
     0
 62
    61
  6
細線
  0
LAYER
  2
0部品31
 70
     0
 62
   222
  6
細線
  0
LAYER
  2
AM_CL
 70
     0
 62
     1
  6
AMCONSTR
  0
LAYER
  2
AM_11
 70
     0
 62
     2
  6
想像線1
  0
ENDTAB
  0
TABLE
  2
STYLE
 70
     9
  0
STYLE
  2
STANDARD
 70
     0
 40
0.0
 41
0.7
 50
0.0
 71
     0
 42
3.2
  3
romans.shx
  4
extfont.shx
  0
STYLE
  2

 70
     1
 40
0.0
 41
1.0
 50
0.0
 71
     0
 42
2.5
  3
ltypeshp.shx
  4

  0
STYLE
  2
ACISOTS
 70
     0
 40
1.0
 41
1.0
 50
0.0
 71
     0
 42
2.5
  3
isocp.shx
  4
extfont.shx
  0
STYLE
  2
ACISOGDT
 70
     0
 40
0.0
 41
1.0
 50
0.0
 71
     0
 42
2.5
  3
amgdt.shx
  4

  0
STYLE
  2
DIM
 70
     0
 40
0.0
 41
1.0
 50
0.0
 71
     0
 42
2.5
  3
monotxt.shx
  4
extfont.shx
  0
STYLE
  2
ACANSTS
 70
     0
 40
1.0
 41
1.0
 50
0.0
 71
     0
 42
0.2
  3
romans.shx
  4
extfont.shx
  0
STYLE
  2
ACANSGDT
 70
     0
 40
0.0
 41
1.0
 50
0.0
 71
     0
 42
0.2
  3
amgdt.shx
  4

  0
STYLE
  2
TEXT0_75
 70
     0
 40
0.0
 41
0.75
 50
0.0
 71
     0
 42
2.5
  3
ISOCP.SHX
  4
EXTFONT.SHX
  0
STYLE
  2
ACJISGDT
 70
     0
 40
0.0
 41
1.0
 50
0.0
 71
     0
 42
2.5
  3
amgdt.shx
  4

  0
STYLE
  2
ACJISTS
 70
     0
 40
0.0
 41
1.0
 50
0.0
 71
     0
 42
2.5
  3
isocp.shx
  4
extfont2.shx
  0
ENDTAB
  0
TABLE
  2
VIEW
 70
     6
  0
VIEW
  2
AM_VIEW1
 70
     0
 40
1543.051771117166
 10
6102.022008786015
 20
-2037.06568808542
 41
2100.0
 11
0.0
 21
0.0
 31
1.0
 12
0.0
 22
0.0
 32
0.0
 42
50.0
 43
-1370.695619172058
 44
-1370.695619172058
 50
0.0
 71
     0
  0
VIEW
  2
AM_VIEW2
 70
     0
 40
1543.051771117166
 10
8202.022008786014
 20
-2037.06568808542
 41
2100.0
 11
0.0
 21
0.0
 31
1.0
 12
0.0
 22
0.0
 32
0.0
 42
50.0
 43
-1370.695619172058
 44
-1370.695619172058
 50
0.0
 71
     0
  0
VIEW
  2
AM_VIEW3
 70
     0
 40
1543.051771117166
 10
6102.022008786015
 20
-3464.013916968254
 41
2100.0
 11
0.0
 21
0.0
 31
1.0
 12
0.0
 22
0.0
 32
0.0
 42
50.0
 43
-1370.695619172058
 44
-1370.695619172058
 50
0.0
 71
     0
  0
VIEW
  2
AM_VIEW4
 70
     0
 40
1543.051771117166
 10
8202.022008786014
 20
-3464.013916968254
 41
2100.0
 11
0.0
 21
0.0
 31
1.0
 12
0.0
 22
0.0
 32
0.0
 42
50.0
 43
-1370.695619172058
 44
-1370.695619172058
 50
0.0
 71
     0
  0
VIEW
  2
AM_VIEW5
 70
     0
 40
1543.051771117166
 10
7152.022008786014
 20
-2750.539802526837
 41
2100.0
 11
0.0
 21
0.0
 31
1.0
 12
0.0
 22
0.0
 32
0.0
 42
50.0
 43
-1370.695619172058
 44
-1370.695619172058
 50
0.0
 71
     0
  0
VIEW
  2
AM_VIEW6
 70
     0
 40
3086.07268119891
 10
7152.022008786014
 20
-2750.539802526837
 41
4199.957999999999
 11
0.0
 21
0.0
 31
1.0
 12
0.0
 22
0.0
 32
0.0
 42
50.0
 43
-1370.695619172058
 44
-1370.695619172058
 50
0.0
 71
     0
  0
ENDTAB
  0
TABLE
  2
UCS
 70
     0
  0
ENDTAB
  0
TABLE
  2
APPID
 70
    90
  0
APPID
  2
ACAD
 70
     0
  0
APPID
  2
MCAD_NO_VIS
 70
     0
  0
APPID
  2
ACAD_TEMP_GRAPHIC
 70
     0
  0
APPID
  2
ACATTRIBSERVICES
 70
     0
  0
APPID
  2
GENIUS_GENDIMSH_14
 70
     0
  0
APPID
  2
GENIUS_GENREC_14
 70
     0
  0
APPID
  2
GENIUS_GENOBJ-N-REC_13
 70
     0
  0
APPID
  2
GENIUS_GENODEF_13
 70
     0
  0
APPID
  2
DCO15
 70
     0
  0
APPID
  2
GENIUS_GENOLIS_13
 70
     0
  0
APPID
  2
GENIUS_GENOENT_13
 70
     0
  0
APPID
  2
GENIUS_GENOBJ-N-TIT_13
 70
     0
  0
APPID
  2
GENIUS_GENTITLE_13
 70
     0
  0
APPID
  2
GENIUS_GENOREF_13
 70
     0
  0
APPID
  2
GENIUS_GENSCREG_15
 70
     0
  0
APPID
  2
GENIUS_GENOBJ-N-SDF_13
 70
     0
  0
APPID
  2
GENIUS_GENBLLY_14
 70
     0
  0
APPID
  2
GENIUS_GENTRA_14
 70
     0
  0
APPID
  2
GENIUS_GENDTOL_13
 70
     0
  0
APPID
  2
GENIUS_GENOBJ-N-CEN_13
 70
     0
  0
APPID
  2
GENIUS_GENOBJ-N-CRS_13
 70
     0
  0
APPID
  2
GENIUS_GENOBJ-N-HTC_13
 70
     0
  0
APPID
  2
GENIUS_GENHATCH_13
 70
     0
  0
APPID
  2
GENIUS_GENOBJ-N-FIL_13
 70
     0
  0
APPID
  2
GEVID990412420
 70
     0
  0
APPID
  2
GEVDC
 70
     0
  0
APPID
  2
GEVCON
 70
     0
  0
APPID
  2
GEVRADREF
 70
     0
  0
APPID
  2
GENIUS_GENBH_13
 70
     0
  0
APPID
  2
GENIUS_GENOBJ-NBEHI-BHF_13
 70
     0
  0
APPID
  2
GENIUS_GENOBJ-NBEHI-BHB_13
 70
     0
  0
APPID
  2
GENIUS_GENOBJ-F-SCPASSM_13
 70
     0
  0
APPID
  2
GENIUS_GENDIM_13
 70
     0
  0
APPID
  2
GENIUS_GE3DTOL_13
 70
     0
  0
APPID
  2
AD_DRAW
 70
     0
  0
APPID
  2
ASURF_PCURVE_APPNAME
 70
     0
  0
APPID
  2
AMG_3D2D_5_0
 70
     0
  0
APPID
  2
DESIGNERASSEMBLIES
 70
     0
  0
APPID
  2
ACADM_DIM_EDIT
 70
     0
  0
APPID
  2
AMDT_DM_ADJ
 70
     0
  0
APPID
  2
GENIUS_GENFIL_13
 70
     0
  0
APPID
  2
GENIUS_GENOBJ-N-CHA_13
 70
     0
  0
APPID
  2
GEVID1008153417
 70
     0
  0
APPID
  2
GEVID1008153418
 70
     0
  0
APPID
  2
GEVID1008153419
 70
     0
  0
APPID
  2
GEVID1008153420
 70
     0
  0
APPID
  2
GEVID1008153421
 70
     0
  0
APPID
  2
GENIUS_AMGTXT_16
 70
     0
  0
APPID
  2
GENIUS_GENOBJ-N-DIM_13
 70
     0
  0
APPID
  2
ACAD_DSTYLE_DIMARC_LENGTH_
 70
     0
  0
APPID
  2
ACAD_DSTYLE_DIMJOGGED_JOGA
 70
     0
  0
APPID
  2
ACAD_PSEXT
 70
     0
  0
APPID
  2
ACAECLAYERSTANDARD
 70
     0
  0
APPID
  2
ACAD_EXEMPT_FROM_CAD_STAND
 70
     0
  0
APPID
  2
GENIUS_GENCEN_19
 70
     0
  0
APPID
  2
ACAD_MLEADERVER
 70
     0
  0
APPID
  2
ACAD_DSTYLE_DIMINSPECT
 70
     0
  0
APPID
  2
ACAD_DSTYLE_DIMRADIAL_EXTE
 70
     0
  0
APPID
  2
GEVID1311583542
 70
     0
  0
APPID
  2
AMG_2DHIDE
 70
     0
  0
APPID
  2
AMG_2DSTRUCT_BTR
 70
     0
  0
APPID
  2
ACADM_2DVIEW_IGN_NOTIFY
 70
     0
  0
APPID
  2
GEVID1311583543
 70
     0
  0
APPID
  2
GEVID1311583544
 70
     0
  0
APPID
  2
GEVID1311583545
 70
     0
  0
APPID
  2
GEVID1311583546
 70
     0
  0
APPID
  2
GEVID1311583547
 70
     0
  0
APPID
  2
ACAD_NAV_VCDISPLAY
 70
     0
  0
APPID
  2
HC_SUPERPART
 70
     0
  0
APPID
  2
HC_SP4BLOCK
 70
     0
  0
APPID
  2
HC_XDATA_SPRING
 70
     0
  0
APPID
  2
HCCAD_FRAME
 70
     0
  0
APPID
  2
GENIUS_GENOBJ-N-ZOO_13
 70
     0
  0
APPID
  2
GENIUS_GENSYMENT_13
 70
     0
  0
APPID
  2
GENIUS_GENSCSYM_13
 70
     0
  0
APPID
  2
GENIUS_GENOBJ-N-REV_13
 70
     0
  0
APPID
  2
GENIUS_GENOBJ-N-RSSYM_13
 70
     0
  0
APPID
  2
GENIUS_GENREV_15
 70
     0
  0
APPID
  2
HRA
 70
     0
  0
APPID
  2
HTIT
 70
     0
  0
APPID
  2
GENIUS_GENZOO_17
 70
     0
  0
APPID
  2
GENIUS_GENCRS_20
 70
     0
  0
APPID
  2
GENIUS_GENOBJ-N-CRC_13
 70
     0
  0
APPID
  2
GENIUS_GENCRC_14
 70
     0
  0
APPID
  2
GENIUS_GENOBJ-N-DIMLI_13
 70
     0
  0
APPID
  2
GENIUS_GENOBJ-N-FITL_13
 70
     0
  0
APPID
  2
GENIUS_GENFITL_13
 70
     0
  0
APPID
  2
GENLAYCOLOR
 70
     0
  0
APPID
  2
ACAD_DSTYLE_DIMJAG
 70
     0
  0
APPID
  2
ACAD_DSTYLE_DIMBREAK
 70
     0
  0
ENDTAB
  0
TABLE
  2
DIMSTYLE
 70
    41
  0
DIMSTYLE
  2
STANDARD
 70
     0
  3

  4

  5

  6
OPEN30
  7
OPEN30
 40
1.0
 41
3.0
 42
1.0
 43
7.0
 44
2.0
 45
0.0
 46
0.0
 47
0.0
 48
0.0
140
2.799999999999999
141
0.0
142
0.0
143
0.0394
144
1.0
145
0.0
146
1.0
147
0.7
 71
     0
 72
     0
 73
     0
 74
     0
 75
     0
 76
     0
 77
     1
 78
     0
170
     0
171
     4
172
     1
173
     1
174
     0
175
     0
176
     3
177
     3
178
     2
  0
DIMSTYLE
  2
SYS
 70
     0
  3

  4
"
  5

  6

  7

 40
1.0
 41
1.0
 42
1.0
 43
10.0
 44
1.0
 45
0.0
 46
0.0
 47
0.1
 48
0.1
140
3.5
141
0.0
142
0.0
143
0.0393701
144
1.0
145
0.0
146
0.71
147
1.5
 71
     0
 72
     0
 73
     0
 74
     0
 75
     0
 76
     0
 77
     1
 78
     8
170
     0
171
     2
172
     1
173
     0
174
     0
175
     0
176
   256
177
   256
178
     7
  0
DIMSTYLE
  2
SYS$3
 70
     0
  3

  4
"
  5
OPEN30
  6

  7

 40
1.0
 41
2.0
 42
1.0
 43
10.0
 44
1.0
 45
0.0
 46
0.0
 47
0.1
 48
0.1
140
3.2
141
0.0
142
0.0
143
0.0393701
144
1.0
145
0.0
146
0.71
147
1.0
 71
     0
 72
     0
 73
     0
 74
     1
 75
     0
 76
     0
 77
     1
 78
     8
170
     0
171
     2
172
     0
173
     0
174
     0
175
     0
176
   256
177
   256
178
     2
  0
DIMSTYLE
  2
SYS$4
 70
     0
  3

  4
"
  5

  6

  7
OPEN30
 40
1.0
 41
2.0
 42
1.0
 43
10.0
 44
1.0
 45
0.0
 46
0.0
 47
0.1
 48
0.1
140
3.2
141
0.0
142
0.0
143
0.0393701
144
1.0
145
0.0
146
0.71
147
1.0
 71
     0
 72
     0
 73
     0
 74
     1
 75
     0
 76
     0
 77
     1
 78
     8
170
     0
171
     2
172
     0
173
     1
174
     0
175
     0
176
   256
177
   256
178
     2
  0
DIMSTYLE
  2
SYS$6
 70
     0
  3

  4
"
  5

  6

  7

 40
1.0
 41
2.0
 42
1.0
 43
10.0
 44
1.0
 45
0.0
 46
0.0
 47
0.1
 48
0.1
140
3.2
141
0.0
142
0.0
143
0.0393701
144
1.0
145
0.0
146
0.71
147
1.0
 71
     0
 72
     0
 73
     0
 74
     0
 75
     0
 76
     0
 77
     0
 78
     8
170
     0
171
     2
172
     1
173
     0
174
     0
175
     0
176
   256
177
   256
178
     2
  0
DIMSTYLE
  2
SYS$7
 70
     0
  3

  4
"
  5
OPEN30
  6

  7

 40
1.0
 41
2.0
 42
1.0
 43
10.0
 44
1.0
 45
0.0
 46
0.0
 47
0.1
 48
0.1
140
3.2
141
0.0
142
0.0
143
0.0393701
144
1.0
145
0.0
146
0.71
147
1.0
 71
     0
 72
     0
 73
     0
 74
     0
 75
     0
 76
     0
 77
     1
 78
     8
170
     0
171
     2
172
     1
173
     0
174
     0
175
     0
176
   256
177
   256
178
     2
  0
DIMSTYLE
  2
SYS$SF
 70
     0
  3

  4
"
  5
DOT
  6

  7

 40
1.0
 41
2.5
 42
1.0
 43
10.0
 44
1.0
 45
0.0
 46
0.0
 47
0.1
 48
0.1
140
3.2
141
0.0
142
0.0
143
0.0393701
144
1.0
145
0.0
146
0.71
147
1.0
 71
     0
 72
     0
 73
     0
 74
     0
 75
     1
 76
     1
 77
     1
 78
     8
170
     0
171
     2
172
     1
173
     0
174
     0
175
     0
176
   256
177
   256
178
     2
  0
DIMSTYLE
  2
SYS$SH
 70
     0
  3

  4
"
  5

  6
GENAXEH
  7
DOT
 40
1.0
 41
2.5
 42
1.0
 43
10.0
 44
1.0
 45
0.0
 46
0.0
 47
0.1
 48
0.1
140
3.2
141
0.0
142
0.0
143
0.0393701
144
2.0
145
0.0
146
0.71
147
1.0
 71
     0
 72
     0
 73
     0
 74
     0
 75
     1
 76
     1
 77
     1
 78
     8
170
     0
171
     2
172
     1
173
     1
174
     0
175
     0
176
   256
177
   256
178
     2
  0
DIMSTYLE
  2
SYS$2
 70
     0
  3

  4
"
  5
DOT
  6

  7

 40
1.0
 41
1.0
 42
1.0
 43
10.0
 44
1.0
 45
0.0
 46
0.0
 47
0.1
 48
0.1
140
3.2
141
0.0
142
0.0
143
0.0393701
144
1.0
145
0.0
146
0.71
147
1.0
 71
     0
 72
     0
 73
     0
 74
     0
 75
     0
 76
     0
 77
     1
 78
     8
170
     0
171
     2
172
     1
173
     0
174
     0
175
     0
176
   256
177
   256
178
     2
  0
DIMSTYLE
  2
SYS$0
 70
     0
  3

  4
"
  5
DOT
  6

  7

 40
1.0
 41
1.0
 42
1.0
 43
10.0
 44
1.0
 45
0.0
 46
0.0
 47
0.1
 48
0.1
140
3.200000000000001
141
0.0
142
0.0
143
0.0393701
144
1.0
145
0.0
146
0.71
147
1.0
 71
     0
 72
     0
 73
     0
 74
     0
 75
     0
 76
     0
 77
     1
 78
     8
170
     0
171
     2
172
     1
173
     0
174
     0
175
     0
176
   256
177
   256
178
     2
  0
DIMSTYLE
  2
AM_ISO
 70
     0
  3

  4
"
  5

  6

  7

 40
1.0
 41
2.5
 42
1.0
 43
10.0
 44
1.0
 45
0.0
 46
0.0
 47
0.1
 48
0.1
140
3.5
141
0.0
142
0.0
143
0.0393701
144
1.0
145
0.0
146
0.71
147
1.5
 71
     0
 72
     0
 73
     0
 74
     0
 75
     0
 76
     0
 77
     1
 78
     8
170
     0
171
     2
172
     1
173
     0
174
     0
175
     0
176
   256
177
   256
178
     2
  0
DIMSTYLE
  2
AM_ISO$3
 70
     0
  3

  4
"
  5

  6

  7

 40
1.0
 41
2.5
 42
1.0
 43
10.0
 44
1.0
 45
0.0
 46
0.0
 47
0.1
 48
0.1
140
3.5
141
0.0
142
0.0
143
0.0393701
144
1.0
145
0.0
146
0.71
147
1.5
 71
     0
 72
     0
 73
     0
 74
     1
 75
     0
 76
     0
 77
     1
 78
     8
170
     0
171
     2
172
     0
173
     0
174
     0
175
     0
176
   256
177
   256
178
     2
  0
DIMSTYLE
  2
AM_ISO$4
 70
     0
  3

  4
"
  5

  6

  7

 40
1.0
 41
2.5
 42
1.0
 43
10.0
 44
1.0
 45
0.0
 46
0.0
 47
0.1
 48
0.1
140
3.5
141
0.0
142
0.0
143
0.0393701
144
1.0
145
0.0
146
0.71
147
1.5
 71
     0
 72
     0
 73
     0
 74
     1
 75
     0
 76
     0
 77
     1
 78
     8
170
     0
171
     2
172
     0
173
     0
174
     0
175
     0
176
   256
177
   256
178
     2
  0
DIMSTYLE
  2
AM_ISO$6
 70
     0
  3

  4
"
  5

  6

  7

 40
1.0
 41
2.5
 42
1.0
 43
10.0
 44
1.0
 45
0.0
 46
0.0
 47
0.1
 48
0.1
140
3.5
141
0.0
142
0.0
143
0.0393701
144
1.0
145
0.0
146
0.71
147
1.5
 71
     0
 72
     0
 73
     0
 74
     0
 75
     0
 76
     0
 77
     0
 78
     8
170
     0
171
     2
172
     1
173
     0
174
     0
175
     0
176
   256
177
   256
178
     2
  0
DIMSTYLE
  2
AM_ISO$7
 70
     0
  3

  4
"
  5

  6

  7

 40
1.0
 41
2.5
 42
1.0
 43
10.0
 44
1.0
 45
0.0
 46
0.0
 47
0.1
 48
0.1
140
5.0
141
0.0
142
0.0
143
0.0393701
144
1.0
145
0.0
146
0.71
147
1.5
 71
     0
 72
     0
 73
     0
 74
     0
 75
     0
 76
     0
 77
     1
 78
     8
170
     0
171
     2
172
     1
173
     0
174
     0
175
     0
176
   256
177
   256
178
     2
  0
DIMSTYLE
  2
AM_ISO$SF
 70
     0
  3

  4
"
  5

  6

  7

 40
1.0
 41
2.5
 42
1.0
 43
10.0
 44
1.0
 45
0.0
 46
0.0
 47
0.1
 48
0.1
140
3.5
141
0.0
142
0.0
143
0.0393701
144
1.0
145
0.0
146
0.71
147
1.5
 71
     0
 72
     0
 73
     0
 74
     0
 75
     1
 76
     1
 77
     1
 78
     8
170
     0
171
     2
172
     1
173
     0
174
     0
175
     0
176
   256
177
   256
178
     2
  0
DIMSTYLE
  2
AM_ISO$SH
 70
     0
  3

  4
"
  5

  6
GENAXEH
  7

 40
1.0
 41
2.5
 42
1.0
 43
10.0
 44
1.0
 45
0.0
 46
0.0
 47
0.1
 48
0.1
140
3.5
141
0.0
142
0.0
143
0.0393701
144
2.0
145
0.0
146
0.71
147
1.5
 71
     0
 72
     0
 73
     0
 74
     0
 75
     1
 76
     1
 77
     1
 78
     8
170
     0
171
     2
172
     1
173
     1
174
     0
175
     0
176
   256
177
   256
178
     2
  0
DIMSTYLE
  2
AM_ANSI
 70
     0
  3

  4
mm
  5

  6

  7

 40
1.0
 41
0.1
 42
0.05
 43
0.5
 44
0.1
 45
0.0
 46
0.0
 47
0.1
 48
0.1
140
0.12
141
0.0
142
0.0
143
25.4
144
1.0
145
0.0
146
0.71
147
0.06
 71
     0
 72
     0
 73
     1
 74
     1
 75
     0
 76
     0
 77
     0
 78
     7
170
     0
171
     2
172
     0
173
     0
174
     0
175
     0
176
   256
177
   256
178
     2
  0
DIMSTYLE
  2
AM_ISO$0
 70
     0
  3

  4
"
  5
DOT
  6

  7

 40
1.0
 41
0.8
 42
1.0
 43
10.0
 44
1.0
 45
0.0
 46
0.0
 47
0.1
 48
0.1
140
3.2
141
0.0
142
0.0
143
0.0393701
144
1.0
145
0.0
146
0.71
147
0.9999999999999996
 71
     0
 72
     0
 73
     0
 74
     0
 75
     0
 76
     0
 77
     1
 78
     8
170
     0
171
     2
172
     1
173
     0
174
     0
175
     0
176
   256
177
   256
178
     2
  0
DIMSTYLE
  2
AM_ISO$2
 70
     0
  3

  4
"
  5
DOT
  6

  7

 40
1.0
 41
0.8
 42
1.0
 43
10.0
 44
1.0
 45
0.0
 46
0.0
 47
0.1
 48
0.1
140
3.200000000000001
141
0.0
142
0.0
143
0.0393701
144
1.0
145
0.0
146
0.71
147
0.9999999999999996
 71
     0
 72
     0
 73
     0
 74
     0
 75
     0
 76
     0
 77
     3
 78
     8
170
     0
171
     2
172
     1
173
     0
174
     0
175
     0
176
   256
177
   256
178
     2
  0
DIMSTYLE
  2
AM_ANSI$3
 70
     0
  3

  4
mm
  5

  6

  7

 40
1.0
 41
0.1
 42
0.05
 43
0.5
 44
0.1
 45
0.0
 46
0.0
 47
0.1
 48
0.1
140
0.12
141
0.0
142
0.0
143
25.4
144
1.0
145
0.0
146
0.71
147
0.06
 71
     0
 72
     0
 73
     1
 74
     1
 75
     0
 76
     0
 77
     0
 78
     7
170
     0
171
     2
172
     0
173
     0
174
     0
175
     0
176
   256
177
   256
178
     2
  0
DIMSTYLE
  2
AM_ANSI$4
 70
     0
  3

  4
mm
  5

  6

  7

 40
1.0
 41
0.1
 42
0.05
 43
0.5
 44
0.1
 45
0.0
 46
0.0
 47
0.1
 48
0.1
140
0.12
141
0.0
142
0.0
143
25.4
144
1.0
145
0.0
146
0.71
147
0.06
 71
     0
 72
     0
 73
     1
 74
     1
 75
     0
 76
     0
 77
     0
 78
     7
170
     0
171
     2
172
     0
173
     0
174
     0
175
     0
176
   256
177
   256
178
     2
  0
DIMSTYLE
  2
AM_ANSI$7
 70
     0
  3

  4
mm
  5

  6

  7

 40
1.0
 41
0.1
 42
0.05
 43
0.5
 44
0.1
 45
0.0
 46
0.0
 47
0.1
 48
0.1
140
0.24
141
0.0
142
0.0
143
25.4
144
1.0
145
0.0
146
0.71
147
0.06
 71
     0
 72
     0
 73
     1
 74
     1
 75
     0
 76
     0
 77
     0
 78
     7
170
     0
171
     2
172
     0
173
     0
174
     0
175
     0
176
   256
177
   256
178
     2
  0
DIMSTYLE
  2
AM_ANSI$SF
 70
     0
  3

  4
mm
  5

  6

  7

 40
1.0
 41
0.1
 42
0.05
 43
0.5
 44
0.1
 45
0.0
 46
0.0
 47
0.1
 48
0.1
140
0.12
141
0.0
142
0.0
143
25.4
144
1.0
145
0.0
146
0.71
147
0.06
 71
     0
 72
     0
 73
     1
 74
     1
 75
     1
 76
     1
 77
     0
 78
     7
170
     0
171
     2
172
     0
173
     0
174
     0
175
     0
176
   256
177
   256
178
     2
  0
DIMSTYLE
  2
AM_ANSI$SH
 70
     0
  3

  4
mm
  5

  6
GENAXEH
  7

 40
1.0
 41
0.1
 42
0.05
 43
0.5
 44
0.1
 45
0.0
 46
0.0
 47
0.1
 48
0.1
140
0.12
141
0.0
142
0.0
143
25.4
144
1.0
145
0.0
146
0.71
147
0.06
 71
     0
 72
     0
 73
     1
 74
     1
 75
     1
 76
     1
 77
     0
 78
     7
170
     0
171
     2
172
     0
173
     1
174
     0
175
     0
176
   256
177
   256
178
     2
  0
DIMSTYLE
  2
STANDARD$3
 70
     0
  3

  4
"
  5
OPEN
  6

  7

 40
1.0
 41
2.0
 42
1.0
 43
10.0
 44
1.0
 45
0.0
 46
0.0
 47
0.1
 48
0.1
140
3.5
141
0.0
142
0.0
143
0.0393701
144
1.0
145
0.0
146
0.71
147
1.5
 71
     0
 72
     0
 73
     0
 74
     1
 75
     0
 76
     0
 77
     3
 78
     8
170
     0
171
     2
172
     0
173
     0
174
     0
175
     0
176
   256
177
   256
178
     1
  0
DIMSTYLE
  2
STANDARD$4
 70
     0
  3

  4
"
  5

  6
OPEN30
  7
OPEN
 40
1.0
 41
2.0
 42
1.0
 43
10.0
 44
1.0
 45
0.0
 46
0.0
 47
0.1
 48
0.1
140
3.5
141
0.0
142
0.0
143
0.0393701
144
1.0
145
0.0
146
0.71
147
1.5
 71
     0
 72
     0
 73
     0
 74
     1
 75
     0
 76
     0
 77
     3
 78
     8
170
     0
171
     2
172
     0
173
     1
174
     0
175
     0
176
   256
177
   256
178
     1
  0
DIMSTYLE
  2
STANDARD$6
 70
     0
  3

  4
"
  5
OPEN30
  6

  7

 40
1.0
 41
2.0
 42
1.0
 43
10.0
 44
1.0
 45
0.0
 46
0.0
 47
0.1
 48
0.1
140
3.5
141
0.0
142
0.0
143
0.0393701
144
1.0
145
0.0
146
0.71
147
1.5
 71
     0
 72
     0
 73
     0
 74
     0
 75
     0
 76
     0
 77
     0
 78
     8
170
     0
171
     2
172
     1
173
     0
174
     0
175
     0
176
   256
177
   256
178
     1
  0
DIMSTYLE
  2
STANDARD$7
 70
     0
  3

  4
"
  5
OPEN
  6

  7

 40
1.0
 41
2.0
 42
1.0
 43
10.0
 44
1.0
 45
0.0
 46
0.0
 47
0.1
 48
0.1
140
5.0
141
0.0
142
0.0
143
0.0393701
144
1.0
145
0.0
146
0.71
147
1.5
 71
     0
 72
     0
 73
     0
 74
     0
 75
     0
 76
     0
 77
     3
 78
     8
170
     0
171
     2
172
     1
173
     0
174
     0
175
     0
176
   256
177
   256
178
     1
  0
DIMSTYLE
  2
STANDARD$SF
 70
     0
  3

  4
"
  5
OPEN
  6

  7

 40
1.0
 41
2.0
 42
1.0
 43
10.0
 44
1.0
 45
0.0
 46
0.0
 47
0.1
 48
0.1
140
3.5
141
0.0
142
0.0
143
0.0393701
144
1.0
145
0.0
146
0.71
147
1.5
 71
     0
 72
     0
 73
     0
 74
     0
 75
     1
 76
     1
 77
     3
 78
     8
170
     0
171
     2
172
     1
173
     0
174
     0
175
     0
176
   256
177
   256
178
     1
  0
DIMSTYLE
  2
STANDARD$SH
 70
     0
  3

  4
"
  5

  6
GENAXEH
  7
OPEN
 40
1.0
 41
2.0
 42
1.0
 43
10.0
 44
1.0
 45
0.0
 46
0.0
 47
0.1
 48
0.1
140
3.5
141
0.0
142
0.0
143
0.0393701
144
2.0
145
0.0
146
0.71
147
1.5
 71
     0
 72
     0
 73
     0
 74
     0
 75
     1
 76
     1
 77
     3
 78
     8
170
     0
171
     2
172
     1
173
     1
174
     0
175
     0
176
   256
177
   256
178
     1
  0
DIMSTYLE
  2
STANDARD$2
 70
     0
  3

  4
"
  5
OPEN
  6

  7

 40
1.0
 41
2.0
 42
1.0
 43
10.0
 44
1.0
 45
0.0
 46
0.0
 47
0.1
 48
0.1
140
3.5
141
0.0
142
0.0
143
0.0393701
144
1.0
145
0.0
146
0.71
147
1.5
 71
     0
 72
     0
 73
     0
 74
     0
 75
     0
 76
     0
 77
     3
 78
     8
170
     0
171
     2
172
     1
173
     0
174
     0
175
     0
176
   256
177
   256
178
     1
  0
DIMSTYLE
  2
STANDARD$0
 70
     0
  3

  4
"
  5
OPEN
  6

  7

 40
1.0
 41
2.0
 42
1.0
 43
10.0
 44
1.0
 45
0.0
 46
0.0
 47
0.1
 48
0.1
140
3.5
141
0.0
142
0.0
143
0.0393701
144
1.0
145
0.0
146
0.71
147
1.5
 71
     0
 72
     0
 73
     0
 74
     0
 75
     0
 76
     0
 77
     3
 78
     8
170
     0
171
     2
172
     1
173
     0
174
     0
175
     0
176
   256
177
   256
178
     1
  0
DIMSTYLE
  2
SYSORG1P33$0
 70
     0
  3

  4
"
  5
DOT
  6

  7

 40
1.0
 41
1.0
 42
1.5
 43
10.0
 44
1.0
 45
0.0
 46
0.0
 47
0.1
 48
0.1
140
3.2
141
0.0
142
0.0
143
0.0393701
144
1.333333865230364
145
0.0
146
0.71
147
1.5
 71
     0
 72
     0
 73
     0
 74
     0
 75
     0
 76
     0
 77
     1
 78
     8
170
     0
171
     2
172
     1
173
     0
174
     0
175
     0
176
   256
177
   256
178
     2
  0
DIMSTYLE
  2
AM_JIS
 70
     0
  3

  4
"
  5
OPEN30
  6
OPEN30
  7
OPEN30
 40
1.0
 41
2.5
 42
1.0
 43
10.0
 44
1.0
 45
0.0
 46
0.0
 47
0.1
 48
0.1
140
3.5
141
0.0
142
0.0
143
0.0393701
144
1.0
145
0.0
146
0.71
147
1.5
 71
     0
 72
     0
 73
     0
 74
     0
 75
     0
 76
     0
 77
     3
 78
     8
170
     0
171
     2
172
     1
173
     0
174
     0
175
     0
176
   256
177
   256
178
     2
  0
DIMSTYLE
  2
AM_JIS$3
 70
     0
  3

  4
"
  5
OPEN30
  6
OPEN30
  7
OPEN30
 40
1.0
 41
2.5
 42
1.0
 43
10.0
 44
1.0
 45
0.0
 46
0.0
 47
0.1
 48
0.1
140
3.5
141
0.0
142
0.0
143
0.0393701
144
1.0
145
0.0
146
0.71
147
1.5
 71
     0
 72
     0
 73
     0
 74
     1
 75
     0
 76
     0
 77
     3
 78
     8
170
     0
171
     2
172
     0
173
     0
174
     0
175
     0
176
   256
177
   256
178
     2
  0
DIMSTYLE
  2
AM_JIS$4
 70
     0
  3

  4
"
  5
OPEN30
  6
OPEN30
  7
OPEN30
 40
1.0
 41
2.5
 42
1.0
 43
10.0
 44
1.0
 45
0.0
 46
0.0
 47
0.1
 48
0.1
140
3.5
141
0.0
142
0.0
143
0.0393701
144
1.0
145
0.0
146
0.71
147
1.5
 71
     0
 72
     0
 73
     0
 74
     0
 75
     0
 76
     0
 77
     3
 78
     8
170
     0
171
     2
172
     1
173
     0
174
     0
175
     0
176
   256
177
   256
178
     2
  0
DIMSTYLE
  2
AM_JIS$6
 70
     0
  3

  4
"
  5
OPEN30
  6
OPEN30
  7
OPEN30
 40
1.0
 41
2.5
 42
1.0
 43
10.0
 44
1.0
 45
0.0
 46
0.0
 47
0.1
 48
0.1
140
3.5
141
0.0
142
0.0
143
0.0393701
144
1.0
145
0.0
146
0.71
147
1.5
 71
     0
 72
     0
 73
     0
 74
     0
 75
     0
 76
     0
 77
     0
 78
     8
170
     0
171
     2
172
     1
173
     0
174
     0
175
     0
176
   256
177
   256
178
     2
  0
DIMSTYLE
  2
AM_JIS$7
 70
     0
  3

  4
"
  5
OPEN30
  6
OPEN30
  7
OPEN30
 40
1.0
 41
2.5
 42
1.0
 43
10.0
 44
1.0
 45
0.0
 46
0.0
 47
0.1
 48
0.1
140
3.5
141
0.0
142
0.0
143
0.0393701
144
1.0
145
0.0
146
0.71
147
1.5
 71
     0
 72
     0
 73
     0
 74
     0
 75
     0
 76
     0
 77
     3
 78
     8
170
     0
171
     2
172
     1
173
     0
174
     0
175
     0
176
   256
177
   256
178
     2
  0
DIMSTYLE
  2
AM_JIS$SF
 70
     0
  3

  4
"
  5
OPEN30
  6
OPEN30
  7
OPEN30
 40
1.0
 41
2.5
 42
1.0
 43
10.0
 44
1.0
 45
0.0
 46
0.0
 47
0.1
 48
0.1
140
3.5
141
0.0
142
0.0
143
0.0393701
144
1.0
145
0.0
146
0.71
147
1.5
 71
     0
 72
     0
 73
     0
 74
     0
 75
     1
 76
     1
 77
     3
 78
     8
170
     0
171
     2
172
     1
173
     0
174
     0
175
     0
176
   256
177
   256
178
     2
  0
DIMSTYLE
  2
AM_JIS$SH
 70
     0
  3

  4
"
  5
OPEN30
  6
GENAXEH
  7
OPEN30
 40
1.0
 41
2.5
 42
1.0
 43
10.0
 44
1.0
 45
0.0
 46
0.0
 47
0.1
 48
0.1
140
3.5
141
0.0
142
0.0
143
0.0393701
144
2.0
145
0.0
146
0.71
147
1.5
 71
     0
 72
     0
 73
     0
 74
     0
 75
     1
 76
     1
 77
     3
 78
     8
170
     0
171
     2
172
     1
173
     1
174
     0
175
     0
176
   256
177
   256
178
     2
  0
ENDTAB
  0
ENDSEC
  0
SECTION
  2
BLOCKS
  0
BLOCK
  8
0
  2
$MODEL_SPACE
 70
     0
 10
0.0
 20
0.0
 30
0.0
  3
$MODEL_SPACE
  1

  0
ENDBLK
  5
21
  8
0
  0
BLOCK
 67
     1
  8
0
  2
$PAPER_SPACE
 70
     0
 10
0.0
 20
0.0
 30
0.0
  3
$PAPER_SPACE
  1

  0
ENDBLK
  5
1D
 67
     1
  8
0
  0
BLOCK
  8
0
  2
GENAXEH
 70
     0
 10
0.0
 20
0.0
 30
0.0
  3
GENAXEH
  1

  0
LINE
  5
73
  8
0
 10
-1.0
 20
0.0
 30
0.0
 11
1.0
 21
0.0
 31
0.0
  0
ENDBLK
  5
75
  8
0
  0
BLOCK
  8
0
  2
_DOT
 70
     0
 10
0.0
 20
0.0
 30
0.0
  3
_DOT
  1

  0
POLYLINE
  5
6C5
  8
0
  6
BYBLOCK
 62
     0
 66
     1
 10
0.0
 20
0.0
 30
0.0
 70
     1
 40
0.5
 41
0.5
  0
VERTEX
  5
47393
  8
0
  6
BYBLOCK
 62
     0
 10
-0.25
 20
0.0
 30
0.0
 42
1.0
  0
VERTEX
  5
47394
  8
0
  6
BYBLOCK
 62
     0
 10
0.25
 20
0.0
 30
0.0
 42
1.0
  0
SEQEND
  5
4739D
  8
0
  6
BYBLOCK
 62
     0
  0
LINE
  5
6C6
  8
0
  6
BYBLOCK
 62
     0
 10
-0.5
 20
0.0
 30
0.0
 11
-1.0
 21
0.0
 31
0.0
  0
ENDBLK
  5
6C8
  8
0
  0
BLOCK
  8
0
  2
_OPEN30
 70
     0
 10
0.0
 20
0.0
 30
0.0
  3
_OPEN30
  1

  0
LINE
  5
A67
  8
0
  6
BYBLOCK
 62
     0
 10
-1.0
 20
0.26794919
 30
0.0
 11
0.0
 21
0.0
 31
0.0
  0
LINE
  5
A68
  8
0
  6
BYBLOCK
 62
     0
 10
0.0
 20
0.0
 30
0.0
 11
-1.0
 21
-0.26794919
 31
0.0
  0
LINE
  5
A69
  8
0
  6
BYBLOCK
 62
     0
 10
0.0
 20
0.0
 30
0.0
 11
-1.0
 21
0.0
 31
0.0
  0
ENDBLK
  5
A6B
  8
0
  0
BLOCK
  8
0
  2
_OPEN
 70
     0
 10
0.0
 20
0.0
 30
0.0
  3
_OPEN
  1

  0
LINE
  5
22CCE
  8
0
  6
BYBLOCK
 62
     0
 10
-1.0
 20
0.1666666666666666
 30
0.0
 11
0.0
 21
0.0
 31
0.0
  0
LINE
  5
22CCF
  8
0
  6
BYBLOCK
 62
     0
 10
-1.0
 20
-0.1666666666666666
 30
0.0
 11
0.0
 21
0.0
 31
0.0
  0
LINE
  5
22CD0
  8
0
  6
BYBLOCK
 62
     0
 10
0.0
 20
0.0
 30
0.0
 11
-1.0
 21
0.0
 31
0.0
  0
ENDBLK
  5
22CD1
  8
0
  0
BLOCK
  8
0
  2
*D5
 70
     1
 10
0.0
 20
0.0
 30
0.0
  3
*D5
  1

  0
LINE
  5
461D7
  8
AM_5
 10
1426.933424559635
 20
-2496.945985347937
 30
0.0
 11
1432.933424559635
 21
-2496.945985347937
 31
0.0
  0
LINE
  5
461D8
  8
AM_5
 10
1426.933424559635
 20
-2536.946058590122
 30
0.0
 11
1432.933424559635
 21
-2536.946058590122
 31
0.0
  0
LINE
  5
461D9
  8
AM_5
 10
1431.933424559635
 20
-2497.945985347937
 30
0.0
 11
1431.933424559635
 21
-2535.946058590122
 31
0.0
  0
INSERT
  5
461DA
  8
AM_5
  2
_DOT
 10
1431.933424559635
 20
-2496.945985347937
 30
0.0
 50
90.0
  0
INSERT
  5
461DB
  8
AM_5
  2
_DOT
 10
1431.933424559635
 20
-2536.946058590122
 30
0.0
 50
270.0
  0
TEXT
  5
461DC
  8
AM_5
 62
     2
 10
1430.933424559636
 20
-2518.812688635697
 30
0.0
 40
3.200000000000001
  1
Dt
 50
90.0
 41
0.7
  0
POINT
  5
461DD
  8
DEFPOINTS
 62
     0
 10
1425.933424559635
 20
-2496.945985347937
 30
0.0
  0
POINT
  5
461DE
  8
DEFPOINTS
 62
     0
 10
1425.933424559635
 20
-2536.946058590122
 30
0.0
  0
POINT
  5
461DF
  8
DEFPOINTS
 62
     0
 10
1431.933424559635
 20
-2536.946058590122
 30
0.0
  0
ENDBLK
  5
44B12
  8
0
  0
BLOCK
  8
0
  2
*D6
 70
     1
 10
0.0
 20
0.0
 30
0.0
  3
*D6
  1

  0
LINE
  5
461E0
  8
AM_5
 10
1228.441663362683
 20
-2529.94602196903
 30
0.0
 11
1228.441663362683
 21
-2538.44602196903
 31
0.0
  0
LINE
  5
461E1
  8
AM_5
 10
1250.441632845101
 20
-2530.44602196903
 30
0.0
 11
1250.441632845101
 21
-2538.44602196903
 31
0.0
  0
LINE
  5
461E2
  8
AM_5
 10
1229.441663362683
 20
-2537.44602196903
 30
0.0
 11
1249.441632845101
 21
-2537.44602196903
 31
0.0
  0
INSERT
  5
461E3
  8
AM_5
  2
_DOT
 10
1228.441663362683
 20
-2537.44602196903
 30
0.0
 50
180.0
  0
INSERT
  5
461E4
  8
AM_5
  2
_DOT
 10
1250.441632845101
 20
-2537.44602196903
 30
0.0
  0
TEXT
  5
461E5
  8
AM_5
 62
     2
 10
1237.308314770559
 20
-2536.44602196903
 30
0.0
 40
3.200000000000001
  1
22
 41
0.7
  0
POINT
  5
461E6
  8
DEFPOINTS
 62
     0
 10
1228.441663362683
 20
-2528.94602196903
 30
0.0
  0
POINT
  5
461E7
  8
DEFPOINTS
 62
     0
 10
1250.441632845101
 20
-2529.44602196903
 30
0.0
  0
POINT
  5
461E8
  8
DEFPOINTS
 62
     0
 10
1250.441632845101
 20
-2537.44602196903
 30
0.0
  0
ENDBLK
  5
44B1E
  8
0
  0
BLOCK
  8
0
  2
*D7
 70
     1
 10
0.0
 20
0.0
 30
0.0
  3
*D7
  1

  0
LINE
  5
461E9
  8
AM_5
 10
1254.4416328451
 20
-2516.94602196903
 30
0.0
 11
1259.4416328451
 21
-2516.94602196903
 31
0.0
  0
LINE
  5
461EA
  8
AM_5
 10
1251.441632845101
 20
-2529.44602196903
 30
0.0
 11
1259.4416328451
 21
-2529.44602196903
 31
0.0
  0
LINE
  5
461EB
  8
AM_5
 10
1258.4416328451
 20
-2517.946021969029
 30
0.0
 11
1258.4416328451
 21
-2528.44602196903
 31
0.0
  0
INSERT
  5
461EC
  8
AM_5
  2
_DOT
 10
1258.4416328451
 20
-2516.94602196903
 30
0.0
 50
90.0
  0
INSERT
  5
461ED
  8
AM_5
  2
_DOT
 10
1258.4416328451
 20
-2529.44602196903
 30
0.0
 50
270.0
  0
TEXT
  5
461EE
  8
AM_5
 62
     2
 10
1257.441632845101
 20
-2527.089355302363
 30
0.0
 40
3.200000000000001
  1
12.5
 50
90.0
 41
0.7
  0
POINT
  5
461EF
  8
DEFPOINTS
 62
     0
 10
1253.441632845101
 20
-2516.94602196903
 30
0.0
  0
POINT
  5
461F0
  8
DEFPOINTS
 62
     0
 10
1250.441632845101
 20
-2529.44602196903
 30
0.0
  0
POINT
  5
461F1
  8
DEFPOINTS
 62
     0
 10
1258.4416328451
 20
-2529.44602196903
 30
0.0
  0
ENDBLK
  5
44B2A
  8
0
  0
BLOCK
  8
0
  2
*D8
 70
     1
 10
0.0
 20
0.0
 30
0.0
  3
*D8
  1

  0
LINE
  5
461F2
  8
AM_5
 10
1254.4416328451
 20
-2516.94602196903
 30
0.0
 11
1259.4416328451
 21
-2516.94602196903
 31
0.0
  0
LINE
  5
461F3
  8
AM_5
 10
1250.307630159554
 20
-2492.946062659136
 30
0.0
 11
1259.4416328451
 21
-2492.946062659136
 31
0.0
  0
LINE
  5
461F4
  8
AM_5
 10
1258.4416328451
 20
-2515.94602196903
 30
0.0
 11
1258.4416328451
 21
-2493.946062659136
 31
0.0
  0
INSERT
  5
461F5
  8
AM_5
  2
_DOT
 10
1258.4416328451
 20
-2516.94602196903
 30
0.0
 50
270.0
  0
INSERT
  5
461F6
  8
AM_5
  2
_DOT
 10
1258.4416328451
 20
-2492.946062659136
 30
0.0
 50
90.0
  0
TEXT
  5
461F7
  8
AM_5
 62
     2
 10
1257.441632845101
 20
-2506.01270898075
 30
0.0
 40
3.200000000000001
  1
L
 50
90.0
 41
0.7
  0
POINT
  5
461F8
  8
DEFPOINTS
 62
     0
 10
1253.441632845101
 20
-2516.94602196903
 30
0.0
  0
POINT
  5
461F9
  8
DEFPOINTS
 62
     0
 10
1249.307630159554
 20
-2492.946062659136
 30
0.0
  0
POINT
  5
461FA
  8
DEFPOINTS
 62
     0
 10
1258.4416328451
 20
-2492.946062659136
 30
0.0
  0
ENDBLK
  5
44B36
  8
0
  0
BLOCK
  8
0
  2
*D9
 70
     1
 10
0.0
 20
0.0
 30
0.0
  3
*D9
  1

  0
LINE
  5
461FB
  8
AM_5
 10
1414.933424559636
 20
-2596.487522751751
 30
0.0
 11
1432.933424559635
 21
-2596.487522751751
 31
0.0
  0
LINE
  5
461FC
  8
AM_5
 10
1414.933424559636
 20
-2729.487522751751
 30
0.0
 11
1432.933424559635
 21
-2729.487522751751
 31
0.0
  0
LINE
  5
461FD
  8
AM_5
 10
1431.933424559635
 20
-2597.487522751751
 30
0.0
 11
1431.933424559635
 21
-2728.487522751751
 31
0.0
  0
INSERT
  5
461FE
  8
AM_5
  2
_DOT
 10
1431.933424559635
 20
-2596.487522751751
 30
0.0
 50
90.0
  0
INSERT
  5
461FF
  8
AM_5
  2
_DOT
 10
1431.933424559635
 20
-2729.487522751751
 30
0.0
 50
270.0
  0
TEXT
  5
46200
  8
AM_5
 62
     2
 10
1430.933424559636
 20
-2666.347522751751
 30
0.0
 40
3.200000000000001
  1
133
 50
90.0
 41
0.7
  0
POINT
  5
46201
  8
DEFPOINTS
 62
     0
 10
1413.933424559636
 20
-2596.487522751751
 30
0.0
  0
POINT
  5
46202
  8
DEFPOINTS
 62
     0
 10
1413.933424559636
 20
-2729.487522751751
 30
0.0
  0
POINT
  5
46203
  8
DEFPOINTS
 62
     0
 10
1431.933424559635
 20
-2729.487522751751
 30
0.0
  0
ENDBLK
  5
44B42
  8
0
  0
BLOCK
  8
0
  2
*D10
 70
     1
 10
0.0
 20
0.0
 30
0.0
  3
*D10
  1

  0
LINE
  5
46204
  8
AM_5
 10
1308.933444904686
 20
-2610.387522751752
 30
0.0
 11
1308.933444904686
 21
-2664.387522751753
 31
0.0
  0
INSERT
  5
46205
  8
AM_5
  2
_DOT
 10
1308.933444904686
 20
-2609.387522751753
 30
0.0
 50
90.0
  0
INSERT
  5
46206
  8
AM_5
  2
_DOT
 10
1308.933444904686
 20
-2665.387522751752
 30
0.0
 50
270.0
  0
TEXT
  5
46207
  8
AM_5
 62
     2
 10
1307.433444904687
 20
-2628.486121546729
 30
0.0
 40
3.2
  1
56
 50
90.0
 41
0.7
  0
POINT
  5
46208
  8
DEFPOINTS
 62
     0
 10
1296.933444904686
 20
-2609.387522751753
 30
0.0
  0
POINT
  5
46209
  8
DEFPOINTS
 62
     0
 10
1296.933444904686
 20
-2665.387522751752
 30
0.0
  0
POINT
  5
4620A
  8
DEFPOINTS
 62
     0
 10
1308.933444904686
 20
-2665.387522751752
 30
0.0
  0
ENDBLK
  5
44B4C
  8
0
  0
BLOCK
  8
0
  2
*D11
 70
     1
 10
0.0
 20
0.0
 30
0.0
  3
*D11
  1

  0
LINE
  5
4620B
  8
AM_5
 10
1296.933444904686
 20
-2496.545985347938
 30
0.0
 11
1296.933444904686
 21
-2482.445985347936
 31
0.0
  0
LINE
  5
4620C
  8
AM_5
 10
1300.933444904687
 20
-2503.546017900017
 30
0.0
 11
1300.933444904687
 21
-2482.445985347936
 31
0.0
  0
LINE
  5
4620D
  8
AM_5
 10
1297.933444904687
 20
-2483.445985347936
 30
0.0
 11
1299.933444904687
 21
-2483.445985347936
 31
0.0
  0
INSERT
  5
4620E
  8
AM_5
  2
_DOT
 10
1296.933444904686
 20
-2483.445985347936
 30
0.0
 50
180.0
  0
INSERT
  5
4620F
  8
AM_5
  2
_DOT
 10
1300.933444904687
 20
-2483.445985347936
 30
0.0
  0
TEXT
  5
46210
  8
AM_5
 62
     2
 10
1297.636440518006
 20
-2482.445985347936
 30
0.0
 40
3.200000000000001
  1
4
 41
0.7
  0
POINT
  5
46211
  8
DEFPOINTS
 62
     0
 10
1296.933444904686
 20
-2497.545985347938
 30
0.0
  0
POINT
  5
46212
  8
DEFPOINTS
 62
     0
 10
1300.933444904687
 20
-2504.546017900017
 30
0.0
  0
POINT
  5
46213
  8
DEFPOINTS
 62
     0
 10
1300.933444904687
 20
-2483.445985347936
 30
0.0
  0
ENDBLK
  5
44B59
  8
0
  0
BLOCK
  8
0
  2
*D12
 70
     1
 10
0.0
 20
0.0
 30
0.0
  3
*D12
  1

  0
LINE
  5
46214
  8
AM_5
 10
1292.933444904686
 20
-2597.387522751752
 30
0.0
 11
1276.433444904686
 21
-2597.387522751752
 31
0.0
  0
LINE
  5
46215
  8
AM_5
 10
1292.933444904686
 20
-2677.387522751752
 30
0.0
 11
1276.433444904686
 21
-2677.387522751752
 31
0.0
  0
LINE
  5
46216
  8
AM_5
 10
1277.433444904686
 20
-2598.387522751753
 30
0.0
 11
1277.433444904686
 21
-2676.387522751753
 31
0.0
  0
INSERT
  5
46217
  8
AM_5
  2
_DOT
 10
1277.433444904686
 20
-2597.387522751752
 30
0.0
 50
90.0
  0
INSERT
  5
46218
  8
AM_5
  2
_DOT
 10
1277.433444904686
 20
-2677.387522751752
 30
0.0
 50
270.0
  0
TEXT
  5
46219
  8
AM_5
 62
     2
 10
1276.433444904686
 20
-2639.520856085085
 30
0.0
 40
3.200000000000001
  1
80
 50
90.0
 41
0.7
  0
POINT
  5
4621A
  8
DEFPOINTS
 62
     0
 10
1293.933444904687
 20
-2597.387522751752
 30
0.0
  0
POINT
  5
4621B
  8
DEFPOINTS
 62
     0
 10
1293.933444904687
 20
-2677.387522751752
 30
0.0
  0
POINT
  5
4621C
  8
DEFPOINTS
 62
     0
 10
1277.433444904686
 20
-2677.387522751752
 30
0.0
  0
ENDBLK
  5
44B65
  8
0
  0
BLOCK
  8
0
  2
*D13
 70
     1
 10
0.0
 20
0.0
 30
0.0
  3
*D13
  1

  0
LINE
  5
4621D
  8
AM_5
 10
1292.933444904686
 20
-2597.387522751752
 30
0.0
 11
1276.433444904686
 21
-2597.387522751752
 31
0.0
  0
LINE
  5
4621E
  8
AM_5
 10
1295.933444904687
 20
-2587.487539027794
 30
0.0
 11
1276.433444904686
 21
-2587.487539027794
 31
0.0
  0
LINE
  5
4621F
  8
AM_5
 10
1277.433444904686
 20
-2596.387522751752
 30
0.0
 11
1277.433444904686
 21
-2588.487539027795
 31
0.0
  0
INSERT
  5
46220
  8
AM_5
  2
_DOT
 10
1277.433444904686
 20
-2597.387522751752
 30
0.0
 50
270.0
  0
INSERT
  5
46221
  8
AM_5
  2
_DOT
 10
1277.433444904686
 20
-2587.487539027794
 30
0.0
 50
90.0
  0
TEXT
  5
46222
  8
AM_5
 62
     2
 10
1276.433444904686
 20
-2594.730864223106
 30
0.0
 40
3.200000000000001
  1
10
 50
90.0
 41
0.7
  0
POINT
  5
46223
  8
DEFPOINTS
 62
     0
 10
1293.933444904687
 20
-2597.387522751752
 30
0.0
  0
POINT
  5
46224
  8
DEFPOINTS
 62
     0
 10
1296.933444904686
 20
-2587.487539027794
 30
0.0
  0
POINT
  5
46225
  8
DEFPOINTS
 62
     0
 10
1277.433444904686
 20
-2587.487539027794
 30
0.0
  0
ENDBLK
  5
44B71
  8
0
  0
BLOCK
  8
0
  2
*D14
 70
     1
 10
0.0
 20
0.0
 30
0.0
  3
*D14
  1

  0
LINE
  5
46226
  8
AM_5
 10
1292.933444904686
 20
-2677.387522751755
 30
0.0
 11
1276.433444904686
 21
-2677.387522751755
 31
0.0
  0
LINE
  5
46227
  8
AM_5
 10
1295.933444904687
 20
-2687.287506475713
 30
0.0
 11
1276.433444904686
 21
-2687.287506475713
 31
0.0
  0
LINE
  5
46228
  8
AM_5
 10
1277.433444904686
 20
-2678.387522751755
 30
0.0
 11
1277.433444904686
 21
-2686.287506475713
 31
0.0
  0
INSERT
  5
46229
  8
AM_5
  2
_DOT
 10
1277.433444904686
 20
-2677.387522751755
 30
0.0
 50
90.0
  0
INSERT
  5
4622A
  8
AM_5
  2
_DOT
 10
1277.433444904686
 20
-2687.287506475713
 30
0.0
 50
270.0
  0
TEXT
  5
4622B
  8
AM_5
 62
     2
 10
1276.433444904686
 20
-2684.630847947068
 30
0.0
 40
3.200000000000001
  1
10
 50
90.0
 41
0.7
  0
POINT
  5
4622C
  8
DEFPOINTS
 62
     0
 10
1293.933444904687
 20
-2677.387522751755
 30
0.0
  0
POINT
  5
4622D
  8
DEFPOINTS
 62
     0
 10
1296.933444904686
 20
-2687.287506475713
 30
0.0
  0
POINT
  5
4622E
  8
DEFPOINTS
 62
     0
 10
1277.433444904686
 20
-2687.287506475713
 30
0.0
  0
ENDBLK
  5
44B7D
  8
0
  0
BLOCK
  8
0
  2
*D15
 70
     1
 10
0.0
 20
0.0
 30
0.0
  3
*D15
  1

  0
LINE
  5
4622F
  8
AM_5
 10
1329.139911917093
 20
-2507.446021969031
 30
0.0
 11
1329.139911917093
 21
-2526.44602196903
 31
0.0
  0
INSERT
  5
46230
  8
AM_5
  2
_DOT
 10
1329.139911917093
 20
-2506.44602196903
 30
0.0
 50
90.0
  0
INSERT
  5
46231
  8
AM_5
  2
_DOT
 10
1329.139911917093
 20
-2527.44602196903
 30
0.0
 50
270.0
  0
TEXT
  5
46232
  8
AM_5
 62
     2
 10
1328.139911917093
 20
-2523.914481599299
 30
0.0
 40
3.200000000000001
  1
22
 50
90.0
 41
0.7
  0
POINT
  5
46233
  8
DEFPOINTS
 62
     0
 10
1324.316219742809
 20
-2506.44602196903
 30
0.0
  0
POINT
  5
46234
  8
DEFPOINTS
 62
     0
 10
1324.316219742809
 20
-2527.44602196903
 30
0.0
  0
POINT
  5
46235
  8
DEFPOINTS
 62
     0
 10
1329.139911917093
 20
-2527.44602196903
 30
0.0
  0
ENDBLK
  5
44B87
  8
0
  0
BLOCK
  8
0
  2
*D16
 70
     1
 10
0.0
 20
0.0
 30
0.0
  3
*D16
  1

  0
LINE
  5
46236
  8
AM_5
 10
1296.933444904687
 20
-2536.346058590123
 30
0.0
 11
1296.933444904687
 21
-2559.446058590123
 31
0.0
  0
LINE
  5
46237
  8
AM_5
 10
1367.933424559635
 20
-2528.44602196903
 30
0.0
 11
1367.933424559635
 21
-2559.446058590123
 31
0.0
  0
LINE
  5
46238
  8
AM_5
 10
1297.933444904687
 20
-2558.446058590123
 30
0.0
 11
1366.933424559635
 21
-2558.446058590123
 31
0.0
  0
INSERT
  5
46239
  8
AM_5
  2
_DOT
 10
1296.933444904687
 20
-2558.446058590123
 30
0.0
 50
180.0
  0
INSERT
  5
4623A
  8
AM_5
  2
_DOT
 10
1367.933424559635
 20
-2558.446058590123
 30
0.0
  0
TEXT
  5
4623B
  8
AM_5
 62
     2
 10
1323.590768065494
 20
-2557.446058590123
 30
0.0
 40
3.200000000000001
  1
ケース奥行72
 41
0.7
  0
POINT
  5
4623C
  8
DEFPOINTS
 62
     0
 10
1296.933444904687
 20
-2535.346058590123
 30
0.0
  0
POINT
  5
4623D
  8
DEFPOINTS
 62
     0
 10
1367.933424559635
 20
-2527.44602196903
 30
0.0
  0
POINT
  5
4623E
  8
DEFPOINTS
 62
     0
 10
1367.933424559635
 20
-2558.446058590123
 30
0.0
  0
ENDBLK
  5
44BAB
  8
0
  0
BLOCK
  8
0
  2
*D17
 70
     1
 10
0.0
 20
0.0
 30
0.0
  3
*D17
  1

  0
LINE
  5
4623F
  8
AM_5
 10
1426.933424559635
 20
-2496.945985347937
 30
0.0
 11
1432.933424559635
 21
-2496.945985347937
 31
0.0
  0
LINE
  5
46240
  8
AM_5
 10
1404.933424559635
 20
-2491.445985347937
 30
0.0
 11
1432.933424559635
 21
-2491.445985347937
 31
0.0
  0
LINE
  5
46241
  8
AM_5
 10
1431.933424559635
 20
-2495.945985347937
 30
0.0
 11
1431.933424559635
 21
-2492.445985347937
 31
0.0
  0
LINE
  5
46242
  8
AM_5
 10
1431.933424559635
 20
-2491.445985347937
 30
0.0
 11
1431.933424559635
 21
-2483.752652014604
 31
0.0
  0
INSERT
  5
46243
  8
AM_5
  2
_DOT
 10
1431.933424559635
 20
-2496.945985347937
 30
0.0
 50
270.0
  0
INSERT
  5
46244
  8
AM_5
  2
_DOT
 10
1431.933424559635
 20
-2491.445985347937
 30
0.0
 50
90.0
  0
TEXT
  5
46245
  8
AM_5
 62
     2
 10
1430.933424559636
 20
-2489.765985347936
 30
0.0
 40
3.200000000000001
  1
5.5
 50
90.0
 41
0.7
  0
POINT
  5
46246
  8
DEFPOINTS
 62
     0
 10
1425.933424559635
 20
-2496.945985347937
 30
0.0
  0
POINT
  5
46247
  8
DEFPOINTS
 62
     0
 10
1403.933424559635
 20
-2491.445985347937
 30
0.0
  0
POINT
  5
46248
  8
DEFPOINTS
 62
     0
 10
1431.933424559635
 20
-2491.445985347937
 30
0.0
  0
ENDBLK
  5
44BB8
  8
0
  0
BLOCK
  8
0
  2
*D18
 70
     1
 10
0.0
 20
0.0
 30
0.0
  3
*D18
  1

  0
LINE
  5
46249
  8
AM_5
 10
1426.933424559635
 20
-2536.946058590123
 30
0.0
 11
1432.933424559635
 21
-2536.946058590123
 31
0.0
  0
LINE
  5
4624A
  8
AM_5
 10
1404.933424559635
 20
-2542.446058590123
 30
0.0
 11
1432.933424559635
 21
-2542.446058590123
 31
0.0
  0
LINE
  5
4624B
  8
AM_5
 10
1431.933424559635
 20
-2537.946058590123
 30
0.0
 11
1431.933424559635
 21
-2541.446058590123
 31
0.0
  0
LINE
  5
4624C
  8
AM_5
 10
1431.933424559635
 20
-2542.446058590123
 30
0.0
 11
1431.933424559635
 21
-2550.139391923457
 31
0.0
  0
INSERT
  5
4624D
  8
AM_5
  2
_DOT
 10
1431.933424559635
 20
-2536.946058590123
 30
0.0
 50
90.0
  0
INSERT
  5
4624E
  8
AM_5
  2
_DOT
 10
1431.933424559635
 20
-2542.446058590123
 30
0.0
 50
270.0
  0
TEXT
  5
4624F
  8
AM_5
 62
     2
 10
1430.933424559636
 20
-2549.459391923457
 30
0.0
 40
3.200000000000001
  1
5.5
 50
90.0
 41
0.7
  0
POINT
  5
46250
  8
DEFPOINTS
 62
     0
 10
1425.933424559635
 20
-2536.946058590123
 30
0.0
  0
POINT
  5
46251
  8
DEFPOINTS
 62
     0
 10
1403.933424559635
 20
-2542.446058590123
 30
0.0
  0
POINT
  5
46252
  8
DEFPOINTS
 62
     0
 10
1431.933424559635
 20
-2542.446058590123
 30
0.0
  0
ENDBLK
  5
44BC5
  8
0
  0
BLOCK
  8
0
  2
*D19
 70
     1
 10
0.0
 20
0.0
 30
0.0
  3
*D19
  1

  0
LINE
  5
46253
  8
AM_5
 10
1301.933444904687
 20
-2504.546017900017
 30
0.0
 11
1319.344087641729
 21
-2504.546017900017
 31
0.0
  0
LINE
  5
46254
  8
AM_5
 10
1301.933444904687
 20
-2529.346026038044
 30
0.0
 11
1319.344087641729
 21
-2529.346026038044
 31
0.0
  0
LINE
  5
46255
  8
AM_5
 10
1318.344087641729
 20
-2505.546017900018
 30
0.0
 11
1318.344087641729
 21
-2528.346026038044
 31
0.0
  0
INSERT
  5
46256
  8
AM_5
  2
_DOT
 10
1318.344087641729
 20
-2504.546017900017
 30
0.0
 50
90.0
  0
INSERT
  5
46257
  8
AM_5
  2
_DOT
 10
1318.344087641729
 20
-2529.346026038044
 30
0.0
 50
270.0
  0
TEXT
  5
46258
  8
AM_5
 62
     2
 10
1317.344087641729
 20
-2524.356063828903
 30
0.0
 40
3.200000000000001
  1
25
 50
90.0
 41
0.7
  0
POINT
  5
46259
  8
DEFPOINTS
 62
     0
 10
1300.933444904687
 20
-2504.546017900017
 30
0.0
  0
POINT
  5
4625A
  8
DEFPOINTS
 62
     0
 10
1300.933444904687
 20
-2529.346026038044
 30
0.0
  0
POINT
  5
4625B
  8
DEFPOINTS
 62
     0
 10
1318.344087641729
 20
-2529.346026038044
 30
0.0
  0
ENDBLK
  5
44BD1
  8
0
  0
BLOCK
  8
0
  2
*D20
 70
     1
 10
0.0
 20
0.0
 30
0.0
  3
*D20
  1

  0
LINE
  5
4625C
  8
AM_5
 10
1228.441632845101
 20
-2602.387522751753
 30
0.0
 11
1219.4416328451
 21
-2602.387522751753
 31
0.0
  0
LINE
  5
4625D
  8
AM_5
 10
1228.441632845101
 20
-2672.387553269333
 30
0.0
 11
1219.4416328451
 21
-2672.387553269333
 31
0.0
  0
LINE
  5
4625E
  8
AM_5
 10
1220.4416328451
 20
-2603.387522751753
 30
0.0
 11
1220.4416328451
 21
-2671.387553269334
 31
0.0
  0
INSERT
  5
4625F
  8
AM_5
  2
_DOT
 10
1220.4416328451
 20
-2602.387522751753
 30
0.0
 50
90.0
  0
INSERT
  5
46260
  8
AM_5
  2
_DOT
 10
1220.4416328451
 20
-2672.387553269333
 30
0.0
 50
270.0
  0
TEXT
  5
46261
  8
AM_5
 62
     2
 10
1218.941632845101
 20
-2639.520871343876
 30
0.0
 40
3.2
  1
70
 50
90.0
 41
0.7
  0
POINT
  5
46262
  8
DEFPOINTS
 62
     0
 10
1229.941632845101
 20
-2602.387522751753
 30
0.0
  0
POINT
  5
46263
  8
DEFPOINTS
 62
     0
 10
1229.941632845101
 20
-2672.387553269333
 30
0.0
  0
POINT
  5
46264
  8
DEFPOINTS
 62
     0
 10
1220.4416328451
 20
-2672.387553269333
 30
0.0
  0
ENDBLK
  5
44BDD
  8
0
  0
BLOCK
  8
0
  2
*D21
 70
     1
 10
0.0
 20
0.0
 30
0.0
  3
*D21
  1

  0
LINE
  5
46265
  8
AM_5
 10
1227.941663362683
 20
-2504.94602196903
 30
0.0
 11
1219.441663362683
 21
-2504.94602196903
 31
0.0
  0
LINE
  5
46266
  8
AM_5
 10
1227.941663362683
 20
-2528.94602196903
 30
0.0
 11
1219.441663362683
 21
-2528.94602196903
 31
0.0
  0
LINE
  5
46267
  8
AM_5
 10
1220.441663362683
 20
-2505.946021969029
 30
0.0
 11
1220.441663362683
 21
-2527.94602196903
 31
0.0
  0
INSERT
  5
46268
  8
AM_5
  2
_DOT
 10
1220.441663362683
 20
-2504.94602196903
 30
0.0
 50
90.0
  0
INSERT
  5
46269
  8
AM_5
  2
_DOT
 10
1220.441663362683
 20
-2528.94602196903
 30
0.0
 50
270.0
  0
TEXT
  5
4626A
  8
AM_5
 62
     2
 10
1218.941663362683
 20
-2519.132688635696
 30
0.0
 40
3.2
  1
24
 50
90.0
 41
0.7
  0
POINT
  5
4626B
  8
DEFPOINTS
 62
     0
 10
1229.441663362683
 20
-2504.94602196903
 30
0.0
  0
POINT
  5
4626C
  8
DEFPOINTS
 62
     0
 10
1229.441663362683
 20
-2528.94602196903
 30
0.0
  0
POINT
  5
4626D
  8
DEFPOINTS
 62
     0
 10
1220.441663362683
 20
-2528.94602196903
 30
0.0
  0
ENDBLK
  5
44BE9
  8
0
  0
BLOCK
  8
0
  2
*D22
 70
     1
 10
0.0
 20
0.0
 30
0.0
  3
*D22
  1

  0
LINE
  5
4626E
  8
AM_5
 10
1248.008588411499
 20
-2492.696062659137
 30
0.0
 11
1248.008588411499
 21
-2482.445985347936
 31
0.0
  0
LINE
  5
4626F
  8
AM_5
 10
1250.441632845101
 20
-2494.312029456001
 30
0.0
 11
1250.441632845101
 21
-2482.445985347936
 31
0.0
  0
LINE
  5
46270
  8
AM_5
 10
1251.441632845101
 20
-2483.445985347936
 30
0.0
 11
1252.441632845101
 21
-2483.445985347936
 31
0.0
  0
LINE
  5
46271
  8
AM_5
 10
1247.0085884115
 20
-2483.445985347936
 30
0.0
 11
1238.815255078166
 21
-2483.445985347936
 31
0.0
  0
LINE
  5
46272
  8
AM_5
 10
1250.441632845101
 20
-2483.445985347936
 30
0.0
 11
1248.008588411499
 21
-2483.445985347936
 31
0.0
  0
INSERT
  5
46273
  8
AM_5
  2
_DOT
 10
1250.441632845101
 20
-2483.445985347936
 30
0.0
 50
180.0
  0
INSERT
  5
46274
  8
AM_5
  2
_DOT
 10
1248.008588411499
 20
-2483.445985347936
 30
0.0
  0
TEXT
  5
46275
  8
AM_5
 62
     2
 10
1239.495255078167
 20
-2482.445985347936
 30
0.0
 40
3.2
  1
2.5
 41
0.7
  0
POINT
  5
46276
  8
DEFPOINTS
 62
     0
 10
1248.008588411499
 20
-2493.696062659136
 30
0.0
  0
POINT
  5
46277
  8
DEFPOINTS
 62
     0
 10
1250.441632845101
 20
-2495.312029456001
 30
0.0
  0
POINT
  5
46278
  8
DEFPOINTS
 62
     0
 10
1250.441632845101
 20
-2483.445985347936
 30
0.0
  0
ENDBLK
  5
44BF7
  8
0
  0
BLOCK
  8
0
  2
*D23
 70
     1
 10
0.0
 20
0.0
 30
0.0
  3
*D23
  1

  0
LINE
  5
46279
  8
AM_5
 10
1254.4416328451
 20
-2592.387522751752
 30
0.0
 11
1259.4416328451
 21
-2592.387522751752
 31
0.0
  0
LINE
  5
4627A
  8
AM_5
 10
1254.4416328451
 20
-2682.387553269333
 30
0.0
 11
1259.4416328451
 21
-2682.387553269333
 31
0.0
  0
LINE
  5
4627B
  8
AM_5
 10
1258.4416328451
 20
-2593.387522751753
 30
0.0
 11
1258.4416328451
 21
-2681.387553269333
 31
0.0
  0
INSERT
  5
4627C
  8
AM_5
  2
_DOT
 10
1258.4416328451
 20
-2592.387522751752
 30
0.0
 50
90.0
  0
INSERT
  5
4627D
  8
AM_5
  2
_DOT
 10
1258.4416328451
 20
-2682.387553269333
 30
0.0
 50
270.0
  0
TEXT
  5
4627E
  8
AM_5
 62
     2
 10
1257.441632845101
 20
-2639.520871343876
 30
0.0
 40
3.200000000000001
  1
90
 50
90.0
 41
0.7
  0
POINT
  5
4627F
  8
DEFPOINTS
 62
     0
 10
1253.441632845101
 20
-2592.387522751752
 30
0.0
  0
POINT
  5
46280
  8
DEFPOINTS
 62
     0
 10
1253.441632845101
 20
-2682.387553269333
 30
0.0
  0
POINT
  5
46281
  8
DEFPOINTS
 62
     0
 10
1258.4416328451
 20
-2682.387553269333
 30
0.0
  0
ENDBLK
  5
44C03
  8
0
  0
BLOCK
  8
0
  2
*D24
 70
     1
 10
0.0
 20
0.0
 30
0.0
  3
*D24
  1

  0
LINE
  5
46282
  8
AM_5
 10
1254.4416328451
 20
-2592.387522751752
 30
0.0
 11
1259.4416328451
 21
-2592.387522751752
 31
0.0
  0
LINE
  5
46283
  8
AM_5
 10
1251.441632845101
 20
-2582.387522751753
 30
0.0
 11
1259.4416328451
 21
-2582.387522751753
 31
0.0
  0
LINE
  5
46284
  8
AM_5
 10
1258.4416328451
 20
-2591.387522751753
 30
0.0
 11
1258.4416328451
 21
-2583.387522751753
 31
0.0
  0
INSERT
  5
46285
  8
AM_5
  2
_DOT
 10
1258.4416328451
 20
-2592.387522751752
 30
0.0
 50
270.0
  0
INSERT
  5
46286
  8
AM_5
  2
_DOT
 10
1258.4416328451
 20
-2582.387522751753
 30
0.0
 50
90.0
  0
TEXT
  5
46287
  8
AM_5
 62
     2
 10
1257.441632845101
 20
-2589.680856085086
 30
0.0
 40
3.200000000000001
  1
10
 50
90.0
 41
0.7
  0
POINT
  5
46288
  8
DEFPOINTS
 62
     0
 10
1253.441632845101
 20
-2592.387522751752
 30
0.0
  0
POINT
  5
46289
  8
DEFPOINTS
 62
     0
 10
1250.441632845101
 20
-2582.387522751753
 30
0.0
  0
POINT
  5
4628A
  8
DEFPOINTS
 62
     0
 10
1258.4416328451
 20
-2582.387522751753
 30
0.0
  0
ENDBLK
  5
44C0F
  8
0
  0
BLOCK
  8
0
  2
*D25
 70
     1
 10
0.0
 20
0.0
 30
0.0
  3
*D25
  1

  0
LINE
  5
4628B
  8
AM_5
 10
1251.441632845101
 20
-2692.387553269333
 30
0.0
 11
1259.4416328451
 21
-2692.387553269333
 31
0.0
  0
LINE
  5
4628C
  8
AM_5
 10
1254.4416328451
 20
-2682.387553269333
 30
0.0
 11
1259.4416328451
 21
-2682.387553269333
 31
0.0
  0
LINE
  5
4628D
  8
AM_5
 10
1258.4416328451
 20
-2691.387553269333
 30
0.0
 11
1258.4416328451
 21
-2683.387553269334
 31
0.0
  0
INSERT
  5
4628E
  8
AM_5
  2
_DOT
 10
1258.4416328451
 20
-2692.387553269333
 30
0.0
 50
270.0
  0
INSERT
  5
4628F
  8
AM_5
  2
_DOT
 10
1258.4416328451
 20
-2682.387553269333
 30
0.0
 50
90.0
  0
TEXT
  5
46290
  8
AM_5
 62
     2
 10
1257.441632845101
 20
-2689.680886602668
 30
0.0
 40
3.200000000000001
  1
10
 50
90.0
 41
0.7
  0
POINT
  5
46291
  8
DEFPOINTS
 62
     0
 10
1250.441632845101
 20
-2692.387553269333
 30
0.0
  0
POINT
  5
46292
  8
DEFPOINTS
 62
     0
 10
1253.441632845101
 20
-2682.387553269333
 30
0.0
  0
POINT
  5
46293
  8
DEFPOINTS
 62
     0
 10
1258.4416328451
 20
-2682.387553269333
 30
0.0
  0
ENDBLK
  5
44C1B
  8
0
  0
BLOCK
  8
0
  2
*D26
 70
     1
 10
0.0
 20
0.0
 30
0.0
  3
*D26
  1

  0
LINE
  5
46294
  8
AM_5
 10
1296.933444904687
 20
-2536.346058590123
 30
0.0
 11
1296.933444904687
 21
-2559.446058590123
 31
0.0
  0
LINE
  5
46295
  8
AM_5
 10
1285.433444904687
 20
-2511.96117895137
 30
0.0
 11
1285.433444904687
 21
-2559.446058590123
 31
0.0
  0
LINE
  5
46296
  8
AM_5
 10
1295.933444904687
 20
-2558.446058590123
 30
0.0
 11
1286.433444904687
 21
-2558.446058590123
 31
0.0
  0
INSERT
  5
46297
  8
AM_5
  2
_DOT
 10
1296.933444904687
 20
-2558.446058590123
 30
0.0
  0
INSERT
  5
46298
  8
AM_5
  2
_DOT
 10
1285.433444904687
 20
-2558.446058590123
 30
0.0
 50
180.0
  0
TEXT
  5
46299
  8
AM_5
 62
     2
 10
1287.290111571353
 20
-2557.446058590123
 30
0.0
 40
3.200000000000001
  1
11.5
 41
0.7
  0
POINT
  5
4629A
  8
DEFPOINTS
 62
     0
 10
1296.933444904687
 20
-2535.346058590123
 30
0.0
  0
POINT
  5
4629B
  8
DEFPOINTS
 62
     0
 10
1285.433444904687
 20
-2510.961178951369
 30
0.0
  0
POINT
  5
4629C
  8
DEFPOINTS
 62
     0
 10
1285.433444904687
 20
-2558.446058590123
 30
0.0
  0
ENDBLK
  5
44C27
  8
0
  0
BLOCK
  8
0
  2
*D27
 70
     1
 10
0.0
 20
0.0
 30
0.0
  3
*D27
  1

  0
LINE
  5
4629D
  8
AM_5
 10
1251.441632845101
 20
-2582.387522751753
 30
0.0
 11
1267.4416328451
 21
-2582.387522751753
 31
0.0
  0
LINE
  5
4629E
  8
AM_5
 10
1295.933444904687
 20
-2587.487539027794
 30
0.0
 11
1265.4416328451
 21
-2587.487539027794
 31
0.0
  0
LINE
  5
4629F
  8
AM_5
 10
1266.4416328451
 20
-2586.487539027795
 30
0.0
 11
1266.4416328451
 21
-2583.387522751753
 31
0.0
  0
LINE
  5
462A0
  8
AM_5
 10
1266.4416328451
 20
-2582.387522751753
 30
0.0
 11
1266.4416328451
 21
-2576.080358567323
 31
0.0
  0
INSERT
  5
462A1
  8
AM_5
  2
_DOT
 10
1266.4416328451
 20
-2587.487539027794
 30
0.0
 50
270.0
  0
INSERT
  5
462A2
  8
AM_5
  2
_DOT
 10
1266.4416328451
 20
-2582.387522751753
 30
0.0
 50
90.0
  0
TEXT
  5
462A3
  8
AM_5
 62
     2
 10
1265.441632845101
 20
-2578.893691900656
 30
0.0
 40
3.200000000000001
  1
5
 50
90.0
 41
0.7
  0
POINT
  5
462A4
  8
DEFPOINTS
 62
     0
 10
1250.441632845101
 20
-2582.387522751753
 30
0.0
  0
POINT
  5
462A5
  8
DEFPOINTS
 62
     0
 10
1296.933444904686
 20
-2587.487539027794
 30
0.0
  0
POINT
  5
462A6
  8
DEFPOINTS
 62
     0
 10
1266.4416328451
 20
-2587.487539027794
 30
0.0
  0
ENDBLK
  5
44C34
  8
0
  0
BLOCK
  8
0
  2
*D28
 70
     1
 10
0.0
 20
0.0
 30
0.0
  3
*D28
  1

  0
LINE
  5
462A7
  8
AM_5
 10
1330.933424559634
 20
-2595.487522751753
 30
0.0
 11
1330.933424559634
 21
-2579.487522751752
 31
0.0
  0
LINE
  5
462A8
  8
AM_5
 10
1415.933424559634
 20
-2595.487522751753
 30
0.0
 11
1415.933424559634
 21
-2579.487522751752
 31
0.0
  0
LINE
  5
462A9
  8
AM_5
 10
1331.933424559634
 20
-2580.487522751752
 30
0.0
 11
1414.933424559634
 21
-2580.487522751752
 31
0.0
  0
INSERT
  5
462AA
  8
AM_5
  2
_DOT
 10
1330.933424559634
 20
-2580.487522751752
 30
0.0
 50
180.0
  0
INSERT
  5
462AB
  8
AM_5
  2
_DOT
 10
1415.933424559634
 20
-2580.487522751752
 30
0.0
  0
TEXT
  5
462AC
  8
AM_5
 62
     2
 10
1371.300091226301
 20
-2579.487522751752
 30
0.0
 40
3.200000000000001
  1
85
 41
0.7
  0
POINT
  5
462AD
  8
DEFPOINTS
 62
     0
 10
1330.933424559634
 20
-2596.487522751753
 30
0.0
  0
POINT
  5
462AE
  8
DEFPOINTS
 62
     0
 10
1415.933424559634
 20
-2596.487522751753
 30
0.0
  0
POINT
  5
462AF
  8
DEFPOINTS
 62
     0
 10
1415.933424559634
 20
-2580.487522751752
 30
0.0
  0
ENDBLK
  5
44C40
  8
0
  0
BLOCK
  8
0
  2
*D29
 70
     1
 10
0.0
 20
0.0
 30
0.0
  3
*D29
  1

  0
LINE
  5
462B0
  8
AM_5
 10
1419.933424559635
 20
-2662.987522751751
 30
0.0
 11
1424.933424559635
 21
-2662.987522751751
 31
0.0
  0
LINE
  5
462B1
  8
AM_5
 10
1419.933424559635
 20
-2637.387522751752
 30
0.0
 11
1424.933424559635
 21
-2637.387522751752
 31
0.0
  0
LINE
  5
462B2
  8
AM_5
 10
1423.933424559635
 20
-2661.987522751751
 30
0.0
 11
1423.933424559635
 21
-2638.387522751752
 31
0.0
  0
INSERT
  5
462B3
  8
AM_5
  2
_DOT
 10
1423.933424559635
 20
-2662.987522751751
 30
0.0
 50
270.0
  0
INSERT
  5
462B4
  8
AM_5
  2
_DOT
 10
1423.933424559635
 20
-2637.387522751752
 30
0.0
 50
90.0
  0
TEXT
  5
462B5
  8
AM_5
 62
     2
 10
1422.933424559636
 20
-2653.920856085086
 30
0.0
 40
3.200000000000001
  1
25.6
 50
90.0
 41
0.7
  0
POINT
  5
462B6
  8
DEFPOINTS
 62
     0
 10
1418.933424559636
 20
-2662.987522751751
 30
0.0
  0
POINT
  5
462B7
  8
DEFPOINTS
 62
     0
 10
1418.933424559636
 20
-2637.387522751752
 30
0.0
  0
POINT
  5
462B8
  8
DEFPOINTS
 62
     0
 10
1423.933424559635
 20
-2637.387522751752
 30
0.0
  0
ENDBLK
  5
44C4C
  8
0
  0
BLOCK
  8
0
  2
*D30
 70
     1
 10
0.0
 20
0.0
 30
0.0
  3
*D30
  1

  0
LINE
  5
462B9
  8
AM_5
 10
1347.933424559635
 20
-2592.487522751753
 30
0.0
 11
1347.933424559635
 21
-2587.487522751752
 31
0.0
  0
LINE
  5
462BA
  8
AM_5
 10
1330.933424559638
 20
-2597.487522751753
 30
0.0
 11
1330.933424559638
 21
-2587.487522751752
 31
0.0
  0
LINE
  5
462BB
  8
AM_5
 10
1346.933424559635
 20
-2588.487522751752
 30
0.0
 11
1331.933424559637
 21
-2588.487522751752
 31
0.0
  0
INSERT
  5
462BC
  8
AM_5
  2
_DOT
 10
1347.933424559635
 20
-2588.487522751752
 30
0.0
  0
INSERT
  5
462BD
  8
AM_5
  2
_DOT
 10
1330.933424559638
 20
-2588.487522751752
 30
0.0
 50
180.0
  0
TEXT
  5
462BE
  8
AM_5
 62
     2
 10
1337.140091226303
 20
-2587.487522751752
 30
0.0
 40
3.200000000000001
  1
17
 41
0.7
  0
POINT
  5
462BF
  8
DEFPOINTS
 62
     0
 10
1347.933424559635
 20
-2593.487522751753
 30
0.0
  0
POINT
  5
462C0
  8
DEFPOINTS
 62
     0
 10
1330.933424559638
 20
-2598.487522751753
 30
0.0
  0
POINT
  5
462C1
  8
DEFPOINTS
 62
     0
 10
1330.933424559638
 20
-2588.487522751752
 30
0.0
  0
ENDBLK
  5
44C58
  8
0
  0
BLOCK
  8
0
  2
*D31
 70
     1
 10
0.0
 20
0.0
 30
0.0
  3
*D31
  1

  0
LINE
  5
462C2
  8
AM_5
 10
1297.533444904687
 20
-2496.945985347937
 30
0.0
 11
1276.433444904686
 21
-2496.945985347937
 31
0.0
  0
LINE
  5
462C3
  8
AM_5
 10
1286.400212411108
 20
-2516.946021969029
 30
0.0
 11
1276.433444904686
 21
-2516.946021969029
 31
0.0
  0
LINE
  5
462C4
  8
AM_5
 10
1277.433444904686
 20
-2497.945985347937
 30
0.0
 11
1277.433444904686
 21
-2515.946021969029
 31
0.0
  0
INSERT
  5
462C5
  8
AM_5
  2
_DOT
 10
1277.433444904686
 20
-2496.945985347937
 30
0.0
 50
90.0
  0
INSERT
  5
462C6
  8
AM_5
  2
_DOT
 10
1277.433444904686
 20
-2516.946021969029
 30
0.0
 50
270.0
  0
TEXT
  5
462C7
  8
AM_5
 62
     2
 10
1276.433444904686
 20
-2507.906003658482
 30
0.0
 40
3.200000000000001
  1
A
 50
90.0
 41
0.7
  0
POINT
  5
462C8
  8
DEFPOINTS
 62
     0
 10
1298.533444904687
 20
-2496.945985347937
 30
0.0
  0
POINT
  5
462C9
  8
DEFPOINTS
 62
     0
 10
1287.400212411109
 20
-2516.946021969029
 30
0.0
  0
POINT
  5
462CA
  8
DEFPOINTS
 62
     0
 10
1277.433444904686
 20
-2516.946021969029
 30
0.0
  0
ENDBLK
  5
44C88
  8
0
  0
BLOCK
  8
0
  2
*D32
 70
     1
 10
0.0
 20
0.0
 30
0.0
  3
*D32
  1

  0
LINE
  5
462CB
  8
AM_5
 10
1286.400212411108
 20
-2516.946021969029
 30
0.0
 11
1276.433444904686
 21
-2516.946021969029
 31
0.0
  0
LINE
  5
462CC
  8
AM_5
 10
1297.533444904688
 20
-2536.946058590122
 30
0.0
 11
1276.433444904686
 21
-2536.946058590122
 31
0.0
  0
LINE
  5
462CD
  8
AM_5
 10
1277.433444904686
 20
-2517.946021969029
 30
0.0
 11
1277.433444904686
 21
-2535.946058590122
 31
0.0
  0
INSERT
  5
462CE
  8
AM_5
  2
_DOT
 10
1277.433444904686
 20
-2516.946021969029
 30
0.0
 50
90.0
  0
INSERT
  5
462CF
  8
AM_5
  2
_DOT
 10
1277.433444904686
 20
-2536.946058590122
 30
0.0
 50
270.0
  0
TEXT
  5
462D0
  8
AM_5
 62
     2
 10
1276.433444904686
 20
-2528.119373612909
 30
0.0
 40
3.200000000000001
  1
B
 50
90.0
 41
0.7
  0
POINT
  5
462D1
  8
DEFPOINTS
 62
     0
 10
1287.400212411109
 20
-2516.946021969029
 30
0.0
  0
POINT
  5
462D2
  8
DEFPOINTS
 62
     0
 10
1298.533444904688
 20
-2536.946058590122
 30
0.0
  0
POINT
  5
462D3
  8
DEFPOINTS
 62
     0
 10
1277.433444904686
 20
-2536.946058590122
 30
0.0
  0
ENDBLK
  5
44C94
  8
0
  0
BLOCK
  8
0
  2
*D33
 70
     1
 10
0.0
 20
0.0
 30
0.0
  3
*D33
  1

  0
LINE
  5
462D4
  8
AM_5
 10
1347.933424559633
 20
-2544.231840893216
 30
0.0
 11
1347.933424559633
 21
-2551.446058590123
 31
0.0
  0
LINE
  5
462D5
  8
AM_5
 10
1296.933444904689
 20
-2536.346078935176
 30
0.0
 11
1296.933444904689
 21
-2551.446058590123
 31
0.0
  0
LINE
  5
462D6
  8
AM_5
 10
1346.933424559633
 20
-2550.446058590123
 30
0.0
 11
1297.933444904689
 21
-2550.446058590123
 31
0.0
  0
INSERT
  5
462D7
  8
AM_5
  2
_DOT
 10
1347.933424559633
 20
-2550.446058590123
 30
0.0
  0
INSERT
  5
462D8
  8
AM_5
  2
_DOT
 10
1296.933444904689
 20
-2550.446058590123
 30
0.0
 50
180.0
  0
TEXT
  5
462D9
  8
AM_5
 62
     2
 10
1312.566768065494
 20
-2549.446058590123
 30
0.0
 40
3.200000000000001
  1
バックセット51
 41
0.7
  0
POINT
  5
462DA
  8
DEFPOINTS
 62
     0
 10
1347.933424559633
 20
-2543.231840893216
 30
0.0
  0
POINT
  5
462DB
  8
DEFPOINTS
 62
     0
 10
1296.933444904689
 20
-2535.346078935176
 30
0.0
  0
POINT
  5
462DC
  8
DEFPOINTS
 62
     0
 10
1296.933444904689
 20
-2550.446058590123
 30
0.0
  0
ENDBLK
  5
44CA0
  8
0
  0
BLOCK
  8
0
  2
*D34
 70
     1
 10
0.0
 20
0.0
 30
0.0
  3
*D34
  1

  0
LINE
  5
463D3
  8
AM_5
 10
1128.333570302335
 20
-2598.987522751752
 30
0.0
 11
1128.333570302335
 21
-2578.987522751752
 31
0.0
  0
LINE
  5
463D4
  8
AM_5
 10
1207.333570302336
 20
-2598.987522751752
 30
0.0
 11
1207.333570302336
 21
-2578.987522751752
 31
0.0
  0
LINE
  5
463D5
  8
AM_5
 10
1129.333570302335
 20
-2579.987522751752
 30
0.0
 11
1206.333570302335
 21
-2579.987522751752
 31
0.0
  0
INSERT
  5
463D6
  8
AM_5
  2
_DOT
 10
1128.333570302335
 20
-2579.987522751752
 30
0.0
 50
180.0
  0
INSERT
  5
463D7
  8
AM_5
  2
_DOT
 10
1207.333570302336
 20
-2579.987522751752
 30
0.0
  0
TEXT
  5
463D8
  8
AM_5
 62
     2
 10
1165.753570302335
 20
-2578.987522751752
 30
0.0
 40
3.200000000000001
  1
79
 41
0.7
  0
POINT
  5
463D9
  8
DEFPOINTS
 62
     0
 10
1128.333570302335
 20
-2599.987522751752
 30
0.0
  0
POINT
  5
463DA
  8
DEFPOINTS
 62
     0
 10
1207.333570302336
 20
-2599.987522751752
 30
0.0
  0
POINT
  5
463DB
  8
DEFPOINTS
 62
     0
 10
1207.333570302336
 20
-2579.987522751752
 30
0.0
  0
ENDBLK
  5
44EAF
  8
0
  0
BLOCK
  8
0
  2
*D35
 70
     1
 10
0.0
 20
0.0
 30
0.0
  3
*D35
  1

  0
LINE
  5
46350
  8
AM_5
 10
1127.333570302335
 20
-2599.987522751752
 30
0.0
 11
1111.333570302335
 21
-2599.987522751752
 31
0.0
  0
LINE
  5
46351
  8
AM_5
 10
1127.333570302335
 20
-2725.987522751752
 30
0.0
 11
1111.333570302335
 21
-2725.987522751752
 31
0.0
  0
LINE
  5
46352
  8
AM_5
 10
1112.333570302335
 20
-2600.987522751752
 30
0.0
 11
1112.333570302335
 21
-2724.987522751752
 31
0.0
  0
INSERT
  5
46353
  8
AM_5
  2
_DOT
 10
1112.333570302335
 20
-2599.987522751752
 30
0.0
 50
90.0
  0
INSERT
  5
46354
  8
AM_5
  2
_DOT
 10
1112.333570302335
 20
-2725.987522751752
 30
0.0
 50
270.0
  0
TEXT
  5
46355
  8
AM_5
 62
     2
 10
1111.333570302336
 20
-2666.347522751752
 30
0.0
 40
3.200000000000001
  1
126
 50
90.0
 41
0.7
  0
POINT
  5
46356
  8
DEFPOINTS
 62
     0
 10
1128.333570302335
 20
-2599.987522751752
 30
0.0
  0
POINT
  5
46357
  8
DEFPOINTS
 62
     0
 10
1128.333570302335
 20
-2725.987522751752
 30
0.0
  0
POINT
  5
46358
  8
DEFPOINTS
 62
     0
 10
1112.333570302335
 20
-2725.987522751752
 30
0.0
  0
ENDBLK
  5
44EC5
  8
0
  0
BLOCK
  8
0
  2
*D36
 70
     1
 10
0.0
 20
0.0
 30
0.0
  3
*D36
  1

  0
LINE
  5
46359
  8
AM_5
 10
1127.333570302335
 20
-2599.987522751752
 30
0.0
 11
1119.333570302335
 21
-2599.987522751752
 31
0.0
  0
LINE
  5
4635A
  8
AM_5
 10
1124.333570302336
 20
-2637.387522751752
 30
0.0
 11
1119.333570302335
 21
-2637.387522751752
 31
0.0
  0
LINE
  5
4635B
  8
AM_5
 10
1120.333570302335
 20
-2600.987522751752
 30
0.0
 11
1120.333570302335
 21
-2636.387522751752
 31
0.0
  0
INSERT
  5
4635C
  8
AM_5
  2
_DOT
 10
1120.333570302335
 20
-2599.987522751752
 30
0.0
 50
90.0
  0
INSERT
  5
4635D
  8
AM_5
  2
_DOT
 10
1120.333570302335
 20
-2637.387522751752
 30
0.0
 50
270.0
  0
TEXT
  5
4635E
  8
AM_5
 62
     2
 10
1119.333570302336
 20
-2623.472066722111
 30
0.0
 40
3.200000000000001
  1
37.4
 50
90.0
 41
0.7
  0
POINT
  5
4635F
  8
DEFPOINTS
 62
     0
 10
1128.333570302335
 20
-2599.987522751752
 30
0.0
  0
POINT
  5
46360
  8
DEFPOINTS
 62
     0
 10
1125.333570302335
 20
-2637.387522751752
 30
0.0
  0
POINT
  5
46361
  8
DEFPOINTS
 62
     0
 10
1120.333570302335
 20
-2637.387522751752
 30
0.0
  0
ENDBLK
  5
44EDB
  8
0
  0
BLOCK
  8
0
  2
*D37
 70
     1
 10
0.0
 20
0.0
 30
0.0
  3
*D37
  1

  0
LINE
  5
463CA
  8
AM_5
 10
1142.333570302335
 20
-2595.987522751752
 30
0.0
 11
1142.333570302335
 21
-2586.987522751752
 31
0.0
  0
LINE
  5
463CB
  8
AM_5
 10
1128.333570302335
 20
-2598.987522751752
 30
0.0
 11
1128.333570302335
 21
-2586.987522751752
 31
0.0
  0
LINE
  5
463CC
  8
AM_5
 10
1141.333570302335
 20
-2587.987522751752
 30
0.0
 11
1129.333570302335
 21
-2587.987522751752
 31
0.0
  0
INSERT
  5
463CD
  8
AM_5
  2
_DOT
 10
1142.333570302335
 20
-2587.987522751752
 30
0.0
  0
INSERT
  5
463CE
  8
AM_5
  2
_DOT
 10
1128.333570302335
 20
-2587.987522751752
 30
0.0
 50
180.0
  0
TEXT
  5
463CF
  8
AM_5
 62
     2
 10
1132.986903635668
 20
-2586.987522751752
 30
0.0
 40
3.200000000000001
  1
14
 41
0.7
  0
POINT
  5
463D0
  8
DEFPOINTS
 62
     0
 10
1142.333570302335
 20
-2596.987522751752
 30
0.0
  0
POINT
  5
463D1
  8
DEFPOINTS
 62
     0
 10
1128.333570302335
 20
-2599.987522751752
 30
0.0
  0
POINT
  5
463D2
  8
DEFPOINTS
 62
     0
 10
1128.333570302335
 20
-2587.987522751752
 30
0.0
  0
ENDBLK
  5
44EF1
  8
0
  0
BLOCK
  8
0
  2
*D38
 70
     1
 10
0.0
 20
0.0
 30
0.0
  3
*D38
  1

  0
LINE
  5
463C2
  8
AM_5
 10
1142.333570302335
 20
-2598.987522751752
 30
0.0
 11
1142.333570302335
 21
-2594.987522751752
 31
0.0
  0
LINE
  5
463C3
  8
AM_5
 10
1106.842149430597
 20
-2595.987522751752
 30
0.0
 11
1141.333570302335
 21
-2595.987522751752
 31
0.0
  0
INSERT
  5
463C4
  8
AM_5
  2
_OPEN30
 10
1105.842149430596
 20
-2595.987522751752
 30
0.0
 50
180.0
  0
INSERT
  5
463C5
  8
AM_5
  2
_DOT
 10
1142.333570302335
 20
-2595.987522751752
 30
0.0
  0
TEXT
  5
463C6
  8
AM_5
 62
     2
 10
1109.735383878635
 20
-2594.987522751752
 30
0.0
 40
3.200000000000001
  1
バックセット
 41
0.7
  0
POINT
  5
463C7
  8
DEFPOINTS
 62
     0
 10
1105.842149430596
 20
-2585.987522751752
 30
0.0
  0
POINT
  5
463C8
  8
DEFPOINTS
 62
     0
 10
1142.333570302335
 20
-2599.987522751752
 30
0.0
  0
POINT
  5
463C9
  8
DEFPOINTS
 62
     0
 10
1142.333570302335
 20
-2595.987522751752
 30
0.0
  0
ENDBLK
  5
45C6A
  8
0
  0
BLOCK
  8
AM_CL
  2
*D39
 70
     1
 10
0.0
 20
0.0
 30
0.0
  3
*D39
  1
Acad:XRef
  0
LINE
  5
47303
  8
AM_5
 10
1135.742073076211
 20
-2468.530984464395
 30
0.0
 11
1156.514075350025
 21
-2468.530984464395
 31
0.0
  0
LINE
  5
47304
  8
AM_5
 10
1135.742073076211
 20
-2461.530984464395
 30
0.0
 11
1156.514075350025
 21
-2461.530984464395
 31
0.0
  0
LINE
  5
47305
  8
AM_5
 10
1155.514075350025
 20
-2467.530984464395
 30
0.0
 11
1155.514075350025
 21
-2462.530984464395
 31
0.0
  0
INSERT
  5
47306
  8
AM_5
  6
BYBLOCK
  2
_DOT
 10
1155.514075350025
 20
-2468.530984464395
 30
0.0
 50
270.0
  0
INSERT
  5
47307
  8
AM_5
  6
BYBLOCK
  2
_DOT
 10
1155.514075350025
 20
-2461.530984464395
 30
0.0
 50
90.0
  0
TEXT
  5
47308
  8
AM_5
 62
     2
 10
1154.514075350025
 20
-2466.097651131062
 30
0.0
 40
3.200000000000001
  1
7
 50
90.0
 41
0.7
  0
POINT
  5
47309
  8
DEFPOINTS
 62
     0
 10
1134.742073076211
 20
-2468.530984464395
 30
0.0
  0
POINT
  5
4730A
  8
DEFPOINTS
 62
     0
 10
1134.742073076211
 20
-2461.530984464395
 30
0.0
  0
POINT
  5
4730B
  8
DEFPOINTS
 62
     0
 10
1155.514075350025
 20
-2461.530984464395
 30
0.0
  0
ENDBLK
  5
4730D
  8
AM_CL
  0
BLOCK
  8
AM_CL
  2
*X44
 70
     1
 10
0.0
 20
0.0
 30
0.0
  3
*X44
  1
Acad:XRef
  0
LINE
  5
47373
  8
0部品14
  6
CONTINUOUS
 10
1128.333570302335
 20
-2603.000034710414
 30
0.0
 11
1131.346082260997
 21
-2599.987522751752
 31
0.0
  0
LINE
  5
47374
  8
0部品14
  6
CONTINUOUS
 10
1128.333570302335
 20
-2610.071102522279
 30
0.0
 11
1138.417150072863
 21
-2599.987522751752
 31
0.0
  0
LINE
  5
47375
  8
0部品14
  6
CONTINUOUS
 10
1128.333570302335
 20
-2617.142170334145
 30
0.0
 11
1145.488217884728
 21
-2599.987522751752
 31
0.0
  0
LINE
  5
47376
  8
0部品14
  6
CONTINUOUS
 10
1128.333570302335
 20
-2624.213238146011
 30
0.0
 11
1152.559285696593
 21
-2599.987522751752
 31
0.0
  0
LINE
  5
47377
  8
0部品14
  6
CONTINUOUS
 10
1128.333570302335
 20
-2631.284305957876
 30
0.0
 11
1159.630353508459
 21
-2599.987522751752
 31
0.0
  0
LINE
  5
47378
  8
0部品14
  6
CONTINUOUS
 10
1128.333570302335
 20
-2638.355373769741
 30
0.0
 11
1166.701421320324
 21
-2599.987522751752
 31
0.0
  0
LINE
  5
47379
  8
0部品14
  6
CONTINUOUS
 10
1128.333570302335
 20
-2645.426441581607
 30
0.0
 11
1173.77248913219
 21
-2599.987522751752
 31
0.0
  0
LINE
  5
4737A
  8
0部品14
  6
CONTINUOUS
 10
1128.333570302335
 20
-2652.497509393472
 30
0.0
 11
1180.843556944055
 21
-2599.987522751752
 31
0.0
  0
LINE
  5
4737B
  8
0部品14
  6
CONTINUOUS
 10
1128.333570302335
 20
-2659.568577205338
 30
0.0
 11
1187.914624755921
 21
-2599.987522751752
 31
0.0
  0
LINE
  5
4737C
  8
0部品14
  6
CONTINUOUS
 10
1128.333570302335
 20
-2666.639645017203
 30
0.0
 11
1194.985692567786
 21
-2599.987522751752
 31
0.0
  0
LINE
  5
4737D
  8
0部品14
  6
CONTINUOUS
 10
1128.333570302335
 20
-2673.710712829069
 30
0.0
 11
1202.056760379652
 21
-2599.987522751752
 31
0.0
  0
LINE
  5
4737E
  8
0部品14
  6
CONTINUOUS
 10
1128.333570302335
 20
-2680.781780640934
 30
0.0
 11
1207.333570302336
 21
-2601.781780640933
 31
0.0
  0
LINE
  5
4737F
  8
0部品14
  6
CONTINUOUS
 10
1128.333570302335
 20
-2687.8528484528
 30
0.0
 11
1207.333570302336
 21
-2608.852848452799
 31
0.0
  0
LINE
  5
47380
  8
0部品14
  6
CONTINUOUS
 10
1128.333570302335
 20
-2694.923916264665
 30
0.0
 11
1207.333570302336
 21
-2615.923916264664
 31
0.0
  0
LINE
  5
47381
  8
0部品14
  6
CONTINUOUS
 10
1128.333570302335
 20
-2701.994984076531
 30
0.0
 11
1207.333570302336
 21
-2622.994984076529
 31
0.0
  0
LINE
  5
47382
  8
0部品14
  6
CONTINUOUS
 10
1128.333570302335
 20
-2709.066051888396
 30
0.0
 11
1207.333570302336
 21
-2630.066051888395
 31
0.0
  0
LINE
  5
47383
  8
0部品14
  6
CONTINUOUS
 10
1128.333570302335
 20
-2716.137119700262
 30
0.0
 11
1207.333570302336
 21
-2637.13711970026
 31
0.0
  0
LINE
  5
47384
  8
0部品14
  6
CONTINUOUS
 10
1128.333570302335
 20
-2723.208187512127
 30
0.0
 11
1207.333570302336
 21
-2644.208187512126
 31
0.0
  0
LINE
  5
47385
  8
0部品14
  6
CONTINUOUS
 10
1132.625302874576
 20
-2725.987522751752
 30
0.0
 11
1207.333570302336
 21
-2651.279255323991
 31
0.0
  0
LINE
  5
47386
  8
0部品14
  6
CONTINUOUS
 10
1139.696370686441
 20
-2725.987522751752
 30
0.0
 11
1207.333570302336
 21
-2658.350323135857
 31
0.0
  0
LINE
  5
47387
  8
0部品14
  6
CONTINUOUS
 10
1146.767438498307
 20
-2725.987522751752
 30
0.0
 11
1207.333570302336
 21
-2665.421390947723
 31
0.0
  0
LINE
  5
47388
  8
0部品14
  6
CONTINUOUS
 10
1153.838506310172
 20
-2725.987522751752
 30
0.0
 11
1207.333570302336
 21
-2672.492458759588
 31
0.0
  0
LINE
  5
47389
  8
0部品14
  6
CONTINUOUS
 10
1160.909574122038
 20
-2725.987522751752
 30
0.0
 11
1207.333570302336
 21
-2679.563526571453
 31
0.0
  0
LINE
  5
4738A
  8
0部品14
  6
CONTINUOUS
 10
1167.980641933903
 20
-2725.987522751752
 30
0.0
 11
1207.333570302336
 21
-2686.634594383319
 31
0.0
  0
LINE
  5
4738B
  8
0部品14
  6
CONTINUOUS
 10
1175.051709745768
 20
-2725.987522751752
 30
0.0
 11
1207.333570302336
 21
-2693.705662195184
 31
0.0
  0
LINE
  5
4738C
  8
0部品14
  6
CONTINUOUS
 10
1182.122777557634
 20
-2725.987522751752
 30
0.0
 11
1207.333570302336
 21
-2700.77673000705
 31
0.0
  0
LINE
  5
4738D
  8
0部品14
  6
CONTINUOUS
 10
1189.1938453695
 20
-2725.987522751752
 30
0.0
 11
1207.333570302336
 21
-2707.847797818915
 31
0.0
  0
LINE
  5
4738E
  8
0部品14
  6
CONTINUOUS
 10
1196.264913181365
 20
-2725.987522751752
 30
0.0
 11
1207.333570302336
 21
-2714.918865630781
 31
0.0
  0
LINE
  5
4738F
  8
0部品14
  6
CONTINUOUS
 10
1203.33598099323
 20
-2725.987522751752
 30
0.0
 11
1207.333570302336
 21
-2721.989933442646
 31
0.0
  0
ENDBLK
  5
47396
  8
AM_CL
  0
BLOCK
  8
AM_CL
  2
*X45
 70
     1
 10
0.0
 20
0.0
 30
0.0
  3
*X45
  1
Acad:XRef
  0
TEXT
  5
47391
  8
AM_6
 10
1114.360343656287
 20
-2559.658411671777
 30
0.0
 40
2.799999999999999
  1
M4×14（D8）
 41
0.7
  0
TEXT
  5
47392
  8
AM_6
 10
1114.34167698962
 20
-2564.325078338444
 30
0.0
 40
2.799999999999999
  1
＋ 皿小ネジ
 41
0.7
  0
ENDBLK
  5
47398
  8
AM_CL
  0
ENDSEC
  0
SECTION
  2
ENTITIES
  0
TEXT
  5
31B30
  8
AM_6
 10
3408.785415022811
 20
1879.970675238635
 30
0.0
 40
2.5
  1
!GENTITLE-INSERT
  0
TEXT
  5
31B31
  8
AM_6
 10
3000.285415022811
 20
1871.470675238635
 30
0.0
 40
2.5
  1
!GENTITLE-LL
  0
TEXT
  5
31B32
  8
AM_6
 10
3420.285415022811
 20
2168.470675238635
 30
0.0
 40
2.5
  1
!GENTITLE-RU
  0
TEXT
  5
31B33
  8
AM_6
 10
3420.285415022811
 20
2168.470675238635
 30
0.0
 40
2.5
  1
!GENTITLE-MAX
  0
TEXT
  5
31B3B
  8
AM_6
 10
3000.285415022811
 20
1871.470675238635
 30
0.0
 40
2.5
  1
!GENTITLE-LL
  0
TEXT
  5
31B3C
  8
AM_6
 10
3408.785415022811
 20
2159.970675238636
 30
0.0
 40
2.5
  1
!GENTITLE-RU
  0
TEXT
  5
31B3D
  8
AM_6
 10
3420.285415022811
 20
2168.470675238635
 30
0.0
 40
2.5
  1
!GENTITLE-MAX
  0
TEXT
  5
31B3E
  8
AM_6
 10
3408.785415022811
 20
1879.970675238635
 30
0.0
 40
2.5
  1
!GENTITLE-INSERT
  0
TEXT
  5
32D1D
  8
AM_6
 10
3234.949399973154
 20
1839.277532086519
 30
0.0
 40
2.5
  1
!GENTITLE-INSERT
  0
TEXT
  5
32D1E
  8
AM_6
 10
3246.449399973154
 20
2040.77753208652
 30
0.0
 40
2.5
  1
!GENTITLE-MAX
  0
TEXT
  5
32D1F
  8
AM_6
 10
3246.449399973154
 20
2040.77753208652
 30
0.0
 40
2.5
  1
!GENTITLE-RU
  0
TEXT
  5
32D21
  8
AM_6
 10
2949.449399973154
 20
1830.777532086519
 30
0.0
 40
2.5
  1
!GENTITLE-LL
  0
LINE
  5
44591
  8
SIZE
 10
1034.492073076211
 20
-2453.030984464395
 30
0.0
 11
1454.492073076211
 21
-2453.030984464395
 31
0.0
1001
GENIUS_GENREC_14
1002
{
1000
PYDIR
1011
1034.492073076211
1021
-2156.030984464395
1031
0.0
1021
-2156.030984464395
1031
0.0
1002
}
1002
{
1000
PXDIR
1011
1454.492073076211
1021
-2453.030984464395
1031
0.0
1021
-2453.030984464395
1031
0.0
1002
}
1002
{
1000
PORI
1011
1034.492073076211
1021
-2453.030984464395
1031
0.0
1021
-2453.030984464395
1031
0.0
1002
}
1002
{
1000
PINS
1011
1244.492073076211
1021
-2304.530984464395
1031
0.0
1021
-2304.530984464395
1031
0.0
1002
}
1002
{
1000
HVAL
1000
297
1002
}
1002
{
1000
H
1070
     2
1002
}
1002
{
1000
WVAL
1000
420
1002
}
1002
{
1000
W
1070
     2
1002
}
1002
{
1000
C
1070
     4
1002
}
1001
GENIUS_GENOBJ-N-REC_13
1002
{
1000
OWNER
1000
GEN
1002
}
1001
GENIUS_GENODEF_13
1002
{
1000
HIER
1070
     0
1002
}
1002
{
1000
MANEDIT
1070
     0
1002
}
1002
{
1000
NOSEL
1070
     0
1002
}
1002
{
1000
BEHIND
1070
     0
1002
}
1002
{
1000
OTHER
1070
     0
1002
}
1002
{
1000
REACTOR
1002
}
  0
TEXT
  5
44632
  8
AM_6
 10
1052.651406409544
 20
-2513.930984464395
 30
0.0
 40
2.8
  1
備考
 41
0.7
  0
TEXT
  5
44634
  8
AM_6
 10
1063.492073076211
 20
-2519.930984464395
 30
0.0
 40
2.8
  1
　※表以外の設定については別途ご相談ください。
 41
0.7
  0
TEXT
  5
44711
  8
AM_6
 10
1063.49207307621
 20
-2513.930984464395
 30
0.0
 40
2.8
  1
　※標準セット：ヘアーライン仕上、BS51、扉厚40、受L24
 41
0.7
  0
TEXT
  5
449B6
  8
AM_6
 10
882.3983537739023
 20
-2811.326918597738
 30
0.0
 40
2.5
  1
!GENTITLE-INSERT
  0
TEXT
  5
449B7
  8
AM_6
 10
473.8983537739023
 20
-2819.826918597738
 30
0.0
 40
2.5
  1
!GENTITLE-LL
  0
TEXT
  5
449B8
  8
AM_6
 10
893.8983537739023
 20
-2522.826918597738
 30
0.0
 40
2.5
  1
!GENTITLE-RU
  0
TEXT
  5
449B9
  8
AM_6
 10
893.8983537739023
 20
-2522.826918597738
 30
0.0
 40
2.5
  1
!GENTITLE-MAX
  0
LINE
  5
449BA
  8
SIZE
 10
1034.492073076211
 20
-2750.030984464395
 30
0.0
 11
1454.492073076211
 21
-2750.030984464395
 31
0.0
1001
GENIUS_GENREC_14
1002
{
1000
PYDIR
1011
1034.492073076211
1021
-2453.030984464395
1031
0.0
1021
-2453.030984464395
1031
0.0
1002
}
1002
{
1000
PXDIR
1011
1454.492073076211
1021
-2750.030984464395
1031
0.0
1021
-2750.030984464395
1031
0.0
1002
}
1002
{
1000
PORI
1011
1034.492073076211
1021
-2750.030984464395
1031
0.0
1021
-2750.030984464395
1031
0.0
1002
}
1002
{
1000
PINS
1011
1244.492073076211
1021
-2601.530984464395
1031
0.0
1021
-2601.530984464395
1031
0.0
1002
}
1002
{
1000
HVAL
1000
297
1002
}
1002
{
1000
H
1070
     2
1002
}
1002
{
1000
WVAL
1000
420
1002
}
1002
{
1000
W
1070
     2
1002
}
1002
{
1000
C
1070
     4
1002
}
1001
GENIUS_GENOBJ-N-REC_13
1002
{
1000
OWNER
1000
GEN
1002
}
1001
GENIUS_GENODEF_13
1002
{
1000
HIER
1070
     0
1002
}
1002
{
1000
MANEDIT
1070
     0
1002
}
1002
{
1000
NOSEL
1070
     0
1002
}
1002
{
1000
BEHIND
1070
     0
1002
}
1002
{
1000
OTHER
1070
     0
1002
}
1002
{
1000
REACTOR
1002
}
  0
LINE
  5
449BB
  8
SIZE
 10
1454.492073076211
 20
-2750.030984464395
 30
0.0
 11
1454.492073076211
 21
-2453.030984464395
 31
0.0
1001
GENIUS_GENREC_14
1002
{
1000
PYDIR
1011
1034.492073076211
1021
-2453.030984464395
1031
0.0
1021
-2453.030984464395
1031
0.0
1002
}
1002
{
1000
PXDIR
1011
1454.492073076211
1021
-2750.030984464395
1031
0.0
1021
-2750.030984464395
1031
0.0
1002
}
1002
{
1000
PORI
1011
1034.492073076211
1021
-2750.030984464395
1031
0.0
1021
-2750.030984464395
1031
0.0
1002
}
1002
{
1000
PINS
1011
1244.492073076211
1021
-2601.530984464395
1031
0.0
1021
-2601.530984464395
1031
0.0
1002
}
1002
{
1000
HVAL
1000
297
1002
}
1002
{
1000
H
1070
     2
1002
}
1002
{
1000
WVAL
1000
420
1002
}
1002
{
1000
W
1070
     2
1002
}
1002
{
1000
C
1070
     4
1002
}
1001
GENIUS_GENOBJ-N-REC_13
1002
{
1000
OWNER
1000
GEN
1002
}
1001
GENIUS_GENODEF_13
1002
{
1000
HIER
1070
     0
1002
}
1002
{
1000
MANEDIT
1070
     0
1002
}
1002
{
1000
NOSEL
1070
     0
1002
}
1002
{
1000
BEHIND
1070
     0
1002
}
1002
{
1000
OTHER
1070
     0
1002
}
1002
{
1000
REACTOR
1002
}
  0
LINE
  5
449BD
  8
SIZE
 10
1034.492073076211
 20
-2453.030984464395
 30
0.0
 11
1034.492073076211
 21
-2750.030984464395
 31
0.0
1001
GENIUS_GENREC_14
1002
{
1000
PYDIR
1011
1034.492073076211
1021
-2453.030984464395
1031
0.0
1021
-2453.030984464395
1031
0.0
1002
}
1002
{
1000
PXDIR
1011
1454.492073076211
1021
-2750.030984464395
1031
0.0
1021
-2750.030984464395
1031
0.0
1002
}
1002
{
1000
PORI
1011
1034.492073076211
1021
-2750.030984464395
1031
0.0
1021
-2750.030984464395
1031
0.0
1002
}
1002
{
1000
PINS
1011
1244.492073076211
1021
-2601.530984464395
1031
0.0
1021
-2601.530984464395
1031
0.0
1002
}
1002
{
1000
HVAL
1000
297
1002
}
1002
{
1000
H
1070
     2
1002
}
1002
{
1000
WVAL
1000
420
1002
}
1002
{
1000
W
1070
     2
1002
}
1002
{
1000
C
1070
     4
1002
}
1001
GENIUS_GENOBJ-N-REC_13
1002
{
1000
OWNER
1000
GEN
1002
}
1001
GENIUS_GENODEF_13
1002
{
1000
HIER
1070
     0
1002
}
1002
{
1000
MANEDIT
1070
     0
1002
}
1002
{
1000
NOSEL
1070
     0
1002
}
1002
{
1000
BEHIND
1070
     0
1002
}
1002
{
1000
OTHER
1070
     0
1002
}
1002
{
1000
REACTOR
1002
}
  0
LINE
  5
449BE
  8
WAKU
 10
1442.992073076211
 20
-2741.530984464395
 30
0.0
 11
1442.992073076211
 21
-2461.530984464395
 31
0.0
1001
GENIUS_GENREC_14
1002
{
1000
PYDIR
1011
1034.492073076211
1021
-2453.030984464395
1031
0.0
1021
-2453.030984464395
1031
0.0
1002
}
1002
{
1000
PXDIR
1011
1454.492073076211
1021
-2750.030984464395
1031
0.0
1021
-2750.030984464395
1031
0.0
1002
}
1002
{
1000
PORI
1011
1034.492073076211
1021
-2750.030984464395
1031
0.0
1021
-2750.030984464395
1031
0.0
1002
}
1002
{
1000
PINS
1011
1244.492073076211
1021
-2601.530984464395
1031
0.0
1021
-2601.530984464395
1031
0.0
1002
}
1002
{
1000
HVAL
1000
297
1002
}
1002
{
1000
H
1070
     2
1002
}
1002
{
1000
WVAL
1000
420
1002
}
1002
{
1000
W
1070
     2
1002
}
1002
{
1000
C
1070
     4
1002
}
1001
GENIUS_GENOBJ-N-REC_13
1002
{
1000
OWNER
1000
GEN
1002
}
1001
GENIUS_GENODEF_13
1002
{
1000
HIER
1070
     0
1002
}
1002
{
1000
MANEDIT
1070
     0
1002
}
1002
{
1000
NOSEL
1070
     0
1002
}
1002
{
1000
BEHIND
1070
     0
1002
}
1002
{
1000
OTHER
1070
     0
1002
}
1002
{
1000
REACTOR
1002
}
  0
LINE
  5
449BF
  8
WAKU
 10
1045.992073076211
 20
-2461.530984464395
 30
0.0
 11
1045.992073076211
 21
-2741.530984464395
 31
0.0
1001
GENIUS_GENREC_14
1002
{
1000
PYDIR
1011
1034.492073076211
1021
-2453.030984464395
1031
0.0
1021
-2453.030984464395
1031
0.0
1002
}
1002
{
1000
PXDIR
1011
1454.492073076211
1021
-2750.030984464395
1031
0.0
1021
-2750.030984464395
1031
0.0
1002
}
1002
{
1000
PORI
1011
1034.492073076211
1021
-2750.030984464395
1031
0.0
1021
-2750.030984464395
1031
0.0
1002
}
1002
{
1000
PINS
1011
1244.492073076211
1021
-2601.530984464395
1031
0.0
1021
-2601.530984464395
1031
0.0
1002
}
1002
{
1000
HVAL
1000
297
1002
}
1002
{
1000
H
1070
     2
1002
}
1002
{
1000
WVAL
1000
420
1002
}
1002
{
1000
W
1070
     2
1002
}
1002
{
1000
C
1070
     4
1002
}
1001
GENIUS_GENOBJ-N-REC_13
1002
{
1000
OWNER
1000
GEN
1002
}
1001
GENIUS_GENODEF_13
1002
{
1000
HIER
1070
     0
1002
}
1002
{
1000
MANEDIT
1070
     0
1002
}
1002
{
1000
NOSEL
1070
     0
1002
}
1002
{
1000
BEHIND
1070
     0
1002
}
1002
{
1000
OTHER
1070
     0
1002
}
1002
{
1000
REACTOR
1002
}
  0
LINE
  5
449C0
  8
WAKU
 10
1442.992073076211
 20
-2461.530984464395
 30
0.0
 11
1045.992073076211
 21
-2461.530984464395
 31
0.0
1001
GENIUS_GENREC_14
1002
{
1000
PYDIR
1011
1034.492073076211
1021
-2453.030984464395
1031
0.0
1021
-2453.030984464395
1031
0.0
1002
}
1002
{
1000
PXDIR
1011
1454.492073076211
1021
-2750.030984464395
1031
0.0
1021
-2750.030984464395
1031
0.0
1002
}
1002
{
1000
PORI
1011
1034.492073076211
1021
-2750.030984464395
1031
0.0
1021
-2750.030984464395
1031
0.0
1002
}
1002
{
1000
PINS
1011
1244.492073076211
1021
-2601.530984464395
1031
0.0
1021
-2601.530984464395
1031
0.0
1002
}
1002
{
1000
HVAL
1000
297
1002
}
1002
{
1000
H
1070
     2
1002
}
1002
{
1000
WVAL
1000
420
1002
}
1002
{
1000
W
1070
     2
1002
}
1002
{
1000
C
1070
     4
1002
}
1001
GENIUS_GENOBJ-N-REC_13
1002
{
1000
OWNER
1000
GEN
1002
}
1001
GENIUS_GENODEF_13
1002
{
1000
HIER
1070
     0
1002
}
1002
{
1000
MANEDIT
1070
     0
1002
}
1002
{
1000
NOSEL
1070
     0
1002
}
1002
{
1000
BEHIND
1070
     0
1002
}
1002
{
1000
OTHER
1070
     0
1002
}
1002
{
1000
REACTOR
1002
}
  0
TEXT
  5
449C1
  8
AM_6
 10
473.8983537739023
 20
-2819.826918597738
 30
0.0
 40
2.5
  1
!GENTITLE-LL
  0
TEXT
  5
449C2
  8
AM_6
 10
882.3983537739023
 20
-2531.326918597738
 30
0.0
 40
2.5
  1
!GENTITLE-RU
  0
TEXT
  5
449C3
  8
AM_6
 10
893.8983537739023
 20
-2522.826918597738
 30
0.0
 40
2.5
  1
!GENTITLE-MAX
  0
TEXT
  5
449C4
  8
AM_6
 10
882.3983537739023
 20
-2811.326918597738
 30
0.0
 40
2.5
  1
!GENTITLE-INSERT
  0
LINE
  5
449C5
  8
WAKU
 10
1045.992073076211
 20
-2741.530984464395
 30
0.0
 11
1442.992073076211
 21
-2741.530984464395
 31
0.0
  0
LINE
  5
449C9
  8
0部品1
  6
中心線1
 10
1347.933424559635
 20
-2732.487522751752
 30
0.0
 11
1347.933424559635
 21
-2593.487522751753
 31
0.0
1001
GENIUS_GENODEF_13
1002
{
1000
HIER
1070
     0
1002
}
1002
{
1000
MANEDIT
1070
     0
1002
}
1002
{
1000
NOSEL
1070
     0
1002
}
1002
{
1000
BEHIND
1070
     0
1002
}
1002
{
1000
OTHER
1070
     0
1002
}
1002
{
1000
REACTOR
1002
}
1001
GENIUS_GENOBJ-N-CEN_13
1002
{
1000
OWNER
1000
GEN
1002
}
1001
GENIUS_GENCEN_19
1002
{
1040
3.0
1002
}
  0
LINE
  5
449CA
  8
0部品1
  6
中心線1
 10
1418.933424559635
 20
-2637.387522751752
 30
0.0
 11
1282.433444904687
 21
-2637.387522751752
 31
0.0
1001
GENIUS_GENODEF_13
1002
{
1000
HIER
1070
     0
1002
}
1002
{
1000
MANEDIT
1070
     0
1002
}
1002
{
1000
NOSEL
1070
     0
1002
}
1002
{
1000
BEHIND
1070
     0
1002
}
1002
{
1000
OTHER
1070
     0
1002
}
1002
{
1000
REACTOR
1002
}
1001
GENIUS_GENOBJ-N-CEN_13
1002
{
1000
OWNER
1000
GEN
1002
}
1001
GENIUS_GENCEN_19
1002
{
1040
3.0
1002
}
  0
DIMENSION
  5
449CB
  8
AM_5
  2
*D5
 10
1431.933424559635
 20
-2536.946058590122
 30
0.0
 11
1431.933424559636
 21
-2516.94602196903
 31
0.0
 70
   160
  1
Dt
  3
SYS$0
 13
1425.933424559635
 23
-2496.945985347937
 33
0.0
 14
1425.933424559635
 24
-2536.946058590122
 34
0.0
 50
90.0
1001
ACAD
1000
DSTYLE
1002
{
1070
   179
1070
     2
1002
}
1001
ACAD_DSTYLE_DIMINSPECT
1070
   396
1000
100%
1070
   395
1000

1070
   394
1070
    33
1070
   393
1070
     0
  0
DIMENSION
  5
449CC
  8
AM_5
  2
*D6
 10
1250.441632845101
 20
-2537.44602196903
 30
0.0
 11
1239.441648103892
 21
-2537.44602196903
 31
0.0
 70
   160
  3
SYS$0
 13
1228.441663362683
 23
-2528.94602196903
 33
0.0
 14
1250.441632845101
 24
-2529.44602196903
 34
0.0
  0
DIMENSION
  5
449CD
  8
AM_5
  2
*D7
 10
1258.4416328451
 20
-2529.44602196903
 30
0.0
 11
1258.441632845101
 21
-2523.19602196903
 31
0.0
 70
   160
  3
SYS$0
 13
1253.441632845101
 23
-2516.94602196903
 33
0.0
 14
1250.441632845101
 24
-2529.44602196903
 34
0.0
 50
90.0
  0
DIMENSION
  5
449CE
  8
AM_5
  2
*D8
 10
1258.4416328451
 20
-2492.946062659136
 30
0.0
 11
1258.441632845101
 21
-2504.946042314083
 31
0.0
 70
   160
  1
L
  3
SYS$0
 13
1253.441632845101
 23
-2516.94602196903
 33
0.0
 14
1249.307630159554
 24
-2492.946062659136
 34
0.0
 50
90.0
  0
DIMENSION
  5
449CF
  8
AM_5
  2
*D9
 10
1431.933424559635
 20
-2729.487522751751
 30
0.0
 11
1431.933424559636
 21
-2662.987522751751
 31
0.0
 70
   160
  3
SYS$0
 13
1413.933424559636
 23
-2596.487522751751
 33
0.0
 14
1413.933424559636
 24
-2729.487522751751
 34
0.0
 50
90.0
1001
ACAD
1000
DSTYLE
1002
{
1070
    47
1040
0.3
1070
    48
1040
0.0
1070
   179
1070
     2
1002
}
1001
ACAD_DSTYLE_DIMINSPECT
1070
   396
1000
100%
1070
   395
1000

1070
   394
1070
    33
1070
   393
1070
     0
  0
DIMENSION
  5
449D0
  8
AM_5
  2
*D10
 10
1308.933444904686
 20
-2665.387522751752
 30
0.0
 11
1308.933444904686
 21
-2626.352788213396
 31
0.0
 70
   160
  1
<>
  3
SYSORG1P33$0
 13
1296.933444904686
 23
-2609.387522751753
 33
0.0
 14
1296.933444904686
 24
-2665.387522751752
 34
0.0
 50
90.0
1001
ACAD
1000
DSTYLE
1002
{
1070
     7
1000
DOT
1070
     6
1000
DOT
1070
    41
1040
1.0
1070
    45
1040
1.0
1070
    75
1070
     1
1070
    76
1070
     1
1070
   144
1040
1.0
1070
   173
1070
     1
1070
   271
1070
     0
1002
}
  0
LINE
  5
449D1
  8
0部品9
  6
中線
 10
1296.933444904686
 20
-2687.287506475713
 30
0.0
 11
1298.433444904687
 21
-2687.287506475713
 31
0.0
  0
LINE
  5
449D2
  8
0部品10
 10
1285.433444904686
 20
-2646.77839189238
 30
0.0
 11
1285.433444904686
 21
-2627.996612921021
 31
0.0
  0
LINE
  5
449D3
  8
0部品6
  6
陰線1
 10
1367.933424559634
 20
-2611.387522751753
 30
0.0
 11
1365.933424559634
 21
-2609.387522751753
 31
0.0
  0
LINE
  5
449D4
  8
0部品9
  6
中線
 10
1296.933444904686
 20
-2587.487539027794
 30
0.0
 11
1298.433444904687
 21
-2587.487539027794
 31
0.0
  0
LINE
  5
449D5
  8
0部品6
  6
陰線1
 10
1343.683424559634
 20
-2609.387522751753
 30
0.0
 11
1343.683424559634
 21
-2611.887522751752
 31
0.0
  0
LINE
  5
449D6
  8
0部品6
  6
陰線1
 10
1352.183424559634
 20
-2609.387522751753
 30
0.0
 11
1365.933424559634
 21
-2609.387522751753
 31
0.0
  0
LINE
  5
449D7
  8
0部品6
  6
陰線1
 10
1352.183424559634
 20
-2665.387522751752
 30
0.0
 11
1365.933424559634
 21
-2665.387522751752
 31
0.0
  0
LINE
  5
449D8
  8
0部品6
  6
陰線1
 10
1367.933424559634
 20
-2663.387522751753
 30
0.0
 11
1367.933424559634
 21
-2611.387522751753
 31
0.0
  0
LINE
  5
449D9
  8
0部品6
  6
陰線1
 10
1352.183424559634
 20
-2609.387522751753
 30
0.0
 11
1352.183424559634
 21
-2611.887522751752
 31
0.0
  0
LINE
  5
449DA
  8
0部品6
  6
陰線1
 10
1365.933444904686
 20
-2665.387482061646
 30
0.0
 11
1367.933444904686
 21
-2663.387482061646
 31
0.0
  0
LINE
  5
449DB
  8
0部品6
 10
1300.933444904686
 20
-2609.387522751753
 30
0.0
 11
1330.933424559637
 21
-2609.387522751753
 31
0.0
  0
LINE
  5
449DC
  8
0部品6
 10
1300.933444904686
 20
-2665.387522751752
 30
0.0
 11
1330.933424559635
 21
-2665.387522751752
 31
0.0
  0
LINE
  5
449DD
  8
0部品6
  6
陰線1
 10
1343.683424559634
 20
-2665.387522751752
 30
0.0
 11
1343.683424559634
 21
-2662.887522751752
 31
0.0
  0
LINE
  5
449DE
  8
0部品6
  6
陰線1
 10
1352.183424559634
 20
-2665.387522751752
 30
0.0
 11
1352.183424559634
 21
-2662.887522751752
 31
0.0
  0
LINE
  5
449DF
  8
0部品9
  6
中線
 10
1298.433444904687
 20
-2687.287506475713
 30
0.0
 11
1298.433444904687
 21
-2587.487539027794
 31
0.0
  0
LINE
  5
449E2
  8
0部品10
 10
1285.937839435939
 20
-2647.282827113727
 30
0.0
 11
1296.933444904686
 21
-2647.378765635727
 31
0.0
  0
LINE
  5
449E3
  8
0部品1
  6
中心線1
 10
1293.933444904687
 20
-2597.387522751752
 30
0.0
 11
1314.433380965354
 21
-2597.387522751752
 31
0.0
  0
LINE
  5
449E4
  8
0部品10
 10
1285.937880126045
 20
-2627.492218389781
 30
0.0
 11
1296.933444904686
 21
-2627.396240962935
 31
0.0
  0
LINE
  5
449E5
  8
0部品10
 10
1285.433444904686
 20
-2627.996572230913
 30
0.0
 11
1285.937839435939
 21
-2627.492177699674
 31
0.0
  0
LINE
  5
449E6
  8
0部品9
  6
中線
 10
1296.933444904686
 20
-2687.287506475713
 30
0.0
 11
1296.933444904686
 21
-2587.487539027794
 31
0.0
  0
LINE
  5
449E7
  8
0部品8
 10
1300.933444904686
 20
-2587.587514613727
 30
0.0
 11
1300.933444904686
 21
-2687.187490199674
 31
0.0
  0
LINE
  5
449E8
  8
0部品8
 10
1298.433444904687
 20
-2587.587514613727
 30
0.0
 11
1298.433444904687
 21
-2687.187490199674
 31
0.0
  0
LINE
  5
449E9
  8
0部品8
 10
1298.433444904687
 20
-2587.587514613727
 30
0.0
 11
1300.933444904686
 21
-2587.587514613727
 31
0.0
  0
LINE
  5
449EB
  8
0部品8
 10
1298.433444904687
 20
-2687.187490199674
 30
0.0
 11
1300.933444904686
 21
-2687.187490199674
 31
0.0
  0
LINE
  5
449EC
  8
0部品6
  6
陰線1
 10
1330.933424559635
 20
-2665.387522751752
 30
0.0
 11
1343.683424559634
 21
-2665.387522751752
 31
0.0
  0
LINE
  5
449ED
  8
0部品6
  6
陰線1
 10
1330.933424559637
 20
-2609.387522751753
 30
0.0
 11
1343.683424559634
 21
-2609.387522751753
 31
0.0
  0
ARC
  5
449EE
  8
0部品6
  6
陰線1
 10
1347.933424559634
 20
-2662.887522751752
 30
0.0
 40
4.249999999999999
 50
359.9999974955313
 51
180.0000093346578
  0
ARC
  5
449EF
  8
0部品6
  6
陰線1
 10
1347.933424559634
 20
-2611.887522751752
 30
0.0
 40
4.249999999999999
 50
179.9999956742795
 51
0.0000006832169358
  0
LINE
  5
449F0
  8
0部品10
 10
1285.433444904686
 20
-2646.778432582488
 30
0.0
 11
1285.937839435939
 21
-2647.282827113727
 31
0.0
  0
DIMENSION
  5
449F1
  8
AM_5
  2
*D11
 10
1300.933444904687
 20
-2483.445985347936
 30
0.0
 11
1298.756440518006
 21
-2483.445985347936
 31
0.0
 70
   160
  3
SYS$0
 13
1296.933444904686
 23
-2497.545985347938
 33
0.0
 14
1300.933444904687
 24
-2504.546017900017
 34
0.0
1001
ACAD
1000
DSTYLE
1002
{
1070
   271
1070
     1
1002
}
  0
DIMENSION
  5
449F2
  8
AM_5
  2
*D12
 10
1277.433444904686
 20
-2677.387522751752
 30
0.0
 11
1277.433444904686
 21
-2637.387522751752
 31
0.0
 70
   160
  3
SYS$0
 13
1293.933444904687
 23
-2597.387522751752
 33
0.0
 14
1293.933444904687
 24
-2677.387522751752
 34
0.0
 50
90.0
1001
ACAD
1000
DSTYLE
1002
{
1070
   271
1070
     1
1002
}
  0
DIMENSION
  5
449F3
  8
AM_5
  2
*D13
 10
1277.433444904686
 20
-2587.487539027794
 30
0.0
 11
1277.433444904686
 21
-2592.437530889773
 31
0.0
 70
   160
  1
10\P
  3
SYS$0
 13
1293.933444904687
 23
-2597.387522751752
 33
0.0
 14
1296.933444904686
 24
-2587.487539027794
 34
0.0
 50
90.0
1001
ACAD
1000
DSTYLE
1002
{
1070
   271
1070
     1
1002
}
  0
DIMENSION
  5
449F4
  8
AM_5
  2
*D14
 10
1277.433444904686
 20
-2687.287506475713
 30
0.0
 11
1277.433444904686
 21
-2682.337514613734
 31
0.0
 70
   160
  1
10\P
  3
SYS$0
 13
1293.933444904687
 23
-2677.387522751755
 33
0.0
 14
1296.933444904686
 24
-2687.287506475713
 34
0.0
 50
270.0
1001
ACAD
1000
DSTYLE
1002
{
1070
   271
1070
     1
1002
}
  0
DIMENSION
  5
449F5
  8
AM_5
  2
*D15
 10
1329.139911917093
 20
-2527.44602196903
 30
0.0
 11
1329.139911917093
 21
-2521.781148265965
 31
0.0
 70
   160
  1
22\P
  3
SYS$0
 13
1324.316219742809
 23
-2506.44602196903
 33
0.0
 14
1324.316219742809
 24
-2527.44602196903
 34
0.0
 50
90.0
1001
ACAD
1000
DSTYLE
1002
{
1070
    75
1070
     1
1070
    76
1070
     1
1070
   271
1070
     1
1002
}
  0
DIMENSION
  5
449F8
  8
AM_5
  2
*D16
 10
1367.933424559635
 20
-2558.446058590123
 30
0.0
 11
1332.433434732161
 21
-2558.446058590123
 31
0.0
 70
   160
  1
ケース奥行72
  3
SYS$0
 13
1296.933444904687
 23
-2535.346058590123
 33
0.0
 14
1367.933424559635
 24
-2527.44602196903
 34
0.0
1001
ACAD
1000
DSTYLE
1002
{
1070
   271
1070
     1
1002
}
  0
DIMENSION
  5
449F9
  8
AM_5
  2
*D17
 10
1431.933424559635
 20
-2491.445985347937
 30
0.0
 11
1431.933424559636
 21
-2487.09931868127
 31
0.0
 70
   160
  3
SYS$0
 13
1425.933424559635
 23
-2496.945985347937
 33
0.0
 14
1403.933424559635
 24
-2491.445985347937
 34
0.0
 50
90.0
1001
ACAD
1000
DSTYLE
1002
{
1070
   271
1070
     1
1002
}
  0
DIMENSION
  5
449FA
  8
AM_5
  2
*D18
 10
1431.933424559635
 20
-2542.446058590123
 30
0.0
 11
1431.933424559636
 21
-2546.79272525679
 31
0.0
 70
   160
  3
SYS$0
 13
1425.933424559635
 23
-2536.946058590123
 33
0.0
 14
1403.933424559635
 24
-2542.446058590123
 34
0.0
 50
270.0
1001
ACAD
1000
DSTYLE
1002
{
1070
   271
1070
     1
1002
}
  0
DIMENSION
  5
449FB
  8
AM_5
  2
*D19
 10
1318.344087641729
 20
-2529.346026038044
 30
0.0
 11
1318.344087641729
 21
-2522.222730495569
 31
0.0
 70
   160
  1
25
  3
SYS$0
 13
1300.933444904687
 23
-2504.546017900017
 33
0.0
 14
1300.933444904687
 24
-2529.346026038044
 34
0.0
 50
90.0
1001
ACAD
1000
DSTYLE
1002
{
1070
   271
1070
     1
1002
}
  0
LINE
  5
44A06
  8
0部品15
  6
細線
 10
1311.433444904686
 20
-2599.037522751753
 30
0.0
 11
1300.933444904686
 21
-2599.037522751753
 31
0.0
  0
LINE
  5
44A08
  8
0部品15
 10
1311.083464280925
 20
-2599.387522751753
 30
0.0
 11
1311.08330927102
 21
-2595.387522751753
 31
0.0
  0
LINE
  5
44A09
  8
0部品15
 10
1311.083464280925
 20
-2599.387522751753
 30
0.0
 11
1300.933444904686
 21
-2599.387522751753
 31
0.0
  0
LINE
  5
44A0A
  8
0部品15
  6
細線
 10
1311.433444904686
 20
-2595.737522751753
 30
0.0
 11
1300.933444904686
 21
-2595.737522751753
 31
0.0
  0
LINE
  5
44A0B
  8
0部品15
 10
1311.08330927102
 20
-2595.387522751753
 30
0.0
 11
1300.933444904686
 21
-2595.387522751753
 31
0.0
  0
LINE
  5
44A0C
  8
0部品15
 10
1311.08330927102
 20
-2595.387522751753
 30
0.0
 11
1311.433322834387
 21
-2595.737522751753
 31
0.0
  0
LINE
  5
44A0D
  8
0部品15
 10
1311.433450717558
 20
-2599.037522751753
 30
0.0
 11
1311.083464284247
 21
-2599.387608488486
 31
0.0
  0
DIMENSION
  5
44A21
  8
AM_5
  2
*D20
 10
1220.4416328451
 20
-2672.387553269333
 30
0.0
 11
1220.441632845101
 21
-2637.387538010543
 31
0.0
 70
   160
  1
<>
  3
SYSORG1P33$0
 13
1229.941632845101
 23
-2602.387522751753
 33
0.0
 14
1229.941632845101
 24
-2672.387553269333
 34
0.0
 50
90.0
1001
ACAD
1000
DSTYLE
1002
{
1070
     7
1000
DOT
1070
     6
1000
DOT
1070
    41
1040
1.0
1070
    45
1040
1.0
1070
   144
1040
1.0
1070
   173
1070
     1
1070
   271
1070
     0
1002
}
  0
LINE
  5
44A23
  8
0部品14
 10
1236.441602327521
 20
-2594.037547165812
 30
0.0
 11
1236.79157791346
 21
-2594.387522751752
 31
0.0
  0
LINE
  5
44A24
  8
0部品14
 10
1236.441632845101
 20
-2590.737559372833
 30
0.0
 11
1236.79163894862
 21
-2590.387553269334
 31
0.0
  0
LINE
  5
44A26
  8
0部品13
 10
1248.941632845101
 20
-2602.387522751753
 30
0.0
 11
1229.941632845101
 21
-2602.387522751753
 31
0.0
  0
LINE
  5
44A27
  8
0部品13
 10
1248.941632845101
 20
-2672.387553269333
 30
0.0
 11
1229.941632845101
 21
-2672.387553269333
 31
0.0
  0
LINE
  5
44A2A
  8
0部品1
  6
中心線1
 10
1253.441632845101
 20
-2592.387522751752
 30
0.0
 11
1233.4416328451
 21
-2592.387522751752
 31
0.0
  0
LINE
  5
44A2C
  8
0部品14
 10
1236.79163894862
 20
-2590.387522751753
 30
0.0
 11
1236.79163894862
 21
-2594.387522751752
 31
0.0
  0
LINE
  5
44A30
  8
0部品14
  6
細線
 10
1247.9416328451
 20
-2594.037547165812
 30
0.0
 11
1236.441632845101
 21
-2594.037547165812
 31
0.0
  0
LINE
  5
44A34
  8
0部品14
 10
1236.441632845101
 20
-2590.737498337673
 30
0.0
 11
1236.441632845101
 21
-2594.037547165812
 31
0.0
  0
LINE
  5
44A35
  8
0部品13
 10
1247.9416328451
 20
-2672.387553269333
 30
0.0
 11
1247.9416328451
 21
-2692.387553269333
 31
0.0
  0
LINE
  5
44A36
  8
0部品14
 10
1247.9416328451
 20
-2594.387522751752
 30
0.0
 11
1236.79163894862
 21
-2594.387522751752
 31
0.0
  0
LINE
  5
44A37
  8
0部品14
 10
1247.9416328451
 20
-2590.387522751753
 30
0.0
 11
1236.79163894862
 21
-2590.387522751753
 31
0.0
  0
LINE
  5
44A38
  8
0部品13
 10
1228.441632845101
 20
-2603.887522751753
 30
0.0
 11
1228.441632845101
 21
-2670.887553269333
 31
0.0
  0
LINE
  5
44A39
  8
0部品12
 10
1248.941632845101
 20
-2692.387553269333
 30
0.0
 11
1250.441632845101
 21
-2692.387553269333
 31
0.0
  0
LINE
  5
44A3A
  8
0部品12
 10
1250.441632845101
 20
-2582.387522751753
 30
0.0
 11
1250.441632845101
 21
-2692.387553269333
 31
0.0
  0
LINE
  5
44A3F
  8
0部品14
  6
細線
 10
1247.9416328451
 20
-2590.737498337673
 30
0.0
 11
1236.44169388026
 21
-2590.737498337673
 31
0.0
  0
LINE
  5
44A48
  8
0部品13
 10
1247.9416328451
 20
-2582.387522751753
 30
0.0
 11
1247.941632845101
 21
-2602.387522751752
 31
0.0
  0
ARC
  5
44A49
  8
0部品13
 10
1229.941632845101
 20
-2670.887553269333
 30
0.0
 40
1.5
 50
179.9999913485851
 51
270.0000006832691
  0
ARC
  5
44A4A
  8
0部品13
 10
1229.941632845101
 20
-2603.887522751753
 30
0.0
 40
1.5
 50
89.99999567427956
 51
180.0000050089634
  0
DIMENSION
  5
44A4B
  8
AM_5
  2
*D21
 10
1220.441663362683
 20
-2528.94602196903
 30
0.0
 11
1220.441663362683
 21
-2516.94602196903
 31
0.0
 70
   160
  1
<>
  3
SYSORG1P33$0
 13
1229.441663362683
 23
-2504.94602196903
 33
0.0
 14
1229.441663362683
 24
-2528.94602196903
 34
0.0
 50
270.0
1001
ACAD
1000
DSTYLE
1002
{
1070
   287
1070
     3
1070
     7
1000
DOT
1070
     6
1000
DOT
1070
   144
1040
1.0
1070
    40
1040
1.0
1070
    41
1040
1.0
1070
    45
1040
1.0
1070
   140
1040
3.2
1070
   173
1070
     1
1070
   271
1070
     0
1070
   279
1070
     0
1070
   284
1070
     8
1070
   341
1005
A66
1002
}
  0
DIMENSION
  5
44A4C
  8
AM_5
  2
*D22
 10
1250.441632845101
 20
-2483.445985347936
 30
0.0
 11
1242.161921744833
 21
-2483.445985347936
 31
0.0
 70
   160
  1
2.5
  3
SYS$0
 13
1248.008588411499
 23
-2493.696062659136
 33
0.0
 14
1250.441632845101
 24
-2495.312029456001
 34
0.0
1001
ACAD
1000
DSTYLE
1002
{
1070
   287
1070
     3
1070
     7
1000
DOT
1070
     6
1000
DOT
1070
   144
1040
1.0
1070
    40
1040
1.0
1070
    41
1040
1.0
1070
    45
1040
1.0
1070
   140
1040
3.2
1070
   173
1070
     1
1070
   271
1070
     0
1070
   279
1070
     0
1070
   284
1070
     8
1070
   341
1005
A66
1002
}
  0
LINE
  5
44A4D
  8
0部品12
 10
1250.441632845101
 20
-2529.44602196903
 30
0.0
 11
1248.941632845101
 21
-2529.44602196903
 31
0.0
  0
LINE
  5
44A4F
  8
0部品13
 10
1248.941632845101
 20
-2527.94602196903
 30
0.0
 11
1228.441663362683
 21
-2527.94602196903
 31
0.0
  0
LINE
  5
44A50
  8
0部品13
 10
1248.941632845101
 20
-2528.94602196903
 30
0.0
 11
1229.441663362683
 21
-2528.94602196903
 31
0.0
  0
LINE
  5
44A52
  8
0部品13
 10
1248.941632845101
 20
-2505.946021969029
 30
0.0
 11
1228.441663362683
 21
-2505.946021969029
 31
0.0
  0
LINE
  5
44A53
  8
0部品13
 10
1248.941632845101
 20
-2504.94602196903
 30
0.0
 11
1229.441663362683
 21
-2504.94602196903
 31
0.0
  0
LINE
  5
44A54
  8
0部品12
 10
1248.008588411499
 20
-2493.696062659136
 30
0.0
 11
1248.941602327527
 21
-2495.312110836215
 31
0.0
  0
LINE
  5
44A55
  8
0部品12
 10
1249.307630159554
 20
-2492.946062659136
 30
0.0
 11
1250.240644075567
 21
-2494.562110836215
 31
0.0
  0
LINE
  5
44A56
  8
0部品12
 10
1249.307630159554
 20
-2492.946062659136
 30
0.0
 11
1248.008588411499
 21
-2493.696062659136
 31
0.0
  0
LINE
  5
44A57
  8
0部品1
  6
中心線1
 10
1253.441632845101
 20
-2516.94602196903
 30
0.0
 11
1225.441663362683
 21
-2516.94602196903
 31
0.0
  0
LINE
  5
44A58
  8
0部品12
 10
1250.441632845101
 20
-2495.312029456001
 30
0.0
 11
1250.441632845101
 21
-2529.44602196903
 31
0.0
  0
LINE
  5
44A59
  8
AM_2
 10
1247.9416328451
 20
-2505.946021969029
 30
0.0
 11
1247.9416328451
 21
-2527.94602196903
 31
0.0
  0
LINE
  5
44A5A
  8
0部品13
 10
1228.441663362683
 20
-2505.946021969029
 30
0.0
 11
1228.441663362683
 21
-2527.94602196903
 31
0.0
  0
LINE
  5
44A5B
  8
0部品12
 10
1248.941632845101
 20
-2495.312029456001
 30
0.0
 11
1248.941632845101
 21
-2529.44602196903
 31
0.0
  0
LINE
  5
44A5C
  8
0部品13
 10
1247.9416328451
 20
-2505.946021969029
 30
0.0
 11
1247.9416328451
 21
-2527.94602196903
 31
0.0
  0
ARC
  5
44A5D
  8
0部品13
 10
1229.441663362683
 20
-2527.94602196903
 30
0.0
 40
1.0
 50
179.9999974954792
 51
270.0000086513888
  0
ARC
  5
44A5E
  8
0部品13
 10
1229.441663362683
 20
-2505.946021969029
 30
0.0
 40
1.0
 50
89.99999134855906
 51
180.0000006831648
  0
ARC
  5
44A5F
  8
0部品12
 10
1248.941632845101
 20
-2495.312029456001
 30
0.0
 40
1.5
 50
0.0000025044165917
 51
30.00000333928825
  0
DIMENSION
  5
44A62
  8
AM_5
  2
*D23
 10
1258.4416328451
 20
-2682.387553269333
 30
0.0
 11
1258.441632845101
 21
-2637.387538010543
 31
0.0
 70
   160
  3
SYS$0
 13
1253.441632845101
 23
-2592.387522751752
 33
0.0
 14
1253.441632845101
 24
-2682.387553269333
 34
0.0
 50
90.0
1001
ACAD
1000
DSTYLE
1002
{
1070
   271
1070
     1
1002
}
  0
DIMENSION
  5
44A63
  8
AM_5
  2
*D24
 10
1258.4416328451
 20
-2582.387522751753
 30
0.0
 11
1258.441632845101
 21
-2587.387522751753
 31
0.0
 70
   160
  3
SYS$0
 13
1253.441632845101
 23
-2592.387522751752
 33
0.0
 14
1250.441632845101
 24
-2582.387522751753
 34
0.0
 50
90.0
1001
ACAD
1000
DSTYLE
1002
{
1070
   271
1070
     1
1002
}
  0
DIMENSION
  5
44A64
  8
AM_5
  2
*D25
 10
1258.4416328451
 20
-2682.387553269333
 30
0.0
 11
1258.441632845101
 21
-2687.387553269334
 31
0.0
 70
   160
  3
SYS$0
 13
1250.441632845101
 23
-2692.387553269333
 33
0.0
 14
1253.441632845101
 24
-2682.387553269333
 34
0.0
 50
90.0
1001
ACAD
1000
DSTYLE
1002
{
1070
   271
1070
     1
1002
}
  0
LINE
  5
44A65
  8
0部品1
  6
中心線1
 10
1253.441632845101
 20
-2637.387522751752
 30
0.0
 11
1225.4416328451
 21
-2637.387522751752
 31
0.0
1001
GENIUS_GENODEF_13
1002
{
1000
HIER
1070
     0
1002
}
1002
{
1000
MANEDIT
1070
     0
1002
}
1002
{
1000
NOSEL
1070
     0
1002
}
1002
{
1000
BEHIND
1070
     0
1002
}
1002
{
1000
OTHER
1070
     0
1002
}
1002
{
1000
REACTOR
1002
}
1001
GENIUS_GENOBJ-N-CEN_13
1002
{
1000
OWNER
1000
GEN
1002
}
1001
GENIUS_GENCEN_19
1002
{
1040
3.0
1002
}
  0
LINE
  5
44A66
  8
0部品12
 10
1248.941632845101
 20
-2582.387522751753
 30
0.0
 11
1248.941632845101
 21
-2692.387553269333
 31
0.0
  0
DIMENSION
  5
44A67
  8
AM_5
  2
*D26
 10
1285.433444904687
 20
-2558.446058590123
 30
0.0
 11
1291.183444904687
 21
-2558.446058590123
 31
0.0
 70
   160
  1
<>
  3
SYS$0
 13
1296.933444904687
 23
-2535.346058590123
 33
0.0
 14
1285.433444904687
 24
-2510.961178951369
 34
0.0
  0
DIMENSION
  5
44A68
  8
AM_5
  2
*D27
 10
1266.4416328451
 20
-2587.487539027794
 30
0.0
 11
1266.441632845101
 21
-2577.82702523399
 31
0.0
 70
   160
  1
5
  3
SYS$0
 13
1250.441632845101
 23
-2582.387522751753
 33
0.0
 14
1296.933444904686
 24
-2587.487539027794
 34
0.0
 50
90.0
  0
TEXT
  5
44A69
  8
AM_6
 10
1269.29390343329
 20
-2585.695929867087
 30
0.0
 40
3.2
  1
フロント上端
 41
0.7
  0
LINE
  5
44A6A
  8
0部品14
 10
1236.441602327521
 20
-2518.59604638309
 30
0.0
 11
1236.79157791346
 21
-2518.94602196903
 31
0.0
  0
LINE
  5
44A6B
  8
0部品14
 10
1236.441632845101
 20
-2515.29605859011
 30
0.0
 11
1236.79163894862
 21
-2514.946052486611
 31
0.0
  0
LINE
  5
44A6C
  8
0部品14
 10
1236.79163894862
 20
-2514.94602196903
 30
0.0
 11
1236.79163894862
 21
-2518.94602196903
 31
0.0
  0
LINE
  5
44A6D
  8
0部品14
  6
細線
 10
1247.9416328451
 20
-2518.59604638309
 30
0.0
 11
1236.441632845101
 21
-2518.59604638309
 31
0.0
  0
LINE
  5
44A6E
  8
0部品14
 10
1236.441632845101
 20
-2515.295997554951
 30
0.0
 11
1236.441632845101
 21
-2518.59604638309
 31
0.0
  0
LINE
  5
44A6F
  8
0部品14
 10
1247.9416328451
 20
-2518.94602196903
 30
0.0
 11
1236.79163894862
 21
-2518.94602196903
 31
0.0
  0
LINE
  5
44A70
  8
0部品14
 10
1247.9416328451
 20
-2514.94602196903
 30
0.0
 11
1236.79163894862
 21
-2514.94602196903
 31
0.0
  0
LINE
  5
44A71
  8
0部品14
  6
細線
 10
1247.9416328451
 20
-2515.295997554951
 30
0.0
 11
1236.44169388026
 21
-2515.295997554951
 31
0.0
  0
DIMENSION
  5
44A72
  8
AM_5
  2
*D28
 10
1415.933424559634
 20
-2580.487522751752
 30
0.0
 11
1373.433424559634
 21
-2580.487522751752
 31
0.0
 70
   160
  3
SYS$0
 13
1330.933424559634
 23
-2596.487522751753
 33
0.0
 14
1415.933424559634
 24
-2596.487522751753
 34
0.0
  0
LINE
  5
44A73
  8
0部品5
 10
1340.933424559636
 20
-2604.087522751752
 30
0.0
 11
1382.433424559636
 21
-2604.087522751752
 31
0.0
1001
GENIUS_GENREC_14
1002
{
1000
PYDIR
1011
1337.933424559636
1021
-2715.987522751753
1031
0.0
1021
-2715.987522751753
1031
0.0
1002
}
1002
{
1000
PXDIR
1011
1384.933424559636
1021
-2603.587522751752
1031
0.0
1021
-2603.587522751752
1031
0.0
1002
}
1002
{
1000
PORI
1011
1337.933424559636
1021
-2603.587522751752
1031
0.0
1021
-2603.587522751752
1031
0.0
1002
}
1002
{
1000
PINS
1011
1337.933424559636
1021
-2603.587522751752
1031
0.0
1021
-2603.587522751752
1031
0.0
1002
}
1002
{
1000
PINS2
1011
1384.933424559636
1021
-2715.987522751753
1031
0.0
1021
-2715.987522751753
1031
0.0
1002
}
1002
{
1000
C
1070
     1
1002
}
1001
GENIUS_GENOBJ-N-REC_13
1002
{
1000
OWNER
1000
GEN
1002
}
1001
GENIUS_GENODEF_13
1002
{
1000
HIER
1070
     0
1002
}
1002
{
1000
MANEDIT
1070
     0
1002
}
1002
{
1000
NOSEL
1070
     0
1002
}
1002
{
1000
BEHIND
1070
     0
1002
}
1002
{
1000
OTHER
1070
     0
1002
}
1002
{
1000
REACTOR
1002
}
  0
ARC
  5
44A74
  8
0部品5
 10
1382.433424559636
 20
-2606.087522751753
 30
0.0
 40
2.0
 50
0.0
 51
90.0
1001
GENIUS_GENREC_14
1002
{
1000
PYDIR
1011
1337.933424559636
1021
-2715.987522751753
1031
0.0
1021
-2715.987522751753
1031
0.0
1002
}
1002
{
1000
PXDIR
1011
1384.933424559636
1021
-2603.587522751752
1031
0.0
1021
-2603.587522751752
1031
0.0
1002
}
1002
{
1000
PORI
1011
1337.933424559636
1021
-2614.387522751753
1031
0.0
1021
-2614.387522751753
1031
0.0
1002
}
1002
{
1000
PINS
1011
1337.933424559636
1021
-2614.387522751753
1031
0.0
1021
-2614.387522751753
1031
0.0
1002
}
1002
{
1000
PINS2
1011
1384.933424559636
1021
-2715.987522751753
1031
0.0
1021
-2715.987522751753
1031
0.0
1002
}
1002
{
1000
C
1070
     1
1002
}
1001
GENIUS_GENOBJ-N-REC_13
1002
{
1000
OWNER
1000
GEN
1002
}
1001
GENIUS_GENODEF_13
1002
{
1000
HIER
1070
     0
1002
}
1002
{
1000
MANEDIT
1070
     0
1002
}
1002
{
1000
NOSEL
1070
     0
1002
}
1002
{
1000
BEHIND
1070
     0
1002
}
1002
{
1000
OTHER
1070
     0
1002
}
1002
{
1000
REACTOR
1002
}
  0
LINE
  5
44A75
  8
0部品5
 10
1384.433424559636
 20
-2606.087522751753
 30
0.0
 11
1384.433424559636
 21
-2719.887522751753
 31
0.0
1001
GENIUS_GENREC_14
1002
{
1000
PYDIR
1011
1337.933424559636
1021
-2722.387522751754
1031
0.0
1021
-2722.387522751754
1031
0.0
1002
}
1002
{
1000
PXDIR
1011
1384.933424559636
1021
-2603.587522751752
1031
0.0
1021
-2603.587522751752
1031
0.0
1002
}
1002
{
1000
PORI
1011
1337.933424559636
1021
-2614.387522751753
1031
0.0
1021
-2614.387522751753
1031
0.0
1002
}
1002
{
1000
PINS
1011
1337.933424559636
1021
-2614.387522751753
1031
0.0
1021
-2614.387522751753
1031
0.0
1002
}
1002
{
1000
PINS2
1011
1384.933424559636
1021
-2722.387522751754
1031
0.0
1021
-2722.387522751754
1031
0.0
1002
}
1002
{
1000
C
1070
     1
1002
}
1001
GENIUS_GENOBJ-N-REC_13
1002
{
1000
OWNER
1000
GEN
1002
}
1001
GENIUS_GENODEF_13
1002
{
1000
HIER
1070
     0
1002
}
1002
{
1000
MANEDIT
1070
     0
1002
}
1002
{
1000
NOSEL
1070
     0
1002
}
1002
{
1000
BEHIND
1070
     0
1002
}
1002
{
1000
OTHER
1070
     0
1002
}
1002
{
1000
REACTOR
1002
}
  0
ARC
  5
44A76
  8
0部品5
 10
1382.433424559636
 20
-2719.887522751753
 30
0.0
 40
2.0
 50
270.0
 51
0.0
1001
GENIUS_GENREC_14
1002
{
1000
PYDIR
1011
1337.933424559636
1021
-2722.387522751754
1031
0.0
1021
-2722.387522751754
1031
0.0
1002
}
1002
{
1000
PXDIR
1011
1384.933424559636
1021
-2669.987522751753
1031
0.0
1021
-2669.987522751753
1031
0.0
1002
}
1002
{
1000
PORI
1011
1337.933424559636
1021
-2669.987522751753
1031
0.0
1021
-2669.987522751753
1031
0.0
1002
}
1002
{
1000
PINS
1011
1337.933424559636
1021
-2669.987522751753
1031
0.0
1021
-2669.987522751753
1031
0.0
1002
}
1002
{
1000
PINS2
1011
1384.933424559636
1021
-2722.387522751754
1031
0.0
1021
-2722.387522751754
1031
0.0
1002
}
1002
{
1000
C
1070
     1
1002
}
1001
GENIUS_GENOBJ-N-REC_13
1002
{
1000
OWNER
1000
GEN
1002
}
1001
GENIUS_GENODEF_13
1002
{
1000
HIER
1070
     0
1002
}
1002
{
1000
MANEDIT
1070
     0
1002
}
1002
{
1000
NOSEL
1070
     0
1002
}
1002
{
1000
BEHIND
1070
     0
1002
}
1002
{
1000
OTHER
1070
     0
1002
}
1002
{
1000
REACTOR
1002
}
  0
LINE
  5
44A77
  8
0部品5
 10
1382.433424559636
 20
-2721.887522751754
 30
0.0
 11
1340.933424559636
 21
-2721.887522751754
 31
0.0
1001
GENIUS_GENREC_14
1002
{
1000
PYDIR
1011
1337.933424559636
1021
-2722.387522751754
1031
0.0
1021
-2722.387522751754
1031
0.0
1002
}
1002
{
1000
PXDIR
1011
1384.933424559636
1021
-2669.987522751753
1031
0.0
1021
-2669.987522751753
1031
0.0
1002
}
1002
{
1000
PORI
1011
1337.933424559636
1021
-2669.987522751753
1031
0.0
1021
-2669.987522751753
1031
0.0
1002
}
1002
{
1000
PINS
1011
1337.933424559636
1021
-2669.987522751753
1031
0.0
1021
-2669.987522751753
1031
0.0
1002
}
1002
{
1000
PINS2
1011
1384.933424559636
1021
-2722.387522751754
1031
0.0
1021
-2722.387522751754
1031
0.0
1002
}
1002
{
1000
C
1070
     1
1002
}
1001
GENIUS_GENOBJ-N-REC_13
1002
{
1000
OWNER
1000
GEN
1002
}
1001
GENIUS_GENODEF_13
1002
{
1000
HIER
1070
     0
1002
}
1002
{
1000
MANEDIT
1070
     0
1002
}
1002
{
1000
NOSEL
1070
     0
1002
}
1002
{
1000
BEHIND
1070
     0
1002
}
1002
{
1000
OTHER
1070
     0
1002
}
1002
{
1000
REACTOR
1002
}
  0
ARC
  5
44A78
  8
0部品5
 10
1340.933424559636
 20
-2719.887522751753
 30
0.0
 40
2.0
 50
180.0
 51
270.0
1001
GENIUS_GENREC_14
1002
{
1000
PYDIR
1011
1338.433424559636
1021
-2722.387522751754
1031
0.0
1021
-2722.387522751754
1031
0.0
1002
}
1002
{
1000
PXDIR
1011
1385.433424559636
1021
-2669.987522751753
1031
0.0
1021
-2669.987522751753
1031
0.0
1002
}
1002
{
1000
PORI
1011
1338.433424559636
1021
-2669.987522751753
1031
0.0
1021
-2669.987522751753
1031
0.0
1002
}
1002
{
1000
PINS
1011
1338.433424559636
1021
-2669.987522751753
1031
0.0
1021
-2669.987522751753
1031
0.0
1002
}
1002
{
1000
PINS2
1011
1385.433424559636
1021
-2722.387522751754
1031
0.0
1021
-2722.387522751754
1031
0.0
1002
}
1002
{
1000
C
1070
     1
1002
}
1001
GENIUS_GENOBJ-N-REC_13
1002
{
1000
OWNER
1000
GEN
1002
}
1001
GENIUS_GENODEF_13
1002
{
1000
HIER
1070
     0
1002
}
1002
{
1000
MANEDIT
1070
     0
1002
}
1002
{
1000
NOSEL
1070
     0
1002
}
1002
{
1000
BEHIND
1070
     0
1002
}
1002
{
1000
OTHER
1070
     0
1002
}
1002
{
1000
REACTOR
1002
}
  0
LINE
  5
44A79
  8
0部品5
 10
1338.933424559636
 20
-2719.887522751753
 30
0.0
 11
1338.933424559636
 21
-2606.087522751753
 31
0.0
1001
GENIUS_GENREC_14
1002
{
1000
PYDIR
1011
1338.433424559636
1021
-2722.387522751754
1031
0.0
1021
-2722.387522751754
1031
0.0
1002
}
1002
{
1000
PXDIR
1011
1385.433424559636
1021
-2614.387522751753
1031
0.0
1021
-2614.387522751753
1031
0.0
1002
}
1002
{
1000
PORI
1011
1338.433424559636
1021
-2603.587522751752
1031
0.0
1021
-2603.587522751752
1031
0.0
1002
}
1002
{
1000
PINS
1011
1338.433424559636
1021
-2603.587522751752
1031
0.0
1021
-2603.587522751752
1031
0.0
1002
}
1002
{
1000
PINS2
1011
1385.433424559636
1021
-2722.387522751754
1031
0.0
1021
-2722.387522751754
1031
0.0
1002
}
1002
{
1000
C
1070
     1
1002
}
1001
GENIUS_GENOBJ-N-REC_13
1002
{
1000
OWNER
1000
GEN
1002
}
1001
GENIUS_GENODEF_13
1002
{
1000
HIER
1070
     0
1002
}
1002
{
1000
MANEDIT
1070
     0
1002
}
1002
{
1000
NOSEL
1070
     0
1002
}
1002
{
1000
BEHIND
1070
     0
1002
}
1002
{
1000
OTHER
1070
     0
1002
}
1002
{
1000
REACTOR
1002
}
  0
ARC
  5
44A7A
  8
0部品5
 10
1340.933424559636
 20
-2606.087522751753
 30
0.0
 40
2.0
 50
90.0
 51
180.0
1001
GENIUS_GENREC_14
1002
{
1000
PYDIR
1011
1338.433424559636
1021
-2715.987522751753
1031
0.0
1021
-2715.987522751753
1031
0.0
1002
}
1002
{
1000
PXDIR
1011
1385.433424559636
1021
-2614.387522751753
1031
0.0
1021
-2614.387522751753
1031
0.0
1002
}
1002
{
1000
PORI
1011
1338.433424559636
1021
-2603.587522751752
1031
0.0
1021
-2603.587522751752
1031
0.0
1002
}
1002
{
1000
PINS
1011
1338.433424559636
1021
-2603.587522751752
1031
0.0
1021
-2603.587522751752
1031
0.0
1002
}
1002
{
1000
PINS2
1011
1385.433424559636
1021
-2715.987522751753
1031
0.0
1021
-2715.987522751753
1031
0.0
1002
}
1002
{
1000
C
1070
     1
1002
}
1001
GENIUS_GENOBJ-N-REC_13
1002
{
1000
OWNER
1000
GEN
1002
}
1001
GENIUS_GENODEF_13
1002
{
1000
HIER
1070
     0
1002
}
1002
{
1000
MANEDIT
1070
     0
1002
}
1002
{
1000
NOSEL
1070
     0
1002
}
1002
{
1000
BEHIND
1070
     0
1002
}
1002
{
1000
OTHER
1070
     0
1002
}
1002
{
1000
REACTOR
1002
}
  0
POLYLINE
  5
44A7B
  8
0部品1
 66
     1
 10
0.0
 20
0.0
 30
0.0
 70
     1
1001
GENIUS_GENREC_14
1002
{
1000
PYDIR
1011
1337.933424559636
1021
-2722.387522751754
1031
0.0
1021
-2722.387522751754
1031
0.0
1002
}
1002
{
1000
PXDIR
1011
1408.933424559636
1021
-2603.587522751752
1031
0.0
1021
-2603.587522751752
1031
0.0
1002
}
1002
{
1000
PORI
1011
1337.933424559636
1021
-2603.587522751752
1031
0.0
1021
-2603.587522751752
1031
0.0
1002
}
1002
{
1000
PINS
1011
1337.933424559636
1021
-2603.587522751752
1031
0.0
1021
-2603.587522751752
1031
0.0
1002
}
1002
{
1000
PINS2
1011
1408.933424559636
1021
-2722.387522751754
1031
0.0
1021
-2722.387522751754
1031
0.0
1002
}
1002
{
1000
C
1070
     1
1002
}
1001
GENIUS_GENODEF_13
1002
{
1000
HIER
1070
     0
1002
}
1002
{
1000
MANEDIT
1070
     0
1002
}
1002
{
1000
NOSEL
1070
     0
1002
}
1002
{
1000
BEHIND
1070
     0
1002
}
1002
{
1000
OTHER
1070
     0
1002
}
1002
{
1000
REACTOR
1002
}
1001
GENIUS_GENOBJ-N-REC_13
1002
{
1000
OWNER
1000
GEN
1002
}
  0
VERTEX
  5
47352
  8
0部品1
 10
1339.933424559636
 20
-2603.587522751752
 30
0.0
  0
VERTEX
  5
47353
  8
0部品1
 10
1406.933424559636
 20
-2603.587522751752
 30
0.0
 42
-0.4142135623730951
  0
VERTEX
  5
47354
  8
0部品1
 10
1408.933424559636
 20
-2605.587522751752
 30
0.0
  0
VERTEX
  5
47355
  8
0部品1
 10
1408.933424559636
 20
-2720.387522751753
 30
0.0
 42
-0.4142135623730951
  0
VERTEX
  5
47356
  8
0部品1
 10
1406.933424559636
 20
-2722.387522751754
 30
0.0
  0
VERTEX
  5
47357
  8
0部品1
 10
1339.933424559636
 20
-2722.387522751754
 30
0.0
 42
-0.4142135623730951
  0
VERTEX
  5
47358
  8
0部品1
 10
1337.933424559636
 20
-2720.387522751753
 30
0.0
  0
VERTEX
  5
47359
  8
0部品1
 10
1337.933424559636
 20
-2605.587522751752
 30
0.0
 42
-0.4142135623730951
  0
SEQEND
  5
47399
  8
0部品1
  0
ARC
  5
44A7C
  8
0部品5
  6
細線
 10
1341.453617941629
 20
-2719.887522751753
 30
0.0
 40
2.0
 50
180.0
 51
270.0
1001
GENIUS_GENREC_14
1002
{
1000
PYDIR
1011
1338.953617941629
1021
-2722.387522751754
1031
0.0
1021
-2722.387522751754
1031
0.0
1002
}
1002
{
1000
PXDIR
1011
1385.953617941629
1021
-2669.987522751753
1031
0.0
1021
-2669.987522751753
1031
0.0
1002
}
1002
{
1000
PORI
1011
1338.953617941629
1021
-2669.987522751753
1031
0.0
1021
-2669.987522751753
1031
0.0
1002
}
1002
{
1000
PINS
1011
1338.953617941629
1021
-2669.987522751753
1031
0.0
1021
-2669.987522751753
1031
0.0
1002
}
1002
{
1000
PINS2
1011
1385.953617941629
1021
-2722.387522751754
1031
0.0
1021
-2722.387522751754
1031
0.0
1002
}
1002
{
1000
C
1070
     1
1002
}
1001
GENIUS_GENOBJ-N-REC_13
1002
{
1000
OWNER
1000
GEN
1002
}
1001
GENIUS_GENODEF_13
1002
{
1000
HIER
1070
     0
1002
}
1002
{
1000
MANEDIT
1070
     0
1002
}
1002
{
1000
NOSEL
1070
     0
1002
}
1002
{
1000
BEHIND
1070
     0
1002
}
1002
{
1000
OTHER
1070
     0
1002
}
1002
{
1000
REACTOR
1002
}
  0
LINE
  5
44A7D
  8
0部品5
  6
細線
 10
1339.453617941629
 20
-2719.887522751753
 30
0.0
 11
1339.453617941629
 21
-2606.087522751753
 31
0.0
1001
GENIUS_GENREC_14
1002
{
1000
PYDIR
1011
1338.953617941629
1021
-2722.387522751754
1031
0.0
1021
-2722.387522751754
1031
0.0
1002
}
1002
{
1000
PXDIR
1011
1385.953617941629
1021
-2614.387522751753
1031
0.0
1021
-2614.387522751753
1031
0.0
1002
}
1002
{
1000
PORI
1011
1338.953617941629
1021
-2603.587522751752
1031
0.0
1021
-2603.587522751752
1031
0.0
1002
}
1002
{
1000
PINS
1011
1338.953617941629
1021
-2603.587522751752
1031
0.0
1021
-2603.587522751752
1031
0.0
1002
}
1002
{
1000
PINS2
1011
1385.953617941629
1021
-2722.387522751754
1031
0.0
1021
-2722.387522751754
1031
0.0
1002
}
1002
{
1000
C
1070
     1
1002
}
1001
GENIUS_GENOBJ-N-REC_13
1002
{
1000
OWNER
1000
GEN
1002
}
1001
GENIUS_GENODEF_13
1002
{
1000
HIER
1070
     0
1002
}
1002
{
1000
MANEDIT
1070
     0
1002
}
1002
{
1000
NOSEL
1070
     0
1002
}
1002
{
1000
BEHIND
1070
     0
1002
}
1002
{
1000
OTHER
1070
     0
1002
}
1002
{
1000
REACTOR
1002
}
  0
ARC
  5
44A7E
  8
0部品5
  6
細線
 10
1341.453617941629
 20
-2606.087522751753
 30
0.0
 40
2.0
 50
90.0
 51
180.0
1001
GENIUS_GENREC_14
1002
{
1000
PYDIR
1011
1338.953617941629
1021
-2715.987522751753
1031
0.0
1021
-2715.987522751753
1031
0.0
1002
}
1002
{
1000
PXDIR
1011
1385.953617941629
1021
-2614.387522751753
1031
0.0
1021
-2614.387522751753
1031
0.0
1002
}
1002
{
1000
PORI
1011
1338.953617941629
1021
-2603.587522751752
1031
0.0
1021
-2603.587522751752
1031
0.0
1002
}
1002
{
1000
PINS
1011
1338.953617941629
1021
-2603.587522751752
1031
0.0
1021
-2603.587522751752
1031
0.0
1002
}
1002
{
1000
PINS2
1011
1385.953617941629
1021
-2715.987522751753
1031
0.0
1021
-2715.987522751753
1031
0.0
1002
}
1002
{
1000
C
1070
     1
1002
}
1001
GENIUS_GENOBJ-N-REC_13
1002
{
1000
OWNER
1000
GEN
1002
}
1001
GENIUS_GENODEF_13
1002
{
1000
HIER
1070
     0
1002
}
1002
{
1000
MANEDIT
1070
     0
1002
}
1002
{
1000
NOSEL
1070
     0
1002
}
1002
{
1000
BEHIND
1070
     0
1002
}
1002
{
1000
OTHER
1070
     0
1002
}
1002
{
1000
REACTOR
1002
}
  0
LINE
  5
44A7F
  8
0部品1
 10
1342.652404736401
 20
-2722.187522751754
 30
0.0
 11
1353.21444438287
 21
-2722.187522751754
 31
0.0
  0
LINE
  5
44A80
  8
0部品1
 10
1342.652404736401
 20
-2722.187522751754
 30
0.0
 11
1342.652404736401
 21
-2722.387522751754
 31
0.0
  0
LINE
  5
44A81
  8
0部品1
 10
1353.21444438287
 20
-2722.187522751754
 30
0.0
 11
1353.21444438287
 21
-2722.387522751754
 31
0.0
  0
LINE
  5
44A82
  8
0部品1
 10
1342.652404736401
 20
-2603.787522751752
 30
0.0
 11
1353.21444438287
 21
-2603.787522751752
 31
0.0
  0
LINE
  5
44A83
  8
0部品1
 10
1342.652404736401
 20
-2603.787522751752
 30
0.0
 11
1342.652404736401
 21
-2603.587522751752
 31
0.0
  0
LINE
  5
44A84
  8
0部品1
 10
1353.21444438287
 20
-2603.787522751752
 30
0.0
 11
1353.21444438287
 21
-2603.587522751752
 31
0.0
  0
POLYLINE
  5
44A85
  8
0部品1
 66
     1
 10
0.0
 20
0.0
 30
0.0
 70
     1
1001
GENIUS_GENREC_14
1002
{
1000
PYDIR
1011
1330.933424559636
1021
-2596.487522751753
1031
0.0
1021
-2596.487522751753
1031
0.0
1002
}
1002
{
1000
PXDIR
1011
1415.933424559636
1021
-2729.487522751753
1031
0.0
1021
-2729.487522751753
1031
0.0
1002
}
1002
{
1000
PORI
1011
1330.933424559636
1021
-2729.487522751753
1031
0.0
1021
-2729.487522751753
1031
0.0
1002
}
1002
{
1000
PINS
1011
1330.933424559636
1021
-2729.487522751753
1031
0.0
1021
-2729.487522751753
1031
0.0
1002
}
1002
{
1000
PINS2
1011
1415.933424559636
1021
-2596.487522751753
1031
0.0
1021
-2596.487522751753
1031
0.0
1002
}
1002
{
1000
C
1070
     1
1002
}
1001
GENIUS_GENODEF_13
1002
{
1000
HIER
1070
     0
1002
}
1002
{
1000
MANEDIT
1070
     0
1002
}
1002
{
1000
NOSEL
1070
     0
1002
}
1002
{
1000
BEHIND
1070
     0
1002
}
1002
{
1000
OTHER
1070
     0
1002
}
1002
{
1000
REACTOR
1002
}
1001
GENIUS_GENOBJ-N-REC_13
1002
{
1000
OWNER
1000
GEN
1002
}
  0
VERTEX
  5
4735A
  8
0部品1
 10
1332.933424559636
 20
-2729.487522751753
 30
0.0
  0
VERTEX
  5
4735B
  8
0部品1
 10
1413.933424559636
 20
-2729.487522751751
 30
0.0
 42
0.4142135623730884
  0
VERTEX
  5
4735C
  8
0部品1
 10
1415.933424559636
 20
-2727.487522751751
 30
0.0
  0
VERTEX
  5
4735D
  8
0部品1
 10
1415.933424559636
 20
-2598.487522751751
 30
0.0
 42
0.4142135623730984
  0
VERTEX
  5
4735E
  8
0部品1
 10
1413.933424559636
 20
-2596.487522751751
 30
0.0
  0
VERTEX
  5
4735F
  8
0部品1
 10
1332.933424559638
 20
-2596.487522751753
 30
0.0
 42
0.4142135623730793
  0
VERTEX
  5
47360
  8
0部品1
 10
1330.933424559638
 20
-2598.487522751753
 30
0.0
  0
VERTEX
  5
47361
  8
0部品1
 10
1330.933424559636
 20
-2727.487522751753
 30
0.0
 42
0.414213562373114
  0
SEQEND
  5
4739A
  8
0部品1
  0
CIRCLE
  5
44A86
  8
0部品1
 10
1396.433424559636
 20
-2608.937522751754
 30
0.0
 40
4.25
  0
LINE
  5
44A88
  8
0部品1
  6
中心線1
 10
1396.433424559636
 20
-2601.687522751753
 30
0.0
 11
1396.433424559636
 21
-2616.187522751753
 31
0.0
1001
GENIUS_GENODEF_13
1002
{
1000
HIER
1070
     0
1002
}
1002
{
1000
MANEDIT
1070
     0
1002
}
1002
{
1000
NOSEL
1070
     0
1002
}
1002
{
1000
BEHIND
1070
     0
1002
}
1002
{
1000
OTHER
1070
     0
1002
}
1002
{
1000
REACTOR
1002
}
1001
GENIUS_GENOBJ-N-CEN_13
1002
{
1000
OWNER
1000
GEN
1002
}
1001
GENIUS_GENCEN_19
1002
{
1040
3.0
1002
}
  0
LINE
  5
44A89
  8
0部品1
  6
中心線1
 10
1403.683424559636
 20
-2608.937522751754
 30
0.0
 11
1389.183424559636
 21
-2608.937522751754
 31
0.0
1001
GENIUS_GENODEF_13
1002
{
1000
HIER
1070
     0
1002
}
1002
{
1000
MANEDIT
1070
     0
1002
}
1002
{
1000
NOSEL
1070
     0
1002
}
1002
{
1000
BEHIND
1070
     0
1002
}
1002
{
1000
OTHER
1070
     0
1002
}
1002
{
1000
REACTOR
1002
}
1001
GENIUS_GENOBJ-N-CEN_13
1002
{
1000
OWNER
1000
GEN
1002
}
1001
GENIUS_GENCEN_19
1002
{
1040
3.0
1002
}
  0
CIRCLE
  5
44A8A
  8
0部品1
 10
1396.433424559636
 20
-2717.037522751754
 30
0.0
 40
4.25
  0
LINE
  5
44A8C
  8
0部品1
  6
中心線1
 10
1396.433424559636
 20
-2724.287522751754
 30
0.0
 11
1396.433424559636
 21
-2709.787522751754
 31
0.0
1001
GENIUS_GENODEF_13
1002
{
1000
HIER
1070
     0
1002
}
1002
{
1000
MANEDIT
1070
     0
1002
}
1002
{
1000
NOSEL
1070
     0
1002
}
1002
{
1000
BEHIND
1070
     0
1002
}
1002
{
1000
OTHER
1070
     0
1002
}
1002
{
1000
REACTOR
1002
}
1001
GENIUS_GENOBJ-N-CEN_13
1002
{
1000
OWNER
1000
GEN
1002
}
1001
GENIUS_GENCEN_19
1002
{
1040
3.0
1002
}
  0
LINE
  5
44A8D
  8
0部品1
  6
中心線1
 10
1403.683424559636
 20
-2717.037522751754
 30
0.0
 11
1389.183424559636
 21
-2717.037522751754
 31
0.0
1001
GENIUS_GENODEF_13
1002
{
1000
HIER
1070
     0
1002
}
1002
{
1000
MANEDIT
1070
     0
1002
}
1002
{
1000
NOSEL
1070
     0
1002
}
1002
{
1000
BEHIND
1070
     0
1002
}
1002
{
1000
OTHER
1070
     0
1002
}
1002
{
1000
REACTOR
1002
}
1001
GENIUS_GENOBJ-N-CEN_13
1002
{
1000
OWNER
1000
GEN
1002
}
1001
GENIUS_GENCEN_19
1002
{
1040
3.0
1002
}
  0
LINE
  5
44A8E
  8
0部品1
  6
中心線1
 10
1418.933424559636
 20
-2662.987522751751
 30
0.0
 11
1327.933424559637
 21
-2662.987522751753
 31
0.0
1001
GENIUS_GENODEF_13
1002
{
1000
HIER
1070
     0
1002
}
1002
{
1000
MANEDIT
1070
     0
1002
}
1002
{
1000
NOSEL
1070
     0
1002
}
1002
{
1000
BEHIND
1070
     0
1002
}
1002
{
1000
OTHER
1070
     0
1002
}
1002
{
1000
REACTOR
1002
}
1001
GENIUS_GENOBJ-N-CEN_13
1002
{
1000
OWNER
1000
GEN
1002
}
1001
GENIUS_GENCEN_19
1002
{
1040
3.0
1002
}
  0
DIMENSION
  5
44A8F
  8
AM_5
  2
*D29
 10
1423.933424559635
 20
-2637.387522751752
 30
0.0
 11
1423.933424559636
 21
-2650.187522751752
 31
0.0
 70
   160
  3
SYS$0
 13
1418.933424559636
 23
-2662.987522751751
 33
0.0
 14
1418.933424559636
 24
-2637.387522751752
 34
0.0
 50
90.0
  0
DIMENSION
  5
44A90
  8
AM_5
  2
*D30
 10
1330.933424559638
 20
-2588.487522751752
 30
0.0
 11
1339.433424559636
 21
-2588.487522751752
 31
0.0
 70
   160
  3
SYS$0
 13
1347.933424559635
 23
-2593.487522751753
 33
0.0
 14
1330.933424559638
 24
-2598.487522751753
 34
0.0
  0
LINE
  5
44A92
  8
0部品2
 10
1330.933424559635
 20
-2493.894777178835
 30
0.0
 11
1330.933424559635
 21
-2496.445985347937
 31
0.0
  0
ARC
  5
44A93
  8
0部品2
 10
1331.433424559635
 20
-2496.445985347937
 30
0.0
 40
0.5
 50
180.0
 51
270.0
  0
LINE
  5
44A94
  8
0部品2
 10
1331.433424559635
 20
-2496.945985347937
 30
0.0
 11
1415.433424559635
 21
-2496.945985347936
 31
0.0
  0
LINE
  5
44A95
  8
0部品2
 10
1415.933424559635
 20
-2496.445985347937
 30
0.0
 11
1415.933424559635
 21
-2493.894777178834
 31
0.0
  0
ARC
  5
44A96
  8
0部品2
 10
1415.433424559635
 20
-2496.445985347937
 30
0.0
 40
0.5
 50
270.0
 51
0.0
  0
LINE
  5
44A97
  8
0部品2
 10
1336.402279893864
 20
-2503.102993216667
 30
0.0
 11
1336.129269752473
 21
-2497.893649391694
 31
0.0
  0
ARC
  5
44A98
  8
0部品2
 10
1335.130640217718
 20
-2497.945985347937
 30
0.0
 40
1.0
 50
3.000000000005751
 51
90.0
1001
GENIUS_GENOBJ-N-FIL_13
1002
{
1000
OWNER
1000
GEN
1002
}
1001
GENIUS_GENODEF_13
1002
{
1000
HIER
1070
     0
1002
}
1002
{
1000
MANEDIT
1070
     0
1002
}
1002
{
1000
NOSEL
1070
     0
1002
}
1002
{
1000
BEHIND
1070
     0
1002
}
1002
{
1000
OTHER
1070
     0
1002
}
1002
{
1000
REACTOR
1002
}
  0
LINE
  5
44A99
  8
0部品2
 10
1339.398168498128
 20
-2505.945985347937
 30
0.0
 11
1343.933424559635
 21
-2505.945985347937
 31
0.0
  0
ARC
  5
44A9A
  8
0部品2
 10
1339.398168498128
 20
-2502.945985347937
 30
0.0
 40
3.0
 50
183.0000000000057
 51
270.0
  0
LINE
  5
44A9B
  8
0部品2
 10
1351.933424559635
 20
-2505.945985347937
 30
0.0
 11
1367.933424559633
 21
-2505.945985347936
 31
0.0
  0
LINE
  5
44A9C
  8
0部品1
  6
中心線1
 10
1347.933424559633
 20
-2543.231820548163
 30
0.0
 11
1347.933424559633
 21
-2490.660223389896
 31
0.0
1001
GENIUS_GENODEF_13
1002
{
1000
HIER
1070
     0
1002
}
1002
{
1000
MANEDIT
1070
     0
1002
}
1002
{
1000
NOSEL
1070
     0
1002
}
1002
{
1000
BEHIND
1070
     0
1002
}
1002
{
1000
OTHER
1070
     0
1002
}
1002
{
1000
REACTOR
1002
}
1001
GENIUS_GENOBJ-N-CEN_13
1002
{
1000
OWNER
1000
GEN
1002
}
1001
GENIUS_GENCEN_19
1002
{
1040
3.0
1002
}
  0
LINE
  5
44A9D
  8
0部品1
 10
1339.398168498125
 20
-2527.946058590122
 30
0.0
 11
1343.933424559635
 21
-2527.946058590122
 31
0.0
  0
LINE
  5
44A9E
  8
0部品1
 10
1331.433424559635
 20
-2536.946058590123
 30
0.0
 11
1415.433424559635
 21
-2536.946058590123
 31
0.0
  0
LINE
  5
44A9F
  8
0部品1
 10
1336.40227989386
 20
-2530.789050721393
 30
0.0
 11
1336.129269752473
 21
-2535.998394546365
 31
0.0
  0
ARC
  5
44AA0
  8
0部品1
 10
1339.398168498125
 20
-2530.946058590122
 30
0.0
 40
3.0
 50
90.0
 51
176.9999999999942
  0
ARC
  5
44AA1
  8
0部品1
 10
1335.130640217718
 20
-2535.946058590123
 30
0.0
 40
1.0
 50
270.0
 51
356.9999999999942
1001
GENIUS_GENOBJ-N-FIL_13
1002
{
1000
OWNER
1000
GEN
1002
}
1001
GENIUS_GENODEF_13
1002
{
1000
HIER
1070
     0
1002
}
1002
{
1000
MANEDIT
1070
     0
1002
}
1002
{
1000
NOSEL
1070
     0
1002
}
1002
{
1000
BEHIND
1070
     0
1002
}
1002
{
1000
OTHER
1070
     0
1002
}
1002
{
1000
REACTOR
1002
}
  0
ARC
  5
44AA2
  8
0部品1
 10
1331.433424559635
 20
-2537.446058590123
 30
0.0
 40
0.5
 50
90.0
 51
180.0
  0
ARC
  5
44AA3
  8
0部品1
 10
1415.433424559635
 20
-2537.446058590123
 30
0.0
 40
0.5
 50
0.0
 51
90.0
  0
LINE
  5
44AA4
  8
0部品2
 10
1344.433424559635
 20
-2514.945948726844
 30
0.0
 11
1351.433424559635
 21
-2514.945948726842
 31
0.0
  0
ARC
  5
44AA5
  8
0部品2
 10
1351.433424559635
 20
-2514.445948726841
 30
0.0
 40
0.5
 50
270.0
 51
0.0
  0
LINE
  5
44AA6
  8
0部品2
 10
1351.933424559635
 20
-2496.945985347936
 30
0.0
 11
1351.933424559635
 21
-2514.445948726841
 31
0.0
  0
ARC
  5
44AA7
  8
0部品2
 10
1344.433424559635
 20
-2514.445948726841
 30
0.0
 40
0.5
 50
180.0
 51
270.0
  0
LINE
  5
44AA8
  8
0部品2
 10
1343.933424559633
 20
-2496.945985347936
 30
0.0
 11
1343.933424559635
 21
-2514.445948726841
 31
0.0
  0
LINE
  5
44AA9
  8
0部品1
 10
1344.433424559635
 20
-2518.946095211216
 30
0.0
 11
1351.433424559635
 21
-2518.946095211218
 31
0.0
  0
ARC
  5
44AAA
  8
0部品1
 10
1351.433424559635
 20
-2519.446095211218
 30
0.0
 40
0.5
 50
0.0
 51
90.0
  0
LINE
  5
44AAB
  8
0部品1
 10
1351.933424559635
 20
-2536.946058590123
 30
0.0
 11
1351.933424559635
 21
-2519.446095211218
 31
0.0
  0
ARC
  5
44AAC
  8
0部品1
 10
1344.433424559635
 20
-2519.446095211218
 30
0.0
 40
0.5
 50
90.0
 51
180.0
  0
LINE
  5
44AAD
  8
0部品1
 10
1343.933424559633
 20
-2536.946058590123
 30
0.0
 11
1343.933424559635
 21
-2519.446095211218
 31
0.0
  0
LINE
  5
44AAE
  8
0部品1
 10
1351.933424559635
 20
-2527.946058590122
 30
0.0
 11
1367.933424559633
 21
-2527.946058590123
 31
0.0
  0
CIRCLE
  5
44AAF
  8
0部品3
 10
1347.933424559635
 20
-2533.946058590123
 30
0.0
 40
2.0
  0
CIRCLE
  5
44AB0
  8
0部品4
 10
1347.933424559635
 20
-2499.945985347937
 30
0.0
 40
2.0
  0
ARC
  5
44AB1
  8
0部品1
 10
1411.736208901551
 20
-2535.946058590123
 30
0.0
 40
1.0
 50
183.0000000000057
 51
270.0
1001
GENIUS_GENOBJ-N-FIL_13
1002
{
1000
OWNER
1000
GEN
1002
}
1001
GENIUS_GENODEF_13
1002
{
1000
HIER
1070
     0
1002
}
1002
{
1000
MANEDIT
1070
     0
1002
}
1002
{
1000
NOSEL
1070
     0
1002
}
1002
{
1000
BEHIND
1070
     0
1002
}
1002
{
1000
OTHER
1070
     0
1002
}
1002
{
1000
REACTOR
1002
}
  0
ARC
  5
44AB2
  8
0部品2
 10
1411.736208901551
 20
-2497.945985347937
 30
0.0
 40
1.0
 50
90.0
 51
176.9999999999942
1001
GENIUS_GENOBJ-N-FIL_13
1002
{
1000
OWNER
1000
GEN
1002
}
1001
GENIUS_GENODEF_13
1002
{
1000
HIER
1070
     0
1002
}
1002
{
1000
MANEDIT
1070
     0
1002
}
1002
{
1000
NOSEL
1070
     0
1002
}
1002
{
1000
BEHIND
1070
     0
1002
}
1002
{
1000
OTHER
1070
     0
1002
}
1002
{
1000
REACTOR
1002
}
  0
LINE
  5
44AB3
  8
0部品1
  6
中心線1
 10
1396.433424559636
 20
-2520.945985347936
 30
0.0
 11
1396.433424559638
 21
-2512.946058590122
 31
0.0
1001
GENIUS_GENODEF_13
1002
{
1000
HIER
1070
     0
1002
}
1002
{
1000
MANEDIT
1070
     0
1002
}
1002
{
1000
NOSEL
1070
     0
1002
}
1002
{
1000
BEHIND
1070
     0
1002
}
1002
{
1000
OTHER
1070
     0
1002
}
1002
{
1000
REACTOR
1002
}
1001
GENIUS_GENOBJ-N-CEN_13
1002
{
1000
OWNER
1000
GEN
1002
}
1001
GENIUS_GENCEN_19
1002
{
1040
3.0
1002
}
  0
LINE
  5
44AB4
  8
0部品31
 10
1394.433424559637
 20
-2515.946058590123
 30
0.0
 11
1394.433424559637
 21
-2517.945985347936
 31
0.0
1001
GENIUS_GENODEF_13
1002
{
1000
HIER
1070
     0
1002
}
1002
{
1000
MANEDIT
1070
     0
1002
}
1002
{
1000
NOSEL
1070
     0
1002
}
1002
{
1000
BEHIND
1070
     0
1002
}
1002
{
1000
OTHER
1070
     0
1002
}
1002
{
1000
REACTOR
1002
}
1001
GENIUS_GENOBJ-N-CEN_13
1002
{
1000
OWNER
1000
GEN
1002
}
1001
GENIUS_GENCEN_19
1002
{
1040
3.0
1002
}
  0
LINE
  5
44AB5
  8
0部品31
 10
1398.433424559637
 20
-2515.946058590123
 30
0.0
 11
1398.433424559637
 21
-2517.945985347936
 31
0.0
1001
GENIUS_GENODEF_13
1002
{
1000
HIER
1070
     0
1002
}
1002
{
1000
MANEDIT
1070
     0
1002
}
1002
{
1000
NOSEL
1070
     0
1002
}
1002
{
1000
BEHIND
1070
     0
1002
}
1002
{
1000
OTHER
1070
     0
1002
}
1002
{
1000
REACTOR
1002
}
1001
GENIUS_GENOBJ-N-CEN_13
1002
{
1000
OWNER
1000
GEN
1002
}
1001
GENIUS_GENCEN_19
1002
{
1040
3.0
1002
}
  0
LINE
  5
44AB6
  8
0部品31
  6
細線
 10
1398.033424559635
 20
-2515.946058590123
 30
0.0
 11
1398.033424559635
 21
-2517.945985347936
 31
0.0
1001
GENIUS_GENODEF_13
1002
{
1000
HIER
1070
     0
1002
}
1002
{
1000
MANEDIT
1070
     0
1002
}
1002
{
1000
NOSEL
1070
     0
1002
}
1002
{
1000
BEHIND
1070
     0
1002
}
1002
{
1000
OTHER
1070
     0
1002
}
1002
{
1000
REACTOR
1002
}
1001
GENIUS_GENOBJ-N-CEN_13
1002
{
1000
OWNER
1000
GEN
1002
}
1001
GENIUS_GENCEN_19
1002
{
1040
3.0
1002
}
  0
ARC
  5
44ABF
  8
0部品7
  6
想像線1
 10
1450.417138423179
 20
-2934.311361268928
 30
0.0
 40
454.0624999999954
 50
98.6734806475441
 51
104.1948579068671
  0
ARC
  5
44AC0
  8
0部品7
  6
想像線1
 10
1382.018425897076
 20
-2485.935896361431
 30
0.0
 40
0.5
 50
10.00000000005861
 51
98.67348064749139
1001
GENIUS_GENOBJ-N-FIL_13
1002
{
1000
OWNER
1000
GEN
1002
}
1001
GENIUS_GENODEF_13
1002
{
1000
HIER
1070
     0
1002
}
1002
{
1000
MANEDIT
1070
     0
1002
}
1002
{
1000
NOSEL
1070
     0
1002
}
1002
{
1000
BEHIND
1070
     0
1002
}
1002
{
1000
OTHER
1070
     0
1002
}
1002
{
1000
REACTOR
1002
}
  0
ARC
  5
44AC1
  8
0部品7
  6
想像線1
 10
1339.194369544204
 20
-2494.597321137007
 30
0.0
 40
0.5
 50
104.1948579068199
 51
175.0000000000265
1001
GENIUS_GENOBJ-N-FIL_13
1002
{
1000
OWNER
1000
GEN
1002
}
1001
GENIUS_GENODEF_13
1002
{
1000
HIER
1070
     0
1002
}
1002
{
1000
MANEDIT
1070
     0
1002
}
1002
{
1000
NOSEL
1070
     0
1002
}
1002
{
1000
BEHIND
1070
     0
1002
}
1002
{
1000
OTHER
1070
     0
1002
}
1002
{
1000
REACTOR
1002
}
  0
LINE
  5
44AC2
  8
0部品7
  6
想像線1
 10
1382.510829773582
 20
-2485.849072272597
 30
0.0
 11
1383.517463311251
 21
-2491.557974753768
 31
0.0
  0
LINE
  5
44AC3
  8
0部品7
  6
想像線1
 10
1338.419301436385
 20
-2497.719533524805
 30
0.0
 11
1338.696272195159
 21
-2494.553743265633
 31
0.0
  0
ARC
  5
44AC4
  8
0部品7
  6
想像線1
 10
1338.91739878543
 20
-2497.763111396178
 30
0.0
 40
0.5
 50
175.0
 51
284.3277238823045
  0
LINE
  5
44AC5
  8
0部品7
  6
想像線1
 10
1339.041132717468
 20
-2498.247559447122
 30
0.0
 11
1339.041132717468
 21
-2498.247559447122
 31
0.0
  0
ARC
  5
44AC6
  8
0部品2
 10
1373.433424559635
 20
-2945.508485347932
 30
0.0
 40
454.0624999999954
 50
84.68678477746975
 51
95.31321522247791
  0
ARC
  5
44AC7
  8
0部品2
 10
1331.433424559635
 20
-2493.894777178835
 30
0.0
 40
0.5
 50
95.31321522247791
 51
180.0
  0
ARC
  5
44AC8
  8
0部品2
 10
1415.433424559635
 20
-2493.894777178834
 30
0.0
 40
0.5
 50
0.0
 51
84.68678477757445
  0
LINE
  5
44AC9
  8
0部品1
 10
1330.933424559635
 20
-2539.997266759225
 30
0.0
 11
1330.933424559635
 21
-2537.446058590123
 31
0.0
  0
LINE
  5
44ACA
  8
0部品1
 10
1415.933424559635
 20
-2537.446058590123
 30
0.0
 11
1415.933424559635
 21
-2539.997266759225
 31
0.0
  0
LINE
  5
44ACB
  8
0部品1
 10
1409.940487594114
 20
-2520.788977479207
 30
0.0
 11
1410.737579366796
 21
-2535.998394546365
 31
0.0
  0
ARC
  5
44ACC
  8
0部品5
  6
想像線1
 10
1238.269979012103
 20
-2101.337551835005
 30
0.0
 40
450.0624999999954
 50
284.1930125280486
 51
288.5713405286219
  0
ARC
  5
44ACD
  8
0部品5
  6
想像線1
 10
1295.674906099736
 20
-2090.724625608114
 30
0.0
 40
454.0624999999954
 50
275.8051420931411
 51
281.3265193524879
  0
ARC
  5
44ACE
  8
0部品5
  6
想像線1
 10
1384.754581439077
 20
-2535.453478784609
 30
0.0
 40
0.5
 50
281.3265193525408
 51
9.999999999952582
1001
GENIUS_GENOBJ-N-FIL_13
1002
{
1000
OWNER
1000
GEN
1002
}
1001
GENIUS_GENODEF_13
1002
{
1000
HIER
1070
     0
1002
}
1002
{
1000
MANEDIT
1070
     0
1002
}
1002
{
1000
NOSEL
1070
     0
1002
}
1002
{
1000
BEHIND
1070
     0
1002
}
1002
{
1000
OTHER
1070
     0
1002
}
1002
{
1000
REACTOR
1002
}
  0
ARC
  5
44ACF
  8
0部品5
  6
想像線1
 10
1341.550749949016
 20
-2541.961091729104
 30
0.0
 40
0.5
 50
204.9999999999789
 51
275.8051420931934
1001
GENIUS_GENOBJ-N-FIL_13
1002
{
1000
OWNER
1000
GEN
1002
}
1001
GENIUS_GENODEF_13
1002
{
1000
HIER
1070
     0
1002
}
1002
{
1000
MANEDIT
1070
     0
1002
}
1002
{
1000
NOSEL
1070
     0
1002
}
1002
{
1000
BEHIND
1070
     0
1002
}
1002
{
1000
OTHER
1070
     0
1002
}
1002
{
1000
REACTOR
1002
}
  0
LINE
  5
44AD0
  8
0部品5
  6
想像線1
 10
1385.246985315583
 20
-2535.366654695776
 30
0.0
 11
1384.214807364023
 21
-2529.512882644472
 31
0.0
  0
LINE
  5
44AD1
  8
0部品5
  6
想像線1
 10
1339.754564639123
 20
-2539.292260693086
 30
0.0
 11
1341.097596055498
 21
-2542.172400859974
 31
0.0
  0
ARC
  5
44AD2
  8
0部品5
  6
想像線1
 10
1340.207718532642
 20
-2539.080951562217
 30
0.0
 40
0.5
 50
95.67227611770453
 51
205.0000000000314
  0
ARC
  5
44AD3
  8
0部品1
 10
1373.433424559635
 20
-2088.383558590127
 30
0.0
 40
454.0624999999954
 50
264.686784777522
 51
275.3132152225303
  0
ARC
  5
44AD4
  8
0部品1
 10
1331.433424559635
 20
-2539.997266759225
 30
0.0
 40
0.5
 50
180.0
 51
264.686784777522
  0
ARC
  5
44AD5
  8
0部品1
 10
1415.433424559635
 20
-2539.997266759225
 30
0.0
 40
0.5
 50
275.3132152224256
 51
0.0
  0
LINE
  5
44AD6
  8
0部品1
 10
1379.053532976899
 20
-2517.945985347936
 30
0.0
 11
1406.94459898985
 21
-2517.945985347937
 31
0.0
  0
LINE
  5
44AD7
  8
0部品31
  6
細線
 10
1394.833424559636
 20
-2515.946058590123
 30
0.0
 11
1394.833424559636
 21
-2517.945985347936
 31
0.0
1001
GENIUS_GENODEF_13
1002
{
1000
HIER
1070
     0
1002
}
1002
{
1000
MANEDIT
1070
     0
1002
}
1002
{
1000
NOSEL
1070
     0
1002
}
1002
{
1000
BEHIND
1070
     0
1002
}
1002
{
1000
OTHER
1070
     0
1002
}
1002
{
1000
REACTOR
1002
}
1001
GENIUS_GENOBJ-N-CEN_13
1002
{
1000
OWNER
1000
GEN
1002
}
1001
GENIUS_GENCEN_19
1002
{
1040
3.0
1002
}
  0
ARC
  5
44AD8
  8
0部品2
 10
1411.736208901551
 20
-2497.945985347937
 30
0.0
 40
1.0
 50
90.0
 51
176.9999999999942
1001
GENIUS_GENOBJ-N-FIL_13
1002
{
1000
OWNER
1000
GEN
1002
}
1001
GENIUS_GENODEF_13
1002
{
1000
HIER
1070
     0
1002
}
1002
{
1000
MANEDIT
1070
     0
1002
}
1002
{
1000
NOSEL
1070
     0
1002
}
1002
{
1000
BEHIND
1070
     0
1002
}
1002
{
1000
OTHER
1070
     0
1002
}
1002
{
1000
REACTOR
1002
}
  0
LINE
  5
44AD9
  8
0部品2
 10
1409.940487594115
 20
-2513.103066458852
 30
0.0
 11
1410.737579366796
 21
-2497.893649391694
 31
0.0
  0
LINE
  5
44ADA
  8
0部品2
 10
1379.053532976897
 20
-2515.946058590123
 30
0.0
 11
1406.94459898985
 21
-2515.946058590122
 31
0.0
  0
ARC
  5
44ADB
  8
0部品2
 10
1367.933424559633
 20
-2508.945985347937
 30
0.0
 40
3.0
 50
14.99999999999445
 51
90.0
  0
ARC
  5
44ADC
  8
0部品1
 10
1406.94459898985
 20
-2520.945985347937
 30
0.0
 40
3.0
 50
3.000000000005751
 51
90.0
  0
ARC
  5
44ADD
  8
0部品2
 10
1406.94459898985
 20
-2512.946058590122
 30
0.0
 40
3.0
 50
270.0
 51
356.9999999999942
  0
ARC
  5
44AE4
  8
0部品7
  6
想像線1
 10
1381.573392219126
 20
-2492.050140679234
 30
0.0
 40
2.0
 50
265.0169555399519
 51
10.00000000005861
  0
LINE
  5
44AE5
  8
0部品1
  6
陰線1
 10
1351.933424559635
 20
-2529.446058590122
 30
0.0
 11
1368.433424559633
 21
-2529.446058590123
 31
0.0
  0
ARC
  5
44AEA
  8
0部品5
  6
想像線1
 10
1382.245191857998
 20
-2529.860178999805
 30
0.0
 40
2.0
 50
9.999999999952582
 51
108.5713405286218
  0
ARC
  5
44AF1
  8
0部品7
  6
想像線1
 10
1450.417138423179
 20
-2934.311361268928
 30
0.0
 40
450.0624999999954
 50
101.0809666106846
 51
104.3277238823045
  0
LINE
  5
44AF7
  8
0部品2
 10
1371.326126366585
 20
-2510.016610950942
 30
0.0
 11
1370.8312020385
 21
-2508.169528212629
 31
0.0
  0
ARC
  5
44AF8
  8
0部品2
 10
1379.053532976899
 20
-2507.946058590123
 30
0.0
 40
8.0
 50
194.9999999999944
 51
270.0
  0
ARC
  5
44AFC
  8
0部品1
 10
1367.933424559633
 20
-2524.946058590121
 30
0.0
 40
3.0
 50
270.0
 51
345.0000000000055
  0
LINE
  5
44AFE
  8
0部品1
 10
1371.326126366585
 20
-2523.875432987116
 30
0.0
 11
1370.8312020385
 21
-2525.722515725429
 31
0.0
  0
ARC
  5
44AFF
  8
0部品1
 10
1379.053532976899
 20
-2525.945985347935
 30
0.0
 40
8.0
 50
90.0
 51
165.0000000000055
  0
LINE
  5
44B02
  8
0部品12
 10
1248.941632845101
 20
-2582.387522751753
 30
0.0
 11
1250.441632845101
 21
-2582.387522751753
 31
0.0
  0
DIMENSION
  5
44B03
  8
AM_5
  2
*D31
 10
1277.433444904686
 20
-2516.946021969029
 30
0.0
 11
1277.433444904686
 21
-2506.946003658483
 31
0.0
 70
   160
  1
A
  3
SYS$0
 13
1298.533444904687
 23
-2496.945985347937
 33
0.0
 14
1287.400212411109
 24
-2516.946021969029
 34
0.0
 50
90.0
  0
DIMENSION
  5
44B04
  8
AM_5
  2
*D32
 10
1277.433444904686
 20
-2536.946058590122
 30
0.0
 11
1277.433444904686
 21
-2526.946040279576
 31
0.0
 70
   160
  1
B
  3
SYS$0
 13
1287.400212411109
 23
-2516.946021969029
 33
0.0
 14
1298.533444904688
 24
-2536.946058590122
 34
0.0
 50
90.0
  0
DIMENSION
  5
44B05
  8
AM_5
  2
*D33
 10
1296.933444904689
 20
-2550.446058590123
 30
0.0
 11
1322.433434732161
 21
-2550.446058590123
 31
0.0
 70
   160
  1
バックセット<>
  3
SYS$0
 13
1347.933424559633
 23
-2543.231840893216
 33
0.0
 14
1296.933444904689
 24
-2535.346078935176
 34
0.0
  0
LINE
  5
44B06
  8
0部品7
  6
想像線1
 10
1363.907678958441
 20
-2492.641385688332
 30
0.0
 11
1381.399670349046
 21
-2494.042581572173
 31
0.0
  0
LINE
  5
44DD5
  8
0部品8
 10
1298.433444904687
 20
-2504.546017900017
 30
0.0
 11
1298.433444904687
 21
-2529.346026038043
 31
0.0
  0
LINE
  5
44DD6
  8
0部品1
  6
中心線1
 10
1287.400212411109
 20
-2516.946021969029
 30
0.0
 11
1418.933424559635
 21
-2516.94602196903
 31
0.0
1001
GENIUS_GENODEF_13
1002
{
1000
HIER
1070
     0
1002
}
1002
{
1000
MANEDIT
1070
     0
1002
}
1002
{
1000
NOSEL
1070
     0
1002
}
1002
{
1000
BEHIND
1070
     0
1002
}
1002
{
1000
OTHER
1070
     0
1002
}
1002
{
1000
REACTOR
1002
}
1001
GENIUS_GENOBJ-N-CEN_13
1002
{
1000
OWNER
1000
GEN
1002
}
1001
GENIUS_GENCEN_19
1002
{
1040
3.0
1002
}
  0
LINE
  5
44DD7
  8
AM_11
  6
想像線1
 10
1296.933444904686
 20
-2498.545985347937
 30
0.0
 11
1296.933444904687
 21
-2535.346058590122
 31
0.0
  0
ARC
  5
44DD8
  8
AM_11
  6
想像線1
 10
1298.533444904687
 20
-2498.545985347937
 30
0.0
 40
1.6
 50
90.0
 51
180.0
  0
ARC
  5
44DD9
  8
AM_11
  6
想像線1
 10
1298.533444904688
 20
-2535.346058590122
 30
0.0
 40
1.6
 50
180.0
 51
270.0
  0
LINE
  5
44DDA
  8
0部品10
 10
1285.433444904687
 20
-2509.946021969029
 30
0.0
 11
1285.433444904687
 21
-2510.961179032829
 31
0.0
  0
LINE
  5
44DDB
  8
0部品9
  6
中線
 10
1296.933444904687
 20
-2504.546058590123
 30
0.0
 11
1296.933444904687
 21
-2529.346026038043
 31
0.0
  0
LINE
  5
44DDC
  8
0部品8
 10
1298.433444904687
 20
-2529.346026038043
 30
0.0
 11
1300.933444904687
 21
-2529.346026038043
 31
0.0
  0
LINE
  5
44DDD
  8
0部品10
 10
1285.553684162501
 20
-2511.286394690389
 30
0.0
 11
1295.774997639061
 21
-2523.222531571895
 31
0.0
  0
LINE
  5
44DDE
  8
0部品10
 10
1285.933444904687
 20
-2509.446021969029
 30
0.0
 11
1296.933444904687
 21
-2509.446021969029
 31
0.0
  0
LINE
  5
44DDF
  8
0部品8
 10
1298.433444904687
 20
-2504.546017900017
 30
0.0
 11
1300.933444904687
 21
-2504.546017900017
 31
0.0
  0
ARC
  5
44DE1
  8
0部品10
 10
1298.433444904687
 20
-2520.94602196903
 30
0.0
 40
3.5
 50
220.45681645907
 51
244.6230664748533
  0
ARC
  5
44DE2
  8
0部品10
 10
1285.933444904687
 20
-2509.946021969029
 30
0.0
 40
0.5
 50
90.00000865144096
 51
180.0000043257204
  0
ARC
  5
44DE3
  8
0部品10
 10
1285.933444904687
 20
-2510.961179032829
 30
0.0
 40
0.5
 50
179.9999906653421
 51
220.5745518448575
  0
LINE
  5
44DE6
  8
0部品6
 10
1367.933424559635
 20
-2506.44602196903
 30
0.0
 11
1367.933424559635
 21
-2527.446021969029
 31
0.0
  0
LINE
  5
44DE7
  8
0部品6
 10
1300.933444904687
 20
-2506.44602196903
 30
0.0
 11
1343.933424559634
 21
-2506.44602196903
 31
0.0
  0
LINE
  5
44DE8
  8
0部品6
 10
1300.933444904687
 20
-2527.446021969029
 30
0.0
 11
1343.933424559634
 21
-2527.44602196903
 31
0.0
  0
LINE
  5
44DE9
  8
AM_11
  6
想像線1
 10
1425.933424559635
 20
-2496.945985347937
 30
0.0
 11
1298.533444904687
 21
-2496.945985347937
 31
0.0
  0
LINE
  5
44DF3
  8
0部品8
 10
1300.933444904687
 20
-2504.546017900017
 30
0.0
 11
1300.933444904687
 21
-2529.346026038043
 31
0.0
  0
LINE
  5
44DF4
  8
0部品9
  6
中線
 10
1298.433444904687
 20
-2504.546017900017
 30
0.0
 11
1298.433444904687
 21
-2529.346026038043
 31
0.0
  0
LINE
  5
44DFB
  8
0部品9
  6
中線
 10
1298.433444904687
 20
-2529.346026038043
 30
0.0
 11
1296.933444904687
 21
-2529.346026038043
 31
0.0
  0
LINE
  5
44DFC
  8
0部品6
 10
1351.933424559635
 20
-2506.44602196903
 30
0.0
 11
1367.933424559635
 21
-2506.44602196903
 31
0.0
  0
LINE
  5
44DFD
  8
0部品6
 10
1351.933424559635
 20
-2527.44602196903
 30
0.0
 11
1367.933424559635
 21
-2527.44602196903
 31
0.0
  0
LINE
  5
44DFE
  8
0部品9
  6
中線
 10
1298.433444904687
 20
-2504.546017900017
 30
0.0
 11
1296.933444904687
 21
-2504.546058590123
 31
0.0
  0
LINE
  5
44E19
  8
AM_11
  6
想像線1
 10
1425.933424559636
 20
-2536.946058590122
 30
0.0
 11
1298.533444904688
 21
-2536.946058590122
 31
0.0
  0
LINE
  5
44E32
  8
AM_0
 10
1393.933424559636
 20
-2608.437522751753
 30
0.0
 11
1394.933424559636
 21
-2608.437522751753
 31
0.0
  0
LINE
  5
44E33
  8
AM_0
 10
1393.933424559636
 20
-2609.437522751753
 30
0.0
 11
1394.933424559636
 21
-2609.437522751753
 31
0.0
  0
LINE
  5
44E34
  8
AM_0
 10
1395.933424559635
 20
-2611.437522751753
 30
0.0
 11
1395.933424559635
 21
-2610.437522751753
 31
0.0
  0
LINE
  5
44E35
  8
AM_0
 10
1396.933424559636
 20
-2611.437522751753
 30
0.0
 11
1396.933424559636
 21
-2610.437522751753
 31
0.0
  0
LINE
  5
44E36
  8
AM_0
 10
1393.933424559636
 20
-2609.437522751753
 30
0.0
 11
1393.933424559636
 21
-2608.437522751753
 31
0.0
  0
LINE
  5
44E37
  8
AM_0
 10
1398.933424559636
 20
-2609.437522751753
 30
0.0
 11
1398.933424559636
 21
-2608.437522751753
 31
0.0
  0
LINE
  5
44E38
  8
AM_0
 10
1395.933424559635
 20
-2611.437522751753
 30
0.0
 11
1396.933424559636
 21
-2611.437522751753
 31
0.0
  0
LINE
  5
44E39
  8
AM_0
 10
1395.933424559635
 20
-2606.437522751753
 30
0.0
 11
1396.933424559636
 21
-2606.437522751753
 31
0.0
  0
LINE
  5
44E3A
  8
AM_0
 10
1395.933424559635
 20
-2607.437522751753
 30
0.0
 11
1395.933424559635
 21
-2606.437522751753
 31
0.0
  0
LINE
  5
44E3B
  8
AM_0
 10
1397.933424559636
 20
-2609.437522751753
 30
0.0
 11
1398.933424559636
 21
-2609.437522751753
 31
0.0
  0
LINE
  5
44E3C
  8
AM_0
 10
1397.933424559636
 20
-2608.437522751753
 30
0.0
 11
1398.933424559636
 21
-2608.437522751753
 31
0.0
  0
ARC
  5
44E3D
  8
AM_0
 10
1394.933424559636
 20
-2610.437522751753
 30
0.0
 40
1.0
 50
359.999997495479
 51
90.0
  0
ARC
  5
44E3E
  8
AM_0
 10
1394.933424559636
 20
-2607.437522751753
 30
0.0
 40
1.0
 50
269.999991348559
 51
0.000000683269046
  0
ARC
  5
44E3F
  8
AM_0
 10
1397.933424559636
 20
-2607.437522751753
 30
0.0
 40
1.0
 50
180.0000025044166
 51
270.0000050089374
  0
ARC
  5
44E40
  8
AM_0
 10
1397.933424559636
 20
-2610.437522751753
 30
0.0
 40
1.0
 50
90.0
 51
180.0000025044166
  0
LINE
  5
44E41
  8
AM_0
 10
1396.933424559636
 20
-2607.437522751753
 30
0.0
 11
1396.933424559636
 21
-2606.437522751753
 31
0.0
  0
CIRCLE
  5
44E42
  8
AM_0
 10
1396.433424559636
 20
-2608.937522751754
 30
0.0
 40
4.0
  0
LINE
  5
44E43
  8
AM_0
 10
1393.933424559636
 20
-2716.537522751754
 30
0.0
 11
1394.933424559636
 21
-2716.537522751754
 31
0.0
  0
LINE
  5
44E44
  8
AM_0
 10
1393.933424559636
 20
-2717.537522751753
 30
0.0
 11
1394.933424559636
 21
-2717.537522751753
 31
0.0
  0
LINE
  5
44E45
  8
AM_0
 10
1395.933424559635
 20
-2719.537522751754
 30
0.0
 11
1395.933424559635
 21
-2718.537522751754
 31
0.0
  0
LINE
  5
44E46
  8
AM_0
 10
1396.933424559636
 20
-2719.537522751754
 30
0.0
 11
1396.933424559636
 21
-2718.537522751754
 31
0.0
  0
LINE
  5
44E47
  8
AM_0
 10
1393.933424559636
 20
-2717.537522751753
 30
0.0
 11
1393.933424559636
 21
-2716.537522751754
 31
0.0
  0
LINE
  5
44E48
  8
AM_0
 10
1398.933424559636
 20
-2717.537522751753
 30
0.0
 11
1398.933424559636
 21
-2716.537522751754
 31
0.0
  0
LINE
  5
44E49
  8
AM_0
 10
1395.933424559635
 20
-2719.537522751754
 30
0.0
 11
1396.933424559636
 21
-2719.537522751754
 31
0.0
  0
LINE
  5
44E4A
  8
AM_0
 10
1395.933424559635
 20
-2714.537522751753
 30
0.0
 11
1396.933424559636
 21
-2714.537522751753
 31
0.0
  0
LINE
  5
44E4B
  8
AM_0
 10
1395.933424559635
 20
-2715.537522751754
 30
0.0
 11
1395.933424559635
 21
-2714.537522751753
 31
0.0
  0
LINE
  5
44E4C
  8
AM_0
 10
1397.933424559636
 20
-2717.537522751753
 30
0.0
 11
1398.933424559636
 21
-2717.537522751753
 31
0.0
  0
LINE
  5
44E4D
  8
AM_0
 10
1397.933424559636
 20
-2716.537522751754
 30
0.0
 11
1398.933424559636
 21
-2716.537522751754
 31
0.0
  0
ARC
  5
44E4E
  8
AM_0
 10
1394.933424559636
 20
-2718.537522751754
 30
0.0
 40
1.0
 50
359.999997495479
 51
90.0
  0
ARC
  5
44E4F
  8
AM_0
 10
1394.933424559636
 20
-2715.537522751754
 30
0.0
 40
1.0
 50
269.999991348559
 51
0.000000683269046
  0
ARC
  5
44E50
  8
AM_0
 10
1397.933424559636
 20
-2715.537522751754
 30
0.0
 40
1.0
 50
180.0000025044166
 51
270.0000050089374
  0
ARC
  5
44E51
  8
AM_0
 10
1397.933424559636
 20
-2718.537522751754
 30
0.0
 40
1.0
 50
90.0
 51
180.0000025044166
  0
LINE
  5
44E52
  8
AM_0
 10
1396.933424559636
 20
-2715.537522751754
 30
0.0
 11
1396.933424559636
 21
-2714.537522751753
 31
0.0
  0
CIRCLE
  5
44E53
  8
AM_0
 10
1396.433424559636
 20
-2717.037522751754
 30
0.0
 40
4.0
  0
LINE
  5
44E6D
  8
0部品11
 10
1128.333570302335
 20
-2599.987522751752
 30
0.0
 11
1207.333570302336
 21
-2599.987522751752
 31
0.0
  0
LINE
  5
44E6E
  8
0部品11
 10
1207.333570302336
 20
-2599.987522751752
 30
0.0
 11
1207.333570302336
 21
-2725.987522751752
 31
0.0
  0
LINE
  5
44E6F
  8
0部品11
 10
1207.333570302336
 20
-2725.987522751752
 30
0.0
 11
1128.333570302335
 21
-2725.987522751752
 31
0.0
  0
LINE
  5
44E70
  8
0部品11
 10
1128.333570302335
 20
-2725.987522751752
 30
0.0
 11
1128.333570302335
 21
-2599.987522751752
 31
0.0
  0
LINE
  5
44E71
  8
0部品11
  6
中心線1
 10
1142.333570302335
 20
-2596.987522751752
 30
0.0
 11
1142.333570302335
 21
-2728.987522751752
 31
0.0
1001
GENIUS_GENOBJ-N-CEN_13
1002
{
1000
OWNER
1000
GEN
1002
}
1001
GENIUS_GENODEF_13
1002
{
1000
HIER
1070
     0
1002
}
1002
{
1000
MANEDIT
1070
     0
1002
}
1002
{
1000
NOSEL
1070
     0
1002
}
1002
{
1000
BEHIND
1070
     0
1002
}
1002
{
1000
OTHER
1070
     0
1002
}
1002
{
1000
REACTOR
1002
}
1001
GENIUS_GENCEN_19
1002
{
1040
3.0
1002
}
  0
LINE
  5
44E73
  8
0部品11
  6
中心線1
 10
1125.333570302335
 20
-2637.387522751752
 30
0.0
 11
1210.333570302335
 21
-2637.387522751752
 31
0.0
1001
GENIUS_GENODEF_13
1002
{
1000
HIER
1070
     0
1002
}
1002
{
1000
MANEDIT
1070
     0
1002
}
1002
{
1000
NOSEL
1070
     0
1002
}
1002
{
1000
BEHIND
1070
     0
1002
}
1002
{
1000
OTHER
1070
     0
1002
}
1002
{
1000
REACTOR
1002
}
1001
GENIUS_GENOBJ-N-CEN_13
1002
{
1000
OWNER
1000
GEN
1002
}
1001
GENIUS_GENCEN_19
1002
{
1040
3.0
1002
}
  0
LINE
  5
44E74
  8
0部品13
 10
1248.941632845101
 20
-2692.387553269333
 30
0.0
 11
1247.9416328451
 21
-2692.387553269333
 31
0.0
  0
LINE
  5
44E75
  8
0部品13
 10
1248.941632845101
 20
-2582.387522751753
 30
0.0
 11
1247.9416328451
 21
-2582.387522751753
 31
0.0
  0
DIMENSION
  5
44EA3
  8
AM_5
  2
*D34
 10
1207.333570302336
 20
-2579.987522751752
 30
0.0
 11
1167.833570302335
 21
-2579.987522751752
 31
0.0
 70
   160
  3
SYS$0
 13
1128.333570302335
 23
-2599.987522751752
 33
0.0
 14
1207.333570302336
 24
-2599.987522751752
 34
0.0
  0
DIMENSION
  5
44EB9
  8
AM_5
  2
*D35
 10
1112.333570302335
 20
-2725.987522751752
 30
0.0
 11
1112.333570302336
 21
-2662.987522751752
 31
0.0
 70
   160
  3
SYS$0
 13
1128.333570302335
 23
-2599.987522751752
 33
0.0
 14
1128.333570302335
 24
-2725.987522751752
 34
0.0
 50
90.0
  0
DIMENSION
  5
44ECF
  8
AM_5
  2
*D36
 10
1120.333570302335
 20
-2637.387522751752
 30
0.0
 11
1120.333570302336
 21
-2619.685400055445
 31
0.0
 70
   160
  3
SYS$0
 13
1128.333570302335
 23
-2599.987522751752
 33
0.0
 14
1125.333570302335
 24
-2637.387522751752
 34
0.0
 50
90.0
  0
DIMENSION
  5
44EE5
  8
AM_5
  2
*D37
 10
1128.333570302335
 20
-2587.987522751752
 30
0.0
 11
1135.333570302335
 21
-2587.987522751752
 31
0.0
 70
   160
  3
SYS$0
 13
1142.333570302335
 23
-2596.987522751752
 33
0.0
 14
1128.333570302335
 24
-2599.987522751752
 34
0.0
  0
LINE
  5
44FAE
  8
0部品15
 10
1311.433444904686
 20
-2599.037522751753
 30
0.0
 11
1311.433317021515
 21
-2595.737522751753
 31
0.0
  0
LINE
  5
44FC4
  8
0部品1
  6
中心線1
 10
1293.933444904687
 20
-2677.387522751752
 30
0.0
 11
1314.433380965354
 21
-2677.387522751752
 31
0.0
  0
LINE
  5
44FC5
  8
0部品15
  6
細線
 10
1311.433444904686
 20
-2675.737522751751
 30
0.0
 11
1300.933444904686
 21
-2675.737522751751
 31
0.0
  0
LINE
  5
44FC6
  8
0部品15
 10
1311.083464280925
 20
-2675.387522751752
 30
0.0
 11
1311.08330927102
 21
-2679.387522751751
 31
0.0
  0
LINE
  5
44FC7
  8
0部品15
 10
1311.083464280925
 20
-2675.387522751752
 30
0.0
 11
1300.933444904686
 21
-2675.387522751752
 31
0.0
  0
LINE
  5
44FC8
  8
0部品15
  6
細線
 10
1311.433444904686
 20
-2679.037522751752
 30
0.0
 11
1300.933444904686
 21
-2679.037522751752
 31
0.0
  0
LINE
  5
44FC9
  8
0部品15
 10
1311.08330927102
 20
-2679.387522751751
 30
0.0
 11
1300.933444904686
 21
-2679.387522751751
 31
0.0
  0
LINE
  5
44FCA
  8
0部品15
 10
1311.08330927102
 20
-2679.387522751751
 30
0.0
 11
1311.433322834387
 21
-2679.037522751752
 31
0.0
  0
LINE
  5
44FCB
  8
0部品15
 10
1311.433450717558
 20
-2675.737522751751
 30
0.0
 11
1311.083464284247
 21
-2675.387437015019
 31
0.0
  0
LINE
  5
44FCC
  8
0部品15
 10
1311.433444904686
 20
-2675.737522751751
 30
0.0
 11
1311.433317021515
 21
-2679.037522751752
 31
0.0
  0
LINE
  5
45007
  8
0部品14
 10
1236.441602327521
 20
-2680.737498337693
 30
0.0
 11
1236.79157791346
 21
-2680.387522751753
 31
0.0
  0
LINE
  5
45008
  8
0部品14
 10
1236.441632845101
 20
-2684.037486130673
 30
0.0
 11
1236.79163894862
 21
-2684.387492234172
 31
0.0
  0
LINE
  5
45009
  8
0部品1
  6
中心線1
 10
1253.441632845101
 20
-2682.387522751753
 30
0.0
 11
1233.4416328451
 21
-2682.387522751753
 31
0.0
  0
LINE
  5
4500A
  8
0部品14
 10
1236.79163894862
 20
-2684.387522751753
 30
0.0
 11
1236.79163894862
 21
-2680.387522751753
 31
0.0
  0
LINE
  5
4500B
  8
0部品14
  6
細線
 10
1247.9416328451
 20
-2680.737498337693
 30
0.0
 11
1236.441632845101
 21
-2680.737498337693
 31
0.0
  0
LINE
  5
4500C
  8
0部品14
 10
1236.441632845101
 20
-2684.037547165833
 30
0.0
 11
1236.441632845101
 21
-2680.737498337693
 31
0.0
  0
LINE
  5
4500D
  8
0部品14
 10
1247.9416328451
 20
-2680.387522751753
 30
0.0
 11
1236.79163894862
 21
-2680.387522751753
 31
0.0
  0
LINE
  5
4500E
  8
0部品14
 10
1247.9416328451
 20
-2684.387522751753
 30
0.0
 11
1236.79163894862
 21
-2684.387522751753
 31
0.0
  0
LINE
  5
4500F
  8
0部品14
  6
細線
 10
1247.9416328451
 20
-2684.037547165833
 30
0.0
 11
1236.44169388026
 21
-2684.037547165833
 31
0.0
  0
LINE
  5
45673
  8
AM_2
 10
1045.992073076211
 20
-2473.530984464395
 30
0.0
 11
1149.742073076211
 21
-2473.530984464395
 31
0.0
  0
LINE
  5
45674
  8
AM_2
 10
1045.992073076211
 20
-2467.530984464395
 30
0.0
 11
1149.742073076211
 21
-2467.530984464395
 31
0.0
  0
LINE
  5
45675
  8
AM_2
 10
1063.492073076211
 20
-2461.530984464395
 30
0.0
 11
1063.49207307621
 21
-2527.530984464395
 31
0.0
  0
TEXT
  5
45676
  8
AM_6
 10
1051.475406409544
 20
-2483.930984464395
 30
0.0
 40
2.8
  1
仕上げ
 41
0.7
  0
TEXT
  5
45677
  8
AM_6
 10
1051.475406409544
 20
-2477.930984464395
 30
0.0
 40
2.8
  1
材　質
 41
0.7
  0
TEXT
  5
45678
  8
AM_6
 10
1051.540739742878
 20
-2465.930984464395
 30
0.0
 40
2.8
  1
品　名
 41
0.7
  0
TEXT
  5
45679
  8
AM_6
 10
1051.475406409544
 20
-2471.930984464395
 30
0.0
 40
2.8
  1
品　番
 41
0.7
  0
TEXT
  5
4567A
  8
AM_6
 10
1063.492073076211
 20
-2465.930984464395
 30
0.0
 40
2.8
  1
　プッシュプルハンドル錠
 41
0.7
  0
TEXT
  5
4567B
  8
AM_6
 10
1050.299406409545
 20
-2489.930984464395
 30
0.0
 40
2.8
  1
左右勝手
 41
0.7
  0
TEXT
  5
4567C
  8
AM_6
 10
1063.492073076212
 20
-2489.930984464395
 30
0.0
 40
2.8
  1
　無し
 41
0.7
  0
LINE
  5
4567D
  8
AM_2
 10
1045.992073076212
 20
-2491.530984464395
 30
0.0
 11
1149.742073076211
 21
-2491.530984464395
 31
0.0
  0
LINE
  5
4567E
  8
AM_2
 10
1045.992073076212
 20
-2485.530984464395
 30
0.0
 11
1149.742073076211
 21
-2485.530984464395
 31
0.0
  0
TEXT
  5
4567F
  8
AM_6
 10
1063.492073076211
 20
-2477.930984464395
 30
0.0
 40
2.8
  1
　ステンレス
 41
0.7
  0
LINE
  5
45680
  8
AM_2
 10
1045.992073076212
 20
-2479.530984464395
 30
0.0
 11
1149.742073076211
 21
-2479.530984464395
 31
0.0
  0
TEXT
  5
45681
  8
AM_6
 10
1063.492073076212
 20
-2483.930984464395
 30
0.0
 40
2.8
  1
　ヘアーライン
 41
0.7
  0
LINE
  5
45682
  8
AM_2
 10
1045.992073076212
 20
-2497.530984464395
 30
0.0
 11
1149.742073076211
 21
-2497.530984464395
 31
0.0
  0
LINE
  5
45683
  8
AM_0
 10
1149.74207307621
 20
-2527.530984464394
 30
0.0
 11
1149.742073076211
 21
-2461.530984464395
 31
0.0
  0
LINE
  5
45684
  8
AM_2
 10
1063.49207307621
 20
-2503.530984464395
 30
0.0
 11
1149.742073076211
 21
-2503.530984464395
 31
0.0
  0
TEXT
  5
45685
  8
AM_6
 10
1048.992739742878
 20
-2495.930984464395
 30
0.0
 40
2.8
  1
セット部品
 41
0.7
  0
TEXT
  5
45686
  8
AM_6
 10
1063.492073076212
 20
-2495.930984464395
 30
0.0
 40
2.8
  1
　取付ビス（表参照）
 41
0.7
  0
TEXT
  5
45688
  8
AM_6
 10
1063.492073076211
 20
-2507.930984464395
 30
0.0
 40
2.8
  1
　表示シール（押／引）
 41
0.7
  0
TEXT
  5
45689
  8
AM_6
 10
1063.492073076211
 20
-2471.930984464395
 30
0.0
 40
2.8
  1
　PPDUB／PPDUB2
 41
0.7
  0
LINE
  5
4568A
  8
AM_2
 10
1063.49207307621
 20
-2509.530984464395
 30
0.0
 11
1149.742073076211
 21
-2509.530984464395
 31
0.0
  0
TEXT
  5
4568B
  8
AM_6
 10
1063.492073076212
 20
-2501.930984464395
 30
0.0
 40
2.8
  1
　ストライク（表参照）
 41
0.7
  0
TEXT
  5
4568C
  8
AM_6
 10
1152.188652807032
 20
-2735.557305281132
 30
0.0
 40
3.2
  1
ハンドル切欠推奨寸法
 41
0.7
  0
LINE
  5
45C42
  8
AM_2
 10
1045.992073076211
 20
-2509.530984464395
 30
0.0
 11
1149.742073076211
 21
-2509.530984464394
 31
0.0
  0
DIMENSION
  5
45C5E
  8
AM_5
  2
*D38
 10
1142.333570302335
 20
-2595.987522751752
 30
0.0
 11
1117.426050545302
 21
-2595.987522751752
 31
0.0
 70
   160
  1
バックセット
  3
SYS$0
 13
1105.842149430596
 23
-2585.987522751752
 33
0.0
 14
1142.333570302335
 24
-2599.987522751752
 34
0.0
 50
180.0
1001
ACAD
1000
DSTYLE
1002
{
1070
     7
1000
DOT
1070
     6
1000
OPEN30
1070
     5
1000

1070
    75
1070
     1
1070
   173
1070
     1
1002
}
  0
LINE
  5
45DCD
  8
AM_0
 10
1093.499244974333
 20
-2687.037522751751
 30
0.0
 11
1072.749244974333
 21
-2687.037522751751
 31
0.0
1001
GENIUS_GENREC_14
1002
{
1000
PYDIR
1011
1094.999244974333
1021
-2636.487522751751
1031
0.0
1021
-2636.487522751751
1031
0.0
1002
}
1002
{
1000
PXDIR
1011
1071.499244974333
1021
-2687.287522751751
1031
0.0
1021
-2687.287522751751
1031
0.0
1002
}
1002
{
1000
PORI
1011
1094.999244974333
1021
-2687.287522751751
1031
0.0
1021
-2687.287522751751
1031
0.0
1002
}
1002
{
1000
PINS
1011
1094.999244974333
1021
-2687.287522751751
1031
0.0
1021
-2687.287522751751
1031
0.0
1002
}
1002
{
1000
PINS2
1011
1071.499244974333
1021
-2636.487522751751
1031
0.0
1021
-2636.487522751751
1031
0.0
1002
}
1002
{
1000
C
1070
     1
1002
}
1001
GENIUS_GENOBJ-N-REC_13
1002
{
1000
OWNER
1000
GEN
1002
}
1001
GENIUS_GENODEF_13
1002
{
1000
HIER
1070
     0
1002
}
1002
{
1000
MANEDIT
1070
     0
1002
}
1002
{
1000
NOSEL
1070
     0
1002
}
1002
{
1000
BEHIND
1070
     0
1002
}
1002
{
1000
OTHER
1070
     0
1002
}
1002
{
1000
REACTOR
1002
}
  0
ARC
  5
45DCE
  8
AM_0
 10
1072.749244974333
 20
-2686.037522751751
 30
0.0
 40
1.0
 50
180.0
 51
270.0
1001
GENIUS_GENREC_14
1002
{
1000
PYDIR
1011
1094.999244974333
1021
-2636.487522751751
1031
0.0
1021
-2636.487522751751
1031
0.0
1002
}
1002
{
1000
PXDIR
1011
1071.499244974333
1021
-2687.287522751751
1031
0.0
1021
-2687.287522751751
1031
0.0
1002
}
1002
{
1000
PORI
1011
1094.999244974333
1021
-2687.287522751751
1031
0.0
1021
-2687.287522751751
1031
0.0
1002
}
1002
{
1000
PINS
1011
1094.999244974333
1021
-2687.287522751751
1031
0.0
1021
-2687.287522751751
1031
0.0
1002
}
1002
{
1000
PINS2
1011
1071.499244974333
1021
-2636.487522751751
1031
0.0
1021
-2636.487522751751
1031
0.0
1002
}
1002
{
1000
C
1070
     1
1002
}
1001
GENIUS_GENOBJ-N-REC_13
1002
{
1000
OWNER
1000
GEN
1002
}
1001
GENIUS_GENODEF_13
1002
{
1000
HIER
1070
     0
1002
}
1002
{
1000
MANEDIT
1070
     0
1002
}
1002
{
1000
NOSEL
1070
     0
1002
}
1002
{
1000
BEHIND
1070
     0
1002
}
1002
{
1000
OTHER
1070
     0
1002
}
1002
{
1000
REACTOR
1002
}
  0
LINE
  5
45DCF
  8
AM_0
 10
1071.749244974333
 20
-2686.037522751751
 30
0.0
 11
1071.749244974333
 21
-2639.937522751751
 31
0.0
1001
GENIUS_GENREC_14
1002
{
1000
PYDIR
1011
1094.999244974333
1021
-2638.687522751751
1031
0.0
1021
-2638.687522751751
1031
0.0
1002
}
1002
{
1000
PXDIR
1011
1071.499244974333
1021
-2687.287522751751
1031
0.0
1021
-2687.287522751751
1031
0.0
1002
}
1002
{
1000
PORI
1011
1094.999244974333
1021
-2687.287522751751
1031
0.0
1021
-2687.287522751751
1031
0.0
1002
}
1002
{
1000
PINS
1011
1094.999244974333
1021
-2687.287522751751
1031
0.0
1021
-2687.287522751751
1031
0.0
1002
}
1002
{
1000
PINS2
1011
1071.499244974333
1021
-2638.687522751751
1031
0.0
1021
-2638.687522751751
1031
0.0
1002
}
1002
{
1000
C
1070
     1
1002
}
1001
GENIUS_GENOBJ-N-REC_13
1002
{
1000
OWNER
1000
GEN
1002
}
1001
GENIUS_GENODEF_13
1002
{
1000
HIER
1070
     0
1002
}
1002
{
1000
MANEDIT
1070
     0
1002
}
1002
{
1000
NOSEL
1070
     0
1002
}
1002
{
1000
BEHIND
1070
     0
1002
}
1002
{
1000
OTHER
1070
     0
1002
}
1002
{
1000
REACTOR
1002
}
  0
ARC
  5
45DD0
  8
AM_0
 10
1072.749244974333
 20
-2639.937522751751
 30
0.0
 40
1.0
 50
90.0
 51
180.0
1001
GENIUS_GENREC_14
1002
{
1000
PYDIR
1011
1094.999244974333
1021
-2638.687522751751
1031
0.0
1021
-2638.687522751751
1031
0.0
1002
}
1002
{
1000
PXDIR
1011
1071.499244974333
1021
-2659.487522751751
1031
0.0
1021
-2659.487522751751
1031
0.0
1002
}
1002
{
1000
PORI
1011
1094.999244974333
1021
-2659.487522751751
1031
0.0
1021
-2659.487522751751
1031
0.0
1002
}
1002
{
1000
PINS
1011
1094.999244974333
1021
-2659.487522751751
1031
0.0
1021
-2659.487522751751
1031
0.0
1002
}
1002
{
1000
PINS2
1011
1071.499244974333
1021
-2638.687522751751
1031
0.0
1021
-2638.687522751751
1031
0.0
1002
}
1002
{
1000
C
1070
     1
1002
}
1001
GENIUS_GENOBJ-N-REC_13
1002
{
1000
OWNER
1000
GEN
1002
}
1001
GENIUS_GENODEF_13
1002
{
1000
HIER
1070
     0
1002
}
1002
{
1000
MANEDIT
1070
     0
1002
}
1002
{
1000
NOSEL
1070
     0
1002
}
1002
{
1000
BEHIND
1070
     0
1002
}
1002
{
1000
OTHER
1070
     0
1002
}
1002
{
1000
REACTOR
1002
}
  0
LINE
  5
45DD1
  8
AM_0
 10
1072.749244974333
 20
-2638.937522751751
 30
0.0
 11
1093.499244974333
 21
-2638.937522751751
 31
0.0
1001
GENIUS_GENREC_14
1002
{
1000
PYDIR
1011
1094.999244974333
1021
-2638.687522751751
1031
0.0
1021
-2638.687522751751
1031
0.0
1002
}
1002
{
1000
PXDIR
1011
1071.499244974333
1021
-2659.487522751751
1031
0.0
1021
-2659.487522751751
1031
0.0
1002
}
1002
{
1000
PORI
1011
1094.999244974333
1021
-2659.487522751751
1031
0.0
1021
-2659.487522751751
1031
0.0
1002
}
1002
{
1000
PINS
1011
1094.999244974333
1021
-2659.487522751751
1031
0.0
1021
-2659.487522751751
1031
0.0
1002
}
1002
{
1000
PINS2
1011
1071.499244974333
1021
-2638.687522751751
1031
0.0
1021
-2638.687522751751
1031
0.0
1002
}
1002
{
1000
C
1070
     1
1002
}
1001
GENIUS_GENOBJ-N-REC_13
1002
{
1000
OWNER
1000
GEN
1002
}
1001
GENIUS_GENODEF_13
1002
{
1000
HIER
1070
     0
1002
}
1002
{
1000
MANEDIT
1070
     0
1002
}
1002
{
1000
NOSEL
1070
     0
1002
}
1002
{
1000
BEHIND
1070
     0
1002
}
1002
{
1000
OTHER
1070
     0
1002
}
1002
{
1000
REACTOR
1002
}
  0
ARC
  5
45DD2
  8
AM_0
 10
1093.499244974333
 20
-2639.937522751751
 30
0.0
 40
1.0
 50
0.0
 51
90.0
1001
GENIUS_GENREC_14
1002
{
1000
PYDIR
1011
1094.749244974333
1021
-2638.687522751751
1031
0.0
1021
-2638.687522751751
1031
0.0
1002
}
1002
{
1000
PXDIR
1011
1071.249244974333
1021
-2659.487522751751
1031
0.0
1021
-2659.487522751751
1031
0.0
1002
}
1002
{
1000
PORI
1011
1094.749244974333
1021
-2659.487522751751
1031
0.0
1021
-2659.487522751751
1031
0.0
1002
}
1002
{
1000
PINS
1011
1094.749244974333
1021
-2659.487522751751
1031
0.0
1021
-2659.487522751751
1031
0.0
1002
}
1002
{
1000
PINS2
1011
1071.249244974333
1021
-2638.687522751751
1031
0.0
1021
-2638.687522751751
1031
0.0
1002
}
1002
{
1000
C
1070
     1
1002
}
1001
GENIUS_GENOBJ-N-REC_13
1002
{
1000
OWNER
1000
GEN
1002
}
1001
GENIUS_GENODEF_13
1002
{
1000
HIER
1070
     0
1002
}
1002
{
1000
MANEDIT
1070
     0
1002
}
1002
{
1000
NOSEL
1070
     0
1002
}
1002
{
1000
BEHIND
1070
     0
1002
}
1002
{
1000
OTHER
1070
     0
1002
}
1002
{
1000
REACTOR
1002
}
  0
LINE
  5
45DD3
  8
AM_0
 10
1094.499244974333
 20
-2639.937522751751
 30
0.0
 11
1094.499244974333
 21
-2686.037522751751
 31
0.0
1001
GENIUS_GENREC_14
1002
{
1000
PYDIR
1011
1094.749244974333
1021
-2638.687522751751
1031
0.0
1021
-2638.687522751751
1031
0.0
1002
}
1002
{
1000
PXDIR
1011
1071.249244974333
1021
-2687.287522751751
1031
0.0
1021
-2687.287522751751
1031
0.0
1002
}
1002
{
1000
PORI
1011
1094.749244974333
1021
-2687.287522751751
1031
0.0
1021
-2687.287522751751
1031
0.0
1002
}
1002
{
1000
PINS
1011
1094.749244974333
1021
-2687.287522751751
1031
0.0
1021
-2687.287522751751
1031
0.0
1002
}
1002
{
1000
PINS2
1011
1071.249244974333
1021
-2638.687522751751
1031
0.0
1021
-2638.687522751751
1031
0.0
1002
}
1002
{
1000
C
1070
     1
1002
}
1001
GENIUS_GENOBJ-N-REC_13
1002
{
1000
OWNER
1000
GEN
1002
}
1001
GENIUS_GENODEF_13
1002
{
1000
HIER
1070
     0
1002
}
1002
{
1000
MANEDIT
1070
     0
1002
}
1002
{
1000
NOSEL
1070
     0
1002
}
1002
{
1000
BEHIND
1070
     0
1002
}
1002
{
1000
OTHER
1070
     0
1002
}
1002
{
1000
REACTOR
1002
}
  0
ARC
  5
45DD4
  8
AM_0
 10
1093.499244974333
 20
-2686.037522751751
 30
0.0
 40
1.0
 50
270.0
 51
0.0
1001
GENIUS_GENREC_14
1002
{
1000
PYDIR
1011
1094.749244974333
1021
-2636.487522751751
1031
0.0
1021
-2636.487522751751
1031
0.0
1002
}
1002
{
1000
PXDIR
1011
1071.249244974333
1021
-2687.287522751751
1031
0.0
1021
-2687.287522751751
1031
0.0
1002
}
1002
{
1000
PORI
1011
1094.749244974333
1021
-2687.287522751751
1031
0.0
1021
-2687.287522751751
1031
0.0
1002
}
1002
{
1000
PINS
1011
1094.749244974333
1021
-2687.287522751751
1031
0.0
1021
-2687.287522751751
1031
0.0
1002
}
1002
{
1000
PINS2
1011
1071.249244974333
1021
-2636.487522751751
1031
0.0
1021
-2636.487522751751
1031
0.0
1002
}
1002
{
1000
C
1070
     1
1002
}
1001
GENIUS_GENOBJ-N-REC_13
1002
{
1000
OWNER
1000
GEN
1002
}
1001
GENIUS_GENODEF_13
1002
{
1000
HIER
1070
     0
1002
}
1002
{
1000
MANEDIT
1070
     0
1002
}
1002
{
1000
NOSEL
1070
     0
1002
}
1002
{
1000
BEHIND
1070
     0
1002
}
1002
{
1000
OTHER
1070
     0
1002
}
1002
{
1000
REACTOR
1002
}
  0
POLYLINE
  5
45DD5
  8
AM_0
 66
     1
 10
0.0
 20
0.0
 30
0.0
 70
     1
1001
GENIUS_GENREC_14
1002
{
1000
PYDIR
1011
1094.999244974333
1021
-2638.687522751751
1031
0.0
1021
-2638.687522751751
1031
0.0
1002
}
1002
{
1000
PXDIR
1011
1059.499244974333
1021
-2687.287522751751
1031
0.0
1021
-2687.287522751751
1031
0.0
1002
}
1002
{
1000
PORI
1011
1094.999244974333
1021
-2687.287522751751
1031
0.0
1021
-2687.287522751751
1031
0.0
1002
}
1002
{
1000
PINS
1011
1094.999244974333
1021
-2687.287522751751
1031
0.0
1021
-2687.287522751751
1031
0.0
1002
}
1002
{
1000
PINS2
1011
1059.499244974333
1021
-2638.687522751751
1031
0.0
1021
-2638.687522751751
1031
0.0
1002
}
1002
{
1000
C
1070
     1
1002
}
1001
GENIUS_GENODEF_13
1002
{
1000
HIER
1070
     0
1002
}
1002
{
1000
MANEDIT
1070
     0
1002
}
1002
{
1000
NOSEL
1070
     0
1002
}
1002
{
1000
BEHIND
1070
     0
1002
}
1002
{
1000
OTHER
1070
     0
1002
}
1002
{
1000
REACTOR
1002
}
1001
GENIUS_GENOBJ-N-REC_13
1002
{
1000
OWNER
1000
GEN
1002
}
  0
VERTEX
  5
47362
  8
AM_0
 10
1093.999244974333
 20
-2687.287522751751
 30
0.0
  0
VERTEX
  5
47363
  8
AM_0
 10
1060.499244974333
 20
-2687.287522751751
 30
0.0
 42
-0.4142135623730951
  0
VERTEX
  5
47364
  8
AM_0
 10
1059.499244974333
 20
-2686.287522751751
 30
0.0
  0
VERTEX
  5
47365
  8
AM_0
 10
1059.499244974333
 20
-2639.687522751751
 30
0.0
 42
-0.4142135623730951
  0
VERTEX
  5
47366
  8
AM_0
 10
1060.499244974333
 20
-2638.687522751751
 30
0.0
  0
VERTEX
  5
47367
  8
AM_0
 10
1093.999244974333
 20
-2638.687522751751
 30
0.0
 42
-0.4142135623730951
  0
VERTEX
  5
47368
  8
AM_0
 10
1094.999244974333
 20
-2639.687522751751
 30
0.0
  0
VERTEX
  5
47369
  8
AM_0
 10
1094.999244974333
 20
-2686.287522751751
 30
0.0
 42
-0.4142135623730951
  0
SEQEND
  5
4739B
  8
AM_0
  0
ARC
  5
45DD8
  8
AM_2
 10
1093.239148283336
 20
-2639.937522751751
 30
0.0
 40
1.0
 50
0.0
 51
90.0
1001
GENIUS_GENREC_14
1002
{
1000
PYDIR
1011
1094.489148283336
1021
-2638.687522751751
1031
0.0
1021
-2638.687522751751
1031
0.0
1002
}
1002
{
1000
PXDIR
1011
1070.989148283336
1021
-2659.487522751751
1031
0.0
1021
-2659.487522751751
1031
0.0
1002
}
1002
{
1000
PORI
1011
1094.489148283336
1021
-2659.487522751751
1031
0.0
1021
-2659.487522751751
1031
0.0
1002
}
1002
{
1000
PINS
1011
1094.489148283336
1021
-2659.487522751751
1031
0.0
1021
-2659.487522751751
1031
0.0
1002
}
1002
{
1000
PINS2
1011
1070.989148283336
1021
-2638.687522751751
1031
0.0
1021
-2638.687522751751
1031
0.0
1002
}
1002
{
1000
C
1070
     1
1002
}
1001
GENIUS_GENOBJ-N-REC_13
1002
{
1000
OWNER
1000
GEN
1002
}
1001
GENIUS_GENODEF_13
1002
{
1000
HIER
1070
     0
1002
}
1002
{
1000
MANEDIT
1070
     0
1002
}
1002
{
1000
NOSEL
1070
     0
1002
}
1002
{
1000
BEHIND
1070
     0
1002
}
1002
{
1000
OTHER
1070
     0
1002
}
1002
{
1000
REACTOR
1002
}
  0
LINE
  5
45DD9
  8
AM_2
 10
1094.239148283336
 20
-2639.937522751751
 30
0.0
 11
1094.239148283336
 21
-2686.037522751751
 31
0.0
1001
GENIUS_GENREC_14
1002
{
1000
PYDIR
1011
1094.489148283336
1021
-2638.687522751751
1031
0.0
1021
-2638.687522751751
1031
0.0
1002
}
1002
{
1000
PXDIR
1011
1070.989148283336
1021
-2687.287522751751
1031
0.0
1021
-2687.287522751751
1031
0.0
1002
}
1002
{
1000
PORI
1011
1094.489148283336
1021
-2687.287522751751
1031
0.0
1021
-2687.287522751751
1031
0.0
1002
}
1002
{
1000
PINS
1011
1094.489148283336
1021
-2687.287522751751
1031
0.0
1021
-2687.287522751751
1031
0.0
1002
}
1002
{
1000
PINS2
1011
1070.989148283336
1021
-2638.687522751751
1031
0.0
1021
-2638.687522751751
1031
0.0
1002
}
1002
{
1000
C
1070
     1
1002
}
1001
GENIUS_GENOBJ-N-REC_13
1002
{
1000
OWNER
1000
GEN
1002
}
1001
GENIUS_GENODEF_13
1002
{
1000
HIER
1070
     0
1002
}
1002
{
1000
MANEDIT
1070
     0
1002
}
1002
{
1000
NOSEL
1070
     0
1002
}
1002
{
1000
BEHIND
1070
     0
1002
}
1002
{
1000
OTHER
1070
     0
1002
}
1002
{
1000
REACTOR
1002
}
  0
ARC
  5
45DDA
  8
AM_2
 10
1093.239148283336
 20
-2686.037522751751
 30
0.0
 40
1.0
 50
270.0
 51
0.0
1001
GENIUS_GENREC_14
1002
{
1000
PYDIR
1011
1094.489148283336
1021
-2636.487522751751
1031
0.0
1021
-2636.487522751751
1031
0.0
1002
}
1002
{
1000
PXDIR
1011
1070.989148283336
1021
-2687.287522751751
1031
0.0
1021
-2687.287522751751
1031
0.0
1002
}
1002
{
1000
PORI
1011
1094.489148283336
1021
-2687.287522751751
1031
0.0
1021
-2687.287522751751
1031
0.0
1002
}
1002
{
1000
PINS
1011
1094.489148283336
1021
-2687.287522751751
1031
0.0
1021
-2687.287522751751
1031
0.0
1002
}
1002
{
1000
PINS2
1011
1070.989148283336
1021
-2636.487522751751
1031
0.0
1021
-2636.487522751751
1031
0.0
1002
}
1002
{
1000
C
1070
     1
1002
}
1001
GENIUS_GENOBJ-N-REC_13
1002
{
1000
OWNER
1000
GEN
1002
}
1001
GENIUS_GENODEF_13
1002
{
1000
HIER
1070
     0
1002
}
1002
{
1000
MANEDIT
1070
     0
1002
}
1002
{
1000
NOSEL
1070
     0
1002
}
1002
{
1000
BEHIND
1070
     0
1002
}
1002
{
1000
OTHER
1070
     0
1002
}
1002
{
1000
REACTOR
1002
}
  0
LINE
  5
45DDB
  8
AM_2
 10
1092.639754885951
 20
-2638.787522751751
 30
0.0
 11
1087.358735062716
 21
-2638.787522751751
 31
0.0
  0
LINE
  5
45DDC
  8
AM_2
 10
1092.639754885951
 20
-2638.787522751751
 30
0.0
 11
1092.639754885951
 21
-2638.687522751751
 31
0.0
  0
LINE
  5
45DDD
  8
AM_2
 10
1087.358735062716
 20
-2638.787522751751
 30
0.0
 11
1087.358735062716
 21
-2638.687522751751
 31
0.0
  0
LINE
  5
45DDE
  8
AM_2
 10
1092.639754885951
 20
-2687.187522751751
 30
0.0
 11
1087.358735062716
 21
-2687.187522751751
 31
0.0
  0
LINE
  5
45DDF
  8
AM_2
 10
1092.639754885951
 20
-2687.187522751751
 30
0.0
 11
1092.639754885951
 21
-2687.287522751751
 31
0.0
  0
LINE
  5
45DE0
  8
AM_2
 10
1087.358735062716
 20
-2687.187522751751
 30
0.0
 11
1087.358735062716
 21
-2687.287522751751
 31
0.0
  0
POLYLINE
  5
45DE1
  8
AM_0
 66
     1
 10
0.0
 20
0.0
 30
0.0
 70
     1
1001
GENIUS_GENREC_14
1002
{
1000
PYDIR
1011
1098.499244974333
1021
-2696.237522751751
1031
0.0
1021
-2696.237522751751
1031
0.0
1002
}
1002
{
1000
PXDIR
1011
1055.999244974333
1021
-2629.737522751751
1031
0.0
1021
-2629.737522751751
1031
0.0
1002
}
1002
{
1000
PORI
1011
1098.499244974333
1021
-2629.737522751751
1031
0.0
1021
-2629.737522751751
1031
0.0
1002
}
1002
{
1000
PINS
1011
1098.499244974333
1021
-2629.737522751751
1031
0.0
1021
-2629.737522751751
1031
0.0
1002
}
1002
{
1000
PINS2
1011
1055.999244974333
1021
-2696.237522751751
1031
0.0
1021
-2696.237522751751
1031
0.0
1002
}
1002
{
1000
C
1070
     1
1002
}
1001
GENIUS_GENODEF_13
1002
{
1000
HIER
1070
     0
1002
}
1002
{
1000
MANEDIT
1070
     0
1002
}
1002
{
1000
NOSEL
1070
     0
1002
}
1002
{
1000
BEHIND
1070
     0
1002
}
1002
{
1000
OTHER
1070
     0
1002
}
1002
{
1000
REACTOR
1002
}
1001
GENIUS_GENOBJ-N-REC_13
1002
{
1000
OWNER
1000
GEN
1002
}
  0
VERTEX
  5
4736A
  8
AM_0
 10
1097.499244974333
 20
-2629.737522751751
 30
0.0
  0
VERTEX
  5
4736B
  8
AM_0
 10
1056.999244974333
 20
-2629.737522751752
 30
0.0
 42
0.4142135623730884
  0
VERTEX
  5
4736C
  8
AM_0
 10
1055.999244974333
 20
-2630.737522751752
 30
0.0
  0
VERTEX
  5
4736D
  8
AM_0
 10
1055.999244974333
 20
-2695.237522751752
 30
0.0
 42
0.4142135623730984
  0
VERTEX
  5
4736E
  8
AM_0
 10
1056.999244974333
 20
-2696.237522751752
 30
0.0
  0
VERTEX
  5
4736F
  8
AM_0
 10
1097.499244974332
 20
-2696.237522751751
 30
0.0
 42
0.4142135623730793
  0
VERTEX
  5
47370
  8
AM_0
 10
1098.499244974332
 20
-2695.237522751751
 30
0.0
  0
VERTEX
  5
47371
  8
AM_0
 10
1098.499244974333
 20
-2630.737522751751
 30
0.0
 42
0.414213562373114
  0
SEQEND
  5
4739C
  8
AM_0
  0
TEXT
  5
45ED7
  8
AM_6
 10
1059.431961539474
 20
-2704.057305281131
 30
0.0
 40
3.2
  1
外部側ハンドル（Ｓ＝1／2）
 41
0.7
  0
INSERT
  5
45F94
  8
0部品14
  2
*X44
 10
0.0
 20
0.0
 30
0.0
1001
ACAD
1000
HATCH
1002
{
1070
    19
1000
_U
1040
5.0
1040
0.7853981633974483
1000
R14_HATCH_DATA
1000
45F94
1011
1.0
1021
0.0
1031
0.0
1021
0.0
1031
0.0
1011
0.0
1021
1.0
1031
0.0
1021
1.0
1031
0.0
1011
0.0
1021
0.0
1031
1.0
1021
0.0
1031
1.0
1040
0.0
1010
0.0
1020
0.0
1030
1.0
1020
0.0
1030
1.0
1000
_U
1070
     0
1070
     1
1071
        1
1071
        1
1071
        4
1070
     1
1040
1207.333570302336
1040
-2725.987522751752
1040
1207.333570302336
1040
-2599.987522751752
1070
     1
1040
1207.333570302336
1040
-2599.987522751752
1040
1128.333570302335
1040
-2599.987522751752
1070
     1
1040
1128.333570302335
1040
-2599.987522751752
1040
1128.333570302335
1040
-2725.987522751752
1070
     1
1040
1128.333570302335
1040
-2725.987522751752
1040
1207.333570302336
1040
-2725.987522751752
1071
        0
1070
     0
1070
     0
1040
0.7853981633974483
1040
5.0
1070
     0
1070
     1
1040
0.7853981633974483
1040
341.6531684670547
1040
-2.638954662132618
1040
-3.535533905932737
1040
3.535533905932737
1070
     0
1071
        1
1040
341.6531684670547
1040
-2.638954662132618
1040
0.0
1002
}
  0
LINE
  5
471C4
  8
AM_2
  6
細線
 10
1045.992073076211
 20
-2555.156819896928
 30
0.0
 11
1107.533739742878
 21
-2555.156819896928
 31
0.0
  0
LINE
  5
471C5
  8
AM_2
  6
細線
 10
1136.408739742878
 20
-2555.156819896928
 30
0.0
 11
1194.15873974288
 21
-2555.156819896928
 31
0.0
  0
LINE
  5
471C6
  8
AM_0
  6
中線
 10
1045.992073076211
 20
-2549.906819896928
 30
0.0
 11
1194.15873974288
 21
-2549.906819896928
 31
0.0
  0
LINE
  5
471C7
  8
AM_2
 10
1071.658739742878
 20
-2542.906819896928
 30
0.0
 11
1194.15873974288
 21
-2542.906819896926
 31
0.0
  0
LINE
  5
471C8
  8
AM_0
  6
中線
 10
1045.992073076211
 20
-2537.656819896928
 30
0.0
 11
1045.992073076211
 21
-2570.906819896928
 31
0.0
  0
LINE
  5
471C9
  8
AM_2
 10
1071.658739742878
 20
-2537.656819896928
 30
0.0
 11
1071.658739742878
 21
-2570.906819896928
 31
0.0
  0
LINE
  5
471CA
  8
AM_0
  6
中線
 10
1136.408739742878
 20
-2537.656819896928
 30
0.0
 11
1136.408739742878
 21
-2570.906819896928
 31
0.0
  0
LINE
  5
471CB
  8
AM_2
  6
細線
 10
1045.992073076211
 20
-2560.406819896928
 30
0.0
 11
1107.533739742878
 21
-2560.406819896928
 31
0.0
  0
LINE
  5
471CC
  8
AM_2
  6
細線
 10
1136.408739742878
 20
-2560.406819896928
 30
0.0
 11
1194.15873974288
 21
-2560.406819896928
 31
0.0
  0
LINE
  5
471CD
  8
AM_0
 10
1045.992073076211
 20
-2570.906819896928
 30
0.0
 11
1194.15873974288
 21
-2570.906819896928
 31
0.0
  0
LINE
  5
471CE
  8
AM_2
  6
細線
 10
1045.992073076211
 20
-2565.656819896928
 30
0.0
 11
1107.533739742878
 21
-2565.656819896926
 31
0.0
  0
LINE
  5
471CF
  8
AM_2
  6
細線
 10
1136.408739742878
 20
-2565.656819896926
 30
0.0
 11
1194.15873974288
 21
-2565.656819896928
 31
0.0
  0
LINE
  5
471D0
  8
AM_0
  6
中線
 10
1045.992073076211
 20
-2537.656819896928
 30
0.0
 11
1194.15873974288
 21
-2537.656819896928
 31
0.0
  0
TEXT
  5
471D1
  8
AM_6
 10
1053.21420866561
 20
-2545.181819896928
 30
0.0
 40
2.799999999999999
  1
適応扉厚
 41
0.61
  0
TEXT
  5
471D2
  8
AM_6
 10
1075.070917973965
 20
-2547.631819896928
 30
0.0
 40
2.449999999999998
  1
ハンドル取付ビス（2本）
 41
0.61
  0
TEXT
  5
471D3
  8
AM_6
 10
1048.149759760846
 20
-2553.931819896928
 30
0.0
 40
2.799999999999999
  1
40以上46未満
 41
0.7
  0
TEXT
  5
471D4
  8
AM_6
 10
1093.930166667536
 20
-2541.681819896927
 30
0.0
 40
2.799999999999999
  1
セットビス（SUS）
 41
0.61
  0
TEXT
  5
471D5
  8
AM_6
 10
1141.37881741987
 20
-2553.931819896928
 30
0.0
 40
2.799999999999999
  1
20
 41
0.7
  0
TEXT
  5
471D6
  8
AM_6
 10
1048.271338621572
 20
-2559.181819896927
 30
0.0
 40
2.799999999999999
  1
46以上52未満
 41
0.7
  0
TEXT
  5
471D7
  8
AM_6
 10
1048.271338621572
 20
-2564.431819896928
 30
0.0
 40
2.799999999999999
  1
52以上57未満
 41
0.7
  0
TEXT
  5
471D8
  8
AM_6
 10
1048.271338621572
 20
-2569.681819896928
 30
0.0
 40
2.799999999999999
  1
57以上60以下
 41
0.7
  0
TEXT
  5
471D9
  8
AM_6
 10
1073.672843656286
 20
-2553.931819896928
 30
0.0
 40
2.799999999999999
  1
M4×20（D8）＋ 皿小ネジ
 41
0.7
  0
LINE
  5
471DA
  8
AM_2
 10
1107.533739742878
 20
-2542.906819896928
 30
0.0
 11
1107.533739742878
 21
-2570.906819896928
 31
0.0
  0
CIRCLE
  5
471DB
  8
AM_2
 10
1093.276114003375
 20
-2552.528949806291
 30
0.0
 40
1.531249999999999
  0
TEXT
  5
471DC
  8
AM_6
 10
1109.804073869669
 20
-2547.631819896928
 30
0.0
 40
2.449999999999998
  1
錠・受 取付ビス（各2本）
 41
0.7
  0
TEXT
  5
471DD
  8
AM_6
 10
1073.672843656286
 20
-2559.181819896927
 30
0.0
 40
2.799999999999999
  1
M4×25（D8）＋ 皿小ネジ
 41
0.7
  0
CIRCLE
  5
471DE
  8
AM_2
 10
1093.276114003375
 20
-2557.778949806291
 30
0.0
 40
1.531249999999999
  0
TEXT
  5
471DF
  8
AM_6
 10
1073.672843656286
 20
-2564.431819896926
 30
0.0
 40
2.799999999999999
  1
M4×30（D8）＋ 皿小ネジ
 41
0.7
  0
CIRCLE
  5
471E0
  8
AM_2
 10
1093.276114003378
 20
-2563.028949806291
 30
0.0
 40
1.531249999999999
  0
TEXT
  5
471E1
  8
AM_6
 10
1073.672843656286
 20
-2569.681819896928
 30
0.0
 40
2.799999999999999
  1
M4×35（D8）＋ 皿小ネジ
 41
0.7
  0
CIRCLE
  5
471E2
  8
AM_2
 10
1093.276114003375
 20
-2568.278949806291
 30
0.0
 40
1.531249999999999
  0
INSERT
  5
471E3
  8
AM_6
  2
*X45
 10
0.0
 20
0.0
 30
0.0
  0
CIRCLE
  5
471E4
  8
AM_2
 10
1115.263945532705
 20
-2562.968511219214
 30
0.0
 40
1.531249999999999
  0
TEXT
  5
471E5
  8
AM_6
 10
1141.37881741987
 20
-2569.681819896926
 30
0.0
 40
2.799999999999999
  1
25
 41
0.7
  0
TEXT
  5
471E6
  8
AM_6
 10
1141.37881741987
 20
-2564.431819896928
 30
0.0
 40
2.799999999999999
  1
25
 41
0.7
  0
TEXT
  5
471E7
  8
AM_6
 10
1141.37881741987
 20
-2559.181819896927
 30
0.0
 40
2.799999999999999
  1
25
 41
0.7
  0
LINE
  5
471E8
  8
AM_2
 10
1150.408739742875
 20
-2542.906819896926
 30
0.0
 11
1150.408739742878
 21
-2570.906819896928
 31
0.0
  0
TEXT
  5
471E9
  8
AM_6
 10
1141.003510531569
 20
-2547.653635526949
 30
0.0
 40
2.449999999999751
  1
A寸法
 41
0.7
  0
LINE
  5
471EA
  8
AM_2
  6
中線
 10
1179.283739742873
 20
-2542.906819896926
 30
0.0
 11
1179.283739742873
 21
-2570.906819896928
 31
0.0
  0
LINE
  5
471EB
  8
AM_2
 10
1164.408739742875
 20
-2537.656819896928
 30
0.0
 11
1164.408739742869
 21
-2570.906819896928
 31
0.0
  0
TEXT
  5
471EC
  8
AM_6
 10
1154.758510531565
 20
-2547.653635526949
 30
0.0
 40
2.449999999999751
  1
B寸法
 41
0.7
  0
TEXT
  5
471ED
  8
AM_6
 10
1145.492406409546
 20
-2541.644418958824
 30
0.0
 40
2.449999999999751
  1
錠取付位置
 41
0.7
  0
TEXT
  5
471EE
  8
AM_6
 10
1169.993383773853
 20
-2564.431819896917
 30
0.0
 40
2.799999999999716
  1
32
 41
0.7
  0
TEXT
  5
471EF
  8
AM_6
 10
1169.786846781582
 20
-2553.931819896928
 30
0.0
 40
2.799999999999716
  1
24
 41
0.7
  0
TEXT
  5
471F0
  8
AM_6
 10
1169.993383773853
 20
-2569.681819896917
 30
0.0
 40
2.799999999999716
  1
32
 41
0.7
  0
LINE
  5
471F1
  8
AM_0
  6
中線
 10
1194.15873974288
 20
-2537.656819896928
 30
0.0
 11
1194.15873974288
 21
-2570.906819896928
 31
0.0
  0
TEXT
  5
471F2
  8
AM_6
 10
1184.661846781587
 20
-2559.181819896917
 30
0.0
 40
2.799999999999716
  1
26
 41
0.7
  0
TEXT
  5
471F3
  8
AM_6
 10
1184.661846781588
 20
-2553.931819896928
 30
0.0
 40
2.799999999999716
  1
20
 41
0.7
  0
TEXT
  5
471F4
  8
AM_6
 10
1170.38907307621
 20
-2541.681819896927
 30
0.0
 40
2.799999999999998
  1
ストライクL寸法
 41
0.7
  0
TEXT
  5
471F6
  8
AM_6
 10
1183.585239742876
 20
-2547.806819896927
 30
0.0
 40
2.799999999999998
  1
両開き
 41
0.7
  0
TEXT
  5
471F8
  8
AM_6
 10
1168.71023974287
 20
-2547.806819896927
 30
0.0
 40
2.799999999999998
  1
片開き
 41
0.7
  0
TEXT
  5
471FA
  8
AM_6
 10
1150.483406409542
 20
-2553.931819896928
 30
0.0
 40
2.799999999999998
  1
ドア厚-20
 41
0.7
  0
TEXT
  5
471FC
  8
AM_6
 10
1150.483406409542
 20
-2559.181819896927
 30
0.0
 40
2.799999999999998
  1
ドア厚-25
 41
0.7
  0
TEXT
  5
471FE
  8
AM_6
 10
1150.483406409541
 20
-2564.431819896928
 30
0.0
 40
2.799999999999998
  1
ドア厚-25
 41
0.7
  0
TEXT
  5
47200
  8
AM_6
 10
1150.48340640954
 20
-2569.681819896927
 30
0.0
 40
2.799999999999998
  1
ドア厚-25
 41
0.7
  0
TEXT
  5
47202
  8
AM_6
 10
1169.993383773853
 20
-2559.181819896916
 30
0.0
 40
2.799999999999716
  1
32
 41
0.7
  0
TEXT
  5
47203
  8
AM_6
 10
1184.661846781587
 20
-2564.431819896917
 30
0.0
 40
2.799999999999716
  1
26
 41
0.7
  0
TEXT
  5
47204
  8
AM_6
 10
1184.661846781587
 20
-2569.681819896918
 30
0.0
 40
2.799999999999716
  1
26
 41
0.7
  0
TEXT
  5
47340
  8
AM_6
 10
1063.492073076211
 20
-2525.930984464395
 30
0.0
 40
2.8
  1
　※堀込部の仕上色が光沢のあるPPDUBとマットなPPDUB2がございます。
 41
0.7
  0
LINE
  5
47343
  8
AM_0
 10
1045.992073076211
 20
-2527.530984464396
 30
0.0
 11
1149.74207307621
 21
-2527.530984464394
 31
0.0
  0
ENDSEC
  0
EOF
