  0
SECTION
  2
HEADER
  9
$ACADVER
  1
AC1015
  9
$ACADMAINTVER
 70
    14
  9
$DWGCODEPAGE
  3
ANSI_932
  9
$INSBASE
 10
0.0
 20
0.0
 30
0.0
  9
$EXTMIN
 10
-385.016935963669
 20
-100.0120840389421
 30
-0.0015258207003583
  9
$EXTMAX
 10
170.0169385480892
 20
294.5014657640149
 30
0.0000000349246037
  9
$LIMMIN
 10
-385.0
 20
-100.0
  9
$LIMMAX
 10
170.0
 20
296.0
  9
$ORTHOMODE
 70
     0
  9
$REGENMODE
 70
     1
  9
$FILLMODE
 70
     1
  9
$QTEXTMODE
 70
     0
  9
$MIRRTEXT
 70
     0
  9
$LTSCALE
 40
1.0
  9
$ATTMODE
 70
     1
  9
$TEXTSIZE
 40
0.2
  9
$TRACEWID
 40
0.05
  9
$TEXTSTYLE
  7
STANDARD
  9
$CLAYER
  8
0
  9
$CELTYPE
  6
CONTINUOUS
  9
$CECOLOR
 62
   256
  9
$CELTSCALE
 40
1.0
  9
$DISPSILH
 70
     0
  9
$DIMSCALE
 40
1.0
  9
$DIMASZ
 40
1.0
  9
$DIMEXO
 40
2.54
  9
$DIMDLI
 40
0.38
  9
$DIMRND
 40
0.0
  9
$DIMDLE
 40
0.0
  9
$DIMEXE
 40
2.54
  9
$DIMTP
 40
0.0
  9
$DIMTM
 40
0.0
  9
$DIMTXT
 40
3.2
  9
$DIMCEN
 40
0.09
  9
$DIMTSZ
 40
0.0
  9
$DIMTOL
 70
     0
  9
$DIMLIM
 70
     0
  9
$DIMTIH
 70
     0
  9
$DIMTOH
 70
     0
  9
$DIMSE1
 70
     0
  9
$DIMSE2
 70
     0
  9
$DIMTAD
 70
     1
  9
$DIMZIN
 70
     0
  9
$DIMBLK
  1

  9
$DIMASO
 70
     1
  9
$DIMSHO
 70
     0
  9
$DIMPOST
  1

  9
$DIMAPOST
  1

  9
$DIMALT
 70
     0
  9
$DIMALTD
 70
     2
  9
$DIMALTF
 40
25.4
  9
$DIMLFAC
 40
1.0
  9
$DIMTOFL
 70
     0
  9
$DIMTVP
 40
1.0
  9
$DIMTIX
 70
     0
  9
$DIMSOXD
 70
     0
  9
$DIMSAH
 70
     1
  9
$DIMBLK1
  1

  9
$DIMBLK2
  1

  9
$DIMSTYLE
  2
DIMSTYLE
  9
$DIMCLRD
 70
     0
  9
$DIMCLRE
 70
     0
  9
$DIMCLRT
 70
     0
  9
$DIMTFAC
 40
1.0
  9
$DIMGAP
 40
1.6
  9
$DIMJUST
 70
     0
  9
$DIMSD1
 70
     0
  9
$DIMSD2
 70
     0
  9
$DIMTOLJ
 70
     1
  9
$DIMTZIN
 70
     0
  9
$DIMALTZ
 70
     0
  9
$DIMALTTZ
 70
     0
  9
$DIMUPT
 70
     0
  9
$DIMDEC
 70
     4
  9
$DIMTDEC
 70
     4
  9
$DIMALTU
 70
     2
  9
$DIMALTTD
 70
     2
  9
$DIMTXSTY
  7
STANDARD
  9
$DIMAUNIT
 70
     0
  9
$DIMADEC
 70
     0
  9
$DIMALTRND
 40
0.0
  9
$DIMAZIN
 70
     0
  9
$DIMDSEP
 70
    46
  9
$DIMATFIT
 70
     3
  9
$DIMFRAC
 70
     0
  9
$DIMLDRBLK
  1

  9
$DIMLUNIT
 70
     2
  9
$DIMLWD
 70
    -2
  9
$DIMLWE
 70
    -2
  9
$DIMTMOVE
 70
     0
  9
$LUNITS
 70
     2
  9
$LUPREC
 70
     4
  9
$SKETCHINC
 40
0.1
  9
$FILLETRAD
 40
0.0
  9
$AUNITS
 70
     0
  9
$AUPREC
 70
     0
  9
$MENU
  1
.
  9
$ELEVATION
 40
0.0
  9
$PELEVATION
 40
0.0
  9
$THICKNESS
 40
0.0
  9
$LIMCHECK
 70
     0
  9
$CHAMFERA
 40
0.0
  9
$CHAMFERB
 40
0.0
  9
$CHAMFERC
 40
0.0
  9
$CHAMFERD
 40
0.0
  9
$SKPOLY
 70
     0
  9
$TDCREATE
 40
2453448.437844502
  9
$TDUCREATE
 40
2453448.062844502
  9
$TDUPDATE
 40
2453448.725752881
  9
$TDUUPDATE
 40
2453448.350752882
  9
$TDINDWG
 40
0.0066072569
  9
$TDUSRTIMER
 40
0.0066060995
  9
$USRTIMER
 70
     1
  9
$ANGBASE
 50
0.0
  9
$ANGDIR
 70
     0
  9
$PDMODE
 70
     0
  9
$PDSIZE
 40
0.0
  9
$PLINEWID
 40
0.0
  9
$SPLFRAME
 70
     0
  9
$SPLINETYPE
 70
     6
  9
$SPLINESEGS
 70
     8
  9
$HANDSEED
  5
572
  9
$SURFTAB1
 70
     6
  9
$SURFTAB2
 70
     6
  9
$SURFTYPE
 70
     6
  9
$SURFU
 70
     6
  9
$SURFV
 70
     6
  9
$UCSBASE
  2

  9
$UCSNAME
  2

  9
$UCSORG
 10
0.0
 20
0.0
 30
0.0
  9
$UCSXDIR
 10
1.0
 20
0.0
 30
0.0
  9
$UCSYDIR
 10
0.0
 20
1.0
 30
0.0
  9
$UCSORTHOREF
  2

  9
$UCSORTHOVIEW
 70
     0
  9
$UCSORGTOP
 10
0.0
 20
0.0
 30
0.0
  9
$UCSORGBOTTOM
 10
0.0
 20
0.0
 30
0.0
  9
$UCSORGLEFT
 10
0.0
 20
0.0
 30
0.0
  9
$UCSORGRIGHT
 10
0.0
 20
0.0
 30
0.0
  9
$UCSORGFRONT
 10
0.0
 20
0.0
 30
0.0
  9
$UCSORGBACK
 10
0.0
 20
0.0
 30
0.0
  9
$PUCSBASE
  2

  9
$PUCSNAME
  2

  9
$PUCSORG
 10
0.0
 20
0.0
 30
0.0
  9
$PUCSXDIR
 10
1.0
 20
0.0
 30
0.0
  9
$PUCSYDIR
 10
0.0
 20
1.0
 30
0.0
  9
$PUCSORTHOREF
  2

  9
$PUCSORTHOVIEW
 70
     0
  9
$PUCSORGTOP
 10
0.0
 20
0.0
 30
0.0
  9
$PUCSORGBOTTOM
 10
0.0
 20
0.0
 30
0.0
  9
$PUCSORGLEFT
 10
0.0
 20
0.0
 30
0.0
  9
$PUCSORGRIGHT
 10
0.0
 20
0.0
 30
0.0
  9
$PUCSORGFRONT
 10
0.0
 20
0.0
 30
0.0
  9
$PUCSORGBACK
 10
0.0
 20
0.0
 30
0.0
  9
$USERI1
 70
     0
  9
$USERI2
 70
     0
  9
$USERI3
 70
     0
  9
$USERI4
 70
     0
  9
$USERI5
 70
     0
  9
$USERR1
 40
0.0
  9
$USERR2
 40
0.0
  9
$USERR3
 40
0.0
  9
$USERR4
 40
0.0
  9
$USERR5
 40
0.0
  9
$WORLDVIEW
 70
     1
  9
$SHADEDGE
 70
     3
  9
$SHADEDIF
 70
    70
  9
$TILEMODE
 70
     1
  9
$MAXACTVP
 70
    64
  9
$PINSBASE
 10
0.0
 20
0.0
 30
0.0
  9
$PLIMCHECK
 70
     0
  9
$PEXTMIN
 10
1.000000000000000E+20
 20
1.000000000000000E+20
 30
1.000000000000000E+20
  9
$PEXTMAX
 10
-1.000000000000000E+20
 20
-1.000000000000000E+20
 30
-1.000000000000000E+20
  9
$PLIMMIN
 10
-385.0
 20
-100.0
  9
$PLIMMAX
 10
170.0
 20
296.0
  9
$UNITMODE
 70
     0
  9
$VISRETAIN
 70
     1
  9
$PLINEGEN
 70
     0
  9
$PSLTSCALE
 70
     1
  9
$TREEDEPTH
 70
  3020
  9
$CMLSTYLE
  2
Standard
  9
$CMLJUST
 70
     0
  9
$CMLSCALE
 40
1.0
  9
$PROXYGRAPHICS
 70
     1
  9
$MEASUREMENT
 70
     0
  9
$CELWEIGHT
370
    -1
  9
$ENDCAPS
280
     0
  9
$JOINSTYLE
280
     0
  9
$LWDISPLAY
290
     0
  9
$INSUNITS
 70
     0
  9
$HYPERLINKBASE
  1

  9
$STYLESHEET
  1

  9
$XEDIT
290
     1
  9
$CEPSNTYPE
380
     0
  9
$PSTYLEMODE
290
     1
  9
$FINGERPRINTGUID
  2
{DC7FB197-0708-48E9-872F-3965D30FE4FE}
  9
$VERSIONGUID
  2
{320C0F92-C1D5-4C78-9CCC-DE23861B352F}
  9
$EXTNAMES
290
     1
  9
$PSVPSCALE
 40
0.0
  9
$OLESTARTUP
290
     0
  0
ENDSEC
  0
SECTION
  2
CLASSES
  0
CLASS
  1
ACDBDICTIONARYWDFLT
  2
AcDbDictionaryWithDefault
  3
AutoCAD 2000
 90
        0
280
     0
281
     0
  0
CLASS
  1
AMGSETTINGSOBJ
  2
AmgSettingsObj
  3
"AcadM|Product Description: AutoCAD Mechanical 2000|Company: Autodesk"
 90
        0
280
     0
281
     0
  0
CLASS
  1
ACME_DOCUMENT
  2
AcMeDbDoc
  3
AcMeServices
 90
        0
280
     0
281
     0
  0
CLASS
  1
ACMESCOPE
  2
AcMeScope
  3
AcMeServices
 90
        0
280
     0
281
     0
  0
CLASS
  1
ACMECOMMANDHISTORY
  2
AcMeCommandHistory
  3
AcMeServices
 90
        0
280
     0
281
     0
  0
CLASS
  1
ACIMSYSVARMAN
  2
AcImSysVarManager
  3
AcMeServices
 90
        0
280
     0
281
     0
  0
CLASS
  1
ACIMINTSYSVAR
  2
AcImIntSysVar
  3
AcMeServices
 90
        0
280
     0
281
     0
  0
CLASS
  1
ACMEDRAWINGMAN
  2
AcMeDrawingMan
  3
AcMeServices
 90
        0
280
     0
281
     0
  0
CLASS
  1
ACMEVIEW
  2
AcMeView
  3
AcMeServices
 90
        0
280
     0
281
     0
  0
CLASS
  1
ACDBENTITYCACHE
  2
AcMeEntityCache
  3
AcMeServices
 90
        0
280
     0
281
     0
  0
CLASS
  1
GSMANAGER
  2
AcMeGSManager
  3
AcMeServices
 90
        0
280
     0
281
     0
  0
CLASS
  1
AMDTINTERNALREACTOR
  2
AmdtInternalReactor
  3
AcMeServices
 90
        0
280
     0
281
     0
  0
CLASS
  1
ACMESTATEMGR
  2
AcMeStateMgr
  3
AcMeServices
 90
        0
280
     0
281
     0
  0
CLASS
  1
ACGREFMASTER
  2
AcGrefMaster
  3
AcAttribServices
 90
        0
280
     0
281
     0
  0
CLASS
  1
AM_DRAWING_MGR
  2
AcDmDwgMgr
  3
AcMechDwgViewMgmt
 90
    32768
280
     0
281
     0
  0
CLASS
  1
AM_DWG_DOCUMENT
  2
AcDmDwgDocument
  3
AcMechDwgViewMgmt
 90
    32768
280
     0
281
     0
  0
CLASS
  1
AM_DWG_SHEET
  2
AcDmSheet
  3
AcMechDwgViewMgmt
 90
    32768
280
     0
281
     0
  0
CLASS
  1
AM_VIEWDIMPARMAP
  2
AcDmViewDimParMap
  3
AcMechDwgViewMgmt
 90
    32768
280
     0
281
     0
  0
CLASS
  1
ACIMREALSYSVAR
  2
AcImRealSysVar
  3
AcMeServices
 90
        0
280
     0
281
     0
  0
CLASS
  1
AM_DWGMGR_NAME
  2
AcDmDwgMgrName
  3
AcMechDwgViewMgmt
 90
    32768
280
     0
281
     0
  0
CLASS
  1
ACME_DATABASE
  2
AcMeDbDatabase
  3
AcMeServices
 90
        0
280
     0
281
     0
  0
CLASS
  1
ACRFINSADJUSTERMGR
  2
AcRfInsAdjusterMgr
  3
AcMeServices
 90
        0
280
     0
281
     0
  0
CLASS
  1
ACGREFACADMASTER
  2
AcGrefacadMaster
  3
AcGrefServices
 90
        0
280
     0
281
     0
  0
CLASS
  1
AMDTMENUSTATEMGR
  2
AmdtMenuStateMgr
  3
McadcomServices
 90
    32768
280
     0
281
     0
  0
CLASS
  1
AMDTMCOMMENUSTATE
  2
AmdtMcomMenuState
  3
McadcomServices
 90
    32768
280
     0
281
     0
  0
CLASS
  1
AMIMASTER
  2
AmiMaster
  3
AmiServices
 90
        0
280
     0
281
     0
  0
CLASS
  1
MAPIAMMOUDLE
  2
MApiAmModule
  3
MApiAmServices
 90
    32768
280
     0
281
     0
  0
CLASS
  1
AMDTADMENUSTATE
  2
AmdtAdMenuState
  3
DesignerServices
 90
    32768
280
     0
281
     0
  0
CLASS
  1
ADAPPL
  2
AcAdAppl
  3
DesignerServices
 90
    32768
280
     0
281
     0
  0
CLASS
  1
DEPMGR
  2
AcAdDepMgr
  3
DesignerServices
 90
    32768
280
     0
281
     0
  0
CLASS
  1
PARAMMGR
  2
AcAdParamMgr
  3
DesignerServices
 90
    32768
280
     0
281
     0
  0
CLASS
  1
PARAMSCOPE
  2
AcAdParamScope
  3
DesignerServices
 90
    32768
280
     0
281
     0
  0
CLASS
  1
NAMEDAPPL
  2
AcAdNamedAppl
  3
DesignerServices
 90
    32768
280
     0
281
     0
  0
CLASS
  1
AMDTDMMENUSTATE
  2
AmdtDmMenuState
  3
AcMechDwgViewMgmt
 90
    32768
280
     0
281
     0
  0
CLASS
  1
AMDTAMMENUSTATE
  2
AmdtAmMenuState
  3
DesignerAssemblies
 90
    32768
280
     0
281
     0
  0
CLASS
  1
ACIMSTRSYSVAR
  2
AcImStrSysVar
  3
AcMeServices
 90
        0
280
     0
281
     0
  0
CLASS
  1
ACAMPROJECT
  2
AcAmProject
  3
DesignerAssemblies
 90
    32768
280
     0
281
     0
  0
CLASS
  1
ACAMGRCOMPDEF
  2
AcAmGrCompDef
  3
DesignerAssemblies
 90
    32768
280
     0
281
     0
  0
CLASS
  1
ACCMCONTEXT
  2
AcCmContext
  3
DesignerAssemblies
 90
    32768
280
     0
281
     0
  0
CLASS
  1
ACAMCOMPDEF
  2
AcAmCompDef
  3
DesignerAssemblies
 90
    32768
280
     0
281
     0
  0
CLASS
  1
ACAMCOMPDEFMGR
  2
AcAmCompDefMgr
  3
DesignerAssemblies
 90
    32768
280
     0
281
     0
  0
CLASS
  1
AMCONTEXTMGR
  2
AcAmContextMgr
  3
DesignerAssemblies
 90
    32768
280
     0
281
     0
  0
CLASS
  1
ACAMCONTEXTMODELER
  2
AcAmContextModeler
  3
DesignerAssemblies
 90
    32768
280
     0
281
     0
  0
CLASS
  1
ACMDATADICTIONARY
  2
AcmDataDictionary
  3
"AcmSymBB|Product Description: AutoCAD Mechanical 2000|Company: Autodesk"
 90
        0
280
     0
281
     0
  0
CLASS
  1
CATALOGSTATE
  2
AcAmCatalogState
  3
DesignerAssemblies
 90
    32768
280
     0
281
     0
  0
CLASS
  1
ACAMGRCOMPDEFSET
  2
AcAmGrCompDefSet
  3
DesignerAssemblies
 90
    32768
280
     0
281
     0
  0
CLASS
  1
AMDTBROWSERDBTAB
  2
AmdtBrowserDbTab
  3
McadcomServices
 90
    32768
280
     0
281
     0
  0
CLASS
  1
CBROWSERAPPOBJECT
  2
CBrowserAppObject
  3
McadcomServices
 90
    32768
280
     0
281
     0
  0
CLASS
  1
DM_PLACEHOLDER
  2
AcDmSelsetPlaceholder
  3
AcMechDwgViewMgmt
 90
    32768
280
     0
281
     0
  0
CLASS
  1
ACMSTANDARDANSI
  2
AcmStandardANSI
  3
"Amdt_StdImp|Product Description: AutoCAD Mechanical 2000|Company: Autodesk"
 90
        0
280
     0
281
     0
  0
CLASS
  1
AMGOBJPROPCFG
  2
AmgObjPropCfg
  3
"AmgLay|Product Description: AutoCAD Mechanical 2000|Company: Autodesk"
 90
        1
280
     0
281
     0
  0
CLASS
  1
ACMSURFSTANDARDANSI
  2
AcmSurfTextStdANSI
  3
"Amdt_StdImp|Product Description: AutoCAD Mechanical 2000|Company: Autodesk"
 90
        0
280
     0
281
     0
  0
CLASS
  1
ACMFCFSTANDARDANSI
  2
AcmFCFStdANSI
  3
"Amdt_StdImp|Product Description: AutoCAD Mechanical 2000|Company: Autodesk"
 90
        0
280
     0
281
     0
  0
CLASS
  1
ACMWELDSTANDARDANSI
  2
AcmWeldingStdANSI
  3
"Amdt_StdImp|Product Description: AutoCAD Mechanical 2000|Company: Autodesk"
 90
        0
280
     0
281
     0
  0
CLASS
  1
ACMIDSTANDARDANSI
  2
AcmIdStdANSI
  3
"Amdt_StdImp|Product Description: AutoCAD Mechanical 2000|Company: Autodesk"
 90
        0
280
     0
281
     0
  0
CLASS
  1
ACMDATUMSTANDARDANSI
  2
AcmDatumStdANSI
  3
"Amdt_StdImp|Product Description: AutoCAD Mechanical 2000|Company: Autodesk"
 90
        0
280
     0
281
     0
  0
CLASS
  1
ACMBOMSTANDARDANSI
  2
AcmBOMStdANSI
  3
"Amdt_StdImp|Product Description: AutoCAD Mechanical 2000|Company: Autodesk"
 90
        0
280
     0
281
     0
  0
CLASS
  1
ACMDETAILSTANDARDANSI
  2
AmdtDetailSymStdANSI
  3
"Amdt_StdImp|Product Description: AutoCAD Mechanical 2000|Company: Autodesk"
 90
        0
280
     0
281
     0
  0
CLASS
  1
ACMSECTIONSTANDARDANSI
  2
AmdtSectionSymStdANSI
  3
"Amdt_StdImp|Product Description: AutoCAD Mechanical 2000|Company: Autodesk"
 90
        0
280
     0
281
     0
  0
CLASS
  1
ACMCENTERLINESTANDARDANSI
  2
AmdtCenterLineStdANSI
  3
"Amdt_StdImp|Product Description: AutoCAD Mechanical 2000|Company: Autodesk"
 90
        0
280
     0
281
     0
  0
CLASS
  1
ACMTHREADLINESTANDARDANSI
  2
AmdtThreadLineStdANSI
  3
"Amdt_StdImp|Product Description: AutoCAD Mechanical 2000|Company: Autodesk"
 90
    32768
280
     0
281
     0
  0
CLASS
  1
ACMNOTESTANDARDANSI
  2
AmdtNoteStdANSI
  3
"Amdt_StdImp|Product Description: AutoCAD Mechanical 2000|Company: Autodesk"
 90
        0
280
     0
281
     0
  0
CLASS
  1
AMDTNOTETEMPLATEDB
  2
AmdtNoteTemplateDB
  3
AMDT_STDIMP_MODULE_NAME
 90
    32768
280
     0
281
     0
  0
CLASS
  1
ACAMGLAYSTD
  2
AcAmgLayStd
  3
"AcAmgLayStd|Product Description: AutoCAD Mechanical 2000|Company: Autodesk"
 90
        0
280
     0
281
     0
  0
CLASS
  1
ACAMGDIMSTD
  2
AcAmgDimStd
  3
"AcAmgDimStd|Product Description: AutoCAD Mechanical 2000|Company: Autodesk"
 90
        0
280
     0
281
     0
  0
CLASS
  1
ACAMGHOLECHARTSTDANSI
  2
AcAmgHoleChartStdANSI
  3
ACMSYMBB_MODULE_NAME
 90
        0
280
     0
281
     0
  0
CLASS
  1
ACAMGTITLESTD
  2
AcAmgTitleStd
  3
"TITLEAPP"
 90
        0
280
     0
281
     0
  0
CLASS
  1
ACAMGFILTERDAT
  2
AcAmgFilterDat
  3
"AcadM|Product Description: AutoCAD Mechanical 2000|Company: Autodesk"
 90
    32768
280
     0
281
     0
  0
CLASS
  1
LAYER_INDEX
  2
AcDbLayerIndex
  3
AutoCAD 2000
 90
        0
280
     0
281
     0
  0
CLASS
  1
IDBUFFER
  2
AcDbIdBuffer
  3
AutoCAD 2000
 90
        0
280
     0
281
     0
  0
CLASS
  1
DICTIONARYVAR
  2
AcDbDictionaryVar
  3
AutoCAD 2000
 90
        0
280
     0
281
     0
  0
CLASS
  1
ACDBPLACEHOLDER
  2
AcDbPlaceHolder
  3
AutoCAD 2000
 90
        0
280
     0
281
     0
  0
CLASS
  1
LAYOUT
  2
AcDbLayout
  3
AutoCAD 2000
 90
        0
280
     0
281
     0
  0
CLASS
  1
ACMDATAENTRYBLOCK
  2
AcmDataEntryBlock
  3
"AcmSymBB|Product Description: AutoCAD Mechanical 2000|Company: Autodesk"
 90
        0
280
     0
281
     0
  0
CLASS
  1
AMDTFORMULAUPDATEDISPATCHER
  2
AmdtFormulaUpdateDispatcher
  3
AcMeServices
 90
        0
280
     0
281
     0
  0
ENDSEC
  0
SECTION
  2
TABLES
  0
TABLE
  2
VPORT
  5
8
330
0
100
AcDbSymbolTable
 70
     8
  0
VPORT
  5
571
330
8
100
AcDbSymbolTableRecord
100
AcDbViewportTableRecord
  2
*Active
 70
     0
 10
0.0
 20
0.0
 11
1.0
 21
1.0
 12
117.1535225679153
 22
0.9703611708775952
 13
0.0
 23
0.0
 14
1.0
 24
1.0
 15
0.0
 25
0.0
 16
0.0
 26
0.0
 36
1.0
 17
0.0
 27
0.0
 37
0.0
 40
1430.765320354104
 41
1.619891008174386
 42
50.0
 43
0.0
 44
0.0
 50
0.0
 51
0.0
 71
     0
 72
   100
 73
     1
 74
     1
 75
     0
 76
     0
 77
     0
 78
     0
281
     0
 65
     1
110
0.0
120
0.0
130
0.0
111
1.0
121
0.0
131
0.0
112
0.0
122
1.0
132
0.0
 79
     0
146
0.0
  0
ENDTAB
  0
TABLE
  2
LTYPE
  5
5
330
0
100
AcDbSymbolTable
 70
    19
  0
LTYPE
  5
13
330
5
100
AcDbSymbolTableRecord
100
AcDbLinetypeTableRecord
  2
ByBlock
 70
     0
  3

 72
    65
 73
     0
 40
0.0
  0
LTYPE
  5
14
330
5
100
AcDbSymbolTableRecord
100
AcDbLinetypeTableRecord
  2
ByLayer
 70
     0
  3

 72
    65
 73
     0
 40
0.0
  0
LTYPE
  5
15
330
5
100
AcDbSymbolTableRecord
100
AcDbLinetypeTableRecord
  2
CONTINUOUS
 70
     0
  3
Solid line
 72
    65
 73
     0
 40
0.0
  0
LTYPE
  5
24
330
5
100
AcDbSymbolTableRecord
100
AcDbLinetypeTableRecord
  2
DASHED
 70
     0
  3
__ __ __ __ __ __ __ __ __ __ __ __ __ __ __
 72
    65
 73
     2
 40
3.5
 49
2.0
 74
     0
 49
-1.5
 74
     0
  0
LTYPE
  5
25
330
5
100
AcDbSymbolTableRecord
100
AcDbLinetypeTableRecord
  2
CENTER
 70
     0
  3
____ _ ____ _ ____ _ ____ _ ____ _ ____ _ ____
 72
    65
 73
     4
 40
17.5
 49
13.0
 74
     0
 49
-1.5
 74
     0
 49
1.5
 74
     0
 49
-1.5
 74
     0
  0
LTYPE
  5
26
330
5
100
AcDbSymbolTableRecord
100
AcDbLinetypeTableRecord
  2
PHANTOM
 70
     0
  3
_____ _ _ _____ _ _ _____ _ _ _____ _ _ ____  
 72
    65
 73
     6
 40
15.5
 49
8.0
 74
     0
 49
-1.5
 74
     0
 49
1.5
 74
     0
 49
-1.5
 74
     0
 49
1.5
 74
     0
 49
-1.5
 74
     0
  0
LTYPE
  5
27
330
5
100
AcDbSymbolTableRecord
100
AcDbLinetypeTableRecord
  2
DOT
 70
     0
  3
. . . . . . . . . . . . . . . . . . . . . . . .
 72
    65
 73
     2
 40
0.25
 49
0.0
 74
     0
 49
-0.25
 74
     0
  0
LTYPE
  5
28
330
5
100
AcDbSymbolTableRecord
100
AcDbLinetypeTableRecord
  2
HIDDEN
 70
     0
  3
__ __ __ __ __ __ __ __ __ __ __ __ __ __ __
 72
    65
 73
     2
 40
3.5
 49
2.0
 74
     0
 49
-1.5
 74
     0
  0
LTYPE
  5
429
330
5
100
AcDbSymbolTableRecord
100
AcDbLinetypeTableRecord
  2
PHANTOM2
 70
     0
  3
Phantom (.5x) ___ _ _ ___ _ _ ___ _ _ ___ _ _
 72
    65
 73
     6
 40
1.25
 49
0.625
 74
     0
 49
-0.125
 74
     0
 49
0.125
 74
     0
 49
-0.125
 74
     0
 49
0.125
 74
     0
 49
-0.125
 74
     0
  0
LTYPE
  5
45D
330
5
100
AcDbSymbolTableRecord
100
AcDbLinetypeTableRecord
  2
AM_ISO02W050
 70
     0
  3
__ __ __ __ __ __ __ __ __ __ __ __ __ __ __
 72
    65
 73
     2
 40
7.5
 49
6.0
 74
     0
 49
-1.5
 74
     0
  0
LTYPE
  5
45E
330
5
100
AcDbSymbolTableRecord
100
AcDbLinetypeTableRecord
  2
AM_ISO08W050
 70
     0
  3
____ . ____ . ____ . ____ . ____ . ____ . ____
 72
    65
 73
     4
 40
18.0
 49
12.0
 74
     0
 49
-1.5
 74
     0
 49
3.0
 74
     0
 49
-1.5
 74
     0
  0
LTYPE
  5
45F
330
5
100
AcDbSymbolTableRecord
100
AcDbLinetypeTableRecord
  2
AM_ISO09W050
 70
     0
  3
_____ . . _____ . . _____ . . ____ .. ____
 72
    65
 73
     6
 40
22.5
 49
12.0
 74
     0
 49
-1.5
 74
     0
 49
3.0
 74
     0
 49
-1.5
 74
     0
 49
3.0
 74
     0
 49
-1.5
 74
     0
  0
LTYPE
  5
460
330
5
100
AcDbSymbolTableRecord
100
AcDbLinetypeTableRecord
  2
Amconstr
 70
     0
  3
_______________________
 72
    65
 73
     2
 40
9999.0
 49
9999.0
 74
     0
 49
0.0
 74
     0
  0
LTYPE
  5
461
330
5
100
AcDbSymbolTableRecord
100
AcDbLinetypeTableRecord
  2
AM_ISO08W050x2
 70
     0
  3
__ . __ . __ . __ . __ . __
 72
    65
 73
     4
 40
9.0
 49
6.0
 74
     0
 49
-0.75
 74
     0
 49
1.5
 74
     0
 49
-0.75
 74
     0
  0
LTYPE
  5
462
330
5
100
AcDbSymbolTableRecord
100
AcDbLinetypeTableRecord
  2
AM_ISO02W050x2
 70
     0
  3
 _ _ _ _ _ _ _ _ _ _ _ _
 72
    65
 73
     2
 40
3.75
 49
3.0
 74
     0
 49
-0.75
 74
     0
  0
LTYPE
  5
465
330
5
100
AcDbSymbolTableRecord
100
AcDbLinetypeTableRecord
  2
Amzigzag
 70
     0
  3
/\/-/\/-/\/-/\/-/\/-/\/
 72
    65
 73
     2
 40
11.00009999999999
 49
0.0001
 74
     4
 75
   135
340
464
 46
0.04
 50
0.0
 44
0.0
 45
0.0
 49
-11.0
 74
     0
  0
LTYPE
  5
466
330
5
100
AcDbSymbolTableRecord
100
AcDbLinetypeTableRecord
  2
CENTER2
 70
     0
  3
Center (.5x) ___ _ ___ _ ___ _ ___ _ ___ _ ___
 72
    65
 73
     4
 40
1.125
 49
0.75
 74
     0
 49
-0.125
 74
     0
 49
0.125
 74
     0
 49
-0.125
 74
     0
  0
LTYPE
  5
467
330
5
100
AcDbSymbolTableRecord
100
AcDbLinetypeTableRecord
  2
HIDDEN2
 70
     0
  3
Hidden (.5x) _ _ _ _ _ _ _ _ _ _ _ _ _ _ _ _ _
 72
    65
 73
     2
 40
0.1875
 49
0.125
 74
     0
 49
-0.0625
 74
     0
  0
LTYPE
  5
468
330
5
100
AcDbSymbolTableRecord
100
AcDbLinetypeTableRecord
  2
Amzigzag2
 70
     0
  3
/\/-/\/-/\/-/\/-/\/-/\/
 72
    65
 73
     2
 40
0.4401
 49
0.0001
 74
     4
 75
   135
340
464
 46
0.0016
 50
0.0
 44
0.0
 45
0.0
 49
-0.4400000000000003
 74
     0
  0
LTYPE
  5
476
330
5
100
AcDbSymbolTableRecord
100
AcDbLinetypeTableRecord
  2
ACANSTGB
 70
     0
  3
__ . . __ . .
 72
    65
 73
     6
 40
0.35433070866
 49
0.15748031496
 74
     0
 49
-0.03937007874
 74
     0
 49
0.03937007874
 74
     0
 49
-0.03937007874
 74
     0
 49
0.03937007874
 74
     0
 49
-0.03937007874
 74
     0
  0
LTYPE
  5
477
330
5
100
AcDbSymbolTableRecord
100
AcDbLinetypeTableRecord
  2
ACANSTGL
 70
     0
  3
_ _ _ _ _
 72
    65
 73
     2
 40
0.11811023622
 49
0.07874015748
 74
     0
 49
-0.03937007874
 74
     0
  0
ENDTAB
  0
TABLE
  2
LAYER
  5
2
330
0
100
AcDbSymbolTable
 70
     2
  0
LAYER
  5
10
330
2
100
AcDbSymbolTableRecord
100
AcDbLayerTableRecord
  2
0
 70
     0
 62
     7
  6
CONTINUOUS
370
    -3
390
F
  0
LAYER
  5
29
330
2
100
AcDbSymbolTableRecord
100
AcDbLayerTableRecord
  2
DEFPOINTS
 70
     0
 62
     7
  6
CONTINUOUS
290
     0
370
    -3
390
F
  0
ENDTAB
  0
TABLE
  2
STYLE
  5
3
330
0
100
AcDbSymbolTable
 70
     4
  0
STYLE
  5
11
330
3
100
AcDbSymbolTableRecord
100
AcDbTextStyleTableRecord
  2
STANDARD
 70
     0
 40
0.0
 41
1.0
 50
0.0
 71
     0
 42
0.2
  3
txt
  4
BIGFONT
  0
STYLE
  5
464
330
3
100
AcDbSymbolTableRecord
100
AcDbTextStyleTableRecord
  2

 70
     1
 40
0.0
 41
1.0
 50
0.0
 71
     0
 42
3.2
  3
ltypeshp.shx
  4

  0
STYLE
  5
469
330
3
100
AcDbSymbolTableRecord
100
AcDbTextStyleTableRecord
  2
ACANSTS
 70
     0
 40
1.0
 41
1.0
 50
0.0
 71
     0
 42
3.2
  3
romans.shx
  4
extfont.shx
  0
STYLE
  5
475
330
3
100
AcDbSymbolTableRecord
100
AcDbTextStyleTableRecord
  2
ACANSGDT
 70
     0
 40
0.0
 41
1.0
 50
0.0
 71
     0
 42
3.2
  3
amgdtans.shx
  4

  0
ENDTAB
  0
TABLE
  2
VIEW
  5
6
330
0
100
AcDbSymbolTable
 70
     0
  0
ENDTAB
  0
TABLE
  2
UCS
  5
7
330
0
100
AcDbSymbolTable
 70
     0
  0
ENDTAB
  0
TABLE
  2
APPID
  5
9
330
0
100
AcDbSymbolTable
 70
     9
  0
APPID
  5
12
330
9
100
AcDbSymbolTableRecord
100
AcDbRegAppTableRecord
  2
ACAD
 70
     0
  0
APPID
  5
3FC
330
9
100
AcDbSymbolTableRecord
100
AcDbRegAppTableRecord
  2
MCAD_NO_VIS
 70
     0
  0
APPID
  5
3FD
330
9
100
AcDbSymbolTableRecord
100
AcDbRegAppTableRecord
  2
ACAD_TEMP_GRAPHIC
 70
     0
  0
APPID
  5
42B
330
9
100
AcDbSymbolTableRecord
100
AcDbRegAppTableRecord
  2
AD_DRAW
 70
     0
  0
APPID
  5
42E
330
9
100
AcDbSymbolTableRecord
100
AcDbRegAppTableRecord
  2
ACATTRIBSERVICES
 70
     0
  0
APPID
  5
44C
330
9
100
AcDbSymbolTableRecord
100
AcDbRegAppTableRecord
  2
DESIGNERASSEMBLIES
 70
     0
  0
APPID
  5
452
330
9
100
AcDbSymbolTableRecord
100
AcDbRegAppTableRecord
  2
ACADM_DIM_EDIT
 70
     0
  0
APPID
  5
453
330
9
100
AcDbSymbolTableRecord
100
AcDbRegAppTableRecord
  2
AMDT_DM_ADJ
 70
     0
  0
APPID
  5
526
330
9
100
AcDbSymbolTableRecord
100
AcDbRegAppTableRecord
  2
GENIUS_GENDTOL_13
 70
     0
  0
ENDTAB
  0
TABLE
  2
DIMSTYLE
  5
A
330
0
100
AcDbSymbolTable
 70
     7
100
AcDbDimStyleTable
 71
     0
  0
DIMSTYLE
105
2A
102
{ACAD_REACTORS
330
3CE
330
3CF
330
3D0
330
3D1
330
3D2
330
3D3
330
3D4
330
3D5
330
3D6
330
3D7
330
3D8
330
3D9
330
3DA
330
3DB
330
3DC
330
3DD
330
3DE
330
3DF
330
3E0
330
3E1
330
3E2
330
3E3
330
3E4
330
3E5
330
3E6
330
3E7
330
3E8
330
3E9
330
3EA
330
3EB
330
3EC
330
3ED
330
3EE
330
3EF
330
3F0
330
3F1
330
3F2
330
3F3
330
3F5
102
}
330
A
100
AcDbSymbolTableRecord
100
AcDbDimStyleTableRecord
  2
DIMSTYLE
 70
     0
 41
1.0
 42
2.54
 44
2.54
 73
     0
 74
     0
140
3.2
147
1.6
173
     1
279
     2
340
11
  0
DIMSTYLE
105
481
330
A
100
AcDbSymbolTableRecord
100
AcDbDimStyleTableRecord
  2
AM_ANSI
 70
     0
  4
mm
 41
0.1
 42
0.05
 43
0.5
 44
0.1
 47
0.1
 48
0.1
 78
     7
 79
     2
140
0.12
141
0.0
146
0.71
147
0.06
176
   256
177
   256
178
     2
274
     4
284
     7
340
11
371
    -1
372
    -1
  0
DIMSTYLE
105
482
330
A
100
AcDbSymbolTableRecord
100
AcDbDimStyleTableRecord
  2
AM_ANSI$3
 70
     0
  4
mm
 41
0.1
 42
0.05
 43
0.5
 44
0.1
 47
0.1
 48
0.1
 78
     7
 79
     2
140
0.12
141
0.0
146
0.71
147
0.06
176
   256
177
   256
178
     2
274
     4
284
     7
288
     1
289
     0
340
11
371
    -1
372
    -1
  0
DIMSTYLE
105
483
330
A
100
AcDbSymbolTableRecord
100
AcDbDimStyleTableRecord
  2
AM_ANSI$4
 70
     0
  4
mm
 41
0.1
 42
0.05
 43
0.5
 44
0.1
 47
0.1
 48
0.1
 78
     7
 79
     2
140
0.12
141
0.0
146
0.71
147
0.06
176
   256
177
   256
178
     2
274
     4
284
     7
288
     1
289
     0
340
11
371
    -1
372
    -1
  0
DIMSTYLE
105
484
330
A
100
AcDbSymbolTableRecord
100
AcDbDimStyleTableRecord
  2
AM_ANSI$7
 70
     0
  4
mm
 41
0.1
 42
0.05
 43
0.5
 44
0.1
 47
0.1
 48
0.1
 78
     7
 79
     2
140
0.24
141
0.0
146
0.71
147
0.06
176
   256
177
   256
178
     2
274
     4
284
     7
340
11
371
    -1
372
    -1
  0
DIMSTYLE
105
485
330
A
100
AcDbSymbolTableRecord
100
AcDbDimStyleTableRecord
  2
AM_ANSI$SF
 70
     0
  4
mm
 41
0.1
 42
0.05
 43
0.5
 44
0.1
 47
0.1
 48
0.1
 75
     1
 76
     1
 78
     7
 79
     2
140
0.12
141
0.0
146
0.71
147
0.06
176
   256
177
   256
178
     2
274
     4
284
     7
340
11
371
    -1
372
    -1
  0
DIMSTYLE
105
48A
330
A
100
AcDbSymbolTableRecord
100
AcDbDimStyleTableRecord
  2
AM_ANSI$SH
 70
     0
  4
mm
 41
0.1
 42
0.05
 43
0.5
 44
0.1
 47
0.1
 48
0.1
 75
     1
 76
     1
 78
     7
 79
     2
140
0.12
141
0.0
146
0.71
147
0.06
173
     1
176
   256
177
   256
178
     2
274
     4
284
     7
340
11
341
486
343
486
371
    -1
372
    -1
  0
ENDTAB
  0
TABLE
  2
BLOCK_RECORD
  5
1
330
0
100
AcDbSymbolTable
 70
    45
  0
BLOCK_RECORD
  5
20
102
{ACAD_XDICTIONARY
360
495
102
}
330
1
100
AcDbSymbolTableRecord
100
AcDbBlockTableRecord
  2
*Model_Space
340
23
  0
BLOCK_RECORD
  5
1C
330
1
100
AcDbSymbolTableRecord
100
AcDbBlockTableRecord
  2
*Paper_Space
340
1F
  0
BLOCK_RECORD
  5
2E
330
1
100
AcDbSymbolTableRecord
100
AcDbBlockTableRecord
  2
_DOT
340
0
102
{BLKREFS
331
39
331
3A
331
45
331
46
331
50
331
51
331
5B
331
5C
331
67
331
68
331
73
331
74
331
7F
331
80
331
8A
331
8B
331
95
331
96
331
A0
331
A1
331
AB
331
AC
331
B7
331
B8
331
C4
331
C5
331
CF
331
D0
331
DA
331
DB
331
E6
331
E7
331
F2
331
F3
331
FE
331
FF
331
109
331
10A
331
115
331
116
331
120
331
121
331
12B
331
12C
331
137
331
138
331
142
331
143
331
14E
331
14F
331
159
331
15A
331
164
331
165
331
16F
331
170
331
17A
331
17B
331
185
331
186
331
192
331
193
331
19D
331
19E
331
1A9
331
1AA
331
1B5
331
1B6
331
1C0
331
1C1
331
1CB
331
1CC
331
1D5
331
1D6
331
1E1
331
1E2
331
1EC
331
1ED
102
}
  0
BLOCK_RECORD
  5
36
330
1
100
AcDbSymbolTableRecord
100
AcDbBlockTableRecord
  2
*D1
340
0
  0
BLOCK_RECORD
  5
41
330
1
100
AcDbSymbolTableRecord
100
AcDbBlockTableRecord
  2
*D2
340
0
  0
BLOCK_RECORD
  5
4D
330
1
100
AcDbSymbolTableRecord
100
AcDbBlockTableRecord
  2
*D3
340
0
  0
BLOCK_RECORD
  5
58
330
1
100
AcDbSymbolTableRecord
100
AcDbBlockTableRecord
  2
*D4
340
0
  0
BLOCK_RECORD
  5
64
330
1
100
AcDbSymbolTableRecord
100
AcDbBlockTableRecord
  2
*D5
340
0
  0
BLOCK_RECORD
  5
70
330
1
100
AcDbSymbolTableRecord
100
AcDbBlockTableRecord
  2
*D6
340
0
  0
BLOCK_RECORD
  5
7C
330
1
100
AcDbSymbolTableRecord
100
AcDbBlockTableRecord
  2
*D7
340
0
  0
BLOCK_RECORD
  5
87
330
1
100
AcDbSymbolTableRecord
100
AcDbBlockTableRecord
  2
*D8
340
0
  0
BLOCK_RECORD
  5
92
330
1
100
AcDbSymbolTableRecord
100
AcDbBlockTableRecord
  2
*D9
340
0
  0
BLOCK_RECORD
  5
9D
330
1
100
AcDbSymbolTableRecord
100
AcDbBlockTableRecord
  2
*D10
340
0
  0
BLOCK_RECORD
  5
A8
330
1
100
AcDbSymbolTableRecord
100
AcDbBlockTableRecord
  2
*D11
340
0
  0
BLOCK_RECORD
  5
B4
330
1
100
AcDbSymbolTableRecord
100
AcDbBlockTableRecord
  2
*D12
340
0
  0
BLOCK_RECORD
  5
C0
330
1
100
AcDbSymbolTableRecord
100
AcDbBlockTableRecord
  2
*D13
340
0
  0
BLOCK_RECORD
  5
CB
330
1
100
AcDbSymbolTableRecord
100
AcDbBlockTableRecord
  2
*D14
340
0
  0
BLOCK_RECORD
  5
D6
330
1
100
AcDbSymbolTableRecord
100
AcDbBlockTableRecord
  2
*D15
340
0
  0
BLOCK_RECORD
  5
E3
330
1
100
AcDbSymbolTableRecord
100
AcDbBlockTableRecord
  2
*D16
340
0
  0
BLOCK_RECORD
  5
EF
330
1
100
AcDbSymbolTableRecord
100
AcDbBlockTableRecord
  2
*D17
340
0
  0
BLOCK_RECORD
  5
FB
330
1
100
AcDbSymbolTableRecord
100
AcDbBlockTableRecord
  2
*D18
340
0
  0
BLOCK_RECORD
  5
106
330
1
100
AcDbSymbolTableRecord
100
AcDbBlockTableRecord
  2
*D19
340
0
  0
BLOCK_RECORD
  5
112
330
1
100
AcDbSymbolTableRecord
100
AcDbBlockTableRecord
  2
*D20
340
0
  0
BLOCK_RECORD
  5
11D
330
1
100
AcDbSymbolTableRecord
100
AcDbBlockTableRecord
  2
*D21
340
0
  0
BLOCK_RECORD
  5
128
330
1
100
AcDbSymbolTableRecord
100
AcDbBlockTableRecord
  2
*D22
340
0
  0
BLOCK_RECORD
  5
134
330
1
100
AcDbSymbolTableRecord
100
AcDbBlockTableRecord
  2
*D23
340
0
  0
BLOCK_RECORD
  5
13F
330
1
100
AcDbSymbolTableRecord
100
AcDbBlockTableRecord
  2
*D24
340
0
  0
BLOCK_RECORD
  5
14B
330
1
100
AcDbSymbolTableRecord
100
AcDbBlockTableRecord
  2
*D25
340
0
  0
BLOCK_RECORD
  5
156
330
1
100
AcDbSymbolTableRecord
100
AcDbBlockTableRecord
  2
*D26
340
0
  0
BLOCK_RECORD
  5
161
330
1
100
AcDbSymbolTableRecord
100
AcDbBlockTableRecord
  2
*D27
340
0
  0
BLOCK_RECORD
  5
16C
330
1
100
AcDbSymbolTableRecord
100
AcDbBlockTableRecord
  2
*D28
340
0
  0
BLOCK_RECORD
  5
177
330
1
100
AcDbSymbolTableRecord
100
AcDbBlockTableRecord
  2
*D29
340
0
  0
BLOCK_RECORD
  5
182
330
1
100
AcDbSymbolTableRecord
100
AcDbBlockTableRecord
  2
*D30
340
0
  0
BLOCK_RECORD
  5
18E
330
1
100
AcDbSymbolTableRecord
100
AcDbBlockTableRecord
  2
*D31
340
0
  0
BLOCK_RECORD
  5
19A
330
1
100
AcDbSymbolTableRecord
100
AcDbBlockTableRecord
  2
*D32
340
0
  0
BLOCK_RECORD
  5
1A6
330
1
100
AcDbSymbolTableRecord
100
AcDbBlockTableRecord
  2
*D33
340
0
  0
BLOCK_RECORD
  5
1B2
330
1
100
AcDbSymbolTableRecord
100
AcDbBlockTableRecord
  2
*D34
340
0
  0
BLOCK_RECORD
  5
1BD
330
1
100
AcDbSymbolTableRecord
100
AcDbBlockTableRecord
  2
*D35
340
0
  0
BLOCK_RECORD
  5
1C8
330
1
100
AcDbSymbolTableRecord
100
AcDbBlockTableRecord
  2
*D36
340
0
  0
BLOCK_RECORD
  5
1D2
330
1
100
AcDbSymbolTableRecord
100
AcDbBlockTableRecord
  2
*D37
340
0
  0
BLOCK_RECORD
  5
1DD
330
1
100
AcDbSymbolTableRecord
100
AcDbBlockTableRecord
  2
*D38
340
0
  0
BLOCK_RECORD
  5
1E9
330
1
100
AcDbSymbolTableRecord
100
AcDbBlockTableRecord
  2
*D39
340
0
  0
BLOCK_RECORD
  5
1F5
330
1
100
AcDbSymbolTableRecord
100
AcDbBlockTableRecord
  2
KOZU0001
340
0
102
{BLKREFS
331
3F4
102
}
  0
BLOCK_RECORD
  5
486
330
1
100
AcDbSymbolTableRecord
100
AcDbBlockTableRecord
  2
GENAXEH
340
0
  0
BLOCK_RECORD
  5
4E3
330
1
100
AcDbSymbolTableRecord
100
AcDbBlockTableRecord
  2
*D42
340
0
  0
BLOCK_RECORD
  5
530
330
1
100
AcDbSymbolTableRecord
100
AcDbBlockTableRecord
  2
*D43
340
0
  0
BLOCK_RECORD
  5
54B
330
1
100
AcDbSymbolTableRecord
100
AcDbBlockTableRecord
  2
*D44
340
0
  0
ENDTAB
  0
ENDSEC
  0
SECTION
  2
BLOCKS
  0
BLOCK
  5
21
330
20
100
AcDbEntity
  8
0
100
AcDbBlockBegin
  2
*Model_Space
 70
     0
 10
0.0
 20
0.0
 30
0.0
  3
*Model_Space
  1

  0
ENDBLK
  5
22
330
20
100
AcDbEntity
  8
0
100
AcDbBlockEnd
  0
BLOCK
  5
1D
330
1C
100
AcDbEntity
 67
     1
  8
0
100
AcDbBlockBegin
  2
*Paper_Space
 70
     0
 10
0.0
 20
0.0
 30
0.0
  3
*Paper_Space
  1

  0
ENDBLK
  5
1E
330
1C
100
AcDbEntity
 67
     1
  8
0
100
AcDbBlockEnd
  0
BLOCK
  5
2F
330
2E
100
AcDbEntity
  8
0
100
AcDbBlockBegin
  2
_DOT
 70
     0
 10
0.0
 20
0.0
 30
0.0
  3
_DOT
  1

  0
POLYLINE
  5
30
330
2E
100
AcDbEntity
  8
0
  6
ByBlock
 62
     0
100
AcDb2dPolyline
 66
     1
 10
0.0
 20
0.0
 30
0.0
 70
     1
 40
0.4000000100000002
 41
0.4000000100000002
  0
VERTEX
  5
31
330
30
100
AcDbEntity
  8
0
  6
ByBlock
 62
     0
100
AcDbVertex
100
AcDb2dVertex
 10
-0.2
 20
0.0
 30
0.0
 42
1.0
  0
VERTEX
  5
32
330
30
100
AcDbEntity
  8
0
  6
ByBlock
 62
     0
100
AcDbVertex
100
AcDb2dVertex
 10
0.2
 20
0.0
 30
0.0
 42
1.0
  0
SEQEND
  5
33
330
30
100
AcDbEntity
  8
0
  6
ByBlock
 62
     0
  0
LINE
  5
34
330
2E
100
AcDbEntity
  8
0
  6
ByBlock
 62
     0
100
AcDbLine
 10
-0.4000000100000002
 20
0.0
 30
0.0
 11
-3.0
 21
0.0
 31
0.0
  0
ENDBLK
  5
35
330
2E
100
AcDbEntity
  8
0
100
AcDbBlockEnd
  0
BLOCK
  5
37
330
36
100
AcDbEntity
  8
0
100
AcDbBlockBegin
  2
*D1
 70
     1
 10
0.0
 20
0.0
 30
0.0
  3
*D1
  1

  0
LINE
  5
38
330
36
100
AcDbEntity
  8
0
  6
Continuous
 62
     7
100
AcDbLine
 10
-164.94775
 20
17.679104
 30
0.0
 11
-164.94775
 21
18.679104
 31
0.0
  0
INSERT
  5
39
330
36
100
AcDbEntity
  8
0
  6
Continuous
 62
     7
100
AcDbBlockReference
  2
_DOT
 10
-164.94775
 20
17.679104
 30
0.0
 50
270.0
  0
INSERT
  5
3A
330
36
100
AcDbEntity
  8
0
  6
Continuous
 62
     7
100
AcDbBlockReference
  2
_DOT
 10
-164.94775
 20
18.679104
 30
0.0
 50
90.0
  0
LINE
  5
3B
330
36
100
AcDbEntity
  8
0
  6
Continuous
 62
     7
100
AcDbLine
 10
-157.48775
 20
17.679104
 30
0.0
 11
-166.14777
 21
17.679104
 31
0.0
  0
TEXT
  5
3C
330
36
100
AcDbEntity
  8
0
  6
Continuous
 62
     7
100
AcDbText
 10
-165.7477499999999
 20
17.036104
 30
0.0
 40
3.2
  1
1
 50
90.00000300000001
 41
0.6666666700000003
100
AcDbText
  0
POINT
  5
3D
330
36
100
AcDbEntity
  8
DEFPOINTS
  6
Continuous
 62
     7
100
AcDbPoint
 10
-154.94775
 20
17.679104
 30
0.0
  0
POINT
  5
3E
330
36
100
AcDbEntity
  8
DEFPOINTS
  6
Continuous
 62
     7
100
AcDbPoint
 10
-136.94775
 20
18.679104
 30
0.0
  0
POINT
  5
3F
330
36
100
AcDbEntity
  8
DEFPOINTS
  6
Continuous
 62
     7
100
AcDbPoint
 10
-164.94775
 20
18.679104
 30
0.0
  0
ENDBLK
  5
40
330
36
100
AcDbEntity
  8
0
100
AcDbBlockEnd
  0
BLOCK
  5
42
330
41
100
AcDbEntity
  8
0
100
AcDbBlockBegin
  2
*D2
 70
     1
 10
0.0
 20
0.0
 30
0.0
  3
*D2
  1

  0
LINE
  5
43
330
41
100
AcDbEntity
  8
0
  6
Continuous
 62
     7
100
AcDbLine
 10
-164.94775
 20
1.679104399999999
 30
0.0
 11
-164.94775
 21
-11.223458
 31
0.0
  0
LINE
  5
44
330
41
100
AcDbEntity
  8
0
  6
Continuous
 62
     7
100
AcDbLine
 10
-164.94775
 20
8.179104799999999
 30
0.0
 11
-164.94775
 21
1.679104399999999
 31
0.0
  0
INSERT
  5
45
330
41
100
AcDbEntity
  8
0
  6
Continuous
 62
     7
100
AcDbBlockReference
  2
_DOT
 10
-164.94775
 20
8.179104799999999
 30
0.0
 50
90.0
  0
INSERT
  5
46
330
41
100
AcDbEntity
  8
0
  6
Continuous
 62
     7
100
AcDbBlockReference
  2
_DOT
 10
-164.94775
 20
1.679104399999999
 30
0.0
 50
270.0
  0
LINE
  5
47
330
41
100
AcDbEntity
  8
0
  6
Continuous
 62
     7
100
AcDbLine
 10
-157.48775
 20
1.679104399999999
 30
0.0
 11
-166.14775
 21
1.679104399999999
 31
0.0
  0
TEXT
  5
48
330
41
100
AcDbEntity
  8
0
  6
Continuous
 62
     7
100
AcDbText
 10
-165.7477499999999
 20
-11.54345799999999
 30
0.0
 40
3.2
  1
6.5
 50
90.00000300000001
 41
1.357187499999999
100
AcDbText
  0
POINT
  5
49
330
41
100
AcDbEntity
  8
DEFPOINTS
  6
Continuous
 62
     7
100
AcDbPoint
 10
-154.07947
 20
8.179104799999999
 30
0.0
  0
POINT
  5
4A
330
41
100
AcDbEntity
  8
DEFPOINTS
  6
Continuous
 62
     7
100
AcDbPoint
 10
-154.94775
 20
1.679104399999999
 30
0.0
  0
POINT
  5
4B
330
41
100
AcDbEntity
  8
DEFPOINTS
  6
Continuous
 62
     7
100
AcDbPoint
 10
-164.94775
 20
1.679104399999999
 30
0.0
  0
ENDBLK
  5
4C
330
41
100
AcDbEntity
  8
0
100
AcDbBlockEnd
  0
BLOCK
  5
4E
330
4D
100
AcDbEntity
  8
0
100
AcDbBlockBegin
  2
*D3
 70
     1
 10
0.0
 20
0.0
 30
0.0
  3
*D3
  1

  0
LINE
  5
4F
330
4D
100
AcDbEntity
  8
0
  6
Continuous
 62
     7
100
AcDbLine
 10
-225.94775
 20
1.679104399999999
 30
0.0
 11
-225.94775
 21
32.17910399999999
 31
0.0
  0
INSERT
  5
50
330
4D
100
AcDbEntity
  8
0
  6
Continuous
 62
     7
100
AcDbBlockReference
  2
_DOT
 10
-225.94775
 20
1.679104399999999
 30
0.0
 50
270.0
  0
INSERT
  5
51
330
4D
100
AcDbEntity
  8
0
  6
Continuous
 62
     7
100
AcDbBlockReference
  2
_DOT
 10
-225.94775
 20
32.17910399999999
 30
0.0
 50
90.0
  0
LINE
  5
52
330
4D
100
AcDbEntity
  8
0
  6
Continuous
 62
     7
100
AcDbLine
 10
-157.48775
 20
1.679104399999999
 30
0.0
 11
-227.14777
 21
1.679104399999999
 31
0.0
  0
TEXT
  5
53
330
4D
100
AcDbEntity
  8
0
  6
Continuous
 62
     7
100
AcDbText
 10
-226.74775
 20
10.98610399999998
 30
0.0
 40
3.2
  1
30.5
 50
90.00000300000001
 41
1.310955899999999
100
AcDbText
  0
POINT
  5
54
330
4D
100
AcDbEntity
  8
DEFPOINTS
  6
Continuous
 62
     7
100
AcDbPoint
 10
-154.94775
 20
1.679104399999999
 30
0.0
  0
POINT
  5
55
330
4D
100
AcDbEntity
  8
DEFPOINTS
  6
Continuous
 62
     7
100
AcDbPoint
 10
-205.94775
 20
32.17910399999999
 30
0.0
  0
POINT
  5
56
330
4D
100
AcDbEntity
  8
DEFPOINTS
  6
Continuous
 62
     7
100
AcDbPoint
 10
-225.94775
 20
32.17910399999999
 30
0.0
  0
ENDBLK
  5
57
330
4D
100
AcDbEntity
  8
0
100
AcDbBlockEnd
  0
BLOCK
  5
59
330
58
100
AcDbEntity
  8
0
100
AcDbBlockBegin
  2
*D4
 70
     1
 10
0.0
 20
0.0
 30
0.0
  3
*D4
  1

  0
LINE
  5
5A
330
58
100
AcDbEntity
  8
0
  6
Continuous
 62
     7
100
AcDbLine
 10
-302.94775
 20
-42.505009
 30
0.0
 11
-282.9477499999999
 21
-42.505009
 31
0.0
  0
INSERT
  5
5B
330
58
100
AcDbEntity
  8
0
  6
Continuous
 62
     7
100
AcDbBlockReference
  2
_DOT
 10
-302.94775
 20
-42.505009
 30
0.0
 50
180.0
  0
INSERT
  5
5C
330
58
100
AcDbEntity
  8
0
  6
Continuous
 62
     7
100
AcDbBlockReference
  2
_DOT
 10
-282.9477499999999
 20
-42.505009
 30
0.0
  0
LINE
  5
5D
330
58
100
AcDbEntity
  8
0
  6
Continuous
 62
     7
100
AcDbLine
 10
-302.94775
 20
-30.045009
 30
0.0
 11
-302.94775
 21
-43.705009
 31
0.0
  0
LINE
  5
5E
330
58
100
AcDbEntity
  8
0
  6
Continuous
 62
     7
100
AcDbLine
 10
-282.9477499999999
 20
2.7330985
 30
0.0
 11
-282.9477499999999
 21
-43.705009
 31
0.0
  0
TEXT
  5
5F
330
58
100
AcDbEntity
  8
0
  6
Continuous
 62
     7
100
AcDbText
 10
-295.6907499999998
 20
-41.705009
 30
0.0
 40
3.2
  1
20
 41
1.102098199999999
100
AcDbText
  0
POINT
  5
60
330
58
100
AcDbEntity
  8
DEFPOINTS
  6
Continuous
 62
     7
100
AcDbPoint
 10
-302.94775
 20
-27.505009
 30
0.0
  0
POINT
  5
61
330
58
100
AcDbEntity
  8
DEFPOINTS
  6
Continuous
 62
     7
100
AcDbPoint
 10
-282.9477499999999
 20
5.273098499999997
 30
0.0
  0
POINT
  5
62
330
58
100
AcDbEntity
  8
DEFPOINTS
  6
Continuous
 62
     7
100
AcDbPoint
 10
-282.9477499999999
 20
-42.505009
 30
0.0
  0
ENDBLK
  5
63
330
58
100
AcDbEntity
  8
0
100
AcDbBlockEnd
  0
BLOCK
  5
65
330
64
100
AcDbEntity
  8
0
100
AcDbBlockBegin
  2
*D5
 70
     1
 10
0.0
 20
0.0
 30
0.0
  3
*D5
  1

  0
LINE
  5
66
330
64
100
AcDbEntity
  8
0
  6
Continuous
 62
     7
100
AcDbLine
 10
-307.9477499999998
 20
94.679108
 30
0.0
 11
-282.9477499999999
 21
94.679108
 31
0.0
  0
INSERT
  5
67
330
64
100
AcDbEntity
  8
0
  6
Continuous
 62
     7
100
AcDbBlockReference
  2
_DOT
 10
-307.9477499999998
 20
94.679108
 30
0.0
 50
180.0
  0
INSERT
  5
68
330
64
100
AcDbEntity
  8
0
  6
Continuous
 62
     7
100
AcDbBlockReference
  2
_DOT
 10
-282.9477499999999
 20
94.679108
 30
0.0
  0
LINE
  5
69
330
64
100
AcDbEntity
  8
0
  6
Continuous
 62
     7
100
AcDbLine
 10
-307.9477499999998
 20
87.21910799999998
 30
0.0
 11
-307.9477499999998
 21
95.87910499999999
 31
0.0
  0
LINE
  5
6A
330
64
100
AcDbEntity
  8
0
  6
Continuous
 62
     7
100
AcDbLine
 10
-282.9477499999999
 20
83.00411099999998
 30
0.0
 11
-282.9477499999999
 21
95.87910499999999
 31
0.0
  0
TEXT
  5
6B
330
64
100
AcDbEntity
  8
0
  6
Continuous
 62
     7
100
AcDbText
 10
-301.39075
 20
95.479108
 30
0.0
 40
3.2
  1
A=25
 41
1.013011399999999
100
AcDbText
  0
POINT
  5
6C
330
64
100
AcDbEntity
  8
DEFPOINTS
  6
Continuous
 62
     7
100
AcDbPoint
 10
-307.9477499999998
 20
84.679108
 30
0.0
  0
POINT
  5
6D
330
64
100
AcDbEntity
  8
DEFPOINTS
  6
Continuous
 62
     7
100
AcDbPoint
 10
-282.9477499999999
 20
80.464111
 30
0.0
  0
POINT
  5
6E
330
64
100
AcDbEntity
  8
DEFPOINTS
  6
Continuous
 62
     7
100
AcDbPoint
 10
-282.9477499999999
 20
94.679108
 30
0.0
  0
ENDBLK
  5
6F
330
64
100
AcDbEntity
  8
0
100
AcDbBlockEnd
  0
BLOCK
  5
71
330
70
100
AcDbEntity
  8
0
100
AcDbBlockBegin
  2
*D6
 70
     1
 10
0.0
 20
0.0
 30
0.0
  3
*D6
  1

  0
LINE
  5
72
330
70
100
AcDbEntity
  8
0
  6
Continuous
 62
     7
100
AcDbLine
 10
-148.94775
 20
-13.320895
 30
0.0
 11
-154.94775
 21
-13.320895
 31
0.0
  0
INSERT
  5
73
330
70
100
AcDbEntity
  8
0
  6
Continuous
 62
     7
100
AcDbBlockReference
  2
_DOT
 10
-148.94775
 20
-13.320895
 30
0.0
  0
INSERT
  5
74
330
70
100
AcDbEntity
  8
0
  6
Continuous
 62
     7
100
AcDbBlockReference
  2
_DOT
 10
-154.94775
 20
-13.320895
 30
0.0
 50
180.0
  0
LINE
  5
75
330
70
100
AcDbEntity
  8
0
  6
Continuous
 62
     7
100
AcDbLine
 10
-148.94775
 20
-1.856134699999999
 30
0.0
 11
-148.94775
 21
-14.52089599999998
 31
0.0
  0
LINE
  5
76
330
70
100
AcDbEntity
  8
0
  6
Continuous
 62
     7
100
AcDbLine
 10
-154.94775
 20
-0.8608954800000001
 30
0.0
 11
-154.94775
 21
-14.52089599999998
 31
0.0
  0
TEXT
  5
77
330
70
100
AcDbEntity
  8
0
  6
Continuous
 62
     7
100
AcDbText
 10
-153.09075
 20
-12.520895
 30
0.0
 40
3.2
  1
6
100
AcDbText
  0
POINT
  5
78
330
70
100
AcDbEntity
  8
DEFPOINTS
  6
Continuous
 62
     7
100
AcDbPoint
 10
-148.94775
 20
0.6838652500000002
 30
0.0
  0
POINT
  5
79
330
70
100
AcDbEntity
  8
DEFPOINTS
  6
Continuous
 62
     7
100
AcDbPoint
 10
-154.94775
 20
1.679104399999999
 30
0.0
  0
POINT
  5
7A
330
70
100
AcDbEntity
  8
DEFPOINTS
  6
Continuous
 62
     7
100
AcDbPoint
 10
-154.94775
 20
-13.320895
 30
0.0
  0
ENDBLK
  5
7B
330
70
100
AcDbEntity
  8
0
100
AcDbBlockEnd
  0
BLOCK
  5
7D
330
7C
100
AcDbEntity
  8
0
100
AcDbBlockBegin
  2
*D7
 70
     1
 10
0.0
 20
0.0
 30
0.0
  3
*D7
  1

  0
LINE
  5
7E
330
7C
100
AcDbEntity
  8
0
  6
Continuous
 62
     7
100
AcDbLine
 10
-148.94775
 20
-13.320895
 30
0.0
 11
-138.94775
 21
-13.320895
 31
0.0
  0
INSERT
  5
7F
330
7C
100
AcDbEntity
  8
0
  6
Continuous
 62
     7
100
AcDbBlockReference
  2
_DOT
 10
-148.94775
 20
-13.320895
 30
0.0
 50
180.0
  0
INSERT
  5
80
330
7C
100
AcDbEntity
  8
0
  6
Continuous
 62
     7
100
AcDbBlockReference
  2
_DOT
 10
-138.94775
 20
-13.320895
 30
0.0
  0
LINE
  5
81
330
7C
100
AcDbEntity
  8
0
  6
Continuous
 62
     7
100
AcDbLine
 10
-138.94775
 20
-1.856134699999999
 30
0.0
 11
-138.94775
 21
-14.52089599999998
 31
0.0
  0
TEXT
  5
82
330
7C
100
AcDbEntity
  8
0
  6
Continuous
 62
     7
100
AcDbText
 10
-146.69075
 20
-12.520895
 30
0.0
 40
3.2
  1
10
 41
1.402670399999999
100
AcDbText
  0
POINT
  5
83
330
7C
100
AcDbEntity
  8
DEFPOINTS
  6
Continuous
 62
     7
100
AcDbPoint
 10
-148.94775
 20
0.6838652500000002
 30
0.0
  0
POINT
  5
84
330
7C
100
AcDbEntity
  8
DEFPOINTS
  6
Continuous
 62
     7
100
AcDbPoint
 10
-138.94775
 20
0.6838652500000002
 30
0.0
  0
POINT
  5
85
330
7C
100
AcDbEntity
  8
DEFPOINTS
  6
Continuous
 62
     7
100
AcDbPoint
 10
-138.94775
 20
-13.320895
 30
0.0
  0
ENDBLK
  5
86
330
7C
100
AcDbEntity
  8
0
100
AcDbBlockEnd
  0
BLOCK
  5
88
330
87
100
AcDbEntity
  8
0
100
AcDbBlockBegin
  2
*D8
 70
     1
 10
0.0
 20
0.0
 30
0.0
  3
*D8
  1

  0
LINE
  5
89
330
87
100
AcDbEntity
  8
0
  6
Continuous
 62
     7
100
AcDbLine
 10
-138.94775
 20
-13.320895
 30
0.0
 11
-108.94776
 21
-13.320895
 31
0.0
  0
INSERT
  5
8A
330
87
100
AcDbEntity
  8
0
  6
Continuous
 62
     7
100
AcDbBlockReference
  2
_DOT
 10
-138.94775
 20
-13.320895
 30
0.0
 50
180.0
  0
INSERT
  5
8B
330
87
100
AcDbEntity
  8
0
  6
Continuous
 62
     7
100
AcDbBlockReference
  2
_DOT
 10
-108.94776
 20
-13.320895
 30
0.0
  0
LINE
  5
8C
330
87
100
AcDbEntity
  8
0
  6
Continuous
 62
     7
100
AcDbLine
 10
-108.94776
 20
-1.856134699999999
 30
0.0
 11
-108.94776
 21
-14.52089599999998
 31
0.0
  0
TEXT
  5
8D
330
87
100
AcDbEntity
  8
0
  6
Continuous
 62
     7
100
AcDbText
 10
-126.69075
 20
-12.520895
 30
0.0
 40
3.2
  1
30
 41
1.102098199999999
100
AcDbText
  0
POINT
  5
8E
330
87
100
AcDbEntity
  8
DEFPOINTS
  6
Continuous
 62
     7
100
AcDbPoint
 10
-138.94775
 20
0.6838652500000002
 30
0.0
  0
POINT
  5
8F
330
87
100
AcDbEntity
  8
DEFPOINTS
  6
Continuous
 62
     7
100
AcDbPoint
 10
-108.94776
 20
0.6838652500000002
 30
0.0
  0
POINT
  5
90
330
87
100
AcDbEntity
  8
DEFPOINTS
  6
Continuous
 62
     7
100
AcDbPoint
 10
-108.94776
 20
-13.320895
 30
0.0
  0
ENDBLK
  5
91
330
87
100
AcDbEntity
  8
0
100
AcDbBlockEnd
  0
BLOCK
  5
93
330
92
100
AcDbEntity
  8
0
100
AcDbBlockBegin
  2
*D9
 70
     1
 10
0.0
 20
0.0
 30
0.0
  3
*D9
  1

  0
LINE
  5
94
330
92
100
AcDbEntity
  8
0
  6
Continuous
 62
     7
100
AcDbLine
 10
-108.94776
 20
-13.320895
 30
0.0
 11
-98.947762
 21
-13.320895
 31
0.0
  0
INSERT
  5
95
330
92
100
AcDbEntity
  8
0
  6
Continuous
 62
     7
100
AcDbBlockReference
  2
_DOT
 10
-108.94776
 20
-13.320895
 30
0.0
 50
180.0
  0
INSERT
  5
96
330
92
100
AcDbEntity
  8
0
  6
Continuous
 62
     7
100
AcDbBlockReference
  2
_DOT
 10
-98.947762
 20
-13.320895
 30
0.0
  0
LINE
  5
97
330
92
100
AcDbEntity
  8
0
  6
Continuous
 62
     7
100
AcDbLine
 10
-98.947762
 20
-1.856134699999999
 30
0.0
 11
-98.947762
 21
-14.52089599999998
 31
0.0
  0
TEXT
  5
98
330
92
100
AcDbEntity
  8
0
  6
Continuous
 62
     7
100
AcDbText
 10
-106.69076
 20
-12.520895
 30
0.0
 40
3.2
  1
10
 41
1.402670399999999
100
AcDbText
  0
POINT
  5
99
330
92
100
AcDbEntity
  8
DEFPOINTS
  6
Continuous
 62
     7
100
AcDbPoint
 10
-108.94776
 20
0.6838652500000002
 30
0.0
  0
POINT
  5
9A
330
92
100
AcDbEntity
  8
DEFPOINTS
  6
Continuous
 62
     7
100
AcDbPoint
 10
-98.947762
 20
0.6838652500000002
 30
0.0
  0
POINT
  5
9B
330
92
100
AcDbEntity
  8
DEFPOINTS
  6
Continuous
 62
     7
100
AcDbPoint
 10
-98.947762
 20
-13.320895
 30
0.0
  0
ENDBLK
  5
9C
330
92
100
AcDbEntity
  8
0
100
AcDbBlockEnd
  0
BLOCK
  5
9E
330
9D
100
AcDbEntity
  8
0
100
AcDbBlockBegin
  2
*D10
 70
     1
 10
0.0
 20
0.0
 30
0.0
  3
*D10
  1

  0
LINE
  5
9F
330
9D
100
AcDbEntity
  8
0
  6
Continuous
 62
     7
100
AcDbLine
 10
-98.947762
 20
-13.320895
 30
0.0
 11
-92.94776199999999
 21
-13.320895
 31
0.0
  0
INSERT
  5
A0
330
9D
100
AcDbEntity
  8
0
  6
Continuous
 62
     7
100
AcDbBlockReference
  2
_DOT
 10
-98.947762
 20
-13.320895
 30
0.0
 50
180.0
  0
INSERT
  5
A1
330
9D
100
AcDbEntity
  8
0
  6
Continuous
 62
     7
100
AcDbBlockReference
  2
_DOT
 10
-92.94776199999999
 20
-13.320895
 30
0.0
  0
LINE
  5
A2
330
9D
100
AcDbEntity
  8
0
  6
Continuous
 62
     7
100
AcDbLine
 10
-92.94776199999999
 20
-0.8608954800000001
 30
0.0
 11
-92.94776199999999
 21
-14.52089599999998
 31
0.0
  0
TEXT
  5
A3
330
9D
100
AcDbEntity
  8
0
  6
Continuous
 62
     7
100
AcDbText
 10
-97.090762
 20
-12.520895
 30
0.0
 40
3.2
  1
6
100
AcDbText
  0
POINT
  5
A4
330
9D
100
AcDbEntity
  8
DEFPOINTS
  6
Continuous
 62
     7
100
AcDbPoint
 10
-98.947762
 20
0.6838652500000002
 30
0.0
  0
POINT
  5
A5
330
9D
100
AcDbEntity
  8
DEFPOINTS
  6
Continuous
 62
     7
100
AcDbPoint
 10
-92.94776199999999
 20
1.679104399999999
 30
0.0
  0
POINT
  5
A6
330
9D
100
AcDbEntity
  8
DEFPOINTS
  6
Continuous
 62
     7
100
AcDbPoint
 10
-92.94776199999999
 20
-13.320895
 30
0.0
  0
ENDBLK
  5
A7
330
9D
100
AcDbEntity
  8
0
100
AcDbBlockEnd
  0
BLOCK
  5
A9
330
A8
100
AcDbEntity
  8
0
100
AcDbBlockBegin
  2
*D11
 70
     1
 10
0.0
 20
0.0
 30
0.0
  3
*D11
  1

  0
LINE
  5
AA
330
A8
100
AcDbEntity
  8
0
  6
Continuous
 62
     7
100
AcDbLine
 10
-92.94776199999999
 20
-21.307795
 30
0.0
 11
-154.94775
 21
-21.307795
 31
0.0
  0
INSERT
  5
AB
330
A8
100
AcDbEntity
  8
0
  6
Continuous
 62
     7
100
AcDbBlockReference
  2
_DOT
 10
-92.94776199999999
 20
-21.307795
 30
0.0
  0
INSERT
  5
AC
330
A8
100
AcDbEntity
  8
0
  6
Continuous
 62
     7
100
AcDbBlockReference
  2
_DOT
 10
-154.94775
 20
-21.307795
 30
0.0
 50
180.0
  0
LINE
  5
AD
330
A8
100
AcDbEntity
  8
0
  6
Continuous
 62
     7
100
AcDbLine
 10
-92.94776199999999
 20
-0.8608954800000001
 30
0.0
 11
-92.94776199999999
 21
-22.507795
 31
0.0
  0
LINE
  5
AE
330
A8
100
AcDbEntity
  8
0
  6
Continuous
 62
     7
100
AcDbLine
 10
-154.94775
 20
-0.8608954800000001
 30
0.0
 11
-154.94775
 21
-22.507795
 31
0.0
  0
TEXT
  5
AF
330
A8
100
AcDbEntity
  8
0
  6
Continuous
 62
     7
100
AcDbText
 10
-126.69075
 20
-20.507795
 30
0.0
 40
3.2
  1
62
 41
1.028624999999999
100
AcDbText
  0
POINT
  5
B0
330
A8
100
AcDbEntity
  8
DEFPOINTS
  6
Continuous
 62
     7
100
AcDbPoint
 10
-92.94776199999999
 20
1.679104399999999
 30
0.0
  0
POINT
  5
B1
330
A8
100
AcDbEntity
  8
DEFPOINTS
  6
Continuous
 62
     7
100
AcDbPoint
 10
-154.94775
 20
1.679104399999999
 30
0.0
  0
POINT
  5
B2
330
A8
100
AcDbEntity
  8
DEFPOINTS
  6
Continuous
 62
     7
100
AcDbPoint
 10
-154.94775
 20
-21.307795
 30
0.0
  0
ENDBLK
  5
B3
330
A8
100
AcDbEntity
  8
0
100
AcDbBlockEnd
  0
BLOCK
  5
B5
330
B4
100
AcDbEntity
  8
0
100
AcDbBlockBegin
  2
*D12
 70
     1
 10
0.0
 20
0.0
 30
0.0
  3
*D12
  1

  0
LINE
  5
B6
330
B4
100
AcDbEntity
  8
0
  6
Continuous
 62
     7
100
AcDbLine
 10
45.552238
 20
219.7303199999999
 30
0.0
 11
0.55223846
 21
219.7303199999999
 31
0.0
  0
INSERT
  5
B7
330
B4
100
AcDbEntity
  8
0
  6
Continuous
 62
     7
100
AcDbBlockReference
  2
_DOT
 10
45.552238
 20
219.7303199999999
 30
0.0
  0
INSERT
  5
B8
330
B4
100
AcDbEntity
  8
0
  6
Continuous
 62
     7
100
AcDbBlockReference
  2
_DOT
 10
0.55223846
 20
219.7303199999999
 30
0.0
 50
180.0
  0
LINE
  5
B9
330
B4
100
AcDbEntity
  8
0
  6
Continuous
 62
     7
100
AcDbLine
 10
45.552238
 20
203.53307
 30
0.0
 11
45.552238
 21
220.93031
 31
0.0
  0
LINE
  5
BA
330
B4
100
AcDbEntity
  8
0
  6
Continuous
 62
     7
100
AcDbLine
 10
0.55223846
 20
203.53307
 30
0.0
 11
0.55223846
 21
220.93031
 31
0.0
  0
TEXT
  5
BB
330
B4
100
AcDbEntity
  8
0
  6
Continuous
 62
     7
100
AcDbText
 10
20.662945
 20
220.53032
 30
0.0
 40
3.2
  1
45
 41
1.028624999999999
100
AcDbText
  0
POINT
  5
BC
330
B4
100
AcDbEntity
  8
DEFPOINTS
  6
Continuous
 62
     7
100
AcDbPoint
 10
45.552238
 20
200.9930699999999
 30
0.0
  0
POINT
  5
BD
330
B4
100
AcDbEntity
  8
DEFPOINTS
  6
Continuous
 62
     7
100
AcDbPoint
 10
0.55223846
 20
200.9930699999999
 30
0.0
  0
POINT
  5
BE
330
B4
100
AcDbEntity
  8
DEFPOINTS
  6
Continuous
 62
     7
100
AcDbPoint
 10
0.55223846
 20
219.7303199999999
 30
0.0
  0
ENDBLK
  5
BF
330
B4
100
AcDbEntity
  8
0
100
AcDbBlockEnd
  0
BLOCK
  5
C1
330
C0
100
AcDbEntity
  8
0
100
AcDbBlockBegin
  2
*D13
 70
     1
 10
0.0
 20
0.0
 30
0.0
  3
*D13
  1

  0
LINE
  5
C2
330
C0
100
AcDbEntity
  8
0
  6
Continuous
 62
     7
100
AcDbLine
 10
-9.4477615
 20
196.9930699999999
 30
0.0
 11
-9.4477615
 21
211.36261
 31
0.0
  0
LINE
  5
C3
330
C0
100
AcDbEntity
  8
0
  6
Continuous
 62
     7
100
AcDbLine
 10
-9.4477615
 20
196.9930699999999
 30
0.0
 11
-9.4477615
 21
180.9930699999999
 31
0.0
  0
INSERT
  5
C4
330
C0
100
AcDbEntity
  8
0
  6
Continuous
 62
     7
100
AcDbBlockReference
  2
_DOT
 10
-9.4477615
 20
196.9930699999999
 30
0.0
 50
90.0
  0
INSERT
  5
C5
330
C0
100
AcDbEntity
  8
0
  6
Continuous
 62
     7
100
AcDbBlockReference
  2
_DOT
 10
-9.4477615
 20
180.9930699999999
 30
0.0
 50
270.0
  0
TEXT
  5
C6
330
C0
100
AcDbEntity
  8
0
  6
Continuous
 62
     7
100
AcDbText
 10
-10.247761
 20
205.8765999999998
 30
0.0
 40
3.2
  1
16
 50
90.00000300000001
 41
1.285781199999997
100
AcDbText
  0
POINT
  5
C7
330
C0
100
AcDbEntity
  8
DEFPOINTS
  6
Continuous
 62
     7
100
AcDbPoint
 10
5.6112595
 20
196.9930699999999
 30
0.0
  0
POINT
  5
C8
330
C0
100
AcDbEntity
  8
DEFPOINTS
  6
Continuous
 62
     7
100
AcDbPoint
 10
5.6112595
 20
180.9930699999999
 30
0.0
  0
POINT
  5
C9
330
C0
100
AcDbEntity
  8
DEFPOINTS
  6
Continuous
 62
     7
100
AcDbPoint
 10
-9.4477615
 20
180.9930699999999
 30
0.0
  0
ENDBLK
  5
CA
330
C0
100
AcDbEntity
  8
0
100
AcDbBlockEnd
  0
BLOCK
  5
CC
330
CB
100
AcDbEntity
  8
0
100
AcDbBlockBegin
  2
*D14
 70
     1
 10
0.0
 20
0.0
 30
0.0
  3
*D14
  1

  0
LINE
  5
CD
330
CB
100
AcDbEntity
  8
0
  6
Continuous
 62
     7
100
AcDbLine
 10
-19.447762
 20
198.99307
 30
0.0
 11
-19.447762
 21
211.36261
 31
0.0
  0
LINE
  5
CE
330
CB
100
AcDbEntity
  8
0
  6
Continuous
 62
     7
100
AcDbLine
 10
-19.447762
 20
178.99307
 30
0.0
 11
-19.447762
 21
198.99307
 31
0.0
  0
INSERT
  5
CF
330
CB
100
AcDbEntity
  8
0
  6
Continuous
 62
     7
100
AcDbBlockReference
  2
_DOT
 10
-19.447762
 20
178.99307
 30
0.0
 50
270.0
  0
INSERT
  5
D0
330
CB
100
AcDbEntity
  8
0
  6
Continuous
 62
     7
100
AcDbBlockReference
  2
_DOT
 10
-19.447762
 20
198.99307
 30
0.0
 50
90.0
  0
TEXT
  5
D1
330
CB
100
AcDbEntity
  8
0
  6
Continuous
 62
     7
100
AcDbText
 10
-20.24776099999998
 20
205.8765999999998
 30
0.0
 40
3.2
  1
20
 50
90.00000300000001
 41
1.102098199999999
100
AcDbText
  0
POINT
  5
D2
330
CB
100
AcDbEntity
  8
DEFPOINTS
  6
Continuous
 62
     7
100
AcDbPoint
 10
0.55223846
 20
178.99307
 30
0.0
  0
POINT
  5
D3
330
CB
100
AcDbEntity
  8
DEFPOINTS
  6
Continuous
 62
     7
100
AcDbPoint
 10
0.55223846
 20
198.99307
 30
0.0
  0
POINT
  5
D4
330
CB
100
AcDbEntity
  8
DEFPOINTS
  6
Continuous
 62
     7
100
AcDbPoint
 10
-19.447762
 20
198.99307
 30
0.0
  0
ENDBLK
  5
D5
330
CB
100
AcDbEntity
  8
0
100
AcDbBlockEnd
  0
BLOCK
  5
D7
330
D6
100
AcDbEntity
  8
0
100
AcDbBlockBegin
  2
*D15
 70
     1
 10
0.0
 20
0.0
 30
0.0
  3
*D15
  1

  0
LINE
  5
D8
330
D6
100
AcDbEntity
  8
0
  6
Continuous
 62
     7
100
AcDbLine
 10
-29.447762
 20
202.9930699999999
 30
0.0
 11
-29.447762
 21
211.36261
 31
0.0
  0
LINE
  5
D9
330
D6
100
AcDbEntity
  8
0
  6
Continuous
 62
     7
100
AcDbLine
 10
-29.447762
 20
202.9930699999999
 30
0.0
 11
-29.447762
 21
174.9930699999999
 31
0.0
  0
INSERT
  5
DA
330
D6
100
AcDbEntity
  8
0
  6
Continuous
 62
     7
100
AcDbBlockReference
  2
_DOT
 10
-29.447762
 20
202.9930699999999
 30
0.0
 50
90.0
  0
INSERT
  5
DB
330
D6
100
AcDbEntity
  8
0
  6
Continuous
 62
     7
100
AcDbBlockReference
  2
_DOT
 10
-29.447762
 20
174.9930699999999
 30
0.0
 50
270.0
  0
LINE
  5
DC
330
D6
100
AcDbEntity
  8
0
  6
Continuous
 62
     7
100
AcDbLine
 10
0.012238541
 20
202.9930699999999
 30
0.0
 11
-30.647762
 21
202.9930699999999
 31
0.0
  0
LINE
  5
DD
330
D6
100
AcDbEntity
  8
0
  6
Continuous
 62
     7
100
AcDbLine
 10
0.012238541
 20
174.9930699999999
 30
0.0
 11
-30.647762
 21
174.9930699999999
 31
0.0
  0
TEXT
  5
DE
330
D6
100
AcDbEntity
  8
0
  6
Continuous
 62
     7
100
AcDbText
 10
-30.24776099999999
 20
205.8765999999998
 30
0.0
 40
3.2
  1
28
 50
90.00000300000001
 41
1.028624999999999
100
AcDbText
  0
POINT
  5
DF
330
D6
100
AcDbEntity
  8
DEFPOINTS
  6
Continuous
 62
     7
100
AcDbPoint
 10
2.552238499999999
 20
202.9930699999999
 30
0.0
  0
POINT
  5
E0
330
D6
100
AcDbEntity
  8
DEFPOINTS
  6
Continuous
 62
     7
100
AcDbPoint
 10
2.552238499999999
 20
174.9930699999999
 30
0.0
  0
POINT
  5
E1
330
D6
100
AcDbEntity
  8
DEFPOINTS
  6
Continuous
 62
     7
100
AcDbPoint
 10
-29.447762
 20
174.9930699999999
 30
0.0
  0
ENDBLK
  5
E2
330
D6
100
AcDbEntity
  8
0
100
AcDbBlockEnd
  0
BLOCK
  5
E4
330
E3
100
AcDbEntity
  8
0
100
AcDbBlockBegin
  2
*D16
 70
     1
 10
0.0
 20
0.0
 30
0.0
  3
*D16
  1

  0
LINE
  5
E5
330
E3
100
AcDbEntity
  8
0
  6
Continuous
 62
     7
100
AcDbLine
 10
-184.94775
 20
159.9930699999999
 30
0.0
 11
-174.94778
 21
159.9930699999999
 31
0.0
  0
INSERT
  5
E6
330
E3
100
AcDbEntity
  8
0
  6
Continuous
 62
     7
100
AcDbBlockReference
  2
_DOT
 10
-184.94775
 20
159.9930699999999
 30
0.0
 50
180.0
  0
INSERT
  5
E7
330
E3
100
AcDbEntity
  8
0
  6
Continuous
 62
     7
100
AcDbBlockReference
  2
_DOT
 10
-174.94778
 20
159.9930699999999
 30
0.0
  0
LINE
  5
E8
330
E3
100
AcDbEntity
  8
0
  6
Continuous
 62
     7
100
AcDbLine
 10
-184.94775
 20
178.4530699999999
 30
0.0
 11
-184.94775
 21
158.79308
 31
0.0
  0
LINE
  5
E9
330
E3
100
AcDbEntity
  8
0
  6
Continuous
 62
     7
100
AcDbLine
 10
-174.94778
 20
170.9377199999998
 30
0.0
 11
-174.94778
 21
158.79308
 31
0.0
  0
TEXT
  5
EA
330
E3
100
AcDbEntity
  8
0
  6
Continuous
 62
     7
100
AcDbText
 10
-182.69075
 20
160.79307
 30
0.0
 40
3.2
  1
10
 41
1.402670399999999
100
AcDbText
  0
POINT
  5
EB
330
E3
100
AcDbEntity
  8
DEFPOINTS
  6
Continuous
 62
     7
100
AcDbPoint
 10
-184.94775
 20
180.9930699999999
 30
0.0
  0
POINT
  5
EC
330
E3
100
AcDbEntity
  8
DEFPOINTS
  6
Continuous
 62
     7
100
AcDbPoint
 10
-174.94778
 20
173.47772
 30
0.0
  0
POINT
  5
ED
330
E3
100
AcDbEntity
  8
DEFPOINTS
  6
Continuous
 62
     7
100
AcDbPoint
 10
-174.94778
 20
159.9930699999999
 30
0.0
  0
ENDBLK
  5
EE
330
E3
100
AcDbEntity
  8
0
100
AcDbBlockEnd
  0
BLOCK
  5
F0
330
EF
100
AcDbEntity
  8
0
100
AcDbBlockBegin
  2
*D17
 70
     1
 10
0.0
 20
0.0
 30
0.0
  3
*D17
  1

  0
LINE
  5
F1
330
EF
100
AcDbEntity
  8
0
  6
Continuous
 62
     7
100
AcDbLine
 10
-184.94775
 20
149.9930699999999
 30
0.0
 11
-186.94775
 21
149.9930699999999
 31
0.0
  0
INSERT
  5
F2
330
EF
100
AcDbEntity
  8
0
  6
Continuous
 62
     7
100
AcDbBlockReference
  2
_DOT
 10
-184.94775
 20
149.9930699999999
 30
0.0
  0
INSERT
  5
F3
330
EF
100
AcDbEntity
  8
0
  6
Continuous
 62
     7
100
AcDbBlockReference
  2
_DOT
 10
-186.94775
 20
149.9930699999999
 30
0.0
 50
180.0
  0
LINE
  5
F4
330
EF
100
AcDbEntity
  8
0
  6
Continuous
 62
     7
100
AcDbLine
 10
-184.94775
 20
178.4530699999999
 30
0.0
 11
-184.94775
 21
148.7930799999999
 31
0.0
  0
LINE
  5
F5
330
EF
100
AcDbEntity
  8
0
  6
Continuous
 62
     7
100
AcDbLine
 10
-186.94775
 20
179.4530699999999
 30
0.0
 11
-186.94775
 21
148.7930799999999
 31
0.0
  0
TEXT
  5
F6
330
EF
100
AcDbEntity
  8
0
  6
Continuous
 62
     7
100
AcDbText
 10
-187.09075
 20
150.79307
 30
0.0
 40
3.2
  1
2
100
AcDbText
  0
POINT
  5
F7
330
EF
100
AcDbEntity
  8
DEFPOINTS
  6
Continuous
 62
     7
100
AcDbPoint
 10
-184.94775
 20
180.9930699999999
 30
0.0
  0
POINT
  5
F8
330
EF
100
AcDbEntity
  8
DEFPOINTS
  6
Continuous
 62
     7
100
AcDbPoint
 10
-186.94775
 20
181.99307
 30
0.0
  0
POINT
  5
F9
330
EF
100
AcDbEntity
  8
DEFPOINTS
  6
Continuous
 62
     7
100
AcDbPoint
 10
-186.94775
 20
149.9930699999999
 30
0.0
  0
ENDBLK
  5
FA
330
EF
100
AcDbEntity
  8
0
100
AcDbBlockEnd
  0
BLOCK
  5
FC
330
FB
100
AcDbEntity
  8
0
100
AcDbBlockBegin
  2
*D18
 70
     1
 10
0.0
 20
0.0
 30
0.0
  3
*D18
  1

  0
LINE
  5
FD
330
FB
100
AcDbEntity
  8
0
  6
Continuous
 62
     7
100
AcDbLine
 10
-174.94778
 20
159.9930699999999
 30
0.0
 11
-123.94775
 21
159.9930699999999
 31
0.0
  0
INSERT
  5
FE
330
FB
100
AcDbEntity
  8
0
  6
Continuous
 62
     7
100
AcDbBlockReference
  2
_DOT
 10
-174.94778
 20
159.9930699999999
 30
0.0
 50
180.0
  0
INSERT
  5
FF
330
FB
100
AcDbEntity
  8
0
  6
Continuous
 62
     7
100
AcDbBlockReference
  2
_DOT
 10
-123.94775
 20
159.9930699999999
 30
0.0
  0
LINE
  5
100
330
FB
100
AcDbEntity
  8
0
  6
Continuous
 62
     7
100
AcDbLine
 10
-123.94775
 20
170.79047
 30
0.0
 11
-123.94775
 21
158.79308
 31
0.0
  0
TEXT
  5
101
330
FB
100
AcDbEntity
  8
0
  6
Continuous
 62
     7
100
AcDbText
 10
-152.0907799999999
 20
160.79307
 30
0.0
 40
3.2
  1
B
100
AcDbText
  0
POINT
  5
102
330
FB
100
AcDbEntity
  8
DEFPOINTS
  6
Continuous
 62
     7
100
AcDbPoint
 10
-174.94778
 20
173.47772
 30
0.0
  0
POINT
  5
103
330
FB
100
AcDbEntity
  8
DEFPOINTS
  6
Continuous
 62
     7
100
AcDbPoint
 10
-123.94775
 20
173.3304699999999
 30
0.0
  0
POINT
  5
104
330
FB
100
AcDbEntity
  8
DEFPOINTS
  6
Continuous
 62
     7
100
AcDbPoint
 10
-123.94775
 20
159.9930699999999
 30
0.0
  0
ENDBLK
  5
105
330
FB
100
AcDbEntity
  8
0
100
AcDbBlockEnd
  0
BLOCK
  5
107
330
106
100
AcDbEntity
  8
0
100
AcDbBlockBegin
  2
*D19
 70
     1
 10
0.0
 20
0.0
 30
0.0
  3
*D19
  1

  0
LINE
  5
108
330
106
100
AcDbEntity
  8
0
  6
Continuous
 62
     7
100
AcDbLine
 10
23.05223799999999
 20
159.9930699999999
 30
0.0
 11
-123.94775
 21
159.9930699999999
 31
0.0
  0
INSERT
  5
109
330
106
100
AcDbEntity
  8
0
  6
Continuous
 62
     7
100
AcDbBlockReference
  2
_DOT
 10
23.05223799999999
 20
159.9930699999999
 30
0.0
  0
INSERT
  5
10A
330
106
100
AcDbEntity
  8
0
  6
Continuous
 62
     7
100
AcDbBlockReference
  2
_DOT
 10
-123.94775
 20
159.9930699999999
 30
0.0
 50
180.0
  0
LINE
  5
10B
330
106
100
AcDbEntity
  8
0
  6
Continuous
 62
     7
100
AcDbLine
 10
23.05223799999999
 20
166.45307
 30
0.0
 11
23.05223799999999
 21
158.79308
 31
0.0
  0
TEXT
  5
10C
330
106
100
AcDbEntity
  8
0
  6
Continuous
 62
     7
100
AcDbText
 10
-53.89076899999999
 20
160.79307
 30
0.0
 40
3.2
  1
L
100
AcDbText
  0
TEXT
  5
10D
330
106
100
AcDbEntity
  8
0
  6
Continuous
 62
     7
100
AcDbText
 10
-50.690769
 20
160.79307
 30
0.0
 40
1.6
  1
2
100
AcDbText
  0
POINT
  5
10E
330
106
100
AcDbEntity
  8
DEFPOINTS
  6
Continuous
 62
     7
100
AcDbPoint
 10
23.05223799999999
 20
168.9930699999998
 30
0.0
  0
POINT
  5
10F
330
106
100
AcDbEntity
  8
DEFPOINTS
  6
Continuous
 62
     7
100
AcDbPoint
 10
-123.94775
 20
173.3304699999999
 30
0.0
  0
POINT
  5
110
330
106
100
AcDbEntity
  8
DEFPOINTS
  6
Continuous
 62
     7
100
AcDbPoint
 10
-123.94775
 20
159.9930699999999
 30
0.0
  0
ENDBLK
  5
111
330
106
100
AcDbEntity
  8
0
100
AcDbBlockEnd
  0
BLOCK
  5
113
330
112
100
AcDbEntity
  8
0
100
AcDbBlockBegin
  2
*D20
 70
     1
 10
0.0
 20
0.0
 30
0.0
  3
*D20
  1

  0
LINE
  5
114
330
112
100
AcDbEntity
  8
0
  6
Continuous
 62
     7
100
AcDbLine
 10
23.05223799999999
 20
159.9930699999999
 30
0.0
 11
93.052238
 21
159.9930699999999
 31
0.0
  0
INSERT
  5
115
330
112
100
AcDbEntity
  8
0
  6
Continuous
 62
     7
100
AcDbBlockReference
  2
_DOT
 10
23.05223799999999
 20
159.9930699999999
 30
0.0
 50
180.0
  0
INSERT
  5
116
330
112
100
AcDbEntity
  8
0
  6
Continuous
 62
     7
100
AcDbBlockReference
  2
_DOT
 10
93.052238
 20
159.9930699999999
 30
0.0
  0
LINE
  5
117
330
112
100
AcDbEntity
  8
0
  6
Continuous
 62
     7
100
AcDbLine
 10
93.052238
 20
170.9377199999998
 30
0.0
 11
93.052238
 21
158.79308
 31
0.0
  0
TEXT
  5
118
330
112
100
AcDbEntity
  8
0
  6
Continuous
 62
     7
100
AcDbText
 10
55.309238
 20
160.79307
 30
0.0
 40
3.2
  1
70
 41
1.102098199999999
100
AcDbText
  0
POINT
  5
119
330
112
100
AcDbEntity
  8
DEFPOINTS
  6
Continuous
 62
     7
100
AcDbPoint
 10
23.05223799999999
 20
168.9930699999998
 30
0.0
  0
POINT
  5
11A
330
112
100
AcDbEntity
  8
DEFPOINTS
  6
Continuous
 62
     7
100
AcDbPoint
 10
93.052238
 20
173.47772
 30
0.0
  0
POINT
  5
11B
330
112
100
AcDbEntity
  8
DEFPOINTS
  6
Continuous
 62
     7
100
AcDbPoint
 10
93.052238
 20
159.9930699999999
 30
0.0
  0
ENDBLK
  5
11C
330
112
100
AcDbEntity
  8
0
100
AcDbBlockEnd
  0
BLOCK
  5
11E
330
11D
100
AcDbEntity
  8
0
100
AcDbBlockBegin
  2
*D21
 70
     1
 10
0.0
 20
0.0
 30
0.0
  3
*D21
  1

  0
LINE
  5
11F
330
11D
100
AcDbEntity
  8
0
  6
Continuous
 62
     7
100
AcDbLine
 10
93.052238
 20
159.9930699999999
 30
0.0
 11
103.0522399999999
 21
159.9930699999999
 31
0.0
  0
INSERT
  5
120
330
11D
100
AcDbEntity
  8
0
  6
Continuous
 62
     7
100
AcDbBlockReference
  2
_DOT
 10
93.052238
 20
159.9930699999999
 30
0.0
 50
180.0
  0
INSERT
  5
121
330
11D
100
AcDbEntity
  8
0
  6
Continuous
 62
     7
100
AcDbBlockReference
  2
_DOT
 10
103.0522399999999
 20
159.9930699999999
 30
0.0
  0
LINE
  5
122
330
11D
100
AcDbEntity
  8
0
  6
Continuous
 62
     7
100
AcDbLine
 10
103.0522399999999
 20
178.4530699999999
 30
0.0
 11
103.0522399999999
 21
158.79308
 31
0.0
  0
TEXT
  5
123
330
11D
100
AcDbEntity
  8
0
  6
Continuous
 62
     7
100
AcDbText
 10
95.309238
 20
160.79307
 30
0.0
 40
3.2
  1
10
 41
1.402670399999999
100
AcDbText
  0
POINT
  5
124
330
11D
100
AcDbEntity
  8
DEFPOINTS
  6
Continuous
 62
     7
100
AcDbPoint
 10
93.052238
 20
173.47772
 30
0.0
  0
POINT
  5
125
330
11D
100
AcDbEntity
  8
DEFPOINTS
  6
Continuous
 62
     7
100
AcDbPoint
 10
103.0522399999999
 20
180.9930699999999
 30
0.0
  0
POINT
  5
126
330
11D
100
AcDbEntity
  8
DEFPOINTS
  6
Continuous
 62
     7
100
AcDbPoint
 10
103.0522399999999
 20
159.9930699999999
 30
0.0
  0
ENDBLK
  5
127
330
11D
100
AcDbEntity
  8
0
100
AcDbBlockEnd
  0
BLOCK
  5
129
330
128
100
AcDbEntity
  8
0
100
AcDbBlockBegin
  2
*D22
 70
     1
 10
0.0
 20
0.0
 30
0.0
  3
*D22
  1

  0
LINE
  5
12A
330
128
100
AcDbEntity
  8
0
  6
Continuous
 62
     7
100
AcDbLine
 10
103.0522399999999
 20
149.9930699999999
 30
0.0
 11
105.0522399999999
 21
149.9930699999999
 31
0.0
  0
INSERT
  5
12B
330
128
100
AcDbEntity
  8
0
  6
Continuous
 62
     7
100
AcDbBlockReference
  2
_DOT
 10
103.0522399999999
 20
149.9930699999999
 30
0.0
 50
180.0
  0
INSERT
  5
12C
330
128
100
AcDbEntity
  8
0
  6
Continuous
 62
     7
100
AcDbBlockReference
  2
_DOT
 10
105.0522399999999
 20
149.9930699999999
 30
0.0
  0
LINE
  5
12D
330
128
100
AcDbEntity
  8
0
  6
Continuous
 62
     7
100
AcDbLine
 10
103.0522399999999
 20
178.4530699999999
 30
0.0
 11
103.0522399999999
 21
148.7930799999999
 31
0.0
  0
LINE
  5
12E
330
128
100
AcDbEntity
  8
0
  6
Continuous
 62
     7
100
AcDbLine
 10
105.0522399999999
 20
179.4530699999999
 30
0.0
 11
105.0522399999999
 21
148.7930799999999
 31
0.0
  0
TEXT
  5
12F
330
128
100
AcDbEntity
  8
0
  6
Continuous
 62
     7
100
AcDbText
 10
102.9092399999999
 20
150.79307
 30
0.0
 40
3.2
  1
2
100
AcDbText
  0
POINT
  5
130
330
128
100
AcDbEntity
  8
DEFPOINTS
  6
Continuous
 62
     7
100
AcDbPoint
 10
103.0522399999999
 20
180.9930699999999
 30
0.0
  0
POINT
  5
131
330
128
100
AcDbEntity
  8
DEFPOINTS
  6
Continuous
 62
     7
100
AcDbPoint
 10
105.0522399999999
 20
181.99307
 30
0.0
  0
POINT
  5
132
330
128
100
AcDbEntity
  8
DEFPOINTS
  6
Continuous
 62
     7
100
AcDbPoint
 10
105.0522399999999
 20
149.9930699999999
 30
0.0
  0
ENDBLK
  5
133
330
128
100
AcDbEntity
  8
0
100
AcDbBlockEnd
  0
BLOCK
  5
135
330
134
100
AcDbEntity
  8
0
100
AcDbBlockBegin
  2
*D23
 70
     1
 10
0.0
 20
0.0
 30
0.0
  3
*D23
  1

  0
LINE
  5
136
330
134
100
AcDbEntity
  8
0
  6
Continuous
 62
     7
100
AcDbLine
 10
103.0522399999999
 20
149.9930699999999
 30
0.0
 11
-184.94775
 21
149.9930699999999
 31
0.0
  0
INSERT
  5
137
330
134
100
AcDbEntity
  8
0
  6
Continuous
 62
     7
100
AcDbBlockReference
  2
_DOT
 10
103.0522399999999
 20
149.9930699999999
 30
0.0
  0
INSERT
  5
138
330
134
100
AcDbEntity
  8
0
  6
Continuous
 62
     7
100
AcDbBlockReference
  2
_DOT
 10
-184.94775
 20
149.9930699999999
 30
0.0
 50
180.0
  0
TEXT
  5
139
330
134
100
AcDbEntity
  8
0
  6
Continuous
 62
     7
100
AcDbText
 10
-42.890754
 20
150.79307
 30
0.0
 40
3.2
  1
L
100
AcDbText
  0
TEXT
  5
13A
330
134
100
AcDbEntity
  8
0
  6
Continuous
 62
     7
100
AcDbText
 10
-39.69075399999999
 20
150.79307
 30
0.0
 40
1.6
  1
1
 41
0.6666666700000003
100
AcDbText
  0
POINT
  5
13B
330
134
100
AcDbEntity
  8
DEFPOINTS
  6
Continuous
 62
     7
100
AcDbPoint
 10
103.0522399999999
 20
180.9930699999999
 30
0.0
  0
POINT
  5
13C
330
134
100
AcDbEntity
  8
DEFPOINTS
  6
Continuous
 62
     7
100
AcDbPoint
 10
-184.94775
 20
180.9930699999999
 30
0.0
  0
POINT
  5
13D
330
134
100
AcDbEntity
  8
DEFPOINTS
  6
Continuous
 62
     7
100
AcDbPoint
 10
-184.94775
 20
149.9930699999999
 30
0.0
  0
ENDBLK
  5
13E
330
134
100
AcDbEntity
  8
0
100
AcDbBlockEnd
  0
BLOCK
  5
140
330
13F
100
AcDbEntity
  8
0
100
AcDbBlockBegin
  2
*D24
 70
     1
 10
0.0
 20
0.0
 30
0.0
  3
*D24
  1

  0
LINE
  5
141
330
13F
100
AcDbEntity
  8
0
  6
Continuous
 62
     7
100
AcDbLine
 10
-205.94775
 20
74.1791
 30
0.0
 11
-199.94778
 21
74.1791
 31
0.0
  0
INSERT
  5
142
330
13F
100
AcDbEntity
  8
0
  6
Continuous
 62
     7
100
AcDbBlockReference
  2
_DOT
 10
-205.94775
 20
74.1791
 30
0.0
 50
180.0
  0
INSERT
  5
143
330
13F
100
AcDbEntity
  8
0
  6
Continuous
 62
     7
100
AcDbBlockReference
  2
_DOT
 10
-199.94778
 20
74.1791
 30
0.0
  0
LINE
  5
144
330
13F
100
AcDbEntity
  8
0
  6
Continuous
 62
     7
100
AcDbLine
 10
-205.94775
 20
66.7191
 30
0.0
 11
-205.94775
 21
75.37910500000002
 31
0.0
  0
LINE
  5
145
330
13F
100
AcDbEntity
  8
0
  6
Continuous
 62
     7
100
AcDbLine
 10
-199.94778
 20
68.711272
 30
0.0
 11
-199.94778
 21
75.37910500000002
 31
0.0
  0
TEXT
  5
146
330
13F
100
AcDbEntity
  8
0
  6
Continuous
 62
     7
100
AcDbText
 10
-204.09075
 20
74.9791
 30
0.0
 40
3.2
  1
6
100
AcDbText
  0
POINT
  5
147
330
13F
100
AcDbEntity
  8
DEFPOINTS
  6
Continuous
 62
     7
100
AcDbPoint
 10
-205.94775
 20
64.1791
 30
0.0
  0
POINT
  5
148
330
13F
100
AcDbEntity
  8
DEFPOINTS
  6
Continuous
 62
     7
100
AcDbPoint
 10
-199.94778
 20
66.171272
 30
0.0
  0
POINT
  5
149
330
13F
100
AcDbEntity
  8
DEFPOINTS
  6
Continuous
 62
     7
100
AcDbPoint
 10
-199.94778
 20
74.1791
 30
0.0
  0
ENDBLK
  5
14A
330
13F
100
AcDbEntity
  8
0
100
AcDbBlockEnd
  0
BLOCK
  5
14C
330
14B
100
AcDbEntity
  8
0
100
AcDbBlockBegin
  2
*D25
 70
     1
 10
0.0
 20
0.0
 30
0.0
  3
*D25
  1

  0
LINE
  5
14D
330
14B
100
AcDbEntity
  8
0
  6
Continuous
 62
     7
100
AcDbLine
 10
-189.9477799999999
 20
74.1791
 30
0.0
 11
-199.94778
 21
74.1791
 31
0.0
  0
INSERT
  5
14E
330
14B
100
AcDbEntity
  8
0
  6
Continuous
 62
     7
100
AcDbBlockReference
  2
_DOT
 10
-189.9477799999999
 20
74.1791
 30
0.0
  0
INSERT
  5
14F
330
14B
100
AcDbEntity
  8
0
  6
Continuous
 62
     7
100
AcDbBlockReference
  2
_DOT
 10
-199.94778
 20
74.1791
 30
0.0
 50
180.0
  0
LINE
  5
150
330
14B
100
AcDbEntity
  8
0
  6
Continuous
 62
     7
100
AcDbLine
 10
-189.9477799999999
 20
68.711272
 30
0.0
 11
-189.9477799999999
 21
75.37910500000002
 31
0.0
  0
TEXT
  5
151
330
14B
100
AcDbEntity
  8
0
  6
Continuous
 62
     7
100
AcDbText
 10
-197.69078
 20
74.9791
 30
0.0
 40
3.2
  1
10
 41
1.402670399999999
100
AcDbText
  0
POINT
  5
152
330
14B
100
AcDbEntity
  8
DEFPOINTS
  6
Continuous
 62
     7
100
AcDbPoint
 10
-189.9477799999999
 20
66.171272
 30
0.0
  0
POINT
  5
153
330
14B
100
AcDbEntity
  8
DEFPOINTS
  6
Continuous
 62
     7
100
AcDbPoint
 10
-199.94778
 20
66.171272
 30
0.0
  0
POINT
  5
154
330
14B
100
AcDbEntity
  8
DEFPOINTS
  6
Continuous
 62
     7
100
AcDbPoint
 10
-199.94778
 20
74.1791
 30
0.0
  0
ENDBLK
  5
155
330
14B
100
AcDbEntity
  8
0
100
AcDbBlockEnd
  0
BLOCK
  5
157
330
156
100
AcDbEntity
  8
0
100
AcDbBlockBegin
  2
*D26
 70
     1
 10
0.0
 20
0.0
 30
0.0
  3
*D26
  1

  0
LINE
  5
158
330
156
100
AcDbEntity
  8
0
  6
Continuous
 62
     7
100
AcDbLine
 10
-189.9477799999999
 20
74.1791
 30
0.0
 11
-159.94778
 21
74.1791
 31
0.0
  0
INSERT
  5
159
330
156
100
AcDbEntity
  8
0
  6
Continuous
 62
     7
100
AcDbBlockReference
  2
_DOT
 10
-189.9477799999999
 20
74.1791
 30
0.0
 50
180.0
  0
INSERT
  5
15A
330
156
100
AcDbEntity
  8
0
  6
Continuous
 62
     7
100
AcDbBlockReference
  2
_DOT
 10
-159.94778
 20
74.1791
 30
0.0
  0
LINE
  5
15B
330
156
100
AcDbEntity
  8
0
  6
Continuous
 62
     7
100
AcDbLine
 10
-159.94778
 20
68.711272
 30
0.0
 11
-159.94778
 21
75.37910500000002
 31
0.0
  0
TEXT
  5
15C
330
156
100
AcDbEntity
  8
0
  6
Continuous
 62
     7
100
AcDbText
 10
-177.69078
 20
74.9791
 30
0.0
 40
3.2
  1
30
 41
1.102098199999999
100
AcDbText
  0
POINT
  5
15D
330
156
100
AcDbEntity
  8
DEFPOINTS
  6
Continuous
 62
     7
100
AcDbPoint
 10
-189.9477799999999
 20
66.171272
 30
0.0
  0
POINT
  5
15E
330
156
100
AcDbEntity
  8
DEFPOINTS
  6
Continuous
 62
     7
100
AcDbPoint
 10
-159.94778
 20
66.171272
 30
0.0
  0
POINT
  5
15F
330
156
100
AcDbEntity
  8
DEFPOINTS
  6
Continuous
 62
     7
100
AcDbPoint
 10
-159.94778
 20
74.1791
 30
0.0
  0
ENDBLK
  5
160
330
156
100
AcDbEntity
  8
0
100
AcDbBlockEnd
  0
BLOCK
  5
162
330
161
100
AcDbEntity
  8
0
100
AcDbBlockBegin
  2
*D27
 70
     1
 10
0.0
 20
0.0
 30
0.0
  3
*D27
  1

  0
LINE
  5
163
330
161
100
AcDbEntity
  8
0
  6
Continuous
 62
     7
100
AcDbLine
 10
-159.94778
 20
74.1791
 30
0.0
 11
-149.94778
 21
74.1791
 31
0.0
  0
INSERT
  5
164
330
161
100
AcDbEntity
  8
0
  6
Continuous
 62
     7
100
AcDbBlockReference
  2
_DOT
 10
-159.94778
 20
74.1791
 30
0.0
 50
180.0
  0
INSERT
  5
165
330
161
100
AcDbEntity
  8
0
  6
Continuous
 62
     7
100
AcDbBlockReference
  2
_DOT
 10
-149.94778
 20
74.1791
 30
0.0
  0
LINE
  5
166
330
161
100
AcDbEntity
  8
0
  6
Continuous
 62
     7
100
AcDbLine
 10
-149.94778
 20
68.711272
 30
0.0
 11
-149.94778
 21
75.37910500000002
 31
0.0
  0
TEXT
  5
167
330
161
100
AcDbEntity
  8
0
  6
Continuous
 62
     7
100
AcDbText
 10
-157.69078
 20
74.9791
 30
0.0
 40
3.2
  1
10
 41
1.402670399999999
100
AcDbText
  0
POINT
  5
168
330
161
100
AcDbEntity
  8
DEFPOINTS
  6
Continuous
 62
     7
100
AcDbPoint
 10
-159.94778
 20
66.171272
 30
0.0
  0
POINT
  5
169
330
161
100
AcDbEntity
  8
DEFPOINTS
  6
Continuous
 62
     7
100
AcDbPoint
 10
-149.94778
 20
66.171272
 30
0.0
  0
POINT
  5
16A
330
161
100
AcDbEntity
  8
DEFPOINTS
  6
Continuous
 62
     7
100
AcDbPoint
 10
-149.94778
 20
74.1791
 30
0.0
  0
ENDBLK
  5
16B
330
161
100
AcDbEntity
  8
0
100
AcDbBlockEnd
  0
BLOCK
  5
16D
330
16C
100
AcDbEntity
  8
0
100
AcDbBlockBegin
  2
*D28
 70
     1
 10
0.0
 20
0.0
 30
0.0
  3
*D28
  1

  0
LINE
  5
16E
330
16C
100
AcDbEntity
  8
0
  6
Continuous
 62
     7
100
AcDbLine
 10
-149.94778
 20
74.1791
 30
0.0
 11
-143.9477799999998
 21
74.1791
 31
0.0
  0
INSERT
  5
16F
330
16C
100
AcDbEntity
  8
0
  6
Continuous
 62
     7
100
AcDbBlockReference
  2
_DOT
 10
-149.94778
 20
74.1791
 30
0.0
 50
180.0
  0
INSERT
  5
170
330
16C
100
AcDbEntity
  8
0
  6
Continuous
 62
     7
100
AcDbBlockReference
  2
_DOT
 10
-143.9477799999998
 20
74.1791
 30
0.0
  0
LINE
  5
171
330
16C
100
AcDbEntity
  8
0
  6
Continuous
 62
     7
100
AcDbLine
 10
-143.9477799999998
 20
66.7191
 30
0.0
 11
-143.9477799999998
 21
75.37910500000002
 31
0.0
  0
TEXT
  5
172
330
16C
100
AcDbEntity
  8
0
  6
Continuous
 62
     7
100
AcDbText
 10
-148.0907799999999
 20
74.9791
 30
0.0
 40
3.2
  1
6
100
AcDbText
  0
POINT
  5
173
330
16C
100
AcDbEntity
  8
DEFPOINTS
  6
Continuous
 62
     7
100
AcDbPoint
 10
-149.94778
 20
66.171272
 30
0.0
  0
POINT
  5
174
330
16C
100
AcDbEntity
  8
DEFPOINTS
  6
Continuous
 62
     7
100
AcDbPoint
 10
-143.9477799999998
 20
64.1791
 30
0.0
  0
POINT
  5
175
330
16C
100
AcDbEntity
  8
DEFPOINTS
  6
Continuous
 62
     7
100
AcDbPoint
 10
-143.9477799999998
 20
74.1791
 30
0.0
  0
ENDBLK
  5
176
330
16C
100
AcDbEntity
  8
0
100
AcDbBlockEnd
  0
BLOCK
  5
178
330
177
100
AcDbEntity
  8
0
100
AcDbBlockBegin
  2
*D29
 70
     1
 10
0.0
 20
0.0
 30
0.0
  3
*D29
  1

  0
LINE
  5
179
330
177
100
AcDbEntity
  8
0
  6
Continuous
 62
     7
100
AcDbLine
 10
-215.94775
 20
32.17910399999999
 30
0.0
 11
-215.94775
 21
35.17910399999998
 31
0.0
  0
INSERT
  5
17A
330
177
100
AcDbEntity
  8
0
  6
Continuous
 62
     7
100
AcDbBlockReference
  2
_DOT
 10
-215.94775
 20
32.17910399999999
 30
0.0
 50
270.0
  0
INSERT
  5
17B
330
177
100
AcDbEntity
  8
0
  6
Continuous
 62
     7
100
AcDbBlockReference
  2
_DOT
 10
-215.94775
 20
35.17910399999998
 30
0.0
 50
90.0
  0
LINE
  5
17C
330
177
100
AcDbEntity
  8
0
  6
Continuous
 62
     7
100
AcDbLine
 10
-208.48775
 20
32.17910399999999
 30
0.0
 11
-217.14774
 21
32.17910399999999
 31
0.0
  0
TEXT
  5
17D
330
177
100
AcDbEntity
  8
0
  6
Continuous
 62
     7
100
AcDbText
 10
-216.7477499999999
 20
32.53610399999999
 30
0.0
 40
3.2
  1
3
 50
90.00000300000001
100
AcDbText
  0
POINT
  5
17E
330
177
100
AcDbEntity
  8
DEFPOINTS
  6
Continuous
 62
     7
100
AcDbPoint
 10
-205.94775
 20
32.17910399999999
 30
0.0
  0
POINT
  5
17F
330
177
100
AcDbEntity
  8
DEFPOINTS
  6
Continuous
 62
     7
100
AcDbPoint
 10
-205.94775
 20
35.17910399999998
 30
0.0
  0
POINT
  5
180
330
177
100
AcDbEntity
  8
DEFPOINTS
  6
Continuous
 62
     7
100
AcDbPoint
 10
-215.94775
 20
35.17910399999998
 30
0.0
  0
ENDBLK
  5
181
330
177
100
AcDbEntity
  8
0
100
AcDbBlockEnd
  0
BLOCK
  5
183
330
182
100
AcDbEntity
  8
0
100
AcDbBlockBegin
  2
*D30
 70
     1
 10
0.0
 20
0.0
 30
0.0
  3
*D30
  1

  0
LINE
  5
184
330
182
100
AcDbEntity
  8
0
  6
Continuous
 62
     7
100
AcDbLine
 10
-215.94775
 20
35.17910399999998
 30
0.0
 11
-215.94775
 21
57.6791
 31
0.0
  0
INSERT
  5
185
330
182
100
AcDbEntity
  8
0
  6
Continuous
 62
     7
100
AcDbBlockReference
  2
_DOT
 10
-215.94775
 20
35.17910399999998
 30
0.0
 50
270.0
  0
INSERT
  5
186
330
182
100
AcDbEntity
  8
0
  6
Continuous
 62
     7
100
AcDbBlockReference
  2
_DOT
 10
-215.94775
 20
57.6791
 30
0.0
 50
90.0
  0
LINE
  5
187
330
182
100
AcDbEntity
  8
0
  6
Continuous
 62
     7
100
AcDbLine
 10
-208.48775
 20
35.17910399999998
 30
0.0
 11
-217.14774
 21
35.17910399999998
 31
0.0
  0
LINE
  5
188
330
182
100
AcDbEntity
  8
0
  6
Continuous
 62
     7
100
AcDbLine
 10
-207.5359399999999
 20
57.6791
 30
0.0
 11
-217.14774
 21
57.6791
 31
0.0
  0
TEXT
  5
189
330
182
100
AcDbEntity
  8
0
  6
Continuous
 62
     7
100
AcDbText
 10
-216.7477499999999
 20
40.486104
 30
0.0
 40
3.2
  1
22.5
 50
90.00000300000001
 41
1.238124999999999
100
AcDbText
  0
POINT
  5
18A
330
182
100
AcDbEntity
  8
DEFPOINTS
  6
Continuous
 62
     7
100
AcDbPoint
 10
-205.94775
 20
35.17910399999998
 30
0.0
  0
POINT
  5
18B
330
182
100
AcDbEntity
  8
DEFPOINTS
  6
Continuous
 62
     7
100
AcDbPoint
 10
-204.99594
 20
57.6791
 30
0.0
  0
POINT
  5
18C
330
182
100
AcDbEntity
  8
DEFPOINTS
  6
Continuous
 62
     7
100
AcDbPoint
 10
-215.94775
 20
57.6791
 30
0.0
  0
ENDBLK
  5
18D
330
182
100
AcDbEntity
  8
0
100
AcDbBlockEnd
  0
BLOCK
  5
18F
330
18E
100
AcDbEntity
  8
0
100
AcDbBlockBegin
  2
*D31
 70
     1
 10
0.0
 20
0.0
 30
0.0
  3
*D31
  1

  0
LINE
  5
190
330
18E
100
AcDbEntity
  8
0
  6
Continuous
 62
     7
100
AcDbLine
 10
-215.94775
 20
64.1791
 30
0.0
 11
-215.94775
 21
73.86627199999998
 31
0.0
  0
LINE
  5
191
330
18E
100
AcDbEntity
  8
0
  6
Continuous
 62
     7
100
AcDbLine
 10
-215.94775
 20
57.6791
 30
0.0
 11
-215.94775
 21
64.1791
 31
0.0
  0
INSERT
  5
192
330
18E
100
AcDbEntity
  8
0
  6
Continuous
 62
     7
100
AcDbBlockReference
  2
_DOT
 10
-215.94775
 20
57.6791
 30
0.0
 50
270.0
  0
INSERT
  5
193
330
18E
100
AcDbEntity
  8
0
  6
Continuous
 62
     7
100
AcDbBlockReference
  2
_DOT
 10
-215.94775
 20
64.1791
 30
0.0
 50
90.0
  0
LINE
  5
194
330
18E
100
AcDbEntity
  8
0
  6
Continuous
 62
     7
100
AcDbLine
 10
-208.48775
 20
64.1791
 30
0.0
 11
-217.14774
 21
64.1791
 31
0.0
  0
TEXT
  5
195
330
18E
100
AcDbEntity
  8
0
  6
Continuous
 62
     7
100
AcDbText
 10
-216.7477499999999
 20
65.18027
 30
0.0
 40
3.2
  1
6.5
 50
90.00000300000001
 41
1.357187499999999
100
AcDbText
  0
POINT
  5
196
330
18E
100
AcDbEntity
  8
DEFPOINTS
  6
Continuous
 62
     7
100
AcDbPoint
 10
-204.99594
 20
57.6791
 30
0.0
  0
POINT
  5
197
330
18E
100
AcDbEntity
  8
DEFPOINTS
  6
Continuous
 62
     7
100
AcDbPoint
 10
-205.94775
 20
64.1791
 30
0.0
  0
POINT
  5
198
330
18E
100
AcDbEntity
  8
DEFPOINTS
  6
Continuous
 62
     7
100
AcDbPoint
 10
-215.94775
 20
64.1791
 30
0.0
  0
ENDBLK
  5
199
330
18E
100
AcDbEntity
  8
0
100
AcDbBlockEnd
  0
BLOCK
  5
19B
330
19A
100
AcDbEntity
  8
0
100
AcDbBlockBegin
  2
*D32
 70
     1
 10
0.0
 20
0.0
 30
0.0
  3
*D32
  1

  0
LINE
  5
19C
330
19A
100
AcDbEntity
  8
0
  6
Continuous
 62
     7
100
AcDbLine
 10
-225.94775
 20
32.17910399999999
 30
0.0
 11
-225.94775
 21
64.1791
 31
0.0
  0
INSERT
  5
19D
330
19A
100
AcDbEntity
  8
0
  6
Continuous
 62
     7
100
AcDbBlockReference
  2
_DOT
 10
-225.94775
 20
32.17910399999999
 30
0.0
 50
270.0
  0
INSERT
  5
19E
330
19A
100
AcDbEntity
  8
0
  6
Continuous
 62
     7
100
AcDbBlockReference
  2
_DOT
 10
-225.94775
 20
64.1791
 30
0.0
 50
90.0
  0
LINE
  5
19F
330
19A
100
AcDbEntity
  8
0
  6
Continuous
 62
     7
100
AcDbLine
 10
-208.48775
 20
32.17910399999999
 30
0.0
 11
-227.14774
 21
32.17910399999999
 31
0.0
  0
LINE
  5
1A0
330
19A
100
AcDbEntity
  8
0
  6
Continuous
 62
     7
100
AcDbLine
 10
-208.48775
 20
64.1791
 30
0.0
 11
-227.14774
 21
64.1791
 31
0.0
  0
TEXT
  5
1A1
330
19A
100
AcDbEntity
  8
0
  6
Continuous
 62
     7
100
AcDbText
 10
-226.74775
 20
45.436104
 30
0.0
 40
3.2
  1
32
 50
90.00000300000001
 41
1.028624999999999
100
AcDbText
  0
POINT
  5
1A2
330
19A
100
AcDbEntity
  8
DEFPOINTS
  6
Continuous
 62
     7
100
AcDbPoint
 10
-205.94775
 20
32.17910399999999
 30
0.0
  0
POINT
  5
1A3
330
19A
100
AcDbEntity
  8
DEFPOINTS
  6
Continuous
 62
     7
100
AcDbPoint
 10
-205.94775
 20
64.1791
 30
0.0
  0
POINT
  5
1A4
330
19A
100
AcDbEntity
  8
DEFPOINTS
  6
Continuous
 62
     7
100
AcDbPoint
 10
-225.94775
 20
64.1791
 30
0.0
  0
ENDBLK
  5
1A5
330
19A
100
AcDbEntity
  8
0
100
AcDbBlockEnd
  0
BLOCK
  5
1A7
330
1A6
100
AcDbEntity
  8
0
100
AcDbBlockBegin
  2
*D33
 70
     1
 10
0.0
 20
0.0
 30
0.0
  3
*D33
  1

  0
LINE
  5
1A8
330
1A6
100
AcDbEntity
  8
0
  6
Continuous
 62
     7
100
AcDbLine
 10
-164.94775
 20
18.679104
 30
0.0
 11
-164.94775
 21
24.679104
 31
0.0
  0
INSERT
  5
1A9
330
1A6
100
AcDbEntity
  8
0
  6
Continuous
 62
     7
100
AcDbBlockReference
  2
_DOT
 10
-164.94775
 20
18.679104
 30
0.0
 50
270.0
  0
INSERT
  5
1AA
330
1A6
100
AcDbEntity
  8
0
  6
Continuous
 62
     7
100
AcDbBlockReference
  2
_DOT
 10
-164.94775
 20
24.679104
 30
0.0
 50
90.0
  0
LINE
  5
1AB
330
1A6
100
AcDbEntity
  8
0
  6
Continuous
 62
     7
100
AcDbLine
 10
-136.48775
 20
18.679104
 30
0.0
 11
-166.14775
 21
18.679104
 31
0.0
  0
LINE
  5
1AC
330
1A6
100
AcDbEntity
  8
0
  6
Continuous
 62
     7
100
AcDbLine
 10
-136.48775
 20
24.679104
 30
0.0
 11
-166.14775
 21
24.679104
 31
0.0
  0
TEXT
  5
1AD
330
1A6
100
AcDbEntity
  8
0
  6
Continuous
 62
     7
100
AcDbText
 10
-165.7477499999999
 20
20.536104
 30
0.0
 40
3.2
  1
6
 50
90.00000300000001
100
AcDbText
  0
POINT
  5
1AE
330
1A6
100
AcDbEntity
  8
DEFPOINTS
  6
Continuous
 62
     7
100
AcDbPoint
 10
-133.94775
 20
18.679104
 30
0.0
  0
POINT
  5
1AF
330
1A6
100
AcDbEntity
  8
DEFPOINTS
  6
Continuous
 62
     7
100
AcDbPoint
 10
-133.94775
 20
24.679104
 30
0.0
  0
POINT
  5
1B0
330
1A6
100
AcDbEntity
  8
DEFPOINTS
  6
Continuous
 62
     7
100
AcDbPoint
 10
-164.94775
 20
24.679104
 30
0.0
  0
ENDBLK
  5
1B1
330
1A6
100
AcDbEntity
  8
0
100
AcDbBlockEnd
  0
BLOCK
  5
1B3
330
1B2
100
AcDbEntity
  8
0
100
AcDbBlockBegin
  2
*D34
 70
     1
 10
0.0
 20
0.0
 30
0.0
  3
*D34
  1

  0
LINE
  5
1B4
330
1B2
100
AcDbEntity
  8
0
  6
Continuous
 62
     7
100
AcDbLine
 10
-9.447725300000001
 20
24.679104
 30
0.0
 11
-9.447725300000001
 21
26.679104
 31
0.0
  0
INSERT
  5
1B5
330
1B2
100
AcDbEntity
  8
0
  6
Continuous
 62
     7
100
AcDbBlockReference
  2
_DOT
 10
-9.447725300000001
 20
24.679104
 30
0.0
 50
270.0
  0
INSERT
  5
1B6
330
1B2
100
AcDbEntity
  8
0
  6
Continuous
 62
     7
100
AcDbBlockReference
  2
_DOT
 10
-9.447725300000001
 20
26.679104
 30
0.0
 50
90.0
  0
LINE
  5
1B7
330
1B2
100
AcDbEntity
  8
0
  6
Continuous
 62
     7
100
AcDbLine
 10
-1.9877615
 20
26.679104
 30
0.0
 11
-10.64772499999999
 21
26.679104
 31
0.0
  0
TEXT
  5
1B8
330
1B2
100
AcDbEntity
  8
0
  6
Continuous
 62
     7
100
AcDbText
 10
-10.247725
 20
24.536104
 30
0.0
 40
3.2
  1
2
 50
90.00000300000001
100
AcDbText
  0
POINT
  5
1B9
330
1B2
100
AcDbEntity
  8
DEFPOINTS
  6
Continuous
 62
     7
100
AcDbPoint
 10
35.052238
 20
24.679104
 30
0.0
  0
POINT
  5
1BA
330
1B2
100
AcDbEntity
  8
DEFPOINTS
  6
Continuous
 62
     7
100
AcDbPoint
 10
0.55223846
 20
26.679104
 30
0.0
  0
POINT
  5
1BB
330
1B2
100
AcDbEntity
  8
DEFPOINTS
  6
Continuous
 62
     7
100
AcDbPoint
 10
-9.447725300000001
 20
26.679104
 30
0.0
  0
ENDBLK
  5
1BC
330
1B2
100
AcDbEntity
  8
0
100
AcDbBlockEnd
  0
BLOCK
  5
1BE
330
1BD
100
AcDbEntity
  8
0
100
AcDbBlockBegin
  2
*D35
 70
     1
 10
0.0
 20
0.0
 30
0.0
  3
*D35
  1

  0
LINE
  5
1BF
330
1BD
100
AcDbEntity
  8
0
  6
Continuous
 62
     7
100
AcDbLine
 10
-9.447725300000001
 20
26.679104
 30
0.0
 11
-9.447725300000001
 21
36.67910399999998
 31
0.0
  0
INSERT
  5
1C0
330
1BD
100
AcDbEntity
  8
0
  6
Continuous
 62
     7
100
AcDbBlockReference
  2
_DOT
 10
-9.447725300000001
 20
26.679104
 30
0.0
 50
270.0
  0
INSERT
  5
1C1
330
1BD
100
AcDbEntity
  8
0
  6
Continuous
 62
     7
100
AcDbBlockReference
  2
_DOT
 10
-9.447725300000001
 20
36.67910399999998
 30
0.0
 50
90.0
  0
LINE
  5
1C2
330
1BD
100
AcDbEntity
  8
0
  6
Continuous
 62
     7
100
AcDbLine
 10
-1.9877252
 20
26.679104
 30
0.0
 11
-10.64772499999999
 21
26.679104
 31
0.0
  0
TEXT
  5
1C3
330
1BD
100
AcDbEntity
  8
0
  6
Continuous
 62
     7
100
AcDbText
 10
-10.247725
 20
28.936104
 30
0.0
 40
3.2
  1
10
 50
90.00000300000001
 41
1.402670399999999
100
AcDbText
  0
POINT
  5
1C4
330
1BD
100
AcDbEntity
  8
DEFPOINTS
  6
Continuous
 62
     7
100
AcDbPoint
 10
0.5522746999999999
 20
26.679104
 30
0.0
  0
POINT
  5
1C5
330
1BD
100
AcDbEntity
  8
DEFPOINTS
  6
Continuous
 62
     7
100
AcDbPoint
 10
2.297233599999999
 20
36.67910399999998
 30
0.0
  0
POINT
  5
1C6
330
1BD
100
AcDbEntity
  8
DEFPOINTS
  6
Continuous
 62
     7
100
AcDbPoint
 10
-9.447725300000001
 20
36.67910399999998
 30
0.0
  0
ENDBLK
  5
1C7
330
1BD
100
AcDbEntity
  8
0
100
AcDbBlockEnd
  0
BLOCK
  5
1C9
330
1C8
100
AcDbEntity
  8
0
100
AcDbBlockBegin
  2
*D36
 70
     1
 10
0.0
 20
0.0
 30
0.0
  3
*D36
  1

  0
LINE
  5
1CA
330
1C8
100
AcDbEntity
  8
0
  6
Continuous
 62
     7
100
AcDbLine
 10
-9.447725300000001
 20
36.67910399999998
 30
0.0
 11
-9.447725300000001
 21
52.679104
 31
0.0
  0
INSERT
  5
1CB
330
1C8
100
AcDbEntity
  8
0
  6
Continuous
 62
     7
100
AcDbBlockReference
  2
_DOT
 10
-9.447725300000001
 20
36.67910399999998
 30
0.0
 50
270.0
  0
INSERT
  5
1CC
330
1C8
100
AcDbEntity
  8
0
  6
Continuous
 62
     7
100
AcDbBlockReference
  2
_DOT
 10
-9.447725300000001
 20
52.679104
 30
0.0
 50
90.0
  0
TEXT
  5
1CD
330
1C8
100
AcDbEntity
  8
0
  6
Continuous
 62
     7
100
AcDbText
 10
-10.247725
 20
41.93610399999999
 30
0.0
 40
3.2
  1
16
 50
90.00000300000001
 41
1.285781199999997
100
AcDbText
  0
POINT
  5
1CE
330
1C8
100
AcDbEntity
  8
DEFPOINTS
  6
Continuous
 62
     7
100
AcDbPoint
 10
2.297233599999999
 20
36.67910399999998
 30
0.0
  0
POINT
  5
1CF
330
1C8
100
AcDbEntity
  8
DEFPOINTS
  6
Continuous
 62
     7
100
AcDbPoint
 10
5.087272599999998
 20
52.679104
 30
0.0
  0
POINT
  5
1D0
330
1C8
100
AcDbEntity
  8
DEFPOINTS
  6
Continuous
 62
     7
100
AcDbPoint
 10
-9.447725300000001
 20
52.679104
 30
0.0
  0
ENDBLK
  5
1D1
330
1C8
100
AcDbEntity
  8
0
100
AcDbBlockEnd
  0
BLOCK
  5
1D3
330
1D2
100
AcDbEntity
  8
0
100
AcDbBlockBegin
  2
*D37
 70
     1
 10
0.0
 20
0.0
 30
0.0
  3
*D37
  1

  0
LINE
  5
1D4
330
1D2
100
AcDbEntity
  8
0
  6
Continuous
 62
     7
100
AcDbLine
 10
-9.447725300000001
 20
52.679104
 30
0.0
 11
-9.447725300000001
 21
69.679108
 31
0.0
  0
INSERT
  5
1D5
330
1D2
100
AcDbEntity
  8
0
  6
Continuous
 62
     7
100
AcDbBlockReference
  2
_DOT
 10
-9.447725300000001
 20
52.679104
 30
0.0
 50
270.0
  0
INSERT
  5
1D6
330
1D2
100
AcDbEntity
  8
0
  6
Continuous
 62
     7
100
AcDbBlockReference
  2
_DOT
 10
-9.447725300000001
 20
69.679108
 30
0.0
 50
90.0
  0
LINE
  5
1D7
330
1D2
100
AcDbEntity
  8
0
  6
Continuous
 62
     7
100
AcDbLine
 10
7.194245399999998
 20
69.679108
 30
0.0
 11
-10.64772499999999
 21
69.679108
 31
0.0
  0
TEXT
  5
1D8
330
1D2
100
AcDbEntity
  8
0
  6
Continuous
 62
     7
100
AcDbText
 10
-10.247725
 20
58.436108
 30
0.0
 40
3.2
  1
17
 50
90.00000300000001
 41
1.285781199999997
100
AcDbText
  0
POINT
  5
1D9
330
1D2
100
AcDbEntity
  8
DEFPOINTS
  6
Continuous
 62
     7
100
AcDbPoint
 10
5.087272599999998
 20
52.679104
 30
0.0
  0
POINT
  5
1DA
330
1D2
100
AcDbEntity
  8
DEFPOINTS
  6
Continuous
 62
     7
100
AcDbPoint
 10
9.734245299999999
 20
69.679108
 30
0.0
  0
POINT
  5
1DB
330
1D2
100
AcDbEntity
  8
DEFPOINTS
  6
Continuous
 62
     7
100
AcDbPoint
 10
-9.447725300000001
 20
69.679108
 30
0.0
  0
ENDBLK
  5
1DC
330
1D2
100
AcDbEntity
  8
0
100
AcDbBlockEnd
  0
BLOCK
  5
1DE
330
1DD
100
AcDbEntity
  8
0
100
AcDbBlockBegin
  2
*D38
 70
     1
 10
0.0
 20
0.0
 30
0.0
  3
*D38
  1

  0
LINE
  5
1DF
330
1DD
100
AcDbEntity
  8
0
  6
Continuous
 62
     7
100
AcDbLine
 10
-9.447725300000001
 20
76.17911499999998
 30
0.0
 11
-9.447725300000001
 21
85.86749300000002
 31
0.0
  0
LINE
  5
1E0
330
1DD
100
AcDbEntity
  8
0
  6
Continuous
 62
     7
100
AcDbLine
 10
-9.447725300000001
 20
69.679108
 30
0.0
 11
-9.447725300000001
 21
76.17911499999998
 31
0.0
  0
INSERT
  5
1E1
330
1DD
100
AcDbEntity
  8
0
  6
Continuous
 62
     7
100
AcDbBlockReference
  2
_DOT
 10
-9.447725300000001
 20
69.679108
 30
0.0
 50
270.0
  0
INSERT
  5
1E2
330
1DD
100
AcDbEntity
  8
0
  6
Continuous
 62
     7
100
AcDbBlockReference
  2
_DOT
 10
-9.447725300000001
 20
76.17911499999998
 30
0.0
 50
90.0
  0
LINE
  5
1E3
330
1DD
100
AcDbEntity
  8
0
  6
Continuous
 62
     7
100
AcDbLine
 10
15.012239
 20
76.17911499999998
 30
0.0
 11
-10.64772499999999
 21
76.17911499999998
 31
0.0
  0
TEXT
  5
1E4
330
1DD
100
AcDbEntity
  8
0
  6
Continuous
 62
     7
100
AcDbText
 10
-10.247725
 20
77.18149
 30
0.0
 40
3.2
  1
6.5
 50
90.00000300000001
 41
1.357187499999999
100
AcDbText
  0
POINT
  5
1E5
330
1DD
100
AcDbEntity
  8
DEFPOINTS
  6
Continuous
 62
     7
100
AcDbPoint
 10
9.734245299999999
 20
69.679108
 30
0.0
  0
POINT
  5
1E6
330
1DD
100
AcDbEntity
  8
DEFPOINTS
  6
Continuous
 62
     7
100
AcDbPoint
 10
17.552238
 20
76.17911499999998
 30
0.0
  0
POINT
  5
1E7
330
1DD
100
AcDbEntity
  8
DEFPOINTS
  6
Continuous
 62
     7
100
AcDbPoint
 10
-9.447725300000001
 20
76.17911499999998
 30
0.0
  0
ENDBLK
  5
1E8
330
1DD
100
AcDbEntity
  8
0
100
AcDbBlockEnd
  0
BLOCK
  5
1EA
330
1E9
100
AcDbEntity
  8
0
100
AcDbBlockBegin
  2
*D39
 70
     1
 10
0.0
 20
0.0
 30
0.0
  3
*D39
  1

  0
LINE
  5
1EB
330
1E9
100
AcDbEntity
  8
0
  6
Continuous
 62
     7
100
AcDbLine
 10
-164.94775
 20
8.179104799999999
 30
0.0
 11
-164.94775
 21
17.679104
 31
0.0
  0
INSERT
  5
1EC
330
1E9
100
AcDbEntity
  8
0
  6
Continuous
 62
     7
100
AcDbBlockReference
  2
_DOT
 10
-164.94775
 20
8.179104799999999
 30
0.0
 50
270.0
  0
INSERT
  5
1ED
330
1E9
100
AcDbEntity
  8
0
  6
Continuous
 62
     7
100
AcDbBlockReference
  2
_DOT
 10
-164.94775
 20
17.679104
 30
0.0
 50
90.0
  0
LINE
  5
1EE
330
1E9
100
AcDbEntity
  8
0
  6
Continuous
 62
     7
100
AcDbLine
 10
-156.61947
 20
8.179104799999999
 30
0.0
 11
-166.14775
 21
8.179104799999999
 31
0.0
  0
LINE
  5
1EF
330
1E9
100
AcDbEntity
  8
0
  6
Continuous
 62
     7
100
AcDbLine
 10
-157.48775
 20
17.679104
 30
0.0
 11
-166.14775
 21
17.679104
 31
0.0
  0
TEXT
  5
1F0
330
1E9
100
AcDbEntity
  8
0
  6
Continuous
 62
     7
100
AcDbText
 10
-165.7477499999999
 20
8.5861038
 30
0.0
 40
3.2
  1
9.5
 50
90.00000300000001
 41
1.357187499999999
100
AcDbText
  0
POINT
  5
1F1
330
1E9
100
AcDbEntity
  8
DEFPOINTS
  6
Continuous
 62
     7
100
AcDbPoint
 10
-154.07947
 20
8.179104799999999
 30
0.0
  0
POINT
  5
1F2
330
1E9
100
AcDbEntity
  8
DEFPOINTS
  6
Continuous
 62
     7
100
AcDbPoint
 10
-154.94775
 20
17.679104
 30
0.0
  0
POINT
  5
1F3
330
1E9
100
AcDbEntity
  8
DEFPOINTS
  6
Continuous
 62
     7
100
AcDbPoint
 10
-164.94775
 20
17.679104
 30
0.0
  0
ENDBLK
  5
1F4
330
1E9
100
AcDbEntity
  8
0
100
AcDbBlockEnd
  0
BLOCK
  5
1F6
330
1F5
100
AcDbEntity
  8
0
100
AcDbBlockBegin
  2
KOZU0001
 70
     0
 10
0.0
 20
0.0
 30
0.0
  3
KOZU0001
  1

  0
LINE
  5
1F7
330
1F5
100
AcDbEntity
  8
0
  6
Continuous
 62
     7
100
AcDbLine
 10
0.0
 20
0.0
 30
0.0
 11
16.497574
 21
20.718868
 31
0.0
  0
LINE
  5
1F8
330
1F5
100
AcDbEntity
  8
0
  6
Continuous
 62
     7
100
AcDbLine
 10
16.497574
 20
20.718868
 30
0.0
 11
63.2873
 21
20.718868
 31
0.0
  0
LINE
  5
1F9
330
1F5
100
AcDbEntity
  8
0
  6
Continuous
 62
     7
100
AcDbLine
 10
0.0
 20
0.0
 30
0.0
 11
1.086431399999999
 21
2.969792299999998
 31
0.0
  0
LINE
  5
1FA
330
1F5
100
AcDbEntity
  8
0
  6
Continuous
 62
     7
100
AcDbLine
 10
0.0
 20
0.0
 30
0.0
 11
2.6510205
 21
1.723975
 31
0.0
  0
TEXT
  5
1FB
330
1F5
100
AcDbEntity
  8
0
  6
Continuous
 62
     7
100
AcDbText
 10
18.487303
 20
21.518876
 30
0.0
 40
3.2
  1
４－%%C５．５×８．５スロット
 41
0.84326962
100
AcDbText
  0
ENDBLK
  5
1FC
330
1F5
100
AcDbEntity
  8
0
100
AcDbBlockEnd
  0
BLOCK
  5
488
330
486
100
AcDbEntity
  8
0
100
AcDbBlockBegin
  2
GENAXEH
 70
     0
 10
0.0
 20
0.0
 30
0.0
  3
GENAXEH
  1

  0
LINE
  5
487
330
486
100
AcDbEntity
  8
0
100
AcDbLine
 10
-1.0
 20
0.0
 30
0.0
 11
1.0
 21
0.0
 31
0.0
  0
ENDBLK
  5
489
330
486
100
AcDbEntity
  8
0
100
AcDbBlockEnd
  0
BLOCK
  5
4EB
330
4E3
100
AcDbEntity
  8
0
100
AcDbBlockBegin
  2
*D42
 70
     1
 10
0.0
 20
0.0
 30
0.0
  3
*D42
  1

  0
LINE
  5
527
330
4E3
100
AcDbEntity
  8
0
  6
Continuous
 62
     0
370
    -2
100
AcDbLine
 10
102.0522399999999
 20
149.9930699999999
 30
0.0
 11
-183.94775
 21
149.9930699999999
 31
0.0
  0
SOLID
  5
528
330
4E3
100
AcDbEntity
  8
0
  6
Continuous
 62
     0
100
AcDbTrace
 10
102.0522399999999
 20
150.1597366666665
 30
0.0
 11
102.0522399999999
 21
149.8264033333332
 31
0.0
 12
103.0522399999999
 22
149.9930699999999
 32
0.0
 13
103.0522399999999
 23
149.9930699999999
 33
0.0
  0
SOLID
  5
529
330
4E3
100
AcDbEntity
  8
0
  6
Continuous
 62
     0
100
AcDbTrace
 10
-183.94775
 20
150.1597366666665
 30
0.0
 11
-183.94775
 21
149.8264033333332
 31
0.0
 12
-184.94775
 22
149.9930699999999
 32
0.0
 13
-184.94775
 23
149.9930699999999
 33
0.0
  0
POINT
  5
52A
330
4E3
100
AcDbEntity
  8
DEFPOINTS
  6
Continuous
 62
     0
100
AcDbPoint
 10
103.0522399999999
 20
180.9930699999999
 30
0.0
  0
POINT
  5
52B
330
4E3
100
AcDbEntity
  8
DEFPOINTS
  6
Continuous
 62
     0
100
AcDbPoint
 10
-184.94775
 20
180.9930699999999
 30
0.0
  0
POINT
  5
52C
330
4E3
100
AcDbEntity
  8
DEFPOINTS
  6
Continuous
 62
     0
100
AcDbPoint
 10
-184.94775
 20
149.9930699999999
 30
0.0
  0
ENDBLK
  5
4EC
330
4E3
100
AcDbEntity
  8
0
100
AcDbBlockEnd
  0
BLOCK
  5
53C
330
530
100
AcDbEntity
  8
0
100
AcDbBlockBegin
  2
*D43
 70
     1
 10
0.0
 20
0.0
 30
0.0
  3
*D43
  1

  0
LINE
  5
53F
330
530
100
AcDbEntity
  8
0
  6
Continuous
 62
     0
370
    -2
100
AcDbLine
 10
-184.94775
 20
178.4530699999999
 30
0.0
 11
-184.94775
 21
147.4530699999999
 31
0.0
  0
LINE
  5
540
330
530
100
AcDbEntity
  8
0
  6
Continuous
 62
     0
370
    -2
100
AcDbLine
 10
-186.94775
 20
179.4530699999999
 30
0.0
 11
-186.94775
 21
147.4530699999999
 31
0.0
  0
LINE
  5
541
330
530
100
AcDbEntity
  8
0
  6
Continuous
 62
     0
370
    -2
100
AcDbLine
 10
-183.94775
 20
149.9930699999999
 30
0.0
 11
-182.94775
 21
149.9930699999999
 31
0.0
  0
LINE
  5
542
330
530
100
AcDbEntity
  8
0
  6
Continuous
 62
     0
370
    -2
100
AcDbLine
 10
-187.94775
 20
149.9930699999999
 30
0.0
 11
-188.94775
 21
149.9930699999999
 31
0.0
  0
MTEXT
  5
543
330
530
100
AcDbEntity
  8
0
  6
Continuous
 62
     0
100
AcDbMText
 10
-190.5302737036104
 20
152.4635787319496
 30
0.0
 40
3.2
 41
0.0
 71
     5
 72
     1
  1
\A1;2
 73
     1
 44
1.0
  0
LINE
  5
544
330
530
100
AcDbEntity
  8
0
  6
Continuous
 62
     0
370
    -2
100
AcDbLine
 10
-184.94775
 20
149.9930699999999
 30
0.0
 11
-186.94775
 21
149.9930699999999
 31
0.0
  0
SOLID
  5
545
330
530
100
AcDbEntity
  8
0
  6
Continuous
 62
     0
100
AcDbTrace
 10
-183.94775
 20
150.1597366666665
 30
0.0
 11
-183.94775
 21
149.8264033333332
 31
0.0
 12
-184.94775
 22
149.9930699999999
 32
0.0
 13
-184.94775
 23
149.9930699999999
 33
0.0
  0
SOLID
  5
546
330
530
100
AcDbEntity
  8
0
  6
Continuous
 62
     0
100
AcDbTrace
 10
-187.94775
 20
150.1597366666665
 30
0.0
 11
-187.94775
 21
149.8264033333332
 31
0.0
 12
-186.94775
 22
149.9930699999999
 32
0.0
 13
-186.94775
 23
149.9930699999999
 33
0.0
  0
POINT
  5
547
330
530
100
AcDbEntity
  8
DEFPOINTS
  6
Continuous
 62
     0
100
AcDbPoint
 10
-184.94775
 20
180.9930699999999
 30
0.0
  0
POINT
  5
548
330
530
100
AcDbEntity
  8
DEFPOINTS
  6
Continuous
 62
     0
100
AcDbPoint
 10
-186.94775
 20
181.99307
 30
0.0
  0
POINT
  5
549
330
530
100
AcDbEntity
  8
DEFPOINTS
  6
Continuous
 62
     0
100
AcDbPoint
 10
-186.94775
 20
149.9930699999999
 30
0.0
  0
ENDBLK
  5
53D
330
530
100
AcDbEntity
  8
0
100
AcDbBlockEnd
  0
BLOCK
  5
557
330
54B
100
AcDbEntity
  8
0
100
AcDbBlockBegin
  2
*D44
 70
     1
 10
0.0
 20
0.0
 30
0.0
  3
*D44
  1

  0
LINE
  5
565
330
54B
100
AcDbEntity
  8
0
  6
Continuous
 62
     0
370
    -2
100
AcDbLine
 10
103.0522399999999
 20
178.4530699999999
 30
0.0
 11
103.0522399999999
 21
147.4530699999999
 31
0.0
  0
LINE
  5
566
330
54B
100
AcDbEntity
  8
0
  6
Continuous
 62
     0
370
    -2
100
AcDbLine
 10
105.0522399999999
 20
179.4530699999999
 30
0.0
 11
105.0522399999999
 21
147.4530699999999
 31
0.0
  0
LINE
  5
567
330
54B
100
AcDbEntity
  8
0
  6
Continuous
 62
     0
370
    -2
100
AcDbLine
 10
102.0522399999999
 20
149.9930699999999
 30
0.0
 11
101.0522399999999
 21
149.9930699999999
 31
0.0
  0
LINE
  5
568
330
54B
100
AcDbEntity
  8
0
  6
Continuous
 62
     0
370
    -2
100
AcDbLine
 10
106.0522399999999
 20
149.9930699999999
 30
0.0
 11
107.0522399999999
 21
149.9930699999999
 31
0.0
  0
MTEXT
  5
569
330
54B
100
AcDbEntity
  8
0
  6
Continuous
 62
     0
100
AcDbMText
 10
108.7618263500144
 20
152.4771212258942
 30
0.0
 40
3.2
 41
0.0
 71
     5
 72
     1
  1
\A1;2
 73
     1
 44
1.0
  0
LINE
  5
56A
330
54B
100
AcDbEntity
  8
0
  6
Continuous
 62
     0
370
    -2
100
AcDbLine
 10
103.0522399999999
 20
149.9930699999999
 30
0.0
 11
105.0522399999999
 21
149.9930699999999
 31
0.0
  0
SOLID
  5
56B
330
54B
100
AcDbEntity
  8
0
  6
Continuous
 62
     0
100
AcDbTrace
 10
102.0522399999999
 20
150.1597366666665
 30
0.0
 11
102.0522399999999
 21
149.8264033333332
 31
0.0
 12
103.0522399999999
 22
149.9930699999999
 32
0.0
 13
103.0522399999999
 23
149.9930699999999
 33
0.0
  0
SOLID
  5
56C
330
54B
100
AcDbEntity
  8
0
  6
Continuous
 62
     0
100
AcDbTrace
 10
106.0522399999999
 20
150.1597366666665
 30
0.0
 11
106.0522399999999
 21
149.8264033333332
 31
0.0
 12
105.0522399999999
 22
149.9930699999999
 32
0.0
 13
105.0522399999999
 23
149.9930699999999
 33
0.0
  0
POINT
  5
56D
330
54B
100
AcDbEntity
  8
DEFPOINTS
  6
Continuous
 62
     0
100
AcDbPoint
 10
103.0522399999999
 20
180.9930699999999
 30
0.0
  0
POINT
  5
56E
330
54B
100
AcDbEntity
  8
DEFPOINTS
  6
Continuous
 62
     0
100
AcDbPoint
 10
105.0522399999999
 20
181.99307
 30
0.0
  0
POINT
  5
56F
330
54B
100
AcDbEntity
  8
DEFPOINTS
  6
Continuous
 62
     0
100
AcDbPoint
 10
105.0522399999999
 20
149.9930699999999
 30
0.0
  0
ENDBLK
  5
558
330
54B
100
AcDbEntity
  8
0
100
AcDbBlockEnd
  0
ENDSEC
  0
SECTION
  2
ENTITIES
  0
POINT
  5
1FD
330
20
100
AcDbEntity
  8
0
  6
Continuous
 62
     7
100
AcDbPoint
 10
-328.8326099999999
 20
234.35812
 30
0.0
  0
LINE
  5
1FE
330
20
100
AcDbEntity
  8
0
  6
Continuous
 62
     7
100
AcDbLine
 10
170.0
 20
294.4999999999998
 30
0.0
 11
170.0
 21
-100.0
 31
0.0
  0
LINE
  5
1FF
330
20
100
AcDbEntity
  8
0
  6
Continuous
 62
     7
100
AcDbLine
 10
-385.0
 20
-100.0
 30
0.0
 11
170.0
 21
-100.0
 31
0.0
  0
LINE
  5
200
330
20
100
AcDbEntity
  8
0
  6
Continuous
 62
     7
100
AcDbLine
 10
-385.0
 20
294.4999999999998
 30
0.0
 11
170.0
 21
294.4999999999998
 31
0.0
  0
LINE
  5
201
330
20
100
AcDbEntity
  8
0
  6
Continuous
 62
     7
100
AcDbLine
 10
-385.0
 20
294.4999999999998
 30
0.0
 11
-385.0
 21
-100.0
 31
0.0
  0
LINE
  5
202
330
20
100
AcDbEntity
  8
0
  6
Continuous
 62
     7
100
AcDbLine
 10
-365.0
 20
294.4999999999998
 30
0.0
 11
-365.0
 21
182.5
 31
0.0
  0
LINE
  5
203
330
20
100
AcDbEntity
  8
0
  6
Continuous
 62
     7
100
AcDbLine
 10
-385.0
 20
286.5
 30
0.0
 11
-275.0
 21
286.5
 31
0.0
  0
LINE
  5
204
330
20
100
AcDbEntity
  8
0
  6
Continuous
 62
     7
100
AcDbLine
 10
-385.0
 20
278.5
 30
0.0
 11
-275.0
 21
278.5
 31
0.0
  0
LINE
  5
205
330
20
100
AcDbEntity
  8
0
  6
Continuous
 62
     7
100
AcDbLine
 10
-385.0
 20
262.5
 30
0.0
 11
-275.0
 21
262.5
 31
0.0
  0
LINE
  5
206
330
20
100
AcDbEntity
  8
0
  6
Continuous
 62
     7
100
AcDbLine
 10
-365.0
 20
246.4999999999999
 30
0.0
 11
-275.0
 21
246.4999999999999
 31
0.0
  0
LINE
  5
207
330
20
100
AcDbEntity
  8
0
  6
Continuous
 62
     7
100
AcDbLine
 10
-365.0
 20
230.5
 30
0.0
 11
-275.0
 21
230.5
 31
0.0
  0
LINE
  5
208
330
20
100
AcDbEntity
  8
0
  6
Continuous
 62
     7
100
AcDbLine
 10
-365.0
 20
222.5
 30
0.0
 11
-275.0
 21
222.5
 31
0.0
  0
LINE
  5
209
330
20
100
AcDbEntity
  8
0
  6
Continuous
 62
     7
100
AcDbLine
 10
-385.0
 20
214.5
 30
0.0
 11
-275.0
 21
214.5
 31
0.0
  0
LINE
  5
20A
330
20
100
AcDbEntity
  8
0
  6
Continuous
 62
     7
100
AcDbLine
 10
-365.0
 20
206.4999999999999
 30
0.0
 11
-275.0
 21
206.4999999999999
 31
0.0
  0
LINE
  5
20B
330
20
100
AcDbEntity
  8
0
  6
Continuous
 62
     7
100
AcDbLine
 10
-365.0
 20
198.5
 30
0.0
 11
-275.0
 21
198.5
 31
0.0
  0
LINE
  5
20C
330
20
100
AcDbEntity
  8
0
  6
Continuous
 62
     7
100
AcDbLine
 10
-365.0
 20
190.5
 30
0.0
 11
-275.0
 21
190.5
 31
0.0
  0
LINE
  5
20D
330
20
100
AcDbEntity
  8
0
  6
Continuous
 62
     7
100
AcDbLine
 10
-385.0
 20
294.4999999999998
 30
0.0
 11
-385.0
 21
214.5
 31
0.0
  0
LINE
  5
20E
330
20
100
AcDbEntity
  8
0
  6
Continuous
 62
     7
100
AcDbLine
 10
-385.0
 20
294.4999999999998
 30
0.0
 11
-275.0
 21
294.4999999999998
 31
0.0
  0
LINE
  5
20F
330
20
100
AcDbEntity
  8
0
  6
Continuous
 62
     7
100
AcDbLine
 10
-275.0
 20
294.4999999999998
 30
0.0
 11
-275.0
 21
182.5
 31
0.0
  0
LINE
  5
210
330
20
100
AcDbEntity
  8
0
  6
Continuous
 62
     7
100
AcDbLine
 10
-385.0
 20
-100.0
 30
0.0
 11
-275.0
 21
-100.0
 31
0.0
  0
LINE
  5
211
330
20
100
AcDbEntity
  8
0
  6
Continuous
 62
     7
100
AcDbLine
 10
-385.0
 20
-20.0
 30
0.0
 11
-385.0
 21
-100.0
 31
0.0
  0
LINE
  5
212
330
20
100
AcDbEntity
  8
0
  6
Continuous
 62
     7
100
AcDbLine
 10
-385.0
 20
182.5
 30
0.0
 11
-275.0
 21
182.5
 31
0.0
  0
LINE
  5
213
330
20
100
AcDbEntity
  8
0
  6
Continuous
 62
     7
100
AcDbLine
 10
-365.0
 20
254.4999999999999
 30
0.0
 11
-275.0
 21
254.4999999999999
 31
0.0
  0
LINE
  5
214
330
20
100
AcDbEntity
  8
0
  6
Continuous
 62
     7
100
AcDbLine
 10
-385.0
 20
238.5
 30
0.0
 11
-275.0
 21
238.5
 31
0.0
  0
LINE
  5
215
330
20
100
AcDbEntity
  8
0
  6
CENTER
 62
     7
100
AcDbLine
 10
-123.94776
 20
204.3139299999999
 30
0.0
 11
-123.94776
 21
173.3304099999999
 31
0.0
  0
LINE
  5
216
330
20
100
AcDbEntity
  8
0
  6
Continuous
 62
     7
100
AcDbLine
 10
-154.94775
 20
17.679104
 30
0.0
 11
-154.94775
 21
1.679104399999999
 31
0.0
  0
LINE
  5
217
330
20
100
AcDbEntity
  8
0
  6
Continuous
 62
     7
100
AcDbLine
 10
-146.19775
 20
9.679104799999999
 30
0.0
 11
-146.19775
 21
6.6791043
 31
0.0
  0
LINE
  5
218
330
20
100
AcDbEntity
  8
0
  6
Continuous
 62
     7
100
AcDbLine
 10
-92.94776199999999
 20
17.679104
 30
0.0
 11
-92.94776199999999
 21
1.679104399999999
 31
0.0
  0
LINE
  5
219
330
20
100
AcDbEntity
  8
0
  6
CENTER
 62
     7
100
AcDbLine
 10
-94.154549
 20
8.179104799999999
 30
0.0
 11
-113.99854
 21
8.179104799999999
 31
0.0
  0
LINE
  5
21A
330
20
100
AcDbEntity
  8
0
  6
Continuous
 62
     7
100
AcDbLine
 10
-151.69775
 20
9.679104799999999
 30
0.0
 11
-151.69775
 21
6.6791043
 31
0.0
  0
LINE
  5
21B
330
20
100
AcDbEntity
  8
0
  6
CENTER
 62
     7
100
AcDbLine
 10
-123.94776
 20
27.37777299999999
 30
0.0
 11
-123.94776
 21
-2.529269499999998
 31
0.0
  0
LINE
  5
21C
330
20
100
AcDbEntity
  8
0
  6
Continuous
 62
     7
100
AcDbLine
 10
-92.94776199999999
 20
17.679104
 30
0.0
 11
-154.94775
 21
17.679104
 31
0.0
  0
LINE
  5
21D
330
20
100
AcDbEntity
  8
0
  6
Continuous
 62
     7
100
AcDbLine
 10
-92.94776199999999
 20
1.679104399999999
 30
0.0
 11
-154.94775
 21
1.679104399999999
 31
0.0
  0
LINE
  5
21E
330
20
100
AcDbEntity
  8
0
  6
Continuous
 62
     7
100
AcDbLine
 10
-92.94776199999999
 20
14.67910499999999
 30
0.0
 11
-154.94775
 21
14.67910499999999
 31
0.0
  0
LINE
  5
21F
330
20
100
AcDbEntity
  8
0
  6
CENTER
 62
     7
100
AcDbLine
 10
-148.94775
 20
14.77233599999999
 30
0.0
 11
-148.94775
 21
0.6838652500000002
 31
0.0
  0
LINE
  5
220
330
20
100
AcDbEntity
  8
0
  6
PHANTOM
 62
     7
100
AcDbLine
 10
-330.9477499999998
 20
32.67910399999998
 30
0.0
 11
-317.9477499999998
 21
32.67910399999998
 31
0.0
  0
LINE
  5
221
330
20
100
AcDbEntity
  8
0
  6
PHANTOM
 62
     7
100
AcDbLine
 10
-307.9477499999998
 20
35.17910399999998
 30
0.0
 11
-307.9477499999998
 21
28.67910399999999
 31
0.0
  0
LINE
  5
222
330
20
100
AcDbEntity
  8
0
  6
CENTER
 62
     7
100
AcDbLine
 10
-282.9477499999999
 20
80.464111
 30
0.0
 11
-282.9477499999999
 21
5.273098499999997
 31
0.0
  0
LINE
  5
223
330
20
100
AcDbEntity
  8
0
  6
PHANTOM
 62
     7
100
AcDbLine
 10
-309.9477499999998
 20
68.679108
 30
0.0
 11
-338.9477499999998
 21
68.679108
 31
0.0
  0
LINE
  5
224
330
20
100
AcDbEntity
  8
0
  6
PHANTOM
 62
     7
100
AcDbLine
 10
-338.9477499999998
 20
68.679108
 30
0.0
 11
-338.9477499999998
 21
34.67910399999999
 31
0.0
  0
LINE
  5
225
330
20
100
AcDbEntity
  8
0
  6
PHANTOM
 62
     7
100
AcDbLine
 10
-338.9477499999998
 20
34.67910399999999
 30
0.0
 11
-309.9477499999998
 21
34.67910399999999
 31
0.0
  0
LINE
  5
226
330
20
100
AcDbEntity
  8
0
  6
PHANTOM
 62
     7
100
AcDbLine
 10
-309.9477499999998
 20
34.67910399999999
 30
0.0
 11
-309.9477499999998
 21
68.679108
 31
0.0
  0
LINE
  5
227
330
20
100
AcDbEntity
  8
0
  6
PHANTOM
 62
     7
100
AcDbLine
 10
-332.9477499999998
 20
32.67910399999998
 30
0.0
 11
-332.9477499999998
 21
30.679104
 31
0.0
  0
LINE
  5
228
330
20
100
AcDbEntity
  8
0
  6
PHANTOM
 62
     7
100
AcDbLine
 10
-333.4477499999998
 20
28.67910399999999
 30
0.0
 11
-330.9477499999998
 21
28.67910399999999
 31
0.0
  0
LINE
  5
229
330
20
100
AcDbEntity
  8
0
  6
PHANTOM
 62
     7
100
AcDbLine
 10
-330.9477499999998
 20
28.67910399999999
 30
0.0
 11
-330.9477499999998
 21
32.67910399999998
 31
0.0
  0
LINE
  5
22A
330
20
100
AcDbEntity
  8
0
  6
PHANTOM
 62
     7
100
AcDbLine
 10
-315.9477499999998
 20
32.67910399999998
 30
0.0
 11
-315.9477499999998
 21
30.679104
 31
0.0
  0
LINE
  5
22B
330
20
100
AcDbEntity
  8
0
  6
PHANTOM
 62
     7
100
AcDbLine
 10
-315.44775
 20
28.67910399999999
 30
0.0
 11
-317.9477499999998
 21
28.67910399999999
 31
0.0
  0
LINE
  5
22C
330
20
100
AcDbEntity
  8
0
  6
PHANTOM
 62
     7
100
AcDbLine
 10
-317.9477499999998
 20
28.67910399999999
 30
0.0
 11
-317.9477499999998
 21
32.67910399999998
 31
0.0
  0
LINE
  5
22D
330
20
100
AcDbEntity
  8
0
  6
PHANTOM
 62
     7
100
AcDbLine
 10
-315.9477499999998
 20
32.67910399999998
 30
0.0
 11
-309.9477499999998
 21
32.67910399999998
 31
0.0
  0
LINE
  5
22E
330
20
100
AcDbEntity
  8
0
  6
PHANTOM
 62
     7
100
AcDbLine
 10
-309.9477499999998
 20
32.67910399999998
 30
0.0
 11
-309.9477499999998
 21
28.67910399999999
 31
0.0
  0
LINE
  5
22F
330
20
100
AcDbEntity
  8
0
  6
PHANTOM
 62
     7
100
AcDbLine
 10
-309.9477499999998
 20
28.67910399999999
 30
0.0
 11
-307.9477499999998
 21
28.67910399999999
 31
0.0
  0
LINE
  5
230
330
20
100
AcDbEntity
  8
0
  6
PHANTOM
 62
     7
100
AcDbLine
 10
-307.9477499999998
 20
84.679108
 30
0.0
 11
-317.9477499999998
 21
84.679108
 31
0.0
  0
LINE
  5
231
330
20
100
AcDbEntity
  8
0
  6
PHANTOM
 62
     7
100
AcDbLine
 10
-317.9477499999998
 20
84.679108
 30
0.0
 11
-317.9477499999998
 21
82.67910800000001
 31
0.0
  0
LINE
  5
232
330
20
100
AcDbEntity
  8
0
  6
PHANTOM
 62
     7
100
AcDbLine
 10
-317.9477499999998
 20
82.67910800000001
 30
0.0
 11
-309.9477499999998
 21
82.67910800000001
 31
0.0
  0
LINE
  5
233
330
20
100
AcDbEntity
  8
0
  6
PHANTOM
 62
     7
100
AcDbLine
 10
-309.9477499999998
 20
82.67910800000001
 30
0.0
 11
-309.9477499999998
 21
70.67910799999999
 31
0.0
  0
LINE
  5
234
330
20
100
AcDbEntity
  8
0
  6
PHANTOM
 62
     7
100
AcDbLine
 10
-309.9477499999998
 20
70.67910799999999
 30
0.0
 11
-338.9477499999998
 21
70.67910799999999
 31
0.0
  0
LINE
  5
235
330
20
100
AcDbEntity
  8
0
  6
PHANTOM
 62
     7
100
AcDbLine
 10
-338.9477499999998
 20
70.67910799999999
 30
0.0
 11
-338.9477499999998
 21
82.67910800000001
 31
0.0
  0
LINE
  5
236
330
20
100
AcDbEntity
  8
0
  6
PHANTOM
 62
     7
100
AcDbLine
 10
-338.9477499999998
 20
82.67910800000001
 30
0.0
 11
-330.9477499999998
 21
82.67910800000001
 31
0.0
  0
LINE
  5
237
330
20
100
AcDbEntity
  8
0
  6
PHANTOM
 62
     7
100
AcDbLine
 10
-330.9477499999998
 20
82.67910800000001
 30
0.0
 11
-330.9477499999998
 21
84.679108
 31
0.0
  0
LINE
  5
238
330
20
100
AcDbEntity
  8
0
  6
PHANTOM
 62
     7
100
AcDbLine
 10
-330.9477499999998
 20
84.679108
 30
0.0
 11
-340.9477499999998
 21
84.679108
 31
0.0
  0
LINE
  5
239
330
20
100
AcDbEntity
  8
0
  6
PHANTOM
 62
     7
100
AcDbLine
 10
-340.9477499999998
 20
84.679108
 30
0.0
 11
-340.9477499999998
 21
28.67910399999999
 31
0.0
  0
LINE
  5
23A
330
20
100
AcDbEntity
  8
0
  6
PHANTOM
 62
     7
100
AcDbLine
 10
-340.9477499999998
 20
28.67910399999999
 30
0.0
 11
-338.9477499999998
 21
28.67910399999999
 31
0.0
  0
LINE
  5
23B
330
20
100
AcDbEntity
  8
0
  6
PHANTOM
 62
     7
100
AcDbLine
 10
-338.9477499999998
 20
28.67910399999999
 30
0.0
 11
-338.9477499999998
 21
32.67910399999998
 31
0.0
  0
LINE
  5
23C
330
20
100
AcDbEntity
  8
0
  6
PHANTOM
 62
     7
100
AcDbLine
 10
-338.9477499999998
 20
32.67910399999998
 30
0.0
 11
-332.9477499999998
 21
32.67910399999998
 31
0.0
  0
LINE
  5
23D
330
20
100
AcDbEntity
  8
0
  6
PHANTOM
 62
     7
100
AcDbLine
 10
-302.94775
 20
22.49499099999999
 30
0.0
 11
-302.94775
 21
14.67910499999999
 31
0.0
  0
LINE
  5
23E
330
20
100
AcDbEntity
  8
0
  6
Continuous
 62
     7
100
AcDbLine
 10
-299.9477499999998
 20
17.679104
 30
0.0
 11
-272.4477499999999
 21
17.679104
 31
0.0
  0
LINE
  5
23F
330
20
100
AcDbEntity
  8
0
  6
Continuous
 62
     7
100
AcDbLine
 10
-272.4477499999999
 20
17.679104
 30
0.0
 11
-272.4477499999999
 21
14.17910499999999
 31
0.0
  0
LINE
  5
240
330
20
100
AcDbEntity
  8
0
  6
Continuous
 62
     7
100
AcDbLine
 10
-299.4477499999998
 20
14.17910499999999
 30
0.0
 11
-272.4477499999999
 21
14.17910499999999
 31
0.0
  0
LINE
  5
241
330
20
100
AcDbEntity
  8
0
  6
PHANTOM
 62
     7
100
AcDbLine
 10
-340.9477499999998
 20
22.49499099999999
 30
0.0
 11
-340.9477499999998
 21
-17.679996
 31
0.0
  0
LINE
  5
242
330
20
100
AcDbEntity
  8
0
  6
PHANTOM
 62
     7
100
AcDbLine
 10
-338.9477499999998
 20
0.4949919300000003
 30
0.0
 11
-304.94775
 21
0.4949919300000003
 31
0.0
  0
LINE
  5
243
330
20
100
AcDbEntity
  8
0
  6
PHANTOM
 62
     7
100
AcDbLine
 10
-338.9477499999998
 20
20.49499099999998
 30
0.0
 11
-338.9477499999998
 21
0.4949919300000003
 31
0.0
  0
LINE
  5
244
330
20
100
AcDbEntity
  8
0
  6
PHANTOM
 62
     7
100
AcDbLine
 10
-338.9477499999998
 20
20.49499099999998
 30
0.0
 11
-304.94775
 21
20.49499099999998
 31
0.0
  0
LINE
  5
245
330
20
100
AcDbEntity
  8
0
  6
PHANTOM
 62
     7
100
AcDbLine
 10
-340.9477499999998
 20
22.49499099999999
 30
0.0
 11
-302.94775
 21
22.49499099999999
 31
0.0
  0
LINE
  5
246
330
20
100
AcDbEntity
  8
0
  6
PHANTOM
 62
     7
100
AcDbLine
 10
-307.9477499999998
 20
84.679108
 30
0.0
 11
-307.9477499999998
 21
64.179108
 31
0.0
  0
LINE
  5
247
330
20
100
AcDbEntity
  8
0
  6
PHANTOM
 62
     7
100
AcDbLine
 10
-338.9477499999998
 20
-1.505008099999999
 30
0.0
 11
-304.94775
 21
-1.505008099999999
 31
0.0
  0
LINE
  5
248
330
20
100
AcDbEntity
  8
0
  6
CENTER
 62
     7
100
AcDbLine
 10
-304.94775
 20
20.49499099999998
 30
0.0
 11
-304.94775
 21
0.4949919300000003
 31
0.0
  0
LINE
  5
249
330
20
100
AcDbEntity
  8
0
  6
PHANTOM
 62
     7
100
AcDbLine
 10
-312.94775
 20
-25.505009
 30
0.0
 11
-304.94775
 21
-25.505009
 31
0.0
  0
LINE
  5
24A
330
20
100
AcDbEntity
  8
0
  6
Continuous
 62
     7
100
AcDbLine
 10
-302.94775
 20
14.67910499999999
 30
0.0
 11
-302.94775
 21
1.679104399999999
 31
0.0
  0
LINE
  5
24B
330
20
100
AcDbEntity
  8
0
  6
PHANTOM
 62
     7
100
AcDbLine
 10
-304.94775
 20
-16.422916
 30
0.0
 11
-304.94775
 21
-25.505009
 31
0.0
  0
LINE
  5
24C
330
20
100
AcDbEntity
  8
0
  6
PHANTOM
 62
     7
100
AcDbLine
 10
-338.9477499999998
 20
-1.505008099999999
 30
0.0
 11
-338.9477499999998
 21
-17.505009
 31
0.0
  0
LINE
  5
24D
330
20
100
AcDbEntity
  8
0
  6
PHANTOM
 62
     7
100
AcDbLine
 10
-348.9476599999998
 20
-20.38752699999998
 30
0.0
 11
-304.94772
 21
-16.42291499999998
 31
0.0
  0
LINE
  5
24E
330
20
100
AcDbEntity
  8
0
  6
Continuous
 62
     7
100
AcDbLine
 10
-302.94775
 20
1.679104399999999
 30
0.0
 11
-299.4477499999998
 21
1.679104399999999
 31
0.0
  0
LINE
  5
24F
330
20
100
AcDbEntity
  8
0
  6
PHANTOM
 62
     7
100
AcDbLine
 10
-350.94775
 20
-18.554886
 30
0.0
 11
-340.9477499999998
 21
-17.679998
 31
0.0
  0
LINE
  5
250
330
20
100
AcDbEntity
  8
0
  6
PHANTOM
 62
     7
100
AcDbLine
 10
-350.94775
 20
-18.55487399999998
 30
0.0
 11
-350.94775
 21
-27.505009
 31
0.0
  0
LINE
  5
251
330
20
100
AcDbEntity
  8
0
  6
PHANTOM
 62
     7
100
AcDbLine
 10
-348.94775
 20
-20.387547
 30
0.0
 11
-348.94775
 21
-25.505009
 31
0.0
  0
LINE
  5
252
330
20
100
AcDbEntity
  8
0
  6
Continuous
 62
     7
100
AcDbLine
 10
-299.4477499999998
 20
14.17910499999999
 30
0.0
 11
-299.4477499999998
 21
1.679104399999999
 31
0.0
  0
LINE
  5
253
330
20
100
AcDbEntity
  8
0
  6
PHANTOM
 62
     7
100
AcDbLine
 10
-350.94775
 20
-27.505009
 30
0.0
 11
-340.9477499999998
 21
-27.505009
 31
0.0
  0
LINE
  5
254
330
20
100
AcDbEntity
  8
0
  6
PHANTOM
 62
     7
100
AcDbLine
 10
-348.94775
 20
-25.505009
 30
0.0
 11
-340.9477499999998
 21
-25.505009
 31
0.0
  0
LINE
  5
255
330
20
100
AcDbEntity
  8
0
  6
PHANTOM
 62
     7
100
AcDbLine
 10
-340.9477499999998
 20
-25.505009
 30
0.0
 11
-340.9477499999998
 21
-27.505009
 31
0.0
  0
LINE
  5
256
330
20
100
AcDbEntity
  8
0
  6
PHANTOM
 62
     7
100
AcDbLine
 10
-338.9477199999999
 20
-17.505009
 30
0.0
 11
-304.94775
 21
-14.450864
 31
0.0
  0
LINE
  5
257
330
20
100
AcDbEntity
  8
0
  6
PHANTOM
 62
     7
100
AcDbLine
 10
-302.94775
 20
1.679104399999999
 30
0.0
 11
-302.94775
 21
-27.505009
 31
0.0
  0
LINE
  5
258
330
20
100
AcDbEntity
  8
0
  6
CENTER
 62
     7
100
AcDbLine
 10
-138.94775
 20
14.77233599999999
 30
0.0
 11
-138.94775
 21
0.6838652500000002
 31
0.0
  0
LINE
  5
259
330
20
100
AcDbEntity
  8
0
  6
Continuous
 62
     7
100
AcDbLine
 10
-136.19775
 20
9.679104799999999
 30
0.0
 11
-136.19775
 21
6.6791043
 31
0.0
  0
LINE
  5
25A
330
20
100
AcDbEntity
  8
0
  6
Continuous
 62
     7
100
AcDbLine
 10
-141.69775
 20
9.679104799999999
 30
0.0
 11
-141.69775
 21
6.6791043
 31
0.0
  0
LINE
  5
25B
330
20
100
AcDbEntity
  8
0
  6
CENTER
 62
     7
100
AcDbLine
 10
-133.84253
 20
8.179104799999999
 30
0.0
 11
-154.07947
 21
8.179104799999999
 31
0.0
  0
LINE
  5
25C
330
20
100
AcDbEntity
  8
0
  6
CENTER
 62
     7
100
AcDbLine
 10
-98.947762
 20
14.77233599999999
 30
0.0
 11
-98.947762
 21
0.6838652500000002
 31
0.0
  0
LINE
  5
25D
330
20
100
AcDbEntity
  8
0
  6
Continuous
 62
     7
100
AcDbLine
 10
-101.69776
 20
9.679104799999999
 30
0.0
 11
-101.69776
 21
6.6791043
 31
0.0
  0
LINE
  5
25E
330
20
100
AcDbEntity
  8
0
  6
Continuous
 62
     7
100
AcDbLine
 10
-96.197762
 20
9.679104799999999
 30
0.0
 11
-96.197762
 21
6.6791043
 31
0.0
  0
LINE
  5
25F
330
20
100
AcDbEntity
  8
0
  6
CENTER
 62
     7
100
AcDbLine
 10
-108.94776
 20
14.77233599999999
 30
0.0
 11
-108.94776
 21
0.6838652500000002
 31
0.0
  0
LINE
  5
260
330
20
100
AcDbEntity
  8
0
  6
Continuous
 62
     7
100
AcDbLine
 10
-111.69776
 20
9.679104799999999
 30
0.0
 11
-111.69776
 21
6.6791043
 31
0.0
  0
LINE
  5
261
330
20
100
AcDbEntity
  8
0
  6
Continuous
 62
     7
100
AcDbLine
 10
-106.19776
 20
9.679104799999999
 30
0.0
 11
-106.19776
 21
6.6791043
 31
0.0
  0
LINE
  5
262
330
20
100
AcDbEntity
  8
0
  6
PHANTOM
 62
     7
100
AcDbLine
 10
-312.94775
 20
-25.505009
 30
0.0
 11
-312.94775
 21
-27.505009
 31
0.0
  0
LINE
  5
263
330
20
100
AcDbEntity
  8
0
  6
PHANTOM
 62
     7
100
AcDbLine
 10
-312.94775
 20
-27.505009
 30
0.0
 11
-302.94775
 21
-27.505009
 31
0.0
  0
LINE
  5
264
330
20
100
AcDbEntity
  8
0
  6
PHANTOM
 62
     7
100
AcDbLine
 10
-304.94775
 20
-1.505008099999999
 30
0.0
 11
-304.94775
 21
-14.45087
 31
0.0
  0
LINE
  5
265
330
20
100
AcDbEntity
  8
0
  6
Continuous
 62
     7
100
AcDbLine
 10
-92.94776199999999
 20
208.99307
 30
0.0
 11
-143.9477799999998
 21
208.99307
 31
0.0
  0
LINE
  5
266
330
20
100
AcDbEntity
  8
0
  6
Continuous
 62
     7
100
AcDbLine
 10
-92.94776199999999
 20
208.99307
 30
0.0
 11
-92.94776199999999
 21
198.99307
 31
0.0
  0
LINE
  5
267
330
20
100
AcDbEntity
  8
0
  6
PHANTOM
 62
     7
100
AcDbLine
 10
-333.4477499999998
 20
28.67910399999999
 30
0.0
 11
-333.4477499999998
 21
30.679104
 31
0.0
  0
LINE
  5
268
330
20
100
AcDbEntity
  8
0
  6
PHANTOM
 62
     7
100
AcDbLine
 10
-315.44775
 20
30.679104
 30
0.0
 11
-315.9477499999998
 21
30.679104
 31
0.0
  0
LINE
  5
269
330
20
100
AcDbEntity
  8
0
  6
PHANTOM
 62
     7
100
AcDbLine
 10
-333.4477499999998
 20
30.679104
 30
0.0
 11
-332.9477499999998
 21
30.679104
 31
0.0
  0
LINE
  5
26A
330
20
100
AcDbEntity
  8
0
  6
PHANTOM
 62
     7
100
AcDbLine
 10
-315.44775
 20
28.67910399999999
 30
0.0
 11
-315.44775
 21
30.679104
 31
0.0
  0
LINE
  5
26B
330
20
100
AcDbEntity
  8
0
  6
DASHED
 62
     3
100
AcDbLine
 10
-92.94776199999999
 20
206.49307
 30
0.0
 11
-143.9477799999998
 21
206.49307
 31
0.0
  0
LINE
  5
26C
330
20
100
AcDbEntity
  8
0
  6
Continuous
 62
     7
100
AcDbLine
 10
-365.0
 20
270.5
 30
0.0
 11
-275.0
 21
270.5
 31
0.0
  0
LINE
  5
26D
330
20
100
AcDbEntity
  8
0
  6
Continuous
 62
     7
100
AcDbLine
 10
-152.69778
 20
59.1791
 30
0.0
 11
-152.69778
 21
56.179104
 31
0.0
  0
LINE
  5
26E
330
20
100
AcDbEntity
  8
0
  6
CENTER
 62
     7
100
AcDbLine
 10
-123.94775
 20
204.3139599999999
 30
0.0
 11
-123.94775
 21
173.3304699999999
 31
0.0
  0
LINE
  5
26F
330
20
100
AcDbEntity
  8
0
  6
CENTER
 62
     7
100
AcDbLine
 10
23.05223799999999
 20
208.9930399999999
 30
0.0
 11
23.05223799999999
 21
168.9930699999998
 31
0.0
  0
LINE
  5
270
330
20
100
AcDbEntity
  8
0
  6
Continuous
 62
     7
100
AcDbLine
 10
-184.94775
 20
196.9930699999999
 30
0.0
 11
-184.94775
 21
180.9930699999999
 31
0.0
  0
LINE
  5
271
330
20
100
AcDbEntity
  8
0
  6
CENTER
 62
     7
100
AcDbLine
 10
-174.94778
 20
203.1786199999999
 30
0.0
 11
-174.94778
 21
173.47772
 31
0.0
  0
LINE
  5
272
330
20
100
AcDbEntity
  8
0
  6
Continuous
 62
     7
100
AcDbLine
 10
-186.94775
 20
195.9930699999999
 30
0.0
 11
-186.94775
 21
181.99307
 31
0.0
  0
LINE
  5
273
330
20
100
AcDbEntity
  8
0
  6
Continuous
 62
     7
100
AcDbLine
 10
103.0522399999999
 20
196.9930699999999
 30
0.0
 11
103.0522399999999
 21
180.9930699999999
 31
0.0
  0
LINE
  5
274
330
20
100
AcDbEntity
  8
0
  6
CENTER
 62
     7
100
AcDbLine
 10
93.052238
 20
198.99307
 30
0.0
 11
93.052238
 21
178.99307
 31
0.0
  0
LINE
  5
275
330
20
100
AcDbEntity
  8
0
  6
Continuous
 62
     7
100
AcDbLine
 10
105.0522399999999
 20
181.99307
 30
0.0
 11
105.0522399999999
 21
195.9930699999999
 31
0.0
  0
LINE
  5
276
330
20
100
AcDbEntity
  8
0
  6
CENTER
 62
     7
100
AcDbLine
 10
113.05226
 20
188.9930699999999
 30
0.0
 11
-193.9477199999999
 21
188.9930699999999
 31
0.0
  0
LINE
  5
277
330
20
100
AcDbEntity
  8
0
  6
Continuous
 62
     7
100
AcDbLine
 10
-185.94775
 20
180.9930699999999
 30
0.0
 11
2.459770199999999
 21
180.9930699999999
 31
0.0
  0
LINE
  5
278
330
20
100
AcDbEntity
  8
0
  6
Continuous
 62
     7
100
AcDbLine
 10
2.459770199999999
 20
196.9930699999999
 30
0.0
 11
-185.94775
 21
196.9930699999999
 31
0.0
  0
LINE
  5
279
330
20
100
AcDbEntity
  8
0
  6
Continuous
 62
     7
100
AcDbLine
 10
-143.9477799999998
 20
213.9930399999999
 30
0.0
 11
-205.94775
 21
213.9930399999999
 31
0.0
  0
LINE
  5
27A
330
20
100
AcDbEntity
  8
0
  6
Continuous
 62
     7
100
AcDbLine
 10
104.0522399999999
 20
196.9930699999999
 30
0.0
 11
43.644707
 21
196.9930699999999
 31
0.0
  0
LINE
  5
27B
330
20
100
AcDbEntity
  8
0
  6
Continuous
 62
     7
100
AcDbLine
 10
43.644707
 20
180.9930699999999
 30
0.0
 11
104.0522399999999
 21
180.9930699999999
 31
0.0
  0
LINE
  5
27C
330
20
100
AcDbEntity
  8
0
  6
Continuous
 62
     7
100
AcDbLine
 10
-143.9477799999998
 20
210.9930399999999
 30
0.0
 11
-205.94775
 21
210.9930399999999
 31
0.0
  0
LINE
  5
27D
330
20
100
AcDbEntity
  8
0
  6
CENTER
 62
     7
100
AcDbLine
 10
93.052238
 20
206.05511
 30
0.0
 11
93.052238
 21
173.47772
 31
0.0
  0
LINE
  5
27E
330
20
100
AcDbEntity
  8
0
  6
Continuous
 62
     7
100
AcDbLine
 10
-195.40775
 20
35.1791
 30
0.0
 11
-193.64775
 21
38.699112
 31
0.0
  0
LINE
  5
27F
330
20
100
AcDbEntity
  8
0
  6
Continuous
 62
     7
100
AcDbLine
 10
-154.48778
 20
210.9929999999998
 30
0.0
 11
-156.24777
 21
207.4730199999999
 31
0.0
  0
LINE
  5
280
330
20
100
AcDbEntity
  8
0
  6
CENTER
 62
     7
100
AcDbLine
 10
23.05223799999999
 20
79.36511199999998
 30
0.0
 11
23.05223799999999
 21
11.37806799999999
 31
0.0
  0
LINE
  5
281
330
20
100
AcDbEntity
  8
0
  6
Continuous
 62
     7
100
AcDbLine
 10
-156.24776
 20
207.47301
 30
0.0
 11
-158.0077699999999
 21
210.9930299999999
 31
0.0
  0
LINE
  5
282
330
20
100
AcDbEntity
  8
0
  6
Continuous
 62
     7
100
AcDbLine
 10
-0.4878921500000001
 20
198.99307
 30
0.0
 11
-128.58101
 21
198.99307
 31
0.0
  0
LINE
  5
283
330
20
100
AcDbEntity
  8
0
  6
Continuous
 62
     7
100
AcDbLine
 10
-157.1977799999999
 20
59.1791
 30
0.0
 11
-157.1977799999999
 21
56.179104
 31
0.0
  0
LINE
  5
284
330
20
100
AcDbEntity
  8
0
  6
Continuous
 62
     7
100
AcDbLine
 10
62.052238
 20
32.17910399999999
 30
0.0
 11
124.05222
 21
32.17910399999999
 31
0.0
  0
LINE
  5
285
330
20
100
AcDbEntity
  8
0
  6
CENTER
 62
     7
100
AcDbLine
 10
108.0522399999999
 20
66.171272
 30
0.0
 11
108.0522399999999
 21
48.161564
 31
0.0
  0
LINE
  5
286
330
20
100
AcDbEntity
  8
0
  6
Continuous
 62
     7
100
AcDbLine
 10
115.30224
 20
58.6791
 30
0.0
 11
115.30224
 21
55.679104
 31
0.0
  0
LINE
  5
287
330
20
100
AcDbEntity
  8
0
  6
Continuous
 62
     7
100
AcDbLine
 10
105.3022399999999
 20
58.6791
 30
0.0
 11
105.3022399999999
 21
55.679104
 31
0.0
  0
LINE
  5
288
330
20
100
AcDbEntity
  8
0
  6
Continuous
 62
     7
100
AcDbLine
 10
110.80224
 20
58.6791
 30
0.0
 11
110.80224
 21
55.679104
 31
0.0
  0
LINE
  5
289
330
20
100
AcDbEntity
  8
0
  6
Continuous
 62
     7
100
AcDbLine
 10
65.302238
 20
58.6791
 30
0.0
 11
65.302238
 21
55.679104
 31
0.0
  0
LINE
  5
28A
330
20
100
AcDbEntity
  8
0
  6
Continuous
 62
     7
100
AcDbLine
 10
-184.94775
 20
52.679104
 30
0.0
 11
-184.94775
 21
36.67910399999998
 31
0.0
  0
LINE
  5
28B
330
20
100
AcDbEntity
  8
0
  6
Continuous
 62
     7
100
AcDbLine
 10
-143.9477799999998
 20
32.17910399999999
 30
0.0
 11
-205.94775
 21
32.17910399999999
 31
0.0
  0
LINE
  5
28C
330
20
100
AcDbEntity
  8
0
  6
CENTER
 62
     7
100
AcDbLine
 10
-174.94778
 20
57.944786
 30
0.0
 11
-174.94778
 21
27.820332
 31
0.0
  0
LINE
  5
28D
330
20
100
AcDbEntity
  8
0
  6
Continuous
 62
     7
100
AcDbLine
 10
-143.9477799999998
 20
52.679104
 30
0.0
 11
-143.9477799999998
 21
64.1791
 31
0.0
  0
LINE
  5
28E
330
20
100
AcDbEntity
  8
0
  6
Continuous
 62
     7
100
AcDbLine
 10
-143.9477799999998
 20
64.1791
 30
0.0
 11
-205.94775
 21
64.1791
 31
0.0
  0
LINE
  5
28F
330
20
100
AcDbEntity
  8
0
  6
CENTER
 62
     7
100
AcDbLine
 10
-159.94778
 20
66.671272
 30
0.0
 11
-159.94778
 21
48.661564
 31
0.0
  0
LINE
  5
290
330
20
100
AcDbEntity
  8
0
  6
CENTER
 62
     7
100
AcDbLine
 10
-189.9477799999999
 20
66.671272
 30
0.0
 11
-189.9477799999999
 21
48.661564
 31
0.0
  0
LINE
  5
291
330
20
100
AcDbEntity
  8
0
  6
Continuous
 62
     7
100
AcDbLine
 10
2.4597681
 20
52.679104
 30
0.0
 11
-185.94775
 21
52.679104
 31
0.0
  0
LINE
  5
292
330
20
100
AcDbEntity
  8
0
  6
Continuous
 62
     7
100
AcDbLine
 10
-186.94775
 20
51.679104
 30
0.0
 11
-186.94775
 21
37.67910399999998
 31
0.0
  0
LINE
  5
293
330
20
100
AcDbEntity
  8
0
  6
Continuous
 62
     7
100
AcDbLine
 10
-185.94775
 20
36.67910399999998
 30
0.0
 11
0.041176606
 21
36.67910399999998
 31
0.0
  0
LINE
  5
294
330
20
100
AcDbEntity
  8
0
  6
Continuous
 62
     7
100
AcDbLine
 10
103.0522399999999
 20
52.679104
 30
0.0
 11
103.0522399999999
 21
36.67910399999998
 31
0.0
  0
LINE
  5
295
330
20
100
AcDbEntity
  8
0
  6
Continuous
 62
     7
100
AcDbLine
 10
104.0522399999999
 20
52.679104
 30
0.0
 11
43.644714
 21
52.679104
 31
0.0
  0
LINE
  5
296
330
20
100
AcDbEntity
  8
0
  6
Continuous
 62
     7
100
AcDbLine
 10
105.0522399999999
 20
37.67910399999998
 30
0.0
 11
105.0522399999999
 21
51.679104
 31
0.0
  0
LINE
  5
297
330
20
100
AcDbEntity
  8
0
  6
Continuous
 62
     7
100
AcDbLine
 10
46.063305
 20
36.67910399999998
 30
0.0
 11
104.0522399999999
 21
36.67910399999998
 31
0.0
  0
LINE
  5
298
330
20
100
AcDbEntity
  8
0
  6
Continuous
 62
     7
100
AcDbLine
 10
0.55223846
 20
26.679104
 30
0.0
 11
45.552238
 21
26.679104
 31
0.0
  0
LINE
  5
299
330
20
100
AcDbEntity
  8
0
  6
Continuous
 62
     7
100
AcDbLine
 10
-143.9477799999998
 20
32.17910399999999
 30
0.0
 11
-143.9477799999998
 21
36.67910399999998
 31
0.0
  0
LINE
  5
29A
330
20
100
AcDbEntity
  8
0
  6
Continuous
 62
     7
100
AcDbLine
 10
-143.9477799999998
 20
35.17910399999998
 30
0.0
 11
-205.94775
 21
35.17910399999998
 31
0.0
  0
LINE
  5
29B
330
20
100
AcDbEntity
  8
0
  6
Continuous
 62
     7
100
AcDbLine
 10
-205.94775
 20
64.1791
 30
0.0
 11
-205.94775
 21
32.17910399999999
 31
0.0
  0
LINE
  5
29C
330
20
100
AcDbEntity
  8
0
  6
Continuous
 62
     7
100
AcDbLine
 10
62.052238
 20
32.17910399999999
 30
0.0
 11
62.052238
 21
36.67910399999998
 31
0.0
  0
LINE
  5
29D
330
20
100
AcDbEntity
  8
0
  6
Continuous
 62
     7
100
AcDbLine
 10
62.052238
 20
35.17910399999998
 30
0.0
 11
124.05222
 21
35.17910399999998
 31
0.0
  0
LINE
  5
29E
330
20
100
AcDbEntity
  8
0
  6
Continuous
 62
     7
100
AcDbLine
 10
124.05222
 20
64.1791
 30
0.0
 11
124.05222
 21
32.17910399999999
 31
0.0
  0
LINE
  5
29F
330
20
100
AcDbEntity
  8
0
  6
Continuous
 62
     7
100
AcDbLine
 10
-122.44778
 20
24.679104
 30
0.0
 11
-131.4477799999999
 21
24.679104
 31
0.0
  0
LINE
  5
2A0
330
20
100
AcDbEntity
  8
0
  6
Continuous
 62
     7
100
AcDbLine
 10
86.55227700000002
 20
54.679104
 30
0.0
 11
99.55225400000001
 21
54.679104
 31
0.0
  0
LINE
  5
2A1
330
20
100
AcDbEntity
  8
0
  6
CENTER
 62
     7
100
AcDbLine
 10
104.07127
 20
57.17909999999999
 30
0.0
 11
123.1003999999999
 21
57.17909999999999
 31
0.0
  0
LINE
  5
2A2
330
20
100
AcDbEntity
  8
0
  6
Continuous
 62
     7
100
AcDbLine
 10
75.302238
 20
58.6791
 30
0.0
 11
75.302238
 21
55.679104
 31
0.0
  0
LINE
  5
2A3
330
20
100
AcDbEntity
  8
0
  6
Continuous
 62
     7
100
AcDbLine
 10
-133.94775
 20
18.679104
 30
0.0
 11
35.052238
 21
18.679104
 31
0.0
  0
LINE
  5
2A4
330
20
100
AcDbEntity
  8
0
  6
Continuous
 62
     7
100
AcDbLine
 10
35.052238
 20
24.679104
 30
0.0
 11
-133.94775
 21
24.679104
 31
0.0
  0
LINE
  5
2A5
330
20
100
AcDbEntity
  8
0
  6
CENTER
 62
     7
100
AcDbLine
 10
-149.94778
 20
66.671272
 30
0.0
 11
-149.94778
 21
48.661564
 31
0.0
  0
LINE
  5
2A6
330
20
100
AcDbEntity
  8
0
  6
CENTER
 62
     7
100
AcDbLine
 10
-163.92874
 20
57.6791
 30
0.0
 11
-144.89963
 21
57.6791
 31
0.0
  0
LINE
  5
2A7
330
20
100
AcDbEntity
  8
0
  6
Continuous
 62
     7
100
AcDbLine
 10
111.7522399999999
 20
38.699116
 30
0.0
 11
109.99224
 21
35.17910399999998
 31
0.0
  0
LINE
  5
2A8
330
20
100
AcDbEntity
  8
0
  6
CENTER
 62
     7
100
AcDbLine
 10
68.052238
 20
66.171272
 30
0.0
 11
68.052238
 21
48.161564
 31
0.0
  0
LINE
  5
2A9
330
20
100
AcDbEntity
  8
0
  6
CENTER
 62
     7
100
AcDbLine
 10
78.052238
 20
66.171272
 30
0.0
 11
78.052238
 21
48.161564
 31
0.0
  0
LINE
  5
2AA
330
20
100
AcDbEntity
  8
0
  6
CENTER
 62
     7
100
AcDbLine
 10
82.033211
 20
57.17909999999999
 30
0.0
 11
63.00408199999999
 21
57.17909999999999
 31
0.0
  0
LINE
  5
2AB
330
20
100
AcDbEntity
  8
0
  6
CENTER
 62
     7
100
AcDbLine
 10
118.05224
 20
66.171272
 30
0.0
 11
118.05224
 21
48.161564
 31
0.0
  0
LINE
  5
2AC
330
20
100
AcDbEntity
  8
0
  6
Continuous
 62
     7
100
AcDbLine
 10
-147.1977799999999
 20
59.1791
 30
0.0
 11
-147.1977799999999
 21
56.179104
 31
0.0
  0
LINE
  5
2AD
330
20
100
AcDbEntity
  8
0
  6
CENTER
 62
     7
100
AcDbLine
 10
-199.94778
 20
66.671272
 30
0.0
 11
-199.94778
 21
48.661564
 31
0.0
  0
LINE
  5
2AE
330
20
100
AcDbEntity
  8
0
  6
CENTER
 62
     7
100
AcDbLine
 10
-185.9668
 20
57.6791
 30
0.0
 11
-204.99594
 21
57.6791
 31
0.0
  0
LINE
  5
2AF
330
20
100
AcDbEntity
  8
0
  6
Continuous
 62
     7
100
AcDbLine
 10
62.052238
 20
64.1791
 30
0.0
 11
124.05222
 21
64.1791
 31
0.0
  0
LINE
  5
2B0
330
20
100
AcDbEntity
  8
0
  6
Continuous
 62
     7
100
AcDbLine
 10
-197.1977799999999
 20
59.1791
 30
0.0
 11
-197.1977799999999
 21
56.179104
 31
0.0
  0
LINE
  5
2B1
330
20
100
AcDbEntity
  8
0
  6
Continuous
 62
     7
100
AcDbLine
 10
-202.69778
 20
59.1791
 30
0.0
 11
-202.69778
 21
56.179104
 31
0.0
  0
LINE
  5
2B2
330
20
100
AcDbEntity
  8
0
  6
Continuous
 62
     7
100
AcDbLine
 10
-192.6977799999999
 20
59.1791
 30
0.0
 11
-192.6977799999999
 21
56.179104
 31
0.0
  0
LINE
  5
2B3
330
20
100
AcDbEntity
  8
0
  6
Continuous
 62
     7
100
AcDbLine
 10
-187.1977799999999
 20
59.1791
 30
0.0
 11
-187.1977799999999
 21
56.179104
 31
0.0
  0
LINE
  5
2B4
330
20
100
AcDbEntity
  8
0
  6
Continuous
 62
     7
100
AcDbLine
 10
-162.6977799999998
 20
59.1791
 30
0.0
 11
-162.6977799999998
 21
56.179104
 31
0.0
  0
LINE
  5
2B5
330
20
100
AcDbEntity
  8
0
  6
CENTER
 62
     7
100
AcDbLine
 10
93.052238
 20
59.182945
 30
0.0
 11
93.052238
 21
26.857489
 31
0.0
  0
LINE
  5
2B6
330
20
100
AcDbEntity
  8
0
  6
Continuous
 62
     7
100
AcDbLine
 10
62.052238
 20
52.679104
 30
0.0
 11
62.052238
 21
64.1791
 31
0.0
  0
LINE
  5
2B7
330
20
100
AcDbEntity
  8
0
  6
Continuous
 62
     7
100
AcDbLine
 10
120.8022399999999
 20
58.6791
 30
0.0
 11
120.8022399999999
 21
55.679104
 31
0.0
  0
LINE
  5
2B8
330
20
100
AcDbEntity
  8
0
  6
Continuous
 62
     7
100
AcDbLine
 10
80.802238
 20
58.6791
 30
0.0
 11
80.802238
 21
55.679104
 31
0.0
  0
LINE
  5
2B9
330
20
100
AcDbEntity
  8
0
  6
Continuous
 62
     7
100
AcDbLine
 10
70.802238
 20
58.6791
 30
0.0
 11
70.802238
 21
55.679104
 31
0.0
  0
LINE
  5
2BA
330
20
100
AcDbEntity
  8
0
  6
Continuous
 62
     7
100
AcDbLine
 10
-307.9477499999998
 20
64.1791
 30
0.0
 11
-304.94775
 21
64.1791
 31
0.0
  0
LINE
  5
2BB
330
20
100
AcDbEntity
  8
0
  6
CENTER
 62
     7
100
AcDbLine
 10
-270.02237
 20
44.679104
 30
0.0
 11
-296.02307
 21
44.679104
 31
0.0
  0
LINE
  5
2BC
330
20
100
AcDbEntity
  8
0
  6
CENTER
 62
     7
100
AcDbLine
 10
-282.9477499999999
 20
80.464111
 30
0.0
 11
-282.9477499999999
 21
5.273098
 31
0.0
  0
LINE
  5
2BD
330
20
100
AcDbEntity
  8
0
  6
Continuous
 62
     7
100
AcDbLine
 10
-304.94775
 20
64.1791
 30
0.0
 11
-304.94775
 21
35.17910399999998
 31
0.0
  0
LINE
  5
2BE
330
20
100
AcDbEntity
  8
0
  6
Continuous
 62
     7
100
AcDbLine
 10
-307.9477499999998
 20
64.1791
 30
0.0
 11
-307.9477499999998
 21
35.17910399999998
 31
0.0
  0
LINE
  5
2BF
330
20
100
AcDbEntity
  8
0
  6
CENTER
 62
     7
100
AcDbLine
 10
-315.2031299999998
 20
57.17909999999999
 30
0.0
 11
-298.77405
 21
57.17909999999999
 31
0.0
  0
LINE
  5
2C0
330
20
100
AcDbEntity
  8
0
  6
Continuous
 62
     7
100
AcDbLine
 10
-195.40775
 20
210.99301
 30
0.0
 11
-193.64777
 21
207.4730399999999
 31
0.0
  0
LINE
  5
2C1
330
20
100
AcDbEntity
  8
0
  6
Continuous
 62
     7
100
AcDbLine
 10
-193.64777
 20
207.47301
 30
0.0
 11
-191.8877699999999
 21
210.99301
 31
0.0
  0
LINE
  5
2C2
330
20
100
AcDbEntity
  8
0
  6
Continuous
 62
     7
100
AcDbLine
 10
-193.64778
 20
38.699112
 30
0.0
 11
-191.88779
 21
35.17910399999998
 31
0.0
  0
LINE
  5
2C3
330
20
100
AcDbEntity
  8
0
  6
Continuous
 62
     7
100
AcDbLine
 10
113.51222
 20
35.1791
 30
0.0
 11
111.75223
 21
38.699112
 31
0.0
  0
LINE
  5
2C4
330
20
100
AcDbEntity
  8
0
  6
Continuous
 62
     7
100
AcDbLine
 10
-304.94775
 20
38.699116
 30
0.0
 11
-303.1877399999999
 21
35.179111
 31
0.0
  0
LINE
  5
2C5
330
20
100
AcDbEntity
  8
0
  6
Continuous
 62
     7
100
AcDbLine
 10
17.05223799999999
 20
179.9930699999999
 30
0.0
 11
17.05223799999999
 21
197.9930699999999
 31
0.0
  0
LINE
  5
2C6
330
20
100
AcDbEntity
  8
0
  6
Continuous
 62
     7
100
AcDbLine
 10
18.052238
 20
198.99307
 30
0.0
 11
28.052238
 21
198.99307
 31
0.0
  0
LINE
  5
2C7
330
20
100
AcDbEntity
  8
0
  6
Continuous
 62
     7
100
AcDbLine
 10
29.05223799999999
 20
197.9930699999999
 30
0.0
 11
29.05223799999999
 21
179.9930699999999
 31
0.0
  0
LINE
  5
2C8
330
20
100
AcDbEntity
  8
0
  6
Continuous
 62
     7
100
AcDbLine
 10
28.052238
 20
178.99307
 30
0.0
 11
18.052238
 21
178.99307
 31
0.0
  0
LINE
  5
2C9
330
20
100
AcDbEntity
  8
0
  6
Continuous
 62
     7
100
AcDbLine
 10
2.563636799999998
 20
202.9930699999999
 30
0.0
 11
43.54084
 21
202.9930699999999
 31
0.0
  0
LINE
  5
2CA
330
20
100
AcDbEntity
  8
0
  6
Continuous
 62
     7
100
AcDbLine
 10
43.54084
 20
174.9930699999999
 30
0.0
 11
2.563636799999998
 21
174.9930699999999
 31
0.0
  0
LINE
  5
2CB
330
20
100
AcDbEntity
  8
0
  6
Continuous
 62
     7
100
AcDbLine
 10
0.55223846
 20
176.4930699999999
 30
0.0
 11
0.55223846
 21
178.99307
 31
0.0
  0
LINE
  5
2CC
330
20
100
AcDbEntity
  8
0
  6
Continuous
 62
     7
100
AcDbLine
 10
0.55223846
 20
198.99307
 30
0.0
 11
0.55223846
 21
201.4930699999999
 31
0.0
  0
LINE
  5
2CD
330
20
100
AcDbEntity
  8
0
  6
Continuous
 62
     7
100
AcDbLine
 10
45.552238
 20
201.4930699999999
 30
0.0
 11
45.552238
 21
198.99307
 31
0.0
  0
LINE
  5
2CE
330
20
100
AcDbEntity
  8
0
  6
Continuous
 62
     7
100
AcDbLine
 10
45.552238
 20
178.99307
 30
0.0
 11
45.552238
 21
176.4930699999999
 31
0.0
  0
LINE
  5
2CF
330
20
100
AcDbEntity
  8
0
  6
Continuous
 62
     7
100
AcDbLine
 10
7.5404434
 20
201.9930699999999
 30
0.0
 11
38.56403399999999
 21
201.9930699999999
 31
0.0
  0
LINE
  5
2D0
330
20
100
AcDbEntity
  8
0
  6
Continuous
 62
     7
100
AcDbLine
 10
7.5404434
 20
175.9930699999999
 30
0.0
 11
38.56403399999999
 21
175.9930699999999
 31
0.0
  0
LINE
  5
2D1
330
20
100
AcDbEntity
  8
0
  6
Continuous
 62
     7
100
AcDbLine
 10
10.493034
 20
68.67909199999999
 30
0.0
 11
35.611443
 21
68.67909199999999
 31
0.0
  0
LINE
  5
2D2
330
20
100
AcDbEntity
  8
0
  6
Continuous
 62
     7
100
AcDbLine
 10
-272.9477499999999
 20
75.179092
 30
0.0
 11
-272.9477499999999
 21
69.679092
 31
0.0
  0
LINE
  5
2D3
330
20
100
AcDbEntity
  8
0
  6
Continuous
 62
     7
100
AcDbLine
 10
10.493034
 20
69.679092
 30
0.0
 11
35.611443
 21
69.679092
 31
0.0
  0
LINE
  5
2D4
330
20
100
AcDbEntity
  8
0
  6
Continuous
 62
     7
100
AcDbLine
 10
-291.9477499999998
 20
76.17909199999998
 30
0.0
 11
-273.94775
 21
76.17909199999998
 31
0.0
  0
LINE
  5
2D5
330
20
100
AcDbEntity
  8
0
  6
Continuous
 62
     7
100
AcDbLine
 10
-271.91022
 20
69.679092
 30
0.0
 11
-293.9852899999999
 21
69.679092
 31
0.0
  0
LINE
  5
2D6
330
20
100
AcDbEntity
  8
0
  6
Continuous
 62
     7
100
AcDbLine
 10
-296.9477499999998
 20
26.679104
 30
0.0
 11
-268.9477499999999
 21
26.679104
 31
0.0
  0
LINE
  5
2D7
330
20
100
AcDbEntity
  8
0
  6
Continuous
 62
     7
100
AcDbLine
 10
-274.9477499999999
 20
38.17911099999999
 30
0.0
 11
-274.9477499999999
 21
51.179111
 31
0.0
  0
LINE
  5
2D8
330
20
100
AcDbEntity
  8
0
  6
Continuous
 62
     7
100
AcDbLine
 10
-276.4477499999999
 20
52.679111
 30
0.0
 11
-289.44781
 21
52.679111
 31
0.0
  0
LINE
  5
2D9
330
20
100
AcDbEntity
  8
0
  6
Continuous
 62
     7
100
AcDbLine
 10
-290.94781
 20
51.179111
 30
0.0
 11
-290.94781
 21
38.17911099999999
 31
0.0
  0
LINE
  5
2DA
330
20
100
AcDbEntity
  8
0
  6
Continuous
 62
     7
100
AcDbLine
 10
-289.44781
 20
36.67911099999999
 30
0.0
 11
-276.4477499999999
 21
36.67911099999999
 31
0.0
  0
LINE
  5
2DB
330
20
100
AcDbEntity
  8
0
  6
Continuous
 62
     7
100
AcDbLine
 10
-292.9477499999998
 20
18.679104
 30
0.0
 11
-272.9477499999999
 21
18.679104
 31
0.0
  0
LINE
  5
2DC
330
20
100
AcDbEntity
  8
0
  6
Continuous
 62
     7
100
AcDbLine
 10
-304.95575
 20
32.179115
 30
0.0
 11
-274.9477499999999
 21
32.179115
 31
0.0
  0
LINE
  5
2DD
330
20
100
AcDbEntity
  8
0
  6
Continuous
 62
     7
100
AcDbLine
 10
-274.9477499999999
 20
35.179115
 30
0.0
 11
-304.94775
 21
35.179115
 31
0.0
  0
LINE
  5
2DE
330
20
100
AcDbEntity
  8
0
  6
Continuous
 62
     7
100
AcDbLine
 10
-274.9477499999999
 20
35.179115
 30
0.0
 11
-274.9477499999999
 21
32.179115
 31
0.0
  0
LINE
  5
2DF
330
20
100
AcDbEntity
  8
0
  6
Continuous
 62
     7
100
AcDbLine
 10
-292.9477499999998
 20
24.679104
 30
0.0
 11
-272.9477499999999
 21
24.679104
 31
0.0
  0
LINE
  5
2E0
330
20
100
AcDbEntity
  8
0
  6
Continuous
 62
     7
100
AcDbLine
 10
35.052238
 20
24.679104
 30
0.0
 11
35.052238
 21
18.679104
 31
0.0
  0
LINE
  5
2E1
330
20
100
AcDbEntity
  8
0
  6
Continuous
 62
     7
100
AcDbLine
 10
-292.9477499999998
 20
75.179092
 30
0.0
 11
-292.9477499999998
 21
69.679092
 31
0.0
  0
LINE
  5
2E2
330
20
100
AcDbEntity
  8
0
  6
CENTER
 62
     7
100
AcDbLine
 10
108.0522399999999
 20
216.9930399999999
 30
0.0
 11
108.0522399999999
 21
206.9930399999999
 31
0.0
  0
LINE
  5
2E3
330
20
100
AcDbEntity
  8
0
  6
CENTER
 62
     7
100
AcDbLine
 10
78.052238
 20
216.9930399999999
 30
0.0
 11
78.052238
 21
207.4305999999999
 31
0.0
  0
LINE
  5
2E4
330
20
100
AcDbEntity
  8
0
  6
CENTER
 62
     7
100
AcDbLine
 10
118.05224
 20
216.9930399999999
 30
0.0
 11
118.05224
 21
206.9930399999999
 31
0.0
  0
LINE
  5
2E5
330
20
100
AcDbEntity
  8
0
  6
CENTER
 62
     7
100
AcDbLine
 10
68.05224599999999
 20
216.9930399999999
 30
0.0
 11
68.05224599999999
 21
207.5601199999999
 31
0.0
  0
LINE
  5
2E6
330
20
100
AcDbEntity
  8
0
  6
Continuous
 62
     7
100
AcDbLine
 10
30.552238
 20
75.179092
 30
0.0
 11
30.552238
 21
69.679092
 31
0.0
  0
LINE
  5
2E7
330
20
100
AcDbEntity
  8
0
  6
Continuous
 62
     7
100
AcDbLine
 10
15.552238
 20
69.679092
 30
0.0
 11
15.552238
 21
75.179092
 31
0.0
  0
LINE
  5
2E8
330
20
100
AcDbEntity
  8
0
  6
Continuous
 62
     7
100
AcDbLine
 10
30.552238
 20
18.47910699999999
 30
0.0
 11
30.552238
 21
16.47910699999999
 31
0.0
  0
LINE
  5
2E9
330
20
100
AcDbEntity
  8
0
  6
Continuous
 62
     7
100
AcDbLine
 10
15.552238
 20
18.47910699999999
 30
0.0
 11
15.552238
 21
16.47910699999999
 31
0.0
  0
LINE
  5
2EA
330
20
100
AcDbEntity
  8
0
  6
Continuous
 62
     7
100
AcDbLine
 10
-278.9477499999999
 20
18.679104
 30
0.0
 11
-278.9477499999999
 21
17.679104
 31
0.0
  0
LINE
  5
2EB
330
20
100
AcDbEntity
  8
0
  6
Continuous
 62
     7
100
AcDbLine
 10
-286.9477499999998
 20
17.679104
 30
0.0
 11
-286.9477499999998
 21
18.679104
 31
0.0
  0
LINE
  5
2EC
330
20
100
AcDbEntity
  8
0
  6
Continuous
 62
     7
100
AcDbLine
 10
-275.4477499999999
 20
18.47910699999999
 30
0.0
 11
-275.4477499999999
 21
17.679104
 31
0.0
  0
LINE
  5
2ED
330
20
100
AcDbEntity
  8
0
  6
Continuous
 62
     7
100
AcDbLine
 10
-290.44775
 20
18.47910699999999
 30
0.0
 11
-290.44775
 21
17.679104
 31
0.0
  0
LINE
  5
2EE
330
20
100
AcDbEntity
  8
0
  6
Continuous
 62
     7
100
AcDbLine
 10
15.552238
 20
18.47910699999999
 30
0.0
 11
30.552238
 21
18.47910699999999
 31
0.0
  0
LINE
  5
2EF
330
20
100
AcDbEntity
  8
0
  6
Continuous
 62
     7
100
AcDbLine
 10
15.552238
 20
16.47910699999999
 30
0.0
 11
30.552238
 21
16.47910699999999
 31
0.0
  0
LINE
  5
2F0
330
20
100
AcDbEntity
  8
0
  6
Continuous
 62
     7
100
AcDbLine
 10
28.052238
 20
18.679104
 30
0.0
 11
28.052238
 21
18.47910699999999
 31
0.0
  0
LINE
  5
2F1
330
20
100
AcDbEntity
  8
0
  6
Continuous
 62
     7
100
AcDbLine
 10
18.052238
 20
18.679104
 30
0.0
 11
18.052238
 21
18.47910699999999
 31
0.0
  0
LINE
  5
2F2
330
20
100
AcDbEntity
  8
0
  6
Continuous
 62
     7
100
AcDbLine
 10
-133.94775
 20
24.679104
 30
0.0
 11
-133.94775
 21
18.679104
 31
0.0
  0
LINE
  5
2F3
330
20
100
AcDbEntity
  8
0
  6
Continuous
 62
     7
100
AcDbLine
 10
-128.58101
 20
24.679104
 30
0.0
 11
-128.58101
 21
18.679104
 31
0.0
  0
LINE
  5
2F4
330
20
100
AcDbEntity
  8
0
  6
Continuous
 62
     7
100
AcDbLine
 10
-143.9477799999998
 20
197.3486499999999
 30
0.0
 11
-143.9477799999998
 21
213.9930399999999
 31
0.0
  0
LINE
  5
2F5
330
20
100
AcDbEntity
  8
0
  6
Continuous
 62
     7
100
AcDbLine
 10
-205.9477799999999
 20
213.9930399999999
 30
0.0
 11
-205.9477799999999
 21
197.3392
 31
0.0
  0
LINE
  5
2F6
330
20
100
AcDbEntity
  8
0
  6
Continuous
 62
     7
100
AcDbLine
 10
-144.5081599999999
 20
197.0251
 30
0.0
 11
-143.9477699999999
 21
197.3486499999999
 31
0.0
  0
LINE
  5
2F7
330
20
100
AcDbEntity
  8
0
  6
CENTER
 62
     7
100
AcDbLine
 10
-149.9478
 20
216.9930399999999
 30
0.0
 11
-149.9478
 21
206.9930399999999
 31
0.0
  0
LINE
  5
2F8
330
20
100
AcDbEntity
  8
0
  6
Continuous
 62
     7
100
AcDbLine
 10
-186.9477399999999
 20
186.36952
 30
0.0
 11
-205.9477699999999
 21
197.3392
 31
0.0
  0
LINE
  5
2F9
330
20
100
AcDbEntity
  8
0
  6
Continuous
 62
     7
100
AcDbLine
 10
-292.9477499999998
 20
24.679104
 30
0.0
 11
-292.9477499999998
 21
18.679104
 31
0.0
  0
LINE
  5
2FA
330
20
100
AcDbEntity
  8
0
  6
Continuous
 62
     7
100
AcDbLine
 10
-272.9477499999999
 20
24.679104
 30
0.0
 11
-272.9477499999999
 21
18.679104
 31
0.0
  0
LINE
  5
2FB
330
20
100
AcDbEntity
  8
0
  6
Continuous
 62
     7
100
AcDbLine
 10
-290.44775
 20
18.47910699999999
 30
0.0
 11
-286.9477499999998
 21
18.47910699999999
 31
0.0
  0
LINE
  5
2FC
330
20
100
AcDbEntity
  8
0
  6
Continuous
 62
     7
100
AcDbLine
 10
-277.94775
 20
18.679104
 30
0.0
 11
-277.94775
 21
18.47910699999999
 31
0.0
  0
LINE
  5
2FD
330
20
100
AcDbEntity
  8
0
  6
Continuous
 62
     7
100
AcDbLine
 10
-287.9477499999998
 20
18.679104
 30
0.0
 11
-287.9477499999998
 21
18.47910699999999
 31
0.0
  0
LINE
  5
2FE
330
20
100
AcDbEntity
  8
0
  6
Continuous
 62
     7
100
AcDbLine
 10
-289.4477499999998
 20
36.67911099999999
 30
0.0
 11
-289.4477499999998
 21
35.179111
 31
0.0
  0
LINE
  5
2FF
330
20
100
AcDbEntity
  8
0
  6
Continuous
 62
     7
100
AcDbLine
 10
-276.4477499999999
 20
36.67911099999999
 30
0.0
 11
-276.4477499999999
 21
35.179111
 31
0.0
  0
LINE
  5
300
330
20
100
AcDbEntity
  8
0
  6
Continuous
 62
     7
100
AcDbLine
 10
-168.4477799999999
 20
36.67910399999998
 30
0.0
 11
-168.4477799999999
 21
35.17910399999998
 31
0.0
  0
LINE
  5
301
330
20
100
AcDbEntity
  8
0
  6
Continuous
 62
     7
100
AcDbLine
 10
-181.4477799999999
 20
36.67910399999998
 30
0.0
 11
-181.4477799999999
 21
35.17910399999998
 31
0.0
  0
LINE
  5
302
330
20
100
AcDbEntity
  8
0
  6
Continuous
 62
     7
100
AcDbLine
 10
-276.4477499999999
 20
54.67911899999999
 30
0.0
 11
-276.4477499999999
 21
52.679111
 31
0.0
  0
LINE
  5
303
330
20
100
AcDbEntity
  8
0
  6
Continuous
 62
     7
100
AcDbLine
 10
-276.4477499999999
 20
54.179111
 30
0.0
 11
-289.4477499999998
 21
54.179111
 31
0.0
  0
LINE
  5
304
330
20
100
AcDbEntity
  8
0
  6
Continuous
 62
     7
100
AcDbLine
 10
-277.44772
 20
55.67911099999999
 30
0.0
 11
-288.44772
 21
55.67911099999999
 31
0.0
  0
LINE
  5
305
330
20
100
AcDbEntity
  8
0
  6
Continuous
 62
     7
100
AcDbLine
 10
-276.4477499999999
 20
54.679123
 30
0.0
 11
-277.44772
 21
55.679104
 31
0.0
  0
LINE
  5
306
330
20
100
AcDbEntity
  8
0
  6
Continuous
 62
     7
100
AcDbLine
 10
-288.44772
 20
55.679104
 30
0.0
 11
-289.4477499999998
 21
54.67907
 31
0.0
  0
LINE
  5
307
330
20
100
AcDbEntity
  8
0
  6
Continuous
 62
     7
100
AcDbLine
 10
-289.4477499999998
 20
54.679081
 30
0.0
 11
-276.4476899999999
 21
54.679081
 31
0.0
  0
LINE
  5
308
330
20
100
AcDbEntity
  8
0
  6
Continuous
 62
     7
100
AcDbLine
 10
-289.4477499999998
 20
54.679081
 30
0.0
 11
-289.4477499999998
 21
52.679111
 31
0.0
  0
LINE
  5
309
330
20
100
AcDbEntity
  8
0
  6
Continuous
 62
     7
100
AcDbLine
 10
45.55220799999999
 20
26.6791
 30
0.0
 11
39.566517
 21
66.27694699999999
 31
0.0
  0
LINE
  5
30A
330
20
100
AcDbEntity
  8
0
  6
Continuous
 62
     7
100
AcDbLine
 10
0.55228245
 20
26.679104
 30
0.0
 11
6.537973899999999
 21
66.276955
 31
0.0
  0
LINE
  5
30B
330
20
100
AcDbEntity
  8
0
  6
Continuous
 62
     7
100
AcDbLine
 10
44.54084799999999
 20
26.679104
 30
0.0
 11
38.57775099999999
 21
66.127487
 31
0.0
  0
LINE
  5
30C
330
20
100
AcDbEntity
  8
0
  6
Continuous
 62
     7
100
AcDbLine
 10
1.563643099999999
 20
26.679104
 30
0.0
 11
7.526741
 21
66.127487
 31
0.0
  0
LINE
  5
30D
330
20
100
AcDbEntity
  8
0
  6
Continuous
 62
     7
100
AcDbLine
 10
39.052238
 20
198.99307
 30
0.0
 11
39.052238
 21
178.99307
 31
0.0
  0
LINE
  5
30E
330
20
100
AcDbEntity
  8
0
  6
Continuous
 62
     7
100
AcDbLine
 10
7.052238499999997
 20
198.99307
 30
0.0
 11
7.052238499999997
 21
178.99307
 31
0.0
  0
LINE
  5
30F
330
20
100
AcDbEntity
  8
0
  6
Continuous
 62
     7
100
AcDbLine
 10
7.507789599999997
 20
177.9930699999999
 30
0.0
 11
38.596687
 21
177.9930699999999
 31
0.0
  0
LINE
  5
310
330
20
100
AcDbEntity
  8
0
  6
Continuous
 62
     7
100
AcDbLine
 10
7.507789599999997
 20
199.9930699999999
 30
0.0
 11
38.596687
 21
199.9930699999999
 31
0.0
  0
LINE
  5
311
330
20
100
AcDbEntity
  8
0
  6
Continuous
 62
     7
100
AcDbLine
 10
45.552246
 20
176.4930699999999
 30
0.0
 11
39.496124
 21
177.8906399999999
 31
0.0
  0
LINE
  5
312
330
20
100
AcDbEntity
  8
0
  6
Continuous
 62
     7
100
AcDbLine
 10
45.552242
 20
201.4930699999999
 30
0.0
 11
39.496128
 21
200.0954999999999
 31
0.0
  0
LINE
  5
313
330
20
100
AcDbEntity
  8
0
  6
Continuous
 62
     7
100
AcDbLine
 10
6.608357
 20
200.0955199999999
 30
0.0
 11
0.5522367400000002
 21
201.4930899999999
 31
0.0
  0
LINE
  5
314
330
20
100
AcDbEntity
  8
0
  6
Continuous
 62
     7
100
AcDbLine
 10
6.608360799999998
 20
177.89063
 30
0.0
 11
0.55224067
 21
176.49306
 31
0.0
  0
LINE
  5
315
330
20
100
AcDbEntity
  8
0
  6
Continuous
 62
     7
100
AcDbLine
 10
44.54084
 20
176.4930699999999
 30
0.0
 11
44.54084
 21
175.9930699999999
 31
0.0
  0
LINE
  5
316
330
20
100
AcDbEntity
  8
0
  6
Continuous
 62
     7
100
AcDbLine
 10
1.5636368
 20
176.4930699999999
 30
0.0
 11
1.5636368
 21
175.9930699999999
 31
0.0
  0
LINE
  5
317
330
20
100
AcDbEntity
  8
0
  6
Continuous
 62
     7
100
AcDbLine
 10
44.54084
 20
201.9930699999999
 30
0.0
 11
44.54084
 21
201.4930699999999
 31
0.0
  0
LINE
  5
318
330
20
100
AcDbEntity
  8
0
  6
Continuous
 62
     7
100
AcDbLine
 10
1.5636368
 20
201.9930699999999
 30
0.0
 11
1.5636368
 21
201.4930699999999
 31
0.0
  0
LINE
  5
319
330
20
100
AcDbEntity
  8
0
  6
Continuous
 62
     7
100
AcDbLine
 10
42.727932
 20
175.31023
 30
0.0
 11
39.08099699999999
 21
175.9482
 31
0.0
  0
LINE
  5
31A
330
20
100
AcDbEntity
  8
0
  6
Continuous
 62
     7
100
AcDbLine
 10
7.023494699999997
 20
175.9482
 30
0.0
 11
3.379236
 21
175.3106799999999
 31
0.0
  0
LINE
  5
31B
330
20
100
AcDbEntity
  8
0
  6
Continuous
 62
     7
100
AcDbLine
 10
42.876808
 20
202.7019699999999
 30
0.0
 11
39.081001
 21
202.0379499999999
 31
0.0
  0
LINE
  5
31C
330
20
100
AcDbEntity
  8
0
  6
Continuous
 62
     7
100
AcDbLine
 10
7.0234933
 20
202.0379499999999
 30
0.0
 11
3.4792781
 21
202.65796
 31
0.0
  0
LINE
  5
31D
330
20
100
AcDbEntity
  8
0
  6
Continuous
 62
     7
100
AcDbLine
 10
45.552238
 20
201.4930699999999
 30
0.0
 11
44.54084
 21
201.4930699999999
 31
0.0
  0
LINE
  5
31E
330
20
100
AcDbEntity
  8
0
  6
Continuous
 62
     7
100
AcDbLine
 10
1.5636368
 20
201.4930699999999
 30
0.0
 11
0.55223846
 21
201.4930699999999
 31
0.0
  0
LINE
  5
31F
330
20
100
AcDbEntity
  8
0
  6
Continuous
 62
     7
100
AcDbLine
 10
45.552238
 20
176.4930699999999
 30
0.0
 11
44.54084
 21
176.4930699999999
 31
0.0
  0
LINE
  5
320
330
20
100
AcDbEntity
  8
0
  6
Continuous
 62
     7
100
AcDbLine
 10
1.5636368
 20
176.4930699999999
 30
0.0
 11
0.55223846
 21
176.4930699999999
 31
0.0
  0
LINE
  5
321
330
20
100
AcDbEntity
  8
0
  6
Continuous
 62
     7
100
AcDbLine
 10
44.540844
 20
176.4930699999999
 30
0.0
 11
39.447037
 21
177.8851799999999
 31
0.0
  0
LINE
  5
322
330
20
100
AcDbEntity
  8
0
  6
Continuous
 62
     7
100
AcDbLine
 10
1.563626799999999
 20
176.4930699999999
 30
0.0
 11
6.657449199999997
 21
177.88519
 31
0.0
  0
LINE
  5
323
330
20
100
AcDbEntity
  8
0
  6
Continuous
 62
     7
100
AcDbLine
 10
44.54084799999999
 20
201.4930699999999
 30
0.0
 11
39.447041
 21
200.10097
 31
0.0
  0
LINE
  5
324
330
20
100
AcDbEntity
  8
0
  6
Continuous
 62
     7
100
AcDbLine
 10
1.5636288
 20
201.4930699999999
 30
0.0
 11
6.6574368
 21
200.10097
 31
0.0
  0
LINE
  5
325
330
20
100
AcDbEntity
  8
0
  6
Continuous
 62
     7
100
AcDbLine
 10
46.59236899999998
 20
33.17910399999998
 30
0.0
 11
44.569649
 21
33.17910399999998
 31
0.0
  0
LINE
  5
326
330
20
100
AcDbEntity
  8
0
  6
Continuous
 62
     7
100
AcDbLine
 10
42.96448499999999
 20
57.179104
 30
0.0
 11
40.941765
 21
57.179104
 31
0.0
  0
LINE
  5
327
330
20
100
AcDbEntity
  8
0
  6
Continuous
 62
     7
100
AcDbLine
 10
46.592373
 20
33.17910399999998
 30
0.0
 11
42.964489
 21
57.179104
 31
0.0
  0
LINE
  5
328
330
20
100
AcDbEntity
  8
0
  6
Continuous
 62
     7
100
AcDbLine
 10
-0.48788992
 20
33.17910799999999
 30
0.0
 11
3.1399972
 21
57.17910799999999
 31
0.0
  0
LINE
  5
329
330
20
100
AcDbEntity
  8
0
  6
Continuous
 62
     7
100
AcDbLine
 10
-0.4878921500000001
 20
33.17910399999998
 30
0.0
 11
1.534828199999999
 21
33.17910399999998
 31
0.0
  0
LINE
  5
32A
330
20
100
AcDbEntity
  8
0
  6
Continuous
 62
     7
100
AcDbLine
 10
3.139991799999998
 20
57.179104
 30
0.0
 11
5.1627121
 21
57.179104
 31
0.0
  0
LINE
  5
32B
330
20
100
AcDbEntity
  8
0
  6
Continuous
 62
     7
100
AcDbLine
 10
40.941765
 20
198.99307
 30
0.0
 11
40.941765
 21
178.99307
 31
0.0
  0
LINE
  5
32C
330
20
100
AcDbEntity
  8
0
  6
Continuous
 62
     7
100
AcDbLine
 10
42.96448499999999
 20
198.99307
 30
0.0
 11
42.96448499999999
 21
178.99307
 31
0.0
  0
LINE
  5
32D
330
20
100
AcDbEntity
  8
0
  6
Continuous
 62
     7
100
AcDbLine
 10
46.59236899999998
 20
198.99307
 30
0.0
 11
46.59236899999998
 21
196.9930699999999
 31
0.0
  0
LINE
  5
32E
330
20
100
AcDbEntity
  8
0
  6
Continuous
 62
     7
100
AcDbLine
 10
40.941765
 20
198.99307
 30
0.0
 11
46.59236899999998
 21
198.99307
 31
0.0
  0
LINE
  5
32F
330
20
100
AcDbEntity
  8
0
  6
Continuous
 62
     7
100
AcDbLine
 10
40.941765
 20
178.99307
 30
0.0
 11
46.59236899999998
 21
178.99307
 31
0.0
  0
LINE
  5
330
330
20
100
AcDbEntity
  8
0
  6
Continuous
 62
     7
100
AcDbLine
 10
43.644707
 20
196.9930699999999
 30
0.0
 11
43.644707
 21
180.9930699999999
 31
0.0
  0
LINE
  5
331
330
20
100
AcDbEntity
  8
0
  6
Continuous
 62
     7
100
AcDbLine
 10
46.59236899999998
 20
180.9930699999999
 30
0.0
 11
46.59236899999998
 21
178.99307
 31
0.0
  0
LINE
  5
332
330
20
100
AcDbEntity
  8
0
  6
Continuous
 62
     7
100
AcDbLine
 10
-0.4878921500000001
 20
180.9930699999999
 30
0.0
 11
-0.4878921500000001
 21
178.99307
 31
0.0
  0
LINE
  5
333
330
20
100
AcDbEntity
  8
0
  6
Continuous
 62
     7
100
AcDbLine
 10
3.139991799999998
 20
198.99307
 30
0.0
 11
3.139991799999998
 21
178.99307
 31
0.0
  0
LINE
  5
334
330
20
100
AcDbEntity
  8
0
  6
Continuous
 62
     7
100
AcDbLine
 10
2.459770199999999
 20
196.9930699999999
 30
0.0
 11
2.459770199999999
 21
180.9930699999999
 31
0.0
  0
LINE
  5
335
330
20
100
AcDbEntity
  8
0
  6
Continuous
 62
     7
100
AcDbLine
 10
-0.4878921500000001
 20
198.99307
 30
0.0
 11
-0.4878921500000001
 21
196.9930699999999
 31
0.0
  0
LINE
  5
336
330
20
100
AcDbEntity
  8
0
  6
Continuous
 62
     7
100
AcDbLine
 10
5.1627121
 20
198.99307
 30
0.0
 11
-0.4878921500000001
 21
198.99307
 31
0.0
  0
LINE
  5
337
330
20
100
AcDbEntity
  8
0
  6
Continuous
 62
     7
100
AcDbLine
 10
5.1627121
 20
178.99307
 30
0.0
 11
-0.4878921500000001
 21
178.99307
 31
0.0
  0
LINE
  5
338
330
20
100
AcDbEntity
  8
0
  6
Continuous
 62
     7
100
AcDbLine
 10
5.1627121
 20
198.99307
 30
0.0
 11
5.1627121
 21
178.99307
 31
0.0
  0
LINE
  5
339
330
20
100
AcDbEntity
  8
0
  6
Continuous
 62
     7
100
AcDbLine
 10
-268.9477499999999
 20
26.679102
 30
0.0
 11
-269.8654799999999
 21
67.70146899999999
 31
0.0
  0
LINE
  5
33A
330
20
100
AcDbEntity
  8
0
  6
Continuous
 62
     7
100
AcDbLine
 10
-270.94727
 20
26.634371
 30
0.0
 11
-271.91022
 21
69.679092
 31
0.0
  0
LINE
  5
33B
330
20
100
AcDbEntity
  8
0
  6
Continuous
 62
     7
100
AcDbLine
 10
-294.94827
 20
26.634375
 30
0.0
 11
-294.82422
 21
32.179115
 31
0.0
  0
LINE
  5
33C
330
20
100
AcDbEntity
  8
0
  6
Continuous
 62
     7
100
AcDbLine
 10
-296.9477499999998
 20
26.679106
 30
0.0
 11
-296.8247399999999
 21
32.179115
 31
0.0
  0
LINE
  5
33D
330
20
100
AcDbEntity
  8
0
  6
Continuous
 62
     7
100
AcDbLine
 10
-296.7576
 20
35.179115
 30
0.0
 11
-296.03006
 21
67.70146200000001
 31
0.0
  0
LINE
  5
33E
330
20
100
AcDbEntity
  8
0
  6
Continuous
 62
     7
100
AcDbLine
 10
-294.75711
 20
35.179115
 30
0.0
 11
-293.9853199999999
 21
69.6791
 31
0.0
  0
LINE
  5
33F
330
20
100
AcDbEntity
  8
0
  6
Continuous
 62
     7
100
AcDbLine
 10
-292.9477499999998
 20
57.179104
 30
0.0
 11
-272.9477499999999
 21
57.179104
 31
0.0
  0
LINE
  5
340
330
20
100
AcDbEntity
  8
0
  6
Continuous
 62
     7
100
AcDbLine
 10
-274.9477499999999
 20
33.17910399999998
 30
0.0
 11
-272.9477499999999
 21
33.17910399999998
 31
0.0
  0
LINE
  5
341
330
20
100
AcDbEntity
  8
0
  6
Continuous
 62
     7
100
AcDbLine
 10
-272.9477499999999
 20
57.179104
 30
0.0
 11
-272.9477499999999
 21
33.17910399999998
 31
0.0
  0
LINE
  5
342
330
20
100
AcDbEntity
  8
0
  6
Continuous
 62
     7
100
AcDbLine
 10
-292.9477499999998
 20
57.179104
 30
0.0
 11
-292.9477499999998
 21
35.179115
 31
0.0
  0
LINE
  5
343
330
20
100
AcDbEntity
  8
0
  6
Continuous
 62
     7
100
AcDbLine
 10
-271.88785
 20
68.67909199999999
 30
0.0
 11
-270.86523
 21
68.67909199999999
 31
0.0
  0
LINE
  5
344
330
20
100
AcDbEntity
  8
0
  6
Continuous
 62
     7
100
AcDbLine
 10
-295.03027
 20
68.67909199999999
 30
0.0
 11
-294.0076599999999
 21
68.67909199999999
 31
0.0
  0
LINE
  5
345
330
20
100
AcDbEntity
  8
0
  6
Continuous
 62
     7
100
AcDbLine
 10
29.68547800000001
 20
24.679104
 30
0.0
 11
29.68547800000001
 21
18.679104
 31
0.0
  0
LINE
  5
346
330
20
100
AcDbEntity
  8
0
  6
Continuous
 62
     7
100
AcDbLine
 10
99.552238
 20
54.679111
 30
0.0
 11
99.552238
 21
52.679104
 31
0.0
  0
LINE
  5
347
330
20
100
AcDbEntity
  8
0
  6
Continuous
 62
     7
100
AcDbLine
 10
99.552238
 20
54.179104
 30
0.0
 11
86.55223799999998
 21
54.179104
 31
0.0
  0
LINE
  5
348
330
20
100
AcDbEntity
  8
0
  6
Continuous
 62
     7
100
AcDbLine
 10
98.55225400000001
 20
55.679104
 30
0.0
 11
87.552269
 21
55.679104
 31
0.0
  0
LINE
  5
349
330
20
100
AcDbEntity
  8
0
  6
Continuous
 62
     7
100
AcDbLine
 10
99.552238
 20
54.679115
 30
0.0
 11
98.55226100000001
 21
55.679096
 31
0.0
  0
LINE
  5
34A
330
20
100
AcDbEntity
  8
0
  6
Continuous
 62
     7
100
AcDbLine
 10
87.552277
 20
55.6791
 30
0.0
 11
86.55223799999998
 21
54.679066
 31
0.0
  0
LINE
  5
34B
330
20
100
AcDbEntity
  8
0
  6
Continuous
 62
     7
100
AcDbLine
 10
86.55223799999998
 20
54.679073
 30
0.0
 11
86.55223799999998
 21
52.679104
 31
0.0
  0
LINE
  5
34C
330
20
100
AcDbEntity
  8
0
  6
Continuous
 62
     7
100
AcDbLine
 10
99.552238
 20
36.67910399999998
 30
0.0
 11
99.552238
 21
35.17910399999998
 31
0.0
  0
LINE
  5
34D
330
20
100
AcDbEntity
  8
0
  6
Continuous
 62
     7
100
AcDbLine
 10
86.55223799999998
 20
36.67910399999998
 30
0.0
 11
86.55223799999998
 21
35.17910399999998
 31
0.0
  0
LINE
  5
34E
330
20
100
AcDbEntity
  8
0
  6
Continuous
 62
     7
100
AcDbLine
 10
62.052238
 20
213.9930399999999
 30
0.0
 11
124.0522099999999
 21
213.9930399999999
 31
0.0
  0
LINE
  5
34F
330
20
100
AcDbEntity
  8
0
  6
Continuous
 62
     7
100
AcDbLine
 10
62.052238
 20
210.9930399999999
 30
0.0
 11
124.0522099999999
 21
210.9930399999999
 31
0.0
  0
LINE
  5
350
330
20
100
AcDbEntity
  8
0
  6
Continuous
 62
     7
100
AcDbLine
 10
72.59225500000002
 20
210.9929999999998
 30
0.0
 11
74.352242
 21
207.4730199999999
 31
0.0
  0
LINE
  5
351
330
20
100
AcDbEntity
  8
0
  6
Continuous
 62
     7
100
AcDbLine
 10
74.35221899999998
 20
207.4730199999999
 30
0.0
 11
76.11222099999998
 21
210.9930299999999
 31
0.0
  0
LINE
  5
352
330
20
100
AcDbEntity
  8
0
  6
Continuous
 62
     7
100
AcDbLine
 10
113.51221
 20
210.9930299999999
 30
0.0
 11
111.75223
 21
207.4730399999999
 31
0.0
  0
LINE
  5
353
330
20
100
AcDbEntity
  8
0
  6
Continuous
 62
     7
100
AcDbLine
 10
111.7522399999999
 20
207.47301
 30
0.0
 11
109.99224
 21
210.99301
 31
0.0
  0
LINE
  5
354
330
20
100
AcDbEntity
  8
0
  6
Continuous
 62
     7
100
AcDbLine
 10
62.052238
 20
197.3486499999999
 30
0.0
 11
62.052238
 21
213.9930399999999
 31
0.0
  0
LINE
  5
355
330
20
100
AcDbEntity
  8
0
  6
Continuous
 62
     7
100
AcDbLine
 10
124.0522399999999
 20
213.9930399999999
 30
0.0
 11
124.0522399999999
 21
197.3392
 31
0.0
  0
LINE
  5
356
330
20
100
AcDbEntity
  8
0
  6
Continuous
 62
     7
100
AcDbLine
 10
62.61261
 20
197.0251
 30
0.0
 11
62.05221899999999
 21
197.34863
 31
0.0
  0
LINE
  5
357
330
20
100
AcDbEntity
  8
0
  6
Continuous
 62
     7
100
AcDbLine
 10
105.05221
 20
186.36952
 30
0.0
 11
124.05222
 21
197.33919
 31
0.0
  0
LINE
  5
358
330
20
100
AcDbEntity
  8
0
  6
Continuous
 62
     7
100
AcDbLine
 10
-168.4477699999999
 20
54.67911899999999
 30
0.0
 11
-169.44775
 21
55.679096
 31
0.0
  0
LINE
  5
359
330
20
100
AcDbEntity
  8
0
  6
Continuous
 62
     7
100
AcDbLine
 10
-168.4477799999999
 20
54.679111
 30
0.0
 11
-168.4477799999999
 21
52.679104
 31
0.0
  0
LINE
  5
35A
330
20
100
AcDbEntity
  8
0
  6
Continuous
 62
     7
100
AcDbLine
 10
-168.4477799999999
 20
54.179104
 30
0.0
 11
-181.4477799999999
 21
54.179104
 31
0.0
  0
LINE
  5
35B
330
20
100
AcDbEntity
  8
0
  6
Continuous
 62
     7
100
AcDbLine
 10
-169.44775
 20
55.679104
 30
0.0
 11
-180.44775
 21
55.679104
 31
0.0
  0
LINE
  5
35C
330
20
100
AcDbEntity
  8
0
  6
Continuous
 62
     7
100
AcDbLine
 10
-181.4477399999999
 20
54.679104
 30
0.0
 11
-168.4477699999999
 21
54.679104
 31
0.0
  0
LINE
  5
35D
330
20
100
AcDbEntity
  8
0
  6
Continuous
 62
     7
100
AcDbLine
 10
-180.4477399999999
 20
55.679104
 30
0.0
 11
-181.4477699999999
 21
54.67907
 31
0.0
  0
LINE
  5
35E
330
20
100
AcDbEntity
  8
0
  6
Continuous
 62
     7
100
AcDbLine
 10
-181.4477799999999
 20
54.679073
 30
0.0
 11
-181.4477799999999
 21
52.679104
 31
0.0
  0
LINE
  5
35F
330
20
100
AcDbEntity
  8
0
  6
Continuous
 62
     7
100
AcDbLine
 10
-119.94776
 20
18.679104
 30
0.0
 11
-119.94776
 21
17.679104
 31
0.0
  0
LINE
  5
360
330
20
100
AcDbEntity
  8
0
  6
Continuous
 62
     7
100
AcDbLine
 10
-127.94776
 20
17.679104
 30
0.0
 11
-127.94776
 21
18.679104
 31
0.0
  0
LINE
  5
361
330
20
100
AcDbEntity
  8
0
  6
Continuous
 62
     7
100
AcDbLine
 10
-278.9477499999999
 20
18.47910699999999
 30
0.0
 11
-275.4477499999999
 21
18.47910699999999
 31
0.0
  0
LINE
  5
362
330
20
100
AcDbEntity
  8
0
  6
CENTER
 62
     7
100
AcDbLine
 10
-159.94778
 20
216.9930399999999
 30
0.0
 11
-159.94778
 21
206.9930399999999
 31
0.0
  0
LINE
  5
363
330
20
100
AcDbEntity
  8
0
  6
CENTER
 62
     7
100
AcDbLine
 10
-189.9477799999999
 20
216.9930399999999
 30
0.0
 11
-189.9477799999999
 21
207.4305999999999
 31
0.0
  0
LINE
  5
364
330
20
100
AcDbEntity
  8
0
  6
CENTER
 62
     7
100
AcDbLine
 10
-199.9477699999999
 20
216.9930399999999
 30
0.0
 11
-199.9477699999999
 21
207.5601199999999
 31
0.0
  0
LINE
  5
365
330
20
100
AcDbEntity
  8
0
  6
Continuous
 62
     7
100
AcDbLine
 10
-128.58101
 20
178.99307
 30
0.0
 11
-0.4878921500000001
 21
178.99307
 31
0.0
  0
LINE
  5
366
330
20
100
AcDbEntity
  8
0
  6
Continuous
 62
     7
100
AcDbLine
 10
-291.2977599999998
 20
35.179115
 30
0.0
 11
-291.2977599999998
 21
32.179115
 31
0.0
  0
ARC
  5
367
330
20
100
AcDbEntity
  8
0
  6
Continuous
 62
     7
100
AcDbCircle
 10
-148.94775
 20
6.6791043
 30
0.0
 40
2.75
100
AcDbArc
 50
179.9999799999999
 51
0.0
  0
ARC
  5
368
330
20
100
AcDbEntity
  8
0
  6
Continuous
 62
     7
100
AcDbCircle
 10
-148.94775
 20
9.679104799999999
 30
0.0
 40
2.75
100
AcDbArc
 50
0.0
 51
179.99996
  0
CIRCLE
  5
369
330
20
100
AcDbEntity
  8
0
  6
DASHED
 62
     7
100
AcDbCircle
 10
-123.94776
 20
188.9930699999999
 30
0.0
 40
6.0
  0
ARC
  5
36A
330
20
100
AcDbEntity
  8
0
  6
Continuous
 62
     7
100
AcDbCircle
 10
-123.94776
 20
15.67910499999999
 30
0.0
 40
2.0
100
AcDbArc
 50
210.00002
 51
329.99998
  0
ARC
  5
36B
330
20
100
AcDbEntity
  8
0
  6
Continuous
 62
     7
100
AcDbCircle
 10
-138.94775
 20
9.679104799999999
 30
0.0
 40
2.75
100
AcDbArc
 50
0.0
 51
179.99996
  0
ARC
  5
36C
330
20
100
AcDbEntity
  8
0
  6
Continuous
 62
     7
100
AcDbCircle
 10
-138.94775
 20
6.6791043
 30
0.0
 40
2.75
100
AcDbArc
 50
179.9999799999999
 51
0.0
  0
ARC
  5
36D
330
20
100
AcDbEntity
  8
0
  6
Continuous
 62
     7
100
AcDbCircle
 10
-108.94776
 20
6.6791043
 30
0.0
 40
2.75
100
AcDbArc
 50
179.99996
 51
0.0
  0
ARC
  5
36E
330
20
100
AcDbEntity
  8
0
  6
Continuous
 62
     7
100
AcDbCircle
 10
-98.947762
 20
9.679104799999999
 30
0.0
 40
2.75
100
AcDbArc
 50
0.0
 51
179.99996
  0
ARC
  5
36F
330
20
100
AcDbEntity
  8
0
  6
Continuous
 62
     7
100
AcDbCircle
 10
-98.947762
 20
6.6791043
 30
0.0
 40
2.75
100
AcDbArc
 50
179.99996
 51
0.0
  0
ARC
  5
370
330
20
100
AcDbEntity
  8
0
  6
Continuous
 62
     7
100
AcDbCircle
 10
-108.94776
 20
9.679104799999999
 30
0.0
 40
2.75
100
AcDbArc
 50
0.0
 51
179.99996
  0
ARC
  5
371
330
20
100
AcDbEntity
  8
0
  6
Continuous
 62
     7
100
AcDbCircle
 10
-299.9477499999998
 20
14.67910499999999
 30
0.0
 40
3.0
100
AcDbArc
 50
90.0
 51
179.99996
  0
CIRCLE
  5
372
330
20
100
AcDbEntity
  8
0
  6
Continuous
 62
     7
100
AcDbCircle
 10
-328.8326099999999
 20
234.35812
 30
0.0
 40
1.5
  0
ARC
  5
373
330
20
100
AcDbEntity
  8
0
  6
Continuous
 62
     7
100
AcDbCircle
 10
-185.94775
 20
195.9930699999999
 30
0.0
 40
1.0
100
AcDbArc
 50
90.0
 51
180.0
  0
ARC
  5
374
330
20
100
AcDbEntity
  8
0
  6
Continuous
 62
     7
100
AcDbCircle
 10
-185.94775
 20
181.99307
 30
0.0
 40
1.0
100
AcDbArc
 50
180.0
 51
270.0
  0
ARC
  5
375
330
20
100
AcDbEntity
  8
0
  6
Continuous
 62
     7
100
AcDbCircle
 10
104.0522399999999
 20
195.9930699999999
 30
0.0
 40
1.0
100
AcDbArc
 50
0.0
 51
90.0
  0
ARC
  5
376
330
20
100
AcDbEntity
  8
0
  6
Continuous
 62
     7
100
AcDbCircle
 10
104.0522399999999
 20
181.99307
 30
0.0
 40
1.0
100
AcDbArc
 50
270.0
 51
0.0
  0
ARC
  5
377
330
20
100
AcDbEntity
  8
0
  6
Continuous
 62
     7
100
AcDbCircle
 10
78.052238
 20
58.6791
 30
0.0
 40
2.75
100
AcDbArc
 50
0.0
 51
180.0
  0
ARC
  5
378
330
20
100
AcDbEntity
  8
0
  6
Continuous
 62
     7
100
AcDbCircle
 10
-189.9477799999999
 20
56.179104
 30
0.0
 40
2.75
100
AcDbArc
 50
180.0
 51
0.0
  0
ARC
  5
379
330
20
100
AcDbEntity
  8
0
  6
Continuous
 62
     7
100
AcDbCircle
 10
-159.94778
 20
56.179104
 30
0.0
 40
2.75
100
AcDbArc
 50
180.0
 51
0.0
  0
CIRCLE
  5
37A
330
20
100
AcDbEntity
  8
0
  6
DASHED
 62
     7
100
AcDbCircle
 10
-123.94775
 20
188.9930699999999
 30
0.0
 40
6.0
  0
ARC
  5
37B
330
20
100
AcDbEntity
  8
0
  6
Continuous
 62
     7
100
AcDbCircle
 10
-199.94778
 20
56.179104
 30
0.0
 40
2.75
100
AcDbArc
 50
180.0
 51
0.0
  0
ARC
  5
37C
330
20
100
AcDbEntity
  8
0
  6
Continuous
 62
     7
100
AcDbCircle
 10
68.052238
 20
58.6791
 30
0.0
 40
2.75
100
AcDbArc
 50
0.0
 51
180.0
  0
ARC
  5
37D
330
20
100
AcDbEntity
  8
0
  6
Continuous
 62
     7
100
AcDbCircle
 10
68.052238
 20
55.679104
 30
0.0
 40
2.75
100
AcDbArc
 50
180.0
 51
0.0
  0
ARC
  5
37E
330
20
100
AcDbEntity
  8
0
  6
Continuous
 62
     7
100
AcDbCircle
 10
108.0522399999999
 20
55.679104
 30
0.0
 40
2.75
100
AcDbArc
 50
180.0
 51
0.0
  0
ARC
  5
37F
330
20
100
AcDbEntity
  8
0
  6
Continuous
 62
     7
100
AcDbCircle
 10
93.052238
 20
37.80410399999999
 30
0.0
 40
6.625
100
AcDbArc
 50
238.10921
 51
301.8907899999998
  0
ARC
  5
380
330
20
100
AcDbEntity
  8
0
  6
Continuous
 62
     7
100
AcDbCircle
 10
118.05224
 20
55.679104
 30
0.0
 40
2.75
100
AcDbArc
 50
180.0
 51
0.0
  0
ARC
  5
381
330
20
100
AcDbEntity
  8
0
  6
Continuous
 62
     7
100
AcDbCircle
 10
118.05224
 20
58.6791
 30
0.0
 40
2.75
100
AcDbArc
 50
0.0
 51
180.0
  0
ARC
  5
382
330
20
100
AcDbEntity
  8
0
  6
Continuous
 62
     7
100
AcDbCircle
 10
108.0522399999999
 20
58.6791
 30
0.0
 40
2.75
100
AcDbArc
 50
0.0
 51
180.0
  0
ARC
  5
383
330
20
100
AcDbEntity
  8
0
  6
Continuous
 62
     7
100
AcDbCircle
 10
78.052238
 20
55.679104
 30
0.0
 40
2.75
100
AcDbArc
 50
180.0
 51
0.0
  0
ARC
  5
384
330
20
100
AcDbEntity
  8
0
  6
Continuous
 62
     7
100
AcDbCircle
 10
-149.94778
 20
59.1791
 30
0.0
 40
2.75
100
AcDbArc
 50
0.0
 51
180.0
  0
ARC
  5
385
330
20
100
AcDbEntity
  8
0
  6
Continuous
 62
     7
100
AcDbCircle
 10
-199.94778
 20
59.1791
 30
0.0
 40
2.75
100
AcDbArc
 50
0.0
 51
180.0
  0
ARC
  5
386
330
20
100
AcDbEntity
  8
0
  6
Continuous
 62
     7
100
AcDbCircle
 10
-189.9477799999999
 20
59.1791
 30
0.0
 40
2.75
100
AcDbArc
 50
0.0
 51
180.0
  0
ARC
  5
387
330
20
100
AcDbEntity
  8
0
  6
Continuous
 62
     7
100
AcDbCircle
 10
-159.94778
 20
59.1791
 30
0.0
 40
2.75
100
AcDbArc
 50
0.0
 51
180.0
  0
ARC
  5
388
330
20
100
AcDbEntity
  8
0
  6
Continuous
 62
     7
100
AcDbCircle
 10
-174.94778
 20
37.80410399999999
 30
0.0
 40
6.625
100
AcDbArc
 50
238.10921
 51
301.8907899999998
  0
ARC
  5
389
330
20
100
AcDbEntity
  8
0
  6
Continuous
 62
     7
100
AcDbCircle
 10
-185.94775
 20
51.679104
 30
0.0
 40
1.0
100
AcDbArc
 50
90.0
 51
180.0
  0
ARC
  5
38A
330
20
100
AcDbEntity
  8
0
  6
Continuous
 62
     7
100
AcDbCircle
 10
-185.94775
 20
37.67910399999998
 30
0.0
 40
1.0
100
AcDbArc
 50
180.0
 51
270.0
  0
ARC
  5
38B
330
20
100
AcDbEntity
  8
0
  6
Continuous
 62
     7
100
AcDbCircle
 10
104.0522399999999
 20
51.679104
 30
0.0
 40
1.0
100
AcDbArc
 50
0.0
 51
90.0
  0
ARC
  5
38C
330
20
100
AcDbEntity
  8
0
  6
Continuous
 62
     7
100
AcDbCircle
 10
104.0522399999999
 20
37.67910399999998
 30
0.0
 40
1.0
100
AcDbArc
 50
270.0
 51
0.0
  0
ARC
  5
38D
330
20
100
AcDbEntity
  8
0
  6
Continuous
 62
     7
100
AcDbCircle
 10
-149.94778
 20
56.179104
 30
0.0
 40
2.75
100
AcDbArc
 50
180.0
 51
0.0
  0
ARC
  5
38E
330
20
100
AcDbEntity
  8
0
  6
Continuous
 62
     7
100
AcDbCircle
 10
-304.94775
 20
35.17910399999998
 30
0.0
 40
3.0
100
AcDbArc
 50
180.0
 51
270.0
  0
ARC
  5
38F
330
20
100
AcDbEntity
  8
0
  6
Continuous
 62
     7
100
AcDbCircle
 10
-273.94775
 20
75.179092
 30
0.0
 40
1.0
100
AcDbArc
 50
0.0
 51
90.0
  0
ARC
  5
390
330
20
100
AcDbEntity
  8
0
  6
Continuous
 62
     7
100
AcDbCircle
 10
-291.9477499999998
 20
75.179092
 30
0.0
 40
1.0
100
AcDbArc
 50
90.0
 51
180.0
  0
ARC
  5
391
330
20
100
AcDbEntity
  8
0
  6
Continuous
 62
     7
100
AcDbCircle
 10
-121.9477499999999
 20
188.9930699999999
 30
0.0
 40
12.0
100
AcDbArc
 50
221.8103099999999
 51
236.44267
  0
ARC
  5
392
330
20
100
AcDbEntity
  8
0
  6
Continuous
 62
     7
100
AcDbCircle
 10
-121.9477499999999
 20
188.9930699999999
 30
0.0
 40
12.0
100
AcDbArc
 50
123.55733
 51
138.1896899999998
  0
ARC
  5
393
330
20
100
AcDbEntity
  8
0
  6
Continuous
 62
     7
100
AcDbCircle
 10
23.05223799999999
 20
40.929104
 30
0.0
 40
17.92927399999999
100
AcDbArc
 50
294.99577
 51
307.36461
  0
ARC
  5
394
330
20
100
AcDbEntity
  8
0
  6
Continuous
 62
     7
100
AcDbCircle
 10
23.05223799999999
 20
40.929104
 30
0.0
 40
17.92927399999999
100
AcDbArc
 50
232.63539
 51
245.0042299999999
  0
ARC
  5
395
330
20
100
AcDbEntity
  8
0
  6
Continuous
 62
     7
100
AcDbCircle
 10
-282.9477499999999
 20
40.929104
 30
0.0
 40
17.92927399999999
100
AcDbArc
 50
232.6353799999999
 51
245.0041999999998
  0
ARC
  5
396
330
20
100
AcDbEntity
  8
0
  6
Continuous
 62
     7
100
AcDbCircle
 10
-282.9477499999999
 20
40.929104
 30
0.0
 40
17.92927399999999
100
AcDbArc
 50
294.9958
 51
307.36462
  0
ARC
  5
397
330
20
100
AcDbEntity
  8
0
  6
Continuous
 62
     7
100
AcDbCircle
 10
-282.9477499999999
 20
37.804115
 30
0.0
 40
6.625
100
AcDbArc
 50
238.10921
 51
301.8907899999998
  0
ARC
  5
398
330
20
100
AcDbEntity
  8
0
  6
Continuous
 62
     7
100
AcDbCircle
 10
-289.44781
 20
51.179111
 30
0.0
 40
1.5
100
AcDbArc
 50
90.0
 51
180.0
  0
ARC
  5
399
330
20
100
AcDbEntity
  8
0
  6
Continuous
 62
     7
100
AcDbCircle
 10
-276.4477499999999
 20
51.179111
 30
0.0
 40
1.5
100
AcDbArc
 50
0.0
 51
90.0
  0
ARC
  5
39A
330
20
100
AcDbEntity
  8
0
  6
Continuous
 62
     7
100
AcDbCircle
 10
-289.44781
 20
38.17911099999999
 30
0.0
 40
1.5
100
AcDbArc
 50
180.0
 51
270.0
  0
ARC
  5
39B
330
20
100
AcDbEntity
  8
0
  6
Continuous
 62
     7
100
AcDbCircle
 10
-276.4477499999999
 20
38.17911099999999
 30
0.0
 40
1.5
100
AcDbArc
 50
270.0
 51
0.0
  0
ARC
  5
39C
330
20
100
AcDbEntity
  8
0
  6
Continuous
 62
     7
100
AcDbCircle
 10
28.052238
 20
179.9930699999999
 30
0.0
 40
1.0
100
AcDbArc
 50
270.0
 51
0.0
  0
ARC
  5
39D
330
20
100
AcDbEntity
  8
0
  6
Continuous
 62
     7
100
AcDbCircle
 10
28.052238
 20
197.9930699999999
 30
0.0
 40
1.0
100
AcDbArc
 50
0.0
 51
90.0
  0
ARC
  5
39E
330
20
100
AcDbEntity
  8
0
  6
Continuous
 62
     7
100
AcDbCircle
 10
18.052238
 20
197.9930699999999
 30
0.0
 40
1.0
100
AcDbArc
 50
90.0
 51
180.0
  0
ARC
  5
39F
330
20
100
AcDbEntity
  8
0
  6
Continuous
 62
     7
100
AcDbCircle
 10
18.052238
 20
179.9930699999999
 30
0.0
 40
1.0
100
AcDbArc
 50
180.0
 51
270.0
  0
ARC
  5
3A0
330
20
100
AcDbEntity
  8
0
  6
Continuous
 62
     7
100
AcDbCircle
 10
29.552238
 20
75.179092
 30
0.0
 40
1.0
100
AcDbArc
 50
0.0
 51
115.9891299999999
  0
ARC
  5
3A1
330
20
100
AcDbEntity
  8
0
  6
Continuous
 62
     7
100
AcDbCircle
 10
16.55223799999999
 20
75.179092
 30
0.0
 40
1.0
100
AcDbArc
 50
64.01087400000001
 51
180.0
  0
ARC
  5
3A2
330
20
100
AcDbEntity
  8
0
  6
Continuous
 62
     7
100
AcDbCircle
 10
23.05223799999999
 20
88.512421
 30
0.0
 40
13.83333299999999
100
AcDbArc
 50
244.0107599999999
 51
295.98924
  0
CIRCLE
  5
3A3
330
20
100
AcDbEntity
  8
0
  6
Continuous
 62
     7
100
AcDbCircle
 10
-174.94778
 20
188.9930699999999
 30
0.0
 40
6.5
  0
CIRCLE
  5
3A4
330
20
100
AcDbEntity
  8
0
  6
Continuous
 62
     7
100
AcDbCircle
 10
-174.94778
 20
188.9930699999999
 30
0.0
 40
5.5000119
  0
ARC
  5
3A5
330
20
100
AcDbEntity
  8
0
  6
Continuous
 62
     7
100
AcDbCircle
 10
35.611443
 20
65.67909199999999
 30
0.0
 40
4.0
100
AcDbArc
 50
8.595842300000001
 51
90.0
  0
ARC
  5
3A6
330
20
100
AcDbEntity
  8
0
  6
Continuous
 62
     7
100
AcDbCircle
 10
10.493034
 20
65.67909199999999
 30
0.0
 40
4.0
100
AcDbArc
 50
90.0
 51
171.4041499999999
  0
ARC
  5
3A7
330
20
100
AcDbEntity
  8
0
  6
Continuous
 62
     7
100
AcDbCircle
 10
35.611443
 20
65.67909199999999
 30
0.0
 40
3.0
100
AcDbArc
 50
8.5959198
 51
90.0
  0
ARC
  5
3A8
330
20
100
AcDbEntity
  8
0
  6
Continuous
 62
     7
100
AcDbCircle
 10
10.493034
 20
65.67909199999999
 30
0.0
 40
3.0
100
AcDbArc
 50
90.0
 51
171.40408
  0
ARC
  5
3A9
330
20
100
AcDbEntity
  8
0
  6
Continuous
 62
     7
100
AcDbCircle
 10
38.596687
 20
173.9930699999999
 30
0.0
 40
4.0
100
AcDbArc
 50
77.005408
 51
90.0
  0
ARC
  5
3AA
330
20
100
AcDbEntity
  8
0
  6
Continuous
 62
     7
100
AcDbCircle
 10
7.507789599999997
 20
203.9930699999999
 30
0.0
 40
4.0
100
AcDbArc
 50
257.00539
 51
270.0
  0
ARC
  5
3AB
330
20
100
AcDbEntity
  8
0
  6
Continuous
 62
     7
100
AcDbCircle
 10
7.507789599999997
 20
173.9930699999999
 30
0.0
 40
4.0
100
AcDbArc
 50
90.0
 51
102.9946099999999
  0
ARC
  5
3AC
330
20
100
AcDbEntity
  8
0
  6
Continuous
 62
     7
100
AcDbCircle
 10
2.563636799999998
 20
201.9930699999999
 30
0.0
 40
1.0
100
AcDbArc
 50
90.0
 51
180.0
  0
ARC
  5
3AD
330
20
100
AcDbEntity
  8
0
  6
Continuous
 62
     7
100
AcDbCircle
 10
43.54084
 20
201.9930699999999
 30
0.0
 40
1.0
100
AcDbArc
 50
0.0
 51
90.0
  0
ARC
  5
3AE
330
20
100
AcDbEntity
  8
0
  6
Continuous
 62
     7
100
AcDbCircle
 10
43.54084
 20
175.9930699999999
 30
0.0
 40
1.0
100
AcDbArc
 50
270.0
 51
0.0
  0
ARC
  5
3AF
330
20
100
AcDbEntity
  8
0
  6
Continuous
 62
     7
100
AcDbCircle
 10
2.563636799999998
 20
175.9930699999999
 30
0.0
 40
1.0
100
AcDbArc
 50
180.0
 51
270.0
  0
ARC
  5
3B0
330
20
100
AcDbEntity
  8
0
  6
Continuous
 62
     7
100
AcDbCircle
 10
38.56403399999999
 20
172.9930699999999
 30
0.0
 40
3.0
100
AcDbArc
 50
80.07733599999998
 51
90.0
  0
ARC
  5
3B1
330
20
100
AcDbEntity
  8
0
  6
Continuous
 62
     7
100
AcDbCircle
 10
7.5404434
 20
172.9930699999999
 30
0.0
 40
3.0
100
AcDbArc
 50
90.0
 51
99.92267300000001
  0
ARC
  5
3B2
330
20
100
AcDbEntity
  8
0
  6
Continuous
 62
     7
100
AcDbCircle
 10
7.5404434
 20
204.9930699999999
 30
0.0
 40
3.0
100
AcDbArc
 50
260.0773299999999
 51
270.0
  0
ARC
  5
3B3
330
20
100
AcDbEntity
  8
0
  6
Continuous
 62
     7
100
AcDbCircle
 10
38.56403399999999
 20
204.9930699999999
 30
0.0
 40
3.0
100
AcDbArc
 50
270.0
 51
279.92266
  0
ARC
  5
3B4
330
20
100
AcDbEntity
  8
0
  6
Continuous
 62
     7
100
AcDbCircle
 10
38.656166
 20
174.9913
 30
0.0
 40
3.0
100
AcDbArc
 50
74.71467
 51
86.59068899999999
  0
ARC
  5
3B5
330
20
100
AcDbEntity
  8
0
  6
Continuous
 62
     7
100
AcDbCircle
 10
7.4483261
 20
174.9913
 30
0.0
 40
3.0
100
AcDbArc
 50
93.40935700000001
 51
105.28531
  0
ARC
  5
3B6
330
20
100
AcDbEntity
  8
0
  6
Continuous
 62
     7
100
AcDbCircle
 10
7.4483261
 20
202.9948399999999
 30
0.0
 40
3.0
100
AcDbArc
 50
254.7146899999999
 51
266.59064
  0
ARC
  5
3B7
330
20
100
AcDbEntity
  8
0
  6
Continuous
 62
     7
100
AcDbCircle
 10
-270.86523
 20
67.679092
 30
0.0
 40
1.0
100
AcDbArc
 50
1.281770499999999
 51
90.0
  0
ARC
  5
3B8
330
20
100
AcDbEntity
  8
0
  6
Continuous
 62
     7
100
AcDbCircle
 10
-295.03027
 20
67.679092
 30
0.0
 40
1.0
100
AcDbArc
 50
90.0
 51
178.71867
  0
CIRCLE
  5
3B9
330
20
100
AcDbEntity
  8
0
  6
Continuous
 62
     7
100
AcDbCircle
 10
93.052238
 20
188.9930699999999
 30
0.0
 40
6.5
  0
CIRCLE
  5
3BA
330
20
100
AcDbEntity
  8
0
  6
Continuous
 62
     7
100
AcDbCircle
 10
93.052238
 20
188.9930699999999
 30
0.0
 40
5.5000119
  0
TEXT
  5
3BB
330
20
100
AcDbEntity
  8
0
  6
Continuous
 62
     7
100
AcDbText
 10
-379.343
 20
288.8999999999998
 30
0.0
 40
3.2
  1
品　名
 41
0.85537027
100
AcDbText
  0
TEXT
  5
3BC
330
20
100
AcDbEntity
  8
0
  6
Continuous
 62
     7
100
AcDbText
 10
-379.343
 20
280.8999999999999
 30
0.0
 40
3.2
  1
品　番
 41
0.85537027
100
AcDbText
  0
TEXT
  5
3BD
330
20
100
AcDbEntity
  8
0
  6
Continuous
 62
     7
100
AcDbText
 10
-379.343
 20
272.8999999999999
 30
0.0
 40
3.2
  1
材　質
 41
0.85537027
100
AcDbText
  0
TEXT
  5
3BE
330
20
100
AcDbEntity
  8
0
  6
Continuous
 62
     7
100
AcDbText
 10
-379.343
 20
256.8999999999999
 30
0.0
 40
3.2
  1
仕上げ
 41
0.85537027
100
AcDbText
  0
TEXT
  5
3BF
330
20
100
AcDbEntity
  8
0
  6
Continuous
 62
     7
100
AcDbText
 10
-382.543
 20
232.9
 30
0.0
 40
3.2
  1
セットビス
 41
0.84892707
100
AcDbText
  0
TEXT
  5
3C0
330
20
100
AcDbEntity
  8
0
  6
Continuous
 62
     7
100
AcDbText
 10
-377.7430000000001
 20
208.8999999999999
 30
0.0
 40
3.2
  1
備考
 41
0.8643907499999999
100
AcDbText
  0
TEXT
  5
3C1
330
20
100
AcDbEntity
  8
0
  6
Continuous
 62
     7
100
AcDbText
 10
-362.143
 20
288.8999999999998
 30
0.0
 40
3.2
  1
重量窓用調整器（内開用）
 41
0.8437725099999997
100
AcDbText
  0
TEXT
  5
3C2
330
20
100
AcDbEntity
  8
0
  6
Continuous
 62
     7
100
AcDbText
 10
-362.143
 20
280.8999999999999
 30
0.0
 40
3.2
  1
ＯＳ－３９０
 41
0.84741102
100
AcDbText
  0
TEXT
  5
3C3
330
20
100
AcDbEntity
  8
0
  6
Continuous
 62
     7
100
AcDbText
 10
-361.84756
 20
272.8999999999999
 30
0.0
 40
3.2
  1
ストッパーケース：亜鉛ダイキャスト
 41
0.62491263
100
AcDbText
  0
TEXT
  5
3C4
330
20
100
AcDbEntity
  8
0
  6
Continuous
 62
     7
100
AcDbText
 10
-362.143
 20
216.9
 30
0.0
 40
3.2
  1
*
100
AcDbText
  0
TEXT
  5
3C5
330
20
100
AcDbEntity
  8
0
  6
Continuous
 62
     7
100
AcDbText
 10
-362.143
 20
208.8999999999999
 30
0.0
 40
3.2
  1
※サッシ形状、開き角度に応じＬ－２、ストップ位置設定
 41
0.8418981199999999
100
AcDbText
  0
TEXT
  5
3C6
330
20
100
AcDbEntity
  8
0
  6
Continuous
 62
     7
100
AcDbText
 10
-361.93035
 20
248.9
 30
0.0
 40
3.2
  1
ブラケット：バレル研磨
 41
0.6870517900000001
100
AcDbText
  0
TEXT
  5
3C7
330
20
100
AcDbEntity
  8
0
  6
Continuous
 62
     7
100
AcDbText
 10
-361.93035
 20
256.8999999999999
 30
0.0
 40
3.2
  1
ストッパーケース：サーチライトニッケルクロム／パイプ：ヘアーライン
 41
0.6849914700000001
100
AcDbText
  0
TEXT
  5
3C8
330
20
100
AcDbEntity
  8
0
  6
Continuous
 62
     7
100
AcDbText
 10
-362.143
 20
200.8999999999999
 30
0.0
 40
3.2
  1
　致します。
 41
0.84741102
100
AcDbText
  0
TEXT
  5
3C9
330
20
100
AcDbEntity
  8
0
  6
Continuous
 62
     7
100
AcDbText
 10
-361.96166
 20
192.9
 30
0.0
 40
3.2
  1
●シリンダー付も有ります。（ＯＳＬ－３８０、ＯＳＬ－３９０）
 41
0.7081484200000002
100
AcDbText
  0
TEXT
  5
3CA
330
20
100
AcDbEntity
  8
0
  6
Continuous
 62
     7
100
AcDbText
 10
-362.143
 20
184.9
 30
0.0
 40
3.2
  1
受注生産
 41
0.8512700499999999
100
AcDbText
  0
TEXT
  5
3CB
330
20
100
AcDbEntity
  8
0
  6
Continuous
 62
     7
100
AcDbText
 10
-361.84756
 20
264.9
 30
0.0
 40
3.2
  1
パイプ：ステンレス・ブラケット：ステンレス
 41
0.6245674000000001
100
AcDbText
  0
TEXT
  5
3CC
330
20
100
AcDbEntity
  8
0
  6
Continuous
 62
     7
100
AcDbText
 10
-362.143
 20
224.9
 30
0.0
 40
3.2
  1
*
100
AcDbText
  0
TEXT
  5
3CD
330
20
100
AcDbEntity
  8
0
  6
Continuous
 62
     7
100
AcDbText
 10
-362.143
 20
232.9
 30
0.0
 40
3.2
  1
Ｍ５×１２ナベ小ネジ＋ＳＵＳ：１２本付
 41
0.84248387
100
AcDbText
  0
DIMENSION
  5
3CE
330
20
100
AcDbEntity
  8
0
  6
Continuous
 62
     7
100
AcDbDimension
  2
*D1
 10
-164.94775
 20
18.679104
 30
0.0
 11
-164.94775
 21
18.179104
 31
0.0
 71
     5
 42
-1.0
  3
DIMSTYLE
100
AcDbAlignedDimension
 13
-154.94775
 23
17.679104
 33
0.0
 14
-136.94775
 24
18.679104
 34
0.0
 50
90.0
100
AcDbRotatedDimension
1001
ACAD
1000
DSTYLE
1002
{
1070
    77
1070
     1
1070
   172
1070
     1
1070
    76
1070
     1
1002
}
  0
DIMENSION
  5
3CF
330
20
100
AcDbEntity
  8
0
  6
Continuous
 62
     7
100
AcDbDimension
  2
*D2
 10
-164.94775
 20
1.679104399999999
 30
0.0
 11
-164.94775
 21
-7.200458
 31
0.0
 71
     5
 42
-1.0
  3
DIMSTYLE
100
AcDbAlignedDimension
 13
-154.07947
 23
8.179104799999999
 33
0.0
 14
-154.94775
 24
1.679104399999999
 34
0.0
 50
90.0
100
AcDbRotatedDimension
1001
ACAD
1000
DSTYLE
1002
{
1070
    77
1070
     1
1070
   172
1070
     1
1070
    75
1070
     1
1002
}
  0
DIMENSION
  5
3D0
330
20
100
AcDbEntity
  8
0
  6
Continuous
 62
     7
100
AcDbDimension
  2
*D3
 10
-225.94775
 20
32.17910399999999
 30
0.0
 11
-225.94775
 21
16.929104
 31
0.0
 71
     5
 42
-1.0
  3
DIMSTYLE
100
AcDbAlignedDimension
 13
-154.94775
 23
1.679104399999999
 33
0.0
 14
-205.94775
 24
32.17910399999999
 34
0.0
 50
90.0
100
AcDbRotatedDimension
1001
ACAD
1000
DSTYLE
1002
{
1070
    77
1070
     1
1070
   172
1070
     1
1070
    76
1070
     1
1002
}
  0
DIMENSION
  5
3D1
330
20
100
AcDbEntity
  8
0
  6
Continuous
 62
     7
100
AcDbDimension
  2
*D4
 10
-282.9477499999999
 20
-42.505009
 30
0.0
 11
-292.9477499999998
 21
-42.505009
 31
0.0
 71
     5
 42
-1.0
  3
DIMSTYLE
100
AcDbAlignedDimension
 13
-302.94775
 23
-27.505009
 33
0.0
 14
-282.9477499999999
 24
5.273098499999997
 34
0.0
100
AcDbRotatedDimension
1001
ACAD
1000
DSTYLE
1002
{
1070
    77
1070
     1
1070
   172
1070
     1
1002
}
  0
DIMENSION
  5
3D2
330
20
100
AcDbEntity
  8
0
  6
Continuous
 62
     7
100
AcDbDimension
  2
*D5
 10
-282.9477499999999
 20
94.679108
 30
0.0
 11
-295.4477499999999
 21
94.679108
 31
0.0
 71
     5
 42
-1.0
  3
DIMSTYLE
100
AcDbAlignedDimension
 13
-307.9477499999998
 23
84.679108
 33
0.0
 14
-282.9477499999999
 24
80.464111
 34
0.0
100
AcDbRotatedDimension
1001
ACAD
1000
DSTYLE
1002
{
1070
    77
1070
     1
1070
   172
1070
     1
1002
}
  0
DIMENSION
  5
3D3
330
20
100
AcDbEntity
  8
0
  6
Continuous
 62
     7
100
AcDbDimension
  2
*D6
 10
-154.94775
 20
-13.320895
 30
0.0
 11
-151.94775
 21
-13.320895
 31
0.0
 71
     5
 42
-1.0
  3
DIMSTYLE
100
AcDbAlignedDimension
 13
-148.94775
 23
0.6838652500000002
 33
0.0
 14
-154.94775
 24
1.679104399999999
 34
0.0
100
AcDbRotatedDimension
1001
ACAD
1000
DSTYLE
1002
{
1070
    77
1070
     1
1070
   172
1070
     1
1002
}
  0
DIMENSION
  5
3D4
330
20
100
AcDbEntity
  8
0
  6
Continuous
 62
     7
100
AcDbDimension
  2
*D7
 10
-138.94775
 20
-13.320895
 30
0.0
 11
-143.94775
 21
-13.320895
 31
0.0
 71
     5
 42
-1.0
  3
DIMSTYLE
100
AcDbAlignedDimension
 13
-148.94775
 23
0.6838652500000002
 33
0.0
 14
-138.94775
 24
0.6838652500000002
 34
0.0
100
AcDbRotatedDimension
1001
ACAD
1000
DSTYLE
1002
{
1070
    77
1070
     1
1070
   172
1070
     1
1070
    75
1070
     1
1002
}
  0
DIMENSION
  5
3D5
330
20
100
AcDbEntity
  8
0
  6
Continuous
 62
     7
100
AcDbDimension
  2
*D8
 10
-108.94776
 20
-13.320895
 30
0.0
 11
-123.94775
 21
-13.320895
 31
0.0
 71
     5
 42
-1.0
  3
DIMSTYLE
100
AcDbAlignedDimension
 13
-138.94775
 23
0.6838652500000002
 33
0.0
 14
-108.94776
 24
0.6838652500000002
 34
0.0
100
AcDbRotatedDimension
1001
ACAD
1000
DSTYLE
1002
{
1070
    77
1070
     1
1070
   172
1070
     1
1070
    75
1070
     1
1002
}
  0
DIMENSION
  5
3D6
330
20
100
AcDbEntity
  8
0
  6
Continuous
 62
     7
100
AcDbDimension
  2
*D9
 10
-98.947762
 20
-13.320895
 30
0.0
 11
-103.94776
 21
-13.320895
 31
0.0
 71
     5
 42
-1.0
  3
DIMSTYLE
100
AcDbAlignedDimension
 13
-108.94776
 23
0.6838652500000002
 33
0.0
 14
-98.947762
 24
0.6838652500000002
 34
0.0
100
AcDbRotatedDimension
1001
ACAD
1000
DSTYLE
1002
{
1070
    77
1070
     1
1070
   172
1070
     1
1070
    75
1070
     1
1002
}
  0
DIMENSION
  5
3D7
330
20
100
AcDbEntity
  8
0
  6
Continuous
 62
     7
100
AcDbDimension
  2
*D10
 10
-92.94776199999999
 20
-13.320895
 30
0.0
 11
-95.947762
 21
-13.320895
 31
0.0
 71
     5
 42
-1.0
  3
DIMSTYLE
100
AcDbAlignedDimension
 13
-98.947762
 23
0.6838652500000002
 33
0.0
 14
-92.94776199999999
 24
1.679104399999999
 34
0.0
100
AcDbRotatedDimension
1001
ACAD
1000
DSTYLE
1002
{
1070
    77
1070
     1
1070
   172
1070
     1
1070
    75
1070
     1
1002
}
  0
DIMENSION
  5
3D8
330
20
100
AcDbEntity
  8
0
  6
Continuous
 62
     7
100
AcDbDimension
  2
*D11
 10
-154.94775
 20
-21.307795
 30
0.0
 11
-123.94775
 21
-21.307795
 31
0.0
 71
     5
 42
-1.0
  3
DIMSTYLE
100
AcDbAlignedDimension
 13
-92.94776199999999
 23
1.679104399999999
 33
0.0
 14
-154.94775
 24
1.679104399999999
 34
0.0
100
AcDbRotatedDimension
1001
ACAD
1000
DSTYLE
1002
{
1070
    77
1070
     1
1070
   172
1070
     1
1002
}
  0
DIMENSION
  5
3D9
330
20
100
AcDbEntity
  8
0
  6
Continuous
 62
     7
100
AcDbDimension
  2
*D12
 10
0.55223846
 20
219.7303199999999
 30
0.0
 11
23.405945
 21
219.7303199999999
 31
0.0
 71
     5
 42
-1.0
  3
DIMSTYLE
100
AcDbAlignedDimension
 13
45.552238
 23
200.9930699999999
 33
0.0
 14
0.55223846
 24
200.9930699999999
 34
0.0
100
AcDbRotatedDimension
1001
ACAD
1000
DSTYLE
1002
{
1070
    77
1070
     1
1070
   172
1070
     1
1002
}
  0
DIMENSION
  5
3DA
330
20
100
AcDbEntity
  8
0
  6
Continuous
 62
     7
100
AcDbDimension
  2
*D13
 10
-9.4477615
 20
180.9930699999999
 30
0.0
 11
-9.4477615
 21
208.6196
 31
0.0
 71
     5
 42
-1.0
  3
DIMSTYLE
100
AcDbAlignedDimension
 13
5.6112595
 23
196.9930699999999
 33
0.0
 14
5.6112595
 24
180.9930699999999
 34
0.0
 50
90.0
100
AcDbRotatedDimension
1001
ACAD
1000
DSTYLE
1002
{
1070
    77
1070
     1
1070
   172
1070
     1
1070
    75
1070
     1
1070
    76
1070
     1
1002
}
  0
DIMENSION
  5
3DB
330
20
100
AcDbEntity
  8
0
  6
Continuous
 62
     7
100
AcDbDimension
  2
*D14
 10
-19.447762
 20
198.99307
 30
0.0
 11
-19.447762
 21
208.6196
 31
0.0
 71
     5
 42
-1.0
  3
DIMSTYLE
100
AcDbAlignedDimension
 13
0.55223846
 23
178.99307
 33
0.0
 14
0.55223846
 24
198.99307
 34
0.0
 50
90.0
100
AcDbRotatedDimension
1001
ACAD
1000
DSTYLE
1002
{
1070
    77
1070
     1
1070
   172
1070
     1
1070
    75
1070
     1
1070
    76
1070
     1
1002
}
  0
DIMENSION
  5
3DC
330
20
100
AcDbEntity
  8
0
  6
Continuous
 62
     7
100
AcDbDimension
  2
*D15
 10
-29.447762
 20
174.9930699999999
 30
0.0
 11
-29.447762
 21
208.6196
 31
0.0
 71
     5
 42
-1.0
  3
DIMSTYLE
100
AcDbAlignedDimension
 13
2.552238499999999
 23
202.9930699999999
 33
0.0
 14
2.552238499999999
 24
174.9930699999999
 34
0.0
 50
90.0
100
AcDbRotatedDimension
1001
ACAD
1000
DSTYLE
1002
{
1070
    77
1070
     1
1070
   172
1070
     1
1002
}
  0
DIMENSION
  5
3DD
330
20
100
AcDbEntity
  8
0
  6
Continuous
 62
     7
100
AcDbDimension
  2
*D16
 10
-174.94778
 20
159.9930699999999
 30
0.0
 11
-179.94775
 21
159.9930699999999
 31
0.0
 71
     5
 42
-1.0
  3
DIMSTYLE
100
AcDbAlignedDimension
 13
-184.94775
 23
180.9930699999999
 33
0.0
 14
-174.94778
 24
173.47772
 34
0.0
100
AcDbRotatedDimension
1001
ACAD
1000
DSTYLE
1002
{
1070
    77
1070
     1
1070
   172
1070
     1
1002
}
  0
DIMENSION
  5
3DE
330
20
100
AcDbEntity
  8
0
  6
Continuous
 62
     7
100
AcDbDimension
  2
*D43
 10
-186.94775
 20
149.9930699999999
 30
0.0
 11
-190.5302737036104
 21
152.4635787319496
 31
0.0
 70
   160
 71
     5
 42
2.0
  3
DIMSTYLE
100
AcDbAlignedDimension
 13
-184.94775
 23
180.9930699999999
 33
0.0
 14
-186.94775
 24
181.99307
 34
0.0
100
AcDbRotatedDimension
1001
ACAD
1000
DSTYLE
1002
{
1070
    77
1070
     1
1070
   172
1070
     1
1070
   271
1070
     0
1002
}
  0
DIMENSION
  5
3DF
330
20
100
AcDbEntity
  8
0
  6
Continuous
 62
     7
100
AcDbDimension
  2
*D18
 10
-123.94775
 20
159.9930699999999
 30
0.0
 11
-150.9477799999999
 21
159.9930699999999
 31
0.0
 71
     5
 42
-1.0
  3
DIMSTYLE
100
AcDbAlignedDimension
 13
-174.94778
 23
173.47772
 33
0.0
 14
-123.94775
 24
173.3304699999999
 34
0.0
100
AcDbRotatedDimension
1001
ACAD
1000
DSTYLE
1002
{
1070
    77
1070
     1
1070
   172
1070
     1
1070
    75
1070
     1
1002
}
  0
DIMENSION
  5
3E0
330
20
100
AcDbEntity
  8
0
  6
Continuous
 62
     7
100
AcDbDimension
  2
*D19
 10
-123.94775
 20
159.9930699999999
 30
0.0
 11
-51.947769
 21
159.9930699999999
 31
0.0
 71
     5
 42
146.999988
  3
DIMSTYLE
100
AcDbAlignedDimension
 13
23.05223799999999
 23
168.9930699999998
 33
0.0
 14
-123.94775
 24
173.3304699999999
 34
0.0
100
AcDbRotatedDimension
1001
ACAD
1000
DSTYLE
1002
{
1070
    77
1070
     1
1070
   172
1070
     1
1070
    76
1070
     1
1002
}
  0
DIMENSION
  5
3E1
330
20
100
AcDbEntity
  8
0
  6
Continuous
 62
     7
100
AcDbDimension
  2
*D20
 10
93.052238
 20
159.9930699999999
 30
0.0
 11
58.052238
 21
159.9930699999999
 31
0.0
 71
     5
 42
-1.0
  3
DIMSTYLE
100
AcDbAlignedDimension
 13
23.05223799999999
 23
168.9930699999998
 33
0.0
 14
93.052238
 24
173.47772
 34
0.0
100
AcDbRotatedDimension
1001
ACAD
1000
DSTYLE
1002
{
1070
    77
1070
     1
1070
   172
1070
     1
1070
    75
1070
     1
1002
}
  0
DIMENSION
  5
3E2
330
20
100
AcDbEntity
  8
0
  6
Continuous
 62
     7
100
AcDbDimension
  2
*D21
 10
103.0522399999999
 20
159.9930699999999
 30
0.0
 11
98.052238
 21
159.9930699999999
 31
0.0
 71
     5
 42
-1.0
  3
DIMSTYLE
100
AcDbAlignedDimension
 13
93.052238
 23
173.47772
 33
0.0
 14
103.0522399999999
 24
180.9930699999999
 34
0.0
100
AcDbRotatedDimension
1001
ACAD
1000
DSTYLE
1002
{
1070
    77
1070
     1
1070
   172
1070
     1
1070
    75
1070
     1
1002
}
  0
DIMENSION
  5
3E3
330
20
100
AcDbEntity
  8
0
  6
Continuous
 62
     7
100
AcDbDimension
  2
*D44
 10
105.0522399999999
 20
149.9930699999999
 30
0.0
 11
108.7618263500144
 21
152.4771212258942
 31
0.0
 70
   160
 71
     5
 42
2.0
  3
DIMSTYLE
100
AcDbAlignedDimension
 13
103.0522399999999
 23
180.9930699999999
 33
0.0
 14
105.0522399999999
 24
181.99307
 34
0.0
100
AcDbRotatedDimension
1001
ACAD
1000
DSTYLE
1002
{
1070
    77
1070
     1
1070
   172
1070
     1
1070
   271
1070
     0
1002
}
  0
DIMENSION
  5
3E4
330
20
100
AcDbEntity
  8
0
  6
Continuous
 62
     7
100
AcDbDimension
  2
*D42
 10
-184.94775
 20
149.9930699999999
 30
0.0
 11
-40.94775500000006
 21
149.9930699999999
 31
0.0
 70
    32
  1
 
 71
     5
 42
287.9999899999999
  3
DIMSTYLE
100
AcDbAlignedDimension
 13
103.0522399999999
 23
180.9930699999999
 33
0.0
 14
-184.94775
 24
180.9930699999999
 34
0.0
100
AcDbRotatedDimension
1001
ACAD
1000
DSTYLE
1002
{
1070
    77
1070
     1
1070
   172
1070
     1
1070
    75
1070
     1
1070
    76
1070
     1
1002
}
  0
DIMENSION
  5
3E5
330
20
100
AcDbEntity
  8
0
  6
Continuous
 62
     7
100
AcDbDimension
  2
*D24
 10
-199.94778
 20
74.1791
 30
0.0
 11
-202.94775
 21
74.1791
 31
0.0
 71
     5
 42
-1.0
  3
DIMSTYLE
100
AcDbAlignedDimension
 13
-205.94775
 23
64.1791
 33
0.0
 14
-199.94778
 24
66.171272
 34
0.0
100
AcDbRotatedDimension
1001
ACAD
1000
DSTYLE
1002
{
1070
    77
1070
     1
1070
   172
1070
     1
1002
}
  0
DIMENSION
  5
3E6
330
20
100
AcDbEntity
  8
0
  6
Continuous
 62
     7
100
AcDbDimension
  2
*D25
 10
-199.94778
 20
74.1791
 30
0.0
 11
-194.94778
 21
74.1791
 31
0.0
 71
     5
 42
-1.0
  3
DIMSTYLE
100
AcDbAlignedDimension
 13
-189.9477799999999
 23
66.171272
 33
0.0
 14
-199.94778
 24
66.171272
 34
0.0
100
AcDbRotatedDimension
1001
ACAD
1000
DSTYLE
1002
{
1070
    77
1070
     1
1070
   172
1070
     1
1070
    76
1070
     1
1002
}
  0
DIMENSION
  5
3E7
330
20
100
AcDbEntity
  8
0
  6
Continuous
 62
     7
100
AcDbDimension
  2
*D26
 10
-159.94778
 20
74.1791
 30
0.0
 11
-174.94778
 21
74.1791
 31
0.0
 71
     5
 42
-1.0
  3
DIMSTYLE
100
AcDbAlignedDimension
 13
-189.9477799999999
 23
66.171272
 33
0.0
 14
-159.94778
 24
66.171272
 34
0.0
100
AcDbRotatedDimension
1001
ACAD
1000
DSTYLE
1002
{
1070
    77
1070
     1
1070
   172
1070
     1
1070
    75
1070
     1
1002
}
  0
DIMENSION
  5
3E8
330
20
100
AcDbEntity
  8
0
  6
Continuous
 62
     7
100
AcDbDimension
  2
*D27
 10
-149.94778
 20
74.1791
 30
0.0
 11
-154.94778
 21
74.1791
 31
0.0
 71
     5
 42
-1.0
  3
DIMSTYLE
100
AcDbAlignedDimension
 13
-159.94778
 23
66.171272
 33
0.0
 14
-149.94778
 24
66.171272
 34
0.0
100
AcDbRotatedDimension
1001
ACAD
1000
DSTYLE
1002
{
1070
    77
1070
     1
1070
   172
1070
     1
1070
    75
1070
     1
1002
}
  0
DIMENSION
  5
3E9
330
20
100
AcDbEntity
  8
0
  6
Continuous
 62
     7
100
AcDbDimension
  2
*D28
 10
-143.9477799999998
 20
74.1791
 30
0.0
 11
-146.9477799999999
 21
74.1791
 31
0.0
 71
     5
 42
-1.0
  3
DIMSTYLE
100
AcDbAlignedDimension
 13
-149.94778
 23
66.171272
 33
0.0
 14
-143.9477799999998
 24
64.1791
 34
0.0
100
AcDbRotatedDimension
1001
ACAD
1000
DSTYLE
1002
{
1070
    77
1070
     1
1070
   172
1070
     1
1070
    75
1070
     1
1002
}
  0
DIMENSION
  5
3EA
330
20
100
AcDbEntity
  8
0
  6
Continuous
 62
     7
100
AcDbDimension
  2
*D29
 10
-215.94775
 20
35.17910399999998
 30
0.0
 11
-215.94775
 21
33.67910399999999
 31
0.0
 71
     5
 42
-1.0
  3
DIMSTYLE
100
AcDbAlignedDimension
 13
-205.94775
 23
32.17910399999999
 33
0.0
 14
-205.94775
 24
35.17910399999998
 34
0.0
 50
90.0
100
AcDbRotatedDimension
1001
ACAD
1000
DSTYLE
1002
{
1070
    77
1070
     1
1070
   172
1070
     1
1070
    76
1070
     1
1002
}
  0
DIMENSION
  5
3EB
330
20
100
AcDbEntity
  8
0
  6
Continuous
 62
     7
100
AcDbDimension
  2
*D30
 10
-215.94775
 20
57.6791
 30
0.0
 11
-215.94775
 21
46.42910399999998
 31
0.0
 71
     5
 42
-1.0
  3
DIMSTYLE
100
AcDbAlignedDimension
 13
-205.94775
 23
35.17910399999998
 33
0.0
 14
-204.99594
 24
57.6791
 34
0.0
 50
90.0
100
AcDbRotatedDimension
1001
ACAD
1000
DSTYLE
1002
{
1070
    77
1070
     1
1070
   172
1070
     1
1002
}
  0
DIMENSION
  5
3EC
330
20
100
AcDbEntity
  8
0
  6
Continuous
 62
     7
100
AcDbDimension
  2
*D31
 10
-215.94775
 20
64.1791
 30
0.0
 11
-215.94775
 21
69.52327
 31
0.0
 71
     5
 42
-1.0
  3
DIMSTYLE
100
AcDbAlignedDimension
 13
-204.99594
 23
57.6791
 33
0.0
 14
-205.94775
 24
64.1791
 34
0.0
 50
90.0
100
AcDbRotatedDimension
1001
ACAD
1000
DSTYLE
1002
{
1070
    77
1070
     1
1070
   172
1070
     1
1070
    75
1070
     1
1002
}
  0
DIMENSION
  5
3ED
330
20
100
AcDbEntity
  8
0
  6
Continuous
 62
     7
100
AcDbDimension
  2
*D32
 10
-225.94775
 20
64.1791
 30
0.0
 11
-225.94775
 21
48.17910399999998
 31
0.0
 71
     5
 42
-1.0
  3
DIMSTYLE
100
AcDbAlignedDimension
 13
-205.94775
 23
32.17910399999999
 33
0.0
 14
-205.94775
 24
64.1791
 34
0.0
 50
90.0
100
AcDbRotatedDimension
1001
ACAD
1000
DSTYLE
1002
{
1070
    77
1070
     1
1070
   172
1070
     1
1002
}
  0
DIMENSION
  5
3EE
330
20
100
AcDbEntity
  8
0
  6
Continuous
 62
     7
100
AcDbDimension
  2
*D33
 10
-164.94775
 20
24.679104
 30
0.0
 11
-164.94775
 21
21.679104
 31
0.0
 71
     5
 42
-1.0
  3
DIMSTYLE
100
AcDbAlignedDimension
 13
-133.94775
 23
18.679104
 33
0.0
 14
-133.94775
 24
24.679104
 34
0.0
 50
90.0
100
AcDbRotatedDimension
1001
ACAD
1000
DSTYLE
1002
{
1070
    77
1070
     1
1070
   172
1070
     1
1002
}
  0
DIMENSION
  5
3EF
330
20
100
AcDbEntity
  8
0
  6
Continuous
 62
     7
100
AcDbDimension
  2
*D34
 10
-9.447725300000001
 20
26.679104
 30
0.0
 11
-9.447725300000001
 21
25.67910400000001
 31
0.0
 71
     5
 42
-1.0
  3
DIMSTYLE
100
AcDbAlignedDimension
 13
35.052238
 23
24.679104
 33
0.0
 14
0.55223846
 24
26.679104
 34
0.0
 50
90.0
100
AcDbRotatedDimension
1001
ACAD
1000
DSTYLE
1002
{
1070
    77
1070
     1
1070
   172
1070
     1
1070
    75
1070
     1
1002
}
  0
DIMENSION
  5
3F0
330
20
100
AcDbEntity
  8
0
  6
Continuous
 62
     7
100
AcDbDimension
  2
*D35
 10
-9.447725300000001
 20
36.67910399999998
 30
0.0
 11
-9.447725300000001
 21
31.679104
 31
0.0
 71
     5
 42
-1.0
  3
DIMSTYLE
100
AcDbAlignedDimension
 13
0.5522746999999999
 23
26.679104
 33
0.0
 14
2.297233599999999
 24
36.67910399999998
 34
0.0
 50
90.0
100
AcDbRotatedDimension
1001
ACAD
1000
DSTYLE
1002
{
1070
    77
1070
     1
1070
   172
1070
     1
1070
    76
1070
     1
1002
}
  0
DIMENSION
  5
3F1
330
20
100
AcDbEntity
  8
0
  6
Continuous
 62
     7
100
AcDbDimension
  2
*D36
 10
-9.447725300000001
 20
52.679104
 30
0.0
 11
-9.447725300000001
 21
44.679104
 31
0.0
 71
     5
 42
-1.0
  3
DIMSTYLE
100
AcDbAlignedDimension
 13
2.297233599999999
 23
36.67910399999998
 33
0.0
 14
5.087272599999998
 24
52.679104
 34
0.0
 50
90.0
100
AcDbRotatedDimension
1001
ACAD
1000
DSTYLE
1002
{
1070
    77
1070
     1
1070
   172
1070
     1
1070
    75
1070
     1
1070
    76
1070
     1
1002
}
  0
DIMENSION
  5
3F2
330
20
100
AcDbEntity
  8
0
  6
Continuous
 62
     7
100
AcDbDimension
  2
*D37
 10
-9.447725300000001
 20
69.679108
 30
0.0
 11
-9.447725300000001
 21
61.17910799999999
 31
0.0
 71
     5
 42
-1.0
  3
DIMSTYLE
100
AcDbAlignedDimension
 13
5.087272599999998
 23
52.679104
 33
0.0
 14
9.734245299999999
 24
69.679108
 34
0.0
 50
90.0
100
AcDbRotatedDimension
1001
ACAD
1000
DSTYLE
1002
{
1070
    77
1070
     1
1070
   172
1070
     1
1070
    75
1070
     1
1002
}
  0
DIMENSION
  5
3F3
330
20
100
AcDbEntity
  8
0
  6
Continuous
 62
     7
100
AcDbDimension
  2
*D38
 10
-9.447725300000001
 20
76.17911499999998
 30
0.0
 11
-9.447725300000001
 21
81.52449
 31
0.0
 71
     5
 42
-1.0
  3
DIMSTYLE
100
AcDbAlignedDimension
 13
9.734245299999999
 23
69.679108
 33
0.0
 14
17.552238
 24
76.17911499999998
 34
0.0
 50
90.0
100
AcDbRotatedDimension
1001
ACAD
1000
DSTYLE
1002
{
1070
    77
1070
     1
1070
   172
1070
     1
1070
    75
1070
     1
1002
}
  0
INSERT
  5
3F4
330
20
100
AcDbEntity
  8
0
  6
Continuous
 62
     7
100
AcDbBlockReference
  2
KOZU0001
 10
-149.9477699999999
 20
57.67909599999999
 30
0.0
  0
DIMENSION
  5
3F5
330
20
100
AcDbEntity
  8
0
  6
Continuous
 62
     7
100
AcDbDimension
  2
*D39
 10
-164.94775
 20
17.679104
 30
0.0
 11
-164.94775
 21
12.929104
 31
0.0
 71
     5
 42
-1.0
  3
DIMSTYLE
100
AcDbAlignedDimension
 13
-154.07947
 23
8.179104799999999
 33
0.0
 14
-154.94775
 24
17.679104
 34
0.0
 50
90.0
100
AcDbRotatedDimension
1001
ACAD
1000
DSTYLE
1002
{
1070
    77
1070
     1
1070
   172
1070
     1
1002
}
  0
MTEXT
  5
52D
330
20
100
AcDbEntity
  8
0
  6
Continuous
100
AcDbMText
 10
-53.52194121210868
 20
154.4178858174641
 30
0.0
 40
3.2
 41
29.25808628613231
 71
     1
 72
     5
  1
L
 73
     1
 44
1.0
  0
MTEXT
  5
52E
330
20
100
AcDbEntity
  8
0
  6
Continuous
100
AcDbMText
 10
-50.28348044129973
 20
152.8266755973178
 30
0.0
 40
1.6
 41
7.333365756370994
 71
     1
 72
     5
  1
1
 73
     1
 44
1.0
  0
LINE
  5
54A
330
20
100
AcDbEntity
  8
0
  6
Continuous
100
AcDbLine
 10
-188.94775
 20
149.9930699999999
 30
0.0
 11
-192.5201815469674
 21
149.9930699999999
 31
0.0
  0
LINE
  5
570
330
20
100
AcDbEntity
  8
0
  6
Continuous
100
AcDbLine
 10
107.0522399999999
 20
149.9930699999999
 30
0.0
 11
111.1878729367058
 21
149.9930699999999
 31
0.0
  0
ENDSEC
  0
SECTION
  2
OBJECTS
  0
DICTIONARY
  5
C
330
0
100
AcDbDictionary
281
     1
  3
ACAD_COLOR
350
1B
  3
ACAD_GROUP
350
D
  3
ACAD_LAYOUT
350
19
  3
ACAD_MATERIAL
350
1A
  3
ACAD_MLINESTYLE
350
16
  3
ACAD_PLOTSETTINGS
350
18
  3
ACAD_PLOTSTYLENAME
350
E
  3
AcDbVariableDictionary
350
49A
  3
AcmDictionary
350
44D
  3
AMG
350
3F7
  3
AMGSNAPSETTINGS
350
48E
  3
DWGPROPS
350
50F
  0
DICTIONARY
  5
495
330
20
100
AcDbDictionary
280
     1
281
     1
  3
ACAD_INDEX
360
496
  0
DICTIONARY
  5
1B
102
{ACAD_REACTORS
330
C
102
}
330
C
100
AcDbDictionary
281
     1
  0
DICTIONARY
  5
D
102
{ACAD_REACTORS
330
C
102
}
330
C
100
AcDbDictionary
281
     1
  0
DICTIONARY
  5
19
102
{ACAD_REACTORS
330
C
102
}
330
C
100
AcDbDictionary
281
     1
  3
Model
350
23
  3
レイアウト1
350
1F
  0
DICTIONARY
  5
1A
102
{ACAD_REACTORS
330
C
102
}
330
C
100
AcDbDictionary
281
     1
  0
DICTIONARY
  5
16
102
{ACAD_REACTORS
330
C
102
}
330
C
100
AcDbDictionary
281
     1
  3
Standard
350
17
  0
DICTIONARY
  5
18
102
{ACAD_REACTORS
330
C
102
}
330
C
100
AcDbDictionary
281
     1
  0
ACDBDICTIONARYWDFLT
  5
E
102
{ACAD_REACTORS
330
C
102
}
330
C
100
AcDbDictionary
281
     1
  3
Normal
350
F
100
AcDbDictionaryWithDefault
340
F
  0
DICTIONARY
  5
49A
102
{ACAD_REACTORS
330
C
102
}
330
C
100
AcDbDictionary
281
     1
  3
DIMASSOC
350
49C
  3
INDEXCTL
350
49B
  3
PROJECTNAME
350
49D
  0
DICTIONARY
  5
44D
102
{ACAD_REACTORS
330
C
102
}
330
C
100
AcDbDictionary
281
     1
  3
AcmBOMDATA
350
50D
  3
AcmStdDictionary
350
512
  3
AMDTSECTSYM_ARROWCOLOR
350
47A
  0
DICTIONARY
  5
3F7
102
{ACAD_REACTORS
330
C
102
}
330
C
100
AcDbDictionary
281
     1
  3
AcMgSettings
350
4AF
  3
AMGLAYCFG
350
514
  0
DICTIONARY
  5
48E
102
{ACAD_REACTORS
330
C
102
}
330
C
100
AcDbDictionary
281
     1
  0
XRECORD
  5
50F
102
{ACAD_REACTORS
330
C
102
}
330
C
100
AcDbXrecord
280
     1
  1
DWGPROPS COOKIE
  2

  3

  4

  6

  7

  8

  9

300
AmdtFileType=84
301
=
302
=
303
=
304
=
305
=
306
=
307
=
308
=
309
=
 40
0.0043531944444444
 41
2453448.437844502
 42
2453448.618723229
  1

 90
        1
  0
DICTIONARY
  5
496
102
{ACAD_REACTORS
330
495
102
}
330
495
100
AcDbDictionary
281
     1
  3
*A1
350
497
  0
LAYOUT
  5
23
102
{ACAD_XDICTIONARY
360
4A4
102
}
102
{ACAD_REACTORS
330
19
102
}
330
19
100
AcDbPlotSettings
  1

  2
Fuji Xerox BT8050
  4
A4
  6

 40
3.174999952316282
 41
3.174999952316282
 42
3.175003051757812
 43
3.17498779296875
 44
209.8674926757813
 45
296.6719970703124
 46
0.0
 47
0.0
 48
-402.922651289661
 49
-108.0403297476665
140
174.6087103747406
141
301.8064886158031
142
1.0
143
2.013816203337565
 70
 11952
 72
     1
 73
     1
 74
     4
  7

 75
     0
147
0.4965696463970576
148
402.922651289661
149
108.0403297476665
100
AcDbLayout
  1
Model
 70
     1
 71
     0
 10
0.0
 20
0.0
 11
12.0
 21
9.0
 12
0.0
 22
0.0
 32
0.0
 14
0.0
 24
0.0
 34
0.0
 15
0.0
 25
0.0
 35
0.0
146
0.0
 13
0.0
 23
0.0
 33
0.0
 16
1.0
 26
0.0
 36
0.0
 17
0.0
 27
1.0
 37
0.0
 76
     0
330
20
  0
LAYOUT
  5
1F
102
{ACAD_XDICTIONARY
360
4A2
102
}
102
{ACAD_REACTORS
330
19
102
}
330
19
100
AcDbPlotSettings
  1

  2
\\Cad-srv01\FX DocuColor 1250 PLW
  4

  6

 40
0.0
 41
0.0
 42
0.0
 43
0.0
 44
0.0
 45
0.0
 46
0.0
 47
0.0
 48
0.0
 49
0.0
140
0.0
141
0.0
142
1.0
143
1.0
 70
   688
 72
     0
 73
     0
 74
     5
  7

 75
    16
147
1.0
148
0.0
149
0.0
100
AcDbLayout
  1
レイアウト1
 70
     1
 71
     1
 10
-385.0
 20
-100.0
 11
170.0
 21
296.0
 12
0.0
 22
0.0
 32
0.0
 14
1.000000000000000E+20
 24
1.000000000000000E+20
 34
1.000000000000000E+20
 15
-1.000000000000000E+20
 25
-1.000000000000000E+20
 35
-1.000000000000000E+20
146
0.0
 13
0.0
 23
0.0
 33
0.0
 16
1.0
 26
0.0
 36
0.0
 17
0.0
 27
1.0
 37
0.0
 76
     0
330
1C
  0
MLINESTYLE
  5
17
102
{ACAD_REACTORS
330
16
102
}
330
16
100
AcDbMlineStyle
  2
STANDARD
 70
     0
  3

 62
   256
 51
90.0
 52
90.0
 71
     2
 49
0.5
 62
   256
  6
BYLAYER
 49
-0.5
 62
   256
  6
BYLAYER
  0
ACDBPLACEHOLDER
  5
F
102
{ACAD_REACTORS
330
E
102
}
330
E
  0
DICTIONARYVAR
  5
49C
102
{ACAD_REACTORS
330
49A
102
}
330
49A
100
DictionaryVariables
280
     0
  1
1
  0
DICTIONARYVAR
  5
49B
102
{ACAD_REACTORS
330
49A
102
}
330
49A
100
DictionaryVariables
280
     0
  1
1
  0
DICTIONARYVAR
  5
49D
102
{ACAD_REACTORS
330
49A
102
}
330
49A
100
DictionaryVariables
280
     0
  1

  0
ACMDATADICTIONARY
  5
50D
102
{ACAD_REACTORS
330
44D
102
}
330
44D
100
AcDbDictionary
281
     1
  3
*A1
350
50E
100
AcmDataDictionary
  0
DICTIONARY
  5
512
102
{ACAD_REACTORS
330
44D
102
}
330
44D
100
AcDbDictionary
281
     1
  3
ANSI
350
513
  0
XRECORD
  5
47A
102
{ACAD_REACTORS
330
44D
102
}
330
44D
100
AcDbXrecord
280
     1
 90
-1023410169
  0
DICTIONARY
  5
4AF
102
{ACAD_REACTORS
330
3F7
102
}
330
3F7
100
AcDbDictionary
281
     1
  3
DWGSETTINGS
350
4F7
  3
TRANSSETTINGS
350
4F8
  0
LAYER_INDEX
  5
497
102
{ACAD_REACTORS
330
496
102
}
330
496
100
AcDbIndex
 40
2453448.725752881
100
AcDbLayerIndex
  8
0
360
498
 90
      509
  8
DEFPOINTS
360
499
 90
        0
  0
DICTIONARY
  5
4A4
330
23
100
AcDbDictionary
280
     1
281
     1
  3
ACAD_XREC_ROUNDTRIP
360
4A5
  0
DICTIONARY
  5
4A2
330
1F
100
AcDbDictionary
280
     1
281
     1
  3
ACAD_XREC_ROUNDTRIP
360
4A3
  0
ACMDATAENTRYBLOCK
  5
50E
102
{ACAD_REACTORS
330
50D
102
}
330
50D
100
AcmDataEntry
100
AcmDataEntryBlock
  0
IDBUFFER
  5
498
330
0
100
AcDbIdBuffer
330
52D
330
52E
330
54A
330
570
330
1FD
330
1FE
330
1FF
330
200
330
201
330
202
330
203
330
204
330
205
330
206
330
207
330
208
330
209
330
20A
330
20B
330
20C
330
20D
330
20E
330
20F
330
210
330
211
330
212
330
213
330
214
330
215
330
216
330
217
330
218
330
219
330
21A
330
21B
330
21C
330
21D
330
21E
330
21F
330
220
330
221
330
222
330
223
330
224
330
225
330
226
330
227
330
228
330
229
330
22A
330
22B
330
22C
330
22D
330
22E
330
22F
330
230
330
231
330
232
330
233
330
234
330
235
330
236
330
237
330
238
330
239
330
23A
330
23B
330
23C
330
23D
330
23E
330
23F
330
240
330
241
330
242
330
243
330
244
330
245
330
246
330
247
330
248
330
249
330
24A
330
24B
330
24C
330
24D
330
24E
330
24F
330
250
330
251
330
252
330
253
330
254
330
255
330
256
330
257
330
258
330
259
330
25A
330
25B
330
25C
330
25D
330
25E
330
25F
330
260
330
261
330
262
330
263
330
264
330
265
330
266
330
267
330
268
330
269
330
26A
330
26B
330
26C
330
26D
330
26E
330
26F
330
270
330
271
330
272
330
273
330
274
330
275
330
276
330
277
330
278
330
279
330
27A
330
27B
330
27C
330
27D
330
27E
330
27F
330
280
330
281
330
282
330
283
330
284
330
285
330
286
330
287
330
288
330
289
330
28A
330
28B
330
28C
330
28D
330
28E
330
28F
330
290
330
291
330
292
330
293
330
294
330
295
330
296
330
297
330
298
330
299
330
29A
330
29B
330
29C
330
29D
330
29E
330
29F
330
2A0
330
2A1
330
2A2
330
2A3
330
2A4
330
2A5
330
2A6
330
2A7
330
2A8
330
2A9
330
2AA
330
2AB
330
2AC
330
2AD
330
2AE
330
2AF
330
2B0
330
2B1
330
2B2
330
2B3
330
2B4
330
2B5
330
2B6
330
2B7
330
2B8
330
2B9
330
2BA
330
2BB
330
2BC
330
2BD
330
2BE
330
2BF
330
2C0
330
2C1
330
2C2
330
2C3
330
2C4
330
2C5
330
2C6
330
2C7
330
2C8
330
2C9
330
2CA
330
2CB
330
2CC
330
2CD
330
2CE
330
2CF
330
2D0
330
2D1
330
2D2
330
2D3
330
2D4
330
2D5
330
2D6
330
2D7
330
2D8
330
2D9
330
2DA
330
2DB
330
2DC
330
2DD
330
2DE
330
2DF
330
2E0
330
2E1
330
2E2
330
2E3
330
2E4
330
2E5
330
2E6
330
2E7
330
2E8
330
2E9
330
2EA
330
2EB
330
2EC
330
2ED
330
2EE
330
2EF
330
2F0
330
2F1
330
2F2
330
2F3
330
2F4
330
2F5
330
2F6
330
2F7
330
2F8
330
2F9
330
2FA
330
2FB
330
2FC
330
2FD
330
2FE
330
2FF
330
300
330
301
330
302
330
303
330
304
330
305
330
306
330
307
330
308
330
309
330
30A
330
30B
330
30C
330
30D
330
30E
330
30F
330
310
330
311
330
312
330
313
330
314
330
315
330
316
330
317
330
318
330
319
330
31A
330
31B
330
31C
330
31D
330
31E
330
31F
330
320
330
321
330
322
330
323
330
324
330
325
330
326
330
327
330
328
330
329
330
32A
330
32B
330
32C
330
32D
330
32E
330
32F
330
330
330
331
330
332
330
333
330
334
330
335
330
336
330
337
330
338
330
339
330
33A
330
33B
330
33C
330
33D
330
33E
330
33F
330
340
330
341
330
342
330
343
330
344
330
345
330
346
330
347
330
348
330
349
330
34A
330
34B
330
34C
330
34D
330
34E
330
34F
330
350
330
351
330
352
330
353
330
354
330
355
330
356
330
357
330
358
330
359
330
35A
330
35B
330
35C
330
35D
330
35E
330
35F
330
360
330
361
330
362
330
363
330
364
330
365
330
366
330
367
330
368
330
369
330
36A
330
36B
330
36C
330
36D
330
36E
330
36F
330
370
330
371
330
372
330
373
330
374
330
375
330
376
330
377
330
378
330
379
330
37A
330
37B
330
37C
330
37D
330
37E
330
37F
330
380
330
381
330
382
330
383
330
384
330
385
330
386
330
387
330
388
330
389
330
38A
330
38B
330
38C
330
38D
330
38E
330
38F
330
390
330
391
330
392
330
393
330
394
330
395
330
396
330
397
330
398
330
399
330
39A
330
39B
330
39C
330
39D
330
39E
330
39F
330
3A0
330
3A1
330
3A2
330
3A3
330
3A4
330
3A5
330
3A6
330
3A7
330
3A8
330
3A9
330
3AA
330
3AB
330
3AC
330
3AD
330
3AE
330
3AF
330
3B0
330
3B1
330
3B2
330
3B3
330
3B4
330
3B5
330
3B6
330
3B7
330
3B8
330
3B9
330
3BA
330
3BB
330
3BC
330
3BD
330
3BE
330
3BF
330
3C0
330
3C1
330
3C2
330
3C3
330
3C4
330
3C5
330
3C6
330
3C7
330
3C8
330
3C9
330
3CA
330
3CB
330
3CC
330
3CD
330
3CE
330
3CF
330
3D0
330
3D1
330
3D2
330
3D3
330
3D4
330
3D5
330
3D6
330
3D7
330
3D8
330
3D9
330
3DA
330
3DB
330
3DC
330
3DD
330
3DE
330
3DF
330
3E0
330
3E1
330
3E2
330
3E3
330
3E4
330
3E5
330
3E6
330
3E7
330
3E8
330
3E9
330
3EA
330
3EB
330
3EC
330
3ED
330
3EE
330
3EF
330
3F0
330
3F1
330
3F2
330
3F3
330
3F4
330
3F5
  0
IDBUFFER
  5
499
330
0
100
AcDbIdBuffer
  0
XRECORD
  5
4A5
102
{ACAD_REACTORS
330
4A4
102
}
330
4A4
100
AcDbXrecord
280
     1
102
SHADEPLOT
 70
     0
102
SHADEPLOTRESLEVEL
 70
     2
102
SHADEPLOTCUSTOMDPI
 70
   200
  0
XRECORD
  5
4A3
102
{ACAD_REACTORS
330
4A2
102
}
330
4A2
100
AcDbXrecord
280
     1
102
SHADEPLOT
 70
     0
102
SHADEPLOTRESLEVEL
 70
     2
102
SHADEPLOTCUSTOMDPI
 70
   300
  0
ENDSEC
  0
EOF
