  0
SECTION
  2
HEADER
  9
$ACADVER
  1
AC1015
  9
$ACADMAINTVER
 70
    20
  9
$DWGCODEPAGE
  3
ANSI_932
  9
$INSBASE
 10
0.0
 20
0.0
 30
0.0
  9
$EXTMIN
 10
-211.0116263101944
 20
-100.0083306632102
 30
-0.0015258207003583
  9
$EXTMAX
 10
170.011628084364
 20
173.0083319344654
 30
0.0000000349246037
  9
$LIMMIN
 10
-211.0
 20
-100.0
  9
$LIMMAX
 10
170.0
 20
173.0
  9
$ORTHOMODE
 70
     0
  9
$REGENMODE
 70
     1
  9
$FILLMODE
 70
     1
  9
$QTEXTMODE
 70
     0
  9
$MIRRTEXT
 70
     0
  9
$LTSCALE
 40
1.0
  9
$ATTMODE
 70
     1
  9
$TEXTSIZE
 40
0.2
  9
$TRACEWID
 40
0.05
  9
$TEXTSTYLE
  7
STANDARD
  9
$CLAYER
  8
0
  9
$CELTYPE
  6
CONTINUOUS
  9
$CECOLOR
 62
   256
  9
$CELTSCALE
 40
1.0
  9
$DISPSILH
 70
     0
  9
$DIMSCALE
 40
1.0
  9
$DIMASZ
 40
1.0
  9
$DIMEXO
 40
2.54
  9
$DIMDLI
 40
0.38
  9
$DIMRND
 40
0.0
  9
$DIMDLE
 40
0.0
  9
$DIMEXE
 40
2.54
  9
$DIMTP
 40
0.0
  9
$DIMTM
 40
0.0
  9
$DIMTXT
 40
3.2
  9
$DIMCEN
 40
0.09
  9
$DIMTSZ
 40
0.0
  9
$DIMTOL
 70
     0
  9
$DIMLIM
 70
     0
  9
$DIMTIH
 70
     0
  9
$DIMTOH
 70
     0
  9
$DIMSE1
 70
     0
  9
$DIMSE2
 70
     0
  9
$DIMTAD
 70
     1
  9
$DIMZIN
 70
     0
  9
$DIMBLK
  1

  9
$DIMASO
 70
     1
  9
$DIMSHO
 70
     0
  9
$DIMPOST
  1

  9
$DIMAPOST
  1

  9
$DIMALT
 70
     0
  9
$DIMALTD
 70
     2
  9
$DIMALTF
 40
25.4
  9
$DIMLFAC
 40
1.0
  9
$DIMTOFL
 70
     0
  9
$DIMTVP
 40
1.0
  9
$DIMTIX
 70
     0
  9
$DIMSOXD
 70
     0
  9
$DIMSAH
 70
     1
  9
$DIMBLK1
  1

  9
$DIMBLK2
  1

  9
$DIMSTYLE
  2
DIMSTYLE
  9
$DIMCLRD
 70
     0
  9
$DIMCLRE
 70
     0
  9
$DIMCLRT
 70
     0
  9
$DIMTFAC
 40
1.0
  9
$DIMGAP
 40
1.6
  9
$DIMJUST
 70
     0
  9
$DIMSD1
 70
     0
  9
$DIMSD2
 70
     0
  9
$DIMTOLJ
 70
     1
  9
$DIMTZIN
 70
     0
  9
$DIMALTZ
 70
     0
  9
$DIMALTTZ
 70
     0
  9
$DIMUPT
 70
     0
  9
$DIMDEC
 70
     4
  9
$DIMTDEC
 70
     4
  9
$DIMALTU
 70
     2
  9
$DIMALTTD
 70
     2
  9
$DIMTXSTY
  7
STANDARD
  9
$DIMAUNIT
 70
     0
  9
$DIMADEC
 70
     0
  9
$DIMALTRND
 40
0.0
  9
$DIMAZIN
 70
     0
  9
$DIMDSEP
 70
    46
  9
$DIMATFIT
 70
     3
  9
$DIMFRAC
 70
     0
  9
$DIMLDRBLK
  1

  9
$DIMLUNIT
 70
     2
  9
$DIMLWD
 70
    -2
  9
$DIMLWE
 70
    -2
  9
$DIMTMOVE
 70
     0
  9
$LUNITS
 70
     2
  9
$LUPREC
 70
     4
  9
$SKETCHINC
 40
0.1
  9
$FILLETRAD
 40
0.0
  9
$AUNITS
 70
     0
  9
$AUPREC
 70
     0
  9
$MENU
  1
.
  9
$ELEVATION
 40
0.0
  9
$PELEVATION
 40
0.0
  9
$THICKNESS
 40
0.0
  9
$LIMCHECK
 70
     0
  9
$CHAMFERA
 40
0.0
  9
$CHAMFERB
 40
0.0
  9
$CHAMFERC
 40
0.0
  9
$CHAMFERD
 40
0.0
  9
$SKPOLY
 70
     0
  9
$TDCREATE
 40
2454218.401496123
  9
$TDUCREATE
 40
2454218.026496123
  9
$TDUPDATE
 40
2454218.402041551
  9
$TDUUPDATE
 40
2454218.027041551
  9
$TDINDWG
 40
0.0005461574
  9
$TDUSRTIMER
 40
0.0005461574
  9
$USRTIMER
 70
     1
  9
$ANGBASE
 50
0.0
  9
$ANGDIR
 70
     0
  9
$PDMODE
 70
     0
  9
$PDSIZE
 40
0.0
  9
$PLINEWID
 40
0.0
  9
$SPLFRAME
 70
     0
  9
$SPLINETYPE
 70
     6
  9
$SPLINESEGS
 70
     8
  9
$HANDSEED
  5
56D
  9
$SURFTAB1
 70
     6
  9
$SURFTAB2
 70
     6
  9
$SURFTYPE
 70
     6
  9
$SURFU
 70
     6
  9
$SURFV
 70
     6
  9
$UCSBASE
  2

  9
$UCSNAME
  2

  9
$UCSORG
 10
0.0
 20
0.0
 30
0.0
  9
$UCSXDIR
 10
1.0
 20
0.0
 30
0.0
  9
$UCSYDIR
 10
0.0
 20
1.0
 30
0.0
  9
$UCSORTHOREF
  2

  9
$UCSORTHOVIEW
 70
     0
  9
$UCSORGTOP
 10
0.0
 20
0.0
 30
0.0
  9
$UCSORGBOTTOM
 10
0.0
 20
0.0
 30
0.0
  9
$UCSORGLEFT
 10
0.0
 20
0.0
 30
0.0
  9
$UCSORGRIGHT
 10
0.0
 20
0.0
 30
0.0
  9
$UCSORGFRONT
 10
0.0
 20
0.0
 30
0.0
  9
$UCSORGBACK
 10
0.0
 20
0.0
 30
0.0
  9
$PUCSBASE
  2

  9
$PUCSNAME
  2

  9
$PUCSORG
 10
0.0
 20
0.0
 30
0.0
  9
$PUCSXDIR
 10
1.0
 20
0.0
 30
0.0
  9
$PUCSYDIR
 10
0.0
 20
1.0
 30
0.0
  9
$PUCSORTHOREF
  2

  9
$PUCSORTHOVIEW
 70
     0
  9
$PUCSORGTOP
 10
0.0
 20
0.0
 30
0.0
  9
$PUCSORGBOTTOM
 10
0.0
 20
0.0
 30
0.0
  9
$PUCSORGLEFT
 10
0.0
 20
0.0
 30
0.0
  9
$PUCSORGRIGHT
 10
0.0
 20
0.0
 30
0.0
  9
$PUCSORGFRONT
 10
0.0
 20
0.0
 30
0.0
  9
$PUCSORGBACK
 10
0.0
 20
0.0
 30
0.0
  9
$USERI1
 70
     0
  9
$USERI2
 70
     0
  9
$USERI3
 70
     0
  9
$USERI4
 70
     0
  9
$USERI5
 70
     0
  9
$USERR1
 40
0.0
  9
$USERR2
 40
0.0
  9
$USERR3
 40
0.0
  9
$USERR4
 40
0.0
  9
$USERR5
 40
0.0
  9
$WORLDVIEW
 70
     1
  9
$SHADEDGE
 70
     3
  9
$SHADEDIF
 70
    70
  9
$TILEMODE
 70
     1
  9
$MAXACTVP
 70
    64
  9
$PINSBASE
 10
0.0
 20
0.0
 30
0.0
  9
$PLIMCHECK
 70
     0
  9
$PEXTMIN
 10
1.000000000000000E+20
 20
1.000000000000000E+20
 30
1.000000000000000E+20
  9
$PEXTMAX
 10
-1.000000000000000E+20
 20
-1.000000000000000E+20
 30
-1.000000000000000E+20
  9
$PLIMMIN
 10
-211.0
 20
-100.0
  9
$PLIMMAX
 10
170.0
 20
173.0
  9
$UNITMODE
 70
     0
  9
$VISRETAIN
 70
     1
  9
$PLINEGEN
 70
     0
  9
$PSLTSCALE
 70
     1
  9
$TREEDEPTH
 70
  3020
  9
$CMLSTYLE
  2
Standard
  9
$CMLJUST
 70
     0
  9
$CMLSCALE
 40
1.0
  9
$PROXYGRAPHICS
 70
     1
  9
$MEASUREMENT
 70
     0
  9
$CELWEIGHT
370
    -1
  9
$ENDCAPS
280
     0
  9
$JOINSTYLE
280
     0
  9
$LWDISPLAY
290
     0
  9
$INSUNITS
 70
     0
  9
$HYPERLINKBASE
  1

  9
$STYLESHEET
  1

  9
$XEDIT
290
     1
  9
$CEPSNTYPE
380
     0
  9
$PSTYLEMODE
290
     1
  9
$FINGERPRINTGUID
  2
{F560FAA5-3D8F-42E3-AD61-40EBB8EDCCD1}
  9
$VERSIONGUID
  2
{6A196D24-3300-4529-8647-AC72401C8629}
  9
$EXTNAMES
290
     1
  9
$PSVPSCALE
 40
0.0
  9
$OLESTARTUP
290
     0
  0
ENDSEC
  0
SECTION
  2
CLASSES
  0
CLASS
  1
ACDBDICTIONARYWDFLT
  2
AcDbDictionaryWithDefault
  3
ObjectDBX Classes
 90
        0
280
     0
281
     0
  0
CLASS
  1
MATERIAL
  2
AcDbMaterial
  3
ObjectDBX Classes
 90
     1153
280
     0
281
     0
  0
CLASS
  1
VISUALSTYLE
  2
AcDbVisualStyle
  3
ObjectDBX Classes
 90
     4095
280
     0
281
     0
  0
CLASS
  1
TABLESTYLE
  2
AcDbTableStyle
  3
ObjectDBX Classes
 90
     4095
280
     0
281
     0
  0
CLASS
  1
AMGSETTINGSOBJ
  2
AmgSettingsObj
  3
"AcadM|Product Description: AutoCAD Mechanical|Company: Autodesk"
 90
        0
280
     0
281
     0
  0
CLASS
  1
ACME_DOCUMENT
  2
AcMeDbDoc
  3
AcMeServices
 90
        0
280
     0
281
     0
  0
CLASS
  1
ACMESCOPE
  2
AcMeScope
  3
AcMeServices
 90
        0
280
     0
281
     0
  0
CLASS
  1
ACMECOMMANDHISTORY
  2
AcMeCommandHistory
  3
AcMeServices
 90
        0
280
     0
281
     0
  0
CLASS
  1
ACIMSYSVARMAN
  2
AcImSysVarManager
  3
AcMeServices
 90
        0
280
     0
281
     0
  0
CLASS
  1
ACIMINTSYSVAR
  2
AcImIntSysVar
  3
AcMeServices
 90
        0
280
     0
281
     0
  0
CLASS
  1
ACMEDRAWINGMAN
  2
AcMeDrawingMan
  3
AcMeServices
 90
        0
280
     0
281
     0
  0
CLASS
  1
ACMEVIEW
  2
AcMeView
  3
AcMeServices
 90
        0
280
     0
281
     0
  0
CLASS
  1
ACDBENTITYCACHE
  2
AcMeEntityCache
  3
AcMeServices
 90
        0
280
     0
281
     0
  0
CLASS
  1
GSMANAGER
  2
AcMeGSManager
  3
AcMeServices
 90
        0
280
     0
281
     0
  0
CLASS
  1
AMDTINTERNALREACTOR
  2
AmdtInternalReactor
  3
AcMeServices
 90
        0
280
     0
281
     0
  0
CLASS
  1
ACMESTATEMGR
  2
AcMeStateMgr
  3
AcMeServices
 90
        0
280
     0
281
     0
  0
CLASS
  1
ACGREFMASTER
  2
AcGrefMaster
  3
AcAttribServices
 90
        0
280
     0
281
     0
  0
CLASS
  1
AM_DRAWING_MGR
  2
AcDmDwgMgr
  3
AcMechDwgViewMgmt
 90
        0
280
     0
281
     0
  0
CLASS
  1
AM_DWG_DOCUMENT
  2
AcDmDwgDocument
  3
AcMechDwgViewMgmt
 90
        0
280
     0
281
     0
  0
CLASS
  1
AM_DWG_SHEET
  2
AcDmSheet
  3
AcMechDwgViewMgmt
 90
        0
280
     0
281
     0
  0
CLASS
  1
AM_VIEWDIMPARMAP
  2
AcDmViewDimParMap
  3
AcMechDwgViewMgmt
 90
        0
280
     0
281
     0
  0
CLASS
  1
ACIMREALSYSVAR
  2
AcImRealSysVar
  3
AcMeServices
 90
        0
280
     0
281
     0
  0
CLASS
  1
AM_DWGMGR_NAME
  2
AcDmDwgMgrName
  3
AcMechDwgViewMgmt
 90
        0
280
     0
281
     0
  0
CLASS
  1
ACME_DATABASE
  2
AcMeDbDatabase
  3
AcMeServices
 90
        0
280
     0
281
     0
  0
CLASS
  1
ACRFINSADJUSTERMGR
  2
AcRfInsAdjusterMgr
  3
AcMeServices
 90
        0
280
     0
281
     0
  0
CLASS
  1
ACGREFACADMASTER
  2
AcGrefacadMaster
  3
AcGrefServices
 90
        0
280
     0
281
     0
  0
CLASS
  1
AMDTMENUSTATEMGR
  2
AmdtMenuStateMgr
  3
McadcomServices
 90
        0
280
     0
281
     0
  0
CLASS
  1
AMDTMCOMMENUSTATE
  2
AmdtMcomMenuState
  3
McadcomServices
 90
        0
280
     0
281
     0
  0
CLASS
  1
AMIMASTER
  2
AmiMaster
  3
AmiServices
 90
        0
280
     0
281
     0
  0
CLASS
  1
MAPIAMMOUDLE
  2
MApiAmModule
  3
MApiAmServices
 90
        0
280
     0
281
     0
  0
CLASS
  1
ACIMSTRSYSVAR
  2
AcImStrSysVar
  3
AcMeServices
 90
        0
280
     0
281
     0
  0
CLASS
  1
AMDTADMENUSTATE
  2
AmdtAdMenuState
  3
DesignerServices
 90
        0
280
     0
281
     0
  0
CLASS
  1
ADAPPL
  2
AcAdAppl
  3
DesignerServices
 90
        0
280
     0
281
     0
  0
CLASS
  1
DEPMGR
  2
AcAdDepMgr
  3
DesignerServices
 90
        0
280
     0
281
     0
  0
CLASS
  1
PARAMMGR
  2
AcAdParamMgr
  3
DesignerServices
 90
        0
280
     0
281
     0
  0
CLASS
  1
PARAMSCOPE
  2
AcAdParamScope
  3
DesignerServices
 90
        0
280
     0
281
     0
  0
CLASS
  1
NAMEDAPPL
  2
AcAdNamedAppl
  3
DesignerServices
 90
        0
280
     0
281
     0
  0
CLASS
  1
AMDTDMMENUSTATE
  2
AmdtDmMenuState
  3
AcMechDwgViewMgmt
 90
        0
280
     0
281
     0
  0
CLASS
  1
AMDTAMMENUSTATE
  2
AmdtAmMenuState
  3
DesignerAssemblies
 90
        0
280
     0
281
     0
  0
CLASS
  1
ACAMPROJECT
  2
AcAmProject
  3
DesignerAssemblies
 90
        0
280
     0
281
     0
  0
CLASS
  1
ACAMGRCOMPDEF
  2
AcAmGrCompDef
  3
DesignerAssemblies
 90
        0
280
     0
281
     0
  0
CLASS
  1
ACCMCONTEXT
  2
AcCmContext
  3
DesignerAssemblies
 90
        0
280
     0
281
     0
  0
CLASS
  1
ACAMCOMPDEF
  2
AcAmCompDef
  3
DesignerAssemblies
 90
        0
280
     0
281
     0
  0
CLASS
  1
ACAMCOMPDEFMGR
  2
AcAmCompDefMgr
  3
DesignerAssemblies
 90
        0
280
     0
281
     0
  0
CLASS
  1
AMCONTEXTMGR
  2
AcAmContextMgr
  3
DesignerAssemblies
 90
        0
280
     0
281
     0
  0
CLASS
  1
ACAMCONTEXTMODELER
  2
AcAmContextModeler
  3
DesignerAssemblies
 90
        0
280
     0
281
     0
  0
CLASS
  1
ACMDATADICTIONARY
  2
AcmDataDictionary
  3
"AcmSymBB|Product Description: AutoCAD Mechanical|Company: Autodesk"
 90
        0
280
     0
281
     0
  0
CLASS
  1
CATALOGSTATE
  2
AcAmCatalogState
  3
DesignerAssemblies
 90
        0
280
     0
281
     0
  0
CLASS
  1
ACAMGRCOMPDEFSET
  2
AcAmGrCompDefSet
  3
DesignerAssemblies
 90
        0
280
     0
281
     0
  0
CLASS
  1
AMDTBROWSERDBTAB
  2
AmdtBrowserDbTab
  3
McadcomServices
 90
        0
280
     0
281
     0
  0
CLASS
  1
CBROWSERAPPOBJECT
  2
CBrowserAppObject
  3
McadcomServices
 90
        0
280
     0
281
     0
  0
CLASS
  1
DM_PLACEHOLDER
  2
AcDmSelsetPlaceholder
  3
AcMechDwgViewMgmt
 90
        0
280
     0
281
     0
  0
CLASS
  1
ACMSTANDARDANSI
  2
AcmStandardANSI
  3
"Amdt_StdImp|Product Description: AutoCAD Mechanical|Company: Autodesk"
 90
        0
280
     0
281
     0
  0
CLASS
  1
AMGOBJPROPCFG
  2
AmgObjPropCfg
  3
"AmgLay|Product Description: AutoCAD Mechanical|Company: Autodesk"
 90
        1
280
     0
281
     0
  0
CLASS
  1
ACMSURFSTANDARDANSI
  2
AcmSurfTextStdANSI
  3
"Amdt_StdImp|Product Description: AutoCAD Mechanical|Company: Autodesk"
 90
        0
280
     0
281
     0
  0
CLASS
  1
ACMFCFSTANDARDANSI
  2
AcmFCFStdANSI
  3
"Amdt_StdImp|Product Description: AutoCAD Mechanical|Company: Autodesk"
 90
        0
280
     0
281
     0
  0
CLASS
  1
ACMWELDSTANDARDANSI
  2
AcmWeldingStdANSI
  3
"Amdt_StdImp|Product Description: AutoCAD Mechanical|Company: Autodesk"
 90
        0
280
     0
281
     0
  0
CLASS
  1
ACMIDSTANDARDANSI
  2
AcmIdStdANSI
  3
"Amdt_StdImp|Product Description: AutoCAD Mechanical|Company: Autodesk"
 90
        0
280
     0
281
     0
  0
CLASS
  1
ACMDATUMSTANDARDANSI
  2
AcmDatumStdANSI
  3
"Amdt_StdImp|Product Description: AutoCAD Mechanical|Company: Autodesk"
 90
        0
280
     0
281
     0
  0
CLASS
  1
ACMBOMSTANDARDANSI
  2
AcmBOMStdANSI
  3
"Amdt_StdImp|Product Description: AutoCAD Mechanical|Company: Autodesk"
 90
        0
280
     0
281
     0
  0
CLASS
  1
ACMDETAILSTANDARDANSI
  2
AmdtDetailSymStdANSI
  3
"Amdt_StdImp|Product Description: AutoCAD Mechanical|Company: Autodesk"
 90
        0
280
     0
281
     0
  0
CLASS
  1
ACMSECTIONSTANDARDANSI
  2
AmdtSectionSymStdANSI
  3
"Amdt_StdImp|Product Description: AutoCAD Mechanical|Company: Autodesk"
 90
        0
280
     0
281
     0
  0
CLASS
  1
ACMCENTERLINESTANDARDANSI
  2
AmdtCenterLineStdANSI
  3
"Amdt_StdImp|Product Description: AutoCAD Mechanical|Company: Autodesk"
 90
        0
280
     0
281
     0
  0
CLASS
  1
ACMTHREADLINESTANDARDANSI
  2
AmdtThreadLineStdANSI
  3
"Amdt_StdImp|Product Description: AutoCAD Mechanical|Company: Autodesk"
 90
        0
280
     0
281
     0
  0
CLASS
  1
ACMNOTESTANDARDANSI
  2
AmdtNoteStdANSI
  3
"Amdt_StdImp|Product Description: AutoCAD Mechanical|Company: Autodesk"
 90
        0
280
     0
281
     0
  0
CLASS
  1
ACMTAPERSTANDARDANSI
  2
AcmTaperStdANSI
  3
"Amdt_StdImp|Product Description: AutoCAD Mechanical|Company: Autodesk"
 90
        0
280
     0
281
     0
  0
CLASS
  1
AMDTNOTETEMPLATEDB
  2
AmdtNoteTemplateDB
  3
AMDT_STDIMP_MODULE_NAME
 90
        0
280
     0
281
     0
  0
CLASS
  1
ACAMGLAYSTD
  2
AcAmgLayStd
  3
"AmgLay|Product Description: AutoCAD Mechanical|Company: Autodesk"
 90
        0
280
     0
281
     0
  0
CLASS
  1
ACAMGDIMSTD
  2
AcAmgDimStd
  3
"AmgDim|Product Description: AutoCAD Mechanical|Company: Autodesk"
 90
        0
280
     0
281
     0
  0
CLASS
  1
ACAMGHOLECHARTSTDANSI
  2
AcAmgHoleChartStdANSI
  3
ACMSYMBB_MODULE_NAME
 90
        0
280
     0
281
     0
  0
CLASS
  1
ACAMGTITLESTD
  2
AcAmgTitleStd
  3
"AmgTitle|Product Description: AutoCAD Mechanical|Company: Autodesk"
 90
        0
280
     0
281
     0
  0
CLASS
  1
ACAMGFILTERDAT
  2
AcAmgFilterDat
  3
"AcadM|Product Description: AutoCAD Mechanical|Company: Autodesk"
 90
        0
280
     0
281
     0
  0
CLASS
  1
DICTIONARYVAR
  2
AcDbDictionaryVar
  3
ObjectDBX Classes
 90
        0
280
     0
281
     0
  0
CLASS
  1
ACDBPLACEHOLDER
  2
AcDbPlaceHolder
  3
ObjectDBX Classes
 90
        0
280
     0
281
     0
  0
CLASS
  1
LAYOUT
  2
AcDbLayout
  3
ObjectDBX Classes
 90
        0
280
     0
281
     0
  0
ENDSEC
  0
SECTION
  2
TABLES
  0
TABLE
  2
VPORT
  5
8
330
0
100
AcDbSymbolTable
 70
     1
  0
VPORT
  5
45
330
8
100
AcDbSymbolTableRecord
100
AcDbViewportTableRecord
  2
*Active
 70
     0
 10
0.0
 20
0.0
 11
1.0
 21
1.0
 12
-140.0768864894224
 22
116.902420657611
 13
0.0
 23
0.0
 14
1.0
 24
1.0
 15
0.0
 25
0.0
 16
0.0
 26
0.0
 36
1.0
 17
0.0
 27
0.0
 37
0.0
 40
143.6049102136277
 41
1.313157894736842
 42
50.0
 43
0.0
 44
0.0
 50
0.0
 51
0.0
 71
     0
 72
   100
 73
     1
 74
     1
 75
     0
 76
     0
 77
     0
 78
     0
281
     0
 65
     0
110
0.0
120
0.0
130
0.0
111
1.0
121
0.0
131
0.0
112
0.0
122
1.0
132
0.0
 79
     0
146
0.0
  0
ENDTAB
  0
TABLE
  2
LTYPE
  5
5
330
0
100
AcDbSymbolTable
 70
    19
  0
LTYPE
  5
28
330
5
100
AcDbSymbolTableRecord
100
AcDbLinetypeTableRecord
  2
ByBlock
 70
     0
  3

 72
    65
 73
     0
 40
0.0
  0
LTYPE
  5
29
330
5
100
AcDbSymbolTableRecord
100
AcDbLinetypeTableRecord
  2
ByLayer
 70
     0
  3

 72
    65
 73
     0
 40
0.0
  0
LTYPE
  5
2A
330
5
100
AcDbSymbolTableRecord
100
AcDbLinetypeTableRecord
  2
CONTINUOUS
 70
     0
  3
Solid line
 72
    65
 73
     0
 40
0.0
  0
LTYPE
  5
3A
330
5
100
AcDbSymbolTableRecord
100
AcDbLinetypeTableRecord
  2
DASHED
 70
     0
  3
__ __ __ __ __ __ __ __ __ __ __ __ __ __ __
 72
    65
 73
     2
 40
3.5
 49
2.0
 74
     0
 49
-1.5
 74
     0
  0
LTYPE
  5
3B
330
5
100
AcDbSymbolTableRecord
100
AcDbLinetypeTableRecord
  2
CENTER
 70
     0
  3
____ _ ____ _ ____ _ ____ _ ____ _ ____ _ ____
 72
    65
 73
     4
 40
17.5
 49
13.0
 74
     0
 49
-1.5
 74
     0
 49
1.5
 74
     0
 49
-1.5
 74
     0
  0
LTYPE
  5
3C
330
5
100
AcDbSymbolTableRecord
100
AcDbLinetypeTableRecord
  2
PHANTOM
 70
     0
  3
_____ _ _ _____ _ _ _____ _ _ _____ _ _ ____  
 72
    65
 73
     6
 40
15.5
 49
8.0
 74
     0
 49
-1.5
 74
     0
 49
1.5
 74
     0
 49
-1.5
 74
     0
 49
1.5
 74
     0
 49
-1.5
 74
     0
  0
LTYPE
  5
3D
330
5
100
AcDbSymbolTableRecord
100
AcDbLinetypeTableRecord
  2
DOT
 70
     0
  3
. . . . . . . . . . . . . . . . . . . . . . . .
 72
    65
 73
     2
 40
0.25
 49
0.0
 74
     0
 49
-0.25
 74
     0
  0
LTYPE
  5
3E
330
5
100
AcDbSymbolTableRecord
100
AcDbLinetypeTableRecord
  2
HIDDEN
 70
     0
  3
__ __ __ __ __ __ __ __ __ __ __ __ __ __ __
 72
    65
 73
     2
 40
3.5
 49
2.0
 74
     0
 49
-1.5
 74
     0
  0
LTYPE
  5
4D8
330
5
100
AcDbSymbolTableRecord
100
AcDbLinetypeTableRecord
  2
PHANTOM2
 70
     0
  3
Phantom (.5x) ___ _ _ ___ _ _ ___ _ _ ___ _ _
 72
    65
 73
     6
 40
1.25
 49
0.625
 74
     0
 49
-0.125
 74
     0
 49
0.125
 74
     0
 49
-0.125
 74
     0
 49
0.125
 74
     0
 49
-0.125
 74
     0
  0
LTYPE
  5
50D
330
5
100
AcDbSymbolTableRecord
100
AcDbLinetypeTableRecord
  2
AM_ISO02W050
 70
     0
  3
__ __ __ __ __ __ __ __ __ __ __ __ __ __ __
 72
    65
 73
     2
 40
7.5
 49
6.0
 74
     0
 49
-1.5
 74
     0
  0
LTYPE
  5
50E
330
5
100
AcDbSymbolTableRecord
100
AcDbLinetypeTableRecord
  2
AM_ISO08W050
 70
     0
  3
____ . ____ . ____ . ____ . ____ . ____ . ____
 72
    65
 73
     4
 40
18.0
 49
12.0
 74
     0
 49
-1.5
 74
     0
 49
3.0
 74
     0
 49
-1.5
 74
     0
  0
LTYPE
  5
50F
330
5
100
AcDbSymbolTableRecord
100
AcDbLinetypeTableRecord
  2
AM_ISO09W050
 70
     0
  3
_____ . . _____ . . _____ . . ____ .. ____
 72
    65
 73
     6
 40
22.5
 49
12.0
 74
     0
 49
-1.5
 74
     0
 49
3.0
 74
     0
 49
-1.5
 74
     0
 49
3.0
 74
     0
 49
-1.5
 74
     0
  0
LTYPE
  5
510
330
5
100
AcDbSymbolTableRecord
100
AcDbLinetypeTableRecord
  2
Amconstr
 70
     0
  3
_______________________
 72
    65
 73
     2
 40
9999.0
 49
9999.0
 74
     0
 49
0.0
 74
     0
  0
LTYPE
  5
511
330
5
100
AcDbSymbolTableRecord
100
AcDbLinetypeTableRecord
  2
AM_ISO08W050x2
 70
     0
  3
__ . __ . __ . __ . __ . __
 72
    65
 73
     4
 40
9.0
 49
6.0
 74
     0
 49
-0.75
 74
     0
 49
1.5
 74
     0
 49
-0.75
 74
     0
  0
LTYPE
  5
512
330
5
100
AcDbSymbolTableRecord
100
AcDbLinetypeTableRecord
  2
AM_ISO02W050x2
 70
     0
  3
 _ _ _ _ _ _ _ _ _ _ _ _
 72
    65
 73
     2
 40
3.75
 49
3.0
 74
     0
 49
-0.75
 74
     0
  0
LTYPE
  5
515
330
5
100
AcDbSymbolTableRecord
100
AcDbLinetypeTableRecord
  2
Amzigzag
 70
     0
  3
/\/-/\/-/\/-/\/-/\/-/\/
 72
    65
 73
     2
 40
11.0001
 49
0.0001
 74
     4
 75
   136
340
514
 46
0.04
 50
0.0
 44
0.0
 45
0.0
 49
-11.0
 74
     0
  0
LTYPE
  5
516
330
5
100
AcDbSymbolTableRecord
100
AcDbLinetypeTableRecord
  2
CENTER2
 70
     0
  3
Center (.5x) ___ _ ___ _ ___ _ ___ _ ___ _ ___
 72
    65
 73
     4
 40
1.125
 49
0.75
 74
     0
 49
-0.125
 74
     0
 49
0.125
 74
     0
 49
-0.125
 74
     0
  0
LTYPE
  5
517
330
5
100
AcDbSymbolTableRecord
100
AcDbLinetypeTableRecord
  2
HIDDEN2
 70
     0
  3
Hidden (.5x) _ _ _ _ _ _ _ _ _ _ _ _ _ _ _ _ _
 72
    65
 73
     2
 40
0.1875
 49
0.125
 74
     0
 49
-0.0625
 74
     0
  0
LTYPE
  5
518
330
5
100
AcDbSymbolTableRecord
100
AcDbLinetypeTableRecord
  2
Amzigzag2
 70
     0
  3
/\/-/\/-/\/-/\/-/\/-/\/
 72
    65
 73
     2
 40
0.4401
 49
0.0001
 74
     4
 75
   136
340
514
 46
0.0016
 50
0.0
 44
0.0
 45
0.0
 49
-0.4400000000000001
 74
     0
  0
LTYPE
  5
527
330
5
100
AcDbSymbolTableRecord
100
AcDbLinetypeTableRecord
  2
ACANSTGB
 70
     0
  3
__ . . __ . .
 72
    65
 73
     6
 40
0.35433070866
 49
0.15748031496
 74
     0
 49
-0.03937007874
 74
     0
 49
0.03937007874
 74
     0
 49
-0.03937007874
 74
     0
 49
0.03937007874
 74
     0
 49
-0.03937007874
 74
     0
  0
LTYPE
  5
528
330
5
100
AcDbSymbolTableRecord
100
AcDbLinetypeTableRecord
  2
ACANSTGL
 70
     0
  3
_ _ _ _ _
 72
    65
 73
     2
 40
0.11811023622
 49
0.07874015748
 74
     0
 49
-0.03937007874
 74
     0
  0
ENDTAB
  0
TABLE
  2
LAYER
  5
2
330
0
100
AcDbSymbolTable
 70
     4
  0
LAYER
  5
25
330
2
100
AcDbSymbolTableRecord
100
AcDbLayerTableRecord
  2
0
 70
     0
 62
     7
  6
CONTINUOUS
370
    -3
390
F
  0
LAYER
  5
3F
330
2
100
AcDbSymbolTableRecord
100
AcDbLayerTableRecord
  2
1
 70
     0
 62
     7
  6
CONTINUOUS
370
    -3
390
F
  0
LAYER
  5
40
330
2
100
AcDbSymbolTableRecord
100
AcDbLayerTableRecord
  2
2
 70
     0
 62
     7
  6
CONTINUOUS
370
    -3
390
F
  0
LAYER
  5
41
330
2
100
AcDbSymbolTableRecord
100
AcDbLayerTableRecord
  2
DEFPOINTS
 70
     0
 62
     7
  6
CONTINUOUS
290
     0
370
    -3
390
F
  0
ENDTAB
  0
TABLE
  2
STYLE
  5
3
330
0
100
AcDbSymbolTable
 70
     4
  0
STYLE
  5
26
330
3
100
AcDbSymbolTableRecord
100
AcDbTextStyleTableRecord
  2
STANDARD
 70
     0
 40
0.0
 41
1.0
 50
0.0
 71
     0
 42
0.2
  3
txt
  4
BIGFONT
  0
STYLE
  5
514
330
3
100
AcDbSymbolTableRecord
100
AcDbTextStyleTableRecord
  2

 70
     1
 40
0.0
 41
1.0
 50
0.0
 71
     0
 42
3.2
  3
genltshp.shx
  4

  0
STYLE
  5
519
330
3
100
AcDbSymbolTableRecord
100
AcDbTextStyleTableRecord
  2
ACANSTS
 70
     0
 40
1.0
 41
1.0
 50
0.0
 71
     0
 42
3.2
  3
romans.shx
  4
extfont.shx
  0
STYLE
  5
526
330
3
100
AcDbSymbolTableRecord
100
AcDbTextStyleTableRecord
  2
ACANSGDT
 70
     0
 40
0.0
 41
1.0
 50
0.0
 71
     0
 42
3.2
  3
amgdt.shx
  4

  0
ENDTAB
  0
TABLE
  2
VIEW
  5
6
330
0
100
AcDbSymbolTable
 70
     0
  0
ENDTAB
  0
TABLE
  2
UCS
  5
7
330
0
100
AcDbSymbolTable
 70
     0
  0
ENDTAB
  0
TABLE
  2
APPID
  5
9
330
0
100
AcDbSymbolTable
 70
     9
  0
APPID
  5
27
330
9
100
AcDbSymbolTableRecord
100
AcDbRegAppTableRecord
  2
ACAD
 70
     0
  0
APPID
  5
4AB
330
9
100
AcDbSymbolTableRecord
100
AcDbRegAppTableRecord
  2
MCAD_NO_VIS
 70
     0
  0
APPID
  5
4AC
330
9
100
AcDbSymbolTableRecord
100
AcDbRegAppTableRecord
  2
ACAD_TEMP_GRAPHIC
 70
     0
  0
APPID
  5
4DA
330
9
100
AcDbSymbolTableRecord
100
AcDbRegAppTableRecord
  2
AD_DRAW
 70
     0
  0
APPID
  5
4DD
330
9
100
AcDbSymbolTableRecord
100
AcDbRegAppTableRecord
  2
ACATTRIBSERVICES
 70
     0
  0
APPID
  5
4FE
330
9
100
AcDbSymbolTableRecord
100
AcDbRegAppTableRecord
  2
DESIGNERASSEMBLIES
 70
     0
  0
APPID
  5
504
330
9
100
AcDbSymbolTableRecord
100
AcDbRegAppTableRecord
  2
ACADM_DIM_EDIT
 70
     0
  0
APPID
  5
505
330
9
100
AcDbSymbolTableRecord
100
AcDbRegAppTableRecord
  2
AMDT_DM_ADJ
 70
     0
  0
APPID
  5
56C
330
9
100
AcDbSymbolTableRecord
100
AcDbRegAppTableRecord
  2
ACAD_DSTYLE_DIMARC_LENGTH_SYMBOL
 70
     0
  0
ENDTAB
  0
TABLE
  2
DIMSTYLE
  5
A
330
0
100
AcDbSymbolTable
 70
     7
100
AcDbDimStyleTable
 71
     0
  0
DIMSTYLE
105
42
102
{ACAD_REACTORS
330
46E
330
46F
330
470
330
471
330
472
330
473
330
474
330
475
330
476
330
477
330
478
330
479
330
47A
330
47B
330
47C
330
47D
330
47E
330
47F
330
480
330
481
330
482
330
483
330
484
330
485
330
48E
330
48F
330
490
330
491
330
492
330
493
330
494
330
497
330
498
330
4A1
330
4A2
330
4A3
330
4A4
102
}
330
A
100
AcDbSymbolTableRecord
100
AcDbDimStyleTableRecord
  2
DIMSTYLE
 70
     0
 41
1.0
 42
2.54
 44
2.54
 73
     0
 74
     0
140
3.2
147
1.6
173
     1
279
     2
340
26
  0
DIMSTYLE
105
534
330
A
100
AcDbSymbolTableRecord
100
AcDbDimStyleTableRecord
  2
AM_ANSI
 70
     0
  4
mm
 41
0.1
 42
0.05
 43
0.5
 44
0.1
 47
0.1
 48
0.1
 78
     7
 79
     2
140
0.12
141
0.0
146
0.71
147
0.06
176
   256
177
   256
178
     2
274
     4
284
     7
340
26
371
    -1
372
    -1
1001
ACAD_DSTYLE_DIMARC_LENGTH_SYMBOL
1070
   379
1070
     1
  0
DIMSTYLE
105
535
330
A
100
AcDbSymbolTableRecord
100
AcDbDimStyleTableRecord
  2
AM_ANSI$3
 70
     0
  4
mm
 41
0.1
 42
0.05
 43
0.5
 44
0.1
 47
0.1
 48
0.1
 78
     7
 79
     2
140
0.12
141
0.0
146
0.71
147
0.06
176
   256
177
   256
178
     2
274
     4
284
     7
288
     1
289
     0
340
26
371
    -1
372
    -1
1001
ACAD_DSTYLE_DIMARC_LENGTH_SYMBOL
1070
   379
1070
     1
  0
DIMSTYLE
105
536
330
A
100
AcDbSymbolTableRecord
100
AcDbDimStyleTableRecord
  2
AM_ANSI$4
 70
     0
  4
mm
 41
0.1
 42
0.05
 43
0.5
 44
0.1
 47
0.1
 48
0.1
 78
     7
 79
     2
140
0.12
141
0.0
146
0.71
147
0.06
176
   256
177
   256
178
     2
274
     4
284
     7
288
     1
289
     0
340
26
371
    -1
372
    -1
1001
ACAD_DSTYLE_DIMARC_LENGTH_SYMBOL
1070
   379
1070
     1
  0
DIMSTYLE
105
537
330
A
100
AcDbSymbolTableRecord
100
AcDbDimStyleTableRecord
  2
AM_ANSI$7
 70
     0
  4
mm
 41
0.1
 42
0.05
 43
0.5
 44
0.1
 47
0.1
 48
0.1
 78
     7
 79
     2
140
0.24
141
0.0
146
0.71
147
0.06
176
   256
177
   256
178
     2
274
     4
284
     7
340
26
371
    -1
372
    -1
1001
ACAD_DSTYLE_DIMARC_LENGTH_SYMBOL
1070
   379
1070
     1
  0
DIMSTYLE
105
538
330
A
100
AcDbSymbolTableRecord
100
AcDbDimStyleTableRecord
  2
AM_ANSI$SF
 70
     0
  4
mm
 41
0.1
 42
0.05
 43
0.5
 44
0.1
 47
0.1
 48
0.1
 75
     1
 76
     1
 78
     7
 79
     2
140
0.12
141
0.0
146
0.71
147
0.06
176
   256
177
   256
178
     2
274
     4
284
     7
340
26
371
    -1
372
    -1
1001
ACAD_DSTYLE_DIMARC_LENGTH_SYMBOL
1070
   379
1070
     1
  0
DIMSTYLE
105
53D
330
A
100
AcDbSymbolTableRecord
100
AcDbDimStyleTableRecord
  2
AM_ANSI$SH
 70
     0
  4
mm
 41
0.1
 42
0.05
 43
0.5
 44
0.1
 47
0.1
 48
0.1
 75
     1
 76
     1
 78
     7
 79
     2
140
0.12
141
0.0
146
0.71
147
0.06
173
     1
176
   256
177
   256
178
     2
274
     4
284
     7
340
26
343
539
371
    -1
372
    -1
1001
ACAD_DSTYLE_DIMARC_LENGTH_SYMBOL
1070
   379
1070
     1
  0
ENDTAB
  0
TABLE
  2
BLOCK_RECORD
  5
1
330
0
100
AcDbSymbolTable
 70
    42
  0
BLOCK_RECORD
  5
36
330
1
100
AcDbSymbolTableRecord
100
AcDbBlockTableRecord
  2
*Model_Space
340
39
  0
BLOCK_RECORD
  5
32
330
1
100
AcDbSymbolTableRecord
100
AcDbBlockTableRecord
  2
*Paper_Space
340
35
  0
BLOCK_RECORD
  5
46
330
1
100
AcDbSymbolTableRecord
100
AcDbBlockTableRecord
  2
_DOT
340
0
102
{BLKREFS
331
51
331
52
331
5D
331
5E
331
69
331
6A
331
75
331
76
331
81
331
82
331
8F
331
90
331
9A
331
9B
331
A6
331
A7
331
B2
331
B3
331
BD
331
BE
331
C9
331
CA
331
D4
331
D5
331
E0
331
E1
331
EC
331
ED
331
F7
331
F8
331
102
331
103
331
10E
331
10F
331
119
331
11A
331
124
331
125
331
130
331
131
331
13C
331
13D
331
147
331
148
331
154
331
155
331
15F
331
160
331
16B
331
16C
331
175
331
176
331
180
331
181
331
18A
331
18B
331
195
331
196
331
1A0
331
1A1
331
1AC
331
1AD
331
1B7
331
1B8
331
1C4
331
1C5
331
1CF
331
1D0
331
1DC
331
1DD
331
1E6
331
1E7
331
1F2
331
1F3
102
}
  0
BLOCK_RECORD
  5
4E
330
1
100
AcDbSymbolTableRecord
100
AcDbBlockTableRecord
  2
*D1
340
0
  0
BLOCK_RECORD
  5
5A
330
1
100
AcDbSymbolTableRecord
100
AcDbBlockTableRecord
  2
*D2
340
0
  0
BLOCK_RECORD
  5
66
330
1
100
AcDbSymbolTableRecord
100
AcDbBlockTableRecord
  2
*D3
340
0
  0
BLOCK_RECORD
  5
72
330
1
100
AcDbSymbolTableRecord
100
AcDbBlockTableRecord
  2
*D4
340
0
  0
BLOCK_RECORD
  5
7E
330
1
100
AcDbSymbolTableRecord
100
AcDbBlockTableRecord
  2
*D5
340
0
  0
BLOCK_RECORD
  5
8B
330
1
100
AcDbSymbolTableRecord
100
AcDbBlockTableRecord
  2
*D6
340
0
  0
BLOCK_RECORD
  5
96
330
1
100
AcDbSymbolTableRecord
100
AcDbBlockTableRecord
  2
*D7
340
0
  0
BLOCK_RECORD
  5
A3
330
1
100
AcDbSymbolTableRecord
100
AcDbBlockTableRecord
  2
*D8
340
0
  0
BLOCK_RECORD
  5
AF
330
1
100
AcDbSymbolTableRecord
100
AcDbBlockTableRecord
  2
*D9
340
0
  0
BLOCK_RECORD
  5
BA
330
1
100
AcDbSymbolTableRecord
100
AcDbBlockTableRecord
  2
*D10
340
0
  0
BLOCK_RECORD
  5
C5
330
1
100
AcDbSymbolTableRecord
100
AcDbBlockTableRecord
  2
*D11
340
0
  0
BLOCK_RECORD
  5
D1
330
1
100
AcDbSymbolTableRecord
100
AcDbBlockTableRecord
  2
*D12
340
0
  0
BLOCK_RECORD
  5
DD
330
1
100
AcDbSymbolTableRecord
100
AcDbBlockTableRecord
  2
*D13
340
0
  0
BLOCK_RECORD
  5
E9
330
1
100
AcDbSymbolTableRecord
100
AcDbBlockTableRecord
  2
*D14
340
0
  0
BLOCK_RECORD
  5
F4
330
1
100
AcDbSymbolTableRecord
100
AcDbBlockTableRecord
  2
*D15
340
0
  0
BLOCK_RECORD
  5
FF
330
1
100
AcDbSymbolTableRecord
100
AcDbBlockTableRecord
  2
*D16
340
0
  0
BLOCK_RECORD
  5
10B
330
1
100
AcDbSymbolTableRecord
100
AcDbBlockTableRecord
  2
*D17
340
0
  0
BLOCK_RECORD
  5
116
330
1
100
AcDbSymbolTableRecord
100
AcDbBlockTableRecord
  2
*D18
340
0
  0
BLOCK_RECORD
  5
121
330
1
100
AcDbSymbolTableRecord
100
AcDbBlockTableRecord
  2
*D19
340
0
  0
BLOCK_RECORD
  5
12D
330
1
100
AcDbSymbolTableRecord
100
AcDbBlockTableRecord
  2
*D20
340
0
  0
BLOCK_RECORD
  5
139
330
1
100
AcDbSymbolTableRecord
100
AcDbBlockTableRecord
  2
*D21
340
0
  0
BLOCK_RECORD
  5
144
330
1
100
AcDbSymbolTableRecord
100
AcDbBlockTableRecord
  2
*D22
340
0
  0
BLOCK_RECORD
  5
150
330
1
100
AcDbSymbolTableRecord
100
AcDbBlockTableRecord
  2
*D23
340
0
  0
BLOCK_RECORD
  5
15C
330
1
100
AcDbSymbolTableRecord
100
AcDbBlockTableRecord
  2
*D24
340
0
  0
BLOCK_RECORD
  5
168
330
1
100
AcDbSymbolTableRecord
100
AcDbBlockTableRecord
  2
*D25
340
0
  0
BLOCK_RECORD
  5
172
330
1
100
AcDbSymbolTableRecord
100
AcDbBlockTableRecord
  2
*D26
340
0
  0
BLOCK_RECORD
  5
17D
330
1
100
AcDbSymbolTableRecord
100
AcDbBlockTableRecord
  2
*D27
340
0
  0
BLOCK_RECORD
  5
187
330
1
100
AcDbSymbolTableRecord
100
AcDbBlockTableRecord
  2
*D28
340
0
  0
BLOCK_RECORD
  5
192
330
1
100
AcDbSymbolTableRecord
100
AcDbBlockTableRecord
  2
*D29
340
0
  0
BLOCK_RECORD
  5
19D
330
1
100
AcDbSymbolTableRecord
100
AcDbBlockTableRecord
  2
*D30
340
0
  0
BLOCK_RECORD
  5
1A9
330
1
100
AcDbSymbolTableRecord
100
AcDbBlockTableRecord
  2
*D31
340
0
  0
BLOCK_RECORD
  5
1B4
330
1
100
AcDbSymbolTableRecord
100
AcDbBlockTableRecord
  2
*D32
340
0
  0
BLOCK_RECORD
  5
1C1
330
1
100
AcDbSymbolTableRecord
100
AcDbBlockTableRecord
  2
*D33
340
0
  0
BLOCK_RECORD
  5
1CC
330
1
100
AcDbSymbolTableRecord
100
AcDbBlockTableRecord
  2
*D34
340
0
  0
BLOCK_RECORD
  5
1D8
330
1
100
AcDbSymbolTableRecord
100
AcDbBlockTableRecord
  2
*D35
340
0
  0
BLOCK_RECORD
  5
1E3
330
1
100
AcDbSymbolTableRecord
100
AcDbBlockTableRecord
  2
*D36
340
0
  0
BLOCK_RECORD
  5
1EF
330
1
100
AcDbSymbolTableRecord
100
AcDbBlockTableRecord
  2
*D37
340
0
  0
BLOCK_RECORD
  5
1F9
330
1
100
AcDbSymbolTableRecord
100
AcDbBlockTableRecord
  2
KOZU0001
340
0
102
{BLKREFS
331
495
102
}
  0
BLOCK_RECORD
  5
201
330
1
100
AcDbSymbolTableRecord
100
AcDbBlockTableRecord
  2
KOZU0002
340
0
102
{BLKREFS
331
496
102
}
  0
BLOCK_RECORD
  5
539
330
1
100
AcDbSymbolTableRecord
100
AcDbBlockTableRecord
  2
GENAXEH
340
0
  0
ENDTAB
  0
ENDSEC
  0
SECTION
  2
BLOCKS
  0
BLOCK
  5
37
330
36
100
AcDbEntity
  8
0
100
AcDbBlockBegin
  2
*Model_Space
 70
     0
 10
0.0
 20
0.0
 30
0.0
  3
*Model_Space
  1

  0
ENDBLK
  5
38
330
36
100
AcDbEntity
  8
0
100
AcDbBlockEnd
  0
BLOCK
  5
33
330
32
100
AcDbEntity
 67
     1
  8
0
100
AcDbBlockBegin
  2
*Paper_Space
 70
     0
 10
0.0
 20
0.0
 30
0.0
  3
*Paper_Space
  1

  0
ENDBLK
  5
34
330
32
100
AcDbEntity
 67
     1
  8
0
100
AcDbBlockEnd
  0
BLOCK
  5
47
330
46
100
AcDbEntity
  8
0
100
AcDbBlockBegin
  2
_DOT
 70
     0
 10
0.0
 20
0.0
 30
0.0
  3
_DOT
  1

  0
POLYLINE
  5
48
330
46
100
AcDbEntity
  8
0
  6
ByBlock
 62
     0
100
AcDb2dPolyline
 66
     1
 10
0.0
 20
0.0
 30
0.0
 70
     1
 40
0.4000000100000001
 41
0.4000000100000001
  0
VERTEX
  5
49
330
48
100
AcDbEntity
  8
0
  6
ByBlock
 62
     0
100
AcDbVertex
100
AcDb2dVertex
 10
-0.2
 20
0.0
 30
0.0
 42
1.0
  0
VERTEX
  5
4A
330
48
100
AcDbEntity
  8
0
  6
ByBlock
 62
     0
100
AcDbVertex
100
AcDb2dVertex
 10
0.2
 20
0.0
 30
0.0
 42
1.0
  0
SEQEND
  5
4B
330
48
100
AcDbEntity
  8
0
  6
ByBlock
 62
     0
  0
LINE
  5
4C
330
46
100
AcDbEntity
  8
0
  6
ByBlock
 62
     0
100
AcDbLine
 10
-0.4000000100000001
 20
0.0
 30
0.0
 11
-3.0
 21
0.0
 31
0.0
  0
ENDBLK
  5
4D
330
46
100
AcDbEntity
  8
0
100
AcDbBlockEnd
  0
BLOCK
  5
4F
330
4E
100
AcDbEntity
  8
0
100
AcDbBlockBegin
  2
*D1
 70
     1
 10
0.0
 20
0.0
 30
0.0
  3
*D1
  1

  0
LINE
  5
50
330
4E
100
AcDbEntity
  8
0
  6
Continuous
 62
     7
100
AcDbLine
 10
-62.07960100000001
 20
59.776123
 30
0.0
 11
-64.079605
 21
59.776123
 31
0.0
  0
INSERT
  5
51
330
4E
100
AcDbEntity
  8
0
  6
Continuous
 62
     7
100
AcDbBlockReference
  2
_DOT
 10
-62.07960100000001
 20
59.776123
 30
0.0
  0
INSERT
  5
52
330
4E
100
AcDbEntity
  8
0
  6
Continuous
 62
     7
100
AcDbBlockReference
  2
_DOT
 10
-64.079605
 20
59.776123
 30
0.0
 50
180.0
  0
LINE
  5
53
330
4E
100
AcDbEntity
  8
0
  6
Continuous
 62
     7
100
AcDbLine
 10
-62.07960100000001
 20
86.736123
 30
0.0
 11
-62.07960100000001
 21
58.576122
 31
0.0
  0
LINE
  5
54
330
4E
100
AcDbEntity
  8
0
  6
Continuous
 62
     7
100
AcDbLine
 10
-64.079605
 20
87.73612299999999
 30
0.0
 11
-64.079605
 21
58.576122
 31
0.0
  0
TEXT
  5
55
330
4E
100
AcDbEntity
  8
0
  6
Continuous
 62
     7
100
AcDbText
 10
-64.22260099999999
 20
60.57612299999999
 30
0.0
 40
3.2
  1
2
100
AcDbText
  0
POINT
  5
56
330
4E
100
AcDbEntity
  8
DEFPOINTS
  6
Continuous
 62
     7
100
AcDbPoint
 10
-62.07960100000001
 20
89.27612299999999
 30
0.0
  0
POINT
  5
57
330
4E
100
AcDbEntity
  8
DEFPOINTS
  6
Continuous
 62
     7
100
AcDbPoint
 10
-64.079605
 20
90.27612299999999
 30
0.0
  0
POINT
  5
58
330
4E
100
AcDbEntity
  8
DEFPOINTS
  6
Continuous
 62
     7
100
AcDbPoint
 10
-64.079605
 20
59.776123
 30
0.0
  0
ENDBLK
  5
59
330
4E
100
AcDbEntity
  8
0
100
AcDbBlockEnd
  0
BLOCK
  5
5B
330
5A
100
AcDbEntity
  8
0
100
AcDbBlockBegin
  2
*D2
 70
     1
 10
0.0
 20
0.0
 30
0.0
  3
*D2
  1

  0
LINE
  5
5C
330
5A
100
AcDbEntity
  8
0
  6
Continuous
 62
     7
100
AcDbLine
 10
138.92039
 20
59.776123
 30
0.0
 11
140.92039
 21
59.776123
 31
0.0
  0
INSERT
  5
5D
330
5A
100
AcDbEntity
  8
0
  6
Continuous
 62
     7
100
AcDbBlockReference
  2
_DOT
 10
138.92039
 20
59.776123
 30
0.0
 50
180.0
  0
INSERT
  5
5E
330
5A
100
AcDbEntity
  8
0
  6
Continuous
 62
     7
100
AcDbBlockReference
  2
_DOT
 10
140.92039
 20
59.776123
 30
0.0
  0
LINE
  5
5F
330
5A
100
AcDbEntity
  8
0
  6
Continuous
 62
     7
100
AcDbLine
 10
138.92039
 20
86.736123
 30
0.0
 11
138.92039
 21
58.576122
 31
0.0
  0
LINE
  5
60
330
5A
100
AcDbEntity
  8
0
  6
Continuous
 62
     7
100
AcDbLine
 10
140.92039
 20
88.23612299999998
 30
0.0
 11
140.92039
 21
58.576122
 31
0.0
  0
TEXT
  5
61
330
5A
100
AcDbEntity
  8
0
  6
Continuous
 62
     7
100
AcDbText
 10
138.77739
 20
60.57612299999999
 30
0.0
 40
3.2
  1
2
100
AcDbText
  0
POINT
  5
62
330
5A
100
AcDbEntity
  8
DEFPOINTS
  6
Continuous
 62
     7
100
AcDbPoint
 10
138.92039
 20
89.27612299999999
 30
0.0
  0
POINT
  5
63
330
5A
100
AcDbEntity
  8
DEFPOINTS
  6
Continuous
 62
     7
100
AcDbPoint
 10
140.92039
 20
90.776123
 30
0.0
  0
POINT
  5
64
330
5A
100
AcDbEntity
  8
DEFPOINTS
  6
Continuous
 62
     7
100
AcDbPoint
 10
140.92039
 20
59.776123
 30
0.0
  0
ENDBLK
  5
65
330
5A
100
AcDbEntity
  8
0
100
AcDbBlockEnd
  0
BLOCK
  5
67
330
66
100
AcDbEntity
  8
0
100
AcDbBlockBegin
  2
*D3
 70
     1
 10
0.0
 20
0.0
 30
0.0
  3
*D3
  1

  0
LINE
  5
68
330
66
100
AcDbEntity
  8
0
  6
Continuous
 62
     7
100
AcDbLine
 10
-62.07960100000001
 20
69.776123
 30
0.0
 11
-54.079601
 21
69.776123
 31
0.0
  0
INSERT
  5
69
330
66
100
AcDbEntity
  8
0
  6
Continuous
 62
     7
100
AcDbBlockReference
  2
_DOT
 10
-62.07960100000001
 20
69.776123
 30
0.0
 50
180.0
  0
INSERT
  5
6A
330
66
100
AcDbEntity
  8
0
  6
Continuous
 62
     7
100
AcDbBlockReference
  2
_DOT
 10
-54.079601
 20
69.776123
 30
0.0
  0
LINE
  5
6B
330
66
100
AcDbEntity
  8
0
  6
Continuous
 62
     7
100
AcDbLine
 10
-62.07960100000001
 20
86.736123
 30
0.0
 11
-62.07960100000001
 21
68.576118
 31
0.0
  0
LINE
  5
6C
330
66
100
AcDbEntity
  8
0
  6
Continuous
 62
     7
100
AcDbLine
 10
-54.079601
 20
81.044122
 30
0.0
 11
-54.079601
 21
68.576118
 31
0.0
  0
TEXT
  5
6D
330
66
100
AcDbEntity
  8
0
  6
Continuous
 62
     7
100
AcDbText
 10
-59.22260099999999
 20
70.57612299999999
 30
0.0
 40
3.2
  1
8
100
AcDbText
  0
POINT
  5
6E
330
66
100
AcDbEntity
  8
DEFPOINTS
  6
Continuous
 62
     7
100
AcDbPoint
 10
-62.07960100000001
 20
89.27612299999999
 30
0.0
  0
POINT
  5
6F
330
66
100
AcDbEntity
  8
DEFPOINTS
  6
Continuous
 62
     7
100
AcDbPoint
 10
-54.079601
 20
83.584122
 30
0.0
  0
POINT
  5
70
330
66
100
AcDbEntity
  8
DEFPOINTS
  6
Continuous
 62
     7
100
AcDbPoint
 10
-54.079601
 20
69.776123
 30
0.0
  0
ENDBLK
  5
71
330
66
100
AcDbEntity
  8
0
100
AcDbBlockEnd
  0
BLOCK
  5
73
330
72
100
AcDbEntity
  8
0
100
AcDbBlockBegin
  2
*D4
 70
     1
 10
0.0
 20
0.0
 30
0.0
  3
*D4
  1

  0
LINE
  5
74
330
72
100
AcDbEntity
  8
0
  6
Continuous
 62
     7
100
AcDbLine
 10
130.92039
 20
69.776123
 30
0.0
 11
138.92039
 21
69.776123
 31
0.0
  0
INSERT
  5
75
330
72
100
AcDbEntity
  8
0
  6
Continuous
 62
     7
100
AcDbBlockReference
  2
_DOT
 10
130.92039
 20
69.776123
 30
0.0
 50
180.0
  0
INSERT
  5
76
330
72
100
AcDbEntity
  8
0
  6
Continuous
 62
     7
100
AcDbBlockReference
  2
_DOT
 10
138.92039
 20
69.776123
 30
0.0
  0
LINE
  5
77
330
72
100
AcDbEntity
  8
0
  6
Continuous
 62
     7
100
AcDbLine
 10
130.92039
 20
81.044122
 30
0.0
 11
130.92039
 21
68.576118
 31
0.0
  0
LINE
  5
78
330
72
100
AcDbEntity
  8
0
  6
Continuous
 62
     7
100
AcDbLine
 10
138.92039
 20
86.736123
 30
0.0
 11
138.92039
 21
68.576118
 31
0.0
  0
TEXT
  5
79
330
72
100
AcDbEntity
  8
0
  6
Continuous
 62
     7
100
AcDbText
 10
133.77739
 20
70.57612299999999
 30
0.0
 40
3.2
  1
8
100
AcDbText
  0
POINT
  5
7A
330
72
100
AcDbEntity
  8
DEFPOINTS
  6
Continuous
 62
     7
100
AcDbPoint
 10
130.92039
 20
83.584122
 30
0.0
  0
POINT
  5
7B
330
72
100
AcDbEntity
  8
DEFPOINTS
  6
Continuous
 62
     7
100
AcDbPoint
 10
138.92039
 20
89.27612299999999
 30
0.0
  0
POINT
  5
7C
330
72
100
AcDbEntity
  8
DEFPOINTS
  6
Continuous
 62
     7
100
AcDbPoint
 10
138.92039
 20
69.776123
 30
0.0
  0
ENDBLK
  5
7D
330
72
100
AcDbEntity
  8
0
100
AcDbBlockEnd
  0
BLOCK
  5
7F
330
7E
100
AcDbEntity
  8
0
100
AcDbBlockBegin
  2
*D5
 70
     1
 10
0.0
 20
0.0
 30
0.0
  3
*D5
  1

  0
LINE
  5
80
330
7E
100
AcDbEntity
  8
0
  6
Continuous
 62
     7
100
AcDbLine
 10
-62.07960100000001
 20
59.776123
 30
0.0
 11
138.92039
 21
59.776123
 31
0.0
  0
INSERT
  5
81
330
7E
100
AcDbEntity
  8
0
  6
Continuous
 62
     7
100
AcDbBlockReference
  2
_DOT
 10
-62.07960100000001
 20
59.776123
 30
0.0
 50
180.0
  0
INSERT
  5
82
330
7E
100
AcDbEntity
  8
0
  6
Continuous
 62
     7
100
AcDbBlockReference
  2
_DOT
 10
138.92039
 20
59.776123
 30
0.0
  0
LINE
  5
83
330
7E
100
AcDbEntity
  8
0
  6
Continuous
 62
     7
100
AcDbLine
 10
-62.07960100000001
 20
86.736123
 30
0.0
 11
-62.07960100000001
 21
58.576122
 31
0.0
  0
LINE
  5
84
330
7E
100
AcDbEntity
  8
0
  6
Continuous
 62
     7
100
AcDbLine
 10
138.92039
 20
86.736123
 30
0.0
 11
138.92039
 21
58.576122
 31
0.0
  0
TEXT
  5
85
330
7E
100
AcDbEntity
  8
0
  6
Continuous
 62
     7
100
AcDbText
 10
36.477399
 20
60.57612299999999
 30
0.0
 40
3.2
  1
L
100
AcDbText
  0
TEXT
  5
86
330
7E
100
AcDbEntity
  8
0
  6
Continuous
 62
     7
100
AcDbText
 10
39.677399
 20
60.57612299999999
 30
0.0
 40
1.6
  1
1
 41
0.6666666700000001
100
AcDbText
  0
POINT
  5
87
330
7E
100
AcDbEntity
  8
DEFPOINTS
  6
Continuous
 62
     7
100
AcDbPoint
 10
-62.07960100000001
 20
89.27612299999999
 30
0.0
  0
POINT
  5
88
330
7E
100
AcDbEntity
  8
DEFPOINTS
  6
Continuous
 62
     7
100
AcDbPoint
 10
138.92039
 20
89.27612299999999
 30
0.0
  0
POINT
  5
89
330
7E
100
AcDbEntity
  8
DEFPOINTS
  6
Continuous
 62
     7
100
AcDbPoint
 10
138.92039
 20
59.776123
 30
0.0
  0
ENDBLK
  5
8A
330
7E
100
AcDbEntity
  8
0
100
AcDbBlockEnd
  0
BLOCK
  5
8C
330
8B
100
AcDbEntity
  8
0
100
AcDbBlockBegin
  2
*D6
 70
     1
 10
0.0
 20
0.0
 30
0.0
  3
*D6
  1

  0
LINE
  5
8D
330
8B
100
AcDbEntity
  8
0
  6
Continuous
 62
     7
100
AcDbLine
 10
51.993244
 20
108.27612
 30
0.0
 11
51.993244
 21
120.99276
 31
0.0
  0
LINE
  5
8E
330
8B
100
AcDbEntity
  8
0
  6
Continuous
 62
     7
100
AcDbLine
 10
51.993244
 20
89.27612299999999
 30
0.0
 11
51.993244
 21
108.27612
 31
0.0
  0
INSERT
  5
8F
330
8B
100
AcDbEntity
  8
0
  6
Continuous
 62
     7
100
AcDbBlockReference
  2
_DOT
 10
51.993244
 20
89.27612299999999
 30
0.0
 50
270.0
  0
INSERT
  5
90
330
8B
100
AcDbEntity
  8
0
  6
Continuous
 62
     7
100
AcDbBlockReference
  2
_DOT
 10
51.993244
 20
108.27612
 30
0.0
 50
90.0
  0
TEXT
  5
91
330
8B
100
AcDbEntity
  8
0
  6
Continuous
 62
     7
100
AcDbText
 10
51.19324399999999
 20
115.50676
 30
0.0
 40
3.2
  1
19
 50
90.00000300000001
 41
1.285781199999999
100
AcDbText
  0
POINT
  5
92
330
8B
100
AcDbEntity
  8
DEFPOINTS
  6
Continuous
 62
     7
100
AcDbPoint
 10
64.7285
 20
89.27612299999999
 30
0.0
  0
POINT
  5
93
330
8B
100
AcDbEntity
  8
DEFPOINTS
  6
Continuous
 62
     7
100
AcDbPoint
 10
64.7285
 20
108.27612
 30
0.0
  0
POINT
  5
94
330
8B
100
AcDbEntity
  8
DEFPOINTS
  6
Continuous
 62
     7
100
AcDbPoint
 10
51.993244
 20
108.27612
 30
0.0
  0
ENDBLK
  5
95
330
8B
100
AcDbEntity
  8
0
100
AcDbBlockEnd
  0
BLOCK
  5
97
330
96
100
AcDbEntity
  8
0
100
AcDbBlockBegin
  2
*D7
 70
     1
 10
0.0
 20
0.0
 30
0.0
  3
*D7
  1

  0
LINE
  5
98
330
96
100
AcDbEntity
  8
0
  6
Continuous
 62
     7
100
AcDbLine
 10
33.588341
 20
112.77612
 30
0.0
 11
33.588341
 21
120.99276
 31
0.0
  0
LINE
  5
99
330
96
100
AcDbEntity
  8
0
  6
Continuous
 62
     7
100
AcDbLine
 10
33.588341
 20
112.77612
 30
0.0
 11
33.588341
 21
84.776123
 31
0.0
  0
INSERT
  5
9A
330
96
100
AcDbEntity
  8
0
  6
Continuous
 62
     7
100
AcDbBlockReference
  2
_DOT
 10
33.588341
 20
112.77612
 30
0.0
 50
90.0
  0
INSERT
  5
9B
330
96
100
AcDbEntity
  8
0
  6
Continuous
 62
     7
100
AcDbBlockReference
  2
_DOT
 10
33.588341
 20
84.776123
 30
0.0
 50
270.0
  0
LINE
  5
9C
330
96
100
AcDbEntity
  8
0
  6
Continuous
 62
     7
100
AcDbLine
 10
60.13039899999999
 20
112.77612
 30
0.0
 11
32.388344
 21
112.77612
 31
0.0
  0
LINE
  5
9D
330
96
100
AcDbEntity
  8
0
  6
Continuous
 62
     7
100
AcDbLine
 10
60.13039899999999
 20
84.776123
 30
0.0
 11
32.388344
 21
84.776123
 31
0.0
  0
TEXT
  5
9E
330
96
100
AcDbEntity
  8
0
  6
Continuous
 62
     7
100
AcDbText
 10
32.788341
 20
115.50676
 30
0.0
 40
3.2
  1
28
 50
90.00000300000001
 41
1.028624999999999
100
AcDbText
  0
POINT
  5
9F
330
96
100
AcDbEntity
  8
DEFPOINTS
  6
Continuous
 62
     7
100
AcDbPoint
 10
62.670399
 20
112.77612
 30
0.0
  0
POINT
  5
A0
330
96
100
AcDbEntity
  8
DEFPOINTS
  6
Continuous
 62
     7
100
AcDbPoint
 10
62.670399
 20
84.776123
 30
0.0
  0
POINT
  5
A1
330
96
100
AcDbEntity
  8
DEFPOINTS
  6
Continuous
 62
     7
100
AcDbPoint
 10
33.588341
 20
84.776123
 30
0.0
  0
ENDBLK
  5
A2
330
96
100
AcDbEntity
  8
0
100
AcDbBlockEnd
  0
BLOCK
  5
A4
330
A3
100
AcDbEntity
  8
0
100
AcDbBlockBegin
  2
*D8
 70
     1
 10
0.0
 20
0.0
 30
0.0
  3
*D8
  1

  0
LINE
  5
A5
330
A3
100
AcDbEntity
  8
0
  6
Continuous
 62
     7
100
AcDbLine
 10
-89.07960499999999
 20
20.276117
 30
0.0
 11
-89.07960499999999
 21
25.276117
 31
0.0
  0
INSERT
  5
A6
330
A3
100
AcDbEntity
  8
0
  6
Continuous
 62
     7
100
AcDbBlockReference
  2
_DOT
 10
-89.07960499999999
 20
20.276117
 30
0.0
 50
270.0
  0
INSERT
  5
A7
330
A3
100
AcDbEntity
  8
0
  6
Continuous
 62
     7
100
AcDbBlockReference
  2
_DOT
 10
-89.07960499999999
 20
25.276117
 30
0.0
 50
90.0
  0
LINE
  5
A8
330
A3
100
AcDbEntity
  8
0
  6
Continuous
 62
     7
100
AcDbLine
 10
-76.950599
 20
20.276117
 30
0.0
 11
-90.279602
 21
20.276117
 31
0.0
  0
LINE
  5
A9
330
A3
100
AcDbEntity
  8
0
  6
Continuous
 62
     7
100
AcDbLine
 10
-81.61960500000001
 20
25.276117
 30
0.0
 11
-90.279602
 21
25.276117
 31
0.0
  0
TEXT
  5
AA
330
A3
100
AcDbEntity
  8
0
  6
Continuous
 62
     7
100
AcDbText
 10
-89.87960499999999
 20
21.633117
 30
0.0
 40
3.2
  1
5
 50
90.00000300000001
100
AcDbText
  0
POINT
  5
AB
330
A3
100
AcDbEntity
  8
DEFPOINTS
  6
Continuous
 62
     7
100
AcDbPoint
 10
-74.410599
 20
20.276117
 30
0.0
  0
POINT
  5
AC
330
A3
100
AcDbEntity
  8
DEFPOINTS
  6
Continuous
 62
     7
100
AcDbPoint
 10
-79.079605
 20
25.276117
 30
0.0
  0
POINT
  5
AD
330
A3
100
AcDbEntity
  8
DEFPOINTS
  6
Continuous
 62
     7
100
AcDbPoint
 10
-89.07960499999999
 20
25.276117
 30
0.0
  0
ENDBLK
  5
AE
330
A3
100
AcDbEntity
  8
0
100
AcDbBlockEnd
  0
BLOCK
  5
B0
330
AF
100
AcDbEntity
  8
0
100
AcDbBlockBegin
  2
*D9
 70
     1
 10
0.0
 20
0.0
 30
0.0
  3
*D9
  1

  0
LINE
  5
B1
330
AF
100
AcDbEntity
  8
0
  6
Continuous
 62
     7
100
AcDbLine
 10
-89.07960499999999
 20
20.276117
 30
0.0
 11
-89.07960499999999
 21
10.276117
 31
0.0
  0
INSERT
  5
B2
330
AF
100
AcDbEntity
  8
0
  6
Continuous
 62
     7
100
AcDbBlockReference
  2
_DOT
 10
-89.07960499999999
 20
20.276117
 30
0.0
 50
90.0
  0
INSERT
  5
B3
330
AF
100
AcDbEntity
  8
0
  6
Continuous
 62
     7
100
AcDbBlockReference
  2
_DOT
 10
-89.07960499999999
 20
10.276117
 30
0.0
 50
270.0
  0
LINE
  5
B4
330
AF
100
AcDbEntity
  8
0
  6
Continuous
 62
     7
100
AcDbLine
 10
-76.950599
 20
10.276117
 30
0.0
 11
-90.279602
 21
10.276117
 31
0.0
  0
TEXT
  5
B5
330
AF
100
AcDbEntity
  8
0
  6
Continuous
 62
     7
100
AcDbText
 10
-89.87960499999999
 20
12.533117
 30
0.0
 40
3.2
  1
10
 50
90.00000300000001
 41
1.402670399999999
100
AcDbText
  0
POINT
  5
B6
330
AF
100
AcDbEntity
  8
DEFPOINTS
  6
Continuous
 62
     7
100
AcDbPoint
 10
-74.410599
 20
20.276117
 30
0.0
  0
POINT
  5
B7
330
AF
100
AcDbEntity
  8
DEFPOINTS
  6
Continuous
 62
     7
100
AcDbPoint
 10
-74.410599
 20
10.276117
 30
0.0
  0
POINT
  5
B8
330
AF
100
AcDbEntity
  8
DEFPOINTS
  6
Continuous
 62
     7
100
AcDbPoint
 10
-89.07960499999999
 20
10.276117
 30
0.0
  0
ENDBLK
  5
B9
330
AF
100
AcDbEntity
  8
0
100
AcDbBlockEnd
  0
BLOCK
  5
BB
330
BA
100
AcDbEntity
  8
0
100
AcDbBlockBegin
  2
*D10
 70
     1
 10
0.0
 20
0.0
 30
0.0
  3
*D10
  1

  0
LINE
  5
BC
330
BA
100
AcDbEntity
  8
0
  6
Continuous
 62
     7
100
AcDbLine
 10
-89.07960499999999
 20
10.276117
 30
0.0
 11
-89.07960499999999
 21
2.7761195
 31
0.0
  0
INSERT
  5
BD
330
BA
100
AcDbEntity
  8
0
  6
Continuous
 62
     7
100
AcDbBlockReference
  2
_DOT
 10
-89.07960499999999
 20
10.276117
 30
0.0
 50
90.0
  0
INSERT
  5
BE
330
BA
100
AcDbEntity
  8
0
  6
Continuous
 62
     7
100
AcDbBlockReference
  2
_DOT
 10
-89.07960499999999
 20
2.7761195
 30
0.0
 50
270.0
  0
LINE
  5
BF
330
BA
100
AcDbEntity
  8
0
  6
Continuous
 62
     7
100
AcDbLine
 10
-81.61960500000001
 20
2.7761195
 30
0.0
 11
-90.279602
 21
2.7761195
 31
0.0
  0
TEXT
  5
C0
330
BA
100
AcDbEntity
  8
0
  6
Continuous
 62
     7
100
AcDbText
 10
-89.87960499999999
 20
2.1831182
 30
0.0
 40
3.2
  1
7.5
 50
90.00000300000001
 41
1.357187499999999
100
AcDbText
  0
POINT
  5
C1
330
BA
100
AcDbEntity
  8
DEFPOINTS
  6
Continuous
 62
     7
100
AcDbPoint
 10
-74.410599
 20
10.276117
 30
0.0
  0
POINT
  5
C2
330
BA
100
AcDbEntity
  8
DEFPOINTS
  6
Continuous
 62
     7
100
AcDbPoint
 10
-79.079605
 20
2.7761195
 30
0.0
  0
POINT
  5
C3
330
BA
100
AcDbEntity
  8
DEFPOINTS
  6
Continuous
 62
     7
100
AcDbPoint
 10
-89.07960499999999
 20
2.7761195
 30
0.0
  0
ENDBLK
  5
C4
330
BA
100
AcDbEntity
  8
0
100
AcDbBlockEnd
  0
BLOCK
  5
C6
330
C5
100
AcDbEntity
  8
0
100
AcDbBlockBegin
  2
*D11
 70
     1
 10
0.0
 20
0.0
 30
0.0
  3
*D11
  1

  0
LINE
  5
C7
330
C5
100
AcDbEntity
  8
0
  6
Continuous
 62
     7
100
AcDbLine
 10
-89.07960499999999
 20
0.27611941
 30
0.0
 11
-89.07960499999999
 21
-8.6085215
 31
0.0
  0
LINE
  5
C8
330
C5
100
AcDbEntity
  8
0
  6
Continuous
 62
     7
100
AcDbLine
 10
-89.07960499999999
 20
2.7761195
 30
0.0
 11
-89.07960499999999
 21
0.27611941
 31
0.0
  0
INSERT
  5
C9
330
C5
100
AcDbEntity
  8
0
  6
Continuous
 62
     7
100
AcDbBlockReference
  2
_DOT
 10
-89.07960499999999
 20
2.7761195
 30
0.0
 50
90.0
  0
INSERT
  5
CA
330
C5
100
AcDbEntity
  8
0
  6
Continuous
 62
     7
100
AcDbBlockReference
  2
_DOT
 10
-89.07960499999999
 20
0.27611941
 30
0.0
 50
270.0
  0
LINE
  5
CB
330
C5
100
AcDbEntity
  8
0
  6
Continuous
 62
     7
100
AcDbLine
 10
-81.61960500000001
 20
0.27611941
 30
0.0
 11
-90.279602
 21
0.27611941
 31
0.0
  0
TEXT
  5
CC
330
C5
100
AcDbEntity
  8
0
  6
Continuous
 62
     7
100
AcDbText
 10
-89.87960499999999
 20
-8.608521599999999
 30
0.0
 40
3.2
  1
2.5
 50
90.00000300000001
 41
1.357187499999999
100
AcDbText
  0
POINT
  5
CD
330
C5
100
AcDbEntity
  8
DEFPOINTS
  6
Continuous
 62
     7
100
AcDbPoint
 10
-79.079605
 20
2.7761195
 30
0.0
  0
POINT
  5
CE
330
C5
100
AcDbEntity
  8
DEFPOINTS
  6
Continuous
 62
     7
100
AcDbPoint
 10
-79.079605
 20
0.27611941
 30
0.0
  0
POINT
  5
CF
330
C5
100
AcDbEntity
  8
DEFPOINTS
  6
Continuous
 62
     7
100
AcDbPoint
 10
-89.07960499999999
 20
0.27611941
 30
0.0
  0
ENDBLK
  5
D0
330
C5
100
AcDbEntity
  8
0
100
AcDbBlockEnd
  0
BLOCK
  5
D2
330
D1
100
AcDbEntity
  8
0
100
AcDbBlockBegin
  2
*D12
 70
     1
 10
0.0
 20
0.0
 30
0.0
  3
*D12
  1

  0
LINE
  5
D3
330
D1
100
AcDbEntity
  8
0
  6
Continuous
 62
     7
100
AcDbLine
 10
-99.07960500000001
 20
0.27611941
 30
0.0
 11
-99.07960500000001
 21
25.276117
 31
0.0
  0
INSERT
  5
D4
330
D1
100
AcDbEntity
  8
0
  6
Continuous
 62
     7
100
AcDbBlockReference
  2
_DOT
 10
-99.07960500000001
 20
0.27611941
 30
0.0
 50
270.0
  0
INSERT
  5
D5
330
D1
100
AcDbEntity
  8
0
  6
Continuous
 62
     7
100
AcDbBlockReference
  2
_DOT
 10
-99.07960500000001
 20
25.276117
 30
0.0
 50
90.0
  0
LINE
  5
D6
330
D1
100
AcDbEntity
  8
0
  6
Continuous
 62
     7
100
AcDbLine
 10
-81.61960500000001
 20
0.27611941
 30
0.0
 11
-100.2796
 21
0.27611941
 31
0.0
  0
LINE
  5
D7
330
D1
100
AcDbEntity
  8
0
  6
Continuous
 62
     7
100
AcDbLine
 10
-81.61960500000001
 20
25.276117
 30
0.0
 11
-100.2796
 21
25.276117
 31
0.0
  0
TEXT
  5
D8
330
D1
100
AcDbEntity
  8
0
  6
Continuous
 62
     7
100
AcDbText
 10
-99.87960499999999
 20
10.033118
 30
0.0
 40
3.2
  1
25
 50
90.00000300000001
 41
1.028624999999999
100
AcDbText
  0
POINT
  5
D9
330
D1
100
AcDbEntity
  8
DEFPOINTS
  6
Continuous
 62
     7
100
AcDbPoint
 10
-79.079605
 20
0.27611941
 30
0.0
  0
POINT
  5
DA
330
D1
100
AcDbEntity
  8
DEFPOINTS
  6
Continuous
 62
     7
100
AcDbPoint
 10
-79.079605
 20
25.276117
 30
0.0
  0
POINT
  5
DB
330
D1
100
AcDbEntity
  8
DEFPOINTS
  6
Continuous
 62
     7
100
AcDbPoint
 10
-99.07960500000001
 20
25.276117
 30
0.0
  0
ENDBLK
  5
DC
330
D1
100
AcDbEntity
  8
0
100
AcDbBlockEnd
  0
BLOCK
  5
DE
330
DD
100
AcDbEntity
  8
0
100
AcDbBlockBegin
  2
*D13
 70
     1
 10
0.0
 20
0.0
 30
0.0
  3
*D13
  1

  0
LINE
  5
DF
330
DD
100
AcDbEntity
  8
0
  6
Continuous
 62
     7
100
AcDbLine
 10
-38.07960100000001
 20
-43.723881
 30
0.0
 11
-29.079601
 21
-43.723881
 31
0.0
  0
INSERT
  5
E0
330
DD
100
AcDbEntity
  8
0
  6
Continuous
 62
     7
100
AcDbBlockReference
  2
_DOT
 10
-38.07960100000001
 20
-43.723881
 30
0.0
 50
180.0
  0
INSERT
  5
E1
330
DD
100
AcDbEntity
  8
0
  6
Continuous
 62
     7
100
AcDbBlockReference
  2
_DOT
 10
-29.079601
 20
-43.723881
 30
0.0
  0
LINE
  5
E2
330
DD
100
AcDbEntity
  8
0
  6
Continuous
 62
     7
100
AcDbLine
 10
-38.07960100000001
 20
3.1521178
 30
0.0
 11
-38.07960100000001
 21
-44.92388199999999
 31
0.0
  0
LINE
  5
E3
330
DD
100
AcDbEntity
  8
0
  6
Continuous
 62
     7
100
AcDbLine
 10
-29.079601
 20
-2.263880499999999
 30
0.0
 11
-29.079601
 21
-44.92388199999999
 31
0.0
  0
TEXT
  5
E4
330
DD
100
AcDbEntity
  8
0
  6
Continuous
 62
     7
100
AcDbText
 10
-34.722601
 20
-42.923881
 30
0.0
 40
3.2
  1
9
100
AcDbText
  0
POINT
  5
E5
330
DD
100
AcDbEntity
  8
DEFPOINTS
  6
Continuous
 62
     7
100
AcDbPoint
 10
-38.07960100000001
 20
5.6921177
 30
0.0
  0
POINT
  5
E6
330
DD
100
AcDbEntity
  8
DEFPOINTS
  6
Continuous
 62
     7
100
AcDbPoint
 10
-29.079601
 20
0.27611941
 30
0.0
  0
POINT
  5
E7
330
DD
100
AcDbEntity
  8
DEFPOINTS
  6
Continuous
 62
     7
100
AcDbPoint
 10
-29.079601
 20
-43.723881
 30
0.0
  0
ENDBLK
  5
E8
330
DD
100
AcDbEntity
  8
0
100
AcDbBlockEnd
  0
BLOCK
  5
EA
330
E9
100
AcDbEntity
  8
0
100
AcDbBlockBegin
  2
*D14
 70
     1
 10
0.0
 20
0.0
 30
0.0
  3
*D14
  1

  0
LINE
  5
EB
330
E9
100
AcDbEntity
  8
0
  6
Continuous
 62
     7
100
AcDbLine
 10
-38.07960100000001
 20
-43.723881
 30
0.0
 11
-70.079605
 21
-43.723881
 31
0.0
  0
INSERT
  5
EC
330
E9
100
AcDbEntity
  8
0
  6
Continuous
 62
     7
100
AcDbBlockReference
  2
_DOT
 10
-38.07960100000001
 20
-43.723881
 30
0.0
  0
INSERT
  5
ED
330
E9
100
AcDbEntity
  8
0
  6
Continuous
 62
     7
100
AcDbBlockReference
  2
_DOT
 10
-70.079605
 20
-43.723881
 30
0.0
 50
180.0
  0
LINE
  5
EE
330
E9
100
AcDbEntity
  8
0
  6
Continuous
 62
     7
100
AcDbLine
 10
-70.079605
 20
3.1521178
 30
0.0
 11
-70.079605
 21
-44.92388199999999
 31
0.0
  0
TEXT
  5
EF
330
E9
100
AcDbEntity
  8
0
  6
Continuous
 62
     7
100
AcDbText
 10
-56.822601
 20
-42.923881
 30
0.0
 40
3.2
  1
32
 41
1.028624999999999
100
AcDbText
  0
POINT
  5
F0
330
E9
100
AcDbEntity
  8
DEFPOINTS
  6
Continuous
 62
     7
100
AcDbPoint
 10
-38.07960100000001
 20
5.6921177
 30
0.0
  0
POINT
  5
F1
330
E9
100
AcDbEntity
  8
DEFPOINTS
  6
Continuous
 62
     7
100
AcDbPoint
 10
-70.079605
 20
5.6921177
 30
0.0
  0
POINT
  5
F2
330
E9
100
AcDbEntity
  8
DEFPOINTS
  6
Continuous
 62
     7
100
AcDbPoint
 10
-70.079605
 20
-43.723881
 30
0.0
  0
ENDBLK
  5
F3
330
E9
100
AcDbEntity
  8
0
100
AcDbBlockEnd
  0
BLOCK
  5
F5
330
F4
100
AcDbEntity
  8
0
100
AcDbBlockBegin
  2
*D15
 70
     1
 10
0.0
 20
0.0
 30
0.0
  3
*D15
  1

  0
LINE
  5
F6
330
F4
100
AcDbEntity
  8
0
  6
Continuous
 62
     7
100
AcDbLine
 10
-70.079605
 20
-43.723881
 30
0.0
 11
-79.079605
 21
-43.723881
 31
0.0
  0
INSERT
  5
F7
330
F4
100
AcDbEntity
  8
0
  6
Continuous
 62
     7
100
AcDbBlockReference
  2
_DOT
 10
-70.079605
 20
-43.723881
 30
0.0
  0
INSERT
  5
F8
330
F4
100
AcDbEntity
  8
0
  6
Continuous
 62
     7
100
AcDbBlockReference
  2
_DOT
 10
-79.079605
 20
-43.723881
 30
0.0
 50
180.0
  0
LINE
  5
F9
330
F4
100
AcDbEntity
  8
0
  6
Continuous
 62
     7
100
AcDbLine
 10
-79.079605
 20
-2.263880499999999
 30
0.0
 11
-79.079605
 21
-44.92388199999999
 31
0.0
  0
TEXT
  5
FA
330
F4
100
AcDbEntity
  8
0
  6
Continuous
 62
     7
100
AcDbText
 10
-75.722605
 20
-42.923881
 30
0.0
 40
3.2
  1
9
100
AcDbText
  0
POINT
  5
FB
330
F4
100
AcDbEntity
  8
DEFPOINTS
  6
Continuous
 62
     7
100
AcDbPoint
 10
-70.079605
 20
5.6921177
 30
0.0
  0
POINT
  5
FC
330
F4
100
AcDbEntity
  8
DEFPOINTS
  6
Continuous
 62
     7
100
AcDbPoint
 10
-79.079605
 20
0.27611941
 30
0.0
  0
POINT
  5
FD
330
F4
100
AcDbEntity
  8
DEFPOINTS
  6
Continuous
 62
     7
100
AcDbPoint
 10
-79.079605
 20
-43.723881
 30
0.0
  0
ENDBLK
  5
FE
330
F4
100
AcDbEntity
  8
0
100
AcDbBlockEnd
  0
BLOCK
  5
100
330
FF
100
AcDbEntity
  8
0
100
AcDbBlockBegin
  2
*D16
 70
     1
 10
0.0
 20
0.0
 30
0.0
  3
*D16
  1

  0
LINE
  5
101
330
FF
100
AcDbEntity
  8
0
  6
Continuous
 62
     7
100
AcDbLine
 10
-24.079601
 20
-43.723881
 30
0.0
 11
-15.079602
 21
-43.723881
 31
0.0
  0
INSERT
  5
102
330
FF
100
AcDbEntity
  8
0
  6
Continuous
 62
     7
100
AcDbBlockReference
  2
_DOT
 10
-24.079601
 20
-43.723881
 30
0.0
 50
180.0
  0
INSERT
  5
103
330
FF
100
AcDbEntity
  8
0
  6
Continuous
 62
     7
100
AcDbBlockReference
  2
_DOT
 10
-15.079602
 20
-43.723881
 30
0.0
  0
LINE
  5
104
330
FF
100
AcDbEntity
  8
0
  6
Continuous
 62
     7
100
AcDbLine
 10
-24.079601
 20
-31.263881
 30
0.0
 11
-24.079601
 21
-44.92388199999999
 31
0.0
  0
LINE
  5
105
330
FF
100
AcDbEntity
  8
0
  6
Continuous
 62
     7
100
AcDbLine
 10
-15.079602
 20
-31.263881
 30
0.0
 11
-15.079602
 21
-44.92388199999999
 31
0.0
  0
TEXT
  5
106
330
FF
100
AcDbEntity
  8
0
  6
Continuous
 62
     7
100
AcDbText
 10
-20.722601
 20
-42.923881
 30
0.0
 40
3.2
  1
9
100
AcDbText
  0
POINT
  5
107
330
FF
100
AcDbEntity
  8
DEFPOINTS
  6
Continuous
 62
     7
100
AcDbPoint
 10
-24.079601
 20
-28.723881
 30
0.0
  0
POINT
  5
108
330
FF
100
AcDbEntity
  8
DEFPOINTS
  6
Continuous
 62
     7
100
AcDbPoint
 10
-15.079602
 20
-28.723881
 30
0.0
  0
POINT
  5
109
330
FF
100
AcDbEntity
  8
DEFPOINTS
  6
Continuous
 62
     7
100
AcDbPoint
 10
-15.079602
 20
-43.723881
 30
0.0
  0
ENDBLK
  5
10A
330
FF
100
AcDbEntity
  8
0
100
AcDbBlockEnd
  0
BLOCK
  5
10C
330
10B
100
AcDbEntity
  8
0
100
AcDbBlockBegin
  2
*D17
 70
     1
 10
0.0
 20
0.0
 30
0.0
  3
*D17
  1

  0
LINE
  5
10D
330
10B
100
AcDbEntity
  8
0
  6
Continuous
 62
     7
100
AcDbLine
 10
-15.079602
 20
-43.723881
 30
0.0
 11
16.920399
 21
-43.723881
 31
0.0
  0
INSERT
  5
10E
330
10B
100
AcDbEntity
  8
0
  6
Continuous
 62
     7
100
AcDbBlockReference
  2
_DOT
 10
-15.079602
 20
-43.723881
 30
0.0
 50
180.0
  0
INSERT
  5
10F
330
10B
100
AcDbEntity
  8
0
  6
Continuous
 62
     7
100
AcDbBlockReference
  2
_DOT
 10
16.920399
 20
-43.723881
 30
0.0
  0
LINE
  5
110
330
10B
100
AcDbEntity
  8
0
  6
Continuous
 62
     7
100
AcDbLine
 10
16.920399
 20
-30.763881
 30
0.0
 11
16.920399
 21
-44.92388199999999
 31
0.0
  0
TEXT
  5
111
330
10B
100
AcDbEntity
  8
0
  6
Continuous
 62
     7
100
AcDbText
 10
-1.822602
 20
-42.923881
 30
0.0
 40
3.2
  1
32
 41
1.028624999999999
100
AcDbText
  0
POINT
  5
112
330
10B
100
AcDbEntity
  8
DEFPOINTS
  6
Continuous
 62
     7
100
AcDbPoint
 10
-15.079602
 20
-28.723881
 30
0.0
  0
POINT
  5
113
330
10B
100
AcDbEntity
  8
DEFPOINTS
  6
Continuous
 62
     7
100
AcDbPoint
 10
16.920399
 20
-28.223881
 30
0.0
  0
POINT
  5
114
330
10B
100
AcDbEntity
  8
DEFPOINTS
  6
Continuous
 62
     7
100
AcDbPoint
 10
16.920399
 20
-43.723881
 30
0.0
  0
ENDBLK
  5
115
330
10B
100
AcDbEntity
  8
0
100
AcDbBlockEnd
  0
BLOCK
  5
117
330
116
100
AcDbEntity
  8
0
100
AcDbBlockBegin
  2
*D18
 70
     1
 10
0.0
 20
0.0
 30
0.0
  3
*D18
  1

  0
LINE
  5
118
330
116
100
AcDbEntity
  8
0
  6
Continuous
 62
     7
100
AcDbLine
 10
16.920399
 20
-43.723881
 30
0.0
 11
25.920399
 21
-43.723881
 31
0.0
  0
INSERT
  5
119
330
116
100
AcDbEntity
  8
0
  6
Continuous
 62
     7
100
AcDbBlockReference
  2
_DOT
 10
16.920399
 20
-43.723881
 30
0.0
 50
180.0
  0
INSERT
  5
11A
330
116
100
AcDbEntity
  8
0
  6
Continuous
 62
     7
100
AcDbBlockReference
  2
_DOT
 10
25.920399
 20
-43.723881
 30
0.0
  0
LINE
  5
11B
330
116
100
AcDbEntity
  8
0
  6
Continuous
 62
     7
100
AcDbLine
 10
25.920399
 20
-31.263881
 30
0.0
 11
25.920399
 21
-44.92388199999999
 31
0.0
  0
TEXT
  5
11C
330
116
100
AcDbEntity
  8
0
  6
Continuous
 62
     7
100
AcDbText
 10
20.277399
 20
-42.923881
 30
0.0
 40
3.2
  1
9
100
AcDbText
  0
POINT
  5
11D
330
116
100
AcDbEntity
  8
DEFPOINTS
  6
Continuous
 62
     7
100
AcDbPoint
 10
16.920399
 20
-28.223881
 30
0.0
  0
POINT
  5
11E
330
116
100
AcDbEntity
  8
DEFPOINTS
  6
Continuous
 62
     7
100
AcDbPoint
 10
25.920399
 20
-28.723881
 30
0.0
  0
POINT
  5
11F
330
116
100
AcDbEntity
  8
DEFPOINTS
  6
Continuous
 62
     7
100
AcDbPoint
 10
25.920399
 20
-43.723881
 30
0.0
  0
ENDBLK
  5
120
330
116
100
AcDbEntity
  8
0
100
AcDbBlockEnd
  0
BLOCK
  5
122
330
121
100
AcDbEntity
  8
0
100
AcDbBlockBegin
  2
*D19
 70
     1
 10
0.0
 20
0.0
 30
0.0
  3
*D19
  1

  0
LINE
  5
123
330
121
100
AcDbEntity
  8
0
  6
Continuous
 62
     7
100
AcDbLine
 10
-79.079605
 20
-53.72388100000001
 30
0.0
 11
-29.079601
 21
-53.72388100000001
 31
0.0
  0
INSERT
  5
124
330
121
100
AcDbEntity
  8
0
  6
Continuous
 62
     7
100
AcDbBlockReference
  2
_DOT
 10
-79.079605
 20
-53.72388100000001
 30
0.0
 50
180.0
  0
INSERT
  5
125
330
121
100
AcDbEntity
  8
0
  6
Continuous
 62
     7
100
AcDbBlockReference
  2
_DOT
 10
-29.079601
 20
-53.72388100000001
 30
0.0
  0
LINE
  5
126
330
121
100
AcDbEntity
  8
0
  6
Continuous
 62
     7
100
AcDbLine
 10
-79.079605
 20
-2.263880499999999
 30
0.0
 11
-79.079605
 21
-54.92388199999999
 31
0.0
  0
LINE
  5
127
330
121
100
AcDbEntity
  8
0
  6
Continuous
 62
     7
100
AcDbLine
 10
-29.079601
 20
-2.263880499999999
 30
0.0
 11
-29.079601
 21
-54.92388199999999
 31
0.0
  0
TEXT
  5
128
330
121
100
AcDbEntity
  8
0
  6
Continuous
 62
     7
100
AcDbText
 10
-56.822601
 20
-52.92388100000001
 30
0.0
 40
3.2
  1
50
 41
1.102098199999999
100
AcDbText
  0
POINT
  5
129
330
121
100
AcDbEntity
  8
DEFPOINTS
  6
Continuous
 62
     7
100
AcDbPoint
 10
-79.079605
 20
0.27611941
 30
0.0
  0
POINT
  5
12A
330
121
100
AcDbEntity
  8
DEFPOINTS
  6
Continuous
 62
     7
100
AcDbPoint
 10
-29.079601
 20
0.27611941
 30
0.0
  0
POINT
  5
12B
330
121
100
AcDbEntity
  8
DEFPOINTS
  6
Continuous
 62
     7
100
AcDbPoint
 10
-29.079601
 20
-53.72388100000001
 30
0.0
  0
ENDBLK
  5
12C
330
121
100
AcDbEntity
  8
0
100
AcDbBlockEnd
  0
BLOCK
  5
12E
330
12D
100
AcDbEntity
  8
0
100
AcDbBlockBegin
  2
*D20
 70
     1
 10
0.0
 20
0.0
 30
0.0
  3
*D20
  1

  0
LINE
  5
12F
330
12D
100
AcDbEntity
  8
0
  6
Continuous
 62
     7
100
AcDbLine
 10
-24.079601
 20
-53.72388100000001
 30
0.0
 11
25.920399
 21
-53.72388100000001
 31
0.0
  0
INSERT
  5
130
330
12D
100
AcDbEntity
  8
0
  6
Continuous
 62
     7
100
AcDbBlockReference
  2
_DOT
 10
-24.079601
 20
-53.72388100000001
 30
0.0
 50
180.0
  0
INSERT
  5
131
330
12D
100
AcDbEntity
  8
0
  6
Continuous
 62
     7
100
AcDbBlockReference
  2
_DOT
 10
25.920399
 20
-53.72388100000001
 30
0.0
  0
LINE
  5
132
330
12D
100
AcDbEntity
  8
0
  6
Continuous
 62
     7
100
AcDbLine
 10
-24.079601
 20
-31.263881
 30
0.0
 11
-24.079601
 21
-54.92388199999999
 31
0.0
  0
LINE
  5
133
330
12D
100
AcDbEntity
  8
0
  6
Continuous
 62
     7
100
AcDbLine
 10
25.920399
 20
-31.263881
 30
0.0
 11
25.920399
 21
-54.92388199999999
 31
0.0
  0
TEXT
  5
134
330
12D
100
AcDbEntity
  8
0
  6
Continuous
 62
     7
100
AcDbText
 10
-1.822602
 20
-52.92388100000001
 30
0.0
 40
3.2
  1
50
 41
1.102098199999999
100
AcDbText
  0
POINT
  5
135
330
12D
100
AcDbEntity
  8
DEFPOINTS
  6
Continuous
 62
     7
100
AcDbPoint
 10
-24.079601
 20
-28.723881
 30
0.0
  0
POINT
  5
136
330
12D
100
AcDbEntity
  8
DEFPOINTS
  6
Continuous
 62
     7
100
AcDbPoint
 10
25.920399
 20
-28.723881
 30
0.0
  0
POINT
  5
137
330
12D
100
AcDbEntity
  8
DEFPOINTS
  6
Continuous
 62
     7
100
AcDbPoint
 10
25.920399
 20
-53.72388100000001
 30
0.0
  0
ENDBLK
  5
138
330
12D
100
AcDbEntity
  8
0
100
AcDbBlockEnd
  0
BLOCK
  5
13A
330
139
100
AcDbEntity
  8
0
100
AcDbBlockBegin
  2
*D21
 70
     1
 10
0.0
 20
0.0
 30
0.0
  3
*D21
  1

  0
LINE
  5
13B
330
139
100
AcDbEntity
  8
0
  6
Continuous
 62
     7
100
AcDbLine
 10
-99.07960500000001
 20
-28.723881
 30
0.0
 11
-99.07960500000001
 21
0.27611941
 31
0.0
  0
INSERT
  5
13C
330
139
100
AcDbEntity
  8
0
  6
Continuous
 62
     7
100
AcDbBlockReference
  2
_DOT
 10
-99.07960500000001
 20
-28.723881
 30
0.0
 50
270.0
  0
INSERT
  5
13D
330
139
100
AcDbEntity
  8
0
  6
Continuous
 62
     7
100
AcDbBlockReference
  2
_DOT
 10
-99.07960500000001
 20
0.27611941
 30
0.0
 50
90.0
  0
LINE
  5
13E
330
139
100
AcDbEntity
  8
0
  6
Continuous
 62
     7
100
AcDbLine
 10
-26.619601
 20
-28.723881
 30
0.0
 11
-100.2796
 21
-28.723881
 31
0.0
  0
TEXT
  5
13F
330
139
100
AcDbEntity
  8
0
  6
Continuous
 62
     7
100
AcDbText
 10
-99.87960499999999
 20
-16.966881
 30
0.0
 40
3.2
  1
29
 50
90.00000300000001
 41
1.028624999999999
100
AcDbText
  0
POINT
  5
140
330
139
100
AcDbEntity
  8
DEFPOINTS
  6
Continuous
 62
     7
100
AcDbPoint
 10
-24.079601
 20
-28.723881
 30
0.0
  0
POINT
  5
141
330
139
100
AcDbEntity
  8
DEFPOINTS
  6
Continuous
 62
     7
100
AcDbPoint
 10
-79.079605
 20
0.27611941
 30
0.0
  0
POINT
  5
142
330
139
100
AcDbEntity
  8
DEFPOINTS
  6
Continuous
 62
     7
100
AcDbPoint
 10
-99.07960500000001
 20
0.27611941
 30
0.0
  0
ENDBLK
  5
143
330
139
100
AcDbEntity
  8
0
100
AcDbBlockEnd
  0
BLOCK
  5
145
330
144
100
AcDbEntity
  8
0
100
AcDbBlockBegin
  2
*D22
 70
     1
 10
0.0
 20
0.0
 30
0.0
  3
*D22
  1

  0
LINE
  5
146
330
144
100
AcDbEntity
  8
0
  6
Continuous
 62
     7
100
AcDbLine
 10
40.92039899999999
 20
-28.723881
 30
0.0
 11
40.92039899999999
 21
-24.723881
 31
0.0
  0
INSERT
  5
147
330
144
100
AcDbEntity
  8
0
  6
Continuous
 62
     7
100
AcDbBlockReference
  2
_DOT
 10
40.92039899999999
 20
-28.723881
 30
0.0
 50
270.0
  0
INSERT
  5
148
330
144
100
AcDbEntity
  8
0
  6
Continuous
 62
     7
100
AcDbBlockReference
  2
_DOT
 10
40.92039899999999
 20
-24.723881
 30
0.0
 50
90.0
  0
LINE
  5
149
330
144
100
AcDbEntity
  8
0
  6
Continuous
 62
     7
100
AcDbLine
 10
28.460399
 20
-28.723881
 30
0.0
 11
42.12039899999999
 21
-28.723881
 31
0.0
  0
LINE
  5
14A
330
144
100
AcDbEntity
  8
0
  6
Continuous
 62
     7
100
AcDbLine
 10
24.482402
 20
-24.723881
 30
0.0
 11
42.12039899999999
 21
-24.723881
 31
0.0
  0
TEXT
  5
14B
330
144
100
AcDbEntity
  8
0
  6
Continuous
 62
     7
100
AcDbText
 10
40.120399
 20
-27.866881
 30
0.0
 40
3.2
  1
4
 50
90.00000300000001
100
AcDbText
  0
POINT
  5
14C
330
144
100
AcDbEntity
  8
DEFPOINTS
  6
Continuous
 62
     7
100
AcDbPoint
 10
25.920399
 20
-28.723881
 30
0.0
  0
POINT
  5
14D
330
144
100
AcDbEntity
  8
DEFPOINTS
  6
Continuous
 62
     7
100
AcDbPoint
 10
21.942402
 20
-24.723881
 30
0.0
  0
POINT
  5
14E
330
144
100
AcDbEntity
  8
DEFPOINTS
  6
Continuous
 62
     7
100
AcDbPoint
 10
40.92039899999999
 20
-24.723881
 30
0.0
  0
ENDBLK
  5
14F
330
144
100
AcDbEntity
  8
0
100
AcDbBlockEnd
  0
BLOCK
  5
151
330
150
100
AcDbEntity
  8
0
100
AcDbBlockBegin
  2
*D23
 70
     1
 10
0.0
 20
0.0
 30
0.0
  3
*D23
  1

  0
LINE
  5
152
330
150
100
AcDbEntity
  8
0
  6
Continuous
 62
     7
100
AcDbLine
 10
40.92039899999999
 20
-13.723881
 30
0.0
 11
40.92039899999999
 21
0.87782824
 31
0.0
  0
LINE
  5
153
330
150
100
AcDbEntity
  8
0
  6
Continuous
 62
     7
100
AcDbLine
 10
40.92039899999999
 20
-16.223881
 30
0.0
 11
40.92039899999999
 21
-13.723881
 31
0.0
  0
INSERT
  5
154
330
150
100
AcDbEntity
  8
0
  6
Continuous
 62
     7
100
AcDbBlockReference
  2
_DOT
 10
40.92039899999999
 20
-16.223881
 30
0.0
 50
270.0
  0
INSERT
  5
155
330
150
100
AcDbEntity
  8
0
  6
Continuous
 62
     7
100
AcDbBlockReference
  2
_DOT
 10
40.92039899999999
 20
-13.723881
 30
0.0
 50
90.0
  0
LINE
  5
156
330
150
100
AcDbEntity
  8
0
  6
Continuous
 62
     7
100
AcDbLine
 10
28.460399
 20
-13.723881
 30
0.0
 11
42.12039899999999
 21
-13.723881
 31
0.0
  0
TEXT
  5
157
330
150
100
AcDbEntity
  8
0
  6
Continuous
 62
     7
100
AcDbText
 10
40.120399
 20
-7.808171799999999
 30
0.0
 40
3.2
  1
2.5
 50
90.00000300000001
 41
1.357187499999999
100
AcDbText
  0
POINT
  5
158
330
150
100
AcDbEntity
  8
DEFPOINTS
  6
Continuous
 62
     7
100
AcDbPoint
 10
25.920399
 20
-16.223881
 30
0.0
  0
POINT
  5
159
330
150
100
AcDbEntity
  8
DEFPOINTS
  6
Continuous
 62
     7
100
AcDbPoint
 10
25.920399
 20
-13.723881
 30
0.0
  0
POINT
  5
15A
330
150
100
AcDbEntity
  8
DEFPOINTS
  6
Continuous
 62
     7
100
AcDbPoint
 10
40.92039899999999
 20
-13.723881
 30
0.0
  0
ENDBLK
  5
15B
330
150
100
AcDbEntity
  8
0
100
AcDbBlockEnd
  0
BLOCK
  5
15D
330
15C
100
AcDbEntity
  8
0
100
AcDbBlockBegin
  2
*D24
 70
     1
 10
0.0
 20
0.0
 30
0.0
  3
*D24
  1

  0
LINE
  5
15E
330
15C
100
AcDbEntity
  8
0
  6
Continuous
 62
     7
100
AcDbLine
 10
50.92039899999999
 20
-28.723881
 30
0.0
 11
50.92039899999999
 21
-13.723881
 31
0.0
  0
INSERT
  5
15F
330
15C
100
AcDbEntity
  8
0
  6
Continuous
 62
     7
100
AcDbBlockReference
  2
_DOT
 10
50.92039899999999
 20
-28.723881
 30
0.0
 50
270.0
  0
INSERT
  5
160
330
15C
100
AcDbEntity
  8
0
  6
Continuous
 62
     7
100
AcDbBlockReference
  2
_DOT
 10
50.92039899999999
 20
-13.723881
 30
0.0
 50
90.0
  0
LINE
  5
161
330
15C
100
AcDbEntity
  8
0
  6
Continuous
 62
     7
100
AcDbLine
 10
28.460399
 20
-28.723881
 30
0.0
 11
52.120399
 21
-28.723881
 31
0.0
  0
LINE
  5
162
330
15C
100
AcDbEntity
  8
0
  6
Continuous
 62
     7
100
AcDbLine
 10
28.460399
 20
-13.723881
 30
0.0
 11
52.120399
 21
-13.723881
 31
0.0
  0
TEXT
  5
163
330
15C
100
AcDbEntity
  8
0
  6
Continuous
 62
     7
100
AcDbText
 10
50.120399
 20
-23.966881
 30
0.0
 40
3.2
  1
15
 50
90.00000300000001
 41
1.285781199999999
100
AcDbText
  0
POINT
  5
164
330
15C
100
AcDbEntity
  8
DEFPOINTS
  6
Continuous
 62
     7
100
AcDbPoint
 10
25.920399
 20
-28.723881
 30
0.0
  0
POINT
  5
165
330
15C
100
AcDbEntity
  8
DEFPOINTS
  6
Continuous
 62
     7
100
AcDbPoint
 10
25.920399
 20
-13.723881
 30
0.0
  0
POINT
  5
166
330
15C
100
AcDbEntity
  8
DEFPOINTS
  6
Continuous
 62
     7
100
AcDbPoint
 10
50.92039899999999
 20
-13.723881
 30
0.0
  0
ENDBLK
  5
167
330
15C
100
AcDbEntity
  8
0
100
AcDbBlockEnd
  0
BLOCK
  5
169
330
168
100
AcDbEntity
  8
0
100
AcDbBlockBegin
  2
*D25
 70
     1
 10
0.0
 20
0.0
 30
0.0
  3
*D25
  1

  0
LINE
  5
16A
330
168
100
AcDbEntity
  8
0
  6
Continuous
 62
     7
100
AcDbLine
 10
50.92039899999999
 20
-13.723881
 30
0.0
 11
50.92039899999999
 21
-12.723881
 31
0.0
  0
INSERT
  5
16B
330
168
100
AcDbEntity
  8
0
  6
Continuous
 62
     7
100
AcDbBlockReference
  2
_DOT
 10
50.92039899999999
 20
-13.723881
 30
0.0
 50
270.0
  0
INSERT
  5
16C
330
168
100
AcDbEntity
  8
0
  6
Continuous
 62
     7
100
AcDbBlockReference
  2
_DOT
 10
50.92039899999999
 20
-12.723881
 30
0.0
 50
90.0
  0
TEXT
  5
16D
330
168
100
AcDbEntity
  8
0
  6
Continuous
 62
     7
100
AcDbText
 10
57.48400799999999
 20
-21.691935
 30
0.0
 40
3.2
  1
  
 50
90.00000300000001
 41
3.085875
100
AcDbText
  0
POINT
  5
16E
330
168
100
AcDbEntity
  8
DEFPOINTS
  6
Continuous
 62
     7
100
AcDbPoint
 10
25.920399
 20
-13.723881
 30
0.0
  0
POINT
  5
16F
330
168
100
AcDbEntity
  8
DEFPOINTS
  6
Continuous
 62
     7
100
AcDbPoint
 10
88.920395
 20
-12.723881
 30
0.0
  0
POINT
  5
170
330
168
100
AcDbEntity
  8
DEFPOINTS
  6
Continuous
 62
     7
100
AcDbPoint
 10
50.92039899999999
 20
-12.723881
 30
0.0
  0
ENDBLK
  5
171
330
168
100
AcDbEntity
  8
0
100
AcDbBlockEnd
  0
BLOCK
  5
173
330
172
100
AcDbEntity
  8
0
100
AcDbBlockBegin
  2
*D26
 70
     1
 10
0.0
 20
0.0
 30
0.0
  3
*D26
  1

  0
LINE
  5
174
330
172
100
AcDbEntity
  8
0
  6
Continuous
 62
     7
100
AcDbLine
 10
52.420387
 20
-6.223880799999999
 30
0.0
 11
52.420387
 21
3.7761195
 31
0.0
  0
INSERT
  5
175
330
172
100
AcDbEntity
  8
0
  6
Continuous
 62
     7
100
AcDbBlockReference
  2
_DOT
 10
52.420387
 20
-6.223880799999999
 30
0.0
 50
270.0
  0
INSERT
  5
176
330
172
100
AcDbEntity
  8
0
  6
Continuous
 62
     7
100
AcDbBlockReference
  2
_DOT
 10
52.420387
 20
3.7761195
 30
0.0
 50
90.0
  0
LINE
  5
177
330
172
100
AcDbEntity
  8
0
  6
Continuous
 62
     7
100
AcDbLine
 10
58.380391
 20
-6.223880799999999
 30
0.0
 11
51.220387
 21
-6.223880799999999
 31
0.0
  0
TEXT
  5
178
330
172
100
AcDbEntity
  8
0
  6
Continuous
 62
     7
100
AcDbText
 10
51.620387
 20
-3.966880699999999
 30
0.0
 40
3.2
  1
10
 50
90.00000300000001
 41
1.402670399999999
100
AcDbText
  0
POINT
  5
179
330
172
100
AcDbEntity
  8
DEFPOINTS
  6
Continuous
 62
     7
100
AcDbPoint
 10
60.920391
 20
-6.223880799999999
 30
0.0
  0
POINT
  5
17A
330
172
100
AcDbEntity
  8
DEFPOINTS
  6
Continuous
 62
     7
100
AcDbPoint
 10
62.611897
 20
3.7761195
 30
0.0
  0
POINT
  5
17B
330
172
100
AcDbEntity
  8
DEFPOINTS
  6
Continuous
 62
     7
100
AcDbPoint
 10
52.420387
 20
3.7761195
 30
0.0
  0
ENDBLK
  5
17C
330
172
100
AcDbEntity
  8
0
100
AcDbBlockEnd
  0
BLOCK
  5
17E
330
17D
100
AcDbEntity
  8
0
100
AcDbBlockBegin
  2
*D27
 70
     1
 10
0.0
 20
0.0
 30
0.0
  3
*D27
  1

  0
LINE
  5
17F
330
17D
100
AcDbEntity
  8
0
  6
Continuous
 62
     7
100
AcDbLine
 10
52.420387
 20
3.7761195
 30
0.0
 11
52.420387
 21
13.776117
 31
0.0
  0
INSERT
  5
180
330
17D
100
AcDbEntity
  8
0
  6
Continuous
 62
     7
100
AcDbBlockReference
  2
_DOT
 10
52.420387
 20
3.7761195
 30
0.0
 50
270.0
  0
INSERT
  5
181
330
17D
100
AcDbEntity
  8
0
  6
Continuous
 62
     7
100
AcDbBlockReference
  2
_DOT
 10
52.420387
 20
13.776117
 30
0.0
 50
90.0
  0
TEXT
  5
182
330
17D
100
AcDbEntity
  8
0
  6
Continuous
 62
     7
100
AcDbText
 10
51.620387
 20
6.033118199999999
 30
0.0
 40
3.2
  1
10
 50
90.00000300000001
 41
1.402670399999999
100
AcDbText
  0
POINT
  5
183
330
17D
100
AcDbEntity
  8
DEFPOINTS
  6
Continuous
 62
     7
100
AcDbPoint
 10
62.611897
 20
3.7761195
 30
0.0
  0
POINT
  5
184
330
17D
100
AcDbEntity
  8
DEFPOINTS
  6
Continuous
 62
     7
100
AcDbPoint
 10
63.810505
 20
13.776117
 30
0.0
  0
POINT
  5
185
330
17D
100
AcDbEntity
  8
DEFPOINTS
  6
Continuous
 62
     7
100
AcDbPoint
 10
52.420387
 20
13.776117
 30
0.0
  0
ENDBLK
  5
186
330
17D
100
AcDbEntity
  8
0
100
AcDbBlockEnd
  0
BLOCK
  5
188
330
187
100
AcDbEntity
  8
0
100
AcDbBlockBegin
  2
*D28
 70
     1
 10
0.0
 20
0.0
 30
0.0
  3
*D28
  1

  0
LINE
  5
189
330
187
100
AcDbEntity
  8
0
  6
Continuous
 62
     7
100
AcDbLine
 10
52.420387
 20
13.776117
 30
0.0
 11
52.420387
 21
22.976114
 31
0.0
  0
INSERT
  5
18A
330
187
100
AcDbEntity
  8
0
  6
Continuous
 62
     7
100
AcDbBlockReference
  2
_DOT
 10
52.420387
 20
13.776117
 30
0.0
 50
270.0
  0
INSERT
  5
18B
330
187
100
AcDbEntity
  8
0
  6
Continuous
 62
     7
100
AcDbBlockReference
  2
_DOT
 10
52.420387
 20
22.976114
 30
0.0
 50
90.0
  0
LINE
  5
18C
330
187
100
AcDbEntity
  8
0
  6
Continuous
 62
     7
100
AcDbLine
 10
70.06038000000001
 20
22.976114
 30
0.0
 11
51.220387
 21
22.976114
 31
0.0
  0
TEXT
  5
18D
330
187
100
AcDbEntity
  8
0
  6
Continuous
 62
     7
100
AcDbText
 10
51.620387
 20
14.033116
 30
0.0
 40
3.2
  1
9.2
 50
90.00000300000001
 41
1.357187499999999
100
AcDbText
  0
POINT
  5
18E
330
187
100
AcDbEntity
  8
DEFPOINTS
  6
Continuous
 62
     7
100
AcDbPoint
 10
63.810505
 20
13.776117
 30
0.0
  0
POINT
  5
18F
330
187
100
AcDbEntity
  8
DEFPOINTS
  6
Continuous
 62
     7
100
AcDbPoint
 10
72.60038
 20
22.976114
 30
0.0
  0
POINT
  5
190
330
187
100
AcDbEntity
  8
DEFPOINTS
  6
Continuous
 62
     7
100
AcDbPoint
 10
52.420387
 20
22.976114
 30
0.0
  0
ENDBLK
  5
191
330
187
100
AcDbEntity
  8
0
100
AcDbBlockEnd
  0
BLOCK
  5
193
330
192
100
AcDbEntity
  8
0
100
AcDbBlockBegin
  2
*D29
 70
     1
 10
0.0
 20
0.0
 30
0.0
  3
*D29
  1

  0
LINE
  5
194
330
192
100
AcDbEntity
  8
0
  6
Continuous
 62
     7
100
AcDbLine
 10
52.420387
 20
22.976114
 30
0.0
 11
52.420387
 21
28.976114
 31
0.0
  0
INSERT
  5
195
330
192
100
AcDbEntity
  8
0
  6
Continuous
 62
     7
100
AcDbBlockReference
  2
_DOT
 10
52.420387
 20
22.976114
 30
0.0
 50
270.0
  0
INSERT
  5
196
330
192
100
AcDbEntity
  8
0
  6
Continuous
 62
     7
100
AcDbBlockReference
  2
_DOT
 10
52.420387
 20
28.976114
 30
0.0
 50
90.0
  0
LINE
  5
197
330
192
100
AcDbEntity
  8
0
  6
Continuous
 62
     7
100
AcDbLine
 10
72.180413
 20
28.976114
 30
0.0
 11
51.220387
 21
28.976114
 31
0.0
  0
TEXT
  5
198
330
192
100
AcDbEntity
  8
0
  6
Continuous
 62
     7
100
AcDbText
 10
51.620387
 20
24.833114
 30
0.0
 40
3.2
  1
6
 50
90.00000300000001
100
AcDbText
  0
POINT
  5
199
330
192
100
AcDbEntity
  8
DEFPOINTS
  6
Continuous
 62
     7
100
AcDbPoint
 10
67.694992
 20
22.976114
 30
0.0
  0
POINT
  5
19A
330
192
100
AcDbEntity
  8
DEFPOINTS
  6
Continuous
 62
     7
100
AcDbPoint
 10
74.72041299999999
 20
28.976114
 30
0.0
  0
POINT
  5
19B
330
192
100
AcDbEntity
  8
DEFPOINTS
  6
Continuous
 62
     7
100
AcDbPoint
 10
52.420387
 20
28.976114
 30
0.0
  0
ENDBLK
  5
19C
330
192
100
AcDbEntity
  8
0
100
AcDbBlockEnd
  0
BLOCK
  5
19E
330
19D
100
AcDbEntity
  8
0
100
AcDbBlockBegin
  2
*D30
 70
     1
 10
0.0
 20
0.0
 30
0.0
  3
*D30
  1

  0
LINE
  5
19F
330
19D
100
AcDbEntity
  8
0
  6
Continuous
 62
     7
100
AcDbLine
 10
-157.07961
 20
50.276123
 30
0.0
 11
-137.07961
 21
50.276123
 31
0.0
  0
INSERT
  5
1A0
330
19D
100
AcDbEntity
  8
0
  6
Continuous
 62
     7
100
AcDbBlockReference
  2
_DOT
 10
-157.07961
 20
50.276123
 30
0.0
 50
180.0
  0
INSERT
  5
1A1
330
19D
100
AcDbEntity
  8
0
  6
Continuous
 62
     7
100
AcDbBlockReference
  2
_DOT
 10
-137.07961
 20
50.276123
 30
0.0
  0
LINE
  5
1A2
330
19D
100
AcDbEntity
  8
0
  6
Continuous
 62
     7
100
AcDbLine
 10
-157.07961
 20
42.81612299999999
 30
0.0
 11
-157.07961
 21
51.47612
 31
0.0
  0
LINE
  5
1A3
330
19D
100
AcDbEntity
  8
0
  6
Continuous
 62
     7
100
AcDbLine
 10
-137.07961
 20
37.001117
 30
0.0
 11
-137.07961
 21
51.47612
 31
0.0
  0
TEXT
  5
1A4
330
19D
100
AcDbEntity
  8
0
  6
Continuous
 62
     7
100
AcDbText
 10
-151.42261
 20
51.07612299999999
 30
0.0
 40
3.2
  1
(A)
 41
1.2857566
100
AcDbText
  0
POINT
  5
1A5
330
19D
100
AcDbEntity
  8
DEFPOINTS
  6
Continuous
 62
     7
100
AcDbPoint
 10
-157.07961
 20
40.276123
 30
0.0
  0
POINT
  5
1A6
330
19D
100
AcDbEntity
  8
DEFPOINTS
  6
Continuous
 62
     7
100
AcDbPoint
 10
-137.07961
 20
34.461117
 30
0.0
  0
POINT
  5
1A7
330
19D
100
AcDbEntity
  8
DEFPOINTS
  6
Continuous
 62
     7
100
AcDbPoint
 10
-137.07961
 20
50.276123
 30
0.0
  0
ENDBLK
  5
1A8
330
19D
100
AcDbEntity
  8
0
100
AcDbBlockEnd
  0
BLOCK
  5
1AA
330
1A9
100
AcDbEntity
  8
0
100
AcDbBlockBegin
  2
*D31
 70
     1
 10
0.0
 20
0.0
 30
0.0
  3
*D31
  1

  0
LINE
  5
1AB
330
1A9
100
AcDbEntity
  8
0
  6
Continuous
 62
     7
100
AcDbLine
 10
-155.07961
 20
-43.723881
 30
0.0
 11
-137.07961
 21
-43.723881
 31
0.0
  0
INSERT
  5
1AC
330
1A9
100
AcDbEntity
  8
0
  6
Continuous
 62
     7
100
AcDbBlockReference
  2
_DOT
 10
-155.07961
 20
-43.723881
 30
0.0
 50
180.0
  0
INSERT
  5
1AD
330
1A9
100
AcDbEntity
  8
0
  6
Continuous
 62
     7
100
AcDbBlockReference
  2
_DOT
 10
-137.07961
 20
-43.723881
 30
0.0
  0
LINE
  5
1AE
330
1A9
100
AcDbEntity
  8
0
  6
Continuous
 62
     7
100
AcDbLine
 10
-137.07961
 20
-29.270579
 30
0.0
 11
-137.07961
 21
-44.92388199999999
 31
0.0
  0
TEXT
  5
1AF
330
1A9
100
AcDbEntity
  8
0
  6
Continuous
 62
     7
100
AcDbText
 10
-148.82261
 20
-42.923881
 30
0.0
 40
3.2
  1
18
 41
1.285781199999999
100
AcDbText
  0
POINT
  5
1B0
330
1A9
100
AcDbEntity
  8
DEFPOINTS
  6
Continuous
 62
     7
100
AcDbPoint
 10
-155.07961
 20
-28.723881
 30
0.0
  0
POINT
  5
1B1
330
1A9
100
AcDbEntity
  8
DEFPOINTS
  6
Continuous
 62
     7
100
AcDbPoint
 10
-137.07961
 20
-26.730579
 30
0.0
  0
POINT
  5
1B2
330
1A9
100
AcDbEntity
  8
DEFPOINTS
  6
Continuous
 62
     7
100
AcDbPoint
 10
-137.07961
 20
-43.723881
 30
0.0
  0
ENDBLK
  5
1B3
330
1A9
100
AcDbEntity
  8
0
100
AcDbBlockEnd
  0
BLOCK
  5
1B5
330
1B4
100
AcDbEntity
  8
0
100
AcDbBlockBegin
  2
*D32
 70
     1
 10
0.0
 20
0.0
 30
0.0
  3
*D32
  1

  0
LINE
  5
1B6
330
1B4
100
AcDbEntity
  8
0
  6
Continuous
 62
     7
100
AcDbLine
 10
0.9203979999999999
 20
126.77612
 30
0.0
 11
80.920395
 21
126.77612
 31
0.0
  0
INSERT
  5
1B7
330
1B4
100
AcDbEntity
  8
0
  6
Continuous
 62
     7
100
AcDbBlockReference
  2
_DOT
 10
0.9203979999999999
 20
126.77612
 30
0.0
 50
180.0
  0
INSERT
  5
1B8
330
1B4
100
AcDbEntity
  8
0
  6
Continuous
 62
     7
100
AcDbBlockReference
  2
_DOT
 10
80.920395
 20
126.77612
 30
0.0
  0
LINE
  5
1B9
330
1B4
100
AcDbEntity
  8
0
  6
Continuous
 62
     7
100
AcDbLine
 10
0.9203979999999999
 20
123.44812
 30
0.0
 11
0.9203979999999999
 21
127.97611
 31
0.0
  0
LINE
  5
1BA
330
1B4
100
AcDbEntity
  8
0
  6
Continuous
 62
     7
100
AcDbLine
 10
80.920395
 20
123.93312
 30
0.0
 11
80.920395
 21
127.97611
 31
0.0
  0
TEXT
  5
1BB
330
1B4
100
AcDbEntity
  8
0
  6
Continuous
 62
     7
100
AcDbText
 10
38.977395
 20
127.57612
 30
0.0
 40
3.2
  1
L
100
AcDbText
  0
TEXT
  5
1BC
330
1B4
100
AcDbEntity
  8
0
  6
Continuous
 62
     7
100
AcDbText
 10
42.177395
 20
127.57612
 30
0.0
 40
1.6
  1
2
100
AcDbText
  0
POINT
  5
1BD
330
1B4
100
AcDbEntity
  8
DEFPOINTS
  6
Continuous
 62
     7
100
AcDbPoint
 10
0.9203979999999999
 20
120.90812
 30
0.0
  0
POINT
  5
1BE
330
1B4
100
AcDbEntity
  8
DEFPOINTS
  6
Continuous
 62
     7
100
AcDbPoint
 10
80.920395
 20
121.39312
 30
0.0
  0
POINT
  5
1BF
330
1B4
100
AcDbEntity
  8
DEFPOINTS
  6
Continuous
 62
     7
100
AcDbPoint
 10
80.920395
 20
126.77612
 30
0.0
  0
ENDBLK
  5
1C0
330
1B4
100
AcDbEntity
  8
0
100
AcDbBlockEnd
  0
BLOCK
  5
1C2
330
1C1
100
AcDbEntity
  8
0
100
AcDbBlockBegin
  2
*D33
 70
     1
 10
0.0
 20
0.0
 30
0.0
  3
*D33
  1

  0
LINE
  5
1C3
330
1C1
100
AcDbEntity
  8
0
  6
Continuous
 62
     7
100
AcDbLine
 10
40.92039899999999
 20
-20.723881
 30
0.0
 11
40.92039899999999
 21
-24.723881
 31
0.0
  0
INSERT
  5
1C4
330
1C1
100
AcDbEntity
  8
0
  6
Continuous
 62
     7
100
AcDbBlockReference
  2
_DOT
 10
40.92039899999999
 20
-20.723881
 30
0.0
 50
90.0
  0
INSERT
  5
1C5
330
1C1
100
AcDbEntity
  8
0
  6
Continuous
 62
     7
100
AcDbBlockReference
  2
_DOT
 10
40.92039899999999
 20
-24.723881
 30
0.0
 50
270.0
  0
LINE
  5
1C6
330
1C1
100
AcDbEntity
  8
0
  6
Continuous
 62
     7
100
AcDbLine
 10
24.482402
 20
-20.723881
 30
0.0
 11
42.12039899999999
 21
-20.723881
 31
0.0
  0
TEXT
  5
1C7
330
1C1
100
AcDbEntity
  8
0
  6
Continuous
 62
     7
100
AcDbText
 10
40.120399
 20
-23.866881
 30
0.0
 40
3.2
  1
4
 50
90.00000300000001
100
AcDbText
  0
POINT
  5
1C8
330
1C1
100
AcDbEntity
  8
DEFPOINTS
  6
Continuous
 62
     7
100
AcDbPoint
 10
21.942402
 20
-20.723881
 30
0.0
  0
POINT
  5
1C9
330
1C1
100
AcDbEntity
  8
DEFPOINTS
  6
Continuous
 62
     7
100
AcDbPoint
 10
21.942402
 20
-24.723881
 30
0.0
  0
POINT
  5
1CA
330
1C1
100
AcDbEntity
  8
DEFPOINTS
  6
Continuous
 62
     7
100
AcDbPoint
 10
40.92039899999999
 20
-24.723881
 30
0.0
  0
ENDBLK
  5
1CB
330
1C1
100
AcDbEntity
  8
0
100
AcDbBlockEnd
  0
BLOCK
  5
1CD
330
1CC
100
AcDbEntity
  8
0
100
AcDbBlockBegin
  2
*D34
 70
     1
 10
0.0
 20
0.0
 30
0.0
  3
*D34
  1

  0
LINE
  5
1CE
330
1CC
100
AcDbEntity
  8
0
  6
Continuous
 62
     7
100
AcDbLine
 10
40.92039899999999
 20
-20.723881
 30
0.0
 11
40.92039899999999
 21
-16.223881
 31
0.0
  0
INSERT
  5
1CF
330
1CC
100
AcDbEntity
  8
0
  6
Continuous
 62
     7
100
AcDbBlockReference
  2
_DOT
 10
40.92039899999999
 20
-20.723881
 30
0.0
 50
270.0
  0
INSERT
  5
1D0
330
1CC
100
AcDbEntity
  8
0
  6
Continuous
 62
     7
100
AcDbBlockReference
  2
_DOT
 10
40.92039899999999
 20
-16.223881
 30
0.0
 50
90.0
  0
LINE
  5
1D1
330
1CC
100
AcDbEntity
  8
0
  6
Continuous
 62
     7
100
AcDbLine
 10
24.482402
 20
-20.723881
 30
0.0
 11
42.12039899999999
 21
-20.723881
 31
0.0
  0
LINE
  5
1D2
330
1CC
100
AcDbEntity
  8
0
  6
Continuous
 62
     7
100
AcDbLine
 10
28.460399
 20
-16.223881
 30
0.0
 11
42.12039899999999
 21
-16.223881
 31
0.0
  0
TEXT
  5
1D3
330
1CC
100
AcDbEntity
  8
0
  6
Continuous
 62
     7
100
AcDbText
 10
43.992721
 20
-40.05545999999999
 30
0.0
 40
3.2
  1
  
 50
90.00000300000001
 41
3.085875
100
AcDbText
  0
POINT
  5
1D4
330
1CC
100
AcDbEntity
  8
DEFPOINTS
  6
Continuous
 62
     7
100
AcDbPoint
 10
21.942402
 20
-20.723881
 30
0.0
  0
POINT
  5
1D5
330
1CC
100
AcDbEntity
  8
DEFPOINTS
  6
Continuous
 62
     7
100
AcDbPoint
 10
25.920399
 20
-16.223881
 30
0.0
  0
POINT
  5
1D6
330
1CC
100
AcDbEntity
  8
DEFPOINTS
  6
Continuous
 62
     7
100
AcDbPoint
 10
40.92039899999999
 20
-16.223881
 30
0.0
  0
ENDBLK
  5
1D7
330
1CC
100
AcDbEntity
  8
0
100
AcDbBlockEnd
  0
BLOCK
  5
1D9
330
1D8
100
AcDbEntity
  8
0
100
AcDbBlockBegin
  2
*D35
 70
     1
 10
0.0
 20
0.0
 30
0.0
  3
*D35
  1

  0
LINE
  5
1DA
330
1D8
100
AcDbEntity
  8
0
  6
Continuous
 62
     7
100
AcDbLine
 10
42.93458199999999
 20
108.7761399999999
 30
0.0
 11
42.93458199999999
 21
121.28033
 31
0.0
  0
LINE
  5
1DB
330
1D8
100
AcDbEntity
  8
0
  6
Continuous
 62
     7
100
AcDbLine
 10
42.93458199999999
 20
88.776062
 30
0.0
 11
42.93458199999999
 21
108.7761399999999
 31
0.0
  0
INSERT
  5
1DC
330
1D8
100
AcDbEntity
  8
0
  6
Continuous
 62
     7
100
AcDbBlockReference
  2
_DOT
 10
42.93458199999999
 20
88.776062
 30
0.0
 50
270.0
  0
INSERT
  5
1DD
330
1D8
100
AcDbEntity
  8
0
  6
Continuous
 62
     7
100
AcDbBlockReference
  2
_DOT
 10
42.93458199999999
 20
108.7761399999999
 30
0.0
 50
90.0
  0
TEXT
  5
1DE
330
1D8
100
AcDbEntity
  8
0
  6
Continuous
 62
     7
100
AcDbText
 10
42.134582
 20
115.79434
 30
0.0
 40
3.2
  1
20
 50
90.00000300000001
 41
1.102098199999999
100
AcDbText
  0
POINT
  5
1DF
330
1D8
100
AcDbEntity
  8
DEFPOINTS
  6
Continuous
 62
     7
100
AcDbPoint
 10
60.838913
 20
88.776062
 30
0.0
  0
POINT
  5
1E0
330
1D8
100
AcDbEntity
  8
DEFPOINTS
  6
Continuous
 62
     7
100
AcDbPoint
 10
60.838913
 20
108.7761399999999
 30
0.0
  0
POINT
  5
1E1
330
1D8
100
AcDbEntity
  8
DEFPOINTS
  6
Continuous
 62
     7
100
AcDbPoint
 10
42.93458199999999
 20
108.7761399999999
 30
0.0
  0
ENDBLK
  5
1E2
330
1D8
100
AcDbEntity
  8
0
100
AcDbBlockEnd
  0
BLOCK
  5
1E4
330
1E3
100
AcDbEntity
  8
0
100
AcDbBlockBegin
  2
*D36
 70
     1
 10
0.0
 20
0.0
 30
0.0
  3
*D36
  1

  0
LINE
  5
1E5
330
1E3
100
AcDbEntity
  8
0
  6
Continuous
 62
     7
100
AcDbLine
 10
60.92039499999999
 20
70.04956800000001
 30
0.0
 11
100.92039
 21
70.04956800000001
 31
0.0
  0
INSERT
  5
1E6
330
1E3
100
AcDbEntity
  8
0
  6
Continuous
 62
     7
100
AcDbBlockReference
  2
_DOT
 10
60.92039499999999
 20
70.04956800000001
 30
0.0
 50
180.0
  0
INSERT
  5
1E7
330
1E3
100
AcDbEntity
  8
0
  6
Continuous
 62
     7
100
AcDbBlockReference
  2
_DOT
 10
100.92039
 20
70.04956800000001
 30
0.0
  0
LINE
  5
1E8
330
1E3
100
AcDbEntity
  8
0
  6
Continuous
 62
     7
100
AcDbLine
 10
60.92039499999999
 20
82.93611999999999
 30
0.0
 11
60.92039499999999
 21
68.849564
 31
0.0
  0
LINE
  5
1E9
330
1E3
100
AcDbEntity
  8
0
  6
Continuous
 62
     7
100
AcDbLine
 10
100.92039
 20
82.93611999999999
 30
0.0
 11
100.92039
 21
68.849564
 31
0.0
  0
TEXT
  5
1EA
330
1E3
100
AcDbEntity
  8
0
  6
Continuous
 62
     7
100
AcDbText
 10
78.17739499999999
 20
70.849568
 30
0.0
 40
3.2
  1
40
 41
1.102098199999999
100
AcDbText
  0
POINT
  5
1EB
330
1E3
100
AcDbEntity
  8
DEFPOINTS
  6
Continuous
 62
     7
100
AcDbPoint
 10
60.92039499999999
 20
85.47611999999999
 30
0.0
  0
POINT
  5
1EC
330
1E3
100
AcDbEntity
  8
DEFPOINTS
  6
Continuous
 62
     7
100
AcDbPoint
 10
100.92039
 20
85.47611999999999
 30
0.0
  0
POINT
  5
1ED
330
1E3
100
AcDbEntity
  8
DEFPOINTS
  6
Continuous
 62
     7
100
AcDbPoint
 10
100.92039
 20
70.04956800000001
 30
0.0
  0
ENDBLK
  5
1EE
330
1E3
100
AcDbEntity
  8
0
100
AcDbBlockEnd
  0
BLOCK
  5
1F0
330
1EF
100
AcDbEntity
  8
0
100
AcDbBlockBegin
  2
*D37
 70
     1
 10
0.0
 20
0.0
 30
0.0
  3
*D37
  1

  0
LINE
  5
1F1
330
1EF
100
AcDbEntity
  8
0
  6
Continuous
 62
     7
100
AcDbLine
 10
50.92039899999999
 20
-12.723881
 30
0.0
 11
50.92039899999999
 21
-8.723880799999999
 31
0.0
  0
INSERT
  5
1F2
330
1EF
100
AcDbEntity
  8
0
  6
Continuous
 62
     7
100
AcDbBlockReference
  2
_DOT
 10
50.92039899999999
 20
-12.723881
 30
0.0
 50
270.0
  0
INSERT
  5
1F3
330
1EF
100
AcDbEntity
  8
0
  6
Continuous
 62
     7
100
AcDbBlockReference
  2
_DOT
 10
50.92039899999999
 20
-8.723880799999999
 30
0.0
 50
90.0
  0
TEXT
  5
1F4
330
1EF
100
AcDbEntity
  8
0
  6
Continuous
 62
     7
100
AcDbText
 10
50.120399
 20
-11.866881
 30
0.0
 40
3.2
  1
4
 50
90.00000300000001
100
AcDbText
  0
POINT
  5
1F5
330
1EF
100
AcDbEntity
  8
DEFPOINTS
  6
Continuous
 62
     7
100
AcDbPoint
 10
90.920395
 20
-12.723881
 30
0.0
  0
POINT
  5
1F6
330
1EF
100
AcDbEntity
  8
DEFPOINTS
  6
Continuous
 62
     7
100
AcDbPoint
 10
90.920395
 20
-8.723880799999999
 30
0.0
  0
POINT
  5
1F7
330
1EF
100
AcDbEntity
  8
DEFPOINTS
  6
Continuous
 62
     7
100
AcDbPoint
 10
50.92039899999999
 20
-8.723880799999999
 30
0.0
  0
ENDBLK
  5
1F8
330
1EF
100
AcDbEntity
  8
0
100
AcDbBlockEnd
  0
BLOCK
  5
1FA
330
1F9
100
AcDbEntity
  8
0
100
AcDbBlockBegin
  2
KOZU0001
 70
     0
 10
0.0
 20
0.0
 30
0.0
  3
KOZU0001
  1

  0
LINE
  5
1FB
330
1F9
100
AcDbEntity
  8
0
  6
Continuous
 62
     7
100
AcDbLine
 10
0.0
 20
0.0
 30
0.0
 11
-9.437706
 21
19.173344
 31
0.0
  0
LINE
  5
1FC
330
1F9
100
AcDbEntity
  8
0
  6
Continuous
 62
     7
100
AcDbLine
 10
-9.437706
 20
19.173344
 30
0.0
 11
41.555761
 21
19.173344
 31
0.0
  0
LINE
  5
1FD
330
1F9
100
AcDbEntity
  8
0
  6
Continuous
 62
     7
100
AcDbLine
 10
0.0
 20
0.0
 30
0.0
 11
-2.2220831
 21
2.249965899999999
 31
0.0
  0
LINE
  5
1FE
330
1F9
100
AcDbEntity
  8
0
  6
Continuous
 62
     7
100
AcDbLine
 10
0.0
 20
0.0
 30
0.0
 11
-0.4276869000000001
 21
3.1332226
 31
0.0
  0
TEXT
  5
1FF
330
1F9
100
AcDbEntity
  8
0
  6
Continuous
 62
     7
100
AcDbText
 10
-6.4442382
 20
19.973347
 30
0.0
 40
3.2
  1
２－%%C４．２×１４．２スロット
 41
0.84306961
100
AcDbText
  0
ENDBLK
  5
200
330
1F9
100
AcDbEntity
  8
0
100
AcDbBlockEnd
  0
BLOCK
  5
202
330
201
100
AcDbEntity
  8
0
100
AcDbBlockBegin
  2
KOZU0002
 70
     0
 10
0.0
 20
0.0
 30
0.0
  3
KOZU0002
  1

  0
LINE
  5
203
330
201
100
AcDbEntity
  8
0
  6
Continuous
 62
     7
100
AcDbLine
 10
0.0
 20
0.0
 30
0.0
 11
25.769882
 21
-27.980953
 31
0.0
  0
LINE
  5
204
330
201
100
AcDbEntity
  8
0
  6
Continuous
 62
     7
100
AcDbLine
 10
25.769882
 20
-27.980953
 30
0.0
 11
73.833332
 21
-27.980953
 31
0.0
  0
LINE
  5
205
330
201
100
AcDbEntity
  8
0
  6
Continuous
 62
     7
100
AcDbLine
 10
0.0
 20
0.0
 30
0.0
 11
2.767911799999999
 21
-1.529269199999999
 31
0.0
  0
LINE
  5
206
330
201
100
AcDbEntity
  8
0
  6
Continuous
 62
     7
100
AcDbLine
 10
0.0
 20
0.0
 30
0.0
 11
1.296767899999999
 21
-2.8841624
 31
0.0
  0
TEXT
  5
207
330
201
100
AcDbEntity
  8
0
  6
Continuous
 62
     7
100
AcDbText
 10
29.033335
 20
-27.180953
 30
0.0
 40
3.2
  1
２－%%C４．２×８．２スロット
 41
0.84326962
100
AcDbText
  0
ENDBLK
  5
208
330
201
100
AcDbEntity
  8
0
100
AcDbBlockEnd
  0
BLOCK
  5
53B
330
539
100
AcDbEntity
  8
0
100
AcDbBlockBegin
  2
GENAXEH
 70
     0
 10
0.0
 20
0.0
 30
0.0
  3
GENAXEH
  1

  0
LINE
  5
53A
330
539
100
AcDbEntity
  8
0
100
AcDbLine
 10
-1.0
 20
0.0
 30
0.0
 11
1.0
 21
0.0
 31
0.0
  0
ENDBLK
  5
53C
330
539
100
AcDbEntity
  8
0
100
AcDbBlockEnd
  0
ENDSEC
  0
SECTION
  2
ENTITIES
  0
POINT
  5
209
330
36
100
AcDbEntity
  8
0
  6
Continuous
 62
     7
100
AcDbPoint
 10
-154.82587
 20
112.88793
 30
0.0
  0
POINT
  5
20A
330
36
100
AcDbEntity
  8
0
  6
Continuous
 62
     7
100
AcDbPoint
 10
0.9203979999999999
 20
116.77612
 30
0.0
  0
POINT
  5
20B
330
36
100
AcDbEntity
  8
0
  6
Continuous
 62
     7
100
AcDbPoint
 10
0.9203979999999999
 20
126.77612
 30
0.0
  0
LINE
  5
20C
330
36
100
AcDbEntity
  8
0
  6
Continuous
 62
     7
100
AcDbLine
 10
170.0
 20
173.0
 30
0.0
 11
170.0
 21
-100.0
 31
0.0
  0
LINE
  5
20D
330
36
100
AcDbEntity
  8
0
  6
Continuous
 62
     7
100
AcDbLine
 10
-211.0
 20
-100.0
 30
0.0
 11
170.0
 21
-100.0
 31
0.0
  0
LINE
  5
20E
330
36
100
AcDbEntity
  8
0
  6
Continuous
 62
     7
100
AcDbLine
 10
-211.0
 20
173.0
 30
0.0
 11
170.0
 21
173.0
 31
0.0
  0
LINE
  5
20F
330
36
100
AcDbEntity
  8
0
  6
Continuous
 62
     7
100
AcDbLine
 10
-211.0
 20
173.0
 30
0.0
 11
-211.0
 21
-100.0
 31
0.0
  0
LINE
  5
210
330
36
100
AcDbEntity
  8
0
  6
Continuous
 62
     7
100
AcDbLine
 10
-191.0
 20
173.0
 30
0.0
 11
-191.0
 21
69.0
 31
0.0
  0
LINE
  5
211
330
36
100
AcDbEntity
  8
0
  6
Continuous
 62
     7
100
AcDbLine
 10
-211.0
 20
165.0
 30
0.0
 11
-86.0
 21
165.0
 31
0.0
  0
LINE
  5
212
330
36
100
AcDbEntity
  8
0
  6
Continuous
 62
     7
100
AcDbLine
 10
-211.0
 20
157.0
 30
0.0
 11
-86.0
 21
157.0
 31
0.0
  0
LINE
  5
213
330
36
100
AcDbEntity
  8
0
  6
Continuous
 62
     7
100
AcDbLine
 10
-191.0
 20
109.0
 30
0.0
 11
-86.0
 21
109.0
 31
0.0
  0
LINE
  5
214
330
36
100
AcDbEntity
  8
0
  6
Continuous
 62
     7
100
AcDbLine
 10
-211.0
 20
101.0
 30
0.0
 11
-86.0
 21
101.0
 31
0.0
  0
LINE
  5
215
330
36
100
AcDbEntity
  8
0
  6
Continuous
 62
     7
100
AcDbLine
 10
-191.0
 20
93.0
 30
0.0
 11
-86.0
 21
93.0
 31
0.0
  0
LINE
  5
216
330
36
100
AcDbEntity
  8
0
  6
Continuous
 62
     7
100
AcDbLine
 10
-191.0
 20
85.0
 30
0.0
 11
-86.0
 21
85.0
 31
0.0
  0
LINE
  5
217
330
36
100
AcDbEntity
  8
0
  6
Continuous
 62
     7
100
AcDbLine
 10
-191.0
 20
77.0
 30
0.0
 11
-86.0
 21
77.0
 31
0.0
  0
LINE
  5
218
330
36
100
AcDbEntity
  8
0
  6
Continuous
 62
     7
100
AcDbLine
 10
-211.0
 20
173.0
 30
0.0
 11
-211.0
 21
69.0
 31
0.0
  0
LINE
  5
219
330
36
100
AcDbEntity
  8
0
  6
Continuous
 62
     7
100
AcDbLine
 10
-211.0
 20
173.0
 30
0.0
 11
-86.0
 21
173.0
 31
0.0
  0
LINE
  5
21A
330
36
100
AcDbEntity
  8
0
  6
Continuous
 62
     7
100
AcDbLine
 10
-86.0
 20
173.0
 30
0.0
 11
-86.0
 21
69.0
 31
0.0
  0
LINE
  5
21B
330
36
100
AcDbEntity
  8
0
  6
Continuous
 62
     7
100
AcDbLine
 10
-211.0
 20
117.0
 30
0.0
 11
-86.0
 21
117.0
 31
0.0
  0
LINE
  5
21C
330
36
100
AcDbEntity
  8
0
  6
Continuous
 62
     7
100
AcDbLine
 10
-191.0
 20
109.0
 30
0.0
 11
-86.0
 21
109.0
 31
0.0
  0
LINE
  5
21D
330
36
100
AcDbEntity
  8
0
  6
Continuous
 62
     7
100
AcDbLine
 10
-191.0
 20
133.0
 30
0.0
 11
-86.0
 21
133.0
 31
0.0
  0
LINE
  5
21E
330
36
100
AcDbEntity
  8
0
  6
Continuous
 62
     7
100
AcDbLine
 10
-211.0
 20
141.0
 30
0.0
 11
-86.0
 21
141.0
 31
0.0
  0
LINE
  5
21F
330
36
100
AcDbEntity
  8
0
  6
Continuous
 62
     7
100
AcDbLine
 10
-211.0
 20
69.0
 30
0.0
 11
-86.0
 21
69.0
 31
0.0
  0
LINE
  5
220
330
36
100
AcDbEntity
  8
0
  6
Continuous
 62
     7
100
AcDbLine
 10
-211.0
 20
125.0
 30
0.0
 11
-86.0
 21
125.0
 31
0.0
  0
LINE
  5
221
330
36
100
AcDbEntity
  8
0
  6
PHANTOM
 62
     7
100
AcDbLine
 10
-165.07961
 20
-10.223881
 30
0.0
 11
-165.07961
 21
-12.223881
 31
0.0
  0
LINE
  5
222
330
36
100
AcDbEntity
  8
0
  6
PHANTOM
 62
     7
100
AcDbLine
 10
-177.07961
 20
-10.223881
 30
0.0
 11
-177.07961
 21
-12.223881
 31
0.0
  0
LINE
  5
223
330
36
100
AcDbEntity
  8
0
  6
PHANTOM
 62
     7
100
AcDbLine
 10
-185.07961
 20
-27.223881
 30
0.0
 11
-157.07961
 21
-27.223881
 31
0.0
  0
LINE
  5
224
330
36
100
AcDbEntity
  8
0
  6
PHANTOM
 62
     7
100
AcDbLine
 10
-157.07961
 20
-29.223881
 30
0.0
 11
-185.07961
 21
-29.223881
 31
0.0
  0
LINE
  5
225
330
36
100
AcDbEntity
  8
0
  6
PHANTOM
 62
     7
100
AcDbLine
 10
-185.07961
 20
-1.223880599999999
 30
0.0
 11
-177.07961
 21
-1.223880599999999
 31
0.0
  0
LINE
  5
226
330
36
100
AcDbEntity
  8
0
  6
PHANTOM
 62
     7
100
AcDbLine
 10
-175.07961
 20
-1.223880599999999
 30
0.0
 11
-169.07961
 21
-1.223880599999999
 31
0.0
  0
LINE
  5
227
330
36
100
AcDbEntity
  8
0
  6
PHANTOM
 62
     7
100
AcDbLine
 10
-167.07961
 20
-1.223880599999999
 30
0.0
 11
-159.07961
 21
-1.223880599999999
 31
0.0
  0
LINE
  5
228
330
36
100
AcDbEntity
  8
0
  6
PHANTOM
 62
     7
100
AcDbLine
 10
-201.07961
 20
-43.72387299999999
 30
0.0
 11
-187.07964
 21
-40.790585
 31
0.0
  0
LINE
  5
229
330
36
100
AcDbEntity
  8
0
  6
PHANTOM
 62
     7
100
AcDbLine
 10
-185.07957
 20
-40.523857
 30
0.0
 11
-157.07957
 21
-35.723854
 31
0.0
  0
LINE
  5
22A
330
36
100
AcDbEntity
  8
0
  6
CENTER
 62
     7
100
AcDbLine
 10
0.9203979999999999
 20
-1.777881499999999
 30
0.0
 11
0.9203979999999999
 21
-34.733784
 31
0.0
  0
LINE
  5
22B
330
36
100
AcDbEntity
  8
0
  6
Continuous
 62
     3
100
AcDbLine
 10
25.920399
 20
-16.223881
 30
0.0
 11
-24.079601
 21
-16.223881
 31
0.0
  0
LINE
  5
22C
330
36
100
AcDbEntity
  8
0
  6
CENTER
 62
     7
100
AcDbLine
 10
-15.079602
 20
-15.723881
 30
0.0
 11
-15.079602
 21
-28.723881
 31
0.0
  0
LINE
  5
22D
330
36
100
AcDbEntity
  8
0
  6
CENTER
 62
     7
100
AcDbLine
 10
16.920399
 20
-15.723881
 30
0.0
 11
16.920399
 21
-28.223881
 31
0.0
  0
LINE
  5
22E
330
36
100
AcDbEntity
  8
0
  6
CENTER
 62
     7
100
AcDbLine
 10
-20.101604
 20
-24.723881
 30
0.0
 11
-9.899609599999999
 21
-24.723881
 31
0.0
  0
LINE
  5
22F
330
36
100
AcDbEntity
  8
0
  6
CENTER
 62
     7
100
AcDbLine
 10
21.942402
 20
-24.723881
 30
0.0
 11
11.740405
 21
-24.723881
 31
0.0
  0
LINE
  5
230
330
36
100
AcDbEntity
  8
0
  6
CENTER
 62
     7
100
AcDbLine
 10
-20.101604
 20
-20.723881
 30
0.0
 11
-9.899609599999999
 21
-20.723881
 31
0.0
  0
LINE
  5
231
330
36
100
AcDbEntity
  8
0
  6
CENTER
 62
     7
100
AcDbLine
 10
21.942402
 20
-20.723881
 30
0.0
 11
11.740405
 21
-20.723881
 31
0.0
  0
LINE
  5
232
330
36
100
AcDbEntity
  8
0
  6
Continuous
 62
     3
100
AcDbLine
 10
14.820392
 20
-20.723881
 30
0.0
 11
14.820392
 21
-24.723881
 31
0.0
  0
LINE
  5
233
330
36
100
AcDbEntity
  8
0
  6
Continuous
 62
     3
100
AcDbLine
 10
19.020405
 20
-20.723881
 30
0.0
 11
19.020405
 21
-24.723881
 31
0.0
  0
LINE
  5
234
330
36
100
AcDbEntity
  8
0
  6
Continuous
 62
     3
100
AcDbLine
 10
-17.179607
 20
-20.72188
 30
0.0
 11
-17.179607
 21
-24.723881
 31
0.0
  0
LINE
  5
235
330
36
100
AcDbEntity
  8
0
  6
Continuous
 62
     3
100
AcDbLine
 10
-12.979596
 20
-20.723881
 30
0.0
 11
-12.979596
 21
-24.723881
 31
0.0
  0
LINE
  5
236
330
36
100
AcDbEntity
  8
0
  6
Continuous
 62
     3
100
AcDbLine
 10
-62.07960100000001
 20
13.776117
 30
0.0
 11
-62.07960100000001
 21
3.7761195
 31
0.0
  0
LINE
  5
237
330
36
100
AcDbEntity
  8
0
  6
Continuous
 62
     3
100
AcDbLine
 10
-64.079605
 20
12.276117
 30
0.0
 11
-64.079605
 21
5.2761192
 31
0.0
  0
LINE
  5
238
330
36
100
AcDbEntity
  8
0
  6
Continuous
 62
     3
100
AcDbLine
 10
-60.079601
 20
14.776117
 30
0.0
 11
-48.079601
 21
14.776117
 31
0.0
  0
LINE
  5
239
330
36
100
AcDbEntity
  8
0
  6
Continuous
 62
     3
100
AcDbLine
 10
-60.079601
 20
3.7761195
 30
0.0
 11
-60.079601
 21
2.7761195
 31
0.0
  0
LINE
  5
23A
330
36
100
AcDbEntity
  8
0
  6
Continuous
 62
     3
100
AcDbLine
 10
-48.079601
 20
3.7761195
 30
0.0
 11
-48.079601
 21
2.7761195
 31
0.0
  0
LINE
  5
23B
330
36
100
AcDbEntity
  8
0
  6
Continuous
 62
     3
100
AcDbLine
 10
-29.079601
 20
2.7761195
 30
0.0
 11
-79.079605
 21
2.7761195
 31
0.0
  0
LINE
  5
23C
330
36
100
AcDbEntity
  8
0
  6
Continuous
 62
     3
100
AcDbLine
 10
-72.179611
 20
10.276117
 30
0.0
 11
-72.179611
 21
20.276117
 31
0.0
  0
LINE
  5
23D
330
36
100
AcDbEntity
  8
0
  6
Continuous
 62
     3
100
AcDbLine
 10
-67.97959899999999
 20
10.276117
 30
0.0
 11
-67.97959899999999
 21
20.276117
 31
0.0
  0
LINE
  5
23E
330
36
100
AcDbEntity
  8
0
  6
Continuous
 62
     3
100
AcDbLine
 10
-40.17960699999999
 20
13.776117
 30
0.0
 11
-40.17960699999999
 21
20.276117
 31
0.0
  0
LINE
  5
23F
330
36
100
AcDbEntity
  8
0
  6
Continuous
 62
     3
100
AcDbLine
 10
-35.979595
 20
13.776117
 30
0.0
 11
-35.979595
 21
20.276117
 31
0.0
  0
LINE
  5
240
330
36
100
AcDbEntity
  8
0
  6
CENTER
 62
     7
100
AcDbLine
 10
-54.079601
 20
-5.979877499999999
 30
0.0
 11
-54.079601
 21
21.561121
 31
0.0
  0
LINE
  5
241
330
36
100
AcDbEntity
  8
0
  6
CENTER
 62
     7
100
AcDbLine
 10
-38.07960100000001
 20
5.6921177
 30
0.0
 11
-38.07960100000001
 21
25.276117
 31
0.0
  0
LINE
  5
242
330
36
100
AcDbEntity
  8
0
  6
CENTER
 62
     7
100
AcDbLine
 10
-33.763592
 20
20.276117
 30
0.0
 11
-42.410595
 21
20.276117
 31
0.0
  0
LINE
  5
243
330
36
100
AcDbEntity
  8
0
  6
CENTER
 62
     7
100
AcDbLine
 10
-33.763592
 20
10.276117
 30
0.0
 11
-42.410595
 21
10.276117
 31
0.0
  0
LINE
  5
244
330
36
100
AcDbEntity
  8
0
  6
CENTER
 62
     7
100
AcDbLine
 10
-70.079605
 20
5.6921177
 30
0.0
 11
-70.079605
 21
25.276117
 31
0.0
  0
LINE
  5
245
330
36
100
AcDbEntity
  8
0
  6
CENTER
 62
     7
100
AcDbLine
 10
-65.76359599999999
 20
20.276117
 30
0.0
 11
-74.410599
 21
20.276117
 31
0.0
  0
LINE
  5
246
330
36
100
AcDbEntity
  8
0
  6
CENTER
 62
     7
100
AcDbLine
 10
-65.76359599999999
 20
10.276117
 30
0.0
 11
-74.410599
 21
10.276117
 31
0.0
  0
LINE
  5
247
330
36
100
AcDbEntity
  8
0
  6
CENTER
 62
     7
100
AcDbLine
 10
80.920395
 20
34.56211500000001
 30
0.0
 11
80.920395
 21
-19.962482
 31
0.0
  0
LINE
  5
248
330
36
100
AcDbEntity
  8
0
  6
Continuous
 62
     3
100
AcDbLine
 10
-62.57960500000001
 20
3.7761195
 30
0.0
 11
61.305912
 21
3.7761195
 31
0.0
  0
LINE
  5
249
330
36
100
AcDbEntity
  8
0
  6
Continuous
 62
     3
100
AcDbLine
 10
62.586399
 20
13.776117
 30
0.0
 11
-62.57960500000001
 21
13.776117
 31
0.0
  0
LINE
  5
24A
330
36
100
AcDbEntity
  8
0
  6
Continuous
 62
     3
100
AcDbLine
 10
138.92039
 20
13.776117
 30
0.0
 11
138.92039
 21
3.7761195
 31
0.0
  0
LINE
  5
24B
330
36
100
AcDbEntity
  8
0
  6
Continuous
 62
     3
100
AcDbLine
 10
140.92039
 20
5.2761192
 30
0.0
 11
140.92039
 21
12.276117
 31
0.0
  0
LINE
  5
24C
330
36
100
AcDbEntity
  8
0
  6
Continuous
 62
     3
100
AcDbLine
 10
105.92039
 20
2.7761195
 30
0.0
 11
155.92039
 21
2.7761195
 31
0.0
  0
LINE
  5
24D
330
36
100
AcDbEntity
  8
0
  6
Continuous
 62
     3
100
AcDbLine
 10
149.0204
 20
10.276117
 30
0.0
 11
149.0204
 21
20.276117
 31
0.0
  0
LINE
  5
24E
330
36
100
AcDbEntity
  8
0
  6
Continuous
 62
     3
100
AcDbLine
 10
144.8204
 20
10.276117
 30
0.0
 11
144.8204
 21
20.276117
 31
0.0
  0
LINE
  5
24F
330
36
100
AcDbEntity
  8
0
  6
Continuous
 62
     3
100
AcDbLine
 10
117.0204
 20
13.776117
 30
0.0
 11
117.0204
 21
20.276117
 31
0.0
  0
LINE
  5
250
330
36
100
AcDbEntity
  8
0
  6
Continuous
 62
     3
100
AcDbLine
 10
112.82039
 20
13.776117
 30
0.0
 11
112.82039
 21
20.276117
 31
0.0
  0
LINE
  5
251
330
36
100
AcDbEntity
  8
0
  6
Continuous
 62
     3
100
AcDbLine
 10
136.92039
 20
14.776117
 30
0.0
 11
124.92039
 21
14.776117
 31
0.0
  0
LINE
  5
252
330
36
100
AcDbEntity
  8
0
  6
Continuous
 62
     3
100
AcDbLine
 10
136.92039
 20
3.7761195
 30
0.0
 11
136.92039
 21
2.7761195
 31
0.0
  0
LINE
  5
253
330
36
100
AcDbEntity
  8
0
  6
Continuous
 62
     3
100
AcDbLine
 10
124.92039
 20
3.7761195
 30
0.0
 11
124.92039
 21
2.7761195
 31
0.0
  0
LINE
  5
254
330
36
100
AcDbEntity
  8
0
  6
CENTER
 62
     7
100
AcDbLine
 10
130.92039
 20
-5.979877499999999
 30
0.0
 11
130.92039
 21
21.561121
 31
0.0
  0
LINE
  5
255
330
36
100
AcDbEntity
  8
0
  6
CENTER
 62
     7
100
AcDbLine
 10
146.92039
 20
5.6921177
 30
0.0
 11
146.92039
 21
25.276117
 31
0.0
  0
LINE
  5
256
330
36
100
AcDbEntity
  8
0
  6
CENTER
 62
     7
100
AcDbLine
 10
151.23685
 20
20.276117
 30
0.0
 11
142.5891
 21
20.276117
 31
0.0
  0
LINE
  5
257
330
36
100
AcDbEntity
  8
0
  6
CENTER
 62
     7
100
AcDbLine
 10
151.23685
 20
10.276117
 30
0.0
 11
142.5891
 21
10.276117
 31
0.0
  0
LINE
  5
258
330
36
100
AcDbEntity
  8
0
  6
CENTER
 62
     7
100
AcDbLine
 10
114.92039
 20
5.6921177
 30
0.0
 11
114.92039
 21
25.276117
 31
0.0
  0
LINE
  5
259
330
36
100
AcDbEntity
  8
0
  6
CENTER
 62
     7
100
AcDbLine
 10
119.23689
 20
20.276117
 30
0.0
 11
110.5891
 21
20.276117
 31
0.0
  0
LINE
  5
25A
330
36
100
AcDbEntity
  8
0
  6
CENTER
 62
     7
100
AcDbLine
 10
119.23689
 20
10.276117
 30
0.0
 11
110.5891
 21
10.276117
 31
0.0
  0
LINE
  5
25B
330
36
100
AcDbEntity
  8
0
  6
Continuous
 62
     3
100
AcDbLine
 10
100.53487
 20
3.7761195
 30
0.0
 11
139.42039
 21
3.7761195
 31
0.0
  0
LINE
  5
25C
330
36
100
AcDbEntity
  8
0
  6
Continuous
 62
     3
100
AcDbLine
 10
139.42039
 20
13.776117
 30
0.0
 11
99.254379
 21
13.776117
 31
0.0
  0
LINE
  5
25D
330
36
100
AcDbEntity
  8
0
  6
CENTER
 62
     7
100
AcDbLine
 10
0.9203979999999999
 20
120.90812
 30
0.0
 11
0.9203979999999999
 21
82.91612200000001
 31
0.0
  0
LINE
  5
25E
330
36
100
AcDbEntity
  8
0
  6
Continuous
 62
     3
100
AcDbLine
 10
-62.07960100000001
 20
108.27612
 30
0.0
 11
-62.07960100000001
 21
89.27612299999999
 31
0.0
  0
LINE
  5
25F
330
36
100
AcDbEntity
  8
0
  6
Continuous
 62
     3
100
AcDbLine
 10
-64.079605
 20
107.27612
 30
0.0
 11
-64.079605
 21
90.27612299999999
 31
0.0
  0
LINE
  5
260
330
36
100
AcDbEntity
  8
0
  6
Continuous
 62
     3
100
AcDbLine
 10
-79.07958999999999
 20
108.27612
 30
0.0
 11
-64.07958999999999
 21
93.227112
 31
0.0
  0
LINE
  5
261
330
36
100
AcDbEntity
  8
0
  6
Continuous
 62
     3
100
AcDbLine
 10
-29.079601
 20
116.27612
 30
0.0
 11
-79.079605
 21
116.27612
 31
0.0
  0
LINE
  5
262
330
36
100
AcDbEntity
  8
0
  6
CENTER
 62
     7
100
AcDbLine
 10
-54.079601
 20
122.85111
 30
0.0
 11
-54.079601
 21
83.584122
 31
0.0
  0
LINE
  5
263
330
36
100
AcDbEntity
  8
0
  6
CENTER
 62
     7
100
AcDbLine
 10
80.920395
 20
121.39312
 30
0.0
 11
80.920395
 21
78.776123
 31
0.0
  0
LINE
  5
264
330
36
100
AcDbEntity
  8
0
  6
Continuous
 62
     3
100
AcDbLine
 10
138.92039
 20
108.27612
 30
0.0
 11
138.92039
 21
89.27612299999999
 31
0.0
  0
LINE
  5
265
330
36
100
AcDbEntity
  8
0
  6
Continuous
 62
     3
100
AcDbLine
 10
140.92039
 20
90.776123
 30
0.0
 11
140.92039
 21
106.77612
 31
0.0
  0
LINE
  5
266
330
36
100
AcDbEntity
  8
0
  6
Continuous
 62
     3
100
AcDbLine
 10
105.92039
 20
116.27612
 30
0.0
 11
155.92039
 21
116.27612
 31
0.0
  0
LINE
  5
267
330
36
100
AcDbEntity
  8
0
  6
Continuous
 62
     3
100
AcDbLine
 10
155.92039
 20
108.27612
 30
0.0
 11
140.92039
 21
93.227135
 31
0.0
  0
LINE
  5
268
330
36
100
AcDbEntity
  8
0
  6
CENTER
 62
     7
100
AcDbLine
 10
130.92039
 20
122.85111
 30
0.0
 11
130.92039
 21
83.584122
 31
0.0
  0
LINE
  5
269
330
36
100
AcDbEntity
  8
0
  6
CENTER
 62
     7
100
AcDbLine
 10
145.92039
 20
98.776123
 30
0.0
 11
-74.079605
 21
98.776123
 31
0.0
  0
LINE
  5
26A
330
36
100
AcDbEntity
  8
0
  6
CENTER
 62
     7
100
AcDbLine
 10
-137.07961
 20
34.461117
 30
0.0
 11
-137.07961
 21
-26.730579
 31
0.0
  0
LINE
  5
26B
330
36
100
AcDbEntity
  8
0
  6
PHANTOM
 62
     7
100
AcDbLine
 10
-177.07961
 20
-10.223881
 30
0.0
 11
-187.07961
 21
-10.223881
 31
0.0
  0
LINE
  5
26C
330
36
100
AcDbEntity
  8
0
  6
PHANTOM
 62
     7
100
AcDbLine
 10
-187.07961
 20
-10.223881
 30
0.0
 11
-187.07961
 21
-40.790585
 31
0.0
  0
LINE
  5
26D
330
36
100
AcDbEntity
  8
0
  6
PHANTOM
 62
     7
100
AcDbLine
 10
-165.07961
 20
-12.223881
 30
0.0
 11
-157.07961
 21
-12.223881
 31
0.0
  0
LINE
  5
26E
330
36
100
AcDbEntity
  8
0
  6
PHANTOM
 62
     7
100
AcDbLine
 10
-157.07961
 20
-12.223881
 30
0.0
 11
-157.07961
 21
-35.723881
 31
0.0
  0
LINE
  5
26F
330
36
100
AcDbEntity
  8
0
  6
PHANTOM
 62
     7
100
AcDbLine
 10
-183.07961
 20
-7.2238808
 30
0.0
 11
-183.07961
 21
-5.223880799999999
 31
0.0
  0
LINE
  5
270
330
36
100
AcDbEntity
  8
0
  6
PHANTOM
 62
     7
100
AcDbLine
 10
-183.07961
 20
-5.223880799999999
 30
0.0
 11
-185.07961
 21
-5.223880799999999
 31
0.0
  0
LINE
  5
271
330
36
100
AcDbEntity
  8
0
  6
PHANTOM
 62
     7
100
AcDbLine
 10
-185.07961
 20
-5.223880799999999
 30
0.0
 11
-185.07961
 21
-1.223880599999999
 31
0.0
  0
LINE
  5
272
330
36
100
AcDbEntity
  8
0
  6
PHANTOM
 62
     7
100
AcDbLine
 10
-159.07961
 20
-1.223880599999999
 30
0.0
 11
-159.07961
 21
-5.223880799999999
 31
0.0
  0
LINE
  5
273
330
36
100
AcDbEntity
  8
0
  6
PHANTOM
 62
     7
100
AcDbLine
 10
-159.07961
 20
-5.223880799999999
 30
0.0
 11
-161.07961
 21
-5.223880799999999
 31
0.0
  0
LINE
  5
274
330
36
100
AcDbEntity
  8
0
  6
PHANTOM
 62
     7
100
AcDbLine
 10
-161.07961
 20
-5.223880799999999
 30
0.0
 11
-161.07961
 21
-7.2238808
 31
0.0
  0
LINE
  5
275
330
36
100
AcDbEntity
  8
0
  6
PHANTOM
 62
     7
100
AcDbLine
 10
-177.07961
 20
-1.223880599999999
 30
0.0
 11
-177.07961
 21
-5.223880799999999
 31
0.0
  0
LINE
  5
276
330
36
100
AcDbEntity
  8
0
  6
PHANTOM
 62
     7
100
AcDbLine
 10
-177.07961
 20
-5.223880799999999
 30
0.0
 11
-179.07961
 21
-5.223880799999999
 31
0.0
  0
LINE
  5
277
330
36
100
AcDbEntity
  8
0
  6
PHANTOM
 62
     7
100
AcDbLine
 10
-179.07961
 20
-5.223880799999999
 30
0.0
 11
-179.07961
 21
-7.2238808
 31
0.0
  0
LINE
  5
278
330
36
100
AcDbEntity
  8
0
  6
PHANTOM
 62
     7
100
AcDbLine
 10
-179.07961
 20
-7.2238808
 30
0.0
 11
-175.07961
 21
-7.2238808
 31
0.0
  0
LINE
  5
279
330
36
100
AcDbEntity
  8
0
  6
PHANTOM
 62
     7
100
AcDbLine
 10
-175.07961
 20
-7.2238808
 30
0.0
 11
-175.07961
 21
-1.223880599999999
 31
0.0
  0
LINE
  5
27A
330
36
100
AcDbEntity
  8
0
  6
PHANTOM
 62
     7
100
AcDbLine
 10
-167.07961
 20
-1.223880599999999
 30
0.0
 11
-167.07961
 21
-5.223880799999999
 31
0.0
  0
LINE
  5
27B
330
36
100
AcDbEntity
  8
0
  6
PHANTOM
 62
     7
100
AcDbLine
 10
-167.07961
 20
-5.223880799999999
 30
0.0
 11
-165.07961
 21
-5.223880799999999
 31
0.0
  0
LINE
  5
27C
330
36
100
AcDbEntity
  8
0
  6
PHANTOM
 62
     7
100
AcDbLine
 10
-165.07961
 20
-5.223880799999999
 30
0.0
 11
-165.07961
 21
-7.2238808
 31
0.0
  0
LINE
  5
27D
330
36
100
AcDbEntity
  8
0
  6
PHANTOM
 62
     7
100
AcDbLine
 10
-165.07961
 20
-7.2238808
 30
0.0
 11
-169.07961
 21
-7.2238808
 31
0.0
  0
LINE
  5
27E
330
36
100
AcDbEntity
  8
0
  6
PHANTOM
 62
     7
100
AcDbLine
 10
-169.07961
 20
-7.2238808
 30
0.0
 11
-169.07961
 21
-1.223880599999999
 31
0.0
  0
LINE
  5
27F
330
36
100
AcDbEntity
  8
0
  6
PHANTOM
 62
     7
100
AcDbLine
 10
-201.07961
 20
-43.723881
 30
0.0
 11
-201.07961
 21
-59.723881
 31
0.0
  0
LINE
  5
280
330
36
100
AcDbEntity
  8
0
  6
PHANTOM
 62
     7
100
AcDbLine
 10
-201.07961
 20
-59.723881
 30
0.0
 11
-189.07961
 21
-59.723881
 31
0.0
  0
LINE
  5
281
330
36
100
AcDbEntity
  8
0
  6
PHANTOM
 62
     7
100
AcDbLine
 10
-189.07961
 20
-59.723881
 30
0.0
 11
-189.07961
 21
-57.723881
 31
0.0
  0
LINE
  5
282
330
36
100
AcDbEntity
  8
0
  6
PHANTOM
 62
     7
100
AcDbLine
 10
-189.07961
 20
-57.723881
 30
0.0
 11
-199.07961
 21
-57.723881
 31
0.0
  0
LINE
  5
283
330
36
100
AcDbEntity
  8
0
  6
PHANTOM
 62
     7
100
AcDbLine
 10
-199.07961
 20
-57.723881
 30
0.0
 11
-199.07961
 21
-45.723881
 31
0.0
  0
LINE
  5
284
330
36
100
AcDbEntity
  8
0
  6
PHANTOM
 62
     7
100
AcDbLine
 10
-199.0795699999999
 20
-45.72385399999999
 30
0.0
 11
-157.07962
 21
-37.72386599999999
 31
0.0
  0
LINE
  5
285
330
36
100
AcDbEntity
  8
0
  6
PHANTOM
 62
     7
100
AcDbLine
 10
-157.07961
 20
-37.723881
 30
0.0
 11
-157.07961
 21
-57.723881
 31
0.0
  0
LINE
  5
286
330
36
100
AcDbEntity
  8
0
  6
PHANTOM
 62
     7
100
AcDbLine
 10
-157.07961
 20
-57.723881
 30
0.0
 11
-165.07961
 21
-57.723881
 31
0.0
  0
LINE
  5
287
330
36
100
AcDbEntity
  8
0
  6
PHANTOM
 62
     7
100
AcDbLine
 10
-165.07961
 20
-57.723881
 30
0.0
 11
-165.07961
 21
-59.723881
 31
0.0
  0
LINE
  5
288
330
36
100
AcDbEntity
  8
0
  6
PHANTOM
 62
     7
100
AcDbLine
 10
-165.07961
 20
-59.723881
 30
0.0
 11
-155.07961
 21
-59.723881
 31
0.0
  0
LINE
  5
289
330
36
100
AcDbEntity
  8
0
  6
PHANTOM
 62
     7
100
AcDbLine
 10
-155.07961
 20
-59.723881
 30
0.0
 11
-155.07961
 21
-10.223881
 31
0.0
  0
LINE
  5
28A
330
36
100
AcDbEntity
  8
0
  6
PHANTOM
 62
     7
100
AcDbLine
 10
-155.07961
 20
-10.223881
 30
0.0
 11
-165.07961
 21
-10.223881
 31
0.0
  0
LINE
  5
28B
330
36
100
AcDbEntity
  8
0
  6
PHANTOM
 62
     7
100
AcDbLine
 10
-185.07961
 20
-40.523884
 30
0.0
 11
-185.07961
 21
-12.223881
 31
0.0
  0
LINE
  5
28C
330
36
100
AcDbEntity
  8
0
  6
PHANTOM
 62
     7
100
AcDbLine
 10
-185.07961
 20
-12.223881
 30
0.0
 11
-177.07961
 21
-12.223881
 31
0.0
  0
LINE
  5
28D
330
36
100
AcDbEntity
  8
0
  6
Continuous
 62
     3
100
AcDbLine
 10
-24.079601
 20
-28.723881
 30
0.0
 11
25.920399
 21
-28.723881
 31
0.0
  0
LINE
  5
28E
330
36
100
AcDbEntity
  8
0
  6
Continuous
 62
     3
100
AcDbLine
 10
25.920399
 20
-28.723881
 30
0.0
 11
25.920399
 21
-13.723881
 31
0.0
  0
LINE
  5
28F
330
36
100
AcDbEntity
  8
0
  6
Continuous
 62
     3
100
AcDbLine
 10
25.920399
 20
-13.723881
 30
0.0
 11
-24.079601
 21
-13.723881
 31
0.0
  0
LINE
  5
290
330
36
100
AcDbEntity
  8
0
  6
Continuous
 62
     3
100
AcDbLine
 10
-24.079601
 20
-13.723881
 30
0.0
 11
-24.079601
 21
-28.723881
 31
0.0
  0
LINE
  5
291
330
36
100
AcDbEntity
  8
0
  6
Continuous
 62
     3
100
AcDbLine
 10
-48.079601
 20
13.776117
 30
0.0
 11
-48.079601
 21
15.776117
 31
0.0
  0
LINE
  5
292
330
36
100
AcDbEntity
  8
0
  6
Continuous
 62
     3
100
AcDbLine
 10
-49.079601
 20
16.776117
 30
0.0
 11
-59.079601
 21
16.776117
 31
0.0
  0
LINE
  5
293
330
36
100
AcDbEntity
  8
0
  6
Continuous
 62
     3
100
AcDbLine
 10
-48.079601
 20
15.776117
 30
0.0
 11
-60.079601
 21
15.776117
 31
0.0
  0
LINE
  5
294
330
36
100
AcDbEntity
  8
0
  6
Continuous
 62
     3
100
AcDbLine
 10
-60.079601
 20
15.776125
 30
0.0
 11
-60.079601
 21
13.776117
 31
0.0
  0
LINE
  5
295
330
36
100
AcDbEntity
  8
0
  6
Continuous
 62
     3
100
AcDbLine
 10
-79.079605
 20
25.276117
 30
0.0
 11
-29.079601
 21
25.276117
 31
0.0
  0
LINE
  5
296
330
36
100
AcDbEntity
  8
0
  6
Continuous
 62
     3
100
AcDbLine
 10
-29.079601
 20
25.276117
 30
0.0
 11
-29.079601
 21
13.776117
 31
0.0
  0
LINE
  5
297
330
36
100
AcDbEntity
  8
0
  6
Continuous
 62
     3
100
AcDbLine
 10
-29.079601
 20
0.27611941
 30
0.0
 11
-79.079605
 21
0.27611941
 31
0.0
  0
LINE
  5
298
330
36
100
AcDbEntity
  8
0
  6
Continuous
 62
     3
100
AcDbLine
 10
-79.079605
 20
0.27611941
 30
0.0
 11
-79.079605
 21
25.276117
 31
0.0
  0
LINE
  5
299
330
36
100
AcDbEntity
  8
0
  6
Continuous
 62
     3
100
AcDbLine
 10
124.92039
 20
13.776117
 30
0.0
 11
124.92039
 21
15.776117
 31
0.0
  0
LINE
  5
29A
330
36
100
AcDbEntity
  8
0
  6
Continuous
 62
     3
100
AcDbLine
 10
124.92039
 20
15.776117
 30
0.0
 11
136.92039
 21
15.776117
 31
0.0
  0
LINE
  5
29B
330
36
100
AcDbEntity
  8
0
  6
Continuous
 62
     3
100
AcDbLine
 10
125.92039
 20
16.776117
 30
0.0
 11
135.92039
 21
16.776117
 31
0.0
  0
LINE
  5
29C
330
36
100
AcDbEntity
  8
0
  6
Continuous
 62
     3
100
AcDbLine
 10
136.92039
 20
15.776117
 30
0.0
 11
136.92039
 21
13.776117
 31
0.0
  0
LINE
  5
29D
330
36
100
AcDbEntity
  8
0
  6
Continuous
 62
     3
100
AcDbLine
 10
105.92039
 20
3.7761195
 30
0.0
 11
105.92039
 21
0.27611941
 31
0.0
  0
LINE
  5
29E
330
36
100
AcDbEntity
  8
0
  6
Continuous
 62
     3
100
AcDbLine
 10
105.92039
 20
0.27611941
 30
0.0
 11
155.92039
 21
0.27611941
 31
0.0
  0
LINE
  5
29F
330
36
100
AcDbEntity
  8
0
  6
Continuous
 62
     3
100
AcDbLine
 10
155.92039
 20
0.27611941
 30
0.0
 11
155.92039
 21
25.276117
 31
0.0
  0
LINE
  5
2A0
330
36
100
AcDbEntity
  8
0
  6
Continuous
 62
     3
100
AcDbLine
 10
155.92039
 20
25.276117
 30
0.0
 11
105.92039
 21
25.276117
 31
0.0
  0
LINE
  5
2A1
330
36
100
AcDbEntity
  8
0
  6
Continuous
 62
     3
100
AcDbLine
 10
105.92039
 20
25.276117
 30
0.0
 11
105.92039
 21
13.776117
 31
0.0
  0
LINE
  5
2A2
330
36
100
AcDbEntity
  8
0
  6
Continuous
 62
     3
100
AcDbLine
 10
25.920399
 20
108.27612
 30
0.0
 11
25.920399
 21
116.77612
 31
0.0
  0
LINE
  5
2A3
330
36
100
AcDbEntity
  8
0
  6
Continuous
 62
     3
100
AcDbLine
 10
25.920399
 20
116.77612
 30
0.0
 11
-24.079601
 21
116.77612
 31
0.0
  0
LINE
  5
2A4
330
36
100
AcDbEntity
  8
0
  6
Continuous
 62
     3
100
AcDbLine
 10
-24.079601
 20
116.77612
 30
0.0
 11
-24.079601
 21
108.27612
 31
0.0
  0
LINE
  5
2A5
330
36
100
AcDbEntity
  8
0
  6
Continuous
 62
     3
100
AcDbLine
 10
-29.079601
 20
108.27612
 30
0.0
 11
-29.079601
 21
118.77612
 31
0.0
  0
LINE
  5
2A6
330
36
100
AcDbEntity
  8
0
  6
Continuous
 62
     3
100
AcDbLine
 10
-29.079601
 20
118.77612
 30
0.0
 11
-79.079605
 21
118.77612
 31
0.0
  0
LINE
  5
2A7
330
36
100
AcDbEntity
  8
0
  6
Continuous
 62
     3
100
AcDbLine
 10
-79.079605
 20
118.77612
 30
0.0
 11
-79.079605
 21
108.27612
 31
0.0
  0
LINE
  5
2A8
330
36
100
AcDbEntity
  8
0
  6
Continuous
 62
     3
100
AcDbLine
 10
-63.079601
 20
89.27612299999999
 30
0.0
 11
62.611176
 21
89.27612299999999
 31
0.0
  0
LINE
  5
2A9
330
36
100
AcDbEntity
  8
0
  6
Continuous
 62
     3
100
AcDbLine
 10
62.611176
 20
108.27612
 30
0.0
 11
-63.079601
 21
108.27612
 31
0.0
  0
LINE
  5
2AA
330
36
100
AcDbEntity
  8
0
  6
Continuous
 62
     3
100
AcDbLine
 10
105.92039
 20
108.27612
 30
0.0
 11
105.92039
 21
118.77612
 31
0.0
  0
LINE
  5
2AB
330
36
100
AcDbEntity
  8
0
  6
Continuous
 62
     3
100
AcDbLine
 10
105.92039
 20
118.77612
 30
0.0
 11
155.92039
 21
118.77612
 31
0.0
  0
LINE
  5
2AC
330
36
100
AcDbEntity
  8
0
  6
Continuous
 62
     3
100
AcDbLine
 10
155.92039
 20
118.77612
 30
0.0
 11
155.92039
 21
108.27612
 31
0.0
  0
LINE
  5
2AD
330
36
100
AcDbEntity
  8
0
  6
Continuous
 62
     3
100
AcDbLine
 10
139.42039
 20
108.27612
 30
0.0
 11
99.229614
 21
108.27612
 31
0.0
  0
LINE
  5
2AE
330
36
100
AcDbEntity
  8
0
  6
Continuous
 62
     3
100
AcDbLine
 10
99.229614
 20
89.27612299999999
 30
0.0
 11
139.42039
 21
89.27612299999999
 31
0.0
  0
LINE
  5
2AF
330
36
100
AcDbEntity
  8
0
  6
PHANTOM
 62
     7
100
AcDbLine
 10
-159.07961
 20
27.776117
 30
0.0
 11
-185.07961
 21
27.776117
 31
0.0
  0
LINE
  5
2B0
330
36
100
AcDbEntity
  8
0
  6
PHANTOM
 62
     7
100
AcDbLine
 10
-185.07961
 20
27.776117
 30
0.0
 11
-185.07961
 21
0.7761194099999999
 31
0.0
  0
LINE
  5
2B1
330
36
100
AcDbEntity
  8
0
  6
PHANTOM
 62
     7
100
AcDbLine
 10
-185.07961
 20
0.7761194099999999
 30
0.0
 11
-159.07961
 21
0.7761194099999999
 31
0.0
  0
LINE
  5
2B2
330
36
100
AcDbEntity
  8
0
  6
PHANTOM
 62
     7
100
AcDbLine
 10
-159.07961
 20
0.7761194099999999
 30
0.0
 11
-159.07961
 21
27.776117
 31
0.0
  0
LINE
  5
2B3
330
36
100
AcDbEntity
  8
0
  6
PHANTOM
 62
     7
100
AcDbLine
 10
-161.07961
 20
-7.2238808
 30
0.0
 11
-157.07961
 21
-7.2238808
 31
0.0
  0
LINE
  5
2B4
330
36
100
AcDbEntity
  8
0
  6
PHANTOM
 62
     7
100
AcDbLine
 10
-157.07961
 20
-7.2238808
 30
0.0
 11
-157.07961
 21
19.776117
 31
0.0
  0
LINE
  5
2B5
330
36
100
AcDbEntity
  8
0
  6
PHANTOM
 62
     7
100
AcDbLine
 10
-157.07961
 20
19.776117
 30
0.0
 11
-157.07961
 21
40.276123
 31
0.0
  0
LINE
  5
2B6
330
36
100
AcDbEntity
  8
0
  6
PHANTOM
 62
     7
100
AcDbLine
 10
-157.07961
 20
40.276123
 30
0.0
 11
-167.07961
 21
40.276123
 31
0.0
  0
LINE
  5
2B7
330
36
100
AcDbEntity
  8
0
  6
PHANTOM
 62
     7
100
AcDbLine
 10
-167.07961
 20
40.276123
 30
0.0
 11
-167.07961
 21
38.276123
 31
0.0
  0
LINE
  5
2B8
330
36
100
AcDbEntity
  8
0
  6
PHANTOM
 62
     7
100
AcDbLine
 10
-167.07961
 20
38.276123
 30
0.0
 11
-159.07961
 21
38.276123
 31
0.0
  0
LINE
  5
2B9
330
36
100
AcDbEntity
  8
0
  6
PHANTOM
 62
     7
100
AcDbLine
 10
-159.07961
 20
38.276123
 30
0.0
 11
-159.07961
 21
29.776117
 31
0.0
  0
LINE
  5
2BA
330
36
100
AcDbEntity
  8
0
  6
PHANTOM
 62
     7
100
AcDbLine
 10
-159.07961
 20
29.776117
 30
0.0
 11
-185.07961
 21
29.776117
 31
0.0
  0
LINE
  5
2BB
330
36
100
AcDbEntity
  8
0
  6
PHANTOM
 62
     7
100
AcDbLine
 10
-185.07961
 20
29.776117
 30
0.0
 11
-185.07961
 21
38.276123
 31
0.0
  0
LINE
  5
2BC
330
36
100
AcDbEntity
  8
0
  6
PHANTOM
 62
     7
100
AcDbLine
 10
-185.07961
 20
38.276123
 30
0.0
 11
-177.07961
 21
38.276123
 31
0.0
  0
LINE
  5
2BD
330
36
100
AcDbEntity
  8
0
  6
PHANTOM
 62
     7
100
AcDbLine
 10
-177.07961
 20
38.276123
 30
0.0
 11
-177.07961
 21
40.276123
 31
0.0
  0
LINE
  5
2BE
330
36
100
AcDbEntity
  8
0
  6
PHANTOM
 62
     7
100
AcDbLine
 10
-177.07961
 20
40.276123
 30
0.0
 11
-187.07961
 21
40.276123
 31
0.0
  0
LINE
  5
2BF
330
36
100
AcDbEntity
  8
0
  6
PHANTOM
 62
     7
100
AcDbLine
 10
-187.07961
 20
40.276123
 30
0.0
 11
-187.07961
 21
-7.2238808
 31
0.0
  0
LINE
  5
2C0
330
36
100
AcDbEntity
  8
0
  6
PHANTOM
 62
     7
100
AcDbLine
 10
-187.07961
 20
-7.2238808
 30
0.0
 11
-183.07961
 21
-7.2238808
 31
0.0
  0
LINE
  5
2C1
330
36
100
AcDbEntity
  8
0
  6
Continuous
 62
     3
100
AcDbLine
 10
-155.07961
 20
-16.223881
 30
0.0
 11
-155.07961
 21
-28.723881
 31
0.0
  0
LINE
  5
2C2
330
36
100
AcDbEntity
  8
0
  6
Continuous
 62
     3
100
AcDbLine
 10
-155.07961
 20
-28.723881
 30
0.0
 11
-152.57961
 21
-28.723881
 31
0.0
  0
LINE
  5
2C3
330
36
100
AcDbEntity
  8
0
  6
Continuous
 62
     3
100
AcDbLine
 10
-152.57961
 20
-28.723881
 30
0.0
 11
-152.57961
 21
-16.223881
 31
0.0
  0
LINE
  5
2C4
330
36
100
AcDbEntity
  8
0
  6
Continuous
 62
     3
100
AcDbLine
 10
-152.57961
 20
-16.223881
 30
0.0
 11
-124.07961
 21
-16.223881
 31
0.0
  0
LINE
  5
2C5
330
36
100
AcDbEntity
  8
0
  6
Continuous
 62
     3
100
AcDbLine
 10
-124.07961
 20
-16.223881
 30
0.0
 11
-124.07961
 21
-13.723881
 31
0.0
  0
LINE
  5
2C6
330
36
100
AcDbEntity
  8
0
  6
Continuous
 62
     3
100
AcDbLine
 10
-124.07961
 20
-13.723881
 30
0.0
 11
-152.57961
 21
-13.723881
 31
0.0
  0
LINE
  5
2C7
330
36
100
AcDbEntity
  8
0
  6
Continuous
 62
     3
100
AcDbLine
 10
-157.07961
 20
2.7761357
 30
0.0
 11
-157.07961
 21
25.276117
 31
0.0
  0
LINE
  5
2C8
330
36
100
AcDbEntity
  8
0
  6
Continuous
 62
     3
100
AcDbLine
 10
-157.07961
 20
25.276117
 30
0.0
 11
-154.57961
 21
25.276117
 31
0.0
  0
LINE
  5
2C9
330
36
100
AcDbEntity
  8
0
  6
Continuous
 62
     3
100
AcDbLine
 10
-154.57961
 20
25.276117
 30
0.0
 11
-154.57961
 21
2.7761357
 31
0.0
  0
LINE
  5
2CA
330
36
100
AcDbEntity
  8
0
  6
Continuous
 62
     3
100
AcDbLine
 10
90.920395
 20
-8.723880799999999
 30
0.0
 11
-9.0796022
 21
-8.723880799999999
 31
0.0
  0
LINE
  5
2CB
330
36
100
AcDbEntity
  8
0
  6
Continuous
 62
     3
100
AcDbLine
 10
135.92041
 20
16.776117
 30
0.0
 11
136.92041
 21
15.776117
 31
0.0
  0
LINE
  5
2CC
330
36
100
AcDbEntity
  8
0
  6
Continuous
 62
     3
100
AcDbLine
 10
-49.07957800000001
 20
16.776123
 30
0.0
 11
-48.079578
 21
15.776121
 31
0.0
  0
LINE
  5
2CD
330
36
100
AcDbEntity
  8
0
  6
Continuous
 62
     3
100
AcDbLine
 10
-59.07955600000001
 20
16.776091
 30
0.0
 11
-60.07955899999999
 21
15.776094
 31
0.0
  0
LINE
  5
2CE
330
36
100
AcDbEntity
  8
0
  6
Continuous
 62
     3
100
AcDbLine
 10
125.92039
 20
16.776117
 30
0.0
 11
124.92039
 21
15.776117
 31
0.0
  0
LINE
  5
2CF
330
36
100
AcDbEntity
  8
0
  6
Continuous
 62
     3
100
AcDbLine
 10
-29.079601
 20
3.7761195
 30
0.0
 11
-29.079601
 21
0.27611941
 31
0.0
  0
LINE
  5
2D0
330
36
100
AcDbEntity
  8
0
  6
Continuous
 62
     7
100
AcDbLine
 10
-9.0796022
 20
-12.723881
 30
0.0
 11
90.920395
 21
-12.723881
 31
0.0
  0
LINE
  5
2D1
330
36
100
AcDbEntity
  8
0
  6
Continuous
 62
     7
100
AcDbLine
 10
-191.0
 20
149.0
 30
0.0
 11
-86.0
 21
149.0
 31
0.0
  0
LINE
  5
2D2
330
36
100
AcDbEntity
  8
0
  6
Continuous
 62
     7
100
AcDbLine
 10
-127.07961
 20
-12.723867
 30
0.0
 11
-147.07961
 21
-12.723867
 31
0.0
  0
LINE
  5
2D3
330
36
100
AcDbEntity
  8
0
  6
Continuous
 62
     7
100
AcDbLine
 10
101.00188
 20
89.27612299999999
 30
0.0
 11
101.00188
 21
87.276123
 31
0.0
  0
LINE
  5
2D4
330
36
100
AcDbEntity
  8
0
  6
Continuous
 62
     7
100
AcDbLine
 10
60.838913
 20
89.27612299999999
 30
0.0
 11
60.838913
 21
87.276123
 31
0.0
  0
LINE
  5
2D5
330
36
100
AcDbEntity
  8
0
  6
Continuous
 62
     7
100
AcDbLine
 10
100.92039
 20
87.00253299999999
 30
0.0
 11
100.92039
 21
85.47611999999999
 31
0.0
  0
LINE
  5
2D6
330
36
100
AcDbEntity
  8
0
  6
Continuous
 62
     7
100
AcDbLine
 10
101.00188
 20
110.27612
 30
0.0
 11
99.39758300000001
 21
110.27612
 31
0.0
  0
LINE
  5
2D7
330
36
100
AcDbEntity
  8
0
  6
Continuous
 62
     7
100
AcDbLine
 10
100.50188
 20
110.77612
 30
0.0
 11
98.63975500000002
 21
110.77612
 31
0.0
  0
LINE
  5
2D8
330
36
100
AcDbEntity
  8
0
  6
Continuous
 62
     7
100
AcDbLine
 10
99.229614
 20
108.02612
 30
0.0
 11
99.229614
 21
89.526123
 31
0.0
  0
LINE
  5
2D9
330
36
100
AcDbEntity
  8
0
  6
Continuous
 62
     7
100
AcDbLine
 10
100.42047
 20
89.02612299999999
 30
0.0
 11
99.357666
 21
89.02612299999999
 31
0.0
  0
LINE
  5
2DA
330
36
100
AcDbEntity
  8
0
  6
Continuous
 62
     7
100
AcDbLine
 10
100.42047
 20
108.52612
 30
0.0
 11
99.357666
 21
108.52612
 31
0.0
  0
LINE
  5
2DB
330
36
100
AcDbEntity
  8
0
  6
Continuous
 62
     7
100
AcDbLine
 10
98.33813499999999
 20
110.27612
 30
0.0
 11
98.33813499999999
 21
87.276123
 31
0.0
  0
LINE
  5
2DC
330
36
100
AcDbEntity
  8
0
  6
Continuous
 62
     7
100
AcDbLine
 10
101.00188
 20
87.276123
 30
0.0
 11
99.39758300000001
 21
87.276123
 31
0.0
  0
LINE
  5
2DD
330
36
100
AcDbEntity
  8
0
  6
Continuous
 62
     7
100
AcDbLine
 10
98.897583
 20
109.77612
 30
0.0
 11
98.897583
 21
87.77612299999999
 31
0.0
  0
LINE
  5
2DE
330
36
100
AcDbEntity
  8
0
  6
Continuous
 62
     7
100
AcDbLine
 10
98.13975500000001
 20
110.27612
 30
0.0
 11
98.13975500000001
 21
87.276123
 31
0.0
  0
LINE
  5
2DF
330
36
100
AcDbEntity
  8
0
  6
Continuous
 62
     7
100
AcDbLine
 10
100.92039
 20
112.07611
 30
0.0
 11
100.92039
 21
110.54971
 31
0.0
  0
LINE
  5
2E0
330
36
100
AcDbEntity
  8
0
  6
Continuous
 62
     7
100
AcDbLine
 10
100.50188
 20
86.77612299999999
 30
0.0
 11
98.63975500000002
 21
86.77612299999999
 31
0.0
  0
LINE
  5
2E1
330
36
100
AcDbEntity
  8
0
  6
Continuous
 62
     7
100
AcDbLine
 10
101.00188
 20
110.27612
 30
0.0
 11
101.00188
 21
108.27612
 31
0.0
  0
LINE
  5
2E2
330
36
100
AcDbEntity
  8
0
  6
Continuous
 62
     7
100
AcDbLine
 10
60.92039499999999
 20
87.00253299999999
 30
0.0
 11
60.92039499999999
 21
85.47611999999999
 31
0.0
  0
LINE
  5
2E3
330
36
100
AcDbEntity
  8
0
  6
Continuous
 62
     7
100
AcDbLine
 10
60.838913
 20
110.27612
 30
0.0
 11
62.44320699999999
 21
110.27612
 31
0.0
  0
LINE
  5
2E4
330
36
100
AcDbEntity
  8
0
  6
Continuous
 62
     7
100
AcDbLine
 10
61.338913
 20
110.77612
 30
0.0
 11
63.201035
 21
110.77612
 31
0.0
  0
LINE
  5
2E5
330
36
100
AcDbEntity
  8
0
  6
Continuous
 62
     7
100
AcDbLine
 10
61.42031899999999
 20
89.02612299999999
 30
0.0
 11
62.48312399999999
 21
89.02612299999999
 31
0.0
  0
LINE
  5
2E6
330
36
100
AcDbEntity
  8
0
  6
Continuous
 62
     7
100
AcDbLine
 10
61.42031899999999
 20
108.52612
 30
0.0
 11
62.48312399999999
 21
108.52612
 31
0.0
  0
LINE
  5
2E7
330
36
100
AcDbEntity
  8
0
  6
Continuous
 62
     7
100
AcDbLine
 10
62.611176
 20
108.02612
 30
0.0
 11
62.611176
 21
89.526123
 31
0.0
  0
LINE
  5
2E8
330
36
100
AcDbEntity
  8
0
  6
Continuous
 62
     7
100
AcDbLine
 10
60.838913
 20
87.276123
 30
0.0
 11
62.44320699999999
 21
87.276123
 31
0.0
  0
LINE
  5
2E9
330
36
100
AcDbEntity
  8
0
  6
Continuous
 62
     7
100
AcDbLine
 10
63.502655
 20
110.27612
 30
0.0
 11
63.502655
 21
87.276123
 31
0.0
  0
LINE
  5
2EA
330
36
100
AcDbEntity
  8
0
  6
Continuous
 62
     7
100
AcDbLine
 10
62.943207
 20
109.77612
 30
0.0
 11
62.943207
 21
87.77612299999999
 31
0.0
  0
LINE
  5
2EB
330
36
100
AcDbEntity
  8
0
  6
Continuous
 62
     7
100
AcDbLine
 10
63.70103499999999
 20
110.27612
 30
0.0
 11
63.70103499999999
 21
87.276123
 31
0.0
  0
LINE
  5
2EC
330
36
100
AcDbEntity
  8
0
  6
Continuous
 62
     7
100
AcDbLine
 10
60.838913
 20
110.27612
 30
0.0
 11
60.838913
 21
108.27612
 31
0.0
  0
LINE
  5
2ED
330
36
100
AcDbEntity
  8
0
  6
Continuous
 62
     7
100
AcDbLine
 10
61.338913
 20
86.77612299999999
 30
0.0
 11
63.201035
 21
86.77612299999999
 31
0.0
  0
LINE
  5
2EE
330
36
100
AcDbEntity
  8
0
  6
Continuous
 62
     7
100
AcDbLine
 10
97.670395
 20
111.07611
 30
0.0
 11
97.670395
 21
86.47612
 31
0.0
  0
LINE
  5
2EF
330
36
100
AcDbEntity
  8
0
  6
Continuous
 62
     7
100
AcDbLine
 10
64.170395
 20
111.07611
 30
0.0
 11
64.170395
 21
86.47612
 31
0.0
  0
LINE
  5
2F0
330
36
100
AcDbEntity
  8
0
  6
Continuous
 62
     7
100
AcDbLine
 10
60.92039499999999
 20
112.07611
 30
0.0
 11
60.92039499999999
 21
110.54971
 31
0.0
  0
LINE
  5
2F1
330
36
100
AcDbEntity
  8
0
  6
Continuous
 62
     7
100
AcDbLine
 10
64.87039200000001
 20
111.77612
 30
0.0
 11
96.970398
 21
111.77612
 31
0.0
  0
LINE
  5
2F2
330
36
100
AcDbEntity
  8
0
  6
Continuous
 62
     7
100
AcDbLine
 10
64.87039200000001
 20
85.776123
 30
0.0
 11
96.970398
 21
85.776123
 31
0.0
  0
LINE
  5
2F3
330
36
100
AcDbEntity
  8
0
  6
Continuous
 62
     7
100
AcDbLine
 10
61.620392
 20
112.77612
 30
0.0
 11
100.2204
 21
112.77612
 31
0.0
  0
LINE
  5
2F4
330
36
100
AcDbEntity
  8
0
  6
Continuous
 62
     7
100
AcDbLine
 10
61.620392
 20
84.776123
 30
0.0
 11
100.2204
 21
84.776123
 31
0.0
  0
LINE
  5
2F5
330
36
100
AcDbEntity
  8
0
  6
Continuous
 62
     7
100
AcDbLine
 10
-151.07959
 20
-6.223866899999999
 30
0.0
 11
-150.84062
 21
0.27613553
 31
0.0
  0
LINE
  5
2F6
330
36
100
AcDbEntity
  8
0
  6
Continuous
 62
     7
100
AcDbLine
 10
-143.07961
 20
13.926126
 30
0.0
 11
-145.82961
 21
13.926126
 31
0.0
  0
LINE
  5
2F7
330
36
100
AcDbEntity
  8
0
  6
Continuous
 62
     7
100
AcDbLine
 10
-142.33662
 20
16.519083
 30
0.0
 11
-147.57961
 21
16.519083
 31
0.0
  0
LINE
  5
2F8
330
36
100
AcDbEntity
  8
0
  6
Continuous
 62
     7
100
AcDbLine
 10
-143.07961
 20
3.6261387
 30
0.0
 11
-145.82961
 21
3.6261387
 31
0.0
  0
LINE
  5
2F9
330
36
100
AcDbEntity
  8
0
  6
Continuous
 62
     7
100
AcDbLine
 10
87.22038299999999
 20
28.726116
 30
0.0
 11
74.62039200000001
 21
28.726116
 31
0.0
  0
LINE
  5
2FA
330
36
100
AcDbEntity
  8
0
  6
Continuous
 62
     7
100
AcDbLine
 10
-131.86717
 20
-0.4738674200000001
 30
0.0
 11
-126.57961
 21
-0.4738674200000001
 31
0.0
  0
LINE
  5
2FB
330
36
100
AcDbEntity
  8
0
  6
Continuous
 62
     7
100
AcDbLine
 10
87.92039499999999
 20
28.026119
 30
0.0
 11
87.92039499999999
 21
22.976116
 31
0.0
  0
LINE
  5
2FC
330
36
100
AcDbEntity
  8
0
  6
Continuous
 62
     7
100
AcDbLine
 10
73.920395
 20
28.026104
 30
0.0
 11
73.920395
 21
22.976116
 31
0.0
  0
LINE
  5
2FD
330
36
100
AcDbEntity
  8
0
  6
Continuous
 62
     7
100
AcDbLine
 10
-147.57961
 20
-0.4738674200000001
 30
0.0
 11
-142.29204
 21
-0.4738674200000001
 31
0.0
  0
LINE
  5
2FE
330
36
100
AcDbEntity
  8
0
  6
Continuous
 62
     7
100
AcDbLine
 10
-141.85898
 20
0.27613258
 30
0.0
 11
-142.29201
 21
-0.47388935
 31
0.0
  0
LINE
  5
2FF
330
36
100
AcDbEntity
  8
0
  6
Continuous
 62
     7
100
AcDbLine
 10
-131.86716
 20
-0.47388175
 30
0.0
 11
-132.30017
 21
0.27613357
 31
0.0
  0
LINE
  5
300
330
36
100
AcDbEntity
  8
0
  6
Continuous
 62
     7
100
AcDbLine
 10
100.58141
 20
-0.52386987
 30
0.0
 11
98.35009000000001
 21
16.901539
 31
0.0
  0
LINE
  5
301
330
36
100
AcDbEntity
  8
0
  6
Continuous
 62
     7
100
AcDbLine
 10
61.25938000000001
 20
-0.52389526
 30
0.0
 11
63.490692
 21
16.90149899999999
 31
0.0
  0
LINE
  5
302
330
36
100
AcDbEntity
  8
0
  6
Continuous
 62
     7
100
AcDbLine
 10
-5.0796022
 20
-12.723881
 30
0.0
 11
-5.0796022
 21
-13.723881
 31
0.0
  0
LINE
  5
303
330
36
100
AcDbEntity
  8
0
  6
Continuous
 62
     7
100
AcDbLine
 10
6.920397799999999
 20
-12.723881
 30
0.0
 11
6.920397799999999
 21
-13.723881
 31
0.0
  0
LINE
  5
304
330
36
100
AcDbEntity
  8
0
  6
Continuous
 62
     7
100
AcDbLine
 10
-9.0796022
 20
-8.723880799999999
 30
0.0
 11
-9.0796022
 21
-12.723881
 31
0.0
  0
LINE
  5
305
330
36
100
AcDbEntity
  8
0
  6
Continuous
 62
     7
100
AcDbLine
 10
90.920395
 20
-8.723880799999999
 30
0.0
 11
90.920395
 21
-12.723881
 31
0.0
  0
LINE
  5
306
330
36
100
AcDbEntity
  8
0
  6
Continuous
 62
     7
100
AcDbLine
 10
73.420395
 20
-12.723881
 30
0.0
 11
73.420395
 21
-14.723881
 31
0.0
  0
LINE
  5
307
330
36
100
AcDbEntity
  8
0
  6
Continuous
 62
     7
100
AcDbLine
 10
88.420395
 20
-12.723881
 30
0.0
 11
88.420395
 21
-14.723881
 31
0.0
  0
LINE
  5
308
330
36
100
AcDbEntity
  8
0
  6
Continuous
 62
     7
100
AcDbLine
 10
73.420395
 20
-14.723881
 30
0.0
 11
88.420395
 21
-14.723881
 31
0.0
  0
LINE
  5
309
330
36
100
AcDbEntity
  8
0
  6
Continuous
 62
     7
100
AcDbLine
 10
-154.57961
 20
0.27613562
 30
0.0
 11
-126.07961
 21
0.27613562
 31
0.0
  0
LINE
  5
30A
330
36
100
AcDbEntity
  8
0
  6
Continuous
 62
     7
100
AcDbLine
 10
-3.7127595
 20
88.776062
 30
0.0
 11
60.838913
 21
88.776062
 31
0.0
  0
LINE
  5
30B
330
36
100
AcDbEntity
  8
0
  6
Continuous
 62
     7
100
AcDbLine
 10
-3.712828599999999
 20
108.7761399999999
 30
0.0
 11
60.838913
 21
108.7761399999999
 31
0.0
  0
LINE
  5
30C
330
36
100
AcDbEntity
  8
0
  6
Continuous
 62
     7
100
AcDbLine
 10
-127.07961
 20
-8.723867399999999
 30
0.0
 11
-147.07961
 21
-8.723867399999999
 31
0.0
  0
LINE
  5
30D
330
36
100
AcDbEntity
  8
0
  6
Continuous
 62
     7
100
AcDbLine
 10
-127.07961
 20
-8.723867399999999
 30
0.0
 11
-127.07961
 21
-12.723867
 31
0.0
  0
LINE
  5
30E
330
36
100
AcDbEntity
  8
0
  6
CENTER
 62
     7
100
AcDbLine
 10
-122.07961
 20
8.7761326
 30
0.0
 11
-152.07961
 21
8.7761326
 31
0.0
  0
LINE
  5
30F
330
36
100
AcDbEntity
  8
0
  6
Continuous
 62
     7
100
AcDbLine
 10
-129.07961
 20
3.776132599999999
 30
0.0
 11
-145.07961
 21
3.776132599999999
 31
0.0
  0
LINE
  5
310
330
36
100
AcDbEntity
  8
0
  6
Continuous
 62
     7
100
AcDbLine
 10
-129.07961
 20
13.776117
 30
0.0
 11
-145.07961
 21
13.776117
 31
0.0
  0
LINE
  5
311
330
36
100
AcDbEntity
  8
0
  6
Continuous
 62
     7
100
AcDbLine
 10
-127.57961
 20
12.276117
 30
0.0
 11
-127.57961
 21
5.276132599999999
 31
0.0
  0
LINE
  5
312
330
36
100
AcDbEntity
  8
0
  6
Continuous
 62
     7
100
AcDbLine
 10
-146.57961
 20
12.276117
 30
0.0
 11
-146.57961
 21
5.276132599999999
 31
0.0
  0
LINE
  5
313
330
36
100
AcDbEntity
  8
0
  6
Continuous
 62
     7
100
AcDbLine
 10
-145.39699
 20
22.97613
 30
0.0
 11
-128.76219
 21
22.97613
 31
0.0
  0
LINE
  5
314
330
36
100
AcDbEntity
  8
0
  6
Continuous
 62
     7
100
AcDbLine
 10
-146.82959
 20
20.976137
 30
0.0
 11
-146.02307
 21
22.58918
 31
0.0
  0
LINE
  5
315
330
36
100
AcDbEntity
  8
0
  6
Continuous
 62
     7
100
AcDbLine
 10
-128.13609
 20
22.589176
 30
0.0
 11
-127.32958
 21
20.97616
 31
0.0
  0
LINE
  5
316
330
36
100
AcDbEntity
  8
0
  6
Continuous
 62
     7
100
AcDbLine
 10
-151.07961
 20
-6.2238674
 30
0.0
 11
-123.07961
 21
-6.2238674
 31
0.0
  0
LINE
  5
317
330
36
100
AcDbEntity
  8
0
  6
Continuous
 62
     7
100
AcDbLine
 10
-149.40486
 20
20.97613
 30
0.0
 11
-124.75432
 21
20.97613
 31
0.0
  0
LINE
  5
318
330
36
100
AcDbEntity
  8
0
  6
Continuous
 62
     7
100
AcDbLine
 10
-132.19017
 20
0.085596085
 30
0.0
 11
-126.57961
 21
0.085596085
 31
0.0
  0
LINE
  5
319
330
36
100
AcDbEntity
  8
0
  6
Continuous
 62
     7
100
AcDbLine
 10
-124.05482
 20
20.301846
 30
0.0
 11
-123.07961
 21
-6.2238736
 31
0.0
  0
LINE
  5
31A
330
36
100
AcDbEntity
  8
0
  6
Continuous
 62
     7
100
AcDbLine
 10
-126.57961
 20
16.951532
 30
0.0
 11
-147.57961
 21
16.951532
 31
0.0
  0
LINE
  5
31B
330
36
100
AcDbEntity
  8
0
  6
Continuous
 62
     7
100
AcDbLine
 10
-126.57961
 20
16.519083
 30
0.0
 11
-131.82256
 21
16.519083
 31
0.0
  0
LINE
  5
31C
330
36
100
AcDbEntity
  8
0
  6
Continuous
 62
     7
100
AcDbLine
 10
-125.07961
 20
15.451532
 30
0.0
 11
-125.07961
 21
1.026132599999999
 31
0.0
  0
LINE
  5
31D
330
36
100
AcDbEntity
  8
0
  6
Continuous
 62
     7
100
AcDbLine
 10
-149.07961
 20
15.451532
 30
0.0
 11
-149.07961
 21
2.7761357
 31
0.0
  0
LINE
  5
31E
330
36
100
AcDbEntity
  8
0
  6
Continuous
 62
     7
100
AcDbLine
 10
-125.57961
 20
15.519083
 30
0.0
 11
-125.57961
 21
1.0855961
 31
0.0
  0
LINE
  5
31F
330
36
100
AcDbEntity
  8
0
  6
Continuous
 62
     7
100
AcDbLine
 10
-148.57961
 20
15.519083
 30
0.0
 11
-148.57961
 21
2.7761357
 31
0.0
  0
LINE
  5
320
330
36
100
AcDbEntity
  8
0
  6
Continuous
 62
     7
100
AcDbLine
 10
-128.32961
 20
13.926126
 30
0.0
 11
-131.07961
 21
13.926126
 31
0.0
  0
LINE
  5
321
330
36
100
AcDbEntity
  8
0
  6
Continuous
 62
     7
100
AcDbLine
 10
-128.32961
 20
3.6261387
 30
0.0
 11
-131.07961
 21
3.6261387
 31
0.0
  0
LINE
  5
322
330
36
100
AcDbEntity
  8
0
  6
Continuous
 62
     7
100
AcDbLine
 10
-127.32961
 20
12.926126
 30
0.0
 11
-127.32961
 21
4.6261387
 31
0.0
  0
LINE
  5
323
330
36
100
AcDbEntity
  8
0
  6
Continuous
 62
     7
100
AcDbLine
 10
-146.82961
 20
12.926126
 30
0.0
 11
-146.82961
 21
4.6261387
 31
0.0
  0
LINE
  5
324
330
36
100
AcDbEntity
  8
0
  6
Continuous
 62
     7
100
AcDbLine
 10
-154.57961
 20
2.7761357
 30
0.0
 11
-126.07961
 21
2.7761357
 31
0.0
  0
LINE
  5
325
330
36
100
AcDbEntity
  8
0
  6
Continuous
 62
     7
100
AcDbLine
 10
-147.07961
 20
-8.723867399999999
 30
0.0
 11
-147.07961
 21
-12.723867
 31
0.0
  0
LINE
  5
326
330
36
100
AcDbEntity
  8
0
  6
Continuous
 62
     7
100
AcDbLine
 10
98.091629
 20
17.450682
 30
0.0
 11
100.92039
 21
-6.2238755
 31
0.0
  0
LINE
  5
327
330
36
100
AcDbEntity
  8
0
  6
Continuous
 62
     7
100
AcDbLine
 10
67.72090099999999
 20
20.976116
 30
0.0
 11
94.11987299999999
 21
20.976116
 31
0.0
  0
LINE
  5
328
330
36
100
AcDbEntity
  8
0
  6
Continuous
 62
     7
100
AcDbLine
 10
71.17038700000001
 20
20.976124
 30
0.0
 11
71.97691299999999
 21
22.589167
 31
0.0
  0
LINE
  5
329
330
36
100
AcDbEntity
  8
0
  6
Continuous
 62
     7
100
AcDbLine
 10
72.60301199999999
 20
22.976116
 30
0.0
 11
89.237762
 21
22.976116
 31
0.0
  0
LINE
  5
32A
330
36
100
AcDbEntity
  8
0
  6
Continuous
 62
     7
100
AcDbLine
 10
89.863861
 20
22.589167
 30
0.0
 11
90.67039499999999
 21
20.97611
 31
0.0
  0
LINE
  5
32B
330
36
100
AcDbEntity
  8
0
  6
Continuous
 62
     7
100
AcDbLine
 10
61.25938399999999
 20
-0.52388382
 30
0.0
 11
61.601456
 21
-0.52388382
 31
0.0
  0
LINE
  5
32C
330
36
100
AcDbEntity
  8
0
  6
Continuous
 62
     7
100
AcDbLine
 10
61.259377
 20
-0.52388841
 30
0.0
 11
60.82693100000001
 21
0.035568666
 31
0.0
  0
LINE
  5
32D
330
36
100
AcDbEntity
  8
0
  6
Continuous
 62
     7
100
AcDbLine
 10
63.490685
 20
16.90151
 30
0.0
 11
63.68905999999999
 21
16.876108
 31
0.0
  0
LINE
  5
32E
330
36
100
AcDbEntity
  8
0
  6
Continuous
 62
     7
100
AcDbLine
 10
62.93122099999999
 20
16.46907
 30
0.0
 11
63.490677
 21
16.901516
 31
0.0
  0
LINE
  5
32F
330
36
100
AcDbEntity
  8
0
  6
Continuous
 62
     7
100
AcDbLine
 10
60.920391
 20
-6.223884099999999
 30
0.0
 11
63.749153
 21
17.450689
 31
0.0
  0
LINE
  5
330
330
36
100
AcDbEntity
  8
0
  6
Continuous
 62
     7
100
AcDbLine
 10
100.58141
 20
-0.52388382
 30
0.0
 11
100.23932
 21
-0.52388382
 31
0.0
  0
LINE
  5
331
330
36
100
AcDbEntity
  8
0
  6
Continuous
 62
     7
100
AcDbLine
 10
100.5814
 20
-0.5238744600000001
 30
0.0
 11
101.01385
 21
0.035582591
 31
0.0
  0
LINE
  5
332
330
36
100
AcDbEntity
  8
0
  6
Continuous
 62
     7
100
AcDbLine
 10
98.35009800000001
 20
16.901518
 30
0.0
 11
98.15171800000001
 21
16.876116
 31
0.0
  0
LINE
  5
333
330
36
100
AcDbEntity
  8
0
  6
Continuous
 62
     7
100
AcDbLine
 10
98.90955400000001
 20
16.469088
 30
0.0
 11
98.35009800000001
 21
16.901531
 31
0.0
  0
LINE
  5
334
330
36
100
AcDbEntity
  8
0
  6
Continuous
 62
     7
100
AcDbLine
 10
60.826935
 20
0.035556111
 30
0.0
 11
62.931229
 21
16.469067
 31
0.0
  0
LINE
  5
335
330
36
100
AcDbEntity
  8
0
  6
Continuous
 62
     7
100
AcDbLine
 10
101.01385
 20
0.03556259
 30
0.0
 11
98.90955400000001
 21
16.469072
 31
0.0
  0
LINE
  5
336
330
36
100
AcDbEntity
  8
0
  6
Continuous
 62
     7
100
AcDbLine
 10
60.92039499999999
 20
-6.223880799999999
 30
0.0
 11
100.92039
 21
-6.223880799999999
 31
0.0
  0
LINE
  5
337
330
36
100
AcDbEntity
  8
0
  6
Continuous
 62
     7
100
AcDbLine
 10
-132.07961
 20
16.776117
 30
0.0
 11
-142.07961
 21
16.776117
 31
0.0
  0
LINE
  5
338
330
36
100
AcDbEntity
  8
0
  6
Continuous
 62
     7
100
AcDbLine
 10
-131.07961
 20
14.776117
 30
0.0
 11
-143.07961
 21
14.776117
 31
0.0
  0
LINE
  5
339
330
36
100
AcDbEntity
  8
0
  6
Continuous
 62
     7
100
AcDbLine
 10
-143.07961
 20
15.776117
 30
0.0
 11
-143.07961
 21
14.776117
 31
0.0
  0
LINE
  5
33A
330
36
100
AcDbEntity
  8
0
  6
Continuous
 62
     7
100
AcDbLine
 10
-131.07961
 20
15.776117
 30
0.0
 11
-131.07961
 21
14.776117
 31
0.0
  0
LINE
  5
33B
330
36
100
AcDbEntity
  8
0
  6
Continuous
 62
     7
100
AcDbLine
 10
-131.07961
 20
15.776117
 30
0.0
 11
-143.07961
 21
15.776117
 31
0.0
  0
LINE
  5
33C
330
36
100
AcDbEntity
  8
0
  6
Continuous
 62
     7
100
AcDbLine
 10
-131.07961
 20
15.776138
 30
0.0
 11
-132.07961
 21
16.77614
 31
0.0
  0
LINE
  5
33D
330
36
100
AcDbEntity
  8
0
  6
Continuous
 62
     7
100
AcDbLine
 10
-142.07961
 20
16.77615
 30
0.0
 11
-143.07961
 21
15.77615
 31
0.0
  0
LINE
  5
33E
330
36
100
AcDbEntity
  8
0
  6
Continuous
 62
     7
100
AcDbLine
 10
-144.07961
 20
28.026117
 30
0.0
 11
-144.07961
 21
22.97613
 31
0.0
  0
LINE
  5
33F
330
36
100
AcDbEntity
  8
0
  6
Continuous
 62
     7
100
AcDbLine
 10
-130.07961
 20
28.026133
 30
0.0
 11
-130.07961
 21
22.97613
 31
0.0
  0
LINE
  5
340
330
36
100
AcDbEntity
  8
0
  6
Continuous
 62
     7
100
AcDbLine
 10
-130.77962
 20
28.72613
 30
0.0
 11
-143.37962
 21
28.72613
 31
0.0
  0
LINE
  5
341
330
36
100
AcDbEntity
  8
0
  6
Continuous
 62
     7
100
AcDbLine
 10
-131.07961
 20
14.776117
 30
0.0
 11
-131.07961
 21
13.776117
 31
0.0
  0
LINE
  5
342
330
36
100
AcDbEntity
  8
0
  6
Continuous
 62
     7
100
AcDbLine
 10
-143.07961
 20
14.776117
 30
0.0
 11
-143.07961
 21
13.776117
 31
0.0
  0
LINE
  5
343
330
36
100
AcDbEntity
  8
0
  6
Continuous
 62
     7
100
AcDbLine
 10
-143.07961
 20
2.776132599999999
 30
0.0
 11
-143.07961
 21
3.776132599999999
 31
0.0
  0
LINE
  5
344
330
36
100
AcDbEntity
  8
0
  6
Continuous
 62
     7
100
AcDbLine
 10
-131.07961
 20
2.776132599999999
 30
0.0
 11
-131.07961
 21
3.776132599999999
 31
0.0
  0
LINE
  5
345
330
36
100
AcDbEntity
  8
0
  6
Continuous
 62
     7
100
AcDbLine
 10
-3.7127578
 20
-8.723880799999999
 30
0.0
 11
-3.7127578
 21
-12.723881
 31
0.0
  0
LINE
  5
346
330
36
100
AcDbEntity
  8
0
  6
Continuous
 62
     7
100
AcDbLine
 10
85.55355799999999
 20
-8.723880799999999
 30
0.0
 11
85.55355799999999
 21
-12.723881
 31
0.0
  0
LINE
  5
347
330
36
100
AcDbEntity
  8
0
  6
Continuous
 62
     7
100
AcDbLine
 10
-6.5796022
 20
-18.223881
 30
0.0
 11
8.420397799999999
 21
-18.223881
 31
0.0
  0
LINE
  5
348
330
36
100
AcDbEntity
  8
0
  6
Continuous
 62
     7
100
AcDbLine
 10
8.420397799999999
 20
-16.223881
 30
0.0
 11
8.420397799999999
 21
-18.223881
 31
0.0
  0
LINE
  5
349
330
36
100
AcDbEntity
  8
0
  6
Continuous
 62
     7
100
AcDbLine
 10
-6.5796022
 20
-16.223881
 30
0.0
 11
-6.5796022
 21
-18.223881
 31
0.0
  0
LINE
  5
34A
330
36
100
AcDbEntity
  8
0
  6
Continuous
 62
     7
100
AcDbLine
 10
4.920397799999999
 20
-18.223881
 30
0.0
 11
4.920397799999999
 21
-18.889046
 31
0.0
  0
LINE
  5
34B
330
36
100
AcDbEntity
  8
0
  6
Continuous
 62
     7
100
AcDbLine
 10
-3.079601999999999
 20
-18.223881
 30
0.0
 11
-3.079601999999999
 21
-18.889019
 31
0.0
  0
LINE
  5
34C
330
36
100
AcDbEntity
  8
0
  6
DASHED
 62
     3
100
AcDbLine
 10
-40.17960399999999
 20
10.276117
 30
0.0
 11
-40.17960399999999
 21
13.776117
 31
0.0
  0
LINE
  5
34D
330
36
100
AcDbEntity
  8
0
  6
DASHED
 62
     3
100
AcDbLine
 10
-35.979591
 20
10.276117
 30
0.0
 11
-35.979591
 21
13.776117
 31
0.0
  0
LINE
  5
34E
330
36
100
AcDbEntity
  8
0
  6
DASHED
 62
     3
100
AcDbLine
 10
112.82039
 20
10.276117
 30
0.0
 11
112.82039
 21
13.776117
 31
0.0
  0
LINE
  5
34F
330
36
100
AcDbEntity
  8
0
  6
DASHED
 62
     3
100
AcDbLine
 10
117.02039
 20
10.276117
 30
0.0
 11
117.02039
 21
13.776117
 31
0.0
  0
LINE
  5
350
330
36
100
AcDbEntity
  8
0
  6
Continuous
 62
     7
100
AcDbLine
 10
50.838913
 20
89.27612299999999
 30
0.0
 11
50.838913
 21
87.276123
 31
0.0
  0
LINE
  5
351
330
36
100
AcDbEntity
  8
0
  6
Continuous
 62
     7
100
AcDbLine
 10
-146.57961
 20
2.7761357
 30
0.0
 11
-146.57961
 21
0.27613562
 31
0.0
  0
LINE
  5
352
330
36
100
AcDbEntity
  8
0
  6
Continuous
 62
     7
100
AcDbLine
 10
-150.74872
 20
2.776135399999999
 30
0.0
 11
-150.10439
 21
20.301849
 31
0.0
  0
LINE
  5
353
330
36
100
AcDbEntity
  8
0
  6
Continuous
 62
     7
100
AcDbLine
 10
-141.07961
 20
-18.223867
 30
0.0
 11
-141.07961
 21
-18.889006
 31
0.0
  0
LINE
  5
354
330
36
100
AcDbEntity
  8
0
  6
Continuous
 62
     7
100
AcDbLine
 10
-133.07961
 20
-18.223867
 30
0.0
 11
-133.07961
 21
-18.889032
 31
0.0
  0
LINE
  5
355
330
36
100
AcDbEntity
  8
0
  6
Continuous
 62
     7
100
AcDbLine
 10
-144.57961
 20
-16.223867
 30
0.0
 11
-144.57961
 21
-18.223867
 31
0.0
  0
LINE
  5
356
330
36
100
AcDbEntity
  8
0
  6
Continuous
 62
     7
100
AcDbLine
 10
-129.57961
 20
-16.223867
 30
0.0
 11
-129.57961
 21
-18.223867
 31
0.0
  0
LINE
  5
357
330
36
100
AcDbEntity
  8
0
  6
Continuous
 62
     7
100
AcDbLine
 10
-144.57961
 20
-18.223867
 30
0.0
 11
-129.57961
 21
-18.223867
 31
0.0
  0
LINE
  5
358
330
36
100
AcDbEntity
  8
0
  6
Continuous
 62
     7
100
AcDbLine
 10
-131.07961
 20
-12.723867
 30
0.0
 11
-131.07961
 21
-13.723867
 31
0.0
  0
LINE
  5
359
330
36
100
AcDbEntity
  8
0
  6
Continuous
 62
     7
100
AcDbLine
 10
-143.07961
 20
-12.723867
 30
0.0
 11
-143.07961
 21
-13.723867
 31
0.0
  0
LINE
  5
35A
330
36
100
AcDbEntity
  8
0
  6
Continuous
 62
     7
100
AcDbLine
 10
-141.96904
 20
0.085596085
 30
0.0
 11
-147.57961
 21
0.085596085
 31
0.0
  0
LINE
  5
35B
330
36
100
AcDbEntity
  8
0
  6
Continuous
 62
     7
100
AcDbLine
 10
-126.07961
 20
2.7761357
 30
0.0
 11
-126.07961
 21
0.27613562
 31
0.0
  0
LINE
  5
35C
330
36
100
AcDbEntity
  8
0
  6
Continuous
 62
     7
100
AcDbLine
 10
-147.17958
 20
-0.5238674300000001
 30
0.0
 11
-142.18428
 21
-0.5238674300000001
 31
0.0
  0
LINE
  5
35D
330
36
100
AcDbEntity
  8
0
  6
Continuous
 62
     7
100
AcDbLine
 10
-142.18427
 20
-0.52388901
 30
0.0
 11
-141.72238
 21
0.27613658
 31
0.0
  0
LINE
  5
35E
330
36
100
AcDbEntity
  8
0
  6
Continuous
 62
     7
100
AcDbLine
 10
-132.43677
 20
0.27612817
 30
0.0
 11
-131.97488
 21
-0.523871
 31
0.0
  0
LINE
  5
35F
330
36
100
AcDbEntity
  8
0
  6
Continuous
 62
     7
100
AcDbLine
 10
-131.9749
 20
-0.5238674300000001
 30
0.0
 11
-126.9796
 21
-0.5238674300000001
 31
0.0
  0
ARC
  5
360
330
36
100
AcDbEntity
  8
0
  6
Continuous
 62
     3
100
AcDbCircle
 10
16.920399
 20
-24.723881
 30
0.0
 40
2.1000061
100
AcDbArc
 50
180.0
 51
0.0
  0
ARC
  5
361
330
36
100
AcDbEntity
  8
0
  6
Continuous
 62
     3
100
AcDbCircle
 10
-15.079602
 20
-24.723881
 30
0.0
 40
2.1000061
100
AcDbArc
 50
180.0
 51
0.0
  0
ARC
  5
362
330
36
100
AcDbEntity
  8
0
  6
Continuous
 62
     3
100
AcDbCircle
 10
16.920399
 20
-20.723881
 30
0.0
 40
2.1000061
100
AcDbArc
 50
0.0
 51
179.99995
  0
ARC
  5
363
330
36
100
AcDbEntity
  8
0
  6
Continuous
 62
     3
100
AcDbCircle
 10
-15.079602
 20
-20.723881
 30
0.0
 40
2.1000061
100
AcDbArc
 50
0.0
 51
179.99995
  0
ARC
  5
364
330
36
100
AcDbEntity
  8
0
  6
Continuous
 62
     3
100
AcDbCircle
 10
-54.079601
 20
5.901117299999999
 30
0.0
 40
6.625003299999999
100
AcDbArc
 50
238.10888
 51
301.89093
  0
ARC
  5
365
330
36
100
AcDbEntity
  8
0
  6
Continuous
 62
     3
100
AcDbCircle
 10
-70.079605
 20
10.276117
 30
0.0
 40
2.1000061
100
AcDbArc
 50
179.99997
 51
0.0
  0
ARC
  5
366
330
36
100
AcDbEntity
  8
0
  6
Continuous
 62
     3
100
AcDbCircle
 10
-70.079605
 20
20.276117
 30
0.0
 40
2.1000061
100
AcDbArc
 50
0.0
 51
179.99995
  0
ARC
  5
367
330
36
100
AcDbEntity
  8
0
  6
Continuous
 62
     3
100
AcDbCircle
 10
-38.07960100000001
 20
20.276117
 30
0.0
 40
2.1000061
100
AcDbArc
 50
0.0
 51
179.99995
  0
ARC
  5
368
330
36
100
AcDbEntity
  8
0
  6
Continuous
 62
     3
100
AcDbCircle
 10
146.92039
 20
10.276117
 30
0.0
 40
2.100000399999999
100
AcDbArc
 50
179.99997
 51
0.0
  0
ARC
  5
369
330
36
100
AcDbEntity
  8
0
  6
Continuous
 62
     3
100
AcDbCircle
 10
146.92039
 20
20.276117
 30
0.0
 40
2.100000399999999
100
AcDbArc
 50
0.0
 51
179.99995
  0
ARC
  5
36A
330
36
100
AcDbEntity
  8
0
  6
Continuous
 62
     3
100
AcDbCircle
 10
114.92039
 20
20.276117
 30
0.0
 40
2.099998499999999
100
AcDbArc
 50
0.0
 51
179.99995
  0
ARC
  5
36B
330
36
100
AcDbEntity
  8
0
  6
Continuous
 62
     3
100
AcDbCircle
 10
130.92039
 20
5.901117299999999
 30
0.0
 40
6.624999
100
AcDbArc
 50
238.10896
 51
301.89095
  0
ARC
  5
36C
330
36
100
AcDbEntity
  8
0
  6
Continuous
 62
     3
100
AcDbCircle
 10
0.9203979999999999
 20
98.776123
 30
0.0
 40
11.000007
100
AcDbArc
 50
239.72697
 51
244.41723
  0
ARC
  5
36D
330
36
100
AcDbEntity
  8
0
  6
Continuous
 62
     3
100
AcDbCircle
 10
-63.079601
 20
107.27612
 30
0.0
 40
1.0
100
AcDbArc
 50
90.0
 51
180.0
  0
ARC
  5
36E
330
36
100
AcDbEntity
  8
0
  6
Continuous
 62
     3
100
AcDbCircle
 10
-63.079601
 20
90.27612299999999
 30
0.0
 40
1.0
100
AcDbArc
 50
180.0
 51
270.0
  0
CIRCLE
  5
36F
330
36
100
AcDbEntity
  8
0
  6
Continuous
 62
     3
100
AcDbCircle
 10
-54.079601
 20
98.776123
 30
0.0
 40
6.0
  0
CIRCLE
  5
370
330
36
100
AcDbEntity
  8
0
  6
Continuous
 62
     3
100
AcDbCircle
 10
-54.079601
 20
98.776123
 30
0.0
 40
5.0
  0
ARC
  5
371
330
36
100
AcDbEntity
  8
0
  6
Continuous
 62
     3
100
AcDbCircle
 10
-54.079601
 20
98.776123
 30
0.0
 40
11.000007
100
AcDbArc
 50
239.72697
 51
300.27295
  0
CIRCLE
  5
372
330
36
100
AcDbEntity
  8
0
  6
Continuous
 62
     3
100
AcDbCircle
 10
130.92039
 20
98.776123
 30
0.0
 40
6.0
  0
CIRCLE
  5
373
330
36
100
AcDbEntity
  8
0
  6
Continuous
 62
     3
100
AcDbCircle
 10
130.92039
 20
98.776123
 30
0.0
 40
5.0
  0
ARC
  5
374
330
36
100
AcDbEntity
  8
0
  6
Continuous
 62
     3
100
AcDbCircle
 10
130.92039
 20
98.776123
 30
0.0
 40
11.000005
100
AcDbArc
 50
239.72698
 51
300.27295
  0
CIRCLE
  5
375
330
36
100
AcDbEntity
  8
0
  6
Continuous
 62
     7
100
AcDbCircle
 10
-154.82587
 20
112.88793
 30
0.0
 40
1.5
  0
ARC
  5
376
330
36
100
AcDbEntity
  8
0
  6
Continuous
 62
     7
100
AcDbCircle
 10
63.201035
 20
110.27612
 30
0.0
 40
0.5
100
AcDbArc
 50
0.0
 51
90.0
  0
CIRCLE
  5
377
330
36
100
AcDbEntity
  8
0
  6
Continuous
 62
     7
100
AcDbCircle
 10
80.920395
 20
98.776123
 30
0.0
 40
7.0
  0
ARC
  5
378
330
36
100
AcDbEntity
  8
0
  6
Continuous
 62
     7
100
AcDbCircle
 10
98.63975500000002
 20
110.27612
 30
0.0
 40
0.5
100
AcDbArc
 50
90.0
 51
180.0
  0
ARC
  5
379
330
36
100
AcDbEntity
  8
0
  6
Continuous
 62
     7
100
AcDbCircle
 10
62.44320699999999
 20
109.77612
 30
0.0
 40
0.5
100
AcDbArc
 50
0.0
 51
90.0
  0
ARC
  5
37A
330
36
100
AcDbEntity
  8
0
  6
Continuous
 62
     7
100
AcDbCircle
 10
62.44320699999999
 20
87.77612299999999
 30
0.0
 40
0.5
100
AcDbArc
 50
270.0
 51
0.0
  0
ARC
  5
37B
330
36
100
AcDbEntity
  8
0
  6
Continuous
 62
     7
100
AcDbCircle
 10
63.002655
 20
110.27612
 30
0.0
 40
0.5
100
AcDbArc
 50
0.0
 51
90.0
  0
ARC
  5
37C
330
36
100
AcDbEntity
  8
0
  6
Continuous
 62
     7
100
AcDbCircle
 10
61.338913
 20
110.27612
 30
0.0
 40
0.5
100
AcDbArc
 50
90.0
 51
180.0
  0
ARC
  5
37D
330
36
100
AcDbEntity
  8
0
  6
Continuous
 62
     7
100
AcDbCircle
 10
63.002655
 20
87.276123
 30
0.0
 40
0.5
100
AcDbArc
 50
270.0
 51
0.0
  0
ARC
  5
37E
330
36
100
AcDbEntity
  8
0
  6
Continuous
 62
     7
100
AcDbCircle
 10
61.338913
 20
87.276123
 30
0.0
 40
0.5
100
AcDbArc
 50
180.0
 51
270.0
  0
ARC
  5
37F
330
36
100
AcDbEntity
  8
0
  6
Continuous
 62
     7
100
AcDbCircle
 10
63.201035
 20
87.276123
 30
0.0
 40
0.5
100
AcDbArc
 50
270.0
 51
0.0
  0
CIRCLE
  5
380
330
36
100
AcDbEntity
  8
0
  6
Continuous
 62
     7
100
AcDbCircle
 10
80.920395
 20
98.776123
 30
0.0
 40
8.75
  0
CIRCLE
  5
381
330
36
100
AcDbEntity
  8
0
  6
Continuous
 62
     7
100
AcDbCircle
 10
80.920395
 20
98.776123
 30
0.0
 40
9.75
  0
ARC
  5
382
330
36
100
AcDbEntity
  8
0
  6
Continuous
 62
     7
100
AcDbCircle
 10
87.22038299999999
 20
28.026119
 30
0.0
 40
0.6999999900000001
100
AcDbArc
 50
0.0
 51
90.0
  0
ARC
  5
383
330
36
100
AcDbEntity
  8
0
  6
Continuous
 62
     7
100
AcDbCircle
 10
74.62039200000001
 20
28.026104
 30
0.0
 40
0.6999999900000001
100
AcDbArc
 50
90.0
 51
180.0
  0
ARC
  5
384
330
36
100
AcDbEntity
  8
0
  6
Continuous
 62
     7
100
AcDbCircle
 10
-130.77962
 20
28.026133
 30
0.0
 40
0.6999999900000001
100
AcDbArc
 50
0.0
 51
90.0
  0
ARC
  5
385
330
36
100
AcDbEntity
  8
0
  6
Continuous
 62
     7
100
AcDbCircle
 10
-143.37962
 20
28.026117
 30
0.0
 40
0.6999999900000001
100
AcDbArc
 50
90.0
 51
180.0
  0
ARC
  5
386
330
36
100
AcDbEntity
  8
0
  6
Continuous
 62
     7
100
AcDbCircle
 10
75.420395
 20
-6.223880799999999
 30
0.0
 40
2.5
100
AcDbArc
 50
179.99999
 51
270.0
  0
ARC
  5
387
330
36
100
AcDbEntity
  8
0
  6
Continuous
 62
     7
100
AcDbCircle
 10
86.420395
 20
-6.223880799999999
 30
0.0
 40
2.5
100
AcDbArc
 50
270.0
 51
0.0
  0
ARC
  5
388
330
36
100
AcDbEntity
  8
0
  6
Continuous
 62
     7
100
AcDbCircle
 10
-145.82961
 20
4.6261387
 30
0.0
 40
1.0
100
AcDbArc
 50
180.0
 51
270.0
  0
ARC
  5
389
330
36
100
AcDbEntity
  8
0
  6
Continuous
 62
     7
100
AcDbCircle
 10
-145.82961
 20
12.926126
 30
0.0
 40
1.0
100
AcDbArc
 50
90.0
 51
180.0
  0
ARC
  5
38A
330
36
100
AcDbEntity
  8
0
  6
Continuous
 62
     7
100
AcDbCircle
 10
-147.57961
 20
15.519083
 30
0.0
 40
1.0
100
AcDbArc
 50
90.0
 51
180.0
  0
ARC
  5
38B
330
36
100
AcDbEntity
  8
0
  6
Continuous
 62
     7
100
AcDbCircle
 10
-128.32961
 20
12.926126
 30
0.0
 40
1.0
100
AcDbArc
 50
0.0
 51
90.0
  0
ARC
  5
38C
330
36
100
AcDbEntity
  8
0
  6
Continuous
 62
     7
100
AcDbCircle
 10
-128.32961
 20
4.6261387
 30
0.0
 40
1.0
100
AcDbArc
 50
270.0
 51
0.0
  0
ARC
  5
38D
330
36
100
AcDbEntity
  8
0
  6
Continuous
 62
     7
100
AcDbCircle
 10
-126.57961
 20
1.0855961
 30
0.0
 40
1.0
100
AcDbArc
 50
270.0
 51
0.0
  0
ARC
  5
38E
330
36
100
AcDbEntity
  8
0
  6
Continuous
 62
     7
100
AcDbCircle
 10
-126.57961
 20
15.519083
 30
0.0
 40
1.0
100
AcDbArc
 50
0.0
 51
90.0
  0
ARC
  5
38F
330
36
100
AcDbEntity
  8
0
  6
Continuous
 62
     7
100
AcDbCircle
 10
-147.57961
 20
1.026132599999999
 30
0.0
 40
1.5
100
AcDbArc
 50
209.99983
 51
270.0
  0
ARC
  5
390
330
36
100
AcDbEntity
  8
0
  6
Continuous
 62
     7
100
AcDbCircle
 10
-149.40486
 20
20.276133
 30
0.0
 40
0.6999999900000001
100
AcDbArc
 50
90.0
 51
177.89441
  0
ARC
  5
391
330
36
100
AcDbEntity
  8
0
  6
Continuous
 62
     7
100
AcDbCircle
 10
-126.57961
 20
1.026132599999999
 30
0.0
 40
1.5
100
AcDbArc
 50
270.0
 51
0.0
  0
ARC
  5
392
330
36
100
AcDbEntity
  8
0
  6
Continuous
 62
     7
100
AcDbCircle
 10
-147.57961
 20
15.451532
 30
0.0
 40
1.5
100
AcDbArc
 50
90.0
 51
180.0
  0
ARC
  5
393
330
36
100
AcDbEntity
  8
0
  6
Continuous
 62
     7
100
AcDbCircle
 10
-126.57961
 20
15.451532
 30
0.0
 40
1.5
100
AcDbArc
 50
0.0
 51
90.0
  0
ARC
  5
394
330
36
100
AcDbEntity
  8
0
  6
Continuous
 62
     7
100
AcDbCircle
 10
-124.75432
 20
20.276133
 30
0.0
 40
0.6999999900000001
100
AcDbArc
 50
2.1055876
 51
90.0
  0
ARC
  5
395
330
36
100
AcDbEntity
  8
0
  6
Continuous
 62
     7
100
AcDbCircle
 10
-145.07961
 20
12.276117
 30
0.0
 40
1.5
100
AcDbArc
 50
90.0
 51
180.0
  0
ARC
  5
396
330
36
100
AcDbEntity
  8
0
  6
Continuous
 62
     7
100
AcDbCircle
 10
-129.07961
 20
12.276117
 30
0.0
 40
1.5
100
AcDbArc
 50
0.0
 51
90.0
  0
ARC
  5
397
330
36
100
AcDbEntity
  8
0
  6
Continuous
 62
     7
100
AcDbCircle
 10
-129.07961
 20
5.276132599999999
 30
0.0
 40
1.5
100
AcDbArc
 50
270.0
 51
0.0
  0
ARC
  5
398
330
36
100
AcDbEntity
  8
0
  6
Continuous
 62
     7
100
AcDbCircle
 10
-145.07961
 20
5.276132599999999
 30
0.0
 40
1.5
100
AcDbArc
 50
180.0
 51
270.0
  0
ARC
  5
399
330
36
100
AcDbEntity
  8
0
  6
Continuous
 62
     7
100
AcDbCircle
 10
2.920398
 20
98.776123
 30
0.0
 40
12.0
100
AcDbArc
 50
123.55678
 51
127.65846
  0
CIRCLE
  5
39A
330
36
100
AcDbEntity
  8
0
  6
DASHED
 62
     7
100
AcDbCircle
 10
0.9203979999999999
 20
98.776123
 30
0.0
 40
6.0
  0
ARC
  5
39B
330
36
100
AcDbEntity
  8
0
  6
Continuous
 62
     7
100
AcDbCircle
 10
2.920398
 20
98.776123
 30
0.0
 40
12.0
100
AcDbArc
 50
232.34153
 51
236.44269
  0
ARC
  5
39C
330
36
100
AcDbEntity
  8
0
  6
Continuous
 62
     7
100
AcDbCircle
 10
-142.57961
 20
-6.2238674
 30
0.0
 40
2.5
100
AcDbArc
 50
179.99999
 51
270.0
  0
ARC
  5
39D
330
36
100
AcDbEntity
  8
0
  6
Continuous
 62
     7
100
AcDbCircle
 10
98.838135
 20
110.27612
 30
0.0
 40
0.5
100
AcDbArc
 50
90.0
 51
180.0
  0
ARC
  5
39E
330
36
100
AcDbEntity
  8
0
  6
Continuous
 62
     7
100
AcDbCircle
 10
99.39758300000001
 20
109.77612
 30
0.0
 40
0.5
100
AcDbArc
 50
90.0
 51
180.0
  0
ARC
  5
39F
330
36
100
AcDbEntity
  8
0
  6
Continuous
 62
     7
100
AcDbCircle
 10
98.63975500000002
 20
87.276123
 30
0.0
 40
0.5
100
AcDbArc
 50
180.0
 51
270.0
  0
ARC
  5
3A0
330
36
100
AcDbEntity
  8
0
  6
Continuous
 62
     7
100
AcDbCircle
 10
99.39758300000001
 20
87.77612299999999
 30
0.0
 40
0.5
100
AcDbArc
 50
180.0
 51
270.0
  0
ARC
  5
3A1
330
36
100
AcDbEntity
  8
0
  6
Continuous
 62
     7
100
AcDbCircle
 10
98.838135
 20
87.276123
 30
0.0
 40
0.5
100
AcDbArc
 50
180.0
 51
270.0
  0
ARC
  5
3A2
330
36
100
AcDbEntity
  8
0
  6
Continuous
 62
     7
100
AcDbCircle
 10
100.50188
 20
110.27612
 30
0.0
 40
0.5
100
AcDbArc
 50
0.0
 51
90.0
  0
ARC
  5
3A3
330
36
100
AcDbEntity
  8
0
  6
Continuous
 62
     7
100
AcDbCircle
 10
100.50188
 20
87.276123
 30
0.0
 40
0.5
100
AcDbArc
 50
270.0
 51
0.0
  0
ARC
  5
3A4
330
36
100
AcDbEntity
  8
0
  6
Continuous
 62
     7
100
AcDbCircle
 10
94.11987299999999
 20
16.976116
 30
0.0
 40
4.0
100
AcDbArc
 50
6.813699599999999
 51
90.0
  0
ARC
  5
3A5
330
36
100
AcDbEntity
  8
0
  6
Continuous
 62
     7
100
AcDbCircle
 10
72.60301199999999
 20
22.276119
 30
0.0
 40
0.6999999900000001
100
AcDbArc
 50
90.0
 51
153.43495
  0
ARC
  5
3A6
330
36
100
AcDbEntity
  8
0
  6
Continuous
 62
     7
100
AcDbCircle
 10
67.72090099999999
 20
16.976116
 30
0.0
 40
4.0
100
AcDbArc
 50
90.0
 51
173.1863
  0
ARC
  5
3A7
330
36
100
AcDbEntity
  8
0
  6
Continuous
 62
     7
100
AcDbCircle
 10
89.237762
 20
22.276119
 30
0.0
 40
0.6999999900000001
100
AcDbArc
 50
26.565051
 51
90.0
  0
ARC
  5
3A8
330
36
100
AcDbEntity
  8
0
  6
Continuous
 62
     7
100
AcDbCircle
 10
61.620392
 20
85.47611999999999
 30
0.0
 40
0.6999999900000001
100
AcDbArc
 50
180.0
 51
270.0
  0
ARC
  5
3A9
330
36
100
AcDbEntity
  8
0
  6
Continuous
 62
     7
100
AcDbCircle
 10
61.620392
 20
112.07611
 30
0.0
 40
0.6999999900000001
100
AcDbArc
 50
90.0
 51
180.0
  0
ARC
  5
3AA
330
36
100
AcDbEntity
  8
0
  6
Continuous
 62
     7
100
AcDbCircle
 10
100.2204
 20
85.47611999999999
 30
0.0
 40
0.6999999900000001
100
AcDbArc
 50
270.0
 51
0.0
  0
ARC
  5
3AB
330
36
100
AcDbEntity
  8
0
  6
Continuous
 62
     7
100
AcDbCircle
 10
96.970398
 20
111.07611
 30
0.0
 40
0.6999999900000001
100
AcDbArc
 50
0.0
 51
90.0
  0
ARC
  5
3AC
330
36
100
AcDbEntity
  8
0
  6
Continuous
 62
     7
100
AcDbCircle
 10
100.2204
 20
112.07611
 30
0.0
 40
0.6999999900000001
100
AcDbArc
 50
0.0
 51
90.0
  0
ARC
  5
3AD
330
36
100
AcDbEntity
  8
0
  6
Continuous
 62
     7
100
AcDbCircle
 10
96.970398
 20
86.47612
 30
0.0
 40
0.6999999900000001
100
AcDbArc
 50
270.0
 51
0.0
  0
ARC
  5
3AE
330
36
100
AcDbEntity
  8
0
  6
Continuous
 62
     7
100
AcDbCircle
 10
64.87039200000001
 20
111.07611
 30
0.0
 40
0.6999999900000001
100
AcDbArc
 50
90.0
 51
180.0
  0
ARC
  5
3AF
330
36
100
AcDbEntity
  8
0
  6
Continuous
 62
     7
100
AcDbCircle
 10
64.87039200000001
 20
86.47612
 30
0.0
 40
0.6999999900000001
100
AcDbArc
 50
180.0
 51
270.0
  0
ARC
  5
3B0
330
36
100
AcDbEntity
  8
0
  6
Continuous
 62
     7
100
AcDbCircle
 10
-145.39699
 20
22.276133
 30
0.0
 40
0.6999999900000001
100
AcDbArc
 50
90.0
 51
153.43495
  0
ARC
  5
3B1
330
36
100
AcDbEntity
  8
0
  6
Continuous
 62
     7
100
AcDbCircle
 10
-128.76219
 20
22.276133
 30
0.0
 40
0.6999999900000001
100
AcDbArc
 50
26.565051
 51
90.0
  0
ARC
  5
3B2
330
36
100
AcDbEntity
  8
0
  6
Continuous
 62
     7
100
AcDbCircle
 10
-131.57961
 20
-6.2238674
 30
0.0
 40
2.5
100
AcDbArc
 50
270.0
 51
0.0
  0
ARC
  5
3B3
330
36
100
AcDbEntity
  8
0
  6
Continuous
 62
     7
100
AcDbCircle
 10
0.9204285099999999
 20
-9.723880799999999
 30
0.0
 40
10.0
100
AcDbArc
 50
246.42163
 51
293.57799
  0
ARC
  5
3B4
330
36
100
AcDbEntity
  8
0
  6
Continuous
 62
     3
100
AcDbCircle
 10
-62.57960500000001
 20
12.276117
 30
0.0
 40
1.5
100
AcDbArc
 50
90.0
 51
180.0
  0
ARC
  5
3B5
330
36
100
AcDbEntity
  8
0
  6
Continuous
 62
     3
100
AcDbCircle
 10
-62.57960500000001
 20
5.2761192
 30
0.0
 40
1.5
100
AcDbArc
 50
180.0
 51
270.0
  0
ARC
  5
3B6
330
36
100
AcDbEntity
  8
0
  6
Continuous
 62
     3
100
AcDbCircle
 10
139.42039
 20
12.276117
 30
0.0
 40
1.5
100
AcDbArc
 50
0.0
 51
90.0
  0
ARC
  5
3B7
330
36
100
AcDbEntity
  8
0
  6
Continuous
 62
     3
100
AcDbCircle
 10
139.42039
 20
5.2761192
 30
0.0
 40
1.5
100
AcDbArc
 50
270.0
 51
0.0
  0
ARC
  5
3B8
330
36
100
AcDbEntity
  8
0
  6
DASHED
 62
     3
100
AcDbCircle
 10
-38.079597
 20
10.276117
 30
0.0
 40
2.1000061
100
AcDbArc
 50
180.0
 51
0.000026019693
  0
ARC
  5
3B9
330
36
100
AcDbEntity
  8
0
  6
DASHED
 62
     3
100
AcDbCircle
 10
114.92039
 20
10.276117
 30
0.0
 40
2.100000399999999
100
AcDbArc
 50
180.0
 51
0.000026019787
  0
ARC
  5
3BA
330
36
100
AcDbEntity
  8
0
  6
Continuous
 62
     3
100
AcDbCircle
 10
139.42039
 20
90.776123
 30
0.0
 40
1.5
100
AcDbArc
 50
270.0
 51
0.0
  0
ARC
  5
3BB
330
36
100
AcDbEntity
  8
0
  6
Continuous
 62
     3
100
AcDbCircle
 10
139.42039
 20
106.77612
 30
0.0
 40
1.5
100
AcDbArc
 50
0.0
 51
90.0
  0
ARC
  5
3BC
330
36
100
AcDbEntity
  8
0
  6
Continuous
 62
     3
100
AcDbCircle
 10
0.9203979999999999
 20
98.776123
 30
0.0
 40
11.000007
100
AcDbArc
 50
245.38071
 51
294.61929
  0
ARC
  5
3BD
330
36
100
AcDbEntity
  8
0
  6
Continuous
 62
     7
100
AcDbCircle
 10
-154.57961
 20
2.7761357
 30
0.0
 40
2.5
100
AcDbArc
 50
179.99999
 51
270.0
  0
ARC
  5
3BE
330
36
100
AcDbEntity
  8
0
  6
Continuous
 62
     3
100
AcDbCircle
 10
-137.07961
 20
5.9011335
 30
0.0
 40
6.625003299999999
100
AcDbArc
 50
238.10891
 51
301.89093
  0
ARC
  5
3BF
330
36
100
AcDbEntity
  8
0
  6
Continuous
 62
     7
100
AcDbCircle
 10
-137.07957
 20
-9.723867399999999
 30
0.0
 40
10.0
100
AcDbArc
 50
246.42163
 51
293.57799
  0
ARC
  5
3C0
330
36
100
AcDbEntity
  8
0
  6
Continuous
 62
     7
100
AcDbCircle
 10
-147.57961
 20
1.0855961
 30
0.0
 40
1.0
100
AcDbArc
 50
234.04329
 51
270.0
  0
ARC
  5
3C1
330
36
100
AcDbEntity
  8
0
  6
Continuous
 62
     3
100
AcDbCircle
 10
-152.57961
 20
-16.223881
 30
0.0
 40
2.5
100
AcDbArc
 50
90.0
 51
180.0
  0
ARC
  5
3C2
330
36
100
AcDbEntity
  8
0
  6
Continuous
 62
     7
100
AcDbCircle
 10
-147.17958
 20
0.47613257
 30
0.0
 40
1.0
100
AcDbArc
 50
251.40581
 51
270.0
  0
ARC
  5
3C3
330
36
100
AcDbEntity
  8
0
  6
Continuous
 62
     7
100
AcDbCircle
 10
-126.9796
 20
0.47613257
 30
0.0
 40
1.0
100
AcDbArc
 50
270.0
 51
288.59417
  0
POLYLINE
  5
3C4
330
36
100
AcDbEntity
  8
0
  6
Continuous
 62
     7
100
AcDb2dPolyline
 66
     1
 10
0.0
 20
0.0
 30
0.0
  0
VERTEX
  5
3C5
330
3C4
100
AcDbEntity
  8
0
  6
Continuous
 62
     7
100
AcDbVertex
100
AcDb2dVertex
 10
100.42047
 20
89.02612299999999
 30
0.0
 42
0.016360933
  0
VERTEX
  5
3C6
330
3C4
100
AcDbEntity
  8
0
  6
Continuous
 62
     7
100
AcDbVertex
100
AcDb2dVertex
 10
100.42884
 20
89.02719300000001
 30
0.0
 42
0.016360933
  0
VERTEX
  5
3C7
330
3C4
100
AcDbEntity
  8
0
  6
Continuous
 62
     7
100
AcDbVertex
100
AcDb2dVertex
 10
100.43718
 20
89.03039900000001
 30
0.0
 42
0.016360933
  0
VERTEX
  5
3C8
330
3C4
100
AcDbEntity
  8
0
  6
Continuous
 62
     7
100
AcDbVertex
100
AcDb2dVertex
 10
100.44545
 20
89.03572700000001
 30
0.0
 42
0.016360933
  0
VERTEX
  5
3C9
330
3C4
100
AcDbEntity
  8
0
  6
Continuous
 62
     7
100
AcDbVertex
100
AcDb2dVertex
 10
100.45361
 20
89.04315399999999
 30
0.0
 42
0.016360933
  0
VERTEX
  5
3CA
330
3C4
100
AcDbEntity
  8
0
  6
Continuous
 62
     7
100
AcDbVertex
100
AcDb2dVertex
 10
100.46162
 20
89.05264800000001
 30
0.0
 42
0.016360933
  0
VERTEX
  5
3CB
330
3C4
100
AcDbEntity
  8
0
  6
Continuous
 62
     7
100
AcDbVertex
100
AcDb2dVertex
 10
100.46946
 20
89.06416999999999
 30
0.0
 42
0.016360933
  0
VERTEX
  5
3CC
330
3C4
100
AcDbEntity
  8
0
  6
Continuous
 62
     7
100
AcDbVertex
100
AcDb2dVertex
 10
100.4771
 20
89.077668
 30
0.0
 42
0.016360933
  0
VERTEX
  5
3CD
330
3C4
100
AcDbEntity
  8
0
  6
Continuous
 62
     7
100
AcDbVertex
100
AcDb2dVertex
 10
100.48448
 20
89.09308600000001
 30
0.0
 42
0.016360933
  0
VERTEX
  5
3CE
330
3C4
100
AcDbEntity
  8
0
  6
Continuous
 62
     7
100
AcDbVertex
100
AcDb2dVertex
 10
100.4916
 20
89.11035799999998
 30
0.0
 42
0.016360933
  0
VERTEX
  5
3CF
330
3C4
100
AcDbEntity
  8
0
  6
Continuous
 62
     7
100
AcDbVertex
100
AcDb2dVertex
 10
100.49841
 20
89.12941
 30
0.0
 42
0.016360933
  0
VERTEX
  5
3D0
330
3C4
100
AcDbEntity
  8
0
  6
Continuous
 62
     7
100
AcDbVertex
100
AcDb2dVertex
 10
100.50489
 20
89.15015999999999
 30
0.0
 42
0.016360933
  0
VERTEX
  5
3D1
330
3C4
100
AcDbEntity
  8
0
  6
Continuous
 62
     7
100
AcDbVertex
100
AcDb2dVertex
 10
100.511
 20
89.172519
 30
0.0
 42
0.016360933
  0
VERTEX
  5
3D2
330
3C4
100
AcDbEntity
  8
0
  6
Continuous
 62
     7
100
AcDbVertex
100
AcDb2dVertex
 10
100.51673
 20
89.196392
 30
0.0
 42
0.016360933
  0
VERTEX
  5
3D3
330
3C4
100
AcDbEntity
  8
0
  6
Continuous
 62
     7
100
AcDbVertex
100
AcDb2dVertex
 10
100.52205
 20
89.22167599999999
 30
0.0
 42
0.016360933
  0
VERTEX
  5
3D4
330
3C4
100
AcDbEntity
  8
0
  6
Continuous
 62
     7
100
AcDbVertex
100
AcDb2dVertex
 10
100.52693
 20
89.24826299999999
 30
0.0
 42
0.016360933
  0
VERTEX
  5
3D5
330
3C4
100
AcDbEntity
  8
0
  6
Continuous
 62
     7
100
AcDbVertex
100
AcDb2dVertex
 10
100.53135
 20
89.27604
 30
0.0
 42
-1.0
  0
SEQEND
  5
3D6
330
3C4
100
AcDbEntity
  8
0
  6
Continuous
 62
     7
  0
POLYLINE
  5
3D7
330
36
100
AcDbEntity
  8
0
  6
Continuous
 62
     7
100
AcDb2dPolyline
 66
     1
 10
0.0
 20
0.0
 30
0.0
  0
VERTEX
  5
3D8
330
3D7
100
AcDbEntity
  8
0
  6
Continuous
 62
     7
100
AcDbVertex
100
AcDb2dVertex
 10
100.53135
 20
108.27621
 30
0.0
 42
0.016360933
  0
VERTEX
  5
3D9
330
3D7
100
AcDbEntity
  8
0
  6
Continuous
 62
     7
100
AcDbVertex
100
AcDb2dVertex
 10
100.52693
 20
108.30398
 30
0.0
 42
0.016360933
  0
VERTEX
  5
3DA
330
3D7
100
AcDbEntity
  8
0
  6
Continuous
 62
     7
100
AcDbVertex
100
AcDb2dVertex
 10
100.52205
 20
108.33057
 30
0.0
 42
0.016360933
  0
VERTEX
  5
3DB
330
3D7
100
AcDbEntity
  8
0
  6
Continuous
 62
     7
100
AcDbVertex
100
AcDb2dVertex
 10
100.51673
 20
108.35585
 30
0.0
 42
0.016360933
  0
VERTEX
  5
3DC
330
3D7
100
AcDbEntity
  8
0
  6
Continuous
 62
     7
100
AcDbVertex
100
AcDb2dVertex
 10
100.511
 20
108.37973
 30
0.0
 42
0.016360933
  0
VERTEX
  5
3DD
330
3D7
100
AcDbEntity
  8
0
  6
Continuous
 62
     7
100
AcDbVertex
100
AcDb2dVertex
 10
100.50489
 20
108.40209
 30
0.0
 42
0.016360933
  0
VERTEX
  5
3DE
330
3D7
100
AcDbEntity
  8
0
  6
Continuous
 62
     7
100
AcDbVertex
100
AcDb2dVertex
 10
100.49841
 20
108.42284
 30
0.0
 42
0.016360933
  0
VERTEX
  5
3DF
330
3D7
100
AcDbEntity
  8
0
  6
Continuous
 62
     7
100
AcDbVertex
100
AcDb2dVertex
 10
100.4916
 20
108.44189
 30
0.0
 42
0.016360933
  0
VERTEX
  5
3E0
330
3D7
100
AcDbEntity
  8
0
  6
Continuous
 62
     7
100
AcDbVertex
100
AcDb2dVertex
 10
100.48448
 20
108.45916
 30
0.0
 42
0.016360933
  0
VERTEX
  5
3E1
330
3D7
100
AcDbEntity
  8
0
  6
Continuous
 62
     7
100
AcDbVertex
100
AcDb2dVertex
 10
100.4771
 20
108.47458
 30
0.0
 42
0.016360933
  0
VERTEX
  5
3E2
330
3D7
100
AcDbEntity
  8
0
  6
Continuous
 62
     7
100
AcDbVertex
100
AcDb2dVertex
 10
100.46946
 20
108.48808
 30
0.0
 42
0.016360933
  0
VERTEX
  5
3E3
330
3D7
100
AcDbEntity
  8
0
  6
Continuous
 62
     7
100
AcDbVertex
100
AcDb2dVertex
 10
100.46162
 20
108.4996
 30
0.0
 42
0.016360933
  0
VERTEX
  5
3E4
330
3D7
100
AcDbEntity
  8
0
  6
Continuous
 62
     7
100
AcDbVertex
100
AcDb2dVertex
 10
100.45361
 20
108.50909
 30
0.0
 42
0.016360933
  0
VERTEX
  5
3E5
330
3D7
100
AcDbEntity
  8
0
  6
Continuous
 62
     7
100
AcDbVertex
100
AcDb2dVertex
 10
100.44545
 20
108.51652
 30
0.0
 42
0.016360933
  0
VERTEX
  5
3E6
330
3D7
100
AcDbEntity
  8
0
  6
Continuous
 62
     7
100
AcDbVertex
100
AcDb2dVertex
 10
100.43718
 20
108.52185
 30
0.0
 42
0.016360933
  0
VERTEX
  5
3E7
330
3D7
100
AcDbEntity
  8
0
  6
Continuous
 62
     7
100
AcDbVertex
100
AcDb2dVertex
 10
100.42884
 20
108.52505
 30
0.0
 42
0.016360933
  0
VERTEX
  5
3E8
330
3D7
100
AcDbEntity
  8
0
  6
Continuous
 62
     7
100
AcDbVertex
100
AcDb2dVertex
 10
100.42047
 20
108.52612
 30
0.0
 42
-1.0
  0
SEQEND
  5
3E9
330
3D7
100
AcDbEntity
  8
0
  6
Continuous
 62
     7
  0
POLYLINE
  5
3EA
330
36
100
AcDbEntity
  8
0
  6
Continuous
 62
     7
100
AcDb2dPolyline
 66
     1
 10
0.0
 20
0.0
 30
0.0
  0
VERTEX
  5
3EB
330
3EA
100
AcDbEntity
  8
0
  6
Continuous
 62
     7
100
AcDbVertex
100
AcDb2dVertex
 10
99.22961700000001
 20
89.526123
 30
0.0
 42
0.024548622
  0
VERTEX
  5
3EC
330
3EA
100
AcDbEntity
  8
0
  6
Continuous
 62
     7
100
AcDbVertex
100
AcDb2dVertex
 10
99.23023399999999
 20
89.47711400000001
 30
0.0
 42
0.024548622
  0
VERTEX
  5
3ED
330
3EA
100
AcDbEntity
  8
0
  6
Continuous
 62
     7
100
AcDbVertex
100
AcDb2dVertex
 10
99.232078
 20
89.428578
 30
0.0
 42
0.024548622
  0
VERTEX
  5
3EE
330
3EA
100
AcDbEntity
  8
0
  6
Continuous
 62
     7
100
AcDbVertex
100
AcDb2dVertex
 10
99.235131
 20
89.38098100000001
 30
0.0
 42
0.024548622
  0
VERTEX
  5
3EF
330
3EA
100
AcDbEntity
  8
0
  6
Continuous
 62
     7
100
AcDbVertex
100
AcDb2dVertex
 10
99.239364
 20
89.334781
 30
0.0
 42
0.024548622
  0
VERTEX
  5
3F0
330
3EA
100
AcDbEntity
  8
0
  6
Continuous
 62
     7
100
AcDbVertex
100
AcDb2dVertex
 10
99.244737
 20
89.29042499999999
 30
0.0
 42
0.024548622
  0
VERTEX
  5
3F1
330
3EA
100
AcDbEntity
  8
0
  6
Continuous
 62
     7
100
AcDbVertex
100
AcDb2dVertex
 10
99.25119699999999
 20
89.248338
 30
0.0
 42
0.024548622
  0
VERTEX
  5
3F2
330
3EA
100
AcDbEntity
  8
0
  6
Continuous
 62
     7
100
AcDbVertex
100
AcDb2dVertex
 10
99.25868299999999
 20
89.208926
 30
0.0
 42
0.024548622
  0
VERTEX
  5
3F3
330
3EA
100
AcDbEntity
  8
0
  6
Continuous
 62
     7
100
AcDbVertex
100
AcDb2dVertex
 10
99.267122
 20
89.17256999999999
 30
0.0
 42
0.024548622
  0
VERTEX
  5
3F4
330
3EA
100
AcDbEntity
  8
0
  6
Continuous
 62
     7
100
AcDbVertex
100
AcDb2dVertex
 10
99.27643299999999
 20
89.139618
 30
0.0
 42
0.024548622
  0
VERTEX
  5
3F5
330
3EA
100
AcDbEntity
  8
0
  6
Continuous
 62
     7
100
AcDbVertex
100
AcDb2dVertex
 10
99.28652599999999
 20
89.110388
 30
0.0
 42
0.024548622
  0
VERTEX
  5
3F6
330
3EA
100
AcDbEntity
  8
0
  6
Continuous
 62
     7
100
AcDbVertex
100
AcDb2dVertex
 10
99.297304
 20
89.08516199999999
 30
0.0
 42
0.024548622
  0
VERTEX
  5
3F7
330
3EA
100
AcDbEntity
  8
0
  6
Continuous
 62
     7
100
AcDbVertex
100
AcDb2dVertex
 10
99.30866400000001
 20
89.064183
 30
0.0
 42
0.024548622
  0
VERTEX
  5
3F8
330
3EA
100
AcDbEntity
  8
0
  6
Continuous
 62
     7
100
AcDbVertex
100
AcDb2dVertex
 10
99.32049499999999
 20
89.04765299999999
 30
0.0
 42
0.024548622
  0
VERTEX
  5
3F9
330
3EA
100
AcDbEntity
  8
0
  6
Continuous
 62
     7
100
AcDbVertex
100
AcDb2dVertex
 10
99.332685
 20
89.03572999999999
 30
0.0
 42
0.024548622
  0
VERTEX
  5
3FA
330
3EA
100
AcDbEntity
  8
0
  6
Continuous
 62
     7
100
AcDbVertex
100
AcDb2dVertex
 10
99.34511500000001
 20
89.02853099999999
 30
0.0
 42
0.024548622
  0
VERTEX
  5
3FB
330
3EA
100
AcDbEntity
  8
0
  6
Continuous
 62
     7
100
AcDbVertex
100
AcDb2dVertex
 10
99.357666
 20
89.02612299999999
 30
0.0
 42
-1.0
  0
SEQEND
  5
3FC
330
3EA
100
AcDbEntity
  8
0
  6
Continuous
 62
     7
  0
POLYLINE
  5
3FD
330
36
100
AcDbEntity
  8
0
  6
Continuous
 62
     7
100
AcDb2dPolyline
 66
     1
 10
0.0
 20
0.0
 30
0.0
  0
VERTEX
  5
3FE
330
3FD
100
AcDbEntity
  8
0
  6
Continuous
 62
     7
100
AcDbVertex
100
AcDb2dVertex
 10
61.309437
 20
89.27604
 30
0.0
 42
0.016360933
  0
VERTEX
  5
3FF
330
3FD
100
AcDbEntity
  8
0
  6
Continuous
 62
     7
100
AcDbVertex
100
AcDb2dVertex
 10
61.31386299999999
 20
89.24826299999999
 30
0.0
 42
0.016360933
  0
VERTEX
  5
400
330
3FD
100
AcDbEntity
  8
0
  6
Continuous
 62
     7
100
AcDbVertex
100
AcDb2dVertex
 10
61.318744
 20
89.22167599999999
 30
0.0
 42
0.016360933
  0
VERTEX
  5
401
330
3FD
100
AcDbEntity
  8
0
  6
Continuous
 62
     7
100
AcDbVertex
100
AcDb2dVertex
 10
61.32405999999999
 20
89.196392
 30
0.0
 42
0.016360933
  0
VERTEX
  5
402
330
3FD
100
AcDbEntity
  8
0
  6
Continuous
 62
     7
100
AcDbVertex
100
AcDb2dVertex
 10
61.32978699999999
 20
89.172519
 30
0.0
 42
0.016360933
  0
VERTEX
  5
403
330
3FD
100
AcDbEntity
  8
0
  6
Continuous
 62
     7
100
AcDbVertex
100
AcDb2dVertex
 10
61.335903
 20
89.15015999999999
 30
0.0
 42
0.016360933
  0
VERTEX
  5
404
330
3FD
100
AcDbEntity
  8
0
  6
Continuous
 62
     7
100
AcDbVertex
100
AcDb2dVertex
 10
61.34238
 20
89.12941
 30
0.0
 42
0.016360933
  0
VERTEX
  5
405
330
3FD
100
AcDbEntity
  8
0
  6
Continuous
 62
     7
100
AcDbVertex
100
AcDb2dVertex
 10
61.34919
 20
89.11035799999998
 30
0.0
 42
0.016360933
  0
VERTEX
  5
406
330
3FD
100
AcDbEntity
  8
0
  6
Continuous
 62
     7
100
AcDbVertex
100
AcDb2dVertex
 10
61.35630500000001
 20
89.09308600000001
 30
0.0
 42
0.016360933
  0
VERTEX
  5
407
330
3FD
100
AcDbEntity
  8
0
  6
Continuous
 62
     7
100
AcDbVertex
100
AcDb2dVertex
 10
61.36369399999999
 20
89.077668
 30
0.0
 42
0.016360933
  0
VERTEX
  5
408
330
3FD
100
AcDbEntity
  8
0
  6
Continuous
 62
     7
100
AcDbVertex
100
AcDb2dVertex
 10
61.37132499999999
 20
89.06416999999999
 30
0.0
 42
0.016360933
  0
VERTEX
  5
409
330
3FD
100
AcDbEntity
  8
0
  6
Continuous
 62
     7
100
AcDbVertex
100
AcDb2dVertex
 10
61.379166
 20
89.05264800000001
 30
0.0
 42
0.016360933
  0
VERTEX
  5
40A
330
3FD
100
AcDbEntity
  8
0
  6
Continuous
 62
     7
100
AcDbVertex
100
AcDb2dVertex
 10
61.38718299999999
 20
89.04315399999999
 30
0.0
 42
0.016360933
  0
VERTEX
  5
40B
330
3FD
100
AcDbEntity
  8
0
  6
Continuous
 62
     7
100
AcDbVertex
100
AcDb2dVertex
 10
61.395342
 20
89.03572700000001
 30
0.0
 42
0.016360933
  0
VERTEX
  5
40C
330
3FD
100
AcDbEntity
  8
0
  6
Continuous
 62
     7
100
AcDbVertex
100
AcDb2dVertex
 10
61.40360799999999
 20
89.03039900000001
 30
0.0
 42
0.016360933
  0
VERTEX
  5
40D
330
3FD
100
AcDbEntity
  8
0
  6
Continuous
 62
     7
100
AcDbVertex
100
AcDb2dVertex
 10
61.411945
 20
89.02719300000001
 30
0.0
 42
0.016360933
  0
VERTEX
  5
40E
330
3FD
100
AcDbEntity
  8
0
  6
Continuous
 62
     7
100
AcDbVertex
100
AcDb2dVertex
 10
61.42031899999999
 20
89.02612299999999
 30
0.0
 42
-1.0
  0
SEQEND
  5
40F
330
3FD
100
AcDbEntity
  8
0
  6
Continuous
 62
     7
  0
POLYLINE
  5
410
330
36
100
AcDbEntity
  8
0
  6
Continuous
 62
     7
100
AcDb2dPolyline
 66
     1
 10
0.0
 20
0.0
 30
0.0
  0
VERTEX
  5
411
330
410
100
AcDbEntity
  8
0
  6
Continuous
 62
     7
100
AcDbVertex
100
AcDb2dVertex
 10
99.357666
 20
108.52612
 30
0.0
 42
0.024548622
  0
VERTEX
  5
412
330
410
100
AcDbEntity
  8
0
  6
Continuous
 62
     7
100
AcDbVertex
100
AcDb2dVertex
 10
99.34511500000001
 20
108.52372
 30
0.0
 42
0.024548622
  0
VERTEX
  5
413
330
410
100
AcDbEntity
  8
0
  6
Continuous
 62
     7
100
AcDbVertex
100
AcDb2dVertex
 10
99.332685
 20
108.51652
 30
0.0
 42
0.024548622
  0
VERTEX
  5
414
330
410
100
AcDbEntity
  8
0
  6
Continuous
 62
     7
100
AcDbVertex
100
AcDb2dVertex
 10
99.32049499999999
 20
108.50459
 30
0.0
 42
0.024548622
  0
VERTEX
  5
415
330
410
100
AcDbEntity
  8
0
  6
Continuous
 62
     7
100
AcDbVertex
100
AcDb2dVertex
 10
99.30866400000001
 20
108.48806
 30
0.0
 42
0.024548622
  0
VERTEX
  5
416
330
410
100
AcDbEntity
  8
0
  6
Continuous
 62
     7
100
AcDbVertex
100
AcDb2dVertex
 10
99.297304
 20
108.46708
 30
0.0
 42
0.024548622
  0
VERTEX
  5
417
330
410
100
AcDbEntity
  8
0
  6
Continuous
 62
     7
100
AcDbVertex
100
AcDb2dVertex
 10
99.28652599999999
 20
108.44186
 30
0.0
 42
0.024548622
  0
VERTEX
  5
418
330
410
100
AcDbEntity
  8
0
  6
Continuous
 62
     7
100
AcDbVertex
100
AcDb2dVertex
 10
99.27643299999999
 20
108.41263
 30
0.0
 42
0.024548622
  0
VERTEX
  5
419
330
410
100
AcDbEntity
  8
0
  6
Continuous
 62
     7
100
AcDbVertex
100
AcDb2dVertex
 10
99.267122
 20
108.37968
 30
0.0
 42
0.024548622
  0
VERTEX
  5
41A
330
410
100
AcDbEntity
  8
0
  6
Continuous
 62
     7
100
AcDbVertex
100
AcDb2dVertex
 10
99.25868299999999
 20
108.34332
 30
0.0
 42
0.024548622
  0
VERTEX
  5
41B
330
410
100
AcDbEntity
  8
0
  6
Continuous
 62
     7
100
AcDbVertex
100
AcDb2dVertex
 10
99.25119699999999
 20
108.30391
 30
0.0
 42
0.024548622
  0
VERTEX
  5
41C
330
410
100
AcDbEntity
  8
0
  6
Continuous
 62
     7
100
AcDbVertex
100
AcDb2dVertex
 10
99.244737
 20
108.26182
 30
0.0
 42
0.024548622
  0
VERTEX
  5
41D
330
410
100
AcDbEntity
  8
0
  6
Continuous
 62
     7
100
AcDbVertex
100
AcDb2dVertex
 10
99.239364
 20
108.21746
 30
0.0
 42
0.024548622
  0
VERTEX
  5
41E
330
410
100
AcDbEntity
  8
0
  6
Continuous
 62
     7
100
AcDbVertex
100
AcDb2dVertex
 10
99.235131
 20
108.17127
 30
0.0
 42
0.024548622
  0
VERTEX
  5
41F
330
410
100
AcDbEntity
  8
0
  6
Continuous
 62
     7
100
AcDbVertex
100
AcDb2dVertex
 10
99.232078
 20
108.12367
 30
0.0
 42
0.024548622
  0
VERTEX
  5
420
330
410
100
AcDbEntity
  8
0
  6
Continuous
 62
     7
100
AcDbVertex
100
AcDb2dVertex
 10
99.23023399999999
 20
108.07513
 30
0.0
 42
0.024548622
  0
VERTEX
  5
421
330
410
100
AcDbEntity
  8
0
  6
Continuous
 62
     7
100
AcDbVertex
100
AcDb2dVertex
 10
99.22961700000001
 20
108.02612
 30
0.0
 42
-1.0
  0
SEQEND
  5
422
330
410
100
AcDbEntity
  8
0
  6
Continuous
 62
     7
  0
POLYLINE
  5
423
330
36
100
AcDbEntity
  8
0
  6
Continuous
 62
     7
100
AcDb2dPolyline
 66
     1
 10
0.0
 20
0.0
 30
0.0
  0
VERTEX
  5
424
330
423
100
AcDbEntity
  8
0
  6
Continuous
 62
     7
100
AcDbVertex
100
AcDb2dVertex
 10
61.42031899999999
 20
108.52612
 30
0.0
 42
0.016360933
  0
VERTEX
  5
425
330
423
100
AcDbEntity
  8
0
  6
Continuous
 62
     7
100
AcDbVertex
100
AcDb2dVertex
 10
61.411945
 20
108.52505
 30
0.0
 42
0.016360933
  0
VERTEX
  5
426
330
423
100
AcDbEntity
  8
0
  6
Continuous
 62
     7
100
AcDbVertex
100
AcDb2dVertex
 10
61.40360799999999
 20
108.52185
 30
0.0
 42
0.016360933
  0
VERTEX
  5
427
330
423
100
AcDbEntity
  8
0
  6
Continuous
 62
     7
100
AcDbVertex
100
AcDb2dVertex
 10
61.395342
 20
108.51652
 30
0.0
 42
0.016360933
  0
VERTEX
  5
428
330
423
100
AcDbEntity
  8
0
  6
Continuous
 62
     7
100
AcDbVertex
100
AcDb2dVertex
 10
61.38718299999999
 20
108.50909
 30
0.0
 42
0.016360933
  0
VERTEX
  5
429
330
423
100
AcDbEntity
  8
0
  6
Continuous
 62
     7
100
AcDbVertex
100
AcDb2dVertex
 10
61.379166
 20
108.4996
 30
0.0
 42
0.016360933
  0
VERTEX
  5
42A
330
423
100
AcDbEntity
  8
0
  6
Continuous
 62
     7
100
AcDbVertex
100
AcDb2dVertex
 10
61.37132499999999
 20
108.48808
 30
0.0
 42
0.016360933
  0
VERTEX
  5
42B
330
423
100
AcDbEntity
  8
0
  6
Continuous
 62
     7
100
AcDbVertex
100
AcDb2dVertex
 10
61.36369399999999
 20
108.47458
 30
0.0
 42
0.016360933
  0
VERTEX
  5
42C
330
423
100
AcDbEntity
  8
0
  6
Continuous
 62
     7
100
AcDbVertex
100
AcDb2dVertex
 10
61.35630500000001
 20
108.45916
 30
0.0
 42
0.016360933
  0
VERTEX
  5
42D
330
423
100
AcDbEntity
  8
0
  6
Continuous
 62
     7
100
AcDbVertex
100
AcDb2dVertex
 10
61.34919
 20
108.44189
 30
0.0
 42
0.016360933
  0
VERTEX
  5
42E
330
423
100
AcDbEntity
  8
0
  6
Continuous
 62
     7
100
AcDbVertex
100
AcDb2dVertex
 10
61.34238
 20
108.42284
 30
0.0
 42
0.016360933
  0
VERTEX
  5
42F
330
423
100
AcDbEntity
  8
0
  6
Continuous
 62
     7
100
AcDbVertex
100
AcDb2dVertex
 10
61.335903
 20
108.40209
 30
0.0
 42
0.016360933
  0
VERTEX
  5
430
330
423
100
AcDbEntity
  8
0
  6
Continuous
 62
     7
100
AcDbVertex
100
AcDb2dVertex
 10
61.32978699999999
 20
108.37973
 30
0.0
 42
0.016360933
  0
VERTEX
  5
431
330
423
100
AcDbEntity
  8
0
  6
Continuous
 62
     7
100
AcDbVertex
100
AcDb2dVertex
 10
61.32405999999999
 20
108.35585
 30
0.0
 42
0.016360933
  0
VERTEX
  5
432
330
423
100
AcDbEntity
  8
0
  6
Continuous
 62
     7
100
AcDbVertex
100
AcDb2dVertex
 10
61.318744
 20
108.33057
 30
0.0
 42
0.016360933
  0
VERTEX
  5
433
330
423
100
AcDbEntity
  8
0
  6
Continuous
 62
     7
100
AcDbVertex
100
AcDb2dVertex
 10
61.31386299999999
 20
108.30398
 30
0.0
 42
0.016360933
  0
VERTEX
  5
434
330
423
100
AcDbEntity
  8
0
  6
Continuous
 62
     7
100
AcDbVertex
100
AcDb2dVertex
 10
61.309437
 20
108.27621
 30
0.0
 42
-1.0
  0
SEQEND
  5
435
330
423
100
AcDbEntity
  8
0
  6
Continuous
 62
     7
  0
POLYLINE
  5
436
330
36
100
AcDbEntity
  8
0
  6
Continuous
 62
     7
100
AcDb2dPolyline
 66
     1
 10
0.0
 20
0.0
 30
0.0
  0
VERTEX
  5
437
330
436
100
AcDbEntity
  8
0
  6
Continuous
 62
     7
100
AcDbVertex
100
AcDb2dVertex
 10
62.611173
 20
108.02612
 30
0.0
 42
0.024548622
  0
VERTEX
  5
438
330
436
100
AcDbEntity
  8
0
  6
Continuous
 62
     7
100
AcDbVertex
100
AcDb2dVertex
 10
62.610556
 20
108.07513
 30
0.0
 42
0.024548622
  0
VERTEX
  5
439
330
436
100
AcDbEntity
  8
0
  6
Continuous
 62
     7
100
AcDbVertex
100
AcDb2dVertex
 10
62.608712
 20
108.12367
 30
0.0
 42
0.024548622
  0
VERTEX
  5
43A
330
436
100
AcDbEntity
  8
0
  6
Continuous
 62
     7
100
AcDbVertex
100
AcDb2dVertex
 10
62.60565899999999
 20
108.17127
 30
0.0
 42
0.024548622
  0
VERTEX
  5
43B
330
436
100
AcDbEntity
  8
0
  6
Continuous
 62
     7
100
AcDbVertex
100
AcDb2dVertex
 10
62.601425
 20
108.21746
 30
0.0
 42
0.024548622
  0
VERTEX
  5
43C
330
436
100
AcDbEntity
  8
0
  6
Continuous
 62
     7
100
AcDbVertex
100
AcDb2dVertex
 10
62.596053
 20
108.26182
 30
0.0
 42
0.024548622
  0
VERTEX
  5
43D
330
436
100
AcDbEntity
  8
0
  6
Continuous
 62
     7
100
AcDbVertex
100
AcDb2dVertex
 10
62.589592
 20
108.30391
 30
0.0
 42
0.024548622
  0
VERTEX
  5
43E
330
436
100
AcDbEntity
  8
0
  6
Continuous
 62
     7
100
AcDbVertex
100
AcDb2dVertex
 10
62.58210699999999
 20
108.34332
 30
0.0
 42
0.024548622
  0
VERTEX
  5
43F
330
436
100
AcDbEntity
  8
0
  6
Continuous
 62
     7
100
AcDbVertex
100
AcDb2dVertex
 10
62.573668
 20
108.37968
 30
0.0
 42
0.024548622
  0
VERTEX
  5
440
330
436
100
AcDbEntity
  8
0
  6
Continuous
 62
     7
100
AcDbVertex
100
AcDb2dVertex
 10
62.56435699999999
 20
108.41263
 30
0.0
 42
0.024548622
  0
VERTEX
  5
441
330
436
100
AcDbEntity
  8
0
  6
Continuous
 62
     7
100
AcDbVertex
100
AcDb2dVertex
 10
62.55426400000001
 20
108.44186
 30
0.0
 42
0.024548622
  0
VERTEX
  5
442
330
436
100
AcDbEntity
  8
0
  6
Continuous
 62
     7
100
AcDbVertex
100
AcDb2dVertex
 10
62.543486
 20
108.46708
 30
0.0
 42
0.024548622
  0
VERTEX
  5
443
330
436
100
AcDbEntity
  8
0
  6
Continuous
 62
     7
100
AcDbVertex
100
AcDb2dVertex
 10
62.532126
 20
108.48806
 30
0.0
 42
0.024548622
  0
VERTEX
  5
444
330
436
100
AcDbEntity
  8
0
  6
Continuous
 62
     7
100
AcDbVertex
100
AcDb2dVertex
 10
62.52029399999999
 20
108.50459
 30
0.0
 42
0.024548622
  0
VERTEX
  5
445
330
436
100
AcDbEntity
  8
0
  6
Continuous
 62
     7
100
AcDbVertex
100
AcDb2dVertex
 10
62.508105
 20
108.51652
 30
0.0
 42
0.024548622
  0
VERTEX
  5
446
330
436
100
AcDbEntity
  8
0
  6
Continuous
 62
     7
100
AcDbVertex
100
AcDb2dVertex
 10
62.495675
 20
108.52372
 30
0.0
 42
0.024548622
  0
VERTEX
  5
447
330
436
100
AcDbEntity
  8
0
  6
Continuous
 62
     7
100
AcDbVertex
100
AcDb2dVertex
 10
62.48312399999999
 20
108.52612
 30
0.0
 42
-1.0
  0
SEQEND
  5
448
330
436
100
AcDbEntity
  8
0
  6
Continuous
 62
     7
  0
POLYLINE
  5
449
330
36
100
AcDbEntity
  8
0
  6
Continuous
 62
     7
100
AcDb2dPolyline
 66
     1
 10
0.0
 20
0.0
 30
0.0
  0
VERTEX
  5
44A
330
449
100
AcDbEntity
  8
0
  6
Continuous
 62
     7
100
AcDbVertex
100
AcDb2dVertex
 10
62.48312399999999
 20
89.02612299999999
 30
0.0
 42
0.024548622
  0
VERTEX
  5
44B
330
449
100
AcDbEntity
  8
0
  6
Continuous
 62
     7
100
AcDbVertex
100
AcDb2dVertex
 10
62.495675
 20
89.02853099999999
 30
0.0
 42
0.024548622
  0
VERTEX
  5
44C
330
449
100
AcDbEntity
  8
0
  6
Continuous
 62
     7
100
AcDbVertex
100
AcDb2dVertex
 10
62.508105
 20
89.03572999999999
 30
0.0
 42
0.024548622
  0
VERTEX
  5
44D
330
449
100
AcDbEntity
  8
0
  6
Continuous
 62
     7
100
AcDbVertex
100
AcDb2dVertex
 10
62.52029399999999
 20
89.04765299999999
 30
0.0
 42
0.024548622
  0
VERTEX
  5
44E
330
449
100
AcDbEntity
  8
0
  6
Continuous
 62
     7
100
AcDbVertex
100
AcDb2dVertex
 10
62.532126
 20
89.064183
 30
0.0
 42
0.024548622
  0
VERTEX
  5
44F
330
449
100
AcDbEntity
  8
0
  6
Continuous
 62
     7
100
AcDbVertex
100
AcDb2dVertex
 10
62.543486
 20
89.08516199999999
 30
0.0
 42
0.024548622
  0
VERTEX
  5
450
330
449
100
AcDbEntity
  8
0
  6
Continuous
 62
     7
100
AcDbVertex
100
AcDb2dVertex
 10
62.55426400000001
 20
89.110388
 30
0.0
 42
0.024548622
  0
VERTEX
  5
451
330
449
100
AcDbEntity
  8
0
  6
Continuous
 62
     7
100
AcDbVertex
100
AcDb2dVertex
 10
62.56435699999999
 20
89.139618
 30
0.0
 42
0.024548622
  0
VERTEX
  5
452
330
449
100
AcDbEntity
  8
0
  6
Continuous
 62
     7
100
AcDbVertex
100
AcDb2dVertex
 10
62.573668
 20
89.17256999999999
 30
0.0
 42
0.024548622
  0
VERTEX
  5
453
330
449
100
AcDbEntity
  8
0
  6
Continuous
 62
     7
100
AcDbVertex
100
AcDb2dVertex
 10
62.58210699999999
 20
89.208926
 30
0.0
 42
0.024548622
  0
VERTEX
  5
454
330
449
100
AcDbEntity
  8
0
  6
Continuous
 62
     7
100
AcDbVertex
100
AcDb2dVertex
 10
62.589592
 20
89.248338
 30
0.0
 42
0.024548622
  0
VERTEX
  5
455
330
449
100
AcDbEntity
  8
0
  6
Continuous
 62
     7
100
AcDbVertex
100
AcDb2dVertex
 10
62.596053
 20
89.29042499999999
 30
0.0
 42
0.024548622
  0
VERTEX
  5
456
330
449
100
AcDbEntity
  8
0
  6
Continuous
 62
     7
100
AcDbVertex
100
AcDb2dVertex
 10
62.601425
 20
89.334781
 30
0.0
 42
0.024548622
  0
VERTEX
  5
457
330
449
100
AcDbEntity
  8
0
  6
Continuous
 62
     7
100
AcDbVertex
100
AcDb2dVertex
 10
62.60565899999999
 20
89.38098100000001
 30
0.0
 42
0.024548622
  0
VERTEX
  5
458
330
449
100
AcDbEntity
  8
0
  6
Continuous
 62
     7
100
AcDbVertex
100
AcDb2dVertex
 10
62.608712
 20
89.428578
 30
0.0
 42
0.024548622
  0
VERTEX
  5
459
330
449
100
AcDbEntity
  8
0
  6
Continuous
 62
     7
100
AcDbVertex
100
AcDb2dVertex
 10
62.610556
 20
89.47711400000001
 30
0.0
 42
0.024548622
  0
VERTEX
  5
45A
330
449
100
AcDbEntity
  8
0
  6
Continuous
 62
     7
100
AcDbVertex
100
AcDb2dVertex
 10
62.611173
 20
89.526123
 30
0.0
 42
-1.0
  0
SEQEND
  5
45B
330
449
100
AcDbEntity
  8
0
  6
Continuous
 62
     7
  0
TEXT
  5
45C
330
36
100
AcDbEntity
  8
0
  6
Continuous
 62
     7
100
AcDbText
 10
-205.343
 20
167.4
 30
0.0
 40
3.2
  1
品　名
 41
0.85537027
100
AcDbText
  0
TEXT
  5
45D
330
36
100
AcDbEntity
  8
0
  6
Continuous
 62
     7
100
AcDbText
 10
-205.343
 20
159.4
 30
0.0
 40
3.2
  1
品　番
 41
0.85537027
100
AcDbText
  0
TEXT
  5
45E
330
36
100
AcDbEntity
  8
0
  6
Continuous
 62
     7
100
AcDbText
 10
-205.343
 20
151.4
 30
0.0
 40
3.2
  1
材　質
 41
0.85537027
100
AcDbText
  0
TEXT
  5
45F
330
36
100
AcDbEntity
  8
0
  6
Continuous
 62
     7
100
AcDbText
 10
-205.343
 20
135.4
 30
0.0
 40
3.2
  1
仕上げ
 41
0.85537027
100
AcDbText
  0
TEXT
  5
460
330
36
100
AcDbEntity
  8
0
  6
Continuous
 62
     7
100
AcDbText
 10
-208.543
 20
111.4
 30
0.0
 40
3.2
  1
セットビス
 41
0.84892707
100
AcDbText
  0
TEXT
  5
461
330
36
100
AcDbEntity
  8
0
  6
Continuous
 62
     7
100
AcDbText
 10
-203.743
 20
95.4
 30
0.0
 40
3.2
  1
備考
 41
0.8643907499999999
100
AcDbText
  0
TEXT
  5
462
330
36
100
AcDbEntity
  8
0
  6
Continuous
 62
     7
100
AcDbText
 10
-206.943
 20
119.4
 30
0.0
 40
3.2
  1
左右勝手
 41
0.8512700499999999
100
AcDbText
  0
TEXT
  5
463
330
36
100
AcDbEntity
  8
0
  6
Continuous
 62
     7
100
AcDbText
 10
-188.143
 20
167.4
 30
0.0
 40
3.2
  1
窓用調整器（内開用）
 41
0.8444834799999998
100
AcDbText
  0
TEXT
  5
464
330
36
100
AcDbEntity
  8
0
  6
Continuous
 62
     7
100
AcDbText
 10
-188.143
 20
159.4
 30
0.0
 40
3.2
  1
ＯＳ－２８０
 41
0.84741102
100
AcDbText
  0
TEXT
  5
465
330
36
100
AcDbEntity
  8
0
  6
Continuous
 62
     7
100
AcDbText
 10
-188.37855
 20
119.36617
 30
0.0
 40
3.2
  1
無し
 41
0.8643907499999999
100
AcDbText
  0
TEXT
  5
466
330
36
100
AcDbEntity
  8
0
  6
Continuous
 62
     7
100
AcDbText
 10
-188.10307
 20
151.4
 30
0.0
 40
3.2
  1
ストッパーケース：亜鉛ダイキャスト
 41
0.81330015
100
AcDbText
  0
TEXT
  5
467
330
36
100
AcDbEntity
  8
0
  6
Continuous
 62
     7
100
AcDbText
 10
-188.10307
 20
135.4
 30
0.0
 40
3.2
  1
ストッパーケース：サーチライトニッケルクロム
 41
0.81276443
100
AcDbText
  0
TEXT
  5
468
330
36
100
AcDbEntity
  8
0
  6
Continuous
 62
     7
100
AcDbText
 10
-188.10307
 20
127.4
 30
0.0
 40
3.2
  1
アーム：ヘアーライン／ブラケット：バレル研磨
 41
0.81254725
100
AcDbText
  0
TEXT
  5
469
330
36
100
AcDbEntity
  8
0
  6
Continuous
 62
     7
100
AcDbText
 10
-188.03105
 20
95.4
 30
0.0
 40
3.2
  1
※サッシ形状、開き角度に応じブラケットＡ寸法、
 41
0.7596282
100
AcDbText
  0
TEXT
  5
46A
330
36
100
AcDbEntity
  8
0
  6
Continuous
 62
     7
100
AcDbText
 10
-188.143
 20
111.4
 30
0.0
 40
3.2
  1
Ｍ４×１０ナベ小ネジ＋ＳＵＳ：６本付
 41
0.8426054399999999
100
AcDbText
  0
TEXT
  5
46B
330
36
100
AcDbEntity
  8
0
  6
Continuous
 62
     7
100
AcDbText
 10
-188.03105
 20
87.4
 30
0.0
 40
3.2
  1
　アームＬ寸法を設定致します。
 41
0.76049846
100
AcDbText
  0
TEXT
  5
46C
330
36
100
AcDbEntity
  8
0
  6
Continuous
 62
     7
100
AcDbText
 10
-188.10307
 20
143.4
 30
0.0
 40
3.2
  1
アームステンレス・ブラケット：ステンレス
 41
0.8129460299999999
100
AcDbText
  0
TEXT
  5
46D
330
36
100
AcDbEntity
  8
0
  6
Continuous
 62
     7
100
AcDbText
 10
-188.03105
 20
79.40000000000001
 30
0.0
 40
3.2
  1
受注生産
 41
0.76789575
100
AcDbText
  0
DIMENSION
  5
46E
330
36
100
AcDbEntity
  8
0
  6
Continuous
 62
     7
100
AcDbDimension
  2
*D1
 10
-64.079605
 20
59.776123
 30
0.0
 11
-63.079601
 21
59.776123
 31
0.0
 71
     5
 42
-1.0
  3
DIMSTYLE
100
AcDbAlignedDimension
 13
-62.07960100000001
 23
89.27612299999999
 33
0.0
 14
-64.079605
 24
90.27612299999999
 34
0.0
100
AcDbRotatedDimension
1001
ACAD
1000
DSTYLE
1002
{
1070
    77
1070
     1
1070
   172
1070
     1
1002
}
  0
DIMENSION
  5
46F
330
36
100
AcDbEntity
  8
0
  6
Continuous
 62
     7
100
AcDbDimension
  2
*D2
 10
140.92039
 20
59.776123
 30
0.0
 11
139.92039
 21
59.776123
 31
0.0
 71
     5
 42
-1.0
  3
DIMSTYLE
100
AcDbAlignedDimension
 13
138.92039
 23
89.27612299999999
 33
0.0
 14
140.92039
 24
90.776123
 34
0.0
100
AcDbRotatedDimension
1001
ACAD
1000
DSTYLE
1002
{
1070
    77
1070
     1
1070
   172
1070
     1
1002
}
  0
DIMENSION
  5
470
330
36
100
AcDbEntity
  8
0
  6
Continuous
 62
     7
100
AcDbDimension
  2
*D3
 10
-54.079601
 20
69.776123
 30
0.0
 11
-58.079601
 21
69.776123
 31
0.0
 71
     5
 42
-1.0
  3
DIMSTYLE
100
AcDbAlignedDimension
 13
-62.07960100000001
 23
89.27612299999999
 33
0.0
 14
-54.079601
 24
83.584122
 34
0.0
100
AcDbRotatedDimension
1001
ACAD
1000
DSTYLE
1002
{
1070
    77
1070
     1
1070
   172
1070
     1
1002
}
  0
DIMENSION
  5
471
330
36
100
AcDbEntity
  8
0
  6
Continuous
 62
     7
100
AcDbDimension
  2
*D4
 10
138.92039
 20
69.776123
 30
0.0
 11
134.92039
 21
69.776123
 31
0.0
 71
     5
 42
-1.0
  3
DIMSTYLE
100
AcDbAlignedDimension
 13
130.92039
 23
83.584122
 33
0.0
 14
138.92039
 24
89.27612299999999
 34
0.0
100
AcDbRotatedDimension
1001
ACAD
1000
DSTYLE
1002
{
1070
    77
1070
     1
1070
   172
1070
     1
1002
}
  0
DIMENSION
  5
472
330
36
100
AcDbEntity
  8
0
  6
Continuous
 62
     7
100
AcDbDimension
  2
*D5
 10
138.92039
 20
59.776123
 30
0.0
 11
38.42039899999999
 21
59.776123
 31
0.0
 71
     5
 42
-1.0
  3
DIMSTYLE
100
AcDbAlignedDimension
 13
-62.07960100000001
 23
89.27612299999999
 33
0.0
 14
138.92039
 24
89.27612299999999
 34
0.0
100
AcDbRotatedDimension
1001
ACAD
1000
DSTYLE
1002
{
1070
    77
1070
     1
1070
   172
1070
     1
1002
}
  0
DIMENSION
  5
473
330
36
100
AcDbEntity
  8
0
  6
Continuous
 62
     7
100
AcDbDimension
  2
*D6
 10
51.993244
 20
108.27612
 30
0.0
 11
51.993244
 21
118.24976
 31
0.0
 71
     5
 42
-1.0
  3
DIMSTYLE
100
AcDbAlignedDimension
 13
64.7285
 23
89.27612299999999
 33
0.0
 14
64.7285
 24
108.27612
 34
0.0
 50
90.0
100
AcDbRotatedDimension
1001
ACAD
1000
DSTYLE
1002
{
1070
    77
1070
     1
1070
   172
1070
     1
1070
    75
1070
     1
1070
    76
1070
     1
1002
}
  0
DIMENSION
  5
474
330
36
100
AcDbEntity
  8
0
  6
Continuous
 62
     7
100
AcDbDimension
  2
*D7
 10
33.588341
 20
84.776123
 30
0.0
 11
33.588341
 21
118.24976
 31
0.0
 71
     5
 42
-1.0
  3
DIMSTYLE
100
AcDbAlignedDimension
 13
62.670399
 23
112.77612
 33
0.0
 14
62.670399
 24
84.776123
 34
0.0
 50
90.0
100
AcDbRotatedDimension
1001
ACAD
1000
DSTYLE
1002
{
1070
    77
1070
     1
1070
   172
1070
     1
1002
}
  0
DIMENSION
  5
475
330
36
100
AcDbEntity
  8
0
  6
Continuous
 62
     7
100
AcDbDimension
  2
*D8
 10
-89.07960499999999
 20
25.276117
 30
0.0
 11
-89.07960499999999
 21
22.776117
 31
0.0
 71
     5
 42
-1.0
  3
DIMSTYLE
100
AcDbAlignedDimension
 13
-74.410599
 23
20.276117
 33
0.0
 14
-79.079605
 24
25.276117
 34
0.0
 50
90.0
100
AcDbRotatedDimension
1001
ACAD
1000
DSTYLE
1002
{
1070
    77
1070
     1
1070
   172
1070
     1
1002
}
  0
DIMENSION
  5
476
330
36
100
AcDbEntity
  8
0
  6
Continuous
 62
     7
100
AcDbDimension
  2
*D9
 10
-89.07960499999999
 20
10.276117
 30
0.0
 11
-89.07960499999999
 21
15.276117
 31
0.0
 71
     5
 42
-1.0
  3
DIMSTYLE
100
AcDbAlignedDimension
 13
-74.410599
 23
20.276117
 33
0.0
 14
-74.410599
 24
10.276117
 34
0.0
 50
90.0
100
AcDbRotatedDimension
1001
ACAD
1000
DSTYLE
1002
{
1070
    77
1070
     1
1070
   172
1070
     1
1070
    75
1070
     1
1002
}
  0
DIMENSION
  5
477
330
36
100
AcDbEntity
  8
0
  6
Continuous
 62
     7
100
AcDbDimension
  2
*D10
 10
-89.07960499999999
 20
2.7761195
 30
0.0
 11
-89.07960499999999
 21
6.526118299999999
 31
0.0
 71
     5
 42
-1.0
  3
DIMSTYLE
100
AcDbAlignedDimension
 13
-74.410599
 23
10.276117
 33
0.0
 14
-79.079605
 24
2.7761195
 34
0.0
 50
90.0
100
AcDbRotatedDimension
1001
ACAD
1000
DSTYLE
1002
{
1070
    77
1070
     1
1070
   172
1070
     1
1070
    75
1070
     1
1002
}
  0
DIMENSION
  5
478
330
36
100
AcDbEntity
  8
0
  6
Continuous
 62
     7
100
AcDbDimension
  2
*D11
 10
-89.07960499999999
 20
0.27611941
 30
0.0
 11
-89.07960499999999
 21
-4.265521499999999
 31
0.0
 71
     5
 42
-1.0
  3
DIMSTYLE
100
AcDbAlignedDimension
 13
-79.079605
 23
2.7761195
 33
0.0
 14
-79.079605
 24
0.27611941
 34
0.0
 50
90.0
100
AcDbRotatedDimension
1001
ACAD
1000
DSTYLE
1002
{
1070
    77
1070
     1
1070
   172
1070
     1
1070
    75
1070
     1
1002
}
  0
DIMENSION
  5
479
330
36
100
AcDbEntity
  8
0
  6
Continuous
 62
     7
100
AcDbDimension
  2
*D12
 10
-99.07960500000001
 20
25.276117
 30
0.0
 11
-99.07960500000001
 21
12.776118
 31
0.0
 71
     5
 42
-1.0
  3
DIMSTYLE
100
AcDbAlignedDimension
 13
-79.079605
 23
0.27611941
 33
0.0
 14
-79.079605
 24
25.276117
 34
0.0
 50
90.0
100
AcDbRotatedDimension
1001
ACAD
1000
DSTYLE
1002
{
1070
    77
1070
     1
1070
   172
1070
     1
1002
}
  0
DIMENSION
  5
47A
330
36
100
AcDbEntity
  8
0
  6
Continuous
 62
     7
100
AcDbDimension
  2
*D13
 10
-29.079601
 20
-43.723881
 30
0.0
 11
-33.57960100000001
 21
-43.723881
 31
0.0
 71
     5
 42
-1.0
  3
DIMSTYLE
100
AcDbAlignedDimension
 13
-38.07960100000001
 23
5.6921177
 33
0.0
 14
-29.079601
 24
0.27611941
 34
0.0
100
AcDbRotatedDimension
1001
ACAD
1000
DSTYLE
1002
{
1070
    77
1070
     1
1070
   172
1070
     1
1002
}
  0
DIMENSION
  5
47B
330
36
100
AcDbEntity
  8
0
  6
Continuous
 62
     7
100
AcDbDimension
  2
*D14
 10
-70.079605
 20
-43.723881
 30
0.0
 11
-54.079601
 21
-43.723881
 31
0.0
 71
     5
 42
-1.0
  3
DIMSTYLE
100
AcDbAlignedDimension
 13
-38.07960100000001
 23
5.6921177
 33
0.0
 14
-70.079605
 24
5.6921177
 34
0.0
100
AcDbRotatedDimension
1001
ACAD
1000
DSTYLE
1002
{
1070
    77
1070
     1
1070
   172
1070
     1
1070
    75
1070
     1
1002
}
  0
DIMENSION
  5
47C
330
36
100
AcDbEntity
  8
0
  6
Continuous
 62
     7
100
AcDbDimension
  2
*D15
 10
-79.079605
 20
-43.723881
 30
0.0
 11
-74.579605
 21
-43.723881
 31
0.0
 71
     5
 42
-1.0
  3
DIMSTYLE
100
AcDbAlignedDimension
 13
-70.079605
 23
5.6921177
 33
0.0
 14
-79.079605
 24
0.27611941
 34
0.0
100
AcDbRotatedDimension
1001
ACAD
1000
DSTYLE
1002
{
1070
    77
1070
     1
1070
   172
1070
     1
1070
    75
1070
     1
1002
}
  0
DIMENSION
  5
47D
330
36
100
AcDbEntity
  8
0
  6
Continuous
 62
     7
100
AcDbDimension
  2
*D16
 10
-15.079602
 20
-43.723881
 30
0.0
 11
-19.579601
 21
-43.723881
 31
0.0
 71
     5
 42
-1.0
  3
DIMSTYLE
100
AcDbAlignedDimension
 13
-24.079601
 23
-28.723881
 33
0.0
 14
-15.079602
 24
-28.723881
 34
0.0
100
AcDbRotatedDimension
1001
ACAD
1000
DSTYLE
1002
{
1070
    77
1070
     1
1070
   172
1070
     1
1002
}
  0
DIMENSION
  5
47E
330
36
100
AcDbEntity
  8
0
  6
Continuous
 62
     7
100
AcDbDimension
  2
*D17
 10
16.920399
 20
-43.723881
 30
0.0
 11
0.9203979999999999
 21
-43.723881
 31
0.0
 71
     5
 42
-1.0
  3
DIMSTYLE
100
AcDbAlignedDimension
 13
-15.079602
 23
-28.723881
 33
0.0
 14
16.920399
 24
-28.223881
 34
0.0
100
AcDbRotatedDimension
1001
ACAD
1000
DSTYLE
1002
{
1070
    77
1070
     1
1070
   172
1070
     1
1070
    75
1070
     1
1002
}
  0
DIMENSION
  5
47F
330
36
100
AcDbEntity
  8
0
  6
Continuous
 62
     7
100
AcDbDimension
  2
*D18
 10
25.920399
 20
-43.723881
 30
0.0
 11
21.420399
 21
-43.723881
 31
0.0
 71
     5
 42
-1.0
  3
DIMSTYLE
100
AcDbAlignedDimension
 13
16.920399
 23
-28.223881
 33
0.0
 14
25.920399
 24
-28.723881
 34
0.0
100
AcDbRotatedDimension
1001
ACAD
1000
DSTYLE
1002
{
1070
    77
1070
     1
1070
   172
1070
     1
1070
    75
1070
     1
1002
}
  0
DIMENSION
  5
480
330
36
100
AcDbEntity
  8
0
  6
Continuous
 62
     7
100
AcDbDimension
  2
*D19
 10
-29.079601
 20
-53.72388100000001
 30
0.0
 11
-54.079601
 21
-53.72388100000001
 31
0.0
 71
     5
 42
-1.0
  3
DIMSTYLE
100
AcDbAlignedDimension
 13
-79.079605
 23
0.27611941
 33
0.0
 14
-29.079601
 24
0.27611941
 34
0.0
100
AcDbRotatedDimension
1001
ACAD
1000
DSTYLE
1002
{
1070
    77
1070
     1
1070
   172
1070
     1
1002
}
  0
DIMENSION
  5
481
330
36
100
AcDbEntity
  8
0
  6
Continuous
 62
     7
100
AcDbDimension
  2
*D20
 10
25.920399
 20
-53.72388100000001
 30
0.0
 11
0.9203979999999999
 21
-53.72388100000001
 31
0.0
 71
     5
 42
-1.0
  3
DIMSTYLE
100
AcDbAlignedDimension
 13
-24.079601
 23
-28.723881
 33
0.0
 14
25.920399
 24
-28.723881
 34
0.0
100
AcDbRotatedDimension
1001
ACAD
1000
DSTYLE
1002
{
1070
    77
1070
     1
1070
   172
1070
     1
1002
}
  0
DIMENSION
  5
482
330
36
100
AcDbEntity
  8
0
  6
Continuous
 62
     7
100
AcDbDimension
  2
*D21
 10
-99.07960500000001
 20
0.27611941
 30
0.0
 11
-99.07960500000001
 21
-14.223881
 31
0.0
 71
     5
 42
-1.0
  3
DIMSTYLE
100
AcDbAlignedDimension
 13
-24.079601
 23
-28.723881
 33
0.0
 14
-79.079605
 24
0.27611941
 34
0.0
 50
90.0
100
AcDbRotatedDimension
1001
ACAD
1000
DSTYLE
1002
{
1070
    77
1070
     1
1070
   172
1070
     1
1070
    76
1070
     1
1002
}
  0
DIMENSION
  5
483
330
36
100
AcDbEntity
  8
0
  6
Continuous
 62
     7
100
AcDbDimension
  2
*D22
 10
40.92039899999999
 20
-24.723881
 30
0.0
 11
40.92039899999999
 21
-26.723881
 31
0.0
 71
     5
 42
-1.0
  3
DIMSTYLE
100
AcDbAlignedDimension
 13
25.920399
 23
-28.723881
 33
0.0
 14
21.942402
 24
-24.723881
 34
0.0
 50
90.0
100
AcDbRotatedDimension
1001
ACAD
1000
DSTYLE
1002
{
1070
    77
1070
     1
1070
   172
1070
     1
1002
}
  0
DIMENSION
  5
484
330
36
100
AcDbEntity
  8
0
  6
Continuous
 62
     7
100
AcDbDimension
  2
*D23
 10
40.92039899999999
 20
-13.723881
 30
0.0
 11
40.92039899999999
 21
-3.4651718
 31
0.0
 71
     5
 42
-1.0
  3
DIMSTYLE
100
AcDbAlignedDimension
 13
25.920399
 23
-16.223881
 33
0.0
 14
25.920399
 24
-13.723881
 34
0.0
 50
90.0
100
AcDbRotatedDimension
1001
ACAD
1000
DSTYLE
1002
{
1070
    77
1070
     1
1070
   172
1070
     1
1070
    75
1070
     1
1002
}
  0
DIMENSION
  5
485
330
36
100
AcDbEntity
  8
0
  6
Continuous
 62
     7
100
AcDbDimension
  2
*D24
 10
50.92039899999999
 20
-13.723881
 30
0.0
 11
50.92039899999999
 21
-21.223881
 31
0.0
 71
     5
 42
-1.0
  3
DIMSTYLE
100
AcDbAlignedDimension
 13
25.920399
 23
-28.723881
 33
0.0
 14
25.920399
 24
-13.723881
 34
0.0
 50
90.0
100
AcDbRotatedDimension
1001
ACAD
1000
DSTYLE
1002
{
1070
    77
1070
     1
1070
   172
1070
     1
1002
}
  0
POLYLINE
  5
486
330
36
100
AcDbEntity
  8
0
  6
Continuous
 62
     7
100
AcDb2dPolyline
 66
     1
 10
0.0
 20
0.0
 30
0.0
  0
VERTEX
  5
487
330
486
100
AcDbEntity
  8
0
  6
Continuous
 62
     7
100
AcDbVertex
100
AcDb2dVertex
 10
50.92039899999999
 20
-13.223882
 30
0.0
  0
VERTEX
  5
488
330
486
100
AcDbEntity
  8
0
  6
Continuous
 62
     7
100
AcDbVertex
100
AcDb2dVertex
 10
58.28400799999999
 20
-17.475264
 30
0.0
  0
VERTEX
  5
489
330
486
100
AcDbEntity
  8
0
  6
Continuous
 62
     7
100
AcDbVertex
100
AcDb2dVertex
 10
58.28400799999999
 20
-21.691935
 30
0.0
  0
SEQEND
  5
48A
330
486
100
AcDbEntity
  8
0
  6
Continuous
 62
     7
  0
LINE
  5
48B
330
36
100
AcDbEntity
  8
0
  6
Continuous
 62
     7
100
AcDbLine
 10
50.92039899999999
 20
-13.223882
 30
0.0
 11
53.91032599999999
 21
-14.301175
 31
0.0
  0
LINE
  5
48C
330
36
100
AcDbEntity
  8
0
  6
Continuous
 62
     7
100
AcDbLine
 10
50.92039899999999
 20
-13.223882
 30
0.0
 11
53.348326
 21
-15.274588
 31
0.0
  0
TEXT
  5
48D
330
36
100
AcDbEntity
  8
0
  6
Continuous
 62
     7
100
AcDbText
 10
57.48400799999999
 20
-21.691935
 30
0.0
 40
3.2
  1
1
 50
90.00000300000001
 41
0.6666666700000001
100
AcDbText
  0
DIMENSION
  5
48E
330
36
100
AcDbEntity
  8
0
  6
Continuous
 62
     7
100
AcDbDimension
  2
*D25
 10
50.92039899999999
 20
-12.723881
 30
0.0
 11
58.28400799999999
 21
-20.548935
 31
0.0
 71
     5
 42
-1.0
  3
DIMSTYLE
100
AcDbAlignedDimension
 13
25.920399
 23
-13.723881
 33
0.0
 14
88.920395
 24
-12.723881
 34
0.0
 50
90.0
100
AcDbRotatedDimension
1001
ACAD
1000
DSTYLE
1002
{
1070
    77
1070
     1
1070
   172
1070
     1
1070
    75
1070
     1
1070
    76
1070
     1
1002
}
  0
DIMENSION
  5
48F
330
36
100
AcDbEntity
  8
0
  6
Continuous
 62
     7
100
AcDbDimension
  2
*D26
 10
52.420387
 20
3.7761195
 30
0.0
 11
52.420387
 21
-1.223880599999999
 31
0.0
 71
     5
 42
-1.0
  3
DIMSTYLE
100
AcDbAlignedDimension
 13
60.920391
 23
-6.223880799999999
 33
0.0
 14
62.611897
 24
3.7761195
 34
0.0
 50
90.0
100
AcDbRotatedDimension
1001
ACAD
1000
DSTYLE
1002
{
1070
    77
1070
     1
1070
   172
1070
     1
1070
    76
1070
     1
1002
}
  0
DIMENSION
  5
490
330
36
100
AcDbEntity
  8
0
  6
Continuous
 62
     7
100
AcDbDimension
  2
*D27
 10
52.420387
 20
13.776117
 30
0.0
 11
52.420387
 21
8.7761183
 31
0.0
 71
     5
 42
-1.0
  3
DIMSTYLE
100
AcDbAlignedDimension
 13
62.611897
 23
3.7761195
 33
0.0
 14
63.810505
 24
13.776117
 34
0.0
 50
90.0
100
AcDbRotatedDimension
1001
ACAD
1000
DSTYLE
1002
{
1070
    77
1070
     1
1070
   172
1070
     1
1070
    75
1070
     1
1070
    76
1070
     1
1002
}
  0
DIMENSION
  5
491
330
36
100
AcDbEntity
  8
0
  6
Continuous
 62
     7
100
AcDbDimension
  2
*D28
 10
52.420387
 20
22.976114
 30
0.0
 11
52.420387
 21
18.376116
 31
0.0
 71
     5
 42
-1.0
  3
DIMSTYLE
100
AcDbAlignedDimension
 13
63.810505
 23
13.776117
 33
0.0
 14
72.60038
 24
22.976114
 34
0.0
 50
90.0
100
AcDbRotatedDimension
1001
ACAD
1000
DSTYLE
1002
{
1070
    77
1070
     1
1070
   172
1070
     1
1070
    75
1070
     1
1002
}
  0
DIMENSION
  5
492
330
36
100
AcDbEntity
  8
0
  6
Continuous
 62
     7
100
AcDbDimension
  2
*D29
 10
52.420387
 20
28.976114
 30
0.0
 11
52.420387
 21
25.976114
 31
0.0
 71
     5
 42
-1.0
  3
DIMSTYLE
100
AcDbAlignedDimension
 13
67.694992
 23
22.976114
 33
0.0
 14
74.72041299999999
 24
28.976114
 34
0.0
 50
90.0
100
AcDbRotatedDimension
1001
ACAD
1000
DSTYLE
1002
{
1070
    77
1070
     1
1070
   172
1070
     1
1070
    75
1070
     1
1002
}
  0
DIMENSION
  5
493
330
36
100
AcDbEntity
  8
0
  6
Continuous
 62
     7
100
AcDbDimension
  2
*D30
 10
-137.07961
 20
50.276123
 30
0.0
 11
-147.07961
 21
50.276123
 31
0.0
 71
     5
 42
-1.0
  3
DIMSTYLE
100
AcDbAlignedDimension
 13
-157.07961
 23
40.276123
 33
0.0
 14
-137.07961
 24
34.461117
 34
0.0
100
AcDbRotatedDimension
1001
ACAD
1000
DSTYLE
1002
{
1070
    77
1070
     1
1070
   172
1070
     1
1002
}
  0
DIMENSION
  5
494
330
36
100
AcDbEntity
  8
0
  6
Continuous
 62
     7
100
AcDbDimension
  2
*D31
 10
-137.07961
 20
-43.723881
 30
0.0
 11
-146.07961
 21
-43.723881
 31
0.0
 71
     5
 42
-1.0
  3
DIMSTYLE
100
AcDbAlignedDimension
 13
-155.07961
 23
-28.723881
 33
0.0
 14
-137.07961
 24
-26.730579
 34
0.0
100
AcDbRotatedDimension
1001
ACAD
1000
DSTYLE
1002
{
1070
    77
1070
     1
1070
   172
1070
     1
1070
    75
1070
     1
1002
}
  0
INSERT
  5
495
330
36
100
AcDbEntity
  8
0
  6
Continuous
 62
     7
100
AcDbBlockReference
  2
KOZU0001
 10
-70.079605
 20
15.276119
 30
0.0
  0
INSERT
  5
496
330
36
100
AcDbEntity
  8
0
  6
Continuous
 62
     7
100
AcDbBlockReference
  2
KOZU0002
 10
16.920399
 20
-22.473881
 30
0.0
  0
DIMENSION
  5
497
330
36
100
AcDbEntity
  8
0
  6
Continuous
 62
     7
100
AcDbDimension
  2
*D32
 10
80.920395
 20
126.77612
 30
0.0
 11
40.920395
 21
126.77612
 31
0.0
 71
     5
 42
-1.0
  3
DIMSTYLE
100
AcDbAlignedDimension
 13
0.9203979999999999
 23
120.90812
 33
0.0
 14
80.920395
 24
121.39312
 34
0.0
100
AcDbRotatedDimension
1001
ACAD
1000
DSTYLE
1002
{
1070
    77
1070
     1
1070
   172
1070
     1
1002
}
  0
DIMENSION
  5
498
330
36
100
AcDbEntity
  8
0
  6
Continuous
 62
     7
100
AcDbDimension
  2
*D33
 10
40.92039899999999
 20
-24.723881
 30
0.0
 11
40.92039899999999
 21
-22.723881
 31
0.0
 71
     5
 42
-1.0
  3
DIMSTYLE
100
AcDbAlignedDimension
 13
21.942402
 23
-20.723881
 33
0.0
 14
21.942402
 24
-24.723881
 34
0.0
 50
90.0
100
AcDbRotatedDimension
1001
ACAD
1000
DSTYLE
1002
{
1070
    77
1070
     1
1070
   172
1070
     1
1070
    76
1070
     1
1002
}
  0
POLYLINE
  5
499
330
36
100
AcDbEntity
  8
0
  6
Continuous
 62
     7
100
AcDb2dPolyline
 66
     1
 10
0.0
 20
0.0
 30
0.0
  0
VERTEX
  5
49A
330
499
100
AcDbEntity
  8
0
  6
Continuous
 62
     7
100
AcDbVertex
100
AcDb2dVertex
 10
40.92039899999999
 20
-18.473881
 30
0.0
  0
VERTEX
  5
49B
330
499
100
AcDbEntity
  8
0
  6
Continuous
 62
     7
100
AcDbVertex
100
AcDb2dVertex
 10
44.792721
 20
-20.709566
 30
0.0
  0
VERTEX
  5
49C
330
499
100
AcDbEntity
  8
0
  6
Continuous
 62
     7
100
AcDbVertex
100
AcDb2dVertex
 10
44.792721
 20
-39.735458
 30
0.0
  0
SEQEND
  5
49D
330
499
100
AcDbEntity
  8
0
  6
Continuous
 62
     7
  0
LINE
  5
49E
330
36
100
AcDbEntity
  8
0
  6
Continuous
 62
     7
100
AcDbLine
 10
40.92039899999999
 20
-18.473881
 30
0.0
 11
43.91032599999999
 21
-19.551174
 31
0.0
  0
LINE
  5
49F
330
36
100
AcDbEntity
  8
0
  6
Continuous
 62
     7
100
AcDbLine
 10
40.92039899999999
 20
-18.473881
 30
0.0
 11
43.348326
 21
-20.524587
 31
0.0
  0
TEXT
  5
4A0
330
36
100
AcDbEntity
  8
0
  6
Continuous
 62
     7
100
AcDbText
 10
43.992721
 20
-40.05545999999999
 30
0.0
 40
3.2
  1
4.5
 50
90.00000300000001
 41
1.357187499999999
100
AcDbText
  0
DIMENSION
  5
4A1
330
36
100
AcDbEntity
  8
0
  6
Continuous
 62
     7
100
AcDbDimension
  2
*D34
 10
40.92039899999999
 20
-16.223881
 30
0.0
 11
44.792721
 21
-35.71246
 31
0.0
 71
     5
 42
-1.0
  3
DIMSTYLE
100
AcDbAlignedDimension
 13
21.942402
 23
-20.723881
 33
0.0
 14
25.920399
 24
-16.223881
 34
0.0
 50
90.0
100
AcDbRotatedDimension
1001
ACAD
1000
DSTYLE
1002
{
1070
    77
1070
     1
1070
   172
1070
     1
1002
}
  0
DIMENSION
  5
4A2
330
36
100
AcDbEntity
  8
0
  6
Continuous
 62
     7
100
AcDbDimension
  2
*D35
 10
42.93458199999999
 20
108.7761399999999
 30
0.0
 11
42.93458199999999
 21
118.53734
 31
0.0
 71
     5
 42
-1.0
  3
DIMSTYLE
100
AcDbAlignedDimension
 13
60.838913
 23
88.776062
 33
0.0
 14
60.838913
 24
108.7761399999999
 34
0.0
 50
90.0
100
AcDbRotatedDimension
1001
ACAD
1000
DSTYLE
1002
{
1070
    77
1070
     1
1070
   172
1070
     1
1070
    75
1070
     1
1070
    76
1070
     1
1002
}
  0
DIMENSION
  5
4A3
330
36
100
AcDbEntity
  8
0
  6
Continuous
 62
     7
100
AcDbDimension
  2
*D36
 10
100.92039
 20
70.04956800000001
 30
0.0
 11
80.920395
 21
70.04956800000001
 31
0.0
 71
     5
 42
-1.0
  3
DIMSTYLE
100
AcDbAlignedDimension
 13
60.92039499999999
 23
85.47611999999999
 33
0.0
 14
100.92039
 24
85.47611999999999
 34
0.0
100
AcDbRotatedDimension
1001
ACAD
1000
DSTYLE
1002
{
1070
    77
1070
     1
1070
   172
1070
     1
1002
}
  0
DIMENSION
  5
4A4
330
36
100
AcDbEntity
  8
0
  6
Continuous
 62
     7
100
AcDbDimension
  2
*D37
 10
50.92039899999999
 20
-8.723880799999999
 30
0.0
 11
50.92039899999999
 21
-10.723881
 31
0.0
 71
     5
 42
-1.0
  3
DIMSTYLE
100
AcDbAlignedDimension
 13
90.920395
 23
-12.723881
 33
0.0
 14
90.920395
 24
-8.723880799999999
 34
0.0
 50
90.0
100
AcDbRotatedDimension
1001
ACAD
1000
DSTYLE
1002
{
1070
    77
1070
     1
1070
   172
1070
     1
1070
    75
1070
     1
1070
    76
1070
     1
1002
}
  0
ENDSEC
  0
SECTION
  2
OBJECTS
  0
DICTIONARY
  5
C
330
0
100
AcDbDictionary
281
     1
  3
ACAD_COLOR
350
2F
  3
ACAD_GROUP
350
D
  3
ACAD_LAYOUT
350
2E
  3
ACAD_MATERIAL
350
10
  3
ACAD_MLINESTYLE
350
2B
  3
ACAD_PLOTSETTINGS
350
2D
  3
ACAD_PLOTSTYLENAME
350
E
  3
ACAD_TABLESTYLE
350
30
  3
ACAD_VISUALSTYLE
350
14
  3
AcDbVariableDictionary
350
55A
  3
AcmDictionary
350
4FF
  3
AMG
350
4A6
  3
AMGSNAPSETTINGS
350
540
  3
DWGPROPS
350
55F
  0
DICTIONARY
  5
2F
102
{ACAD_REACTORS
330
C
102
}
330
C
100
AcDbDictionary
281
     1
  0
DICTIONARY
  5
D
102
{ACAD_REACTORS
330
C
102
}
330
C
100
AcDbDictionary
281
     1
  0
DICTIONARY
  5
2E
102
{ACAD_REACTORS
330
C
102
}
330
C
100
AcDbDictionary
281
     1
  3
Model
350
39
  3
レイアウト1
350
35
  0
DICTIONARY
  5
10
102
{ACAD_REACTORS
330
C
102
}
330
C
100
AcDbDictionary
281
     1
  3
ByBlock
350
12
  3
ByLayer
350
11
  3
Global
350
13
  0
DICTIONARY
  5
2B
102
{ACAD_REACTORS
330
C
102
}
330
C
100
AcDbDictionary
281
     1
  3
Standard
350
2C
  0
DICTIONARY
  5
2D
102
{ACAD_REACTORS
330
C
102
}
330
C
100
AcDbDictionary
281
     1
  0
ACDBDICTIONARYWDFLT
  5
E
102
{ACAD_REACTORS
330
C
102
}
330
C
100
AcDbDictionary
281
     1
  3
Normal
350
F
100
AcDbDictionaryWithDefault
340
F
  0
DICTIONARY
  5
30
102
{ACAD_REACTORS
330
C
102
}
330
C
100
AcDbDictionary
281
     1
  3
Standard
350
31
  0
DICTIONARY
  5
14
102
{ACAD_REACTORS
330
C
102
}
330
C
100
AcDbDictionary
281
     1
  3
2dWireframe
350
1A
  3
3D Hidden
350
1C
  3
3dWireframe
350
1B
  3
Basic
350
19
  3
Brighten
350
20
  3
ColorChange
350
24
  3
Conceptual
350
1D
  3
Dim
350
1F
  3
Facepattern
350
23
  3
Flat
350
15
  3
FlatWithEdges
350
16
  3
Gouraud
350
17
  3
GouraudWithEdges
350
18
  3
Linepattern
350
22
  3
Realistic
350
1E
  3
Thicken
350
21
  0
DICTIONARY
  5
55A
102
{ACAD_REACTORS
330
C
102
}
330
C
100
AcDbDictionary
281
     1
  3
CTABLESTYLE
350
55B
  3
DIMASSOC
350
55E
  3
INDEXCTL
350
55D
  3
SORTENTS
350
55C
  0
DICTIONARY
  5
4FF
102
{ACAD_REACTORS
330
C
102
}
330
C
100
AcDbDictionary
281
     1
  3
AcmStdDictionary
350
50A
  3
AMDTSECTSYM_ARROWCOLOR
350
52B
  0
DICTIONARY
  5
4A6
102
{ACAD_REACTORS
330
C
102
}
330
C
100
AcDbDictionary
281
     1
  0
DICTIONARY
  5
540
102
{ACAD_REACTORS
330
C
102
}
330
C
100
AcDbDictionary
281
     1
  0
XRECORD
  5
55F
102
{ACAD_REACTORS
330
C
102
}
330
C
100
AcDbXrecord
280
     1
  1
DWGPROPS COOKIE
  2

  3

  4

  6

  7

  8
Administrator
  9

300
=
301
=
302
=
303
=
304
=
305
=
306
=
307
=
308
=
309
=
 40
0.0005459722222222
 41
2454218.401496123
 42
2454218.402041551
  1

 90
        0
  0
LAYOUT
  5
39
102
{ACAD_XDICTIONARY
360
56A
102
}
102
{ACAD_REACTORS
330
2E
102
}
330
2E
100
AcDbPlotSettings
  1

  2
\\CAD-SRV01\FX DocuColor 1250 PLW
  4

  6

 40
0.0
 41
0.0
 42
0.0
 43
0.0
 44
0.0
 45
0.0
 46
0.0
 47
0.0
 48
0.0
 49
0.0
140
0.0
141
0.0
142
1.0
143
1.0
 70
  1712
 72
     0
 73
     0
 74
     0
  7

 75
     0
147
1.0
148
0.0
149
0.0
100
AcDbLayout
  1
Model
 70
     1
 71
     0
 10
0.0
 20
0.0
 11
12.0
 21
9.0
 12
0.0
 22
0.0
 32
0.0
 14
0.0
 24
0.0
 34
0.0
 15
0.0
 25
0.0
 35
0.0
146
0.0
 13
0.0
 23
0.0
 33
0.0
 16
1.0
 26
0.0
 36
0.0
 17
0.0
 27
1.0
 37
0.0
 76
     0
330
36
331
45
  0
LAYOUT
  5
35
102
{ACAD_XDICTIONARY
360
568
102
}
102
{ACAD_REACTORS
330
2E
102
}
330
2E
100
AcDbPlotSettings
  1

  2
\\CAD-SRV01\FX DocuColor 1250 PLW
  4

  6

 40
0.0
 41
0.0
 42
0.0
 43
0.0
 44
0.0
 45
0.0
 46
0.0
 47
0.0
 48
0.0
 49
0.0
140
0.0
141
0.0
142
1.0
143
1.0
 70
   688
 72
     0
 73
     0
 74
     5
  7

 75
    16
147
1.0
148
0.0
149
0.0
100
AcDbLayout
  1
レイアウト1
 70
     1
 71
     1
 10
-211.0
 20
-100.0
 11
170.0
 21
173.0
 12
0.0
 22
0.0
 32
0.0
 14
1.000000000000000E+20
 24
1.000000000000000E+20
 34
1.000000000000000E+20
 15
-1.000000000000000E+20
 25
-1.000000000000000E+20
 35
-1.000000000000000E+20
146
0.0
 13
0.0
 23
0.0
 33
0.0
 16
1.0
 26
0.0
 36
0.0
 17
0.0
 27
1.0
 37
0.0
 76
     0
330
32
  0
MATERIAL
  5
12
102
{ACAD_XDICTIONARY
360
562
102
}
102
{ACAD_REACTORS
330
10
102
}
330
10
100
AcDbMaterial
  1
ByBlock
  0
MATERIAL
  5
11
102
{ACAD_XDICTIONARY
360
560
102
}
102
{ACAD_REACTORS
330
10
102
}
330
10
100
AcDbMaterial
  1
ByLayer
  0
MATERIAL
  5
13
102
{ACAD_XDICTIONARY
360
564
102
}
102
{ACAD_REACTORS
330
10
102
}
330
10
100
AcDbMaterial
  1
Global
  0
MLINESTYLE
  5
2C
102
{ACAD_REACTORS
330
2B
102
}
330
2B
100
AcDbMlineStyle
  2
STANDARD
 70
     0
  3

 62
   256
 51
90.0
 52
90.0
 71
     2
 49
0.5
 62
   256
  6
BYLAYER
 49
-0.5
 62
   256
  6
BYLAYER
  0
ACDBPLACEHOLDER
  5
F
102
{ACAD_REACTORS
330
E
102
}
330
E
  0
TABLESTYLE
  5
31
102
{ACAD_XDICTIONARY
360
566
102
}
102
{ACAD_REACTORS
330
30
102
}
330
30
100
AcDbTableStyle
  3
Standard
 70
     0
 71
     0
 40
0.06
 41
0.06
280
     0
281
     0
  7
STANDARD
140
0.18
170
     2
 62
     0
 63
     7
283
     0
274
    -2
284
     1
 64
     0
275
    -2
285
     1
 65
     0
276
    -2
286
     1
 66
     0
277
    -2
287
     1
 67
     0
278
    -2
288
     1
 68
     0
279
    -2
289
     1
 69
     0
  7
STANDARD
140
0.25
170
     5
 62
     0
 63
     7
283
     0
274
    -2
284
     1
 64
     0
275
    -2
285
     1
 65
     0
276
    -2
286
     1
 66
     0
277
    -2
287
     1
 67
     0
278
    -2
288
     1
 68
     0
279
    -2
289
     1
 69
     0
  7
STANDARD
140
0.18
170
     5
 62
     0
 63
     7
283
     0
274
    -2
284
     1
 64
     0
275
    -2
285
     1
 65
     0
276
    -2
286
     1
 66
     0
277
    -2
287
     1
 67
     0
278
    -2
288
     1
 68
     0
279
    -2
289
     1
 69
     0
  0
VISUALSTYLE
  5
1A
102
{ACAD_REACTORS
330
14
102
}
330
14
100
AcDbVisualStyle
  2
2dWireframe
 70
     4
 71
     0
 72
     2
 73
     0
 90
        0
 40
-0.6
 41
-30.0
 62
     5
 63
     7
 74
     1
 91
        4
 64
     7
 65
   257
 75
     1
175
     1
 42
1.0
 92
        0
 66
   257
 43
1.0
 76
     1
 77
     6
 78
     2
 67
     7
 79
     5
170
     0
171
     0
290
     0
174
     0
 93
        1
 44
0.0
173
     0
291
     0
 45
0.0
1001
ACAD
1000
AcDbSavedByObjectVersion
1070
     0
  0
VISUALSTYLE
  5
1C
102
{ACAD_REACTORS
330
14
102
}
330
14
100
AcDbVisualStyle
  2
3D Hidden
 70
     6
 71
     1
 72
     2
 73
     2
 90
        0
 40
-0.6
 41
-30.0
 62
     5
 63
     7
 74
     2
 91
        2
 64
     7
 65
   257
 75
     2
175
     1
 42
40.0
 92
        0
 66
   257
 43
1.0
 76
     1
 77
     6
 78
     2
 67
     7
 79
     3
170
     0
171
     0
290
     0
174
     0
 93
        1
 44
0.0
173
     0
291
     0
 45
0.0
1001
ACAD
1000
AcDbSavedByObjectVersion
1070
     0
  0
VISUALSTYLE
  5
1B
102
{ACAD_REACTORS
330
14
102
}
330
14
100
AcDbVisualStyle
  2
3dWireframe
 70
     5
 71
     0
 72
     2
 73
     0
 90
        0
 40
-0.6
 41
-30.0
 62
     5
 63
     7
 74
     1
 91
        4
 64
     7
 65
   257
 75
     1
175
     1
 42
1.0
 92
        0
 66
   257
 43
1.0
 76
     1
 77
     6
 78
     2
 67
     7
 79
     5
170
     0
171
     0
290
     0
174
     0
 93
        1
 44
0.0
173
     0
291
     0
 45
0.0
1001
ACAD
1000
AcDbSavedByObjectVersion
1070
     0
  0
VISUALSTYLE
  5
19
102
{ACAD_REACTORS
330
14
102
}
330
14
100
AcDbVisualStyle
  2
Basic
 70
     7
 71
     1
 72
     0
 73
     1
 90
        0
 40
-0.6
 41
-30.0
 62
     5
 63
     7
 74
     0
 91
        4
 64
     7
 65
   257
 75
     1
175
     1
 42
1.0
 92
        8
 66
     7
 43
1.0
 76
     1
 77
     6
 78
     2
 67
     7
 79
     5
170
     0
171
     0
290
     0
174
     0
 93
        1
 44
0.0
173
     0
291
     1
 45
0.0
1001
ACAD
1000
AcDbSavedByObjectVersion
1070
     0
  0
VISUALSTYLE
  5
20
102
{ACAD_REACTORS
330
14
102
}
330
14
100
AcDbVisualStyle
  2
Brighten
 70
    12
 71
     2
 72
     2
 73
     0
 90
        0
 40
-0.6
 41
-30.0
 62
     5
 63
     7
 74
     1
 91
        4
 64
     7
 65
   257
 75
     1
175
     1
 42
1.0
 92
        8
 66
     7
 43
1.0
 76
     1
 77
     6
 78
     2
 67
     7
 79
     5
170
     0
171
     0
290
     0
174
     0
 93
        1
 44
50.0
173
     0
291
     1
 45
0.0
1001
ACAD
1000
AcDbSavedByObjectVersion
1070
     0
  0
VISUALSTYLE
  5
24
102
{ACAD_REACTORS
330
14
102
}
330
14
100
AcDbVisualStyle
  2
ColorChange
 70
    16
 71
     2
 72
     2
 73
     3
 90
        0
 40
-0.6
 41
-30.0
 62
     5
 63
     8
 74
     1
 91
        4
 64
     7
 65
   257
 75
     1
175
     1
 42
1.0
 92
        8
 66
     8
 43
1.0
 76
     1
 77
     6
 78
     2
 67
     7
 79
     5
170
     0
171
     0
290
     0
174
     0
 93
        1
 44
0.0
173
     0
291
     1
 45
0.0
1001
ACAD
1000
AcDbSavedByObjectVersion
1070
     0
  0
VISUALSTYLE
  5
1D
102
{ACAD_REACTORS
330
14
102
}
330
14
100
AcDbVisualStyle
  2
Conceptual
 70
     9
 71
     3
 72
     2
 73
     0
 90
        0
 40
-0.6
 41
-30.0
 62
     5
 63
     7
 74
     2
 91
        2
 64
     7
 65
   257
 75
     1
175
     1
 42
40.0
 92
        8
 66
     7
 43
1.0
 76
     1
 77
     6
 78
     2
 67
     7
 79
     3
170
     0
171
     0
290
     0
174
     0
 93
        1
 44
0.0
173
     0
291
     0
 45
0.0
1001
ACAD
1000
AcDbSavedByObjectVersion
1070
     0
  0
VISUALSTYLE
  5
1F
102
{ACAD_REACTORS
330
14
102
}
330
14
100
AcDbVisualStyle
  2
Dim
 70
    11
 71
     2
 72
     2
 73
     0
 90
        0
 40
-0.6
 41
-30.0
 62
     5
 63
     7
 74
     1
 91
        4
 64
     7
 65
   257
 75
     1
175
     1
 42
1.0
 92
        8
 66
     7
 43
1.0
 76
     1
 77
     6
 78
     2
 67
     7
 79
     5
170
     0
171
     0
290
     0
174
     0
 93
        1
 44
-50.0
173
     0
291
     1
 45
0.0
1001
ACAD
1000
AcDbSavedByObjectVersion
1070
     0
  0
VISUALSTYLE
  5
23
102
{ACAD_REACTORS
330
14
102
}
330
14
100
AcDbVisualStyle
  2
Facepattern
 70
    15
 71
     2
 72
     2
 73
     0
 90
        0
 40
-0.6
 41
-30.0
 62
     5
 63
     7
 74
     1
 91
        4
 64
     7
 65
   257
 75
     1
175
     1
 42
1.0
 92
        8
 66
     7
 43
1.0
 76
     1
 77
     6
 78
     2
 67
     7
 79
     5
170
     0
171
     0
290
     0
174
     0
 93
        1
 44
0.0
173
     0
291
     1
 45
0.0
1001
ACAD
1000
AcDbSavedByObjectVersion
1070
     0
  0
VISUALSTYLE
  5
15
102
{ACAD_REACTORS
330
14
102
}
330
14
100
AcDbVisualStyle
  2
Flat
 70
     0
 71
     2
 72
     1
 73
     1
 90
        2
 40
-0.6
 41
30.0
 62
     5
 63
     7
 74
     0
 91
        4
 64
     7
 65
   257
 75
     1
175
     1
 42
1.0
 92
        8
 66
     7
 43
1.0
 76
     1
 77
     6
 78
     2
 67
     7
 79
     5
170
     0
171
     0
290
     0
174
     0
 93
       13
 44
0.0
173
     0
291
     1
 45
0.0
1001
ACAD
1000
AcDbSavedByObjectVersion
1070
     0
  0
VISUALSTYLE
  5
16
102
{ACAD_REACTORS
330
14
102
}
330
14
100
AcDbVisualStyle
  2
FlatWithEdges
 70
     1
 71
     2
 72
     1
 73
     1
 90
        2
 40
-0.6
 41
30.0
 62
     5
 63
     7
 74
     1
 91
        4
 64
     7
 65
   257
 75
     1
175
     1
 42
1.0
 92
        0
 66
   257
 43
1.0
 76
     1
 77
     6
 78
     2
 67
     7
 79
     5
170
     0
171
     0
290
     0
174
     0
 93
       13
 44
0.0
173
     0
291
     1
 45
0.0
1001
ACAD
1000
AcDbSavedByObjectVersion
1070
     0
  0
VISUALSTYLE
  5
17
102
{ACAD_REACTORS
330
14
102
}
330
14
100
AcDbVisualStyle
  2
Gouraud
 70
     2
 71
     2
 72
     2
 73
     1
 90
        2
 40
-0.6
 41
30.0
 62
     5
 63
     7
 74
     0
 91
        4
 64
     7
 65
   257
 75
     1
175
     1
 42
1.0
 92
        0
 66
     7
 43
1.0
 76
     1
 77
     6
 78
     2
 67
     7
 79
     5
170
     0
171
     0
290
     0
174
     0
 93
       13
 44
0.0
173
     0
291
     1
 45
0.0
1001
ACAD
1000
AcDbSavedByObjectVersion
1070
     0
  0
VISUALSTYLE
  5
18
102
{ACAD_REACTORS
330
14
102
}
330
14
100
AcDbVisualStyle
  2
GouraudWithEdges
 70
     3
 71
     2
 72
     2
 73
     1
 90
        2
 40
-0.6
 41
30.0
 62
     5
 63
     7
 74
     1
 91
        4
 64
     7
 65
   257
 75
     1
175
     1
 42
1.0
 92
        0
 66
   257
 43
1.0
 76
     1
 77
     6
 78
     2
 67
     7
 79
     5
170
     0
171
     0
290
     0
174
     0
 93
       13
 44
0.0
173
     0
291
     1
 45
0.0
1001
ACAD
1000
AcDbSavedByObjectVersion
1070
     0
  0
VISUALSTYLE
  5
22
102
{ACAD_REACTORS
330
14
102
}
330
14
100
AcDbVisualStyle
  2
Linepattern
 70
    14
 71
     2
 72
     2
 73
     0
 90
        0
 40
-0.6
 41
-30.0
 62
     5
 63
     7
 74
     1
 91
        4
 64
     7
 65
   257
 75
     7
175
     7
 42
1.0
 92
        8
 66
     7
 43
1.0
 76
     1
 77
     6
 78
     2
 67
     7
 79
     5
170
     0
171
     0
290
     0
174
     0
 93
        1
 44
0.0
173
     0
291
     1
 45
0.0
1001
ACAD
1000
AcDbSavedByObjectVersion
1070
     0
  0
VISUALSTYLE
  5
1E
102
{ACAD_REACTORS
330
14
102
}
330
14
100
AcDbVisualStyle
  2
Realistic
 70
     8
 71
     2
 72
     2
 73
     0
 90
        0
 40
-0.6
 41
-30.0
 62
     5
 63
     7
 74
     1
 91
        0
 64
     7
 65
   257
 75
     1
175
     1
 42
1.0
 92
        8
 66
     8
 43
1.0
 76
     1
 77
     6
 78
     2
 67
     7
 79
     5
170
     0
171
     0
290
     0
174
     0
 93
       13
 44
0.0
173
     0
291
     0
 45
0.0
1001
ACAD
1000
AcDbSavedByObjectVersion
1070
     0
  0
VISUALSTYLE
  5
21
102
{ACAD_REACTORS
330
14
102
}
330
14
100
AcDbVisualStyle
  2
Thicken
 70
    13
 71
     2
 72
     2
 73
     0
 90
        0
 40
-0.6
 41
-30.0
 62
     5
 63
     7
 74
     1
 91
        4
 64
     7
 65
   257
 75
     1
175
     1
 42
1.0
 92
       12
 66
     7
 43
1.0
 76
     1
 77
     6
 78
     2
 67
     7
 79
     5
170
     0
171
     0
290
     0
174
     0
 93
        1
 44
0.0
173
     0
291
     1
 45
0.0
1001
ACAD
1000
AcDbSavedByObjectVersion
1070
     0
  0
DICTIONARYVAR
  5
55B
102
{ACAD_REACTORS
330
55A
102
}
330
55A
100
DictionaryVariables
280
     0
  1
STANDARD
  0
DICTIONARYVAR
  5
55E
102
{ACAD_REACTORS
330
55A
102
}
330
55A
100
DictionaryVariables
280
     0
  1
1
  0
DICTIONARYVAR
  5
55D
102
{ACAD_REACTORS
330
55A
102
}
330
55A
100
DictionaryVariables
280
     0
  1
0
  0
DICTIONARYVAR
  5
55C
102
{ACAD_REACTORS
330
55A
102
}
330
55A
100
DictionaryVariables
280
     0
  1
127
  0
DICTIONARY
  5
50A
102
{ACAD_REACTORS
330
4FF
102
}
330
4FF
100
AcDbDictionary
281
     1
  0
XRECORD
  5
52B
102
{ACAD_REACTORS
330
4FF
102
}
330
4FF
100
AcDbXrecord
280
     1
 90
-1023410169
  0
DICTIONARY
  5
56A
330
39
100
AcDbDictionary
280
     1
281
     1
  3
ACAD_XREC_ROUNDTRIP
360
56B
  0
DICTIONARY
  5
568
330
35
100
AcDbDictionary
280
     1
281
     1
  3
ACAD_XREC_ROUNDTRIP
360
569
  0
DICTIONARY
  5
562
330
12
100
AcDbDictionary
280
     1
281
     1
  3
ACAD_XREC_ROUNDTRIP
360
563
  0
DICTIONARY
  5
560
330
11
100
AcDbDictionary
280
     1
281
     1
  3
ACAD_XREC_ROUNDTRIP
360
561
  0
DICTIONARY
  5
564
330
13
100
AcDbDictionary
280
     1
281
     1
  3
ACAD_XREC_ROUNDTRIP
360
565
  0
DICTIONARY
  5
566
330
31
100
AcDbDictionary
280
     1
281
     1
  3
ACAD_XREC_ROUNDTRIP
360
567
  0
XRECORD
  5
56B
102
{ACAD_REACTORS
330
56A
102
}
330
56A
100
AcDbXrecord
280
     1
102
SHADEPLOT
 70
     0
102
SHADEPLOTRESLEVEL
 70
     2
102
SHADEPLOTCUSTOMDPI
 70
   300
  0
XRECORD
  5
569
102
{ACAD_REACTORS
330
568
102
}
330
568
100
AcDbXrecord
280
     1
102
SHADEPLOT
 70
     0
102
SHADEPLOTRESLEVEL
 70
     2
102
SHADEPLOTCUSTOMDPI
 70
   300
  0
XRECORD
  5
563
102
{ACAD_REACTORS
330
562
102
}
330
562
100
AcDbXrecord
280
     1
102
MATERIAL
148
0.0
149
0.0
149
0.0
 93
        0
 94
       63
282
     0
 72
     1
 77
     1
171
     1
175
     1
179
     1
273
     0
  0
XRECORD
  5
561
102
{ACAD_REACTORS
330
560
102
}
330
560
100
AcDbXrecord
280
     1
102
MATERIAL
148
0.0
149
0.0
149
0.0
 93
        0
 94
       63
282
     0
 72
     1
 77
     1
171
     1
175
     1
179
     1
273
     0
  0
XRECORD
  5
565
102
{ACAD_REACTORS
330
564
102
}
330
564
100
AcDbXrecord
280
     1
102
MATERIAL
148
0.0
149
0.0
149
0.0
 93
        0
 94
       63
282
     0
 72
     1
 77
     1
171
     1
175
     1
179
     1
273
     0
  0
XRECORD
  5
567
102
{ACAD_REACTORS
330
566
102
}
330
566
100
AcDbXrecord
280
     1
102
ACAD_ROUNDTRIP_PRE2007_TABLESTYLE
 90
      512
 91
        0
  1

 92
      512
 93
        0
  2

 94
      512
 95
        0
  3

  0
ENDSEC
  0
EOF
