  0
SECTION
  2
HEADER
  9
$ACADVER
  1
AC1015
  9
$ACADMAINTVER
 70
    20
  9
$DWGCODEPAGE
  3
ANSI_932
  9
$INSBASE
 10
0.0
 20
0.0
 30
0.0
  9
$EXTMIN
 10
-211.0116263101944
 20
-100.0083306632102
 30
-0.0015258207003583
  9
$EXTMAX
 10
170.011628084364
 20
173.0083319344654
 30
0.0000000349246037
  9
$LIMMIN
 10
-211.0
 20
-100.0
  9
$LIMMAX
 10
170.0
 20
173.0
  9
$ORTHOMODE
 70
     0
  9
$REGENMODE
 70
     1
  9
$FILLMODE
 70
     1
  9
$QTEXTMODE
 70
     0
  9
$MIRRTEXT
 70
     0
  9
$LTSCALE
 40
1.0
  9
$ATTMODE
 70
     1
  9
$TEXTSIZE
 40
0.2
  9
$TRACEWID
 40
0.05
  9
$TEXTSTYLE
  7
STANDARD
  9
$CLAYER
  8
0
  9
$CELTYPE
  6
CONTINUOUS
  9
$CECOLOR
 62
   256
  9
$CELTSCALE
 40
1.0
  9
$DISPSILH
 70
     0
  9
$DIMSCALE
 40
1.0
  9
$DIMASZ
 40
1.0
  9
$DIMEXO
 40
2.54
  9
$DIMDLI
 40
0.38
  9
$DIMRND
 40
0.0
  9
$DIMDLE
 40
0.0
  9
$DIMEXE
 40
2.54
  9
$DIMTP
 40
0.0
  9
$DIMTM
 40
0.0
  9
$DIMTXT
 40
3.2
  9
$DIMCEN
 40
0.09
  9
$DIMTSZ
 40
0.0
  9
$DIMTOL
 70
     0
  9
$DIMLIM
 70
     0
  9
$DIMTIH
 70
     0
  9
$DIMTOH
 70
     0
  9
$DIMSE1
 70
     0
  9
$DIMSE2
 70
     0
  9
$DIMTAD
 70
     1
  9
$DIMZIN
 70
     0
  9
$DIMBLK
  1

  9
$DIMASO
 70
     1
  9
$DIMSHO
 70
     0
  9
$DIMPOST
  1

  9
$DIMAPOST
  1

  9
$DIMALT
 70
     0
  9
$DIMALTD
 70
     2
  9
$DIMALTF
 40
25.4
  9
$DIMLFAC
 40
1.0
  9
$DIMTOFL
 70
     0
  9
$DIMTVP
 40
1.0
  9
$DIMTIX
 70
     0
  9
$DIMSOXD
 70
     0
  9
$DIMSAH
 70
     1
  9
$DIMBLK1
  1

  9
$DIMBLK2
  1

  9
$DIMSTYLE
  2
DIMSTYLE
  9
$DIMCLRD
 70
     0
  9
$DIMCLRE
 70
     0
  9
$DIMCLRT
 70
     0
  9
$DIMTFAC
 40
1.0
  9
$DIMGAP
 40
1.6
  9
$DIMJUST
 70
     0
  9
$DIMSD1
 70
     0
  9
$DIMSD2
 70
     0
  9
$DIMTOLJ
 70
     1
  9
$DIMTZIN
 70
     0
  9
$DIMALTZ
 70
     0
  9
$DIMALTTZ
 70
     0
  9
$DIMUPT
 70
     0
  9
$DIMDEC
 70
     4
  9
$DIMTDEC
 70
     4
  9
$DIMALTU
 70
     2
  9
$DIMALTTD
 70
     2
  9
$DIMTXSTY
  7
STANDARD
  9
$DIMAUNIT
 70
     0
  9
$DIMADEC
 70
     0
  9
$DIMALTRND
 40
0.0
  9
$DIMAZIN
 70
     0
  9
$DIMDSEP
 70
    46
  9
$DIMATFIT
 70
     3
  9
$DIMFRAC
 70
     0
  9
$DIMLDRBLK
  1

  9
$DIMLUNIT
 70
     2
  9
$DIMLWD
 70
    -2
  9
$DIMLWE
 70
    -2
  9
$DIMTMOVE
 70
     0
  9
$LUNITS
 70
     2
  9
$LUPREC
 70
     4
  9
$SKETCHINC
 40
0.1
  9
$FILLETRAD
 40
0.0
  9
$AUNITS
 70
     0
  9
$AUPREC
 70
     0
  9
$MENU
  1
.
  9
$ELEVATION
 40
0.0
  9
$PELEVATION
 40
0.0
  9
$THICKNESS
 40
0.0
  9
$LIMCHECK
 70
     0
  9
$CHAMFERA
 40
0.0
  9
$CHAMFERB
 40
0.0
  9
$CHAMFERC
 40
0.0
  9
$CHAMFERD
 40
0.0
  9
$SKPOLY
 70
     0
  9
$TDCREATE
 40
2454218.400474896
  9
$TDUCREATE
 40
2454218.025474896
  9
$TDUPDATE
 40
2454218.401178021
  9
$TDUUPDATE
 40
2454218.026178021
  9
$TDINDWG
 40
0.0007042130
  9
$TDUSRTIMER
 40
0.0007042130
  9
$USRTIMER
 70
     1
  9
$ANGBASE
 50
0.0
  9
$ANGDIR
 70
     0
  9
$PDMODE
 70
     0
  9
$PDSIZE
 40
0.0
  9
$PLINEWID
 40
0.0
  9
$SPLFRAME
 70
     0
  9
$SPLINETYPE
 70
     6
  9
$SPLINESEGS
 70
     8
  9
$HANDSEED
  5
5C9
  9
$SURFTAB1
 70
     6
  9
$SURFTAB2
 70
     6
  9
$SURFTYPE
 70
     6
  9
$SURFU
 70
     6
  9
$SURFV
 70
     6
  9
$UCSBASE
  2

  9
$UCSNAME
  2

  9
$UCSORG
 10
0.0
 20
0.0
 30
0.0
  9
$UCSXDIR
 10
1.0
 20
0.0
 30
0.0
  9
$UCSYDIR
 10
0.0
 20
1.0
 30
0.0
  9
$UCSORTHOREF
  2

  9
$UCSORTHOVIEW
 70
     0
  9
$UCSORGTOP
 10
0.0
 20
0.0
 30
0.0
  9
$UCSORGBOTTOM
 10
0.0
 20
0.0
 30
0.0
  9
$UCSORGLEFT
 10
0.0
 20
0.0
 30
0.0
  9
$UCSORGRIGHT
 10
0.0
 20
0.0
 30
0.0
  9
$UCSORGFRONT
 10
0.0
 20
0.0
 30
0.0
  9
$UCSORGBACK
 10
0.0
 20
0.0
 30
0.0
  9
$PUCSBASE
  2

  9
$PUCSNAME
  2

  9
$PUCSORG
 10
0.0
 20
0.0
 30
0.0
  9
$PUCSXDIR
 10
1.0
 20
0.0
 30
0.0
  9
$PUCSYDIR
 10
0.0
 20
1.0
 30
0.0
  9
$PUCSORTHOREF
  2

  9
$PUCSORTHOVIEW
 70
     0
  9
$PUCSORGTOP
 10
0.0
 20
0.0
 30
0.0
  9
$PUCSORGBOTTOM
 10
0.0
 20
0.0
 30
0.0
  9
$PUCSORGLEFT
 10
0.0
 20
0.0
 30
0.0
  9
$PUCSORGRIGHT
 10
0.0
 20
0.0
 30
0.0
  9
$PUCSORGFRONT
 10
0.0
 20
0.0
 30
0.0
  9
$PUCSORGBACK
 10
0.0
 20
0.0
 30
0.0
  9
$USERI1
 70
     0
  9
$USERI2
 70
     0
  9
$USERI3
 70
     0
  9
$USERI4
 70
     0
  9
$USERI5
 70
     0
  9
$USERR1
 40
0.0
  9
$USERR2
 40
0.0
  9
$USERR3
 40
0.0
  9
$USERR4
 40
0.0
  9
$USERR5
 40
0.0
  9
$WORLDVIEW
 70
     1
  9
$SHADEDGE
 70
     3
  9
$SHADEDIF
 70
    70
  9
$TILEMODE
 70
     1
  9
$MAXACTVP
 70
    64
  9
$PINSBASE
 10
0.0
 20
0.0
 30
0.0
  9
$PLIMCHECK
 70
     0
  9
$PEXTMIN
 10
1.000000000000000E+20
 20
1.000000000000000E+20
 30
1.000000000000000E+20
  9
$PEXTMAX
 10
-1.000000000000000E+20
 20
-1.000000000000000E+20
 30
-1.000000000000000E+20
  9
$PLIMMIN
 10
-211.0
 20
-100.0
  9
$PLIMMAX
 10
170.0
 20
173.0
  9
$UNITMODE
 70
     0
  9
$VISRETAIN
 70
     1
  9
$PLINEGEN
 70
     0
  9
$PSLTSCALE
 70
     1
  9
$TREEDEPTH
 70
  3020
  9
$CMLSTYLE
  2
Standard
  9
$CMLJUST
 70
     0
  9
$CMLSCALE
 40
1.0
  9
$PROXYGRAPHICS
 70
     1
  9
$MEASUREMENT
 70
     0
  9
$CELWEIGHT
370
    -1
  9
$ENDCAPS
280
     0
  9
$JOINSTYLE
280
     0
  9
$LWDISPLAY
290
     0
  9
$INSUNITS
 70
     0
  9
$HYPERLINKBASE
  1

  9
$STYLESHEET
  1

  9
$XEDIT
290
     1
  9
$CEPSNTYPE
380
     0
  9
$PSTYLEMODE
290
     1
  9
$FINGERPRINTGUID
  2
{1305CDFC-6838-4B91-B25E-49B5839742E6}
  9
$VERSIONGUID
  2
{67B7CCCC-C12C-465C-8106-8CB2DE769ED9}
  9
$EXTNAMES
290
     1
  9
$PSVPSCALE
 40
0.0
  9
$OLESTARTUP
290
     0
  0
ENDSEC
  0
SECTION
  2
CLASSES
  0
CLASS
  1
ACDBDICTIONARYWDFLT
  2
AcDbDictionaryWithDefault
  3
ObjectDBX Classes
 90
        0
280
     0
281
     0
  0
CLASS
  1
MATERIAL
  2
AcDbMaterial
  3
ObjectDBX Classes
 90
     1153
280
     0
281
     0
  0
CLASS
  1
VISUALSTYLE
  2
AcDbVisualStyle
  3
ObjectDBX Classes
 90
     4095
280
     0
281
     0
  0
CLASS
  1
TABLESTYLE
  2
AcDbTableStyle
  3
ObjectDBX Classes
 90
     4095
280
     0
281
     0
  0
CLASS
  1
AMGSETTINGSOBJ
  2
AmgSettingsObj
  3
"AcadM|Product Description: AutoCAD Mechanical|Company: Autodesk"
 90
        0
280
     0
281
     0
  0
CLASS
  1
ACME_DOCUMENT
  2
AcMeDbDoc
  3
AcMeServices
 90
        0
280
     0
281
     0
  0
CLASS
  1
ACMESCOPE
  2
AcMeScope
  3
AcMeServices
 90
        0
280
     0
281
     0
  0
CLASS
  1
ACMECOMMANDHISTORY
  2
AcMeCommandHistory
  3
AcMeServices
 90
        0
280
     0
281
     0
  0
CLASS
  1
ACIMSYSVARMAN
  2
AcImSysVarManager
  3
AcMeServices
 90
        0
280
     0
281
     0
  0
CLASS
  1
ACIMINTSYSVAR
  2
AcImIntSysVar
  3
AcMeServices
 90
        0
280
     0
281
     0
  0
CLASS
  1
ACMEDRAWINGMAN
  2
AcMeDrawingMan
  3
AcMeServices
 90
        0
280
     0
281
     0
  0
CLASS
  1
ACMEVIEW
  2
AcMeView
  3
AcMeServices
 90
        0
280
     0
281
     0
  0
CLASS
  1
ACDBENTITYCACHE
  2
AcMeEntityCache
  3
AcMeServices
 90
        0
280
     0
281
     0
  0
CLASS
  1
GSMANAGER
  2
AcMeGSManager
  3
AcMeServices
 90
        0
280
     0
281
     0
  0
CLASS
  1
AMDTINTERNALREACTOR
  2
AmdtInternalReactor
  3
AcMeServices
 90
        0
280
     0
281
     0
  0
CLASS
  1
ACMESTATEMGR
  2
AcMeStateMgr
  3
AcMeServices
 90
        0
280
     0
281
     0
  0
CLASS
  1
ACGREFMASTER
  2
AcGrefMaster
  3
AcAttribServices
 90
        0
280
     0
281
     0
  0
CLASS
  1
AM_DRAWING_MGR
  2
AcDmDwgMgr
  3
AcMechDwgViewMgmt
 90
        0
280
     0
281
     0
  0
CLASS
  1
AM_DWG_DOCUMENT
  2
AcDmDwgDocument
  3
AcMechDwgViewMgmt
 90
        0
280
     0
281
     0
  0
CLASS
  1
AM_DWG_SHEET
  2
AcDmSheet
  3
AcMechDwgViewMgmt
 90
        0
280
     0
281
     0
  0
CLASS
  1
AM_VIEWDIMPARMAP
  2
AcDmViewDimParMap
  3
AcMechDwgViewMgmt
 90
        0
280
     0
281
     0
  0
CLASS
  1
ACIMREALSYSVAR
  2
AcImRealSysVar
  3
AcMeServices
 90
        0
280
     0
281
     0
  0
CLASS
  1
AM_DWGMGR_NAME
  2
AcDmDwgMgrName
  3
AcMechDwgViewMgmt
 90
        0
280
     0
281
     0
  0
CLASS
  1
ACME_DATABASE
  2
AcMeDbDatabase
  3
AcMeServices
 90
        0
280
     0
281
     0
  0
CLASS
  1
ACRFINSADJUSTERMGR
  2
AcRfInsAdjusterMgr
  3
AcMeServices
 90
        0
280
     0
281
     0
  0
CLASS
  1
ACGREFACADMASTER
  2
AcGrefacadMaster
  3
AcGrefServices
 90
        0
280
     0
281
     0
  0
CLASS
  1
AMDTMENUSTATEMGR
  2
AmdtMenuStateMgr
  3
McadcomServices
 90
        0
280
     0
281
     0
  0
CLASS
  1
AMDTMCOMMENUSTATE
  2
AmdtMcomMenuState
  3
McadcomServices
 90
        0
280
     0
281
     0
  0
CLASS
  1
AMIMASTER
  2
AmiMaster
  3
AmiServices
 90
        0
280
     0
281
     0
  0
CLASS
  1
MAPIAMMOUDLE
  2
MApiAmModule
  3
MApiAmServices
 90
        0
280
     0
281
     0
  0
CLASS
  1
ACIMSTRSYSVAR
  2
AcImStrSysVar
  3
AcMeServices
 90
        0
280
     0
281
     0
  0
CLASS
  1
AMDTADMENUSTATE
  2
AmdtAdMenuState
  3
DesignerServices
 90
        0
280
     0
281
     0
  0
CLASS
  1
ADAPPL
  2
AcAdAppl
  3
DesignerServices
 90
        0
280
     0
281
     0
  0
CLASS
  1
DEPMGR
  2
AcAdDepMgr
  3
DesignerServices
 90
        0
280
     0
281
     0
  0
CLASS
  1
PARAMMGR
  2
AcAdParamMgr
  3
DesignerServices
 90
        0
280
     0
281
     0
  0
CLASS
  1
PARAMSCOPE
  2
AcAdParamScope
  3
DesignerServices
 90
        0
280
     0
281
     0
  0
CLASS
  1
NAMEDAPPL
  2
AcAdNamedAppl
  3
DesignerServices
 90
        0
280
     0
281
     0
  0
CLASS
  1
AMDTDMMENUSTATE
  2
AmdtDmMenuState
  3
AcMechDwgViewMgmt
 90
        0
280
     0
281
     0
  0
CLASS
  1
AMDTAMMENUSTATE
  2
AmdtAmMenuState
  3
DesignerAssemblies
 90
        0
280
     0
281
     0
  0
CLASS
  1
ACAMPROJECT
  2
AcAmProject
  3
DesignerAssemblies
 90
        0
280
     0
281
     0
  0
CLASS
  1
ACAMGRCOMPDEF
  2
AcAmGrCompDef
  3
DesignerAssemblies
 90
        0
280
     0
281
     0
  0
CLASS
  1
ACCMCONTEXT
  2
AcCmContext
  3
DesignerAssemblies
 90
        0
280
     0
281
     0
  0
CLASS
  1
ACAMCOMPDEF
  2
AcAmCompDef
  3
DesignerAssemblies
 90
        0
280
     0
281
     0
  0
CLASS
  1
ACAMCOMPDEFMGR
  2
AcAmCompDefMgr
  3
DesignerAssemblies
 90
        0
280
     0
281
     0
  0
CLASS
  1
AMCONTEXTMGR
  2
AcAmContextMgr
  3
DesignerAssemblies
 90
        0
280
     0
281
     0
  0
CLASS
  1
ACAMCONTEXTMODELER
  2
AcAmContextModeler
  3
DesignerAssemblies
 90
        0
280
     0
281
     0
  0
CLASS
  1
ACMDATADICTIONARY
  2
AcmDataDictionary
  3
"AcmSymBB|Product Description: AutoCAD Mechanical|Company: Autodesk"
 90
        0
280
     0
281
     0
  0
CLASS
  1
CATALOGSTATE
  2
AcAmCatalogState
  3
DesignerAssemblies
 90
        0
280
     0
281
     0
  0
CLASS
  1
ACAMGRCOMPDEFSET
  2
AcAmGrCompDefSet
  3
DesignerAssemblies
 90
        0
280
     0
281
     0
  0
CLASS
  1
AMDTBROWSERDBTAB
  2
AmdtBrowserDbTab
  3
McadcomServices
 90
        0
280
     0
281
     0
  0
CLASS
  1
CBROWSERAPPOBJECT
  2
CBrowserAppObject
  3
McadcomServices
 90
        0
280
     0
281
     0
  0
CLASS
  1
DM_PLACEHOLDER
  2
AcDmSelsetPlaceholder
  3
AcMechDwgViewMgmt
 90
        0
280
     0
281
     0
  0
CLASS
  1
ACMSTANDARDANSI
  2
AcmStandardANSI
  3
"Amdt_StdImp|Product Description: AutoCAD Mechanical|Company: Autodesk"
 90
        0
280
     0
281
     0
  0
CLASS
  1
AMGOBJPROPCFG
  2
AmgObjPropCfg
  3
"AmgLay|Product Description: AutoCAD Mechanical|Company: Autodesk"
 90
        1
280
     0
281
     0
  0
CLASS
  1
ACMSURFSTANDARDANSI
  2
AcmSurfTextStdANSI
  3
"Amdt_StdImp|Product Description: AutoCAD Mechanical|Company: Autodesk"
 90
        0
280
     0
281
     0
  0
CLASS
  1
ACMFCFSTANDARDANSI
  2
AcmFCFStdANSI
  3
"Amdt_StdImp|Product Description: AutoCAD Mechanical|Company: Autodesk"
 90
        0
280
     0
281
     0
  0
CLASS
  1
ACMWELDSTANDARDANSI
  2
AcmWeldingStdANSI
  3
"Amdt_StdImp|Product Description: AutoCAD Mechanical|Company: Autodesk"
 90
        0
280
     0
281
     0
  0
CLASS
  1
ACMIDSTANDARDANSI
  2
AcmIdStdANSI
  3
"Amdt_StdImp|Product Description: AutoCAD Mechanical|Company: Autodesk"
 90
        0
280
     0
281
     0
  0
CLASS
  1
ACMDATUMSTANDARDANSI
  2
AcmDatumStdANSI
  3
"Amdt_StdImp|Product Description: AutoCAD Mechanical|Company: Autodesk"
 90
        0
280
     0
281
     0
  0
CLASS
  1
ACMBOMSTANDARDANSI
  2
AcmBOMStdANSI
  3
"Amdt_StdImp|Product Description: AutoCAD Mechanical|Company: Autodesk"
 90
        0
280
     0
281
     0
  0
CLASS
  1
ACMDETAILSTANDARDANSI
  2
AmdtDetailSymStdANSI
  3
"Amdt_StdImp|Product Description: AutoCAD Mechanical|Company: Autodesk"
 90
        0
280
     0
281
     0
  0
CLASS
  1
ACMSECTIONSTANDARDANSI
  2
AmdtSectionSymStdANSI
  3
"Amdt_StdImp|Product Description: AutoCAD Mechanical|Company: Autodesk"
 90
        0
280
     0
281
     0
  0
CLASS
  1
ACMCENTERLINESTANDARDANSI
  2
AmdtCenterLineStdANSI
  3
"Amdt_StdImp|Product Description: AutoCAD Mechanical|Company: Autodesk"
 90
        0
280
     0
281
     0
  0
CLASS
  1
ACMTHREADLINESTANDARDANSI
  2
AmdtThreadLineStdANSI
  3
"Amdt_StdImp|Product Description: AutoCAD Mechanical|Company: Autodesk"
 90
        0
280
     0
281
     0
  0
CLASS
  1
ACMNOTESTANDARDANSI
  2
AmdtNoteStdANSI
  3
"Amdt_StdImp|Product Description: AutoCAD Mechanical|Company: Autodesk"
 90
        0
280
     0
281
     0
  0
CLASS
  1
ACMTAPERSTANDARDANSI
  2
AcmTaperStdANSI
  3
"Amdt_StdImp|Product Description: AutoCAD Mechanical|Company: Autodesk"
 90
        0
280
     0
281
     0
  0
CLASS
  1
AMDTNOTETEMPLATEDB
  2
AmdtNoteTemplateDB
  3
AMDT_STDIMP_MODULE_NAME
 90
        0
280
     0
281
     0
  0
CLASS
  1
ACAMGLAYSTD
  2
AcAmgLayStd
  3
"AmgLay|Product Description: AutoCAD Mechanical|Company: Autodesk"
 90
        0
280
     0
281
     0
  0
CLASS
  1
ACAMGDIMSTD
  2
AcAmgDimStd
  3
"AmgDim|Product Description: AutoCAD Mechanical|Company: Autodesk"
 90
        0
280
     0
281
     0
  0
CLASS
  1
ACAMGHOLECHARTSTDANSI
  2
AcAmgHoleChartStdANSI
  3
ACMSYMBB_MODULE_NAME
 90
        0
280
     0
281
     0
  0
CLASS
  1
ACAMGTITLESTD
  2
AcAmgTitleStd
  3
"AmgTitle|Product Description: AutoCAD Mechanical|Company: Autodesk"
 90
        0
280
     0
281
     0
  0
CLASS
  1
ACAMGFILTERDAT
  2
AcAmgFilterDat
  3
"AcadM|Product Description: AutoCAD Mechanical|Company: Autodesk"
 90
        0
280
     0
281
     0
  0
CLASS
  1
DICTIONARYVAR
  2
AcDbDictionaryVar
  3
ObjectDBX Classes
 90
        0
280
     0
281
     0
  0
CLASS
  1
ACDBPLACEHOLDER
  2
AcDbPlaceHolder
  3
ObjectDBX Classes
 90
        0
280
     0
281
     0
  0
CLASS
  1
LAYOUT
  2
AcDbLayout
  3
ObjectDBX Classes
 90
        0
280
     0
281
     0
  0
ENDSEC
  0
SECTION
  2
TABLES
  0
TABLE
  2
VPORT
  5
8
330
0
100
AcDbSymbolTable
 70
     1
  0
VPORT
  5
45
330
8
100
AcDbSymbolTableRecord
100
AcDbViewportTableRecord
  2
*Active
 70
     0
 10
0.0
 20
0.0
 11
1.0
 21
1.0
 12
-143.277970258913
 22
137.1703917813546
 13
0.0
 23
0.0
 14
1.0
 24
1.0
 15
0.0
 25
0.0
 16
0.0
 26
0.0
 36
1.0
 17
0.0
 27
0.0
 37
0.0
 40
100.7248877418189
 41
1.313157894736842
 42
50.0
 43
0.0
 44
0.0
 50
0.0
 51
0.0
 71
     0
 72
   100
 73
     1
 74
     1
 75
     0
 76
     0
 77
     0
 78
     0
281
     0
 65
     0
110
0.0
120
0.0
130
0.0
111
1.0
121
0.0
131
0.0
112
0.0
122
1.0
132
0.0
 79
     0
146
0.0
  0
ENDTAB
  0
TABLE
  2
LTYPE
  5
5
330
0
100
AcDbSymbolTable
 70
    19
  0
LTYPE
  5
28
330
5
100
AcDbSymbolTableRecord
100
AcDbLinetypeTableRecord
  2
ByBlock
 70
     0
  3

 72
    65
 73
     0
 40
0.0
  0
LTYPE
  5
29
330
5
100
AcDbSymbolTableRecord
100
AcDbLinetypeTableRecord
  2
ByLayer
 70
     0
  3

 72
    65
 73
     0
 40
0.0
  0
LTYPE
  5
2A
330
5
100
AcDbSymbolTableRecord
100
AcDbLinetypeTableRecord
  2
CONTINUOUS
 70
     0
  3
Solid line
 72
    65
 73
     0
 40
0.0
  0
LTYPE
  5
3A
330
5
100
AcDbSymbolTableRecord
100
AcDbLinetypeTableRecord
  2
DASHED
 70
     0
  3
__ __ __ __ __ __ __ __ __ __ __ __ __ __ __
 72
    65
 73
     2
 40
3.5
 49
2.0
 74
     0
 49
-1.5
 74
     0
  0
LTYPE
  5
3B
330
5
100
AcDbSymbolTableRecord
100
AcDbLinetypeTableRecord
  2
CENTER
 70
     0
  3
____ _ ____ _ ____ _ ____ _ ____ _ ____ _ ____
 72
    65
 73
     4
 40
17.5
 49
13.0
 74
     0
 49
-1.5
 74
     0
 49
1.5
 74
     0
 49
-1.5
 74
     0
  0
LTYPE
  5
3C
330
5
100
AcDbSymbolTableRecord
100
AcDbLinetypeTableRecord
  2
PHANTOM
 70
     0
  3
_____ _ _ _____ _ _ _____ _ _ _____ _ _ ____  
 72
    65
 73
     6
 40
15.5
 49
8.0
 74
     0
 49
-1.5
 74
     0
 49
1.5
 74
     0
 49
-1.5
 74
     0
 49
1.5
 74
     0
 49
-1.5
 74
     0
  0
LTYPE
  5
3D
330
5
100
AcDbSymbolTableRecord
100
AcDbLinetypeTableRecord
  2
DOT
 70
     0
  3
. . . . . . . . . . . . . . . . . . . . . . . .
 72
    65
 73
     2
 40
0.25
 49
0.0
 74
     0
 49
-0.25
 74
     0
  0
LTYPE
  5
3E
330
5
100
AcDbSymbolTableRecord
100
AcDbLinetypeTableRecord
  2
HIDDEN
 70
     0
  3
__ __ __ __ __ __ __ __ __ __ __ __ __ __ __
 72
    65
 73
     2
 40
3.5
 49
2.0
 74
     0
 49
-1.5
 74
     0
  0
LTYPE
  5
51A
330
5
100
AcDbSymbolTableRecord
100
AcDbLinetypeTableRecord
  2
PHANTOM2
 70
     0
  3
Phantom (.5x) ___ _ _ ___ _ _ ___ _ _ ___ _ _
 72
    65
 73
     6
 40
1.25
 49
0.625
 74
     0
 49
-0.125
 74
     0
 49
0.125
 74
     0
 49
-0.125
 74
     0
 49
0.125
 74
     0
 49
-0.125
 74
     0
  0
LTYPE
  5
54F
330
5
100
AcDbSymbolTableRecord
100
AcDbLinetypeTableRecord
  2
AM_ISO02W050
 70
     0
  3
__ __ __ __ __ __ __ __ __ __ __ __ __ __ __
 72
    65
 73
     2
 40
7.5
 49
6.0
 74
     0
 49
-1.5
 74
     0
  0
LTYPE
  5
550
330
5
100
AcDbSymbolTableRecord
100
AcDbLinetypeTableRecord
  2
AM_ISO08W050
 70
     0
  3
____ . ____ . ____ . ____ . ____ . ____ . ____
 72
    65
 73
     4
 40
18.0
 49
12.0
 74
     0
 49
-1.5
 74
     0
 49
3.0
 74
     0
 49
-1.5
 74
     0
  0
LTYPE
  5
551
330
5
100
AcDbSymbolTableRecord
100
AcDbLinetypeTableRecord
  2
AM_ISO09W050
 70
     0
  3
_____ . . _____ . . _____ . . ____ .. ____
 72
    65
 73
     6
 40
22.5
 49
12.0
 74
     0
 49
-1.5
 74
     0
 49
3.0
 74
     0
 49
-1.5
 74
     0
 49
3.0
 74
     0
 49
-1.5
 74
     0
  0
LTYPE
  5
552
330
5
100
AcDbSymbolTableRecord
100
AcDbLinetypeTableRecord
  2
Amconstr
 70
     0
  3
_______________________
 72
    65
 73
     2
 40
9999.0
 49
9999.0
 74
     0
 49
0.0
 74
     0
  0
LTYPE
  5
553
330
5
100
AcDbSymbolTableRecord
100
AcDbLinetypeTableRecord
  2
AM_ISO08W050x2
 70
     0
  3
__ . __ . __ . __ . __ . __
 72
    65
 73
     4
 40
9.0
 49
6.0
 74
     0
 49
-0.75
 74
     0
 49
1.5
 74
     0
 49
-0.75
 74
     0
  0
LTYPE
  5
554
330
5
100
AcDbSymbolTableRecord
100
AcDbLinetypeTableRecord
  2
AM_ISO02W050x2
 70
     0
  3
 _ _ _ _ _ _ _ _ _ _ _ _
 72
    65
 73
     2
 40
3.75
 49
3.0
 74
     0
 49
-0.75
 74
     0
  0
LTYPE
  5
557
330
5
100
AcDbSymbolTableRecord
100
AcDbLinetypeTableRecord
  2
Amzigzag
 70
     0
  3
/\/-/\/-/\/-/\/-/\/-/\/
 72
    65
 73
     2
 40
11.0001
 49
0.0001
 74
     4
 75
   136
340
556
 46
0.04
 50
0.0
 44
0.0
 45
0.0
 49
-11.0
 74
     0
  0
LTYPE
  5
558
330
5
100
AcDbSymbolTableRecord
100
AcDbLinetypeTableRecord
  2
CENTER2
 70
     0
  3
Center (.5x) ___ _ ___ _ ___ _ ___ _ ___ _ ___
 72
    65
 73
     4
 40
1.125
 49
0.75
 74
     0
 49
-0.125
 74
     0
 49
0.125
 74
     0
 49
-0.125
 74
     0
  0
LTYPE
  5
559
330
5
100
AcDbSymbolTableRecord
100
AcDbLinetypeTableRecord
  2
HIDDEN2
 70
     0
  3
Hidden (.5x) _ _ _ _ _ _ _ _ _ _ _ _ _ _ _ _ _
 72
    65
 73
     2
 40
0.1875
 49
0.125
 74
     0
 49
-0.0625
 74
     0
  0
LTYPE
  5
55A
330
5
100
AcDbSymbolTableRecord
100
AcDbLinetypeTableRecord
  2
Amzigzag2
 70
     0
  3
/\/-/\/-/\/-/\/-/\/-/\/
 72
    65
 73
     2
 40
0.4401
 49
0.0001
 74
     4
 75
   136
340
556
 46
0.0016
 50
0.0
 44
0.0
 45
0.0
 49
-0.4400000000000001
 74
     0
  0
LTYPE
  5
569
330
5
100
AcDbSymbolTableRecord
100
AcDbLinetypeTableRecord
  2
ACANSTGB
 70
     0
  3
__ . . __ . .
 72
    65
 73
     6
 40
0.35433070866
 49
0.15748031496
 74
     0
 49
-0.03937007874
 74
     0
 49
0.03937007874
 74
     0
 49
-0.03937007874
 74
     0
 49
0.03937007874
 74
     0
 49
-0.03937007874
 74
     0
  0
LTYPE
  5
56A
330
5
100
AcDbSymbolTableRecord
100
AcDbLinetypeTableRecord
  2
ACANSTGL
 70
     0
  3
_ _ _ _ _
 72
    65
 73
     2
 40
0.11811023622
 49
0.07874015748
 74
     0
 49
-0.03937007874
 74
     0
  0
ENDTAB
  0
TABLE
  2
LAYER
  5
2
330
0
100
AcDbSymbolTable
 70
     4
  0
LAYER
  5
25
330
2
100
AcDbSymbolTableRecord
100
AcDbLayerTableRecord
  2
0
 70
     0
 62
     7
  6
CONTINUOUS
370
    -3
390
F
  0
LAYER
  5
3F
330
2
100
AcDbSymbolTableRecord
100
AcDbLayerTableRecord
  2
1
 70
     0
 62
     7
  6
CONTINUOUS
370
    -3
390
F
  0
LAYER
  5
40
330
2
100
AcDbSymbolTableRecord
100
AcDbLayerTableRecord
  2
2
 70
     0
 62
     7
  6
CONTINUOUS
370
    -3
390
F
  0
LAYER
  5
41
330
2
100
AcDbSymbolTableRecord
100
AcDbLayerTableRecord
  2
DEFPOINTS
 70
     0
 62
     7
  6
CONTINUOUS
290
     0
370
    -3
390
F
  0
ENDTAB
  0
TABLE
  2
STYLE
  5
3
330
0
100
AcDbSymbolTable
 70
     4
  0
STYLE
  5
26
330
3
100
AcDbSymbolTableRecord
100
AcDbTextStyleTableRecord
  2
STANDARD
 70
     0
 40
0.0
 41
1.0
 50
0.0
 71
     0
 42
0.2
  3
txt
  4
BIGFONT
  0
STYLE
  5
556
330
3
100
AcDbSymbolTableRecord
100
AcDbTextStyleTableRecord
  2

 70
     1
 40
0.0
 41
1.0
 50
0.0
 71
     0
 42
3.2
  3
genltshp.shx
  4

  0
STYLE
  5
55B
330
3
100
AcDbSymbolTableRecord
100
AcDbTextStyleTableRecord
  2
ACANSTS
 70
     0
 40
1.0
 41
1.0
 50
0.0
 71
     0
 42
3.2
  3
romans.shx
  4
extfont.shx
  0
STYLE
  5
568
330
3
100
AcDbSymbolTableRecord
100
AcDbTextStyleTableRecord
  2
ACANSGDT
 70
     0
 40
0.0
 41
1.0
 50
0.0
 71
     0
 42
3.2
  3
amgdt.shx
  4

  0
ENDTAB
  0
TABLE
  2
VIEW
  5
6
330
0
100
AcDbSymbolTable
 70
     0
  0
ENDTAB
  0
TABLE
  2
UCS
  5
7
330
0
100
AcDbSymbolTable
 70
     0
  0
ENDTAB
  0
TABLE
  2
APPID
  5
9
330
0
100
AcDbSymbolTable
 70
     9
  0
APPID
  5
27
330
9
100
AcDbSymbolTableRecord
100
AcDbRegAppTableRecord
  2
ACAD
 70
     0
  0
APPID
  5
4ED
330
9
100
AcDbSymbolTableRecord
100
AcDbRegAppTableRecord
  2
MCAD_NO_VIS
 70
     0
  0
APPID
  5
4EE
330
9
100
AcDbSymbolTableRecord
100
AcDbRegAppTableRecord
  2
ACAD_TEMP_GRAPHIC
 70
     0
  0
APPID
  5
51C
330
9
100
AcDbSymbolTableRecord
100
AcDbRegAppTableRecord
  2
AD_DRAW
 70
     0
  0
APPID
  5
51F
330
9
100
AcDbSymbolTableRecord
100
AcDbRegAppTableRecord
  2
ACATTRIBSERVICES
 70
     0
  0
APPID
  5
540
330
9
100
AcDbSymbolTableRecord
100
AcDbRegAppTableRecord
  2
DESIGNERASSEMBLIES
 70
     0
  0
APPID
  5
546
330
9
100
AcDbSymbolTableRecord
100
AcDbRegAppTableRecord
  2
ACADM_DIM_EDIT
 70
     0
  0
APPID
  5
547
330
9
100
AcDbSymbolTableRecord
100
AcDbRegAppTableRecord
  2
AMDT_DM_ADJ
 70
     0
  0
APPID
  5
5C8
330
9
100
AcDbSymbolTableRecord
100
AcDbRegAppTableRecord
  2
ACAD_DSTYLE_DIMARC_LENGTH_SYMBOL
 70
     0
  0
ENDTAB
  0
TABLE
  2
DIMSTYLE
  5
A
330
0
100
AcDbSymbolTable
 70
     7
100
AcDbDimStyleTable
 71
     0
  0
DIMSTYLE
105
42
102
{ACAD_REACTORS
330
4C1
330
4C2
330
4C3
330
4C4
330
4C5
330
4C6
330
4C7
330
4C8
330
4C9
330
4CA
330
4CB
330
4CC
330
4CD
330
4CE
330
4CF
330
4D0
330
4D1
330
4D2
330
4D3
330
4D4
330
4D5
330
4D7
330
4D8
330
4D9
330
4DA
330
4DB
330
4DC
330
4DD
330
4DE
330
4DF
330
4E0
330
4E1
330
4E2
330
4E4
330
4E5
330
4E6
102
}
330
A
100
AcDbSymbolTableRecord
100
AcDbDimStyleTableRecord
  2
DIMSTYLE
 70
     0
 41
1.0
 42
2.54
 44
2.54
 73
     0
 74
     0
140
3.2
147
1.6
173
     1
279
     2
340
26
  0
DIMSTYLE
105
576
330
A
100
AcDbSymbolTableRecord
100
AcDbDimStyleTableRecord
  2
AM_ANSI
 70
     0
  4
mm
 41
0.1
 42
0.05
 43
0.5
 44
0.1
 47
0.1
 48
0.1
 78
     7
 79
     2
140
0.12
141
0.0
146
0.71
147
0.06
176
   256
177
   256
178
     2
274
     4
284
     7
340
26
371
    -1
372
    -1
1001
ACAD_DSTYLE_DIMARC_LENGTH_SYMBOL
1070
   379
1070
     1
  0
DIMSTYLE
105
577
330
A
100
AcDbSymbolTableRecord
100
AcDbDimStyleTableRecord
  2
AM_ANSI$3
 70
     0
  4
mm
 41
0.1
 42
0.05
 43
0.5
 44
0.1
 47
0.1
 48
0.1
 78
     7
 79
     2
140
0.12
141
0.0
146
0.71
147
0.06
176
   256
177
   256
178
     2
274
     4
284
     7
288
     1
289
     0
340
26
371
    -1
372
    -1
1001
ACAD_DSTYLE_DIMARC_LENGTH_SYMBOL
1070
   379
1070
     1
  0
DIMSTYLE
105
578
330
A
100
AcDbSymbolTableRecord
100
AcDbDimStyleTableRecord
  2
AM_ANSI$4
 70
     0
  4
mm
 41
0.1
 42
0.05
 43
0.5
 44
0.1
 47
0.1
 48
0.1
 78
     7
 79
     2
140
0.12
141
0.0
146
0.71
147
0.06
176
   256
177
   256
178
     2
274
     4
284
     7
288
     1
289
     0
340
26
371
    -1
372
    -1
1001
ACAD_DSTYLE_DIMARC_LENGTH_SYMBOL
1070
   379
1070
     1
  0
DIMSTYLE
105
579
330
A
100
AcDbSymbolTableRecord
100
AcDbDimStyleTableRecord
  2
AM_ANSI$7
 70
     0
  4
mm
 41
0.1
 42
0.05
 43
0.5
 44
0.1
 47
0.1
 48
0.1
 78
     7
 79
     2
140
0.24
141
0.0
146
0.71
147
0.06
176
   256
177
   256
178
     2
274
     4
284
     7
340
26
371
    -1
372
    -1
1001
ACAD_DSTYLE_DIMARC_LENGTH_SYMBOL
1070
   379
1070
     1
  0
DIMSTYLE
105
57A
330
A
100
AcDbSymbolTableRecord
100
AcDbDimStyleTableRecord
  2
AM_ANSI$SF
 70
     0
  4
mm
 41
0.1
 42
0.05
 43
0.5
 44
0.1
 47
0.1
 48
0.1
 75
     1
 76
     1
 78
     7
 79
     2
140
0.12
141
0.0
146
0.71
147
0.06
176
   256
177
   256
178
     2
274
     4
284
     7
340
26
371
    -1
372
    -1
1001
ACAD_DSTYLE_DIMARC_LENGTH_SYMBOL
1070
   379
1070
     1
  0
DIMSTYLE
105
57F
330
A
100
AcDbSymbolTableRecord
100
AcDbDimStyleTableRecord
  2
AM_ANSI$SH
 70
     0
  4
mm
 41
0.1
 42
0.05
 43
0.5
 44
0.1
 47
0.1
 48
0.1
 75
     1
 76
     1
 78
     7
 79
     2
140
0.12
141
0.0
146
0.71
147
0.06
173
     1
176
   256
177
   256
178
     2
274
     4
284
     7
340
26
343
57B
371
    -1
372
    -1
1001
ACAD_DSTYLE_DIMARC_LENGTH_SYMBOL
1070
   379
1070
     1
  0
ENDTAB
  0
TABLE
  2
BLOCK_RECORD
  5
1
330
0
100
AcDbSymbolTable
 70
    42
  0
BLOCK_RECORD
  5
36
330
1
100
AcDbSymbolTableRecord
100
AcDbBlockTableRecord
  2
*Model_Space
340
39
  0
BLOCK_RECORD
  5
32
330
1
100
AcDbSymbolTableRecord
100
AcDbBlockTableRecord
  2
*Paper_Space
340
35
  0
BLOCK_RECORD
  5
46
330
1
100
AcDbSymbolTableRecord
100
AcDbBlockTableRecord
  2
_OPEN
340
0
102
{BLKREFS
331
1C9
102
}
  0
BLOCK_RECORD
  5
4C
330
1
100
AcDbSymbolTableRecord
100
AcDbBlockTableRecord
  2
_DOT
340
0
102
{BLKREFS
331
57
331
58
331
63
331
64
331
6F
331
70
331
7A
331
7B
331
85
331
86
331
92
331
93
331
9F
331
A0
331
A9
331
AA
331
B5
331
B6
331
C0
331
C1
331
CB
331
CC
331
D7
331
D8
331
E3
331
E4
331
EE
331
EF
331
F9
331
FA
331
105
331
106
331
111
331
112
331
11D
331
11E
331
129
331
12A
331
135
331
136
331
140
331
141
331
14C
331
14D
331
158
331
159
331
164
331
165
331
170
331
171
331
17C
331
17D
331
188
331
189
331
192
331
193
331
19C
331
19D
331
1A7
331
1A8
331
1B2
331
1B3
331
1BE
331
1BF
331
1CA
331
1D3
331
1D4
331
1DF
331
1E0
331
1EA
331
1EB
102
}
  0
BLOCK_RECORD
  5
54
330
1
100
AcDbSymbolTableRecord
100
AcDbBlockTableRecord
  2
*D2
340
0
  0
BLOCK_RECORD
  5
60
330
1
100
AcDbSymbolTableRecord
100
AcDbBlockTableRecord
  2
*D3
340
0
  0
BLOCK_RECORD
  5
6C
330
1
100
AcDbSymbolTableRecord
100
AcDbBlockTableRecord
  2
*D4
340
0
  0
BLOCK_RECORD
  5
77
330
1
100
AcDbSymbolTableRecord
100
AcDbBlockTableRecord
  2
*D5
340
0
  0
BLOCK_RECORD
  5
82
330
1
100
AcDbSymbolTableRecord
100
AcDbBlockTableRecord
  2
*D6
340
0
  0
BLOCK_RECORD
  5
8E
330
1
100
AcDbSymbolTableRecord
100
AcDbBlockTableRecord
  2
*D7
340
0
  0
BLOCK_RECORD
  5
9B
330
1
100
AcDbSymbolTableRecord
100
AcDbBlockTableRecord
  2
*D8
340
0
  0
BLOCK_RECORD
  5
A6
330
1
100
AcDbSymbolTableRecord
100
AcDbBlockTableRecord
  2
*D9
340
0
  0
BLOCK_RECORD
  5
B2
330
1
100
AcDbSymbolTableRecord
100
AcDbBlockTableRecord
  2
*D10
340
0
  0
BLOCK_RECORD
  5
BD
330
1
100
AcDbSymbolTableRecord
100
AcDbBlockTableRecord
  2
*D11
340
0
  0
BLOCK_RECORD
  5
C8
330
1
100
AcDbSymbolTableRecord
100
AcDbBlockTableRecord
  2
*D12
340
0
  0
BLOCK_RECORD
  5
D4
330
1
100
AcDbSymbolTableRecord
100
AcDbBlockTableRecord
  2
*D13
340
0
  0
BLOCK_RECORD
  5
E0
330
1
100
AcDbSymbolTableRecord
100
AcDbBlockTableRecord
  2
*D14
340
0
  0
BLOCK_RECORD
  5
EB
330
1
100
AcDbSymbolTableRecord
100
AcDbBlockTableRecord
  2
*D15
340
0
  0
BLOCK_RECORD
  5
F6
330
1
100
AcDbSymbolTableRecord
100
AcDbBlockTableRecord
  2
*D16
340
0
  0
BLOCK_RECORD
  5
102
330
1
100
AcDbSymbolTableRecord
100
AcDbBlockTableRecord
  2
*D17
340
0
  0
BLOCK_RECORD
  5
10E
330
1
100
AcDbSymbolTableRecord
100
AcDbBlockTableRecord
  2
*D18
340
0
  0
BLOCK_RECORD
  5
119
330
1
100
AcDbSymbolTableRecord
100
AcDbBlockTableRecord
  2
*D19
340
0
  0
BLOCK_RECORD
  5
126
330
1
100
AcDbSymbolTableRecord
100
AcDbBlockTableRecord
  2
*D20
340
0
  0
BLOCK_RECORD
  5
132
330
1
100
AcDbSymbolTableRecord
100
AcDbBlockTableRecord
  2
*D21
340
0
  0
BLOCK_RECORD
  5
13D
330
1
100
AcDbSymbolTableRecord
100
AcDbBlockTableRecord
  2
*D22
340
0
  0
BLOCK_RECORD
  5
149
330
1
100
AcDbSymbolTableRecord
100
AcDbBlockTableRecord
  2
*D23
340
0
  0
BLOCK_RECORD
  5
155
330
1
100
AcDbSymbolTableRecord
100
AcDbBlockTableRecord
  2
*D24
340
0
  0
BLOCK_RECORD
  5
160
330
1
100
AcDbSymbolTableRecord
100
AcDbBlockTableRecord
  2
*D25
340
0
  0
BLOCK_RECORD
  5
16D
330
1
100
AcDbSymbolTableRecord
100
AcDbBlockTableRecord
  2
*D26
340
0
  0
BLOCK_RECORD
  5
179
330
1
100
AcDbSymbolTableRecord
100
AcDbBlockTableRecord
  2
*D27
340
0
  0
BLOCK_RECORD
  5
185
330
1
100
AcDbSymbolTableRecord
100
AcDbBlockTableRecord
  2
*D28
340
0
  0
BLOCK_RECORD
  5
18F
330
1
100
AcDbSymbolTableRecord
100
AcDbBlockTableRecord
  2
*D29
340
0
  0
BLOCK_RECORD
  5
199
330
1
100
AcDbSymbolTableRecord
100
AcDbBlockTableRecord
  2
*D30
340
0
  0
BLOCK_RECORD
  5
1A4
330
1
100
AcDbSymbolTableRecord
100
AcDbBlockTableRecord
  2
*D31
340
0
  0
BLOCK_RECORD
  5
1AF
330
1
100
AcDbSymbolTableRecord
100
AcDbBlockTableRecord
  2
*D32
340
0
  0
BLOCK_RECORD
  5
1BB
330
1
100
AcDbSymbolTableRecord
100
AcDbBlockTableRecord
  2
*D33
340
0
  0
BLOCK_RECORD
  5
1C6
330
1
100
AcDbSymbolTableRecord
100
AcDbBlockTableRecord
  2
*D34
340
0
  0
BLOCK_RECORD
  5
1D0
330
1
100
AcDbSymbolTableRecord
100
AcDbBlockTableRecord
  2
*D35
340
0
  0
BLOCK_RECORD
  5
1DC
330
1
100
AcDbSymbolTableRecord
100
AcDbBlockTableRecord
  2
*D36
340
0
  0
BLOCK_RECORD
  5
1E7
330
1
100
AcDbSymbolTableRecord
100
AcDbBlockTableRecord
  2
*D37
340
0
  0
BLOCK_RECORD
  5
1F3
330
1
100
AcDbSymbolTableRecord
100
AcDbBlockTableRecord
  2
KOZU0001
340
0
102
{BLKREFS
331
4D6
102
}
  0
BLOCK_RECORD
  5
1FB
330
1
100
AcDbSymbolTableRecord
100
AcDbBlockTableRecord
  2
KOZU0002
340
0
102
{BLKREFS
331
4E3
102
}
  0
BLOCK_RECORD
  5
57B
330
1
100
AcDbSymbolTableRecord
100
AcDbBlockTableRecord
  2
GENAXEH
340
0
  0
ENDTAB
  0
ENDSEC
  0
SECTION
  2
BLOCKS
  0
BLOCK
  5
37
330
36
100
AcDbEntity
  8
0
100
AcDbBlockBegin
  2
*Model_Space
 70
     0
 10
0.0
 20
0.0
 30
0.0
  3
*Model_Space
  1

  0
ENDBLK
  5
38
330
36
100
AcDbEntity
  8
0
100
AcDbBlockEnd
  0
BLOCK
  5
33
330
32
100
AcDbEntity
 67
     1
  8
0
100
AcDbBlockBegin
  2
*Paper_Space
 70
     0
 10
0.0
 20
0.0
 30
0.0
  3
*Paper_Space
  1

  0
ENDBLK
  5
34
330
32
100
AcDbEntity
 67
     1
  8
0
100
AcDbBlockEnd
  0
BLOCK
  5
47
330
46
100
AcDbEntity
  8
0
100
AcDbBlockBegin
  2
_OPEN
 70
     0
 10
0.0
 20
0.0
 30
0.0
  3
_OPEN
  1

  0
LINE
  5
48
330
46
100
AcDbEntity
  8
0
  6
ByBlock
 62
     0
100
AcDbLine
 10
0.0
 20
0.0
 30
0.0
 11
-3.128
 21
-0.56199999
 31
0.0
  0
LINE
  5
49
330
46
100
AcDbEntity
  8
0
  6
ByBlock
 62
     0
100
AcDbLine
 10
0.0
 20
0.0
 30
0.0
 11
-3.128
 21
0.56199999
 31
0.0
  0
LINE
  5
4A
330
46
100
AcDbEntity
  8
0
  6
ByBlock
 62
     0
100
AcDbLine
 10
0.0
 20
0.0
 30
0.0
 11
-3.0
 21
0.0
 31
0.0
  0
ENDBLK
  5
4B
330
46
100
AcDbEntity
  8
0
100
AcDbBlockEnd
  0
BLOCK
  5
4D
330
4C
100
AcDbEntity
  8
0
100
AcDbBlockBegin
  2
_DOT
 70
     0
 10
0.0
 20
0.0
 30
0.0
  3
_DOT
  1

  0
POLYLINE
  5
4E
330
4C
100
AcDbEntity
  8
0
  6
ByBlock
 62
     0
100
AcDb2dPolyline
 66
     1
 10
0.0
 20
0.0
 30
0.0
 70
     1
 40
0.4000000100000001
 41
0.4000000100000001
  0
VERTEX
  5
4F
330
4E
100
AcDbEntity
  8
0
  6
ByBlock
 62
     0
100
AcDbVertex
100
AcDb2dVertex
 10
-0.2
 20
0.0
 30
0.0
 42
1.0
  0
VERTEX
  5
50
330
4E
100
AcDbEntity
  8
0
  6
ByBlock
 62
     0
100
AcDbVertex
100
AcDb2dVertex
 10
0.2
 20
0.0
 30
0.0
 42
1.0
  0
SEQEND
  5
51
330
4E
100
AcDbEntity
  8
0
  6
ByBlock
 62
     0
  0
LINE
  5
52
330
4C
100
AcDbEntity
  8
0
  6
ByBlock
 62
     0
100
AcDbLine
 10
-0.4000000100000001
 20
0.0
 30
0.0
 11
-3.0
 21
0.0
 31
0.0
  0
ENDBLK
  5
53
330
4C
100
AcDbEntity
  8
0
100
AcDbBlockEnd
  0
BLOCK
  5
55
330
54
100
AcDbEntity
  8
0
100
AcDbBlockBegin
  2
*D2
 70
     1
 10
0.0
 20
0.0
 30
0.0
  3
*D2
  1

  0
LINE
  5
56
330
54
100
AcDbEntity
  8
0
  6
Continuous
 62
     7
100
AcDbLine
 10
-43.76747899999999
 20
74.67894699999999
 30
0.0
 11
-51.76747899999999
 21
74.67894699999999
 31
0.0
  0
INSERT
  5
57
330
54
100
AcDbEntity
  8
0
  6
Continuous
 62
     7
100
AcDbBlockReference
  2
_DOT
 10
-43.76747899999999
 20
74.67894699999999
 30
0.0
  0
INSERT
  5
58
330
54
100
AcDbEntity
  8
0
  6
Continuous
 62
     7
100
AcDbBlockReference
  2
_DOT
 10
-51.76747899999999
 20
74.67894699999999
 30
0.0
 50
180.0
  0
LINE
  5
59
330
54
100
AcDbEntity
  8
0
  6
Continuous
 62
     7
100
AcDbLine
 10
-43.76747899999999
 20
89.638948
 30
0.0
 11
-43.76747899999999
 21
73.47895099999999
 31
0.0
  0
LINE
  5
5A
330
54
100
AcDbEntity
  8
0
  6
Continuous
 62
     7
100
AcDbLine
 10
-51.76747899999999
 20
91.63894799999999
 30
0.0
 11
-51.76747899999999
 21
73.47895099999999
 31
0.0
  0
TEXT
  5
5B
330
54
100
AcDbEntity
  8
0
  6
Continuous
 62
     7
100
AcDbText
 10
-48.910479
 20
75.47894699999999
 30
0.0
 40
3.2
  1
8
100
AcDbText
  0
POINT
  5
5C
330
54
100
AcDbEntity
  8
DEFPOINTS
  6
Continuous
 62
     7
100
AcDbPoint
 10
-43.76747899999999
 20
92.178947
 30
0.0
  0
POINT
  5
5D
330
54
100
AcDbEntity
  8
DEFPOINTS
  6
Continuous
 62
     7
100
AcDbPoint
 10
-51.76747899999999
 20
94.17894699999999
 30
0.0
  0
POINT
  5
5E
330
54
100
AcDbEntity
  8
DEFPOINTS
  6
Continuous
 62
     7
100
AcDbPoint
 10
-51.76747899999999
 20
74.67894699999999
 30
0.0
  0
ENDBLK
  5
5F
330
54
100
AcDbEntity
  8
0
100
AcDbBlockEnd
  0
BLOCK
  5
61
330
60
100
AcDbEntity
  8
0
100
AcDbBlockBegin
  2
*D3
 70
     1
 10
0.0
 20
0.0
 30
0.0
  3
*D3
  1

  0
LINE
  5
62
330
60
100
AcDbEntity
  8
0
  6
Continuous
 62
     7
100
AcDbLine
 10
-51.76747899999999
 20
64.67894699999999
 30
0.0
 11
-53.767479
 21
64.67894699999999
 31
0.0
  0
INSERT
  5
63
330
60
100
AcDbEntity
  8
0
  6
Continuous
 62
     7
100
AcDbBlockReference
  2
_DOT
 10
-51.76747899999999
 20
64.67894699999999
 30
0.0
  0
INSERT
  5
64
330
60
100
AcDbEntity
  8
0
  6
Continuous
 62
     7
100
AcDbBlockReference
  2
_DOT
 10
-53.767479
 20
64.67894699999999
 30
0.0
 50
180.0
  0
LINE
  5
65
330
60
100
AcDbEntity
  8
0
  6
Continuous
 62
     7
100
AcDbLine
 10
-51.76747899999999
 20
91.63894799999999
 30
0.0
 11
-51.76747899999999
 21
63.478951
 31
0.0
  0
LINE
  5
66
330
60
100
AcDbEntity
  8
0
  6
Continuous
 62
     7
100
AcDbLine
 10
-53.767479
 20
92.638948
 30
0.0
 11
-53.767479
 21
63.478951
 31
0.0
  0
TEXT
  5
67
330
60
100
AcDbEntity
  8
0
  6
Continuous
 62
     7
100
AcDbText
 10
-53.910479
 20
65.47894699999999
 30
0.0
 40
3.2
  1
2
100
AcDbText
  0
POINT
  5
68
330
60
100
AcDbEntity
  8
DEFPOINTS
  6
Continuous
 62
     7
100
AcDbPoint
 10
-51.76747899999999
 20
94.17894699999999
 30
0.0
  0
POINT
  5
69
330
60
100
AcDbEntity
  8
DEFPOINTS
  6
Continuous
 62
     7
100
AcDbPoint
 10
-53.767479
 20
95.17894699999999
 30
0.0
  0
POINT
  5
6A
330
60
100
AcDbEntity
  8
DEFPOINTS
  6
Continuous
 62
     7
100
AcDbPoint
 10
-53.767479
 20
64.67894699999999
 30
0.0
  0
ENDBLK
  5
6B
330
60
100
AcDbEntity
  8
0
100
AcDbBlockEnd
  0
BLOCK
  5
6D
330
6C
100
AcDbEntity
  8
0
100
AcDbBlockBegin
  2
*D4
 70
     1
 10
0.0
 20
0.0
 30
0.0
  3
*D4
  1

  0
LINE
  5
6E
330
6C
100
AcDbEntity
  8
0
  6
Continuous
 62
     7
100
AcDbLine
 10
-51.76747899999999
 20
64.67894699999999
 30
0.0
 11
152.43246
 21
64.67894699999999
 31
0.0
  0
INSERT
  5
6F
330
6C
100
AcDbEntity
  8
0
  6
Continuous
 62
     7
100
AcDbBlockReference
  2
_DOT
 10
-51.76747899999999
 20
64.67894699999999
 30
0.0
 50
180.0
  0
INSERT
  5
70
330
6C
100
AcDbEntity
  8
0
  6
Continuous
 62
     7
100
AcDbBlockReference
  2
_DOT
 10
152.43246
 20
64.67894699999999
 30
0.0
  0
LINE
  5
71
330
6C
100
AcDbEntity
  8
0
  6
Continuous
 62
     7
100
AcDbLine
 10
152.43246
 20
91.63894799999999
 30
0.0
 11
152.43246
 21
63.478951
 31
0.0
  0
TEXT
  5
72
330
6C
100
AcDbEntity
  8
0
  6
Continuous
 62
     7
100
AcDbText
 10
49.18949699999999
 20
65.47894699999999
 30
0.0
 40
3.2
  1
Ｌ
 41
0.90047268
100
AcDbText
  0
POINT
  5
73
330
6C
100
AcDbEntity
  8
DEFPOINTS
  6
Continuous
 62
     7
100
AcDbPoint
 10
-51.76747899999999
 20
94.17894699999999
 30
0.0
  0
POINT
  5
74
330
6C
100
AcDbEntity
  8
DEFPOINTS
  6
Continuous
 62
     7
100
AcDbPoint
 10
152.43246
 20
94.17894699999999
 30
0.0
  0
POINT
  5
75
330
6C
100
AcDbEntity
  8
DEFPOINTS
  6
Continuous
 62
     7
100
AcDbPoint
 10
152.43246
 20
64.67894699999999
 30
0.0
  0
ENDBLK
  5
76
330
6C
100
AcDbEntity
  8
0
100
AcDbBlockEnd
  0
BLOCK
  5
78
330
77
100
AcDbEntity
  8
0
100
AcDbBlockBegin
  2
*D5
 70
     1
 10
0.0
 20
0.0
 30
0.0
  3
*D5
  1

  0
LINE
  5
79
330
77
100
AcDbEntity
  8
0
  6
Continuous
 62
     7
100
AcDbLine
 10
152.43246
 20
64.67894699999999
 30
0.0
 11
154.43246
 21
64.67894699999999
 31
0.0
  0
INSERT
  5
7A
330
77
100
AcDbEntity
  8
0
  6
Continuous
 62
     7
100
AcDbBlockReference
  2
_DOT
 10
152.43246
 20
64.67894699999999
 30
0.0
 50
180.0
  0
INSERT
  5
7B
330
77
100
AcDbEntity
  8
0
  6
Continuous
 62
     7
100
AcDbBlockReference
  2
_DOT
 10
154.43246
 20
64.67894699999999
 30
0.0
  0
LINE
  5
7C
330
77
100
AcDbEntity
  8
0
  6
Continuous
 62
     7
100
AcDbLine
 10
154.43246
 20
93.13894799999999
 30
0.0
 11
154.43246
 21
63.478951
 31
0.0
  0
TEXT
  5
7D
330
77
100
AcDbEntity
  8
0
  6
Continuous
 62
     7
100
AcDbText
 10
152.28946
 20
65.47894699999999
 30
0.0
 40
3.2
  1
2
100
AcDbText
  0
POINT
  5
7E
330
77
100
AcDbEntity
  8
DEFPOINTS
  6
Continuous
 62
     7
100
AcDbPoint
 10
152.43246
 20
94.17894699999999
 30
0.0
  0
POINT
  5
7F
330
77
100
AcDbEntity
  8
DEFPOINTS
  6
Continuous
 62
     7
100
AcDbPoint
 10
154.43246
 20
95.678947
 30
0.0
  0
POINT
  5
80
330
77
100
AcDbEntity
  8
DEFPOINTS
  6
Continuous
 62
     7
100
AcDbPoint
 10
154.43246
 20
64.67894699999999
 30
0.0
  0
ENDBLK
  5
81
330
77
100
AcDbEntity
  8
0
100
AcDbBlockEnd
  0
BLOCK
  5
83
330
82
100
AcDbEntity
  8
0
100
AcDbBlockBegin
  2
*D6
 70
     1
 10
0.0
 20
0.0
 30
0.0
  3
*D6
  1

  0
LINE
  5
84
330
82
100
AcDbEntity
  8
0
  6
Continuous
 62
     7
100
AcDbLine
 10
152.43246
 20
74.67894699999999
 30
0.0
 11
144.43246
 21
74.67894699999999
 31
0.0
  0
INSERT
  5
85
330
82
100
AcDbEntity
  8
0
  6
Continuous
 62
     7
100
AcDbBlockReference
  2
_DOT
 10
152.43246
 20
74.67894699999999
 30
0.0
  0
INSERT
  5
86
330
82
100
AcDbEntity
  8
0
  6
Continuous
 62
     7
100
AcDbBlockReference
  2
_DOT
 10
144.43246
 20
74.67894699999999
 30
0.0
 50
180.0
  0
LINE
  5
87
330
82
100
AcDbEntity
  8
0
  6
Continuous
 62
     7
100
AcDbLine
 10
152.43246
 20
91.63894799999999
 30
0.0
 11
152.43246
 21
73.47895099999999
 31
0.0
  0
LINE
  5
88
330
82
100
AcDbEntity
  8
0
  6
Continuous
 62
     7
100
AcDbLine
 10
144.43246
 20
91.138948
 30
0.0
 11
144.43246
 21
73.47895099999999
 31
0.0
  0
TEXT
  5
89
330
82
100
AcDbEntity
  8
0
  6
Continuous
 62
     7
100
AcDbText
 10
147.28946
 20
75.47894699999999
 30
0.0
 40
3.2
  1
8
100
AcDbText
  0
POINT
  5
8A
330
82
100
AcDbEntity
  8
DEFPOINTS
  6
Continuous
 62
     7
100
AcDbPoint
 10
152.43246
 20
94.17894699999999
 30
0.0
  0
POINT
  5
8B
330
82
100
AcDbEntity
  8
DEFPOINTS
  6
Continuous
 62
     7
100
AcDbPoint
 10
144.43246
 20
93.67894699999999
 30
0.0
  0
POINT
  5
8C
330
82
100
AcDbEntity
  8
DEFPOINTS
  6
Continuous
 62
     7
100
AcDbPoint
 10
144.43246
 20
74.67894699999999
 30
0.0
  0
ENDBLK
  5
8D
330
82
100
AcDbEntity
  8
0
100
AcDbBlockEnd
  0
BLOCK
  5
8F
330
8E
100
AcDbEntity
  8
0
100
AcDbBlockBegin
  2
*D7
 70
     1
 10
0.0
 20
0.0
 30
0.0
  3
*D7
  1

  0
LINE
  5
90
330
8E
100
AcDbEntity
  8
0
  6
Continuous
 62
     7
100
AcDbLine
 10
69.432472
 20
117.67895
 30
0.0
 11
69.432472
 21
126.49644
 31
0.0
  0
LINE
  5
91
330
8E
100
AcDbEntity
  8
0
  6
Continuous
 62
     7
100
AcDbLine
 10
69.432472
 20
89.678947
 30
0.0
 11
69.432472
 21
117.67895
 31
0.0
  0
INSERT
  5
92
330
8E
100
AcDbEntity
  8
0
  6
Continuous
 62
     7
100
AcDbBlockReference
  2
_DOT
 10
69.432472
 20
89.678947
 30
0.0
 50
270.0
  0
INSERT
  5
93
330
8E
100
AcDbEntity
  8
0
  6
Continuous
 62
     7
100
AcDbBlockReference
  2
_DOT
 10
69.432472
 20
117.67895
 30
0.0
 50
90.0
  0
LINE
  5
94
330
8E
100
AcDbEntity
  8
0
  6
Continuous
 62
     7
100
AcDbLine
 10
50.22247199999999
 20
89.678947
 30
0.0
 11
70.632469
 21
89.678947
 31
0.0
  0
LINE
  5
95
330
8E
100
AcDbEntity
  8
0
  6
Continuous
 62
     7
100
AcDbLine
 10
50.22247199999999
 20
117.67895
 30
0.0
 11
70.632469
 21
117.67895
 31
0.0
  0
TEXT
  5
96
330
8E
100
AcDbEntity
  8
0
  6
Continuous
 62
     7
100
AcDbText
 10
68.63247199999999
 20
121.01044
 30
0.0
 40
3.2
  1
28
 50
90.00000300000001
 41
1.028624999999999
100
AcDbText
  0
POINT
  5
97
330
8E
100
AcDbEntity
  8
DEFPOINTS
  6
Continuous
 62
     7
100
AcDbPoint
 10
47.682472
 20
89.678947
 30
0.0
  0
POINT
  5
98
330
8E
100
AcDbEntity
  8
DEFPOINTS
  6
Continuous
 62
     7
100
AcDbPoint
 10
47.682472
 20
117.67895
 30
0.0
  0
POINT
  5
99
330
8E
100
AcDbEntity
  8
DEFPOINTS
  6
Continuous
 62
     7
100
AcDbPoint
 10
69.432472
 20
117.67895
 30
0.0
  0
ENDBLK
  5
9A
330
8E
100
AcDbEntity
  8
0
100
AcDbBlockEnd
  0
BLOCK
  5
9C
330
9B
100
AcDbEntity
  8
0
100
AcDbBlockBegin
  2
*D8
 70
     1
 10
0.0
 20
0.0
 30
0.0
  3
*D8
  1

  0
LINE
  5
9D
330
9B
100
AcDbEntity
  8
0
  6
Continuous
 62
     7
100
AcDbLine
 10
-4.9301572
 20
113.17893
 30
0.0
 11
-4.9301572
 21
123.14574
 31
0.0
  0
LINE
  5
9E
330
9B
100
AcDbEntity
  8
0
  6
Continuous
 62
     7
100
AcDbLine
 10
-4.9301572
 20
94.17893199999999
 30
0.0
 11
-4.9301572
 21
113.17893
 31
0.0
  0
INSERT
  5
9F
330
9B
100
AcDbEntity
  8
0
  6
Continuous
 62
     7
100
AcDbBlockReference
  2
_DOT
 10
-4.9301572
 20
94.17893199999999
 30
0.0
 50
270.0
  0
INSERT
  5
A0
330
9B
100
AcDbEntity
  8
0
  6
Continuous
 62
     7
100
AcDbBlockReference
  2
_DOT
 10
-4.9301572
 20
113.17893
 30
0.0
 50
90.0
  0
TEXT
  5
A1
330
9B
100
AcDbEntity
  8
0
  6
Continuous
 62
     7
100
AcDbText
 10
-5.730157099999999
 20
117.65974
 30
0.0
 40
3.2
  1
19
 50
90.00000300000001
 41
1.285781199999999
100
AcDbText
  0
POINT
  5
A2
330
9B
100
AcDbEntity
  8
DEFPOINTS
  6
Continuous
 62
     7
100
AcDbPoint
 10
13.240455
 20
94.17893199999999
 30
0.0
  0
POINT
  5
A3
330
9B
100
AcDbEntity
  8
DEFPOINTS
  6
Continuous
 62
     7
100
AcDbPoint
 10
13.240455
 20
113.17893
 30
0.0
  0
POINT
  5
A4
330
9B
100
AcDbEntity
  8
DEFPOINTS
  6
Continuous
 62
     7
100
AcDbPoint
 10
-4.9301572
 20
113.17893
 30
0.0
  0
ENDBLK
  5
A5
330
9B
100
AcDbEntity
  8
0
100
AcDbBlockEnd
  0
BLOCK
  5
A7
330
A6
100
AcDbEntity
  8
0
100
AcDbBlockBegin
  2
*D9
 70
     1
 10
0.0
 20
0.0
 30
0.0
  3
*D9
  1

  0
LINE
  5
A8
330
A6
100
AcDbEntity
  8
0
  6
Continuous
 62
     7
100
AcDbLine
 10
4.432471299999999
 20
-28.321053
 30
0.0
 11
13.432471
 21
-28.321053
 31
0.0
  0
INSERT
  5
A9
330
A6
100
AcDbEntity
  8
0
  6
Continuous
 62
     7
100
AcDbBlockReference
  2
_DOT
 10
4.432471299999999
 20
-28.321053
 30
0.0
 50
180.0
  0
INSERT
  5
AA
330
A6
100
AcDbEntity
  8
0
  6
Continuous
 62
     7
100
AcDbBlockReference
  2
_DOT
 10
13.432471
 20
-28.321053
 30
0.0
  0
LINE
  5
AB
330
A6
100
AcDbEntity
  8
0
  6
Continuous
 62
     7
100
AcDbLine
 10
4.432471299999999
 20
-15.861052
 30
0.0
 11
4.432471299999999
 21
-29.521053
 31
0.0
  0
LINE
  5
AC
330
A6
100
AcDbEntity
  8
0
  6
Continuous
 62
     7
100
AcDbLine
 10
13.432471
 20
-16.361052
 30
0.0
 11
13.432471
 21
-29.521053
 31
0.0
  0
TEXT
  5
AD
330
A6
100
AcDbEntity
  8
0
  6
Continuous
 62
     7
100
AcDbText
 10
7.7894713
 20
-27.521053
 30
0.0
 40
3.2
  1
9
100
AcDbText
  0
POINT
  5
AE
330
A6
100
AcDbEntity
  8
DEFPOINTS
  6
Continuous
 62
     7
100
AcDbPoint
 10
4.432471299999999
 20
-13.321053
 30
0.0
  0
POINT
  5
AF
330
A6
100
AcDbEntity
  8
DEFPOINTS
  6
Continuous
 62
     7
100
AcDbPoint
 10
13.432471
 20
-13.821053
 30
0.0
  0
POINT
  5
B0
330
A6
100
AcDbEntity
  8
DEFPOINTS
  6
Continuous
 62
     7
100
AcDbPoint
 10
13.432471
 20
-28.321053
 30
0.0
  0
ENDBLK
  5
B1
330
A6
100
AcDbEntity
  8
0
100
AcDbBlockEnd
  0
BLOCK
  5
B3
330
B2
100
AcDbEntity
  8
0
100
AcDbBlockBegin
  2
*D10
 70
     1
 10
0.0
 20
0.0
 30
0.0
  3
*D10
  1

  0
LINE
  5
B4
330
B2
100
AcDbEntity
  8
0
  6
Continuous
 62
     7
100
AcDbLine
 10
45.43247199999999
 20
-28.321053
 30
0.0
 11
13.432471
 21
-28.321053
 31
0.0
  0
INSERT
  5
B5
330
B2
100
AcDbEntity
  8
0
  6
Continuous
 62
     7
100
AcDbBlockReference
  2
_DOT
 10
45.43247199999999
 20
-28.321053
 30
0.0
  0
INSERT
  5
B6
330
B2
100
AcDbEntity
  8
0
  6
Continuous
 62
     7
100
AcDbBlockReference
  2
_DOT
 10
13.432471
 20
-28.321053
 30
0.0
 50
180.0
  0
LINE
  5
B7
330
B2
100
AcDbEntity
  8
0
  6
Continuous
 62
     7
100
AcDbLine
 10
45.43247199999999
 20
-16.361052
 30
0.0
 11
45.43247199999999
 21
-29.521053
 31
0.0
  0
TEXT
  5
B8
330
B2
100
AcDbEntity
  8
0
  6
Continuous
 62
     7
100
AcDbText
 10
26.689472
 20
-27.521053
 30
0.0
 40
3.2
  1
32
 41
1.028624999999999
100
AcDbText
  0
POINT
  5
B9
330
B2
100
AcDbEntity
  8
DEFPOINTS
  6
Continuous
 62
     7
100
AcDbPoint
 10
45.43247199999999
 20
-13.821053
 30
0.0
  0
POINT
  5
BA
330
B2
100
AcDbEntity
  8
DEFPOINTS
  6
Continuous
 62
     7
100
AcDbPoint
 10
13.432471
 20
-13.821053
 30
0.0
  0
POINT
  5
BB
330
B2
100
AcDbEntity
  8
DEFPOINTS
  6
Continuous
 62
     7
100
AcDbPoint
 10
13.432471
 20
-28.321053
 30
0.0
  0
ENDBLK
  5
BC
330
B2
100
AcDbEntity
  8
0
100
AcDbBlockEnd
  0
BLOCK
  5
BE
330
BD
100
AcDbEntity
  8
0
100
AcDbBlockBegin
  2
*D11
 70
     1
 10
0.0
 20
0.0
 30
0.0
  3
*D11
  1

  0
LINE
  5
BF
330
BD
100
AcDbEntity
  8
0
  6
Continuous
 62
     7
100
AcDbLine
 10
45.43247199999999
 20
-28.321053
 30
0.0
 11
54.432472
 21
-28.321053
 31
0.0
  0
INSERT
  5
C0
330
BD
100
AcDbEntity
  8
0
  6
Continuous
 62
     7
100
AcDbBlockReference
  2
_DOT
 10
45.43247199999999
 20
-28.321053
 30
0.0
 50
180.0
  0
INSERT
  5
C1
330
BD
100
AcDbEntity
  8
0
  6
Continuous
 62
     7
100
AcDbBlockReference
  2
_DOT
 10
54.432472
 20
-28.321053
 30
0.0
  0
LINE
  5
C2
330
BD
100
AcDbEntity
  8
0
  6
Continuous
 62
     7
100
AcDbLine
 10
54.432472
 20
-15.861052
 30
0.0
 11
54.432472
 21
-29.521053
 31
0.0
  0
TEXT
  5
C3
330
BD
100
AcDbEntity
  8
0
  6
Continuous
 62
     7
100
AcDbText
 10
48.78947199999999
 20
-27.521053
 30
0.0
 40
3.2
  1
9
100
AcDbText
  0
POINT
  5
C4
330
BD
100
AcDbEntity
  8
DEFPOINTS
  6
Continuous
 62
     7
100
AcDbPoint
 10
45.43247199999999
 20
-13.821053
 30
0.0
  0
POINT
  5
C5
330
BD
100
AcDbEntity
  8
DEFPOINTS
  6
Continuous
 62
     7
100
AcDbPoint
 10
54.432472
 20
-13.321053
 30
0.0
  0
POINT
  5
C6
330
BD
100
AcDbEntity
  8
DEFPOINTS
  6
Continuous
 62
     7
100
AcDbPoint
 10
54.432472
 20
-28.321053
 30
0.0
  0
ENDBLK
  5
C7
330
BD
100
AcDbEntity
  8
0
100
AcDbBlockEnd
  0
BLOCK
  5
C9
330
C8
100
AcDbEntity
  8
0
100
AcDbBlockBegin
  2
*D12
 70
     1
 10
0.0
 20
0.0
 30
0.0
  3
*D12
  1

  0
LINE
  5
CA
330
C8
100
AcDbEntity
  8
0
  6
Continuous
 62
     7
100
AcDbLine
 10
54.432472
 20
-38.32105300000001
 30
0.0
 11
4.432471299999999
 21
-38.32105300000001
 31
0.0
  0
INSERT
  5
CB
330
C8
100
AcDbEntity
  8
0
  6
Continuous
 62
     7
100
AcDbBlockReference
  2
_DOT
 10
54.432472
 20
-38.32105300000001
 30
0.0
  0
INSERT
  5
CC
330
C8
100
AcDbEntity
  8
0
  6
Continuous
 62
     7
100
AcDbBlockReference
  2
_DOT
 10
4.432471299999999
 20
-38.32105300000001
 30
0.0
 50
180.0
  0
LINE
  5
CD
330
C8
100
AcDbEntity
  8
0
  6
Continuous
 62
     7
100
AcDbLine
 10
54.432472
 20
-15.861052
 30
0.0
 11
54.432472
 21
-39.521053
 31
0.0
  0
LINE
  5
CE
330
C8
100
AcDbEntity
  8
0
  6
Continuous
 62
     7
100
AcDbLine
 10
4.432471299999999
 20
-15.861052
 30
0.0
 11
4.432471299999999
 21
-39.521053
 31
0.0
  0
TEXT
  5
CF
330
C8
100
AcDbEntity
  8
0
  6
Continuous
 62
     7
100
AcDbText
 10
26.689472
 20
-37.521053
 30
0.0
 40
3.2
  1
50
 41
1.102098199999999
100
AcDbText
  0
POINT
  5
D0
330
C8
100
AcDbEntity
  8
DEFPOINTS
  6
Continuous
 62
     7
100
AcDbPoint
 10
54.432472
 20
-13.321053
 30
0.0
  0
POINT
  5
D1
330
C8
100
AcDbEntity
  8
DEFPOINTS
  6
Continuous
 62
     7
100
AcDbPoint
 10
4.432471299999999
 20
-13.321053
 30
0.0
  0
POINT
  5
D2
330
C8
100
AcDbEntity
  8
DEFPOINTS
  6
Continuous
 62
     7
100
AcDbPoint
 10
4.432471299999999
 20
-38.32105300000001
 30
0.0
  0
ENDBLK
  5
D3
330
C8
100
AcDbEntity
  8
0
100
AcDbBlockEnd
  0
BLOCK
  5
D5
330
D4
100
AcDbEntity
  8
0
100
AcDbBlockBegin
  2
*D13
 70
     1
 10
0.0
 20
0.0
 30
0.0
  3
*D13
  1

  0
LINE
  5
D6
330
D4
100
AcDbEntity
  8
0
  6
Continuous
 62
     7
100
AcDbLine
 10
-18.767481
 20
-28.321053
 30
0.0
 11
-27.767481
 21
-28.321053
 31
0.0
  0
INSERT
  5
D7
330
D4
100
AcDbEntity
  8
0
  6
Continuous
 62
     7
100
AcDbBlockReference
  2
_DOT
 10
-18.767481
 20
-28.321053
 30
0.0
  0
INSERT
  5
D8
330
D4
100
AcDbEntity
  8
0
  6
Continuous
 62
     7
100
AcDbBlockReference
  2
_DOT
 10
-27.767481
 20
-28.321053
 30
0.0
 50
180.0
  0
LINE
  5
D9
330
D4
100
AcDbEntity
  8
0
  6
Continuous
 62
     7
100
AcDbLine
 10
-18.767481
 20
0.13894848
 30
0.0
 11
-18.767481
 21
-29.521053
 31
0.0
  0
LINE
  5
DA
330
D4
100
AcDbEntity
  8
0
  6
Continuous
 62
     7
100
AcDbLine
 10
-27.767481
 20
-0.36105152
 30
0.0
 11
-27.767481
 21
-29.521053
 31
0.0
  0
TEXT
  5
DB
330
D4
100
AcDbEntity
  8
0
  6
Continuous
 62
     7
100
AcDbText
 10
-24.410481
 20
-27.521053
 30
0.0
 40
3.2
  1
9
100
AcDbText
  0
POINT
  5
DC
330
D4
100
AcDbEntity
  8
DEFPOINTS
  6
Continuous
 62
     7
100
AcDbPoint
 10
-18.767481
 20
2.678948399999999
 30
0.0
  0
POINT
  5
DD
330
D4
100
AcDbEntity
  8
DEFPOINTS
  6
Continuous
 62
     7
100
AcDbPoint
 10
-27.767481
 20
2.178948399999999
 30
0.0
  0
POINT
  5
DE
330
D4
100
AcDbEntity
  8
DEFPOINTS
  6
Continuous
 62
     7
100
AcDbPoint
 10
-27.767481
 20
-28.321053
 30
0.0
  0
ENDBLK
  5
DF
330
D4
100
AcDbEntity
  8
0
100
AcDbBlockEnd
  0
BLOCK
  5
E1
330
E0
100
AcDbEntity
  8
0
100
AcDbBlockBegin
  2
*D14
 70
     1
 10
0.0
 20
0.0
 30
0.0
  3
*D14
  1

  0
LINE
  5
E2
330
E0
100
AcDbEntity
  8
0
  6
Continuous
 62
     7
100
AcDbLine
 10
-27.767481
 20
-28.321053
 30
0.0
 11
-59.767479
 21
-28.321053
 31
0.0
  0
INSERT
  5
E3
330
E0
100
AcDbEntity
  8
0
  6
Continuous
 62
     7
100
AcDbBlockReference
  2
_DOT
 10
-27.767481
 20
-28.321053
 30
0.0
  0
INSERT
  5
E4
330
E0
100
AcDbEntity
  8
0
  6
Continuous
 62
     7
100
AcDbBlockReference
  2
_DOT
 10
-59.767479
 20
-28.321053
 30
0.0
 50
180.0
  0
LINE
  5
E5
330
E0
100
AcDbEntity
  8
0
  6
Continuous
 62
     7
100
AcDbLine
 10
-59.767479
 20
-0.36105152
 30
0.0
 11
-59.767479
 21
-29.521053
 31
0.0
  0
TEXT
  5
E6
330
E0
100
AcDbEntity
  8
0
  6
Continuous
 62
     7
100
AcDbText
 10
-46.510479
 20
-27.521053
 30
0.0
 40
3.2
  1
32
 41
1.028624999999999
100
AcDbText
  0
POINT
  5
E7
330
E0
100
AcDbEntity
  8
DEFPOINTS
  6
Continuous
 62
     7
100
AcDbPoint
 10
-27.767481
 20
2.178948399999999
 30
0.0
  0
POINT
  5
E8
330
E0
100
AcDbEntity
  8
DEFPOINTS
  6
Continuous
 62
     7
100
AcDbPoint
 10
-59.767479
 20
2.178948399999999
 30
0.0
  0
POINT
  5
E9
330
E0
100
AcDbEntity
  8
DEFPOINTS
  6
Continuous
 62
     7
100
AcDbPoint
 10
-59.767479
 20
-28.321053
 30
0.0
  0
ENDBLK
  5
EA
330
E0
100
AcDbEntity
  8
0
100
AcDbBlockEnd
  0
BLOCK
  5
EC
330
EB
100
AcDbEntity
  8
0
100
AcDbBlockBegin
  2
*D15
 70
     1
 10
0.0
 20
0.0
 30
0.0
  3
*D15
  1

  0
LINE
  5
ED
330
EB
100
AcDbEntity
  8
0
  6
Continuous
 62
     7
100
AcDbLine
 10
-59.767479
 20
-28.321053
 30
0.0
 11
-68.76747900000001
 21
-28.321053
 31
0.0
  0
INSERT
  5
EE
330
EB
100
AcDbEntity
  8
0
  6
Continuous
 62
     7
100
AcDbBlockReference
  2
_DOT
 10
-59.767479
 20
-28.321053
 30
0.0
  0
INSERT
  5
EF
330
EB
100
AcDbEntity
  8
0
  6
Continuous
 62
     7
100
AcDbBlockReference
  2
_DOT
 10
-68.76747900000001
 20
-28.321053
 30
0.0
 50
180.0
  0
LINE
  5
F0
330
EB
100
AcDbEntity
  8
0
  6
Continuous
 62
     7
100
AcDbLine
 10
-68.76747900000001
 20
0.13894848
 30
0.0
 11
-68.76747900000001
 21
-29.521053
 31
0.0
  0
TEXT
  5
F1
330
EB
100
AcDbEntity
  8
0
  6
Continuous
 62
     7
100
AcDbText
 10
-65.41047900000001
 20
-27.521053
 30
0.0
 40
3.2
  1
9
100
AcDbText
  0
POINT
  5
F2
330
EB
100
AcDbEntity
  8
DEFPOINTS
  6
Continuous
 62
     7
100
AcDbPoint
 10
-59.767479
 20
2.178948399999999
 30
0.0
  0
POINT
  5
F3
330
EB
100
AcDbEntity
  8
DEFPOINTS
  6
Continuous
 62
     7
100
AcDbPoint
 10
-68.76747900000001
 20
2.678948399999999
 30
0.0
  0
POINT
  5
F4
330
EB
100
AcDbEntity
  8
DEFPOINTS
  6
Continuous
 62
     7
100
AcDbPoint
 10
-68.76747900000001
 20
-28.321053
 30
0.0
  0
ENDBLK
  5
F5
330
EB
100
AcDbEntity
  8
0
100
AcDbBlockEnd
  0
BLOCK
  5
F7
330
F6
100
AcDbEntity
  8
0
100
AcDbBlockBegin
  2
*D16
 70
     1
 10
0.0
 20
0.0
 30
0.0
  3
*D16
  1

  0
LINE
  5
F8
330
F6
100
AcDbEntity
  8
0
  6
Continuous
 62
     7
100
AcDbLine
 10
-68.76747900000001
 20
-38.32105300000001
 30
0.0
 11
-18.767481
 21
-38.32105300000001
 31
0.0
  0
INSERT
  5
F9
330
F6
100
AcDbEntity
  8
0
  6
Continuous
 62
     7
100
AcDbBlockReference
  2
_DOT
 10
-68.76747900000001
 20
-38.32105300000001
 30
0.0
 50
180.0
  0
INSERT
  5
FA
330
F6
100
AcDbEntity
  8
0
  6
Continuous
 62
     7
100
AcDbBlockReference
  2
_DOT
 10
-18.767481
 20
-38.32105300000001
 30
0.0
  0
LINE
  5
FB
330
F6
100
AcDbEntity
  8
0
  6
Continuous
 62
     7
100
AcDbLine
 10
-68.76747900000001
 20
0.13894848
 30
0.0
 11
-68.76747900000001
 21
-39.521053
 31
0.0
  0
LINE
  5
FC
330
F6
100
AcDbEntity
  8
0
  6
Continuous
 62
     7
100
AcDbLine
 10
-18.767481
 20
0.13894848
 30
0.0
 11
-18.767481
 21
-39.521053
 31
0.0
  0
TEXT
  5
FD
330
F6
100
AcDbEntity
  8
0
  6
Continuous
 62
     7
100
AcDbText
 10
-46.510479
 20
-37.521053
 30
0.0
 40
3.2
  1
50
 41
1.102098199999999
100
AcDbText
  0
POINT
  5
FE
330
F6
100
AcDbEntity
  8
DEFPOINTS
  6
Continuous
 62
     7
100
AcDbPoint
 10
-68.76747900000001
 20
2.678948399999999
 30
0.0
  0
POINT
  5
FF
330
F6
100
AcDbEntity
  8
DEFPOINTS
  6
Continuous
 62
     7
100
AcDbPoint
 10
-18.767481
 20
2.678948399999999
 30
0.0
  0
POINT
  5
100
330
F6
100
AcDbEntity
  8
DEFPOINTS
  6
Continuous
 62
     7
100
AcDbPoint
 10
-18.767481
 20
-38.32105300000001
 30
0.0
  0
ENDBLK
  5
101
330
F6
100
AcDbEntity
  8
0
100
AcDbBlockEnd
  0
BLOCK
  5
103
330
102
100
AcDbEntity
  8
0
100
AcDbBlockBegin
  2
*D17
 70
     1
 10
0.0
 20
0.0
 30
0.0
  3
*D17
  1

  0
LINE
  5
104
330
102
100
AcDbEntity
  8
0
  6
Continuous
 62
     7
100
AcDbLine
 10
-78.76747900000001
 20
6.678948399999999
 30
0.0
 11
-78.76747900000001
 21
2.678948399999999
 31
0.0
  0
INSERT
  5
105
330
102
100
AcDbEntity
  8
0
  6
Continuous
 62
     7
100
AcDbBlockReference
  2
_DOT
 10
-78.76747900000001
 20
6.678948399999999
 30
0.0
 50
90.0
  0
INSERT
  5
106
330
102
100
AcDbEntity
  8
0
  6
Continuous
 62
     7
100
AcDbBlockReference
  2
_DOT
 10
-78.76747900000001
 20
2.678948399999999
 30
0.0
 50
270.0
  0
LINE
  5
107
330
102
100
AcDbEntity
  8
0
  6
Continuous
 62
     7
100
AcDbLine
 10
-67.329574
 20
6.678948399999999
 30
0.0
 11
-79.967476
 21
6.678948399999999
 31
0.0
  0
LINE
  5
108
330
102
100
AcDbEntity
  8
0
  6
Continuous
 62
     7
100
AcDbLine
 10
-71.307479
 20
2.678948399999999
 30
0.0
 11
-79.967476
 21
2.678948399999999
 31
0.0
  0
TEXT
  5
109
330
102
100
AcDbEntity
  8
0
  6
Continuous
 62
     7
100
AcDbText
 10
-79.567479
 20
3.535948399999999
 30
0.0
 40
3.2
  1
4
 50
90.00000300000001
100
AcDbText
  0
POINT
  5
10A
330
102
100
AcDbEntity
  8
DEFPOINTS
  6
Continuous
 62
     7
100
AcDbPoint
 10
-64.789574
 20
6.678948399999999
 30
0.0
  0
POINT
  5
10B
330
102
100
AcDbEntity
  8
DEFPOINTS
  6
Continuous
 62
     7
100
AcDbPoint
 10
-68.76747900000001
 20
2.678948399999999
 30
0.0
  0
POINT
  5
10C
330
102
100
AcDbEntity
  8
DEFPOINTS
  6
Continuous
 62
     7
100
AcDbPoint
 10
-78.76747900000001
 20
2.678948399999999
 30
0.0
  0
ENDBLK
  5
10D
330
102
100
AcDbEntity
  8
0
100
AcDbBlockEnd
  0
BLOCK
  5
10F
330
10E
100
AcDbEntity
  8
0
100
AcDbBlockBegin
  2
*D18
 70
     1
 10
0.0
 20
0.0
 30
0.0
  3
*D18
  1

  0
LINE
  5
110
330
10E
100
AcDbEntity
  8
0
  6
Continuous
 62
     7
100
AcDbLine
 10
-78.76747900000001
 20
6.678948399999999
 30
0.0
 11
-78.76747900000001
 21
10.678948
 31
0.0
  0
INSERT
  5
111
330
10E
100
AcDbEntity
  8
0
  6
Continuous
 62
     7
100
AcDbBlockReference
  2
_DOT
 10
-78.76747900000001
 20
6.678948399999999
 30
0.0
 50
270.0
  0
INSERT
  5
112
330
10E
100
AcDbEntity
  8
0
  6
Continuous
 62
     7
100
AcDbBlockReference
  2
_DOT
 10
-78.76747900000001
 20
10.678948
 30
0.0
 50
90.0
  0
LINE
  5
113
330
10E
100
AcDbEntity
  8
0
  6
Continuous
 62
     7
100
AcDbLine
 10
-67.329574
 20
10.678948
 30
0.0
 11
-79.967476
 21
10.678948
 31
0.0
  0
TEXT
  5
114
330
10E
100
AcDbEntity
  8
0
  6
Continuous
 62
     7
100
AcDbText
 10
-79.567479
 20
7.535948399999999
 30
0.0
 40
3.2
  1
4
 50
90.00000300000001
100
AcDbText
  0
POINT
  5
115
330
10E
100
AcDbEntity
  8
DEFPOINTS
  6
Continuous
 62
     7
100
AcDbPoint
 10
-64.789574
 20
6.678948399999999
 30
0.0
  0
POINT
  5
116
330
10E
100
AcDbEntity
  8
DEFPOINTS
  6
Continuous
 62
     7
100
AcDbPoint
 10
-64.789574
 20
10.678948
 30
0.0
  0
POINT
  5
117
330
10E
100
AcDbEntity
  8
DEFPOINTS
  6
Continuous
 62
     7
100
AcDbPoint
 10
-78.76747900000001
 20
10.678948
 30
0.0
  0
ENDBLK
  5
118
330
10E
100
AcDbEntity
  8
0
100
AcDbBlockEnd
  0
BLOCK
  5
11A
330
119
100
AcDbEntity
  8
0
100
AcDbBlockBegin
  2
*D19
 70
     1
 10
0.0
 20
0.0
 30
0.0
  3
*D19
  1

  0
LINE
  5
11B
330
119
100
AcDbEntity
  8
0
  6
Continuous
 62
     7
100
AcDbLine
 10
-78.76747900000001
 20
17.678949
 30
0.0
 11
-78.76747900000001
 21
28.051289
 31
0.0
  0
LINE
  5
11C
330
119
100
AcDbEntity
  8
0
  6
Continuous
 62
     7
100
AcDbLine
 10
-78.76747900000001
 20
15.178948
 30
0.0
 11
-78.76747900000001
 21
17.678949
 31
0.0
  0
INSERT
  5
11D
330
119
100
AcDbEntity
  8
0
  6
Continuous
 62
     7
100
AcDbBlockReference
  2
_DOT
 10
-78.76747900000001
 20
15.178948
 30
0.0
 50
270.0
  0
INSERT
  5
11E
330
119
100
AcDbEntity
  8
0
  6
Continuous
 62
     7
100
AcDbBlockReference
  2
_DOT
 10
-78.76747900000001
 20
17.678949
 30
0.0
 50
90.0
  0
LINE
  5
11F
330
119
100
AcDbEntity
  8
0
  6
Continuous
 62
     7
100
AcDbLine
 10
-71.307479
 20
15.178948
 30
0.0
 11
-79.967476
 21
15.178948
 31
0.0
  0
LINE
  5
120
330
119
100
AcDbEntity
  8
0
  6
Continuous
 62
     7
100
AcDbLine
 10
-71.307479
 20
17.678949
 30
0.0
 11
-79.967476
 21
17.678949
 31
0.0
  0
TEXT
  5
121
330
119
100
AcDbEntity
  8
0
  6
Continuous
 62
     7
100
AcDbText
 10
-79.567479
 20
19.365288
 30
0.0
 40
3.2
  1
2.5
 50
90.00000300000001
 41
1.357187499999999
100
AcDbText
  0
POINT
  5
122
330
119
100
AcDbEntity
  8
DEFPOINTS
  6
Continuous
 62
     7
100
AcDbPoint
 10
-68.76747900000001
 20
15.178948
 30
0.0
  0
POINT
  5
123
330
119
100
AcDbEntity
  8
DEFPOINTS
  6
Continuous
 62
     7
100
AcDbPoint
 10
-68.76747900000001
 20
17.678949
 30
0.0
  0
POINT
  5
124
330
119
100
AcDbEntity
  8
DEFPOINTS
  6
Continuous
 62
     7
100
AcDbPoint
 10
-78.76747900000001
 20
17.678949
 30
0.0
  0
ENDBLK
  5
125
330
119
100
AcDbEntity
  8
0
100
AcDbBlockEnd
  0
BLOCK
  5
127
330
126
100
AcDbEntity
  8
0
100
AcDbBlockBegin
  2
*D20
 70
     1
 10
0.0
 20
0.0
 30
0.0
  3
*D20
  1

  0
LINE
  5
128
330
126
100
AcDbEntity
  8
0
  6
Continuous
 62
     7
100
AcDbLine
 10
-88.76747900000001
 20
17.678949
 30
0.0
 11
-88.76747900000001
 21
18.678949
 31
0.0
  0
INSERT
  5
129
330
126
100
AcDbEntity
  8
0
  6
Continuous
 62
     7
100
AcDbBlockReference
  2
_DOT
 10
-88.76747900000001
 20
17.678949
 30
0.0
 50
270.0
  0
INSERT
  5
12A
330
126
100
AcDbEntity
  8
0
  6
Continuous
 62
     7
100
AcDbBlockReference
  2
_DOT
 10
-88.76747900000001
 20
18.678949
 30
0.0
 50
90.0
  0
LINE
  5
12B
330
126
100
AcDbEntity
  8
0
  6
Continuous
 62
     7
100
AcDbLine
 10
-71.307479
 20
17.678949
 30
0.0
 11
-89.967476
 21
17.678949
 31
0.0
  0
LINE
  5
12C
330
126
100
AcDbEntity
  8
0
  6
Continuous
 62
     7
100
AcDbLine
 10
-55.307601
 20
18.678949
 30
0.0
 11
-89.967476
 21
18.678949
 31
0.0
  0
TEXT
  5
12D
330
126
100
AcDbEntity
  8
0
  6
Continuous
 62
     7
100
AcDbText
 10
-89.56747900000001
 20
17.035949
 30
0.0
 40
3.2
  1
1
 50
90.00000300000001
 41
0.6666666700000001
100
AcDbText
  0
POINT
  5
12E
330
126
100
AcDbEntity
  8
DEFPOINTS
  6
Continuous
 62
     7
100
AcDbPoint
 10
-68.76747900000001
 20
17.678949
 30
0.0
  0
POINT
  5
12F
330
126
100
AcDbEntity
  8
DEFPOINTS
  6
Continuous
 62
     7
100
AcDbPoint
 10
-52.767601
 20
18.678949
 30
0.0
  0
POINT
  5
130
330
126
100
AcDbEntity
  8
DEFPOINTS
  6
Continuous
 62
     7
100
AcDbPoint
 10
-88.76747900000001
 20
18.678949
 30
0.0
  0
ENDBLK
  5
131
330
126
100
AcDbEntity
  8
0
100
AcDbBlockEnd
  0
BLOCK
  5
133
330
132
100
AcDbEntity
  8
0
100
AcDbBlockBegin
  2
*D21
 70
     1
 10
0.0
 20
0.0
 30
0.0
  3
*D21
  1

  0
LINE
  5
134
330
132
100
AcDbEntity
  8
0
  6
Continuous
 62
     7
100
AcDbLine
 10
-88.76747900000001
 20
2.678948399999999
 30
0.0
 11
-88.76747900000001
 21
17.678949
 31
0.0
  0
INSERT
  5
135
330
132
100
AcDbEntity
  8
0
  6
Continuous
 62
     7
100
AcDbBlockReference
  2
_DOT
 10
-88.76747900000001
 20
2.678948399999999
 30
0.0
 50
270.0
  0
INSERT
  5
136
330
132
100
AcDbEntity
  8
0
  6
Continuous
 62
     7
100
AcDbBlockReference
  2
_DOT
 10
-88.76747900000001
 20
17.678949
 30
0.0
 50
90.0
  0
LINE
  5
137
330
132
100
AcDbEntity
  8
0
  6
Continuous
 62
     7
100
AcDbLine
 10
-71.307479
 20
2.678948399999999
 30
0.0
 11
-89.967476
 21
2.678948399999999
 31
0.0
  0
TEXT
  5
138
330
132
100
AcDbEntity
  8
0
  6
Continuous
 62
     7
100
AcDbText
 10
-89.56747900000001
 20
7.435949299999999
 30
0.0
 40
3.2
  1
15
 50
90.00000300000001
 41
1.285781199999999
100
AcDbText
  0
POINT
  5
139
330
132
100
AcDbEntity
  8
DEFPOINTS
  6
Continuous
 62
     7
100
AcDbPoint
 10
-68.76747900000001
 20
2.678948399999999
 30
0.0
  0
POINT
  5
13A
330
132
100
AcDbEntity
  8
DEFPOINTS
  6
Continuous
 62
     7
100
AcDbPoint
 10
-68.76747900000001
 20
17.678949
 30
0.0
  0
POINT
  5
13B
330
132
100
AcDbEntity
  8
DEFPOINTS
  6
Continuous
 62
     7
100
AcDbPoint
 10
-88.76747900000001
 20
17.678949
 30
0.0
  0
ENDBLK
  5
13C
330
132
100
AcDbEntity
  8
0
100
AcDbBlockEnd
  0
BLOCK
  5
13E
330
13D
100
AcDbEntity
  8
0
100
AcDbBlockBegin
  2
*D22
 70
     1
 10
0.0
 20
0.0
 30
0.0
  3
*D22
  1

  0
LINE
  5
13F
330
13D
100
AcDbEntity
  8
0
  6
Continuous
 62
     7
100
AcDbLine
 10
-88.76747900000001
 20
2.678948399999999
 30
0.0
 11
-88.76747900000001
 21
-13.321053
 31
0.0
  0
INSERT
  5
140
330
13D
100
AcDbEntity
  8
0
  6
Continuous
 62
     7
100
AcDbBlockReference
  2
_DOT
 10
-88.76747900000001
 20
2.678948399999999
 30
0.0
 50
90.0
  0
INSERT
  5
141
330
13D
100
AcDbEntity
  8
0
  6
Continuous
 62
     7
100
AcDbBlockReference
  2
_DOT
 10
-88.76747900000001
 20
-13.321053
 30
0.0
 50
270.0
  0
LINE
  5
142
330
13D
100
AcDbEntity
  8
0
  6
Continuous
 62
     7
100
AcDbLine
 10
-71.307479
 20
2.678948399999999
 30
0.0
 11
-89.967476
 21
2.678948399999999
 31
0.0
  0
LINE
  5
143
330
13D
100
AcDbEntity
  8
0
  6
Continuous
 62
     7
100
AcDbLine
 10
1.892471399999999
 20
-13.321053
 30
0.0
 11
-89.967476
 21
-13.321053
 31
0.0
  0
TEXT
  5
144
330
13D
100
AcDbEntity
  8
0
  6
Continuous
 62
     7
100
AcDbText
 10
-89.56747900000001
 20
-8.064052099999999
 30
0.0
 40
3.2
  1
16
 50
90.00000300000001
 41
1.285781199999999
100
AcDbText
  0
POINT
  5
145
330
13D
100
AcDbEntity
  8
DEFPOINTS
  6
Continuous
 62
     7
100
AcDbPoint
 10
-68.76747900000001
 20
2.678948399999999
 30
0.0
  0
POINT
  5
146
330
13D
100
AcDbEntity
  8
DEFPOINTS
  6
Continuous
 62
     7
100
AcDbPoint
 10
4.432471299999999
 20
-13.321053
 30
0.0
  0
POINT
  5
147
330
13D
100
AcDbEntity
  8
DEFPOINTS
  6
Continuous
 62
     7
100
AcDbPoint
 10
-88.76747900000001
 20
-13.321053
 30
0.0
  0
ENDBLK
  5
148
330
13D
100
AcDbEntity
  8
0
100
AcDbBlockEnd
  0
BLOCK
  5
14A
330
149
100
AcDbEntity
  8
0
100
AcDbBlockBegin
  2
*D23
 70
     1
 10
0.0
 20
0.0
 30
0.0
  3
*D23
  1

  0
LINE
  5
14B
330
149
100
AcDbEntity
  8
0
  6
Continuous
 62
     7
100
AcDbLine
 10
69.432472
 20
-13.321053
 30
0.0
 11
69.432472
 21
-9.3210516
 31
0.0
  0
INSERT
  5
14C
330
149
100
AcDbEntity
  8
0
  6
Continuous
 62
     7
100
AcDbBlockReference
  2
_DOT
 10
69.432472
 20
-13.321053
 30
0.0
 50
270.0
  0
INSERT
  5
14D
330
149
100
AcDbEntity
  8
0
  6
Continuous
 62
     7
100
AcDbBlockReference
  2
_DOT
 10
69.432472
 20
-9.3210516
 30
0.0
 50
90.0
  0
LINE
  5
14E
330
149
100
AcDbEntity
  8
0
  6
Continuous
 62
     7
100
AcDbLine
 10
56.97247199999999
 20
-13.321053
 30
0.0
 11
70.632469
 21
-13.321053
 31
0.0
  0
LINE
  5
14F
330
149
100
AcDbEntity
  8
0
  6
Continuous
 62
     7
100
AcDbLine
 10
52.99444499999999
 20
-9.3210516
 30
0.0
 11
70.632469
 21
-9.3210516
 31
0.0
  0
TEXT
  5
150
330
149
100
AcDbEntity
  8
0
  6
Continuous
 62
     7
100
AcDbText
 10
68.63247199999999
 20
-12.464053
 30
0.0
 40
3.2
  1
4
 50
90.00000300000001
100
AcDbText
  0
POINT
  5
151
330
149
100
AcDbEntity
  8
DEFPOINTS
  6
Continuous
 62
     7
100
AcDbPoint
 10
54.432472
 20
-13.321053
 30
0.0
  0
POINT
  5
152
330
149
100
AcDbEntity
  8
DEFPOINTS
  6
Continuous
 62
     7
100
AcDbPoint
 10
50.454445
 20
-9.3210516
 30
0.0
  0
POINT
  5
153
330
149
100
AcDbEntity
  8
DEFPOINTS
  6
Continuous
 62
     7
100
AcDbPoint
 10
69.432472
 20
-9.3210516
 30
0.0
  0
ENDBLK
  5
154
330
149
100
AcDbEntity
  8
0
100
AcDbBlockEnd
  0
BLOCK
  5
156
330
155
100
AcDbEntity
  8
0
100
AcDbBlockBegin
  2
*D24
 70
     1
 10
0.0
 20
0.0
 30
0.0
  3
*D24
  1

  0
LINE
  5
157
330
155
100
AcDbEntity
  8
0
  6
Continuous
 62
     7
100
AcDbLine
 10
69.432472
 20
-9.3210516
 30
0.0
 11
69.432472
 21
-5.3210511
 31
0.0
  0
INSERT
  5
158
330
155
100
AcDbEntity
  8
0
  6
Continuous
 62
     7
100
AcDbBlockReference
  2
_DOT
 10
69.432472
 20
-9.3210516
 30
0.0
 50
270.0
  0
INSERT
  5
159
330
155
100
AcDbEntity
  8
0
  6
Continuous
 62
     7
100
AcDbBlockReference
  2
_DOT
 10
69.432472
 20
-5.3210511
 30
0.0
 50
90.0
  0
LINE
  5
15A
330
155
100
AcDbEntity
  8
0
  6
Continuous
 62
     7
100
AcDbLine
 10
52.99444499999999
 20
-5.3210511
 30
0.0
 11
70.632469
 21
-5.3210511
 31
0.0
  0
TEXT
  5
15B
330
155
100
AcDbEntity
  8
0
  6
Continuous
 62
     7
100
AcDbText
 10
68.63247199999999
 20
-8.464051599999999
 30
0.0
 40
3.2
  1
4
 50
90.00000300000001
100
AcDbText
  0
POINT
  5
15C
330
155
100
AcDbEntity
  8
DEFPOINTS
  6
Continuous
 62
     7
100
AcDbPoint
 10
50.454445
 20
-9.3210516
 30
0.0
  0
POINT
  5
15D
330
155
100
AcDbEntity
  8
DEFPOINTS
  6
Continuous
 62
     7
100
AcDbPoint
 10
50.454445
 20
-5.3210511
 30
0.0
  0
POINT
  5
15E
330
155
100
AcDbEntity
  8
DEFPOINTS
  6
Continuous
 62
     7
100
AcDbPoint
 10
69.432472
 20
-5.3210511
 30
0.0
  0
ENDBLK
  5
15F
330
155
100
AcDbEntity
  8
0
100
AcDbBlockEnd
  0
BLOCK
  5
161
330
160
100
AcDbEntity
  8
0
100
AcDbBlockBegin
  2
*D25
 70
     1
 10
0.0
 20
0.0
 30
0.0
  3
*D25
  1

  0
LINE
  5
162
330
160
100
AcDbEntity
  8
0
  6
Continuous
 62
     7
100
AcDbLine
 10
69.432472
 20
1.6789484
 30
0.0
 11
69.432472
 21
12.743138
 31
0.0
  0
LINE
  5
163
330
160
100
AcDbEntity
  8
0
  6
Continuous
 62
     7
100
AcDbLine
 10
69.432472
 20
-0.8210517799999999
 30
0.0
 11
69.432472
 21
1.6789484
 31
0.0
  0
INSERT
  5
164
330
160
100
AcDbEntity
  8
0
  6
Continuous
 62
     7
100
AcDbBlockReference
  2
_DOT
 10
69.432472
 20
-0.8210517799999999
 30
0.0
 50
270.0
  0
INSERT
  5
165
330
160
100
AcDbEntity
  8
0
  6
Continuous
 62
     7
100
AcDbBlockReference
  2
_DOT
 10
69.432472
 20
1.6789484
 30
0.0
 50
90.0
  0
LINE
  5
166
330
160
100
AcDbEntity
  8
0
  6
Continuous
 62
     7
100
AcDbLine
 10
56.97247199999999
 20
-0.8210517799999999
 30
0.0
 11
70.632469
 21
-0.8210517799999999
 31
0.0
  0
LINE
  5
167
330
160
100
AcDbEntity
  8
0
  6
Continuous
 62
     7
100
AcDbLine
 10
56.97247199999999
 20
1.6789484
 30
0.0
 11
70.632469
 21
1.6789484
 31
0.0
  0
TEXT
  5
168
330
160
100
AcDbEntity
  8
0
  6
Continuous
 62
     7
100
AcDbText
 10
68.63247199999999
 20
4.057137899999999
 30
0.0
 40
3.2
  1
2.5
 50
90.00000300000001
 41
1.357187499999999
100
AcDbText
  0
POINT
  5
169
330
160
100
AcDbEntity
  8
DEFPOINTS
  6
Continuous
 62
     7
100
AcDbPoint
 10
54.432472
 20
-0.8210517799999999
 30
0.0
  0
POINT
  5
16A
330
160
100
AcDbEntity
  8
DEFPOINTS
  6
Continuous
 62
     7
100
AcDbPoint
 10
54.432472
 20
1.6789484
 30
0.0
  0
POINT
  5
16B
330
160
100
AcDbEntity
  8
DEFPOINTS
  6
Continuous
 62
     7
100
AcDbPoint
 10
69.432472
 20
1.6789484
 30
0.0
  0
ENDBLK
  5
16C
330
160
100
AcDbEntity
  8
0
100
AcDbBlockEnd
  0
BLOCK
  5
16E
330
16D
100
AcDbEntity
  8
0
100
AcDbBlockBegin
  2
*D26
 70
     1
 10
0.0
 20
0.0
 30
0.0
  3
*D26
  1

  0
LINE
  5
16F
330
16D
100
AcDbEntity
  8
0
  6
Continuous
 62
     7
100
AcDbLine
 10
79.432472
 20
1.6789484
 30
0.0
 11
79.432472
 21
-13.321053
 31
0.0
  0
INSERT
  5
170
330
16D
100
AcDbEntity
  8
0
  6
Continuous
 62
     7
100
AcDbBlockReference
  2
_DOT
 10
79.432472
 20
1.6789484
 30
0.0
 50
90.0
  0
INSERT
  5
171
330
16D
100
AcDbEntity
  8
0
  6
Continuous
 62
     7
100
AcDbBlockReference
  2
_DOT
 10
79.432472
 20
-13.321053
 30
0.0
 50
270.0
  0
LINE
  5
172
330
16D
100
AcDbEntity
  8
0
  6
Continuous
 62
     7
100
AcDbLine
 10
56.97247199999999
 20
1.6789484
 30
0.0
 11
80.63246900000001
 21
1.6789484
 31
0.0
  0
LINE
  5
173
330
16D
100
AcDbEntity
  8
0
  6
Continuous
 62
     7
100
AcDbLine
 10
56.97247199999999
 20
-13.321053
 30
0.0
 11
80.63246900000001
 21
-13.321053
 31
0.0
  0
TEXT
  5
174
330
16D
100
AcDbEntity
  8
0
  6
Continuous
 62
     7
100
AcDbText
 10
78.63247199999999
 20
-8.564052099999999
 30
0.0
 40
3.2
  1
15
 50
90.00000300000001
 41
1.285781199999999
100
AcDbText
  0
POINT
  5
175
330
16D
100
AcDbEntity
  8
DEFPOINTS
  6
Continuous
 62
     7
100
AcDbPoint
 10
54.432472
 20
1.6789484
 30
0.0
  0
POINT
  5
176
330
16D
100
AcDbEntity
  8
DEFPOINTS
  6
Continuous
 62
     7
100
AcDbPoint
 10
54.432472
 20
-13.321053
 30
0.0
  0
POINT
  5
177
330
16D
100
AcDbEntity
  8
DEFPOINTS
  6
Continuous
 62
     7
100
AcDbPoint
 10
79.432472
 20
-13.321053
 30
0.0
  0
ENDBLK
  5
178
330
16D
100
AcDbEntity
  8
0
100
AcDbBlockEnd
  0
BLOCK
  5
17A
330
179
100
AcDbEntity
  8
0
100
AcDbBlockBegin
  2
*D27
 70
     1
 10
0.0
 20
0.0
 30
0.0
  3
*D27
  1

  0
LINE
  5
17B
330
179
100
AcDbEntity
  8
0
  6
Continuous
 62
     7
100
AcDbLine
 10
79.432472
 20
1.6789484
 30
0.0
 11
79.432472
 21
8.678948399999999
 31
0.0
  0
INSERT
  5
17C
330
179
100
AcDbEntity
  8
0
  6
Continuous
 62
     7
100
AcDbBlockReference
  2
_DOT
 10
79.432472
 20
1.6789484
 30
0.0
 50
270.0
  0
INSERT
  5
17D
330
179
100
AcDbEntity
  8
0
  6
Continuous
 62
     7
100
AcDbBlockReference
  2
_DOT
 10
79.432472
 20
8.678948399999999
 30
0.0
 50
90.0
  0
LINE
  5
17E
330
179
100
AcDbEntity
  8
0
  6
Continuous
 62
     7
100
AcDbLine
 10
56.97247199999999
 20
1.6789484
 30
0.0
 11
80.63246900000001
 21
1.6789484
 31
0.0
  0
LINE
  5
17F
330
179
100
AcDbEntity
  8
0
  6
Continuous
 62
     7
100
AcDbLine
 10
71.465499
 20
8.678948399999999
 30
0.0
 11
80.63246900000001
 21
8.678948399999999
 31
0.0
  0
TEXT
  5
180
330
179
100
AcDbEntity
  8
0
  6
Continuous
 62
     7
100
AcDbText
 10
78.63247199999999
 20
4.035948399999999
 30
0.0
 40
3.2
  1
7
 50
90.00000300000001
100
AcDbText
  0
POINT
  5
181
330
179
100
AcDbEntity
  8
DEFPOINTS
  6
Continuous
 62
     7
100
AcDbPoint
 10
54.432472
 20
1.6789484
 30
0.0
  0
POINT
  5
182
330
179
100
AcDbEntity
  8
DEFPOINTS
  6
Continuous
 62
     7
100
AcDbPoint
 10
68.925499
 20
8.678948399999999
 30
0.0
  0
POINT
  5
183
330
179
100
AcDbEntity
  8
DEFPOINTS
  6
Continuous
 62
     7
100
AcDbPoint
 10
79.432472
 20
8.678948399999999
 30
0.0
  0
ENDBLK
  5
184
330
179
100
AcDbEntity
  8
0
100
AcDbBlockEnd
  0
BLOCK
  5
186
330
185
100
AcDbEntity
  8
0
100
AcDbBlockBegin
  2
*D28
 70
     1
 10
0.0
 20
0.0
 30
0.0
  3
*D28
  1

  0
LINE
  5
187
330
185
100
AcDbEntity
  8
0
  6
Continuous
 62
     7
100
AcDbLine
 10
79.432472
 20
8.678948399999999
 30
0.0
 11
79.432472
 21
18.678949
 31
0.0
  0
INSERT
  5
188
330
185
100
AcDbEntity
  8
0
  6
Continuous
 62
     7
100
AcDbBlockReference
  2
_DOT
 10
79.432472
 20
8.678948399999999
 30
0.0
 50
270.0
  0
INSERT
  5
189
330
185
100
AcDbEntity
  8
0
  6
Continuous
 62
     7
100
AcDbBlockReference
  2
_DOT
 10
79.432472
 20
18.678949
 30
0.0
 50
90.0
  0
TEXT
  5
18A
330
185
100
AcDbEntity
  8
0
  6
Continuous
 62
     7
100
AcDbText
 10
78.63247199999999
 20
10.935949
 30
0.0
 40
3.2
  1
10
 50
90.00000300000001
 41
1.402670399999999
100
AcDbText
  0
POINT
  5
18B
330
185
100
AcDbEntity
  8
DEFPOINTS
  6
Continuous
 62
     7
100
AcDbPoint
 10
47.93247199999999
 20
8.678948399999999
 30
0.0
  0
POINT
  5
18C
330
185
100
AcDbEntity
  8
DEFPOINTS
  6
Continuous
 62
     7
100
AcDbPoint
 10
46.73349799999999
 20
18.678949
 30
0.0
  0
POINT
  5
18D
330
185
100
AcDbEntity
  8
DEFPOINTS
  6
Continuous
 62
     7
100
AcDbPoint
 10
79.432472
 20
18.678949
 30
0.0
  0
ENDBLK
  5
18E
330
185
100
AcDbEntity
  8
0
100
AcDbBlockEnd
  0
BLOCK
  5
190
330
18F
100
AcDbEntity
  8
0
100
AcDbBlockBegin
  2
*D29
 70
     1
 10
0.0
 20
0.0
 30
0.0
  3
*D29
  1

  0
LINE
  5
191
330
18F
100
AcDbEntity
  8
0
  6
Continuous
 62
     7
100
AcDbLine
 10
79.432472
 20
18.678949
 30
0.0
 11
79.432472
 21
28.678947
 31
0.0
  0
INSERT
  5
192
330
18F
100
AcDbEntity
  8
0
  6
Continuous
 62
     7
100
AcDbBlockReference
  2
_DOT
 10
79.432472
 20
18.678949
 30
0.0
 50
270.0
  0
INSERT
  5
193
330
18F
100
AcDbEntity
  8
0
  6
Continuous
 62
     7
100
AcDbBlockReference
  2
_DOT
 10
79.432472
 20
28.678947
 30
0.0
 50
90.0
  0
TEXT
  5
194
330
18F
100
AcDbEntity
  8
0
  6
Continuous
 62
     7
100
AcDbText
 10
78.63247199999999
 20
20.935947
 30
0.0
 40
3.2
  1
10
 50
90.00000300000001
 41
1.402670399999999
100
AcDbText
  0
POINT
  5
195
330
18F
100
AcDbEntity
  8
DEFPOINTS
  6
Continuous
 62
     7
100
AcDbPoint
 10
46.73349799999999
 20
18.678949
 30
0.0
  0
POINT
  5
196
330
18F
100
AcDbEntity
  8
DEFPOINTS
  6
Continuous
 62
     7
100
AcDbPoint
 10
45.5355
 20
28.678947
 30
0.0
  0
POINT
  5
197
330
18F
100
AcDbEntity
  8
DEFPOINTS
  6
Continuous
 62
     7
100
AcDbPoint
 10
79.432472
 20
28.678947
 30
0.0
  0
ENDBLK
  5
198
330
18F
100
AcDbEntity
  8
0
100
AcDbBlockEnd
  0
BLOCK
  5
19A
330
199
100
AcDbEntity
  8
0
100
AcDbBlockBegin
  2
*D30
 70
     1
 10
0.0
 20
0.0
 30
0.0
  3
*D30
  1

  0
LINE
  5
19B
330
199
100
AcDbEntity
  8
0
  6
Continuous
 62
     7
100
AcDbLine
 10
79.432472
 20
28.678947
 30
0.0
 11
79.432472
 21
37.878948
 31
0.0
  0
INSERT
  5
19C
330
199
100
AcDbEntity
  8
0
  6
Continuous
 62
     7
100
AcDbBlockReference
  2
_DOT
 10
79.432472
 20
28.678947
 30
0.0
 50
270.0
  0
INSERT
  5
19D
330
199
100
AcDbEntity
  8
0
  6
Continuous
 62
     7
100
AcDbBlockReference
  2
_DOT
 10
79.432472
 20
37.878948
 30
0.0
 50
90.0
  0
LINE
  5
19E
330
199
100
AcDbEntity
  8
0
  6
Continuous
 62
     7
100
AcDbLine
 10
45.197448
 20
37.878948
 30
0.0
 11
80.63246900000001
 21
37.878948
 31
0.0
  0
TEXT
  5
19F
330
199
100
AcDbEntity
  8
0
  6
Continuous
 62
     7
100
AcDbText
 10
78.63247199999999
 20
28.935946
 30
0.0
 40
3.2
  1
9.2
 50
90.00000300000001
 41
1.357187499999999
100
AcDbText
  0
POINT
  5
1A0
330
199
100
AcDbEntity
  8
DEFPOINTS
  6
Continuous
 62
     7
100
AcDbPoint
 10
45.5355
 20
28.678947
 30
0.0
  0
POINT
  5
1A1
330
199
100
AcDbEntity
  8
DEFPOINTS
  6
Continuous
 62
     7
100
AcDbPoint
 10
42.65744799999999
 20
37.878948
 30
0.0
  0
POINT
  5
1A2
330
199
100
AcDbEntity
  8
DEFPOINTS
  6
Continuous
 62
     7
100
AcDbPoint
 10
79.432472
 20
37.878948
 30
0.0
  0
ENDBLK
  5
1A3
330
199
100
AcDbEntity
  8
0
100
AcDbBlockEnd
  0
BLOCK
  5
1A5
330
1A4
100
AcDbEntity
  8
0
100
AcDbBlockBegin
  2
*D31
 70
     1
 10
0.0
 20
0.0
 30
0.0
  3
*D31
  1

  0
LINE
  5
1A6
330
1A4
100
AcDbEntity
  8
0
  6
Continuous
 62
     7
100
AcDbLine
 10
79.432472
 20
37.878948
 30
0.0
 11
79.432472
 21
43.878948
 31
0.0
  0
INSERT
  5
1A7
330
1A4
100
AcDbEntity
  8
0
  6
Continuous
 62
     7
100
AcDbBlockReference
  2
_DOT
 10
79.432472
 20
37.878948
 30
0.0
 50
270.0
  0
INSERT
  5
1A8
330
1A4
100
AcDbEntity
  8
0
  6
Continuous
 62
     7
100
AcDbBlockReference
  2
_DOT
 10
79.432472
 20
43.878948
 30
0.0
 50
90.0
  0
LINE
  5
1A9
330
1A4
100
AcDbEntity
  8
0
  6
Continuous
 62
     7
100
AcDbLine
 10
38.172423
 20
43.878948
 30
0.0
 11
80.63246900000001
 21
43.878948
 31
0.0
  0
TEXT
  5
1AA
330
1A4
100
AcDbEntity
  8
0
  6
Continuous
 62
     7
100
AcDbText
 10
78.63247199999999
 20
39.735948
 30
0.0
 40
3.2
  1
6
 50
90.00000300000001
100
AcDbText
  0
POINT
  5
1AB
330
1A4
100
AcDbEntity
  8
DEFPOINTS
  6
Continuous
 62
     7
100
AcDbPoint
 10
42.65744799999999
 20
37.878948
 30
0.0
  0
POINT
  5
1AC
330
1A4
100
AcDbEntity
  8
DEFPOINTS
  6
Continuous
 62
     7
100
AcDbPoint
 10
35.632423
 20
43.878948
 30
0.0
  0
POINT
  5
1AD
330
1A4
100
AcDbEntity
  8
DEFPOINTS
  6
Continuous
 62
     7
100
AcDbPoint
 10
79.432472
 20
43.878948
 30
0.0
  0
ENDBLK
  5
1AE
330
1A4
100
AcDbEntity
  8
0
100
AcDbBlockEnd
  0
BLOCK
  5
1B0
330
1AF
100
AcDbEntity
  8
0
100
AcDbBlockBegin
  2
*D32
 70
     1
 10
0.0
 20
0.0
 30
0.0
  3
*D32
  1

  0
LINE
  5
1B1
330
1AF
100
AcDbEntity
  8
0
  6
Continuous
 62
     7
100
AcDbLine
 10
144.43246
 20
-0.30099794
 30
0.0
 11
152.43246
 21
-0.30099794
 31
0.0
  0
INSERT
  5
1B2
330
1AF
100
AcDbEntity
  8
0
  6
Continuous
 62
     7
100
AcDbBlockReference
  2
_DOT
 10
144.43246
 20
-0.30099794
 30
0.0
 50
180.0
  0
INSERT
  5
1B3
330
1AF
100
AcDbEntity
  8
0
  6
Continuous
 62
     7
100
AcDbBlockReference
  2
_DOT
 10
152.43246
 20
-0.30099794
 30
0.0
  0
LINE
  5
1B4
330
1AF
100
AcDbEntity
  8
0
  6
Continuous
 62
     7
100
AcDbLine
 10
144.43246
 20
10.07995
 30
0.0
 11
144.43246
 21
-1.500997899999999
 31
0.0
  0
LINE
  5
1B5
330
1AF
100
AcDbEntity
  8
0
  6
Continuous
 62
     7
100
AcDbLine
 10
152.43246
 20
16.138949
 30
0.0
 11
152.43246
 21
-1.500997899999999
 31
0.0
  0
TEXT
  5
1B6
330
1AF
100
AcDbEntity
  8
0
  6
Continuous
 62
     7
100
AcDbText
 10
147.28946
 20
0.4990020700000001
 30
0.0
 40
3.2
  1
8
100
AcDbText
  0
POINT
  5
1B7
330
1AF
100
AcDbEntity
  8
DEFPOINTS
  6
Continuous
 62
     7
100
AcDbPoint
 10
144.43246
 20
12.61995
 30
0.0
  0
POINT
  5
1B8
330
1AF
100
AcDbEntity
  8
DEFPOINTS
  6
Continuous
 62
     7
100
AcDbPoint
 10
152.43246
 20
18.678949
 30
0.0
  0
POINT
  5
1B9
330
1AF
100
AcDbEntity
  8
DEFPOINTS
  6
Continuous
 62
     7
100
AcDbPoint
 10
152.43246
 20
-0.30099794
 30
0.0
  0
ENDBLK
  5
1BA
330
1AF
100
AcDbEntity
  8
0
100
AcDbBlockEnd
  0
BLOCK
  5
1BC
330
1BB
100
AcDbEntity
  8
0
100
AcDbBlockBegin
  2
*D33
 70
     1
 10
0.0
 20
0.0
 30
0.0
  3
*D33
  1

  0
LINE
  5
1BD
330
1BB
100
AcDbEntity
  8
0
  6
Continuous
 62
     7
100
AcDbLine
 10
144.43246
 20
-0.30099794
 30
0.0
 11
119.43247
 21
-0.30099794
 31
0.0
  0
INSERT
  5
1BE
330
1BB
100
AcDbEntity
  8
0
  6
Continuous
 62
     7
100
AcDbBlockReference
  2
_DOT
 10
144.43246
 20
-0.30099794
 30
0.0
  0
INSERT
  5
1BF
330
1BB
100
AcDbEntity
  8
0
  6
Continuous
 62
     7
100
AcDbBlockReference
  2
_DOT
 10
119.43247
 20
-0.30099794
 30
0.0
 50
180.0
  0
LINE
  5
1C0
330
1BB
100
AcDbEntity
  8
0
  6
Continuous
 62
     7
100
AcDbLine
 10
119.43247
 20
10.07995
 30
0.0
 11
119.43247
 21
-1.500997899999999
 31
0.0
  0
TEXT
  5
1C1
330
1BB
100
AcDbEntity
  8
0
  6
Continuous
 62
     7
100
AcDbText
 10
129.18946
 20
0.4990020700000001
 30
0.0
 40
3.2
  1
25
 41
1.028624999999999
100
AcDbText
  0
POINT
  5
1C2
330
1BB
100
AcDbEntity
  8
DEFPOINTS
  6
Continuous
 62
     7
100
AcDbPoint
 10
144.43246
 20
12.61995
 30
0.0
  0
POINT
  5
1C3
330
1BB
100
AcDbEntity
  8
DEFPOINTS
  6
Continuous
 62
     7
100
AcDbPoint
 10
119.43247
 20
12.61995
 30
0.0
  0
POINT
  5
1C4
330
1BB
100
AcDbEntity
  8
DEFPOINTS
  6
Continuous
 62
     7
100
AcDbPoint
 10
119.43247
 20
-0.30099794
 30
0.0
  0
ENDBLK
  5
1C5
330
1BB
100
AcDbEntity
  8
0
100
AcDbBlockEnd
  0
BLOCK
  5
1C7
330
1C6
100
AcDbEntity
  8
0
100
AcDbBlockBegin
  2
*D34
 70
     1
 10
0.0
 20
0.0
 30
0.0
  3
*D34
  1

  0
LINE
  5
1C8
330
1C6
100
AcDbEntity
  8
0
  6
Continuous
 62
     7
100
AcDbLine
 10
97.106735
 20
-0.30099794
 30
0.0
 11
119.43247
 21
-0.30099794
 31
0.0
  0
INSERT
  5
1C9
330
1C6
100
AcDbEntity
  8
0
  6
Continuous
 62
     7
100
AcDbBlockReference
  2
_OPEN
 10
94.10673499999999
 20
-0.30099794
 30
0.0
 50
180.0
  0
INSERT
  5
1CA
330
1C6
100
AcDbEntity
  8
0
  6
Continuous
 62
     7
100
AcDbBlockReference
  2
_DOT
 10
119.43247
 20
-0.30099794
 30
0.0
  0
TEXT
  5
1CB
330
1C6
100
AcDbEntity
  8
0
  6
Continuous
 62
     7
100
AcDbText
 10
105.6266
 20
0.4990020700000001
 30
0.0
 40
3.2
  1
P
100
AcDbText
  0
POINT
  5
1CC
330
1C6
100
AcDbEntity
  8
DEFPOINTS
  6
Continuous
 62
     7
100
AcDbPoint
 10
94.10673499999999
 20
18.678949
 30
0.0
  0
POINT
  5
1CD
330
1C6
100
AcDbEntity
  8
DEFPOINTS
  6
Continuous
 62
     7
100
AcDbPoint
 10
119.43247
 20
12.61995
 30
0.0
  0
POINT
  5
1CE
330
1C6
100
AcDbEntity
  8
DEFPOINTS
  6
Continuous
 62
     7
100
AcDbPoint
 10
119.43247
 20
-0.30099794
 30
0.0
  0
ENDBLK
  5
1CF
330
1C6
100
AcDbEntity
  8
0
100
AcDbBlockEnd
  0
BLOCK
  5
1D1
330
1D0
100
AcDbEntity
  8
0
100
AcDbBlockBegin
  2
*D35
 70
     1
 10
0.0
 20
0.0
 30
0.0
  3
*D35
  1

  0
LINE
  5
1D2
330
1D0
100
AcDbEntity
  8
0
  6
Continuous
 62
     7
100
AcDbLine
 10
-118.56753
 20
53.878948
 30
0.0
 11
-148.56754
 21
53.878948
 31
0.0
  0
INSERT
  5
1D3
330
1D0
100
AcDbEntity
  8
0
  6
Continuous
 62
     7
100
AcDbBlockReference
  2
_DOT
 10
-118.56753
 20
53.878948
 30
0.0
  0
INSERT
  5
1D4
330
1D0
100
AcDbEntity
  8
0
  6
Continuous
 62
     7
100
AcDbBlockReference
  2
_DOT
 10
-148.56754
 20
53.878948
 30
0.0
 50
180.0
  0
LINE
  5
1D5
330
1D0
100
AcDbEntity
  8
0
  6
Continuous
 62
     7
100
AcDbLine
 10
-118.56753
 20
51.903949
 30
0.0
 11
-118.56753
 21
55.078949
 31
0.0
  0
LINE
  5
1D6
330
1D0
100
AcDbEntity
  8
0
  6
Continuous
 62
     7
100
AcDbLine
 10
-148.56754
 20
31.218947
 30
0.0
 11
-148.56754
 21
55.078949
 31
0.0
  0
TEXT
  5
1D7
330
1D0
100
AcDbEntity
  8
0
  6
Continuous
 62
     7
100
AcDbText
 10
-137.91054
 20
54.67894799999999
 30
0.0
 40
3.2
  1
(A)
 41
1.2857566
100
AcDbText
  0
POINT
  5
1D8
330
1D0
100
AcDbEntity
  8
DEFPOINTS
  6
Continuous
 62
     7
100
AcDbPoint
 10
-118.56753
 20
49.36394899999999
 30
0.0
  0
POINT
  5
1D9
330
1D0
100
AcDbEntity
  8
DEFPOINTS
  6
Continuous
 62
     7
100
AcDbPoint
 10
-148.56754
 20
28.678947
 30
0.0
  0
POINT
  5
1DA
330
1D0
100
AcDbEntity
  8
DEFPOINTS
  6
Continuous
 62
     7
100
AcDbPoint
 10
-148.56754
 20
53.878948
 30
0.0
  0
ENDBLK
  5
1DB
330
1D0
100
AcDbEntity
  8
0
100
AcDbBlockEnd
  0
BLOCK
  5
1DD
330
1DC
100
AcDbEntity
  8
0
100
AcDbBlockBegin
  2
*D36
 70
     1
 10
0.0
 20
0.0
 30
0.0
  3
*D36
  1

  0
LINE
  5
1DE
330
1DC
100
AcDbEntity
  8
0
  6
Continuous
 62
     7
100
AcDbLine
 10
-136.5675399999999
 20
-29.321053
 30
0.0
 11
-118.56753
 21
-29.321053
 31
0.0
  0
INSERT
  5
1DF
330
1DC
100
AcDbEntity
  8
0
  6
Continuous
 62
     7
100
AcDbBlockReference
  2
_DOT
 10
-136.5675399999999
 20
-29.321053
 30
0.0
 50
180.0
  0
INSERT
  5
1E0
330
1DC
100
AcDbEntity
  8
0
  6
Continuous
 62
     7
100
AcDbBlockReference
  2
_DOT
 10
-118.56753
 20
-29.321053
 30
0.0
  0
LINE
  5
1E1
330
1DC
100
AcDbEntity
  8
0
  6
Continuous
 62
     7
100
AcDbLine
 10
-118.56753
 20
-13.86775
 30
0.0
 11
-118.56753
 21
-30.521053
 31
0.0
  0
TEXT
  5
1E2
330
1DC
100
AcDbEntity
  8
0
  6
Continuous
 62
     7
100
AcDbText
 10
-130.31054
 20
-28.521053
 30
0.0
 40
3.2
  1
18
 41
1.285781199999999
100
AcDbText
  0
POINT
  5
1E3
330
1DC
100
AcDbEntity
  8
DEFPOINTS
  6
Continuous
 62
     7
100
AcDbPoint
 10
-136.5675399999999
 20
-14.321053
 30
0.0
  0
POINT
  5
1E4
330
1DC
100
AcDbEntity
  8
DEFPOINTS
  6
Continuous
 62
     7
100
AcDbPoint
 10
-118.56753
 20
-11.32775
 30
0.0
  0
POINT
  5
1E5
330
1DC
100
AcDbEntity
  8
DEFPOINTS
  6
Continuous
 62
     7
100
AcDbPoint
 10
-118.56753
 20
-29.321053
 30
0.0
  0
ENDBLK
  5
1E6
330
1DC
100
AcDbEntity
  8
0
100
AcDbBlockEnd
  0
BLOCK
  5
1E8
330
1E7
100
AcDbEntity
  8
0
100
AcDbBlockBegin
  2
*D37
 70
     1
 10
0.0
 20
0.0
 30
0.0
  3
*D37
  1

  0
LINE
  5
1E9
330
1E7
100
AcDbEntity
  8
0
  6
Continuous
 62
     7
100
AcDbLine
 10
9.4324703
 20
74.67894699999999
 30
0.0
 11
49.432472
 21
74.67894699999999
 31
0.0
  0
INSERT
  5
1EA
330
1E7
100
AcDbEntity
  8
0
  6
Continuous
 62
     7
100
AcDbBlockReference
  2
_DOT
 10
9.4324703
 20
74.67894699999999
 30
0.0
 50
180.0
  0
INSERT
  5
1EB
330
1E7
100
AcDbEntity
  8
0
  6
Continuous
 62
     7
100
AcDbBlockReference
  2
_DOT
 10
49.432472
 20
74.67894699999999
 30
0.0
  0
LINE
  5
1EC
330
1E7
100
AcDbEntity
  8
0
  6
Continuous
 62
     7
100
AcDbLine
 10
9.4324703
 20
87.83894399999999
 30
0.0
 11
9.4324703
 21
73.47895099999999
 31
0.0
  0
LINE
  5
1ED
330
1E7
100
AcDbEntity
  8
0
  6
Continuous
 62
     7
100
AcDbLine
 10
49.432472
 20
87.83894399999999
 30
0.0
 11
49.432472
 21
73.47895099999999
 31
0.0
  0
TEXT
  5
1EE
330
1E7
100
AcDbEntity
  8
0
  6
Continuous
 62
     7
100
AcDbText
 10
26.68947
 20
75.47894699999999
 30
0.0
 40
3.2
  1
40
 41
1.102098199999999
100
AcDbText
  0
POINT
  5
1EF
330
1E7
100
AcDbEntity
  8
DEFPOINTS
  6
Continuous
 62
     7
100
AcDbPoint
 10
9.4324703
 20
90.37894399999998
 30
0.0
  0
POINT
  5
1F0
330
1E7
100
AcDbEntity
  8
DEFPOINTS
  6
Continuous
 62
     7
100
AcDbPoint
 10
49.432472
 20
90.37894399999998
 30
0.0
  0
POINT
  5
1F1
330
1E7
100
AcDbEntity
  8
DEFPOINTS
  6
Continuous
 62
     7
100
AcDbPoint
 10
49.432472
 20
74.67894699999999
 30
0.0
  0
ENDBLK
  5
1F2
330
1E7
100
AcDbEntity
  8
0
100
AcDbBlockEnd
  0
BLOCK
  5
1F4
330
1F3
100
AcDbEntity
  8
0
100
AcDbBlockBegin
  2
KOZU0001
 70
     0
 10
0.0
 20
0.0
 30
0.0
  3
KOZU0001
  1

  0
LINE
  5
1F5
330
1F3
100
AcDbEntity
  8
0
  6
Continuous
 62
     7
100
AcDbLine
 10
0.0
 20
0.0
 30
0.0
 11
-15.141838
 21
29.693409
 31
0.0
  0
LINE
  5
1F6
330
1F3
100
AcDbEntity
  8
0
  6
Continuous
 62
     7
100
AcDbLine
 10
-15.141838
 20
29.693409
 30
0.0
 11
32.361736
 21
29.693409
 31
0.0
  0
LINE
  5
1F7
330
1F3
100
AcDbEntity
  8
0
  6
Continuous
 62
     7
100
AcDbLine
 10
0.0
 20
0.0
 30
0.0
 11
-2.2537069
 21
2.2182887
 31
0.0
  0
LINE
  5
1F8
330
1F3
100
AcDbEntity
  8
0
  6
Continuous
 62
     7
100
AcDbLine
 10
0.0
 20
0.0
 30
0.0
 11
-0.4719923200000001
 21
3.126855099999999
 31
0.0
  0
TEXT
  5
1F9
330
1F3
100
AcDbEntity
  8
0
  6
Continuous
 62
     7
100
AcDbText
 10
-12.438264
 20
30.49340900000001
 30
0.0
 40
3.2
  1
２－%%C４．２×８．２スロット
 41
0.84326962
100
AcDbText
  0
ENDBLK
  5
1FA
330
1F3
100
AcDbEntity
  8
0
100
AcDbBlockEnd
  0
BLOCK
  5
1FC
330
1FB
100
AcDbEntity
  8
0
100
AcDbBlockBegin
  2
KOZU0002
 70
     0
 10
0.0
 20
0.0
 30
0.0
  3
KOZU0002
  1

  0
LINE
  5
1FD
330
1FB
100
AcDbEntity
  8
0
  6
Continuous
 62
     7
100
AcDbLine
 10
0.0
 20
0.0
 30
0.0
 11
15.726818
 21
-16.670914
 31
0.0
  0
LINE
  5
1FE
330
1FB
100
AcDbEntity
  8
0
  6
Continuous
 62
     7
100
AcDbLine
 10
15.726818
 20
-16.670914
 30
0.0
 11
62.228905
 21
-16.670914
 31
0.0
  0
LINE
  5
1FF
330
1FB
100
AcDbEntity
  8
0
  6
Continuous
 62
     7
100
AcDbLine
 10
0.0
 20
0.0
 30
0.0
 11
2.7860331
 21
-1.496001099999999
 31
0.0
  0
LINE
  5
200
330
1FB
100
AcDbEntity
  8
0
  6
Continuous
 62
     7
100
AcDbLine
 10
0.0
 20
0.0
 30
0.0
 11
1.331225799999999
 21
-2.8684207
 31
0.0
  0
TEXT
  5
201
330
1FB
100
AcDbEntity
  8
0
  6
Continuous
 62
     7
100
AcDbText
 10
17.428908
 20
-15.870914
 30
0.0
 40
3.2
  1
２－%%C４．２×８．２スロット
 41
0.84326962
100
AcDbText
  0
ENDBLK
  5
202
330
1FB
100
AcDbEntity
  8
0
100
AcDbBlockEnd
  0
BLOCK
  5
57D
330
57B
100
AcDbEntity
  8
0
100
AcDbBlockBegin
  2
GENAXEH
 70
     0
 10
0.0
 20
0.0
 30
0.0
  3
GENAXEH
  1

  0
LINE
  5
57C
330
57B
100
AcDbEntity
  8
0
100
AcDbLine
 10
-1.0
 20
0.0
 30
0.0
 11
1.0
 21
0.0
 31
0.0
  0
ENDBLK
  5
57E
330
57B
100
AcDbEntity
  8
0
100
AcDbBlockEnd
  0
ENDSEC
  0
SECTION
  2
ENTITIES
  0
LINE
  5
203
330
36
100
AcDbEntity
  8
0
  6
Continuous
 62
     7
100
AcDbLine
 10
170.0
 20
173.0
 30
0.0
 11
170.0
 21
-100.0
 31
0.0
  0
LINE
  5
204
330
36
100
AcDbEntity
  8
0
  6
Continuous
 62
     7
100
AcDbLine
 10
-211.0
 20
-100.0
 30
0.0
 11
170.0
 21
-100.0
 31
0.0
  0
LINE
  5
205
330
36
100
AcDbEntity
  8
0
  6
Continuous
 62
     7
100
AcDbLine
 10
-211.0
 20
173.0
 30
0.0
 11
170.0
 21
173.0
 31
0.0
  0
LINE
  5
206
330
36
100
AcDbEntity
  8
0
  6
Continuous
 62
     7
100
AcDbLine
 10
-211.0
 20
173.0
 30
0.0
 11
-211.0
 21
-100.0
 31
0.0
  0
LINE
  5
207
330
36
100
AcDbEntity
  8
0
  6
Continuous
 62
     7
100
AcDbLine
 10
-191.0
 20
173.0
 30
0.0
 11
-191.0
 21
69.0
 31
0.0
  0
LINE
  5
208
330
36
100
AcDbEntity
  8
0
  6
Continuous
 62
     7
100
AcDbLine
 10
-211.0
 20
165.0
 30
0.0
 11
-81.0
 21
165.0
 31
0.0
  0
LINE
  5
209
330
36
100
AcDbEntity
  8
0
  6
Continuous
 62
     7
100
AcDbLine
 10
-211.0
 20
157.0
 30
0.0
 11
-81.0
 21
157.0
 31
0.0
  0
LINE
  5
20A
330
36
100
AcDbEntity
  8
0
  6
Continuous
 62
     7
100
AcDbLine
 10
-191.0
 20
109.0
 30
0.0
 11
-81.0
 21
109.0
 31
0.0
  0
LINE
  5
20B
330
36
100
AcDbEntity
  8
0
  6
Continuous
 62
     7
100
AcDbLine
 10
-211.0
 20
101.0
 30
0.0
 11
-81.0
 21
101.0
 31
0.0
  0
LINE
  5
20C
330
36
100
AcDbEntity
  8
0
  6
Continuous
 62
     7
100
AcDbLine
 10
-191.0
 20
93.0
 30
0.0
 11
-81.0
 21
93.0
 31
0.0
  0
LINE
  5
20D
330
36
100
AcDbEntity
  8
0
  6
Continuous
 62
     7
100
AcDbLine
 10
-191.0
 20
85.0
 30
0.0
 11
-81.0
 21
85.0
 31
0.0
  0
LINE
  5
20E
330
36
100
AcDbEntity
  8
0
  6
Continuous
 62
     7
100
AcDbLine
 10
-191.0
 20
77.0
 30
0.0
 11
-81.0
 21
77.0
 31
0.0
  0
LINE
  5
20F
330
36
100
AcDbEntity
  8
0
  6
Continuous
 62
     7
100
AcDbLine
 10
-211.0
 20
173.0
 30
0.0
 11
-211.0
 21
61.0
 31
0.0
  0
LINE
  5
210
330
36
100
AcDbEntity
  8
0
  6
Continuous
 62
     7
100
AcDbLine
 10
-211.0
 20
173.0
 30
0.0
 11
-81.0
 21
173.0
 31
0.0
  0
LINE
  5
211
330
36
100
AcDbEntity
  8
0
  6
Continuous
 62
     7
100
AcDbLine
 10
-81.0
 20
173.0
 30
0.0
 11
-81.0
 21
69.0
 31
0.0
  0
LINE
  5
212
330
36
100
AcDbEntity
  8
0
  6
Continuous
 62
     7
100
AcDbLine
 10
-211.0
 20
117.0
 30
0.0
 11
-81.0
 21
117.0
 31
0.0
  0
LINE
  5
213
330
36
100
AcDbEntity
  8
0
  6
Continuous
 62
     7
100
AcDbLine
 10
-191.0
 20
109.0
 30
0.0
 11
-81.0
 21
109.0
 31
0.0
  0
LINE
  5
214
330
36
100
AcDbEntity
  8
0
  6
Continuous
 62
     7
100
AcDbLine
 10
-191.0
 20
133.0
 30
0.0
 11
-81.0
 21
133.0
 31
0.0
  0
LINE
  5
215
330
36
100
AcDbEntity
  8
0
  6
Continuous
 62
     7
100
AcDbLine
 10
-211.0
 20
141.0
 30
0.0
 11
-81.0
 21
141.0
 31
0.0
  0
LINE
  5
216
330
36
100
AcDbEntity
  8
0
  6
Continuous
 62
     7
100
AcDbLine
 10
-211.0
 20
69.0
 30
0.0
 11
-81.0
 21
69.0
 31
0.0
  0
LINE
  5
217
330
36
100
AcDbEntity
  8
0
  6
Continuous
 62
     7
100
AcDbLine
 10
-211.0
 20
125.0
 30
0.0
 11
-81.0
 21
125.0
 31
0.0
  0
LINE
  5
218
330
36
100
AcDbEntity
  8
0
  6
CENTER
 62
     7
100
AcDbLine
 10
-118.56753
 20
49.36394899999999
 30
0.0
 11
-118.56753
 21
-11.32775
 31
0.0
  0
LINE
  5
219
330
36
100
AcDbEntity
  8
0
  6
PHANTOM
 62
     7
100
AcDbLine
 10
-148.56754
 20
16.946716
 30
0.0
 11
-148.56754
 21
28.678947
 31
0.0
  0
LINE
  5
21A
330
36
100
AcDbEntity
  8
0
  6
PHANTOM
 62
     7
100
AcDbLine
 10
-200.56746
 20
-53.121048
 30
0.0
 11
-176.56752
 21
-49.463959
 31
0.0
  0
LINE
  5
21B
330
36
100
AcDbEntity
  8
0
  6
PHANTOM
 62
     7
100
AcDbLine
 10
-174.56758
 20
-49.23533599999999
 30
0.0
 11
-138.56755
 21
-45.121033
 31
0.0
  0
LINE
  5
21C
330
36
100
AcDbEntity
  8
0
  6
Continuous
 62
     3
100
AcDbLine
 10
152.43246
 20
28.678947
 30
0.0
 11
152.43246
 21
18.678949
 31
0.0
  0
LINE
  5
21D
330
36
100
AcDbEntity
  8
0
  6
Continuous
 62
     3
100
AcDbLine
 10
154.43246
 20
20.178949
 30
0.0
 11
154.43246
 21
27.178949
 31
0.0
  0
LINE
  5
21E
330
36
100
AcDbEntity
  8
0
  6
Continuous
 62
     3
100
AcDbLine
 10
101.78794
 20
20.178949
 30
0.0
 11
129.1871
 21
20.178949
 31
0.0
  0
LINE
  5
21F
330
36
100
AcDbEntity
  8
0
  6
CENTER
 62
     7
100
AcDbLine
 10
144.43246
 20
30.678947
 30
0.0
 11
144.43246
 21
12.61995
 31
0.0
  0
LINE
  5
220
330
36
100
AcDbEntity
  8
0
  6
Continuous
 62
     3
100
AcDbLine
 10
128.12387
 20
27.178947
 30
0.0
 11
100.72471
 21
27.178947
 31
0.0
  0
LINE
  5
221
330
36
100
AcDbEntity
  8
0
  6
Continuous
 62
     3
100
AcDbLine
 10
152.93486
 20
28.678947
 30
0.0
 11
47.766457
 21
28.678947
 31
0.0
  0
LINE
  5
222
330
36
100
AcDbEntity
  8
0
  6
Continuous
 62
     3
100
AcDbLine
 10
49.046944
 20
18.678949
 30
0.0
 11
152.93246
 21
18.678949
 31
0.0
  0
LINE
  5
223
330
36
100
AcDbEntity
  8
0
  6
Continuous
 62
     3
100
AcDbLine
 10
54.432472
 20
-0.8210517799999999
 30
0.0
 11
4.432471299999999
 21
-0.8210517799999999
 31
0.0
  0
LINE
  5
224
330
36
100
AcDbEntity
  8
0
  6
Continuous
 62
     3
100
AcDbLine
 10
43.33249699999999
 20
-5.3210511
 30
0.0
 11
43.33249699999999
 21
-9.3210516
 31
0.0
  0
LINE
  5
225
330
36
100
AcDbEntity
  8
0
  6
Continuous
 62
     3
100
AcDbLine
 10
47.532448
 20
-5.3210511
 30
0.0
 11
47.532448
 21
-9.3210516
 31
0.0
  0
LINE
  5
226
330
36
100
AcDbEntity
  8
0
  6
Continuous
 62
     3
100
AcDbLine
 10
11.332496
 20
-5.3210511
 30
0.0
 11
11.332496
 21
-9.3210516
 31
0.0
  0
LINE
  5
227
330
36
100
AcDbEntity
  8
0
  6
Continuous
 62
     3
100
AcDbLine
 10
15.532447
 20
-5.3210511
 30
0.0
 11
15.532447
 21
-9.3210516
 31
0.0
  0
LINE
  5
228
330
36
100
AcDbEntity
  8
0
  6
CENTER
 62
     7
100
AcDbLine
 10
13.432471
 20
-1.321051799999999
 30
0.0
 11
13.432471
 21
-13.821053
 31
0.0
  0
LINE
  5
229
330
36
100
AcDbEntity
  8
0
  6
CENTER
 62
     7
100
AcDbLine
 10
8.410498599999998
 20
-5.3210511
 30
0.0
 11
18.612402
 21
-5.3210511
 31
0.0
  0
LINE
  5
22A
330
36
100
AcDbEntity
  8
0
  6
CENTER
 62
     7
100
AcDbLine
 10
8.410498599999998
 20
-9.3210516
 30
0.0
 11
18.612402
 21
-9.3210516
 31
0.0
  0
LINE
  5
22B
330
36
100
AcDbEntity
  8
0
  6
CENTER
 62
     7
100
AcDbLine
 10
45.43247199999999
 20
-1.321051799999999
 30
0.0
 11
45.43247199999999
 21
-13.821053
 31
0.0
  0
LINE
  5
22C
330
36
100
AcDbEntity
  8
0
  6
CENTER
 62
     7
100
AcDbLine
 10
50.454445
 20
-5.3210511
 30
0.0
 11
40.252419
 21
-5.3210511
 31
0.0
  0
LINE
  5
22D
330
36
100
AcDbEntity
  8
0
  6
CENTER
 62
     7
100
AcDbLine
 10
50.454445
 20
-9.3210516
 30
0.0
 11
40.252419
 21
-9.3210516
 31
0.0
  0
LINE
  5
22E
330
36
100
AcDbEntity
  8
0
  6
CENTER
 62
     7
100
AcDbLine
 10
29.43247
 20
47.065945
 30
0.0
 11
29.43247
 21
-19.830956
 31
0.0
  0
LINE
  5
22F
330
36
100
AcDbEntity
  8
0
  6
Continuous
 62
     3
100
AcDbLine
 10
-51.76747899999999
 20
28.678947
 30
0.0
 11
-51.76747899999999
 21
18.678949
 31
0.0
  0
LINE
  5
230
330
36
100
AcDbEntity
  8
0
  6
Continuous
 62
     3
100
AcDbLine
 10
-53.767479
 20
27.178947
 30
0.0
 11
-53.767479
 21
20.178949
 31
0.0
  0
LINE
  5
231
330
36
100
AcDbEntity
  8
0
  6
Continuous
 62
     3
100
AcDbLine
 10
-49.76747899999999
 20
30.67894
 30
0.0
 11
-49.76747899999999
 21
28.678947
 31
0.0
  0
LINE
  5
232
330
36
100
AcDbEntity
  8
0
  6
CENTER
 62
     7
100
AcDbLine
 10
-43.76747899999999
 20
34.450951
 30
0.0
 11
-43.76747899999999
 21
-3.606558999999999
 31
0.0
  0
LINE
  5
233
330
36
100
AcDbEntity
  8
0
  6
Continuous
 62
     3
100
AcDbLine
 10
-49.76747899999999
 20
18.678949
 30
0.0
 11
-49.76747899999999
 21
17.678949
 31
0.0
  0
LINE
  5
234
330
36
100
AcDbEntity
  8
0
  6
Continuous
 62
     3
100
AcDbLine
 10
-37.767479
 20
18.678949
 30
0.0
 11
-37.767479
 21
17.678949
 31
0.0
  0
LINE
  5
235
330
36
100
AcDbEntity
  8
0
  6
Continuous
 62
     3
100
AcDbLine
 10
-18.767481
 20
15.178948
 30
0.0
 11
-68.76747900000001
 21
15.178948
 31
0.0
  0
LINE
  5
236
330
36
100
AcDbEntity
  8
0
  6
CENTER
 62
     7
100
AcDbLine
 10
-59.767479
 20
14.678948
 30
0.0
 11
-59.767479
 21
2.178948399999999
 31
0.0
  0
LINE
  5
237
330
36
100
AcDbEntity
  8
0
  6
CENTER
 62
     7
100
AcDbLine
 10
-64.789574
 20
10.678948
 30
0.0
 11
-54.587547
 21
10.678948
 31
0.0
  0
LINE
  5
238
330
36
100
AcDbEntity
  8
0
  6
CENTER
 62
     7
100
AcDbLine
 10
-64.789574
 20
6.678948399999999
 30
0.0
 11
-54.587547
 21
6.678948399999999
 31
0.0
  0
LINE
  5
239
330
36
100
AcDbEntity
  8
0
  6
Continuous
 62
     3
100
AcDbLine
 10
-61.86757700000001
 20
10.678948
 30
0.0
 11
-61.86757700000001
 21
6.678948399999999
 31
0.0
  0
LINE
  5
23A
330
36
100
AcDbEntity
  8
0
  6
Continuous
 62
     3
100
AcDbLine
 10
-57.667503
 20
10.678948
 30
0.0
 11
-57.667503
 21
6.678948399999999
 31
0.0
  0
LINE
  5
23B
330
36
100
AcDbEntity
  8
0
  6
CENTER
 62
     7
100
AcDbLine
 10
-27.767481
 20
14.678948
 30
0.0
 11
-27.767481
 21
2.178948399999999
 31
0.0
  0
LINE
  5
23C
330
36
100
AcDbEntity
  8
0
  6
CENTER
 62
     7
100
AcDbLine
 10
-22.745508
 20
10.678948
 30
0.0
 11
-32.947533
 21
10.678948
 31
0.0
  0
LINE
  5
23D
330
36
100
AcDbEntity
  8
0
  6
CENTER
 62
     7
100
AcDbLine
 10
-22.745508
 20
6.678948399999999
 30
0.0
 11
-32.947533
 21
6.678948399999999
 31
0.0
  0
LINE
  5
23E
330
36
100
AcDbEntity
  8
0
  6
Continuous
 62
     3
100
AcDbLine
 10
-29.867579
 20
10.678948
 30
0.0
 11
-29.867579
 21
6.678948399999999
 31
0.0
  0
LINE
  5
23F
330
36
100
AcDbEntity
  8
0
  6
Continuous
 62
     3
100
AcDbLine
 10
-25.667505
 20
10.678948
 30
0.0
 11
-25.667505
 21
6.678948399999999
 31
0.0
  0
LINE
  5
240
330
36
100
AcDbEntity
  8
0
  6
Continuous
 62
     3
100
AcDbLine
 10
11.098481
 20
28.678947
 30
0.0
 11
-52.26747899999999
 21
28.678947
 31
0.0
  0
LINE
  5
241
330
36
100
AcDbEntity
  8
0
  6
Continuous
 62
     3
100
AcDbLine
 10
-52.26747899999999
 20
18.678949
 30
0.0
 11
9.817994099999999
 21
18.678949
 31
0.0
  0
LINE
  5
242
330
36
100
AcDbEntity
  8
0
  6
Continuous
 62
     3
100
AcDbLine
 10
-148.56754
 20
15.178949
 30
0.0
 11
-148.56754
 21
2.678948399999999
 31
0.0
  0
LINE
  5
243
330
36
100
AcDbEntity
  8
0
  6
Continuous
 62
     3
100
AcDbLine
 10
-148.56754
 20
2.678948399999999
 30
0.0
 11
-146.0675399999999
 21
2.678948399999999
 31
0.0
  0
LINE
  5
244
330
36
100
AcDbEntity
  8
0
  6
Continuous
 62
     3
100
AcDbLine
 10
-146.0675399999999
 20
2.678948399999999
 30
0.0
 11
-146.0675399999999
 21
15.178948
 31
0.0
  0
LINE
  5
245
330
36
100
AcDbEntity
  8
0
  6
PHANTOM
 62
     7
100
AcDbLine
 10
-148.56754
 20
28.678947
 30
0.0
 11
-158.5675399999999
 21
28.678947
 31
0.0
  0
LINE
  5
246
330
36
100
AcDbEntity
  8
0
  6
PHANTOM
 62
     7
100
AcDbLine
 10
-158.5675399999999
 20
28.678947
 30
0.0
 11
-158.5675399999999
 21
26.678947
 31
0.0
  0
LINE
  5
247
330
36
100
AcDbEntity
  8
0
  6
PHANTOM
 62
     7
100
AcDbLine
 10
-158.5675399999999
 20
26.678947
 30
0.0
 11
-150.56754
 21
26.678947
 31
0.0
  0
LINE
  5
248
330
36
100
AcDbEntity
  8
0
  6
PHANTOM
 62
     7
100
AcDbLine
 10
-150.56754
 20
26.678947
 30
0.0
 11
-150.56754
 21
-0.8210517799999999
 31
0.0
  0
LINE
  5
249
330
36
100
AcDbEntity
  8
0
  6
PHANTOM
 62
     7
100
AcDbLine
 10
-150.56754
 20
-0.8210517799999999
 30
0.0
 11
-184.56754
 21
-0.8210517799999999
 31
0.0
  0
LINE
  5
24A
330
36
100
AcDbEntity
  8
0
  6
PHANTOM
 62
     7
100
AcDbLine
 10
-184.56754
 20
-0.8210517799999999
 30
0.0
 11
-184.56754
 21
26.678947
 31
0.0
  0
LINE
  5
24B
330
36
100
AcDbEntity
  8
0
  6
PHANTOM
 62
     7
100
AcDbLine
 10
-184.56754
 20
26.678947
 30
0.0
 11
-176.56754
 21
26.678947
 31
0.0
  0
LINE
  5
24C
330
36
100
AcDbEntity
  8
0
  6
PHANTOM
 62
     7
100
AcDbLine
 10
-176.56754
 20
26.678947
 30
0.0
 11
-176.56754
 21
28.678947
 31
0.0
  0
LINE
  5
24D
330
36
100
AcDbEntity
  8
0
  6
PHANTOM
 62
     7
100
AcDbLine
 10
-176.56754
 20
28.678947
 30
0.0
 11
-186.5675399999999
 21
28.678947
 31
0.0
  0
LINE
  5
24E
330
36
100
AcDbEntity
  8
0
  6
PHANTOM
 62
     7
100
AcDbLine
 10
-186.5675399999999
 20
28.678947
 30
0.0
 11
-186.5675399999999
 21
-31.621054
 31
0.0
  0
LINE
  5
24F
330
36
100
AcDbEntity
  8
0
  6
PHANTOM
 62
     7
100
AcDbLine
 10
-186.5675399999999
 20
-31.621054
 30
0.0
 11
-184.56754
 21
-31.621054
 31
0.0
  0
LINE
  5
250
330
36
100
AcDbEntity
  8
0
  6
PHANTOM
 62
     7
100
AcDbLine
 10
-184.56754
 20
-31.621054
 30
0.0
 11
-184.56754
 21
-14.821053
 31
0.0
  0
LINE
  5
251
330
36
100
AcDbEntity
  8
0
  6
PHANTOM
 62
     7
100
AcDbLine
 10
-184.56754
 20
-14.821053
 30
0.0
 11
-150.56754
 21
-14.821053
 31
0.0
  0
LINE
  5
252
330
36
100
AcDbEntity
  8
0
  6
PHANTOM
 62
     7
100
AcDbLine
 10
-150.56754
 20
-14.821053
 30
0.0
 11
-150.56754
 21
-19.621056
 31
0.0
  0
LINE
  5
253
330
36
100
AcDbEntity
  8
0
  6
PHANTOM
 62
     7
100
AcDbLine
 10
-150.56754
 20
-19.621056
 30
0.0
 11
-148.56754
 21
-19.621056
 31
0.0
  0
LINE
  5
254
330
36
100
AcDbEntity
  8
0
  6
PHANTOM
 62
     7
100
AcDbLine
 10
-148.56754
 20
-19.621056
 30
0.0
 11
-148.56754
 21
-5.3210511
 31
0.0
  0
LINE
  5
255
330
36
100
AcDbEntity
  8
0
  6
PHANTOM
 62
     7
100
AcDbLine
 10
-148.56754
 20
-5.3210511
 30
0.0
 11
-148.56754
 21
2.678948399999999
 31
0.0
  0
LINE
  5
256
330
36
100
AcDbEntity
  8
0
  6
PHANTOM
 62
     7
100
AcDbLine
 10
-150.56754
 20
-2.821051799999999
 30
0.0
 11
-184.56754
 21
-2.821051799999999
 31
0.0
  0
LINE
  5
257
330
36
100
AcDbEntity
  8
0
  6
PHANTOM
 62
     7
100
AcDbLine
 10
-184.56754
 20
-2.821051799999999
 30
0.0
 11
-184.56754
 21
-12.821053
 31
0.0
  0
LINE
  5
258
330
36
100
AcDbEntity
  8
0
  6
PHANTOM
 62
     7
100
AcDbLine
 10
-184.56754
 20
-12.821053
 30
0.0
 11
-150.56754
 21
-12.821053
 31
0.0
  0
LINE
  5
259
330
36
100
AcDbEntity
  8
0
  6
PHANTOM
 62
     7
100
AcDbLine
 10
-150.56754
 20
-12.821053
 30
0.0
 11
-150.56754
 21
-2.821051799999999
 31
0.0
  0
LINE
  5
25A
330
36
100
AcDbEntity
  8
0
  6
Continuous
 62
     3
100
AcDbLine
 10
-136.5675399999999
 20
-0.8210516
 30
0.0
 11
-136.5675399999999
 21
-13.321053
 31
0.0
  0
LINE
  5
25B
330
36
100
AcDbEntity
  8
0
  6
Continuous
 62
     3
100
AcDbLine
 10
-134.06754
 20
-13.321053
 30
0.0
 11
-134.06754
 21
-0.8210517799999999
 31
0.0
  0
LINE
  5
25C
330
36
100
AcDbEntity
  8
0
  6
Continuous
 62
     3
100
AcDbLine
 10
-134.06754
 20
-0.8210517799999999
 30
0.0
 11
-105.56753
 21
-0.8210517799999999
 31
0.0
  0
LINE
  5
25D
330
36
100
AcDbEntity
  8
0
  6
Continuous
 62
     3
100
AcDbLine
 10
-105.56753
 20
-0.8210517799999999
 30
0.0
 11
-105.56753
 21
1.6789484
 31
0.0
  0
LINE
  5
25E
330
36
100
AcDbEntity
  8
0
  6
Continuous
 62
     3
100
AcDbLine
 10
-105.56753
 20
1.6789484
 30
0.0
 11
-134.06754
 21
1.6789484
 31
0.0
  0
LINE
  5
25F
330
36
100
AcDbEntity
  8
0
  6
PHANTOM
 62
     7
100
AcDbLine
 10
-200.56754
 20
-53.121048
 30
0.0
 11
-200.56754
 21
-69.12105600000001
 31
0.0
  0
LINE
  5
260
330
36
100
AcDbEntity
  8
0
  6
PHANTOM
 62
     7
100
AcDbLine
 10
-200.56754
 20
-69.12105600000001
 30
0.0
 11
-188.56754
 21
-69.12105600000001
 31
0.0
  0
LINE
  5
261
330
36
100
AcDbEntity
  8
0
  6
PHANTOM
 62
     7
100
AcDbLine
 10
-188.56754
 20
-69.12105600000001
 30
0.0
 11
-188.56754
 21
-67.12105600000001
 31
0.0
  0
LINE
  5
262
330
36
100
AcDbEntity
  8
0
  6
PHANTOM
 62
     7
100
AcDbLine
 10
-188.56754
 20
-67.12105600000001
 30
0.0
 11
-198.56754
 21
-67.12105600000001
 31
0.0
  0
LINE
  5
263
330
36
100
AcDbEntity
  8
0
  6
PHANTOM
 62
     7
100
AcDbLine
 10
-198.56754
 20
-67.12105600000001
 30
0.0
 11
-198.56754
 21
-55.12104799999999
 31
0.0
  0
LINE
  5
264
330
36
100
AcDbEntity
  8
0
  6
PHANTOM
 62
     7
100
AcDbLine
 10
-198.56757
 20
-55.121078
 30
0.0
 11
-138.56755
 21
-47.121075
 31
0.0
  0
LINE
  5
265
330
36
100
AcDbEntity
  8
0
  6
PHANTOM
 62
     7
100
AcDbLine
 10
-138.56754
 20
-47.12104799999999
 30
0.0
 11
-138.56754
 21
-67.12105600000001
 31
0.0
  0
LINE
  5
266
330
36
100
AcDbEntity
  8
0
  6
PHANTOM
 62
     7
100
AcDbLine
 10
-138.56754
 20
-67.12105600000001
 30
0.0
 11
-146.56754
 21
-67.12105600000001
 31
0.0
  0
LINE
  5
267
330
36
100
AcDbEntity
  8
0
  6
PHANTOM
 62
     7
100
AcDbLine
 10
-146.56754
 20
-67.12105600000001
 30
0.0
 11
-146.56754
 21
-69.12105600000001
 31
0.0
  0
LINE
  5
268
330
36
100
AcDbEntity
  8
0
  6
PHANTOM
 62
     7
100
AcDbLine
 10
-146.56754
 20
-69.12105600000001
 30
0.0
 11
-136.5675399999999
 21
-69.12105600000001
 31
0.0
  0
LINE
  5
269
330
36
100
AcDbEntity
  8
0
  6
PHANTOM
 62
     7
100
AcDbLine
 10
-136.5675399999999
 20
-69.12105600000001
 30
0.0
 11
-136.5675399999999
 21
-14.321053
 31
0.0
  0
LINE
  5
26A
330
36
100
AcDbEntity
  8
0
  6
PHANTOM
 62
     7
100
AcDbLine
 10
-136.5675399999999
 20
-0.8210517799999999
 30
0.0
 11
-140.5675399999999
 21
-0.8210517799999999
 31
0.0
  0
LINE
  5
26B
330
36
100
AcDbEntity
  8
0
  6
PHANTOM
 62
     7
100
AcDbLine
 10
-138.56754
 20
-2.821051799999999
 30
0.0
 11
-138.56754
 21
-19.621056
 31
0.0
  0
LINE
  5
26C
330
36
100
AcDbEntity
  8
0
  6
PHANTOM
 62
     7
100
AcDbLine
 10
-138.56754
 20
-19.621056
 30
0.0
 11
-180.56754
 21
-19.621056
 31
0.0
  0
LINE
  5
26D
330
36
100
AcDbEntity
  8
0
  6
PHANTOM
 62
     7
100
AcDbLine
 10
-180.56754
 20
-19.621056
 30
0.0
 11
-180.56754
 21
-23.621056
 31
0.0
  0
LINE
  5
26E
330
36
100
AcDbEntity
  8
0
  6
PHANTOM
 62
     7
100
AcDbLine
 10
-180.56754
 20
-23.621056
 30
0.0
 11
-178.56754
 21
-23.621056
 31
0.0
  0
LINE
  5
26F
330
36
100
AcDbEntity
  8
0
  6
PHANTOM
 62
     7
100
AcDbLine
 10
-178.56754
 20
-23.621056
 30
0.0
 11
-178.56754
 21
-21.621056
 31
0.0
  0
LINE
  5
270
330
36
100
AcDbEntity
  8
0
  6
PHANTOM
 62
     7
100
AcDbLine
 10
-178.56754
 20
-21.621056
 30
0.0
 11
-176.56754
 21
-21.621056
 31
0.0
  0
LINE
  5
271
330
36
100
AcDbEntity
  8
0
  6
PHANTOM
 62
     7
100
AcDbLine
 10
-176.56754
 20
-21.621056
 30
0.0
 11
-176.56754
 21
-29.621054
 31
0.0
  0
LINE
  5
272
330
36
100
AcDbEntity
  8
0
  6
PHANTOM
 62
     7
100
AcDbLine
 10
-176.56754
 20
-29.621054
 30
0.0
 11
-178.56754
 21
-29.621054
 31
0.0
  0
LINE
  5
273
330
36
100
AcDbEntity
  8
0
  6
PHANTOM
 62
     7
100
AcDbLine
 10
-178.56754
 20
-29.621054
 30
0.0
 11
-178.56754
 21
-27.621056
 31
0.0
  0
LINE
  5
274
330
36
100
AcDbEntity
  8
0
  6
PHANTOM
 62
     7
100
AcDbLine
 10
-178.56754
 20
-27.621056
 30
0.0
 11
-180.56754
 21
-27.621056
 31
0.0
  0
LINE
  5
275
330
36
100
AcDbEntity
  8
0
  6
PHANTOM
 62
     7
100
AcDbLine
 10
-180.56754
 20
-27.621056
 30
0.0
 11
-180.56754
 21
-31.621054
 31
0.0
  0
LINE
  5
276
330
36
100
AcDbEntity
  8
0
  6
PHANTOM
 62
     7
100
AcDbLine
 10
-180.56754
 20
-31.621054
 30
0.0
 11
-176.56754
 21
-31.621054
 31
0.0
  0
LINE
  5
277
330
36
100
AcDbEntity
  8
0
  6
PHANTOM
 62
     7
100
AcDbLine
 10
-176.56754
 20
-31.621054
 30
0.0
 11
-176.56754
 21
-49.46394699999999
 31
0.0
  0
LINE
  5
278
330
36
100
AcDbEntity
  8
0
  6
PHANTOM
 62
     7
100
AcDbLine
 10
-174.56754
 20
-49.23534799999999
 30
0.0
 11
-174.56754
 21
-21.621056
 31
0.0
  0
LINE
  5
279
330
36
100
AcDbEntity
  8
0
  6
PHANTOM
 62
     7
100
AcDbLine
 10
-174.56754
 20
-21.621056
 30
0.0
 11
-138.56754
 21
-21.621056
 31
0.0
  0
LINE
  5
27A
330
36
100
AcDbEntity
  8
0
  6
PHANTOM
 62
     7
100
AcDbLine
 10
-138.56754
 20
-21.621056
 30
0.0
 11
-138.56754
 21
-45.12104799999999
 31
0.0
  0
LINE
  5
27B
330
36
100
AcDbEntity
  8
0
  6
Continuous
 62
     3
100
AcDbLine
 10
4.432471299999999
 20
-13.321053
 30
0.0
 11
54.432472
 21
-13.321053
 31
0.0
  0
LINE
  5
27C
330
36
100
AcDbEntity
  8
0
  6
Continuous
 62
     3
100
AcDbLine
 10
54.432472
 20
-13.321053
 30
0.0
 11
54.432472
 21
1.6789484
 31
0.0
  0
LINE
  5
27D
330
36
100
AcDbEntity
  8
0
  6
Continuous
 62
     3
100
AcDbLine
 10
54.432472
 20
1.6789484
 30
0.0
 11
4.432471299999999
 21
1.6789484
 31
0.0
  0
LINE
  5
27E
330
36
100
AcDbEntity
  8
0
  6
Continuous
 62
     3
100
AcDbLine
 10
4.432471299999999
 20
1.6789484
 30
0.0
 11
4.432471299999999
 21
-13.321053
 31
0.0
  0
LINE
  5
27F
330
36
100
AcDbEntity
  8
0
  6
Continuous
 62
     3
100
AcDbLine
 10
-38.767479
 20
31.678947
 30
0.0
 11
-48.76747899999999
 21
31.678947
 31
0.0
  0
LINE
  5
280
330
36
100
AcDbEntity
  8
0
  6
Continuous
 62
     3
100
AcDbLine
 10
-48.76757399999999
 20
31.678995
 30
0.0
 11
-49.767593
 21
30.678968
 31
0.0
  0
LINE
  5
281
330
36
100
AcDbEntity
  8
0
  6
Continuous
 62
     3
100
AcDbLine
 10
-68.76747900000001
 20
2.678948399999999
 30
0.0
 11
-18.767481
 21
2.678948399999999
 31
0.0
  0
LINE
  5
282
330
36
100
AcDbEntity
  8
0
  6
Continuous
 62
     3
100
AcDbLine
 10
-18.767481
 20
2.678948399999999
 30
0.0
 11
-18.767481
 21
17.678949
 31
0.0
  0
LINE
  5
283
330
36
100
AcDbEntity
  8
0
  6
Continuous
 62
     3
100
AcDbLine
 10
-18.767481
 20
17.678949
 30
0.0
 11
-68.76747900000001
 21
17.678949
 31
0.0
  0
LINE
  5
284
330
36
100
AcDbEntity
  8
0
  6
Continuous
 62
     3
100
AcDbLine
 10
-68.76747900000001
 20
17.678949
 30
0.0
 11
-68.76747900000001
 21
2.678948399999999
 31
0.0
  0
LINE
  5
285
330
36
100
AcDbEntity
  8
0
  6
Continuous
 62
     3
100
AcDbLine
 10
152.43246
 20
113.17895
 30
0.0
 11
152.43246
 21
94.17894699999999
 31
0.0
  0
LINE
  5
286
330
36
100
AcDbEntity
  8
0
  6
CENTER
 62
     7
100
AcDbLine
 10
144.43246
 20
115.17895
 30
0.0
 11
144.43246
 21
93.67894699999999
 31
0.0
  0
LINE
  5
287
330
36
100
AcDbEntity
  8
0
  6
CENTER
 62
     7
100
AcDbLine
 10
29.43247
 20
123.67894
 30
0.0
 11
29.43247
 21
83.67894699999999
 31
0.0
  0
LINE
  5
288
330
36
100
AcDbEntity
  8
0
  6
Continuous
 62
     3
100
AcDbLine
 10
-51.76747899999999
 20
113.17895
 30
0.0
 11
-51.76747899999999
 21
94.17894699999999
 31
0.0
  0
LINE
  5
289
330
36
100
AcDbEntity
  8
0
  6
Continuous
 62
     3
100
AcDbLine
 10
-53.767479
 20
111.67895
 30
0.0
 11
-53.767479
 21
95.678947
 31
0.0
  0
LINE
  5
28A
330
36
100
AcDbEntity
  8
0
  6
CENTER
 62
     7
100
AcDbLine
 10
-43.76747899999999
 20
113.67895
 30
0.0
 11
-43.76747899999999
 21
92.178947
 31
0.0
  0
LINE
  5
28B
330
36
100
AcDbEntity
  8
0
  6
CENTER
 62
     7
100
AcDbLine
 10
159.43246
 20
103.67895
 30
0.0
 11
-63.767479
 21
103.67895
 31
0.0
  0
LINE
  5
28C
330
36
100
AcDbEntity
  8
0
  6
Continuous
 62
     3
100
AcDbLine
 10
152.93246
 20
113.17895
 30
0.0
 11
47.75885399999999
 21
113.17895
 31
0.0
  0
LINE
  5
28D
330
36
100
AcDbEntity
  8
0
  6
Continuous
 62
     3
100
AcDbLine
 10
47.75885399999999
 20
94.17894699999999
 30
0.0
 11
152.93246
 21
94.17894699999999
 31
0.0
  0
LINE
  5
28E
330
36
100
AcDbEntity
  8
0
  6
Continuous
 62
     3
100
AcDbLine
 10
-52.26747899999999
 20
94.17893199999999
 30
0.0
 11
11.106091
 21
94.17893199999999
 31
0.0
  0
LINE
  5
28F
330
36
100
AcDbEntity
  8
0
  6
Continuous
 62
     3
100
AcDbLine
 10
11.106095
 20
113.17893
 30
0.0
 11
-52.274246
 21
113.17893
 31
0.0
  0
LINE
  5
290
330
36
100
AcDbEntity
  8
0
  6
Continuous
 62
     3
100
AcDbLine
 10
54.432472
 20
113.17895
 30
0.0
 11
54.432472
 21
121.67895
 31
0.0
  0
LINE
  5
291
330
36
100
AcDbEntity
  8
0
  6
Continuous
 62
     3
100
AcDbLine
 10
4.432471299999999
 20
121.67895
 30
0.0
 11
4.432471299999999
 21
113.17895
 31
0.0
  0
LINE
  5
292
330
36
100
AcDbEntity
  8
0
  6
Continuous
 62
     3
100
AcDbLine
 10
-18.767481
 20
113.17895
 30
0.0
 11
-18.767481
 21
133.67894
 31
0.0
  0
LINE
  5
293
330
36
100
AcDbEntity
  8
0
  6
Continuous
 62
     3
100
AcDbLine
 10
-68.76747900000001
 20
133.67894
 30
0.0
 11
-68.76747900000001
 21
113.17895
 31
0.0
  0
LINE
  5
294
330
36
100
AcDbEntity
  8
0
  6
Continuous
 62
     3
100
AcDbLine
 10
54.432472
 20
121.67895
 30
0.0
 11
4.432471299999999
 21
121.67895
 31
0.0
  0
LINE
  5
295
330
36
100
AcDbEntity
  8
0
  6
Continuous
 62
     3
100
AcDbLine
 10
-18.767481
 20
133.67894
 30
0.0
 11
-68.76747900000001
 21
133.67894
 31
0.0
  0
LINE
  5
296
330
36
100
AcDbEntity
  8
0
  6
CENTER
 62
     7
100
AcDbLine
 10
119.43247
 20
21.331947
 30
0.0
 11
119.43247
 21
12.61995
 31
0.0
  0
LINE
  5
297
330
36
100
AcDbEntity
  8
0
  6
Continuous
 62
     3
100
AcDbLine
 10
116.93247
 20
20.178949
 30
0.0
 11
116.93247
 21
18.678949
 31
0.0
  0
LINE
  5
298
330
36
100
AcDbEntity
  8
0
  6
Continuous
 62
     3
100
AcDbLine
 10
121.93247
 20
20.178949
 30
0.0
 11
121.93247
 21
18.678949
 31
0.0
  0
LINE
  5
299
330
36
100
AcDbEntity
  8
0
  6
Continuous
 62
     3
100
AcDbLine
 10
-37.767479
 20
30.678947
 30
0.0
 11
-49.76747899999999
 21
30.678947
 31
0.0
  0
LINE
  5
29A
330
36
100
AcDbEntity
  8
0
  6
Continuous
 62
     3
100
AcDbLine
 10
-49.76747899999999
 20
29.678947
 30
0.0
 11
-37.767479
 21
29.678947
 31
0.0
  0
LINE
  5
29B
330
36
100
AcDbEntity
  8
0
  6
Continuous
 62
     3
100
AcDbLine
 10
-37.767479
 20
28.678947
 30
0.0
 11
-37.767479
 21
30.678955
 31
0.0
  0
LINE
  5
29C
330
36
100
AcDbEntity
  8
0
  6
Continuous
 62
     3
100
AcDbLine
 10
-38.767563
 20
31.678955
 30
0.0
 11
-37.767536
 21
30.678936
 31
0.0
  0
LINE
  5
29D
330
36
100
AcDbEntity
  8
0
  6
PHANTOM
 62
     7
100
AcDbLine
 10
-138.56754
 20
-2.821051799999999
 30
0.0
 11
-140.5675399999999
 21
-2.821051799999999
 31
0.0
  0
LINE
  5
29E
330
36
100
AcDbEntity
  8
0
  6
PHANTOM
 62
     7
100
AcDbLine
 10
-140.5675399999999
 20
-2.821051799999999
 30
0.0
 11
-140.5675399999999
 21
-0.8210517799999999
 31
0.0
  0
LINE
  5
29F
330
36
100
AcDbEntity
  8
0
  6
Continuous
 62
     7
100
AcDbLine
 10
-191.0
 20
149.0
 30
0.0
 11
-81.0
 21
149.0
 31
0.0
  0
LINE
  5
2A0
330
36
100
AcDbEntity
  8
0
  6
Continuous
 62
     3
100
AcDbLine
 10
154.43246
 20
95.678947
 30
0.0
 11
154.43246
 21
111.67895
 31
0.0
  0
LINE
  5
2A1
330
36
100
AcDbEntity
  8
0
  6
Continuous
 62
     3
100
AcDbLine
 10
-124.56753
 20
18.678947
 30
0.0
 11
-124.56753
 21
17.678947
 31
0.0
  0
LINE
  5
2A2
330
36
100
AcDbEntity
  8
0
  6
Continuous
 62
     3
100
AcDbLine
 10
-112.56753
 20
18.678947
 30
0.0
 11
-112.56753
 21
17.678947
 31
0.0
  0
LINE
  5
2A3
330
36
100
AcDbEntity
  8
0
  6
CENTER
 62
     7
100
AcDbLine
 10
-118.56753
 20
49.363945
 30
0.0
 11
-118.56753
 21
-11.32775
 31
0.0
  0
LINE
  5
2A4
330
36
100
AcDbEntity
  8
0
  6
Continuous
 62
     3
100
AcDbLine
 10
-124.56753
 20
29.678947
 30
0.0
 11
-112.56753
 21
29.678947
 31
0.0
  0
LINE
  5
2A5
330
36
100
AcDbEntity
  8
0
  6
Continuous
 62
     3
100
AcDbLine
 10
-146.0675399999999
 20
15.178948
 30
0.0
 11
-107.56753
 21
15.178948
 31
0.0
  0
LINE
  5
2A6
330
36
100
AcDbEntity
  8
0
  6
Continuous
 62
     3
100
AcDbLine
 10
-107.56753
 20
17.678947
 30
0.0
 11
-146.06535
 21
17.678947
 31
0.0
  0
LINE
  5
2A7
330
36
100
AcDbEntity
  8
0
  6
Continuous
 62
     3
100
AcDbLine
 10
-112.56753
 20
28.678947
 30
0.0
 11
-112.56753
 21
30.678955
 31
0.0
  0
LINE
  5
2A8
330
36
100
AcDbEntity
  8
0
  6
Continuous
 62
     3
100
AcDbLine
 10
-112.56753
 20
30.678947
 30
0.0
 11
-124.56753
 21
30.678947
 31
0.0
  0
LINE
  5
2A9
330
36
100
AcDbEntity
  8
0
  6
Continuous
 62
     3
100
AcDbLine
 10
-113.5675
 20
31.67894
 30
0.0
 11
-112.5675
 21
30.678942
 31
0.0
  0
LINE
  5
2AA
330
36
100
AcDbEntity
  8
0
  6
Continuous
 62
     3
100
AcDbLine
 10
-124.56753
 20
30.67894
 30
0.0
 11
-124.56753
 21
28.678947
 31
0.0
  0
LINE
  5
2AB
330
36
100
AcDbEntity
  8
0
  6
Continuous
 62
     3
100
AcDbLine
 10
-113.56753
 20
31.678947
 30
0.0
 11
-123.56753
 21
31.678947
 31
0.0
  0
LINE
  5
2AC
330
36
100
AcDbEntity
  8
0
  6
Continuous
 62
     3
100
AcDbLine
 10
-123.56754
 20
31.678959
 30
0.0
 11
-124.56754
 21
30.678953
 31
0.0
  0
LINE
  5
2AD
330
36
100
AcDbEntity
  8
0
  6
CENTER
 62
     7
100
AcDbLine
 10
-103.56753
 20
23.678947
 30
0.0
 11
-133.5675399999999
 21
23.678947
 31
0.0
  0
LINE
  5
2AE
330
36
100
AcDbEntity
  8
0
  6
Continuous
 62
     7
100
AcDbLine
 10
-110.56753
 20
18.678947
 30
0.0
 11
-126.56753
 21
18.678947
 31
0.0
  0
LINE
  5
2AF
330
36
100
AcDbEntity
  8
0
  6
Continuous
 62
     7
100
AcDbLine
 10
-110.56753
 20
28.678932
 30
0.0
 11
-126.56753
 21
28.678932
 31
0.0
  0
LINE
  5
2B0
330
36
100
AcDbEntity
  8
0
  6
Continuous
 62
     7
100
AcDbLine
 10
-109.06753
 20
27.178932
 30
0.0
 11
-109.06753
 21
20.178947
 31
0.0
  0
LINE
  5
2B1
330
36
100
AcDbEntity
  8
0
  6
Continuous
 62
     7
100
AcDbLine
 10
-128.06754
 20
27.178932
 30
0.0
 11
-128.06754
 21
20.178947
 31
0.0
  0
LINE
  5
2B2
330
36
100
AcDbEntity
  8
0
  6
Continuous
 62
     7
100
AcDbLine
 10
-126.88491
 20
37.878944
 30
0.0
 11
-110.25011
 21
37.878944
 31
0.0
  0
LINE
  5
2B3
330
36
100
AcDbEntity
  8
0
  6
Continuous
 62
     7
100
AcDbLine
 10
-128.3175399999999
 20
35.87895200000001
 30
0.0
 11
-127.51102
 21
37.491997
 31
0.0
  0
LINE
  5
2B4
330
36
100
AcDbEntity
  8
0
  6
Continuous
 62
     7
100
AcDbLine
 10
-109.62402
 20
37.492001
 30
0.0
 11
-108.81752
 21
35.878986
 31
0.0
  0
LINE
  5
2B5
330
36
100
AcDbEntity
  8
0
  6
Continuous
 62
     7
100
AcDbLine
 10
-132.5675
 20
8.678948399999999
 30
0.0
 11
-104.56753
 21
8.678948399999999
 31
0.0
  0
LINE
  5
2B6
330
36
100
AcDbEntity
  8
0
  6
Continuous
 62
     7
100
AcDbLine
 10
-130.89279
 20
35.878944
 30
0.0
 11
-106.24224
 21
35.878944
 31
0.0
  0
LINE
  5
2B7
330
36
100
AcDbEntity
  8
0
  6
Continuous
 62
     7
100
AcDbLine
 10
-132.5675399999999
 20
8.6789465
 30
0.0
 11
-132.32855
 21
15.178948
 31
0.0
  0
LINE
  5
2B8
330
36
100
AcDbEntity
  8
0
  6
Continuous
 62
     7
100
AcDbLine
 10
-105.54275
 20
35.204666
 30
0.0
 11
-104.56754
 21
8.678944599999999
 31
0.0
  0
LINE
  5
2B9
330
36
100
AcDbEntity
  8
0
  6
Continuous
 62
     7
100
AcDbLine
 10
-108.06753
 20
31.854347
 30
0.0
 11
-129.06754
 21
31.854347
 31
0.0
  0
LINE
  5
2BA
330
36
100
AcDbEntity
  8
0
  6
Continuous
 62
     7
100
AcDbLine
 10
-108.06753
 20
31.421898
 30
0.0
 11
-113.31048
 21
31.421898
 31
0.0
  0
LINE
  5
2BB
330
36
100
AcDbEntity
  8
0
  6
Continuous
 62
     7
100
AcDbLine
 10
-106.56753
 20
30.354347
 30
0.0
 11
-106.56753
 21
15.928948
 31
0.0
  0
LINE
  5
2BC
330
36
100
AcDbEntity
  8
0
  6
Continuous
 62
     7
100
AcDbLine
 10
-130.56754
 20
30.354347
 30
0.0
 11
-130.56754
 21
17.678947
 31
0.0
  0
LINE
  5
2BD
330
36
100
AcDbEntity
  8
0
  6
Continuous
 62
     7
100
AcDbLine
 10
-107.06753
 20
30.421898
 30
0.0
 11
-107.06753
 21
15.988412
 31
0.0
  0
LINE
  5
2BE
330
36
100
AcDbEntity
  8
0
  6
Continuous
 62
     7
100
AcDbLine
 10
-130.06754
 20
30.421898
 30
0.0
 11
-130.06754
 21
17.678947
 31
0.0
  0
LINE
  5
2BF
330
36
100
AcDbEntity
  8
0
  6
Continuous
 62
     7
100
AcDbLine
 10
-109.81753
 20
28.828941
 30
0.0
 11
-112.56753
 21
28.828941
 31
0.0
  0
LINE
  5
2C0
330
36
100
AcDbEntity
  8
0
  6
Continuous
 62
     7
100
AcDbLine
 10
-109.81753
 20
18.528954
 30
0.0
 11
-112.56753
 21
18.528954
 31
0.0
  0
LINE
  5
2C1
330
36
100
AcDbEntity
  8
0
  6
Continuous
 62
     7
100
AcDbLine
 10
-108.81753
 20
27.828941
 30
0.0
 11
-108.81753
 21
19.528954
 31
0.0
  0
LINE
  5
2C2
330
36
100
AcDbEntity
  8
0
  6
Continuous
 62
     7
100
AcDbLine
 10
-128.3175399999999
 20
27.828941
 30
0.0
 11
-128.3175399999999
 21
19.528954
 31
0.0
  0
LINE
  5
2C3
330
36
100
AcDbEntity
  8
0
  6
Continuous
 62
     7
100
AcDbLine
 10
-107.56753
 20
15.178948
 30
0.0
 11
-107.56753
 21
17.678947
 31
0.0
  0
LINE
  5
2C4
330
36
100
AcDbEntity
  8
0
  6
Continuous
 62
     7
100
AcDbLine
 10
-113.56753
 20
31.678932
 30
0.0
 11
-123.56753
 21
31.678932
 31
0.0
  0
LINE
  5
2C5
330
36
100
AcDbEntity
  8
0
  6
Continuous
 62
     7
100
AcDbLine
 10
-112.56753
 20
29.678932
 30
0.0
 11
-124.56753
 21
29.678932
 31
0.0
  0
LINE
  5
2C6
330
36
100
AcDbEntity
  8
0
  6
Continuous
 62
     7
100
AcDbLine
 10
-124.56753
 20
30.678932
 30
0.0
 11
-124.56753
 21
29.678932
 31
0.0
  0
LINE
  5
2C7
330
36
100
AcDbEntity
  8
0
  6
Continuous
 62
     7
100
AcDbLine
 10
-112.56753
 20
30.678932
 30
0.0
 11
-112.56753
 21
29.678932
 31
0.0
  0
LINE
  5
2C8
330
36
100
AcDbEntity
  8
0
  6
Continuous
 62
     7
100
AcDbLine
 10
-112.56753
 20
30.678932
 30
0.0
 11
-124.56753
 21
30.678932
 31
0.0
  0
LINE
  5
2C9
330
36
100
AcDbEntity
  8
0
  6
Continuous
 62
     7
100
AcDbLine
 10
-112.56753
 20
30.678944
 30
0.0
 11
-113.56753
 21
31.678944
 31
0.0
  0
LINE
  5
2CA
330
36
100
AcDbEntity
  8
0
  6
Continuous
 62
     7
100
AcDbLine
 10
-123.56753
 20
31.678957
 30
0.0
 11
-124.56753
 21
30.678957
 31
0.0
  0
LINE
  5
2CB
330
36
100
AcDbEntity
  8
0
  6
Continuous
 62
     7
100
AcDbLine
 10
-125.56753
 20
42.928932
 30
0.0
 11
-125.56753
 21
37.878944
 31
0.0
  0
LINE
  5
2CC
330
36
100
AcDbEntity
  8
0
  6
Continuous
 62
     7
100
AcDbLine
 10
-111.56753
 20
42.92894699999999
 30
0.0
 11
-111.56753
 21
37.878944
 31
0.0
  0
LINE
  5
2CD
330
36
100
AcDbEntity
  8
0
  6
Continuous
 62
     7
100
AcDbLine
 10
-112.26754
 20
43.628944
 30
0.0
 11
-124.86755
 21
43.628944
 31
0.0
  0
LINE
  5
2CE
330
36
100
AcDbEntity
  8
0
  6
Continuous
 62
     7
100
AcDbLine
 10
-112.56753
 20
29.678932
 30
0.0
 11
-112.56753
 21
28.678932
 31
0.0
  0
LINE
  5
2CF
330
36
100
AcDbEntity
  8
0
  6
Continuous
 62
     7
100
AcDbLine
 10
-124.56753
 20
29.678932
 30
0.0
 11
-124.56753
 21
28.678932
 31
0.0
  0
LINE
  5
2D0
330
36
100
AcDbEntity
  8
0
  6
Continuous
 62
     7
100
AcDbLine
 10
-128.56754
 20
1.6789484
 30
0.0
 11
-128.56754
 21
8.678948399999999
 31
0.0
  0
LINE
  5
2D1
330
36
100
AcDbEntity
  8
0
  6
Continuous
 62
     7
100
AcDbLine
 10
-108.56753
 20
1.6789484
 30
0.0
 11
-108.56753
 21
8.678948399999999
 31
0.0
  0
LINE
  5
2D2
330
36
100
AcDbEntity
  8
0
  6
Continuous
 62
     7
100
AcDbLine
 10
-124.56753
 20
17.678947
 30
0.0
 11
-124.56753
 21
18.678947
 31
0.0
  0
LINE
  5
2D3
330
36
100
AcDbEntity
  8
0
  6
Continuous
 62
     7
100
AcDbLine
 10
-112.56753
 20
17.678947
 30
0.0
 11
-112.56753
 21
18.678947
 31
0.0
  0
LINE
  5
2D4
330
36
100
AcDbEntity
  8
0
  6
Continuous
 62
     7
100
AcDbLine
 10
-124.56753
 20
17.678947
 30
0.0
 11
-112.56753
 21
17.678947
 31
0.0
  0
LINE
  5
2D5
330
36
100
AcDbEntity
  8
0
  6
Continuous
 62
     7
100
AcDbLine
 10
149.03247
 20
18.678949
 30
0.0
 11
149.03247
 21
17.378946
 31
0.0
  0
LINE
  5
2D6
330
36
100
AcDbEntity
  8
0
  6
Continuous
 62
     7
100
AcDbLine
 10
139.83246
 20
18.678949
 30
0.0
 11
139.83246
 21
17.378946
 31
0.0
  0
LINE
  5
2D7
330
36
100
AcDbEntity
  8
0
  6
Continuous
 62
     7
100
AcDbLine
 10
139.83246
 20
17.378946
 30
0.0
 11
149.03247
 21
17.378946
 31
0.0
  0
LINE
  5
2D8
330
36
100
AcDbEntity
  8
0
  6
Continuous
 62
     7
100
AcDbLine
 10
144.93246
 20
15.578943
 30
0.0
 11
144.93246
 21
15.215952
 31
0.0
  0
LINE
  5
2D9
330
36
100
AcDbEntity
  8
0
  6
Continuous
 62
     7
100
AcDbLine
 10
143.93246
 20
15.578943
 30
0.0
 11
143.93246
 21
15.215952
 31
0.0
  0
LINE
  5
2DA
330
36
100
AcDbEntity
  8
0
  6
Continuous
 62
     7
100
AcDbLine
 10
-113.35509
 20
14.428943
 30
0.0
 11
-113.78811
 21
15.178951
 31
0.0
  0
LINE
  5
2DB
330
36
100
AcDbEntity
  8
0
  6
Continuous
 62
     7
100
AcDbLine
 10
-123.34692
 20
15.178947
 30
0.0
 11
-123.77994
 21
14.428923
 31
0.0
  0
LINE
  5
2DC
330
36
100
AcDbEntity
  8
0
  6
Continuous
 62
     7
100
AcDbLine
 10
-129.06754
 20
14.428948
 30
0.0
 11
-123.77996
 21
14.428948
 31
0.0
  0
LINE
  5
2DD
330
36
100
AcDbEntity
  8
0
  6
Continuous
 62
     7
100
AcDbLine
 10
-113.35509
 20
14.428948
 30
0.0
 11
-108.06753
 21
14.428948
 31
0.0
  0
LINE
  5
2DE
330
36
100
AcDbEntity
  8
0
  6
Continuous
 62
     7
100
AcDbLine
 10
19.43247
 20
1.678949599999999
 30
0.0
 11
19.43247
 21
8.6789494
 31
0.0
  0
LINE
  5
2DF
330
36
100
AcDbEntity
  8
0
  6
Continuous
 62
     7
100
AcDbLine
 10
39.432472
 20
1.678949599999999
 30
0.0
 11
39.432472
 21
8.6789494
 31
0.0
  0
LINE
  5
2E0
330
36
100
AcDbEntity
  8
0
  6
Continuous
 62
     7
100
AcDbLine
 10
21.93247
 20
-0.92105651
 30
0.0
 11
21.93247
 21
-3.4210565
 31
0.0
  0
LINE
  5
2E1
330
36
100
AcDbEntity
  8
0
  6
Continuous
 62
     7
100
AcDbLine
 10
36.932472
 20
-0.92105651
 30
0.0
 11
36.932472
 21
-3.4210565
 31
0.0
  0
LINE
  5
2E2
330
36
100
AcDbEntity
  8
0
  6
Continuous
 62
     7
100
AcDbLine
 10
21.93247
 20
-0.92105651
 30
0.0
 11
36.932472
 21
-0.92105651
 31
0.0
  0
LINE
  5
2E3
330
36
100
AcDbEntity
  8
0
  6
Continuous
 62
     7
100
AcDbLine
 10
21.93247
 20
-3.4210565
 30
0.0
 11
36.932472
 21
-3.4210565
 31
0.0
  0
LINE
  5
2E4
330
36
100
AcDbEntity
  8
0
  6
Continuous
 62
     7
100
AcDbLine
 10
25.43247
 20
-0.8210504099999999
 30
0.0
 11
25.43247
 21
-0.92105651
 31
0.0
  0
LINE
  5
2E5
330
36
100
AcDbEntity
  8
0
  6
Continuous
 62
     7
100
AcDbLine
 10
33.432472
 20
-0.8210504099999999
 30
0.0
 11
33.432472
 21
-0.92105651
 31
0.0
  0
LINE
  5
2E6
330
36
100
AcDbEntity
  8
0
  6
Continuous
 62
     7
100
AcDbLine
 10
-124.56753
 20
18.528954
 30
0.0
 11
-127.31753
 21
18.528954
 31
0.0
  0
LINE
  5
2E7
330
36
100
AcDbEntity
  8
0
  6
Continuous
 62
     7
100
AcDbLine
 10
-124.56753
 20
28.828941
 30
0.0
 11
-127.31753
 21
28.828941
 31
0.0
  0
LINE
  5
2E8
330
36
100
AcDbEntity
  8
0
  6
Continuous
 62
     7
100
AcDbLine
 10
-123.82455
 20
31.421898
 30
0.0
 11
-129.06754
 21
31.421898
 31
0.0
  0
LINE
  5
2E9
330
36
100
AcDbEntity
  8
0
  6
Continuous
 62
     7
100
AcDbLine
 10
-132.23665
 20
17.678949
 30
0.0
 11
-131.59232
 21
35.204666
 31
0.0
  0
LINE
  5
2EA
330
36
100
AcDbEntity
  8
0
  6
Continuous
 62
     7
100
AcDbLine
 10
-68.767487
 20
113.1226
 30
0.0
 11
-53.767483
 21
98.122597
 31
0.0
  0
LINE
  5
2EB
330
36
100
AcDbEntity
  8
0
  6
Continuous
 62
     7
100
AcDbLine
 10
46.603703
 20
32.353512
 30
0.0
 11
49.432465
 21
8.678955099999999
 31
0.0
  0
LINE
  5
2EC
330
36
100
AcDbEntity
  8
0
  6
Continuous
 62
     7
100
AcDbLine
 10
16.232977
 20
35.878948
 30
0.0
 11
42.631958
 21
35.878948
 31
0.0
  0
LINE
  5
2ED
330
36
100
AcDbEntity
  8
0
  6
Continuous
 62
     7
100
AcDbLine
 10
19.682461
 20
35.87895200000001
 30
0.0
 11
20.488983
 21
37.491997
 31
0.0
  0
LINE
  5
2EE
330
36
100
AcDbEntity
  8
0
  6
Continuous
 62
     7
100
AcDbLine
 10
21.11508
 20
37.878948
 30
0.0
 11
37.749847
 21
37.878948
 31
0.0
  0
LINE
  5
2EF
330
36
100
AcDbEntity
  8
0
  6
Continuous
 62
     7
100
AcDbLine
 10
38.375946
 20
37.491993
 30
0.0
 11
39.182472
 21
35.878937
 31
0.0
  0
LINE
  5
2F0
330
36
100
AcDbEntity
  8
0
  6
Continuous
 62
     7
100
AcDbLine
 10
9.771459599999998
 20
14.378946
 30
0.0
 11
10.113531
 21
14.378946
 31
0.0
  0
LINE
  5
2F1
330
36
100
AcDbEntity
  8
0
  6
Continuous
 62
     7
100
AcDbLine
 10
9.771456699999999
 20
14.378946
 30
0.0
 11
9.339011199999999
 21
14.938403
 31
0.0
  0
LINE
  5
2F2
330
36
100
AcDbEntity
  8
0
  6
Continuous
 62
     7
100
AcDbLine
 10
12.002766
 20
31.804331
 30
0.0
 11
12.201143
 21
31.778929
 31
0.0
  0
LINE
  5
2F3
330
36
100
AcDbEntity
  8
0
  6
Continuous
 62
     7
100
AcDbLine
 10
11.4433
 20
31.371904
 30
0.0
 11
12.002758
 21
31.80435
 31
0.0
  0
LINE
  5
2F4
330
36
100
AcDbEntity
  8
0
  6
Continuous
 62
     7
100
AcDbLine
 10
9.432468400000001
 20
8.678948399999999
 30
0.0
 11
12.26123
 21
32.35350800000001
 31
0.0
  0
LINE
  5
2F5
330
36
100
AcDbEntity
  8
0
  6
Continuous
 62
     7
100
AcDbLine
 10
49.093483
 20
14.378946
 30
0.0
 11
48.751404
 21
14.378946
 31
0.0
  0
LINE
  5
2F6
330
36
100
AcDbEntity
  8
0
  6
Continuous
 62
     7
100
AcDbLine
 10
49.093479
 20
14.378953
 30
0.0
 11
49.525925
 21
14.938411
 31
0.0
  0
LINE
  5
2F7
330
36
100
AcDbEntity
  8
0
  6
Continuous
 62
     7
100
AcDbLine
 10
46.862167
 20
31.804344
 30
0.0
 11
46.663792
 21
31.778942
 31
0.0
  0
LINE
  5
2F8
330
36
100
AcDbEntity
  8
0
  6
Continuous
 62
     7
100
AcDbLine
 10
47.42163499999999
 20
31.371912
 30
0.0
 11
46.86217899999999
 21
31.804358
 31
0.0
  0
LINE
  5
2F9
330
36
100
AcDbEntity
  8
0
  6
Continuous
 62
     7
100
AcDbLine
 10
9.339017899999999
 20
14.938378
 30
0.0
 11
11.443309
 21
31.371887
 31
0.0
  0
LINE
  5
2FA
330
36
100
AcDbEntity
  8
0
  6
Continuous
 62
     7
100
AcDbLine
 10
49.525917
 20
14.938388
 30
0.0
 11
47.421627
 21
31.371899
 31
0.0
  0
LINE
  5
2FB
330
36
100
AcDbEntity
  8
0
  6
Continuous
 62
     7
100
AcDbLine
 10
9.4324703
 20
8.6789494
 30
0.0
 11
49.432472
 21
8.6789494
 31
0.0
  0
LINE
  5
2FC
330
36
100
AcDbEntity
  8
0
  6
Continuous
 62
     7
100
AcDbLine
 10
9.771464300000001
 20
14.378926
 30
0.0
 11
12.002776
 21
31.804321
 31
0.0
  0
LINE
  5
2FD
330
36
100
AcDbEntity
  8
0
  6
Continuous
 62
     7
100
AcDbLine
 10
49.09348699999999
 20
14.378949
 30
0.0
 11
46.862175
 21
31.804359
 31
0.0
  0
LINE
  5
2FE
330
36
100
AcDbEntity
  8
0
  6
Continuous
 62
     7
100
AcDbLine
 10
22.43247
 20
42.928936
 30
0.0
 11
22.43247
 21
37.878948
 31
0.0
  0
LINE
  5
2FF
330
36
100
AcDbEntity
  8
0
  6
Continuous
 62
     7
100
AcDbLine
 10
36.432472
 20
42.92895099999999
 30
0.0
 11
36.432472
 21
37.878948
 31
0.0
  0
LINE
  5
300
330
36
100
AcDbEntity
  8
0
  6
Continuous
 62
     7
100
AcDbLine
 10
35.73246
 20
43.628948
 30
0.0
 11
23.132467
 21
43.628948
 31
0.0
  0
LINE
  5
301
330
36
100
AcDbEntity
  8
0
  6
Continuous
 62
     7
100
AcDbLine
 10
-113.6781
 20
14.988412
 30
0.0
 11
-108.06753
 21
14.988412
 31
0.0
  0
LINE
  5
302
330
36
100
AcDbEntity
  8
0
  6
Continuous
 62
     7
100
AcDbLine
 10
-123.45695
 20
14.988412
 30
0.0
 11
-129.06754
 21
14.988412
 31
0.0
  0
LINE
  5
303
330
36
100
AcDbEntity
  8
0
  6
Continuous
 62
     7
100
AcDbLine
 10
-128.06754
 20
17.678947
 30
0.0
 11
-128.06754
 21
15.178948
 31
0.0
  0
LINE
  5
304
330
36
100
AcDbEntity
  8
0
  6
Continuous
 62
     7
100
AcDbLine
 10
10.132467
 20
89.678947
 30
0.0
 11
48.732475
 21
89.678947
 31
0.0
  0
LINE
  5
305
330
36
100
AcDbEntity
  8
0
  6
Continuous
 62
     7
100
AcDbLine
 10
10.132467
 20
117.67895
 30
0.0
 11
48.732475
 21
117.67895
 31
0.0
  0
LINE
  5
306
330
36
100
AcDbEntity
  8
0
  6
Continuous
 62
     7
100
AcDbLine
 10
14.68247
 20
90.678947
 30
0.0
 11
44.18247199999999
 21
90.678947
 31
0.0
  0
LINE
  5
307
330
36
100
AcDbEntity
  8
0
  6
Continuous
 62
     7
100
AcDbLine
 10
14.68247
 20
116.67895
 30
0.0
 11
44.18247199999999
 21
116.67895
 31
0.0
  0
LINE
  5
308
330
36
100
AcDbEntity
  8
0
  6
Continuous
 62
     7
100
AcDbLine
 10
9.4324703
 20
116.97894
 30
0.0
 11
9.4324703
 21
115.45254
 31
0.0
  0
LINE
  5
309
330
36
100
AcDbEntity
  8
0
  6
Continuous
 62
     7
100
AcDbLine
 10
12.68247
 20
114.67895
 30
0.0
 11
12.68247
 21
92.67894699999999
 31
0.0
  0
LINE
  5
30A
330
36
100
AcDbEntity
  8
0
  6
Continuous
 62
     7
100
AcDbLine
 10
46.18247199999999
 20
114.67895
 30
0.0
 11
46.18247199999999
 21
92.67894699999999
 31
0.0
  0
LINE
  5
30B
330
36
100
AcDbEntity
  8
0
  6
Continuous
 62
     7
100
AcDbLine
 10
9.3509884
 20
115.17895
 30
0.0
 11
9.3509884
 21
113.17895
 31
0.0
  0
LINE
  5
30C
330
36
100
AcDbEntity
  8
0
  6
Continuous
 62
     7
100
AcDbLine
 10
9.8509884
 20
91.67894699999999
 30
0.0
 11
11.71311
 21
91.67894699999999
 31
0.0
  0
LINE
  5
30D
330
36
100
AcDbEntity
  8
0
  6
Continuous
 62
     7
100
AcDbLine
 10
12.21311
 20
115.17895
 30
0.0
 11
12.21311
 21
92.178947
 31
0.0
  0
LINE
  5
30E
330
36
100
AcDbEntity
  8
0
  6
Continuous
 62
     7
100
AcDbLine
 10
12.01473
 20
115.17895
 30
0.0
 11
12.01473
 21
92.178947
 31
0.0
  0
LINE
  5
30F
330
36
100
AcDbEntity
  8
0
  6
Continuous
 62
     7
100
AcDbLine
 10
11.455282
 20
114.67895
 30
0.0
 11
11.455282
 21
92.67894699999999
 31
0.0
  0
LINE
  5
310
330
36
100
AcDbEntity
  8
0
  6
Continuous
 62
     7
100
AcDbLine
 10
9.3509884
 20
92.178947
 30
0.0
 11
10.955282
 21
92.178947
 31
0.0
  0
LINE
  5
311
330
36
100
AcDbEntity
  8
0
  6
Continuous
 62
     7
100
AcDbLine
 10
11.123251
 20
112.92895
 30
0.0
 11
11.123251
 21
94.428947
 31
0.0
  0
LINE
  5
312
330
36
100
AcDbEntity
  8
0
  6
Continuous
 62
     7
100
AcDbLine
 10
9.932394
 20
113.42895
 30
0.0
 11
10.995199
 21
113.42895
 31
0.0
  0
LINE
  5
313
330
36
100
AcDbEntity
  8
0
  6
Continuous
 62
     7
100
AcDbLine
 10
9.932394
 20
93.92894699999999
 30
0.0
 11
10.995199
 21
93.92894699999999
 31
0.0
  0
LINE
  5
314
330
36
100
AcDbEntity
  8
0
  6
Continuous
 62
     7
100
AcDbLine
 10
9.8509884
 20
115.67895
 30
0.0
 11
11.71311
 21
115.67895
 31
0.0
  0
LINE
  5
315
330
36
100
AcDbEntity
  8
0
  6
Continuous
 62
     7
100
AcDbLine
 10
9.3509884
 20
115.17895
 30
0.0
 11
10.955282
 21
115.17895
 31
0.0
  0
LINE
  5
316
330
36
100
AcDbEntity
  8
0
  6
Continuous
 62
     7
100
AcDbLine
 10
9.4324703
 20
91.90535699999999
 30
0.0
 11
9.4324703
 21
90.37894399999998
 31
0.0
  0
LINE
  5
317
330
36
100
AcDbEntity
  8
0
  6
Continuous
 62
     7
100
AcDbLine
 10
49.432472
 20
116.97894
 30
0.0
 11
49.432472
 21
115.45254
 31
0.0
  0
LINE
  5
318
330
36
100
AcDbEntity
  8
0
  6
Continuous
 62
     7
100
AcDbLine
 10
49.513962
 20
115.17895
 30
0.0
 11
49.513962
 21
113.17895
 31
0.0
  0
LINE
  5
319
330
36
100
AcDbEntity
  8
0
  6
Continuous
 62
     7
100
AcDbLine
 10
49.013962
 20
91.67894699999999
 30
0.0
 11
47.15183999999999
 21
91.67894699999999
 31
0.0
  0
LINE
  5
31A
330
36
100
AcDbEntity
  8
0
  6
Continuous
 62
     7
100
AcDbLine
 10
46.65183999999999
 20
115.17895
 30
0.0
 11
46.65183999999999
 21
92.178947
 31
0.0
  0
LINE
  5
31B
330
36
100
AcDbEntity
  8
0
  6
Continuous
 62
     7
100
AcDbLine
 10
46.85022
 20
115.17895
 30
0.0
 11
46.85022
 21
92.178947
 31
0.0
  0
LINE
  5
31C
330
36
100
AcDbEntity
  8
0
  6
Continuous
 62
     7
100
AcDbLine
 10
47.40966799999999
 20
114.67895
 30
0.0
 11
47.40966799999999
 21
92.67894699999999
 31
0.0
  0
LINE
  5
31D
330
36
100
AcDbEntity
  8
0
  6
Continuous
 62
     7
100
AcDbLine
 10
49.513962
 20
92.178947
 30
0.0
 11
47.90966799999999
 21
92.178947
 31
0.0
  0
LINE
  5
31E
330
36
100
AcDbEntity
  8
0
  6
Continuous
 62
     7
100
AcDbLine
 10
47.74169899999999
 20
112.92895
 30
0.0
 11
47.74169899999999
 21
94.428947
 31
0.0
  0
LINE
  5
31F
330
36
100
AcDbEntity
  8
0
  6
Continuous
 62
     7
100
AcDbLine
 10
48.93255599999999
 20
113.42895
 30
0.0
 11
47.869751
 21
113.42895
 31
0.0
  0
LINE
  5
320
330
36
100
AcDbEntity
  8
0
  6
Continuous
 62
     7
100
AcDbLine
 10
48.93255599999999
 20
93.92894699999999
 30
0.0
 11
47.869751
 21
93.92894699999999
 31
0.0
  0
LINE
  5
321
330
36
100
AcDbEntity
  8
0
  6
Continuous
 62
     7
100
AcDbLine
 10
49.013962
 20
115.67895
 30
0.0
 11
47.15183999999999
 21
115.67895
 31
0.0
  0
LINE
  5
322
330
36
100
AcDbEntity
  8
0
  6
Continuous
 62
     7
100
AcDbLine
 10
49.513962
 20
115.17895
 30
0.0
 11
47.90966799999999
 21
115.17895
 31
0.0
  0
LINE
  5
323
330
36
100
AcDbEntity
  8
0
  6
Continuous
 62
     7
100
AcDbLine
 10
49.432472
 20
91.90535699999999
 30
0.0
 11
49.432472
 21
90.37894399999998
 31
0.0
  0
LINE
  5
324
330
36
100
AcDbEntity
  8
0
  6
Continuous
 62
     7
100
AcDbLine
 10
9.3509884
 20
94.17894699999999
 30
0.0
 11
9.3509884
 21
92.178947
 31
0.0
  0
LINE
  5
325
330
36
100
AcDbEntity
  8
0
  6
Continuous
 62
     7
100
AcDbLine
 10
49.513962
 20
94.17894699999999
 30
0.0
 11
49.513962
 21
92.178947
 31
0.0
  0
LINE
  5
326
330
36
100
AcDbEntity
  8
0
  6
Continuous
 62
     7
100
AcDbLine
 10
-136.5675399999999
 20
-13.321053
 30
0.0
 11
-134.06754
 21
-13.321053
 31
0.0
  0
LINE
  5
327
330
36
100
AcDbEntity
  8
0
  6
Continuous
 62
     7
100
AcDbLine
 10
-126.06753
 20
-0.92105651
 30
0.0
 11
-126.06753
 21
-3.4210565
 31
0.0
  0
LINE
  5
328
330
36
100
AcDbEntity
  8
0
  6
Continuous
 62
     7
100
AcDbLine
 10
-111.06753
 20
-0.92105651
 30
0.0
 11
-111.06753
 21
-3.4210565
 31
0.0
  0
LINE
  5
329
330
36
100
AcDbEntity
  8
0
  6
Continuous
 62
     7
100
AcDbLine
 10
-126.06753
 20
-0.92105651
 30
0.0
 11
-111.06753
 21
-0.92105651
 31
0.0
  0
LINE
  5
32A
330
36
100
AcDbEntity
  8
0
  6
Continuous
 62
     7
100
AcDbLine
 10
-126.06753
 20
-3.4210565
 30
0.0
 11
-111.06753
 21
-3.4210565
 31
0.0
  0
LINE
  5
32B
330
36
100
AcDbEntity
  8
0
  6
Continuous
 62
     7
100
AcDbLine
 10
-122.56753
 20
-0.8210504099999999
 30
0.0
 11
-122.56753
 21
-0.92105651
 31
0.0
  0
LINE
  5
32C
330
36
100
AcDbEntity
  8
0
  6
Continuous
 62
     7
100
AcDbLine
 10
-114.56753
 20
-0.8210504099999999
 30
0.0
 11
-114.56753
 21
-0.92105651
 31
0.0
  0
LINE
  5
32D
330
36
100
AcDbEntity
  8
0
  6
Continuous
 62
     7
100
AcDbLine
 10
32.932472
 20
-3.4210565
 30
0.0
 11
32.932472
 21
-3.9210565
 31
0.0
  0
LINE
  5
32E
330
36
100
AcDbEntity
  8
0
  6
Continuous
 62
     7
100
AcDbLine
 10
25.93247
 20
-3.4210565
 30
0.0
 11
25.93247
 21
-3.9210565
 31
0.0
  0
LINE
  5
32F
330
36
100
AcDbEntity
  8
0
  6
Continuous
 62
     7
100
AcDbLine
 10
-115.06753
 20
-3.4210565
 30
0.0
 11
-115.06753
 21
-3.9210565
 31
0.0
  0
LINE
  5
330
330
36
100
AcDbEntity
  8
0
  6
Continuous
 62
     7
100
AcDbLine
 10
-122.06753
 20
-3.4210565
 30
0.0
 11
-122.06753
 21
-3.9210565
 31
0.0
  0
LINE
  5
331
330
36
100
AcDbEntity
  8
0
  6
Continuous
 62
     7
100
AcDbLine
 10
-128.66751
 20
14.378945
 30
0.0
 11
-123.6722
 21
14.378945
 31
0.0
  0
LINE
  5
332
330
36
100
AcDbEntity
  8
0
  6
Continuous
 62
     7
100
AcDbLine
 10
-123.67219
 20
14.378922
 30
0.0
 11
-123.21029
 21
15.178951
 31
0.0
  0
LINE
  5
333
330
36
100
AcDbEntity
  8
0
  6
Continuous
 62
     7
100
AcDbLine
 10
-113.92469
 20
15.178943
 30
0.0
 11
-113.46281
 21
14.378943
 31
0.0
  0
LINE
  5
334
330
36
100
AcDbEntity
  8
0
  6
Continuous
 62
     7
100
AcDbLine
 10
-113.46282
 20
14.378945
 30
0.0
 11
-108.46752
 21
14.378945
 31
0.0
  0
CIRCLE
  5
335
330
36
100
AcDbEntity
  8
0
  6
Continuous
 62
     7
100
AcDbCircle
 10
-151.6283
 20
112.90697
 30
0.0
 40
2.0
  0
ARC
  5
336
330
36
100
AcDbEntity
  8
0
  6
Continuous
 62
     3
100
AcDbCircle
 10
45.43247199999999
 20
-5.3210511
 30
0.0
 40
2.099998499999999
100
AcDbArc
 50
0.000013009894
 51
179.99997
  0
ARC
  5
337
330
36
100
AcDbEntity
  8
0
  6
Continuous
 62
     3
100
AcDbCircle
 10
45.43247199999999
 20
-9.3210516
 30
0.0
 40
2.099998499999999
100
AcDbArc
 50
179.99997
 51
0.0
  0
ARC
  5
338
330
36
100
AcDbEntity
  8
0
  6
Continuous
 62
     3
100
AcDbCircle
 10
13.432471
 20
-5.3210511
 30
0.0
 40
2.1000061
100
AcDbArc
 50
0.000013009846
 51
179.99997
  0
ARC
  5
339
330
36
100
AcDbEntity
  8
0
  6
Continuous
 62
     3
100
AcDbCircle
 10
13.432471
 20
-9.3210516
 30
0.0
 40
2.1000061
100
AcDbArc
 50
179.99997
 51
0.0
  0
ARC
  5
33A
330
36
100
AcDbEntity
  8
0
  6
Continuous
 62
     3
100
AcDbCircle
 10
-59.767479
 20
10.678948
 30
0.0
 40
2.1000061
100
AcDbArc
 50
0.000026019693
 51
179.99997
  0
ARC
  5
33B
330
36
100
AcDbEntity
  8
0
  6
Continuous
 62
     3
100
AcDbCircle
 10
-59.767479
 20
6.678948399999999
 30
0.0
 40
2.1000061
100
AcDbArc
 50
179.99997
 51
0.0
  0
ARC
  5
33C
330
36
100
AcDbEntity
  8
0
  6
Continuous
 62
     3
100
AcDbCircle
 10
-27.767481
 20
10.678948
 30
0.0
 40
2.1000061
100
AcDbArc
 50
0.000026019693
 51
179.99997
  0
ARC
  5
33D
330
36
100
AcDbEntity
  8
0
  6
Continuous
 62
     3
100
AcDbCircle
 10
-27.767481
 20
6.678948399999999
 30
0.0
 40
2.1000061
100
AcDbArc
 50
179.99997
 51
0.0
  0
CIRCLE
  5
33E
330
36
100
AcDbEntity
  8
0
  6
Continuous
 62
     3
100
AcDbCircle
 10
-43.76747899999999
 20
103.67895
 30
0.0
 40
6.0
  0
CIRCLE
  5
33F
330
36
100
AcDbEntity
  8
0
  6
Continuous
 62
     3
100
AcDbCircle
 10
-43.76747899999999
 20
103.67895
 30
0.0
 40
5.0
  0
ARC
  5
340
330
36
100
AcDbEntity
  8
0
  6
Continuous
 62
     3
100
AcDbCircle
 10
-43.76747899999999
 20
18.178949
 30
0.0
 40
5.0
100
AcDbArc
 50
216.86988
 51
323.13009
  0
ARC
  5
341
330
36
100
AcDbEntity
  8
0
  6
Continuous
 62
     3
100
AcDbCircle
 10
-134.06754
 20
-0.8210516
 30
0.0
 40
2.5
100
AcDbArc
 50
90.0
 51
180.00001
  0
ARC
  5
342
330
36
100
AcDbEntity
  8
0
  6
Continuous
 62
     3
100
AcDbCircle
 10
-146.0675399999999
 20
15.178949
 30
0.0
 40
2.5
100
AcDbArc
 50
90.0
 51
180.0
  0
ARC
  5
343
330
36
100
AcDbEntity
  8
0
  6
Continuous
 62
     3
100
AcDbCircle
 10
-118.56753
 20
18.178947
 30
0.0
 40
5.0
100
AcDbArc
 50
216.86987
 51
323.13008
  0
ARC
  5
344
330
36
100
AcDbEntity
  8
0
  6
Continuous
 62
     7
100
AcDbCircle
 10
-126.56753
 20
20.178947
 30
0.0
 40
1.5
100
AcDbArc
 50
180.0
 51
270.0
  0
ARC
  5
345
330
36
100
AcDbEntity
  8
0
  6
Continuous
 62
     7
100
AcDbCircle
 10
-110.56753
 20
20.178947
 30
0.0
 40
1.5
100
AcDbArc
 50
270.0
 51
0.0
  0
ARC
  5
346
330
36
100
AcDbEntity
  8
0
  6
Continuous
 62
     7
100
AcDbCircle
 10
-110.56753
 20
27.178932
 30
0.0
 40
1.5
100
AcDbArc
 50
0.0
 51
90.0
  0
ARC
  5
347
330
36
100
AcDbEntity
  8
0
  6
Continuous
 62
     7
100
AcDbCircle
 10
-126.56753
 20
27.178932
 30
0.0
 40
1.5
100
AcDbArc
 50
90.0
 51
180.0
  0
ARC
  5
348
330
36
100
AcDbEntity
  8
0
  6
Continuous
 62
     7
100
AcDbCircle
 10
-130.89279
 20
35.17894699999999
 30
0.0
 40
0.6999999900000001
100
AcDbArc
 50
90.0
 51
177.89441
  0
ARC
  5
349
330
36
100
AcDbEntity
  8
0
  6
Continuous
 62
     7
100
AcDbCircle
 10
-106.24224
 20
35.17894699999999
 30
0.0
 40
0.6999999900000001
100
AcDbArc
 50
2.1055876
 51
90.0
  0
ARC
  5
34A
330
36
100
AcDbEntity
  8
0
  6
Continuous
 62
     7
100
AcDbCircle
 10
-108.06753
 20
30.354347
 30
0.0
 40
1.5
100
AcDbArc
 50
0.0
 51
90.0
  0
ARC
  5
34B
330
36
100
AcDbEntity
  8
0
  6
Continuous
 62
     7
100
AcDbCircle
 10
-129.06754
 20
30.354347
 30
0.0
 40
1.5
100
AcDbArc
 50
90.0
 51
180.0
  0
ARC
  5
34C
330
36
100
AcDbEntity
  8
0
  6
Continuous
 62
     7
100
AcDbCircle
 10
-108.06753
 20
15.928948
 30
0.0
 40
1.5
100
AcDbArc
 50
270.0
 51
0.0
  0
ARC
  5
34D
330
36
100
AcDbEntity
  8
0
  6
Continuous
 62
     7
100
AcDbCircle
 10
-129.06754
 20
15.928948
 30
0.0
 40
1.5
100
AcDbArc
 50
209.99993
 51
270.0
  0
ARC
  5
34E
330
36
100
AcDbEntity
  8
0
  6
Continuous
 62
     7
100
AcDbCircle
 10
-129.06754
 20
30.421898
 30
0.0
 40
1.0
100
AcDbArc
 50
90.0
 51
180.0
  0
ARC
  5
34F
330
36
100
AcDbEntity
  8
0
  6
Continuous
 62
     7
100
AcDbCircle
 10
-108.06753
 20
30.421898
 30
0.0
 40
1.0
100
AcDbArc
 50
0.0
 51
90.0
  0
ARC
  5
350
330
36
100
AcDbEntity
  8
0
  6
Continuous
 62
     7
100
AcDbCircle
 10
-108.06753
 20
15.988412
 30
0.0
 40
1.0
100
AcDbArc
 50
270.0
 51
0.0
  0
ARC
  5
351
330
36
100
AcDbEntity
  8
0
  6
Continuous
 62
     7
100
AcDbCircle
 10
-109.81753
 20
19.528954
 30
0.0
 40
1.0
100
AcDbArc
 50
270.0
 51
0.0
  0
ARC
  5
352
330
36
100
AcDbEntity
  8
0
  6
Continuous
 62
     7
100
AcDbCircle
 10
-109.81753
 20
27.828941
 30
0.0
 40
1.0
100
AcDbArc
 50
0.0
 51
90.0
  0
ARC
  5
353
330
36
100
AcDbEntity
  8
0
  6
Continuous
 62
     7
100
AcDbCircle
 10
-127.31753
 20
27.828941
 30
0.0
 40
1.0
100
AcDbArc
 50
90.0
 51
180.0
  0
ARC
  5
354
330
36
100
AcDbEntity
  8
0
  6
Continuous
 62
     7
100
AcDbCircle
 10
-127.31753
 20
19.528954
 30
0.0
 40
1.0
100
AcDbArc
 50
180.0
 51
270.0
  0
ARC
  5
355
330
36
100
AcDbEntity
  8
0
  6
Continuous
 62
     7
100
AcDbCircle
 10
-124.86755
 20
42.928932
 30
0.0
 40
0.6999999900000001
100
AcDbArc
 50
90.0
 51
180.0
  0
ARC
  5
356
330
36
100
AcDbEntity
  8
0
  6
Continuous
 62
     7
100
AcDbCircle
 10
-112.26754
 20
42.92894699999999
 30
0.0
 40
0.6999999900000001
100
AcDbArc
 50
0.0
 51
90.0
  0
ARC
  5
357
330
36
100
AcDbEntity
  8
0
  6
Continuous
 62
     7
100
AcDbCircle
 10
152.93246
 20
27.178949
 30
0.0
 40
1.5
100
AcDbArc
 50
0.0
 51
90.0
  0
ARC
  5
358
330
36
100
AcDbEntity
  8
0
  6
Continuous
 62
     7
100
AcDbCircle
 10
152.93246
 20
20.178949
 30
0.0
 40
1.5
100
AcDbArc
 50
270.0
 51
0.0
  0
ARC
  5
359
330
36
100
AcDbEntity
  8
0
  6
Continuous
 62
     7
100
AcDbCircle
 10
144.43246
 20
18.797129
 30
0.0
 40
4.7181816
100
AcDbArc
 50
197.49233
 51
342.50767
  0
ARC
  5
35A
330
36
100
AcDbEntity
  8
0
  6
Continuous
 62
     7
100
AcDbCircle
 10
144.43246
 20
18.797129
 30
0.0
 40
4.2181816
100
AcDbArc
 50
244.91942
 51
254.39826
  0
ARC
  5
35B
330
36
100
AcDbEntity
  8
0
  6
Continuous
 62
     7
100
AcDbCircle
 10
142.43246
 20
14.523813
 30
0.0
 40
0.5
100
AcDbArc
 50
64.91958199999999
 51
151.88237
  0
ARC
  5
35C
330
36
100
AcDbEntity
  8
0
  6
Continuous
 62
     7
100
AcDbCircle
 10
146.43246
 20
14.523813
 30
0.0
 40
0.5
100
AcDbArc
 50
28.117627
 51
115.08042
  0
ARC
  5
35D
330
36
100
AcDbEntity
  8
0
  6
Continuous
 62
     7
100
AcDbCircle
 10
144.43246
 20
15.578943
 30
0.0
 40
0.5
100
AcDbArc
 50
0.0
 51
180.0
  0
ARC
  5
35E
330
36
100
AcDbEntity
  8
0
  6
Continuous
 62
     7
100
AcDbCircle
 10
144.43246
 20
18.797129
 30
0.0
 40
4.2181816
100
AcDbArc
 50
285.60174
 51
295.08058
  0
ARC
  5
35F
330
36
100
AcDbEntity
  8
0
  6
Continuous
 62
     7
100
AcDbCircle
 10
143.43246
 20
15.215952
 30
0.0
 40
0.5
100
AcDbArc
 50
254.39812
 51
0.0
  0
ARC
  5
360
330
36
100
AcDbEntity
  8
0
  6
Continuous
 62
     7
100
AcDbCircle
 10
145.43246
 20
15.215952
 30
0.0
 40
0.5
100
AcDbArc
 50
180.0
 51
285.60188
  0
ARC
  5
361
330
36
100
AcDbEntity
  8
0
  6
Continuous
 62
     7
100
AcDbCircle
 10
152.93246
 20
95.678947
 30
0.0
 40
1.5
100
AcDbArc
 50
270.0
 51
0.0
  0
ARC
  5
362
330
36
100
AcDbEntity
  8
0
  6
Continuous
 62
     7
100
AcDbCircle
 10
152.93246
 20
111.67895
 30
0.0
 40
1.5
100
AcDbArc
 50
0.0
 51
90.0
  0
ARC
  5
363
330
36
100
AcDbEntity
  8
0
  6
Continuous
 62
     7
100
AcDbCircle
 10
-52.26747899999999
 20
111.67895
 30
0.0
 40
1.5
100
AcDbArc
 50
90.0
 51
180.0
  0
ARC
  5
364
330
36
100
AcDbEntity
  8
0
  6
Continuous
 62
     7
100
AcDbCircle
 10
-52.26747899999999
 20
95.678947
 30
0.0
 40
1.5
100
AcDbArc
 50
180.0
 51
270.0
  0
ARC
  5
365
330
36
100
AcDbEntity
  8
0
  6
Continuous
 62
     7
100
AcDbCircle
 10
-43.76747899999999
 20
103.67895
 30
0.0
 40
11.0
100
AcDbArc
 50
239.72736
 51
300.27264
  0
ARC
  5
366
330
36
100
AcDbEntity
  8
0
  6
Continuous
 62
     7
100
AcDbCircle
 10
-126.88491
 20
37.17894699999999
 30
0.0
 40
0.6999999900000001
100
AcDbArc
 50
90.0
 51
153.43495
  0
ARC
  5
367
330
36
100
AcDbEntity
  8
0
  6
Continuous
 62
     7
100
AcDbCircle
 10
-110.25011
 20
37.17894699999999
 30
0.0
 40
0.6999999900000001
100
AcDbArc
 50
26.565051
 51
90.0
  0
ARC
  5
368
330
36
100
AcDbEntity
  8
0
  6
Continuous
 62
     7
100
AcDbCircle
 10
35.73246
 20
42.92895099999999
 30
0.0
 40
0.6999999900000001
100
AcDbArc
 50
0.0
 51
90.0
  0
ARC
  5
369
330
36
100
AcDbEntity
  8
0
  6
Continuous
 62
     7
100
AcDbCircle
 10
23.132467
 20
42.928936
 30
0.0
 40
0.6999999900000001
100
AcDbArc
 50
90.0
 51
180.0
  0
ARC
  5
36A
330
36
100
AcDbEntity
  8
0
  6
Continuous
 62
     7
100
AcDbCircle
 10
42.631958
 20
31.878946
 30
0.0
 40
4.0
100
AcDbArc
 50
6.813699599999999
 51
90.0
  0
ARC
  5
36B
330
36
100
AcDbEntity
  8
0
  6
Continuous
 62
     7
100
AcDbCircle
 10
16.232977
 20
31.878946
 30
0.0
 40
4.0
100
AcDbArc
 50
90.0
 51
173.1863
  0
ARC
  5
36C
330
36
100
AcDbEntity
  8
0
  6
Continuous
 62
     7
100
AcDbCircle
 10
37.749847
 20
37.178951
 30
0.0
 40
0.6999999900000001
100
AcDbArc
 50
26.565051
 51
90.0
  0
ARC
  5
36D
330
36
100
AcDbEntity
  8
0
  6
Continuous
 62
     7
100
AcDbCircle
 10
21.11508
 20
37.178951
 30
0.0
 40
0.6999999900000001
100
AcDbArc
 50
90.0
 51
153.43495
  0
ARC
  5
36E
330
36
100
AcDbEntity
  8
0
  6
Continuous
 62
     7
100
AcDbCircle
 10
-129.06754
 20
15.988412
 30
0.0
 40
1.0
100
AcDbArc
 50
234.0434
 51
270.0
  0
ARC
  5
36F
330
36
100
AcDbEntity
  8
0
  6
Continuous
 62
     7
100
AcDbCircle
 10
14.68247
 20
92.67894699999999
 30
0.0
 40
2.0
100
AcDbArc
 50
180.0
 51
270.0
  0
ARC
  5
370
330
36
100
AcDbEntity
  8
0
  6
Continuous
 62
     7
100
AcDbCircle
 10
14.68247
 20
114.67895
 30
0.0
 40
2.0
100
AcDbArc
 50
90.0
 51
180.0
  0
ARC
  5
371
330
36
100
AcDbEntity
  8
0
  6
Continuous
 62
     7
100
AcDbCircle
 10
44.18247199999999
 20
114.67895
 30
0.0
 40
2.0
100
AcDbArc
 50
0.0
 51
90.0
  0
ARC
  5
372
330
36
100
AcDbEntity
  8
0
  6
Continuous
 62
     7
100
AcDbCircle
 10
44.18247199999999
 20
92.67894699999999
 30
0.0
 40
2.0
100
AcDbArc
 50
270.0
 51
0.0
  0
CIRCLE
  5
373
330
36
100
AcDbEntity
  8
0
  6
Continuous
 62
     7
100
AcDbCircle
 10
29.43247
 20
103.67895
 30
0.0
 40
9.75
  0
CIRCLE
  5
374
330
36
100
AcDbEntity
  8
0
  6
Continuous
 62
     7
100
AcDbCircle
 10
29.43247
 20
103.67895
 30
0.0
 40
8.75
  0
ARC
  5
375
330
36
100
AcDbEntity
  8
0
  6
Continuous
 62
     7
100
AcDbCircle
 10
11.71311
 20
92.178947
 30
0.0
 40
0.5
100
AcDbArc
 50
270.0
 51
0.0
  0
ARC
  5
376
330
36
100
AcDbEntity
  8
0
  6
Continuous
 62
     7
100
AcDbCircle
 10
10.955282
 20
92.67894699999999
 30
0.0
 40
0.5
100
AcDbArc
 50
270.0
 51
0.0
  0
ARC
  5
377
330
36
100
AcDbEntity
  8
0
  6
Continuous
 62
     7
100
AcDbCircle
 10
9.8509884
 20
92.178947
 30
0.0
 40
0.5
100
AcDbArc
 50
180.0
 51
270.0
  0
ARC
  5
378
330
36
100
AcDbEntity
  8
0
  6
Continuous
 62
     7
100
AcDbCircle
 10
11.51473
 20
92.178947
 30
0.0
 40
0.5
100
AcDbArc
 50
270.0
 51
0.0
  0
ARC
  5
379
330
36
100
AcDbEntity
  8
0
  6
Continuous
 62
     7
100
AcDbCircle
 10
9.8509884
 20
115.17895
 30
0.0
 40
0.5
100
AcDbArc
 50
90.0
 51
180.0
  0
ARC
  5
37A
330
36
100
AcDbEntity
  8
0
  6
Continuous
 62
     7
100
AcDbCircle
 10
11.51473
 20
115.17895
 30
0.0
 40
0.5
100
AcDbArc
 50
0.0
 51
90.0
  0
ARC
  5
37B
330
36
100
AcDbEntity
  8
0
  6
Continuous
 62
     7
100
AcDbCircle
 10
10.955282
 20
114.67895
 30
0.0
 40
0.5
100
AcDbArc
 50
0.0
 51
90.0
  0
ARC
  5
37C
330
36
100
AcDbEntity
  8
0
  6
Continuous
 62
     7
100
AcDbCircle
 10
11.71311
 20
115.17895
 30
0.0
 40
0.5
100
AcDbArc
 50
0.0
 51
90.0
  0
CIRCLE
  5
37D
330
36
100
AcDbEntity
  8
0
  6
Continuous
 62
     7
100
AcDbCircle
 10
29.43247
 20
103.67895
 30
0.0
 40
7.0
  0
ARC
  5
37E
330
36
100
AcDbEntity
  8
0
  6
Continuous
 62
     7
100
AcDbCircle
 10
47.15183999999999
 20
115.17895
 30
0.0
 40
0.5
100
AcDbArc
 50
90.0
 51
180.0
  0
ARC
  5
37F
330
36
100
AcDbEntity
  8
0
  6
Continuous
 62
     7
100
AcDbCircle
 10
47.35021999999999
 20
115.17895
 30
0.0
 40
0.5
100
AcDbArc
 50
90.0
 51
180.0
  0
ARC
  5
380
330
36
100
AcDbEntity
  8
0
  6
Continuous
 62
     7
100
AcDbCircle
 10
47.90966799999999
 20
114.67895
 30
0.0
 40
0.5
100
AcDbArc
 50
90.0
 51
180.0
  0
ARC
  5
381
330
36
100
AcDbEntity
  8
0
  6
Continuous
 62
     7
100
AcDbCircle
 10
47.15183999999999
 20
92.178947
 30
0.0
 40
0.5
100
AcDbArc
 50
180.0
 51
270.0
  0
ARC
  5
382
330
36
100
AcDbEntity
  8
0
  6
Continuous
 62
     7
100
AcDbCircle
 10
47.90966799999999
 20
92.67894699999999
 30
0.0
 40
0.5
100
AcDbArc
 50
180.0
 51
270.0
  0
ARC
  5
383
330
36
100
AcDbEntity
  8
0
  6
Continuous
 62
     7
100
AcDbCircle
 10
49.013962
 20
92.178947
 30
0.0
 40
0.5
100
AcDbArc
 50
270.0
 51
0.0
  0
ARC
  5
384
330
36
100
AcDbEntity
  8
0
  6
Continuous
 62
     7
100
AcDbCircle
 10
47.35021999999999
 20
92.178947
 30
0.0
 40
0.5
100
AcDbArc
 50
180.0
 51
270.0
  0
ARC
  5
385
330
36
100
AcDbEntity
  8
0
  6
Continuous
 62
     7
100
AcDbCircle
 10
49.013962
 20
115.17895
 30
0.0
 40
0.5
100
AcDbArc
 50
0.0
 51
90.0
  0
ARC
  5
386
330
36
100
AcDbEntity
  8
0
  6
Continuous
 62
     7
100
AcDbCircle
 10
10.132467
 20
116.97894
 30
0.0
 40
0.6999999900000001
100
AcDbArc
 50
90.0
 51
180.0
  0
ARC
  5
387
330
36
100
AcDbEntity
  8
0
  6
Continuous
 62
     7
100
AcDbCircle
 10
48.732475
 20
116.97894
 30
0.0
 40
0.6999999900000001
100
AcDbArc
 50
0.0
 51
90.0
  0
ARC
  5
388
330
36
100
AcDbEntity
  8
0
  6
Continuous
 62
     7
100
AcDbCircle
 10
10.132467
 20
90.37894399999998
 30
0.0
 40
0.6999999900000001
100
AcDbArc
 50
180.0
 51
270.0
  0
ARC
  5
389
330
36
100
AcDbEntity
  8
0
  6
Continuous
 62
     7
100
AcDbCircle
 10
48.732475
 20
90.37894399999998
 30
0.0
 40
0.6999999900000001
100
AcDbArc
 50
270.0
 51
0.0
  0
ARC
  5
38A
330
36
100
AcDbEntity
  8
0
  6
Continuous
 62
     3
100
AcDbCircle
 10
-52.26747899999999
 20
27.178947
 30
0.0
 40
1.5
100
AcDbArc
 50
90.0
 51
180.0
  0
ARC
  5
38B
330
36
100
AcDbEntity
  8
0
  6
Continuous
 62
     3
100
AcDbCircle
 10
-52.26747899999999
 20
20.178949
 30
0.0
 40
1.5
100
AcDbArc
 50
180.0
 51
270.0
  0
ARC
  5
38C
330
36
100
AcDbEntity
  8
0
  6
Continuous
 62
     7
100
AcDbCircle
 10
29.43247
 20
1.7039435
 30
0.0
 40
6.625
100
AcDbArc
 50
238.10921
 51
301.89081
  0
ARC
  5
38D
330
36
100
AcDbEntity
  8
0
  6
Continuous
 62
     7
100
AcDbCircle
 10
-118.56753
 20
1.7039435
 30
0.0
 40
6.625
100
AcDbArc
 50
238.10921
 51
301.89079
  0
ARC
  5
38E
330
36
100
AcDbEntity
  8
0
  6
Continuous
 62
     7
100
AcDbCircle
 10
-128.66751
 20
15.378945
 30
0.0
 40
1.0
100
AcDbArc
 50
251.40581
 51
270.0
  0
ARC
  5
38F
330
36
100
AcDbEntity
  8
0
  6
Continuous
 62
     7
100
AcDbCircle
 10
-108.46752
 20
15.378945
 30
0.0
 40
1.0
100
AcDbArc
 50
270.0
 51
288.59416
  0
POLYLINE
  5
390
330
36
100
AcDbEntity
  8
0
  6
Continuous
 62
     7
100
AcDb2dPolyline
 66
     1
 10
0.0
 20
0.0
 30
0.0
  0
VERTEX
  5
391
330
390
100
AcDbEntity
  8
0
  6
Continuous
 62
     7
100
AcDbVertex
100
AcDb2dVertex
 10
102.47141
 20
33.276955
 30
0.0
  0
VERTEX
  5
392
330
390
100
AcDbEntity
  8
0
  6
Continuous
 62
     7
100
AcDbVertex
100
AcDb2dVertex
 10
102.30784
 20
32.912941
 30
0.0
  0
VERTEX
  5
393
330
390
100
AcDbEntity
  8
0
  6
Continuous
 62
     7
100
AcDbVertex
100
AcDb2dVertex
 10
102.14548
 20
32.548943
 30
0.0
  0
VERTEX
  5
394
330
390
100
AcDbEntity
  8
0
  6
Continuous
 62
     7
100
AcDbVertex
100
AcDb2dVertex
 10
101.98557
 20
32.185951
 30
0.0
  0
VERTEX
  5
395
330
390
100
AcDbEntity
  8
0
  6
Continuous
 62
     7
100
AcDbVertex
100
AcDb2dVertex
 10
101.82932
 20
31.823952
 30
0.0
  0
VERTEX
  5
396
330
390
100
AcDbEntity
  8
0
  6
Continuous
 62
     7
100
AcDbVertex
100
AcDb2dVertex
 10
101.6782
 20
31.464951
 30
0.0
  0
VERTEX
  5
397
330
390
100
AcDbEntity
  8
0
  6
Continuous
 62
     7
100
AcDbVertex
100
AcDb2dVertex
 10
101.53318
 20
31.106949
 30
0.0
  0
VERTEX
  5
398
330
390
100
AcDbEntity
  8
0
  6
Continuous
 62
     7
100
AcDbVertex
100
AcDb2dVertex
 10
101.39561
 20
30.752945
 30
0.0
  0
VERTEX
  5
399
330
390
100
AcDbEntity
  8
0
  6
Continuous
 62
     7
100
AcDbVertex
100
AcDb2dVertex
 10
101.26682
 20
30.400948
 30
0.0
  0
VERTEX
  5
39A
330
390
100
AcDbEntity
  8
0
  6
Continuous
 62
     7
100
AcDbVertex
100
AcDb2dVertex
 10
101.1478
 20
30.053947
 30
0.0
  0
VERTEX
  5
39B
330
390
100
AcDbEntity
  8
0
  6
Continuous
 62
     7
100
AcDbVertex
100
AcDb2dVertex
 10
101.04002
 20
29.709946
 30
0.0
  0
VERTEX
  5
39C
330
390
100
AcDbEntity
  8
0
  6
Continuous
 62
     7
100
AcDbVertex
100
AcDb2dVertex
 10
100.9448
 20
29.370949
 30
0.0
  0
VERTEX
  5
39D
330
390
100
AcDbEntity
  8
0
  6
Continuous
 62
     7
100
AcDbVertex
100
AcDb2dVertex
 10
100.86314
 20
29.037949
 30
0.0
  0
VERTEX
  5
39E
330
390
100
AcDbEntity
  8
0
  6
Continuous
 62
     7
100
AcDbVertex
100
AcDb2dVertex
 10
100.79649
 20
28.708946
 30
0.0
  0
VERTEX
  5
39F
330
390
100
AcDbEntity
  8
0
  6
Continuous
 62
     7
100
AcDbVertex
100
AcDb2dVertex
 10
100.74583
 20
28.386948
 30
0.0
  0
VERTEX
  5
3A0
330
390
100
AcDbEntity
  8
0
  6
Continuous
 62
     7
100
AcDbVertex
100
AcDb2dVertex
 10
100.71275
 20
28.070946
 30
0.0
  0
VERTEX
  5
3A1
330
390
100
AcDbEntity
  8
0
  6
Continuous
 62
     7
100
AcDbVertex
100
AcDb2dVertex
 10
100.69822
 20
27.762947
 30
0.0
  0
VERTEX
  5
3A2
330
390
100
AcDbEntity
  8
0
  6
Continuous
 62
     7
100
AcDbVertex
100
AcDb2dVertex
 10
100.7031
 20
27.460945
 30
0.0
  0
VERTEX
  5
3A3
330
390
100
AcDbEntity
  8
0
  6
Continuous
 62
     7
100
AcDbVertex
100
AcDb2dVertex
 10
100.72593
 20
27.166946
 30
0.0
  0
VERTEX
  5
3A4
330
390
100
AcDbEntity
  8
0
  6
Continuous
 62
     7
100
AcDbVertex
100
AcDb2dVertex
 10
100.76499
 20
26.878944
 30
0.0
  0
VERTEX
  5
3A5
330
390
100
AcDbEntity
  8
0
  6
Continuous
 62
     7
100
AcDbVertex
100
AcDb2dVertex
 10
100.81821
 20
26.598946
 30
0.0
  0
VERTEX
  5
3A6
330
390
100
AcDbEntity
  8
0
  6
Continuous
 62
     7
100
AcDbVertex
100
AcDb2dVertex
 10
100.88389
 20
26.323944
 30
0.0
  0
VERTEX
  5
3A7
330
390
100
AcDbEntity
  8
0
  6
Continuous
 62
     7
100
AcDbVertex
100
AcDb2dVertex
 10
100.96006
 20
26.055946
 30
0.0
  0
VERTEX
  5
3A8
330
390
100
AcDbEntity
  8
0
  6
Continuous
 62
     7
100
AcDbVertex
100
AcDb2dVertex
 10
101.0449
 20
25.793945
 30
0.0
  0
VERTEX
  5
3A9
330
390
100
AcDbEntity
  8
0
  6
Continuous
 62
     7
100
AcDbVertex
100
AcDb2dVertex
 10
101.13645
 20
25.536949
 30
0.0
  0
VERTEX
  5
3AA
330
390
100
AcDbEntity
  8
0
  6
Continuous
 62
     7
100
AcDbVertex
100
AcDb2dVertex
 10
101.23301
 20
25.28595
 30
0.0
  0
VERTEX
  5
3AB
330
390
100
AcDbEntity
  8
0
  6
Continuous
 62
     7
100
AcDbVertex
100
AcDb2dVertex
 10
101.33262
 20
25.039948
 30
0.0
  0
VERTEX
  5
3AC
330
390
100
AcDbEntity
  8
0
  6
Continuous
 62
     7
100
AcDbVertex
100
AcDb2dVertex
 10
101.4332
 20
24.79895
 30
0.0
  0
VERTEX
  5
3AD
330
390
100
AcDbEntity
  8
0
  6
Continuous
 62
     7
100
AcDbVertex
100
AcDb2dVertex
 10
101.53318
 20
24.561951
 30
0.0
  0
VERTEX
  5
3AE
330
390
100
AcDbEntity
  8
0
  6
Continuous
 62
     7
100
AcDbVertex
100
AcDb2dVertex
 10
101.63059
 20
24.329948
 30
0.0
  0
VERTEX
  5
3AF
330
390
100
AcDbEntity
  8
0
  6
Continuous
 62
     7
100
AcDbVertex
100
AcDb2dVertex
 10
101.72361
 20
24.101944
 30
0.0
  0
VERTEX
  5
3B0
330
390
100
AcDbEntity
  8
0
  6
Continuous
 62
     7
100
AcDbVertex
100
AcDb2dVertex
 10
101.81016
 20
23.877945
 30
0.0
  0
VERTEX
  5
3B1
330
390
100
AcDbEntity
  8
0
  6
Continuous
 62
     7
100
AcDbVertex
100
AcDb2dVertex
 10
101.8884
 20
23.656944
 30
0.0
  0
VERTEX
  5
3B2
330
390
100
AcDbEntity
  8
0
  6
Continuous
 62
     7
100
AcDbVertex
100
AcDb2dVertex
 10
101.95713
 20
23.439949
 30
0.0
  0
VERTEX
  5
3B3
330
390
100
AcDbEntity
  8
0
  6
Continuous
 62
     7
100
AcDbVertex
100
AcDb2dVertex
 10
102.0156
 20
23.225945
 30
0.0
  0
VERTEX
  5
3B4
330
390
100
AcDbEntity
  8
0
  6
Continuous
 62
     7
100
AcDbVertex
100
AcDb2dVertex
 10
102.06431
 20
23.013947
 30
0.0
  0
VERTEX
  5
3B5
330
390
100
AcDbEntity
  8
0
  6
Continuous
 62
     7
100
AcDbVertex
100
AcDb2dVertex
 10
102.10264
 20
22.803947
 30
0.0
  0
VERTEX
  5
3B6
330
390
100
AcDbEntity
  8
0
  6
Continuous
 62
     7
100
AcDbVertex
100
AcDb2dVertex
 10
102.1312
 20
22.593948
 30
0.0
  0
VERTEX
  5
3B7
330
390
100
AcDbEntity
  8
0
  6
Continuous
 62
     7
100
AcDbVertex
100
AcDb2dVertex
 10
102.14964
 20
22.384949
 30
0.0
  0
VERTEX
  5
3B8
330
390
100
AcDbEntity
  8
0
  6
Continuous
 62
     7
100
AcDbVertex
100
AcDb2dVertex
 10
102.15818
 20
22.175949
 30
0.0
  0
VERTEX
  5
3B9
330
390
100
AcDbEntity
  8
0
  6
Continuous
 62
     7
100
AcDbVertex
100
AcDb2dVertex
 10
102.15672
 20
21.964951
 30
0.0
  0
VERTEX
  5
3BA
330
390
100
AcDbEntity
  8
0
  6
Continuous
 62
     7
100
AcDbVertex
100
AcDb2dVertex
 10
102.14524
 20
21.753944
 30
0.0
  0
VERTEX
  5
3BB
330
390
100
AcDbEntity
  8
0
  6
Continuous
 62
     7
100
AcDbVertex
100
AcDb2dVertex
 10
102.12388
 20
21.539948
 30
0.0
  0
VERTEX
  5
3BC
330
390
100
AcDbEntity
  8
0
  6
Continuous
 62
     7
100
AcDbVertex
100
AcDb2dVertex
 10
102.09251
 20
21.322945
 30
0.0
  0
VERTEX
  5
3BD
330
390
100
AcDbEntity
  8
0
  6
Continuous
 62
     7
100
AcDbVertex
100
AcDb2dVertex
 10
102.05137
 20
21.102951
 30
0.0
  0
VERTEX
  5
3BE
330
390
100
AcDbEntity
  8
0
  6
Continuous
 62
     7
100
AcDbVertex
100
AcDb2dVertex
 10
102.00034
 20
20.879944
 30
0.0
  0
VERTEX
  5
3BF
330
390
100
AcDbEntity
  8
0
  6
Continuous
 62
     7
100
AcDbVertex
100
AcDb2dVertex
 10
101.93931
 20
20.650948
 30
0.0
  0
VERTEX
  5
3C0
330
390
100
AcDbEntity
  8
0
  6
Continuous
 62
     7
100
AcDbVertex
100
AcDb2dVertex
 10
101.86851
 20
20.417946
 30
0.0
  0
VERTEX
  5
3C1
330
390
100
AcDbEntity
  8
0
  6
Continuous
 62
     7
100
AcDbVertex
100
AcDb2dVertex
 10
101.78794
 20
20.178949
 30
0.0
  0
VERTEX
  5
3C2
330
390
100
AcDbEntity
  8
0
  6
Continuous
 62
     7
100
AcDbVertex
100
AcDb2dVertex
 10
101.69761
 20
19.933947
 30
0.0
  0
VERTEX
  5
3C3
330
390
100
AcDbEntity
  8
0
  6
Continuous
 62
     7
100
AcDbVertex
100
AcDb2dVertex
 10
101.598
 20
19.682947
 30
0.0
  0
VERTEX
  5
3C4
330
390
100
AcDbEntity
  8
0
  6
Continuous
 62
     7
100
AcDbVertex
100
AcDb2dVertex
 10
101.48985
 20
19.425951
 30
0.0
  0
VERTEX
  5
3C5
330
390
100
AcDbEntity
  8
0
  6
Continuous
 62
     7
100
AcDbVertex
100
AcDb2dVertex
 10
101.37363
 20
19.16395
 30
0.0
  0
VERTEX
  5
3C6
330
390
100
AcDbEntity
  8
0
  6
Continuous
 62
     7
100
AcDbVertex
100
AcDb2dVertex
 10
101.25022
 20
18.896952
 30
0.0
  0
VERTEX
  5
3C7
330
390
100
AcDbEntity
  8
0
  6
Continuous
 62
     7
100
AcDbVertex
100
AcDb2dVertex
 10
101.11985
 20
18.625948
 30
0.0
  0
VERTEX
  5
3C8
330
390
100
AcDbEntity
  8
0
  6
Continuous
 62
     7
100
AcDbVertex
100
AcDb2dVertex
 10
100.9835
 20
18.350946
 30
0.0
  0
VERTEX
  5
3C9
330
390
100
AcDbEntity
  8
0
  6
Continuous
 62
     7
100
AcDbVertex
100
AcDb2dVertex
 10
100.84153
 20
18.071947
 30
0.0
  0
VERTEX
  5
3CA
330
390
100
AcDbEntity
  8
0
  6
Continuous
 62
     7
100
AcDbVertex
100
AcDb2dVertex
 10
100.69468
 20
17.790949
 30
0.0
  0
VERTEX
  5
3CB
330
390
100
AcDbEntity
  8
0
  6
Continuous
 62
     7
100
AcDbVertex
100
AcDb2dVertex
 10
100.54356
 20
17.505953
 30
0.0
  0
VERTEX
  5
3CC
330
390
100
AcDbEntity
  8
0
  6
Continuous
 62
     7
100
AcDbVertex
100
AcDb2dVertex
 10
100.38877
 20
17.21895
 30
0.0
  0
VERTEX
  5
3CD
330
390
100
AcDbEntity
  8
0
  6
Continuous
 62
     7
100
AcDbVertex
100
AcDb2dVertex
 10
100.23081
 20
16.929949
 30
0.0
  0
VERTEX
  5
3CE
330
390
100
AcDbEntity
  8
0
  6
Continuous
 62
     7
100
AcDbVertex
100
AcDb2dVertex
 10
100.07041
 20
16.639948
 30
0.0
  0
VERTEX
  5
3CF
330
390
100
AcDbEntity
  8
0
  6
Continuous
 62
     7
100
AcDbVertex
100
AcDb2dVertex
 10
99.90830200000001
 20
16.347948
 30
0.0
  0
VERTEX
  5
3D0
330
390
100
AcDbEntity
  8
0
  6
Continuous
 62
     7
100
AcDbVertex
100
AcDb2dVertex
 10
99.74485000000001
 20
16.055948
 30
0.0
  0
VERTEX
  5
3D1
330
390
100
AcDbEntity
  8
0
  6
Continuous
 62
     7
100
AcDbVertex
100
AcDb2dVertex
 10
99.58091000000001
 20
15.762948
 30
0.0
  0
SEQEND
  5
3D2
330
390
100
AcDbEntity
  8
0
  6
Continuous
 62
     7
  0
POLYLINE
  5
3D3
330
36
100
AcDbEntity
  8
0
  6
Continuous
 62
     7
100
AcDb2dPolyline
 66
     1
 10
0.0
 20
0.0
 30
0.0
  0
VERTEX
  5
3D4
330
3D3
100
AcDbEntity
  8
0
  6
Continuous
 62
     7
100
AcDbVertex
100
AcDb2dVertex
 10
129.8707
 20
33.276955
 30
0.0
  0
VERTEX
  5
3D5
330
3D3
100
AcDbEntity
  8
0
  6
Continuous
 62
     7
100
AcDbVertex
100
AcDb2dVertex
 10
129.707
 20
32.912941
 30
0.0
  0
VERTEX
  5
3D6
330
3D3
100
AcDbEntity
  8
0
  6
Continuous
 62
     7
100
AcDbVertex
100
AcDb2dVertex
 10
129.54465
 20
32.548943
 30
0.0
  0
VERTEX
  5
3D7
330
3D3
100
AcDbEntity
  8
0
  6
Continuous
 62
     7
100
AcDbVertex
100
AcDb2dVertex
 10
129.38474
 20
32.185951
 30
0.0
  0
VERTEX
  5
3D8
330
3D3
100
AcDbEntity
  8
0
  6
Continuous
 62
     7
100
AcDbVertex
100
AcDb2dVertex
 10
129.22861
 20
31.823952
 30
0.0
  0
VERTEX
  5
3D9
330
3D3
100
AcDbEntity
  8
0
  6
Continuous
 62
     7
100
AcDbVertex
100
AcDb2dVertex
 10
129.07736
 20
31.464951
 30
0.0
  0
VERTEX
  5
3DA
330
3D3
100
AcDbEntity
  8
0
  6
Continuous
 62
     7
100
AcDbVertex
100
AcDb2dVertex
 10
128.9323399999999
 20
31.106949
 30
0.0
  0
VERTEX
  5
3DB
330
3D3
100
AcDbEntity
  8
0
  6
Continuous
 62
     7
100
AcDbVertex
100
AcDb2dVertex
 10
128.79477
 20
30.752945
 30
0.0
  0
VERTEX
  5
3DC
330
3D3
100
AcDbEntity
  8
0
  6
Continuous
 62
     7
100
AcDbVertex
100
AcDb2dVertex
 10
128.66599
 20
30.400948
 30
0.0
  0
VERTEX
  5
3DD
330
3D3
100
AcDbEntity
  8
0
  6
Continuous
 62
     7
100
AcDbVertex
100
AcDb2dVertex
 10
128.54709
 20
30.053947
 30
0.0
  0
VERTEX
  5
3DE
330
3D3
100
AcDbEntity
  8
0
  6
Continuous
 62
     7
100
AcDbVertex
100
AcDb2dVertex
 10
128.4393
 20
29.709946
 30
0.0
  0
VERTEX
  5
3DF
330
3D3
100
AcDbEntity
  8
0
  6
Continuous
 62
     7
100
AcDbVertex
100
AcDb2dVertex
 10
128.34396
 20
29.370949
 30
0.0
  0
VERTEX
  5
3E0
330
3D3
100
AcDbEntity
  8
0
  6
Continuous
 62
     7
100
AcDbVertex
100
AcDb2dVertex
 10
128.2623
 20
29.037949
 30
0.0
  0
VERTEX
  5
3E1
330
3D3
100
AcDbEntity
  8
0
  6
Continuous
 62
     7
100
AcDbVertex
100
AcDb2dVertex
 10
128.19565
 20
28.708946
 30
0.0
  0
VERTEX
  5
3E2
330
3D3
100
AcDbEntity
  8
0
  6
Continuous
 62
     7
100
AcDbVertex
100
AcDb2dVertex
 10
128.14511
 20
28.386948
 30
0.0
  0
VERTEX
  5
3E3
330
3D3
100
AcDbEntity
  8
0
  6
Continuous
 62
     7
100
AcDbVertex
100
AcDb2dVertex
 10
128.11191
 20
28.070946
 30
0.0
  0
VERTEX
  5
3E4
330
3D3
100
AcDbEntity
  8
0
  6
Continuous
 62
     7
100
AcDbVertex
100
AcDb2dVertex
 10
128.0975
 20
27.762947
 30
0.0
  0
VERTEX
  5
3E5
330
3D3
100
AcDbEntity
  8
0
  6
Continuous
 62
     7
100
AcDbVertex
100
AcDb2dVertex
 10
128.10226
 20
27.460945
 30
0.0
  0
VERTEX
  5
3E6
330
3D3
100
AcDbEntity
  8
0
  6
Continuous
 62
     7
100
AcDbVertex
100
AcDb2dVertex
 10
128.12509
 20
27.166946
 30
0.0
  0
VERTEX
  5
3E7
330
3D3
100
AcDbEntity
  8
0
  6
Continuous
 62
     7
100
AcDbVertex
100
AcDb2dVertex
 10
128.16415
 20
26.878944
 30
0.0
  0
VERTEX
  5
3E8
330
3D3
100
AcDbEntity
  8
0
  6
Continuous
 62
     7
100
AcDbVertex
100
AcDb2dVertex
 10
128.2175
 20
26.598946
 30
0.0
  0
VERTEX
  5
3E9
330
3D3
100
AcDbEntity
  8
0
  6
Continuous
 62
     7
100
AcDbVertex
100
AcDb2dVertex
 10
128.28305
 20
26.323944
 30
0.0
  0
VERTEX
  5
3EA
330
3D3
100
AcDbEntity
  8
0
  6
Continuous
 62
     7
100
AcDbVertex
100
AcDb2dVertex
 10
128.35922
 20
26.055946
 30
0.0
  0
VERTEX
  5
3EB
330
3D3
100
AcDbEntity
  8
0
  6
Continuous
 62
     7
100
AcDbVertex
100
AcDb2dVertex
 10
128.44406
 20
25.793945
 30
0.0
  0
VERTEX
  5
3EC
330
3D3
100
AcDbEntity
  8
0
  6
Continuous
 62
     7
100
AcDbVertex
100
AcDb2dVertex
 10
128.53561
 20
25.536949
 30
0.0
  0
VERTEX
  5
3ED
330
3D3
100
AcDbEntity
  8
0
  6
Continuous
 62
     7
100
AcDbVertex
100
AcDb2dVertex
 10
128.63217
 20
25.28595
 30
0.0
  0
VERTEX
  5
3EE
330
3D3
100
AcDbEntity
  8
0
  6
Continuous
 62
     7
100
AcDbVertex
100
AcDb2dVertex
 10
128.73178
 20
25.039948
 30
0.0
  0
VERTEX
  5
3EF
330
3D3
100
AcDbEntity
  8
0
  6
Continuous
 62
     7
100
AcDbVertex
100
AcDb2dVertex
 10
128.83249
 20
24.79895
 30
0.0
  0
VERTEX
  5
3F0
330
3D3
100
AcDbEntity
  8
0
  6
Continuous
 62
     7
100
AcDbVertex
100
AcDb2dVertex
 10
128.9323399999999
 20
24.561951
 30
0.0
  0
VERTEX
  5
3F1
330
3D3
100
AcDbEntity
  8
0
  6
Continuous
 62
     7
100
AcDbVertex
100
AcDb2dVertex
 10
129.02975
 20
24.329948
 30
0.0
  0
VERTEX
  5
3F2
330
3D3
100
AcDbEntity
  8
0
  6
Continuous
 62
     7
100
AcDbVertex
100
AcDb2dVertex
 10
129.12277
 20
24.101944
 30
0.0
  0
VERTEX
  5
3F3
330
3D3
100
AcDbEntity
  8
0
  6
Continuous
 62
     7
100
AcDbVertex
100
AcDb2dVertex
 10
129.20932
 20
23.877945
 30
0.0
  0
VERTEX
  5
3F4
330
3D3
100
AcDbEntity
  8
0
  6
Continuous
 62
     7
100
AcDbVertex
100
AcDb2dVertex
 10
129.28781
 20
23.656944
 30
0.0
  0
VERTEX
  5
3F5
330
3D3
100
AcDbEntity
  8
0
  6
Continuous
 62
     7
100
AcDbVertex
100
AcDb2dVertex
 10
129.35629
 20
23.439949
 30
0.0
  0
VERTEX
  5
3F6
330
3D3
100
AcDbEntity
  8
0
  6
Continuous
 62
     7
100
AcDbVertex
100
AcDb2dVertex
 10
129.41489
 20
23.225945
 30
0.0
  0
VERTEX
  5
3F7
330
3D3
100
AcDbEntity
  8
0
  6
Continuous
 62
     7
100
AcDbVertex
100
AcDb2dVertex
 10
129.46347
 20
23.013947
 30
0.0
  0
VERTEX
  5
3F8
330
3D3
100
AcDbEntity
  8
0
  6
Continuous
 62
     7
100
AcDbVertex
100
AcDb2dVertex
 10
129.50192
 20
22.803947
 30
0.0
  0
VERTEX
  5
3F9
330
3D3
100
AcDbEntity
  8
0
  6
Continuous
 62
     7
100
AcDbVertex
100
AcDb2dVertex
 10
129.53036
 20
22.593948
 30
0.0
  0
VERTEX
  5
3FA
330
3D3
100
AcDbEntity
  8
0
  6
Continuous
 62
     7
100
AcDbVertex
100
AcDb2dVertex
 10
129.5488
 20
22.384949
 30
0.0
  0
VERTEX
  5
3FB
330
3D3
100
AcDbEntity
  8
0
  6
Continuous
 62
     7
100
AcDbVertex
100
AcDb2dVertex
 10
129.55734
 20
22.175949
 30
0.0
  0
VERTEX
  5
3FC
330
3D3
100
AcDbEntity
  8
0
  6
Continuous
 62
     7
100
AcDbVertex
100
AcDb2dVertex
 10
129.55588
 20
21.964951
 30
0.0
  0
VERTEX
  5
3FD
330
3D3
100
AcDbEntity
  8
0
  6
Continuous
 62
     7
100
AcDbVertex
100
AcDb2dVertex
 10
129.5444
 20
21.753944
 30
0.0
  0
VERTEX
  5
3FE
330
3D3
100
AcDbEntity
  8
0
  6
Continuous
 62
     7
100
AcDbVertex
100
AcDb2dVertex
 10
129.52304
 20
21.539948
 30
0.0
  0
VERTEX
  5
3FF
330
3D3
100
AcDbEntity
  8
0
  6
Continuous
 62
     7
100
AcDbVertex
100
AcDb2dVertex
 10
129.4917899999999
 20
21.322945
 30
0.0
  0
VERTEX
  5
400
330
3D3
100
AcDbEntity
  8
0
  6
Continuous
 62
     7
100
AcDbVertex
100
AcDb2dVertex
 10
129.45053
 20
21.102951
 30
0.0
  0
VERTEX
  5
401
330
3D3
100
AcDbEntity
  8
0
  6
Continuous
 62
     7
100
AcDbVertex
100
AcDb2dVertex
 10
129.39951
 20
20.879944
 30
0.0
  0
VERTEX
  5
402
330
3D3
100
AcDbEntity
  8
0
  6
Continuous
 62
     7
100
AcDbVertex
100
AcDb2dVertex
 10
129.33859
 20
20.650948
 30
0.0
  0
VERTEX
  5
403
330
3D3
100
AcDbEntity
  8
0
  6
Continuous
 62
     7
100
AcDbVertex
100
AcDb2dVertex
 10
129.26779
 20
20.417946
 30
0.0
  0
VERTEX
  5
404
330
3D3
100
AcDbEntity
  8
0
  6
Continuous
 62
     7
100
AcDbVertex
100
AcDb2dVertex
 10
129.1871
 20
20.178949
 30
0.0
  0
VERTEX
  5
405
330
3D3
100
AcDbEntity
  8
0
  6
Continuous
 62
     7
100
AcDbVertex
100
AcDb2dVertex
 10
129.09677
 20
19.933947
 30
0.0
  0
VERTEX
  5
406
330
3D3
100
AcDbEntity
  8
0
  6
Continuous
 62
     7
100
AcDbVertex
100
AcDb2dVertex
 10
128.99716
 20
19.682947
 30
0.0
  0
VERTEX
  5
407
330
3D3
100
AcDbEntity
  8
0
  6
Continuous
 62
     7
100
AcDbVertex
100
AcDb2dVertex
 10
128.88901
 20
19.425951
 30
0.0
  0
VERTEX
  5
408
330
3D3
100
AcDbEntity
  8
0
  6
Continuous
 62
     7
100
AcDbVertex
100
AcDb2dVertex
 10
128.7728
 20
19.16395
 30
0.0
  0
VERTEX
  5
409
330
3D3
100
AcDbEntity
  8
0
  6
Continuous
 62
     7
100
AcDbVertex
100
AcDb2dVertex
 10
128.64938
 20
18.896952
 30
0.0
  0
VERTEX
  5
40A
330
3D3
100
AcDbEntity
  8
0
  6
Continuous
 62
     7
100
AcDbVertex
100
AcDb2dVertex
 10
128.51901
 20
18.625948
 30
0.0
  0
VERTEX
  5
40B
330
3D3
100
AcDbEntity
  8
0
  6
Continuous
 62
     7
100
AcDbVertex
100
AcDb2dVertex
 10
128.38266
 20
18.350946
 30
0.0
  0
VERTEX
  5
40C
330
3D3
100
AcDbEntity
  8
0
  6
Continuous
 62
     7
100
AcDbVertex
100
AcDb2dVertex
 10
128.24069
 20
18.071947
 30
0.0
  0
VERTEX
  5
40D
330
3D3
100
AcDbEntity
  8
0
  6
Continuous
 62
     7
100
AcDbVertex
100
AcDb2dVertex
 10
128.09384
 20
17.790949
 30
0.0
  0
VERTEX
  5
40E
330
3D3
100
AcDbEntity
  8
0
  6
Continuous
 62
     7
100
AcDbVertex
100
AcDb2dVertex
 10
127.94273
 20
17.505953
 30
0.0
  0
VERTEX
  5
40F
330
3D3
100
AcDbEntity
  8
0
  6
Continuous
 62
     7
100
AcDbVertex
100
AcDb2dVertex
 10
127.78794
 20
17.21895
 30
0.0
  0
VERTEX
  5
410
330
3D3
100
AcDbEntity
  8
0
  6
Continuous
 62
     7
100
AcDbVertex
100
AcDb2dVertex
 10
127.6301
 20
16.929949
 30
0.0
  0
VERTEX
  5
411
330
3D3
100
AcDbEntity
  8
0
  6
Continuous
 62
     7
100
AcDbVertex
100
AcDb2dVertex
 10
127.4697
 20
16.639948
 30
0.0
  0
VERTEX
  5
412
330
3D3
100
AcDbEntity
  8
0
  6
Continuous
 62
     7
100
AcDbVertex
100
AcDb2dVertex
 10
127.30747
 20
16.347948
 30
0.0
  0
VERTEX
  5
413
330
3D3
100
AcDbEntity
  8
0
  6
Continuous
 62
     7
100
AcDbVertex
100
AcDb2dVertex
 10
127.14402
 20
16.055948
 30
0.0
  0
VERTEX
  5
414
330
3D3
100
AcDbEntity
  8
0
  6
Continuous
 62
     7
100
AcDbVertex
100
AcDb2dVertex
 10
126.98008
 20
15.762948
 30
0.0
  0
SEQEND
  5
415
330
3D3
100
AcDbEntity
  8
0
  6
Continuous
 62
     7
  0
POLYLINE
  5
416
330
36
100
AcDbEntity
  8
0
  6
Continuous
 62
     7
100
AcDb2dPolyline
 66
     1
 10
0.0
 20
0.0
 30
0.0
  0
VERTEX
  5
417
330
416
100
AcDbEntity
  8
0
  6
Continuous
 62
     7
100
AcDbVertex
100
AcDb2dVertex
 10
48.93255599999999
 20
93.92894699999999
 30
0.0
 42
0.016360933
  0
VERTEX
  5
418
330
416
100
AcDbEntity
  8
0
  6
Continuous
 62
     7
100
AcDbVertex
100
AcDb2dVertex
 10
48.940929
 20
93.930018
 30
0.0
 42
0.016360933
  0
VERTEX
  5
419
330
416
100
AcDbEntity
  8
0
  6
Continuous
 62
     7
100
AcDbVertex
100
AcDb2dVertex
 10
48.949267
 20
93.93322299999999
 30
0.0
 42
0.016360933
  0
VERTEX
  5
41A
330
416
100
AcDbEntity
  8
0
  6
Continuous
 62
     7
100
AcDbVertex
100
AcDb2dVertex
 10
48.957533
 20
93.93855100000001
 30
0.0
 42
0.016360933
  0
VERTEX
  5
41B
330
416
100
AcDbEntity
  8
0
  6
Continuous
 62
     7
100
AcDbVertex
100
AcDb2dVertex
 10
48.965692
 20
93.94597799999999
 30
0.0
 42
0.016360933
  0
VERTEX
  5
41C
330
416
100
AcDbEntity
  8
0
  6
Continuous
 62
     7
100
AcDbVertex
100
AcDb2dVertex
 10
48.973709
 20
93.955473
 30
0.0
 42
0.016360933
  0
VERTEX
  5
41D
330
416
100
AcDbEntity
  8
0
  6
Continuous
 62
     7
100
AcDbVertex
100
AcDb2dVertex
 10
48.98155
 20
93.96699400000001
 30
0.0
 42
0.016360933
  0
VERTEX
  5
41E
330
416
100
AcDbEntity
  8
0
  6
Continuous
 62
     7
100
AcDbVertex
100
AcDb2dVertex
 10
48.989181
 20
93.98049300000002
 30
0.0
 42
0.016360933
  0
VERTEX
  5
41F
330
416
100
AcDbEntity
  8
0
  6
Continuous
 62
     7
100
AcDbVertex
100
AcDb2dVertex
 10
48.99657
 20
93.995911
 30
0.0
 42
0.016360933
  0
VERTEX
  5
420
330
416
100
AcDbEntity
  8
0
  6
Continuous
 62
     7
100
AcDbVertex
100
AcDb2dVertex
 10
49.00368499999999
 20
94.01318299999999
 30
0.0
 42
0.016360933
  0
VERTEX
  5
421
330
416
100
AcDbEntity
  8
0
  6
Continuous
 62
     7
100
AcDbVertex
100
AcDb2dVertex
 10
49.010495
 20
94.03223399999999
 30
0.0
 42
0.016360933
  0
VERTEX
  5
422
330
416
100
AcDbEntity
  8
0
  6
Continuous
 62
     7
100
AcDbVertex
100
AcDb2dVertex
 10
49.016972
 20
94.05298399999999
 30
0.0
 42
0.016360933
  0
VERTEX
  5
423
330
416
100
AcDbEntity
  8
0
  6
Continuous
 62
     7
100
AcDbVertex
100
AcDb2dVertex
 10
49.02308699999999
 20
94.075343
 30
0.0
 42
0.016360933
  0
VERTEX
  5
424
330
416
100
AcDbEntity
  8
0
  6
Continuous
 62
     7
100
AcDbVertex
100
AcDb2dVertex
 10
49.028815
 20
94.099216
 30
0.0
 42
0.016360933
  0
VERTEX
  5
425
330
416
100
AcDbEntity
  8
0
  6
Continuous
 62
     7
100
AcDbVertex
100
AcDb2dVertex
 10
49.034131
 20
94.12449999999999
 30
0.0
 42
0.016360933
  0
VERTEX
  5
426
330
416
100
AcDbEntity
  8
0
  6
Continuous
 62
     7
100
AcDbVertex
100
AcDb2dVertex
 10
49.03901199999999
 20
94.151088
 30
0.0
 42
0.016360933
  0
VERTEX
  5
427
330
416
100
AcDbEntity
  8
0
  6
Continuous
 62
     7
100
AcDbVertex
100
AcDb2dVertex
 10
49.043437
 20
94.17886499999999
 30
0.0
 42
-1.0
  0
SEQEND
  5
428
330
416
100
AcDbEntity
  8
0
  6
Continuous
 62
     7
  0
POLYLINE
  5
429
330
36
100
AcDbEntity
  8
0
  6
Continuous
 62
     7
100
AcDb2dPolyline
 66
     1
 10
0.0
 20
0.0
 30
0.0
  0
VERTEX
  5
42A
330
429
100
AcDbEntity
  8
0
  6
Continuous
 62
     7
100
AcDbVertex
100
AcDb2dVertex
 10
49.043437
 20
113.17903
 30
0.0
 42
0.016360933
  0
VERTEX
  5
42B
330
429
100
AcDbEntity
  8
0
  6
Continuous
 62
     7
100
AcDbVertex
100
AcDb2dVertex
 10
49.03901199999999
 20
113.20681
 30
0.0
 42
0.016360933
  0
VERTEX
  5
42C
330
429
100
AcDbEntity
  8
0
  6
Continuous
 62
     7
100
AcDbVertex
100
AcDb2dVertex
 10
49.034131
 20
113.23339
 30
0.0
 42
0.016360933
  0
VERTEX
  5
42D
330
429
100
AcDbEntity
  8
0
  6
Continuous
 62
     7
100
AcDbVertex
100
AcDb2dVertex
 10
49.028815
 20
113.25868
 30
0.0
 42
0.016360933
  0
VERTEX
  5
42E
330
429
100
AcDbEntity
  8
0
  6
Continuous
 62
     7
100
AcDbVertex
100
AcDb2dVertex
 10
49.02308699999999
 20
113.28255
 30
0.0
 42
0.016360933
  0
VERTEX
  5
42F
330
429
100
AcDbEntity
  8
0
  6
Continuous
 62
     7
100
AcDbVertex
100
AcDb2dVertex
 10
49.016972
 20
113.30491
 30
0.0
 42
0.016360933
  0
VERTEX
  5
430
330
429
100
AcDbEntity
  8
0
  6
Continuous
 62
     7
100
AcDbVertex
100
AcDb2dVertex
 10
49.010495
 20
113.32566
 30
0.0
 42
0.016360933
  0
VERTEX
  5
431
330
429
100
AcDbEntity
  8
0
  6
Continuous
 62
     7
100
AcDbVertex
100
AcDb2dVertex
 10
49.00368499999999
 20
113.34471
 30
0.0
 42
0.016360933
  0
VERTEX
  5
432
330
429
100
AcDbEntity
  8
0
  6
Continuous
 62
     7
100
AcDbVertex
100
AcDb2dVertex
 10
48.99657
 20
113.36198
 30
0.0
 42
0.016360933
  0
VERTEX
  5
433
330
429
100
AcDbEntity
  8
0
  6
Continuous
 62
     7
100
AcDbVertex
100
AcDb2dVertex
 10
48.989181
 20
113.3774
 30
0.0
 42
0.016360933
  0
VERTEX
  5
434
330
429
100
AcDbEntity
  8
0
  6
Continuous
 62
     7
100
AcDbVertex
100
AcDb2dVertex
 10
48.98155
 20
113.3909
 30
0.0
 42
0.016360933
  0
VERTEX
  5
435
330
429
100
AcDbEntity
  8
0
  6
Continuous
 62
     7
100
AcDbVertex
100
AcDb2dVertex
 10
48.973709
 20
113.40242
 30
0.0
 42
0.016360933
  0
VERTEX
  5
436
330
429
100
AcDbEntity
  8
0
  6
Continuous
 62
     7
100
AcDbVertex
100
AcDb2dVertex
 10
48.965692
 20
113.41192
 30
0.0
 42
0.016360933
  0
VERTEX
  5
437
330
429
100
AcDbEntity
  8
0
  6
Continuous
 62
     7
100
AcDbVertex
100
AcDb2dVertex
 10
48.957533
 20
113.41934
 30
0.0
 42
0.016360933
  0
VERTEX
  5
438
330
429
100
AcDbEntity
  8
0
  6
Continuous
 62
     7
100
AcDbVertex
100
AcDb2dVertex
 10
48.949267
 20
113.42467
 30
0.0
 42
0.016360933
  0
VERTEX
  5
439
330
429
100
AcDbEntity
  8
0
  6
Continuous
 62
     7
100
AcDbVertex
100
AcDb2dVertex
 10
48.940929
 20
113.42788
 30
0.0
 42
0.016360933
  0
VERTEX
  5
43A
330
429
100
AcDbEntity
  8
0
  6
Continuous
 62
     7
100
AcDbVertex
100
AcDb2dVertex
 10
48.93255599999999
 20
113.42895
 30
0.0
 42
-1.0
  0
SEQEND
  5
43B
330
429
100
AcDbEntity
  8
0
  6
Continuous
 62
     7
  0
POLYLINE
  5
43C
330
36
100
AcDbEntity
  8
0
  6
Continuous
 62
     7
100
AcDb2dPolyline
 66
     1
 10
0.0
 20
0.0
 30
0.0
  0
VERTEX
  5
43D
330
43C
100
AcDbEntity
  8
0
  6
Continuous
 62
     7
100
AcDbVertex
100
AcDb2dVertex
 10
47.741702
 20
94.428947
 30
0.0
 42
0.024548622
  0
VERTEX
  5
43E
330
43C
100
AcDbEntity
  8
0
  6
Continuous
 62
     7
100
AcDbVertex
100
AcDb2dVertex
 10
47.742319
 20
94.379939
 30
0.0
 42
0.024548622
  0
VERTEX
  5
43F
330
43C
100
AcDbEntity
  8
0
  6
Continuous
 62
     7
100
AcDbVertex
100
AcDb2dVertex
 10
47.744163
 20
94.331402
 30
0.0
 42
0.024548622
  0
VERTEX
  5
440
330
43C
100
AcDbEntity
  8
0
  6
Continuous
 62
     7
100
AcDbVertex
100
AcDb2dVertex
 10
47.74721599999999
 20
94.28380500000001
 30
0.0
 42
0.024548622
  0
VERTEX
  5
441
330
43C
100
AcDbEntity
  8
0
  6
Continuous
 62
     7
100
AcDbVertex
100
AcDb2dVertex
 10
47.75144899999999
 20
94.23760599999999
 30
0.0
 42
0.024548622
  0
VERTEX
  5
442
330
43C
100
AcDbEntity
  8
0
  6
Continuous
 62
     7
100
AcDbVertex
100
AcDb2dVertex
 10
47.756822
 20
94.19324899999999
 30
0.0
 42
0.024548622
  0
VERTEX
  5
443
330
43C
100
AcDbEntity
  8
0
  6
Continuous
 62
     7
100
AcDbVertex
100
AcDb2dVertex
 10
47.763282
 20
94.15116199999999
 30
0.0
 42
0.024548622
  0
VERTEX
  5
444
330
43C
100
AcDbEntity
  8
0
  6
Continuous
 62
     7
100
AcDbVertex
100
AcDb2dVertex
 10
47.77076799999999
 20
94.11175099999999
 30
0.0
 42
0.024548622
  0
VERTEX
  5
445
330
43C
100
AcDbEntity
  8
0
  6
Continuous
 62
     7
100
AcDbVertex
100
AcDb2dVertex
 10
47.779207
 20
94.07539399999999
 30
0.0
 42
0.024548622
  0
VERTEX
  5
446
330
43C
100
AcDbEntity
  8
0
  6
Continuous
 62
     7
100
AcDbVertex
100
AcDb2dVertex
 10
47.78851799999999
 20
94.042442
 30
0.0
 42
0.024548622
  0
VERTEX
  5
447
330
43C
100
AcDbEntity
  8
0
  6
Continuous
 62
     7
100
AcDbVertex
100
AcDb2dVertex
 10
47.798611
 20
94.01321300000001
 30
0.0
 42
0.024548622
  0
VERTEX
  5
448
330
43C
100
AcDbEntity
  8
0
  6
Continuous
 62
     7
100
AcDbVertex
100
AcDb2dVertex
 10
47.809389
 20
93.987987
 30
0.0
 42
0.024548622
  0
VERTEX
  5
449
330
43C
100
AcDbEntity
  8
0
  6
Continuous
 62
     7
100
AcDbVertex
100
AcDb2dVertex
 10
47.820749
 20
93.96700799999999
 30
0.0
 42
0.024548622
  0
VERTEX
  5
44A
330
43C
100
AcDbEntity
  8
0
  6
Continuous
 62
     7
100
AcDbVertex
100
AcDb2dVertex
 10
47.83258
 20
93.95047700000001
 30
0.0
 42
0.024548622
  0
VERTEX
  5
44B
330
43C
100
AcDbEntity
  8
0
  6
Continuous
 62
     7
100
AcDbVertex
100
AcDb2dVertex
 10
47.84477
 20
93.938555
 30
0.0
 42
0.024548622
  0
VERTEX
  5
44C
330
43C
100
AcDbEntity
  8
0
  6
Continuous
 62
     7
100
AcDbVertex
100
AcDb2dVertex
 10
47.8572
 20
93.93135500000001
 30
0.0
 42
0.024548622
  0
VERTEX
  5
44D
330
43C
100
AcDbEntity
  8
0
  6
Continuous
 62
     7
100
AcDbVertex
100
AcDb2dVertex
 10
47.869751
 20
93.92894699999999
 30
0.0
 42
-1.0
  0
SEQEND
  5
44E
330
43C
100
AcDbEntity
  8
0
  6
Continuous
 62
     7
  0
POLYLINE
  5
44F
330
36
100
AcDbEntity
  8
0
  6
Continuous
 62
     7
100
AcDb2dPolyline
 66
     1
 10
0.0
 20
0.0
 30
0.0
  0
VERTEX
  5
450
330
44F
100
AcDbEntity
  8
0
  6
Continuous
 62
     7
100
AcDbVertex
100
AcDb2dVertex
 10
9.8215128
 20
94.17886499999999
 30
0.0
 42
0.016360933
  0
VERTEX
  5
451
330
44F
100
AcDbEntity
  8
0
  6
Continuous
 62
     7
100
AcDbVertex
100
AcDb2dVertex
 10
9.8259381
 20
94.151088
 30
0.0
 42
0.016360933
  0
VERTEX
  5
452
330
44F
100
AcDbEntity
  8
0
  6
Continuous
 62
     7
100
AcDbVertex
100
AcDb2dVertex
 10
9.830819099999999
 20
94.12449999999999
 30
0.0
 42
0.016360933
  0
VERTEX
  5
453
330
44F
100
AcDbEntity
  8
0
  6
Continuous
 62
     7
100
AcDbVertex
100
AcDb2dVertex
 10
9.836135
 20
94.099216
 30
0.0
 42
0.016360933
  0
VERTEX
  5
454
330
44F
100
AcDbEntity
  8
0
  6
Continuous
 62
     7
100
AcDbVertex
100
AcDb2dVertex
 10
9.8418629
 20
94.075343
 30
0.0
 42
0.016360933
  0
VERTEX
  5
455
330
44F
100
AcDbEntity
  8
0
  6
Continuous
 62
     7
100
AcDbVertex
100
AcDb2dVertex
 10
9.847978300000001
 20
94.05298399999999
 30
0.0
 42
0.016360933
  0
VERTEX
  5
456
330
44F
100
AcDbEntity
  8
0
  6
Continuous
 62
     7
100
AcDbVertex
100
AcDb2dVertex
 10
9.854454999999999
 20
94.03223399999999
 30
0.0
 42
0.016360933
  0
VERTEX
  5
457
330
44F
100
AcDbEntity
  8
0
  6
Continuous
 62
     7
100
AcDbVertex
100
AcDb2dVertex
 10
9.8612654
 20
94.01318299999999
 30
0.0
 42
0.016360933
  0
VERTEX
  5
458
330
44F
100
AcDbEntity
  8
0
  6
Continuous
 62
     7
100
AcDbVertex
100
AcDb2dVertex
 10
9.868380199999998
 20
93.995911
 30
0.0
 42
0.016360933
  0
VERTEX
  5
459
330
44F
100
AcDbEntity
  8
0
  6
Continuous
 62
     7
100
AcDbVertex
100
AcDb2dVertex
 10
9.875769099999999
 20
93.98049300000002
 30
0.0
 42
0.016360933
  0
VERTEX
  5
45A
330
44F
100
AcDbEntity
  8
0
  6
Continuous
 62
     7
100
AcDbVertex
100
AcDb2dVertex
 10
9.883400399999999
 20
93.96699400000001
 30
0.0
 42
0.016360933
  0
VERTEX
  5
45B
330
44F
100
AcDbEntity
  8
0
  6
Continuous
 62
     7
100
AcDbVertex
100
AcDb2dVertex
 10
9.8912413
 20
93.955473
 30
0.0
 42
0.016360933
  0
VERTEX
  5
45C
330
44F
100
AcDbEntity
  8
0
  6
Continuous
 62
     7
100
AcDbVertex
100
AcDb2dVertex
 10
9.8992585
 20
93.94597799999999
 30
0.0
 42
0.016360933
  0
VERTEX
  5
45D
330
44F
100
AcDbEntity
  8
0
  6
Continuous
 62
     7
100
AcDbVertex
100
AcDb2dVertex
 10
9.907417500000001
 20
93.93855100000001
 30
0.0
 42
0.016360933
  0
VERTEX
  5
45E
330
44F
100
AcDbEntity
  8
0
  6
Continuous
 62
     7
100
AcDbVertex
100
AcDb2dVertex
 10
9.915683300000001
 20
93.93322299999999
 30
0.0
 42
0.016360933
  0
VERTEX
  5
45F
330
44F
100
AcDbEntity
  8
0
  6
Continuous
 62
     7
100
AcDbVertex
100
AcDb2dVertex
 10
9.9240208
 20
93.930018
 30
0.0
 42
0.016360933
  0
VERTEX
  5
460
330
44F
100
AcDbEntity
  8
0
  6
Continuous
 62
     7
100
AcDbVertex
100
AcDb2dVertex
 10
9.932394
 20
93.92894699999999
 30
0.0
 42
-1.0
  0
SEQEND
  5
461
330
44F
100
AcDbEntity
  8
0
  6
Continuous
 62
     7
  0
POLYLINE
  5
462
330
36
100
AcDbEntity
  8
0
  6
Continuous
 62
     7
100
AcDb2dPolyline
 66
     1
 10
0.0
 20
0.0
 30
0.0
  0
VERTEX
  5
463
330
462
100
AcDbEntity
  8
0
  6
Continuous
 62
     7
100
AcDbVertex
100
AcDb2dVertex
 10
47.869751
 20
113.42895
 30
0.0
 42
0.024548622
  0
VERTEX
  5
464
330
462
100
AcDbEntity
  8
0
  6
Continuous
 62
     7
100
AcDbVertex
100
AcDb2dVertex
 10
47.8572
 20
113.42654
 30
0.0
 42
0.024548622
  0
VERTEX
  5
465
330
462
100
AcDbEntity
  8
0
  6
Continuous
 62
     7
100
AcDbVertex
100
AcDb2dVertex
 10
47.84477
 20
113.41934
 30
0.0
 42
0.024548622
  0
VERTEX
  5
466
330
462
100
AcDbEntity
  8
0
  6
Continuous
 62
     7
100
AcDbVertex
100
AcDb2dVertex
 10
47.83258
 20
113.40742
 30
0.0
 42
0.024548622
  0
VERTEX
  5
467
330
462
100
AcDbEntity
  8
0
  6
Continuous
 62
     7
100
AcDbVertex
100
AcDb2dVertex
 10
47.820749
 20
113.3908899999999
 30
0.0
 42
0.024548622
  0
VERTEX
  5
468
330
462
100
AcDbEntity
  8
0
  6
Continuous
 62
     7
100
AcDbVertex
100
AcDb2dVertex
 10
47.809389
 20
113.36991
 30
0.0
 42
0.024548622
  0
VERTEX
  5
469
330
462
100
AcDbEntity
  8
0
  6
Continuous
 62
     7
100
AcDbVertex
100
AcDb2dVertex
 10
47.798611
 20
113.34468
 30
0.0
 42
0.024548622
  0
VERTEX
  5
46A
330
462
100
AcDbEntity
  8
0
  6
Continuous
 62
     7
100
AcDbVertex
100
AcDb2dVertex
 10
47.78851799999999
 20
113.31545
 30
0.0
 42
0.024548622
  0
VERTEX
  5
46B
330
462
100
AcDbEntity
  8
0
  6
Continuous
 62
     7
100
AcDbVertex
100
AcDb2dVertex
 10
47.779207
 20
113.2825
 30
0.0
 42
0.024548622
  0
VERTEX
  5
46C
330
462
100
AcDbEntity
  8
0
  6
Continuous
 62
     7
100
AcDbVertex
100
AcDb2dVertex
 10
47.77076799999999
 20
113.24614
 30
0.0
 42
0.024548622
  0
VERTEX
  5
46D
330
462
100
AcDbEntity
  8
0
  6
Continuous
 62
     7
100
AcDbVertex
100
AcDb2dVertex
 10
47.763282
 20
113.20673
 30
0.0
 42
0.024548622
  0
VERTEX
  5
46E
330
462
100
AcDbEntity
  8
0
  6
Continuous
 62
     7
100
AcDbVertex
100
AcDb2dVertex
 10
47.756822
 20
113.16465
 30
0.0
 42
0.024548622
  0
VERTEX
  5
46F
330
462
100
AcDbEntity
  8
0
  6
Continuous
 62
     7
100
AcDbVertex
100
AcDb2dVertex
 10
47.75144899999999
 20
113.12029
 30
0.0
 42
0.024548622
  0
VERTEX
  5
470
330
462
100
AcDbEntity
  8
0
  6
Continuous
 62
     7
100
AcDbVertex
100
AcDb2dVertex
 10
47.74721599999999
 20
113.07409
 30
0.0
 42
0.024548622
  0
VERTEX
  5
471
330
462
100
AcDbEntity
  8
0
  6
Continuous
 62
     7
100
AcDbVertex
100
AcDb2dVertex
 10
47.744163
 20
113.02649
 30
0.0
 42
0.024548622
  0
VERTEX
  5
472
330
462
100
AcDbEntity
  8
0
  6
Continuous
 62
     7
100
AcDbVertex
100
AcDb2dVertex
 10
47.742319
 20
112.97796
 30
0.0
 42
0.024548622
  0
VERTEX
  5
473
330
462
100
AcDbEntity
  8
0
  6
Continuous
 62
     7
100
AcDbVertex
100
AcDb2dVertex
 10
47.741702
 20
112.92895
 30
0.0
 42
-1.0
  0
SEQEND
  5
474
330
462
100
AcDbEntity
  8
0
  6
Continuous
 62
     7
  0
POLYLINE
  5
475
330
36
100
AcDbEntity
  8
0
  6
Continuous
 62
     7
100
AcDb2dPolyline
 66
     1
 10
0.0
 20
0.0
 30
0.0
  0
VERTEX
  5
476
330
475
100
AcDbEntity
  8
0
  6
Continuous
 62
     7
100
AcDbVertex
100
AcDb2dVertex
 10
9.932394
 20
113.42895
 30
0.0
 42
0.016360933
  0
VERTEX
  5
477
330
475
100
AcDbEntity
  8
0
  6
Continuous
 62
     7
100
AcDbVertex
100
AcDb2dVertex
 10
9.9240208
 20
113.42788
 30
0.0
 42
0.016360933
  0
VERTEX
  5
478
330
475
100
AcDbEntity
  8
0
  6
Continuous
 62
     7
100
AcDbVertex
100
AcDb2dVertex
 10
9.915683300000001
 20
113.42467
 30
0.0
 42
0.016360933
  0
VERTEX
  5
479
330
475
100
AcDbEntity
  8
0
  6
Continuous
 62
     7
100
AcDbVertex
100
AcDb2dVertex
 10
9.907417500000001
 20
113.41934
 30
0.0
 42
0.016360933
  0
VERTEX
  5
47A
330
475
100
AcDbEntity
  8
0
  6
Continuous
 62
     7
100
AcDbVertex
100
AcDb2dVertex
 10
9.8992585
 20
113.41192
 30
0.0
 42
0.016360933
  0
VERTEX
  5
47B
330
475
100
AcDbEntity
  8
0
  6
Continuous
 62
     7
100
AcDbVertex
100
AcDb2dVertex
 10
9.8912413
 20
113.40242
 30
0.0
 42
0.016360933
  0
VERTEX
  5
47C
330
475
100
AcDbEntity
  8
0
  6
Continuous
 62
     7
100
AcDbVertex
100
AcDb2dVertex
 10
9.883400399999999
 20
113.3909
 30
0.0
 42
0.016360933
  0
VERTEX
  5
47D
330
475
100
AcDbEntity
  8
0
  6
Continuous
 62
     7
100
AcDbVertex
100
AcDb2dVertex
 10
9.875769099999999
 20
113.3774
 30
0.0
 42
0.016360933
  0
VERTEX
  5
47E
330
475
100
AcDbEntity
  8
0
  6
Continuous
 62
     7
100
AcDbVertex
100
AcDb2dVertex
 10
9.868380199999998
 20
113.36198
 30
0.0
 42
0.016360933
  0
VERTEX
  5
47F
330
475
100
AcDbEntity
  8
0
  6
Continuous
 62
     7
100
AcDbVertex
100
AcDb2dVertex
 10
9.8612654
 20
113.34471
 30
0.0
 42
0.016360933
  0
VERTEX
  5
480
330
475
100
AcDbEntity
  8
0
  6
Continuous
 62
     7
100
AcDbVertex
100
AcDb2dVertex
 10
9.854454999999999
 20
113.32566
 30
0.0
 42
0.016360933
  0
VERTEX
  5
481
330
475
100
AcDbEntity
  8
0
  6
Continuous
 62
     7
100
AcDbVertex
100
AcDb2dVertex
 10
9.847978300000001
 20
113.30491
 30
0.0
 42
0.016360933
  0
VERTEX
  5
482
330
475
100
AcDbEntity
  8
0
  6
Continuous
 62
     7
100
AcDbVertex
100
AcDb2dVertex
 10
9.8418629
 20
113.28255
 30
0.0
 42
0.016360933
  0
VERTEX
  5
483
330
475
100
AcDbEntity
  8
0
  6
Continuous
 62
     7
100
AcDbVertex
100
AcDb2dVertex
 10
9.836135
 20
113.25868
 30
0.0
 42
0.016360933
  0
VERTEX
  5
484
330
475
100
AcDbEntity
  8
0
  6
Continuous
 62
     7
100
AcDbVertex
100
AcDb2dVertex
 10
9.830819099999999
 20
113.23339
 30
0.0
 42
0.016360933
  0
VERTEX
  5
485
330
475
100
AcDbEntity
  8
0
  6
Continuous
 62
     7
100
AcDbVertex
100
AcDb2dVertex
 10
9.8259381
 20
113.20681
 30
0.0
 42
0.016360933
  0
VERTEX
  5
486
330
475
100
AcDbEntity
  8
0
  6
Continuous
 62
     7
100
AcDbVertex
100
AcDb2dVertex
 10
9.8215128
 20
113.17903
 30
0.0
 42
-1.0
  0
SEQEND
  5
487
330
475
100
AcDbEntity
  8
0
  6
Continuous
 62
     7
  0
POLYLINE
  5
488
330
36
100
AcDbEntity
  8
0
  6
Continuous
 62
     7
100
AcDb2dPolyline
 66
     1
 10
0.0
 20
0.0
 30
0.0
  0
VERTEX
  5
489
330
488
100
AcDbEntity
  8
0
  6
Continuous
 62
     7
100
AcDbVertex
100
AcDb2dVertex
 10
11.123248
 20
112.92895
 30
0.0
 42
0.024548622
  0
VERTEX
  5
48A
330
488
100
AcDbEntity
  8
0
  6
Continuous
 62
     7
100
AcDbVertex
100
AcDb2dVertex
 10
11.122631
 20
112.97796
 30
0.0
 42
0.024548622
  0
VERTEX
  5
48B
330
488
100
AcDbEntity
  8
0
  6
Continuous
 62
     7
100
AcDbVertex
100
AcDb2dVertex
 10
11.120788
 20
113.02649
 30
0.0
 42
0.024548622
  0
VERTEX
  5
48C
330
488
100
AcDbEntity
  8
0
  6
Continuous
 62
     7
100
AcDbVertex
100
AcDb2dVertex
 10
11.117734
 20
113.07409
 30
0.0
 42
0.024548622
  0
VERTEX
  5
48D
330
488
100
AcDbEntity
  8
0
  6
Continuous
 62
     7
100
AcDbVertex
100
AcDb2dVertex
 10
11.113501
 20
113.12029
 30
0.0
 42
0.024548622
  0
VERTEX
  5
48E
330
488
100
AcDbEntity
  8
0
  6
Continuous
 62
     7
100
AcDbVertex
100
AcDb2dVertex
 10
11.108128
 20
113.16465
 30
0.0
 42
0.024548622
  0
VERTEX
  5
48F
330
488
100
AcDbEntity
  8
0
  6
Continuous
 62
     7
100
AcDbVertex
100
AcDb2dVertex
 10
11.101668
 20
113.20673
 30
0.0
 42
0.024548622
  0
VERTEX
  5
490
330
488
100
AcDbEntity
  8
0
  6
Continuous
 62
     7
100
AcDbVertex
100
AcDb2dVertex
 10
11.094182
 20
113.24614
 30
0.0
 42
0.024548622
  0
VERTEX
  5
491
330
488
100
AcDbEntity
  8
0
  6
Continuous
 62
     7
100
AcDbVertex
100
AcDb2dVertex
 10
11.085743
 20
113.2825
 30
0.0
 42
0.024548622
  0
VERTEX
  5
492
330
488
100
AcDbEntity
  8
0
  6
Continuous
 62
     7
100
AcDbVertex
100
AcDb2dVertex
 10
11.076432
 20
113.31545
 30
0.0
 42
0.024548622
  0
VERTEX
  5
493
330
488
100
AcDbEntity
  8
0
  6
Continuous
 62
     7
100
AcDbVertex
100
AcDb2dVertex
 10
11.066339
 20
113.34468
 30
0.0
 42
0.024548622
  0
VERTEX
  5
494
330
488
100
AcDbEntity
  8
0
  6
Continuous
 62
     7
100
AcDbVertex
100
AcDb2dVertex
 10
11.055561
 20
113.36991
 30
0.0
 42
0.024548622
  0
VERTEX
  5
495
330
488
100
AcDbEntity
  8
0
  6
Continuous
 62
     7
100
AcDbVertex
100
AcDb2dVertex
 10
11.044201
 20
113.3908899999999
 30
0.0
 42
0.024548622
  0
VERTEX
  5
496
330
488
100
AcDbEntity
  8
0
  6
Continuous
 62
     7
100
AcDbVertex
100
AcDb2dVertex
 10
11.03237
 20
113.40742
 30
0.0
 42
0.024548622
  0
VERTEX
  5
497
330
488
100
AcDbEntity
  8
0
  6
Continuous
 62
     7
100
AcDbVertex
100
AcDb2dVertex
 10
11.02018
 20
113.41934
 30
0.0
 42
0.024548622
  0
VERTEX
  5
498
330
488
100
AcDbEntity
  8
0
  6
Continuous
 62
     7
100
AcDbVertex
100
AcDb2dVertex
 10
11.00775
 20
113.42654
 30
0.0
 42
0.024548622
  0
VERTEX
  5
499
330
488
100
AcDbEntity
  8
0
  6
Continuous
 62
     7
100
AcDbVertex
100
AcDb2dVertex
 10
10.995199
 20
113.42895
 30
0.0
 42
-1.0
  0
SEQEND
  5
49A
330
488
100
AcDbEntity
  8
0
  6
Continuous
 62
     7
  0
POLYLINE
  5
49B
330
36
100
AcDbEntity
  8
0
  6
Continuous
 62
     7
100
AcDb2dPolyline
 66
     1
 10
0.0
 20
0.0
 30
0.0
  0
VERTEX
  5
49C
330
49B
100
AcDbEntity
  8
0
  6
Continuous
 62
     7
100
AcDbVertex
100
AcDb2dVertex
 10
10.995199
 20
93.92894699999999
 30
0.0
 42
0.024548622
  0
VERTEX
  5
49D
330
49B
100
AcDbEntity
  8
0
  6
Continuous
 62
     7
100
AcDbVertex
100
AcDb2dVertex
 10
11.00775
 20
93.93135500000001
 30
0.0
 42
0.024548622
  0
VERTEX
  5
49E
330
49B
100
AcDbEntity
  8
0
  6
Continuous
 62
     7
100
AcDbVertex
100
AcDb2dVertex
 10
11.02018
 20
93.938555
 30
0.0
 42
0.024548622
  0
VERTEX
  5
49F
330
49B
100
AcDbEntity
  8
0
  6
Continuous
 62
     7
100
AcDbVertex
100
AcDb2dVertex
 10
11.03237
 20
93.95047700000001
 30
0.0
 42
0.024548622
  0
VERTEX
  5
4A0
330
49B
100
AcDbEntity
  8
0
  6
Continuous
 62
     7
100
AcDbVertex
100
AcDb2dVertex
 10
11.044201
 20
93.96700799999999
 30
0.0
 42
0.024548622
  0
VERTEX
  5
4A1
330
49B
100
AcDbEntity
  8
0
  6
Continuous
 62
     7
100
AcDbVertex
100
AcDb2dVertex
 10
11.055561
 20
93.987987
 30
0.0
 42
0.024548622
  0
VERTEX
  5
4A2
330
49B
100
AcDbEntity
  8
0
  6
Continuous
 62
     7
100
AcDbVertex
100
AcDb2dVertex
 10
11.066339
 20
94.01321300000001
 30
0.0
 42
0.024548622
  0
VERTEX
  5
4A3
330
49B
100
AcDbEntity
  8
0
  6
Continuous
 62
     7
100
AcDbVertex
100
AcDb2dVertex
 10
11.076432
 20
94.042442
 30
0.0
 42
0.024548622
  0
VERTEX
  5
4A4
330
49B
100
AcDbEntity
  8
0
  6
Continuous
 62
     7
100
AcDbVertex
100
AcDb2dVertex
 10
11.085743
 20
94.07539399999999
 30
0.0
 42
0.024548622
  0
VERTEX
  5
4A5
330
49B
100
AcDbEntity
  8
0
  6
Continuous
 62
     7
100
AcDbVertex
100
AcDb2dVertex
 10
11.094182
 20
94.11175099999999
 30
0.0
 42
0.024548622
  0
VERTEX
  5
4A6
330
49B
100
AcDbEntity
  8
0
  6
Continuous
 62
     7
100
AcDbVertex
100
AcDb2dVertex
 10
11.101668
 20
94.15116199999999
 30
0.0
 42
0.024548622
  0
VERTEX
  5
4A7
330
49B
100
AcDbEntity
  8
0
  6
Continuous
 62
     7
100
AcDbVertex
100
AcDb2dVertex
 10
11.108128
 20
94.19324899999999
 30
0.0
 42
0.024548622
  0
VERTEX
  5
4A8
330
49B
100
AcDbEntity
  8
0
  6
Continuous
 62
     7
100
AcDbVertex
100
AcDb2dVertex
 10
11.113501
 20
94.23760599999999
 30
0.0
 42
0.024548622
  0
VERTEX
  5
4A9
330
49B
100
AcDbEntity
  8
0
  6
Continuous
 62
     7
100
AcDbVertex
100
AcDb2dVertex
 10
11.117734
 20
94.28380500000001
 30
0.0
 42
0.024548622
  0
VERTEX
  5
4AA
330
49B
100
AcDbEntity
  8
0
  6
Continuous
 62
     7
100
AcDbVertex
100
AcDb2dVertex
 10
11.120788
 20
94.331402
 30
0.0
 42
0.024548622
  0
VERTEX
  5
4AB
330
49B
100
AcDbEntity
  8
0
  6
Continuous
 62
     7
100
AcDbVertex
100
AcDb2dVertex
 10
11.122631
 20
94.379939
 30
0.0
 42
0.024548622
  0
VERTEX
  5
4AC
330
49B
100
AcDbEntity
  8
0
  6
Continuous
 62
     7
100
AcDbVertex
100
AcDb2dVertex
 10
11.123248
 20
94.428947
 30
0.0
 42
-1.0
  0
SEQEND
  5
4AD
330
49B
100
AcDbEntity
  8
0
  6
Continuous
 62
     7
  0
TEXT
  5
4AE
330
36
100
AcDbEntity
  8
0
  6
Continuous
 62
     7
100
AcDbText
 10
-205.343
 20
167.4
 30
0.0
 40
3.2
  1
品　名
 41
0.85537027
100
AcDbText
  0
TEXT
  5
4AF
330
36
100
AcDbEntity
  8
0
  6
Continuous
 62
     7
100
AcDbText
 10
-205.343
 20
159.4
 30
0.0
 40
3.2
  1
品　番
 41
0.85537027
100
AcDbText
  0
TEXT
  5
4B0
330
36
100
AcDbEntity
  8
0
  6
Continuous
 62
     7
100
AcDbText
 10
-205.343
 20
151.4
 30
0.0
 40
3.2
  1
材　質
 41
0.85537027
100
AcDbText
  0
TEXT
  5
4B1
330
36
100
AcDbEntity
  8
0
  6
Continuous
 62
     7
100
AcDbText
 10
-205.343
 20
135.4
 30
0.0
 40
3.2
  1
仕上げ
 41
0.85537027
100
AcDbText
  0
TEXT
  5
4B2
330
36
100
AcDbEntity
  8
0
  6
Continuous
 62
     7
100
AcDbText
 10
-208.543
 20
111.4
 30
0.0
 40
3.2
  1
セットビス
 41
0.84892707
100
AcDbText
  0
TEXT
  5
4B3
330
36
100
AcDbEntity
  8
0
  6
Continuous
 62
     7
100
AcDbText
 10
-203.743
 20
95.4
 30
0.0
 40
3.2
  1
備考
 41
0.8643907499999999
100
AcDbText
  0
TEXT
  5
4B4
330
36
100
AcDbEntity
  8
0
  6
Continuous
 62
     7
100
AcDbText
 10
-206.943
 20
119.4
 30
0.0
 40
3.2
  1
左右勝手
 41
0.8512700499999999
100
AcDbText
  0
TEXT
  5
4B5
330
36
100
AcDbEntity
  8
0
  6
Continuous
 62
     7
100
AcDbText
 10
-188.143
 20
167.4
 30
0.0
 40
3.2
  1
窓用調整器
 41
0.84892707
100
AcDbText
  0
TEXT
  5
4B6
330
36
100
AcDbEntity
  8
0
  6
Continuous
 62
     7
100
AcDbText
 10
-188.143
 20
159.4
 30
0.0
 40
3.2
  1
ＯＳ－２４０
 41
0.84741102
100
AcDbText
  0
TEXT
  5
4B7
330
36
100
AcDbEntity
  8
0
  6
Continuous
 62
     7
100
AcDbText
 10
-188.37855
 20
119.36617
 30
0.0
 40
3.2
  1
無し
 41
0.8643907499999999
100
AcDbText
  0
TEXT
  5
4B8
330
36
100
AcDbEntity
  8
0
  6
Continuous
 62
     7
100
AcDbText
 10
-188.10307
 20
151.4
 30
0.0
 40
3.2
  1
ストッパーケース：亜鉛ダイキャスト
 41
0.81330015
100
AcDbText
  0
TEXT
  5
4B9
330
36
100
AcDbEntity
  8
0
  6
Continuous
 62
     7
100
AcDbText
 10
-188.10307
 20
135.4
 30
0.0
 40
3.2
  1
ストッパーケース：サーチライトニッケルクロム
 41
0.81276443
100
AcDbText
  0
TEXT
  5
4BA
330
36
100
AcDbEntity
  8
0
  6
Continuous
 62
     7
100
AcDbText
 10
-188.10307
 20
127.4
 30
0.0
 40
3.2
  1
アーム：ヘアーライン／ブラケット：バレル研磨
 41
0.81254725
100
AcDbText
  0
TEXT
  5
4BB
330
36
100
AcDbEntity
  8
0
  6
Continuous
 62
     7
100
AcDbText
 10
-188.03105
 20
95.4
 30
0.0
 40
3.2
  1
※付属部品：裏板１枚付
 41
0.76142313
100
AcDbText
  0
TEXT
  5
4BC
330
36
100
AcDbEntity
  8
0
  6
Continuous
 62
     7
100
AcDbText
 10
-188.143
 20
111.4
 30
0.0
 40
3.2
  1
Ｍ４×１０ナベ小ネジ　＋　ＳＵＳ４本付
 41
0.84248387
100
AcDbText
  0
TEXT
  5
4BD
330
36
100
AcDbEntity
  8
0
  6
Continuous
 62
     7
100
AcDbText
 10
-188.03105
 20
87.4
 30
0.0
 40
3.2
  1
（ブロンズ色の対応も可能です。別途お問合せ下さい。）
 41
0.7594417100000001
100
AcDbText
  0
TEXT
  5
4BE
330
36
100
AcDbEntity
  8
0
  6
Continuous
 62
     7
100
AcDbText
 10
-102.22785
 20
-71.393091
 30
0.0
 40
3.2
  1
※標準（Ａ）＝３０
 41
0.84496202
100
AcDbText
  0
TEXT
  5
4BF
330
36
100
AcDbEntity
  8
0
  6
Continuous
 62
     7
100
AcDbText
 10
-188.10307
 20
143.4
 30
0.0
 40
3.2
  1
アームステンレス・ブラケット：ステンレス
 41
0.8129460299999999
100
AcDbText
  0
TEXT
  5
4C0
330
36
100
AcDbEntity
  8
0
  6
Continuous
 62
     7
100
AcDbText
 10
-188.03105
 20
79.40000000000001
 30
0.0
 40
3.2
  1
受注生産
 41
0.76789575
100
AcDbText
  0
DIMENSION
  5
4C1
330
36
100
AcDbEntity
  8
0
  6
Continuous
 62
     7
100
AcDbDimension
  2
*D2
 10
-51.76747899999999
 20
74.67894699999999
 30
0.0
 11
-47.76747899999999
 21
74.67894699999999
 31
0.0
 71
     5
 42
-1.0
  3
DIMSTYLE
100
AcDbAlignedDimension
 13
-43.76747899999999
 23
92.178947
 33
0.0
 14
-51.76747899999999
 24
94.17894699999999
 34
0.0
100
AcDbRotatedDimension
1001
ACAD
1000
DSTYLE
1002
{
1070
    77
1070
     1
1070
   172
1070
     1
1002
}
  0
DIMENSION
  5
4C2
330
36
100
AcDbEntity
  8
0
  6
Continuous
 62
     7
100
AcDbDimension
  2
*D3
 10
-53.767479
 20
64.67894699999999
 30
0.0
 11
-52.767479
 21
64.67894699999999
 31
0.0
 71
     5
 42
-1.0
  3
DIMSTYLE
100
AcDbAlignedDimension
 13
-51.76747899999999
 23
94.17894699999999
 33
0.0
 14
-53.767479
 24
95.17894699999999
 34
0.0
100
AcDbRotatedDimension
1001
ACAD
1000
DSTYLE
1002
{
1070
    77
1070
     1
1070
   172
1070
     1
1002
}
  0
DIMENSION
  5
4C3
330
36
100
AcDbEntity
  8
0
  6
Continuous
 62
     7
100
AcDbDimension
  2
*D4
 10
152.43246
 20
64.67894699999999
 30
0.0
 11
50.33249699999999
 21
64.67894699999999
 31
0.0
 71
     5
 42
-1.0
  3
DIMSTYLE
100
AcDbAlignedDimension
 13
-51.76747899999999
 23
94.17894699999999
 33
0.0
 14
152.43246
 24
94.17894699999999
 34
0.0
100
AcDbRotatedDimension
1001
ACAD
1000
DSTYLE
1002
{
1070
    77
1070
     1
1070
   172
1070
     1
1070
    75
1070
     1
1002
}
  0
DIMENSION
  5
4C4
330
36
100
AcDbEntity
  8
0
  6
Continuous
 62
     7
100
AcDbDimension
  2
*D5
 10
154.43246
 20
64.67894699999999
 30
0.0
 11
153.43246
 21
64.67894699999999
 31
0.0
 71
     5
 42
-1.0
  3
DIMSTYLE
100
AcDbAlignedDimension
 13
152.43246
 23
94.17894699999999
 33
0.0
 14
154.43246
 24
95.678947
 34
0.0
100
AcDbRotatedDimension
1001
ACAD
1000
DSTYLE
1002
{
1070
    77
1070
     1
1070
   172
1070
     1
1070
    75
1070
     1
1002
}
  0
DIMENSION
  5
4C5
330
36
100
AcDbEntity
  8
0
  6
Continuous
 62
     7
100
AcDbDimension
  2
*D6
 10
144.43246
 20
74.67894699999999
 30
0.0
 11
148.43246
 21
74.67894699999999
 31
0.0
 71
     5
 42
-1.0
  3
DIMSTYLE
100
AcDbAlignedDimension
 13
152.43246
 23
94.17894699999999
 33
0.0
 14
144.43246
 24
93.67894699999999
 34
0.0
100
AcDbRotatedDimension
1001
ACAD
1000
DSTYLE
1002
{
1070
    77
1070
     1
1070
   172
1070
     1
1002
}
  0
DIMENSION
  5
4C6
330
36
100
AcDbEntity
  8
0
  6
Continuous
 62
     7
100
AcDbDimension
  2
*D7
 10
69.432472
 20
117.67895
 30
0.0
 11
69.432472
 21
123.75344
 31
0.0
 71
     5
 42
-1.0
  3
DIMSTYLE
100
AcDbAlignedDimension
 13
47.682472
 23
89.678947
 33
0.0
 14
47.682472
 24
117.67895
 34
0.0
 50
90.0
100
AcDbRotatedDimension
1001
ACAD
1000
DSTYLE
1002
{
1070
    77
1070
     1
1070
   172
1070
     1
1002
}
  0
DIMENSION
  5
4C7
330
36
100
AcDbEntity
  8
0
  6
Continuous
 62
     7
100
AcDbDimension
  2
*D8
 10
-4.9301572
 20
113.17893
 30
0.0
 11
-4.9301572
 21
120.40274
 31
0.0
 71
     5
 42
-1.0
  3
DIMSTYLE
100
AcDbAlignedDimension
 13
13.240455
 23
94.17893199999999
 33
0.0
 14
13.240455
 24
113.17893
 34
0.0
 50
90.0
100
AcDbRotatedDimension
1001
ACAD
1000
DSTYLE
1002
{
1070
    77
1070
     1
1070
   172
1070
     1
1070
    75
1070
     1
1070
    76
1070
     1
1002
}
  0
DIMENSION
  5
4C8
330
36
100
AcDbEntity
  8
0
  6
Continuous
 62
     7
100
AcDbDimension
  2
*D9
 10
13.432471
 20
-28.321053
 30
0.0
 11
8.932471299999999
 21
-28.321053
 31
0.0
 71
     5
 42
-1.0
  3
DIMSTYLE
100
AcDbAlignedDimension
 13
4.432471299999999
 23
-13.321053
 33
0.0
 14
13.432471
 24
-13.821053
 34
0.0
100
AcDbRotatedDimension
1001
ACAD
1000
DSTYLE
1002
{
1070
    77
1070
     1
1070
   172
1070
     1
1002
}
  0
DIMENSION
  5
4C9
330
36
100
AcDbEntity
  8
0
  6
Continuous
 62
     7
100
AcDbDimension
  2
*D10
 10
13.432471
 20
-28.321053
 30
0.0
 11
29.432472
 21
-28.321053
 31
0.0
 71
     5
 42
-1.0
  3
DIMSTYLE
100
AcDbAlignedDimension
 13
45.43247199999999
 23
-13.821053
 33
0.0
 14
13.432471
 24
-13.821053
 34
0.0
100
AcDbRotatedDimension
1001
ACAD
1000
DSTYLE
1002
{
1070
    77
1070
     1
1070
   172
1070
     1
1070
    76
1070
     1
1002
}
  0
DIMENSION
  5
4CA
330
36
100
AcDbEntity
  8
0
  6
Continuous
 62
     7
100
AcDbDimension
  2
*D11
 10
54.432472
 20
-28.321053
 30
0.0
 11
49.93247199999999
 21
-28.321053
 31
0.0
 71
     5
 42
-1.0
  3
DIMSTYLE
100
AcDbAlignedDimension
 13
45.43247199999999
 23
-13.821053
 33
0.0
 14
54.432472
 24
-13.321053
 34
0.0
100
AcDbRotatedDimension
1001
ACAD
1000
DSTYLE
1002
{
1070
    77
1070
     1
1070
   172
1070
     1
1070
    75
1070
     1
1002
}
  0
DIMENSION
  5
4CB
330
36
100
AcDbEntity
  8
0
  6
Continuous
 62
     7
100
AcDbDimension
  2
*D12
 10
4.432471299999999
 20
-38.32105300000001
 30
0.0
 11
29.432472
 21
-38.32105300000001
 31
0.0
 71
     5
 42
-1.0
  3
DIMSTYLE
100
AcDbAlignedDimension
 13
54.432472
 23
-13.321053
 33
0.0
 14
4.432471299999999
 24
-13.321053
 34
0.0
100
AcDbRotatedDimension
1001
ACAD
1000
DSTYLE
1002
{
1070
    77
1070
     1
1070
   172
1070
     1
1002
}
  0
DIMENSION
  5
4CC
330
36
100
AcDbEntity
  8
0
  6
Continuous
 62
     7
100
AcDbDimension
  2
*D13
 10
-27.767481
 20
-28.321053
 30
0.0
 11
-23.267481
 21
-28.321053
 31
0.0
 71
     5
 42
-1.0
  3
DIMSTYLE
100
AcDbAlignedDimension
 13
-18.767481
 23
2.678948399999999
 33
0.0
 14
-27.767481
 24
2.178948399999999
 34
0.0
100
AcDbRotatedDimension
1001
ACAD
1000
DSTYLE
1002
{
1070
    77
1070
     1
1070
   172
1070
     1
1002
}
  0
DIMENSION
  5
4CD
330
36
100
AcDbEntity
  8
0
  6
Continuous
 62
     7
100
AcDbDimension
  2
*D14
 10
-59.767479
 20
-28.321053
 30
0.0
 11
-43.76747899999999
 21
-28.321053
 31
0.0
 71
     5
 42
-1.0
  3
DIMSTYLE
100
AcDbAlignedDimension
 13
-27.767481
 23
2.178948399999999
 33
0.0
 14
-59.767479
 24
2.178948399999999
 34
0.0
100
AcDbRotatedDimension
1001
ACAD
1000
DSTYLE
1002
{
1070
    77
1070
     1
1070
   172
1070
     1
1070
    75
1070
     1
1002
}
  0
DIMENSION
  5
4CE
330
36
100
AcDbEntity
  8
0
  6
Continuous
 62
     7
100
AcDbDimension
  2
*D15
 10
-68.76747900000001
 20
-28.321053
 30
0.0
 11
-64.26747900000001
 21
-28.321053
 31
0.0
 71
     5
 42
-1.0
  3
DIMSTYLE
100
AcDbAlignedDimension
 13
-59.767479
 23
2.178948399999999
 33
0.0
 14
-68.76747900000001
 24
2.678948399999999
 34
0.0
100
AcDbRotatedDimension
1001
ACAD
1000
DSTYLE
1002
{
1070
    77
1070
     1
1070
   172
1070
     1
1070
    75
1070
     1
1002
}
  0
DIMENSION
  5
4CF
330
36
100
AcDbEntity
  8
0
  6
Continuous
 62
     7
100
AcDbDimension
  2
*D16
 10
-18.767481
 20
-38.32105300000001
 30
0.0
 11
-43.76747899999999
 21
-38.32105300000001
 31
0.0
 71
     5
 42
-1.0
  3
DIMSTYLE
100
AcDbAlignedDimension
 13
-68.76747900000001
 23
2.678948399999999
 33
0.0
 14
-18.767481
 24
2.678948399999999
 34
0.0
100
AcDbRotatedDimension
1001
ACAD
1000
DSTYLE
1002
{
1070
    77
1070
     1
1070
   172
1070
     1
1002
}
  0
DIMENSION
  5
4D0
330
36
100
AcDbEntity
  8
0
  6
Continuous
 62
     7
100
AcDbDimension
  2
*D17
 10
-78.76747900000001
 20
2.678948399999999
 30
0.0
 11
-78.76747900000001
 21
4.6789484
 31
0.0
 71
     5
 42
-1.0
  3
DIMSTYLE
100
AcDbAlignedDimension
 13
-64.789574
 23
6.678948399999999
 33
0.0
 14
-68.76747900000001
 24
2.678948399999999
 34
0.0
 50
90.0
100
AcDbRotatedDimension
1001
ACAD
1000
DSTYLE
1002
{
1070
    77
1070
     1
1070
   172
1070
     1
1002
}
  0
DIMENSION
  5
4D1
330
36
100
AcDbEntity
  8
0
  6
Continuous
 62
     7
100
AcDbDimension
  2
*D18
 10
-78.76747900000001
 20
10.678948
 30
0.0
 11
-78.76747900000001
 21
8.678948399999999
 31
0.0
 71
     5
 42
-1.0
  3
DIMSTYLE
100
AcDbAlignedDimension
 13
-64.789574
 23
6.678948399999999
 33
0.0
 14
-64.789574
 24
10.678948
 34
0.0
 50
90.0
100
AcDbRotatedDimension
1001
ACAD
1000
DSTYLE
1002
{
1070
    77
1070
     1
1070
   172
1070
     1
1070
    75
1070
     1
1002
}
  0
DIMENSION
  5
4D2
330
36
100
AcDbEntity
  8
0
  6
Continuous
 62
     7
100
AcDbDimension
  2
*D19
 10
-78.76747900000001
 20
17.678949
 30
0.0
 11
-78.76747900000001
 21
23.708288
 31
0.0
 71
     5
 42
-1.0
  3
DIMSTYLE
100
AcDbAlignedDimension
 13
-68.76747900000001
 23
15.178948
 33
0.0
 14
-68.76747900000001
 24
17.678949
 34
0.0
 50
90.0
100
AcDbRotatedDimension
1001
ACAD
1000
DSTYLE
1002
{
1070
    77
1070
     1
1070
   172
1070
     1
1002
}
  0
DIMENSION
  5
4D3
330
36
100
AcDbEntity
  8
0
  6
Continuous
 62
     7
100
AcDbDimension
  2
*D20
 10
-88.76747900000001
 20
18.678949
 30
0.0
 11
-88.76747900000001
 21
18.178949
 31
0.0
 71
     5
 42
-1.0
  3
DIMSTYLE
100
AcDbAlignedDimension
 13
-68.76747900000001
 23
17.678949
 33
0.0
 14
-52.767601
 24
18.678949
 34
0.0
 50
90.0
100
AcDbRotatedDimension
1001
ACAD
1000
DSTYLE
1002
{
1070
    77
1070
     1
1070
   172
1070
     1
1002
}
  0
DIMENSION
  5
4D4
330
36
100
AcDbEntity
  8
0
  6
Continuous
 62
     7
100
AcDbDimension
  2
*D21
 10
-88.76747900000001
 20
17.678949
 30
0.0
 11
-88.76747900000001
 21
10.178949
 31
0.0
 71
     5
 42
-1.0
  3
DIMSTYLE
100
AcDbAlignedDimension
 13
-68.76747900000001
 23
2.678948399999999
 33
0.0
 14
-68.76747900000001
 24
17.678949
 34
0.0
 50
90.0
100
AcDbRotatedDimension
1001
ACAD
1000
DSTYLE
1002
{
1070
    77
1070
     1
1070
   172
1070
     1
1070
    76
1070
     1
1002
}
  0
DIMENSION
  5
4D5
330
36
100
AcDbEntity
  8
0
  6
Continuous
 62
     7
100
AcDbDimension
  2
*D22
 10
-88.76747900000001
 20
-13.321053
 30
0.0
 11
-88.76747900000001
 21
-5.321052099999999
 31
0.0
 71
     5
 42
-1.0
  3
DIMSTYLE
100
AcDbAlignedDimension
 13
-68.76747900000001
 23
2.678948399999999
 33
0.0
 14
4.432471299999999
 24
-13.321053
 34
0.0
 50
90.0
100
AcDbRotatedDimension
1001
ACAD
1000
DSTYLE
1002
{
1070
    77
1070
     1
1070
   172
1070
     1
1002
}
  0
INSERT
  5
4D6
330
36
100
AcDbEntity
  8
0
  6
Continuous
 62
     7
100
AcDbBlockReference
  2
KOZU0001
 10
-59.767479
 20
8.816730499999998
 30
0.0
  0
DIMENSION
  5
4D7
330
36
100
AcDbEntity
  8
0
  6
Continuous
 62
     7
100
AcDbDimension
  2
*D23
 10
69.432472
 20
-9.3210516
 30
0.0
 11
69.432472
 21
-11.321053
 31
0.0
 71
     5
 42
-1.0
  3
DIMSTYLE
100
AcDbAlignedDimension
 13
54.432472
 23
-13.321053
 33
0.0
 14
50.454445
 24
-9.3210516
 34
0.0
 50
90.0
100
AcDbRotatedDimension
1001
ACAD
1000
DSTYLE
1002
{
1070
    77
1070
     1
1070
   172
1070
     1
1002
}
  0
DIMENSION
  5
4D8
330
36
100
AcDbEntity
  8
0
  6
Continuous
 62
     7
100
AcDbDimension
  2
*D24
 10
69.432472
 20
-5.3210511
 30
0.0
 11
69.432472
 21
-7.3210516
 31
0.0
 71
     5
 42
-1.0
  3
DIMSTYLE
100
AcDbAlignedDimension
 13
50.454445
 23
-9.3210516
 33
0.0
 14
50.454445
 24
-5.3210511
 34
0.0
 50
90.0
100
AcDbRotatedDimension
1001
ACAD
1000
DSTYLE
1002
{
1070
    77
1070
     1
1070
   172
1070
     1
1070
    75
1070
     1
1002
}
  0
DIMENSION
  5
4D9
330
36
100
AcDbEntity
  8
0
  6
Continuous
 62
     7
100
AcDbDimension
  2
*D25
 10
69.432472
 20
1.6789484
 30
0.0
 11
69.432472
 21
8.4001379
 31
0.0
 71
     5
 42
-1.0
  3
DIMSTYLE
100
AcDbAlignedDimension
 13
54.432472
 23
-0.8210517799999999
 33
0.0
 14
54.432472
 24
1.6789484
 34
0.0
 50
90.0
100
AcDbRotatedDimension
1001
ACAD
1000
DSTYLE
1002
{
1070
    77
1070
     1
1070
   172
1070
     1
1002
}
  0
DIMENSION
  5
4DA
330
36
100
AcDbEntity
  8
0
  6
Continuous
 62
     7
100
AcDbDimension
  2
*D26
 10
79.432472
 20
-13.321053
 30
0.0
 11
79.432472
 21
-5.821052099999999
 31
0.0
 71
     5
 42
-1.0
  3
DIMSTYLE
100
AcDbAlignedDimension
 13
54.432472
 23
1.6789484
 33
0.0
 14
54.432472
 24
-13.321053
 34
0.0
 50
90.0
100
AcDbRotatedDimension
1001
ACAD
1000
DSTYLE
1002
{
1070
    77
1070
     1
1070
   172
1070
     1
1002
}
  0
DIMENSION
  5
4DB
330
36
100
AcDbEntity
  8
0
  6
Continuous
 62
     7
100
AcDbDimension
  2
*D27
 10
79.432472
 20
8.678948399999999
 30
0.0
 11
79.432472
 21
5.1789484
 31
0.0
 71
     5
 42
-1.0
  3
DIMSTYLE
100
AcDbAlignedDimension
 13
54.432472
 23
1.6789484
 33
0.0
 14
68.925499
 24
8.678948399999999
 34
0.0
 50
90.0
100
AcDbRotatedDimension
1001
ACAD
1000
DSTYLE
1002
{
1070
    77
1070
     1
1070
   172
1070
     1
1002
}
  0
DIMENSION
  5
4DC
330
36
100
AcDbEntity
  8
0
  6
Continuous
 62
     7
100
AcDbDimension
  2
*D28
 10
79.432472
 20
18.678949
 30
0.0
 11
79.432472
 21
13.678949
 31
0.0
 71
     5
 42
-1.0
  3
DIMSTYLE
100
AcDbAlignedDimension
 13
47.93247199999999
 23
8.678948399999999
 33
0.0
 14
46.73349799999999
 24
18.678949
 34
0.0
 50
90.0
100
AcDbRotatedDimension
1001
ACAD
1000
DSTYLE
1002
{
1070
    77
1070
     1
1070
   172
1070
     1
1070
    75
1070
     1
1070
    76
1070
     1
1002
}
  0
DIMENSION
  5
4DD
330
36
100
AcDbEntity
  8
0
  6
Continuous
 62
     7
100
AcDbDimension
  2
*D29
 10
79.432472
 20
28.678947
 30
0.0
 11
79.432472
 21
23.678947
 31
0.0
 71
     5
 42
-1.0
  3
DIMSTYLE
100
AcDbAlignedDimension
 13
46.73349799999999
 23
18.678949
 33
0.0
 14
45.5355
 24
28.678947
 34
0.0
 50
90.0
100
AcDbRotatedDimension
1001
ACAD
1000
DSTYLE
1002
{
1070
    77
1070
     1
1070
   172
1070
     1
1070
    75
1070
     1
1070
    76
1070
     1
1002
}
  0
DIMENSION
  5
4DE
330
36
100
AcDbEntity
  8
0
  6
Continuous
 62
     7
100
AcDbDimension
  2
*D30
 10
79.432472
 20
37.878948
 30
0.0
 11
79.432472
 21
33.278946
 31
0.0
 71
     5
 42
-1.0
  3
DIMSTYLE
100
AcDbAlignedDimension
 13
45.5355
 23
28.678947
 33
0.0
 14
42.65744799999999
 24
37.878948
 34
0.0
 50
90.0
100
AcDbRotatedDimension
1001
ACAD
1000
DSTYLE
1002
{
1070
    77
1070
     1
1070
   172
1070
     1
1070
    75
1070
     1
1002
}
  0
DIMENSION
  5
4DF
330
36
100
AcDbEntity
  8
0
  6
Continuous
 62
     7
100
AcDbDimension
  2
*D31
 10
79.432472
 20
43.878948
 30
0.0
 11
79.432472
 21
40.87894799999999
 31
0.0
 71
     5
 42
-1.0
  3
DIMSTYLE
100
AcDbAlignedDimension
 13
42.65744799999999
 23
37.878948
 33
0.0
 14
35.632423
 24
43.878948
 34
0.0
 50
90.0
100
AcDbRotatedDimension
1001
ACAD
1000
DSTYLE
1002
{
1070
    77
1070
     1
1070
   172
1070
     1
1070
    75
1070
     1
1002
}
  0
DIMENSION
  5
4E0
330
36
100
AcDbEntity
  8
0
  6
Continuous
 62
     7
100
AcDbDimension
  2
*D32
 10
152.43246
 20
-0.30099794
 30
0.0
 11
148.43246
 21
-0.30099794
 31
0.0
 71
     5
 42
-1.0
  3
DIMSTYLE
100
AcDbAlignedDimension
 13
144.43246
 23
12.61995
 33
0.0
 14
152.43246
 24
18.678949
 34
0.0
100
AcDbRotatedDimension
1001
ACAD
1000
DSTYLE
1002
{
1070
    77
1070
     1
1070
   172
1070
     1
1002
}
  0
DIMENSION
  5
4E1
330
36
100
AcDbEntity
  8
0
  6
Continuous
 62
     7
100
AcDbDimension
  2
*D33
 10
119.43247
 20
-0.30099794
 30
0.0
 11
131.93246
 21
-0.30099794
 31
0.0
 71
     5
 42
-1.0
  3
DIMSTYLE
100
AcDbAlignedDimension
 13
144.43246
 23
12.61995
 33
0.0
 14
119.43247
 24
12.61995
 34
0.0
100
AcDbRotatedDimension
1001
ACAD
1000
DSTYLE
1002
{
1070
    77
1070
     1
1070
   172
1070
     1
1070
    75
1070
     1
1002
}
  0
DIMENSION
  5
4E2
330
36
100
AcDbEntity
  8
0
  6
Continuous
 62
     7
100
AcDbDimension
  2
*D34
 10
119.43247
 20
-0.30099794
 30
0.0
 11
106.7696
 21
-0.30099794
 31
0.0
 71
     5
 42
-1.0
  3
DIMSTYLE
100
AcDbAlignedDimension
 13
94.10673499999999
 23
18.678949
 33
0.0
 14
119.43247
 24
12.61995
 34
0.0
100
AcDbRotatedDimension
1001
ACAD
1000
DSTYLE
1002
{
1070
     6
1000
_OPEN
1070
    77
1070
     1
1070
   172
1070
     1
1070
    75
1070
     1
1070
    76
1070
     1
1002
}
  0
INSERT
  5
4E3
330
36
100
AcDbEntity
  8
0
  6
Continuous
 62
     7
100
AcDbBlockReference
  2
KOZU0002
 10
45.43247199999999
 20
-7.321052599999999
 30
0.0
  0
DIMENSION
  5
4E4
330
36
100
AcDbEntity
  8
0
  6
Continuous
 62
     7
100
AcDbDimension
  2
*D35
 10
-148.56754
 20
53.878948
 30
0.0
 11
-133.5675399999999
 21
53.878948
 31
0.0
 71
     5
 42
-1.0
  3
DIMSTYLE
100
AcDbAlignedDimension
 13
-118.56753
 23
49.36394899999999
 33
0.0
 14
-148.56754
 24
28.678947
 34
0.0
100
AcDbRotatedDimension
1001
ACAD
1000
DSTYLE
1002
{
1070
    77
1070
     1
1070
   172
1070
     1
1002
}
  0
DIMENSION
  5
4E5
330
36
100
AcDbEntity
  8
0
  6
Continuous
 62
     7
100
AcDbDimension
  2
*D36
 10
-118.56753
 20
-29.321053
 30
0.0
 11
-127.56754
 21
-29.321053
 31
0.0
 71
     5
 42
-1.0
  3
DIMSTYLE
100
AcDbAlignedDimension
 13
-136.5675399999999
 23
-14.321053
 33
0.0
 14
-118.56753
 24
-11.32775
 34
0.0
100
AcDbRotatedDimension
1001
ACAD
1000
DSTYLE
1002
{
1070
    77
1070
     1
1070
   172
1070
     1
1070
    75
1070
     1
1002
}
  0
DIMENSION
  5
4E6
330
36
100
AcDbEntity
  8
0
  6
Continuous
 62
     7
100
AcDbDimension
  2
*D37
 10
49.432472
 20
74.67894699999999
 30
0.0
 11
29.43247
 21
74.67894699999999
 31
0.0
 71
     5
 42
-1.0
  3
DIMSTYLE
100
AcDbAlignedDimension
 13
9.4324703
 23
90.37894399999998
 33
0.0
 14
49.432472
 24
90.37894399999998
 34
0.0
100
AcDbRotatedDimension
1001
ACAD
1000
DSTYLE
1002
{
1070
    77
1070
     1
1070
   172
1070
     1
1002
}
  0
ENDSEC
  0
SECTION
  2
OBJECTS
  0
DICTIONARY
  5
C
330
0
100
AcDbDictionary
281
     1
  3
ACAD_COLOR
350
2F
  3
ACAD_GROUP
350
D
  3
ACAD_LAYOUT
350
2E
  3
ACAD_MATERIAL
350
10
  3
ACAD_MLINESTYLE
350
2B
  3
ACAD_PLOTSETTINGS
350
2D
  3
ACAD_PLOTSTYLENAME
350
E
  3
ACAD_TABLESTYLE
350
30
  3
ACAD_VISUALSTYLE
350
14
  3
AcDbVariableDictionary
350
5B6
  3
AcmDictionary
350
541
  3
AMG
350
4E8
  3
AMGSNAPSETTINGS
350
59C
  3
DWGPROPS
350
5BB
  0
DICTIONARY
  5
2F
102
{ACAD_REACTORS
330
C
102
}
330
C
100
AcDbDictionary
281
     1
  0
DICTIONARY
  5
D
102
{ACAD_REACTORS
330
C
102
}
330
C
100
AcDbDictionary
281
     1
  0
DICTIONARY
  5
2E
102
{ACAD_REACTORS
330
C
102
}
330
C
100
AcDbDictionary
281
     1
  3
Model
350
39
  3
レイアウト1
350
35
  0
DICTIONARY
  5
10
102
{ACAD_REACTORS
330
C
102
}
330
C
100
AcDbDictionary
281
     1
  3
ByBlock
350
12
  3
ByLayer
350
11
  3
Global
350
13
  0
DICTIONARY
  5
2B
102
{ACAD_REACTORS
330
C
102
}
330
C
100
AcDbDictionary
281
     1
  3
Standard
350
2C
  0
DICTIONARY
  5
2D
102
{ACAD_REACTORS
330
C
102
}
330
C
100
AcDbDictionary
281
     1
  0
ACDBDICTIONARYWDFLT
  5
E
102
{ACAD_REACTORS
330
C
102
}
330
C
100
AcDbDictionary
281
     1
  3
Normal
350
F
100
AcDbDictionaryWithDefault
340
F
  0
DICTIONARY
  5
30
102
{ACAD_REACTORS
330
C
102
}
330
C
100
AcDbDictionary
281
     1
  3
Standard
350
31
  0
DICTIONARY
  5
14
102
{ACAD_REACTORS
330
C
102
}
330
C
100
AcDbDictionary
281
     1
  3
2dWireframe
350
1A
  3
3D Hidden
350
1C
  3
3dWireframe
350
1B
  3
Basic
350
19
  3
Brighten
350
20
  3
ColorChange
350
24
  3
Conceptual
350
1D
  3
Dim
350
1F
  3
Facepattern
350
23
  3
Flat
350
15
  3
FlatWithEdges
350
16
  3
Gouraud
350
17
  3
GouraudWithEdges
350
18
  3
Linepattern
350
22
  3
Realistic
350
1E
  3
Thicken
350
21
  0
DICTIONARY
  5
5B6
102
{ACAD_REACTORS
330
C
102
}
330
C
100
AcDbDictionary
281
     1
  3
CTABLESTYLE
350
5B7
  3
DIMASSOC
350
5BA
  3
INDEXCTL
350
5B9
  3
SORTENTS
350
5B8
  0
DICTIONARY
  5
541
102
{ACAD_REACTORS
330
C
102
}
330
C
100
AcDbDictionary
281
     1
  3
AcmStdDictionary
350
54C
  3
AMDTSECTSYM_ARROWCOLOR
350
56D
  0
DICTIONARY
  5
4E8
102
{ACAD_REACTORS
330
C
102
}
330
C
100
AcDbDictionary
281
     1
  0
DICTIONARY
  5
59C
102
{ACAD_REACTORS
330
C
102
}
330
C
100
AcDbDictionary
281
     1
  0
XRECORD
  5
5BB
102
{ACAD_REACTORS
330
C
102
}
330
C
100
AcDbXrecord
280
     1
  1
DWGPROPS COOKIE
  2

  3

  4

  6

  7

  8
Administrator
  9

300
=
301
=
302
=
303
=
304
=
305
=
306
=
307
=
308
=
309
=
 40
0.0007040277777778
 41
2454218.400474896
 42
2454218.401178021
  1

 90
        0
  0
LAYOUT
  5
39
102
{ACAD_XDICTIONARY
360
5C6
102
}
102
{ACAD_REACTORS
330
2E
102
}
330
2E
100
AcDbPlotSettings
  1

  2
\\CAD-SRV01\FX DocuColor 1250 PLW
  4

  6

 40
0.0
 41
0.0
 42
0.0
 43
0.0
 44
0.0
 45
0.0
 46
0.0
 47
0.0
 48
0.0
 49
0.0
140
0.0
141
0.0
142
1.0
143
1.0
 70
  1712
 72
     0
 73
     0
 74
     0
  7

 75
     0
147
1.0
148
0.0
149
0.0
100
AcDbLayout
  1
Model
 70
     1
 71
     0
 10
0.0
 20
0.0
 11
12.0
 21
9.0
 12
0.0
 22
0.0
 32
0.0
 14
0.0
 24
0.0
 34
0.0
 15
0.0
 25
0.0
 35
0.0
146
0.0
 13
0.0
 23
0.0
 33
0.0
 16
1.0
 26
0.0
 36
0.0
 17
0.0
 27
1.0
 37
0.0
 76
     0
330
36
331
45
  0
LAYOUT
  5
35
102
{ACAD_XDICTIONARY
360
5C4
102
}
102
{ACAD_REACTORS
330
2E
102
}
330
2E
100
AcDbPlotSettings
  1

  2
\\CAD-SRV01\FX DocuColor 1250 PLW
  4

  6

 40
0.0
 41
0.0
 42
0.0
 43
0.0
 44
0.0
 45
0.0
 46
0.0
 47
0.0
 48
0.0
 49
0.0
140
0.0
141
0.0
142
1.0
143
1.0
 70
   688
 72
     0
 73
     0
 74
     5
  7

 75
    16
147
1.0
148
0.0
149
0.0
100
AcDbLayout
  1
レイアウト1
 70
     1
 71
     1
 10
-211.0
 20
-100.0
 11
170.0
 21
173.0
 12
0.0
 22
0.0
 32
0.0
 14
1.000000000000000E+20
 24
1.000000000000000E+20
 34
1.000000000000000E+20
 15
-1.000000000000000E+20
 25
-1.000000000000000E+20
 35
-1.000000000000000E+20
146
0.0
 13
0.0
 23
0.0
 33
0.0
 16
1.0
 26
0.0
 36
0.0
 17
0.0
 27
1.0
 37
0.0
 76
     0
330
32
  0
MATERIAL
  5
12
102
{ACAD_XDICTIONARY
360
5BE
102
}
102
{ACAD_REACTORS
330
10
102
}
330
10
100
AcDbMaterial
  1
ByBlock
  0
MATERIAL
  5
11
102
{ACAD_XDICTIONARY
360
5BC
102
}
102
{ACAD_REACTORS
330
10
102
}
330
10
100
AcDbMaterial
  1
ByLayer
  0
MATERIAL
  5
13
102
{ACAD_XDICTIONARY
360
5C0
102
}
102
{ACAD_REACTORS
330
10
102
}
330
10
100
AcDbMaterial
  1
Global
  0
MLINESTYLE
  5
2C
102
{ACAD_REACTORS
330
2B
102
}
330
2B
100
AcDbMlineStyle
  2
STANDARD
 70
     0
  3

 62
   256
 51
90.0
 52
90.0
 71
     2
 49
0.5
 62
   256
  6
BYLAYER
 49
-0.5
 62
   256
  6
BYLAYER
  0
ACDBPLACEHOLDER
  5
F
102
{ACAD_REACTORS
330
E
102
}
330
E
  0
TABLESTYLE
  5
31
102
{ACAD_XDICTIONARY
360
5C2
102
}
102
{ACAD_REACTORS
330
30
102
}
330
30
100
AcDbTableStyle
  3
Standard
 70
     0
 71
     0
 40
0.06
 41
0.06
280
     0
281
     0
  7
STANDARD
140
0.18
170
     2
 62
     0
 63
     7
283
     0
274
    -2
284
     1
 64
     0
275
    -2
285
     1
 65
     0
276
    -2
286
     1
 66
     0
277
    -2
287
     1
 67
     0
278
    -2
288
     1
 68
     0
279
    -2
289
     1
 69
     0
  7
STANDARD
140
0.25
170
     5
 62
     0
 63
     7
283
     0
274
    -2
284
     1
 64
     0
275
    -2
285
     1
 65
     0
276
    -2
286
     1
 66
     0
277
    -2
287
     1
 67
     0
278
    -2
288
     1
 68
     0
279
    -2
289
     1
 69
     0
  7
STANDARD
140
0.18
170
     5
 62
     0
 63
     7
283
     0
274
    -2
284
     1
 64
     0
275
    -2
285
     1
 65
     0
276
    -2
286
     1
 66
     0
277
    -2
287
     1
 67
     0
278
    -2
288
     1
 68
     0
279
    -2
289
     1
 69
     0
  0
VISUALSTYLE
  5
1A
102
{ACAD_REACTORS
330
14
102
}
330
14
100
AcDbVisualStyle
  2
2dWireframe
 70
     4
 71
     0
 72
     2
 73
     0
 90
        0
 40
-0.6
 41
-30.0
 62
     5
 63
     7
 74
     1
 91
        4
 64
     7
 65
   257
 75
     1
175
     1
 42
1.0
 92
        0
 66
   257
 43
1.0
 76
     1
 77
     6
 78
     2
 67
     7
 79
     5
170
     0
171
     0
290
     0
174
     0
 93
        1
 44
0.0
173
     0
291
     0
 45
0.0
1001
ACAD
1000
AcDbSavedByObjectVersion
1070
     0
  0
VISUALSTYLE
  5
1C
102
{ACAD_REACTORS
330
14
102
}
330
14
100
AcDbVisualStyle
  2
3D Hidden
 70
     6
 71
     1
 72
     2
 73
     2
 90
        0
 40
-0.6
 41
-30.0
 62
     5
 63
     7
 74
     2
 91
        2
 64
     7
 65
   257
 75
     2
175
     1
 42
40.0
 92
        0
 66
   257
 43
1.0
 76
     1
 77
     6
 78
     2
 67
     7
 79
     3
170
     0
171
     0
290
     0
174
     0
 93
        1
 44
0.0
173
     0
291
     0
 45
0.0
1001
ACAD
1000
AcDbSavedByObjectVersion
1070
     0
  0
VISUALSTYLE
  5
1B
102
{ACAD_REACTORS
330
14
102
}
330
14
100
AcDbVisualStyle
  2
3dWireframe
 70
     5
 71
     0
 72
     2
 73
     0
 90
        0
 40
-0.6
 41
-30.0
 62
     5
 63
     7
 74
     1
 91
        4
 64
     7
 65
   257
 75
     1
175
     1
 42
1.0
 92
        0
 66
   257
 43
1.0
 76
     1
 77
     6
 78
     2
 67
     7
 79
     5
170
     0
171
     0
290
     0
174
     0
 93
        1
 44
0.0
173
     0
291
     0
 45
0.0
1001
ACAD
1000
AcDbSavedByObjectVersion
1070
     0
  0
VISUALSTYLE
  5
19
102
{ACAD_REACTORS
330
14
102
}
330
14
100
AcDbVisualStyle
  2
Basic
 70
     7
 71
     1
 72
     0
 73
     1
 90
        0
 40
-0.6
 41
-30.0
 62
     5
 63
     7
 74
     0
 91
        4
 64
     7
 65
   257
 75
     1
175
     1
 42
1.0
 92
        8
 66
     7
 43
1.0
 76
     1
 77
     6
 78
     2
 67
     7
 79
     5
170
     0
171
     0
290
     0
174
     0
 93
        1
 44
0.0
173
     0
291
     1
 45
0.0
1001
ACAD
1000
AcDbSavedByObjectVersion
1070
     0
  0
VISUALSTYLE
  5
20
102
{ACAD_REACTORS
330
14
102
}
330
14
100
AcDbVisualStyle
  2
Brighten
 70
    12
 71
     2
 72
     2
 73
     0
 90
        0
 40
-0.6
 41
-30.0
 62
     5
 63
     7
 74
     1
 91
        4
 64
     7
 65
   257
 75
     1
175
     1
 42
1.0
 92
        8
 66
     7
 43
1.0
 76
     1
 77
     6
 78
     2
 67
     7
 79
     5
170
     0
171
     0
290
     0
174
     0
 93
        1
 44
50.0
173
     0
291
     1
 45
0.0
1001
ACAD
1000
AcDbSavedByObjectVersion
1070
     0
  0
VISUALSTYLE
  5
24
102
{ACAD_REACTORS
330
14
102
}
330
14
100
AcDbVisualStyle
  2
ColorChange
 70
    16
 71
     2
 72
     2
 73
     3
 90
        0
 40
-0.6
 41
-30.0
 62
     5
 63
     8
 74
     1
 91
        4
 64
     7
 65
   257
 75
     1
175
     1
 42
1.0
 92
        8
 66
     8
 43
1.0
 76
     1
 77
     6
 78
     2
 67
     7
 79
     5
170
     0
171
     0
290
     0
174
     0
 93
        1
 44
0.0
173
     0
291
     1
 45
0.0
1001
ACAD
1000
AcDbSavedByObjectVersion
1070
     0
  0
VISUALSTYLE
  5
1D
102
{ACAD_REACTORS
330
14
102
}
330
14
100
AcDbVisualStyle
  2
Conceptual
 70
     9
 71
     3
 72
     2
 73
     0
 90
        0
 40
-0.6
 41
-30.0
 62
     5
 63
     7
 74
     2
 91
        2
 64
     7
 65
   257
 75
     1
175
     1
 42
40.0
 92
        8
 66
     7
 43
1.0
 76
     1
 77
     6
 78
     2
 67
     7
 79
     3
170
     0
171
     0
290
     0
174
     0
 93
        1
 44
0.0
173
     0
291
     0
 45
0.0
1001
ACAD
1000
AcDbSavedByObjectVersion
1070
     0
  0
VISUALSTYLE
  5
1F
102
{ACAD_REACTORS
330
14
102
}
330
14
100
AcDbVisualStyle
  2
Dim
 70
    11
 71
     2
 72
     2
 73
     0
 90
        0
 40
-0.6
 41
-30.0
 62
     5
 63
     7
 74
     1
 91
        4
 64
     7
 65
   257
 75
     1
175
     1
 42
1.0
 92
        8
 66
     7
 43
1.0
 76
     1
 77
     6
 78
     2
 67
     7
 79
     5
170
     0
171
     0
290
     0
174
     0
 93
        1
 44
-50.0
173
     0
291
     1
 45
0.0
1001
ACAD
1000
AcDbSavedByObjectVersion
1070
     0
  0
VISUALSTYLE
  5
23
102
{ACAD_REACTORS
330
14
102
}
330
14
100
AcDbVisualStyle
  2
Facepattern
 70
    15
 71
     2
 72
     2
 73
     0
 90
        0
 40
-0.6
 41
-30.0
 62
     5
 63
     7
 74
     1
 91
        4
 64
     7
 65
   257
 75
     1
175
     1
 42
1.0
 92
        8
 66
     7
 43
1.0
 76
     1
 77
     6
 78
     2
 67
     7
 79
     5
170
     0
171
     0
290
     0
174
     0
 93
        1
 44
0.0
173
     0
291
     1
 45
0.0
1001
ACAD
1000
AcDbSavedByObjectVersion
1070
     0
  0
VISUALSTYLE
  5
15
102
{ACAD_REACTORS
330
14
102
}
330
14
100
AcDbVisualStyle
  2
Flat
 70
     0
 71
     2
 72
     1
 73
     1
 90
        2
 40
-0.6
 41
30.0
 62
     5
 63
     7
 74
     0
 91
        4
 64
     7
 65
   257
 75
     1
175
     1
 42
1.0
 92
        8
 66
     7
 43
1.0
 76
     1
 77
     6
 78
     2
 67
     7
 79
     5
170
     0
171
     0
290
     0
174
     0
 93
       13
 44
0.0
173
     0
291
     1
 45
0.0
1001
ACAD
1000
AcDbSavedByObjectVersion
1070
     0
  0
VISUALSTYLE
  5
16
102
{ACAD_REACTORS
330
14
102
}
330
14
100
AcDbVisualStyle
  2
FlatWithEdges
 70
     1
 71
     2
 72
     1
 73
     1
 90
        2
 40
-0.6
 41
30.0
 62
     5
 63
     7
 74
     1
 91
        4
 64
     7
 65
   257
 75
     1
175
     1
 42
1.0
 92
        0
 66
   257
 43
1.0
 76
     1
 77
     6
 78
     2
 67
     7
 79
     5
170
     0
171
     0
290
     0
174
     0
 93
       13
 44
0.0
173
     0
291
     1
 45
0.0
1001
ACAD
1000
AcDbSavedByObjectVersion
1070
     0
  0
VISUALSTYLE
  5
17
102
{ACAD_REACTORS
330
14
102
}
330
14
100
AcDbVisualStyle
  2
Gouraud
 70
     2
 71
     2
 72
     2
 73
     1
 90
        2
 40
-0.6
 41
30.0
 62
     5
 63
     7
 74
     0
 91
        4
 64
     7
 65
   257
 75
     1
175
     1
 42
1.0
 92
        0
 66
     7
 43
1.0
 76
     1
 77
     6
 78
     2
 67
     7
 79
     5
170
     0
171
     0
290
     0
174
     0
 93
       13
 44
0.0
173
     0
291
     1
 45
0.0
1001
ACAD
1000
AcDbSavedByObjectVersion
1070
     0
  0
VISUALSTYLE
  5
18
102
{ACAD_REACTORS
330
14
102
}
330
14
100
AcDbVisualStyle
  2
GouraudWithEdges
 70
     3
 71
     2
 72
     2
 73
     1
 90
        2
 40
-0.6
 41
30.0
 62
     5
 63
     7
 74
     1
 91
        4
 64
     7
 65
   257
 75
     1
175
     1
 42
1.0
 92
        0
 66
   257
 43
1.0
 76
     1
 77
     6
 78
     2
 67
     7
 79
     5
170
     0
171
     0
290
     0
174
     0
 93
       13
 44
0.0
173
     0
291
     1
 45
0.0
1001
ACAD
1000
AcDbSavedByObjectVersion
1070
     0
  0
VISUALSTYLE
  5
22
102
{ACAD_REACTORS
330
14
102
}
330
14
100
AcDbVisualStyle
  2
Linepattern
 70
    14
 71
     2
 72
     2
 73
     0
 90
        0
 40
-0.6
 41
-30.0
 62
     5
 63
     7
 74
     1
 91
        4
 64
     7
 65
   257
 75
     7
175
     7
 42
1.0
 92
        8
 66
     7
 43
1.0
 76
     1
 77
     6
 78
     2
 67
     7
 79
     5
170
     0
171
     0
290
     0
174
     0
 93
        1
 44
0.0
173
     0
291
     1
 45
0.0
1001
ACAD
1000
AcDbSavedByObjectVersion
1070
     0
  0
VISUALSTYLE
  5
1E
102
{ACAD_REACTORS
330
14
102
}
330
14
100
AcDbVisualStyle
  2
Realistic
 70
     8
 71
     2
 72
     2
 73
     0
 90
        0
 40
-0.6
 41
-30.0
 62
     5
 63
     7
 74
     1
 91
        0
 64
     7
 65
   257
 75
     1
175
     1
 42
1.0
 92
        8
 66
     8
 43
1.0
 76
     1
 77
     6
 78
     2
 67
     7
 79
     5
170
     0
171
     0
290
     0
174
     0
 93
       13
 44
0.0
173
     0
291
     0
 45
0.0
1001
ACAD
1000
AcDbSavedByObjectVersion
1070
     0
  0
VISUALSTYLE
  5
21
102
{ACAD_REACTORS
330
14
102
}
330
14
100
AcDbVisualStyle
  2
Thicken
 70
    13
 71
     2
 72
     2
 73
     0
 90
        0
 40
-0.6
 41
-30.0
 62
     5
 63
     7
 74
     1
 91
        4
 64
     7
 65
   257
 75
     1
175
     1
 42
1.0
 92
       12
 66
     7
 43
1.0
 76
     1
 77
     6
 78
     2
 67
     7
 79
     5
170
     0
171
     0
290
     0
174
     0
 93
        1
 44
0.0
173
     0
291
     1
 45
0.0
1001
ACAD
1000
AcDbSavedByObjectVersion
1070
     0
  0
DICTIONARYVAR
  5
5B7
102
{ACAD_REACTORS
330
5B6
102
}
330
5B6
100
DictionaryVariables
280
     0
  1
STANDARD
  0
DICTIONARYVAR
  5
5BA
102
{ACAD_REACTORS
330
5B6
102
}
330
5B6
100
DictionaryVariables
280
     0
  1
1
  0
DICTIONARYVAR
  5
5B9
102
{ACAD_REACTORS
330
5B6
102
}
330
5B6
100
DictionaryVariables
280
     0
  1
0
  0
DICTIONARYVAR
  5
5B8
102
{ACAD_REACTORS
330
5B6
102
}
330
5B6
100
DictionaryVariables
280
     0
  1
127
  0
DICTIONARY
  5
54C
102
{ACAD_REACTORS
330
541
102
}
330
541
100
AcDbDictionary
281
     1
  0
XRECORD
  5
56D
102
{ACAD_REACTORS
330
541
102
}
330
541
100
AcDbXrecord
280
     1
 90
-1023410169
  0
DICTIONARY
  5
5C6
330
39
100
AcDbDictionary
280
     1
281
     1
  3
ACAD_XREC_ROUNDTRIP
360
5C7
  0
DICTIONARY
  5
5C4
330
35
100
AcDbDictionary
280
     1
281
     1
  3
ACAD_XREC_ROUNDTRIP
360
5C5
  0
DICTIONARY
  5
5BE
330
12
100
AcDbDictionary
280
     1
281
     1
  3
ACAD_XREC_ROUNDTRIP
360
5BF
  0
DICTIONARY
  5
5BC
330
11
100
AcDbDictionary
280
     1
281
     1
  3
ACAD_XREC_ROUNDTRIP
360
5BD
  0
DICTIONARY
  5
5C0
330
13
100
AcDbDictionary
280
     1
281
     1
  3
ACAD_XREC_ROUNDTRIP
360
5C1
  0
DICTIONARY
  5
5C2
330
31
100
AcDbDictionary
280
     1
281
     1
  3
ACAD_XREC_ROUNDTRIP
360
5C3
  0
XRECORD
  5
5C7
102
{ACAD_REACTORS
330
5C6
102
}
330
5C6
100
AcDbXrecord
280
     1
102
SHADEPLOT
 70
     0
102
SHADEPLOTRESLEVEL
 70
     2
102
SHADEPLOTCUSTOMDPI
 70
   300
  0
XRECORD
  5
5C5
102
{ACAD_REACTORS
330
5C4
102
}
330
5C4
100
AcDbXrecord
280
     1
102
SHADEPLOT
 70
     0
102
SHADEPLOTRESLEVEL
 70
     2
102
SHADEPLOTCUSTOMDPI
 70
   300
  0
XRECORD
  5
5BF
102
{ACAD_REACTORS
330
5BE
102
}
330
5BE
100
AcDbXrecord
280
     1
102
MATERIAL
148
0.0
149
0.0
149
0.0
 93
        0
 94
       63
282
     0
 72
     1
 77
     1
171
     1
175
     1
179
     1
273
     0
  0
XRECORD
  5
5BD
102
{ACAD_REACTORS
330
5BC
102
}
330
5BC
100
AcDbXrecord
280
     1
102
MATERIAL
148
0.0
149
0.0
149
0.0
 93
        0
 94
       63
282
     0
 72
     1
 77
     1
171
     1
175
     1
179
     1
273
     0
  0
XRECORD
  5
5C1
102
{ACAD_REACTORS
330
5C0
102
}
330
5C0
100
AcDbXrecord
280
     1
102
MATERIAL
148
0.0
149
0.0
149
0.0
 93
        0
 94
       63
282
     0
 72
     1
 77
     1
171
     1
175
     1
179
     1
273
     0
  0
XRECORD
  5
5C3
102
{ACAD_REACTORS
330
5C2
102
}
330
5C2
100
AcDbXrecord
280
     1
102
ACAD_ROUNDTRIP_PRE2007_TABLESTYLE
 90
      512
 91
        0
  1

 92
      512
 93
        0
  2

 94
      512
 95
        0
  3

  0
ENDSEC
  0
EOF
