  0
SECTION
  2
HEADER
  9
$ACADVER
  1
AC1018
  9
$ACADMAINTVER
 70
   104
  9
$DWGCODEPAGE
  3
ANSI_932
  9
$LASTSAVEDBY
  1
shibutani
  9
$CUSTOMPROPERTYTAG
  1
AmdtFileType
  9
$CUSTOMPROPERTY
  1
84
  9
$INSBASE
 10
0.0
 20
0.0
 30
0.0
  9
$EXTMIN
 10
2575.80382610664
 20
-397.964107105794
 30
0.0
  9
$EXTMAX
 10
2993.303826106639
 20
-97.46410710579311
 30
0.0
  9
$LIMMIN
 10
2843.481982921993
 20
1394.557920112307
  9
$LIMMAX
 10
3683.481982921993
 20
1988.557920112307
  9
$ORTHOMODE
 70
     0
  9
$REGENMODE
 70
     1
  9
$FILLMODE
 70
     1
  9
$QTEXTMODE
 70
     0
  9
$MIRRTEXT
 70
     0
  9
$LTSCALE
 40
1.0
  9
$ATTMODE
 70
     1
  9
$TEXTSIZE
 40
3.2
  9
$TRACEWID
 40
1.0
  9
$TEXTSTYLE
  7
STANDARD
  9
$CLAYER
  8
AM_0
  9
$CELTYPE
  6
ByLayer
  9
$CECOLOR
 62
   256
  9
$CELTSCALE
 40
0.5
  9
$DISPSILH
 70
     0
  9
$DIMSCALE
 40
1.0
  9
$DIMASZ
 40
1.0
  9
$DIMEXO
 40
1.0
  9
$DIMDLI
 40
10.0
  9
$DIMRND
 40
0.0
  9
$DIMDLE
 40
0.0
  9
$DIMEXE
 40
1.0
  9
$DIMTP
 40
0.1
  9
$DIMTM
 40
0.1
  9
$DIMTXT
 40
3.5
  9
$DIMCEN
 40
0.0
  9
$DIMTSZ
 40
0.0
  9
$DIMTOL
 70
     0
  9
$DIMLIM
 70
     0
  9
$DIMTIH
 70
     0
  9
$DIMTOH
 70
     0
  9
$DIMSE1
 70
     0
  9
$DIMSE2
 70
     0
  9
$DIMTAD
 70
     1
  9
$DIMZIN
 70
     8
  9
$DIMBLK
  1

  9
$DIMASO
 70
     1
  9
$DIMSHO
 70
     1
  9
$DIMPOST
  1

  9
$DIMAPOST
  1
"
  9
$DIMALT
 70
     0
  9
$DIMALTD
 70
     2
  9
$DIMALTF
 40
0.0393701
  9
$DIMLFAC
 40
1.0
  9
$DIMTOFL
 70
     1
  9
$DIMTVP
 40
0.0
  9
$DIMTIX
 70
     0
  9
$DIMSOXD
 70
     0
  9
$DIMSAH
 70
     0
  9
$DIMBLK1
  1

  9
$DIMBLK2
  1

  9
$DIMSTYLE
  2
SYS
  9
$DIMCLRD
 70
   256
  9
$DIMCLRE
 70
   256
  9
$DIMCLRT
 70
     7
  9
$DIMTFAC
 40
0.71
  9
$DIMGAP
 40
1.5
  9
$DIMJUST
 70
     0
  9
$DIMSD1
 70
     0
  9
$DIMSD2
 70
     0
  9
$DIMTOLJ
 70
     0
  9
$DIMTZIN
 70
     8
  9
$DIMALTZ
 70
     0
  9
$DIMALTTZ
 70
     0
  9
$DIMUPT
 70
     0
  9
$DIMDEC
 70
     1
  9
$DIMTDEC
 70
     2
  9
$DIMALTU
 70
     2
  9
$DIMALTTD
 70
     2
  9
$DIMTXSTY
  7
STANDARD
  9
$DIMAUNIT
 70
     0
  9
$DIMADEC
 70
     0
  9
$DIMALTRND
 40
0.0
  9
$DIMAZIN
 70
     2
  9
$DIMDSEP
 70
    46
  9
$DIMATFIT
 70
     3
  9
$DIMFRAC
 70
     0
  9
$DIMLDRBLK
  1

  9
$DIMLUNIT
 70
     2
  9
$DIMLWD
 70
    -1
  9
$DIMLWE
 70
    -1
  9
$DIMTMOVE
 70
     0
  9
$LUNITS
 70
     2
  9
$LUPREC
 70
     2
  9
$SKETCHINC
 40
1.0
  9
$FILLETRAD
 40
40.0
  9
$AUNITS
 70
     0
  9
$AUPREC
 70
     0
  9
$MENU
  1
.
  9
$ELEVATION
 40
0.0
  9
$PELEVATION
 40
0.0
  9
$THICKNESS
 40
0.0
  9
$LIMCHECK
 70
     0
  9
$CHAMFERA
 40
0.0
  9
$CHAMFERB
 40
0.0
  9
$CHAMFERC
 40
20.0
  9
$CHAMFERD
 40
0.0
  9
$SKPOLY
 70
     0
  9
$TDCREATE
 40
2455567.561054317
  9
$TDUCREATE
 40
2455567.186054318
  9
$TDUPDATE
 40
2455660.438282326
  9
$TDUUPDATE
 40
2455660.063282326
  9
$TDINDWG
 40
0.9133246181
  9
$TDUSRTIMER
 40
0.9133226273
  9
$USRTIMER
 70
     1
  9
$ANGBASE
 50
0.0
  9
$ANGDIR
 70
     0
  9
$PDMODE
 70
     0
  9
$PDSIZE
 40
-3.0
  9
$PLINEWID
 40
0.0
  9
$SPLFRAME
 70
     0
  9
$SPLINETYPE
 70
     6
  9
$SPLINESEGS
 70
     8
  9
$HANDSEED
  5
236F9
  9
$SURFTAB1
 70
     6
  9
$SURFTAB2
 70
     6
  9
$SURFTYPE
 70
     6
  9
$SURFU
 70
     6
  9
$SURFV
 70
     6
  9
$UCSBASE
  2

  9
$UCSNAME
  2

  9
$UCSORG
 10
0.0
 20
0.0
 30
0.0
  9
$UCSXDIR
 10
1.0
 20
0.0
 30
0.0
  9
$UCSYDIR
 10
0.0
 20
1.0
 30
0.0
  9
$UCSORTHOREF
  2

  9
$UCSORTHOVIEW
 70
     0
  9
$UCSORGTOP
 10
0.0
 20
0.0
 30
0.0
  9
$UCSORGBOTTOM
 10
0.0
 20
0.0
 30
0.0
  9
$UCSORGLEFT
 10
0.0
 20
0.0
 30
0.0
  9
$UCSORGRIGHT
 10
0.0
 20
0.0
 30
0.0
  9
$UCSORGFRONT
 10
0.0
 20
0.0
 30
0.0
  9
$UCSORGBACK
 10
0.0
 20
0.0
 30
0.0
  9
$PUCSBASE
  2

  9
$PUCSNAME
  2

  9
$PUCSORG
 10
0.0
 20
0.0
 30
0.0
  9
$PUCSXDIR
 10
1.0
 20
0.0
 30
0.0
  9
$PUCSYDIR
 10
0.0
 20
1.0
 30
0.0
  9
$PUCSORTHOREF
  2

  9
$PUCSORTHOVIEW
 70
     0
  9
$PUCSORGTOP
 10
0.0
 20
0.0
 30
0.0
  9
$PUCSORGBOTTOM
 10
0.0
 20
0.0
 30
0.0
  9
$PUCSORGLEFT
 10
0.0
 20
0.0
 30
0.0
  9
$PUCSORGRIGHT
 10
0.0
 20
0.0
 30
0.0
  9
$PUCSORGFRONT
 10
0.0
 20
0.0
 30
0.0
  9
$PUCSORGBACK
 10
0.0
 20
0.0
 30
0.0
  9
$USERI1
 70
     0
  9
$USERI2
 70
     0
  9
$USERI3
 70
     0
  9
$USERI4
 70
     0
  9
$USERI5
 70
     0
  9
$USERR1
 40
0.0
  9
$USERR2
 40
0.0
  9
$USERR3
 40
0.0
  9
$USERR4
 40
0.0
  9
$USERR5
 40
0.0
  9
$WORLDVIEW
 70
     1
  9
$SHADEDGE
 70
     3
  9
$SHADEDIF
 70
    70
  9
$TILEMODE
 70
     1
  9
$MAXACTVP
 70
    64
  9
$PINSBASE
 10
0.0
 20
0.0
 30
0.0
  9
$PLIMCHECK
 70
     0
  9
$PEXTMIN
 10
1.000000000000000E+20
 20
1.000000000000000E+20
 30
1.000000000000000E+20
  9
$PEXTMAX
 10
-1.000000000000000E+20
 20
-1.000000000000000E+20
 30
-1.000000000000000E+20
  9
$PLIMMIN
 10
-3.17498779296875
 20
-3.174999952316284
  9
$PLIMMAX
 10
293.4970092773438
 20
206.692492723465
  9
$UNITMODE
 70
     0
  9
$VISRETAIN
 70
     1
  9
$PLINEGEN
 70
     0
  9
$PSLTSCALE
 70
     1
  9
$TREEDEPTH
 70
  3020
  9
$CMLSTYLE
  2
Standard
  9
$CMLJUST
 70
     0
  9
$CMLSCALE
 40
20.0
  9
$PROXYGRAPHICS
 70
     1
  9
$MEASUREMENT
 70
     1
  9
$CELWEIGHT
370
    -1
  9
$ENDCAPS
280
     0
  9
$JOINSTYLE
280
     0
  9
$LWDISPLAY
290
     1
  9
$INSUNITS
 70
     4
  9
$HYPERLINKBASE
  1

  9
$STYLESHEET
  1
monochrome.ctb
  9
$XEDIT
290
     1
  9
$CEPSNTYPE
380
     0
  9
$PSTYLEMODE
290
     1
  9
$FINGERPRINTGUID
  2
{E0FB5660-30B4-4D8A-8C1D-9D7E99D72F0A}
  9
$VERSIONGUID
  2
{D5C9A089-A53D-4E91-91D4-821185B5E2F0}
  9
$EXTNAMES
290
     1
  9
$PSVPSCALE
 40
0.0
  9
$OLESTARTUP
290
     0
  9
$SORTENTS
280
    96
  9
$INDEXCTL
280
     0
  9
$HIDETEXT
280
     0
  9
$XCLIPFRAME
290
     0
  9
$HALOGAP
280
     0
  9
$OBSCOLOR
 70
   257
  9
$OBSLTYPE
280
     0
  9
$INTERSECTIONDISPLAY
280
     0
  9
$INTERSECTIONCOLOR
 70
   257
  9
$DIMASSOC
280
     1
  9
$PROJECTNAME
  1

  0
ENDSEC
  0
SECTION
  2
CLASSES
  0
CLASS
  1
ACDBDICTIONARYWDFLT
  2
AcDbDictionaryWithDefault
  3
ObjectDBX Classes
 90
        0
 91
        1
280
     0
281
     0
  0
CLASS
  1
ACDBPLACEHOLDER
  2
AcDbPlaceHolder
  3
ObjectDBX Classes
 90
        0
 91
        1
280
     0
281
     0
  0
CLASS
  1
LAYOUT
  2
AcDbLayout
  3
ObjectDBX Classes
 90
        0
 91
        3
280
     0
281
     0
  0
CLASS
  1
AMGSETTINGSOBJ
  2
AmgSettingsObj
  3
"AcadM|Product Description: AutoCAD Mechanical|Company: Autodesk"
 90
        0
 91
        4
280
     0
281
     0
  0
CLASS
  1
ACME_DOCUMENT
  2
AcMeDbDoc
  3
AcMeServices
 90
        0
 91
        2
280
     0
281
     0
  0
CLASS
  1
ACMESCOPE
  2
AcMeScope
  3
AcMeServices
 90
        0
 91
        1
280
     0
281
     0
  0
CLASS
  1
ACMECOMMANDHISTORY
  2
AcMeCommandHistory
  3
AcMeServices
 90
        0
 91
        1
280
     0
281
     0
  0
CLASS
  1
DICTIONARYVAR
  2
AcDbDictionaryVar
  3
ObjectDBX Classes
 90
        0
 91
        6
280
     0
281
     0
  0
CLASS
  1
ACIMSYSVARMAN
  2
AcImSysVarManager
  3
AcMeServices
 90
        0
 91
        6
280
     0
281
     0
  0
CLASS
  1
ACIMREALSYSVAR
  2
AcImRealSysVar
  3
AcMeServices
 90
        0
 91
       18
280
     0
281
     0
  0
CLASS
  1
ACIMINTSYSVAR
  2
AcImIntSysVar
  3
AcMeServices
 90
        0
 91
       98
280
     0
281
     0
  0
CLASS
  1
ACMEDRAWINGMAN
  2
AcMeDrawingMan
  3
AcMeServices
 90
        0
 91
        1
280
     0
281
     0
  0
CLASS
  1
ACMEVIEW
  2
AcMeView
  3
AcMeServices
 90
        0
 91
        1
280
     0
281
     0
  0
CLASS
  1
ACDBENTITYCACHE
  2
AcMeEntityCache
  3
AcMeServices
 90
        0
 91
        1
280
     0
281
     0
  0
CLASS
  1
GSMANAGER
  2
AcMeGSManager
  3
AcMeServices
 90
        0
 91
        1
280
     0
281
     0
  0
CLASS
  1
AMDTINTERNALREACTOR
  2
AmdtInternalReactor
  3
AcMeServices
 90
        0
 91
        2
280
     0
281
     0
  0
CLASS
  1
ACMESTATEMGR
  2
AcMeStateMgr
  3
AcMeServices
 90
        0
 91
        1
280
     0
281
     0
  0
CLASS
  1
ACGREFMASTER
  2
AcGrefMaster
  3
AcAttribServices
 90
        0
 91
        1
280
     0
281
     0
  0
CLASS
  1
ACME_DATABASE
  2
AcMeDbDatabase
  3
AcMeServices
 90
        0
 91
        1
280
     0
281
     0
  0
CLASS
  1
ACRFINSADJUSTERMGR
  2
AcRfInsAdjusterMgr
  3
AcMeServices
 90
        0
 91
        1
280
     0
281
     0
  0
CLASS
  1
ACGREFACADMASTER
  2
AcGrefacadMaster
  3
AcGrefServices
 90
        0
 91
        1
280
     0
281
     0
  0
CLASS
  1
AMIMASTER
  2
AmiMaster
  3
AmiServices
 90
        0
 91
        1
280
     0
281
     0
  0
CLASS
  1
ACMDATADICTIONARY
  2
AcmDataDictionary
  3
"AcmSymBB|Product Description: AutoCAD Mechanical|Company: Autodesk"
 90
        0
 91
        1
280
     0
281
     0
  0
CLASS
  1
ACMDATAENTRYBLOCK
  2
AcmDataEntryBlock
  3
"AcmSymBB|Product Description: AutoCAD Mechanical|Company: Autodesk"
 90
        0
 91
       10
280
     0
281
     0
  0
CLASS
  1
ACIMSTRSYSVAR
  2
AcImStrSysVar
  3
AcMeServices
 90
        0
 91
       11
280
     0
281
     0
  0
CLASS
  1
ACMSTANDARDISO
  2
AcmStandardISO
  3
"Amdt_StdImp|Product Description: AutoCAD Mechanical|Company: Autodesk"
 90
        0
 91
        2
280
     0
281
     0
  0
CLASS
  1
AMGOBJPROPCFG
  2
AmgObjPropCfg
  3
"AmgLay|Product Description: AutoCAD Mechanical|Company: Autodesk"
 90
        1
 91
        1
280
     0
281
     0
  0
CLASS
  1
AMDTEDGESTANDARDISO
  2
AmdtEdgeStdISO
  3
"Amdt_StdImp|Product Description: AutoCAD Mechanical|Company: Autodesk"
 90
        0
 91
        1
280
     0
281
     0
  0
CLASS
  1
ACMSURFSTANDARDISO
  2
AcmSurfTextStdISO
  3
"Amdt_StdImp|Product Description: AutoCAD Mechanical|Company: Autodesk"
 90
        0
 91
        2
280
     0
281
     0
  0
CLASS
  1
ACMFCFSTANDARDISO
  2
AcmFCFStdISO
  3
"Amdt_StdImp|Product Description: AutoCAD Mechanical|Company: Autodesk"
 90
        0
 91
        2
280
     0
281
     0
  0
CLASS
  1
ACMWELDSTANDARDISO
  2
AcmWeldingStdISO
  3
"Amdt_StdImp|Product Description: AutoCAD Mechanical|Company: Autodesk"
 90
        0
 91
        2
280
     0
281
     0
  0
CLASS
  1
ACMIDSTANDARDISO
  2
AcmIdStdISO
  3
"Amdt_StdImp|Product Description: AutoCAD Mechanical|Company: Autodesk"
 90
        0
 91
        2
280
     0
281
     0
  0
CLASS
  1
ACMDATUMSTANDARDISO
  2
AcmDatumStdISO
  3
"Amdt_StdImp|Product Description: AutoCAD Mechanical|Company: Autodesk"
 90
        0
 91
        2
280
     0
281
     0
  0
CLASS
  1
ACMBOMSTANDARDISO
  2
AcmBOMStdISO
  3
"Amdt_StdImp|Product Description: AutoCAD Mechanical|Company: Autodesk"
 90
        0
 91
        2
280
     0
281
     0
  0
CLASS
  1
ACMDETAILSTANDARDISO
  2
AmdtDetailSymStdISO
  3
"Amdt_StdImp|Product Description: AutoCAD Mechanical|Company: Autodesk"
 90
        0
 91
        2
280
     0
281
     0
  0
CLASS
  1
ACMSECTIONSTANDARDISO
  2
AmdtSectionSymStdISO
  3
"Amdt_StdImp|Product Description: AutoCAD Mechanical|Company: Autodesk"
 90
        0
 91
        2
280
     0
281
     0
  0
CLASS
  1
ACMCENTERLINESTANDARDISO
  2
AmdtCenterLineStdISO
  3
"Amdt_StdImp|Product Description: AutoCAD Mechanical|Company: Autodesk"
 90
        0
 91
        2
280
     0
281
     0
  0
CLASS
  1
ACAMGLAYSTD
  2
AcAmgLayStd
  3
"AmgLay|Product Description: AutoCAD Mechanical|Company: Autodesk"
 90
        0
 91
        3
280
     0
281
     0
  0
CLASS
  1
ACAMGDIMSTD
  2
AcAmgDimStd
  3
"AmgDim|Product Description: AutoCAD Mechanical|Company: Autodesk"
 90
        0
 91
        3
280
     0
281
     0
  0
CLASS
  1
ACAMGTITLESTD
  2
AcAmgTitleStd
  3
"AmgTitle|Product Description: AutoCAD Mechanical|Company: Autodesk"
 90
        0
 91
        3
280
     0
281
     0
  0
CLASS
  1
ACAMGFILTERDAT
  2
AcAmgFilterDat
  3
"AcadM|Product Description: AutoCAD Mechanical|Company: Autodesk"
 90
        0
 91
        6
280
     0
281
     0
  0
CLASS
  1
LAYER_INDEX
  2
AcDbLayerIndex
  3
ObjectDBX Classes
 90
        0
 91
        0
280
     0
281
     0
  0
CLASS
  1
IDBUFFER
  2
AcDbIdBuffer
  3
ObjectDBX Classes
 90
        0
 91
        0
280
     0
281
     0
  0
CLASS
  1
PLOTSETTINGS
  2
AcDbPlotSettings
  3
ObjectDBX Classes
 90
        0
 91
        0
280
     0
281
     0
  0
CLASS
  1
AMDTFORMULAUPDATEDISPATCHER
  2
AmdtFormulaUpdateDispatcher
  3
AcMeServices
 90
        0
 91
        1
280
     0
281
     0
  0
CLASS
  1
ACMSTANDARDANSI
  2
AcmStandardANSI
  3
"Amdt_StdImp|Product Description: AutoCAD Mechanical|Company: Autodesk"
 90
        0
 91
        1
280
     0
281
     0
  0
CLASS
  1
ACMSURFSTANDARDANSI
  2
AcmSurfTextStdANSI
  3
"Amdt_StdImp|Product Description: AutoCAD Mechanical|Company: Autodesk"
 90
        0
 91
        1
280
     0
281
     0
  0
CLASS
  1
ACMFCFSTANDARDANSI
  2
AcmFCFStdANSI
  3
"Amdt_StdImp|Product Description: AutoCAD Mechanical|Company: Autodesk"
 90
        0
 91
        1
280
     0
281
     0
  0
CLASS
  1
ACMWELDSTANDARDANSI
  2
AcmWeldingStdANSI
  3
"Amdt_StdImp|Product Description: AutoCAD Mechanical|Company: Autodesk"
 90
        0
 91
        1
280
     0
281
     0
  0
CLASS
  1
ACMIDSTANDARDANSI
  2
AcmIdStdANSI
  3
"Amdt_StdImp|Product Description: AutoCAD Mechanical|Company: Autodesk"
 90
        0
 91
        1
280
     0
281
     0
  0
CLASS
  1
ACMDATUMSTANDARDANSI
  2
AcmDatumStdANSI
  3
"Amdt_StdImp|Product Description: AutoCAD Mechanical|Company: Autodesk"
 90
        0
 91
        1
280
     0
281
     0
  0
CLASS
  1
ACMBOMSTANDARDANSI
  2
AcmBOMStdANSI
  3
"Amdt_StdImp|Product Description: AutoCAD Mechanical|Company: Autodesk"
 90
        0
 91
        1
280
     0
281
     0
  0
CLASS
  1
ACMDETAILSTANDARDANSI
  2
AmdtDetailSymStdANSI
  3
"Amdt_StdImp|Product Description: AutoCAD Mechanical|Company: Autodesk"
 90
        0
 91
        1
280
     0
281
     0
  0
CLASS
  1
ACMSECTIONSTANDARDANSI
  2
AmdtSectionSymStdANSI
  3
"Amdt_StdImp|Product Description: AutoCAD Mechanical|Company: Autodesk"
 90
        0
 91
        1
280
     0
281
     0
  0
CLASS
  1
ACMCENTERLINESTANDARDANSI
  2
AmdtCenterLineStdANSI
  3
"Amdt_StdImp|Product Description: AutoCAD Mechanical|Company: Autodesk"
 90
        0
 91
        1
280
     0
281
     0
  0
CLASS
  1
ACMBOM
  2
AcmBom
  3
"AcmSymBB|Product Description: AutoCAD Mechanical|Company: Autodesk"
 90
        0
 91
        1
280
     0
281
     0
  0
CLASS
  1
ACMDATAENTRYPART
  2
AcmDataEntryPart
  3
"AcmSymBB|Product Description: AutoCAD Mechanical|Company: Autodesk"
 90
        0
 91
        0
280
     0
281
     0
  0
CLASS
  1
ACMPARTREF
  2
AcmPartRef
  3
"AcmSymBB|Product Description: AutoCAD Mechanical|Company: Autodesk"
 90
     3071
 91
        0
280
     0
281
     1
  0
CLASS
  1
ACDBCIRCARCRES
  2
AcDbCircArcRes
  3
AcGrefServices
 90
        0
 91
        2
280
     0
281
     0
  0
CLASS
  1
ACMBOMROW
  2
AcmBomRow
  3
"AcmSymBB|Product Description: AutoCAD Mechanical|Company: Autodesk"
 90
        0
 91
        0
280
     0
281
     0
  0
CLASS
  1
ACMBALLOON
  2
AcmBalloon
  3
"AcmSymBB|Product Description: AutoCAD Mechanical|Company: Autodesk"
 90
     3071
 91
        0
280
     0
281
     1
  0
CLASS
  1
AMDTNOTE
  2
AmdtNote
  3
"AcmSymBB|Product Description: AutoCAD Mechanical|Company: Autodesk"
 90
     3071
 91
        0
280
     0
281
     1
  0
CLASS
  1
STDPART2D
  2
AmgStdPart
  3
"g3vace|Class: AmgStdPart|Product Description: AutoCAD Mechanical|Company: Autodesk"
 90
     3071
 91
        0
280
     0
281
     1
  0
CLASS
  1
ACDBSTDPARTRES_LINE
  2
AcDbStdPartRes_Line
  3
"g3vace|Class: AcDbStdPartRes_Line|Product Description: AutoCAD Mechanical|Company: Autodesk"
 90
        0
 91
        0
280
     0
281
     0
  0
CLASS
  1
ACMDATAENTRY
  2
AcmDataEntry
  3
"AcmSymBB|Product Description: AutoCAD Mechanical|Company: Autodesk"
 90
        0
 91
        9
280
     0
281
     0
  0
CLASS
  1
ACDBOPPOLYLINERES
  2
AcDbOpPolylineRes
  3
AcGrefServices
 90
        0
 91
        0
280
     0
281
     0
  0
CLASS
  1
ACMPARTLIST
  2
AcmPartList
  3
"AcmSymBB|Product Description: AutoCAD Mechanical|Company: Autodesk"
 90
     3071
 91
        0
280
     0
281
     1
  0
CLASS
  1
ACDBLINERES
  2
AcDbLineRes
  3
AcGrefServices
 90
        0
 91
        3
280
     0
281
     0
  0
CLASS
  1
ACRFINSADJ
  2
AcRfInsAdjuster
  3
AcMeServices
 90
        0
 91
        0
280
     0
281
     0
  0
CLASS
  1
AM_DRAWING_MGR
  2
AcDmDwgMgr
  3
AcMechDwgViewMgmt
 90
        0
 91
        1
280
     0
281
     0
  0
CLASS
  1
AM_DWG_DOCUMENT
  2
AcDmDwgDocument
  3
AcMechDwgViewMgmt
 90
        0
 91
        1
280
     0
281
     0
  0
CLASS
  1
AM_DWG_SHEET
  2
AcDmSheet
  3
AcMechDwgViewMgmt
 90
        0
 91
        2
280
     0
281
     0
  0
CLASS
  1
AM_VIEWDIMPARMAP
  2
AcDmViewDimParMap
  3
AcMechDwgViewMgmt
 90
        0
 91
        2
280
     0
281
     0
  0
CLASS
  1
AM_DWGMGR_NAME
  2
AcDmDwgMgrName
  3
AcMechDwgViewMgmt
 90
        0
 91
        1
280
     0
281
     0
  0
CLASS
  1
AMDTMENUSTATEMGR
  2
AmdtMenuStateMgr
  3
McadcomServices
 90
        0
 91
        1
280
     0
281
     0
  0
CLASS
  1
AMDTMCOMMENUSTATE
  2
AmdtMcomMenuState
  3
McadcomServices
 90
        0
 91
        1
280
     0
281
     0
  0
CLASS
  1
ASAPP
  2
AcAsAppObject
  3
AutoSurfServices
 90
        0
 91
        2
280
     0
281
     0
  0
CLASS
  1
IM_STATIC_MAN
  2
AcImStaticVarManager
  3
AcMeServices
 90
        0
 91
        1
280
     0
281
     0
  0
CLASS
  1
ACIMDBLSTATICVAR
  2
AcImDblStaticVar
  3
AcMeServices
 90
        0
 91
       20
280
     0
281
     0
  0
CLASS
  1
ACIMSTRSTATICVAR
  2
AcImStrStaticVar
  3
AcMeServices
 90
        0
 91
       12
280
     0
281
     0
  0
CLASS
  1
ACIMINTSTATICVAR
  2
AcImIntStaticVar
  3
AcMeServices
 90
        0
 91
       17
280
     0
281
     0
  0
CLASS
  1
ACASGREFMASTER
  2
AcAsGrefMaster
  3
AutoSurfResolverServices
 90
        0
 91
        2
280
     0
281
     0
  0
CLASS
  1
ACADGREFMODULE
  2
AcAdGrefModule
  3
AdGrefServices
 90
        0
 91
        2
280
     0
281
     0
  0
CLASS
  1
AMDTMAPISURFMOUDULE
  2
AmdtMApiSurfModule
  3
MApiSurfServices
 90
        0
 91
        2
280
     0
281
     0
  0
CLASS
  1
MAPIAMMOUDLE
  2
MApiAmModule
  3
MApiAmServices
 90
        0
 91
        1
280
     0
281
     0
  0
CLASS
  1
AMDTADMENUSTATE
  2
AmdtAdMenuState
  3
DesignerServices
 90
        0
 91
        1
280
     0
281
     0
  0
CLASS
  1
ADAPPL
  2
AcAdAppl
  3
DesignerServices
 90
        0
 91
        1
280
     0
281
     0
  0
CLASS
  1
DEPMGR
  2
AcAdDepMgr
  3
DesignerServices
 90
        0
 91
        1
280
     0
281
     0
  0
CLASS
  1
PARAMMGR
  2
AcAdParamMgr
  3
DesignerServices
 90
        0
 91
        1
280
     0
281
     0
  0
CLASS
  1
PARAMSCOPE
  2
AcAdParamScope
  3
DesignerServices
 90
        0
 91
        1
280
     0
281
     0
  0
CLASS
  1
NAMEDAPPL
  2
AcAdNamedAppl
  3
DesignerServices
 90
        0
 91
        1
280
     0
281
     0
  0
CLASS
  1
ADHNTMPLT
  2
AdHoleNoteTemplateMgr
  3
DesignerServices
 90
        0
 91
        0
280
     0
281
     0
  0
CLASS
  1
AM_HNTEMPLATE_MGR_NAME
  2
AdHoleNoteTemplateMgrName
  3
DesignerServices
 90
        0
 91
        0
280
     0
281
     0
  0
CLASS
  1
AMDTDMMENUSTATE
  2
AmdtDmMenuState
  3
AcMechDwgViewMgmt
 90
        0
 91
        1
280
     0
281
     0
  0
CLASS
  1
MAPIADMODULE
  2
MApiAdModule
  3
MApiAdServices
 90
        0
 91
        2
280
     0
281
     0
  0
CLASS
  1
AMDTAMMENUSTATE
  2
AmdtAmMenuState
  3
DesignerAssemblies
 90
        0
 91
        1
280
     0
281
     0
  0
CLASS
  1
ACAMPROJECT
  2
AcAmProject
  3
DesignerAssemblies
 90
        0
 91
        1
280
     0
281
     0
  0
CLASS
  1
ACAMGRCOMPDEF
  2
AcAmGrCompDef
  3
DesignerAssemblies
 90
        0
 91
        1
280
     0
281
     0
  0
CLASS
  1
ACCMCONTEXT
  2
AcCmContext
  3
DesignerAssemblies
 90
        0
 91
        1
280
     0
281
     0
  0
CLASS
  1
ACAMCOMPDEF
  2
AcAmCompDef
  3
DesignerAssemblies
 90
        0
 91
        1
280
     0
281
     0
  0
CLASS
  1
ACAMCOMPDEFMGR
  2
AcAmCompDefMgr
  3
DesignerAssemblies
 90
        0
 91
        1
280
     0
281
     0
  0
CLASS
  1
AMCONTEXTMGR
  2
AcAmContextMgr
  3
DesignerAssemblies
 90
        0
 91
        1
280
     0
281
     0
  0
CLASS
  1
ACAMCONTEXTMODELER
  2
AcAmContextModeler
  3
DesignerAssemblies
 90
        0
 91
        1
280
     0
281
     0
  0
CLASS
  1
CATALOGSTATE
  2
AcAmCatalogState
  3
DesignerAssemblies
 90
        0
 91
        1
280
     0
281
     0
  0
CLASS
  1
ACAMGRCOMPDEFSET
  2
AcAmGrCompDefSet
  3
DesignerAssemblies
 90
        0
 91
        1
280
     0
281
     0
  0
CLASS
  1
AMDTBROWSERDBTAB
  2
AmdtBrowserDbTab
  3
McadcomServices
 90
        0
 91
        1
280
     0
281
     0
  0
CLASS
  1
CBROWSERAPPOBJECT
  2
CBrowserAppObject
  3
McadcomServices
 90
        0
 91
        3
280
     0
281
     0
  0
CLASS
  1
DM_PLACEHOLDER
  2
AcDmSelsetPlaceholder
  3
AcMechDwgViewMgmt
 90
        0
 91
        1
280
     0
281
     0
  0
CLASS
  1
ACMPICKOBJ
  2
AcmPickEnt
  3
"AcmSymBB|Product Description: AutoCAD Mechanical|Company: Autodesk"
 90
        0
 91
        0
280
     0
281
     1
  0
CLASS
  1
ACMNOTESTANDARDISO
  2
AmdtNoteStdISO
  3
"Amdt_StdImp|Product Description: AutoCAD Mechanical|Company: Autodesk"
 90
        0
 91
        2
280
     0
281
     0
  0
CLASS
  1
ACMNOTESTANDARDANSI
  2
AmdtNoteStdANSI
  3
"Amdt_StdImp|Product Description: AutoCAD Mechanical|Company: Autodesk"
 90
        0
 91
        1
280
     0
281
     0
  0
CLASS
  1
ACMTHREADLINESTANDARDISO
  2
AmdtThreadLineStdISO
  3
"Amdt_StdImp|Product Description: AutoCAD Mechanical|Company: Autodesk"
 90
        0
 91
        2
280
     0
281
     0
  0
CLASS
  1
ACMTHREADLINESTANDARDANSI
  2
AmdtThreadLineStdANSI
  3
"Amdt_StdImp|Product Description: AutoCAD Mechanical|Company: Autodesk"
 90
        0
 91
        1
280
     0
281
     0
  0
CLASS
  1
TABLESTYLE
  2
AcDbTableStyle
  3
ObjectDBX Classes
 90
     4095
 91
        1
280
     0
281
     0
  0
CLASS
  1
SORTENTSTABLE
  2
AcDbSortentsTable
  3
ObjectDBX Classes
 90
        0
 91
        1
280
     0
281
     0
  0
CLASS
  1
MATERIAL
  2
AcDbMaterial
  3
ObjectDBX Classes
 90
     1024
 91
        3
280
     0
281
     0
  0
CLASS
  1
VISUALSTYLE
  2
AcDbVisualStyle
  3
ObjectDBX Classes
 90
     4095
 91
       16
280
     0
281
     0
  0
CLASS
  1
ACRFATTGENMGR
  2
AcRfAttGeneralMgr
  3
AcAttribServices
 90
        0
 91
        1
280
     0
281
     0
  0
CLASS
  1
ACRFOBJATTMGR
  2
AcRfObjAttGroupMgr
  3
AcAttribServices
 90
        0
 91
        1
280
     0
281
     0
  0
CLASS
  1
ACRFMCADAPIATTHOLDER
  2
AcRfMCADAPIAttHolder
  3
AcAttribServices
 90
        0
 91
        1
280
     0
281
     0
  0
CLASS
  1
AMDTSYSATTR
  2
AmdtSystemAttribute
  3
AcAttribServices
 90
        0
 91
        8
280
     0
281
     0
  0
CLASS
  1
ACMTAPERSTANDARDISO
  2
AcmTaperStdISO
  3
"Amdt_StdImp|Product Description: AutoCAD Mechanical|Company: Autodesk"
 90
        0
 91
        2
280
     0
281
     0
  0
CLASS
  1
CAMSSTRUCTBTNSTATE
  2
StructBtnState
  3
L"DesignerAssemblies"
 90
        0
 91
        1
280
     0
281
     0
  0
CLASS
  1
DIMASSOC
  2
AcDbDimAssoc
  3
"AcDbDimAssoc|Product Desc:     AcDim ARX App For Dimension|Company:          Autodesk, Inc.|WEB Address:      www.autodesk.com"
 90
        0
 91
        0
280
     0
281
     0
  0
CLASS
  1
AMDTNOTETEMPLATEDB
  2
AmdtNoteTemplateDB
  3
AMDT_STDIMP_MODULE_NAME
 90
        0
 91
       16
280
     0
281
     0
  0
CLASS
  1
ACMTAPERSTANDARDANSI
  2
AcmTaperStdANSI
  3
"Amdt_StdImp|Product Description: AutoCAD Mechanical|Company: Autodesk"
 90
        0
 91
        1
280
     0
281
     0
  0
CLASS
  1
ACAMGHOLECHARTSTDANSI
  2
AcAmgHoleChartStdANSI
  3
ACMSYMBB_MODULE_NAME
 90
        0
 91
        1
280
     0
281
     0
  0
CLASS
  1
AMDTEDGESTANDARDISO13715
  2
AmdtEdgeStdISO13715
  3
"Amdt_StdImp|Product Description: AutoCAD Mechanical|Company: Autodesk"
 90
        0
 91
        1
280
     0
281
     0
  0
CLASS
  1
ACAMGHOLECHARTSTDISO
  2
AcAmgHoleChartStdISO
  3
ACMSYMBB_MODULE_NAME
 90
        0
 91
        1
280
     0
281
     0
  0
CLASS
  1
AMDTACMWBLOCKBOMENTITY
  2
AmdtAcmWblockBomEntity
  3
"AcmSymBB|Product Description: AutoCAD Mechanical|Company: Autodesk"
 90
     3071
 91
        2
280
     0
281
     1
  0
ENDSEC
  0
SECTION
  2
TABLES
  0
TABLE
  2
VPORT
  5
8
102
{ACAD_XDICTIONARY
360
2357A
102
}
330
0
100
AcDbSymbolTable
 70
     1
  0
VPORT
  5
B0EC
330
8
100
AcDbSymbolTableRecord
100
AcDbViewportTableRecord
  2
*Active
 70
     0
 10
0.0
 20
0.0
 11
1.0
 21
1.0
 12
2786.69400785913
 22
-242.7190040924868
 13
0.0
 23
0.0
 14
2.5
 24
2.5
 15
10.0
 25
10.0
 16
0.0
 26
0.0
 36
1.0
 17
0.0
 27
0.0
 37
0.0
 40
319.2096358851915
 41
1.933649289099525
 42
50.0
 43
-1370.695619172058
 44
-1370.695619172058
 50
0.0
 51
0.0
 71
     0
 72
   100
 73
     1
 74
     3
 75
     0
 76
     0
 77
     0
 78
     0
281
     0
 65
     0
110
0.0
120
0.0
130
0.0
111
1.0
121
0.0
131
0.0
112
0.0
122
1.0
132
0.0
 79
     0
146
0.0
  0
ENDTAB
  0
TABLE
  2
LTYPE
  5
5
330
0
100
AcDbSymbolTable
 70
    32
  0
LTYPE
  5
14
330
5
100
AcDbSymbolTableRecord
100
AcDbLinetypeTableRecord
  2
ByBlock
 70
     0
  3

 72
    65
 73
     0
 40
0.0
  0
LTYPE
  5
15
330
5
100
AcDbSymbolTableRecord
100
AcDbLinetypeTableRecord
  2
ByLayer
 70
     0
  3

 72
    65
 73
     0
 40
0.0
  0
LTYPE
  5
16
330
5
100
AcDbSymbolTableRecord
100
AcDbLinetypeTableRecord
  2
Continuous
 70
     0
  3
Solid line
 72
    65
 73
     0
 40
0.0
  0
LTYPE
  5
4F
330
5
100
AcDbSymbolTableRecord
100
AcDbLinetypeTableRecord
  2
AM_ISO02W050
 70
     0
  3
__ __ __ __ __ __ __ __ __ __ __ __ __ __ __
 72
    65
 73
     2
 40
7.5
 49
6.0
 74
     0
 49
-1.5
 74
     0
  0
LTYPE
  5
52
330
5
100
AcDbSymbolTableRecord
100
AcDbLinetypeTableRecord
  2
Amconstr
 70
     0
  3
_______________________
 72
    65
 73
     2
 40
9999.0
 49
9999.0
 74
     0
 49
0.0
 74
     0
  0
LTYPE
  5
64
330
5
100
AcDbSymbolTableRecord
100
AcDbLinetypeTableRecord
  2
ACISOWELD
 70
     0
  3
_ _ _ _ _
 72
    65
 73
     2
 40
2.0
 49
2.0
 74
     0
 49
-1.0
 74
     0
  0
LTYPE
  5
65
330
5
100
AcDbSymbolTableRecord
100
AcDbLinetypeTableRecord
  2
ACISOTGB
 70
     0
  3
__ . . __ . .
 72
    65
 73
     6
 40
9.0
 49
4.0
 74
     0
 49
-1.0
 74
     0
 49
1.0
 74
     0
 49
-1.0
 74
     0
 49
1.0
 74
     0
 49
-1.0
 74
     0
  0
LTYPE
  5
66
330
5
100
AcDbSymbolTableRecord
100
AcDbLinetypeTableRecord
  2
ACISOTGL
 70
     0
  3
_ _ _ _ _
 72
    65
 73
     2
 40
3.0
 49
2.0
 74
     0
 49
-1.0
 74
     0
  0
LTYPE
  5
69
330
5
100
AcDbSymbolTableRecord
100
AcDbLinetypeTableRecord
  2
CENTER
 70
     0
  3
__ . __
 72
    65
 73
     4
 40
7.0
 49
4.0
 74
     0
 49
-1.0
 74
     0
 49
1.0
 74
     0
 49
-1.0
 74
     0
  0
LTYPE
  5
A6E
330
5
100
AcDbSymbolTableRecord
100
AcDbLinetypeTableRecord
  2
PHANTOM2
 70
     0
  3
Phantom (.5x) ___ _ _ ___ _ _ ___ _ _ ___ _ _
 72
    65
 73
     6
 40
31.75
 49
15.875
 74
     0
 49
-3.174999999999999
 74
     0
 49
3.174999999999999
 74
     0
 49
-3.174999999999999
 74
     0
 49
3.174999999999999
 74
     0
 49
-3.174999999999999
 74
     0
  0
LTYPE
  5
4DED
330
5
100
AcDbSymbolTableRecord
100
AcDbLinetypeTableRecord
  2
中線
 70
     0
  3
___________________
 72
    65
 73
     2
 40
2.0
 49
1.0
 74
     0
 49
1.0
 74
     0
  0
LTYPE
  5
4DF6
330
5
100
AcDbSymbolTableRecord
100
AcDbLinetypeTableRecord
  2
細線
 70
     0
  3
___________________
 72
    65
 73
     2
 40
2.0
 49
1.0
 74
     0
 49
1.0
 74
     0
  0
LTYPE
  5
4DF7
330
5
100
AcDbSymbolTableRecord
100
AcDbLinetypeTableRecord
  2
太線
 70
     0
  3
___________________
 72
    65
 73
     2
 40
2.0
 49
1.0
 74
     0
 49
1.0
 74
     0
  0
LTYPE
  5
4EA7
330
5
100
AcDbSymbolTableRecord
100
AcDbLinetypeTableRecord
  2
文字
 70
     0
  3
_________________
 72
    65
 73
     2
 40
2.0
 49
1.0
 74
     0
 49
1.0
 74
     0
  0
LTYPE
  5
4EA9
330
5
100
AcDbSymbolTableRecord
100
AcDbLinetypeTableRecord
  2
寸法線
 70
     0
  3
________________
 72
    65
 73
     2
 40
2.0
 49
1.0
 74
     0
 49
1.0
 74
     0
  0
LTYPE
  5
4F12
330
5
100
AcDbSymbolTableRecord
100
AcDbLinetypeTableRecord
  2
ハッチング
 70
     0
  3
_________________
 72
    65
 73
     2
 40
2.0
 49
1.0
 74
     0
 49
1.0
 74
     0
  0
LTYPE
  5
5180
330
5
100
AcDbSymbolTableRecord
100
AcDbLinetypeTableRecord
  2
陰線1
 70
     0
  3
__ __ __ __
 72
    65
 73
     2
 40
4.0
 49
2.2
 74
     0
 49
-1.8
 74
     0
  0
LTYPE
  5
5182
330
5
100
AcDbSymbolTableRecord
100
AcDbLinetypeTableRecord
  2
切断線
 70
     0
  3
/\/-/\/-/\/-/\/-/\/-/\/
 72
    65
 73
     2
 40
11.0001
 49
0.0001
 74
     4
 75
   135
340
56
 46
0.04
 50
0.0
 44
0.0
 45
0.0
 49
-11.0
 74
     0
  0
LTYPE
  5
5183
330
5
100
AcDbSymbolTableRecord
100
AcDbLinetypeTableRecord
  2
想像線1
 70
     0
  3
__ __ __ _____ __ __ ____
 72
    65
 73
     6
 40
14.5
 49
6.0
 74
     0
 49
-1.5
 74
     0
 49
2.0
 74
     0
 49
-1.5
 74
     0
 49
2.0
 74
     0
 49
-1.5
 74
     0
  0
LTYPE
  5
5185
330
5
100
AcDbSymbolTableRecord
100
AcDbLinetypeTableRecord
  2
中心線1
 70
     0
  3
___ _ ___ _ ___
 72
    65
 73
     4
 40
18.0
 49
12.0
 74
     0
 49
-2.0
 74
     0
 49
2.0
 74
     0
 49
-2.0
 74
     0
  0
LTYPE
  5
5188
330
5
100
AcDbSymbolTableRecord
100
AcDbLinetypeTableRecord
  2
補助線
 70
     0
  3
______________
 72
    65
 73
     2
 40
2.0
 49
1.0
 74
     0
 49
1.0
 74
     0
  0
LTYPE
  5
6427
330
5
100
AcDbSymbolTableRecord
100
AcDbLinetypeTableRecord
  2
HIDDEN
 70
     0
  3
Hidden __ __ __ __ __ __ __ __ __ __ __ __ __ _
 72
    65
 73
     2
 40
0.375
 49
0.25
 74
     0
 49
-0.125
 74
     0
  0
LTYPE
  5
AC81
330
5
100
AcDbSymbolTableRecord
100
AcDbLinetypeTableRecord
  2
破断線
 70
     0
  3
/\/-/\/-/\/-/\/-/\/-/\/
 72
    65
 73
     2
 40
0.4401
 49
0.0001
 74
     4
 75
   136
340
AC80
 46
0.0016
 50
0.0
 44
0.0
 45
0.0
 49
-0.4400000000000001
 74
     0
  0
LTYPE
  5
AC9E
330
5
100
AcDbSymbolTableRecord
100
AcDbLinetypeTableRecord
  2
Amzigzag
 70
     0
  3
/\/-/\/-/\/-/\/-/\/-/\/
 72
    65
 73
     2
 40
11.0001
 49
0.0001
 74
     4
 75
   135
340
56
 46
0.04
 50
0.0
 44
0.0
 45
0.0
 49
-11.0
 74
     0
  0
LTYPE
  5
AF0F
330
5
100
AcDbSymbolTableRecord
100
AcDbLinetypeTableRecord
  2
genzigzag
 70
     0
  3
/\/-/\/-/\/-/\/-/\/-/\/
 72
    65
 73
     2
 40
12.0001
 49
0.0001
 74
     4
 75
   135
340
AC80
 46
2.0
 50
0.0
 44
0.0
 45
0.0
 49
-12.0
 74
     0
  0
LTYPE
  5
AF95
330
5
100
AcDbSymbolTableRecord
100
AcDbLinetypeTableRecord
  2
AM_ISO08W050
 70
     0
  3
____ . ____ . ____ . ____ . ____ . ____ . ____
 72
    65
 73
     4
 40
18.0
 49
12.0
 74
     0
 49
-1.5
 74
     0
 49
3.0
 74
     0
 49
-1.5
 74
     0
  0
LTYPE
  5
AF96
330
5
100
AcDbSymbolTableRecord
100
AcDbLinetypeTableRecord
  2
AM_ISO09W050
 70
     0
  3
_____ . . _____ . . _____ . . ____ .. ____
 72
    65
 73
     6
 40
22.5
 49
12.0
 74
     0
 49
-1.5
 74
     0
 49
3.0
 74
     0
 49
-1.5
 74
     0
 49
3.0
 74
     0
 49
-1.5
 74
     0
  0
LTYPE
  5
AF97
330
5
100
AcDbSymbolTableRecord
100
AcDbLinetypeTableRecord
  2
AM_ISO08W050x2
 70
     0
  3
__ . __ . __ . __ . __ . __
 72
    65
 73
     4
 40
9.0
 49
6.0
 74
     0
 49
-0.75
 74
     0
 49
1.5
 74
     0
 49
-0.75
 74
     0
  0
LTYPE
  5
AF98
330
5
100
AcDbSymbolTableRecord
100
AcDbLinetypeTableRecord
  2
AM_ISO02W050x2
 70
     0
  3
 _ _ _ _ _ _ _ _ _ _ _ _
 72
    65
 73
     2
 40
3.75
 49
3.0
 74
     0
 49
-0.75
 74
     0
  0
LTYPE
  5
D0F2
330
5
100
AcDbSymbolTableRecord
100
AcDbLinetypeTableRecord
  2
ACANSTGB
 70
     0
  3
__ . . __ . .
 72
    65
 73
     6
 40
0.35433070866
 49
0.15748031496
 74
     0
 49
-0.03937007874
 74
     0
 49
0.03937007874
 74
     0
 49
-0.03937007874
 74
     0
 49
0.03937007874
 74
     0
 49
-0.03937007874
 74
     0
  0
LTYPE
  5
D0F3
330
5
100
AcDbSymbolTableRecord
100
AcDbLinetypeTableRecord
  2
ACANSTGL
 70
     0
  3
_ _ _ _ _
 72
    65
 73
     2
 40
0.11811023622
 49
0.07874015748
 74
     0
 49
-0.03937007874
 74
     0
  0
LTYPE
  5
D0F4
330
5
100
AcDbSymbolTableRecord
100
AcDbLinetypeTableRecord
  2
CENTER2
 70
     0
  3
Center (.5x) ___ _ ___ _ ___ _ ___ _ ___ _ ___
 72
    65
 73
     4
 40
1.125
 49
0.75
 74
     0
 49
-0.125
 74
     0
 49
0.125
 74
     0
 49
-0.125
 74
     0
  0
LTYPE
  5
D0F5
330
5
100
AcDbSymbolTableRecord
100
AcDbLinetypeTableRecord
  2
HIDDEN2
 70
     0
  3
Hidden (.5x) _ _ _ _ _ _ _ _ _ _ _ _ _ _ _ _ _
 72
    65
 73
     2
 40
0.1875
 49
0.125
 74
     0
 49
-0.0625
 74
     0
  0
LTYPE
  5
D0F6
330
5
100
AcDbSymbolTableRecord
100
AcDbLinetypeTableRecord
  2
AMZIGZAG2
 70
     0
  3
/\/-/\/-/\/-/\/-/\/-/\/
 72
    65
 73
     2
 40
0.4401
 49
0.0001
 74
     0
 49
-0.4400000000000003
 74
     0
  0
ENDTAB
  0
TABLE
  2
LAYER
  5
2
102
{ACAD_XDICTIONARY
360
3F95
102
}
330
0
100
AcDbSymbolTable
 70
     8
  0
LAYER
  5
10
330
2
100
AcDbSymbolTableRecord
100
AcDbLayerTableRecord
  2
0
 70
     0
 62
     7
  6
Continuous
370
    -3
390
F
  0
LAYER
  5
6D1
330
2
100
AcDbSymbolTableRecord
100
AcDbLayerTableRecord
  2
Defpoints
 70
     0
 62
     7
  6
Continuous
290
     0
370
    -3
390
F
  0
LAYER
  5
5F85
330
2
100
AcDbSymbolTableRecord
100
AcDbLayerTableRecord
  2
AM_0
 70
     0
 62
     7
  6
中線
370
    30
390
F
1001
AcAecLayerStandard
1000

1000

  0
LAYER
  5
ACA1
330
2
100
AcDbSymbolTableRecord
100
AcDbLayerTableRecord
  2
AM_6
 70
     0
 62
     2
  6
文字
370
    13
390
F
1001
AcAecLayerStandard
1000

1000

  0
LAYER
  5
AD60
330
2
100
AcDbSymbolTableRecord
100
AcDbLayerTableRecord
  2
AM_1
 70
     0
 62
    30
  6
太線
370
    40
390
F
1001
AcAecLayerStandard
1000

1000

  0
LAYER
  5
AD64
330
2
100
AcDbSymbolTableRecord
100
AcDbLayerTableRecord
  2
AM_2
 70
     0
 62
     1
  6
細線
370
    13
390
F
1001
AcAecLayerStandard
1000

1000

  0
LAYER
  5
AD68
330
2
100
AcDbSymbolTableRecord
100
AcDbLayerTableRecord
  2
AM_5
 70
     0
 62
     3
  6
寸法線
370
    13
390
F
1001
AcAecLayerStandard
1000

1000

  0
LAYER
  5
AD69
330
2
100
AcDbSymbolTableRecord
100
AcDbLayerTableRecord
  2
AM_7
 70
     0
 62
     4
  6
中心線1
370
    13
390
F
1001
AcAecLayerStandard
1000

1000

  0
ENDTAB
  0
TABLE
  2
STYLE
  5
3
330
0
100
AcDbSymbolTable
 70
     9
  0
STYLE
  5
11
330
3
100
AcDbSymbolTableRecord
100
AcDbTextStyleTableRecord
  2
STANDARD
 70
     0
 40
0.0
 41
0.7
 50
0.0
 71
     0
 42
3.2
  3
romans.shx
  4
extfont.shx
  0
STYLE
  5
56
330
3
100
AcDbSymbolTableRecord
100
AcDbTextStyleTableRecord
  2

 70
     1
 40
0.0
 41
1.0
 50
0.0
 71
     0
 42
2.5
  3
ltypeshp.shx
  4

  0
STYLE
  5
58
330
3
100
AcDbSymbolTableRecord
100
AcDbTextStyleTableRecord
  2
ACISOTS
 70
     0
 40
1.0
 41
1.0
 50
0.0
 71
     0
 42
2.5
  3
isocp.shx
  4
extfont.shx
  0
STYLE
  5
63
330
3
100
AcDbSymbolTableRecord
100
AcDbTextStyleTableRecord
  2
ACISOGDT
 70
     0
 40
0.0
 41
1.0
 50
0.0
 71
     0
 42
2.5
  3
amgdt.shx
  4

  0
STYLE
  5
A74
330
3
100
AcDbSymbolTableRecord
100
AcDbTextStyleTableRecord
  2
DIM
 70
     0
 40
0.0
 41
1.0
 50
0.0
 71
     0
 42
2.5
  3
monotxt.shx
  4
extfont.shx
  0
STYLE
  5
AC80
330
3
100
AcDbSymbolTableRecord
100
AcDbTextStyleTableRecord
  2

 70
     1
 40
0.0
 41
1.0
 50
0.0
 71
     0
 42
3.2
  3
genltshp.shx
  4

  0
STYLE
  5
D104
330
3
100
AcDbSymbolTableRecord
100
AcDbTextStyleTableRecord
  2
ACANSTS
 70
     0
 40
1.0
 41
1.0
 50
0.0
 71
     0
 42
0.2
  3
romans.shx
  4
extfont.shx
  0
STYLE
  5
D105
330
3
100
AcDbSymbolTableRecord
100
AcDbTextStyleTableRecord
  2
ACANSGDT
 70
     0
 40
0.0
 41
1.0
 50
0.0
 71
     0
 42
0.2
  3
amgdt.shx
  4

  0
STYLE
  5
D106
330
3
100
AcDbSymbolTableRecord
100
AcDbTextStyleTableRecord
  2
CONVERT
 70
     0
 40
0.0
 41
1.0
 50
0.0
 71
     0
 42
3.2
  3
monotxt.shx
  4
extfont.shx
  0
ENDTAB
  0
TABLE
  2
VIEW
  5
6
330
0
100
AcDbSymbolTable
 70
     6
  0
VIEW
  5
AE1
330
6
100
AcDbSymbolTableRecord
100
AcDbViewTableRecord
  2
AM_VIEW1
 70
     0
 40
297.0
 10
3130.464823158679
 20
1840.057920112307
 41
573.9656804733726
 11
0.0
 21
0.0
 31
1.0
 12
0.0
 22
0.0
 32
0.0
 42
50.0
 43
-1370.695619172058
 44
-1370.695619172058
 50
0.0
 71
     0
281
     0
 72
     0
  0
VIEW
  5
AE2
330
6
100
AcDbSymbolTableRecord
100
AcDbViewTableRecord
  2
AM_VIEW2
 70
     0
 40
297.0
 10
3396.499142685307
 20
1840.057920112307
 41
573.9656804733726
 11
0.0
 21
0.0
 31
1.0
 12
0.0
 22
0.0
 32
0.0
 42
50.0
 43
-1370.695619172058
 44
-1370.695619172058
 50
0.0
 71
     0
281
     0
 72
     0
  0
VIEW
  5
AE3
330
6
100
AcDbSymbolTableRecord
100
AcDbViewTableRecord
  2
AM_VIEW3
 70
     0
 40
297.0
 10
3130.464823158679
 20
1543.057920112307
 41
573.9656804733726
 11
0.0
 21
0.0
 31
1.0
 12
0.0
 22
0.0
 32
0.0
 42
50.0
 43
-1370.695619172058
 44
-1370.695619172058
 50
0.0
 71
     0
281
     0
 72
     0
  0
VIEW
  5
AE4
330
6
100
AcDbSymbolTableRecord
100
AcDbViewTableRecord
  2
AM_VIEW4
 70
     0
 40
297.0
 10
3396.499142685307
 20
1543.057920112307
 41
573.9656804733726
 11
0.0
 21
0.0
 31
1.0
 12
0.0
 22
0.0
 32
0.0
 42
50.0
 43
-1370.695619172058
 44
-1370.695619172058
 50
0.0
 71
     0
281
     0
 72
     0
  0
VIEW
  5
AE5
330
6
100
AcDbSymbolTableRecord
100
AcDbViewTableRecord
  2
AM_VIEW5
 70
     0
 40
297.0
 10
3263.481982921993
 20
1691.557920112307
 41
573.9656804733731
 11
0.0
 21
0.0
 31
1.0
 12
0.0
 22
0.0
 32
0.0
 42
50.0
 43
-1370.695619172058
 44
-1370.695619172058
 50
0.0
 71
     0
281
     0
 72
     0
  0
VIEW
  5
AE6
330
6
100
AcDbSymbolTableRecord
100
AcDbViewTableRecord
  2
AM_VIEW6
 70
     0
 40
593.9940599999999
 10
3263.481982921993
 20
1691.557920112307
 41
1147.919881633136
 11
0.0
 21
0.0
 31
1.0
 12
0.0
 22
0.0
 32
0.0
 42
50.0
 43
-1370.695619172058
 44
-1370.695619172058
 50
0.0
 71
     0
281
     0
 72
     0
  0
ENDTAB
  0
TABLE
  2
UCS
  5
7
330
0
100
AcDbSymbolTable
 70
     0
  0
ENDTAB
  0
TABLE
  2
APPID
  5
9
330
0
100
AcDbSymbolTable
 70
    56
  0
APPID
  5
12
330
9
100
AcDbSymbolTableRecord
100
AcDbRegAppTableRecord
  2
ACAD
 70
     0
  0
APPID
  5
30
330
9
100
AcDbSymbolTableRecord
100
AcDbRegAppTableRecord
  2
MCAD_NO_VIS
 70
     0
  0
APPID
  5
31
330
9
100
AcDbSymbolTableRecord
100
AcDbRegAppTableRecord
  2
ACAD_TEMP_GRAPHIC
 70
     0
  0
APPID
  5
44
330
9
100
AcDbSymbolTableRecord
100
AcDbRegAppTableRecord
  2
ACATTRIBSERVICES
 70
     0
  0
APPID
  5
7A1
330
9
100
AcDbSymbolTableRecord
100
AcDbRegAppTableRecord
  2
GENIUS_GENDIMSH_14
 70
     0
  0
APPID
  5
A49
330
9
100
AcDbSymbolTableRecord
100
AcDbRegAppTableRecord
  2
GENIUS_GENREC_14
 70
     0
  0
APPID
  5
A4A
330
9
100
AcDbSymbolTableRecord
100
AcDbRegAppTableRecord
  2
GENIUS_GENOBJ-N-REC_13
 70
     0
  0
APPID
  5
A4B
330
9
100
AcDbSymbolTableRecord
100
AcDbRegAppTableRecord
  2
GENIUS_GENODEF_13
 70
     0
  0
APPID
  5
A4C
330
9
100
AcDbSymbolTableRecord
100
AcDbRegAppTableRecord
  2
DCO15
 70
     0
  0
APPID
  5
ADC
330
9
100
AcDbSymbolTableRecord
100
AcDbRegAppTableRecord
  2
GENIUS_GENOLIS_13
 70
     0
  0
APPID
  5
ADD
330
9
100
AcDbSymbolTableRecord
100
AcDbRegAppTableRecord
  2
GENIUS_GENOENT_13
 70
     0
  0
APPID
  5
ADE
330
9
100
AcDbSymbolTableRecord
100
AcDbRegAppTableRecord
  2
GENIUS_GENOBJ-N-TIT_13
 70
     0
  0
APPID
  5
ADF
330
9
100
AcDbSymbolTableRecord
100
AcDbRegAppTableRecord
  2
GENIUS_GENTITLE_13
 70
     0
  0
APPID
  5
AE0
330
9
100
AcDbSymbolTableRecord
100
AcDbRegAppTableRecord
  2
GENIUS_GENOREF_13
 70
     0
  0
APPID
  5
AE7
330
9
100
AcDbSymbolTableRecord
100
AcDbRegAppTableRecord
  2
GENIUS_GENSCREG_15
 70
     0
  0
APPID
  5
AE8
330
9
100
AcDbSymbolTableRecord
100
AcDbRegAppTableRecord
  2
GENIUS_GENOBJ-N-SDF_13
 70
     0
  0
APPID
  5
FAF
330
9
100
AcDbSymbolTableRecord
100
AcDbRegAppTableRecord
  2
GENIUS_GENBLLY_14
 70
     0
  0
APPID
  5
FB0
330
9
100
AcDbSymbolTableRecord
100
AcDbRegAppTableRecord
  2
GENIUS_GENTRA_14
 70
     0
  0
APPID
  5
1285
330
9
100
AcDbSymbolTableRecord
100
AcDbRegAppTableRecord
  2
GENIUS_GENDTOL_13
 70
     0
  0
APPID
  5
142D
330
9
100
AcDbSymbolTableRecord
100
AcDbRegAppTableRecord
  2
GENIUS_GENOBJ-N-CEN_13
 70
     0
  0
APPID
  5
1AB5
330
9
100
AcDbSymbolTableRecord
100
AcDbRegAppTableRecord
  2
GENIUS_GENOBJ-N-CRS_13
 70
     0
  0
APPID
  5
1B36
330
9
100
AcDbSymbolTableRecord
100
AcDbRegAppTableRecord
  2
GENIUS_GENOBJ-N-HTC_13
 70
     0
  0
APPID
  5
1B37
330
9
100
AcDbSymbolTableRecord
100
AcDbRegAppTableRecord
  2
GENIUS_GENHATCH_13
 70
     0
  0
APPID
  5
216D
330
9
100
AcDbSymbolTableRecord
100
AcDbRegAppTableRecord
  2
GENIUS_GENOBJ-N-FIL_13
 70
     0
  0
APPID
  5
2356
330
9
100
AcDbSymbolTableRecord
100
AcDbRegAppTableRecord
  2
GEVID990412420
 70
     0
  0
APPID
  5
2357
330
9
100
AcDbSymbolTableRecord
100
AcDbRegAppTableRecord
  2
GEVDC
 70
     0
  0
APPID
  5
2358
330
9
100
AcDbSymbolTableRecord
100
AcDbRegAppTableRecord
  2
GEVCON
 70
     0
  0
APPID
  5
235B
330
9
100
AcDbSymbolTableRecord
100
AcDbRegAppTableRecord
  2
GEVRADREF
 70
     0
  0
APPID
  5
2360
330
9
100
AcDbSymbolTableRecord
100
AcDbRegAppTableRecord
  2
GENIUS_GENBH_13
 70
     0
  0
APPID
  5
2362
330
9
100
AcDbSymbolTableRecord
100
AcDbRegAppTableRecord
  2
GENIUS_GENOBJ-NBEHI-BHF_13
 70
     0
  0
APPID
  5
2364
330
9
100
AcDbSymbolTableRecord
100
AcDbRegAppTableRecord
  2
GENIUS_GENOBJ-NBEHI-BHB_13
 70
     0
  0
APPID
  5
2379
330
9
100
AcDbSymbolTableRecord
100
AcDbRegAppTableRecord
  2
GENIUS_GENOBJ-F-SCPASSM_13
 70
     0
  0
APPID
  5
3D74
330
9
100
AcDbSymbolTableRecord
100
AcDbRegAppTableRecord
  2
GENIUS_GENDIM_13
 70
     0
  0
APPID
  5
3D76
330
9
100
AcDbSymbolTableRecord
100
AcDbRegAppTableRecord
  2
GENIUS_GE3DTOL_13
 70
     0
  0
APPID
  5
3D9C
330
9
100
AcDbSymbolTableRecord
100
AcDbRegAppTableRecord
  2
AD_DRAW
 70
     0
  0
APPID
  5
3DE8
330
9
100
AcDbSymbolTableRecord
100
AcDbRegAppTableRecord
  2
ASURF_PCURVE_APPNAME
 70
     0
  0
APPID
  5
3DED
330
9
100
AcDbSymbolTableRecord
100
AcDbRegAppTableRecord
  2
AMG_3D2D_5.0
 70
     0
  0
APPID
  5
3E1B
330
9
100
AcDbSymbolTableRecord
100
AcDbRegAppTableRecord
  2
DESIGNERASSEMBLIES
 70
     0
  0
APPID
  5
3E20
330
9
100
AcDbSymbolTableRecord
100
AcDbRegAppTableRecord
  2
ACADM_DIM_EDIT
 70
     0
  0
APPID
  5
3E21
330
9
100
AcDbSymbolTableRecord
100
AcDbRegAppTableRecord
  2
AMDT_DM_ADJ
 70
     0
  0
APPID
  5
4143
330
9
100
AcDbSymbolTableRecord
100
AcDbRegAppTableRecord
  2
GENIUS_GENFIL_13
 70
     0
  0
APPID
  5
4144
330
9
100
AcDbSymbolTableRecord
100
AcDbRegAppTableRecord
  2
GENIUS_GENOBJ-N-CHA_13
 70
     0
  0
APPID
  5
4E17
330
9
100
AcDbSymbolTableRecord
100
AcDbRegAppTableRecord
  2
GEVID1008153417
 70
     0
  0
APPID
  5
4E58
330
9
100
AcDbSymbolTableRecord
100
AcDbRegAppTableRecord
  2
GEVID1008153418
 70
     0
  0
APPID
  5
4E5E
330
9
100
AcDbSymbolTableRecord
100
AcDbRegAppTableRecord
  2
GEVID1008153419
 70
     0
  0
APPID
  5
4E64
330
9
100
AcDbSymbolTableRecord
100
AcDbRegAppTableRecord
  2
GEVID1008153420
 70
     0
  0
APPID
  5
4E75
330
9
100
AcDbSymbolTableRecord
100
AcDbRegAppTableRecord
  2
GEVID1008153421
 70
     0
  0
APPID
  5
4EB7
330
9
100
AcDbSymbolTableRecord
100
AcDbRegAppTableRecord
  2
GENIUS_AMGTXT_16
 70
     0
  0
APPID
  5
7645
330
9
100
AcDbSymbolTableRecord
100
AcDbRegAppTableRecord
  2
GENIUS_GENOBJ-N-DIM_13
 70
     0
  0
APPID
  5
AAD0
330
9
100
AcDbSymbolTableRecord
100
AcDbRegAppTableRecord
  2
ACAD_DSTYLE_DIMARC_LENGTH_SYMBOL
 70
     0
  0
APPID
  5
AAD1
330
9
100
AcDbSymbolTableRecord
100
AcDbRegAppTableRecord
  2
ACAD_DSTYLE_DIMJOGGED_JOGANGLE_SYMBOL
 70
     0
  0
APPID
  5
AAFD
330
9
100
AcDbSymbolTableRecord
100
AcDbRegAppTableRecord
  2
ACAD_PSEXT
 70
     0
  0
APPID
  5
AD61
330
9
100
AcDbSymbolTableRecord
100
AcDbRegAppTableRecord
  2
AcAecLayerStandard
 70
     0
  0
APPID
  5
AEE3
330
9
100
AcDbSymbolTableRecord
100
AcDbRegAppTableRecord
  2
ACAD_EXEMPT_FROM_CAD_STANDARDS
 70
     0
  0
APPID
  5
B1BE
330
9
100
AcDbSymbolTableRecord
100
AcDbRegAppTableRecord
  2
GENIUS_GENCEN_19
 70
     0
  0
APPID
  5
B4DF
330
9
100
AcDbSymbolTableRecord
100
AcDbRegAppTableRecord
  2
ACAD_MLEADERVER
 70
     0
  0
ENDTAB
  0
TABLE
  2
DIMSTYLE
  5
A
330
0
100
AcDbSymbolTable
 70
    26
100
AcDbDimStyleTable
 71
     1
340
2515
  0
DIMSTYLE
105
A76
330
A
100
AcDbSymbolTableRecord
100
AcDbDimStyleTableRecord
  2
STANDARD
 70
     0
 41
3.0
 42
1.0
 43
7.0
 44
2.0
 73
     0
 74
     0
 77
     1
140
2.799999999999999
141
0.0
143
0.0394
147
0.7
171
     4
172
     1
173
     1
176
     3
177
     3
178
     2
271
     3
272
     3
273
     8
274
     4
289
     0
340
A74
341
A66
343
A66
344
A66
  0
DIMSTYLE
105
2515
330
A
100
AcDbSymbolTableRecord
100
AcDbDimStyleTableRecord
  2
SYS
 70
     0
  4
"
 41
1.0
 42
1.0
 43
10.0
 44
1.0
 47
0.1
 48
0.1
 73
     0
 74
     0
 77
     1
 78
     8
 79
     2
140
3.5
141
0.0
143
0.0393701
146
0.71
147
1.5
172
     1
176
   256
177
   256
178
     7
271
     2
272
     2
283
     0
284
     8
340
11
371
    -1
372
    -1
1001
ACAD_DSTYLE_DIMJOGGED_JOGANGLE_SYMBOL
1070
   384
1040
0.7853981633974483
1001
ACAD_DSTYLE_DIMARC_LENGTH_SYMBOL
1070
   379
1070
     1
  0
DIMSTYLE
105
2516
330
A
100
AcDbSymbolTableRecord
100
AcDbDimStyleTableRecord
  2
SYS$3
 70
     0
  4
"
 41
2.0
 42
1.0
 43
10.0
 44
1.0
 47
0.1
 48
0.1
 73
     0
 77
     1
 78
     8
 79
     2
140
3.5
141
0.0
143
0.0393701
146
0.71
147
1.5
176
   256
177
   256
178
     2
271
     2
272
     2
283
     0
284
     8
288
     1
340
11
342
A66
371
    -1
372
    -1
1001
ACAD_DSTYLE_DIMJOGGED_JOGANGLE_SYMBOL
1070
   384
1040
0.7853981633974483
1001
ACAD_DSTYLE_DIMARC_LENGTH_SYMBOL
1070
   379
1070
     1
  0
DIMSTYLE
105
2517
330
A
100
AcDbSymbolTableRecord
100
AcDbDimStyleTableRecord
  2
SYS$4
 70
     0
  4
"
 41
2.0
 42
1.0
 43
10.0
 44
1.0
 47
0.1
 48
0.1
 73
     0
 77
     1
 78
     8
 79
     2
140
3.5
141
0.0
143
0.0393701
146
0.71
147
1.5
173
     1
176
   256
177
   256
178
     2
271
     2
272
     2
283
     0
284
     8
288
     1
340
11
344
A66
371
    -1
372
    -1
1001
ACAD_DSTYLE_DIMJOGGED_JOGANGLE_SYMBOL
1070
   384
1040
0.7853981633974483
1001
ACAD_DSTYLE_DIMARC_LENGTH_SYMBOL
1070
   379
1070
     1
  0
DIMSTYLE
105
2518
330
A
100
AcDbSymbolTableRecord
100
AcDbDimStyleTableRecord
  2
SYS$6
 70
     0
  4
"
 41
2.0
 42
1.0
 43
10.0
 44
1.0
 47
0.1
 48
0.1
 73
     0
 74
     0
 78
     8
 79
     2
140
3.5
141
0.0
143
0.0393701
146
0.71
147
1.5
172
     1
176
   256
177
   256
178
     2
271
     2
272
     2
283
     0
284
     8
340
11
341
A66
371
    -1
372
    -1
1001
ACAD_DSTYLE_DIMJOGGED_JOGANGLE_SYMBOL
1070
   384
1040
0.7853981633974483
1001
ACAD_DSTYLE_DIMARC_LENGTH_SYMBOL
1070
   379
1070
     1
  0
DIMSTYLE
105
2519
330
A
100
AcDbSymbolTableRecord
100
AcDbDimStyleTableRecord
  2
SYS$7
 70
     0
  4
"
 41
2.0
 42
1.0
 43
10.0
 44
1.0
 47
0.1
 48
0.1
 73
     0
 74
     0
 77
     1
 78
     8
 79
     2
140
5.0
141
0.0
143
0.0393701
146
0.71
147
1.5
172
     1
176
   256
177
   256
178
     2
271
     2
272
     2
283
     0
284
     8
340
11
341
A66
342
A66
371
    -1
372
    -1
1001
ACAD_DSTYLE_DIMJOGGED_JOGANGLE_SYMBOL
1070
   384
1040
0.7853981633974483
1001
ACAD_DSTYLE_DIMARC_LENGTH_SYMBOL
1070
   379
1070
     1
  0
DIMSTYLE
105
251A
330
A
100
AcDbSymbolTableRecord
100
AcDbDimStyleTableRecord
  2
SYS$SF
 70
     0
  4
"
 41
2.5
 42
1.0
 43
10.0
 44
1.0
 47
0.1
 48
0.1
 73
     0
 74
     0
 75
     1
 76
     1
 77
     1
 78
     8
 79
     2
140
3.5
141
0.0
143
0.0393701
146
0.71
147
1.5
172
     1
176
   256
177
   256
178
     2
271
     2
272
     3
283
     0
284
     8
340
11
341
6C4
342
6C4
371
    -1
372
    -1
1001
ACAD_DSTYLE_DIMJOGGED_JOGANGLE_SYMBOL
1070
   384
1040
0.7853981633974483
1001
ACAD_DSTYLE_DIMARC_LENGTH_SYMBOL
1070
   379
1070
     1
  0
DIMSTYLE
105
251B
330
A
100
AcDbSymbolTableRecord
100
AcDbDimStyleTableRecord
  2
SYS$SH
 70
     0
  4
"
 41
2.5
 42
1.0
 43
10.0
 44
1.0
 47
0.1
 48
0.1
 73
     0
 74
     0
 75
     1
 76
     1
 77
     1
 78
     8
 79
     2
140
3.5
141
0.0
143
0.0393701
144
2.0
146
0.71
147
1.5
172
     1
173
     1
176
   256
177
   256
178
     2
271
     2
272
     3
283
     0
284
     8
340
11
341
6C4
343
72
344
6C4
371
    -1
372
    -1
1001
ACAD_DSTYLE_DIMJOGGED_JOGANGLE_SYMBOL
1070
   384
1040
0.7853981633974483
1001
ACAD_DSTYLE_DIMARC_LENGTH_SYMBOL
1070
   379
1070
     1
  0
DIMSTYLE
105
2A59
330
A
100
AcDbSymbolTableRecord
100
AcDbDimStyleTableRecord
  2
SYS$2
 70
     0
  4
"
 41
1.0
 42
1.0
 43
10.0
 44
1.0
 47
0.1
 48
0.1
 73
     0
 74
     0
 77
     1
 78
     8
 79
     2
140
3.5
141
0.0
143
0.0393701
146
0.71
147
1.5
172
     1
176
   256
177
   256
178
     2
271
     2
272
     2
283
     0
284
     8
340
11
342
6C4
371
    -1
372
    -1
1001
ACAD_DSTYLE_DIMJOGGED_JOGANGLE_SYMBOL
1070
   384
1040
0.7853981633974483
1001
ACAD_DSTYLE_DIMARC_LENGTH_SYMBOL
1070
   379
1070
     1
  0
DIMSTYLE
105
2AAB
102
{ACAD_REACTORS
330
151C1
330
151E1
330
15FF3
330
151F7
330
14FA6
330
14FD2
330
14FE8
330
150ED
330
14F83
330
14FFE
330
1E8FC
102
}
330
A
100
AcDbSymbolTableRecord
100
AcDbDimStyleTableRecord
  2
SYS$0
 70
     0
  4
"
 41
1.0
 42
1.0
 43
10.0
 44
1.0
 47
0.1
 48
0.1
 73
     0
 74
     0
 77
     1
 78
     8
 79
     2
140
3.200000000000001
141
0.0
143
0.0393701
146
0.71
147
1.5
172
     1
176
   256
177
   256
178
     2
271
     2
272
     2
283
     0
284
     8
340
11
341
A66
342
6C4
371
    -1
372
    -1
1001
ACAD_DSTYLE_DIMJOGGED_JOGANGLE_SYMBOL
1070
   384
1040
0.7853981633974483
1001
ACAD_DSTYLE_DIMARC_LENGTH_SYMBOL
1070
   379
1070
     1
  0
DIMSTYLE
105
AF99
330
A
100
AcDbSymbolTableRecord
100
AcDbDimStyleTableRecord
  2
AM_ISO
 70
     0
  4
"
 41
2.5
 42
1.0
 43
10.0
 44
1.0
 47
0.1
 48
0.1
 73
     0
 74
     0
 77
     1
 78
     8
 79
     2
140
3.5
141
0.0
143
0.0393701
146
0.71
147
1.5
172
     1
176
   256
177
   256
178
     2
271
     2
272
     3
274
     4
283
     0
284
     8
340
11
371
    -1
372
    -1
  0
DIMSTYLE
105
AF9A
330
A
100
AcDbSymbolTableRecord
100
AcDbDimStyleTableRecord
  2
AM_ISO$3
 70
     0
  4
"
 41
2.5
 42
1.0
 43
10.0
 44
1.0
 47
0.1
 48
0.1
 73
     0
 77
     1
 78
     8
 79
     2
140
3.5
141
0.0
143
0.0393701
146
0.71
147
1.5
176
   256
177
   256
178
     2
271
     2
272
     3
274
     4
283
     0
284
     8
288
     1
289
     0
340
11
371
    -1
372
    -1
  0
DIMSTYLE
105
AF9B
330
A
100
AcDbSymbolTableRecord
100
AcDbDimStyleTableRecord
  2
AM_ISO$4
 70
     0
  4
"
 41
2.5
 42
1.0
 43
10.0
 44
1.0
 47
0.1
 48
0.1
 73
     0
 77
     1
 78
     8
 79
     2
140
3.5
141
0.0
143
0.0393701
146
0.71
147
1.5
176
   256
177
   256
178
     2
271
     2
272
     3
274
     4
283
     0
284
     8
288
     1
289
     0
340
11
371
    -1
372
    -1
  0
DIMSTYLE
105
AF9C
330
A
100
AcDbSymbolTableRecord
100
AcDbDimStyleTableRecord
  2
AM_ISO$6
 70
     0
  4
"
 41
2.5
 42
1.0
 43
10.0
 44
1.0
 47
0.1
 48
0.1
 73
     0
 74
     0
 78
     8
 79
     2
140
3.5
141
0.0
143
0.0393701
146
0.71
147
1.5
172
     1
176
   256
177
   256
178
     2
271
     2
272
     3
274
     4
283
     0
284
     8
340
11
371
    -1
372
    -1
  0
DIMSTYLE
105
AF9D
330
A
100
AcDbSymbolTableRecord
100
AcDbDimStyleTableRecord
  2
AM_ISO$7
 70
     0
  4
"
 41
2.5
 42
1.0
 43
10.0
 44
1.0
 47
0.1
 48
0.1
 73
     0
 74
     0
 77
     1
 78
     8
 79
     2
140
5.0
141
0.0
143
0.0393701
146
0.71
147
1.5
172
     1
176
   256
177
   256
178
     2
271
     2
272
     3
274
     4
283
     0
284
     8
340
11
371
    -1
372
    -1
  0
DIMSTYLE
105
AF9E
330
A
100
AcDbSymbolTableRecord
100
AcDbDimStyleTableRecord
  2
AM_ISO$SF
 70
     0
  4
"
 41
2.5
 42
1.0
 43
10.0
 44
1.0
 47
0.1
 48
0.1
 73
     0
 74
     0
 75
     1
 76
     1
 77
     1
 78
     8
 79
     2
140
3.5
141
0.0
143
0.0393701
146
0.71
147
1.5
172
     1
176
   256
177
   256
178
     2
271
     2
272
     3
274
     4
283
     0
284
     8
340
11
371
    -1
372
    -1
  0
DIMSTYLE
105
AF9F
330
A
100
AcDbSymbolTableRecord
100
AcDbDimStyleTableRecord
  2
AM_ISO$SH
 70
     0
  4
"
 41
2.5
 42
1.0
 43
10.0
 44
1.0
 47
0.1
 48
0.1
 73
     0
 74
     0
 75
     1
 76
     1
 77
     1
 78
     8
 79
     2
140
3.5
141
0.0
143
0.0393701
144
2.0
146
0.71
147
1.5
172
     1
173
     1
176
   256
177
   256
178
     2
271
     2
272
     3
274
     4
283
     0
284
     8
340
11
343
72
371
    -1
372
    -1
  0
DIMSTYLE
105
B658
330
A
100
AcDbSymbolTableRecord
100
AcDbDimStyleTableRecord
  2
AM_ANSI
 70
     0
  4
mm
 41
0.1
 42
0.05
 43
0.5
 44
0.1
 47
0.1
 48
0.1
 78
     7
 79
     2
140
0.12
141
0.0
146
0.71
147
0.06
176
   256
177
   256
178
     2
274
     4
284
     7
340
11
371
    -1
372
    -1
  0
DIMSTYLE
105
D107
330
A
100
AcDbSymbolTableRecord
100
AcDbDimStyleTableRecord
  2
AM_ANSI$3
 70
     0
  4
mm
 41
0.1
 42
0.05
 43
0.5
 44
0.1
 47
0.1
 48
0.1
 78
     7
140
0.12
141
0.0
146
0.71
147
0.06
176
   256
177
   256
178
     2
271
     2
272
     2
279
     2
284
     8
285
     8
286
     8
340
11
  0
DIMSTYLE
105
D108
330
A
100
AcDbSymbolTableRecord
100
AcDbDimStyleTableRecord
  2
AM_ANSI$4
 70
     0
  4
mm
 41
0.1
 42
0.05
 43
0.5
 44
0.1
 47
0.1
 48
0.1
 78
     7
140
0.12
141
0.0
146
0.71
147
0.06
176
   256
177
   256
178
     2
271
     2
272
     2
279
     2
284
     8
285
     8
286
     8
340
11
  0
DIMSTYLE
105
D109
330
A
100
AcDbSymbolTableRecord
100
AcDbDimStyleTableRecord
  2
AM_ANSI$7
 70
     0
  4
mm
 41
0.1
 42
0.05
 43
0.5
 44
0.1
 47
0.1
 48
0.1
 78
     7
140
0.24
141
0.0
146
0.71
147
0.06
176
   256
177
   256
178
     2
271
     2
272
     2
279
     2
284
     8
285
     8
286
     8
340
11
  0
DIMSTYLE
105
D10A
330
A
100
AcDbSymbolTableRecord
100
AcDbDimStyleTableRecord
  2
AM_ANSI$SF
 70
     0
  4
mm
 41
0.1
 42
0.05
 43
0.5
 44
0.1
 47
0.1
 48
0.1
 75
     1
 76
     1
 78
     7
140
0.12
141
0.0
146
0.71
147
0.06
176
   256
177
   256
178
     2
271
     2
272
     2
279
     2
284
     8
285
     8
286
     8
340
11
  0
DIMSTYLE
105
D10B
330
A
100
AcDbSymbolTableRecord
100
AcDbDimStyleTableRecord
  2
AM_ANSI$SH
 70
     0
  4
mm
 41
0.1
 42
0.05
 43
0.5
 44
0.1
 47
0.1
 48
0.1
 75
     1
 76
     1
 78
     7
140
0.12
141
0.0
146
0.71
147
0.06
173
     1
176
   256
177
   256
178
     2
271
     2
272
     2
279
     2
284
     8
285
     8
286
     8
340
11
  0
DIMSTYLE
105
D10C
330
A
100
AcDbSymbolTableRecord
100
AcDbDimStyleTableRecord
  2
DIMSTYLE
 70
     0
 41
1.0
 42
2.54
 44
2.54
 73
     0
 74
     0
140
3.2
147
1.6
173
     1
279
     2
340
11
  0
DIMSTYLE
105
12EF1
330
A
100
AcDbSymbolTableRecord
100
AcDbDimStyleTableRecord
  2
AM_ISO$0
 70
     0
  4
"
 41
0.8
 42
1.0
 43
10.0
 44
1.0
 47
0.1
 48
0.1
 73
     0
 74
     0
 77
     1
 78
     8
 79
     2
140
3.2
141
0.0
143
0.0393701
146
0.71
147
0.9999999999999996
172
     1
176
   256
177
   256
178
     2
271
     2
272
     2
283
     0
284
     8
340
11
341
6C4
342
6C4
371
    -1
372
    -1
1001
ACAD_DSTYLE_DIMJOGGED_JOGANGLE_SYMBOL
1070
   384
1040
0.7853981633974483
1001
ACAD_DSTYLE_DIMARC_LENGTH_SYMBOL
1070
   379
1070
     1
  0
DIMSTYLE
105
12EF2
330
A
100
AcDbSymbolTableRecord
100
AcDbDimStyleTableRecord
  2
AM_ISO$2
 70
     0
  4
"
 41
0.8
 42
1.0
 43
10.0
 44
1.0
 47
0.1
 48
0.1
 73
     0
 74
     0
 77
     3
 78
     8
 79
     2
140
3.200000000000001
141
0.0
143
0.0393701
146
0.71
147
0.9999999999999996
172
     1
176
   256
177
   256
178
     2
271
     2
272
     2
283
     0
284
     8
340
11
342
6C4
371
    -1
372
    -1
1001
ACAD_DSTYLE_DIMJOGGED_JOGANGLE_SYMBOL
1070
   384
1040
0.7853981633974483
1001
ACAD_DSTYLE_DIMARC_LENGTH_SYMBOL
1070
   379
1070
     1
  0
ENDTAB
  0
TABLE
  2
BLOCK_RECORD
  5
1
330
0
100
AcDbSymbolTable
 70
    22
  0
BLOCK_RECORD
  5
1F
102
{ACAD_XDICTIONARY
360
8A
102
}
330
1
100
AcDbSymbolTableRecord
100
AcDbBlockTableRecord
  2
*Model_Space
340
22
  0
BLOCK_RECORD
  5
1B
330
1
100
AcDbSymbolTableRecord
100
AcDbBlockTableRecord
  2
*Paper_Space
340
1E
  0
BLOCK_RECORD
  5
23
330
1
100
AcDbSymbolTableRecord
100
AcDbBlockTableRecord
  2
*Paper_Space0
340
26
  0
BLOCK_RECORD
  5
72
330
1
100
AcDbSymbolTableRecord
100
AcDbBlockTableRecord
  2
GENAXEH
340
0
  0
BLOCK_RECORD
  5
6C4
330
1
100
AcDbSymbolTableRecord
100
AcDbBlockTableRecord
  2
_Dot
340
0
102
{BLKREFS
331
2065F
331
20660
331
20668
331
20669
331
20671
331
20672
331
20683
331
20684
331
2068C
331
2068D
331
20695
331
20696
331
2069E
331
2069F
331
20789
331
2078A
331
2367F
331
23680
331
2369A
331
2369B
331
236A3
331
236A4
102
}
  0
BLOCK_RECORD
  5
A66
330
1
100
AcDbSymbolTableRecord
100
AcDbBlockTableRecord
  2
_OPEN30
340
0
  0
BLOCK_RECORD
  5
CAAC
330
1
100
AcDbSymbolTableRecord
100
AcDbBlockTableRecord
  2
*U5
340
0
102
{BLKREFS
331
14193
102
}
  0
BLOCK_RECORD
  5
CAB0
330
1
100
AcDbSymbolTableRecord
100
AcDbBlockTableRecord
  2
*U6
340
0
102
{BLKREFS
331
14194
102
}
  0
BLOCK_RECORD
  5
CAC4
330
1
100
AcDbSymbolTableRecord
100
AcDbBlockTableRecord
  2
*U7
340
0
102
{BLKREFS
331
14197
102
}
  0
BLOCK_RECORD
  5
CAC8
330
1
100
AcDbSymbolTableRecord
100
AcDbBlockTableRecord
  2
*U8
340
0
102
{BLKREFS
331
14198
102
}
  0
BLOCK_RECORD
  5
CACC
330
1
100
AcDbSymbolTableRecord
100
AcDbBlockTableRecord
  2
*U9
340
0
102
{BLKREFS
331
14199
102
}
  0
BLOCK_RECORD
  5
CAD4
330
1
100
AcDbSymbolTableRecord
100
AcDbBlockTableRecord
  2
*U10
340
0
102
{BLKREFS
331
1419B
102
}
  0
BLOCK_RECORD
  5
14F84
330
1
100
AcDbSymbolTableRecord
100
AcDbBlockTableRecord
  2
*D11
340
0
  0
BLOCK_RECORD
  5
14FA7
330
1
100
AcDbSymbolTableRecord
100
AcDbBlockTableRecord
  2
*D12
340
0
  0
BLOCK_RECORD
  5
14FD3
330
1
100
AcDbSymbolTableRecord
100
AcDbBlockTableRecord
  2
*D13
340
0
  0
BLOCK_RECORD
  5
14FE9
330
1
100
AcDbSymbolTableRecord
100
AcDbBlockTableRecord
  2
*D14
340
0
  0
BLOCK_RECORD
  5
14FFF
330
1
100
AcDbSymbolTableRecord
100
AcDbBlockTableRecord
  2
*D15
340
0
  0
BLOCK_RECORD
  5
150EE
330
1
100
AcDbSymbolTableRecord
100
AcDbBlockTableRecord
  2
*D16
340
0
  0
BLOCK_RECORD
  5
151C2
330
1
100
AcDbSymbolTableRecord
100
AcDbBlockTableRecord
  2
*D17
340
0
  0
BLOCK_RECORD
  5
151E2
330
1
100
AcDbSymbolTableRecord
100
AcDbBlockTableRecord
  2
*D18
340
0
  0
BLOCK_RECORD
  5
151F8
330
1
100
AcDbSymbolTableRecord
100
AcDbBlockTableRecord
  2
*D19
340
0
  0
BLOCK_RECORD
  5
15FF4
330
1
100
AcDbSymbolTableRecord
100
AcDbBlockTableRecord
  2
*D20
340
0
  0
BLOCK_RECORD
  5
1E8FD
330
1
100
AcDbSymbolTableRecord
100
AcDbBlockTableRecord
  2
*D21
340
0
  0
ENDTAB
  0
ENDSEC
  0
SECTION
  2
BLOCKS
  0
BLOCK
  5
20
330
1F
100
AcDbEntity
  8
0
100
AcDbBlockBegin
  2
*Model_Space
 70
     0
 10
0.0
 20
0.0
 30
0.0
  3
*Model_Space
  1

  0
ENDBLK
  5
21
330
1F
100
AcDbEntity
  8
0
100
AcDbBlockEnd
  0
BLOCK
  5
1C
330
1B
100
AcDbEntity
 67
     1
  8
0
100
AcDbBlockBegin
  2
*Paper_Space
 70
     0
 10
0.0
 20
0.0
 30
0.0
  3
*Paper_Space
  1

  0
ENDBLK
  5
1D
330
1B
100
AcDbEntity
 67
     1
  8
0
100
AcDbBlockEnd
  0
BLOCK
  5
24
330
23
100
AcDbEntity
 67
     1
  8
0
100
AcDbBlockBegin
  2
*Paper_Space0
 70
     0
 10
0.0
 20
0.0
 30
0.0
  3
*Paper_Space0
  1

  0
ENDBLK
  5
25
330
23
100
AcDbEntity
 67
     1
  8
0
100
AcDbBlockEnd
  0
BLOCK
  5
74
330
72
100
AcDbEntity
  8
0
100
AcDbBlockBegin
  2
GENAXEH
 70
     0
 10
0.0
 20
0.0
 30
0.0
  3
GENAXEH
  1

  0
LINE
  5
73
330
72
100
AcDbEntity
  8
0
100
AcDbLine
 10
-1.0
 20
0.0
 30
0.0
 11
1.0
 21
0.0
 31
0.0
  0
ENDBLK
  5
75
330
72
100
AcDbEntity
  8
0
100
AcDbBlockEnd
  0
BLOCK
  5
6C7
330
6C4
100
AcDbEntity
  8
0
100
AcDbBlockBegin
  2
_Dot
 70
     0
 10
0.0
 20
0.0
 30
0.0
  3
_Dot
  1

  0
LWPOLYLINE
  5
6C5
330
6C4
100
AcDbEntity
  8
0
  6
ByBlock
 62
     0
100
AcDbPolyline
 90
        2
 70
     1
 43
0.5
 10
-0.25
 20
0.0
 42
1.0
 10
0.25
 20
0.0
 42
1.0
  0
LINE
  5
6C6
330
6C4
100
AcDbEntity
  8
0
  6
ByBlock
 62
     0
370
    -2
100
AcDbLine
 10
-0.5
 20
0.0
 30
0.0
 11
-1.0
 21
0.0
 31
0.0
  0
ENDBLK
  5
6C8
330
6C4
100
AcDbEntity
  8
0
100
AcDbBlockEnd
  0
BLOCK
  5
A6A
330
A66
100
AcDbEntity
  8
0
100
AcDbBlockBegin
  2
_OPEN30
 70
     0
 10
0.0
 20
0.0
 30
0.0
  3
_OPEN30
  1

  0
LINE
  5
A67
330
A66
100
AcDbEntity
  8
0
  6
ByBlock
 62
     0
100
AcDbLine
 10
-1.0
 20
0.26794919
 30
0.0
 11
0.0
 21
0.0
 31
0.0
  0
LINE
  5
A68
330
A66
100
AcDbEntity
  8
0
  6
ByBlock
 62
     0
100
AcDbLine
 10
0.0
 20
0.0
 30
0.0
 11
-1.0
 21
-0.26794919
 31
0.0
  0
LINE
  5
A69
330
A66
100
AcDbEntity
  8
0
  6
ByBlock
 62
     0
100
AcDbLine
 10
0.0
 20
0.0
 30
0.0
 11
-1.0
 21
0.0
 31
0.0
  0
ENDBLK
  5
A6B
330
A66
100
AcDbEntity
  8
0
100
AcDbBlockEnd
  0
BLOCK
  5
CAAD
330
CAAC
100
AcDbEntity
  8
0
100
AcDbBlockBegin
  2
*U5
 70
     1
 10
0.0
 20
0.0
 30
0.0
  3
*U5
  1

  0
TEXT
  5
CAAE
330
CAAC
100
AcDbEntity
  8
AM_6
100
AcDbText
 10
-378.7715000510215
 20
288.9
 30
0.0
 40
3.2
  1
品　名
 41
0.7
100
AcDbText
  0
ENDBLK
  5
CAAF
330
CAAC
100
AcDbEntity
  8
0
100
AcDbBlockEnd
  0
BLOCK
  5
CAB1
330
CAB0
100
AcDbEntity
  8
0
100
AcDbBlockBegin
  2
*U6
 70
     1
 10
0.0
 20
0.0
 30
0.0
  3
*U6
  1

  0
TEXT
  5
CAB2
330
CAB0
100
AcDbEntity
  8
AM_6
100
AcDbText
 10
-378.7715000510215
 20
280.9
 30
0.0
 40
3.2
  1
品　番
 41
0.7
100
AcDbText
  0
ENDBLK
  5
CAB3
330
CAB0
100
AcDbEntity
  8
0
100
AcDbBlockEnd
  0
BLOCK
  5
CAC5
330
CAC4
100
AcDbEntity
  8
0
100
AcDbBlockBegin
  2
*U7
 70
     1
 10
0.0
 20
0.0
 30
0.0
  3
*U7
  1

  0
TEXT
  5
CAC6
330
CAC4
100
AcDbEntity
  8
AM_6
100
AcDbText
 10
-378.7715000510215
 20
272.9
 30
0.0
 40
3.2
  1
材　質
 41
0.7
100
AcDbText
  0
ENDBLK
  5
CAC7
330
CAC4
100
AcDbEntity
  8
0
100
AcDbBlockEnd
  0
BLOCK
  5
CAC9
330
CAC8
100
AcDbEntity
  8
0
100
AcDbBlockBegin
  2
*U8
 70
     1
 10
0.0
 20
0.0
 30
0.0
  3
*U8
  1

  0
TEXT
  5
CACA
330
CAC8
100
AcDbEntity
  8
AM_6
100
AcDbText
 10
-378.7715000510215
 20
264.9
 30
0.0
 40
3.2
  1
仕上げ
 41
0.7
100
AcDbText
  0
ENDBLK
  5
CACB
330
CAC8
100
AcDbEntity
  8
0
100
AcDbBlockEnd
  0
BLOCK
  5
CACD
330
CACC
100
AcDbEntity
  8
0
100
AcDbBlockBegin
  2
*U9
 70
     1
 10
0.0
 20
0.0
 30
0.0
  3
*U9
  1

  0
TEXT
  5
CACE
330
CACC
100
AcDbEntity
  8
AM_6
100
AcDbText
 10
-381.9715000987052
 20
256.8999999999999
 30
0.0
 40
3.2
  1
セットビス
 41
0.7
100
AcDbText
  0
ENDBLK
  5
CACF
330
CACC
100
AcDbEntity
  8
0
100
AcDbBlockEnd
  0
BLOCK
  5
CAD5
330
CAD4
100
AcDbEntity
  8
0
100
AcDbBlockBegin
  2
*U10
 70
     1
 10
0.0
 20
0.0
 30
0.0
  3
*U10
  1

  0
TEXT
  5
CAD6
330
CAD4
100
AcDbEntity
  8
AM_6
100
AcDbText
 10
-377.1715000271797
 20
224.9
 30
0.0
 40
3.2
  1
備考
 41
0.7
100
AcDbText
  0
ENDBLK
  5
CAD7
330
CAD4
100
AcDbEntity
  8
0
100
AcDbBlockEnd
  0
BLOCK
  5
14F8E
330
14F84
100
AcDbEntity
  8
0
100
AcDbBlockBegin
  2
*D11
 70
     1
 10
0.0
 20
0.0
 30
0.0
  3
*D11
  1

  0
LINE
  5
23697
330
14F84
100
AcDbEntity
  8
AM_5
100
AcDbLine
 10
2699.17067415081
 20
-279.0783435548988
 30
0.0
 11
2699.17067415081
 21
-321.5655721419589
 31
0.0
  0
LINE
  5
23698
330
14F84
100
AcDbEntity
  8
AM_5
100
AcDbLine
 10
2657.17067415081
 20
-279.0783435548988
 30
0.0
 11
2657.17067415081
 21
-321.5655721419589
 31
0.0
  0
LINE
  5
23699
330
14F84
100
AcDbEntity
  8
AM_5
100
AcDbLine
 10
2698.17067415081
 20
-320.5655721419589
 30
0.0
 11
2658.17067415081
 21
-320.5655721419589
 31
0.0
  0
INSERT
  5
2369A
330
14F84
100
AcDbEntity
  8
AM_5
100
AcDbBlockReference
  2
_Dot
 10
2699.17067415081
 20
-320.5655721419589
 30
0.0
  0
INSERT
  5
2369B
330
14F84
100
AcDbEntity
  8
AM_5
100
AcDbBlockReference
  2
_Dot
 10
2657.17067415081
 20
-320.5655721419589
 30
0.0
 50
180.0
  0
MTEXT
  5
2369C
330
14F84
100
AcDbEntity
  8
AM_5
 62
     2
100
AcDbMText
 10
2678.17067415081
 20
-317.4655721419589
 30
0.0
 40
3.200000000000001
 41
0.0
 71
     5
 72
     1
  1
42
 73
     1
 44
1.0
  0
POINT
  5
2369D
330
14F84
100
AcDbEntity
  8
Defpoints
 62
     0
100
AcDbPoint
 10
2699.17067415081
 20
-278.0783435548987
 30
0.0
  0
POINT
  5
2369E
330
14F84
100
AcDbEntity
  8
Defpoints
 62
     0
100
AcDbPoint
 10
2657.17067415081
 20
-278.0783435548987
 30
0.0
  0
POINT
  5
2369F
330
14F84
100
AcDbEntity
  8
Defpoints
 62
     0
100
AcDbPoint
 10
2657.17067415081
 20
-320.5655721419589
 30
0.0
  0
ENDBLK
  5
14F8F
330
14F84
100
AcDbEntity
  8
0
100
AcDbBlockEnd
  0
BLOCK
  5
14FB1
330
14FA7
100
AcDbEntity
  8
0
100
AcDbBlockBegin
  2
*D12
 70
     1
 10
0.0
 20
0.0
 30
0.0
  3
*D12
  1

  0
LINE
  5
2065C
330
14FA7
100
AcDbEntity
  8
AM_5
100
AcDbLine
 10
2755.412843325909
 20
-234.3283435548987
 30
0.0
 11
2755.412843325909
 21
-224.3283435548988
 31
0.0
  0
LINE
  5
2065D
330
14FA7
100
AcDbEntity
  8
AM_5
100
AcDbLine
 10
2774.412843325909
 20
-234.3283435548987
 30
0.0
 11
2774.412843325909
 21
-224.3283435548988
 31
0.0
  0
LINE
  5
2065E
330
14FA7
100
AcDbEntity
  8
AM_5
100
AcDbLine
 10
2756.412843325909
 20
-225.3283435548988
 30
0.0
 11
2773.412843325909
 21
-225.3283435548988
 31
0.0
  0
INSERT
  5
2065F
330
14FA7
100
AcDbEntity
  8
AM_5
100
AcDbBlockReference
  2
_Dot
 10
2755.412843325909
 20
-225.3283435548988
 30
0.0
 50
180.0
  0
INSERT
  5
20660
330
14FA7
100
AcDbEntity
  8
AM_5
100
AcDbBlockReference
  2
_Dot
 10
2774.412843325909
 20
-225.3283435548988
 30
0.0
  0
MTEXT
  5
20661
330
14FA7
100
AcDbEntity
  8
AM_5
 62
     2
100
AcDbMText
 10
2764.912843325909
 20
-222.2283435548987
 30
0.0
 40
3.200000000000001
 41
0.0
 71
     5
 72
     1
  1
19
 73
     1
 44
1.0
  0
POINT
  5
20662
330
14FA7
100
AcDbEntity
  8
Defpoints
 62
     0
100
AcDbPoint
 10
2755.412843325909
 20
-235.3283435548988
 30
0.0
  0
POINT
  5
20663
330
14FA7
100
AcDbEntity
  8
Defpoints
 62
     0
100
AcDbPoint
 10
2774.412843325909
 20
-235.3283435548988
 30
0.0
  0
POINT
  5
20664
330
14FA7
100
AcDbEntity
  8
Defpoints
 62
     0
100
AcDbPoint
 10
2774.412843325909
 20
-225.3283435548988
 30
0.0
  0
ENDBLK
  5
14FB2
330
14FA7
100
AcDbEntity
  8
0
100
AcDbBlockEnd
  0
BLOCK
  5
14FDD
330
14FD3
100
AcDbEntity
  8
0
100
AcDbBlockBegin
  2
*D13
 70
     1
 10
0.0
 20
0.0
 30
0.0
  3
*D13
  1

  0
LINE
  5
20665
330
14FD3
100
AcDbEntity
  8
AM_5
100
AcDbLine
 10
2758.412843325909
 20
-308.5655721419594
 30
0.0
 11
2758.412843325909
 21
-321.5655721419589
 31
0.0
  0
LINE
  5
20666
330
14FD3
100
AcDbEntity
  8
AM_5
100
AcDbLine
 10
2752.412843325908
 20
-308.5655721419589
 30
0.0
 11
2752.412843325908
 21
-321.5655721419589
 31
0.0
  0
LINE
  5
20667
330
14FD3
100
AcDbEntity
  8
AM_5
100
AcDbLine
 10
2757.412843325909
 20
-320.5655721419589
 30
0.0
 11
2753.412843325909
 21
-320.5655721419589
 31
0.0
  0
INSERT
  5
20668
330
14FD3
100
AcDbEntity
  8
AM_5
100
AcDbBlockReference
  2
_Dot
 10
2758.412843325909
 20
-320.5655721419589
 30
0.0
  0
INSERT
  5
20669
330
14FD3
100
AcDbEntity
  8
AM_5
100
AcDbBlockReference
  2
_Dot
 10
2752.412843325908
 20
-320.5655721419589
 30
0.0
 50
180.0
  0
MTEXT
  5
2066A
330
14FD3
100
AcDbEntity
  8
AM_5
 62
     2
100
AcDbMText
 10
2755.412843325908
 20
-317.4655721419589
 30
0.0
 40
3.200000000000001
 41
0.0
 71
     5
 72
     1
  1
6
 73
     1
 44
1.0
  0
POINT
  5
2066B
330
14FD3
100
AcDbEntity
  8
Defpoints
 62
     0
100
AcDbPoint
 10
2758.412843325909
 20
-307.5655721419594
 30
0.0
  0
POINT
  5
2066C
330
14FD3
100
AcDbEntity
  8
Defpoints
 62
     0
100
AcDbPoint
 10
2752.412843325908
 20
-307.5655721419589
 30
0.0
  0
POINT
  5
2066D
330
14FD3
100
AcDbEntity
  8
Defpoints
 62
     0
100
AcDbPoint
 10
2752.412843325908
 20
-320.5655721419589
 30
0.0
  0
ENDBLK
  5
14FDE
330
14FD3
100
AcDbEntity
  8
0
100
AcDbBlockEnd
  0
BLOCK
  5
14FF3
330
14FE9
100
AcDbEntity
  8
0
100
AcDbBlockBegin
  2
*D14
 70
     1
 10
0.0
 20
0.0
 30
0.0
  3
*D14
  1

  0
LINE
  5
2066E
330
14FE9
100
AcDbEntity
  8
AM_5
100
AcDbLine
 10
2774.412843325909
 20
-284.5783435548987
 30
0.0
 11
2774.412843325909
 21
-331.5655721419589
 31
0.0
  0
LINE
  5
2066F
330
14FE9
100
AcDbEntity
  8
AM_5
100
AcDbLine
 10
2752.412843325908
 20
-308.5655721419589
 30
0.0
 11
2752.412843325908
 21
-331.5655721419589
 31
0.0
  0
LINE
  5
20670
330
14FE9
100
AcDbEntity
  8
AM_5
100
AcDbLine
 10
2773.412843325909
 20
-330.5655721419589
 30
0.0
 11
2753.412843325909
 21
-330.5655721419589
 31
0.0
  0
INSERT
  5
20671
330
14FE9
100
AcDbEntity
  8
AM_5
100
AcDbBlockReference
  2
_Dot
 10
2774.412843325909
 20
-330.5655721419589
 30
0.0
  0
INSERT
  5
20672
330
14FE9
100
AcDbEntity
  8
AM_5
100
AcDbBlockReference
  2
_Dot
 10
2752.412843325908
 20
-330.5655721419589
 30
0.0
 50
180.0
  0
MTEXT
  5
20673
330
14FE9
100
AcDbEntity
  8
AM_5
 62
     2
100
AcDbMText
 10
2763.412843325909
 20
-327.4655721419589
 30
0.0
 40
3.200000000000001
 41
0.0
 71
     5
 72
     1
  1
22
 73
     1
 44
1.0
  0
POINT
  5
20674
330
14FE9
100
AcDbEntity
  8
Defpoints
 62
     0
100
AcDbPoint
 10
2774.412843325909
 20
-283.5783435548988
 30
0.0
  0
POINT
  5
20675
330
14FE9
100
AcDbEntity
  8
Defpoints
 62
     0
100
AcDbPoint
 10
2752.412843325908
 20
-307.5655721419589
 30
0.0
  0
POINT
  5
20676
330
14FE9
100
AcDbEntity
  8
Defpoints
 62
     0
100
AcDbPoint
 10
2752.412843325908
 20
-330.5655721419589
 30
0.0
  0
ENDBLK
  5
14FF4
330
14FE9
100
AcDbEntity
  8
0
100
AcDbBlockEnd
  0
BLOCK
  5
15009
330
14FFF
100
AcDbEntity
  8
0
100
AcDbBlockBegin
  2
*D15
 70
     1
 10
0.0
 20
0.0
 30
0.0
  3
*D15
  1

  0
LINE
  5
2367C
330
14FFF
100
AcDbEntity
  8
AM_5
100
AcDbLine
 10
2718.17067415081
 20
-279.5783435548988
 30
0.0
 11
2718.17067415081
 21
-331.5655721419589
 31
0.0
  0
LINE
  5
2367D
330
14FFF
100
AcDbEntity
  8
AM_5
100
AcDbLine
 10
2638.17067415081
 20
-279.5783435548988
 30
0.0
 11
2638.17067415081
 21
-331.5655721419589
 31
0.0
  0
LINE
  5
2367E
330
14FFF
100
AcDbEntity
  8
AM_5
100
AcDbLine
 10
2717.170674150811
 20
-330.5655721419589
 30
0.0
 11
2639.17067415081
 21
-330.5655721419589
 31
0.0
  0
INSERT
  5
2367F
330
14FFF
100
AcDbEntity
  8
AM_5
100
AcDbBlockReference
  2
_Dot
 10
2718.17067415081
 20
-330.5655721419589
 30
0.0
  0
INSERT
  5
23680
330
14FFF
100
AcDbEntity
  8
AM_5
100
AcDbBlockReference
  2
_Dot
 10
2638.17067415081
 20
-330.5655721419589
 30
0.0
 50
180.0
  0
MTEXT
  5
23681
330
14FFF
100
AcDbEntity
  8
AM_5
 62
     2
100
AcDbMText
 10
2678.17067415081
 20
-327.4655721419589
 30
0.0
 40
3.200000000000001
 41
0.0
 71
     5
 72
     1
  1
%%c80
 73
     1
 44
1.0
  0
POINT
  5
23682
330
14FFF
100
AcDbEntity
  8
Defpoints
 62
     0
100
AcDbPoint
 10
2718.17067415081
 20
-278.5783435548988
 30
0.0
  0
POINT
  5
23683
330
14FFF
100
AcDbEntity
  8
Defpoints
 62
     0
100
AcDbPoint
 10
2638.17067415081
 20
-278.5783435548988
 30
0.0
  0
POINT
  5
23684
330
14FFF
100
AcDbEntity
  8
Defpoints
 62
     0
100
AcDbPoint
 10
2638.17067415081
 20
-330.5655721419589
 30
0.0
  0
ENDBLK
  5
1500A
330
14FFF
100
AcDbEntity
  8
0
100
AcDbBlockEnd
  0
BLOCK
  5
150F8
330
150EE
100
AcDbEntity
  8
0
100
AcDbBlockBegin
  2
*D16
 70
     1
 10
0.0
 20
0.0
 30
0.0
  3
*D16
  1

  0
LINE
  5
20680
330
150EE
100
AcDbEntity
  8
AM_5
100
AcDbLine
 10
2775.412843325909
 20
-283.5783435548988
 30
0.0
 11
2785.412843325909
 21
-283.5783435548988
 31
0.0
  0
LINE
  5
20681
330
150EE
100
AcDbEntity
  8
AM_5
100
AcDbLine
 10
2756.412843325909
 20
-310.5655721419589
 30
0.0
 11
2785.412843325909
 21
-310.5655721419589
 31
0.0
  0
LINE
  5
20682
330
150EE
100
AcDbEntity
  8
AM_5
100
AcDbLine
 10
2784.412843325909
 20
-284.5783435548987
 30
0.0
 11
2784.412843325909
 21
-309.5655721419589
 31
0.0
  0
INSERT
  5
20683
330
150EE
100
AcDbEntity
  8
AM_5
100
AcDbBlockReference
  2
_Dot
 10
2784.412843325909
 20
-283.5783435548988
 30
0.0
 50
90.0
  0
INSERT
  5
20684
330
150EE
100
AcDbEntity
  8
AM_5
100
AcDbBlockReference
  2
_Dot
 10
2784.412843325909
 20
-310.5655721419589
 30
0.0
 50
270.0
  0
MTEXT
  5
20685
330
150EE
100
AcDbEntity
  8
AM_5
 62
     2
100
AcDbMText
 10
2781.312843325909
 20
-297.0719578484284
 30
0.0
 40
3.200000000000001
 41
0.0
 71
     5
 72
     1
  1
27
 11
0.0000000000000001
 21
1.0
 31
0.0
 73
     1
 44
1.0
  0
POINT
  5
20686
330
150EE
100
AcDbEntity
  8
Defpoints
 62
     0
100
AcDbPoint
 10
2774.412843325909
 20
-283.5783435548988
 30
0.0
  0
POINT
  5
20687
330
150EE
100
AcDbEntity
  8
Defpoints
 62
     0
100
AcDbPoint
 10
2755.412843325909
 20
-310.5655721419589
 30
0.0
  0
POINT
  5
20688
330
150EE
100
AcDbEntity
  8
Defpoints
 62
     0
100
AcDbPoint
 10
2784.412843325909
 20
-310.5655721419589
 30
0.0
  0
ENDBLK
  5
150F9
330
150EE
100
AcDbEntity
  8
0
100
AcDbBlockEnd
  0
BLOCK
  5
151CC
330
151C2
100
AcDbEntity
  8
0
100
AcDbBlockBegin
  2
*D17
 70
     1
 10
0.0
 20
0.0
 30
0.0
  3
*D17
  1

  0
LINE
  5
20689
330
151C2
100
AcDbEntity
  8
AM_5
100
AcDbLine
 10
2938.829743477347
 20
-277.4483160118894
 30
0.0
 11
2938.829743477347
 21
-263.4483160118894
 31
0.0
  0
LINE
  5
2068A
330
151C2
100
AcDbEntity
  8
AM_5
100
AcDbLine
 10
2931.829743477346
 20
-277.4483160118894
 30
0.0
 11
2931.829743477346
 21
-263.4483160118894
 31
0.0
  0
LINE
  5
2068B
330
151C2
100
AcDbEntity
  8
AM_5
100
AcDbLine
 10
2937.829743477346
 20
-264.4483160118893
 30
0.0
 11
2932.829743477347
 21
-264.4483160118893
 31
0.0
  0
INSERT
  5
2068C
330
151C2
100
AcDbEntity
  8
AM_5
100
AcDbBlockReference
  2
_Dot
 10
2938.829743477347
 20
-264.4483160118893
 30
0.0
  0
INSERT
  5
2068D
330
151C2
100
AcDbEntity
  8
AM_5
100
AcDbBlockReference
  2
_Dot
 10
2931.829743477346
 20
-264.4483160118893
 30
0.0
 50
180.0
  0
MTEXT
  5
2068E
330
151C2
100
AcDbEntity
  8
AM_5
 62
     2
100
AcDbMText
 10
2935.329743477347
 20
-261.3483160118893
 30
0.0
 40
3.200000000000001
 41
0.0
 71
     5
 72
     1
  1
{\Famgdt;o}7
 73
     1
 44
1.0
  0
POINT
  5
2068F
330
151C2
100
AcDbEntity
  8
Defpoints
 62
     0
100
AcDbPoint
 10
2938.829743477347
 20
-278.4483160118893
 30
0.0
  0
POINT
  5
20690
330
151C2
100
AcDbEntity
  8
Defpoints
 62
     0
100
AcDbPoint
 10
2931.829743477346
 20
-278.4483160118893
 30
0.0
  0
POINT
  5
20691
330
151C2
100
AcDbEntity
  8
Defpoints
 62
     0
100
AcDbPoint
 10
2931.829743477346
 20
-264.4483160118893
 30
0.0
  0
ENDBLK
  5
151CD
330
151C2
100
AcDbEntity
  8
0
100
AcDbBlockEnd
  0
BLOCK
  5
151EC
330
151E2
100
AcDbEntity
  8
0
100
AcDbBlockBegin
  2
*D18
 70
     1
 10
0.0
 20
0.0
 30
0.0
  3
*D18
  1

  0
LINE
  5
20692
330
151E2
100
AcDbEntity
  8
AM_5
100
AcDbLine
 10
2889.079453060458
 20
-273.4483160118894
 30
0.0
 11
2889.079453060458
 21
-263.4483160118894
 31
0.0
  0
LINE
  5
20693
330
151E2
100
AcDbEntity
  8
AM_5
100
AcDbLine
 10
2871.079453060458
 20
-273.4483160118894
 30
0.0
 11
2871.079453060458
 21
-263.4483160118894
 31
0.0
  0
LINE
  5
20694
330
151E2
100
AcDbEntity
  8
AM_5
100
AcDbLine
 10
2888.079453060458
 20
-264.4483160118893
 30
0.0
 11
2872.079453060458
 21
-264.4483160118893
 31
0.0
  0
INSERT
  5
20695
330
151E2
100
AcDbEntity
  8
AM_5
100
AcDbBlockReference
  2
_Dot
 10
2889.079453060458
 20
-264.4483160118893
 30
0.0
  0
INSERT
  5
20696
330
151E2
100
AcDbEntity
  8
AM_5
100
AcDbBlockReference
  2
_Dot
 10
2871.079453060458
 20
-264.4483160118893
 30
0.0
 50
180.0
  0
MTEXT
  5
20697
330
151E2
100
AcDbEntity
  8
AM_5
 62
     2
100
AcDbMText
 10
2880.079453060458
 20
-261.3483160118893
 30
0.0
 40
3.200000000000001
 41
0.0
 71
     5
 72
     1
  1
18
 73
     1
 44
1.0
  0
POINT
  5
20698
330
151E2
100
AcDbEntity
  8
Defpoints
 62
     0
100
AcDbPoint
 10
2889.079453060458
 20
-274.4483160118893
 30
0.0
  0
POINT
  5
20699
330
151E2
100
AcDbEntity
  8
Defpoints
 62
     0
100
AcDbPoint
 10
2871.079453060458
 20
-274.4483160118893
 30
0.0
  0
POINT
  5
2069A
330
151E2
100
AcDbEntity
  8
Defpoints
 62
     0
100
AcDbPoint
 10
2871.079453060458
 20
-264.4483160118893
 30
0.0
  0
ENDBLK
  5
151ED
330
151E2
100
AcDbEntity
  8
0
100
AcDbBlockEnd
  0
BLOCK
  5
15202
330
151F8
100
AcDbEntity
  8
0
100
AcDbBlockBegin
  2
*D19
 70
     1
 10
0.0
 20
0.0
 30
0.0
  3
*D19
  1

  0
LINE
  5
2069B
330
151F8
100
AcDbEntity
  8
AM_5
100
AcDbLine
 10
2889.079453060458
 20
-273.4483160118894
 30
0.0
 11
2889.079453060458
 21
-263.4483160118894
 31
0.0
  0
LINE
  5
2069C
330
151F8
100
AcDbEntity
  8
AM_5
100
AcDbLine
 10
2904.379453060457
 20
-277.4483160118894
 30
0.0
 11
2904.379453060457
 21
-263.4483160118894
 31
0.0
  0
LINE
  5
2069D
330
151F8
100
AcDbEntity
  8
AM_5
100
AcDbLine
 10
2890.079453060458
 20
-264.4483160118893
 30
0.0
 11
2903.379453060457
 21
-264.4483160118893
 31
0.0
  0
INSERT
  5
2069E
330
151F8
100
AcDbEntity
  8
AM_5
100
AcDbBlockReference
  2
_Dot
 10
2889.079453060458
 20
-264.4483160118893
 30
0.0
 50
180.0
  0
INSERT
  5
2069F
330
151F8
100
AcDbEntity
  8
AM_5
100
AcDbBlockReference
  2
_Dot
 10
2904.379453060457
 20
-264.4483160118893
 30
0.0
  0
MTEXT
  5
206A0
330
151F8
100
AcDbEntity
  8
AM_5
 62
     2
100
AcDbMText
 10
2896.729453060457
 20
-261.3483160118893
 30
0.0
 40
3.200000000000001
 41
0.0
 71
     5
 72
     1
  1
15.3
 73
     1
 44
1.0
  0
POINT
  5
206A1
330
151F8
100
AcDbEntity
  8
Defpoints
 62
     0
100
AcDbPoint
 10
2889.079453060458
 20
-274.4483160118893
 30
0.0
  0
POINT
  5
206A2
330
151F8
100
AcDbEntity
  8
Defpoints
 62
     0
100
AcDbPoint
 10
2904.379453060457
 20
-278.4483160118893
 30
0.0
  0
POINT
  5
206A3
330
151F8
100
AcDbEntity
  8
Defpoints
 62
     0
100
AcDbPoint
 10
2904.379453060457
 20
-264.4483160118893
 30
0.0
  0
ENDBLK
  5
15203
330
151F8
100
AcDbEntity
  8
0
100
AcDbBlockEnd
  0
BLOCK
  5
15FFE
330
15FF4
100
AcDbEntity
  8
0
100
AcDbBlockBegin
  2
*D20
 70
     1
 10
0.0
 20
0.0
 30
0.0
  3
*D20
  1

  0
LINE
  5
20786
330
15FF4
100
AcDbEntity
  8
AM_5
100
AcDbLine
 10
2870.079453060458
 20
-274.4483160118893
 30
0.0
 11
2860.079452060458
 21
-274.4483160118893
 31
0.0
  0
LINE
  5
20787
330
15FF4
100
AcDbEntity
  8
AM_5
100
AcDbLine
 10
2870.079453060458
 20
-289.4483160118893
 30
0.0
 11
2860.079452060458
 21
-289.4483160118893
 31
0.0
  0
LINE
  5
20788
330
15FF4
100
AcDbEntity
  8
AM_5
100
AcDbLine
 10
2861.079452060458
 20
-275.4483160118894
 30
0.0
 11
2861.079452060458
 21
-288.4483160118893
 31
0.0
  0
INSERT
  5
20789
330
15FF4
100
AcDbEntity
  8
AM_5
100
AcDbBlockReference
  2
_Dot
 10
2861.079452060458
 20
-274.4483160118893
 30
0.0
 50
90.0
  0
INSERT
  5
2078A
330
15FF4
100
AcDbEntity
  8
AM_5
100
AcDbBlockReference
  2
_Dot
 10
2861.079452060458
 20
-289.4483160118893
 30
0.0
 50
270.0
  0
MTEXT
  5
2078B
330
15FF4
100
AcDbEntity
  8
AM_5
 62
     2
100
AcDbMText
 10
2857.979452060458
 20
-281.9483160118889
 30
0.0
 40
3.200000000000001
 41
0.0
 71
     5
 72
     1
  1
%%c15
 11
0.0000000000000001
 21
1.0
 31
0.0
 73
     1
 44
1.0
  0
POINT
  5
2078C
330
15FF4
100
AcDbEntity
  8
Defpoints
 62
     0
100
AcDbPoint
 10
2871.079453060458
 20
-274.4483160118893
 30
0.0
  0
POINT
  5
2078D
330
15FF4
100
AcDbEntity
  8
Defpoints
 62
     0
100
AcDbPoint
 10
2871.079453060458
 20
-289.4483160118893
 30
0.0
  0
POINT
  5
2078E
330
15FF4
100
AcDbEntity
  8
Defpoints
 62
     0
100
AcDbPoint
 10
2861.079452060458
 20
-289.4483160118893
 30
0.0
  0
ENDBLK
  5
15FFF
330
15FF4
100
AcDbEntity
  8
0
100
AcDbBlockEnd
  0
BLOCK
  5
1E907
330
1E8FD
100
AcDbEntity
  8
0
 48
0.5
100
AcDbBlockBegin
  2
*D21
 70
     1
 10
0.0
 20
0.0
 30
0.0
  3
*D21
  1

  0
LINE
  5
236A0
330
1E8FD
100
AcDbEntity
  8
AM_5
100
AcDbLine
 10
2713.42067415081
 20
-269.5783435548988
 30
0.0
 11
2713.42067415081
 21
-224.3283435548988
 31
0.0
  0
LINE
  5
236A1
330
1E8FD
100
AcDbEntity
  8
AM_5
100
AcDbLine
 10
2642.92067415081
 20
-269.5783435548988
 30
0.0
 11
2642.92067415081
 21
-224.3283435548988
 31
0.0
  0
LINE
  5
236A2
330
1E8FD
100
AcDbEntity
  8
AM_5
100
AcDbLine
 10
2712.42067415081
 20
-225.3283435548988
 30
0.0
 11
2643.92067415081
 21
-225.3283435548988
 31
0.0
  0
INSERT
  5
236A3
330
1E8FD
100
AcDbEntity
  8
AM_5
100
AcDbBlockReference
  2
_Dot
 10
2713.42067415081
 20
-225.3283435548988
 30
0.0
  0
INSERT
  5
236A4
330
1E8FD
100
AcDbEntity
  8
AM_5
100
AcDbBlockReference
  2
_Dot
 10
2642.92067415081
 20
-225.3283435548988
 30
0.0
 50
180.0
  0
MTEXT
  5
236A5
330
1E8FD
100
AcDbEntity
  8
AM_5
 62
     2
100
AcDbMText
 10
2678.17067415081
 20
-222.2283435548987
 30
0.0
 40
3.200000000000001
 41
0.0
 71
     5
 72
     1
  1
%%c70.5
 73
     1
 44
1.0
  0
POINT
  5
236A6
330
1E8FD
100
AcDbEntity
  8
Defpoints
 62
     0
100
AcDbPoint
 10
2713.42067415081
 20
-270.5783435548988
 30
0.0
  0
POINT
  5
236A7
330
1E8FD
100
AcDbEntity
  8
Defpoints
 62
     0
100
AcDbPoint
 10
2642.92067415081
 20
-270.5783435548988
 30
0.0
  0
POINT
  5
236A8
330
1E8FD
100
AcDbEntity
  8
Defpoints
 62
     0
100
AcDbPoint
 10
2642.92067415081
 20
-225.3283435548988
 30
0.0
  0
ENDBLK
  5
1E908
330
1E8FD
100
AcDbEntity
  8
0
 48
0.5
100
AcDbBlockEnd
  0
ENDSEC
  0
SECTION
  2
ENTITIES
  0
AMDTACMWBLOCKBOMENTITY
  5
13FB3
330
1F
100
AcDbEntity
  8
AM_6
 92
        8
310
0800000000000000
  0
AMDTACMWBLOCKBOMENTITY
  5
140E0
330
1F
100
AcDbEntity
  8
AM_6
 92
        8
310
0800000000000000
  0
LINE
  5
14180
330
1F
100
AcDbEntity
  8
AM_0
100
AcDbLine
 10
2607.30382610664
 20
-108.9641071057931
 30
0.0
 11
2607.30382610664
 21
-164.9641071057931
 31
0.0
  0
LINE
  5
14181
330
1F
100
AcDbEntity
  8
AM_0
100
AcDbLine
 10
2587.30382610664
 20
-116.9641071057931
 30
0.0
 11
2728.817796667191
 21
-116.9641071057931
 31
0.0
  0
LINE
  5
14182
330
1F
100
AcDbEntity
  8
AM_0
100
AcDbLine
 10
2587.30382610664
 20
-124.9641071057931
 30
0.0
 11
2728.817796667191
 21
-124.9641071057931
 31
0.0
  0
LINE
  5
14183
330
1F
100
AcDbEntity
  8
AM_0
100
AcDbLine
 10
2587.30382610664
 20
-132.9641071057931
 30
0.0
 11
2728.817796667191
 21
-132.9641071057931
 31
0.0
  0
LINE
  5
14184
330
1F
100
AcDbEntity
  8
AM_0
100
AcDbLine
 10
2587.30382610664
 20
-140.9641071057931
 30
0.0
 11
2728.817796667191
 21
-140.9641071057931
 31
0.0
  0
LINE
  5
14185
330
1F
100
AcDbEntity
  8
AM_2
100
AcDbLine
 10
2607.30382610664
 20
-148.9641071057931
 30
0.0
 11
2728.817796667191
 21
-148.9641071057931
 31
0.0
  0
LINE
  5
14186
330
1F
100
AcDbEntity
  8
AM_0
100
AcDbLine
 10
2587.30382610664
 20
-156.9641071057931
 30
0.0
 11
2728.817796667191
 21
-156.9641071057931
 31
0.0
  0
LINE
  5
1418A
330
1F
100
AcDbEntity
  8
AM_1
100
AcDbLine
 10
2587.30382610664
 20
-164.9641071057931
 30
0.0
 11
2728.817796667191
 21
-164.9641071057931
 31
0.0
  0
LINE
  5
1418B
330
1F
100
AcDbEntity
  8
AM_1
100
AcDbLine
 10
2587.30382610664
 20
-108.9641071057931
 30
0.0
 11
2587.30382610664
 21
-164.9641071057931
 31
0.0
  0
LINE
  5
1418C
330
1F
100
AcDbEntity
  8
AM_1
100
AcDbLine
 10
2587.30382610664
 20
-108.9641071057931
 30
0.0
 11
2728.817796667191
 21
-108.9641071057931
 31
0.0
  0
LINE
  5
1418D
330
1F
100
AcDbEntity
  8
AM_1
100
AcDbLine
 10
2728.817796667191
 20
-108.9641071057931
 30
0.0
 11
2728.817796667192
 21
-164.9641071057931
 31
0.0
  0
CIRCLE
  5
1418F
330
1F
100
AcDbEntity
  8
AM_2
100
AcDbCircle
 10
2649.067098063901
 20
-144.965459599246
 30
0.0
 40
2.0
  0
CIRCLE
  5
14190
330
1F
100
AcDbEntity
  8
AM_2
100
AcDbCircle
 10
2649.067098063901
 20
-152.965459599246
 30
0.0
 40
2.0
  0
INSERT
  5
14193
330
1F
100
AcDbEntity
  8
AM_0
100
AcDbBlockReference
  2
*U5
 10
2972.30382610664
 20
-403.4641071057931
 30
0.0
  0
INSERT
  5
14194
330
1F
100
AcDbEntity
  8
AM_0
100
AcDbBlockReference
  2
*U6
 10
2972.30382610664
 20
-403.4641071057931
 30
0.0
  0
TEXT
  5
14196
330
1F
100
AcDbEntity
  8
AM_6
100
AcDbText
 10
2610.732326103302
 20
-114.564107105793
 30
0.0
 40
3.2
  1
打掛錠外開き用引手セット
 41
0.7
100
AcDbText
  0
INSERT
  5
14197
330
1F
100
AcDbEntity
  8
AM_0
100
AcDbBlockReference
  2
*U7
 10
2972.30382610664
 20
-403.4641071057931
 30
0.0
  0
INSERT
  5
14198
330
1F
100
AcDbEntity
  8
AM_0
100
AcDbBlockReference
  2
*U8
 10
2972.30382610664
 20
-403.4641071057931
 30
0.0
  0
INSERT
  5
14199
330
1F
100
AcDbEntity
  8
AM_0
100
AcDbBlockReference
  2
*U9
 10
2972.30382610664
 20
-403.4641071057931
 30
0.0
  0
INSERT
  5
1419B
330
1F
100
AcDbEntity
  8
AM_0
100
AcDbBlockReference
  2
*U10
 10
2972.30382610664
 20
-387.4641071057931
 30
0.0
  0
TEXT
  5
141CE
330
1F
100
AcDbEntity
  8
AM_6
100
AcDbText
 10
2610.732326103302
 20
-122.564107105793
 30
0.0
 40
3.2
  1
LU-900
 41
0.7
100
AcDbText
  0
TEXT
  5
141D0
330
1F
100
AcDbEntity
  8
AM_6
100
AcDbText
 10
2610.732326103302
 20
-130.564107105793
 30
0.0
 40
3.2
  1
ナイロン
 41
0.7
100
AcDbText
  0
TEXT
  5
141D2
330
1F
100
AcDbEntity
  8
AM_6
100
AcDbText
 10
2610.732326103302
 20
-138.564107105793
 30
0.0
 40
3.2
  1
生地
 41
0.7
100
AcDbText
  0
TEXT
  5
141D3
330
1F
100
AcDbEntity
  8
AM_6
100
AcDbText
 10
2610.935630185457
 20
-146.564107105793
 30
0.0
 40
3.2
  1
M5×D8×40 サラ小ネジ　＋　SUS：2本（パネル厚13ｍｍ用）
 41
0.7
100
AcDbText
  0
TEXT
  5
141D4
330
1F
100
AcDbEntity
  8
AM_6
100
AcDbText
 10
2610.935630185457
 20
-154.564107105793
 30
0.0
 40
3.2
  1
M5×D8×45 サラ小ネジ　＋　SUS：2本（パネル厚16ｍｍ用）
 41
0.7
100
AcDbText
  0
TEXT
  5
141D8
330
1F
100
AcDbEntity
  8
AM_6
100
AcDbText
 10
2610.732326103302
 20
-162.564107105793
 30
0.0
 40
3.2
  1
本製品は、打掛錠（LB-911, LB-916）に取付ける、引手とジョイントのセット品です。
 41
0.7
100
AcDbText
  0
LINE
  5
145F5
330
1F
100
AcDbEntity
  8
Defpoints
100
AcDbLine
 10
2993.303826106639
 20
-97.46410710579358
 30
0.0
 11
2993.303826106639
 21
-108.9641071057936
 31
0.0
  0
LINE
  5
145FB
330
1F
100
AcDbEntity
  8
Defpoints
100
AcDbLine
 10
2993.303826106639
 20
-97.46410710579358
 30
0.0
 11
2981.803826106639
 21
-97.46410710579358
 31
0.0
  0
LINE
  5
145FC
330
1F
100
AcDbEntity
  8
Defpoints
100
AcDbLine
 10
2575.80382610664
 20
-97.46410710579311
 30
0.0
 11
2575.80382610664
 21
-108.9641071057931
 31
0.0
  0
LINE
  5
145FD
330
1F
100
AcDbEntity
  8
Defpoints
100
AcDbLine
 10
2575.80382610664
 20
-97.46410710579311
 30
0.0
 11
2587.303826106639
 21
-97.46410710579311
 31
0.0
  0
LINE
  5
145FE
330
1F
100
AcDbEntity
  8
Defpoints
100
AcDbLine
 10
2993.303826106639
 20
-397.964107105794
 30
0.0
 11
2993.303826106639
 21
-386.464107105794
 31
0.0
  0
LINE
  5
145FF
330
1F
100
AcDbEntity
  8
Defpoints
100
AcDbLine
 10
2993.303826106639
 20
-397.964107105794
 30
0.0
 11
2981.803826106639
 21
-397.964107105794
 31
0.0
  0
LINE
  5
14600
330
1F
100
AcDbEntity
  8
Defpoints
100
AcDbLine
 10
2575.80382610664
 20
-397.9641071057936
 30
0.0
 11
2575.80382610664
 21
-386.4641071057936
 31
0.0
  0
LINE
  5
14601
330
1F
100
AcDbEntity
  8
Defpoints
100
AcDbLine
 10
2575.80382610664
 20
-397.9641071057936
 30
0.0
 11
2587.303826106639
 21
-397.9641071057936
 31
0.0
  0
LWPOLYLINE
  5
14625
330
1F
100
AcDbEntity
  8
AM_1
100
AcDbPolyline
 90
        4
 70
     1
 43
0.0
 10
2587.30382610664
 20
-108.9641071057931
 10
2587.30382610664
 20
-386.4641071057931
 10
2981.803826106639
 20
-386.4641071057936
 10
2981.803826106639
 20
-108.9641071057936
1001
GENIUS_GENREC_14
1002
{
1000
PYDIR
1011
2981.803826106639
1021
-108.9641071057936
1031
0.0
1002
}
1002
{
1000
PXDIR
1011
2587.30382610664
1021
-386.4641071057931
1031
0.0
1002
}
1002
{
1000
PORI
1011
2587.30382610664
1021
-108.9641071057931
1031
0.0
1002
}
1002
{
1000
PINS
1011
2587.30382610664
1021
-108.9641071057931
1031
0.0
1002
}
1002
{
1000
PINS2
1011
2981.803826106639
1021
-386.4641071057936
1031
0.0
1002
}
1002
{
1000
C
1070
     1
1002
}
1001
GENIUS_GENODEF_13
1002
{
1000
HIER
1070
     0
1002
}
1002
{
1000
MANEDIT
1070
     0
1002
}
1002
{
1000
NOSEL
1070
     0
1002
}
1002
{
1000
BEHIND
1070
     0
1002
}
1002
{
1000
OTHER
1070
     0
1002
}
1002
{
1000
REACTOR
1002
}
1001
GENIUS_GENOBJ-N-REC_13
1002
{
1000
OWNER
1000
GEN
1002
}
  0
CIRCLE
  5
14F55
330
1F
100
AcDbEntity
  8
AM_0
100
AcDbCircle
 10
2678.17067415081
 20
-270.5783435548988
 30
0.0
 40
35.25
  0
CIRCLE
  5
14F56
330
1F
100
AcDbEntity
  8
AM_0
 48
0.9
100
AcDbCircle
 10
2678.17067415081
 20
-270.5783435548988
 30
0.0
 40
9.0
  0
CIRCLE
  5
14F57
330
1F
100
AcDbEntity
  8
AM_0
 48
0.475
100
AcDbCircle
 10
2657.17067415081
 20
-270.5783435548988
 30
0.0
 40
4.75
  0
CIRCLE
  5
14F58
330
1F
100
AcDbEntity
  8
AM_0
 48
0.475
100
AcDbCircle
 10
2699.17067415081
 20
-270.5783435548988
 30
0.0
 40
4.75
  0
LINE
  5
14F59
330
1F
100
AcDbEntity
  8
AM_7
 48
0.75
100
AcDbLine
 10
2657.17067415081
 20
-278.0783435548987
 30
0.0
 11
2657.17067415081
 21
-263.0783435548988
 31
0.0
  0
LINE
  5
14F5A
330
1F
100
AcDbEntity
  8
AM_7
 48
0.75
100
AcDbLine
 10
2699.17067415081
 20
-263.0783435548988
 30
0.0
 11
2699.17067415081
 21
-278.0783435548987
 31
0.0
  0
LINE
  5
14F5B
330
1F
100
AcDbEntity
  8
AM_7
100
AcDbLine
 10
2678.17067415081
 20
-232.5783435548988
 30
0.0
 11
2678.17067415081
 21
-313.5783435548987
 31
0.0
  0
ARC
  5
14F5C
330
1F
100
AcDbEntity
  8
AM_0
100
AcDbCircle
 10
2678.17067415081
 20
-270.5783435548988
 30
0.0
 40
40.0
100
AcDbArc
 50
180.0
 51
0.0
  0
LINE
  5
14F5D
330
1F
100
AcDbEntity
  8
AM_0
100
AcDbLine
 10
2758.412843325909
 20
-307.5655721419589
 30
0.0
 11
2758.412843325909
 21
-268.5783435548988
 31
0.0
  0
LINE
  5
14F5E
330
1F
100
AcDbEntity
  8
AM_0
100
AcDbLine
 10
2752.412843325909
 20
-307.5655721419594
 30
0.0
 11
2752.412843325909
 21
-268.5783435548988
 31
0.0
  0
LINE
  5
14F5F
330
1F
100
AcDbEntity
  8
AM_0
100
AcDbLine
 10
2774.412843325909
 20
-283.5783435548988
 30
0.0
 11
2774.412843325909
 21
-235.3283435548988
 31
0.0
  0
LINE
  5
14F61
330
1F
100
AcDbEntity
  8
AM_0
 48
0.6000000000000001
100
AcDbLine
 10
2758.412843325909
 20
-307.5655721419594
 30
0.0
 11
2758.412843325909
 21
-295.5655721419594
 31
0.0
  0
ARC
  5
14F62
330
1F
100
AcDbEntity
  8
AM_0
 48
0.3
100
AcDbCircle
 10
2755.412843325909
 20
-307.5655721419589
 30
0.0
 40
3.0
100
AcDbArc
 50
180.0
 51
0.0
  0
LINE
  5
14F64
330
1F
100
AcDbEntity
  8
AM_7
100
AcDbLine
 10
2721.170674150811
 20
-270.5783435548988
 30
0.0
 11
2635.17067415081
 21
-270.5783435548988
 31
0.0
  0
ARC
  5
14F65
330
1F
100
AcDbEntity
  8
AM_0
 48
0.5
100
AcDbCircle
 10
2643.17067415081
 20
-270.5783435548988
 30
0.0
 40
5.0
100
AcDbArc
 50
85.90395624185514
 51
180.0
  0
ARC
  5
14F66
330
1F
100
AcDbEntity
  8
AM_0
 48
0.5
100
AcDbCircle
 10
2713.17067415081
 20
-270.5783435548988
 30
0.0
 40
5.0
100
AcDbArc
 50
0.0
 51
94.09604375814486
  0
LINE
  5
14F67
330
1F
100
AcDbEntity
  8
AM_7
100
AcDbLine
 10
2775.412843325909
 20
-270.5783435548988
 30
0.0
 11
2750.412843325909
 21
-270.5783435548988
 31
0.0
  0
LINE
  5
14F68
330
1F
100
AcDbEntity
  8
AM_0
 48
0.95
100
AcDbLine
 10
2755.412843325909
 20
-235.3283435548988
 30
0.0
 11
2774.412843325909
 21
-235.3283435548988
 31
0.0
  0
LINE
  5
14F69
330
1F
100
AcDbEntity
  8
AM_0
100
AcDbLine
 10
2755.412843325909
 20
-235.3283435548988
 30
0.0
 11
2755.412843325909
 21
-265.5911149678382
 31
0.0
  0
ARC
  5
14F6A
330
1F
100
AcDbEntity
  8
AM_0
 48
0.3
100
AcDbCircle
 10
2755.412843325909
 20
-268.5783435548988
 30
0.0
 40
3.0
100
AcDbArc
 50
0.0
 51
180.0
  0
DIMENSION
  5
14F83
330
1F
100
AcDbEntity
  8
AM_5
100
AcDbDimension
  2
*D11
 10
2657.17067415081
 20
-320.5655721419589
 30
0.0
 11
2678.17067415081
 21
-317.4655721419589
 31
0.0
 70
    32
 71
     5
 42
42.0
  3
SYS$0
100
AcDbAlignedDimension
 13
2699.17067415081
 23
-278.0783435548987
 33
0.0
 14
2657.17067415081
 24
-278.0783435548987
 34
0.0
100
AcDbRotatedDimension
  0
DIMENSION
  5
14FA6
330
1F
100
AcDbEntity
  8
AM_5
100
AcDbDimension
  2
*D12
 10
2774.412843325909
 20
-225.3283435548988
 30
0.0
 11
2764.912843325909
 21
-222.2283435548987
 31
0.0
 70
    32
 71
     5
 42
19.0
  3
SYS$0
100
AcDbAlignedDimension
 13
2755.412843325909
 23
-235.3283435548988
 33
0.0
 14
2774.412843325909
 24
-235.3283435548988
 34
0.0
100
AcDbRotatedDimension
  0
DIMENSION
  5
14FD2
330
1F
100
AcDbEntity
  8
AM_5
100
AcDbDimension
  2
*D13
 10
2752.412843325908
 20
-320.5655721419589
 30
0.0
 11
2755.412843325908
 21
-317.4655721419589
 31
0.0
 70
    32
 71
     5
 42
6.000000000000454
  3
SYS$0
100
AcDbAlignedDimension
 13
2758.412843325909
 23
-307.5655721419594
 33
0.0
 14
2752.412843325908
 24
-307.5655721419589
 34
0.0
100
AcDbRotatedDimension
  0
DIMENSION
  5
14FE8
330
1F
100
AcDbEntity
  8
AM_5
100
AcDbDimension
  2
*D14
 10
2752.412843325908
 20
-330.5655721419589
 30
0.0
 11
2763.412843325909
 21
-327.4655721419589
 31
0.0
 70
    32
 71
     5
 42
22.00000000000045
  3
SYS$0
100
AcDbAlignedDimension
 13
2774.412843325909
 23
-283.5783435548988
 33
0.0
 14
2752.412843325908
 24
-307.5655721419589
 34
0.0
100
AcDbRotatedDimension
  0
DIMENSION
  5
14FFE
330
1F
100
AcDbEntity
  8
AM_5
100
AcDbDimension
  2
*D15
 10
2638.17067415081
 20
-330.5655721419589
 30
0.0
 11
2678.17067415081
 21
-327.4655721419589
 31
0.0
 70
    32
  1
%%c<>
 71
     5
 42
80.0
  3
SYS$0
100
AcDbAlignedDimension
 13
2718.17067415081
 23
-278.5783435548988
 33
0.0
 14
2638.17067415081
 24
-278.5783435548988
 34
0.0
100
AcDbRotatedDimension
  0
LINE
  5
15059
330
1F
100
AcDbEntity
  8
AM_0
100
AcDbLine
 10
2774.412843325909
 20
-283.5783435548988
 30
0.0
 11
2760.412843325909
 21
-283.5783435548992
 31
0.0
  0
ARC
  5
1505A
330
1F
100
AcDbEntity
  8
AM_0
100
AcDbCircle
 10
2760.412843325909
 20
-285.5783435548992
 30
0.0
 40
2.0
100
AcDbArc
 50
90.0
 51
180.0
1001
GENIUS_GENOBJ-N-FIL_13
1002
{
1000
OWNER
1000
GEN
1002
}
1001
GENIUS_GENODEF_13
1002
{
1000
HIER
1070
     0
1002
}
1002
{
1000
MANEDIT
1070
     0
1002
}
1002
{
1000
NOSEL
1070
     0
1002
}
1002
{
1000
BEHIND
1070
     0
1002
}
1002
{
1000
OTHER
1070
     0
1002
}
1002
{
1000
REACTOR
1002
}
  0
MTEXT
  5
150A9
330
1F
100
AcDbEntity
  8
AM_6
100
AcDbMText
 10
2706.291758738359
 20
-340.8049077991286
 30
0.0
 40
3.2
 41
58.43156059152625
 71
     5
 72
     5
  1
{\L引手}
 73
     1
 44
1.0
  0
DIMENSION
  5
150ED
330
1F
100
AcDbEntity
  8
AM_5
100
AcDbDimension
  2
*D16
 10
2784.412843325909
 20
-310.5655721419589
 30
0.0
 11
2781.312843325909
 21
-297.0719578484284
 31
0.0
 70
    32
 71
     5
 42
26.98722858706015
  3
SYS$0
100
AcDbAlignedDimension
 13
2774.412843325909
 23
-283.5783435548988
 33
0.0
 14
2755.412843325909
 24
-310.5655721419589
 34
0.0
 50
90.0
100
AcDbRotatedDimension
1001
ACAD
1000
DSTYLE
1002
{
1070
   271
1070
     1
1002
}
  0
LINE
  5
15134
330
1F
100
AcDbEntity
  8
AM_7
100
AcDbLine
 10
2826.890420959312
 20
-281.9483160118894
 30
0.0
 11
2847.890420959313
 21
-281.9483160118894
 31
0.0
  0
CIRCLE
  5
15135
330
1F
100
AcDbEntity
  8
AM_0
100
AcDbCircle
 10
2837.390420959313
 20
-281.9483160118894
 30
0.0
 40
7.5
  0
LINE
  5
15136
330
1F
100
AcDbEntity
  8
AM_7
100
AcDbLine
 10
2868.079453060458
 20
-281.9483160118894
 30
0.0
 11
2909.079453060458
 21
-281.9483160118894
 31
0.0
  0
LINE
  5
15137
330
1F
100
AcDbEntity
  8
AM_0
 48
0.5
100
AcDbLine
 10
2889.079453060457
 20
-289.4483160118893
 30
0.0
 11
2871.079453060458
 21
-289.4483160118893
 31
0.0
  0
LINE
  5
15138
330
1F
100
AcDbEntity
  8
AM_0
 48
0.5
100
AcDbLine
 10
2889.079453060458
 20
-274.4483160118893
 30
0.0
 11
2871.079453060458
 21
-274.4483160118893
 31
0.0
  0
LWPOLYLINE
  5
15139
330
1F
100
AcDbEntity
  8
AM_0
100
AcDbPolyline
 90
        4
 70
     1
 43
0.0
 10
2833.840420959312
 20
-278.3983160118892
 10
2840.940420959312
 20
-278.3983160118892
 10
2840.940420959312
 20
-285.4983160118891
 10
2833.840420959312
 20
-285.4983160118891
  0
LINE
  5
1513A
330
1F
100
AcDbEntity
  8
AM_7
100
AcDbLine
 10
2837.390420959313
 20
-271.4548765300283
 30
0.0
 11
2837.390420959313
 21
-292.4483160118894
 31
0.0
  0
LINE
  5
1513B
330
1F
100
AcDbEntity
  8
AM_0
100
AcDbLine
 10
2871.079453060458
 20
-274.4483160118893
 30
0.0
 11
2871.079453060458
 21
-289.4483160118893
 31
0.0
  0
ARC
  5
1513C
330
1F
100
AcDbEntity
  8
AM_0
 48
0.5
100
AcDbCircle
 10
2890.079453060458
 20
-277.4483160118894
 30
0.0
 40
1.0
100
AcDbArc
 50
180.0
 51
270.0
  0
LINE
  5
1513D
330
1F
100
AcDbEntity
  8
AM_0
100
AcDbLine
 10
2903.379453060457
 20
-278.4483160118893
 30
0.0
 11
2889.079453060458
 21
-285.4483160118893
 31
0.0
  0
LINE
  5
1513E
330
1F
100
AcDbEntity
  8
AM_0
100
AcDbLine
 10
2889.079453060458
 20
-278.4483160118893
 30
0.0
 11
2903.379453060458
 21
-285.4483160118893
 31
0.0
  0
LINE
  5
1513F
330
1F
100
AcDbEntity
  8
AM_0
100
AcDbLine
 10
2904.379453060457
 20
-285.4483160118893
 30
0.0
 11
2889.079453060458
 21
-285.4483160118893
 31
0.0
  0
LINE
  5
15140
330
1F
100
AcDbEntity
  8
AM_0
100
AcDbLine
 10
2889.079453060458
 20
-278.4483160118898
 30
0.0
 11
2904.379453060457
 21
-278.4483160118893
 31
0.0
  0
LINE
  5
15141
330
1F
100
AcDbEntity
  8
AM_0
100
AcDbLine
 10
2889.079453060458
 20
-274.4483160118893
 30
0.0
 11
2889.079453060457
 21
-286.4483160118894
 31
0.0
  0
ARC
  5
15142
330
1F
100
AcDbEntity
  8
AM_0
100
AcDbCircle
 10
2890.079453060457
 20
-286.4483160118894
 30
0.0
 40
1.0
100
AcDbArc
 50
90.0
 51
180.0
  0
LINE
  5
15143
330
1F
100
AcDbEntity
  8
AM_0
100
AcDbLine
 10
2889.079453060457
 20
-286.4483160118894
 30
0.0
 11
2889.079453060457
 21
-289.4483160118893
 31
0.0
  0
ARC
  5
15144
330
1F
100
AcDbEntity
  8
AM_0
100
AcDbCircle
 10
2897.754453060457
 20
-281.9483160118898
 30
0.0
 40
6.625000000000505
100
AcDbArc
 50
328.1092081981453
 51
31.89079180185471
  0
LINE
  5
15145
330
1F
100
AcDbEntity
  8
AM_0
100
AcDbLine
 10
2904.379453060457
 20
-278.4483160118893
 30
0.0
 11
2904.379453060457
 21
-285.4483160118893
 31
0.0
  0
CIRCLE
  5
15146
330
1F
100
AcDbEntity
  8
AM_0
100
AcDbCircle
 10
2935.329743477347
 20
-281.9483160118894
 30
0.0
 40
3.5
  0
LWPOLYLINE
  5
15147
330
1F
100
AcDbEntity
  8
AM_0
100
AcDbPolyline
 90
        4
 70
     1
 43
0.0
 10
2931.829743477346
 20
-278.4483160118893
 10
2938.829743477347
 20
-278.4483160118893
 10
2938.829743477347
 20
-285.4483160118893
 10
2931.829743477346
 20
-285.4483160118893
  0
LINE
  5
15148
330
1F
100
AcDbEntity
  8
AM_7
100
AcDbLine
 10
2935.329743477347
 20
-271.4548765300283
 30
0.0
 11
2935.329743477347
 21
-292.4483160118894
 31
0.0
  0
CIRCLE
  5
15149
330
1F
100
AcDbEntity
  8
AM_0
100
AcDbCircle
 10
2935.329743477347
 20
-281.9483160118894
 30
0.0
 40
7.5
  0
LINE
  5
1514A
330
1F
100
AcDbEntity
  8
AM_7
100
AcDbLine
 10
2924.829743477346
 20
-281.9483160118894
 30
0.0
 11
2945.829743477347
 21
-281.9483160118894
 31
0.0
  0
DIMENSION
  5
151C1
330
1F
100
AcDbEntity
  8
AM_5
100
AcDbDimension
  2
*D17
 10
2931.829743477346
 20
-264.4483160118893
 30
0.0
 11
2935.329743477347
 21
-264.4483160118893
 31
0.0
 70
   160
  1
{\Famgdt;o}<>
 71
     5
 42
7.0
  3
SYS$0
100
AcDbAlignedDimension
 13
2938.829743477347
 23
-278.4483160118893
 33
0.0
 14
2931.829743477346
 24
-278.4483160118893
 34
0.0
100
AcDbRotatedDimension
  0
DIMENSION
  5
151E1
330
1F
100
AcDbEntity
  8
AM_5
100
AcDbDimension
  2
*D18
 10
2871.079453060458
 20
-264.4483160118893
 30
0.0
 11
2880.079453060458
 21
-261.3483160118893
 31
0.0
 70
    32
 71
     5
 42
18.00000000000045
  3
SYS$0
100
AcDbAlignedDimension
 13
2889.079453060458
 23
-274.4483160118893
 33
0.0
 14
2871.079453060458
 24
-274.4483160118893
 34
0.0
100
AcDbRotatedDimension
  0
DIMENSION
  5
151F7
330
1F
100
AcDbEntity
  8
AM_5
100
AcDbDimension
  2
*D19
 10
2904.379453060457
 20
-264.4483160118893
 30
0.0
 11
2896.729453060457
 21
-261.3483160118893
 31
0.0
 70
    32
 71
     5
 42
15.29999999999927
  3
SYS$0
100
AcDbAlignedDimension
 13
2889.079453060458
 23
-274.4483160118893
 33
0.0
 14
2904.379453060457
 24
-278.4483160118893
 34
0.0
100
AcDbRotatedDimension
  0
MTEXT
  5
1520D
330
1F
100
AcDbEntity
  8
AM_6
100
AcDbMText
 10
2886.079453060456
 20
-314.1749369043423
 30
0.0
 40
3.2
 41
58.43156059152625
 71
     5
 72
     5
  1
{\Lジョイント}
 73
     1
 44
1.0
  0
DIMENSION
  5
15FF3
330
1F
100
AcDbEntity
  8
AM_5
100
AcDbDimension
  2
*D20
 10
2861.079452060458
 20
-289.4483160118893
 30
0.0
 11
2857.979452060458
 21
-281.9483160118889
 31
0.0
 70
    32
  1
%%c<>
 71
     5
 42
15.0
  3
SYS$0
100
AcDbAlignedDimension
 13
2871.079453060458
 23
-274.4483160118893
 33
0.0
 14
2871.079453060458
 24
-289.4483160118893
 34
0.0
 50
90.0
100
AcDbRotatedDimension
  0
DIMENSION
  5
1E8FC
330
1F
100
AcDbEntity
  8
AM_5
100
AcDbDimension
  2
*D21
 10
2642.92067415081
 20
-225.3283435548988
 30
0.0
 11
2678.17067415081
 21
-222.2283435548987
 31
0.0
 70
    32
  1
%%c<>
 71
     5
 42
70.5
  3
SYS$0
100
AcDbAlignedDimension
 13
2713.42067415081
 23
-270.5783435548988
 33
0.0
 14
2642.92067415081
 24
-270.5783435548988
 34
0.0
100
AcDbRotatedDimension
  0
ENDSEC
  0
SECTION
  2
OBJECTS
  0
DICTIONARY
  5
C
330
0
100
AcDbDictionary
281
     1
  3
ACAD_2007HEADERVARS_RT
350
236EF
  3
ACAD_BGPLOT_KEY
350
AB06
  3
ACAD_COLOR
350
A91D
  3
ACAD_GROUP
350
D
  3
ACAD_LAYOUT
350
1A
  3
ACAD_MATERIAL
350
A91C
  3
ACAD_MLINESTYLE
350
17
  3
ACAD_PLOTSETTINGS
350
19
  3
ACAD_PLOTSTYLENAME
350
E
  3
ACAD_TABLESTYLE
350
AAB9
  3
ACAD_VISUALSTYLE
350
B0F1
  3
AcAsAppObject
350
3DA1
  3
ACASGREF_MASTER
350
3DE9
  3
AcDbVariableDictionary
350
34
  3
AcmDictionary
350
47
  3
AD_GREF_MODULE
350
3DEA
  3
AD_MAPI_MODULE
350
3E06
  3
AMG
350
2B
  3
AMGSNAPSETTINGS
350
7D
  3
ASE_INDEX_DICTIONARY
350
B331
  3
MAPISURF_MODULE
350
3DEB
  0
DICTIONARY
  5
2357A
330
8
100
AcDbDictionary
280
     1
281
     1
  0
DICTIONARY
  5
3F95
330
2
100
AcDbDictionary
280
     1
281
     1
  3
ACAD_LAYERFILTERS
360
B466
  3
ACAD_LAYERSTATES
360
3F96
  3
ACLYDICTIONARY
360
B465
  3
AMLAYER_GROUPCOLORS
360
AAB4
  0
DICTIONARY
  5
8A
330
1F
100
AcDbDictionary
280
     1
281
     1
  3
ACAD_SORTENTS
360
B1BA
  0
DICTIONARY
  5
236EF
102
{ACAD_REACTORS
330
C
102
}
330
C
100
AcDbDictionary
281
     1
  3
DIMARCSYM
350
236F0
  0
DICTIONARY
  5
AB06
102
{ACAD_REACTORS
330
C
102
}
330
C
100
AcDbDictionary
280
     1
281
     1
  0
DICTIONARY
  5
A91D
102
{ACAD_REACTORS
330
C
102
}
330
C
100
AcDbDictionary
281
     1
  0
DICTIONARY
  5
D
102
{ACAD_REACTORS
330
C
102
}
330
C
100
AcDbDictionary
281
     1
  0
DICTIONARY
  5
1A
102
{ACAD_REACTORS
330
C
102
}
330
C
100
AcDbDictionary
281
     1
  3
Model
350
22
  3
ﾚｲｱｳﾄ1
350
1E
  3
ﾚｲｱｳﾄ2
350
26
  0
DICTIONARY
  5
A91C
102
{ACAD_REACTORS
330
C
102
}
330
C
100
AcDbDictionary
281
     1
  3
ByBlock
350
B0EF
  3
ByLayer
350
B0EE
  3
Global
350
B0F0
  0
DICTIONARY
  5
17
102
{ACAD_REACTORS
330
C
102
}
330
C
100
AcDbDictionary
281
     1
  3
Standard
350
18
  0
DICTIONARY
  5
19
102
{ACAD_REACTORS
330
C
102
}
330
C
100
AcDbDictionary
281
     1
  0
ACDBDICTIONARYWDFLT
  5
E
102
{ACAD_REACTORS
330
C
102
}
330
C
100
AcDbDictionary
281
     1
  3
Normal
350
F
100
AcDbDictionaryWithDefault
340
F
  0
DICTIONARY
  5
AAB9
102
{ACAD_REACTORS
330
C
102
}
330
C
100
AcDbDictionary
281
     1
  3
Standard
350
AABA
  0
DICTIONARY
  5
B0F1
102
{ACAD_REACTORS
330
C
102
}
330
C
100
AcDbDictionary
281
     1
  3
2dWireframe
350
B0F7
  3
3D Hidden
350
B0F9
  3
3dWireframe
350
B0F8
  3
Basic
350
B0F6
  3
Brighten
350
B0FD
  3
ColorChange
350
B101
  3
Conceptual
350
B0FA
  3
Dim
350
B0FC
  3
Facepattern
350
B100
  3
Flat
350
B0F2
  3
FlatWithEdges
350
B0F3
  3
Gouraud
350
B0F4
  3
GouraudWithEdges
350
B0F5
  3
Linepattern
350
B0FF
  3
Realistic
350
B0FB
  3
Thicken
350
B0FE
  0
ACAD_PROXY_OBJECT
  5
3DA1
102
{ACAD_REACTORS
330
C
102
}
330
C
100
AcDbProxyObject
 90
      499
 91
      576
 95
   917527
 70
     0
 93
       10
310
404C
 94
        0
  0
ACAD_PROXY_OBJECT
  5
3DE9
102
{ACAD_REACTORS
330
C
102
}
330
C
100
AcDbProxyObject
 90
      499
 91
      581
 95
   917527
 70
     0
 93
       34
310
010000404C
 94
        0
  0
DICTIONARY
  5
34
102
{ACAD_REACTORS
330
C
102
}
330
C
100
AcDbDictionary
281
     1
  3
CTABLESTYLE
350
AAF3
  3
DIMASSOC
350
A10C
  3
FIELDEVAL
350
AB07
  3
HPORIGIN
350
164EF
  3
INDEXCTL
350
35
  3
SORTENTS
350
194C
  0
DICTIONARY
  5
47
102
{ACAD_REACTORS
330
C
102
}
330
C
100
AcDbDictionary
281
     1
  3
AcmBOM
350
7E8
  3
AcmStdDictionary
350
4C
  3
AMDTSECTSYM_ARROWCOLOR
350
A929
  0
ACAD_PROXY_OBJECT
  5
3DEA
102
{ACAD_REACTORS
330
C
102
}
330
C
100
AcDbProxyObject
 90
      499
 91
      582
 95
   917527
 70
     0
 93
      114
310
00000043800000000000000000000C
 94
        0
  0
ACAD_PROXY_OBJECT
  5
3E06
102
{ACAD_REACTORS
330
C
102
}
330
C
100
AcDbProxyObject
 90
      499
 91
      594
 95
   917527
 70
     0
 93
       34
310
05000044CC
 94
        0
  0
DICTIONARY
  5
2B
102
{ACAD_REACTORS
330
C
102
}
330
C
100
AcDbDictionary
281
     1
  0
DICTIONARY
  5
7D
102
{ACAD_REACTORS
330
C
102
}
330
C
100
AcDbDictionary
281
     1
  0
DICTIONARY
  5
B331
102
{ACAD_REACTORS
330
C
102
}
330
C
100
AcDbDictionary
281
     1
  3
ASEBlockHierarchyIndexRecord
350
B332
1001
DCO15
1040
1594111214.218
  0
ACAD_PROXY_OBJECT
  5
3DEB
102
{ACAD_REACTORS
330
C
102
}
330
C
100
AcDbProxyObject
 90
      499
 91
      583
 95
   917527
 70
     0
 93
        8
310
047E
 94
        0
  0
DICTIONARY
  5
B466
102
{ACAD_REACTORS
330
3F95
102
}
330
3F95
100
AcDbDictionary
281
     1
  0
DICTIONARY
  5
3F96
102
{ACAD_REACTORS
330
3F95
102
}
330
3F95
100
AcDbDictionary
281
     1
  3
20011210
350
3FB7
  0
DICTIONARY
  5
B465
102
{ACAD_REACTORS
330
3F95
102
}
330
3F95
100
AcDbDictionary
281
     1
1001
ACAD
1000
<All
  0
DICTIONARY
  5
AAB4
102
{ACAD_REACTORS
330
3F95
102
}
330
3F95
100
AcDbDictionary
280
     1
281
     1
  0
SORTENTSTABLE
  5
B1BA
102
{ACAD_REACTORS
330
8A
102
}
330
8A
100
AcDbSortentsTable
330
1F
331
150ED
  5
150ED
331
14F57
  5
14F57
331
141D8
  5
1419B
331
1418A
  5
14190
331
15135
  5
15135
331
15146
  5
15146
331
14F67
  5
14F68
331
14601
  5
14601
331
141D3
  5
141E0
331
14185
  5
1418B
331
15141
  5
15141
331
14F62
  5
14F64
331
1E8FC
  5
1E8FC
331
145FC
  5
145FC
331
14F83
  5
14FA6
331
141CE
  5
141D9
331
151C1
  5
151C1
331
14180
  5
14186
331
1513C
  5
1513C
331
14F5D
  5
14F5D
331
14190
  5
14199
331
14F58
  5
14F58
331
1418B
  5
14191
331
15136
  5
15136
331
15147
  5
15147
331
14F68
  5
14F69
331
1419B
  5
141D5
331
141D4
  5
141DA
331
14186
  5
1418F
331
15142
  5
15142
331
145FD
  5
145FD
331
14196
  5
141A4
331
14181
  5
14187
331
1513D
  5
1513D
331
14625
  5
14625
331
14FFE
  5
15059
331
14F5E
  5
14F5F
331
15138
  5
15138
331
14F59
  5
14F59
331
1418C
  5
14193
331
15137
  5
15137
331
151F7
  5
151F7
331
15059
  5
1505A
331
15148
  5
15148
331
14F69
  5
14F6A
331
14FE8
  5
14FFE
331
15143
  5
15143
331
14F64
  5
14F65
331
145FE
  5
145FE
331
14197
  5
141CE
331
141D0
  5
141D6
331
14182
  5
14188
331
15FF3
  5
1605E
331
1513E
  5
1513E
331
14F5F
  5
14F61
331
15139
  5
15139
331
14F5A
  5
14F5A
331
1520D
  5
1520D
331
1418D
  5
14196
331
15149
  5
15149
331
1505A
  5
14F5E
331
14F6A
  5
14F83
331
14F55
  5
14F55
331
15144
  5
15144
331
14F65
  5
14F66
331
145FF
  5
145FF
331
14198
  5
141D2
331
14183
  5
14189
331
14FA6
  5
14FD2
331
1513F
  5
1513F
331
150A9
  5
150A9
331
14193
  5
1419E
331
1513A
  5
1513A
331
14FD2
  5
14FE8
331
14F5B
  5
14F5B
331
145F5
  5
145F5
331
1514A
  5
1514A
331
14F56
  5
14F56
331
140E0
  5
140E7
331
15134
  5
15134
331
15145
  5
15145
331
14F66
  5
14F67
331
14199
  5
141D3
331
14600
  5
14600
331
141D2
  5
141D4
331
13FB3
  5
13FBC
331
14184
  5
1418A
331
15140
  5
15140
331
14F61
  5
14F62
331
145FB
  5
145FB
331
14194
  5
141A0
331
151E1
  5
151E1
331
1513B
  5
1513B
331
14F5C
  5
14F5C
331
1418F
  5
14197
  0
XRECORD
  5
236F0
102
{ACAD_REACTORS
330
236EF
102
}
330
236EF
100
AcDbXrecord
280
     1
 70
     1
  0
LAYOUT
  5
22
102
{ACAD_REACTORS
330
1A
102
}
330
1A
100
AcDbPlotSettings
  1

  2
Adobe PDF
  4
A3
  6

 40
3.174999952316284
 41
3.174999952316284
 42
3.17498779296875
 43
3.17498779296875
 44
297.0318298339844
 45
420.1583251953125
 46
0.0
 47
5.689672045650581
 48
5184.303826106638
 49
283.035892894206
140
5762.303826106638
141
700.5358928942059
142
1.0
143
1.43627822432955
 70
  3764
 72
     1
 73
     1
 74
     4
  7
monochrome.ctb
 75
     0
147
0.6962439331465853
 76
     1
 77
     2
 78
   300
148
-5184.303826106638
149
-283.035892894206
100
AcDbLayout
  1
Model
 70
     1
 71
     0
 10
0.0
 20
0.0
 11
12.0
 21
9.0
 12
0.0
 22
0.0
 32
0.0
 14
0.0
 24
0.0
 34
0.0
 15
0.0
 25
0.0
 35
0.0
146
0.0
 13
0.0
 23
0.0
 33
0.0
 16
1.0
 26
0.0
 36
0.0
 17
0.0
 27
1.0
 37
0.0
 76
     0
330
1F
331
B0EC
1001
ACAD_PSEXT
1000
Adobe PDF
1000
Adobe PDF Converter
1000
My Documents\*.pdf
1000

1070
     0
  0
LAYOUT
  5
1E
102
{ACAD_REACTORS
330
1A
102
}
330
1A
100
AcDbPlotSettings
  1

  2
\\ML370\XEROX
  4
A4
  6

 40
3.174999952316284
 41
3.174999952316284
 42
3.175003051757812
 43
3.17498779296875
 44
209.8674926757813
 45
296.6719970703125
 46
0.0
 47
0.0
 48
0.0
 49
0.0
140
0.0
141
0.0
142
1.0
143
1.0
 70
   688
 72
     1
 73
     1
 74
     5
  7
monochrome.ctb
 75
    16
147
1.0
 76
     0
 77
     2
 78
   300
148
0.0
149
0.0
100
AcDbLayout
  1
ﾚｲｱｳﾄ1
 70
     1
 71
     1
 10
-3.17498779296875
 20
-3.174999952316284
 11
293.4970092773438
 21
206.692492723465
 12
0.0
 22
0.0
 32
0.0
 14
1.000000000000000E+20
 24
1.000000000000000E+20
 34
1.000000000000000E+20
 15
-1.000000000000000E+20
 25
-1.000000000000000E+20
 35
-1.000000000000000E+20
146
0.0
 13
0.0
 23
0.0
 33
0.0
 16
1.0
 26
0.0
 36
0.0
 17
0.0
 27
1.0
 37
0.0
 76
     0
330
1B
  0
LAYOUT
  5
26
102
{ACAD_REACTORS
330
1A
102
}
330
1A
100
AcDbPlotSettings
  1

  2
\\ML370\XEROX
  4

  6

 40
0.0
 41
0.0
 42
0.0
 43
0.0
 44
0.0
 45
0.0
 46
0.0
 47
0.0
 48
0.0
 49
0.0
140
0.0
141
0.0
142
1.0
143
1.0
 70
   688
 72
     0
 73
     0
 74
     5
  7
monochrome.ctb
 75
    16
147
1.0
 76
     0
 77
     2
 78
   300
148
0.0
149
0.0
100
AcDbLayout
  1
ﾚｲｱｳﾄ2
 70
     1
 71
     2
 10
0.0
 20
0.0
 11
12.0
 21
9.0
 12
0.0
 22
0.0
 32
0.0
 14
0.0
 24
0.0
 34
0.0
 15
0.0
 25
0.0
 35
0.0
146
0.0
 13
0.0
 23
0.0
 33
0.0
 16
1.0
 26
0.0
 36
0.0
 17
0.0
 27
1.0
 37
0.0
 76
     0
330
23
  0
MATERIAL
  5
B0EF
102
{ACAD_XDICTIONARY
360
236F5
102
}
102
{ACAD_REACTORS
330
A91C
102
}
330
A91C
100
AcDbMaterial
  1
ByBlock
  0
MATERIAL
  5
B0EE
102
{ACAD_XDICTIONARY
360
236F3
102
}
102
{ACAD_REACTORS
330
A91C
102
}
330
A91C
100
AcDbMaterial
  1
ByLayer
  0
MATERIAL
  5
B0F0
102
{ACAD_XDICTIONARY
360
236F7
102
}
102
{ACAD_REACTORS
330
A91C
102
}
330
A91C
100
AcDbMaterial
  1
Global
  0
MLINESTYLE
  5
18
102
{ACAD_REACTORS
330
17
102
}
330
17
100
AcDbMlineStyle
  2
STANDARD
 70
     0
  3

 62
   256
 51
90.0
 52
90.0
 71
     2
 49
0.5
 62
   256
  6
BYLAYER
 49
-0.5
 62
   256
  6
BYLAYER
  0
ACDBPLACEHOLDER
  5
F
102
{ACAD_REACTORS
330
E
102
}
330
E
  0
TABLESTYLE
  5
AABA
102
{ACAD_XDICTIONARY
360
236F1
102
}
102
{ACAD_REACTORS
330
AAB9
102
}
330
AAB9
100
AcDbTableStyle
  3
Standard
 70
     0
 71
     0
 40
1.5
 41
1.5
280
     0
281
     0
  7
STANDARD
140
4.5
170
     2
 62
     0
 63
     7
283
     0
274
    -2
284
     1
 64
     0
275
    -2
285
     1
 65
     0
276
    -2
286
     1
 66
     0
277
    -2
287
     1
 67
     0
278
    -2
288
     1
 68
     0
279
    -2
289
     1
 69
     0
  7
STANDARD
140
6.0
170
     5
 62
     0
 63
     7
283
     0
274
    -2
284
     1
 64
     0
275
    -2
285
     1
 65
     0
276
    -2
286
     1
 66
     0
277
    -2
287
     1
 67
     0
278
    -2
288
     1
 68
     0
279
    -2
289
     1
 69
     0
  7
STANDARD
140
4.5
170
     5
 62
     0
 63
     7
283
     0
274
    -2
284
     1
 64
     0
275
    -2
285
     1
 65
     0
276
    -2
286
     1
 66
     0
277
    -2
287
     1
 67
     0
278
    -2
288
     1
 68
     0
279
    -2
289
     1
 69
     0
  0
VISUALSTYLE
  5
B0F7
102
{ACAD_REACTORS
330
B0F1
102
}
330
B0F1
100
AcDbVisualStyle
  2
2dWireframe
 70
     4
 71
     0
 72
     2
 73
     0
 90
        0
 40
-0.6
 41
-30.0
 62
     5
 63
     7
421
 16777215
 74
     1
 91
        4
 64
     7
 65
   257
 75
     1
175
     1
 42
1.0
 92
        0
 66
   257
 43
1.0
 76
     1
 77
     6
 78
     2
 67
     7
 79
     5
170
     0
171
     0
290
     0
174
     0
 93
        1
 44
0.0
173
     0
291
     0
 45
0.0
1001
ACAD
1000
AcDbSavedByObjectVersion
1070
     0
  0
VISUALSTYLE
  5
B0F9
102
{ACAD_REACTORS
330
B0F1
102
}
330
B0F1
100
AcDbVisualStyle
  2
3D Hidden
 70
     6
 71
     1
 72
     2
 73
     2
 90
        0
 40
-0.6
 41
-30.0
 62
     5
 63
     7
421
 16777215
 74
     2
 91
        2
 64
     7
 65
   257
 75
     2
175
     1
 42
40.0
 92
        0
 66
   257
 43
1.0
 76
     1
 77
     6
 78
     2
 67
     7
 79
     3
170
     0
171
     0
290
     0
174
     0
 93
        1
 44
0.0
173
     0
291
     0
 45
0.0
1001
ACAD
1000
AcDbSavedByObjectVersion
1070
     0
  0
VISUALSTYLE
  5
B0F8
102
{ACAD_REACTORS
330
B0F1
102
}
330
B0F1
100
AcDbVisualStyle
  2
3dWireframe
 70
     5
 71
     0
 72
     2
 73
     0
 90
        0
 40
-0.6
 41
-30.0
 62
     5
 63
     7
421
 16777215
 74
     1
 91
        4
 64
     7
 65
   257
 75
     1
175
     1
 42
1.0
 92
        0
 66
   257
 43
1.0
 76
     1
 77
     6
 78
     2
 67
     7
 79
     5
170
     0
171
     0
290
     0
174
     0
 93
        1
 44
0.0
173
     0
291
     0
 45
0.0
1001
ACAD
1000
AcDbSavedByObjectVersion
1070
     0
  0
VISUALSTYLE
  5
B0F6
102
{ACAD_REACTORS
330
B0F1
102
}
330
B0F1
100
AcDbVisualStyle
  2
Basic
 70
     7
 71
     1
 72
     0
 73
     1
 90
        0
 40
-0.6
 41
-30.0
 62
     5
 63
     7
421
 16777215
 74
     0
 91
        4
 64
     7
 65
   257
 75
     1
175
     1
 42
1.0
 92
        8
 66
     7
 43
1.0
 76
     1
 77
     6
 78
     2
 67
     7
 79
     5
170
     0
171
     0
290
     0
174
     0
 93
        1
 44
0.0
173
     0
291
     1
 45
0.0
1001
ACAD
1000
AcDbSavedByObjectVersion
1070
     0
  0
VISUALSTYLE
  5
B0FD
102
{ACAD_REACTORS
330
B0F1
102
}
330
B0F1
100
AcDbVisualStyle
  2
Brighten
 70
    12
 71
     2
 72
     2
 73
     0
 90
        0
 40
-0.6
 41
-30.0
 62
     5
 63
     7
421
 16777215
 74
     1
 91
        4
 64
     7
 65
   257
 75
     1
175
     1
 42
1.0
 92
        8
 66
     7
 43
1.0
 76
     1
 77
     6
 78
     2
 67
     7
 79
     5
170
     0
171
     0
290
     0
174
     0
 93
        1
 44
50.0
173
     0
291
     1
 45
0.0
1001
ACAD
1000
AcDbSavedByObjectVersion
1070
     0
  0
VISUALSTYLE
  5
B101
102
{ACAD_REACTORS
330
B0F1
102
}
330
B0F1
100
AcDbVisualStyle
  2
ColorChange
 70
    16
 71
     2
 72
     2
 73
     3
 90
        0
 40
-0.6
 41
-30.0
 62
     5
 63
     8
421
  8421504
 74
     1
 91
        4
 64
     7
 65
   257
 75
     1
175
     1
 42
1.0
 92
        8
 66
     8
424
  8421504
 43
1.0
 76
     1
 77
     6
 78
     2
 67
     7
 79
     5
170
     0
171
     0
290
     0
174
     0
 93
        1
 44
0.0
173
     0
291
     1
 45
0.0
1001
ACAD
1000
AcDbSavedByObjectVersion
1070
     0
  0
VISUALSTYLE
  5
B0FA
102
{ACAD_REACTORS
330
B0F1
102
}
330
B0F1
100
AcDbVisualStyle
  2
Conceptual
 70
     9
 71
     3
 72
     2
 73
     0
 90
        0
 40
-0.6
 41
-30.0
 62
     5
 63
     7
421
 16777215
 74
     2
 91
        2
 64
     7
 65
   257
 75
     1
175
     1
 42
40.0
 92
        8
 66
     7
 43
1.0
 76
     1
 77
     6
 78
     2
 67
     7
 79
     3
170
     0
171
     0
290
     0
174
     0
 93
        1
 44
0.0
173
     0
291
     0
 45
0.0
1001
ACAD
1000
AcDbSavedByObjectVersion
1070
     0
  0
VISUALSTYLE
  5
B0FC
102
{ACAD_REACTORS
330
B0F1
102
}
330
B0F1
100
AcDbVisualStyle
  2
Dim
 70
    11
 71
     2
 72
     2
 73
     0
 90
        0
 40
-0.6
 41
-30.0
 62
     5
 63
     7
421
 16777215
 74
     1
 91
        4
 64
     7
 65
   257
 75
     1
175
     1
 42
1.0
 92
        8
 66
     7
 43
1.0
 76
     1
 77
     6
 78
     2
 67
     7
 79
     5
170
     0
171
     0
290
     0
174
     0
 93
        1
 44
-50.0
173
     0
291
     1
 45
0.0
1001
ACAD
1000
AcDbSavedByObjectVersion
1070
     0
  0
VISUALSTYLE
  5
B100
102
{ACAD_REACTORS
330
B0F1
102
}
330
B0F1
100
AcDbVisualStyle
  2
Facepattern
 70
    15
 71
     2
 72
     2
 73
     0
 90
        0
 40
-0.6
 41
-30.0
 62
     5
 63
     7
421
 16777215
 74
     1
 91
        4
 64
     7
 65
   257
 75
     1
175
     1
 42
1.0
 92
        8
 66
     7
 43
1.0
 76
     1
 77
     6
 78
     2
 67
     7
 79
     5
170
     0
171
     0
290
     0
174
     0
 93
        1
 44
0.0
173
     0
291
     1
 45
0.0
1001
ACAD
1000
AcDbSavedByObjectVersion
1070
     0
  0
VISUALSTYLE
  5
B0F2
102
{ACAD_REACTORS
330
B0F1
102
}
330
B0F1
100
AcDbVisualStyle
  2
Flat
 70
     0
 71
     2
 72
     1
 73
     1
 90
        2
 40
-0.6
 41
30.0
 62
     5
 63
     7
421
 16777215
 74
     0
 91
        4
 64
     7
 65
   257
 75
     1
175
     1
 42
1.0
 92
        8
 66
     7
 43
1.0
 76
     1
 77
     6
 78
     2
 67
     7
 79
     5
170
     0
171
     0
290
     0
174
     0
 93
       13
 44
0.0
173
     0
291
     1
 45
0.0
1001
ACAD
1000
AcDbSavedByObjectVersion
1070
     0
  0
VISUALSTYLE
  5
B0F3
102
{ACAD_REACTORS
330
B0F1
102
}
330
B0F1
100
AcDbVisualStyle
  2
FlatWithEdges
 70
     1
 71
     2
 72
     1
 73
     1
 90
        2
 40
-0.6
 41
30.0
 62
     5
 63
     7
421
 16777215
 74
     1
 91
        4
 64
     7
 65
   257
 75
     1
175
     1
 42
1.0
 92
        0
 66
   257
 43
1.0
 76
     1
 77
     6
 78
     2
 67
     7
 79
     5
170
     0
171
     0
290
     0
174
     0
 93
       13
 44
0.0
173
     0
291
     1
 45
0.0
1001
ACAD
1000
AcDbSavedByObjectVersion
1070
     0
  0
VISUALSTYLE
  5
B0F4
102
{ACAD_REACTORS
330
B0F1
102
}
330
B0F1
100
AcDbVisualStyle
  2
Gouraud
 70
     2
 71
     2
 72
     2
 73
     1
 90
        2
 40
-0.6
 41
30.0
 62
     5
 63
     7
421
 16777215
 74
     0
 91
        4
 64
     7
 65
   257
 75
     1
175
     1
 42
1.0
 92
        0
 66
     7
 43
1.0
 76
     1
 77
     6
 78
     2
 67
     7
 79
     5
170
     0
171
     0
290
     0
174
     0
 93
       13
 44
0.0
173
     0
291
     1
 45
0.0
1001
ACAD
1000
AcDbSavedByObjectVersion
1070
     0
  0
VISUALSTYLE
  5
B0F5
102
{ACAD_REACTORS
330
B0F1
102
}
330
B0F1
100
AcDbVisualStyle
  2
GouraudWithEdges
 70
     3
 71
     2
 72
     2
 73
     1
 90
        2
 40
-0.6
 41
30.0
 62
     5
 63
     7
421
 16777215
 74
     1
 91
        4
 64
     7
 65
   257
 75
     1
175
     1
 42
1.0
 92
        0
 66
   257
 43
1.0
 76
     1
 77
     6
 78
     2
 67
     7
 79
     5
170
     0
171
     0
290
     0
174
     0
 93
       13
 44
0.0
173
     0
291
     1
 45
0.0
1001
ACAD
1000
AcDbSavedByObjectVersion
1070
     0
  0
VISUALSTYLE
  5
B0FF
102
{ACAD_REACTORS
330
B0F1
102
}
330
B0F1
100
AcDbVisualStyle
  2
Linepattern
 70
    14
 71
     2
 72
     2
 73
     0
 90
        0
 40
-0.6
 41
-30.0
 62
     5
 63
     7
421
 16777215
 74
     1
 91
        4
 64
     7
 65
   257
 75
     7
175
     7
 42
1.0
 92
        8
 66
     7
 43
1.0
 76
     1
 77
     6
 78
     2
 67
     7
 79
     5
170
     0
171
     0
290
     0
174
     0
 93
        1
 44
0.0
173
     0
291
     1
 45
0.0
1001
ACAD
1000
AcDbSavedByObjectVersion
1070
     0
  0
VISUALSTYLE
  5
B0FB
102
{ACAD_REACTORS
330
B0F1
102
}
330
B0F1
100
AcDbVisualStyle
  2
Realistic
 70
     8
 71
     2
 72
     2
 73
     0
 90
        0
 40
-0.6
 41
-30.0
 62
     5
 63
     7
421
 16777215
 74
     1
 91
        0
 64
     7
 65
   257
 75
     1
175
     1
 42
1.0
 92
        8
 66
     8
424
  7895160
 43
1.0
 76
     1
 77
     6
 78
     2
 67
     7
 79
     5
170
     0
171
     0
290
     0
174
     0
 93
       13
 44
0.0
173
     0
291
     0
 45
0.0
1001
ACAD
1000
AcDbSavedByObjectVersion
1070
     0
  0
VISUALSTYLE
  5
B0FE
102
{ACAD_REACTORS
330
B0F1
102
}
330
B0F1
100
AcDbVisualStyle
  2
Thicken
 70
    13
 71
     2
 72
     2
 73
     0
 90
        0
 40
-0.6
 41
-30.0
 62
     5
 63
     7
421
 16777215
 74
     1
 91
        4
 64
     7
 65
   257
 75
     1
175
     1
 42
1.0
 92
       12
 66
     7
 43
1.0
 76
     1
 77
     6
 78
     2
 67
     7
 79
     5
170
     0
171
     0
290
     0
174
     0
 93
        1
 44
0.0
173
     0
291
     1
 45
0.0
1001
ACAD
1000
AcDbSavedByObjectVersion
1070
     0
  0
DICTIONARYVAR
  5
AAF3
102
{ACAD_REACTORS
330
34
102
}
330
34
100
DictionaryVariables
280
     0
  1
STANDARD
  0
DICTIONARYVAR
  5
A10C
102
{ACAD_REACTORS
330
34
102
}
330
34
100
DictionaryVariables
280
     0
  1
1
  0
DICTIONARYVAR
  5
AB07
102
{ACAD_REACTORS
330
34
102
}
330
34
100
DictionaryVariables
280
     0
  1
4
  0
DICTIONARYVAR
  5
164EF
102
{ACAD_REACTORS
330
34
102
}
330
34
100
DictionaryVariables
280
     0
  1
144.323471;36.400000
  0
DICTIONARYVAR
  5
35
102
{ACAD_REACTORS
330
34
102
}
330
34
100
DictionaryVariables
280
     0
  1
1
  0
DICTIONARYVAR
  5
194C
102
{ACAD_REACTORS
330
34
102
}
330
34
100
DictionaryVariables
280
     0
  1
96
  0
DICTIONARY
  5
7E8
102
{ACAD_REACTORS
330
47
102
}
330
47
100
AcDbDictionary
281
     1
  0
DICTIONARY
  5
4C
102
{ACAD_REACTORS
330
47
102
}
330
47
100
AcDbDictionary
281
     1
  0
XRECORD
  5
A929
102
{ACAD_REACTORS
330
47
102
}
330
47
100
AcDbXrecord
280
     1
 90
-1023410169
  0
XRECORD
  5
B332
102
{ACAD_REACTORS
330
B331
102
}
330
B331
100
AcDbXrecord
280
     1
  0
XRECORD
  5
3FB7
102
{ACAD_REACTORS
330
3F96
102
}
330
3F96
100
AcDbXrecord
280
     1
 91
        3
330
0
 90
        8
 62
     7
370
    40
331
16
  1
Color_7
330
0
 90
        0
 62
    14
370
    -3
331
16
  1
Color_14
330
0
 90
        8
 62
     7
370
    20
331
16
  1
Color_7
330
6D1
 90
        0
 62
     7
370
    -3
331
16
  1
Color_7
330
0
 90
        8
 62
     7
370
    50
331
16
  1
Color_7
330
0
 90
        8
 62
     2
370
    35
331
16
  1
Color_2
330
0
 90
        8
 62
     7
370
    -3
331
16
  1
Color_7
330
10
 90
        8
 62
     7
370
    -3
331
16
  1
Color_7
  0
DICTIONARY
  5
236F5
330
B0EF
100
AcDbDictionary
280
     1
281
     1
  3
ACAD_XREC_ROUNDTRIP
360
236F6
  0
DICTIONARY
  5
236F3
330
B0EE
100
AcDbDictionary
280
     1
281
     1
  3
ACAD_XREC_ROUNDTRIP
360
236F4
  0
DICTIONARY
  5
236F7
330
B0F0
100
AcDbDictionary
280
     1
281
     1
  3
ACAD_XREC_ROUNDTRIP
360
236F8
  0
DICTIONARY
  5
236F1
330
AABA
100
AcDbDictionary
280
     1
281
     1
  3
ACAD_XREC_ROUNDTRIP
360
236F2
  0
XRECORD
  5
236F6
102
{ACAD_REACTORS
330
236F5
102
}
330
236F5
100
AcDbXrecord
280
     1
102
MATERIAL
148
0.0
149
0.0
149
0.0
 93
        0
 94
       63
282
     0
 72
     1
 77
     1
171
     1
175
     1
179
     1
273
     0
  0
XRECORD
  5
236F4
102
{ACAD_REACTORS
330
236F3
102
}
330
236F3
100
AcDbXrecord
280
     1
102
MATERIAL
148
0.0
149
0.0
149
0.0
 93
        0
 94
       63
282
     0
 72
     1
 77
     1
171
     1
175
     1
179
     1
273
     0
  0
XRECORD
  5
236F8
102
{ACAD_REACTORS
330
236F7
102
}
330
236F7
100
AcDbXrecord
280
     1
102
MATERIAL
148
0.0
149
0.0
149
0.0
 93
        0
 94
       63
282
     0
 72
     1
 77
     1
171
     1
175
     1
179
     1
273
     0
  0
XRECORD
  5
236F2
102
{ACAD_REACTORS
330
236F1
102
}
330
236F1
100
AcDbXrecord
280
     1
102
ACAD_ROUNDTRIP_PRE2007_TABLESTYLE
 90
        4
 91
        0
  1

 92
        4
 93
        0
  2

 94
        4
 95
        0
  3

  0
ENDSEC
  0
EOF
