  0
SECTION
  2
HEADER
  9
$ACADVER
  1
AC1015
  9
$ACADMAINTVER
 70
    20
  9
$DWGCODEPAGE
  3
ANSI_932
  9
$INSBASE
 10
0.0
 20
0.0
 30
0.0
  9
$EXTMIN
 10
434.7874683784891
 20
-21032.148741109
 30
0.0
  9
$EXTMAX
 10
22000.12780063164
 20
2788.911547256983
 30
0.0
  9
$LIMMIN
 10
3016.51691678317
 20
-5199.731160501375
  9
$LIMMAX
 10
4204.51691678317
 20
-4359.731160501374
  9
$ORTHOMODE
 70
     0
  9
$REGENMODE
 70
     1
  9
$FILLMODE
 70
     1
  9
$QTEXTMODE
 70
     0
  9
$MIRRTEXT
 70
     0
  9
$LTSCALE
 40
1.0
  9
$ATTMODE
 70
     1
  9
$TEXTSIZE
 40
3.2
  9
$TRACEWID
 40
1.0
  9
$TEXTSTYLE
  7
STANDARD
  9
$CLAYER
  8
AM_0
  9
$CELTYPE
  6
ByLayer
  9
$CECOLOR
 62
   256
  9
$CELTSCALE
 40
1.0
  9
$DISPSILH
 70
     0
  9
$DIMSCALE
 40
1.0
  9
$DIMASZ
 40
1.0
  9
$DIMEXO
 40
1.0
  9
$DIMDLI
 40
10.0
  9
$DIMRND
 40
0.0
  9
$DIMDLE
 40
0.0
  9
$DIMEXE
 40
1.0
  9
$DIMTP
 40
0.1
  9
$DIMTM
 40
0.1
  9
$DIMTXT
 40
3.5
  9
$DIMCEN
 40
0.0
  9
$DIMTSZ
 40
0.0
  9
$DIMTOL
 70
     0
  9
$DIMLIM
 70
     0
  9
$DIMTIH
 70
     0
  9
$DIMTOH
 70
     0
  9
$DIMSE1
 70
     0
  9
$DIMSE2
 70
     0
  9
$DIMTAD
 70
     1
  9
$DIMZIN
 70
     8
  9
$DIMBLK
  1

  9
$DIMASO
 70
     1
  9
$DIMSHO
 70
     1
  9
$DIMPOST
  1

  9
$DIMAPOST
  1
"
  9
$DIMALT
 70
     0
  9
$DIMALTD
 70
     2
  9
$DIMALTF
 40
0.0393701
  9
$DIMLFAC
 40
1.0
  9
$DIMTOFL
 70
     1
  9
$DIMTVP
 40
0.0
  9
$DIMTIX
 70
     0
  9
$DIMSOXD
 70
     0
  9
$DIMSAH
 70
     0
  9
$DIMBLK1
  1

  9
$DIMBLK2
  1

  9
$DIMSTYLE
  2
SYS
  9
$DIMCLRD
 70
   256
  9
$DIMCLRE
 70
   256
  9
$DIMCLRT
 70
     7
  9
$DIMTFAC
 40
0.71
  9
$DIMGAP
 40
1.5
  9
$DIMJUST
 70
     0
  9
$DIMSD1
 70
     0
  9
$DIMSD2
 70
     0
  9
$DIMTOLJ
 70
     0
  9
$DIMTZIN
 70
     8
  9
$DIMALTZ
 70
     0
  9
$DIMALTTZ
 70
     0
  9
$DIMUPT
 70
     0
  9
$DIMDEC
 70
     2
  9
$DIMTDEC
 70
     2
  9
$DIMALTU
 70
     2
  9
$DIMALTTD
 70
     2
  9
$DIMTXSTY
  7
STANDARD
  9
$DIMAUNIT
 70
     0
  9
$DIMADEC
 70
     0
  9
$DIMALTRND
 40
0.0
  9
$DIMAZIN
 70
     2
  9
$DIMDSEP
 70
    46
  9
$DIMATFIT
 70
     3
  9
$DIMFRAC
 70
     0
  9
$DIMLDRBLK
  1

  9
$DIMLUNIT
 70
     2
  9
$DIMLWD
 70
    -1
  9
$DIMLWE
 70
    -1
  9
$DIMTMOVE
 70
     0
  9
$LUNITS
 70
     2
  9
$LUPREC
 70
     2
  9
$SKETCHINC
 40
1.0
  9
$FILLETRAD
 40
1.199999999999999
  9
$AUNITS
 70
     0
  9
$AUPREC
 70
     0
  9
$MENU
  1
.
  9
$ELEVATION
 40
0.0
  9
$PELEVATION
 40
0.0
  9
$THICKNESS
 40
0.0
  9
$LIMCHECK
 70
     0
  9
$CHAMFERA
 40
0.0
  9
$CHAMFERB
 40
0.0
  9
$CHAMFERC
 40
20.0
  9
$CHAMFERD
 40
0.0
  9
$SKPOLY
 70
     0
  9
$TDCREATE
 40
2455567.680725081
  9
$TDUCREATE
 40
2455567.305725081
  9
$TDUPDATE
 40
2455651.428903171
  9
$TDUUPDATE
 40
2455651.053903171
  9
$TDINDWG
 40
5.7754863542
  9
$TDUSRTIMER
 40
5.7754847222
  9
$USRTIMER
 70
     1
  9
$ANGBASE
 50
0.0
  9
$ANGDIR
 70
     0
  9
$PDMODE
 70
     0
  9
$PDSIZE
 40
-3.0
  9
$PLINEWID
 40
0.0
  9
$SPLFRAME
 70
     0
  9
$SPLINETYPE
 70
     6
  9
$SPLINESEGS
 70
     8
  9
$HANDSEED
  5
69044
  9
$SURFTAB1
 70
     6
  9
$SURFTAB2
 70
     6
  9
$SURFTYPE
 70
     6
  9
$SURFU
 70
     6
  9
$SURFV
 70
     6
  9
$UCSBASE
  2

  9
$UCSNAME
  2

  9
$UCSORG
 10
0.0
 20
0.0
 30
0.0
  9
$UCSXDIR
 10
1.0
 20
0.0
 30
0.0
  9
$UCSYDIR
 10
0.0
 20
1.0
 30
0.0
  9
$UCSORTHOREF
  2

  9
$UCSORTHOVIEW
 70
     0
  9
$UCSORGTOP
 10
0.0
 20
0.0
 30
0.0
  9
$UCSORGBOTTOM
 10
0.0
 20
0.0
 30
0.0
  9
$UCSORGLEFT
 10
0.0
 20
0.0
 30
0.0
  9
$UCSORGRIGHT
 10
0.0
 20
0.0
 30
0.0
  9
$UCSORGFRONT
 10
0.0
 20
0.0
 30
0.0
  9
$UCSORGBACK
 10
0.0
 20
0.0
 30
0.0
  9
$PUCSBASE
  2

  9
$PUCSNAME
  2

  9
$PUCSORG
 10
0.0
 20
0.0
 30
0.0
  9
$PUCSXDIR
 10
1.0
 20
0.0
 30
0.0
  9
$PUCSYDIR
 10
0.0
 20
1.0
 30
0.0
  9
$PUCSORTHOREF
  2

  9
$PUCSORTHOVIEW
 70
     0
  9
$PUCSORGTOP
 10
0.0
 20
0.0
 30
0.0
  9
$PUCSORGBOTTOM
 10
0.0
 20
0.0
 30
0.0
  9
$PUCSORGLEFT
 10
0.0
 20
0.0
 30
0.0
  9
$PUCSORGRIGHT
 10
0.0
 20
0.0
 30
0.0
  9
$PUCSORGFRONT
 10
0.0
 20
0.0
 30
0.0
  9
$PUCSORGBACK
 10
0.0
 20
0.0
 30
0.0
  9
$USERI1
 70
     0
  9
$USERI2
 70
     0
  9
$USERI3
 70
     0
  9
$USERI4
 70
     0
  9
$USERI5
 70
     0
  9
$USERR1
 40
0.0
  9
$USERR2
 40
0.0
  9
$USERR3
 40
0.0
  9
$USERR4
 40
0.0
  9
$USERR5
 40
0.0
  9
$WORLDVIEW
 70
     1
  9
$SHADEDGE
 70
     3
  9
$SHADEDIF
 70
    70
  9
$TILEMODE
 70
     1
  9
$MAXACTVP
 70
    64
  9
$PINSBASE
 10
0.0
 20
0.0
 30
0.0
  9
$PLIMCHECK
 70
     0
  9
$PEXTMIN
 10
1.000000000000000E+20
 20
1.000000000000000E+20
 30
1.000000000000000E+20
  9
$PEXTMAX
 10
-1.000000000000000E+20
 20
-1.000000000000000E+20
 30
-1.000000000000000E+20
  9
$PLIMMIN
 10
-3.17498779296875
 20
-3.174999952316284
  9
$PLIMMAX
 10
293.4970092773438
 20
206.692492723465
  9
$UNITMODE
 70
     0
  9
$VISRETAIN
 70
     1
  9
$PLINEGEN
 70
     0
  9
$PSLTSCALE
 70
     1
  9
$TREEDEPTH
 70
  3020
  9
$CMLSTYLE
  2
Standard
  9
$CMLJUST
 70
     0
  9
$CMLSCALE
 40
20.0
  9
$PROXYGRAPHICS
 70
     1
  9
$MEASUREMENT
 70
     1
  9
$CELWEIGHT
370
    -1
  9
$ENDCAPS
280
     0
  9
$JOINSTYLE
280
     0
  9
$LWDISPLAY
290
     1
  9
$INSUNITS
 70
     4
  9
$HYPERLINKBASE
  1

  9
$STYLESHEET
  1
monochrome.ctb
  9
$XEDIT
290
     1
  9
$CEPSNTYPE
380
     0
  9
$PSTYLEMODE
290
     1
  9
$FINGERPRINTGUID
  2
{487E49EE-344A-43F6-800E-CE119D8346FF}
  9
$VERSIONGUID
  2
{68F34DD9-CA09-48F1-B615-8641A30B8CDC}
  9
$EXTNAMES
290
     1
  9
$PSVPSCALE
 40
0.0
  9
$OLESTARTUP
290
     0
  0
ENDSEC
  0
SECTION
  2
CLASSES
  0
CLASS
  1
ACDBDICTIONARYWDFLT
  2
AcDbDictionaryWithDefault
  3
ObjectDBX Classes
 90
        0
280
     0
281
     0
  0
CLASS
  1
ACDBPLACEHOLDER
  2
AcDbPlaceHolder
  3
ObjectDBX Classes
 90
        0
280
     0
281
     0
  0
CLASS
  1
LAYOUT
  2
AcDbLayout
  3
ObjectDBX Classes
 90
        0
280
     0
281
     0
  0
CLASS
  1
AMGSETTINGSOBJ
  2
AmgSettingsObj
  3
"AcadM|Product Description: AutoCAD Mechanical|Company: Autodesk"
 90
        0
280
     0
281
     0
  0
CLASS
  1
ACME_DOCUMENT
  2
AcMeDbDoc
  3
AcMeServices
 90
        0
280
     0
281
     0
  0
CLASS
  1
ACMESCOPE
  2
AcMeScope
  3
AcMeServices
 90
        0
280
     0
281
     0
  0
CLASS
  1
ACMECOMMANDHISTORY
  2
AcMeCommandHistory
  3
AcMeServices
 90
        0
280
     0
281
     0
  0
CLASS
  1
DICTIONARYVAR
  2
AcDbDictionaryVar
  3
ObjectDBX Classes
 90
        0
280
     0
281
     0
  0
CLASS
  1
ACIMSYSVARMAN
  2
AcImSysVarManager
  3
AcMeServices
 90
        0
280
     0
281
     0
  0
CLASS
  1
ACIMREALSYSVAR
  2
AcImRealSysVar
  3
AcMeServices
 90
        0
280
     0
281
     0
  0
CLASS
  1
ACIMINTSYSVAR
  2
AcImIntSysVar
  3
AcMeServices
 90
        0
280
     0
281
     0
  0
CLASS
  1
ACMEDRAWINGMAN
  2
AcMeDrawingMan
  3
AcMeServices
 90
        0
280
     0
281
     0
  0
CLASS
  1
ACMEVIEW
  2
AcMeView
  3
AcMeServices
 90
        0
280
     0
281
     0
  0
CLASS
  1
ACDBENTITYCACHE
  2
AcMeEntityCache
  3
AcMeServices
 90
        0
280
     0
281
     0
  0
CLASS
  1
GSMANAGER
  2
AcMeGSManager
  3
AcMeServices
 90
        0
280
     0
281
     0
  0
CLASS
  1
AMDTINTERNALREACTOR
  2
AmdtInternalReactor
  3
AcMeServices
 90
        0
280
     0
281
     0
  0
CLASS
  1
ACMESTATEMGR
  2
AcMeStateMgr
  3
AcMeServices
 90
        0
280
     0
281
     0
  0
CLASS
  1
ACGREFMASTER
  2
AcGrefMaster
  3
AcAttribServices
 90
        0
280
     0
281
     0
  0
CLASS
  1
ACME_DATABASE
  2
AcMeDbDatabase
  3
AcMeServices
 90
        0
280
     0
281
     0
  0
CLASS
  1
ACRFINSADJUSTERMGR
  2
AcRfInsAdjusterMgr
  3
AcMeServices
 90
        0
280
     0
281
     0
  0
CLASS
  1
ACGREFACADMASTER
  2
AcGrefacadMaster
  3
AcGrefServices
 90
        0
280
     0
281
     0
  0
CLASS
  1
AMIMASTER
  2
AmiMaster
  3
AmiServices
 90
        0
280
     0
281
     0
  0
CLASS
  1
ACMDATADICTIONARY
  2
AcmDataDictionary
  3
"AcmSymBB|Product Description: AutoCAD Mechanical|Company: Autodesk"
 90
        0
280
     0
281
     0
  0
CLASS
  1
ACMDATAENTRYBLOCK
  2
AcmDataEntryBlock
  3
"AcmSymBB|Product Description: AutoCAD Mechanical|Company: Autodesk"
 90
        0
280
     0
281
     0
  0
CLASS
  1
ACIMSTRSYSVAR
  2
AcImStrSysVar
  3
AcMeServices
 90
        0
280
     0
281
     0
  0
CLASS
  1
ACMSTANDARDISO
  2
AcmStandardISO
  3
"Amdt_StdImp|Product Description: AutoCAD Mechanical|Company: Autodesk"
 90
        0
280
     0
281
     0
  0
CLASS
  1
AMGOBJPROPCFG
  2
AmgObjPropCfg
  3
"AmgLay|Product Description: AutoCAD Mechanical|Company: Autodesk"
 90
        1
280
     0
281
     0
  0
CLASS
  1
AMDTEDGESTANDARDISO
  2
AmdtEdgeStdISO
  3
"Amdt_StdImp|Product Description: AutoCAD Mechanical|Company: Autodesk"
 90
        0
280
     0
281
     0
  0
CLASS
  1
ACMSURFSTANDARDISO
  2
AcmSurfTextStdISO
  3
"Amdt_StdImp|Product Description: AutoCAD Mechanical|Company: Autodesk"
 90
        0
280
     0
281
     0
  0
CLASS
  1
ACMFCFSTANDARDISO
  2
AcmFCFStdISO
  3
"Amdt_StdImp|Product Description: AutoCAD Mechanical|Company: Autodesk"
 90
        0
280
     0
281
     0
  0
CLASS
  1
ACMWELDSTANDARDISO
  2
AcmWeldingStdISO
  3
"Amdt_StdImp|Product Description: AutoCAD Mechanical|Company: Autodesk"
 90
        0
280
     0
281
     0
  0
CLASS
  1
ACMIDSTANDARDISO
  2
AcmIdStdISO
  3
"Amdt_StdImp|Product Description: AutoCAD Mechanical|Company: Autodesk"
 90
        0
280
     0
281
     0
  0
CLASS
  1
ACMDATUMSTANDARDISO
  2
AcmDatumStdISO
  3
"Amdt_StdImp|Product Description: AutoCAD Mechanical|Company: Autodesk"
 90
        0
280
     0
281
     0
  0
CLASS
  1
ACMBOMSTANDARDISO
  2
AcmBOMStdISO
  3
"Amdt_StdImp|Product Description: AutoCAD Mechanical|Company: Autodesk"
 90
        0
280
     0
281
     0
  0
CLASS
  1
ACMDETAILSTANDARDISO
  2
AmdtDetailSymStdISO
  3
"Amdt_StdImp|Product Description: AutoCAD Mechanical|Company: Autodesk"
 90
        0
280
     0
281
     0
  0
CLASS
  1
ACMSECTIONSTANDARDISO
  2
AmdtSectionSymStdISO
  3
"Amdt_StdImp|Product Description: AutoCAD Mechanical|Company: Autodesk"
 90
        0
280
     0
281
     0
  0
CLASS
  1
ACMCENTERLINESTANDARDISO
  2
AmdtCenterLineStdISO
  3
"Amdt_StdImp|Product Description: AutoCAD Mechanical|Company: Autodesk"
 90
        0
280
     0
281
     0
  0
CLASS
  1
ACAMGLAYSTD
  2
AcAmgLayStd
  3
"AmgLay|Product Description: AutoCAD Mechanical|Company: Autodesk"
 90
        0
280
     0
281
     0
  0
CLASS
  1
ACAMGDIMSTD
  2
AcAmgDimStd
  3
"AmgDim|Product Description: AutoCAD Mechanical|Company: Autodesk"
 90
        0
280
     0
281
     0
  0
CLASS
  1
ACAMGTITLESTD
  2
AcAmgTitleStd
  3
"AmgTitle|Product Description: AutoCAD Mechanical|Company: Autodesk"
 90
        0
280
     0
281
     0
  0
CLASS
  1
ACAMGFILTERDAT
  2
AcAmgFilterDat
  3
"AcadM|Product Description: AutoCAD Mechanical|Company: Autodesk"
 90
        0
280
     0
281
     0
  0
CLASS
  1
LAYER_INDEX
  2
AcDbLayerIndex
  3
ObjectDBX Classes
 90
    32768
280
     0
281
     0
  0
CLASS
  1
IDBUFFER
  2
AcDbIdBuffer
  3
ObjectDBX Classes
 90
    32768
280
     0
281
     0
  0
CLASS
  1
PLOTSETTINGS
  2
AcDbPlotSettings
  3
ObjectDBX Classes
 90
    32768
280
     0
281
     0
  0
CLASS
  1
AMDTFORMULAUPDATEDISPATCHER
  2
AmdtFormulaUpdateDispatcher
  3
AcMeServices
 90
        0
280
     0
281
     0
  0
CLASS
  1
ACMSTANDARDANSI
  2
AcmStandardANSI
  3
"Amdt_StdImp|Product Description: AutoCAD Mechanical|Company: Autodesk"
 90
        0
280
     0
281
     0
  0
CLASS
  1
ACMSURFSTANDARDANSI
  2
AcmSurfTextStdANSI
  3
"Amdt_StdImp|Product Description: AutoCAD Mechanical|Company: Autodesk"
 90
        0
280
     0
281
     0
  0
CLASS
  1
ACMFCFSTANDARDANSI
  2
AcmFCFStdANSI
  3
"Amdt_StdImp|Product Description: AutoCAD Mechanical|Company: Autodesk"
 90
        0
280
     0
281
     0
  0
CLASS
  1
ACMWELDSTANDARDANSI
  2
AcmWeldingStdANSI
  3
"Amdt_StdImp|Product Description: AutoCAD Mechanical|Company: Autodesk"
 90
        0
280
     0
281
     0
  0
CLASS
  1
ACMIDSTANDARDANSI
  2
AcmIdStdANSI
  3
"Amdt_StdImp|Product Description: AutoCAD Mechanical|Company: Autodesk"
 90
        0
280
     0
281
     0
  0
CLASS
  1
ACMDATUMSTANDARDANSI
  2
AcmDatumStdANSI
  3
"Amdt_StdImp|Product Description: AutoCAD Mechanical|Company: Autodesk"
 90
        0
280
     0
281
     0
  0
CLASS
  1
ACMBOMSTANDARDANSI
  2
AcmBOMStdANSI
  3
"Amdt_StdImp|Product Description: AutoCAD Mechanical|Company: Autodesk"
 90
        0
280
     0
281
     0
  0
CLASS
  1
ACMDETAILSTANDARDANSI
  2
AmdtDetailSymStdANSI
  3
"Amdt_StdImp|Product Description: AutoCAD Mechanical|Company: Autodesk"
 90
        0
280
     0
281
     0
  0
CLASS
  1
ACMSECTIONSTANDARDANSI
  2
AmdtSectionSymStdANSI
  3
"Amdt_StdImp|Product Description: AutoCAD Mechanical|Company: Autodesk"
 90
        0
280
     0
281
     0
  0
CLASS
  1
ACMCENTERLINESTANDARDANSI
  2
AmdtCenterLineStdANSI
  3
"Amdt_StdImp|Product Description: AutoCAD Mechanical|Company: Autodesk"
 90
        0
280
     0
281
     0
  0
CLASS
  1
ACMBOM
  2
AcmBom
  3
"AcmSymBB|Product Description: AutoCAD Mechanical|Company: Autodesk"
 90
        0
280
     0
281
     0
  0
CLASS
  1
ACMDATAENTRYPART
  2
AcmDataEntryPart
  3
"AcmSymBB|Product Description: AutoCAD Mechanical|Company: Autodesk"
 90
        0
280
     0
281
     0
  0
CLASS
  1
ACMPARTREF
  2
AcmPartRef
  3
"AcmSymBB|Product Description: AutoCAD Mechanical|Company: Autodesk"
 90
     3071
280
     0
281
     1
  0
CLASS
  1
ACDBCIRCARCRES
  2
AcDbCircArcRes
  3
AcGrefServices
 90
        0
280
     0
281
     0
  0
CLASS
  1
ACMBOMROW
  2
AcmBomRow
  3
"AcmSymBB|Product Description: AutoCAD Mechanical|Company: Autodesk"
 90
        0
280
     0
281
     0
  0
CLASS
  1
ACMBALLOON
  2
AcmBalloon
  3
"AcmSymBB|Product Description: AutoCAD Mechanical|Company: Autodesk"
 90
    35839
280
     0
281
     1
  0
CLASS
  1
AMDTNOTE
  2
AmdtNote
  3
"AcmSymBB|Product Description: AutoCAD Mechanical|Company: Autodesk"
 90
     3071
280
     0
281
     1
  0
CLASS
  1
STDPART2D
  2
AmgStdPart
  3
"AmgStdPart|Product Description: AutoCAD Mechanical|Company: Autodesk"
 90
    35839
280
     0
281
     1
  0
CLASS
  1
ACDBSTDPARTRES_LINE
  2
AcDbStdPartRes_Line
  3
"AmgStdPart|Product Description: AutoCAD Mechanical|Company: Autodesk"
 90
    32768
280
     0
281
     0
  0
CLASS
  1
ACMDATAENTRY
  2
AcmDataEntry
  3
"AcmSymBB|Product Description: AutoCAD Mechanical|Company: Autodesk"
 90
        0
280
     0
281
     0
  0
CLASS
  1
ACDBOPPOLYLINERES
  2
AcDbOpPolylineRes
  3
AcGrefServices
 90
    32768
280
     0
281
     0
  0
CLASS
  1
ACMPARTLIST
  2
AcmPartList
  3
"AcmSymBB|Product Description: AutoCAD Mechanical|Company: Autodesk"
 90
    35839
280
     0
281
     1
  0
CLASS
  1
ACDBLINERES
  2
AcDbLineRes
  3
AcGrefServices
 90
        0
280
     0
281
     0
  0
CLASS
  1
ACRFINSADJ
  2
AcRfInsAdjuster
  3
AcMeServices
 90
    32768
280
     0
281
     0
  0
CLASS
  1
AM_DRAWING_MGR
  2
AcDmDwgMgr
  3
AcMechDwgViewMgmt
 90
        0
280
     0
281
     0
  0
CLASS
  1
AM_DWG_DOCUMENT
  2
AcDmDwgDocument
  3
AcMechDwgViewMgmt
 90
        0
280
     0
281
     0
  0
CLASS
  1
AM_DWG_SHEET
  2
AcDmSheet
  3
AcMechDwgViewMgmt
 90
        0
280
     0
281
     0
  0
CLASS
  1
AM_VIEWDIMPARMAP
  2
AcDmViewDimParMap
  3
AcMechDwgViewMgmt
 90
        0
280
     0
281
     0
  0
CLASS
  1
AM_DWGMGR_NAME
  2
AcDmDwgMgrName
  3
AcMechDwgViewMgmt
 90
        0
280
     0
281
     0
  0
CLASS
  1
AMDTMENUSTATEMGR
  2
AmdtMenuStateMgr
  3
McadcomServices
 90
        0
280
     0
281
     0
  0
CLASS
  1
AMDTMCOMMENUSTATE
  2
AmdtMcomMenuState
  3
McadcomServices
 90
        0
280
     0
281
     0
  0
CLASS
  1
ASAPP
  2
AcAsAppObject
  3
AutoSurfServices
 90
        0
280
     0
281
     0
  0
CLASS
  1
IM_STATIC_MAN
  2
AcImStaticVarManager
  3
AcMeServices
 90
        0
280
     0
281
     0
  0
CLASS
  1
ACIMDBLSTATICVAR
  2
AcImDblStaticVar
  3
AcMeServices
 90
        0
280
     0
281
     0
  0
CLASS
  1
ACIMSTRSTATICVAR
  2
AcImStrStaticVar
  3
AcMeServices
 90
        0
280
     0
281
     0
  0
CLASS
  1
ACIMINTSTATICVAR
  2
AcImIntStaticVar
  3
AcMeServices
 90
        0
280
     0
281
     0
  0
CLASS
  1
ACASGREFMASTER
  2
AcAsGrefMaster
  3
AutoSurfResolverServices
 90
        0
280
     0
281
     0
  0
CLASS
  1
ACADGREFMODULE
  2
AcAdGrefModule
  3
AdGrefServices
 90
        0
280
     0
281
     0
  0
CLASS
  1
AMDTMAPISURFMOUDULE
  2
AmdtMApiSurfModule
  3
MApiSurfServices
 90
        0
280
     0
281
     0
  0
CLASS
  1
MAPIAMMOUDLE
  2
MApiAmModule
  3
MApiAmServices
 90
        0
280
     0
281
     0
  0
CLASS
  1
AMDTADMENUSTATE
  2
AmdtAdMenuState
  3
DesignerServices
 90
        0
280
     0
281
     0
  0
CLASS
  1
ADAPPL
  2
AcAdAppl
  3
DesignerServices
 90
        0
280
     0
281
     0
  0
CLASS
  1
DEPMGR
  2
AcAdDepMgr
  3
DesignerServices
 90
        0
280
     0
281
     0
  0
CLASS
  1
PARAMMGR
  2
AcAdParamMgr
  3
DesignerServices
 90
        0
280
     0
281
     0
  0
CLASS
  1
PARAMSCOPE
  2
AcAdParamScope
  3
DesignerServices
 90
        0
280
     0
281
     0
  0
CLASS
  1
NAMEDAPPL
  2
AcAdNamedAppl
  3
DesignerServices
 90
        0
280
     0
281
     0
  0
CLASS
  1
ADHNTMPLT
  2
AdHoleNoteTemplateMgr
  3
DesignerServices
 90
    32768
280
     0
281
     0
  0
CLASS
  1
AM_HNTEMPLATE_MGR_NAME
  2
AdHoleNoteTemplateMgrName
  3
DesignerServices
 90
    32768
280
     0
281
     0
  0
CLASS
  1
AMDTDMMENUSTATE
  2
AmdtDmMenuState
  3
AcMechDwgViewMgmt
 90
        0
280
     0
281
     0
  0
CLASS
  1
MAPIADMODULE
  2
MApiAdModule
  3
MApiAdServices
 90
        0
280
     0
281
     0
  0
CLASS
  1
AMDTAMMENUSTATE
  2
AmdtAmMenuState
  3
DesignerAssemblies
 90
        0
280
     0
281
     0
  0
CLASS
  1
ACAMPROJECT
  2
AcAmProject
  3
DesignerAssemblies
 90
        0
280
     0
281
     0
  0
CLASS
  1
ACAMGRCOMPDEF
  2
AcAmGrCompDef
  3
DesignerAssemblies
 90
        0
280
     0
281
     0
  0
CLASS
  1
ACCMCONTEXT
  2
AcCmContext
  3
DesignerAssemblies
 90
        0
280
     0
281
     0
  0
CLASS
  1
ACAMCOMPDEF
  2
AcAmCompDef
  3
DesignerAssemblies
 90
        0
280
     0
281
     0
  0
CLASS
  1
ACAMCOMPDEFMGR
  2
AcAmCompDefMgr
  3
DesignerAssemblies
 90
        0
280
     0
281
     0
  0
CLASS
  1
AMCONTEXTMGR
  2
AcAmContextMgr
  3
DesignerAssemblies
 90
        0
280
     0
281
     0
  0
CLASS
  1
ACAMCONTEXTMODELER
  2
AcAmContextModeler
  3
DesignerAssemblies
 90
        0
280
     0
281
     0
  0
CLASS
  1
CATALOGSTATE
  2
AcAmCatalogState
  3
DesignerAssemblies
 90
        0
280
     0
281
     0
  0
CLASS
  1
ACAMGRCOMPDEFSET
  2
AcAmGrCompDefSet
  3
DesignerAssemblies
 90
        0
280
     0
281
     0
  0
CLASS
  1
AMDTBROWSERDBTAB
  2
AmdtBrowserDbTab
  3
McadcomServices
 90
        0
280
     0
281
     0
  0
CLASS
  1
CBROWSERAPPOBJECT
  2
CBrowserAppObject
  3
McadcomServices
 90
        0
280
     0
281
     0
  0
CLASS
  1
DM_PLACEHOLDER
  2
AcDmSelsetPlaceholder
  3
AcMechDwgViewMgmt
 90
        0
280
     0
281
     0
  0
CLASS
  1
ACMPICKOBJ
  2
AcmPickEnt
  3
"AcmSymBB|Product Description: AutoCAD Mechanical|Company: Autodesk"
 90
    32768
280
     0
281
     1
  0
CLASS
  1
ACMNOTESTANDARDISO
  2
AmdtNoteStdISO
  3
"Amdt_StdImp|Product Description: AutoCAD Mechanical|Company: Autodesk"
 90
        0
280
     0
281
     0
  0
CLASS
  1
ACMNOTESTANDARDANSI
  2
AmdtNoteStdANSI
  3
"Amdt_StdImp|Product Description: AutoCAD Mechanical|Company: Autodesk"
 90
        0
280
     0
281
     0
  0
CLASS
  1
ACMTHREADLINESTANDARDISO
  2
AmdtThreadLineStdISO
  3
"Amdt_StdImp|Product Description: AutoCAD Mechanical|Company: Autodesk"
 90
        0
280
     0
281
     0
  0
CLASS
  1
ACMTHREADLINESTANDARDANSI
  2
AmdtThreadLineStdANSI
  3
"Amdt_StdImp|Product Description: AutoCAD Mechanical|Company: Autodesk"
 90
        0
280
     0
281
     0
  0
CLASS
  1
TABLESTYLE
  2
AcDbTableStyle
  3
ObjectDBX Classes
 90
     4095
280
     0
281
     0
  0
CLASS
  1
SORTENTSTABLE
  2
AcDbSortentsTable
  3
ObjectDBX Classes
 90
        0
280
     0
281
     0
  0
CLASS
  1
MATERIAL
  2
AcDbMaterial
  3
ObjectDBX Classes
 90
     1153
280
     0
281
     0
  0
CLASS
  1
VISUALSTYLE
  2
AcDbVisualStyle
  3
ObjectDBX Classes
 90
     4095
280
     0
281
     0
  0
CLASS
  1
ACRFATTGENMGR
  2
AcRfAttGeneralMgr
  3
AcAttribServices
 90
        0
280
     0
281
     0
  0
CLASS
  1
ACRFOBJATTMGR
  2
AcRfObjAttGroupMgr
  3
AcAttribServices
 90
        0
280
     0
281
     0
  0
CLASS
  1
ACRFMCADAPIATTHOLDER
  2
AcRfMCADAPIAttHolder
  3
AcAttribServices
 90
        0
280
     0
281
     0
  0
CLASS
  1
AMDTSYSATTR
  2
AmdtSystemAttribute
  3
AcAttribServices
 90
        0
280
     0
281
     0
  0
CLASS
  1
ACMTAPERSTANDARDISO
  2
AcmTaperStdISO
  3
"Amdt_StdImp|Product Description: AutoCAD Mechanical|Company: Autodesk"
 90
        0
280
     0
281
     0
  0
CLASS
  1
CAMSSTRUCTBTNSTATE
  2
StructBtnState
  3
L"DesignerAssemblies"
 90
        0
280
     0
281
     0
  0
CLASS
  1
DIMASSOC
  2
AcDbDimAssoc
  3
"AcDbDimAssoc|Product Desc:     AcDim ARX App For Dimension|Company:          Autodesk, Inc.|WEB Address:      www.autodesk.com"
 90
        0
280
     0
281
     0
  0
CLASS
  1
EXACXREFPANELOBJECT
  2
ExAcXREFPanelObject
  3
EXAC_ESW
 90
    33793
280
     0
281
     0
  0
CLASS
  1
NPOCOLLECTION
  2
AcDbImpNonPersistentObjectsCollection
  3
ObjectDBX Classes
 90
    33921
280
     0
281
     0
  0
CLASS
  1
AMDTEDGESTANDARDISO13715
  2
AmdtEdgeStdISO13715
  3
"Amdt_StdImp|Product Description: AutoCAD Mechanical|Company: Autodesk"
 90
        0
280
     0
281
     0
  0
CLASS
  1
AMDTNOTETEMPLATEDB
  2
AmdtNoteTemplateDB
  3
AMDT_STDIMP_MODULE_NAME
 90
        0
280
     0
281
     0
  0
CLASS
  1
ACAMGHOLECHARTSTDISO
  2
AcAmgHoleChartStdISO
  3
ACMSYMBB_MODULE_NAME
 90
        0
280
     0
281
     0
  0
CLASS
  1
ACAMSTDPCOMPDEF
  2
AcAmStdpCompDef
  3
DesignerAssemblies
 90
    32768
280
     0
281
     0
  0
CLASS
  1
ACAMCOMP
  2
AcAmComp
  3
DesignerAssemblies
 90
    32768
280
     0
281
     0
  0
CLASS
  1
AC_AM_STDP_VIEW_DEF
  2
AcAmStdpViewDef
  3
DesignerAssemblies
 90
    32768
280
     0
281
     0
  0
CLASS
  1
AC_AM_MVD_DEP_MGR
  2
AcAmMVDdepMgr
  3
DesignerAssemblies
 90
        0
280
     0
281
     0
  0
CLASS
  1
AC_AM_MASTER_VIEW_DEF
  2
AcAmMasterViewDef
  3
DesignerAssemblies
 90
        0
280
     0
281
     0
  0
CLASS
  1
AC_AM_DIRTY_NODES
  2
AcAmDirtyNodes
  3
DesignerAssemblies
 90
        0
280
     0
281
     0
  0
CLASS
  1
AC_AM_MAPPER_CACHE
  2
AcAmMapperCache
  3
DesignerAssemblies
 90
        0
280
     0
281
     0
  0
CLASS
  1
ACAMMVDBACKUPOBJECT
  2
AcAmMVDBackupObject
  3
DesignerAssemblies
 90
        0
280
     0
281
     0
  0
CLASS
  1
AC_AM_COMP_VIEW_INST
  2
AcAmCompView
  3
DesignerAssemblies
 90
    32768
280
     0
281
     0
  0
CLASS
  1
AC_AM_2D_XREF_MGR
  2
AcAmXrefMgr2d
  3
DesignerAssemblies
 90
        0
280
     0
281
     0
  0
CLASS
  1
AC_AM_HIDE_SITUATION
  2
AcAmHideSituation
  3
DesignerAssemblies
 90
    32768
280
     0
281
     0
  0
CLASS
  1
ACMTAPERSTANDARDANSI
  2
AcmTaperStdANSI
  3
"Amdt_StdImp|Product Description: AutoCAD Mechanical|Company: Autodesk"
 90
        0
280
     0
281
     0
  0
CLASS
  1
ACAMGHOLECHARTSTDANSI
  2
AcAmgHoleChartStdANSI
  3
ACMSYMBB_MODULE_NAME
 90
        0
280
     0
281
     0
  0
CLASS
  1
ACDBPOLYLINERES
  2
AcDbPolylineRes
  3
AcGrefServices
 90
        0
280
     0
281
     0
  0
CLASS
  1
AMDTACMWBLOCKBOMENTITY
  2
AmdtAcmWblockBomEntity
  3
"AcmSymBB|Product Description: AutoCAD Mechanical|Company: Autodesk"
 90
     3071
280
     0
281
     1
  0
CLASS
  1
ACDBDIMENSIONRES
  2
AcDbDimensionRes
  3
L"AcDbDimensionRes|Product Description: AutoCAD Mechanical 2000|Company: Autodesk"
 90
        0
280
     0
281
     0
  0
CLASS
  1
AMDTSECTIONSYM
  2
AmdtSectionSym
  3
"AcmSymBB|Product Description: AutoCAD Mechanical|Company: Autodesk"
 90
     3071
280
     0
281
     1
  0
CLASS
  1
AMDTSECTIONSYMLABEL
  2
AmdtSectionSymLabel
  3
"AcmSymBB|Product Description: AutoCAD Mechanical|Company: Autodesk"
 90
     3071
280
     0
281
     1
  0
ENDSEC
  0
SECTION
  2
TABLES
  0
TABLE
  2
VPORT
  5
8
330
0
100
AcDbSymbolTable
 70
     1
  0
VPORT
  5
B0EC
330
8
100
AcDbSymbolTableRecord
100
AcDbViewportTableRecord
  2
*Active
 70
     0
 10
0.0
 20
0.0
 11
1.0
 21
1.0
 12
5084.50574044617
 22
1435.224541006825
 13
0.0
 23
0.0
 14
2.5
 24
2.5
 15
10.0
 25
10.0
 16
0.0
 26
0.0
 36
1.0
 17
0.0
 27
0.0
 37
0.0
 40
586.7152927007643
 41
1.348039215686274
 42
50.0
 43
-1370.695619172058
 44
-1370.695619172058
 50
0.0
 51
0.0
 71
     0
 72
   100
 73
     1
 74
     3
 75
     0
 76
     0
 77
     0
 78
     0
281
     0
 65
     0
110
0.0
120
0.0
130
0.0
111
1.0
121
0.0
131
0.0
112
0.0
122
1.0
132
0.0
 79
     0
146
0.0
  0
ENDTAB
  0
TABLE
  2
LTYPE
  5
5
330
0
100
AcDbSymbolTable
 70
    44
  0
LTYPE
  5
14
330
5
100
AcDbSymbolTableRecord
100
AcDbLinetypeTableRecord
  2
ByBlock
 70
     0
  3

 72
    65
 73
     0
 40
0.0
  0
LTYPE
  5
15
330
5
100
AcDbSymbolTableRecord
100
AcDbLinetypeTableRecord
  2
ByLayer
 70
     0
  3

 72
    65
 73
     0
 40
0.0
  0
LTYPE
  5
16
330
5
100
AcDbSymbolTableRecord
100
AcDbLinetypeTableRecord
  2
Continuous
 70
     0
  3
Solid line
 72
    65
 73
     0
 40
0.0
  0
LTYPE
  5
4F
330
5
100
AcDbSymbolTableRecord
100
AcDbLinetypeTableRecord
  2
AM_ISO02W050
 70
     0
  3
__ __ __ __ __ __ __ __ __ __ __ __ __ __ __
 72
    65
 73
     2
 40
7.5
 49
6.0
 74
     0
 49
-1.5
 74
     0
  0
LTYPE
  5
52
330
5
100
AcDbSymbolTableRecord
100
AcDbLinetypeTableRecord
  2
Amconstr
 70
     0
  3
_______________________
 72
    65
 73
     2
 40
9999.0
 49
9999.0
 74
     0
 49
0.0
 74
     0
  0
LTYPE
  5
64
330
5
100
AcDbSymbolTableRecord
100
AcDbLinetypeTableRecord
  2
ACISOWELD
 70
     0
  3
_ _ _ _ _
 72
    65
 73
     2
 40
2.0
 49
2.0
 74
     0
 49
-1.0
 74
     0
  0
LTYPE
  5
65
330
5
100
AcDbSymbolTableRecord
100
AcDbLinetypeTableRecord
  2
ACISOTGB
 70
     0
  3
__ . . __ . .
 72
    65
 73
     6
 40
9.0
 49
4.0
 74
     0
 49
-1.0
 74
     0
 49
1.0
 74
     0
 49
-1.0
 74
     0
 49
1.0
 74
     0
 49
-1.0
 74
     0
  0
LTYPE
  5
66
330
5
100
AcDbSymbolTableRecord
100
AcDbLinetypeTableRecord
  2
ACISOTGL
 70
     0
  3
_ _ _ _ _
 72
    65
 73
     2
 40
3.0
 49
2.0
 74
     0
 49
-1.0
 74
     0
  0
LTYPE
  5
69
330
5
100
AcDbSymbolTableRecord
100
AcDbLinetypeTableRecord
  2
CENTER
 70
     0
  3
__ . __
 72
    65
 73
     4
 40
7.0
 49
4.0
 74
     0
 49
-1.0
 74
     0
 49
1.0
 74
     0
 49
-1.0
 74
     0
  0
LTYPE
  5
A6E
330
5
100
AcDbSymbolTableRecord
100
AcDbLinetypeTableRecord
  2
PHANTOM2
 70
     0
  3
Phantom (.5x) ___ _ _ ___ _ _ ___ _ _ ___ _ _
 72
    65
 73
     6
 40
31.75
 49
15.875
 74
     0
 49
-3.174999999999999
 74
     0
 49
3.174999999999999
 74
     0
 49
-3.174999999999999
 74
     0
 49
3.174999999999999
 74
     0
 49
-3.174999999999999
 74
     0
  0
LTYPE
  5
4DED
330
5
100
AcDbSymbolTableRecord
100
AcDbLinetypeTableRecord
  2
中線
 70
     0
  3
___________________
 72
    65
 73
     2
 40
2.0
 49
1.0
 74
     0
 49
1.0
 74
     0
  0
LTYPE
  5
4DF6
330
5
100
AcDbSymbolTableRecord
100
AcDbLinetypeTableRecord
  2
細線
 70
     0
  3
___________________
 72
    65
 73
     2
 40
2.0
 49
1.0
 74
     0
 49
1.0
 74
     0
  0
LTYPE
  5
4DF7
330
5
100
AcDbSymbolTableRecord
100
AcDbLinetypeTableRecord
  2
太線
 70
     0
  3
___________________
 72
    65
 73
     2
 40
2.0
 49
1.0
 74
     0
 49
1.0
 74
     0
  0
LTYPE
  5
4EA7
330
5
100
AcDbSymbolTableRecord
100
AcDbLinetypeTableRecord
  2
文字
 70
     0
  3
_________________
 72
    65
 73
     2
 40
2.0
 49
1.0
 74
     0
 49
1.0
 74
     0
  0
LTYPE
  5
4EA9
330
5
100
AcDbSymbolTableRecord
100
AcDbLinetypeTableRecord
  2
寸法線
 70
     0
  3
________________
 72
    65
 73
     2
 40
2.0
 49
1.0
 74
     0
 49
1.0
 74
     0
  0
LTYPE
  5
4F12
330
5
100
AcDbSymbolTableRecord
100
AcDbLinetypeTableRecord
  2
ハッチング
 70
     0
  3
_________________
 72
    65
 73
     2
 40
2.0
 49
1.0
 74
     0
 49
1.0
 74
     0
  0
LTYPE
  5
5180
330
5
100
AcDbSymbolTableRecord
100
AcDbLinetypeTableRecord
  2
陰線1
 70
     0
  3
__ __ __ __
 72
    65
 73
     2
 40
4.0
 49
2.2
 74
     0
 49
-1.8
 74
     0
  0
LTYPE
  5
5182
330
5
100
AcDbSymbolTableRecord
100
AcDbLinetypeTableRecord
  2
切断線
 70
     0
  3
/\/-/\/-/\/-/\/-/\/-/\/
 72
    65
 73
     2
 40
11.0001
 49
0.0001
 74
     4
 75
   135
340
56
 46
0.04
 50
0.0
 44
0.0
 45
0.0
 49
-11.0
 74
     0
  0
LTYPE
  5
5183
330
5
100
AcDbSymbolTableRecord
100
AcDbLinetypeTableRecord
  2
想像線1
 70
     0
  3
__ __ __ _____ __ __ ____
 72
    65
 73
     6
 40
14.5
 49
6.0
 74
     0
 49
-1.5
 74
     0
 49
2.0
 74
     0
 49
-1.5
 74
     0
 49
2.0
 74
     0
 49
-1.5
 74
     0
  0
LTYPE
  5
5185
330
5
100
AcDbSymbolTableRecord
100
AcDbLinetypeTableRecord
  2
中心線1
 70
     0
  3
___ _ ___ _ ___
 72
    65
 73
     4
 40
18.0
 49
12.0
 74
     0
 49
-2.0
 74
     0
 49
2.0
 74
     0
 49
-2.0
 74
     0
  0
LTYPE
  5
5188
330
5
100
AcDbSymbolTableRecord
100
AcDbLinetypeTableRecord
  2
補助線
 70
     0
  3
______________
 72
    65
 73
     2
 40
2.0
 49
1.0
 74
     0
 49
1.0
 74
     0
  0
LTYPE
  5
6427
330
5
100
AcDbSymbolTableRecord
100
AcDbLinetypeTableRecord
  2
HIDDEN
 70
     0
  3
Hidden __ __ __ __ __ __ __ __ __ __ __ __ __ _
 72
    65
 73
     2
 40
0.375
 49
0.25
 74
     0
 49
-0.125
 74
     0
  0
LTYPE
  5
AF95
330
5
100
AcDbSymbolTableRecord
100
AcDbLinetypeTableRecord
  2
AM_ISO08W050
 70
     0
  3
____ . ____ . ____ . ____ . ____ . ____ . ____
 72
    65
 73
     4
 40
18.0
 49
12.0
 74
     0
 49
-1.5
 74
     0
 49
3.0
 74
     0
 49
-1.5
 74
     0
  0
LTYPE
  5
D34C
330
5
100
AcDbSymbolTableRecord
100
AcDbLinetypeTableRecord
  2
ACANSTGB
 70
     0
  3
__ . . __ . .
 72
    65
 73
     6
 40
0.35433070866
 49
0.15748031496
 74
     0
 49
-0.03937007874
 74
     0
 49
0.03937007874
 74
     0
 49
-0.03937007874
 74
     0
 49
0.03937007874
 74
     0
 49
-0.03937007874
 74
     0
  0
LTYPE
  5
D34D
330
5
100
AcDbSymbolTableRecord
100
AcDbLinetypeTableRecord
  2
ACANSTGL
 70
     0
  3
_ _ _ _ _
 72
    65
 73
     2
 40
0.11811023622
 49
0.07874015748
 74
     0
 49
-0.03937007874
 74
     0
  0
ENDTAB
  0
TABLE
  2
LAYER
  5
2
102
{ACAD_XDICTIONARY
360
3F95
102
}
330
0
100
AcDbSymbolTable
 70
    80
  0
LAYER
  5
10
330
2
100
AcDbSymbolTableRecord
100
AcDbLayerTableRecord
  2
0
 70
     0
 62
     7
  6
Continuous
370
    -3
390
F
  0
LAYER
  5
6D1
330
2
100
AcDbSymbolTableRecord
100
AcDbLayerTableRecord
  2
Defpoints
 70
     0
 62
     7
  6
Continuous
290
     0
370
    -3
390
F
  0
LAYER
  5
5F85
330
2
100
AcDbSymbolTableRecord
100
AcDbLayerTableRecord
  2
AM_0
 70
     0
 62
     7
  6
中線
370
    25
390
F
1001
AcAecLayerStandard
1000

1000

  0
LAYER
  5
AC9F
330
2
100
AcDbSymbolTableRecord
100
AcDbLayerTableRecord
  2
size
 70
     0
 62
     5
  6
Continuous
290
     0
370
    25
390
F
  0
LAYER
  5
ACA0
330
2
100
AcDbSymbolTableRecord
100
AcDbLayerTableRecord
  2
waku
 70
     0
 62
     7
  6
Continuous
370
    35
390
F
  0
LAYER
  5
ACA1
330
2
100
AcDbSymbolTableRecord
100
AcDbLayerTableRecord
  2
AM_6
 70
     0
 62
     2
  6
文字
370
    15
390
F
1001
AcAecLayerStandard
1000

1000

  0
LAYER
  5
AD64
330
2
100
AcDbSymbolTableRecord
100
AcDbLayerTableRecord
  2
AM_2
 70
     0
 62
     1
  6
細線
370
    15
390
F
1001
AcAecLayerStandard
1000

1000

  0
LAYER
  5
AD68
330
2
100
AcDbSymbolTableRecord
100
AcDbLayerTableRecord
  2
AM_5
 70
     0
 62
     3
  6
寸法線
370
    15
390
F
1001
AcAecLayerStandard
1000

1000

  0
LAYER
  5
B5F8
330
2
100
AcDbSymbolTableRecord
100
AcDbLayerTableRecord
  2
0部品9
 70
     0
 62
    10
  6
Continuous
370
    -3
390
F
1001
AcAecLayerStandard
1000

1000

  0
LAYER
  5
B601
330
2
100
AcDbSymbolTableRecord
100
AcDbLayerTableRecord
  2
0部品13
 70
     0
 62
   241
  6
細線
370
    30
390
F
1001
AcAecLayerStandard
1000

1000

  0
ENDTAB
  0
TABLE
  2
STYLE
  5
3
330
0
100
AcDbSymbolTable
 70
    12
  0
STYLE
  5
11
330
3
100
AcDbSymbolTableRecord
100
AcDbTextStyleTableRecord
  2
STANDARD
 70
     0
 40
0.0
 41
0.7
 50
0.0
 71
     0
 42
3.2
  3
romans.shx
  4
extfont.shx
  0
STYLE
  5
56
330
3
100
AcDbSymbolTableRecord
100
AcDbTextStyleTableRecord
  2

 70
     1
 40
0.0
 41
1.0
 50
0.0
 71
     0
 42
2.5
  3
ltypeshp.shx
  4

  0
STYLE
  5
58
330
3
100
AcDbSymbolTableRecord
100
AcDbTextStyleTableRecord
  2
ACISOTS
 70
     0
 40
1.0
 41
1.0
 50
0.0
 71
     0
 42
2.5
  3
isocp.shx
  4
extfont.shx
  0
STYLE
  5
63
330
3
100
AcDbSymbolTableRecord
100
AcDbTextStyleTableRecord
  2
ACISOGDT
 70
     0
 40
0.0
 41
1.0
 50
0.0
 71
     0
 42
2.5
  3
amgdt.shx
  4

  0
STYLE
  5
A74
330
3
100
AcDbSymbolTableRecord
100
AcDbTextStyleTableRecord
  2
DIM
 70
     0
 40
0.0
 41
1.0
 50
0.0
 71
     0
 42
2.5
  3
monotxt.shx
  4
extfont.shx
  0
STYLE
  5
D352
330
3
100
AcDbSymbolTableRecord
100
AcDbTextStyleTableRecord
  2
ACANSTS
 70
     0
 40
1.0
 41
1.0
 50
0.0
 71
     0
 42
0.2
  3
romans.shx
  4
extfont.shx
  0
STYLE
  5
D353
330
3
100
AcDbSymbolTableRecord
100
AcDbTextStyleTableRecord
  2
ACANSGDT
 70
     0
 40
0.0
 41
1.0
 50
0.0
 71
     0
 42
0.2
  3
amgdt.shx
  4

  0
ENDTAB
  0
TABLE
  2
VIEW
  5
6
330
0
100
AcDbSymbolTable
 70
     6
  0
VIEW
  5
AE1
330
6
100
AcDbSymbolTableRecord
100
AcDbViewTableRecord
  2
AM_VIEW1
 70
     0
 40
440.7792915531335
 10
3313.51691678317
 20
-4580.120806277942
 41
594.0
 11
0.0
 21
0.0
 31
1.0
 12
0.0
 22
0.0
 32
0.0
 42
50.0
 43
-1370.695619172058
 44
-1370.695619172058
 50
0.0
 71
     0
281
     0
 72
     0
  0
VIEW
  5
AE2
330
6
100
AcDbSymbolTableRecord
100
AcDbViewTableRecord
  2
AM_VIEW2
 70
     0
 40
440.7792915531335
 10
3907.516916783171
 20
-4580.120806277942
 41
594.0
 11
0.0
 21
0.0
 31
1.0
 12
0.0
 22
0.0
 32
0.0
 42
50.0
 43
-1370.695619172058
 44
-1370.695619172058
 50
0.0
 71
     0
281
     0
 72
     0
  0
VIEW
  5
AE3
330
6
100
AcDbSymbolTableRecord
100
AcDbViewTableRecord
  2
AM_VIEW3
 70
     0
 40
440.7792915531335
 10
3313.51691678317
 20
-4979.341514724808
 41
594.0
 11
0.0
 21
0.0
 31
1.0
 12
0.0
 22
0.0
 32
0.0
 42
50.0
 43
-1370.695619172058
 44
-1370.695619172058
 50
0.0
 71
     0
281
     0
 72
     0
  0
VIEW
  5
AE4
330
6
100
AcDbSymbolTableRecord
100
AcDbViewTableRecord
  2
AM_VIEW4
 70
     0
 40
440.7792915531335
 10
3907.516916783171
 20
-4979.341514724808
 41
594.0
 11
0.0
 21
0.0
 31
1.0
 12
0.0
 22
0.0
 32
0.0
 42
50.0
 43
-1370.695619172058
 44
-1370.695619172058
 50
0.0
 71
     0
281
     0
 72
     0
  0
VIEW
  5
AE5
330
6
100
AcDbSymbolTableRecord
100
AcDbViewTableRecord
  2
AM_VIEW5
 70
     0
 40
440.7792915531335
 10
3610.516916783171
 20
-4779.731160501374
 41
594.0
 11
0.0
 21
0.0
 31
1.0
 12
0.0
 22
0.0
 32
0.0
 42
50.0
 43
-1370.695619172058
 44
-1370.695619172058
 50
0.0
 71
     0
281
     0
 72
     0
  0
VIEW
  5
AE6
330
6
100
AcDbSymbolTableRecord
100
AcDbViewTableRecord
  2
AM_VIEW6
 70
     0
 40
881.5497675204351
 10
3610.516916783171
 20
-4779.731160501374
 41
1187.98812
 11
0.0
 21
0.0
 31
1.0
 12
0.0
 22
0.0
 32
0.0
 42
50.0
 43
-1370.695619172058
 44
-1370.695619172058
 50
0.0
 71
     0
281
     0
 72
     0
  0
ENDTAB
  0
TABLE
  2
UCS
  5
7
330
0
100
AcDbSymbolTable
 70
     0
  0
ENDTAB
  0
TABLE
  2
APPID
  5
9
330
0
100
AcDbSymbolTable
 70
    67
  0
APPID
  5
12
330
9
100
AcDbSymbolTableRecord
100
AcDbRegAppTableRecord
  2
ACAD
 70
     0
  0
APPID
  5
30
330
9
100
AcDbSymbolTableRecord
100
AcDbRegAppTableRecord
  2
MCAD_NO_VIS
 70
     0
  0
APPID
  5
31
330
9
100
AcDbSymbolTableRecord
100
AcDbRegAppTableRecord
  2
ACAD_TEMP_GRAPHIC
 70
     0
  0
APPID
  5
44
330
9
100
AcDbSymbolTableRecord
100
AcDbRegAppTableRecord
  2
ACATTRIBSERVICES
 70
     0
  0
APPID
  5
7A1
330
9
100
AcDbSymbolTableRecord
100
AcDbRegAppTableRecord
  2
GENIUS_GENDIMSH_14
 70
     0
  0
APPID
  5
A49
330
9
100
AcDbSymbolTableRecord
100
AcDbRegAppTableRecord
  2
GENIUS_GENREC_14
 70
     0
  0
APPID
  5
A4A
330
9
100
AcDbSymbolTableRecord
100
AcDbRegAppTableRecord
  2
GENIUS_GENOBJ-N-REC_13
 70
     0
  0
APPID
  5
A4B
330
9
100
AcDbSymbolTableRecord
100
AcDbRegAppTableRecord
  2
GENIUS_GENODEF_13
 70
     0
  0
APPID
  5
A4C
330
9
100
AcDbSymbolTableRecord
100
AcDbRegAppTableRecord
  2
DCO15
 70
     0
  0
APPID
  5
ADC
330
9
100
AcDbSymbolTableRecord
100
AcDbRegAppTableRecord
  2
GENIUS_GENOLIS_13
 70
     0
  0
APPID
  5
ADD
330
9
100
AcDbSymbolTableRecord
100
AcDbRegAppTableRecord
  2
GENIUS_GENOENT_13
 70
     0
  0
APPID
  5
ADE
330
9
100
AcDbSymbolTableRecord
100
AcDbRegAppTableRecord
  2
GENIUS_GENOBJ-N-TIT_13
 70
     0
  0
APPID
  5
ADF
330
9
100
AcDbSymbolTableRecord
100
AcDbRegAppTableRecord
  2
GENIUS_GENTITLE_13
 70
     0
  0
APPID
  5
AE0
330
9
100
AcDbSymbolTableRecord
100
AcDbRegAppTableRecord
  2
GENIUS_GENOREF_13
 70
     0
  0
APPID
  5
AE7
330
9
100
AcDbSymbolTableRecord
100
AcDbRegAppTableRecord
  2
GENIUS_GENSCREG_15
 70
     0
  0
APPID
  5
AE8
330
9
100
AcDbSymbolTableRecord
100
AcDbRegAppTableRecord
  2
GENIUS_GENOBJ-N-SDF_13
 70
     0
  0
APPID
  5
FAF
330
9
100
AcDbSymbolTableRecord
100
AcDbRegAppTableRecord
  2
GENIUS_GENBLLY_14
 70
     0
  0
APPID
  5
FB0
330
9
100
AcDbSymbolTableRecord
100
AcDbRegAppTableRecord
  2
GENIUS_GENTRA_14
 70
     0
  0
APPID
  5
1285
330
9
100
AcDbSymbolTableRecord
100
AcDbRegAppTableRecord
  2
GENIUS_GENDTOL_13
 70
     0
  0
APPID
  5
142D
330
9
100
AcDbSymbolTableRecord
100
AcDbRegAppTableRecord
  2
GENIUS_GENOBJ-N-CEN_13
 70
     0
  0
APPID
  5
1AB5
330
9
100
AcDbSymbolTableRecord
100
AcDbRegAppTableRecord
  2
GENIUS_GENOBJ-N-CRS_13
 70
     0
  0
APPID
  5
1B36
330
9
100
AcDbSymbolTableRecord
100
AcDbRegAppTableRecord
  2
GENIUS_GENOBJ-N-HTC_13
 70
     0
  0
APPID
  5
1B37
330
9
100
AcDbSymbolTableRecord
100
AcDbRegAppTableRecord
  2
GENIUS_GENHATCH_13
 70
     0
  0
APPID
  5
216D
330
9
100
AcDbSymbolTableRecord
100
AcDbRegAppTableRecord
  2
GENIUS_GENOBJ-N-FIL_13
 70
     0
  0
APPID
  5
2356
330
9
100
AcDbSymbolTableRecord
100
AcDbRegAppTableRecord
  2
GEVID990412420
 70
     0
  0
APPID
  5
2357
330
9
100
AcDbSymbolTableRecord
100
AcDbRegAppTableRecord
  2
GEVDC
 70
     0
  0
APPID
  5
2358
330
9
100
AcDbSymbolTableRecord
100
AcDbRegAppTableRecord
  2
GEVCON
 70
     0
  0
APPID
  5
235B
330
9
100
AcDbSymbolTableRecord
100
AcDbRegAppTableRecord
  2
GEVRADREF
 70
     0
  0
APPID
  5
2360
330
9
100
AcDbSymbolTableRecord
100
AcDbRegAppTableRecord
  2
GENIUS_GENBH_13
 70
     0
  0
APPID
  5
2362
330
9
100
AcDbSymbolTableRecord
100
AcDbRegAppTableRecord
  2
GENIUS_GENOBJ-NBEHI-BHF_13
 70
     0
  0
APPID
  5
2364
330
9
100
AcDbSymbolTableRecord
100
AcDbRegAppTableRecord
  2
GENIUS_GENOBJ-NBEHI-BHB_13
 70
     0
  0
APPID
  5
2379
330
9
100
AcDbSymbolTableRecord
100
AcDbRegAppTableRecord
  2
GENIUS_GENOBJ-F-SCPASSM_13
 70
     0
  0
APPID
  5
3D74
330
9
100
AcDbSymbolTableRecord
100
AcDbRegAppTableRecord
  2
GENIUS_GENDIM_13
 70
     0
  0
APPID
  5
3D76
330
9
100
AcDbSymbolTableRecord
100
AcDbRegAppTableRecord
  2
GENIUS_GE3DTOL_13
 70
     0
  0
APPID
  5
3D9C
330
9
100
AcDbSymbolTableRecord
100
AcDbRegAppTableRecord
  2
AD_DRAW
 70
     0
  0
APPID
  5
3DE8
330
9
100
AcDbSymbolTableRecord
100
AcDbRegAppTableRecord
  2
ASURF_PCURVE_APPNAME
 70
     0
  0
APPID
  5
3DED
330
9
100
AcDbSymbolTableRecord
100
AcDbRegAppTableRecord
  2
AMG_3D2D_5.0
 70
     0
  0
APPID
  5
3E1B
330
9
100
AcDbSymbolTableRecord
100
AcDbRegAppTableRecord
  2
DESIGNERASSEMBLIES
 70
     0
  0
APPID
  5
3E20
330
9
100
AcDbSymbolTableRecord
100
AcDbRegAppTableRecord
  2
ACADM_DIM_EDIT
 70
     0
  0
APPID
  5
3E21
330
9
100
AcDbSymbolTableRecord
100
AcDbRegAppTableRecord
  2
AMDT_DM_ADJ
 70
     0
  0
APPID
  5
4143
330
9
100
AcDbSymbolTableRecord
100
AcDbRegAppTableRecord
  2
GENIUS_GENFIL_13
 70
     0
  0
APPID
  5
4144
330
9
100
AcDbSymbolTableRecord
100
AcDbRegAppTableRecord
  2
GENIUS_GENOBJ-N-CHA_13
 70
     0
  0
APPID
  5
4E17
330
9
100
AcDbSymbolTableRecord
100
AcDbRegAppTableRecord
  2
GEVID1008153417
 70
     0
  0
APPID
  5
4E58
330
9
100
AcDbSymbolTableRecord
100
AcDbRegAppTableRecord
  2
GEVID1008153418
 70
     0
  0
APPID
  5
4E5E
330
9
100
AcDbSymbolTableRecord
100
AcDbRegAppTableRecord
  2
GEVID1008153419
 70
     0
  0
APPID
  5
4E64
330
9
100
AcDbSymbolTableRecord
100
AcDbRegAppTableRecord
  2
GEVID1008153420
 70
     0
  0
APPID
  5
4E75
330
9
100
AcDbSymbolTableRecord
100
AcDbRegAppTableRecord
  2
GEVID1008153421
 70
     0
  0
APPID
  5
4EB7
330
9
100
AcDbSymbolTableRecord
100
AcDbRegAppTableRecord
  2
GENIUS_AMGTXT_16
 70
     0
  0
APPID
  5
7645
330
9
100
AcDbSymbolTableRecord
100
AcDbRegAppTableRecord
  2
GENIUS_GENOBJ-N-DIM_13
 70
     0
  0
APPID
  5
AAD0
330
9
100
AcDbSymbolTableRecord
100
AcDbRegAppTableRecord
  2
ACAD_DSTYLE_DIMARC_LENGTH_SYMBOL
 70
     0
  0
APPID
  5
AAD1
330
9
100
AcDbSymbolTableRecord
100
AcDbRegAppTableRecord
  2
ACAD_DSTYLE_DIMJOGGED_JOGANGLE_SYMBOL
 70
     0
  0
APPID
  5
AAFD
330
9
100
AcDbSymbolTableRecord
100
AcDbRegAppTableRecord
  2
ACAD_PSEXT
 70
     0
  0
APPID
  5
AD61
330
9
100
AcDbSymbolTableRecord
100
AcDbRegAppTableRecord
  2
AcAecLayerStandard
 70
     0
  0
APPID
  5
AEE3
330
9
100
AcDbSymbolTableRecord
100
AcDbRegAppTableRecord
  2
ACAD_EXEMPT_FROM_CAD_STANDARDS
 70
     0
  0
APPID
  5
B1BE
330
9
100
AcDbSymbolTableRecord
100
AcDbRegAppTableRecord
  2
GENIUS_GENCEN_19
 70
     0
  0
APPID
  5
B4E1
330
9
100
AcDbSymbolTableRecord
100
AcDbRegAppTableRecord
  2
ACAD_MLEADERVER
 70
     0
  0
APPID
  5
CC30
330
9
100
AcDbSymbolTableRecord
100
AcDbRegAppTableRecord
  2
GEVID1295847770
 70
     0
  0
APPID
  5
CC31
330
9
100
AcDbSymbolTableRecord
100
AcDbRegAppTableRecord
  2
GEVMK
 70
     0
  0
APPID
  5
CC49
330
9
100
AcDbSymbolTableRecord
100
AcDbRegAppTableRecord
  2
AMG_2DHIDE
 70
     0
  0
APPID
  5
CC4A
330
9
100
AcDbSymbolTableRecord
100
AcDbRegAppTableRecord
  2
AMG_2DSTRUCT_BTR
 70
     0
  0
APPID
  5
CC5B
330
9
100
AcDbSymbolTableRecord
100
AcDbRegAppTableRecord
  2
ACADM_2DVIEW_IGN_NOTIFY
 70
     0
  0
APPID
  5
CC65
330
9
100
AcDbSymbolTableRecord
100
AcDbRegAppTableRecord
  2
GEVID1295847771
 70
     0
  0
APPID
  5
1E274
330
9
100
AcDbSymbolTableRecord
100
AcDbRegAppTableRecord
  2
ACAD_DSTYLE_DIMINSPECT
 70
     0
  0
APPID
  5
28791
330
9
100
AcDbSymbolTableRecord
100
AcDbRegAppTableRecord
  2
ACDBBLOCKREPETAG
 70
     0
  0
APPID
  5
28792
330
9
100
AcDbSymbolTableRecord
100
AcDbRegAppTableRecord
  2
AcDbDynamicBlockGUID
 70
     0
  0
APPID
  5
4B762
330
9
100
AcDbSymbolTableRecord
100
AcDbRegAppTableRecord
  2
ACAD_DSTYLE_DIMRADIAL_EXTENSION
 70
     0
  0
APPID
  5
69043
330
9
100
AcDbSymbolTableRecord
100
AcDbRegAppTableRecord
  2
AcDbAttr
 70
     0
  0
ENDTAB
  0
TABLE
  2
DIMSTYLE
  5
A
330
0
100
AcDbSymbolTable
 70
    42
100
AcDbDimStyleTable
 71
     3
340
2515
340
251A
340
251B
  0
DIMSTYLE
105
A76
330
A
100
AcDbSymbolTableRecord
100
AcDbDimStyleTableRecord
  2
STANDARD
 70
     0
 41
3.0
 42
1.0
 43
7.0
 44
2.0
 73
     0
 74
     0
 77
     1
140
2.799999999999999
141
0.0
143
0.0394
147
0.7
171
     4
172
     1
173
     1
176
     3
177
     3
178
     2
271
     3
272
     3
273
     8
274
     4
289
     0
340
A74
341
A66
343
A66
344
A66
  0
DIMSTYLE
105
2515
330
A
100
AcDbSymbolTableRecord
100
AcDbDimStyleTableRecord
  2
SYS
 70
     0
  4
"
 41
1.0
 42
1.0
 43
10.0
 44
1.0
 47
0.1
 48
0.1
 73
     0
 74
     0
 77
     1
 78
     8
 79
     2
140
3.5
141
0.0
143
0.0393701
146
0.71
147
1.5
172
     1
176
   256
177
   256
178
     7
271
     2
272
     2
283
     0
284
     8
340
11
371
    -1
372
    -1
1001
ACAD_DSTYLE_DIMJOGGED_JOGANGLE_SYMBOL
1070
   384
1040
0.7853981633974483
1001
ACAD_DSTYLE_DIMARC_LENGTH_SYMBOL
1070
   379
1070
     1
  0
DIMSTYLE
105
2516
102
{ACAD_REACTORS
330
11A89
102
}
330
A
100
AcDbSymbolTableRecord
100
AcDbDimStyleTableRecord
  2
SYS$3
 70
     0
  4
"
 41
2.0
 42
1.0
 43
10.0
 44
1.0
 47
0.1
 48
0.1
 73
     0
 77
     1
 78
     8
 79
     2
140
3.2
141
0.0
143
0.0393701
146
0.71
147
1.0
176
   256
177
   256
178
     2
271
     2
272
     2
283
     0
284
     8
288
     1
340
11
342
A66
371
    -1
372
    -1
1001
ACAD_DSTYLE_DIMJOGGED_JOGANGLE_SYMBOL
1070
   384
1040
0.7853981633974483
1001
ACAD_DSTYLE_DIMARC_LENGTH_SYMBOL
1070
   379
1070
     1
  0
DIMSTYLE
105
2517
330
A
100
AcDbSymbolTableRecord
100
AcDbDimStyleTableRecord
  2
SYS$4
 70
     0
  4
"
 41
2.0
 42
1.0
 43
10.0
 44
1.0
 47
0.1
 48
0.1
 73
     0
 77
     1
 78
     8
 79
     2
140
3.2
141
0.0
143
0.0393701
146
0.71
147
1.0
173
     1
176
   256
177
   256
178
     2
271
     2
272
     2
283
     0
284
     8
288
     1
340
11
344
A66
371
    -1
372
    -1
1001
ACAD_DSTYLE_DIMJOGGED_JOGANGLE_SYMBOL
1070
   384
1040
0.7853981633974483
1001
ACAD_DSTYLE_DIMARC_LENGTH_SYMBOL
1070
   379
1070
     1
  0
DIMSTYLE
105
2518
330
A
100
AcDbSymbolTableRecord
100
AcDbDimStyleTableRecord
  2
SYS$6
 70
     0
  4
"
 41
2.0
 42
1.0
 43
10.0
 44
1.0
 47
0.1
 48
0.1
 73
     0
 74
     0
 78
     8
 79
     2
140
3.2
141
0.0
143
0.0393701
146
0.71
147
1.0
172
     1
176
   256
177
   256
178
     2
271
     2
272
     2
283
     0
284
     8
340
11
341
A66
371
    -1
372
    -1
1001
ACAD_DSTYLE_DIMJOGGED_JOGANGLE_SYMBOL
1070
   384
1040
0.7853981633974483
1001
ACAD_DSTYLE_DIMARC_LENGTH_SYMBOL
1070
   379
1070
     1
  0
DIMSTYLE
105
2519
330
A
100
AcDbSymbolTableRecord
100
AcDbDimStyleTableRecord
  2
SYS$7
 70
     0
  4
"
 41
2.0
 42
1.0
 43
10.0
 44
1.0
 47
0.1
 48
0.1
 73
     0
 74
     0
 77
     1
 78
     8
 79
     2
140
3.2
141
0.0
143
0.0393701
146
0.71
147
1.0
172
     1
176
   256
177
   256
178
     2
271
     2
272
     2
283
     0
284
     8
340
11
341
A66
342
A66
371
    -1
372
    -1
1001
ACAD_DSTYLE_DIMJOGGED_JOGANGLE_SYMBOL
1070
   384
1040
0.7853981633974483
1001
ACAD_DSTYLE_DIMARC_LENGTH_SYMBOL
1070
   379
1070
     1
  0
DIMSTYLE
105
251A
330
A
100
AcDbSymbolTableRecord
100
AcDbDimStyleTableRecord
  2
SYS$SF
 70
     0
  4
"
 41
2.5
 42
1.0
 43
10.0
 44
1.0
 47
0.1
 48
0.1
 73
     0
 74
     0
 75
     1
 76
     1
 77
     1
 78
     8
 79
     2
140
3.2
141
0.0
143
0.0393701
146
0.71
147
1.0
172
     1
176
   256
177
   256
178
     2
271
     2
272
     2
283
     0
284
     8
340
11
341
6C4
342
6C4
371
    -1
372
    -1
1001
ACAD_DSTYLE_DIMJOGGED_JOGANGLE_SYMBOL
1070
   384
1040
0.7853981633974483
1001
ACAD_DSTYLE_DIMARC_LENGTH_SYMBOL
1070
   379
1070
     1
  0
DIMSTYLE
105
251B
330
A
100
AcDbSymbolTableRecord
100
AcDbDimStyleTableRecord
  2
SYS$SH
 70
     0
  4
"
 41
2.5
 42
1.0
 43
10.0
 44
1.0
 47
0.1
 48
0.1
 73
     0
 74
     0
 75
     1
 76
     1
 77
     1
 78
     8
 79
     2
140
3.2
141
0.0
143
0.0393701
144
2.0
146
0.71
147
1.0
172
     1
173
     1
176
   256
177
   256
178
     2
271
     2
272
     2
283
     0
284
     8
340
11
341
6C4
343
72
344
6C4
371
    -1
372
    -1
1001
ACAD_DSTYLE_DIMJOGGED_JOGANGLE_SYMBOL
1070
   384
1040
0.7853981633974483
1001
ACAD_DSTYLE_DIMARC_LENGTH_SYMBOL
1070
   379
1070
     1
  0
DIMSTYLE
105
2A59
330
A
100
AcDbSymbolTableRecord
100
AcDbDimStyleTableRecord
  2
SYS$2
 70
     0
  4
"
 41
1.0
 42
1.0
 43
10.0
 44
1.0
 47
0.1
 48
0.1
 73
     0
 74
     0
 77
     1
 78
     8
 79
     2
140
3.2
141
0.0
143
0.0393701
146
0.71
147
1.0
172
     1
176
   256
177
   256
178
     2
271
     2
272
     2
283
     0
284
     8
340
11
342
6C4
371
    -1
372
    -1
1001
ACAD_DSTYLE_DIMJOGGED_JOGANGLE_SYMBOL
1070
   384
1040
0.7853981633974483
1001
ACAD_DSTYLE_DIMARC_LENGTH_SYMBOL
1070
   379
1070
     1
  0
DIMSTYLE
105
2AAB
102
{ACAD_REACTORS
330
11A73
330
3E1AA
330
121E4
330
121E1
330
121E0
330
11ECE
330
11CFC
330
11CFB
102
}
330
A
100
AcDbSymbolTableRecord
100
AcDbDimStyleTableRecord
  2
SYS$0
 70
     0
  4
"
 41
1.0
 42
1.0
 43
10.0
 44
1.0
 47
0.1
 48
0.1
 73
     0
 74
     0
 77
     1
 78
     8
 79
     2
140
3.200000000000001
141
0.0
143
0.0393701
146
0.71
147
1.0
172
     1
176
   256
177
   256
178
     2
271
     2
272
     2
283
     0
284
     8
340
11
341
A66
342
6C4
371
    -1
372
    -1
1001
ACAD_DSTYLE_DIMJOGGED_JOGANGLE_SYMBOL
1070
   384
1040
0.7853981633974483
1001
ACAD_DSTYLE_DIMARC_LENGTH_SYMBOL
1070
   379
1070
     1
  0
DIMSTYLE
105
AF99
330
A
100
AcDbSymbolTableRecord
100
AcDbDimStyleTableRecord
  2
AM_ISO
 70
     0
  4
"
 41
2.5
 42
1.0
 43
10.0
 44
1.0
 47
0.1
 48
0.1
 73
     0
 74
     0
 77
     1
 78
     8
 79
     2
140
3.5
141
0.0
143
0.0393701
146
0.71
147
1.5
172
     1
176
   256
177
   256
178
     2
271
     2
272
     3
274
     4
283
     0
284
     8
340
11
371
    -1
372
    -1
  0
DIMSTYLE
105
AF9A
330
A
100
AcDbSymbolTableRecord
100
AcDbDimStyleTableRecord
  2
AM_ISO$3
 70
     0
  4
"
 41
2.5
 42
1.0
 43
10.0
 44
1.0
 47
0.1
 48
0.1
 73
     0
 77
     1
 78
     8
 79
     2
140
3.5
141
0.0
143
0.0393701
146
0.71
147
1.5
176
   256
177
   256
178
     2
271
     2
272
     3
274
     4
283
     0
284
     8
288
     1
289
     0
340
11
371
    -1
372
    -1
  0
DIMSTYLE
105
AF9B
330
A
100
AcDbSymbolTableRecord
100
AcDbDimStyleTableRecord
  2
AM_ISO$4
 70
     0
  4
"
 41
2.5
 42
1.0
 43
10.0
 44
1.0
 47
0.1
 48
0.1
 73
     0
 77
     1
 78
     8
 79
     2
140
3.5
141
0.0
143
0.0393701
146
0.71
147
1.5
176
   256
177
   256
178
     2
271
     2
272
     3
274
     4
283
     0
284
     8
288
     1
289
     0
340
11
371
    -1
372
    -1
  0
DIMSTYLE
105
AF9C
330
A
100
AcDbSymbolTableRecord
100
AcDbDimStyleTableRecord
  2
AM_ISO$6
 70
     0
  4
"
 41
2.5
 42
1.0
 43
10.0
 44
1.0
 47
0.1
 48
0.1
 73
     0
 74
     0
 78
     8
 79
     2
140
3.5
141
0.0
143
0.0393701
146
0.71
147
1.5
172
     1
176
   256
177
   256
178
     2
271
     2
272
     3
274
     4
283
     0
284
     8
340
11
371
    -1
372
    -1
  0
DIMSTYLE
105
AF9D
330
A
100
AcDbSymbolTableRecord
100
AcDbDimStyleTableRecord
  2
AM_ISO$7
 70
     0
  4
"
 41
2.5
 42
1.0
 43
10.0
 44
1.0
 47
0.1
 48
0.1
 73
     0
 74
     0
 77
     1
 78
     8
 79
     2
140
5.0
141
0.0
143
0.0393701
146
0.71
147
1.5
172
     1
176
   256
177
   256
178
     2
271
     2
272
     3
274
     4
283
     0
284
     8
340
11
371
    -1
372
    -1
  0
DIMSTYLE
105
AF9E
330
A
100
AcDbSymbolTableRecord
100
AcDbDimStyleTableRecord
  2
AM_ISO$SF
 70
     0
  4
"
 41
2.5
 42
1.0
 43
10.0
 44
1.0
 47
0.1
 48
0.1
 73
     0
 74
     0
 75
     1
 76
     1
 77
     1
 78
     8
 79
     2
140
3.5
141
0.0
143
0.0393701
146
0.71
147
1.5
172
     1
176
   256
177
   256
178
     2
271
     2
272
     3
274
     4
283
     0
284
     8
340
11
371
    -1
372
    -1
  0
DIMSTYLE
105
AF9F
330
A
100
AcDbSymbolTableRecord
100
AcDbDimStyleTableRecord
  2
AM_ISO$SH
 70
     0
  4
"
 41
2.5
 42
1.0
 43
10.0
 44
1.0
 47
0.1
 48
0.1
 73
     0
 74
     0
 75
     1
 76
     1
 77
     1
 78
     8
 79
     2
140
3.5
141
0.0
143
0.0393701
144
2.0
146
0.71
147
1.5
172
     1
173
     1
176
   256
177
   256
178
     2
271
     2
272
     3
274
     4
283
     0
284
     8
340
11
343
72
371
    -1
372
    -1
  0
DIMSTYLE
105
B60C
330
A
100
AcDbSymbolTableRecord
100
AcDbDimStyleTableRecord
  2
AM_ANSI
 70
     0
  4
mm
 41
0.1
 42
0.05
 43
0.5
 44
0.1
 47
0.1
 48
0.1
 78
     7
 79
     2
140
0.12
141
0.0
146
0.71
147
0.06
176
   256
177
   256
178
     2
274
     4
284
     7
340
11
371
    -1
372
    -1
  0
DIMSTYLE
105
D355
330
A
100
AcDbSymbolTableRecord
100
AcDbDimStyleTableRecord
  2
AM_ANSI$3
 70
     0
  4
mm
 41
0.1
 42
0.05
 43
0.5
 44
0.1
 47
0.1
 48
0.1
 78
     7
140
0.12
141
0.0
146
0.71
147
0.06
176
   256
177
   256
178
     2
271
     2
272
     2
279
     2
284
     8
285
     8
286
     8
340
11
  0
DIMSTYLE
105
D356
330
A
100
AcDbSymbolTableRecord
100
AcDbDimStyleTableRecord
  2
AM_ANSI$4
 70
     0
  4
mm
 41
0.1
 42
0.05
 43
0.5
 44
0.1
 47
0.1
 48
0.1
 78
     7
140
0.12
141
0.0
146
0.71
147
0.06
176
   256
177
   256
178
     2
271
     2
272
     2
279
     2
284
     8
285
     8
286
     8
340
11
  0
DIMSTYLE
105
D357
330
A
100
AcDbSymbolTableRecord
100
AcDbDimStyleTableRecord
  2
AM_ANSI$7
 70
     0
  4
mm
 41
0.1
 42
0.05
 43
0.5
 44
0.1
 47
0.1
 48
0.1
 78
     7
140
0.24
141
0.0
146
0.71
147
0.06
176
   256
177
   256
178
     2
271
     2
272
     2
279
     2
284
     8
285
     8
286
     8
340
11
  0
DIMSTYLE
105
D358
330
A
100
AcDbSymbolTableRecord
100
AcDbDimStyleTableRecord
  2
AM_ANSI$SF
 70
     0
  4
mm
 41
0.1
 42
0.05
 43
0.5
 44
0.1
 47
0.1
 48
0.1
 75
     1
 76
     1
 78
     7
140
0.12
141
0.0
146
0.71
147
0.06
176
   256
177
   256
178
     2
271
     2
272
     2
279
     2
284
     8
285
     8
286
     8
340
11
  0
DIMSTYLE
105
D359
330
A
100
AcDbSymbolTableRecord
100
AcDbDimStyleTableRecord
  2
AM_ANSI$SH
 70
     0
  4
mm
 41
0.1
 42
0.05
 43
0.5
 44
0.1
 47
0.1
 48
0.1
 75
     1
 76
     1
 78
     7
140
0.12
141
0.0
146
0.71
147
0.06
173
     1
176
   256
177
   256
178
     2
271
     2
272
     2
279
     2
284
     8
285
     8
286
     8
340
11
  0
DIMSTYLE
105
143E7
330
A
100
AcDbSymbolTableRecord
100
AcDbDimStyleTableRecord
  2
ＩＳＯ1
 70
     0
  4
"
 40
2.0
 41
2.5
 42
1.0
 43
10.0
 44
1.0
 47
0.1
 48
0.1
 73
     0
 74
     0
 77
     1
 78
     8
 79
     2
140
3.5
141
0.0
143
0.0393701
146
0.71
147
1.5
172
     1
176
   256
177
   256
178
     2
271
     2
272
     3
274
     4
283
     0
284
     8
340
11
371
    -1
372
    -1
  0
DIMSTYLE
105
143E8
330
A
100
AcDbSymbolTableRecord
100
AcDbDimStyleTableRecord
  2
ＩＳＯ1$3
 70
     0
  4
"
 40
2.0
 41
2.5
 42
1.0
 43
10.0
 44
1.0
 47
0.1
 48
0.1
 73
     0
 77
     1
 78
     8
 79
     2
140
3.5
141
0.0
143
0.0393701
146
0.71
147
1.5
176
   256
177
   256
178
     2
271
     2
272
     3
274
     4
283
     0
284
     8
288
     1
289
     0
340
11
371
    -1
372
    -1
  0
DIMSTYLE
105
143E9
330
A
100
AcDbSymbolTableRecord
100
AcDbDimStyleTableRecord
  2
ＩＳＯ1$4
 70
     0
  4
"
 40
2.0
 41
2.5
 42
1.0
 43
10.0
 44
1.0
 47
0.1
 48
0.1
 73
     0
 77
     1
 78
     8
 79
     2
140
3.5
141
0.0
143
0.0393701
146
0.71
147
1.5
176
   256
177
   256
178
     2
271
     2
272
     3
274
     4
283
     0
284
     8
288
     1
289
     0
340
11
371
    -1
372
    -1
  0
DIMSTYLE
105
143EA
330
A
100
AcDbSymbolTableRecord
100
AcDbDimStyleTableRecord
  2
ＩＳＯ1$6
 70
     0
  4
"
 40
2.0
 41
2.5
 42
1.0
 43
10.0
 44
1.0
 47
0.1
 48
0.1
 73
     0
 74
     0
 78
     8
 79
     2
140
3.5
141
0.0
143
0.0393701
146
0.71
147
1.5
172
     1
176
   256
177
   256
178
     2
271
     2
272
     3
274
     4
283
     0
284
     8
340
11
371
    -1
372
    -1
  0
DIMSTYLE
105
143EB
330
A
100
AcDbSymbolTableRecord
100
AcDbDimStyleTableRecord
  2
ＩＳＯ1$7
 70
     0
  4
"
 40
2.0
 41
2.5
 42
1.0
 43
10.0
 44
1.0
 47
0.1
 48
0.1
 73
     0
 74
     0
 77
     1
 78
     8
 79
     2
140
5.0
141
0.0
143
0.0393701
146
0.71
147
1.5
172
     1
176
   256
177
   256
178
     2
271
     2
272
     3
274
     4
283
     0
284
     8
340
11
371
    -1
372
    -1
  0
DIMSTYLE
105
143EC
330
A
100
AcDbSymbolTableRecord
100
AcDbDimStyleTableRecord
  2
ＩＳＯ1$SF
 70
     0
  4
"
 40
2.0
 41
2.5
 42
1.0
 43
10.0
 44
1.0
 47
0.1
 48
0.1
 73
     0
 74
     0
 75
     1
 76
     1
 77
     1
 78
     8
 79
     2
140
3.5
141
0.0
143
0.0393701
146
0.71
147
1.5
172
     1
176
   256
177
   256
178
     2
271
     2
272
     3
274
     4
283
     0
284
     8
340
11
371
    -1
372
    -1
  0
DIMSTYLE
105
143ED
330
A
100
AcDbSymbolTableRecord
100
AcDbDimStyleTableRecord
  2
ＩＳＯ1$SH
 70
     0
  4
"
 40
2.0
 41
2.5
 42
1.0
 43
10.0
 44
1.0
 47
0.1
 48
0.1
 73
     0
 74
     0
 75
     1
 76
     1
 77
     1
 78
     8
 79
     2
140
3.5
141
0.0
143
0.0393701
144
2.0
146
0.71
147
1.5
172
     1
173
     1
176
   256
177
   256
178
     2
271
     2
272
     3
274
     4
283
     0
284
     8
340
11
343
72
371
    -1
372
    -1
  0
ENDTAB
  0
TABLE
  2
BLOCK_RECORD
  5
1
330
0
100
AcDbSymbolTable
 70
  2135
  0
BLOCK_RECORD
  5
1F
102
{ACAD_XDICTIONARY
360
8A
102
}
330
1
100
AcDbSymbolTableRecord
100
AcDbBlockTableRecord
  2
*Model_Space
340
22
  0
BLOCK_RECORD
  5
1B
330
1
100
AcDbSymbolTableRecord
100
AcDbBlockTableRecord
  2
*Paper_Space
340
1E
  0
BLOCK_RECORD
  5
23
330
1
100
AcDbSymbolTableRecord
100
AcDbBlockTableRecord
  2
*Paper_Space0
340
26
  0
BLOCK_RECORD
  5
72
330
1
100
AcDbSymbolTableRecord
100
AcDbBlockTableRecord
  2
GENAXEH
340
0
  0
BLOCK_RECORD
  5
6C4
330
1
100
AcDbSymbolTableRecord
100
AcDbBlockTableRecord
  2
_Dot
340
0
102
{BLKREFS
331
BB72
331
BB73
331
BB80
331
BB81
331
BB8C
331
BB8D
331
BB98
331
BB99
331
BD21
331
BD22
331
BD2A
331
BD2B
331
BD45
331
BD46
331
BD4E
331
BD4F
331
BD57
331
BD58
331
BE17
331
BE18
331
BE20
331
BE21
331
C0FE
331
C0FF
331
C107
331
C108
331
C112
331
C113
331
C11B
331
C11C
331
C124
331
C125
331
C282
331
C283
331
C28B
331
C28C
331
C294
331
C295
331
C29D
331
C29E
331
C2A7
331
C2A8
331
C2AF
331
C2B0
331
C3F0
331
C3F1
331
C3FB
331
C3FC
331
C40A
331
C40B
331
C413
331
C414
331
C41D
331
C41E
331
C5C4
331
C5C5
331
C5D8
331
C5D9
331
C5E1
331
C5E2
331
C852
331
C853
331
C85B
331
C85C
331
C9AE
331
C9AF
331
C9B7
331
C9B8
331
CD44
331
CD45
331
CD5F
331
CD60
331
D02F
331
D030
331
D053
331
D054
331
D1C8
331
D1C9
331
D1D1
331
D1D2
331
EF40
331
EF41
331
F097
331
F098
331
F0DE
331
F0DF
331
F18F
331
F190
331
F197
331
F198
331
F6C4
331
F6C5
331
F6D6
331
F6D7
331
10202
331
10203
331
1020C
331
1020D
331
10215
331
10216
331
10220
331
10221
331
10229
331
1022A
331
10234
331
10235
331
1023B
331
1023C
331
10244
331
10245
331
1024D
331
1024E
331
10256
331
10257
331
10268
331
10269
331
10271
331
10272
331
1027C
331
1027D
331
10285
331
10286
331
10FFD
331
10FFE
331
11006
331
11007
331
1100F
331
11010
331
1102A
331
1102B
331
112A0
331
112A1
331
11544
331
11545
331
1154D
331
1154E
331
1155F
331
11560
331
12179
331
1217A
331
12184
331
12185
331
1228E
331
1228F
331
12297
331
12298
331
122BC
331
122BD
331
122C5
331
122C6
331
1A261
331
1A262
331
1A26B
331
1A26C
331
1A28F
331
1A290
331
1A298
331
1A299
331
1A2A3
331
1A2A4
331
1A2AC
331
1A2AD
331
1A2B5
331
1A2B6
331
1A2BE
331
1A2BF
331
1A2C8
331
1A2C9
331
1A2EC
331
1A2ED
331
1A2F5
331
1A2F6
331
1A300
331
1A301
331
1A309
331
1A30A
331
1A31D
331
1A31E
331
1A326
331
1A327
331
1A330
331
1A331
331
1A33A
331
1A33B
331
1A343
331
1A344
331
1A34C
331
1A34D
331
1A355
331
1A356
331
1A367
331
1A368
331
1A370
331
1A371
331
1A37A
331
1A37B
331
1A383
331
1A384
331
1A38C
331
1A38D
331
1A395
331
1A396
331
1A39E
331
1A39F
331
1A3A8
331
1A3A9
331
1A3CD
331
1A3CE
331
1A3EA
331
1A3EB
331
1A3F3
331
1A3F4
331
1A3FC
331
1A3FD
331
1A407
331
1A408
331
1A410
331
1A411
331
1A419
331
1A41A
331
1A423
331
1A424
331
1A42C
331
1A42D
331
1A435
331
1A436
331
1A43E
331
1A43F
331
1A447
331
1A448
331
1A450
331
1A451
331
1A459
331
1A45A
331
1A462
331
1A463
331
1A46B
331
1A46C
331
1A475
331
1A476
331
1A47E
331
1A47F
331
1A488
331
1A489
331
1A491
331
1A492
331
1A49B
331
1A49C
331
1A4AE
331
1A4AF
331
1A4B7
331
1A4B8
331
1A4C1
331
1A4C2
331
1A4CC
331
1A4CD
331
1A4D6
331
1A4D7
331
1A4DF
331
1A4E0
331
1A4E8
331
1A4E9
331
1A4F3
331
1A4F4
331
1A4FC
331
1A4FD
331
1A505
331
1A506
331
1A50F
331
1A510
331
1A518
331
1A519
331
1A521
331
1A522
331
1A52A
331
1A52B
331
1A533
331
1A534
331
1A53C
331
1A53D
331
1A545
331
1A546
331
1A54E
331
1A54F
331
1A561
331
1A562
331
1A56A
331
1A56B
331
1A574
331
1A575
331
1A57F
331
1A580
331
1A589
331
1A58A
331
1A592
331
1A593
331
1A59B
331
1A59C
331
1A5A5
331
1A5A6
331
1A5B8
331
1A5B9
331
1A5C1
331
1A5C2
331
1A5CB
331
1A5CC
331
1A5D4
331
1A5D5
331
1A5DE
331
1A5DF
331
1A628
331
1A629
331
1A631
331
1A632
331
1A63B
331
1A63C
331
1A64E
331
1A64F
331
1A674
331
1A675
331
1A67D
331
1A67E
331
1A688
331
1A689
331
1A691
331
1A692
331
1A69A
331
1A69B
331
1A6A3
331
1A6A4
331
1A6AC
331
1A6AD
331
1A6B5
331
1A6B6
331
1A6BF
331
1A6C0
331
1A6C8
331
1A6C9
331
1A6D1
331
1A6D2
331
1A6DA
331
1A6DB
331
1A6ED
331
1A6EE
331
1A6F6
331
1A6F7
331
1A700
331
1A701
331
1A725
331
1A726
331
1A72E
331
1A72F
331
1A737
331
1A738
331
1A742
331
1A743
331
1A74B
331
1A74C
331
1A754
331
1A755
331
1A75D
331
1A75E
331
1A766
331
1A767
331
1A770
331
1A771
331
1A779
331
1A77A
331
1A783
331
1A784
331
1A7A8
331
1A7A9
331
1A7B3
331
1A7B4
331
1A7CE
331
1A7CF
331
1A7D7
331
1A7D8
331
1A7E1
331
1A7E2
331
1A7EA
331
1A7EB
331
1A7F3
331
1A7F4
331
1A7FC
331
1A7FD
331
1A805
331
1A806
331
1A80E
331
1A80F
331
1A817
331
1A818
331
1A897
331
1A898
331
1A8F3
331
1A8F4
331
1A9D7
331
1A9D8
331
1A9E1
331
1A9E2
331
1A9EC
331
1A9ED
331
1AC2C
331
1AC2D
331
1AC36
331
1AC37
331
1AC40
331
1AC41
331
1AC6F
331
1AC70
331
1AC79
331
1AC7A
331
1B2D2
331
1B2D3
331
1B2DB
331
1B2DC
331
1B340
331
1B341
331
1B47C
331
1B47D
331
1B485
331
1B486
331
22001
331
22002
331
2200A
331
2200B
331
22013
331
22014
331
2201C
331
2201D
331
22026
331
22027
331
2202F
331
22030
331
22038
331
22039
331
22043
331
22044
331
2204D
331
2204E
331
22057
331
22058
331
22060
331
22061
331
22069
331
2206A
331
22074
331
22075
331
2207F
331
22080
331
22088
331
22089
331
22091
331
22092
331
22099
331
220A2
331
220A3
331
220AB
331
220AC
331
220B4
331
220B5
331
220BD
331
220BE
331
220C6
331
220C7
331
220CF
331
220D0
331
220D8
331
220D9
331
220E1
331
220E9
331
220EA
331
220F3
331
220F4
331
220FC
331
220FD
331
22105
331
22106
331
2210E
331
2210F
331
22118
331
22119
331
22121
331
22122
331
2212A
331
2212B
331
22136
331
22137
331
2213F
331
22140
331
2214A
331
2214B
331
22153
331
22154
331
2215E
331
2215F
331
22169
331
2216A
331
22172
331
22173
331
2217A
331
2217B
331
22183
331
22184
331
2218E
331
2218F
331
22197
331
22198
331
221A0
331
221A1
331
221AB
331
221AC
331
221B4
331
221B5
331
221BD
331
221BE
331
221C6
331
221C7
331
221CF
331
221D0
331
221D8
331
221D9
331
221E1
331
221E2
331
221EA
331
221EB
331
221F3
331
221F4
331
221FC
331
221FD
331
22205
331
22206
331
2220E
331
2220F
331
22218
331
22219
331
2523A
331
2523B
331
2827A
331
2827B
331
2829E
331
2829F
331
31A4B
331
31A4C
331
31A53
331
31A54
331
31A5A
331
31A5B
331
31A62
331
31A63
331
31A6B
331
31A6C
331
31A73
331
31A74
331
31A7A
331
31A7B
331
31A81
331
31A82
331
31A88
331
31A89
331
31A90
331
31A91
331
31A9B
331
31A9C
331
31AA4
331
31AA5
331
31AAC
331
31AAD
331
31AB3
331
31AB4
331
31ABA
331
31ABB
331
31AC1
331
31AC2
331
31AC9
331
31ACA
331
31AD2
331
31AD3
331
31ADA
331
31ADB
331
31AE2
331
31AE3
331
31AEA
331
31AEB
331
31AF1
331
31AF2
331
31AF9
331
31AFA
331
31B02
331
31B03
331
31B0A
331
31B0B
331
31B13
331
31B14
331
31B1E
331
31B1F
331
31B29
331
31B2A
331
31B32
331
31B33
331
31B3D
331
31B3E
331
31B46
331
31B47
331
31B51
331
31B52
331
31B5C
331
31B5D
331
31B65
331
31B66
331
31B70
331
31B71
331
31B79
331
31B7A
331
31B82
331
31B83
331
31B89
331
31B8A
331
31B91
331
31B92
331
31B9A
331
31B9B
331
31BA5
331
31BA6
331
31BAE
331
31BAF
331
31BB7
331
31BB8
331
31BC0
331
31BC1
331
31BC9
331
31BCA
331
31BD2
331
31BD3
331
31BDB
331
31BDC
331
31BE2
331
31BE3
331
31BE9
331
31BEA
331
31BF0
331
31BF1
331
31BF8
331
31BF9
331
31C01
331
31C02
331
31C09
331
31C0A
331
31C14
331
31C15
331
31C1F
331
31C20
331
31C28
331
31C29
331
31C33
331
31C34
331
31C3C
331
31C3D
331
31C45
331
31C46
331
31C4E
331
31C4F
331
31C57
331
31C58
331
31C62
331
31C63
331
31C6B
331
31C6C
331
31C74
331
31C75
331
31C7D
331
31C7E
331
31C86
331
31C87
331
31C8F
331
31C90
331
31C98
331
31C99
331
37D48
331
37D49
331
37D51
331
37D52
331
37D5A
331
37D5B
331
37D63
331
37D64
331
37D6C
331
37D6D
331
37D75
331
37D76
331
37D7E
331
37D7F
331
37D87
331
37D88
331
37D90
331
37D91
331
37D99
331
37D9A
331
37DA2
331
37DA3
331
37DAB
331
37DB4
331
37DB5
331
37DBD
331
37DBE
331
37DC6
331
37DC7
331
37DCF
331
37DD0
331
37DD8
331
37DD9
331
37DE1
331
37DE2
331
37DE9
331
37DF2
331
37DF3
331
37DFC
331
37DFD
331
37E05
331
37E06
331
37E0F
331
37E10
331
37E18
331
37E19
331
37E23
331
37E24
331
37E2C
331
37E2D
331
37E35
331
37E36
331
37E3E
331
37E3F
331
37E47
331
37E48
331
37E50
331
37E51
331
37E59
331
37E5A
331
37E62
331
37E63
331
37E6B
331
37E6C
331
37E74
331
37E75
331
37E7D
331
37E7E
331
37E87
331
37E88
331
37E90
331
37E91
331
37E99
331
37E9A
331
37EA2
331
37EA3
331
37EAB
331
37EAC
331
37EB4
331
37EB5
331
37EBD
331
37EBE
331
37EC6
331
37EC7
331
37ED0
331
37ED1
331
37ED9
331
37EDA
331
37EE2
331
37EE3
331
37EEB
331
37EEC
331
37EF6
331
37EF7
331
37F00
331
37F01
331
37F09
331
37F0A
331
37F12
331
37F13
331
37F1B
331
37F1C
331
37F24
331
37F25
331
37F2D
331
37F2E
331
37F35
331
37F36
331
37F3F
331
37F40
331
37F48
331
37F49
331
37F51
331
37F52
331
37F5A
331
37F5B
331
37F63
331
37F64
331
37F6C
331
37F6D
331
37F75
331
37F76
331
37F7E
331
37F7F
331
37F87
331
37F88
331
37F90
331
37F9A
331
37FA2
331
37FA3
331
37FAB
331
37FAC
331
37FB4
331
37FB5
331
37FC0
331
37FCE
331
37FCF
331
37FDF
331
37FE0
331
37FE8
331
37FE9
331
37FF1
331
37FF2
331
37FFA
331
37FFB
331
38003
331
38004
331
3800C
331
3800D
331
38017
331
38018
331
38020
331
38021
331
3A4CA
331
3A4CB
331
3A4D3
331
3A4D4
331
3A4DF
331
3A4E0
331
3A4E7
331
3A4E8
331
3A4F0
331
3A4F1
331
3A4F9
331
3A4FA
331
3A502
331
3A503
331
3A50B
331
3A50C
331
3A514
331
3A515
331
3A51D
331
3A51E
331
3A526
331
3A527
331
3A52F
331
3A530
331
3A538
331
3A539
331
3A541
331
3A542
331
3A54A
331
3A54B
331
3A553
331
3A554
331
3A55C
331
3A55D
331
3A568
331
3A569
331
3A570
331
3A571
331
3A579
331
3A57A
331
3A582
331
3A583
331
3A58B
331
3A58C
331
3A59A
331
3A59B
331
3A5A2
331
3A5A3
331
3A5AB
331
3A5AC
331
3A5B4
331
3A5B5
331
3E071
331
3E072
331
3E07A
331
3E07B
331
3E0C2
331
3E0C3
331
3E0DD
331
3E0DE
331
3E0F8
331
3E0F9
331
3E155
331
3E156
331
3E15E
331
3E15F
331
3E167
331
3E168
331
3E170
331
3E171
331
3E179
331
3E17A
331
3E1A4
331
3E1A5
331
3E1D0
331
3E1D1
331
3E1E3
331
3E1E4
331
3E1F6
331
3E1F7
331
3E309
331
3E30A
331
3E312
331
3E313
331
3E39C
331
3E39D
331
3E3A5
331
3E3A6
331
3E3AE
331
3E3AF
331
3E3B7
331
3E3B8
331
3E3C2
331
3E3C3
331
3E411
331
3E412
331
3E41A
331
3E41B
331
3E425
331
3E426
331
3E48E
331
3E48F
331
3E497
331
3E498
331
3E4A0
331
3E4A1
331
3E4AB
331
3E4AC
331
415EF
331
415F0
331
415F6
331
415F7
331
4658E
331
4658F
331
46599
331
4659A
331
465A3
331
465A4
331
465AF
331
465B0
331
465BB
331
465BC
331
465D4
331
465D5
331
465E0
331
465E1
331
465ED
331
465EE
331
465F7
331
465F8
331
46605
331
46606
331
46613
331
46614
331
46620
331
46621
331
46631
331
46632
331
4663E
331
4663F
331
4664C
331
4664D
331
46658
331
46659
331
46664
331
46665
331
46672
331
46673
331
4667E
331
4667F
331
46689
331
4668A
331
46692
331
46693
331
4669B
331
4669C
331
466A7
331
466A8
331
466B2
331
466B3
331
466BB
331
466BC
331
466C6
331
466C7
331
466D4
331
466D5
331
466E0
331
466E1
331
466EE
331
466EF
331
466F9
331
466FA
331
46705
331
46706
331
46710
331
46711
331
4671C
331
4671D
331
4672E
331
4672F
331
4673B
331
4673C
331
46748
331
46749
331
46758
331
46759
331
46765
331
46766
331
46773
331
46774
331
46780
331
46781
331
46789
331
4678A
331
46794
331
46795
331
4679D
331
4679E
331
467A8
331
467A9
331
467B1
331
467B2
331
467BB
331
467BC
331
467C7
331
467C8
331
467D3
331
467D4
331
467DF
331
467E0
331
467ED
331
467EE
331
467FB
331
467FC
331
46808
331
46809
331
46811
331
46812
331
4681A
331
4681B
331
46826
331
46827
331
46834
331
46835
331
46841
331
46842
331
4684A
331
4684B
331
46854
331
46855
331
4685F
331
46860
331
46868
331
46869
331
46871
331
46872
331
4687A
331
4687B
331
46885
331
46886
331
4688E
331
4688F
331
46897
331
46898
331
468A1
331
468A2
331
468AF
331
468B0
331
468BB
331
468BC
331
468C9
331
468CA
331
468D9
331
468DA
331
468E4
331
468E5
331
468F0
331
468F1
331
468FB
331
468FC
331
46907
331
46908
331
46919
331
4691A
331
46933
331
46934
331
46943
331
46944
331
46950
331
46951
331
4695E
331
4695F
331
4696C
331
4696D
331
46978
331
46979
331
46983
331
46984
331
4698C
331
4698D
331
46995
331
46996
331
4699E
331
4699F
331
469AA
331
469AB
331
469B5
331
469B6
331
469BE
331
469BF
331
469C9
331
469CA
331
469D7
331
469D8
331
469E3
331
469E4
331
469F1
331
469F2
331
46A01
331
46A02
331
46A0C
331
46A0D
331
46A18
331
46A19
331
46A23
331
46A24
331
46A2F
331
46A30
331
46A41
331
46A42
331
46A4E
331
46A4F
331
46A5B
331
46A5C
331
46A6B
331
46A6C
331
46A78
331
46A79
331
46A86
331
46A87
331
46A94
331
46A95
331
46A9F
331
46AA0
331
46AAA
331
46AAB
331
46AB3
331
46AB4
331
46ABF
331
46AC0
331
46ACA
331
46ACB
331
46AD4
331
46AD5
331
46AE0
331
46AE1
331
46AF1
331
46AF2
331
46AF9
331
46AFA
331
46B02
331
46B03
331
46B0D
331
46B0E
331
46B16
331
46B17
331
46B20
331
46B21
331
46B2B
331
46B2C
331
46B34
331
46B35
331
46B40
331
46B41
331
46B4D
331
46B4E
331
46B58
331
46B59
331
46B69
331
46B6A
331
46B75
331
46B76
331
46B7E
331
46B7F
331
46B87
331
46B88
331
46B91
331
46B92
331
46B9C
331
46B9D
331
46BA6
331
46BA7
331
46BB2
331
46BB3
331
46BBE
331
46BBF
331
46BD7
331
46BD8
331
46BE3
331
46BE4
331
46BF0
331
46BF1
331
46BFA
331
46BFB
331
46C08
331
46C09
331
46C16
331
46C17
331
46C23
331
46C24
331
46C34
331
46C35
331
46C4F
331
46C50
331
46C5B
331
46C5C
331
46C67
331
46C68
331
46C75
331
46C76
331
46C82
331
46C83
331
46C8D
331
46C8E
331
46C98
331
46C99
331
46CA3
331
46CA4
331
480F6
331
480F7
331
480FF
331
48100
331
48108
331
48109
331
48111
331
48112
331
4811A
331
4811B
331
48123
331
48124
331
4812C
331
4812D
331
48135
331
48136
331
4813E
331
4813F
331
48147
331
48148
331
48152
331
48153
331
4815B
331
4815C
331
48164
331
48165
331
4816D
331
4816E
331
48176
331
48177
331
4817F
331
48180
331
48188
331
48189
331
48191
331
48192
331
4819A
331
4819B
331
481A3
331
481A4
331
481AC
331
481AD
331
481B5
331
481B6
331
481BE
331
481BF
331
481C7
331
481C8
331
481D0
331
481D1
331
481D7
331
481D8
331
481E0
331
481E1
331
481EB
331
481EC
331
481F4
331
481F5
331
481FC
331
481FD
331
48205
331
48206
331
4820E
331
4820F
331
48218
331
48219
331
48221
331
48222
331
4822A
331
4822B
331
48233
331
48234
331
4823C
331
4823D
331
48245
331
48246
331
4824E
331
4824F
331
48257
331
48258
331
48270
331
48271
331
48279
331
4827A
331
48282
331
48283
331
4828B
331
4828C
331
48294
331
48295
331
482A5
331
482A6
331
482AE
331
482AF
331
482B7
331
482B8
331
482C0
331
482C1
331
49688
331
49689
331
49691
331
49692
331
4969A
331
4969B
331
496A3
331
496A4
331
496AC
331
496AD
331
496B5
331
496B6
331
496BE
331
496BF
331
496C7
331
496C8
331
496D0
331
496D1
331
496D9
331
496DA
331
496E2
331
496E3
331
496EB
331
496EC
331
496F4
331
496F5
331
496FD
331
496FE
331
49706
331
49707
331
4970F
331
49710
331
4971B
331
4971C
331
49723
331
49724
331
4972C
331
4972D
331
49735
331
49736
331
4973F
331
49740
331
49747
331
49748
331
49750
331
49751
331
49759
331
4975A
331
49762
331
49763
331
4976B
331
4976C
331
49774
331
49775
331
4977D
331
4977E
331
49786
331
49787
331
4978F
331
49790
331
49798
331
49799
331
4979F
331
497A0
331
497A8
331
497A9
331
497B3
331
497B4
331
497BC
331
497BD
331
497C5
331
497C6
331
497CE
331
497CF
331
497D7
331
497D8
331
497E0
331
497E1
331
497E9
331
497EA
331
498B4
331
498B5
331
498BD
331
498BE
331
498C6
331
498C7
331
4B204
331
4B205
331
4B20D
331
4B20E
331
4B215
331
4B216
331
4B223
331
4B224
331
4B22B
331
4B22C
331
4B233
331
4B234
331
4B23E
331
4B23F
331
4B24C
331
4B24D
331
4B254
331
4B255
331
4B25D
331
4B25E
331
4B265
331
4B266
331
4B26D
331
4B273
331
4B274
331
4B27C
331
4B282
331
4B283
331
4B28B
331
4B28C
331
4B293
331
4B294
331
4B29C
331
4B29D
331
4B2A4
331
4B2A5
331
4B2AC
331
4B2AD
331
4B2BA
331
4B2BB
331
4B2C1
331
4B2C2
331
4B2CA
331
4B2CB
331
4B2D2
331
4B2D3
331
4B2DA
331
4B2DB
331
4B2E3
331
4B2E4
331
4B2F1
331
4B2F2
331
4B2F8
331
4B2F9
331
4B300
331
4B301
331
4B308
331
4B309
331
4B311
331
4B312
331
4B31A
331
4B31B
331
4B323
331
4B324
331
4B32B
331
4B32C
331
4B33A
331
4B33B
331
4B346
331
4B347
331
4B34E
331
4B34F
331
4B357
331
4B358
331
4B35F
331
4B360
331
4B366
331
4B367
331
4B375
331
4B376
331
4B382
331
4B383
331
4B38A
331
4B38B
331
4B397
331
4B398
331
4B39F
331
4B3A0
331
4B3A8
331
4B3A9
331
4B3B0
331
4B3B1
331
4B3B8
331
4B3B9
331
4B3C0
331
4B3C1
331
4B3C9
331
4B3CA
331
4B3D2
331
4B3D3
331
4B3DA
331
4B3DB
331
4B3E2
331
4B3E3
331
4B3EA
331
4B3EB
331
4B3F3
331
4B3F4
331
4B3FB
331
4B3FC
331
4B403
331
4B404
331
4B40C
331
4B40D
331
4B415
331
4B416
331
4B41E
331
4B41F
331
4B42B
331
4B42C
331
4B432
331
4B433
331
4B43B
331
4B43C
331
4B443
331
4B444
331
4B44B
331
4B44C
331
4B45A
331
4B45B
331
4B461
331
4B462
331
4B469
331
4B46A
331
4B472
331
4B473
331
4CACC
331
4CACD
331
4CAD6
331
4CAD7
331
4CADF
331
4CAE0
331
4CAEA
331
4CAEB
331
4CAF2
331
4CAF3
331
4CAFA
331
4CAFB
331
4CB03
331
4CB04
331
4CB0D
331
4CB0E
331
4CB15
331
4CB16
331
4CB1D
331
4CB1E
331
4CB26
331
4CB27
331
4CB30
331
4CB31
331
4CB3B
331
4CB3C
331
4CB44
331
4CB45
331
4CB4D
331
4CB4E
331
4CB56
331
4CB57
331
4CB5E
331
4CB5F
331
4CB66
331
4CB67
331
4CB6E
331
4CB6F
331
4CB76
331
4CB77
331
4CB7E
331
4CB7F
331
4CB86
331
4CB87
331
4CB8E
331
4CB8F
331
4CB96
331
4CB97
331
4CB9E
331
4CB9F
331
4CBA6
331
4CBA7
331
4CBAE
331
4CBAF
331
4CBB6
331
4CBB7
331
4CBBE
331
4CBBF
331
4CBC6
331
4CBC7
331
4CBCF
331
4CBD0
331
4CBD9
331
4CBDA
331
4CBE2
331
4CBE3
331
4CBEA
331
4CBEB
331
4CBF2
331
4CBF3
331
4CBFB
331
4CBFC
331
4CC05
331
4CC06
331
4CC10
331
4CC11
331
4CC18
331
4CC19
331
4CC20
331
4CC21
331
4CC29
331
4CC2A
331
4CC33
331
4CC34
331
4CC3B
331
4CC3C
331
4CC43
331
4CC44
331
4CC4C
331
4CC4D
331
4CC56
331
4CC57
331
4CC61
331
4CC62
331
4CC6A
331
4CC6B
331
4CC78
331
4CC79
331
4CC81
331
4CC82
331
4CC89
331
4CC8A
331
4CC92
331
4CC93
331
4CC9B
331
4CC9C
331
4CCAA
331
4CCAB
331
4CCB9
331
4CCBA
331
4CCC2
331
4CCC3
331
4CCCB
331
4CCCC
331
4CCD4
331
4CCD5
331
4CCDD
331
4CCDE
331
4CCE6
331
4CCE7
331
4CCEF
331
4CCF0
331
4D526
331
4D527
331
4D52F
331
4D530
331
4D53B
331
4D53C
331
4D543
331
4D544
331
4D54C
331
4D54D
331
4D557
331
4D558
331
4D560
331
4D561
331
4D569
331
4D56A
331
4D572
331
4D573
331
4D57B
331
4D57C
331
4D585
331
4D586
331
4D58D
331
4D58E
331
4D596
331
4D597
331
4D59F
331
4D5A0
331
4D5A8
331
4D5A9
331
4D5B1
331
4D5B2
331
4D5BA
331
4D5BB
331
4D5C3
331
4D5C4
331
4D5CC
331
4D5CD
331
4D5D5
331
4D5D6
331
4D5DE
331
4D5DF
331
4D5E7
331
4D5E8
331
4D5F0
331
4D5F1
331
4D5FB
331
4D5FC
331
4DBFD
331
4DBFE
331
4DC06
331
4DC07
331
4DC0F
331
4DC10
331
4DC18
331
4DC19
331
4DC21
331
4DC22
331
4DC2A
331
4DC2B
331
4DC33
331
4DC34
331
4DC3C
331
4DC3D
331
4DC45
331
4DC46
331
4DC4E
331
4DC4F
331
4DC57
331
4DC58
331
4DC60
331
4DC61
331
4DC6B
331
4DC6C
331
4DC74
331
4DC75
331
4E35E
331
4E35F
331
4E367
331
4E368
331
4E370
331
4E371
331
4E379
331
4E37A
331
4E382
331
4E383
331
4E559
331
4E55A
331
4E562
331
4E563
331
4E56B
331
4E56C
331
4E574
331
4E575
331
4E57D
331
4E57E
331
4E586
331
4E587
331
4E58F
331
4E590
331
4E598
331
4E599
331
4E5A1
331
4E5A2
331
5201E
331
5201F
331
52027
331
52028
331
52030
331
52031
331
52039
331
5203A
331
52042
331
52043
331
5204B
331
5204C
331
52054
331
52055
331
5205D
331
5205E
331
52065
331
52066
331
5206E
331
5206F
331
52077
331
5207D
331
5207E
331
52086
331
52087
331
5208F
331
52090
331
52097
331
52098
331
520A1
331
520A2
331
520A9
331
520AA
331
520B3
331
520B4
331
520BB
331
520BC
331
520C3
331
520C4
331
520CA
331
520CB
331
520D3
331
520D4
331
520DC
331
520DD
331
520E4
331
520E5
331
520ED
331
520F2
331
520F3
331
520F9
331
520FA
331
52101
331
52102
331
5210C
331
5210D
331
52114
331
52115
331
5211C
331
5211D
331
52123
331
52124
331
5212E
331
5212F
331
52136
331
52137
331
52140
331
52141
331
52148
331
52149
331
52150
331
52151
331
52158
331
52159
331
52160
331
52161
331
52167
331
52168
331
52170
331
52171
331
52179
331
5217A
331
52182
331
52183
331
5218B
331
5218C
331
52194
331
52195
331
5219D
331
5219E
331
521A7
331
521A8
331
521B1
331
521B2
331
521BA
331
521BB
331
521C2
331
521C3
331
521CC
331
521CD
331
521D3
331
521D4
331
521DB
331
521DC
331
53CEB
331
53CEC
331
55248
331
55249
331
55251
331
55252
331
5525A
331
5525B
331
55264
331
55265
331
5526D
331
5526E
331
55276
331
55277
331
5527F
331
55280
331
55288
331
55289
331
55291
331
55292
331
55299
331
5529A
331
552A0
331
552A1
331
552A8
331
552A9
331
552B0
331
552B1
331
552B9
331
552BA
331
552C2
331
552C3
331
552CB
331
552CC
331
552D4
331
552D5
331
552DD
331
552DE
331
552E6
331
552E7
331
552EF
331
552F0
331
554C5
331
554C6
331
554CE
331
554CF
331
554D7
331
554D8
331
554E0
331
554E1
331
554E9
331
554EA
331
554F2
331
554F3
331
554FB
331
554FC
331
55502
331
55503
331
5550C
331
5550D
331
55514
331
55515
331
5551F
331
55520
331
5552A
331
5552B
331
55533
331
55534
331
5553E
331
5553F
331
55546
331
55547
331
5554D
331
5554E
331
55555
331
55556
331
5555E
331
5555F
331
55567
331
55568
331
55570
331
55571
331
55579
331
5557A
331
55582
331
55583
331
5558B
331
5558C
331
55593
331
55594
331
5559C
331
5559D
331
555A5
331
555A6
331
556A0
331
556A1
331
556A9
331
556AA
331
556B2
331
556B3
331
556BB
331
556BC
331
556C4
331
556CC
331
556CD
331
556D5
331
556D6
331
556DD
331
556DE
331
556E7
331
556E8
331
556F0
331
556F1
331
556F9
331
556FA
331
55702
331
55703
331
5570B
331
5570C
331
55714
331
55715
331
5571C
331
5571D
331
55725
331
55726
331
5572E
331
5572F
331
55737
331
55738
331
56294
331
56295
331
5629F
331
562A0
331
562C3
331
562C4
331
56394
331
56395
331
563CD
331
563CE
331
563EB
331
563EC
331
56403
331
56404
331
5640C
331
5640D
331
56415
331
56416
331
5641E
331
5641F
331
56427
331
56428
331
56430
331
56431
331
5643A
331
5643B
331
56443
331
56444
331
5644C
331
5644D
331
56455
331
56456
331
5645E
331
5645F
331
56467
331
56468
331
56470
331
56471
331
56479
331
5647A
331
56482
331
56483
331
5648A
331
5648B
331
56491
331
56492
331
5649A
331
5649B
331
564A3
331
564A4
331
5DC4F
331
5DC50
331
5DC58
331
5DC59
331
5DC61
331
5DC62
331
5DC6A
331
5DC6B
331
5DC73
331
5DC74
331
5DC7C
331
5DC7D
331
5DC86
331
5DC87
331
5DC8F
331
5DC90
331
5DC99
331
5DC9A
331
5DCA2
331
5DCA3
331
5DCAB
331
5DCAC
331
5DCB4
331
5DCB5
331
5DCBD
331
5DCBE
331
5DCC8
331
5DCC9
331
5DCD1
331
5DCD2
331
5DCD9
331
5DCDA
331
5DCE2
331
5DCE3
331
5DCEB
331
5DCEC
331
5DCF7
331
5DCF8
331
5DD03
331
5DD04
331
5DD0F
331
5DD10
331
5DD1A
331
5DD1B
331
5DD24
331
5DD25
331
5DD2E
331
5DD2F
331
5DD37
331
5DD38
331
5DD40
331
5DD41
331
5DD49
331
5DD4A
331
5DD53
331
5DD54
331
5DD5E
331
5DD5F
331
5DD68
331
5DD69
331
5DD72
331
5DD73
331
5DD7D
331
5DD7E
331
5DD86
331
5DD87
331
5DD8F
331
5DD90
331
5DD99
331
5DD9A
331
5DDA4
331
5DDA5
331
5DDAD
331
5DDAE
331
5DDB6
331
5DDB7
331
5DDC1
331
5DDC2
331
5DDCA
331
5DDCB
331
5DDD3
331
5DDD4
331
5DDDC
331
5DDDD
331
5DDE5
331
5DDE6
331
5DDEE
331
5DDEF
331
5DE04
331
5DE05
331
5DE10
331
5DE11
331
5DE1C
331
5DE1D
331
5DE27
331
5DE28
331
5DE30
331
5DE31
331
5DE3B
331
5DE3C
331
5DE44
331
5DE45
331
5DE4D
331
5DE4E
331
5DE56
331
5DE57
331
5DE5F
331
5DE60
331
5DE68
331
5DE69
331
5DE71
331
5DE72
331
5DE7A
331
5DE7B
331
5DE83
331
5DE84
331
5DE8C
331
5DE8D
331
5DE95
331
5DE96
331
5DE9E
331
5DE9F
331
5DEA7
331
5DEA8
331
5DEB0
331
5DEB1
331
5DEB9
331
5DEBA
331
5DEC3
331
5DEC4
331
5DECE
331
5DECF
331
5DED8
331
5DED9
331
5DEE1
331
5DEE2
331
5DEEB
331
5DEEC
331
5DEF5
331
5DEF6
331
5DEFE
331
5DEFF
331
5DF06
331
5DF07
331
5DF15
331
5DF16
331
5DF1E
331
5DF1F
331
5DF27
331
5DF28
331
5DF30
331
5DF31
331
5DF39
331
5DF3A
331
5DF42
331
5DF43
331
5DF4B
331
5DF4C
331
5DF54
331
5DF55
331
5DF5D
331
5DF5E
331
5DF67
331
5DF68
331
5DF70
331
5DF71
331
5DF7A
331
5DF7B
331
5DF84
331
5DF85
331
5DF8D
331
5DF8E
331
5DF9C
331
5DF9D
331
5DFA5
331
5DFA6
331
5DFAE
331
5DFAF
331
5DFB7
331
5DFB8
331
5DFC0
331
5DFC1
331
5DFC9
331
5DFCA
331
5DFD2
331
5DFD3
331
5DFDB
331
5DFDC
331
5DFE4
331
5DFE5
331
5DFEE
331
5DFEF
331
5DFF7
331
5DFF8
331
5E000
331
5E001
331
5E009
331
5E00A
331
5E012
331
5E013
331
5E01C
331
5E01D
331
5E025
331
5E026
331
5E02E
331
5E02F
331
5E037
331
5E038
331
5E040
331
5E041
331
5E049
331
5E04A
331
5E054
331
5E055
331
5E05D
331
5E05E
331
5E066
331
5E067
331
5E071
331
5E072
331
5E07A
331
5E07B
331
5E083
331
5E084
331
5E08C
331
5E08D
331
5E097
331
5E098
331
5E0A2
331
5E0A3
331
5E0AB
331
5E0AC
331
5E0B4
331
5E0B5
331
5E0BE
331
5E0BF
331
5E0C7
331
5E0C8
331
5E0D1
331
5E0D2
331
5E0DA
331
5E0DB
331
5E0E4
331
5E0E5
331
5E0ED
331
5E0EE
331
5E0F6
331
5E0F7
331
5E0FF
331
5E100
331
5E11A
331
5E11B
331
5E123
331
5E124
331
5E12C
331
5E12D
331
5E135
331
5E136
331
5E156
331
5E157
331
5E15F
331
5E160
331
5E17C
331
5E17D
331
5E184
331
5E185
331
5E193
331
5E194
331
5E19C
331
5E19D
331
5E1A5
331
5E1A6
331
5E1AE
331
5E1AF
331
5E1B7
331
5E1B8
331
5E1C0
331
5E1C1
331
5E1C9
331
5E1CA
331
5E1D2
331
5E1D3
331
5E1DB
331
5E1DC
331
5E1E4
331
5E1E5
331
5E1ED
331
5E1EE
331
5E1F6
331
5E1F7
331
5E1FF
331
5E200
331
5E208
331
5E209
331
5E211
331
5E212
331
5E21A
331
5E21B
331
5E223
331
5E224
331
5E22C
331
5E22D
331
5E236
331
5E237
331
5E23F
331
5E240
331
5E249
331
5E24A
331
5E252
331
5E253
331
5E25C
331
5E25D
331
5E265
331
5E266
331
5E26F
331
5E279
331
5E27A
331
5E284
331
5E28C
331
5E28D
331
5E29C
331
5E2A5
331
5E2A6
331
5E2AE
331
5E2AF
331
5E2B7
331
5E2B8
331
5E2C2
331
5E2C3
331
5E2CA
331
5E2CB
331
5E2D4
331
5E2DD
331
5E2DE
331
5E2E6
331
5E2E7
331
5E2F5
331
5E2F6
331
5E2FD
331
5E2FE
331
5E309
331
5E311
331
5E312
331
5E31A
331
5E31B
331
5E324
331
5E325
331
5E32D
331
5E32E
331
5E336
331
5E337
331
5E33F
331
5E340
331
5E34A
331
5E34B
331
5E353
331
5E354
331
5E35C
331
5E35D
331
5E365
331
5E366
331
5E36E
331
5E36F
331
5E377
331
5E378
331
5E380
331
5E381
331
5E389
331
5E38A
331
5E392
331
5E393
331
5E39B
331
5E39C
331
5E3A4
331
5E3A5
331
5E3AD
331
5E3AE
331
5E3B6
331
5E3B7
331
5E3BF
331
5E3C0
331
5E3C8
331
5E3C9
331
5E3D1
331
5E3D2
331
5E3DA
331
5E3DB
331
5E3E3
331
5E3E4
331
5E3EC
331
5E3ED
331
5E3F5
331
5E3F6
331
5E3FD
331
5E406
331
5E407
331
5E410
331
5E411
331
5E419
331
5E41A
331
5E422
331
5E423
331
5E42C
331
5E42D
331
5E435
331
5E436
331
5E43F
331
5E440
331
5E449
331
5E44A
331
5E45C
331
5E45D
331
60729
331
6072A
331
60732
331
60733
331
6073B
331
6073C
331
60745
331
60746
331
6074D
331
6074E
331
60756
331
60757
331
6075F
331
60760
331
60767
331
60768
331
60770
331
60771
331
60779
331
6077A
331
60782
331
60783
331
6078B
331
6078C
331
60795
331
60796
331
6079E
331
6079F
331
607A7
331
607A8
331
607B0
331
607B1
331
607B8
331
607B9
331
607C0
331
607C1
331
607C9
331
607CA
331
607D2
331
607D3
331
607DB
331
607DC
331
607E5
331
607E6
331
607EE
331
607EF
331
607F7
331
607F8
331
60800
331
60801
331
60808
331
60809
331
60810
331
60811
331
611E0
331
611E1
331
611F6
331
611F7
331
6127B
331
6127C
331
6136C
331
6136D
331
61373
331
61374
331
6137A
331
6137B
331
6140F
331
61410
331
6142E
331
6142F
331
61439
331
6143A
331
6144F
331
61450
331
6145A
331
6145B
331
62980
331
62981
331
62989
331
6298A
331
62991
331
62992
331
6299A
331
6299B
331
629A3
331
629A4
331
629AD
331
629AE
331
62D2F
331
62D30
331
62D38
331
62D39
331
62D40
331
62D41
331
62D5D
331
62D5E
331
62D66
331
62D67
331
62D6E
331
62D6F
331
62D8B
331
62D8C
331
62D94
331
62D95
331
62D9C
331
62D9D
331
63500
331
63501
331
63509
331
6350A
331
63511
331
63512
331
6351A
331
6351B
331
63523
331
63524
331
6352D
331
6352E
331
637A8
331
637A9
331
637BD
331
637BE
331
637D2
331
637D3
331
637EA
331
637EB
331
637FC
331
637FD
331
63824
331
63825
331
63AB4
331
63AB5
331
63ABF
331
63AC0
331
63D0B
331
63D0C
331
63D14
331
63D15
331
63D99
331
63D9A
331
63DA3
331
63DA4
331
63DAC
331
63DAD
331
63DB6
331
63DB7
331
63DE4
331
63DE5
331
63DEE
331
63DEF
331
63E02
331
63E03
331
63E0B
331
63E0C
331
63E14
331
63E15
331
63E1D
331
63E1E
331
63F0B
331
63F0C
331
63F15
331
63F16
331
63F1E
331
63F1F
331
63F28
331
63F29
331
63F4E
331
63F4F
331
63F57
331
63F58
331
63F60
331
63F61
331
63F69
331
63F6A
331
63F72
331
63F73
331
63F85
331
63F86
331
63FA2
331
63FA3
331
63FBE
331
63FBF
331
63FFF
331
64000
331
64008
331
64009
331
6406C
331
6406D
331
64087
331
64088
331
64090
331
64091
331
64099
331
6409A
331
640B4
331
640B5
331
640BD
331
640BE
331
640C8
331
640C9
331
640E3
331
640E4
331
640EC
331
640ED
331
64107
331
64108
331
64110
331
64111
331
64122
331
64123
331
6412B
331
6412C
331
6413D
331
6413E
331
64148
331
64149
331
64163
331
64164
331
6416C
331
6416D
331
6417E
331
6417F
331
64187
331
64188
331
64199
331
6419A
331
641A2
331
641A3
331
641AB
331
641AC
331
641B4
331
641B5
331
641C6
331
641C7
331
641E1
331
641E2
331
641EA
331
641EB
331
641F5
331
641F6
331
64236
331
64237
331
6423F
331
64240
331
6424A
331
6424B
331
64253
331
64254
331
6425C
331
6425D
331
642C0
331
642C1
331
642DB
331
642DC
331
64358
331
64359
331
64361
331
64362
331
6436C
331
6436D
331
64387
331
64388
331
64390
331
64391
331
6439B
331
6439C
331
643A4
331
643A5
331
643AD
331
643AE
331
643B9
331
643BA
331
643C2
331
643C3
331
64483
331
64484
331
6448C
331
6448D
331
64495
331
64496
331
6449E
331
6449F
331
644A7
331
644A8
331
644B0
331
644B1
331
644B9
331
644BA
331
644C2
331
644C3
331
644CB
331
644CC
331
644D4
331
644D5
331
644DD
331
644DE
331
644E6
331
644E7
331
644F0
331
644F1
331
644FA
331
644FB
331
64503
331
64504
331
64515
331
64516
331
65F8B
331
65F8C
331
65F95
331
65F96
331
65F9F
331
65FA0
331
65FA8
331
65FA9
331
65FB1
331
65FB2
331
65FBC
331
65FBD
331
65FC7
331
65FC8
331
65FD0
331
65FD1
331
65FDA
331
65FDB
331
65FE3
331
65FE4
331
65FEC
331
65FED
331
65FF6
331
65FF7
331
66000
331
66001
331
66009
331
6600A
331
66011
331
66012
331
6601B
331
6601C
331
66024
331
66025
331
6602D
331
6602E
331
66036
331
66037
331
6603F
331
66040
331
66B6D
331
66B6E
331
66B76
331
66B77
331
66B91
331
66B92
331
66B9A
331
66B9B
331
66BAE
331
66BAF
331
66BB6
331
66BB7
331
66BBF
331
66BC0
331
66BC8
331
66BC9
331
66BD1
331
66BD2
331
66BDA
331
66BDB
331
66BE5
331
66BE6
331
66BF0
331
66BF1
331
66BF8
331
66BF9
331
66C01
331
66C02
331
66C0A
331
66C0B
331
66C13
331
66C14
331
66DAD
331
66DAE
331
6709F
331
670A0
331
67168
331
67169
331
67596
331
67597
331
6759F
331
675A0
331
675A8
331
675A9
331
675B1
331
675B2
331
67A87
331
67A88
331
67A8F
331
67A90
331
67A97
331
67A98
331
67AA0
331
67AA1
331
67AA9
331
67AAA
331
67AB2
331
67AB3
331
67ABB
331
67ABC
331
67AC4
331
67AC5
331
67ACD
331
67ACE
331
67AD6
331
67AD7
331
67AE1
331
67AE2
331
67AEA
331
67AEB
331
67AF4
331
67AF5
331
67AFC
331
67AFD
331
67B05
331
67B06
331
67B0E
331
67B0F
331
67B17
331
67B18
331
67B20
331
67B21
331
67B29
331
67B2A
331
67B32
331
67B33
331
67B3B
331
67B3C
331
680D3
331
680D4
331
680E5
331
680E6
331
680EE
331
680EF
331
680F7
331
680F8
331
68100
331
68101
331
68109
331
6810A
331
68112
331
68113
331
6811B
331
6811C
331
68124
331
68125
331
6812D
331
6812E
331
68136
331
68137
331
6813F
331
68140
331
68148
331
68149
331
68151
331
68152
331
6815A
331
6815B
331
68163
331
68164
331
6816C
331
6816D
331
68177
331
68178
331
68216
331
68217
331
68221
331
68222
331
6822A
331
6822B
331
68233
331
68234
331
6823D
331
6823E
331
68246
331
68247
331
6824F
331
68250
331
68258
331
68259
331
68261
331
68262
331
6826A
331
6826B
331
6827D
331
6827E
331
68286
331
68287
331
68291
331
68292
331
682F7
331
682F8
331
68301
331
68302
331
6830A
331
6830B
331
68313
331
68314
331
6831C
331
6831D
331
68325
331
68326
331
6832E
331
6832F
331
68339
331
6833A
331
6838B
331
6838C
331
68394
331
68395
331
6839D
331
6839E
331
683A6
331
683A7
331
683B0
331
683B1
331
683B9
331
683BA
331
683C2
331
683C3
331
683CB
331
683CC
331
68B92
331
68B93
331
68B9B
331
68B9C
331
68BA2
331
68BA3
331
68BAB
331
68BAC
331
68BB4
331
68BB5
331
68BBD
331
68BBE
331
68BC7
331
68BC8
331
68BD1
331
68BD2
331
68BDC
331
68BDD
331
68BE7
331
68BE8
331
68BF4
331
68BF5
331
68BFC
331
68BFD
331
68C05
331
68C06
331
68C0F
331
68C10
331
68C16
331
68C17
331
68C1D
331
68C1E
331
68C28
331
68C29
331
68C33
331
68C34
331
68C65
331
68C66
331
68CA0
331
68CA1
331
68CB6
331
68CB7
331
68CE3
331
68CE4
331
68CF7
331
68CF8
331
68D09
331
68D0A
331
68D12
331
68D13
331
68D24
331
68D25
331
68D62
331
68D63
331
68D74
331
68D75
331
68DA5
331
68DA6
331
68DAE
331
68DAF
331
68DDB
331
68DDC
331
68E5D
331
68E5E
331
68E67
331
68E68
331
68EBD
331
68EBE
331
68ED1
331
68ED2
331
68F8B
331
68F8C
331
68F94
331
68F95
331
68F9D
331
68F9E
331
68FA8
331
68FA9
331
68FB0
331
68FB1
102
}
  0
BLOCK_RECORD
  5
A66
330
1
100
AcDbSymbolTableRecord
100
AcDbBlockTableRecord
  2
_OPEN30
340
0
102
{BLKREFS
331
BD34
331
BD60
331
BE0F
331
C27C
331
C404
331
1A360
331
1A361
331
1A646
331
1A647
331
1A822
331
1A823
331
2209A
331
220E0
331
37DAC
331
37DEA
331
37FD8
331
37FD9
331
418E6
331
4CCA4
331
4CCB3
331
4DC7D
331
4FC80
331
4FE03
331
50ED5
331
5104C
331
556C3
331
5DF0F
331
5DF96
331
5E108
331
5E10E
331
5E114
331
5E13E
331
5E144
331
5E14A
331
5E150
331
5E168
331
5E16E
331
5E174
331
5E18D
331
5E3FE
331
63F7D
331
63F7E
331
64267
331
64268
102
}
  0
BLOCK_RECORD
  5
DE1A
330
1
100
AcDbSymbolTableRecord
100
AcDbBlockTableRecord
  2
*U123
340
0
102
{BLKREFS
331
115DC
102
}
  0
BLOCK_RECORD
  5
11A74
330
1
100
AcDbSymbolTableRecord
100
AcDbBlockTableRecord
  2
*D197
340
0
  0
BLOCK_RECORD
  5
11A8A
330
1
100
AcDbSymbolTableRecord
100
AcDbBlockTableRecord
  2
*D198
340
0
  0
BLOCK_RECORD
  5
11D28
330
1
100
AcDbSymbolTableRecord
100
AcDbBlockTableRecord
  2
*D199
340
0
  0
BLOCK_RECORD
  5
11D34
330
1
100
AcDbSymbolTableRecord
100
AcDbBlockTableRecord
  2
*D200
340
0
  0
BLOCK_RECORD
  5
11ECF
330
1
100
AcDbSymbolTableRecord
100
AcDbBlockTableRecord
  2
*D201
340
0
  0
BLOCK_RECORD
  5
121F2
330
1
100
AcDbSymbolTableRecord
100
AcDbBlockTableRecord
  2
*D202
340
0
  0
BLOCK_RECORD
  5
1220B
330
1
100
AcDbSymbolTableRecord
100
AcDbBlockTableRecord
  2
*D203
340
0
  0
BLOCK_RECORD
  5
12217
330
1
100
AcDbSymbolTableRecord
100
AcDbBlockTableRecord
  2
*D204
340
0
  0
BLOCK_RECORD
  5
3E1AB
330
1
100
AcDbSymbolTableRecord
100
AcDbBlockTableRecord
  2
*D906
340
0
  0
ENDTAB
  0
ENDSEC
  0
SECTION
  2
BLOCKS
  0
BLOCK
  5
20
330
1F
100
AcDbEntity
  8
0
100
AcDbBlockBegin
  2
*Model_Space
 70
     0
 10
0.0
 20
0.0
 30
0.0
  3
*Model_Space
  1

  0
ENDBLK
  5
21
330
1F
100
AcDbEntity
  8
0
100
AcDbBlockEnd
  0
BLOCK
  5
1C
330
1B
100
AcDbEntity
 67
     1
  8
0
100
AcDbBlockBegin
  2
*Paper_Space
 70
     0
 10
0.0
 20
0.0
 30
0.0
  3
*Paper_Space
  1

  0
ENDBLK
  5
1D
330
1B
100
AcDbEntity
 67
     1
  8
0
100
AcDbBlockEnd
  0
BLOCK
  5
24
330
23
100
AcDbEntity
 67
     1
  8
0
100
AcDbBlockBegin
  2
*Paper_Space0
 70
     0
 10
0.0
 20
0.0
 30
0.0
  3
*Paper_Space0
  1

  0
ENDBLK
  5
25
330
23
100
AcDbEntity
 67
     1
  8
0
100
AcDbBlockEnd
  0
BLOCK
  5
74
330
72
100
AcDbEntity
  8
0
100
AcDbBlockBegin
  2
GENAXEH
 70
     0
 10
0.0
 20
0.0
 30
0.0
  3
GENAXEH
  1

  0
LINE
  5
73
330
72
100
AcDbEntity
  8
0
100
AcDbLine
 10
-1.0
 20
0.0
 30
0.0
 11
1.0
 21
0.0
 31
0.0
  0
ENDBLK
  5
75
330
72
100
AcDbEntity
  8
0
100
AcDbBlockEnd
  0
BLOCK
  5
6C7
330
6C4
100
AcDbEntity
  8
0
100
AcDbBlockBegin
  2
_Dot
 70
     0
 10
0.0
 20
0.0
 30
0.0
  3
_Dot
  1

  0
LWPOLYLINE
  5
6C5
330
6C4
100
AcDbEntity
  8
0
  6
ByBlock
 62
     0
100
AcDbPolyline
 90
        2
 70
     1
 43
0.5
 10
-0.25
 20
0.0
 42
1.0
 10
0.25
 20
0.0
 42
1.0
  0
LINE
  5
6C6
330
6C4
100
AcDbEntity
  8
0
  6
ByBlock
 62
     0
370
    -2
100
AcDbLine
 10
-0.5
 20
0.0
 30
0.0
 11
-1.0
 21
0.0
 31
0.0
  0
ENDBLK
  5
6C8
330
6C4
100
AcDbEntity
  8
0
100
AcDbBlockEnd
  0
BLOCK
  5
A6A
330
A66
100
AcDbEntity
  8
0
100
AcDbBlockBegin
  2
_OPEN30
 70
     0
 10
0.0
 20
0.0
 30
0.0
  3
_OPEN30
  1

  0
LINE
  5
A67
330
A66
100
AcDbEntity
  8
0
  6
ByBlock
 62
     0
100
AcDbLine
 10
-1.0
 20
0.26794919
 30
0.0
 11
0.0
 21
0.0
 31
0.0
  0
LINE
  5
A68
330
A66
100
AcDbEntity
  8
0
  6
ByBlock
 62
     0
100
AcDbLine
 10
0.0
 20
0.0
 30
0.0
 11
-1.0
 21
-0.26794919
 31
0.0
  0
LINE
  5
A69
330
A66
100
AcDbEntity
  8
0
  6
ByBlock
 62
     0
100
AcDbLine
 10
0.0
 20
0.0
 30
0.0
 11
-1.0
 21
0.0
 31
0.0
  0
ENDBLK
  5
A6B
330
A66
100
AcDbEntity
  8
0
100
AcDbBlockEnd
  0
BLOCK
  5
DE1B
330
DE1A
100
AcDbEntity
  8
0
100
AcDbBlockBegin
  2
*U123
 70
     1
 10
0.0
 20
0.0
 30
0.0
  3
*U123
  1

  0
TEXT
  5
DE1C
330
DE1A
100
AcDbEntity
  8
AM_6
100
AcDbText
 10
223.27747394688
 20
28.9287116052202
 30
0.0
 40
3.2
  1
※本切欠寸法は、取付ビス手締めでの設定です。
 41
0.7
100
AcDbText
  0
TEXT
  5
DE1D
330
DE1A
100
AcDbEntity
  8
AM_6
100
AcDbText
 10
223.27747394688
 20
23.59537827188686
 30
0.0
 40
3.2
  1
　電動ドライバーをご使用の場合は、切欠寸法
 41
0.7
100
AcDbText
  0
TEXT
  5
DE1E
330
DE1A
100
AcDbEntity
  8
AM_6
100
AcDbText
 10
223.27747394688
 20
18.26204493855352
 30
0.0
 40
3.2
  1
　φ5.7にて設定下さい。
 41
0.7
100
AcDbText
  0
ENDBLK
  5
DE1F
330
DE1A
100
AcDbEntity
  8
0
100
AcDbBlockEnd
  0
BLOCK
  5
11A7E
330
11A74
100
AcDbEntity
  8
0
100
AcDbBlockBegin
  2
*D197
 70
     1
 10
0.0
 20
0.0
 30
0.0
  3
*D197
  1

  0
LINE
  5
12177
330
11A74
100
AcDbEntity
  8
AM_5
100
AcDbLine
 10
5229.747762651897
 20
1472.542237949117
 30
0.0
 11
5229.747762651897
 21
1478.542239379629
 31
0.0
  0
LINE
  5
12178
330
11A74
100
AcDbEntity
  8
AM_5
100
AcDbLine
 10
5228.747762651898
 20
1477.542239379629
 30
0.0
 11
5211.247762651897
 21
1477.542239379629
 31
0.0
  0
INSERT
  5
12179
330
11A74
100
AcDbEntity
  8
AM_5
100
AcDbBlockReference
  2
_Dot
 10
5229.747762651897
 20
1477.542239379629
 30
0.0
  0
INSERT
  5
1217A
330
11A74
100
AcDbEntity
  8
AM_5
100
AcDbBlockReference
  2
_Dot
 10
5210.247762651897
 20
1477.542239379629
 30
0.0
 50
180.0
  0
MTEXT
  5
1217B
330
11A74
100
AcDbEntity
  8
AM_5
 62
     2
100
AcDbMText
 10
5219.997762651898
 20
1480.142239379629
 30
0.0
 40
3.200000000000001
 41
0.0
 71
     5
 72
     1
  1
19.5
 73
     1
 44
1.0
1001
ACAD
1000
MTEXTBEGIN
1070
    73
1070
     1
1070
    44
1040
1.0
1070
    74
1070
     0
1000
MTEXTEND
  0
POINT
  5
1217C
330
11A74
100
AcDbEntity
  8
Defpoints
 62
     0
100
AcDbPoint
 10
5229.747762651897
 20
1471.542237949117
 30
0.0
  0
POINT
  5
1217D
330
11A74
100
AcDbEntity
  8
Defpoints
 62
     0
100
AcDbPoint
 10
5210.247762651897
 20
1477.542239379629
 30
0.0
  0
POINT
  5
1217E
330
11A74
100
AcDbEntity
  8
Defpoints
 62
     0
100
AcDbPoint
 10
5210.247762651897
 20
1477.542239379629
 30
0.0
  0
ENDBLK
  5
11A7F
330
11A74
100
AcDbEntity
  8
0
100
AcDbBlockEnd
  0
BLOCK
  5
11A91
330
11A8A
100
AcDbEntity
  8
0
100
AcDbBlockBegin
  2
*D198
 70
     1
 10
0.0
 20
0.0
 30
0.0
  3
*D198
  1

  0
LINE
  5
1217F
330
11A8A
100
AcDbEntity
  8
AM_5
100
AcDbLine
 10
5263.495719672771
 20
1473.465266435954
 30
0.0
 11
5238.666386339438
 21
1473.465266435954
 31
0.0
  0
LINE
  5
12180
330
11A8A
100
AcDbEntity
  8
AM_5
100
AcDbLine
 10
5238.666386339438
 20
1473.465266435954
 30
0.0
 11
5232.845271438719
 21
1469.01192982939
 31
0.0
  0
LINE
  5
12181
330
11A8A
100
AcDbEntity
  8
AM_5
100
AcDbLine
 10
5226.650253865069
 20
1464.272545878108
 30
0.0
 11
5225.856020862228
 21
1463.664932565879
 31
0.0
  0
MTEXT
  5
12182
330
11A8A
100
AcDbEntity
  8
AM_5
 62
     2
100
AcDbMText
 10
5251.581053006106
 20
1476.065266435953
 30
0.0
 40
3.2
 41
0.0
 71
     5
 72
     1
  1
下孔:\U+22055.8 深さ11
 73
     1
 44
1.0
1001
ACAD
1000
MTEXTBEGIN
1070
    73
1070
     1
1070
    44
1040
1.0
1070
    74
1070
     0
1000
MTEXTEND
  0
LINE
  5
12183
330
11A8A
100
AcDbEntity
  8
AM_5
100
AcDbLine
 10
5227.444486867911
 20
1464.880159190338
 30
0.0
 11
5232.051038435877
 21
1468.404316517161
 31
0.0
  0
INSERT
  5
12184
330
11A8A
100
AcDbEntity
  8
AM_5
100
AcDbBlockReference
  2
_Dot
 10
5227.444486867911
 20
1464.880159190338
 30
0.0
 50
37.41712925136725
  0
INSERT
  5
12185
330
11A8A
100
AcDbEntity
  8
AM_5
100
AcDbBlockReference
  2
_Dot
 10
5232.051038435877
 20
1468.404316517161
 30
0.0
 50
217.4171292513673
  0
POINT
  5
12186
330
11A8A
100
AcDbEntity
  8
Defpoints
 62
     0
100
AcDbPoint
 10
5232.051038435877
 20
1468.404316517161
 30
0.0
  0
POINT
  5
12187
330
11A8A
100
AcDbEntity
  8
Defpoints
 62
     0
100
AcDbPoint
 10
5227.444486867911
 20
1464.880159190338
 30
0.0
  0
ENDBLK
  5
11A92
330
11A8A
100
AcDbEntity
  8
0
100
AcDbBlockEnd
  0
BLOCK
  5
11D32
330
11D28
100
AcDbEntity
  8
0
100
AcDbBlockBegin
  2
*D199
 70
     1
 10
0.0
 20
0.0
 30
0.0
  3
*D199
  1

  0
LINE
  5
1228B
330
11D28
100
AcDbEntity
  8
AM_5
100
AcDbLine
 10
4948.998419946484
 20
1400.244268499334
 30
0.0
 11
4948.998419946484
 21
1416.244268499334
 31
0.0
  0
LINE
  5
1228C
330
11D28
100
AcDbEntity
  8
AM_5
100
AcDbLine
 10
4983.498419946483
 20
1385.244268499334
 30
0.0
 11
4983.498419946483
 21
1416.244268499334
 31
0.0
  0
LINE
  5
1228D
330
11D28
100
AcDbEntity
  8
AM_5
100
AcDbLine
 10
4949.998419946483
 20
1415.244268499334
 30
0.0
 11
4982.498419946484
 21
1415.244268499334
 31
0.0
  0
INSERT
  5
1228E
330
11D28
100
AcDbEntity
  8
AM_5
100
AcDbBlockReference
  2
_Dot
 10
4948.998419946484
 20
1415.244268499334
 30
0.0
 50
180.0
  0
INSERT
  5
1228F
330
11D28
100
AcDbEntity
  8
AM_5
100
AcDbBlockReference
  2
_Dot
 10
4983.498419946483
 20
1415.244268499334
 30
0.0
  0
MTEXT
  5
12290
330
11D28
100
AcDbEntity
  8
AM_5
 62
     2
100
AcDbMText
 10
4966.248419946484
 20
1417.844268499334
 30
0.0
 40
3.200000000000001
 41
0.0
 71
     5
 72
     1
  1
34.5
 73
     1
 44
1.0
1001
ACAD
1000
MTEXTBEGIN
1070
    73
1070
     1
1070
    44
1040
1.0
1070
    74
1070
     0
1000
MTEXTEND
  0
POINT
  5
12291
330
11D28
100
AcDbEntity
  8
Defpoints
 62
     0
100
AcDbPoint
 10
4948.998419946484
 20
1399.244268499334
 30
0.0
  0
POINT
  5
12292
330
11D28
100
AcDbEntity
  8
Defpoints
 62
     0
100
AcDbPoint
 10
4983.498419946483
 20
1384.244268499334
 30
0.0
  0
POINT
  5
12293
330
11D28
100
AcDbEntity
  8
Defpoints
 62
     0
100
AcDbPoint
 10
4983.498419946483
 20
1415.244268499334
 30
0.0
  0
ENDBLK
  5
11D33
330
11D28
100
AcDbEntity
  8
0
100
AcDbBlockEnd
  0
BLOCK
  5
11D3E
330
11D34
100
AcDbEntity
  8
0
100
AcDbBlockBegin
  2
*D200
 70
     1
 10
0.0
 20
0.0
 30
0.0
  3
*D200
  1

  0
LINE
  5
12294
330
11D34
100
AcDbEntity
  8
AM_5
100
AcDbLine
 10
4969.498419946483
 20
1369.244253240544
 30
0.0
 11
4994.498419946483
 21
1369.244253240544
 31
0.0
  0
LINE
  5
12295
330
11D34
100
AcDbEntity
  8
AM_5
100
AcDbLine
 10
4969.498419946483
 20
1399.244268499334
 30
0.0
 11
4994.498419946483
 21
1399.244268499334
 31
0.0
  0
LINE
  5
12296
330
11D34
100
AcDbEntity
  8
AM_5
100
AcDbLine
 10
4993.498419946483
 20
1370.244253240544
 30
0.0
 11
4993.498419946483
 21
1398.244268499334
 31
0.0
  0
INSERT
  5
12297
330
11D34
100
AcDbEntity
  8
AM_5
100
AcDbBlockReference
  2
_Dot
 10
4993.498419946483
 20
1369.244253240544
 30
0.0
 50
270.0
  0
INSERT
  5
12298
330
11D34
100
AcDbEntity
  8
AM_5
100
AcDbBlockReference
  2
_Dot
 10
4993.498419946483
 20
1399.244268499334
 30
0.0
 50
90.0
  0
MTEXT
  5
12299
330
11D34
100
AcDbEntity
  8
AM_5
 62
     2
100
AcDbMText
 10
4990.898419946483
 20
1384.24426086994
 30
0.0
 40
3.200000000000001
 41
0.0
 71
     5
 72
     1
  1
30
 11
0.0000000000000001
 21
1.0
 31
0.0
 73
     1
 44
1.0
1001
ACAD
1000
MTEXTBEGIN
1070
    73
1070
     1
1070
    44
1040
1.0
1070
    74
1070
     0
1000
MTEXTEND
  0
POINT
  5
1229A
330
11D34
100
AcDbEntity
  8
Defpoints
 62
     0
100
AcDbPoint
 10
4968.498419946484
 20
1369.244253240544
 30
0.0
  0
POINT
  5
1229B
330
11D34
100
AcDbEntity
  8
Defpoints
 62
     0
100
AcDbPoint
 10
4968.498419946484
 20
1399.244268499334
 30
0.0
  0
POINT
  5
1229C
330
11D34
100
AcDbEntity
  8
Defpoints
 62
     0
100
AcDbPoint
 10
4993.498419946483
 20
1399.244268499334
 30
0.0
  0
ENDBLK
  5
11D3F
330
11D34
100
AcDbEntity
  8
0
100
AcDbBlockEnd
  0
BLOCK
  5
11ED9
330
11ECF
100
AcDbEntity
  8
0
100
AcDbBlockBegin
  2
*D201
 70
     1
 10
0.0
 20
0.0
 30
0.0
  3
*D201
  1

  0
LINE
  5
3E1E0
330
11ECF
100
AcDbEntity
  8
AM_5
100
AcDbLine
 10
4968.498419946484
 20
1394.494268499334
 30
0.0
 11
4968.498419946484
 21
1408.244268499334
 31
0.0
  0
LINE
  5
3E1E1
330
11ECF
100
AcDbEntity
  8
AM_5
100
AcDbLine
 10
4948.998419946484
 20
1400.244268499334
 30
0.0
 11
4948.998419946484
 21
1408.244268499334
 31
0.0
  0
LINE
  5
3E1E2
330
11ECF
100
AcDbEntity
  8
AM_5
100
AcDbLine
 10
4967.498419946483
 20
1407.244268499334
 30
0.0
 11
4949.998419946483
 21
1407.244268499334
 31
0.0
  0
INSERT
  5
3E1E3
330
11ECF
100
AcDbEntity
  8
AM_5
100
AcDbBlockReference
  2
_Dot
 10
4968.498419946484
 20
1407.244268499334
 30
0.0
  0
INSERT
  5
3E1E4
330
11ECF
100
AcDbEntity
  8
AM_5
100
AcDbBlockReference
  2
_Dot
 10
4948.998419946484
 20
1407.244268499334
 30
0.0
 50
180.0
  0
MTEXT
  5
3E1E5
330
11ECF
100
AcDbEntity
  8
AM_5
 62
     2
100
AcDbMText
 10
4958.026985405776
 20
1409.844268499334
 30
0.0
 40
3.200000000000001
 41
0.0
 71
     5
 72
     1
  1
19.5
 73
     1
 44
1.0
1001
ACAD
1000
MTEXTBEGIN
1070
    73
1070
     1
1070
    44
1040
1.0
1070
    74
1070
     0
1000
MTEXTEND
  0
POINT
  5
3E1E6
330
11ECF
100
AcDbEntity
  8
Defpoints
 62
     0
100
AcDbPoint
 10
4968.498419946484
 20
1393.494268499334
 30
0.0
  0
POINT
  5
3E1E7
330
11ECF
100
AcDbEntity
  8
Defpoints
 62
     0
100
AcDbPoint
 10
4948.998419946484
 20
1399.244268499334
 30
0.0
  0
POINT
  5
3E1E8
330
11ECF
100
AcDbEntity
  8
Defpoints
 62
     0
100
AcDbPoint
 10
4948.998419946484
 20
1407.244268499334
 30
0.0
  0
ENDBLK
  5
11EDA
330
11ECF
100
AcDbEntity
  8
0
100
AcDbBlockEnd
  0
BLOCK
  5
121FD
330
121F2
100
AcDbEntity
  8
0
100
AcDbBlockBegin
  2
*D202
 70
     1
 10
0.0
 20
0.0
 30
0.0
  3
*D202
  1

  0
LINE
  5
3E1F3
330
121F2
100
AcDbEntity
  8
AM_5
100
AcDbLine
 10
5051.909899530427
 20
1394.494268499334
 30
0.0
 11
5051.909899530427
 21
1408.244268499334
 31
0.0
  0
LINE
  5
3E1F4
330
121F2
100
AcDbEntity
  8
AM_5
100
AcDbLine
 10
5071.409899530427
 20
1400.244268499334
 30
0.0
 11
5071.409899530427
 21
1408.244268499334
 31
0.0
  0
LINE
  5
3E1F5
330
121F2
100
AcDbEntity
  8
AM_5
100
AcDbLine
 10
5052.909899530426
 20
1407.244268499334
 30
0.0
 11
5070.409899530426
 21
1407.244268499334
 31
0.0
  0
INSERT
  5
3E1F6
330
121F2
100
AcDbEntity
  8
AM_5
100
AcDbBlockReference
  2
_Dot
 10
5051.909899530427
 20
1407.244268499334
 30
0.0
 50
180.0
  0
INSERT
  5
3E1F7
330
121F2
100
AcDbEntity
  8
AM_5
100
AcDbBlockReference
  2
_Dot
 10
5071.409899530427
 20
1407.244268499334
 30
0.0
  0
MTEXT
  5
3E1F8
330
121F2
100
AcDbEntity
  8
AM_5
 62
     2
100
AcDbMText
 10
5061.690506023391
 20
1409.844268499334
 30
0.0
 40
3.200000000000001
 41
0.0
 71
     5
 72
     1
  1
19.5
 73
     1
 44
1.0
1001
ACAD
1000
MTEXTBEGIN
1070
    73
1070
     1
1070
    44
1040
1.0
1070
    74
1070
     0
1000
MTEXTEND
  0
POINT
  5
3E1F9
330
121F2
100
AcDbEntity
  8
Defpoints
 62
     0
100
AcDbPoint
 10
5051.909899530427
 20
1393.494268499334
 30
0.0
  0
POINT
  5
3E1FA
330
121F2
100
AcDbEntity
  8
Defpoints
 62
     0
100
AcDbPoint
 10
5071.409899530427
 20
1399.244268499334
 30
0.0
  0
POINT
  5
3E1FB
330
121F2
100
AcDbEntity
  8
Defpoints
 62
     0
100
AcDbPoint
 10
5071.409899530427
 20
1407.244268499334
 30
0.0
  0
ENDBLK
  5
121FE
330
121F2
100
AcDbEntity
  8
0
100
AcDbBlockEnd
  0
BLOCK
  5
12215
330
1220B
100
AcDbEntity
  8
0
100
AcDbBlockBegin
  2
*D203
 70
     1
 10
0.0
 20
0.0
 30
0.0
  3
*D203
  1

  0
LINE
  5
122B9
330
1220B
100
AcDbEntity
  8
AM_5
100
AcDbLine
 10
5071.409899530427
 20
1400.244268499334
 30
0.0
 11
5071.409899530427
 21
1416.244268499334
 31
0.0
  0
LINE
  5
122BA
330
1220B
100
AcDbEntity
  8
AM_5
100
AcDbLine
 10
5036.909899530427
 20
1385.244268499334
 30
0.0
 11
5036.909899530427
 21
1416.244268499334
 31
0.0
  0
LINE
  5
122BB
330
1220B
100
AcDbEntity
  8
AM_5
100
AcDbLine
 10
5070.409899530426
 20
1415.244268499334
 30
0.0
 11
5037.909899530427
 21
1415.244268499334
 31
0.0
  0
INSERT
  5
122BC
330
1220B
100
AcDbEntity
  8
AM_5
100
AcDbBlockReference
  2
_Dot
 10
5071.409899530427
 20
1415.244268499334
 30
0.0
  0
INSERT
  5
122BD
330
1220B
100
AcDbEntity
  8
AM_5
100
AcDbBlockReference
  2
_Dot
 10
5036.909899530427
 20
1415.244268499334
 30
0.0
 50
180.0
  0
MTEXT
  5
122BE
330
1220B
100
AcDbEntity
  8
AM_5
 62
     2
100
AcDbMText
 10
5054.159899530427
 20
1417.844268499334
 30
0.0
 40
3.200000000000001
 41
0.0
 71
     5
 72
     1
  1
34.5
 73
     1
 44
1.0
1001
ACAD
1000
MTEXTBEGIN
1070
    73
1070
     1
1070
    44
1040
1.0
1070
    74
1070
     0
1000
MTEXTEND
  0
POINT
  5
122BF
330
1220B
100
AcDbEntity
  8
Defpoints
 62
     0
100
AcDbPoint
 10
5071.409899530427
 20
1399.244268499334
 30
0.0
  0
POINT
  5
122C0
330
1220B
100
AcDbEntity
  8
Defpoints
 62
     0
100
AcDbPoint
 10
5036.909899530427
 20
1384.244268499334
 30
0.0
  0
POINT
  5
122C1
330
1220B
100
AcDbEntity
  8
Defpoints
 62
     0
100
AcDbPoint
 10
5036.909899530427
 20
1415.244268499334
 30
0.0
  0
ENDBLK
  5
12216
330
1220B
100
AcDbEntity
  8
0
100
AcDbBlockEnd
  0
BLOCK
  5
12221
330
12217
100
AcDbEntity
  8
0
100
AcDbBlockBegin
  2
*D204
 70
     1
 10
0.0
 20
0.0
 30
0.0
  3
*D204
  1

  0
LINE
  5
122C2
330
12217
100
AcDbEntity
  8
AM_5
100
AcDbLine
 10
5050.909899530427
 20
1369.244253240544
 30
0.0
 11
5025.909899530427
 21
1369.244253240544
 31
0.0
  0
LINE
  5
122C3
330
12217
100
AcDbEntity
  8
AM_5
100
AcDbLine
 10
5050.909899530427
 20
1399.244268499334
 30
0.0
 11
5025.909899530427
 21
1399.244268499334
 31
0.0
  0
LINE
  5
122C4
330
12217
100
AcDbEntity
  8
AM_5
100
AcDbLine
 10
5026.909899530426
 20
1370.244253240544
 30
0.0
 11
5026.909899530426
 21
1398.244268499334
 31
0.0
  0
INSERT
  5
122C5
330
12217
100
AcDbEntity
  8
AM_5
100
AcDbBlockReference
  2
_Dot
 10
5026.909899530426
 20
1369.244253240544
 30
0.0
 50
270.0
  0
INSERT
  5
122C6
330
12217
100
AcDbEntity
  8
AM_5
100
AcDbBlockReference
  2
_Dot
 10
5026.909899530426
 20
1399.244268499334
 30
0.0
 50
90.0
  0
MTEXT
  5
122C7
330
12217
100
AcDbEntity
  8
AM_5
 62
     2
100
AcDbMText
 10
5024.309899530426
 20
1384.24426086994
 30
0.0
 40
3.200000000000001
 41
0.0
 71
     5
 72
     1
  1
30
 11
0.0000000000000001
 21
1.0
 31
0.0
 73
     1
 44
1.0
1001
ACAD
1000
MTEXTBEGIN
1070
    73
1070
     1
1070
    44
1040
1.0
1070
    74
1070
     0
1000
MTEXTEND
  0
POINT
  5
122C8
330
12217
100
AcDbEntity
  8
Defpoints
 62
     0
100
AcDbPoint
 10
5051.909899530427
 20
1369.244253240544
 30
0.0
  0
POINT
  5
122C9
330
12217
100
AcDbEntity
  8
Defpoints
 62
     0
100
AcDbPoint
 10
5051.909899530427
 20
1399.244268499334
 30
0.0
  0
POINT
  5
122CA
330
12217
100
AcDbEntity
  8
Defpoints
 62
     0
100
AcDbPoint
 10
5026.909899530426
 20
1399.244268499334
 30
0.0
  0
ENDBLK
  5
12222
330
12217
100
AcDbEntity
  8
0
100
AcDbBlockEnd
  0
BLOCK
  5
3E1B7
330
3E1AB
100
AcDbEntity
  8
0
100
AcDbBlockBegin
  2
*D906
 70
     1
 10
0.0
 20
0.0
 30
0.0
  3
*D906
  1

  0
LINE
  5
3E1CC
330
3E1AB
100
AcDbEntity
  8
AM_5
100
AcDbLine
 10
4982.498419946484
 20
1478.632497869444
 30
0.0
 11
4992.498419946484
 21
1478.632497869444
 31
0.0
  0
LINE
  5
3E1CD
330
3E1AB
100
AcDbEntity
  8
AM_5
100
AcDbLine
 10
4984.498419946483
 20
1483.132497869444
 30
0.0
 11
4992.498419946484
 21
1483.132497869444
 31
0.0
  0
LINE
  5
3E1CE
330
3E1AB
100
AcDbEntity
  8
AM_5
100
AcDbLine
 10
4991.498419946483
 20
1479.632497869444
 30
0.0
 11
4991.498419946483
 21
1482.132497869444
 31
0.0
  0
LINE
  5
3E1CF
330
3E1AB
100
AcDbEntity
  8
AM_5
100
AcDbLine
 10
4991.498419946483
 20
1483.132497869444
 30
0.0
 11
4991.498419946483
 21
1490.825831202777
 31
0.0
  0
INSERT
  5
3E1D0
330
3E1AB
100
AcDbEntity
  8
AM_5
100
AcDbBlockReference
  2
_Dot
 10
4991.498419946483
 20
1478.632497869444
 30
0.0
 50
270.0
  0
INSERT
  5
3E1D1
330
3E1AB
100
AcDbEntity
  8
AM_5
100
AcDbBlockReference
  2
_Dot
 10
4991.498419946483
 20
1483.132497869444
 30
0.0
 50
90.0
  0
MTEXT
  5
3E1D2
330
3E1AB
100
AcDbEntity
  8
AM_5
 62
     2
100
AcDbMText
 10
4988.898419946483
 20
1487.479164536111
 30
0.0
 40
3.200000000000001
 41
0.0
 71
     5
 72
     1
  1
4.5
 11
0.0000000000000001
 21
1.0
 31
0.0
 73
     1
 44
1.0
1001
ACAD
1000
MTEXTBEGIN
1070
    73
1070
     1
1070
    44
1040
1.0
1070
    74
1070
     0
1000
MTEXTEND
  0
POINT
  5
3E1D3
330
3E1AB
100
AcDbEntity
  8
Defpoints
 62
     0
100
AcDbPoint
 10
4981.498419946484
 20
1478.632497869444
 30
0.0
  0
POINT
  5
3E1D4
330
3E1AB
100
AcDbEntity
  8
Defpoints
 62
     0
100
AcDbPoint
 10
4983.498419946483
 20
1483.132497869444
 30
0.0
  0
POINT
  5
3E1D5
330
3E1AB
100
AcDbEntity
  8
Defpoints
 62
     0
100
AcDbPoint
 10
4991.498419946483
 20
1483.132497869444
 30
0.0
  0
ENDBLK
  5
3E1B8
330
3E1AB
100
AcDbEntity
  8
0
100
AcDbBlockEnd
  0
ENDSEC
  0
SECTION
  2
ENTITIES
  0
TEXT
  5
C47E
330
1F
100
AcDbEntity
  8
AM_6
 60
     1
100
AcDbText
 10
3205.236059512639
 20
1844.02847902716
 30
0.0
 40
2.5
  1
!GENTITLE-INSERT
100
AcDbText
  0
TEXT
  5
C47F
330
1F
100
AcDbEntity
  8
AM_6
 60
     1
100
AcDbText
 10
3216.736059512638
 20
2045.52847902716
 30
0.0
 40
2.5
  1
!GENTITLE-MAX
100
AcDbText
  0
TEXT
  5
C480
330
1F
100
AcDbEntity
  8
AM_6
 60
     1
100
AcDbText
 10
3216.736059512638
 20
2045.52847902716
 30
0.0
 40
2.5
  1
!GENTITLE-RU
100
AcDbText
  0
TEXT
  5
C482
330
1F
100
AcDbEntity
  8
AM_6
 60
     1
100
AcDbText
 10
2919.736059512639
 20
1835.52847902716
 30
0.0
 40
2.5
  1
!GENTITLE-LL
100
AcDbText
  0
LINE
  5
11577
330
1F
100
AcDbEntity
  8
0部品13
  6
中心線1
 48
0.5
370
    13
100
AcDbLine
 10
5196.247762651897
 20
1466.64223785375
 30
0.0
 11
5234.647762747265
 21
1466.64223785375
 31
0.0
  0
LINE
  5
11578
330
1F
100
AcDbEntity
  8
0部品13
  6
中心線1
 48
0.5
370
    13
100
AcDbLine
 10
5122.373638053987
 20
1527.762466398096
 30
0.0
 11
5141.773753555447
 21
1527.762213102206
 31
0.0
  0
LINE
  5
11579
330
1F
100
AcDbEntity
  8
0部品13
  6
想像線1
 48
0.75
370
    13
100
AcDbLine
 10
5125.873638053986
 20
1567.262466398096
 30
0.0
 11
5177.373638053986
 21
1567.262466398096
 31
0.0
  0
LINE
  5
1157A
330
1F
100
AcDbEntity
  8
0部品13
100
AcDbLine
 10
5133.873638053987
 20
1547.262466398096
 30
0.0
 11
5167.373638053987
 21
1547.262466398096
 31
0.0
  0
LINE
  5
1157B
330
1F
100
AcDbEntity
  8
0部品13
100
AcDbLine
 10
5132.873638053986
 20
1512.762466398096
 30
0.0
 11
5135.373638053987
 21
1512.762466398096
 31
0.0
  0
LINE
  5
1157C
330
1F
100
AcDbEntity
  8
0部品13
  6
中心線1
 48
0.5
370
    13
100
AcDbLine
 10
5122.373638053987
 20
1466.64223785375
 30
0.0
 11
5170.373638053987
 21
1466.64223785375
 31
0.0
  0
LINE
  5
1157D
330
1F
100
AcDbEntity
  8
0部品13
100
AcDbLine
 10
5132.873638053986
 20
1451.64222259496
 30
0.0
 11
5152.373638053987
 21
1451.64222259496
 31
0.0
  0
LINE
  5
1157E
330
1F
100
AcDbEntity
  8
0部品13
100
AcDbLine
 10
5132.873638053986
 20
1481.64223785375
 30
0.0
 11
5152.373638053987
 21
1481.64223785375
 31
0.0
  0
LINE
  5
1157F
330
1F
100
AcDbEntity
  8
0部品13
  6
想像線1
 48
0.75
370
    13
100
AcDbLine
 10
5112.873638053986
 20
1491.64223785375
 30
0.0
 11
5112.873638053986
 21
1441.64222259496
 31
0.0
  0
LINE
  5
11580
330
1F
100
AcDbEntity
  8
0部品13
100
AcDbLine
 10
5132.873638053986
 20
1481.64223785375
 30
0.0
 11
5132.873638053986
 21
1451.64222259496
 31
0.0
  0
LINE
  5
11581
330
1F
100
AcDbEntity
  8
0部品13
  6
想像線1
 48
0.75
370
    13
100
AcDbLine
 10
5190.247762651898
 20
1481.642234039053
 30
0.0
 11
5190.247762651898
 21
1451.64223785375
 31
0.0
  0
LINE
  5
11582
330
1F
100
AcDbEntity
  8
0部品13
  6
想像線1
 48
0.75
370
    13
100
AcDbLine
 10
5210.247762651897
 20
1481.642234039053
 30
0.0
 11
5210.247762651897
 21
1451.64223785375
 31
0.0
  0
LINE
  5
11583
330
1F
100
AcDbEntity
  8
0部品13
  6
陰線1
 48
0.5
370
    13
100
AcDbLine
 10
5199.247762651897
 20
1466.642234039053
 30
0.0
 11
5200.922079058148
 21
1469.542235564931
 31
0.0
  0
LINE
  5
11584
330
1F
100
AcDbEntity
  8
0部品13
  6
陰線1
 48
0.5
370
    13
100
AcDbLine
 10
5200.922079058148
 20
1463.742236327871
 30
0.0
 11
5210.247762651897
 21
1463.742236327871
 31
0.0
  0
LINE
  5
11585
330
1F
100
AcDbEntity
  8
0部品13
  6
陰線1
 48
0.5
370
    13
100
AcDbLine
 10
5199.247777910688
 20
1466.64223785375
 30
0.0
 11
5200.922094316937
 21
1463.742236327871
 31
0.0
  0
LINE
  5
11586
330
1F
100
AcDbEntity
  8
0部品13
  6
陰線1
 48
0.5
370
    13
100
AcDbLine
 10
5200.922079058148
 20
1469.542239379629
 30
0.0
 11
5210.247762651897
 21
1469.542239379629
 31
0.0
  0
LINE
  5
11587
330
1F
100
AcDbEntity
  8
0部品13
  6
想像線1
 48
0.75
370
    13
100
AcDbLine
 10
5132.873638053986
 20
1491.64223785375
 30
0.0
 11
5132.873638053986
 21
1441.64222259496
 31
0.0
  0
LINE
  5
11588
330
1F
100
AcDbEntity
  8
0部品13
  6
想像線1
 48
0.75
370
    13
100
AcDbLine
 10
5112.873638053986
 20
1554.262466398096
 30
0.0
 11
5112.873638053986
 21
1502.762466398096
 31
0.0
  0
LINE
  5
11589
330
1F
100
AcDbEntity
  8
0部品13
100
AcDbLine
 10
5132.873638053986
 20
1546.262466398096
 30
0.0
 11
5132.873638053986
 21
1512.762466398096
 31
0.0
  0
LINE
  5
1158A
330
1F
100
AcDbEntity
  8
0部品9
  6
中線
 48
0.5
370
    30
100
AcDbLine
 10
5125.373638053987
 20
1464.14222259496
 30
0.0
 11
5125.373638053987
 21
1469.14222259496
 31
0.0
  0
LINE
  5
1158B
330
1F
100
AcDbEntity
  8
0部品9
  6
中線
 48
0.5
370
    30
100
AcDbLine
 10
5125.873638053986
 20
1463.64222259496
 30
0.0
 11
5125.873638053986
 21
1469.64222259496
 31
0.0
  0
LINE
  5
1158C
330
1F
100
AcDbEntity
  8
0部品9
  6
細線
 48
0.5
370
    13
100
AcDbLine
 10
5125.373638053987
 20
1464.14222259496
 30
0.0
 11
5132.873638053986
 21
1464.14222259496
 31
0.0
  0
LINE
  5
1158D
330
1F
100
AcDbEntity
  8
0部品9
  6
中線
 48
0.5
370
    30
100
AcDbLine
 10
5125.873638053986
 20
1463.64222259496
 30
0.0
 11
5132.873638053986
 21
1463.64222259496
 31
0.0
  0
LINE
  5
1158E
330
1F
100
AcDbEntity
  8
0部品9
  6
中線
 48
0.5
370
    30
100
AcDbLine
 10
5125.373638053987
 20
1464.14221496556
 30
0.0
 11
5125.873653312776
 21
1463.64219970677
 31
0.0
  0
LINE
  5
1158F
330
1F
100
AcDbEntity
  8
0部品9
  6
中線
 48
0.5
370
    30
100
AcDbLine
 10
5125.873638053986
 20
1469.64222259496
 30
0.0
 11
5132.873638053986
 21
1469.64222259496
 31
0.0
  0
LINE
  5
11591
330
1F
100
AcDbEntity
  8
0部品9
  6
中線
 48
0.5
370
    30
100
AcDbLine
 10
5125.373638053987
 20
1469.14220733617
 30
0.0
 11
5125.873638053986
 21
1469.64220733617
 31
0.0
  0
LINE
  5
11593
330
1F
100
AcDbEntity
  8
0部品13
  6
想像線1
 48
0.75
370
    13
100
AcDbLine
 10
5132.873638053986
 20
1547.262466398096
 30
0.0
 11
5132.873638053986
 21
1502.762466398096
 31
0.0
  0
LINE
  5
11594
330
1F
100
AcDbEntity
  8
0部品9
  6
細線
 48
0.5
370
    13
100
AcDbLine
 10
5125.373638053987
 20
1525.262466398096
 30
0.0
 11
5132.873638053986
 21
1525.262466398096
 31
0.0
  0
LINE
  5
11595
330
1F
100
AcDbEntity
  8
0部品9
  6
中線
 48
0.5
370
    30
100
AcDbLine
 10
5125.873638053986
 20
1530.762466398096
 30
0.0
 11
5132.873638053986
 21
1530.762466398096
 31
0.0
  0
LINE
  5
11596
330
1F
100
AcDbEntity
  8
0部品9
  6
中線
 48
0.5
370
    30
100
AcDbLine
 10
5125.873638053986
 20
1524.762466398096
 30
0.0
 11
5132.873638053986
 21
1524.762466398096
 31
0.0
  0
LINE
  5
11597
330
1F
100
AcDbEntity
  8
0部品9
  6
細線
 48
0.5
370
    13
100
AcDbLine
 10
5125.373638053987
 20
1530.262466398096
 30
0.0
 11
5132.873638053986
 21
1530.262466398096
 31
0.0
  0
LINE
  5
11598
330
1F
100
AcDbEntity
  8
0部品9
  6
中線
 48
0.5
370
    30
100
AcDbLine
 10
5125.373638053987
 20
1525.262451139306
 30
0.0
 11
5125.873653312776
 21
1524.762435880526
 31
0.0
  0
LINE
  5
11599
330
1F
100
AcDbEntity
  8
0部品9
  6
中線
 48
0.5
370
    30
100
AcDbLine
 10
5125.373622795207
 20
1530.262466398096
 30
0.0
 11
5125.873622795207
 21
1530.762466398096
 31
0.0
  0
LINE
  5
1159A
330
1F
100
AcDbEntity
  8
0部品9
  6
中線
 48
0.5
370
    30
100
AcDbLine
 10
5125.873638053986
 20
1524.762466398096
 30
0.0
 11
5125.873638053986
 21
1530.762466398096
 31
0.0
  0
LINE
  5
1159B
330
1F
100
AcDbEntity
  8
0部品9
  6
中線
 48
0.5
370
    30
100
AcDbLine
 10
5125.373638053987
 20
1525.262466398096
 30
0.0
 11
5125.373638053987
 21
1530.262466398096
 31
0.0
  0
ARC
  5
1159C
330
1F
100
AcDbEntity
  8
0部品13
  6
想像線1
 48
0.75
370
    13
100
AcDbCircle
 10
5125.873638053986
 20
1554.262466398096
 30
0.0
 40
13.0
100
AcDbArc
 50
90.00000250446868
 51
180.0000050089504
  0
LINE
  5
1159D
330
1F
100
AcDbEntity
  8
0部品13
  6
想像線1
 48
0.75
370
    13
100
AcDbLine
 10
5112.873638053986
 20
1547.262466398096
 30
0.0
 11
5177.373638053986
 21
1547.262466398096
 31
0.0
  0
ARC
  5
1159E
330
1F
100
AcDbEntity
  8
0部品13
100
AcDbCircle
 10
5133.873638053987
 20
1546.262466398096
 30
0.0
 40
1.0
100
AcDbArc
 50
90.00000250446868
 51
180.0000050089504
  0
ARC
  5
115A0
330
1F
100
AcDbEntity
  8
0部品13
100
AcDbCircle
 10
5152.373638053987
 20
1466.64223785375
 30
0.0
 40
15.0
100
AcDbArc
 50
269.9999974955313
 51
90.00000250446868
  0
ARC
  5
115A1
330
1F
100
AcDbEntity
  8
0部品13
100
AcDbCircle
 10
5135.373638053987
 20
1453.64222259496
 30
0.0
 40
2.0
100
AcDbArc
 50
269.9999974955313
 51
0.0
  0
CIRCLE
  5
115A2
102
{ACAD_REACTORS
330
11DE6
102
}
330
1F
100
AcDbEntity
  8
0部品13
100
AcDbCircle
 10
5229.747762651897
 20
1466.64223785375
 30
0.0
 40
2.9000000953674
  0
LINE
  5
115A3
330
1F
100
AcDbEntity
  8
0部品13
  6
中心線1
 48
0.5
370
    13
100
AcDbLine
 10
5229.747762651897
 20
1471.542237949117
 30
0.0
 11
5229.747762651897
 21
1461.742237758383
 31
0.0
  0
LINE
  5
115A4
330
1F
100
AcDbEntity
  8
0部品13
100
AcDbLine
 10
5137.373638053986
 20
1537.762466398096
 30
0.0
 11
5137.373638053986
 21
1514.762466398096
 31
0.0
  0
LINE
  5
115A5
330
1F
100
AcDbEntity
  8
0部品13
100
AcDbLine
 10
5137.373638053986
 20
1479.64223785375
 30
0.0
 11
5137.373638053986
 21
1453.64222259496
 31
0.0
  0
ARC
  5
115A6
330
1F
100
AcDbEntity
  8
0部品13
100
AcDbCircle
 10
5150.425151725866
 20
1464.69373626683
 30
0.0
 40
0.6999999880790999
100
AcDbArc
 50
0.0
 51
90.00000250446868
  0
ARC
  5
115A7
330
1F
100
AcDbEntity
  8
0部品13
100
AcDbCircle
 10
5150.425151725866
 20
1468.59073944066
 30
0.0
 40
0.6999999880790999
100
AcDbArc
 50
269.9999974955313
 51
0.0
  0
CIRCLE
  5
115A8
330
1F
100
AcDbEntity
  8
0部品13
100
AcDbCircle
 10
5152.373607536417
 20
1466.64223785375
 30
0.0
 40
6.0
  0
CIRCLE
  5
115A9
330
1F
100
AcDbEntity
  8
0部品13
100
AcDbCircle
 10
5152.373638053987
 20
1466.64223785375
 30
0.0
 40
6.25
  0
LINE
  5
115AA
330
1F
100
AcDbEntity
  8
0部品13
100
AcDbLine
 10
5150.425151725866
 20
1465.39373321507
 30
0.0
 11
5148.923625846957
 21
1465.39373321507
 31
0.0
  0
LINE
  5
115AB
330
1F
100
AcDbEntity
  8
0部品13
100
AcDbLine
 10
5148.923625846957
 20
1465.39373321507
 30
0.0
 11
5148.923625846957
 21
1467.89074249242
 31
0.0
  0
LINE
  5
115AC
330
1F
100
AcDbEntity
  8
0部品13
100
AcDbLine
 10
5148.923625846957
 20
1467.89074249242
 30
0.0
 11
5150.425151725866
 21
1467.89074249242
 31
0.0
  0
ARC
  5
115AD
330
1F
100
AcDbEntity
  8
0部品13
100
AcDbCircle
 10
5154.322154899698
 20
1464.69373626683
 30
0.0
 40
0.6999999880790999
100
AcDbArc
 50
90.00000250446868
 51
180.0000050089504
  0
LINE
  5
115AE
330
1F
100
AcDbEntity
  8
0部品13
  6
中心線1
 48
0.5
370
    13
100
AcDbLine
 10
5152.373638053987
 20
1474.89223785375
 30
0.0
 11
5152.373638053987
 21
1458.39223785375
 31
0.0
  0
LINE
  5
115AF
330
1F
100
AcDbEntity
  8
0部品13
100
AcDbLine
 10
5153.622142692666
 20
1464.69373626683
 30
0.0
 11
5153.622142692666
 21
1463.19223327611
 31
0.0
  0
LINE
  5
115B0
330
1F
100
AcDbEntity
  8
0部品13
100
AcDbLine
 10
5153.622142692666
 20
1463.19223327611
 30
0.0
 11
5151.125133415316
 21
1463.19223327611
 31
0.0
  0
LINE
  5
115B1
330
1F
100
AcDbEntity
  8
0部品13
100
AcDbLine
 10
5151.125133415316
 20
1463.19223327611
 30
0.0
 11
5151.125133415316
 21
1464.69373626683
 31
0.0
  0
LINE
  5
115B2
330
1F
100
AcDbEntity
  8
0部品13
100
AcDbLine
 10
5154.322154899698
 20
1467.89074249242
 30
0.0
 11
5155.823650261027
 21
1467.89074249242
 31
0.0
  0
LINE
  5
115B3
330
1F
100
AcDbEntity
  8
0部品13
100
AcDbLine
 10
5155.823650261027
 20
1465.39373321507
 30
0.0
 11
5154.322154899698
 21
1465.39373321507
 31
0.0
  0
ARC
  5
115B4
330
1F
100
AcDbEntity
  8
0部品13
100
AcDbCircle
 10
5154.322154899698
 20
1468.59073944066
 30
0.0
 40
0.6999999880790999
100
AcDbArc
 50
180.0000086514149
 51
269.9999974955313
  0
LINE
  5
115B5
330
1F
100
AcDbEntity
  8
0部品13
100
AcDbLine
 10
5153.622142692666
 20
1470.09223480199
 30
0.0
 11
5153.622142692666
 21
1468.59073944066
 31
0.0
  0
LINE
  5
115B6
330
1F
100
AcDbEntity
  8
0部品13
100
AcDbLine
 10
5151.125133415316
 20
1468.59073944066
 30
0.0
 11
5151.125133415316
 21
1470.09223480199
 31
0.0
  0
LINE
  5
115B7
330
1F
100
AcDbEntity
  8
0部品13
100
AcDbLine
 10
5151.125133415316
 20
1470.09223480199
 30
0.0
 11
5153.622142692666
 21
1470.09223480199
 31
0.0
  0
LINE
  5
115B8
330
1F
100
AcDbEntity
  8
0部品13
100
AcDbLine
 10
5155.823650261027
 20
1467.89074249242
 30
0.0
 11
5155.823650261027
 21
1465.39373321507
 31
0.0
  0
ARC
  5
115B9
330
1F
100
AcDbEntity
  8
0部品13
100
AcDbCircle
 10
5135.373638053987
 20
1479.64223785375
 30
0.0
 40
2.0
100
AcDbArc
 50
0.0
 51
90.00000250446868
  0
ARC
  5
115BA
330
1F
100
AcDbEntity
  8
0部品13
100
AcDbCircle
 10
5135.373638053987
 20
1514.762466398096
 30
0.0
 40
2.0
100
AcDbArc
 50
269.9999974955313
 51
0.0
  0
ARC
  5
115BB
330
1F
100
AcDbEntity
  8
0部品13
100
AcDbCircle
 10
5165.373638053987
 20
1544.762466398096
 30
0.0
 40
2.0
100
AcDbArc
 50
269.9999974955313
 51
0.0
  0
LINE
  5
115BC
330
1F
100
AcDbEntity
  8
0部品9
  6
中線
 48
0.5
370
    30
100
AcDbLine
 10
5149.373638053987
 20
1554.262466398096
 30
0.0
 11
5155.373638053987
 21
1554.262466398096
 31
0.0
  0
LINE
  5
115BD
330
1F
100
AcDbEntity
  8
0部品9
  6
中線
 48
0.5
370
    30
100
AcDbLine
 10
5149.873638053986
 20
1554.762466398096
 30
0.0
 11
5154.873638053987
 21
1554.762466398096
 31
0.0
  0
LINE
  5
115BE
330
1F
100
AcDbEntity
  8
0部品13
100
AcDbLine
 10
5142.373638053987
 20
1542.762466398096
 30
0.0
 11
5165.373638053987
 21
1542.762466398096
 31
0.0
  0
LINE
  5
115BF
330
1F
100
AcDbEntity
  8
0部品9
  6
細線
 48
0.5
370
    13
100
AcDbLine
 10
5149.873638053986
 20
1554.762466398096
 30
0.0
 11
5149.873638053986
 21
1547.262466398096
 31
0.0
  0
LINE
  5
115C0
330
1F
100
AcDbEntity
  8
0部品9
  6
中線
 48
0.5
370
    30
100
AcDbLine
 10
5149.373638053987
 20
1554.262466398096
 30
0.0
 11
5149.373638053987
 21
1547.262466398096
 31
0.0
  0
ARC
  5
115C1
330
1F
100
AcDbEntity
  8
0部品13
100
AcDbCircle
 10
5142.373638053987
 20
1537.762466398096
 30
0.0
 40
5.0
100
AcDbArc
 50
90.00000250446868
 51
180.0000050089504
  0
LINE
  5
115C2
330
1F
100
AcDbEntity
  8
0部品9
  6
中線
 48
0.5
370
    30
100
AcDbLine
 10
5149.873653312777
 20
1554.762451139306
 30
0.0
 11
5149.373638053987
 21
1554.262451139306
 31
0.0
  0
LINE
  5
115C3
330
1F
100
AcDbEntity
  8
0部品9
  6
細線
 48
0.5
370
    13
100
AcDbLine
 10
5154.873638053987
 20
1554.762466398096
 30
0.0
 11
5154.873638053987
 21
1547.262466398096
 31
0.0
  0
LINE
  5
115C4
330
1F
100
AcDbEntity
  8
0部品9
  6
中線
 48
0.5
370
    30
100
AcDbLine
 10
5155.373638053987
 20
1554.262466398096
 30
0.0
 11
5155.373638053987
 21
1547.262466398096
 31
0.0
  0
LINE
  5
115C5
330
1F
100
AcDbEntity
  8
0部品13
  6
中心線1
 48
0.5
370
    13
100
AcDbLine
 10
5152.373638053987
 20
1557.762466398096
 30
0.0
 11
5152.373638053987
 21
1538.362713102206
 31
0.0
  0
LINE
  5
115C6
330
1F
100
AcDbEntity
  8
0部品9
  6
中線
 48
0.5
370
    30
100
AcDbLine
 10
5154.873622795207
 20
1554.762466398096
 30
0.0
 11
5155.373638053987
 21
1554.262466398096
 31
0.0
  0
LINE
  5
115C8
330
1F
100
AcDbEntity
  8
0部品13
100
AcDbLine
 10
5167.373638053987
 20
1547.262466398096
 30
0.0
 11
5167.373638053987
 21
1544.762466398096
 31
0.0
  0
INSERT
  5
115DC
330
1F
100
AcDbEntity
  8
AM_6
100
AcDbBlockReference
  2
*U123
 10
4960.32015219537
 20
1398.702187271167
 30
0.0
  0
POLYLINE
  5
115DD
330
1F
100
AcDbEntity
  8
0部品9
  6
中線
 48
0.5
370
    30
100
AcDb3dPolyline
 66
     1
 10
0.0
 20
0.0
 30
0.0
 70
     8
  0
VERTEX
  5
115DE
330
115DD
100
AcDbEntity
  8
0部品9
  6
中線
 48
0.5
370
    30
100
AcDbVertex
100
AcDb3dPolylineVertex
 10
5137.373753555445
 20
1460.39271392797
 30
0.0
 70
    32
  0
VERTEX
  5
115DF
330
115DD
100
AcDbEntity
  8
0部品9
  6
中線
 48
0.5
370
    30
100
AcDbVertex
100
AcDb3dPolylineVertex
 10
5137.399753555446
 20
1460.47071392797
 30
0.0
 70
    32
  0
VERTEX
  5
115E0
330
115DD
100
AcDbEntity
  8
0部品9
  6
中線
 48
0.5
370
    30
100
AcDbVertex
100
AcDb3dPolylineVertex
 10
5137.426753555445
 20
1460.54971392797
 30
0.0
 70
    32
  0
VERTEX
  5
115E1
330
115DD
100
AcDbEntity
  8
0部品9
  6
中線
 48
0.5
370
    30
100
AcDbVertex
100
AcDb3dPolylineVertex
 10
5137.452753555447
 20
1460.62771392797
 30
0.0
 70
    32
  0
VERTEX
  5
115E2
330
115DD
100
AcDbEntity
  8
0部品9
  6
中線
 48
0.5
370
    30
100
AcDbVertex
100
AcDb3dPolylineVertex
 10
5137.478753555446
 20
1460.70671392797
 30
0.0
 70
    32
  0
VERTEX
  5
115E3
330
115DD
100
AcDbEntity
  8
0部品9
  6
中線
 48
0.5
370
    30
100
AcDbVertex
100
AcDb3dPolylineVertex
 10
5137.505753555446
 20
1460.78571392797
 30
0.0
 70
    32
  0
VERTEX
  5
115E4
330
115DD
100
AcDbEntity
  8
0部品9
  6
中線
 48
0.5
370
    30
100
AcDbVertex
100
AcDb3dPolylineVertex
 10
5137.531753555446
 20
1460.86371392797
 30
0.0
 70
    32
  0
VERTEX
  5
115E5
330
115DD
100
AcDbEntity
  8
0部品9
  6
中線
 48
0.5
370
    30
100
AcDbVertex
100
AcDb3dPolylineVertex
 10
5137.557753555445
 20
1460.94271392797
 30
0.0
 70
    32
  0
VERTEX
  5
115E6
330
115DD
100
AcDbEntity
  8
0部品9
  6
中線
 48
0.5
370
    30
100
AcDbVertex
100
AcDb3dPolylineVertex
 10
5137.583753555446
 20
1461.02071392797
 30
0.0
 70
    32
  0
VERTEX
  5
115E7
330
115DD
100
AcDbEntity
  8
0部品9
  6
中線
 48
0.5
370
    30
100
AcDbVertex
100
AcDb3dPolylineVertex
 10
5137.610753555446
 20
1461.09971392797
 30
0.0
 70
    32
  0
VERTEX
  5
115E8
330
115DD
100
AcDbEntity
  8
0部品9
  6
中線
 48
0.5
370
    30
100
AcDbVertex
100
AcDb3dPolylineVertex
 10
5137.636753555446
 20
1461.17871392797
 30
0.0
 70
    32
  0
VERTEX
  5
115E9
330
115DD
100
AcDbEntity
  8
0部品9
  6
中線
 48
0.5
370
    30
100
AcDbVertex
100
AcDb3dPolylineVertex
 10
5137.662753555446
 20
1461.25671392797
 30
0.0
 70
    32
  0
VERTEX
  5
115EA
330
115DD
100
AcDbEntity
  8
0部品9
  6
中線
 48
0.5
370
    30
100
AcDbVertex
100
AcDb3dPolylineVertex
 10
5137.687753555446
 20
1461.33571392797
 30
0.0
 70
    32
  0
VERTEX
  5
115EB
330
115DD
100
AcDbEntity
  8
0部品9
  6
中線
 48
0.5
370
    30
100
AcDbVertex
100
AcDb3dPolylineVertex
 10
5137.713753555446
 20
1461.41471392797
 30
0.0
 70
    32
  0
VERTEX
  5
115EC
330
115DD
100
AcDbEntity
  8
0部品9
  6
中線
 48
0.5
370
    30
100
AcDbVertex
100
AcDb3dPolylineVertex
 10
5137.739753555446
 20
1461.49271392797
 30
0.0
 70
    32
  0
VERTEX
  5
115ED
330
115DD
100
AcDbEntity
  8
0部品9
  6
中線
 48
0.5
370
    30
100
AcDbVertex
100
AcDb3dPolylineVertex
 10
5137.764753555446
 20
1461.57171392797
 30
0.0
 70
    32
  0
VERTEX
  5
115EE
330
115DD
100
AcDbEntity
  8
0部品9
  6
中線
 48
0.5
370
    30
100
AcDbVertex
100
AcDb3dPolylineVertex
 10
5137.790753555446
 20
1461.64971392797
 30
0.0
 70
    32
  0
VERTEX
  5
115EF
330
115DD
100
AcDbEntity
  8
0部品9
  6
中線
 48
0.5
370
    30
100
AcDbVertex
100
AcDb3dPolylineVertex
 10
5137.815753555446
 20
1461.72871392797
 30
0.0
 70
    32
  0
VERTEX
  5
115F0
330
115DD
100
AcDbEntity
  8
0部品9
  6
中線
 48
0.5
370
    30
100
AcDbVertex
100
AcDb3dPolylineVertex
 10
5137.840753555446
 20
1461.80771392797
 30
0.0
 70
    32
  0
VERTEX
  5
115F1
330
115DD
100
AcDbEntity
  8
0部品9
  6
中線
 48
0.5
370
    30
100
AcDbVertex
100
AcDb3dPolylineVertex
 10
5137.865753555446
 20
1461.88571392797
 30
0.0
 70
    32
  0
VERTEX
  5
115F2
330
115DD
100
AcDbEntity
  8
0部品9
  6
中線
 48
0.5
370
    30
100
AcDbVertex
100
AcDb3dPolylineVertex
 10
5137.890753555446
 20
1461.96471392797
 30
0.0
 70
    32
  0
VERTEX
  5
115F3
330
115DD
100
AcDbEntity
  8
0部品9
  6
中線
 48
0.5
370
    30
100
AcDbVertex
100
AcDb3dPolylineVertex
 10
5137.915753555446
 20
1462.04271392797
 30
0.0
 70
    32
  0
VERTEX
  5
115F4
330
115DD
100
AcDbEntity
  8
0部品9
  6
中線
 48
0.5
370
    30
100
AcDbVertex
100
AcDb3dPolylineVertex
 10
5137.939753555446
 20
1462.12171392797
 30
0.0
 70
    32
  0
VERTEX
  5
115F5
330
115DD
100
AcDbEntity
  8
0部品9
  6
中線
 48
0.5
370
    30
100
AcDbVertex
100
AcDb3dPolylineVertex
 10
5137.963753555446
 20
1462.20071392797
 30
0.0
 70
    32
  0
VERTEX
  5
115F6
330
115DD
100
AcDbEntity
  8
0部品9
  6
中線
 48
0.5
370
    30
100
AcDbVertex
100
AcDb3dPolylineVertex
 10
5137.988753555447
 20
1462.27871392797
 30
0.0
 70
    32
  0
VERTEX
  5
115F7
330
115DD
100
AcDbEntity
  8
0部品9
  6
中線
 48
0.5
370
    30
100
AcDbVertex
100
AcDb3dPolylineVertex
 10
5138.011753555446
 20
1462.35771392797
 30
0.0
 70
    32
  0
VERTEX
  5
115F8
330
115DD
100
AcDbEntity
  8
0部品9
  6
中線
 48
0.5
370
    30
100
AcDbVertex
100
AcDb3dPolylineVertex
 10
5138.035753555445
 20
1462.43671392797
 30
0.0
 70
    32
  0
VERTEX
  5
115F9
330
115DD
100
AcDbEntity
  8
0部品9
  6
中線
 48
0.5
370
    30
100
AcDbVertex
100
AcDb3dPolylineVertex
 10
5138.059753555446
 20
1462.51471392797
 30
0.0
 70
    32
  0
VERTEX
  5
115FA
330
115DD
100
AcDbEntity
  8
0部品9
  6
中線
 48
0.5
370
    30
100
AcDbVertex
100
AcDb3dPolylineVertex
 10
5138.082753555447
 20
1462.59371392797
 30
0.0
 70
    32
  0
VERTEX
  5
115FB
330
115DD
100
AcDbEntity
  8
0部品9
  6
中線
 48
0.5
370
    30
100
AcDbVertex
100
AcDb3dPolylineVertex
 10
5138.105753555445
 20
1462.67171392797
 30
0.0
 70
    32
  0
VERTEX
  5
115FC
330
115DD
100
AcDbEntity
  8
0部品9
  6
中線
 48
0.5
370
    30
100
AcDbVertex
100
AcDb3dPolylineVertex
 10
5138.128753555445
 20
1462.75071392797
 30
0.0
 70
    32
  0
VERTEX
  5
115FD
330
115DD
100
AcDbEntity
  8
0部品9
  6
中線
 48
0.5
370
    30
100
AcDbVertex
100
AcDb3dPolylineVertex
 10
5138.150753555446
 20
1462.82971392797
 30
0.0
 70
    32
  0
VERTEX
  5
115FE
330
115DD
100
AcDbEntity
  8
0部品9
  6
中線
 48
0.5
370
    30
100
AcDbVertex
100
AcDb3dPolylineVertex
 10
5138.173753555445
 20
1462.90771392797
 30
0.0
 70
    32
  0
VERTEX
  5
115FF
330
115DD
100
AcDbEntity
  8
0部品9
  6
中線
 48
0.5
370
    30
100
AcDbVertex
100
AcDb3dPolylineVertex
 10
5138.195753555446
 20
1462.98671392797
 30
0.0
 70
    32
  0
VERTEX
  5
11600
330
115DD
100
AcDbEntity
  8
0部品9
  6
中線
 48
0.5
370
    30
100
AcDbVertex
100
AcDb3dPolylineVertex
 10
5138.216753555446
 20
1463.06471392797
 30
0.0
 70
    32
  0
VERTEX
  5
11601
330
115DD
100
AcDbEntity
  8
0部品9
  6
中線
 48
0.5
370
    30
100
AcDbVertex
100
AcDb3dPolylineVertex
 10
5138.238753555446
 20
1463.14371392797
 30
0.0
 70
    32
  0
VERTEX
  5
11602
330
115DD
100
AcDbEntity
  8
0部品9
  6
中線
 48
0.5
370
    30
100
AcDbVertex
100
AcDb3dPolylineVertex
 10
5138.259753555446
 20
1463.22271392797
 30
0.0
 70
    32
  0
VERTEX
  5
11603
330
115DD
100
AcDbEntity
  8
0部品9
  6
中線
 48
0.5
370
    30
100
AcDbVertex
100
AcDb3dPolylineVertex
 10
5138.280753555445
 20
1463.30071392797
 30
0.0
 70
    32
  0
VERTEX
  5
11604
330
115DD
100
AcDbEntity
  8
0部品9
  6
中線
 48
0.5
370
    30
100
AcDbVertex
100
AcDb3dPolylineVertex
 10
5138.300753555446
 20
1463.37971392797
 30
0.0
 70
    32
  0
VERTEX
  5
11605
330
115DD
100
AcDbEntity
  8
0部品9
  6
中線
 48
0.5
370
    30
100
AcDbVertex
100
AcDb3dPolylineVertex
 10
5138.320753555445
 20
1463.45871392797
 30
0.0
 70
    32
  0
VERTEX
  5
11606
330
115DD
100
AcDbEntity
  8
0部品9
  6
中線
 48
0.5
370
    30
100
AcDbVertex
100
AcDb3dPolylineVertex
 10
5138.340753555446
 20
1463.53671392797
 30
0.0
 70
    32
  0
VERTEX
  5
11607
330
115DD
100
AcDbEntity
  8
0部品9
  6
中線
 48
0.5
370
    30
100
AcDbVertex
100
AcDb3dPolylineVertex
 10
5138.360753555446
 20
1463.61571392797
 30
0.0
 70
    32
  0
VERTEX
  5
11608
330
115DD
100
AcDbEntity
  8
0部品9
  6
中線
 48
0.5
370
    30
100
AcDbVertex
100
AcDb3dPolylineVertex
 10
5138.379753555446
 20
1463.69371392797
 30
0.0
 70
    32
  0
VERTEX
  5
11609
330
115DD
100
AcDbEntity
  8
0部品9
  6
中線
 48
0.5
370
    30
100
AcDbVertex
100
AcDb3dPolylineVertex
 10
5138.398753555446
 20
1463.77271392797
 30
0.0
 70
    32
  0
VERTEX
  5
1160A
330
115DD
100
AcDbEntity
  8
0部品9
  6
中線
 48
0.5
370
    30
100
AcDbVertex
100
AcDb3dPolylineVertex
 10
5138.416753555446
 20
1463.85171392797
 30
0.0
 70
    32
  0
VERTEX
  5
1160B
330
115DD
100
AcDbEntity
  8
0部品9
  6
中線
 48
0.5
370
    30
100
AcDbVertex
100
AcDb3dPolylineVertex
 10
5138.435753555445
 20
1463.92971392797
 30
0.0
 70
    32
  0
VERTEX
  5
1160C
330
115DD
100
AcDbEntity
  8
0部品9
  6
中線
 48
0.5
370
    30
100
AcDbVertex
100
AcDb3dPolylineVertex
 10
5138.452753555446
 20
1464.00871392797
 30
0.0
 70
    32
  0
VERTEX
  5
1160D
330
115DD
100
AcDbEntity
  8
0部品9
  6
中線
 48
0.5
370
    30
100
AcDbVertex
100
AcDb3dPolylineVertex
 10
5138.470753555446
 20
1464.08671392797
 30
0.0
 70
    32
  0
VERTEX
  5
1160E
330
115DD
100
AcDbEntity
  8
0部品9
  6
中線
 48
0.5
370
    30
100
AcDbVertex
100
AcDb3dPolylineVertex
 10
5138.487753555446
 20
1464.16571392797
 30
0.0
 70
    32
  0
VERTEX
  5
1160F
330
115DD
100
AcDbEntity
  8
0部品9
  6
中線
 48
0.5
370
    30
100
AcDbVertex
100
AcDb3dPolylineVertex
 10
5138.503753555446
 20
1464.24471392797
 30
0.0
 70
    32
  0
VERTEX
  5
11610
330
115DD
100
AcDbEntity
  8
0部品9
  6
中線
 48
0.5
370
    30
100
AcDbVertex
100
AcDb3dPolylineVertex
 10
5138.519753555446
 20
1464.32271392797
 30
0.0
 70
    32
  0
VERTEX
  5
11611
330
115DD
100
AcDbEntity
  8
0部品9
  6
中線
 48
0.5
370
    30
100
AcDbVertex
100
AcDb3dPolylineVertex
 10
5138.535753555446
 20
1464.40171392797
 30
0.0
 70
    32
  0
VERTEX
  5
11612
330
115DD
100
AcDbEntity
  8
0部品9
  6
中線
 48
0.5
370
    30
100
AcDbVertex
100
AcDb3dPolylineVertex
 10
5138.551753555446
 20
1464.48071392797
 30
0.0
 70
    32
  0
VERTEX
  5
11613
330
115DD
100
AcDbEntity
  8
0部品9
  6
中線
 48
0.5
370
    30
100
AcDbVertex
100
AcDb3dPolylineVertex
 10
5138.565753555446
 20
1464.55871392797
 30
0.0
 70
    32
  0
VERTEX
  5
11614
330
115DD
100
AcDbEntity
  8
0部品9
  6
中線
 48
0.5
370
    30
100
AcDbVertex
100
AcDb3dPolylineVertex
 10
5138.580753555446
 20
1464.63771392797
 30
0.0
 70
    32
  0
VERTEX
  5
11615
330
115DD
100
AcDbEntity
  8
0部品9
  6
中線
 48
0.5
370
    30
100
AcDbVertex
100
AcDb3dPolylineVertex
 10
5138.594753555446
 20
1464.71571392797
 30
0.0
 70
    32
  0
VERTEX
  5
11616
330
115DD
100
AcDbEntity
  8
0部品9
  6
中線
 48
0.5
370
    30
100
AcDbVertex
100
AcDb3dPolylineVertex
 10
5138.607753555446
 20
1464.79471392797
 30
0.0
 70
    32
  0
VERTEX
  5
11617
330
115DD
100
AcDbEntity
  8
0部品9
  6
中線
 48
0.5
370
    30
100
AcDbVertex
100
AcDb3dPolylineVertex
 10
5138.621753555447
 20
1464.87371392797
 30
0.0
 70
    32
  0
VERTEX
  5
11618
330
115DD
100
AcDbEntity
  8
0部品9
  6
中線
 48
0.5
370
    30
100
AcDbVertex
100
AcDb3dPolylineVertex
 10
5138.633753555446
 20
1464.95171392797
 30
0.0
 70
    32
  0
VERTEX
  5
11619
330
115DD
100
AcDbEntity
  8
0部品9
  6
中線
 48
0.5
370
    30
100
AcDbVertex
100
AcDb3dPolylineVertex
 10
5138.645753555445
 20
1465.03071392797
 30
0.0
 70
    32
  0
VERTEX
  5
1161A
330
115DD
100
AcDbEntity
  8
0部品9
  6
中線
 48
0.5
370
    30
100
AcDbVertex
100
AcDb3dPolylineVertex
 10
5138.657753555446
 20
1465.10971392797
 30
0.0
 70
    32
  0
VERTEX
  5
1161B
330
115DD
100
AcDbEntity
  8
0部品9
  6
中線
 48
0.5
370
    30
100
AcDbVertex
100
AcDb3dPolylineVertex
 10
5138.668753555446
 20
1465.18771392797
 30
0.0
 70
    32
  0
VERTEX
  5
1161C
330
115DD
100
AcDbEntity
  8
0部品9
  6
中線
 48
0.5
370
    30
100
AcDbVertex
100
AcDb3dPolylineVertex
 10
5138.679753555447
 20
1465.26671392797
 30
0.0
 70
    32
  0
VERTEX
  5
1161D
330
115DD
100
AcDbEntity
  8
0部品9
  6
中線
 48
0.5
370
    30
100
AcDbVertex
100
AcDb3dPolylineVertex
 10
5138.689753555446
 20
1465.34471392797
 30
0.0
 70
    32
  0
VERTEX
  5
1161E
330
115DD
100
AcDbEntity
  8
0部品9
  6
中線
 48
0.5
370
    30
100
AcDbVertex
100
AcDb3dPolylineVertex
 10
5138.698753555446
 20
1465.42371392797
 30
0.0
 70
    32
  0
VERTEX
  5
1161F
330
115DD
100
AcDbEntity
  8
0部品9
  6
中線
 48
0.5
370
    30
100
AcDbVertex
100
AcDb3dPolylineVertex
 10
5138.707753555446
 20
1465.50271392797
 30
0.0
 70
    32
  0
VERTEX
  5
11620
330
115DD
100
AcDbEntity
  8
0部品9
  6
中線
 48
0.5
370
    30
100
AcDbVertex
100
AcDb3dPolylineVertex
 10
5138.716753555446
 20
1465.58071392797
 30
0.0
 70
    32
  0
VERTEX
  5
11621
330
115DD
100
AcDbEntity
  8
0部品9
  6
中線
 48
0.5
370
    30
100
AcDbVertex
100
AcDb3dPolylineVertex
 10
5138.724753555447
 20
1465.65971392797
 30
0.0
 70
    32
  0
VERTEX
  5
11622
330
115DD
100
AcDbEntity
  8
0部品9
  6
中線
 48
0.5
370
    30
100
AcDbVertex
100
AcDb3dPolylineVertex
 10
5138.731753555446
 20
1465.73771392797
 30
0.0
 70
    32
  0
VERTEX
  5
11623
330
115DD
100
AcDbEntity
  8
0部品9
  6
中線
 48
0.5
370
    30
100
AcDbVertex
100
AcDb3dPolylineVertex
 10
5138.738753555447
 20
1465.81671392797
 30
0.0
 70
    32
  0
VERTEX
  5
11624
330
115DD
100
AcDbEntity
  8
0部品9
  6
中線
 48
0.5
370
    30
100
AcDbVertex
100
AcDb3dPolylineVertex
 10
5138.744753555446
 20
1465.89571392797
 30
0.0
 70
    32
  0
VERTEX
  5
11625
330
115DD
100
AcDbEntity
  8
0部品9
  6
中線
 48
0.5
370
    30
100
AcDbVertex
100
AcDb3dPolylineVertex
 10
5138.750753555446
 20
1465.97371392797
 30
0.0
 70
    32
  0
VERTEX
  5
11626
330
115DD
100
AcDbEntity
  8
0部品9
  6
中線
 48
0.5
370
    30
100
AcDbVertex
100
AcDb3dPolylineVertex
 10
5138.755753555447
 20
1466.05271392797
 30
0.0
 70
    32
  0
VERTEX
  5
11627
330
115DD
100
AcDbEntity
  8
0部品9
  6
中線
 48
0.5
370
    30
100
AcDbVertex
100
AcDb3dPolylineVertex
 10
5138.759753555446
 20
1466.13171392797
 30
0.0
 70
    32
  0
VERTEX
  5
11628
330
115DD
100
AcDbEntity
  8
0部品9
  6
中線
 48
0.5
370
    30
100
AcDbVertex
100
AcDb3dPolylineVertex
 10
5138.763753555446
 20
1466.20971392797
 30
0.0
 70
    32
  0
VERTEX
  5
11629
330
115DD
100
AcDbEntity
  8
0部品9
  6
中線
 48
0.5
370
    30
100
AcDbVertex
100
AcDb3dPolylineVertex
 10
5138.766753555445
 20
1466.28871392797
 30
0.0
 70
    32
  0
VERTEX
  5
1162A
330
115DD
100
AcDbEntity
  8
0部品9
  6
中線
 48
0.5
370
    30
100
AcDbVertex
100
AcDb3dPolylineVertex
 10
5138.769753555447
 20
1466.36671392797
 30
0.0
 70
    32
  0
VERTEX
  5
1162B
330
115DD
100
AcDbEntity
  8
0部品9
  6
中線
 48
0.5
370
    30
100
AcDbVertex
100
AcDb3dPolylineVertex
 10
5138.771753555445
 20
1466.44571392797
 30
0.0
 70
    32
  0
VERTEX
  5
1162C
330
115DD
100
AcDbEntity
  8
0部品9
  6
中線
 48
0.5
370
    30
100
AcDbVertex
100
AcDb3dPolylineVertex
 10
5138.772753555446
 20
1466.52471392797
 30
0.0
 70
    32
  0
VERTEX
  5
1162D
330
115DD
100
AcDbEntity
  8
0部品9
  6
中線
 48
0.5
370
    30
100
AcDbVertex
100
AcDb3dPolylineVertex
 10
5138.773753555446
 20
1466.60271392797
 30
0.0
 70
    32
  0
VERTEX
  5
1162E
330
115DD
100
AcDbEntity
  8
0部品9
  6
中線
 48
0.5
370
    30
100
AcDbVertex
100
AcDb3dPolylineVertex
 10
5138.773753555446
 20
1466.68171392797
 30
0.0
 70
    32
  0
VERTEX
  5
1162F
330
115DD
100
AcDbEntity
  8
0部品9
  6
中線
 48
0.5
370
    30
100
AcDbVertex
100
AcDb3dPolylineVertex
 10
5138.772753555446
 20
1466.75971392797
 30
0.0
 70
    32
  0
VERTEX
  5
11630
330
115DD
100
AcDbEntity
  8
0部品9
  6
中線
 48
0.5
370
    30
100
AcDbVertex
100
AcDb3dPolylineVertex
 10
5138.771753555445
 20
1466.83871392797
 30
0.0
 70
    32
  0
VERTEX
  5
11631
330
115DD
100
AcDbEntity
  8
0部品9
  6
中線
 48
0.5
370
    30
100
AcDbVertex
100
AcDb3dPolylineVertex
 10
5138.769753555447
 20
1466.91771392797
 30
0.0
 70
    32
  0
VERTEX
  5
11632
330
115DD
100
AcDbEntity
  8
0部品9
  6
中線
 48
0.5
370
    30
100
AcDbVertex
100
AcDb3dPolylineVertex
 10
5138.766753555445
 20
1466.99571392797
 30
0.0
 70
    32
  0
VERTEX
  5
11633
330
115DD
100
AcDbEntity
  8
0部品9
  6
中線
 48
0.5
370
    30
100
AcDbVertex
100
AcDb3dPolylineVertex
 10
5138.763753555446
 20
1467.07471392797
 30
0.0
 70
    32
  0
VERTEX
  5
11634
330
115DD
100
AcDbEntity
  8
0部品9
  6
中線
 48
0.5
370
    30
100
AcDbVertex
100
AcDb3dPolylineVertex
 10
5138.759753555446
 20
1467.15371392797
 30
0.0
 70
    32
  0
VERTEX
  5
11635
330
115DD
100
AcDbEntity
  8
0部品9
  6
中線
 48
0.5
370
    30
100
AcDbVertex
100
AcDb3dPolylineVertex
 10
5138.755753555447
 20
1467.23171392797
 30
0.0
 70
    32
  0
VERTEX
  5
11636
330
115DD
100
AcDbEntity
  8
0部品9
  6
中線
 48
0.5
370
    30
100
AcDbVertex
100
AcDb3dPolylineVertex
 10
5138.750753555446
 20
1467.31071392797
 30
0.0
 70
    32
  0
VERTEX
  5
11637
330
115DD
100
AcDbEntity
  8
0部品9
  6
中線
 48
0.5
370
    30
100
AcDbVertex
100
AcDb3dPolylineVertex
 10
5138.744753555446
 20
1467.38871392797
 30
0.0
 70
    32
  0
VERTEX
  5
11638
330
115DD
100
AcDbEntity
  8
0部品9
  6
中線
 48
0.5
370
    30
100
AcDbVertex
100
AcDb3dPolylineVertex
 10
5138.738753555447
 20
1467.46771392797
 30
0.0
 70
    32
  0
VERTEX
  5
11639
330
115DD
100
AcDbEntity
  8
0部品9
  6
中線
 48
0.5
370
    30
100
AcDbVertex
100
AcDb3dPolylineVertex
 10
5138.731753555446
 20
1467.54671392797
 30
0.0
 70
    32
  0
VERTEX
  5
1163A
330
115DD
100
AcDbEntity
  8
0部品9
  6
中線
 48
0.5
370
    30
100
AcDbVertex
100
AcDb3dPolylineVertex
 10
5138.724753555447
 20
1467.62471392797
 30
0.0
 70
    32
  0
VERTEX
  5
1163B
330
115DD
100
AcDbEntity
  8
0部品9
  6
中線
 48
0.5
370
    30
100
AcDbVertex
100
AcDb3dPolylineVertex
 10
5138.716753555446
 20
1467.70371392797
 30
0.0
 70
    32
  0
VERTEX
  5
1163C
330
115DD
100
AcDbEntity
  8
0部品9
  6
中線
 48
0.5
370
    30
100
AcDbVertex
100
AcDb3dPolylineVertex
 10
5138.707753555446
 20
1467.78171392797
 30
0.0
 70
    32
  0
VERTEX
  5
1163D
330
115DD
100
AcDbEntity
  8
0部品9
  6
中線
 48
0.5
370
    30
100
AcDbVertex
100
AcDb3dPolylineVertex
 10
5138.698753555446
 20
1467.86071392797
 30
0.0
 70
    32
  0
VERTEX
  5
1163E
330
115DD
100
AcDbEntity
  8
0部品9
  6
中線
 48
0.5
370
    30
100
AcDbVertex
100
AcDb3dPolylineVertex
 10
5138.689753555446
 20
1467.93971392797
 30
0.0
 70
    32
  0
VERTEX
  5
1163F
330
115DD
100
AcDbEntity
  8
0部品9
  6
中線
 48
0.5
370
    30
100
AcDbVertex
100
AcDb3dPolylineVertex
 10
5138.679753555447
 20
1468.01771392797
 30
0.0
 70
    32
  0
VERTEX
  5
11640
330
115DD
100
AcDbEntity
  8
0部品9
  6
中線
 48
0.5
370
    30
100
AcDbVertex
100
AcDb3dPolylineVertex
 10
5138.668753555446
 20
1468.09671392797
 30
0.0
 70
    32
  0
VERTEX
  5
11641
330
115DD
100
AcDbEntity
  8
0部品9
  6
中線
 48
0.5
370
    30
100
AcDbVertex
100
AcDb3dPolylineVertex
 10
5138.657753555446
 20
1468.17571392797
 30
0.0
 70
    32
  0
VERTEX
  5
11642
330
115DD
100
AcDbEntity
  8
0部品9
  6
中線
 48
0.5
370
    30
100
AcDbVertex
100
AcDb3dPolylineVertex
 10
5138.645753555445
 20
1468.25371392797
 30
0.0
 70
    32
  0
VERTEX
  5
11643
330
115DD
100
AcDbEntity
  8
0部品9
  6
中線
 48
0.5
370
    30
100
AcDbVertex
100
AcDb3dPolylineVertex
 10
5138.633753555446
 20
1468.33271392797
 30
0.0
 70
    32
  0
VERTEX
  5
11644
330
115DD
100
AcDbEntity
  8
0部品9
  6
中線
 48
0.5
370
    30
100
AcDbVertex
100
AcDb3dPolylineVertex
 10
5138.621753555447
 20
1468.41071392797
 30
0.0
 70
    32
  0
VERTEX
  5
11645
330
115DD
100
AcDbEntity
  8
0部品9
  6
中線
 48
0.5
370
    30
100
AcDbVertex
100
AcDb3dPolylineVertex
 10
5138.607753555446
 20
1468.48971392797
 30
0.0
 70
    32
  0
VERTEX
  5
11646
330
115DD
100
AcDbEntity
  8
0部品9
  6
中線
 48
0.5
370
    30
100
AcDbVertex
100
AcDb3dPolylineVertex
 10
5138.594753555446
 20
1468.56871392797
 30
0.0
 70
    32
  0
VERTEX
  5
11647
330
115DD
100
AcDbEntity
  8
0部品9
  6
中線
 48
0.5
370
    30
100
AcDbVertex
100
AcDb3dPolylineVertex
 10
5138.580753555446
 20
1468.64671392797
 30
0.0
 70
    32
  0
VERTEX
  5
11648
330
115DD
100
AcDbEntity
  8
0部品9
  6
中線
 48
0.5
370
    30
100
AcDbVertex
100
AcDb3dPolylineVertex
 10
5138.565753555446
 20
1468.72571392797
 30
0.0
 70
    32
  0
VERTEX
  5
11649
330
115DD
100
AcDbEntity
  8
0部品9
  6
中線
 48
0.5
370
    30
100
AcDbVertex
100
AcDb3dPolylineVertex
 10
5138.551753555446
 20
1468.80371392797
 30
0.0
 70
    32
  0
VERTEX
  5
1164A
330
115DD
100
AcDbEntity
  8
0部品9
  6
中線
 48
0.5
370
    30
100
AcDbVertex
100
AcDb3dPolylineVertex
 10
5138.535753555446
 20
1468.88271392797
 30
0.0
 70
    32
  0
VERTEX
  5
1164B
330
115DD
100
AcDbEntity
  8
0部品9
  6
中線
 48
0.5
370
    30
100
AcDbVertex
100
AcDb3dPolylineVertex
 10
5138.519753555446
 20
1468.96171392797
 30
0.0
 70
    32
  0
VERTEX
  5
1164C
330
115DD
100
AcDbEntity
  8
0部品9
  6
中線
 48
0.5
370
    30
100
AcDbVertex
100
AcDb3dPolylineVertex
 10
5138.503753555446
 20
1469.03971392797
 30
0.0
 70
    32
  0
VERTEX
  5
1164D
330
115DD
100
AcDbEntity
  8
0部品9
  6
中線
 48
0.5
370
    30
100
AcDbVertex
100
AcDb3dPolylineVertex
 10
5138.487753555446
 20
1469.11871392797
 30
0.0
 70
    32
  0
VERTEX
  5
1164E
330
115DD
100
AcDbEntity
  8
0部品9
  6
中線
 48
0.5
370
    30
100
AcDbVertex
100
AcDb3dPolylineVertex
 10
5138.470753555446
 20
1469.19771392797
 30
0.0
 70
    32
  0
VERTEX
  5
1164F
330
115DD
100
AcDbEntity
  8
0部品9
  6
中線
 48
0.5
370
    30
100
AcDbVertex
100
AcDb3dPolylineVertex
 10
5138.452753555446
 20
1469.27571392797
 30
0.0
 70
    32
  0
VERTEX
  5
11650
330
115DD
100
AcDbEntity
  8
0部品9
  6
中線
 48
0.5
370
    30
100
AcDbVertex
100
AcDb3dPolylineVertex
 10
5138.435753555445
 20
1469.35471392797
 30
0.0
 70
    32
  0
VERTEX
  5
11651
330
115DD
100
AcDbEntity
  8
0部品9
  6
中線
 48
0.5
370
    30
100
AcDbVertex
100
AcDb3dPolylineVertex
 10
5138.416753555446
 20
1469.43271392797
 30
0.0
 70
    32
  0
VERTEX
  5
11652
330
115DD
100
AcDbEntity
  8
0部品9
  6
中線
 48
0.5
370
    30
100
AcDbVertex
100
AcDb3dPolylineVertex
 10
5138.398753555446
 20
1469.51171392797
 30
0.0
 70
    32
  0
VERTEX
  5
11653
330
115DD
100
AcDbEntity
  8
0部品9
  6
中線
 48
0.5
370
    30
100
AcDbVertex
100
AcDb3dPolylineVertex
 10
5138.379753555446
 20
1469.59071392797
 30
0.0
 70
    32
  0
VERTEX
  5
11654
330
115DD
100
AcDbEntity
  8
0部品9
  6
中線
 48
0.5
370
    30
100
AcDbVertex
100
AcDb3dPolylineVertex
 10
5138.360753555446
 20
1469.66871392797
 30
0.0
 70
    32
  0
VERTEX
  5
11655
330
115DD
100
AcDbEntity
  8
0部品9
  6
中線
 48
0.5
370
    30
100
AcDbVertex
100
AcDb3dPolylineVertex
 10
5138.340753555446
 20
1469.74771392797
 30
0.0
 70
    32
  0
VERTEX
  5
11656
330
115DD
100
AcDbEntity
  8
0部品9
  6
中線
 48
0.5
370
    30
100
AcDbVertex
100
AcDb3dPolylineVertex
 10
5138.320753555445
 20
1469.82571392797
 30
0.0
 70
    32
  0
VERTEX
  5
11657
330
115DD
100
AcDbEntity
  8
0部品9
  6
中線
 48
0.5
370
    30
100
AcDbVertex
100
AcDb3dPolylineVertex
 10
5138.300753555446
 20
1469.90471392797
 30
0.0
 70
    32
  0
VERTEX
  5
11658
330
115DD
100
AcDbEntity
  8
0部品9
  6
中線
 48
0.5
370
    30
100
AcDbVertex
100
AcDb3dPolylineVertex
 10
5138.280753555445
 20
1469.98371392797
 30
0.0
 70
    32
  0
VERTEX
  5
11659
330
115DD
100
AcDbEntity
  8
0部品9
  6
中線
 48
0.5
370
    30
100
AcDbVertex
100
AcDb3dPolylineVertex
 10
5138.259753555446
 20
1470.06171392797
 30
0.0
 70
    32
  0
VERTEX
  5
1165A
330
115DD
100
AcDbEntity
  8
0部品9
  6
中線
 48
0.5
370
    30
100
AcDbVertex
100
AcDb3dPolylineVertex
 10
5138.238753555446
 20
1470.14071392797
 30
0.0
 70
    32
  0
VERTEX
  5
1165B
330
115DD
100
AcDbEntity
  8
0部品9
  6
中線
 48
0.5
370
    30
100
AcDbVertex
100
AcDb3dPolylineVertex
 10
5138.216753555446
 20
1470.21971392797
 30
0.0
 70
    32
  0
VERTEX
  5
1165C
330
115DD
100
AcDbEntity
  8
0部品9
  6
中線
 48
0.5
370
    30
100
AcDbVertex
100
AcDb3dPolylineVertex
 10
5138.195753555446
 20
1470.29771392797
 30
0.0
 70
    32
  0
VERTEX
  5
1165D
330
115DD
100
AcDbEntity
  8
0部品9
  6
中線
 48
0.5
370
    30
100
AcDbVertex
100
AcDb3dPolylineVertex
 10
5138.173753555445
 20
1470.37671392797
 30
0.0
 70
    32
  0
VERTEX
  5
1165E
330
115DD
100
AcDbEntity
  8
0部品9
  6
中線
 48
0.5
370
    30
100
AcDbVertex
100
AcDb3dPolylineVertex
 10
5138.150753555446
 20
1470.45471392797
 30
0.0
 70
    32
  0
VERTEX
  5
1165F
330
115DD
100
AcDbEntity
  8
0部品9
  6
中線
 48
0.5
370
    30
100
AcDbVertex
100
AcDb3dPolylineVertex
 10
5138.128753555445
 20
1470.53371392797
 30
0.0
 70
    32
  0
VERTEX
  5
11660
330
115DD
100
AcDbEntity
  8
0部品9
  6
中線
 48
0.5
370
    30
100
AcDbVertex
100
AcDb3dPolylineVertex
 10
5138.105753555445
 20
1470.61271392797
 30
0.0
 70
    32
  0
VERTEX
  5
11661
330
115DD
100
AcDbEntity
  8
0部品9
  6
中線
 48
0.5
370
    30
100
AcDbVertex
100
AcDb3dPolylineVertex
 10
5138.082753555447
 20
1470.69071392797
 30
0.0
 70
    32
  0
VERTEX
  5
11662
330
115DD
100
AcDbEntity
  8
0部品9
  6
中線
 48
0.5
370
    30
100
AcDbVertex
100
AcDb3dPolylineVertex
 10
5138.059753555446
 20
1470.76971392797
 30
0.0
 70
    32
  0
VERTEX
  5
11663
330
115DD
100
AcDbEntity
  8
0部品9
  6
中線
 48
0.5
370
    30
100
AcDbVertex
100
AcDb3dPolylineVertex
 10
5138.035753555445
 20
1470.84771392797
 30
0.0
 70
    32
  0
VERTEX
  5
11664
330
115DD
100
AcDbEntity
  8
0部品9
  6
中線
 48
0.5
370
    30
100
AcDbVertex
100
AcDb3dPolylineVertex
 10
5138.011753555446
 20
1470.92671392797
 30
0.0
 70
    32
  0
VERTEX
  5
11665
330
115DD
100
AcDbEntity
  8
0部品9
  6
中線
 48
0.5
370
    30
100
AcDbVertex
100
AcDb3dPolylineVertex
 10
5137.988753555447
 20
1471.00571392797
 30
0.0
 70
    32
  0
VERTEX
  5
11666
330
115DD
100
AcDbEntity
  8
0部品9
  6
中線
 48
0.5
370
    30
100
AcDbVertex
100
AcDb3dPolylineVertex
 10
5137.963753555446
 20
1471.08371392797
 30
0.0
 70
    32
  0
VERTEX
  5
11667
330
115DD
100
AcDbEntity
  8
0部品9
  6
中線
 48
0.5
370
    30
100
AcDbVertex
100
AcDb3dPolylineVertex
 10
5137.939753555446
 20
1471.16271392797
 30
0.0
 70
    32
  0
VERTEX
  5
11668
330
115DD
100
AcDbEntity
  8
0部品9
  6
中線
 48
0.5
370
    30
100
AcDbVertex
100
AcDb3dPolylineVertex
 10
5137.915753555446
 20
1471.24171392797
 30
0.0
 70
    32
  0
VERTEX
  5
11669
330
115DD
100
AcDbEntity
  8
0部品9
  6
中線
 48
0.5
370
    30
100
AcDbVertex
100
AcDb3dPolylineVertex
 10
5137.890753555446
 20
1471.31971392797
 30
0.0
 70
    32
  0
VERTEX
  5
1166A
330
115DD
100
AcDbEntity
  8
0部品9
  6
中線
 48
0.5
370
    30
100
AcDbVertex
100
AcDb3dPolylineVertex
 10
5137.865753555446
 20
1471.39871392797
 30
0.0
 70
    32
  0
VERTEX
  5
1166B
330
115DD
100
AcDbEntity
  8
0部品9
  6
中線
 48
0.5
370
    30
100
AcDbVertex
100
AcDb3dPolylineVertex
 10
5137.840753555446
 20
1471.47671392797
 30
0.0
 70
    32
  0
VERTEX
  5
1166C
330
115DD
100
AcDbEntity
  8
0部品9
  6
中線
 48
0.5
370
    30
100
AcDbVertex
100
AcDb3dPolylineVertex
 10
5137.815753555446
 20
1471.55571392797
 30
0.0
 70
    32
  0
VERTEX
  5
1166D
330
115DD
100
AcDbEntity
  8
0部品9
  6
中線
 48
0.5
370
    30
100
AcDbVertex
100
AcDb3dPolylineVertex
 10
5137.790753555446
 20
1471.63471392797
 30
0.0
 70
    32
  0
VERTEX
  5
1166E
330
115DD
100
AcDbEntity
  8
0部品9
  6
中線
 48
0.5
370
    30
100
AcDbVertex
100
AcDb3dPolylineVertex
 10
5137.764753555446
 20
1471.71271392797
 30
0.0
 70
    32
  0
VERTEX
  5
1166F
330
115DD
100
AcDbEntity
  8
0部品9
  6
中線
 48
0.5
370
    30
100
AcDbVertex
100
AcDb3dPolylineVertex
 10
5137.739753555446
 20
1471.79171392797
 30
0.0
 70
    32
  0
VERTEX
  5
11670
330
115DD
100
AcDbEntity
  8
0部品9
  6
中線
 48
0.5
370
    30
100
AcDbVertex
100
AcDb3dPolylineVertex
 10
5137.713753555446
 20
1471.87071392797
 30
0.0
 70
    32
  0
VERTEX
  5
11671
330
115DD
100
AcDbEntity
  8
0部品9
  6
中線
 48
0.5
370
    30
100
AcDbVertex
100
AcDb3dPolylineVertex
 10
5137.687753555446
 20
1471.94871392797
 30
0.0
 70
    32
  0
VERTEX
  5
11672
330
115DD
100
AcDbEntity
  8
0部品9
  6
中線
 48
0.5
370
    30
100
AcDbVertex
100
AcDb3dPolylineVertex
 10
5137.662753555446
 20
1472.02771392797
 30
0.0
 70
    32
  0
VERTEX
  5
11673
330
115DD
100
AcDbEntity
  8
0部品9
  6
中線
 48
0.5
370
    30
100
AcDbVertex
100
AcDb3dPolylineVertex
 10
5137.636753555446
 20
1472.10571392797
 30
0.0
 70
    32
  0
VERTEX
  5
11674
330
115DD
100
AcDbEntity
  8
0部品9
  6
中線
 48
0.5
370
    30
100
AcDbVertex
100
AcDb3dPolylineVertex
 10
5137.610753555446
 20
1472.18471392797
 30
0.0
 70
    32
  0
VERTEX
  5
11675
330
115DD
100
AcDbEntity
  8
0部品9
  6
中線
 48
0.5
370
    30
100
AcDbVertex
100
AcDb3dPolylineVertex
 10
5137.583753555446
 20
1472.26371392797
 30
0.0
 70
    32
  0
VERTEX
  5
11676
330
115DD
100
AcDbEntity
  8
0部品9
  6
中線
 48
0.5
370
    30
100
AcDbVertex
100
AcDb3dPolylineVertex
 10
5137.557753555445
 20
1472.34171392797
 30
0.0
 70
    32
  0
VERTEX
  5
11677
330
115DD
100
AcDbEntity
  8
0部品9
  6
中線
 48
0.5
370
    30
100
AcDbVertex
100
AcDb3dPolylineVertex
 10
5137.531753555446
 20
1472.42071392797
 30
0.0
 70
    32
  0
VERTEX
  5
11678
330
115DD
100
AcDbEntity
  8
0部品9
  6
中線
 48
0.5
370
    30
100
AcDbVertex
100
AcDb3dPolylineVertex
 10
5137.505753555446
 20
1472.49871392797
 30
0.0
 70
    32
  0
VERTEX
  5
11679
330
115DD
100
AcDbEntity
  8
0部品9
  6
中線
 48
0.5
370
    30
100
AcDbVertex
100
AcDb3dPolylineVertex
 10
5137.478753555446
 20
1472.57771392797
 30
0.0
 70
    32
  0
VERTEX
  5
1167A
330
115DD
100
AcDbEntity
  8
0部品9
  6
中線
 48
0.5
370
    30
100
AcDbVertex
100
AcDb3dPolylineVertex
 10
5137.452753555447
 20
1472.65671392797
 30
0.0
 70
    32
  0
VERTEX
  5
1167B
330
115DD
100
AcDbEntity
  8
0部品9
  6
中線
 48
0.5
370
    30
100
AcDbVertex
100
AcDb3dPolylineVertex
 10
5137.426753555445
 20
1472.73471392797
 30
0.0
 70
    32
  0
VERTEX
  5
1167C
330
115DD
100
AcDbEntity
  8
0部品9
  6
中線
 48
0.5
370
    30
100
AcDbVertex
100
AcDb3dPolylineVertex
 10
5137.399753555446
 20
1472.81371392797
 30
0.0
 70
    32
  0
VERTEX
  5
1167D
330
115DD
100
AcDbEntity
  8
0部品9
  6
中線
 48
0.5
370
    30
100
AcDbVertex
100
AcDb3dPolylineVertex
 10
5137.373753555445
 20
1472.89271392797
 30
0.0
 70
    32
  0
SEQEND
  5
1167E
330
115DD
100
AcDbEntity
  8
0部品9
  6
中線
 48
0.5
370
    30
  0
POLYLINE
  5
1167F
330
1F
100
AcDbEntity
  8
0部品9
  6
中線
 48
0.5
370
    30
100
AcDb3dPolyline
 66
     1
 10
0.0
 20
0.0
 30
0.0
 70
     8
  0
VERTEX
  5
11680
330
1167F
100
AcDbEntity
  8
0部品9
  6
中線
 48
0.5
370
    30
100
AcDbVertex
100
AcDb3dPolylineVertex
 10
5137.373753555445
 20
1521.512713102206
 30
0.0
 70
    32
  0
VERTEX
  5
11681
330
1167F
100
AcDbEntity
  8
0部品9
  6
中線
 48
0.5
370
    30
100
AcDbVertex
100
AcDb3dPolylineVertex
 10
5137.399753555446
 20
1521.590713102206
 30
0.0
 70
    32
  0
VERTEX
  5
11682
330
1167F
100
AcDbEntity
  8
0部品9
  6
中線
 48
0.5
370
    30
100
AcDbVertex
100
AcDb3dPolylineVertex
 10
5137.426753555445
 20
1521.669713102206
 30
0.0
 70
    32
  0
VERTEX
  5
11683
330
1167F
100
AcDbEntity
  8
0部品9
  6
中線
 48
0.5
370
    30
100
AcDbVertex
100
AcDb3dPolylineVertex
 10
5137.452753555447
 20
1521.748713102206
 30
0.0
 70
    32
  0
VERTEX
  5
11684
330
1167F
100
AcDbEntity
  8
0部品9
  6
中線
 48
0.5
370
    30
100
AcDbVertex
100
AcDb3dPolylineVertex
 10
5137.478753555446
 20
1521.826713102206
 30
0.0
 70
    32
  0
VERTEX
  5
11685
330
1167F
100
AcDbEntity
  8
0部品9
  6
中線
 48
0.5
370
    30
100
AcDbVertex
100
AcDb3dPolylineVertex
 10
5137.505753555446
 20
1521.905713102206
 30
0.0
 70
    32
  0
VERTEX
  5
11686
330
1167F
100
AcDbEntity
  8
0部品9
  6
中線
 48
0.5
370
    30
100
AcDbVertex
100
AcDb3dPolylineVertex
 10
5137.531753555446
 20
1521.983713102206
 30
0.0
 70
    32
  0
VERTEX
  5
11687
330
1167F
100
AcDbEntity
  8
0部品9
  6
中線
 48
0.5
370
    30
100
AcDbVertex
100
AcDb3dPolylineVertex
 10
5137.557753555445
 20
1522.062713102206
 30
0.0
 70
    32
  0
VERTEX
  5
11688
330
1167F
100
AcDbEntity
  8
0部品9
  6
中線
 48
0.5
370
    30
100
AcDbVertex
100
AcDb3dPolylineVertex
 10
5137.583753555446
 20
1522.141713102206
 30
0.0
 70
    32
  0
VERTEX
  5
11689
330
1167F
100
AcDbEntity
  8
0部品9
  6
中線
 48
0.5
370
    30
100
AcDbVertex
100
AcDb3dPolylineVertex
 10
5137.610753555446
 20
1522.219713102206
 30
0.0
 70
    32
  0
VERTEX
  5
1168A
330
1167F
100
AcDbEntity
  8
0部品9
  6
中線
 48
0.5
370
    30
100
AcDbVertex
100
AcDb3dPolylineVertex
 10
5137.636753555446
 20
1522.298713102206
 30
0.0
 70
    32
  0
VERTEX
  5
1168B
330
1167F
100
AcDbEntity
  8
0部品9
  6
中線
 48
0.5
370
    30
100
AcDbVertex
100
AcDb3dPolylineVertex
 10
5137.662753555446
 20
1522.377713102206
 30
0.0
 70
    32
  0
VERTEX
  5
1168C
330
1167F
100
AcDbEntity
  8
0部品9
  6
中線
 48
0.5
370
    30
100
AcDbVertex
100
AcDb3dPolylineVertex
 10
5137.687753555446
 20
1522.455713102206
 30
0.0
 70
    32
  0
VERTEX
  5
1168D
330
1167F
100
AcDbEntity
  8
0部品9
  6
中線
 48
0.5
370
    30
100
AcDbVertex
100
AcDb3dPolylineVertex
 10
5137.713753555446
 20
1522.534713102206
 30
0.0
 70
    32
  0
VERTEX
  5
1168E
330
1167F
100
AcDbEntity
  8
0部品9
  6
中線
 48
0.5
370
    30
100
AcDbVertex
100
AcDb3dPolylineVertex
 10
5137.739753555446
 20
1522.612713102206
 30
0.0
 70
    32
  0
VERTEX
  5
1168F
330
1167F
100
AcDbEntity
  8
0部品9
  6
中線
 48
0.5
370
    30
100
AcDbVertex
100
AcDb3dPolylineVertex
 10
5137.764753555446
 20
1522.691713102206
 30
0.0
 70
    32
  0
VERTEX
  5
11690
330
1167F
100
AcDbEntity
  8
0部品9
  6
中線
 48
0.5
370
    30
100
AcDbVertex
100
AcDb3dPolylineVertex
 10
5137.790753555446
 20
1522.770713102206
 30
0.0
 70
    32
  0
VERTEX
  5
11691
330
1167F
100
AcDbEntity
  8
0部品9
  6
中線
 48
0.5
370
    30
100
AcDbVertex
100
AcDb3dPolylineVertex
 10
5137.815753555446
 20
1522.848713102206
 30
0.0
 70
    32
  0
VERTEX
  5
11692
330
1167F
100
AcDbEntity
  8
0部品9
  6
中線
 48
0.5
370
    30
100
AcDbVertex
100
AcDb3dPolylineVertex
 10
5137.840753555446
 20
1522.927713102206
 30
0.0
 70
    32
  0
VERTEX
  5
11693
330
1167F
100
AcDbEntity
  8
0部品9
  6
中線
 48
0.5
370
    30
100
AcDbVertex
100
AcDb3dPolylineVertex
 10
5137.865753555446
 20
1523.005713102206
 30
0.0
 70
    32
  0
VERTEX
  5
11694
330
1167F
100
AcDbEntity
  8
0部品9
  6
中線
 48
0.5
370
    30
100
AcDbVertex
100
AcDb3dPolylineVertex
 10
5137.890753555446
 20
1523.084713102206
 30
0.0
 70
    32
  0
VERTEX
  5
11695
330
1167F
100
AcDbEntity
  8
0部品9
  6
中線
 48
0.5
370
    30
100
AcDbVertex
100
AcDb3dPolylineVertex
 10
5137.915753555446
 20
1523.163713102206
 30
0.0
 70
    32
  0
VERTEX
  5
11696
330
1167F
100
AcDbEntity
  8
0部品9
  6
中線
 48
0.5
370
    30
100
AcDbVertex
100
AcDb3dPolylineVertex
 10
5137.939753555446
 20
1523.241713102206
 30
0.0
 70
    32
  0
VERTEX
  5
11697
330
1167F
100
AcDbEntity
  8
0部品9
  6
中線
 48
0.5
370
    30
100
AcDbVertex
100
AcDb3dPolylineVertex
 10
5137.963753555446
 20
1523.320713102206
 30
0.0
 70
    32
  0
VERTEX
  5
11698
330
1167F
100
AcDbEntity
  8
0部品9
  6
中線
 48
0.5
370
    30
100
AcDbVertex
100
AcDb3dPolylineVertex
 10
5137.988753555447
 20
1523.399713102206
 30
0.0
 70
    32
  0
VERTEX
  5
11699
330
1167F
100
AcDbEntity
  8
0部品9
  6
中線
 48
0.5
370
    30
100
AcDbVertex
100
AcDb3dPolylineVertex
 10
5138.011753555446
 20
1523.477713102206
 30
0.0
 70
    32
  0
VERTEX
  5
1169A
330
1167F
100
AcDbEntity
  8
0部品9
  6
中線
 48
0.5
370
    30
100
AcDbVertex
100
AcDb3dPolylineVertex
 10
5138.035753555445
 20
1523.556713102206
 30
0.0
 70
    32
  0
VERTEX
  5
1169B
330
1167F
100
AcDbEntity
  8
0部品9
  6
中線
 48
0.5
370
    30
100
AcDbVertex
100
AcDb3dPolylineVertex
 10
5138.059753555446
 20
1523.634713102206
 30
0.0
 70
    32
  0
VERTEX
  5
1169C
330
1167F
100
AcDbEntity
  8
0部品9
  6
中線
 48
0.5
370
    30
100
AcDbVertex
100
AcDb3dPolylineVertex
 10
5138.082753555447
 20
1523.713713102206
 30
0.0
 70
    32
  0
VERTEX
  5
1169D
330
1167F
100
AcDbEntity
  8
0部品9
  6
中線
 48
0.5
370
    30
100
AcDbVertex
100
AcDb3dPolylineVertex
 10
5138.105753555445
 20
1523.792713102206
 30
0.0
 70
    32
  0
VERTEX
  5
1169E
330
1167F
100
AcDbEntity
  8
0部品9
  6
中線
 48
0.5
370
    30
100
AcDbVertex
100
AcDb3dPolylineVertex
 10
5138.128753555445
 20
1523.870713102206
 30
0.0
 70
    32
  0
VERTEX
  5
1169F
330
1167F
100
AcDbEntity
  8
0部品9
  6
中線
 48
0.5
370
    30
100
AcDbVertex
100
AcDb3dPolylineVertex
 10
5138.150753555446
 20
1523.949713102206
 30
0.0
 70
    32
  0
VERTEX
  5
116A0
330
1167F
100
AcDbEntity
  8
0部品9
  6
中線
 48
0.5
370
    30
100
AcDbVertex
100
AcDb3dPolylineVertex
 10
5138.173753555445
 20
1524.027713102206
 30
0.0
 70
    32
  0
VERTEX
  5
116A1
330
1167F
100
AcDbEntity
  8
0部品9
  6
中線
 48
0.5
370
    30
100
AcDbVertex
100
AcDb3dPolylineVertex
 10
5138.195753555446
 20
1524.106713102206
 30
0.0
 70
    32
  0
VERTEX
  5
116A2
330
1167F
100
AcDbEntity
  8
0部品9
  6
中線
 48
0.5
370
    30
100
AcDbVertex
100
AcDb3dPolylineVertex
 10
5138.216753555446
 20
1524.185713102206
 30
0.0
 70
    32
  0
VERTEX
  5
116A3
330
1167F
100
AcDbEntity
  8
0部品9
  6
中線
 48
0.5
370
    30
100
AcDbVertex
100
AcDb3dPolylineVertex
 10
5138.238753555446
 20
1524.263713102206
 30
0.0
 70
    32
  0
VERTEX
  5
116A4
330
1167F
100
AcDbEntity
  8
0部品9
  6
中線
 48
0.5
370
    30
100
AcDbVertex
100
AcDb3dPolylineVertex
 10
5138.259753555446
 20
1524.342713102206
 30
0.0
 70
    32
  0
VERTEX
  5
116A5
330
1167F
100
AcDbEntity
  8
0部品9
  6
中線
 48
0.5
370
    30
100
AcDbVertex
100
AcDb3dPolylineVertex
 10
5138.280753555445
 20
1524.421713102206
 30
0.0
 70
    32
  0
VERTEX
  5
116A6
330
1167F
100
AcDbEntity
  8
0部品9
  6
中線
 48
0.5
370
    30
100
AcDbVertex
100
AcDb3dPolylineVertex
 10
5138.300753555446
 20
1524.499713102206
 30
0.0
 70
    32
  0
VERTEX
  5
116A7
330
1167F
100
AcDbEntity
  8
0部品9
  6
中線
 48
0.5
370
    30
100
AcDbVertex
100
AcDb3dPolylineVertex
 10
5138.320753555445
 20
1524.578713102206
 30
0.0
 70
    32
  0
VERTEX
  5
116A8
330
1167F
100
AcDbEntity
  8
0部品9
  6
中線
 48
0.5
370
    30
100
AcDbVertex
100
AcDb3dPolylineVertex
 10
5138.340753555446
 20
1524.656713102206
 30
0.0
 70
    32
  0
VERTEX
  5
116A9
330
1167F
100
AcDbEntity
  8
0部品9
  6
中線
 48
0.5
370
    30
100
AcDbVertex
100
AcDb3dPolylineVertex
 10
5138.360753555446
 20
1524.735713102206
 30
0.0
 70
    32
  0
VERTEX
  5
116AA
330
1167F
100
AcDbEntity
  8
0部品9
  6
中線
 48
0.5
370
    30
100
AcDbVertex
100
AcDb3dPolylineVertex
 10
5138.379753555446
 20
1524.814713102206
 30
0.0
 70
    32
  0
VERTEX
  5
116AB
330
1167F
100
AcDbEntity
  8
0部品9
  6
中線
 48
0.5
370
    30
100
AcDbVertex
100
AcDb3dPolylineVertex
 10
5138.398753555446
 20
1524.892713102206
 30
0.0
 70
    32
  0
VERTEX
  5
116AC
330
1167F
100
AcDbEntity
  8
0部品9
  6
中線
 48
0.5
370
    30
100
AcDbVertex
100
AcDb3dPolylineVertex
 10
5138.416753555446
 20
1524.971713102206
 30
0.0
 70
    32
  0
VERTEX
  5
116AD
330
1167F
100
AcDbEntity
  8
0部品9
  6
中線
 48
0.5
370
    30
100
AcDbVertex
100
AcDb3dPolylineVertex
 10
5138.435753555445
 20
1525.049713102206
 30
0.0
 70
    32
  0
VERTEX
  5
116AE
330
1167F
100
AcDbEntity
  8
0部品9
  6
中線
 48
0.5
370
    30
100
AcDbVertex
100
AcDb3dPolylineVertex
 10
5138.452753555446
 20
1525.128713102206
 30
0.0
 70
    32
  0
VERTEX
  5
116AF
330
1167F
100
AcDbEntity
  8
0部品9
  6
中線
 48
0.5
370
    30
100
AcDbVertex
100
AcDb3dPolylineVertex
 10
5138.470753555446
 20
1525.207713102206
 30
0.0
 70
    32
  0
VERTEX
  5
116B0
330
1167F
100
AcDbEntity
  8
0部品9
  6
中線
 48
0.5
370
    30
100
AcDbVertex
100
AcDb3dPolylineVertex
 10
5138.487753555446
 20
1525.285713102206
 30
0.0
 70
    32
  0
VERTEX
  5
116B1
330
1167F
100
AcDbEntity
  8
0部品9
  6
中線
 48
0.5
370
    30
100
AcDbVertex
100
AcDb3dPolylineVertex
 10
5138.503753555446
 20
1525.364713102206
 30
0.0
 70
    32
  0
VERTEX
  5
116B2
330
1167F
100
AcDbEntity
  8
0部品9
  6
中線
 48
0.5
370
    30
100
AcDbVertex
100
AcDb3dPolylineVertex
 10
5138.519753555446
 20
1525.443713102206
 30
0.0
 70
    32
  0
VERTEX
  5
116B3
330
1167F
100
AcDbEntity
  8
0部品9
  6
中線
 48
0.5
370
    30
100
AcDbVertex
100
AcDb3dPolylineVertex
 10
5138.535753555446
 20
1525.521713102206
 30
0.0
 70
    32
  0
VERTEX
  5
116B4
330
1167F
100
AcDbEntity
  8
0部品9
  6
中線
 48
0.5
370
    30
100
AcDbVertex
100
AcDb3dPolylineVertex
 10
5138.551753555446
 20
1525.600713102206
 30
0.0
 70
    32
  0
VERTEX
  5
116B5
330
1167F
100
AcDbEntity
  8
0部品9
  6
中線
 48
0.5
370
    30
100
AcDbVertex
100
AcDb3dPolylineVertex
 10
5138.565753555446
 20
1525.678713102206
 30
0.0
 70
    32
  0
VERTEX
  5
116B6
330
1167F
100
AcDbEntity
  8
0部品9
  6
中線
 48
0.5
370
    30
100
AcDbVertex
100
AcDb3dPolylineVertex
 10
5138.580753555446
 20
1525.757713102206
 30
0.0
 70
    32
  0
VERTEX
  5
116B7
330
1167F
100
AcDbEntity
  8
0部品9
  6
中線
 48
0.5
370
    30
100
AcDbVertex
100
AcDb3dPolylineVertex
 10
5138.594753555446
 20
1525.836713102206
 30
0.0
 70
    32
  0
VERTEX
  5
116B8
330
1167F
100
AcDbEntity
  8
0部品9
  6
中線
 48
0.5
370
    30
100
AcDbVertex
100
AcDb3dPolylineVertex
 10
5138.607753555446
 20
1525.914713102206
 30
0.0
 70
    32
  0
VERTEX
  5
116B9
330
1167F
100
AcDbEntity
  8
0部品9
  6
中線
 48
0.5
370
    30
100
AcDbVertex
100
AcDb3dPolylineVertex
 10
5138.621753555447
 20
1525.993713102206
 30
0.0
 70
    32
  0
VERTEX
  5
116BA
330
1167F
100
AcDbEntity
  8
0部品9
  6
中線
 48
0.5
370
    30
100
AcDbVertex
100
AcDb3dPolylineVertex
 10
5138.633753555446
 20
1526.072713102206
 30
0.0
 70
    32
  0
VERTEX
  5
116BB
330
1167F
100
AcDbEntity
  8
0部品9
  6
中線
 48
0.5
370
    30
100
AcDbVertex
100
AcDb3dPolylineVertex
 10
5138.645753555445
 20
1526.150713102206
 30
0.0
 70
    32
  0
VERTEX
  5
116BC
330
1167F
100
AcDbEntity
  8
0部品9
  6
中線
 48
0.5
370
    30
100
AcDbVertex
100
AcDb3dPolylineVertex
 10
5138.657753555446
 20
1526.229713102206
 30
0.0
 70
    32
  0
VERTEX
  5
116BD
330
1167F
100
AcDbEntity
  8
0部品9
  6
中線
 48
0.5
370
    30
100
AcDbVertex
100
AcDb3dPolylineVertex
 10
5138.668753555446
 20
1526.307713102206
 30
0.0
 70
    32
  0
VERTEX
  5
116BE
330
1167F
100
AcDbEntity
  8
0部品9
  6
中線
 48
0.5
370
    30
100
AcDbVertex
100
AcDb3dPolylineVertex
 10
5138.679753555447
 20
1526.386713102206
 30
0.0
 70
    32
  0
VERTEX
  5
116BF
330
1167F
100
AcDbEntity
  8
0部品9
  6
中線
 48
0.5
370
    30
100
AcDbVertex
100
AcDb3dPolylineVertex
 10
5138.689753555446
 20
1526.465713102206
 30
0.0
 70
    32
  0
VERTEX
  5
116C0
330
1167F
100
AcDbEntity
  8
0部品9
  6
中線
 48
0.5
370
    30
100
AcDbVertex
100
AcDb3dPolylineVertex
 10
5138.698753555446
 20
1526.543713102206
 30
0.0
 70
    32
  0
VERTEX
  5
116C1
330
1167F
100
AcDbEntity
  8
0部品9
  6
中線
 48
0.5
370
    30
100
AcDbVertex
100
AcDb3dPolylineVertex
 10
5138.707753555446
 20
1526.622713102206
 30
0.0
 70
    32
  0
VERTEX
  5
116C2
330
1167F
100
AcDbEntity
  8
0部品9
  6
中線
 48
0.5
370
    30
100
AcDbVertex
100
AcDb3dPolylineVertex
 10
5138.716753555446
 20
1526.700713102206
 30
0.0
 70
    32
  0
VERTEX
  5
116C3
330
1167F
100
AcDbEntity
  8
0部品9
  6
中線
 48
0.5
370
    30
100
AcDbVertex
100
AcDb3dPolylineVertex
 10
5138.724753555447
 20
1526.779713102206
 30
0.0
 70
    32
  0
VERTEX
  5
116C4
330
1167F
100
AcDbEntity
  8
0部品9
  6
中線
 48
0.5
370
    30
100
AcDbVertex
100
AcDb3dPolylineVertex
 10
5138.731753555446
 20
1526.858713102206
 30
0.0
 70
    32
  0
VERTEX
  5
116C5
330
1167F
100
AcDbEntity
  8
0部品9
  6
中線
 48
0.5
370
    30
100
AcDbVertex
100
AcDb3dPolylineVertex
 10
5138.738753555447
 20
1526.936713102206
 30
0.0
 70
    32
  0
VERTEX
  5
116C6
330
1167F
100
AcDbEntity
  8
0部品9
  6
中線
 48
0.5
370
    30
100
AcDbVertex
100
AcDb3dPolylineVertex
 10
5138.744753555446
 20
1527.015713102206
 30
0.0
 70
    32
  0
VERTEX
  5
116C7
330
1167F
100
AcDbEntity
  8
0部品9
  6
中線
 48
0.5
370
    30
100
AcDbVertex
100
AcDb3dPolylineVertex
 10
5138.750753555446
 20
1527.094713102206
 30
0.0
 70
    32
  0
VERTEX
  5
116C8
330
1167F
100
AcDbEntity
  8
0部品9
  6
中線
 48
0.5
370
    30
100
AcDbVertex
100
AcDb3dPolylineVertex
 10
5138.755753555447
 20
1527.172713102206
 30
0.0
 70
    32
  0
VERTEX
  5
116C9
330
1167F
100
AcDbEntity
  8
0部品9
  6
中線
 48
0.5
370
    30
100
AcDbVertex
100
AcDb3dPolylineVertex
 10
5138.759753555446
 20
1527.251713102206
 30
0.0
 70
    32
  0
VERTEX
  5
116CA
330
1167F
100
AcDbEntity
  8
0部品9
  6
中線
 48
0.5
370
    30
100
AcDbVertex
100
AcDb3dPolylineVertex
 10
5138.763753555446
 20
1527.329713102206
 30
0.0
 70
    32
  0
VERTEX
  5
116CB
330
1167F
100
AcDbEntity
  8
0部品9
  6
中線
 48
0.5
370
    30
100
AcDbVertex
100
AcDb3dPolylineVertex
 10
5138.766753555445
 20
1527.408713102206
 30
0.0
 70
    32
  0
VERTEX
  5
116CC
330
1167F
100
AcDbEntity
  8
0部品9
  6
中線
 48
0.5
370
    30
100
AcDbVertex
100
AcDb3dPolylineVertex
 10
5138.769753555447
 20
1527.487713102206
 30
0.0
 70
    32
  0
VERTEX
  5
116CD
330
1167F
100
AcDbEntity
  8
0部品9
  6
中線
 48
0.5
370
    30
100
AcDbVertex
100
AcDb3dPolylineVertex
 10
5138.771753555445
 20
1527.565713102206
 30
0.0
 70
    32
  0
VERTEX
  5
116CE
330
1167F
100
AcDbEntity
  8
0部品9
  6
中線
 48
0.5
370
    30
100
AcDbVertex
100
AcDb3dPolylineVertex
 10
5138.772753555446
 20
1527.644713102206
 30
0.0
 70
    32
  0
VERTEX
  5
116CF
330
1167F
100
AcDbEntity
  8
0部品9
  6
中線
 48
0.5
370
    30
100
AcDbVertex
100
AcDb3dPolylineVertex
 10
5138.773753555446
 20
1527.722713102206
 30
0.0
 70
    32
  0
VERTEX
  5
116D0
330
1167F
100
AcDbEntity
  8
0部品9
  6
中線
 48
0.5
370
    30
100
AcDbVertex
100
AcDb3dPolylineVertex
 10
5138.773753555446
 20
1527.801713102206
 30
0.0
 70
    32
  0
VERTEX
  5
116D1
330
1167F
100
AcDbEntity
  8
0部品9
  6
中線
 48
0.5
370
    30
100
AcDbVertex
100
AcDb3dPolylineVertex
 10
5138.772753555446
 20
1527.880713102206
 30
0.0
 70
    32
  0
VERTEX
  5
116D2
330
1167F
100
AcDbEntity
  8
0部品9
  6
中線
 48
0.5
370
    30
100
AcDbVertex
100
AcDb3dPolylineVertex
 10
5138.771753555445
 20
1527.958713102206
 30
0.0
 70
    32
  0
VERTEX
  5
116D3
330
1167F
100
AcDbEntity
  8
0部品9
  6
中線
 48
0.5
370
    30
100
AcDbVertex
100
AcDb3dPolylineVertex
 10
5138.769753555447
 20
1528.037713102206
 30
0.0
 70
    32
  0
VERTEX
  5
116D4
330
1167F
100
AcDbEntity
  8
0部品9
  6
中線
 48
0.5
370
    30
100
AcDbVertex
100
AcDb3dPolylineVertex
 10
5138.766753555445
 20
1528.116713102206
 30
0.0
 70
    32
  0
VERTEX
  5
116D5
330
1167F
100
AcDbEntity
  8
0部品9
  6
中線
 48
0.5
370
    30
100
AcDbVertex
100
AcDb3dPolylineVertex
 10
5138.763753555446
 20
1528.194713102206
 30
0.0
 70
    32
  0
VERTEX
  5
116D6
330
1167F
100
AcDbEntity
  8
0部品9
  6
中線
 48
0.5
370
    30
100
AcDbVertex
100
AcDb3dPolylineVertex
 10
5138.759753555446
 20
1528.273713102206
 30
0.0
 70
    32
  0
VERTEX
  5
116D7
330
1167F
100
AcDbEntity
  8
0部品9
  6
中線
 48
0.5
370
    30
100
AcDbVertex
100
AcDb3dPolylineVertex
 10
5138.755753555447
 20
1528.351713102206
 30
0.0
 70
    32
  0
VERTEX
  5
116D8
330
1167F
100
AcDbEntity
  8
0部品9
  6
中線
 48
0.5
370
    30
100
AcDbVertex
100
AcDb3dPolylineVertex
 10
5138.750753555446
 20
1528.430713102206
 30
0.0
 70
    32
  0
VERTEX
  5
116D9
330
1167F
100
AcDbEntity
  8
0部品9
  6
中線
 48
0.5
370
    30
100
AcDbVertex
100
AcDb3dPolylineVertex
 10
5138.744753555446
 20
1528.509713102206
 30
0.0
 70
    32
  0
VERTEX
  5
116DA
330
1167F
100
AcDbEntity
  8
0部品9
  6
中線
 48
0.5
370
    30
100
AcDbVertex
100
AcDb3dPolylineVertex
 10
5138.738753555447
 20
1528.587713102206
 30
0.0
 70
    32
  0
VERTEX
  5
116DB
330
1167F
100
AcDbEntity
  8
0部品9
  6
中線
 48
0.5
370
    30
100
AcDbVertex
100
AcDb3dPolylineVertex
 10
5138.731753555446
 20
1528.666713102206
 30
0.0
 70
    32
  0
VERTEX
  5
116DC
330
1167F
100
AcDbEntity
  8
0部品9
  6
中線
 48
0.5
370
    30
100
AcDbVertex
100
AcDb3dPolylineVertex
 10
5138.724753555447
 20
1528.744713102206
 30
0.0
 70
    32
  0
VERTEX
  5
116DD
330
1167F
100
AcDbEntity
  8
0部品9
  6
中線
 48
0.5
370
    30
100
AcDbVertex
100
AcDb3dPolylineVertex
 10
5138.716753555446
 20
1528.823713102206
 30
0.0
 70
    32
  0
VERTEX
  5
116DE
330
1167F
100
AcDbEntity
  8
0部品9
  6
中線
 48
0.5
370
    30
100
AcDbVertex
100
AcDb3dPolylineVertex
 10
5138.707753555446
 20
1528.902713102206
 30
0.0
 70
    32
  0
VERTEX
  5
116DF
330
1167F
100
AcDbEntity
  8
0部品9
  6
中線
 48
0.5
370
    30
100
AcDbVertex
100
AcDb3dPolylineVertex
 10
5138.698753555446
 20
1528.980713102206
 30
0.0
 70
    32
  0
VERTEX
  5
116E0
330
1167F
100
AcDbEntity
  8
0部品9
  6
中線
 48
0.5
370
    30
100
AcDbVertex
100
AcDb3dPolylineVertex
 10
5138.689753555446
 20
1529.059713102206
 30
0.0
 70
    32
  0
VERTEX
  5
116E1
330
1167F
100
AcDbEntity
  8
0部品9
  6
中線
 48
0.5
370
    30
100
AcDbVertex
100
AcDb3dPolylineVertex
 10
5138.679753555447
 20
1529.138713102206
 30
0.0
 70
    32
  0
VERTEX
  5
116E2
330
1167F
100
AcDbEntity
  8
0部品9
  6
中線
 48
0.5
370
    30
100
AcDbVertex
100
AcDb3dPolylineVertex
 10
5138.668753555446
 20
1529.216713102206
 30
0.0
 70
    32
  0
VERTEX
  5
116E3
330
1167F
100
AcDbEntity
  8
0部品9
  6
中線
 48
0.5
370
    30
100
AcDbVertex
100
AcDb3dPolylineVertex
 10
5138.657753555446
 20
1529.295713102206
 30
0.0
 70
    32
  0
VERTEX
  5
116E4
330
1167F
100
AcDbEntity
  8
0部品9
  6
中線
 48
0.5
370
    30
100
AcDbVertex
100
AcDb3dPolylineVertex
 10
5138.645753555445
 20
1529.373713102206
 30
0.0
 70
    32
  0
VERTEX
  5
116E5
330
1167F
100
AcDbEntity
  8
0部品9
  6
中線
 48
0.5
370
    30
100
AcDbVertex
100
AcDb3dPolylineVertex
 10
5138.633753555446
 20
1529.452713102206
 30
0.0
 70
    32
  0
VERTEX
  5
116E6
330
1167F
100
AcDbEntity
  8
0部品9
  6
中線
 48
0.5
370
    30
100
AcDbVertex
100
AcDb3dPolylineVertex
 10
5138.621753555447
 20
1529.531713102206
 30
0.0
 70
    32
  0
VERTEX
  5
116E7
330
1167F
100
AcDbEntity
  8
0部品9
  6
中線
 48
0.5
370
    30
100
AcDbVertex
100
AcDb3dPolylineVertex
 10
5138.607753555446
 20
1529.609713102206
 30
0.0
 70
    32
  0
VERTEX
  5
116E8
330
1167F
100
AcDbEntity
  8
0部品9
  6
中線
 48
0.5
370
    30
100
AcDbVertex
100
AcDb3dPolylineVertex
 10
5138.594753555446
 20
1529.688713102206
 30
0.0
 70
    32
  0
VERTEX
  5
116E9
330
1167F
100
AcDbEntity
  8
0部品9
  6
中線
 48
0.5
370
    30
100
AcDbVertex
100
AcDb3dPolylineVertex
 10
5138.580753555446
 20
1529.766713102206
 30
0.0
 70
    32
  0
VERTEX
  5
116EA
330
1167F
100
AcDbEntity
  8
0部品9
  6
中線
 48
0.5
370
    30
100
AcDbVertex
100
AcDb3dPolylineVertex
 10
5138.565753555446
 20
1529.845713102206
 30
0.0
 70
    32
  0
VERTEX
  5
116EB
330
1167F
100
AcDbEntity
  8
0部品9
  6
中線
 48
0.5
370
    30
100
AcDbVertex
100
AcDb3dPolylineVertex
 10
5138.551753555446
 20
1529.924713102206
 30
0.0
 70
    32
  0
VERTEX
  5
116EC
330
1167F
100
AcDbEntity
  8
0部品9
  6
中線
 48
0.5
370
    30
100
AcDbVertex
100
AcDb3dPolylineVertex
 10
5138.535753555446
 20
1530.002713102206
 30
0.0
 70
    32
  0
VERTEX
  5
116ED
330
1167F
100
AcDbEntity
  8
0部品9
  6
中線
 48
0.5
370
    30
100
AcDbVertex
100
AcDb3dPolylineVertex
 10
5138.519753555446
 20
1530.081713102206
 30
0.0
 70
    32
  0
VERTEX
  5
116EE
330
1167F
100
AcDbEntity
  8
0部品9
  6
中線
 48
0.5
370
    30
100
AcDbVertex
100
AcDb3dPolylineVertex
 10
5138.503753555446
 20
1530.160713102206
 30
0.0
 70
    32
  0
VERTEX
  5
116EF
330
1167F
100
AcDbEntity
  8
0部品9
  6
中線
 48
0.5
370
    30
100
AcDbVertex
100
AcDb3dPolylineVertex
 10
5138.487753555446
 20
1530.238713102206
 30
0.0
 70
    32
  0
VERTEX
  5
116F0
330
1167F
100
AcDbEntity
  8
0部品9
  6
中線
 48
0.5
370
    30
100
AcDbVertex
100
AcDb3dPolylineVertex
 10
5138.470753555446
 20
1530.317713102206
 30
0.0
 70
    32
  0
VERTEX
  5
116F1
330
1167F
100
AcDbEntity
  8
0部品9
  6
中線
 48
0.5
370
    30
100
AcDbVertex
100
AcDb3dPolylineVertex
 10
5138.452753555446
 20
1530.395713102206
 30
0.0
 70
    32
  0
VERTEX
  5
116F2
330
1167F
100
AcDbEntity
  8
0部品9
  6
中線
 48
0.5
370
    30
100
AcDbVertex
100
AcDb3dPolylineVertex
 10
5138.435753555445
 20
1530.474713102206
 30
0.0
 70
    32
  0
VERTEX
  5
116F3
330
1167F
100
AcDbEntity
  8
0部品9
  6
中線
 48
0.5
370
    30
100
AcDbVertex
100
AcDb3dPolylineVertex
 10
5138.416753555446
 20
1530.553713102206
 30
0.0
 70
    32
  0
VERTEX
  5
116F4
330
1167F
100
AcDbEntity
  8
0部品9
  6
中線
 48
0.5
370
    30
100
AcDbVertex
100
AcDb3dPolylineVertex
 10
5138.398753555446
 20
1530.631713102206
 30
0.0
 70
    32
  0
VERTEX
  5
116F5
330
1167F
100
AcDbEntity
  8
0部品9
  6
中線
 48
0.5
370
    30
100
AcDbVertex
100
AcDb3dPolylineVertex
 10
5138.379753555446
 20
1530.710713102206
 30
0.0
 70
    32
  0
VERTEX
  5
116F6
330
1167F
100
AcDbEntity
  8
0部品9
  6
中線
 48
0.5
370
    30
100
AcDbVertex
100
AcDb3dPolylineVertex
 10
5138.360753555446
 20
1530.788713102206
 30
0.0
 70
    32
  0
VERTEX
  5
116F7
330
1167F
100
AcDbEntity
  8
0部品9
  6
中線
 48
0.5
370
    30
100
AcDbVertex
100
AcDb3dPolylineVertex
 10
5138.340753555446
 20
1530.867713102206
 30
0.0
 70
    32
  0
VERTEX
  5
116F8
330
1167F
100
AcDbEntity
  8
0部品9
  6
中線
 48
0.5
370
    30
100
AcDbVertex
100
AcDb3dPolylineVertex
 10
5138.320753555445
 20
1530.946713102206
 30
0.0
 70
    32
  0
VERTEX
  5
116F9
330
1167F
100
AcDbEntity
  8
0部品9
  6
中線
 48
0.5
370
    30
100
AcDbVertex
100
AcDb3dPolylineVertex
 10
5138.300753555446
 20
1531.024713102206
 30
0.0
 70
    32
  0
VERTEX
  5
116FA
330
1167F
100
AcDbEntity
  8
0部品9
  6
中線
 48
0.5
370
    30
100
AcDbVertex
100
AcDb3dPolylineVertex
 10
5138.280753555445
 20
1531.103713102206
 30
0.0
 70
    32
  0
VERTEX
  5
116FB
330
1167F
100
AcDbEntity
  8
0部品9
  6
中線
 48
0.5
370
    30
100
AcDbVertex
100
AcDb3dPolylineVertex
 10
5138.259753555446
 20
1531.182713102206
 30
0.0
 70
    32
  0
VERTEX
  5
116FC
330
1167F
100
AcDbEntity
  8
0部品9
  6
中線
 48
0.5
370
    30
100
AcDbVertex
100
AcDb3dPolylineVertex
 10
5138.238753555446
 20
1531.260713102206
 30
0.0
 70
    32
  0
VERTEX
  5
116FD
330
1167F
100
AcDbEntity
  8
0部品9
  6
中線
 48
0.5
370
    30
100
AcDbVertex
100
AcDb3dPolylineVertex
 10
5138.216753555446
 20
1531.339713102206
 30
0.0
 70
    32
  0
VERTEX
  5
116FE
330
1167F
100
AcDbEntity
  8
0部品9
  6
中線
 48
0.5
370
    30
100
AcDbVertex
100
AcDb3dPolylineVertex
 10
5138.195753555446
 20
1531.417713102206
 30
0.0
 70
    32
  0
VERTEX
  5
116FF
330
1167F
100
AcDbEntity
  8
0部品9
  6
中線
 48
0.5
370
    30
100
AcDbVertex
100
AcDb3dPolylineVertex
 10
5138.173753555445
 20
1531.496713102206
 30
0.0
 70
    32
  0
VERTEX
  5
11700
330
1167F
100
AcDbEntity
  8
0部品9
  6
中線
 48
0.5
370
    30
100
AcDbVertex
100
AcDb3dPolylineVertex
 10
5138.150753555446
 20
1531.575713102206
 30
0.0
 70
    32
  0
VERTEX
  5
11701
330
1167F
100
AcDbEntity
  8
0部品9
  6
中線
 48
0.5
370
    30
100
AcDbVertex
100
AcDb3dPolylineVertex
 10
5138.128753555445
 20
1531.653713102206
 30
0.0
 70
    32
  0
VERTEX
  5
11702
330
1167F
100
AcDbEntity
  8
0部品9
  6
中線
 48
0.5
370
    30
100
AcDbVertex
100
AcDb3dPolylineVertex
 10
5138.105753555445
 20
1531.732713102206
 30
0.0
 70
    32
  0
VERTEX
  5
11703
330
1167F
100
AcDbEntity
  8
0部品9
  6
中線
 48
0.5
370
    30
100
AcDbVertex
100
AcDb3dPolylineVertex
 10
5138.082753555447
 20
1531.810713102206
 30
0.0
 70
    32
  0
VERTEX
  5
11704
330
1167F
100
AcDbEntity
  8
0部品9
  6
中線
 48
0.5
370
    30
100
AcDbVertex
100
AcDb3dPolylineVertex
 10
5138.059753555446
 20
1531.889713102206
 30
0.0
 70
    32
  0
VERTEX
  5
11705
330
1167F
100
AcDbEntity
  8
0部品9
  6
中線
 48
0.5
370
    30
100
AcDbVertex
100
AcDb3dPolylineVertex
 10
5138.035753555445
 20
1531.968713102206
 30
0.0
 70
    32
  0
VERTEX
  5
11706
330
1167F
100
AcDbEntity
  8
0部品9
  6
中線
 48
0.5
370
    30
100
AcDbVertex
100
AcDb3dPolylineVertex
 10
5138.011753555446
 20
1532.046713102206
 30
0.0
 70
    32
  0
VERTEX
  5
11707
330
1167F
100
AcDbEntity
  8
0部品9
  6
中線
 48
0.5
370
    30
100
AcDbVertex
100
AcDb3dPolylineVertex
 10
5137.988753555447
 20
1532.125713102206
 30
0.0
 70
    32
  0
VERTEX
  5
11708
330
1167F
100
AcDbEntity
  8
0部品9
  6
中線
 48
0.5
370
    30
100
AcDbVertex
100
AcDb3dPolylineVertex
 10
5137.963753555446
 20
1532.204713102206
 30
0.0
 70
    32
  0
VERTEX
  5
11709
330
1167F
100
AcDbEntity
  8
0部品9
  6
中線
 48
0.5
370
    30
100
AcDbVertex
100
AcDb3dPolylineVertex
 10
5137.939753555446
 20
1532.282713102206
 30
0.0
 70
    32
  0
VERTEX
  5
1170A
330
1167F
100
AcDbEntity
  8
0部品9
  6
中線
 48
0.5
370
    30
100
AcDbVertex
100
AcDb3dPolylineVertex
 10
5137.915753555446
 20
1532.361713102206
 30
0.0
 70
    32
  0
VERTEX
  5
1170B
330
1167F
100
AcDbEntity
  8
0部品9
  6
中線
 48
0.5
370
    30
100
AcDbVertex
100
AcDb3dPolylineVertex
 10
5137.890753555446
 20
1532.439713102206
 30
0.0
 70
    32
  0
VERTEX
  5
1170C
330
1167F
100
AcDbEntity
  8
0部品9
  6
中線
 48
0.5
370
    30
100
AcDbVertex
100
AcDb3dPolylineVertex
 10
5137.865753555446
 20
1532.518713102206
 30
0.0
 70
    32
  0
VERTEX
  5
1170D
330
1167F
100
AcDbEntity
  8
0部品9
  6
中線
 48
0.5
370
    30
100
AcDbVertex
100
AcDb3dPolylineVertex
 10
5137.840753555446
 20
1532.597713102206
 30
0.0
 70
    32
  0
VERTEX
  5
1170E
330
1167F
100
AcDbEntity
  8
0部品9
  6
中線
 48
0.5
370
    30
100
AcDbVertex
100
AcDb3dPolylineVertex
 10
5137.815753555446
 20
1532.675713102206
 30
0.0
 70
    32
  0
VERTEX
  5
1170F
330
1167F
100
AcDbEntity
  8
0部品9
  6
中線
 48
0.5
370
    30
100
AcDbVertex
100
AcDb3dPolylineVertex
 10
5137.790753555446
 20
1532.754713102206
 30
0.0
 70
    32
  0
VERTEX
  5
11710
330
1167F
100
AcDbEntity
  8
0部品9
  6
中線
 48
0.5
370
    30
100
AcDbVertex
100
AcDb3dPolylineVertex
 10
5137.764753555446
 20
1532.833713102206
 30
0.0
 70
    32
  0
VERTEX
  5
11711
330
1167F
100
AcDbEntity
  8
0部品9
  6
中線
 48
0.5
370
    30
100
AcDbVertex
100
AcDb3dPolylineVertex
 10
5137.739753555446
 20
1532.911713102206
 30
0.0
 70
    32
  0
VERTEX
  5
11712
330
1167F
100
AcDbEntity
  8
0部品9
  6
中線
 48
0.5
370
    30
100
AcDbVertex
100
AcDb3dPolylineVertex
 10
5137.713753555446
 20
1532.990713102206
 30
0.0
 70
    32
  0
VERTEX
  5
11713
330
1167F
100
AcDbEntity
  8
0部品9
  6
中線
 48
0.5
370
    30
100
AcDbVertex
100
AcDb3dPolylineVertex
 10
5137.687753555446
 20
1533.068713102206
 30
0.0
 70
    32
  0
VERTEX
  5
11714
330
1167F
100
AcDbEntity
  8
0部品9
  6
中線
 48
0.5
370
    30
100
AcDbVertex
100
AcDb3dPolylineVertex
 10
5137.662753555446
 20
1533.147713102206
 30
0.0
 70
    32
  0
VERTEX
  5
11715
330
1167F
100
AcDbEntity
  8
0部品9
  6
中線
 48
0.5
370
    30
100
AcDbVertex
100
AcDb3dPolylineVertex
 10
5137.636753555446
 20
1533.226713102206
 30
0.0
 70
    32
  0
VERTEX
  5
11716
330
1167F
100
AcDbEntity
  8
0部品9
  6
中線
 48
0.5
370
    30
100
AcDbVertex
100
AcDb3dPolylineVertex
 10
5137.610753555446
 20
1533.304713102206
 30
0.0
 70
    32
  0
VERTEX
  5
11717
330
1167F
100
AcDbEntity
  8
0部品9
  6
中線
 48
0.5
370
    30
100
AcDbVertex
100
AcDb3dPolylineVertex
 10
5137.583753555446
 20
1533.383713102206
 30
0.0
 70
    32
  0
VERTEX
  5
11718
330
1167F
100
AcDbEntity
  8
0部品9
  6
中線
 48
0.5
370
    30
100
AcDbVertex
100
AcDb3dPolylineVertex
 10
5137.557753555445
 20
1533.461713102206
 30
0.0
 70
    32
  0
VERTEX
  5
11719
330
1167F
100
AcDbEntity
  8
0部品9
  6
中線
 48
0.5
370
    30
100
AcDbVertex
100
AcDb3dPolylineVertex
 10
5137.531753555446
 20
1533.540713102206
 30
0.0
 70
    32
  0
VERTEX
  5
1171A
330
1167F
100
AcDbEntity
  8
0部品9
  6
中線
 48
0.5
370
    30
100
AcDbVertex
100
AcDb3dPolylineVertex
 10
5137.505753555446
 20
1533.619713102206
 30
0.0
 70
    32
  0
VERTEX
  5
1171B
330
1167F
100
AcDbEntity
  8
0部品9
  6
中線
 48
0.5
370
    30
100
AcDbVertex
100
AcDb3dPolylineVertex
 10
5137.478753555446
 20
1533.697713102206
 30
0.0
 70
    32
  0
VERTEX
  5
1171C
330
1167F
100
AcDbEntity
  8
0部品9
  6
中線
 48
0.5
370
    30
100
AcDbVertex
100
AcDb3dPolylineVertex
 10
5137.452753555447
 20
1533.776713102206
 30
0.0
 70
    32
  0
VERTEX
  5
1171D
330
1167F
100
AcDbEntity
  8
0部品9
  6
中線
 48
0.5
370
    30
100
AcDbVertex
100
AcDb3dPolylineVertex
 10
5137.426753555445
 20
1533.855713102206
 30
0.0
 70
    32
  0
VERTEX
  5
1171E
330
1167F
100
AcDbEntity
  8
0部品9
  6
中線
 48
0.5
370
    30
100
AcDbVertex
100
AcDb3dPolylineVertex
 10
5137.399753555446
 20
1533.933713102206
 30
0.0
 70
    32
  0
VERTEX
  5
1171F
330
1167F
100
AcDbEntity
  8
0部品9
  6
中線
 48
0.5
370
    30
100
AcDbVertex
100
AcDb3dPolylineVertex
 10
5137.373753555445
 20
1534.012713102206
 30
0.0
 70
    32
  0
SEQEND
  5
11720
330
1167F
100
AcDbEntity
  8
0部品9
  6
中線
 48
0.5
370
    30
  0
POLYLINE
  5
11721
330
1F
100
AcDbEntity
  8
0部品9
  6
中線
 48
0.5
370
    30
100
AcDb3dPolyline
 66
     1
 10
0.0
 20
0.0
 30
0.0
 70
     8
  0
VERTEX
  5
11722
330
11721
100
AcDbEntity
  8
0部品9
  6
中線
 48
0.5
370
    30
100
AcDbVertex
100
AcDb3dPolylineVertex
 10
5146.123753555446
 20
1542.762713102206
 30
0.0
 70
    32
  0
VERTEX
  5
11723
330
11721
100
AcDbEntity
  8
0部品9
  6
中線
 48
0.5
370
    30
100
AcDbVertex
100
AcDb3dPolylineVertex
 10
5146.202753555446
 20
1542.735713102206
 30
0.0
 70
    32
  0
VERTEX
  5
11724
330
11721
100
AcDbEntity
  8
0部品9
  6
中線
 48
0.5
370
    30
100
AcDbVertex
100
AcDb3dPolylineVertex
 10
5146.280753555446
 20
1542.709713102206
 30
0.0
 70
    32
  0
VERTEX
  5
11725
330
11721
100
AcDbEntity
  8
0部品9
  6
中線
 48
0.5
370
    30
100
AcDbVertex
100
AcDb3dPolylineVertex
 10
5146.359753555445
 20
1542.683713102206
 30
0.0
 70
    32
  0
VERTEX
  5
11726
330
11721
100
AcDbEntity
  8
0部品9
  6
中線
 48
0.5
370
    30
100
AcDbVertex
100
AcDb3dPolylineVertex
 10
5146.437753555446
 20
1542.656713102206
 30
0.0
 70
    32
  0
VERTEX
  5
11727
330
11721
100
AcDbEntity
  8
0部品9
  6
中線
 48
0.5
370
    30
100
AcDbVertex
100
AcDb3dPolylineVertex
 10
5146.516753555445
 20
1542.630713102206
 30
0.0
 70
    32
  0
VERTEX
  5
11728
330
11721
100
AcDbEntity
  8
0部品9
  6
中線
 48
0.5
370
    30
100
AcDbVertex
100
AcDb3dPolylineVertex
 10
5146.595753555446
 20
1542.604713102206
 30
0.0
 70
    32
  0
VERTEX
  5
11729
330
11721
100
AcDbEntity
  8
0部品9
  6
中線
 48
0.5
370
    30
100
AcDbVertex
100
AcDb3dPolylineVertex
 10
5146.673753555446
 20
1542.577713102206
 30
0.0
 70
    32
  0
VERTEX
  5
1172A
330
11721
100
AcDbEntity
  8
0部品9
  6
中線
 48
0.5
370
    30
100
AcDbVertex
100
AcDb3dPolylineVertex
 10
5146.752753555445
 20
1542.551713102206
 30
0.0
 70
    32
  0
VERTEX
  5
1172B
330
11721
100
AcDbEntity
  8
0部品9
  6
中線
 48
0.5
370
    30
100
AcDbVertex
100
AcDb3dPolylineVertex
 10
5146.830753555446
 20
1542.525713102206
 30
0.0
 70
    32
  0
VERTEX
  5
1172C
330
11721
100
AcDbEntity
  8
0部品9
  6
中線
 48
0.5
370
    30
100
AcDbVertex
100
AcDb3dPolylineVertex
 10
5146.909753555445
 20
1542.499713102206
 30
0.0
 70
    32
  0
VERTEX
  5
1172D
330
11721
100
AcDbEntity
  8
0部品9
  6
中線
 48
0.5
370
    30
100
AcDbVertex
100
AcDb3dPolylineVertex
 10
5146.988753555446
 20
1542.473713102206
 30
0.0
 70
    32
  0
VERTEX
  5
1172E
330
11721
100
AcDbEntity
  8
0部品9
  6
中線
 48
0.5
370
    30
100
AcDbVertex
100
AcDb3dPolylineVertex
 10
5147.066753555446
 20
1542.447713102206
 30
0.0
 70
    32
  0
VERTEX
  5
1172F
330
11721
100
AcDbEntity
  8
0部品9
  6
中線
 48
0.5
370
    30
100
AcDbVertex
100
AcDb3dPolylineVertex
 10
5147.145753555445
 20
1542.421713102206
 30
0.0
 70
    32
  0
VERTEX
  5
11730
330
11721
100
AcDbEntity
  8
0部品9
  6
中線
 48
0.5
370
    30
100
AcDbVertex
100
AcDb3dPolylineVertex
 10
5147.224753555446
 20
1542.396713102206
 30
0.0
 70
    32
  0
VERTEX
  5
11731
330
11721
100
AcDbEntity
  8
0部品9
  6
中線
 48
0.5
370
    30
100
AcDbVertex
100
AcDb3dPolylineVertex
 10
5147.302753555446
 20
1542.370713102206
 30
0.0
 70
    32
  0
VERTEX
  5
11732
330
11721
100
AcDbEntity
  8
0部品9
  6
中線
 48
0.5
370
    30
100
AcDbVertex
100
AcDb3dPolylineVertex
 10
5147.381753555446
 20
1542.345713102206
 30
0.0
 70
    32
  0
VERTEX
  5
11733
330
11721
100
AcDbEntity
  8
0部品9
  6
中線
 48
0.5
370
    30
100
AcDbVertex
100
AcDb3dPolylineVertex
 10
5147.459753555446
 20
1542.320713102206
 30
0.0
 70
    32
  0
VERTEX
  5
11734
330
11721
100
AcDbEntity
  8
0部品9
  6
中線
 48
0.5
370
    30
100
AcDbVertex
100
AcDb3dPolylineVertex
 10
5147.538753555445
 20
1542.294713102206
 30
0.0
 70
    32
  0
VERTEX
  5
11735
330
11721
100
AcDbEntity
  8
0部品9
  6
中線
 48
0.5
370
    30
100
AcDbVertex
100
AcDb3dPolylineVertex
 10
5147.617753555446
 20
1542.269713102206
 30
0.0
 70
    32
  0
VERTEX
  5
11736
330
11721
100
AcDbEntity
  8
0部品9
  6
中線
 48
0.5
370
    30
100
AcDbVertex
100
AcDb3dPolylineVertex
 10
5147.695753555446
 20
1542.245713102206
 30
0.0
 70
    32
  0
VERTEX
  5
11737
330
11721
100
AcDbEntity
  8
0部品9
  6
中線
 48
0.5
370
    30
100
AcDbVertex
100
AcDb3dPolylineVertex
 10
5147.774753555446
 20
1542.220713102206
 30
0.0
 70
    32
  0
VERTEX
  5
11738
330
11721
100
AcDbEntity
  8
0部品9
  6
中線
 48
0.5
370
    30
100
AcDbVertex
100
AcDb3dPolylineVertex
 10
5147.852753555446
 20
1542.195713102206
 30
0.0
 70
    32
  0
VERTEX
  5
11739
330
11721
100
AcDbEntity
  8
0部品9
  6
中線
 48
0.5
370
    30
100
AcDbVertex
100
AcDb3dPolylineVertex
 10
5147.931753555446
 20
1542.171713102206
 30
0.0
 70
    32
  0
VERTEX
  5
1173A
330
11721
100
AcDbEntity
  8
0部品9
  6
中線
 48
0.5
370
    30
100
AcDbVertex
100
AcDb3dPolylineVertex
 10
5148.010753555446
 20
1542.147713102206
 30
0.0
 70
    32
  0
VERTEX
  5
1173B
330
11721
100
AcDbEntity
  8
0部品9
  6
中線
 48
0.5
370
    30
100
AcDbVertex
100
AcDb3dPolylineVertex
 10
5148.088753555446
 20
1542.123713102206
 30
0.0
 70
    32
  0
VERTEX
  5
1173C
330
11721
100
AcDbEntity
  8
0部品9
  6
中線
 48
0.5
370
    30
100
AcDbVertex
100
AcDb3dPolylineVertex
 10
5148.167753555447
 20
1542.099713102206
 30
0.0
 70
    32
  0
VERTEX
  5
1173D
330
11721
100
AcDbEntity
  8
0部品9
  6
中線
 48
0.5
370
    30
100
AcDbVertex
100
AcDb3dPolylineVertex
 10
5148.246753555446
 20
1542.076713102206
 30
0.0
 70
    32
  0
VERTEX
  5
1173E
330
11721
100
AcDbEntity
  8
0部品9
  6
中線
 48
0.5
370
    30
100
AcDbVertex
100
AcDb3dPolylineVertex
 10
5148.324753555446
 20
1542.053713102206
 30
0.0
 70
    32
  0
VERTEX
  5
1173F
330
11721
100
AcDbEntity
  8
0部品9
  6
中線
 48
0.5
370
    30
100
AcDbVertex
100
AcDb3dPolylineVertex
 10
5148.403753555446
 20
1542.030713102206
 30
0.0
 70
    32
  0
VERTEX
  5
11740
330
11721
100
AcDbEntity
  8
0部品9
  6
中線
 48
0.5
370
    30
100
AcDbVertex
100
AcDb3dPolylineVertex
 10
5148.481753555445
 20
1542.007713102206
 30
0.0
 70
    32
  0
VERTEX
  5
11741
330
11721
100
AcDbEntity
  8
0部品9
  6
中線
 48
0.5
370
    30
100
AcDbVertex
100
AcDb3dPolylineVertex
 10
5148.560753555446
 20
1541.984713102206
 30
0.0
 70
    32
  0
VERTEX
  5
11742
330
11721
100
AcDbEntity
  8
0部品9
  6
中線
 48
0.5
370
    30
100
AcDbVertex
100
AcDb3dPolylineVertex
 10
5148.639753555446
 20
1541.962713102206
 30
0.0
 70
    32
  0
VERTEX
  5
11743
330
11721
100
AcDbEntity
  8
0部品9
  6
中線
 48
0.5
370
    30
100
AcDbVertex
100
AcDb3dPolylineVertex
 10
5148.717753555446
 20
1541.940713102206
 30
0.0
 70
    32
  0
VERTEX
  5
11744
330
11721
100
AcDbEntity
  8
0部品9
  6
中線
 48
0.5
370
    30
100
AcDbVertex
100
AcDb3dPolylineVertex
 10
5148.796753555446
 20
1541.918713102206
 30
0.0
 70
    32
  0
VERTEX
  5
11745
330
11721
100
AcDbEntity
  8
0部品9
  6
中線
 48
0.5
370
    30
100
AcDbVertex
100
AcDb3dPolylineVertex
 10
5148.874753555446
 20
1541.897713102206
 30
0.0
 70
    32
  0
VERTEX
  5
11746
330
11721
100
AcDbEntity
  8
0部品9
  6
中線
 48
0.5
370
    30
100
AcDbVertex
100
AcDb3dPolylineVertex
 10
5148.953753555446
 20
1541.876713102206
 30
0.0
 70
    32
  0
VERTEX
  5
11747
330
11721
100
AcDbEntity
  8
0部品9
  6
中線
 48
0.5
370
    30
100
AcDbVertex
100
AcDb3dPolylineVertex
 10
5149.032753555446
 20
1541.855713102206
 30
0.0
 70
    32
  0
VERTEX
  5
11748
330
11721
100
AcDbEntity
  8
0部品9
  6
中線
 48
0.5
370
    30
100
AcDbVertex
100
AcDb3dPolylineVertex
 10
5149.110753555445
 20
1541.834713102206
 30
0.0
 70
    32
  0
VERTEX
  5
11749
330
11721
100
AcDbEntity
  8
0部品9
  6
中線
 48
0.5
370
    30
100
AcDbVertex
100
AcDb3dPolylineVertex
 10
5149.189753555447
 20
1541.814713102206
 30
0.0
 70
    32
  0
VERTEX
  5
1174A
330
11721
100
AcDbEntity
  8
0部品9
  6
中線
 48
0.5
370
    30
100
AcDbVertex
100
AcDb3dPolylineVertex
 10
5149.268753555446
 20
1541.794713102206
 30
0.0
 70
    32
  0
VERTEX
  5
1174B
330
11721
100
AcDbEntity
  8
0部品9
  6
中線
 48
0.5
370
    30
100
AcDbVertex
100
AcDb3dPolylineVertex
 10
5149.346753555446
 20
1541.775713102206
 30
0.0
 70
    32
  0
VERTEX
  5
1174C
330
11721
100
AcDbEntity
  8
0部品9
  6
中線
 48
0.5
370
    30
100
AcDbVertex
100
AcDb3dPolylineVertex
 10
5149.425753555446
 20
1541.756713102206
 30
0.0
 70
    32
  0
VERTEX
  5
1174D
330
11721
100
AcDbEntity
  8
0部品9
  6
中線
 48
0.5
370
    30
100
AcDbVertex
100
AcDb3dPolylineVertex
 10
5149.503753555446
 20
1541.737713102206
 30
0.0
 70
    32
  0
VERTEX
  5
1174E
330
11721
100
AcDbEntity
  8
0部品9
  6
中線
 48
0.5
370
    30
100
AcDbVertex
100
AcDb3dPolylineVertex
 10
5149.582753555446
 20
1541.718713102206
 30
0.0
 70
    32
  0
VERTEX
  5
1174F
330
11721
100
AcDbEntity
  8
0部品9
  6
中線
 48
0.5
370
    30
100
AcDbVertex
100
AcDb3dPolylineVertex
 10
5149.661753555446
 20
1541.700713102206
 30
0.0
 70
    32
  0
VERTEX
  5
11750
330
11721
100
AcDbEntity
  8
0部品9
  6
中線
 48
0.5
370
    30
100
AcDbVertex
100
AcDb3dPolylineVertex
 10
5149.739753555445
 20
1541.682713102206
 30
0.0
 70
    32
  0
VERTEX
  5
11751
330
11721
100
AcDbEntity
  8
0部品9
  6
中線
 48
0.5
370
    30
100
AcDbVertex
100
AcDb3dPolylineVertex
 10
5149.818753555447
 20
1541.665713102206
 30
0.0
 70
    32
  0
VERTEX
  5
11752
330
11721
100
AcDbEntity
  8
0部品9
  6
中線
 48
0.5
370
    30
100
AcDbVertex
100
AcDb3dPolylineVertex
 10
5149.896753555445
 20
1541.648713102206
 30
0.0
 70
    32
  0
VERTEX
  5
11753
330
11721
100
AcDbEntity
  8
0部品9
  6
中線
 48
0.5
370
    30
100
AcDbVertex
100
AcDb3dPolylineVertex
 10
5149.975753555446
 20
1541.631713102206
 30
0.0
 70
    32
  0
VERTEX
  5
11754
330
11721
100
AcDbEntity
  8
0部品9
  6
中線
 48
0.5
370
    30
100
AcDbVertex
100
AcDb3dPolylineVertex
 10
5150.054753555446
 20
1541.615713102206
 30
0.0
 70
    32
  0
VERTEX
  5
11755
330
11721
100
AcDbEntity
  8
0部品9
  6
中線
 48
0.5
370
    30
100
AcDbVertex
100
AcDb3dPolylineVertex
 10
5150.132753555446
 20
1541.599713102206
 30
0.0
 70
    32
  0
VERTEX
  5
11756
330
11721
100
AcDbEntity
  8
0部品9
  6
中線
 48
0.5
370
    30
100
AcDbVertex
100
AcDb3dPolylineVertex
 10
5150.211753555446
 20
1541.584713102206
 30
0.0
 70
    32
  0
VERTEX
  5
11757
330
11721
100
AcDbEntity
  8
0部品9
  6
中線
 48
0.5
370
    30
100
AcDbVertex
100
AcDb3dPolylineVertex
 10
5150.290753555446
 20
1541.569713102206
 30
0.0
 70
    32
  0
VERTEX
  5
11758
330
11721
100
AcDbEntity
  8
0部品9
  6
中線
 48
0.5
370
    30
100
AcDbVertex
100
AcDb3dPolylineVertex
 10
5150.368753555445
 20
1541.555713102206
 30
0.0
 70
    32
  0
VERTEX
  5
11759
330
11721
100
AcDbEntity
  8
0部品9
  6
中線
 48
0.5
370
    30
100
AcDbVertex
100
AcDb3dPolylineVertex
 10
5150.447753555447
 20
1541.541713102206
 30
0.0
 70
    32
  0
VERTEX
  5
1175A
330
11721
100
AcDbEntity
  8
0部品9
  6
中線
 48
0.5
370
    30
100
AcDbVertex
100
AcDb3dPolylineVertex
 10
5150.525753555445
 20
1541.527713102206
 30
0.0
 70
    32
  0
VERTEX
  5
1175B
330
11721
100
AcDbEntity
  8
0部品9
  6
中線
 48
0.5
370
    30
100
AcDbVertex
100
AcDb3dPolylineVertex
 10
5150.604753555446
 20
1541.514713102206
 30
0.0
 70
    32
  0
VERTEX
  5
1175C
330
11721
100
AcDbEntity
  8
0部品9
  6
中線
 48
0.5
370
    30
100
AcDbVertex
100
AcDb3dPolylineVertex
 10
5150.683753555446
 20
1541.502713102206
 30
0.0
 70
    32
  0
VERTEX
  5
1175D
330
11721
100
AcDbEntity
  8
0部品9
  6
中線
 48
0.5
370
    30
100
AcDbVertex
100
AcDb3dPolylineVertex
 10
5150.761753555446
 20
1541.489713102206
 30
0.0
 70
    32
  0
VERTEX
  5
1175E
330
11721
100
AcDbEntity
  8
0部品9
  6
中線
 48
0.5
370
    30
100
AcDbVertex
100
AcDb3dPolylineVertex
 10
5150.840753555446
 20
1541.478713102206
 30
0.0
 70
    32
  0
VERTEX
  5
1175F
330
11721
100
AcDbEntity
  8
0部品9
  6
中線
 48
0.5
370
    30
100
AcDbVertex
100
AcDb3dPolylineVertex
 10
5150.918753555446
 20
1541.467713102206
 30
0.0
 70
    32
  0
VERTEX
  5
11760
330
11721
100
AcDbEntity
  8
0部品9
  6
中線
 48
0.5
370
    30
100
AcDbVertex
100
AcDb3dPolylineVertex
 10
5150.997753555446
 20
1541.456713102206
 30
0.0
 70
    32
  0
VERTEX
  5
11761
330
11721
100
AcDbEntity
  8
0部品9
  6
中線
 48
0.5
370
    30
100
AcDbVertex
100
AcDb3dPolylineVertex
 10
5151.076753555447
 20
1541.446713102206
 30
0.0
 70
    32
  0
VERTEX
  5
11762
330
11721
100
AcDbEntity
  8
0部品9
  6
中線
 48
0.5
370
    30
100
AcDbVertex
100
AcDb3dPolylineVertex
 10
5151.154753555445
 20
1541.436713102206
 30
0.0
 70
    32
  0
VERTEX
  5
11763
330
11721
100
AcDbEntity
  8
0部品9
  6
中線
 48
0.5
370
    30
100
AcDbVertex
100
AcDb3dPolylineVertex
 10
5151.233753555446
 20
1541.427713102206
 30
0.0
 70
    32
  0
VERTEX
  5
11764
330
11721
100
AcDbEntity
  8
0部品9
  6
中線
 48
0.5
370
    30
100
AcDbVertex
100
AcDb3dPolylineVertex
 10
5151.312753555446
 20
1541.419713102206
 30
0.0
 70
    32
  0
VERTEX
  5
11765
330
11721
100
AcDbEntity
  8
0部品9
  6
中線
 48
0.5
370
    30
100
AcDbVertex
100
AcDb3dPolylineVertex
 10
5151.390753555446
 20
1541.411713102206
 30
0.0
 70
    32
  0
VERTEX
  5
11766
330
11721
100
AcDbEntity
  8
0部品9
  6
中線
 48
0.5
370
    30
100
AcDbVertex
100
AcDb3dPolylineVertex
 10
5151.469753555446
 20
1541.404713102206
 30
0.0
 70
    32
  0
VERTEX
  5
11767
330
11721
100
AcDbEntity
  8
0部品9
  6
中線
 48
0.5
370
    30
100
AcDbVertex
100
AcDb3dPolylineVertex
 10
5151.547753555445
 20
1541.397713102206
 30
0.0
 70
    32
  0
VERTEX
  5
11768
330
11721
100
AcDbEntity
  8
0部品9
  6
中線
 48
0.5
370
    30
100
AcDbVertex
100
AcDb3dPolylineVertex
 10
5151.626753555446
 20
1541.391713102206
 30
0.0
 70
    32
  0
VERTEX
  5
11769
330
11721
100
AcDbEntity
  8
0部品9
  6
中線
 48
0.5
370
    30
100
AcDbVertex
100
AcDb3dPolylineVertex
 10
5151.705753555446
 20
1541.385713102206
 30
0.0
 70
    32
  0
VERTEX
  5
1176A
330
11721
100
AcDbEntity
  8
0部品9
  6
中線
 48
0.5
370
    30
100
AcDbVertex
100
AcDb3dPolylineVertex
 10
5151.783753555446
 20
1541.380713102206
 30
0.0
 70
    32
  0
VERTEX
  5
1176B
330
11721
100
AcDbEntity
  8
0部品9
  6
中線
 48
0.5
370
    30
100
AcDbVertex
100
AcDb3dPolylineVertex
 10
5151.862753555445
 20
1541.375713102206
 30
0.0
 70
    32
  0
VERTEX
  5
1176C
330
11721
100
AcDbEntity
  8
0部品9
  6
中線
 48
0.5
370
    30
100
AcDbVertex
100
AcDb3dPolylineVertex
 10
5151.940753555446
 20
1541.372713102206
 30
0.0
 70
    32
  0
VERTEX
  5
1176D
330
11721
100
AcDbEntity
  8
0部品9
  6
中線
 48
0.5
370
    30
100
AcDbVertex
100
AcDb3dPolylineVertex
 10
5152.019753555446
 20
1541.368713102206
 30
0.0
 70
    32
  0
VERTEX
  5
1176E
330
11721
100
AcDbEntity
  8
0部品9
  6
中線
 48
0.5
370
    30
100
AcDbVertex
100
AcDb3dPolylineVertex
 10
5152.098753555446
 20
1541.366713102206
 30
0.0
 70
    32
  0
VERTEX
  5
1176F
330
11721
100
AcDbEntity
  8
0部品9
  6
中線
 48
0.5
370
    30
100
AcDbVertex
100
AcDb3dPolylineVertex
 10
5152.176753555445
 20
1541.364713102206
 30
0.0
 70
    32
  0
VERTEX
  5
11770
330
11721
100
AcDbEntity
  8
0部品9
  6
中線
 48
0.5
370
    30
100
AcDbVertex
100
AcDb3dPolylineVertex
 10
5152.255753555446
 20
1541.363713102206
 30
0.0
 70
    32
  0
VERTEX
  5
11771
330
11721
100
AcDbEntity
  8
0部品9
  6
中線
 48
0.5
370
    30
100
AcDbVertex
100
AcDb3dPolylineVertex
 10
5152.334753555446
 20
1541.362713102206
 30
0.0
 70
    32
  0
VERTEX
  5
11772
330
11721
100
AcDbEntity
  8
0部品9
  6
中線
 48
0.5
370
    30
100
AcDbVertex
100
AcDb3dPolylineVertex
 10
5152.412753555446
 20
1541.362713102206
 30
0.0
 70
    32
  0
VERTEX
  5
11773
330
11721
100
AcDbEntity
  8
0部品9
  6
中線
 48
0.5
370
    30
100
AcDbVertex
100
AcDb3dPolylineVertex
 10
5152.491753555445
 20
1541.363713102206
 30
0.0
 70
    32
  0
VERTEX
  5
11774
330
11721
100
AcDbEntity
  8
0部品9
  6
中線
 48
0.5
370
    30
100
AcDbVertex
100
AcDb3dPolylineVertex
 10
5152.569753555446
 20
1541.364713102206
 30
0.0
 70
    32
  0
VERTEX
  5
11775
330
11721
100
AcDbEntity
  8
0部品9
  6
中線
 48
0.5
370
    30
100
AcDbVertex
100
AcDb3dPolylineVertex
 10
5152.648753555446
 20
1541.366713102206
 30
0.0
 70
    32
  0
VERTEX
  5
11776
330
11721
100
AcDbEntity
  8
0部品9
  6
中線
 48
0.5
370
    30
100
AcDbVertex
100
AcDb3dPolylineVertex
 10
5152.727753555446
 20
1541.368713102206
 30
0.0
 70
    32
  0
VERTEX
  5
11777
330
11721
100
AcDbEntity
  8
0部品9
  6
中線
 48
0.5
370
    30
100
AcDbVertex
100
AcDb3dPolylineVertex
 10
5152.805753555447
 20
1541.372713102206
 30
0.0
 70
    32
  0
VERTEX
  5
11778
330
11721
100
AcDbEntity
  8
0部品9
  6
中線
 48
0.5
370
    30
100
AcDbVertex
100
AcDb3dPolylineVertex
 10
5152.884753555446
 20
1541.375713102206
 30
0.0
 70
    32
  0
VERTEX
  5
11779
330
11721
100
AcDbEntity
  8
0部品9
  6
中線
 48
0.5
370
    30
100
AcDbVertex
100
AcDb3dPolylineVertex
 10
5152.963753555446
 20
1541.380713102206
 30
0.0
 70
    32
  0
VERTEX
  5
1177A
330
11721
100
AcDbEntity
  8
0部品9
  6
中線
 48
0.5
370
    30
100
AcDbVertex
100
AcDb3dPolylineVertex
 10
5153.041753555446
 20
1541.385713102206
 30
0.0
 70
    32
  0
VERTEX
  5
1177B
330
11721
100
AcDbEntity
  8
0部品9
  6
中線
 48
0.5
370
    30
100
AcDbVertex
100
AcDb3dPolylineVertex
 10
5153.120753555445
 20
1541.391713102206
 30
0.0
 70
    32
  0
VERTEX
  5
1177C
330
11721
100
AcDbEntity
  8
0部品9
  6
中線
 48
0.5
370
    30
100
AcDbVertex
100
AcDb3dPolylineVertex
 10
5153.198753555447
 20
1541.397713102206
 30
0.0
 70
    32
  0
VERTEX
  5
1177D
330
11721
100
AcDbEntity
  8
0部品9
  6
中線
 48
0.5
370
    30
100
AcDbVertex
100
AcDb3dPolylineVertex
 10
5153.277753555446
 20
1541.404713102206
 30
0.0
 70
    32
  0
VERTEX
  5
1177E
330
11721
100
AcDbEntity
  8
0部品9
  6
中線
 48
0.5
370
    30
100
AcDbVertex
100
AcDb3dPolylineVertex
 10
5153.356753555446
 20
1541.411713102206
 30
0.0
 70
    32
  0
VERTEX
  5
1177F
330
11721
100
AcDbEntity
  8
0部品9
  6
中線
 48
0.5
370
    30
100
AcDbVertex
100
AcDb3dPolylineVertex
 10
5153.434753555446
 20
1541.419713102206
 30
0.0
 70
    32
  0
VERTEX
  5
11780
330
11721
100
AcDbEntity
  8
0部品9
  6
中線
 48
0.5
370
    30
100
AcDbVertex
100
AcDb3dPolylineVertex
 10
5153.513753555446
 20
1541.427713102206
 30
0.0
 70
    32
  0
VERTEX
  5
11781
330
11721
100
AcDbEntity
  8
0部品9
  6
中線
 48
0.5
370
    30
100
AcDbVertex
100
AcDb3dPolylineVertex
 10
5153.591753555446
 20
1541.436713102206
 30
0.0
 70
    32
  0
VERTEX
  5
11782
330
11721
100
AcDbEntity
  8
0部品9
  6
中線
 48
0.5
370
    30
100
AcDbVertex
100
AcDb3dPolylineVertex
 10
5153.670753555446
 20
1541.446713102206
 30
0.0
 70
    32
  0
VERTEX
  5
11783
330
11721
100
AcDbEntity
  8
0部品9
  6
中線
 48
0.5
370
    30
100
AcDbVertex
100
AcDb3dPolylineVertex
 10
5153.749753555445
 20
1541.456713102206
 30
0.0
 70
    32
  0
VERTEX
  5
11784
330
11721
100
AcDbEntity
  8
0部品9
  6
中線
 48
0.5
370
    30
100
AcDbVertex
100
AcDb3dPolylineVertex
 10
5153.827753555447
 20
1541.467713102206
 30
0.0
 70
    32
  0
VERTEX
  5
11785
330
11721
100
AcDbEntity
  8
0部品9
  6
中線
 48
0.5
370
    30
100
AcDbVertex
100
AcDb3dPolylineVertex
 10
5153.906753555446
 20
1541.478713102206
 30
0.0
 70
    32
  0
VERTEX
  5
11786
330
11721
100
AcDbEntity
  8
0部品9
  6
中線
 48
0.5
370
    30
100
AcDbVertex
100
AcDb3dPolylineVertex
 10
5153.985753555446
 20
1541.489713102206
 30
0.0
 70
    32
  0
VERTEX
  5
11787
330
11721
100
AcDbEntity
  8
0部品9
  6
中線
 48
0.5
370
    30
100
AcDbVertex
100
AcDb3dPolylineVertex
 10
5154.063753555446
 20
1541.502713102206
 30
0.0
 70
    32
  0
VERTEX
  5
11788
330
11721
100
AcDbEntity
  8
0部品9
  6
中線
 48
0.5
370
    30
100
AcDbVertex
100
AcDb3dPolylineVertex
 10
5154.142753555446
 20
1541.514713102206
 30
0.0
 70
    32
  0
VERTEX
  5
11789
330
11721
100
AcDbEntity
  8
0部品9
  6
中線
 48
0.5
370
    30
100
AcDbVertex
100
AcDb3dPolylineVertex
 10
5154.220753555446
 20
1541.527713102206
 30
0.0
 70
    32
  0
VERTEX
  5
1178A
330
11721
100
AcDbEntity
  8
0部品9
  6
中線
 48
0.5
370
    30
100
AcDbVertex
100
AcDb3dPolylineVertex
 10
5154.299753555446
 20
1541.541713102206
 30
0.0
 70
    32
  0
VERTEX
  5
1178B
330
11721
100
AcDbEntity
  8
0部品9
  6
中線
 48
0.5
370
    30
100
AcDbVertex
100
AcDb3dPolylineVertex
 10
5154.378753555445
 20
1541.555713102206
 30
0.0
 70
    32
  0
VERTEX
  5
1178C
330
11721
100
AcDbEntity
  8
0部品9
  6
中線
 48
0.5
370
    30
100
AcDbVertex
100
AcDb3dPolylineVertex
 10
5154.456753555447
 20
1541.569713102206
 30
0.0
 70
    32
  0
VERTEX
  5
1178D
330
11721
100
AcDbEntity
  8
0部品9
  6
中線
 48
0.5
370
    30
100
AcDbVertex
100
AcDb3dPolylineVertex
 10
5154.535753555446
 20
1541.584713102206
 30
0.0
 70
    32
  0
VERTEX
  5
1178E
330
11721
100
AcDbEntity
  8
0部品9
  6
中線
 48
0.5
370
    30
100
AcDbVertex
100
AcDb3dPolylineVertex
 10
5154.613753555446
 20
1541.599713102206
 30
0.0
 70
    32
  0
VERTEX
  5
1178F
330
11721
100
AcDbEntity
  8
0部品9
  6
中線
 48
0.5
370
    30
100
AcDbVertex
100
AcDb3dPolylineVertex
 10
5154.692753555446
 20
1541.615713102206
 30
0.0
 70
    32
  0
VERTEX
  5
11790
330
11721
100
AcDbEntity
  8
0部品9
  6
中線
 48
0.5
370
    30
100
AcDbVertex
100
AcDb3dPolylineVertex
 10
5154.771753555445
 20
1541.631713102206
 30
0.0
 70
    32
  0
VERTEX
  5
11791
330
11721
100
AcDbEntity
  8
0部品9
  6
中線
 48
0.5
370
    30
100
AcDbVertex
100
AcDb3dPolylineVertex
 10
5154.849753555446
 20
1541.648713102206
 30
0.0
 70
    32
  0
VERTEX
  5
11792
330
11721
100
AcDbEntity
  8
0部品9
  6
中線
 48
0.5
370
    30
100
AcDbVertex
100
AcDb3dPolylineVertex
 10
5154.928753555446
 20
1541.665713102206
 30
0.0
 70
    32
  0
VERTEX
  5
11793
330
11721
100
AcDbEntity
  8
0部品9
  6
中線
 48
0.5
370
    30
100
AcDbVertex
100
AcDb3dPolylineVertex
 10
5155.007753555445
 20
1541.682713102206
 30
0.0
 70
    32
  0
VERTEX
  5
11794
330
11721
100
AcDbEntity
  8
0部品9
  6
中線
 48
0.5
370
    30
100
AcDbVertex
100
AcDb3dPolylineVertex
 10
5155.085753555447
 20
1541.700713102206
 30
0.0
 70
    32
  0
VERTEX
  5
11795
330
11721
100
AcDbEntity
  8
0部品9
  6
中線
 48
0.5
370
    30
100
AcDbVertex
100
AcDb3dPolylineVertex
 10
5155.164753555446
 20
1541.718713102206
 30
0.0
 70
    32
  0
VERTEX
  5
11796
330
11721
100
AcDbEntity
  8
0部品9
  6
中線
 48
0.5
370
    30
100
AcDbVertex
100
AcDb3dPolylineVertex
 10
5155.242753555446
 20
1541.737713102206
 30
0.0
 70
    32
  0
VERTEX
  5
11797
330
11721
100
AcDbEntity
  8
0部品9
  6
中線
 48
0.5
370
    30
100
AcDbVertex
100
AcDb3dPolylineVertex
 10
5155.321753555446
 20
1541.756713102206
 30
0.0
 70
    32
  0
VERTEX
  5
11798
330
11721
100
AcDbEntity
  8
0部品9
  6
中線
 48
0.5
370
    30
100
AcDbVertex
100
AcDb3dPolylineVertex
 10
5155.400753555445
 20
1541.775713102206
 30
0.0
 70
    32
  0
VERTEX
  5
11799
330
11721
100
AcDbEntity
  8
0部品9
  6
中線
 48
0.5
370
    30
100
AcDbVertex
100
AcDb3dPolylineVertex
 10
5155.478753555446
 20
1541.794713102206
 30
0.0
 70
    32
  0
VERTEX
  5
1179A
330
11721
100
AcDbEntity
  8
0部品9
  6
中線
 48
0.5
370
    30
100
AcDbVertex
100
AcDb3dPolylineVertex
 10
5155.557753555445
 20
1541.814713102206
 30
0.0
 70
    32
  0
VERTEX
  5
1179B
330
11721
100
AcDbEntity
  8
0部品9
  6
中線
 48
0.5
370
    30
100
AcDbVertex
100
AcDb3dPolylineVertex
 10
5155.635753555446
 20
1541.834713102206
 30
0.0
 70
    32
  0
VERTEX
  5
1179C
330
11721
100
AcDbEntity
  8
0部品9
  6
中線
 48
0.5
370
    30
100
AcDbVertex
100
AcDb3dPolylineVertex
 10
5155.714753555447
 20
1541.855713102206
 30
0.0
 70
    32
  0
VERTEX
  5
1179D
330
11721
100
AcDbEntity
  8
0部品9
  6
中線
 48
0.5
370
    30
100
AcDbVertex
100
AcDb3dPolylineVertex
 10
5155.793753555446
 20
1541.876713102206
 30
0.0
 70
    32
  0
VERTEX
  5
1179E
330
11721
100
AcDbEntity
  8
0部品9
  6
中線
 48
0.5
370
    30
100
AcDbVertex
100
AcDb3dPolylineVertex
 10
5155.871753555446
 20
1541.897713102206
 30
0.0
 70
    32
  0
VERTEX
  5
1179F
330
11721
100
AcDbEntity
  8
0部品9
  6
中線
 48
0.5
370
    30
100
AcDbVertex
100
AcDb3dPolylineVertex
 10
5155.950753555446
 20
1541.918713102206
 30
0.0
 70
    32
  0
VERTEX
  5
117A0
330
11721
100
AcDbEntity
  8
0部品9
  6
中線
 48
0.5
370
    30
100
AcDbVertex
100
AcDb3dPolylineVertex
 10
5156.029753555445
 20
1541.940713102206
 30
0.0
 70
    32
  0
VERTEX
  5
117A1
330
11721
100
AcDbEntity
  8
0部品9
  6
中線
 48
0.5
370
    30
100
AcDbVertex
100
AcDb3dPolylineVertex
 10
5156.107753555446
 20
1541.962713102206
 30
0.0
 70
    32
  0
VERTEX
  5
117A2
330
11721
100
AcDbEntity
  8
0部品9
  6
中線
 48
0.5
370
    30
100
AcDbVertex
100
AcDb3dPolylineVertex
 10
5156.186753555445
 20
1541.984713102206
 30
0.0
 70
    32
  0
VERTEX
  5
117A3
330
11721
100
AcDbEntity
  8
0部品9
  6
中線
 48
0.5
370
    30
100
AcDbVertex
100
AcDb3dPolylineVertex
 10
5156.264753555446
 20
1542.007713102206
 30
0.0
 70
    32
  0
VERTEX
  5
117A4
330
11721
100
AcDbEntity
  8
0部品9
  6
中線
 48
0.5
370
    30
100
AcDbVertex
100
AcDb3dPolylineVertex
 10
5156.343753555446
 20
1542.030713102206
 30
0.0
 70
    32
  0
VERTEX
  5
117A5
330
11721
100
AcDbEntity
  8
0部品9
  6
中線
 48
0.5
370
    30
100
AcDbVertex
100
AcDb3dPolylineVertex
 10
5156.422753555446
 20
1542.053713102206
 30
0.0
 70
    32
  0
VERTEX
  5
117A6
330
11721
100
AcDbEntity
  8
0部品9
  6
中線
 48
0.5
370
    30
100
AcDbVertex
100
AcDb3dPolylineVertex
 10
5156.500753555445
 20
1542.076713102206
 30
0.0
 70
    32
  0
VERTEX
  5
117A7
330
11721
100
AcDbEntity
  8
0部品9
  6
中線
 48
0.5
370
    30
100
AcDbVertex
100
AcDb3dPolylineVertex
 10
5156.579753555446
 20
1542.099713102206
 30
0.0
 70
    32
  0
VERTEX
  5
117A8
330
11721
100
AcDbEntity
  8
0部品9
  6
中線
 48
0.5
370
    30
100
AcDbVertex
100
AcDb3dPolylineVertex
 10
5156.657753555446
 20
1542.123713102206
 30
0.0
 70
    32
  0
VERTEX
  5
117A9
330
11721
100
AcDbEntity
  8
0部品9
  6
中線
 48
0.5
370
    30
100
AcDbVertex
100
AcDb3dPolylineVertex
 10
5156.736753555446
 20
1542.147713102206
 30
0.0
 70
    32
  0
VERTEX
  5
117AA
330
11721
100
AcDbEntity
  8
0部品9
  6
中線
 48
0.5
370
    30
100
AcDbVertex
100
AcDb3dPolylineVertex
 10
5156.815753555445
 20
1542.171713102206
 30
0.0
 70
    32
  0
VERTEX
  5
117AB
330
11721
100
AcDbEntity
  8
0部品9
  6
中線
 48
0.5
370
    30
100
AcDbVertex
100
AcDb3dPolylineVertex
 10
5156.893753555446
 20
1542.195713102206
 30
0.0
 70
    32
  0
VERTEX
  5
117AC
330
11721
100
AcDbEntity
  8
0部品9
  6
中線
 48
0.5
370
    30
100
AcDbVertex
100
AcDb3dPolylineVertex
 10
5156.972753555446
 20
1542.220713102206
 30
0.0
 70
    32
  0
VERTEX
  5
117AD
330
11721
100
AcDbEntity
  8
0部品9
  6
中線
 48
0.5
370
    30
100
AcDbVertex
100
AcDb3dPolylineVertex
 10
5157.051753555446
 20
1542.245713102206
 30
0.0
 70
    32
  0
VERTEX
  5
117AE
330
11721
100
AcDbEntity
  8
0部品9
  6
中線
 48
0.5
370
    30
100
AcDbVertex
100
AcDb3dPolylineVertex
 10
5157.129753555445
 20
1542.269713102206
 30
0.0
 70
    32
  0
VERTEX
  5
117AF
330
11721
100
AcDbEntity
  8
0部品9
  6
中線
 48
0.5
370
    30
100
AcDbVertex
100
AcDb3dPolylineVertex
 10
5157.208753555446
 20
1542.294713102206
 30
0.0
 70
    32
  0
VERTEX
  5
117B0
330
11721
100
AcDbEntity
  8
0部品9
  6
中線
 48
0.5
370
    30
100
AcDbVertex
100
AcDb3dPolylineVertex
 10
5157.286753555446
 20
1542.320713102206
 30
0.0
 70
    32
  0
VERTEX
  5
117B1
330
11721
100
AcDbEntity
  8
0部品9
  6
中線
 48
0.5
370
    30
100
AcDbVertex
100
AcDb3dPolylineVertex
 10
5157.365753555446
 20
1542.345713102206
 30
0.0
 70
    32
  0
VERTEX
  5
117B2
330
11721
100
AcDbEntity
  8
0部品9
  6
中線
 48
0.5
370
    30
100
AcDbVertex
100
AcDb3dPolylineVertex
 10
5157.444753555445
 20
1542.370713102206
 30
0.0
 70
    32
  0
VERTEX
  5
117B3
330
11721
100
AcDbEntity
  8
0部品9
  6
中線
 48
0.5
370
    30
100
AcDbVertex
100
AcDb3dPolylineVertex
 10
5157.522753555446
 20
1542.396713102206
 30
0.0
 70
    32
  0
VERTEX
  5
117B4
330
11721
100
AcDbEntity
  8
0部品9
  6
中線
 48
0.5
370
    30
100
AcDbVertex
100
AcDb3dPolylineVertex
 10
5157.601753555446
 20
1542.421713102206
 30
0.0
 70
    32
  0
VERTEX
  5
117B5
330
11721
100
AcDbEntity
  8
0部品9
  6
中線
 48
0.5
370
    30
100
AcDbVertex
100
AcDb3dPolylineVertex
 10
5157.679753555446
 20
1542.447713102206
 30
0.0
 70
    32
  0
VERTEX
  5
117B6
330
11721
100
AcDbEntity
  8
0部品9
  6
中線
 48
0.5
370
    30
100
AcDbVertex
100
AcDb3dPolylineVertex
 10
5157.758753555445
 20
1542.473713102206
 30
0.0
 70
    32
  0
VERTEX
  5
117B7
330
11721
100
AcDbEntity
  8
0部品9
  6
中線
 48
0.5
370
    30
100
AcDbVertex
100
AcDb3dPolylineVertex
 10
5157.837753555446
 20
1542.499713102206
 30
0.0
 70
    32
  0
VERTEX
  5
117B8
330
11721
100
AcDbEntity
  8
0部品9
  6
中線
 48
0.5
370
    30
100
AcDbVertex
100
AcDb3dPolylineVertex
 10
5157.915753555446
 20
1542.525713102206
 30
0.0
 70
    32
  0
VERTEX
  5
117B9
330
11721
100
AcDbEntity
  8
0部品9
  6
中線
 48
0.5
370
    30
100
AcDbVertex
100
AcDb3dPolylineVertex
 10
5157.994753555446
 20
1542.551713102206
 30
0.0
 70
    32
  0
VERTEX
  5
117BA
330
11721
100
AcDbEntity
  8
0部品9
  6
中線
 48
0.5
370
    30
100
AcDbVertex
100
AcDb3dPolylineVertex
 10
5158.073753555446
 20
1542.577713102206
 30
0.0
 70
    32
  0
VERTEX
  5
117BB
330
11721
100
AcDbEntity
  8
0部品9
  6
中線
 48
0.5
370
    30
100
AcDbVertex
100
AcDb3dPolylineVertex
 10
5158.151753555446
 20
1542.604713102206
 30
0.0
 70
    32
  0
VERTEX
  5
117BC
330
11721
100
AcDbEntity
  8
0部品9
  6
中線
 48
0.5
370
    30
100
AcDbVertex
100
AcDb3dPolylineVertex
 10
5158.230753555446
 20
1542.630713102206
 30
0.0
 70
    32
  0
VERTEX
  5
117BD
330
11721
100
AcDbEntity
  8
0部品9
  6
中線
 48
0.5
370
    30
100
AcDbVertex
100
AcDb3dPolylineVertex
 10
5158.308753555446
 20
1542.656713102206
 30
0.0
 70
    32
  0
VERTEX
  5
117BE
330
11721
100
AcDbEntity
  8
0部品9
  6
中線
 48
0.5
370
    30
100
AcDbVertex
100
AcDb3dPolylineVertex
 10
5158.387753555445
 20
1542.683713102206
 30
0.0
 70
    32
  0
VERTEX
  5
117BF
330
11721
100
AcDbEntity
  8
0部品9
  6
中線
 48
0.5
370
    30
100
AcDbVertex
100
AcDb3dPolylineVertex
 10
5158.466753555445
 20
1542.709713102206
 30
0.0
 70
    32
  0
VERTEX
  5
117C0
330
11721
100
AcDbEntity
  8
0部品9
  6
中線
 48
0.5
370
    30
100
AcDbVertex
100
AcDb3dPolylineVertex
 10
5158.544753555446
 20
1542.735713102206
 30
0.0
 70
    32
  0
VERTEX
  5
117C1
330
11721
100
AcDbEntity
  8
0部品9
  6
中線
 48
0.5
370
    30
100
AcDbVertex
100
AcDb3dPolylineVertex
 10
5158.623753555446
 20
1542.762713102206
 30
0.0
 70
    32
  0
SEQEND
  5
117C2
330
11721
100
AcDbEntity
  8
0部品9
  6
中線
 48
0.5
370
    30
  0
DIMENSION
  5
11A73
330
1F
100
AcDbEntity
  8
AM_5
100
AcDbDimension
  2
*D197
 10
5210.247762651897
 20
1477.542239379629
 30
0.0
 11
5219.997762651898
 21
1477.542239379629
 31
0.0
 70
   160
 71
     5
 42
19.5
  3
SYS$0
100
AcDbAlignedDimension
 13
5229.747762651897
 23
1471.542237949117
 33
0.0
 14
5210.247762651897
 24
1477.542239379629
 34
0.0
100
AcDbRotatedDimension
  0
DIMENSION
  5
11A89
330
1F
100
AcDbEntity
  8
AM_5
100
AcDbDimension
  2
*D198
 10
5227.444486867911
 20
1464.880159190338
 30
0.0
 11
5251.581053006106
 21
1473.465266435954
 31
0.0
 70
   163
  1
下孔:<> 深さ11
 71
     5
 42
5.800000190735772
  3
SYS$3
100
AcDbDiametricDimension
 15
5232.051038435877
 25
1468.404316517161
 35
0.0
 40
0.0
1001
ACAD
1000
DSTYLE
1002
{
1070
    41
1040
1.0
1070
   172
1070
     1
1070
   342
1005
6C4
1002
}
  0
LINE
  5
11AE1
330
1F
100
AcDbEntity
  8
0部品13
100
AcDbLine
 10
4949.998419946483
 20
1483.132497869444
 30
0.0
 11
4983.498419946483
 21
1483.132497869444
 31
0.0
  0
LINE
  5
11AE2
330
1F
100
AcDbEntity
  8
0部品13
100
AcDbLine
 10
4948.998419946484
 20
1448.632497869444
 30
0.0
 11
4951.498419946483
 21
1448.632497869444
 31
0.0
  0
LINE
  5
11AE3
330
1F
100
AcDbEntity
  8
0部品13
100
AcDbLine
 10
4948.998419946484
 20
1369.244253240544
 30
0.0
 11
4968.498419946484
 21
1369.244253240544
 31
0.0
  0
LINE
  5
11AE4
330
1F
100
AcDbEntity
  8
0部品13
100
AcDbLine
 10
4948.998419946484
 20
1399.244268499334
 30
0.0
 11
4968.498419946484
 21
1399.244268499334
 31
0.0
  0
LINE
  5
11AE5
330
1F
100
AcDbEntity
  8
0部品13
100
AcDbLine
 10
4948.998419946484
 20
1399.244268499334
 30
0.0
 11
4948.998419946484
 21
1369.244253240544
 31
0.0
  0
LINE
  5
11AE6
330
1F
100
AcDbEntity
  8
0部品13
100
AcDbLine
 10
4948.998419946484
 20
1482.132497869444
 30
0.0
 11
4948.998419946484
 21
1448.632497869444
 31
0.0
  0
ARC
  5
11AE9
330
1F
100
AcDbEntity
  8
0部品13
100
AcDbCircle
 10
4949.998419946483
 20
1482.132497869444
 30
0.0
 40
1.0
100
AcDbArc
 50
90.00000250446868
 51
180.0000050089504
  0
ARC
  5
11AEB
330
1F
100
AcDbEntity
  8
0部品13
100
AcDbCircle
 10
4968.498419946484
 20
1384.244268499334
 30
0.0
 40
15.0
100
AcDbArc
 50
269.9999974955313
 51
90.00000250446868
  0
ARC
  5
11AEC
330
1F
100
AcDbEntity
  8
0部品13
100
AcDbCircle
 10
4951.498419946483
 20
1371.244253240544
 30
0.0
 40
2.0
100
AcDbArc
 50
269.9999974955313
 51
0.0
  0
LINE
  5
11AED
330
1F
100
AcDbEntity
  8
0部品13
100
AcDbLine
 10
4953.498419946484
 20
1473.632497869444
 30
0.0
 11
4953.498419946484
 21
1450.632497869444
 31
0.0
  0
LINE
  5
11AEE
330
1F
100
AcDbEntity
  8
0部品13
100
AcDbLine
 10
4953.498419946484
 20
1397.244268499334
 30
0.0
 11
4953.498419946484
 21
1371.244253240544
 31
0.0
  0
CIRCLE
  5
11AF2
330
1F
100
AcDbEntity
  8
0部品13
100
AcDbCircle
 10
4968.498419946484
 20
1384.244268499334
 30
0.0
 40
6.25
  0
LINE
  5
11AF7
330
1F
100
AcDbEntity
  8
0部品13
  6
中心線1
 48
0.5
370
    13
100
AcDbLine
 10
4968.498419946484
 20
1393.494268499334
 30
0.0
 11
4968.498419946484
 21
1374.994253240544
 31
0.0
  0
ARC
  5
11B02
330
1F
100
AcDbEntity
  8
0部品13
100
AcDbCircle
 10
4951.498419946483
 20
1397.244268499334
 30
0.0
 40
2.0
100
AcDbArc
 50
0.0
 51
90.00000250446868
  0
ARC
  5
11B03
330
1F
100
AcDbEntity
  8
0部品13
100
AcDbCircle
 10
4951.498419946483
 20
1450.632497869444
 30
0.0
 40
2.0
100
AcDbArc
 50
269.9999974955313
 51
0.0
  0
ARC
  5
11B04
330
1F
100
AcDbEntity
  8
0部品13
100
AcDbCircle
 10
4981.498419946484
 20
1480.632497869444
 30
0.0
 40
2.0
100
AcDbArc
 50
269.9999974955313
 51
0.0
  0
LINE
  5
11B07
330
1F
100
AcDbEntity
  8
0部品13
100
AcDbLine
 10
4958.498419946483
 20
1478.632497869444
 30
0.0
 11
4981.498419946484
 21
1478.632497869444
 31
0.0
  0
ARC
  5
11B0A
330
1F
100
AcDbEntity
  8
0部品13
100
AcDbCircle
 10
4958.498419946483
 20
1473.632497869444
 30
0.0
 40
5.0
100
AcDbArc
 50
90.00000250446868
 51
180.0000050089504
  0
LINE
  5
11B10
330
1F
100
AcDbEntity
  8
0部品13
100
AcDbLine
 10
4983.498419946483
 20
1483.132497869444
 30
0.0
 11
4983.498419946483
 21
1480.632497869444
 31
0.0
  0
DIMENSION
  5
11CFB
330
1F
100
AcDbEntity
  8
AM_5
100
AcDbDimension
  2
*D199
 10
4983.498419946483
 20
1415.244268499334
 30
0.0
 11
4966.248419946484
 21
1415.244268499334
 31
0.0
 70
   160
 71
     5
 42
34.5
  3
SYS$0
100
AcDbAlignedDimension
 13
4948.998419946484
 23
1399.244268499334
 33
0.0
 14
4983.498419946483
 24
1384.244268499334
 34
0.0
100
AcDbRotatedDimension
  0
DIMENSION
  5
11CFC
330
1F
100
AcDbEntity
  8
AM_5
100
AcDbDimension
  2
*D200
 10
4993.498419946483
 20
1399.244268499334
 30
0.0
 11
4993.498419946483
 21
1384.24426086994
 31
0.0
 70
   160
 71
     5
 42
30.0000152587902
  3
SYS$0
100
AcDbAlignedDimension
 13
4968.498419946484
 23
1369.244253240544
 33
0.0
 14
4968.498419946484
 24
1399.244268499334
 34
0.0
 50
90.0
100
AcDbRotatedDimension
  0
CIRCLE
  5
11DB4
330
1F
100
AcDbEntity
  8
0部品13
100
AcDbCircle
 10
4968.498419946484
 20
1384.244260869939
 30
0.0
 40
3.25
  0
LINE
  5
11DB6
330
1F
100
AcDbEntity
  8
0部品13
  6
中心線1
 48
0.5
370
    13
100
AcDbLine
 10
4968.498419946484
 20
1475.632497869444
 30
0.0
 11
4968.498419946484
 21
1486.132497869444
 31
0.0
1001
GENIUS_GENOBJ-N-CEN_13
1002
{
1000
OWNER
1000
GEN
1002
}
1001
GENIUS_GENODEF_13
1002
{
1000
HIER
1070
     0
1002
}
1002
{
1000
MANEDIT
1070
     0
1002
}
1002
{
1000
NOSEL
1070
     0
1002
}
1002
{
1000
BEHIND
1070
     0
1002
}
1002
{
1000
OTHER
1070
     0
1002
}
1002
{
1000
REACTOR
1002
}
1001
GENIUS_GENCEN_19
1002
{
1040
3.0
1002
}
  0
LINE
  5
11DB7
330
1F
100
AcDbEntity
  8
0部品13
  6
中心線1
 48
0.5
370
    13
100
AcDbLine
 10
4956.498419946484
 20
1463.632497869444
 30
0.0
 11
4945.998419946484
 21
1463.632497869444
 31
0.0
1001
GENIUS_GENODEF_13
1002
{
1000
HIER
1070
     0
1002
}
1002
{
1000
MANEDIT
1070
     0
1002
}
1002
{
1000
NOSEL
1070
     0
1002
}
1002
{
1000
BEHIND
1070
     0
1002
}
1002
{
1000
OTHER
1070
     0
1002
}
1002
{
1000
REACTOR
1002
}
1001
GENIUS_GENOBJ-N-CEN_13
1002
{
1000
OWNER
1000
GEN
1002
}
1001
GENIUS_GENCEN_19
1002
{
1040
3.0
1002
}
  0
LINE
  5
11DC4
330
1F
100
AcDbEntity
  8
0部品13
  6
中心線1
 48
0.5
370
    13
100
AcDbLine
 10
4986.498419946483
 20
1384.24426916276
 30
0.0
 11
4945.998419946484
 21
1384.244260206513
 31
0.0
1001
GENIUS_GENOBJ-N-CEN_13
1002
{
1000
OWNER
1000
GEN
1002
}
1001
GENIUS_GENODEF_13
1002
{
1000
HIER
1070
     0
1002
}
1002
{
1000
MANEDIT
1070
     0
1002
}
1002
{
1000
NOSEL
1070
     0
1002
}
1002
{
1000
BEHIND
1070
     0
1002
}
1002
{
1000
OTHER
1070
     0
1002
}
1002
{
1000
REACTOR
1002
}
1001
GENIUS_GENCEN_19
1002
{
1040
3.0
1002
}
  0
LINE
  5
11DE5
330
1F
100
AcDbEntity
  8
0部品9
  6
細線
 48
0.5
370
    13
100
AcDbLine
 10
5125.373653312777
 20
1469.14222259496
 30
0.0
 11
5132.873638053986
 21
1469.14222259496
 31
0.0
  0
HATCH
  5
11DE6
330
1F
100
AcDbEntity
  8
0部品13
  6
細線
370
    13
100
AcDbHatch
 10
0.0
 20
0.0
 30
0.0
210
0.0
220
0.0
230
1.0
  2
ANSI31
 70
     0
 71
     1
 91
        1
 92
        1
 93
        1
 72
     2
 10
5229.747762651897
 20
1466.64223785375
 40
2.9000000953674
 50
0.0
 51
360.0
 73
     1
 97
        1
330
115A2
 75
     0
 76
     1
 52
0.0
 41
0.3
 77
     0
 78
     1
 53
45.0
 43
-25.51888034268813
 44
-1.224185405161733
 45
-0.6735192090801864
 46
0.6735192090801866
 79
     0
 98
        1
 10
-25.51888034268813
 20
-1.224185405161733
1001
ACAD
1010
0.0
1020
0.0
1030
0.0
  0
DIMENSION
  5
11ECE
330
1F
100
AcDbEntity
  8
AM_5
100
AcDbDimension
  2
*D201
 10
4948.998419946484
 20
1407.244268499334
 30
0.0
 11
4958.026985405776
 21
1407.244268499334
 31
0.0
 70
   160
 71
     5
 42
19.5
  3
SYS$0
100
AcDbAlignedDimension
 13
4968.498419946484
 23
1393.494268499334
 33
0.0
 14
4948.998419946484
 24
1399.244268499334
 34
0.0
100
AcDbRotatedDimension
  0
LINE
  5
11F61
330
1F
100
AcDbEntity
  8
size
100
AcDbLine
 10
4869.628380429663
 20
1299.338217368422
 30
0.0
 11
5289.628380429663
 21
1299.338217368422
 31
0.0
1001
GENIUS_GENREC_14
1002
{
1000
PYDIR
1011
4869.628380429663
1021
1596.338217368422
1031
0.0
1002
}
1002
{
1000
PXDIR
1011
5289.628380429663
1021
1299.338217368422
1031
0.0
1002
}
1002
{
1000
PORI
1011
4869.628380429663
1021
1299.338217368422
1031
0.0
1002
}
1002
{
1000
PINS
1011
5079.628380429663
1021
1447.838217368422
1031
0.0
1002
}
1002
{
1000
HVAL
1000
297
1002
}
1002
{
1000
H
1070
     2
1002
}
1002
{
1000
WVAL
1000
420
1002
}
1002
{
1000
W
1070
     2
1002
}
1002
{
1000
C
1070
     4
1002
}
1001
GENIUS_GENOBJ-N-REC_13
1002
{
1000
OWNER
1000
GEN
1002
}
1001
GENIUS_GENODEF_13
1002
{
1000
HIER
1070
     0
1002
}
1002
{
1000
MANEDIT
1070
     0
1002
}
1002
{
1000
NOSEL
1070
     0
1002
}
1002
{
1000
BEHIND
1070
     0
1002
}
1002
{
1000
OTHER
1070
     0
1002
}
1002
{
1000
REACTOR
1002
}
  0
LINE
  5
11F62
330
1F
100
AcDbEntity
  8
size
100
AcDbLine
 10
5289.628380429663
 20
1299.338217368422
 30
0.0
 11
5289.628380429663
 21
1596.338217368422
 31
0.0
1001
GENIUS_GENREC_14
1002
{
1000
PYDIR
1011
4869.628380429663
1021
1596.338217368422
1031
0.0
1002
}
1002
{
1000
PXDIR
1011
5289.628380429663
1021
1299.338217368422
1031
0.0
1002
}
1002
{
1000
PORI
1011
4869.628380429663
1021
1299.338217368422
1031
0.0
1002
}
1002
{
1000
PINS
1011
5079.628380429663
1021
1447.838217368422
1031
0.0
1002
}
1002
{
1000
HVAL
1000
297
1002
}
1002
{
1000
H
1070
     2
1002
}
1002
{
1000
WVAL
1000
420
1002
}
1002
{
1000
W
1070
     2
1002
}
1002
{
1000
C
1070
     4
1002
}
1001
GENIUS_GENOBJ-N-REC_13
1002
{
1000
OWNER
1000
GEN
1002
}
1001
GENIUS_GENODEF_13
1002
{
1000
HIER
1070
     0
1002
}
1002
{
1000
MANEDIT
1070
     0
1002
}
1002
{
1000
NOSEL
1070
     0
1002
}
1002
{
1000
BEHIND
1070
     0
1002
}
1002
{
1000
OTHER
1070
     0
1002
}
1002
{
1000
REACTOR
1002
}
  0
LINE
  5
11F63
330
1F
100
AcDbEntity
  8
size
100
AcDbLine
 10
5289.628380429663
 20
1596.338217368422
 30
0.0
 11
4869.628380429663
 21
1596.338217368422
 31
0.0
1001
GENIUS_GENREC_14
1002
{
1000
PYDIR
1011
4869.628380429663
1021
1596.338217368422
1031
0.0
1002
}
1002
{
1000
PXDIR
1011
5289.628380429663
1021
1299.338217368422
1031
0.0
1002
}
1002
{
1000
PORI
1011
4869.628380429663
1021
1299.338217368422
1031
0.0
1002
}
1002
{
1000
PINS
1011
5079.628380429663
1021
1447.838217368422
1031
0.0
1002
}
1002
{
1000
HVAL
1000
297
1002
}
1002
{
1000
H
1070
     2
1002
}
1002
{
1000
WVAL
1000
420
1002
}
1002
{
1000
W
1070
     2
1002
}
1002
{
1000
C
1070
     4
1002
}
1001
GENIUS_GENOBJ-N-REC_13
1002
{
1000
OWNER
1000
GEN
1002
}
1001
GENIUS_GENODEF_13
1002
{
1000
HIER
1070
     0
1002
}
1002
{
1000
MANEDIT
1070
     0
1002
}
1002
{
1000
NOSEL
1070
     0
1002
}
1002
{
1000
BEHIND
1070
     0
1002
}
1002
{
1000
OTHER
1070
     0
1002
}
1002
{
1000
REACTOR
1002
}
  0
LINE
  5
11F64
330
1F
100
AcDbEntity
  8
size
100
AcDbLine
 10
4869.628380429663
 20
1596.338217368422
 30
0.0
 11
4869.628380429663
 21
1299.338217368422
 31
0.0
1001
GENIUS_GENREC_14
1002
{
1000
PYDIR
1011
4869.628380429663
1021
1596.338217368422
1031
0.0
1002
}
1002
{
1000
PXDIR
1011
5289.628380429663
1021
1299.338217368422
1031
0.0
1002
}
1002
{
1000
PORI
1011
4869.628380429663
1021
1299.338217368422
1031
0.0
1002
}
1002
{
1000
PINS
1011
5079.628380429663
1021
1447.838217368422
1031
0.0
1002
}
1002
{
1000
HVAL
1000
297
1002
}
1002
{
1000
H
1070
     2
1002
}
1002
{
1000
WVAL
1000
420
1002
}
1002
{
1000
W
1070
     2
1002
}
1002
{
1000
C
1070
     4
1002
}
1001
GENIUS_GENOBJ-N-REC_13
1002
{
1000
OWNER
1000
GEN
1002
}
1001
GENIUS_GENODEF_13
1002
{
1000
HIER
1070
     0
1002
}
1002
{
1000
MANEDIT
1070
     0
1002
}
1002
{
1000
NOSEL
1070
     0
1002
}
1002
{
1000
BEHIND
1070
     0
1002
}
1002
{
1000
OTHER
1070
     0
1002
}
1002
{
1000
REACTOR
1002
}
  0
LINE
  5
11F65
330
1F
100
AcDbEntity
  8
waku
100
AcDbLine
 10
5278.128380429663
 20
1307.838217368422
 30
0.0
 11
5278.128380429663
 21
1587.838217368422
 31
0.0
1001
GENIUS_GENREC_14
1002
{
1000
PYDIR
1011
4869.628380429663
1021
1596.338217368422
1031
0.0
1002
}
1002
{
1000
PXDIR
1011
5289.628380429663
1021
1299.338217368422
1031
0.0
1002
}
1002
{
1000
PORI
1011
4869.628380429663
1021
1299.338217368422
1031
0.0
1002
}
1002
{
1000
PINS
1011
5079.628380429663
1021
1447.838217368422
1031
0.0
1002
}
1002
{
1000
HVAL
1000
297
1002
}
1002
{
1000
H
1070
     2
1002
}
1002
{
1000
WVAL
1000
420
1002
}
1002
{
1000
W
1070
     2
1002
}
1002
{
1000
C
1070
     4
1002
}
1001
GENIUS_GENOBJ-N-REC_13
1002
{
1000
OWNER
1000
GEN
1002
}
1001
GENIUS_GENODEF_13
1002
{
1000
HIER
1070
     0
1002
}
1002
{
1000
MANEDIT
1070
     0
1002
}
1002
{
1000
NOSEL
1070
     0
1002
}
1002
{
1000
BEHIND
1070
     0
1002
}
1002
{
1000
OTHER
1070
     0
1002
}
1002
{
1000
REACTOR
1002
}
  0
LINE
  5
11F66
330
1F
100
AcDbEntity
  8
waku
100
AcDbLine
 10
4881.128380429663
 20
1587.838217368422
 30
0.0
 11
4881.128380429663
 21
1307.838217368422
 31
0.0
1001
GENIUS_GENREC_14
1002
{
1000
PYDIR
1011
4869.628380429663
1021
1596.338217368422
1031
0.0
1002
}
1002
{
1000
PXDIR
1011
5289.628380429663
1021
1299.338217368422
1031
0.0
1002
}
1002
{
1000
PORI
1011
4869.628380429663
1021
1299.338217368422
1031
0.0
1002
}
1002
{
1000
PINS
1011
5079.628380429663
1021
1447.838217368422
1031
0.0
1002
}
1002
{
1000
HVAL
1000
297
1002
}
1002
{
1000
H
1070
     2
1002
}
1002
{
1000
WVAL
1000
420
1002
}
1002
{
1000
W
1070
     2
1002
}
1002
{
1000
C
1070
     4
1002
}
1001
GENIUS_GENOBJ-N-REC_13
1002
{
1000
OWNER
1000
GEN
1002
}
1001
GENIUS_GENODEF_13
1002
{
1000
HIER
1070
     0
1002
}
1002
{
1000
MANEDIT
1070
     0
1002
}
1002
{
1000
NOSEL
1070
     0
1002
}
1002
{
1000
BEHIND
1070
     0
1002
}
1002
{
1000
OTHER
1070
     0
1002
}
1002
{
1000
REACTOR
1002
}
  0
LINE
  5
11F67
330
1F
100
AcDbEntity
  8
waku
100
AcDbLine
 10
5278.128380429663
 20
1587.838217368422
 30
0.0
 11
4881.128380429663
 21
1587.838217368422
 31
0.0
1001
GENIUS_GENREC_14
1002
{
1000
PYDIR
1011
4869.628380429663
1021
1596.338217368422
1031
0.0
1002
}
1002
{
1000
PXDIR
1011
5289.628380429663
1021
1299.338217368422
1031
0.0
1002
}
1002
{
1000
PORI
1011
4869.628380429663
1021
1299.338217368422
1031
0.0
1002
}
1002
{
1000
PINS
1011
5079.628380429663
1021
1447.838217368422
1031
0.0
1002
}
1002
{
1000
HVAL
1000
297
1002
}
1002
{
1000
H
1070
     2
1002
}
1002
{
1000
WVAL
1000
420
1002
}
1002
{
1000
W
1070
     2
1002
}
1002
{
1000
C
1070
     4
1002
}
1001
GENIUS_GENOBJ-N-REC_13
1002
{
1000
OWNER
1000
GEN
1002
}
1001
GENIUS_GENODEF_13
1002
{
1000
HIER
1070
     0
1002
}
1002
{
1000
MANEDIT
1070
     0
1002
}
1002
{
1000
NOSEL
1070
     0
1002
}
1002
{
1000
BEHIND
1070
     0
1002
}
1002
{
1000
OTHER
1070
     0
1002
}
1002
{
1000
REACTOR
1002
}
  0
LINE
  5
11F68
330
1F
100
AcDbEntity
  8
waku
100
AcDbLine
 10
4881.128380429663
 20
1307.838217368422
 30
0.0
 11
5278.128380429663
 21
1307.838217368422
 31
0.0
  0
LINE
  5
11F69
330
1F
100
AcDbEntity
  8
AM_0
100
AcDbLine
 10
4901.128380429662
 20
1587.838217368422
 30
0.0
 11
4901.128380429664
 21
1539.838217368422
 31
0.0
  0
LINE
  5
11F6A
330
1F
100
AcDbEntity
  8
AM_0
100
AcDbLine
 10
4881.128380429663
 20
1579.838217368422
 30
0.0
 11
4999.128379991624
 21
1579.838217368422
 31
0.0
  0
LINE
  5
11F6B
330
1F
100
AcDbEntity
  8
AM_0
100
AcDbLine
 10
4881.128380429663
 20
1571.838217368422
 30
0.0
 11
4999.128379991624
 21
1571.838217368422
 31
0.0
  0
LINE
  5
11F6C
330
1F
100
AcDbEntity
  8
AM_0
100
AcDbLine
 10
4881.128380429663
 20
1563.838217368422
 30
0.0
 11
4999.128379991624
 21
1563.838217368422
 31
0.0
  0
LINE
  5
11F6D
330
1F
100
AcDbEntity
  8
AM_0
100
AcDbLine
 10
4881.128380429663
 20
1587.838217368422
 30
0.0
 11
4881.128380429663
 21
1547.838217368422
 31
0.0
  0
LINE
  5
11F6E
330
1F
100
AcDbEntity
  8
AM_0
100
AcDbLine
 10
4881.128380429663
 20
1587.838217368422
 30
0.0
 11
4999.128379991624
 21
1587.838217368422
 31
0.0
  0
LINE
  5
11F6F
330
1F
100
AcDbEntity
  8
AM_0
100
AcDbLine
 10
4999.128379991624
 20
1587.838217368422
 30
0.0
 11
4999.128379991624
 21
1539.838217368422
 31
0.0
  0
LINE
  5
11F70
330
1F
100
AcDbEntity
  8
AM_0
100
AcDbLine
 10
4881.128380429663
 20
1555.838217368422
 30
0.0
 11
4999.128379991624
 21
1555.838217368422
 31
0.0
  0
LINE
  5
11F71
330
1F
100
AcDbEntity
  8
AM_0
100
AcDbLine
 10
4881.128380429663
 20
1547.838217368422
 30
0.0
 11
4999.128379991624
 21
1547.838217368422
 31
0.0
  0
TEXT
  5
11F72
330
1F
100
AcDbEntity
  8
AM_6
100
AcDbText
 10
4886.785380429662
 20
1582.238217368422
 30
0.0
 40
3.2
  1
品　名
 41
0.85537027
100
AcDbText
  0
TEXT
  5
11F73
330
1F
100
AcDbEntity
  8
AM_6
100
AcDbText
 10
4886.785380429662
 20
1574.238217368422
 30
0.0
 40
3.2
  1
品　番
 41
0.85537027
100
AcDbText
  0
TEXT
  5
11F74
330
1F
100
AcDbEntity
  8
AM_6
100
AcDbText
 10
4886.785380429662
 20
1566.238217368422
 30
0.0
 40
3.2
  1
材　質
 41
0.85537027
100
AcDbText
  0
TEXT
  5
11F75
330
1F
100
AcDbEntity
  8
AM_6
100
AcDbText
 10
4886.785380429662
 20
1558.238217368422
 30
0.0
 40
3.2
  1
仕上げ
 41
0.85537027
100
AcDbText
  0
TEXT
  5
11F76
330
1F
100
AcDbEntity
  8
AM_6
100
AcDbText
 10
4885.185380429662
 20
1550.238217368422
 30
0.0
 40
3.2
  1
左右勝手
 41
0.8512700499999999
100
AcDbText
  0
MTEXT
  5
11F77
330
1F
100
AcDbEntity
  8
AM_6
100
AcDbMText
 10
4901.128380429662
 20
1583.838217368422
 30
0.0
 40
3.2
 41
90.0
 71
     4
 72
     5
  1
  パネルジョイントAタイプ
 73
     1
 44
1.0
1001
ACAD
1000
MTEXTBEGIN
1070
    73
1070
     1
1070
    44
1040
1.0
1070
    74
1070
     0
1000
MTEXTEND
  0
MTEXT
  5
11F78
330
1F
100
AcDbEntity
  8
AM_6
100
AcDbMText
 10
4901.128380429662
 20
1575.838217368422
 30
0.0
 40
3.2
 41
90.0
 71
     4
 72
     5
  1
  LRB-977
 73
     1
 44
1.0
1001
ACAD
1000
MTEXTBEGIN
1070
    73
1070
     1
1070
    44
1040
1.0
1070
    74
1070
     0
1000
MTEXTEND
  0
MTEXT
  5
11F79
330
1F
100
AcDbEntity
  8
AM_6
100
AcDbMText
 10
4901.128380429662
 20
1567.838217368422
 30
0.0
 40
3.2
 41
90.0
 71
     4
 72
     5
  1
  亜鉛ダイキャスト
 73
     1
 44
1.0
1001
ACAD
1000
MTEXTBEGIN
1070
    73
1070
     1
1070
    44
1040
1.0
1070
    74
1070
     0
1000
MTEXTEND
  0
MTEXT
  5
11F7A
330
1F
100
AcDbEntity
  8
AM_6
100
AcDbMText
 10
4901.128380429662
 20
1559.838217368422
 30
0.0
 40
3.2
 41
90.0
 71
     4
 72
     5
  1
  焼付塗装
 73
     1
 44
1.0
1001
ACAD
1000
MTEXTBEGIN
1070
    73
1070
     1
1070
    44
1040
1.0
1070
    74
1070
     0
1000
MTEXTEND
  0
MTEXT
  5
11F7B
330
1F
100
AcDbEntity
  8
AM_6
100
AcDbMText
 10
4901.128380429662
 20
1551.838217368422
 30
0.0
 40
3.2
 41
90.0
 71
     4
 72
     5
  1
  無し
 73
     1
 44
1.0
1001
ACAD
1000
MTEXTBEGIN
1070
    73
1070
     1
1070
    44
1040
1.0
1070
    74
1070
     0
1000
MTEXTEND
  0
LINE
  5
11F7C
330
1F
100
AcDbEntity
  8
AM_0
100
AcDbLine
 10
4881.128380429663
 20
1539.838217368422
 30
0.0
 11
4999.128379991624
 21
1539.838217368422
 31
0.0
  0
LINE
  5
11F7D
330
1F
100
AcDbEntity
  8
AM_0
100
AcDbLine
 10
4901.128380429662
 20
1539.838217368422
 30
0.0
 11
4999.128379991624
 21
1539.838217368422
 31
0.0
  0
TEXT
  5
11F7E
330
1F
100
AcDbEntity
  8
AM_6
100
AcDbText
 10
4883.585380429662
 20
1542.238217368422
 30
0.0
 40
3.2
  1
セットビス
 41
0.84892707
100
AcDbText
  0
MTEXT
  5
11F7F
330
1F
100
AcDbEntity
  8
AM_6
100
AcDbMText
 10
4901.128380429661
 20
1543.838217368422
 30
0.0
 40
3.2
 41
97.99999956196188
 71
     4
 72
     5
  1
  M6×14丸サラタッピンネジ（C種） + SUS : 2本
 73
     1
 44
1.0
1001
ACAD
1000
MTEXTBEGIN
1070
    73
1070
     1
1070
    44
1040
1.0
1070
    74
1070
     0
1000
MTEXTEND
  0
CIRCLE
  5
11F84
330
1F
100
AcDbEntity
  8
AM_2
100
AcDbCircle
 10
4952.55424444743
 20
1543.609558055257
 30
0.0
 40
2.0
  0
LINE
  5
121D6
330
1F
100
AcDbEntity
  8
0部品13
100
AcDbLine
 10
5071.409899530427
 20
1369.244253240544
 30
0.0
 11
5051.909899530427
 21
1369.244253240544
 31
0.0
  0
LINE
  5
121D7
330
1F
100
AcDbEntity
  8
0部品13
100
AcDbLine
 10
5071.409899530427
 20
1399.244268499334
 30
0.0
 11
5051.909899530427
 21
1399.244268499334
 31
0.0
  0
LINE
  5
121D8
330
1F
100
AcDbEntity
  8
0部品13
100
AcDbLine
 10
5071.409899530427
 20
1399.244268499334
 30
0.0
 11
5071.409899530427
 21
1369.244253240544
 31
0.0
  0
ARC
  5
121D9
330
1F
100
AcDbEntity
  8
0部品13
100
AcDbCircle
 10
5051.909899530427
 20
1384.244268499334
 30
0.0
 40
15.0
100
AcDbArc
 50
89.99999749558341
 51
270.0000025045208
  0
ARC
  5
121DA
330
1F
100
AcDbEntity
  8
0部品13
100
AcDbCircle
 10
5068.909899530427
 20
1371.244253240544
 30
0.0
 40
2.0
100
AcDbArc
 50
180.0
 51
270.0000025045208
  0
LINE
  5
121DB
330
1F
100
AcDbEntity
  8
0部品13
100
AcDbLine
 10
5066.909899530426
 20
1397.244268499334
 30
0.0
 11
5066.909899530426
 21
1371.244253240544
 31
0.0
  0
CIRCLE
  5
121DC
330
1F
100
AcDbEntity
  8
0部品13
100
AcDbCircle
 10
5051.909899530427
 20
1384.244268499334
 30
0.0
 40
6.25
  0
LINE
  5
121DD
330
1F
100
AcDbEntity
  8
0部品13
  6
中心線1
 48
0.5
370
    13
100
AcDbLine
 10
5051.909899530427
 20
1393.494268499334
 30
0.0
 11
5051.909899530427
 21
1374.994253240544
 31
0.0
  0
ARC
  5
121DE
330
1F
100
AcDbEntity
  8
0部品13
100
AcDbCircle
 10
5068.909899530427
 20
1397.244268499334
 30
0.0
 40
2.0
100
AcDbArc
 50
89.99999749558341
 51
180.0
  0
DIMENSION
  5
121E0
330
1F
100
AcDbEntity
  8
AM_5
100
AcDbDimension
  2
*D203
 10
5036.909899530427
 20
1415.244268499334
 30
0.0
 11
5054.159899530427
 21
1415.244268499334
 31
0.0
 70
   160
 71
     5
 42
34.5
  3
SYS$0
100
AcDbAlignedDimension
 13
5071.409899530427
 23
1399.244268499334
 33
0.0
 14
5036.909899530427
 24
1384.244268499334
 34
0.0
 50
180.0
100
AcDbRotatedDimension
  0
DIMENSION
  5
121E1
330
1F
100
AcDbEntity
  8
AM_5
100
AcDbDimension
  2
*D204
 10
5026.909899530426
 20
1399.244268499334
 30
0.0
 11
5026.909899530426
 21
1384.24426086994
 31
0.0
 70
   160
 71
     5
 42
30.0000152587902
  3
SYS$0
100
AcDbAlignedDimension
 13
5051.909899530427
 23
1369.244253240544
 33
0.0
 14
5051.909899530427
 24
1399.244268499334
 34
0.0
 50
90.0
100
AcDbRotatedDimension
  0
CIRCLE
  5
121E2
330
1F
100
AcDbEntity
  8
0部品13
100
AcDbCircle
 10
5051.909899530427
 20
1384.244260869939
 30
0.0
 40
3.25
  0
LINE
  5
121E3
330
1F
100
AcDbEntity
  8
0部品13
  6
中心線1
 48
0.5
370
    13
100
AcDbLine
 10
5033.909899530427
 20
1384.24426916276
 30
0.0
 11
5074.409899530427
 21
1384.244260206513
 31
0.0
1001
GENIUS_GENOBJ-N-CEN_13
1002
{
1000
OWNER
1000
GEN
1002
}
1001
GENIUS_GENODEF_13
1002
{
1000
HIER
1070
     0
1002
}
1002
{
1000
MANEDIT
1070
     0
1002
}
1002
{
1000
NOSEL
1070
     0
1002
}
1002
{
1000
BEHIND
1070
     0
1002
}
1002
{
1000
OTHER
1070
     0
1002
}
1002
{
1000
REACTOR
1002
}
1001
GENIUS_GENCEN_19
1002
{
1040
3.0
1002
}
  0
DIMENSION
  5
121E4
330
1F
100
AcDbEntity
  8
AM_5
100
AcDbDimension
  2
*D202
 10
5071.409899530427
 20
1407.244268499334
 30
0.0
 11
5061.690506023391
 21
1407.244268499334
 31
0.0
 70
   160
 71
     5
 42
19.5
  3
SYS$0
100
AcDbAlignedDimension
 13
5051.909899530427
 23
1393.494268499334
 33
0.0
 14
5071.409899530427
 24
1399.244268499334
 34
0.0
 50
180.0
100
AcDbRotatedDimension
  0
AMDTACMWBLOCKBOMENTITY
  5
13BB9
330
1F
100
AcDbEntity
  8
AM_5
 92
        8
310
0800000000000000
  0
AMDTACMWBLOCKBOMENTITY
  5
13BBB
330
1F
100
AcDbEntity
  8
AM_5
 92
        8
310
0800000000000000
  0
AMDTACMWBLOCKBOMENTITY
  5
13BBD
330
1F
100
AcDbEntity
  8
AM_5
 92
        8
310
0800000000000000
  0
AMDTACMWBLOCKBOMENTITY
  5
13BBF
330
1F
100
AcDbEntity
  8
AM_5
 92
        8
310
0800000000000000
  0
AMDTACMWBLOCKBOMENTITY
  5
13BC1
330
1F
100
AcDbEntity
  8
AM_5
 92
        8
310
0800000000000000
  0
AMDTACMWBLOCKBOMENTITY
  5
13BC3
330
1F
100
AcDbEntity
  8
AM_5
 92
        8
310
0800000000000000
  0
AMDTACMWBLOCKBOMENTITY
  5
13BC5
330
1F
100
AcDbEntity
  8
AM_5
 92
        8
310
0800000000000000
  0
AMDTACMWBLOCKBOMENTITY
  5
13BC8
330
1F
100
AcDbEntity
  8
AM_5
 92
        8
310
0800000000000000
  0
AMDTACMWBLOCKBOMENTITY
  5
13BCA
330
1F
100
AcDbEntity
  8
AM_5
 92
        8
310
0800000000000000
  0
AMDTACMWBLOCKBOMENTITY
  5
13BCC
330
1F
100
AcDbEntity
  8
AM_5
 92
        8
310
0800000000000000
  0
AMDTACMWBLOCKBOMENTITY
  5
13BCF
330
1F
100
AcDbEntity
  8
AM_6
 92
        8
310
0800000000000000
  0
AMDTACMWBLOCKBOMENTITY
  5
14686
330
1F
100
AcDbEntity
  8
AM_0
 92
        8
310
0800000000000000
  0
AMDTACMWBLOCKBOMENTITY
  5
1468B
330
1F
100
AcDbEntity
  8
AM_5
 92
        8
310
0800000000000000
  0
AMDTACMWBLOCKBOMENTITY
  5
146B9
330
1F
100
AcDbEntity
  8
AM_5
 92
        8
310
0800000000000000
  0
AMDTACMWBLOCKBOMENTITY
  5
146BA
330
1F
100
AcDbEntity
  8
AM_5
 92
        8
310
0800000000000000
  0
AMDTACMWBLOCKBOMENTITY
  5
14716
330
1F
100
AcDbEntity
  8
AM_5
 92
        8
310
0800000000000000
  0
AMDTACMWBLOCKBOMENTITY
  5
14717
330
1F
100
AcDbEntity
  8
AM_5
 92
        8
310
0800000000000000
  0
AMDTACMWBLOCKBOMENTITY
  5
14718
330
1F
100
AcDbEntity
  8
AM_5
 92
        8
310
0800000000000000
  0
AMDTACMWBLOCKBOMENTITY
  5
14719
330
1F
100
AcDbEntity
  8
AM_5
 92
        8
310
0800000000000000
  0
AMDTACMWBLOCKBOMENTITY
  5
1471A
330
1F
100
AcDbEntity
  8
AM_5
 92
        8
310
0800000000000000
  0
AMDTACMWBLOCKBOMENTITY
  5
1471B
330
1F
100
AcDbEntity
  8
AM_5
 92
        8
310
0800000000000000
  0
AMDTACMWBLOCKBOMENTITY
  5
1471C
330
1F
100
AcDbEntity
  8
AM_5
 92
        8
310
0800000000000000
  0
AMDTACMWBLOCKBOMENTITY
  5
14B7B
330
1F
100
AcDbEntity
  8
AM_0
 92
        8
310
0800000000000000
  0
AMDTACMWBLOCKBOMENTITY
  5
14B82
330
1F
100
AcDbEntity
  8
AM_5
 92
        8
310
0800000000000000
  0
AMDTACMWBLOCKBOMENTITY
  5
14BA1
330
1F
100
AcDbEntity
  8
AM_5
 92
        8
310
0800000000000000
  0
AMDTACMWBLOCKBOMENTITY
  5
14BDC
330
1F
100
AcDbEntity
  8
AM_5
 92
        8
310
0800000000000000
  0
AMDTACMWBLOCKBOMENTITY
  5
14BDD
330
1F
100
AcDbEntity
  8
AM_5
 92
        8
310
0800000000000000
  0
AMDTACMWBLOCKBOMENTITY
  5
14BDE
330
1F
100
AcDbEntity
  8
AM_5
 92
        8
310
0800000000000000
  0
AMDTACMWBLOCKBOMENTITY
  5
14BDF
330
1F
100
AcDbEntity
  8
AM_5
 92
        8
310
0800000000000000
  0
AMDTACMWBLOCKBOMENTITY
  5
14BE0
330
1F
100
AcDbEntity
  8
AM_5
 92
        8
310
0800000000000000
  0
AMDTACMWBLOCKBOMENTITY
  5
14BE1
330
1F
100
AcDbEntity
  8
AM_5
 92
        8
310
0800000000000000
  0
AMDTACMWBLOCKBOMENTITY
  5
14BEA
330
1F
100
AcDbEntity
  8
AM_5
 92
        8
310
0800000000000000
  0
AMDTACMWBLOCKBOMENTITY
  5
14BEB
330
1F
100
AcDbEntity
  8
AM_5
 92
        8
310
0800000000000000
  0
AMDTACMWBLOCKBOMENTITY
  5
14BEC
330
1F
100
AcDbEntity
  8
AM_5
 92
        8
310
0800000000000000
  0
AMDTACMWBLOCKBOMENTITY
  5
14BED
330
1F
100
AcDbEntity
  8
AM_5
 92
        8
310
0800000000000000
  0
AMDTACMWBLOCKBOMENTITY
  5
14FC4
330
1F
100
AcDbEntity
  8
AM_0
 92
        8
310
0800000000000000
  0
AMDTACMWBLOCKBOMENTITY
  5
14FD1
330
1F
100
AcDbEntity
  8
AM_5
 92
        8
310
0800000000000000
  0
AMDTACMWBLOCKBOMENTITY
  5
150AA
330
1F
100
AcDbEntity
  8
AM_5
 92
        8
310
0800000000000000
  0
AMDTACMWBLOCKBOMENTITY
  5
150AB
330
1F
100
AcDbEntity
  8
AM_5
 92
        8
310
0800000000000000
  0
AMDTACMWBLOCKBOMENTITY
  5
150AC
330
1F
100
AcDbEntity
  8
AM_5
 92
        8
310
0800000000000000
  0
AMDTACMWBLOCKBOMENTITY
  5
150AD
330
1F
100
AcDbEntity
  8
AM_5
 92
        8
310
0800000000000000
  0
AMDTACMWBLOCKBOMENTITY
  5
150AE
330
1F
100
AcDbEntity
  8
AM_5
 92
        8
310
0800000000000000
  0
AMDTACMWBLOCKBOMENTITY
  5
150AF
330
1F
100
AcDbEntity
  8
AM_5
 92
        8
310
0800000000000000
  0
AMDTACMWBLOCKBOMENTITY
  5
154F6
330
1F
100
AcDbEntity
  8
AM_0
 92
        8
310
0800000000000000
  0
AMDTACMWBLOCKBOMENTITY
  5
154FB
330
1F
100
AcDbEntity
  8
AM_5
 92
        8
310
0800000000000000
  0
AMDTACMWBLOCKBOMENTITY
  5
15529
330
1F
100
AcDbEntity
  8
AM_5
 92
        8
310
0800000000000000
  0
AMDTACMWBLOCKBOMENTITY
  5
1552A
330
1F
100
AcDbEntity
  8
AM_5
 92
        8
310
0800000000000000
  0
AMDTACMWBLOCKBOMENTITY
  5
15560
330
1F
100
AcDbEntity
  8
AM_5
 92
        8
310
0800000000000000
  0
AMDTACMWBLOCKBOMENTITY
  5
15561
330
1F
100
AcDbEntity
  8
AM_5
 92
        8
310
0800000000000000
  0
AMDTACMWBLOCKBOMENTITY
  5
15562
330
1F
100
AcDbEntity
  8
AM_5
 92
        8
310
0800000000000000
  0
AMDTACMWBLOCKBOMENTITY
  5
15563
330
1F
100
AcDbEntity
  8
AM_5
 92
        8
310
0800000000000000
  0
AMDTACMWBLOCKBOMENTITY
  5
15564
330
1F
100
AcDbEntity
  8
AM_5
 92
        8
310
0800000000000000
  0
AMDTACMWBLOCKBOMENTITY
  5
1557A
330
1F
100
AcDbEntity
  8
AM_5
 92
        8
310
0800000000000000
  0
AMDTACMWBLOCKBOMENTITY
  5
159E8
330
1F
100
AcDbEntity
  8
AM_0
 92
        8
310
0800000000000000
  0
AMDTACMWBLOCKBOMENTITY
  5
159EF
330
1F
100
AcDbEntity
  8
AM_5
 92
        8
310
0800000000000000
  0
AMDTACMWBLOCKBOMENTITY
  5
15A0E
330
1F
100
AcDbEntity
  8
AM_5
 92
        8
310
0800000000000000
  0
AMDTACMWBLOCKBOMENTITY
  5
15A3F
330
1F
100
AcDbEntity
  8
AM_5
 92
        8
310
0800000000000000
  0
AMDTACMWBLOCKBOMENTITY
  5
15A40
330
1F
100
AcDbEntity
  8
AM_5
 92
        8
310
0800000000000000
  0
AMDTACMWBLOCKBOMENTITY
  5
15A41
330
1F
100
AcDbEntity
  8
AM_5
 92
        8
310
0800000000000000
  0
AMDTACMWBLOCKBOMENTITY
  5
15A42
330
1F
100
AcDbEntity
  8
AM_5
 92
        8
310
0800000000000000
  0
AMDTACMWBLOCKBOMENTITY
  5
15A4B
330
1F
100
AcDbEntity
  8
AM_5
 92
        8
310
0800000000000000
  0
AMDTACMWBLOCKBOMENTITY
  5
15A52
330
1F
100
AcDbEntity
  8
AM_5
 92
        8
310
0800000000000000
  0
AMDTACMWBLOCKBOMENTITY
  5
15A53
330
1F
100
AcDbEntity
  8
AM_5
 92
        8
310
0800000000000000
  0
AMDTACMWBLOCKBOMENTITY
  5
15A54
330
1F
100
AcDbEntity
  8
AM_5
 92
        8
310
0800000000000000
  0
AMDTACMWBLOCKBOMENTITY
  5
15A55
330
1F
100
AcDbEntity
  8
AM_5
 92
        8
310
0800000000000000
  0
AMDTACMWBLOCKBOMENTITY
  5
15DD1
330
1F
100
AcDbEntity
  8
AM_0
 92
        8
310
0800000000000000
  0
AMDTACMWBLOCKBOMENTITY
  5
15E3E
330
1F
100
AcDbEntity
  8
AM_5
 92
        8
310
0800000000000000
  0
AMDTACMWBLOCKBOMENTITY
  5
15E3F
330
1F
100
AcDbEntity
  8
AM_5
 92
        8
310
0800000000000000
  0
AMDTACMWBLOCKBOMENTITY
  5
15E84
330
1F
100
AcDbEntity
  8
AM_5
 92
        8
310
0800000000000000
  0
AMDTACMWBLOCKBOMENTITY
  5
15E85
330
1F
100
AcDbEntity
  8
AM_5
 92
        8
310
0800000000000000
  0
AMDTACMWBLOCKBOMENTITY
  5
1613A
330
1F
100
AcDbEntity
  8
AM_0
 92
        8
310
0800000000000000
  0
AMDTACMWBLOCKBOMENTITY
  5
161D6
330
1F
100
AcDbEntity
  8
AM_5
 92
        8
310
0800000000000000
  0
AMDTACMWBLOCKBOMENTITY
  5
161D7
330
1F
100
AcDbEntity
  8
AM_5
 92
        8
310
0800000000000000
  0
AMDTACMWBLOCKBOMENTITY
  5
161D8
330
1F
100
AcDbEntity
  8
AM_5
 92
        8
310
0800000000000000
  0
AMDTACMWBLOCKBOMENTITY
  5
161D9
330
1F
100
AcDbEntity
  8
AM_5
 92
        8
310
0800000000000000
  0
AMDTACMWBLOCKBOMENTITY
  5
161DA
330
1F
100
AcDbEntity
  8
AM_5
 92
        8
310
0800000000000000
  0
AMDTACMWBLOCKBOMENTITY
  5
161DB
330
1F
100
AcDbEntity
  8
AM_5
 92
        8
310
0800000000000000
  0
TEXT
  5
163F0
330
1F
100
AcDbEntity
  8
AM_6
 60
     1
100
AcDbText
 10
2075.208288278955
 20
-1588.644382304855
 30
0.0
 40
5.0
  1
!GENTITLE-INSERT
100
AcDbText
  0
TEXT
  5
163F1
330
1F
100
AcDbEntity
  8
AM_6
 60
     1
100
AcDbText
 10
1258.208288278954
 20
-1605.644382304856
 30
0.0
 40
5.0
  1
!GENTITLE-LL
100
AcDbText
  0
TEXT
  5
163F2
330
1F
100
AcDbEntity
  8
AM_6
 60
     1
100
AcDbText
 10
2098.208288278955
 20
-1011.644382304855
 30
0.0
 40
5.0
  1
!GENTITLE-RU
100
AcDbText
  0
TEXT
  5
163F3
330
1F
100
AcDbEntity
  8
AM_6
 60
     1
100
AcDbText
 10
2098.208288278955
 20
-1011.644382304855
 30
0.0
 40
5.0
  1
!GENTITLE-MAX
100
AcDbText
  0
TEXT
  5
163FB
330
1F
100
AcDbEntity
  8
AM_6
 60
     1
100
AcDbText
 10
1258.208288278954
 20
-1605.644382304856
 30
0.0
 40
5.0
  1
!GENTITLE-LL
100
AcDbText
  0
TEXT
  5
163FC
330
1F
100
AcDbEntity
  8
AM_6
 60
     1
100
AcDbText
 10
2075.208288278955
 20
-1028.644382304856
 30
0.0
 40
5.0
  1
!GENTITLE-RU
100
AcDbText
  0
TEXT
  5
163FD
330
1F
100
AcDbEntity
  8
AM_6
 60
     1
100
AcDbText
 10
2098.208288278955
 20
-1011.644382304855
 30
0.0
 40
5.0
  1
!GENTITLE-MAX
100
AcDbText
  0
TEXT
  5
163FE
330
1F
100
AcDbEntity
  8
AM_6
 60
     1
100
AcDbText
 10
2075.208288278955
 20
-1588.644382304855
 30
0.0
 40
5.0
  1
!GENTITLE-INSERT
100
AcDbText
  0
MTEXT
  5
1B347
330
1F
100
AcDbEntity
  8
AM_6
100
AcDbMText
 10
5204.704822239228
 20
1444.868615424466
 30
0.0
 40
3.2
 41
18.94894233711602
 71
     1
 72
     5
  1
切欠推奨寸法
 73
     1
 44
1.0
1001
ACAD
1000
MTEXTBEGIN
1070
    73
1070
     1
1070
    44
1040
1.0
1070
    74
1070
     0
1000
MTEXTEND
  0
TEXT
  5
22E96
330
1F
100
AcDbEntity
  8
AM_6
 60
     1
100
AcDbText
 10
4165.291423649353
 20
-2483.844094493894
 30
0.0
 40
2.5
  1
!GENTITLE-INSERT
100
AcDbText
  0
TEXT
  5
22E97
330
1F
100
AcDbEntity
  8
AM_6
 60
     1
100
AcDbText
 10
4176.791423649353
 20
-2072.344094493894
 30
0.0
 40
2.5
  1
!GENTITLE-MAX
100
AcDbText
  0
TEXT
  5
22E98
330
1F
100
AcDbEntity
  8
AM_6
 60
     1
100
AcDbText
 10
4176.791423649353
 20
-2072.344094493894
 30
0.0
 40
2.5
  1
!GENTITLE-RU
100
AcDbText
  0
TEXT
  5
22E99
330
1F
100
AcDbEntity
  8
AM_6
 60
     1
100
AcDbText
 10
3582.791423649354
 20
-2492.344094493894
 30
0.0
 40
2.5
  1
!GENTITLE-LL
100
AcDbText
  0
TEXT
  5
260FA
330
1F
100
AcDbEntity
  8
AM_6
 60
     1
100
AcDbText
 10
4025.957725063388
 20
-2973.503134541669
 30
0.0
 40
2.5
  1
!GENTITLE-INSERT
100
AcDbText
  0
TEXT
  5
260FB
330
1F
100
AcDbEntity
  8
AM_6
 60
     1
100
AcDbText
 10
3617.457725063388
 20
-2982.003134541669
 30
0.0
 40
2.5
  1
!GENTITLE-LL
100
AcDbText
  0
TEXT
  5
260FC
330
1F
100
AcDbEntity
  8
AM_6
 60
     1
100
AcDbText
 10
4037.457725063388
 20
-2685.003134541669
 30
0.0
 40
2.5
  1
!GENTITLE-RU
100
AcDbText
  0
TEXT
  5
260FD
330
1F
100
AcDbEntity
  8
AM_6
 60
     1
100
AcDbText
 10
4037.457725063388
 20
-2685.003134541669
 30
0.0
 40
2.5
  1
!GENTITLE-MAX
100
AcDbText
  0
TEXT
  5
26105
330
1F
100
AcDbEntity
  8
AM_6
 60
     1
100
AcDbText
 10
3617.457725063388
 20
-2982.003134541669
 30
0.0
 40
2.5
  1
!GENTITLE-LL
100
AcDbText
  0
TEXT
  5
26106
330
1F
100
AcDbEntity
  8
AM_6
 60
     1
100
AcDbText
 10
4025.957725063388
 20
-2693.50313454167
 30
0.0
 40
2.5
  1
!GENTITLE-RU
100
AcDbText
  0
TEXT
  5
26107
330
1F
100
AcDbEntity
  8
AM_6
 60
     1
100
AcDbText
 10
4037.457725063388
 20
-2685.003134541669
 30
0.0
 40
2.5
  1
!GENTITLE-MAX
100
AcDbText
  0
TEXT
  5
26108
330
1F
100
AcDbEntity
  8
AM_6
 60
     1
100
AcDbText
 10
4025.957725063388
 20
-2973.503134541669
 30
0.0
 40
2.5
  1
!GENTITLE-INSERT
100
AcDbText
  0
DIMENSION
  5
3E1AA
330
1F
100
AcDbEntity
  8
AM_5
100
AcDbDimension
  2
*D906
 10
4991.498419946483
 20
1483.132497869444
 30
0.0
 11
4991.498419946483
 21
1487.479164536111
 31
0.0
 70
   160
 71
     5
 42
4.5
  3
SYS$0
100
AcDbAlignedDimension
 13
4981.498419946484
 23
1478.632497869444
 33
0.0
 14
4983.498419946483
 24
1483.132497869444
 34
0.0
 50
90.00000000000003
100
AcDbRotatedDimension
  0
TEXT
  5
54131
330
1F
100
AcDbEntity
  8
AM_6
 60
     1
100
AcDbText
 10
4161.51691678317
 20
-6160.084771212655
 30
0.0
 40
5.0
  1
!GENTITLE-INSERT
100
AcDbText
  0
TEXT
  5
54132
330
1F
100
AcDbEntity
  8
AM_6
 60
     1
100
AcDbText
 10
4184.516916783169
 20
-5337.084771212656
 30
0.0
 40
5.0
  1
!GENTITLE-MAX
100
AcDbText
  0
TEXT
  5
54133
330
1F
100
AcDbEntity
  8
AM_6
 60
     1
100
AcDbText
 10
4184.516916783169
 20
-5337.084771212656
 30
0.0
 40
5.0
  1
!GENTITLE-RU
100
AcDbText
  0
TEXT
  5
54134
330
1F
100
AcDbEntity
  8
AM_6
 60
     1
100
AcDbText
 10
2996.51691678317
 20
-6177.084771212656
 30
0.0
 40
5.0
  1
!GENTITLE-LL
100
AcDbText
  0
TEXT
  5
54198
330
1F
100
AcDbEntity
  8
AM_6
 60
     1
100
AcDbText
 10
4161.51691678317
 20
-5182.731160501375
 30
0.0
 40
5.0
  1
!GENTITLE-INSERT
100
AcDbText
  0
TEXT
  5
54199
330
1F
100
AcDbEntity
  8
AM_6
 60
     1
100
AcDbText
 10
4184.516916783169
 20
-4359.731160501374
 30
0.0
 40
5.0
  1
!GENTITLE-MAX
100
AcDbText
  0
TEXT
  5
5419A
330
1F
100
AcDbEntity
  8
AM_6
 60
     1
100
AcDbText
 10
4184.516916783169
 20
-4359.731160501374
 30
0.0
 40
5.0
  1
!GENTITLE-RU
100
AcDbText
  0
TEXT
  5
5419B
330
1F
100
AcDbEntity
  8
AM_6
 60
     1
100
AcDbText
 10
2996.51691678317
 20
-5199.731160501375
 30
0.0
 40
5.0
  1
!GENTITLE-LL
100
AcDbText
  0
TEXT
  5
5E473
330
1F
100
AcDbEntity
  8
AM_6
 60
     1
100
AcDbText
 10
6404.525406902962
 20
-18334.41148846286
 30
0.0
 40
2.5
  1
!GENTITLE-INSERT
100
AcDbText
  0
TEXT
  5
5E474
330
1F
100
AcDbEntity
  8
AM_6
 60
     1
100
AcDbText
 10
6416.025406902962
 20
-17922.91148846286
 30
0.0
 40
2.5
  1
!GENTITLE-MAX
100
AcDbText
  0
TEXT
  5
5E475
330
1F
100
AcDbEntity
  8
AM_6
 60
     1
100
AcDbText
 10
6416.025406902962
 20
-17922.91148846286
 30
0.0
 40
2.5
  1
!GENTITLE-RU
100
AcDbText
  0
TEXT
  5
5E476
330
1F
100
AcDbEntity
  8
AM_6
 60
     1
100
AcDbText
 10
5822.025406902962
 20
-18342.91148846286
 30
0.0
 40
2.5
  1
!GENTITLE-LL
100
AcDbText
  0
ENDSEC
  0
SECTION
  2
OBJECTS
  0
DICTIONARY
  5
C
330
0
100
AcDbDictionary
281
     1
  3
ACAD_2007HEADERVARS_RT
350
69033
  3
ACAD_BGPLOT_KEY
350
AB06
  3
ACAD_COLOR
350
A91D
  3
ACAD_GROUP
350
D
  3
ACAD_LAYOUT
350
1A
  3
ACAD_MATERIAL
350
A91C
  3
ACAD_MLINESTYLE
350
17
  3
ACAD_PLOTSETTINGS
350
19
  3
ACAD_PLOTSTYLENAME
350
E
  3
ACAD_TABLESTYLE
350
AAB9
  3
ACAD_VISUALSTYLE
350
B0F1
  3
AcAsAppObject
350
3DA1
  3
ACASGREF_MASTER
350
3DE9
  3
AcDbVariableDictionary
350
34
  3
AcmDictionary
350
47
  3
AD_GREF_MODULE
350
3DEA
  3
AD_MAPI_MODULE
350
3E06
  3
AMG
350
2B
  3
AMGSNAPSETTINGS
350
7D
  3
ASE_INDEX_DICTIONARY
350
B331
  3
DWGPROPS
350
69032
  3
MAPISURF_MODULE
350
3DEB
  0
DICTIONARY
  5
3F95
330
2
100
AcDbDictionary
280
     1
281
     1
  3
ACAD_LAYERFILTERS
360
B466
  3
ACAD_LAYERSTATES
360
3F96
  3
ACLYDICTIONARY
360
B465
  3
AMLAYER_GROUPCOLORS
360
AAB4
  0
DICTIONARY
  5
8A
330
1F
100
AcDbDictionary
280
     1
281
     1
  3
ACAD_SORTENTS
360
B1BA
  0
DICTIONARY
  5
69033
102
{ACAD_REACTORS
330
C
102
}
330
C
100
AcDbDictionary
281
     1
  3
DIMARCSYM
350
69034
  0
DICTIONARY
  5
AB06
102
{ACAD_REACTORS
330
C
102
}
330
C
100
AcDbDictionary
280
     1
281
     1
  0
DICTIONARY
  5
A91D
102
{ACAD_REACTORS
330
C
102
}
330
C
100
AcDbDictionary
281
     1
  0
DICTIONARY
  5
D
102
{ACAD_REACTORS
330
C
102
}
330
C
100
AcDbDictionary
281
     1
  0
DICTIONARY
  5
1A
102
{ACAD_REACTORS
330
C
102
}
330
C
100
AcDbDictionary
281
     1
  3
Model
350
22
  3
ﾚｲｱｳﾄ1
350
1E
  3
ﾚｲｱｳﾄ2
350
26
  0
DICTIONARY
  5
A91C
102
{ACAD_REACTORS
330
C
102
}
330
C
100
AcDbDictionary
281
     1
  3
ByBlock
350
B0EF
  3
ByLayer
350
B0EE
  3
Global
350
B0F0
  0
DICTIONARY
  5
17
102
{ACAD_REACTORS
330
C
102
}
330
C
100
AcDbDictionary
281
     1
  3
Standard
350
18
  0
DICTIONARY
  5
19
102
{ACAD_REACTORS
330
C
102
}
330
C
100
AcDbDictionary
281
     1
  0
ACDBDICTIONARYWDFLT
  5
E
102
{ACAD_REACTORS
330
C
102
}
330
C
100
AcDbDictionary
281
     1
  3
Normal
350
F
100
AcDbDictionaryWithDefault
340
F
  0
DICTIONARY
  5
AAB9
102
{ACAD_REACTORS
330
C
102
}
330
C
100
AcDbDictionary
281
     1
  3
Standard
350
AABA
  0
DICTIONARY
  5
B0F1
102
{ACAD_REACTORS
330
C
102
}
330
C
100
AcDbDictionary
281
     1
  3
2dWireframe
350
B0F7
  3
3D Hidden
350
B0F9
  3
3dWireframe
350
B0F8
  3
Basic
350
B0F6
  3
Brighten
350
B0FD
  3
ColorChange
350
B101
  3
Conceptual
350
B0FA
  3
Dim
350
B0FC
  3
Facepattern
350
B100
  3
Flat
350
B0F2
  3
FlatWithEdges
350
B0F3
  3
Gouraud
350
B0F4
  3
GouraudWithEdges
350
B0F5
  3
Linepattern
350
B0FF
  3
Realistic
350
B0FB
  3
Thicken
350
B0FE
  0
ACAD_PROXY_OBJECT
  5
3DA1
102
{ACAD_REACTORS
330
C
102
}
330
C
100
AcDbProxyObject
 90
      499
 91
      576
 95
   917527
 70
     0
 93
       10
310
407F
 94
        0
1001
ACAD
1000
AcRTDxfName
1000
ASAPP
  0
ACAD_PROXY_OBJECT
  5
3DE9
102
{ACAD_REACTORS
330
C
102
}
330
C
100
AcDbProxyObject
 90
      499
 91
      581
 95
   917527
 70
     0
 93
       34
310
010000407F
 94
        0
1001
ACAD
1000
AcRTDxfName
1000
ACASGREFMASTER
  0
DICTIONARY
  5
34
102
{ACAD_REACTORS
330
C
102
}
330
C
100
AcDbDictionary
281
     1
  3
CTABLESTYLE
350
AAF3
  3
DIMASSOC
350
A10C
  3
FIELDEVAL
350
AB07
  3
INDEXCTL
350
35
  3
SORTENTS
350
194C
  0
DICTIONARY
  5
47
102
{ACAD_REACTORS
330
C
102
}
330
C
100
AcDbDictionary
281
     1
  3
AcmBOM
350
7E8
  3
AcmStdDictionary
350
4C
  3
AMDTSECTSYM_ARROWCOLOR
350
A929
  0
ACAD_PROXY_OBJECT
  5
3DEA
102
{ACAD_REACTORS
330
C
102
}
330
C
100
AcDbProxyObject
 90
      499
 91
      582
 95
   917527
 70
     0
 93
      114
310
00000043800000000000000000003F
 94
        0
1001
ACAD
1000
AcRTDxfName
1000
ACADGREFMODULE
  0
ACAD_PROXY_OBJECT
  5
3E06
102
{ACAD_REACTORS
330
C
102
}
330
C
100
AcDbProxyObject
 90
      499
 91
      594
 95
   917527
 70
     0
 93
       34
310
05000044FF
 94
        0
1001
ACAD
1000
AcRTDxfName
1000
MAPIADMODULE
  0
DICTIONARY
  5
2B
102
{ACAD_REACTORS
330
C
102
}
330
C
100
AcDbDictionary
281
     1
  0
DICTIONARY
  5
7D
102
{ACAD_REACTORS
330
C
102
}
330
C
100
AcDbDictionary
281
     1
  0
DICTIONARY
  5
B331
102
{ACAD_REACTORS
330
C
102
}
330
C
100
AcDbDictionary
281
     1
  3
ASEBlockHierarchyIndexRecord
350
B332
1001
DCO15
1040
1594111214.218
  0
XRECORD
  5
69032
102
{ACAD_REACTORS
330
C
102
}
330
C
100
AcDbXrecord
280
     1
  1
DWGPROPS COOKIE
  2

  3

  4

  6

  7

  8
Administrator
  9

300
AmdtFileType=84
301
=
302
=
303
=
304
=
305
=
306
=
307
=
308
=
309
=
 40
5.775478391203703
 41
2455567.680725081
 42
2455651.428903171
  1

 90
        1
  0
ACAD_PROXY_OBJECT
  5
3DEB
102
{ACAD_REACTORS
330
C
102
}
330
C
100
AcDbProxyObject
 90
      499
 91
      583
 95
   917527
 70
     0
 93
        8
310
047C
 94
        0
1001
ACAD
1000
AcRTDxfName
1000
AMDTMAPISURFMOUDULE
  0
DICTIONARY
  5
B466
102
{ACAD_REACTORS
330
3F95
102
}
330
3F95
100
AcDbDictionary
281
     1
  0
DICTIONARY
  5
3F96
102
{ACAD_REACTORS
330
3F95
102
}
330
3F95
100
AcDbDictionary
281
     1
  3
20011210
350
3FB7
  0
DICTIONARY
  5
B465
102
{ACAD_REACTORS
330
3F95
102
}
330
3F95
100
AcDbDictionary
281
     1
1001
ACAD
1000
<All
  0
DICTIONARY
  5
AAB4
102
{ACAD_REACTORS
330
3F95
102
}
330
3F95
100
AcDbDictionary
280
     1
281
     1
  0
SORTENTSTABLE
  5
B1BA
102
{ACAD_REACTORS
330
8A
102
}
330
8A
100
AcDbSortentsTable
330
1F
331
11B02
  5
11B10
331
11585
  5
11585
331
54133
  5
541FB
331
11580
  5
11580
331
13BC8
  5
13BC8
331
159E8
  5
159E8
331
1157B
  5
1157B
331
13BC3
  5
13BC3
331
11AEB
  5
11AF7
331
14BEB
  5
14BEB
331
150AE
  5
150AE
331
14BE1
  5
14BE1
331
5E475
  5
5E4E6
331
11AE6
  5
11AEE
331
14BDC
  5
14BDC
331
13BB9
  5
13BB9
331
11AE1
  5
11AE6
331
11F84
  5
11F84
331
26108
  5
27507
331
11F7F
  5
11F7F
331
11F7A
  5
11F7A
331
1B347
  5
1B347
331
11F75
  5
11F75
331
11F70
  5
11F70
331
11F6B
  5
11F6B
331
11A73
  5
11AE4
331
11F66
  5
11F66
331
11F61
  5
11F61
331
1167F
  5
11A73
331
15A42
  5
15A42
331
15E85
  5
15E85
331
11DE5
  5
11590
331
115C8
  5
11943
331
161DB
  5
161DB
331
161D6
  5
161D6
331
15561
  5
15561
331
11DB6
  5
11DEF
331
115C4
  5
115DD
331
C480
  5
C480
331
115BF
  5
115C4
331
121E4
  5
121E4
331
115BA
  5
115BF
331
115B5
  5
115BA
331
121DA
  5
121DA
331
115B0
  5
115B5
331
163FD
  5
163FA
331
22E96
  5
22EE3
331
163F3
  5
163F0
331
115AB
  5
115B0
331
14B7B
  5
14B7B
331
115A6
  5
115AA
331
15A0E
  5
15A0E
331
14FD1
  5
14FD1
331
115A1
  5
115A3
331
1159C
  5
1159D
331
11597
  5
11598
331
1471A
  5
1471A
331
1552A
  5
1552A
331
54198
  5
541ED
331
11B0A
  5
11CFA
331
1158D
  5
1158D
331
11588
  5
11588
331
11583
  5
11583
331
54131
  5
541F9
331
1157E
  5
1157E
331
11AEE
  5
11B04
331
11579
  5
11579
331
13BC1
  5
13BC1
331
11AE9
  5
11AF2
331
150AC
  5
150AC
331
14BDF
  5
14BDF
331
5E473
  5
5E4E4
331
11AE4
  5
11AEC
331
26106
  5
27505
331
11F7D
  5
11F7D
331
11F78
  5
11F78
331
260FC
  5
27502
331
11F73
  5
11F73
331
11F6E
  5
11F6E
331
11F69
  5
11F69
331
15A54
  5
15A54
331
11F64
  5
11F64
331
1557A
  5
1557A
331
115DD
  5
119A6
331
15A40
  5
15A40
331
146B9
  5
146B9
331
161D9
  5
161D9
331
15564
  5
15564
331
11DB4
  5
11DE6
331
115C2
  5
115C8
331
115BD
  5
115C2
331
121E2
  5
121E2
331
115B8
  5
115BD
331
121DD
  5
121DD
331
C47E
  5
C47E
331
115B3
  5
115B8
331
121D8
  5
121D8
331
163FB
  5
163F8
331
22E99
  5
22EE6
331
115AE
  5
115B3
331
163F1
  5
163DF
331
115A9
  5
115AE
331
115A4
  5
115A8
331
11CFC
  5
11DC4
331
1159A
  5
1159B
331
11595
  5
11596
331
14718
  5
14718
331
5419B
  5
541F0
331
1158B
  5
1158B
331
11B03
  5
11CF7
331
11586
  5
11586
331
54134
  5
541FC
331
11581
  5
11581
331
1157C
  5
1157C
331
11AEC
  5
11B02
331
11577
  5
11577
331
14BEC
  5
14BEC
331
150AF
  5
150AF
331
150AA
  5
150AA
331
5E476
  5
5E4E7
331
13BBF
  5
13BBF
331
14BDD
  5
14BDD
331
11AE2
  5
11AE9
331
154FB
  5
154FB
331
154F6
  5
154F6
331
11F7B
  5
11F7B
331
11F76
  5
11F76
331
260FA
  5
27500
331
11F71
  5
11F71
331
11F6C
  5
11F6C
331
15A52
  5
15A52
331
11F67
  5
11F67
331
11F62
  5
11F62
331
11DE6
  5
115A4
331
14BA1
  5
14BA1
331
161D7
  5
161D7
331
11DC4
  5
11DF3
331
15562
  5
15562
331
11DB7
  5
11DF2
331
115C5
  5
1167F
331
115C0
  5
115C5
331
115BB
  5
115C0
331
121E0
  5
121E0
331
115B6
  5
115BB
331
121DB
  5
121DB
331
115B1
  5
115B6
331
163FE
  5
163FB
331
121D6
  5
121D6
331
22E97
  5
22EE4
331
115AC
  5
115B1
331
115A7
  5
115AB
331
115A2
  5
115A5
331
1159D
  5
1159E
331
11598
  5
11599
331
11B10
  5
11CFB
331
11593
  5
11594
331
1471B
  5
1471B
331
14716
  5
14716
331
54199
  5
541EE
331
1158E
  5
1158E
331
15E3E
  5
15E3E
331
11589
  5
11589
331
11584
  5
11584
331
13BCC
  5
13BCC
331
54132
  5
541FA
331
1157F
  5
1157F
331
1157A
  5
1157A
331
3E1AA
  5
3E632
331
14BEA
  5
14BEA
331
150AD
  5
150AD
331
14BE0
  5
14BE0
331
5E474
  5
5E4E5
331
13BBD
  5
13BBD
331
11AE5
  5
11AED
331
26107
  5
27506
331
11F7E
  5
11F7E
331
11A89
  5
11AE5
331
11F79
  5
11F79
331
260FD
  5
27503
331
11F74
  5
11F74
331
11F6F
  5
11F6F
331
11F6A
  5
11F6A
331
15A55
  5
15A55
331
15A4B
  5
15A4B
331
11F65
  5
11F65
331
11ECE
  5
11ECE
331
15A41
  5
15A41
331
15E84
  5
15E84
331
1613A
  5
1613A
331
146BA
  5
146BA
331
161DA
  5
161DA
331
15560
  5
15560
331
115C3
  5
115D1
331
115BE
  5
115C3
331
121E3
  5
121E3
331
115B9
  5
115BE
331
121DE
  5
121DE
331
C47F
  5
C47F
331
115B4
  5
115B9
331
121D9
  5
121D9
331
163FC
  5
163F9
331
115AF
  5
115B4
331
163F2
  5
163E0
331
115AA
  5
115AF
331
115A5
  5
115A9
331
115A0
  5
115A1
331
1159B
  5
1159C
331
11596
  5
11597
331
11591
  5
11593
331
14719
  5
14719
331
15529
  5
15529
331
1158C
  5
1158C
331
11B04
  5
11CF8
331
11587
  5
11587
331
13BCF
  5
13BCF
331
159EF
  5
159EF
331
11AF7
  5
11B0A
331
11582
  5
11582
331
13BCA
  5
13BCA
331
11AF2
  5
11B07
331
1157D
  5
1157D
331
13BC5
  5
13BC5
331
11AED
  5
11B03
331
11578
  5
11578
331
14BED
  5
14BED
331
150AB
  5
150AB
331
14BDE
  5
14BDE
331
13BBB
  5
13BBB
331
11AE3
  5
11AEB
331
26105
  5
27504
331
11F7C
  5
11F7C
331
11F77
  5
11F77
331
260FB
  5
27501
331
11F72
  5
11F72
331
11F6D
  5
11F6D
331
11F68
  5
11F68
331
15A53
  5
15A53
331
11F63
  5
11F63
331
11721
  5
11A89
331
115DC
  5
1195A
331
15A3F
  5
15A3F
331
161D8
  5
161D8
331
15563
  5
15563
331
115C6
  5
11721
331
C482
  5
C482
331
15DD1
  5
15DD1
331
115C1
  5
115C6
331
115BC
  5
115C1
331
121E1
  5
121E1
331
115B7
  5
115BC
331
121DC
  5
121DC
331
115B2
  5
115B7
331
121D7
  5
121D7
331
14B82
  5
14B82
331
22E98
  5
22EE5
331
115AD
  5
115B2
331
163F0
  5
163BE
331
115A8
  5
115AC
331
115A3
  5
115A7
331
1468B
  5
1468B
331
11CFB
  5
11DB7
331
1159E
  5
115A0
331
14686
  5
14686
331
11599
  5
1159A
331
11594
  5
11595
331
1471C
  5
1471C
331
14FC4
  5
14FC4
331
14717
  5
14717
331
5419A
  5
541EF
331
1158F
  5
1158F
331
15E3F
  5
15E3F
331
11B07
  5
11CF9
331
1158A
  5
1158A
  0
XRECORD
  5
69034
102
{ACAD_REACTORS
330
69033
102
}
330
69033
100
AcDbXrecord
280
     1
 70
     1
  0
LAYOUT
  5
22
102
{ACAD_XDICTIONARY
360
69037
102
}
102
{ACAD_REACTORS
330
1A
102
}
330
1A
100
AcDbPlotSettings
  1

  2
FX DocuWide 2050/2051
  4
A3
  6
AM_VIEW1
 40
3.174999952316284
 41
3.174999952316284
 42
3.17498779296875
 43
3.17498779296875
 44
296.989501953125
 45
419.9889831542968
 46
0.0
 47
1.295841228961961
 48
214.3704939521119
 49
367.5855324241176
140
275.6727856380065
141
407.629191407817
142
1.0
143
0.7225445603030646
 70
  3764
 72
     1
 73
     1
 74
     2
  7
monochrome.ctb
 75
     0
147
1.383997686703999
148
-1700.85588156276
149
-1647.985052086429
100
AcDbLayout
  1
Model
 70
     1
 71
     0
 10
0.0
 20
0.0
 11
12.0
 21
9.0
 12
0.0
 22
0.0
 32
0.0
 14
0.0
 24
0.0
 34
0.0
 15
0.0
 25
0.0
 35
0.0
146
0.0
 13
0.0
 23
0.0
 33
0.0
 16
1.0
 26
0.0
 36
0.0
 17
0.0
 27
1.0
 37
0.0
 76
     0
330
1F
331
B0EC
1001
ACAD_PSEXT
1000
FX DocuWide 2050/2051
1000
FX DocuWide 2050/2051
1000
IP_192.200.15.252
1000

1070
     0
  0
LAYOUT
  5
1E
102
{ACAD_XDICTIONARY
360
69035
102
}
102
{ACAD_REACTORS
330
1A
102
}
330
1A
100
AcDbPlotSettings
  1

  2
\\ML370\XEROX
  4
A4
  6

 40
3.174999952316284
 41
3.174999952316284
 42
3.175003051757812
 43
3.17498779296875
 44
209.8674926757813
 45
296.6719970703125
 46
0.0
 47
0.0
 48
0.0
 49
0.0
140
0.0
141
0.0
142
1.0
143
1.0
 70
   688
 72
     1
 73
     1
 74
     5
  7
monochrome.ctb
 75
    16
147
1.0
148
0.0
149
0.0
100
AcDbLayout
  1
ﾚｲｱｳﾄ1
 70
     1
 71
     1
 10
-3.17498779296875
 20
-3.174999952316284
 11
293.4970092773438
 21
206.692492723465
 12
0.0
 22
0.0
 32
0.0
 14
1.000000000000000E+20
 24
1.000000000000000E+20
 34
1.000000000000000E+20
 15
-1.000000000000000E+20
 25
-1.000000000000000E+20
 35
-1.000000000000000E+20
146
0.0
 13
0.0
 23
0.0
 33
0.0
 16
1.0
 26
0.0
 36
0.0
 17
0.0
 27
1.0
 37
0.0
 76
     0
330
1B
  0
LAYOUT
  5
26
102
{ACAD_XDICTIONARY
360
69039
102
}
102
{ACAD_REACTORS
330
1A
102
}
330
1A
100
AcDbPlotSettings
  1

  2
\\ML370\XEROX
  4

  6

 40
0.0
 41
0.0
 42
0.0
 43
0.0
 44
0.0
 45
0.0
 46
0.0
 47
0.0
 48
0.0
 49
0.0
140
0.0
141
0.0
142
1.0
143
1.0
 70
   688
 72
     0
 73
     0
 74
     5
  7
monochrome.ctb
 75
    16
147
1.0
148
0.0
149
0.0
100
AcDbLayout
  1
ﾚｲｱｳﾄ2
 70
     1
 71
     2
 10
0.0
 20
0.0
 11
12.0
 21
9.0
 12
0.0
 22
0.0
 32
0.0
 14
0.0
 24
0.0
 34
0.0
 15
0.0
 25
0.0
 35
0.0
146
0.0
 13
0.0
 23
0.0
 33
0.0
 16
1.0
 26
0.0
 36
0.0
 17
0.0
 27
1.0
 37
0.0
 76
     0
330
23
  0
MATERIAL
  5
B0EF
102
{ACAD_XDICTIONARY
360
6903F
102
}
102
{ACAD_REACTORS
330
A91C
102
}
330
A91C
100
AcDbMaterial
  1
ByBlock
  0
MATERIAL
  5
B0EE
102
{ACAD_XDICTIONARY
360
6903D
102
}
102
{ACAD_REACTORS
330
A91C
102
}
330
A91C
100
AcDbMaterial
  1
ByLayer
  0
MATERIAL
  5
B0F0
102
{ACAD_XDICTIONARY
360
69041
102
}
102
{ACAD_REACTORS
330
A91C
102
}
330
A91C
100
AcDbMaterial
  1
Global
  0
MLINESTYLE
  5
18
102
{ACAD_REACTORS
330
17
102
}
330
17
100
AcDbMlineStyle
  2
STANDARD
 70
     0
  3

 62
   256
 51
90.0
 52
90.0
 71
     2
 49
0.5
 62
   256
  6
BYLAYER
 49
-0.5
 62
   256
  6
BYLAYER
  0
ACDBPLACEHOLDER
  5
F
102
{ACAD_REACTORS
330
E
102
}
330
E
  0
TABLESTYLE
  5
AABA
102
{ACAD_XDICTIONARY
360
6903B
102
}
102
{ACAD_REACTORS
330
AAB9
102
}
330
AAB9
100
AcDbTableStyle
  3
Standard
 70
     0
 71
     0
 40
1.5
 41
1.5
280
     0
281
     0
  7
STANDARD
140
4.5
170
     2
 62
     0
 63
     7
283
     0
274
    -2
284
     1
 64
     0
275
    -2
285
     1
 65
     0
276
    -2
286
     1
 66
     0
277
    -2
287
     1
 67
     0
278
    -2
288
     1
 68
     0
279
    -2
289
     1
 69
     0
  7
STANDARD
140
6.0
170
     5
 62
     0
 63
     7
283
     0
274
    -2
284
     1
 64
     0
275
    -2
285
     1
 65
     0
276
    -2
286
     1
 66
     0
277
    -2
287
     1
 67
     0
278
    -2
288
     1
 68
     0
279
    -2
289
     1
 69
     0
  7
STANDARD
140
4.5
170
     5
 62
     0
 63
     7
283
     0
274
    -2
284
     1
 64
     0
275
    -2
285
     1
 65
     0
276
    -2
286
     1
 66
     0
277
    -2
287
     1
 67
     0
278
    -2
288
     1
 68
     0
279
    -2
289
     1
 69
     0
  0
VISUALSTYLE
  5
B0F7
102
{ACAD_REACTORS
330
B0F1
102
}
330
B0F1
100
AcDbVisualStyle
  2
2dWireframe
 70
     4
 71
     0
 72
     2
 73
     0
 90
        0
 40
-0.6
 41
-30.0
 62
     5
 63
     7
 74
     1
 91
        4
 64
     7
 65
   257
 75
     1
175
     1
 42
1.0
 92
        0
 66
   257
 43
1.0
 76
     1
 77
     6
 78
     2
 67
     7
 79
     5
170
     0
171
     0
290
     0
174
     0
 93
        1
 44
0.0
173
     0
291
     0
 45
0.0
1001
ACAD
1000
AcDbSavedByObjectVersion
1070
     0
  0
VISUALSTYLE
  5
B0F9
102
{ACAD_REACTORS
330
B0F1
102
}
330
B0F1
100
AcDbVisualStyle
  2
3D Hidden
 70
     6
 71
     1
 72
     2
 73
     2
 90
        0
 40
-0.6
 41
-30.0
 62
     5
 63
     7
 74
     2
 91
        2
 64
     7
 65
   257
 75
     2
175
     1
 42
40.0
 92
        0
 66
   257
 43
1.0
 76
     1
 77
     6
 78
     2
 67
     7
 79
     3
170
     0
171
     0
290
     0
174
     0
 93
        1
 44
0.0
173
     0
291
     0
 45
0.0
1001
ACAD
1000
AcDbSavedByObjectVersion
1070
     0
  0
VISUALSTYLE
  5
B0F8
102
{ACAD_REACTORS
330
B0F1
102
}
330
B0F1
100
AcDbVisualStyle
  2
3dWireframe
 70
     5
 71
     0
 72
     2
 73
     0
 90
        0
 40
-0.6
 41
-30.0
 62
     5
 63
     7
 74
     1
 91
        4
 64
     7
 65
   257
 75
     1
175
     1
 42
1.0
 92
        0
 66
   257
 43
1.0
 76
     1
 77
     6
 78
     2
 67
     7
 79
     5
170
     0
171
     0
290
     0
174
     0
 93
        1
 44
0.0
173
     0
291
     0
 45
0.0
1001
ACAD
1000
AcDbSavedByObjectVersion
1070
     0
  0
VISUALSTYLE
  5
B0F6
102
{ACAD_REACTORS
330
B0F1
102
}
330
B0F1
100
AcDbVisualStyle
  2
Basic
 70
     7
 71
     1
 72
     0
 73
     1
 90
        0
 40
-0.6
 41
-30.0
 62
     5
 63
     7
 74
     0
 91
        4
 64
     7
 65
   257
 75
     1
175
     1
 42
1.0
 92
        8
 66
     7
 43
1.0
 76
     1
 77
     6
 78
     2
 67
     7
 79
     5
170
     0
171
     0
290
     0
174
     0
 93
        1
 44
0.0
173
     0
291
     1
 45
0.0
1001
ACAD
1000
AcDbSavedByObjectVersion
1070
     0
  0
VISUALSTYLE
  5
B0FD
102
{ACAD_REACTORS
330
B0F1
102
}
330
B0F1
100
AcDbVisualStyle
  2
Brighten
 70
    12
 71
     2
 72
     2
 73
     0
 90
        0
 40
-0.6
 41
-30.0
 62
     5
 63
     7
 74
     1
 91
        4
 64
     7
 65
   257
 75
     1
175
     1
 42
1.0
 92
        8
 66
     7
 43
1.0
 76
     1
 77
     6
 78
     2
 67
     7
 79
     5
170
     0
171
     0
290
     0
174
     0
 93
        1
 44
50.0
173
     0
291
     1
 45
0.0
1001
ACAD
1000
AcDbSavedByObjectVersion
1070
     0
  0
VISUALSTYLE
  5
B101
102
{ACAD_REACTORS
330
B0F1
102
}
330
B0F1
100
AcDbVisualStyle
  2
ColorChange
 70
    16
 71
     2
 72
     2
 73
     3
 90
        0
 40
-0.6
 41
-30.0
 62
     5
 63
     8
 74
     1
 91
        4
 64
     7
 65
   257
 75
     1
175
     1
 42
1.0
 92
        8
 66
     8
 43
1.0
 76
     1
 77
     6
 78
     2
 67
     7
 79
     5
170
     0
171
     0
290
     0
174
     0
 93
        1
 44
0.0
173
     0
291
     1
 45
0.0
1001
ACAD
1000
AcDbSavedByObjectVersion
1070
     0
  0
VISUALSTYLE
  5
B0FA
102
{ACAD_REACTORS
330
B0F1
102
}
330
B0F1
100
AcDbVisualStyle
  2
Conceptual
 70
     9
 71
     3
 72
     2
 73
     0
 90
        0
 40
-0.6
 41
-30.0
 62
     5
 63
     7
 74
     2
 91
        2
 64
     7
 65
   257
 75
     1
175
     1
 42
40.0
 92
        8
 66
     7
 43
1.0
 76
     1
 77
     6
 78
     2
 67
     7
 79
     3
170
     0
171
     0
290
     0
174
     0
 93
        1
 44
0.0
173
     0
291
     0
 45
0.0
1001
ACAD
1000
AcDbSavedByObjectVersion
1070
     0
  0
VISUALSTYLE
  5
B0FC
102
{ACAD_REACTORS
330
B0F1
102
}
330
B0F1
100
AcDbVisualStyle
  2
Dim
 70
    11
 71
     2
 72
     2
 73
     0
 90
        0
 40
-0.6
 41
-30.0
 62
     5
 63
     7
 74
     1
 91
        4
 64
     7
 65
   257
 75
     1
175
     1
 42
1.0
 92
        8
 66
     7
 43
1.0
 76
     1
 77
     6
 78
     2
 67
     7
 79
     5
170
     0
171
     0
290
     0
174
     0
 93
        1
 44
-50.0
173
     0
291
     1
 45
0.0
1001
ACAD
1000
AcDbSavedByObjectVersion
1070
     0
  0
VISUALSTYLE
  5
B100
102
{ACAD_REACTORS
330
B0F1
102
}
330
B0F1
100
AcDbVisualStyle
  2
Facepattern
 70
    15
 71
     2
 72
     2
 73
     0
 90
        0
 40
-0.6
 41
-30.0
 62
     5
 63
     7
 74
     1
 91
        4
 64
     7
 65
   257
 75
     1
175
     1
 42
1.0
 92
        8
 66
     7
 43
1.0
 76
     1
 77
     6
 78
     2
 67
     7
 79
     5
170
     0
171
     0
290
     0
174
     0
 93
        1
 44
0.0
173
     0
291
     1
 45
0.0
1001
ACAD
1000
AcDbSavedByObjectVersion
1070
     0
  0
VISUALSTYLE
  5
B0F2
102
{ACAD_REACTORS
330
B0F1
102
}
330
B0F1
100
AcDbVisualStyle
  2
Flat
 70
     0
 71
     2
 72
     1
 73
     1
 90
        2
 40
-0.6
 41
30.0
 62
     5
 63
     7
 74
     0
 91
        4
 64
     7
 65
   257
 75
     1
175
     1
 42
1.0
 92
        8
 66
     7
 43
1.0
 76
     1
 77
     6
 78
     2
 67
     7
 79
     5
170
     0
171
     0
290
     0
174
     0
 93
       13
 44
0.0
173
     0
291
     1
 45
0.0
1001
ACAD
1000
AcDbSavedByObjectVersion
1070
     0
  0
VISUALSTYLE
  5
B0F3
102
{ACAD_REACTORS
330
B0F1
102
}
330
B0F1
100
AcDbVisualStyle
  2
FlatWithEdges
 70
     1
 71
     2
 72
     1
 73
     1
 90
        2
 40
-0.6
 41
30.0
 62
     5
 63
     7
 74
     1
 91
        4
 64
     7
 65
   257
 75
     1
175
     1
 42
1.0
 92
        0
 66
   257
 43
1.0
 76
     1
 77
     6
 78
     2
 67
     7
 79
     5
170
     0
171
     0
290
     0
174
     0
 93
       13
 44
0.0
173
     0
291
     1
 45
0.0
1001
ACAD
1000
AcDbSavedByObjectVersion
1070
     0
  0
VISUALSTYLE
  5
B0F4
102
{ACAD_REACTORS
330
B0F1
102
}
330
B0F1
100
AcDbVisualStyle
  2
Gouraud
 70
     2
 71
     2
 72
     2
 73
     1
 90
        2
 40
-0.6
 41
30.0
 62
     5
 63
     7
 74
     0
 91
        4
 64
     7
 65
   257
 75
     1
175
     1
 42
1.0
 92
        0
 66
     7
 43
1.0
 76
     1
 77
     6
 78
     2
 67
     7
 79
     5
170
     0
171
     0
290
     0
174
     0
 93
       13
 44
0.0
173
     0
291
     1
 45
0.0
1001
ACAD
1000
AcDbSavedByObjectVersion
1070
     0
  0
VISUALSTYLE
  5
B0F5
102
{ACAD_REACTORS
330
B0F1
102
}
330
B0F1
100
AcDbVisualStyle
  2
GouraudWithEdges
 70
     3
 71
     2
 72
     2
 73
     1
 90
        2
 40
-0.6
 41
30.0
 62
     5
 63
     7
 74
     1
 91
        4
 64
     7
 65
   257
 75
     1
175
     1
 42
1.0
 92
        0
 66
   257
 43
1.0
 76
     1
 77
     6
 78
     2
 67
     7
 79
     5
170
     0
171
     0
290
     0
174
     0
 93
       13
 44
0.0
173
     0
291
     1
 45
0.0
1001
ACAD
1000
AcDbSavedByObjectVersion
1070
     0
  0
VISUALSTYLE
  5
B0FF
102
{ACAD_REACTORS
330
B0F1
102
}
330
B0F1
100
AcDbVisualStyle
  2
Linepattern
 70
    14
 71
     2
 72
     2
 73
     0
 90
        0
 40
-0.6
 41
-30.0
 62
     5
 63
     7
 74
     1
 91
        4
 64
     7
 65
   257
 75
     7
175
     7
 42
1.0
 92
        8
 66
     7
 43
1.0
 76
     1
 77
     6
 78
     2
 67
     7
 79
     5
170
     0
171
     0
290
     0
174
     0
 93
        1
 44
0.0
173
     0
291
     1
 45
0.0
1001
ACAD
1000
AcDbSavedByObjectVersion
1070
     0
  0
VISUALSTYLE
  5
B0FB
102
{ACAD_REACTORS
330
B0F1
102
}
330
B0F1
100
AcDbVisualStyle
  2
Realistic
 70
     8
 71
     2
 72
     2
 73
     0
 90
        0
 40
-0.6
 41
-30.0
 62
     5
 63
     7
 74
     1
 91
        0
 64
     7
 65
   257
 75
     1
175
     1
 42
1.0
 92
        8
 66
     8
 43
1.0
 76
     1
 77
     6
 78
     2
 67
     7
 79
     5
170
     0
171
     0
290
     0
174
     0
 93
       13
 44
0.0
173
     0
291
     0
 45
0.0
1001
ACAD
1000
AcDbSavedByObjectVersion
1070
     0
  0
VISUALSTYLE
  5
B0FE
102
{ACAD_REACTORS
330
B0F1
102
}
330
B0F1
100
AcDbVisualStyle
  2
Thicken
 70
    13
 71
     2
 72
     2
 73
     0
 90
        0
 40
-0.6
 41
-30.0
 62
     5
 63
     7
 74
     1
 91
        4
 64
     7
 65
   257
 75
     1
175
     1
 42
1.0
 92
       12
 66
     7
 43
1.0
 76
     1
 77
     6
 78
     2
 67
     7
 79
     5
170
     0
171
     0
290
     0
174
     0
 93
        1
 44
0.0
173
     0
291
     1
 45
0.0
1001
ACAD
1000
AcDbSavedByObjectVersion
1070
     0
  0
DICTIONARYVAR
  5
AAF3
102
{ACAD_REACTORS
330
34
102
}
330
34
100
DictionaryVariables
280
     0
  1
STANDARD
  0
DICTIONARYVAR
  5
A10C
102
{ACAD_REACTORS
330
34
102
}
330
34
100
DictionaryVariables
280
     0
  1
1
  0
DICTIONARYVAR
  5
AB07
102
{ACAD_REACTORS
330
34
102
}
330
34
100
DictionaryVariables
280
     0
  1
4
  0
DICTIONARYVAR
  5
35
102
{ACAD_REACTORS
330
34
102
}
330
34
100
DictionaryVariables
280
     0
  1
0
  0
DICTIONARYVAR
  5
194C
102
{ACAD_REACTORS
330
34
102
}
330
34
100
DictionaryVariables
280
     0
  1
96
  0
DICTIONARY
  5
7E8
102
{ACAD_REACTORS
330
47
102
}
330
47
100
AcDbDictionary
281
     1
  0
DICTIONARY
  5
4C
102
{ACAD_REACTORS
330
47
102
}
330
47
100
AcDbDictionary
281
     1
  0
XRECORD
  5
A929
102
{ACAD_REACTORS
330
47
102
}
330
47
100
AcDbXrecord
280
     1
 90
-1023410169
  0
XRECORD
  5
B332
102
{ACAD_REACTORS
330
B331
102
}
330
B331
100
AcDbXrecord
280
     1
  0
XRECORD
  5
3FB7
102
{ACAD_REACTORS
330
3F96
102
}
330
3F96
100
AcDbXrecord
280
     1
 91
        3
330
0
 90
        8
 62
     7
370
    40
331
16
  1
Color_7
330
0
 90
        0
 62
    14
370
    -3
331
16
  1
Color_14
330
0
 90
        8
 62
     7
370
    20
331
16
  1
Color_7
330
6D1
 90
        0
 62
     7
370
    -3
331
16
  1
Color_7
330
0
 90
        8
 62
     7
370
    50
331
16
  1
Color_7
330
0
 90
        8
 62
     2
370
    35
331
16
  1
Color_2
330
0
 90
        8
 62
     7
370
    -3
331
16
  1
Color_7
330
10
 90
        8
 62
     7
370
    -3
331
16
  1
Color_7
  0
DICTIONARY
  5
69037
330
22
100
AcDbDictionary
280
     1
281
     1
  3
ACAD_XREC_ROUNDTRIP
360
69038
  0
DICTIONARY
  5
69035
330
1E
100
AcDbDictionary
280
     1
281
     1
  3
ACAD_XREC_ROUNDTRIP
360
69036
  0
DICTIONARY
  5
69039
330
26
100
AcDbDictionary
280
     1
281
     1
  3
ACAD_XREC_ROUNDTRIP
360
6903A
  0
DICTIONARY
  5
6903F
330
B0EF
100
AcDbDictionary
280
     1
281
     1
  3
ACAD_XREC_ROUNDTRIP
360
69040
  0
DICTIONARY
  5
6903D
330
B0EE
100
AcDbDictionary
280
     1
281
     1
  3
ACAD_XREC_ROUNDTRIP
360
6903E
  0
DICTIONARY
  5
69041
330
B0F0
100
AcDbDictionary
280
     1
281
     1
  3
ACAD_XREC_ROUNDTRIP
360
69042
  0
DICTIONARY
  5
6903B
330
AABA
100
AcDbDictionary
280
     1
281
     1
  3
ACAD_XREC_ROUNDTRIP
360
6903C
  0
XRECORD
  5
69038
102
{ACAD_REACTORS
330
69037
102
}
330
69037
100
AcDbXrecord
280
     1
102
SHADEPLOT
 70
     0
102
SHADEPLOTRESLEVEL
 70
     2
102
SHADEPLOTCUSTOMDPI
 70
   200
  0
XRECORD
  5
69036
102
{ACAD_REACTORS
330
69035
102
}
330
69035
100
AcDbXrecord
280
     1
102
SHADEPLOT
 70
     0
102
SHADEPLOTRESLEVEL
 70
     2
102
SHADEPLOTCUSTOMDPI
 70
   300
  0
XRECORD
  5
6903A
102
{ACAD_REACTORS
330
69039
102
}
330
69039
100
AcDbXrecord
280
     1
102
SHADEPLOT
 70
     0
102
SHADEPLOTRESLEVEL
 70
     2
102
SHADEPLOTCUSTOMDPI
 70
   300
  0
XRECORD
  5
69040
102
{ACAD_REACTORS
330
6903F
102
}
330
6903F
100
AcDbXrecord
280
     1
102
MATERIAL
148
0.0
149
0.0
149
0.0
 93
        0
 94
       63
282
     0
 72
     1
 77
     1
171
     1
175
     1
179
     1
273
     0
  0
XRECORD
  5
6903E
102
{ACAD_REACTORS
330
6903D
102
}
330
6903D
100
AcDbXrecord
280
     1
102
MATERIAL
148
0.0
149
0.0
149
0.0
 93
        0
 94
       63
282
     0
 72
     1
 77
     1
171
     1
175
     1
179
     1
273
     0
  0
XRECORD
  5
69042
102
{ACAD_REACTORS
330
69041
102
}
330
69041
100
AcDbXrecord
280
     1
102
MATERIAL
148
0.0
149
0.0
149
0.0
 93
        0
 94
       63
282
     0
 72
     1
 77
     1
171
     1
175
     1
179
     1
273
     0
  0
XRECORD
  5
6903C
102
{ACAD_REACTORS
330
6903B
102
}
330
6903B
100
AcDbXrecord
280
     1
102
ACAD_ROUNDTRIP_PRE2007_TABLESTYLE
 90
        4
 91
        0
  1

 92
        4
 93
        0
  2

 94
        4
 95
        0
  3

  0
ENDSEC
  0
EOF
