  0
SECTION
  2
HEADER
  9
$ACADVER
  1
AC1018
  9
$ACADMAINTVER
 70
   104
  9
$DWGCODEPAGE
  3
ANSI_932
  9
$LASTSAVEDBY
  1
shibutanishibutani
  9
$CUSTOMPROPERTYTAG
  1
AmdtFileType
  9
$CUSTOMPROPERTY
  1
84
  9
$INSBASE
 10
0.0
 20
0.0
 30
0.0
  9
$EXTMIN
 10
-0.0090630292066862
 20
-0.0064082024694017
 30
-0.0015258207003583
  9
$EXTMAX
 10
297.0090644122207
 20
210.0064091803581
 30
0.0000000349246037
  9
$LIMMIN
 10
0.0
 20
0.0
  9
$LIMMAX
 10
297.0
 20
210.0
  9
$ORTHOMODE
 70
     0
  9
$REGENMODE
 70
     1
  9
$FILLMODE
 70
     1
  9
$QTEXTMODE
 70
     0
  9
$MIRRTEXT
 70
     0
  9
$LTSCALE
 40
1.0
  9
$ATTMODE
 70
     1
  9
$TEXTSIZE
 40
3.2
  9
$TRACEWID
 40
1.0
  9
$TEXTSTYLE
  7
STANDARD
  9
$CLAYER
  8
AM_6
  9
$CELTYPE
  6
ByLayer
  9
$CECOLOR
 62
   256
  9
$CELTSCALE
 40
1.0
  9
$DISPSILH
 70
     0
  9
$DIMSCALE
 40
1.0
  9
$DIMASZ
 40
2.5
  9
$DIMEXO
 40
1.0
  9
$DIMDLI
 40
10.0
  9
$DIMRND
 40
0.0
  9
$DIMDLE
 40
0.0
  9
$DIMEXE
 40
1.0
  9
$DIMTP
 40
0.2
  9
$DIMTM
 40
0.2
  9
$DIMTXT
 40
3.5
  9
$DIMCEN
 40
0.0
  9
$DIMTSZ
 40
0.0
  9
$DIMTOL
 70
     0
  9
$DIMLIM
 70
     0
  9
$DIMTIH
 70
     0
  9
$DIMTOH
 70
     0
  9
$DIMSE1
 70
     0
  9
$DIMSE2
 70
     0
  9
$DIMTAD
 70
     1
  9
$DIMZIN
 70
     8
  9
$DIMBLK
  1

  9
$DIMASO
 70
     1
  9
$DIMSHO
 70
     1
  9
$DIMPOST
  1

  9
$DIMAPOST
  1
"
  9
$DIMALT
 70
     0
  9
$DIMALTD
 70
     2
  9
$DIMALTF
 40
0.0393701
  9
$DIMLFAC
 40
1.0
  9
$DIMTOFL
 70
     1
  9
$DIMTVP
 40
0.0
  9
$DIMTIX
 70
     0
  9
$DIMSOXD
 70
     0
  9
$DIMSAH
 70
     0
  9
$DIMBLK1
  1

  9
$DIMBLK2
  1

  9
$DIMSTYLE
  2
SYS
  9
$DIMCLRD
 70
   256
  9
$DIMCLRE
 70
   256
  9
$DIMCLRT
 70
     7
  9
$DIMTFAC
 40
0.71
  9
$DIMGAP
 40
1.5
  9
$DIMJUST
 70
     0
  9
$DIMSD1
 70
     0
  9
$DIMSD2
 70
     0
  9
$DIMTOLJ
 70
     0
  9
$DIMTZIN
 70
     8
  9
$DIMALTZ
 70
     0
  9
$DIMALTTZ
 70
     0
  9
$DIMUPT
 70
     0
  9
$DIMDEC
 70
     1
  9
$DIMTDEC
 70
     3
  9
$DIMALTU
 70
     2
  9
$DIMALTTD
 70
     4
  9
$DIMTXSTY
  7
STANDARD
  9
$DIMAUNIT
 70
     0
  9
$DIMADEC
 70
     0
  9
$DIMALTRND
 40
0.0
  9
$DIMAZIN
 70
     2
  9
$DIMDSEP
 70
    46
  9
$DIMATFIT
 70
     3
  9
$DIMFRAC
 70
     0
  9
$DIMLDRBLK
  1

  9
$DIMLUNIT
 70
     2
  9
$DIMLWD
 70
    -1
  9
$DIMLWE
 70
    -1
  9
$DIMTMOVE
 70
     0
  9
$LUNITS
 70
     2
  9
$LUPREC
 70
     2
  9
$SKETCHINC
 40
1.0
  9
$FILLETRAD
 40
1.0
  9
$AUNITS
 70
     0
  9
$AUPREC
 70
     0
  9
$MENU
  1
.
  9
$ELEVATION
 40
0.0
  9
$PELEVATION
 40
0.0
  9
$THICKNESS
 40
0.0
  9
$LIMCHECK
 70
     0
  9
$CHAMFERA
 40
0.0
  9
$CHAMFERB
 40
0.0
  9
$CHAMFERC
 40
20.0
  9
$CHAMFERD
 40
0.0
  9
$SKPOLY
 70
     0
  9
$TDCREATE
 40
2452002.615067627
  9
$TDUCREATE
 40
2452002.240067627
  9
$TDUPDATE
 40
2455629.683305301
  9
$TDUUPDATE
 40
2455629.308305301
  9
$TDINDWG
 40
3.9368514815
  9
$TDUSRTIMER
 40
3.9368514815
  9
$USRTIMER
 70
     1
  9
$ANGBASE
 50
0.0
  9
$ANGDIR
 70
     0
  9
$PDMODE
 70
     0
  9
$PDSIZE
 40
0.0
  9
$PLINEWID
 40
0.0
  9
$SPLFRAME
 70
     0
  9
$SPLINETYPE
 70
     6
  9
$SPLINESEGS
 70
     8
  9
$HANDSEED
  5
F4C4
  9
$SURFTAB1
 70
     6
  9
$SURFTAB2
 70
     6
  9
$SURFTYPE
 70
     6
  9
$SURFU
 70
     6
  9
$SURFV
 70
     6
  9
$UCSBASE
  2

  9
$UCSNAME
  2

  9
$UCSORG
 10
0.0
 20
0.0
 30
0.0
  9
$UCSXDIR
 10
1.0
 20
0.0
 30
0.0
  9
$UCSYDIR
 10
0.0
 20
1.0
 30
0.0
  9
$UCSORTHOREF
  2

  9
$UCSORTHOVIEW
 70
     0
  9
$UCSORGTOP
 10
0.0
 20
0.0
 30
0.0
  9
$UCSORGBOTTOM
 10
0.0
 20
0.0
 30
0.0
  9
$UCSORGLEFT
 10
0.0
 20
0.0
 30
0.0
  9
$UCSORGRIGHT
 10
0.0
 20
0.0
 30
0.0
  9
$UCSORGFRONT
 10
0.0
 20
0.0
 30
0.0
  9
$UCSORGBACK
 10
0.0
 20
0.0
 30
0.0
  9
$PUCSBASE
  2

  9
$PUCSNAME
  2

  9
$PUCSORG
 10
0.0
 20
0.0
 30
0.0
  9
$PUCSXDIR
 10
1.0
 20
0.0
 30
0.0
  9
$PUCSYDIR
 10
0.0
 20
1.0
 30
0.0
  9
$PUCSORTHOREF
  2

  9
$PUCSORTHOVIEW
 70
     0
  9
$PUCSORGTOP
 10
0.0
 20
0.0
 30
0.0
  9
$PUCSORGBOTTOM
 10
0.0
 20
0.0
 30
0.0
  9
$PUCSORGLEFT
 10
0.0
 20
0.0
 30
0.0
  9
$PUCSORGRIGHT
 10
0.0
 20
0.0
 30
0.0
  9
$PUCSORGFRONT
 10
0.0
 20
0.0
 30
0.0
  9
$PUCSORGBACK
 10
0.0
 20
0.0
 30
0.0
  9
$USERI1
 70
     0
  9
$USERI2
 70
     0
  9
$USERI3
 70
     0
  9
$USERI4
 70
     0
  9
$USERI5
 70
     0
  9
$USERR1
 40
0.0
  9
$USERR2
 40
0.0
  9
$USERR3
 40
0.0
  9
$USERR4
 40
0.0
  9
$USERR5
 40
0.0
  9
$WORLDVIEW
 70
     1
  9
$SHADEDGE
 70
     3
  9
$SHADEDIF
 70
    70
  9
$TILEMODE
 70
     1
  9
$MAXACTVP
 70
    64
  9
$PINSBASE
 10
0.0
 20
0.0
 30
0.0
  9
$PLIMCHECK
 70
     0
  9
$PEXTMIN
 10
1.000000000000000E+20
 20
1.000000000000000E+20
 30
1.000000000000000E+20
  9
$PEXTMAX
 10
-1.000000000000000E+20
 20
-1.000000000000000E+20
 30
-1.000000000000000E+20
  9
$PLIMMIN
 10
-3.17498779296875
 20
-3.174999952316284
  9
$PLIMMAX
 10
293.4970092773438
 20
206.692492723465
  9
$UNITMODE
 70
     0
  9
$VISRETAIN
 70
     1
  9
$PLINEGEN
 70
     0
  9
$PSLTSCALE
 70
     1
  9
$TREEDEPTH
 70
  3020
  9
$CMLSTYLE
  2
Standard
  9
$CMLJUST
 70
     0
  9
$CMLSCALE
 40
20.0
  9
$PROXYGRAPHICS
 70
     1
  9
$MEASUREMENT
 70
     1
  9
$CELWEIGHT
370
    -1
  9
$ENDCAPS
280
     0
  9
$JOINSTYLE
280
     0
  9
$LWDISPLAY
290
     1
  9
$INSUNITS
 70
     4
  9
$HYPERLINKBASE
  1

  9
$STYLESHEET
  1
monochrome.ctb
  9
$XEDIT
290
     1
  9
$CEPSNTYPE
380
     0
  9
$PSTYLEMODE
290
     1
  9
$FINGERPRINTGUID
  2
{83FB3AA1-FF18-4BFE-AFE0-611B71DE056D}
  9
$VERSIONGUID
  2
{A55F95DC-39A7-4C01-9010-56C5BD12E334}
  9
$EXTNAMES
290
     1
  9
$PSVPSCALE
 40
0.0
  9
$OLESTARTUP
290
     0
  9
$SORTENTS
280
    96
  9
$INDEXCTL
280
     0
  9
$HIDETEXT
280
     0
  9
$XCLIPFRAME
290
     0
  9
$HALOGAP
280
     0
  9
$OBSCOLOR
 70
   257
  9
$OBSLTYPE
280
     0
  9
$INTERSECTIONDISPLAY
280
     0
  9
$INTERSECTIONCOLOR
 70
   257
  9
$DIMASSOC
280
     2
  9
$PROJECTNAME
  1

  0
ENDSEC
  0
SECTION
  2
CLASSES
  0
CLASS
  1
ACDBDICTIONARYWDFLT
  2
AcDbDictionaryWithDefault
  3
ObjectDBX Classes
 90
        0
 91
        1
280
     0
281
     0
  0
CLASS
  1
ACDBPLACEHOLDER
  2
AcDbPlaceHolder
  3
ObjectDBX Classes
 90
        0
 91
        1
280
     0
281
     0
  0
CLASS
  1
LAYOUT
  2
AcDbLayout
  3
ObjectDBX Classes
 90
        0
 91
        3
280
     0
281
     0
  0
CLASS
  1
AMGSETTINGSOBJ
  2
AmgSettingsObj
  3
"AcadM|Product Description: AutoCAD Mechanical|Company: Autodesk"
 90
        0
 91
        4
280
     0
281
     0
  0
CLASS
  1
ACME_DOCUMENT
  2
AcMeDbDoc
  3
AcMeServices
 90
        0
 91
        2
280
     0
281
     0
  0
CLASS
  1
ACMESCOPE
  2
AcMeScope
  3
AcMeServices
 90
        0
 91
        1
280
     0
281
     0
  0
CLASS
  1
ACMECOMMANDHISTORY
  2
AcMeCommandHistory
  3
AcMeServices
 90
        0
 91
        1
280
     0
281
     0
  0
CLASS
  1
DICTIONARYVAR
  2
AcDbDictionaryVar
  3
ObjectDBX Classes
 90
        0
 91
        4
280
     0
281
     0
  0
CLASS
  1
ACIMSYSVARMAN
  2
AcImSysVarManager
  3
AcMeServices
 90
        0
 91
        6
280
     0
281
     0
  0
CLASS
  1
ACIMREALSYSVAR
  2
AcImRealSysVar
  3
AcMeServices
 90
        0
 91
       16
280
     0
281
     0
  0
CLASS
  1
ACIMINTSYSVAR
  2
AcImIntSysVar
  3
AcMeServices
 90
        0
 91
       48
280
     0
281
     0
  0
CLASS
  1
ACMEDRAWINGMAN
  2
AcMeDrawingMan
  3
AcMeServices
 90
        0
 91
        1
280
     0
281
     0
  0
CLASS
  1
ACMEVIEW
  2
AcMeView
  3
AcMeServices
 90
        0
 91
        1
280
     0
281
     0
  0
CLASS
  1
ACDBENTITYCACHE
  2
AcMeEntityCache
  3
AcMeServices
 90
        0
 91
        1
280
     0
281
     0
  0
CLASS
  1
GSMANAGER
  2
AcMeGSManager
  3
AcMeServices
 90
        0
 91
        1
280
     0
281
     0
  0
CLASS
  1
AMDTINTERNALREACTOR
  2
AmdtInternalReactor
  3
AcMeServices
 90
        0
 91
        2
280
     0
281
     0
  0
CLASS
  1
ACMESTATEMGR
  2
AcMeStateMgr
  3
AcMeServices
 90
        0
 91
        1
280
     0
281
     0
  0
CLASS
  1
ACGREFMASTER
  2
AcGrefMaster
  3
AcAttribServices
 90
        0
 91
        1
280
     0
281
     0
  0
CLASS
  1
ACME_DATABASE
  2
AcMeDbDatabase
  3
AcMeServices
 90
        0
 91
        1
280
     0
281
     0
  0
CLASS
  1
ACRFINSADJUSTERMGR
  2
AcRfInsAdjusterMgr
  3
AcMeServices
 90
        0
 91
        1
280
     0
281
     0
  0
CLASS
  1
ACGREFACADMASTER
  2
AcGrefacadMaster
  3
AcGrefServices
 90
        0
 91
        1
280
     0
281
     0
  0
CLASS
  1
AMIMASTER
  2
AmiMaster
  3
AmiServices
 90
        0
 91
        1
280
     0
281
     0
  0
CLASS
  1
ACMDATADICTIONARY
  2
AcmDataDictionary
  3
"AcmSymBB|Product Description: AutoCAD Mechanical|Company: Autodesk"
 90
        0
 91
        1
280
     0
281
     0
  0
CLASS
  1
ACMDATAENTRYBLOCK
  2
AcmDataEntryBlock
  3
"AcmSymBB|Product Description: AutoCAD Mechanical|Company: Autodesk"
 90
        0
 91
        1
280
     0
281
     0
  0
CLASS
  1
ACIMSTRSYSVAR
  2
AcImStrSysVar
  3
AcMeServices
 90
        0
 91
       11
280
     0
281
     0
  0
CLASS
  1
ACMSTANDARDISO
  2
AcmStandardISO
  3
"Amdt_StdImp|Product Description: AutoCAD Mechanical|Company: Autodesk"
 90
        0
 91
        2
280
     0
281
     0
  0
CLASS
  1
AMGOBJPROPCFG
  2
AmgObjPropCfg
  3
"AmgLay|Product Description: AutoCAD Mechanical|Company: Autodesk"
 90
        1
 91
        1
280
     0
281
     0
  0
CLASS
  1
AMDTEDGESTANDARDISO
  2
AmdtEdgeStdISO
  3
"Amdt_StdImp|Product Description: AutoCAD Mechanical|Company: Autodesk"
 90
        0
 91
        2
280
     0
281
     0
  0
CLASS
  1
ACMSURFSTANDARDISO
  2
AcmSurfTextStdISO
  3
"Amdt_StdImp|Product Description: AutoCAD Mechanical|Company: Autodesk"
 90
        0
 91
        2
280
     0
281
     0
  0
CLASS
  1
ACMFCFSTANDARDISO
  2
AcmFCFStdISO
  3
"Amdt_StdImp|Product Description: AutoCAD Mechanical|Company: Autodesk"
 90
        0
 91
        2
280
     0
281
     0
  0
CLASS
  1
ACMWELDSTANDARDISO
  2
AcmWeldingStdISO
  3
"Amdt_StdImp|Product Description: AutoCAD Mechanical|Company: Autodesk"
 90
        0
 91
        2
280
     0
281
     0
  0
CLASS
  1
ACMIDSTANDARDISO
  2
AcmIdStdISO
  3
"Amdt_StdImp|Product Description: AutoCAD Mechanical|Company: Autodesk"
 90
        0
 91
        2
280
     0
281
     0
  0
CLASS
  1
ACMDATUMSTANDARDISO
  2
AcmDatumStdISO
  3
"Amdt_StdImp|Product Description: AutoCAD Mechanical|Company: Autodesk"
 90
        0
 91
        2
280
     0
281
     0
  0
CLASS
  1
ACMBOMSTANDARDISO
  2
AcmBOMStdISO
  3
"Amdt_StdImp|Product Description: AutoCAD Mechanical|Company: Autodesk"
 90
        0
 91
        2
280
     0
281
     0
  0
CLASS
  1
ACMDETAILSTANDARDISO
  2
AmdtDetailSymStdISO
  3
"Amdt_StdImp|Product Description: AutoCAD Mechanical|Company: Autodesk"
 90
        0
 91
        2
280
     0
281
     0
  0
CLASS
  1
ACMSECTIONSTANDARDISO
  2
AmdtSectionSymStdISO
  3
"Amdt_StdImp|Product Description: AutoCAD Mechanical|Company: Autodesk"
 90
        0
 91
        2
280
     0
281
     0
  0
CLASS
  1
ACMCENTERLINESTANDARDISO
  2
AmdtCenterLineStdISO
  3
"Amdt_StdImp|Product Description: AutoCAD Mechanical|Company: Autodesk"
 90
        0
 91
        2
280
     0
281
     0
  0
CLASS
  1
ACAMGLAYSTD
  2
AcAmgLayStd
  3
"AmgLay|Product Description: AutoCAD Mechanical|Company: Autodesk"
 90
        0
 91
        3
280
     0
281
     0
  0
CLASS
  1
ACAMGDIMSTD
  2
AcAmgDimStd
  3
"AmgDim|Product Description: AutoCAD Mechanical|Company: Autodesk"
 90
        0
 91
        3
280
     0
281
     0
  0
CLASS
  1
ACAMGTITLESTD
  2
AcAmgTitleStd
  3
"AmgTitle|Product Description: AutoCAD Mechanical|Company: Autodesk"
 90
        0
 91
        3
280
     0
281
     0
  0
CLASS
  1
ACAMGFILTERDAT
  2
AcAmgFilterDat
  3
"AcadM|Product Description: AutoCAD Mechanical|Company: Autodesk"
 90
        0
 91
        6
280
     0
281
     0
  0
CLASS
  1
LAYER_INDEX
  2
AcDbLayerIndex
  3
ObjectDBX Classes
 90
        0
 91
        0
280
     0
281
     0
  0
CLASS
  1
IDBUFFER
  2
AcDbIdBuffer
  3
ObjectDBX Classes
 90
        0
 91
        0
280
     0
281
     0
  0
CLASS
  1
PLOTSETTINGS
  2
AcDbPlotSettings
  3
ObjectDBX Classes
 90
        0
 91
        1
280
     0
281
     0
  0
CLASS
  1
AMDTFORMULAUPDATEDISPATCHER
  2
AmdtFormulaUpdateDispatcher
  3
AcMeServices
 90
        0
 91
        1
280
     0
281
     0
  0
CLASS
  1
ACMSTANDARDANSI
  2
AcmStandardANSI
  3
"Amdt_StdImp|Product Description: AutoCAD Mechanical|Company: Autodesk"
 90
        0
 91
        1
280
     0
281
     0
  0
CLASS
  1
ACMSURFSTANDARDANSI
  2
AcmSurfTextStdANSI
  3
"Amdt_StdImp|Product Description: AutoCAD Mechanical|Company: Autodesk"
 90
        0
 91
        1
280
     0
281
     0
  0
CLASS
  1
ACMFCFSTANDARDANSI
  2
AcmFCFStdANSI
  3
"Amdt_StdImp|Product Description: AutoCAD Mechanical|Company: Autodesk"
 90
        0
 91
        1
280
     0
281
     0
  0
CLASS
  1
ACMWELDSTANDARDANSI
  2
AcmWeldingStdANSI
  3
"Amdt_StdImp|Product Description: AutoCAD Mechanical|Company: Autodesk"
 90
        0
 91
        1
280
     0
281
     0
  0
CLASS
  1
ACMIDSTANDARDANSI
  2
AcmIdStdANSI
  3
"Amdt_StdImp|Product Description: AutoCAD Mechanical|Company: Autodesk"
 90
        0
 91
        1
280
     0
281
     0
  0
CLASS
  1
ACMDATUMSTANDARDANSI
  2
AcmDatumStdANSI
  3
"Amdt_StdImp|Product Description: AutoCAD Mechanical|Company: Autodesk"
 90
        0
 91
        1
280
     0
281
     0
  0
CLASS
  1
ACMBOMSTANDARDANSI
  2
AcmBOMStdANSI
  3
"Amdt_StdImp|Product Description: AutoCAD Mechanical|Company: Autodesk"
 90
        0
 91
        1
280
     0
281
     0
  0
CLASS
  1
ACMDETAILSTANDARDANSI
  2
AmdtDetailSymStdANSI
  3
"Amdt_StdImp|Product Description: AutoCAD Mechanical|Company: Autodesk"
 90
        0
 91
        1
280
     0
281
     0
  0
CLASS
  1
ACMSECTIONSTANDARDANSI
  2
AmdtSectionSymStdANSI
  3
"Amdt_StdImp|Product Description: AutoCAD Mechanical|Company: Autodesk"
 90
        0
 91
        1
280
     0
281
     0
  0
CLASS
  1
ACMCENTERLINESTANDARDANSI
  2
AmdtCenterLineStdANSI
  3
"Amdt_StdImp|Product Description: AutoCAD Mechanical|Company: Autodesk"
 90
        0
 91
        1
280
     0
281
     0
  0
CLASS
  1
ACMBOM
  2
AcmBom
  3
"AcmSymBB|Product Description: AutoCAD Mechanical|Company: Autodesk"
 90
        0
 91
        1
280
     0
281
     0
  0
CLASS
  1
ACMDATAENTRYPART
  2
AcmDataEntryPart
  3
"AcmSymBB|Product Description: AutoCAD Mechanical|Company: Autodesk"
 90
        0
 91
        0
280
     0
281
     0
  0
CLASS
  1
ACMPARTREF
  2
AcmPartRef
  3
"AcmSymBB|Product Description: AutoCAD Mechanical|Company: Autodesk"
 90
     3071
 91
        0
280
     0
281
     1
  0
CLASS
  1
ACDBCIRCARCRES
  2
AcDbCircArcRes
  3
AcGrefServices
 90
        0
 91
        0
280
     0
281
     0
  0
CLASS
  1
ACMBOMROW
  2
AcmBomRow
  3
"AcmSymBB|Product Description: AutoCAD Mechanical|Company: Autodesk"
 90
        0
 91
        0
280
     0
281
     0
  0
CLASS
  1
ACMBALLOON
  2
AcmBalloon
  3
"AcmSymBB|Product Description: AutoCAD Mechanical|Company: Autodesk"
 90
     3071
 91
        0
280
     0
281
     1
  0
CLASS
  1
AMDTNOTE
  2
AmdtNote
  3
"AcmSymBB|Product Description: AutoCAD Mechanical|Company: Autodesk"
 90
     3071
 91
        0
280
     0
281
     1
  0
CLASS
  1
STDPART2D
  2
AmgStdPart
  3
"g3vace|Class: AmgStdPart|Product Description: AutoCAD Mechanical|Company: Autodesk"
 90
     3071
 91
        0
280
     0
281
     1
  0
CLASS
  1
ACDBSTDPARTRES_LINE
  2
AcDbStdPartRes_Line
  3
"g3vace|Class: AcDbStdPartRes_Line|Product Description: AutoCAD Mechanical|Company: Autodesk"
 90
        0
 91
        0
280
     0
281
     0
  0
CLASS
  1
ACMDATAENTRY
  2
AcmDataEntry
  3
"AcmSymBB|Product Description: AutoCAD Mechanical|Company: Autodesk"
 90
        0
 91
        9
280
     0
281
     0
  0
CLASS
  1
ACDBOPPOLYLINERES
  2
AcDbOpPolylineRes
  3
AcGrefServices
 90
        0
 91
        0
280
     0
281
     0
  0
CLASS
  1
ACMPARTLIST
  2
AcmPartList
  3
"AcmSymBB|Product Description: AutoCAD Mechanical|Company: Autodesk"
 90
     3071
 91
        0
280
     0
281
     1
  0
CLASS
  1
ACDBLINERES
  2
AcDbLineRes
  3
AcGrefServices
 90
        0
 91
        1
280
     0
281
     0
  0
CLASS
  1
ACRFINSADJ
  2
AcRfInsAdjuster
  3
AcMeServices
 90
        0
 91
        1
280
     0
281
     0
  0
CLASS
  1
AM_DRAWING_MGR
  2
AcDmDwgMgr
  3
AcMechDwgViewMgmt
 90
        0
 91
        1
280
     0
281
     0
  0
CLASS
  1
AM_DWG_DOCUMENT
  2
AcDmDwgDocument
  3
AcMechDwgViewMgmt
 90
        0
 91
        1
280
     0
281
     0
  0
CLASS
  1
AM_DWG_SHEET
  2
AcDmSheet
  3
AcMechDwgViewMgmt
 90
        0
 91
        2
280
     0
281
     0
  0
CLASS
  1
AM_VIEWDIMPARMAP
  2
AcDmViewDimParMap
  3
AcMechDwgViewMgmt
 90
        0
 91
        2
280
     0
281
     0
  0
CLASS
  1
AM_DWGMGR_NAME
  2
AcDmDwgMgrName
  3
AcMechDwgViewMgmt
 90
        0
 91
        1
280
     0
281
     0
  0
CLASS
  1
AMDTMENUSTATEMGR
  2
AmdtMenuStateMgr
  3
McadcomServices
 90
        0
 91
        1
280
     0
281
     0
  0
CLASS
  1
AMDTMCOMMENUSTATE
  2
AmdtMcomMenuState
  3
McadcomServices
 90
        0
 91
        1
280
     0
281
     0
  0
CLASS
  1
ASAPP
  2
AcAsAppObject
  3
AutoSurfServices
 90
        0
 91
        2
280
     0
281
     0
  0
CLASS
  1
IM_STATIC_MAN
  2
AcImStaticVarManager
  3
AcMeServices
 90
        0
 91
        1
280
     0
281
     0
  0
CLASS
  1
ACIMDBLSTATICVAR
  2
AcImDblStaticVar
  3
AcMeServices
 90
        0
 91
       20
280
     0
281
     0
  0
CLASS
  1
ACIMSTRSTATICVAR
  2
AcImStrStaticVar
  3
AcMeServices
 90
        0
 91
       12
280
     0
281
     0
  0
CLASS
  1
ACIMINTSTATICVAR
  2
AcImIntStaticVar
  3
AcMeServices
 90
        0
 91
       17
280
     0
281
     0
  0
CLASS
  1
ACASGREFMASTER
  2
AcAsGrefMaster
  3
AutoSurfResolverServices
 90
        0
 91
        2
280
     0
281
     0
  0
CLASS
  1
ACADGREFMODULE
  2
AcAdGrefModule
  3
AdGrefServices
 90
        0
 91
        2
280
     0
281
     0
  0
CLASS
  1
AMDTMAPISURFMOUDULE
  2
AmdtMApiSurfModule
  3
MApiSurfServices
 90
        0
 91
        2
280
     0
281
     0
  0
CLASS
  1
MAPIAMMOUDLE
  2
MApiAmModule
  3
MApiAmServices
 90
        0
 91
        1
280
     0
281
     0
  0
CLASS
  1
AMDTADMENUSTATE
  2
AmdtAdMenuState
  3
DesignerServices
 90
        0
 91
        1
280
     0
281
     0
  0
CLASS
  1
ADAPPL
  2
AcAdAppl
  3
DesignerServices
 90
        0
 91
        1
280
     0
281
     0
  0
CLASS
  1
DEPMGR
  2
AcAdDepMgr
  3
DesignerServices
 90
        0
 91
        1
280
     0
281
     0
  0
CLASS
  1
PARAMMGR
  2
AcAdParamMgr
  3
DesignerServices
 90
        0
 91
        1
280
     0
281
     0
  0
CLASS
  1
PARAMSCOPE
  2
AcAdParamScope
  3
DesignerServices
 90
        0
 91
        1
280
     0
281
     0
  0
CLASS
  1
NAMEDAPPL
  2
AcAdNamedAppl
  3
DesignerServices
 90
        0
 91
        1
280
     0
281
     0
  0
CLASS
  1
ADHNTMPLT
  2
AdHoleNoteTemplateMgr
  3
DesignerServices
 90
        0
 91
        0
280
     0
281
     0
  0
CLASS
  1
AM_HNTEMPLATE_MGR_NAME
  2
AdHoleNoteTemplateMgrName
  3
DesignerServices
 90
        0
 91
        0
280
     0
281
     0
  0
CLASS
  1
AMDTDMMENUSTATE
  2
AmdtDmMenuState
  3
AcMechDwgViewMgmt
 90
        0
 91
        1
280
     0
281
     0
  0
CLASS
  1
MAPIADMODULE
  2
MApiAdModule
  3
MApiAdServices
 90
        0
 91
        2
280
     0
281
     0
  0
CLASS
  1
AMDTAMMENUSTATE
  2
AmdtAmMenuState
  3
DesignerAssemblies
 90
        0
 91
        1
280
     0
281
     0
  0
CLASS
  1
ACAMPROJECT
  2
AcAmProject
  3
DesignerAssemblies
 90
        0
 91
        1
280
     0
281
     0
  0
CLASS
  1
ACAMGRCOMPDEF
  2
AcAmGrCompDef
  3
DesignerAssemblies
 90
        0
 91
        1
280
     0
281
     0
  0
CLASS
  1
ACCMCONTEXT
  2
AcCmContext
  3
DesignerAssemblies
 90
        0
 91
        1
280
     0
281
     0
  0
CLASS
  1
ACAMCOMPDEF
  2
AcAmCompDef
  3
DesignerAssemblies
 90
        0
 91
        1
280
     0
281
     0
  0
CLASS
  1
ACAMCOMPDEFMGR
  2
AcAmCompDefMgr
  3
DesignerAssemblies
 90
        0
 91
        1
280
     0
281
     0
  0
CLASS
  1
AMCONTEXTMGR
  2
AcAmContextMgr
  3
DesignerAssemblies
 90
        0
 91
        1
280
     0
281
     0
  0
CLASS
  1
ACAMCONTEXTMODELER
  2
AcAmContextModeler
  3
DesignerAssemblies
 90
        0
 91
        1
280
     0
281
     0
  0
CLASS
  1
CATALOGSTATE
  2
AcAmCatalogState
  3
DesignerAssemblies
 90
        0
 91
        1
280
     0
281
     0
  0
CLASS
  1
ACAMGRCOMPDEFSET
  2
AcAmGrCompDefSet
  3
DesignerAssemblies
 90
        0
 91
        1
280
     0
281
     0
  0
CLASS
  1
AMDTBROWSERDBTAB
  2
AmdtBrowserDbTab
  3
McadcomServices
 90
        0
 91
        1
280
     0
281
     0
  0
CLASS
  1
CBROWSERAPPOBJECT
  2
CBrowserAppObject
  3
McadcomServices
 90
        0
 91
        3
280
     0
281
     0
  0
CLASS
  1
DM_PLACEHOLDER
  2
AcDmSelsetPlaceholder
  3
AcMechDwgViewMgmt
 90
        0
 91
        1
280
     0
281
     0
  0
CLASS
  1
ACMPICKOBJ
  2
AcmPickEnt
  3
"AcmSymBB|Product Description: AutoCAD Mechanical|Company: Autodesk"
 90
        0
 91
        0
280
     0
281
     1
  0
CLASS
  1
MATERIAL
  2
AcDbMaterial
  3
ObjectDBX Classes
 90
     1024
 91
        3
280
     0
281
     0
  0
CLASS
  1
VISUALSTYLE
  2
AcDbVisualStyle
  3
ObjectDBX Classes
 90
     4095
 91
       16
280
     0
281
     0
  0
CLASS
  1
TABLESTYLE
  2
AcDbTableStyle
  3
ObjectDBX Classes
 90
     4095
 91
        1
280
     0
281
     0
  0
CLASS
  1
ACRFATTGENMGR
  2
AcRfAttGeneralMgr
  3
AcAttribServices
 90
        0
 91
        1
280
     0
281
     0
  0
CLASS
  1
ACRFOBJATTMGR
  2
AcRfObjAttGroupMgr
  3
AcAttribServices
 90
        0
 91
        1
280
     0
281
     0
  0
CLASS
  1
ACRFMCADAPIATTHOLDER
  2
AcRfMCADAPIAttHolder
  3
AcAttribServices
 90
        0
 91
        1
280
     0
281
     0
  0
CLASS
  1
AMDTSYSATTR
  2
AmdtSystemAttribute
  3
AcAttribServices
 90
        0
 91
        1
280
     0
281
     0
  0
CLASS
  1
ACMTHREADLINESTANDARDISO
  2
AmdtThreadLineStdISO
  3
"Amdt_StdImp|Product Description: AutoCAD Mechanical|Company: Autodesk"
 90
        0
 91
        2
280
     0
281
     0
  0
CLASS
  1
ACMNOTESTANDARDISO
  2
AmdtNoteStdISO
  3
"Amdt_StdImp|Product Description: AutoCAD Mechanical|Company: Autodesk"
 90
        0
 91
        2
280
     0
281
     0
  0
CLASS
  1
AMDTNOTETEMPLATEDB
  2
AmdtNoteTemplateDB
  3
AMDT_STDIMP_MODULE_NAME
 90
        0
 91
       18
280
     0
281
     0
  0
CLASS
  1
ACMTAPERSTANDARDISO
  2
AcmTaperStdISO
  3
"Amdt_StdImp|Product Description: AutoCAD Mechanical|Company: Autodesk"
 90
        0
 91
        2
280
     0
281
     0
  0
CLASS
  1
ACMTHREADLINESTANDARDANSI
  2
AmdtThreadLineStdANSI
  3
"Amdt_StdImp|Product Description: AutoCAD Mechanical|Company: Autodesk"
 90
        0
 91
        1
280
     0
281
     0
  0
CLASS
  1
ACMNOTESTANDARDANSI
  2
AmdtNoteStdANSI
  3
"Amdt_StdImp|Product Description: AutoCAD Mechanical|Company: Autodesk"
 90
        0
 91
        1
280
     0
281
     0
  0
CLASS
  1
ACMTAPERSTANDARDANSI
  2
AcmTaperStdANSI
  3
"Amdt_StdImp|Product Description: AutoCAD Mechanical|Company: Autodesk"
 90
        0
 91
        1
280
     0
281
     0
  0
CLASS
  1
CAMSSTRUCTBTNSTATE
  2
StructBtnState
  3
L"DesignerAssemblies"
 90
        0
 91
        1
280
     0
281
     0
  0
CLASS
  1
SORTENTSTABLE
  2
AcDbSortentsTable
  3
ObjectDBX Classes
 90
        0
 91
        2
280
     0
281
     0
  0
CLASS
  1
DIMASSOC
  2
AcDbDimAssoc
  3
"AcDbDimAssoc|Product Desc:     AcDim ARX App For Dimension|Company:          Autodesk, Inc.|WEB Address:      www.autodesk.com"
 90
        0
 91
        6
280
     0
281
     0
  0
ENDSEC
  0
SECTION
  2
TABLES
  0
TABLE
  2
VPORT
  5
8
330
0
100
AcDbSymbolTable
 70
     1
  0
VPORT
  5
C444
330
8
100
AcDbSymbolTableRecord
100
AcDbViewportTableRecord
  2
*Active
 70
     0
 10
0.0
 20
0.0
 11
1.0
 21
1.0
 12
187.3634104935025
 22
69.57035889602739
 13
0.0
 23
0.0
 14
2.5
 24
2.5
 15
10.0
 25
10.0
 16
0.0
 26
0.0
 36
1.0
 17
0.0
 27
0.0
 37
0.0
 40
460.4292038925532
 41
1.595971563981042
 42
50.0
 43
-1370.695619172058
 44
-1370.695619172058
 50
0.0
 51
0.0
 71
    16
 72
   100
 73
     1
 74
     3
 75
     0
 76
     0
 77
     0
 78
     0
281
     0
 65
     0
110
0.0
120
0.0
130
0.0
111
1.0
121
0.0
131
0.0
112
0.0
122
1.0
132
0.0
 79
     0
146
0.0
  0
ENDTAB
  0
TABLE
  2
LTYPE
  5
5
330
0
100
AcDbSymbolTable
 70
    33
  0
LTYPE
  5
14
330
5
100
AcDbSymbolTableRecord
100
AcDbLinetypeTableRecord
  2
ByBlock
 70
     0
  3

 72
    65
 73
     0
 40
0.0
  0
LTYPE
  5
15
330
5
100
AcDbSymbolTableRecord
100
AcDbLinetypeTableRecord
  2
ByLayer
 70
     0
  3

 72
    65
 73
     0
 40
0.0
  0
LTYPE
  5
16
330
5
100
AcDbSymbolTableRecord
100
AcDbLinetypeTableRecord
  2
Continuous
 70
     0
  3
Solid line
 72
    65
 73
     0
 40
0.0
  0
LTYPE
  5
4F
330
5
100
AcDbSymbolTableRecord
100
AcDbLinetypeTableRecord
  2
AM_ISO02W050
 70
     0
  3
__ __ __ __ __ __ __ __ __ __ __ __ __ __ __
 72
    65
 73
     2
 40
7.5
 49
6.0
 74
     0
 49
-1.5
 74
     0
  0
LTYPE
  5
52
330
5
100
AcDbSymbolTableRecord
100
AcDbLinetypeTableRecord
  2
Amconstr
 70
     0
  3
_______________________
 72
    65
 73
     2
 40
9999.0
 49
9999.0
 74
     0
 49
0.0
 74
     0
  0
LTYPE
  5
64
330
5
100
AcDbSymbolTableRecord
100
AcDbLinetypeTableRecord
  2
ACISOWELD
 70
     0
  3
_ _ _ _ _
 72
    65
 73
     2
 40
2.0
 49
2.0
 74
     0
 49
-1.0
 74
     0
  0
LTYPE
  5
65
330
5
100
AcDbSymbolTableRecord
100
AcDbLinetypeTableRecord
  2
ACISOTGB
 70
     0
  3
__ . . __ . .
 72
    65
 73
     6
 40
9.0
 49
4.0
 74
     0
 49
-1.0
 74
     0
 49
1.0
 74
     0
 49
-1.0
 74
     0
 49
1.0
 74
     0
 49
-1.0
 74
     0
  0
LTYPE
  5
66
330
5
100
AcDbSymbolTableRecord
100
AcDbLinetypeTableRecord
  2
ACISOTGL
 70
     0
  3
_ _ _ _ _
 72
    65
 73
     2
 40
3.0
 49
2.0
 74
     0
 49
-1.0
 74
     0
  0
LTYPE
  5
69
330
5
100
AcDbSymbolTableRecord
100
AcDbLinetypeTableRecord
  2
CENTER
 70
     0
  3
__ . __
 72
    65
 73
     4
 40
7.0
 49
4.0
 74
     0
 49
-1.0
 74
     0
 49
1.0
 74
     0
 49
-1.0
 74
     0
  0
LTYPE
  5
A6E
330
5
100
AcDbSymbolTableRecord
100
AcDbLinetypeTableRecord
  2
PHANTOM2
 70
     0
  3
Phantom (.5x) ___ _ _ ___ _ _ ___ _ _ ___ _ _
 72
    65
 73
     6
 40
31.75
 49
15.875
 74
     0
 49
-3.174999999999999
 74
     0
 49
3.174999999999999
 74
     0
 49
-3.174999999999999
 74
     0
 49
3.174999999999999
 74
     0
 49
-3.174999999999999
 74
     0
  0
LTYPE
  5
FA3
330
5
100
AcDbSymbolTableRecord
100
AcDbLinetypeTableRecord
  2
ACANSTGB
 70
     0
  3
__ . . __ . .
 72
    65
 73
     6
 40
0.35433070866
 49
0.15748031496
 74
     0
 49
-0.03937007874
 74
     0
 49
0.03937007874
 74
     0
 49
-0.03937007874
 74
     0
 49
0.03937007874
 74
     0
 49
-0.03937007874
 74
     0
  0
LTYPE
  5
FA4
330
5
100
AcDbSymbolTableRecord
100
AcDbLinetypeTableRecord
  2
ACANSTGL
 70
     0
  3
_ _ _ _ _
 72
    65
 73
     2
 40
0.11811023622
 49
0.07874015748
 74
     0
 49
-0.03937007874
 74
     0
  0
LTYPE
  5
4DED
330
5
100
AcDbSymbolTableRecord
100
AcDbLinetypeTableRecord
  2
中線
 70
     0
  3
___________________
 72
    65
 73
     2
 40
2.0
 49
1.0
 74
     0
 49
1.0
 74
     0
  0
LTYPE
  5
4DF6
330
5
100
AcDbSymbolTableRecord
100
AcDbLinetypeTableRecord
  2
細線
 70
     0
  3
___________________
 72
    65
 73
     2
 40
2.0
 49
1.0
 74
     0
 49
1.0
 74
     0
  0
LTYPE
  5
4DF7
330
5
100
AcDbSymbolTableRecord
100
AcDbLinetypeTableRecord
  2
太線
 70
     0
  3
___________________
 72
    65
 73
     2
 40
2.0
 49
1.0
 74
     0
 49
1.0
 74
     0
  0
LTYPE
  5
4EA7
330
5
100
AcDbSymbolTableRecord
100
AcDbLinetypeTableRecord
  2
文字
 70
     0
  3
_________________
 72
    65
 73
     2
 40
2.0
 49
1.0
 74
     0
 49
1.0
 74
     0
  0
LTYPE
  5
4EA9
330
5
100
AcDbSymbolTableRecord
100
AcDbLinetypeTableRecord
  2
寸法線
 70
     0
  3
________________
 72
    65
 73
     2
 40
2.0
 49
1.0
 74
     0
 49
1.0
 74
     0
  0
LTYPE
  5
4F12
330
5
100
AcDbSymbolTableRecord
100
AcDbLinetypeTableRecord
  2
ハッチング
 70
     0
  3
_________________
 72
    65
 73
     2
 40
2.0
 49
1.0
 74
     0
 49
1.0
 74
     0
  0
LTYPE
  5
5180
330
5
100
AcDbSymbolTableRecord
100
AcDbLinetypeTableRecord
  2
陰線1
 70
     0
  3
__ __ __ __
 72
    65
 73
     2
 40
4.0
 49
2.2
 74
     0
 49
-1.8
 74
     0
  0
LTYPE
  5
5182
330
5
100
AcDbSymbolTableRecord
100
AcDbLinetypeTableRecord
  2
切断線
 70
     0
  3
/\/-/\/-/\/-/\/-/\/-/\/
 72
    65
 73
     2
 40
11.0001
 49
0.0001
 74
     4
 75
   135
340
56
 46
0.04
 50
0.0
 44
0.0
 45
0.0
 49
-11.0
 74
     0
  0
LTYPE
  5
5183
330
5
100
AcDbSymbolTableRecord
100
AcDbLinetypeTableRecord
  2
想像線1
 70
     0
  3
__ __ __ _____ __ __ ____
 72
    65
 73
     6
 40
14.5
 49
6.0
 74
     0
 49
-1.5
 74
     0
 49
2.0
 74
     0
 49
-1.5
 74
     0
 49
2.0
 74
     0
 49
-1.5
 74
     0
  0
LTYPE
  5
5185
330
5
100
AcDbSymbolTableRecord
100
AcDbLinetypeTableRecord
  2
中心線1
 70
     0
  3
___ _ ___ _ ___
 72
    65
 73
     4
 40
18.0
 49
12.0
 74
     0
 49
-2.0
 74
     0
 49
2.0
 74
     0
 49
-2.0
 74
     0
  0
LTYPE
  5
5188
330
5
100
AcDbSymbolTableRecord
100
AcDbLinetypeTableRecord
  2
補助線
 70
     0
  3
______________
 72
    65
 73
     2
 40
2.0
 49
1.0
 74
     0
 49
1.0
 74
     0
  0
LTYPE
  5
C49C
330
5
100
AcDbSymbolTableRecord
100
AcDbLinetypeTableRecord
  2
HIDDEN
 70
     0
  3
Hidden __ __ __ __ __ __ __ __ __ __ __ __ __ _
 72
    65
 73
     2
 40
9.524999999999998
 49
6.349999999999999
 74
     0
 49
-3.174999999999999
 74
     0
  0
LTYPE
  5
C543
330
5
100
AcDbSymbolTableRecord
100
AcDbLinetypeTableRecord
  2
AM_ISO08W050
 70
     0
  3
____ . ____ . ____ . ____ . ____ . ____ . ____
 72
    65
 73
     4
 40
18.0
 49
12.0
 74
     0
 49
-1.5
 74
     0
 49
3.0
 74
     0
 49
-1.5
 74
     0
  0
LTYPE
  5
C544
330
5
100
AcDbSymbolTableRecord
100
AcDbLinetypeTableRecord
  2
AM_ISO09W050
 70
     0
  3
_____ . . _____ . . _____ . . ____ .. ____
 72
    65
 73
     6
 40
22.5
 49
12.0
 74
     0
 49
-1.5
 74
     0
 49
3.0
 74
     0
 49
-1.5
 74
     0
 49
3.0
 74
     0
 49
-1.5
 74
     0
  0
LTYPE
  5
C545
330
5
100
AcDbSymbolTableRecord
100
AcDbLinetypeTableRecord
  2
AM_ISO08W050x2
 70
     0
  3
__ . __ . __ . __ . __ . __
 72
    65
 73
     4
 40
9.0
 49
6.0
 74
     0
 49
-0.75
 74
     0
 49
1.5
 74
     0
 49
-0.75
 74
     0
  0
LTYPE
  5
C546
330
5
100
AcDbSymbolTableRecord
100
AcDbLinetypeTableRecord
  2
AM_ISO02W050x2
 70
     0
  3
 _ _ _ _ _ _ _ _ _ _ _ _
 72
    65
 73
     2
 40
3.75
 49
3.0
 74
     0
 49
-0.75
 74
     0
  0
LTYPE
  5
C547
330
5
100
AcDbSymbolTableRecord
100
AcDbLinetypeTableRecord
  2
Amzigzag
 70
     0
  3
/\/-/\/-/\/-/\/-/\/-/\/
 72
    65
 73
     2
 40
11.0001
 49
0.0001
 74
     4
 75
   135
340
56
 46
0.04
 50
0.0
 44
0.0
 45
0.0
 49
-11.0
 74
     0
  0
LTYPE
  5
C7E7
330
5
100
AcDbSymbolTableRecord
100
AcDbLinetypeTableRecord
  2
genzigzag
 70
     0
  3
/\/-/\/-/\/-/\/-/\/-/\/
 72
    65
 73
     2
 40
12.0001
 49
0.0001
 74
     4
 75
   135
340
C7EB
 46
2.0
 50
0.0
 44
0.0
 45
0.0
 49
-12.0
 74
     0
  0
LTYPE
  5
DBC9
330
5
100
AcDbSymbolTableRecord
100
AcDbLinetypeTableRecord
  2
DASHED
 70
     0
  3
__ __ __ __ __ __ __ __ __ __ __ __ __ __ __
 72
    65
 73
     2
 40
3.5
 49
2.0
 74
     0
 49
-1.5
 74
     0
  0
LTYPE
  5
DBCA
330
5
100
AcDbSymbolTableRecord
100
AcDbLinetypeTableRecord
  2
PHANTOM
 70
     0
  3
_____ _ _ _____ _ _ _____ _ _ _____ _ _ ____  
 72
    65
 73
     6
 40
15.5
 49
8.0
 74
     0
 49
-1.5
 74
     0
 49
1.5
 74
     0
 49
-1.5
 74
     0
 49
1.5
 74
     0
 49
-1.5
 74
     0
  0
LTYPE
  5
DBCB
330
5
100
AcDbSymbolTableRecord
100
AcDbLinetypeTableRecord
  2
CENTER2
 70
     0
  3
Center (.5x) ___ _ ___ _ ___ _ ___ _ ___ _ ___
 72
    65
 73
     4
 40
1.125
 49
0.75
 74
     0
 49
-0.125
 74
     0
 49
0.125
 74
     0
 49
-0.125
 74
     0
  0
LTYPE
  5
DBCC
330
5
100
AcDbSymbolTableRecord
100
AcDbLinetypeTableRecord
  2
HIDDEN2
 70
     0
  3
Hidden (.5x) _ _ _ _ _ _ _ _ _ _ _ _ _ _ _ _ _
 72
    65
 73
     2
 40
0.1875
 49
0.125
 74
     0
 49
-0.0625
 74
     0
  0
LTYPE
  5
DBCD
330
5
100
AcDbSymbolTableRecord
100
AcDbLinetypeTableRecord
  2
Amzigzag2
 70
     0
  3
/\/-/\/-/\/-/\/-/\/-/\/
 72
    65
 73
     2
 40
0.4401
 49
0.0001
 74
     4
 75
   136
340
C7EB
 46
0.0016
 50
0.0
 44
0.0
 45
0.0
 49
-0.4400000000000001
 74
     0
  0
ENDTAB
  0
TABLE
  2
LAYER
  5
2
102
{ACAD_XDICTIONARY
360
3F95
102
}
330
0
100
AcDbSymbolTable
 70
    24
  0
LAYER
  5
10
330
2
100
AcDbSymbolTableRecord
100
AcDbLayerTableRecord
  2
0
 70
     0
 62
     7
  6
Continuous
370
    -3
390
F
  0
LAYER
  5
6D1
330
2
100
AcDbSymbolTableRecord
100
AcDbLayerTableRecord
  2
Defpoints
 70
     0
 62
     7
  6
Continuous
290
     0
370
    -3
390
F
  0
LAYER
  5
A46
330
2
100
AcDbSymbolTableRecord
100
AcDbLayerTableRecord
  2
size
 70
     0
 62
     5
  6
Continuous
290
     0
370
    30
390
F
  0
LAYER
  5
A47
330
2
100
AcDbSymbolTableRecord
100
AcDbLayerTableRecord
  2
waku
 70
     0
 62
     7
  6
Continuous
370
    40
390
F
  0
LAYER
  5
A48
330
2
100
AcDbSymbolTableRecord
100
AcDbLayerTableRecord
  2
AM_6
 70
     0
 62
     2
  6
文字
370
    20
390
F
  0
LAYER
  5
FA5
330
2
100
AcDbSymbolTableRecord
100
AcDbLayerTableRecord
  2
1
 70
     0
 62
     7
  6
Continuous
370
    -3
390
F
  0
LAYER
  5
3A31
330
2
100
AcDbSymbolTableRecord
100
AcDbLayerTableRecord
  2
hyosen1
 70
     0
 62
     1
  6
Continuous
370
    30
390
F
  0
LAYER
  5
5765
330
2
100
AcDbSymbolTableRecord
100
AcDbLayerTableRecord
  2
hyomoji
 70
     0
 62
     2
  6
Continuous
370
    20
390
F
  0
LAYER
  5
591A
330
2
100
AcDbSymbolTableRecord
100
AcDbLayerTableRecord
  2
hyosen2
 70
     0
 62
     1
  6
Continuous
370
    20
390
F
  0
LAYER
  5
5F85
330
2
100
AcDbSymbolTableRecord
100
AcDbLayerTableRecord
  2
AM_0
 70
     0
 62
     7
  6
中線
370
    30
390
F
  0
LAYER
  5
5F89
330
2
100
AcDbSymbolTableRecord
100
AcDbLayerTableRecord
  2
AM_4
 70
     0
 62
     3
  6
補助線
370
    20
390
F
  0
LAYER
  5
5F8C
330
2
100
AcDbSymbolTableRecord
100
AcDbLayerTableRecord
  2
AM_8
 70
     0
 62
     1
  6
ハッチング
370
    18
390
F
  0
LAYER
  5
642B
330
2
100
AcDbSymbolTableRecord
100
AcDbLayerTableRecord
  2
AM_CL
 70
     0
 62
     1
  6
Amconstr
370
    20
390
F
  0
LAYER
  5
75AE
330
2
100
AcDbSymbolTableRecord
100
AcDbLayerTableRecord
  2
busen1
 70
     0
 62
    30
  6
Continuous
370
    40
390
F
  0
LAYER
  5
75AF
330
2
100
AcDbSymbolTableRecord
100
AcDbLayerTableRecord
  2
busen2
 70
     0
 62
     2
  6
Continuous
370
    20
390
F
  0
LAYER
  5
BFAA
330
2
100
AcDbSymbolTableRecord
100
AcDbLayerTableRecord
  2
AM_2
 70
     0
 62
     1
  6
細線
370
    20
390
F
  0
LAYER
  5
BFAB
330
2
100
AcDbSymbolTableRecord
100
AcDbLayerTableRecord
  2
AM_5
 70
     0
 62
     3
  6
寸法線
370
    18
390
F
  0
LAYER
  5
BFAC
330
2
100
AcDbSymbolTableRecord
100
AcDbLayerTableRecord
  2
AM_7
 70
     0
 62
     4
  6
中心線1
370
    15
390
F
  0
LAYER
  5
C5FA
330
2
100
AcDbSymbolTableRecord
100
AcDbLayerTableRecord
  2
AM_1
 70
     0
 62
    30
  6
太線
370
    40
390
F
  0
LAYER
  5
C7E8
330
2
100
AcDbSymbolTableRecord
100
AcDbLayerTableRecord
  2
AM_3
 70
     0
 62
     6
  6
陰線1
370
    20
390
F
  0
LAYER
  5
C7E9
330
2
100
AcDbSymbolTableRecord
100
AcDbLayerTableRecord
  2
AM_11
 70
     0
 62
     2
  6
想像線1
370
    20
390
F
  0
LAYER
  5
C7EA
330
2
100
AcDbSymbolTableRecord
100
AcDbLayerTableRecord
  2
AM_12
 70
     0
 62
     7
  6
Continuous
290
     0
370
    20
390
F
  0
LAYER
  5
C82C
330
2
100
AcDbSymbolTableRecord
100
AcDbLayerTableRecord
  2
AM_10
 70
     0
 62
     7
  6
切断線
370
    18
390
F
  0
LAYER
  5
CA36
330
2
100
AcDbSymbolTableRecord
100
AcDbLayerTableRecord
  2
△
 70
     0
 62
   150
  6
中線
370
    15
390
F
1001
AcAecLayerStandard
1000

1000

  0
ENDTAB
  0
TABLE
  2
STYLE
  5
3
330
0
100
AcDbSymbolTable
 70
     9
  0
STYLE
  5
11
330
3
100
AcDbSymbolTableRecord
100
AcDbTextStyleTableRecord
  2
STANDARD
 70
     0
 40
0.0
 41
0.7
 50
0.0
 71
     0
 42
3.2
  3
romans.shx
  4
extfont.shx
  0
STYLE
  5
56
330
3
100
AcDbSymbolTableRecord
100
AcDbTextStyleTableRecord
  2

 70
     1
 40
0.0
 41
1.0
 50
0.0
 71
     0
 42
2.5
  3
ltypeshp.shx
  4

  0
STYLE
  5
58
330
3
100
AcDbSymbolTableRecord
100
AcDbTextStyleTableRecord
  2
ACISOTS
 70
     0
 40
1.0
 41
1.0
 50
0.0
 71
     0
 42
2.5
  3
isocp.shx
  4
extfont.shx
  0
STYLE
  5
63
330
3
100
AcDbSymbolTableRecord
100
AcDbTextStyleTableRecord
  2
ACISOGDT
 70
     0
 40
0.0
 41
1.0
 50
0.0
 71
     0
 42
2.5
  3
amgdt.shx
  4

  0
STYLE
  5
A74
330
3
100
AcDbSymbolTableRecord
100
AcDbTextStyleTableRecord
  2
DIM
 70
     0
 40
0.0
 41
1.0
 50
0.0
 71
     0
 42
2.5
  3
monotxt.shx
  4
extfont.shx
  0
STYLE
  5
FA7
330
3
100
AcDbSymbolTableRecord
100
AcDbTextStyleTableRecord
  2
ACANSTS
 70
     0
 40
1.0
 41
1.0
 50
0.0
 71
     0
 42
0.2
  3
romans.shx
  4
extfont.shx
  0
STYLE
  5
FA8
330
3
100
AcDbSymbolTableRecord
100
AcDbTextStyleTableRecord
  2
ACANSGDT
 70
     0
 40
0.0
 41
1.0
 50
0.0
 71
     0
 42
0.2
  3
amgdtans.shx
  4

  0
STYLE
  5
C7EB
330
3
100
AcDbSymbolTableRecord
100
AcDbTextStyleTableRecord
  2

 70
     1
 40
0.0
 41
1.0
 50
0.0
 71
     0
 42
3.2
  3
genltshp.shx
  4

  0
ENDTAB
  0
TABLE
  2
VIEW
  5
6
330
0
100
AcDbSymbolTable
 70
     6
  0
VIEW
  5
AE1
330
6
100
AcDbSymbolTableRecord
100
AcDbViewTableRecord
  2
AM_VIEW1
 70
     0
 40
105.0
 10
90.503120124805
 20
157.5
 41
181.00624024961
 11
0.0
 21
0.0
 31
1.0
 12
0.0
 22
0.0
 32
0.0
 42
50.0
 43
-1370.695619172058
 44
-1370.695619172058
 50
0.0
 71
    16
281
     0
 72
     0
  0
VIEW
  5
AE2
330
6
100
AcDbSymbolTableRecord
100
AcDbViewTableRecord
  2
AM_VIEW2
 70
     0
 40
105.0
 10
206.496879875195
 20
157.5
 41
181.00624024961
 11
0.0
 21
0.0
 31
1.0
 12
0.0
 22
0.0
 32
0.0
 42
50.0
 43
-1370.695619172058
 44
-1370.695619172058
 50
0.0
 71
    16
281
     0
 72
     0
  0
VIEW
  5
AE3
330
6
100
AcDbSymbolTableRecord
100
AcDbViewTableRecord
  2
AM_VIEW3
 70
     0
 40
105.0
 10
90.503120124805
 20
52.5
 41
181.00624024961
 11
0.0
 21
0.0
 31
1.0
 12
0.0
 22
0.0
 32
0.0
 42
50.0
 43
-1370.695619172058
 44
-1370.695619172058
 50
0.0
 71
    16
281
     0
 72
     0
  0
VIEW
  5
AE4
330
6
100
AcDbSymbolTableRecord
100
AcDbViewTableRecord
  2
AM_VIEW4
 70
     0
 40
105.0
 10
206.496879875195
 20
52.5
 41
181.00624024961
 11
0.0
 21
0.0
 31
1.0
 12
0.0
 22
0.0
 32
0.0
 42
50.0
 43
-1370.695619172058
 44
-1370.695619172058
 50
0.0
 71
    16
281
     0
 72
     0
  0
VIEW
  5
AE5
330
6
100
AcDbSymbolTableRecord
100
AcDbViewTableRecord
  2
AM_VIEW5
 70
     0
 40
105.0
 10
148.5
 20
105.0
 41
181.0062402496099
 11
0.0
 21
0.0
 31
1.0
 12
0.0
 22
0.0
 32
0.0
 42
50.0
 43
-1370.695619172058
 44
-1370.695619172058
 50
0.0
 71
    16
281
     0
 72
     0
  0
VIEW
  5
AE6
330
6
100
AcDbSymbolTableRecord
100
AcDbViewTableRecord
  2
AM_VIEW6
 70
     0
 40
209.9979
 10
148.5
 20
105.0
 41
362.008860374415
 11
0.0
 21
0.0
 31
1.0
 12
0.0
 22
0.0
 32
0.0
 42
50.0
 43
-1370.695619172058
 44
-1370.695619172058
 50
0.0
 71
    16
281
     0
 72
     0
  0
ENDTAB
  0
TABLE
  2
UCS
  5
7
330
0
100
AcDbSymbolTable
 70
     0
  0
ENDTAB
  0
TABLE
  2
APPID
  5
9
330
0
100
AcDbSymbolTable
 70
    57
  0
APPID
  5
12
330
9
100
AcDbSymbolTableRecord
100
AcDbRegAppTableRecord
  2
ACAD
 70
     0
  0
APPID
  5
30
330
9
100
AcDbSymbolTableRecord
100
AcDbRegAppTableRecord
  2
MCAD_NO_VIS
 70
     0
  0
APPID
  5
31
330
9
100
AcDbSymbolTableRecord
100
AcDbRegAppTableRecord
  2
ACAD_TEMP_GRAPHIC
 70
     0
  0
APPID
  5
44
330
9
100
AcDbSymbolTableRecord
100
AcDbRegAppTableRecord
  2
ACATTRIBSERVICES
 70
     0
  0
APPID
  5
7A1
330
9
100
AcDbSymbolTableRecord
100
AcDbRegAppTableRecord
  2
GENIUS_GENDIMSH_14
 70
     0
  0
APPID
  5
A49
330
9
100
AcDbSymbolTableRecord
100
AcDbRegAppTableRecord
  2
GENIUS_GENREC_14
 70
     0
  0
APPID
  5
A4A
330
9
100
AcDbSymbolTableRecord
100
AcDbRegAppTableRecord
  2
GENIUS_GENOBJ-N-REC_13
 70
     0
  0
APPID
  5
A4B
330
9
100
AcDbSymbolTableRecord
100
AcDbRegAppTableRecord
  2
GENIUS_GENODEF_13
 70
     0
  0
APPID
  5
A4C
330
9
100
AcDbSymbolTableRecord
100
AcDbRegAppTableRecord
  2
DCO15
 70
     0
  0
APPID
  5
ADC
330
9
100
AcDbSymbolTableRecord
100
AcDbRegAppTableRecord
  2
GENIUS_GENOLIS_13
 70
     0
  0
APPID
  5
ADD
330
9
100
AcDbSymbolTableRecord
100
AcDbRegAppTableRecord
  2
GENIUS_GENOENT_13
 70
     0
  0
APPID
  5
ADE
330
9
100
AcDbSymbolTableRecord
100
AcDbRegAppTableRecord
  2
GENIUS_GENOBJ-N-TIT_13
 70
     0
  0
APPID
  5
ADF
330
9
100
AcDbSymbolTableRecord
100
AcDbRegAppTableRecord
  2
GENIUS_GENTITLE_13
 70
     0
  0
APPID
  5
AE0
330
9
100
AcDbSymbolTableRecord
100
AcDbRegAppTableRecord
  2
GENIUS_GENOREF_13
 70
     0
  0
APPID
  5
AE7
330
9
100
AcDbSymbolTableRecord
100
AcDbRegAppTableRecord
  2
GENIUS_GENSCREG_15
 70
     0
  0
APPID
  5
AE8
330
9
100
AcDbSymbolTableRecord
100
AcDbRegAppTableRecord
  2
GENIUS_GENOBJ-N-SDF_13
 70
     0
  0
APPID
  5
FAF
330
9
100
AcDbSymbolTableRecord
100
AcDbRegAppTableRecord
  2
GENIUS_GENBLLY_14
 70
     0
  0
APPID
  5
FB0
330
9
100
AcDbSymbolTableRecord
100
AcDbRegAppTableRecord
  2
GENIUS_GENTRA_14
 70
     0
  0
APPID
  5
1285
330
9
100
AcDbSymbolTableRecord
100
AcDbRegAppTableRecord
  2
GENIUS_GENDTOL_13
 70
     0
  0
APPID
  5
142D
330
9
100
AcDbSymbolTableRecord
100
AcDbRegAppTableRecord
  2
GENIUS_GENOBJ-N-CEN_13
 70
     0
  0
APPID
  5
1AB5
330
9
100
AcDbSymbolTableRecord
100
AcDbRegAppTableRecord
  2
GENIUS_GENOBJ-N-CRS_13
 70
     0
  0
APPID
  5
1B36
330
9
100
AcDbSymbolTableRecord
100
AcDbRegAppTableRecord
  2
GENIUS_GENOBJ-N-HTC_13
 70
     0
  0
APPID
  5
1B37
330
9
100
AcDbSymbolTableRecord
100
AcDbRegAppTableRecord
  2
GENIUS_GENHATCH_13
 70
     0
  0
APPID
  5
216D
330
9
100
AcDbSymbolTableRecord
100
AcDbRegAppTableRecord
  2
GENIUS_GENOBJ-N-FIL_13
 70
     0
  0
APPID
  5
2356
330
9
100
AcDbSymbolTableRecord
100
AcDbRegAppTableRecord
  2
GEVID990412420
 70
     0
  0
APPID
  5
2357
330
9
100
AcDbSymbolTableRecord
100
AcDbRegAppTableRecord
  2
GEVDC
 70
     0
  0
APPID
  5
2358
330
9
100
AcDbSymbolTableRecord
100
AcDbRegAppTableRecord
  2
GEVCON
 70
     0
  0
APPID
  5
235B
330
9
100
AcDbSymbolTableRecord
100
AcDbRegAppTableRecord
  2
GEVRADREF
 70
     0
  0
APPID
  5
2360
330
9
100
AcDbSymbolTableRecord
100
AcDbRegAppTableRecord
  2
GENIUS_GENBH_13
 70
     0
  0
APPID
  5
2362
330
9
100
AcDbSymbolTableRecord
100
AcDbRegAppTableRecord
  2
GENIUS_GENOBJ-NBEHI-BHF_13
 70
     0
  0
APPID
  5
2364
330
9
100
AcDbSymbolTableRecord
100
AcDbRegAppTableRecord
  2
GENIUS_GENOBJ-NBEHI-BHB_13
 70
     0
  0
APPID
  5
2379
330
9
100
AcDbSymbolTableRecord
100
AcDbRegAppTableRecord
  2
GENIUS_GENOBJ-F-SCPASSM_13
 70
     0
  0
APPID
  5
3D74
330
9
100
AcDbSymbolTableRecord
100
AcDbRegAppTableRecord
  2
GENIUS_GENDIM_13
 70
     0
  0
APPID
  5
3D76
330
9
100
AcDbSymbolTableRecord
100
AcDbRegAppTableRecord
  2
GENIUS_GE3DTOL_13
 70
     0
  0
APPID
  5
3D9C
330
9
100
AcDbSymbolTableRecord
100
AcDbRegAppTableRecord
  2
AD_DRAW
 70
     0
  0
APPID
  5
3DE8
330
9
100
AcDbSymbolTableRecord
100
AcDbRegAppTableRecord
  2
ASURF_PCURVE_APPNAME
 70
     0
  0
APPID
  5
3DED
330
9
100
AcDbSymbolTableRecord
100
AcDbRegAppTableRecord
  2
AMG_3D2D_5.0
 70
     0
  0
APPID
  5
3E1B
330
9
100
AcDbSymbolTableRecord
100
AcDbRegAppTableRecord
  2
DESIGNERASSEMBLIES
 70
     0
  0
APPID
  5
3E20
330
9
100
AcDbSymbolTableRecord
100
AcDbRegAppTableRecord
  2
ACADM_DIM_EDIT
 70
     0
  0
APPID
  5
3E21
330
9
100
AcDbSymbolTableRecord
100
AcDbRegAppTableRecord
  2
AMDT_DM_ADJ
 70
     0
  0
APPID
  5
4143
330
9
100
AcDbSymbolTableRecord
100
AcDbRegAppTableRecord
  2
GENIUS_GENFIL_13
 70
     0
  0
APPID
  5
4144
330
9
100
AcDbSymbolTableRecord
100
AcDbRegAppTableRecord
  2
GENIUS_GENOBJ-N-CHA_13
 70
     0
  0
APPID
  5
4E17
330
9
100
AcDbSymbolTableRecord
100
AcDbRegAppTableRecord
  2
GEVID1008153417
 70
     0
  0
APPID
  5
4E58
330
9
100
AcDbSymbolTableRecord
100
AcDbRegAppTableRecord
  2
GEVID1008153418
 70
     0
  0
APPID
  5
4E5E
330
9
100
AcDbSymbolTableRecord
100
AcDbRegAppTableRecord
  2
GEVID1008153419
 70
     0
  0
APPID
  5
4E64
330
9
100
AcDbSymbolTableRecord
100
AcDbRegAppTableRecord
  2
GEVID1008153420
 70
     0
  0
APPID
  5
4E75
330
9
100
AcDbSymbolTableRecord
100
AcDbRegAppTableRecord
  2
GEVID1008153421
 70
     0
  0
APPID
  5
4EB7
330
9
100
AcDbSymbolTableRecord
100
AcDbRegAppTableRecord
  2
GENIUS_AMGTXT_16
 70
     0
  0
APPID
  5
7645
330
9
100
AcDbSymbolTableRecord
100
AcDbRegAppTableRecord
  2
GENIUS_GENOBJ-N-DIM_13
 70
     0
  0
APPID
  5
C5F0
330
9
100
AcDbSymbolTableRecord
100
AcDbRegAppTableRecord
  2
GENIUS_GENCEN_19
 70
     0
  0
APPID
  5
C5FB
330
9
100
AcDbSymbolTableRecord
100
AcDbRegAppTableRecord
  2
ACAD_DSTYLE_DIMJOGGED_JOGANGLE_SYMBOL
 70
     0
  0
APPID
  5
C5FC
330
9
100
AcDbSymbolTableRecord
100
AcDbRegAppTableRecord
  2
ACAD_PSEXT
 70
     0
  0
APPID
  5
CA37
330
9
100
AcDbSymbolTableRecord
100
AcDbRegAppTableRecord
  2
AcAecLayerStandard
 70
     0
  0
APPID
  5
DA4F
330
9
100
AcDbSymbolTableRecord
100
AcDbRegAppTableRecord
  2
ACAD_EXEMPT_FROM_CAD_STANDARDS
 70
     0
  0
APPID
  5
E6C7
330
9
100
AcDbSymbolTableRecord
100
AcDbRegAppTableRecord
  2
ACAD_DSTYLE_DIMINSPECT
 70
     0
  0
APPID
  5
E6C8
330
9
100
AcDbSymbolTableRecord
100
AcDbRegAppTableRecord
  2
ACDBBLOCKREPETAG
 70
     0
  0
APPID
  5
E6C9
330
9
100
AcDbSymbolTableRecord
100
AcDbRegAppTableRecord
  2
AcDbDynamicBlockGUID
 70
     0
  0
ENDTAB
  0
TABLE
  2
DIMSTYLE
  5
A
330
0
100
AcDbSymbolTable
 70
    28
100
AcDbDimStyleTable
 71
     3
340
2515
340
6C
340
FA9
  0
DIMSTYLE
105
6C
330
A
100
AcDbSymbolTableRecord
100
AcDbDimStyleTableRecord
  2
AM_ISO
 70
     0
  4
"
 41
2.5
 42
1.0
 43
10.0
 44
1.0
 47
0.1
 48
0.1
 73
     0
 74
     0
 77
     1
 78
     8
 79
     2
140
3.5
141
0.0
143
0.0393701
146
0.71
147
1.5
172
     1
176
   256
177
   256
178
     2
271
     2
272
     3
274
     4
283
     0
284
     8
340
11
371
    -1
372
    -1
  0
DIMSTYLE
105
6D
330
A
100
AcDbSymbolTableRecord
100
AcDbDimStyleTableRecord
  2
AM_ISO$3
 70
     0
  4
"
 41
0.8
 42
1.0
 43
10.0
 44
1.0
 47
0.1
 48
0.1
 73
     0
 77
     1
 78
     8
 79
     2
140
3.2
141
0.0
143
0.0393701
146
0.71
147
0.9999999999999996
176
   256
177
   256
178
     2
271
     2
272
     2
283
     0
284
     8
288
     1
289
     0
340
11
342
6C4
371
    -1
372
    -1
  0
DIMSTYLE
105
6E
330
A
100
AcDbSymbolTableRecord
100
AcDbDimStyleTableRecord
  2
AM_ISO$4
 70
     0
  4
"
 41
0.8
 42
1.0
 43
10.0
 44
1.0
 47
0.1
 48
0.1
 73
     0
 77
     1
 78
     8
 79
     2
140
3.2
141
0.0
143
0.0393701
146
0.71
147
1.0
173
     1
176
   256
177
   256
178
     2
271
     2
272
     2
283
     0
284
     8
288
     1
289
     0
340
11
344
6C4
371
    -1
372
    -1
  0
DIMSTYLE
105
6F
330
A
100
AcDbSymbolTableRecord
100
AcDbDimStyleTableRecord
  2
AM_ISO$6
 70
     0
  4
"
 41
0.8
 42
1.0
 43
10.0
 44
1.0
 47
0.1
 48
0.1
 73
     0
 74
     0
 78
     8
 79
     2
140
3.2
141
0.0
143
0.0393701
146
0.71
147
1.0
172
     1
176
   256
177
   256
178
     2
271
     2
272
     2
283
     0
284
     8
340
11
341
6C4
371
    -1
372
    -1
  0
DIMSTYLE
105
70
330
A
100
AcDbSymbolTableRecord
100
AcDbDimStyleTableRecord
  2
AM_ISO$7
 70
     0
  4
"
 41
0.8
 42
1.0
 43
10.0
 44
1.0
 47
0.1
 48
0.1
 73
     0
 74
     0
 77
     1
 78
     8
 79
     2
140
3.2
141
0.0
143
0.0393701
146
0.71
147
1.0
172
     1
176
   256
177
   256
178
     2
271
     2
272
     2
283
     0
284
     8
340
11
341
6C4
342
6C4
371
    -1
372
    -1
  0
DIMSTYLE
105
71
330
A
100
AcDbSymbolTableRecord
100
AcDbDimStyleTableRecord
  2
AM_ISO$SF
 70
     0
  4
"
 41
0.8
 42
1.0
 43
10.0
 44
1.0
 47
0.1
 48
0.1
 73
     0
 74
     0
 75
     1
 76
     1
 77
     1
 78
     8
 79
     2
140
3.2
141
0.0
143
0.0393701
146
0.71
147
1.0
172
     1
176
   256
177
   256
178
     2
271
     2
272
     2
283
     0
284
     8
340
11
341
6C4
342
6C4
371
    -1
372
    -1
  0
DIMSTYLE
105
76
330
A
100
AcDbSymbolTableRecord
100
AcDbDimStyleTableRecord
  2
AM_ISO$SH
 70
     0
  4
"
 41
0.8
 42
1.0
 43
10.0
 44
1.0
 47
0.1
 48
0.1
 73
     0
 74
     0
 75
     1
 76
     1
 77
     1
 78
     8
 79
     2
140
3.2
141
0.0
143
0.0393701
144
2.0
146
0.71
147
1.0
172
     1
176
   256
177
   256
178
     2
271
     2
272
     2
283
     0
284
     8
340
11
341
6C4
342
6C4
371
    -1
372
    -1
  0
DIMSTYLE
105
6BE
330
A
100
AcDbSymbolTableRecord
100
AcDbDimStyleTableRecord
  2
AM_ISO$0
 70
     0
  4
"
 41
0.8
 42
1.0
 43
10.0
 44
1.0
 47
0.1
 48
0.1
 73
     0
 74
     0
 77
     1
 78
     8
 79
     2
140
3.2
141
0.0
143
0.0393701
146
0.71
147
0.9999999999999996
172
     1
176
   256
177
   256
178
     2
271
     2
272
     2
283
     0
284
     8
340
11
341
6C4
342
6C4
371
    -1
372
    -1
  0
DIMSTYLE
105
6BF
330
A
100
AcDbSymbolTableRecord
100
AcDbDimStyleTableRecord
  2
AM_ISO$2
 70
     0
  4
"
 41
0.8
 42
1.0
 43
10.0
 44
1.0
 47
0.1
 48
0.1
 73
     0
 74
     0
 77
     3
 78
     8
 79
     2
140
3.200000000000001
141
0.0
143
0.0393701
146
0.71
147
0.9999999999999996
172
     1
176
   256
177
   256
178
     2
271
     2
272
     2
283
     0
284
     8
340
11
342
6C4
371
    -1
372
    -1
  0
DIMSTYLE
105
A76
330
A
100
AcDbSymbolTableRecord
100
AcDbDimStyleTableRecord
  2
STANDARD
 70
     0
 41
3.0
 42
1.0
 43
7.0
 44
2.0
 73
     0
 74
     0
 77
     1
140
2.799999999999999
141
0.0
143
0.0394
147
0.7
171
     4
172
     1
173
     1
176
     3
177
     3
178
     2
271
     3
272
     3
273
     8
274
     4
289
     0
340
A74
341
A66
343
A66
344
A66
  0
DIMSTYLE
105
FA9
330
A
100
AcDbSymbolTableRecord
100
AcDbDimStyleTableRecord
  2
AM_ANSI
 70
     0
  4
mm
 41
0.1
 42
0.05
 43
0.5
 44
0.1
 47
0.1
 48
0.1
 78
     7
 79
     2
140
0.12
141
0.0
146
0.71
147
0.06
176
   256
177
   256
178
     2
274
     4
284
     7
340
11
371
    -1
372
    -1
  0
DIMSTYLE
105
FAA
330
A
100
AcDbSymbolTableRecord
100
AcDbDimStyleTableRecord
  2
AM_ANSI$3
 70
     0
  4
mm
 41
0.1
 42
0.05
 43
0.5
 44
0.1
 47
0.1
 48
0.1
 78
     7
 79
     2
140
0.12
141
0.0
146
0.71
147
0.06
176
   256
177
   256
178
     2
274
     4
284
     7
288
     1
289
     0
340
11
371
    -1
372
    -1
  0
DIMSTYLE
105
FAB
330
A
100
AcDbSymbolTableRecord
100
AcDbDimStyleTableRecord
  2
AM_ANSI$4
 70
     0
  4
mm
 41
0.1
 42
0.05
 43
0.5
 44
0.1
 47
0.1
 48
0.1
 78
     7
 79
     2
140
0.12
141
0.0
146
0.71
147
0.06
176
   256
177
   256
178
     2
274
     4
284
     7
288
     1
289
     0
340
11
371
    -1
372
    -1
  0
DIMSTYLE
105
FAC
330
A
100
AcDbSymbolTableRecord
100
AcDbDimStyleTableRecord
  2
AM_ANSI$7
 70
     0
  4
mm
 41
0.1
 42
0.05
 43
0.5
 44
0.1
 47
0.1
 48
0.1
 78
     7
 79
     2
140
0.24
141
0.0
146
0.71
147
0.06
176
   256
177
   256
178
     2
274
     4
284
     7
340
11
371
    -1
372
    -1
  0
DIMSTYLE
105
FAD
330
A
100
AcDbSymbolTableRecord
100
AcDbDimStyleTableRecord
  2
AM_ANSI$SF
 70
     0
  4
mm
 41
0.1
 42
0.05
 43
0.5
 44
0.1
 47
0.1
 48
0.1
 75
     1
 76
     1
 78
     7
 79
     2
140
0.12
141
0.0
146
0.71
147
0.06
176
   256
177
   256
178
     2
274
     4
284
     7
340
11
371
    -1
372
    -1
  0
DIMSTYLE
105
FAE
330
A
100
AcDbSymbolTableRecord
100
AcDbDimStyleTableRecord
  2
AM_ANSI$SH
 70
     0
  4
mm
 41
0.1
 42
0.05
 43
0.5
 44
0.1
 47
0.1
 48
0.1
 75
     1
 76
     1
 78
     7
 79
     2
140
0.12
141
0.0
146
0.71
147
0.06
173
     1
176
   256
177
   256
178
     2
274
     4
284
     7
340
11
343
72
371
    -1
372
    -1
  0
DIMSTYLE
105
2515
330
A
100
AcDbSymbolTableRecord
100
AcDbDimStyleTableRecord
  2
SYS
 70
     0
  4
"
 41
2.5
 42
1.0
 43
10.0
 44
1.0
 47
0.1
 48
0.1
 73
     0
 74
     0
 77
     1
 78
     8
 79
     2
140
3.5
141
0.0
143
0.0393701
146
0.71
147
1.5
172
     1
176
   256
177
   256
178
     7
271
     2
272
     3
274
     4
283
     0
284
     8
340
11
371
    -1
372
    -1
  0
DIMSTYLE
105
2516
102
{ACAD_REACTORS
330
EB00
102
}
330
A
100
AcDbSymbolTableRecord
100
AcDbDimStyleTableRecord
  2
SYS$3
 70
     0
  4
"
 41
2.0
 42
1.0
 43
10.0
 44
1.0
 47
0.1
 48
0.1
 73
     0
 77
     1
 78
     8
 79
     2
140
3.200000000000001
141
0.0
143
0.0393701
146
0.71
147
1.5
176
   256
177
   256
178
     2
271
     1
272
     1
283
     0
284
     8
288
     1
340
11
342
A66
371
    -1
372
    -1
  0
DIMSTYLE
105
2517
330
A
100
AcDbSymbolTableRecord
100
AcDbDimStyleTableRecord
  2
SYS$4
 70
     0
  4
"
 41
2.0
 42
1.0
 43
10.0
 44
1.0
 47
0.1
 48
0.1
 73
     0
 77
     1
 78
     8
 79
     2
140
3.2
141
0.0
143
0.0393701
146
0.71
147
1.5
173
     1
176
   256
177
   256
178
     2
271
     2
272
     2
283
     0
284
     8
288
     1
340
11
344
A66
371
    -1
372
    -1
  0
DIMSTYLE
105
2518
330
A
100
AcDbSymbolTableRecord
100
AcDbDimStyleTableRecord
  2
SYS$6
 70
     0
  4
"
 41
2.0
 42
1.0
 43
10.0
 44
1.0
 47
0.1
 48
0.1
 73
     0
 74
     0
 78
     8
 79
     2
140
3.2
141
0.0
143
0.0393701
146
0.71
147
1.5
172
     1
176
   256
177
   256
178
     2
271
     2
272
     2
283
     0
284
     8
340
11
341
A66
371
    -1
372
    -1
  0
DIMSTYLE
105
2519
330
A
100
AcDbSymbolTableRecord
100
AcDbDimStyleTableRecord
  2
SYS$7
 70
     0
  4
"
 41
2.0
 42
1.5
 43
10.0
 44
1.0
 47
0.1
 48
0.1
 73
     0
 74
     0
 77
     1
 78
     8
 79
     2
140
3.2
141
0.0
143
0.0393701
146
0.71
147
1.5
172
     1
176
   256
177
   256
178
     2
271
     2
272
     2
283
     0
284
     8
340
11
341
A66
342
A66
371
    -1
372
    -1
  0
DIMSTYLE
105
251A
330
A
100
AcDbSymbolTableRecord
100
AcDbDimStyleTableRecord
  2
SYS$SF
 70
     0
  4
"
 41
1.0
 42
1.0
 43
10.0
 44
1.0
 47
0.1
 48
0.1
 73
     0
 74
     0
 75
     1
 76
     1
 77
     1
 78
     8
 79
     2
140
3.2
141
0.0
143
0.0393701
146
0.71
147
1.5
172
     1
176
   256
177
   256
178
     2
271
     2
272
     2
283
     0
284
     8
340
11
341
6C4
342
6C4
371
    -1
372
    -1
  0
DIMSTYLE
105
251B
330
A
100
AcDbSymbolTableRecord
100
AcDbDimStyleTableRecord
  2
SYS$SH
 70
     0
  4
"
 41
1.0
 42
1.0
 43
10.0
 44
1.0
 47
0.1
 48
0.1
 73
     0
 74
     0
 75
     1
 76
     1
 77
     1
 78
     8
 79
     2
140
3.2
141
0.0
143
0.0393701
144
2.0
146
0.71
147
1.5
172
     1
173
     1
176
   256
177
   256
178
     2
271
     2
272
     2
283
     0
284
     8
340
11
341
6C4
343
72
344
6C4
371
    -1
372
    -1
  0
DIMSTYLE
105
2A59
330
A
100
AcDbSymbolTableRecord
100
AcDbDimStyleTableRecord
  2
SYS$2
 70
     0
  4
"
 41
1.0
 42
1.5
 43
10.0
 44
1.0
 47
0.1
 48
0.1
 73
     0
 74
     0
 77
     1
 78
     8
 79
     2
140
3.2
141
0.0
143
0.0393701
146
0.71
147
1.5
172
     1
176
   256
177
   256
178
     2
271
     2
272
     2
283
     0
284
     8
340
11
342
6C4
371
    -1
372
    -1
  0
DIMSTYLE
105
2AAB
102
{ACAD_REACTORS
330
EAD1
330
EB06
330
EAFA
330
EAFD
330
F42C
330
F444
102
}
330
A
100
AcDbSymbolTableRecord
100
AcDbDimStyleTableRecord
  2
SYS$0
 70
     0
  4
"
 41
1.0
 42
1.5
 43
10.0
 44
1.0
 47
0.1
 48
0.1
 73
     0
 74
     0
 77
     1
 78
     8
 79
     2
140
3.2
141
0.0
143
0.0393701
146
0.71
147
1.5
172
     1
176
   256
177
   256
178
     2
271
     1
272
     1
283
     0
284
     8
340
11
341
A66
342
6C4
371
    -1
372
    -1
  0
DIMSTYLE
105
C58E
330
A
100
AcDbSymbolTableRecord
100
AcDbDimStyleTableRecord
  2
SYSORG2P0
 70
     0
  4
"
 41
1.0
 42
1.0
 43
10.0
 44
1.0
 47
0.2
 48
0.2000000002
 71
     1
 73
     0
 74
     0
 77
     1
 78
     8
 79
     2
140
3.5
141
0.0
143
0.0393701
144
2.0
146
0.6
147
1.5
172
     1
176
   256
177
   256
178
     7
271
     2
272
     2
283
     0
284
     8
340
11
341
6C4
342
6C4
371
    -1
372
    -1
  0
DIMSTYLE
105
DBCE
330
A
100
AcDbSymbolTableRecord
100
AcDbDimStyleTableRecord
  2
DIMSTYLE
 70
     0
 41
1.0
 42
2.54
 44
2.54
 73
     0
 74
     0
140
3.2
147
1.6
173
     1
279
     2
340
11
  0
ENDTAB
  0
TABLE
  2
BLOCK_RECORD
  5
1
330
0
100
AcDbSymbolTable
 70
    18
  0
BLOCK_RECORD
  5
1F
102
{ACAD_XDICTIONARY
360
8A
102
}
330
1
100
AcDbSymbolTableRecord
100
AcDbBlockTableRecord
  2
*Model_Space
340
22
  0
BLOCK_RECORD
  5
1B
330
1
100
AcDbSymbolTableRecord
100
AcDbBlockTableRecord
  2
*Paper_Space
340
1E
  0
BLOCK_RECORD
  5
23
330
1
100
AcDbSymbolTableRecord
100
AcDbBlockTableRecord
  2
*Paper_Space0
340
26
  0
BLOCK_RECORD
  5
72
330
1
100
AcDbSymbolTableRecord
100
AcDbBlockTableRecord
  2
GENAXEH
340
0
  0
BLOCK_RECORD
  5
6C4
330
1
100
AcDbSymbolTableRecord
100
AcDbBlockTableRecord
  2
_Dot
340
0
102
{BLKREFS
331
F24B
331
F24C
331
F254
331
F255
331
F263
331
F264
331
F275
331
F276
331
F280
331
F281
331
F43E
331
F43F
331
F456
331
F457
331
F490
331
F491
331
F4AD
331
F4AE
102
}
  0
BLOCK_RECORD
  5
A66
330
1
100
AcDbSymbolTableRecord
100
AcDbBlockTableRecord
  2
_OPEN30
340
0
  0
BLOCK_RECORD
  5
E622
102
{ACAD_XDICTIONARY
360
E623
102
}
330
1
100
AcDbSymbolTableRecord
100
AcDbBlockTableRecord
  2
tapping
340
0
310
2800000020000000200000000100080000000000000400000000000000000000000000000000000000000000000080000080000000808000800000008000800080800000C0C0C000C0DCC000F0CAA6000020400000206000002080000020A0000020C0000020E00000400000004020000040400000406000004080000040A0
310
000040C0000040E00000600000006020000060400000606000006080000060A0000060C0000060E00000800000008020000080400000806000008080000080A0000080C0000080E00000A0000000A0200000A0400000A0600000A0800000A0A00000A0C00000A0E00000C0000000C0200000C0400000C0600000C0800000C0
310
A00000C0C00000C0E00000E0000000E0200000E0400000E0600000E0800000E0A00000E0C00000E0E00040000000400020004000400040006000400080004000A0004000C0004000E00040200000402020004020400040206000402080004020A0004020C0004020E000404000004040200040404000404060004040800040
310
40A0004040C0004040E00040600000406020004060400040606000406080004060A0004060C0004060E00040800000408020004080400040806000408080004080A0004080C0004080E00040A0000040A0200040A0400040A0600040A0800040A0A00040A0C00040A0E00040C0000040C0200040C0400040C0600040C08000
310
40C0A00040C0C00040C0E00040E0000040E0200040E0400040E0600040E0800040E0A00040E0C00040E0E00080000000800020008000400080006000800080008000A0008000C0008000E00080200000802020008020400080206000802080008020A0008020C0008020E00080400000804020008040400080406000804080
310
008040A0008040C0008040E00080600000806020008060400080606000806080008060A0008060C0008060E00080800000808020008080400080806000808080008080A0008080C0008080E00080A0000080A0200080A0400080A0600080A0800080A0A00080A0C00080A0E00080C0000080C0200080C0400080C0600080C0
310
800080C0A00080C0C00080C0E00080E0000080E0200080E0400080E0600080E0800080E0A00080E0C00080E0E000C0000000C0002000C0004000C0006000C0008000C000A000C000C000C000E000C0200000C0202000C0204000C0206000C0208000C020A000C020C000C020E000C0400000C0402000C0404000C0406000C0
310
408000C040A000C040C000C040E000C0600000C0602000C0604000C0606000C0608000C060A000C060C000C060E000C0800000C0802000C0804000C0806000C0808000C080A000C080C000C080E000C0A00000C0A02000C0A04000C0A06000C0A08000C0A0A000C0A0C000C0A0E000C0C00000C0C02000C0C04000C0C06000
310
C0C08000C0C0A000F0FBFF00A4A0A000808080000000FF0000FF000000FFFF00FF000000FF00FF00FFFF0000FFFFFF0000000000000000000000000000000000000000000000000000000000000000000000000000000000000000000000000000000000000000000000000000000000000000000000000000000000000000
310
00000000000000000000000000000000000000000000000000000000000000000000000000000000000000000000000000000000000000000000000000000000000000000000000000000000000000000000000000000000000000000000000000000000000000000000000000000000000000000000000000000000000000
310
00000000000000000000000000000000000000000000000000000000000000000000000000000000000000000000000000000000000000000000000000000000000000000000000000000000000000000000000000000000000000000000000000000000000000000000000000000000000000000000000000000000000000
310
0000000000000000000000000000000000000000000000000000000000000000000000000000000000000000000000000000000000000000000000000000000000000000000000000000000000000000000000000000FF000000000000000000000000000000000000000000000000000000000000FFFFFFFFFFFFFFFFFFFF
310
FFFFFFFFFFFFFFFFFFFFFFFFFFFFFFFF0000000000FFFFFFFFFFFFFFFFFFFFFFFFFFFFFFFFFFFFFFFFFFFFFFFFFFFFFFFFFFFF0000FFFFFFFFFFFFFFFFFFFFFFFFFFFFFFFFFFFFFFFFFFFFFFFFFFFFFFFFFF00000000FFFFFFFFFFFFFFFFFFFFFFFFFFFFFFFFFFFFFFFFFFFFFFFFFFFF00000000000000FF00000000000000
310
00000000000000000000000000000000000000000000000000000000000000000000000000000000000000000000000000000000000000000000000000000000000000000000000000000000000000000000000000000000000000000000000000000000000000000000000000000000000000000000000000000000000000
310
00000000000000000000000000000000000000000000000000000000000000000000000000000000000000000000000000000000000000000000000000000000000000000000000000000000000000000000000000000000000000000000000000000000000000000000000000000000000000000000000000000000000000
310
00000000000000000000000000000000000000000000000000000000000000000000000000000000000000000000000000000000000000000000000000000000000000000000000000000000000000000000000000000000000000000000000000000000000000000000000000000000000000000000000000000000000000
310
0000000000000000000000000000000000000000000000000000000000000000000000000000000000000000000000000000000000000000
1001
AcDbDynamicBlockGUID
1000
{9832539D-DAED-4D15-A1F5-82199CE374EE}
1001
ACDBBLOCKREPETAG
1070
     1
1071
      145
1001
ACAD
1000
DesignCenter Data
1002
{
1070
     1
1070
     4
1002
}
  0
BLOCK_RECORD
  5
EB0F
330
1
100
AcDbSymbolTableRecord
100
AcDbBlockTableRecord
  2
*D6
340
0
  0
BLOCK_RECORD
  5
EB6F
330
1
100
AcDbSymbolTableRecord
100
AcDbBlockTableRecord
  2
*D8
340
0
  0
BLOCK_RECORD
  5
EB95
330
1
100
AcDbSymbolTableRecord
100
AcDbBlockTableRecord
  2
*D11
340
0
  0
BLOCK_RECORD
  5
EBA3
330
1
100
AcDbSymbolTableRecord
100
AcDbBlockTableRecord
  2
*D12
340
0
  0
BLOCK_RECORD
  5
EBAF
330
1
100
AcDbSymbolTableRecord
100
AcDbBlockTableRecord
  2
*D13
340
0
  0
BLOCK_RECORD
  5
F39E
330
1
100
AcDbSymbolTableRecord
100
AcDbBlockTableRecord
  2
_DotSmall
340
0
102
{BLKREFS
331
F3CE
331
F3CF
102
}
  0
BLOCK_RECORD
  5
F42D
330
1
100
AcDbSymbolTableRecord
100
AcDbBlockTableRecord
  2
*D15
340
0
  0
BLOCK_RECORD
  5
F445
330
1
100
AcDbSymbolTableRecord
100
AcDbBlockTableRecord
  2
*D16
340
0
  0
ENDTAB
  0
ENDSEC
  0
SECTION
  2
BLOCKS
  0
BLOCK
  5
20
330
1F
100
AcDbEntity
  8
0
100
AcDbBlockBegin
  2
*Model_Space
 70
     0
 10
0.0
 20
0.0
 30
0.0
  3
*Model_Space
  1

  0
ENDBLK
  5
21
330
1F
100
AcDbEntity
  8
0
100
AcDbBlockEnd
  0
BLOCK
  5
1C
330
1B
100
AcDbEntity
 67
     1
  8
0
100
AcDbBlockBegin
  2
*Paper_Space
 70
     0
 10
0.0
 20
0.0
 30
0.0
  3
*Paper_Space
  1

  0
ENDBLK
  5
1D
330
1B
100
AcDbEntity
 67
     1
  8
0
100
AcDbBlockEnd
  0
BLOCK
  5
24
330
23
100
AcDbEntity
 67
     1
  8
0
100
AcDbBlockBegin
  2
*Paper_Space0
 70
     0
 10
0.0
 20
0.0
 30
0.0
  3
*Paper_Space0
  1

  0
ENDBLK
  5
25
330
23
100
AcDbEntity
 67
     1
  8
0
100
AcDbBlockEnd
  0
BLOCK
  5
74
330
72
100
AcDbEntity
  8
0
100
AcDbBlockBegin
  2
GENAXEH
 70
     0
 10
0.0
 20
0.0
 30
0.0
  3
GENAXEH
  1

  0
LINE
  5
73
330
72
100
AcDbEntity
  8
0
100
AcDbLine
 10
-1.0
 20
0.0
 30
0.0
 11
1.0
 21
0.0
 31
0.0
  0
ENDBLK
  5
75
330
72
100
AcDbEntity
  8
0
100
AcDbBlockEnd
  0
BLOCK
  5
6C7
330
6C4
100
AcDbEntity
  8
0
100
AcDbBlockBegin
  2
_Dot
 70
     0
 10
0.0
 20
0.0
 30
0.0
  3
_Dot
  1

  0
LWPOLYLINE
  5
6C5
330
6C4
100
AcDbEntity
  8
0
  6
ByBlock
 62
     0
100
AcDbPolyline
 90
        2
 70
     1
 43
0.5
 10
-0.25
 20
0.0
 42
1.0
 10
0.25
 20
0.0
 42
1.0
  0
LINE
  5
6C6
330
6C4
100
AcDbEntity
  8
0
  6
ByBlock
 62
     0
370
    -2
100
AcDbLine
 10
-0.5
 20
0.0
 30
0.0
 11
-1.0
 21
0.0
 31
0.0
  0
ENDBLK
  5
6C8
330
6C4
100
AcDbEntity
  8
0
100
AcDbBlockEnd
  0
BLOCK
  5
A6A
330
A66
100
AcDbEntity
  8
0
100
AcDbBlockBegin
  2
_OPEN30
 70
     0
 10
0.0
 20
0.0
 30
0.0
  3
_OPEN30
  1

  0
LINE
  5
A67
330
A66
100
AcDbEntity
  8
0
  6
ByBlock
 62
     0
100
AcDbLine
 10
-1.0
 20
0.26794919
 30
0.0
 11
0.0
 21
0.0
 31
0.0
  0
LINE
  5
A68
330
A66
100
AcDbEntity
  8
0
  6
ByBlock
 62
     0
100
AcDbLine
 10
0.0
 20
0.0
 30
0.0
 11
-1.0
 21
-0.26794919
 31
0.0
  0
LINE
  5
A69
330
A66
100
AcDbEntity
  8
0
  6
ByBlock
 62
     0
100
AcDbLine
 10
0.0
 20
0.0
 30
0.0
 11
-1.0
 21
0.0
 31
0.0
  0
ENDBLK
  5
A6B
330
A66
100
AcDbEntity
  8
0
100
AcDbBlockEnd
  0
BLOCK
  5
E625
330
E622
100
AcDbEntity
  8
0
100
AcDbBlockBegin
  2
tapping
 70
     0
 10
0.0
 20
0.0
 30
0.0
  3
tapping
  1

  0
LINE
  5
E626
330
E622
100
AcDbEntity
  8
AM_0
370
    20
100
AcDbLine
 10
854.3733269744564
 20
5338.66000993461
 30
0.0
 11
855.8733269744564
 21
5334.660009934609
 31
0.0
  0
LINE
  5
E627
330
E622
100
AcDbEntity
  8
AM_0
370
    20
100
AcDbLine
 10
853.9733269744562
 20
5338.66000993461
 30
0.0
 11
855.4733269744563
 21
5334.660009934609
 31
0.0
  0
LINE
  5
E628
330
E622
100
AcDbEntity
  8
AM_0
370
    20
100
AcDbLine
 10
854.6620021090511
 20
5338.160009934609
 30
0.0
 11
856.1620021090512
 21
5335.16000993461
 31
0.0
  0
LINE
  5
E629
330
E622
100
AcDbEntity
  8
AM_0
370
    20
100
AcDbLine
 10
853.6846518398615
 20
5338.160009934609
 30
0.0
 11
855.1846518398615
 21
5335.16000993461
 31
0.0
  0
LINE
  5
E62A
330
E622
100
AcDbEntity
  8
AM_0
370
    20
100
AcDbLine
 10
854.6620021090511
 20
5335.16000993461
 30
0.0
 11
855.1846518398617
 21
5335.16000993461
 31
0.0
  0
LINE
  5
E62B
330
E622
100
AcDbEntity
  8
AM_0
370
    20
100
AcDbLine
 10
855.1846518398615
 20
5338.160009934609
 30
0.0
 11
854.6620021090511
 21
5338.160009934609
 31
0.0
  0
LINE
  5
E62C
330
E622
100
AcDbEntity
  8
AM_0
370
    20
100
AcDbLine
 10
852.8733269744563
 20
5338.66000993461
 30
0.0
 11
854.3733269744564
 21
5334.660009934609
 31
0.0
  0
LINE
  5
E62D
330
E622
100
AcDbEntity
  8
AM_0
370
    20
100
AcDbLine
 10
852.8733269744563
 20
5338.66000993461
 30
0.0
 11
853.1620021090512
 21
5338.160009934609
 31
0.0
  0
LINE
  5
E62E
330
E622
100
AcDbEntity
  8
AM_0
370
    20
100
AcDbLine
 10
854.3733269744564
 20
5338.66000993461
 30
0.0
 11
854.6620021090511
 21
5338.160009934609
 31
0.0
  0
LINE
  5
E62F
330
E622
100
AcDbEntity
  8
AM_0
370
    20
100
AcDbLine
 10
853.9733269744562
 20
5338.66000993461
 30
0.0
 11
853.6846518398615
 21
5338.160009934609
 31
0.0
  0
LINE
  5
E630
330
E622
100
AcDbEntity
  8
AM_3
 48
0.2
370
    13
100
AcDbLine
 10
847.9733269744563
 20
5338.66000993461
 30
0.0
 11
847.6846518398614
 21
5338.160009934609
 31
0.0
  0
LINE
  5
E631
330
E622
100
AcDbEntity
  8
AM_3
 48
0.2
370
    13
100
AcDbLine
 10
848.3733269744563
 20
5338.66000993461
 30
0.0
 11
848.6620021090512
 21
5338.160009934609
 31
0.0
  0
LINE
  5
E632
330
E622
100
AcDbEntity
  8
AM_3
 48
0.2
370
    13
100
AcDbLine
 10
847.9733269744563
 20
5338.66000993461
 30
0.0
 11
848.6733191066429
 21
5336.793364248779
 31
0.0
  0
LINE
  5
E633
330
E622
100
AcDbEntity
  8
AM_3
 48
0.2
370
    13
100
AcDbLine
 10
848.3733269744563
 20
5338.66000993461
 30
0.0
 11
848.6733267988508
 21
5337.860010402891
 31
0.0
  0
LINE
  5
E634
330
E622
100
AcDbEntity
  8
AM_0
370
    20
100
AcDbLine
 10
849.8733269744564
 20
5338.66000993461
 30
0.0
 11
851.3733269744564
 21
5334.660009934609
 31
0.0
  0
LINE
  5
E635
330
E622
100
AcDbEntity
  8
AM_0
370
    20
100
AcDbLine
 10
849.4733269744562
 20
5338.66000993461
 30
0.0
 11
850.9733269744563
 21
5334.660009934609
 31
0.0
  0
LINE
  5
E636
330
E622
100
AcDbEntity
  8
AM_0
370
    20
100
AcDbLine
 10
849.8733269744564
 20
5338.66000993461
 30
0.0
 11
850.1620021090511
 21
5338.160009934609
 31
0.0
  0
LINE
  5
E637
330
E622
100
AcDbEntity
  8
AM_0
370
    20
100
AcDbLine
 10
849.4733269744562
 20
5338.66000993461
 30
0.0
 11
849.1846518398615
 21
5338.160009934609
 31
0.0
  0
LINE
  5
E638
330
E622
100
AcDbEntity
  8
AM_0
370
    20
100
AcDbLine
 10
850.9733269744563
 20
5338.66000993461
 30
0.0
 11
852.4733269744563
 21
5334.660009934609
 31
0.0
  0
LINE
  5
E639
330
E622
100
AcDbEntity
  8
AM_0
370
    20
100
AcDbLine
 10
851.3733269744564
 20
5338.66000993461
 30
0.0
 11
851.6620021090512
 21
5338.160009934609
 31
0.0
  0
LINE
  5
E63A
330
E622
100
AcDbEntity
  8
AM_0
370
    20
100
AcDbLine
 10
850.9733269744563
 20
5338.66000993461
 30
0.0
 11
850.6846518398615
 21
5338.160009934609
 31
0.0
  0
LINE
  5
E63B
330
E622
100
AcDbEntity
  8
AM_0
370
    20
100
AcDbLine
 10
852.4733269744563
 20
5338.66000993461
 30
0.0
 11
852.1846518398614
 21
5338.160009934609
 31
0.0
  0
ARC
  5
E63C
330
E622
100
AcDbEntity
  8
AM_3
 48
0.2
370
    13
100
AcDbCircle
 10
848.2482307905055
 20
5337.405572234882
 30
0.0
 40
3.727447467612629
100
AcDbArc
 50
138.5508546988706
 51
180.7003700374696
  0
LINE
  5
E63D
330
E622
100
AcDbEntity
  8
AM_3
 48
0.2
370
    13
100
AcDbLine
 10
847.173326974457
 20
5332.613361608192
 30
0.0
 11
847.1733269744559
 21
5340.706658261027
 31
0.0
  0
LINE
  5
E63E
330
E622
100
AcDbEntity
  8
AM_0
370
    20
100
AcDbLine
 10
851.3733269744564
 20
5338.66000993461
 30
0.0
 11
852.8733269744563
 21
5334.660009934609
 31
0.0
  0
LINE
  5
E63F
330
E622
100
AcDbEntity
  8
AM_0
370
    20
100
AcDbLine
 10
852.4733269744563
 20
5338.66000993461
 30
0.0
 11
853.9733269744562
 21
5334.660009934609
 31
0.0
  0
ARC
  5
E640
330
E622
100
AcDbEntity
  8
AM_3
 48
0.2
370
    13
100
AcDbCircle
 10
847.173326974457
 20
5334.802394981963
 30
0.0
 40
2.189033373771258
100
AcDbArc
 50
218.2544203525143
 51
270.0
  0
LINE
  5
E641
330
E622
100
AcDbEntity
  8
AM_3
 48
0.2
370
    13
100
AcDbLine
 10
845.6733269744571
 20
5336.16000993461
 30
0.0
 11
844.5210617977435
 21
5336.16000993461
 31
0.0
  0
LINE
  5
E642
330
E622
100
AcDbEntity
  8
AM_3
 48
0.2
370
    13
100
AcDbLine
 10
845.6733269744571
 20
5337.16000993461
 30
0.0
 11
845.6733269744571
 21
5336.16000993461
 31
0.0
  0
LINE
  5
E643
330
E622
100
AcDbEntity
  8
AM_3
 48
0.2
370
    13
100
AcDbLine
 10
844.5210617977435
 20
5337.16000993461
 30
0.0
 11
845.6733269744571
 21
5337.16000993461
 31
0.0
  0
LINE
  5
E644
330
E622
100
AcDbEntity
  8
AM_3
370
    20
100
AcDbLine
 10
844.5210617977435
 20
5337.16000993461
 30
0.0
 11
844.5210617977435
 21
5337.360009934609
 31
0.0
  0
LINE
  5
E645
330
E622
100
AcDbEntity
  8
AM_3
370
    20
100
AcDbLine
 10
844.5210617977435
 20
5336.16000993461
 30
0.0
 11
844.5210617977435
 21
5335.960009934609
 31
0.0
  0
ARC
  5
E646
330
E622
100
AcDbEntity
  8
AM_3
 48
0.2
370
    13
100
AcDbCircle
 10
847.9330338457907
 20
5335.797387301483
 30
0.0
 40
3.415845338633003
100
AcDbArc
 50
177.2712131253049
 51
223.4775621383962
  0
LINE
  5
E647
330
E622
100
AcDbEntity
  8
AM_0
370
    20
100
AcDbLine
 10
852.8733269744563
 20
5334.660009934609
 30
0.0
 11
853.1620021090512
 21
5335.16000993461
 31
0.0
  0
LINE
  5
E648
330
E622
100
AcDbEntity
  8
AM_0
370
    20
100
AcDbLine
 10
853.1620021090512
 20
5338.160009934609
 30
0.0
 11
854.6620021090511
 21
5335.16000993461
 31
0.0
  0
LINE
  5
E649
330
E622
100
AcDbEntity
  8
AM_0
370
    20
100
AcDbLine
 10
853.9733269744562
 20
5334.660009934609
 30
0.0
 11
854.3733269744564
 21
5334.660009934609
 31
0.0
  0
LINE
  5
E64A
330
E622
100
AcDbEntity
  8
AM_0
370
    20
100
AcDbLine
 10
854.3733269744564
 20
5334.660009934609
 30
0.0
 11
854.6620021090511
 21
5335.16000993461
 31
0.0
  0
LINE
  5
E64B
330
E622
100
AcDbEntity
  8
AM_0
370
    20
100
AcDbLine
 10
853.9733269744562
 20
5334.660009934609
 30
0.0
 11
853.6846518398615
 21
5335.16000993461
 31
0.0
  0
LINE
  5
E64C
330
E622
100
AcDbEntity
  8
AM_0
370
    20
100
AcDbLine
 10
853.1620021090512
 20
5335.16000993461
 30
0.0
 11
853.6846518398617
 21
5335.16000993461
 31
0.0
  0
LINE
  5
E64D
330
E622
100
AcDbEntity
  8
AM_0
370
    20
100
AcDbLine
 10
853.6846518398617
 20
5338.160009934609
 30
0.0
 11
853.1620021090514
 21
5338.160009934609
 31
0.0
  0
LINE
  5
E64E
330
E622
100
AcDbEntity
  8
AM_3
 48
0.2
370
    13
100
AcDbLine
 10
847.1733269744563
 20
5335.16000993461
 30
0.0
 11
848.6733267449718
 21
5335.16000993461
 31
0.0
  0
LINE
  5
E64F
330
E622
100
AcDbEntity
  8
AM_0
370
    20
100
AcDbLine
 10
849.4733269744562
 20
5334.660009934609
 30
0.0
 11
849.8733269744564
 21
5334.660009934609
 31
0.0
  0
LINE
  5
E650
330
E622
100
AcDbEntity
  8
AM_0
370
    20
100
AcDbLine
 10
849.8733269744564
 20
5334.660009934609
 30
0.0
 11
850.1620021090511
 21
5335.16000993461
 31
0.0
  0
LINE
  5
E651
330
E622
100
AcDbEntity
  8
AM_0
370
    20
100
AcDbLine
 10
849.4733269744562
 20
5334.660009934609
 30
0.0
 11
849.1846518398615
 21
5335.16000993461
 31
0.0
  0
LINE
  5
E652
330
E622
100
AcDbEntity
  8
AM_3
 48
0.2
370
    13
100
AcDbLine
 10
847.6846518398614
 20
5338.160009934609
 30
0.0
 11
848.6733269744561
 21
5336.18265966542
 31
0.0
  0
LINE
  5
E653
330
E622
100
AcDbEntity
  8
AM_3
 48
0.2
370
    20
100
AcDbLine
 10
848.6620021090512
 20
5338.160009934609
 30
0.0
 11
848.6733268043852
 21
5338.137360543941
 31
0.0
  0
LINE
  5
E654
330
E622
100
AcDbEntity
  8
AM_0
370
    20
100
AcDbLine
 10
850.1620021090509
 20
5335.16000993461
 30
0.0
 11
850.6846518398615
 21
5335.16000993461
 31
0.0
  0
LINE
  5
E655
330
E622
100
AcDbEntity
  8
AM_3
 48
0.2
370
    13
100
AcDbLine
 10
847.6846518398613
 20
5338.160009934609
 30
0.0
 11
847.1733269744563
 21
5338.160009934609
 31
0.0
  0
LINE
  5
E656
330
E622
100
AcDbEntity
  8
AM_0
370
    20
100
AcDbLine
 10
850.1620021090511
 20
5338.160009934609
 30
0.0
 11
851.6620021090512
 21
5335.16000993461
 31
0.0
  0
LINE
  5
E657
330
E622
100
AcDbEntity
  8
AM_0
370
    20
100
AcDbLine
 10
849.1846518398615
 20
5338.160009934609
 30
0.0
 11
850.6846518398615
 21
5335.16000993461
 31
0.0
  0
LINE
  5
E658
330
E622
100
AcDbEntity
  8
AM_0
370
    20
100
AcDbLine
 10
850.9733269744563
 20
5334.660009934609
 30
0.0
 11
851.3733269744564
 21
5334.660009934609
 31
0.0
  0
LINE
  5
E659
330
E622
100
AcDbEntity
  8
AM_0
370
    20
100
AcDbLine
 10
851.3733269744564
 20
5334.660009934609
 30
0.0
 11
851.6620021090512
 21
5335.16000993461
 31
0.0
  0
LINE
  5
E65A
330
E622
100
AcDbEntity
  8
AM_0
370
    20
100
AcDbLine
 10
850.9733269744563
 20
5334.660009934609
 30
0.0
 11
850.6846518398615
 21
5335.16000993461
 31
0.0
  0
LINE
  5
E65B
330
E622
100
AcDbEntity
  8
AM_0
370
    20
100
AcDbLine
 10
850.6846518398615
 20
5338.160009934609
 30
0.0
 11
852.1846518398614
 21
5335.16000993461
 31
0.0
  0
LINE
  5
E65C
330
E622
100
AcDbEntity
  8
AM_0
370
    20
100
AcDbLine
 10
852.4733269744563
 20
5334.660009934609
 30
0.0
 11
852.1846518398614
 21
5335.16000993461
 31
0.0
  0
LINE
  5
E65D
330
E622
100
AcDbEntity
  8
AM_0
370
    20
100
AcDbLine
 10
849.1846518398613
 20
5338.160009934609
 30
0.0
 11
848.6733269744561
 21
5338.160009934609
 31
0.0
  0
LINE
  5
E65E
330
E622
100
AcDbEntity
  8
AM_0
370
    20
100
AcDbLine
 10
851.6620021090512
 20
5335.16000993461
 30
0.0
 11
852.1846518398614
 21
5335.16000993461
 31
0.0
  0
LINE
  5
E65F
330
E622
100
AcDbEntity
  8
AM_0
370
    20
100
AcDbLine
 10
850.6846518398615
 20
5338.160009934609
 30
0.0
 11
850.1620021090511
 21
5338.160009934609
 31
0.0
  0
LINE
  5
E660
330
E622
100
AcDbEntity
  8
AM_0
370
    20
100
AcDbLine
 10
852.1846518398612
 20
5338.160009934609
 30
0.0
 11
851.662002109051
 21
5338.160009934609
 31
0.0
  0
LINE
  5
E661
330
E622
100
AcDbEntity
  8
AM_0
370
    20
100
AcDbLine
 10
851.6620021090512
 20
5338.160009934609
 30
0.0
 11
853.1620021090512
 21
5335.16000993461
 31
0.0
  0
LINE
  5
E662
330
E622
100
AcDbEntity
  8
AM_0
370
    20
100
AcDbLine
 10
852.4733269744563
 20
5334.660009934609
 30
0.0
 11
852.8733269744563
 21
5334.660009934609
 31
0.0
  0
LINE
  5
E663
330
E622
100
AcDbEntity
  8
AM_0
370
    20
100
AcDbLine
 10
852.1846518398614
 20
5338.160009934609
 30
0.0
 11
853.6846518398615
 21
5335.16000993461
 31
0.0
  0
ARC
  5
E664
330
E622
100
AcDbEntity
  8
AM_3
 48
0.2
370
    13
100
AcDbCircle
 10
847.1733269744571
 20
5338.517624887257
 30
0.0
 40
2.189033373771337
100
AcDbArc
 50
90.0
 51
141.7455796474857
  0
LINE
  5
E665
330
E622
100
AcDbEntity
  8
AM_0
370
    20
100
AcDbLine
 10
853.9733269744562
 20
5338.66000993461
 30
0.0
 11
854.3733269744564
 21
5338.66000993461
 31
0.0
  0
LINE
  5
E666
330
E622
100
AcDbEntity
  8
AM_3
 48
0.2
370
    13
100
AcDbLine
 10
847.9733269744563
 20
5338.66000993461
 30
0.0
 11
848.3733269744563
 21
5338.66000993461
 31
0.0
  0
LINE
  5
E667
330
E622
100
AcDbEntity
  8
AM_0
370
    20
100
AcDbLine
 10
849.4733269744562
 20
5338.66000993461
 30
0.0
 11
849.8733269744564
 21
5338.66000993461
 31
0.0
  0
LINE
  5
E668
330
E622
100
AcDbEntity
  8
AM_0
370
    20
100
AcDbLine
 10
850.9733269744563
 20
5338.66000993461
 30
0.0
 11
851.3733269744564
 21
5338.66000993461
 31
0.0
  0
LINE
  5
E669
330
E622
100
AcDbEntity
  8
AM_0
370
    20
100
AcDbLine
 10
852.4733269744563
 20
5338.66000993461
 30
0.0
 11
852.8733269744563
 21
5338.66000993461
 31
0.0
  0
LINE
  5
E66A
330
E622
100
AcDbEntity
  8
AM_0
370
    20
100
AcDbLine
 10
855.8733269744564
 20
5338.66000993461
 30
0.0
 11
857.3733269744563
 21
5334.660009934609
 31
0.0
  0
LINE
  5
E66B
330
E622
100
AcDbEntity
  8
AM_0
370
    20
100
AcDbLine
 10
855.4733269744563
 20
5338.66000993461
 30
0.0
 11
856.9733269744563
 21
5334.660009934609
 31
0.0
  0
LINE
  5
E66C
330
E622
100
AcDbEntity
  8
AM_0
370
    20
100
AcDbLine
 10
855.8733269744564
 20
5338.66000993461
 30
0.0
 11
856.1620021090512
 21
5338.160009934609
 31
0.0
  0
LINE
  5
E66D
330
E622
100
AcDbEntity
  8
AM_0
370
    20
100
AcDbLine
 10
855.4733269744563
 20
5338.66000993461
 30
0.0
 11
855.1846518398615
 21
5338.160009934609
 31
0.0
  0
LINE
  5
E66E
330
E622
100
AcDbEntity
  8
AM_0
370
    20
100
AcDbLine
 10
857.3733269744563
 20
5338.66000993461
 30
0.0
 11
858.8733269744563
 21
5334.660009934609
 31
0.0
  0
LINE
  5
E66F
330
E622
100
AcDbEntity
  8
AM_0
370
    20
100
AcDbLine
 10
856.9733269744563
 20
5338.66000993461
 30
0.0
 11
858.4733269744562
 21
5334.660009934609
 31
0.0
  0
LINE
  5
E670
330
E622
100
AcDbEntity
  8
AM_0
370
    20
100
AcDbLine
 10
857.3733269744563
 20
5338.66000993461
 30
0.0
 11
857.6620021090512
 21
5338.160009934609
 31
0.0
  0
LINE
  5
E671
330
E622
100
AcDbEntity
  8
AM_0
370
    20
100
AcDbLine
 10
856.9733269744563
 20
5338.66000993461
 30
0.0
 11
856.6846518398616
 21
5338.160009934609
 31
0.0
  0
LINE
  5
E672
330
E622
100
AcDbEntity
  8
AM_0
370
    20
100
AcDbLine
 10
858.8733269744563
 20
5338.66000993461
 30
0.0
 11
860.3733269744564
 21
5334.660009934609
 31
0.0
  0
LINE
  5
E673
330
E622
100
AcDbEntity
  8
AM_0
370
    20
100
AcDbLine
 10
858.4733269744562
 20
5338.66000993461
 30
0.0
 11
859.9733269744563
 21
5334.660009934609
 31
0.0
  0
LINE
  5
E674
330
E622
100
AcDbEntity
  8
AM_0
370
    20
100
AcDbLine
 10
858.8733269744563
 20
5338.66000993461
 30
0.0
 11
859.1620021090511
 21
5338.160009934609
 31
0.0
  0
LINE
  5
E675
330
E622
100
AcDbEntity
  8
AM_0
370
    20
100
AcDbLine
 10
858.4733269744562
 20
5338.66000993461
 30
0.0
 11
858.1846518398615
 21
5338.160009934609
 31
0.0
  0
LINE
  5
E676
330
E622
100
AcDbEntity
  8
AM_0
370
    20
100
AcDbLine
 10
855.4733269744563
 20
5334.660009934609
 30
0.0
 11
855.8733269744564
 21
5334.660009934609
 31
0.0
  0
LINE
  5
E677
330
E622
100
AcDbEntity
  8
AM_0
370
    20
100
AcDbLine
 10
855.8733269744564
 20
5334.660009934609
 30
0.0
 11
856.1620021090512
 21
5335.16000993461
 31
0.0
  0
LINE
  5
E678
330
E622
100
AcDbEntity
  8
AM_0
370
    20
100
AcDbLine
 10
855.4733269744563
 20
5334.660009934609
 30
0.0
 11
855.1846518398615
 21
5335.16000993461
 31
0.0
  0
LINE
  5
E679
330
E622
100
AcDbEntity
  8
AM_0
370
    20
100
AcDbLine
 10
856.1620021090512
 20
5338.160009934609
 30
0.0
 11
857.6620021090512
 21
5335.16000993461
 31
0.0
  0
LINE
  5
E67A
330
E622
100
AcDbEntity
  8
AM_0
370
    20
100
AcDbLine
 10
855.1846518398615
 20
5338.160009934609
 30
0.0
 11
856.6846518398616
 21
5335.16000993461
 31
0.0
  0
LINE
  5
E67B
330
E622
100
AcDbEntity
  8
AM_0
370
    20
100
AcDbLine
 10
856.9733269744563
 20
5334.660009934609
 30
0.0
 11
857.3733269744563
 21
5334.660009934609
 31
0.0
  0
LINE
  5
E67C
330
E622
100
AcDbEntity
  8
AM_0
370
    20
100
AcDbLine
 10
857.3733269744563
 20
5334.660009934609
 30
0.0
 11
857.6620021090512
 21
5335.16000993461
 31
0.0
  0
LINE
  5
E67D
330
E622
100
AcDbEntity
  8
AM_0
370
    20
100
AcDbLine
 10
856.9733269744563
 20
5334.660009934609
 30
0.0
 11
856.6846518398616
 21
5335.16000993461
 31
0.0
  0
LINE
  5
E67E
330
E622
100
AcDbEntity
  8
AM_0
370
    20
100
AcDbLine
 10
857.6620021090512
 20
5338.160009934609
 30
0.0
 11
859.1620021090511
 21
5335.16000993461
 31
0.0
  0
LINE
  5
E67F
330
E622
100
AcDbEntity
  8
AM_0
370
    20
100
AcDbLine
 10
856.6846518398616
 20
5338.160009934609
 30
0.0
 11
858.1846518398615
 21
5335.16000993461
 31
0.0
  0
LINE
  5
E680
330
E622
100
AcDbEntity
  8
AM_0
370
    20
100
AcDbLine
 10
858.4733269744562
 20
5334.660009934609
 30
0.0
 11
858.8733269744563
 21
5334.660009934609
 31
0.0
  0
LINE
  5
E681
330
E622
100
AcDbEntity
  8
AM_0
370
    20
100
AcDbLine
 10
858.8733269744563
 20
5334.660009934609
 30
0.0
 11
859.1620021090511
 21
5335.16000993461
 31
0.0
  0
LINE
  5
E682
330
E622
100
AcDbEntity
  8
AM_0
370
    20
100
AcDbLine
 10
858.4733269744562
 20
5334.660009934609
 30
0.0
 11
858.1846518398615
 21
5335.16000993461
 31
0.0
  0
LINE
  5
E683
330
E622
100
AcDbEntity
  8
AM_0
370
    20
100
AcDbLine
 10
859.1620021090511
 20
5338.160009934609
 30
0.0
 11
860.6620021090511
 21
5335.16000993461
 31
0.0
  0
LINE
  5
E684
330
E622
100
AcDbEntity
  8
AM_0
370
    20
100
AcDbLine
 10
858.1846518398615
 20
5338.160009934609
 30
0.0
 11
859.6846518398615
 21
5335.16000993461
 31
0.0
  0
LINE
  5
E685
330
E622
100
AcDbEntity
  8
AM_0
370
    20
100
AcDbLine
 10
856.1620021090512
 20
5335.16000993461
 30
0.0
 11
856.6846518398612
 21
5335.16000993461
 31
0.0
  0
LINE
  5
E686
330
E622
100
AcDbEntity
  8
AM_0
370
    20
100
AcDbLine
 10
857.6620021090512
 20
5335.16000993461
 30
0.0
 11
858.1846518398613
 21
5335.16000993461
 31
0.0
  0
LINE
  5
E687
330
E622
100
AcDbEntity
  8
AM_0
370
    20
100
AcDbLine
 10
859.1620021090511
 20
5335.16000993461
 30
0.0
 11
859.6846518398615
 21
5335.16000993461
 31
0.0
  0
LINE
  5
E688
330
E622
100
AcDbEntity
  8
AM_0
370
    20
100
AcDbLine
 10
856.6846518398616
 20
5338.160009934609
 30
0.0
 11
856.1620021090512
 21
5338.160009934609
 31
0.0
  0
LINE
  5
E689
330
E622
100
AcDbEntity
  8
AM_0
370
    20
100
AcDbLine
 10
858.1846518398615
 20
5338.160009934609
 30
0.0
 11
857.6620021090512
 21
5338.160009934609
 31
0.0
  0
LINE
  5
E68A
330
E622
100
AcDbEntity
  8
AM_0
370
    20
100
AcDbLine
 10
859.6846518398614
 20
5338.160009934609
 30
0.0
 11
859.1620021090511
 21
5338.160009934609
 31
0.0
  0
LINE
  5
E68B
330
E622
100
AcDbEntity
  8
AM_0
370
    20
100
AcDbLine
 10
855.4733269744563
 20
5338.66000993461
 30
0.0
 11
855.8733269744564
 21
5338.66000993461
 31
0.0
  0
LINE
  5
E68C
330
E622
100
AcDbEntity
  8
AM_0
370
    20
100
AcDbLine
 10
856.9733269744563
 20
5338.66000993461
 30
0.0
 11
857.3733269744563
 21
5338.66000993461
 31
0.0
  0
LINE
  5
E68D
330
E622
100
AcDbEntity
  8
AM_0
370
    20
100
AcDbLine
 10
858.4733269744562
 20
5338.66000993461
 30
0.0
 11
858.8733269744563
 21
5338.66000993461
 31
0.0
  0
LINE
  5
E68E
330
E622
100
AcDbEntity
  8
AM_0
370
    20
100
AcDbLine
 10
860.3733269744562
 20
5338.66000993461
 30
0.0
 11
861.807675435752
 21
5334.791313012018
 31
0.0
  0
LINE
  5
E68F
330
E622
100
AcDbEntity
  8
AM_0
370
    20
100
AcDbLine
 10
859.9733269744561
 20
5338.66000993461
 30
0.0
 11
861.4076754357521
 21
5334.791313012018
 31
0.0
  0
LINE
  5
E690
330
E622
100
AcDbEntity
  8
AM_0
370
    20
100
AcDbLine
 10
861.924379732382
 20
5338.557904418758
 30
0.0
 11
863.1750513965284
 21
5335.056561090465
 31
0.0
  0
LINE
  5
E691
330
E622
100
AcDbEntity
  8
AM_0
370
    20
100
AcDbLine
 10
861.5243797323818
 20
5338.557904418758
 30
0.0
 11
862.7750513965283
 21
5335.056561090465
 31
0.0
  0
LINE
  5
E692
330
E622
100
AcDbEntity
  8
AM_0
370
    20
100
AcDbLine
 10
861.924379732382
 20
5338.557904418758
 30
0.0
 11
862.2130548669767
 21
5338.057904418758
 31
0.0
  0
LINE
  5
E693
330
E622
100
AcDbEntity
  8
AM_0
370
    20
100
AcDbLine
 10
861.5243797323818
 20
5338.557904418758
 30
0.0
 11
861.2357045977871
 21
5338.057904418758
 31
0.0
  0
LINE
  5
E694
330
E622
100
AcDbEntity
  8
AM_0
370
    20
100
AcDbLine
 10
860.8020066308965
 20
5338.160009934609
 30
0.0
 11
861.2357045977871
 21
5338.057904418758
 31
0.0
  0
LINE
  5
E695
330
E622
100
AcDbEntity
  8
AM_0
370
    20
100
AcDbLine
 10
860.8020066308965
 20
5335.16000993461
 30
0.0
 11
861.1478052859908
 21
5335.241421314775
 31
0.0
  0
LINE
  5
E696
330
E622
100
AcDbEntity
  8
AM_0
370
    20
100
AcDbLine
 10
864.1170750739192
 20
5335.372513735683
 30
0.0
 11
864.5170750739193
 21
5335.372513735683
 31
0.0
  0
LINE
  5
E697
330
E622
100
AcDbEntity
  8
AM_0
370
    20
100
AcDbLine
 10
864.5170750739193
 20
5335.372513735683
 30
0.0
 11
864.8057502085141
 21
5335.872513735683
 31
0.0
  0
LINE
  5
E698
330
E622
100
AcDbEntity
  8
AM_0
370
    20
100
AcDbLine
 10
864.9246415681226
 20
5337.757380747277
 30
0.0
 11
864.6359664335276
 21
5337.257380747276
 31
0.0
  0
LINE
  5
E699
330
E622
100
AcDbEntity
  8
AM_0
370
    20
100
AcDbLine
 10
864.9246415681226
 20
5337.757380747277
 30
0.0
 11
865.3246415681225
 21
5337.757380747277
 31
0.0
  0
LINE
  5
E69A
330
E622
100
AcDbEntity
  8
AM_0
370
    20
100
AcDbLine
 10
864.9246415681226
 20
5337.757380747277
 30
0.0
 11
865.834075423962
 21
5335.785333114239
 31
0.0
  0
LINE
  5
E69B
330
E622
100
AcDbEntity
  8
AM_0
370
    20
100
AcDbLine
 10
865.3246415681225
 20
5337.757380747277
 30
0.0
 11
865.8590987513099
 21
5335.688466380901
 31
0.0
  0
LINE
  5
E69C
330
E622
100
AcDbEntity
  8
AM_0
370
    20
100
AcDbLine
 10
860.662002109051
 20
5338.160009934609
 30
0.0
 11
862.0963505703469
 21
5335.291313012017
 31
0.0
  0
LINE
  5
E69D
330
E622
100
AcDbEntity
  8
AM_0
370
    20
100
AcDbLine
 10
859.6846518398614
 20
5338.160009934609
 30
0.0
 11
861.1190003011572
 21
5335.291313012017
 31
0.0
  0
LINE
  5
E69E
330
E622
100
AcDbEntity
  8
AM_0
370
    20
100
AcDbLine
 10
861.4076754357521
 20
5334.791313012018
 30
0.0
 11
861.807675435752
 21
5334.791313012018
 31
0.0
  0
LINE
  5
E69F
330
E622
100
AcDbEntity
  8
AM_0
370
    20
100
AcDbLine
 10
861.807675435752
 20
5334.791313012018
 30
0.0
 11
862.0963505703469
 21
5335.291313012017
 31
0.0
  0
LINE
  5
E6A0
330
E622
100
AcDbEntity
  8
AM_0
370
    20
100
AcDbLine
 10
861.4076754357521
 20
5334.791313012018
 30
0.0
 11
861.1190003011572
 21
5335.291313012017
 31
0.0
  0
LINE
  5
E6A1
330
E622
100
AcDbEntity
  8
AM_0
370
    20
100
AcDbLine
 10
862.2130548669767
 20
5338.057904418758
 30
0.0
 11
863.4637265311232
 21
5335.556561090465
 31
0.0
  0
LINE
  5
E6A2
330
E622
100
AcDbEntity
  8
AM_0
370
    20
100
AcDbLine
 10
861.2357045977871
 20
5338.057904418758
 30
0.0
 11
862.4863762619332
 21
5335.556561090466
 31
0.0
  0
LINE
  5
E6A3
330
E622
100
AcDbEntity
  8
AM_0
370
    20
100
AcDbLine
 10
862.7750513965283
 20
5335.056561090465
 30
0.0
 11
863.1750513965284
 21
5335.056561090465
 31
0.0
  0
LINE
  5
E6A4
330
E622
100
AcDbEntity
  8
AM_0
370
    20
100
AcDbLine
 10
863.1750513965284
 20
5335.056561090465
 30
0.0
 11
863.4637265311232
 21
5335.556561090465
 31
0.0
  0
LINE
  5
E6A5
330
E622
100
AcDbEntity
  8
AM_0
370
    20
100
AcDbLine
 10
862.7750513965283
 20
5335.056561090465
 30
0.0
 11
862.4863762619336
 21
5335.556561090465
 31
0.0
  0
LINE
  5
E6A6
330
E622
100
AcDbEntity
  8
AM_0
370
    20
100
AcDbLine
 10
862.9358355156576
 20
5337.657642583018
 30
0.0
 11
863.8283999393244
 21
5335.872513735683
 31
0.0
  0
LINE
  5
E6A7
330
E622
100
AcDbEntity
  8
AM_0
370
    20
100
AcDbLine
 10
863.2245106502523
 20
5338.157642583017
 30
0.0
 11
863.6245106502524
 21
5338.157642583017
 31
0.0
  0
LINE
  5
E6A8
330
E622
100
AcDbEntity
  8
AM_0
370
    20
100
AcDbLine
 10
863.6245106502524
 20
5338.157642583017
 30
0.0
 11
863.9131857848472
 21
5337.657642583018
 31
0.0
  0
LINE
  5
E6A9
330
E622
100
AcDbEntity
  8
AM_0
370
    20
100
AcDbLine
 10
863.2245106502523
 20
5338.157642583017
 30
0.0
 11
862.9358355156576
 21
5337.657642583018
 31
0.0
  0
LINE
  5
E6AA
330
E622
100
AcDbEntity
  8
AM_0
370
    20
100
AcDbLine
 10
863.9131857848477
 20
5337.657642583017
 30
0.0
 11
864.8057502085141
 21
5335.872513735683
 31
0.0
  0
LINE
  5
E6AB
330
E622
100
AcDbEntity
  8
AM_0
370
    20
100
AcDbLine
 10
863.6245106502524
 20
5338.157642583017
 30
0.0
 11
864.5170750739193
 21
5335.372513735683
 31
0.0
  0
LINE
  5
E6AC
330
E622
100
AcDbEntity
  8
AM_0
370
    20
100
AcDbLine
 10
863.2245106502523
 20
5338.157642583017
 30
0.0
 11
864.1170750739192
 21
5335.372513735683
 31
0.0
  0
LINE
  5
E6AD
330
E622
100
AcDbEntity
  8
AM_0
370
    20
100
AcDbLine
 10
864.1170750739192
 20
5335.372513735683
 30
0.0
 11
863.8283999393244
 21
5335.872513735683
 31
0.0
  0
LINE
  5
E6AE
330
E622
100
AcDbEntity
  8
AM_0
370
    20
100
AcDbLine
 10
861.5243797323818
 20
5338.557904418758
 30
0.0
 11
861.924379732382
 21
5338.557904418758
 31
0.0
  0
LINE
  5
E6AF
330
E622
100
AcDbEntity
  8
AM_0
370
    20
100
AcDbLine
 10
859.6846518398615
 20
5335.16000993461
 30
0.0
 11
859.9733269744563
 21
5334.660009934609
 31
0.0
  0
LINE
  5
E6B0
330
E622
100
AcDbEntity
  8
AM_0
370
    20
100
AcDbLine
 10
859.9733269744563
 20
5334.660009934609
 30
0.0
 11
860.3733269744564
 21
5334.660009934609
 31
0.0
  0
LINE
  5
E6B1
330
E622
100
AcDbEntity
  8
AM_0
370
    20
100
AcDbLine
 10
860.3733269744564
 20
5334.660009934609
 30
0.0
 11
860.6620021090511
 21
5335.16000993461
 31
0.0
  0
LINE
  5
E6B2
330
E622
100
AcDbEntity
  8
AM_0
370
    20
100
AcDbLine
 10
860.8020066308965
 20
5335.16000993461
 30
0.0
 11
860.6620021090511
 21
5335.16000993461
 31
0.0
  0
LINE
  5
E6B3
330
E622
100
AcDbEntity
  8
AM_0
370
    20
100
AcDbLine
 10
859.6846518398614
 20
5338.160009934609
 30
0.0
 11
859.9733269744561
 21
5338.66000993461
 31
0.0
  0
LINE
  5
E6B4
330
E622
100
AcDbEntity
  8
AM_0
370
    20
100
AcDbLine
 10
859.9733269744561
 20
5338.66000993461
 30
0.0
 11
860.3733269744562
 21
5338.66000993461
 31
0.0
  0
LINE
  5
E6B5
330
E622
100
AcDbEntity
  8
AM_0
370
    20
100
AcDbLine
 10
860.3733269744562
 20
5338.66000993461
 30
0.0
 11
860.662002109051
 21
5338.160009934609
 31
0.0
  0
LINE
  5
E6B6
330
E622
100
AcDbEntity
  8
AM_0
370
    20
100
AcDbLine
 10
860.662002109051
 20
5338.160009934609
 30
0.0
 11
860.8020066308965
 21
5338.160009934609
 31
0.0
  0
LINE
  5
E6B7
330
E622
100
AcDbEntity
  8
AM_3
 48
0.2
370
    20
100
AcDbLine
 10
848.6733269744561
 20
5338.160009934609
 30
0.0
 11
848.6620021090509
 21
5338.160009934609
 31
0.0
  0
LINE
  5
E6B8
330
E622
100
AcDbEntity
  8
AM_0
370
    20
100
AcDbLine
 10
848.6733268043852
 20
5338.137360543941
 30
0.0
 11
850.1620021090511
 21
5335.16000993461
 31
0.0
  0
LINE
  5
E6B9
330
E622
100
AcDbEntity
  8
AM_0
370
    20
100
AcDbLine
 10
848.6733267988508
 20
5337.860010402891
 30
0.0
 11
849.8733269744564
 21
5334.660009934609
 31
0.0
  0
LINE
  5
E6BA
330
E622
100
AcDbEntity
  8
AM_0
370
    20
100
AcDbLine
 10
848.6733191066429
 20
5336.793364248779
 30
0.0
 11
849.4733269744562
 21
5334.660009934609
 31
0.0
  0
LINE
  5
E6BB
330
E622
100
AcDbEntity
  8
AM_0
370
    20
100
AcDbLine
 10
848.6733269744561
 20
5336.18265966542
 30
0.0
 11
849.1846518398615
 21
5335.16000993461
 31
0.0
  0
LINE
  5
E6BC
330
E622
100
AcDbEntity
  8
AM_0
370
    20
100
AcDbLine
 10
848.6733267449718
 20
5335.16000993461
 30
0.0
 11
849.1846518398613
 21
5335.16000993461
 31
0.0
  0
LINE
  5
E6BD
330
E622
100
AcDbEntity
  8
AM_0
370
    20
100
AcDbLine
 10
862.018770719448
 20
5335.446472713815
 30
0.0
 11
862.4863762619336
 21
5335.556561090464
 31
0.0
  0
LINE
  5
E6BE
330
E622
100
AcDbEntity
  8
AM_0
370
    20
100
AcDbLine
 10
863.3607943968383
 20
5335.762425359035
 30
0.0
 11
863.8283999393248
 21
5335.872513735683
 31
0.0
  0
LINE
  5
E6BF
330
E622
100
AcDbEntity
  8
AM_0
370
    20
100
AcDbLine
 10
864.7028180742289
 20
5336.078378004254
 30
0.0
 11
865.6013764325408
 21
5336.289925605816
 31
0.0
  0
LINE
  5
E6C0
330
E622
100
AcDbEntity
  8
AM_0
370
    20
100
AcDbLine
 10
865.6013764325408
 20
5336.289925605816
 30
0.0
 11
865.6978575865146
 21
5336.312640164677
 31
0.0
  0
LINE
  5
E6C1
330
E622
100
AcDbEntity
  8
AM_0
370
    20
100
AcDbLine
 10
865.6978575865146
 20
5336.312640164677
 30
0.0
 11
867.1733269744564
 21
5336.66000993461
 31
0.0
  0
LINE
  5
E6C2
330
E622
100
AcDbEntity
  8
AM_0
370
    20
100
AcDbLine
 10
865.5067655165252
 20
5337.052368512125
 30
0.0
 11
867.1733269744564
 21
5336.66000993461
 31
0.0
  0
LINE
  5
E6C3
330
E622
100
AcDbEntity
  8
AM_0
370
    20
100
AcDbLine
 10
864.0435844558163
 20
5337.396845241079
 30
0.0
 11
864.6359664335276
 21
5337.257380747276
 31
0.0
  0
LINE
  5
E6C4
330
E622
100
AcDbEntity
  8
AM_0
370
    20
100
AcDbLine
 10
862.3434535379461
 20
5337.79710707682
 30
0.0
 11
862.9358355156576
 21
5337.657642583018
 31
0.0
  0
LINE
  5
E6C5
330
E622
100
AcDbEntity
  8
AM_0
100
AcDbLine
 10
864.6359664335276
 20
5337.257380747276
 30
0.0
 11
865.834075423962
 21
5335.785333114239
 31
0.0
  0
ENDBLK
  5
E6C6
330
E622
100
AcDbEntity
  8
0
100
AcDbBlockEnd
  0
BLOCK
  5
EB19
330
EB0F
100
AcDbEntity
  8
0
100
AcDbBlockBegin
  2
*D6
 70
     1
 10
0.0
 20
0.0
 30
0.0
  3
*D6
  1

  0
LINE
  5
F48D
330
EB0F
100
AcDbEntity
  8
AM_5
100
AcDbLine
 10
108.4500002543558
 20
39.36544201373258
 30
0.0
 11
108.4500002543558
 21
56.99999999999998
 31
0.0
  0
LINE
  5
F48E
330
EB0F
100
AcDbEntity
  8
AM_5
100
AcDbLine
 10
152.5499987284768
 20
39.36544036865244
 30
0.0
 11
152.5499987284768
 21
56.99999999999998
 31
0.0
  0
LINE
  5
F48F
330
EB0F
100
AcDbEntity
  8
AM_5
100
AcDbLine
 10
109.4500002543558
 20
55.99999999999997
 30
0.0
 11
151.5499987284768
 21
55.99999999999997
 31
0.0
  0
INSERT
  5
F490
330
EB0F
100
AcDbEntity
  8
AM_5
100
AcDbBlockReference
  2
_Dot
 10
108.4500002543558
 20
55.99999999999997
 30
0.0
 41
1.0
 42
1.0
 43
1.0
 50
180.0
  0
INSERT
  5
F491
330
EB0F
100
AcDbEntity
  8
AM_5
100
AcDbBlockReference
  2
_Dot
 10
152.5499987284768
 20
55.99999999999997
 30
0.0
 41
1.0
 42
1.0
 43
1.0
  0
MTEXT
  5
F492
330
EB0F
100
AcDbEntity
  8
AM_5
 62
     2
100
AcDbMText
 10
130.4999994914163
 20
59.09999999999998
 30
0.0
 40
3.2
 41
0.0
 71
     5
 72
     1
  1
44.1
 73
     1
 44
1.0
  0
POINT
  5
F493
330
EB0F
100
AcDbEntity
  8
Defpoints
 62
     0
100
AcDbPoint
 10
108.4500002543558
 20
37.86544201373259
 30
0.0
  0
POINT
  5
F494
330
EB0F
100
AcDbEntity
  8
Defpoints
 62
     0
100
AcDbPoint
 10
152.5499987284768
 20
37.86544036865244
 30
0.0
  0
POINT
  5
F495
330
EB0F
100
AcDbEntity
  8
Defpoints
 62
     0
100
AcDbPoint
 10
152.5499987284768
 20
55.99999999999997
 30
0.0
  0
ENDBLK
  5
EB1A
330
EB0F
100
AcDbEntity
  8
0
100
AcDbBlockEnd
  0
BLOCK
  5
EB79
330
EB6F
100
AcDbEntity
  8
0
100
AcDbBlockBegin
  2
*D8
 70
     1
 10
0.0
 20
0.0
 30
0.0
  3
*D8
  1

  0
LINE
  5
F4AA
330
EB6F
100
AcDbEntity
  8
AM_5
100
AcDbLine
 10
153.1499996540123
 20
33.49999999999998
 30
0.0
 11
163.5499992370605
 21
33.49999999999998
 31
0.0
  0
LINE
  5
F4AB
330
EB6F
100
AcDbEntity
  8
AM_5
100
AcDbLine
 10
131.9999990463256
 20
47.99999999999998
 30
0.0
 11
163.5499992370605
 21
47.99999999999997
 31
0.0
  0
LINE
  5
F4AC
330
EB6F
100
AcDbEntity
  8
AM_5
100
AcDbLine
 10
162.5499992370605
 20
34.49999999999998
 30
0.0
 11
162.5499992370605
 21
46.99999999999997
 31
0.0
  0
INSERT
  5
F4AD
330
EB6F
100
AcDbEntity
  8
AM_5
100
AcDbBlockReference
  2
_Dot
 10
162.5499992370605
 20
33.49999999999998
 30
0.0
 41
1.0
 42
1.0
 43
1.0
 50
270.0
  0
INSERT
  5
F4AE
330
EB6F
100
AcDbEntity
  8
AM_5
100
AcDbBlockReference
  2
_Dot
 10
162.5499992370605
 20
47.99999999999997
 30
0.0
 41
1.0
 42
1.0
 43
1.0
 50
90.0
  0
MTEXT
  5
F4AF
330
EB6F
100
AcDbEntity
  8
AM_5
 62
     2
100
AcDbMText
 10
159.4499992370605
 20
40.75000000000001
 30
0.0
 40
3.2
 41
0.0
 71
     5
 72
     1
  1
14.5
 11
0.0000000000000001
 21
1.0
 31
0.0
 73
     1
 44
1.0
  0
POINT
  5
F4B0
330
EB6F
100
AcDbEntity
  8
Defpoints
 62
     0
100
AcDbPoint
 10
151.6499996540123
 20
33.49999999999998
 30
0.0
  0
POINT
  5
F4B1
330
EB6F
100
AcDbEntity
  8
Defpoints
 62
     0
100
AcDbPoint
 10
130.4999990463256
 20
47.99999999999998
 30
0.0
  0
POINT
  5
F4B2
330
EB6F
100
AcDbEntity
  8
Defpoints
 62
     0
100
AcDbPoint
 10
162.5499992370605
 20
47.99999999999997
 30
0.0
  0
ENDBLK
  5
EB7A
330
EB6F
100
AcDbEntity
  8
0
100
AcDbBlockEnd
  0
BLOCK
  5
EBA1
330
EB95
100
AcDbEntity
  8
0
100
AcDbBlockBegin
  2
*D11
 70
     1
 10
0.0
 20
0.0
 30
0.0
  3
*D11
  1

  0
LINE
  5
F246
330
EB95
100
AcDbEntity
  8
AM_5
100
AcDbLine
 10
154.0499992370605
 20
123.4999999999999
 30
0.0
 11
163.5499992370605
 21
123.4999999999999
 31
0.0
  0
LINE
  5
F247
330
EB95
100
AcDbEntity
  8
AM_5
100
AcDbLine
 10
153.0499992370605
 20
125.9999999999999
 30
0.0
 11
163.5499992370605
 21
125.9999999999999
 31
0.0
  0
LINE
  5
F248
330
EB95
100
AcDbEntity
  8
AM_5
100
AcDbLine
 10
162.5499992370605
 20
122.4999999999999
 30
0.0
 11
162.5499992370605
 21
121.4999999999999
 31
0.0
  0
LINE
  5
F249
330
EB95
100
AcDbEntity
  8
AM_5
100
AcDbLine
 10
162.5499992370605
 20
126.9999999999999
 30
0.0
 11
162.5499992370605
 21
135.6933333333332
 31
0.0
  0
LINE
  5
F24A
330
EB95
100
AcDbEntity
  8
AM_5
100
AcDbLine
 10
162.5499992370605
 20
123.4999999999999
 30
0.0
 11
162.5499992370605
 21
125.9999999999999
 31
0.0
  0
INSERT
  5
F24B
330
EB95
100
AcDbEntity
  8
AM_5
100
AcDbBlockReference
  2
_Dot
 10
162.5499992370605
 20
123.4999999999999
 30
0.0
 41
1.0
 42
1.0
 43
1.0
 50
90.0
  0
INSERT
  5
F24C
330
EB95
100
AcDbEntity
  8
AM_5
100
AcDbBlockReference
  2
_Dot
 10
162.5499992370605
 20
125.9999999999999
 30
0.0
 41
1.0
 42
1.0
 43
1.0
 50
270.0
  0
MTEXT
  5
F24D
330
EB95
100
AcDbEntity
  8
AM_5
 62
     2
100
AcDbMText
 10
159.4499992370604
 20
131.8466666666666
 30
0.0
 40
3.2
 41
0.0
 71
     5
 72
     1
  1
2.5
 11
0.0000000000000001
 21
1.0
 31
0.0
 73
     1
 44
1.0
  0
POINT
  5
F24E
330
EB95
100
AcDbEntity
  8
Defpoints
 62
     0
100
AcDbPoint
 10
152.5499992370605
 20
123.4999999999999
 30
0.0
  0
POINT
  5
F24F
330
EB95
100
AcDbEntity
  8
Defpoints
 62
     0
100
AcDbPoint
 10
151.5499992370605
 20
125.9999999999999
 30
0.0
  0
POINT
  5
F250
330
EB95
100
AcDbEntity
  8
Defpoints
 62
     0
100
AcDbPoint
 10
162.5499992370605
 20
125.9999999999999
 30
0.0
  0
ENDBLK
  5
EBA2
330
EB95
100
AcDbEntity
  8
0
100
AcDbBlockEnd
  0
BLOCK
  5
EBAD
330
EBA3
100
AcDbEntity
  8
0
100
AcDbBlockBegin
  2
*D12
 70
     1
 10
0.0
 20
0.0
 30
0.0
  3
*D12
  1

  0
LINE
  5
F251
330
EBA3
100
AcDbEntity
  8
AM_5
100
AcDbLine
 10
147.7499999999999
 20
85.99999999999997
 30
0.0
 11
171.5499992370605
 21
85.99999999999996
 31
0.0
  0
LINE
  5
F252
330
EBA3
100
AcDbEntity
  8
AM_5
100
AcDbLine
 10
153.0499992370605
 20
125.9999999999999
 30
0.0
 11
171.5499992370605
 21
125.9999999999999
 31
0.0
  0
LINE
  5
F253
330
EBA3
100
AcDbEntity
  8
AM_5
100
AcDbLine
 10
170.5499992370605
 20
86.99999999999995
 30
0.0
 11
170.5499992370605
 21
124.9999999999999
 31
0.0
  0
INSERT
  5
F254
330
EBA3
100
AcDbEntity
  8
AM_5
100
AcDbBlockReference
  2
_Dot
 10
170.5499992370605
 20
85.99999999999996
 30
0.0
 41
1.0
 42
1.0
 43
1.0
 50
270.0
  0
INSERT
  5
F255
330
EBA3
100
AcDbEntity
  8
AM_5
100
AcDbBlockReference
  2
_Dot
 10
170.5499992370605
 20
125.9999999999999
 30
0.0
 41
1.0
 42
1.0
 43
1.0
 50
90.0
  0
MTEXT
  5
F256
330
EBA3
100
AcDbEntity
  8
AM_5
 62
     2
100
AcDbMText
 10
167.4499992370605
 20
106.0
 30
0.0
 40
3.2
 41
0.0
 71
     5
 72
     1
  1
40
 11
0.0000000000000001
 21
1.0
 31
0.0
 73
     1
 44
1.0
  0
POINT
  5
F257
330
EBA3
100
AcDbEntity
  8
Defpoints
 62
     0
100
AcDbPoint
 10
146.2499999999999
 20
85.99999999999997
 30
0.0
  0
POINT
  5
F258
330
EBA3
100
AcDbEntity
  8
Defpoints
 62
     0
100
AcDbPoint
 10
151.5499992370605
 20
125.9999999999999
 30
0.0
  0
POINT
  5
F259
330
EBA3
100
AcDbEntity
  8
Defpoints
 62
     0
100
AcDbPoint
 10
170.5499992370605
 20
125.9999999999999
 30
0.0
  0
ENDBLK
  5
EBAE
330
EBA3
100
AcDbEntity
  8
0
100
AcDbBlockEnd
  0
BLOCK
  5
EBB6
330
EBAF
100
AcDbEntity
  8
0
100
AcDbBlockBegin
  2
*D13
 70
     1
 10
0.0
 20
0.0
 30
0.0
  3
*D13
  1

  0
LINE
  5
F3CA
330
EBAF
100
AcDbEntity
  8
AM_5
100
AcDbLine
 10
153.6266666666669
 20
75.99999999999976
 30
0.0
 11
140.4999999999999
 21
75.99999999999976
 31
0.0
  0
LINE
  5
F3CB
330
EBAF
100
AcDbEntity
  8
AM_5
100
AcDbLine
 10
140.4999999999999
 20
75.99999999999976
 30
0.0
 11
131.5479294738733
 21
93.00893399964047
 31
0.0
  0
MTEXT
  5
F3CC
330
EBAF
100
AcDbEntity
  8
AM_5
 62
     2
100
AcDbMText
 10
147.8133333333335
 20
79.09999999999977
 30
0.0
 40
3.200000000000001
 41
0.0
 71
     5
 72
     1
  1
2-\U+22054.5
 73
     1
 44
1.0
  0
LINE
  5
F3CD
330
EBAF
100
AcDbEntity
  8
AM_5
100
AcDbLine
 10
129.4520705261266
 20
96.99106600035932
 30
0.0
 11
131.5479294738733
 21
93.00893399964047
 31
0.0
  0
INSERT
  5
F3CE
330
EBAF
100
AcDbEntity
  8
AM_5
100
AcDbBlockReference
  2
_DotSmall
 10
129.4520705261266
 20
96.99106600035932
 30
0.0
 41
4.0
 42
4.0
 43
4.0
 50
297.7585406010597
  0
INSERT
  5
F3CF
330
EBAF
100
AcDbEntity
  8
AM_5
100
AcDbBlockReference
  2
_DotSmall
 10
131.5479294738733
 20
93.00893399964047
 30
0.0
 41
4.0
 42
4.0
 43
4.0
 50
117.7585406010597
  0
POINT
  5
F3D0
330
EBAF
100
AcDbEntity
  8
Defpoints
 62
     0
100
AcDbPoint
 10
131.5479294738733
 20
93.00893399964047
 30
0.0
  0
POINT
  5
F3D1
330
EBAF
100
AcDbEntity
  8
Defpoints
 62
     0
100
AcDbPoint
 10
129.4520705261266
 20
96.99106600035932
 30
0.0
  0
ENDBLK
  5
EBB7
330
EBAF
100
AcDbEntity
  8
0
100
AcDbBlockEnd
  0
BLOCK
  5
F3A0
330
F39E
100
AcDbEntity
  8
0
100
AcDbBlockBegin
  2
_DotSmall
 70
     0
 10
0.0
 20
0.0
 30
0.0
  3
_DotSmall
  1

  0
LWPOLYLINE
  5
F39F
330
F39E
100
AcDbEntity
  8
0
  6
ByBlock
 62
     0
100
AcDbPolyline
 90
        2
 70
     1
 43
0.5
 10
-0.0625
 20
0.0
 42
1.0
 10
0.0625
 20
0.0
 42
1.0
  0
ENDBLK
  5
F3A1
330
F39E
100
AcDbEntity
  8
0
100
AcDbBlockEnd
  0
BLOCK
  5
F437
330
F42D
100
AcDbEntity
  8
0
100
AcDbBlockBegin
  2
*D15
 70
     1
 10
0.0
 20
0.0
 30
0.0
  3
*D15
  1

  0
LINE
  5
F43B
330
F42D
100
AcDbEntity
  8
AM_5
100
AcDbLine
 10
154.0499992370605
 20
123.4999999999999
 30
0.0
 11
163.5499992370605
 21
123.4999999999999
 31
0.0
  0
LINE
  5
F43C
330
F42D
100
AcDbEntity
  8
AM_5
100
AcDbLine
 10
137.2499999999999
 20
113.4999999999999
 30
0.0
 11
163.5499992370605
 21
113.4999999999999
 31
0.0
  0
LINE
  5
F43D
330
F42D
100
AcDbEntity
  8
AM_5
100
AcDbLine
 10
162.5499992370605
 20
122.4999999999999
 30
0.0
 11
162.5499992370605
 21
114.4999999999999
 31
0.0
  0
INSERT
  5
F43E
330
F42D
100
AcDbEntity
  8
AM_5
100
AcDbBlockReference
  2
_Dot
 10
162.5499992370605
 20
123.4999999999999
 30
0.0
 41
1.0
 42
1.0
 43
1.0
 50
90.0
  0
INSERT
  5
F43F
330
F42D
100
AcDbEntity
  8
AM_5
100
AcDbBlockReference
  2
_Dot
 10
162.5499992370605
 20
113.4999999999999
 30
0.0
 41
1.0
 42
1.0
 43
1.0
 50
270.0
  0
MTEXT
  5
F440
330
F42D
100
AcDbEntity
  8
AM_5
 62
     2
100
AcDbMText
 10
159.4499992370605
 20
118.5
 30
0.0
 40
3.2
 41
0.0
 71
     5
 72
     1
  1
10
 11
0.0000000000000001
 21
1.0
 31
0.0
 73
     1
 44
1.0
  0
POINT
  5
F441
330
F42D
100
AcDbEntity
  8
Defpoints
 62
     0
100
AcDbPoint
 10
152.5499992370605
 20
123.4999999999999
 30
0.0
  0
POINT
  5
F442
330
F42D
100
AcDbEntity
  8
Defpoints
 62
     0
100
AcDbPoint
 10
135.7499999999999
 20
113.4999999999999
 30
0.0
  0
POINT
  5
F443
330
F42D
100
AcDbEntity
  8
Defpoints
 62
     0
100
AcDbPoint
 10
162.5499992370605
 20
113.4999999999999
 30
0.0
  0
ENDBLK
  5
F438
330
F42D
100
AcDbEntity
  8
0
100
AcDbBlockEnd
  0
BLOCK
  5
F44F
330
F445
100
AcDbEntity
  8
0
100
AcDbBlockBegin
  2
*D16
 70
     1
 10
0.0
 20
0.0
 30
0.0
  3
*D16
  1

  0
LINE
  5
F453
330
F445
100
AcDbEntity
  8
AM_5
100
AcDbLine
 10
137.2499999999999
 20
113.4999999999999
 30
0.0
 11
163.5499992370606
 21
113.4999999999999
 31
0.0
  0
LINE
  5
F454
330
F445
100
AcDbEntity
  8
AM_5
100
AcDbLine
 10
137.2499999999999
 20
94.99999999999994
 30
0.0
 11
163.5499992370606
 21
94.99999999999992
 31
0.0
  0
LINE
  5
F455
330
F445
100
AcDbEntity
  8
AM_5
100
AcDbLine
 10
162.5499992370606
 20
112.4999999999999
 30
0.0
 11
162.5499992370606
 21
95.99999999999992
 31
0.0
  0
INSERT
  5
F456
330
F445
100
AcDbEntity
  8
AM_5
100
AcDbBlockReference
  2
_Dot
 10
162.5499992370606
 20
113.4999999999999
 30
0.0
 41
1.0
 42
1.0
 43
1.0
 50
90.0
  0
INSERT
  5
F457
330
F445
100
AcDbEntity
  8
AM_5
100
AcDbBlockReference
  2
_Dot
 10
162.5499992370606
 20
94.99999999999992
 30
0.0
 41
1.0
 42
1.0
 43
1.0
 50
270.0
  0
MTEXT
  5
F458
330
F445
100
AcDbEntity
  8
AM_5
 62
     2
100
AcDbMText
 10
159.4499992370606
 20
104.2499999999999
 30
0.0
 40
3.2
 41
0.0
 71
     5
 72
     1
  1
18.5
 11
0.0000000000000001
 21
1.0
 31
0.0
 73
     1
 44
1.0
  0
POINT
  5
F459
330
F445
100
AcDbEntity
  8
Defpoints
 62
     0
100
AcDbPoint
 10
135.7499999999999
 20
113.4999999999999
 30
0.0
  0
POINT
  5
F45A
330
F445
100
AcDbEntity
  8
Defpoints
 62
     0
100
AcDbPoint
 10
135.7499999999999
 20
94.99999999999994
 30
0.0
  0
POINT
  5
F45B
330
F445
100
AcDbEntity
  8
Defpoints
 62
     0
100
AcDbPoint
 10
162.5499992370606
 20
94.99999999999992
 30
0.0
  0
ENDBLK
  5
F450
330
F445
100
AcDbEntity
  8
0
100
AcDbBlockEnd
  0
ENDSEC
  0
SECTION
  2
ENTITIES
  0
LWPOLYLINE
  5
EA91
330
1F
100
AcDbEntity
  8
AM_0
100
AcDbPolyline
 90
        4
 70
     1
 43
0.0
 10
11.5
 20
201.5
 10
285.5
 20
201.5
 10
285.5
 20
8.499999999999943
 10
11.5
 20
8.5
1001
GENIUS_GENREC_14
1002
{
1000
PYDIR
1011
11.5
1021
8.499999999999943
1031
0.0
1002
}
1002
{
1000
PXDIR
1011
285.5
1021
201.5
1031
0.0
1002
}
1002
{
1000
PORI
1011
11.5
1021
201.5
1031
0.0
1002
}
1002
{
1000
PINS
1011
11.5
1021
201.5
1031
0.0
1002
}
1002
{
1000
PINS2
1011
285.5
1021
8.499999999999943
1031
0.0
1002
}
1002
{
1000
C
1070
     1
1002
}
1001
GENIUS_GENOBJ-N-REC_13
1002
{
1000
OWNER
1000
GEN
1002
}
1001
GENIUS_GENODEF_13
1002
{
1000
HIER
1070
     0
1002
}
1002
{
1000
MANEDIT
1070
     0
1002
}
1002
{
1000
NOSEL
1070
     0
1002
}
1002
{
1000
BEHIND
1070
     0
1002
}
1002
{
1000
OTHER
1070
     0
1002
}
1002
{
1000
REACTOR
1002
}
  0
LWPOLYLINE
  5
EA92
330
1F
100
AcDbEntity
  8
size
100
AcDbPolyline
 90
        4
 70
     1
 43
0.0
 10
0.0
 20
210.0
 10
297.0
 20
210.0
 10
297.0
 20
-0.0000000000000568
 10
0.0
 20
0.0
1001
GENIUS_GENREC_14
1002
{
1000
PYDIR
1011
0.0
1021
-0.0000000000000568
1031
0.0
1002
}
1002
{
1000
PXDIR
1011
297.0
1021
210.0
1031
0.0
1002
}
1002
{
1000
PORI
1011
0.0
1021
210.0
1031
0.0
1002
}
1002
{
1000
PINS
1011
0.0
1021
210.0
1031
0.0
1002
}
1002
{
1000
PINS2
1011
297.0
1021
-0.0000000000000568
1031
0.0
1002
}
1002
{
1000
C
1070
     1
1002
}
1001
GENIUS_GENOBJ-N-REC_13
1002
{
1000
OWNER
1000
GEN
1002
}
1001
GENIUS_GENODEF_13
1002
{
1000
HIER
1070
     0
1002
}
1002
{
1000
MANEDIT
1070
     0
1002
}
1002
{
1000
NOSEL
1070
     0
1002
}
1002
{
1000
BEHIND
1070
     0
1002
}
1002
{
1000
OTHER
1070
     0
1002
}
1002
{
1000
REACTOR
1002
}
  0
LINE
  5
EA93
330
1F
100
AcDbEntity
  8
AM_5
100
AcDbLine
 10
31.5
 20
201.5
 30
0.0
 11
31.5
 21
145.4999999999999
 31
0.0
  0
LINE
  5
EA94
330
1F
100
AcDbEntity
  8
AM_5
100
AcDbLine
 10
11.5
 20
193.4999999999999
 30
0.0
 11
121.5
 21
193.4999999999999
 31
0.0
  0
LINE
  5
EA95
330
1F
100
AcDbEntity
  8
AM_5
100
AcDbLine
 10
11.5
 20
185.4999999999999
 30
0.0
 11
121.5
 21
185.4999999999999
 31
0.0
  0
LINE
  5
EA96
330
1F
100
AcDbEntity
  8
AM_5
100
AcDbLine
 10
11.5
 20
177.4999999999999
 30
0.0
 11
121.5
 21
177.4999999999999
 31
0.0
  0
LINE
  5
EA97
330
1F
100
AcDbEntity
  8
AM_0
  6
中線
370
    30
100
AcDbLine
 10
11.5
 20
201.5
 30
0.0
 11
11.5
 21
145.4999999999999
 31
0.0
  0
LINE
  5
EA98
330
1F
100
AcDbEntity
  8
AM_0
  6
中線
370
    30
100
AcDbLine
 10
11.5
 20
201.5
 30
0.0
 11
121.5
 21
201.5
 31
0.0
  0
LINE
  5
EA99
330
1F
100
AcDbEntity
  8
AM_0
  6
中線
370
    30
100
AcDbLine
 10
121.5
 20
201.5
 30
0.0
 11
121.5
 21
145.4999999999999
 31
0.0
  0
MTEXT
  5
EA9A
330
1F
100
AcDbEntity
  8
AM_6
100
AcDbMText
 10
31.5
 20
197.4999999999999
 30
0.0
 40
3.2
 41
90.0
 71
     4
 72
     5
  1
　エッジキャップ
 73
     1
 44
1.0
  0
MTEXT
  5
EA9B
330
1F
100
AcDbEntity
  8
AM_6
100
AcDbMText
 10
31.5
 20
189.4999999999999
 30
0.0
 40
3.2
 41
90.0
 71
     4
 72
     5
  1
　LRB-80
 73
     1
 44
1.0
  0
MTEXT
  5
EA9C
330
1F
100
AcDbEntity
  8
AM_6
100
AcDbMText
 10
31.5
 20
181.4999999999999
 30
0.0
 40
3.2
 41
90.0
 71
     4
 72
     5
  1
　ナイロン
 73
     1
 44
1.0
  0
MTEXT
  5
EA9D
330
1F
100
AcDbEntity
  8
AM_6
100
AcDbMText
 10
31.5
 20
173.4999999999999
 30
0.0
 40
3.2
 41
90.0
 71
     4
 72
     5
  1
　生地（グレー色）
 73
     1
 44
1.0
  0
LINE
  5
EA9E
330
1F
100
AcDbEntity
  8
AM_5
100
AcDbLine
 10
11.5
 20
169.4999999999999
 30
0.0
 11
121.5
 21
169.4999999999999
 31
0.0
  0
LINE
  5
EA9F
330
1F
100
AcDbEntity
  8
AM_5
100
AcDbLine
 10
31.5
 20
161.4999999999999
 30
0.0
 11
121.5
 21
161.4999999999999
 31
0.0
  0
LINE
  5
EAA0
330
1F
100
AcDbEntity
  8
AM_5
100
AcDbLine
 10
31.5
 20
153.4999999999999
 30
0.0
 11
121.5
 21
153.4999999999999
 31
0.0
  0
MTEXT
  5
EAA1
330
1F
100
AcDbEntity
  8
AM_6
100
AcDbMText
 10
21.5
 20
197.4999999999999
 30
0.0
 40
3.2
 41
20.0
 71
     5
 72
     5
  1
品　名
 73
     1
 44
1.0
  0
MTEXT
  5
EAA2
330
1F
100
AcDbEntity
  8
AM_6
100
AcDbMText
 10
21.5
 20
189.4999999999999
 30
0.0
 40
3.2
 41
20.0
 71
     5
 72
     5
  1
品　番
 73
     1
 44
1.0
  0
MTEXT
  5
EAA3
330
1F
100
AcDbEntity
  8
AM_6
100
AcDbMText
 10
21.5
 20
181.4999999999999
 30
0.0
 40
3.2
 41
20.0
 71
     5
 72
     5
  1
材　質
 73
     1
 44
1.0
  0
MTEXT
  5
EAA4
330
1F
100
AcDbEntity
  8
AM_6
100
AcDbMText
 10
21.5
 20
173.4999999999999
 30
0.0
 40
3.2
 41
20.0
 71
     5
 72
     5
  1
仕上げ
 73
     1
 44
1.0
  0
LINE
  5
EAA5
330
1F
100
AcDbEntity
  8
AM_0
  6
中線
370
    30
100
AcDbLine
 10
11.5
 20
145.4999999999999
 30
0.0
 11
121.5
 21
145.4999999999999
 31
0.0
  0
MTEXT
  5
EAA6
330
1F
100
AcDbEntity
  8
AM_6
100
AcDbMText
 10
21.5
 20
165.4999999999999
 30
0.0
 40
3.2
 41
20.0
 71
     5
 72
     5
  1
備　考
 73
     1
 44
1.0
  0
LINE
  5
EAA7
330
1F
100
AcDbEntity
  8
AM_0
  6
中線
 48
0.3465448379516488
100
AcDbLine
 10
152.5499992370605
 20
37.86544835567461
 30
0.0
 11
152.5499992370605
 21
34.39999997615812
 31
0.0
  0
LINE
  5
EAA8
330
1F
100
AcDbEntity
  8
AM_0
  6
中線
 48
0.3465450286865007
100
AcDbLine
 10
108.4500007629394
 20
37.86718913075848
 30
0.0
 11
108.4500007629394
 21
34.39999997615812
 31
0.0
  0
ARC
  5
EAA9
330
1F
100
AcDbEntity
  8
AM_0
  6
中線
 48
0.3
100
AcDbCircle
 10
151.64999961853
 20
34.39999997615812
 30
0.0
 40
0.8999999761581499
100
AcDbArc
 50
270.000000683243
 51
0.0000100179073766
  0
ARC
  5
EAAA
330
1F
100
AcDbEntity
  8
AM_0
  6
中線
 48
0.3
100
AcDbCircle
 10
109.3499984741215
 20
34.39999997615812
 30
0.0
 40
0.8999999761581499
100
AcDbArc
 50
179.9999913485786
 51
270.000000683243
  0
ARC
  5
EAAB
330
1F
100
AcDbEntity
  8
AM_0
  6
中線
100
AcDbCircle
 10
130.499998537742
 20
15.99999999999998
 30
0.0
 40
32.0
100
AcDbArc
 50
48.9363861199842
 51
131.0636120587853
  0
ARC
  5
EAAC
330
1F
100
AcDbEntity
  8
AM_0
  6
中線
 48
0.6000000000000001
100
AcDbCircle
 10
111.4500002543557
 20
37.86544227600096
 30
0.0
 40
3.0
100
AcDbArc
 50
131.0636120587853
 51
180.0000050089569
  0
ARC
  5
EAAD
330
1F
100
AcDbEntity
  8
AM_0
  6
中線
 48
0.6000000000000001
100
AcDbCircle
 10
149.5499987284769
 20
37.86544036865244
 30
0.0
 40
3.0
100
AcDbArc
 50
0.0
 51
48.9363861199842
  0
LINE
  5
EAAE
330
1F
100
AcDbEntity
  8
AM_0
  6
中線
100
AcDbLine
 10
114.9999990463256
 20
38.49999999999998
 30
0.0
 11
145.9999990463256
 21
38.49999999999998
 31
0.0
  0
LINE
  5
EAAF
330
1F
100
AcDbEntity
  8
AM_0
  6
中線
100
AcDbLine
 10
116.7499990463256
 20
39.99999999999998
 30
0.0
 11
144.2499990463256
 21
39.99999999999998
 31
0.0
  0
LINE
  5
EAB0
330
1F
100
AcDbEntity
  8
AM_0
  6
中線
 48
0.2800003051757983
100
AcDbLine
 10
116.7499990463256
 20
42.80000305175795
 30
0.0
 11
116.7499990463256
 21
39.99999999999998
 31
0.0
  0
LINE
  5
EAB1
330
1F
100
AcDbEntity
  8
AM_0
  6
中線
 48
0.15
100
AcDbLine
 10
114.9999990463256
 20
39.03045654296845
 30
0.0
 11
114.9999990463256
 21
38.49999999999998
 31
0.0
  0
LINE
  5
EAB2
330
1F
100
AcDbEntity
  8
AM_0
  6
中線
 48
0.15
100
AcDbLine
 10
114.7499990463256
 20
41.80000305175796
 30
0.0
 11
114.7499990463256
 21
41.41510009765594
 31
0.0
  0
LINE
  5
EAB3
330
1F
100
AcDbEntity
  8
AM_0
  6
中線
 48
0.2800003051757983
100
AcDbLine
 10
144.2499990463256
 20
42.80000305175795
 30
0.0
 11
144.2499990463256
 21
39.99999999999998
 31
0.0
  0
LINE
  5
EAB4
330
1F
100
AcDbEntity
  8
AM_0
  6
中線
 48
0.15
100
AcDbLine
 10
145.9999990463256
 20
39.03047180175796
 30
0.0
 11
145.9999990463256
 21
38.49999999999998
 31
0.0
  0
LINE
  5
EAB5
330
1F
100
AcDbEntity
  8
AM_0
  6
中線
 48
0.15
100
AcDbLine
 10
146.2499990463256
 20
41.80000305175796
 30
0.0
 11
146.2499990463256
 21
41.41510009765594
 31
0.0
  0
LINE
  5
EAB6
330
1F
100
AcDbEntity
  8
AM_0
  6
中線
 48
0.15
100
AcDbLine
 10
115.3499975204472
 20
42.80000305175795
 30
0.0
 11
116.7499990463256
 21
42.80000305175795
 31
0.0
  0
LINE
  5
EAB7
330
1F
100
AcDbEntity
  8
AM_0
  6
中線
 48
0.15
100
AcDbLine
 10
115.3499822616581
 20
42.79999732971194
 30
0.0
 11
114.7499885559081
 21
41.80000114440899
 31
0.0
  0
LINE
  5
EAB8
330
1F
100
AcDbEntity
  8
AM_0
  6
中線
 48
0.15
100
AcDbLine
 10
145.6500005722041
 20
42.80000305175795
 30
0.0
 11
144.2499990463256
 21
42.80000305175795
 31
0.0
  0
LINE
  5
EAB9
330
1F
100
AcDbEntity
  8
AM_0
  6
中線
 48
0.15
100
AcDbLine
 10
146.250010490417
 20
41.80000686645494
 30
0.0
 11
145.6500120162961
 21
42.79999923706046
 31
0.0
  0
LINE
  5
EABA
330
1F
100
AcDbEntity
  8
AM_0
100
AcDbLine
 10
109.3499984741215
 20
33.49999999999998
 30
0.0
 11
151.6499996540123
 21
33.49999999999998
 31
0.0
  0
LINE
  5
EABB
330
1F
100
AcDbEntity
  8
AM_0
100
AcDbLine
 10
190.5499992370605
 20
124.9999999999999
 30
0.0
 11
190.5499992370605
 21
123.4999999999999
 31
0.0
  0
LINE
  5
EABC
330
1F
100
AcDbEntity
  8
AM_0
100
AcDbLine
 10
205.0500072240827
 20
124.9999999999999
 30
0.0
 11
205.0500072240827
 21
123.4999999999999
 31
0.0
  0
LINE
  5
EABD
330
1F
100
AcDbEntity
  8
AM_0
100
AcDbLine
 10
200.0500072240827
 20
123.5
 30
0.0
 11
200.0500072240827
 21
85.99999999999996
 31
0.0
  0
LINE
  5
EABF
330
1F
100
AcDbEntity
  8
AM_0
100
AcDbLine
 10
195.8000072240826
 20
123.5
 30
0.0
 11
195.8000072240826
 21
85.99999999999996
 31
0.0
  0
LINE
  5
EAC0
330
1F
100
AcDbEntity
  8
AM_0
100
AcDbLine
 10
191.5499992370605
 20
125.9999999999999
 30
0.0
 11
204.0500072240827
 21
125.9999999999999
 31
0.0
  0
ARC
  5
EAC1
330
1F
100
AcDbEntity
  8
AM_0
100
AcDbCircle
 10
204.0500072240827
 20
124.9999999999999
 30
0.0
 40
1.0
100
AcDbArc
 50
0.0
 51
90.0
1001
GENIUS_GENOBJ-N-FIL_13
1002
{
1000
OWNER
1000
GEN
1002
}
1001
GENIUS_GENODEF_13
1002
{
1000
HIER
1070
     0
1002
}
1002
{
1000
MANEDIT
1070
     0
1002
}
1002
{
1000
NOSEL
1070
     0
1002
}
1002
{
1000
BEHIND
1070
     0
1002
}
1002
{
1000
OTHER
1070
     0
1002
}
1002
{
1000
REACTOR
1002
}
  0
ARC
  5
EAC2
330
1F
100
AcDbEntity
  8
AM_0
100
AcDbCircle
 10
191.5499992370605
 20
124.9999999999999
 30
0.0
 40
1.0
100
AcDbArc
 50
90.0
 51
180.0
1001
GENIUS_GENOBJ-N-FIL_13
1002
{
1000
OWNER
1000
GEN
1002
}
1001
GENIUS_GENODEF_13
1002
{
1000
HIER
1070
     0
1002
}
1002
{
1000
MANEDIT
1070
     0
1002
}
1002
{
1000
NOSEL
1070
     0
1002
}
1002
{
1000
BEHIND
1070
     0
1002
}
1002
{
1000
OTHER
1070
     0
1002
}
1002
{
1000
REACTOR
1002
}
  0
LINE
  5
EAC3
330
1F
100
AcDbEntity
  8
AM_0
100
AcDbLine
 10
190.5499992370605
 20
123.4999999999999
 30
0.0
 11
205.0500072240827
 21
123.4999999999999
 31
0.0
  0
LINE
  5
EAC5
330
1F
100
AcDbEntity
  8
AM_0
100
AcDbLine
 10
195.8000072240826
 20
85.99999999999996
 30
0.0
 11
200.0500072240827
 21
85.99999999999996
 31
0.0
  0
LINE
  5
EAC6
330
1F
100
AcDbEntity
  8
AM_0
100
AcDbLine
 10
108.4500007629394
 20
125.0
 30
0.0
 11
108.4500007629394
 21
123.4999999999999
 31
0.0
  0
LINE
  5
EAC7
330
1F
100
AcDbEntity
  8
AM_0
100
AcDbLine
 10
152.5499992370605
 20
124.9999999999999
 30
0.0
 11
152.5499992370605
 21
123.4999999999999
 31
0.0
  0
ARC
  5
EAC8
102
{ACAD_REACTORS
330
EAFC
330
EAFF
102
}
330
1F
100
AcDbEntity
  8
AM_0
100
AcDbCircle
 10
151.5499992370605
 20
124.9999999999999
 30
0.0
 40
1.0
100
AcDbArc
 50
0.0
 51
90.0
1001
GENIUS_GENOBJ-N-FIL_13
1002
{
1000
OWNER
1000
GEN
1002
}
1001
GENIUS_GENODEF_13
1002
{
1000
HIER
1070
     0
1002
}
1002
{
1000
MANEDIT
1070
     0
1002
}
1002
{
1000
NOSEL
1070
     0
1002
}
1002
{
1000
BEHIND
1070
     0
1002
}
1002
{
1000
OTHER
1070
     0
1002
}
1002
{
1000
REACTOR
1002
}
  0
LINE
  5
EAC9
330
1F
100
AcDbEntity
  8
AM_0
100
AcDbLine
 10
109.4500007629394
 20
126.0
 30
0.0
 11
151.5499992370605
 21
125.9999999999999
 31
0.0
  0
ARC
  5
EACA
330
1F
100
AcDbEntity
  8
AM_0
100
AcDbCircle
 10
109.4500007629394
 20
125.0
 30
0.0
 40
1.0
100
AcDbArc
 50
90.0
 51
180.0
1001
GENIUS_GENOBJ-N-FIL_13
1002
{
1000
OWNER
1000
GEN
1002
}
1001
GENIUS_GENODEF_13
1002
{
1000
HIER
1070
     0
1002
}
1002
{
1000
MANEDIT
1070
     0
1002
}
1002
{
1000
NOSEL
1070
     0
1002
}
1002
{
1000
BEHIND
1070
     0
1002
}
1002
{
1000
OTHER
1070
     0
1002
}
1002
{
1000
REACTOR
1002
}
  0
LINE
  5
EACB
102
{ACAD_REACTORS
330
EAFC
330
F43A
102
}
330
1F
100
AcDbEntity
  8
AM_0
100
AcDbLine
 10
108.4500007629394
 20
123.4999999999999
 30
0.0
 11
152.5499992370605
 21
123.4999999999999
 31
0.0
  0
LINE
  5
EACC
102
{ACAD_REACTORS
330
EAFF
102
}
330
1F
100
AcDbEntity
  8
AM_0
100
AcDbLine
 10
146.2499999999999
 20
85.99999999999997
 30
0.0
 11
114.7499999999999
 21
85.99999999999997
 31
0.0
  0
LINE
  5
EACD
330
1F
100
AcDbEntity
  8
AM_0
100
AcDbLine
 10
146.2499999999999
 20
85.99999999999997
 30
0.0
 11
146.2499999999999
 21
123.4999999999999
 31
0.0
  0
LINE
  5
EACE
330
1F
100
AcDbEntity
  8
AM_0
100
AcDbLine
 10
114.7499999999999
 20
85.99999999999997
 30
0.0
 11
114.7499999999999
 21
123.4999999999999
 31
0.0
  0
LINE
  5
EACF
330
1F
100
AcDbEntity
  8
AM_0
100
AcDbLine
 10
116.7499990463256
 20
123.4999999999999
 30
0.0
 11
116.7499990463256
 21
85.99999999999997
 31
0.0
  0
LINE
  5
EAD0
330
1F
100
AcDbEntity
  8
AM_0
100
AcDbLine
 10
144.2499990463256
 20
123.4999999999999
 30
0.0
 11
144.2499990463256
 21
85.99999999999997
 31
0.0
  0
DIMENSION
  5
EAD1
330
1F
100
AcDbEntity
  8
AM_5
100
AcDbDimension
  2
*D6
 10
152.5499987284768
 20
55.99999999999997
 30
0.0
 11
130.4999994914163
 21
59.09999999999998
 31
0.0
 70
    32
 71
     5
 42
44.09999847412111
  3
SYS$0
100
AcDbAlignedDimension
 13
108.4500002543558
 23
37.86544201373259
 33
0.0
 14
152.5499987284768
 24
37.86544036865244
 34
0.0
100
AcDbRotatedDimension
1001
ACAD_DSTYLE_DIMINSPECT
1070
   396
1000
100%
1070
   395
1000

1070
   394
1070
    33
1070
   393
1070
     0
  0
CIRCLE
  5
EAD2
330
1F
100
AcDbEntity
  8
AM_0
100
AcDbCircle
 10
130.4999999999999
 20
113.4999999999999
 30
0.0
 40
2.25
  0
CIRCLE
  5
EAD3
102
{ACAD_REACTORS
330
EB02
102
}
330
1F
100
AcDbEntity
  8
AM_0
100
AcDbCircle
 10
130.4999999999999
 20
94.99999999999994
 30
0.0
 40
2.25
  0
LINE
  5
EAD4
330
1F
100
AcDbEntity
  8
AM_2
100
AcDbLine
 10
198.29455433124
 20
123.4999999999999
 30
0.0
 11
198.29455433124
 21
85.99999999999996
 31
0.0
  0
LINE
  5
EADD
330
1F
100
AcDbEntity
  8
AM_7
 48
0.5
370
     9
100
AcDbLine
 10
130.4999999999999
 20
129.0
 30
0.0
 11
130.4999999999999
 21
82.99999999999997
 31
0.0
1001
GENIUS_GENOBJ-N-CEN_13
1002
{
1000
OWNER
1000
GEN
1002
}
1001
GENIUS_GENODEF_13
1002
{
1000
HIER
1070
     0
1002
}
1002
{
1000
MANEDIT
1070
     0
1002
}
1002
{
1000
NOSEL
1070
     0
1002
}
1002
{
1000
BEHIND
1070
     0
1002
}
1002
{
1000
OTHER
1070
     0
1002
}
1002
{
1000
REACTOR
1002
}
1001
GENIUS_GENCEN_19
1002
{
1040
3.0
1002
}
  0
LINE
  5
EAEF
102
{ACAD_REACTORS
330
F43A
330
F452
102
}
330
1F
100
AcDbEntity
  8
AM_7
 48
0.5
370
     9
100
AcDbLine
 10
125.2499999999999
 20
113.4999999999999
 30
0.0
 11
135.7499999999999
 21
113.4999999999999
 31
0.0
1001
GENIUS_GENODEF_13
1002
{
1000
HIER
1070
     0
1002
}
1002
{
1000
MANEDIT
1070
     0
1002
}
1002
{
1000
NOSEL
1070
     0
1002
}
1002
{
1000
BEHIND
1070
     0
1002
}
1002
{
1000
OTHER
1070
     0
1002
}
1002
{
1000
REACTOR
1002
}
1001
GENIUS_GENOBJ-N-CEN_13
1002
{
1000
OWNER
1000
GEN
1002
}
1001
GENIUS_GENCEN_19
1002
{
1040
3.0
1002
}
  0
LINE
  5
EAF0
102
{ACAD_REACTORS
330
F452
102
}
330
1F
100
AcDbEntity
  8
AM_7
 48
0.5
370
     9
100
AcDbLine
 10
135.7499999999999
 20
94.99999999999994
 30
0.0
 11
125.2499999999999
 21
94.99999999999994
 31
0.0
1001
GENIUS_GENODEF_13
1002
{
1000
HIER
1070
     0
1002
}
1002
{
1000
MANEDIT
1070
     0
1002
}
1002
{
1000
NOSEL
1070
     0
1002
}
1002
{
1000
BEHIND
1070
     0
1002
}
1002
{
1000
OTHER
1070
     0
1002
}
1002
{
1000
REACTOR
1002
}
1001
GENIUS_GENOBJ-N-CEN_13
1002
{
1000
OWNER
1000
GEN
1002
}
1001
GENIUS_GENCEN_19
1002
{
1040
3.0
1002
}
  0
ARC
  5
EAF1
330
1F
100
AcDbEntity
  8
AM_0
100
AcDbCircle
 10
113.1019170493233
 20
40.03689433302273
 30
0.0
 40
2.148398812524066
100
AcDbArc
 50
332.0658787095068
 51
39.90393048074121
  0
ARC
  5
EAF2
330
1F
100
AcDbEntity
  8
AM_0
100
AcDbCircle
 10
147.898081043328
 20
40.03689433302273
 30
0.0
 40
2.148398812524066
100
AcDbArc
 50
140.0960695192587
 51
207.9341212904928
  0
LINE
  5
EAF9
330
1F
100
AcDbEntity
  8
AM_7
 48
0.5
370
     9
100
AcDbLine
 10
130.4999990677375
 20
30.49999999999998
 30
0.0
 11
130.499999042655
 21
51.00000798702215
 31
0.0
1001
GENIUS_GENODEF_13
1002
{
1000
HIER
1070
     0
1002
}
1002
{
1000
MANEDIT
1070
     0
1002
}
1002
{
1000
NOSEL
1070
     0
1002
}
1002
{
1000
BEHIND
1070
     0
1002
}
1002
{
1000
OTHER
1070
     0
1002
}
1002
{
1000
REACTOR
1002
}
1001
GENIUS_GENOBJ-N-CEN_13
1002
{
1000
OWNER
1000
GEN
1002
}
1001
GENIUS_GENCEN_19
1002
{
1040
3.0
1002
}
  0
DIMENSION
  5
EAFA
102
{ACAD_XDICTIONARY
360
EAFB
102
}
102
{ACAD_REACTORS
330
EAFC
102
}
330
1F
100
AcDbEntity
  8
AM_5
100
AcDbDimension
  2
*D11
 10
162.5499992370605
 20
125.9999999999999
 30
0.0
 11
159.4499992370604
 21
131.8466666666666
 31
0.0
 70
    32
 71
     5
 42
2.499999999999971
  3
SYS$0
100
AcDbAlignedDimension
 13
152.5499992370605
 23
123.4999999999999
 33
0.0
 14
151.5499992370605
 24
125.9999999999999
 34
0.0
 50
90.0
100
AcDbRotatedDimension
1001
ACAD
1000
DSTYLE
1002
{
1070
    47
1040
0.2
1070
    48
1040
0.2
1070
   271
1070
     1
1002
}
  0
DIMENSION
  5
EAFD
102
{ACAD_XDICTIONARY
360
EAFE
102
}
102
{ACAD_REACTORS
330
EAFF
102
}
330
1F
100
AcDbEntity
  8
AM_5
100
AcDbDimension
  2
*D12
 10
170.5499992370605
 20
125.9999999999999
 30
0.0
 11
167.4499992370605
 21
106.0
 31
0.0
 70
    32
 71
     5
 42
39.99999999999997
  3
SYS$0
100
AcDbAlignedDimension
 13
146.2499999999999
 23
85.99999999999997
 33
0.0
 14
151.5499992370605
 24
125.9999999999999
 34
0.0
 50
90.0
100
AcDbRotatedDimension
1001
ACAD
1000
DSTYLE
1002
{
1070
    47
1040
0.2
1070
    48
1040
0.2
1070
   271
1070
     1
1002
}
  0
DIMENSION
  5
EB00
102
{ACAD_XDICTIONARY
360
EB01
102
}
102
{ACAD_REACTORS
330
EB02
102
}
330
1F
100
AcDbEntity
  8
AM_5
100
AcDbDimension
  2
*D13
 10
129.4520705261266
 20
96.99106600035932
 30
0.0
 11
147.8133333333335
 21
75.99999999999977
 31
0.0
 70
   163
  1
2-<>
 71
     5
 42
4.499999999999893
  3
SYS$3
100
AcDbDiametricDimension
 15
131.5479294738733
 25
93.00893399964047
 35
0.0
 40
0.0
1001
ACAD
1000
DSTYLE
1002
{
1070
    41
1040
4.0
1070
    47
1040
0.2
1070
    48
1040
0.2
1070
   172
1070
     1
1070
   173
1070
     1
1070
   281
1070
     1
1070
   342
1005
0
1070
   343
1005
F39E
1070
   344
1005
F39E
1002
}
  0
DIMENSION
  5
EB06
330
1F
100
AcDbEntity
  8
AM_5
100
AcDbDimension
  2
*D8
 10
162.5499992370605
 20
47.99999999999997
 30
0.0
 11
159.4499992370605
 21
40.75000000000001
 31
0.0
 70
    32
 71
     5
 42
14.49999999999999
  3
SYS$0
100
AcDbAlignedDimension
 13
151.6499996540123
 23
33.49999999999998
 33
0.0
 14
130.4999990463256
 24
47.99999999999998
 34
0.0
 50
90.0
100
AcDbRotatedDimension
1001
ACAD
1000
DSTYLE
1002
{
1070
    47
1040
0.2
1070
    48
1040
0.2
1070
   271
1070
     1
1002
}
  0
MTEXT
  5
F136
330
1F
100
AcDbEntity
  8
AM_6
100
AcDbMText
 10
31.5
 20
165.4999999999999
 30
0.0
 40
3.2
 41
90.0
 71
     4
 72
     5
  1
　LR-80用
 73
     1
 44
1.0
  0
LINE
  5
F155
330
1F
100
AcDbEntity
  8
AM_7
 48
0.3
370
     9
100
AcDbLine
 10
203.0500072240827
 20
113.5000000000005
 30
0.0
 11
195.5500072240826
 21
113.5000000000004
 31
0.0
1001
GENIUS_GENODEF_13
1002
{
1000
HIER
1070
     0
1002
}
1002
{
1000
MANEDIT
1070
     0
1002
}
1002
{
1000
NOSEL
1070
     0
1002
}
1002
{
1000
BEHIND
1070
     0
1002
}
1002
{
1000
OTHER
1070
     0
1002
}
1002
{
1000
REACTOR
1002
}
1001
GENIUS_GENOBJ-N-CEN_13
1002
{
1000
OWNER
1000
GEN
1002
}
1001
GENIUS_GENCEN_19
1002
{
1040
3.0
1002
}
  0
LINE
  5
F16E
330
1F
100
AcDbEntity
  8
AM_7
 48
0.3
370
     9
100
AcDbLine
 10
203.0500072240827
 20
95.00000000000047
 30
0.0
 11
195.5500072240826
 21
95.0000000000004
 31
0.0
1001
GENIUS_GENODEF_13
1002
{
1000
HIER
1070
     0
1002
}
1002
{
1000
MANEDIT
1070
     0
1002
}
1002
{
1000
NOSEL
1070
     0
1002
}
1002
{
1000
BEHIND
1070
     0
1002
}
1002
{
1000
OTHER
1070
     0
1002
}
1002
{
1000
REACTOR
1002
}
1001
GENIUS_GENOBJ-N-CEN_13
1002
{
1000
OWNER
1000
GEN
1002
}
1001
GENIUS_GENCEN_19
1002
{
1040
3.0
1002
}
  0
DIMENSION
  5
F42C
102
{ACAD_XDICTIONARY
360
F439
102
}
102
{ACAD_REACTORS
330
F43A
102
}
330
1F
100
AcDbEntity
  8
AM_5
100
AcDbDimension
  2
*D15
 10
162.5499992370605
 20
113.4999999999999
 30
0.0
 11
159.4499992370605
 21
118.5
 31
0.0
 70
    32
 71
     5
 42
10.00000000000003
  3
SYS$0
100
AcDbAlignedDimension
 13
152.5499992370605
 23
123.4999999999999
 33
0.0
 14
135.7499999999999
 24
113.4999999999999
 34
0.0
 50
90.00000000000003
100
AcDbRotatedDimension
1001
ACAD
1000
DSTYLE
1002
{
1070
    47
1040
0.2
1070
    48
1040
0.2
1070
   271
1070
     1
1002
}
  0
DIMENSION
  5
F444
102
{ACAD_XDICTIONARY
360
F451
102
}
102
{ACAD_REACTORS
330
F452
102
}
330
1F
100
AcDbEntity
  8
AM_5
100
AcDbDimension
  2
*D16
 10
162.5499992370606
 20
94.99999999999992
 30
0.0
 11
159.4499992370606
 21
104.2499999999999
 31
0.0
 70
    32
 71
     5
 42
18.5
  3
SYS$0
100
AcDbAlignedDimension
 13
135.7499999999999
 23
113.4999999999999
 33
0.0
 14
135.7499999999999
 24
94.99999999999994
 34
0.0
 50
90.00000000000003
100
AcDbRotatedDimension
1001
ACAD
1000
DSTYLE
1002
{
1070
    47
1040
0.2
1070
    48
1040
0.2
1070
   271
1070
     1
1002
}
  0
ENDSEC
  0
SECTION
  2
OBJECTS
  0
DICTIONARY
  5
C
330
0
100
AcDbDictionary
281
     1
  3
ACAD_COLOR
350
C45B
  3
ACAD_GROUP
350
D
  3
ACAD_LAYOUT
350
1A
  3
ACAD_MATERIAL
350
C446
  3
ACAD_MLINESTYLE
350
17
  3
ACAD_PLOTSETTINGS
350
19
  3
ACAD_PLOTSTYLENAME
350
E
  3
ACAD_TABLESTYLE
350
C45C
  3
ACAD_VISUALSTYLE
350
C44A
  3
AcAsAppObject
350
3DA1
  3
ACASGREF_MASTER
350
3DE9
  3
AcDbVariableDictionary
350
34
  3
AcmDictionary
350
47
  3
AD_GREF_MODULE
350
3DEA
  3
AD_MAPI_MODULE
350
3E06
  3
AMG
350
2B
  3
AMGSNAPSETTINGS
350
7D
  3
ASE_INDEX_DICTIONARY
350
B42E
  3
MAPISURF_MODULE
350
3DEB
  0
DICTIONARY
  5
3F95
330
2
100
AcDbDictionary
280
     1
281
     1
  3
ACAD_LAYERFILTERS
360
CB0C
  3
ACAD_LAYERSTATES
360
3F96
  3
ACLYDICTIONARY
360
CB0B
  3
AMLAYER_GROUPCOLORS
360
CB2F
  0
DICTIONARY
  5
8A
330
1F
100
AcDbDictionary
280
     1
281
     1
  3
ACAD_SORTENTS
360
E114
  0
DICTIONARY
  5
E623
330
E622
100
AcDbDictionary
280
     1
281
     1
  3
ACAD_SORTENTS
360
E624
  0
DICTIONARY
  5
EAFB
330
EAFA
100
AcDbDictionary
280
     1
281
     1
  3
ACAD_DIMASSOC
360
EAFC
  0
DICTIONARY
  5
EAFE
330
EAFD
100
AcDbDictionary
280
     1
281
     1
  3
ACAD_DIMASSOC
360
EAFF
  0
DICTIONARY
  5
EB01
330
EB00
100
AcDbDictionary
280
     1
281
     1
  3
ACAD_DIMASSOC
360
EB02
  0
DICTIONARY
  5
F439
330
F42C
100
AcDbDictionary
280
     1
281
     1
  3
ACAD_DIMASSOC
360
F43A
  0
DICTIONARY
  5
F451
330
F444
100
AcDbDictionary
280
     1
281
     1
  3
ACAD_DIMASSOC
360
F452
  0
DICTIONARY
  5
C45B
102
{ACAD_REACTORS
330
C
102
}
330
C
100
AcDbDictionary
281
     1
  0
DICTIONARY
  5
D
102
{ACAD_REACTORS
330
C
102
}
330
C
100
AcDbDictionary
281
     1
  0
DICTIONARY
  5
1A
102
{ACAD_REACTORS
330
C
102
}
330
C
100
AcDbDictionary
281
     1
  3
Model
350
22
  3
ﾚｲｱｳﾄ1
350
1E
  3
ﾚｲｱｳﾄ2
350
26
  0
DICTIONARY
  5
C446
102
{ACAD_REACTORS
330
C
102
}
330
C
100
AcDbDictionary
281
     1
  3
ByBlock
350
C448
  3
ByLayer
350
C447
  3
Global
350
C449
  0
DICTIONARY
  5
17
102
{ACAD_REACTORS
330
C
102
}
330
C
100
AcDbDictionary
281
     1
  3
Standard
350
18
  0
DICTIONARY
  5
19
102
{ACAD_REACTORS
330
C
102
}
330
C
100
AcDbDictionary
281
     1
  3
-00
350
C85D
  0
ACDBDICTIONARYWDFLT
  5
E
102
{ACAD_REACTORS
330
C
102
}
330
C
100
AcDbDictionary
281
     1
  3
Normal
350
F
100
AcDbDictionaryWithDefault
340
F
  0
DICTIONARY
  5
C45C
102
{ACAD_REACTORS
330
C
102
}
330
C
100
AcDbDictionary
281
     1
  3
Standard
350
C45D
  0
DICTIONARY
  5
C44A
102
{ACAD_REACTORS
330
C
102
}
330
C
100
AcDbDictionary
281
     1
  3
2dWireframe
350
C450
  3
3D Hidden
350
C452
  3
3dWireframe
350
C451
  3
Basic
350
C44F
  3
Brighten
350
C456
  3
ColorChange
350
C45A
  3
Conceptual
350
C453
  3
Dim
350
C455
  3
Facepattern
350
C459
  3
Flat
350
C44B
  3
FlatWithEdges
350
C44C
  3
Gouraud
350
C44D
  3
GouraudWithEdges
350
C44E
  3
Linepattern
350
C458
  3
Realistic
350
C454
  3
Thicken
350
C457
  0
ACAD_PROXY_OBJECT
  5
3DA1
102
{ACAD_REACTORS
330
C
102
}
330
C
100
AcDbProxyObject
 90
      499
 91
      576
 95
   720919
 70
     0
 93
       10
310
407F
 94
        0
  0
ACAD_PROXY_OBJECT
  5
3DE9
102
{ACAD_REACTORS
330
C
102
}
330
C
100
AcDbProxyObject
 90
      499
 91
      581
 95
   720919
 70
     0
 93
       34
310
010000407F
 94
        0
  0
DICTIONARY
  5
34
102
{ACAD_REACTORS
330
C
102
}
330
C
100
AcDbDictionary
281
     1
  3
CTABLESTYLE
350
C4A2
  3
DIMASSOC
350
AC85
  3
INDEXCTL
350
35
  3
SORTENTS
350
194C
  0
DICTIONARY
  5
47
102
{ACAD_REACTORS
330
C
102
}
330
C
100
AcDbDictionary
281
     1
  3
AcmBOM
350
7E8
  3
AcmStdDictionary
350
4C
  3
AMDTSECTSYM_ARROWCOLOR
350
C487
  0
ACAD_PROXY_OBJECT
  5
3DEA
102
{ACAD_REACTORS
330
C
102
}
330
C
100
AcDbProxyObject
 90
      499
 91
      582
 95
   720919
 70
     0
 93
      114
310
00000043800000000000000000003F
 94
        0
  0
ACAD_PROXY_OBJECT
  5
3E06
102
{ACAD_REACTORS
330
C
102
}
330
C
100
AcDbProxyObject
 90
      499
 91
      594
 95
   720919
 70
     0
 93
       34
310
05000044FF
 94
        0
  0
DICTIONARY
  5
2B
102
{ACAD_REACTORS
330
C
102
}
330
C
100
AcDbDictionary
281
     1
  0
DICTIONARY
  5
7D
102
{ACAD_REACTORS
330
C
102
}
330
C
100
AcDbDictionary
281
     1
  0
DICTIONARY
  5
B42E
102
{ACAD_REACTORS
330
C
102
}
330
C
100
AcDbDictionary
281
     1
  3
ASEBlockHierarchyIndexRecord
350
B42F
1001
DCO15
1040
1439205644.296
  0
ACAD_PROXY_OBJECT
  5
3DEB
102
{ACAD_REACTORS
330
C
102
}
330
C
100
AcDbProxyObject
 90
      499
 91
      583
 95
   720919
 70
     0
 93
        8
310
047E
 94
        0
  0
DICTIONARY
  5
CB0C
102
{ACAD_REACTORS
330
3F95
102
}
330
3F95
100
AcDbDictionary
281
     1
  3
50
350
CB0E
  0
DICTIONARY
  5
3F96
102
{ACAD_REACTORS
330
3F95
102
}
330
3F95
100
AcDbDictionary
281
     1
  3
20011210
350
3FB7
  0
DICTIONARY
  5
CB0B
102
{ACAD_REACTORS
330
3F95
102
}
330
3F95
100
AcDbDictionary
281
     1
  3
*A1
350
CB0D
1001
ACAD
1000
<All
  0
DICTIONARY
  5
CB2F
102
{ACAD_REACTORS
330
3F95
102
}
330
3F95
100
AcDbDictionary
280
     1
281
     1
  0
SORTENTSTABLE
  5
E114
102
{ACAD_REACTORS
330
8A
102
}
330
8A
100
AcDbSortentsTable
330
1F
331
EAF0
  5
EAF0
331
EAC9
  5
EAC9
331
EA9F
  5
EA9F
331
EAB2
  5
EAB2
331
EA93
  5
EA93
331
EAD0
  5
EAD0
331
EAA6
  5
EAA6
331
EAB9
  5
EAB9
331
EA9A
  5
EA9A
331
EAAD
  5
EAAD
331
EAF2
  5
EAF2
331
EACB
  5
EACB
331
EAA1
  5
EAA1
331
EAB4
  5
EAB4
331
EA95
  5
EA95
331
EAA8
  5
EAA8
331
EAF9
  5
EE9D
331
EAD2
  5
EAD2
331
EAC6
  5
EAC6
331
EABB
  5
EABB
331
EA9C
  5
EA9C
331
EAAF
  5
EAAF
331
EB00
  5
EEA0
331
EACD
  5
EACD
331
EAC1
  5
EAC1
331
EAB6
  5
EAB6
331
EAA3
  5
EAA3
331
EA97
  5
EA97
331
EAAA
  5
EAAA
331
EAEF
  5
EAEF
331
EAD4
  5
EAD4
331
EABD
  5
EABD
331
EAC8
  5
EAC8
331
EAB1
  5
EAB1
331
EA9E
  5
EA9E
331
EA92
  5
EA92
331
EACF
  5
EACF
331
EAB8
  5
EAB8
331
EAA5
  5
EAA5
331
EAC3
  5
EAC3
331
EAAC
  5
EAAC
331
EA99
  5
EA99
331
EAFD
  5
EE9F
331
EAF1
  5
EAF1
331
EABF
  5
EABF
331
EACA
  5
EACA
331
EAB3
  5
EAB3
331
EAA0
  5
EAA0
331
EA94
  5
EA94
331
EADD
  5
EADD
331
EAD1
  5
EAD1
331
EABA
  5
EABA
331
EAA7
  5
EAA7
331
EAC5
  5
EAC5
331
EAAE
  5
EAAE
331
EA9B
  5
EA9B
331
EACC
  5
EACC
331
EAB5
  5
EAB5
331
EAA2
  5
EAA2
331
EAC0
  5
EAC0
331
EAA9
  5
EAA9
331
EA96
  5
EA96
331
EB06
  5
EEA2
331
EAFA
  5
EE9E
331
EAD3
  5
EAD3
331
EAC7
  5
EAC7
331
EABC
  5
EABC
331
EAB0
  5
EAB0
331
EA9D
  5
EA9D
331
EA91
  5
EA91
331
EACE
  5
EACE
331
EAC2
  5
EAC2
331
EAA4
  5
EAA4
331
EAB7
  5
EAB7
331
EAAB
  5
EAAB
331
EA98
  5
EA98
  0
SORTENTSTABLE
  5
E624
102
{ACAD_REACTORS
330
E623
102
}
330
E623
100
AcDbSortentsTable
330
E622
331
E658
  5
1B7
331
E660
  5
1C0
331
E697
  5
1FF
331
E668
  5
1C8
331
E629
  5
222
331
E69F
  5
207
331
E670
  5
1D0
331
E631
  5
22A
331
E6A7
  5
20F
331
E6AF
  5
217
331
E678
  5
1D8
331
E639
  5
195
331
E680
  5
1E0
331
E641
  5
19D
331
E6B7
  5
1BD
331
E649
  5
1A5
331
E688
  5
1E8
331
E6BF
  5
1FB
331
E651
  5
1AE
331
E659
  5
1B8
331
E690
  5
1F0
331
E661
  5
1C1
331
E698
  5
200
331
E669
  5
1C9
331
E62A
  5
223
331
E6A0
  5
208
331
E671
  5
1D1
331
E632
  5
22B
331
E6A8
  5
210
331
E679
  5
1D9
331
E63A
  5
196
331
E6B0
  5
218
331
E681
  5
1E1
331
E642
  5
19E
331
E6B8
  5
1B2
331
E6C0
  5
1FC
331
E64A
  5
1A6
331
E689
  5
1E9
331
E652
  5
1AF
331
E65A
  5
1B9
331
E691
  5
1F1
331
E662
  5
1C2
331
E699
  5
201
331
E66A
  5
1CA
331
E62B
  5
224
331
E6A1
  5
209
331
E672
  5
1D2
331
E633
  5
18E
331
E6A9
  5
211
331
E67A
  5
1DA
331
E63B
  5
197
331
E6B1
  5
219
331
E682
  5
1E2
331
E643
  5
19F
331
E6B9
  5
18F
331
E6C1
  5
1FD
331
E64B
  5
1A7
331
E68A
  5
1EA
331
E653
  5
1B1
331
E65B
  5
1BA
331
E692
  5
1F2
331
E663
  5
1C3
331
E69A
  5
202
331
E66B
  5
1CB
331
E62C
  5
225
331
E6A2
  5
20A
331
E673
  5
1D3
331
E634
  5
190
331
E6AA
  5
212
331
E67B
  5
1DB
331
E63C
  5
198
331
E6B2
  5
21A
331
E683
  5
1E3
331
E644
  5
1A0
331
E6BA
  5
18D
331
E6C2
  5
1F7
331
E64C
  5
1A8
331
E68B
  5
1EB
331
E654
  5
1B3
331
E65C
  5
1BB
331
E693
  5
1F3
331
E664
  5
1C4
331
E69B
  5
203
331
E66C
  5
1CC
331
E62D
  5
226
331
E6A3
  5
20B
331
E674
  5
1D4
331
E635
  5
191
331
E6AB
  5
213
331
E67C
  5
1DC
331
E63D
  5
199
331
E6B3
  5
21B
331
E684
  5
1E4
331
E645
  5
1A1
331
E6BB
  5
1B0
331
E6C3
  5
1F6
331
E64D
  5
1A9
331
E68C
  5
1EC
331
E655
  5
1B4
331
E65D
  5
1BC
331
E694
  5
1F4
331
E665
  5
1C5
331
E626
  5
21F
331
E69C
  5
204
331
E66D
  5
1CD
331
E62E
  5
227
331
E6A4
  5
20C
331
E675
  5
1D5
331
E636
  5
192
331
E6AC
  5
214
331
E67D
  5
1DD
331
E63E
  5
19A
331
E6B4
  5
21C
331
E685
  5
1E5
331
E646
  5
1A2
331
E6BC
  5
1AB
331
E6C4
  5
1F5
331
E64E
  5
1AA
331
E68D
  5
1ED
331
E656
  5
1B5
331
E65E
  5
1BE
331
E695
  5
1F8
331
E666
  5
1C6
331
E627
  5
220
331
E69D
  5
205
331
E66E
  5
1CE
331
E62F
  5
228
331
E6A5
  5
20D
331
E676
  5
1D6
331
E637
  5
193
331
E6AD
  5
215
331
E67E
  5
1DE
331
E63F
  5
19B
331
E6B5
  5
21D
331
E686
  5
1E6
331
E647
  5
1A3
331
E6BD
  5
1F9
331
E64F
  5
1AC
331
E68E
  5
1EE
331
E657
  5
1B6
331
E65F
  5
1BF
331
E696
  5
1FE
331
E667
  5
1C7
331
E628
  5
221
331
E69E
  5
206
331
E66F
  5
1CF
331
E630
  5
229
331
E6A6
  5
20E
331
E677
  5
1D7
331
E6AE
  5
216
331
E638
  5
194
331
E67F
  5
1DF
331
E640
  5
19C
331
E6B6
  5
21E
331
E648
  5
1A4
331
E687
  5
1E7
331
E6BE
  5
1FA
331
E650
  5
1AD
331
E68F
  5
1EF
  0
DIMASSOC
  5
EAFC
102
{ACAD_REACTORS
330
EAFB
102
}
330
EAFB
100
AcDbDimAssoc
330
EAFA
 90
        3
 70
     0
 71
     0
  1
AcDbOsnapPointRef
 72
     1
331
EACB
 73
     0
 91
        0
 40
0.0
 10
0.0
 20
0.0
 30
2.000000000000000E+50
 75
     0
  1
AcDbOsnapPointRef
 72
     1
331
EAC8
 73
     0
 91
        0
 40
0.0
 10
0.0
 20
0.0
 30
2.000000000000000E+50
 75
     0
  0
DIMASSOC
  5
EAFF
102
{ACAD_REACTORS
330
EAFE
102
}
330
EAFE
100
AcDbDimAssoc
330
EAFD
 90
        3
 70
     0
 71
     0
  1
AcDbOsnapPointRef
 72
    13
331
EACC
 73
     0
 91
        0
 40
0.0
 10
0.0
 20
0.0
 30
2.000000000000000E+50
 75
     0
  1
AcDbOsnapPointRef
 72
     1
331
EAC8
 73
     0
 91
        0
 40
0.0
 10
0.0
 20
0.0
 30
2.000000000000000E+50
 75
     0
  0
DIMASSOC
  5
EB02
102
{ACAD_REACTORS
330
EB01
102
}
330
EB01
100
AcDbDimAssoc
330
EB00
 90
        2
 70
     0
 71
     0
  1
AcDbOsnapPointRef
 72
     3
331
EAD3
 73
     2
 91
        0
 40
0.0
 10
0.0
 20
0.0
 30
0.0
 75
     0
  0
DIMASSOC
  5
F43A
102
{ACAD_REACTORS
330
F439
102
}
330
F439
100
AcDbDimAssoc
330
F42C
 90
        3
 70
     0
 71
     0
  1
AcDbOsnapPointRef
 72
     1
331
EACB
 73
     0
 91
        0
 40
0.0
 10
0.0
 20
0.0
 30
2.000000000000000E+50
 75
     0
  1
AcDbOsnapPointRef
 72
     1
331
EAEF
 73
     0
 91
        0
 40
0.0
 10
0.0
 20
0.0
 30
2.000000000000000E+50
 75
     0
  0
DIMASSOC
  5
F452
102
{ACAD_REACTORS
330
F451
102
}
330
F451
100
AcDbDimAssoc
330
F444
 90
        3
 70
     0
 71
     0
  1
AcDbOsnapPointRef
 72
     1
331
EAEF
 73
     0
 91
        0
 40
0.0
 10
0.0
 20
0.0
 30
2.000000000000000E+50
 75
     0
  1
AcDbOsnapPointRef
 72
    13
331
EAF0
 73
     0
 91
        0
 40
0.0
 10
0.0
 20
0.0
 30
2.000000000000000E+50
 75
     0
  0
LAYOUT
  5
22
102
{ACAD_REACTORS
330
1A
102
}
330
1A
100
AcDbPlotSettings
  1

  2
Adobe PDF
  4
A4
  6
AM_VIEW1
 40
3.174999952316284
 41
3.174999952316284
 42
3.175003051757812
 43
3.17498779296875
 44
209.9733276367187
 45
297.0318298339844
 46
-3.188337683677673
 47
-3.159078955650329
 48
0.0
 49
-0.0000000000000568
140
297.0
141
210.0
142
1.0
143
1.0
 70
 11956
 72
     1
 73
     1
 74
     4
  7
monochrome.ctb
 75
    16
147
1.0
 76
     0
 77
     2
 78
   300
148
0.0
149
0.0000000000000568
100
AcDbLayout
  1
Model
 70
     1
 71
     0
 10
0.0
 20
0.0
 11
12.0
 21
9.0
 12
0.0
 22
0.0
 32
0.0
 14
0.0
 24
0.0
 34
0.0
 15
0.0
 25
0.0
 35
0.0
146
0.0
 13
0.0
 23
0.0
 33
0.0
 16
1.0
 26
0.0
 36
0.0
 17
0.0
 27
1.0
 37
0.0
 76
     0
330
1F
331
C444
1001
ACAD_PSEXT
1000
Adobe PDF
1000
Adobe PDF Converter
1000
My Documents\*.pdf
1000

1070
     0
  0
LAYOUT
  5
1E
102
{ACAD_REACTORS
330
1A
102
}
330
1A
100
AcDbPlotSettings
  1

  2
\\ML370\XEROX
  4
A4
  6

 40
3.174999952316284
 41
3.174999952316284
 42
3.175003051757812
 43
3.17498779296875
 44
209.8674926757813
 45
296.6719970703125
 46
0.0
 47
0.0
 48
0.0
 49
0.0
140
0.0
141
0.0
142
1.0
143
1.0
 70
   688
 72
     1
 73
     1
 74
     5
  7
monochrome.ctb
 75
    16
147
1.0
 76
     0
 77
     2
 78
   300
148
0.0
149
0.0
100
AcDbLayout
  1
ﾚｲｱｳﾄ1
 70
     1
 71
     1
 10
-3.17498779296875
 20
-3.174999952316284
 11
293.4970092773438
 21
206.692492723465
 12
0.0
 22
0.0
 32
0.0
 14
1.000000000000000E+20
 24
1.000000000000000E+20
 34
1.000000000000000E+20
 15
-1.000000000000000E+20
 25
-1.000000000000000E+20
 35
-1.000000000000000E+20
146
0.0
 13
0.0
 23
0.0
 33
0.0
 16
1.0
 26
0.0
 36
0.0
 17
0.0
 27
1.0
 37
0.0
 76
     0
330
1B
  0
LAYOUT
  5
26
102
{ACAD_REACTORS
330
1A
102
}
330
1A
100
AcDbPlotSettings
  1

  2
\\ML370\XEROX
  4

  6

 40
0.0
 41
0.0
 42
0.0
 43
0.0
 44
0.0
 45
0.0
 46
0.0
 47
0.0
 48
0.0
 49
0.0
140
0.0
141
0.0
142
1.0
143
1.0
 70
   688
 72
     0
 73
     0
 74
     5
  7
monochrome.ctb
 75
    16
147
1.0
 76
     0
 77
     2
 78
   300
148
0.0
149
0.0
100
AcDbLayout
  1
ﾚｲｱｳﾄ2
 70
     1
 71
     2
 10
0.0
 20
0.0
 11
12.0
 21
9.0
 12
0.0
 22
0.0
 32
0.0
 14
0.0
 24
0.0
 34
0.0
 15
0.0
 25
0.0
 35
0.0
146
0.0
 13
0.0
 23
0.0
 33
0.0
 16
1.0
 26
0.0
 36
0.0
 17
0.0
 27
1.0
 37
0.0
 76
     0
330
23
  0
MATERIAL
  5
C448
102
{ACAD_XDICTIONARY
360
F4BE
102
}
102
{ACAD_REACTORS
330
C446
102
}
330
C446
100
AcDbMaterial
  1
ByBlock
  0
MATERIAL
  5
C447
102
{ACAD_XDICTIONARY
360
F4BC
102
}
102
{ACAD_REACTORS
330
C446
102
}
330
C446
100
AcDbMaterial
  1
ByLayer
  0
MATERIAL
  5
C449
102
{ACAD_XDICTIONARY
360
F4C0
102
}
102
{ACAD_REACTORS
330
C446
102
}
330
C446
100
AcDbMaterial
  1
Global
  0
MLINESTYLE
  5
18
102
{ACAD_REACTORS
330
17
102
}
330
17
100
AcDbMlineStyle
  2
STANDARD
 70
     0
  3

 62
   256
 51
90.0
 52
90.0
 71
     2
 49
0.5
 62
   256
  6
BYLAYER
 49
-0.5
 62
   256
  6
BYLAYER
  0
PLOTSETTINGS
  5
C85D
102
{ACAD_REACTORS
330
19
102
}
330
19
100
AcDbPlotSettings
  1
-00
  2
RICOH imagio Wide 7040e RP-GL/2
  4
A3
  6
AM_VIEW1
 40
5.069416522979736
 41
7.228392601013183
 42
5.23870849609375
 43
7.05908203125
 44
419.9889831542968
 45
296.9683227539062
 46
-5.159570932388305
 47
-7.159575939178466
 48
347.0000006405867
 49
-0.0000003719120514
140
767.0000006405866
141
296.9999996280879
142
1.0
143
1.0
 70
 11956
 72
     1
 73
     0
 74
     4
  7
monochrome.ctb
 75
    16
147
1.0
 76
     0
 77
     2
 78
   300
148
-347.0000006405867
149
0.0000003719120514
1001
ACAD_PSEXT
1000
RICOH imagio Wide 7040e RP-GL/2
1000
RICOH imagio Wide 7040e RP-GL/2
1000
\\ADMINISTRATOR
1000
RP-GL/2 Driver (Windows 2000/XP/Server 2003)
1070
     0
  0
ACDBPLACEHOLDER
  5
F
102
{ACAD_REACTORS
330
E
102
}
330
E
  0
TABLESTYLE
  5
C45D
102
{ACAD_XDICTIONARY
360
F4C2
102
}
102
{ACAD_REACTORS
330
C45C
102
}
330
C45C
100
AcDbTableStyle
  3
Standard
 70
     0
 71
     0
 40
1.5
 41
1.5
280
     0
281
     0
  7
STANDARD
140
4.5
170
     2
 62
     0
 63
     7
283
     0
274
    -2
284
     1
 64
     0
275
    -2
285
     1
 65
     0
276
    -2
286
     1
 66
     0
277
    -2
287
     1
 67
     0
278
    -2
288
     1
 68
     0
279
    -2
289
     1
 69
     0
  7
STANDARD
140
6.0
170
     5
 62
     0
 63
     7
283
     0
274
    -2
284
     1
 64
     0
275
    -2
285
     1
 65
     0
276
    -2
286
     1
 66
     0
277
    -2
287
     1
 67
     0
278
    -2
288
     1
 68
     0
279
    -2
289
     1
 69
     0
  7
STANDARD
140
4.5
170
     5
 62
     0
 63
     7
283
     0
274
    -2
284
     1
 64
     0
275
    -2
285
     1
 65
     0
276
    -2
286
     1
 66
     0
277
    -2
287
     1
 67
     0
278
    -2
288
     1
 68
     0
279
    -2
289
     1
 69
     0
  0
VISUALSTYLE
  5
C450
102
{ACAD_REACTORS
330
C44A
102
}
330
C44A
100
AcDbVisualStyle
  2
2dWireframe
 70
     4
 71
     0
 72
     2
 73
     0
 90
        0
 40
-0.6
 41
-30.0
 62
     5
 63
     7
421
 16777215
 74
     1
 91
        4
 64
     7
 65
   257
 75
     1
175
     1
 42
1.0
 92
        0
 66
   257
 43
1.0
 76
     1
 77
     6
 78
     2
 67
     7
 79
     5
170
     0
171
     0
290
     0
174
     0
 93
        1
 44
0.0
173
     0
291
     0
 45
0.0
1001
ACAD
1000
AcDbSavedByObjectVersion
1070
     0
  0
VISUALSTYLE
  5
C452
102
{ACAD_REACTORS
330
C44A
102
}
330
C44A
100
AcDbVisualStyle
  2
3D Hidden
 70
     6
 71
     1
 72
     2
 73
     2
 90
        0
 40
-0.6
 41
-30.0
 62
     5
 63
     7
421
 16777215
 74
     2
 91
        2
 64
     7
 65
   257
 75
     2
175
     1
 42
40.0
 92
        0
 66
   257
 43
1.0
 76
     1
 77
     6
 78
     2
 67
     7
 79
     3
170
     0
171
     0
290
     0
174
     0
 93
        1
 44
0.0
173
     0
291
     0
 45
0.0
1001
ACAD
1000
AcDbSavedByObjectVersion
1070
     0
  0
VISUALSTYLE
  5
C451
102
{ACAD_REACTORS
330
C44A
102
}
330
C44A
100
AcDbVisualStyle
  2
3dWireframe
 70
     5
 71
     0
 72
     2
 73
     0
 90
        0
 40
-0.6
 41
-30.0
 62
     5
 63
     7
421
 16777215
 74
     1
 91
        4
 64
     7
 65
   257
 75
     1
175
     1
 42
1.0
 92
        0
 66
   257
 43
1.0
 76
     1
 77
     6
 78
     2
 67
     7
 79
     5
170
     0
171
     0
290
     0
174
     0
 93
        1
 44
0.0
173
     0
291
     0
 45
0.0
1001
ACAD
1000
AcDbSavedByObjectVersion
1070
     0
  0
VISUALSTYLE
  5
C44F
102
{ACAD_REACTORS
330
C44A
102
}
330
C44A
100
AcDbVisualStyle
  2
Basic
 70
     7
 71
     1
 72
     0
 73
     1
 90
        0
 40
-0.6
 41
-30.0
 62
     5
 63
     7
421
 16777215
 74
     0
 91
        4
 64
     7
 65
   257
 75
     1
175
     1
 42
1.0
 92
        8
 66
     7
 43
1.0
 76
     1
 77
     6
 78
     2
 67
     7
 79
     5
170
     0
171
     0
290
     0
174
     0
 93
        1
 44
0.0
173
     0
291
     1
 45
0.0
1001
ACAD
1000
AcDbSavedByObjectVersion
1070
     0
  0
VISUALSTYLE
  5
C456
102
{ACAD_REACTORS
330
C44A
102
}
330
C44A
100
AcDbVisualStyle
  2
Brighten
 70
    12
 71
     2
 72
     2
 73
     0
 90
        0
 40
-0.6
 41
-30.0
 62
     5
 63
     7
421
 16777215
 74
     1
 91
        4
 64
     7
 65
   257
 75
     1
175
     1
 42
1.0
 92
        8
 66
     7
 43
1.0
 76
     1
 77
     6
 78
     2
 67
     7
 79
     5
170
     0
171
     0
290
     0
174
     0
 93
        1
 44
50.0
173
     0
291
     1
 45
0.0
1001
ACAD
1000
AcDbSavedByObjectVersion
1070
     0
  0
VISUALSTYLE
  5
C45A
102
{ACAD_REACTORS
330
C44A
102
}
330
C44A
100
AcDbVisualStyle
  2
ColorChange
 70
    16
 71
     2
 72
     2
 73
     3
 90
        0
 40
-0.6
 41
-30.0
 62
     5
 63
     8
421
  8421504
 74
     1
 91
        4
 64
     7
 65
   257
 75
     1
175
     1
 42
1.0
 92
        8
 66
     8
424
  8421504
 43
1.0
 76
     1
 77
     6
 78
     2
 67
     7
 79
     5
170
     0
171
     0
290
     0
174
     0
 93
        1
 44
0.0
173
     0
291
     1
 45
0.0
1001
ACAD
1000
AcDbSavedByObjectVersion
1070
     0
  0
VISUALSTYLE
  5
C453
102
{ACAD_REACTORS
330
C44A
102
}
330
C44A
100
AcDbVisualStyle
  2
Conceptual
 70
     9
 71
     3
 72
     2
 73
     0
 90
        0
 40
-0.6
 41
-30.0
 62
     5
 63
     7
421
 16777215
 74
     2
 91
        2
 64
     7
 65
   257
 75
     1
175
     1
 42
40.0
 92
        8
 66
     7
 43
1.0
 76
     1
 77
     6
 78
     2
 67
     7
 79
     3
170
     0
171
     0
290
     0
174
     0
 93
        1
 44
0.0
173
     0
291
     0
 45
0.0
1001
ACAD
1000
AcDbSavedByObjectVersion
1070
     0
  0
VISUALSTYLE
  5
C455
102
{ACAD_REACTORS
330
C44A
102
}
330
C44A
100
AcDbVisualStyle
  2
Dim
 70
    11
 71
     2
 72
     2
 73
     0
 90
        0
 40
-0.6
 41
-30.0
 62
     5
 63
     7
421
 16777215
 74
     1
 91
        4
 64
     7
 65
   257
 75
     1
175
     1
 42
1.0
 92
        8
 66
     7
 43
1.0
 76
     1
 77
     6
 78
     2
 67
     7
 79
     5
170
     0
171
     0
290
     0
174
     0
 93
        1
 44
-50.0
173
     0
291
     1
 45
0.0
1001
ACAD
1000
AcDbSavedByObjectVersion
1070
     0
  0
VISUALSTYLE
  5
C459
102
{ACAD_REACTORS
330
C44A
102
}
330
C44A
100
AcDbVisualStyle
  2
Facepattern
 70
    15
 71
     2
 72
     2
 73
     0
 90
        0
 40
-0.6
 41
-30.0
 62
     5
 63
     7
421
 16777215
 74
     1
 91
        4
 64
     7
 65
   257
 75
     1
175
     1
 42
1.0
 92
        8
 66
     7
 43
1.0
 76
     1
 77
     6
 78
     2
 67
     7
 79
     5
170
     0
171
     0
290
     0
174
     0
 93
        1
 44
0.0
173
     0
291
     1
 45
0.0
1001
ACAD
1000
AcDbSavedByObjectVersion
1070
     0
  0
VISUALSTYLE
  5
C44B
102
{ACAD_REACTORS
330
C44A
102
}
330
C44A
100
AcDbVisualStyle
  2
Flat
 70
     0
 71
     2
 72
     1
 73
     1
 90
        2
 40
-0.6
 41
30.0
 62
     5
 63
     7
421
 16777215
 74
     0
 91
        4
 64
     7
 65
   257
 75
     1
175
     1
 42
1.0
 92
        8
 66
     7
 43
1.0
 76
     1
 77
     6
 78
     2
 67
     7
 79
     5
170
     0
171
     0
290
     0
174
     0
 93
       13
 44
0.0
173
     0
291
     1
 45
0.0
1001
ACAD
1000
AcDbSavedByObjectVersion
1070
     0
  0
VISUALSTYLE
  5
C44C
102
{ACAD_REACTORS
330
C44A
102
}
330
C44A
100
AcDbVisualStyle
  2
FlatWithEdges
 70
     1
 71
     2
 72
     1
 73
     1
 90
        2
 40
-0.6
 41
30.0
 62
     5
 63
     7
421
 16777215
 74
     1
 91
        4
 64
     7
 65
   257
 75
     1
175
     1
 42
1.0
 92
        0
 66
   257
 43
1.0
 76
     1
 77
     6
 78
     2
 67
     7
 79
     5
170
     0
171
     0
290
     0
174
     0
 93
       13
 44
0.0
173
     0
291
     1
 45
0.0
1001
ACAD
1000
AcDbSavedByObjectVersion
1070
     0
  0
VISUALSTYLE
  5
C44D
102
{ACAD_REACTORS
330
C44A
102
}
330
C44A
100
AcDbVisualStyle
  2
Gouraud
 70
     2
 71
     2
 72
     2
 73
     1
 90
        2
 40
-0.6
 41
30.0
 62
     5
 63
     7
421
 16777215
 74
     0
 91
        4
 64
     7
 65
   257
 75
     1
175
     1
 42
1.0
 92
        0
 66
     7
 43
1.0
 76
     1
 77
     6
 78
     2
 67
     7
 79
     5
170
     0
171
     0
290
     0
174
     0
 93
       13
 44
0.0
173
     0
291
     1
 45
0.0
1001
ACAD
1000
AcDbSavedByObjectVersion
1070
     0
  0
VISUALSTYLE
  5
C44E
102
{ACAD_REACTORS
330
C44A
102
}
330
C44A
100
AcDbVisualStyle
  2
GouraudWithEdges
 70
     3
 71
     2
 72
     2
 73
     1
 90
        2
 40
-0.6
 41
30.0
 62
     5
 63
     7
421
 16777215
 74
     1
 91
        4
 64
     7
 65
   257
 75
     1
175
     1
 42
1.0
 92
        0
 66
   257
 43
1.0
 76
     1
 77
     6
 78
     2
 67
     7
 79
     5
170
     0
171
     0
290
     0
174
     0
 93
       13
 44
0.0
173
     0
291
     1
 45
0.0
1001
ACAD
1000
AcDbSavedByObjectVersion
1070
     0
  0
VISUALSTYLE
  5
C458
102
{ACAD_REACTORS
330
C44A
102
}
330
C44A
100
AcDbVisualStyle
  2
Linepattern
 70
    14
 71
     2
 72
     2
 73
     0
 90
        0
 40
-0.6
 41
-30.0
 62
     5
 63
     7
421
 16777215
 74
     1
 91
        4
 64
     7
 65
   257
 75
     7
175
     7
 42
1.0
 92
        8
 66
     7
 43
1.0
 76
     1
 77
     6
 78
     2
 67
     7
 79
     5
170
     0
171
     0
290
     0
174
     0
 93
        1
 44
0.0
173
     0
291
     1
 45
0.0
1001
ACAD
1000
AcDbSavedByObjectVersion
1070
     0
  0
VISUALSTYLE
  5
C454
102
{ACAD_REACTORS
330
C44A
102
}
330
C44A
100
AcDbVisualStyle
  2
Realistic
 70
     8
 71
     2
 72
     2
 73
     0
 90
        0
 40
-0.6
 41
-30.0
 62
     5
 63
     7
421
 16777215
 74
     1
 91
        0
 64
     7
 65
   257
 75
     1
175
     1
 42
1.0
 92
        8
 66
     8
424
  7895160
 43
1.0
 76
     1
 77
     6
 78
     2
 67
     7
 79
     5
170
     0
171
     0
290
     0
174
     0
 93
       13
 44
0.0
173
     0
291
     0
 45
0.0
1001
ACAD
1000
AcDbSavedByObjectVersion
1070
     0
  0
VISUALSTYLE
  5
C457
102
{ACAD_REACTORS
330
C44A
102
}
330
C44A
100
AcDbVisualStyle
  2
Thicken
 70
    13
 71
     2
 72
     2
 73
     0
 90
        0
 40
-0.6
 41
-30.0
 62
     5
 63
     7
421
 16777215
 74
     1
 91
        4
 64
     7
 65
   257
 75
     1
175
     1
 42
1.0
 92
       12
 66
     7
 43
1.0
 76
     1
 77
     6
 78
     2
 67
     7
 79
     5
170
     0
171
     0
290
     0
174
     0
 93
        1
 44
0.0
173
     0
291
     1
 45
0.0
1001
ACAD
1000
AcDbSavedByObjectVersion
1070
     0
  0
DICTIONARYVAR
  5
C4A2
102
{ACAD_REACTORS
330
34
102
}
330
34
100
DictionaryVariables
280
     0
  1
STANDARD
  0
DICTIONARYVAR
  5
AC85
102
{ACAD_REACTORS
330
34
102
}
330
34
100
DictionaryVariables
280
     0
  1
1
  0
DICTIONARYVAR
  5
35
102
{ACAD_REACTORS
330
34
102
}
330
34
100
DictionaryVariables
280
     0
  1
1
  0
DICTIONARYVAR
  5
194C
102
{ACAD_REACTORS
330
34
102
}
330
34
100
DictionaryVariables
280
     0
  1
96
  0
DICTIONARY
  5
7E8
102
{ACAD_REACTORS
330
47
102
}
330
47
100
AcDbDictionary
281
     1
  0
DICTIONARY
  5
4C
102
{ACAD_REACTORS
330
47
102
}
330
47
100
AcDbDictionary
281
     1
  0
XRECORD
  5
C487
102
{ACAD_REACTORS
330
47
102
}
330
47
100
AcDbXrecord
280
     1
 90
-1023410169
  0
XRECORD
  5
B42F
102
{ACAD_REACTORS
330
B42E
102
}
330
B42E
100
AcDbXrecord
280
     1
330
0
330
0
330
0
330
0
330
0
330
0
330
0
330
0
330
0
330
0
330
0
330
0
330
0
330
0
330
0
330
0
330
0
330
0
330
0
330
0
330
0
330
0
330
0
330
0
  0
XRECORD
  5
CB0E
102
{ACAD_REACTORS
330
CB0C
102
}
330
CB0C
100
AcDbXrecord
280
     1
  1
50
  1
*-50
  1
*
  1
*
 70
     0
  1
*
  1
*
1001
ACAD
1000
( NAME== "*-50" )
  0
XRECORD
  5
3FB7
102
{ACAD_REACTORS
330
3F96
102
}
330
3F96
100
AcDbXrecord
280
     1
 91
        3
330
A47
 90
        8
 62
     7
370
    40
331
16
  1
Color_7
330
A46
 90
        0
 62
    14
370
    -3
331
16
  1
Color_14
330
3A31
 90
        8
 62
     7
370
    20
331
16
  1
Color_7
330
6D1
 90
        0
 62
     7
370
    -3
331
16
  1
Color_7
330
0
 90
        8
 62
     7
370
    50
331
16
  1
Color_7
330
A48
 90
        8
 62
     2
370
    35
331
16
  1
Color_2
330
FA5
 90
        8
 62
     7
370
    -3
331
16
  1
Color_7
330
10
 90
        8
 62
     7
370
    -3
331
16
  1
Color_7
  0
XRECORD
  5
CB0D
102
{ACAD_REACTORS
330
CB0B
102
}
330
CB0B
100
AcDbXrecord
280
     1
  1
AcLyLayerFilter
 90
        1
300
50
301
( NAME== "*-50" )
  0
DICTIONARY
  5
F4BE
330
C448
100
AcDbDictionary
280
     1
281
     1
  3
ACAD_XREC_ROUNDTRIP
360
F4BF
  0
DICTIONARY
  5
F4BC
330
C447
100
AcDbDictionary
280
     1
281
     1
  3
ACAD_XREC_ROUNDTRIP
360
F4BD
  0
DICTIONARY
  5
F4C0
330
C449
100
AcDbDictionary
280
     1
281
     1
  3
ACAD_XREC_ROUNDTRIP
360
F4C1
  0
DICTIONARY
  5
F4C2
330
C45D
100
AcDbDictionary
280
     1
281
     1
  3
ACAD_XREC_ROUNDTRIP
360
F4C3
  0
XRECORD
  5
F4BF
102
{ACAD_REACTORS
330
F4BE
102
}
330
F4BE
100
AcDbXrecord
280
     1
102
MATERIAL
148
0.0
149
0.0
149
0.0
 93
        0
 94
       63
282
     0
 72
     1
 77
     1
171
     1
175
     1
179
     1
273
     0
  0
XRECORD
  5
F4BD
102
{ACAD_REACTORS
330
F4BC
102
}
330
F4BC
100
AcDbXrecord
280
     1
102
MATERIAL
148
0.0
149
0.0
149
0.0
 93
        0
 94
       63
282
     0
 72
     1
 77
     1
171
     1
175
     1
179
     1
273
     0
  0
XRECORD
  5
F4C1
102
{ACAD_REACTORS
330
F4C0
102
}
330
F4C0
100
AcDbXrecord
280
     1
102
MATERIAL
148
0.0
149
0.0
149
0.0
 93
        0
 94
       63
282
     0
 72
     1
 77
     1
171
     1
175
     1
179
     1
273
     0
  0
XRECORD
  5
F4C3
102
{ACAD_REACTORS
330
F4C2
102
}
330
F4C2
100
AcDbXrecord
280
     1
102
ACAD_ROUNDTRIP_PRE2007_TABLESTYLE
 90
      512
 91
        0
  1

 92
      512
 93
        0
  2

 94
      512
 95
        0
  3

  0
ENDSEC
  0
EOF
