  0
SECTION
  2
HEADER
  9
$ACADVER
  1
AC1018
  9
$ACADMAINTVER
 70
   104
  9
$DWGCODEPAGE
  3
ANSI_932
  9
$LASTSAVEDBY
  1
shibutanishibutani
  9
$CUSTOMPROPERTYTAG
  1
AmdtFileType
  9
$CUSTOMPROPERTY
  1
84
  9
$INSBASE
 10
0.0
 20
0.0
 30
0.0
  9
$EXTMIN
 10
0.0
 20
-0.0000000000000568
 30
0.0
  9
$EXTMAX
 10
297.0
 20
210.0
 30
0.0
  9
$LIMMIN
 10
0.0
 20
0.0
  9
$LIMMAX
 10
297.0
 20
210.0
  9
$ORTHOMODE
 70
     0
  9
$REGENMODE
 70
     1
  9
$FILLMODE
 70
     1
  9
$QTEXTMODE
 70
     0
  9
$MIRRTEXT
 70
     0
  9
$LTSCALE
 40
1.0
  9
$ATTMODE
 70
     1
  9
$TEXTSIZE
 40
3.2
  9
$TRACEWID
 40
1.0
  9
$TEXTSTYLE
  7
STANDARD
  9
$CLAYER
  8
AM_2
  9
$CELTYPE
  6
ByLayer
  9
$CECOLOR
 62
   256
  9
$CELTSCALE
 40
1.0
  9
$DISPSILH
 70
     0
  9
$DIMSCALE
 40
1.0
  9
$DIMASZ
 40
2.5
  9
$DIMEXO
 40
1.0
  9
$DIMDLI
 40
10.0
  9
$DIMRND
 40
0.0
  9
$DIMDLE
 40
0.0
  9
$DIMEXE
 40
1.0
  9
$DIMTP
 40
0.2
  9
$DIMTM
 40
0.2
  9
$DIMTXT
 40
3.5
  9
$DIMCEN
 40
0.0
  9
$DIMTSZ
 40
0.0
  9
$DIMTOL
 70
     0
  9
$DIMLIM
 70
     0
  9
$DIMTIH
 70
     0
  9
$DIMTOH
 70
     0
  9
$DIMSE1
 70
     0
  9
$DIMSE2
 70
     0
  9
$DIMTAD
 70
     1
  9
$DIMZIN
 70
     8
  9
$DIMBLK
  1

  9
$DIMASO
 70
     1
  9
$DIMSHO
 70
     1
  9
$DIMPOST
  1

  9
$DIMAPOST
  1
"
  9
$DIMALT
 70
     0
  9
$DIMALTD
 70
     2
  9
$DIMALTF
 40
0.0393701
  9
$DIMLFAC
 40
1.0
  9
$DIMTOFL
 70
     1
  9
$DIMTVP
 40
0.0
  9
$DIMTIX
 70
     0
  9
$DIMSOXD
 70
     0
  9
$DIMSAH
 70
     0
  9
$DIMBLK1
  1

  9
$DIMBLK2
  1

  9
$DIMSTYLE
  2
SYS
  9
$DIMCLRD
 70
   256
  9
$DIMCLRE
 70
   256
  9
$DIMCLRT
 70
     7
  9
$DIMTFAC
 40
0.71
  9
$DIMGAP
 40
1.5
  9
$DIMJUST
 70
     0
  9
$DIMSD1
 70
     0
  9
$DIMSD2
 70
     0
  9
$DIMTOLJ
 70
     0
  9
$DIMTZIN
 70
     8
  9
$DIMALTZ
 70
     0
  9
$DIMALTTZ
 70
     0
  9
$DIMUPT
 70
     0
  9
$DIMDEC
 70
     1
  9
$DIMTDEC
 70
     3
  9
$DIMALTU
 70
     2
  9
$DIMALTTD
 70
     4
  9
$DIMTXSTY
  7
STANDARD
  9
$DIMAUNIT
 70
     0
  9
$DIMADEC
 70
     0
  9
$DIMALTRND
 40
0.0
  9
$DIMAZIN
 70
     2
  9
$DIMDSEP
 70
    46
  9
$DIMATFIT
 70
     3
  9
$DIMFRAC
 70
     0
  9
$DIMLDRBLK
  1

  9
$DIMLUNIT
 70
     2
  9
$DIMLWD
 70
    -1
  9
$DIMLWE
 70
    -1
  9
$DIMTMOVE
 70
     0
  9
$LUNITS
 70
     2
  9
$LUPREC
 70
     2
  9
$SKETCHINC
 40
1.0
  9
$FILLETRAD
 40
1.0
  9
$AUNITS
 70
     0
  9
$AUPREC
 70
     0
  9
$MENU
  1
.
  9
$ELEVATION
 40
0.0
  9
$PELEVATION
 40
0.0
  9
$THICKNESS
 40
0.0
  9
$LIMCHECK
 70
     0
  9
$CHAMFERA
 40
0.0
  9
$CHAMFERB
 40
0.0
  9
$CHAMFERC
 40
20.0
  9
$CHAMFERD
 40
0.0
  9
$SKPOLY
 70
     0
  9
$TDCREATE
 40
2452002.615067627
  9
$TDUCREATE
 40
2452002.240067627
  9
$TDUPDATE
 40
2455629.705019340
  9
$TDUUPDATE
 40
2455629.330019341
  9
$TDINDWG
 40
3.9478237384
  9
$TDUSRTIMER
 40
3.9478237384
  9
$USRTIMER
 70
     1
  9
$ANGBASE
 50
0.0
  9
$ANGDIR
 70
     0
  9
$PDMODE
 70
     0
  9
$PDSIZE
 40
0.0
  9
$PLINEWID
 40
0.0
  9
$SPLFRAME
 70
     0
  9
$SPLINETYPE
 70
     6
  9
$SPLINESEGS
 70
     8
  9
$HANDSEED
  5
F5D7
  9
$SURFTAB1
 70
     6
  9
$SURFTAB2
 70
     6
  9
$SURFTYPE
 70
     6
  9
$SURFU
 70
     6
  9
$SURFV
 70
     6
  9
$UCSBASE
  2

  9
$UCSNAME
  2

  9
$UCSORG
 10
0.0
 20
0.0
 30
0.0
  9
$UCSXDIR
 10
1.0
 20
0.0
 30
0.0
  9
$UCSYDIR
 10
0.0
 20
1.0
 30
0.0
  9
$UCSORTHOREF
  2

  9
$UCSORTHOVIEW
 70
     0
  9
$UCSORGTOP
 10
0.0
 20
0.0
 30
0.0
  9
$UCSORGBOTTOM
 10
0.0
 20
0.0
 30
0.0
  9
$UCSORGLEFT
 10
0.0
 20
0.0
 30
0.0
  9
$UCSORGRIGHT
 10
0.0
 20
0.0
 30
0.0
  9
$UCSORGFRONT
 10
0.0
 20
0.0
 30
0.0
  9
$UCSORGBACK
 10
0.0
 20
0.0
 30
0.0
  9
$PUCSBASE
  2

  9
$PUCSNAME
  2

  9
$PUCSORG
 10
0.0
 20
0.0
 30
0.0
  9
$PUCSXDIR
 10
1.0
 20
0.0
 30
0.0
  9
$PUCSYDIR
 10
0.0
 20
1.0
 30
0.0
  9
$PUCSORTHOREF
  2

  9
$PUCSORTHOVIEW
 70
     0
  9
$PUCSORGTOP
 10
0.0
 20
0.0
 30
0.0
  9
$PUCSORGBOTTOM
 10
0.0
 20
0.0
 30
0.0
  9
$PUCSORGLEFT
 10
0.0
 20
0.0
 30
0.0
  9
$PUCSORGRIGHT
 10
0.0
 20
0.0
 30
0.0
  9
$PUCSORGFRONT
 10
0.0
 20
0.0
 30
0.0
  9
$PUCSORGBACK
 10
0.0
 20
0.0
 30
0.0
  9
$USERI1
 70
     0
  9
$USERI2
 70
     0
  9
$USERI3
 70
     0
  9
$USERI4
 70
     0
  9
$USERI5
 70
     0
  9
$USERR1
 40
0.0
  9
$USERR2
 40
0.0
  9
$USERR3
 40
0.0
  9
$USERR4
 40
0.0
  9
$USERR5
 40
0.0
  9
$WORLDVIEW
 70
     1
  9
$SHADEDGE
 70
     3
  9
$SHADEDIF
 70
    70
  9
$TILEMODE
 70
     1
  9
$MAXACTVP
 70
    64
  9
$PINSBASE
 10
0.0
 20
0.0
 30
0.0
  9
$PLIMCHECK
 70
     0
  9
$PEXTMIN
 10
1.000000000000000E+20
 20
1.000000000000000E+20
 30
1.000000000000000E+20
  9
$PEXTMAX
 10
-1.000000000000000E+20
 20
-1.000000000000000E+20
 30
-1.000000000000000E+20
  9
$PLIMMIN
 10
-3.17498779296875
 20
-3.174999952316284
  9
$PLIMMAX
 10
293.4970092773438
 20
206.692492723465
  9
$UNITMODE
 70
     0
  9
$VISRETAIN
 70
     1
  9
$PLINEGEN
 70
     0
  9
$PSLTSCALE
 70
     1
  9
$TREEDEPTH
 70
  3020
  9
$CMLSTYLE
  2
Standard
  9
$CMLJUST
 70
     0
  9
$CMLSCALE
 40
20.0
  9
$PROXYGRAPHICS
 70
     1
  9
$MEASUREMENT
 70
     1
  9
$CELWEIGHT
370
    -1
  9
$ENDCAPS
280
     0
  9
$JOINSTYLE
280
     0
  9
$LWDISPLAY
290
     1
  9
$INSUNITS
 70
     4
  9
$HYPERLINKBASE
  1

  9
$STYLESHEET
  1
monochrome.ctb
  9
$XEDIT
290
     1
  9
$CEPSNTYPE
380
     0
  9
$PSTYLEMODE
290
     1
  9
$FINGERPRINTGUID
  2
{83FB3AA1-FF18-4BFE-AFE0-611B71DE056D}
  9
$VERSIONGUID
  2
{2EB387EB-3601-4DFE-A514-2EB67C314FDD}
  9
$EXTNAMES
290
     1
  9
$PSVPSCALE
 40
0.0
  9
$OLESTARTUP
290
     0
  9
$SORTENTS
280
    96
  9
$INDEXCTL
280
     0
  9
$HIDETEXT
280
     0
  9
$XCLIPFRAME
290
     0
  9
$HALOGAP
280
     0
  9
$OBSCOLOR
 70
   257
  9
$OBSLTYPE
280
     0
  9
$INTERSECTIONDISPLAY
280
     0
  9
$INTERSECTIONCOLOR
 70
   257
  9
$DIMASSOC
280
     2
  9
$PROJECTNAME
  1

  0
ENDSEC
  0
SECTION
  2
CLASSES
  0
CLASS
  1
ACDBDICTIONARYWDFLT
  2
AcDbDictionaryWithDefault
  3
ObjectDBX Classes
 90
        0
 91
        1
280
     0
281
     0
  0
CLASS
  1
ACDBPLACEHOLDER
  2
AcDbPlaceHolder
  3
ObjectDBX Classes
 90
        0
 91
        1
280
     0
281
     0
  0
CLASS
  1
LAYOUT
  2
AcDbLayout
  3
ObjectDBX Classes
 90
        0
 91
        3
280
     0
281
     0
  0
CLASS
  1
AMGSETTINGSOBJ
  2
AmgSettingsObj
  3
"AcadM|Product Description: AutoCAD Mechanical|Company: Autodesk"
 90
        0
 91
        4
280
     0
281
     0
  0
CLASS
  1
ACME_DOCUMENT
  2
AcMeDbDoc
  3
AcMeServices
 90
        0
 91
        2
280
     0
281
     0
  0
CLASS
  1
ACMESCOPE
  2
AcMeScope
  3
AcMeServices
 90
        0
 91
        1
280
     0
281
     0
  0
CLASS
  1
ACMECOMMANDHISTORY
  2
AcMeCommandHistory
  3
AcMeServices
 90
        0
 91
        1
280
     0
281
     0
  0
CLASS
  1
DICTIONARYVAR
  2
AcDbDictionaryVar
  3
ObjectDBX Classes
 90
        0
 91
        4
280
     0
281
     0
  0
CLASS
  1
ACIMSYSVARMAN
  2
AcImSysVarManager
  3
AcMeServices
 90
        0
 91
        6
280
     0
281
     0
  0
CLASS
  1
ACIMREALSYSVAR
  2
AcImRealSysVar
  3
AcMeServices
 90
        0
 91
       16
280
     0
281
     0
  0
CLASS
  1
ACIMINTSYSVAR
  2
AcImIntSysVar
  3
AcMeServices
 90
        0
 91
       48
280
     0
281
     0
  0
CLASS
  1
ACMEDRAWINGMAN
  2
AcMeDrawingMan
  3
AcMeServices
 90
        0
 91
        1
280
     0
281
     0
  0
CLASS
  1
ACMEVIEW
  2
AcMeView
  3
AcMeServices
 90
        0
 91
        1
280
     0
281
     0
  0
CLASS
  1
ACDBENTITYCACHE
  2
AcMeEntityCache
  3
AcMeServices
 90
        0
 91
        1
280
     0
281
     0
  0
CLASS
  1
GSMANAGER
  2
AcMeGSManager
  3
AcMeServices
 90
        0
 91
        1
280
     0
281
     0
  0
CLASS
  1
AMDTINTERNALREACTOR
  2
AmdtInternalReactor
  3
AcMeServices
 90
        0
 91
        2
280
     0
281
     0
  0
CLASS
  1
ACMESTATEMGR
  2
AcMeStateMgr
  3
AcMeServices
 90
        0
 91
        1
280
     0
281
     0
  0
CLASS
  1
ACGREFMASTER
  2
AcGrefMaster
  3
AcAttribServices
 90
        0
 91
        1
280
     0
281
     0
  0
CLASS
  1
ACME_DATABASE
  2
AcMeDbDatabase
  3
AcMeServices
 90
        0
 91
        1
280
     0
281
     0
  0
CLASS
  1
ACRFINSADJUSTERMGR
  2
AcRfInsAdjusterMgr
  3
AcMeServices
 90
        0
 91
        1
280
     0
281
     0
  0
CLASS
  1
ACGREFACADMASTER
  2
AcGrefacadMaster
  3
AcGrefServices
 90
        0
 91
        1
280
     0
281
     0
  0
CLASS
  1
AMIMASTER
  2
AmiMaster
  3
AmiServices
 90
        0
 91
        1
280
     0
281
     0
  0
CLASS
  1
ACMDATADICTIONARY
  2
AcmDataDictionary
  3
"AcmSymBB|Product Description: AutoCAD Mechanical|Company: Autodesk"
 90
        0
 91
        1
280
     0
281
     0
  0
CLASS
  1
ACMDATAENTRYBLOCK
  2
AcmDataEntryBlock
  3
"AcmSymBB|Product Description: AutoCAD Mechanical|Company: Autodesk"
 90
        0
 91
        1
280
     0
281
     0
  0
CLASS
  1
ACIMSTRSYSVAR
  2
AcImStrSysVar
  3
AcMeServices
 90
        0
 91
       11
280
     0
281
     0
  0
CLASS
  1
ACMSTANDARDISO
  2
AcmStandardISO
  3
"Amdt_StdImp|Product Description: AutoCAD Mechanical|Company: Autodesk"
 90
        0
 91
        2
280
     0
281
     0
  0
CLASS
  1
AMGOBJPROPCFG
  2
AmgObjPropCfg
  3
"AmgLay|Product Description: AutoCAD Mechanical|Company: Autodesk"
 90
        1
 91
        1
280
     0
281
     0
  0
CLASS
  1
AMDTEDGESTANDARDISO
  2
AmdtEdgeStdISO
  3
"Amdt_StdImp|Product Description: AutoCAD Mechanical|Company: Autodesk"
 90
        0
 91
        2
280
     0
281
     0
  0
CLASS
  1
ACMSURFSTANDARDISO
  2
AcmSurfTextStdISO
  3
"Amdt_StdImp|Product Description: AutoCAD Mechanical|Company: Autodesk"
 90
        0
 91
        2
280
     0
281
     0
  0
CLASS
  1
ACMFCFSTANDARDISO
  2
AcmFCFStdISO
  3
"Amdt_StdImp|Product Description: AutoCAD Mechanical|Company: Autodesk"
 90
        0
 91
        2
280
     0
281
     0
  0
CLASS
  1
ACMWELDSTANDARDISO
  2
AcmWeldingStdISO
  3
"Amdt_StdImp|Product Description: AutoCAD Mechanical|Company: Autodesk"
 90
        0
 91
        2
280
     0
281
     0
  0
CLASS
  1
ACMIDSTANDARDISO
  2
AcmIdStdISO
  3
"Amdt_StdImp|Product Description: AutoCAD Mechanical|Company: Autodesk"
 90
        0
 91
        2
280
     0
281
     0
  0
CLASS
  1
ACMDATUMSTANDARDISO
  2
AcmDatumStdISO
  3
"Amdt_StdImp|Product Description: AutoCAD Mechanical|Company: Autodesk"
 90
        0
 91
        2
280
     0
281
     0
  0
CLASS
  1
ACMBOMSTANDARDISO
  2
AcmBOMStdISO
  3
"Amdt_StdImp|Product Description: AutoCAD Mechanical|Company: Autodesk"
 90
        0
 91
        2
280
     0
281
     0
  0
CLASS
  1
ACMDETAILSTANDARDISO
  2
AmdtDetailSymStdISO
  3
"Amdt_StdImp|Product Description: AutoCAD Mechanical|Company: Autodesk"
 90
        0
 91
        2
280
     0
281
     0
  0
CLASS
  1
ACMSECTIONSTANDARDISO
  2
AmdtSectionSymStdISO
  3
"Amdt_StdImp|Product Description: AutoCAD Mechanical|Company: Autodesk"
 90
        0
 91
        2
280
     0
281
     0
  0
CLASS
  1
ACMCENTERLINESTANDARDISO
  2
AmdtCenterLineStdISO
  3
"Amdt_StdImp|Product Description: AutoCAD Mechanical|Company: Autodesk"
 90
        0
 91
        2
280
     0
281
     0
  0
CLASS
  1
ACAMGLAYSTD
  2
AcAmgLayStd
  3
"AmgLay|Product Description: AutoCAD Mechanical|Company: Autodesk"
 90
        0
 91
        3
280
     0
281
     0
  0
CLASS
  1
ACAMGDIMSTD
  2
AcAmgDimStd
  3
"AmgDim|Product Description: AutoCAD Mechanical|Company: Autodesk"
 90
        0
 91
        3
280
     0
281
     0
  0
CLASS
  1
ACAMGTITLESTD
  2
AcAmgTitleStd
  3
"AmgTitle|Product Description: AutoCAD Mechanical|Company: Autodesk"
 90
        0
 91
        3
280
     0
281
     0
  0
CLASS
  1
ACAMGFILTERDAT
  2
AcAmgFilterDat
  3
"AcadM|Product Description: AutoCAD Mechanical|Company: Autodesk"
 90
        0
 91
        6
280
     0
281
     0
  0
CLASS
  1
LAYER_INDEX
  2
AcDbLayerIndex
  3
ObjectDBX Classes
 90
        0
 91
        0
280
     0
281
     0
  0
CLASS
  1
IDBUFFER
  2
AcDbIdBuffer
  3
ObjectDBX Classes
 90
        0
 91
        0
280
     0
281
     0
  0
CLASS
  1
PLOTSETTINGS
  2
AcDbPlotSettings
  3
ObjectDBX Classes
 90
        0
 91
        1
280
     0
281
     0
  0
CLASS
  1
AMDTFORMULAUPDATEDISPATCHER
  2
AmdtFormulaUpdateDispatcher
  3
AcMeServices
 90
        0
 91
        1
280
     0
281
     0
  0
CLASS
  1
ACMSTANDARDANSI
  2
AcmStandardANSI
  3
"Amdt_StdImp|Product Description: AutoCAD Mechanical|Company: Autodesk"
 90
        0
 91
        1
280
     0
281
     0
  0
CLASS
  1
ACMSURFSTANDARDANSI
  2
AcmSurfTextStdANSI
  3
"Amdt_StdImp|Product Description: AutoCAD Mechanical|Company: Autodesk"
 90
        0
 91
        1
280
     0
281
     0
  0
CLASS
  1
ACMFCFSTANDARDANSI
  2
AcmFCFStdANSI
  3
"Amdt_StdImp|Product Description: AutoCAD Mechanical|Company: Autodesk"
 90
        0
 91
        1
280
     0
281
     0
  0
CLASS
  1
ACMWELDSTANDARDANSI
  2
AcmWeldingStdANSI
  3
"Amdt_StdImp|Product Description: AutoCAD Mechanical|Company: Autodesk"
 90
        0
 91
        1
280
     0
281
     0
  0
CLASS
  1
ACMIDSTANDARDANSI
  2
AcmIdStdANSI
  3
"Amdt_StdImp|Product Description: AutoCAD Mechanical|Company: Autodesk"
 90
        0
 91
        1
280
     0
281
     0
  0
CLASS
  1
ACMDATUMSTANDARDANSI
  2
AcmDatumStdANSI
  3
"Amdt_StdImp|Product Description: AutoCAD Mechanical|Company: Autodesk"
 90
        0
 91
        1
280
     0
281
     0
  0
CLASS
  1
ACMBOMSTANDARDANSI
  2
AcmBOMStdANSI
  3
"Amdt_StdImp|Product Description: AutoCAD Mechanical|Company: Autodesk"
 90
        0
 91
        1
280
     0
281
     0
  0
CLASS
  1
ACMDETAILSTANDARDANSI
  2
AmdtDetailSymStdANSI
  3
"Amdt_StdImp|Product Description: AutoCAD Mechanical|Company: Autodesk"
 90
        0
 91
        1
280
     0
281
     0
  0
CLASS
  1
ACMSECTIONSTANDARDANSI
  2
AmdtSectionSymStdANSI
  3
"Amdt_StdImp|Product Description: AutoCAD Mechanical|Company: Autodesk"
 90
        0
 91
        1
280
     0
281
     0
  0
CLASS
  1
ACMCENTERLINESTANDARDANSI
  2
AmdtCenterLineStdANSI
  3
"Amdt_StdImp|Product Description: AutoCAD Mechanical|Company: Autodesk"
 90
        0
 91
        1
280
     0
281
     0
  0
CLASS
  1
ACMBOM
  2
AcmBom
  3
"AcmSymBB|Product Description: AutoCAD Mechanical|Company: Autodesk"
 90
        0
 91
        1
280
     0
281
     0
  0
CLASS
  1
ACMDATAENTRYPART
  2
AcmDataEntryPart
  3
"AcmSymBB|Product Description: AutoCAD Mechanical|Company: Autodesk"
 90
        0
 91
        0
280
     0
281
     0
  0
CLASS
  1
ACMPARTREF
  2
AcmPartRef
  3
"AcmSymBB|Product Description: AutoCAD Mechanical|Company: Autodesk"
 90
     3071
 91
        0
280
     0
281
     1
  0
CLASS
  1
ACDBCIRCARCRES
  2
AcDbCircArcRes
  3
AcGrefServices
 90
        0
 91
        0
280
     0
281
     0
  0
CLASS
  1
ACMBOMROW
  2
AcmBomRow
  3
"AcmSymBB|Product Description: AutoCAD Mechanical|Company: Autodesk"
 90
        0
 91
        0
280
     0
281
     0
  0
CLASS
  1
ACMBALLOON
  2
AcmBalloon
  3
"AcmSymBB|Product Description: AutoCAD Mechanical|Company: Autodesk"
 90
     3071
 91
        0
280
     0
281
     1
  0
CLASS
  1
AMDTNOTE
  2
AmdtNote
  3
"AcmSymBB|Product Description: AutoCAD Mechanical|Company: Autodesk"
 90
     3071
 91
        0
280
     0
281
     1
  0
CLASS
  1
STDPART2D
  2
AmgStdPart
  3
"g3vace|Class: AmgStdPart|Product Description: AutoCAD Mechanical|Company: Autodesk"
 90
     3071
 91
        0
280
     0
281
     1
  0
CLASS
  1
ACDBSTDPARTRES_LINE
  2
AcDbStdPartRes_Line
  3
"g3vace|Class: AcDbStdPartRes_Line|Product Description: AutoCAD Mechanical|Company: Autodesk"
 90
        0
 91
        0
280
     0
281
     0
  0
CLASS
  1
ACMDATAENTRY
  2
AcmDataEntry
  3
"AcmSymBB|Product Description: AutoCAD Mechanical|Company: Autodesk"
 90
        0
 91
        9
280
     0
281
     0
  0
CLASS
  1
ACDBOPPOLYLINERES
  2
AcDbOpPolylineRes
  3
AcGrefServices
 90
        0
 91
        0
280
     0
281
     0
  0
CLASS
  1
ACMPARTLIST
  2
AcmPartList
  3
"AcmSymBB|Product Description: AutoCAD Mechanical|Company: Autodesk"
 90
     3071
 91
        0
280
     0
281
     1
  0
CLASS
  1
ACDBLINERES
  2
AcDbLineRes
  3
AcGrefServices
 90
        0
 91
        0
280
     0
281
     0
  0
CLASS
  1
ACRFINSADJ
  2
AcRfInsAdjuster
  3
AcMeServices
 90
        0
 91
        0
280
     0
281
     0
  0
CLASS
  1
AM_DRAWING_MGR
  2
AcDmDwgMgr
  3
AcMechDwgViewMgmt
 90
        0
 91
        1
280
     0
281
     0
  0
CLASS
  1
AM_DWG_DOCUMENT
  2
AcDmDwgDocument
  3
AcMechDwgViewMgmt
 90
        0
 91
        1
280
     0
281
     0
  0
CLASS
  1
AM_DWG_SHEET
  2
AcDmSheet
  3
AcMechDwgViewMgmt
 90
        0
 91
        2
280
     0
281
     0
  0
CLASS
  1
AM_VIEWDIMPARMAP
  2
AcDmViewDimParMap
  3
AcMechDwgViewMgmt
 90
        0
 91
        2
280
     0
281
     0
  0
CLASS
  1
AM_DWGMGR_NAME
  2
AcDmDwgMgrName
  3
AcMechDwgViewMgmt
 90
        0
 91
        1
280
     0
281
     0
  0
CLASS
  1
AMDTMENUSTATEMGR
  2
AmdtMenuStateMgr
  3
McadcomServices
 90
        0
 91
        1
280
     0
281
     0
  0
CLASS
  1
AMDTMCOMMENUSTATE
  2
AmdtMcomMenuState
  3
McadcomServices
 90
        0
 91
        1
280
     0
281
     0
  0
CLASS
  1
ASAPP
  2
AcAsAppObject
  3
AutoSurfServices
 90
        0
 91
        2
280
     0
281
     0
  0
CLASS
  1
IM_STATIC_MAN
  2
AcImStaticVarManager
  3
AcMeServices
 90
        0
 91
        1
280
     0
281
     0
  0
CLASS
  1
ACIMDBLSTATICVAR
  2
AcImDblStaticVar
  3
AcMeServices
 90
        0
 91
       20
280
     0
281
     0
  0
CLASS
  1
ACIMSTRSTATICVAR
  2
AcImStrStaticVar
  3
AcMeServices
 90
        0
 91
       12
280
     0
281
     0
  0
CLASS
  1
ACIMINTSTATICVAR
  2
AcImIntStaticVar
  3
AcMeServices
 90
        0
 91
       17
280
     0
281
     0
  0
CLASS
  1
ACASGREFMASTER
  2
AcAsGrefMaster
  3
AutoSurfResolverServices
 90
        0
 91
        2
280
     0
281
     0
  0
CLASS
  1
ACADGREFMODULE
  2
AcAdGrefModule
  3
AdGrefServices
 90
        0
 91
        2
280
     0
281
     0
  0
CLASS
  1
AMDTMAPISURFMOUDULE
  2
AmdtMApiSurfModule
  3
MApiSurfServices
 90
        0
 91
        2
280
     0
281
     0
  0
CLASS
  1
MAPIAMMOUDLE
  2
MApiAmModule
  3
MApiAmServices
 90
        0
 91
        1
280
     0
281
     0
  0
CLASS
  1
AMDTADMENUSTATE
  2
AmdtAdMenuState
  3
DesignerServices
 90
        0
 91
        1
280
     0
281
     0
  0
CLASS
  1
ADAPPL
  2
AcAdAppl
  3
DesignerServices
 90
        0
 91
        1
280
     0
281
     0
  0
CLASS
  1
DEPMGR
  2
AcAdDepMgr
  3
DesignerServices
 90
        0
 91
        1
280
     0
281
     0
  0
CLASS
  1
PARAMMGR
  2
AcAdParamMgr
  3
DesignerServices
 90
        0
 91
        1
280
     0
281
     0
  0
CLASS
  1
PARAMSCOPE
  2
AcAdParamScope
  3
DesignerServices
 90
        0
 91
        1
280
     0
281
     0
  0
CLASS
  1
NAMEDAPPL
  2
AcAdNamedAppl
  3
DesignerServices
 90
        0
 91
        1
280
     0
281
     0
  0
CLASS
  1
ADHNTMPLT
  2
AdHoleNoteTemplateMgr
  3
DesignerServices
 90
        0
 91
        0
280
     0
281
     0
  0
CLASS
  1
AM_HNTEMPLATE_MGR_NAME
  2
AdHoleNoteTemplateMgrName
  3
DesignerServices
 90
        0
 91
        0
280
     0
281
     0
  0
CLASS
  1
AMDTDMMENUSTATE
  2
AmdtDmMenuState
  3
AcMechDwgViewMgmt
 90
        0
 91
        1
280
     0
281
     0
  0
CLASS
  1
MAPIADMODULE
  2
MApiAdModule
  3
MApiAdServices
 90
        0
 91
        2
280
     0
281
     0
  0
CLASS
  1
AMDTAMMENUSTATE
  2
AmdtAmMenuState
  3
DesignerAssemblies
 90
        0
 91
        1
280
     0
281
     0
  0
CLASS
  1
ACAMPROJECT
  2
AcAmProject
  3
DesignerAssemblies
 90
        0
 91
        1
280
     0
281
     0
  0
CLASS
  1
ACAMGRCOMPDEF
  2
AcAmGrCompDef
  3
DesignerAssemblies
 90
        0
 91
        1
280
     0
281
     0
  0
CLASS
  1
ACCMCONTEXT
  2
AcCmContext
  3
DesignerAssemblies
 90
        0
 91
        1
280
     0
281
     0
  0
CLASS
  1
ACAMCOMPDEF
  2
AcAmCompDef
  3
DesignerAssemblies
 90
        0
 91
        1
280
     0
281
     0
  0
CLASS
  1
ACAMCOMPDEFMGR
  2
AcAmCompDefMgr
  3
DesignerAssemblies
 90
        0
 91
        1
280
     0
281
     0
  0
CLASS
  1
AMCONTEXTMGR
  2
AcAmContextMgr
  3
DesignerAssemblies
 90
        0
 91
        1
280
     0
281
     0
  0
CLASS
  1
ACAMCONTEXTMODELER
  2
AcAmContextModeler
  3
DesignerAssemblies
 90
        0
 91
        1
280
     0
281
     0
  0
CLASS
  1
CATALOGSTATE
  2
AcAmCatalogState
  3
DesignerAssemblies
 90
        0
 91
        1
280
     0
281
     0
  0
CLASS
  1
ACAMGRCOMPDEFSET
  2
AcAmGrCompDefSet
  3
DesignerAssemblies
 90
        0
 91
        1
280
     0
281
     0
  0
CLASS
  1
AMDTBROWSERDBTAB
  2
AmdtBrowserDbTab
  3
McadcomServices
 90
        0
 91
        1
280
     0
281
     0
  0
CLASS
  1
CBROWSERAPPOBJECT
  2
CBrowserAppObject
  3
McadcomServices
 90
        0
 91
        3
280
     0
281
     0
  0
CLASS
  1
DM_PLACEHOLDER
  2
AcDmSelsetPlaceholder
  3
AcMechDwgViewMgmt
 90
        0
 91
        1
280
     0
281
     0
  0
CLASS
  1
ACMPICKOBJ
  2
AcmPickEnt
  3
"AcmSymBB|Product Description: AutoCAD Mechanical|Company: Autodesk"
 90
        0
 91
        0
280
     0
281
     1
  0
CLASS
  1
MATERIAL
  2
AcDbMaterial
  3
ObjectDBX Classes
 90
     1024
 91
        3
280
     0
281
     0
  0
CLASS
  1
VISUALSTYLE
  2
AcDbVisualStyle
  3
ObjectDBX Classes
 90
     4095
 91
       16
280
     0
281
     0
  0
CLASS
  1
TABLESTYLE
  2
AcDbTableStyle
  3
ObjectDBX Classes
 90
     4095
 91
        1
280
     0
281
     0
  0
CLASS
  1
ACRFATTGENMGR
  2
AcRfAttGeneralMgr
  3
AcAttribServices
 90
        0
 91
        1
280
     0
281
     0
  0
CLASS
  1
ACRFOBJATTMGR
  2
AcRfObjAttGroupMgr
  3
AcAttribServices
 90
        0
 91
        1
280
     0
281
     0
  0
CLASS
  1
ACRFMCADAPIATTHOLDER
  2
AcRfMCADAPIAttHolder
  3
AcAttribServices
 90
        0
 91
        1
280
     0
281
     0
  0
CLASS
  1
AMDTSYSATTR
  2
AmdtSystemAttribute
  3
AcAttribServices
 90
        0
 91
        1
280
     0
281
     0
  0
CLASS
  1
ACMTHREADLINESTANDARDISO
  2
AmdtThreadLineStdISO
  3
"Amdt_StdImp|Product Description: AutoCAD Mechanical|Company: Autodesk"
 90
        0
 91
        2
280
     0
281
     0
  0
CLASS
  1
ACMNOTESTANDARDISO
  2
AmdtNoteStdISO
  3
"Amdt_StdImp|Product Description: AutoCAD Mechanical|Company: Autodesk"
 90
        0
 91
        2
280
     0
281
     0
  0
CLASS
  1
AMDTNOTETEMPLATEDB
  2
AmdtNoteTemplateDB
  3
AMDT_STDIMP_MODULE_NAME
 90
        0
 91
       18
280
     0
281
     0
  0
CLASS
  1
ACMTAPERSTANDARDISO
  2
AcmTaperStdISO
  3
"Amdt_StdImp|Product Description: AutoCAD Mechanical|Company: Autodesk"
 90
        0
 91
        2
280
     0
281
     0
  0
CLASS
  1
ACMTHREADLINESTANDARDANSI
  2
AmdtThreadLineStdANSI
  3
"Amdt_StdImp|Product Description: AutoCAD Mechanical|Company: Autodesk"
 90
        0
 91
        1
280
     0
281
     0
  0
CLASS
  1
ACMNOTESTANDARDANSI
  2
AmdtNoteStdANSI
  3
"Amdt_StdImp|Product Description: AutoCAD Mechanical|Company: Autodesk"
 90
        0
 91
        1
280
     0
281
     0
  0
CLASS
  1
ACMTAPERSTANDARDANSI
  2
AcmTaperStdANSI
  3
"Amdt_StdImp|Product Description: AutoCAD Mechanical|Company: Autodesk"
 90
        0
 91
        1
280
     0
281
     0
  0
CLASS
  1
CAMSSTRUCTBTNSTATE
  2
StructBtnState
  3
L"DesignerAssemblies"
 90
        0
 91
        1
280
     0
281
     0
  0
CLASS
  1
SORTENTSTABLE
  2
AcDbSortentsTable
  3
ObjectDBX Classes
 90
        0
 91
        2
280
     0
281
     0
  0
CLASS
  1
DIMASSOC
  2
AcDbDimAssoc
  3
"AcDbDimAssoc|Product Desc:     AcDim ARX App For Dimension|Company:          Autodesk, Inc.|WEB Address:      www.autodesk.com"
 90
        0
 91
        9
280
     0
281
     0
  0
ENDSEC
  0
SECTION
  2
TABLES
  0
TABLE
  2
VPORT
  5
8
330
0
100
AcDbSymbolTable
 70
     1
  0
VPORT
  5
C444
330
8
100
AcDbSymbolTableRecord
100
AcDbViewportTableRecord
  2
*Active
 70
     0
 10
0.0
 20
0.0
 11
1.0
 21
1.0
 12
259.0240901047724
 22
78.8787206783665
 13
0.0
 23
0.0
 14
2.5
 24
2.5
 15
10.0
 25
10.0
 16
0.0
 26
0.0
 36
1.0
 17
0.0
 27
0.0
 37
0.0
 40
470.0154634986944
 41
1.595971563981042
 42
50.0
 43
-1370.695619172058
 44
-1370.695619172058
 50
0.0
 51
0.0
 71
    16
 72
   100
 73
     1
 74
     3
 75
     0
 76
     0
 77
     0
 78
     0
281
     0
 65
     0
110
0.0
120
0.0
130
0.0
111
1.0
121
0.0
131
0.0
112
0.0
122
1.0
132
0.0
 79
     0
146
0.0
  0
ENDTAB
  0
TABLE
  2
LTYPE
  5
5
330
0
100
AcDbSymbolTable
 70
    34
  0
LTYPE
  5
14
330
5
100
AcDbSymbolTableRecord
100
AcDbLinetypeTableRecord
  2
ByBlock
 70
     0
  3

 72
    65
 73
     0
 40
0.0
  0
LTYPE
  5
15
330
5
100
AcDbSymbolTableRecord
100
AcDbLinetypeTableRecord
  2
ByLayer
 70
     0
  3

 72
    65
 73
     0
 40
0.0
  0
LTYPE
  5
16
330
5
100
AcDbSymbolTableRecord
100
AcDbLinetypeTableRecord
  2
Continuous
 70
     0
  3
Solid line
 72
    65
 73
     0
 40
0.0
  0
LTYPE
  5
4F
330
5
100
AcDbSymbolTableRecord
100
AcDbLinetypeTableRecord
  2
AM_ISO02W050
 70
     0
  3
__ __ __ __ __ __ __ __ __ __ __ __ __ __ __
 72
    65
 73
     2
 40
7.5
 49
6.0
 74
     0
 49
-1.5
 74
     0
  0
LTYPE
  5
52
330
5
100
AcDbSymbolTableRecord
100
AcDbLinetypeTableRecord
  2
Amconstr
 70
     0
  3
_______________________
 72
    65
 73
     2
 40
9999.0
 49
9999.0
 74
     0
 49
0.0
 74
     0
  0
LTYPE
  5
64
330
5
100
AcDbSymbolTableRecord
100
AcDbLinetypeTableRecord
  2
ACISOWELD
 70
     0
  3
_ _ _ _ _
 72
    65
 73
     2
 40
2.0
 49
2.0
 74
     0
 49
-1.0
 74
     0
  0
LTYPE
  5
65
330
5
100
AcDbSymbolTableRecord
100
AcDbLinetypeTableRecord
  2
ACISOTGB
 70
     0
  3
__ . . __ . .
 72
    65
 73
     6
 40
9.0
 49
4.0
 74
     0
 49
-1.0
 74
     0
 49
1.0
 74
     0
 49
-1.0
 74
     0
 49
1.0
 74
     0
 49
-1.0
 74
     0
  0
LTYPE
  5
66
330
5
100
AcDbSymbolTableRecord
100
AcDbLinetypeTableRecord
  2
ACISOTGL
 70
     0
  3
_ _ _ _ _
 72
    65
 73
     2
 40
3.0
 49
2.0
 74
     0
 49
-1.0
 74
     0
  0
LTYPE
  5
69
330
5
100
AcDbSymbolTableRecord
100
AcDbLinetypeTableRecord
  2
CENTER
 70
     0
  3
__ . __
 72
    65
 73
     4
 40
7.0
 49
4.0
 74
     0
 49
-1.0
 74
     0
 49
1.0
 74
     0
 49
-1.0
 74
     0
  0
LTYPE
  5
A6E
330
5
100
AcDbSymbolTableRecord
100
AcDbLinetypeTableRecord
  2
PHANTOM2
 70
     0
  3
Phantom (.5x) ___ _ _ ___ _ _ ___ _ _ ___ _ _
 72
    65
 73
     6
 40
31.75
 49
15.875
 74
     0
 49
-3.174999999999999
 74
     0
 49
3.174999999999999
 74
     0
 49
-3.174999999999999
 74
     0
 49
3.174999999999999
 74
     0
 49
-3.174999999999999
 74
     0
  0
LTYPE
  5
FA3
330
5
100
AcDbSymbolTableRecord
100
AcDbLinetypeTableRecord
  2
ACANSTGB
 70
     0
  3
__ . . __ . .
 72
    65
 73
     6
 40
0.35433070866
 49
0.15748031496
 74
     0
 49
-0.03937007874
 74
     0
 49
0.03937007874
 74
     0
 49
-0.03937007874
 74
     0
 49
0.03937007874
 74
     0
 49
-0.03937007874
 74
     0
  0
LTYPE
  5
FA4
330
5
100
AcDbSymbolTableRecord
100
AcDbLinetypeTableRecord
  2
ACANSTGL
 70
     0
  3
_ _ _ _ _
 72
    65
 73
     2
 40
0.11811023622
 49
0.07874015748
 74
     0
 49
-0.03937007874
 74
     0
  0
LTYPE
  5
4DED
330
5
100
AcDbSymbolTableRecord
100
AcDbLinetypeTableRecord
  2
中線
 70
     0
  3
___________________
 72
    65
 73
     2
 40
2.0
 49
1.0
 74
     0
 49
1.0
 74
     0
  0
LTYPE
  5
4DF6
330
5
100
AcDbSymbolTableRecord
100
AcDbLinetypeTableRecord
  2
細線
 70
     0
  3
___________________
 72
    65
 73
     2
 40
2.0
 49
1.0
 74
     0
 49
1.0
 74
     0
  0
LTYPE
  5
4DF7
330
5
100
AcDbSymbolTableRecord
100
AcDbLinetypeTableRecord
  2
太線
 70
     0
  3
___________________
 72
    65
 73
     2
 40
2.0
 49
1.0
 74
     0
 49
1.0
 74
     0
  0
LTYPE
  5
4EA7
330
5
100
AcDbSymbolTableRecord
100
AcDbLinetypeTableRecord
  2
文字
 70
     0
  3
_________________
 72
    65
 73
     2
 40
2.0
 49
1.0
 74
     0
 49
1.0
 74
     0
  0
LTYPE
  5
4EA9
330
5
100
AcDbSymbolTableRecord
100
AcDbLinetypeTableRecord
  2
寸法線
 70
     0
  3
________________
 72
    65
 73
     2
 40
2.0
 49
1.0
 74
     0
 49
1.0
 74
     0
  0
LTYPE
  5
4F12
330
5
100
AcDbSymbolTableRecord
100
AcDbLinetypeTableRecord
  2
ハッチング
 70
     0
  3
_________________
 72
    65
 73
     2
 40
2.0
 49
1.0
 74
     0
 49
1.0
 74
     0
  0
LTYPE
  5
5180
330
5
100
AcDbSymbolTableRecord
100
AcDbLinetypeTableRecord
  2
陰線1
 70
     0
  3
__ __ __ __
 72
    65
 73
     2
 40
4.0
 49
2.2
 74
     0
 49
-1.8
 74
     0
  0
LTYPE
  5
5182
330
5
100
AcDbSymbolTableRecord
100
AcDbLinetypeTableRecord
  2
切断線
 70
     0
  3
/\/-/\/-/\/-/\/-/\/-/\/
 72
    65
 73
     2
 40
11.0001
 49
0.0001
 74
     4
 75
   135
340
56
 46
0.04
 50
0.0
 44
0.0
 45
0.0
 49
-11.0
 74
     0
  0
LTYPE
  5
5183
330
5
100
AcDbSymbolTableRecord
100
AcDbLinetypeTableRecord
  2
想像線1
 70
     0
  3
__ __ __ _____ __ __ ____
 72
    65
 73
     6
 40
14.5
 49
6.0
 74
     0
 49
-1.5
 74
     0
 49
2.0
 74
     0
 49
-1.5
 74
     0
 49
2.0
 74
     0
 49
-1.5
 74
     0
  0
LTYPE
  5
5185
330
5
100
AcDbSymbolTableRecord
100
AcDbLinetypeTableRecord
  2
中心線1
 70
     0
  3
___ _ ___ _ ___
 72
    65
 73
     4
 40
18.0
 49
12.0
 74
     0
 49
-2.0
 74
     0
 49
2.0
 74
     0
 49
-2.0
 74
     0
  0
LTYPE
  5
5188
330
5
100
AcDbSymbolTableRecord
100
AcDbLinetypeTableRecord
  2
補助線
 70
     0
  3
______________
 72
    65
 73
     2
 40
2.0
 49
1.0
 74
     0
 49
1.0
 74
     0
  0
LTYPE
  5
C49C
330
5
100
AcDbSymbolTableRecord
100
AcDbLinetypeTableRecord
  2
HIDDEN
 70
     0
  3
Hidden __ __ __ __ __ __ __ __ __ __ __ __ __ _
 72
    65
 73
     2
 40
9.524999999999998
 49
6.349999999999999
 74
     0
 49
-3.174999999999999
 74
     0
  0
LTYPE
  5
C543
330
5
100
AcDbSymbolTableRecord
100
AcDbLinetypeTableRecord
  2
AM_ISO08W050
 70
     0
  3
____ . ____ . ____ . ____ . ____ . ____ . ____
 72
    65
 73
     4
 40
18.0
 49
12.0
 74
     0
 49
-1.5
 74
     0
 49
3.0
 74
     0
 49
-1.5
 74
     0
  0
LTYPE
  5
C544
330
5
100
AcDbSymbolTableRecord
100
AcDbLinetypeTableRecord
  2
AM_ISO09W050
 70
     0
  3
_____ . . _____ . . _____ . . ____ .. ____
 72
    65
 73
     6
 40
22.5
 49
12.0
 74
     0
 49
-1.5
 74
     0
 49
3.0
 74
     0
 49
-1.5
 74
     0
 49
3.0
 74
     0
 49
-1.5
 74
     0
  0
LTYPE
  5
C545
330
5
100
AcDbSymbolTableRecord
100
AcDbLinetypeTableRecord
  2
AM_ISO08W050x2
 70
     0
  3
__ . __ . __ . __ . __ . __
 72
    65
 73
     4
 40
9.0
 49
6.0
 74
     0
 49
-0.75
 74
     0
 49
1.5
 74
     0
 49
-0.75
 74
     0
  0
LTYPE
  5
C546
330
5
100
AcDbSymbolTableRecord
100
AcDbLinetypeTableRecord
  2
AM_ISO02W050x2
 70
     0
  3
 _ _ _ _ _ _ _ _ _ _ _ _
 72
    65
 73
     2
 40
3.75
 49
3.0
 74
     0
 49
-0.75
 74
     0
  0
LTYPE
  5
C547
330
5
100
AcDbSymbolTableRecord
100
AcDbLinetypeTableRecord
  2
Amzigzag
 70
     0
  3
/\/-/\/-/\/-/\/-/\/-/\/
 72
    65
 73
     2
 40
11.0001
 49
0.0001
 74
     4
 75
   135
340
56
 46
0.04
 50
0.0
 44
0.0
 45
0.0
 49
-11.0
 74
     0
  0
LTYPE
  5
C7E7
330
5
100
AcDbSymbolTableRecord
100
AcDbLinetypeTableRecord
  2
genzigzag
 70
     0
  3
/\/-/\/-/\/-/\/-/\/-/\/
 72
    65
 73
     2
 40
12.0001
 49
0.0001
 74
     4
 75
   135
340
C7EB
 46
2.0
 50
0.0
 44
0.0
 45
0.0
 49
-12.0
 74
     0
  0
LTYPE
  5
DBC9
330
5
100
AcDbSymbolTableRecord
100
AcDbLinetypeTableRecord
  2
DASHED
 70
     0
  3
__ __ __ __ __ __ __ __ __ __ __ __ __ __ __
 72
    65
 73
     2
 40
3.5
 49
2.0
 74
     0
 49
-1.5
 74
     0
  0
LTYPE
  5
DBCA
330
5
100
AcDbSymbolTableRecord
100
AcDbLinetypeTableRecord
  2
PHANTOM
 70
     0
  3
_____ _ _ _____ _ _ _____ _ _ _____ _ _ ____  
 72
    65
 73
     6
 40
15.5
 49
8.0
 74
     0
 49
-1.5
 74
     0
 49
1.5
 74
     0
 49
-1.5
 74
     0
 49
1.5
 74
     0
 49
-1.5
 74
     0
  0
LTYPE
  5
DBCB
330
5
100
AcDbSymbolTableRecord
100
AcDbLinetypeTableRecord
  2
CENTER2
 70
     0
  3
Center (.5x) ___ _ ___ _ ___ _ ___ _ ___ _ ___
 72
    65
 73
     4
 40
1.125
 49
0.75
 74
     0
 49
-0.125
 74
     0
 49
0.125
 74
     0
 49
-0.125
 74
     0
  0
LTYPE
  5
DBCC
330
5
100
AcDbSymbolTableRecord
100
AcDbLinetypeTableRecord
  2
HIDDEN2
 70
     0
  3
Hidden (.5x) _ _ _ _ _ _ _ _ _ _ _ _ _ _ _ _ _
 72
    65
 73
     2
 40
0.1875
 49
0.125
 74
     0
 49
-0.0625
 74
     0
  0
LTYPE
  5
DBCD
330
5
100
AcDbSymbolTableRecord
100
AcDbLinetypeTableRecord
  2
Amzigzag2
 70
     0
  3
/\/-/\/-/\/-/\/-/\/-/\/
 72
    65
 73
     2
 40
0.4401
 49
0.0001
 74
     4
 75
   136
340
C7EB
 46
0.0016
 50
0.0
 44
0.0
 45
0.0
 49
-0.4400000000000001
 74
     0
  0
LTYPE
  5
E796
330
5
100
AcDbSymbolTableRecord
100
AcDbLinetypeTableRecord
  2
破断線
 70
     0
  3
/\/-/\/-/\/-/\/-/\/-/\/
 72
    65
 73
     2
 40
0.4401
 49
0.0001
 74
     0
 49
-0.4400000000000002
 74
     0
  0
ENDTAB
  0
TABLE
  2
LAYER
  5
2
102
{ACAD_XDICTIONARY
360
3F95
102
}
330
0
100
AcDbSymbolTable
 70
    27
  0
LAYER
  5
10
330
2
100
AcDbSymbolTableRecord
100
AcDbLayerTableRecord
  2
0
 70
     0
 62
     7
  6
Continuous
370
    -3
390
F
  0
LAYER
  5
6D1
330
2
100
AcDbSymbolTableRecord
100
AcDbLayerTableRecord
  2
Defpoints
 70
     0
 62
     7
  6
Continuous
290
     0
370
    -3
390
F
  0
LAYER
  5
A46
330
2
100
AcDbSymbolTableRecord
100
AcDbLayerTableRecord
  2
size
 70
     0
 62
     5
  6
Continuous
290
     0
370
    30
390
F
  0
LAYER
  5
A47
330
2
100
AcDbSymbolTableRecord
100
AcDbLayerTableRecord
  2
waku
 70
     0
 62
     7
  6
Continuous
370
    40
390
F
  0
LAYER
  5
A48
330
2
100
AcDbSymbolTableRecord
100
AcDbLayerTableRecord
  2
AM_6
 70
     0
 62
     2
  6
文字
370
    20
390
F
  0
LAYER
  5
FA5
330
2
100
AcDbSymbolTableRecord
100
AcDbLayerTableRecord
  2
1
 70
     0
 62
     7
  6
Continuous
370
    -3
390
F
  0
LAYER
  5
3A31
330
2
100
AcDbSymbolTableRecord
100
AcDbLayerTableRecord
  2
hyosen1
 70
     0
 62
     1
  6
Continuous
370
    30
390
F
  0
LAYER
  5
5765
330
2
100
AcDbSymbolTableRecord
100
AcDbLayerTableRecord
  2
hyomoji
 70
     0
 62
     2
  6
Continuous
370
    20
390
F
  0
LAYER
  5
591A
330
2
100
AcDbSymbolTableRecord
100
AcDbLayerTableRecord
  2
hyosen2
 70
     0
 62
     1
  6
Continuous
370
    20
390
F
  0
LAYER
  5
5F85
330
2
100
AcDbSymbolTableRecord
100
AcDbLayerTableRecord
  2
AM_0
 70
     0
 62
     7
  6
中線
370
    30
390
F
  0
LAYER
  5
5F89
330
2
100
AcDbSymbolTableRecord
100
AcDbLayerTableRecord
  2
AM_4
 70
     0
 62
     3
  6
補助線
370
    20
390
F
  0
LAYER
  5
5F8C
330
2
100
AcDbSymbolTableRecord
100
AcDbLayerTableRecord
  2
AM_8
 70
     0
 62
     1
  6
ハッチング
370
    18
390
F
  0
LAYER
  5
642B
330
2
100
AcDbSymbolTableRecord
100
AcDbLayerTableRecord
  2
AM_CL
 70
     0
 62
     1
  6
Amconstr
370
    20
390
F
  0
LAYER
  5
75AE
330
2
100
AcDbSymbolTableRecord
100
AcDbLayerTableRecord
  2
busen1
 70
     0
 62
    30
  6
Continuous
370
    40
390
F
  0
LAYER
  5
75AF
330
2
100
AcDbSymbolTableRecord
100
AcDbLayerTableRecord
  2
busen2
 70
     0
 62
     2
  6
Continuous
370
    20
390
F
  0
LAYER
  5
BFAA
330
2
100
AcDbSymbolTableRecord
100
AcDbLayerTableRecord
  2
AM_2
 70
     0
 62
     1
  6
細線
370
    20
390
F
  0
LAYER
  5
BFAB
330
2
100
AcDbSymbolTableRecord
100
AcDbLayerTableRecord
  2
AM_5
 70
     0
 62
     3
  6
寸法線
370
    18
390
F
  0
LAYER
  5
BFAC
330
2
100
AcDbSymbolTableRecord
100
AcDbLayerTableRecord
  2
AM_7
 70
     0
 62
     4
  6
中心線1
370
    15
390
F
  0
LAYER
  5
C5FA
330
2
100
AcDbSymbolTableRecord
100
AcDbLayerTableRecord
  2
AM_1
 70
     0
 62
    30
  6
太線
370
    40
390
F
  0
LAYER
  5
C7E8
330
2
100
AcDbSymbolTableRecord
100
AcDbLayerTableRecord
  2
AM_3
 70
     0
 62
     6
  6
陰線1
370
    20
390
F
  0
LAYER
  5
C7E9
330
2
100
AcDbSymbolTableRecord
100
AcDbLayerTableRecord
  2
AM_11
 70
     0
 62
     2
  6
想像線1
370
    20
390
F
  0
LAYER
  5
C7EA
330
2
100
AcDbSymbolTableRecord
100
AcDbLayerTableRecord
  2
AM_12
 70
     0
 62
     7
  6
Continuous
290
     0
370
    20
390
F
  0
LAYER
  5
C82C
330
2
100
AcDbSymbolTableRecord
100
AcDbLayerTableRecord
  2
AM_10
 70
     0
 62
     7
  6
切断線
370
    18
390
F
  0
LAYER
  5
CA36
330
2
100
AcDbSymbolTableRecord
100
AcDbLayerTableRecord
  2
△
 70
     0
 62
   150
  6
中線
370
    15
390
F
1001
AcAecLayerStandard
1000

1000

  0
LAYER
  5
E797
330
2
100
AcDbSymbolTableRecord
100
AcDbLayerTableRecord
  2
PV0001_1
 70
     0
 62
     7
  6
Continuous
370
    -3
390
F
  0
LAYER
  5
E96E
330
2
100
AcDbSymbolTableRecord
100
AcDbLayerTableRecord
  2
実線
 70
     0
 62
     3
  6
Continuous
370
    -3
390
F
  0
LAYER
  5
E96F
330
2
100
AcDbSymbolTableRecord
100
AcDbLayerTableRecord
  2
寸法線
 70
     0
 62
     2
  6
Continuous
370
    -3
390
F
  0
ENDTAB
  0
TABLE
  2
STYLE
  5
3
330
0
100
AcDbSymbolTable
 70
     8
  0
STYLE
  5
11
330
3
100
AcDbSymbolTableRecord
100
AcDbTextStyleTableRecord
  2
STANDARD
 70
     0
 40
0.0
 41
0.7
 50
0.0
 71
     0
 42
3.2
  3
romans.shx
  4
extfont.shx
  0
STYLE
  5
56
330
3
100
AcDbSymbolTableRecord
100
AcDbTextStyleTableRecord
  2

 70
     1
 40
0.0
 41
1.0
 50
0.0
 71
     0
 42
2.5
  3
ltypeshp.shx
  4

  0
STYLE
  5
58
330
3
100
AcDbSymbolTableRecord
100
AcDbTextStyleTableRecord
  2
ACISOTS
 70
     0
 40
1.0
 41
1.0
 50
0.0
 71
     0
 42
2.5
  3
isocp.shx
  4
extfont.shx
  0
STYLE
  5
63
330
3
100
AcDbSymbolTableRecord
100
AcDbTextStyleTableRecord
  2
ACISOGDT
 70
     0
 40
0.0
 41
1.0
 50
0.0
 71
     0
 42
2.5
  3
amgdt.shx
  4

  0
STYLE
  5
A74
330
3
100
AcDbSymbolTableRecord
100
AcDbTextStyleTableRecord
  2
DIM
 70
     0
 40
0.0
 41
1.0
 50
0.0
 71
     0
 42
2.5
  3
monotxt.shx
  4
extfont.shx
  0
STYLE
  5
FA7
330
3
100
AcDbSymbolTableRecord
100
AcDbTextStyleTableRecord
  2
ACANSTS
 70
     0
 40
1.0
 41
1.0
 50
0.0
 71
     0
 42
0.2
  3
romans.shx
  4
extfont.shx
  0
STYLE
  5
FA8
330
3
100
AcDbSymbolTableRecord
100
AcDbTextStyleTableRecord
  2
ACANSGDT
 70
     0
 40
0.0
 41
1.0
 50
0.0
 71
     0
 42
0.2
  3
amgdtans.shx
  4

  0
STYLE
  5
C7EB
330
3
100
AcDbSymbolTableRecord
100
AcDbTextStyleTableRecord
  2

 70
     1
 40
0.0
 41
1.0
 50
0.0
 71
     0
 42
3.2
  3
genltshp.shx
  4

  0
ENDTAB
  0
TABLE
  2
VIEW
  5
6
330
0
100
AcDbSymbolTable
 70
     6
  0
VIEW
  5
AE1
330
6
100
AcDbSymbolTableRecord
100
AcDbViewTableRecord
  2
AM_VIEW1
 70
     0
 40
105.0
 10
90.503120124805
 20
157.5
 41
181.00624024961
 11
0.0
 21
0.0
 31
1.0
 12
0.0
 22
0.0
 32
0.0
 42
50.0
 43
-1370.695619172058
 44
-1370.695619172058
 50
0.0
 71
    16
281
     0
 72
     0
  0
VIEW
  5
AE2
330
6
100
AcDbSymbolTableRecord
100
AcDbViewTableRecord
  2
AM_VIEW2
 70
     0
 40
105.0
 10
206.496879875195
 20
157.5
 41
181.00624024961
 11
0.0
 21
0.0
 31
1.0
 12
0.0
 22
0.0
 32
0.0
 42
50.0
 43
-1370.695619172058
 44
-1370.695619172058
 50
0.0
 71
    16
281
     0
 72
     0
  0
VIEW
  5
AE3
330
6
100
AcDbSymbolTableRecord
100
AcDbViewTableRecord
  2
AM_VIEW3
 70
     0
 40
105.0
 10
90.503120124805
 20
52.5
 41
181.00624024961
 11
0.0
 21
0.0
 31
1.0
 12
0.0
 22
0.0
 32
0.0
 42
50.0
 43
-1370.695619172058
 44
-1370.695619172058
 50
0.0
 71
    16
281
     0
 72
     0
  0
VIEW
  5
AE4
330
6
100
AcDbSymbolTableRecord
100
AcDbViewTableRecord
  2
AM_VIEW4
 70
     0
 40
105.0
 10
206.496879875195
 20
52.5
 41
181.00624024961
 11
0.0
 21
0.0
 31
1.0
 12
0.0
 22
0.0
 32
0.0
 42
50.0
 43
-1370.695619172058
 44
-1370.695619172058
 50
0.0
 71
    16
281
     0
 72
     0
  0
VIEW
  5
AE5
330
6
100
AcDbSymbolTableRecord
100
AcDbViewTableRecord
  2
AM_VIEW5
 70
     0
 40
105.0
 10
148.5
 20
105.0
 41
181.0062402496099
 11
0.0
 21
0.0
 31
1.0
 12
0.0
 22
0.0
 32
0.0
 42
50.0
 43
-1370.695619172058
 44
-1370.695619172058
 50
0.0
 71
    16
281
     0
 72
     0
  0
VIEW
  5
AE6
330
6
100
AcDbSymbolTableRecord
100
AcDbViewTableRecord
  2
AM_VIEW6
 70
     0
 40
209.9979
 10
148.5
 20
105.0
 41
362.008860374415
 11
0.0
 21
0.0
 31
1.0
 12
0.0
 22
0.0
 32
0.0
 42
50.0
 43
-1370.695619172058
 44
-1370.695619172058
 50
0.0
 71
    16
281
     0
 72
     0
  0
ENDTAB
  0
TABLE
  2
UCS
  5
7
330
0
100
AcDbSymbolTable
 70
     0
  0
ENDTAB
  0
TABLE
  2
APPID
  5
9
330
0
100
AcDbSymbolTable
 70
    55
  0
APPID
  5
12
330
9
100
AcDbSymbolTableRecord
100
AcDbRegAppTableRecord
  2
ACAD
 70
     0
  0
APPID
  5
30
330
9
100
AcDbSymbolTableRecord
100
AcDbRegAppTableRecord
  2
MCAD_NO_VIS
 70
     0
  0
APPID
  5
31
330
9
100
AcDbSymbolTableRecord
100
AcDbRegAppTableRecord
  2
ACAD_TEMP_GRAPHIC
 70
     0
  0
APPID
  5
44
330
9
100
AcDbSymbolTableRecord
100
AcDbRegAppTableRecord
  2
ACATTRIBSERVICES
 70
     0
  0
APPID
  5
7A1
330
9
100
AcDbSymbolTableRecord
100
AcDbRegAppTableRecord
  2
GENIUS_GENDIMSH_14
 70
     0
  0
APPID
  5
A49
330
9
100
AcDbSymbolTableRecord
100
AcDbRegAppTableRecord
  2
GENIUS_GENREC_14
 70
     0
  0
APPID
  5
A4A
330
9
100
AcDbSymbolTableRecord
100
AcDbRegAppTableRecord
  2
GENIUS_GENOBJ-N-REC_13
 70
     0
  0
APPID
  5
A4B
330
9
100
AcDbSymbolTableRecord
100
AcDbRegAppTableRecord
  2
GENIUS_GENODEF_13
 70
     0
  0
APPID
  5
A4C
330
9
100
AcDbSymbolTableRecord
100
AcDbRegAppTableRecord
  2
DCO15
 70
     0
  0
APPID
  5
ADC
330
9
100
AcDbSymbolTableRecord
100
AcDbRegAppTableRecord
  2
GENIUS_GENOLIS_13
 70
     0
  0
APPID
  5
ADD
330
9
100
AcDbSymbolTableRecord
100
AcDbRegAppTableRecord
  2
GENIUS_GENOENT_13
 70
     0
  0
APPID
  5
ADE
330
9
100
AcDbSymbolTableRecord
100
AcDbRegAppTableRecord
  2
GENIUS_GENOBJ-N-TIT_13
 70
     0
  0
APPID
  5
ADF
330
9
100
AcDbSymbolTableRecord
100
AcDbRegAppTableRecord
  2
GENIUS_GENTITLE_13
 70
     0
  0
APPID
  5
AE0
330
9
100
AcDbSymbolTableRecord
100
AcDbRegAppTableRecord
  2
GENIUS_GENOREF_13
 70
     0
  0
APPID
  5
AE7
330
9
100
AcDbSymbolTableRecord
100
AcDbRegAppTableRecord
  2
GENIUS_GENSCREG_15
 70
     0
  0
APPID
  5
AE8
330
9
100
AcDbSymbolTableRecord
100
AcDbRegAppTableRecord
  2
GENIUS_GENOBJ-N-SDF_13
 70
     0
  0
APPID
  5
FAF
330
9
100
AcDbSymbolTableRecord
100
AcDbRegAppTableRecord
  2
GENIUS_GENBLLY_14
 70
     0
  0
APPID
  5
FB0
330
9
100
AcDbSymbolTableRecord
100
AcDbRegAppTableRecord
  2
GENIUS_GENTRA_14
 70
     0
  0
APPID
  5
1285
330
9
100
AcDbSymbolTableRecord
100
AcDbRegAppTableRecord
  2
GENIUS_GENDTOL_13
 70
     0
  0
APPID
  5
142D
330
9
100
AcDbSymbolTableRecord
100
AcDbRegAppTableRecord
  2
GENIUS_GENOBJ-N-CEN_13
 70
     0
  0
APPID
  5
1AB5
330
9
100
AcDbSymbolTableRecord
100
AcDbRegAppTableRecord
  2
GENIUS_GENOBJ-N-CRS_13
 70
     0
  0
APPID
  5
1B36
330
9
100
AcDbSymbolTableRecord
100
AcDbRegAppTableRecord
  2
GENIUS_GENOBJ-N-HTC_13
 70
     0
  0
APPID
  5
1B37
330
9
100
AcDbSymbolTableRecord
100
AcDbRegAppTableRecord
  2
GENIUS_GENHATCH_13
 70
     0
  0
APPID
  5
216D
330
9
100
AcDbSymbolTableRecord
100
AcDbRegAppTableRecord
  2
GENIUS_GENOBJ-N-FIL_13
 70
     0
  0
APPID
  5
2356
330
9
100
AcDbSymbolTableRecord
100
AcDbRegAppTableRecord
  2
GEVID990412420
 70
     0
  0
APPID
  5
2357
330
9
100
AcDbSymbolTableRecord
100
AcDbRegAppTableRecord
  2
GEVDC
 70
     0
  0
APPID
  5
2358
330
9
100
AcDbSymbolTableRecord
100
AcDbRegAppTableRecord
  2
GEVCON
 70
     0
  0
APPID
  5
235B
330
9
100
AcDbSymbolTableRecord
100
AcDbRegAppTableRecord
  2
GEVRADREF
 70
     0
  0
APPID
  5
2360
330
9
100
AcDbSymbolTableRecord
100
AcDbRegAppTableRecord
  2
GENIUS_GENBH_13
 70
     0
  0
APPID
  5
2362
330
9
100
AcDbSymbolTableRecord
100
AcDbRegAppTableRecord
  2
GENIUS_GENOBJ-NBEHI-BHF_13
 70
     0
  0
APPID
  5
2364
330
9
100
AcDbSymbolTableRecord
100
AcDbRegAppTableRecord
  2
GENIUS_GENOBJ-NBEHI-BHB_13
 70
     0
  0
APPID
  5
2379
330
9
100
AcDbSymbolTableRecord
100
AcDbRegAppTableRecord
  2
GENIUS_GENOBJ-F-SCPASSM_13
 70
     0
  0
APPID
  5
3D74
330
9
100
AcDbSymbolTableRecord
100
AcDbRegAppTableRecord
  2
GENIUS_GENDIM_13
 70
     0
  0
APPID
  5
3D76
330
9
100
AcDbSymbolTableRecord
100
AcDbRegAppTableRecord
  2
GENIUS_GE3DTOL_13
 70
     0
  0
APPID
  5
3D9C
330
9
100
AcDbSymbolTableRecord
100
AcDbRegAppTableRecord
  2
AD_DRAW
 70
     0
  0
APPID
  5
3DE8
330
9
100
AcDbSymbolTableRecord
100
AcDbRegAppTableRecord
  2
ASURF_PCURVE_APPNAME
 70
     0
  0
APPID
  5
3DED
330
9
100
AcDbSymbolTableRecord
100
AcDbRegAppTableRecord
  2
AMG_3D2D_5.0
 70
     0
  0
APPID
  5
3E1B
330
9
100
AcDbSymbolTableRecord
100
AcDbRegAppTableRecord
  2
DESIGNERASSEMBLIES
 70
     0
  0
APPID
  5
3E20
330
9
100
AcDbSymbolTableRecord
100
AcDbRegAppTableRecord
  2
ACADM_DIM_EDIT
 70
     0
  0
APPID
  5
3E21
330
9
100
AcDbSymbolTableRecord
100
AcDbRegAppTableRecord
  2
AMDT_DM_ADJ
 70
     0
  0
APPID
  5
4143
330
9
100
AcDbSymbolTableRecord
100
AcDbRegAppTableRecord
  2
GENIUS_GENFIL_13
 70
     0
  0
APPID
  5
4144
330
9
100
AcDbSymbolTableRecord
100
AcDbRegAppTableRecord
  2
GENIUS_GENOBJ-N-CHA_13
 70
     0
  0
APPID
  5
4E17
330
9
100
AcDbSymbolTableRecord
100
AcDbRegAppTableRecord
  2
GEVID1008153417
 70
     0
  0
APPID
  5
4E58
330
9
100
AcDbSymbolTableRecord
100
AcDbRegAppTableRecord
  2
GEVID1008153418
 70
     0
  0
APPID
  5
4E5E
330
9
100
AcDbSymbolTableRecord
100
AcDbRegAppTableRecord
  2
GEVID1008153419
 70
     0
  0
APPID
  5
4E64
330
9
100
AcDbSymbolTableRecord
100
AcDbRegAppTableRecord
  2
GEVID1008153420
 70
     0
  0
APPID
  5
4E75
330
9
100
AcDbSymbolTableRecord
100
AcDbRegAppTableRecord
  2
GEVID1008153421
 70
     0
  0
APPID
  5
4EB7
330
9
100
AcDbSymbolTableRecord
100
AcDbRegAppTableRecord
  2
GENIUS_AMGTXT_16
 70
     0
  0
APPID
  5
7645
330
9
100
AcDbSymbolTableRecord
100
AcDbRegAppTableRecord
  2
GENIUS_GENOBJ-N-DIM_13
 70
     0
  0
APPID
  5
C5F0
330
9
100
AcDbSymbolTableRecord
100
AcDbRegAppTableRecord
  2
GENIUS_GENCEN_19
 70
     0
  0
APPID
  5
C5FB
330
9
100
AcDbSymbolTableRecord
100
AcDbRegAppTableRecord
  2
ACAD_DSTYLE_DIMJOGGED_JOGANGLE_SYMBOL
 70
     0
  0
APPID
  5
C5FC
330
9
100
AcDbSymbolTableRecord
100
AcDbRegAppTableRecord
  2
ACAD_PSEXT
 70
     0
  0
APPID
  5
CA37
330
9
100
AcDbSymbolTableRecord
100
AcDbRegAppTableRecord
  2
AcAecLayerStandard
 70
     0
  0
APPID
  5
DA4F
330
9
100
AcDbSymbolTableRecord
100
AcDbRegAppTableRecord
  2
ACAD_EXEMPT_FROM_CAD_STANDARDS
 70
     0
  0
APPID
  5
F5D6
330
9
100
AcDbSymbolTableRecord
100
AcDbRegAppTableRecord
  2
AcDbAttr
 70
     0
  0
ENDTAB
  0
TABLE
  2
DIMSTYLE
  5
A
330
0
100
AcDbSymbolTable
 70
    27
100
AcDbDimStyleTable
 71
     3
340
2515
340
6C
340
FA9
  0
DIMSTYLE
105
6C
330
A
100
AcDbSymbolTableRecord
100
AcDbDimStyleTableRecord
  2
AM_ISO
 70
     0
  4
"
 41
2.5
 42
1.0
 43
10.0
 44
1.0
 47
0.1
 48
0.1
 73
     0
 74
     0
 77
     1
 78
     8
 79
     2
140
3.5
141
0.0
143
0.0393701
146
0.71
147
1.5
172
     1
176
   256
177
   256
178
     2
271
     2
272
     3
274
     4
283
     0
284
     8
340
11
371
    -1
372
    -1
  0
DIMSTYLE
105
6D
330
A
100
AcDbSymbolTableRecord
100
AcDbDimStyleTableRecord
  2
AM_ISO$3
 70
     0
  4
"
 41
0.8
 42
1.0
 43
10.0
 44
1.0
 47
0.1
 48
0.1
 73
     0
 77
     1
 78
     8
 79
     2
140
3.2
141
0.0
143
0.0393701
146
0.71
147
0.9999999999999996
176
   256
177
   256
178
     2
271
     2
272
     2
283
     0
284
     8
288
     1
289
     0
340
11
342
6C4
371
    -1
372
    -1
  0
DIMSTYLE
105
6E
330
A
100
AcDbSymbolTableRecord
100
AcDbDimStyleTableRecord
  2
AM_ISO$4
 70
     0
  4
"
 41
0.8
 42
1.0
 43
10.0
 44
1.0
 47
0.1
 48
0.1
 73
     0
 77
     1
 78
     8
 79
     2
140
3.2
141
0.0
143
0.0393701
146
0.71
147
1.0
173
     1
176
   256
177
   256
178
     2
271
     2
272
     2
283
     0
284
     8
288
     1
289
     0
340
11
344
6C4
371
    -1
372
    -1
  0
DIMSTYLE
105
6F
330
A
100
AcDbSymbolTableRecord
100
AcDbDimStyleTableRecord
  2
AM_ISO$6
 70
     0
  4
"
 41
0.8
 42
1.0
 43
10.0
 44
1.0
 47
0.1
 48
0.1
 73
     0
 74
     0
 78
     8
 79
     2
140
3.2
141
0.0
143
0.0393701
146
0.71
147
1.0
172
     1
176
   256
177
   256
178
     2
271
     2
272
     2
283
     0
284
     8
340
11
341
6C4
371
    -1
372
    -1
  0
DIMSTYLE
105
70
330
A
100
AcDbSymbolTableRecord
100
AcDbDimStyleTableRecord
  2
AM_ISO$7
 70
     0
  4
"
 41
0.8
 42
1.0
 43
10.0
 44
1.0
 47
0.1
 48
0.1
 73
     0
 74
     0
 77
     1
 78
     8
 79
     2
140
3.2
141
0.0
143
0.0393701
146
0.71
147
1.0
172
     1
176
   256
177
   256
178
     2
271
     2
272
     2
283
     0
284
     8
340
11
341
6C4
342
6C4
371
    -1
372
    -1
  0
DIMSTYLE
105
71
330
A
100
AcDbSymbolTableRecord
100
AcDbDimStyleTableRecord
  2
AM_ISO$SF
 70
     0
  4
"
 41
0.8
 42
1.0
 43
10.0
 44
1.0
 47
0.1
 48
0.1
 73
     0
 74
     0
 75
     1
 76
     1
 77
     1
 78
     8
 79
     2
140
3.2
141
0.0
143
0.0393701
146
0.71
147
1.0
172
     1
176
   256
177
   256
178
     2
271
     2
272
     2
283
     0
284
     8
340
11
341
6C4
342
6C4
371
    -1
372
    -1
  0
DIMSTYLE
105
76
330
A
100
AcDbSymbolTableRecord
100
AcDbDimStyleTableRecord
  2
AM_ISO$SH
 70
     0
  4
"
 41
0.8
 42
1.0
 43
10.0
 44
1.0
 47
0.1
 48
0.1
 73
     0
 74
     0
 75
     1
 76
     1
 77
     1
 78
     8
 79
     2
140
3.2
141
0.0
143
0.0393701
144
2.0
146
0.71
147
1.0
172
     1
176
   256
177
   256
178
     2
271
     2
272
     2
283
     0
284
     8
340
11
341
6C4
342
6C4
371
    -1
372
    -1
  0
DIMSTYLE
105
6BE
330
A
100
AcDbSymbolTableRecord
100
AcDbDimStyleTableRecord
  2
AM_ISO$0
 70
     0
  4
"
 41
0.8
 42
1.0
 43
10.0
 44
1.0
 47
0.1
 48
0.1
 73
     0
 74
     0
 77
     1
 78
     8
 79
     2
140
3.2
141
0.0
143
0.0393701
146
0.71
147
0.9999999999999996
172
     1
176
   256
177
   256
178
     2
271
     2
272
     2
283
     0
284
     8
340
11
341
6C4
342
6C4
371
    -1
372
    -1
  0
DIMSTYLE
105
6BF
330
A
100
AcDbSymbolTableRecord
100
AcDbDimStyleTableRecord
  2
AM_ISO$2
 70
     0
  4
"
 41
0.8
 42
1.0
 43
10.0
 44
1.0
 47
0.1
 48
0.1
 73
     0
 74
     0
 77
     3
 78
     8
 79
     2
140
3.200000000000001
141
0.0
143
0.0393701
146
0.71
147
0.9999999999999996
172
     1
176
   256
177
   256
178
     2
271
     2
272
     2
283
     0
284
     8
340
11
342
6C4
371
    -1
372
    -1
  0
DIMSTYLE
105
A76
330
A
100
AcDbSymbolTableRecord
100
AcDbDimStyleTableRecord
  2
STANDARD
 70
     0
 41
3.0
 42
1.0
 43
7.0
 44
2.0
 73
     0
 74
     0
 77
     1
140
2.799999999999999
141
0.0
143
0.0394
147
0.7
171
     4
172
     1
173
     1
176
     3
177
     3
178
     2
271
     3
272
     3
273
     8
274
     4
289
     0
340
A74
341
A66
343
A66
344
A66
  0
DIMSTYLE
105
FA9
330
A
100
AcDbSymbolTableRecord
100
AcDbDimStyleTableRecord
  2
AM_ANSI
 70
     0
  4
mm
 41
0.1
 42
0.05
 43
0.5
 44
0.1
 47
0.1
 48
0.1
 78
     7
 79
     2
140
0.12
141
0.0
146
0.71
147
0.06
176
   256
177
   256
178
     2
274
     4
284
     7
340
11
371
    -1
372
    -1
  0
DIMSTYLE
105
FAA
330
A
100
AcDbSymbolTableRecord
100
AcDbDimStyleTableRecord
  2
AM_ANSI$3
 70
     0
  4
mm
 41
0.1
 42
0.05
 43
0.5
 44
0.1
 47
0.1
 48
0.1
 78
     7
 79
     2
140
0.12
141
0.0
146
0.71
147
0.06
176
   256
177
   256
178
     2
274
     4
284
     7
288
     1
289
     0
340
11
371
    -1
372
    -1
  0
DIMSTYLE
105
FAB
330
A
100
AcDbSymbolTableRecord
100
AcDbDimStyleTableRecord
  2
AM_ANSI$4
 70
     0
  4
mm
 41
0.1
 42
0.05
 43
0.5
 44
0.1
 47
0.1
 48
0.1
 78
     7
 79
     2
140
0.12
141
0.0
146
0.71
147
0.06
176
   256
177
   256
178
     2
274
     4
284
     7
288
     1
289
     0
340
11
371
    -1
372
    -1
  0
DIMSTYLE
105
FAC
330
A
100
AcDbSymbolTableRecord
100
AcDbDimStyleTableRecord
  2
AM_ANSI$7
 70
     0
  4
mm
 41
0.1
 42
0.05
 43
0.5
 44
0.1
 47
0.1
 48
0.1
 78
     7
 79
     2
140
0.24
141
0.0
146
0.71
147
0.06
176
   256
177
   256
178
     2
274
     4
284
     7
340
11
371
    -1
372
    -1
  0
DIMSTYLE
105
FAD
330
A
100
AcDbSymbolTableRecord
100
AcDbDimStyleTableRecord
  2
AM_ANSI$SF
 70
     0
  4
mm
 41
0.1
 42
0.05
 43
0.5
 44
0.1
 47
0.1
 48
0.1
 75
     1
 76
     1
 78
     7
 79
     2
140
0.12
141
0.0
146
0.71
147
0.06
176
   256
177
   256
178
     2
274
     4
284
     7
340
11
371
    -1
372
    -1
  0
DIMSTYLE
105
FAE
330
A
100
AcDbSymbolTableRecord
100
AcDbDimStyleTableRecord
  2
AM_ANSI$SH
 70
     0
  4
mm
 41
0.1
 42
0.05
 43
0.5
 44
0.1
 47
0.1
 48
0.1
 75
     1
 76
     1
 78
     7
 79
     2
140
0.12
141
0.0
146
0.71
147
0.06
173
     1
176
   256
177
   256
178
     2
274
     4
284
     7
340
11
343
72
371
    -1
372
    -1
  0
DIMSTYLE
105
2515
330
A
100
AcDbSymbolTableRecord
100
AcDbDimStyleTableRecord
  2
SYS
 70
     0
  4
"
 41
2.5
 42
1.0
 43
10.0
 44
1.0
 47
0.1
 48
0.1
 73
     0
 74
     0
 77
     1
 78
     8
 79
     2
140
3.5
141
0.0
143
0.0393701
146
0.71
147
1.5
172
     1
176
   256
177
   256
178
     7
271
     2
272
     3
274
     4
283
     0
284
     8
340
11
371
    -1
372
    -1
  0
DIMSTYLE
105
2516
330
A
100
AcDbSymbolTableRecord
100
AcDbDimStyleTableRecord
  2
SYS$3
 70
     0
  4
"
 41
2.0
 42
1.0
 43
10.0
 44
1.0
 47
0.1
 48
0.1
 73
     0
 77
     1
 78
     8
 79
     2
140
3.200000000000001
141
0.0
143
0.0393701
146
0.71
147
1.5
176
   256
177
   256
178
     2
271
     1
272
     1
283
     0
284
     8
288
     1
340
11
342
A66
371
    -1
372
    -1
  0
DIMSTYLE
105
2517
330
A
100
AcDbSymbolTableRecord
100
AcDbDimStyleTableRecord
  2
SYS$4
 70
     0
  4
"
 41
2.0
 42
1.0
 43
10.0
 44
1.0
 47
0.1
 48
0.1
 73
     0
 77
     1
 78
     8
 79
     2
140
3.2
141
0.0
143
0.0393701
146
0.71
147
1.5
173
     1
176
   256
177
   256
178
     2
271
     2
272
     2
283
     0
284
     8
288
     1
340
11
344
A66
371
    -1
372
    -1
  0
DIMSTYLE
105
2518
330
A
100
AcDbSymbolTableRecord
100
AcDbDimStyleTableRecord
  2
SYS$6
 70
     0
  4
"
 41
2.0
 42
1.0
 43
10.0
 44
1.0
 47
0.1
 48
0.1
 73
     0
 74
     0
 78
     8
 79
     2
140
3.2
141
0.0
143
0.0393701
146
0.71
147
1.5
172
     1
176
   256
177
   256
178
     2
271
     2
272
     2
283
     0
284
     8
340
11
341
A66
371
    -1
372
    -1
  0
DIMSTYLE
105
2519
330
A
100
AcDbSymbolTableRecord
100
AcDbDimStyleTableRecord
  2
SYS$7
 70
     0
  4
"
 41
2.0
 42
1.5
 43
10.0
 44
1.0
 47
0.1
 48
0.1
 73
     0
 74
     0
 77
     1
 78
     8
 79
     2
140
3.2
141
0.0
143
0.0393701
146
0.71
147
1.5
172
     1
176
   256
177
   256
178
     2
271
     2
272
     2
283
     0
284
     8
340
11
341
A66
342
A66
371
    -1
372
    -1
  0
DIMSTYLE
105
251A
330
A
100
AcDbSymbolTableRecord
100
AcDbDimStyleTableRecord
  2
SYS$SF
 70
     0
  4
"
 41
1.0
 42
1.0
 43
10.0
 44
1.0
 47
0.1
 48
0.1
 73
     0
 74
     0
 75
     1
 76
     1
 77
     1
 78
     8
 79
     2
140
3.2
141
0.0
143
0.0393701
146
0.71
147
1.5
172
     1
176
   256
177
   256
178
     2
271
     2
272
     2
283
     0
284
     8
340
11
341
6C4
342
6C4
371
    -1
372
    -1
  0
DIMSTYLE
105
251B
330
A
100
AcDbSymbolTableRecord
100
AcDbDimStyleTableRecord
  2
SYS$SH
 70
     0
  4
"
 41
1.0
 42
1.0
 43
10.0
 44
1.0
 47
0.1
 48
0.1
 73
     0
 74
     0
 75
     1
 76
     1
 77
     1
 78
     8
 79
     2
140
3.2
141
0.0
143
0.0393701
144
2.0
146
0.71
147
1.5
172
     1
173
     1
176
   256
177
   256
178
     2
271
     2
272
     2
283
     0
284
     8
340
11
341
6C4
343
72
344
6C4
371
    -1
372
    -1
  0
DIMSTYLE
105
2A59
330
A
100
AcDbSymbolTableRecord
100
AcDbDimStyleTableRecord
  2
SYS$2
 70
     0
  4
"
 41
1.0
 42
1.5
 43
10.0
 44
1.0
 47
0.1
 48
0.1
 73
     0
 74
     0
 77
     1
 78
     8
 79
     2
140
3.2
141
0.0
143
0.0393701
146
0.71
147
1.5
172
     1
176
   256
177
   256
178
     2
271
     2
272
     2
283
     0
284
     8
340
11
342
6C4
371
    -1
372
    -1
  0
DIMSTYLE
105
2AAB
102
{ACAD_REACTORS
330
EE32
330
EE53
330
EE6F
330
EE8C
330
EEA4
330
F1C6
330
F1B8
330
F1BB
330
F1BE
330
F1C3
102
}
330
A
100
AcDbSymbolTableRecord
100
AcDbDimStyleTableRecord
  2
SYS$0
 70
     0
  4
"
 41
1.0
 42
1.5
 43
10.0
 44
1.0
 47
0.1
 48
0.1
 73
     0
 74
     0
 77
     1
 78
     8
 79
     2
140
3.2
141
0.0
143
0.0393701
146
0.71
147
1.5
172
     1
176
   256
177
   256
178
     2
271
     1
272
     1
283
     0
284
     8
340
11
341
A66
342
6C4
371
    -1
372
    -1
  0
DIMSTYLE
105
C58E
330
A
100
AcDbSymbolTableRecord
100
AcDbDimStyleTableRecord
  2
SYSORG2P0
 70
     0
  4
"
 41
1.0
 42
1.0
 43
10.0
 44
1.0
 47
0.2
 48
0.2000000002
 71
     1
 73
     0
 74
     0
 77
     1
 78
     8
 79
     2
140
3.5
141
0.0
143
0.0393701
144
2.0
146
0.6
147
1.5
172
     1
176
   256
177
   256
178
     7
271
     2
272
     2
283
     0
284
     8
340
11
341
6C4
342
6C4
371
    -1
372
    -1
  0
DIMSTYLE
105
DBCE
330
A
100
AcDbSymbolTableRecord
100
AcDbDimStyleTableRecord
  2
DIMSTYLE
 70
     0
 41
1.0
 42
2.54
 44
2.54
 73
     0
 74
     0
140
3.2
147
1.6
173
     1
279
     2
340
11
  0
ENDTAB
  0
TABLE
  2
BLOCK_RECORD
  5
1
330
0
100
AcDbSymbolTable
 70
    17
  0
BLOCK_RECORD
  5
1F
102
{ACAD_XDICTIONARY
360
8A
102
}
330
1
100
AcDbSymbolTableRecord
100
AcDbBlockTableRecord
  2
*Model_Space
340
22
  0
BLOCK_RECORD
  5
1B
330
1
100
AcDbSymbolTableRecord
100
AcDbBlockTableRecord
  2
*Paper_Space
340
1E
  0
BLOCK_RECORD
  5
23
330
1
100
AcDbSymbolTableRecord
100
AcDbBlockTableRecord
  2
*Paper_Space0
340
26
  0
BLOCK_RECORD
  5
72
330
1
100
AcDbSymbolTableRecord
100
AcDbBlockTableRecord
  2
GENAXEH
340
0
  0
BLOCK_RECORD
  5
6C4
330
1
100
AcDbSymbolTableRecord
100
AcDbBlockTableRecord
  2
_Dot
340
0
102
{BLKREFS
331
F4CA
331
F4CB
331
F4D3
331
F4D4
331
F4F9
331
F4FA
331
F502
331
F503
331
F562
331
F563
331
F586
331
F587
331
F5AB
331
F5AC
331
F5B4
331
F5B5
331
F5BF
331
F5C0
331
F5C8
331
F5C9
102
}
  0
BLOCK_RECORD
  5
A66
330
1
100
AcDbSymbolTableRecord
100
AcDbBlockTableRecord
  2
_OPEN30
340
0
  0
BLOCK_RECORD
  5
EE33
330
1
100
AcDbSymbolTableRecord
100
AcDbBlockTableRecord
  2
*D7
340
0
  0
BLOCK_RECORD
  5
EE54
330
1
100
AcDbSymbolTableRecord
100
AcDbBlockTableRecord
  2
*D8
340
0
  0
BLOCK_RECORD
  5
EE70
330
1
100
AcDbSymbolTableRecord
100
AcDbBlockTableRecord
  2
*D9
340
0
  0
BLOCK_RECORD
  5
EE8D
330
1
100
AcDbSymbolTableRecord
100
AcDbBlockTableRecord
  2
*D10
340
0
  0
BLOCK_RECORD
  5
EEA5
330
1
100
AcDbSymbolTableRecord
100
AcDbBlockTableRecord
  2
*D11
340
0
  0
BLOCK_RECORD
  5
F1C9
330
1
100
AcDbSymbolTableRecord
100
AcDbBlockTableRecord
  2
*D12
340
0
  0
BLOCK_RECORD
  5
F1D5
330
1
100
AcDbSymbolTableRecord
100
AcDbBlockTableRecord
  2
*D13
340
0
  0
BLOCK_RECORD
  5
F1E1
330
1
100
AcDbSymbolTableRecord
100
AcDbBlockTableRecord
  2
*D14
340
0
  0
BLOCK_RECORD
  5
F1EF
330
1
100
AcDbSymbolTableRecord
100
AcDbBlockTableRecord
  2
*D15
340
0
  0
BLOCK_RECORD
  5
F1FB
330
1
100
AcDbSymbolTableRecord
100
AcDbBlockTableRecord
  2
*D16
340
0
  0
ENDTAB
  0
ENDSEC
  0
SECTION
  2
BLOCKS
  0
BLOCK
  5
20
330
1F
100
AcDbEntity
  8
0
100
AcDbBlockBegin
  2
*Model_Space
 70
     0
 10
0.0
 20
0.0
 30
0.0
  3
*Model_Space
  1

  0
ENDBLK
  5
21
330
1F
100
AcDbEntity
  8
0
100
AcDbBlockEnd
  0
BLOCK
  5
1C
330
1B
100
AcDbEntity
 67
     1
  8
0
100
AcDbBlockBegin
  2
*Paper_Space
 70
     0
 10
0.0
 20
0.0
 30
0.0
  3
*Paper_Space
  1

  0
ENDBLK
  5
1D
330
1B
100
AcDbEntity
 67
     1
  8
0
100
AcDbBlockEnd
  0
BLOCK
  5
24
330
23
100
AcDbEntity
 67
     1
  8
0
100
AcDbBlockBegin
  2
*Paper_Space0
 70
     0
 10
0.0
 20
0.0
 30
0.0
  3
*Paper_Space0
  1

  0
ENDBLK
  5
25
330
23
100
AcDbEntity
 67
     1
  8
0
100
AcDbBlockEnd
  0
BLOCK
  5
74
330
72
100
AcDbEntity
  8
0
100
AcDbBlockBegin
  2
GENAXEH
 70
     0
 10
0.0
 20
0.0
 30
0.0
  3
GENAXEH
  1

  0
LINE
  5
73
330
72
100
AcDbEntity
  8
0
100
AcDbLine
 10
-1.0
 20
0.0
 30
0.0
 11
1.0
 21
0.0
 31
0.0
  0
ENDBLK
  5
75
330
72
100
AcDbEntity
  8
0
100
AcDbBlockEnd
  0
BLOCK
  5
6C7
330
6C4
100
AcDbEntity
  8
0
100
AcDbBlockBegin
  2
_Dot
 70
     0
 10
0.0
 20
0.0
 30
0.0
  3
_Dot
  1

  0
LWPOLYLINE
  5
6C5
330
6C4
100
AcDbEntity
  8
0
  6
ByBlock
 62
     0
100
AcDbPolyline
 90
        2
 70
     1
 43
0.5
 10
-0.25
 20
0.0
 42
1.0
 10
0.25
 20
0.0
 42
1.0
  0
LINE
  5
6C6
330
6C4
100
AcDbEntity
  8
0
  6
ByBlock
 62
     0
370
    -2
100
AcDbLine
 10
-0.5
 20
0.0
 30
0.0
 11
-1.0
 21
0.0
 31
0.0
  0
ENDBLK
  5
6C8
330
6C4
100
AcDbEntity
  8
0
100
AcDbBlockEnd
  0
BLOCK
  5
A6A
330
A66
100
AcDbEntity
  8
0
100
AcDbBlockBegin
  2
_OPEN30
 70
     0
 10
0.0
 20
0.0
 30
0.0
  3
_OPEN30
  1

  0
LINE
  5
A67
330
A66
100
AcDbEntity
  8
0
  6
ByBlock
 62
     0
100
AcDbLine
 10
-1.0
 20
0.26794919
 30
0.0
 11
0.0
 21
0.0
 31
0.0
  0
LINE
  5
A68
330
A66
100
AcDbEntity
  8
0
  6
ByBlock
 62
     0
100
AcDbLine
 10
0.0
 20
0.0
 30
0.0
 11
-1.0
 21
-0.26794919
 31
0.0
  0
LINE
  5
A69
330
A66
100
AcDbEntity
  8
0
  6
ByBlock
 62
     0
100
AcDbLine
 10
0.0
 20
0.0
 30
0.0
 11
-1.0
 21
0.0
 31
0.0
  0
ENDBLK
  5
A6B
330
A66
100
AcDbEntity
  8
0
100
AcDbBlockEnd
  0
BLOCK
  5
EE3D
330
EE33
100
AcDbEntity
  8
0
100
AcDbBlockBegin
  2
*D7
 70
     1
 10
0.0
 20
0.0
 30
0.0
  3
*D7
  1

  0
LINE
  5
F583
330
EE33
100
AcDbEntity
  8
AM_5
100
AcDbLine
 10
194.9000000000009
 20
73.19999999999976
 30
0.0
 11
194.9000000000009
 21
82.20000000000039
 31
0.0
  0
LINE
  5
F584
330
EE33
100
AcDbEntity
  8
AM_5
100
AcDbLine
 10
239.1000000000012
 20
67.69999999999979
 30
0.0
 11
239.1000000000012
 21
82.20000000000039
 31
0.0
  0
LINE
  5
F585
330
EE33
100
AcDbEntity
  8
AM_5
100
AcDbLine
 10
195.9000000000009
 20
81.20000000000038
 30
0.0
 11
238.1000000000012
 21
81.20000000000038
 31
0.0
  0
INSERT
  5
F586
330
EE33
100
AcDbEntity
  8
AM_5
100
AcDbBlockReference
  2
_Dot
 10
194.9000000000009
 20
81.20000000000038
 30
0.0
 41
1.0
 42
1.0
 43
1.0
 50
180.0
  0
INSERT
  5
F587
330
EE33
100
AcDbEntity
  8
AM_5
100
AcDbBlockReference
  2
_Dot
 10
239.1000000000012
 20
81.20000000000038
 30
0.0
 41
1.0
 42
1.0
 43
1.0
  0
MTEXT
  5
F588
330
EE33
100
AcDbEntity
  8
AM_5
 62
     2
100
AcDbMText
 10
217.0000000000011
 20
84.30000000000038
 30
0.0
 40
3.2
 41
0.0
 71
     5
 72
     1
  1
44.2
 73
     1
 44
1.0
  0
POINT
  5
F589
330
EE33
100
AcDbEntity
  8
Defpoints
 62
     0
100
AcDbPoint
 10
194.9000000000009
 20
71.69999999999976
 30
0.0
  0
POINT
  5
F58A
330
EE33
100
AcDbEntity
  8
Defpoints
 62
     0
100
AcDbPoint
 10
239.1000000000012
 20
66.19999999999979
 30
0.0
  0
POINT
  5
F58B
330
EE33
100
AcDbEntity
  8
Defpoints
 62
     0
100
AcDbPoint
 10
239.1000000000012
 20
81.20000000000038
 30
0.0
  0
ENDBLK
  5
EE3E
330
EE33
100
AcDbEntity
  8
0
100
AcDbBlockEnd
  0
BLOCK
  5
EE60
330
EE54
100
AcDbEntity
  8
0
100
AcDbBlockBegin
  2
*D8
 70
     1
 10
0.0
 20
0.0
 30
0.0
  3
*D8
  1

  0
LINE
  5
F5A6
330
EE54
100
AcDbEntity
  8
AM_5
100
AcDbLine
 10
240.6000000000007
 20
110.2000000000014
 30
0.0
 11
250.1000000000007
 21
110.2000000000014
 31
0.0
  0
LINE
  5
F5A7
330
EE54
100
AcDbEntity
  8
AM_5
100
AcDbLine
 10
240.1000000000005
 20
112.7000000000014
 30
0.0
 11
250.1000000000007
 21
112.7000000000014
 31
0.0
  0
LINE
  5
F5A8
330
EE54
100
AcDbEntity
  8
AM_5
100
AcDbLine
 10
249.1000000000007
 20
109.2000000000014
 30
0.0
 11
249.1000000000007
 21
108.2000000000014
 31
0.0
  0
LINE
  5
F5A9
330
EE54
100
AcDbEntity
  8
AM_5
100
AcDbLine
 10
249.1000000000007
 20
113.7000000000014
 30
0.0
 11
249.1000000000007
 21
122.3933333333348
 31
0.0
  0
LINE
  5
F5AA
330
EE54
100
AcDbEntity
  8
AM_5
100
AcDbLine
 10
249.1000000000007
 20
110.2000000000014
 30
0.0
 11
249.1000000000007
 21
112.7000000000014
 31
0.0
  0
INSERT
  5
F5AB
330
EE54
100
AcDbEntity
  8
AM_5
100
AcDbBlockReference
  2
_Dot
 10
249.1000000000007
 20
110.2000000000014
 30
0.0
 41
1.0
 42
1.0
 43
1.0
 50
90.0
  0
INSERT
  5
F5AC
330
EE54
100
AcDbEntity
  8
AM_5
100
AcDbBlockReference
  2
_Dot
 10
249.1000000000007
 20
112.7000000000014
 30
0.0
 41
1.0
 42
1.0
 43
1.0
 50
270.0
  0
MTEXT
  5
F5AD
330
EE54
100
AcDbEntity
  8
AM_5
 62
     2
100
AcDbMText
 10
246.0000000000007
 20
118.5466666666681
 30
0.0
 40
3.2
 41
0.0
 71
     5
 72
     1
  1
2.5
 11
0.0000000000000001
 21
1.0
 31
0.0
 73
     1
 44
1.0
  0
POINT
  5
F5AE
330
EE54
100
AcDbEntity
  8
Defpoints
 62
     0
100
AcDbPoint
 10
239.1000000000008
 20
110.2000000000014
 30
0.0
  0
POINT
  5
F5AF
330
EE54
100
AcDbEntity
  8
Defpoints
 62
     0
100
AcDbPoint
 10
238.6000000000005
 20
112.7000000000014
 30
0.0
  0
POINT
  5
F5B0
330
EE54
100
AcDbEntity
  8
Defpoints
 62
     0
100
AcDbPoint
 10
249.1000000000007
 20
112.7000000000014
 30
0.0
  0
ENDBLK
  5
EE61
330
EE54
100
AcDbEntity
  8
0
100
AcDbBlockEnd
  0
BLOCK
  5
EE7C
330
EE70
100
AcDbEntity
  8
0
100
AcDbBlockBegin
  2
*D9
 70
     1
 10
0.0
 20
0.0
 30
0.0
  3
*D9
  1

  0
LINE
  5
F5B1
330
EE70
100
AcDbEntity
  8
AM_5
100
AcDbLine
 10
240.6000000000007
 20
110.2000000000014
 30
0.0
 11
250.1000000000008
 21
110.2000000000014
 31
0.0
  0
LINE
  5
F5B2
330
EE70
100
AcDbEntity
  8
AM_5
100
AcDbLine
 10
238.2000000000011
 20
105.200000000001
 30
0.0
 11
250.1000000000008
 21
105.200000000001
 31
0.0
  0
LINE
  5
F5B3
330
EE70
100
AcDbEntity
  8
AM_5
100
AcDbLine
 10
249.1000000000008
 20
109.2000000000014
 30
0.0
 11
249.1000000000008
 21
106.200000000001
 31
0.0
  0
INSERT
  5
F5B4
330
EE70
100
AcDbEntity
  8
AM_5
100
AcDbBlockReference
  2
_Dot
 10
249.1000000000008
 20
110.2000000000014
 30
0.0
 41
1.0
 42
1.0
 43
1.0
 50
90.0
  0
INSERT
  5
F5B5
330
EE70
100
AcDbEntity
  8
AM_5
100
AcDbBlockReference
  2
_Dot
 10
249.1000000000008
 20
105.200000000001
 30
0.0
 41
1.0
 42
1.0
 43
1.0
 50
270.0
  0
MTEXT
  5
F5B6
330
EE70
100
AcDbEntity
  8
AM_5
 62
     2
100
AcDbMText
 10
246.0000000000007
 20
107.7000000000013
 30
0.0
 40
3.2
 41
0.0
 71
     5
 72
     1
  1
5
 11
0.0000000000000001
 21
1.0
 31
0.0
 73
     1
 44
1.0
  0
POINT
  5
F5B7
330
EE70
100
AcDbEntity
  8
Defpoints
 62
     0
100
AcDbPoint
 10
239.1000000000008
 20
110.2000000000014
 30
0.0
  0
POINT
  5
F5B8
330
EE70
100
AcDbEntity
  8
Defpoints
 62
     0
100
AcDbPoint
 10
236.7000000000011
 20
105.200000000001
 30
0.0
  0
POINT
  5
F5B9
330
EE70
100
AcDbEntity
  8
Defpoints
 62
     0
100
AcDbPoint
 10
249.1000000000008
 20
105.200000000001
 30
0.0
  0
ENDBLK
  5
EE7D
330
EE70
100
AcDbEntity
  8
0
100
AcDbBlockEnd
  0
BLOCK
  5
EE97
330
EE8D
100
AcDbEntity
  8
0
100
AcDbBlockBegin
  2
*D10
 70
     1
 10
0.0
 20
0.0
 30
0.0
  3
*D10
  1

  0
LINE
  5
F4C7
330
EE8D
100
AcDbEntity
  8
AM_5
100
AcDbLine
 10
240.1000000000012
 20
66.69999999999979
 30
0.0
 11
250.1000010100012
 21
66.69999999999979
 31
0.0
  0
LINE
  5
F4C8
330
EE8D
100
AcDbEntity
  8
AM_5
100
AcDbLine
 10
240.100000000001
 20
57.49999999999996
 30
0.0
 11
250.1000010100011
 21
57.49999999999996
 31
0.0
  0
LINE
  5
F4C9
330
EE8D
100
AcDbEntity
  8
AM_5
100
AcDbLine
 10
249.1000010100012
 20
65.69999999999978
 30
0.0
 11
249.1000010100012
 21
58.49999999999996
 31
0.0
  0
INSERT
  5
F4CA
330
EE8D
100
AcDbEntity
  8
AM_5
100
AcDbBlockReference
  2
_Dot
 10
249.1000010100012
 20
66.69999999999979
 30
0.0
 41
1.0
 42
1.0
 43
1.0
 50
90.0
  0
INSERT
  5
F4CB
330
EE8D
100
AcDbEntity
  8
AM_5
100
AcDbBlockReference
  2
_Dot
 10
249.1000010100012
 20
57.49999999999996
 30
0.0
 41
1.0
 42
1.0
 43
1.0
 50
270.0
  0
MTEXT
  5
F4CC
330
EE8D
100
AcDbEntity
  8
AM_5
 62
     2
100
AcDbMText
 10
246.0000010100011
 20
62.09999999999992
 30
0.0
 40
3.2
 41
0.0
 71
     5
 72
     1
  1
9.2
 11
0.0000000000000001
 21
1.0
 31
0.0
 73
     1
 44
1.0
  0
POINT
  5
F4CD
330
EE8D
100
AcDbEntity
  8
Defpoints
 62
     0
100
AcDbPoint
 10
238.6000000000012
 20
66.69999999999979
 30
0.0
  0
POINT
  5
F4CE
330
EE8D
100
AcDbEntity
  8
Defpoints
 62
     0
100
AcDbPoint
 10
238.6000000000009
 20
57.49999999999997
 30
0.0
  0
POINT
  5
F4CF
330
EE8D
100
AcDbEntity
  8
Defpoints
 62
     0
100
AcDbPoint
 10
249.1000010100012
 20
57.49999999999996
 30
0.0
  0
ENDBLK
  5
EE98
330
EE8D
100
AcDbEntity
  8
0
100
AcDbBlockEnd
  0
BLOCK
  5
EEAF
330
EEA5
100
AcDbEntity
  8
0
100
AcDbBlockBegin
  2
*D11
 70
     1
 10
0.0
 20
0.0
 30
0.0
  3
*D11
  1

  0
LINE
  5
F4D0
330
EEA5
100
AcDbEntity
  8
AM_5
100
AcDbLine
 10
194.9000000000009
 20
73.19999999999978
 30
0.0
 11
185.9000000000012
 21
73.19999999999978
 31
0.0
  0
LINE
  5
F4D1
330
EEA5
100
AcDbEntity
  8
AM_5
100
AcDbLine
 10
193.9000000000011
 20
57.49999999999997
 30
0.0
 11
185.9000000000011
 21
57.49999999999997
 31
0.0
  0
LINE
  5
F4D2
330
EEA5
100
AcDbEntity
  8
AM_5
100
AcDbLine
 10
186.9000000000012
 20
72.19999999999979
 30
0.0
 11
186.9000000000011
 21
58.49999999999997
 31
0.0
  0
INSERT
  5
F4D3
330
EEA5
100
AcDbEntity
  8
AM_5
100
AcDbBlockReference
  2
_Dot
 10
186.9000000000012
 20
73.19999999999978
 30
0.0
 41
1.0
 42
1.0
 43
1.0
 50
90.0
  0
INSERT
  5
F4D4
330
EEA5
100
AcDbEntity
  8
AM_5
100
AcDbBlockReference
  2
_Dot
 10
186.9000000000011
 20
57.49999999999997
 30
0.0
 41
1.0
 42
1.0
 43
1.0
 50
270.0
  0
MTEXT
  5
F4D5
330
EEA5
100
AcDbEntity
  8
AM_5
 62
     2
100
AcDbMText
 10
183.8000000000011
 20
65.34999999999991
 30
0.0
 40
3.2
 41
0.0
 71
     5
 72
     1
  1
15.7
 11
0.0000000000000001
 21
1.0
 31
0.0
 73
     1
 44
1.0
  0
POINT
  5
F4D6
330
EEA5
100
AcDbEntity
  8
Defpoints
 62
     0
100
AcDbPoint
 10
196.4000000000009
 20
73.19999999999978
 30
0.0
  0
POINT
  5
F4D7
330
EEA5
100
AcDbEntity
  8
Defpoints
 62
     0
100
AcDbPoint
 10
195.4000000000011
 20
57.49999999999997
 30
0.0
  0
POINT
  5
F4D8
330
EEA5
100
AcDbEntity
  8
Defpoints
 62
     0
100
AcDbPoint
 10
186.9000000000011
 20
57.49999999999997
 30
0.0
  0
ENDBLK
  5
EEB0
330
EEA5
100
AcDbEntity
  8
0
100
AcDbBlockEnd
  0
BLOCK
  5
F1D3
330
F1C9
100
AcDbEntity
  8
0
100
AcDbBlockBegin
  2
*D12
 70
     1
 10
0.0
 20
0.0
 30
0.0
  3
*D12
  1

  0
LINE
  5
F4FF
330
F1C9
100
AcDbEntity
  8
AM_5
100
AcDbLine
 10
102.1000000000004
 20
73.20000000000039
 30
0.0
 11
113.1000000000003
 21
73.20000000000039
 31
0.0
  0
LINE
  5
F500
330
F1C9
100
AcDbEntity
  8
AM_5
100
AcDbLine
 10
103.1000000000003
 20
57.50000000000058
 30
0.0
 11
113.1000000000003
 21
57.50000000000057
 31
0.0
  0
LINE
  5
F501
330
F1C9
100
AcDbEntity
  8
AM_5
100
AcDbLine
 10
112.1000000000003
 20
72.20000000000038
 30
0.0
 11
112.1000000000003
 21
58.50000000000058
 31
0.0
  0
INSERT
  5
F502
330
F1C9
100
AcDbEntity
  8
AM_5
100
AcDbBlockReference
  2
_Dot
 10
112.1000000000003
 20
73.20000000000039
 30
0.0
 41
1.0
 42
1.0
 43
1.0
 50
90.0
  0
INSERT
  5
F503
330
F1C9
100
AcDbEntity
  8
AM_5
100
AcDbBlockReference
  2
_Dot
 10
112.1000000000003
 20
57.50000000000057
 30
0.0
 41
1.0
 42
1.0
 43
1.0
 50
270.0
  0
MTEXT
  5
F504
330
F1C9
100
AcDbEntity
  8
AM_5
 62
     2
100
AcDbMText
 10
109.0000000000003
 20
65.3500000000005
 30
0.0
 40
3.2
 41
0.0
 71
     5
 72
     1
  1
15.7
 11
0.0000000000000001
 21
1.0
 31
0.0
 73
     1
 44
1.0
  0
POINT
  5
F505
330
F1C9
100
AcDbEntity
  8
Defpoints
 62
     0
100
AcDbPoint
 10
100.6000000000004
 20
73.20000000000039
 30
0.0
  0
POINT
  5
F506
330
F1C9
100
AcDbEntity
  8
Defpoints
 62
     0
100
AcDbPoint
 10
101.6000000000003
 20
57.50000000000058
 30
0.0
  0
POINT
  5
F507
330
F1C9
100
AcDbEntity
  8
Defpoints
 62
     0
100
AcDbPoint
 10
112.1000000000003
 20
57.50000000000057
 30
0.0
  0
ENDBLK
  5
F1D4
330
F1C9
100
AcDbEntity
  8
0
100
AcDbBlockEnd
  0
BLOCK
  5
F1DF
330
F1D5
100
AcDbEntity
  8
0
100
AcDbBlockBegin
  2
*D13
 70
     1
 10
0.0
 20
0.0
 30
0.0
  3
*D13
  1

  0
LINE
  5
F55F
330
F1D5
100
AcDbEntity
  8
AM_5
100
AcDbLine
 10
102.1000000000004
 20
73.20000000000037
 30
0.0
 11
102.1000000000004
 21
82.20000000000039
 31
0.0
  0
LINE
  5
F560
330
F1D5
100
AcDbEntity
  8
AM_5
100
AcDbLine
 10
57.90000000000077
 20
67.7000000000001
 30
0.0
 11
57.90000000000077
 21
82.20000000000039
 31
0.0
  0
LINE
  5
F561
330
F1D5
100
AcDbEntity
  8
AM_5
100
AcDbLine
 10
101.1000000000004
 20
81.20000000000038
 30
0.0
 11
58.90000000000076
 21
81.20000000000038
 31
0.0
  0
INSERT
  5
F562
330
F1D5
100
AcDbEntity
  8
AM_5
100
AcDbBlockReference
  2
_Dot
 10
102.1000000000004
 20
81.20000000000038
 30
0.0
 41
1.0
 42
1.0
 43
1.0
  0
INSERT
  5
F563
330
F1D5
100
AcDbEntity
  8
AM_5
100
AcDbBlockReference
  2
_Dot
 10
57.90000000000077
 20
81.20000000000038
 30
0.0
 41
1.0
 42
1.0
 43
1.0
 50
180.0
  0
MTEXT
  5
F564
330
F1D5
100
AcDbEntity
  8
AM_5
 62
     2
100
AcDbMText
 10
80.00000000000062
 20
84.30000000000038
 30
0.0
 40
3.2
 41
0.0
 71
     5
 72
     1
  1
44.2
 73
     1
 44
1.0
  0
POINT
  5
F565
330
F1D5
100
AcDbEntity
  8
Defpoints
 62
     0
100
AcDbPoint
 10
102.1000000000004
 20
71.70000000000037
 30
0.0
  0
POINT
  5
F566
330
F1D5
100
AcDbEntity
  8
Defpoints
 62
     0
100
AcDbPoint
 10
57.90000000000077
 20
66.2000000000001
 30
0.0
  0
POINT
  5
F567
330
F1D5
100
AcDbEntity
  8
Defpoints
 62
     0
100
AcDbPoint
 10
57.90000000000077
 20
81.20000000000038
 30
0.0
  0
ENDBLK
  5
F1E0
330
F1D5
100
AcDbEntity
  8
0
100
AcDbBlockEnd
  0
BLOCK
  5
F1ED
330
F1E1
100
AcDbEntity
  8
0
100
AcDbBlockBegin
  2
*D14
 70
     1
 10
0.0
 20
0.0
 30
0.0
  3
*D14
  1

  0
LINE
  5
F5BA
330
F1E1
100
AcDbEntity
  8
AM_5
100
AcDbLine
 10
103.6000000000002
 20
110.2000000000011
 30
0.0
 11
113.1000000000002
 21
110.2000000000011
 31
0.0
  0
LINE
  5
F5BB
330
F1E1
100
AcDbEntity
  8
AM_5
100
AcDbLine
 10
103.0999999999999
 20
112.7000000000011
 30
0.0
 11
113.1000000000002
 21
112.7000000000011
 31
0.0
  0
LINE
  5
F5BC
330
F1E1
100
AcDbEntity
  8
AM_5
100
AcDbLine
 10
112.1000000000002
 20
109.2000000000011
 30
0.0
 11
112.1000000000002
 21
108.2000000000011
 31
0.0
  0
LINE
  5
F5BD
330
F1E1
100
AcDbEntity
  8
AM_5
100
AcDbLine
 10
112.1000000000002
 20
113.7000000000011
 30
0.0
 11
112.1000000000002
 21
122.3933333333345
 31
0.0
  0
LINE
  5
F5BE
330
F1E1
100
AcDbEntity
  8
AM_5
100
AcDbLine
 10
112.1000000000002
 20
110.2000000000011
 30
0.0
 11
112.1000000000002
 21
112.7000000000011
 31
0.0
  0
INSERT
  5
F5BF
330
F1E1
100
AcDbEntity
  8
AM_5
100
AcDbBlockReference
  2
_Dot
 10
112.1000000000002
 20
110.2000000000011
 30
0.0
 41
1.0
 42
1.0
 43
1.0
 50
90.0
  0
INSERT
  5
F5C0
330
F1E1
100
AcDbEntity
  8
AM_5
100
AcDbBlockReference
  2
_Dot
 10
112.1000000000002
 20
112.7000000000011
 30
0.0
 41
1.0
 42
1.0
 43
1.0
 50
270.0
  0
MTEXT
  5
F5C1
330
F1E1
100
AcDbEntity
  8
AM_5
 62
     2
100
AcDbMText
 10
109.0000000000002
 20
118.5466666666678
 30
0.0
 40
3.2
 41
0.0
 71
     5
 72
     1
  1
2.5
 11
0.0000000000000001
 21
1.0
 31
0.0
 73
     1
 44
1.0
  0
POINT
  5
F5C2
330
F1E1
100
AcDbEntity
  8
Defpoints
 62
     0
100
AcDbPoint
 10
102.1000000000002
 20
110.2000000000011
 30
0.0
  0
POINT
  5
F5C3
330
F1E1
100
AcDbEntity
  8
Defpoints
 62
     0
100
AcDbPoint
 10
101.5999999999999
 20
112.7000000000011
 30
0.0
  0
POINT
  5
F5C4
330
F1E1
100
AcDbEntity
  8
Defpoints
 62
     0
100
AcDbPoint
 10
112.1000000000002
 20
112.7000000000011
 30
0.0
  0
ENDBLK
  5
F1EE
330
F1E1
100
AcDbEntity
  8
0
100
AcDbBlockEnd
  0
BLOCK
  5
F1F9
330
F1EF
100
AcDbEntity
  8
0
100
AcDbBlockBegin
  2
*D15
 70
     1
 10
0.0
 20
0.0
 30
0.0
  3
*D15
  1

  0
LINE
  5
F5C5
330
F1EF
100
AcDbEntity
  8
AM_5
100
AcDbLine
 10
103.6000000000002
 20
110.2000000000011
 30
0.0
 11
113.1000000000003
 21
110.2000000000011
 31
0.0
  0
LINE
  5
F5C6
330
F1EF
100
AcDbEntity
  8
AM_5
100
AcDbLine
 10
101.2000000000006
 20
105.2000000000007
 30
0.0
 11
113.1000000000003
 21
105.2000000000007
 31
0.0
  0
LINE
  5
F5C7
330
F1EF
100
AcDbEntity
  8
AM_5
100
AcDbLine
 10
112.1000000000003
 20
109.2000000000011
 30
0.0
 11
112.1000000000003
 21
106.2000000000007
 31
0.0
  0
INSERT
  5
F5C8
330
F1EF
100
AcDbEntity
  8
AM_5
100
AcDbBlockReference
  2
_Dot
 10
112.1000000000003
 20
110.2000000000011
 30
0.0
 41
1.0
 42
1.0
 43
1.0
 50
90.0
  0
INSERT
  5
F5C9
330
F1EF
100
AcDbEntity
  8
AM_5
100
AcDbBlockReference
  2
_Dot
 10
112.1000000000003
 20
105.2000000000007
 30
0.0
 41
1.0
 42
1.0
 43
1.0
 50
270.0
  0
MTEXT
  5
F5CA
330
F1EF
100
AcDbEntity
  8
AM_5
 62
     2
100
AcDbMText
 10
109.0000000000003
 20
107.7000000000009
 30
0.0
 40
3.2
 41
0.0
 71
     5
 72
     1
  1
5
 11
0.0000000000000001
 21
1.0
 31
0.0
 73
     1
 44
1.0
  0
POINT
  5
F5CB
330
F1EF
100
AcDbEntity
  8
Defpoints
 62
     0
100
AcDbPoint
 10
102.1000000000002
 20
110.2000000000011
 30
0.0
  0
POINT
  5
F5CC
330
F1EF
100
AcDbEntity
  8
Defpoints
 62
     0
100
AcDbPoint
 10
99.70000000000062
 20
105.2000000000007
 30
0.0
  0
POINT
  5
F5CD
330
F1EF
100
AcDbEntity
  8
Defpoints
 62
     0
100
AcDbPoint
 10
112.1000000000003
 20
105.2000000000007
 30
0.0
  0
ENDBLK
  5
F1FA
330
F1EF
100
AcDbEntity
  8
0
100
AcDbBlockEnd
  0
BLOCK
  5
F205
330
F1FB
100
AcDbEntity
  8
0
100
AcDbBlockBegin
  2
*D16
 70
     1
 10
0.0
 20
0.0
 30
0.0
  3
*D16
  1

  0
LINE
  5
F4F6
330
F1FB
100
AcDbEntity
  8
AM_5
100
AcDbLine
 10
56.90000000000023
 20
66.7000000000001
 30
0.0
 11
48.89999899000031
 21
66.7000000000001
 31
0.0
  0
LINE
  5
F4F7
330
F1FB
100
AcDbEntity
  8
AM_5
100
AcDbLine
 10
56.90000000000051
 20
57.50000000000028
 30
0.0
 11
48.89999899000031
 21
57.50000000000028
 31
0.0
  0
LINE
  5
F4F8
330
F1FB
100
AcDbEntity
  8
AM_5
100
AcDbLine
 10
49.89999899000031
 20
65.7000000000001
 30
0.0
 11
49.89999899000031
 21
58.50000000000028
 31
0.0
  0
INSERT
  5
F4F9
330
F1FB
100
AcDbEntity
  8
AM_5
100
AcDbBlockReference
  2
_Dot
 10
49.89999899000031
 20
66.7000000000001
 30
0.0
 41
1.0
 42
1.0
 43
1.0
 50
90.0
  0
INSERT
  5
F4FA
330
F1FB
100
AcDbEntity
  8
AM_5
100
AcDbBlockReference
  2
_Dot
 10
49.89999899000031
 20
57.50000000000028
 30
0.0
 41
1.0
 42
1.0
 43
1.0
 50
270.0
  0
MTEXT
  5
F4FB
330
F1FB
100
AcDbEntity
  8
AM_5
 62
     2
100
AcDbMText
 10
46.7999989900003
 20
62.10000000000021
 30
0.0
 40
3.2
 41
0.0
 71
     5
 72
     1
  1
9.2
 11
0.0000000000000001
 21
1.0
 31
0.0
 73
     1
 44
1.0
  0
POINT
  5
F4FC
330
F1FB
100
AcDbEntity
  8
Defpoints
 62
     0
100
AcDbPoint
 10
58.40000000000023
 20
66.7000000000001
 30
0.0
  0
POINT
  5
F4FD
330
F1FB
100
AcDbEntity
  8
Defpoints
 62
     0
100
AcDbPoint
 10
58.40000000000052
 20
57.50000000000028
 30
0.0
  0
POINT
  5
F4FE
330
F1FB
100
AcDbEntity
  8
Defpoints
 62
     0
100
AcDbPoint
 10
49.89999899000031
 20
57.50000000000028
 30
0.0
  0
ENDBLK
  5
F206
330
F1FB
100
AcDbEntity
  8
0
100
AcDbBlockEnd
  0
ENDSEC
  0
SECTION
  2
ENTITIES
  0
LINE
  5
E4FE
330
1F
100
AcDbEntity
  8
AM_5
100
AcDbLine
 10
31.50000000000002
 20
201.5
 30
0.0
 11
31.50000000000002
 21
145.4999999999999
 31
0.0
  0
LINE
  5
E4FF
330
1F
100
AcDbEntity
  8
AM_5
100
AcDbLine
 10
11.50000000000002
 20
193.4999999999999
 30
0.0
 11
121.5
 21
193.4999999999999
 31
0.0
  0
LINE
  5
E500
330
1F
100
AcDbEntity
  8
AM_5
100
AcDbLine
 10
11.50000000000002
 20
185.4999999999999
 30
0.0
 11
121.5
 21
185.4999999999999
 31
0.0
  0
LINE
  5
E501
330
1F
100
AcDbEntity
  8
AM_5
100
AcDbLine
 10
11.50000000000002
 20
177.4999999999999
 30
0.0
 11
121.5
 21
177.4999999999999
 31
0.0
  0
LINE
  5
E502
330
1F
100
AcDbEntity
  8
AM_0
  6
中線
370
    30
100
AcDbLine
 10
11.50000000000002
 20
201.5
 30
0.0
 11
11.50000000000002
 21
145.4999999999999
 31
0.0
  0
LINE
  5
E503
330
1F
100
AcDbEntity
  8
AM_0
  6
中線
370
    30
100
AcDbLine
 10
11.50000000000002
 20
201.5
 30
0.0
 11
121.5
 21
201.5
 31
0.0
  0
LINE
  5
E504
330
1F
100
AcDbEntity
  8
AM_0
  6
中線
370
    30
100
AcDbLine
 10
121.5
 20
201.5
 30
0.0
 11
121.5
 21
145.4999999999999
 31
0.0
  0
MTEXT
  5
E505
330
1F
100
AcDbEntity
  8
AM_6
100
AcDbMText
 10
31.50000000000002
 20
197.4999999999999
 30
0.0
 40
3.2
 41
90.0
 71
     4
 72
     5
  1
　エッジキャップ
 73
     1
 44
1.0
  0
MTEXT
  5
E506
330
1F
100
AcDbEntity
  8
AM_6
100
AcDbMText
 10
31.50000000000002
 20
189.4999999999999
 30
0.0
 40
3.2
 41
90.0
 71
     4
 72
     5
  1
　LRB-11J
 73
     1
 44
1.0
  0
MTEXT
  5
E507
330
1F
100
AcDbEntity
  8
AM_6
100
AcDbMText
 10
31.50000000000002
 20
181.4999999999999
 30
0.0
 40
3.2
 41
90.0
 71
     4
 72
     5
  1
　ABS樹脂
 73
     1
 44
1.0
  0
MTEXT
  5
E508
330
1F
100
AcDbEntity
  8
AM_6
100
AcDbMText
 10
31.50000000000002
 20
173.4999999999999
 30
0.0
 40
3.2
 41
90.0
 71
     4
 72
     5
  1
　生地（グレー色）
 73
     1
 44
1.0
  0
LINE
  5
E509
330
1F
100
AcDbEntity
  8
AM_5
100
AcDbLine
 10
11.50000000000002
 20
169.4999999999999
 30
0.0
 11
121.5
 21
169.4999999999999
 31
0.0
  0
MTEXT
  5
E50D
330
1F
100
AcDbEntity
  8
AM_6
100
AcDbMText
 10
21.50000000000002
 20
197.4999999999999
 30
0.0
 40
3.2
 41
20.0
 71
     5
 72
     5
  1
品　名
 73
     1
 44
1.0
  0
MTEXT
  5
E50E
330
1F
100
AcDbEntity
  8
AM_6
100
AcDbMText
 10
21.50000000000002
 20
189.4999999999999
 30
0.0
 40
3.2
 41
20.0
 71
     5
 72
     5
  1
品　番
 73
     1
 44
1.0
  0
MTEXT
  5
E50F
330
1F
100
AcDbEntity
  8
AM_6
100
AcDbMText
 10
21.50000000000002
 20
181.4999999999999
 30
0.0
 40
3.2
 41
20.0
 71
     5
 72
     5
  1
材　質
 73
     1
 44
1.0
  0
MTEXT
  5
E510
330
1F
100
AcDbEntity
  8
AM_6
100
AcDbMText
 10
21.50000000000002
 20
173.4999999999999
 30
0.0
 40
3.2
 41
20.0
 71
     5
 72
     5
  1
仕上げ
 73
     1
 44
1.0
  0
LINE
  5
E512
330
1F
100
AcDbEntity
  8
AM_0
  6
中線
370
    30
100
AcDbLine
 10
11.50000000000002
 20
145.4999999999999
 30
0.0
 11
121.5
 21
145.4999999999999
 31
0.0
  0
LINE
  5
E513
330
1F
100
AcDbEntity
  8
AM_5
100
AcDbLine
 10
31.50000000000002
 20
161.4999999999999
 30
0.0
 11
121.5
 21
161.4999999999999
 31
0.0
  0
LINE
  5
E515
330
1F
100
AcDbEntity
  8
AM_5
100
AcDbLine
 10
31.50000000000002
 20
153.4999999999999
 30
0.0
 11
121.5
 21
153.4999999999999
 31
0.0
  0
MTEXT
  5
E518
330
1F
100
AcDbEntity
  8
AM_6
100
AcDbMText
 10
21.50000000000002
 20
165.4999999999999
 30
0.0
 40
3.2
 41
20.0
 71
     5
 72
     5
  1
備　考
 73
     1
 44
1.0
  0
LWPOLYLINE
  5
E52A
330
1F
100
AcDbEntity
  8
AM_0
100
AcDbPolyline
 90
        4
 70
     1
 43
0.0
 10
11.50000000000002
 20
201.5
 10
285.5
 20
201.5
 10
285.5
 20
8.499999999999943
 10
11.5
 20
8.5
1001
GENIUS_GENREC_14
1002
{
1000
PYDIR
1011
11.50000000000001
1021
8.499999999999943
1031
0.0
1002
}
1002
{
1000
PXDIR
1011
285.5
1021
201.5
1031
0.0
1002
}
1002
{
1000
PORI
1011
11.50000000000002
1021
201.5
1031
0.0
1002
}
1002
{
1000
PINS
1011
11.50000000000002
1021
201.5
1031
0.0
1002
}
1002
{
1000
PINS2
1011
285.5
1021
8.499999999999943
1031
0.0
1002
}
1002
{
1000
C
1070
     1
1002
}
1001
GENIUS_GENOBJ-N-REC_13
1002
{
1000
OWNER
1000
GEN
1002
}
1001
GENIUS_GENODEF_13
1002
{
1000
HIER
1070
     0
1002
}
1002
{
1000
MANEDIT
1070
     0
1002
}
1002
{
1000
NOSEL
1070
     0
1002
}
1002
{
1000
BEHIND
1070
     0
1002
}
1002
{
1000
OTHER
1070
     0
1002
}
1002
{
1000
REACTOR
1002
}
  0
LWPOLYLINE
  5
E52B
330
1F
100
AcDbEntity
  8
size
100
AcDbPolyline
 90
        4
 70
     1
 43
0.0
 10
0.0000000000000213
 20
210.0
 10
297.0
 20
210.0
 10
297.0
 20
-0.0000000000000568
 10
0.0
 20
0.0
1001
GENIUS_GENREC_14
1002
{
1000
PYDIR
1011
0.0000000000000084
1021
-0.0000000000000568
1031
0.0
1002
}
1002
{
1000
PXDIR
1011
297.0
1021
210.0
1031
0.0
1002
}
1002
{
1000
PORI
1011
0.0000000000000213
1021
210.0
1031
0.0
1002
}
1002
{
1000
PINS
1011
0.0000000000000213
1021
210.0
1031
0.0
1002
}
1002
{
1000
PINS2
1011
297.0
1021
-0.0000000000000568
1031
0.0
1002
}
1002
{
1000
C
1070
     1
1002
}
1001
GENIUS_GENOBJ-N-REC_13
1002
{
1000
OWNER
1000
GEN
1002
}
1001
GENIUS_GENODEF_13
1002
{
1000
HIER
1070
     0
1002
}
1002
{
1000
MANEDIT
1070
     0
1002
}
1002
{
1000
NOSEL
1070
     0
1002
}
1002
{
1000
BEHIND
1070
     0
1002
}
1002
{
1000
OTHER
1070
     0
1002
}
1002
{
1000
REACTOR
1002
}
  0
LINE
  5
ED6F
330
1F
100
AcDbEntity
  8
AM_0
100
AcDbLine
 10
239.1000000000012
 20
66.19999999999979
 30
0.0
 11
239.100000000001
 21
57.99999999999997
 31
0.0
  0
LINE
  5
ED70
330
1F
100
AcDbEntity
  8
AM_0
100
AcDbLine
 10
237.67071067812
 20
61.97071067811882
 30
0.0
 11
236.7000000000013
 21
60.99999999999906
 31
0.0
  0
LINE
  5
ED71
330
1F
100
AcDbEntity
  8
AM_0
100
AcDbLine
 10
234.6292893218823
 20
61.97071067811882
 30
0.0
 11
235.6000000000012
 21
60.99999999999906
 31
0.0
  0
LINE
  5
ED72
330
1F
100
AcDbEntity
  8
AM_0
100
AcDbLine
 10
234.6000000000012
 20
61.90000000000006
 30
0.0
 11
234.6000000000012
 21
59.09999999999943
 31
0.0
  0
LINE
  5
ED73
330
1F
100
AcDbEntity
  8
AM_0
100
AcDbLine
 10
237.7000000000011
 20
61.90000000000006
 30
0.0
 11
237.7000000000011
 21
59.98284271247436
 31
0.0
  0
LINE
  5
ED74
330
1F
100
AcDbEntity
  8
AM_0
100
AcDbLine
 10
234.500000000001
 20
61.89999999999961
 30
0.0
 11
234.5000000000008
 21
60.19999999999933
 31
0.0
  0
LINE
  5
ED75
330
1F
100
AcDbEntity
  8
AM_0
100
AcDbLine
 10
237.800000000001
 20
61.90000000000006
 30
0.0
 11
237.800000000001
 21
61.20000000000024
 31
0.0
  0
LINE
  5
ED76
330
1F
100
AcDbEntity
  8
AM_0
100
AcDbLine
 10
199.5000000000008
 20
60.2000000000007
 30
0.0
 11
199.5000000000008
 21
64.90000000000006
 31
0.0
  0
LINE
  5
ED77
330
1F
100
AcDbEntity
  8
AM_0
100
AcDbLine
 10
198.4000000000009
 20
59.99999999999997
 30
0.0
 11
198.4000000000009
 21
63.99999999999997
 31
0.0
  0
LINE
  5
ED78
330
1F
100
AcDbEntity
  8
AM_0
100
AcDbLine
 10
199.4000000000009
 20
59.09999999999943
 30
0.0
 11
199.4000000000009
 21
64.90000000000006
 31
0.0
  0
LINE
  5
ED79
330
1F
100
AcDbEntity
  8
AM_0
100
AcDbLine
 10
194.9000000000011
 20
57.99999999999997
 30
0.0
 11
194.9000000000009
 21
71.69999999999979
 31
0.0
  0
LINE
  5
ED7A
330
1F
100
AcDbEntity
  8
AM_0
100
AcDbLine
 10
197.4000000000009
 20
60.355634918611
 30
0.0
 11
197.4000000000011
 21
63.99999999999997
 31
0.0
  0
LINE
  5
ED7B
330
1F
100
AcDbEntity
  8
AM_0
100
AcDbLine
 10
196.4000000000009
 20
59.98284271247482
 30
0.0
 11
196.4000000000011
 21
64.90000000000006
 31
0.0
  0
LINE
  5
ED7C
330
1F
100
AcDbEntity
  8
AM_0
100
AcDbLine
 10
196.300000000001
 20
59.98284271247482
 30
0.0
 11
196.300000000001
 21
62.20000000000024
 31
0.0
  0
LINE
  5
ED7D
102
{ACAD_REACTORS
330
EE9A
102
}
330
1F
100
AcDbEntity
  8
AM_0
100
AcDbLine
 10
219.7263360745409
 20
66.69999999999979
 30
0.0
 11
238.6000000000012
 21
66.69999999999979
 31
0.0
  0
ARC
  5
ED7E
330
1F
100
AcDbEntity
  8
AM_0
100
AcDbCircle
 10
237.6000000000012
 20
61.90000000000006
 30
0.0
 40
0.2
100
AcDbArc
 50
0.0
 51
90.0000000000065
  0
ARC
  5
ED7F
330
1F
100
AcDbEntity
  8
AM_0
100
AcDbCircle
 10
238.6000000000012
 20
66.19999999999979
 30
0.0
 40
0.5
100
AcDbArc
 50
0.0
 51
90.0
  0
LINE
  5
ED80
330
1F
100
AcDbEntity
  8
AM_0
100
AcDbLine
 10
236.5000000000017
 20
62.09999999999988
 30
0.0
 11
234.7000000000011
 21
62.09999999999943
 31
0.0
  0
LINE
  5
ED81
330
1F
100
AcDbEntity
  8
AM_0
100
AcDbLine
 10
236.800000000001
 20
62.40000000000006
 30
0.0
 11
237.1000000000012
 21
62.09999999999988
 31
0.0
  0
LINE
  5
ED82
330
1F
100
AcDbEntity
  8
AM_0
100
AcDbLine
 10
236.5000000000013
 20
62.09999999999988
 30
0.0
 11
236.800000000001
 21
62.40000000000006
 31
0.0
  0
LINE
  5
ED83
330
1F
100
AcDbEntity
  8
AM_0
100
AcDbLine
 10
236.800000000001
 20
62.30000000000015
 30
0.0
 11
237.1000000000012
 21
61.99999999999997
 31
0.0
  0
LINE
  5
ED84
330
1F
100
AcDbEntity
  8
AM_0
100
AcDbLine
 10
236.5000000000013
 20
61.99999999999997
 30
0.0
 11
236.800000000001
 21
62.30000000000015
 31
0.0
  0
LINE
  5
ED85
330
1F
100
AcDbEntity
  8
AM_0
100
AcDbLine
 10
236.5000000000013
 20
62.00000000000042
 30
0.0
 11
236.5000000000013
 21
62.09999999999943
 31
0.0
  0
LINE
  5
ED86
330
1F
100
AcDbEntity
  8
AM_0
100
AcDbLine
 10
237.100000000001
 20
62.00000000000042
 30
0.0
 11
237.1000000000012
 21
62.09999999999943
 31
0.0
  0
LINE
  5
ED87
330
1F
100
AcDbEntity
  8
AM_0
100
AcDbLine
 10
236.800000000001
 20
62.30000000000015
 30
0.0
 11
236.800000000001
 21
62.40000000000006
 31
0.0
  0
LINE
  5
ED88
330
1F
100
AcDbEntity
  8
AM_0
100
AcDbLine
 10
237.67071067812
 20
61.97071067811882
 30
0.0
 11
237.7414213562382
 21
62.04142135623758
 31
0.0
  0
LINE
  5
ED89
330
1F
100
AcDbEntity
  8
AM_0
100
AcDbLine
 10
234.5585786437638
 20
62.04142135623712
 30
0.0
 11
234.6292893218823
 21
61.97071067811882
 31
0.0
  0
ARC
  5
ED8A
330
1F
100
AcDbEntity
  8
AM_0
100
AcDbCircle
 10
234.7000000000011
 20
61.89999999999961
 30
0.0
 40
0.2
100
AcDbArc
 50
90.0000000000065
 51
180.0
  0
ARC
  5
ED8B
330
1F
100
AcDbEntity
  8
AM_0
100
AcDbCircle
 10
234.7000000000011
 20
61.90000000000006
 30
0.0
 40
0.1
100
AcDbArc
 50
90.0000000000065
 51
180.0
  0
ARC
  5
ED8C
330
1F
100
AcDbEntity
  8
AM_0
100
AcDbCircle
 10
237.6000000000012
 20
61.90000000000006
 30
0.0
 40
0.1
100
AcDbArc
 50
0.0
 51
90.0000000000065
  0
LINE
  5
ED8D
330
1F
100
AcDbEntity
  8
AM_0
100
AcDbLine
 10
237.6000000000012
 20
61.99999999999997
 30
0.0
 11
234.7000000000011
 21
61.99999999999997
 31
0.0
  0
LINE
  5
ED8E
330
1F
100
AcDbEntity
  8
AM_0
100
AcDbLine
 10
237.6000000000012
 20
62.09999999999988
 30
0.0
 11
237.1000000000012
 21
62.09999999999988
 31
0.0
  0
LINE
  5
ED8F
330
1F
100
AcDbEntity
  8
AM_0
100
AcDbLine
 10
199.3707106781195
 20
64.97071067811882
 30
0.0
 11
198.4000000000009
 21
63.99999999999997
 31
0.0
  0
LINE
  5
ED90
330
1F
100
AcDbEntity
  8
AM_0
100
AcDbLine
 10
199.4414213562381
 20
65.04142135623758
 30
0.0
 11
199.3707106781195
 21
64.97071067811882
 31
0.0
  0
ARC
  5
ED91
330
1F
100
AcDbEntity
  8
AM_0
100
AcDbCircle
 10
199.300000000001
 20
64.90000000000006
 30
0.0
 40
0.1
100
AcDbArc
 50
0.0
 51
90.0
  0
ARC
  5
ED92
330
1F
100
AcDbEntity
  8
AM_0
100
AcDbCircle
 10
199.300000000001
 20
64.90000000000006
 30
0.0
 40
0.2
100
AcDbArc
 50
0.0
 51
90.0000000000065
  0
LINE
  5
ED93
330
1F
100
AcDbEntity
  8
AM_0
100
AcDbLine
 10
196.1000000000012
 20
62.49999999999997
 30
0.0
 11
196.0000000000013
 21
62.49999999999997
 31
0.0
  0
LINE
  5
ED94
330
1F
100
AcDbEntity
  8
AM_0
100
AcDbLine
 10
196.300000000001
 20
62.80000000000015
 30
0.0
 11
196.300000000001
 21
64.89999999999961
 31
0.0
  0
LINE
  5
ED95
330
1F
100
AcDbEntity
  8
AM_0
100
AcDbLine
 10
196.1000000000012
 20
62.49999999999997
 30
0.0
 11
196.4000000000009
 21
62.19999999999979
 31
0.0
  0
LINE
  5
ED96
330
1F
100
AcDbEntity
  8
AM_0
100
AcDbLine
 10
196.4000000000011
 20
62.80000000000015
 30
0.0
 11
196.1000000000012
 21
62.49999999999997
 31
0.0
  0
LINE
  5
ED97
330
1F
100
AcDbEntity
  8
AM_0
100
AcDbLine
 10
196.0000000000013
 20
62.49999999999997
 30
0.0
 11
196.300000000001
 21
62.19999999999979
 31
0.0
  0
LINE
  5
ED98
330
1F
100
AcDbEntity
  8
AM_0
100
AcDbLine
 10
196.300000000001
 20
62.80000000000015
 30
0.0
 11
196.0000000000013
 21
62.49999999999997
 31
0.0
  0
LINE
  5
ED99
330
1F
100
AcDbEntity
  8
AM_0
100
AcDbLine
 10
196.4000000000009
 20
62.19999999999979
 30
0.0
 11
196.300000000001
 21
62.19999999999979
 31
0.0
  0
LINE
  5
ED9A
330
1F
100
AcDbEntity
  8
AM_0
100
AcDbLine
 10
196.4000000000009
 20
62.80000000000061
 30
0.0
 11
196.300000000001
 21
62.80000000000061
 31
0.0
  0
LINE
  5
ED9B
330
1F
100
AcDbEntity
  8
AM_0
100
AcDbLine
 10
197.0000000000013
 20
65.09999999999942
 30
0.0
 11
197.0000000000013
 21
64.99999999999997
 31
0.0
  0
LINE
  5
ED9C
330
1F
100
AcDbEntity
  8
AM_0
100
AcDbLine
 10
197.6000000000012
 20
65.09999999999942
 30
0.0
 11
197.6000000000012
 21
64.99999999999997
 31
0.0
  0
LINE
  5
ED9D
330
1F
100
AcDbEntity
  8
AM_0
100
AcDbLine
 10
197.300000000001
 20
65.30000000000061
 30
0.0
 11
197.300000000001
 21
65.3999999999996
 31
0.0
  0
LINE
  5
ED9E
330
1F
100
AcDbEntity
  8
AM_0
100
AcDbLine
 10
197.0000000000013
 20
65.09999999999942
 30
0.0
 11
196.5000000000013
 21
65.09999999999942
 31
0.0
  0
LINE
  5
ED9F
330
1F
100
AcDbEntity
  8
AM_0
100
AcDbLine
 10
197.300000000001
 20
65.30000000000015
 30
0.0
 11
197.0000000000013
 21
64.99999999999997
 31
0.0
  0
LINE
  5
EDA0
330
1F
100
AcDbEntity
  8
AM_0
100
AcDbLine
 10
197.6000000000012
 20
64.99999999999997
 30
0.0
 11
197.300000000001
 21
65.30000000000015
 31
0.0
  0
LINE
  5
EDA1
330
1F
100
AcDbEntity
  8
AM_0
100
AcDbLine
 10
197.300000000001
 20
65.3999999999996
 30
0.0
 11
197.0000000000013
 21
65.09999999999942
 31
0.0
  0
LINE
  5
EDA2
330
1F
100
AcDbEntity
  8
AM_0
100
AcDbLine
 10
197.6000000000012
 20
65.09999999999942
 30
0.0
 11
197.300000000001
 21
65.3999999999996
 31
0.0
  0
LINE
  5
EDA3
330
1F
100
AcDbEntity
  8
AM_0
100
AcDbLine
 10
196.4292893218825
 20
64.97071067811882
 30
0.0
 11
197.4000000000009
 21
63.99999999999997
 31
0.0
  0
LINE
  5
EDA4
330
1F
100
AcDbEntity
  8
AM_0
100
AcDbLine
 10
196.3585786437637
 20
65.04142135623713
 30
0.0
 11
196.4292893218825
 21
64.97071067811882
 31
0.0
  0
ARC
  5
EDA5
330
1F
100
AcDbEntity
  8
AM_0
100
AcDbCircle
 10
196.5000000000013
 20
64.90000000000006
 30
0.0
 40
0.1
100
AcDbArc
 50
90.0
 51
180.0
  0
ARC
  5
EDA6
330
1F
100
AcDbEntity
  8
AM_0
100
AcDbCircle
 10
196.5000000000013
 20
64.89999999999961
 30
0.0
 40
0.2
100
AcDbArc
 50
90.0
 51
180.0
  0
ARC
  5
EDA7
330
1F
100
AcDbEntity
  8
AM_0
100
AcDbCircle
 10
196.4000000000009
 20
71.69999999999979
 30
0.0
 40
1.5
100
AcDbArc
 50
55.89904734337848
 51
180.0
  0
LINE
  5
EDA8
330
1F
100
AcDbEntity
  8
AM_0
100
AcDbLine
 10
198.4000000000009
 20
64.00000000000042
 30
0.0
 11
197.4000000000009
 21
63.99999999999997
 31
0.0
  0
LINE
  5
EDA9
330
1F
100
AcDbEntity
  8
AM_0
100
AcDbLine
 10
199.300000000001
 20
64.99999999999997
 30
0.0
 11
196.5000000000013
 21
64.99999999999997
 31
0.0
  0
LINE
  5
EDAA
330
1F
100
AcDbEntity
  8
AM_0
100
AcDbLine
 10
199.300000000001
 20
65.09999999999988
 30
0.0
 11
197.6000000000012
 21
65.09999999999942
 31
0.0
  0
ARC
  5
EDAB
330
1F
100
AcDbEntity
  8
AM_0
100
AcDbCircle
 10
218.5780518233338
 20
106.1833058808201
 30
0.0
 40
39.5
100
AcDbArc
 50
237.3041712612353
 51
271.6658509242537
  0
LINE
  5
EDAC
330
1F
100
AcDbEntity
  8
AM_0
100
AcDbLine
 10
237.7000000000011
 20
106.200000000001
 30
0.0
 11
238.0075937353571
 21
106.5000000000012
 31
0.0
  0
LINE
  5
EDAD
102
{ACAD_REACTORS
330
EE63
330
EE7F
102
}
330
1F
100
AcDbEntity
  8
AM_0
100
AcDbLine
 10
194.9000000000011
 20
110.2000000000005
 30
0.0
 11
239.1000000000008
 21
110.2000000000014
 31
0.0
  0
LINE
  5
EDAE
102
{ACAD_REACTORS
330
EE63
102
}
330
1F
100
AcDbEntity
  8
AM_0
100
AcDbLine
 10
195.4000000000011
 20
112.7000000000005
 30
0.0
 11
238.6000000000009
 21
112.7000000000014
 31
0.0
  0
LINE
  5
EDAF
330
1F
100
AcDbEntity
  8
AM_0
100
AcDbLine
 10
238.1000000000012
 20
60.90000000000006
 30
0.0
 11
237.800000000001
 21
60.59999999999988
 31
0.0
  0
LINE
  5
EDB0
330
1F
100
AcDbEntity
  8
AM_0
100
AcDbLine
 10
237.800000000001
 20
61.20000000000024
 30
0.0
 11
238.1000000000012
 21
60.90000000000006
 31
0.0
  0
LINE
  5
EDB1
330
1F
100
AcDbEntity
  8
AM_0
100
AcDbLine
 10
238.000000000001
 20
60.90000000000006
 30
0.0
 11
237.7000000000011
 21
60.59999999999988
 31
0.0
  0
LINE
  5
EDB2
330
1F
100
AcDbEntity
  8
AM_0
100
AcDbLine
 10
237.7000000000011
 20
61.20000000000024
 30
0.0
 11
238.000000000001
 21
60.90000000000006
 31
0.0
  0
ARC
  5
EDB3
330
1F
100
AcDbEntity
  8
AM_0
100
AcDbCircle
 10
237.6000000000012
 20
59.98284271247482
 30
0.0
 40
0.2
100
AcDbArc
 50
314.999999999991
 51
0.0
  0
LINE
  5
EDB4
102
{ACAD_REACTORS
330
EE9A
330
EEB2
102
}
330
1F
100
AcDbEntity
  8
AM_0
100
AcDbLine
 10
238.6000000000009
 20
57.49999999999997
 30
0.0
 11
195.4000000000011
 21
57.49999999999997
 31
0.0
  0
LINE
  5
EDB5
330
1F
100
AcDbEntity
  8
AM_0
100
AcDbLine
 10
239.1000000000008
 20
110.2000000000014
 30
0.0
 11
239.100000000001
 21
112.2000000000014
 31
0.0
  0
LINE
  5
EDB6
330
1F
100
AcDbEntity
  8
AM_0
100
AcDbLine
 10
238.0075937353571
 20
106.5000000000012
 30
0.0
 11
238.0999062939233
 21
110.1925023426532
 31
0.0
  0
ARC
  5
EDB7
330
1F
100
AcDbEntity
  8
AM_0
100
AcDbCircle
 10
238.6000000000009
 20
112.2000000000014
 30
0.0
 40
0.5
100
AcDbArc
 50
0.0
 51
90.00000000000003
  0
LINE
  5
EDB8
330
1F
100
AcDbEntity
  8
AM_0
100
AcDbLine
 10
238.0000000000013
 20
60.90000000000006
 30
0.0
 11
238.1000000000012
 21
60.90000000000006
 31
0.0
  0
ARC
  5
EDB9
330
1F
100
AcDbEntity
  8
AM_0
100
AcDbCircle
 10
238.6000000000009
 20
57.99999999999997
 30
0.0
 40
0.5
100
AcDbArc
 50
270.0
 51
0.0
  0
LINE
  5
EDBA
330
1F
100
AcDbEntity
  8
AM_0
100
AcDbLine
 10
235.6000000000012
 20
105.200000000001
 30
0.0
 11
236.7000000000011
 21
105.200000000001
 31
0.0
  0
LINE
  5
EDBB
330
1F
100
AcDbEntity
  8
AM_0
100
AcDbLine
 10
234.6000000000012
 20
106.2000000000005
 30
0.0
 11
235.2000000000011
 21
106.2000000000005
 31
0.0
  0
LINE
  5
EDBC
330
1F
100
AcDbEntity
  8
AM_0
100
AcDbLine
 10
237.7000000000011
 20
106.200000000001
 30
0.0
 11
237.800000000001
 21
110.2000000000014
 31
0.0
  0
LINE
  5
EDBD
330
1F
100
AcDbEntity
  8
AM_0
100
AcDbLine
 10
234.6000000000012
 20
106.200000000001
 30
0.0
 11
234.5000000000008
 21
110.200000000001
 31
0.0
  0
LINE
  5
EDBE
330
1F
100
AcDbEntity
  8
AM_0
100
AcDbLine
 10
236.7936939739997
 20
106.200000000001
 30
0.0
 11
236.7936939739997
 21
110.2000000000014
 31
0.0
  0
LINE
  5
EDBF
102
{ACAD_REACTORS
330
EE7F
102
}
330
1F
100
AcDbEntity
  8
AM_0
100
AcDbLine
 10
236.7000000000011
 20
105.200000000001
 30
0.0
 11
237.7000000000011
 21
106.200000000001
 31
0.0
  0
LINE
  5
EDC0
330
1F
100
AcDbEntity
  8
AM_0
100
AcDbLine
 10
236.3443650813914
 20
105.200000000001
 30
0.0
 11
236.7936939739997
 21
106.200000000001
 31
0.0
  0
LINE
  5
EDC1
330
1F
100
AcDbEntity
  8
AM_0
100
AcDbLine
 10
235.6000000000012
 20
105.200000000001
 30
0.0
 11
234.6000000000012
 21
106.200000000001
 31
0.0
  0
LINE
  5
EDC2
330
1F
100
AcDbEntity
  8
AM_0
100
AcDbLine
 10
235.2000000000011
 20
106.2000000000005
 30
0.0
 11
235.2000000000011
 21
110.200000000001
 31
0.0
  0
LINE
  5
EDC3
330
1F
100
AcDbEntity
  8
AM_0
100
AcDbLine
 10
235.5000000000013
 20
106.5000000000007
 30
0.0
 11
235.5000000000008
 21
110.2000000000014
 31
0.0
  0
LINE
  5
EDC4
330
1F
100
AcDbEntity
  8
AM_0
100
AcDbLine
 10
235.800000000001
 20
106.200000000001
 30
0.0
 11
235.800000000001
 21
110.2000000000014
 31
0.0
  0
LINE
  5
EDC5
330
1F
100
AcDbEntity
  8
AM_0
100
AcDbLine
 10
237.7000000000011
 20
106.5000000000012
 30
0.0
 11
237.7075000000012
 21
106.5000000000012
 31
0.0
  0
LINE
  5
EDC6
330
1F
100
AcDbEntity
  8
AM_0
100
AcDbLine
 10
234.6000000000012
 20
106.200000000001
 30
0.0
 11
234.2924062646452
 21
106.5000000000007
 31
0.0
  0
LINE
  5
EDC7
330
1F
100
AcDbEntity
  8
AM_0
100
AcDbLine
 10
234.2924062646452
 20
106.5000000000007
 30
0.0
 11
234.2000937060785
 21
110.1925023426527
 31
0.0
  0
LINE
  5
EDC8
330
1F
100
AcDbEntity
  8
AM_0
100
AcDbLine
 10
235.800000000001
 20
106.200000000001
 30
0.0
 11
235.5000000000011
 21
106.5000000000007
 31
0.0
  0
LINE
  5
EDC9
330
1F
100
AcDbEntity
  8
AM_0
100
AcDbLine
 10
235.5000000000011
 20
106.5000000000007
 30
0.0
 11
235.2000000000011
 21
106.2000000000005
 31
0.0
  0
LINE
  5
EDCA
330
1F
100
AcDbEntity
  8
AM_0
100
AcDbLine
 10
235.800000000001
 20
106.2000000000005
 30
0.0
 11
237.7000000000011
 21
106.200000000001
 31
0.0
  0
LINE
  5
EDCB
330
1F
100
AcDbEntity
  8
AM_0
100
AcDbLine
 10
194.9000000000011
 20
110.200000000001
 30
0.0
 11
194.9000000000011
 21
112.2000000000005
 31
0.0
  0
LINE
  5
EDCC
330
1F
100
AcDbEntity
  8
AM_0
100
AcDbLine
 10
199.4000000000011
 20
106.200000000001
 30
0.0
 11
199.5000000000008
 21
110.2000000000005
 31
0.0
  0
LINE
  5
EDCD
330
1F
100
AcDbEntity
  8
AM_0
100
AcDbLine
 10
198.4000000000009
 20
105.200000000001
 30
0.0
 11
199.4000000000011
 21
106.200000000001
 31
0.0
  0
LINE
  5
EDCE
330
1F
100
AcDbEntity
  8
AM_0
100
AcDbLine
 10
198.2000000000006
 20
106.200000000001
 30
0.0
 11
198.2000000000004
 21
110.2000000000005
 31
0.0
  0
LINE
  5
EDCF
330
1F
100
AcDbEntity
  8
AM_0
100
AcDbLine
 10
198.5000000000008
 20
106.5000000000012
 30
0.0
 11
198.5000000000008
 21
110.2000000000005
 31
0.0
  0
LINE
  5
EDD0
330
1F
100
AcDbEntity
  8
AM_0
100
AcDbLine
 10
198.800000000001
 20
106.200000000001
 30
0.0
 11
198.8000000000008
 21
110.2000000000005
 31
0.0
  0
LINE
  5
EDD1
330
1F
100
AcDbEntity
  8
AM_0
100
AcDbLine
 10
199.4000000000011
 20
106.200000000001
 30
0.0
 11
199.7075937353571
 21
106.5000000000012
 31
0.0
  0
LINE
  5
EDD2
330
1F
100
AcDbEntity
  8
AM_0
100
AcDbLine
 10
199.7075937353574
 20
106.5000000000012
 30
0.0
 11
199.7999062939233
 21
110.1925023426527
 31
0.0
  0
LINE
  5
EDD3
330
1F
100
AcDbEntity
  8
AM_0
100
AcDbLine
 10
198.2000000000006
 20
106.200000000001
 30
0.0
 11
198.500000000001
 21
106.5000000000012
 31
0.0
  0
LINE
  5
EDD4
330
1F
100
AcDbEntity
  8
AM_0
100
AcDbLine
 10
198.500000000001
 20
106.5000000000012
 30
0.0
 11
198.800000000001
 21
106.200000000001
 31
0.0
  0
LINE
  5
EDD5
330
1F
100
AcDbEntity
  8
AM_0
100
AcDbLine
 10
198.800000000001
 20
106.200000000001
 30
0.0
 11
199.4000000000011
 21
106.200000000001
 31
0.0
  0
LINE
  5
EDD6
330
1F
100
AcDbEntity
  8
AM_0
100
AcDbLine
 10
196.4000000000009
 20
106.200000000001
 30
0.0
 11
196.3000000000005
 21
110.2000000000005
 31
0.0
  0
LINE
  5
EDD7
330
1F
100
AcDbEntity
  8
AM_0
100
AcDbLine
 10
197.4000000000009
 20
105.200000000001
 30
0.0
 11
196.4000000000009
 21
106.200000000001
 31
0.0
  0
LINE
  5
EDD8
330
1F
100
AcDbEntity
  8
AM_0
100
AcDbLine
 10
197.3063060260023
 20
106.2000000000014
 30
0.0
 11
197.3063060260023
 21
110.2000000000005
 31
0.0
  0
LINE
  5
EDD9
330
1F
100
AcDbEntity
  8
AM_0
100
AcDbLine
 10
197.7556349186117
 20
105.200000000001
 30
0.0
 11
197.3063060260023
 21
106.2000000000014
 31
0.0
  0
LINE
  5
EDDA
330
1F
100
AcDbEntity
  8
AM_0
100
AcDbLine
 10
196.4000000000009
 20
106.200000000001
 30
0.0
 11
196.0924062646449
 21
106.5000000000012
 31
0.0
  0
LINE
  5
EDDB
330
1F
100
AcDbEntity
  8
AM_0
100
AcDbLine
 10
196.0924062646449
 20
106.5000000000012
 30
0.0
 11
196.0000937060782
 21
110.1925023426523
 31
0.0
  0
LINE
  5
EDDC
330
1F
100
AcDbEntity
  8
AM_0
100
AcDbLine
 10
196.4000000000009
 20
106.200000000001
 30
0.0
 11
198.2000000000006
 21
106.200000000001
 31
0.0
  0
LINE
  5
EDDD
330
1F
100
AcDbEntity
  8
AM_0
100
AcDbLine
 10
197.4000000000009
 20
105.200000000001
 30
0.0
 11
198.4000000000009
 21
105.200000000001
 31
0.0
  0
ARC
  5
EDDE
330
1F
100
AcDbEntity
  8
AM_0
100
AcDbCircle
 10
195.4000000000011
 20
112.2000000000005
 30
0.0
 40
0.5
100
AcDbArc
 50
90.00000000000003
 51
180.0
  0
LINE
  5
EDDF
330
1F
100
AcDbEntity
  8
AM_0
100
AcDbLine
 10
235.5000000000013
 20
58.59999999999988
 30
0.0
 11
235.800000000001
 21
58.90000000000006
 31
0.0
  0
LINE
  5
EDE0
330
1F
100
AcDbEntity
  8
AM_0
100
AcDbLine
 10
235.2000000000011
 20
58.89999999999961
 30
0.0
 11
235.5000000000013
 21
58.59999999999988
 31
0.0
  0
LINE
  5
EDE1
330
1F
100
AcDbEntity
  8
AM_0
100
AcDbLine
 10
235.5000000000013
 20
58.69999999999979
 30
0.0
 11
235.5000000000013
 21
58.59999999999988
 31
0.0
  0
LINE
  5
EDE2
330
1F
100
AcDbEntity
  8
AM_0
100
AcDbLine
 10
235.2000000000018
 20
58.89999999999915
 30
0.0
 11
234.7000000000011
 21
58.89999999999961
 31
0.0
  0
LINE
  5
EDE3
330
1F
100
AcDbEntity
  8
AM_0
100
AcDbLine
 10
235.5000000000013
 20
58.69999999999979
 30
0.0
 11
235.800000000001
 21
58.99999999999997
 31
0.0
  0
LINE
  5
EDE4
330
1F
100
AcDbEntity
  8
AM_0
100
AcDbLine
 10
235.2000000000011
 20
58.99999999999952
 30
0.0
 11
235.5000000000013
 21
58.69999999999979
 31
0.0
  0
LINE
  5
EDE5
330
1F
100
AcDbEntity
  8
AM_0
100
AcDbLine
 10
235.2000000000013
 20
58.99999999999952
 30
0.0
 11
235.2000000000011
 21
58.89999999999961
 31
0.0
  0
LINE
  5
EDE6
330
1F
100
AcDbEntity
  8
AM_0
100
AcDbLine
 10
235.800000000001
 20
58.99999999999952
 30
0.0
 11
235.800000000001
 21
58.90000000000006
 31
0.0
  0
LINE
  5
EDE7
330
1F
100
AcDbEntity
  8
AM_0
100
AcDbLine
 10
234.500000000001
 20
59.59999999999943
 30
0.0
 11
234.5000000000013
 21
59.09999999999943
 31
0.0
  0
LINE
  5
EDE8
330
1F
100
AcDbEntity
  8
AM_0
100
AcDbLine
 10
234.300000000001
 20
59.89999999999961
 30
0.0
 11
234.2000000000011
 21
59.89999999999961
 31
0.0
  0
LINE
  5
EDE9
330
1F
100
AcDbEntity
  8
AM_0
100
AcDbLine
 10
234.2000000000011
 20
59.89999999999961
 30
0.0
 11
234.5000000000013
 21
59.59999999999943
 31
0.0
  0
LINE
  5
EDEA
330
1F
100
AcDbEntity
  8
AM_0
100
AcDbLine
 10
234.5000000000013
 20
60.19999999999979
 30
0.0
 11
234.2000000000011
 21
59.89999999999961
 31
0.0
  0
LINE
  5
EDEB
330
1F
100
AcDbEntity
  8
AM_0
100
AcDbLine
 10
234.3000000000012
 20
59.89999999999961
 30
0.0
 11
234.6000000000012
 21
59.59999999999943
 31
0.0
  0
LINE
  5
EDEC
330
1F
100
AcDbEntity
  8
AM_0
100
AcDbLine
 10
234.6000000000012
 20
60.19999999999979
 30
0.0
 11
234.3000000000012
 21
59.89999999999961
 31
0.0
  0
LINE
  5
EDED
330
1F
100
AcDbEntity
  8
AM_0
100
AcDbLine
 10
234.600000000001
 20
59.59999999999943
 30
0.0
 11
234.5000000000013
 21
59.59999999999943
 31
0.0
  0
LINE
  5
EDEE
330
1F
100
AcDbEntity
  8
AM_0
100
AcDbLine
 10
234.6000000000012
 20
60.19999999999979
 30
0.0
 11
234.5000000000008
 21
60.19999999999979
 31
0.0
  0
LINE
  5
EDEF
330
1F
100
AcDbEntity
  8
AM_0
100
AcDbLine
 10
237.800000000001
 20
60.59999999999988
 30
0.0
 11
237.800000000001
 21
59.98284271247482
 31
0.0
  0
LINE
  5
EDF0
330
1F
100
AcDbEntity
  8
AM_0
100
AcDbLine
 10
237.7000000000011
 20
60.59999999999988
 30
0.0
 11
237.800000000001
 21
60.59999999999988
 31
0.0
  0
LINE
  5
EDF1
330
1F
100
AcDbEntity
  8
AM_0
100
AcDbLine
 10
237.7000000000011
 20
61.20000000000024
 30
0.0
 11
237.800000000001
 21
61.20000000000024
 31
0.0
  0
LINE
  5
EDF2
330
1F
100
AcDbEntity
  8
AM_0
100
AcDbLine
 10
237.6923879532523
 20
59.94457436923764
 30
0.0
 11
236.7000000000011
 21
60.35563491860964
 31
0.0
  0
LINE
  5
EDF3
330
1F
100
AcDbEntity
  8
AM_0
100
AcDbLine
 10
236.7554256307627
 20
59.00761204674925
 30
0.0
 11
236.344365081391
 21
59.99999999999997
 31
0.0
  0
LINE
  5
EDF4
330
1F
100
AcDbEntity
  8
AM_0
100
AcDbLine
 10
234.6292893218826
 20
59.02928932188067
 30
0.0
 11
235.6000000000012
 21
59.99999999999952
 31
0.0
  0
LINE
  5
EDF5
330
1F
100
AcDbEntity
  8
AM_0
100
AcDbLine
 10
236.3443650813914
 20
59.99999999999997
 30
0.0
 11
235.6000000000012
 21
59.99999999999952
 31
0.0
  0
LINE
  5
EDF6
330
1F
100
AcDbEntity
  8
AM_0
100
AcDbLine
 10
236.344365081391
 20
59.99999999999997
 30
0.0
 11
236.7000000000011
 21
60.35563491861009
 31
0.0
  0
LINE
  5
EDF7
330
1F
100
AcDbEntity
  8
AM_0
100
AcDbLine
 10
235.6000000000012
 20
60.99999999999906
 30
0.0
 11
235.6000000000012
 21
59.99999999999997
 31
0.0
  0
LINE
  5
EDF8
330
1F
100
AcDbEntity
  8
AM_0
100
AcDbLine
 10
236.7000000000013
 20
60.99999999999906
 30
0.0
 11
235.6000000000012
 21
60.99999999999951
 31
0.0
  0
LINE
  5
EDF9
330
1F
100
AcDbEntity
  8
AM_0
100
AcDbLine
 10
236.7000000000011
 20
60.99999999999951
 30
0.0
 11
236.7000000000011
 21
60.35563491860964
 31
0.0
  0
LINE
  5
EDFA
330
1F
100
AcDbEntity
  8
AM_0
100
AcDbLine
 10
236.7554256307627
 20
59.00761204674925
 30
0.0
 11
236.7936939739999
 21
58.91522409349815
 31
0.0
  0
LINE
  5
EDFB
330
1F
100
AcDbEntity
  8
AM_0
100
AcDbLine
 10
237.6923879532523
 20
59.94457436923764
 30
0.0
 11
237.7847759065029
 21
59.90630602600046
 31
0.0
  0
ARC
  5
EDFC
330
1F
100
AcDbEntity
  8
AM_0
100
AcDbCircle
 10
236.7171572875269
 20
59.10000000000033
 30
0.0
 40
0.2
100
AcDbArc
 50
270.000000000013
 51
315.0000000000002
  0
LINE
  5
EDFD
330
1F
100
AcDbEntity
  8
AM_0
100
AcDbLine
 10
234.5585786437641
 20
58.95857864376191
 30
0.0
 11
234.6292893218826
 21
59.02928932188067
 31
0.0
  0
ARC
  5
EDFE
330
1F
100
AcDbEntity
  8
AM_0
100
AcDbCircle
 10
234.7000000000011
 20
59.09999999999943
 30
0.0
 40
0.2
100
AcDbArc
 50
180.0
 51
270.000000000013
  0
ARC
  5
EDFF
330
1F
100
AcDbEntity
  8
AM_0
100
AcDbCircle
 10
234.7000000000011
 20
59.09999999999943
 30
0.0
 40
0.1
100
AcDbArc
 50
180.0
 51
270.000000000026
  0
ARC
  5
EE00
330
1F
100
AcDbEntity
  8
AM_0
100
AcDbCircle
 10
236.7171572875263
 20
59.10000000000033
 30
0.0
 40
0.1
100
AcDbArc
 50
270.0000000000196
 51
314.9999999999818
  0
ARC
  5
EE01
330
1F
100
AcDbEntity
  8
AM_0
100
AcDbCircle
 10
237.6000000000012
 20
59.98284271247436
 30
0.0
 40
0.1
100
AcDbArc
 50
314.999999999991
 51
359.9999999999935
  0
LINE
  5
EE02
330
1F
100
AcDbEntity
  8
AM_0
100
AcDbLine
 10
236.7171572875263
 20
59.00000000000042
 30
0.0
 11
234.7000000000011
 21
58.99999999999952
 31
0.0
  0
LINE
  5
EE03
330
1F
100
AcDbEntity
  8
AM_0
100
AcDbLine
 10
236.787867965645
 20
59.02928932188157
 30
0.0
 11
237.6707106781197
 21
59.9121320343556
 31
0.0
  0
LINE
  5
EE04
330
1F
100
AcDbEntity
  8
AM_0
100
AcDbLine
 10
236.8585786437642
 20
58.95857864376282
 30
0.0
 11
237.7414213562382
 21
59.84142135623731
 31
0.0
  0
LINE
  5
EE05
330
1F
100
AcDbEntity
  8
AM_0
100
AcDbLine
 10
236.7171572875269
 20
58.90000000000052
 30
0.0
 11
235.8000000000008
 21
58.89999999999961
 31
0.0
  0
LINE
  5
EE06
330
1F
100
AcDbEntity
  8
AM_0
100
AcDbLine
 10
198.500000000001
 20
58.59999999999988
 30
0.0
 11
198.800000000001
 21
58.90000000000006
 31
0.0
  0
LINE
  5
EE07
330
1F
100
AcDbEntity
  8
AM_0
100
AcDbLine
 10
198.2000000000011
 20
58.90000000000006
 30
0.0
 11
198.500000000001
 21
58.59999999999988
 31
0.0
  0
LINE
  5
EE08
330
1F
100
AcDbEntity
  8
AM_0
100
AcDbLine
 10
198.500000000001
 20
58.70000000000024
 30
0.0
 11
198.500000000001
 21
58.59999999999988
 31
0.0
  0
LINE
  5
EE09
330
1F
100
AcDbEntity
  8
AM_0
100
AcDbLine
 10
199.4000000000009
 20
59.59999999999988
 30
0.0
 11
199.5000000000008
 21
59.59999999999988
 31
0.0
  0
LINE
  5
EE0A
330
1F
100
AcDbEntity
  8
AM_0
100
AcDbLine
 10
199.4000000000009
 20
60.20000000000024
 30
0.0
 11
199.5000000000008
 21
60.2000000000007
 31
0.0
  0
LINE
  5
EE0B
330
1F
100
AcDbEntity
  8
AM_0
100
AcDbLine
 10
199.7000000000015
 20
59.89999999999961
 30
0.0
 11
199.8000000000012
 21
59.89999999999961
 31
0.0
  0
LINE
  5
EE0C
330
1F
100
AcDbEntity
  8
AM_0
100
AcDbLine
 10
199.800000000001
 20
59.90000000000006
 30
0.0
 11
199.500000000001
 21
59.59999999999988
 31
0.0
  0
LINE
  5
EE0D
330
1F
100
AcDbEntity
  8
AM_0
100
AcDbLine
 10
199.500000000001
 20
60.20000000000024
 30
0.0
 11
199.800000000001
 21
59.90000000000006
 31
0.0
  0
LINE
  5
EE0E
330
1F
100
AcDbEntity
  8
AM_0
100
AcDbLine
 10
199.7000000000011
 20
59.90000000000006
 30
0.0
 11
199.4000000000009
 21
59.59999999999988
 31
0.0
  0
LINE
  5
EE0F
330
1F
100
AcDbEntity
  8
AM_0
100
AcDbLine
 10
199.4000000000009
 20
60.20000000000024
 30
0.0
 11
199.7000000000011
 21
59.90000000000006
 31
0.0
  0
LINE
  5
EE10
330
1F
100
AcDbEntity
  8
AM_0
100
AcDbLine
 10
198.8000000000014
 20
58.90000000000052
 30
0.0
 11
199.300000000001
 21
58.90000000000006
 31
0.0
  0
LINE
  5
EE11
330
1F
100
AcDbEntity
  8
AM_0
100
AcDbLine
 10
198.500000000001
 20
58.69999999999979
 30
0.0
 11
198.800000000001
 21
58.99999999999997
 31
0.0
  0
LINE
  5
EE12
330
1F
100
AcDbEntity
  8
AM_0
100
AcDbLine
 10
198.2000000000011
 20
58.99999999999997
 30
0.0
 11
198.500000000001
 21
58.69999999999979
 31
0.0
  0
LINE
  5
EE13
330
1F
100
AcDbEntity
  8
AM_0
100
AcDbLine
 10
198.2000000000011
 20
58.99999999999997
 30
0.0
 11
198.2000000000011
 21
58.89999999999961
 31
0.0
  0
LINE
  5
EE14
330
1F
100
AcDbEntity
  8
AM_0
100
AcDbLine
 10
198.800000000001
 20
58.99999999999952
 30
0.0
 11
198.800000000001
 21
58.90000000000006
 31
0.0
  0
LINE
  5
EE15
330
1F
100
AcDbEntity
  8
AM_0
100
AcDbLine
 10
199.3707106781197
 20
59.02928932188067
 30
0.0
 11
198.4000000000009
 21
59.99999999999997
 31
0.0
  0
LINE
  5
EE16
330
1F
100
AcDbEntity
  8
AM_0
100
AcDbLine
 10
199.4414213562383
 20
58.95857864376236
 30
0.0
 11
199.3707106781197
 21
59.02928932188067
 31
0.0
  0
ARC
  5
EE17
330
1F
100
AcDbEntity
  8
AM_0
100
AcDbCircle
 10
199.300000000001
 20
59.09999999999943
 30
0.0
 40
0.1
100
AcDbArc
 50
269.9999999999739
 51
0.0
  0
ARC
  5
EE18
330
1F
100
AcDbEntity
  8
AM_0
100
AcDbCircle
 10
199.300000000001
 20
59.09999999999988
 30
0.0
 40
0.2
100
AcDbArc
 50
270.0
 51
0.0
  0
LINE
  5
EE19
330
1F
100
AcDbEntity
  8
AM_0
100
AcDbLine
 10
199.500000000001
 20
59.09999999999988
 30
0.0
 11
199.5000000000008
 21
59.59999999999988
 31
0.0
  0
LINE
  5
EE1A
330
1F
100
AcDbEntity
  8
AM_0
100
AcDbLine
 10
197.344574369239
 20
59.00761204674925
 30
0.0
 11
197.7556349186119
 21
59.99999999999997
 31
0.0
  0
LINE
  5
EE1B
330
1F
100
AcDbEntity
  8
AM_0
100
AcDbLine
 10
196.4076120467502
 20
59.94457436923809
 30
0.0
 11
197.4000000000009
 21
60.35563491861054
 31
0.0
  0
LINE
  5
EE1C
330
1F
100
AcDbEntity
  8
AM_0
100
AcDbLine
 10
197.4000000000009
 20
60.355634918611
 30
0.0
 11
197.7556349186117
 21
59.99999999999997
 31
0.0
  0
LINE
  5
EE1D
330
1F
100
AcDbEntity
  8
AM_0
100
AcDbLine
 10
197.3063060260025
 20
58.9152240934977
 30
0.0
 11
197.344574369239
 21
59.00761204674925
 31
0.0
  0
LINE
  5
EE1E
330
1F
100
AcDbEntity
  8
AM_0
100
AcDbLine
 10
196.3152240934988
 20
59.90630602600183
 30
0.0
 11
196.4076120467499
 21
59.94457436923809
 31
0.0
  0
ARC
  5
EE1F
330
1F
100
AcDbEntity
  8
AM_0
100
AcDbCircle
 10
197.3828427124753
 20
59.10000000000033
 30
0.0
 40
0.1
100
AcDbArc
 50
224.9999999999997
 51
269.999999999987
  0
ARC
  5
EE20
330
1F
100
AcDbEntity
  8
AM_0
100
AcDbCircle
 10
196.500000000001
 20
59.98284271247482
 30
0.0
 40
0.1
100
AcDbArc
 50
180.0
 51
224.9999999999859
  0
ARC
  5
EE21
330
1F
100
AcDbEntity
  8
AM_0
100
AcDbCircle
 10
197.3828427124755
 20
59.09999999999988
 30
0.0
 40
0.2
100
AcDbArc
 50
224.9999999999997
 51
270.0
  0
ARC
  5
EE22
330
1F
100
AcDbEntity
  8
AM_0
100
AcDbCircle
 10
196.5000000000013
 20
59.98284271247482
 30
0.0
 40
0.2
100
AcDbArc
 50
180.0
 51
224.9999999999997
  0
LINE
  5
EE23
330
1F
100
AcDbEntity
  8
AM_0
100
AcDbLine
 10
196.4292893218825
 20
59.91213203435606
 30
0.0
 11
197.3121320343567
 21
59.02928932188157
 31
0.0
  0
LINE
  5
EE24
330
1F
100
AcDbEntity
  8
AM_0
100
AcDbLine
 10
196.3585786437637
 20
59.84142135623731
 30
0.0
 11
197.2414213562382
 21
58.95857864376236
 31
0.0
  0
ARC
  5
EE25
330
1F
100
AcDbEntity
  8
AM_0
100
AcDbCircle
 10
195.4000000000011
 20
57.99999999999997
 30
0.0
 40
0.5
100
AcDbArc
 50
180.0
 51
270.0
  0
LINE
  5
EE26
330
1F
100
AcDbEntity
  8
AM_0
100
AcDbLine
 10
197.7556349186119
 20
59.99999999999997
 30
0.0
 11
198.4000000000009
 21
59.99999999999997
 31
0.0
  0
LINE
  5
EE27
330
1F
100
AcDbEntity
  8
AM_0
100
AcDbLine
 10
197.3828427124753
 20
59.00000000000042
 30
0.0
 11
199.300000000001
 21
58.99999999999952
 31
0.0
  0
LINE
  5
EE28
330
1F
100
AcDbEntity
  8
AM_0
100
AcDbLine
 10
197.3828427124755
 20
58.90000000000006
 30
0.0
 11
198.2000000000011
 21
58.90000000000052
 31
0.0
  0
DIMENSION
  5
EE32
330
1F
100
AcDbEntity
  8
AM_5
100
AcDbDimension
  2
*D7
 10
239.1000000000012
 20
81.20000000000038
 30
0.0
 11
217.0000000000011
 21
84.30000000000038
 31
0.0
 70
    32
 71
     5
 42
44.20000000000027
  3
SYS$0
100
AcDbAlignedDimension
 13
194.9000000000009
 23
71.69999999999976
 33
0.0
 14
239.1000000000012
 24
66.19999999999979
 34
0.0
100
AcDbRotatedDimension
1001
ACAD
1000
DSTYLE
1002
{
1070
    47
1040
0.2
1070
    48
1040
0.2
1070
   271
1070
     1
1002
}
  0
DIMENSION
  5
EE53
102
{ACAD_XDICTIONARY
360
EE62
102
}
102
{ACAD_REACTORS
330
EE63
102
}
330
1F
100
AcDbEntity
  8
AM_5
100
AcDbDimension
  2
*D8
 10
249.1000000000007
 20
112.7000000000014
 30
0.0
 11
246.0000000000007
 21
118.5466666666681
 31
0.0
 70
    32
 71
     5
 42
2.5
  3
SYS$0
100
AcDbAlignedDimension
 13
239.1000000000008
 23
110.2000000000014
 33
0.0
 14
238.6000000000005
 24
112.7000000000014
 34
0.0
 50
90.00000000000328
100
AcDbRotatedDimension
1001
ACAD
1000
DSTYLE
1002
{
1070
    47
1040
0.2
1070
    48
1040
0.2
1070
   271
1070
     1
1002
}
  0
DIMENSION
  5
EE6F
102
{ACAD_XDICTIONARY
360
EE7E
102
}
102
{ACAD_REACTORS
330
EE7F
102
}
330
1F
100
AcDbEntity
  8
AM_5
100
AcDbDimension
  2
*D9
 10
249.1000000000008
 20
105.200000000001
 30
0.0
 11
246.0000000000007
 21
107.7000000000013
 31
0.0
 70
    32
 71
     5
 42
5.000000000000454
  3
SYS$0
100
AcDbAlignedDimension
 13
239.1000000000008
 23
110.2000000000014
 33
0.0
 14
236.7000000000011
 24
105.200000000001
 34
0.0
 50
90.00000000000328
100
AcDbRotatedDimension
1001
ACAD
1000
DSTYLE
1002
{
1070
    47
1040
0.2
1070
    48
1040
0.2
1070
   271
1070
     1
1002
}
  0
LINE
  5
EE89
330
1F
100
AcDbEntity
  8
AM_7
 48
0.5
370
     9
100
AcDbLine
 10
217.0000000000011
 20
115.700000000001
 30
0.0
 11
217.0000000000011
 21
102.200000000001
 31
0.0
1001
GENIUS_GENODEF_13
1002
{
1000
HIER
1070
     0
1002
}
1002
{
1000
MANEDIT
1070
     0
1002
}
1002
{
1000
NOSEL
1070
     0
1002
}
1002
{
1000
BEHIND
1070
     0
1002
}
1002
{
1000
OTHER
1070
     0
1002
}
1002
{
1000
REACTOR
1002
}
1001
GENIUS_GENOBJ-N-CEN_13
1002
{
1000
OWNER
1000
GEN
1002
}
1001
GENIUS_GENCEN_19
1002
{
1040
3.0
1002
}
  0
LINE
  5
EE8B
330
1F
100
AcDbEntity
  8
AM_7
 48
0.5
370
     9
100
AcDbLine
 10
217.0000000000011
 20
54.49999999999997
 30
0.0
 11
217.0000000000011
 21
76.1999999999998
 31
0.0
1001
GENIUS_GENOBJ-N-CEN_13
1002
{
1000
OWNER
1000
GEN
1002
}
1001
GENIUS_GENODEF_13
1002
{
1000
HIER
1070
     0
1002
}
1002
{
1000
MANEDIT
1070
     0
1002
}
1002
{
1000
NOSEL
1070
     0
1002
}
1002
{
1000
BEHIND
1070
     0
1002
}
1002
{
1000
OTHER
1070
     0
1002
}
1002
{
1000
REACTOR
1002
}
1001
GENIUS_GENCEN_19
1002
{
1040
3.0
1002
}
  0
DIMENSION
  5
EE8C
102
{ACAD_XDICTIONARY
360
EE99
102
}
102
{ACAD_REACTORS
330
EE9A
102
}
330
1F
100
AcDbEntity
  8
AM_5
100
AcDbDimension
  2
*D10
 10
249.1000010100012
 20
57.49999999999996
 30
0.0
 11
246.0000010100011
 21
62.09999999999992
 31
0.0
 70
    32
 71
     5
 42
9.199999999999825
  3
SYS$0
100
AcDbAlignedDimension
 13
238.6000000000012
 23
66.69999999999979
 33
0.0
 14
238.6000000000009
 24
57.49999999999997
 34
0.0
 50
270.0
100
AcDbRotatedDimension
1001
ACAD
1000
DSTYLE
1002
{
1070
    47
1040
0.2
1070
    48
1040
0.2
1070
   271
1070
     1
1002
}
  0
DIMENSION
  5
EEA4
102
{ACAD_XDICTIONARY
360
EEB1
102
}
102
{ACAD_REACTORS
330
EEB2
102
}
330
1F
100
AcDbEntity
  8
AM_5
100
AcDbDimension
  2
*D11
 10
186.9000000000011
 20
57.49999999999997
 30
0.0
 11
183.8000000000011
 21
65.34999999999991
 31
0.0
 70
    32
 71
     5
 42
15.69999999999982
  3
SYS$0
100
AcDbAlignedDimension
 13
196.4000000000009
 23
73.19999999999978
 33
0.0
 14
195.4000000000011
 24
57.49999999999997
 34
0.0
 50
270.0
100
AcDbRotatedDimension
1001
ACAD
1000
DSTYLE
1002
{
1070
    47
1040
0.2
1070
    48
1040
0.2
1070
   271
1070
     1
1002
}
  0
MTEXT
  5
EF7E
330
1F
100
AcDbEntity
  8
AM_6
100
AcDbMText
 10
31.50000000000002
 20
165.4999999999999
 30
0.0
 40
3.2
 41
90.0
 71
     4
 72
     5
  1
　左右勝手有り。
 73
     1
 44
1.0
  0
LINE
  5
F0FE
330
1F
100
AcDbEntity
  8
AM_0
100
AcDbLine
 10
57.90000000000024
 20
66.2000000000001
 30
0.0
 11
57.90000000000052
 21
58.00000000000029
 31
0.0
  0
LINE
  5
F0FF
330
1F
100
AcDbEntity
  8
AM_0
100
AcDbLine
 10
59.32928932188151
 20
61.97071067811915
 30
0.0
 11
60.30000000000015
 21
60.99999999999939
 31
0.0
  0
LINE
  5
F100
330
1F
100
AcDbEntity
  8
AM_0
100
AcDbLine
 10
62.37071067811911
 20
61.97071067811916
 30
0.0
 11
61.40000000000028
 21
60.99999999999941
 31
0.0
  0
LINE
  5
F101
330
1F
100
AcDbEntity
  8
AM_0
100
AcDbLine
 10
62.40000000000026
 20
61.9000000000004
 30
0.0
 11
62.40000000000029
 21
59.09999999999977
 31
0.0
  0
LINE
  5
F102
330
1F
100
AcDbEntity
  8
AM_0
100
AcDbLine
 10
59.30000000000035
 20
61.90000000000039
 30
0.0
 11
59.30000000000038
 21
59.98284271247469
 31
0.0
  0
LINE
  5
F103
330
1F
100
AcDbEntity
  8
AM_0
100
AcDbLine
 10
62.50000000000039
 20
61.89999999999995
 30
0.0
 11
62.50000000000065
 21
60.19999999999967
 31
0.0
  0
LINE
  5
F104
330
1F
100
AcDbEntity
  8
AM_0
100
AcDbLine
 10
59.20000000000044
 20
61.90000000000039
 30
0.0
 11
59.20000000000047
 21
61.20000000000057
 31
0.0
  0
LINE
  5
F105
330
1F
100
AcDbEntity
  8
AM_0
100
AcDbLine
 10
97.50000000000065
 20
60.20000000000128
 30
0.0
 11
97.5000000000006
 21
64.90000000000065
 31
0.0
  0
LINE
  5
F106
330
1F
100
AcDbEntity
  8
AM_0
100
AcDbLine
 10
98.60000000000056
 20
60.00000000000055
 30
0.0
 11
98.6000000000005
 21
64.00000000000055
 31
0.0
  0
LINE
  5
F107
330
1F
100
AcDbEntity
  8
AM_0
100
AcDbLine
 10
97.60000000000056
 20
59.10000000000001
 30
0.0
 11
97.60000000000051
 21
64.90000000000065
 31
0.0
  0
LINE
  5
F108
330
1F
100
AcDbEntity
  8
AM_0
100
AcDbLine
 10
102.1000000000003
 20
58.00000000000058
 30
0.0
 11
102.1000000000004
 21
71.7000000000004
 31
0.0
  0
LINE
  5
F109
330
1F
100
AcDbEntity
  8
AM_0
100
AcDbLine
 10
99.60000000000057
 20
60.3556349186116
 30
0.0
 11
99.60000000000029
 21
64.00000000000057
 31
0.0
  0
LINE
  5
F10A
330
1F
100
AcDbEntity
  8
AM_0
100
AcDbLine
 10
100.6000000000005
 20
59.98284271247541
 30
0.0
 11
100.6000000000003
 21
64.90000000000065
 31
0.0
  0
LINE
  5
F10B
330
1F
100
AcDbEntity
  8
AM_0
100
AcDbLine
 10
100.7000000000004
 20
59.98284271247541
 30
0.0
 11
100.7000000000004
 21
62.20000000000084
 31
0.0
  0
LINE
  5
F10C
102
{ACAD_REACTORS
330
F1C5
102
}
330
1F
100
AcDbEntity
  8
AM_0
100
AcDbLine
 10
77.27366392546051
 20
66.70000000000023
 30
0.0
 11
58.40000000000023
 21
66.7000000000001
 31
0.0
  0
ARC
  5
F10D
330
1F
100
AcDbEntity
  8
AM_0
100
AcDbCircle
 10
59.40000000000026
 20
61.90000000000039
 30
0.0
 40
0.2
100
AcDbArc
 50
89.99999999999349
 51
180.0000000000004
  0
ARC
  5
F10E
330
1F
100
AcDbEntity
  8
AM_0
100
AcDbCircle
 10
58.40000000000023
 20
66.2000000000001
 30
0.0
 40
0.5
100
AcDbArc
 50
90.0
 51
180.0000000000004
  0
LINE
  5
F10F
330
1F
100
AcDbEntity
  8
AM_0
100
AcDbLine
 10
60.49999999999972
 20
62.10000000000021
 30
0.0
 11
62.30000000000035
 21
62.09999999999976
 31
0.0
  0
LINE
  5
F110
330
1F
100
AcDbEntity
  8
AM_0
100
AcDbLine
 10
60.20000000000044
 20
62.40000000000039
 30
0.0
 11
59.90000000000026
 21
62.10000000000021
 31
0.0
  0
LINE
  5
F111
330
1F
100
AcDbEntity
  8
AM_0
100
AcDbLine
 10
60.50000000000017
 20
62.10000000000021
 30
0.0
 11
60.20000000000044
 21
62.40000000000039
 31
0.0
  0
LINE
  5
F112
330
1F
100
AcDbEntity
  8
AM_0
100
AcDbLine
 10
60.20000000000044
 20
62.30000000000048
 30
0.0
 11
59.90000000000026
 21
62.0000000000003
 31
0.0
  0
LINE
  5
F113
330
1F
100
AcDbEntity
  8
AM_0
100
AcDbLine
 10
60.50000000000017
 20
62.0000000000003
 30
0.0
 11
60.20000000000044
 21
62.30000000000048
 31
0.0
  0
LINE
  5
F114
330
1F
100
AcDbEntity
  8
AM_0
100
AcDbLine
 10
60.50000000000017
 20
62.00000000000075
 30
0.0
 11
60.50000000000017
 21
62.09999999999975
 31
0.0
  0
LINE
  5
F115
330
1F
100
AcDbEntity
  8
AM_0
100
AcDbLine
 10
59.90000000000049
 20
62.00000000000075
 30
0.0
 11
59.90000000000026
 21
62.09999999999975
 31
0.0
  0
LINE
  5
F116
330
1F
100
AcDbEntity
  8
AM_0
100
AcDbLine
 10
60.20000000000044
 20
62.30000000000048
 30
0.0
 11
60.20000000000044
 21
62.40000000000039
 31
0.0
  0
LINE
  5
F117
330
1F
100
AcDbEntity
  8
AM_0
100
AcDbLine
 10
59.32928932188151
 20
61.97071067811915
 30
0.0
 11
59.2585786437632
 21
62.0414213562379
 31
0.0
  0
LINE
  5
F118
330
1F
100
AcDbEntity
  8
AM_0
100
AcDbLine
 10
62.44142135623764
 20
62.04142135623746
 30
0.0
 11
62.37071067811911
 21
61.97071067811916
 31
0.0
  0
ARC
  5
F119
330
1F
100
AcDbEntity
  8
AM_0
100
AcDbCircle
 10
62.30000000000035
 20
61.89999999999995
 30
0.0
 40
0.2
100
AcDbArc
 50
0.0000000000004071
 51
89.99999999999349
  0
ARC
  5
F11A
330
1F
100
AcDbEntity
  8
AM_0
100
AcDbCircle
 10
62.30000000000035
 20
61.9000000000004
 30
0.0
 40
0.1
100
AcDbArc
 50
0.0000000000004071
 51
89.99999999999349
  0
ARC
  5
F11B
330
1F
100
AcDbEntity
  8
AM_0
100
AcDbCircle
 10
59.40000000000026
 20
61.90000000000039
 30
0.0
 40
0.1
100
AcDbArc
 50
89.99999999999349
 51
180.0000000000004
  0
LINE
  5
F11C
330
1F
100
AcDbEntity
  8
AM_0
100
AcDbLine
 10
59.40000000000026
 20
62.0000000000003
 30
0.0
 11
62.30000000000035
 21
62.00000000000031
 31
0.0
  0
LINE
  5
F11D
330
1F
100
AcDbEntity
  8
AM_0
100
AcDbLine
 10
59.40000000000026
 20
62.10000000000021
 30
0.0
 11
59.90000000000026
 21
62.10000000000021
 31
0.0
  0
LINE
  5
F11E
330
1F
100
AcDbEntity
  8
AM_0
100
AcDbLine
 10
97.62928932188188
 20
64.9707106781194
 30
0.0
 11
98.6000000000005
 21
64.00000000000055
 31
0.0
  0
LINE
  5
F11F
330
1F
100
AcDbEntity
  8
AM_0
100
AcDbLine
 10
97.55857864376336
 20
65.04142135623816
 30
0.0
 11
97.62928932188188
 21
64.9707106781194
 31
0.0
  0
ARC
  5
F120
330
1F
100
AcDbEntity
  8
AM_0
100
AcDbCircle
 10
97.70000000000042
 20
64.90000000000065
 30
0.0
 40
0.1
100
AcDbArc
 50
90.0
 51
180.0000000000004
  0
ARC
  5
F121
330
1F
100
AcDbEntity
  8
AM_0
100
AcDbCircle
 10
97.70000000000042
 20
64.90000000000065
 30
0.0
 40
0.2
100
AcDbArc
 50
89.99999999999349
 51
180.0000000000004
  0
LINE
  5
F122
330
1F
100
AcDbEntity
  8
AM_0
100
AcDbLine
 10
100.9000000000002
 20
62.50000000000056
 30
0.0
 11
101.0000000000001
 21
62.50000000000056
 31
0.0
  0
LINE
  5
F123
330
1F
100
AcDbEntity
  8
AM_0
100
AcDbLine
 10
100.7000000000004
 20
62.80000000000075
 30
0.0
 11
100.7000000000004
 21
64.9000000000002
 31
0.0
  0
LINE
  5
F124
330
1F
100
AcDbEntity
  8
AM_0
100
AcDbLine
 10
100.9000000000002
 20
62.50000000000056
 30
0.0
 11
100.6000000000005
 21
62.20000000000038
 31
0.0
  0
LINE
  5
F125
330
1F
100
AcDbEntity
  8
AM_0
100
AcDbLine
 10
100.6000000000003
 20
62.80000000000075
 30
0.0
 11
100.9000000000002
 21
62.50000000000056
 31
0.0
  0
LINE
  5
F126
330
1F
100
AcDbEntity
  8
AM_0
100
AcDbLine
 10
101.0000000000001
 20
62.50000000000056
 30
0.0
 11
100.7000000000004
 21
62.20000000000038
 31
0.0
  0
LINE
  5
F127
330
1F
100
AcDbEntity
  8
AM_0
100
AcDbLine
 10
100.7000000000004
 20
62.80000000000075
 30
0.0
 11
101.0000000000001
 21
62.50000000000056
 31
0.0
  0
LINE
  5
F128
330
1F
100
AcDbEntity
  8
AM_0
100
AcDbLine
 10
100.6000000000005
 20
62.20000000000038
 30
0.0
 11
100.7000000000004
 21
62.20000000000038
 31
0.0
  0
LINE
  5
F129
330
1F
100
AcDbEntity
  8
AM_0
100
AcDbLine
 10
100.6000000000005
 20
62.80000000000121
 30
0.0
 11
100.7000000000004
 21
62.80000000000121
 31
0.0
  0
LINE
  5
F12A
330
1F
100
AcDbEntity
  8
AM_0
100
AcDbLine
 10
100.0000000000001
 20
65.10000000000002
 30
0.0
 11
100.0000000000001
 21
65.00000000000056
 31
0.0
  0
LINE
  5
F12B
330
1F
100
AcDbEntity
  8
AM_0
100
AcDbLine
 10
99.40000000000024
 20
65.10000000000001
 30
0.0
 11
99.40000000000024
 21
65.00000000000055
 31
0.0
  0
LINE
  5
F12C
330
1F
100
AcDbEntity
  8
AM_0
100
AcDbLine
 10
99.70000000000041
 20
65.30000000000121
 30
0.0
 11
99.70000000000041
 21
65.4000000000002
 31
0.0
  0
LINE
  5
F12D
330
1F
100
AcDbEntity
  8
AM_0
100
AcDbLine
 10
100.0000000000001
 20
65.10000000000002
 30
0.0
 11
100.5000000000001
 21
65.10000000000002
 31
0.0
  0
LINE
  5
F12E
330
1F
100
AcDbEntity
  8
AM_0
100
AcDbLine
 10
99.70000000000041
 20
65.30000000000075
 30
0.0
 11
100.0000000000001
 21
65.00000000000056
 31
0.0
  0
LINE
  5
F12F
330
1F
100
AcDbEntity
  8
AM_0
100
AcDbLine
 10
99.40000000000024
 20
65.00000000000055
 30
0.0
 11
99.70000000000041
 21
65.30000000000075
 31
0.0
  0
LINE
  5
F130
330
1F
100
AcDbEntity
  8
AM_0
100
AcDbLine
 10
99.70000000000041
 20
65.4000000000002
 30
0.0
 11
100.0000000000001
 21
65.10000000000002
 31
0.0
  0
LINE
  5
F131
330
1F
100
AcDbEntity
  8
AM_0
100
AcDbLine
 10
99.40000000000024
 20
65.10000000000001
 30
0.0
 11
99.70000000000041
 21
65.4000000000002
 31
0.0
  0
LINE
  5
F132
330
1F
100
AcDbEntity
  8
AM_0
100
AcDbLine
 10
100.5707106781189
 20
64.97071067811941
 30
0.0
 11
99.6000000000005
 21
64.00000000000057
 31
0.0
  0
LINE
  5
F133
330
1F
100
AcDbEntity
  8
AM_0
100
AcDbLine
 10
100.6414213562376
 20
65.04142135623772
 30
0.0
 11
100.5707106781189
 21
64.97071067811941
 31
0.0
  0
ARC
  5
F134
330
1F
100
AcDbEntity
  8
AM_0
100
AcDbCircle
 10
100.5000000000001
 20
64.90000000000065
 30
0.0
 40
0.1
100
AcDbArc
 50
0.0000000000004071
 51
90.0
  0
ARC
  5
F135
330
1F
100
AcDbEntity
  8
AM_0
100
AcDbCircle
 10
100.5000000000001
 20
64.9000000000002
 30
0.0
 40
0.2
100
AcDbArc
 50
0.0000000000004071
 51
90.0
  0
ARC
  5
F136
330
1F
100
AcDbEntity
  8
AM_0
100
AcDbCircle
 10
100.6000000000004
 20
71.70000000000039
 30
0.0
 40
1.5
100
AcDbArc
 50
0.0000000000004071
 51
124.1009526566215
  0
LINE
  5
F137
330
1F
100
AcDbEntity
  8
AM_0
100
AcDbLine
 10
98.6000000000005
 20
64.00000000000101
 30
0.0
 11
99.6000000000005
 21
64.00000000000057
 31
0.0
  0
LINE
  5
F138
330
1F
100
AcDbEntity
  8
AM_0
100
AcDbLine
 10
97.70000000000042
 20
65.00000000000055
 30
0.0
 11
100.5000000000001
 21
65.00000000000056
 31
0.0
  0
LINE
  5
F139
330
1F
100
AcDbEntity
  8
AM_0
100
AcDbLine
 10
97.70000000000042
 20
65.10000000000046
 30
0.0
 11
99.40000000000024
 21
65.10000000000001
 31
0.0
  0
ARC
  5
F13A
330
1F
100
AcDbEntity
  8
AM_0
100
AcDbCircle
 10
78.42194817666731
 20
106.1833058808206
 30
0.0
 40
39.5
100
AcDbArc
 50
268.3341490757463
 51
302.6958287387652
  0
LINE
  5
F13B
330
1F
100
AcDbEntity
  8
AM_0
100
AcDbLine
 10
59.30000000000061
 20
106.2000000000007
 30
0.0
 11
58.99240626464458
 21
106.5000000000009
 31
0.0
  0
LINE
  5
F13C
330
1F
100
AcDbEntity
  8
AM_0
100
AcDbLine
 10
102.1000000000005
 20
110.1999999999999
 30
0.0
 11
57.90000000000097
 21
110.2000000000011
 31
0.0
  0
LINE
  5
F13D
330
1F
100
AcDbEntity
  8
AM_0
100
AcDbLine
 10
101.6000000000005
 20
112.6999999999999
 30
0.0
 11
58.40000000000078
 21
112.7000000000011
 31
0.0
  0
LINE
  5
F13E
330
1F
100
AcDbEntity
  8
AM_0
100
AcDbLine
 10
58.90000000000028
 20
60.90000000000038
 30
0.0
 11
59.20000000000047
 21
60.6000000000002
 31
0.0
  0
LINE
  5
F13F
330
1F
100
AcDbEntity
  8
AM_0
100
AcDbLine
 10
59.20000000000047
 20
61.20000000000057
 30
0.0
 11
58.90000000000028
 21
60.90000000000038
 31
0.0
  0
LINE
  5
F140
330
1F
100
AcDbEntity
  8
AM_0
100
AcDbLine
 10
59.00000000000042
 20
60.90000000000038
 30
0.0
 11
59.30000000000038
 21
60.6000000000002
 31
0.0
  0
LINE
  5
F141
330
1F
100
AcDbEntity
  8
AM_0
100
AcDbLine
 10
59.30000000000038
 20
61.20000000000057
 30
0.0
 11
59.00000000000042
 21
60.90000000000038
 31
0.0
  0
ARC
  5
F142
330
1F
100
AcDbEntity
  8
AM_0
100
AcDbCircle
 10
59.40000000000029
 20
59.98284271247515
 30
0.0
 40
0.2
100
AcDbArc
 50
180.0000000000004
 51
225.000000000009
  0
LINE
  5
F143
102
{ACAD_REACTORS
330
F1C5
330
F1C8
102
}
330
1F
100
AcDbEntity
  8
AM_0
100
AcDbLine
 10
58.40000000000052
 20
57.50000000000028
 30
0.0
 11
101.6000000000003
 21
57.50000000000058
 31
0.0
  0
LINE
  5
F144
330
1F
100
AcDbEntity
  8
AM_0
100
AcDbLine
 10
57.90000000000097
 20
110.2000000000011
 30
0.0
 11
57.90000000000077
 21
112.2000000000011
 31
0.0
  0
LINE
  5
F145
330
1F
100
AcDbEntity
  8
AM_0
100
AcDbLine
 10
58.99240626464458
 20
106.5000000000009
 30
0.0
 11
58.90009370607842
 21
110.1925023426529
 31
0.0
  0
ARC
  5
F146
330
1F
100
AcDbEntity
  8
AM_0
100
AcDbCircle
 10
58.40000000000078
 20
112.2000000000011
 30
0.0
 40
0.5
100
AcDbArc
 50
90.00000000000003
 51
180.0
  0
LINE
  5
F147
330
1F
100
AcDbEntity
  8
AM_0
100
AcDbLine
 10
59.00000000000019
 20
60.90000000000038
 30
0.0
 11
58.90000000000028
 21
60.90000000000038
 31
0.0
  0
ARC
  5
F148
330
1F
100
AcDbEntity
  8
AM_0
100
AcDbCircle
 10
58.40000000000052
 20
58.00000000000029
 30
0.0
 40
0.5
100
AcDbArc
 50
180.0000000000004
 51
270.0
  0
LINE
  5
F149
330
1F
100
AcDbEntity
  8
AM_0
100
AcDbLine
 10
61.40000000000049
 20
105.2000000000006
 30
0.0
 11
60.30000000000057
 21
105.2000000000007
 31
0.0
  0
LINE
  5
F14A
330
1F
100
AcDbEntity
  8
AM_0
100
AcDbLine
 10
62.40000000000051
 20
106.2000000000002
 30
0.0
 11
61.80000000000061
 21
106.2000000000002
 31
0.0
  0
LINE
  5
F14B
330
1F
100
AcDbEntity
  8
AM_0
100
AcDbLine
 10
59.30000000000061
 20
106.2000000000007
 30
0.0
 11
59.2000000000007
 21
110.2000000000011
 31
0.0
  0
LINE
  5
F14C
330
1F
100
AcDbEntity
  8
AM_0
100
AcDbLine
 10
62.40000000000051
 20
106.2000000000006
 30
0.0
 11
62.50000000000088
 21
110.2000000000006
 31
0.0
  0
LINE
  5
F14D
330
1F
100
AcDbEntity
  8
AM_0
100
AcDbLine
 10
60.20630602600201
 20
106.2000000000007
 30
0.0
 11
60.20630602600201
 21
110.2000000000011
 31
0.0
  0
LINE
  5
F14E
330
1F
100
AcDbEntity
  8
AM_0
100
AcDbLine
 10
60.30000000000057
 20
105.2000000000007
 30
0.0
 11
59.30000000000061
 21
106.2000000000007
 31
0.0
  0
LINE
  5
F14F
330
1F
100
AcDbEntity
  8
AM_0
100
AcDbLine
 10
60.65563491861024
 20
105.2000000000007
 30
0.0
 11
60.20630602600201
 21
106.2000000000007
 31
0.0
  0
LINE
  5
F150
330
1F
100
AcDbEntity
  8
AM_0
100
AcDbLine
 10
61.40000000000049
 20
105.2000000000006
 30
0.0
 11
62.40000000000051
 21
106.2000000000006
 31
0.0
  0
LINE
  5
F151
330
1F
100
AcDbEntity
  8
AM_0
100
AcDbLine
 10
61.80000000000061
 20
106.2000000000002
 30
0.0
 11
61.80000000000061
 21
110.2000000000006
 31
0.0
  0
LINE
  5
F152
330
1F
100
AcDbEntity
  8
AM_0
100
AcDbLine
 10
61.50000000000042
 20
106.5000000000004
 30
0.0
 11
61.50000000000088
 21
110.2000000000011
 31
0.0
  0
LINE
  5
F153
330
1F
100
AcDbEntity
  8
AM_0
100
AcDbLine
 10
61.2000000000007
 20
106.2000000000007
 30
0.0
 11
61.2000000000007
 21
110.2000000000011
 31
0.0
  0
LINE
  5
F154
330
1F
100
AcDbEntity
  8
AM_0
100
AcDbLine
 10
59.30000000000061
 20
106.5000000000009
 30
0.0
 11
59.29250000000044
 21
106.5000000000009
 31
0.0
  0
LINE
  5
F155
330
1F
100
AcDbEntity
  8
AM_0
100
AcDbLine
 10
62.40000000000051
 20
106.2000000000006
 30
0.0
 11
62.70759373535653
 21
106.5000000000004
 31
0.0
  0
LINE
  5
F156
330
1F
100
AcDbEntity
  8
AM_0
100
AcDbLine
 10
62.70759373535653
 20
106.5000000000004
 30
0.0
 11
62.79990629392315
 21
110.1925023426524
 31
0.0
  0
LINE
  5
F157
330
1F
100
AcDbEntity
  8
AM_0
100
AcDbLine
 10
61.2000000000007
 20
106.2000000000007
 30
0.0
 11
61.50000000000066
 21
106.5000000000004
 31
0.0
  0
LINE
  5
F158
330
1F
100
AcDbEntity
  8
AM_0
100
AcDbLine
 10
61.50000000000066
 20
106.5000000000004
 30
0.0
 11
61.80000000000061
 21
106.2000000000002
 31
0.0
  0
LINE
  5
F159
330
1F
100
AcDbEntity
  8
AM_0
100
AcDbLine
 10
61.2000000000007
 20
106.2000000000002
 30
0.0
 11
59.30000000000061
 21
106.2000000000007
 31
0.0
  0
LINE
  5
F15A
330
1F
100
AcDbEntity
  8
AM_0
100
AcDbLine
 10
102.1000000000005
 20
110.2000000000004
 30
0.0
 11
102.1000000000005
 21
112.1999999999999
 31
0.0
  0
LINE
  5
F15B
330
1F
100
AcDbEntity
  8
AM_0
100
AcDbLine
 10
97.60000000000056
 20
106.2000000000004
 30
0.0
 11
97.50000000000088
 21
110.2
 31
0.0
  0
LINE
  5
F15C
330
1F
100
AcDbEntity
  8
AM_0
100
AcDbLine
 10
98.60000000000077
 20
105.2000000000004
 30
0.0
 11
97.60000000000056
 21
106.2000000000004
 31
0.0
  0
LINE
  5
F15D
330
1F
100
AcDbEntity
  8
AM_0
100
AcDbLine
 10
98.80000000000107
 20
106.2000000000004
 30
0.0
 11
98.8000000000013
 21
110.2
 31
0.0
  0
LINE
  5
F15E
330
1F
100
AcDbEntity
  8
AM_0
100
AcDbLine
 10
98.50000000000088
 20
106.5000000000006
 30
0.0
 11
98.50000000000088
 21
110.2
 31
0.0
  0
LINE
  5
F15F
330
1F
100
AcDbEntity
  8
AM_0
100
AcDbLine
 10
98.20000000000071
 20
106.2000000000004
 30
0.0
 11
98.20000000000092
 21
110.2
 31
0.0
  0
LINE
  5
F160
330
1F
100
AcDbEntity
  8
AM_0
100
AcDbLine
 10
97.60000000000056
 20
106.2000000000004
 30
0.0
 11
97.29240626464454
 21
106.5000000000006
 31
0.0
  0
LINE
  5
F161
330
1F
100
AcDbEntity
  8
AM_0
100
AcDbLine
 10
97.29240626464431
 20
106.5000000000006
 30
0.0
 11
97.20009370607838
 21
110.1925023426522
 31
0.0
  0
LINE
  5
F162
330
1F
100
AcDbEntity
  8
AM_0
100
AcDbLine
 10
98.80000000000107
 20
106.2000000000004
 30
0.0
 11
98.50000000000065
 21
106.5000000000006
 31
0.0
  0
LINE
  5
F163
330
1F
100
AcDbEntity
  8
AM_0
100
AcDbLine
 10
98.50000000000065
 20
106.5000000000006
 30
0.0
 11
98.20000000000071
 21
106.2000000000004
 31
0.0
  0
LINE
  5
F164
330
1F
100
AcDbEntity
  8
AM_0
100
AcDbLine
 10
98.20000000000071
 20
106.2000000000004
 30
0.0
 11
97.60000000000056
 21
106.2000000000004
 31
0.0
  0
LINE
  5
F165
330
1F
100
AcDbEntity
  8
AM_0
100
AcDbLine
 10
100.6000000000007
 20
106.2000000000004
 30
0.0
 11
100.7000000000011
 21
110.1999999999999
 31
0.0
  0
LINE
  5
F166
330
1F
100
AcDbEntity
  8
AM_0
100
AcDbLine
 10
99.60000000000077
 20
105.2000000000004
 30
0.0
 11
100.6000000000007
 21
106.2000000000004
 31
0.0
  0
LINE
  5
F167
330
1F
100
AcDbEntity
  8
AM_0
100
AcDbLine
 10
99.69369397399939
 20
106.2000000000009
 30
0.0
 11
99.69369397399939
 21
110.1999999999999
 31
0.0
  0
LINE
  5
F168
330
1F
100
AcDbEntity
  8
AM_0
100
AcDbLine
 10
99.24436508138995
 20
105.2000000000004
 30
0.0
 11
99.69369397399939
 21
106.2000000000009
 31
0.0
  0
LINE
  5
F169
330
1F
100
AcDbEntity
  8
AM_0
100
AcDbLine
 10
100.6000000000007
 20
106.2000000000004
 30
0.0
 11
100.9075937353568
 21
106.5000000000006
 31
0.0
  0
LINE
  5
F16A
330
1F
100
AcDbEntity
  8
AM_0
100
AcDbLine
 10
100.9075937353568
 20
106.5000000000006
 30
0.0
 11
100.9999062939234
 21
110.1925023426517
 31
0.0
  0
LINE
  5
F16B
330
1F
100
AcDbEntity
  8
AM_0
100
AcDbLine
 10
100.6000000000007
 20
106.2000000000004
 30
0.0
 11
98.80000000000107
 21
106.2000000000004
 31
0.0
  0
LINE
  5
F16C
330
1F
100
AcDbEntity
  8
AM_0
100
AcDbLine
 10
99.60000000000077
 20
105.2000000000004
 30
0.0
 11
98.60000000000077
 21
105.2000000000004
 31
0.0
  0
ARC
  5
F16D
330
1F
100
AcDbEntity
  8
AM_0
100
AcDbCircle
 10
101.6000000000005
 20
112.1999999999999
 30
0.0
 40
0.5
100
AcDbArc
 50
0.0
 51
90.00000000000003
  0
LINE
  5
F16E
330
1F
100
AcDbEntity
  8
AM_0
100
AcDbLine
 10
61.50000000000019
 20
58.60000000000022
 30
0.0
 11
61.20000000000047
 21
58.9000000000004
 31
0.0
  0
LINE
  5
F16F
330
1F
100
AcDbEntity
  8
AM_0
100
AcDbLine
 10
61.80000000000038
 20
58.89999999999995
 30
0.0
 11
61.50000000000019
 21
58.60000000000022
 31
0.0
  0
LINE
  5
F170
330
1F
100
AcDbEntity
  8
AM_0
100
AcDbLine
 10
61.50000000000019
 20
58.70000000000013
 30
0.0
 11
61.50000000000019
 21
58.60000000000022
 31
0.0
  0
LINE
  5
F171
330
1F
100
AcDbEntity
  8
AM_0
100
AcDbLine
 10
61.7999999999997
 20
58.89999999999949
 30
0.0
 11
62.30000000000038
 21
58.89999999999995
 31
0.0
  0
LINE
  5
F172
330
1F
100
AcDbEntity
  8
AM_0
100
AcDbLine
 10
61.50000000000019
 20
58.70000000000013
 30
0.0
 11
61.20000000000047
 21
59.00000000000031
 31
0.0
  0
LINE
  5
F173
330
1F
100
AcDbEntity
  8
AM_0
100
AcDbLine
 10
61.80000000000038
 20
58.99999999999986
 30
0.0
 11
61.50000000000019
 21
58.70000000000013
 31
0.0
  0
LINE
  5
F174
330
1F
100
AcDbEntity
  8
AM_0
100
AcDbLine
 10
61.80000000000015
 20
58.99999999999986
 30
0.0
 11
61.80000000000038
 21
58.89999999999995
 31
0.0
  0
LINE
  5
F175
330
1F
100
AcDbEntity
  8
AM_0
100
AcDbLine
 10
61.20000000000047
 20
58.99999999999986
 30
0.0
 11
61.20000000000047
 21
58.9000000000004
 31
0.0
  0
LINE
  5
F176
330
1F
100
AcDbEntity
  8
AM_0
100
AcDbLine
 10
62.50000000000042
 20
59.59999999999976
 30
0.0
 11
62.5000000000002
 21
59.09999999999977
 31
0.0
  0
LINE
  5
F177
330
1F
100
AcDbEntity
  8
AM_0
100
AcDbLine
 10
62.70000000000047
 20
59.89999999999994
 30
0.0
 11
62.80000000000038
 21
59.89999999999994
 31
0.0
  0
LINE
  5
F178
330
1F
100
AcDbEntity
  8
AM_0
100
AcDbLine
 10
62.80000000000038
 20
59.89999999999994
 30
0.0
 11
62.5000000000002
 21
59.59999999999976
 31
0.0
  0
LINE
  5
F179
330
1F
100
AcDbEntity
  8
AM_0
100
AcDbLine
 10
62.5000000000002
 20
60.20000000000013
 30
0.0
 11
62.80000000000038
 21
59.89999999999994
 31
0.0
  0
LINE
  5
F17A
330
1F
100
AcDbEntity
  8
AM_0
100
AcDbLine
 10
62.70000000000024
 20
59.89999999999994
 30
0.0
 11
62.40000000000029
 21
59.59999999999976
 31
0.0
  0
LINE
  5
F17B
330
1F
100
AcDbEntity
  8
AM_0
100
AcDbLine
 10
62.40000000000029
 20
60.20000000000013
 30
0.0
 11
62.70000000000024
 21
59.89999999999994
 31
0.0
  0
LINE
  5
F17C
330
1F
100
AcDbEntity
  8
AM_0
100
AcDbLine
 10
62.40000000000051
 20
59.59999999999976
 30
0.0
 11
62.5000000000002
 21
59.59999999999976
 31
0.0
  0
LINE
  5
F17D
330
1F
100
AcDbEntity
  8
AM_0
100
AcDbLine
 10
62.40000000000029
 20
60.20000000000013
 30
0.0
 11
62.50000000000065
 21
60.20000000000013
 31
0.0
  0
LINE
  5
F17E
330
1F
100
AcDbEntity
  8
AM_0
100
AcDbLine
 10
59.20000000000047
 20
60.6000000000002
 30
0.0
 11
59.20000000000047
 21
59.98284271247515
 31
0.0
  0
LINE
  5
F17F
330
1F
100
AcDbEntity
  8
AM_0
100
AcDbLine
 10
59.30000000000038
 20
60.6000000000002
 30
0.0
 11
59.20000000000047
 21
60.6000000000002
 31
0.0
  0
LINE
  5
F180
330
1F
100
AcDbEntity
  8
AM_0
100
AcDbLine
 10
59.30000000000038
 20
61.20000000000057
 30
0.0
 11
59.20000000000047
 21
61.20000000000057
 31
0.0
  0
LINE
  5
F181
330
1F
100
AcDbEntity
  8
AM_0
100
AcDbLine
 10
59.3076120467492
 20
59.94457436923797
 30
0.0
 11
60.30000000000038
 21
60.35563491860997
 31
0.0
  0
LINE
  5
F182
330
1F
100
AcDbEntity
  8
AM_0
100
AcDbLine
 10
60.24457436923873
 20
59.00761204674957
 30
0.0
 11
60.6556349186105
 21
60.0000000000003
 31
0.0
  0
LINE
  5
F183
330
1F
100
AcDbEntity
  8
AM_0
100
AcDbLine
 10
62.37071067811891
 20
59.02928932188101
 30
0.0
 11
61.40000000000028
 21
59.99999999999985
 31
0.0
  0
LINE
  5
F184
330
1F
100
AcDbEntity
  8
AM_0
100
AcDbLine
 10
60.65563491861005
 20
60.0000000000003
 30
0.0
 11
61.40000000000028
 21
59.99999999999985
 31
0.0
  0
LINE
  5
F185
330
1F
100
AcDbEntity
  8
AM_0
100
AcDbLine
 10
60.6556349186105
 20
60.0000000000003
 30
0.0
 11
60.30000000000038
 21
60.35563491861042
 31
0.0
  0
LINE
  5
F186
330
1F
100
AcDbEntity
  8
AM_0
100
AcDbLine
 10
61.40000000000028
 20
60.99999999999941
 30
0.0
 11
61.40000000000028
 21
60.00000000000031
 31
0.0
  0
LINE
  5
F187
330
1F
100
AcDbEntity
  8
AM_0
100
AcDbLine
 10
60.30000000000015
 20
60.99999999999939
 30
0.0
 11
61.40000000000028
 21
60.99999999999986
 31
0.0
  0
LINE
  5
F188
330
1F
100
AcDbEntity
  8
AM_0
100
AcDbLine
 10
60.30000000000038
 20
60.99999999999984
 30
0.0
 11
60.30000000000038
 21
60.35563491860997
 31
0.0
  0
LINE
  5
F189
330
1F
100
AcDbEntity
  8
AM_0
100
AcDbLine
 10
60.24457436923873
 20
59.00761204674957
 30
0.0
 11
60.20630602600156
 21
58.91522409349848
 31
0.0
  0
LINE
  5
F18A
330
1F
100
AcDbEntity
  8
AM_0
100
AcDbLine
 10
59.3076120467492
 20
59.94457436923797
 30
0.0
 11
59.21522409349856
 21
59.90630602600079
 31
0.0
  0
ARC
  5
F18B
330
1F
100
AcDbEntity
  8
AM_0
100
AcDbCircle
 10
60.28284271247454
 20
59.10000000000066
 30
0.0
 40
0.2
100
AcDbArc
 50
224.9999999999998
 51
269.999999999987
  0
LINE
  5
F18C
330
1F
100
AcDbEntity
  8
AM_0
100
AcDbLine
 10
62.44142135623744
 20
58.95857864376225
 30
0.0
 11
62.37071067811891
 21
59.02928932188101
 31
0.0
  0
ARC
  5
F18D
330
1F
100
AcDbEntity
  8
AM_0
100
AcDbCircle
 10
62.30000000000038
 20
59.09999999999977
 30
0.0
 40
0.2
100
AcDbArc
 50
269.999999999987
 51
0.0000000000004071
  0
ARC
  5
F18E
330
1F
100
AcDbEntity
  8
AM_0
100
AcDbCircle
 10
62.30000000000038
 20
59.09999999999977
 30
0.0
 40
0.1
100
AcDbArc
 50
269.9999999999739
 51
0.0000000000004071
  0
ARC
  5
F18F
330
1F
100
AcDbEntity
  8
AM_0
100
AcDbCircle
 10
60.28284271247523
 20
59.10000000000066
 30
0.0
 40
0.1
100
AcDbArc
 50
225.0000000000182
 51
269.9999999999804
  0
ARC
  5
F190
330
1F
100
AcDbEntity
  8
AM_0
100
AcDbCircle
 10
59.40000000000029
 20
59.98284271247469
 30
0.0
 40
0.1
100
AcDbArc
 50
180.0000000000069
 51
225.000000000009
  0
LINE
  5
F191
330
1F
100
AcDbEntity
  8
AM_0
100
AcDbLine
 10
60.28284271247523
 20
59.00000000000075
 30
0.0
 11
62.30000000000038
 21
58.99999999999986
 31
0.0
  0
LINE
  5
F192
330
1F
100
AcDbEntity
  8
AM_0
100
AcDbLine
 10
60.21213203435647
 20
59.0292893218819
 30
0.0
 11
59.32928932188175
 21
59.91213203435593
 31
0.0
  0
LINE
  5
F193
330
1F
100
AcDbEntity
  8
AM_0
100
AcDbLine
 10
60.14142135623726
 20
58.95857864376314
 30
0.0
 11
59.25857864376323
 21
59.84142135623763
 31
0.0
  0
LINE
  5
F194
330
1F
100
AcDbEntity
  8
AM_0
100
AcDbLine
 10
60.28284271247454
 20
58.90000000000084
 30
0.0
 11
61.2000000000007
 21
58.89999999999995
 31
0.0
  0
LINE
  5
F195
330
1F
100
AcDbEntity
  8
AM_0
100
AcDbLine
 10
98.50000000000044
 20
58.60000000000046
 30
0.0
 11
98.20000000000048
 21
58.90000000000064
 31
0.0
  0
LINE
  5
F196
330
1F
100
AcDbEntity
  8
AM_0
100
AcDbLine
 10
98.80000000000038
 20
58.90000000000064
 30
0.0
 11
98.50000000000044
 21
58.60000000000046
 31
0.0
  0
LINE
  5
F197
330
1F
100
AcDbEntity
  8
AM_0
100
AcDbLine
 10
98.50000000000044
 20
58.70000000000082
 30
0.0
 11
98.50000000000044
 21
58.60000000000046
 31
0.0
  0
LINE
  5
F198
330
1F
100
AcDbEntity
  8
AM_0
100
AcDbLine
 10
97.60000000000056
 20
59.60000000000047
 30
0.0
 11
97.50000000000065
 21
59.60000000000047
 31
0.0
  0
LINE
  5
F199
330
1F
100
AcDbEntity
  8
AM_0
100
AcDbLine
 10
97.60000000000056
 20
60.20000000000083
 30
0.0
 11
97.50000000000065
 21
60.20000000000128
 31
0.0
  0
LINE
  5
F19A
330
1F
100
AcDbEntity
  8
AM_0
100
AcDbLine
 10
97.29999999999993
 20
59.90000000000017
 30
0.0
 11
97.20000000000025
 21
59.90000000000017
 31
0.0
  0
LINE
  5
F19B
330
1F
100
AcDbEntity
  8
AM_0
100
AcDbLine
 10
97.20000000000048
 20
59.90000000000063
 30
0.0
 11
97.50000000000042
 21
59.60000000000047
 31
0.0
  0
LINE
  5
F19C
330
1F
100
AcDbEntity
  8
AM_0
100
AcDbLine
 10
97.50000000000042
 20
60.20000000000083
 30
0.0
 11
97.20000000000048
 21
59.90000000000063
 31
0.0
  0
LINE
  5
F19D
330
1F
100
AcDbEntity
  8
AM_0
100
AcDbLine
 10
97.30000000000039
 20
59.90000000000063
 30
0.0
 11
97.60000000000056
 21
59.60000000000047
 31
0.0
  0
LINE
  5
F19E
330
1F
100
AcDbEntity
  8
AM_0
100
AcDbLine
 10
97.60000000000056
 20
60.20000000000083
 30
0.0
 11
97.30000000000039
 21
59.90000000000063
 31
0.0
  0
LINE
  5
F19F
330
1F
100
AcDbEntity
  8
AM_0
100
AcDbLine
 10
98.20000000000002
 20
58.9000000000011
 30
0.0
 11
97.70000000000047
 21
58.90000000000064
 31
0.0
  0
LINE
  5
F1A0
330
1F
100
AcDbEntity
  8
AM_0
100
AcDbLine
 10
98.50000000000044
 20
58.70000000000037
 30
0.0
 11
98.20000000000048
 21
59.00000000000055
 31
0.0
  0
LINE
  5
F1A1
330
1F
100
AcDbEntity
  8
AM_0
100
AcDbLine
 10
98.80000000000038
 20
59.00000000000055
 30
0.0
 11
98.50000000000044
 21
58.70000000000037
 31
0.0
  0
LINE
  5
F1A2
330
1F
100
AcDbEntity
  8
AM_0
100
AcDbLine
 10
98.80000000000038
 20
59.00000000000055
 30
0.0
 11
98.80000000000038
 21
58.90000000000019
 31
0.0
  0
LINE
  5
F1A3
330
1F
100
AcDbEntity
  8
AM_0
100
AcDbLine
 10
98.20000000000048
 20
59.0000000000001
 30
0.0
 11
98.20000000000048
 21
58.90000000000064
 31
0.0
  0
LINE
  5
F1A4
330
1F
100
AcDbEntity
  8
AM_0
100
AcDbLine
 10
97.62928932188172
 20
59.02928932188125
 30
0.0
 11
98.60000000000056
 21
60.00000000000055
 31
0.0
  0
LINE
  5
F1A5
330
1F
100
AcDbEntity
  8
AM_0
100
AcDbLine
 10
97.55857864376318
 20
58.95857864376295
 30
0.0
 11
97.62928932188172
 21
59.02928932188125
 31
0.0
  0
ARC
  5
F1A6
330
1F
100
AcDbEntity
  8
AM_0
100
AcDbCircle
 10
97.70000000000047
 20
59.10000000000001
 30
0.0
 40
0.1
100
AcDbArc
 50
180.0000000000004
 51
270.000000000026
  0
ARC
  5
F1A7
330
1F
100
AcDbEntity
  8
AM_0
100
AcDbCircle
 10
97.70000000000047
 20
59.10000000000046
 30
0.0
 40
0.2
100
AcDbArc
 50
180.0000000000004
 51
270.0
  0
LINE
  5
F1A8
330
1F
100
AcDbEntity
  8
AM_0
100
AcDbLine
 10
97.50000000000042
 20
59.10000000000046
 30
0.0
 11
97.50000000000065
 21
59.60000000000047
 31
0.0
  0
LINE
  5
F1A9
330
1F
100
AcDbEntity
  8
AM_0
100
AcDbLine
 10
99.65542563076244
 20
59.00761204674984
 30
0.0
 11
99.24436508138953
 21
60.00000000000055
 31
0.0
  0
LINE
  5
F1AA
330
1F
100
AcDbEntity
  8
AM_0
100
AcDbLine
 10
100.5923879532512
 20
59.9445743692387
 30
0.0
 11
99.60000000000057
 21
60.35563491861115
 31
0.0
  0
LINE
  5
F1AB
330
1F
100
AcDbEntity
  8
AM_0
100
AcDbLine
 10
99.60000000000057
 20
60.3556349186116
 30
0.0
 11
99.24436508138976
 21
60.00000000000055
 31
0.0
  0
LINE
  5
F1AC
330
1F
100
AcDbEntity
  8
AM_0
100
AcDbLine
 10
99.69369397399894
 20
58.91522409349829
 30
0.0
 11
99.65542563076244
 21
59.00761204674984
 31
0.0
  0
LINE
  5
F1AD
330
1F
100
AcDbEntity
  8
AM_0
100
AcDbLine
 10
100.6847759065025
 20
59.90630602600242
 30
0.0
 11
100.5923879532515
 21
59.9445743692387
 31
0.0
  0
ARC
  5
F1AE
330
1F
100
AcDbEntity
  8
AM_0
100
AcDbCircle
 10
99.61715728752617
 20
59.10000000000093
 30
0.0
 40
0.1
100
AcDbArc
 50
270.000000000013
 51
315.0000000000006
  0
ARC
  5
F1AF
330
1F
100
AcDbEntity
  8
AM_0
100
AcDbCircle
 10
100.5000000000004
 20
59.98284271247541
 30
0.0
 40
0.1
100
AcDbArc
 50
315.0000000000144
 51
0.0000000000004071
  0
ARC
  5
F1B0
330
1F
100
AcDbEntity
  8
AM_0
100
AcDbCircle
 10
99.61715728752594
 20
59.10000000000048
 30
0.0
 40
0.2
100
AcDbArc
 50
270.0
 51
315.0000000000006
  0
ARC
  5
F1B1
330
1F
100
AcDbEntity
  8
AM_0
100
AcDbCircle
 10
100.5000000000002
 20
59.98284271247541
 30
0.0
 40
0.2
100
AcDbArc
 50
315.0000000000006
 51
0.0000000000004071
  0
LINE
  5
F1B2
330
1F
100
AcDbEntity
  8
AM_0
100
AcDbLine
 10
100.5707106781189
 20
59.91213203435666
 30
0.0
 11
99.6878679656447
 21
59.02928932188217
 31
0.0
  0
LINE
  5
F1B3
330
1F
100
AcDbEntity
  8
AM_0
100
AcDbLine
 10
100.6414213562377
 20
59.8414213562379
 30
0.0
 11
99.75857864376322
 21
58.95857864376296
 31
0.0
  0
ARC
  5
F1B4
330
1F
100
AcDbEntity
  8
AM_0
100
AcDbCircle
 10
101.6000000000003
 20
58.00000000000058
 30
0.0
 40
0.5
100
AcDbArc
 50
270.0
 51
0.0000000000004071
  0
LINE
  5
F1B5
330
1F
100
AcDbEntity
  8
AM_0
100
AcDbLine
 10
99.24436508138953
 20
60.00000000000055
 30
0.0
 11
98.60000000000056
 21
60.00000000000055
 31
0.0
  0
LINE
  5
F1B6
330
1F
100
AcDbEntity
  8
AM_0
100
AcDbLine
 10
99.61715728752617
 20
59.00000000000102
 30
0.0
 11
97.70000000000047
 21
59.0000000000001
 31
0.0
  0
LINE
  5
F1B7
330
1F
100
AcDbEntity
  8
AM_0
100
AcDbLine
 10
99.61715728752594
 20
58.90000000000066
 30
0.0
 11
98.80000000000038
 21
58.9000000000011
 31
0.0
  0
DIMENSION
  5
F1B8
330
1F
100
AcDbEntity
  8
AM_5
100
AcDbDimension
  2
*D13
 10
57.90000000000077
 20
81.20000000000038
 30
0.0
 11
80.00000000000062
 21
84.30000000000038
 31
0.0
 70
    32
 71
     5
 42
44.19999999999968
  3
SYS$0
100
AcDbAlignedDimension
 13
102.1000000000004
 23
71.70000000000037
 33
0.0
 14
57.90000000000077
 24
66.2000000000001
 34
0.0
 50
180.0
100
AcDbRotatedDimension
1001
ACAD
1000
DSTYLE
1002
{
1070
    47
1040
0.2
1070
    48
1040
0.2
1070
   271
1070
     1
1002
}
  0
DIMENSION
  5
F1BB
330
1F
100
AcDbEntity
  8
AM_5
100
AcDbDimension
  2
*D14
 10
112.1000000000002
 20
112.7000000000011
 30
0.0
 11
109.0000000000002
 21
118.5466666666678
 31
0.0
 70
    32
 71
     5
 42
2.5
  3
SYS$0
100
AcDbAlignedDimension
 13
102.1000000000002
 23
110.2000000000011
 33
0.0
 14
101.5999999999999
 24
112.7000000000011
 34
0.0
 50
90.00000000000328
100
AcDbRotatedDimension
1001
ACAD
1000
DSTYLE
1002
{
1070
    47
1040
0.2
1070
    48
1040
0.2
1070
   271
1070
     1
1002
}
  0
DIMENSION
  5
F1BE
330
1F
100
AcDbEntity
  8
AM_5
100
AcDbDimension
  2
*D15
 10
112.1000000000003
 20
105.2000000000007
 30
0.0
 11
109.0000000000003
 21
107.7000000000009
 31
0.0
 70
    32
 71
     5
 42
5.000000000000468
  3
SYS$0
100
AcDbAlignedDimension
 13
102.1000000000002
 23
110.2000000000011
 33
0.0
 14
99.70000000000062
 24
105.2000000000007
 34
0.0
 50
90.00000000000328
100
AcDbRotatedDimension
1001
ACAD
1000
DSTYLE
1002
{
1070
    47
1040
0.2
1070
    48
1040
0.2
1070
   271
1070
     1
1002
}
  0
LINE
  5
F1C1
330
1F
100
AcDbEntity
  8
AM_7
 48
0.5
370
     9
100
AcDbLine
 10
80.00000000000071
 20
115.7000000000005
 30
0.0
 11
80.0000000000006
 21
102.2000000000005
 31
0.0
1001
GENIUS_GENODEF_13
1002
{
1000
HIER
1070
     0
1002
}
1002
{
1000
MANEDIT
1070
     0
1002
}
1002
{
1000
NOSEL
1070
     0
1002
}
1002
{
1000
BEHIND
1070
     0
1002
}
1002
{
1000
OTHER
1070
     0
1002
}
1002
{
1000
REACTOR
1002
}
1001
GENIUS_GENOBJ-N-CEN_13
1002
{
1000
OWNER
1000
GEN
1002
}
1001
GENIUS_GENCEN_19
1002
{
1040
3.0
1002
}
  0
LINE
  5
F1C2
330
1F
100
AcDbEntity
  8
AM_7
 48
0.5
370
     9
100
AcDbLine
 10
80.00000000000046
 20
54.50000000000042
 30
0.0
 11
80.00000000000031
 21
76.20000000000025
 31
0.0
1001
GENIUS_GENOBJ-N-CEN_13
1002
{
1000
OWNER
1000
GEN
1002
}
1001
GENIUS_GENODEF_13
1002
{
1000
HIER
1070
     0
1002
}
1002
{
1000
MANEDIT
1070
     0
1002
}
1002
{
1000
NOSEL
1070
     0
1002
}
1002
{
1000
BEHIND
1070
     0
1002
}
1002
{
1000
OTHER
1070
     0
1002
}
1002
{
1000
REACTOR
1002
}
1001
GENIUS_GENCEN_19
1002
{
1040
3.0
1002
}
  0
DIMENSION
  5
F1C3
102
{ACAD_XDICTIONARY
360
F1C4
102
}
102
{ACAD_REACTORS
330
F1C5
102
}
330
1F
100
AcDbEntity
  8
AM_5
100
AcDbDimension
  2
*D16
 10
49.89999899000031
 20
57.50000000000028
 30
0.0
 11
46.7999989900003
 21
62.10000000000021
 31
0.0
 70
    32
 71
     5
 42
9.199999999999818
  3
SYS$0
100
AcDbAlignedDimension
 13
58.40000000000023
 23
66.7000000000001
 33
0.0
 14
58.40000000000052
 24
57.50000000000028
 34
0.0
 50
270.0
100
AcDbRotatedDimension
1001
ACAD
1000
DSTYLE
1002
{
1070
    47
1040
0.2
1070
    48
1040
0.2
1070
   271
1070
     1
1002
}
  0
DIMENSION
  5
F1C6
102
{ACAD_XDICTIONARY
360
F1C7
102
}
102
{ACAD_REACTORS
330
F1C8
102
}
330
1F
100
AcDbEntity
  8
AM_5
100
AcDbDimension
  2
*D12
 10
112.1000000000003
 20
57.50000000000057
 30
0.0
 11
109.0000000000003
 21
65.3500000000005
 31
0.0
 70
    32
 71
     5
 42
15.69999999999981
  3
SYS$0
100
AcDbAlignedDimension
 13
100.6000000000004
 23
73.20000000000039
 33
0.0
 14
101.6000000000003
 24
57.50000000000058
 34
0.0
 50
270.0
100
AcDbRotatedDimension
1001
ACAD
1000
DSTYLE
1002
{
1070
    47
1040
0.2
1070
    48
1040
0.2
1070
   271
1070
     1
1002
}
  0
MTEXT
  5
F39C
330
1F
100
AcDbEntity
  8
AM_6
100
AcDbMText
 10
79.99999999999999
 20
47.50000000000043
 30
0.0
 40
3.2
 41
90.0
 71
     5
 72
     5
  1
LRB-11J（L）
 73
     1
 44
1.0
  0
MTEXT
  5
F39D
330
1F
100
AcDbEntity
  8
AM_6
100
AcDbMText
 10
216.9999999999995
 20
47.50000000000141
 30
0.0
 40
3.2
 41
90.0
 71
     5
 72
     5
  1
LRB-11J（R）
 73
     1
 44
1.0
  0
ENDSEC
  0
SECTION
  2
OBJECTS
  0
DICTIONARY
  5
C
330
0
100
AcDbDictionary
281
     1
  3
ACAD_COLOR
350
C45B
  3
ACAD_GROUP
350
D
  3
ACAD_LAYOUT
350
1A
  3
ACAD_MATERIAL
350
C446
  3
ACAD_MLINESTYLE
350
17
  3
ACAD_PLOTSETTINGS
350
19
  3
ACAD_PLOTSTYLENAME
350
E
  3
ACAD_TABLESTYLE
350
C45C
  3
ACAD_VISUALSTYLE
350
C44A
  3
AcAsAppObject
350
3DA1
  3
ACASGREF_MASTER
350
3DE9
  3
AcDbVariableDictionary
350
34
  3
AcmDictionary
350
47
  3
AD_GREF_MODULE
350
3DEA
  3
AD_MAPI_MODULE
350
3E06
  3
AMG
350
2B
  3
AMGSNAPSETTINGS
350
7D
  3
ASE_INDEX_DICTIONARY
350
B42E
  3
MAPISURF_MODULE
350
3DEB
  0
DICTIONARY
  5
3F95
330
2
100
AcDbDictionary
280
     1
281
     1
  3
ACAD_LAYERFILTERS
360
CB0C
  3
ACAD_LAYERSTATES
360
3F96
  3
ACLYDICTIONARY
360
CB0B
  3
AMLAYER_GROUPCOLORS
360
CB2F
  0
DICTIONARY
  5
8A
330
1F
100
AcDbDictionary
280
     1
281
     1
  3
ACAD_SORTENTS
360
E114
  0
DICTIONARY
  5
EE62
330
EE53
100
AcDbDictionary
280
     1
281
     1
  3
ACAD_DIMASSOC
360
EE63
  0
DICTIONARY
  5
EE7E
330
EE6F
100
AcDbDictionary
280
     1
281
     1
  3
ACAD_DIMASSOC
360
EE7F
  0
DICTIONARY
  5
EE99
330
EE8C
100
AcDbDictionary
280
     1
281
     1
  3
ACAD_DIMASSOC
360
EE9A
  0
DICTIONARY
  5
EEB1
330
EEA4
100
AcDbDictionary
280
     1
281
     1
  3
ACAD_DIMASSOC
360
EEB2
  0
DICTIONARY
  5
F1C4
330
F1C3
100
AcDbDictionary
280
     1
281
     1
  3
ACAD_DIMASSOC
360
F1C5
  0
DICTIONARY
  5
F1C7
330
F1C6
100
AcDbDictionary
280
     1
281
     1
  3
ACAD_DIMASSOC
360
F1C8
  0
DICTIONARY
  5
C45B
102
{ACAD_REACTORS
330
C
102
}
330
C
100
AcDbDictionary
281
     1
  0
DICTIONARY
  5
D
102
{ACAD_REACTORS
330
C
102
}
330
C
100
AcDbDictionary
281
     1
  0
DICTIONARY
  5
1A
102
{ACAD_REACTORS
330
C
102
}
330
C
100
AcDbDictionary
281
     1
  3
Model
350
22
  3
ﾚｲｱｳﾄ1
350
1E
  3
ﾚｲｱｳﾄ2
350
26
  0
DICTIONARY
  5
C446
102
{ACAD_REACTORS
330
C
102
}
330
C
100
AcDbDictionary
281
     1
  3
ByBlock
350
C448
  3
ByLayer
350
C447
  3
Global
350
C449
  0
DICTIONARY
  5
17
102
{ACAD_REACTORS
330
C
102
}
330
C
100
AcDbDictionary
281
     1
  3
Standard
350
18
  0
DICTIONARY
  5
19
102
{ACAD_REACTORS
330
C
102
}
330
C
100
AcDbDictionary
281
     1
  3
-00
350
C85D
  0
ACDBDICTIONARYWDFLT
  5
E
102
{ACAD_REACTORS
330
C
102
}
330
C
100
AcDbDictionary
281
     1
  3
Normal
350
F
100
AcDbDictionaryWithDefault
340
F
  0
DICTIONARY
  5
C45C
102
{ACAD_REACTORS
330
C
102
}
330
C
100
AcDbDictionary
281
     1
  3
Standard
350
C45D
  0
DICTIONARY
  5
C44A
102
{ACAD_REACTORS
330
C
102
}
330
C
100
AcDbDictionary
281
     1
  3
2dWireframe
350
C450
  3
3D Hidden
350
C452
  3
3dWireframe
350
C451
  3
Basic
350
C44F
  3
Brighten
350
C456
  3
ColorChange
350
C45A
  3
Conceptual
350
C453
  3
Dim
350
C455
  3
Facepattern
350
C459
  3
Flat
350
C44B
  3
FlatWithEdges
350
C44C
  3
Gouraud
350
C44D
  3
GouraudWithEdges
350
C44E
  3
Linepattern
350
C458
  3
Realistic
350
C454
  3
Thicken
350
C457
  0
ACAD_PROXY_OBJECT
  5
3DA1
102
{ACAD_REACTORS
330
C
102
}
330
C
100
AcDbProxyObject
 90
      499
 91
      576
 95
   720919
 70
     0
 93
       10
310
407F
 94
        0
  0
ACAD_PROXY_OBJECT
  5
3DE9
102
{ACAD_REACTORS
330
C
102
}
330
C
100
AcDbProxyObject
 90
      499
 91
      581
 95
   720919
 70
     0
 93
       34
310
010000407F
 94
        0
  0
DICTIONARY
  5
34
102
{ACAD_REACTORS
330
C
102
}
330
C
100
AcDbDictionary
281
     1
  3
CTABLESTYLE
350
C4A2
  3
DIMASSOC
350
AC85
  3
INDEXCTL
350
35
  3
SORTENTS
350
194C
  0
DICTIONARY
  5
47
102
{ACAD_REACTORS
330
C
102
}
330
C
100
AcDbDictionary
281
     1
  3
AcmBOM
350
7E8
  3
AcmStdDictionary
350
4C
  3
AMDTSECTSYM_ARROWCOLOR
350
C487
  0
ACAD_PROXY_OBJECT
  5
3DEA
102
{ACAD_REACTORS
330
C
102
}
330
C
100
AcDbProxyObject
 90
      499
 91
      582
 95
   720919
 70
     0
 93
      114
310
00000043800000000000000000003F
 94
        0
  0
ACAD_PROXY_OBJECT
  5
3E06
102
{ACAD_REACTORS
330
C
102
}
330
C
100
AcDbProxyObject
 90
      499
 91
      594
 95
   720919
 70
     0
 93
       34
310
05000044FF
 94
        0
  0
DICTIONARY
  5
2B
102
{ACAD_REACTORS
330
C
102
}
330
C
100
AcDbDictionary
281
     1
  0
DICTIONARY
  5
7D
102
{ACAD_REACTORS
330
C
102
}
330
C
100
AcDbDictionary
281
     1
  0
DICTIONARY
  5
B42E
102
{ACAD_REACTORS
330
C
102
}
330
C
100
AcDbDictionary
281
     1
  3
ASEBlockHierarchyIndexRecord
350
B42F
1001
DCO15
1040
1439205644.296
  0
ACAD_PROXY_OBJECT
  5
3DEB
102
{ACAD_REACTORS
330
C
102
}
330
C
100
AcDbProxyObject
 90
      499
 91
      583
 95
   720919
 70
     0
 93
        8
310
047D
 94
        0
  0
DICTIONARY
  5
CB0C
102
{ACAD_REACTORS
330
3F95
102
}
330
3F95
100
AcDbDictionary
281
     1
  3
50
350
CB0E
  0
DICTIONARY
  5
3F96
102
{ACAD_REACTORS
330
3F95
102
}
330
3F95
100
AcDbDictionary
281
     1
  3
20011210
350
3FB7
  0
DICTIONARY
  5
CB0B
102
{ACAD_REACTORS
330
3F95
102
}
330
3F95
100
AcDbDictionary
281
     1
  3
*A1
350
CB0D
1001
ACAD
1000
<All
  0
DICTIONARY
  5
CB2F
102
{ACAD_REACTORS
330
3F95
102
}
330
3F95
100
AcDbDictionary
280
     1
281
     1
  0
SORTENTSTABLE
  5
E114
102
{ACAD_REACTORS
330
8A
102
}
330
8A
100
AcDbSortentsTable
330
1F
331
EE15
  5
EE15
331
ED9F
  5
ED9F
331
EDDE
  5
EDDE
331
EE1D
  5
EE1D
331
EDE6
  5
EDE6
331
E501
  5
E501
331
ED70
  5
ED70
331
EDA7
  5
EDA7
331
EE25
  5
EE25
331
EDEE
  5
EDEE
331
E509
  5
E509
331
ED78
  5
ED78
331
EDAF
  5
EDAF
331
EDF6
  5
EDF6
331
EDB7
  5
EDB7
331
F188
  5
F188
331
F112
  5
F112
331
F149
  5
F149
331
F190
  5
F190
331
F11A
  5
F11A
331
F151
  5
F151
331
F198
  5
F198
331
F122
  5
F122
331
F159
  5
F159
331
F1A0
  5
F1A0
331
F12A
  5
F12A
331
F161
  5
F161
331
ED80
  5
ED80
331
EE8C
  5
EE8C
331
EDBF
  5
EDBF
331
ED88
  5
ED88
331
EDFE
  5
EDFE
331
ED90
  5
ED90
331
EDC7
  5
EDC7
331
EE06
  5
EE06
331
EDCF
  5
EDCF
331
EE0E
  5
EE0E
331
EDD7
  5
EDD7
331
F1A8
  5
F1A8
331
F132
  5
F132
331
F169
  5
F169
331
F1B0
  5
F1B0
331
F13A
  5
F13A
331
F171
  5
F171
331
F1B8
  5
F1B8
331
F142
  5
F142
331
F179
  5
F179
331
F103
  5
F103
331
F181
  5
F181
331
F10B
  5
F10B
331
ED98
  5
ED98
331
EE16
  5
EE16
331
EDDF
  5
EDDF
331
EDA0
  5
EDA0
331
EE1E
  5
EE1E
331
EDE7
  5
EDE7
331
E502
  5
E502
331
ED71
  5
ED71
331
EDA8
  5
EDA8
331
EE26
  5
EE26
331
EDEF
  5
EDEF
331
ED79
  5
ED79
331
EDB0
  5
EDB0
331
EDF7
  5
EDF7
331
F189
  5
F189
331
F113
  5
F113
331
F14A
  5
F14A
331
EEA4
  5
EEA4
331
F191
  5
F191
331
F11B
  5
F11B
331
F152
  5
F152
331
F199
  5
F199
331
F123
  5
F123
331
F15A
  5
F15A
331
F1A1
  5
F1A1
331
F12B
  5
F12B
331
F162
  5
F162
331
E512
  5
E512
331
ED81
  5
ED81
331
EDB8
  5
EDB8
331
EDFF
  5
EDFF
331
ED89
  5
ED89
331
EDC0
  5
EDC0
331
E52A
  5
E52A
331
ED91
  5
ED91
331
EDC8
  5
EDC8
331
EE07
  5
EE07
331
EDD0
  5
EDD0
331
EE0F
  5
EE0F
331
F1A9
  5
F1A9
331
F133
  5
F133
331
F16A
  5
F16A
331
F1B1
  5
F1B1
331
F13B
  5
F13B
331
F172
  5
F172
331
F143
  5
F143
331
F17A
  5
F17A
331
F104
  5
F104
331
F182
  5
F182
331
F10C
  5
F10C
331
ED99
  5
ED99
331
EDD8
  5
EDD8
331
EDA1
  5
EDA1
331
EDE0
  5
EDE0
331
EE17
  5
EE17
331
EDE8
  5
EDE8
331
ED72
  5
ED72
331
E503
  5
E503
331
EDA9
  5
EDA9
331
EE1F
  5
EE1F
331
EDF0
  5
EDF0
331
ED7A
  5
ED7A
331
EDB1
  5
EDB1
331
EE27
  5
EE27
331
F18A
  5
F18A
331
F114
  5
F114
331
F14B
  5
F14B
331
F1C1
  5
F1C1
331
F192
  5
F192
331
F11C
  5
F11C
331
F153
  5
F153
331
F19A
  5
F19A
331
F124
  5
F124
331
F15B
  5
F15B
331
F1A2
  5
F1A2
331
F12C
  5
F12C
331
F163
  5
F163
331
ED82
  5
ED82
331
E513
  5
E513
331
EDB9
  5
EDB9
331
EDF8
  5
EDF8
331
ED8A
  5
ED8A
331
EDC1
  5
EDC1
331
EE00
  5
EE00
331
ED92
  5
ED92
331
E52B
  5
E52B
331
EDC9
  5
EDC9
331
EE08
  5
EE08
331
EDD1
  5
EDD1
331
F1AA
  5
F1AA
331
F134
  5
F134
331
F16B
  5
F16B
331
F1B2
  5
F1B2
331
F13C
  5
F13C
331
F173
  5
F173
331
F144
  5
F144
331
F17B
  5
F17B
331
F105
  5
F105
331
F183
  5
F183
331
F10D
  5
F10D
331
EE10
  5
EE10
331
ED9A
  5
ED9A
331
EDD9
  5
EDD9
331
EDE1
  5
EDE1
331
EDA2
  5
EDA2
331
EE18
  5
EE18
331
EE6F
  5
EE6F
331
EDE9
  5
EDE9
331
ED73
  5
ED73
331
E504
  5
E504
331
EDAA
  5
EDAA
331
EE20
  5
EE20
331
EDF1
  5
EDF1
331
ED7B
  5
ED7B
331
EDB2
  5
EDB2
331
EE28
  5
EE28
331
F18B
  5
F18B
331
F115
  5
F115
331
F14C
  5
F14C
331
F1C2
  5
F1C2
331
F193
  5
F193
331
F11D
  5
F11D
331
F154
  5
F154
331
F19B
  5
F19B
331
F125
  5
F125
331
F15C
  5
F15C
331
F1A3
  5
F1A3
331
F12D
  5
F12D
331
F164
  5
F164
331
EF7E
  5
EF7E
331
ED83
  5
ED83
331
EDBA
  5
EDBA
331
EDF9
  5
EDF9
331
ED8B
  5
ED8B
331
EDC2
  5
EDC2
331
EE01
  5
EE01
331
ED93
  5
ED93
331
EDCA
  5
EDCA
331
EE09
  5
EE09
331
EDD2
  5
EDD2
331
F1AB
  5
F1AB
331
F135
  5
F135
331
F16C
  5
F16C
331
F1B3
  5
F1B3
331
F13D
  5
F13D
331
F0FE
  5
F0FE
331
F174
  5
F174
331
F1BB
  5
F1BB
331
F145
  5
F145
331
F17C
  5
F17C
331
F106
  5
F106
331
F184
  5
F184
331
F10E
  5
F10E
331
EE11
  5
EE11
331
ED9B
  5
ED9B
331
EDDA
  5
EDDA
331
EDE2
  5
EDE2
331
EDA3
  5
EDA3
331
EE19
  5
EE19
331
EDEA
  5
EDEA
331
E505
  5
E505
331
ED74
  5
ED74
331
EDAB
  5
EDAB
331
EE21
  5
EE21
331
EDF2
  5
EDF2
331
E50D
  5
E50D
331
ED7C
  5
ED7C
331
EDB3
  5
EDB3
331
F18C
  5
F18C
331
F116
  5
F116
331
F14D
  5
F14D
331
F1C3
  5
F1C3
331
F194
  5
F194
331
F11E
  5
F11E
331
F155
  5
F155
331
F19C
  5
F19C
331
F126
  5
F126
331
F15D
  5
F15D
331
F1A4
  5
F1A4
331
F12E
  5
F12E
331
F165
  5
F165
331
E515
  5
E515
331
ED84
  5
ED84
331
EDBB
  5
EDBB
331
EDFA
  5
EDFA
331
ED8C
  5
ED8C
331
EDC3
  5
EDC3
331
EE02
  5
EE02
331
ED94
  5
ED94
331
EDCB
  5
EDCB
331
EE0A
  5
EE0A
331
EDD3
  5
EDD3
331
F1AC
  5
F1AC
331
F136
  5
F136
331
F16D
  5
F16D
331
F1B4
  5
F1B4
331
F13E
  5
F13E
331
F0FF
  5
F0FF
331
F175
  5
F175
331
F146
  5
F146
331
F17D
  5
F17D
331
F107
  5
F107
331
F185
  5
F185
331
F10F
  5
F10F
331
EE12
  5
EE12
331
ED9C
  5
ED9C
331
EDDB
  5
EDDB
331
EDE3
  5
EDE3
331
E4FE
  5
E4FE
331
EDA4
  5
EDA4
331
EE1A
  5
EE1A
331
EDEB
  5
EDEB
331
E506
  5
E506
331
ED75
  5
ED75
331
EDAC
  5
EDAC
331
EE22
  5
EE22
331
EDF3
  5
EDF3
331
E50E
  5
E50E
331
ED7D
  5
ED7D
331
EDB4
  5
EDB4
331
F18D
  5
F18D
331
F117
  5
F117
331
F14E
  5
F14E
331
F195
  5
F195
331
F11F
  5
F11F
331
F156
  5
F156
331
F19D
  5
F19D
331
F127
  5
F127
331
F15E
  5
F15E
331
F1A5
  5
F1A5
331
F12F
  5
F12F
331
F166
  5
F166
331
EE89
  5
EE89
331
ED85
  5
ED85
331
EDBC
  5
EDBC
331
EDFB
  5
EDFB
331
EE32
  5
EE32
331
ED8D
  5
ED8D
331
EDC4
  5
EDC4
331
EE03
  5
EE03
331
ED95
  5
ED95
331
EDCC
  5
EDCC
331
EE0B
  5
EE0B
331
EDD4
  5
EDD4
331
F1AD
  5
F1AD
331
F137
  5
F137
331
F16E
  5
F16E
331
F1B5
  5
F1B5
331
F13F
  5
F13F
331
F100
  5
F100
331
F176
  5
F176
331
F147
  5
F147
331
F17E
  5
F17E
331
F108
  5
F108
331
F186
  5
F186
331
EE13
  5
EE13
331
ED9D
  5
ED9D
331
EDDC
  5
EDDC
331
EE1B
  5
EE1B
331
EDE4
  5
EDE4
331
E4FF
  5
E4FF
331
EDA5
  5
EDA5
331
EE23
  5
EE23
331
EDEC
  5
EDEC
331
E507
  5
E507
331
ED76
  5
ED76
331
EDAD
  5
EDAD
331
EDF4
  5
EDF4
331
E50F
  5
E50F
331
ED7E
  5
ED7E
331
EDB5
  5
EDB5
331
F110
  5
F110
331
F39C
  5
F39C
331
F18E
  5
F18E
331
F118
  5
F118
331
F14F
  5
F14F
331
F196
  5
F196
331
F120
  5
F120
331
F157
  5
F157
331
F19E
  5
F19E
331
F128
  5
F128
331
F15F
  5
F15F
331
F1A6
  5
F1A6
331
F167
  5
F167
331
ED86
  5
ED86
331
EDBD
  5
EDBD
331
EDFC
  5
EDFC
331
ED8E
  5
ED8E
331
EDC5
  5
EDC5
331
EE04
  5
EE04
331
ED96
  5
ED96
331
EDCD
  5
EDCD
331
EE0C
  5
EE0C
331
EE53
  5
EE53
331
EDD5
  5
EDD5
331
F130
  5
F130
331
F1AE
  5
F1AE
331
F138
  5
F138
331
F16F
  5
F16F
331
F1B6
  5
F1B6
331
F140
  5
F140
331
F101
  5
F101
331
F177
  5
F177
331
F1BE
  5
F1BE
331
F17F
  5
F17F
331
F109
  5
F109
331
F187
  5
F187
331
EE14
  5
EE14
331
ED9E
  5
ED9E
331
EDDD
  5
EDDD
331
EE1C
  5
EE1C
331
EDE5
  5
EDE5
331
E500
  5
E500
331
ED6F
  5
ED6F
331
EDA6
  5
EDA6
331
EE24
  5
EE24
331
EDED
  5
EDED
331
E508
  5
E508
331
ED77
  5
ED77
331
EDAE
  5
EDAE
331
EDF5
  5
EDF5
331
ED7F
  5
ED7F
331
EDB6
  5
EDB6
331
F111
  5
F111
331
F148
  5
F148
331
F39D
  5
F39D
331
F18F
  5
F18F
331
F150
  5
F150
331
F1C6
  5
F1C6
331
F119
  5
F119
331
F197
  5
F197
331
F121
  5
F121
331
F158
  5
F158
331
F19F
  5
F19F
331
F129
  5
F129
331
F160
  5
F160
331
F1A7
  5
F1A7
331
E510
  5
E510
331
EE8B
  5
EE8B
331
E518
  5
E518
331
ED87
  5
ED87
331
EDBE
  5
EDBE
331
EDFD
  5
EDFD
331
ED8F
  5
ED8F
331
EDC6
  5
EDC6
331
EE05
  5
EE05
331
ED97
  5
ED97
331
EDCE
  5
EDCE
331
EE0D
  5
EE0D
331
EDD6
  5
EDD6
331
F131
  5
F131
331
F168
  5
F168
331
F1AF
  5
F1AF
331
F139
  5
F139
331
F170
  5
F170
331
F1B7
  5
F1B7
331
F141
  5
F141
331
F178
  5
F178
331
F102
  5
F102
331
F180
  5
F180
331
F10A
  5
F10A
  0
DIMASSOC
  5
EE63
102
{ACAD_REACTORS
330
EE62
102
}
330
EE62
100
AcDbDimAssoc
330
EE53
 90
        3
 70
     0
 71
     0
  1
AcDbOsnapPointRef
 72
     1
331
EDAD
 73
     0
 91
        0
 40
0.0
 10
0.0
 20
0.0
 30
2.000000000000000E+50
 75
     0
  1
AcDbOsnapPointRef
 72
     1
331
EDAE
 73
     0
 91
        0
 40
0.0
 10
0.0
 20
0.0
 30
2.000000000000000E+50
 75
     0
  0
DIMASSOC
  5
EE7F
102
{ACAD_REACTORS
330
EE7E
102
}
330
EE7E
100
AcDbDimAssoc
330
EE6F
 90
        3
 70
     0
 71
     0
  1
AcDbOsnapPointRef
 72
     1
331
EDAD
 73
     0
 91
        0
 40
0.0
 10
0.0
 20
0.0
 30
2.000000000000000E+50
 75
     0
  1
AcDbOsnapPointRef
 72
    13
331
EDBF
 73
     0
 91
        0
 40
0.0
 10
0.0
 20
0.0
 30
2.000000000000000E+50
 75
     0
  0
DIMASSOC
  5
EE9A
102
{ACAD_REACTORS
330
EE99
102
}
330
EE99
100
AcDbDimAssoc
330
EE8C
 90
        3
 70
     0
 71
     0
  1
AcDbOsnapPointRef
 72
     1
331
ED7D
 73
     0
 91
        0
 40
0.0
 10
0.0
 20
0.0
 30
2.000000000000000E+50
 75
     0
  1
AcDbOsnapPointRef
 72
    13
331
EDB4
 73
     0
 91
        0
 40
0.0
 10
0.0
 20
0.0
 30
2.000000000000000E+50
 75
     0
  0
DIMASSOC
  5
EEB2
102
{ACAD_REACTORS
330
EEB1
102
}
330
EEB1
100
AcDbDimAssoc
330
EEA4
 90
        2
 70
     0
 71
     0
  1
AcDbOsnapPointRef
 72
     1
331
EDB4
 73
     0
 91
        0
 40
0.0
 10
0.0
 20
0.0
 30
2.000000000000000E+50
 75
     0
  0
DIMASSOC
  5
F1C5
102
{ACAD_REACTORS
330
F1C4
102
}
330
F1C4
100
AcDbDimAssoc
330
F1C3
 90
        3
 70
     0
 71
     0
  1
AcDbOsnapPointRef
 72
     1
331
F10C
 73
     0
 91
        0
 40
0.0
 10
0.0
 20
0.0
 30
2.000000000000000E+50
 75
     0
  1
AcDbOsnapPointRef
 72
    13
331
F143
 73
     0
 91
        0
 40
0.0
 10
0.0
 20
0.0
 30
2.000000000000000E+50
 75
     0
  0
DIMASSOC
  5
F1C8
102
{ACAD_REACTORS
330
F1C7
102
}
330
F1C7
100
AcDbDimAssoc
330
F1C6
 90
        2
 70
     0
 71
     0
  1
AcDbOsnapPointRef
 72
     1
331
F143
 73
     0
 91
        0
 40
0.0
 10
0.0
 20
0.0
 30
2.000000000000000E+50
 75
     0
  0
LAYOUT
  5
22
102
{ACAD_REACTORS
330
1A
102
}
330
1A
100
AcDbPlotSettings
  1

  2
DocuWide2055
  4
A4
  6

 40
3.174999952316284
 41
3.174999952316284
 42
3.175003051757812
 43
3.17498779296875
 44
210.0156707763672
 45
297.0106506347656
 46
0.0
 47
1.309609234333038
 48
0.0000000000000213
 49
-0.0000000000000568
140
297.0
141
210.0
142
1.0
143
1.031101620106089
 70
  3764
 72
     1
 73
     1
 74
     4
  7
monochrome.ctb
 75
     0
147
0.9698365132013956
 76
     1
 77
     2
 78
   300
148
-0.0000000000000213
149
0.0000000000000568
100
AcDbLayout
  1
Model
 70
     1
 71
     0
 10
0.0
 20
0.0
 11
12.0
 21
9.0
 12
0.0
 22
0.0
 32
0.0
 14
0.0
 24
0.0
 34
0.0
 15
0.0
 25
0.0
 35
0.0
146
0.0
 13
0.0
 23
0.0
 33
0.0
 16
1.0
 26
0.0
 36
0.0
 17
0.0
 27
1.0
 37
0.0
 76
     0
330
1F
331
C444
1001
ACAD_PSEXT
1000
DocuWide2055
1000
FX DocuWide 2055
1000
192.200.51.212:plt00t
1000

1070
     0
  0
LAYOUT
  5
1E
102
{ACAD_REACTORS
330
1A
102
}
330
1A
100
AcDbPlotSettings
  1

  2
\\ML370\XEROX
  4
A4
  6

 40
3.174999952316284
 41
3.174999952316284
 42
3.175003051757812
 43
3.17498779296875
 44
209.8674926757813
 45
296.6719970703125
 46
0.0
 47
0.0
 48
0.0
 49
0.0
140
0.0
141
0.0
142
1.0
143
1.0
 70
   688
 72
     1
 73
     1
 74
     5
  7
monochrome.ctb
 75
    16
147
1.0
 76
     0
 77
     2
 78
   300
148
0.0
149
0.0
100
AcDbLayout
  1
ﾚｲｱｳﾄ1
 70
     1
 71
     1
 10
-3.17498779296875
 20
-3.174999952316284
 11
293.4970092773438
 21
206.692492723465
 12
0.0
 22
0.0
 32
0.0
 14
1.000000000000000E+20
 24
1.000000000000000E+20
 34
1.000000000000000E+20
 15
-1.000000000000000E+20
 25
-1.000000000000000E+20
 35
-1.000000000000000E+20
146
0.0
 13
0.0
 23
0.0
 33
0.0
 16
1.0
 26
0.0
 36
0.0
 17
0.0
 27
1.0
 37
0.0
 76
     0
330
1B
  0
LAYOUT
  5
26
102
{ACAD_REACTORS
330
1A
102
}
330
1A
100
AcDbPlotSettings
  1

  2
\\ML370\XEROX
  4

  6

 40
0.0
 41
0.0
 42
0.0
 43
0.0
 44
0.0
 45
0.0
 46
0.0
 47
0.0
 48
0.0
 49
0.0
140
0.0
141
0.0
142
1.0
143
1.0
 70
   688
 72
     0
 73
     0
 74
     5
  7
monochrome.ctb
 75
    16
147
1.0
 76
     0
 77
     2
 78
   300
148
0.0
149
0.0
100
AcDbLayout
  1
ﾚｲｱｳﾄ2
 70
     1
 71
     2
 10
0.0
 20
0.0
 11
12.0
 21
9.0
 12
0.0
 22
0.0
 32
0.0
 14
0.0
 24
0.0
 34
0.0
 15
0.0
 25
0.0
 35
0.0
146
0.0
 13
0.0
 23
0.0
 33
0.0
 16
1.0
 26
0.0
 36
0.0
 17
0.0
 27
1.0
 37
0.0
 76
     0
330
23
  0
MATERIAL
  5
C448
102
{ACAD_XDICTIONARY
360
F5D0
102
}
102
{ACAD_REACTORS
330
C446
102
}
330
C446
100
AcDbMaterial
  1
ByBlock
  0
MATERIAL
  5
C447
102
{ACAD_XDICTIONARY
360
F5CE
102
}
102
{ACAD_REACTORS
330
C446
102
}
330
C446
100
AcDbMaterial
  1
ByLayer
  0
MATERIAL
  5
C449
102
{ACAD_XDICTIONARY
360
F5D2
102
}
102
{ACAD_REACTORS
330
C446
102
}
330
C446
100
AcDbMaterial
  1
Global
  0
MLINESTYLE
  5
18
102
{ACAD_REACTORS
330
17
102
}
330
17
100
AcDbMlineStyle
  2
STANDARD
 70
     0
  3

 62
   256
 51
90.0
 52
90.0
 71
     2
 49
0.5
 62
   256
  6
BYLAYER
 49
-0.5
 62
   256
  6
BYLAYER
  0
PLOTSETTINGS
  5
C85D
102
{ACAD_REACTORS
330
19
102
}
330
19
100
AcDbPlotSettings
  1
-00
  2
RICOH imagio Wide 7040e RP-GL/2
  4
A3
  6
AM_VIEW1
 40
5.069416522979736
 41
7.228392601013183
 42
5.23870849609375
 43
7.05908203125
 44
419.9889831542968
 45
296.9683227539062
 46
-5.159570932388305
 47
-7.159575939178466
 48
347.0000006405867
 49
-0.0000003719120514
140
767.0000006405866
141
296.9999996280879
142
1.0
143
1.0
 70
 11956
 72
     1
 73
     0
 74
     4
  7
monochrome.ctb
 75
    16
147
1.0
 76
     0
 77
     2
 78
   300
148
-347.0000006405867
149
0.0000003719120514
1001
ACAD_PSEXT
1000
RICOH imagio Wide 7040e RP-GL/2
1000
RICOH imagio Wide 7040e RP-GL/2
1000
\\ADMINISTRATOR
1000
RP-GL/2 Driver (Windows 2000/XP/Server 2003)
1070
     0
  0
ACDBPLACEHOLDER
  5
F
102
{ACAD_REACTORS
330
E
102
}
330
E
  0
TABLESTYLE
  5
C45D
102
{ACAD_XDICTIONARY
360
F5D4
102
}
102
{ACAD_REACTORS
330
C45C
102
}
330
C45C
100
AcDbTableStyle
  3
Standard
 70
     0
 71
     0
 40
1.5
 41
1.5
280
     0
281
     0
  7
STANDARD
140
4.5
170
     2
 62
     0
 63
     7
283
     0
274
    -2
284
     1
 64
     0
275
    -2
285
     1
 65
     0
276
    -2
286
     1
 66
     0
277
    -2
287
     1
 67
     0
278
    -2
288
     1
 68
     0
279
    -2
289
     1
 69
     0
  7
STANDARD
140
6.0
170
     5
 62
     0
 63
     7
283
     0
274
    -2
284
     1
 64
     0
275
    -2
285
     1
 65
     0
276
    -2
286
     1
 66
     0
277
    -2
287
     1
 67
     0
278
    -2
288
     1
 68
     0
279
    -2
289
     1
 69
     0
  7
STANDARD
140
4.5
170
     5
 62
     0
 63
     7
283
     0
274
    -2
284
     1
 64
     0
275
    -2
285
     1
 65
     0
276
    -2
286
     1
 66
     0
277
    -2
287
     1
 67
     0
278
    -2
288
     1
 68
     0
279
    -2
289
     1
 69
     0
  0
VISUALSTYLE
  5
C450
102
{ACAD_REACTORS
330
C44A
102
}
330
C44A
100
AcDbVisualStyle
  2
2dWireframe
 70
     4
 71
     0
 72
     2
 73
     0
 90
        0
 40
-0.6
 41
-30.0
 62
     5
 63
     7
421
 16777215
 74
     1
 91
        4
 64
     7
 65
   257
 75
     1
175
     1
 42
1.0
 92
        0
 66
   257
 43
1.0
 76
     1
 77
     6
 78
     2
 67
     7
 79
     5
170
     0
171
     0
290
     0
174
     0
 93
        1
 44
0.0
173
     0
291
     0
 45
0.0
1001
ACAD
1000
AcDbSavedByObjectVersion
1070
     0
  0
VISUALSTYLE
  5
C452
102
{ACAD_REACTORS
330
C44A
102
}
330
C44A
100
AcDbVisualStyle
  2
3D Hidden
 70
     6
 71
     1
 72
     2
 73
     2
 90
        0
 40
-0.6
 41
-30.0
 62
     5
 63
     7
421
 16777215
 74
     2
 91
        2
 64
     7
 65
   257
 75
     2
175
     1
 42
40.0
 92
        0
 66
   257
 43
1.0
 76
     1
 77
     6
 78
     2
 67
     7
 79
     3
170
     0
171
     0
290
     0
174
     0
 93
        1
 44
0.0
173
     0
291
     0
 45
0.0
1001
ACAD
1000
AcDbSavedByObjectVersion
1070
     0
  0
VISUALSTYLE
  5
C451
102
{ACAD_REACTORS
330
C44A
102
}
330
C44A
100
AcDbVisualStyle
  2
3dWireframe
 70
     5
 71
     0
 72
     2
 73
     0
 90
        0
 40
-0.6
 41
-30.0
 62
     5
 63
     7
421
 16777215
 74
     1
 91
        4
 64
     7
 65
   257
 75
     1
175
     1
 42
1.0
 92
        0
 66
   257
 43
1.0
 76
     1
 77
     6
 78
     2
 67
     7
 79
     5
170
     0
171
     0
290
     0
174
     0
 93
        1
 44
0.0
173
     0
291
     0
 45
0.0
1001
ACAD
1000
AcDbSavedByObjectVersion
1070
     0
  0
VISUALSTYLE
  5
C44F
102
{ACAD_REACTORS
330
C44A
102
}
330
C44A
100
AcDbVisualStyle
  2
Basic
 70
     7
 71
     1
 72
     0
 73
     1
 90
        0
 40
-0.6
 41
-30.0
 62
     5
 63
     7
421
 16777215
 74
     0
 91
        4
 64
     7
 65
   257
 75
     1
175
     1
 42
1.0
 92
        8
 66
     7
 43
1.0
 76
     1
 77
     6
 78
     2
 67
     7
 79
     5
170
     0
171
     0
290
     0
174
     0
 93
        1
 44
0.0
173
     0
291
     1
 45
0.0
1001
ACAD
1000
AcDbSavedByObjectVersion
1070
     0
  0
VISUALSTYLE
  5
C456
102
{ACAD_REACTORS
330
C44A
102
}
330
C44A
100
AcDbVisualStyle
  2
Brighten
 70
    12
 71
     2
 72
     2
 73
     0
 90
        0
 40
-0.6
 41
-30.0
 62
     5
 63
     7
421
 16777215
 74
     1
 91
        4
 64
     7
 65
   257
 75
     1
175
     1
 42
1.0
 92
        8
 66
     7
 43
1.0
 76
     1
 77
     6
 78
     2
 67
     7
 79
     5
170
     0
171
     0
290
     0
174
     0
 93
        1
 44
50.0
173
     0
291
     1
 45
0.0
1001
ACAD
1000
AcDbSavedByObjectVersion
1070
     0
  0
VISUALSTYLE
  5
C45A
102
{ACAD_REACTORS
330
C44A
102
}
330
C44A
100
AcDbVisualStyle
  2
ColorChange
 70
    16
 71
     2
 72
     2
 73
     3
 90
        0
 40
-0.6
 41
-30.0
 62
     5
 63
     8
421
  8421504
 74
     1
 91
        4
 64
     7
 65
   257
 75
     1
175
     1
 42
1.0
 92
        8
 66
     8
424
  8421504
 43
1.0
 76
     1
 77
     6
 78
     2
 67
     7
 79
     5
170
     0
171
     0
290
     0
174
     0
 93
        1
 44
0.0
173
     0
291
     1
 45
0.0
1001
ACAD
1000
AcDbSavedByObjectVersion
1070
     0
  0
VISUALSTYLE
  5
C453
102
{ACAD_REACTORS
330
C44A
102
}
330
C44A
100
AcDbVisualStyle
  2
Conceptual
 70
     9
 71
     3
 72
     2
 73
     0
 90
        0
 40
-0.6
 41
-30.0
 62
     5
 63
     7
421
 16777215
 74
     2
 91
        2
 64
     7
 65
   257
 75
     1
175
     1
 42
40.0
 92
        8
 66
     7
 43
1.0
 76
     1
 77
     6
 78
     2
 67
     7
 79
     3
170
     0
171
     0
290
     0
174
     0
 93
        1
 44
0.0
173
     0
291
     0
 45
0.0
1001
ACAD
1000
AcDbSavedByObjectVersion
1070
     0
  0
VISUALSTYLE
  5
C455
102
{ACAD_REACTORS
330
C44A
102
}
330
C44A
100
AcDbVisualStyle
  2
Dim
 70
    11
 71
     2
 72
     2
 73
     0
 90
        0
 40
-0.6
 41
-30.0
 62
     5
 63
     7
421
 16777215
 74
     1
 91
        4
 64
     7
 65
   257
 75
     1
175
     1
 42
1.0
 92
        8
 66
     7
 43
1.0
 76
     1
 77
     6
 78
     2
 67
     7
 79
     5
170
     0
171
     0
290
     0
174
     0
 93
        1
 44
-50.0
173
     0
291
     1
 45
0.0
1001
ACAD
1000
AcDbSavedByObjectVersion
1070
     0
  0
VISUALSTYLE
  5
C459
102
{ACAD_REACTORS
330
C44A
102
}
330
C44A
100
AcDbVisualStyle
  2
Facepattern
 70
    15
 71
     2
 72
     2
 73
     0
 90
        0
 40
-0.6
 41
-30.0
 62
     5
 63
     7
421
 16777215
 74
     1
 91
        4
 64
     7
 65
   257
 75
     1
175
     1
 42
1.0
 92
        8
 66
     7
 43
1.0
 76
     1
 77
     6
 78
     2
 67
     7
 79
     5
170
     0
171
     0
290
     0
174
     0
 93
        1
 44
0.0
173
     0
291
     1
 45
0.0
1001
ACAD
1000
AcDbSavedByObjectVersion
1070
     0
  0
VISUALSTYLE
  5
C44B
102
{ACAD_REACTORS
330
C44A
102
}
330
C44A
100
AcDbVisualStyle
  2
Flat
 70
     0
 71
     2
 72
     1
 73
     1
 90
        2
 40
-0.6
 41
30.0
 62
     5
 63
     7
421
 16777215
 74
     0
 91
        4
 64
     7
 65
   257
 75
     1
175
     1
 42
1.0
 92
        8
 66
     7
 43
1.0
 76
     1
 77
     6
 78
     2
 67
     7
 79
     5
170
     0
171
     0
290
     0
174
     0
 93
       13
 44
0.0
173
     0
291
     1
 45
0.0
1001
ACAD
1000
AcDbSavedByObjectVersion
1070
     0
  0
VISUALSTYLE
  5
C44C
102
{ACAD_REACTORS
330
C44A
102
}
330
C44A
100
AcDbVisualStyle
  2
FlatWithEdges
 70
     1
 71
     2
 72
     1
 73
     1
 90
        2
 40
-0.6
 41
30.0
 62
     5
 63
     7
421
 16777215
 74
     1
 91
        4
 64
     7
 65
   257
 75
     1
175
     1
 42
1.0
 92
        0
 66
   257
 43
1.0
 76
     1
 77
     6
 78
     2
 67
     7
 79
     5
170
     0
171
     0
290
     0
174
     0
 93
       13
 44
0.0
173
     0
291
     1
 45
0.0
1001
ACAD
1000
AcDbSavedByObjectVersion
1070
     0
  0
VISUALSTYLE
  5
C44D
102
{ACAD_REACTORS
330
C44A
102
}
330
C44A
100
AcDbVisualStyle
  2
Gouraud
 70
     2
 71
     2
 72
     2
 73
     1
 90
        2
 40
-0.6
 41
30.0
 62
     5
 63
     7
421
 16777215
 74
     0
 91
        4
 64
     7
 65
   257
 75
     1
175
     1
 42
1.0
 92
        0
 66
     7
 43
1.0
 76
     1
 77
     6
 78
     2
 67
     7
 79
     5
170
     0
171
     0
290
     0
174
     0
 93
       13
 44
0.0
173
     0
291
     1
 45
0.0
1001
ACAD
1000
AcDbSavedByObjectVersion
1070
     0
  0
VISUALSTYLE
  5
C44E
102
{ACAD_REACTORS
330
C44A
102
}
330
C44A
100
AcDbVisualStyle
  2
GouraudWithEdges
 70
     3
 71
     2
 72
     2
 73
     1
 90
        2
 40
-0.6
 41
30.0
 62
     5
 63
     7
421
 16777215
 74
     1
 91
        4
 64
     7
 65
   257
 75
     1
175
     1
 42
1.0
 92
        0
 66
   257
 43
1.0
 76
     1
 77
     6
 78
     2
 67
     7
 79
     5
170
     0
171
     0
290
     0
174
     0
 93
       13
 44
0.0
173
     0
291
     1
 45
0.0
1001
ACAD
1000
AcDbSavedByObjectVersion
1070
     0
  0
VISUALSTYLE
  5
C458
102
{ACAD_REACTORS
330
C44A
102
}
330
C44A
100
AcDbVisualStyle
  2
Linepattern
 70
    14
 71
     2
 72
     2
 73
     0
 90
        0
 40
-0.6
 41
-30.0
 62
     5
 63
     7
421
 16777215
 74
     1
 91
        4
 64
     7
 65
   257
 75
     7
175
     7
 42
1.0
 92
        8
 66
     7
 43
1.0
 76
     1
 77
     6
 78
     2
 67
     7
 79
     5
170
     0
171
     0
290
     0
174
     0
 93
        1
 44
0.0
173
     0
291
     1
 45
0.0
1001
ACAD
1000
AcDbSavedByObjectVersion
1070
     0
  0
VISUALSTYLE
  5
C454
102
{ACAD_REACTORS
330
C44A
102
}
330
C44A
100
AcDbVisualStyle
  2
Realistic
 70
     8
 71
     2
 72
     2
 73
     0
 90
        0
 40
-0.6
 41
-30.0
 62
     5
 63
     7
421
 16777215
 74
     1
 91
        0
 64
     7
 65
   257
 75
     1
175
     1
 42
1.0
 92
        8
 66
     8
424
  7895160
 43
1.0
 76
     1
 77
     6
 78
     2
 67
     7
 79
     5
170
     0
171
     0
290
     0
174
     0
 93
       13
 44
0.0
173
     0
291
     0
 45
0.0
1001
ACAD
1000
AcDbSavedByObjectVersion
1070
     0
  0
VISUALSTYLE
  5
C457
102
{ACAD_REACTORS
330
C44A
102
}
330
C44A
100
AcDbVisualStyle
  2
Thicken
 70
    13
 71
     2
 72
     2
 73
     0
 90
        0
 40
-0.6
 41
-30.0
 62
     5
 63
     7
421
 16777215
 74
     1
 91
        4
 64
     7
 65
   257
 75
     1
175
     1
 42
1.0
 92
       12
 66
     7
 43
1.0
 76
     1
 77
     6
 78
     2
 67
     7
 79
     5
170
     0
171
     0
290
     0
174
     0
 93
        1
 44
0.0
173
     0
291
     1
 45
0.0
1001
ACAD
1000
AcDbSavedByObjectVersion
1070
     0
  0
DICTIONARYVAR
  5
C4A2
102
{ACAD_REACTORS
330
34
102
}
330
34
100
DictionaryVariables
280
     0
  1
STANDARD
  0
DICTIONARYVAR
  5
AC85
102
{ACAD_REACTORS
330
34
102
}
330
34
100
DictionaryVariables
280
     0
  1
1
  0
DICTIONARYVAR
  5
35
102
{ACAD_REACTORS
330
34
102
}
330
34
100
DictionaryVariables
280
     0
  1
1
  0
DICTIONARYVAR
  5
194C
102
{ACAD_REACTORS
330
34
102
}
330
34
100
DictionaryVariables
280
     0
  1
96
  0
DICTIONARY
  5
7E8
102
{ACAD_REACTORS
330
47
102
}
330
47
100
AcDbDictionary
281
     1
  0
DICTIONARY
  5
4C
102
{ACAD_REACTORS
330
47
102
}
330
47
100
AcDbDictionary
281
     1
  0
XRECORD
  5
C487
102
{ACAD_REACTORS
330
47
102
}
330
47
100
AcDbXrecord
280
     1
 90
-1023410169
  0
XRECORD
  5
B42F
102
{ACAD_REACTORS
330
B42E
102
}
330
B42E
100
AcDbXrecord
280
     1
330
0
330
0
330
0
330
0
330
0
330
0
330
0
330
0
330
0
330
0
330
0
330
0
330
0
330
0
330
0
330
0
330
0
330
0
330
0
330
0
330
0
330
0
330
0
330
0
  0
XRECORD
  5
CB0E
102
{ACAD_REACTORS
330
CB0C
102
}
330
CB0C
100
AcDbXrecord
280
     1
  1
50
  1
*-50
  1
*
  1
*
 70
     0
  1
*
  1
*
1001
ACAD
1000
( NAME== "*-50" )
  0
XRECORD
  5
3FB7
102
{ACAD_REACTORS
330
3F96
102
}
330
3F96
100
AcDbXrecord
280
     1
 91
        3
330
A47
 90
        8
 62
     7
370
    40
331
16
  1
Color_7
330
A46
 90
        0
 62
    14
370
    -3
331
16
  1
Color_14
330
3A31
 90
        8
 62
     7
370
    20
331
16
  1
Color_7
330
6D1
 90
        0
 62
     7
370
    -3
331
16
  1
Color_7
330
0
 90
        8
 62
     7
370
    50
331
16
  1
Color_7
330
A48
 90
        8
 62
     2
370
    35
331
16
  1
Color_2
330
FA5
 90
        8
 62
     7
370
    -3
331
16
  1
Color_7
330
10
 90
        8
 62
     7
370
    -3
331
16
  1
Color_7
  0
XRECORD
  5
CB0D
102
{ACAD_REACTORS
330
CB0B
102
}
330
CB0B
100
AcDbXrecord
280
     1
  1
AcLyLayerFilter
 90
        1
300
50
301
( NAME== "*-50" )
  0
DICTIONARY
  5
F5D0
330
C448
100
AcDbDictionary
280
     1
281
     1
  3
ACAD_XREC_ROUNDTRIP
360
F5D1
  0
DICTIONARY
  5
F5CE
330
C447
100
AcDbDictionary
280
     1
281
     1
  3
ACAD_XREC_ROUNDTRIP
360
F5CF
  0
DICTIONARY
  5
F5D2
330
C449
100
AcDbDictionary
280
     1
281
     1
  3
ACAD_XREC_ROUNDTRIP
360
F5D3
  0
DICTIONARY
  5
F5D4
330
C45D
100
AcDbDictionary
280
     1
281
     1
  3
ACAD_XREC_ROUNDTRIP
360
F5D5
  0
XRECORD
  5
F5D1
102
{ACAD_REACTORS
330
F5D0
102
}
330
F5D0
100
AcDbXrecord
280
     1
102
MATERIAL
148
0.0
149
0.0
149
0.0
 93
        0
 94
       63
282
     0
 72
     1
 77
     1
171
     1
175
     1
179
     1
273
     0
  0
XRECORD
  5
F5CF
102
{ACAD_REACTORS
330
F5CE
102
}
330
F5CE
100
AcDbXrecord
280
     1
102
MATERIAL
148
0.0
149
0.0
149
0.0
 93
        0
 94
       63
282
     0
 72
     1
 77
     1
171
     1
175
     1
179
     1
273
     0
  0
XRECORD
  5
F5D3
102
{ACAD_REACTORS
330
F5D2
102
}
330
F5D2
100
AcDbXrecord
280
     1
102
MATERIAL
148
0.0
149
0.0
149
0.0
 93
        0
 94
       63
282
     0
 72
     1
 77
     1
171
     1
175
     1
179
     1
273
     0
  0
XRECORD
  5
F5D5
102
{ACAD_REACTORS
330
F5D4
102
}
330
F5D4
100
AcDbXrecord
280
     1
102
ACAD_ROUNDTRIP_PRE2007_TABLESTYLE
 90
      512
 91
        0
  1

 92
      512
 93
        0
  2

 94
      512
 95
        0
  3

  0
ENDSEC
  0
EOF
