  0
SECTION
  2
HEADER
  9
$ACADVER
  1
AC1018
  9
$ACADMAINTVER
 70
   104
  9
$DWGCODEPAGE
  3
ANSI_932
  9
$LASTSAVEDBY
  1
Administrator
  9
$CUSTOMPROPERTYTAG
  1
AmdtFileType
  9
$CUSTOMPROPERTY
  1
84
  9
$INSBASE
 10
0.0
 20
0.0
 30
0.0
  9
$EXTMIN
 10
64.49209546397469
 20
44.75327701392961
 30
0.0
  9
$EXTMAX
 10
484.4920954639746
 20
341.7532770139296
 30
0.0
  9
$LIMMIN
 10
1700.85588156276
 20
1647.985052086429
  9
$LIMMAX
 10
1997.85588156276
 20
1857.985052086429
  9
$ORTHOMODE
 70
     0
  9
$REGENMODE
 70
     1
  9
$FILLMODE
 70
     1
  9
$QTEXTMODE
 70
     0
  9
$MIRRTEXT
 70
     0
  9
$LTSCALE
 40
1.0
  9
$ATTMODE
 70
     1
  9
$TEXTSIZE
 40
3.2
  9
$TRACEWID
 40
1.0
  9
$TEXTSTYLE
  7
STANDARD
  9
$CLAYER
  8
AM_0
  9
$CELTYPE
  6
ByLayer
  9
$CECOLOR
 62
   256
  9
$CELTSCALE
 40
1.0
  9
$DISPSILH
 70
     0
  9
$DIMSCALE
 40
1.0
  9
$DIMASZ
 40
1.0
  9
$DIMEXO
 40
1.0
  9
$DIMDLI
 40
10.0
  9
$DIMRND
 40
0.0
  9
$DIMDLE
 40
0.0
  9
$DIMEXE
 40
1.0
  9
$DIMTP
 40
0.1
  9
$DIMTM
 40
0.1
  9
$DIMTXT
 40
3.5
  9
$DIMCEN
 40
0.0
  9
$DIMTSZ
 40
0.0
  9
$DIMTOL
 70
     0
  9
$DIMLIM
 70
     0
  9
$DIMTIH
 70
     0
  9
$DIMTOH
 70
     0
  9
$DIMSE1
 70
     0
  9
$DIMSE2
 70
     0
  9
$DIMTAD
 70
     1
  9
$DIMZIN
 70
     8
  9
$DIMBLK
  1

  9
$DIMASO
 70
     1
  9
$DIMSHO
 70
     1
  9
$DIMPOST
  1

  9
$DIMAPOST
  1
"
  9
$DIMALT
 70
     0
  9
$DIMALTD
 70
     2
  9
$DIMALTF
 40
0.0393701
  9
$DIMLFAC
 40
1.0
  9
$DIMTOFL
 70
     1
  9
$DIMTVP
 40
0.0
  9
$DIMTIX
 70
     0
  9
$DIMSOXD
 70
     0
  9
$DIMSAH
 70
     0
  9
$DIMBLK1
  1

  9
$DIMBLK2
  1

  9
$DIMSTYLE
  2
SYS
  9
$DIMCLRD
 70
   256
  9
$DIMCLRE
 70
   256
  9
$DIMCLRT
 70
     7
  9
$DIMTFAC
 40
0.71
  9
$DIMGAP
 40
1.5
  9
$DIMJUST
 70
     0
  9
$DIMSD1
 70
     0
  9
$DIMSD2
 70
     0
  9
$DIMTOLJ
 70
     0
  9
$DIMTZIN
 70
     8
  9
$DIMALTZ
 70
     0
  9
$DIMALTTZ
 70
     0
  9
$DIMUPT
 70
     0
  9
$DIMDEC
 70
     0
  9
$DIMTDEC
 70
     2
  9
$DIMALTU
 70
     2
  9
$DIMALTTD
 70
     2
  9
$DIMTXSTY
  7
STANDARD
  9
$DIMAUNIT
 70
     0
  9
$DIMADEC
 70
     0
  9
$DIMALTRND
 40
0.0
  9
$DIMAZIN
 70
     2
  9
$DIMDSEP
 70
    46
  9
$DIMATFIT
 70
     3
  9
$DIMFRAC
 70
     0
  9
$DIMLDRBLK
  1

  9
$DIMLUNIT
 70
     2
  9
$DIMLWD
 70
    -1
  9
$DIMLWE
 70
    -1
  9
$DIMTMOVE
 70
     0
  9
$LUNITS
 70
     2
  9
$LUPREC
 70
     2
  9
$SKETCHINC
 40
1.0
  9
$FILLETRAD
 40
1.0
  9
$AUNITS
 70
     0
  9
$AUPREC
 70
     0
  9
$MENU
  1
.
  9
$ELEVATION
 40
0.0
  9
$PELEVATION
 40
0.0
  9
$THICKNESS
 40
0.0
  9
$LIMCHECK
 70
     0
  9
$CHAMFERA
 40
0.0
  9
$CHAMFERB
 40
0.0
  9
$CHAMFERC
 40
20.0
  9
$CHAMFERD
 40
0.0
  9
$SKPOLY
 70
     0
  9
$TDCREATE
 40
2454123.716263195
  9
$TDUCREATE
 40
2454123.341263195
  9
$TDUPDATE
 40
2455588.549178056
  9
$TDUUPDATE
 40
2455588.174178056
  9
$TDINDWG
 40
0.0484552315
  9
$TDUSRTIMER
 40
0.0484550463
  9
$USRTIMER
 70
     1
  9
$ANGBASE
 50
0.0
  9
$ANGDIR
 70
     0
  9
$PDMODE
 70
     0
  9
$PDSIZE
 40
-3.0
  9
$PLINEWID
 40
0.0
  9
$SPLFRAME
 70
     0
  9
$SPLINETYPE
 70
     6
  9
$SPLINESEGS
 70
     8
  9
$HANDSEED
  5
D2C1
  9
$SURFTAB1
 70
     6
  9
$SURFTAB2
 70
     6
  9
$SURFTYPE
 70
     6
  9
$SURFU
 70
     6
  9
$SURFV
 70
     6
  9
$UCSBASE
  2

  9
$UCSNAME
  2

  9
$UCSORG
 10
0.0
 20
0.0
 30
0.0
  9
$UCSXDIR
 10
1.0
 20
0.0
 30
0.0
  9
$UCSYDIR
 10
0.0
 20
1.0
 30
0.0
  9
$UCSORTHOREF
  2

  9
$UCSORTHOVIEW
 70
     0
  9
$UCSORGTOP
 10
0.0
 20
0.0
 30
0.0
  9
$UCSORGBOTTOM
 10
0.0
 20
0.0
 30
0.0
  9
$UCSORGLEFT
 10
0.0
 20
0.0
 30
0.0
  9
$UCSORGRIGHT
 10
0.0
 20
0.0
 30
0.0
  9
$UCSORGFRONT
 10
0.0
 20
0.0
 30
0.0
  9
$UCSORGBACK
 10
0.0
 20
0.0
 30
0.0
  9
$PUCSBASE
  2

  9
$PUCSNAME
  2

  9
$PUCSORG
 10
0.0
 20
0.0
 30
0.0
  9
$PUCSXDIR
 10
1.0
 20
0.0
 30
0.0
  9
$PUCSYDIR
 10
0.0
 20
1.0
 30
0.0
  9
$PUCSORTHOREF
  2

  9
$PUCSORTHOVIEW
 70
     0
  9
$PUCSORGTOP
 10
0.0
 20
0.0
 30
0.0
  9
$PUCSORGBOTTOM
 10
0.0
 20
0.0
 30
0.0
  9
$PUCSORGLEFT
 10
0.0
 20
0.0
 30
0.0
  9
$PUCSORGRIGHT
 10
0.0
 20
0.0
 30
0.0
  9
$PUCSORGFRONT
 10
0.0
 20
0.0
 30
0.0
  9
$PUCSORGBACK
 10
0.0
 20
0.0
 30
0.0
  9
$USERI1
 70
     0
  9
$USERI2
 70
     0
  9
$USERI3
 70
     0
  9
$USERI4
 70
     0
  9
$USERI5
 70
     0
  9
$USERR1
 40
0.0
  9
$USERR2
 40
0.0
  9
$USERR3
 40
0.0
  9
$USERR4
 40
0.0
  9
$USERR5
 40
0.0
  9
$WORLDVIEW
 70
     1
  9
$SHADEDGE
 70
     3
  9
$SHADEDIF
 70
    70
  9
$TILEMODE
 70
     1
  9
$MAXACTVP
 70
    64
  9
$PINSBASE
 10
0.0
 20
0.0
 30
0.0
  9
$PLIMCHECK
 70
     0
  9
$PEXTMIN
 10
1.000000000000000E+20
 20
1.000000000000000E+20
 30
1.000000000000000E+20
  9
$PEXTMAX
 10
-1.000000000000000E+20
 20
-1.000000000000000E+20
 30
-1.000000000000000E+20
  9
$PLIMMIN
 10
-3.17498779296875
 20
-3.174999952316283
  9
$PLIMMAX
 10
293.4970092773438
 20
206.692492723465
  9
$UNITMODE
 70
     0
  9
$VISRETAIN
 70
     1
  9
$PLINEGEN
 70
     0
  9
$PSLTSCALE
 70
     1
  9
$TREEDEPTH
 70
  3020
  9
$CMLSTYLE
  2
Standard
  9
$CMLJUST
 70
     0
  9
$CMLSCALE
 40
20.0
  9
$PROXYGRAPHICS
 70
     1
  9
$MEASUREMENT
 70
     1
  9
$CELWEIGHT
370
    -1
  9
$ENDCAPS
280
     0
  9
$JOINSTYLE
280
     0
  9
$LWDISPLAY
290
     0
  9
$INSUNITS
 70
     4
  9
$HYPERLINKBASE
  1

  9
$STYLESHEET
  1
MONOCHROME.CTB
  9
$XEDIT
290
     1
  9
$CEPSNTYPE
380
     0
  9
$PSTYLEMODE
290
     1
  9
$FINGERPRINTGUID
  2
{057DD9EC-CA1C-4DBE-9A70-34F8E327D93C}
  9
$VERSIONGUID
  2
{86F2C2D8-5B3F-4D91-B16A-ACE0080FC183}
  9
$EXTNAMES
290
     1
  9
$PSVPSCALE
 40
0.0
  9
$OLESTARTUP
290
     0
  9
$SORTENTS
280
    96
  9
$INDEXCTL
280
     0
  9
$HIDETEXT
280
     0
  9
$XCLIPFRAME
290
     0
  9
$HALOGAP
280
     0
  9
$OBSCOLOR
 70
   257
  9
$OBSLTYPE
280
     0
  9
$INTERSECTIONDISPLAY
280
     0
  9
$INTERSECTIONCOLOR
 70
   257
  9
$DIMASSOC
280
     2
  9
$PROJECTNAME
  1

  0
ENDSEC
  0
SECTION
  2
CLASSES
  0
CLASS
  1
ACDBDICTIONARYWDFLT
  2
AcDbDictionaryWithDefault
  3
ObjectDBX Classes
 90
        0
 91
        1
280
     0
281
     0
  0
CLASS
  1
ACDBPLACEHOLDER
  2
AcDbPlaceHolder
  3
ObjectDBX Classes
 90
        0
 91
        1
280
     0
281
     0
  0
CLASS
  1
LAYOUT
  2
AcDbLayout
  3
ObjectDBX Classes
 90
        0
 91
        3
280
     0
281
     0
  0
CLASS
  1
AMGSETTINGSOBJ
  2
AmgSettingsObj
  3
"AcadM|Product Description: AutoCAD Mechanical|Company: Autodesk"
 90
        0
 91
        2
280
     0
281
     0
  0
CLASS
  1
ACME_DOCUMENT
  2
AcMeDbDoc
  3
AcMeServices
 90
        0
 91
        2
280
     0
281
     0
  0
CLASS
  1
ACMESCOPE
  2
AcMeScope
  3
AcMeServices
 90
        0
 91
        1
280
     0
281
     0
  0
CLASS
  1
ACMECOMMANDHISTORY
  2
AcMeCommandHistory
  3
AcMeServices
 90
        0
 91
        1
280
     0
281
     0
  0
CLASS
  1
DICTIONARYVAR
  2
AcDbDictionaryVar
  3
ObjectDBX Classes
 90
        0
 91
        6
280
     0
281
     0
  0
CLASS
  1
ACIMSYSVARMAN
  2
AcImSysVarManager
  3
AcMeServices
 90
        0
 91
        5
280
     0
281
     0
  0
CLASS
  1
ACIMREALSYSVAR
  2
AcImRealSysVar
  3
AcMeServices
 90
        0
 91
        1
280
     0
281
     0
  0
CLASS
  1
ACIMINTSYSVAR
  2
AcImIntSysVar
  3
AcMeServices
 90
        0
 91
       28
280
     0
281
     0
  0
CLASS
  1
ACMEDRAWINGMAN
  2
AcMeDrawingMan
  3
AcMeServices
 90
        0
 91
        1
280
     0
281
     0
  0
CLASS
  1
ACMEVIEW
  2
AcMeView
  3
AcMeServices
 90
        0
 91
        1
280
     0
281
     0
  0
CLASS
  1
ACDBENTITYCACHE
  2
AcMeEntityCache
  3
AcMeServices
 90
        0
 91
        1
280
     0
281
     0
  0
CLASS
  1
GSMANAGER
  2
AcMeGSManager
  3
AcMeServices
 90
        0
 91
        1
280
     0
281
     0
  0
CLASS
  1
AMDTINTERNALREACTOR
  2
AmdtInternalReactor
  3
AcMeServices
 90
        0
 91
        2
280
     0
281
     0
  0
CLASS
  1
ACMESTATEMGR
  2
AcMeStateMgr
  3
AcMeServices
 90
        0
 91
        1
280
     0
281
     0
  0
CLASS
  1
ACGREFMASTER
  2
AcGrefMaster
  3
AcAttribServices
 90
        0
 91
        1
280
     0
281
     0
  0
CLASS
  1
ACME_DATABASE
  2
AcMeDbDatabase
  3
AcMeServices
 90
        0
 91
        1
280
     0
281
     0
  0
CLASS
  1
ACRFINSADJUSTERMGR
  2
AcRfInsAdjusterMgr
  3
AcMeServices
 90
        0
 91
        1
280
     0
281
     0
  0
CLASS
  1
ACGREFACADMASTER
  2
AcGrefacadMaster
  3
AcGrefServices
 90
        0
 91
        1
280
     0
281
     0
  0
CLASS
  1
AMIMASTER
  2
AmiMaster
  3
AmiServices
 90
        0
 91
        1
280
     0
281
     0
  0
CLASS
  1
ACMDATADICTIONARY
  2
AcmDataDictionary
  3
"AcmSymBB|Product Description: AutoCAD Mechanical|Company: Autodesk"
 90
        0
 91
        1
280
     0
281
     0
  0
CLASS
  1
ACMDATAENTRYBLOCK
  2
AcmDataEntryBlock
  3
"AcmSymBB|Product Description: AutoCAD Mechanical|Company: Autodesk"
 90
        0
 91
        0
280
     0
281
     0
  0
CLASS
  1
ACIMSTRSYSVAR
  2
AcImStrSysVar
  3
AcMeServices
 90
        0
 91
        5
280
     0
281
     0
  0
CLASS
  1
ACMSTANDARDISO
  2
AcmStandardISO
  3
"Amdt_StdImp|Product Description: AutoCAD Mechanical|Company: Autodesk"
 90
        0
 91
        1
280
     0
281
     0
  0
CLASS
  1
AMGOBJPROPCFG
  2
AmgObjPropCfg
  3
"AmgLay|Product Description: AutoCAD Mechanical|Company: Autodesk"
 90
        1
 91
        1
280
     0
281
     0
  0
CLASS
  1
AMDTEDGESTANDARDISO
  2
AmdtEdgeStdISO
  3
"Amdt_StdImp|Product Description: AutoCAD Mechanical|Company: Autodesk"
 90
        0
 91
        0
280
     0
281
     0
  0
CLASS
  1
ACMSURFSTANDARDISO
  2
AcmSurfTextStdISO
  3
"Amdt_StdImp|Product Description: AutoCAD Mechanical|Company: Autodesk"
 90
        0
 91
        1
280
     0
281
     0
  0
CLASS
  1
ACMFCFSTANDARDISO
  2
AcmFCFStdISO
  3
"Amdt_StdImp|Product Description: AutoCAD Mechanical|Company: Autodesk"
 90
        0
 91
        1
280
     0
281
     0
  0
CLASS
  1
ACMWELDSTANDARDISO
  2
AcmWeldingStdISO
  3
"Amdt_StdImp|Product Description: AutoCAD Mechanical|Company: Autodesk"
 90
        0
 91
        1
280
     0
281
     0
  0
CLASS
  1
ACMIDSTANDARDISO
  2
AcmIdStdISO
  3
"Amdt_StdImp|Product Description: AutoCAD Mechanical|Company: Autodesk"
 90
        0
 91
        1
280
     0
281
     0
  0
CLASS
  1
ACMDATUMSTANDARDISO
  2
AcmDatumStdISO
  3
"Amdt_StdImp|Product Description: AutoCAD Mechanical|Company: Autodesk"
 90
        0
 91
        1
280
     0
281
     0
  0
CLASS
  1
ACMBOMSTANDARDISO
  2
AcmBOMStdISO
  3
"Amdt_StdImp|Product Description: AutoCAD Mechanical|Company: Autodesk"
 90
        0
 91
        1
280
     0
281
     0
  0
CLASS
  1
ACMDETAILSTANDARDISO
  2
AmdtDetailSymStdISO
  3
"Amdt_StdImp|Product Description: AutoCAD Mechanical|Company: Autodesk"
 90
        0
 91
        1
280
     0
281
     0
  0
CLASS
  1
ACMSECTIONSTANDARDISO
  2
AmdtSectionSymStdISO
  3
"Amdt_StdImp|Product Description: AutoCAD Mechanical|Company: Autodesk"
 90
        0
 91
        1
280
     0
281
     0
  0
CLASS
  1
ACMCENTERLINESTANDARDISO
  2
AmdtCenterLineStdISO
  3
"Amdt_StdImp|Product Description: AutoCAD Mechanical|Company: Autodesk"
 90
        0
 91
        1
280
     0
281
     0
  0
CLASS
  1
ACAMGLAYSTD
  2
AcAmgLayStd
  3
"AmgLay|Product Description: AutoCAD Mechanical|Company: Autodesk"
 90
        0
 91
        2
280
     0
281
     0
  0
CLASS
  1
ACAMGDIMSTD
  2
AcAmgDimStd
  3
"AmgDim|Product Description: AutoCAD Mechanical|Company: Autodesk"
 90
        0
 91
        2
280
     0
281
     0
  0
CLASS
  1
ACAMGTITLESTD
  2
AcAmgTitleStd
  3
"AmgTitle|Product Description: AutoCAD Mechanical|Company: Autodesk"
 90
        0
 91
        2
280
     0
281
     0
  0
CLASS
  1
ACAMGFILTERDAT
  2
AcAmgFilterDat
  3
"AcadM|Product Description: AutoCAD Mechanical|Company: Autodesk"
 90
        0
 91
        0
280
     0
281
     0
  0
CLASS
  1
LAYER_INDEX
  2
AcDbLayerIndex
  3
ObjectDBX Classes
 90
        0
 91
        0
280
     0
281
     0
  0
CLASS
  1
IDBUFFER
  2
AcDbIdBuffer
  3
ObjectDBX Classes
 90
        0
 91
        0
280
     0
281
     0
  0
CLASS
  1
PLOTSETTINGS
  2
AcDbPlotSettings
  3
ObjectDBX Classes
 90
        0
 91
        0
280
     0
281
     0
  0
CLASS
  1
AMDTFORMULAUPDATEDISPATCHER
  2
AmdtFormulaUpdateDispatcher
  3
AcMeServices
 90
        0
 91
        0
280
     0
281
     0
  0
CLASS
  1
ACMSTANDARDANSI
  2
AcmStandardANSI
  3
"Amdt_StdImp|Product Description: AutoCAD Mechanical|Company: Autodesk"
 90
        0
 91
        1
280
     0
281
     0
  0
CLASS
  1
ACMSURFSTANDARDANSI
  2
AcmSurfTextStdANSI
  3
"Amdt_StdImp|Product Description: AutoCAD Mechanical|Company: Autodesk"
 90
        0
 91
        1
280
     0
281
     0
  0
CLASS
  1
ACMFCFSTANDARDANSI
  2
AcmFCFStdANSI
  3
"Amdt_StdImp|Product Description: AutoCAD Mechanical|Company: Autodesk"
 90
        0
 91
        1
280
     0
281
     0
  0
CLASS
  1
ACMWELDSTANDARDANSI
  2
AcmWeldingStdANSI
  3
"Amdt_StdImp|Product Description: AutoCAD Mechanical|Company: Autodesk"
 90
        0
 91
        1
280
     0
281
     0
  0
CLASS
  1
ACMIDSTANDARDANSI
  2
AcmIdStdANSI
  3
"Amdt_StdImp|Product Description: AutoCAD Mechanical|Company: Autodesk"
 90
        0
 91
        1
280
     0
281
     0
  0
CLASS
  1
ACMDATUMSTANDARDANSI
  2
AcmDatumStdANSI
  3
"Amdt_StdImp|Product Description: AutoCAD Mechanical|Company: Autodesk"
 90
        0
 91
        1
280
     0
281
     0
  0
CLASS
  1
ACMBOMSTANDARDANSI
  2
AcmBOMStdANSI
  3
"Amdt_StdImp|Product Description: AutoCAD Mechanical|Company: Autodesk"
 90
        0
 91
        1
280
     0
281
     0
  0
CLASS
  1
ACMDETAILSTANDARDANSI
  2
AmdtDetailSymStdANSI
  3
"Amdt_StdImp|Product Description: AutoCAD Mechanical|Company: Autodesk"
 90
        0
 91
        1
280
     0
281
     0
  0
CLASS
  1
ACMSECTIONSTANDARDANSI
  2
AmdtSectionSymStdANSI
  3
"Amdt_StdImp|Product Description: AutoCAD Mechanical|Company: Autodesk"
 90
        0
 91
        1
280
     0
281
     0
  0
CLASS
  1
ACMCENTERLINESTANDARDANSI
  2
AmdtCenterLineStdANSI
  3
"Amdt_StdImp|Product Description: AutoCAD Mechanical|Company: Autodesk"
 90
        0
 91
        1
280
     0
281
     0
  0
CLASS
  1
ACMBOM
  2
AcmBom
  3
"AcmSymBB|Product Description: AutoCAD Mechanical|Company: Autodesk"
 90
        0
 91
        0
280
     0
281
     0
  0
CLASS
  1
ACMDATAENTRYPART
  2
AcmDataEntryPart
  3
"AcmSymBB|Product Description: AutoCAD Mechanical|Company: Autodesk"
 90
        0
 91
        0
280
     0
281
     0
  0
CLASS
  1
ACMPARTREF
  2
AcmPartRef
  3
"AcmSymBB|Product Description: AutoCAD Mechanical|Company: Autodesk"
 90
     3071
 91
        0
280
     0
281
     1
  0
CLASS
  1
ACDBCIRCARCRES
  2
AcDbCircArcRes
  3
AcGrefServices
 90
        0
 91
        0
280
     0
281
     0
  0
CLASS
  1
ACMBOMROW
  2
AcmBomRow
  3
"AcmSymBB|Product Description: AutoCAD Mechanical|Company: Autodesk"
 90
        0
 91
        0
280
     0
281
     0
  0
CLASS
  1
ACMBALLOON
  2
AcmBalloon
  3
"AcmSymBB|Product Description: AutoCAD Mechanical|Company: Autodesk"
 90
     3071
 91
        0
280
     0
281
     1
  0
CLASS
  1
AMDTNOTE
  2
AmdtNote
  3
"AcmSymBB|Product Description: AutoCAD Mechanical|Company: Autodesk"
 90
     3071
 91
        0
280
     0
281
     1
  0
CLASS
  1
STDPART2D
  2
AmgStdPart
  3
"AmgStdPart|Product Description: AutoCAD Mechanical|Company: Autodesk"
 90
     3071
 91
        0
280
     0
281
     1
  0
CLASS
  1
ACDBSTDPARTRES_LINE
  2
AcDbStdPartRes_Line
  3
"AmgStdPart|Product Description: AutoCAD Mechanical|Company: Autodesk"
 90
        0
 91
        0
280
     0
281
     0
  0
CLASS
  1
ACMDATAENTRY
  2
AcmDataEntry
  3
"AcmSymBB|Product Description: AutoCAD Mechanical|Company: Autodesk"
 90
        0
 91
        0
280
     0
281
     0
  0
CLASS
  1
ACDBOPPOLYLINERES
  2
AcDbOpPolylineRes
  3
AcGrefServices
 90
        0
 91
        0
280
     0
281
     0
  0
CLASS
  1
ACMPARTLIST
  2
AcmPartList
  3
"AcmSymBB|Product Description: AutoCAD Mechanical|Company: Autodesk"
 90
     3071
 91
        0
280
     0
281
     1
  0
CLASS
  1
ACDBLINERES
  2
AcDbLineRes
  3
AcGrefServices
 90
        0
 91
        0
280
     0
281
     0
  0
CLASS
  1
ACRFINSADJ
  2
AcRfInsAdjuster
  3
AcMeServices
 90
        0
 91
        0
280
     0
281
     0
  0
CLASS
  1
AM_DRAWING_MGR
  2
AcDmDwgMgr
  3
AcMechDwgViewMgmt
 90
        0
 91
        1
280
     0
281
     0
  0
CLASS
  1
AM_DWG_DOCUMENT
  2
AcDmDwgDocument
  3
AcMechDwgViewMgmt
 90
        0
 91
        1
280
     0
281
     0
  0
CLASS
  1
AM_DWG_SHEET
  2
AcDmSheet
  3
AcMechDwgViewMgmt
 90
        0
 91
        2
280
     0
281
     0
  0
CLASS
  1
AM_VIEWDIMPARMAP
  2
AcDmViewDimParMap
  3
AcMechDwgViewMgmt
 90
        0
 91
        2
280
     0
281
     0
  0
CLASS
  1
AM_DWGMGR_NAME
  2
AcDmDwgMgrName
  3
AcMechDwgViewMgmt
 90
        0
 91
        1
280
     0
281
     0
  0
CLASS
  1
AMDTMENUSTATEMGR
  2
AmdtMenuStateMgr
  3
McadcomServices
 90
        0
 91
        1
280
     0
281
     0
  0
CLASS
  1
AMDTMCOMMENUSTATE
  2
AmdtMcomMenuState
  3
McadcomServices
 90
        0
 91
        1
280
     0
281
     0
  0
CLASS
  1
ASAPP
  2
AcAsAppObject
  3
AutoSurfServices
 90
        0
 91
        2
280
     0
281
     0
  0
CLASS
  1
IM_STATIC_MAN
  2
AcImStaticVarManager
  3
AcMeServices
 90
        0
 91
        0
280
     0
281
     0
  0
CLASS
  1
ACIMDBLSTATICVAR
  2
AcImDblStaticVar
  3
AcMeServices
 90
        0
 91
        0
280
     0
281
     0
  0
CLASS
  1
ACIMSTRSTATICVAR
  2
AcImStrStaticVar
  3
AcMeServices
 90
        0
 91
        0
280
     0
281
     0
  0
CLASS
  1
ACIMINTSTATICVAR
  2
AcImIntStaticVar
  3
AcMeServices
 90
        0
 91
        0
280
     0
281
     0
  0
CLASS
  1
ACASGREFMASTER
  2
AcAsGrefMaster
  3
AutoSurfResolverServices
 90
        0
 91
        2
280
     0
281
     0
  0
CLASS
  1
ACADGREFMODULE
  2
AcAdGrefModule
  3
AdGrefServices
 90
        0
 91
        2
280
     0
281
     0
  0
CLASS
  1
AMDTMAPISURFMOUDULE
  2
AmdtMApiSurfModule
  3
MApiSurfServices
 90
        0
 91
        2
280
     0
281
     0
  0
CLASS
  1
MAPIAMMOUDLE
  2
MApiAmModule
  3
MApiAmServices
 90
        0
 91
        1
280
     0
281
     0
  0
CLASS
  1
AMDTADMENUSTATE
  2
AmdtAdMenuState
  3
DesignerServices
 90
        0
 91
        1
280
     0
281
     0
  0
CLASS
  1
ADAPPL
  2
AcAdAppl
  3
DesignerServices
 90
        0
 91
        1
280
     0
281
     0
  0
CLASS
  1
DEPMGR
  2
AcAdDepMgr
  3
DesignerServices
 90
        0
 91
        1
280
     0
281
     0
  0
CLASS
  1
PARAMMGR
  2
AcAdParamMgr
  3
DesignerServices
 90
        0
 91
        1
280
     0
281
     0
  0
CLASS
  1
PARAMSCOPE
  2
AcAdParamScope
  3
DesignerServices
 90
        0
 91
        1
280
     0
281
     0
  0
CLASS
  1
NAMEDAPPL
  2
AcAdNamedAppl
  3
DesignerServices
 90
        0
 91
        1
280
     0
281
     0
  0
CLASS
  1
ADHNTMPLT
  2
AdHoleNoteTemplateMgr
  3
DesignerServices
 90
        0
 91
        0
280
     0
281
     0
  0
CLASS
  1
AM_HNTEMPLATE_MGR_NAME
  2
AdHoleNoteTemplateMgrName
  3
DesignerServices
 90
        0
 91
        0
280
     0
281
     0
  0
CLASS
  1
AMDTDMMENUSTATE
  2
AmdtDmMenuState
  3
AcMechDwgViewMgmt
 90
        0
 91
        1
280
     0
281
     0
  0
CLASS
  1
MAPIADMODULE
  2
MApiAdModule
  3
MApiAdServices
 90
        0
 91
        2
280
     0
281
     0
  0
CLASS
  1
AMDTAMMENUSTATE
  2
AmdtAmMenuState
  3
DesignerAssemblies
 90
        0
 91
        1
280
     0
281
     0
  0
CLASS
  1
ACAMPROJECT
  2
AcAmProject
  3
DesignerAssemblies
 90
        0
 91
        1
280
     0
281
     0
  0
CLASS
  1
ACAMGRCOMPDEF
  2
AcAmGrCompDef
  3
DesignerAssemblies
 90
        0
 91
        1
280
     0
281
     0
  0
CLASS
  1
ACCMCONTEXT
  2
AcCmContext
  3
DesignerAssemblies
 90
        0
 91
        1
280
     0
281
     0
  0
CLASS
  1
ACAMCOMPDEF
  2
AcAmCompDef
  3
DesignerAssemblies
 90
        0
 91
        1
280
     0
281
     0
  0
CLASS
  1
ACAMCOMPDEFMGR
  2
AcAmCompDefMgr
  3
DesignerAssemblies
 90
        0
 91
        1
280
     0
281
     0
  0
CLASS
  1
AMCONTEXTMGR
  2
AcAmContextMgr
  3
DesignerAssemblies
 90
        0
 91
        1
280
     0
281
     0
  0
CLASS
  1
ACAMCONTEXTMODELER
  2
AcAmContextModeler
  3
DesignerAssemblies
 90
        0
 91
        1
280
     0
281
     0
  0
CLASS
  1
CATALOGSTATE
  2
AcAmCatalogState
  3
DesignerAssemblies
 90
        0
 91
        1
280
     0
281
     0
  0
CLASS
  1
ACAMGRCOMPDEFSET
  2
AcAmGrCompDefSet
  3
DesignerAssemblies
 90
        0
 91
        1
280
     0
281
     0
  0
CLASS
  1
AMDTBROWSERDBTAB
  2
AmdtBrowserDbTab
  3
McadcomServices
 90
        0
 91
        1
280
     0
281
     0
  0
CLASS
  1
CBROWSERAPPOBJECT
  2
CBrowserAppObject
  3
McadcomServices
 90
        0
 91
        3
280
     0
281
     0
  0
CLASS
  1
DM_PLACEHOLDER
  2
AcDmSelsetPlaceholder
  3
AcMechDwgViewMgmt
 90
        0
 91
        1
280
     0
281
     0
  0
CLASS
  1
ACMPICKOBJ
  2
AcmPickEnt
  3
"AcmSymBB|Product Description: AutoCAD Mechanical|Company: Autodesk"
 90
        0
 91
        0
280
     0
281
     1
  0
CLASS
  1
ACMNOTESTANDARDISO
  2
AmdtNoteStdISO
  3
"Amdt_StdImp|Product Description: AutoCAD Mechanical|Company: Autodesk"
 90
        0
 91
        1
280
     0
281
     0
  0
CLASS
  1
ACMNOTESTANDARDANSI
  2
AmdtNoteStdANSI
  3
"Amdt_StdImp|Product Description: AutoCAD Mechanical|Company: Autodesk"
 90
        0
 91
        1
280
     0
281
     0
  0
CLASS
  1
ACMTHREADLINESTANDARDISO
  2
AmdtThreadLineStdISO
  3
"Amdt_StdImp|Product Description: AutoCAD Mechanical|Company: Autodesk"
 90
        0
 91
        1
280
     0
281
     0
  0
CLASS
  1
ACMTHREADLINESTANDARDANSI
  2
AmdtThreadLineStdANSI
  3
"Amdt_StdImp|Product Description: AutoCAD Mechanical|Company: Autodesk"
 90
        0
 91
        1
280
     0
281
     0
  0
CLASS
  1
TABLESTYLE
  2
AcDbTableStyle
  3
ObjectDBX Classes
 90
     4095
 91
        1
280
     0
281
     0
  0
CLASS
  1
SORTENTSTABLE
  2
AcDbSortentsTable
  3
ObjectDBX Classes
 90
        0
 91
        1
280
     0
281
     0
  0
CLASS
  1
AMDTNOTETEMPLATEDB
  2
AmdtNoteTemplateDB
  3
AMDT_STDIMP_MODULE_NAME
 90
        0
 91
       12
280
     0
281
     0
  0
CLASS
  1
ACAMGHOLECHARTSTDANSI
  2
AcAmgHoleChartStdANSI
  3
ACMSYMBB_MODULE_NAME
 90
        0
 91
        1
280
     0
281
     0
  0
CLASS
  1
DIMASSOC
  2
AcDbDimAssoc
  3
"AcDbDimAssoc|Product Desc:     AcDim ARX App For Dimension|Company:          Autodesk, Inc.|WEB Address:      www.autodesk.com"
 90
        0
 91
       13
280
     0
281
     0
  0
CLASS
  1
ACRFATTGENMGR
  2
AcRfAttGeneralMgr
  3
AcAttribServices
 90
        0
 91
        0
280
     0
281
     0
  0
CLASS
  1
MATERIAL
  2
AcDbMaterial
  3
ObjectDBX Classes
 90
     1153
 91
        3
280
     0
281
     0
  0
CLASS
  1
VISUALSTYLE
  2
AcDbVisualStyle
  3
ObjectDBX Classes
 90
     4095
 91
       16
280
     0
281
     0
  0
CLASS
  1
AMDTEDGESTANDARDISO13715
  2
AmdtEdgeStdISO13715
  3
"Amdt_StdImp|Product Description: AutoCAD Mechanical|Company: Autodesk"
 90
        0
 91
        1
280
     0
281
     0
  0
CLASS
  1
ACMTAPERSTANDARDISO
  2
AcmTaperStdISO
  3
"Amdt_StdImp|Product Description: AutoCAD Mechanical|Company: Autodesk"
 90
        0
 91
        1
280
     0
281
     0
  0
CLASS
  1
ACAMGHOLECHARTSTDISO
  2
AcAmgHoleChartStdISO
  3
ACMSYMBB_MODULE_NAME
 90
        0
 91
        1
280
     0
281
     0
  0
CLASS
  1
CAMSSTRUCTBTNSTATE
  2
StructBtnState
  3
L"DesignerAssemblies"
 90
        0
 91
        1
280
     0
281
     0
  0
CLASS
  1
ACMTAPERSTANDARDANSI
  2
AcmTaperStdANSI
  3
"Amdt_StdImp|Product Description: AutoCAD Mechanical|Company: Autodesk"
 90
        0
 91
        1
280
     0
281
     0
  0
ENDSEC
  0
SECTION
  2
TABLES
  0
TABLE
  2
VPORT
  5
8
330
0
100
AcDbSymbolTable
 70
     1
  0
VPORT
  5
CB19
330
8
100
AcDbSymbolTableRecord
100
AcDbViewportTableRecord
  2
*Active
 70
     0
 10
0.0
 20
0.0
 11
1.0
 21
1.0
 12
252.5495820725843
 22
183.0535123623642
 13
0.0
 23
0.0
 14
2.5
 24
2.5
 15
10.0
 25
10.0
 16
0.0
 26
0.0
 36
1.0
 17
0.0
 27
0.0
 37
0.0
 40
238.8970237860678
 41
1.678004535147392
 42
50.0
 43
-1370.695619172058
 44
-1370.695619172058
 50
0.0
 51
0.0
 71
    16
 72
   100
 73
     1
 74
     3
 75
     0
 76
     0
 77
     0
 78
     0
281
     0
 65
     0
110
0.0
120
0.0
130
0.0
111
1.0
121
0.0
131
0.0
112
0.0
122
1.0
132
0.0
 79
     0
146
0.0
  0
ENDTAB
  0
TABLE
  2
LTYPE
  5
5
330
0
100
AcDbSymbolTable
 70
    34
  0
LTYPE
  5
14
330
5
100
AcDbSymbolTableRecord
100
AcDbLinetypeTableRecord
  2
ByBlock
 70
     0
  3

 72
    65
 73
     0
 40
0.0
  0
LTYPE
  5
15
330
5
100
AcDbSymbolTableRecord
100
AcDbLinetypeTableRecord
  2
ByLayer
 70
     0
  3

 72
    65
 73
     0
 40
0.0
  0
LTYPE
  5
16
330
5
100
AcDbSymbolTableRecord
100
AcDbLinetypeTableRecord
  2
Continuous
 70
     0
  3
Solid line
 72
    65
 73
     0
 40
0.0
  0
LTYPE
  5
4F
330
5
100
AcDbSymbolTableRecord
100
AcDbLinetypeTableRecord
  2
AM_ISO02W050
 70
     0
  3
__ __ __ __ __ __ __ __ __ __ __ __ __ __ __
 72
    65
 73
     2
 40
7.5
 49
6.0
 74
     0
 49
-1.5
 74
     0
  0
LTYPE
  5
52
330
5
100
AcDbSymbolTableRecord
100
AcDbLinetypeTableRecord
  2
Amconstr
 70
     0
  3
_______________________
 72
    65
 73
     2
 40
9999.0
 49
9999.0
 74
     0
 49
0.0
 74
     0
  0
LTYPE
  5
64
330
5
100
AcDbSymbolTableRecord
100
AcDbLinetypeTableRecord
  2
ACISOWELD
 70
     0
  3
_ _ _ _ _
 72
    65
 73
     2
 40
2.0
 49
2.0
 74
     0
 49
-1.0
 74
     0
  0
LTYPE
  5
65
330
5
100
AcDbSymbolTableRecord
100
AcDbLinetypeTableRecord
  2
ACISOTGB
 70
     0
  3
__ . . __ . .
 72
    65
 73
     6
 40
9.0
 49
4.0
 74
     0
 49
-1.0
 74
     0
 49
1.0
 74
     0
 49
-1.0
 74
     0
 49
1.0
 74
     0
 49
-1.0
 74
     0
  0
LTYPE
  5
66
330
5
100
AcDbSymbolTableRecord
100
AcDbLinetypeTableRecord
  2
ACISOTGL
 70
     0
  3
_ _ _ _ _
 72
    65
 73
     2
 40
3.0
 49
2.0
 74
     0
 49
-1.0
 74
     0
  0
LTYPE
  5
69
330
5
100
AcDbSymbolTableRecord
100
AcDbLinetypeTableRecord
  2
CENTER
 70
     0
  3
__ . __
 72
    65
 73
     4
 40
7.0
 49
4.0
 74
     0
 49
-1.0
 74
     0
 49
1.0
 74
     0
 49
-1.0
 74
     0
  0
LTYPE
  5
A6E
330
5
100
AcDbSymbolTableRecord
100
AcDbLinetypeTableRecord
  2
PHANTOM2
 70
     0
  3
Phantom (.5x) ___ _ _ ___ _ _ ___ _ _ ___ _ _
 72
    65
 73
     6
 40
31.75
 49
15.875
 74
     0
 49
-3.174999999999998
 74
     0
 49
3.174999999999998
 74
     0
 49
-3.174999999999998
 74
     0
 49
3.174999999999998
 74
     0
 49
-3.174999999999998
 74
     0
  0
LTYPE
  5
4DED
330
5
100
AcDbSymbolTableRecord
100
AcDbLinetypeTableRecord
  2
中線
 70
     0
  3
___________________
 72
    65
 73
     2
 40
2.0
 49
1.0
 74
     0
 49
1.0
 74
     0
  0
LTYPE
  5
4DF6
330
5
100
AcDbSymbolTableRecord
100
AcDbLinetypeTableRecord
  2
細線
 70
     0
  3
___________________
 72
    65
 73
     2
 40
2.0
 49
1.0
 74
     0
 49
1.0
 74
     0
  0
LTYPE
  5
4DF7
330
5
100
AcDbSymbolTableRecord
100
AcDbLinetypeTableRecord
  2
太線
 70
     0
  3
___________________
 72
    65
 73
     2
 40
2.0
 49
1.0
 74
     0
 49
1.0
 74
     0
  0
LTYPE
  5
4EA7
330
5
100
AcDbSymbolTableRecord
100
AcDbLinetypeTableRecord
  2
文字
 70
     0
  3
_________________
 72
    65
 73
     2
 40
2.0
 49
1.0
 74
     0
 49
1.0
 74
     0
  0
LTYPE
  5
4EA9
330
5
100
AcDbSymbolTableRecord
100
AcDbLinetypeTableRecord
  2
寸法線
 70
     0
  3
________________
 72
    65
 73
     2
 40
2.0
 49
1.0
 74
     0
 49
1.0
 74
     0
  0
LTYPE
  5
4F12
330
5
100
AcDbSymbolTableRecord
100
AcDbLinetypeTableRecord
  2
ハッチング
 70
     0
  3
_________________
 72
    65
 73
     2
 40
2.0
 49
1.0
 74
     0
 49
1.0
 74
     0
  0
LTYPE
  5
5180
330
5
100
AcDbSymbolTableRecord
100
AcDbLinetypeTableRecord
  2
陰線1
 70
     0
  3
__ __ __ __
 72
    65
 73
     2
 40
4.0
 49
2.2
 74
     0
 49
-1.8
 74
     0
  0
LTYPE
  5
5182
330
5
100
AcDbSymbolTableRecord
100
AcDbLinetypeTableRecord
  2
切断線
 70
     0
  3
/\/-/\/-/\/-/\/-/\/-/\/
 72
    65
 73
     2
 40
11.0001
 49
0.0001
 74
     4
 75
   135
340
56
 46
0.04
 50
0.0
 44
0.0
 45
0.0
 49
-11.0
 74
     0
  0
LTYPE
  5
5183
330
5
100
AcDbSymbolTableRecord
100
AcDbLinetypeTableRecord
  2
想像線1
 70
     0
  3
__ __ __ _____ __ __ ____
 72
    65
 73
     6
 40
14.5
 49
6.0
 74
     0
 49
-1.5
 74
     0
 49
2.0
 74
     0
 49
-1.5
 74
     0
 49
2.0
 74
     0
 49
-1.5
 74
     0
  0
LTYPE
  5
5185
330
5
100
AcDbSymbolTableRecord
100
AcDbLinetypeTableRecord
  2
中心線1
 70
     0
  3
___ _ ___ _ ___
 72
    65
 73
     4
 40
18.0
 49
12.0
 74
     0
 49
-2.0
 74
     0
 49
2.0
 74
     0
 49
-2.0
 74
     0
  0
LTYPE
  5
5188
330
5
100
AcDbSymbolTableRecord
100
AcDbLinetypeTableRecord
  2
補助線
 70
     0
  3
______________
 72
    65
 73
     2
 40
2.0
 49
1.0
 74
     0
 49
1.0
 74
     0
  0
LTYPE
  5
6427
330
5
100
AcDbSymbolTableRecord
100
AcDbLinetypeTableRecord
  2
HIDDEN
 70
     0
  3
Hidden __ __ __ __ __ __ __ __ __ __ __ __ __ _
 72
    65
 73
     2
 40
0.375
 49
0.25
 74
     0
 49
-0.125
 74
     0
  0
LTYPE
  5
AC81
330
5
100
AcDbSymbolTableRecord
100
AcDbLinetypeTableRecord
  2
破断線
 70
     0
  3
/\/-/\/-/\/-/\/-/\/-/\/
 72
    65
 73
     2
 40
0.4401
 49
0.0001
 74
     4
 75
   136
340
AC80
 46
0.0016
 50
0.0
 44
0.0
 45
0.0
 49
-0.4400000000000002
 74
     0
  0
LTYPE
  5
AC9E
330
5
100
AcDbSymbolTableRecord
100
AcDbLinetypeTableRecord
  2
Amzigzag
 70
     0
  3
/\/-/\/-/\/-/\/-/\/-/\/
 72
    65
 73
     2
 40
11.0001
 49
0.0001
 74
     4
 75
   135
340
56
 46
0.04
 50
0.0
 44
0.0
 45
0.0
 49
-11.0
 74
     0
  0
LTYPE
  5
AF0F
330
5
100
AcDbSymbolTableRecord
100
AcDbLinetypeTableRecord
  2
genzigzag
 70
     0
  3
/\/-/\/-/\/-/\/-/\/-/\/
 72
    65
 73
     2
 40
12.0001
 49
0.0001
 74
     4
 75
   135
340
AC80
 46
2.0
 50
0.0
 44
0.0
 45
0.0
 49
-12.0
 74
     0
  0
LTYPE
  5
AF95
330
5
100
AcDbSymbolTableRecord
100
AcDbLinetypeTableRecord
  2
AM_ISO08W050
 70
     0
  3
____ . ____ . ____ . ____ . ____ . ____ . ____
 72
    65
 73
     4
 40
18.0
 49
12.0
 74
     0
 49
-1.5
 74
     0
 49
3.0
 74
     0
 49
-1.5
 74
     0
  0
LTYPE
  5
AF96
330
5
100
AcDbSymbolTableRecord
100
AcDbLinetypeTableRecord
  2
AM_ISO09W050
 70
     0
  3
_____ . . _____ . . _____ . . ____ .. ____
 72
    65
 73
     6
 40
22.5
 49
12.0
 74
     0
 49
-1.5
 74
     0
 49
3.0
 74
     0
 49
-1.5
 74
     0
 49
3.0
 74
     0
 49
-1.5
 74
     0
  0
LTYPE
  5
AF97
330
5
100
AcDbSymbolTableRecord
100
AcDbLinetypeTableRecord
  2
AM_ISO08W050x2
 70
     0
  3
__ . __ . __ . __ . __ . __
 72
    65
 73
     4
 40
9.0
 49
6.0
 74
     0
 49
-0.75
 74
     0
 49
1.5
 74
     0
 49
-0.75
 74
     0
  0
LTYPE
  5
AF98
330
5
100
AcDbSymbolTableRecord
100
AcDbLinetypeTableRecord
  2
AM_ISO02W050x2
 70
     0
  3
 _ _ _ _ _ _ _ _ _ _ _ _
 72
    65
 73
     2
 40
3.75
 49
3.0
 74
     0
 49
-0.75
 74
     0
  0
LTYPE
  5
C3AD
330
5
100
AcDbSymbolTableRecord
100
AcDbLinetypeTableRecord
  2
DASHED1
 70
     0
  3
--  --  --  --  --  --  --  --  
 72
    65
 73
     2
 40
2.5
 49
1.25
 74
     0
 49
-1.25
 74
     0
  0
LTYPE
  5
C3AE
330
5
100
AcDbSymbolTableRecord
100
AcDbLinetypeTableRecord
  2
CENTER2
 70
     0
  3
----------  --  ----------  --  
 72
    65
 73
     4
 40
20.0
 49
12.5
 74
     0
 49
-2.5
 74
     0
 49
2.5
 74
     0
 49
-2.5
 74
     0
  0
LTYPE
  5
C3AF
330
5
100
AcDbSymbolTableRecord
100
AcDbLinetypeTableRecord
  2
PHANTOM1
 70
     0
  3
--- - - --- - - --- - - --- - - 
 72
    65
 73
     6
 40
10.0
 49
3.25
 74
     0
 49
-1.25
 74
     0
 49
1.25
 74
     0
 49
-1.25
 74
     0
 49
1.25
 74
     0
 49
-1.25
 74
     0
  0
LTYPE
  5
C3B0
330
5
100
AcDbSymbolTableRecord
100
AcDbLinetypeTableRecord
  2
HIDDEN2
 70
     0
  3
Hidden (.5x) _ _ _ _ _ _ _ _ _ _ _ _ _ _ _ _ _
 72
    65
 73
     2
 40
0.1875
 49
0.125
 74
     0
 49
-0.0625
 74
     0
  0
LTYPE
  5
C3B1
330
5
100
AcDbSymbolTableRecord
100
AcDbLinetypeTableRecord
  2
AMZIGZAG2
 70
     0
  3
/\/-/\/-/\/-/\/-/\/-/\/
 72
    65
 73
     2
 40
0.4401
 49
0.0001
 74
     0
 49
-0.4400000000000003
 74
     0
  0
LTYPE
  5
C3B2
330
5
100
AcDbSymbolTableRecord
100
AcDbLinetypeTableRecord
  2
ACANSTGB
 70
     0
  3
__ . . __ . .
 72
    65
 73
     6
 40
0.35433070866
 49
0.15748031496
 74
     0
 49
-0.03937007874
 74
     0
 49
0.03937007874
 74
     0
 49
-0.03937007874
 74
     0
 49
0.03937007874
 74
     0
 49
-0.03937007874
 74
     0
  0
LTYPE
  5
C3B3
330
5
100
AcDbSymbolTableRecord
100
AcDbLinetypeTableRecord
  2
ACANSTGL
 70
     0
  3
_ _ _ _ _
 72
    65
 73
     2
 40
0.11811023622
 49
0.07874015748
 74
     0
 49
-0.03937007874
 74
     0
  0
ENDTAB
  0
TABLE
  2
LAYER
  5
2
102
{ACAD_XDICTIONARY
360
3F95
102
}
330
0
100
AcDbSymbolTable
 70
    32
  0
LAYER
  5
10
330
2
100
AcDbSymbolTableRecord
100
AcDbLayerTableRecord
  2
0
 70
     0
 62
     7
  6
Continuous
370
    -3
390
F
  0
LAYER
  5
6D1
330
2
100
AcDbSymbolTableRecord
100
AcDbLayerTableRecord
  2
Defpoints
 70
     0
 62
     7
  6
Continuous
290
     0
370
    -3
390
F
  0
LAYER
  5
5F85
330
2
100
AcDbSymbolTableRecord
100
AcDbLayerTableRecord
  2
AM_0
 70
     0
 62
     7
  6
中線
370
    25
390
F
1001
AcAecLayerStandard
1000

1000

  0
LAYER
  5
AC9F
330
2
100
AcDbSymbolTableRecord
100
AcDbLayerTableRecord
  2
size
 70
     0
 62
     5
  6
Continuous
290
     0
370
    25
390
F
  0
LAYER
  5
ACA0
330
2
100
AcDbSymbolTableRecord
100
AcDbLayerTableRecord
  2
waku
 70
     0
 62
     7
  6
Continuous
370
    35
390
F
  0
LAYER
  5
ACA1
330
2
100
AcDbSymbolTableRecord
100
AcDbLayerTableRecord
  2
AM_6
 70
     0
 62
     2
  6
文字
370
    15
390
F
1001
AcAecLayerStandard
1000

1000

  0
LAYER
  5
ACC8
330
2
100
AcDbSymbolTableRecord
100
AcDbLayerTableRecord
  2
hyomoji
 70
     0
 62
     2
  6
Continuous
370
    15
390
F
  0
LAYER
  5
ACC9
330
2
100
AcDbSymbolTableRecord
100
AcDbLayerTableRecord
  2
hyosen1
 70
     0
 62
     1
  6
Continuous
370
    25
390
F
  0
LAYER
  5
ACCA
330
2
100
AcDbSymbolTableRecord
100
AcDbLayerTableRecord
  2
hyosen2
 70
     0
 62
     1
  6
Continuous
370
    15
390
F
  0
LAYER
  5
AD60
330
2
100
AcDbSymbolTableRecord
100
AcDbLayerTableRecord
  2
AM_1
 70
     0
 62
    30
  6
太線
370
    25
390
F
1001
AcAecLayerStandard
1000

1000

  0
LAYER
  5
AD64
330
2
100
AcDbSymbolTableRecord
100
AcDbLayerTableRecord
  2
AM_2
 70
     0
 62
     1
  6
細線
370
    15
390
F
1001
AcAecLayerStandard
1000

1000

  0
LAYER
  5
AD67
330
2
100
AcDbSymbolTableRecord
100
AcDbLayerTableRecord
  2
AM_3
 70
     0
 62
     6
  6
陰線1
370
    15
390
F
1001
AcAecLayerStandard
1000

1000

  0
LAYER
  5
AD68
330
2
100
AcDbSymbolTableRecord
100
AcDbLayerTableRecord
  2
AM_5
 70
     0
 62
     3
  6
寸法線
370
    15
390
F
1001
AcAecLayerStandard
1000

1000

  0
LAYER
  5
AD69
330
2
100
AcDbSymbolTableRecord
100
AcDbLayerTableRecord
  2
AM_7
 70
     0
 62
     4
  6
中心線1
370
    15
390
F
1001
AcAecLayerStandard
1000

1000

  0
LAYER
  5
AD6A
330
2
100
AcDbSymbolTableRecord
100
AcDbLayerTableRecord
  2
AM_8
 70
     0
 62
     1
  6
ハッチング
370
    15
390
F
1001
AcAecLayerStandard
1000

1000

  0
LAYER
  5
AD6E
330
2
100
AcDbSymbolTableRecord
100
AcDbLayerTableRecord
  2
AM_10
 70
     0
 62
     7
  6
genzigzag
370
    25
390
F
1001
AcAecLayerStandard
1000

1000

  0
LAYER
  5
AD6F
330
2
100
AcDbSymbolTableRecord
100
AcDbLayerTableRecord
  2
AM_11
 70
     0
 62
     2
  6
想像線1
370
    15
390
F
1001
AcAecLayerStandard
1000

1000

  0
LAYER
  5
C26E
330
2
100
AcDbSymbolTableRecord
100
AcDbLayerTableRecord
  2
AM_14
 70
     0
 62
     5
  6
細線
370
     9
390
F
1001
AcAecLayerStandard
1000

1000

  0
LAYER
  5
C3B4
330
2
100
AcDbSymbolTableRecord
100
AcDbLayerTableRecord
  2
_0-0_0
 70
     0
 62
     7
  6
Continuous
370
    -3
390
F
  0
LAYER
  5
C3B5
330
2
100
AcDbSymbolTableRecord
100
AcDbLayerTableRecord
  2
_0-4_AM_6
 70
     0
 62
     7
  6
Continuous
370
    -3
390
F
  0
LAYER
  5
C3B6
330
2
100
AcDbSymbolTableRecord
100
AcDbLayerTableRecord
  2
_0-A_AM_0
 70
     0
 62
     7
  6
Continuous
370
    -3
390
F
  0
LAYER
  5
C3B7
330
2
100
AcDbSymbolTableRecord
100
AcDbLayerTableRecord
  2
_0-F_AM_5
 70
     0
 62
     7
  6
Continuous
370
    -3
390
F
  0
LAYER
  5
C3B8
330
2
100
AcDbSymbolTableRecord
100
AcDbLayerTableRecord
  2
_1-0_AM_7
 70
     0
 62
     7
  6
Continuous
370
    -3
390
F
  0
LAYER
  5
C3B9
330
2
100
AcDbSymbolTableRecord
100
AcDbLayerTableRecord
  2
_1-6_AM_11
 70
     0
 62
     7
  6
Continuous
370
    -3
390
F
  0
LAYER
  5
C3BA
330
2
100
AcDbSymbolTableRecord
100
AcDbLayerTableRecord
  2
_0-2_SIZE
 70
     0
 62
     7
  6
Continuous
370
    -3
390
F
  0
LAYER
  5
C3BB
330
2
100
AcDbSymbolTableRecord
100
AcDbLayerTableRecord
  2
_0-3_WAKU
 70
     0
 62
     7
  6
Continuous
370
    -3
390
F
  0
LAYER
  5
C3BC
330
2
100
AcDbSymbolTableRecord
100
AcDbLayerTableRecord
  2
_0-9_HYOSEN2
 70
     0
 62
     7
  6
Continuous
370
    -3
390
F
  0
LAYER
  5
C3BD
330
2
100
AcDbSymbolTableRecord
100
AcDbLayerTableRecord
  2
_0-8_HYOMOJI
 70
     0
 62
     7
  6
Continuous
370
    -3
390
F
  0
LAYER
  5
C3BE
330
2
100
AcDbSymbolTableRecord
100
AcDbLayerTableRecord
  2
_1-E_HYOSEN
 70
     0
 62
     7
  6
Continuous
370
    -3
390
F
  0
LAYER
  5
C3BF
330
2
100
AcDbSymbolTableRecord
100
AcDbLayerTableRecord
  2
_0-1_DEFPOINTS
 70
     0
 62
     7
  6
Continuous
370
    -3
390
F
  0
LAYER
  5
C57D
330
2
100
AcDbSymbolTableRecord
100
AcDbLayerTableRecord
  2
AM_4
 70
     0
 62
     3
  6
補助線
370
    15
390
F
1001
AcAecLayerStandard
1000

1000

  0
LAYER
  5
C8C5
330
2
100
AcDbSymbolTableRecord
100
AcDbLayerTableRecord
  2
AM_CL
 70
     0
 62
     1
  6
Amconstr
370
    15
390
F
1001
AcAecLayerStandard
1000

1000

  0
ENDTAB
  0
TABLE
  2
STYLE
  5
3
330
0
100
AcDbSymbolTable
 70
     8
  0
STYLE
  5
11
330
3
100
AcDbSymbolTableRecord
100
AcDbTextStyleTableRecord
  2
STANDARD
 70
     0
 40
0.0
 41
0.7
 50
0.0
 71
     0
 42
3.2
  3
romans.shx
  4
extfont.shx
  0
STYLE
  5
56
330
3
100
AcDbSymbolTableRecord
100
AcDbTextStyleTableRecord
  2

 70
     1
 40
0.0
 41
1.0
 50
0.0
 71
     0
 42
2.5
  3
ltypeshp.shx
  4

  0
STYLE
  5
58
330
3
100
AcDbSymbolTableRecord
100
AcDbTextStyleTableRecord
  2
ACISOTS
 70
     0
 40
1.0
 41
1.0
 50
0.0
 71
     0
 42
2.5
  3
isocp.shx
  4
extfont.shx
  0
STYLE
  5
63
330
3
100
AcDbSymbolTableRecord
100
AcDbTextStyleTableRecord
  2
ACISOGDT
 70
     0
 40
0.0
 41
1.0
 50
0.0
 71
     0
 42
2.5
  3
amgdt.shx
  4

  0
STYLE
  5
A74
330
3
100
AcDbSymbolTableRecord
100
AcDbTextStyleTableRecord
  2
DIM
 70
     0
 40
0.0
 41
1.0
 50
0.0
 71
     0
 42
2.5
  3
monotxt.shx
  4
extfont.shx
  0
STYLE
  5
AC80
330
3
100
AcDbSymbolTableRecord
100
AcDbTextStyleTableRecord
  2

 70
     1
 40
0.0
 41
1.0
 50
0.0
 71
     0
 42
3.2
  3
genltshp.shx
  4

  0
STYLE
  5
C3C0
330
3
100
AcDbSymbolTableRecord
100
AcDbTextStyleTableRecord
  2
ACANSTS
 70
     0
 40
1.0
 41
1.0
 50
0.0
 71
     0
 42
0.2
  3
romans.shx
  4
extfont.shx
  0
STYLE
  5
C3C1
330
3
100
AcDbSymbolTableRecord
100
AcDbTextStyleTableRecord
  2
ACANSGDT
 70
     0
 40
0.0
 41
1.0
 50
0.0
 71
     0
 42
0.2
  3
AMGDT
  4

  0
ENDTAB
  0
TABLE
  2
VIEW
  5
6
330
0
100
AcDbSymbolTable
 70
     6
  0
VIEW
  5
AE1
330
6
100
AcDbSymbolTableRecord
100
AcDbViewTableRecord
  2
AM_VIEW1
 70
     0
 40
129.7276464542651
 10
1775.10588156276
 20
1793.121228859297
 41
148.5
 11
0.0
 21
0.0
 31
1.0
 12
0.0
 22
0.0
 32
0.0
 42
50.0
 43
-1370.695619172058
 44
-1370.695619172058
 50
0.0
 71
    16
281
     0
 72
     0
  0
VIEW
  5
AE2
330
6
100
AcDbSymbolTableRecord
100
AcDbViewTableRecord
  2
AM_VIEW2
 70
     0
 40
129.7276464542651
 10
1923.60588156276
 20
1793.121228859297
 41
148.5
 11
0.0
 21
0.0
 31
1.0
 12
0.0
 22
0.0
 32
0.0
 42
50.0
 43
-1370.695619172058
 44
-1370.695619172058
 50
0.0
 71
    16
281
     0
 72
     0
  0
VIEW
  5
AE3
330
6
100
AcDbSymbolTableRecord
100
AcDbViewTableRecord
  2
AM_VIEW3
 70
     0
 40
129.7276464542651
 10
1775.10588156276
 20
1712.848875313562
 41
148.5
 11
0.0
 21
0.0
 31
1.0
 12
0.0
 22
0.0
 32
0.0
 42
50.0
 43
-1370.695619172058
 44
-1370.695619172058
 50
0.0
 71
    16
281
     0
 72
     0
  0
VIEW
  5
AE4
330
6
100
AcDbSymbolTableRecord
100
AcDbViewTableRecord
  2
AM_VIEW4
 70
     0
 40
129.7276464542651
 10
1923.60588156276
 20
1712.848875313562
 41
148.5
 11
0.0
 21
0.0
 31
1.0
 12
0.0
 22
0.0
 32
0.0
 42
50.0
 43
-1370.695619172058
 44
-1370.695619172058
 50
0.0
 71
    16
281
     0
 72
     0
  0
VIEW
  5
AE5
330
6
100
AcDbSymbolTableRecord
100
AcDbViewTableRecord
  2
AM_VIEW5
 70
     0
 40
129.7276464542651
 10
1849.35588156276
 20
1752.985052086429
 41
148.5
 11
0.0
 21
0.0
 31
1.0
 12
0.0
 22
0.0
 32
0.0
 42
50.0
 43
-1370.695619172058
 44
-1370.695619172058
 50
0.0
 71
    16
281
     0
 72
     0
  0
VIEW
  5
AE6
330
6
100
AcDbSymbolTableRecord
100
AcDbViewTableRecord
  2
AM_VIEW6
 70
     0
 40
259.452698355601
 10
1849.35588156276
 20
1752.985052086429
 41
296.99703
 11
0.0
 21
0.0
 31
1.0
 12
0.0
 22
0.0
 32
0.0
 42
50.0
 43
-1370.695619172058
 44
-1370.695619172058
 50
0.0
 71
    16
281
     0
 72
     0
  0
ENDTAB
  0
TABLE
  2
UCS
  5
7
330
0
100
AcDbSymbolTable
 70
     0
  0
ENDTAB
  0
TABLE
  2
APPID
  5
9
330
0
100
AcDbSymbolTable
 70
    60
  0
APPID
  5
12
330
9
100
AcDbSymbolTableRecord
100
AcDbRegAppTableRecord
  2
ACAD
 70
     0
  0
APPID
  5
30
330
9
100
AcDbSymbolTableRecord
100
AcDbRegAppTableRecord
  2
MCAD_NO_VIS
 70
     0
  0
APPID
  5
31
330
9
100
AcDbSymbolTableRecord
100
AcDbRegAppTableRecord
  2
ACAD_TEMP_GRAPHIC
 70
     0
  0
APPID
  5
44
330
9
100
AcDbSymbolTableRecord
100
AcDbRegAppTableRecord
  2
ACATTRIBSERVICES
 70
     0
  0
APPID
  5
7A1
330
9
100
AcDbSymbolTableRecord
100
AcDbRegAppTableRecord
  2
GENIUS_GENDIMSH_14
 70
     0
  0
APPID
  5
A49
330
9
100
AcDbSymbolTableRecord
100
AcDbRegAppTableRecord
  2
GENIUS_GENREC_14
 70
     0
  0
APPID
  5
A4A
330
9
100
AcDbSymbolTableRecord
100
AcDbRegAppTableRecord
  2
GENIUS_GENOBJ-N-REC_13
 70
     0
  0
APPID
  5
A4B
330
9
100
AcDbSymbolTableRecord
100
AcDbRegAppTableRecord
  2
GENIUS_GENODEF_13
 70
     0
  0
APPID
  5
A4C
330
9
100
AcDbSymbolTableRecord
100
AcDbRegAppTableRecord
  2
DCO15
 70
     0
  0
APPID
  5
ADC
330
9
100
AcDbSymbolTableRecord
100
AcDbRegAppTableRecord
  2
GENIUS_GENOLIS_13
 70
     0
  0
APPID
  5
ADD
330
9
100
AcDbSymbolTableRecord
100
AcDbRegAppTableRecord
  2
GENIUS_GENOENT_13
 70
     0
  0
APPID
  5
ADE
330
9
100
AcDbSymbolTableRecord
100
AcDbRegAppTableRecord
  2
GENIUS_GENOBJ-N-TIT_13
 70
     0
  0
APPID
  5
ADF
330
9
100
AcDbSymbolTableRecord
100
AcDbRegAppTableRecord
  2
GENIUS_GENTITLE_13
 70
     0
  0
APPID
  5
AE0
330
9
100
AcDbSymbolTableRecord
100
AcDbRegAppTableRecord
  2
GENIUS_GENOREF_13
 70
     0
  0
APPID
  5
AE7
330
9
100
AcDbSymbolTableRecord
100
AcDbRegAppTableRecord
  2
GENIUS_GENSCREG_15
 70
     0
  0
APPID
  5
AE8
330
9
100
AcDbSymbolTableRecord
100
AcDbRegAppTableRecord
  2
GENIUS_GENOBJ-N-SDF_13
 70
     0
  0
APPID
  5
FAF
330
9
100
AcDbSymbolTableRecord
100
AcDbRegAppTableRecord
  2
GENIUS_GENBLLY_14
 70
     0
  0
APPID
  5
FB0
330
9
100
AcDbSymbolTableRecord
100
AcDbRegAppTableRecord
  2
GENIUS_GENTRA_14
 70
     0
  0
APPID
  5
1285
330
9
100
AcDbSymbolTableRecord
100
AcDbRegAppTableRecord
  2
GENIUS_GENDTOL_13
 70
     0
  0
APPID
  5
142D
330
9
100
AcDbSymbolTableRecord
100
AcDbRegAppTableRecord
  2
GENIUS_GENOBJ-N-CEN_13
 70
     0
  0
APPID
  5
1AB5
330
9
100
AcDbSymbolTableRecord
100
AcDbRegAppTableRecord
  2
GENIUS_GENOBJ-N-CRS_13
 70
     0
  0
APPID
  5
1B36
330
9
100
AcDbSymbolTableRecord
100
AcDbRegAppTableRecord
  2
GENIUS_GENOBJ-N-HTC_13
 70
     0
  0
APPID
  5
1B37
330
9
100
AcDbSymbolTableRecord
100
AcDbRegAppTableRecord
  2
GENIUS_GENHATCH_13
 70
     0
  0
APPID
  5
216D
330
9
100
AcDbSymbolTableRecord
100
AcDbRegAppTableRecord
  2
GENIUS_GENOBJ-N-FIL_13
 70
     0
  0
APPID
  5
2356
330
9
100
AcDbSymbolTableRecord
100
AcDbRegAppTableRecord
  2
GEVID990412420
 70
     0
  0
APPID
  5
2357
330
9
100
AcDbSymbolTableRecord
100
AcDbRegAppTableRecord
  2
GEVDC
 70
     0
  0
APPID
  5
2358
330
9
100
AcDbSymbolTableRecord
100
AcDbRegAppTableRecord
  2
GEVCON
 70
     0
  0
APPID
  5
235B
330
9
100
AcDbSymbolTableRecord
100
AcDbRegAppTableRecord
  2
GEVRADREF
 70
     0
  0
APPID
  5
2360
330
9
100
AcDbSymbolTableRecord
100
AcDbRegAppTableRecord
  2
GENIUS_GENBH_13
 70
     0
  0
APPID
  5
2362
330
9
100
AcDbSymbolTableRecord
100
AcDbRegAppTableRecord
  2
GENIUS_GENOBJ-NBEHI-BHF_13
 70
     0
  0
APPID
  5
2364
330
9
100
AcDbSymbolTableRecord
100
AcDbRegAppTableRecord
  2
GENIUS_GENOBJ-NBEHI-BHB_13
 70
     0
  0
APPID
  5
2379
330
9
100
AcDbSymbolTableRecord
100
AcDbRegAppTableRecord
  2
GENIUS_GENOBJ-F-SCPASSM_13
 70
     0
  0
APPID
  5
3D74
330
9
100
AcDbSymbolTableRecord
100
AcDbRegAppTableRecord
  2
GENIUS_GENDIM_13
 70
     0
  0
APPID
  5
3D76
330
9
100
AcDbSymbolTableRecord
100
AcDbRegAppTableRecord
  2
GENIUS_GE3DTOL_13
 70
     0
  0
APPID
  5
3D9C
330
9
100
AcDbSymbolTableRecord
100
AcDbRegAppTableRecord
  2
AD_DRAW
 70
     0
  0
APPID
  5
3DE8
330
9
100
AcDbSymbolTableRecord
100
AcDbRegAppTableRecord
  2
ASURF_PCURVE_APPNAME
 70
     0
  0
APPID
  5
3DED
330
9
100
AcDbSymbolTableRecord
100
AcDbRegAppTableRecord
  2
AMG_3D2D_5.0
 70
     0
  0
APPID
  5
3E1B
330
9
100
AcDbSymbolTableRecord
100
AcDbRegAppTableRecord
  2
DESIGNERASSEMBLIES
 70
     0
  0
APPID
  5
3E20
330
9
100
AcDbSymbolTableRecord
100
AcDbRegAppTableRecord
  2
ACADM_DIM_EDIT
 70
     0
  0
APPID
  5
3E21
330
9
100
AcDbSymbolTableRecord
100
AcDbRegAppTableRecord
  2
AMDT_DM_ADJ
 70
     0
  0
APPID
  5
4143
330
9
100
AcDbSymbolTableRecord
100
AcDbRegAppTableRecord
  2
GENIUS_GENFIL_13
 70
     0
  0
APPID
  5
4144
330
9
100
AcDbSymbolTableRecord
100
AcDbRegAppTableRecord
  2
GENIUS_GENOBJ-N-CHA_13
 70
     0
  0
APPID
  5
4E17
330
9
100
AcDbSymbolTableRecord
100
AcDbRegAppTableRecord
  2
GEVID1008153417
 70
     0
  0
APPID
  5
4E58
330
9
100
AcDbSymbolTableRecord
100
AcDbRegAppTableRecord
  2
GEVID1008153418
 70
     0
  0
APPID
  5
4E5E
330
9
100
AcDbSymbolTableRecord
100
AcDbRegAppTableRecord
  2
GEVID1008153419
 70
     0
  0
APPID
  5
4E64
330
9
100
AcDbSymbolTableRecord
100
AcDbRegAppTableRecord
  2
GEVID1008153420
 70
     0
  0
APPID
  5
4E75
330
9
100
AcDbSymbolTableRecord
100
AcDbRegAppTableRecord
  2
GEVID1008153421
 70
     0
  0
APPID
  5
4EB7
330
9
100
AcDbSymbolTableRecord
100
AcDbRegAppTableRecord
  2
GENIUS_AMGTXT_16
 70
     0
  0
APPID
  5
7645
330
9
100
AcDbSymbolTableRecord
100
AcDbRegAppTableRecord
  2
GENIUS_GENOBJ-N-DIM_13
 70
     0
  0
APPID
  5
AAD0
330
9
100
AcDbSymbolTableRecord
100
AcDbRegAppTableRecord
  2
ACAD_DSTYLE_DIMARC_LENGTH_SYMBOL
 70
     0
  0
APPID
  5
AAD1
330
9
100
AcDbSymbolTableRecord
100
AcDbRegAppTableRecord
  2
ACAD_DSTYLE_DIMJOGGED_JOGANGLE_SYMBOL
 70
     0
  0
APPID
  5
AAFD
330
9
100
AcDbSymbolTableRecord
100
AcDbRegAppTableRecord
  2
ACAD_PSEXT
 70
     0
  0
APPID
  5
AD61
330
9
100
AcDbSymbolTableRecord
100
AcDbRegAppTableRecord
  2
AcAecLayerStandard
 70
     0
  0
APPID
  5
AEE3
330
9
100
AcDbSymbolTableRecord
100
AcDbRegAppTableRecord
  2
ACAD_EXEMPT_FROM_CAD_STANDARDS
 70
     0
  0
APPID
  5
B0F5
330
9
100
AcDbSymbolTableRecord
100
AcDbRegAppTableRecord
  2
ACAD_DSTYLE_DIMTEXT_FILL
 70
     0
  0
APPID
  5
B0F6
330
9
100
AcDbSymbolTableRecord
100
AcDbRegAppTableRecord
  2
ACAD_DSTYLE_DIMEXT_LENGTH
 70
     0
  0
APPID
  5
B0F7
330
9
100
AcDbSymbolTableRecord
100
AcDbRegAppTableRecord
  2
ACAD_DSTYLE_DIMEXT_ENABLED
 70
     0
  0
APPID
  5
B0F8
330
9
100
AcDbSymbolTableRecord
100
AcDbRegAppTableRecord
  2
ACAD_DSTYLE_DIM_LINETYPE
 70
     0
  0
APPID
  5
B0F9
330
9
100
AcDbSymbolTableRecord
100
AcDbRegAppTableRecord
  2
ACAD_DSTYLE_DIM_EXT1_LINETYPE
 70
     0
  0
APPID
  5
B0FA
330
9
100
AcDbSymbolTableRecord
100
AcDbRegAppTableRecord
  2
ACAD_DSTYLE_DIM_EXT2_LINETYPE
 70
     0
  0
ENDTAB
  0
TABLE
  2
DIMSTYLE
  5
A
330
0
100
AcDbSymbolTable
 70
    24
100
AcDbDimStyleTable
 71
     3
340
2515
340
251A
340
251B
  0
DIMSTYLE
105
A76
330
A
100
AcDbSymbolTableRecord
100
AcDbDimStyleTableRecord
  2
STANDARD
 70
     0
 41
3.0
 42
1.0
 43
7.0
 44
2.0
 73
     0
 74
     0
 77
     1
140
2.799999999999998
141
0.0
143
0.0394
147
0.7
171
     4
172
     1
173
     1
176
     3
177
     3
178
     2
271
     3
272
     3
273
     8
274
     4
289
     0
340
A74
341
A66
343
A66
344
A66
  0
DIMSTYLE
105
2515
330
A
100
AcDbSymbolTableRecord
100
AcDbDimStyleTableRecord
  2
SYS
 70
     0
  4
"
 41
1.0
 42
1.0
 43
10.0
 44
1.0
 47
0.1
 48
0.1
 73
     0
 74
     0
 77
     1
 78
     8
 79
     2
140
3.5
141
0.0
143
0.0393701
146
0.71
147
1.5
172
     1
176
   256
177
   256
178
     7
271
     2
272
     2
283
     0
284
     8
340
11
371
    -1
372
    -1
1001
ACAD_DSTYLE_DIMJOGGED_JOGANGLE_SYMBOL
1070
   384
1040
0.7853981633974483
1001
ACAD_DSTYLE_DIMARC_LENGTH_SYMBOL
1070
   379
1070
     1
  0
DIMSTYLE
105
2516
102
{ACAD_REACTORS
330
D209
102
}
330
A
100
AcDbSymbolTableRecord
100
AcDbDimStyleTableRecord
  2
SYS$3
 70
     0
  4
"
 41
2.0
 42
1.0
 43
10.0
 44
1.0
 47
0.1
 48
0.1
 73
     0
 77
     1
 78
     8
 79
     2
140
3.200000000000001
141
0.0
143
0.0393701
146
0.71
147
1.5
176
   256
177
   256
178
     2
271
     2
272
     2
283
     0
284
     8
288
     1
340
11
342
A66
371
    -1
372
    -1
1001
ACAD_DSTYLE_DIMJOGGED_JOGANGLE_SYMBOL
1070
   384
1040
0.7853981633974483
1001
ACAD_DSTYLE_DIMARC_LENGTH_SYMBOL
1070
   379
1070
     1
1001
ACAD_DSTYLE_DIMEXT_LENGTH
1070
   378
1040
0.0
  0
DIMSTYLE
105
2517
330
A
100
AcDbSymbolTableRecord
100
AcDbDimStyleTableRecord
  2
SYS$4
 70
     0
  4
"
 41
2.0
 42
1.0
 43
10.0
 44
1.0
 47
0.1
 48
0.1
 73
     0
 77
     1
 78
     8
 79
     2
140
3.200000000000001
141
0.0
143
0.0393701
146
0.71
147
1.5
173
     1
176
   256
177
   256
178
     2
271
     2
272
     2
283
     0
284
     8
288
     1
340
11
344
A66
371
    -1
372
    -1
1001
ACAD_DSTYLE_DIMJOGGED_JOGANGLE_SYMBOL
1070
   384
1040
0.7853981633974483
1001
ACAD_DSTYLE_DIMARC_LENGTH_SYMBOL
1070
   379
1070
     1
1001
ACAD_DSTYLE_DIMEXT_LENGTH
1070
   378
1040
0.0
  0
DIMSTYLE
105
2518
330
A
100
AcDbSymbolTableRecord
100
AcDbDimStyleTableRecord
  2
SYS$6
 70
     0
  4
"
 41
2.0
 42
1.0
 43
10.0
 44
1.0
 47
0.1
 48
0.1
 73
     0
 74
     0
 78
     8
 79
     2
140
3.200000000000001
141
0.0
143
0.0393701
146
0.71
147
1.5
172
     1
176
   256
177
   256
178
     2
271
     2
272
     2
283
     0
284
     8
340
11
341
A66
371
    -1
372
    -1
1001
ACAD_DSTYLE_DIMJOGGED_JOGANGLE_SYMBOL
1070
   384
1040
0.7853981633974483
1001
ACAD_DSTYLE_DIMARC_LENGTH_SYMBOL
1070
   379
1070
     1
1001
ACAD_DSTYLE_DIMEXT_LENGTH
1070
   378
1040
0.0
  0
DIMSTYLE
105
2519
330
A
100
AcDbSymbolTableRecord
100
AcDbDimStyleTableRecord
  2
SYS$7
 70
     0
  4
"
 41
2.0
 42
1.0
 43
10.0
 44
1.0
 47
0.1
 48
0.1
 73
     0
 74
     0
 77
     1
 78
     8
 79
     2
140
3.200000000000006
141
0.0
143
0.0393701
146
0.71
147
1.5
172
     1
176
   256
177
   256
178
     2
271
     2
272
     2
283
     0
284
     8
340
11
341
A66
342
A66
371
    -1
372
    -1
1001
ACAD_DSTYLE_DIMJOGGED_JOGANGLE_SYMBOL
1070
   384
1040
0.7853981633974483
1001
ACAD_DSTYLE_DIMARC_LENGTH_SYMBOL
1070
   379
1070
     1
1001
ACAD_DSTYLE_DIMEXT_LENGTH
1070
   378
1040
0.0
  0
DIMSTYLE
105
251A
330
A
100
AcDbSymbolTableRecord
100
AcDbDimStyleTableRecord
  2
SYS$SF
 70
     0
  4
"
 41
2.5
 42
1.0
 43
10.0
 44
1.0
 47
0.1
 48
0.1
 73
     0
 74
     0
 75
     1
 76
     1
 77
     1
 78
     8
 79
     2
140
3.200000000000001
141
0.0
143
0.0393701
146
0.71
147
1.5
172
     1
176
   256
177
   256
178
     2
271
     2
272
     2
283
     0
284
     8
340
11
341
6C4
342
6C4
371
    -1
372
    -1
1001
ACAD_DSTYLE_DIMJOGGED_JOGANGLE_SYMBOL
1070
   384
1040
0.7853981633974483
1001
ACAD_DSTYLE_DIMARC_LENGTH_SYMBOL
1070
   379
1070
     1
1001
ACAD_DSTYLE_DIMEXT_LENGTH
1070
   378
1040
0.0
  0
DIMSTYLE
105
251B
330
A
100
AcDbSymbolTableRecord
100
AcDbDimStyleTableRecord
  2
SYS$SH
 70
     0
  4
"
 41
2.5
 42
1.0
 43
10.0
 44
1.0
 47
0.1
 48
0.1
 73
     0
 74
     0
 75
     1
 76
     1
 77
     1
 78
     8
 79
     2
140
3.200000000000001
141
0.0
143
0.0393701
144
2.0
146
0.71
147
1.5
172
     1
173
     1
176
   256
177
   256
178
     2
271
     2
272
     2
283
     0
284
     8
340
11
341
6C4
343
72
344
6C4
371
    -1
372
    -1
1001
ACAD_DSTYLE_DIMJOGGED_JOGANGLE_SYMBOL
1070
   384
1040
0.7853981633974483
1001
ACAD_DSTYLE_DIMARC_LENGTH_SYMBOL
1070
   379
1070
     1
1001
ACAD_DSTYLE_DIMEXT_LENGTH
1070
   378
1040
0.0
  0
DIMSTYLE
105
2A59
330
A
100
AcDbSymbolTableRecord
100
AcDbDimStyleTableRecord
  2
SYS$2
 70
     0
  4
"
 41
1.0
 42
1.0
 43
10.0
 44
1.0
 47
0.1
 48
0.1
 73
     0
 74
     0
 77
     1
 78
     8
 79
     2
140
3.200000000000001
141
0.0
143
0.0393701
146
0.71
147
1.5
172
     1
176
   256
177
   256
178
     2
271
     2
272
     2
283
     0
284
     8
340
11
342
6C4
371
    -1
372
    -1
1001
ACAD_DSTYLE_DIMJOGGED_JOGANGLE_SYMBOL
1070
   384
1040
0.7853981633974483
1001
ACAD_DSTYLE_DIMARC_LENGTH_SYMBOL
1070
   379
1070
     1
1001
ACAD_DSTYLE_DIMEXT_LENGTH
1070
   378
1040
0.0
  0
DIMSTYLE
105
2AAB
102
{ACAD_REACTORS
330
CF9D
330
CFDD
330
CFFE
330
D01F
330
D040
330
D076
330
D0A0
330
D0D5
330
D0F6
330
D120
330
D152
330
D176
102
}
330
A
100
AcDbSymbolTableRecord
100
AcDbDimStyleTableRecord
  2
SYS$0
 70
     0
  4
"
 41
1.0
 42
1.0
 43
10.0
 44
1.0
 47
0.1
 48
0.1
 73
     0
 74
     0
 77
     1
 78
     8
 79
     2
140
3.200000000000001
141
0.0
143
0.0393701
146
0.71
147
1.5
172
     1
176
   256
177
   256
178
     2
271
     2
272
     2
283
     0
284
     8
340
11
341
A66
342
6C4
371
    -1
372
    -1
1001
ACAD_DSTYLE_DIMJOGGED_JOGANGLE_SYMBOL
1070
   384
1040
0.7853981633974483
1001
ACAD_DSTYLE_DIMARC_LENGTH_SYMBOL
1070
   379
1070
     1
1001
ACAD_DSTYLE_DIMEXT_LENGTH
1070
   378
1040
0.0
  0
DIMSTYLE
105
AF99
330
A
100
AcDbSymbolTableRecord
100
AcDbDimStyleTableRecord
  2
AM_ISO
 70
     0
  4
"
 41
2.5
 42
1.0
 43
10.0
 44
1.0
 47
0.1
 48
0.1
 73
     0
 74
     0
 77
     1
 78
     8
 79
     2
140
3.5
141
0.0
143
0.0393701
146
0.71
147
1.5
172
     1
176
   256
177
   256
178
     2
271
     2
272
     3
274
     4
283
     0
284
     8
340
11
371
    -1
372
    -1
  0
DIMSTYLE
105
AF9A
330
A
100
AcDbSymbolTableRecord
100
AcDbDimStyleTableRecord
  2
AM_ISO$3
 70
     0
  4
"
 41
2.5
 42
1.0
 43
10.0
 44
1.0
 47
0.1
 48
0.1
 73
     0
 77
     1
 78
     8
 79
     2
140
3.5
141
0.0
143
0.0393701
146
0.71
147
1.5
176
   256
177
   256
178
     2
271
     2
272
     3
274
     4
283
     0
284
     8
288
     1
289
     0
340
11
371
    -1
372
    -1
  0
DIMSTYLE
105
AF9B
330
A
100
AcDbSymbolTableRecord
100
AcDbDimStyleTableRecord
  2
AM_ISO$4
 70
     0
  4
"
 41
2.5
 42
1.0
 43
10.0
 44
1.0
 47
0.1
 48
0.1
 73
     0
 77
     1
 78
     8
 79
     2
140
3.5
141
0.0
143
0.0393701
146
0.71
147
1.5
176
   256
177
   256
178
     2
271
     2
272
     3
274
     4
283
     0
284
     8
288
     1
289
     0
340
11
371
    -1
372
    -1
  0
DIMSTYLE
105
AF9C
330
A
100
AcDbSymbolTableRecord
100
AcDbDimStyleTableRecord
  2
AM_ISO$6
 70
     0
  4
"
 41
2.5
 42
1.0
 43
10.0
 44
1.0
 47
0.1
 48
0.1
 73
     0
 74
     0
 78
     8
 79
     2
140
3.5
141
0.0
143
0.0393701
146
0.71
147
1.5
172
     1
176
   256
177
   256
178
     2
271
     2
272
     3
274
     4
283
     0
284
     8
340
11
371
    -1
372
    -1
  0
DIMSTYLE
105
AF9D
330
A
100
AcDbSymbolTableRecord
100
AcDbDimStyleTableRecord
  2
AM_ISO$7
 70
     0
  4
"
 41
2.5
 42
1.0
 43
10.0
 44
1.0
 47
0.1
 48
0.1
 73
     0
 74
     0
 77
     1
 78
     8
 79
     2
140
5.0
141
0.0
143
0.0393701
146
0.71
147
1.5
172
     1
176
   256
177
   256
178
     2
271
     2
272
     3
274
     4
283
     0
284
     8
340
11
371
    -1
372
    -1
  0
DIMSTYLE
105
AF9E
330
A
100
AcDbSymbolTableRecord
100
AcDbDimStyleTableRecord
  2
AM_ISO$SF
 70
     0
  4
"
 41
2.5
 42
1.0
 43
10.0
 44
1.0
 47
0.1
 48
0.1
 73
     0
 74
     0
 75
     1
 76
     1
 77
     1
 78
     8
 79
     2
140
3.5
141
0.0
143
0.0393701
146
0.71
147
1.5
172
     1
176
   256
177
   256
178
     2
271
     2
272
     3
274
     4
283
     0
284
     8
340
11
371
    -1
372
    -1
  0
DIMSTYLE
105
AF9F
330
A
100
AcDbSymbolTableRecord
100
AcDbDimStyleTableRecord
  2
AM_ISO$SH
 70
     0
  4
"
 41
2.5
 42
1.0
 43
10.0
 44
1.0
 47
0.1
 48
0.1
 73
     0
 74
     0
 75
     1
 76
     1
 77
     1
 78
     8
 79
     2
140
3.5
141
0.0
143
0.0393701
144
2.0
146
0.71
147
1.5
172
     1
173
     1
176
   256
177
   256
178
     2
271
     2
272
     3
274
     4
283
     0
284
     8
340
11
343
72
371
    -1
372
    -1
  0
DIMSTYLE
105
C3C2
330
A
100
AcDbSymbolTableRecord
100
AcDbDimStyleTableRecord
  2
AM_ANSI
 70
     0
  4
mm
 41
0.1
 42
0.05
 43
0.5
 44
0.1
 47
0.1
 48
0.1
 78
     7
140
0.12
141
0.0
146
0.71
147
0.06
176
   256
177
   256
178
     2
279
     2
340
11
  0
DIMSTYLE
105
C3C3
330
A
100
AcDbSymbolTableRecord
100
AcDbDimStyleTableRecord
  2
AM_ANSI$3
 70
     0
  4
mm
 41
0.1
 42
0.05
 43
0.5
 44
0.1
 47
0.1
 48
0.1
 78
     7
140
0.12
141
0.0
146
0.71
147
0.06
176
   256
177
   256
178
     2
279
     2
340
11
  0
DIMSTYLE
105
C3C4
330
A
100
AcDbSymbolTableRecord
100
AcDbDimStyleTableRecord
  2
AM_ANSI$4
 70
     0
  4
mm
 41
0.1
 42
0.05
 43
0.5
 44
0.1
 47
0.1
 48
0.1
 78
     7
140
0.12
141
0.0
146
0.71
147
0.06
176
   256
177
   256
178
     2
279
     2
340
11
  0
DIMSTYLE
105
C3C5
330
A
100
AcDbSymbolTableRecord
100
AcDbDimStyleTableRecord
  2
AM_ANSI$7
 70
     0
  4
mm
 41
0.1
 42
0.05
 43
0.5
 44
0.1
 47
0.1
 48
0.1
 78
     7
140
0.24
141
0.0
146
0.71
147
0.06
176
   256
177
   256
178
     2
279
     2
340
11
  0
DIMSTYLE
105
C3C6
330
A
100
AcDbSymbolTableRecord
100
AcDbDimStyleTableRecord
  2
AM_ANSI$SF
 70
     0
  4
mm
 41
0.1
 42
0.05
 43
0.5
 44
0.1
 47
0.1
 48
0.1
 75
     1
 76
     1
 78
     7
140
0.12
141
0.0
146
0.71
147
0.06
176
   256
177
   256
178
     2
279
     2
340
11
  0
DIMSTYLE
105
C3C7
330
A
100
AcDbSymbolTableRecord
100
AcDbDimStyleTableRecord
  2
AM_ANSI$SH
 70
     0
  4
mm
 41
0.1
 42
0.05
 43
0.5
 44
0.1
 47
0.1
 48
0.1
 75
     1
 76
     1
 78
     7
140
0.12
141
0.0
146
0.71
147
0.06
173
     1
176
   256
177
   256
178
     2
279
     2
340
11
  0
DIMSTYLE
105
CCB9
330
A
100
AcDbSymbolTableRecord
100
AcDbDimStyleTableRecord
  2
DIMSTYLE
 70
     0
 41
1.0
 42
2.54
 44
2.54
 73
     0
 74
     0
140
2.5
147
1.25
173
     1
279
     2
340
11
  0
ENDTAB
  0
TABLE
  2
BLOCK_RECORD
  5
1
330
0
100
AcDbSymbolTable
 70
    42
  0
BLOCK_RECORD
  5
1F
102
{ACAD_XDICTIONARY
360
8A
102
}
330
1
100
AcDbSymbolTableRecord
100
AcDbBlockTableRecord
  2
*Model_Space
340
22
  0
BLOCK_RECORD
  5
1B
330
1
100
AcDbSymbolTableRecord
100
AcDbBlockTableRecord
  2
*Paper_Space
340
1E
  0
BLOCK_RECORD
  5
23
330
1
100
AcDbSymbolTableRecord
100
AcDbBlockTableRecord
  2
*Paper_Space0
340
26
  0
BLOCK_RECORD
  5
72
330
1
100
AcDbSymbolTableRecord
100
AcDbBlockTableRecord
  2
GENAXEH
340
0
  0
BLOCK_RECORD
  5
6C4
330
1
100
AcDbSymbolTableRecord
100
AcDbBlockTableRecord
  2
_Dot
340
0
102
{BLKREFS
331
D19B
331
D19C
331
D1A4
331
D1A5
331
D1AD
331
D1AE
331
D1B6
331
D1B7
331
D1C0
331
D1C1
331
D1C9
331
D1CA
331
D1D4
331
D1D5
331
D1DD
331
D1DE
331
D1E6
331
D1E7
331
D1F1
331
D1F2
331
D1FA
331
D1FB
331
D203
331
D204
102
}
  0
BLOCK_RECORD
  5
A66
330
1
100
AcDbSymbolTableRecord
100
AcDbBlockTableRecord
  2
_OPEN30
340
0
  0
BLOCK_RECORD
  5
C2B2
330
1
100
AcDbSymbolTableRecord
100
AcDbBlockTableRecord
  2
-004-_DOT
340
0
102
{BLKREFS
331
C2D2
331
C2D3
331
C2DE
331
C2DF
331
C2EA
331
C2EB
331
C2F6
331
C2F7
331
C302
331
C303
331
C30E
331
C30F
331
C31A
331
C31B
331
C326
331
C327
331
C332
331
C333
331
C33E
331
C33F
331
C34A
331
C34B
331
C356
331
C362
331
C363
331
C36E
331
C36F
331
C37A
331
C37B
331
C385
331
C386
331
C391
331
C392
331
C3A6
331
C3A7
102
}
  0
BLOCK_RECORD
  5
C2B8
330
1
100
AcDbSymbolTableRecord
100
AcDbBlockTableRecord
  2
-005-_OPEN30
340
0
102
{BLKREFS
331
C357
331
C39D
102
}
  0
BLOCK_RECORD
  5
C2BE
330
1
100
AcDbSymbolTableRecord
100
AcDbBlockTableRecord
  2
-074-カタログA3
340
0
  0
BLOCK_RECORD
  5
C2CD
330
1
100
AcDbSymbolTableRecord
100
AcDbBlockTableRecord
  2
-076-_D74
340
0
  0
BLOCK_RECORD
  5
C2D9
330
1
100
AcDbSymbolTableRecord
100
AcDbBlockTableRecord
  2
-077-_D75
340
0
  0
BLOCK_RECORD
  5
C2E5
330
1
100
AcDbSymbolTableRecord
100
AcDbBlockTableRecord
  2
-078-_D76
340
0
  0
BLOCK_RECORD
  5
C2F1
330
1
100
AcDbSymbolTableRecord
100
AcDbBlockTableRecord
  2
-079-_D77
340
0
  0
BLOCK_RECORD
  5
C2FD
330
1
100
AcDbSymbolTableRecord
100
AcDbBlockTableRecord
  2
-080-_D78
340
0
  0
BLOCK_RECORD
  5
C309
330
1
100
AcDbSymbolTableRecord
100
AcDbBlockTableRecord
  2
-081-_D79
340
0
  0
BLOCK_RECORD
  5
C315
330
1
100
AcDbSymbolTableRecord
100
AcDbBlockTableRecord
  2
-082-_D80
340
0
  0
BLOCK_RECORD
  5
C321
330
1
100
AcDbSymbolTableRecord
100
AcDbBlockTableRecord
  2
-083-_D81
340
0
  0
BLOCK_RECORD
  5
C32D
330
1
100
AcDbSymbolTableRecord
100
AcDbBlockTableRecord
  2
-084-_D82
340
0
  0
BLOCK_RECORD
  5
C339
330
1
100
AcDbSymbolTableRecord
100
AcDbBlockTableRecord
  2
-085-_D83
340
0
  0
BLOCK_RECORD
  5
C345
330
1
100
AcDbSymbolTableRecord
100
AcDbBlockTableRecord
  2
-086-_D84
340
0
  0
BLOCK_RECORD
  5
C351
330
1
100
AcDbSymbolTableRecord
100
AcDbBlockTableRecord
  2
-087-_D85
340
0
  0
BLOCK_RECORD
  5
C35D
330
1
100
AcDbSymbolTableRecord
100
AcDbBlockTableRecord
  2
-088-_D86
340
0
  0
BLOCK_RECORD
  5
C369
330
1
100
AcDbSymbolTableRecord
100
AcDbBlockTableRecord
  2
-089-_D87
340
0
  0
BLOCK_RECORD
  5
C375
330
1
100
AcDbSymbolTableRecord
100
AcDbBlockTableRecord
  2
-090-_D88
340
0
  0
BLOCK_RECORD
  5
C380
330
1
100
AcDbSymbolTableRecord
100
AcDbBlockTableRecord
  2
-091-_D89
340
0
  0
BLOCK_RECORD
  5
C38C
330
1
100
AcDbSymbolTableRecord
100
AcDbBlockTableRecord
  2
-092-_D90
340
0
  0
BLOCK_RECORD
  5
C398
330
1
100
AcDbSymbolTableRecord
100
AcDbBlockTableRecord
  2
-093-_D91
340
0
  0
BLOCK_RECORD
  5
C3A1
330
1
100
AcDbSymbolTableRecord
100
AcDbBlockTableRecord
  2
-094-_D92
340
0
  0
BLOCK_RECORD
  5
CBF4
330
1
100
AcDbSymbolTableRecord
100
AcDbBlockTableRecord
  2
_NONE
340
0
  0
BLOCK_RECORD
  5
CF9E
330
1
100
AcDbSymbolTableRecord
100
AcDbBlockTableRecord
  2
*D28
340
0
  0
BLOCK_RECORD
  5
CFDE
330
1
100
AcDbSymbolTableRecord
100
AcDbBlockTableRecord
  2
*D29
340
0
  0
BLOCK_RECORD
  5
CFFF
330
1
100
AcDbSymbolTableRecord
100
AcDbBlockTableRecord
  2
*D30
340
0
  0
BLOCK_RECORD
  5
D020
330
1
100
AcDbSymbolTableRecord
100
AcDbBlockTableRecord
  2
*D31
340
0
  0
BLOCK_RECORD
  5
D041
330
1
100
AcDbSymbolTableRecord
100
AcDbBlockTableRecord
  2
*D32
340
0
  0
BLOCK_RECORD
  5
D077
330
1
100
AcDbSymbolTableRecord
100
AcDbBlockTableRecord
  2
*D33
340
0
  0
BLOCK_RECORD
  5
D0A1
330
1
100
AcDbSymbolTableRecord
100
AcDbBlockTableRecord
  2
*D34
340
0
  0
BLOCK_RECORD
  5
D0D6
330
1
100
AcDbSymbolTableRecord
100
AcDbBlockTableRecord
  2
*D35
340
0
  0
BLOCK_RECORD
  5
D0F7
330
1
100
AcDbSymbolTableRecord
100
AcDbBlockTableRecord
  2
*D36
340
0
  0
BLOCK_RECORD
  5
D121
330
1
100
AcDbSymbolTableRecord
100
AcDbBlockTableRecord
  2
*D37
340
0
  0
BLOCK_RECORD
  5
D153
330
1
100
AcDbSymbolTableRecord
100
AcDbBlockTableRecord
  2
*D38
340
0
  0
BLOCK_RECORD
  5
D177
330
1
100
AcDbSymbolTableRecord
100
AcDbBlockTableRecord
  2
*D39
340
0
  0
BLOCK_RECORD
  5
D20A
330
1
100
AcDbSymbolTableRecord
100
AcDbBlockTableRecord
  2
*D40
340
0
  0
BLOCK_RECORD
  5
D247
330
1
100
AcDbSymbolTableRecord
100
AcDbBlockTableRecord
  2
GENDOT
340
0
102
{BLKREFS
331
D295
331
D296
102
}
  0
ENDTAB
  0
ENDSEC
  0
SECTION
  2
BLOCKS
  0
BLOCK
  5
20
330
1F
100
AcDbEntity
  8
0
100
AcDbBlockBegin
  2
*Model_Space
 70
     0
 10
0.0
 20
0.0
 30
0.0
  3
*Model_Space
  1

  0
ENDBLK
  5
21
330
1F
100
AcDbEntity
  8
0
100
AcDbBlockEnd
  0
BLOCK
  5
1C
330
1B
100
AcDbEntity
 67
     1
  8
0
100
AcDbBlockBegin
  2
*Paper_Space
 70
     0
 10
0.0
 20
0.0
 30
0.0
  3
*Paper_Space
  1

  0
ENDBLK
  5
1D
330
1B
100
AcDbEntity
 67
     1
  8
0
100
AcDbBlockEnd
  0
BLOCK
  5
24
330
23
100
AcDbEntity
 67
     1
  8
0
100
AcDbBlockBegin
  2
*Paper_Space0
 70
     0
 10
0.0
 20
0.0
 30
0.0
  3
*Paper_Space0
  1

  0
ENDBLK
  5
25
330
23
100
AcDbEntity
 67
     1
  8
0
100
AcDbBlockEnd
  0
BLOCK
  5
74
330
72
100
AcDbEntity
  8
0
100
AcDbBlockBegin
  2
GENAXEH
 70
     0
 10
0.0
 20
0.0
 30
0.0
  3
GENAXEH
  1

  0
LINE
  5
73
330
72
100
AcDbEntity
  8
0
100
AcDbLine
 10
-1.0
 20
0.0
 30
0.0
 11
1.0
 21
0.0
 31
0.0
  0
ENDBLK
  5
75
330
72
100
AcDbEntity
  8
0
100
AcDbBlockEnd
  0
BLOCK
  5
6C7
330
6C4
100
AcDbEntity
  8
0
100
AcDbBlockBegin
  2
_Dot
 70
     0
 10
0.0
 20
0.0
 30
0.0
  3
_Dot
  1

  0
LWPOLYLINE
  5
6C5
330
6C4
100
AcDbEntity
  8
0
  6
ByBlock
 62
     0
100
AcDbPolyline
 90
        2
 70
     1
 43
0.5
 10
-0.25
 20
0.0
 42
1.0
 10
0.25
 20
0.0
 42
1.0
  0
LINE
  5
6C6
330
6C4
100
AcDbEntity
  8
0
  6
ByBlock
 62
     0
370
    -2
100
AcDbLine
 10
-0.5
 20
0.0
 30
0.0
 11
-1.0
 21
0.0
 31
0.0
  0
ENDBLK
  5
6C8
330
6C4
100
AcDbEntity
  8
0
100
AcDbBlockEnd
  0
BLOCK
  5
A6A
330
A66
100
AcDbEntity
  8
0
100
AcDbBlockBegin
  2
_OPEN30
 70
     0
 10
0.0
 20
0.0
 30
0.0
  3
_OPEN30
  1

  0
LINE
  5
A67
330
A66
100
AcDbEntity
  8
0
  6
ByBlock
 62
     0
100
AcDbLine
 10
-1.0
 20
0.26794919
 30
0.0
 11
0.0
 21
0.0
 31
0.0
  0
LINE
  5
A68
330
A66
100
AcDbEntity
  8
0
  6
ByBlock
 62
     0
100
AcDbLine
 10
0.0
 20
0.0
 30
0.0
 11
-1.0
 21
-0.26794919
 31
0.0
  0
LINE
  5
A69
330
A66
100
AcDbEntity
  8
0
  6
ByBlock
 62
     0
100
AcDbLine
 10
0.0
 20
0.0
 30
0.0
 11
-1.0
 21
0.0
 31
0.0
  0
ENDBLK
  5
A6B
330
A66
100
AcDbEntity
  8
0
100
AcDbBlockEnd
  0
BLOCK
  5
C2B3
330
C2B2
100
AcDbEntity
  8
0
100
AcDbBlockBegin
  2
-004-_DOT
 70
     0
 10
0.0
 20
0.0
 30
0.0
  3
-004-_DOT
  1

  0
CIRCLE
  5
C2B4
330
C2B2
100
AcDbEntity
  8
_0-0_0
  6
Continuous
 62
     7
100
AcDbCircle
 10
0.0
 20
0.0
 30
0.0
 40
0.25
  0
LINE
  5
C2B5
330
C2B2
100
AcDbEntity
  8
_0-0_0
  6
Continuous
 62
     7
100
AcDbLine
 10
0.25
 20
0.0
 30
0.0
 11
-0.25
 21
0.0
 31
0.0
  0
LINE
  5
C2B6
330
C2B2
100
AcDbEntity
  8
_0-0_0
  6
Continuous
 62
     7
100
AcDbLine
 10
-0.5
 20
0.0
 30
0.0
 11
-1.0
 21
0.0
 31
0.0
  0
ENDBLK
  5
C2B7
330
C2B2
100
AcDbEntity
  8
0
100
AcDbBlockEnd
  0
BLOCK
  5
C2B9
330
C2B8
100
AcDbEntity
  8
0
100
AcDbBlockBegin
  2
-005-_OPEN30
 70
     0
 10
0.0
 20
0.0
 30
0.0
  3
-005-_OPEN30
  1

  0
LINE
  5
C2BA
330
C2B8
100
AcDbEntity
  8
_0-0_0
  6
Continuous
 62
     7
100
AcDbLine
 10
-1.0
 20
0.2679491
 30
0.0
 11
0.0
 21
0.0
 31
0.0
  0
LINE
  5
C2BB
330
C2B8
100
AcDbEntity
  8
_0-0_0
  6
Continuous
 62
     7
100
AcDbLine
 10
0.0
 20
0.0
 30
0.0
 11
-1.0
 21
-0.2679491
 31
0.0
  0
LINE
  5
C2BC
330
C2B8
100
AcDbEntity
  8
_0-0_0
  6
Continuous
 62
     7
100
AcDbLine
 10
0.0
 20
0.0
 30
0.0
 11
-1.0
 21
0.0
 31
0.0
  0
ENDBLK
  5
C2BD
330
C2B8
100
AcDbEntity
  8
0
100
AcDbBlockEnd
  0
BLOCK
  5
C2BF
330
C2BE
100
AcDbEntity
  8
0
100
AcDbBlockBegin
  2
-074-カタログA3
 70
     0
 10
0.0
 20
0.0
 30
0.0
  3
-074-カタログA3
  1

  0
LINE
  5
C2C0
330
C2BE
100
AcDbEntity
  8
_0-2_SIZE
  6
Continuous
 62
     5
100
AcDbLine
 10
0.0
 20
0.0
 30
0.0
 11
420.0
 21
0.0
 31
0.0
  0
LINE
  5
C2C1
330
C2BE
100
AcDbEntity
  8
_0-2_SIZE
  6
Continuous
 62
     5
100
AcDbLine
 10
0.0
 20
297.0
 30
0.0
 11
0.0
 21
0.0
 31
0.0
  0
LINE
  5
C2C2
330
C2BE
100
AcDbEntity
  8
_0-3_WAKU
  6
Continuous
 62
     7
100
AcDbLine
 10
400.4999999999998
 20
12.0
 30
0.0
 11
400.4999999999998
 21
285.0
 31
0.0
  0
LINE
  5
C2C3
330
C2BE
100
AcDbEntity
  8
_0-3_WAKU
  6
Continuous
 62
     7
100
AcDbLine
 10
19.5
 20
285.0
 30
0.0
 11
19.5
 21
12.0
 31
0.0
  0
LINE
  5
C2C4
330
C2BE
100
AcDbEntity
  8
_0-3_WAKU
  6
Continuous
 62
     7
100
AcDbLine
 10
400.4999999999998
 20
285.0
 30
0.0
 11
19.5
 21
285.0
 31
0.0
  0
LINE
  5
C2C5
330
C2BE
100
AcDbEntity
  8
_0-3_WAKU
  6
Continuous
 62
     7
100
AcDbLine
 10
19.5
 20
12.0
 30
0.0
 11
400.4999999999998
 21
12.0
 31
0.0
  0
TEXT
  5
C2C6
330
C2BE
100
AcDbEntity
  8
_0-4_AM_6
 62
     7
100
AcDbText
 10
0.0
 20
0.0
 30
0.0
 40
2.5
  1
!GENTITLE-LL
100
AcDbText
  0
TEXT
  5
C2C7
330
C2BE
100
AcDbEntity
  8
_0-4_AM_6
 62
     7
100
AcDbText
 10
400.4999999999998
 20
285.0
 30
0.0
 40
2.5
  1
!GENTITLE-RU
100
AcDbText
  0
TEXT
  5
C2C8
330
C2BE
100
AcDbEntity
  8
_0-4_AM_6
 62
     7
100
AcDbText
 10
19.5
 20
285.0
 30
0.0
 40
2.5
  1
!GENTITLE-INSERT
100
AcDbText
  0
LINE
  5
C2C9
330
C2BE
100
AcDbEntity
  8
_0-2_SIZE
  6
Continuous
 62
     5
100
AcDbLine
 10
420.0
 20
297.0
 30
0.0
 11
420.0
 21
0.0
 31
0.0
  0
LINE
  5
C2CA
330
C2BE
100
AcDbEntity
  8
_0-2_SIZE
  6
Continuous
 62
     5
100
AcDbLine
 10
0.0
 20
297.0
 30
0.0
 11
420.0
 21
297.0
 31
0.0
  0
TEXT
  5
C2CB
330
C2BE
100
AcDbEntity
  8
_0-4_AM_6
 62
     7
100
AcDbText
 10
420.0
 20
297.0
 30
0.0
 40
2.5
  1
!GENTITLE-MAX
100
AcDbText
  0
ENDBLK
  5
C2CC
330
C2BE
100
AcDbEntity
  8
0
100
AcDbBlockEnd
  0
BLOCK
  5
C2CE
330
C2CD
100
AcDbEntity
  8
0
100
AcDbBlockBegin
  2
-076-_D74
 70
     0
 10
0.0
 20
0.0
 30
0.0
  3
-076-_D74
  1

  0
LINE
  5
C2CF
330
C2CD
100
AcDbEntity
  8
_0-F_AM_5
  6
DASHED1
 62
     3
100
AcDbLine
 10
182.15922
 20
78.05753399999997
 30
0.0
 11
150.16161
 21
78.05753399999997
 31
0.0
  0
LINE
  5
C2D0
330
C2CD
100
AcDbEntity
  8
_0-F_AM_5
  6
DASHED1
 62
     3
100
AcDbLine
 10
175.3615899999999
 20
39.05753
 30
0.0
 11
150.16161
 21
39.05753
 31
0.0
  0
LINE
  5
C2D1
330
C2CD
100
AcDbEntity
  8
_0-F_AM_5
  6
DASHED1
 62
     3
100
AcDbLine
 10
151.16161
 20
77.05753399999998
 30
0.0
 11
151.16161
 21
40.05753
 31
0.0
  0
INSERT
  5
C2D2
330
C2CD
100
AcDbEntity
  8
_0-F_AM_5
100
AcDbBlockReference
  2
-004-_DOT
 10
151.16161
 20
78.05753399999997
 30
0.0
 50
90.0
  0
INSERT
  5
C2D3
330
C2CD
100
AcDbEntity
  8
_0-F_AM_5
100
AcDbBlockReference
  2
-004-_DOT
 10
151.16161
 20
39.05753
 30
0.0
 50
270.0
  0
TEXT
  5
C2D4
330
C2CD
100
AcDbEntity
  8
_0-F_AM_5
 62
     7
100
AcDbText
 10
149.66161
 20
56.821532
 30
0.0
 40
3.2
  1
39
 50
90.0
100
AcDbText
  0
POINT
  5
C2D5
330
C2CD
100
AcDbEntity
  8
_0-1_DEFPOINTS
 62
     7
100
AcDbPoint
 10
183.15922
 20
78.05753399999997
 30
0.0
  0
POINT
  5
C2D6
330
C2CD
100
AcDbEntity
  8
_0-1_DEFPOINTS
 62
     7
100
AcDbPoint
 10
176.36159
 20
39.05753
 30
0.0
  0
POINT
  5
C2D7
330
C2CD
100
AcDbEntity
  8
_0-1_DEFPOINTS
 62
     7
100
AcDbPoint
 10
151.16161
 20
39.05753
 30
0.0
  0
ENDBLK
  5
C2D8
330
C2CD
100
AcDbEntity
  8
0
100
AcDbBlockEnd
  0
BLOCK
  5
C2DA
330
C2D9
100
AcDbEntity
  8
0
100
AcDbBlockBegin
  2
-077-_D75
 70
     0
 10
0.0
 20
0.0
 30
0.0
  3
-077-_D75
  1

  0
LINE
  5
C2DB
330
C2D9
100
AcDbEntity
  8
_0-F_AM_5
  6
DASHED1
 62
     3
100
AcDbLine
 10
182.16159
 20
133.05752
 30
0.0
 11
150.16159
 21
133.05752
 31
0.0
  0
LINE
  5
C2DC
330
C2D9
100
AcDbEntity
  8
_0-F_AM_5
  6
DASHED1
 62
     3
100
AcDbLine
 10
182.15922
 20
78.05753399999997
 30
0.0
 11
150.16159
 21
78.05753399999997
 31
0.0
  0
LINE
  5
C2DD
330
C2D9
100
AcDbEntity
  8
_0-F_AM_5
  6
DASHED1
 62
     3
100
AcDbLine
 10
151.16159
 20
132.05752
 30
0.0
 11
151.16159
 21
79.05753399999998
 31
0.0
  0
INSERT
  5
C2DE
330
C2D9
100
AcDbEntity
  8
_0-F_AM_5
100
AcDbBlockReference
  2
-004-_DOT
 10
151.16159
 20
133.05752
 30
0.0
 50
90.0
  0
INSERT
  5
C2DF
330
C2D9
100
AcDbEntity
  8
_0-F_AM_5
100
AcDbBlockReference
  2
-004-_DOT
 10
151.16159
 20
78.05753399999997
 30
0.0
 50
270.0
  0
TEXT
  5
C2E0
330
C2D9
100
AcDbEntity
  8
_0-F_AM_5
 62
     7
100
AcDbText
 10
149.66159
 20
103.82153
 30
0.0
 40
3.2
  1
55
 50
90.0
100
AcDbText
  0
POINT
  5
C2E1
330
C2D9
100
AcDbEntity
  8
_0-1_DEFPOINTS
 62
     7
100
AcDbPoint
 10
183.16159
 20
133.05752
 30
0.0
  0
POINT
  5
C2E2
330
C2D9
100
AcDbEntity
  8
_0-1_DEFPOINTS
 62
     7
100
AcDbPoint
 10
183.15922
 20
78.05753399999997
 30
0.0
  0
POINT
  5
C2E3
330
C2D9
100
AcDbEntity
  8
_0-1_DEFPOINTS
 62
     7
100
AcDbPoint
 10
151.16159
 20
78.05753399999997
 30
0.0
  0
ENDBLK
  5
C2E4
330
C2D9
100
AcDbEntity
  8
0
100
AcDbBlockEnd
  0
BLOCK
  5
C2E6
330
C2E5
100
AcDbEntity
  8
0
100
AcDbBlockBegin
  2
-078-_D76
 70
     0
 10
0.0
 20
0.0
 30
0.0
  3
-078-_D76
  1

  0
LINE
  5
C2E7
330
C2E5
100
AcDbEntity
  8
_0-F_AM_5
  6
DASHED1
 62
     3
100
AcDbLine
 10
177.16159
 20
107.05752
 30
0.0
 11
160.16159
 21
107.05752
 31
0.0
  0
LINE
  5
C2E8
330
C2E5
100
AcDbEntity
  8
_0-F_AM_5
  6
DASHED1
 62
     3
100
AcDbLine
 10
182.15922
 20
78.05753399999997
 30
0.0
 11
160.16159
 21
78.05753399999997
 31
0.0
  0
LINE
  5
C2E9
330
C2E5
100
AcDbEntity
  8
_0-F_AM_5
  6
DASHED1
 62
     3
100
AcDbLine
 10
161.16159
 20
106.05752
 30
0.0
 11
161.16159
 21
79.05753399999998
 31
0.0
  0
INSERT
  5
C2EA
330
C2E5
100
AcDbEntity
  8
_0-F_AM_5
100
AcDbBlockReference
  2
-004-_DOT
 10
161.16159
 20
107.05752
 30
0.0
 50
90.0
  0
INSERT
  5
C2EB
330
C2E5
100
AcDbEntity
  8
_0-F_AM_5
100
AcDbBlockReference
  2
-004-_DOT
 10
161.16159
 20
78.05753399999997
 30
0.0
 50
270.0
  0
TEXT
  5
C2EC
330
C2E5
100
AcDbEntity
  8
_0-F_AM_5
 62
     7
100
AcDbText
 10
159.66159
 20
90.82153099999999
 30
0.0
 40
3.2
  1
29
 50
90.0
100
AcDbText
  0
POINT
  5
C2ED
330
C2E5
100
AcDbEntity
  8
_0-1_DEFPOINTS
 62
     7
100
AcDbPoint
 10
178.16159
 20
107.05752
 30
0.0
  0
POINT
  5
C2EE
330
C2E5
100
AcDbEntity
  8
_0-1_DEFPOINTS
 62
     7
100
AcDbPoint
 10
183.15922
 20
78.05753399999997
 30
0.0
  0
POINT
  5
C2EF
330
C2E5
100
AcDbEntity
  8
_0-1_DEFPOINTS
 62
     7
100
AcDbPoint
 10
161.16159
 20
78.05753399999997
 30
0.0
  0
ENDBLK
  5
C2F0
330
C2E5
100
AcDbEntity
  8
0
100
AcDbBlockEnd
  0
BLOCK
  5
C2F2
330
C2F1
100
AcDbEntity
  8
0
100
AcDbBlockBegin
  2
-079-_D77
 70
     0
 10
0.0
 20
0.0
 30
0.0
  3
-079-_D77
  1

  0
LINE
  5
C2F3
330
C2F1
100
AcDbEntity
  8
_0-F_AM_5
  6
DASHED1
 62
     3
100
AcDbLine
 10
172.16159
 20
107.05753
 30
0.0
 11
160.16159
 21
107.05753
 31
0.0
  0
LINE
  5
C2F4
330
C2F1
100
AcDbEntity
  8
_0-F_AM_5
  6
DASHED1
 62
     3
100
AcDbLine
 10
178.66159
 20
133.05753
 30
0.0
 11
160.16159
 21
133.05753
 31
0.0
  0
LINE
  5
C2F5
330
C2F1
100
AcDbEntity
  8
_0-F_AM_5
  6
DASHED1
 62
     3
100
AcDbLine
 10
161.16159
 20
108.05753
 30
0.0
 11
161.16159
 21
132.05753
 31
0.0
  0
INSERT
  5
C2F6
330
C2F1
100
AcDbEntity
  8
_0-F_AM_5
100
AcDbBlockReference
  2
-004-_DOT
 10
161.16159
 20
107.05753
 30
0.0
 50
270.0
  0
INSERT
  5
C2F7
330
C2F1
100
AcDbEntity
  8
_0-F_AM_5
100
AcDbBlockReference
  2
-004-_DOT
 10
161.16159
 20
133.05753
 30
0.0
 50
90.0
  0
TEXT
  5
C2F8
330
C2F1
100
AcDbEntity
  8
_0-F_AM_5
 62
     7
100
AcDbText
 10
159.66159
 20
118.32153
 30
0.0
 40
3.2
  1
26
 50
90.0
100
AcDbText
  0
POINT
  5
C2F9
330
C2F1
100
AcDbEntity
  8
_0-1_DEFPOINTS
 62
     7
100
AcDbPoint
 10
173.16159
 20
107.05753
 30
0.0
  0
POINT
  5
C2FA
330
C2F1
100
AcDbEntity
  8
_0-1_DEFPOINTS
 62
     7
100
AcDbPoint
 10
179.66159
 20
133.05753
 30
0.0
  0
POINT
  5
C2FB
330
C2F1
100
AcDbEntity
  8
_0-1_DEFPOINTS
 62
     7
100
AcDbPoint
 10
161.16159
 20
133.05753
 30
0.0
  0
ENDBLK
  5
C2FC
330
C2F1
100
AcDbEntity
  8
0
100
AcDbBlockEnd
  0
BLOCK
  5
C2FE
330
C2FD
100
AcDbEntity
  8
0
100
AcDbBlockBegin
  2
-080-_D78
 70
     0
 10
0.0
 20
0.0
 30
0.0
  3
-080-_D78
  1

  0
LINE
  5
C2FF
330
C2FD
100
AcDbEntity
  8
_0-F_AM_5
  6
DASHED1
 62
     3
100
AcDbLine
 10
181.16157
 20
132.05752
 30
0.0
 11
181.16156
 21
156.05742
 31
0.0
  0
LINE
  5
C300
330
C2FD
100
AcDbEntity
  8
_0-F_AM_5
  6
DASHED1
 62
     3
100
AcDbLine
 10
206.5616
 20
132.05753
 30
0.0
 11
206.56159
 21
156.05743
 31
0.0
  0
LINE
  5
C301
330
C2FD
100
AcDbEntity
  8
_0-F_AM_5
  6
DASHED1
 62
     3
100
AcDbLine
 10
182.16156
 20
155.05742
 30
0.0
 11
205.56159
 21
155.05743
 31
0.0
  0
INSERT
  5
C302
330
C2FD
100
AcDbEntity
  8
_0-F_AM_5
100
AcDbBlockReference
  2
-004-_DOT
 10
181.16156
 20
155.05742
 30
0.0
 50
180.00002
  0
INSERT
  5
C303
330
C2FD
100
AcDbEntity
  8
_0-F_AM_5
100
AcDbBlockReference
  2
-004-_DOT
 10
206.56159
 20
155.05743
 30
0.0
 50
0.000028
  0
TEXT
  5
C304
330
C2FD
100
AcDbEntity
  8
_0-F_AM_5
 62
     7
100
AcDbText
 10
190.25357
 20
156.55742
 30
0.0
 40
3.2
  1
32.8
 50
0.000028
100
AcDbText
  0
POINT
  5
C305
330
C2FD
100
AcDbEntity
  8
_0-1_DEFPOINTS
 62
     7
100
AcDbPoint
 10
181.16157
 20
131.05752
 30
0.0
  0
POINT
  5
C306
330
C2FD
100
AcDbEntity
  8
_0-1_DEFPOINTS
 62
     7
100
AcDbPoint
 10
206.5616
 20
131.05753
 30
0.0
  0
POINT
  5
C307
330
C2FD
100
AcDbEntity
  8
_0-1_DEFPOINTS
 62
     7
100
AcDbPoint
 10
206.56159
 20
155.05743
 30
0.0
  0
ENDBLK
  5
C308
330
C2FD
100
AcDbEntity
  8
0
100
AcDbBlockEnd
  0
BLOCK
  5
C30A
330
C309
100
AcDbEntity
  8
0
100
AcDbBlockBegin
  2
-081-_D79
 70
     0
 10
0.0
 20
0.0
 30
0.0
  3
-081-_D79
  1

  0
LINE
  5
C30B
330
C309
100
AcDbEntity
  8
_0-F_AM_5
  6
DASHED1
 62
     3
100
AcDbLine
 10
200.5616
 20
134.0575199999999
 30
0.0
 11
200.5616
 21
146.05753
 31
0.0
  0
LINE
  5
C30C
330
C309
100
AcDbEntity
  8
_0-F_AM_5
  6
DASHED1
 62
     3
100
AcDbLine
 10
206.5616
 20
132.05753
 30
0.0
 11
206.5616
 21
146.05753
 31
0.0
  0
LINE
  5
C30D
330
C309
100
AcDbEntity
  8
_0-F_AM_5
  6
DASHED1
 62
     3
100
AcDbLine
 10
201.5616
 20
145.05753
 30
0.0
 11
205.5616
 21
145.05753
 31
0.0
  0
INSERT
  5
C30E
330
C309
100
AcDbEntity
  8
_0-F_AM_5
100
AcDbBlockReference
  2
-004-_DOT
 10
200.5616
 20
145.05753
 30
0.0
 50
180.0
  0
INSERT
  5
C30F
330
C309
100
AcDbEntity
  8
_0-F_AM_5
100
AcDbBlockReference
  2
-004-_DOT
 10
206.5616
 20
145.05753
 30
0.0
  0
TEXT
  5
C310
330
C309
100
AcDbEntity
  8
_0-F_AM_5
 62
     7
100
AcDbText
 10
202.7616
 20
146.55753
 30
0.0
 40
3.2
  1
6
100
AcDbText
  0
POINT
  5
C311
330
C309
100
AcDbEntity
  8
_0-1_DEFPOINTS
 62
     7
100
AcDbPoint
 10
200.5616
 20
133.05752
 30
0.0
  0
POINT
  5
C312
330
C309
100
AcDbEntity
  8
_0-1_DEFPOINTS
 62
     7
100
AcDbPoint
 10
206.5616
 20
131.05753
 30
0.0
  0
POINT
  5
C313
330
C309
100
AcDbEntity
  8
_0-1_DEFPOINTS
 62
     7
100
AcDbPoint
 10
206.5616
 20
145.05753
 30
0.0
  0
ENDBLK
  5
C314
330
C309
100
AcDbEntity
  8
0
100
AcDbBlockEnd
  0
BLOCK
  5
C316
330
C315
100
AcDbEntity
  8
0
100
AcDbBlockBegin
  2
-082-_D80
 70
     0
 10
0.0
 20
0.0
 30
0.0
  3
-082-_D80
  1

  0
LINE
  5
C317
330
C315
100
AcDbEntity
  8
_0-F_AM_5
  6
DASHED1
 62
     3
100
AcDbLine
 10
216.86077
 20
214.42732
 30
0.0
 11
216.86077
 21
182.96606
 31
0.0
  0
LINE
  5
C318
330
C315
100
AcDbEntity
  8
_0-F_AM_5
  6
DASHED1
 62
     3
100
AcDbLine
 10
170.86242
 20
214.42732
 30
0.0
 11
170.86242
 21
182.96606
 31
0.0
  0
LINE
  5
C319
330
C315
100
AcDbEntity
  8
_0-F_AM_5
  6
DASHED1
 62
     3
100
AcDbLine
 10
215.8607700000001
 20
183.96606
 30
0.0
 11
171.86242
 21
183.96606
 31
0.0
  0
INSERT
  5
C31A
330
C315
100
AcDbEntity
  8
_0-F_AM_5
100
AcDbBlockReference
  2
-004-_DOT
 10
216.86077
 20
183.96606
 30
0.0
  0
INSERT
  5
C31B
330
C315
100
AcDbEntity
  8
_0-F_AM_5
100
AcDbBlockReference
  2
-004-_DOT
 10
170.86242
 20
183.96606
 30
0.0
 50
180.0
  0
TEXT
  5
C31C
330
C315
100
AcDbEntity
  8
_0-F_AM_5
 62
     7
100
AcDbText
 10
189.31759
 20
185.46606
 30
0.0
 40
3.2
  1
%%c46
100
AcDbText
  0
POINT
  5
C31D
330
C315
100
AcDbEntity
  8
_0-1_DEFPOINTS
 62
     7
100
AcDbPoint
 10
216.86077
 20
215.42732
 30
0.0
  0
POINT
  5
C31E
330
C315
100
AcDbEntity
  8
_0-1_DEFPOINTS
 62
     7
100
AcDbPoint
 10
170.86242
 20
215.42732
 30
0.0
  0
POINT
  5
C31F
330
C315
100
AcDbEntity
  8
_0-1_DEFPOINTS
 62
     7
100
AcDbPoint
 10
170.86242
 20
183.96606
 30
0.0
  0
ENDBLK
  5
C320
330
C315
100
AcDbEntity
  8
0
100
AcDbBlockEnd
  0
BLOCK
  5
C322
330
C321
100
AcDbEntity
  8
0
100
AcDbBlockBegin
  2
-083-_D81
 70
     0
 10
0.0
 20
0.0
 30
0.0
  3
-083-_D81
  1

  0
LINE
  5
C323
330
C321
100
AcDbEntity
  8
_0-F_AM_5
  6
DASHED1
 62
     3
100
AcDbLine
 10
223.86159
 20
221.08244
 30
0.0
 11
223.86159
 21
171.00402
 31
0.0
  0
LINE
  5
C324
330
C321
100
AcDbEntity
  8
_0-F_AM_5
  6
DASHED1
 62
     3
100
AcDbLine
 10
163.86159
 20
221.08244
 30
0.0
 11
163.86159
 21
171.00402
 31
0.0
  0
LINE
  5
C325
330
C321
100
AcDbEntity
  8
_0-F_AM_5
  6
DASHED1
 62
     3
100
AcDbLine
 10
222.86159
 20
172.00402
 30
0.0
 11
164.86159
 21
172.00402
 31
0.0
  0
INSERT
  5
C326
330
C321
100
AcDbEntity
  8
_0-F_AM_5
100
AcDbBlockReference
  2
-004-_DOT
 10
223.86159
 20
172.00402
 30
0.0
  0
INSERT
  5
C327
330
C321
100
AcDbEntity
  8
_0-F_AM_5
100
AcDbBlockReference
  2
-004-_DOT
 10
163.86159
 20
172.00402
 30
0.0
 50
180.0
  0
TEXT
  5
C328
330
C321
100
AcDbEntity
  8
_0-F_AM_5
 62
     7
100
AcDbText
 10
189.31759
 20
173.50402
 30
0.0
 40
3.2
  1
%%c60
100
AcDbText
  0
POINT
  5
C329
330
C321
100
AcDbEntity
  8
_0-1_DEFPOINTS
 62
     7
100
AcDbPoint
 10
223.86159
 20
222.08244
 30
0.0
  0
POINT
  5
C32A
330
C321
100
AcDbEntity
  8
_0-1_DEFPOINTS
 62
     7
100
AcDbPoint
 10
163.86159
 20
222.08244
 30
0.0
  0
POINT
  5
C32B
330
C321
100
AcDbEntity
  8
_0-1_DEFPOINTS
 62
     7
100
AcDbPoint
 10
163.86159
 20
172.00402
 30
0.0
  0
ENDBLK
  5
C32C
330
C321
100
AcDbEntity
  8
0
100
AcDbBlockEnd
  0
BLOCK
  5
C32E
330
C32D
100
AcDbEntity
  8
0
100
AcDbBlockBegin
  2
-084-_D82
 70
     0
 10
0.0
 20
0.0
 30
0.0
  3
-084-_D82
  1

  0
LINE
  5
C32F
330
C32D
100
AcDbEntity
  8
_0-F_AM_5
  6
DASHED1
 62
     3
100
AcDbLine
 10
187.1615699999999
 20
134.0575199999999
 30
0.0
 11
187.16156
 21
146.05742
 31
0.0
  0
LINE
  5
C330
330
C32D
100
AcDbEntity
  8
_0-F_AM_5
  6
DASHED1
 62
     3
100
AcDbLine
 10
181.16157
 20
132.05752
 30
0.0
 11
181.16156
 21
146.05742
 31
0.0
  0
LINE
  5
C331
330
C32D
100
AcDbEntity
  8
_0-F_AM_5
  6
DASHED1
 62
     3
100
AcDbLine
 10
186.16156
 20
145.05742
 30
0.0
 11
182.16156
 21
145.05742
 31
0.0
  0
INSERT
  5
C332
330
C32D
100
AcDbEntity
  8
_0-F_AM_5
100
AcDbBlockReference
  2
-004-_DOT
 10
187.16156
 20
145.05742
 30
0.0
 50
0.000028
  0
INSERT
  5
C333
330
C32D
100
AcDbEntity
  8
_0-F_AM_5
100
AcDbBlockReference
  2
-004-_DOT
 10
181.16156
 20
145.05742
 30
0.0
 50
180.00002
  0
TEXT
  5
C334
330
C32D
100
AcDbEntity
  8
_0-F_AM_5
 62
     7
100
AcDbText
 10
183.36156
 20
146.55742
 30
0.0
 40
3.2
  1
6
 50
0.000028
100
AcDbText
  0
POINT
  5
C335
330
C32D
100
AcDbEntity
  8
_0-1_DEFPOINTS
 62
     7
100
AcDbPoint
 10
187.1615699999999
 20
133.05752
 30
0.0
  0
POINT
  5
C336
330
C32D
100
AcDbEntity
  8
_0-1_DEFPOINTS
 62
     7
100
AcDbPoint
 10
181.16157
 20
131.05752
 30
0.0
  0
POINT
  5
C337
330
C32D
100
AcDbEntity
  8
_0-1_DEFPOINTS
 62
     7
100
AcDbPoint
 10
181.16156
 20
145.05742
 30
0.0
  0
ENDBLK
  5
C338
330
C32D
100
AcDbEntity
  8
0
100
AcDbBlockEnd
  0
BLOCK
  5
C33A
330
C339
100
AcDbEntity
  8
0
100
AcDbBlockBegin
  2
-085-_D83
 70
     0
 10
0.0
 20
0.0
 30
0.0
  3
-085-_D83
  1

  0
LINE
  5
C33B
330
C339
100
AcDbEntity
  8
_0-F_AM_5
  6
DASHED1
 62
     3
100
AcDbLine
 10
200.5616
 20
134.0575199999999
 30
0.0
 11
200.5616
 21
146.05753
 31
0.0
  0
LINE
  5
C33C
330
C339
100
AcDbEntity
  8
_0-F_AM_5
  6
DASHED1
 62
     3
100
AcDbLine
 10
187.1615699999999
 20
134.0575199999999
 30
0.0
 11
187.1615699999999
 21
146.05753
 31
0.0
  0
LINE
  5
C33D
330
C339
100
AcDbEntity
  8
_0-F_AM_5
  6
DASHED1
 62
     3
100
AcDbLine
 10
199.5616
 20
145.05753
 30
0.0
 11
188.16157
 21
145.05753
 31
0.0
  0
INSERT
  5
C33E
330
C339
100
AcDbEntity
  8
_0-F_AM_5
100
AcDbBlockReference
  2
-004-_DOT
 10
200.5616
 20
145.05753
 30
0.0
  0
INSERT
  5
C33F
330
C339
100
AcDbEntity
  8
_0-F_AM_5
100
AcDbBlockReference
  2
-004-_DOT
 10
187.1615699999999
 20
145.05753
 30
0.0
 50
180.0
  0
TEXT
  5
C340
330
C339
100
AcDbEntity
  8
_0-F_AM_5
 62
     7
100
AcDbText
 10
190.25358
 20
146.55753
 30
0.0
 40
3.2
  1
20.8
100
AcDbText
  0
POINT
  5
C341
330
C339
100
AcDbEntity
  8
_0-1_DEFPOINTS
 62
     7
100
AcDbPoint
 10
200.5616
 20
133.05752
 30
0.0
  0
POINT
  5
C342
330
C339
100
AcDbEntity
  8
_0-1_DEFPOINTS
 62
     7
100
AcDbPoint
 10
187.1615699999999
 20
133.05752
 30
0.0
  0
POINT
  5
C343
330
C339
100
AcDbEntity
  8
_0-1_DEFPOINTS
 62
     7
100
AcDbPoint
 10
187.1615699999999
 20
145.05753
 30
0.0
  0
ENDBLK
  5
C344
330
C339
100
AcDbEntity
  8
0
100
AcDbBlockEnd
  0
BLOCK
  5
C346
330
C345
100
AcDbEntity
  8
0
100
AcDbBlockBegin
  2
-086-_D84
 70
     0
 10
0.0
 20
0.0
 30
0.0
  3
-086-_D84
  1

  0
LINE
  5
C347
330
C345
100
AcDbEntity
  8
_0-F_AM_5
  6
DASHED1
 62
     3
100
AcDbLine
 10
201.56159
 20
82.057528
 30
0.0
 11
236.05383
 21
82.057528
 31
0.0
  0
LINE
  5
C348
330
C345
100
AcDbEntity
  8
_0-F_AM_5
  6
DASHED1
 62
     3
100
AcDbLine
 10
224.05382
 20
32.05753
 30
0.0
 11
236.05383
 21
32.05753
 31
0.0
  0
LINE
  5
C349
330
C345
100
AcDbEntity
  8
_0-F_AM_5
  6
DASHED1
 62
     3
100
AcDbLine
 10
235.05383
 20
81.05752800000002
 30
0.0
 11
235.05383
 21
33.05753
 31
0.0
  0
INSERT
  5
C34A
330
C345
100
AcDbEntity
  8
_0-F_AM_5
100
AcDbBlockReference
  2
-004-_DOT
 10
235.05383
 20
82.057528
 30
0.0
 50
90.0
  0
INSERT
  5
C34B
330
C345
100
AcDbEntity
  8
_0-F_AM_5
100
AcDbBlockReference
  2
-004-_DOT
 10
235.05383
 20
32.05753
 30
0.0
 50
270.0
  0
TEXT
  5
C34C
330
C345
100
AcDbEntity
  8
_0-F_AM_5
 62
     7
100
AcDbText
 10
233.55383
 20
55.32152899999999
 30
0.0
 40
3.2
  1
50
 50
90.0
100
AcDbText
  0
POINT
  5
C34D
330
C345
100
AcDbEntity
  8
_0-1_DEFPOINTS
 62
     7
100
AcDbPoint
 10
200.56159
 20
82.057528
 30
0.0
  0
POINT
  5
C34E
330
C345
100
AcDbEntity
  8
_0-1_DEFPOINTS
 62
     7
100
AcDbPoint
 10
223.05382
 20
32.05753
 30
0.0
  0
POINT
  5
C34F
330
C345
100
AcDbEntity
  8
_0-1_DEFPOINTS
 62
     7
100
AcDbPoint
 10
235.05383
 20
32.05753
 30
0.0
  0
ENDBLK
  5
C350
330
C345
100
AcDbEntity
  8
0
100
AcDbBlockEnd
  0
BLOCK
  5
C352
330
C351
100
AcDbEntity
  8
0
100
AcDbBlockBegin
  2
-087-_D85
 70
     0
 10
0.0
 20
0.0
 30
0.0
  3
-087-_D85
  1

  0
LINE
  5
C353
330
C351
100
AcDbEntity
  8
_0-F_AM_5
  6
DASHED1
 62
     3
100
AcDbLine
 10
201.56159
 20
82.057528
 30
0.0
 11
236.05386
 21
82.057528
 31
0.0
  0
LINE
  5
C354
330
C351
100
AcDbEntity
  8
_0-F_AM_5
  6
DASHED1
 62
     3
100
AcDbLine
 10
235.05386
 20
83.057528
 30
0.0
 11
235.05386
 21
106.05752
 31
0.0
  0
LINE
  5
C355
330
C351
100
AcDbEntity
  8
_0-F_AM_5
  6
DASHED1
 62
     3
100
AcDbLine
 10
235.05386
 20
107.05752
 30
0.0
 11
235.05386
 21
134.92952
 31
0.0
  0
INSERT
  5
C356
330
C351
100
AcDbEntity
  8
_0-F_AM_5
100
AcDbBlockReference
  2
-004-_DOT
 10
235.05386
 20
82.057528
 30
0.0
 50
270.0
  0
INSERT
  5
C357
330
C351
100
AcDbEntity
  8
_0-F_AM_5
100
AcDbBlockReference
  2
-005-_OPEN30
 10
235.05386
 20
107.05752
 30
0.0
 50
90.0
  0
TEXT
  5
C358
330
C351
100
AcDbEntity
  8
_0-F_AM_5
 62
     7
100
AcDbText
 10
233.55386
 20
104.91752
 30
0.0
 40
3.2
  1
調整可能範囲：２０
 50
90.0
100
AcDbText
  0
POINT
  5
C359
330
C351
100
AcDbEntity
  8
_0-1_DEFPOINTS
 62
     7
100
AcDbPoint
 10
200.56159
 20
82.057528
 30
0.0
  0
POINT
  5
C35A
330
C351
100
AcDbEntity
  8
_0-1_DEFPOINTS
 62
     7
100
AcDbPoint
 10
209.5616
 20
107.05752
 30
0.0
  0
POINT
  5
C35B
330
C351
100
AcDbEntity
  8
_0-1_DEFPOINTS
 62
     7
100
AcDbPoint
 10
235.05386
 20
107.05752
 30
0.0
  0
ENDBLK
  5
C35C
330
C351
100
AcDbEntity
  8
0
100
AcDbBlockEnd
  0
BLOCK
  5
C35E
330
C35D
100
AcDbEntity
  8
0
100
AcDbBlockBegin
  2
-088-_D86
 70
     0
 10
0.0
 20
0.0
 30
0.0
  3
-088-_D86
  1

  0
LINE
  5
C35F
330
C35D
100
AcDbEntity
  8
_0-F_AM_5
  6
DASHED1
 62
     3
100
AcDbLine
 10
182.16159
 20
242.06731
 30
0.0
 11
152.86159
 21
242.06731
 31
0.0
  0
LINE
  5
C360
330
C35D
100
AcDbEntity
  8
_0-F_AM_5
  6
DASHED1
 62
     3
100
AcDbLine
 10
182.16159
 20
202.06731
 30
0.0
 11
152.86159
 21
202.06731
 31
0.0
  0
LINE
  5
C361
330
C35D
100
AcDbEntity
  8
_0-F_AM_5
  6
DASHED1
 62
     3
100
AcDbLine
 10
153.86159
 20
241.06731
 30
0.0
 11
153.86159
 21
203.06731
 31
0.0
  0
INSERT
  5
C362
330
C35D
100
AcDbEntity
  8
_0-F_AM_5
100
AcDbBlockReference
  2
-004-_DOT
 10
153.86159
 20
242.06731
 30
0.0
 50
90.0
  0
INSERT
  5
C363
330
C35D
100
AcDbEntity
  8
_0-F_AM_5
100
AcDbBlockReference
  2
-004-_DOT
 10
153.86159
 20
202.06731
 30
0.0
 50
270.0
  0
TEXT
  5
C364
330
C35D
100
AcDbEntity
  8
_0-F_AM_5
 62
     7
100
AcDbText
 10
152.36159
 20
220.33131
 30
0.0
 40
3.2
  1
40
 50
90.0
100
AcDbText
  0
POINT
  5
C365
330
C35D
100
AcDbEntity
  8
_0-1_DEFPOINTS
 62
     7
100
AcDbPoint
 10
183.16159
 20
242.06731
 30
0.0
  0
POINT
  5
C366
330
C35D
100
AcDbEntity
  8
_0-1_DEFPOINTS
 62
     7
100
AcDbPoint
 10
183.16159
 20
202.06731
 30
0.0
  0
POINT
  5
C367
330
C35D
100
AcDbEntity
  8
_0-1_DEFPOINTS
 62
     7
100
AcDbPoint
 10
153.86159
 20
202.06731
 30
0.0
  0
ENDBLK
  5
C368
330
C35D
100
AcDbEntity
  8
0
100
AcDbBlockEnd
  0
BLOCK
  5
C36A
330
C369
100
AcDbEntity
  8
0
100
AcDbBlockBegin
  2
-089-_D87
 70
     0
 10
0.0
 20
0.0
 30
0.0
  3
-089-_D87
  1

  0
LINE
  5
C36B
330
C369
100
AcDbEntity
  8
_0-F_AM_5
  6
DASHED1
 62
     3
100
AcDbLine
 10
306.86159
 20
114.05753
 30
0.0
 11
306.86159
 21
156.05761
 31
0.0
  0
LINE
  5
C36C
330
C369
100
AcDbEntity
  8
_0-F_AM_5
  6
DASHED1
 62
     3
100
AcDbLine
 10
346.86159
 20
114.05753
 30
0.0
 11
346.86159
 21
156.05761
 31
0.0
  0
LINE
  5
C36D
330
C369
100
AcDbEntity
  8
_0-F_AM_5
  6
DASHED1
 62
     3
100
AcDbLine
 10
307.86159
 20
155.05761
 30
0.0
 11
345.86159
 21
155.05761
 31
0.0
  0
INSERT
  5
C36E
330
C369
100
AcDbEntity
  8
_0-F_AM_5
100
AcDbBlockReference
  2
-004-_DOT
 10
306.86159
 20
155.05761
 30
0.0
 50
180.0
  0
INSERT
  5
C36F
330
C369
100
AcDbEntity
  8
_0-F_AM_5
100
AcDbBlockReference
  2
-004-_DOT
 10
346.86159
 20
155.05761
 30
0.0
  0
TEXT
  5
C370
330
C369
100
AcDbEntity
  8
_0-F_AM_5
 62
     7
100
AcDbText
 10
325.12559
 20
156.55761
 30
0.0
 40
3.2
  1
40
100
AcDbText
  0
POINT
  5
C371
330
C369
100
AcDbEntity
  8
_0-1_DEFPOINTS
 62
     7
100
AcDbPoint
 10
306.86159
 20
113.05753
 30
0.0
  0
POINT
  5
C372
330
C369
100
AcDbEntity
  8
_0-1_DEFPOINTS
 62
     7
100
AcDbPoint
 10
346.86159
 20
113.05753
 30
0.0
  0
POINT
  5
C373
330
C369
100
AcDbEntity
  8
_0-1_DEFPOINTS
 62
     7
100
AcDbPoint
 10
346.86159
 20
155.05761
 30
0.0
  0
ENDBLK
  5
C374
330
C369
100
AcDbEntity
  8
0
100
AcDbBlockEnd
  0
BLOCK
  5
C376
330
C375
100
AcDbEntity
  8
0
100
AcDbBlockBegin
  2
-090-_D88
 70
     0
 10
0.0
 20
0.0
 30
0.0
  3
-090-_D88
  1

  0
LINE
  5
C377
330
C375
100
AcDbEntity
  8
_0-F_AM_5
  6
DASHED1
 62
     3
100
AcDbLine
 10
323.97025
 20
103.94262
 30
0.0
 11
329.75294
 21
110.17243
 31
0.0
  0
LINE
  5
C378
330
C375
100
AcDbEntity
  8
_0-F_AM_5
  6
DASHED1
 62
     3
100
AcDbLine
 10
330.43325
 20
110.90535
 30
0.0
 11
351.2528
 21
133.3347
 31
0.0
  0
LINE
  5
C379
330
C375
100
AcDbEntity
  8
_0-F_AM_5
  6
DASHED1
 62
     3
100
AcDbLine
 10
351.2528
 20
133.3347
 30
0.0
 11
377.35013
 21
133.3347
 31
0.0
  0
INSERT
  5
C37A
330
C375
100
AcDbEntity
  8
_0-F_AM_5
100
AcDbBlockReference
  2
-004-_DOT
 10
323.28994
 20
103.2097
 30
0.0
 50
227.13166
  0
INSERT
  5
C37B
330
C375
100
AcDbEntity
  8
_0-F_AM_5
100
AcDbBlockReference
  2
-004-_DOT
 10
330.43325
 20
110.90535
 30
0.0
 50
47.13166799999998
  0
TEXT
  5
C37C
330
C375
100
AcDbEntity
  8
_0-F_AM_5
 62
     7
100
AcDbText
 10
345.66746
 20
134.8347
 30
0.0
 40
3.2
  1
%%c5.5×+220510.5サラ
100
AcDbText
  0
POINT
  5
C37D
330
C375
100
AcDbEntity
  8
_0-1_DEFPOINTS
 62
     7
100
AcDbPoint
 10
330.43325
 20
110.90535
 30
0.0
  0
POINT
  5
C37E
330
C375
100
AcDbEntity
  8
_0-1_DEFPOINTS
 62
     7
100
AcDbPoint
 10
323.28994
 20
103.2097
 30
0.0
  0
ENDBLK
  5
C37F
330
C375
100
AcDbEntity
  8
0
100
AcDbBlockEnd
  0
BLOCK
  5
C381
330
C380
100
AcDbEntity
  8
0
100
AcDbBlockBegin
  2
-091-_D89
 70
     0
 10
0.0
 20
0.0
 30
0.0
  3
-091-_D89
  1

  0
LINE
  5
C382
330
C380
100
AcDbEntity
  8
_0-F_AM_5
  6
DASHED1
 62
     3
100
AcDbLine
 10
175.3615899999999
 20
39.05753
 30
0.0
 11
150.1616
 21
39.05753
 31
0.0
  0
LINE
  5
C383
330
C380
100
AcDbEntity
  8
_0-F_AM_5
  6
DASHED1
 62
     3
100
AcDbLine
 10
162.8615899999998
 20
32.05753
 30
0.0
 11
150.1616
 21
32.05753
 31
0.0
  0
LINE
  5
C384
330
C380
100
AcDbEntity
  8
_0-F_AM_5
  6
DASHED1
 62
     3
100
AcDbLine
 10
151.1616
 20
38.05753
 30
0.0
 11
151.1616
 21
33.05753
 31
0.0
  0
INSERT
  5
C385
330
C380
100
AcDbEntity
  8
_0-F_AM_5
100
AcDbBlockReference
  2
-004-_DOT
 10
151.1616
 20
39.05753
 30
0.0
 50
90.0
  0
INSERT
  5
C386
330
C380
100
AcDbEntity
  8
_0-F_AM_5
100
AcDbBlockReference
  2
-004-_DOT
 10
151.1616
 20
32.05753
 30
0.0
 50
270.0
  0
TEXT
  5
C387
330
C380
100
AcDbEntity
  8
_0-F_AM_5
 62
     7
100
AcDbText
 10
149.6616
 20
34.75753
 30
0.0
 40
3.2
  1
7
 50
90.0
100
AcDbText
  0
POINT
  5
C388
330
C380
100
AcDbEntity
  8
_0-1_DEFPOINTS
 62
     7
100
AcDbPoint
 10
176.36159
 20
39.05753
 30
0.0
  0
POINT
  5
C389
330
C380
100
AcDbEntity
  8
_0-1_DEFPOINTS
 62
     7
100
AcDbPoint
 10
163.86159
 20
32.05753
 30
0.0
  0
POINT
  5
C38A
330
C380
100
AcDbEntity
  8
_0-1_DEFPOINTS
 62
     7
100
AcDbPoint
 10
151.1616
 20
32.05753
 30
0.0
  0
ENDBLK
  5
C38B
330
C380
100
AcDbEntity
  8
0
100
AcDbBlockEnd
  0
BLOCK
  5
C38D
330
C38C
100
AcDbEntity
  8
0
100
AcDbBlockBegin
  2
-092-_D90
 70
     0
 10
0.0
 20
0.0
 30
0.0
  3
-092-_D90
  1

  0
LINE
  5
C38E
330
C38C
100
AcDbEntity
  8
_0-F_AM_5
  6
DASHED1
 62
     3
100
AcDbLine
 10
336.36159
 20
38.557542
 30
0.0
 11
336.36159
 21
14.425771
 31
0.0
  0
LINE
  5
C38F
330
C38C
100
AcDbEntity
  8
_0-F_AM_5
  6
DASHED1
 62
     3
100
AcDbLine
 10
317.36158
 20
38.55753400000001
 30
0.0
 11
317.36158
 21
14.425771
 31
0.0
  0
LINE
  5
C390
330
C38C
100
AcDbEntity
  8
_0-F_AM_5
  6
DASHED1
 62
     3
100
AcDbLine
 10
335.36159
 20
15.425771
 30
0.0
 11
318.36158
 21
15.425771
 31
0.0
  0
INSERT
  5
C391
330
C38C
100
AcDbEntity
  8
_0-F_AM_5
100
AcDbBlockReference
  2
-004-_DOT
 10
336.36159
 20
15.425771
 30
0.0
  0
INSERT
  5
C392
330
C38C
100
AcDbEntity
  8
_0-F_AM_5
100
AcDbBlockReference
  2
-004-_DOT
 10
317.36158
 20
15.425771
 30
0.0
 50
180.0
  0
TEXT
  5
C393
330
C38C
100
AcDbEntity
  8
_0-F_AM_5
 62
     7
100
AcDbText
 10
323.0569299999999
 20
16.925771
 30
0.0
 40
3.2
  1
%%c19
100
AcDbText
  0
POINT
  5
C394
330
C38C
100
AcDbEntity
  8
_0-1_DEFPOINTS
 62
     7
100
AcDbPoint
 10
336.36159
 20
39.557542
 30
0.0
  0
POINT
  5
C395
330
C38C
100
AcDbEntity
  8
_0-1_DEFPOINTS
 62
     7
100
AcDbPoint
 10
317.36158
 20
39.55753400000001
 30
0.0
  0
POINT
  5
C396
330
C38C
100
AcDbEntity
  8
_0-1_DEFPOINTS
 62
     7
100
AcDbPoint
 10
317.36158
 20
15.425771
 30
0.0
  0
ENDBLK
  5
C397
330
C38C
100
AcDbEntity
  8
0
100
AcDbBlockEnd
  0
BLOCK
  5
C399
330
C398
100
AcDbEntity
  8
0
100
AcDbBlockBegin
  2
-093-_D91
 70
     0
 10
0.0
 20
0.0
 30
0.0
  3
-093-_D91
  1

  0
LINE
  5
C39A
330
C398
100
AcDbEntity
  8
_0-F_AM_5
  6
DASHED1
 62
     3
100
AcDbLine
 10
266.64678
 20
262.05874
 30
0.0
 11
236.71644
 21
262.05874
 31
0.0
  0
LINE
  5
C39B
330
C398
100
AcDbEntity
  8
_0-F_AM_5
  6
DASHED1
 62
     3
100
AcDbLine
 10
236.71644
 20
262.05874
 30
0.0
 11
219.12874
 21
226.63527
 31
0.0
  0
TEXT
  5
C39C
330
C398
100
AcDbEntity
  8
_0-F_AM_5
 62
     7
100
AcDbText
 10
232.74811
 20
263.55874
 30
0.0
 40
3.2
  1
2-%%c6.2×+22058.2皿孔
100
AcDbText
  0
INSERT
  5
C39D
330
C398
100
AcDbEntity
  8
_0-F_AM_5
100
AcDbBlockReference
  2
-005-_OPEN30
 10
218.68404
 20
225.73959
 30
0.0
 50
243.59566
  0
POINT
  5
C39E
330
C398
100
AcDbEntity
  8
_0-1_DEFPOINTS
 62
     7
100
AcDbPoint
 10
218.68404
 20
225.73959
 30
0.0
  0
POINT
  5
C39F
330
C398
100
AcDbEntity
  8
_0-1_DEFPOINTS
 62
     7
100
AcDbPoint
 10
215.03747
 20
218.39503
 30
0.0
  0
ENDBLK
  5
C3A0
330
C398
100
AcDbEntity
  8
0
100
AcDbBlockEnd
  0
BLOCK
  5
C3A2
330
C3A1
100
AcDbEntity
  8
0
100
AcDbBlockBegin
  2
-094-_D92
 70
     0
 10
0.0
 20
0.0
 30
0.0
  3
-094-_D92
  1

  0
LINE
  5
C3A3
330
C3A1
100
AcDbEntity
  8
_0-F_AM_5
  6
DASHED1
 62
     3
100
AcDbLine
 10
321.77123
 20
233.78539
 30
0.0
 11
302.02123
 21
233.78539
 31
0.0
  0
LINE
  5
C3A4
330
C3A1
100
AcDbEntity
  8
_0-F_AM_5
  6
DASHED1
 62
     3
100
AcDbLine
 10
314.02123
 20
208.78539
 30
0.0
 11
302.02123
 21
208.78539
 31
0.0
  0
LINE
  5
C3A5
330
C3A1
100
AcDbEntity
  8
_0-F_AM_5
  6
DASHED1
 62
     3
100
AcDbLine
 10
303.02123
 20
232.78539
 30
0.0
 11
303.02123
 21
209.78539
 31
0.0
  0
INSERT
  5
C3A6
330
C3A1
100
AcDbEntity
  8
_0-F_AM_5
100
AcDbBlockReference
  2
-004-_DOT
 10
303.02123
 20
233.78539
 30
0.0
 50
90.0
  0
INSERT
  5
C3A7
330
C3A1
100
AcDbEntity
  8
_0-F_AM_5
100
AcDbBlockReference
  2
-004-_DOT
 10
303.02123
 20
208.78539
 30
0.0
 50
270.0
  0
TEXT
  5
C3A8
330
C3A1
100
AcDbEntity
  8
_0-F_AM_5
 62
     7
100
AcDbText
 10
301.52123
 20
219.54939
 30
0.0
 40
3.2
  1
25
 50
90.0
100
AcDbText
  0
POINT
  5
C3A9
330
C3A1
100
AcDbEntity
  8
_0-1_DEFPOINTS
 62
     7
100
AcDbPoint
 10
322.77123
 20
233.78539
 30
0.0
  0
POINT
  5
C3AA
330
C3A1
100
AcDbEntity
  8
_0-1_DEFPOINTS
 62
     7
100
AcDbPoint
 10
315.02123
 20
208.78539
 30
0.0
  0
POINT
  5
C3AB
330
C3A1
100
AcDbEntity
  8
_0-1_DEFPOINTS
 62
     7
100
AcDbPoint
 10
303.02123
 20
208.78539
 30
0.0
  0
ENDBLK
  5
C3AC
330
C3A1
100
AcDbEntity
  8
0
100
AcDbBlockEnd
  0
BLOCK
  5
CBF5
330
CBF4
100
AcDbEntity
  8
0
100
AcDbBlockBegin
  2
_NONE
 70
     0
 10
0.0
 20
0.0
 30
0.0
  3
_NONE
  1

  0
CIRCLE
  5
CBF6
330
CBF4
100
AcDbEntity
  8
0
  6
ByBlock
 62
     0
100
AcDbCircle
 10
0.0
 20
0.0
 30
0.0
 40
0.001
  0
ENDBLK
  5
CBF7
330
CBF4
100
AcDbEntity
  8
0
100
AcDbBlockEnd
  0
BLOCK
  5
CFA8
330
CF9E
100
AcDbEntity
  8
0
100
AcDbBlockBegin
  2
*D28
 70
     1
 10
0.0
 20
0.0
 30
0.0
  3
*D28
  1

  0
LINE
  5
D197
330
CF9E
100
AcDbEntity
  8
AM_5
100
AcDbLine
 10
203.4830587536639
 20
143.9703840139296
 30
0.0
 11
203.4830587536639
 21
134.9703840139296
 31
0.0
  0
LINE
  5
D198
330
CF9E
100
AcDbEntity
  8
AM_5
100
AcDbLine
 10
208.4830617536639
 20
160.9806234139296
 30
0.0
 11
208.4830617536639
 21
134.9703840139296
 31
0.0
  0
LINE
  5
D199
330
CF9E
100
AcDbEntity
  8
AM_5
100
AcDbLine
 10
207.4830617536639
 20
135.9703840139296
 30
0.0
 11
204.4830587536639
 21
135.9703840139296
 31
0.0
  0
LINE
  5
D19A
330
CF9E
100
AcDbEntity
  8
AM_5
100
AcDbLine
 10
203.4830587536639
 20
135.9703840139296
 30
0.0
 11
195.6020519338494
 21
135.9703840139296
 31
0.0
  0
INSERT
  5
D19B
330
CF9E
100
AcDbEntity
  8
AM_5
100
AcDbBlockReference
  2
_Dot
 10
208.4830617536639
 20
135.9703840139296
 30
0.0
  0
INSERT
  5
D19C
330
CF9E
100
AcDbEntity
  8
AM_5
100
AcDbBlockReference
  2
_Dot
 10
203.4830587536639
 20
135.9703840139296
 30
0.0
 50
180.0
  0
MTEXT
  5
D19D
330
CF9E
100
AcDbEntity
  8
AM_5
 62
     2
100
AcDbMText
 10
198.9153852671828
 20
139.0703840139296
 30
0.0
 40
3.200000000000001
 41
0.0
 71
     5
 72
     1
  1
50
 73
     1
 44
1.0
  0
POINT
  5
D19E
330
CF9E
100
AcDbEntity
  8
Defpoints
 62
     0
100
AcDbPoint
 10
203.4830587536639
 20
144.9703840139296
 30
0.0
  0
POINT
  5
D19F
330
CF9E
100
AcDbEntity
  8
Defpoints
 62
     0
100
AcDbPoint
 10
208.4830617536639
 20
161.9806234139296
 30
0.0
  0
POINT
  5
D1A0
330
CF9E
100
AcDbEntity
  8
Defpoints
 62
     0
100
AcDbPoint
 10
208.4830617536639
 20
135.9703840139296
 30
0.0
  0
ENDBLK
  5
CFA9
330
CF9E
100
AcDbEntity
  8
0
100
AcDbBlockEnd
  0
BLOCK
  5
CFE8
330
CFDE
100
AcDbEntity
  8
0
100
AcDbBlockBegin
  2
*D29
 70
     1
 10
0.0
 20
0.0
 30
0.0
  3
*D29
  1

  0
LINE
  5
D1A1
330
CFDE
100
AcDbEntity
  8
AM_5
100
AcDbLine
 10
208.4830617536639
 20
160.9806234139296
 30
0.0
 11
208.4830617536639
 21
134.9703840139294
 31
0.0
  0
LINE
  5
D1A2
330
CFDE
100
AcDbEntity
  8
AM_5
100
AcDbLine
 10
228.4830617536639
 20
160.9806234139296
 30
0.0
 11
228.4830617536639
 21
134.9703840139294
 31
0.0
  0
LINE
  5
D1A3
330
CFDE
100
AcDbEntity
  8
AM_5
100
AcDbLine
 10
209.4830617536639
 20
135.9703840139294
 30
0.0
 11
227.4830617536639
 21
135.9703840139294
 31
0.0
  0
INSERT
  5
D1A4
330
CFDE
100
AcDbEntity
  8
AM_5
100
AcDbBlockReference
  2
_Dot
 10
208.4830617536639
 20
135.9703840139294
 30
0.0
 50
180.0
  0
INSERT
  5
D1A5
330
CFDE
100
AcDbEntity
  8
AM_5
100
AcDbBlockReference
  2
_Dot
 10
228.4830617536639
 20
135.9703840139294
 30
0.0
  0
MTEXT
  5
D1A6
330
CFDE
100
AcDbEntity
  8
AM_5
 62
     2
100
AcDbMText
 10
218.4830617536639
 20
139.0703840139295
 30
0.0
 40
3.200000000000001
 41
0.0
 71
     5
 72
     1
  1
200
 73
     1
 44
1.0
  0
POINT
  5
D1A7
330
CFDE
100
AcDbEntity
  8
Defpoints
 62
     0
100
AcDbPoint
 10
208.4830617536639
 20
161.9806234139296
 30
0.0
  0
POINT
  5
D1A8
330
CFDE
100
AcDbEntity
  8
Defpoints
 62
     0
100
AcDbPoint
 10
228.4830617536639
 20
161.9806234139296
 30
0.0
  0
POINT
  5
D1A9
330
CFDE
100
AcDbEntity
  8
Defpoints
 62
     0
100
AcDbPoint
 10
228.4830617536639
 20
135.9703840139294
 30
0.0
  0
ENDBLK
  5
CFE9
330
CFDE
100
AcDbEntity
  8
0
100
AcDbBlockEnd
  0
BLOCK
  5
D009
330
CFFF
100
AcDbEntity
  8
0
100
AcDbBlockBegin
  2
*D30
 70
     1
 10
0.0
 20
0.0
 30
0.0
  3
*D30
  1

  0
LINE
  5
D1AA
330
CFFF
100
AcDbEntity
  8
AM_5
100
AcDbLine
 10
228.4830617536639
 20
160.9806234139296
 30
0.0
 11
228.4830617536639
 21
134.9703840139296
 31
0.0
  0
LINE
  5
D1AB
330
CFFF
100
AcDbEntity
  8
AM_5
100
AcDbLine
 10
378.4830547536639
 20
160.9806234139296
 30
0.0
 11
378.4830547536639
 21
134.9703840139296
 31
0.0
  0
LINE
  5
D1AC
330
CFFF
100
AcDbEntity
  8
AM_5
100
AcDbLine
 10
229.4830617536639
 20
135.9703840139296
 30
0.0
 11
377.483054753664
 21
135.9703840139296
 31
0.0
  0
INSERT
  5
D1AD
330
CFFF
100
AcDbEntity
  8
AM_5
100
AcDbBlockReference
  2
_Dot
 10
228.4830617536639
 20
135.9703840139296
 30
0.0
 50
180.0
  0
INSERT
  5
D1AE
330
CFFF
100
AcDbEntity
  8
AM_5
100
AcDbBlockReference
  2
_Dot
 10
378.4830547536639
 20
135.9703840139296
 30
0.0
  0
MTEXT
  5
D1AF
330
CFFF
100
AcDbEntity
  8
AM_5
 62
     2
100
AcDbMText
 10
303.483058253664
 20
139.0703840139296
 30
0.0
 40
3.200000000000001
 41
0.0
 71
     5
 72
     1
  1
P=375
 73
     1
 44
1.0
  0
POINT
  5
D1B0
330
CFFF
100
AcDbEntity
  8
Defpoints
 62
     0
100
AcDbPoint
 10
228.4830617536639
 20
161.9806234139296
 30
0.0
  0
POINT
  5
D1B1
330
CFFF
100
AcDbEntity
  8
Defpoints
 62
     0
100
AcDbPoint
 10
378.4830547536639
 20
161.9806234139296
 30
0.0
  0
POINT
  5
D1B2
330
CFFF
100
AcDbEntity
  8
Defpoints
 62
     0
100
AcDbPoint
 10
378.4830547536639
 20
135.9703840139296
 30
0.0
  0
ENDBLK
  5
D00A
330
CFFF
100
AcDbEntity
  8
0
100
AcDbBlockEnd
  0
BLOCK
  5
D02A
330
D020
100
AcDbEntity
  8
0
100
AcDbBlockBegin
  2
*D31
 70
     1
 10
0.0
 20
0.0
 30
0.0
  3
*D31
  1

  0
LINE
  5
D1B3
330
D020
100
AcDbEntity
  8
AM_5
100
AcDbLine
 10
398.483054753664
 20
160.9806234139296
 30
0.0
 11
398.483054753664
 21
134.9703840139294
 31
0.0
  0
LINE
  5
D1B4
330
D020
100
AcDbEntity
  8
AM_5
100
AcDbLine
 10
378.4830547536639
 20
160.9806234139296
 30
0.0
 11
378.4830547536639
 21
134.9703840139294
 31
0.0
  0
LINE
  5
D1B5
330
D020
100
AcDbEntity
  8
AM_5
100
AcDbLine
 10
397.483054753664
 20
135.9703840139294
 30
0.0
 11
379.483054753664
 21
135.9703840139294
 31
0.0
  0
INSERT
  5
D1B6
330
D020
100
AcDbEntity
  8
AM_5
100
AcDbBlockReference
  2
_Dot
 10
398.483054753664
 20
135.9703840139294
 30
0.0
  0
INSERT
  5
D1B7
330
D020
100
AcDbEntity
  8
AM_5
100
AcDbBlockReference
  2
_Dot
 10
378.4830547536639
 20
135.9703840139294
 30
0.0
 50
180.0
  0
MTEXT
  5
D1B8
330
D020
100
AcDbEntity
  8
AM_5
 62
     2
100
AcDbMText
 10
388.483054753664
 20
139.0703840139294
 30
0.0
 40
3.200000000000001
 41
0.0
 71
     5
 72
     1
  1
200
 73
     1
 44
1.0
  0
POINT
  5
D1B9
330
D020
100
AcDbEntity
  8
Defpoints
 62
     0
100
AcDbPoint
 10
398.483054753664
 20
161.9806234139296
 30
0.0
  0
POINT
  5
D1BA
330
D020
100
AcDbEntity
  8
Defpoints
 62
     0
100
AcDbPoint
 10
378.4830547536639
 20
161.9806234139296
 30
0.0
  0
POINT
  5
D1BB
330
D020
100
AcDbEntity
  8
Defpoints
 62
     0
100
AcDbPoint
 10
378.4830547536639
 20
135.9703840139294
 30
0.0
  0
ENDBLK
  5
D02B
330
D020
100
AcDbEntity
  8
0
100
AcDbBlockEnd
  0
BLOCK
  5
D04B
330
D041
100
AcDbEntity
  8
0
100
AcDbBlockBegin
  2
*D32
 70
     1
 10
0.0
 20
0.0
 30
0.0
  3
*D32
  1

  0
LINE
  5
D1BC
330
D041
100
AcDbEntity
  8
AM_5
100
AcDbLine
 10
398.483054753664
 20
160.9806234139296
 30
0.0
 11
398.483054753664
 21
134.9703840139296
 31
0.0
  0
LINE
  5
D1BD
330
D041
100
AcDbEntity
  8
AM_5
100
AcDbLine
 10
403.4830617536639
 20
143.9703840139296
 30
0.0
 11
403.4830617536639
 21
134.9703840139296
 31
0.0
  0
LINE
  5
D1BE
330
D041
100
AcDbEntity
  8
AM_5
100
AcDbLine
 10
399.483054753664
 20
135.9703840139296
 30
0.0
 11
402.4830617536639
 21
135.9703840139296
 31
0.0
  0
LINE
  5
D1BF
330
D041
100
AcDbEntity
  8
AM_5
100
AcDbLine
 10
403.4830617536639
 20
135.9703840139296
 30
0.0
 11
411.1097284203306
 21
135.9703840139296
 31
0.0
  0
INSERT
  5
D1C0
330
D041
100
AcDbEntity
  8
AM_5
100
AcDbBlockReference
  2
_Dot
 10
398.483054753664
 20
135.9703840139296
 30
0.0
 50
180.0
  0
INSERT
  5
D1C1
330
D041
100
AcDbEntity
  8
AM_5
100
AcDbBlockReference
  2
_Dot
 10
403.4830617536639
 20
135.9703840139296
 30
0.0
  0
MTEXT
  5
D1C2
330
D041
100
AcDbEntity
  8
AM_5
 62
     2
100
AcDbMText
 10
407.7963950869972
 20
139.0703840139296
 30
0.0
 40
3.200000000000001
 41
0.0
 71
     5
 72
     1
  1
50
 73
     1
 44
1.0
  0
POINT
  5
D1C3
330
D041
100
AcDbEntity
  8
Defpoints
 62
     0
100
AcDbPoint
 10
398.483054753664
 20
161.9806234139296
 30
0.0
  0
POINT
  5
D1C4
330
D041
100
AcDbEntity
  8
Defpoints
 62
     0
100
AcDbPoint
 10
403.4830617536639
 20
144.9703840139296
 30
0.0
  0
POINT
  5
D1C5
330
D041
100
AcDbEntity
  8
Defpoints
 62
     0
100
AcDbPoint
 10
403.4830617536639
 20
135.9703840139296
 30
0.0
  0
ENDBLK
  5
D04C
330
D041
100
AcDbEntity
  8
0
100
AcDbBlockEnd
  0
BLOCK
  5
D081
330
D077
100
AcDbEntity
  8
0
100
AcDbBlockBegin
  2
*D33
 70
     1
 10
0.0
 20
0.0
 30
0.0
  3
*D33
  1

  0
LINE
  5
D1C6
330
D077
100
AcDbEntity
  8
AM_5
100
AcDbLine
 10
203.4830587536639
 20
143.9703840139296
 30
0.0
 11
203.4830587536639
 21
125.97038401393
 31
0.0
  0
LINE
  5
D1C7
330
D077
100
AcDbEntity
  8
AM_5
100
AcDbLine
 10
403.4830617536639
 20
143.9703840139296
 30
0.0
 11
403.4830617536639
 21
125.97038401393
 31
0.0
  0
LINE
  5
D1C8
330
D077
100
AcDbEntity
  8
AM_5
100
AcDbLine
 10
204.4830587536639
 20
126.97038401393
 30
0.0
 11
402.4830617536639
 21
126.97038401393
 31
0.0
  0
INSERT
  5
D1C9
330
D077
100
AcDbEntity
  8
AM_5
100
AcDbBlockReference
  2
_Dot
 10
203.4830587536639
 20
126.97038401393
 30
0.0
 50
180.0
  0
INSERT
  5
D1CA
330
D077
100
AcDbEntity
  8
AM_5
100
AcDbBlockReference
  2
_Dot
 10
403.4830617536639
 20
126.97038401393
 30
0.0
  0
MTEXT
  5
D1CB
330
D077
100
AcDbEntity
  8
AM_5
 62
     2
100
AcDbMText
 10
303.483060253664
 20
130.07038401393
 30
0.0
 40
3.200000000000001
 41
0.0
 71
     5
 72
     1
  1
2000
 73
     1
 44
1.0
  0
POINT
  5
D1CC
330
D077
100
AcDbEntity
  8
Defpoints
 62
     0
100
AcDbPoint
 10
203.4830587536639
 20
144.9703840139296
 30
0.0
  0
POINT
  5
D1CD
330
D077
100
AcDbEntity
  8
Defpoints
 62
     0
100
AcDbPoint
 10
403.4830617536639
 20
144.9703840139296
 30
0.0
  0
POINT
  5
D1CE
330
D077
100
AcDbEntity
  8
Defpoints
 62
     0
100
AcDbPoint
 10
403.4830617536639
 20
126.97038401393
 30
0.0
  0
ENDBLK
  5
D082
330
D077
100
AcDbEntity
  8
0
100
AcDbBlockEnd
  0
BLOCK
  5
D0AD
330
D0A1
100
AcDbEntity
  8
0
100
AcDbBlockBegin
  2
*D34
 70
     1
 10
0.0
 20
0.0
 30
0.0
  3
*D34
  1

  0
LINE
  5
D1CF
330
D0A1
100
AcDbEntity
  8
AM_5
100
AcDbLine
 10
172.6982987536639
 20
172.1017560139296
 30
0.0
 11
172.6982987536639
 21
179.5912396280051
 31
0.0
  0
LINE
  5
D1D0
330
D0A1
100
AcDbEntity
  8
AM_5
100
AcDbLine
 10
171.1982987536639
 20
170.2703840139296
 30
0.0
 11
171.1982987536639
 21
179.5912396280051
 31
0.0
  0
LINE
  5
D1D1
330
D0A1
100
AcDbEntity
  8
AM_5
100
AcDbLine
 10
173.6982987536639
 20
178.5912396280051
 30
0.0
 11
174.6982987536639
 21
178.5912396280051
 31
0.0
  0
LINE
  5
D1D2
330
D0A1
100
AcDbEntity
  8
AM_5
100
AcDbLine
 10
170.1982987536639
 20
178.5912396280051
 30
0.0
 11
158.7316320869972
 21
178.5912396280051
 31
0.0
  0
LINE
  5
D1D3
330
D0A1
100
AcDbEntity
  8
AM_5
100
AcDbLine
 10
172.6982987536639
 20
178.5912396280051
 30
0.0
 11
171.1982987536639
 21
178.5912396280051
 31
0.0
  0
INSERT
  5
D1D4
330
D0A1
100
AcDbEntity
  8
AM_5
100
AcDbBlockReference
  2
_Dot
 10
172.6982987536639
 20
178.5912396280051
 30
0.0
 50
180.0
  0
INSERT
  5
D1D5
330
D0A1
100
AcDbEntity
  8
AM_5
100
AcDbBlockReference
  2
_Dot
 10
171.1982987536639
 20
178.5912396280051
 30
0.0
  0
MTEXT
  5
D1D6
330
D0A1
100
AcDbEntity
  8
AM_5
 62
     2
100
AcDbMText
 10
163.9649654203306
 20
182.5293348661004
 30
0.0
 40
3.200000000000001
 41
0.0
 71
     5
 72
     1
  1
(1.5)
 73
     1
 44
1.0
  0
POINT
  5
D1D7
330
D0A1
100
AcDbEntity
  8
Defpoints
 62
     0
100
AcDbPoint
 10
172.6982987536639
 20
171.1017560139296
 30
0.0
  0
POINT
  5
D1D8
330
D0A1
100
AcDbEntity
  8
Defpoints
 62
     0
100
AcDbPoint
 10
171.1982987536639
 20
169.2703840139296
 30
0.0
  0
POINT
  5
D1D9
330
D0A1
100
AcDbEntity
  8
Defpoints
 62
     0
100
AcDbPoint
 10
171.1982987536639
 20
178.5912396280051
 30
0.0
  0
ENDBLK
  5
D0AE
330
D0A1
100
AcDbEntity
  8
0
100
AcDbBlockEnd
  0
BLOCK
  5
D0E0
330
D0D6
100
AcDbEntity
  8
0
100
AcDbBlockBegin
  2
*D35
 70
     1
 10
0.0
 20
0.0
 30
0.0
  3
*D35
  1

  0
LINE
  5
D1DA
330
D0D6
100
AcDbEntity
  8
AM_5
100
AcDbLine
 10
122.1909646530181
 20
146.7703840139296
 30
0.0
 11
112.390964643018
 21
146.7703840139296
 31
0.0
  0
LINE
  5
D1DB
330
D0D6
100
AcDbEntity
  8
AM_5
100
AcDbLine
 10
122.1909646530181
 20
187.2703840139296
 30
0.0
 11
112.390964643018
 21
187.2703840139296
 31
0.0
  0
LINE
  5
D1DC
330
D0D6
100
AcDbEntity
  8
AM_5
100
AcDbLine
 10
113.390964643018
 20
147.7703840139296
 30
0.0
 11
113.390964643018
 21
186.2703840139296
 31
0.0
  0
INSERT
  5
D1DD
330
D0D6
100
AcDbEntity
  8
AM_5
100
AcDbBlockReference
  2
_Dot
 10
113.390964643018
 20
146.7703840139296
 30
0.0
 50
270.0
  0
INSERT
  5
D1DE
330
D0D6
100
AcDbEntity
  8
AM_5
100
AcDbBlockReference
  2
_Dot
 10
113.390964643018
 20
187.2703840139296
 30
0.0
 50
90.0
  0
MTEXT
  5
D1DF
330
D0D6
100
AcDbEntity
  8
AM_5
 62
     2
100
AcDbMText
 10
110.290964643018
 20
167.0203840139296
 30
0.0
 40
3.200000000000001
 41
0.0
 71
     5
 72
     1
  1
40.5
 11
0.0000000000000001
 21
1.0
 31
0.0
 73
     1
 44
1.0
  0
POINT
  5
D1E0
330
D0D6
100
AcDbEntity
  8
Defpoints
 62
     0
100
AcDbPoint
 10
123.1909646530181
 20
146.7703840139296
 30
0.0
  0
POINT
  5
D1E1
330
D0D6
100
AcDbEntity
  8
Defpoints
 62
     0
100
AcDbPoint
 10
123.1909646530181
 20
187.2703840139296
 30
0.0
  0
POINT
  5
D1E2
330
D0D6
100
AcDbEntity
  8
Defpoints
 62
     0
100
AcDbPoint
 10
113.390964643018
 20
187.2703840139296
 30
0.0
  0
ENDBLK
  5
D0E1
330
D0D6
100
AcDbEntity
  8
0
100
AcDbBlockEnd
  0
BLOCK
  5
D101
330
D0F7
100
AcDbEntity
  8
0
100
AcDbBlockBegin
  2
*D36
 70
     1
 10
0.0
 20
0.0
 30
0.0
  3
*D36
  1

  0
LINE
  5
D1E3
330
D0F7
100
AcDbEntity
  8
AM_5
100
AcDbLine
 10
122.1909646530181
 20
189.0703930139296
 30
0.0
 11
103.3909646430181
 21
189.0703930139296
 31
0.0
  0
LINE
  5
D1E4
330
D0F7
100
AcDbEntity
  8
AM_5
100
AcDbLine
 10
122.1909646530181
 20
144.9703810039296
 30
0.0
 11
103.3909646430181
 21
144.9703810039296
 31
0.0
  0
LINE
  5
D1E5
330
D0F7
100
AcDbEntity
  8
AM_5
100
AcDbLine
 10
104.3909646430181
 20
188.0703930139296
 30
0.0
 11
104.3909646430181
 21
145.9703810039296
 31
0.0
  0
INSERT
  5
D1E6
330
D0F7
100
AcDbEntity
  8
AM_5
100
AcDbBlockReference
  2
_Dot
 10
104.3909646430181
 20
189.0703930139296
 30
0.0
 50
90.0
  0
INSERT
  5
D1E7
330
D0F7
100
AcDbEntity
  8
AM_5
100
AcDbBlockReference
  2
_Dot
 10
104.3909646430181
 20
144.9703810039296
 30
0.0
 50
270.0
  0
MTEXT
  5
D1E8
330
D0F7
100
AcDbEntity
  8
AM_5
 62
     2
100
AcDbMText
 10
101.290964643018
 20
167.0203870089296
 30
0.0
 40
3.200000000000001
 41
0.0
 71
     5
 72
     1
  1
44
 11
0.0000000000000001
 21
1.0
 31
0.0
 73
     1
 44
1.0
  0
POINT
  5
D1E9
330
D0F7
100
AcDbEntity
  8
Defpoints
 62
     0
100
AcDbPoint
 10
123.1909646530181
 20
189.0703930139296
 30
0.0
  0
POINT
  5
D1EA
330
D0F7
100
AcDbEntity
  8
Defpoints
 62
     0
100
AcDbPoint
 10
123.1909646530181
 20
144.9703810039296
 30
0.0
  0
POINT
  5
D1EB
330
D0F7
100
AcDbEntity
  8
Defpoints
 62
     0
100
AcDbPoint
 10
104.3909646430181
 20
144.9703810039296
 30
0.0
  0
ENDBLK
  5
D102
330
D0F7
100
AcDbEntity
  8
0
100
AcDbBlockEnd
  0
BLOCK
  5
D12D
330
D121
100
AcDbEntity
  8
0
100
AcDbBlockBegin
  2
*D37
 70
     1
 10
0.0
 20
0.0
 30
0.0
  3
*D37
  1

  0
LINE
  5
D1EC
330
D121
100
AcDbEntity
  8
AM_5
100
AcDbLine
 10
129.1909746630181
 20
144.7703960139296
 30
0.0
 11
129.1909746630181
 21
134.970356702451
 31
0.0
  0
LINE
  5
D1ED
330
D121
100
AcDbEntity
  8
AM_5
100
AcDbLine
 10
128.390974653018
 20
144.7703960139296
 30
0.0
 11
128.390974653018
 21
134.970356702451
 31
0.0
  0
LINE
  5
D1EE
330
D121
100
AcDbEntity
  8
AM_5
100
AcDbLine
 10
127.390974653018
 20
135.970356702451
 30
0.0
 11
126.390974653018
 21
135.970356702451
 31
0.0
  0
LINE
  5
D1EF
330
D121
100
AcDbEntity
  8
AM_5
100
AcDbLine
 10
130.1909746630181
 20
135.970356702451
 30
0.0
 11
138.8843079963514
 21
135.970356702451
 31
0.0
  0
LINE
  5
D1F0
330
D121
100
AcDbEntity
  8
AM_5
100
AcDbLine
 10
128.390974653018
 20
135.970356702451
 30
0.0
 11
129.1909746630181
 21
135.970356702451
 31
0.0
  0
INSERT
  5
D1F1
330
D121
100
AcDbEntity
  8
AM_5
100
AcDbBlockReference
  2
_Dot
 10
128.390974653018
 20
135.970356702451
 30
0.0
  0
INSERT
  5
D1F2
330
D121
100
AcDbEntity
  8
AM_5
100
AcDbBlockReference
  2
_Dot
 10
129.1909746630181
 20
135.970356702451
 30
0.0
 50
180.0
  0
MTEXT
  5
D1F3
330
D121
100
AcDbEntity
  8
AM_5
 62
     2
100
AcDbMText
 10
135.0376413296847
 20
139.070356702451
 30
0.0
 40
3.200000000000001
 41
0.0
 71
     5
 72
     1
  1
0.8
 73
     1
 44
1.0
  0
POINT
  5
D1F4
330
D121
100
AcDbEntity
  8
Defpoints
 62
     0
100
AcDbPoint
 10
129.1909746630181
 20
145.7703960139296
 30
0.0
  0
POINT
  5
D1F5
330
D121
100
AcDbEntity
  8
Defpoints
 62
     0
100
AcDbPoint
 10
128.390974653018
 20
145.7703960139296
 30
0.0
  0
POINT
  5
D1F6
330
D121
100
AcDbEntity
  8
Defpoints
 62
     0
100
AcDbPoint
 10
128.390974653018
 20
135.970356702451
 30
0.0
  0
ENDBLK
  5
D12E
330
D121
100
AcDbEntity
  8
0
100
AcDbBlockEnd
  0
BLOCK
  5
D15E
330
D153
100
AcDbEntity
  8
0
100
AcDbBlockBegin
  2
*D38
 70
     1
 10
0.0
 20
0.0
 30
0.0
  3
*D38
  1

  0
LINE
  5
D1F7
330
D153
100
AcDbEntity
  8
AM_5
100
AcDbLine
 10
129.1909746630181
 20
144.7703960139296
 30
0.0
 11
129.1909746630181
 21
125.97038401393
 31
0.0
  0
LINE
  5
D1F8
330
D153
100
AcDbEntity
  8
AM_5
100
AcDbLine
 10
122.390974653018
 20
144.8703810139296
 30
0.0
 11
122.390974653018
 21
125.97038401393
 31
0.0
  0
LINE
  5
D1F9
330
D153
100
AcDbEntity
  8
AM_5
100
AcDbLine
 10
128.1909746630181
 20
126.97038401393
 30
0.0
 11
123.390974653018
 21
126.97038401393
 31
0.0
  0
INSERT
  5
D1FA
330
D153
100
AcDbEntity
  8
AM_5
100
AcDbBlockReference
  2
_Dot
 10
129.1909746630181
 20
126.97038401393
 30
0.0
  0
INSERT
  5
D1FB
330
D153
100
AcDbEntity
  8
AM_5
100
AcDbBlockReference
  2
_Dot
 10
122.390974653018
 20
126.97038401393
 30
0.0
 50
180.0
  0
MTEXT
  5
D1FC
330
D153
100
AcDbEntity
  8
AM_5
 62
     2
100
AcDbMText
 10
125.7909746580181
 20
130.07038401393
 30
0.0
 40
3.200000000000001
 41
0.0
 71
     5
 72
     1
  1
7
 73
     1
 44
1.0
  0
POINT
  5
D1FD
330
D153
100
AcDbEntity
  8
Defpoints
 62
     0
100
AcDbPoint
 10
129.1909746630181
 20
145.7703960139296
 30
0.0
  0
POINT
  5
D1FE
330
D153
100
AcDbEntity
  8
Defpoints
 62
     0
100
AcDbPoint
 10
122.390974653018
 20
145.8703810139296
 30
0.0
  0
POINT
  5
D1FF
330
D153
100
AcDbEntity
  8
Defpoints
 62
     0
100
AcDbPoint
 10
122.390974653018
 20
126.97038401393
 30
0.0
  0
ENDBLK
  5
D15F
330
D153
100
AcDbEntity
  8
0
100
AcDbBlockEnd
  0
BLOCK
  5
D181
330
D177
100
AcDbEntity
  8
0
100
AcDbBlockBegin
  2
*D39
 70
     1
 10
0.0
 20
0.0
 30
0.0
  3
*D39
  1

  0
LINE
  5
D200
330
D177
100
AcDbEntity
  8
AM_5
100
AcDbLine
 10
140.190974663018
 20
192.6703840139296
 30
0.0
 11
140.190974663018
 21
202.4703830139296
 31
0.0
  0
LINE
  5
D201
330
D177
100
AcDbEntity
  8
AM_5
100
AcDbLine
 10
122.390974653018
 20
189.0703870139296
 30
0.0
 11
122.390974653018
 21
202.4703830139296
 31
0.0
  0
LINE
  5
D202
330
D177
100
AcDbEntity
  8
AM_5
100
AcDbLine
 10
139.190974663018
 20
201.4703830139296
 30
0.0
 11
123.390974653018
 21
201.4703830139296
 31
0.0
  0
INSERT
  5
D203
330
D177
100
AcDbEntity
  8
AM_5
100
AcDbBlockReference
  2
_Dot
 10
140.190974663018
 20
201.4703830139296
 30
0.0
  0
INSERT
  5
D204
330
D177
100
AcDbEntity
  8
AM_5
100
AcDbBlockReference
  2
_Dot
 10
122.390974653018
 20
201.4703830139296
 30
0.0
 50
180.0
  0
MTEXT
  5
D205
330
D177
100
AcDbEntity
  8
AM_5
 62
     2
100
AcDbMText
 10
131.290974658018
 20
204.5703830139296
 30
0.0
 40
3.200000000000001
 41
0.0
 71
     5
 72
     1
  1
18
 73
     1
 44
1.0
  0
POINT
  5
D206
330
D177
100
AcDbEntity
  8
Defpoints
 62
     0
100
AcDbPoint
 10
140.190974663018
 20
191.6703840139296
 30
0.0
  0
POINT
  5
D207
330
D177
100
AcDbEntity
  8
Defpoints
 62
     0
100
AcDbPoint
 10
122.390974653018
 20
188.0703870139296
 30
0.0
  0
POINT
  5
D208
330
D177
100
AcDbEntity
  8
Defpoints
 62
     0
100
AcDbPoint
 10
122.390974653018
 20
201.4703830139296
 30
0.0
  0
ENDBLK
  5
D182
330
D177
100
AcDbEntity
  8
0
100
AcDbBlockEnd
  0
BLOCK
  5
D213
330
D20A
100
AcDbEntity
  8
0
100
AcDbBlockBegin
  2
*D40
 70
     1
 10
0.0
 20
0.0
 30
0.0
  3
*D40
  1

  0
LINE
  5
D290
330
D20A
100
AcDbEntity
  8
AM_5
100
AcDbLine
 10
271.5538235462517
 20
200.6012785675034
 30
0.0
 11
243.5791568795851
 21
200.6012785675033
 31
0.0
  0
LINE
  5
D291
330
D20A
100
AcDbEntity
  8
AM_5
100
AcDbLine
 10
243.5791568795851
 20
200.6012785675033
 30
0.0
 11
230.8405862192763
 21
172.2648420730349
 31
0.0
  0
LINE
  5
D292
330
D20A
100
AcDbEntity
  8
AM_5
100
AcDbLine
 10
226.1255372880515
 20
161.7764059548242
 30
0.0
 11
225.3054946074513
 21
159.952254096564
 31
0.0
  0
MTEXT
  5
D293
330
D20A
100
AcDbEntity
  8
AM_5
 62
     2
100
AcDbMText
 10
258.3164902129184
 20
203.7012785675033
 30
0.0
 40
3.200000000000001
 41
0.0
 71
     5
 72
     1
  1
7-%%c4.5×\U+22057.5サラ
 73
     1
 44
1.0
  0
LINE
  5
D294
330
D20A
100
AcDbEntity
  8
AM_5
100
AcDbLine
 10
226.9455799686516
 20
163.6005578130843
 30
0.0
 11
230.0205435386761
 21
170.4406902147747
 31
0.0
  0
INSERT
  5
D295
330
D20A
100
AcDbEntity
  8
AM_5
100
AcDbBlockReference
  2
GENDOT
 10
226.9455799686516
 20
163.6005578130843
 30
0.0
 41
2.0
 42
2.0
 43
2.0
 50
65.79382462736799
  0
INSERT
  5
D296
330
D20A
100
AcDbEntity
  8
AM_5
100
AcDbBlockReference
  2
GENDOT
 10
230.0205435386761
 20
170.4406902147747
 30
0.0
 41
2.0
 42
2.0
 43
2.0
 50
245.793824627368
  0
POINT
  5
D297
330
D20A
100
AcDbEntity
  8
Defpoints
 62
     0
100
AcDbPoint
 10
230.0205435386761
 20
170.4406902147747
 30
0.0
  0
POINT
  5
D298
330
D20A
100
AcDbEntity
  8
Defpoints
 62
     0
100
AcDbPoint
 10
226.9455799686516
 20
163.6005578130843
 30
0.0
  0
ENDBLK
  5
D214
330
D20A
100
AcDbEntity
  8
0
100
AcDbBlockEnd
  0
BLOCK
  5
D24A
330
D247
100
AcDbEntity
  8
0
100
AcDbBlockBegin
  2
GENDOT
 70
     0
 10
0.0
 20
0.0
 30
0.0
  3
GENDOT
  1

  0
LINE
  5
D248
330
D247
100
AcDbEntity
  8
0
100
AcDbLine
 10
0.0
 20
0.0
 30
0.0
 11
-1.0
 21
0.0
 31
0.0
  0
LWPOLYLINE
  5
D249
330
D247
100
AcDbEntity
  8
0
100
AcDbPolyline
 90
        2
 70
     1
 43
0.25
 10
-0.125
 20
0.0
 42
1.0
 10
0.125
 20
0.0
 42
1.0
  0
ENDBLK
  5
D24B
330
D247
100
AcDbEntity
  8
0
100
AcDbBlockEnd
  0
ENDSEC
  0
SECTION
  2
ENTITIES
  0
POINT
  5
C4A8
330
1F
100
AcDbEntity
  8
_0-0_0
 62
     7
100
AcDbPoint
 10
64.49209546397469
 20
44.75327701392961
 30
0.0
  0
POINT
  5
C4AA
330
1F
100
AcDbEntity
  8
_0-0_0
 62
     7
100
AcDbPoint
 10
64.49209546397469
 20
44.75327701392961
 30
0.0
  0
LINE
  5
CBB5
330
1F
100
AcDbEntity
  8
_0-2_SIZE
  6
Continuous
 62
     5
100
AcDbLine
 10
64.49209546397469
 20
44.75327701392961
 30
0.0
 11
484.4920954639746
 21
44.75327701392961
 31
0.0
  0
LINE
  5
CBB6
330
1F
100
AcDbEntity
  8
_0-2_SIZE
  6
Continuous
 62
     5
100
AcDbLine
 10
64.49209546397469
 20
341.7532770139296
 30
0.0
 11
64.49209546397469
 21
44.75327701392961
 31
0.0
  0
LINE
  5
CBB7
330
1F
100
AcDbEntity
  8
_0-3_WAKU
  6
Continuous
 62
     7
100
AcDbLine
 10
464.9920954639745
 20
56.75327701392961
 30
0.0
 11
464.9920954639745
 21
329.7532770139296
 31
0.0
  0
LINE
  5
CBB8
330
1F
100
AcDbEntity
  8
_0-3_WAKU
  6
Continuous
 62
     7
100
AcDbLine
 10
83.9920954639747
 20
329.7532770139296
 30
0.0
 11
83.9920954639747
 21
56.75327701392961
 31
0.0
  0
LINE
  5
CBB9
330
1F
100
AcDbEntity
  8
_0-3_WAKU
  6
Continuous
 62
     7
100
AcDbLine
 10
464.9920954639745
 20
329.7532770139296
 30
0.0
 11
83.9920954639747
 21
329.7532770139296
 31
0.0
  0
LINE
  5
CBBA
330
1F
100
AcDbEntity
  8
_0-3_WAKU
  6
Continuous
 62
     7
100
AcDbLine
 10
83.9920954639747
 20
56.75327701392961
 30
0.0
 11
464.9920954639745
 21
56.75327701392961
 31
0.0
  0
LINE
  5
CBBE
330
1F
100
AcDbEntity
  8
_0-2_SIZE
  6
Continuous
 62
     5
100
AcDbLine
 10
484.4920954639746
 20
341.7532770139296
 30
0.0
 11
484.4920954639746
 21
44.75327701392961
 31
0.0
  0
LINE
  5
CBBF
330
1F
100
AcDbEntity
  8
_0-2_SIZE
  6
Continuous
 62
     5
100
AcDbLine
 10
64.49209546397469
 20
341.7532770139296
 30
0.0
 11
484.4920954639746
 21
341.7532770139296
 31
0.0
  0
POINT
  5
CD7D
330
1F
100
AcDbEntity
  8
0
  6
Continuous
 62
     7
100
AcDbPoint
 10
107.9920954639747
 20
269.7532770139296
 30
0.0
  0
POINT
  5
CD7E
330
1F
100
AcDbEntity
  8
0
  6
Continuous
 62
     7
100
AcDbPoint
 10
107.9920954639747
 20
261.7532770139296
 30
0.0
  0
POINT
  5
CD7F
330
1F
100
AcDbEntity
  8
0
  6
Continuous
 62
     7
100
AcDbPoint
 10
107.9920954639747
 20
253.7532770139296
 30
0.0
  0
POINT
  5
CD80
330
1F
100
AcDbEntity
  8
0
  6
Continuous
 62
     7
100
AcDbPoint
 10
228.4830617536639
 20
167.0203840139296
 30
0.0
  0
LINE
  5
CD81
330
1F
100
AcDbEntity
  8
0
  6
Continuous
 62
     7
100
AcDbLine
 10
103.9920954639747
 20
329.7532770139296
 30
0.0
 11
103.9920954639747
 21
249.7532770139296
 31
0.0
  0
LINE
  5
CD82
330
1F
100
AcDbEntity
  8
0
  6
Continuous
 62
     7
100
AcDbLine
 10
83.9920954639747
 20
321.7532770139296
 30
0.0
 11
193.9920954639747
 21
321.7532770139296
 31
0.0
  0
LINE
  5
CD83
330
1F
100
AcDbEntity
  8
0
  6
Continuous
 62
     7
100
AcDbLine
 10
83.9920954639747
 20
313.7532770139296
 30
0.0
 11
193.9920954639747
 21
313.7532770139296
 31
0.0
  0
LINE
  5
CD84
330
1F
100
AcDbEntity
  8
0
  6
Continuous
 62
     7
100
AcDbLine
 10
83.9920954639747
 20
305.7532770139296
 30
0.0
 11
193.9920954639747
 21
305.7532770139296
 31
0.0
  0
LINE
  5
CD85
330
1F
100
AcDbEntity
  8
0
  6
Continuous
 62
     7
100
AcDbLine
 10
83.9920954639747
 20
297.7532770139296
 30
0.0
 11
193.9920954639747
 21
297.7532770139296
 31
0.0
  0
LINE
  5
CD86
330
1F
100
AcDbEntity
  8
0
  6
Continuous
 62
     7
100
AcDbLine
 10
103.9920954639747
 20
289.7532770139296
 30
0.0
 11
193.9920954639747
 21
289.7532770139296
 31
0.0
  0
LINE
  5
CD87
330
1F
100
AcDbEntity
  8
0
  6
Continuous
 62
     7
100
AcDbLine
 10
103.9920954639747
 20
281.7532770139296
 30
0.0
 11
193.9920954639747
 21
281.7532770139296
 31
0.0
  0
LINE
  5
CD88
330
1F
100
AcDbEntity
  8
0
  6
Continuous
 62
     7
100
AcDbLine
 10
83.9920954639747
 20
273.7532770139296
 30
0.0
 11
193.9920954639747
 21
273.7532770139296
 31
0.0
  0
LINE
  5
CD89
330
1F
100
AcDbEntity
  8
0
  6
Continuous
 62
     7
100
AcDbLine
 10
103.9920954639747
 20
265.7532770139296
 30
0.0
 11
193.9920954639747
 21
265.7532770139296
 31
0.0
  0
LINE
  5
CD8A
330
1F
100
AcDbEntity
  8
0
  6
Continuous
 62
     7
100
AcDbLine
 10
103.9920954639747
 20
257.7532770139296
 30
0.0
 11
193.9920954639747
 21
257.7532770139296
 31
0.0
  0
LINE
  5
CD8B
330
1F
100
AcDbEntity
  8
0
  6
Continuous
 62
     7
100
AcDbLine
 10
83.9920954639747
 20
249.7532770139296
 30
0.0
 11
193.9920954639747
 21
249.7532770139296
 31
0.0
  0
LINE
  5
CD8C
330
1F
100
AcDbEntity
  8
0
  6
Continuous
 62
     7
100
AcDbLine
 10
193.9920954639747
 20
329.7532770139296
 30
0.0
 11
193.9920954639747
 21
249.7532770139296
 31
0.0
  0
LINE
  5
CD8D
330
1F
100
AcDbEntity
  8
0
  6
CENTER
 62
     7
100
AcDbLine
 10
198.4830587536639
 20
167.0203840139296
 30
0.0
 11
408.4830587536639
 21
167.0203840139296
 31
0.0
  0
LINE
  5
CD8E
330
1F
100
AcDbEntity
  8
0
  6
Continuous
 62
     7
100
AcDbLine
 10
203.4830587536639
 20
192.4703830139296
 30
0.0
 11
203.4830587536639
 21
144.9703840139296
 31
0.0
  0
LINE
  5
CD8F
330
1F
100
AcDbEntity
  8
0
  6
Continuous
 62
     7
100
AcDbLine
 10
403.4830617536639
 20
192.4703830139296
 30
0.0
 11
403.4830617536639
 21
144.9703840139296
 31
0.0
  0
LINE
  5
CD90
102
{ACAD_REACTORS
330
D02D
330
D04E
102
}
330
1F
100
AcDbEntity
  8
0
  6
CENTER
 62
     7
100
AcDbLine
 10
398.483054753664
 20
172.0606250139296
 30
0.0
 11
398.483054753664
 21
161.9806234139296
 31
0.0
  0
LINE
  5
CD91
330
1F
100
AcDbEntity
  8
0
  6
CENTER
 62
     7
100
AcDbLine
 10
392.9819477536639
 20
167.0214290139296
 30
0.0
 11
403.9799497536639
 21
167.0214290139296
 31
0.0
  0
LINE
  5
CD92
330
1F
100
AcDbEntity
  8
0
  6
CENTER
 62
     7
100
AcDbLine
 10
372.9818947536639
 20
167.0214290139296
 30
0.0
 11
383.981894753664
 21
167.0214290139296
 31
0.0
  0
LINE
  5
CD93
102
{ACAD_REACTORS
330
D00C
330
D02D
102
}
330
1F
100
AcDbEntity
  8
0
  6
CENTER
 62
     7
100
AcDbLine
 10
378.4830547536639
 20
172.0606250139296
 30
0.0
 11
378.4830547536639
 21
161.9806234139296
 31
0.0
  0
LINE
  5
CD94
330
1F
100
AcDbEntity
  8
0
  6
CENTER
 62
     7
100
AcDbLine
 10
297.969065553664
 20
167.0327250139296
 30
0.0
 11
308.9690640536639
 21
167.0327250139296
 31
0.0
  0
LINE
  5
CD95
330
1F
100
AcDbEntity
  8
0
  6
CENTER
 62
     7
100
AcDbLine
 10
335.5315777536639
 20
167.0219250139296
 30
0.0
 11
346.5315777536639
 21
167.0219250139296
 31
0.0
  0
LINE
  5
CD96
330
1F
100
AcDbEntity
  8
0
  6
CENTER
 62
     7
100
AcDbLine
 10
373.043753753664
 20
167.0219250139296
 30
0.0
 11
384.043753753664
 21
167.0219250139296
 31
0.0
  0
LINE
  5
CD97
330
1F
100
AcDbEntity
  8
0
  6
CENTER
 62
     7
100
AcDbLine
 10
403.5230627536638
 20
167.0206240139296
 30
0.0
 11
393.443060753664
 21
167.0206240139296
 31
0.0
  0
LINE
  5
CD98
330
1F
100
AcDbEntity
  8
0
  6
CENTER
 62
     7
100
AcDbLine
 10
303.483058053664
 20
172.0606250139296
 30
0.0
 11
303.483058053664
 21
161.9806234139296
 31
0.0
  0
LINE
  5
CD99
330
1F
100
AcDbEntity
  8
0
  6
CENTER
 62
     7
100
AcDbLine
 10
340.9830547536639
 20
172.0606250139296
 30
0.0
 11
340.9830547536639
 21
161.9806234139296
 31
0.0
  0
LINE
  5
CD9A
102
{ACAD_REACTORS
330
CFAB
330
D04E
330
D084
102
}
330
1F
100
AcDbEntity
  8
0
  6
Continuous
 62
     7
100
AcDbLine
 10
203.4830587536639
 20
144.9703840139296
 30
0.0
 11
403.4830617536639
 21
144.9703840139296
 31
0.0
  0
LINE
  5
CD9B
330
1F
100
AcDbEntity
  8
0
  6
CENTER
 62
     7
100
AcDbLine
 10
265.9830547536639
 20
172.0606250139296
 30
0.0
 11
265.9830547536639
 21
162.6084959139296
 31
0.0
  0
LINE
  5
CDB1
330
1F
100
AcDbEntity
  8
0
  6
Continuous
 62
     7
100
AcDbLine
 10
167.4982887536639
 20
146.7703840139296
 30
0.0
 11
171.6982987536639
 21
146.7703840139296
 31
0.0
  0
LINE
  5
CDB2
330
1F
100
AcDbEntity
  8
0
  6
Continuous
 62
     7
100
AcDbLine
 10
167.5982987536639
 20
188.0703870139296
 30
0.0
 11
171.6982987536639
 21
188.0703870139296
 31
0.0
  0
LINE
  5
CDB3
330
1F
100
AcDbEntity
  8
0
  6
Continuous
 62
     7
100
AcDbLine
 10
171.6982987536639
 20
146.7703840139296
 30
0.0
 11
171.6982987536639
 21
145.9703810139296
 31
0.0
  0
LINE
  5
CDB4
330
1F
100
AcDbEntity
  8
0
  6
Continuous
 62
     7
100
AcDbLine
 10
166.6982987536639
 20
188.2703880139296
 30
0.0
 11
166.6982987536639
 21
188.0703870139296
 31
0.0
  0
LINE
  5
CDB5
330
1F
100
AcDbEntity
  8
0
  6
Continuous
 62
     7
100
AcDbLine
 10
167.4983087536639
 20
144.9703780139296
 30
0.0
 11
172.6982987536639
 21
144.9703780139296
 31
0.0
  0
LINE
  5
CDB6
330
1F
100
AcDbEntity
  8
0
  6
Continuous
 62
     7
100
AcDbLine
 10
167.4983087536639
 20
145.7703960139296
 30
0.0
 11
172.6982987536639
 21
145.7703960139296
 31
0.0
  0
LINE
  5
CDB7
330
1F
100
AcDbEntity
  8
0
  6
Continuous
 62
     7
100
AcDbLine
 10
166.6982987536639
 20
145.7703810139296
 30
0.0
 11
166.6982987536639
 21
145.9703810139296
 31
0.0
  0
LINE
  5
CDB8
330
1F
100
AcDbEntity
  8
0
  6
Continuous
 62
     7
100
AcDbLine
 10
172.6982987536639
 20
191.6703840139296
 30
0.0
 11
172.6982987536639
 21
171.1017530139296
 31
0.0
  0
LINE
  5
CDB9
330
1F
100
AcDbEntity
  8
0
  6
Continuous
 62
     7
100
AcDbLine
 10
173.4983087536639
 20
190.8703810139296
 30
0.0
 11
173.4983087536639
 21
171.1017560139296
 31
0.0
  0
LINE
  5
CDBA
330
1F
100
AcDbEntity
  8
0
  6
Continuous
 62
     7
100
AcDbLine
 10
167.4982887536639
 20
187.2703840139296
 30
0.0
 11
171.6982987536639
 21
187.2703840139296
 31
0.0
  0
LINE
  5
CDBB
330
1F
100
AcDbEntity
  8
0
  6
Continuous
 62
     7
100
AcDbLine
 10
171.6982987536639
 20
187.2703840139296
 30
0.0
 11
171.6982987536639
 21
188.0703870139296
 31
0.0
  0
LINE
  5
CDBC
330
1F
100
AcDbEntity
  8
0
  6
Continuous
 62
     7
100
AcDbLine
 10
167.5982987536639
 20
188.2703880139296
 30
0.0
 11
171.8982987536639
 21
188.2703880139296
 31
0.0
  0
LINE
  5
CDBD
330
1F
100
AcDbEntity
  8
0
  6
Continuous
 62
     7
100
AcDbLine
 10
167.4982887536639
 20
189.0703930139296
 30
0.0
 11
171.8982987536639
 21
189.0703930139296
 31
0.0
  0
LINE
  5
CDBE
330
1F
100
AcDbEntity
  8
0
  6
Continuous
 62
     7
100
AcDbLine
 10
171.8983187536639
 20
191.6703840139296
 30
0.0
 11
171.8983187536639
 21
189.0703850139296
 31
0.0
  0
LINE
  5
CDBF
330
1F
100
AcDbEntity
  8
0
  6
Continuous
 62
     7
100
AcDbLine
 10
172.6982987536639
 20
191.6703840139296
 30
0.0
 11
183.6982987536639
 21
191.6703840139296
 31
0.0
  0
LINE
  5
CDC0
330
1F
100
AcDbEntity
  8
0
  6
Continuous
 62
     7
100
AcDbLine
 10
173.4982887536639
 20
190.8703810139296
 30
0.0
 11
183.6982987536639
 21
190.8703810139296
 31
0.0
  0
LINE
  5
CDC1
330
1F
100
AcDbEntity
  8
0
  6
Continuous
 62
     7
100
AcDbLine
 10
172.6982987536639
 20
192.4703830139296
 30
0.0
 11
183.6982987536639
 21
192.4703830139296
 31
0.0
  0
LINE
  5
CDC2
330
1F
100
AcDbEntity
  8
0
  6
CENTER
 62
     7
100
AcDbLine
 10
167.4982887536639
 20
167.0203840139296
 30
0.0
 11
183.9492687536639
 21
167.0203840139296
 31
0.0
  0
LINE
  5
CDC3
330
1F
100
AcDbEntity
  8
0
  6
Continuous
 62
     7
100
AcDbLine
 10
167.5982987536639
 20
145.9703810139296
 30
0.0
 11
171.6982987536639
 21
145.9703810139296
 31
0.0
  0
LINE
  5
CDC4
330
1F
100
AcDbEntity
  8
0
  6
Continuous
 62
     7
100
AcDbLine
 10
173.4983087536639
 20
162.9390132139296
 30
0.0
 11
173.4983087536639
 21
145.7703960139296
 31
0.0
  0
LINE
  5
CDC5
330
1F
100
AcDbEntity
  8
0
  6
Continuous
 62
     7
100
AcDbLine
 10
172.6982987536639
 20
162.9390165139296
 30
0.0
 11
172.6982987536639
 21
145.7703850139296
 31
0.0
  0
LINE
  5
CDC6
330
1F
100
AcDbEntity
  8
0
  6
Continuous
 62
     7
100
AcDbLine
 10
171.1982987536639
 20
164.7703840139296
 30
0.0
 11
171.1982987536639
 21
167.0203840139296
 31
0.0
  0
LINE
  5
CDC7
330
1F
100
AcDbEntity
  8
0
  6
Continuous
 62
     7
100
AcDbLine
 10
171.4326187536639
 20
169.8360680139296
 30
0.0
 11
172.6982987536639
 21
171.1017520139296
 31
0.0
  0
LINE
  5
CDC8
102
{ACAD_REACTORS
330
D0B0
102
}
330
1F
100
AcDbEntity
  8
0
  6
Continuous
 62
     7
100
AcDbLine
 10
171.1982987536639
 20
169.2703840139296
 30
0.0
 11
171.1982987536639
 21
167.0203840139296
 31
0.0
  0
LINE
  5
CDC9
330
1F
100
AcDbEntity
  8
0
  6
Continuous
 62
     7
100
AcDbLine
 10
171.4326187536639
 20
164.2047049139296
 30
0.0
 11
172.6982987536639
 21
162.9390222139296
 31
0.0
  0
LINE
  5
CDCA
330
1F
100
AcDbEntity
  8
0
  6
Continuous
 62
     7
100
AcDbLine
 10
171.9983087536639
 20
164.7703935139296
 30
0.0
 11
173.2639887536639
 21
163.5047051139296
 31
0.0
  0
LINE
  5
CDCB
330
1F
100
AcDbEntity
  8
0
  6
Continuous
 62
     7
100
AcDbLine
 10
171.9983087536639
 20
164.7703840139296
 30
0.0
 11
171.9983087536639
 21
169.2703850139296
 31
0.0
  0
LINE
  5
CDCC
330
1F
100
AcDbEntity
  8
0
  6
Continuous
 62
     7
100
AcDbLine
 10
171.9983087536639
 20
169.2703800139296
 30
0.0
 11
173.2639887536639
 21
170.5360690139296
 31
0.0
  0
LINE
  5
CDCD
330
1F
100
AcDbEntity
  8
0
  6
Continuous
 62
     7
100
AcDbLine
 10
171.2592187536639
 20
169.5765280139296
 30
0.0
 11
171.9983087536639
 21
169.2703860139296
 31
0.0
  0
LINE
  5
CDCE
330
1F
100
AcDbEntity
  8
0
  6
Continuous
 62
     7
100
AcDbLine
 10
171.2591987536639
 20
164.4642369139296
 30
0.0
 11
171.9983087536639
 21
164.7703850139296
 31
0.0
  0
LINE
  5
CDCF
330
1F
100
AcDbEntity
  8
0
  6
Continuous
 62
     7
100
AcDbLine
 10
203.4830587536639
 20
192.4703830139296
 30
0.0
 11
403.4830617536639
 21
192.4703830139296
 31
0.0
  0
LINE
  5
CDD0
330
1F
100
AcDbEntity
  8
0
  6
Continuous
 62
     7
100
AcDbLine
 10
203.4830587536639
 20
190.8703810139296
 30
0.0
 11
403.4830617536639
 21
190.8703810139296
 31
0.0
  0
LINE
  5
CDD1
102
{ACAD_REACTORS
330
CFAB
330
CFEB
102
}
330
1F
100
AcDbEntity
  8
0
  6
CENTER
 62
     7
100
AcDbLine
 10
208.4830617536639
 20
172.0606250139296
 30
0.0
 11
208.4830617536639
 21
161.9806234139296
 31
0.0
  0
LINE
  5
CDD2
102
{ACAD_REACTORS
330
CFEB
330
D00C
102
}
330
1F
100
AcDbEntity
  8
0
  6
CENTER
 62
     7
100
AcDbLine
 10
228.4830617536639
 20
172.0606250139296
 30
0.0
 11
228.4830617536639
 21
161.9806234139296
 31
0.0
  0
LINE
  5
CDD3
330
1F
100
AcDbEntity
  8
0
  6
CENTER
 62
     7
100
AcDbLine
 10
203.4430487536639
 20
167.0206240139296
 30
0.0
 11
213.5230557536639
 21
167.0206240139296
 31
0.0
  0
CIRCLE
  5
CDD4
330
1F
100
AcDbEntity
  8
0
  6
Continuous
 62
     7
100
AcDbCircle
 10
265.983058753664
 20
167.0206240139296
 30
0.0
 40
3.749760399999999
  0
CIRCLE
  5
CDD5
330
1F
100
AcDbEntity
  8
0
  6
Continuous
 62
     7
100
AcDbCircle
 10
265.983058753664
 20
167.0206240139296
 30
0.0
 40
2.249760399999999
  0
CIRCLE
  5
CDD6
330
1F
100
AcDbEntity
  8
0
  6
Continuous
 62
     7
100
AcDbCircle
 10
378.4830547536639
 20
167.0206240139296
 30
0.0
 40
2.249760399999999
  0
CIRCLE
  5
CDD7
330
1F
100
AcDbEntity
  8
0
  6
Continuous
 62
     7
100
AcDbCircle
 10
378.4830547536639
 20
167.0206240139296
 30
0.0
 40
3.749760399999999
  0
CIRCLE
  5
CDD8
330
1F
100
AcDbEntity
  8
0
  6
Continuous
 62
     7
100
AcDbCircle
 10
303.4830604536639
 20
167.0206240139296
 30
0.0
 40
2.249760399999999
  0
CIRCLE
  5
CDD9
330
1F
100
AcDbEntity
  8
0
  6
Continuous
 62
     7
100
AcDbCircle
 10
303.4830604536639
 20
167.0206240139296
 30
0.0
 40
3.749760399999999
  0
CIRCLE
  5
CDDA
330
1F
100
AcDbEntity
  8
0
  6
Continuous
 62
     7
100
AcDbCircle
 10
398.483054753664
 20
167.0206240139296
 30
0.0
 40
2.249760399999999
  0
CIRCLE
  5
CDDB
330
1F
100
AcDbEntity
  8
0
  6
Continuous
 62
     7
100
AcDbCircle
 10
398.483054753664
 20
167.0206240139296
 30
0.0
 40
3.749760399999999
  0
CIRCLE
  5
CDDC
330
1F
100
AcDbEntity
  8
0
  6
Continuous
 62
     7
100
AcDbCircle
 10
340.983058753664
 20
167.0206240139296
 30
0.0
 40
2.249760399999999
  0
CIRCLE
  5
CDDD
330
1F
100
AcDbEntity
  8
0
  6
Continuous
 62
     7
100
AcDbCircle
 10
340.983058753664
 20
167.0206240139296
 30
0.0
 40
3.749760399999999
  0
ARC
  5
CDE9
330
1F
100
AcDbEntity
  8
0
  6
Continuous
 62
     7
100
AcDbCircle
 10
167.4982887536639
 20
145.9703810139296
 30
0.0
 40
0.8000000099999999
100
AcDbArc
 50
90.0
 51
180.0
  0
ARC
  5
CDEA
330
1F
100
AcDbEntity
  8
0
  6
Continuous
 62
     7
100
AcDbCircle
 10
167.5982987536639
 20
188.1703870139296
 30
0.0
 40
0.1
100
AcDbArc
 50
90.0
 51
270.0
  0
ARC
  5
CDEB
330
1F
100
AcDbEntity
  8
0
  6
Continuous
 62
     7
100
AcDbCircle
 10
167.4982887536639
 20
145.7703810139296
 30
0.0
 40
0.8000000099999999
100
AcDbArc
 50
180.0
 51
270.0
  0
ARC
  5
CDEC
330
1F
100
AcDbEntity
  8
0
  6
Continuous
 62
     7
100
AcDbCircle
 10
167.4982887536639
 20
188.0703870139296
 30
0.0
 40
0.8000000099999999
100
AcDbArc
 50
180.0
 51
270.0
  0
ARC
  5
CDED
330
1F
100
AcDbEntity
  8
0
  6
Continuous
 62
     7
100
AcDbCircle
 10
167.5982987536639
 20
145.8703810139296
 30
0.0
 40
0.1
100
AcDbArc
 50
90.0
 51
270.0
  0
ARC
  5
CDEE
330
1F
100
AcDbEntity
  8
0
  6
Continuous
 62
     7
100
AcDbCircle
 10
172.6982987536639
 20
145.7703960139296
 30
0.0
 40
0.8000000099999999
100
AcDbArc
 50
270.0
 51
0.0
  0
ARC
  5
CDEF
330
1F
100
AcDbEntity
  8
0
  6
Continuous
 62
     7
100
AcDbCircle
 10
171.8982987536639
 20
189.0703930139296
 30
0.0
 40
0.8000000099999999
100
AcDbArc
 50
270.0
 51
0.0
  0
ARC
  5
CDF0
330
1F
100
AcDbEntity
  8
0
  6
Continuous
 62
     7
100
AcDbCircle
 10
167.4982887536639
 20
188.2703880139296
 30
0.0
 40
0.8000000099999999
100
AcDbArc
 50
90.0
 51
180.0
  0
ARC
  5
CDF1
330
1F
100
AcDbEntity
  8
0
  6
Continuous
 62
     7
100
AcDbCircle
 10
173.4982887536639
 20
190.8703810139296
 30
0.0
 40
0.8000000099999999
100
AcDbArc
 50
90.0
 51
180.0
  0
ARC
  5
CDF2
330
1F
100
AcDbEntity
  8
0
  6
Continuous
 62
     7
100
AcDbCircle
 10
183.6982987536639
 20
191.6703840139296
 30
0.0
 40
0.8000000099999999
100
AcDbArc
 50
270.0
 51
90.0
  0
ARC
  5
CDF3
330
1F
100
AcDbEntity
  8
0
  6
Continuous
 62
     7
100
AcDbCircle
 10
172.6982987536639
 20
191.6703840139296
 30
0.0
 40
0.8000000099999999
100
AcDbArc
 50
90.0
 51
180.0
  0
ARC
  5
CDF4
330
1F
100
AcDbEntity
  8
0
  6
Continuous
 62
     7
100
AcDbCircle
 10
171.9983087536639
 20
169.2703840139296
 30
0.0
 40
0.8000000099999999
100
AcDbArc
 50
135.0001400000007
 51
180.0
  0
ARC
  5
CDF5
330
1F
100
AcDbEntity
  8
0
  6
Continuous
 62
     7
100
AcDbCircle
 10
171.9983087536639
 20
164.7703840139296
 30
0.0
 40
0.8000000099999999
100
AcDbArc
 50
180.0
 51
224.9998299999993
  0
ARC
  5
CDF6
330
1F
100
AcDbEntity
  8
0
  6
Continuous
 62
     7
100
AcDbCircle
 10
172.6982987536639
 20
162.9390132139296
 30
0.0
 40
0.8000000099999999
100
AcDbArc
 50
0.0
 51
44.99983099999968
  0
ARC
  5
CDF7
102
{ACAD_REACTORS
330
D0B0
102
}
330
1F
100
AcDbEntity
  8
0
  6
Continuous
 62
     7
100
AcDbCircle
 10
172.6982987536639
 20
171.1017560139296
 30
0.0
 40
0.8000000099999999
100
AcDbArc
 50
315.0001400000007
 51
0.0
  0
CIRCLE
  5
CDF8
330
1F
100
AcDbEntity
  8
0
  6
Continuous
 62
     7
100
AcDbCircle
 10
228.4830617536639
 20
167.0206240139296
 30
0.0
 40
2.249760399999999
  0
CIRCLE
  5
CDF9
102
{ACAD_REACTORS
330
D216
102
}
330
1F
100
AcDbEntity
  8
0
  6
Continuous
 62
     7
100
AcDbCircle
 10
228.4830617536639
 20
167.0206240139296
 30
0.0
 40
3.749760399999999
  0
CIRCLE
  5
CDFA
330
1F
100
AcDbEntity
  8
0
  6
Continuous
 62
     7
100
AcDbCircle
 10
208.4830617536639
 20
167.0206240139296
 30
0.0
 40
2.249760399999999
  0
CIRCLE
  5
CDFB
330
1F
100
AcDbEntity
  8
0
  6
Continuous
 62
     7
100
AcDbCircle
 10
208.4830617536639
 20
167.0206240139296
 30
0.0
 40
3.749760399999999
  0
TEXT
  5
CDFC
330
1F
100
AcDbEntity
  8
0
  6
Continuous
 62
     7
100
AcDbText
 10
107.0915654639747
 20
268.1532770139296
 30
0.0
 40
3.2
  1
品番中のＡ表示は取付孔加工無し、Ｂ表示は取付孔加工付を示しています。
 41
0.6630126999999999
100
AcDbText
  0
TEXT
  5
CDFD
330
1F
100
AcDbEntity
  8
0
  6
Continuous
 62
     7
100
AcDbText
 10
89.64909546397469
 20
324.1532770139296
 30
0.0
 40
3.2
  1
品　名
 41
0.85537027
100
AcDbText
  0
TEXT
  5
CDFE
330
1F
100
AcDbEntity
  8
0
  6
Continuous
 62
     7
100
AcDbText
 10
89.64909546397469
 20
316.1532770139296
 30
0.0
 40
3.2
  1
品　番
 41
0.85537027
100
AcDbText
  0
TEXT
  5
CDFF
330
1F
100
AcDbEntity
  8
0
  6
Continuous
 62
     7
100
AcDbText
 10
106.8490954639747
 20
324.1532770139296
 30
0.0
 40
3.2
  1
ステンレスエッジ（４０ｍｍ）
 41
0.84326962
100
AcDbText
  0
TEXT
  5
CE00
330
1F
100
AcDbEntity
  8
0
  6
Continuous
 62
     7
100
AcDbText
 10
89.64909546397469
 20
308.1532770139296
 30
0.0
 40
3.2
  1
材　質
 41
0.85537027
100
AcDbText
  0
TEXT
  5
CE01
330
1F
100
AcDbEntity
  8
0
  6
Continuous
 62
     7
100
AcDbText
 10
89.64909546397469
 20
300.1532770139296
 30
0.0
 40
3.2
  1
仕上げ
 41
0.85537027
100
AcDbText
  0
TEXT
  5
CE02
330
1F
100
AcDbEntity
  8
0
  6
Continuous
 62
     7
100
AcDbText
 10
106.8490954639747
 20
276.1532770139296
 30
0.0
 40
3.2
  1
＊
 41
0.90047268
100
AcDbText
  0
TEXT
  5
CE03
330
1F
100
AcDbEntity
  8
0
  6
Continuous
 62
     7
100
AcDbText
 10
106.8490954639747
 20
284.1532770139296
 30
0.0
 40
3.2
  1
＊
 41
0.90047268
100
AcDbText
  0
TEXT
  5
CE04
330
1F
100
AcDbEntity
  8
0
  6
Continuous
 62
     7
100
AcDbText
 10
86.44909546397469
 20
292.1532770139296
 30
0.0
 40
3.2
  1
セットビス
 41
0.84892707
100
AcDbText
  0
TEXT
  5
CE05
330
1F
100
AcDbEntity
  8
0
  6
Continuous
 62
     7
100
AcDbText
 10
106.8490954639747
 20
292.1532770139296
 30
0.0
 40
3.2
  1
＊
 41
0.90047268
100
AcDbText
  0
TEXT
  5
CE06
330
1F
100
AcDbEntity
  8
0
  6
Continuous
 62
     7
100
AcDbText
 10
106.8490954639747
 20
300.1532770139296
 30
0.0
 40
3.2
  1
ヘアーライン
 41
0.84741102
100
AcDbText
  0
TEXT
  5
CE07
330
1F
100
AcDbEntity
  8
0
  6
Continuous
 62
     7
100
AcDbText
 10
91.2490954639747
 20
268.1532770139296
 30
0.0
 40
3.2
  1
備考
 41
0.8643907499999999
100
AcDbText
  0
TEXT
  5
CE08
330
1F
100
AcDbEntity
  8
0
  6
Continuous
 62
     7
100
AcDbText
 10
106.8490954639747
 20
308.1532770139296
 30
0.0
 40
3.2
  1
ステンレス
 41
0.84892707
100
AcDbText
  0
TEXT
  5
CE09
330
1F
100
AcDbEntity
  8
0
  6
Continuous
 62
     7
100
AcDbText
 10
106.8490954639747
 20
316.1532770139296
 30
0.0
 40
3.2
  1
ＬＲ－６１Ａ（Ｂ）
 41
0.84496202
100
AcDbText
  0
TEXT
  5
CE0B
330
1F
100
AcDbEntity
  8
0
  6
Continuous
 62
     7
100
AcDbText
 10
106.8490954639747
 20
260.1532770139296
 30
0.0
 40
3.2
  1
定尺（Ａ）：２０００，４０００　定尺（Ｂ）：２０００
 41
0.8418981199999999
100
AcDbText
  0
TEXT
  5
CE0C
330
1F
100
AcDbEntity
  8
0
  6
Continuous
 62
     7
100
AcDbText
 10
106.8490954639747
 20
252.1532770139296
 30
0.0
 40
3.2
  1
スクリーン用
 41
0.84741102
100
AcDbText
  0
LINE
  5
CF67
102
{ACAD_REACTORS
330
D0E3
102
}
330
1F
100
AcDbEntity
  8
0
  6
Continuous
 62
     7
100
AcDbLine
 10
123.1909646530181
 20
146.7703840139296
 30
0.0
 11
127.390974653018
 21
146.7703840139296
 31
0.0
  0
LINE
  5
CF68
330
1F
100
AcDbEntity
  8
0
  6
Continuous
 62
     7
100
AcDbLine
 10
123.2909746530181
 20
188.0703870139296
 30
0.0
 11
127.390974653018
 21
188.0703870139296
 31
0.0
  0
LINE
  5
CF69
330
1F
100
AcDbEntity
  8
0
  6
Continuous
 62
     7
100
AcDbLine
 10
127.390974653018
 20
146.7703840139296
 30
0.0
 11
127.390974653018
 21
145.9703810139296
 31
0.0
  0
LINE
  5
CF6A
102
{ACAD_REACTORS
330
D184
102
}
330
1F
100
AcDbEntity
  8
0
  6
Continuous
 62
     7
100
AcDbLine
 10
122.390974653018
 20
188.2703880139296
 30
0.0
 11
122.390974653018
 21
188.0703870139296
 31
0.0
  0
LINE
  5
CF6B
330
1F
100
AcDbEntity
  8
0
  6
Continuous
 62
     7
100
AcDbLine
 10
123.190984653018
 20
144.9703780139296
 30
0.0
 11
128.390974653018
 21
144.9703780139296
 31
0.0
  0
LINE
  5
CF6C
330
1F
100
AcDbEntity
  8
0
  6
Continuous
 62
     7
100
AcDbLine
 10
123.190984653018
 20
145.7703960139296
 30
0.0
 11
128.390974653018
 21
145.7703960139296
 31
0.0
  0
LINE
  5
CF6D
330
1F
100
AcDbEntity
  8
0
  6
Continuous
 62
     7
100
AcDbLine
 10
122.390974653018
 20
145.7703810139296
 30
0.0
 11
122.390974653018
 21
145.9703810139296
 31
0.0
  0
LINE
  5
CF6E
102
{ACAD_REACTORS
330
D130
102
}
330
1F
100
AcDbEntity
  8
0
  6
Continuous
 62
     7
100
AcDbLine
 10
128.390974653018
 20
191.6703840139296
 30
0.0
 11
128.390974653018
 21
145.7703960139296
 31
0.0
  0
LINE
  5
CF6F
102
{ACAD_REACTORS
330
D130
330
D161
102
}
330
1F
100
AcDbEntity
  8
0
  6
Continuous
 62
     7
100
AcDbLine
 10
129.190984653018
 20
190.8703810139296
 30
0.0
 11
129.1909746630181
 21
145.7703960139296
 31
0.0
  0
LINE
  5
CF70
102
{ACAD_REACTORS
330
D0E3
102
}
330
1F
100
AcDbEntity
  8
0
  6
Continuous
 62
     7
100
AcDbLine
 10
123.1909646530181
 20
187.2703840139296
 30
0.0
 11
127.390974653018
 21
187.2703840139296
 31
0.0
  0
LINE
  5
CF71
330
1F
100
AcDbEntity
  8
0
  6
Continuous
 62
     7
100
AcDbLine
 10
127.390974653018
 20
187.2703840139296
 30
0.0
 11
127.390974653018
 21
188.0703870139296
 31
0.0
  0
LINE
  5
CF72
330
1F
100
AcDbEntity
  8
0
  6
Continuous
 62
     7
100
AcDbLine
 10
123.2909746530181
 20
188.2703880139296
 30
0.0
 11
127.5909746530181
 21
188.2703880139296
 31
0.0
  0
LINE
  5
CF73
102
{ACAD_REACTORS
330
D104
102
}
330
1F
100
AcDbEntity
  8
0
  6
Continuous
 62
     7
100
AcDbLine
 10
123.1909646530181
 20
189.0703930139296
 30
0.0
 11
127.5909746530181
 21
189.0703930139296
 31
0.0
  0
LINE
  5
CF74
330
1F
100
AcDbEntity
  8
0
  6
Continuous
 62
     7
100
AcDbLine
 10
127.590994653018
 20
191.6703840139296
 30
0.0
 11
127.590994653018
 21
189.0703850139296
 31
0.0
  0
LINE
  5
CF75
330
1F
100
AcDbEntity
  8
0
  6
Continuous
 62
     7
100
AcDbLine
 10
128.390974653018
 20
191.6703840139296
 30
0.0
 11
139.3909746530181
 21
191.6703840139296
 31
0.0
  0
LINE
  5
CF76
330
1F
100
AcDbEntity
  8
0
  6
Continuous
 62
     7
100
AcDbLine
 10
129.1909646530181
 20
190.8703810139296
 30
0.0
 11
139.3909746530181
 21
190.8703810139296
 31
0.0
  0
LINE
  5
CF77
330
1F
100
AcDbEntity
  8
0
  6
Continuous
 62
     7
100
AcDbLine
 10
128.390974653018
 20
192.4703830139296
 30
0.0
 11
139.3909746530181
 21
192.4703830139296
 31
0.0
  0
LINE
  5
CF78
330
1F
100
AcDbEntity
  8
0
  6
CENTER
 62
     7
100
AcDbLine
 10
123.1909646530181
 20
167.0203840139296
 30
0.0
 11
139.641944653018
 21
167.0203840139296
 31
0.0
  0
LINE
  5
CF79
330
1F
100
AcDbEntity
  8
0
  6
Continuous
 62
     7
100
AcDbLine
 10
123.2909746530181
 20
145.9703810139296
 30
0.0
 11
127.390974653018
 21
145.9703810139296
 31
0.0
  0
ARC
  5
CF85
330
1F
100
AcDbEntity
  8
0
  6
Continuous
 62
     7
100
AcDbCircle
 10
123.1909646530181
 20
145.9703810139296
 30
0.0
 40
0.8000000099999999
100
AcDbArc
 50
90.0
 51
180.0
  0
ARC
  5
CF86
330
1F
100
AcDbEntity
  8
0
  6
Continuous
 62
     7
100
AcDbCircle
 10
123.2909746530181
 20
188.1703870139296
 30
0.0
 40
0.1
100
AcDbArc
 50
90.0
 51
270.0
  0
ARC
  5
CF87
102
{ACAD_REACTORS
330
D104
102
}
330
1F
100
AcDbEntity
  8
0
  6
Continuous
 62
     7
100
AcDbCircle
 10
123.1909646530181
 20
145.7703810139296
 30
0.0
 40
0.8000000099999999
100
AcDbArc
 50
180.0
 51
270.0
  0
ARC
  5
CF88
330
1F
100
AcDbEntity
  8
0
  6
Continuous
 62
     7
100
AcDbCircle
 10
123.1909646530181
 20
188.0703870139296
 30
0.0
 40
0.8000000099999999
100
AcDbArc
 50
180.0
 51
270.0
  0
ARC
  5
CF89
330
1F
100
AcDbEntity
  8
0
  6
Continuous
 62
     7
100
AcDbCircle
 10
123.2909746530181
 20
145.8703810139296
 30
0.0
 40
0.1
100
AcDbArc
 50
90.0
 51
270.0
  0
ARC
  5
CF8A
330
1F
100
AcDbEntity
  8
0
  6
Continuous
 62
     7
100
AcDbCircle
 10
128.390974653018
 20
145.7703960139296
 30
0.0
 40
0.8000000099999999
100
AcDbArc
 50
270.0
 51
0.0
  0
ARC
  5
CF8B
330
1F
100
AcDbEntity
  8
0
  6
Continuous
 62
     7
100
AcDbCircle
 10
127.5909746530181
 20
189.0703930139296
 30
0.0
 40
0.8000000099999999
100
AcDbArc
 50
270.0
 51
0.0
  0
ARC
  5
CF8C
330
1F
100
AcDbEntity
  8
0
  6
Continuous
 62
     7
100
AcDbCircle
 10
123.1909646530181
 20
188.2703880139296
 30
0.0
 40
0.8000000099999999
100
AcDbArc
 50
90.0
 51
180.0
  0
ARC
  5
CF8D
330
1F
100
AcDbEntity
  8
0
  6
Continuous
 62
     7
100
AcDbCircle
 10
129.1909646530181
 20
190.8703810139296
 30
0.0
 40
0.8000000099999999
100
AcDbArc
 50
90.0
 51
180.0
  0
ARC
  5
CF8E
330
1F
100
AcDbEntity
  8
0
  6
Continuous
 62
     7
100
AcDbCircle
 10
139.3909746530181
 20
191.6703840139296
 30
0.0
 40
0.8000000099999999
100
AcDbArc
 50
270.0
 51
90.0
  0
ARC
  5
CF8F
330
1F
100
AcDbEntity
  8
0
  6
Continuous
 62
     7
100
AcDbCircle
 10
128.390974653018
 20
191.6703840139296
 30
0.0
 40
0.8000000099999999
100
AcDbArc
 50
90.0
 51
180.0
  0
DIMENSION
  5
CF9D
102
{ACAD_XDICTIONARY
360
CFAA
102
}
102
{ACAD_REACTORS
330
CFAB
102
}
330
1F
100
AcDbEntity
  8
AM_5
100
AcDbDimension
  2
*D28
 10
208.4830617536639
 20
135.9703840139296
 30
0.0
 11
198.9153852671828
 21
135.9703840139296
 31
0.0
 70
   160
  1
50
 71
     5
 42
5.000002999999992
  3
SYS$0
100
AcDbAlignedDimension
 13
203.4830587536639
 23
144.9703840139296
 33
0.0
 14
208.4830617536639
 24
161.9806234139296
 34
0.0
 50
0.0000000000001132
100
AcDbRotatedDimension
1001
ACAD
1000
DSTYLE
1002
{
1070
    49
1040
0.0
1002
}
  0
DIMENSION
  5
CFDD
102
{ACAD_XDICTIONARY
360
CFEA
102
}
102
{ACAD_REACTORS
330
CFEB
102
}
330
1F
100
AcDbEntity
  8
AM_5
100
AcDbDimension
  2
*D29
 10
228.4830617536639
 20
135.9703840139294
 30
0.0
 11
218.4830617536639
 21
139.0703840139295
 31
0.0
 70
    32
  1
200
 71
     5
 42
20.0
  3
SYS$0
100
AcDbAlignedDimension
 13
208.4830617536639
 23
161.9806234139296
 33
0.0
 14
228.4830617536639
 24
161.9806234139296
 34
0.0
 50
0.0000000000001132
100
AcDbRotatedDimension
1001
ACAD
1000
DSTYLE
1002
{
1070
    49
1040
0.0
1002
}
  0
DIMENSION
  5
CFFE
102
{ACAD_XDICTIONARY
360
D00B
102
}
102
{ACAD_REACTORS
330
D00C
102
}
330
1F
100
AcDbEntity
  8
AM_5
100
AcDbDimension
  2
*D30
 10
378.4830547536639
 20
135.9703840139296
 30
0.0
 11
303.483058253664
 21
139.0703840139296
 31
0.0
 70
    32
  1
P=375
 71
     5
 42
149.999993
  3
SYS$0
100
AcDbAlignedDimension
 13
228.4830617536639
 23
161.9806234139296
 33
0.0
 14
378.4830547536639
 24
161.9806234139296
 34
0.0
 50
0.0000000000001132
100
AcDbRotatedDimension
1001
ACAD
1000
DSTYLE
1002
{
1070
    49
1040
0.0
1002
}
  0
DIMENSION
  5
D01F
102
{ACAD_XDICTIONARY
360
D02C
102
}
102
{ACAD_REACTORS
330
D02D
102
}
330
1F
100
AcDbEntity
  8
AM_5
100
AcDbDimension
  2
*D31
 10
378.4830547536639
 20
135.9703840139294
 30
0.0
 11
388.483054753664
 21
139.0703840139294
 31
0.0
 70
    32
  1
200
 71
     5
 42
20.0
  3
SYS$0
100
AcDbAlignedDimension
 13
398.483054753664
 23
161.9806234139296
 33
0.0
 14
378.4830547536639
 24
161.9806234139296
 34
0.0
 50
0.0000000000001132
100
AcDbRotatedDimension
1001
ACAD
1000
DSTYLE
1002
{
1070
    49
1040
0.0
1002
}
  0
DIMENSION
  5
D040
102
{ACAD_XDICTIONARY
360
D04D
102
}
102
{ACAD_REACTORS
330
D04E
102
}
330
1F
100
AcDbEntity
  8
AM_5
100
AcDbDimension
  2
*D32
 10
403.4830617536639
 20
135.9703840139296
 30
0.0
 11
407.7963950869972
 21
139.0703840139296
 31
0.0
 70
    32
  1
50
 71
     5
 42
5.000006999999982
  3
SYS$0
100
AcDbAlignedDimension
 13
398.483054753664
 23
161.9806234139296
 33
0.0
 14
403.4830617536639
 24
144.9703840139296
 34
0.0
 50
0.0000000000001132
100
AcDbRotatedDimension
1001
ACAD
1000
DSTYLE
1002
{
1070
    49
1040
0.0
1002
}
  0
DIMENSION
  5
D076
102
{ACAD_XDICTIONARY
360
D083
102
}
102
{ACAD_REACTORS
330
D084
102
}
330
1F
100
AcDbEntity
  8
AM_5
100
AcDbDimension
  2
*D33
 10
403.4830617536639
 20
126.97038401393
 30
0.0
 11
303.483060253664
 21
130.07038401393
 31
0.0
 70
    32
  1
2000
 71
     5
 42
200.000003
  3
SYS$0
100
AcDbAlignedDimension
 13
203.4830587536639
 23
144.9703840139296
 33
0.0
 14
403.4830617536639
 24
144.9703840139296
 34
0.0
 50
0.0000000000001132
100
AcDbRotatedDimension
1001
ACAD
1000
DSTYLE
1002
{
1070
    49
1040
0.0
1002
}
  0
DIMENSION
  5
D0A0
102
{ACAD_XDICTIONARY
360
D0AF
102
}
102
{ACAD_REACTORS
330
D0B0
102
}
330
1F
100
AcDbEntity
  8
AM_5
100
AcDbDimension
  2
*D34
 10
171.1982987536639
 20
178.5912396280051
 30
0.0
 11
163.9649654203306
 21
182.5293348661004
 31
0.0
 70
    32
  1
(<>)
 71
     5
 42
1.5
  3
SYS$0
100
AcDbAlignedDimension
 13
172.6982987536639
 23
171.1017560139296
 33
0.0
 14
171.1982987536639
 24
169.2703840139296
 34
0.0
100
AcDbRotatedDimension
1001
ACAD
1000
DSTYLE
1002
{
1070
    49
1040
0.0
1002
}
  0
DIMENSION
  5
D0D5
102
{ACAD_XDICTIONARY
360
D0E2
102
}
102
{ACAD_REACTORS
330
D0E3
102
}
330
1F
100
AcDbEntity
  8
AM_5
100
AcDbDimension
  2
*D35
 10
113.390964643018
 20
187.2703840139296
 30
0.0
 11
110.290964643018
 21
167.0203840139296
 31
0.0
 70
    32
 71
     5
 42
40.49999999999999
  3
SYS$0
100
AcDbAlignedDimension
 13
123.1909646530181
 23
146.7703840139296
 33
0.0
 14
123.1909646530181
 24
187.2703840139296
 34
0.0
 50
90.0
100
AcDbRotatedDimension
1001
ACAD
1000
DSTYLE
1002
{
1070
    49
1040
0.0
1002
}
  0
DIMENSION
  5
D0F6
102
{ACAD_XDICTIONARY
360
D103
102
}
102
{ACAD_REACTORS
330
D104
102
}
330
1F
100
AcDbEntity
  8
AM_5
100
AcDbDimension
  2
*D36
 10
104.3909646430181
 20
144.9703810039296
 30
0.0
 11
101.290964643018
 21
167.0203870089296
 31
0.0
 70
    32
 71
     5
 42
44.10001201
  3
SYS$0
100
AcDbAlignedDimension
 13
123.1909646530181
 23
189.0703930139296
 33
0.0
 14
123.1909646530181
 24
144.9703810039296
 34
0.0
 50
90.0
100
AcDbRotatedDimension
1001
ACAD
1000
DSTYLE
1002
{
1070
   271
1070
     0
1002
}
  0
DIMENSION
  5
D120
102
{ACAD_XDICTIONARY
360
D12F
102
}
102
{ACAD_REACTORS
330
D130
102
}
330
1F
100
AcDbEntity
  8
AM_5
100
AcDbDimension
  2
*D37
 10
128.390974653018
 20
135.970356702451
 30
0.0
 11
135.0376413296847
 21
135.970356702451
 31
0.0
 70
   160
 71
     5
 42
0.8000000100000193
  3
SYS$0
100
AcDbAlignedDimension
 13
129.1909746630181
 23
145.7703960139296
 33
0.0
 14
128.390974653018
 24
145.7703960139296
 34
0.0
 50
359.999987308536
100
AcDbRotatedDimension
1001
ACAD
1000
DSTYLE
1002
{
1070
    49
1040
0.0
1002
}
  0
DIMENSION
  5
D152
102
{ACAD_XDICTIONARY
360
D160
102
}
102
{ACAD_REACTORS
330
D161
102
}
330
1F
100
AcDbEntity
  8
AM_5
100
AcDbDimension
  2
*D38
 10
122.390974653018
 20
126.97038401393
 30
0.0
 11
125.7909746580181
 21
130.07038401393
 31
0.0
 70
    32
 71
     5
 42
6.800000010000033
  3
SYS$0
100
AcDbAlignedDimension
 13
129.1909746630181
 23
145.7703960139296
 33
0.0
 14
122.390974653018
 24
145.8703810139296
 34
0.0
 50
359.999987308536
100
AcDbRotatedDimension
1001
ACAD
1000
DSTYLE
1002
{
1070
   271
1070
     0
1002
}
  0
DIMENSION
  5
D176
102
{ACAD_XDICTIONARY
360
D183
102
}
102
{ACAD_REACTORS
330
D184
102
}
330
1F
100
AcDbEntity
  8
AM_5
100
AcDbDimension
  2
*D39
 10
122.390974653018
 20
201.4703830139296
 30
0.0
 11
131.290974658018
 21
204.5703830139296
 31
0.0
 70
    32
 71
     5
 42
17.80000000999999
  3
SYS$0
100
AcDbAlignedDimension
 13
140.190974663018
 23
191.6703840139296
 33
0.0
 14
122.390974653018
 24
188.0703870139296
 34
0.0
100
AcDbRotatedDimension
1001
ACAD
1000
DSTYLE
1002
{
1070
    49
1040
0.0
1070
   271
1070
     0
1002
}
  0
DIMENSION
  5
D209
102
{ACAD_XDICTIONARY
360
D215
102
}
102
{ACAD_REACTORS
330
D216
102
}
330
1F
100
AcDbEntity
  8
AM_5
100
AcDbDimension
  2
*D40
 10
226.9455799686516
 20
163.6005578130843
 30
0.0
 11
258.3164902129184
 21
200.6012785675033
 31
0.0
 70
   163
  1
7-%%c4.5×<>.5サラ
 71
     5
 42
7.49952079999997
  3
SYS$3
100
AcDbDiametricDimension
 15
230.0205435386761
 25
170.4406902147747
 35
0.0
 40
0.0
1001
ACAD
1000
DSTYLE
1002
{
1070
   172
1070
     1
1070
   271
1070
     0
1070
   342
1005
D247
1002
}
  0
ENDSEC
  0
SECTION
  2
OBJECTS
  0
DICTIONARY
  5
C
330
0
100
AcDbDictionary
281
     1
  3
ACAD_2007HEADERVARS_RT
350
D2B6
  3
ACAD_BGPLOT_KEY
350
AB06
  3
ACAD_COLOR
350
A91D
  3
ACAD_GROUP
350
D
  3
ACAD_LAYOUT
350
1A
  3
ACAD_MATERIAL
350
A91C
  3
ACAD_MLINESTYLE
350
17
  3
ACAD_PLOTSETTINGS
350
19
  3
ACAD_PLOTSTYLENAME
350
E
  3
ACAD_TABLESTYLE
350
AAB9
  3
ACAD_VISUALSTYLE
350
CB29
  3
AcAsAppObject
350
3DA1
  3
ACASGREF_MASTER
350
3DE9
  3
AcDbVariableDictionary
350
34
  3
AcmDictionary
350
47
  3
AD_GREF_MODULE
350
3DEA
  3
AD_MAPI_MODULE
350
3E06
  3
AMG
350
2B
  3
AMGSNAPSETTINGS
350
7D
  3
ASE_INDEX_DICTIONARY
350
9F48
  3
MAPISURF_MODULE
350
3DEB
  0
DICTIONARY
  5
3F95
330
2
100
AcDbDictionary
280
     1
281
     1
  3
ACAD_LAYERFILTERS
360
C291
  3
ACAD_LAYERSTATES
360
3F96
  3
ACLYDICTIONARY
360
C290
  3
AMLAYER_GROUPCOLORS
360
AAB4
  0
DICTIONARY
  5
8A
330
1F
100
AcDbDictionary
280
     1
281
     1
  3
ACAD_SORTENTS
360
C57F
  0
DICTIONARY
  5
CFAA
330
CF9D
100
AcDbDictionary
280
     1
281
     1
  3
ACAD_DIMASSOC
360
CFAB
  0
DICTIONARY
  5
CFEA
330
CFDD
100
AcDbDictionary
280
     1
281
     1
  3
ACAD_DIMASSOC
360
CFEB
  0
DICTIONARY
  5
D00B
330
CFFE
100
AcDbDictionary
280
     1
281
     1
  3
ACAD_DIMASSOC
360
D00C
  0
DICTIONARY
  5
D02C
330
D01F
100
AcDbDictionary
280
     1
281
     1
  3
ACAD_DIMASSOC
360
D02D
  0
DICTIONARY
  5
D04D
330
D040
100
AcDbDictionary
280
     1
281
     1
  3
ACAD_DIMASSOC
360
D04E
  0
DICTIONARY
  5
D083
330
D076
100
AcDbDictionary
280
     1
281
     1
  3
ACAD_DIMASSOC
360
D084
  0
DICTIONARY
  5
D0AF
330
D0A0
100
AcDbDictionary
280
     1
281
     1
  3
ACAD_DIMASSOC
360
D0B0
  0
DICTIONARY
  5
D0E2
330
D0D5
100
AcDbDictionary
280
     1
281
     1
  3
ACAD_DIMASSOC
360
D0E3
  0
DICTIONARY
  5
D103
330
D0F6
100
AcDbDictionary
280
     1
281
     1
  3
ACAD_DIMASSOC
360
D104
  0
DICTIONARY
  5
D12F
330
D120
100
AcDbDictionary
280
     1
281
     1
  3
ACAD_DIMASSOC
360
D130
  0
DICTIONARY
  5
D160
330
D152
100
AcDbDictionary
280
     1
281
     1
  3
ACAD_DIMASSOC
360
D161
  0
DICTIONARY
  5
D183
330
D176
100
AcDbDictionary
280
     1
281
     1
  3
ACAD_DIMASSOC
360
D184
  0
DICTIONARY
  5
D215
330
D209
100
AcDbDictionary
280
     1
281
     1
  3
ACAD_DIMASSOC
360
D216
  0
DICTIONARY
  5
D2B6
102
{ACAD_REACTORS
330
C
102
}
330
C
100
AcDbDictionary
281
     1
  3
DIMARCSYM
350
D2B8
  3
DIMFXL
350
D2B7
  0
DICTIONARY
  5
AB06
102
{ACAD_REACTORS
330
C
102
}
330
C
100
AcDbDictionary
280
     1
281
     1
  0
DICTIONARY
  5
A91D
102
{ACAD_REACTORS
330
C
102
}
330
C
100
AcDbDictionary
281
     1
  0
DICTIONARY
  5
D
102
{ACAD_REACTORS
330
C
102
}
330
C
100
AcDbDictionary
281
     1
  0
DICTIONARY
  5
1A
102
{ACAD_REACTORS
330
C
102
}
330
C
100
AcDbDictionary
281
     1
  3
Model
350
22
  3
ﾚｲｱｳﾄ1
350
1E
  3
ﾚｲｱｳﾄ2
350
26
  0
DICTIONARY
  5
A91C
102
{ACAD_REACTORS
330
C
102
}
330
C
100
AcDbDictionary
281
     1
  3
ByBlock
350
CB27
  3
ByLayer
350
CB26
  3
Global
350
CB28
  0
DICTIONARY
  5
17
102
{ACAD_REACTORS
330
C
102
}
330
C
100
AcDbDictionary
281
     1
  3
Standard
350
18
  0
DICTIONARY
  5
19
102
{ACAD_REACTORS
330
C
102
}
330
C
100
AcDbDictionary
281
     1
  0
ACDBDICTIONARYWDFLT
  5
E
102
{ACAD_REACTORS
330
C
102
}
330
C
100
AcDbDictionary
281
     1
  3
Normal
350
F
100
AcDbDictionaryWithDefault
340
F
  0
DICTIONARY
  5
AAB9
102
{ACAD_REACTORS
330
C
102
}
330
C
100
AcDbDictionary
281
     1
  3
Standard
350
AABA
  0
DICTIONARY
  5
CB29
102
{ACAD_REACTORS
330
C
102
}
330
C
100
AcDbDictionary
281
     1
  3
2dWireframe
350
CB2F
  3
3D Hidden
350
CB31
  3
3dWireframe
350
CB30
  3
Basic
350
CB2E
  3
Brighten
350
CB35
  3
ColorChange
350
CB39
  3
Conceptual
350
CB32
  3
Dim
350
CB34
  3
Facepattern
350
CB38
  3
Flat
350
CB2A
  3
FlatWithEdges
350
CB2B
  3
Gouraud
350
CB2C
  3
GouraudWithEdges
350
CB2D
  3
Linepattern
350
CB37
  3
Realistic
350
CB33
  3
Thicken
350
CB36
  0
ACAD_PROXY_OBJECT
  5
3DA1
102
{ACAD_REACTORS
330
C
102
}
330
C
100
AcDbProxyObject
 90
      499
 91
      576
 95
   917527
 70
     0
 93
       10
310
404C
 94
        0
1001
ACAD
1000
AcRTDxfName
1000
ASAPP
  0
ACAD_PROXY_OBJECT
  5
3DE9
102
{ACAD_REACTORS
330
C
102
}
330
C
100
AcDbProxyObject
 90
      499
 91
      581
 95
   917527
 70
     0
 93
       34
310
010000404C
 94
        0
1001
ACAD
1000
AcRTDxfName
1000
ACASGREFMASTER
  0
DICTIONARY
  5
34
102
{ACAD_REACTORS
330
C
102
}
330
C
100
AcDbDictionary
281
     1
  3
CTABLESTYLE
350
AAF3
  3
DIMASSOC
350
A10C
  3
FIELDEVAL
350
AB07
  3
INDEXCTL
350
35
  3
PROJECTNAME
350
CB18
  3
SORTENTS
350
194C
  0
DICTIONARY
  5
47
102
{ACAD_REACTORS
330
C
102
}
330
C
100
AcDbDictionary
281
     1
  3
AcmBOM
350
7E8
  3
AcmStdDictionary
350
4C
  3
AMDTSECTSYM_ARROWCOLOR
350
A929
  0
ACAD_PROXY_OBJECT
  5
3DEA
102
{ACAD_REACTORS
330
C
102
}
330
C
100
AcDbProxyObject
 90
      499
 91
      582
 95
   917527
 70
     0
 93
      114
310
00000043800000000000000000000C
 94
        0
1001
ACAD
1000
AcRTDxfName
1000
ACADGREFMODULE
  0
ACAD_PROXY_OBJECT
  5
3E06
102
{ACAD_REACTORS
330
C
102
}
330
C
100
AcDbProxyObject
 90
      499
 91
      594
 95
   917527
 70
     0
 93
       34
310
05000044CC
 94
        0
1001
ACAD
1000
AcRTDxfName
1000
MAPIADMODULE
  0
DICTIONARY
  5
2B
102
{ACAD_REACTORS
330
C
102
}
330
C
100
AcDbDictionary
281
     1
  0
DICTIONARY
  5
7D
102
{ACAD_REACTORS
330
C
102
}
330
C
100
AcDbDictionary
281
     1
  0
DICTIONARY
  5
9F48
102
{ACAD_REACTORS
330
C
102
}
330
C
100
AcDbDictionary
281
     1
  3
ASEBlockHierarchyIndexRecord
350
9F49
1001
DCO15
1040
1425739953.442
  0
ACAD_PROXY_OBJECT
  5
3DEB
102
{ACAD_REACTORS
330
C
102
}
330
C
100
AcDbProxyObject
 90
      499
 91
      583
 95
   917527
 70
     0
 93
        8
310
0475
 94
        0
1001
ACAD
1000
AcRTDxfName
1000
AMDTMAPISURFMOUDULE
  0
DICTIONARY
  5
C291
102
{ACAD_REACTORS
330
3F95
102
}
330
3F95
100
AcDbDictionary
281
     1
  0
DICTIONARY
  5
3F96
102
{ACAD_REACTORS
330
3F95
102
}
330
3F95
100
AcDbDictionary
281
     1
  3
20011210
350
3FB7
  0
DICTIONARY
  5
C290
102
{ACAD_REACTORS
330
3F95
102
}
330
3F95
100
AcDbDictionary
281
     1
1001
ACAD
1000
<All
  0
DICTIONARY
  5
AAB4
102
{ACAD_REACTORS
330
3F95
102
}
330
3F95
100
AcDbDictionary
280
     1
281
     1
  0
SORTENTSTABLE
  5
C57F
102
{ACAD_REACTORS
330
8A
102
}
330
8A
100
AcDbSortentsTable
330
1F
331
C4AA
  5
C4B6
331
CE0C
  5
CE15
331
CD7E
  5
CD7E
331
CDC5
  5
CDC7
331
CBB7
  5
C4AC
331
CD86
  5
CD86
331
CDCD
  5
CDCF
331
CBBF
  5
C4B4
331
CD8E
  5
CD8E
331
CDD5
  5
CDD7
331
CF6C
  5
CF6E
331
CD96
  5
CD96
331
CDDD
  5
CDDF
331
CF74
  5
CF76
331
CDED
  5
CDEF
331
CDB6
  5
CDB8
331
CDF5
  5
CDF7
331
CDFD
  5
CDFF
331
CDBE
  5
CDC0
331
CF8C
  5
CF8F
331
CE05
  5
CE07
331
CD7F
  5
CD7F
331
CDC6
  5
CDC8
331
CBB8
  5
C4AD
331
CD87
  5
CD87
331
CDCE
  5
CDD0
331
CD8F
  5
CD8F
331
CDD6
  5
CDD8
331
CF6D
  5
CF6F
331
CD97
  5
CD97
331
CF75
  5
CF77
331
CDEE
  5
CDF0
331
CDB7
  5
CDB9
331
CDF6
  5
CDF8
331
CF85
  5
CF88
331
CDFE
  5
CE00
331
CDBF
  5
CDC1
331
CF8D
  5
CF9A
331
CE06
  5
CE08
331
CD80
  5
CD80
331
CDC7
  5
CDC9
331
CF9D
  5
CFDD
331
CBB9
  5
C4AE
331
D152
  5
D175
331
CD88
  5
CD88
331
CDCF
  5
CDD1
331
CD90
  5
CD90
331
CDD7
  5
CDD9
331
CF6E
  5
CF70
331
CFDD
  5
CFFE
331
CF76
  5
CF78
331
CD98
  5
CD98
331
CDEF
  5
CDF1
331
CDB8
  5
CDBA
331
CDF7
  5
CDF9
331
CF86
  5
CF89
331
CDFF
  5
CE01
331
CF8E
  5
CF9B
331
CE07
  5
CE09
331
CDC0
  5
CDC2
331
CD81
  5
CD81
331
CDC8
  5
CDCA
331
CBBA
  5
C4AF
331
CD89
  5
CD89
331
CDD0
  5
CDD2
331
CF67
  5
CF69
331
CD91
  5
CD91
331
CDD8
  5
CDDA
331
CF6F
  5
CF71
331
CF77
  5
CF79
331
CD99
  5
CD99
331
CDB1
  5
CDB3
331
CDF0
  5
CDF2
331
CFFE
  5
D01F
331
CDF8
  5
CDFA
331
CDB9
  5
CDBB
331
CF87
  5
CF8A
331
CE00
  5
CE02
331
CF8F
  5
CF9D
331
CE08
  5
CE0B
331
CDC1
  5
CDC3
331
CD82
  5
CD82
331
CDC9
  5
CDCB
331
CDD1
  5
CDD3
331
CF68
  5
CF6A
331
D0D5
  5
D0F6
331
CD8A
  5
CD8A
331
CF70
  5
CF72
331
CD92
  5
CD92
331
CDD9
  5
CDDB
331
D076
  5
D0A0
331
CF78
  5
CF86
331
CD9A
  5
CD9A
331
CDE9
  5
CDEB
331
CDB2
  5
CDB4
331
CDF1
  5
CDF3
331
CF88
  5
CF8B
331
CDF9
  5
CDFB
331
CDBA
  5
CDBC
331
D01F
  5
D040
331
CE01
  5
CE03
331
CE09
  5
CE0C
331
CDC2
  5
CDC4
331
CD83
  5
CD83
331
CDCA
  5
CDCC
331
CF69
  5
CF6B
331
CD8B
  5
CD8B
331
CDD2
  5
CDD4
331
CF71
  5
CF73
331
CD93
  5
CD93
331
CDDA
  5
CDDC
331
D0F6
  5
D120
331
CF79
  5
CF87
331
CD9B
  5
CD9D
331
CDEA
  5
CDEC
331
CDB3
  5
CDB5
331
CDF2
  5
CDF4
331
CF89
  5
CF8C
331
CDFA
  5
CDFC
331
CDBB
  5
CDBD
331
CE02
  5
CE04
331
C4A8
  5
C4A8
331
CBB5
  5
C4AA
331
CDC3
  5
CDC5
331
D040
  5
D076
331
CD84
  5
CD84
331
CDCB
  5
CDCD
331
CF6A
  5
CF6C
331
CD8C
  5
CD8C
331
CDD3
  5
CDD5
331
CF72
  5
CF74
331
CD94
  5
CD94
331
CDDB
  5
CDDD
331
CDEB
  5
CDED
331
D0A0
  5
D0D5
331
CDB4
  5
CDB6
331
CDF3
  5
CDF5
331
CF8A
  5
CF8D
331
CDFB
  5
CDFD
331
CDBC
  5
CDBE
331
CE03
  5
CE05
331
CE0B
  5
CE14
331
CBB6
  5
C4AB
331
CD7D
  5
CD7D
331
CDC4
  5
CDC6
331
CBBE
  5
C4B3
331
CD85
  5
CD85
331
CDCC
  5
CDCE
331
CD8D
  5
CD8D
331
CDD4
  5
CDD6
331
CF6B
  5
CF6D
331
CD95
  5
CD95
331
CDDC
  5
CDDE
331
CF73
  5
CF75
331
CDEC
  5
CDEE
331
D120
  5
D152
331
CDB5
  5
CDB7
331
CDF4
  5
CDF6
331
CDFC
  5
CDFE
331
CDBD
  5
CDBF
331
CF8B
  5
CF8E
331
CE04
  5
CE06
  0
DIMASSOC
  5
CFAB
102
{ACAD_REACTORS
330
CFAA
102
}
330
CFAA
100
AcDbDimAssoc
330
CF9D
 90
        3
 70
     0
 71
     0
  1
AcDbOsnapPointRef
 72
    13
331
CD9A
 73
     0
 91
        0
 40
0.0
 10
0.0
 20
0.0
 30
2.000000000000000E+50
 75
     0
  1
AcDbOsnapPointRef
 72
     1
331
CDD1
 73
     0
 91
        0
 40
0.0
 10
0.0
 20
0.0
 30
2.000000000000000E+50
 75
     0
  0
DIMASSOC
  5
CFEB
102
{ACAD_REACTORS
330
CFEA
102
}
330
CFEA
100
AcDbDimAssoc
330
CFDD
 90
        3
 70
     0
 71
     0
  1
AcDbOsnapPointRef
 72
     1
331
CDD1
 73
     0
 91
        0
 40
0.0
 10
0.0
 20
0.0
 30
2.000000000000000E+50
 75
     0
  1
AcDbOsnapPointRef
 72
     1
331
CDD2
 73
     0
 91
        0
 40
0.0
 10
0.0
 20
0.0
 30
2.000000000000000E+50
 75
     0
  0
DIMASSOC
  5
D00C
102
{ACAD_REACTORS
330
D00B
102
}
330
D00B
100
AcDbDimAssoc
330
CFFE
 90
        3
 70
     0
 71
     0
  1
AcDbOsnapPointRef
 72
     1
331
CDD2
 73
     0
 91
        0
 40
0.0
 10
0.0
 20
0.0
 30
2.000000000000000E+50
 75
     0
  1
AcDbOsnapPointRef
 72
     1
331
CD93
 73
     0
 91
        0
 40
0.0
 10
0.0
 20
0.0
 30
2.000000000000000E+50
 75
     0
  0
DIMASSOC
  5
D02D
102
{ACAD_REACTORS
330
D02C
102
}
330
D02C
100
AcDbDimAssoc
330
D01F
 90
        3
 70
     0
 71
     0
  1
AcDbOsnapPointRef
 72
     1
331
CD90
 73
     0
 91
        0
 40
0.0
 10
0.0
 20
0.0
 30
2.000000000000000E+50
 75
     0
  1
AcDbOsnapPointRef
 72
     1
331
CD93
 73
     0
 91
        0
 40
0.0
 10
0.0
 20
0.0
 30
2.000000000000000E+50
 75
     0
  0
DIMASSOC
  5
D04E
102
{ACAD_REACTORS
330
D04D
102
}
330
D04D
100
AcDbDimAssoc
330
D040
 90
        3
 70
     0
 71
     0
  1
AcDbOsnapPointRef
 72
     1
331
CD90
 73
     0
 91
        0
 40
0.0
 10
0.0
 20
0.0
 30
2.000000000000000E+50
 75
     0
  1
AcDbOsnapPointRef
 72
     1
331
CD9A
 73
     0
 91
        0
 40
0.0
 10
0.0
 20
0.0
 30
2.000000000000000E+50
 75
     0
  0
DIMASSOC
  5
D084
102
{ACAD_REACTORS
330
D083
102
}
330
D083
100
AcDbDimAssoc
330
D076
 90
        3
 70
     0
 71
     0
  1
AcDbOsnapPointRef
 72
    13
331
CD9A
 73
     0
 91
        0
 40
0.0
 10
0.0
 20
0.0
 30
2.000000000000000E+50
 75
     0
  1
AcDbOsnapPointRef
 72
     1
331
CD9A
 73
     0
 91
        0
 40
0.0
 10
0.0
 20
0.0
 30
2.000000000000000E+50
 75
     0
  0
DIMASSOC
  5
D0B0
102
{ACAD_REACTORS
330
D0AF
102
}
330
D0AF
100
AcDbDimAssoc
330
D0A0
 90
        3
 70
     0
 71
     0
  1
AcDbOsnapPointRef
 72
     3
331
CDF7
 73
     0
 91
        0
 40
5.497789587243103
 10
0.0
 20
0.0
 30
0.0
 75
     0
  1
AcDbOsnapPointRef
 72
    13
331
CDC8
 73
     0
 91
        0
 40
0.0
 10
0.0
 20
0.0
 30
2.000000000000000E+50
 75
     0
  0
DIMASSOC
  5
D0E3
102
{ACAD_REACTORS
330
D0E2
102
}
330
D0E2
100
AcDbDimAssoc
330
D0D5
 90
        3
 70
     0
 71
     0
  1
AcDbOsnapPointRef
 72
    13
331
CF67
 73
     0
 91
        0
 40
0.0
 10
0.0
 20
0.0
 30
2.000000000000000E+50
 75
     0
  1
AcDbOsnapPointRef
 72
    13
331
CF70
 73
     0
 91
        0
 40
0.0
 10
0.0
 20
0.0
 30
2.000000000000000E+50
 75
     0
  0
DIMASSOC
  5
D104
102
{ACAD_REACTORS
330
D103
102
}
330
D103
100
AcDbDimAssoc
330
D0F6
 90
        3
 70
     0
 71
     0
  1
AcDbOsnapPointRef
 72
    13
331
CF73
 73
     0
 91
        0
 40
0.0
 10
0.0
 20
0.0
 30
2.000000000000000E+50
 75
     0
  1
AcDbOsnapPointRef
 72
     1
331
CF87
 73
     0
 91
        0
 40
0.0
 10
0.0
 20
0.0
 30
2.000000000000000E+50
 75
     0
  0
DIMASSOC
  5
D130
102
{ACAD_REACTORS
330
D12F
102
}
330
D12F
100
AcDbDimAssoc
330
D120
 90
        3
 70
     0
 71
     0
  1
AcDbOsnapPointRef
 72
     1
331
CF6F
 73
     0
 91
        0
 40
0.0
 10
0.0
 20
0.0
 30
2.000000000000000E+50
 75
     0
  1
AcDbOsnapPointRef
 72
     1
331
CF6E
 73
     0
 91
        0
 40
0.0
 10
0.0
 20
0.0
 30
2.000000000000000E+50
 75
     0
  0
DIMASSOC
  5
D161
102
{ACAD_REACTORS
330
D160
102
}
330
D160
100
AcDbDimAssoc
330
D152
 90
        1
 70
     0
 71
     0
  1
AcDbOsnapPointRef
 72
     1
331
CF6F
 73
     0
 91
        0
 40
0.0
 10
0.0
 20
0.0
 30
2.000000000000000E+50
 75
     0
  0
DIMASSOC
  5
D184
102
{ACAD_REACTORS
330
D183
102
}
330
D183
100
AcDbDimAssoc
330
D176
 90
        2
 70
     0
 71
     0
  1
AcDbOsnapPointRef
 72
     1
331
CF6A
 73
     0
 91
        0
 40
0.0
 10
0.0
 20
0.0
 30
2.000000000000000E+50
 75
     0
  0
DIMASSOC
  5
D216
102
{ACAD_REACTORS
330
D215
102
}
330
D215
100
AcDbDimAssoc
330
D209
 90
        2
 70
     0
 71
     0
  1
AcDbOsnapPointRef
 72
     3
331
CDF9
 73
     2
 91
        0
 40
0.0
 10
0.0
 20
0.0
 30
0.0
 75
     0
  0
XRECORD
  5
D2B8
102
{ACAD_REACTORS
330
D2B6
102
}
330
D2B6
100
AcDbXrecord
280
     1
 70
     1
  0
XRECORD
  5
D2B7
102
{ACAD_REACTORS
330
D2B6
102
}
330
D2B6
100
AcDbXrecord
280
     1
 40
0.0
  0
LAYOUT
  5
22
102
{ACAD_REACTORS
330
1A
102
}
330
1A
100
AcDbPlotSettings
  1

  2
FX DocuWide 2050/2051
  4
A3
  6
AM_VIEW1
 40
3.174999952316283
 41
3.174999952316283
 42
3.17498779296875
 43
3.17498779296875
 44
296.989501953125
 45
419.9889831542968
 46
0.0
 47
1.29584122896196
 48
214.3704939521119
 49
367.5855324241177
140
275.6727856380065
141
407.6291914078169
142
1.0
143
0.7225445603030646
 70
  3764
 72
     1
 73
     1
 74
     2
  7
monochrome.ctb
 75
     0
147
1.383997686703999
 76
     0
 77
     2
 78
   200
148
-1700.85588156276
149
-1647.985052086429
100
AcDbLayout
  1
Model
 70
     1
 71
     0
 10
0.0
 20
0.0
 11
12.0
 21
9.0
 12
0.0
 22
0.0
 32
0.0
 14
0.0
 24
0.0
 34
0.0
 15
0.0
 25
0.0
 35
0.0
146
0.0
 13
0.0
 23
0.0
 33
0.0
 16
1.0
 26
0.0
 36
0.0
 17
0.0
 27
1.0
 37
0.0
 76
     0
330
1F
331
CB19
1001
ACAD_PSEXT
1000
FX DocuWide 2050/2051
1000
FX DocuWide 2050/2051
1000
IP_192.200.15.252
1000

1070
     0
  0
LAYOUT
  5
1E
102
{ACAD_REACTORS
330
1A
102
}
330
1A
100
AcDbPlotSettings
  1

  2
\\ML370\XEROX
  4
A4
  6

 40
3.174999952316283
 41
3.174999952316283
 42
3.175003051757812
 43
3.17498779296875
 44
209.8674926757813
 45
296.6719970703125
 46
0.0
 47
0.0
 48
0.0
 49
0.0
140
0.0
141
0.0
142
1.0
143
1.0
 70
   688
 72
     1
 73
     1
 74
     5
  7
monochrome.ctb
 75
    16
147
1.0
 76
     0
 77
     2
 78
   300
148
0.0
149
0.0
100
AcDbLayout
  1
ﾚｲｱｳﾄ1
 70
     1
 71
     1
 10
-3.17498779296875
 20
-3.174999952316283
 11
293.4970092773438
 21
206.692492723465
 12
0.0
 22
0.0
 32
0.0
 14
1.000000000000000E+20
 24
1.000000000000000E+20
 34
1.000000000000000E+20
 15
-1.000000000000000E+20
 25
-1.000000000000000E+20
 35
-1.000000000000000E+20
146
0.0
 13
0.0
 23
0.0
 33
0.0
 16
1.0
 26
0.0
 36
0.0
 17
0.0
 27
1.0
 37
0.0
 76
     0
330
1B
  0
LAYOUT
  5
26
102
{ACAD_REACTORS
330
1A
102
}
330
1A
100
AcDbPlotSettings
  1

  2
\\ML370\XEROX
  4

  6

 40
0.0
 41
0.0
 42
0.0
 43
0.0
 44
0.0
 45
0.0
 46
0.0
 47
0.0
 48
0.0
 49
0.0
140
0.0
141
0.0
142
1.0
143
1.0
 70
   688
 72
     0
 73
     0
 74
     5
  7
monochrome.ctb
 75
    16
147
1.0
 76
     0
 77
     2
 78
   300
148
0.0
149
0.0
100
AcDbLayout
  1
ﾚｲｱｳﾄ2
 70
     1
 71
     2
 10
0.0
 20
0.0
 11
12.0
 21
9.0
 12
0.0
 22
0.0
 32
0.0
 14
0.0
 24
0.0
 34
0.0
 15
0.0
 25
0.0
 35
0.0
146
0.0
 13
0.0
 23
0.0
 33
0.0
 16
1.0
 26
0.0
 36
0.0
 17
0.0
 27
1.0
 37
0.0
 76
     0
330
23
  0
MATERIAL
  5
CB27
102
{ACAD_XDICTIONARY
360
D2BD
102
}
102
{ACAD_REACTORS
330
A91C
102
}
330
A91C
100
AcDbMaterial
  1
ByBlock
  0
MATERIAL
  5
CB26
102
{ACAD_XDICTIONARY
360
D2BB
102
}
102
{ACAD_REACTORS
330
A91C
102
}
330
A91C
100
AcDbMaterial
  1
ByLayer
  0
MATERIAL
  5
CB28
102
{ACAD_XDICTIONARY
360
D2BF
102
}
102
{ACAD_REACTORS
330
A91C
102
}
330
A91C
100
AcDbMaterial
  1
Global
  0
MLINESTYLE
  5
18
102
{ACAD_REACTORS
330
17
102
}
330
17
100
AcDbMlineStyle
  2
STANDARD
 70
     0
  3

 62
   256
 51
90.0
 52
90.0
 71
     2
 49
0.5
 62
   256
  6
BYLAYER
 49
-0.5
 62
   256
  6
BYLAYER
  0
ACDBPLACEHOLDER
  5
F
102
{ACAD_REACTORS
330
E
102
}
330
E
  0
TABLESTYLE
  5
AABA
102
{ACAD_XDICTIONARY
360
D2B9
102
}
102
{ACAD_REACTORS
330
AAB9
102
}
330
AAB9
100
AcDbTableStyle
  3
Standard
 70
     0
 71
     0
 40
1.5
 41
1.5
280
     0
281
     0
  7
STANDARD
140
4.5
170
     2
 62
     0
 63
     7
283
     0
274
    -2
284
     1
 64
     0
275
    -2
285
     1
 65
     0
276
    -2
286
     1
 66
     0
277
    -2
287
     1
 67
     0
278
    -2
288
     1
 68
     0
279
    -2
289
     1
 69
     0
  7
STANDARD
140
6.0
170
     5
 62
     0
 63
     7
283
     0
274
    -2
284
     1
 64
     0
275
    -2
285
     1
 65
     0
276
    -2
286
     1
 66
     0
277
    -2
287
     1
 67
     0
278
    -2
288
     1
 68
     0
279
    -2
289
     1
 69
     0
  7
STANDARD
140
4.5
170
     5
 62
     0
 63
     7
283
     0
274
    -2
284
     1
 64
     0
275
    -2
285
     1
 65
     0
276
    -2
286
     1
 66
     0
277
    -2
287
     1
 67
     0
278
    -2
288
     1
 68
     0
279
    -2
289
     1
 69
     0
  0
VISUALSTYLE
  5
CB2F
102
{ACAD_REACTORS
330
CB29
102
}
330
CB29
100
AcDbVisualStyle
  2
2dWireframe
 70
     4
 71
     0
 72
     2
 73
     0
 90
        0
 40
-0.6
 41
-30.0
 62
     5
 63
     7
421
 16777215
 74
     1
 91
        4
 64
     7
 65
   257
 75
     1
175
     1
 42
1.0
 92
        0
 66
   257
 43
1.0
 76
     1
 77
     6
 78
     2
 67
     7
 79
     5
170
     0
171
     0
290
     0
174
     0
 93
        1
 44
0.0
173
     0
291
     0
 45
0.0
1001
ACAD
1000
AcDbSavedByObjectVersion
1070
     0
  0
VISUALSTYLE
  5
CB31
102
{ACAD_REACTORS
330
CB29
102
}
330
CB29
100
AcDbVisualStyle
  2
3D Hidden
 70
     6
 71
     1
 72
     2
 73
     2
 90
        0
 40
-0.6
 41
-30.0
 62
     5
 63
     7
421
 16777215
 74
     2
 91
        2
 64
     7
 65
   257
 75
     2
175
     1
 42
40.0
 92
        0
 66
   257
 43
1.0
 76
     1
 77
     6
 78
     2
 67
     7
 79
     3
170
     0
171
     0
290
     0
174
     0
 93
        1
 44
0.0
173
     0
291
     0
 45
0.0
1001
ACAD
1000
AcDbSavedByObjectVersion
1070
     0
  0
VISUALSTYLE
  5
CB30
102
{ACAD_REACTORS
330
CB29
102
}
330
CB29
100
AcDbVisualStyle
  2
3dWireframe
 70
     5
 71
     0
 72
     2
 73
     0
 90
        0
 40
-0.6
 41
-30.0
 62
     5
 63
     7
421
 16777215
 74
     1
 91
        4
 64
     7
 65
   257
 75
     1
175
     1
 42
1.0
 92
        0
 66
   257
 43
1.0
 76
     1
 77
     6
 78
     2
 67
     7
 79
     5
170
     0
171
     0
290
     0
174
     0
 93
        1
 44
0.0
173
     0
291
     0
 45
0.0
1001
ACAD
1000
AcDbSavedByObjectVersion
1070
     0
  0
VISUALSTYLE
  5
CB2E
102
{ACAD_REACTORS
330
CB29
102
}
330
CB29
100
AcDbVisualStyle
  2
Basic
 70
     7
 71
     1
 72
     0
 73
     1
 90
        0
 40
-0.6
 41
-30.0
 62
     5
 63
     7
421
 16777215
 74
     0
 91
        4
 64
     7
 65
   257
 75
     1
175
     1
 42
1.0
 92
        8
 66
     7
 43
1.0
 76
     1
 77
     6
 78
     2
 67
     7
 79
     5
170
     0
171
     0
290
     0
174
     0
 93
        1
 44
0.0
173
     0
291
     1
 45
0.0
1001
ACAD
1000
AcDbSavedByObjectVersion
1070
     0
  0
VISUALSTYLE
  5
CB35
102
{ACAD_REACTORS
330
CB29
102
}
330
CB29
100
AcDbVisualStyle
  2
Brighten
 70
    12
 71
     2
 72
     2
 73
     0
 90
        0
 40
-0.6
 41
-30.0
 62
     5
 63
     7
421
 16777215
 74
     1
 91
        4
 64
     7
 65
   257
 75
     1
175
     1
 42
1.0
 92
        8
 66
     7
 43
1.0
 76
     1
 77
     6
 78
     2
 67
     7
 79
     5
170
     0
171
     0
290
     0
174
     0
 93
        1
 44
50.0
173
     0
291
     1
 45
0.0
1001
ACAD
1000
AcDbSavedByObjectVersion
1070
     0
  0
VISUALSTYLE
  5
CB39
102
{ACAD_REACTORS
330
CB29
102
}
330
CB29
100
AcDbVisualStyle
  2
ColorChange
 70
    16
 71
     2
 72
     2
 73
     3
 90
        0
 40
-0.6
 41
-30.0
 62
     5
 63
     8
421
  8421504
 74
     1
 91
        4
 64
     7
 65
   257
 75
     1
175
     1
 42
1.0
 92
        8
 66
     8
424
  8421504
 43
1.0
 76
     1
 77
     6
 78
     2
 67
     7
 79
     5
170
     0
171
     0
290
     0
174
     0
 93
        1
 44
0.0
173
     0
291
     1
 45
0.0
1001
ACAD
1000
AcDbSavedByObjectVersion
1070
     0
  0
VISUALSTYLE
  5
CB32
102
{ACAD_REACTORS
330
CB29
102
}
330
CB29
100
AcDbVisualStyle
  2
Conceptual
 70
     9
 71
     3
 72
     2
 73
     0
 90
        0
 40
-0.6
 41
-30.0
 62
     5
 63
     7
421
 16777215
 74
     2
 91
        2
 64
     7
 65
   257
 75
     1
175
     1
 42
40.0
 92
        8
 66
     7
 43
1.0
 76
     1
 77
     6
 78
     2
 67
     7
 79
     3
170
     0
171
     0
290
     0
174
     0
 93
        1
 44
0.0
173
     0
291
     0
 45
0.0
1001
ACAD
1000
AcDbSavedByObjectVersion
1070
     0
  0
VISUALSTYLE
  5
CB34
102
{ACAD_REACTORS
330
CB29
102
}
330
CB29
100
AcDbVisualStyle
  2
Dim
 70
    11
 71
     2
 72
     2
 73
     0
 90
        0
 40
-0.6
 41
-30.0
 62
     5
 63
     7
421
 16777215
 74
     1
 91
        4
 64
     7
 65
   257
 75
     1
175
     1
 42
1.0
 92
        8
 66
     7
 43
1.0
 76
     1
 77
     6
 78
     2
 67
     7
 79
     5
170
     0
171
     0
290
     0
174
     0
 93
        1
 44
-50.0
173
     0
291
     1
 45
0.0
1001
ACAD
1000
AcDbSavedByObjectVersion
1070
     0
  0
VISUALSTYLE
  5
CB38
102
{ACAD_REACTORS
330
CB29
102
}
330
CB29
100
AcDbVisualStyle
  2
Facepattern
 70
    15
 71
     2
 72
     2
 73
     0
 90
        0
 40
-0.6
 41
-30.0
 62
     5
 63
     7
421
 16777215
 74
     1
 91
        4
 64
     7
 65
   257
 75
     1
175
     1
 42
1.0
 92
        8
 66
     7
 43
1.0
 76
     1
 77
     6
 78
     2
 67
     7
 79
     5
170
     0
171
     0
290
     0
174
     0
 93
        1
 44
0.0
173
     0
291
     1
 45
0.0
1001
ACAD
1000
AcDbSavedByObjectVersion
1070
     0
  0
VISUALSTYLE
  5
CB2A
102
{ACAD_REACTORS
330
CB29
102
}
330
CB29
100
AcDbVisualStyle
  2
Flat
 70
     0
 71
     2
 72
     1
 73
     1
 90
        2
 40
-0.6
 41
30.0
 62
     5
 63
     7
421
 16777215
 74
     0
 91
        4
 64
     7
 65
   257
 75
     1
175
     1
 42
1.0
 92
        8
 66
     7
 43
1.0
 76
     1
 77
     6
 78
     2
 67
     7
 79
     5
170
     0
171
     0
290
     0
174
     0
 93
       13
 44
0.0
173
     0
291
     1
 45
0.0
1001
ACAD
1000
AcDbSavedByObjectVersion
1070
     0
  0
VISUALSTYLE
  5
CB2B
102
{ACAD_REACTORS
330
CB29
102
}
330
CB29
100
AcDbVisualStyle
  2
FlatWithEdges
 70
     1
 71
     2
 72
     1
 73
     1
 90
        2
 40
-0.6
 41
30.0
 62
     5
 63
     7
421
 16777215
 74
     1
 91
        4
 64
     7
 65
   257
 75
     1
175
     1
 42
1.0
 92
        0
 66
   257
 43
1.0
 76
     1
 77
     6
 78
     2
 67
     7
 79
     5
170
     0
171
     0
290
     0
174
     0
 93
       13
 44
0.0
173
     0
291
     1
 45
0.0
1001
ACAD
1000
AcDbSavedByObjectVersion
1070
     0
  0
VISUALSTYLE
  5
CB2C
102
{ACAD_REACTORS
330
CB29
102
}
330
CB29
100
AcDbVisualStyle
  2
Gouraud
 70
     2
 71
     2
 72
     2
 73
     1
 90
        2
 40
-0.6
 41
30.0
 62
     5
 63
     7
421
 16777215
 74
     0
 91
        4
 64
     7
 65
   257
 75
     1
175
     1
 42
1.0
 92
        0
 66
     7
 43
1.0
 76
     1
 77
     6
 78
     2
 67
     7
 79
     5
170
     0
171
     0
290
     0
174
     0
 93
       13
 44
0.0
173
     0
291
     1
 45
0.0
1001
ACAD
1000
AcDbSavedByObjectVersion
1070
     0
  0
VISUALSTYLE
  5
CB2D
102
{ACAD_REACTORS
330
CB29
102
}
330
CB29
100
AcDbVisualStyle
  2
GouraudWithEdges
 70
     3
 71
     2
 72
     2
 73
     1
 90
        2
 40
-0.6
 41
30.0
 62
     5
 63
     7
421
 16777215
 74
     1
 91
        4
 64
     7
 65
   257
 75
     1
175
     1
 42
1.0
 92
        0
 66
   257
 43
1.0
 76
     1
 77
     6
 78
     2
 67
     7
 79
     5
170
     0
171
     0
290
     0
174
     0
 93
       13
 44
0.0
173
     0
291
     1
 45
0.0
1001
ACAD
1000
AcDbSavedByObjectVersion
1070
     0
  0
VISUALSTYLE
  5
CB37
102
{ACAD_REACTORS
330
CB29
102
}
330
CB29
100
AcDbVisualStyle
  2
Linepattern
 70
    14
 71
     2
 72
     2
 73
     0
 90
        0
 40
-0.6
 41
-30.0
 62
     5
 63
     7
421
 16777215
 74
     1
 91
        4
 64
     7
 65
   257
 75
     7
175
     7
 42
1.0
 92
        8
 66
     7
 43
1.0
 76
     1
 77
     6
 78
     2
 67
     7
 79
     5
170
     0
171
     0
290
     0
174
     0
 93
        1
 44
0.0
173
     0
291
     1
 45
0.0
1001
ACAD
1000
AcDbSavedByObjectVersion
1070
     0
  0
VISUALSTYLE
  5
CB33
102
{ACAD_REACTORS
330
CB29
102
}
330
CB29
100
AcDbVisualStyle
  2
Realistic
 70
     8
 71
     2
 72
     2
 73
     0
 90
        0
 40
-0.6
 41
-30.0
 62
     5
 63
     7
421
 16777215
 74
     1
 91
        0
 64
     7
 65
   257
 75
     1
175
     1
 42
1.0
 92
        8
 66
     8
424
  7895160
 43
1.0
 76
     1
 77
     6
 78
     2
 67
     7
 79
     5
170
     0
171
     0
290
     0
174
     0
 93
       13
 44
0.0
173
     0
291
     0
 45
0.0
1001
ACAD
1000
AcDbSavedByObjectVersion
1070
     0
  0
VISUALSTYLE
  5
CB36
102
{ACAD_REACTORS
330
CB29
102
}
330
CB29
100
AcDbVisualStyle
  2
Thicken
 70
    13
 71
     2
 72
     2
 73
     0
 90
        0
 40
-0.6
 41
-30.0
 62
     5
 63
     7
421
 16777215
 74
     1
 91
        4
 64
     7
 65
   257
 75
     1
175
     1
 42
1.0
 92
       12
 66
     7
 43
1.0
 76
     1
 77
     6
 78
     2
 67
     7
 79
     5
170
     0
171
     0
290
     0
174
     0
 93
        1
 44
0.0
173
     0
291
     1
 45
0.0
1001
ACAD
1000
AcDbSavedByObjectVersion
1070
     0
  0
DICTIONARYVAR
  5
AAF3
102
{ACAD_REACTORS
330
34
102
}
330
34
100
DictionaryVariables
280
     0
  1
STANDARD
  0
DICTIONARYVAR
  5
A10C
102
{ACAD_REACTORS
330
34
102
}
330
34
100
DictionaryVariables
280
     0
  1
2
  0
DICTIONARYVAR
  5
AB07
102
{ACAD_REACTORS
330
34
102
}
330
34
100
DictionaryVariables
280
     0
  1
4
  0
DICTIONARYVAR
  5
35
102
{ACAD_REACTORS
330
34
102
}
330
34
100
DictionaryVariables
280
     0
  1
0
  0
DICTIONARYVAR
  5
CB18
102
{ACAD_REACTORS
330
34
102
}
330
34
100
DictionaryVariables
280
     0
  1

  0
DICTIONARYVAR
  5
194C
102
{ACAD_REACTORS
330
34
102
}
330
34
100
DictionaryVariables
280
     0
  1
96
  0
DICTIONARY
  5
7E8
102
{ACAD_REACTORS
330
47
102
}
330
47
100
AcDbDictionary
281
     1
  0
DICTIONARY
  5
4C
102
{ACAD_REACTORS
330
47
102
}
330
47
100
AcDbDictionary
281
     1
  0
XRECORD
  5
A929
102
{ACAD_REACTORS
330
47
102
}
330
47
100
AcDbXrecord
280
     1
 90
-1023410169
  0
XRECORD
  5
9F49
102
{ACAD_REACTORS
330
9F48
102
}
330
9F48
100
AcDbXrecord
280
     1
330
0
330
0
330
0
330
0
330
0
330
0
330
0
330
0
  0
XRECORD
  5
3FB7
102
{ACAD_REACTORS
330
3F96
102
}
330
3F96
100
AcDbXrecord
280
     1
 91
        3
330
0
 90
        8
 62
     7
370
    40
331
16
  1
Color_7
330
0
 90
        0
 62
    14
370
    -3
331
16
  1
Color_14
330
0
 90
        8
 62
     7
370
    20
331
16
  1
Color_7
330
6D1
 90
        0
 62
     7
370
    -3
331
16
  1
Color_7
330
0
 90
        8
 62
     7
370
    50
331
16
  1
Color_7
330
0
 90
        8
 62
     2
370
    35
331
16
  1
Color_2
330
0
 90
        8
 62
     7
370
    -3
331
16
  1
Color_7
330
10
 90
        8
 62
     7
370
    -3
331
16
  1
Color_7
  0
DICTIONARY
  5
D2BD
330
CB27
100
AcDbDictionary
280
     1
281
     1
  3
ACAD_XREC_ROUNDTRIP
360
D2BE
  0
DICTIONARY
  5
D2BB
330
CB26
100
AcDbDictionary
280
     1
281
     1
  3
ACAD_XREC_ROUNDTRIP
360
D2BC
  0
DICTIONARY
  5
D2BF
330
CB28
100
AcDbDictionary
280
     1
281
     1
  3
ACAD_XREC_ROUNDTRIP
360
D2C0
  0
DICTIONARY
  5
D2B9
330
AABA
100
AcDbDictionary
280
     1
281
     1
  3
ACAD_XREC_ROUNDTRIP
360
D2BA
  0
XRECORD
  5
D2BE
102
{ACAD_REACTORS
330
D2BD
102
}
330
D2BD
100
AcDbXrecord
280
     1
102
MATERIAL
148
0.0
149
0.0
149
0.0
 93
        0
 94
       63
282
     0
 72
     1
 77
     1
171
     1
175
     1
179
     1
273
     0
  0
XRECORD
  5
D2BC
102
{ACAD_REACTORS
330
D2BB
102
}
330
D2BB
100
AcDbXrecord
280
     1
102
MATERIAL
148
0.0
149
0.0
149
0.0
 93
        0
 94
       63
282
     0
 72
     1
 77
     1
171
     1
175
     1
179
     1
273
     0
  0
XRECORD
  5
D2C0
102
{ACAD_REACTORS
330
D2BF
102
}
330
D2BF
100
AcDbXrecord
280
     1
102
MATERIAL
148
0.0
149
0.0
149
0.0
 93
        0
 94
       63
282
     0
 72
     1
 77
     1
171
     1
175
     1
179
     1
273
     0
  0
XRECORD
  5
D2BA
102
{ACAD_REACTORS
330
D2B9
102
}
330
D2B9
100
AcDbXrecord
280
     1
102
ACAD_ROUNDTRIP_PRE2007_TABLESTYLE
 90
        4
 91
        0
  1

 92
        4
 93
        0
  2

 94
        4
 95
        0
  3

  0
ENDSEC
  0
EOF
