  0
SECTION
  2
HEADER
  9
$ACADVER
  1
AC1015
  9
$ACADMAINTVER
 70
    20
  9
$DWGCODEPAGE
  3
ANSI_932
  9
$INSBASE
 10
0.0
 20
0.0
 30
0.0
  9
$EXTMIN
 10
-0.0609651568206573
 20
-0.0566967956506233
 30
-0.0015258207003583
  9
$EXTMAX
 10
273.083391654438
 20
171.0391842490371
 30
0.0000000349246037
  9
$LIMMIN
 10
1700.85588156276
 20
1647.985052086429
  9
$LIMMAX
 10
1997.85588156276
 20
1857.985052086429
  9
$ORTHOMODE
 70
     0
  9
$REGENMODE
 70
     1
  9
$FILLMODE
 70
     1
  9
$QTEXTMODE
 70
     0
  9
$MIRRTEXT
 70
     0
  9
$LTSCALE
 40
1.0
  9
$ATTMODE
 70
     1
  9
$TEXTSIZE
 40
3.2
  9
$TRACEWID
 40
1.0
  9
$TEXTSTYLE
  7
STANDARD
  9
$CLAYER
  8
AM_0
  9
$CELTYPE
  6
ByLayer
  9
$CECOLOR
 62
   256
  9
$CELTSCALE
 40
1.0
  9
$DISPSILH
 70
     0
  9
$DIMSCALE
 40
1.0
  9
$DIMASZ
 40
1.0
  9
$DIMEXO
 40
1.0
  9
$DIMDLI
 40
10.0
  9
$DIMRND
 40
0.0
  9
$DIMDLE
 40
0.0
  9
$DIMEXE
 40
1.0
  9
$DIMTP
 40
0.1
  9
$DIMTM
 40
0.1
  9
$DIMTXT
 40
3.5
  9
$DIMCEN
 40
0.0
  9
$DIMTSZ
 40
0.0
  9
$DIMTOL
 70
     0
  9
$DIMLIM
 70
     0
  9
$DIMTIH
 70
     0
  9
$DIMTOH
 70
     0
  9
$DIMSE1
 70
     0
  9
$DIMSE2
 70
     0
  9
$DIMTAD
 70
     1
  9
$DIMZIN
 70
     8
  9
$DIMBLK
  1

  9
$DIMASO
 70
     1
  9
$DIMSHO
 70
     1
  9
$DIMPOST
  1

  9
$DIMAPOST
  1
"
  9
$DIMALT
 70
     0
  9
$DIMALTD
 70
     2
  9
$DIMALTF
 40
0.0393701
  9
$DIMLFAC
 40
1.0
  9
$DIMTOFL
 70
     1
  9
$DIMTVP
 40
0.0
  9
$DIMTIX
 70
     0
  9
$DIMSOXD
 70
     0
  9
$DIMSAH
 70
     0
  9
$DIMBLK1
  1

  9
$DIMBLK2
  1

  9
$DIMSTYLE
  2
SYS
  9
$DIMCLRD
 70
   256
  9
$DIMCLRE
 70
   256
  9
$DIMCLRT
 70
     7
  9
$DIMTFAC
 40
0.71
  9
$DIMGAP
 40
1.5
  9
$DIMJUST
 70
     0
  9
$DIMSD1
 70
     0
  9
$DIMSD2
 70
     0
  9
$DIMTOLJ
 70
     0
  9
$DIMTZIN
 70
     8
  9
$DIMALTZ
 70
     0
  9
$DIMALTTZ
 70
     0
  9
$DIMUPT
 70
     0
  9
$DIMDEC
 70
     2
  9
$DIMTDEC
 70
     2
  9
$DIMALTU
 70
     2
  9
$DIMALTTD
 70
     2
  9
$DIMTXSTY
  7
STANDARD
  9
$DIMAUNIT
 70
     0
  9
$DIMADEC
 70
     0
  9
$DIMALTRND
 40
0.0
  9
$DIMAZIN
 70
     2
  9
$DIMDSEP
 70
    46
  9
$DIMATFIT
 70
     3
  9
$DIMFRAC
 70
     0
  9
$DIMLDRBLK
  1

  9
$DIMLUNIT
 70
     2
  9
$DIMLWD
 70
    -1
  9
$DIMLWE
 70
    -1
  9
$DIMTMOVE
 70
     0
  9
$LUNITS
 70
     2
  9
$LUPREC
 70
     2
  9
$SKETCHINC
 40
1.0
  9
$FILLETRAD
 40
0.0
  9
$AUNITS
 70
     0
  9
$AUPREC
 70
     0
  9
$MENU
  1
.
  9
$ELEVATION
 40
0.0
  9
$PELEVATION
 40
0.0
  9
$THICKNESS
 40
0.0
  9
$LIMCHECK
 70
     0
  9
$CHAMFERA
 40
0.0
  9
$CHAMFERB
 40
0.0
  9
$CHAMFERC
 40
20.0
  9
$CHAMFERD
 40
0.0
  9
$SKPOLY
 70
     0
  9
$TDCREATE
 40
2456737.629083287
  9
$TDUCREATE
 40
2456737.254083287
  9
$TDUPDATE
 40
2456737.633397894
  9
$TDUUPDATE
 40
2456737.258397894
  9
$TDINDWG
 40
0.0043167708
  9
$TDUSRTIMER
 40
0.0043167708
  9
$USRTIMER
 70
     1
  9
$ANGBASE
 50
0.0
  9
$ANGDIR
 70
     0
  9
$PDMODE
 70
     0
  9
$PDSIZE
 40
-3.0
  9
$PLINEWID
 40
0.0
  9
$SPLFRAME
 70
     0
  9
$SPLINETYPE
 70
     6
  9
$SPLINESEGS
 70
     8
  9
$HANDSEED
  5
B89E
  9
$SURFTAB1
 70
     6
  9
$SURFTAB2
 70
     6
  9
$SURFTYPE
 70
     6
  9
$SURFU
 70
     6
  9
$SURFV
 70
     6
  9
$UCSBASE
  2

  9
$UCSNAME
  2

  9
$UCSORG
 10
0.0
 20
0.0
 30
0.0
  9
$UCSXDIR
 10
1.0
 20
0.0
 30
0.0
  9
$UCSYDIR
 10
0.0
 20
1.0
 30
0.0
  9
$UCSORTHOREF
  2

  9
$UCSORTHOVIEW
 70
     0
  9
$UCSORGTOP
 10
0.0
 20
0.0
 30
0.0
  9
$UCSORGBOTTOM
 10
0.0
 20
0.0
 30
0.0
  9
$UCSORGLEFT
 10
0.0
 20
0.0
 30
0.0
  9
$UCSORGRIGHT
 10
0.0
 20
0.0
 30
0.0
  9
$UCSORGFRONT
 10
0.0
 20
0.0
 30
0.0
  9
$UCSORGBACK
 10
0.0
 20
0.0
 30
0.0
  9
$PUCSBASE
  2

  9
$PUCSNAME
  2

  9
$PUCSORG
 10
0.0
 20
0.0
 30
0.0
  9
$PUCSXDIR
 10
1.0
 20
0.0
 30
0.0
  9
$PUCSYDIR
 10
0.0
 20
1.0
 30
0.0
  9
$PUCSORTHOREF
  2

  9
$PUCSORTHOVIEW
 70
     0
  9
$PUCSORGTOP
 10
0.0
 20
0.0
 30
0.0
  9
$PUCSORGBOTTOM
 10
0.0
 20
0.0
 30
0.0
  9
$PUCSORGLEFT
 10
0.0
 20
0.0
 30
0.0
  9
$PUCSORGRIGHT
 10
0.0
 20
0.0
 30
0.0
  9
$PUCSORGFRONT
 10
0.0
 20
0.0
 30
0.0
  9
$PUCSORGBACK
 10
0.0
 20
0.0
 30
0.0
  9
$USERI1
 70
     0
  9
$USERI2
 70
     0
  9
$USERI3
 70
     0
  9
$USERI4
 70
     0
  9
$USERI5
 70
     0
  9
$USERR1
 40
0.0
  9
$USERR2
 40
0.0
  9
$USERR3
 40
0.0
  9
$USERR4
 40
0.0
  9
$USERR5
 40
0.0
  9
$WORLDVIEW
 70
     1
  9
$SHADEDGE
 70
     3
  9
$SHADEDIF
 70
    70
  9
$TILEMODE
 70
     1
  9
$MAXACTVP
 70
    64
  9
$PINSBASE
 10
0.0
 20
0.0
 30
0.0
  9
$PLIMCHECK
 70
     0
  9
$PEXTMIN
 10
1.000000000000000E+20
 20
1.000000000000000E+20
 30
1.000000000000000E+20
  9
$PEXTMAX
 10
-1.000000000000000E+20
 20
-1.000000000000000E+20
 30
-1.000000000000000E+20
  9
$PLIMMIN
 10
-3.17498779296875
 20
-3.174999952316284
  9
$PLIMMAX
 10
293.4970092773438
 20
206.692492723465
  9
$UNITMODE
 70
     0
  9
$VISRETAIN
 70
     1
  9
$PLINEGEN
 70
     0
  9
$PSLTSCALE
 70
     1
  9
$TREEDEPTH
 70
  3020
  9
$CMLSTYLE
  2
Standard
  9
$CMLJUST
 70
     0
  9
$CMLSCALE
 40
20.0
  9
$PROXYGRAPHICS
 70
     1
  9
$MEASUREMENT
 70
     1
  9
$CELWEIGHT
370
    -1
  9
$ENDCAPS
280
     0
  9
$JOINSTYLE
280
     0
  9
$LWDISPLAY
290
     1
  9
$INSUNITS
 70
     4
  9
$HYPERLINKBASE
  1

  9
$STYLESHEET
  1
monochrome.ctb
  9
$XEDIT
290
     1
  9
$CEPSNTYPE
380
     0
  9
$PSTYLEMODE
290
     1
  9
$FINGERPRINTGUID
  2
{367E49C1-7489-400A-879E-E8E4D2634E9C}
  9
$VERSIONGUID
  2
{58F74D0F-8CDB-4C0A-ACE6-81DC334CE90B}
  9
$EXTNAMES
290
     1
  9
$PSVPSCALE
 40
0.0
  9
$OLESTARTUP
290
     0
  0
ENDSEC
  0
SECTION
  2
CLASSES
  0
CLASS
  1
ACDBDICTIONARYWDFLT
  2
AcDbDictionaryWithDefault
  3
ObjectDBX Classes
 90
        0
280
     0
281
     0
  0
CLASS
  1
ACDBPLACEHOLDER
  2
AcDbPlaceHolder
  3
ObjectDBX Classes
 90
        0
280
     0
281
     0
  0
CLASS
  1
LAYOUT
  2
AcDbLayout
  3
ObjectDBX Classes
 90
        0
280
     0
281
     0
  0
CLASS
  1
AMGSETTINGSOBJ
  2
AmgSettingsObj
  3
"AcadM|Product Description: AutoCAD Mechanical|Company: Autodesk"
 90
        0
280
     0
281
     0
  0
CLASS
  1
ACME_DOCUMENT
  2
AcMeDbDoc
  3
AcMeServices
 90
        0
280
     0
281
     0
  0
CLASS
  1
ACMESCOPE
  2
AcMeScope
  3
AcMeServices
 90
        0
280
     0
281
     0
  0
CLASS
  1
ACMECOMMANDHISTORY
  2
AcMeCommandHistory
  3
AcMeServices
 90
        0
280
     0
281
     0
  0
CLASS
  1
DICTIONARYVAR
  2
AcDbDictionaryVar
  3
ObjectDBX Classes
 90
        0
280
     0
281
     0
  0
CLASS
  1
ACIMSYSVARMAN
  2
AcImSysVarManager
  3
AcMeServices
 90
        0
280
     0
281
     0
  0
CLASS
  1
ACIMREALSYSVAR
  2
AcImRealSysVar
  3
AcMeServices
 90
        0
280
     0
281
     0
  0
CLASS
  1
ACIMINTSYSVAR
  2
AcImIntSysVar
  3
AcMeServices
 90
        0
280
     0
281
     0
  0
CLASS
  1
ACMEDRAWINGMAN
  2
AcMeDrawingMan
  3
AcMeServices
 90
        0
280
     0
281
     0
  0
CLASS
  1
ACMEVIEW
  2
AcMeView
  3
AcMeServices
 90
        0
280
     0
281
     0
  0
CLASS
  1
ACDBENTITYCACHE
  2
AcMeEntityCache
  3
AcMeServices
 90
        0
280
     0
281
     0
  0
CLASS
  1
GSMANAGER
  2
AcMeGSManager
  3
AcMeServices
 90
        0
280
     0
281
     0
  0
CLASS
  1
AMDTINTERNALREACTOR
  2
AmdtInternalReactor
  3
AcMeServices
 90
        0
280
     0
281
     0
  0
CLASS
  1
ACMESTATEMGR
  2
AcMeStateMgr
  3
AcMeServices
 90
        0
280
     0
281
     0
  0
CLASS
  1
ACGREFMASTER
  2
AcGrefMaster
  3
AcAttribServices
 90
        0
280
     0
281
     0
  0
CLASS
  1
ACME_DATABASE
  2
AcMeDbDatabase
  3
AcMeServices
 90
        0
280
     0
281
     0
  0
CLASS
  1
ACRFINSADJUSTERMGR
  2
AcRfInsAdjusterMgr
  3
AcMeServices
 90
        0
280
     0
281
     0
  0
CLASS
  1
ACGREFACADMASTER
  2
AcGrefacadMaster
  3
AcGrefServices
 90
        0
280
     0
281
     0
  0
CLASS
  1
AMIMASTER
  2
AmiMaster
  3
AmiServices
 90
        0
280
     0
281
     0
  0
CLASS
  1
ACMDATADICTIONARY
  2
AcmDataDictionary
  3
"AcmSymBB|Product Description: AutoCAD Mechanical|Company: Autodesk"
 90
        0
280
     0
281
     0
  0
CLASS
  1
ACMDATAENTRYBLOCK
  2
AcmDataEntryBlock
  3
"AcmSymBB|Product Description: AutoCAD Mechanical|Company: Autodesk"
 90
        0
280
     0
281
     0
  0
CLASS
  1
ACIMSTRSYSVAR
  2
AcImStrSysVar
  3
AcMeServices
 90
        0
280
     0
281
     0
  0
CLASS
  1
ACMSTANDARDISO
  2
AcmStandardISO
  3
"Amdt_StdImp|Product Description: AutoCAD Mechanical|Company: Autodesk"
 90
        0
280
     0
281
     0
  0
CLASS
  1
AMGOBJPROPCFG
  2
AmgObjPropCfg
  3
"AmgLay|Product Description: AutoCAD Mechanical|Company: Autodesk"
 90
        1
280
     0
281
     0
  0
CLASS
  1
AMDTEDGESTANDARDISO
  2
AmdtEdgeStdISO
  3
"Amdt_StdImp|Product Description: AutoCAD Mechanical|Company: Autodesk"
 90
        0
280
     0
281
     0
  0
CLASS
  1
ACMSURFSTANDARDISO
  2
AcmSurfTextStdISO
  3
"Amdt_StdImp|Product Description: AutoCAD Mechanical|Company: Autodesk"
 90
        0
280
     0
281
     0
  0
CLASS
  1
ACMFCFSTANDARDISO
  2
AcmFCFStdISO
  3
"Amdt_StdImp|Product Description: AutoCAD Mechanical|Company: Autodesk"
 90
        0
280
     0
281
     0
  0
CLASS
  1
ACMWELDSTANDARDISO
  2
AcmWeldingStdISO
  3
"Amdt_StdImp|Product Description: AutoCAD Mechanical|Company: Autodesk"
 90
        0
280
     0
281
     0
  0
CLASS
  1
ACMIDSTANDARDISO
  2
AcmIdStdISO
  3
"Amdt_StdImp|Product Description: AutoCAD Mechanical|Company: Autodesk"
 90
        0
280
     0
281
     0
  0
CLASS
  1
ACMDATUMSTANDARDISO
  2
AcmDatumStdISO
  3
"Amdt_StdImp|Product Description: AutoCAD Mechanical|Company: Autodesk"
 90
        0
280
     0
281
     0
  0
CLASS
  1
ACMBOMSTANDARDISO
  2
AcmBOMStdISO
  3
"Amdt_StdImp|Product Description: AutoCAD Mechanical|Company: Autodesk"
 90
        0
280
     0
281
     0
  0
CLASS
  1
ACMDETAILSTANDARDISO
  2
AmdtDetailSymStdISO
  3
"Amdt_StdImp|Product Description: AutoCAD Mechanical|Company: Autodesk"
 90
        0
280
     0
281
     0
  0
CLASS
  1
ACMSECTIONSTANDARDISO
  2
AmdtSectionSymStdISO
  3
"Amdt_StdImp|Product Description: AutoCAD Mechanical|Company: Autodesk"
 90
        0
280
     0
281
     0
  0
CLASS
  1
ACMCENTERLINESTANDARDISO
  2
AmdtCenterLineStdISO
  3
"Amdt_StdImp|Product Description: AutoCAD Mechanical|Company: Autodesk"
 90
        0
280
     0
281
     0
  0
CLASS
  1
ACAMGLAYSTD
  2
AcAmgLayStd
  3
"AmgLay|Product Description: AutoCAD Mechanical|Company: Autodesk"
 90
        0
280
     0
281
     0
  0
CLASS
  1
ACAMGDIMSTD
  2
AcAmgDimStd
  3
"AmgDim|Product Description: AutoCAD Mechanical|Company: Autodesk"
 90
        0
280
     0
281
     0
  0
CLASS
  1
ACAMGTITLESTD
  2
AcAmgTitleStd
  3
"AmgTitle|Product Description: AutoCAD Mechanical|Company: Autodesk"
 90
        0
280
     0
281
     0
  0
CLASS
  1
ACAMGFILTERDAT
  2
AcAmgFilterDat
  3
"AcadM|Product Description: AutoCAD Mechanical|Company: Autodesk"
 90
        0
280
     0
281
     0
  0
CLASS
  1
LAYER_INDEX
  2
AcDbLayerIndex
  3
ObjectDBX Classes
 90
    32768
280
     0
281
     0
  0
CLASS
  1
IDBUFFER
  2
AcDbIdBuffer
  3
ObjectDBX Classes
 90
    32768
280
     0
281
     0
  0
CLASS
  1
PLOTSETTINGS
  2
AcDbPlotSettings
  3
ObjectDBX Classes
 90
    32768
280
     0
281
     0
  0
CLASS
  1
AMDTFORMULAUPDATEDISPATCHER
  2
AmdtFormulaUpdateDispatcher
  3
AcMeServices
 90
        0
280
     0
281
     0
  0
CLASS
  1
ACMSTANDARDANSI
  2
AcmStandardANSI
  3
"Amdt_StdImp|Product Description: AutoCAD Mechanical|Company: Autodesk"
 90
        0
280
     0
281
     0
  0
CLASS
  1
ACMSURFSTANDARDANSI
  2
AcmSurfTextStdANSI
  3
"Amdt_StdImp|Product Description: AutoCAD Mechanical|Company: Autodesk"
 90
        0
280
     0
281
     0
  0
CLASS
  1
ACMFCFSTANDARDANSI
  2
AcmFCFStdANSI
  3
"Amdt_StdImp|Product Description: AutoCAD Mechanical|Company: Autodesk"
 90
        0
280
     0
281
     0
  0
CLASS
  1
ACMWELDSTANDARDANSI
  2
AcmWeldingStdANSI
  3
"Amdt_StdImp|Product Description: AutoCAD Mechanical|Company: Autodesk"
 90
        0
280
     0
281
     0
  0
CLASS
  1
ACMIDSTANDARDANSI
  2
AcmIdStdANSI
  3
"Amdt_StdImp|Product Description: AutoCAD Mechanical|Company: Autodesk"
 90
        0
280
     0
281
     0
  0
CLASS
  1
ACMDATUMSTANDARDANSI
  2
AcmDatumStdANSI
  3
"Amdt_StdImp|Product Description: AutoCAD Mechanical|Company: Autodesk"
 90
        0
280
     0
281
     0
  0
CLASS
  1
ACMBOMSTANDARDANSI
  2
AcmBOMStdANSI
  3
"Amdt_StdImp|Product Description: AutoCAD Mechanical|Company: Autodesk"
 90
        0
280
     0
281
     0
  0
CLASS
  1
ACMDETAILSTANDARDANSI
  2
AmdtDetailSymStdANSI
  3
"Amdt_StdImp|Product Description: AutoCAD Mechanical|Company: Autodesk"
 90
        0
280
     0
281
     0
  0
CLASS
  1
ACMSECTIONSTANDARDANSI
  2
AmdtSectionSymStdANSI
  3
"Amdt_StdImp|Product Description: AutoCAD Mechanical|Company: Autodesk"
 90
        0
280
     0
281
     0
  0
CLASS
  1
ACMCENTERLINESTANDARDANSI
  2
AmdtCenterLineStdANSI
  3
"Amdt_StdImp|Product Description: AutoCAD Mechanical|Company: Autodesk"
 90
        0
280
     0
281
     0
  0
CLASS
  1
ACMBOM
  2
AcmBom
  3
"AcmSymBB|Product Description: AutoCAD Mechanical|Company: Autodesk"
 90
        0
280
     0
281
     0
  0
CLASS
  1
ACMDATAENTRYPART
  2
AcmDataEntryPart
  3
"AcmSymBB|Product Description: AutoCAD Mechanical|Company: Autodesk"
 90
    32768
280
     0
281
     0
  0
CLASS
  1
ACMPARTREF
  2
AcmPartRef
  3
"AcmSymBB|Product Description: AutoCAD Mechanical|Company: Autodesk"
 90
    35839
280
     0
281
     1
  0
CLASS
  1
ACDBCIRCARCRES
  2
AcDbCircArcRes
  3
AcGrefServices
 90
    32768
280
     0
281
     0
  0
CLASS
  1
ACMBOMROW
  2
AcmBomRow
  3
"AcmSymBB|Product Description: AutoCAD Mechanical|Company: Autodesk"
 90
    32768
280
     0
281
     0
  0
CLASS
  1
ACMBALLOON
  2
AcmBalloon
  3
"AcmSymBB|Product Description: AutoCAD Mechanical|Company: Autodesk"
 90
    35839
280
     0
281
     1
  0
CLASS
  1
AMDTNOTE
  2
AmdtNote
  3
"AcmSymBB|Product Description: AutoCAD Mechanical|Company: Autodesk"
 90
    35839
280
     0
281
     1
  0
CLASS
  1
STDPART2D
  2
AmgStdPart
  3
"g3vace|Class: AmgStdPart|Product Description: AutoCAD Mechanical|Company: Autodesk"
 90
    35839
280
     0
281
     1
  0
CLASS
  1
ACDBSTDPARTRES_LINE
  2
AcDbStdPartRes_Line
  3
"g3vace|Class: AcDbStdPartRes_Line|Product Description: AutoCAD Mechanical|Company: Autodesk"
 90
    32768
280
     0
281
     0
  0
CLASS
  1
ACMDATAENTRY
  2
AcmDataEntry
  3
"AcmSymBB|Product Description: AutoCAD Mechanical|Company: Autodesk"
 90
        0
280
     0
281
     0
  0
CLASS
  1
ACDBOPPOLYLINERES
  2
AcDbOpPolylineRes
  3
AcGrefServices
 90
    32768
280
     0
281
     0
  0
CLASS
  1
ACMPARTLIST
  2
AcmPartList
  3
"AcmSymBB|Product Description: AutoCAD Mechanical|Company: Autodesk"
 90
    35839
280
     0
281
     1
  0
CLASS
  1
ACDBLINERES
  2
AcDbLineRes
  3
AcGrefServices
 90
    32768
280
     0
281
     0
  0
CLASS
  1
ACRFINSADJ
  2
AcRfInsAdjuster
  3
AcMeServices
 90
    32768
280
     0
281
     0
  0
CLASS
  1
AM_DRAWING_MGR
  2
AcDmDwgMgr
  3
AcMechDwgViewMgmt
 90
        0
280
     0
281
     0
  0
CLASS
  1
AM_DWG_DOCUMENT
  2
AcDmDwgDocument
  3
AcMechDwgViewMgmt
 90
        0
280
     0
281
     0
  0
CLASS
  1
AM_DWG_SHEET
  2
AcDmSheet
  3
AcMechDwgViewMgmt
 90
        0
280
     0
281
     0
  0
CLASS
  1
AM_VIEWDIMPARMAP
  2
AcDmViewDimParMap
  3
AcMechDwgViewMgmt
 90
        0
280
     0
281
     0
  0
CLASS
  1
AM_DWGMGR_NAME
  2
AcDmDwgMgrName
  3
AcMechDwgViewMgmt
 90
        0
280
     0
281
     0
  0
CLASS
  1
AMDTMENUSTATEMGR
  2
AmdtMenuStateMgr
  3
McadcomServices
 90
        0
280
     0
281
     0
  0
CLASS
  1
AMDTMCOMMENUSTATE
  2
AmdtMcomMenuState
  3
McadcomServices
 90
        0
280
     0
281
     0
  0
CLASS
  1
ASAPP
  2
AcAsAppObject
  3
AutoSurfServices
 90
        0
280
     0
281
     0
  0
CLASS
  1
IM_STATIC_MAN
  2
AcImStaticVarManager
  3
AcMeServices
 90
        0
280
     0
281
     0
  0
CLASS
  1
ACIMDBLSTATICVAR
  2
AcImDblStaticVar
  3
AcMeServices
 90
        0
280
     0
281
     0
  0
CLASS
  1
ACIMSTRSTATICVAR
  2
AcImStrStaticVar
  3
AcMeServices
 90
        0
280
     0
281
     0
  0
CLASS
  1
ACIMINTSTATICVAR
  2
AcImIntStaticVar
  3
AcMeServices
 90
        0
280
     0
281
     0
  0
CLASS
  1
ACASGREFMASTER
  2
AcAsGrefMaster
  3
AutoSurfResolverServices
 90
        0
280
     0
281
     0
  0
CLASS
  1
ACADGREFMODULE
  2
AcAdGrefModule
  3
AdGrefServices
 90
        0
280
     0
281
     0
  0
CLASS
  1
AMDTMAPISURFMOUDULE
  2
AmdtMApiSurfModule
  3
MApiSurfServices
 90
        0
280
     0
281
     0
  0
CLASS
  1
MAPIAMMOUDLE
  2
MApiAmModule
  3
MApiAmServices
 90
        0
280
     0
281
     0
  0
CLASS
  1
AMDTADMENUSTATE
  2
AmdtAdMenuState
  3
DesignerServices
 90
        0
280
     0
281
     0
  0
CLASS
  1
ADAPPL
  2
AcAdAppl
  3
DesignerServices
 90
        0
280
     0
281
     0
  0
CLASS
  1
DEPMGR
  2
AcAdDepMgr
  3
DesignerServices
 90
        0
280
     0
281
     0
  0
CLASS
  1
PARAMMGR
  2
AcAdParamMgr
  3
DesignerServices
 90
        0
280
     0
281
     0
  0
CLASS
  1
PARAMSCOPE
  2
AcAdParamScope
  3
DesignerServices
 90
        0
280
     0
281
     0
  0
CLASS
  1
NAMEDAPPL
  2
AcAdNamedAppl
  3
DesignerServices
 90
        0
280
     0
281
     0
  0
CLASS
  1
ADHNTMPLT
  2
AdHoleNoteTemplateMgr
  3
DesignerServices
 90
    32768
280
     0
281
     0
  0
CLASS
  1
AM_HNTEMPLATE_MGR_NAME
  2
AdHoleNoteTemplateMgrName
  3
DesignerServices
 90
    32768
280
     0
281
     0
  0
CLASS
  1
AMDTDMMENUSTATE
  2
AmdtDmMenuState
  3
AcMechDwgViewMgmt
 90
        0
280
     0
281
     0
  0
CLASS
  1
MAPIADMODULE
  2
MApiAdModule
  3
MApiAdServices
 90
        0
280
     0
281
     0
  0
CLASS
  1
AMDTAMMENUSTATE
  2
AmdtAmMenuState
  3
DesignerAssemblies
 90
        0
280
     0
281
     0
  0
CLASS
  1
ACAMPROJECT
  2
AcAmProject
  3
DesignerAssemblies
 90
        0
280
     0
281
     0
  0
CLASS
  1
ACAMGRCOMPDEF
  2
AcAmGrCompDef
  3
DesignerAssemblies
 90
        0
280
     0
281
     0
  0
CLASS
  1
ACCMCONTEXT
  2
AcCmContext
  3
DesignerAssemblies
 90
        0
280
     0
281
     0
  0
CLASS
  1
ACAMCOMPDEF
  2
AcAmCompDef
  3
DesignerAssemblies
 90
        0
280
     0
281
     0
  0
CLASS
  1
ACAMCOMPDEFMGR
  2
AcAmCompDefMgr
  3
DesignerAssemblies
 90
        0
280
     0
281
     0
  0
CLASS
  1
AMCONTEXTMGR
  2
AcAmContextMgr
  3
DesignerAssemblies
 90
        0
280
     0
281
     0
  0
CLASS
  1
ACAMCONTEXTMODELER
  2
AcAmContextModeler
  3
DesignerAssemblies
 90
        0
280
     0
281
     0
  0
CLASS
  1
CATALOGSTATE
  2
AcAmCatalogState
  3
DesignerAssemblies
 90
        0
280
     0
281
     0
  0
CLASS
  1
ACAMGRCOMPDEFSET
  2
AcAmGrCompDefSet
  3
DesignerAssemblies
 90
        0
280
     0
281
     0
  0
CLASS
  1
AMDTBROWSERDBTAB
  2
AmdtBrowserDbTab
  3
McadcomServices
 90
        0
280
     0
281
     0
  0
CLASS
  1
CBROWSERAPPOBJECT
  2
CBrowserAppObject
  3
McadcomServices
 90
        0
280
     0
281
     0
  0
CLASS
  1
DM_PLACEHOLDER
  2
AcDmSelsetPlaceholder
  3
AcMechDwgViewMgmt
 90
        0
280
     0
281
     0
  0
CLASS
  1
ACMPICKOBJ
  2
AcmPickEnt
  3
"AcmSymBB|Product Description: AutoCAD Mechanical|Company: Autodesk"
 90
    32768
280
     0
281
     1
  0
CLASS
  1
ACMNOTESTANDARDISO
  2
AmdtNoteStdISO
  3
"Amdt_StdImp|Product Description: AutoCAD Mechanical|Company: Autodesk"
 90
        0
280
     0
281
     0
  0
CLASS
  1
ACMNOTESTANDARDANSI
  2
AmdtNoteStdANSI
  3
"Amdt_StdImp|Product Description: AutoCAD Mechanical|Company: Autodesk"
 90
        0
280
     0
281
     0
  0
CLASS
  1
ACMTHREADLINESTANDARDISO
  2
AmdtThreadLineStdISO
  3
"Amdt_StdImp|Product Description: AutoCAD Mechanical|Company: Autodesk"
 90
        0
280
     0
281
     0
  0
CLASS
  1
ACMTHREADLINESTANDARDANSI
  2
AmdtThreadLineStdANSI
  3
"Amdt_StdImp|Product Description: AutoCAD Mechanical|Company: Autodesk"
 90
        0
280
     0
281
     0
  0
CLASS
  1
TABLESTYLE
  2
AcDbTableStyle
  3
ObjectDBX Classes
 90
     4095
280
     0
281
     0
  0
CLASS
  1
SORTENTSTABLE
  2
AcDbSortentsTable
  3
ObjectDBX Classes
 90
        0
280
     0
281
     0
  0
CLASS
  1
MATERIAL
  2
AcDbMaterial
  3
ObjectDBX Classes
 90
     1024
280
     0
281
     0
  0
CLASS
  1
VISUALSTYLE
  2
AcDbVisualStyle
  3
ObjectDBX Classes
 90
     4095
280
     0
281
     0
  0
CLASS
  1
ACRFATTGENMGR
  2
AcRfAttGeneralMgr
  3
AcAttribServices
 90
        0
280
     0
281
     0
  0
CLASS
  1
ACRFOBJATTMGR
  2
AcRfObjAttGroupMgr
  3
AcAttribServices
 90
        0
280
     0
281
     0
  0
CLASS
  1
ACRFMCADAPIATTHOLDER
  2
AcRfMCADAPIAttHolder
  3
AcAttribServices
 90
        0
280
     0
281
     0
  0
CLASS
  1
AMDTSYSATTR
  2
AmdtSystemAttribute
  3
AcAttribServices
 90
        0
280
     0
281
     0
  0
CLASS
  1
ACMTAPERSTANDARDISO
  2
AcmTaperStdISO
  3
"Amdt_StdImp|Product Description: AutoCAD Mechanical|Company: Autodesk"
 90
        0
280
     0
281
     0
  0
CLASS
  1
CAMSSTRUCTBTNSTATE
  2
StructBtnState
  3
L"DesignerAssemblies"
 90
        0
280
     0
281
     0
  0
CLASS
  1
DIMASSOC
  2
AcDbDimAssoc
  3
"AcDbDimAssoc|Product Desc:     AcDim ARX App For Dimension|Company:          Autodesk, Inc.|WEB Address:      www.autodesk.com"
 90
    32768
280
     0
281
     0
  0
CLASS
  1
AMDTNOTETEMPLATEDB
  2
AmdtNoteTemplateDB
  3
AMDT_STDIMP_MODULE_NAME
 90
        0
280
     0
281
     0
  0
CLASS
  1
ACMTAPERSTANDARDANSI
  2
AcmTaperStdANSI
  3
"Amdt_StdImp|Product Description: AutoCAD Mechanical|Company: Autodesk"
 90
        0
280
     0
281
     0
  0
CLASS
  1
ACAMGHOLECHARTSTDANSI
  2
AcAmgHoleChartStdANSI
  3
ACMSYMBB_MODULE_NAME
 90
        0
280
     0
281
     0
  0
ENDSEC
  0
SECTION
  2
TABLES
  0
TABLE
  2
VPORT
  5
8
330
0
100
AcDbSymbolTable
 70
     1
  0
VPORT
  5
B0EC
330
8
100
AcDbSymbolTableRecord
100
AcDbViewportTableRecord
  2
*Active
 70
     0
 10
0.0
 20
0.0
 11
1.0
 21
1.0
 12
136.5112132488086
 22
85.49124372669327
 13
0.0
 23
0.0
 14
2.5
 24
2.5
 15
10.0
 25
10.0
 16
0.0
 26
0.0
 36
1.0
 17
0.0
 27
0.0
 37
0.0
 40
172.3554826229309
 41
1.648648648648648
 42
50.0
 43
-1370.695619172058
 44
-1370.695619172058
 50
0.0
 51
0.0
 71
    16
 72
   100
 73
     1
 74
     3
 75
     0
 76
     0
 77
     0
 78
     0
281
     0
 65
     0
110
0.0
120
0.0
130
0.0
111
1.0
121
0.0
131
0.0
112
0.0
122
1.0
132
0.0
 79
     0
146
0.0
  0
ENDTAB
  0
TABLE
  2
LTYPE
  5
5
330
0
100
AcDbSymbolTable
 70
    32
  0
LTYPE
  5
14
330
5
100
AcDbSymbolTableRecord
100
AcDbLinetypeTableRecord
  2
ByBlock
 70
     0
  3

 72
    65
 73
     0
 40
0.0
  0
LTYPE
  5
15
330
5
100
AcDbSymbolTableRecord
100
AcDbLinetypeTableRecord
  2
ByLayer
 70
     0
  3

 72
    65
 73
     0
 40
0.0
  0
LTYPE
  5
16
330
5
100
AcDbSymbolTableRecord
100
AcDbLinetypeTableRecord
  2
Continuous
 70
     0
  3
Solid line
 72
    65
 73
     0
 40
0.0
  0
LTYPE
  5
4F
330
5
100
AcDbSymbolTableRecord
100
AcDbLinetypeTableRecord
  2
AM_ISO02W050
 70
     0
  3
__ __ __ __ __ __ __ __ __ __ __ __ __ __ __
 72
    65
 73
     2
 40
7.5
 49
6.0
 74
     0
 49
-1.5
 74
     0
  0
LTYPE
  5
52
330
5
100
AcDbSymbolTableRecord
100
AcDbLinetypeTableRecord
  2
Amconstr
 70
     0
  3
_______________________
 72
    65
 73
     2
 40
9999.0
 49
9999.0
 74
     0
 49
0.0
 74
     0
  0
LTYPE
  5
64
330
5
100
AcDbSymbolTableRecord
100
AcDbLinetypeTableRecord
  2
ACISOWELD
 70
     0
  3
_ _ _ _ _
 72
    65
 73
     2
 40
2.0
 49
2.0
 74
     0
 49
-1.0
 74
     0
  0
LTYPE
  5
65
330
5
100
AcDbSymbolTableRecord
100
AcDbLinetypeTableRecord
  2
ACISOTGB
 70
     0
  3
__ . . __ . .
 72
    65
 73
     6
 40
9.0
 49
4.0
 74
     0
 49
-1.0
 74
     0
 49
1.0
 74
     0
 49
-1.0
 74
     0
 49
1.0
 74
     0
 49
-1.0
 74
     0
  0
LTYPE
  5
66
330
5
100
AcDbSymbolTableRecord
100
AcDbLinetypeTableRecord
  2
ACISOTGL
 70
     0
  3
_ _ _ _ _
 72
    65
 73
     2
 40
3.0
 49
2.0
 74
     0
 49
-1.0
 74
     0
  0
LTYPE
  5
69
330
5
100
AcDbSymbolTableRecord
100
AcDbLinetypeTableRecord
  2
CENTER
 70
     0
  3
__ . __
 72
    65
 73
     4
 40
7.0
 49
4.0
 74
     0
 49
-1.0
 74
     0
 49
1.0
 74
     0
 49
-1.0
 74
     0
  0
LTYPE
  5
A6E
330
5
100
AcDbSymbolTableRecord
100
AcDbLinetypeTableRecord
  2
PHANTOM2
 70
     0
  3
Phantom (.5x) ___ _ _ ___ _ _ ___ _ _ ___ _ _
 72
    65
 73
     6
 40
31.75
 49
15.875
 74
     0
 49
-3.174999999999999
 74
     0
 49
3.174999999999999
 74
     0
 49
-3.174999999999999
 74
     0
 49
3.174999999999999
 74
     0
 49
-3.174999999999999
 74
     0
  0
LTYPE
  5
4DED
330
5
100
AcDbSymbolTableRecord
100
AcDbLinetypeTableRecord
  2
中線
 70
     0
  3
___________________
 72
    65
 73
     2
 40
2.0
 49
1.0
 74
     0
 49
1.0
 74
     0
  0
LTYPE
  5
4DF6
330
5
100
AcDbSymbolTableRecord
100
AcDbLinetypeTableRecord
  2
細線
 70
     0
  3
___________________
 72
    65
 73
     2
 40
2.0
 49
1.0
 74
     0
 49
1.0
 74
     0
  0
LTYPE
  5
4DF7
330
5
100
AcDbSymbolTableRecord
100
AcDbLinetypeTableRecord
  2
太線
 70
     0
  3
___________________
 72
    65
 73
     2
 40
2.0
 49
1.0
 74
     0
 49
1.0
 74
     0
  0
LTYPE
  5
4EA7
330
5
100
AcDbSymbolTableRecord
100
AcDbLinetypeTableRecord
  2
文字
 70
     0
  3
_________________
 72
    65
 73
     2
 40
2.0
 49
1.0
 74
     0
 49
1.0
 74
     0
  0
LTYPE
  5
4EA9
330
5
100
AcDbSymbolTableRecord
100
AcDbLinetypeTableRecord
  2
寸法線
 70
     0
  3
________________
 72
    65
 73
     2
 40
2.0
 49
1.0
 74
     0
 49
1.0
 74
     0
  0
LTYPE
  5
4F12
330
5
100
AcDbSymbolTableRecord
100
AcDbLinetypeTableRecord
  2
ハッチング
 70
     0
  3
_________________
 72
    65
 73
     2
 40
2.0
 49
1.0
 74
     0
 49
1.0
 74
     0
  0
LTYPE
  5
5180
330
5
100
AcDbSymbolTableRecord
100
AcDbLinetypeTableRecord
  2
陰線1
 70
     0
  3
__ __ __ __
 72
    65
 73
     2
 40
4.0
 49
2.2
 74
     0
 49
-1.8
 74
     0
  0
LTYPE
  5
5182
330
5
100
AcDbSymbolTableRecord
100
AcDbLinetypeTableRecord
  2
切断線
 70
     0
  3
/\/-/\/-/\/-/\/-/\/-/\/
 72
    65
 73
     2
 40
11.0001
 49
0.0001
 74
     4
 75
   135
340
56
 46
0.04
 50
0.0
 44
0.0
 45
0.0
 49
-11.0
 74
     0
  0
LTYPE
  5
5183
330
5
100
AcDbSymbolTableRecord
100
AcDbLinetypeTableRecord
  2
想像線1
 70
     0
  3
__ __ __ _____ __ __ ____
 72
    65
 73
     6
 40
14.5
 49
6.0
 74
     0
 49
-1.5
 74
     0
 49
2.0
 74
     0
 49
-1.5
 74
     0
 49
2.0
 74
     0
 49
-1.5
 74
     0
  0
LTYPE
  5
5185
330
5
100
AcDbSymbolTableRecord
100
AcDbLinetypeTableRecord
  2
中心線1
 70
     0
  3
___ _ ___ _ ___
 72
    65
 73
     4
 40
18.0
 49
12.0
 74
     0
 49
-2.0
 74
     0
 49
2.0
 74
     0
 49
-2.0
 74
     0
  0
LTYPE
  5
5188
330
5
100
AcDbSymbolTableRecord
100
AcDbLinetypeTableRecord
  2
補助線
 70
     0
  3
______________
 72
    65
 73
     2
 40
2.0
 49
1.0
 74
     0
 49
1.0
 74
     0
  0
LTYPE
  5
6427
330
5
100
AcDbSymbolTableRecord
100
AcDbLinetypeTableRecord
  2
HIDDEN
 70
     0
  3
Hidden __ __ __ __ __ __ __ __ __ __ __ __ __ _
 72
    65
 73
     2
 40
0.375
 49
0.25
 74
     0
 49
-0.125
 74
     0
  0
LTYPE
  5
AC81
330
5
100
AcDbSymbolTableRecord
100
AcDbLinetypeTableRecord
  2
破断線
 70
     0
  3
/\/-/\/-/\/-/\/-/\/-/\/
 72
    65
 73
     2
 40
0.4401
 49
0.0001
 74
     4
 75
   136
340
AC80
 46
0.0016
 50
0.0
 44
0.0
 45
0.0
 49
-0.4400000000000001
 74
     0
  0
LTYPE
  5
AC9E
330
5
100
AcDbSymbolTableRecord
100
AcDbLinetypeTableRecord
  2
Amzigzag
 70
     0
  3
/\/-/\/-/\/-/\/-/\/-/\/
 72
    65
 73
     2
 40
11.0001
 49
0.0001
 74
     4
 75
   135
340
56
 46
0.04
 50
0.0
 44
0.0
 45
0.0
 49
-11.0
 74
     0
  0
LTYPE
  5
AF0F
330
5
100
AcDbSymbolTableRecord
100
AcDbLinetypeTableRecord
  2
genzigzag
 70
     0
  3
/\/-/\/-/\/-/\/-/\/-/\/
 72
    65
 73
     2
 40
12.0001
 49
0.0001
 74
     4
 75
   135
340
AC80
 46
2.0
 50
0.0
 44
0.0
 45
0.0
 49
-12.0
 74
     0
  0
LTYPE
  5
AF95
330
5
100
AcDbSymbolTableRecord
100
AcDbLinetypeTableRecord
  2
AM_ISO08W050
 70
     0
  3
____ . ____ . ____ . ____ . ____ . ____ . ____
 72
    65
 73
     4
 40
18.0
 49
12.0
 74
     0
 49
-1.5
 74
     0
 49
3.0
 74
     0
 49
-1.5
 74
     0
  0
LTYPE
  5
AF96
330
5
100
AcDbSymbolTableRecord
100
AcDbLinetypeTableRecord
  2
AM_ISO09W050
 70
     0
  3
_____ . . _____ . . _____ . . ____ .. ____
 72
    65
 73
     6
 40
22.5
 49
12.0
 74
     0
 49
-1.5
 74
     0
 49
3.0
 74
     0
 49
-1.5
 74
     0
 49
3.0
 74
     0
 49
-1.5
 74
     0
  0
LTYPE
  5
AF97
330
5
100
AcDbSymbolTableRecord
100
AcDbLinetypeTableRecord
  2
AM_ISO08W050x2
 70
     0
  3
__ . __ . __ . __ . __ . __
 72
    65
 73
     4
 40
9.0
 49
6.0
 74
     0
 49
-0.75
 74
     0
 49
1.5
 74
     0
 49
-0.75
 74
     0
  0
LTYPE
  5
AF98
330
5
100
AcDbSymbolTableRecord
100
AcDbLinetypeTableRecord
  2
AM_ISO02W050x2
 70
     0
  3
 _ _ _ _ _ _ _ _ _ _ _ _
 72
    65
 73
     2
 40
3.75
 49
3.0
 74
     0
 49
-0.75
 74
     0
  0
LTYPE
  5
B59D
330
5
100
AcDbSymbolTableRecord
100
AcDbLinetypeTableRecord
  2
ACANSTGB
 70
     0
  3
__ . . __ . .
 72
    65
 73
     6
 40
0.35433070866
 49
0.15748031496
 74
     0
 49
-0.03937007874
 74
     0
 49
0.03937007874
 74
     0
 49
-0.03937007874
 74
     0
 49
0.03937007874
 74
     0
 49
-0.03937007874
 74
     0
  0
LTYPE
  5
B59E
330
5
100
AcDbSymbolTableRecord
100
AcDbLinetypeTableRecord
  2
ACANSTGL
 70
     0
  3
_ _ _ _ _
 72
    65
 73
     2
 40
0.11811023622
 49
0.07874015748
 74
     0
 49
-0.03937007874
 74
     0
  0
LTYPE
  5
B59F
330
5
100
AcDbSymbolTableRecord
100
AcDbLinetypeTableRecord
  2
CENTER2
 70
     0
  3
Center (.5x) ___ _ ___ _ ___ _ ___ _ ___ _ ___
 72
    65
 73
     4
 40
1.125
 49
0.75
 74
     0
 49
-0.125
 74
     0
 49
0.125
 74
     0
 49
-0.125
 74
     0
  0
LTYPE
  5
B5A0
330
5
100
AcDbSymbolTableRecord
100
AcDbLinetypeTableRecord
  2
HIDDEN2
 70
     0
  3
Hidden (.5x) _ _ _ _ _ _ _ _ _ _ _ _ _ _ _ _ _
 72
    65
 73
     2
 40
0.1875
 49
0.125
 74
     0
 49
-0.0625
 74
     0
  0
LTYPE
  5
B5A1
330
5
100
AcDbSymbolTableRecord
100
AcDbLinetypeTableRecord
  2
AMZIGZAG2
 70
     0
  3
/\/-/\/-/\/-/\/-/\/-/\/
 72
    65
 73
     2
 40
0.4401
 49
0.0001
 74
     0
 49
-0.4400000000000003
 74
     0
  0
ENDTAB
  0
TABLE
  2
LAYER
  5
2
102
{ACAD_XDICTIONARY
360
3F95
102
}
330
0
100
AcDbSymbolTable
 70
    18
  0
LAYER
  5
10
330
2
100
AcDbSymbolTableRecord
100
AcDbLayerTableRecord
  2
0
 70
     0
 62
     7
  6
Continuous
370
    -3
390
F
  0
LAYER
  5
6D1
330
2
100
AcDbSymbolTableRecord
100
AcDbLayerTableRecord
  2
Defpoints
 70
     0
 62
     7
  6
Continuous
290
     0
370
    -3
390
F
  0
LAYER
  5
5F85
330
2
100
AcDbSymbolTableRecord
100
AcDbLayerTableRecord
  2
AM_0
 70
     0
 62
     7
  6
中線
370
    30
390
F
1001
AcAecLayerStandard
1000

1000

  0
LAYER
  5
AC9F
330
2
100
AcDbSymbolTableRecord
100
AcDbLayerTableRecord
  2
size
 70
     0
 62
     5
  6
Continuous
290
     0
370
    25
390
F
  0
LAYER
  5
ACA0
330
2
100
AcDbSymbolTableRecord
100
AcDbLayerTableRecord
  2
waku
 70
     0
 62
     7
  6
Continuous
370
    35
390
F
  0
LAYER
  5
ACA1
330
2
100
AcDbSymbolTableRecord
100
AcDbLayerTableRecord
  2
AM_6
 70
     0
 62
     2
  6
文字
370
    13
390
F
1001
AcAecLayerStandard
1000

1000

  0
LAYER
  5
ACC8
330
2
100
AcDbSymbolTableRecord
100
AcDbLayerTableRecord
  2
hyomoji
 70
     0
 62
     2
  6
Continuous
370
    13
390
F
  0
LAYER
  5
ACC9
330
2
100
AcDbSymbolTableRecord
100
AcDbLayerTableRecord
  2
hyosen1
 70
     0
 62
     1
  6
Continuous
370
    30
390
F
  0
LAYER
  5
ACCA
330
2
100
AcDbSymbolTableRecord
100
AcDbLayerTableRecord
  2
hyosen2
 70
     0
 62
     1
  6
Continuous
370
    13
390
F
  0
LAYER
  5
AD60
330
2
100
AcDbSymbolTableRecord
100
AcDbLayerTableRecord
  2
AM_1
 70
     0
 62
    30
  6
太線
370
    40
390
F
1001
AcAecLayerStandard
1000

1000

  0
LAYER
  5
AD64
330
2
100
AcDbSymbolTableRecord
100
AcDbLayerTableRecord
  2
AM_2
 70
     0
 62
     1
  6
細線
370
    13
390
F
1001
AcAecLayerStandard
1000

1000

  0
LAYER
  5
AD67
330
2
100
AcDbSymbolTableRecord
100
AcDbLayerTableRecord
  2
AM_3
 70
     0
 62
     6
  6
陰線1
370
    13
390
F
1001
AcAecLayerStandard
1000

1000

  0
LAYER
  5
AD68
330
2
100
AcDbSymbolTableRecord
100
AcDbLayerTableRecord
  2
AM_5
 70
     0
 62
     3
  6
寸法線
370
    13
390
F
1001
AcAecLayerStandard
1000

1000

  0
LAYER
  5
AD69
330
2
100
AcDbSymbolTableRecord
100
AcDbLayerTableRecord
  2
AM_7
 70
     0
 62
     4
  6
中心線1
370
    13
390
F
1001
AcAecLayerStandard
1000

1000

  0
LAYER
  5
AD6A
330
2
100
AcDbSymbolTableRecord
100
AcDbLayerTableRecord
  2
AM_8
 70
     0
 62
     1
  6
ハッチング
370
    13
390
F
1001
AcAecLayerStandard
1000

1000

  0
LAYER
  5
AD6E
330
2
100
AcDbSymbolTableRecord
100
AcDbLayerTableRecord
  2
AM_10
 70
     0
 62
     7
  6
切断線
370
    30
390
F
1001
AcAecLayerStandard
1000

1000

  0
LAYER
  5
AD6F
330
2
100
AcDbSymbolTableRecord
100
AcDbLayerTableRecord
  2
AM_11
 70
     0
 62
     2
  6
想像線1
370
    13
390
F
1001
AcAecLayerStandard
1000

1000

  0
LAYER
  5
B1B6
330
2
100
AcDbSymbolTableRecord
100
AcDbLayerTableRecord
  2
AM_CL
 70
     1
 62
    -1
  6
Amconstr
370
    13
390
F
1001
AcAecLayerStandard
1000

1000

  0
ENDTAB
  0
TABLE
  2
STYLE
  5
3
330
0
100
AcDbSymbolTable
 70
    10
  0
STYLE
  5
11
330
3
100
AcDbSymbolTableRecord
100
AcDbTextStyleTableRecord
  2
STANDARD
 70
     0
 40
0.0
 41
0.7
 50
0.0
 71
     0
 42
3.2
  3
romans.shx
  4
extfont.shx
  0
STYLE
  5
56
330
3
100
AcDbSymbolTableRecord
100
AcDbTextStyleTableRecord
  2

 70
     1
 40
0.0
 41
1.0
 50
0.0
 71
     0
 42
2.5
  3
ltypeshp.shx
  4

  0
STYLE
  5
58
330
3
100
AcDbSymbolTableRecord
100
AcDbTextStyleTableRecord
  2
ACISOTS
 70
     0
 40
1.0
 41
1.0
 50
0.0
 71
     0
 42
2.5
  3
isocp.shx
  4
extfont.shx
  0
STYLE
  5
63
330
3
100
AcDbSymbolTableRecord
100
AcDbTextStyleTableRecord
  2
ACISOGDT
 70
     0
 40
0.0
 41
1.0
 50
0.0
 71
     0
 42
2.5
  3
amgdt.shx
  4

  0
STYLE
  5
A74
330
3
100
AcDbSymbolTableRecord
100
AcDbTextStyleTableRecord
  2
DIM
 70
     0
 40
0.0
 41
1.0
 50
0.0
 71
     0
 42
2.5
  3
monotxt.shx
  4
extfont.shx
  0
STYLE
  5
AC80
330
3
100
AcDbSymbolTableRecord
100
AcDbTextStyleTableRecord
  2

 70
     1
 40
0.0
 41
1.0
 50
0.0
 71
     0
 42
3.2
  3
genltshp.shx
  4

  0
STYLE
  5
B5A2
330
3
100
AcDbSymbolTableRecord
100
AcDbTextStyleTableRecord
  2
ACANSTS
 70
     0
 40
1.0
 41
1.0
 50
0.0
 71
     0
 42
0.2
  3
romans.shx
  4
extfont.shx
  0
STYLE
  5
B5A3
330
3
100
AcDbSymbolTableRecord
100
AcDbTextStyleTableRecord
  2
ACANSGDT
 70
     0
 40
0.0
 41
1.0
 50
0.0
 71
     0
 42
0.2
  3
amgdt.shx
  4

  0
ENDTAB
  0
TABLE
  2
VIEW
  5
6
330
0
100
AcDbSymbolTable
 70
     6
  0
VIEW
  5
AE1
330
6
100
AcDbSymbolTableRecord
100
AcDbViewTableRecord
  2
AM_VIEW1
 70
     0
 40
129.7276464542651
 10
1775.10588156276
 20
1793.121228859297
 41
148.5
 11
0.0
 21
0.0
 31
1.0
 12
0.0
 22
0.0
 32
0.0
 42
50.0
 43
-1370.695619172058
 44
-1370.695619172058
 50
0.0
 71
    16
281
     0
 72
     0
  0
VIEW
  5
AE2
330
6
100
AcDbSymbolTableRecord
100
AcDbViewTableRecord
  2
AM_VIEW2
 70
     0
 40
129.7276464542651
 10
1923.60588156276
 20
1793.121228859297
 41
148.5
 11
0.0
 21
0.0
 31
1.0
 12
0.0
 22
0.0
 32
0.0
 42
50.0
 43
-1370.695619172058
 44
-1370.695619172058
 50
0.0
 71
    16
281
     0
 72
     0
  0
VIEW
  5
AE3
330
6
100
AcDbSymbolTableRecord
100
AcDbViewTableRecord
  2
AM_VIEW3
 70
     0
 40
129.7276464542651
 10
1775.10588156276
 20
1712.848875313562
 41
148.5
 11
0.0
 21
0.0
 31
1.0
 12
0.0
 22
0.0
 32
0.0
 42
50.0
 43
-1370.695619172058
 44
-1370.695619172058
 50
0.0
 71
    16
281
     0
 72
     0
  0
VIEW
  5
AE4
330
6
100
AcDbSymbolTableRecord
100
AcDbViewTableRecord
  2
AM_VIEW4
 70
     0
 40
129.7276464542651
 10
1923.60588156276
 20
1712.848875313562
 41
148.5
 11
0.0
 21
0.0
 31
1.0
 12
0.0
 22
0.0
 32
0.0
 42
50.0
 43
-1370.695619172058
 44
-1370.695619172058
 50
0.0
 71
    16
281
     0
 72
     0
  0
VIEW
  5
AE5
330
6
100
AcDbSymbolTableRecord
100
AcDbViewTableRecord
  2
AM_VIEW5
 70
     0
 40
129.7276464542651
 10
1849.35588156276
 20
1752.985052086429
 41
148.5
 11
0.0
 21
0.0
 31
1.0
 12
0.0
 22
0.0
 32
0.0
 42
50.0
 43
-1370.695619172058
 44
-1370.695619172058
 50
0.0
 71
    16
281
     0
 72
     0
  0
VIEW
  5
AE6
330
6
100
AcDbSymbolTableRecord
100
AcDbViewTableRecord
  2
AM_VIEW6
 70
     0
 40
259.4526983556011
 10
1849.35588156276
 20
1752.985052086429
 41
296.99703
 11
0.0
 21
0.0
 31
1.0
 12
0.0
 22
0.0
 32
0.0
 42
50.0
 43
-1370.695619172058
 44
-1370.695619172058
 50
0.0
 71
    16
281
     0
 72
     0
  0
ENDTAB
  0
TABLE
  2
UCS
  5
7
330
0
100
AcDbSymbolTable
 70
     0
  0
ENDTAB
  0
TABLE
  2
APPID
  5
9
330
0
100
AcDbSymbolTable
 70
    55
  0
APPID
  5
12
330
9
100
AcDbSymbolTableRecord
100
AcDbRegAppTableRecord
  2
ACAD
 70
     0
  0
APPID
  5
30
330
9
100
AcDbSymbolTableRecord
100
AcDbRegAppTableRecord
  2
MCAD_NO_VIS
 70
     0
  0
APPID
  5
31
330
9
100
AcDbSymbolTableRecord
100
AcDbRegAppTableRecord
  2
ACAD_TEMP_GRAPHIC
 70
     0
  0
APPID
  5
44
330
9
100
AcDbSymbolTableRecord
100
AcDbRegAppTableRecord
  2
ACATTRIBSERVICES
 70
     0
  0
APPID
  5
7A1
330
9
100
AcDbSymbolTableRecord
100
AcDbRegAppTableRecord
  2
GENIUS_GENDIMSH_14
 70
     0
  0
APPID
  5
A49
330
9
100
AcDbSymbolTableRecord
100
AcDbRegAppTableRecord
  2
GENIUS_GENREC_14
 70
     0
  0
APPID
  5
A4A
330
9
100
AcDbSymbolTableRecord
100
AcDbRegAppTableRecord
  2
GENIUS_GENOBJ-N-REC_13
 70
     0
  0
APPID
  5
A4B
330
9
100
AcDbSymbolTableRecord
100
AcDbRegAppTableRecord
  2
GENIUS_GENODEF_13
 70
     0
  0
APPID
  5
A4C
330
9
100
AcDbSymbolTableRecord
100
AcDbRegAppTableRecord
  2
DCO15
 70
     0
  0
APPID
  5
ADC
330
9
100
AcDbSymbolTableRecord
100
AcDbRegAppTableRecord
  2
GENIUS_GENOLIS_13
 70
     0
  0
APPID
  5
ADD
330
9
100
AcDbSymbolTableRecord
100
AcDbRegAppTableRecord
  2
GENIUS_GENOENT_13
 70
     0
  0
APPID
  5
ADE
330
9
100
AcDbSymbolTableRecord
100
AcDbRegAppTableRecord
  2
GENIUS_GENOBJ-N-TIT_13
 70
     0
  0
APPID
  5
ADF
330
9
100
AcDbSymbolTableRecord
100
AcDbRegAppTableRecord
  2
GENIUS_GENTITLE_13
 70
     0
  0
APPID
  5
AE0
330
9
100
AcDbSymbolTableRecord
100
AcDbRegAppTableRecord
  2
GENIUS_GENOREF_13
 70
     0
  0
APPID
  5
AE7
330
9
100
AcDbSymbolTableRecord
100
AcDbRegAppTableRecord
  2
GENIUS_GENSCREG_15
 70
     0
  0
APPID
  5
AE8
330
9
100
AcDbSymbolTableRecord
100
AcDbRegAppTableRecord
  2
GENIUS_GENOBJ-N-SDF_13
 70
     0
  0
APPID
  5
FAF
330
9
100
AcDbSymbolTableRecord
100
AcDbRegAppTableRecord
  2
GENIUS_GENBLLY_14
 70
     0
  0
APPID
  5
FB0
330
9
100
AcDbSymbolTableRecord
100
AcDbRegAppTableRecord
  2
GENIUS_GENTRA_14
 70
     0
  0
APPID
  5
1285
330
9
100
AcDbSymbolTableRecord
100
AcDbRegAppTableRecord
  2
GENIUS_GENDTOL_13
 70
     0
  0
APPID
  5
142D
330
9
100
AcDbSymbolTableRecord
100
AcDbRegAppTableRecord
  2
GENIUS_GENOBJ-N-CEN_13
 70
     0
  0
APPID
  5
1AB5
330
9
100
AcDbSymbolTableRecord
100
AcDbRegAppTableRecord
  2
GENIUS_GENOBJ-N-CRS_13
 70
     0
  0
APPID
  5
1B36
330
9
100
AcDbSymbolTableRecord
100
AcDbRegAppTableRecord
  2
GENIUS_GENOBJ-N-HTC_13
 70
     0
  0
APPID
  5
1B37
330
9
100
AcDbSymbolTableRecord
100
AcDbRegAppTableRecord
  2
GENIUS_GENHATCH_13
 70
     0
  0
APPID
  5
216D
330
9
100
AcDbSymbolTableRecord
100
AcDbRegAppTableRecord
  2
GENIUS_GENOBJ-N-FIL_13
 70
     0
  0
APPID
  5
2356
330
9
100
AcDbSymbolTableRecord
100
AcDbRegAppTableRecord
  2
GEVID990412420
 70
     0
  0
APPID
  5
2357
330
9
100
AcDbSymbolTableRecord
100
AcDbRegAppTableRecord
  2
GEVDC
 70
     0
  0
APPID
  5
2358
330
9
100
AcDbSymbolTableRecord
100
AcDbRegAppTableRecord
  2
GEVCON
 70
     0
  0
APPID
  5
235B
330
9
100
AcDbSymbolTableRecord
100
AcDbRegAppTableRecord
  2
GEVRADREF
 70
     0
  0
APPID
  5
2360
330
9
100
AcDbSymbolTableRecord
100
AcDbRegAppTableRecord
  2
GENIUS_GENBH_13
 70
     0
  0
APPID
  5
2362
330
9
100
AcDbSymbolTableRecord
100
AcDbRegAppTableRecord
  2
GENIUS_GENOBJ-NBEHI-BHF_13
 70
     0
  0
APPID
  5
2364
330
9
100
AcDbSymbolTableRecord
100
AcDbRegAppTableRecord
  2
GENIUS_GENOBJ-NBEHI-BHB_13
 70
     0
  0
APPID
  5
2379
330
9
100
AcDbSymbolTableRecord
100
AcDbRegAppTableRecord
  2
GENIUS_GENOBJ-F-SCPASSM_13
 70
     0
  0
APPID
  5
3D74
330
9
100
AcDbSymbolTableRecord
100
AcDbRegAppTableRecord
  2
GENIUS_GENDIM_13
 70
     0
  0
APPID
  5
3D76
330
9
100
AcDbSymbolTableRecord
100
AcDbRegAppTableRecord
  2
GENIUS_GE3DTOL_13
 70
     0
  0
APPID
  5
3D9C
330
9
100
AcDbSymbolTableRecord
100
AcDbRegAppTableRecord
  2
AD_DRAW
 70
     0
  0
APPID
  5
3DE8
330
9
100
AcDbSymbolTableRecord
100
AcDbRegAppTableRecord
  2
ASURF_PCURVE_APPNAME
 70
     0
  0
APPID
  5
3DED
330
9
100
AcDbSymbolTableRecord
100
AcDbRegAppTableRecord
  2
AMG_3D2D_5.0
 70
     0
  0
APPID
  5
3E1B
330
9
100
AcDbSymbolTableRecord
100
AcDbRegAppTableRecord
  2
DESIGNERASSEMBLIES
 70
     0
  0
APPID
  5
3E20
330
9
100
AcDbSymbolTableRecord
100
AcDbRegAppTableRecord
  2
ACADM_DIM_EDIT
 70
     0
  0
APPID
  5
3E21
330
9
100
AcDbSymbolTableRecord
100
AcDbRegAppTableRecord
  2
AMDT_DM_ADJ
 70
     0
  0
APPID
  5
4143
330
9
100
AcDbSymbolTableRecord
100
AcDbRegAppTableRecord
  2
GENIUS_GENFIL_13
 70
     0
  0
APPID
  5
4144
330
9
100
AcDbSymbolTableRecord
100
AcDbRegAppTableRecord
  2
GENIUS_GENOBJ-N-CHA_13
 70
     0
  0
APPID
  5
4E17
330
9
100
AcDbSymbolTableRecord
100
AcDbRegAppTableRecord
  2
GEVID1008153417
 70
     0
  0
APPID
  5
4E58
330
9
100
AcDbSymbolTableRecord
100
AcDbRegAppTableRecord
  2
GEVID1008153418
 70
     0
  0
APPID
  5
4E5E
330
9
100
AcDbSymbolTableRecord
100
AcDbRegAppTableRecord
  2
GEVID1008153419
 70
     0
  0
APPID
  5
4E64
330
9
100
AcDbSymbolTableRecord
100
AcDbRegAppTableRecord
  2
GEVID1008153420
 70
     0
  0
APPID
  5
4E75
330
9
100
AcDbSymbolTableRecord
100
AcDbRegAppTableRecord
  2
GEVID1008153421
 70
     0
  0
APPID
  5
4EB7
330
9
100
AcDbSymbolTableRecord
100
AcDbRegAppTableRecord
  2
GENIUS_AMGTXT_16
 70
     0
  0
APPID
  5
7645
330
9
100
AcDbSymbolTableRecord
100
AcDbRegAppTableRecord
  2
GENIUS_GENOBJ-N-DIM_13
 70
     0
  0
APPID
  5
AAD0
330
9
100
AcDbSymbolTableRecord
100
AcDbRegAppTableRecord
  2
ACAD_DSTYLE_DIMARC_LENGTH_SYMBOL
 70
     0
  0
APPID
  5
AAD1
330
9
100
AcDbSymbolTableRecord
100
AcDbRegAppTableRecord
  2
ACAD_DSTYLE_DIMJOGGED_JOGANGLE_SYMBOL
 70
     0
  0
APPID
  5
AAFD
330
9
100
AcDbSymbolTableRecord
100
AcDbRegAppTableRecord
  2
ACAD_PSEXT
 70
     0
  0
APPID
  5
AD61
330
9
100
AcDbSymbolTableRecord
100
AcDbRegAppTableRecord
  2
AcAecLayerStandard
 70
     0
  0
APPID
  5
AEE3
330
9
100
AcDbSymbolTableRecord
100
AcDbRegAppTableRecord
  2
ACAD_EXEMPT_FROM_CAD_STANDARDS
 70
     0
  0
APPID
  5
B1BE
330
9
100
AcDbSymbolTableRecord
100
AcDbRegAppTableRecord
  2
GENIUS_GENCEN_19
 70
     0
  0
ENDTAB
  0
TABLE
  2
DIMSTYLE
  5
A
330
0
100
AcDbSymbolTable
 70
    25
100
AcDbDimStyleTable
 71
     1
340
2515
  0
DIMSTYLE
105
A76
330
A
100
AcDbSymbolTableRecord
100
AcDbDimStyleTableRecord
  2
STANDARD
 70
     0
 41
3.0
 42
1.0
 43
7.0
 44
2.0
 73
     0
 74
     0
 77
     1
140
2.799999999999999
141
0.0
143
0.0394
147
0.7
171
     4
172
     1
173
     1
176
     3
177
     3
178
     2
271
     3
272
     3
273
     8
274
     4
289
     0
340
A74
341
A66
343
A66
344
A66
  0
DIMSTYLE
105
2515
330
A
100
AcDbSymbolTableRecord
100
AcDbDimStyleTableRecord
  2
SYS
 70
     0
  4
"
 41
1.0
 42
1.0
 43
10.0
 44
1.0
 47
0.1
 48
0.1
 73
     0
 74
     0
 77
     1
 78
     8
 79
     2
140
3.5
141
0.0
143
0.0393701
146
0.71
147
1.5
172
     1
176
   256
177
   256
178
     7
271
     2
272
     2
283
     0
284
     8
340
11
371
    -1
372
    -1
1001
ACAD_DSTYLE_DIMJOGGED_JOGANGLE_SYMBOL
1070
   384
1040
0.7853981633974483
1001
ACAD_DSTYLE_DIMARC_LENGTH_SYMBOL
1070
   379
1070
     1
  0
DIMSTYLE
105
2516
330
A
100
AcDbSymbolTableRecord
100
AcDbDimStyleTableRecord
  2
SYS$3
 70
     0
  4
"
 41
2.0
 42
1.0
 43
10.0
 44
1.0
 47
0.1
 48
0.1
 73
     0
 77
     1
 78
     8
 79
     2
140
3.5
141
0.0
143
0.0393701
146
0.71
147
1.5
176
   256
177
   256
178
     2
271
     2
272
     2
283
     0
284
     8
288
     1
340
11
342
A66
371
    -1
372
    -1
1001
ACAD_DSTYLE_DIMJOGGED_JOGANGLE_SYMBOL
1070
   384
1040
0.7853981633974483
1001
ACAD_DSTYLE_DIMARC_LENGTH_SYMBOL
1070
   379
1070
     1
  0
DIMSTYLE
105
2517
330
A
100
AcDbSymbolTableRecord
100
AcDbDimStyleTableRecord
  2
SYS$4
 70
     0
  4
"
 41
2.0
 42
1.0
 43
10.0
 44
1.0
 47
0.1
 48
0.1
 73
     0
 77
     1
 78
     8
 79
     2
140
3.5
141
0.0
143
0.0393701
146
0.71
147
1.5
173
     1
176
   256
177
   256
178
     2
271
     2
272
     2
283
     0
284
     8
288
     1
340
11
344
A66
371
    -1
372
    -1
1001
ACAD_DSTYLE_DIMJOGGED_JOGANGLE_SYMBOL
1070
   384
1040
0.7853981633974483
1001
ACAD_DSTYLE_DIMARC_LENGTH_SYMBOL
1070
   379
1070
     1
  0
DIMSTYLE
105
2518
330
A
100
AcDbSymbolTableRecord
100
AcDbDimStyleTableRecord
  2
SYS$6
 70
     0
  4
"
 41
2.0
 42
1.0
 43
10.0
 44
1.0
 47
0.1
 48
0.1
 73
     0
 74
     0
 78
     8
 79
     2
140
3.5
141
0.0
143
0.0393701
146
0.71
147
1.5
172
     1
176
   256
177
   256
178
     2
271
     2
272
     2
283
     0
284
     8
340
11
341
A66
371
    -1
372
    -1
1001
ACAD_DSTYLE_DIMJOGGED_JOGANGLE_SYMBOL
1070
   384
1040
0.7853981633974483
1001
ACAD_DSTYLE_DIMARC_LENGTH_SYMBOL
1070
   379
1070
     1
  0
DIMSTYLE
105
2519
330
A
100
AcDbSymbolTableRecord
100
AcDbDimStyleTableRecord
  2
SYS$7
 70
     0
  4
"
 41
2.0
 42
1.0
 43
10.0
 44
1.0
 47
0.1
 48
0.1
 73
     0
 74
     0
 77
     1
 78
     8
 79
     2
140
5.0
141
0.0
143
0.0393701
146
0.71
147
1.5
172
     1
176
   256
177
   256
178
     2
271
     2
272
     2
283
     0
284
     8
340
11
341
A66
342
A66
371
    -1
372
    -1
1001
ACAD_DSTYLE_DIMJOGGED_JOGANGLE_SYMBOL
1070
   384
1040
0.7853981633974483
1001
ACAD_DSTYLE_DIMARC_LENGTH_SYMBOL
1070
   379
1070
     1
  0
DIMSTYLE
105
251A
330
A
100
AcDbSymbolTableRecord
100
AcDbDimStyleTableRecord
  2
SYS$SF
 70
     0
  4
"
 41
2.5
 42
1.0
 43
10.0
 44
1.0
 47
0.1
 48
0.1
 73
     0
 74
     0
 75
     1
 76
     1
 77
     1
 78
     8
 79
     2
140
3.5
141
0.0
143
0.0393701
146
0.71
147
1.5
172
     1
176
   256
177
   256
178
     2
271
     2
272
     3
283
     0
284
     8
340
11
341
6C4
342
6C4
371
    -1
372
    -1
1001
ACAD_DSTYLE_DIMJOGGED_JOGANGLE_SYMBOL
1070
   384
1040
0.7853981633974483
1001
ACAD_DSTYLE_DIMARC_LENGTH_SYMBOL
1070
   379
1070
     1
  0
DIMSTYLE
105
251B
330
A
100
AcDbSymbolTableRecord
100
AcDbDimStyleTableRecord
  2
SYS$SH
 70
     0
  4
"
 41
2.5
 42
1.0
 43
10.0
 44
1.0
 47
0.1
 48
0.1
 73
     0
 74
     0
 75
     1
 76
     1
 77
     1
 78
     8
 79
     2
140
3.5
141
0.0
143
0.0393701
144
2.0
146
0.71
147
1.5
172
     1
173
     1
176
   256
177
   256
178
     2
271
     2
272
     3
283
     0
284
     8
340
11
341
6C4
343
72
344
6C4
371
    -1
372
    -1
1001
ACAD_DSTYLE_DIMJOGGED_JOGANGLE_SYMBOL
1070
   384
1040
0.7853981633974483
1001
ACAD_DSTYLE_DIMARC_LENGTH_SYMBOL
1070
   379
1070
     1
  0
DIMSTYLE
105
2A59
330
A
100
AcDbSymbolTableRecord
100
AcDbDimStyleTableRecord
  2
SYS$2
 70
     0
  4
"
 41
1.0
 42
1.0
 43
10.0
 44
1.0
 47
0.1
 48
0.1
 73
     0
 74
     0
 77
     1
 78
     8
 79
     2
140
3.5
141
0.0
143
0.0393701
146
0.71
147
1.5
172
     1
176
   256
177
   256
178
     2
271
     2
272
     2
283
     0
284
     8
340
11
342
6C4
371
    -1
372
    -1
1001
ACAD_DSTYLE_DIMJOGGED_JOGANGLE_SYMBOL
1070
   384
1040
0.7853981633974483
1001
ACAD_DSTYLE_DIMARC_LENGTH_SYMBOL
1070
   379
1070
     1
  0
DIMSTYLE
105
2AAB
102
{ACAD_REACTORS
330
B66C
330
B66E
330
B780
330
B7AC
330
B7CB
330
B7EA
330
B828
330
B83E
330
B866
102
}
330
A
100
AcDbSymbolTableRecord
100
AcDbDimStyleTableRecord
  2
SYS$0
 70
     0
  4
"
 41
1.0
 42
1.0
 43
10.0
 44
1.0
 47
0.1
 48
0.1
 73
     0
 74
     0
 77
     1
 78
     8
 79
     2
140
3.200000000000001
141
0.0
143
0.0393701
146
0.71
147
1.5
172
     1
176
   256
177
   256
178
     2
271
     2
272
     2
283
     0
284
     8
340
11
341
A66
342
6C4
371
    -1
372
    -1
1001
ACAD_DSTYLE_DIMJOGGED_JOGANGLE_SYMBOL
1070
   384
1040
0.7853981633974483
1001
ACAD_DSTYLE_DIMARC_LENGTH_SYMBOL
1070
   379
1070
     1
  0
DIMSTYLE
105
AF99
330
A
100
AcDbSymbolTableRecord
100
AcDbDimStyleTableRecord
  2
AM_ISO
 70
     0
  4
"
 41
2.5
 42
1.0
 43
10.0
 44
1.0
 47
0.1
 48
0.1
 73
     0
 74
     0
 77
     1
 78
     8
 79
     2
140
3.5
141
0.0
143
0.0393701
146
0.71
147
1.5
172
     1
176
   256
177
   256
178
     2
271
     2
272
     3
274
     4
283
     0
284
     8
340
11
371
    -1
372
    -1
  0
DIMSTYLE
105
AF9A
330
A
100
AcDbSymbolTableRecord
100
AcDbDimStyleTableRecord
  2
AM_ISO$3
 70
     0
  4
"
 41
2.5
 42
1.0
 43
10.0
 44
1.0
 47
0.1
 48
0.1
 73
     0
 77
     1
 78
     8
 79
     2
140
3.5
141
0.0
143
0.0393701
146
0.71
147
1.5
176
   256
177
   256
178
     2
271
     2
272
     3
274
     4
283
     0
284
     8
288
     1
289
     0
340
11
371
    -1
372
    -1
  0
DIMSTYLE
105
AF9B
330
A
100
AcDbSymbolTableRecord
100
AcDbDimStyleTableRecord
  2
AM_ISO$4
 70
     0
  4
"
 41
2.5
 42
1.0
 43
10.0
 44
1.0
 47
0.1
 48
0.1
 73
     0
 77
     1
 78
     8
 79
     2
140
3.5
141
0.0
143
0.0393701
146
0.71
147
1.5
176
   256
177
   256
178
     2
271
     2
272
     3
274
     4
283
     0
284
     8
288
     1
289
     0
340
11
371
    -1
372
    -1
  0
DIMSTYLE
105
AF9C
330
A
100
AcDbSymbolTableRecord
100
AcDbDimStyleTableRecord
  2
AM_ISO$6
 70
     0
  4
"
 41
2.5
 42
1.0
 43
10.0
 44
1.0
 47
0.1
 48
0.1
 73
     0
 74
     0
 78
     8
 79
     2
140
3.5
141
0.0
143
0.0393701
146
0.71
147
1.5
172
     1
176
   256
177
   256
178
     2
271
     2
272
     3
274
     4
283
     0
284
     8
340
11
371
    -1
372
    -1
  0
DIMSTYLE
105
AF9D
330
A
100
AcDbSymbolTableRecord
100
AcDbDimStyleTableRecord
  2
AM_ISO$7
 70
     0
  4
"
 41
2.5
 42
1.0
 43
10.0
 44
1.0
 47
0.1
 48
0.1
 73
     0
 74
     0
 77
     1
 78
     8
 79
     2
140
5.0
141
0.0
143
0.0393701
146
0.71
147
1.5
172
     1
176
   256
177
   256
178
     2
271
     2
272
     3
274
     4
283
     0
284
     8
340
11
371
    -1
372
    -1
  0
DIMSTYLE
105
AF9E
330
A
100
AcDbSymbolTableRecord
100
AcDbDimStyleTableRecord
  2
AM_ISO$SF
 70
     0
  4
"
 41
2.5
 42
1.0
 43
10.0
 44
1.0
 47
0.1
 48
0.1
 73
     0
 74
     0
 75
     1
 76
     1
 77
     1
 78
     8
 79
     2
140
3.5
141
0.0
143
0.0393701
146
0.71
147
1.5
172
     1
176
   256
177
   256
178
     2
271
     2
272
     3
274
     4
283
     0
284
     8
340
11
371
    -1
372
    -1
  0
DIMSTYLE
105
AF9F
330
A
100
AcDbSymbolTableRecord
100
AcDbDimStyleTableRecord
  2
AM_ISO$SH
 70
     0
  4
"
 41
2.5
 42
1.0
 43
10.0
 44
1.0
 47
0.1
 48
0.1
 73
     0
 74
     0
 75
     1
 76
     1
 77
     1
 78
     8
 79
     2
140
3.5
141
0.0
143
0.0393701
144
2.0
146
0.71
147
1.5
172
     1
173
     1
176
   256
177
   256
178
     2
271
     2
272
     3
274
     4
283
     0
284
     8
340
11
343
72
371
    -1
372
    -1
  0
DIMSTYLE
105
B5A4
330
A
100
AcDbSymbolTableRecord
100
AcDbDimStyleTableRecord
  2
AM_ANSI
 70
     0
  4
mm
 41
0.1
 42
0.05
 43
0.5
 44
0.1
 47
0.1
 48
0.1
 78
     7
140
0.12
141
0.0
146
0.71
147
0.06
176
   256
177
   256
178
     2
271
     2
272
     2
279
     2
284
     8
285
     8
286
     8
340
11
  0
DIMSTYLE
105
B5A5
330
A
100
AcDbSymbolTableRecord
100
AcDbDimStyleTableRecord
  2
AM_ANSI$3
 70
     0
  4
mm
 41
0.1
 42
0.05
 43
0.5
 44
0.1
 47
0.1
 48
0.1
 78
     7
140
0.12
141
0.0
146
0.71
147
0.06
176
   256
177
   256
178
     2
271
     2
272
     2
279
     2
284
     8
285
     8
286
     8
340
11
  0
DIMSTYLE
105
B5A6
330
A
100
AcDbSymbolTableRecord
100
AcDbDimStyleTableRecord
  2
AM_ANSI$4
 70
     0
  4
mm
 41
0.1
 42
0.05
 43
0.5
 44
0.1
 47
0.1
 48
0.1
 78
     7
140
0.12
141
0.0
146
0.71
147
0.06
176
   256
177
   256
178
     2
271
     2
272
     2
279
     2
284
     8
285
     8
286
     8
340
11
  0
DIMSTYLE
105
B5A7
330
A
100
AcDbSymbolTableRecord
100
AcDbDimStyleTableRecord
  2
AM_ANSI$7
 70
     0
  4
mm
 41
0.1
 42
0.05
 43
0.5
 44
0.1
 47
0.1
 48
0.1
 78
     7
140
0.24
141
0.0
146
0.71
147
0.06
176
   256
177
   256
178
     2
271
     2
272
     2
279
     2
284
     8
285
     8
286
     8
340
11
  0
DIMSTYLE
105
B5A8
330
A
100
AcDbSymbolTableRecord
100
AcDbDimStyleTableRecord
  2
AM_ANSI$SF
 70
     0
  4
mm
 41
0.1
 42
0.05
 43
0.5
 44
0.1
 47
0.1
 48
0.1
 75
     1
 76
     1
 78
     7
140
0.12
141
0.0
146
0.71
147
0.06
176
   256
177
   256
178
     2
271
     2
272
     2
279
     2
284
     8
285
     8
286
     8
340
11
  0
DIMSTYLE
105
B5A9
330
A
100
AcDbSymbolTableRecord
100
AcDbDimStyleTableRecord
  2
AM_ANSI$SH
 70
     0
  4
mm
 41
0.1
 42
0.05
 43
0.5
 44
0.1
 47
0.1
 48
0.1
 75
     1
 76
     1
 78
     7
140
0.12
141
0.0
146
0.71
147
0.06
173
     1
176
   256
177
   256
178
     2
271
     2
272
     2
279
     2
284
     8
285
     8
286
     8
340
11
  0
ENDTAB
  0
TABLE
  2
BLOCK_RECORD
  5
1
330
0
100
AcDbSymbolTable
 70
    31
  0
BLOCK_RECORD
  5
1F
102
{ACAD_XDICTIONARY
360
8A
102
}
330
1
100
AcDbSymbolTableRecord
100
AcDbBlockTableRecord
  2
*Model_Space
340
22
  0
BLOCK_RECORD
  5
1B
330
1
100
AcDbSymbolTableRecord
100
AcDbBlockTableRecord
  2
*Paper_Space
340
1E
  0
BLOCK_RECORD
  5
23
330
1
100
AcDbSymbolTableRecord
100
AcDbBlockTableRecord
  2
*Paper_Space0
340
26
  0
BLOCK_RECORD
  5
72
330
1
100
AcDbSymbolTableRecord
100
AcDbBlockTableRecord
  2
GENAXEH
340
0
  0
BLOCK_RECORD
  5
6C4
330
1
100
AcDbSymbolTableRecord
100
AcDbBlockTableRecord
  2
_Dot
340
0
102
{BLKREFS
331
B790
331
B791
331
B7A6
331
B7A7
331
B7C5
331
B7C6
331
B7DB
331
B7DC
331
B803
331
B804
331
B838
331
B839
331
B860
331
B861
331
B876
331
B877
102
}
  0
BLOCK_RECORD
  5
A66
330
1
100
AcDbSymbolTableRecord
100
AcDbBlockTableRecord
  2
_OPEN30
340
0
  0
BLOCK_RECORD
  5
B542
330
1
100
AcDbSymbolTableRecord
100
AcDbBlockTableRecord
  2
_DOTSMALL
340
0
102
{BLKREFS
331
B54E
331
B54F
331
B55A
331
B55B
331
B566
331
B567
331
B572
331
B573
331
B57E
331
B57F
331
B58A
331
B58B
331
B596
331
B597
331
B74D
331
B74E
331
B756
331
B757
331
B75F
331
B760
331
B768
331
B769
331
B771
331
B772
331
B77A
331
B77B
331
B7E4
331
B7E5
102
}
  0
BLOCK_RECORD
  5
B549
330
1
100
AcDbSymbolTableRecord
100
AcDbBlockTableRecord
  2
*D6
340
0
  0
BLOCK_RECORD
  5
B555
330
1
100
AcDbSymbolTableRecord
100
AcDbBlockTableRecord
  2
*D7
340
0
  0
BLOCK_RECORD
  5
B561
330
1
100
AcDbSymbolTableRecord
100
AcDbBlockTableRecord
  2
*D8
340
0
  0
BLOCK_RECORD
  5
B56D
330
1
100
AcDbSymbolTableRecord
100
AcDbBlockTableRecord
  2
*D9
340
0
  0
BLOCK_RECORD
  5
B579
330
1
100
AcDbSymbolTableRecord
100
AcDbBlockTableRecord
  2
*D10
340
0
  0
BLOCK_RECORD
  5
B585
330
1
100
AcDbSymbolTableRecord
100
AcDbBlockTableRecord
  2
*D11
340
0
  0
BLOCK_RECORD
  5
B591
330
1
100
AcDbSymbolTableRecord
100
AcDbBlockTableRecord
  2
*D12
340
0
  0
BLOCK_RECORD
  5
B66F
330
1
100
AcDbSymbolTableRecord
100
AcDbBlockTableRecord
  2
*D14
340
0
  0
BLOCK_RECORD
  5
B67B
330
1
100
AcDbSymbolTableRecord
100
AcDbBlockTableRecord
  2
*D15
340
0
  0
BLOCK_RECORD
  5
B687
330
1
100
AcDbSymbolTableRecord
100
AcDbBlockTableRecord
  2
*D16
340
0
  0
BLOCK_RECORD
  5
B693
330
1
100
AcDbSymbolTableRecord
100
AcDbBlockTableRecord
  2
*D17
340
0
  0
BLOCK_RECORD
  5
B69F
330
1
100
AcDbSymbolTableRecord
100
AcDbBlockTableRecord
  2
*D18
340
0
  0
BLOCK_RECORD
  5
B6AB
330
1
100
AcDbSymbolTableRecord
100
AcDbBlockTableRecord
  2
*D19
340
0
  0
BLOCK_RECORD
  5
B6B7
330
1
100
AcDbSymbolTableRecord
100
AcDbBlockTableRecord
  2
*D20
340
0
  0
BLOCK_RECORD
  5
B781
330
1
100
AcDbSymbolTableRecord
100
AcDbBlockTableRecord
  2
*D21
340
0
  0
BLOCK_RECORD
  5
B797
330
1
100
AcDbSymbolTableRecord
100
AcDbBlockTableRecord
  2
*D22
340
0
  0
BLOCK_RECORD
  5
B7AD
330
1
100
AcDbSymbolTableRecord
100
AcDbBlockTableRecord
  2
*D23
340
0
  0
BLOCK_RECORD
  5
B7CC
330
1
100
AcDbSymbolTableRecord
100
AcDbBlockTableRecord
  2
*D24
340
0
  0
BLOCK_RECORD
  5
B7EB
330
1
100
AcDbSymbolTableRecord
100
AcDbBlockTableRecord
  2
*D25
340
0
  0
BLOCK_RECORD
  5
B829
330
1
100
AcDbSymbolTableRecord
100
AcDbBlockTableRecord
  2
*D26
340
0
  0
BLOCK_RECORD
  5
B83F
330
1
100
AcDbSymbolTableRecord
100
AcDbBlockTableRecord
  2
*D27
340
0
  0
BLOCK_RECORD
  5
B867
330
1
100
AcDbSymbolTableRecord
100
AcDbBlockTableRecord
  2
*D28
340
0
  0
ENDTAB
  0
ENDSEC
  0
SECTION
  2
BLOCKS
  0
BLOCK
  5
20
330
1F
100
AcDbEntity
  8
0
100
AcDbBlockBegin
  2
*Model_Space
 70
     0
 10
0.0
 20
0.0
 30
0.0
  3
*Model_Space
  1

  0
ENDBLK
  5
21
330
1F
100
AcDbEntity
  8
0
100
AcDbBlockEnd
  0
BLOCK
  5
1C
330
1B
100
AcDbEntity
 67
     1
  8
0
100
AcDbBlockBegin
  2
*Paper_Space
 70
     0
 10
0.0
 20
0.0
 30
0.0
  3
*Paper_Space
  1

  0
ENDBLK
  5
1D
330
1B
100
AcDbEntity
 67
     1
  8
0
100
AcDbBlockEnd
  0
BLOCK
  5
24
330
23
100
AcDbEntity
 67
     1
  8
0
100
AcDbBlockBegin
  2
*Paper_Space0
 70
     0
 10
0.0
 20
0.0
 30
0.0
  3
*Paper_Space0
  1

  0
ENDBLK
  5
25
330
23
100
AcDbEntity
 67
     1
  8
0
100
AcDbBlockEnd
  0
BLOCK
  5
74
330
72
100
AcDbEntity
  8
0
100
AcDbBlockBegin
  2
GENAXEH
 70
     0
 10
0.0
 20
0.0
 30
0.0
  3
GENAXEH
  1

  0
LINE
  5
73
330
72
100
AcDbEntity
  8
0
100
AcDbLine
 10
-1.0
 20
0.0
 30
0.0
 11
1.0
 21
0.0
 31
0.0
  0
ENDBLK
  5
75
330
72
100
AcDbEntity
  8
0
100
AcDbBlockEnd
  0
BLOCK
  5
6C7
330
6C4
100
AcDbEntity
  8
0
100
AcDbBlockBegin
  2
_Dot
 70
     0
 10
0.0
 20
0.0
 30
0.0
  3
_Dot
  1

  0
LWPOLYLINE
  5
6C5
330
6C4
100
AcDbEntity
  8
0
  6
ByBlock
 62
     0
100
AcDbPolyline
 90
        2
 70
     1
 43
0.5
 10
-0.25
 20
0.0
 42
1.0
 10
0.25
 20
0.0
 42
1.0
  0
LINE
  5
6C6
330
6C4
100
AcDbEntity
  8
0
  6
ByBlock
 62
     0
370
    -2
100
AcDbLine
 10
-0.5
 20
0.0
 30
0.0
 11
-1.0
 21
0.0
 31
0.0
  0
ENDBLK
  5
6C8
330
6C4
100
AcDbEntity
  8
0
100
AcDbBlockEnd
  0
BLOCK
  5
A6A
330
A66
100
AcDbEntity
  8
0
100
AcDbBlockBegin
  2
_OPEN30
 70
     0
 10
0.0
 20
0.0
 30
0.0
  3
_OPEN30
  1

  0
LINE
  5
A67
330
A66
100
AcDbEntity
  8
0
  6
ByBlock
 62
     0
100
AcDbLine
 10
-1.0
 20
0.26794919
 30
0.0
 11
0.0
 21
0.0
 31
0.0
  0
LINE
  5
A68
330
A66
100
AcDbEntity
  8
0
  6
ByBlock
 62
     0
100
AcDbLine
 10
0.0
 20
0.0
 30
0.0
 11
-1.0
 21
-0.26794919
 31
0.0
  0
LINE
  5
A69
330
A66
100
AcDbEntity
  8
0
  6
ByBlock
 62
     0
100
AcDbLine
 10
0.0
 20
0.0
 30
0.0
 11
-1.0
 21
0.0
 31
0.0
  0
ENDBLK
  5
A6B
330
A66
100
AcDbEntity
  8
0
100
AcDbBlockEnd
  0
BLOCK
  5
B543
330
B542
100
AcDbEntity
  8
0
100
AcDbBlockBegin
  2
_DOTSMALL
 70
     0
 10
0.0
 20
0.0
 30
0.0
  3
_DOTSMALL
  1

  0
POLYLINE
  5
B544
330
B542
100
AcDbEntity
  8
0
  6
ByBlock
 62
     0
100
AcDb2dPolyline
 66
     1
 10
0.0
 20
0.0
 30
0.0
 70
     1
 40
0.5
 41
0.5
  0
VERTEX
  5
B545
330
B544
100
AcDbEntity
  8
0
  6
ByBlock
 62
     0
100
AcDbVertex
100
AcDb2dVertex
 10
-0.0625
 20
0.0
 30
0.0
 42
1.0
  0
VERTEX
  5
B546
330
B544
100
AcDbEntity
  8
0
  6
ByBlock
 62
     0
100
AcDbVertex
100
AcDb2dVertex
 10
0.0625
 20
0.0
 30
0.0
 42
1.0
  0
SEQEND
  5
B547
330
B544
100
AcDbEntity
  8
0
  6
ByBlock
 62
     0
  0
ENDBLK
  5
B548
330
B542
100
AcDbEntity
  8
0
100
AcDbBlockEnd
  0
BLOCK
  5
B54A
330
B549
100
AcDbEntity
  8
0
100
AcDbBlockBegin
  2
*D6
 70
     1
 10
0.0
 20
0.0
 30
0.0
  3
*D6
  1

  0
LINE
  5
B54B
330
B549
100
AcDbEntity
  8
AM_5
370
    -2
100
AcDbLine
 10
66.61982430769302
 20
-35.91622286806595
 30
0.0
 11
66.61982430769302
 21
-44.91623323345122
 31
0.0
  0
LINE
  5
B54C
330
B549
100
AcDbEntity
  8
AM_5
370
    -2
100
AcDbLine
 10
105.1198273076916
 20
-35.91623323345154
 30
0.0
 11
105.1198273076916
 21
-44.91623323345122
 31
0.0
  0
LINE
  5
B54D
330
B549
100
AcDbEntity
  8
AM_5
370
    -2
100
AcDbLine
 10
66.61982430769302
 20
-43.91623323345122
 30
0.0
 11
105.1198273076916
 21
-43.91623323345122
 31
0.0
  0
INSERT
  5
B54E
330
B549
100
AcDbEntity
  8
AM_5
370
    -2
100
AcDbBlockReference
  2
_DOTSMALL
 10
66.61982430769302
 20
-43.91623323345122
 30
0.0
 41
2.5
 42
2.5
 43
2.5
 50
180.0
  0
INSERT
  5
B54F
330
B549
100
AcDbEntity
  8
AM_5
370
    -2
100
AcDbBlockReference
  2
_DOTSMALL
 10
105.1198273076916
 20
-43.91623323345122
 30
0.0
 41
2.5
 42
2.5
 43
2.5
  0
MTEXT
  5
B550
330
B549
100
AcDbEntity
  8
AM_5
 62
     2
100
AcDbMText
 10
85.86982580769234
 20
-40.66623323345122
 30
0.0
 40
3.5
 41
0.0
 71
     5
 72
     1
  1
\A1;38.5
 73
     1
 44
1.0
1001
ACAD
1000
MTEXTBEGIN
1070
    73
1070
     1
1070
    44
1040
1.0
1070
    74
1070
     0
1000
MTEXTEND
  0
POINT
  5
B551
330
B549
100
AcDbEntity
  8
Defpoints
 62
     0
100
AcDbPoint
 10
66.61982430769302
 20
-34.91622286806594
 30
0.0
  0
POINT
  5
B552
330
B549
100
AcDbEntity
  8
Defpoints
 62
     0
100
AcDbPoint
 10
105.1198273076916
 20
-34.91623323345154
 30
0.0
  0
POINT
  5
B553
330
B549
100
AcDbEntity
  8
Defpoints
 62
     0
100
AcDbPoint
 10
105.1198273076916
 20
-43.91623323345122
 30
0.0
  0
ENDBLK
  5
B554
330
B549
100
AcDbEntity
  8
0
100
AcDbBlockEnd
  0
BLOCK
  5
B556
330
B555
100
AcDbEntity
  8
0
100
AcDbBlockBegin
  2
*D7
 70
     1
 10
0.0
 20
0.0
 30
0.0
  3
*D7
  1

  0
LINE
  5
B557
330
B555
100
AcDbEntity
  8
AM_5
370
    -2
100
AcDbLine
 10
65.41982744230846
 20
-35.41622254498985
 30
0.0
 11
65.41982744230846
 21
-53.91623355652781
 31
0.0
  0
LINE
  5
B558
330
B555
100
AcDbEntity
  8
AM_5
370
    -2
100
AcDbLine
 10
106.319827442307
 20
-35.41623355652849
 30
0.0
 11
106.319827442307
 21
-53.91623355652781
 31
0.0
  0
LINE
  5
B559
330
B555
100
AcDbEntity
  8
AM_5
370
    -2
100
AcDbLine
 10
65.41982744230846
 20
-52.91623355652781
 30
0.0
 11
106.319827442307
 21
-52.91623355652781
 31
0.0
  0
INSERT
  5
B55A
330
B555
100
AcDbEntity
  8
AM_5
370
    -2
100
AcDbBlockReference
  2
_DOTSMALL
 10
65.41982744230846
 20
-52.91623355652781
 30
0.0
 41
2.5
 42
2.5
 43
2.5
 50
180.0
  0
INSERT
  5
B55B
330
B555
100
AcDbEntity
  8
AM_5
370
    -2
100
AcDbBlockReference
  2
_DOTSMALL
 10
106.319827442307
 20
-52.91623355652781
 30
0.0
 41
2.5
 42
2.5
 43
2.5
  0
MTEXT
  5
B55C
330
B555
100
AcDbEntity
  8
AM_5
 62
     2
100
AcDbMText
 10
85.86982744230775
 20
-49.66623355652782
 30
0.0
 40
3.5
 41
0.0
 71
     5
 72
     1
  1
\A1;40.9
 73
     1
 44
1.0
1001
ACAD
1000
MTEXTBEGIN
1070
    73
1070
     1
1070
    44
1040
1.0
1070
    74
1070
     0
1000
MTEXTEND
  0
POINT
  5
B55D
330
B555
100
AcDbEntity
  8
Defpoints
 62
     0
100
AcDbPoint
 10
65.41982744230846
 20
-34.41622254498985
 30
0.0
  0
POINT
  5
B55E
330
B555
100
AcDbEntity
  8
Defpoints
 62
     0
100
AcDbPoint
 10
106.319827442307
 20
-34.41623355652849
 30
0.0
  0
POINT
  5
B55F
330
B555
100
AcDbEntity
  8
Defpoints
 62
     0
100
AcDbPoint
 10
106.319827442307
 20
-52.91623355652781
 30
0.0
  0
ENDBLK
  5
B560
330
B555
100
AcDbEntity
  8
0
100
AcDbBlockEnd
  0
BLOCK
  5
B562
330
B561
100
AcDbEntity
  8
0
100
AcDbBlockBegin
  2
*D8
 70
     1
 10
0.0
 20
0.0
 30
0.0
  3
*D8
  1

  0
LINE
  5
B563
330
B561
100
AcDbEntity
  8
AM_5
370
    -2
100
AcDbLine
 10
70.9198230269212
 20
-24.81623349498834
 30
0.0
 11
55.41983269230872
 21
-24.81623349498833
 31
0.0
  0
LINE
  5
B564
330
B561
100
AcDbEntity
  8
AM_5
370
    -2
100
AcDbLine
 10
64.41983269230838
 20
-14.91622314499054
 30
0.0
 11
55.41983269230873
 21
-14.91622314499054
 31
0.0
  0
LINE
  5
B565
330
B561
100
AcDbEntity
  8
AM_5
370
    -2
100
AcDbLine
 10
56.41983269230872
 20
-24.81623349498834
 30
0.0
 11
56.41983269230873
 21
-14.91622314499054
 31
0.0
  0
INSERT
  5
B566
330
B561
100
AcDbEntity
  8
AM_5
370
    -2
100
AcDbBlockReference
  2
_DOTSMALL
 10
56.41983269230872
 20
-24.81623349498834
 30
0.0
 41
2.5
 42
2.5
 43
2.5
 50
270.0
  0
INSERT
  5
B567
330
B561
100
AcDbEntity
  8
AM_5
370
    -2
100
AcDbBlockReference
  2
_DOTSMALL
 10
56.41983269230873
 20
-14.91622314499054
 30
0.0
 41
2.5
 42
2.5
 43
2.5
 50
90.0
  0
MTEXT
  5
B568
330
B561
100
AcDbEntity
  8
AM_5
 62
     2
100
AcDbMText
 10
53.16983269230873
 20
-19.86622831998943
 30
0.0
 40
3.5
 41
0.0
 71
     5
 72
     1
  1
\A1;10
 11
0.0000000000000001
 21
1.0
 31
0.0
 73
     1
 44
1.0
1001
ACAD
1000
MTEXTBEGIN
1070
    73
1070
     1
1070
    44
1040
1.0
1070
    74
1070
     0
1000
MTEXTEND
  0
POINT
  5
B569
330
B561
100
AcDbEntity
  8
Defpoints
 62
     0
100
AcDbPoint
 10
71.91982302692121
 20
-24.81623349498834
 30
0.0
  0
POINT
  5
B56A
330
B561
100
AcDbEntity
  8
Defpoints
 62
     0
100
AcDbPoint
 10
65.41983269230839
 20
-14.91622314499054
 30
0.0
  0
POINT
  5
B56B
330
B561
100
AcDbEntity
  8
Defpoints
 62
     0
100
AcDbPoint
 10
56.41983269230873
 20
-14.91622314499054
 30
0.0
  0
ENDBLK
  5
B56C
330
B561
100
AcDbEntity
  8
0
100
AcDbBlockEnd
  0
BLOCK
  5
B56E
330
B56D
100
AcDbEntity
  8
0
100
AcDbBlockBegin
  2
*D9
 70
     1
 10
0.0
 20
0.0
 30
0.0
  3
*D9
  1

  0
LINE
  5
B56F
330
B56D
100
AcDbEntity
  8
AM_5
370
    -2
100
AcDbLine
 10
64.41982569230841
 20
-14.91622314498866
 30
0.0
 11
46.41984305769437
 21
-14.91622314498865
 31
0.0
  0
LINE
  5
B570
330
B56D
100
AcDbEntity
  8
AM_5
370
    -2
100
AcDbLine
 10
98.31984505769248
 20
23.58376972808429
 30
0.0
 11
46.41984305769438
 21
23.5837697280843
 31
0.0
  0
LINE
  5
B571
330
B56D
100
AcDbEntity
  8
AM_5
370
    -2
100
AcDbLine
 10
47.41984305769437
 20
-14.91622314498865
 30
0.0
 11
47.41984305769437
 21
23.5837697280843
 31
0.0
  0
INSERT
  5
B572
330
B56D
100
AcDbEntity
  8
AM_5
370
    -2
100
AcDbBlockReference
  2
_DOTSMALL
 10
47.41984305769437
 20
-14.91622314498865
 30
0.0
 41
2.5
 42
2.5
 43
2.5
 50
270.0
  0
INSERT
  5
B573
330
B56D
100
AcDbEntity
  8
AM_5
370
    -2
100
AcDbBlockReference
  2
_DOTSMALL
 10
47.41984305769437
 20
23.5837697280843
 30
0.0
 41
2.5
 42
2.5
 43
2.5
 50
90.0
  0
MTEXT
  5
B574
330
B56D
100
AcDbEntity
  8
AM_5
 62
     2
100
AcDbMText
 10
44.16984305769437
 20
4.333773291547833
 30
0.0
 40
3.5
 41
0.0
 71
     5
 72
     1
  1
\A1;38.5
 11
0.0000000000000001
 21
1.0
 31
0.0
 73
     1
 44
1.0
1001
ACAD
1000
MTEXTBEGIN
1070
    73
1070
     1
1070
    44
1040
1.0
1070
    74
1070
     0
1000
MTEXTEND
  0
POINT
  5
B575
330
B56D
100
AcDbEntity
  8
Defpoints
 62
     0
100
AcDbPoint
 10
65.41982569230841
 20
-14.91622314498866
 30
0.0
  0
POINT
  5
B576
330
B56D
100
AcDbEntity
  8
Defpoints
 62
     0
100
AcDbPoint
 10
99.3198450576925
 20
23.58376972808429
 30
0.0
  0
POINT
  5
B577
330
B56D
100
AcDbEntity
  8
Defpoints
 62
     0
100
AcDbPoint
 10
47.41984305769437
 20
23.5837697280843
 30
0.0
  0
ENDBLK
  5
B578
330
B56D
100
AcDbEntity
  8
0
100
AcDbBlockEnd
  0
BLOCK
  5
B57A
330
B579
100
AcDbEntity
  8
0
100
AcDbBlockBegin
  2
*D10
 70
     1
 10
0.0
 20
0.0
 30
0.0
  3
*D10
  1

  0
LINE
  5
B57B
330
B579
100
AcDbEntity
  8
AM_5
370
    -2
100
AcDbLine
 10
106.1198273076916
 20
-34.91623323345154
 30
0.0
 11
116.3198433807688
 21
-34.91623323345155
 31
0.0
  0
LINE
  5
B57C
330
B579
100
AcDbEntity
  8
AM_5
370
    -2
100
AcDbLine
 10
106.1198433807692
 20
24.78376816654631
 30
0.0
 11
116.3198433807688
 21
24.78376816654631
 31
0.0
  0
LINE
  5
B57D
330
B579
100
AcDbEntity
  8
AM_5
370
    -2
100
AcDbLine
 10
115.3198433807688
 20
-34.91623323345155
 30
0.0
 11
115.3198433807688
 21
24.78376816654631
 31
0.0
  0
INSERT
  5
B57E
330
B579
100
AcDbEntity
  8
AM_5
370
    -2
100
AcDbBlockReference
  2
_DOTSMALL
 10
115.3198433807688
 20
-34.91623323345155
 30
0.0
 41
2.5
 42
2.5
 43
2.5
 50
270.0
  0
INSERT
  5
B57F
330
B579
100
AcDbEntity
  8
AM_5
370
    -2
100
AcDbBlockReference
  2
_DOTSMALL
 10
115.3198433807688
 20
24.78376816654631
 30
0.0
 41
2.5
 42
2.5
 43
2.5
 50
90.0
  0
MTEXT
  5
B580
330
B579
100
AcDbEntity
  8
AM_5
 62
     2
100
AcDbMText
 10
112.0698433807688
 20
-5.066232533452602
 30
0.0
 40
3.5
 41
0.0
 71
     5
 72
     1
  1
\A1;60
 11
0.0000000000000001
 21
1.0
 31
0.0
 73
     1
 44
1.0
1001
ACAD
1000
MTEXTBEGIN
1070
    73
1070
     1
1070
    44
1040
1.0
1070
    74
1070
     0
1000
MTEXTEND
  0
POINT
  5
B581
330
B579
100
AcDbEntity
  8
Defpoints
 62
     0
100
AcDbPoint
 10
105.1198273076916
 20
-34.91623323345154
 30
0.0
  0
POINT
  5
B582
330
B579
100
AcDbEntity
  8
Defpoints
 62
     0
100
AcDbPoint
 10
105.1198433807692
 20
24.78376816654631
 30
0.0
  0
POINT
  5
B583
330
B579
100
AcDbEntity
  8
Defpoints
 62
     0
100
AcDbPoint
 10
115.3198433807688
 20
24.78376816654631
 30
0.0
  0
ENDBLK
  5
B584
330
B579
100
AcDbEntity
  8
0
100
AcDbBlockEnd
  0
BLOCK
  5
B586
330
B585
100
AcDbEntity
  8
0
100
AcDbBlockBegin
  2
*D11
 70
     1
 10
0.0
 20
0.0
 30
0.0
  3
*D11
  1

  0
LINE
  5
B587
330
B585
100
AcDbEntity
  8
AM_5
370
    -2
100
AcDbLine
 10
65.61982430769302
 20
-34.91622286806594
 30
0.0
 11
46.41983269230904
 21
-34.91622286806594
 31
0.0
  0
LINE
  5
B588
330
B585
100
AcDbEntity
  8
AM_5
370
    -2
100
AcDbLine
 10
64.41983269230838
 20
-14.91622314499054
 30
0.0
 11
46.41983269230905
 21
-14.91622314499054
 31
0.0
  0
LINE
  5
B589
330
B585
100
AcDbEntity
  8
AM_5
370
    -2
100
AcDbLine
 10
47.41983269230905
 20
-34.91622286806594
 30
0.0
 11
47.41983269230906
 21
-14.91622314499054
 31
0.0
  0
INSERT
  5
B58A
330
B585
100
AcDbEntity
  8
AM_5
370
    -2
100
AcDbBlockReference
  2
_DOTSMALL
 10
47.41983269230905
 20
-34.91622286806594
 30
0.0
 41
2.5
 42
2.5
 43
2.5
 50
270.0
  0
INSERT
  5
B58B
330
B585
100
AcDbEntity
  8
AM_5
370
    -2
100
AcDbBlockReference
  2
_DOTSMALL
 10
47.41983269230906
 20
-14.91622314499054
 30
0.0
 41
2.5
 42
2.5
 43
2.5
 50
90.0
  0
MTEXT
  5
B58C
330
B585
100
AcDbEntity
  8
AM_5
 62
     2
100
AcDbMText
 10
44.16983269230906
 20
-24.91622300652823
 30
0.0
 40
3.5
 41
0.0
 71
     5
 72
     1
  1
\A1;20
 11
0.0000000000000001
 21
1.0
 31
0.0
 73
     1
 44
1.0
1001
ACAD
1000
MTEXTBEGIN
1070
    73
1070
     1
1070
    44
1040
1.0
1070
    74
1070
     0
1000
MTEXTEND
  0
POINT
  5
B58D
330
B585
100
AcDbEntity
  8
Defpoints
 62
     0
100
AcDbPoint
 10
66.61982430769302
 20
-34.91622286806594
 30
0.0
  0
POINT
  5
B58E
330
B585
100
AcDbEntity
  8
Defpoints
 62
     0
100
AcDbPoint
 10
65.41983269230839
 20
-14.91622314499054
 30
0.0
  0
POINT
  5
B58F
330
B585
100
AcDbEntity
  8
Defpoints
 62
     0
100
AcDbPoint
 10
47.41983269230906
 20
-14.91622314499054
 30
0.0
  0
ENDBLK
  5
B590
330
B585
100
AcDbEntity
  8
0
100
AcDbBlockEnd
  0
BLOCK
  5
B592
330
B591
100
AcDbEntity
  8
0
100
AcDbBlockBegin
  2
*D12
 70
     1
 10
0.0
 20
0.0
 30
0.0
  3
*D12
  1

  0
LINE
  5
B593
330
B591
100
AcDbEntity
  8
AM_5
370
    -2
100
AcDbLine
 10
106.3198430576923
 20
24.58376784346942
 30
0.0
 11
106.3198430576923
 21
34.78377072808392
 31
0.0
  0
LINE
  5
B594
330
B591
100
AcDbEntity
  8
AM_5
370
    -2
100
AcDbLine
 10
99.3198452461543
 20
25.28377072808427
 30
0.0
 11
99.3198452461543
 21
34.78377072808392
 31
0.0
  0
LINE
  5
B595
330
B591
100
AcDbEntity
  8
AM_5
370
    -2
100
AcDbLine
 10
106.3198430576923
 20
33.78377072808393
 30
0.0
 11
99.3198452461543
 21
33.78377072808393
 31
0.0
  0
INSERT
  5
B596
330
B591
100
AcDbEntity
  8
AM_5
370
    -2
100
AcDbBlockReference
  2
_DOTSMALL
 10
106.3198430576923
 20
33.78377072808393
 30
0.0
 41
2.5
 42
2.5
 43
2.5
  0
INSERT
  5
B597
330
B591
100
AcDbEntity
  8
AM_5
370
    -2
100
AcDbBlockReference
  2
_DOTSMALL
 10
99.3198452461543
 20
33.78377072808393
 30
0.0
 41
2.5
 42
2.5
 43
2.5
 50
180.0
  0
MTEXT
  5
B598
330
B591
100
AcDbEntity
  8
AM_5
 62
     2
100
AcDbMText
 10
102.8198441519233
 20
37.03377072808392
 30
0.0
 40
3.5
 41
0.0
 71
     5
 72
     1
  1
\A1;7
 73
     1
 44
1.0
1001
ACAD
1000
MTEXTBEGIN
1070
    73
1070
     1
1070
    44
1040
1.0
1070
    74
1070
     0
1000
MTEXTEND
  0
POINT
  5
B599
330
B591
100
AcDbEntity
  8
Defpoints
 62
     0
100
AcDbPoint
 10
106.3198430576923
 20
23.58376784346942
 30
0.0
  0
POINT
  5
B59A
330
B591
100
AcDbEntity
  8
Defpoints
 62
     0
100
AcDbPoint
 10
99.3198452461543
 20
24.28377072808427
 30
0.0
  0
POINT
  5
B59B
330
B591
100
AcDbEntity
  8
Defpoints
 62
     0
100
AcDbPoint
 10
99.3198452461543
 20
33.78377072808393
 30
0.0
  0
ENDBLK
  5
B59C
330
B591
100
AcDbEntity
  8
0
100
AcDbBlockEnd
  0
BLOCK
  5
B679
330
B66F
100
AcDbEntity
  8
0
100
AcDbBlockBegin
  2
*D14
 70
     1
 10
0.0
 20
0.0
 30
0.0
  3
*D14
  1

  0
LINE
  5
B74A
330
B66F
100
AcDbEntity
  8
AM_5
100
AcDbLine
 10
169.6198242222735
 20
64.08377721437054
 30
0.0
 11
169.6198242222735
 21
55.08376684898526
 31
0.0
  0
LINE
  5
B74B
330
B66F
100
AcDbEntity
  8
AM_5
100
AcDbLine
 10
208.1198272222721
 20
64.08376684898493
 30
0.0
 11
208.1198272222721
 21
55.08376684898526
 31
0.0
  0
LINE
  5
B74C
330
B66F
100
AcDbEntity
  8
AM_5
100
AcDbLine
 10
169.6198242222735
 20
56.08376684898527
 30
0.0
 11
208.1198272222721
 21
56.08376684898527
 31
0.0
  0
INSERT
  5
B74D
330
B66F
100
AcDbEntity
  8
AM_5
100
AcDbBlockReference
  2
_DOTSMALL
 10
169.6198242222735
 20
56.08376684898527
 30
0.0
 50
180.0
  0
INSERT
  5
B74E
330
B66F
100
AcDbEntity
  8
AM_5
100
AcDbBlockReference
  2
_DOTSMALL
 10
208.1198272222721
 20
56.08376684898527
 30
0.0
  0
MTEXT
  5
B74F
330
B66F
100
AcDbEntity
  8
AM_5
 62
     2
100
AcDbMText
 10
188.8698257222728
 20
59.18376684898526
 30
0.0
 40
3.200000000000001
 41
0.0
 71
     5
 72
     1
  1
38.5
 73
     1
 44
1.0
1001
ACAD
1000
MTEXTBEGIN
1070
    73
1070
     1
1070
    44
1040
1.0
1070
    74
1070
     0
1000
MTEXTEND
  0
POINT
  5
B750
330
B66F
100
AcDbEntity
  8
Defpoints
 62
     0
100
AcDbPoint
 10
169.6198242222735
 20
65.08377721437054
 30
0.0
  0
POINT
  5
B751
330
B66F
100
AcDbEntity
  8
Defpoints
 62
     0
100
AcDbPoint
 10
208.1198272222721
 20
65.08376684898493
 30
0.0
  0
POINT
  5
B752
330
B66F
100
AcDbEntity
  8
Defpoints
 62
     0
100
AcDbPoint
 10
208.1198272222721
 20
56.08376684898527
 30
0.0
  0
ENDBLK
  5
B67A
330
B66F
100
AcDbEntity
  8
0
100
AcDbBlockEnd
  0
BLOCK
  5
B685
330
B67B
100
AcDbEntity
  8
0
100
AcDbBlockBegin
  2
*D15
 70
     1
 10
0.0
 20
0.0
 30
0.0
  3
*D15
  1

  0
LINE
  5
B7E1
330
B67B
100
AcDbEntity
  8
AM_5
100
AcDbLine
 10
168.4198273568889
 20
64.58377753744663
 30
0.0
 11
168.4198273568889
 21
46.08376652590867
 31
0.0
  0
LINE
  5
B7E2
330
B67B
100
AcDbEntity
  8
AM_5
100
AcDbLine
 10
209.3198273568875
 20
64.583766525908
 30
0.0
 11
209.3198273568875
 21
46.08376652590867
 31
0.0
  0
LINE
  5
B7E3
330
B67B
100
AcDbEntity
  8
AM_5
100
AcDbLine
 10
168.4198273568889
 20
47.08376652590867
 30
0.0
 11
209.3198273568875
 21
47.08376652590867
 31
0.0
  0
INSERT
  5
B7E4
330
B67B
100
AcDbEntity
  8
AM_5
100
AcDbBlockReference
  2
_DOTSMALL
 10
168.4198273568889
 20
47.08376652590867
 30
0.0
 50
180.0
  0
INSERT
  5
B7E5
330
B67B
100
AcDbEntity
  8
AM_5
100
AcDbBlockReference
  2
_DOTSMALL
 10
209.3198273568875
 20
47.08376652590867
 30
0.0
  0
MTEXT
  5
B7E6
330
B67B
100
AcDbEntity
  8
AM_5
 62
     2
100
AcDbMText
 10
188.8698273568882
 20
50.18376652590867
 30
0.0
 40
3.200000000000001
 41
0.0
 71
     5
 72
     1
  1
41
 73
     1
 44
1.0
1001
ACAD
1000
MTEXTBEGIN
1070
    73
1070
     1
1070
    44
1040
1.0
1070
    74
1070
     0
1000
MTEXTEND
  0
POINT
  5
B7E7
330
B67B
100
AcDbEntity
  8
Defpoints
 62
     0
100
AcDbPoint
 10
168.4198273568889
 20
65.58377753744664
 30
0.0
  0
POINT
  5
B7E8
330
B67B
100
AcDbEntity
  8
Defpoints
 62
     0
100
AcDbPoint
 10
209.3198273568875
 20
65.583766525908
 30
0.0
  0
POINT
  5
B7E9
330
B67B
100
AcDbEntity
  8
Defpoints
 62
     0
100
AcDbPoint
 10
209.3198273568875
 20
47.08376652590867
 30
0.0
  0
ENDBLK
  5
B686
330
B67B
100
AcDbEntity
  8
0
100
AcDbBlockEnd
  0
BLOCK
  5
B691
330
B687
100
AcDbEntity
  8
0
100
AcDbBlockBegin
  2
*D16
 70
     1
 10
0.0
 20
0.0
 30
0.0
  3
*D16
  1

  0
LINE
  5
B777
330
B687
100
AcDbEntity
  8
AM_5
100
AcDbLine
 10
173.9198229415017
 20
75.18376658744815
 30
0.0
 11
158.4198326068892
 21
75.18376658744816
 31
0.0
  0
LINE
  5
B778
330
B687
100
AcDbEntity
  8
AM_5
100
AcDbLine
 10
167.4198326068888
 20
85.08377693744595
 30
0.0
 11
158.4198326068892
 21
85.08377693744597
 31
0.0
  0
LINE
  5
B779
330
B687
100
AcDbEntity
  8
AM_5
100
AcDbLine
 10
159.4198326068892
 20
75.18376658744816
 30
0.0
 11
159.4198326068892
 21
85.08377693744597
 31
0.0
  0
INSERT
  5
B77A
330
B687
100
AcDbEntity
  8
AM_5
100
AcDbBlockReference
  2
_DOTSMALL
 10
159.4198326068892
 20
75.18376658744816
 30
0.0
 50
270.0
  0
INSERT
  5
B77B
330
B687
100
AcDbEntity
  8
AM_5
100
AcDbBlockReference
  2
_DOTSMALL
 10
159.4198326068892
 20
85.08377693744597
 30
0.0
 50
90.0
  0
MTEXT
  5
B77C
330
B687
100
AcDbEntity
  8
AM_5
 62
     2
100
AcDbMText
 10
156.3198326068891
 20
80.13377176244707
 30
0.0
 40
3.200000000000001
 41
0.0
 71
     5
 72
     1
  1
10
 11
0.0000000000000001
 21
1.0
 31
0.0
 73
     1
 44
1.0
1001
ACAD
1000
MTEXTBEGIN
1070
    73
1070
     1
1070
    44
1040
1.0
1070
    74
1070
     0
1000
MTEXTEND
  0
POINT
  5
B77D
330
B687
100
AcDbEntity
  8
Defpoints
 62
     0
100
AcDbPoint
 10
174.9198229415017
 20
75.18376658744815
 30
0.0
  0
POINT
  5
B77E
330
B687
100
AcDbEntity
  8
Defpoints
 62
     0
100
AcDbPoint
 10
168.4198326068888
 20
85.08377693744595
 30
0.0
  0
POINT
  5
B77F
330
B687
100
AcDbEntity
  8
Defpoints
 62
     0
100
AcDbPoint
 10
159.4198326068892
 20
85.08377693744597
 30
0.0
  0
ENDBLK
  5
B692
330
B687
100
AcDbEntity
  8
0
100
AcDbBlockEnd
  0
BLOCK
  5
B69D
330
B693
100
AcDbEntity
  8
0
100
AcDbBlockBegin
  2
*D17
 70
     1
 10
0.0
 20
0.0
 30
0.0
  3
*D17
  1

  0
LINE
  5
B765
330
B693
100
AcDbEntity
  8
AM_5
100
AcDbLine
 10
167.4198256068889
 20
85.08377693744781
 30
0.0
 11
149.4198429722748
 21
85.08377693744783
 31
0.0
  0
LINE
  5
B766
330
B693
100
AcDbEntity
  8
AM_5
100
AcDbLine
 10
201.319844972273
 20
123.5837698105207
 30
0.0
 11
149.4198429722748
 21
123.5837698105208
 31
0.0
  0
LINE
  5
B767
330
B693
100
AcDbEntity
  8
AM_5
100
AcDbLine
 10
150.4198429722748
 20
85.08377693744783
 30
0.0
 11
150.4198429722748
 21
123.5837698105208
 31
0.0
  0
INSERT
  5
B768
330
B693
100
AcDbEntity
  8
AM_5
100
AcDbBlockReference
  2
_DOTSMALL
 10
150.4198429722748
 20
85.08377693744783
 30
0.0
 50
270.0
  0
INSERT
  5
B769
330
B693
100
AcDbEntity
  8
AM_5
100
AcDbBlockReference
  2
_DOTSMALL
 10
150.4198429722748
 20
123.5837698105208
 30
0.0
 50
90.0
  0
MTEXT
  5
B76A
330
B693
100
AcDbEntity
  8
AM_5
 62
     2
100
AcDbMText
 10
147.3198429722748
 20
104.3337733739843
 30
0.0
 40
3.200000000000001
 41
0.0
 71
     5
 72
     1
  1
38.5
 11
0.0000000000000001
 21
1.0
 31
0.0
 73
     1
 44
1.0
1001
ACAD
1000
MTEXTBEGIN
1070
    73
1070
     1
1070
    44
1040
1.0
1070
    74
1070
     0
1000
MTEXTEND
  0
POINT
  5
B76B
330
B693
100
AcDbEntity
  8
Defpoints
 62
     0
100
AcDbPoint
 10
168.4198256068889
 20
85.08377693744781
 30
0.0
  0
POINT
  5
B76C
330
B693
100
AcDbEntity
  8
Defpoints
 62
     0
100
AcDbPoint
 10
202.3198449722729
 20
123.5837698105207
 30
0.0
  0
POINT
  5
B76D
330
B693
100
AcDbEntity
  8
Defpoints
 62
     0
100
AcDbPoint
 10
150.4198429722748
 20
123.5837698105208
 30
0.0
  0
ENDBLK
  5
B69E
330
B693
100
AcDbEntity
  8
0
100
AcDbBlockEnd
  0
BLOCK
  5
B6A9
330
B69F
100
AcDbEntity
  8
0
100
AcDbBlockBegin
  2
*D18
 70
     1
 10
0.0
 20
0.0
 30
0.0
  3
*D18
  1

  0
LINE
  5
B753
330
B69F
100
AcDbEntity
  8
AM_5
100
AcDbLine
 10
209.1198272222722
 20
65.08376684898493
 30
0.0
 11
219.3198432953494
 21
65.08376684898493
 31
0.0
  0
LINE
  5
B754
330
B69F
100
AcDbEntity
  8
AM_5
100
AcDbLine
 10
209.1198432953497
 20
124.7837682489828
 30
0.0
 11
219.3198432953494
 21
124.7837682489828
 31
0.0
  0
LINE
  5
B755
330
B69F
100
AcDbEntity
  8
AM_5
100
AcDbLine
 10
218.3198432953493
 20
65.08376684898493
 30
0.0
 11
218.3198432953493
 21
124.7837682489828
 31
0.0
  0
INSERT
  5
B756
330
B69F
100
AcDbEntity
  8
AM_5
100
AcDbBlockReference
  2
_DOTSMALL
 10
218.3198432953493
 20
65.08376684898493
 30
0.0
 50
270.0
  0
INSERT
  5
B757
330
B69F
100
AcDbEntity
  8
AM_5
100
AcDbBlockReference
  2
_DOTSMALL
 10
218.3198432953493
 20
124.7837682489828
 30
0.0
 50
90.0
  0
MTEXT
  5
B758
330
B69F
100
AcDbEntity
  8
AM_5
 62
     2
100
AcDbMText
 10
215.2198432953493
 20
94.9337675489839
 30
0.0
 40
3.200000000000001
 41
0.0
 71
     5
 72
     1
  1
60
 11
0.0000000000000001
 21
1.0
 31
0.0
 73
     1
 44
1.0
1001
ACAD
1000
MTEXTBEGIN
1070
    73
1070
     1
1070
    44
1040
1.0
1070
    74
1070
     0
1000
MTEXTEND
  0
POINT
  5
B759
330
B69F
100
AcDbEntity
  8
Defpoints
 62
     0
100
AcDbPoint
 10
208.1198272222721
 20
65.08376684898493
 30
0.0
  0
POINT
  5
B75A
330
B69F
100
AcDbEntity
  8
Defpoints
 62
     0
100
AcDbPoint
 10
208.1198432953497
 20
124.7837682489828
 30
0.0
  0
POINT
  5
B75B
330
B69F
100
AcDbEntity
  8
Defpoints
 62
     0
100
AcDbPoint
 10
218.3198432953493
 20
124.7837682489828
 30
0.0
  0
ENDBLK
  5
B6AA
330
B69F
100
AcDbEntity
  8
0
100
AcDbBlockEnd
  0
BLOCK
  5
B6B5
330
B6AB
100
AcDbEntity
  8
0
100
AcDbBlockBegin
  2
*D19
 70
     1
 10
0.0
 20
0.0
 30
0.0
  3
*D19
  1

  0
LINE
  5
B76E
330
B6AB
100
AcDbEntity
  8
AM_5
100
AcDbLine
 10
168.6198242222735
 20
65.08377721437054
 30
0.0
 11
149.4198326068895
 21
65.08377721437056
 31
0.0
  0
LINE
  5
B76F
330
B6AB
100
AcDbEntity
  8
AM_5
100
AcDbLine
 10
167.4198326068888
 20
85.08377693744595
 30
0.0
 11
149.4198326068895
 21
85.08377693744597
 31
0.0
  0
LINE
  5
B770
330
B6AB
100
AcDbEntity
  8
AM_5
100
AcDbLine
 10
150.4198326068895
 20
65.08377721437056
 30
0.0
 11
150.4198326068895
 21
85.08377693744597
 31
0.0
  0
INSERT
  5
B771
330
B6AB
100
AcDbEntity
  8
AM_5
100
AcDbBlockReference
  2
_DOTSMALL
 10
150.4198326068895
 20
65.08377721437056
 30
0.0
 50
270.0
  0
INSERT
  5
B772
330
B6AB
100
AcDbEntity
  8
AM_5
100
AcDbBlockReference
  2
_DOTSMALL
 10
150.4198326068895
 20
85.08377693744597
 30
0.0
 50
90.0
  0
MTEXT
  5
B773
330
B6AB
100
AcDbEntity
  8
AM_5
 62
     2
100
AcDbMText
 10
147.3198326068895
 20
75.08377707590828
 30
0.0
 40
3.200000000000001
 41
0.0
 71
     5
 72
     1
  1
20
 11
0.0000000000000001
 21
1.0
 31
0.0
 73
     1
 44
1.0
1001
ACAD
1000
MTEXTBEGIN
1070
    73
1070
     1
1070
    44
1040
1.0
1070
    74
1070
     0
1000
MTEXTEND
  0
POINT
  5
B774
330
B6AB
100
AcDbEntity
  8
Defpoints
 62
     0
100
AcDbPoint
 10
169.6198242222735
 20
65.08377721437054
 30
0.0
  0
POINT
  5
B775
330
B6AB
100
AcDbEntity
  8
Defpoints
 62
     0
100
AcDbPoint
 10
168.4198326068888
 20
85.08377693744595
 30
0.0
  0
POINT
  5
B776
330
B6AB
100
AcDbEntity
  8
Defpoints
 62
     0
100
AcDbPoint
 10
150.4198326068895
 20
85.08377693744597
 30
0.0
  0
ENDBLK
  5
B6B6
330
B6AB
100
AcDbEntity
  8
0
100
AcDbBlockEnd
  0
BLOCK
  5
B6C1
330
B6B7
100
AcDbEntity
  8
0
100
AcDbBlockBegin
  2
*D20
 70
     1
 10
0.0
 20
0.0
 30
0.0
  3
*D20
  1

  0
LINE
  5
B75C
330
B6B7
100
AcDbEntity
  8
AM_5
100
AcDbLine
 10
209.3198429722728
 20
124.5837679259059
 30
0.0
 11
209.3198429722728
 21
134.7837708105204
 31
0.0
  0
LINE
  5
B75D
330
B6B7
100
AcDbEntity
  8
AM_5
100
AcDbLine
 10
202.3198451607348
 20
125.2837708105207
 30
0.0
 11
202.3198451607348
 21
134.7837708105204
 31
0.0
  0
LINE
  5
B75E
330
B6B7
100
AcDbEntity
  8
AM_5
100
AcDbLine
 10
209.3198429722728
 20
133.7837708105204
 30
0.0
 11
202.3198451607348
 21
133.7837708105204
 31
0.0
  0
INSERT
  5
B75F
330
B6B7
100
AcDbEntity
  8
AM_5
100
AcDbBlockReference
  2
_DOTSMALL
 10
209.3198429722728
 20
133.7837708105204
 30
0.0
  0
INSERT
  5
B760
330
B6B7
100
AcDbEntity
  8
AM_5
100
AcDbBlockReference
  2
_DOTSMALL
 10
202.3198451607348
 20
133.7837708105204
 30
0.0
 50
180.0
  0
MTEXT
  5
B761
330
B6B7
100
AcDbEntity
  8
AM_5
 62
     2
100
AcDbMText
 10
205.8198440665038
 20
136.8837708105204
 30
0.0
 40
3.200000000000001
 41
0.0
 71
     5
 72
     1
  1
7
 73
     1
 44
1.0
1001
ACAD
1000
MTEXTBEGIN
1070
    73
1070
     1
1070
    44
1040
1.0
1070
    74
1070
     0
1000
MTEXTEND
  0
POINT
  5
B762
330
B6B7
100
AcDbEntity
  8
Defpoints
 62
     0
100
AcDbPoint
 10
209.3198429722728
 20
123.5837679259059
 30
0.0
  0
POINT
  5
B763
330
B6B7
100
AcDbEntity
  8
Defpoints
 62
     0
100
AcDbPoint
 10
202.3198451607348
 20
124.2837708105207
 30
0.0
  0
POINT
  5
B764
330
B6B7
100
AcDbEntity
  8
Defpoints
 62
     0
100
AcDbPoint
 10
202.3198451607348
 20
133.7837708105204
 30
0.0
  0
ENDBLK
  5
B6C2
330
B6B7
100
AcDbEntity
  8
0
100
AcDbBlockEnd
  0
BLOCK
  5
B78B
330
B781
100
AcDbEntity
  8
0
100
AcDbBlockBegin
  2
*D21
 70
     1
 10
0.0
 20
0.0
 30
0.0
  3
*D21
  1

  0
LINE
  5
B78D
330
B781
100
AcDbEntity
  8
AM_5
100
AcDbLine
 10
202.3198451607348
 20
125.2837706759053
 30
0.0
 11
202.3198451607348
 21
134.7837706991098
 31
0.0
  0
LINE
  5
B78E
330
B781
100
AcDbEntity
  8
AM_5
100
AcDbLine
 10
209.3198429722728
 20
124.5837682489828
 30
0.0
 11
209.3198429722728
 21
134.7837706991098
 31
0.0
  0
LINE
  5
B78F
330
B781
100
AcDbEntity
  8
AM_5
100
AcDbLine
 10
203.3198451607348
 20
133.7837706991098
 30
0.0
 11
208.3198429722727
 21
133.7837706991098
 31
0.0
  0
INSERT
  5
B790
330
B781
100
AcDbEntity
  8
AM_5
100
AcDbBlockReference
  2
_Dot
 10
202.3198451607348
 20
133.7837706991098
 30
0.0
 50
180.0
  0
INSERT
  5
B791
330
B781
100
AcDbEntity
  8
AM_5
100
AcDbBlockReference
  2
_Dot
 10
209.3198429722728
 20
133.7837706991098
 30
0.0
  0
MTEXT
  5
B792
330
B781
100
AcDbEntity
  8
AM_5
 62
     2
100
AcDbMText
 10
205.8198440665038
 20
136.8837706991099
 30
0.0
 40
3.200000000000001
 41
0.0
 71
     5
 72
     1
  1
7
 73
     1
 44
1.0
1001
ACAD
1000
MTEXTBEGIN
1070
    73
1070
     1
1070
    44
1040
1.0
1070
    74
1070
     0
1000
MTEXTEND
  0
POINT
  5
B793
330
B781
100
AcDbEntity
  8
Defpoints
 62
     0
100
AcDbPoint
 10
202.3198451607348
 20
124.2837706759053
 30
0.0
  0
POINT
  5
B794
330
B781
100
AcDbEntity
  8
Defpoints
 62
     0
100
AcDbPoint
 10
209.3198429722728
 20
123.5837682489828
 30
0.0
  0
POINT
  5
B795
330
B781
100
AcDbEntity
  8
Defpoints
 62
     0
100
AcDbPoint
 10
209.3198429722728
 20
133.7837706991098
 30
0.0
  0
ENDBLK
  5
B78C
330
B781
100
AcDbEntity
  8
0
100
AcDbBlockEnd
  0
BLOCK
  5
B7A1
330
B797
100
AcDbEntity
  8
0
100
AcDbBlockBegin
  2
*D22
 70
     1
 10
0.0
 20
0.0
 30
0.0
  3
*D22
  1

  0
LINE
  5
B7A3
330
B797
100
AcDbEntity
  8
AM_5
100
AcDbLine
 10
209.11984329535
 20
124.7837692489828
 30
0.0
 11
219.3198309693139
 21
124.7837692489828
 31
0.0
  0
LINE
  5
B7A4
330
B797
100
AcDbEntity
  8
AM_5
100
AcDbLine
 10
209.825738970944
 20
65.08380160892553
 30
0.0
 11
219.3198309693139
 21
65.08380160892553
 31
0.0
  0
LINE
  5
B7A5
330
B797
100
AcDbEntity
  8
AM_5
100
AcDbLine
 10
218.3198309693139
 20
123.7837692489828
 30
0.0
 11
218.3198309693139
 21
66.08380160892552
 31
0.0
  0
INSERT
  5
B7A6
330
B797
100
AcDbEntity
  8
AM_5
100
AcDbBlockReference
  2
_Dot
 10
218.3198309693139
 20
124.7837692489828
 30
0.0
 50
90.0
  0
INSERT
  5
B7A7
330
B797
100
AcDbEntity
  8
AM_5
100
AcDbBlockReference
  2
_Dot
 10
218.3198309693139
 20
65.08380160892553
 30
0.0
 50
270.0
  0
MTEXT
  5
B7A8
330
B797
100
AcDbEntity
  8
AM_5
 62
     2
100
AcDbMText
 10
215.2198309693139
 20
94.93378542895419
 30
0.0
 40
3.200000000000001
 41
0.0
 71
     5
 72
     1
  1
59.7
 11
0.0000000000000001
 21
1.0
 31
0.0
 73
     1
 44
1.0
1001
ACAD
1000
MTEXTBEGIN
1070
    73
1070
     1
1070
    44
1040
1.0
1070
    74
1070
     0
1000
MTEXTEND
  0
POINT
  5
B7A9
330
B797
100
AcDbEntity
  8
Defpoints
 62
     0
100
AcDbPoint
 10
208.11984329535
 20
124.7837692489828
 30
0.0
  0
POINT
  5
B7AA
330
B797
100
AcDbEntity
  8
Defpoints
 62
     0
100
AcDbPoint
 10
208.825738970944
 20
65.08380160892553
 30
0.0
  0
POINT
  5
B7AB
330
B797
100
AcDbEntity
  8
Defpoints
 62
     0
100
AcDbPoint
 10
218.3198309693139
 20
65.08380160892553
 30
0.0
  0
ENDBLK
  5
B7A2
330
B797
100
AcDbEntity
  8
0
100
AcDbBlockEnd
  0
BLOCK
  5
B7B7
330
B7AD
100
AcDbEntity
  8
0
100
AcDbBlockBegin
  2
*D23
 70
     1
 10
0.0
 20
0.0
 30
0.0
  3
*D23
  1

  0
LINE
  5
B7C2
330
B7AD
100
AcDbEntity
  8
AM_5
100
AcDbLine
 10
209.11984329535
 20
124.7837692489828
 30
0.0
 11
219.3198360024222
 21
124.7837692489828
 31
0.0
  0
LINE
  5
B7C3
330
B7AD
100
AcDbEntity
  8
AM_5
100
AcDbLine
 10
209.8198272222722
 20
65.08376666052339
 30
0.0
 11
219.3198360024222
 21
65.08376666052339
 31
0.0
  0
LINE
  5
B7C4
330
B7AD
100
AcDbEntity
  8
AM_5
100
AcDbLine
 10
218.3198360024222
 20
123.7837692489828
 30
0.0
 11
218.3198360024222
 21
66.0837666605234
 31
0.0
  0
INSERT
  5
B7C5
330
B7AD
100
AcDbEntity
  8
AM_5
100
AcDbBlockReference
  2
_Dot
 10
218.3198360024222
 20
124.7837692489828
 30
0.0
 50
90.0
  0
INSERT
  5
B7C6
330
B7AD
100
AcDbEntity
  8
AM_5
100
AcDbBlockReference
  2
_Dot
 10
218.3198360024222
 20
65.08376666052339
 30
0.0
 50
270.0
  0
MTEXT
  5
B7C7
330
B7AD
100
AcDbEntity
  8
AM_5
 62
     2
100
AcDbMText
 10
215.2198360024222
 20
94.93376795475311
 30
0.0
 40
3.200000000000001
 41
0.0
 71
     5
 72
     1
  1
60
 11
0.0000000000000001
 21
1.0
 31
0.0
 73
     1
 44
1.0
1001
ACAD
1000
MTEXTBEGIN
1070
    73
1070
     1
1070
    44
1040
1.0
1070
    74
1070
     0
1000
MTEXTEND
  0
POINT
  5
B7C8
330
B7AD
100
AcDbEntity
  8
Defpoints
 62
     0
100
AcDbPoint
 10
208.11984329535
 20
124.7837692489828
 30
0.0
  0
POINT
  5
B7C9
330
B7AD
100
AcDbEntity
  8
Defpoints
 62
     0
100
AcDbPoint
 10
208.8198272222721
 20
65.08376666052339
 30
0.0
  0
POINT
  5
B7CA
330
B7AD
100
AcDbEntity
  8
Defpoints
 62
     0
100
AcDbPoint
 10
218.3198360024222
 20
65.08376666052339
 30
0.0
  0
ENDBLK
  5
B7B8
330
B7AD
100
AcDbEntity
  8
0
100
AcDbBlockEnd
  0
BLOCK
  5
B7D6
330
B7CC
100
AcDbEntity
  8
0
100
AcDbBlockBegin
  2
*D24
 70
     1
 10
0.0
 20
0.0
 30
0.0
  3
*D24
  1

  0
LINE
  5
B7D8
330
B7CC
100
AcDbEntity
  8
AM_5
100
AcDbLine
 10
209.3198273568875
 20
64.58376652590799
 30
0.0
 11
209.3198273568875
 21
46.08376997825354
 31
0.0
  0
LINE
  5
B7D9
330
B7CC
100
AcDbEntity
  8
AM_5
100
AcDbLine
 10
168.419827356889
 20
64.58377753744665
 30
0.0
 11
168.419827356889
 21
46.08376997825354
 31
0.0
  0
LINE
  5
B7DA
330
B7CC
100
AcDbEntity
  8
AM_5
100
AcDbLine
 10
208.3198273568875
 20
47.08376997825354
 30
0.0
 11
169.419827356889
 21
47.08376997825354
 31
0.0
  0
INSERT
  5
B7DB
330
B7CC
100
AcDbEntity
  8
AM_5
100
AcDbBlockReference
  2
_Dot
 10
209.3198273568875
 20
47.08376997825354
 30
0.0
  0
INSERT
  5
B7DC
330
B7CC
100
AcDbEntity
  8
AM_5
100
AcDbBlockReference
  2
_Dot
 10
168.419827356889
 20
47.08376997825354
 30
0.0
 50
180.0
  0
MTEXT
  5
B7DD
330
B7CC
100
AcDbEntity
  8
AM_5
 62
     2
100
AcDbMText
 10
188.8698273568882
 20
50.18376997825354
 30
0.0
 40
3.200000000000001
 41
0.0
 71
     5
 72
     1
  1
41
 73
     1
 44
1.0
1001
ACAD
1000
MTEXTBEGIN
1070
    73
1070
     1
1070
    44
1040
1.0
1070
    74
1070
     0
1000
MTEXTEND
  0
POINT
  5
B7DE
330
B7CC
100
AcDbEntity
  8
Defpoints
 62
     0
100
AcDbPoint
 10
209.3198273568875
 20
65.58376652590799
 30
0.0
  0
POINT
  5
B7DF
330
B7CC
100
AcDbEntity
  8
Defpoints
 62
     0
100
AcDbPoint
 10
168.419827356889
 20
65.58377753744665
 30
0.0
  0
POINT
  5
B7E0
330
B7CC
100
AcDbEntity
  8
Defpoints
 62
     0
100
AcDbPoint
 10
168.419827356889
 20
47.08376997825354
 30
0.0
  0
ENDBLK
  5
B7D7
330
B7CC
100
AcDbEntity
  8
0
100
AcDbBlockEnd
  0
BLOCK
  5
B7F5
330
B7EB
100
AcDbEntity
  8
0
100
AcDbBlockBegin
  2
*D25
 70
     1
 10
0.0
 20
0.0
 30
0.0
  3
*D25
  1

  0
LINE
  5
B800
330
B7EB
100
AcDbEntity
  8
AM_5
100
AcDbLine
 10
208.1198272222721
 20
64.08376684898493
 30
0.0
 11
208.1198272222721
 21
55.08376974193365
 31
0.0
  0
LINE
  5
B801
330
B7EB
100
AcDbEntity
  8
AM_5
100
AcDbLine
 10
169.6198242222735
 20
64.08377721437054
 30
0.0
 11
169.6198242222735
 21
55.08376974193365
 31
0.0
  0
LINE
  5
B802
330
B7EB
100
AcDbEntity
  8
AM_5
100
AcDbLine
 10
207.1198272222722
 20
56.08376974193365
 30
0.0
 11
170.6198242222735
 21
56.08376974193365
 31
0.0
  0
INSERT
  5
B803
330
B7EB
100
AcDbEntity
  8
AM_5
100
AcDbBlockReference
  2
_Dot
 10
208.1198272222721
 20
56.08376974193365
 30
0.0
  0
INSERT
  5
B804
330
B7EB
100
AcDbEntity
  8
AM_5
100
AcDbBlockReference
  2
_Dot
 10
169.6198242222735
 20
56.08376974193365
 30
0.0
 50
180.0
  0
MTEXT
  5
B805
330
B7EB
100
AcDbEntity
  8
AM_5
 62
     2
100
AcDbMText
 10
188.8698257222728
 20
59.18376974193365
 30
0.0
 40
3.200000000000001
 41
0.0
 71
     5
 72
     1
  1
38.5
 73
     1
 44
1.0
1001
ACAD
1000
MTEXTBEGIN
1070
    73
1070
     1
1070
    44
1040
1.0
1070
    74
1070
     0
1000
MTEXTEND
  0
POINT
  5
B806
330
B7EB
100
AcDbEntity
  8
Defpoints
 62
     0
100
AcDbPoint
 10
208.1198272222721
 20
65.08376684898493
 30
0.0
  0
POINT
  5
B807
330
B7EB
100
AcDbEntity
  8
Defpoints
 62
     0
100
AcDbPoint
 10
169.6198242222735
 20
65.08377721437054
 30
0.0
  0
POINT
  5
B808
330
B7EB
100
AcDbEntity
  8
Defpoints
 62
     0
100
AcDbPoint
 10
169.6198242222735
 20
56.08376974193365
 30
0.0
  0
ENDBLK
  5
B7F6
330
B7EB
100
AcDbEntity
  8
0
100
AcDbBlockEnd
  0
BLOCK
  5
B833
330
B829
100
AcDbEntity
  8
0
100
AcDbBlockBegin
  2
*D26
 70
     1
 10
0.0
 20
0.0
 30
0.0
  3
*D26
  1

  0
LINE
  5
B835
330
B829
100
AcDbEntity
  8
AM_5
100
AcDbLine
 10
167.4198256068889
 20
85.08377693744781
 30
0.0
 11
158.4198313789748
 21
85.08377693744783
 31
0.0
  0
LINE
  5
B836
330
B829
100
AcDbEntity
  8
AM_5
100
AcDbLine
 10
173.9198229415017
 20
75.18376658744817
 30
0.0
 11
158.4198313789748
 21
75.18376658744819
 31
0.0
  0
LINE
  5
B837
330
B829
100
AcDbEntity
  8
AM_5
100
AcDbLine
 10
159.4198313789748
 20
84.08377693744784
 30
0.0
 11
159.4198313789748
 21
76.18376658744819
 31
0.0
  0
INSERT
  5
B838
330
B829
100
AcDbEntity
  8
AM_5
100
AcDbBlockReference
  2
_Dot
 10
159.4198313789748
 20
85.08377693744783
 30
0.0
 50
90.0
  0
INSERT
  5
B839
330
B829
100
AcDbEntity
  8
AM_5
100
AcDbBlockReference
  2
_Dot
 10
159.4198313789748
 20
75.18376658744819
 30
0.0
 50
270.0
  0
MTEXT
  5
B83A
330
B829
100
AcDbEntity
  8
AM_5
 62
     2
100
AcDbMText
 10
156.3198313789748
 20
80.13377176244803
 30
0.0
 40
3.200000000000001
 41
0.0
 71
     5
 72
     1
  1
10
 11
0.0000000000000001
 21
1.0
 31
0.0
 73
     1
 44
1.0
1001
ACAD
1000
MTEXTBEGIN
1070
    73
1070
     1
1070
    44
1040
1.0
1070
    74
1070
     0
1000
MTEXTEND
  0
POINT
  5
B83B
330
B829
100
AcDbEntity
  8
Defpoints
 62
     0
100
AcDbPoint
 10
168.4198256068889
 20
85.08377693744781
 30
0.0
  0
POINT
  5
B83C
330
B829
100
AcDbEntity
  8
Defpoints
 62
     0
100
AcDbPoint
 10
174.9198229415017
 20
75.18376658744817
 30
0.0
  0
POINT
  5
B83D
330
B829
100
AcDbEntity
  8
Defpoints
 62
     0
100
AcDbPoint
 10
159.4198313789748
 20
75.18376658744819
 30
0.0
  0
ENDBLK
  5
B834
330
B829
100
AcDbEntity
  8
0
100
AcDbBlockEnd
  0
BLOCK
  5
B849
330
B83F
100
AcDbEntity
  8
0
100
AcDbBlockBegin
  2
*D27
 70
     1
 10
0.0
 20
0.0
 30
0.0
  3
*D27
  1

  0
LINE
  5
B85D
330
B83F
100
AcDbEntity
  8
AM_5
100
AcDbLine
 10
201.319844972273
 20
123.5837698105207
 30
0.0
 11
149.419840780849
 21
123.5837698105208
 31
0.0
  0
LINE
  5
B85E
330
B83F
100
AcDbEntity
  8
AM_5
100
AcDbLine
 10
167.4198256068889
 20
85.08377693744781
 30
0.0
 11
149.419840780849
 21
85.08377693744783
 31
0.0
  0
LINE
  5
B85F
330
B83F
100
AcDbEntity
  8
AM_5
100
AcDbLine
 10
150.419840780849
 20
122.5837698105208
 30
0.0
 11
150.419840780849
 21
86.08377693744783
 31
0.0
  0
INSERT
  5
B860
330
B83F
100
AcDbEntity
  8
AM_5
100
AcDbBlockReference
  2
_Dot
 10
150.419840780849
 20
123.5837698105208
 30
0.0
 50
90.0
  0
INSERT
  5
B861
330
B83F
100
AcDbEntity
  8
AM_5
100
AcDbBlockReference
  2
_Dot
 10
150.419840780849
 20
85.08377693744783
 30
0.0
 50
270.0
  0
MTEXT
  5
B862
330
B83F
100
AcDbEntity
  8
AM_5
 62
     2
100
AcDbMText
 10
147.319840780849
 20
104.3337733739843
 30
0.0
 40
3.200000000000001
 41
0.0
 71
     5
 72
     1
  1
38.5
 11
0.0000000000000001
 21
1.0
 31
0.0
 73
     1
 44
1.0
1001
ACAD
1000
MTEXTBEGIN
1070
    73
1070
     1
1070
    44
1040
1.0
1070
    74
1070
     0
1000
MTEXTEND
  0
POINT
  5
B863
330
B83F
100
AcDbEntity
  8
Defpoints
 62
     0
100
AcDbPoint
 10
202.3198449722729
 20
123.5837698105207
 30
0.0
  0
POINT
  5
B864
330
B83F
100
AcDbEntity
  8
Defpoints
 62
     0
100
AcDbPoint
 10
168.4198256068889
 20
85.08377693744781
 30
0.0
  0
POINT
  5
B865
330
B83F
100
AcDbEntity
  8
Defpoints
 62
     0
100
AcDbPoint
 10
150.419840780849
 20
85.08377693744783
 30
0.0
  0
ENDBLK
  5
B84A
330
B83F
100
AcDbEntity
  8
0
100
AcDbBlockEnd
  0
BLOCK
  5
B871
330
B867
100
AcDbEntity
  8
0
100
AcDbBlockBegin
  2
*D28
 70
     1
 10
0.0
 20
0.0
 30
0.0
  3
*D28
  1

  0
LINE
  5
B873
330
B867
100
AcDbEntity
  8
AM_5
100
AcDbLine
 10
167.4198326068889
 20
85.08377693744593
 30
0.0
 11
149.4198316624179
 21
85.08377693744595
 31
0.0
  0
LINE
  5
B874
330
B867
100
AcDbEntity
  8
AM_5
100
AcDbLine
 10
167.9198273568889
 20
65.08377740283126
 30
0.0
 11
149.4198316624179
 21
65.08377740283127
 31
0.0
  0
LINE
  5
B875
330
B867
100
AcDbEntity
  8
AM_5
100
AcDbLine
 10
150.4198316624179
 20
84.08377693744595
 30
0.0
 11
150.4198316624179
 21
66.08377740283128
 31
0.0
  0
INSERT
  5
B876
330
B867
100
AcDbEntity
  8
AM_5
100
AcDbBlockReference
  2
_Dot
 10
150.4198316624179
 20
85.08377693744595
 30
0.0
 50
90.0
  0
INSERT
  5
B877
330
B867
100
AcDbEntity
  8
AM_5
100
AcDbBlockReference
  2
_Dot
 10
150.4198316624179
 20
65.08377740283127
 30
0.0
 50
270.0
  0
MTEXT
  5
B878
330
B867
100
AcDbEntity
  8
AM_5
 62
     2
100
AcDbMText
 10
147.3198316624179
 20
75.08377717013861
 30
0.0
 40
3.200000000000001
 41
0.0
 71
     5
 72
     1
  1
20
 11
0.0000000000000001
 21
1.0
 31
0.0
 73
     1
 44
1.0
1001
ACAD
1000
MTEXTBEGIN
1070
    73
1070
     1
1070
    44
1040
1.0
1070
    74
1070
     0
1000
MTEXTEND
  0
POINT
  5
B879
330
B867
100
AcDbEntity
  8
Defpoints
 62
     0
100
AcDbPoint
 10
168.4198326068889
 20
85.08377693744593
 30
0.0
  0
POINT
  5
B87A
330
B867
100
AcDbEntity
  8
Defpoints
 62
     0
100
AcDbPoint
 10
168.9198273568889
 20
65.08377740283126
 30
0.0
  0
POINT
  5
B87B
330
B867
100
AcDbEntity
  8
Defpoints
 62
     0
100
AcDbPoint
 10
150.4198316624179
 20
65.08377740283127
 30
0.0
  0
ENDBLK
  5
B872
330
B867
100
AcDbEntity
  8
0
100
AcDbBlockEnd
  0
ENDSEC
  0
SECTION
  2
ENTITIES
  0
LINE
  5
B61B
330
1F
100
AcDbEntity
  8
AM_1
100
AcDbLine
 10
272.9999999145805
 20
171.0000000824365
 30
0.0
 11
272.9999999145805
 21
0.0000000824364861
 31
0.0
  0
LINE
  5
B61C
330
1F
100
AcDbEntity
  8
AM_1
100
AcDbLine
 10
-0.000000085419515
 20
0.0000000824364861
 30
0.0
 11
272.9999999145805
 21
0.0000000824364861
 31
0.0
  0
LINE
  5
B61D
330
1F
100
AcDbEntity
  8
AM_1
100
AcDbLine
 10
-0.000000085419515
 20
171.0000000824365
 30
0.0
 11
-0.000000085419515
 21
0.0000000824364861
 31
0.0
  0
LINE
  5
B61E
330
1F
100
AcDbEntity
  8
AM_1
100
AcDbLine
 10
-0.000000085419515
 20
171.0000000824365
 30
0.0
 11
272.9999999145805
 21
171.0000000824365
 31
0.0
  0
LINE
  5
B61F
330
1F
100
AcDbEntity
  8
AM_1
100
AcDbLine
 10
-0.000000085419515
 20
171.0000000824365
 30
0.0
 11
-0.000000085419515
 21
91.00000008243648
 31
0.0
  0
LINE
  5
B620
330
1F
100
AcDbEntity
  8
AM_1
100
AcDbLine
 10
-0.000000085419515
 20
171.0000000824365
 30
0.0
 11
109.9999999145805
 21
171.0000000824365
 31
0.0
  0
LINE
  5
B621
330
1F
100
AcDbEntity
  8
AM_0
100
AcDbLine
 10
19.99999991458048
 20
171.0000000824365
 30
0.0
 11
19.99999991458048
 21
91.00000008243648
 31
0.0
  0
LINE
  5
B622
330
1F
100
AcDbEntity
  8
AM_0
100
AcDbLine
 10
-0.000000085419515
 20
163.0000000824365
 30
0.0
 11
109.9999999145805
 21
163.0000000824365
 31
0.0
  0
LINE
  5
B623
330
1F
100
AcDbEntity
  8
AM_0
100
AcDbLine
 10
-0.000000085419515
 20
155.0000000824365
 30
0.0
 11
109.9999999145805
 21
155.0000000824365
 31
0.0
  0
LINE
  5
B624
330
1F
100
AcDbEntity
  8
AM_0
100
AcDbLine
 10
-0.000000085419515
 20
147.0000000824365
 30
0.0
 11
109.9999999145805
 21
147.0000000824365
 31
0.0
  0
LINE
  5
B625
330
1F
100
AcDbEntity
  8
AM_0
100
AcDbLine
 10
-0.000000085419515
 20
139.0000000824365
 30
0.0
 11
109.9999999145805
 21
139.0000000824365
 31
0.0
  0
LINE
  5
B626
330
1F
100
AcDbEntity
  8
AM_2
100
AcDbLine
 10
19.99999991458048
 20
131.0000000824365
 30
0.0
 11
109.9999999145805
 21
131.0000000824365
 31
0.0
  0
LINE
  5
B627
330
1F
100
AcDbEntity
  8
AM_2
100
AcDbLine
 10
19.99999991458048
 20
123.0000000824365
 30
0.0
 11
109.9999999145805
 21
123.0000000824365
 31
0.0
  0
LINE
  5
B628
330
1F
100
AcDbEntity
  8
AM_0
100
AcDbLine
 10
-0.000000085419515
 20
115.0000000824365
 30
0.0
 11
109.9999999145805
 21
115.0000000824365
 31
0.0
  0
LINE
  5
B629
330
1F
100
AcDbEntity
  8
AM_2
100
AcDbLine
 10
19.99999991458048
 20
107.0000000824365
 30
0.0
 11
109.9999999145805
 21
107.0000000824365
 31
0.0
  0
LINE
  5
B62A
330
1F
100
AcDbEntity
  8
AM_2
100
AcDbLine
 10
19.99999991458048
 20
99.00000008243649
 30
0.0
 11
109.9999999145805
 21
99.00000008243649
 31
0.0
  0
LINE
  5
B62B
330
1F
100
AcDbEntity
  8
AM_0
100
AcDbLine
 10
-0.000000085419515
 20
91.00000008243648
 30
0.0
 11
109.9999999145805
 21
91.00000008243648
 31
0.0
  0
LINE
  5
B62C
330
1F
100
AcDbEntity
  8
AM_0
100
AcDbLine
 10
109.9999999145805
 20
171.0000000824365
 30
0.0
 11
109.9999999145805
 21
91.00000008243648
 31
0.0
  0
LINE
  5
B62D
330
1F
100
AcDbEntity
  8
AM_7
100
AcDbLine
 10
188.8698234145804
 20
62.08377203167825
 30
0.0
 11
188.8698269145804
 21
88.08377143167826
 31
0.0
  0
LINE
  5
B62E
330
1F
100
AcDbEntity
  8
AM_0
100
AcDbLine
 10
202.3198449722729
 20
123.5837698105207
 30
0.0
 11
202.3198451607348
 21
124.2837708105207
 31
0.0
  0
LINE
  5
B62F
330
1F
100
AcDbEntity
  8
AM_0
100
AcDbLine
 10
194.3698292838118
 20
83.88377295090823
 30
0.0
 11
189.162600283812
 21
83.88377435285452
 31
0.0
  0
LINE
  5
B630
330
1F
100
AcDbEntity
  8
AM_0
100
AcDbLine
 10
183.3698292838122
 20
83.88377591244674
 30
0.0
 11
188.573282283812
 21
83.88377451151706
 31
0.0
  0
LINE
  5
B631
330
1F
100
AcDbEntity
  8
AM_0
100
AcDbLine
 10
176.1198209376588
 20
78.8837784643719
 30
0.0
 11
182.3698279376585
 21
78.88377678167768
 31
0.0
  0
LINE
  5
B632
330
1F
100
AcDbEntity
  8
AM_0
100
AcDbLine
 10
169.619828260735
 20
80.08377671437001
 30
0.0
 11
181.3532722607345
 21
80.08377355536579
 31
0.0
  0
LINE
  5
B633
330
1F
100
AcDbEntity
  8
AM_0
100
AcDbLine
 10
176.1198202645818
 20
76.38377846437198
 30
0.0
 11
178.8698272645817
 21
76.38377772398547
 31
0.0
  0
LINE
  5
B634
330
1F
100
AcDbEntity
  8
AM_0
100
AcDbLine
 10
174.9198229415017
 20
75.18376658744815
 30
0.0
 11
178.8698269415015
 21
75.18376552398551
 31
0.0
  0
LINE
  5
B635
330
1F
100
AcDbEntity
  8
AM_0
100
AcDbLine
 10
169.619827937659
 20
78.88378021437003
 30
0.0
 11
174.9198239376588
 21
78.88377878744802
 31
0.0
  0
LINE
  5
B636
330
1F
100
AcDbEntity
  8
AM_0
100
AcDbLine
 10
182.4328946068884
 20
85.08377316469841
 30
0.0
 11
195.3067576068879
 21
85.08376969865834
 31
0.0
  0
LINE
  5
B637
330
1F
100
AcDbEntity
  8
AM_0
100
AcDbLine
 10
208.8198272222721
 20
65.08376666052339
 30
0.0
 11
208.1198272222721
 21
65.08376684898493
 31
0.0
  0
LINE
  5
B638
330
1F
100
AcDbEntity
  8
AM_0
100
AcDbLine
 10
208.1198272222721
 20
65.08376684898493
 30
0.0
 11
208.1198309376576
 21
78.88376984898446
 31
0.0
  0
LINE
  5
B639
330
1F
100
AcDbEntity
  8
AM_0
100
AcDbLine
 10
208.1198309376576
 20
78.88376984898446
 30
0.0
 11
202.8198329376578
 21
78.883771275907
 31
0.0
  0
LINE
  5
B63A
330
1F
100
AcDbEntity
  8
AM_0
100
AcDbLine
 10
168.4198256068889
 20
85.08377693744781
 30
0.0
 11
169.6198296068888
 21
85.08377661436982
 31
0.0
  0
LINE
  5
B63B
330
1F
100
AcDbEntity
  8
AM_0
100
AcDbLine
 10
208.1198312607337
 20
80.08376634898439
 30
0.0
 11
208.1198429722728
 21
123.5837682489828
 31
0.0
  0
LINE
  5
B63C
330
1F
100
AcDbEntity
  8
AM_0
100
AcDbLine
 10
202.8198239415007
 20
75.18375907590929
 30
0.0
 11
202.8198249376557
 21
78.88376367590916
 31
0.0
  0
LINE
  5
B63D
330
1F
100
AcDbEntity
  8
AM_0
100
AcDbLine
 10
178.8698269415025
 20
75.18376932398552
 30
0.0
 11
178.8698272645797
 21
76.38377012398547
 31
0.0
  0
LINE
  5
B63E
330
1F
100
AcDbEntity
  8
AM_0
100
AcDbLine
 10
176.1198272645797
 20
76.3837708643701
 30
0.0
 11
176.1198279376567
 21
78.88377086437
 31
0.0
  0
LINE
  5
B63F
330
1F
100
AcDbEntity
  8
AM_0
100
AcDbLine
 10
174.9198299415017
 20
75.18376658744625
 30
0.0
 11
174.9198309376567
 21
78.88377118744613
 31
0.0
  0
LINE
  5
B640
330
1F
100
AcDbEntity
  8
AM_0
100
AcDbLine
 10
169.6198242222735
 20
65.08377721437054
 30
0.0
 11
169.619827937659
 21
78.88378021437003
 31
0.0
  0
LINE
  5
B641
330
1F
100
AcDbEntity
  8
AM_0
100
AcDbLine
 10
168.4198273568889
 20
65.58377753744664
 30
0.0
 11
168.4198326068888
 21
85.08377693744595
 31
0.0
  0
LINE
  5
B642
330
1F
100
AcDbEntity
  8
AM_0
100
AcDbLine
 10
168.9198272222735
 20
65.08377740283127
 30
0.0
 11
169.6198242222735
 21
65.08377721437054
 31
0.0
  0
LINE
  5
B643
330
1F
100
AcDbEntity
  8
AM_0
100
AcDbLine
 10
169.619828260735
 20
80.08377671437001
 30
0.0
 11
169.6198296068888
 21
85.08377661436982
 31
0.0
  0
LINE
  5
B644
330
1F
100
AcDbEntity
  8
AM_0
100
AcDbLine
 10
202.8198452953501
 20
124.7837706759053
 30
0.0
 11
208.11984329535
 21
124.7837692489828
 31
0.0
  0
LINE
  5
B645
330
1F
100
AcDbEntity
  8
AM_0
100
AcDbLine
 10
209.3198273568875
 20
65.583766525908
 30
0.0
 11
209.3198429722727
 21
123.5837679259059
 31
0.0
  0
LINE
  5
B646
330
1F
100
AcDbEntity
  8
AM_0
100
AcDbLine
 10
202.3198449722729
 20
123.5837698105207
 30
0.0
 11
208.1198429722728
 21
123.5837682489828
 31
0.0
  0
LINE
  5
B647
330
1F
100
AcDbEntity
  8
AM_0
100
AcDbLine
 10
202.8198319415007
 20
75.18375907590715
 30
0.0
 11
198.8698269415007
 21
75.18376013937004
 31
0.0
  0
LINE
  5
B648
330
1F
100
AcDbEntity
  8
AM_0
100
AcDbLine
 10
198.8698269415018
 20
75.18376393937003
 30
0.0
 11
198.8698272645789
 21
76.38376473937
 31
0.0
  0
LINE
  5
B649
330
1F
100
AcDbEntity
  8
AM_0
100
AcDbLine
 10
201.6198272645809
 20
76.38377159898538
 30
0.0
 11
198.869827264581
 21
76.38377233937001
 31
0.0
  0
LINE
  5
B64A
330
1F
100
AcDbEntity
  8
AM_0
100
AcDbLine
 10
201.6198279376578
 20
78.88377159898528
 30
0.0
 11
195.369827937658
 21
78.88377328167762
 31
0.0
  0
LINE
  5
B64B
330
1F
100
AcDbEntity
  8
AM_0
100
AcDbLine
 10
208.1198312607337
 20
80.08376634898439
 30
0.0
 11
196.386384260734
 21
80.08376950798941
 31
0.0
  0
LINE
  5
B64C
330
1F
100
AcDbEntity
  8
AM_0
100
AcDbLine
 10
201.6198272645789
 20
76.38376399898537
 30
0.0
 11
201.6198279376558
 21
78.88376399898527
 31
0.0
  0
LINE
  5
B64D
330
1F
100
AcDbEntity
  8
AM_0
100
AcDbLine
 10
189.1698252838125
 20
83.88377635090931
 30
0.0
 11
189.0388203395352
 21
84.09074638617989
 31
0.0
  0
LINE
  5
B64E
330
1F
100
AcDbEntity
  8
AM_0
100
AcDbLine
 10
188.5698262838115
 20
83.88377251244751
 30
0.0
 11
188.7008383395341
 21
84.09074247717503
 31
0.0
  0
LINE
  5
B64F
330
1F
100
AcDbEntity
  8
AM_0
100
AcDbLine
 10
183.3698222838125
 20
83.8837769124486
 30
0.0
 11
182.3698209376585
 21
78.88377678167955
 31
0.0
  0
LINE
  5
B650
330
1F
100
AcDbEntity
  8
AM_0
100
AcDbLine
 10
182.3698296068883
 20
85.08377318167745
 30
0.0
 11
181.3532722607348
 21
80.08377445536579
 31
0.0
  0
LINE
  5
B651
330
1F
100
AcDbEntity
  8
AM_0
100
AcDbLine
 10
194.3698292838121
 20
83.88377395090822
 30
0.0
 11
195.3698279376582
 21
78.88377378167762
 31
0.0
  0
LINE
  5
B652
330
1F
100
AcDbEntity
  8
AM_0
100
AcDbLine
 10
195.3698296068879
 20
85.08376968167739
 30
0.0
 11
196.386384260734
 21
80.08376950798941
 31
0.0
  0
ARC
  5
B653
330
1F
100
AcDbEntity
  8
AM_0
100
AcDbCircle
 10
208.1198429722728
 20
123.5837682489828
 30
0.0
 40
1.199999999999999
100
AcDbArc
 50
359.9999845742133
 51
89.99998457421249
  0
ARC
  5
B654
330
1F
100
AcDbEntity
  8
AM_0
100
AcDbCircle
 10
202.8198451607348
 20
124.2837706759053
 30
0.0
 40
0.5
100
AcDbArc
 50
89.99998457421249
 51
179.9999845742133
  0
ARC
  5
B655
330
1F
100
AcDbEntity
  8
AM_0
100
AcDbCircle
 10
208.8198273568875
 20
65.58376666052338
 30
0.0
 40
0.5
100
AcDbArc
 50
269.9999845742125
 51
359.9999845742133
  0
ARC
  5
B656
330
1F
100
AcDbEntity
  8
AM_0
100
AcDbCircle
 10
168.9198273568889
 20
65.58377740283126
 30
0.0
 40
0.5
100
AcDbArc
 50
179.9999845742133
 51
269.9999845742125
  0
ARC
  5
B657
330
1F
100
AcDbEntity
  8
AM_0
100
AcDbCircle
 10
188.8698293107353
 20
83.98377543167745
 30
0.0
 40
0.2
100
AcDbArc
 50
32.33342457421306
 51
89.99998457421249
  0
ARC
  5
B658
330
1F
100
AcDbEntity
  8
AM_0
100
AcDbCircle
 10
188.8698293107353
 20
83.98377543167745
 30
0.0
 40
0.2
100
AcDbArc
 50
89.99998457421249
 51
147.6665445742133
  0
TEXT
  5
B659
330
1F
100
AcDbEntity
  8
AM_6
100
AcDbText
 10
5.656999914580495
 20
165.4000000824365
 30
0.0
 40
3.2
  1
品　名
 41
0.85537027
100
AcDbText
  0
TEXT
  5
B65A
330
1F
100
AcDbEntity
  8
AM_6
100
AcDbText
 10
5.656999914580495
 20
157.4000000824365
 30
0.0
 40
3.2
  1
品　番
 41
0.85537027
100
AcDbText
  0
TEXT
  5
B65B
330
1F
100
AcDbEntity
  8
AM_6
100
AcDbText
 10
22.85699991458049
 20
101.4000000824365
 30
0.0
 40
3.2
  1
定尺：３０００
 41
0.8437725099999999
100
AcDbText
  0
TEXT
  5
B65C
330
1F
100
AcDbEntity
  8
AM_6
100
AcDbText
 10
22.85699991458049
 20
165.4000000824365
 30
0.0
 40
3.2
  1
アルミエッジ（３８ｍｍ）
 41
0.8437725099999999
100
AcDbText
  0
TEXT
  5
B65D
330
1F
100
AcDbEntity
  8
AM_6
100
AcDbText
 10
5.656999914580495
 20
149.4000000824365
 30
0.0
 40
3.2
  1
材　質
 41
0.85537027
100
AcDbText
  0
TEXT
  5
B65E
330
1F
100
AcDbEntity
  8
AM_6
100
AcDbText
 10
5.656999914580495
 20
141.4000000824365
 30
0.0
 40
3.2
  1
仕上げ
 41
0.85537027
100
AcDbText
  0
TEXT
  5
B65F
330
1F
100
AcDbEntity
  8
AM_6
100
AcDbText
 10
22.85699991458049
 20
117.4000000824365
 30
0.0
 40
3.2
  1
＊
 41
0.90047268
100
AcDbText
  0
TEXT
  5
B660
330
1F
100
AcDbEntity
  8
AM_6
100
AcDbText
 10
22.85699991458049
 20
125.4000000824365
 30
0.0
 40
3.2
  1
＊
 41
0.90047268
100
AcDbText
  0
TEXT
  5
B661
330
1F
100
AcDbEntity
  8
AM_6
100
AcDbText
 10
2.456999914580492
 20
133.4000000824365
 30
0.0
 40
3.2
  1
セットビス
 41
0.84892707
100
AcDbText
  0
TEXT
  5
B662
330
1F
100
AcDbEntity
  8
AM_6
100
AcDbText
 10
22.85699991458049
 20
133.4000000824365
 30
0.0
 40
3.2
  1
＊
 41
0.90047268
100
AcDbText
  0
TEXT
  5
B663
330
1F
100
AcDbEntity
  8
AM_6
100
AcDbText
 10
22.85699991458049
 20
141.4000000824365
 30
0.0
 40
3.2
  1
アルマイト+クリアー
 41
0.84892707
100
AcDbText
  0
TEXT
  5
B664
330
1F
100
AcDbEntity
  8
AM_6
100
AcDbText
 10
7.256999914580489
 20
109.4000000824365
 30
0.0
 40
3.2
  1
備考
 41
0.8643907499999999
100
AcDbText
  0
TEXT
  5
B665
330
1F
100
AcDbEntity
  8
AM_6
100
AcDbText
 10
22.85699991458049
 20
149.4000000824365
 30
0.0
 40
3.2
  1
アルミ押出し材
 41
0.84634979
100
AcDbText
  0
TEXT
  5
B666
330
1F
100
AcDbEntity
  8
AM_6
100
AcDbText
 10
22.85699991458049
 20
157.4000000824365
 30
0.0
 40
3.2
  1
ＬＲ－３４
 41
0.84892707
100
AcDbText
  0
TEXT
  5
B667
330
1F
100
AcDbEntity
  8
AM_6
100
AcDbText
 10
22.85699991458049
 20
109.4000000824365
 30
0.0
 40
3.2
  1
コーナー用
 41
0.84892707
100
AcDbText
  0
DIMENSION
  5
B66C
330
1F
100
AcDbEntity
  8
AM_5
100
AcDbDimension
  2
*D18
 10
218.3198432953493
 20
124.7837682489828
 30
0.0
 11
215.2198432953493
 21
94.9337675489839
 31
0.0
 70
    32
 71
     5
 42
59.70000139999786
  3
SYS$0
100
AcDbAlignedDimension
 13
208.1198272222721
 23
65.08376684898493
 33
0.0
 14
208.1198432953497
 24
124.7837682489828
 34
0.0
 50
269.9999845742125
100
AcDbRotatedDimension
1001
ACAD
1000
DSTYLE
1002
{
1070
   343
1005
B542
1070
   344
1005
B542
1070
   173
1070
     1
1070
   271
1070
     0
1070
   272
1070
     4
1070
   279
1070
     0
1070
   284
1070
     0
1070
   285
1070
     0
1070
   286
1070
     0
1002
}
  0
DIMENSION
  5
B66E
330
1F
100
AcDbEntity
  8
AM_5
100
AcDbDimension
  2
*D20
 10
202.3198451607348
 20
133.7837708105204
 30
0.0
 11
205.8198440665038
 21
136.8837708105204
 31
0.0
 70
    32
 71
     5
 42
6.999997811538008
  3
SYS$0
100
AcDbAlignedDimension
 13
209.3198429722728
 23
123.5837679259059
 33
0.0
 14
202.3198451607348
 24
124.2837708105207
 34
0.0
 50
359.9999845742133
100
AcDbRotatedDimension
1001
ACAD
1000
DSTYLE
1002
{
1070
   343
1005
B542
1070
   344
1005
B542
1070
   173
1070
     1
1070
   271
1070
     0
1070
   272
1070
     4
1070
   279
1070
     0
1070
   284
1070
     0
1070
   285
1070
     0
1070
   286
1070
     0
1002
}
  0
DIMENSION
  5
B780
330
1F
100
AcDbEntity
  8
AM_5
100
AcDbDimension
  2
*D21
 10
209.3198429722728
 20
133.7837706991098
 30
0.0
 11
205.8198440665038
 21
136.8837706991099
 31
0.0
 70
    32
 71
     5
 42
6.999997811538008
  3
SYS$0
100
AcDbAlignedDimension
 13
202.3198451607348
 23
124.2837706759053
 33
0.0
 14
209.3198429722728
 24
123.5837682489828
 34
0.0
 50
359.9999845742118
100
AcDbRotatedDimension
  0
DIMENSION
  5
B7AC
330
1F
100
AcDbEntity
  8
AM_5
100
AcDbDimension
  2
*D23
 10
218.3198360024222
 20
65.08376666052339
 30
0.0
 11
215.2198360024222
 21
94.93376795475311
 31
0.0
 70
    32
 71
     5
 42
59.70000258845941
  3
SYS$0
100
AcDbAlignedDimension
 13
208.11984329535
 23
124.7837692489828
 33
0.0
 14
208.8198272222721
 24
65.08376666052339
 34
0.0
 50
89.99998457421304
100
AcDbRotatedDimension
1001
ACAD
1000
DSTYLE
1002
{
1070
   271
1070
     0
1002
}
  0
DIMENSION
  5
B7CB
330
1F
100
AcDbEntity
  8
AM_5
100
AcDbDimension
  2
*D24
 10
168.419827356889
 20
47.08376997825354
 30
0.0
 11
188.8698273568882
 21
50.18376997825354
 31
0.0
 70
    32
 71
     5
 42
40.89999999999849
  3
SYS$0
100
AcDbAlignedDimension
 13
209.3198273568875
 23
65.58376652590799
 33
0.0
 14
168.419827356889
 24
65.58377753744665
 34
0.0
 50
359.999984574213
100
AcDbRotatedDimension
1001
ACAD
1000
DSTYLE
1002
{
1070
   271
1070
     0
1002
}
  0
DIMENSION
  5
B7EA
330
1F
100
AcDbEntity
  8
AM_5
100
AcDbDimension
  2
*D25
 10
169.6198242222735
 20
56.08376974193365
 30
0.0
 11
188.8698257222728
 21
59.18376974193365
 31
0.0
 70
    32
 71
     5
 42
38.50000299999863
  3
SYS$0
100
AcDbAlignedDimension
 13
208.1198272222721
 23
65.08376684898493
 33
0.0
 14
169.6198242222735
 24
65.08377721437054
 34
0.0
 50
359.999984574213
100
AcDbRotatedDimension
  0
DIMENSION
  5
B828
330
1F
100
AcDbEntity
  8
AM_5
100
AcDbDimension
  2
*D26
 10
159.4198313789748
 20
75.18376658744819
 30
0.0
 11
156.3198313789748
 21
80.13377176244803
 31
0.0
 70
    32
 71
     5
 42
9.900010349999647
  3
SYS$0
100
AcDbAlignedDimension
 13
168.4198256068889
 23
85.08377693744781
 33
0.0
 14
174.9198229415017
 24
75.18376658744817
 34
0.0
 50
89.9999845742133
100
AcDbRotatedDimension
1001
ACAD
1000
DSTYLE
1002
{
1070
   271
1070
     0
1002
}
  0
DIMENSION
  5
B83E
330
1F
100
AcDbEntity
  8
AM_5
100
AcDbDimension
  2
*D27
 10
150.419840780849
 20
85.08377693744783
 30
0.0
 11
147.319840780849
 21
104.3337733739843
 31
0.0
 70
    32
 71
     5
 42
38.49999287307296
  3
SYS$0
100
AcDbAlignedDimension
 13
202.3198449722729
 23
123.5837698105207
 33
0.0
 14
168.4198256068889
 24
85.08377693744781
 34
0.0
 50
89.99998457421176
100
AcDbRotatedDimension
  0
DIMENSION
  5
B866
330
1F
100
AcDbEntity
  8
AM_5
100
AcDbDimension
  2
*D28
 10
150.4198316624179
 20
65.08377740283127
 30
0.0
 11
147.3198316624179
 21
75.08377717013861
 31
0.0
 70
    32
 71
     5
 42
19.99999953461467
  3
SYS$0
100
AcDbAlignedDimension
 13
168.4198326068889
 23
85.08377693744593
 33
0.0
 14
168.9198273568889
 24
65.08377740283126
 34
0.0
 50
89.9999845742133
100
AcDbRotatedDimension
  0
ENDSEC
  0
SECTION
  2
OBJECTS
  0
DICTIONARY
  5
C
330
0
100
AcDbDictionary
281
     1
  3
ACAD_2007HEADERVARS_RT
350
B88E
  3
ACAD_BGPLOT_KEY
350
AB06
  3
ACAD_COLOR
350
A91D
  3
ACAD_GROUP
350
D
  3
ACAD_LAYOUT
350
1A
  3
ACAD_MATERIAL
350
A91C
  3
ACAD_MLINESTYLE
350
17
  3
ACAD_PLOTSETTINGS
350
19
  3
ACAD_PLOTSTYLENAME
350
E
  3
ACAD_TABLESTYLE
350
AAB9
  3
ACAD_VISUALSTYLE
350
B0F1
  3
AcAsAppObject
350
3DA1
  3
ACASGREF_MASTER
350
3DE9
  3
AcDbVariableDictionary
350
34
  3
AcmDictionary
350
47
  3
AD_GREF_MODULE
350
3DEA
  3
AD_MAPI_MODULE
350
3E06
  3
AMG
350
2B
  3
AMGSNAPSETTINGS
350
7D
  3
ASE_INDEX_DICTIONARY
350
B331
  3
DWGPROPS
350
B88D
  3
MAPISURF_MODULE
350
3DEB
  0
DICTIONARY
  5
3F95
330
2
100
AcDbDictionary
280
     1
281
     1
  3
ACAD_LAYERFILTERS
360
B523
  3
ACAD_LAYERSTATES
360
3F96
  3
ACLYDICTIONARY
360
B522
  3
AMLAYER_GROUPCOLORS
360
AAB4
  0
DICTIONARY
  5
8A
330
1F
100
AcDbDictionary
280
     1
281
     1
  3
ACAD_SORTENTS
360
B1BA
  0
DICTIONARY
  5
B88E
102
{ACAD_REACTORS
330
C
102
}
330
C
100
AcDbDictionary
281
     1
  3
DIMARCSYM
350
B88F
  0
DICTIONARY
  5
AB06
102
{ACAD_REACTORS
330
C
102
}
330
C
100
AcDbDictionary
280
     1
281
     1
  0
DICTIONARY
  5
A91D
102
{ACAD_REACTORS
330
C
102
}
330
C
100
AcDbDictionary
281
     1
  0
DICTIONARY
  5
D
102
{ACAD_REACTORS
330
C
102
}
330
C
100
AcDbDictionary
281
     1
  0
DICTIONARY
  5
1A
102
{ACAD_REACTORS
330
C
102
}
330
C
100
AcDbDictionary
281
     1
  3
Model
350
22
  3
ﾚｲｱｳﾄ1
350
1E
  3
ﾚｲｱｳﾄ2
350
26
  0
DICTIONARY
  5
A91C
102
{ACAD_REACTORS
330
C
102
}
330
C
100
AcDbDictionary
281
     1
  3
ByBlock
350
B0EF
  3
ByLayer
350
B0EE
  3
Global
350
B0F0
  0
DICTIONARY
  5
17
102
{ACAD_REACTORS
330
C
102
}
330
C
100
AcDbDictionary
281
     1
  3
Standard
350
18
  0
DICTIONARY
  5
19
102
{ACAD_REACTORS
330
C
102
}
330
C
100
AcDbDictionary
281
     1
  0
ACDBDICTIONARYWDFLT
  5
E
102
{ACAD_REACTORS
330
C
102
}
330
C
100
AcDbDictionary
281
     1
  3
Normal
350
F
100
AcDbDictionaryWithDefault
340
F
  0
DICTIONARY
  5
AAB9
102
{ACAD_REACTORS
330
C
102
}
330
C
100
AcDbDictionary
281
     1
  3
Standard
350
AABA
  0
DICTIONARY
  5
B0F1
102
{ACAD_REACTORS
330
C
102
}
330
C
100
AcDbDictionary
281
     1
  3
2dWireframe
350
B0F7
  3
3D Hidden
350
B0F9
  3
3dWireframe
350
B0F8
  3
Basic
350
B0F6
  3
Brighten
350
B0FD
  3
ColorChange
350
B101
  3
Conceptual
350
B0FA
  3
Dim
350
B0FC
  3
Facepattern
350
B100
  3
Flat
350
B0F2
  3
FlatWithEdges
350
B0F3
  3
Gouraud
350
B0F4
  3
GouraudWithEdges
350
B0F5
  3
Linepattern
350
B0FF
  3
Realistic
350
B0FB
  3
Thicken
350
B0FE
  0
ACAD_PROXY_OBJECT
  5
3DA1
102
{ACAD_REACTORS
330
C
102
}
330
C
100
AcDbProxyObject
 90
      499
 91
      576
 95
   917527
 70
     0
 93
       10
310
407F
 94
        0
1001
ACAD
1000
AcRTDxfName
1000
ASAPP
  0
ACAD_PROXY_OBJECT
  5
3DE9
102
{ACAD_REACTORS
330
C
102
}
330
C
100
AcDbProxyObject
 90
      499
 91
      581
 95
   917527
 70
     0
 93
       34
310
010000407F
 94
        0
1001
ACAD
1000
AcRTDxfName
1000
ACASGREFMASTER
  0
DICTIONARY
  5
34
102
{ACAD_REACTORS
330
C
102
}
330
C
100
AcDbDictionary
281
     1
  3
CTABLESTYLE
350
AAF3
  3
DIMASSOC
350
A10C
  3
FIELDEVAL
350
AB07
  3
INDEXCTL
350
35
  3
SORTENTS
350
194C
  0
DICTIONARY
  5
47
102
{ACAD_REACTORS
330
C
102
}
330
C
100
AcDbDictionary
281
     1
  3
AcmBOM
350
7E8
  3
AcmStdDictionary
350
4C
  3
AMDTSECTSYM_ARROWCOLOR
350
A929
  0
ACAD_PROXY_OBJECT
  5
3DEA
102
{ACAD_REACTORS
330
C
102
}
330
C
100
AcDbProxyObject
 90
      499
 91
      582
 95
   917527
 70
     0
 93
      114
310
00000043800000000000000000003F
 94
        0
1001
ACAD
1000
AcRTDxfName
1000
ACADGREFMODULE
  0
ACAD_PROXY_OBJECT
  5
3E06
102
{ACAD_REACTORS
330
C
102
}
330
C
100
AcDbProxyObject
 90
      499
 91
      594
 95
   917527
 70
     0
 93
       34
310
05000044FF
 94
        0
1001
ACAD
1000
AcRTDxfName
1000
MAPIADMODULE
  0
DICTIONARY
  5
2B
102
{ACAD_REACTORS
330
C
102
}
330
C
100
AcDbDictionary
281
     1
  0
DICTIONARY
  5
7D
102
{ACAD_REACTORS
330
C
102
}
330
C
100
AcDbDictionary
281
     1
  0
DICTIONARY
  5
B331
102
{ACAD_REACTORS
330
C
102
}
330
C
100
AcDbDictionary
281
     1
  3
ASEBlockHierarchyIndexRecord
350
B332
1001
DCO15
1040
1594111214.218
  0
XRECORD
  5
B88D
102
{ACAD_REACTORS
330
C
102
}
330
C
100
AcDbXrecord
280
     1
  1
DWGPROPS COOKIE
  2

  3

  4

  6

  7

  8
Administrator
  9

300
AmdtFileType=84
301
=
302
=
303
=
304
=
305
=
306
=
307
=
308
=
309
=
 40
0.0043165972222222
 41
2456737.629083287
 42
2456737.633397894
  1

 90
        1
  0
ACAD_PROXY_OBJECT
  5
3DEB
102
{ACAD_REACTORS
330
C
102
}
330
C
100
AcDbProxyObject
 90
      499
 91
      583
 95
   917527
 70
     0
 93
        8
310
047E
 94
        0
1001
ACAD
1000
AcRTDxfName
1000
AMDTMAPISURFMOUDULE
  0
DICTIONARY
  5
B523
102
{ACAD_REACTORS
330
3F95
102
}
330
3F95
100
AcDbDictionary
281
     1
  0
DICTIONARY
  5
3F96
102
{ACAD_REACTORS
330
3F95
102
}
330
3F95
100
AcDbDictionary
281
     1
  3
20011210
350
3FB7
  0
DICTIONARY
  5
B522
102
{ACAD_REACTORS
330
3F95
102
}
330
3F95
100
AcDbDictionary
281
     1
1001
ACAD
1000
<All
  0
DICTIONARY
  5
AAB4
102
{ACAD_REACTORS
330
3F95
102
}
330
3F95
100
AcDbDictionary
280
     1
281
     1
  0
SORTENTSTABLE
  5
B1BA
102
{ACAD_REACTORS
330
8A
102
}
330
8A
100
AcDbSortentsTable
330
1F
  0
XRECORD
  5
B88F
102
{ACAD_REACTORS
330
B88E
102
}
330
B88E
100
AcDbXrecord
280
     1
 70
     1
  0
LAYOUT
  5
22
102
{ACAD_XDICTIONARY
360
B892
102
}
102
{ACAD_REACTORS
330
1A
102
}
330
1A
100
AcDbPlotSettings
  1

  2
Adobe PDF
  4
A4
  6
AM_VIEW1
 40
3.174999952316284
 41
3.174999952316284
 42
3.175003051757812
 43
3.17498779296875
 44
209.9733276367187
 45
297.0318298339844
 46
16.31166231632233
 47
8.84092104434967
 48
-0.000000085419515
 49
0.0000000824364861
140
272.9999999145805
141
171.0000000824365
142
1.0
143
1.0
 70
  3748
 72
     1
 73
     1
 74
     4
  7
monochrome.ctb
 75
     0
147
1.064768652339558
148
0.000000085419515
149
-0.0000000824364861
100
AcDbLayout
  1
Model
 70
     1
 71
     0
 10
0.0
 20
0.0
 11
12.0
 21
9.0
 12
0.0
 22
0.0
 32
0.0
 14
0.0
 24
0.0
 34
0.0
 15
0.0
 25
0.0
 35
0.0
146
0.0
 13
0.0
 23
0.0
 33
0.0
 16
1.0
 26
0.0
 36
0.0
 17
0.0
 27
1.0
 37
0.0
 76
     0
330
1F
331
B0EC
1001
ACAD_PSEXT
1000
Adobe PDF
1000
Adobe PDF Converter
1000
My Documents\*.pdf
1000

1070
     0
  0
LAYOUT
  5
1E
102
{ACAD_XDICTIONARY
360
B890
102
}
102
{ACAD_REACTORS
330
1A
102
}
330
1A
100
AcDbPlotSettings
  1

  2
\\ML370\XEROX
  4
A4
  6

 40
3.174999952316284
 41
3.174999952316284
 42
3.175003051757812
 43
3.17498779296875
 44
209.8674926757813
 45
296.6719970703125
 46
0.0
 47
0.0
 48
0.0
 49
0.0
140
0.0
141
0.0
142
1.0
143
1.0
 70
   688
 72
     1
 73
     1
 74
     5
  7
monochrome.ctb
 75
    16
147
1.0
148
0.0
149
0.0
100
AcDbLayout
  1
ﾚｲｱｳﾄ1
 70
     1
 71
     1
 10
-3.17498779296875
 20
-3.174999952316284
 11
293.4970092773438
 21
206.692492723465
 12
0.0
 22
0.0
 32
0.0
 14
1.000000000000000E+20
 24
1.000000000000000E+20
 34
1.000000000000000E+20
 15
-1.000000000000000E+20
 25
-1.000000000000000E+20
 35
-1.000000000000000E+20
146
0.0
 13
0.0
 23
0.0
 33
0.0
 16
1.0
 26
0.0
 36
0.0
 17
0.0
 27
1.0
 37
0.0
 76
     0
330
1B
  0
LAYOUT
  5
26
102
{ACAD_XDICTIONARY
360
B894
102
}
102
{ACAD_REACTORS
330
1A
102
}
330
1A
100
AcDbPlotSettings
  1

  2
\\ML370\XEROX
  4

  6

 40
0.0
 41
0.0
 42
0.0
 43
0.0
 44
0.0
 45
0.0
 46
0.0
 47
0.0
 48
0.0
 49
0.0
140
0.0
141
0.0
142
1.0
143
1.0
 70
   688
 72
     0
 73
     0
 74
     5
  7
monochrome.ctb
 75
    16
147
1.0
148
0.0
149
0.0
100
AcDbLayout
  1
ﾚｲｱｳﾄ2
 70
     1
 71
     2
 10
0.0
 20
0.0
 11
12.0
 21
9.0
 12
0.0
 22
0.0
 32
0.0
 14
0.0
 24
0.0
 34
0.0
 15
0.0
 25
0.0
 35
0.0
146
0.0
 13
0.0
 23
0.0
 33
0.0
 16
1.0
 26
0.0
 36
0.0
 17
0.0
 27
1.0
 37
0.0
 76
     0
330
23
  0
MATERIAL
  5
B0EF
102
{ACAD_XDICTIONARY
360
B89A
102
}
102
{ACAD_REACTORS
330
A91C
102
}
330
A91C
100
AcDbMaterial
  1
ByBlock
  0
MATERIAL
  5
B0EE
102
{ACAD_XDICTIONARY
360
B898
102
}
102
{ACAD_REACTORS
330
A91C
102
}
330
A91C
100
AcDbMaterial
  1
ByLayer
  0
MATERIAL
  5
B0F0
102
{ACAD_XDICTIONARY
360
B89C
102
}
102
{ACAD_REACTORS
330
A91C
102
}
330
A91C
100
AcDbMaterial
  1
Global
  0
MLINESTYLE
  5
18
102
{ACAD_REACTORS
330
17
102
}
330
17
100
AcDbMlineStyle
  2
STANDARD
 70
     0
  3

 62
   256
 51
90.0
 52
90.0
 71
     2
 49
0.5
 62
   256
  6
BYLAYER
 49
-0.5
 62
   256
  6
BYLAYER
  0
ACDBPLACEHOLDER
  5
F
102
{ACAD_REACTORS
330
E
102
}
330
E
  0
TABLESTYLE
  5
AABA
102
{ACAD_XDICTIONARY
360
B896
102
}
102
{ACAD_REACTORS
330
AAB9
102
}
330
AAB9
100
AcDbTableStyle
  3
Standard
 70
     0
 71
     0
 40
1.5
 41
1.5
280
     0
281
     0
  7
STANDARD
140
4.5
170
     2
 62
     0
 63
     7
283
     0
274
    -2
284
     1
 64
     0
275
    -2
285
     1
 65
     0
276
    -2
286
     1
 66
     0
277
    -2
287
     1
 67
     0
278
    -2
288
     1
 68
     0
279
    -2
289
     1
 69
     0
  7
STANDARD
140
6.0
170
     5
 62
     0
 63
     7
283
     0
274
    -2
284
     1
 64
     0
275
    -2
285
     1
 65
     0
276
    -2
286
     1
 66
     0
277
    -2
287
     1
 67
     0
278
    -2
288
     1
 68
     0
279
    -2
289
     1
 69
     0
  7
STANDARD
140
4.5
170
     5
 62
     0
 63
     7
283
     0
274
    -2
284
     1
 64
     0
275
    -2
285
     1
 65
     0
276
    -2
286
     1
 66
     0
277
    -2
287
     1
 67
     0
278
    -2
288
     1
 68
     0
279
    -2
289
     1
 69
     0
  0
VISUALSTYLE
  5
B0F7
102
{ACAD_REACTORS
330
B0F1
102
}
330
B0F1
100
AcDbVisualStyle
  2
2dWireframe
 70
     4
 71
     0
 72
     2
 73
     0
 90
        0
 40
-0.6
 41
-30.0
 62
     5
 63
     7
 74
     1
 91
        4
 64
     7
 65
   257
 75
     1
175
     1
 42
1.0
 92
        0
 66
   257
 43
1.0
 76
     1
 77
     6
 78
     2
 67
     7
 79
     5
170
     0
171
     0
290
     0
174
     0
 93
        1
 44
0.0
173
     0
291
     0
 45
0.0
1001
ACAD
1000
AcDbSavedByObjectVersion
1070
     0
  0
VISUALSTYLE
  5
B0F9
102
{ACAD_REACTORS
330
B0F1
102
}
330
B0F1
100
AcDbVisualStyle
  2
3D Hidden
 70
     6
 71
     1
 72
     2
 73
     2
 90
        0
 40
-0.6
 41
-30.0
 62
     5
 63
     7
 74
     2
 91
        2
 64
     7
 65
   257
 75
     2
175
     1
 42
40.0
 92
        0
 66
   257
 43
1.0
 76
     1
 77
     6
 78
     2
 67
     7
 79
     3
170
     0
171
     0
290
     0
174
     0
 93
        1
 44
0.0
173
     0
291
     0
 45
0.0
1001
ACAD
1000
AcDbSavedByObjectVersion
1070
     0
  0
VISUALSTYLE
  5
B0F8
102
{ACAD_REACTORS
330
B0F1
102
}
330
B0F1
100
AcDbVisualStyle
  2
3dWireframe
 70
     5
 71
     0
 72
     2
 73
     0
 90
        0
 40
-0.6
 41
-30.0
 62
     5
 63
     7
 74
     1
 91
        4
 64
     7
 65
   257
 75
     1
175
     1
 42
1.0
 92
        0
 66
   257
 43
1.0
 76
     1
 77
     6
 78
     2
 67
     7
 79
     5
170
     0
171
     0
290
     0
174
     0
 93
        1
 44
0.0
173
     0
291
     0
 45
0.0
1001
ACAD
1000
AcDbSavedByObjectVersion
1070
     0
  0
VISUALSTYLE
  5
B0F6
102
{ACAD_REACTORS
330
B0F1
102
}
330
B0F1
100
AcDbVisualStyle
  2
Basic
 70
     7
 71
     1
 72
     0
 73
     1
 90
        0
 40
-0.6
 41
-30.0
 62
     5
 63
     7
 74
     0
 91
        4
 64
     7
 65
   257
 75
     1
175
     1
 42
1.0
 92
        8
 66
     7
 43
1.0
 76
     1
 77
     6
 78
     2
 67
     7
 79
     5
170
     0
171
     0
290
     0
174
     0
 93
        1
 44
0.0
173
     0
291
     1
 45
0.0
1001
ACAD
1000
AcDbSavedByObjectVersion
1070
     0
  0
VISUALSTYLE
  5
B0FD
102
{ACAD_REACTORS
330
B0F1
102
}
330
B0F1
100
AcDbVisualStyle
  2
Brighten
 70
    12
 71
     2
 72
     2
 73
     0
 90
        0
 40
-0.6
 41
-30.0
 62
     5
 63
     7
 74
     1
 91
        4
 64
     7
 65
   257
 75
     1
175
     1
 42
1.0
 92
        8
 66
     7
 43
1.0
 76
     1
 77
     6
 78
     2
 67
     7
 79
     5
170
     0
171
     0
290
     0
174
     0
 93
        1
 44
50.0
173
     0
291
     1
 45
0.0
1001
ACAD
1000
AcDbSavedByObjectVersion
1070
     0
  0
VISUALSTYLE
  5
B101
102
{ACAD_REACTORS
330
B0F1
102
}
330
B0F1
100
AcDbVisualStyle
  2
ColorChange
 70
    16
 71
     2
 72
     2
 73
     3
 90
        0
 40
-0.6
 41
-30.0
 62
     5
 63
     8
 74
     1
 91
        4
 64
     7
 65
   257
 75
     1
175
     1
 42
1.0
 92
        8
 66
     8
 43
1.0
 76
     1
 77
     6
 78
     2
 67
     7
 79
     5
170
     0
171
     0
290
     0
174
     0
 93
        1
 44
0.0
173
     0
291
     1
 45
0.0
1001
ACAD
1000
AcDbSavedByObjectVersion
1070
     0
  0
VISUALSTYLE
  5
B0FA
102
{ACAD_REACTORS
330
B0F1
102
}
330
B0F1
100
AcDbVisualStyle
  2
Conceptual
 70
     9
 71
     3
 72
     2
 73
     0
 90
        0
 40
-0.6
 41
-30.0
 62
     5
 63
     7
 74
     2
 91
        2
 64
     7
 65
   257
 75
     1
175
     1
 42
40.0
 92
        8
 66
     7
 43
1.0
 76
     1
 77
     6
 78
     2
 67
     7
 79
     3
170
     0
171
     0
290
     0
174
     0
 93
        1
 44
0.0
173
     0
291
     0
 45
0.0
1001
ACAD
1000
AcDbSavedByObjectVersion
1070
     0
  0
VISUALSTYLE
  5
B0FC
102
{ACAD_REACTORS
330
B0F1
102
}
330
B0F1
100
AcDbVisualStyle
  2
Dim
 70
    11
 71
     2
 72
     2
 73
     0
 90
        0
 40
-0.6
 41
-30.0
 62
     5
 63
     7
 74
     1
 91
        4
 64
     7
 65
   257
 75
     1
175
     1
 42
1.0
 92
        8
 66
     7
 43
1.0
 76
     1
 77
     6
 78
     2
 67
     7
 79
     5
170
     0
171
     0
290
     0
174
     0
 93
        1
 44
-50.0
173
     0
291
     1
 45
0.0
1001
ACAD
1000
AcDbSavedByObjectVersion
1070
     0
  0
VISUALSTYLE
  5
B100
102
{ACAD_REACTORS
330
B0F1
102
}
330
B0F1
100
AcDbVisualStyle
  2
Facepattern
 70
    15
 71
     2
 72
     2
 73
     0
 90
        0
 40
-0.6
 41
-30.0
 62
     5
 63
     7
 74
     1
 91
        4
 64
     7
 65
   257
 75
     1
175
     1
 42
1.0
 92
        8
 66
     7
 43
1.0
 76
     1
 77
     6
 78
     2
 67
     7
 79
     5
170
     0
171
     0
290
     0
174
     0
 93
        1
 44
0.0
173
     0
291
     1
 45
0.0
1001
ACAD
1000
AcDbSavedByObjectVersion
1070
     0
  0
VISUALSTYLE
  5
B0F2
102
{ACAD_REACTORS
330
B0F1
102
}
330
B0F1
100
AcDbVisualStyle
  2
Flat
 70
     0
 71
     2
 72
     1
 73
     1
 90
        2
 40
-0.6
 41
30.0
 62
     5
 63
     7
 74
     0
 91
        4
 64
     7
 65
   257
 75
     1
175
     1
 42
1.0
 92
        8
 66
     7
 43
1.0
 76
     1
 77
     6
 78
     2
 67
     7
 79
     5
170
     0
171
     0
290
     0
174
     0
 93
       13
 44
0.0
173
     0
291
     1
 45
0.0
1001
ACAD
1000
AcDbSavedByObjectVersion
1070
     0
  0
VISUALSTYLE
  5
B0F3
102
{ACAD_REACTORS
330
B0F1
102
}
330
B0F1
100
AcDbVisualStyle
  2
FlatWithEdges
 70
     1
 71
     2
 72
     1
 73
     1
 90
        2
 40
-0.6
 41
30.0
 62
     5
 63
     7
 74
     1
 91
        4
 64
     7
 65
   257
 75
     1
175
     1
 42
1.0
 92
        0
 66
   257
 43
1.0
 76
     1
 77
     6
 78
     2
 67
     7
 79
     5
170
     0
171
     0
290
     0
174
     0
 93
       13
 44
0.0
173
     0
291
     1
 45
0.0
1001
ACAD
1000
AcDbSavedByObjectVersion
1070
     0
  0
VISUALSTYLE
  5
B0F4
102
{ACAD_REACTORS
330
B0F1
102
}
330
B0F1
100
AcDbVisualStyle
  2
Gouraud
 70
     2
 71
     2
 72
     2
 73
     1
 90
        2
 40
-0.6
 41
30.0
 62
     5
 63
     7
 74
     0
 91
        4
 64
     7
 65
   257
 75
     1
175
     1
 42
1.0
 92
        0
 66
     7
 43
1.0
 76
     1
 77
     6
 78
     2
 67
     7
 79
     5
170
     0
171
     0
290
     0
174
     0
 93
       13
 44
0.0
173
     0
291
     1
 45
0.0
1001
ACAD
1000
AcDbSavedByObjectVersion
1070
     0
  0
VISUALSTYLE
  5
B0F5
102
{ACAD_REACTORS
330
B0F1
102
}
330
B0F1
100
AcDbVisualStyle
  2
GouraudWithEdges
 70
     3
 71
     2
 72
     2
 73
     1
 90
        2
 40
-0.6
 41
30.0
 62
     5
 63
     7
 74
     1
 91
        4
 64
     7
 65
   257
 75
     1
175
     1
 42
1.0
 92
        0
 66
   257
 43
1.0
 76
     1
 77
     6
 78
     2
 67
     7
 79
     5
170
     0
171
     0
290
     0
174
     0
 93
       13
 44
0.0
173
     0
291
     1
 45
0.0
1001
ACAD
1000
AcDbSavedByObjectVersion
1070
     0
  0
VISUALSTYLE
  5
B0FF
102
{ACAD_REACTORS
330
B0F1
102
}
330
B0F1
100
AcDbVisualStyle
  2
Linepattern
 70
    14
 71
     2
 72
     2
 73
     0
 90
        0
 40
-0.6
 41
-30.0
 62
     5
 63
     7
 74
     1
 91
        4
 64
     7
 65
   257
 75
     7
175
     7
 42
1.0
 92
        8
 66
     7
 43
1.0
 76
     1
 77
     6
 78
     2
 67
     7
 79
     5
170
     0
171
     0
290
     0
174
     0
 93
        1
 44
0.0
173
     0
291
     1
 45
0.0
1001
ACAD
1000
AcDbSavedByObjectVersion
1070
     0
  0
VISUALSTYLE
  5
B0FB
102
{ACAD_REACTORS
330
B0F1
102
}
330
B0F1
100
AcDbVisualStyle
  2
Realistic
 70
     8
 71
     2
 72
     2
 73
     0
 90
        0
 40
-0.6
 41
-30.0
 62
     5
 63
     7
 74
     1
 91
        0
 64
     7
 65
   257
 75
     1
175
     1
 42
1.0
 92
        8
 66
     8
 43
1.0
 76
     1
 77
     6
 78
     2
 67
     7
 79
     5
170
     0
171
     0
290
     0
174
     0
 93
       13
 44
0.0
173
     0
291
     0
 45
0.0
1001
ACAD
1000
AcDbSavedByObjectVersion
1070
     0
  0
VISUALSTYLE
  5
B0FE
102
{ACAD_REACTORS
330
B0F1
102
}
330
B0F1
100
AcDbVisualStyle
  2
Thicken
 70
    13
 71
     2
 72
     2
 73
     0
 90
        0
 40
-0.6
 41
-30.0
 62
     5
 63
     7
 74
     1
 91
        4
 64
     7
 65
   257
 75
     1
175
     1
 42
1.0
 92
       12
 66
     7
 43
1.0
 76
     1
 77
     6
 78
     2
 67
     7
 79
     5
170
     0
171
     0
290
     0
174
     0
 93
        1
 44
0.0
173
     0
291
     1
 45
0.0
1001
ACAD
1000
AcDbSavedByObjectVersion
1070
     0
  0
DICTIONARYVAR
  5
AAF3
102
{ACAD_REACTORS
330
34
102
}
330
34
100
DictionaryVariables
280
     0
  1
STANDARD
  0
DICTIONARYVAR
  5
A10C
102
{ACAD_REACTORS
330
34
102
}
330
34
100
DictionaryVariables
280
     0
  1
1
  0
DICTIONARYVAR
  5
AB07
102
{ACAD_REACTORS
330
34
102
}
330
34
100
DictionaryVariables
280
     0
  1
4
  0
DICTIONARYVAR
  5
35
102
{ACAD_REACTORS
330
34
102
}
330
34
100
DictionaryVariables
280
     0
  1
0
  0
DICTIONARYVAR
  5
194C
102
{ACAD_REACTORS
330
34
102
}
330
34
100
DictionaryVariables
280
     0
  1
96
  0
DICTIONARY
  5
7E8
102
{ACAD_REACTORS
330
47
102
}
330
47
100
AcDbDictionary
281
     1
  0
DICTIONARY
  5
4C
102
{ACAD_REACTORS
330
47
102
}
330
47
100
AcDbDictionary
281
     1
  0
XRECORD
  5
A929
102
{ACAD_REACTORS
330
47
102
}
330
47
100
AcDbXrecord
280
     1
 90
-1023410169
  0
XRECORD
  5
B332
102
{ACAD_REACTORS
330
B331
102
}
330
B331
100
AcDbXrecord
280
     1
  0
XRECORD
  5
3FB7
102
{ACAD_REACTORS
330
3F96
102
}
330
3F96
100
AcDbXrecord
280
     1
 91
        3
330
0
 90
        8
 62
     7
370
    40
331
16
  1
Color_7
330
0
 90
        0
 62
    14
370
    -3
331
16
  1
Color_14
330
0
 90
        8
 62
     7
370
    20
331
16
  1
Color_7
330
6D1
 90
        0
 62
     7
370
    -3
331
16
  1
Color_7
330
0
 90
        8
 62
     7
370
    50
331
16
  1
Color_7
330
0
 90
        8
 62
     2
370
    35
331
16
  1
Color_2
330
0
 90
        8
 62
     7
370
    -3
331
16
  1
Color_7
330
10
 90
        8
 62
     7
370
    -3
331
16
  1
Color_7
  0
DICTIONARY
  5
B892
330
22
100
AcDbDictionary
280
     1
281
     1
  3
ACAD_XREC_ROUNDTRIP
360
B893
  0
DICTIONARY
  5
B890
330
1E
100
AcDbDictionary
280
     1
281
     1
  3
ACAD_XREC_ROUNDTRIP
360
B891
  0
DICTIONARY
  5
B894
330
26
100
AcDbDictionary
280
     1
281
     1
  3
ACAD_XREC_ROUNDTRIP
360
B895
  0
DICTIONARY
  5
B89A
330
B0EF
100
AcDbDictionary
280
     1
281
     1
  3
ACAD_XREC_ROUNDTRIP
360
B89B
  0
DICTIONARY
  5
B898
330
B0EE
100
AcDbDictionary
280
     1
281
     1
  3
ACAD_XREC_ROUNDTRIP
360
B899
  0
DICTIONARY
  5
B89C
330
B0F0
100
AcDbDictionary
280
     1
281
     1
  3
ACAD_XREC_ROUNDTRIP
360
B89D
  0
DICTIONARY
  5
B896
330
AABA
100
AcDbDictionary
280
     1
281
     1
  3
ACAD_XREC_ROUNDTRIP
360
B897
  0
XRECORD
  5
B893
102
{ACAD_REACTORS
330
B892
102
}
330
B892
100
AcDbXrecord
280
     1
102
SHADEPLOT
 70
     0
102
SHADEPLOTRESLEVEL
 70
     2
102
SHADEPLOTCUSTOMDPI
 70
   200
  0
XRECORD
  5
B891
102
{ACAD_REACTORS
330
B890
102
}
330
B890
100
AcDbXrecord
280
     1
102
SHADEPLOT
 70
     0
102
SHADEPLOTRESLEVEL
 70
     2
102
SHADEPLOTCUSTOMDPI
 70
   300
  0
XRECORD
  5
B895
102
{ACAD_REACTORS
330
B894
102
}
330
B894
100
AcDbXrecord
280
     1
102
SHADEPLOT
 70
     0
102
SHADEPLOTRESLEVEL
 70
     2
102
SHADEPLOTCUSTOMDPI
 70
   300
  0
XRECORD
  5
B89B
102
{ACAD_REACTORS
330
B89A
102
}
330
B89A
100
AcDbXrecord
280
     1
102
MATERIAL
148
0.0
149
0.0
149
0.0
 93
        0
 94
       63
282
     0
 72
     1
 77
     1
171
     1
175
     1
179
     1
273
     0
  0
XRECORD
  5
B899
102
{ACAD_REACTORS
330
B898
102
}
330
B898
100
AcDbXrecord
280
     1
102
MATERIAL
148
0.0
149
0.0
149
0.0
 93
        0
 94
       63
282
     0
 72
     1
 77
     1
171
     1
175
     1
179
     1
273
     0
  0
XRECORD
  5
B89D
102
{ACAD_REACTORS
330
B89C
102
}
330
B89C
100
AcDbXrecord
280
     1
102
MATERIAL
148
0.0
149
0.0
149
0.0
 93
        0
 94
       63
282
     0
 72
     1
 77
     1
171
     1
175
     1
179
     1
273
     0
  0
XRECORD
  5
B897
102
{ACAD_REACTORS
330
B896
102
}
330
B896
100
AcDbXrecord
280
     1
102
ACAD_ROUNDTRIP_PRE2007_TABLESTYLE
 90
        4
 91
        0
  1

 92
        4
 93
        0
  2

 94
        4
 95
        0
  3

  0
ENDSEC
  0
EOF
