  0
SECTION
  2
HEADER
  9
$ACADVER
  1
AC1015
  9
$ACADMAINTVER
 70
    20
  9
$DWGCODEPAGE
  3
ANSI_932
  9
$INSBASE
 10
0.0
 20
0.0
 30
0.0
  9
$EXTMIN
 10
-0.0609649023322163
 20
-0.0566967585914426
 30
-0.0015258207003583
  9
$EXTMAX
 10
273.0833918741337
 20
171.0391842826839
 30
0.0000000349246037
  9
$LIMMIN
 10
1700.85588156276
 20
1647.985052086429
  9
$LIMMAX
 10
1997.85588156276
 20
1857.985052086429
  9
$ORTHOMODE
 70
     0
  9
$REGENMODE
 70
     1
  9
$FILLMODE
 70
     1
  9
$QTEXTMODE
 70
     0
  9
$MIRRTEXT
 70
     0
  9
$LTSCALE
 40
1.0
  9
$ATTMODE
 70
     1
  9
$TEXTSIZE
 40
3.2
  9
$TRACEWID
 40
1.0
  9
$TEXTSTYLE
  7
STANDARD
  9
$CLAYER
  8
AM_0
  9
$CELTYPE
  6
ByLayer
  9
$CECOLOR
 62
   256
  9
$CELTSCALE
 40
1.0
  9
$DISPSILH
 70
     0
  9
$DIMSCALE
 40
1.0
  9
$DIMASZ
 40
1.0
  9
$DIMEXO
 40
1.0
  9
$DIMDLI
 40
10.0
  9
$DIMRND
 40
0.0
  9
$DIMDLE
 40
0.0
  9
$DIMEXE
 40
1.0
  9
$DIMTP
 40
0.1
  9
$DIMTM
 40
0.1
  9
$DIMTXT
 40
3.5
  9
$DIMCEN
 40
0.0
  9
$DIMTSZ
 40
0.0
  9
$DIMTOL
 70
     0
  9
$DIMLIM
 70
     0
  9
$DIMTIH
 70
     0
  9
$DIMTOH
 70
     0
  9
$DIMSE1
 70
     0
  9
$DIMSE2
 70
     0
  9
$DIMTAD
 70
     1
  9
$DIMZIN
 70
     8
  9
$DIMBLK
  1

  9
$DIMASO
 70
     1
  9
$DIMSHO
 70
     1
  9
$DIMPOST
  1

  9
$DIMAPOST
  1
"
  9
$DIMALT
 70
     0
  9
$DIMALTD
 70
     2
  9
$DIMALTF
 40
0.0393701
  9
$DIMLFAC
 40
1.0
  9
$DIMTOFL
 70
     1
  9
$DIMTVP
 40
0.0
  9
$DIMTIX
 70
     0
  9
$DIMSOXD
 70
     0
  9
$DIMSAH
 70
     0
  9
$DIMBLK1
  1

  9
$DIMBLK2
  1

  9
$DIMSTYLE
  2
SYS
  9
$DIMCLRD
 70
   256
  9
$DIMCLRE
 70
   256
  9
$DIMCLRT
 70
     7
  9
$DIMTFAC
 40
0.71
  9
$DIMGAP
 40
1.5
  9
$DIMJUST
 70
     0
  9
$DIMSD1
 70
     0
  9
$DIMSD2
 70
     0
  9
$DIMTOLJ
 70
     0
  9
$DIMTZIN
 70
     8
  9
$DIMALTZ
 70
     0
  9
$DIMALTTZ
 70
     0
  9
$DIMUPT
 70
     0
  9
$DIMDEC
 70
     2
  9
$DIMTDEC
 70
     2
  9
$DIMALTU
 70
     2
  9
$DIMALTTD
 70
     2
  9
$DIMTXSTY
  7
STANDARD
  9
$DIMAUNIT
 70
     0
  9
$DIMADEC
 70
     0
  9
$DIMALTRND
 40
0.0
  9
$DIMAZIN
 70
     2
  9
$DIMDSEP
 70
    46
  9
$DIMATFIT
 70
     3
  9
$DIMFRAC
 70
     0
  9
$DIMLDRBLK
  1

  9
$DIMLUNIT
 70
     2
  9
$DIMLWD
 70
    -1
  9
$DIMLWE
 70
    -1
  9
$DIMTMOVE
 70
     0
  9
$LUNITS
 70
     2
  9
$LUPREC
 70
     2
  9
$SKETCHINC
 40
1.0
  9
$FILLETRAD
 40
0.0
  9
$AUNITS
 70
     0
  9
$AUPREC
 70
     0
  9
$MENU
  1
.
  9
$ELEVATION
 40
0.0
  9
$PELEVATION
 40
0.0
  9
$THICKNESS
 40
0.0
  9
$LIMCHECK
 70
     0
  9
$CHAMFERA
 40
0.0
  9
$CHAMFERB
 40
0.0
  9
$CHAMFERC
 40
20.0
  9
$CHAMFERD
 40
0.0
  9
$SKPOLY
 70
     0
  9
$TDCREATE
 40
2456743.392946505
  9
$TDUCREATE
 40
2456743.017946505
  9
$TDUPDATE
 40
2456743.396509144
  9
$TDUUPDATE
 40
2456743.021509144
  9
$TDINDWG
 40
0.0035669792
  9
$TDUSRTIMER
 40
0.0035669792
  9
$USRTIMER
 70
     1
  9
$ANGBASE
 50
0.0
  9
$ANGDIR
 70
     0
  9
$PDMODE
 70
     0
  9
$PDSIZE
 40
-3.0
  9
$PLINEWID
 40
0.0
  9
$SPLFRAME
 70
     0
  9
$SPLINETYPE
 70
     6
  9
$SPLINESEGS
 70
     8
  9
$HANDSEED
  5
B982
  9
$SURFTAB1
 70
     6
  9
$SURFTAB2
 70
     6
  9
$SURFTYPE
 70
     6
  9
$SURFU
 70
     6
  9
$SURFV
 70
     6
  9
$UCSBASE
  2

  9
$UCSNAME
  2

  9
$UCSORG
 10
0.0
 20
0.0
 30
0.0
  9
$UCSXDIR
 10
1.0
 20
0.0
 30
0.0
  9
$UCSYDIR
 10
0.0
 20
1.0
 30
0.0
  9
$UCSORTHOREF
  2

  9
$UCSORTHOVIEW
 70
     0
  9
$UCSORGTOP
 10
0.0
 20
0.0
 30
0.0
  9
$UCSORGBOTTOM
 10
0.0
 20
0.0
 30
0.0
  9
$UCSORGLEFT
 10
0.0
 20
0.0
 30
0.0
  9
$UCSORGRIGHT
 10
0.0
 20
0.0
 30
0.0
  9
$UCSORGFRONT
 10
0.0
 20
0.0
 30
0.0
  9
$UCSORGBACK
 10
0.0
 20
0.0
 30
0.0
  9
$PUCSBASE
  2

  9
$PUCSNAME
  2

  9
$PUCSORG
 10
0.0
 20
0.0
 30
0.0
  9
$PUCSXDIR
 10
1.0
 20
0.0
 30
0.0
  9
$PUCSYDIR
 10
0.0
 20
1.0
 30
0.0
  9
$PUCSORTHOREF
  2

  9
$PUCSORTHOVIEW
 70
     0
  9
$PUCSORGTOP
 10
0.0
 20
0.0
 30
0.0
  9
$PUCSORGBOTTOM
 10
0.0
 20
0.0
 30
0.0
  9
$PUCSORGLEFT
 10
0.0
 20
0.0
 30
0.0
  9
$PUCSORGRIGHT
 10
0.0
 20
0.0
 30
0.0
  9
$PUCSORGFRONT
 10
0.0
 20
0.0
 30
0.0
  9
$PUCSORGBACK
 10
0.0
 20
0.0
 30
0.0
  9
$USERI1
 70
     0
  9
$USERI2
 70
     0
  9
$USERI3
 70
     0
  9
$USERI4
 70
     0
  9
$USERI5
 70
     0
  9
$USERR1
 40
0.0
  9
$USERR2
 40
0.0
  9
$USERR3
 40
0.0
  9
$USERR4
 40
0.0
  9
$USERR5
 40
0.0
  9
$WORLDVIEW
 70
     1
  9
$SHADEDGE
 70
     3
  9
$SHADEDIF
 70
    70
  9
$TILEMODE
 70
     1
  9
$MAXACTVP
 70
    64
  9
$PINSBASE
 10
0.0
 20
0.0
 30
0.0
  9
$PLIMCHECK
 70
     0
  9
$PEXTMIN
 10
1.000000000000000E+20
 20
1.000000000000000E+20
 30
1.000000000000000E+20
  9
$PEXTMAX
 10
-1.000000000000000E+20
 20
-1.000000000000000E+20
 30
-1.000000000000000E+20
  9
$PLIMMIN
 10
-3.17498779296875
 20
-3.174999952316284
  9
$PLIMMAX
 10
293.4970092773438
 20
206.692492723465
  9
$UNITMODE
 70
     0
  9
$VISRETAIN
 70
     1
  9
$PLINEGEN
 70
     0
  9
$PSLTSCALE
 70
     1
  9
$TREEDEPTH
 70
  3020
  9
$CMLSTYLE
  2
Standard
  9
$CMLJUST
 70
     0
  9
$CMLSCALE
 40
20.0
  9
$PROXYGRAPHICS
 70
     1
  9
$MEASUREMENT
 70
     1
  9
$CELWEIGHT
370
    -1
  9
$ENDCAPS
280
     0
  9
$JOINSTYLE
280
     0
  9
$LWDISPLAY
290
     1
  9
$INSUNITS
 70
     4
  9
$HYPERLINKBASE
  1

  9
$STYLESHEET
  1
monochrome.ctb
  9
$XEDIT
290
     1
  9
$CEPSNTYPE
380
     0
  9
$PSTYLEMODE
290
     1
  9
$FINGERPRINTGUID
  2
{4929E0D8-9A00-4B6D-8481-B73D5200272F}
  9
$VERSIONGUID
  2
{E18840E4-FFC7-40DA-81E5-0666453231AE}
  9
$EXTNAMES
290
     1
  9
$PSVPSCALE
 40
0.0
  9
$OLESTARTUP
290
     0
  0
ENDSEC
  0
SECTION
  2
CLASSES
  0
CLASS
  1
ACDBDICTIONARYWDFLT
  2
AcDbDictionaryWithDefault
  3
ObjectDBX Classes
 90
        0
280
     0
281
     0
  0
CLASS
  1
ACDBPLACEHOLDER
  2
AcDbPlaceHolder
  3
ObjectDBX Classes
 90
        0
280
     0
281
     0
  0
CLASS
  1
LAYOUT
  2
AcDbLayout
  3
ObjectDBX Classes
 90
        0
280
     0
281
     0
  0
CLASS
  1
AMGSETTINGSOBJ
  2
AmgSettingsObj
  3
"AcadM|Product Description: AutoCAD Mechanical|Company: Autodesk"
 90
        0
280
     0
281
     0
  0
CLASS
  1
ACME_DOCUMENT
  2
AcMeDbDoc
  3
AcMeServices
 90
        0
280
     0
281
     0
  0
CLASS
  1
ACMESCOPE
  2
AcMeScope
  3
AcMeServices
 90
        0
280
     0
281
     0
  0
CLASS
  1
ACMECOMMANDHISTORY
  2
AcMeCommandHistory
  3
AcMeServices
 90
        0
280
     0
281
     0
  0
CLASS
  1
DICTIONARYVAR
  2
AcDbDictionaryVar
  3
ObjectDBX Classes
 90
        0
280
     0
281
     0
  0
CLASS
  1
ACIMSYSVARMAN
  2
AcImSysVarManager
  3
AcMeServices
 90
        0
280
     0
281
     0
  0
CLASS
  1
ACIMREALSYSVAR
  2
AcImRealSysVar
  3
AcMeServices
 90
        0
280
     0
281
     0
  0
CLASS
  1
ACIMINTSYSVAR
  2
AcImIntSysVar
  3
AcMeServices
 90
        0
280
     0
281
     0
  0
CLASS
  1
ACMEDRAWINGMAN
  2
AcMeDrawingMan
  3
AcMeServices
 90
        0
280
     0
281
     0
  0
CLASS
  1
ACMEVIEW
  2
AcMeView
  3
AcMeServices
 90
        0
280
     0
281
     0
  0
CLASS
  1
ACDBENTITYCACHE
  2
AcMeEntityCache
  3
AcMeServices
 90
        0
280
     0
281
     0
  0
CLASS
  1
GSMANAGER
  2
AcMeGSManager
  3
AcMeServices
 90
        0
280
     0
281
     0
  0
CLASS
  1
AMDTINTERNALREACTOR
  2
AmdtInternalReactor
  3
AcMeServices
 90
        0
280
     0
281
     0
  0
CLASS
  1
ACMESTATEMGR
  2
AcMeStateMgr
  3
AcMeServices
 90
        0
280
     0
281
     0
  0
CLASS
  1
ACGREFMASTER
  2
AcGrefMaster
  3
AcAttribServices
 90
        0
280
     0
281
     0
  0
CLASS
  1
ACME_DATABASE
  2
AcMeDbDatabase
  3
AcMeServices
 90
        0
280
     0
281
     0
  0
CLASS
  1
ACRFINSADJUSTERMGR
  2
AcRfInsAdjusterMgr
  3
AcMeServices
 90
        0
280
     0
281
     0
  0
CLASS
  1
ACGREFACADMASTER
  2
AcGrefacadMaster
  3
AcGrefServices
 90
        0
280
     0
281
     0
  0
CLASS
  1
AMIMASTER
  2
AmiMaster
  3
AmiServices
 90
        0
280
     0
281
     0
  0
CLASS
  1
ACMDATADICTIONARY
  2
AcmDataDictionary
  3
"AcmSymBB|Product Description: AutoCAD Mechanical|Company: Autodesk"
 90
        0
280
     0
281
     0
  0
CLASS
  1
ACMDATAENTRYBLOCK
  2
AcmDataEntryBlock
  3
"AcmSymBB|Product Description: AutoCAD Mechanical|Company: Autodesk"
 90
        0
280
     0
281
     0
  0
CLASS
  1
ACIMSTRSYSVAR
  2
AcImStrSysVar
  3
AcMeServices
 90
        0
280
     0
281
     0
  0
CLASS
  1
ACMSTANDARDISO
  2
AcmStandardISO
  3
"Amdt_StdImp|Product Description: AutoCAD Mechanical|Company: Autodesk"
 90
        0
280
     0
281
     0
  0
CLASS
  1
AMGOBJPROPCFG
  2
AmgObjPropCfg
  3
"AmgLay|Product Description: AutoCAD Mechanical|Company: Autodesk"
 90
        1
280
     0
281
     0
  0
CLASS
  1
AMDTEDGESTANDARDISO
  2
AmdtEdgeStdISO
  3
"Amdt_StdImp|Product Description: AutoCAD Mechanical|Company: Autodesk"
 90
        0
280
     0
281
     0
  0
CLASS
  1
ACMSURFSTANDARDISO
  2
AcmSurfTextStdISO
  3
"Amdt_StdImp|Product Description: AutoCAD Mechanical|Company: Autodesk"
 90
        0
280
     0
281
     0
  0
CLASS
  1
ACMFCFSTANDARDISO
  2
AcmFCFStdISO
  3
"Amdt_StdImp|Product Description: AutoCAD Mechanical|Company: Autodesk"
 90
        0
280
     0
281
     0
  0
CLASS
  1
ACMWELDSTANDARDISO
  2
AcmWeldingStdISO
  3
"Amdt_StdImp|Product Description: AutoCAD Mechanical|Company: Autodesk"
 90
        0
280
     0
281
     0
  0
CLASS
  1
ACMIDSTANDARDISO
  2
AcmIdStdISO
  3
"Amdt_StdImp|Product Description: AutoCAD Mechanical|Company: Autodesk"
 90
        0
280
     0
281
     0
  0
CLASS
  1
ACMDATUMSTANDARDISO
  2
AcmDatumStdISO
  3
"Amdt_StdImp|Product Description: AutoCAD Mechanical|Company: Autodesk"
 90
        0
280
     0
281
     0
  0
CLASS
  1
ACMBOMSTANDARDISO
  2
AcmBOMStdISO
  3
"Amdt_StdImp|Product Description: AutoCAD Mechanical|Company: Autodesk"
 90
        0
280
     0
281
     0
  0
CLASS
  1
ACMDETAILSTANDARDISO
  2
AmdtDetailSymStdISO
  3
"Amdt_StdImp|Product Description: AutoCAD Mechanical|Company: Autodesk"
 90
        0
280
     0
281
     0
  0
CLASS
  1
ACMSECTIONSTANDARDISO
  2
AmdtSectionSymStdISO
  3
"Amdt_StdImp|Product Description: AutoCAD Mechanical|Company: Autodesk"
 90
        0
280
     0
281
     0
  0
CLASS
  1
ACMCENTERLINESTANDARDISO
  2
AmdtCenterLineStdISO
  3
"Amdt_StdImp|Product Description: AutoCAD Mechanical|Company: Autodesk"
 90
        0
280
     0
281
     0
  0
CLASS
  1
ACAMGLAYSTD
  2
AcAmgLayStd
  3
"AmgLay|Product Description: AutoCAD Mechanical|Company: Autodesk"
 90
        0
280
     0
281
     0
  0
CLASS
  1
ACAMGDIMSTD
  2
AcAmgDimStd
  3
"AmgDim|Product Description: AutoCAD Mechanical|Company: Autodesk"
 90
        0
280
     0
281
     0
  0
CLASS
  1
ACAMGTITLESTD
  2
AcAmgTitleStd
  3
"AmgTitle|Product Description: AutoCAD Mechanical|Company: Autodesk"
 90
        0
280
     0
281
     0
  0
CLASS
  1
ACAMGFILTERDAT
  2
AcAmgFilterDat
  3
"AcadM|Product Description: AutoCAD Mechanical|Company: Autodesk"
 90
        0
280
     0
281
     0
  0
CLASS
  1
LAYER_INDEX
  2
AcDbLayerIndex
  3
ObjectDBX Classes
 90
    32768
280
     0
281
     0
  0
CLASS
  1
IDBUFFER
  2
AcDbIdBuffer
  3
ObjectDBX Classes
 90
    32768
280
     0
281
     0
  0
CLASS
  1
PLOTSETTINGS
  2
AcDbPlotSettings
  3
ObjectDBX Classes
 90
    32768
280
     0
281
     0
  0
CLASS
  1
AMDTFORMULAUPDATEDISPATCHER
  2
AmdtFormulaUpdateDispatcher
  3
AcMeServices
 90
        0
280
     0
281
     0
  0
CLASS
  1
ACMSTANDARDANSI
  2
AcmStandardANSI
  3
"Amdt_StdImp|Product Description: AutoCAD Mechanical|Company: Autodesk"
 90
        0
280
     0
281
     0
  0
CLASS
  1
ACMSURFSTANDARDANSI
  2
AcmSurfTextStdANSI
  3
"Amdt_StdImp|Product Description: AutoCAD Mechanical|Company: Autodesk"
 90
        0
280
     0
281
     0
  0
CLASS
  1
ACMFCFSTANDARDANSI
  2
AcmFCFStdANSI
  3
"Amdt_StdImp|Product Description: AutoCAD Mechanical|Company: Autodesk"
 90
        0
280
     0
281
     0
  0
CLASS
  1
ACMWELDSTANDARDANSI
  2
AcmWeldingStdANSI
  3
"Amdt_StdImp|Product Description: AutoCAD Mechanical|Company: Autodesk"
 90
        0
280
     0
281
     0
  0
CLASS
  1
ACMIDSTANDARDANSI
  2
AcmIdStdANSI
  3
"Amdt_StdImp|Product Description: AutoCAD Mechanical|Company: Autodesk"
 90
        0
280
     0
281
     0
  0
CLASS
  1
ACMDATUMSTANDARDANSI
  2
AcmDatumStdANSI
  3
"Amdt_StdImp|Product Description: AutoCAD Mechanical|Company: Autodesk"
 90
        0
280
     0
281
     0
  0
CLASS
  1
ACMBOMSTANDARDANSI
  2
AcmBOMStdANSI
  3
"Amdt_StdImp|Product Description: AutoCAD Mechanical|Company: Autodesk"
 90
        0
280
     0
281
     0
  0
CLASS
  1
ACMDETAILSTANDARDANSI
  2
AmdtDetailSymStdANSI
  3
"Amdt_StdImp|Product Description: AutoCAD Mechanical|Company: Autodesk"
 90
        0
280
     0
281
     0
  0
CLASS
  1
ACMSECTIONSTANDARDANSI
  2
AmdtSectionSymStdANSI
  3
"Amdt_StdImp|Product Description: AutoCAD Mechanical|Company: Autodesk"
 90
        0
280
     0
281
     0
  0
CLASS
  1
ACMCENTERLINESTANDARDANSI
  2
AmdtCenterLineStdANSI
  3
"Amdt_StdImp|Product Description: AutoCAD Mechanical|Company: Autodesk"
 90
        0
280
     0
281
     0
  0
CLASS
  1
ACMBOM
  2
AcmBom
  3
"AcmSymBB|Product Description: AutoCAD Mechanical|Company: Autodesk"
 90
        0
280
     0
281
     0
  0
CLASS
  1
ACMDATAENTRYPART
  2
AcmDataEntryPart
  3
"AcmSymBB|Product Description: AutoCAD Mechanical|Company: Autodesk"
 90
    32768
280
     0
281
     0
  0
CLASS
  1
ACMPARTREF
  2
AcmPartRef
  3
"AcmSymBB|Product Description: AutoCAD Mechanical|Company: Autodesk"
 90
    35839
280
     0
281
     1
  0
CLASS
  1
ACDBCIRCARCRES
  2
AcDbCircArcRes
  3
AcGrefServices
 90
        0
280
     0
281
     0
  0
CLASS
  1
ACMBOMROW
  2
AcmBomRow
  3
"AcmSymBB|Product Description: AutoCAD Mechanical|Company: Autodesk"
 90
    32768
280
     0
281
     0
  0
CLASS
  1
ACMBALLOON
  2
AcmBalloon
  3
"AcmSymBB|Product Description: AutoCAD Mechanical|Company: Autodesk"
 90
    35839
280
     0
281
     1
  0
CLASS
  1
AMDTNOTE
  2
AmdtNote
  3
"AcmSymBB|Product Description: AutoCAD Mechanical|Company: Autodesk"
 90
     3071
280
     0
281
     1
  0
CLASS
  1
STDPART2D
  2
AmgStdPart
  3
"g3vace|Class: AmgStdPart|Product Description: AutoCAD Mechanical|Company: Autodesk"
 90
    35839
280
     0
281
     1
  0
CLASS
  1
ACDBSTDPARTRES_LINE
  2
AcDbStdPartRes_Line
  3
"g3vace|Class: AcDbStdPartRes_Line|Product Description: AutoCAD Mechanical|Company: Autodesk"
 90
    32768
280
     0
281
     0
  0
CLASS
  1
ACMDATAENTRY
  2
AcmDataEntry
  3
"AcmSymBB|Product Description: AutoCAD Mechanical|Company: Autodesk"
 90
        0
280
     0
281
     0
  0
CLASS
  1
ACDBOPPOLYLINERES
  2
AcDbOpPolylineRes
  3
AcGrefServices
 90
    32768
280
     0
281
     0
  0
CLASS
  1
ACMPARTLIST
  2
AcmPartList
  3
"AcmSymBB|Product Description: AutoCAD Mechanical|Company: Autodesk"
 90
    35839
280
     0
281
     1
  0
CLASS
  1
ACDBLINERES
  2
AcDbLineRes
  3
AcGrefServices
 90
    32768
280
     0
281
     0
  0
CLASS
  1
ACRFINSADJ
  2
AcRfInsAdjuster
  3
AcMeServices
 90
    32768
280
     0
281
     0
  0
CLASS
  1
AM_DRAWING_MGR
  2
AcDmDwgMgr
  3
AcMechDwgViewMgmt
 90
        0
280
     0
281
     0
  0
CLASS
  1
AM_DWG_DOCUMENT
  2
AcDmDwgDocument
  3
AcMechDwgViewMgmt
 90
        0
280
     0
281
     0
  0
CLASS
  1
AM_DWG_SHEET
  2
AcDmSheet
  3
AcMechDwgViewMgmt
 90
        0
280
     0
281
     0
  0
CLASS
  1
AM_VIEWDIMPARMAP
  2
AcDmViewDimParMap
  3
AcMechDwgViewMgmt
 90
        0
280
     0
281
     0
  0
CLASS
  1
AM_DWGMGR_NAME
  2
AcDmDwgMgrName
  3
AcMechDwgViewMgmt
 90
        0
280
     0
281
     0
  0
CLASS
  1
AMDTMENUSTATEMGR
  2
AmdtMenuStateMgr
  3
McadcomServices
 90
        0
280
     0
281
     0
  0
CLASS
  1
AMDTMCOMMENUSTATE
  2
AmdtMcomMenuState
  3
McadcomServices
 90
        0
280
     0
281
     0
  0
CLASS
  1
ASAPP
  2
AcAsAppObject
  3
AutoSurfServices
 90
        0
280
     0
281
     0
  0
CLASS
  1
IM_STATIC_MAN
  2
AcImStaticVarManager
  3
AcMeServices
 90
        0
280
     0
281
     0
  0
CLASS
  1
ACIMDBLSTATICVAR
  2
AcImDblStaticVar
  3
AcMeServices
 90
        0
280
     0
281
     0
  0
CLASS
  1
ACIMSTRSTATICVAR
  2
AcImStrStaticVar
  3
AcMeServices
 90
        0
280
     0
281
     0
  0
CLASS
  1
ACIMINTSTATICVAR
  2
AcImIntStaticVar
  3
AcMeServices
 90
        0
280
     0
281
     0
  0
CLASS
  1
ACASGREFMASTER
  2
AcAsGrefMaster
  3
AutoSurfResolverServices
 90
        0
280
     0
281
     0
  0
CLASS
  1
ACADGREFMODULE
  2
AcAdGrefModule
  3
AdGrefServices
 90
        0
280
     0
281
     0
  0
CLASS
  1
AMDTMAPISURFMOUDULE
  2
AmdtMApiSurfModule
  3
MApiSurfServices
 90
        0
280
     0
281
     0
  0
CLASS
  1
MAPIAMMOUDLE
  2
MApiAmModule
  3
MApiAmServices
 90
        0
280
     0
281
     0
  0
CLASS
  1
AMDTADMENUSTATE
  2
AmdtAdMenuState
  3
DesignerServices
 90
        0
280
     0
281
     0
  0
CLASS
  1
ADAPPL
  2
AcAdAppl
  3
DesignerServices
 90
        0
280
     0
281
     0
  0
CLASS
  1
DEPMGR
  2
AcAdDepMgr
  3
DesignerServices
 90
        0
280
     0
281
     0
  0
CLASS
  1
PARAMMGR
  2
AcAdParamMgr
  3
DesignerServices
 90
        0
280
     0
281
     0
  0
CLASS
  1
PARAMSCOPE
  2
AcAdParamScope
  3
DesignerServices
 90
        0
280
     0
281
     0
  0
CLASS
  1
NAMEDAPPL
  2
AcAdNamedAppl
  3
DesignerServices
 90
        0
280
     0
281
     0
  0
CLASS
  1
ADHNTMPLT
  2
AdHoleNoteTemplateMgr
  3
DesignerServices
 90
    32768
280
     0
281
     0
  0
CLASS
  1
AM_HNTEMPLATE_MGR_NAME
  2
AdHoleNoteTemplateMgrName
  3
DesignerServices
 90
    32768
280
     0
281
     0
  0
CLASS
  1
AMDTDMMENUSTATE
  2
AmdtDmMenuState
  3
AcMechDwgViewMgmt
 90
        0
280
     0
281
     0
  0
CLASS
  1
MAPIADMODULE
  2
MApiAdModule
  3
MApiAdServices
 90
        0
280
     0
281
     0
  0
CLASS
  1
AMDTAMMENUSTATE
  2
AmdtAmMenuState
  3
DesignerAssemblies
 90
        0
280
     0
281
     0
  0
CLASS
  1
ACAMPROJECT
  2
AcAmProject
  3
DesignerAssemblies
 90
        0
280
     0
281
     0
  0
CLASS
  1
ACAMGRCOMPDEF
  2
AcAmGrCompDef
  3
DesignerAssemblies
 90
        0
280
     0
281
     0
  0
CLASS
  1
ACCMCONTEXT
  2
AcCmContext
  3
DesignerAssemblies
 90
        0
280
     0
281
     0
  0
CLASS
  1
ACAMCOMPDEF
  2
AcAmCompDef
  3
DesignerAssemblies
 90
        0
280
     0
281
     0
  0
CLASS
  1
ACAMCOMPDEFMGR
  2
AcAmCompDefMgr
  3
DesignerAssemblies
 90
        0
280
     0
281
     0
  0
CLASS
  1
AMCONTEXTMGR
  2
AcAmContextMgr
  3
DesignerAssemblies
 90
        0
280
     0
281
     0
  0
CLASS
  1
ACAMCONTEXTMODELER
  2
AcAmContextModeler
  3
DesignerAssemblies
 90
        0
280
     0
281
     0
  0
CLASS
  1
CATALOGSTATE
  2
AcAmCatalogState
  3
DesignerAssemblies
 90
        0
280
     0
281
     0
  0
CLASS
  1
ACAMGRCOMPDEFSET
  2
AcAmGrCompDefSet
  3
DesignerAssemblies
 90
        0
280
     0
281
     0
  0
CLASS
  1
AMDTBROWSERDBTAB
  2
AmdtBrowserDbTab
  3
McadcomServices
 90
        0
280
     0
281
     0
  0
CLASS
  1
CBROWSERAPPOBJECT
  2
CBrowserAppObject
  3
McadcomServices
 90
        0
280
     0
281
     0
  0
CLASS
  1
DM_PLACEHOLDER
  2
AcDmSelsetPlaceholder
  3
AcMechDwgViewMgmt
 90
        0
280
     0
281
     0
  0
CLASS
  1
ACMPICKOBJ
  2
AcmPickEnt
  3
"AcmSymBB|Product Description: AutoCAD Mechanical|Company: Autodesk"
 90
    32768
280
     0
281
     1
  0
CLASS
  1
ACMNOTESTANDARDISO
  2
AmdtNoteStdISO
  3
"Amdt_StdImp|Product Description: AutoCAD Mechanical|Company: Autodesk"
 90
        0
280
     0
281
     0
  0
CLASS
  1
ACMNOTESTANDARDANSI
  2
AmdtNoteStdANSI
  3
"Amdt_StdImp|Product Description: AutoCAD Mechanical|Company: Autodesk"
 90
        0
280
     0
281
     0
  0
CLASS
  1
ACMTHREADLINESTANDARDISO
  2
AmdtThreadLineStdISO
  3
"Amdt_StdImp|Product Description: AutoCAD Mechanical|Company: Autodesk"
 90
        0
280
     0
281
     0
  0
CLASS
  1
ACMTHREADLINESTANDARDANSI
  2
AmdtThreadLineStdANSI
  3
"Amdt_StdImp|Product Description: AutoCAD Mechanical|Company: Autodesk"
 90
        0
280
     0
281
     0
  0
CLASS
  1
TABLESTYLE
  2
AcDbTableStyle
  3
ObjectDBX Classes
 90
     4095
280
     0
281
     0
  0
CLASS
  1
SORTENTSTABLE
  2
AcDbSortentsTable
  3
ObjectDBX Classes
 90
        0
280
     0
281
     0
  0
CLASS
  1
MATERIAL
  2
AcDbMaterial
  3
ObjectDBX Classes
 90
     1024
280
     0
281
     0
  0
CLASS
  1
VISUALSTYLE
  2
AcDbVisualStyle
  3
ObjectDBX Classes
 90
     4095
280
     0
281
     0
  0
CLASS
  1
ACRFATTGENMGR
  2
AcRfAttGeneralMgr
  3
AcAttribServices
 90
        0
280
     0
281
     0
  0
CLASS
  1
ACRFOBJATTMGR
  2
AcRfObjAttGroupMgr
  3
AcAttribServices
 90
        0
280
     0
281
     0
  0
CLASS
  1
ACRFMCADAPIATTHOLDER
  2
AcRfMCADAPIAttHolder
  3
AcAttribServices
 90
        0
280
     0
281
     0
  0
CLASS
  1
AMDTSYSATTR
  2
AmdtSystemAttribute
  3
AcAttribServices
 90
        0
280
     0
281
     0
  0
CLASS
  1
ACMTAPERSTANDARDISO
  2
AcmTaperStdISO
  3
"Amdt_StdImp|Product Description: AutoCAD Mechanical|Company: Autodesk"
 90
        0
280
     0
281
     0
  0
CLASS
  1
CAMSSTRUCTBTNSTATE
  2
StructBtnState
  3
L"DesignerAssemblies"
 90
        0
280
     0
281
     0
  0
CLASS
  1
DIMASSOC
  2
AcDbDimAssoc
  3
"AcDbDimAssoc|Product Desc:     AcDim ARX App For Dimension|Company:          Autodesk, Inc.|WEB Address:      www.autodesk.com"
 90
    32768
280
     0
281
     0
  0
CLASS
  1
AMDTNOTETEMPLATEDB
  2
AmdtNoteTemplateDB
  3
AMDT_STDIMP_MODULE_NAME
 90
        0
280
     0
281
     0
  0
CLASS
  1
ACMTAPERSTANDARDANSI
  2
AcmTaperStdANSI
  3
"Amdt_StdImp|Product Description: AutoCAD Mechanical|Company: Autodesk"
 90
        0
280
     0
281
     0
  0
CLASS
  1
ACAMGHOLECHARTSTDANSI
  2
AcAmgHoleChartStdANSI
  3
ACMSYMBB_MODULE_NAME
 90
        0
280
     0
281
     0
  0
ENDSEC
  0
SECTION
  2
TABLES
  0
TABLE
  2
VPORT
  5
8
330
0
100
AcDbSymbolTable
 70
     1
  0
VPORT
  5
B0EC
330
8
100
AcDbSymbolTableRecord
100
AcDbViewportTableRecord
  2
*Active
 70
     0
 10
0.0
 20
0.0
 11
1.0
 21
1.0
 12
136.5112134859006
 22
85.49124376204623
 13
0.0
 23
0.0
 14
2.5
 24
2.5
 15
10.0
 25
10.0
 16
0.0
 26
0.0
 36
1.0
 17
0.0
 27
0.0
 37
0.0
 40
172.3554826194933
 41
1.648648648648648
 42
50.0
 43
-1370.695619172058
 44
-1370.695619172058
 50
0.0
 51
0.0
 71
    16
 72
   100
 73
     1
 74
     3
 75
     0
 76
     0
 77
     0
 78
     0
281
     0
 65
     0
110
0.0
120
0.0
130
0.0
111
1.0
121
0.0
131
0.0
112
0.0
122
1.0
132
0.0
 79
     0
146
0.0
  0
ENDTAB
  0
TABLE
  2
LTYPE
  5
5
330
0
100
AcDbSymbolTable
 70
    32
  0
LTYPE
  5
14
330
5
100
AcDbSymbolTableRecord
100
AcDbLinetypeTableRecord
  2
ByBlock
 70
     0
  3

 72
    65
 73
     0
 40
0.0
  0
LTYPE
  5
15
330
5
100
AcDbSymbolTableRecord
100
AcDbLinetypeTableRecord
  2
ByLayer
 70
     0
  3

 72
    65
 73
     0
 40
0.0
  0
LTYPE
  5
16
330
5
100
AcDbSymbolTableRecord
100
AcDbLinetypeTableRecord
  2
Continuous
 70
     0
  3
Solid line
 72
    65
 73
     0
 40
0.0
  0
LTYPE
  5
4F
330
5
100
AcDbSymbolTableRecord
100
AcDbLinetypeTableRecord
  2
AM_ISO02W050
 70
     0
  3
__ __ __ __ __ __ __ __ __ __ __ __ __ __ __
 72
    65
 73
     2
 40
7.5
 49
6.0
 74
     0
 49
-1.5
 74
     0
  0
LTYPE
  5
52
330
5
100
AcDbSymbolTableRecord
100
AcDbLinetypeTableRecord
  2
Amconstr
 70
     0
  3
_______________________
 72
    65
 73
     2
 40
9999.0
 49
9999.0
 74
     0
 49
0.0
 74
     0
  0
LTYPE
  5
64
330
5
100
AcDbSymbolTableRecord
100
AcDbLinetypeTableRecord
  2
ACISOWELD
 70
     0
  3
_ _ _ _ _
 72
    65
 73
     2
 40
2.0
 49
2.0
 74
     0
 49
-1.0
 74
     0
  0
LTYPE
  5
65
330
5
100
AcDbSymbolTableRecord
100
AcDbLinetypeTableRecord
  2
ACISOTGB
 70
     0
  3
__ . . __ . .
 72
    65
 73
     6
 40
9.0
 49
4.0
 74
     0
 49
-1.0
 74
     0
 49
1.0
 74
     0
 49
-1.0
 74
     0
 49
1.0
 74
     0
 49
-1.0
 74
     0
  0
LTYPE
  5
66
330
5
100
AcDbSymbolTableRecord
100
AcDbLinetypeTableRecord
  2
ACISOTGL
 70
     0
  3
_ _ _ _ _
 72
    65
 73
     2
 40
3.0
 49
2.0
 74
     0
 49
-1.0
 74
     0
  0
LTYPE
  5
69
330
5
100
AcDbSymbolTableRecord
100
AcDbLinetypeTableRecord
  2
CENTER
 70
     0
  3
__ . __
 72
    65
 73
     4
 40
7.0
 49
4.0
 74
     0
 49
-1.0
 74
     0
 49
1.0
 74
     0
 49
-1.0
 74
     0
  0
LTYPE
  5
A6E
330
5
100
AcDbSymbolTableRecord
100
AcDbLinetypeTableRecord
  2
PHANTOM2
 70
     0
  3
Phantom (.5x) ___ _ _ ___ _ _ ___ _ _ ___ _ _
 72
    65
 73
     6
 40
31.75
 49
15.875
 74
     0
 49
-3.174999999999999
 74
     0
 49
3.174999999999999
 74
     0
 49
-3.174999999999999
 74
     0
 49
3.174999999999999
 74
     0
 49
-3.174999999999999
 74
     0
  0
LTYPE
  5
4DED
330
5
100
AcDbSymbolTableRecord
100
AcDbLinetypeTableRecord
  2
中線
 70
     0
  3
___________________
 72
    65
 73
     2
 40
2.0
 49
1.0
 74
     0
 49
1.0
 74
     0
  0
LTYPE
  5
4DF6
330
5
100
AcDbSymbolTableRecord
100
AcDbLinetypeTableRecord
  2
細線
 70
     0
  3
___________________
 72
    65
 73
     2
 40
2.0
 49
1.0
 74
     0
 49
1.0
 74
     0
  0
LTYPE
  5
4DF7
330
5
100
AcDbSymbolTableRecord
100
AcDbLinetypeTableRecord
  2
太線
 70
     0
  3
___________________
 72
    65
 73
     2
 40
2.0
 49
1.0
 74
     0
 49
1.0
 74
     0
  0
LTYPE
  5
4EA7
330
5
100
AcDbSymbolTableRecord
100
AcDbLinetypeTableRecord
  2
文字
 70
     0
  3
_________________
 72
    65
 73
     2
 40
2.0
 49
1.0
 74
     0
 49
1.0
 74
     0
  0
LTYPE
  5
4EA9
330
5
100
AcDbSymbolTableRecord
100
AcDbLinetypeTableRecord
  2
寸法線
 70
     0
  3
________________
 72
    65
 73
     2
 40
2.0
 49
1.0
 74
     0
 49
1.0
 74
     0
  0
LTYPE
  5
4F12
330
5
100
AcDbSymbolTableRecord
100
AcDbLinetypeTableRecord
  2
ハッチング
 70
     0
  3
_________________
 72
    65
 73
     2
 40
2.0
 49
1.0
 74
     0
 49
1.0
 74
     0
  0
LTYPE
  5
5180
330
5
100
AcDbSymbolTableRecord
100
AcDbLinetypeTableRecord
  2
陰線1
 70
     0
  3
__ __ __ __
 72
    65
 73
     2
 40
4.0
 49
2.2
 74
     0
 49
-1.8
 74
     0
  0
LTYPE
  5
5182
330
5
100
AcDbSymbolTableRecord
100
AcDbLinetypeTableRecord
  2
切断線
 70
     0
  3
/\/-/\/-/\/-/\/-/\/-/\/
 72
    65
 73
     2
 40
11.0001
 49
0.0001
 74
     4
 75
   135
340
56
 46
0.04
 50
0.0
 44
0.0
 45
0.0
 49
-11.0
 74
     0
  0
LTYPE
  5
5183
330
5
100
AcDbSymbolTableRecord
100
AcDbLinetypeTableRecord
  2
想像線1
 70
     0
  3
__ __ __ _____ __ __ ____
 72
    65
 73
     6
 40
14.5
 49
6.0
 74
     0
 49
-1.5
 74
     0
 49
2.0
 74
     0
 49
-1.5
 74
     0
 49
2.0
 74
     0
 49
-1.5
 74
     0
  0
LTYPE
  5
5185
330
5
100
AcDbSymbolTableRecord
100
AcDbLinetypeTableRecord
  2
中心線1
 70
     0
  3
___ _ ___ _ ___
 72
    65
 73
     4
 40
18.0
 49
12.0
 74
     0
 49
-2.0
 74
     0
 49
2.0
 74
     0
 49
-2.0
 74
     0
  0
LTYPE
  5
5188
330
5
100
AcDbSymbolTableRecord
100
AcDbLinetypeTableRecord
  2
補助線
 70
     0
  3
______________
 72
    65
 73
     2
 40
2.0
 49
1.0
 74
     0
 49
1.0
 74
     0
  0
LTYPE
  5
6427
330
5
100
AcDbSymbolTableRecord
100
AcDbLinetypeTableRecord
  2
HIDDEN
 70
     0
  3
Hidden __ __ __ __ __ __ __ __ __ __ __ __ __ _
 72
    65
 73
     2
 40
0.375
 49
0.25
 74
     0
 49
-0.125
 74
     0
  0
LTYPE
  5
AC81
330
5
100
AcDbSymbolTableRecord
100
AcDbLinetypeTableRecord
  2
破断線
 70
     0
  3
/\/-/\/-/\/-/\/-/\/-/\/
 72
    65
 73
     2
 40
0.4401
 49
0.0001
 74
     4
 75
   136
340
AC80
 46
0.0016
 50
0.0
 44
0.0
 45
0.0
 49
-0.4400000000000001
 74
     0
  0
LTYPE
  5
AC9E
330
5
100
AcDbSymbolTableRecord
100
AcDbLinetypeTableRecord
  2
Amzigzag
 70
     0
  3
/\/-/\/-/\/-/\/-/\/-/\/
 72
    65
 73
     2
 40
11.0001
 49
0.0001
 74
     4
 75
   135
340
56
 46
0.04
 50
0.0
 44
0.0
 45
0.0
 49
-11.0
 74
     0
  0
LTYPE
  5
AF0F
330
5
100
AcDbSymbolTableRecord
100
AcDbLinetypeTableRecord
  2
genzigzag
 70
     0
  3
/\/-/\/-/\/-/\/-/\/-/\/
 72
    65
 73
     2
 40
12.0001
 49
0.0001
 74
     4
 75
   135
340
AC80
 46
2.0
 50
0.0
 44
0.0
 45
0.0
 49
-12.0
 74
     0
  0
LTYPE
  5
AF95
330
5
100
AcDbSymbolTableRecord
100
AcDbLinetypeTableRecord
  2
AM_ISO08W050
 70
     0
  3
____ . ____ . ____ . ____ . ____ . ____ . ____
 72
    65
 73
     4
 40
18.0
 49
12.0
 74
     0
 49
-1.5
 74
     0
 49
3.0
 74
     0
 49
-1.5
 74
     0
  0
LTYPE
  5
AF96
330
5
100
AcDbSymbolTableRecord
100
AcDbLinetypeTableRecord
  2
AM_ISO09W050
 70
     0
  3
_____ . . _____ . . _____ . . ____ .. ____
 72
    65
 73
     6
 40
22.5
 49
12.0
 74
     0
 49
-1.5
 74
     0
 49
3.0
 74
     0
 49
-1.5
 74
     0
 49
3.0
 74
     0
 49
-1.5
 74
     0
  0
LTYPE
  5
AF97
330
5
100
AcDbSymbolTableRecord
100
AcDbLinetypeTableRecord
  2
AM_ISO08W050x2
 70
     0
  3
__ . __ . __ . __ . __ . __
 72
    65
 73
     4
 40
9.0
 49
6.0
 74
     0
 49
-0.75
 74
     0
 49
1.5
 74
     0
 49
-0.75
 74
     0
  0
LTYPE
  5
AF98
330
5
100
AcDbSymbolTableRecord
100
AcDbLinetypeTableRecord
  2
AM_ISO02W050x2
 70
     0
  3
 _ _ _ _ _ _ _ _ _ _ _ _
 72
    65
 73
     2
 40
3.75
 49
3.0
 74
     0
 49
-0.75
 74
     0
  0
LTYPE
  5
B59B
330
5
100
AcDbSymbolTableRecord
100
AcDbLinetypeTableRecord
  2
ACANSTGB
 70
     0
  3
__ . . __ . .
 72
    65
 73
     6
 40
0.35433070866
 49
0.15748031496
 74
     0
 49
-0.03937007874
 74
     0
 49
0.03937007874
 74
     0
 49
-0.03937007874
 74
     0
 49
0.03937007874
 74
     0
 49
-0.03937007874
 74
     0
  0
LTYPE
  5
B59C
330
5
100
AcDbSymbolTableRecord
100
AcDbLinetypeTableRecord
  2
ACANSTGL
 70
     0
  3
_ _ _ _ _
 72
    65
 73
     2
 40
0.11811023622
 49
0.07874015748
 74
     0
 49
-0.03937007874
 74
     0
  0
LTYPE
  5
B59D
330
5
100
AcDbSymbolTableRecord
100
AcDbLinetypeTableRecord
  2
CENTER2
 70
     0
  3
Center (.5x) ___ _ ___ _ ___ _ ___ _ ___ _ ___
 72
    65
 73
     4
 40
1.125
 49
0.75
 74
     0
 49
-0.125
 74
     0
 49
0.125
 74
     0
 49
-0.125
 74
     0
  0
LTYPE
  5
B59E
330
5
100
AcDbSymbolTableRecord
100
AcDbLinetypeTableRecord
  2
HIDDEN2
 70
     0
  3
Hidden (.5x) _ _ _ _ _ _ _ _ _ _ _ _ _ _ _ _ _
 72
    65
 73
     2
 40
0.1875
 49
0.125
 74
     0
 49
-0.0625
 74
     0
  0
LTYPE
  5
B59F
330
5
100
AcDbSymbolTableRecord
100
AcDbLinetypeTableRecord
  2
AMZIGZAG2
 70
     0
  3
/\/-/\/-/\/-/\/-/\/-/\/
 72
    65
 73
     2
 40
0.4401
 49
0.0001
 74
     0
 49
-0.4400000000000003
 74
     0
  0
ENDTAB
  0
TABLE
  2
LAYER
  5
2
102
{ACAD_XDICTIONARY
360
3F95
102
}
330
0
100
AcDbSymbolTable
 70
    19
  0
LAYER
  5
10
330
2
100
AcDbSymbolTableRecord
100
AcDbLayerTableRecord
  2
0
 70
     0
 62
     7
  6
Continuous
370
    -3
390
F
  0
LAYER
  5
6D1
330
2
100
AcDbSymbolTableRecord
100
AcDbLayerTableRecord
  2
Defpoints
 70
     0
 62
     7
  6
Continuous
290
     0
370
    -3
390
F
  0
LAYER
  5
5F85
330
2
100
AcDbSymbolTableRecord
100
AcDbLayerTableRecord
  2
AM_0
 70
     0
 62
     7
  6
中線
370
    30
390
F
1001
AcAecLayerStandard
1000

1000

  0
LAYER
  5
AC9F
330
2
100
AcDbSymbolTableRecord
100
AcDbLayerTableRecord
  2
size
 70
     0
 62
     5
  6
Continuous
290
     0
370
    25
390
F
  0
LAYER
  5
ACA0
330
2
100
AcDbSymbolTableRecord
100
AcDbLayerTableRecord
  2
waku
 70
     0
 62
     7
  6
Continuous
370
    35
390
F
  0
LAYER
  5
ACA1
330
2
100
AcDbSymbolTableRecord
100
AcDbLayerTableRecord
  2
AM_6
 70
     0
 62
     2
  6
文字
370
    13
390
F
1001
AcAecLayerStandard
1000

1000

  0
LAYER
  5
ACC8
330
2
100
AcDbSymbolTableRecord
100
AcDbLayerTableRecord
  2
hyomoji
 70
     0
 62
     2
  6
Continuous
370
    13
390
F
  0
LAYER
  5
ACC9
330
2
100
AcDbSymbolTableRecord
100
AcDbLayerTableRecord
  2
hyosen1
 70
     0
 62
     1
  6
Continuous
370
    30
390
F
  0
LAYER
  5
ACCA
330
2
100
AcDbSymbolTableRecord
100
AcDbLayerTableRecord
  2
hyosen2
 70
     0
 62
     1
  6
Continuous
370
    13
390
F
  0
LAYER
  5
AD60
330
2
100
AcDbSymbolTableRecord
100
AcDbLayerTableRecord
  2
AM_1
 70
     0
 62
    30
  6
太線
370
    40
390
F
1001
AcAecLayerStandard
1000

1000

  0
LAYER
  5
AD64
330
2
100
AcDbSymbolTableRecord
100
AcDbLayerTableRecord
  2
AM_2
 70
     0
 62
     1
  6
細線
370
    13
390
F
1001
AcAecLayerStandard
1000

1000

  0
LAYER
  5
AD67
330
2
100
AcDbSymbolTableRecord
100
AcDbLayerTableRecord
  2
AM_3
 70
     0
 62
     6
  6
陰線1
370
    13
390
F
1001
AcAecLayerStandard
1000

1000

  0
LAYER
  5
AD68
330
2
100
AcDbSymbolTableRecord
100
AcDbLayerTableRecord
  2
AM_5
 70
     0
 62
     3
  6
寸法線
370
    13
390
F
1001
AcAecLayerStandard
1000

1000

  0
LAYER
  5
AD69
330
2
100
AcDbSymbolTableRecord
100
AcDbLayerTableRecord
  2
AM_7
 70
     0
 62
     4
  6
中心線1
370
    13
390
F
1001
AcAecLayerStandard
1000

1000

  0
LAYER
  5
AD6A
330
2
100
AcDbSymbolTableRecord
100
AcDbLayerTableRecord
  2
AM_8
 70
     0
 62
     1
  6
ハッチング
370
    13
390
F
1001
AcAecLayerStandard
1000

1000

  0
LAYER
  5
AD6E
330
2
100
AcDbSymbolTableRecord
100
AcDbLayerTableRecord
  2
AM_10
 70
     0
 62
     7
  6
切断線
370
    30
390
F
1001
AcAecLayerStandard
1000

1000

  0
LAYER
  5
AD6F
330
2
100
AcDbSymbolTableRecord
100
AcDbLayerTableRecord
  2
AM_11
 70
     0
 62
     2
  6
想像線1
370
    13
390
F
1001
AcAecLayerStandard
1000

1000

  0
LAYER
  5
B1B6
330
2
100
AcDbSymbolTableRecord
100
AcDbLayerTableRecord
  2
AM_CL
 70
     1
 62
    -1
  6
Amconstr
370
    13
390
F
1001
AcAecLayerStandard
1000

1000

  0
ENDTAB
  0
TABLE
  2
STYLE
  5
3
330
0
100
AcDbSymbolTable
 70
     9
  0
STYLE
  5
11
330
3
100
AcDbSymbolTableRecord
100
AcDbTextStyleTableRecord
  2
STANDARD
 70
     0
 40
0.0
 41
0.7
 50
0.0
 71
     0
 42
3.2
  3
romans.shx
  4
extfont.shx
  0
STYLE
  5
56
330
3
100
AcDbSymbolTableRecord
100
AcDbTextStyleTableRecord
  2

 70
     1
 40
0.0
 41
1.0
 50
0.0
 71
     0
 42
2.5
  3
ltypeshp.shx
  4

  0
STYLE
  5
58
330
3
100
AcDbSymbolTableRecord
100
AcDbTextStyleTableRecord
  2
ACISOTS
 70
     0
 40
1.0
 41
1.0
 50
0.0
 71
     0
 42
2.5
  3
isocp.shx
  4
extfont.shx
  0
STYLE
  5
63
330
3
100
AcDbSymbolTableRecord
100
AcDbTextStyleTableRecord
  2
ACISOGDT
 70
     0
 40
0.0
 41
1.0
 50
0.0
 71
     0
 42
2.5
  3
amgdt.shx
  4

  0
STYLE
  5
A74
330
3
100
AcDbSymbolTableRecord
100
AcDbTextStyleTableRecord
  2
DIM
 70
     0
 40
0.0
 41
1.0
 50
0.0
 71
     0
 42
2.5
  3
monotxt.shx
  4
extfont.shx
  0
STYLE
  5
AC80
330
3
100
AcDbSymbolTableRecord
100
AcDbTextStyleTableRecord
  2

 70
     1
 40
0.0
 41
1.0
 50
0.0
 71
     0
 42
3.2
  3
genltshp.shx
  4

  0
STYLE
  5
B5A0
330
3
100
AcDbSymbolTableRecord
100
AcDbTextStyleTableRecord
  2
ACANSTS
 70
     0
 40
1.0
 41
1.0
 50
0.0
 71
     0
 42
0.2
  3
romans.shx
  4
extfont.shx
  0
STYLE
  5
B5A1
330
3
100
AcDbSymbolTableRecord
100
AcDbTextStyleTableRecord
  2
ACANSGDT
 70
     0
 40
0.0
 41
1.0
 50
0.0
 71
     0
 42
0.2
  3
amgdt.shx
  4

  0
ENDTAB
  0
TABLE
  2
VIEW
  5
6
330
0
100
AcDbSymbolTable
 70
     6
  0
VIEW
  5
AE1
330
6
100
AcDbSymbolTableRecord
100
AcDbViewTableRecord
  2
AM_VIEW1
 70
     0
 40
129.7276464542651
 10
1775.10588156276
 20
1793.121228859297
 41
148.5
 11
0.0
 21
0.0
 31
1.0
 12
0.0
 22
0.0
 32
0.0
 42
50.0
 43
-1370.695619172058
 44
-1370.695619172058
 50
0.0
 71
    16
281
     0
 72
     0
  0
VIEW
  5
AE2
330
6
100
AcDbSymbolTableRecord
100
AcDbViewTableRecord
  2
AM_VIEW2
 70
     0
 40
129.7276464542651
 10
1923.60588156276
 20
1793.121228859297
 41
148.5
 11
0.0
 21
0.0
 31
1.0
 12
0.0
 22
0.0
 32
0.0
 42
50.0
 43
-1370.695619172058
 44
-1370.695619172058
 50
0.0
 71
    16
281
     0
 72
     0
  0
VIEW
  5
AE3
330
6
100
AcDbSymbolTableRecord
100
AcDbViewTableRecord
  2
AM_VIEW3
 70
     0
 40
129.7276464542651
 10
1775.10588156276
 20
1712.848875313562
 41
148.5
 11
0.0
 21
0.0
 31
1.0
 12
0.0
 22
0.0
 32
0.0
 42
50.0
 43
-1370.695619172058
 44
-1370.695619172058
 50
0.0
 71
    16
281
     0
 72
     0
  0
VIEW
  5
AE4
330
6
100
AcDbSymbolTableRecord
100
AcDbViewTableRecord
  2
AM_VIEW4
 70
     0
 40
129.7276464542651
 10
1923.60588156276
 20
1712.848875313562
 41
148.5
 11
0.0
 21
0.0
 31
1.0
 12
0.0
 22
0.0
 32
0.0
 42
50.0
 43
-1370.695619172058
 44
-1370.695619172058
 50
0.0
 71
    16
281
     0
 72
     0
  0
VIEW
  5
AE5
330
6
100
AcDbSymbolTableRecord
100
AcDbViewTableRecord
  2
AM_VIEW5
 70
     0
 40
129.7276464542651
 10
1849.35588156276
 20
1752.985052086429
 41
148.5
 11
0.0
 21
0.0
 31
1.0
 12
0.0
 22
0.0
 32
0.0
 42
50.0
 43
-1370.695619172058
 44
-1370.695619172058
 50
0.0
 71
    16
281
     0
 72
     0
  0
VIEW
  5
AE6
330
6
100
AcDbSymbolTableRecord
100
AcDbViewTableRecord
  2
AM_VIEW6
 70
     0
 40
259.4526983556011
 10
1849.35588156276
 20
1752.985052086429
 41
296.99703
 11
0.0
 21
0.0
 31
1.0
 12
0.0
 22
0.0
 32
0.0
 42
50.0
 43
-1370.695619172058
 44
-1370.695619172058
 50
0.0
 71
    16
281
     0
 72
     0
  0
ENDTAB
  0
TABLE
  2
UCS
  5
7
330
0
100
AcDbSymbolTable
 70
     0
  0
ENDTAB
  0
TABLE
  2
APPID
  5
9
330
0
100
AcDbSymbolTable
 70
    55
  0
APPID
  5
12
330
9
100
AcDbSymbolTableRecord
100
AcDbRegAppTableRecord
  2
ACAD
 70
     0
  0
APPID
  5
30
330
9
100
AcDbSymbolTableRecord
100
AcDbRegAppTableRecord
  2
MCAD_NO_VIS
 70
     0
  0
APPID
  5
31
330
9
100
AcDbSymbolTableRecord
100
AcDbRegAppTableRecord
  2
ACAD_TEMP_GRAPHIC
 70
     0
  0
APPID
  5
44
330
9
100
AcDbSymbolTableRecord
100
AcDbRegAppTableRecord
  2
ACATTRIBSERVICES
 70
     0
  0
APPID
  5
7A1
330
9
100
AcDbSymbolTableRecord
100
AcDbRegAppTableRecord
  2
GENIUS_GENDIMSH_14
 70
     0
  0
APPID
  5
A49
330
9
100
AcDbSymbolTableRecord
100
AcDbRegAppTableRecord
  2
GENIUS_GENREC_14
 70
     0
  0
APPID
  5
A4A
330
9
100
AcDbSymbolTableRecord
100
AcDbRegAppTableRecord
  2
GENIUS_GENOBJ-N-REC_13
 70
     0
  0
APPID
  5
A4B
330
9
100
AcDbSymbolTableRecord
100
AcDbRegAppTableRecord
  2
GENIUS_GENODEF_13
 70
     0
  0
APPID
  5
A4C
330
9
100
AcDbSymbolTableRecord
100
AcDbRegAppTableRecord
  2
DCO15
 70
     0
  0
APPID
  5
ADC
330
9
100
AcDbSymbolTableRecord
100
AcDbRegAppTableRecord
  2
GENIUS_GENOLIS_13
 70
     0
  0
APPID
  5
ADD
330
9
100
AcDbSymbolTableRecord
100
AcDbRegAppTableRecord
  2
GENIUS_GENOENT_13
 70
     0
  0
APPID
  5
ADE
330
9
100
AcDbSymbolTableRecord
100
AcDbRegAppTableRecord
  2
GENIUS_GENOBJ-N-TIT_13
 70
     0
  0
APPID
  5
ADF
330
9
100
AcDbSymbolTableRecord
100
AcDbRegAppTableRecord
  2
GENIUS_GENTITLE_13
 70
     0
  0
APPID
  5
AE0
330
9
100
AcDbSymbolTableRecord
100
AcDbRegAppTableRecord
  2
GENIUS_GENOREF_13
 70
     0
  0
APPID
  5
AE7
330
9
100
AcDbSymbolTableRecord
100
AcDbRegAppTableRecord
  2
GENIUS_GENSCREG_15
 70
     0
  0
APPID
  5
AE8
330
9
100
AcDbSymbolTableRecord
100
AcDbRegAppTableRecord
  2
GENIUS_GENOBJ-N-SDF_13
 70
     0
  0
APPID
  5
FAF
330
9
100
AcDbSymbolTableRecord
100
AcDbRegAppTableRecord
  2
GENIUS_GENBLLY_14
 70
     0
  0
APPID
  5
FB0
330
9
100
AcDbSymbolTableRecord
100
AcDbRegAppTableRecord
  2
GENIUS_GENTRA_14
 70
     0
  0
APPID
  5
1285
330
9
100
AcDbSymbolTableRecord
100
AcDbRegAppTableRecord
  2
GENIUS_GENDTOL_13
 70
     0
  0
APPID
  5
142D
330
9
100
AcDbSymbolTableRecord
100
AcDbRegAppTableRecord
  2
GENIUS_GENOBJ-N-CEN_13
 70
     0
  0
APPID
  5
1AB5
330
9
100
AcDbSymbolTableRecord
100
AcDbRegAppTableRecord
  2
GENIUS_GENOBJ-N-CRS_13
 70
     0
  0
APPID
  5
1B36
330
9
100
AcDbSymbolTableRecord
100
AcDbRegAppTableRecord
  2
GENIUS_GENOBJ-N-HTC_13
 70
     0
  0
APPID
  5
1B37
330
9
100
AcDbSymbolTableRecord
100
AcDbRegAppTableRecord
  2
GENIUS_GENHATCH_13
 70
     0
  0
APPID
  5
216D
330
9
100
AcDbSymbolTableRecord
100
AcDbRegAppTableRecord
  2
GENIUS_GENOBJ-N-FIL_13
 70
     0
  0
APPID
  5
2356
330
9
100
AcDbSymbolTableRecord
100
AcDbRegAppTableRecord
  2
GEVID990412420
 70
     0
  0
APPID
  5
2357
330
9
100
AcDbSymbolTableRecord
100
AcDbRegAppTableRecord
  2
GEVDC
 70
     0
  0
APPID
  5
2358
330
9
100
AcDbSymbolTableRecord
100
AcDbRegAppTableRecord
  2
GEVCON
 70
     0
  0
APPID
  5
235B
330
9
100
AcDbSymbolTableRecord
100
AcDbRegAppTableRecord
  2
GEVRADREF
 70
     0
  0
APPID
  5
2360
330
9
100
AcDbSymbolTableRecord
100
AcDbRegAppTableRecord
  2
GENIUS_GENBH_13
 70
     0
  0
APPID
  5
2362
330
9
100
AcDbSymbolTableRecord
100
AcDbRegAppTableRecord
  2
GENIUS_GENOBJ-NBEHI-BHF_13
 70
     0
  0
APPID
  5
2364
330
9
100
AcDbSymbolTableRecord
100
AcDbRegAppTableRecord
  2
GENIUS_GENOBJ-NBEHI-BHB_13
 70
     0
  0
APPID
  5
2379
330
9
100
AcDbSymbolTableRecord
100
AcDbRegAppTableRecord
  2
GENIUS_GENOBJ-F-SCPASSM_13
 70
     0
  0
APPID
  5
3D74
330
9
100
AcDbSymbolTableRecord
100
AcDbRegAppTableRecord
  2
GENIUS_GENDIM_13
 70
     0
  0
APPID
  5
3D76
330
9
100
AcDbSymbolTableRecord
100
AcDbRegAppTableRecord
  2
GENIUS_GE3DTOL_13
 70
     0
  0
APPID
  5
3D9C
330
9
100
AcDbSymbolTableRecord
100
AcDbRegAppTableRecord
  2
AD_DRAW
 70
     0
  0
APPID
  5
3DE8
330
9
100
AcDbSymbolTableRecord
100
AcDbRegAppTableRecord
  2
ASURF_PCURVE_APPNAME
 70
     0
  0
APPID
  5
3DED
330
9
100
AcDbSymbolTableRecord
100
AcDbRegAppTableRecord
  2
AMG_3D2D_5.0
 70
     0
  0
APPID
  5
3E1B
330
9
100
AcDbSymbolTableRecord
100
AcDbRegAppTableRecord
  2
DESIGNERASSEMBLIES
 70
     0
  0
APPID
  5
3E20
330
9
100
AcDbSymbolTableRecord
100
AcDbRegAppTableRecord
  2
ACADM_DIM_EDIT
 70
     0
  0
APPID
  5
3E21
330
9
100
AcDbSymbolTableRecord
100
AcDbRegAppTableRecord
  2
AMDT_DM_ADJ
 70
     0
  0
APPID
  5
4143
330
9
100
AcDbSymbolTableRecord
100
AcDbRegAppTableRecord
  2
GENIUS_GENFIL_13
 70
     0
  0
APPID
  5
4144
330
9
100
AcDbSymbolTableRecord
100
AcDbRegAppTableRecord
  2
GENIUS_GENOBJ-N-CHA_13
 70
     0
  0
APPID
  5
4E17
330
9
100
AcDbSymbolTableRecord
100
AcDbRegAppTableRecord
  2
GEVID1008153417
 70
     0
  0
APPID
  5
4E58
330
9
100
AcDbSymbolTableRecord
100
AcDbRegAppTableRecord
  2
GEVID1008153418
 70
     0
  0
APPID
  5
4E5E
330
9
100
AcDbSymbolTableRecord
100
AcDbRegAppTableRecord
  2
GEVID1008153419
 70
     0
  0
APPID
  5
4E64
330
9
100
AcDbSymbolTableRecord
100
AcDbRegAppTableRecord
  2
GEVID1008153420
 70
     0
  0
APPID
  5
4E75
330
9
100
AcDbSymbolTableRecord
100
AcDbRegAppTableRecord
  2
GEVID1008153421
 70
     0
  0
APPID
  5
4EB7
330
9
100
AcDbSymbolTableRecord
100
AcDbRegAppTableRecord
  2
GENIUS_AMGTXT_16
 70
     0
  0
APPID
  5
7645
330
9
100
AcDbSymbolTableRecord
100
AcDbRegAppTableRecord
  2
GENIUS_GENOBJ-N-DIM_13
 70
     0
  0
APPID
  5
AAD0
330
9
100
AcDbSymbolTableRecord
100
AcDbRegAppTableRecord
  2
ACAD_DSTYLE_DIMARC_LENGTH_SYMBOL
 70
     0
  0
APPID
  5
AAD1
330
9
100
AcDbSymbolTableRecord
100
AcDbRegAppTableRecord
  2
ACAD_DSTYLE_DIMJOGGED_JOGANGLE_SYMBOL
 70
     0
  0
APPID
  5
AAFD
330
9
100
AcDbSymbolTableRecord
100
AcDbRegAppTableRecord
  2
ACAD_PSEXT
 70
     0
  0
APPID
  5
AD61
330
9
100
AcDbSymbolTableRecord
100
AcDbRegAppTableRecord
  2
AcAecLayerStandard
 70
     0
  0
APPID
  5
AEE3
330
9
100
AcDbSymbolTableRecord
100
AcDbRegAppTableRecord
  2
ACAD_EXEMPT_FROM_CAD_STANDARDS
 70
     0
  0
APPID
  5
B1BE
330
9
100
AcDbSymbolTableRecord
100
AcDbRegAppTableRecord
  2
GENIUS_GENCEN_19
 70
     0
  0
ENDTAB
  0
TABLE
  2
DIMSTYLE
  5
A
330
0
100
AcDbSymbolTable
 70
    24
100
AcDbDimStyleTable
 71
     1
340
2515
  0
DIMSTYLE
105
A76
330
A
100
AcDbSymbolTableRecord
100
AcDbDimStyleTableRecord
  2
STANDARD
 70
     0
 41
3.0
 42
1.0
 43
7.0
 44
2.0
 73
     0
 74
     0
 77
     1
140
2.799999999999999
141
0.0
143
0.0394
147
0.7
171
     4
172
     1
173
     1
176
     3
177
     3
178
     2
271
     3
272
     3
273
     8
274
     4
289
     0
340
A74
341
A66
343
A66
344
A66
  0
DIMSTYLE
105
2515
330
A
100
AcDbSymbolTableRecord
100
AcDbDimStyleTableRecord
  2
SYS
 70
     0
  4
"
 41
1.0
 42
1.0
 43
10.0
 44
1.0
 47
0.1
 48
0.1
 73
     0
 74
     0
 77
     1
 78
     8
 79
     2
140
3.5
141
0.0
143
0.0393701
146
0.71
147
1.5
172
     1
176
   256
177
   256
178
     7
271
     2
272
     2
283
     0
284
     8
340
11
371
    -1
372
    -1
1001
ACAD_DSTYLE_DIMJOGGED_JOGANGLE_SYMBOL
1070
   384
1040
0.7853981633974483
1001
ACAD_DSTYLE_DIMARC_LENGTH_SYMBOL
1070
   379
1070
     1
  0
DIMSTYLE
105
2516
330
A
100
AcDbSymbolTableRecord
100
AcDbDimStyleTableRecord
  2
SYS$3
 70
     0
  4
"
 41
2.0
 42
1.0
 43
10.0
 44
1.0
 47
0.1
 48
0.1
 73
     0
 77
     1
 78
     8
 79
     2
140
3.5
141
0.0
143
0.0393701
146
0.71
147
1.5
176
   256
177
   256
178
     2
271
     2
272
     2
283
     0
284
     8
288
     1
340
11
342
A66
371
    -1
372
    -1
1001
ACAD_DSTYLE_DIMJOGGED_JOGANGLE_SYMBOL
1070
   384
1040
0.7853981633974483
1001
ACAD_DSTYLE_DIMARC_LENGTH_SYMBOL
1070
   379
1070
     1
  0
DIMSTYLE
105
2517
330
A
100
AcDbSymbolTableRecord
100
AcDbDimStyleTableRecord
  2
SYS$4
 70
     0
  4
"
 41
2.0
 42
1.0
 43
10.0
 44
1.0
 47
0.1
 48
0.1
 73
     0
 77
     1
 78
     8
 79
     2
140
3.5
141
0.0
143
0.0393701
146
0.71
147
1.5
173
     1
176
   256
177
   256
178
     2
271
     2
272
     2
283
     0
284
     8
288
     1
340
11
344
A66
371
    -1
372
    -1
1001
ACAD_DSTYLE_DIMJOGGED_JOGANGLE_SYMBOL
1070
   384
1040
0.7853981633974483
1001
ACAD_DSTYLE_DIMARC_LENGTH_SYMBOL
1070
   379
1070
     1
  0
DIMSTYLE
105
2518
330
A
100
AcDbSymbolTableRecord
100
AcDbDimStyleTableRecord
  2
SYS$6
 70
     0
  4
"
 41
2.0
 42
1.0
 43
10.0
 44
1.0
 47
0.1
 48
0.1
 73
     0
 74
     0
 78
     8
 79
     2
140
3.5
141
0.0
143
0.0393701
146
0.71
147
1.5
172
     1
176
   256
177
   256
178
     2
271
     2
272
     2
283
     0
284
     8
340
11
341
A66
371
    -1
372
    -1
1001
ACAD_DSTYLE_DIMJOGGED_JOGANGLE_SYMBOL
1070
   384
1040
0.7853981633974483
1001
ACAD_DSTYLE_DIMARC_LENGTH_SYMBOL
1070
   379
1070
     1
  0
DIMSTYLE
105
2519
330
A
100
AcDbSymbolTableRecord
100
AcDbDimStyleTableRecord
  2
SYS$7
 70
     0
  4
"
 41
2.0
 42
1.0
 43
10.0
 44
1.0
 47
0.1
 48
0.1
 73
     0
 74
     0
 77
     1
 78
     8
 79
     2
140
5.0
141
0.0
143
0.0393701
146
0.71
147
1.5
172
     1
176
   256
177
   256
178
     2
271
     2
272
     2
283
     0
284
     8
340
11
341
A66
342
A66
371
    -1
372
    -1
1001
ACAD_DSTYLE_DIMJOGGED_JOGANGLE_SYMBOL
1070
   384
1040
0.7853981633974483
1001
ACAD_DSTYLE_DIMARC_LENGTH_SYMBOL
1070
   379
1070
     1
  0
DIMSTYLE
105
251A
330
A
100
AcDbSymbolTableRecord
100
AcDbDimStyleTableRecord
  2
SYS$SF
 70
     0
  4
"
 41
2.5
 42
1.0
 43
10.0
 44
1.0
 47
0.1
 48
0.1
 73
     0
 74
     0
 75
     1
 76
     1
 77
     1
 78
     8
 79
     2
140
3.5
141
0.0
143
0.0393701
146
0.71
147
1.5
172
     1
176
   256
177
   256
178
     2
271
     2
272
     3
283
     0
284
     8
340
11
341
6C4
342
6C4
371
    -1
372
    -1
1001
ACAD_DSTYLE_DIMJOGGED_JOGANGLE_SYMBOL
1070
   384
1040
0.7853981633974483
1001
ACAD_DSTYLE_DIMARC_LENGTH_SYMBOL
1070
   379
1070
     1
  0
DIMSTYLE
105
251B
330
A
100
AcDbSymbolTableRecord
100
AcDbDimStyleTableRecord
  2
SYS$SH
 70
     0
  4
"
 41
2.5
 42
1.0
 43
10.0
 44
1.0
 47
0.1
 48
0.1
 73
     0
 74
     0
 75
     1
 76
     1
 77
     1
 78
     8
 79
     2
140
3.5
141
0.0
143
0.0393701
144
2.0
146
0.71
147
1.5
172
     1
173
     1
176
   256
177
   256
178
     2
271
     2
272
     3
283
     0
284
     8
340
11
341
6C4
343
72
344
6C4
371
    -1
372
    -1
1001
ACAD_DSTYLE_DIMJOGGED_JOGANGLE_SYMBOL
1070
   384
1040
0.7853981633974483
1001
ACAD_DSTYLE_DIMARC_LENGTH_SYMBOL
1070
   379
1070
     1
  0
DIMSTYLE
105
2A59
330
A
100
AcDbSymbolTableRecord
100
AcDbDimStyleTableRecord
  2
SYS$2
 70
     0
  4
"
 41
1.0
 42
1.0
 43
10.0
 44
1.0
 47
0.1
 48
0.1
 73
     0
 74
     0
 77
     1
 78
     8
 79
     2
140
3.5
141
0.0
143
0.0393701
146
0.71
147
1.5
172
     1
176
   256
177
   256
178
     2
271
     2
272
     2
283
     0
284
     8
340
11
342
6C4
371
    -1
372
    -1
1001
ACAD_DSTYLE_DIMJOGGED_JOGANGLE_SYMBOL
1070
   384
1040
0.7853981633974483
1001
ACAD_DSTYLE_DIMARC_LENGTH_SYMBOL
1070
   379
1070
     1
  0
DIMSTYLE
105
2AAB
102
{ACAD_REACTORS
330
B857
330
B86D
330
B883
330
B899
330
B8B0
102
}
330
A
100
AcDbSymbolTableRecord
100
AcDbDimStyleTableRecord
  2
SYS$0
 70
     0
  4
"
 41
1.0
 42
1.0
 43
10.0
 44
1.0
 47
0.1
 48
0.1
 73
     0
 74
     0
 77
     1
 78
     8
 79
     2
140
3.200000000000001
141
0.0
143
0.0393701
146
0.71
147
1.5
172
     1
176
   256
177
   256
178
     2
271
     2
272
     2
283
     0
284
     8
340
11
341
A66
342
6C4
371
    -1
372
    -1
1001
ACAD_DSTYLE_DIMJOGGED_JOGANGLE_SYMBOL
1070
   384
1040
0.7853981633974483
1001
ACAD_DSTYLE_DIMARC_LENGTH_SYMBOL
1070
   379
1070
     1
  0
DIMSTYLE
105
AF99
330
A
100
AcDbSymbolTableRecord
100
AcDbDimStyleTableRecord
  2
AM_ISO
 70
     0
  4
"
 41
2.5
 42
1.0
 43
10.0
 44
1.0
 47
0.1
 48
0.1
 73
     0
 74
     0
 77
     1
 78
     8
 79
     2
140
3.5
141
0.0
143
0.0393701
146
0.71
147
1.5
172
     1
176
   256
177
   256
178
     2
271
     2
272
     3
274
     4
283
     0
284
     8
340
11
371
    -1
372
    -1
  0
DIMSTYLE
105
AF9A
330
A
100
AcDbSymbolTableRecord
100
AcDbDimStyleTableRecord
  2
AM_ISO$3
 70
     0
  4
"
 41
2.5
 42
1.0
 43
10.0
 44
1.0
 47
0.1
 48
0.1
 73
     0
 77
     1
 78
     8
 79
     2
140
3.5
141
0.0
143
0.0393701
146
0.71
147
1.5
176
   256
177
   256
178
     2
271
     2
272
     3
274
     4
283
     0
284
     8
288
     1
289
     0
340
11
371
    -1
372
    -1
  0
DIMSTYLE
105
AF9B
330
A
100
AcDbSymbolTableRecord
100
AcDbDimStyleTableRecord
  2
AM_ISO$4
 70
     0
  4
"
 41
2.5
 42
1.0
 43
10.0
 44
1.0
 47
0.1
 48
0.1
 73
     0
 77
     1
 78
     8
 79
     2
140
3.5
141
0.0
143
0.0393701
146
0.71
147
1.5
176
   256
177
   256
178
     2
271
     2
272
     3
274
     4
283
     0
284
     8
288
     1
289
     0
340
11
371
    -1
372
    -1
  0
DIMSTYLE
105
AF9C
330
A
100
AcDbSymbolTableRecord
100
AcDbDimStyleTableRecord
  2
AM_ISO$6
 70
     0
  4
"
 41
2.5
 42
1.0
 43
10.0
 44
1.0
 47
0.1
 48
0.1
 73
     0
 74
     0
 78
     8
 79
     2
140
3.5
141
0.0
143
0.0393701
146
0.71
147
1.5
172
     1
176
   256
177
   256
178
     2
271
     2
272
     3
274
     4
283
     0
284
     8
340
11
371
    -1
372
    -1
  0
DIMSTYLE
105
AF9D
330
A
100
AcDbSymbolTableRecord
100
AcDbDimStyleTableRecord
  2
AM_ISO$7
 70
     0
  4
"
 41
2.5
 42
1.0
 43
10.0
 44
1.0
 47
0.1
 48
0.1
 73
     0
 74
     0
 77
     1
 78
     8
 79
     2
140
5.0
141
0.0
143
0.0393701
146
0.71
147
1.5
172
     1
176
   256
177
   256
178
     2
271
     2
272
     3
274
     4
283
     0
284
     8
340
11
371
    -1
372
    -1
  0
DIMSTYLE
105
AF9E
330
A
100
AcDbSymbolTableRecord
100
AcDbDimStyleTableRecord
  2
AM_ISO$SF
 70
     0
  4
"
 41
2.5
 42
1.0
 43
10.0
 44
1.0
 47
0.1
 48
0.1
 73
     0
 74
     0
 75
     1
 76
     1
 77
     1
 78
     8
 79
     2
140
3.5
141
0.0
143
0.0393701
146
0.71
147
1.5
172
     1
176
   256
177
   256
178
     2
271
     2
272
     3
274
     4
283
     0
284
     8
340
11
371
    -1
372
    -1
  0
DIMSTYLE
105
AF9F
330
A
100
AcDbSymbolTableRecord
100
AcDbDimStyleTableRecord
  2
AM_ISO$SH
 70
     0
  4
"
 41
2.5
 42
1.0
 43
10.0
 44
1.0
 47
0.1
 48
0.1
 73
     0
 74
     0
 75
     1
 76
     1
 77
     1
 78
     8
 79
     2
140
3.5
141
0.0
143
0.0393701
144
2.0
146
0.71
147
1.5
172
     1
173
     1
176
   256
177
   256
178
     2
271
     2
272
     3
274
     4
283
     0
284
     8
340
11
343
72
371
    -1
372
    -1
  0
DIMSTYLE
105
B5A2
330
A
100
AcDbSymbolTableRecord
100
AcDbDimStyleTableRecord
  2
AM_ANSI
 70
     0
  4
mm
 41
0.1
 42
0.05
 43
0.5
 44
0.1
 47
0.1
 48
0.1
 78
     7
140
0.12
141
0.0
146
0.71
147
0.06
176
   256
177
   256
178
     2
271
     2
272
     2
279
     2
284
     8
285
     8
286
     8
340
11
  0
DIMSTYLE
105
B5A3
330
A
100
AcDbSymbolTableRecord
100
AcDbDimStyleTableRecord
  2
AM_ANSI$3
 70
     0
  4
mm
 41
0.1
 42
0.05
 43
0.5
 44
0.1
 47
0.1
 48
0.1
 78
     7
140
0.12
141
0.0
146
0.71
147
0.06
176
   256
177
   256
178
     2
271
     2
272
     2
279
     2
284
     8
285
     8
286
     8
340
11
  0
DIMSTYLE
105
B5A4
330
A
100
AcDbSymbolTableRecord
100
AcDbDimStyleTableRecord
  2
AM_ANSI$4
 70
     0
  4
mm
 41
0.1
 42
0.05
 43
0.5
 44
0.1
 47
0.1
 48
0.1
 78
     7
140
0.12
141
0.0
146
0.71
147
0.06
176
   256
177
   256
178
     2
271
     2
272
     2
279
     2
284
     8
285
     8
286
     8
340
11
  0
DIMSTYLE
105
B5A5
330
A
100
AcDbSymbolTableRecord
100
AcDbDimStyleTableRecord
  2
AM_ANSI$7
 70
     0
  4
mm
 41
0.1
 42
0.05
 43
0.5
 44
0.1
 47
0.1
 48
0.1
 78
     7
140
0.24
141
0.0
146
0.71
147
0.06
176
   256
177
   256
178
     2
271
     2
272
     2
279
     2
284
     8
285
     8
286
     8
340
11
  0
DIMSTYLE
105
B5A6
330
A
100
AcDbSymbolTableRecord
100
AcDbDimStyleTableRecord
  2
AM_ANSI$SF
 70
     0
  4
mm
 41
0.1
 42
0.05
 43
0.5
 44
0.1
 47
0.1
 48
0.1
 75
     1
 76
     1
 78
     7
140
0.12
141
0.0
146
0.71
147
0.06
176
   256
177
   256
178
     2
271
     2
272
     2
279
     2
284
     8
285
     8
286
     8
340
11
  0
DIMSTYLE
105
B5A7
330
A
100
AcDbSymbolTableRecord
100
AcDbDimStyleTableRecord
  2
AM_ANSI$SH
 70
     0
  4
mm
 41
0.1
 42
0.05
 43
0.5
 44
0.1
 47
0.1
 48
0.1
 75
     1
 76
     1
 78
     7
140
0.12
141
0.0
146
0.71
147
0.06
173
     1
176
   256
177
   256
178
     2
271
     2
272
     2
279
     2
284
     8
285
     8
286
     8
340
11
  0
ENDTAB
  0
TABLE
  2
BLOCK_RECORD
  5
1
330
0
100
AcDbSymbolTable
 70
    26
  0
BLOCK_RECORD
  5
1F
102
{ACAD_XDICTIONARY
360
8A
102
}
330
1
100
AcDbSymbolTableRecord
100
AcDbBlockTableRecord
  2
*Model_Space
340
22
  0
BLOCK_RECORD
  5
1B
330
1
100
AcDbSymbolTableRecord
100
AcDbBlockTableRecord
  2
*Paper_Space
340
1E
  0
BLOCK_RECORD
  5
23
330
1
100
AcDbSymbolTableRecord
100
AcDbBlockTableRecord
  2
*Paper_Space0
340
26
  0
BLOCK_RECORD
  5
72
330
1
100
AcDbSymbolTableRecord
100
AcDbBlockTableRecord
  2
GENAXEH
340
0
  0
BLOCK_RECORD
  5
6C4
330
1
100
AcDbSymbolTableRecord
100
AcDbBlockTableRecord
  2
_Dot
340
0
102
{BLKREFS
331
B932
331
B933
331
B93B
331
B93C
331
B944
331
B945
331
B94D
331
B94E
331
B958
331
B959
102
}
  0
BLOCK_RECORD
  5
A66
330
1
100
AcDbSymbolTableRecord
100
AcDbBlockTableRecord
  2
_OPEN30
340
0
  0
BLOCK_RECORD
  5
B542
330
1
100
AcDbSymbolTableRecord
100
AcDbBlockTableRecord
  2
_DOTSMALL
340
0
102
{BLKREFS
331
B561
331
B562
331
B56D
331
B56E
331
B57B
331
B57C
331
B588
331
B589
331
B594
331
B595
331
B82B
331
B82C
331
B834
331
B835
331
B83F
331
B840
331
B848
331
B849
331
B851
331
B852
102
}
  0
BLOCK_RECORD
  5
B549
330
1
100
AcDbSymbolTableRecord
100
AcDbBlockTableRecord
  2
KOZU0001
340
0
102
{BLKREFS
331
B61D
102
}
  0
BLOCK_RECORD
  5
B551
102
{ACAD_XDICTIONARY
360
B7C8
102
}
330
1
100
AcDbSymbolTableRecord
100
AcDbBlockTableRecord
  2
KOZU0002
340
0
102
{BLKREFS
331
B61C
331
B6B2
102
}
  0
BLOCK_RECORD
  5
B55C
330
1
100
AcDbSymbolTableRecord
100
AcDbBlockTableRecord
  2
*D8
340
0
  0
BLOCK_RECORD
  5
B568
330
1
100
AcDbSymbolTableRecord
100
AcDbBlockTableRecord
  2
*D9
340
0
  0
BLOCK_RECORD
  5
B574
330
1
100
AcDbSymbolTableRecord
100
AcDbBlockTableRecord
  2
*D10
340
0
  0
BLOCK_RECORD
  5
B582
330
1
100
AcDbSymbolTableRecord
100
AcDbBlockTableRecord
  2
*D11
340
0
  0
BLOCK_RECORD
  5
B58F
330
1
100
AcDbSymbolTableRecord
100
AcDbBlockTableRecord
  2
*D12
340
0
  0
BLOCK_RECORD
  5
B6B9
330
1
100
AcDbSymbolTableRecord
100
AcDbBlockTableRecord
  2
*D14
340
0
  0
BLOCK_RECORD
  5
B6C5
330
1
100
AcDbSymbolTableRecord
100
AcDbBlockTableRecord
  2
*D15
340
0
  0
BLOCK_RECORD
  5
B6D1
330
1
100
AcDbSymbolTableRecord
100
AcDbBlockTableRecord
  2
*D16
340
0
  0
BLOCK_RECORD
  5
B6DF
330
1
100
AcDbSymbolTableRecord
100
AcDbBlockTableRecord
  2
*D17
340
0
  0
BLOCK_RECORD
  5
B6EB
330
1
100
AcDbSymbolTableRecord
100
AcDbBlockTableRecord
  2
*D18
340
0
  0
BLOCK_RECORD
  5
B858
330
1
100
AcDbSymbolTableRecord
100
AcDbBlockTableRecord
  2
*D19
340
0
  0
BLOCK_RECORD
  5
B86E
330
1
100
AcDbSymbolTableRecord
100
AcDbBlockTableRecord
  2
*D20
340
0
  0
BLOCK_RECORD
  5
B884
330
1
100
AcDbSymbolTableRecord
100
AcDbBlockTableRecord
  2
*D21
340
0
  0
BLOCK_RECORD
  5
B89A
330
1
100
AcDbSymbolTableRecord
100
AcDbBlockTableRecord
  2
*D22
340
0
  0
BLOCK_RECORD
  5
B8B1
330
1
100
AcDbSymbolTableRecord
100
AcDbBlockTableRecord
  2
*D23
340
0
  0
BLOCK_RECORD
  5
B967
330
1
100
AcDbSymbolTableRecord
100
AcDbBlockTableRecord
  2
*S25
340
0
  0
ENDTAB
  0
ENDSEC
  0
SECTION
  2
BLOCKS
  0
BLOCK
  5
20
330
1F
100
AcDbEntity
  8
0
100
AcDbBlockBegin
  2
*Model_Space
 70
     0
 10
0.0
 20
0.0
 30
0.0
  3
*Model_Space
  1

  0
ENDBLK
  5
21
330
1F
100
AcDbEntity
  8
0
100
AcDbBlockEnd
  0
BLOCK
  5
1C
330
1B
100
AcDbEntity
 67
     1
  8
0
100
AcDbBlockBegin
  2
*Paper_Space
 70
     0
 10
0.0
 20
0.0
 30
0.0
  3
*Paper_Space
  1

  0
ENDBLK
  5
1D
330
1B
100
AcDbEntity
 67
     1
  8
0
100
AcDbBlockEnd
  0
BLOCK
  5
24
330
23
100
AcDbEntity
 67
     1
  8
0
100
AcDbBlockBegin
  2
*Paper_Space0
 70
     0
 10
0.0
 20
0.0
 30
0.0
  3
*Paper_Space0
  1

  0
ENDBLK
  5
25
330
23
100
AcDbEntity
 67
     1
  8
0
100
AcDbBlockEnd
  0
BLOCK
  5
74
330
72
100
AcDbEntity
  8
0
100
AcDbBlockBegin
  2
GENAXEH
 70
     0
 10
0.0
 20
0.0
 30
0.0
  3
GENAXEH
  1

  0
LINE
  5
73
330
72
100
AcDbEntity
  8
0
100
AcDbLine
 10
-1.0
 20
0.0
 30
0.0
 11
1.0
 21
0.0
 31
0.0
  0
ENDBLK
  5
75
330
72
100
AcDbEntity
  8
0
100
AcDbBlockEnd
  0
BLOCK
  5
6C7
330
6C4
100
AcDbEntity
  8
0
100
AcDbBlockBegin
  2
_Dot
 70
     0
 10
0.0
 20
0.0
 30
0.0
  3
_Dot
  1

  0
LWPOLYLINE
  5
6C5
330
6C4
100
AcDbEntity
  8
0
  6
ByBlock
 62
     0
100
AcDbPolyline
 90
        2
 70
     1
 43
0.5
 10
-0.25
 20
0.0
 42
1.0
 10
0.25
 20
0.0
 42
1.0
  0
LINE
  5
6C6
330
6C4
100
AcDbEntity
  8
0
  6
ByBlock
 62
     0
370
    -2
100
AcDbLine
 10
-0.5
 20
0.0
 30
0.0
 11
-1.0
 21
0.0
 31
0.0
  0
ENDBLK
  5
6C8
330
6C4
100
AcDbEntity
  8
0
100
AcDbBlockEnd
  0
BLOCK
  5
A6A
330
A66
100
AcDbEntity
  8
0
100
AcDbBlockBegin
  2
_OPEN30
 70
     0
 10
0.0
 20
0.0
 30
0.0
  3
_OPEN30
  1

  0
LINE
  5
A67
330
A66
100
AcDbEntity
  8
0
  6
ByBlock
 62
     0
100
AcDbLine
 10
-1.0
 20
0.26794919
 30
0.0
 11
0.0
 21
0.0
 31
0.0
  0
LINE
  5
A68
330
A66
100
AcDbEntity
  8
0
  6
ByBlock
 62
     0
100
AcDbLine
 10
0.0
 20
0.0
 30
0.0
 11
-1.0
 21
-0.26794919
 31
0.0
  0
LINE
  5
A69
330
A66
100
AcDbEntity
  8
0
  6
ByBlock
 62
     0
100
AcDbLine
 10
0.0
 20
0.0
 30
0.0
 11
-1.0
 21
0.0
 31
0.0
  0
ENDBLK
  5
A6B
330
A66
100
AcDbEntity
  8
0
100
AcDbBlockEnd
  0
BLOCK
  5
B543
330
B542
100
AcDbEntity
  8
0
100
AcDbBlockBegin
  2
_DOTSMALL
 70
     0
 10
0.0
 20
0.0
 30
0.0
  3
_DOTSMALL
  1

  0
POLYLINE
  5
B544
330
B542
100
AcDbEntity
  8
0
  6
ByBlock
 62
     0
100
AcDb2dPolyline
 66
     1
 10
0.0
 20
0.0
 30
0.0
 70
     1
 40
0.5
 41
0.5
  0
VERTEX
  5
B545
330
B544
100
AcDbEntity
  8
0
  6
ByBlock
 62
     0
100
AcDbVertex
100
AcDb2dVertex
 10
-0.0625
 20
0.0
 30
0.0
 42
1.0
  0
VERTEX
  5
B546
330
B544
100
AcDbEntity
  8
0
  6
ByBlock
 62
     0
100
AcDbVertex
100
AcDb2dVertex
 10
0.0625
 20
0.0
 30
0.0
 42
1.0
  0
SEQEND
  5
B547
330
B544
100
AcDbEntity
  8
0
  6
ByBlock
 62
     0
  0
ENDBLK
  5
B548
330
B542
100
AcDbEntity
  8
0
100
AcDbBlockEnd
  0
BLOCK
  5
B54A
330
B549
100
AcDbEntity
  8
0
100
AcDbBlockBegin
  2
KOZU0001
 70
     0
 10
0.0
 20
0.0
 30
0.0
  3
KOZU0001
  1

  0
LINE
  5
B54B
330
B549
100
AcDbEntity
  8
0
  6
Continuous
 62
     7
100
AcDbLine
 10
0.0
 20
0.0
 30
0.0
 11
8.811133400000001
 21
10.96019
 31
0.0
  0
LINE
  5
B54C
330
B549
100
AcDbEntity
  8
0
  6
Continuous
 62
     7
100
AcDbLine
 10
8.811133400000001
 20
10.96019
 30
0.0
 11
29.140042
 21
10.96019
 31
0.0
  0
LINE
  5
B54D
330
B549
100
AcDbEntity
  8
0
  6
Continuous
 62
     7
100
AcDbLine
 10
0.0
 20
0.0
 30
0.0
 11
1.521860899999999
 21
2.790011999999999
 31
0.0
  0
LINE
  5
B54E
330
B549
100
AcDbEntity
  8
0
  6
Continuous
 62
     7
100
AcDbLine
 10
0.0
 20
0.0
 30
0.0
 11
2.3978792
 21
2.085761999999999
 31
0.0
  0
TEXT
  5
B54F
330
B549
100
AcDbEntity
  8
0
  6
Continuous
 62
     7
100
AcDbText
 10
9.940042
 20
11.760188
 30
0.0
 40
3.2
  1
LRB-13
 41
1.0714453
100
AcDbText
  0
ENDBLK
  5
B550
330
B549
100
AcDbEntity
  8
0
100
AcDbBlockEnd
  0
BLOCK
  5
B552
330
B551
100
AcDbEntity
  8
0
100
AcDbBlockBegin
  2
KOZU0002
 70
     0
 10
0.0
 20
0.0
 30
0.0
  3
KOZU0002
  1

  0
LINE
  5
B553
330
B551
100
AcDbEntity
  8
AM_2
100
AcDbLine
 10
12.713717
 20
-2.999079999999999
 30
0.0
 11
15.26351199999999
 21
-0.4492801499999999
 31
0.0
  0
LINE
  5
B554
330
B551
100
AcDbEntity
  8
AM_2
100
AcDbLine
 10
12.08333899999999
 20
-1.384393299999999
 30
0.0
 11
13.063807
 21
-0.403923380000002
 31
0.0
  0
LINE
  5
B555
330
B551
100
AcDbEntity
  8
AM_2
100
AcDbLine
 10
14.64192700000001
 20
1.1742001
 30
0.0
 11
15.32242400000001
 21
1.854698999999996
 31
0.0
  0
LINE
  5
B556
330
B551
100
AcDbEntity
  8
AM_2
100
AcDbLine
 10
10.36381
 20
-0.8588594900000003
 30
0.0
 11
13.063807
 21
1.841142900000001
 31
0.0
  0
LINE
  5
B557
330
B551
100
AcDbEntity
  8
AM_2
100
AcDbLine
 10
13.98892900000001
 20
2.766267200000001
 30
0.0
 11
14.55810500000001
 21
3.335444099999996
 31
0.0
  0
LINE
  5
B558
330
B551
100
AcDbEntity
  8
AM_2
100
AcDbLine
 10
10.36381
 20
1.386206799999996
 30
0.0
 11
11.90472199999999
 21
2.927122699999998
 31
0.0
  0
LINE
  5
B559
330
B551
100
AcDbEntity
  8
AM_2
100
AcDbLine
 10
12.263811
 20
3.2862121
 30
0.0
 11
13.32095699999999
 21
4.343359900000002
 31
0.0
  0
LINE
  5
B55A
330
B551
100
AcDbEntity
  8
AM_2
100
AcDbLine
 10
10.36381
 20
3.631273
 30
0.0
 11
10.48140900000001
 21
3.748872599999998
 31
0.0
  0
ENDBLK
  5
B55B
330
B551
100
AcDbEntity
  8
0
100
AcDbBlockEnd
  0
BLOCK
  5
B55D
330
B55C
100
AcDbEntity
  8
0
100
AcDbBlockBegin
  2
*D8
 70
     1
 10
0.0
 20
0.0
 30
0.0
  3
*D8
  1

  0
LINE
  5
B55E
330
B55C
100
AcDbEntity
  8
AM_5
370
    -2
100
AcDbLine
 10
62.91500299999999
 20
15.21656499999999
 30
0.0
 11
62.91500299999999
 21
6.21656500000007
 31
0.0
  0
LINE
  5
B55F
330
B55C
100
AcDbEntity
  8
AM_5
370
    -2
100
AcDbLine
 10
103.615001
 20
15.21656499999999
 30
0.0
 11
103.615001
 21
6.21656500000007
 31
0.0
  0
LINE
  5
B560
330
B55C
100
AcDbEntity
  8
AM_5
370
    -2
100
AcDbLine
 10
62.91500299999999
 20
7.216565000000069
 30
0.0
 11
103.615001
 21
7.216565000000069
 31
0.0
  0
INSERT
  5
B561
330
B55C
100
AcDbEntity
  8
AM_5
370
    -2
100
AcDbBlockReference
  2
_DOTSMALL
 10
62.91500299999999
 20
7.216565000000069
 30
0.0
 41
2.5
 42
2.5
 43
2.5
 50
180.0
  0
INSERT
  5
B562
330
B55C
100
AcDbEntity
  8
AM_5
370
    -2
100
AcDbBlockReference
  2
_DOTSMALL
 10
103.615001
 20
7.216565000000069
 30
0.0
 41
2.5
 42
2.5
 43
2.5
  0
MTEXT
  5
B563
330
B55C
100
AcDbEntity
  8
AM_5
 62
     2
100
AcDbMText
 10
83.26500199999998
 20
10.46656500000007
 30
0.0
 40
3.5
 41
0.0
 71
     5
 72
     1
  1
\A1;40.7
 73
     1
 44
1.0
1001
ACAD
1000
MTEXTBEGIN
1070
    73
1070
     1
1070
    44
1040
1.0
1070
    74
1070
     0
1000
MTEXTEND
  0
POINT
  5
B564
330
B55C
100
AcDbEntity
  8
Defpoints
 62
     0
100
AcDbPoint
 10
62.91500299999999
 20
16.21656499999999
 30
0.0
  0
POINT
  5
B565
330
B55C
100
AcDbEntity
  8
Defpoints
 62
     0
100
AcDbPoint
 10
103.615001
 20
16.21656499999999
 30
0.0
  0
POINT
  5
B566
330
B55C
100
AcDbEntity
  8
Defpoints
 62
     0
100
AcDbPoint
 10
103.615001
 20
7.216565000000069
 30
0.0
  0
ENDBLK
  5
B567
330
B55C
100
AcDbEntity
  8
0
100
AcDbBlockEnd
  0
BLOCK
  5
B569
330
B568
100
AcDbEntity
  8
0
100
AcDbBlockBegin
  2
*D9
 70
     1
 10
0.0
 20
0.0
 30
0.0
  3
*D9
  1

  0
LINE
  5
B56A
330
B568
100
AcDbEntity
  8
AM_5
370
    -2
100
AcDbLine
 10
61.26500099999998
 20
15.21656499999999
 30
0.0
 11
61.26500099999998
 21
-2.783434999999926
 31
0.0
  0
LINE
  5
B56B
330
B568
100
AcDbEntity
  8
AM_5
370
    -2
100
AcDbLine
 10
105.265003
 20
15.21656499999999
 30
0.0
 11
105.265003
 21
-2.783434999999926
 31
0.0
  0
LINE
  5
B56C
330
B568
100
AcDbEntity
  8
AM_5
370
    -2
100
AcDbLine
 10
61.26500099999998
 20
-1.783434999999924
 30
0.0
 11
105.265003
 21
-1.783434999999924
 31
0.0
  0
INSERT
  5
B56D
330
B568
100
AcDbEntity
  8
AM_5
370
    -2
100
AcDbBlockReference
  2
_DOTSMALL
 10
61.26500099999998
 20
-1.783434999999924
 30
0.0
 41
2.5
 42
2.5
 43
2.5
 50
180.0
  0
INSERT
  5
B56E
330
B568
100
AcDbEntity
  8
AM_5
370
    -2
100
AcDbBlockReference
  2
_DOTSMALL
 10
105.265003
 20
-1.783434999999924
 30
0.0
 41
2.5
 42
2.5
 43
2.5
  0
MTEXT
  5
B56F
330
B568
100
AcDbEntity
  8
AM_5
 62
     2
100
AcDbMText
 10
83.26500199999998
 20
1.466565000000075
 30
0.0
 40
3.5
 41
0.0
 71
     5
 72
     1
  1
\A1;44
 73
     1
 44
1.0
1001
ACAD
1000
MTEXTBEGIN
1070
    73
1070
     1
1070
    44
1040
1.0
1070
    74
1070
     0
1000
MTEXTEND
  0
POINT
  5
B570
330
B568
100
AcDbEntity
  8
Defpoints
 62
     0
100
AcDbPoint
 10
61.26500099999998
 20
16.21656499999999
 30
0.0
  0
POINT
  5
B571
330
B568
100
AcDbEntity
  8
Defpoints
 62
     0
100
AcDbPoint
 10
105.265003
 20
16.21656499999999
 30
0.0
  0
POINT
  5
B572
330
B568
100
AcDbEntity
  8
Defpoints
 62
     0
100
AcDbPoint
 10
105.265003
 20
-1.783434999999924
 30
0.0
  0
ENDBLK
  5
B573
330
B568
100
AcDbEntity
  8
0
100
AcDbBlockEnd
  0
BLOCK
  5
B575
330
B574
100
AcDbEntity
  8
0
100
AcDbBlockBegin
  2
*D10
 70
     1
 10
0.0
 20
0.0
 30
0.0
  3
*D10
  1

  0
LINE
  5
B576
330
B574
100
AcDbEntity
  8
AM_5
370
    -2
100
AcDbLine
 10
104.7650069999999
 20
21.21656499999998
 30
0.0
 11
115.2650069999999
 21
21.21656499999998
 31
0.0
  0
LINE
  5
B577
330
B574
100
AcDbEntity
  8
AM_5
370
    -2
100
AcDbLine
 10
106.2650069999999
 20
23.916562
 30
0.0
 11
115.2650069999999
 21
23.916562
 31
0.0
  0
LINE
  5
B578
330
B574
100
AcDbEntity
  8
AM_5
370
    -2
100
AcDbLine
 10
114.2650069999999
 20
21.21656499999998
 30
0.0
 11
114.2650069999999
 21
18.71656499999998
 31
0.0
  0
LINE
  5
B579
330
B574
100
AcDbEntity
  8
AM_5
370
    -2
100
AcDbLine
 10
114.2650069999999
 20
23.916562
 30
0.0
 11
114.265007
 21
37.04989533333332
 31
0.0
  0
LINE
  5
B57A
330
B574
100
AcDbEntity
  8
AM_5
370
    -2
100
AcDbLine
 10
114.2650069999999
 20
21.21656499999998
 30
0.0
 11
114.2650069999999
 21
23.916562
 31
0.0
  0
INSERT
  5
B57B
330
B574
100
AcDbEntity
  8
AM_5
370
    -2
100
AcDbBlockReference
  2
_DOTSMALL
 10
114.2650069999999
 20
21.21656499999998
 30
0.0
 41
2.5
 42
2.5
 43
2.5
 50
90.0
  0
INSERT
  5
B57C
330
B574
100
AcDbEntity
  8
AM_5
370
    -2
100
AcDbBlockReference
  2
_DOTSMALL
 10
114.2650069999999
 20
23.916562
 30
0.0
 41
2.5
 42
2.5
 43
2.5
 50
270.0
  0
MTEXT
  5
B57D
330
B574
100
AcDbEntity
  8
AM_5
 62
     2
100
AcDbMText
 10
111.0150069999999
 20
32.98322866666668
 30
0.0
 40
3.5
 41
0.0
 71
     5
 72
     1
  1
\A1;2.7
 11
0.0000000000000001
 21
1.0
 31
0.0
 73
     1
 44
1.0
1001
ACAD
1000
MTEXTBEGIN
1070
    73
1070
     1
1070
    44
1040
1.0
1070
    74
1070
     0
1000
MTEXTEND
  0
POINT
  5
B57E
330
B574
100
AcDbEntity
  8
Defpoints
 62
     0
100
AcDbPoint
 10
103.7650069999999
 20
21.21656499999999
 30
0.0
  0
POINT
  5
B57F
330
B574
100
AcDbEntity
  8
Defpoints
 62
     0
100
AcDbPoint
 10
105.2650069999999
 20
23.916562
 30
0.0
  0
POINT
  5
B580
330
B574
100
AcDbEntity
  8
Defpoints
 62
     0
100
AcDbPoint
 10
114.2650069999999
 20
23.916562
 30
0.0
  0
ENDBLK
  5
B581
330
B574
100
AcDbEntity
  8
0
100
AcDbBlockEnd
  0
BLOCK
  5
B583
330
B582
100
AcDbEntity
  8
0
100
AcDbBlockBegin
  2
*D11
 70
     1
 10
0.0
 20
0.0
 30
0.0
  3
*D11
  1

  0
LINE
  5
B584
330
B582
100
AcDbEntity
  8
AM_5
370
    -2
100
AcDbLine
 10
106.2650069999999
 20
16.21656499999999
 30
0.0
 11
124.2650069999999
 21
16.21656499999998
 31
0.0
  0
LINE
  5
B585
330
B582
100
AcDbEntity
  8
AM_5
370
    -2
100
AcDbLine
 10
106.2650069999999
 20
23.916562
 30
0.0
 11
124.2650069999999
 21
23.91656199999999
 31
0.0
  0
LINE
  5
B586
330
B582
100
AcDbEntity
  8
AM_5
370
    -2
100
AcDbLine
 10
123.265007
 20
16.21656499999998
 30
0.0
 11
123.265007
 21
23.91656199999999
 31
0.0
  0
LINE
  5
B587
330
B582
100
AcDbEntity
  8
AM_5
370
    -2
100
AcDbLine
 10
123.265007
 20
23.91656199999999
 30
0.0
 11
123.265007
 21
34.54989533333332
 31
0.0
  0
INSERT
  5
B588
330
B582
100
AcDbEntity
  8
AM_5
370
    -2
100
AcDbBlockReference
  2
_DOTSMALL
 10
123.265007
 20
16.21656499999998
 30
0.0
 41
2.5
 42
2.5
 43
2.5
 50
270.0
  0
INSERT
  5
B589
330
B582
100
AcDbEntity
  8
AM_5
370
    -2
100
AcDbBlockReference
  2
_DOTSMALL
 10
123.265007
 20
23.91656199999999
 30
0.0
 41
2.5
 42
2.5
 43
2.5
 50
90.0
  0
MTEXT
  5
B58A
330
B582
100
AcDbEntity
  8
AM_5
 62
     2
100
AcDbMText
 10
120.0150069999999
 20
30.48322866666668
 30
0.0
 40
3.5
 41
0.0
 71
     5
 72
     1
  1
\A1;7.7
 11
0.0000000000000001
 21
1.0
 31
0.0
 73
     1
 44
1.0
1001
ACAD
1000
MTEXTBEGIN
1070
    73
1070
     1
1070
    44
1040
1.0
1070
    74
1070
     0
1000
MTEXTEND
  0
POINT
  5
B58B
330
B582
100
AcDbEntity
  8
Defpoints
 62
     0
100
AcDbPoint
 10
105.2650069999999
 20
16.21656499999999
 30
0.0
  0
POINT
  5
B58C
330
B582
100
AcDbEntity
  8
Defpoints
 62
     0
100
AcDbPoint
 10
105.2650069999999
 20
23.916562
 30
0.0
  0
POINT
  5
B58D
330
B582
100
AcDbEntity
  8
Defpoints
 62
     0
100
AcDbPoint
 10
123.265007
 20
23.91656199999999
 30
0.0
  0
ENDBLK
  5
B58E
330
B582
100
AcDbEntity
  8
0
100
AcDbBlockEnd
  0
BLOCK
  5
B590
330
B58F
100
AcDbEntity
  8
0
100
AcDbBlockBegin
  2
*D12
 70
     1
 10
0.0
 20
0.0
 30
0.0
  3
*D12
  1

  0
LINE
  5
B591
330
B58F
100
AcDbEntity
  8
AM_5
370
    -2
100
AcDbLine
 10
60.26500099999998
 20
16.21656499999999
 30
0.0
 11
45.26500109999997
 21
16.21656499999999
 31
0.0
  0
LINE
  5
B592
330
B58F
100
AcDbEntity
  8
AM_5
370
    -2
100
AcDbLine
 10
55.76501449999998
 20
36.21654199999999
 30
0.0
 11
45.26500109999997
 21
36.216542
 31
0.0
  0
LINE
  5
B593
330
B58F
100
AcDbEntity
  8
AM_5
370
    -2
100
AcDbLine
 10
46.26500109999997
 20
16.21656499999999
 30
0.0
 11
46.26500109999997
 21
36.216542
 31
0.0
  0
INSERT
  5
B594
330
B58F
100
AcDbEntity
  8
AM_5
370
    -2
100
AcDbBlockReference
  2
_DOTSMALL
 10
46.26500109999997
 20
16.21656499999999
 30
0.0
 41
2.5
 42
2.5
 43
2.5
 50
270.0
  0
INSERT
  5
B595
330
B58F
100
AcDbEntity
  8
AM_5
370
    -2
100
AcDbBlockReference
  2
_DOTSMALL
 10
46.26500109999997
 20
36.216542
 30
0.0
 41
2.5
 42
2.5
 43
2.5
 50
90.0
  0
MTEXT
  5
B596
330
B58F
100
AcDbEntity
  8
AM_5
 62
     2
100
AcDbMText
 10
43.01500109999997
 20
26.2165535
 30
0.0
 40
3.5
 41
0.0
 71
     5
 72
     1
  1
\A1;20
 11
0.0000000000000001
 21
1.0
 31
0.0
 73
     1
 44
1.0
1001
ACAD
1000
MTEXTBEGIN
1070
    73
1070
     1
1070
    44
1040
1.0
1070
    74
1070
     0
1000
MTEXTEND
  0
POINT
  5
B597
330
B58F
100
AcDbEntity
  8
Defpoints
 62
     0
100
AcDbPoint
 10
61.26500099999998
 20
16.21656499999999
 30
0.0
  0
POINT
  5
B598
330
B58F
100
AcDbEntity
  8
Defpoints
 62
     0
100
AcDbPoint
 10
56.76501449999998
 20
36.21654199999999
 30
0.0
  0
POINT
  5
B599
330
B58F
100
AcDbEntity
  8
Defpoints
 62
     0
100
AcDbPoint
 10
46.26500109999997
 20
36.216542
 30
0.0
  0
ENDBLK
  5
B59A
330
B58F
100
AcDbEntity
  8
0
100
AcDbBlockEnd
  0
BLOCK
  5
B6C3
330
B6B9
100
AcDbEntity
  8
0
100
AcDbBlockBegin
  2
*D14
 70
     1
 10
0.0
 20
0.0
 30
0.0
  3
*D14
  1

  0
LINE
  5
B828
330
B6B9
100
AcDbEntity
  8
AM_5
100
AcDbLine
 10
188.9389365320829
 20
119.2152913298686
 30
0.0
 11
188.9389365320829
 21
128.2152913298686
 31
0.0
  0
LINE
  5
B829
330
B6B9
100
AcDbEntity
  8
AM_5
100
AcDbLine
 10
148.2389385320829
 20
119.2152913298686
 30
0.0
 11
148.2389385320829
 21
128.2152913298686
 31
0.0
  0
LINE
  5
B82A
330
B6B9
100
AcDbEntity
  8
AM_5
100
AcDbLine
 10
188.9389365320829
 20
127.2152913298686
 30
0.0
 11
148.2389385320829
 21
127.2152913298686
 31
0.0
  0
INSERT
  5
B82B
330
B6B9
100
AcDbEntity
  8
AM_5
100
AcDbBlockReference
  2
_DOTSMALL
 10
188.9389365320829
 20
127.2152913298686
 30
0.0
  0
INSERT
  5
B82C
330
B6B9
100
AcDbEntity
  8
AM_5
100
AcDbBlockReference
  2
_DOTSMALL
 10
148.2389385320829
 20
127.2152913298686
 30
0.0
 50
180.0
  0
MTEXT
  5
B82D
330
B6B9
100
AcDbEntity
  8
AM_5
 62
     2
100
AcDbMText
 10
168.5889375320829
 20
130.3152913298686
 30
0.0
 40
3.200000000000001
 41
0.0
 71
     5
 72
     1
  1
40.7
 73
     1
 44
1.0
1001
ACAD
1000
MTEXTBEGIN
1070
    73
1070
     1
1070
    44
1040
1.0
1070
    74
1070
     0
1000
MTEXTEND
  0
POINT
  5
B82E
330
B6B9
100
AcDbEntity
  8
Defpoints
 62
     0
100
AcDbPoint
 10
188.9389365320829
 20
118.2152913298686
 30
0.0
  0
POINT
  5
B82F
330
B6B9
100
AcDbEntity
  8
Defpoints
 62
     0
100
AcDbPoint
 10
148.2389385320829
 20
118.2152913298686
 30
0.0
  0
POINT
  5
B830
330
B6B9
100
AcDbEntity
  8
Defpoints
 62
     0
100
AcDbPoint
 10
148.2389385320829
 20
127.2152913298686
 30
0.0
  0
ENDBLK
  5
B6C4
330
B6B9
100
AcDbEntity
  8
0
100
AcDbBlockEnd
  0
BLOCK
  5
B6CF
330
B6C5
100
AcDbEntity
  8
0
100
AcDbBlockBegin
  2
*D15
 70
     1
 10
0.0
 20
0.0
 30
0.0
  3
*D15
  1

  0
LINE
  5
B831
330
B6C5
100
AcDbEntity
  8
AM_5
100
AcDbLine
 10
190.5889385320829
 20
119.2152913298686
 30
0.0
 11
190.5889385320829
 21
137.2152913298686
 31
0.0
  0
LINE
  5
B832
330
B6C5
100
AcDbEntity
  8
AM_5
100
AcDbLine
 10
146.5889365320829
 20
119.2152913298686
 30
0.0
 11
146.5889365320829
 21
137.2152913298686
 31
0.0
  0
LINE
  5
B833
330
B6C5
100
AcDbEntity
  8
AM_5
100
AcDbLine
 10
190.5889385320829
 20
136.2152913298686
 30
0.0
 11
146.5889365320829
 21
136.2152913298686
 31
0.0
  0
INSERT
  5
B834
330
B6C5
100
AcDbEntity
  8
AM_5
100
AcDbBlockReference
  2
_DOTSMALL
 10
190.5889385320829
 20
136.2152913298686
 30
0.0
  0
INSERT
  5
B835
330
B6C5
100
AcDbEntity
  8
AM_5
100
AcDbBlockReference
  2
_DOTSMALL
 10
146.5889365320829
 20
136.2152913298686
 30
0.0
 50
180.0
  0
MTEXT
  5
B836
330
B6C5
100
AcDbEntity
  8
AM_5
 62
     2
100
AcDbMText
 10
168.5889375320829
 20
139.3152913298686
 30
0.0
 40
3.200000000000001
 41
0.0
 71
     5
 72
     1
  1
44
 73
     1
 44
1.0
1001
ACAD
1000
MTEXTBEGIN
1070
    73
1070
     1
1070
    44
1040
1.0
1070
    74
1070
     0
1000
MTEXTEND
  0
POINT
  5
B837
330
B6C5
100
AcDbEntity
  8
Defpoints
 62
     0
100
AcDbPoint
 10
190.5889385320829
 20
118.2152913298686
 30
0.0
  0
POINT
  5
B838
330
B6C5
100
AcDbEntity
  8
Defpoints
 62
     0
100
AcDbPoint
 10
146.5889365320829
 20
118.2152913298686
 30
0.0
  0
POINT
  5
B839
330
B6C5
100
AcDbEntity
  8
Defpoints
 62
     0
100
AcDbPoint
 10
146.5889365320829
 20
136.2152913298686
 30
0.0
  0
ENDBLK
  5
B6D0
330
B6C5
100
AcDbEntity
  8
0
100
AcDbBlockEnd
  0
BLOCK
  5
B6DD
330
B6D1
100
AcDbEntity
  8
0
100
AcDbBlockBegin
  2
*D16
 70
     1
 10
0.0
 20
0.0
 30
0.0
  3
*D16
  1

  0
LINE
  5
B83A
330
B6D1
100
AcDbEntity
  8
AM_5
100
AcDbLine
 10
147.0889325320829
 20
113.2152913298686
 30
0.0
 11
136.5889325320829
 21
113.2152913298686
 31
0.0
  0
LINE
  5
B83B
330
B6D1
100
AcDbEntity
  8
AM_5
100
AcDbLine
 10
145.5889325320829
 20
110.5152943298686
 30
0.0
 11
136.5889325320829
 21
110.5152943298686
 31
0.0
  0
LINE
  5
B83C
330
B6D1
100
AcDbEntity
  8
AM_5
100
AcDbLine
 10
137.5889325320829
 20
113.2152913298686
 30
0.0
 11
137.5889325320829
 21
114.2152913298686
 31
0.0
  0
LINE
  5
B83D
330
B6D1
100
AcDbEntity
  8
AM_5
100
AcDbLine
 10
137.5889325320829
 20
110.5152943298686
 30
0.0
 11
137.5889325320829
 21
100.8219609965353
 31
0.0
  0
LINE
  5
B83E
330
B6D1
100
AcDbEntity
  8
AM_5
100
AcDbLine
 10
137.5889325320829
 20
113.2152913298686
 30
0.0
 11
137.5889325320829
 21
110.5152943298686
 31
0.0
  0
INSERT
  5
B83F
330
B6D1
100
AcDbEntity
  8
AM_5
100
AcDbBlockReference
  2
_DOTSMALL
 10
137.5889325320829
 20
113.2152913298686
 30
0.0
 50
270.0
  0
INSERT
  5
B840
330
B6D1
100
AcDbEntity
  8
AM_5
100
AcDbBlockReference
  2
_DOTSMALL
 10
137.5889325320829
 20
110.5152943298686
 30
0.0
 50
90.0
  0
MTEXT
  5
B841
330
B6D1
100
AcDbEntity
  8
AM_5
 62
     2
100
AcDbMText
 10
134.4889325320829
 20
104.668627663202
 30
0.0
 40
3.200000000000001
 41
0.0
 71
     5
 72
     1
  1
2.7
 11
0.0000000000000001
 21
1.0
 31
0.0
 73
     1
 44
1.0
1001
ACAD
1000
MTEXTBEGIN
1070
    73
1070
     1
1070
    44
1040
1.0
1070
    74
1070
     0
1000
MTEXTEND
  0
POINT
  5
B842
330
B6D1
100
AcDbEntity
  8
Defpoints
 62
     0
100
AcDbPoint
 10
148.0889325320829
 20
113.2152913298686
 30
0.0
  0
POINT
  5
B843
330
B6D1
100
AcDbEntity
  8
Defpoints
 62
     0
100
AcDbPoint
 10
146.5889325320829
 20
110.5152943298686
 30
0.0
  0
POINT
  5
B844
330
B6D1
100
AcDbEntity
  8
Defpoints
 62
     0
100
AcDbPoint
 10
137.5889325320829
 20
110.5152943298686
 30
0.0
  0
ENDBLK
  5
B6DE
330
B6D1
100
AcDbEntity
  8
0
100
AcDbBlockEnd
  0
BLOCK
  5
B6E9
330
B6DF
100
AcDbEntity
  8
0
100
AcDbBlockBegin
  2
*D17
 70
     1
 10
0.0
 20
0.0
 30
0.0
  3
*D17
  1

  0
LINE
  5
B845
330
B6DF
100
AcDbEntity
  8
AM_5
100
AcDbLine
 10
145.5889325320829
 20
118.2152913298686
 30
0.0
 11
127.5889325320829
 21
118.2152913298686
 31
0.0
  0
LINE
  5
B846
330
B6DF
100
AcDbEntity
  8
AM_5
100
AcDbLine
 10
145.5889325320829
 20
110.5152943298686
 30
0.0
 11
127.5889325320829
 21
110.5152943298686
 31
0.0
  0
LINE
  5
B847
330
B6DF
100
AcDbEntity
  8
AM_5
100
AcDbLine
 10
128.5889325320829
 20
118.2152913298686
 30
0.0
 11
128.5889325320829
 21
110.5152943298686
 31
0.0
  0
INSERT
  5
B848
330
B6DF
100
AcDbEntity
  8
AM_5
100
AcDbBlockReference
  2
_DOTSMALL
 10
128.5889325320829
 20
118.2152913298686
 30
0.0
 50
90.0
  0
INSERT
  5
B849
330
B6DF
100
AcDbEntity
  8
AM_5
100
AcDbBlockReference
  2
_DOTSMALL
 10
128.5889325320829
 20
110.5152943298686
 30
0.0
 50
270.0
  0
MTEXT
  5
B84A
330
B6DF
100
AcDbEntity
  8
AM_5
 62
     2
100
AcDbMText
 10
125.4889325320829
 20
114.3652928298686
 30
0.0
 40
3.200000000000001
 41
0.0
 71
     5
 72
     1
  1
7.7
 11
0.0000000000000001
 21
1.0
 31
0.0
 73
     1
 44
1.0
1001
ACAD
1000
MTEXTBEGIN
1070
    73
1070
     1
1070
    44
1040
1.0
1070
    74
1070
     0
1000
MTEXTEND
  0
POINT
  5
B84B
330
B6DF
100
AcDbEntity
  8
Defpoints
 62
     0
100
AcDbPoint
 10
146.5889325320829
 20
118.2152913298686
 30
0.0
  0
POINT
  5
B84C
330
B6DF
100
AcDbEntity
  8
Defpoints
 62
     0
100
AcDbPoint
 10
146.5889325320829
 20
110.5152943298686
 30
0.0
  0
POINT
  5
B84D
330
B6DF
100
AcDbEntity
  8
Defpoints
 62
     0
100
AcDbPoint
 10
128.5889325320829
 20
110.5152943298686
 30
0.0
  0
ENDBLK
  5
B6EA
330
B6DF
100
AcDbEntity
  8
0
100
AcDbBlockEnd
  0
BLOCK
  5
B6F5
330
B6EB
100
AcDbEntity
  8
0
100
AcDbBlockBegin
  2
*D18
 70
     1
 10
0.0
 20
0.0
 30
0.0
  3
*D18
  1

  0
LINE
  5
B84E
330
B6EB
100
AcDbEntity
  8
AM_5
100
AcDbLine
 10
191.5889385320829
 20
118.2152913298686
 30
0.0
 11
206.5889384320829
 21
118.2152913298686
 31
0.0
  0
LINE
  5
B84F
330
B6EB
100
AcDbEntity
  8
AM_5
100
AcDbLine
 10
196.0889250320829
 20
98.21531432986866
 30
0.0
 11
206.5889384320829
 21
98.21531432986866
 31
0.0
  0
LINE
  5
B850
330
B6EB
100
AcDbEntity
  8
AM_5
100
AcDbLine
 10
205.5889384320829
 20
118.2152913298686
 30
0.0
 11
205.5889384320829
 21
98.21531432986866
 31
0.0
  0
INSERT
  5
B851
330
B6EB
100
AcDbEntity
  8
AM_5
100
AcDbBlockReference
  2
_DOTSMALL
 10
205.5889384320829
 20
118.2152913298686
 30
0.0
 50
90.0
  0
INSERT
  5
B852
330
B6EB
100
AcDbEntity
  8
AM_5
100
AcDbBlockReference
  2
_DOTSMALL
 10
205.5889384320829
 20
98.21531432986866
 30
0.0
 50
270.0
  0
MTEXT
  5
B853
330
B6EB
100
AcDbEntity
  8
AM_5
 62
     2
100
AcDbMText
 10
202.4889384320829
 20
108.2153028298687
 30
0.0
 40
3.200000000000001
 41
0.0
 71
     5
 72
     1
  1
20
 11
0.0000000000000001
 21
1.0
 31
0.0
 73
     1
 44
1.0
1001
ACAD
1000
MTEXTBEGIN
1070
    73
1070
     1
1070
    44
1040
1.0
1070
    74
1070
     0
1000
MTEXTEND
  0
POINT
  5
B854
330
B6EB
100
AcDbEntity
  8
Defpoints
 62
     0
100
AcDbPoint
 10
190.5889385320829
 20
118.2152913298686
 30
0.0
  0
POINT
  5
B855
330
B6EB
100
AcDbEntity
  8
Defpoints
 62
     0
100
AcDbPoint
 10
195.0889250320829
 20
98.21531432986866
 30
0.0
  0
POINT
  5
B856
330
B6EB
100
AcDbEntity
  8
Defpoints
 62
     0
100
AcDbPoint
 10
205.5889384320829
 20
98.21531432986866
 30
0.0
  0
ENDBLK
  5
B6F6
330
B6EB
100
AcDbEntity
  8
0
100
AcDbBlockEnd
  0
BLOCK
  5
B862
330
B858
100
AcDbEntity
  8
0
100
AcDbBlockBegin
  2
*D19
 70
     1
 10
0.0
 20
0.0
 30
0.0
  3
*D19
  1

  0
LINE
  5
B92F
330
B858
100
AcDbEntity
  8
AM_5
100
AcDbLine
 10
148.2389345320829
 20
103.9666297331128
 30
0.0
 11
148.2389345320829
 21
112.9666297331129
 31
0.0
  0
LINE
  5
B930
330
B858
100
AcDbEntity
  8
AM_5
100
AcDbLine
 10
188.9389365320829
 20
103.9666297331128
 30
0.0
 11
188.9389365320829
 21
112.9666297331129
 31
0.0
  0
LINE
  5
B931
330
B858
100
AcDbEntity
  8
AM_5
100
AcDbLine
 10
149.2389345320829
 20
111.9666297331129
 30
0.0
 11
187.9389365320829
 21
111.9666297331129
 31
0.0
  0
INSERT
  5
B932
330
B858
100
AcDbEntity
  8
AM_5
100
AcDbBlockReference
  2
_Dot
 10
148.2389345320829
 20
111.9666297331129
 30
0.0
 50
180.0
  0
INSERT
  5
B933
330
B858
100
AcDbEntity
  8
AM_5
100
AcDbBlockReference
  2
_Dot
 10
188.9389365320829
 20
111.9666297331129
 30
0.0
  0
MTEXT
  5
B934
330
B858
100
AcDbEntity
  8
AM_5
 62
     2
100
AcDbMText
 10
168.5889355320828
 20
115.0666297331129
 30
0.0
 40
3.200000000000001
 41
0.0
 71
     5
 72
     1
  1
40.7
 73
     1
 44
1.0
1001
ACAD
1000
MTEXTBEGIN
1070
    73
1070
     1
1070
    44
1040
1.0
1070
    74
1070
     0
1000
MTEXTEND
  0
POINT
  5
B935
330
B858
100
AcDbEntity
  8
Defpoints
 62
     0
100
AcDbPoint
 10
148.2389345320829
 20
102.9666297331128
 30
0.0
  0
POINT
  5
B936
330
B858
100
AcDbEntity
  8
Defpoints
 62
     0
100
AcDbPoint
 10
188.9389365320829
 20
102.9666297331128
 30
0.0
  0
POINT
  5
B937
330
B858
100
AcDbEntity
  8
Defpoints
 62
     0
100
AcDbPoint
 10
188.9389365320829
 20
111.9666297331129
 30
0.0
  0
ENDBLK
  5
B863
330
B858
100
AcDbEntity
  8
0
100
AcDbBlockEnd
  0
BLOCK
  5
B878
330
B86E
100
AcDbEntity
  8
0
100
AcDbBlockBegin
  2
*D20
 70
     1
 10
0.0
 20
0.0
 30
0.0
  3
*D20
  1

  0
LINE
  5
B938
330
B86E
100
AcDbEntity
  8
AM_5
100
AcDbLine
 10
146.5889325320829
 20
103.9666297331128
 30
0.0
 11
146.5889325320829
 21
121.9666297331128
 31
0.0
  0
LINE
  5
B939
330
B86E
100
AcDbEntity
  8
AM_5
100
AcDbLine
 10
190.5889385320829
 20
103.9666297331128
 30
0.0
 11
190.5889385320829
 21
121.9666297331128
 31
0.0
  0
LINE
  5
B93A
330
B86E
100
AcDbEntity
  8
AM_5
100
AcDbLine
 10
147.5889325320829
 20
120.9666297331128
 30
0.0
 11
189.5889385320829
 21
120.9666297331128
 31
0.0
  0
INSERT
  5
B93B
330
B86E
100
AcDbEntity
  8
AM_5
100
AcDbBlockReference
  2
_Dot
 10
146.5889325320829
 20
120.9666297331128
 30
0.0
 50
180.0
  0
INSERT
  5
B93C
330
B86E
100
AcDbEntity
  8
AM_5
100
AcDbBlockReference
  2
_Dot
 10
190.5889385320829
 20
120.9666297331128
 30
0.0
  0
MTEXT
  5
B93D
330
B86E
100
AcDbEntity
  8
AM_5
 62
     2
100
AcDbMText
 10
168.5889355320829
 20
124.0666297331128
 30
0.0
 40
3.200000000000001
 41
0.0
 71
     5
 72
     1
  1
44
 73
     1
 44
1.0
1001
ACAD
1000
MTEXTBEGIN
1070
    73
1070
     1
1070
    44
1040
1.0
1070
    74
1070
     0
1000
MTEXTEND
  0
POINT
  5
B93E
330
B86E
100
AcDbEntity
  8
Defpoints
 62
     0
100
AcDbPoint
 10
146.5889325320829
 20
102.9666297331128
 30
0.0
  0
POINT
  5
B93F
330
B86E
100
AcDbEntity
  8
Defpoints
 62
     0
100
AcDbPoint
 10
190.5889385320829
 20
102.9666297331128
 30
0.0
  0
POINT
  5
B940
330
B86E
100
AcDbEntity
  8
Defpoints
 62
     0
100
AcDbPoint
 10
190.5889385320829
 20
120.9666297331128
 30
0.0
  0
ENDBLK
  5
B879
330
B86E
100
AcDbEntity
  8
0
100
AcDbBlockEnd
  0
BLOCK
  5
B88E
330
B884
100
AcDbEntity
  8
0
100
AcDbBlockBegin
  2
*D21
 70
     1
 10
0.0
 20
0.0
 30
0.0
  3
*D21
  1

  0
LINE
  5
B941
330
B884
100
AcDbEntity
  8
AM_5
100
AcDbLine
 10
191.5889385320829
 20
102.9666297331128
 30
0.0
 11
206.5889384320829
 21
102.9666297331128
 31
0.0
  0
LINE
  5
B942
330
B884
100
AcDbEntity
  8
AM_5
100
AcDbLine
 10
196.0889384320829
 20
82.96662973311283
 30
0.0
 11
206.5889384320829
 21
82.96662973311283
 31
0.0
  0
LINE
  5
B943
330
B884
100
AcDbEntity
  8
AM_5
100
AcDbLine
 10
205.5889384320829
 20
101.9666297331128
 30
0.0
 11
205.5889384320829
 21
83.96662973311283
 31
0.0
  0
INSERT
  5
B944
330
B884
100
AcDbEntity
  8
AM_5
100
AcDbBlockReference
  2
_Dot
 10
205.5889384320829
 20
102.9666297331128
 30
0.0
 50
90.0
  0
INSERT
  5
B945
330
B884
100
AcDbEntity
  8
AM_5
100
AcDbBlockReference
  2
_Dot
 10
205.5889384320829
 20
82.96662973311283
 30
0.0
 50
270.0
  0
MTEXT
  5
B946
330
B884
100
AcDbEntity
  8
AM_5
 62
     2
100
AcDbMText
 10
202.4889384320829
 20
92.96662973311285
 30
0.0
 40
3.200000000000001
 41
0.0
 71
     5
 72
     1
  1
20
 11
0.0000000000000001
 21
1.0
 31
0.0
 73
     1
 44
1.0
1001
ACAD
1000
MTEXTBEGIN
1070
    73
1070
     1
1070
    44
1040
1.0
1070
    74
1070
     0
1000
MTEXTEND
  0
POINT
  5
B947
330
B884
100
AcDbEntity
  8
Defpoints
 62
     0
100
AcDbPoint
 10
190.5889385320829
 20
102.9666297331128
 30
0.0
  0
POINT
  5
B948
330
B884
100
AcDbEntity
  8
Defpoints
 62
     0
100
AcDbPoint
 10
195.0889384320829
 20
82.96662973311283
 30
0.0
  0
POINT
  5
B949
330
B884
100
AcDbEntity
  8
Defpoints
 62
     0
100
AcDbPoint
 10
205.5889384320829
 20
82.96662973311283
 30
0.0
  0
ENDBLK
  5
B88F
330
B884
100
AcDbEntity
  8
0
100
AcDbBlockEnd
  0
BLOCK
  5
B8A5
330
B89A
100
AcDbEntity
  8
0
100
AcDbBlockBegin
  2
*D22
 70
     1
 10
0.0
 20
0.0
 30
0.0
  3
*D22
  1

  0
LINE
  5
B94A
330
B89A
100
AcDbEntity
  8
AM_5
100
AcDbLine
 10
145.5889325320829
 20
95.26663273311283
 30
0.0
 11
127.5889325320828
 21
95.26663273311283
 31
0.0
  0
LINE
  5
B94B
330
B89A
100
AcDbEntity
  8
AM_5
100
AcDbLine
 10
145.5889325320829
 20
102.9666297331128
 30
0.0
 11
127.5889325320828
 21
102.9666297331128
 31
0.0
  0
LINE
  5
B94C
330
B89A
100
AcDbEntity
  8
AM_5
100
AcDbLine
 10
128.5889325320828
 20
96.26663273311283
 30
0.0
 11
128.5889325320828
 21
101.9666297331128
 31
0.0
  0
INSERT
  5
B94D
330
B89A
100
AcDbEntity
  8
AM_5
100
AcDbBlockReference
  2
_Dot
 10
128.5889325320828
 20
95.26663273311283
 30
0.0
 50
270.0
  0
INSERT
  5
B94E
330
B89A
100
AcDbEntity
  8
AM_5
100
AcDbBlockReference
  2
_Dot
 10
128.5889325320828
 20
102.9666297331128
 30
0.0
 50
90.0
  0
MTEXT
  5
B94F
330
B89A
100
AcDbEntity
  8
AM_5
 62
     2
100
AcDbMText
 10
125.4889325320828
 20
99.11663123311285
 30
0.0
 40
3.200000000000001
 41
0.0
 71
     5
 72
     1
  1
7.7
 11
0.0000000000000001
 21
1.0
 31
0.0
 73
     1
 44
1.0
1001
ACAD
1000
MTEXTBEGIN
1070
    73
1070
     1
1070
    44
1040
1.0
1070
    74
1070
     0
1000
MTEXTEND
  0
POINT
  5
B950
330
B89A
100
AcDbEntity
  8
Defpoints
 62
     0
100
AcDbPoint
 10
146.5889325320829
 20
95.26663273311283
 30
0.0
  0
POINT
  5
B951
330
B89A
100
AcDbEntity
  8
Defpoints
 62
     0
100
AcDbPoint
 10
146.5889325320829
 20
102.9666297331128
 30
0.0
  0
POINT
  5
B952
330
B89A
100
AcDbEntity
  8
Defpoints
 62
     0
100
AcDbPoint
 10
128.5889325320828
 20
102.9666297331128
 30
0.0
  0
ENDBLK
  5
B8A6
330
B89A
100
AcDbEntity
  8
0
100
AcDbBlockEnd
  0
BLOCK
  5
B8BD
330
B8B1
100
AcDbEntity
  8
0
100
AcDbBlockBegin
  2
*D23
 70
     1
 10
0.0
 20
0.0
 30
0.0
  3
*D23
  1

  0
LINE
  5
B953
330
B8B1
100
AcDbEntity
  8
AM_5
100
AcDbLine
 10
147.0889365320829
 20
97.96662973311283
 30
0.0
 11
136.5889325320828
 21
97.96662973311283
 31
0.0
  0
LINE
  5
B954
330
B8B1
100
AcDbEntity
  8
AM_5
100
AcDbLine
 10
145.5889325320829
 20
95.26663273311283
 30
0.0
 11
136.5889325320828
 21
95.26663273311283
 31
0.0
  0
LINE
  5
B955
330
B8B1
100
AcDbEntity
  8
AM_5
100
AcDbLine
 10
137.5889325320828
 20
98.96662973311283
 30
0.0
 11
137.5889325320828
 21
99.96662973311282
 31
0.0
  0
LINE
  5
B956
330
B8B1
100
AcDbEntity
  8
AM_5
100
AcDbLine
 10
137.5889325320828
 20
94.26663273311282
 30
0.0
 11
137.5889325320828
 21
85.5732993997795
 31
0.0
  0
LINE
  5
B957
330
B8B1
100
AcDbEntity
  8
AM_5
100
AcDbLine
 10
137.5889325320828
 20
97.96662973311283
 30
0.0
 11
137.5889325320828
 21
95.26663273311283
 31
0.0
  0
INSERT
  5
B958
330
B8B1
100
AcDbEntity
  8
AM_5
100
AcDbBlockReference
  2
_Dot
 10
137.5889325320828
 20
97.96662973311283
 30
0.0
 50
270.0
  0
INSERT
  5
B959
330
B8B1
100
AcDbEntity
  8
AM_5
100
AcDbBlockReference
  2
_Dot
 10
137.5889325320828
 20
95.26663273311283
 30
0.0
 50
90.0
  0
MTEXT
  5
B95A
330
B8B1
100
AcDbEntity
  8
AM_5
 62
     2
100
AcDbMText
 10
134.4889325320828
 20
89.41996606644618
 30
0.0
 40
3.200000000000001
 41
0.0
 71
     5
 72
     1
  1
2.7
 11
0.0000000000000001
 21
1.0
 31
0.0
 73
     1
 44
1.0
1001
ACAD
1000
MTEXTBEGIN
1070
    73
1070
     1
1070
    44
1040
1.0
1070
    74
1070
     0
1000
MTEXTEND
  0
POINT
  5
B95B
330
B8B1
100
AcDbEntity
  8
Defpoints
 62
     0
100
AcDbPoint
 10
148.0889365320829
 20
97.96662973311283
 30
0.0
  0
POINT
  5
B95C
330
B8B1
100
AcDbEntity
  8
Defpoints
 62
     0
100
AcDbPoint
 10
146.5889325320829
 20
95.26663273311283
 30
0.0
  0
POINT
  5
B95D
330
B8B1
100
AcDbEntity
  8
Defpoints
 62
     0
100
AcDbPoint
 10
137.5889325320828
 20
95.26663273311283
 30
0.0
  0
ENDBLK
  5
B8BE
330
B8B1
100
AcDbEntity
  8
0
100
AcDbBlockEnd
  0
BLOCK
  5
B96E
330
B967
100
AcDbEntity
  8
0
100
AcDbBlockBegin
  2
*S25
 70
     1
 10
0.0
 20
0.0
 30
0.0
  3
*S25
  1

  0
LINE
  5
B968
330
B967
100
AcDbEntity
  8
AM_5
 62
     3
100
AcDbLine
 10
167.0124453580085
 20
34.3804562741402
 30
0.0
 11
182.7991120246752
 21
34.3804562741402
 31
0.0
  0
LINE
  5
B969
330
B967
100
AcDbEntity
  8
AM_5
  6
寸法線
 62
     3
100
AcDbLine
 10
182.7991120246752
 20
34.3804562741402
 30
0.0
 11
189.7082417672966
 21
43.2750233858891
 31
0.0
  0
LINE
  5
B96A
330
B967
100
AcDbEntity
  8
AM_5
  6
Continuous
 62
     3
100
AcDbLine
 10
189.7082417672966
 20
43.2750233858891
 30
0.0
 11
190.935141688892
 21
44.85449056895721
 31
0.0
  0
LINE
  5
B96B
330
B967
100
AcDbEntity
  8
AM_5
  6
Continuous
 62
     3
100
AcDbLine
 10
190.1314587196312
 20
42.94627654568654
 30
0.0
 11
190.935141688892
 21
44.85449056895721
 31
0.0
  0
LINE
  5
B96C
330
B967
100
AcDbEntity
  8
AM_5
  6
Continuous
 62
     3
100
AcDbLine
 10
190.935141688892
 20
44.85449056895721
 30
0.0
 11
189.2850248149619
 21
43.60377022609167
 31
0.0
  0
MTEXT
  5
B96D
330
B967
100
AcDbEntity
  8
AM_5
 62
     2
100
AcDbMText
 10
179.5991120246752
 20
35.9804562741402
 30
0.0
 40
3.2
 41
0.0
 71
     9
 72
     5
  1
LRB-13
 73
     1
 44
1.0
1001
ACAD
1000
MTEXTBEGIN
1070
    73
1070
     1
1070
    44
1040
1.0
1070
    74
1070
     0
1000
MTEXTEND
  0
ENDBLK
  5
B96F
330
B967
100
AcDbEntity
  8
0
100
AcDbBlockEnd
  0
ENDSEC
  0
SECTION
  2
ENTITIES
  0
LINE
  5
B63F
330
1F
100
AcDbEntity
  8
AM_1
100
AcDbLine
 10
273.0000001690608
 20
171.0000001194944
 30
0.0
 11
273.0000001690608
 21
0.0000001194944161
 31
0.0
  0
LINE
  5
B640
330
1F
100
AcDbEntity
  8
AM_1
100
AcDbLine
 10
0.0000001690607405
 20
0.0000001194944161
 30
0.0
 11
273.0000001690608
 21
0.0000001194944161
 31
0.0
  0
LINE
  5
B641
330
1F
100
AcDbEntity
  8
AM_1
100
AcDbLine
 10
0.0000001690607405
 20
171.0000001194944
 30
0.0
 11
0.0000001690607405
 21
0.0000001194944161
 31
0.0
  0
LINE
  5
B642
330
1F
100
AcDbEntity
  8
AM_1
100
AcDbLine
 10
0.0000001690607405
 20
171.0000001194944
 30
0.0
 11
273.0000001690608
 21
171.0000001194944
 31
0.0
  0
LINE
  5
B643
330
1F
100
AcDbEntity
  8
AM_1
100
AcDbLine
 10
0.0000001690607405
 20
171.0000001194944
 30
0.0
 11
0.0000001690607405
 21
91.00000011949441
 31
0.0
  0
LINE
  5
B644
330
1F
100
AcDbEntity
  8
AM_1
100
AcDbLine
 10
0.0000001690607405
 20
171.0000001194944
 30
0.0
 11
110.0000001690607
 21
171.0000001194944
 31
0.0
  0
LINE
  5
B645
330
1F
100
AcDbEntity
  8
AM_2
100
AcDbLine
 10
20.00000016906074
 20
171.0000001194944
 30
0.0
 11
20.00000016906074
 21
90.99999711949442
 31
0.0
  0
LINE
  5
B646
330
1F
100
AcDbEntity
  8
AM_0
100
AcDbLine
 10
0.0000001690607405
 20
163.0000001194944
 30
0.0
 11
110.0000001690607
 21
163.0000001194944
 31
0.0
  0
LINE
  5
B647
330
1F
100
AcDbEntity
  8
AM_0
100
AcDbLine
 10
0.0000001690607405
 20
155.0000001194944
 30
0.0
 11
110.0000001690607
 21
155.0000001194944
 31
0.0
  0
LINE
  5
B648
330
1F
100
AcDbEntity
  8
AM_0
100
AcDbLine
 10
0.0000001690607405
 20
147.0000001194944
 30
0.0
 11
110.0000001690607
 21
147.0000001194944
 31
0.0
  0
LINE
  5
B649
330
1F
100
AcDbEntity
  8
AM_0
100
AcDbLine
 10
0.0000001690607405
 20
138.9999971194944
 30
0.0
 11
110.0000001690607
 21
138.9999971194944
 31
0.0
  0
LINE
  5
B64A
330
1F
100
AcDbEntity
  8
AM_2
100
AcDbLine
 10
20.00000016906074
 20
130.9999971194944
 30
0.0
 11
110.0000001690607
 21
130.9999971194944
 31
0.0
  0
LINE
  5
B64B
330
1F
100
AcDbEntity
  8
AM_2
100
AcDbLine
 10
20.00000016906074
 20
122.9999971194944
 30
0.0
 11
110.0000001690607
 21
122.9999971194944
 31
0.0
  0
LINE
  5
B64C
330
1F
100
AcDbEntity
  8
AM_0
100
AcDbLine
 10
0.0000001690607405
 20
114.9999971194944
 30
0.0
 11
110.0000001690607
 21
114.9999971194944
 31
0.0
  0
LINE
  5
B64D
330
1F
100
AcDbEntity
  8
AM_2
100
AcDbLine
 10
20.00000016906074
 20
106.9999971194944
 30
0.0
 11
110.0000001690607
 21
106.9999971194944
 31
0.0
  0
LINE
  5
B64E
330
1F
100
AcDbEntity
  8
AM_2
100
AcDbLine
 10
20.00000016906074
 20
98.99999711949442
 30
0.0
 11
110.0000001690607
 21
98.99999711949442
 31
0.0
  0
LINE
  5
B64F
330
1F
100
AcDbEntity
  8
AM_0
100
AcDbLine
 10
0.0000001690607405
 20
90.99999711949442
 30
0.0
 11
110.0000001690607
 21
90.99999711949442
 31
0.0
  0
LINE
  5
B650
330
1F
100
AcDbEntity
  8
AM_0
100
AcDbLine
 10
110.0000001690607
 20
171.0000001194944
 30
0.0
 11
110.0000001690607
 21
90.99999711949442
 31
0.0
  0
LINE
  5
B651
330
1F
100
AcDbEntity
  8
AM_0
100
AcDbLine
 10
196.5889384320829
 20
90.57432573311283
 30
0.0
 11
196.5889384320829
 21
84.46662973311282
 31
0.0
  0
LINE
  5
B652
330
1F
100
AcDbEntity
  8
AM_0
100
AcDbLine
 10
196.5889355320829
 20
90.57432573311283
 30
0.0
 11
190.5889365320829
 21
100.9666297331128
 31
0.0
  0
LINE
  5
B653
330
1F
100
AcDbEntity
  8
AM_0
100
AcDbLine
 10
192.5889385320829
 20
82.96662973311283
 30
0.0
 11
195.0889384320829
 21
82.96662973311283
 31
0.0
  0
LINE
  5
B654
330
1F
100
AcDbEntity
  8
AM_0
100
AcDbLine
 10
195.0889250320829
 20
82.96665273311282
 30
0.0
 11
196.5889222320829
 21
84.46664473311285
 31
0.0
  0
LINE
  5
B655
330
1F
100
AcDbEntity
  8
AM_0
100
AcDbLine
 10
194.5889385320829
 20
90.67132573311283
 30
0.0
 11
194.5889385320829
 21
84.26192473311283
 31
0.0
  0
LINE
  5
B656
330
1F
100
AcDbEntity
  8
AM_0
100
AcDbLine
 10
192.5889385320829
 20
90.96662973311282
 30
0.0
 11
192.5889385320829
 21
89.51663273311282
 31
0.0
  0
LINE
  5
B657
330
1F
100
AcDbEntity
  8
AM_0
100
AcDbLine
 10
194.5889365320829
 20
84.26191773311286
 30
0.0
 11
192.5889345320829
 21
85.41661873311284
 31
0.0
  0
LINE
  5
B658
330
1F
100
AcDbEntity
  8
AM_0
100
AcDbLine
 10
192.5889325320829
 20
89.51662473311285
 30
0.0
 11
194.5889335320829
 21
90.67132573311283
 31
0.0
  0
LINE
  5
B659
330
1F
100
AcDbEntity
  8
AM_0
100
AcDbLine
 10
192.5889385320829
 20
85.41663373311283
 30
0.0
 11
192.5889385320829
 21
82.96662973311283
 31
0.0
  0
LINE
  5
B65A
330
1F
100
AcDbEntity
  8
AM_0
100
AcDbLine
 10
190.5889385320829
 20
102.9666297331128
 30
0.0
 11
190.5889385320829
 21
100.9666297331128
 31
0.0
  0
LINE
  5
B65B
330
1F
100
AcDbEntity
  8
AM_0
100
AcDbLine
 10
187.5889385320829
 20
95.96662973311282
 30
0.0
 11
171.8889355320829
 21
95.96662973311282
 31
0.0
  0
LINE
  5
B65C
330
1F
100
AcDbEntity
  8
AM_0
100
AcDbLine
 10
189.0889385320829
 20
97.96662973311283
 30
0.0
 11
148.0889365320829
 21
97.96662973311283
 31
0.0
  0
LINE
  5
B65D
330
1F
100
AcDbEntity
  8
AM_0
100
AcDbLine
 10
188.9389365320829
 20
101.4666297331128
 30
0.0
 11
189.0889385320829
 21
101.4666297331128
 31
0.0
  0
LINE
  5
B65E
330
1F
100
AcDbEntity
  8
AM_0
100
AcDbLine
 10
188.9389365320829
 20
102.9666297331128
 30
0.0
 11
190.5889385320829
 21
102.9666297331128
 31
0.0
  0
LINE
  5
B65F
330
1F
100
AcDbEntity
  8
AM_0
100
AcDbLine
 10
189.0889385320829
 20
101.4666297331128
 30
0.0
 11
189.0889385320829
 21
97.96662973311283
 31
0.0
  0
LINE
  5
B660
330
1F
100
AcDbEntity
  8
AM_0
100
AcDbLine
 10
188.9389365320829
 20
102.9666297331128
 30
0.0
 11
188.9389365320829
 21
101.4666297331128
 31
0.0
  0
LINE
  5
B661
330
1F
100
AcDbEntity
  8
AM_0
100
AcDbLine
 10
146.5889325320829
 20
102.9666297331128
 30
0.0
 11
146.5889325320829
 21
95.26663273311283
 31
0.0
  0
LINE
  5
B662
330
1F
100
AcDbEntity
  8
AM_0
100
AcDbLine
 10
148.2389385320829
 20
102.9666297331128
 30
0.0
 11
146.5889365320829
 21
102.9666297331128
 31
0.0
  0
LINE
  5
B663
330
1F
100
AcDbEntity
  8
AM_0
100
AcDbLine
 10
148.2389345320829
 20
102.9666297331128
 30
0.0
 11
148.2389345320829
 21
101.4666297331128
 31
0.0
  0
LINE
  5
B664
330
1F
100
AcDbEntity
  8
AM_0
100
AcDbLine
 10
148.0889325320829
 20
101.4666297331128
 30
0.0
 11
148.0889325320829
 21
97.96662973311283
 31
0.0
  0
LINE
  5
B665
330
1F
100
AcDbEntity
  8
AM_0
100
AcDbLine
 10
148.2389385320829
 20
101.4666297331128
 30
0.0
 11
148.0889365320829
 21
101.4666297331128
 31
0.0
  0
LINE
  5
B666
330
1F
100
AcDbEntity
  8
AM_7
 48
0.8
100
AcDbLine
 10
168.5889365320829
 20
105.9666297331128
 30
0.0
 11
168.5889365320829
 21
88.69196373311282
 31
0.0
  0
LINE
  5
B667
330
1F
100
AcDbEntity
  8
AM_0
100
AcDbLine
 10
162.8889315320829
 20
95.96662973311282
 30
0.0
 11
162.7579235320829
 21
96.17359973311284
 31
0.0
  0
LINE
  5
B668
330
1F
100
AcDbEntity
  8
AM_0
100
AcDbLine
 10
162.2889485320829
 20
95.96662173311285
 30
0.0
 11
162.4199565320829
 21
96.17359173311283
 31
0.0
  0
LINE
  5
B669
330
1F
100
AcDbEntity
  8
AM_0
100
AcDbLine
 10
171.8889395320829
 20
95.96662973311282
 30
0.0
 11
171.7579315320829
 21
96.17359973311284
 31
0.0
  0
LINE
  5
B66A
330
1F
100
AcDbEntity
  8
AM_0
100
AcDbLine
 10
171.2889415320829
 20
95.96662973311282
 30
0.0
 11
171.4199535320829
 21
96.17359973311284
 31
0.0
  0
LINE
  5
B66B
330
1F
100
AcDbEntity
  8
AM_0
100
AcDbLine
 10
168.8889315320829
 20
95.96662973311282
 30
0.0
 11
168.7579235320829
 21
96.17359973311284
 31
0.0
  0
LINE
  5
B66C
330
1F
100
AcDbEntity
  8
AM_0
100
AcDbLine
 10
168.2889415320829
 20
95.96662973311282
 30
0.0
 11
168.4199535320829
 21
96.17359973311284
 31
0.0
  0
LINE
  5
B66D
330
1F
100
AcDbEntity
  8
AM_0
100
AcDbLine
 10
196.5889384320829
 20
51.20194726509343
 30
0.0
 11
196.5889384320829
 21
45.09425076509339
 31
0.0
  0
LINE
  5
B66E
330
1F
100
AcDbEntity
  8
AM_0
100
AcDbLine
 10
196.5889384320829
 20
51.20195106509342
 30
0.0
 11
190.5889405320829
 21
61.59424996509341
 31
0.0
  0
LINE
  5
B66F
330
1F
100
AcDbEntity
  8
AM_0
100
AcDbLine
 10
192.5889385320829
 20
43.59425076509341
 30
0.0
 11
195.0889384320829
 21
43.59425076509341
 31
0.0
  0
LINE
  5
B670
330
1F
100
AcDbEntity
  8
AM_0
100
AcDbLine
 10
195.0889241320829
 20
43.5942726650934
 30
0.0
 11
196.5889212320829
 21
45.09426786509339
 31
0.0
  0
LINE
  5
B671
330
1F
100
AcDbEntity
  8
AM_0
100
AcDbLine
 10
194.5889385320829
 20
51.29894736509342
 30
0.0
 11
194.5889385320829
 21
44.88954266509341
 31
0.0
  0
LINE
  5
B672
330
1F
100
AcDbEntity
  8
AM_0
100
AcDbLine
 10
192.5889385320829
 20
51.59425076509342
 30
0.0
 11
192.5889385320829
 21
50.09424306509342
 31
0.0
  0
LINE
  5
B673
330
1F
100
AcDbEntity
  8
AM_0
100
AcDbLine
 10
194.5889405320829
 20
44.88954216509341
 30
0.0
 11
192.5889385320829
 21
46.04424386509339
 31
0.0
  0
LINE
  5
B674
330
1F
100
AcDbEntity
  8
AM_0
100
AcDbLine
 10
192.5889325320829
 20
50.14424386509341
 30
0.0
 11
194.5889335320829
 21
51.29894546509342
 31
0.0
  0
LINE
  5
B675
330
1F
100
AcDbEntity
  8
AM_0
100
AcDbLine
 10
192.5889385320829
 20
46.0942466650934
 30
0.0
 11
192.5889385320829
 21
46.04424386509339
 31
0.0
  0
LINE
  5
B676
330
1F
100
AcDbEntity
  8
AM_0
100
AcDbLine
 10
190.5889385320829
 20
63.5942509650934
 30
0.0
 11
190.5889385320829
 21
61.59425096509341
 31
0.0
  0
LINE
  5
B677
330
1F
100
AcDbEntity
  8
AM_0
100
AcDbLine
 10
187.5889385320829
 20
56.59425076509342
 30
0.0
 11
171.8889355320829
 21
56.59425076509342
 31
0.0
  0
LINE
  5
B678
330
1F
100
AcDbEntity
  8
AM_0
100
AcDbLine
 10
189.0889385320829
 20
58.59425076509342
 30
0.0
 11
148.0889365320829
 21
58.59425076509342
 31
0.0
  0
LINE
  5
B679
330
1F
100
AcDbEntity
  8
AM_0
100
AcDbLine
 10
188.9389365320829
 20
62.09425096509341
 30
0.0
 11
189.0889385320829
 21
62.09425096509341
 31
0.0
  0
LINE
  5
B67A
330
1F
100
AcDbEntity
  8
AM_0
100
AcDbLine
 10
188.9389365320829
 20
63.5942509650934
 30
0.0
 11
190.5889385320829
 21
63.5942509650934
 31
0.0
  0
LINE
  5
B67B
330
1F
100
AcDbEntity
  8
AM_0
100
AcDbLine
 10
189.0889385320829
 20
62.09425096509341
 30
0.0
 11
189.0889385320829
 21
58.59425076509342
 31
0.0
  0
LINE
  5
B67C
330
1F
100
AcDbEntity
  8
AM_0
100
AcDbLine
 10
188.9389365320829
 20
63.5942509650934
 30
0.0
 11
188.9389365320829
 21
62.09425096509341
 31
0.0
  0
LINE
  5
B67D
330
1F
100
AcDbEntity
  8
AM_0
100
AcDbLine
 10
146.5889325320829
 20
63.5942509650934
 30
0.0
 11
146.5889325320829
 21
55.89425376509343
 31
0.0
  0
LINE
  5
B67E
330
1F
100
AcDbEntity
  8
AM_0
100
AcDbLine
 10
148.2389385320829
 20
63.5942509650934
 30
0.0
 11
146.5889365320829
 21
63.5942509650934
 31
0.0
  0
LINE
  5
B67F
330
1F
100
AcDbEntity
  8
AM_0
100
AcDbLine
 10
148.2389345320829
 20
63.5942509650934
 30
0.0
 11
148.2389345320829
 21
62.09425096509341
 31
0.0
  0
LINE
  5
B680
330
1F
100
AcDbEntity
  8
AM_0
100
AcDbLine
 10
148.0889325320829
 20
62.09425096509341
 30
0.0
 11
148.0889325320829
 21
58.59425076509342
 31
0.0
  0
LINE
  5
B681
330
1F
100
AcDbEntity
  8
AM_0
100
AcDbLine
 10
148.2389385320829
 20
62.09425096509341
 30
0.0
 11
148.0889365320829
 21
62.09425096509341
 31
0.0
  0
LINE
  5
B682
330
1F
100
AcDbEntity
  8
AM_7
 48
0.6
100
AcDbLine
 10
168.5889365320829
 20
64.90396596509341
 30
0.0
 11
168.5889365320829
 21
50.78689296509342
 31
0.0
  0
LINE
  5
B683
330
1F
100
AcDbEntity
  8
AM_0
100
AcDbLine
 10
168.8889355320829
 20
56.59425456509342
 30
0.0
 11
168.7579275320829
 21
56.80122096509342
 31
0.0
  0
LINE
  5
B684
330
1F
100
AcDbEntity
  8
AM_0
100
AcDbLine
 10
168.2889445320829
 20
56.59425076509342
 30
0.0
 11
168.4199565320829
 21
56.80122046509342
 31
0.0
  0
LINE
  5
B685
330
1F
100
AcDbEntity
  8
AM_0
100
AcDbLine
 10
191.7889425320829
 20
45.2421465650934
 30
0.0
 11
191.7889425320829
 21
50.78471096509341
 31
0.0
  0
LINE
  5
B686
330
1F
100
AcDbEntity
  8
AM_0
100
AcDbLine
 10
171.2889415320829
 20
95.96662973311282
 30
0.0
 11
168.8889355320829
 21
95.96662973311282
 31
0.0
  0
LINE
  5
B687
330
1F
100
AcDbEntity
  8
AM_0
100
AcDbLine
 10
168.2889445320829
 20
95.96662973311282
 30
0.0
 11
162.8889315320829
 21
95.96662973311282
 31
0.0
  0
LINE
  5
B688
330
1F
100
AcDbEntity
  8
AM_0
100
AcDbLine
 10
162.2889485320829
 20
95.96662973311282
 30
0.0
 11
147.2889335320829
 21
95.96662973311282
 31
0.0
  0
LINE
  5
B689
330
1F
100
AcDbEntity
  8
AM_0
100
AcDbLine
 10
171.2889415320829
 20
56.59425076509342
 30
0.0
 11
168.8889355320829
 21
56.59425076509342
 31
0.0
  0
LINE
  5
B68A
330
1F
100
AcDbEntity
  8
AM_0
100
AcDbLine
 10
168.2889445320829
 20
56.59425076509342
 30
0.0
 11
162.8889315320829
 21
56.59425076509342
 31
0.0
  0
LINE
  5
B68B
330
1F
100
AcDbEntity
  8
AM_0
100
AcDbLine
 10
162.2889485320829
 20
56.59425076509342
 30
0.0
 11
147.2889335320829
 21
56.59425076509342
 31
0.0
  0
LINE
  5
B68C
330
1F
100
AcDbEntity
  8
AM_0
100
AcDbLine
 10
147.2889335320829
 20
95.26663273311283
 30
0.0
 11
146.5889325320829
 21
95.26663273311283
 31
0.0
  0
LINE
  5
B68D
330
1F
100
AcDbEntity
  8
AM_0
100
AcDbLine
 10
147.2889335320829
 20
95.96662973311282
 30
0.0
 11
147.2889335320829
 21
95.26663273311283
 31
0.0
  0
LINE
  5
B68E
330
1F
100
AcDbEntity
  8
AM_0
100
AcDbLine
 10
162.8889315320829
 20
56.59425216509342
 30
0.0
 11
162.7579235320829
 21
56.80121856509342
 31
0.0
  0
LINE
  5
B68F
330
1F
100
AcDbEntity
  8
AM_0
100
AcDbLine
 10
162.2889445320829
 20
56.59425166509342
 30
0.0
 11
162.4199535320829
 21
56.80121476509341
 31
0.0
  0
LINE
  5
B690
330
1F
100
AcDbEntity
  8
AM_0
100
AcDbLine
 10
171.8889395320829
 20
56.59425506509342
 30
0.0
 11
171.7579315320829
 21
56.80122146509342
 31
0.0
  0
LINE
  5
B691
330
1F
100
AcDbEntity
  8
AM_0
100
AcDbLine
 10
171.2889415320829
 20
56.59424836509342
 30
0.0
 11
171.4199495320829
 21
56.80121806509342
 31
0.0
  0
LINE
  5
B692
330
1F
100
AcDbEntity
  8
AM_0
100
AcDbLine
 10
147.2889335320829
 20
56.59425076509342
 30
0.0
 11
147.2889335320829
 21
55.89425376509343
 31
0.0
  0
LINE
  5
B693
330
1F
100
AcDbEntity
  8
AM_0
100
AcDbLine
 10
147.2889335320829
 20
55.89425376509343
 30
0.0
 11
146.5889325320829
 21
55.89425376509343
 31
0.0
  0
LINE
  5
B694
330
1F
100
AcDbEntity
  8
AM_0
100
AcDbLine
 10
194.4889395320829
 20
51.19121266509342
 30
0.0
 11
194.4889395320829
 21
44.99727736509339
 31
0.0
  0
LINE
  5
B695
330
1F
100
AcDbEntity
  8
AM_0
100
AcDbLine
 10
194.4889385320829
 20
44.99728086509342
 30
0.0
 11
192.5889375320829
 21
46.09424696509342
 31
0.0
  0
LINE
  5
B696
330
1F
100
AcDbEntity
  8
AM_0
100
AcDbLine
 10
194.4889355320829
 20
51.19120986509341
 30
0.0
 11
192.5889345320829
 21
50.09424366509342
 31
0.0
  0
LINE
  5
B697
330
1F
100
AcDbEntity
  8
AM_0
100
AcDbLine
 10
192.5889385320829
 20
46.04424386509339
 30
0.0
 11
192.5889385320829
 21
43.59425076509341
 31
0.0
  0
ARC
  5
B698
330
1F
100
AcDbEntity
  8
AM_0
100
AcDbCircle
 10
187.5889385320829
 20
90.96662973311282
 30
0.0
 40
5.0
100
AcDbArc
 50
0.0
 51
90.0
  0
ARC
  5
B699
330
1F
100
AcDbEntity
  8
AM_0
100
AcDbCircle
 10
162.5889365320829
 20
96.06662773311285
 30
0.0
 40
0.2
100
AcDbArc
 50
32.33389999999947
 51
147.6661000000005
  0
ARC
  5
B69A
330
1F
100
AcDbEntity
  8
AM_0
100
AcDbCircle
 10
171.5889365320829
 20
96.06662773311285
 30
0.0
 40
0.2
100
AcDbArc
 50
32.33389999999947
 51
147.6661000000005
  0
ARC
  5
B69B
330
1F
100
AcDbEntity
  8
AM_0
100
AcDbCircle
 10
168.5889365320829
 20
96.06662773311285
 30
0.0
 40
0.2
100
AcDbArc
 50
32.33389999999947
 51
147.6661000000005
  0
ARC
  5
B69C
330
1F
100
AcDbEntity
  8
AM_0
100
AcDbCircle
 10
193.3889415320829
 20
48.01342493509341
 30
0.0
 40
3.2
100
AcDbArc
 50
120.0000100000006
 51
239.999996000001
  0
ARC
  5
B69D
330
1F
100
AcDbEntity
  8
AM_0
100
AcDbCircle
 10
193.3889415320829
 20
48.01342493509341
 30
0.0
 40
4.0
100
AcDbArc
 50
101.6754099999978
 51
258.4630240000001
  0
ARC
  5
B69E
330
1F
100
AcDbEntity
  8
AM_0
100
AcDbCircle
 10
187.5889385320829
 20
51.59425076509342
 30
0.0
 40
5.0
100
AcDbArc
 50
0.0000200000003844
 51
90.0
  0
ARC
  5
B69F
330
1F
100
AcDbEntity
  8
AM_0
100
AcDbCircle
 10
168.5889365320829
 20
56.69424916509342
 30
0.0
 40
0.2
100
AcDbArc
 50
32.33309000000053
 51
147.6669099999994
  0
ARC
  5
B6A0
330
1F
100
AcDbEntity
  8
AM_0
100
AcDbCircle
 10
162.5889365320829
 20
56.69424916509342
 30
0.0
 40
0.2
100
AcDbArc
 50
32.33309000000053
 51
147.6669099999994
  0
ARC
  5
B6A1
330
1F
100
AcDbEntity
  8
AM_0
100
AcDbCircle
 10
171.5889365320829
 20
56.69424916509342
 30
0.0
 40
0.2
100
AcDbArc
 50
32.33309000000053
 51
147.6669099999994
  0
TEXT
  5
B6A2
330
1F
100
AcDbEntity
  8
AM_6
100
AcDbText
 10
22.85700016906073
 20
165.4000001194944
 30
0.0
 40
3.2
  1
アルミエッジ（４０ｍｍ）
 41
0.8437725099999999
100
AcDbText
  0
TEXT
  5
B6A3
330
1F
100
AcDbEntity
  8
AM_6
100
AcDbText
 10
22.85700016906073
 20
141.4000001194944
 30
0.0
 40
3.2
  1
アルマイト+クリアー
 41
0.84892707
100
AcDbText
  0
TEXT
  5
B6A4
330
1F
100
AcDbEntity
  8
AM_6
100
AcDbText
 10
22.85700016906073
 20
157.4000001194944
 30
0.0
 40
3.2
  1
ＬＲ－１３
 41
0.84892707
100
AcDbText
  0
TEXT
  5
B6A5
330
1F
100
AcDbEntity
  8
AM_6
100
AcDbText
 10
5.657000169060722
 20
165.4000001194944
 30
0.0
 40
3.2
  1
品　名
 41
0.85537027
100
AcDbText
  0
TEXT
  5
B6A6
330
1F
100
AcDbEntity
  8
AM_6
100
AcDbText
 10
5.657000169060722
 20
157.4000001194944
 30
0.0
 40
3.2
  1
品　番
 41
0.85537027
100
AcDbText
  0
TEXT
  5
B6A7
330
1F
100
AcDbEntity
  8
AM_6
100
AcDbText
 10
5.657000169060722
 20
149.4000001194944
 30
0.0
 40
3.2
  1
材　質
 41
0.85537027
100
AcDbText
  0
TEXT
  5
B6A8
330
1F
100
AcDbEntity
  8
AM_6
100
AcDbText
 10
5.657000169060722
 20
141.4000001194944
 30
0.0
 40
3.2
  1
仕上げ
 41
0.85537027
100
AcDbText
  0
TEXT
  5
B6A9
330
1F
100
AcDbEntity
  8
AM_6
100
AcDbText
 10
22.85700016906073
 20
117.3999971194944
 30
0.0
 40
3.2
  1
＊
 41
0.90047268
100
AcDbText
  0
TEXT
  5
B6AA
330
1F
100
AcDbEntity
  8
AM_6
100
AcDbText
 10
22.85700016906073
 20
125.3999971194944
 30
0.0
 40
3.2
  1
＊
 41
0.90047268
100
AcDbText
  0
TEXT
  5
B6AB
330
1F
100
AcDbEntity
  8
AM_6
100
AcDbText
 10
2.457000169060734
 20
133.3999971194944
 30
0.0
 40
3.2
  1
セットビス
 41
0.84892707
100
AcDbText
  0
TEXT
  5
B6AC
330
1F
100
AcDbEntity
  8
AM_6
100
AcDbText
 10
7.257000169060717
 20
109.3999971194944
 30
0.0
 40
3.2
  1
備考
 41
0.8643907499999999
100
AcDbText
  0
TEXT
  5
B6AD
330
1F
100
AcDbEntity
  8
AM_6
100
AcDbText
 10
22.85700016906073
 20
149.4000001194944
 30
0.0
 40
3.2
  1
アルミ押出し材
 41
0.84634979
100
AcDbText
  0
TEXT
  5
B6AE
330
1F
100
AcDbEntity
  8
AM_6
100
AcDbText
 10
22.85700016906073
 20
133.3999971194944
 30
0.0
 40
3.2
  1
＊
 41
0.90047268
100
AcDbText
  0
TEXT
  5
B6AF
330
1F
100
AcDbEntity
  8
AM_6
100
AcDbText
 10
22.85700016906073
 20
101.3999971194944
 30
0.0
 40
3.2
  1
定尺：２０００、４０００
 41
0.8437725099999999
100
AcDbText
  0
TEXT
  5
B6B0
330
1F
100
AcDbEntity
  8
AM_6
100
AcDbText
 10
22.16807016906073
 20
109.8332021194944
 30
0.0
 40
3.2
  1
スクリーン用
 41
0.84741102
100
AcDbText
  0
TEXT
  5
B6B1
330
1F
100
AcDbEntity
  8
AM_6
100
AcDbText
 10
22.86691016906072
 20
93.66661811949441
 30
0.0
 40
3.2
  1
ＬＲＢ－１３戸当りゴムもあります。（定尺：２０００、４０００）
 41
0.6630126999999999
100
AcDbText
  0
INSERT
  5
B6B2
330
1F
100
AcDbEntity
  8
0
100
AcDbBlockReference
  2
KOZU0002
 10
204.8527495320829
 20
48.81404596509341
 30
0.0
 50
180.0
  0
DIMENSION
  5
B857
330
1F
100
AcDbEntity
  8
AM_5
100
AcDbDimension
  2
*D19
 10
188.9389365320829
 20
111.9666297331129
 30
0.0
 11
168.5889355320828
 21
115.0666297331129
 31
0.0
 70
    32
 71
     5
 42
40.70000200000001
  3
SYS$0
100
AcDbAlignedDimension
 13
148.2389345320829
 23
102.9666297331128
 33
0.0
 14
188.9389365320829
 24
102.9666297331128
 34
0.0
100
AcDbRotatedDimension
  0
DIMENSION
  5
B86D
330
1F
100
AcDbEntity
  8
AM_5
100
AcDbDimension
  2
*D20
 10
190.5889385320829
 20
120.9666297331128
 30
0.0
 11
168.5889355320829
 21
124.0666297331128
 31
0.0
 70
    32
 71
     5
 42
44.00000599999998
  3
SYS$0
100
AcDbAlignedDimension
 13
146.5889325320829
 23
102.9666297331128
 33
0.0
 14
190.5889385320829
 24
102.9666297331128
 34
0.0
100
AcDbRotatedDimension
  0
DIMENSION
  5
B883
330
1F
100
AcDbEntity
  8
AM_5
100
AcDbDimension
  2
*D21
 10
205.5889384320829
 20
82.96662973311283
 30
0.0
 11
202.4889384320829
 21
92.96662973311285
 31
0.0
 70
    32
 71
     5
 42
20.0
  3
SYS$0
100
AcDbAlignedDimension
 13
190.5889385320829
 23
102.9666297331128
 33
0.0
 14
195.0889384320829
 24
82.96662973311283
 34
0.0
 50
90.0
100
AcDbRotatedDimension
  0
DIMENSION
  5
B899
330
1F
100
AcDbEntity
  8
AM_5
100
AcDbDimension
  2
*D22
 10
128.5889325320828
 20
102.9666297331128
 30
0.0
 11
125.4889325320828
 21
99.11663123311285
 31
0.0
 70
    32
 71
     5
 42
7.699996999999996
  3
SYS$0
100
AcDbAlignedDimension
 13
146.5889325320829
 23
95.26663273311283
 33
0.0
 14
146.5889325320829
 24
102.9666297331128
 34
0.0
 50
90.0
100
AcDbRotatedDimension
  0
DIMENSION
  5
B8B0
330
1F
100
AcDbEntity
  8
AM_5
100
AcDbDimension
  2
*D23
 10
137.5889325320828
 20
95.26663273311283
 30
0.0
 11
134.4889325320828
 21
89.41996606644618
 31
0.0
 70
    32
 71
     5
 42
2.699996999999996
  3
SYS$0
100
AcDbAlignedDimension
 13
148.0889365320829
 23
97.96662973311283
 33
0.0
 14
146.5889325320829
 24
95.26663273311283
 34
0.0
 50
90.00000000000003
100
AcDbRotatedDimension
  0
INSERT
  5
B8CB
330
1F
100
AcDbEntity
  8
AM_5
100
AcDbBlockReference
  2
*S25
 10
0.0
 20
0.0
 30
0.0
  0
ENDSEC
  0
SECTION
  2
OBJECTS
  0
DICTIONARY
  5
C
330
0
100
AcDbDictionary
281
     1
  3
ACAD_2007HEADERVARS_RT
350
B972
  3
ACAD_BGPLOT_KEY
350
AB06
  3
ACAD_COLOR
350
A91D
  3
ACAD_GROUP
350
D
  3
ACAD_LAYOUT
350
1A
  3
ACAD_MATERIAL
350
A91C
  3
ACAD_MLINESTYLE
350
17
  3
ACAD_PLOTSETTINGS
350
19
  3
ACAD_PLOTSTYLENAME
350
E
  3
ACAD_TABLESTYLE
350
AAB9
  3
ACAD_VISUALSTYLE
350
B0F1
  3
AcAsAppObject
350
3DA1
  3
ACASGREF_MASTER
350
3DE9
  3
AcDbVariableDictionary
350
34
  3
AcmDictionary
350
47
  3
AD_GREF_MODULE
350
3DEA
  3
AD_MAPI_MODULE
350
3E06
  3
AMG
350
2B
  3
AMGSNAPSETTINGS
350
7D
  3
ASE_INDEX_DICTIONARY
350
B331
  3
DWGPROPS
350
B971
  3
MAPISURF_MODULE
350
3DEB
  0
DICTIONARY
  5
3F95
330
2
100
AcDbDictionary
280
     1
281
     1
  3
ACAD_LAYERFILTERS
360
B523
  3
ACAD_LAYERSTATES
360
3F96
  3
ACLYDICTIONARY
360
B522
  3
AMLAYER_GROUPCOLORS
360
AAB4
  0
DICTIONARY
  5
8A
330
1F
100
AcDbDictionary
280
     1
281
     1
  3
ACAD_SORTENTS
360
B1BA
  0
DICTIONARY
  5
B7C8
330
B551
100
AcDbDictionary
280
     1
281
     1
  3
ACAD_SORTENTS
360
B7C9
  0
DICTIONARY
  5
B972
102
{ACAD_REACTORS
330
C
102
}
330
C
100
AcDbDictionary
281
     1
  3
DIMARCSYM
350
B973
  0
DICTIONARY
  5
AB06
102
{ACAD_REACTORS
330
C
102
}
330
C
100
AcDbDictionary
280
     1
281
     1
  0
DICTIONARY
  5
A91D
102
{ACAD_REACTORS
330
C
102
}
330
C
100
AcDbDictionary
281
     1
  0
DICTIONARY
  5
D
102
{ACAD_REACTORS
330
C
102
}
330
C
100
AcDbDictionary
281
     1
  0
DICTIONARY
  5
1A
102
{ACAD_REACTORS
330
C
102
}
330
C
100
AcDbDictionary
281
     1
  3
Model
350
22
  3
ﾚｲｱｳﾄ1
350
1E
  3
ﾚｲｱｳﾄ2
350
26
  0
DICTIONARY
  5
A91C
102
{ACAD_REACTORS
330
C
102
}
330
C
100
AcDbDictionary
281
     1
  3
ByBlock
350
B0EF
  3
ByLayer
350
B0EE
  3
Global
350
B0F0
  0
DICTIONARY
  5
17
102
{ACAD_REACTORS
330
C
102
}
330
C
100
AcDbDictionary
281
     1
  3
Standard
350
18
  0
DICTIONARY
  5
19
102
{ACAD_REACTORS
330
C
102
}
330
C
100
AcDbDictionary
281
     1
  0
ACDBDICTIONARYWDFLT
  5
E
102
{ACAD_REACTORS
330
C
102
}
330
C
100
AcDbDictionary
281
     1
  3
Normal
350
F
100
AcDbDictionaryWithDefault
340
F
  0
DICTIONARY
  5
AAB9
102
{ACAD_REACTORS
330
C
102
}
330
C
100
AcDbDictionary
281
     1
  3
Standard
350
AABA
  0
DICTIONARY
  5
B0F1
102
{ACAD_REACTORS
330
C
102
}
330
C
100
AcDbDictionary
281
     1
  3
2dWireframe
350
B0F7
  3
3D Hidden
350
B0F9
  3
3dWireframe
350
B0F8
  3
Basic
350
B0F6
  3
Brighten
350
B0FD
  3
ColorChange
350
B101
  3
Conceptual
350
B0FA
  3
Dim
350
B0FC
  3
Facepattern
350
B100
  3
Flat
350
B0F2
  3
FlatWithEdges
350
B0F3
  3
Gouraud
350
B0F4
  3
GouraudWithEdges
350
B0F5
  3
Linepattern
350
B0FF
  3
Realistic
350
B0FB
  3
Thicken
350
B0FE
  0
ACAD_PROXY_OBJECT
  5
3DA1
102
{ACAD_REACTORS
330
C
102
}
330
C
100
AcDbProxyObject
 90
      499
 91
      576
 95
   917527
 70
     0
 93
       10
310
407F
 94
        0
1001
ACAD
1000
AcRTDxfName
1000
ASAPP
  0
ACAD_PROXY_OBJECT
  5
3DE9
102
{ACAD_REACTORS
330
C
102
}
330
C
100
AcDbProxyObject
 90
      499
 91
      581
 95
   917527
 70
     0
 93
       34
310
010000407F
 94
        0
1001
ACAD
1000
AcRTDxfName
1000
ACASGREFMASTER
  0
DICTIONARY
  5
34
102
{ACAD_REACTORS
330
C
102
}
330
C
100
AcDbDictionary
281
     1
  3
CTABLESTYLE
350
AAF3
  3
DIMASSOC
350
A10C
  3
FIELDEVAL
350
AB07
  3
INDEXCTL
350
35
  3
SORTENTS
350
194C
  0
DICTIONARY
  5
47
102
{ACAD_REACTORS
330
C
102
}
330
C
100
AcDbDictionary
281
     1
  3
AcmBOM
350
7E8
  3
AcmStdDictionary
350
4C
  3
AMDTSECTSYM_ARROWCOLOR
350
A929
  0
ACAD_PROXY_OBJECT
  5
3DEA
102
{ACAD_REACTORS
330
C
102
}
330
C
100
AcDbProxyObject
 90
      499
 91
      582
 95
   917527
 70
     0
 93
      114
310
00000043800000000000000000003F
 94
        0
1001
ACAD
1000
AcRTDxfName
1000
ACADGREFMODULE
  0
ACAD_PROXY_OBJECT
  5
3E06
102
{ACAD_REACTORS
330
C
102
}
330
C
100
AcDbProxyObject
 90
      499
 91
      594
 95
   917527
 70
     0
 93
       34
310
05000044FF
 94
        0
1001
ACAD
1000
AcRTDxfName
1000
MAPIADMODULE
  0
DICTIONARY
  5
2B
102
{ACAD_REACTORS
330
C
102
}
330
C
100
AcDbDictionary
281
     1
  0
DICTIONARY
  5
7D
102
{ACAD_REACTORS
330
C
102
}
330
C
100
AcDbDictionary
281
     1
  0
DICTIONARY
  5
B331
102
{ACAD_REACTORS
330
C
102
}
330
C
100
AcDbDictionary
281
     1
  3
ASEBlockHierarchyIndexRecord
350
B332
1001
DCO15
1040
1594111214.218
  0
XRECORD
  5
B971
102
{ACAD_REACTORS
330
C
102
}
330
C
100
AcDbXrecord
280
     1
  1
DWGPROPS COOKIE
  2

  3

  4

  6

  7

  8
Administrator
  9

300
AmdtFileType=84
301
=
302
=
303
=
304
=
305
=
306
=
307
=
308
=
309
=
 40
0.0035668055555556
 41
2456743.392946505
 42
2456743.396509144
  1

 90
        1
  0
ACAD_PROXY_OBJECT
  5
3DEB
102
{ACAD_REACTORS
330
C
102
}
330
C
100
AcDbProxyObject
 90
      499
 91
      583
 95
   917527
 70
     0
 93
        8
310
047E
 94
        0
1001
ACAD
1000
AcRTDxfName
1000
AMDTMAPISURFMOUDULE
  0
DICTIONARY
  5
B523
102
{ACAD_REACTORS
330
3F95
102
}
330
3F95
100
AcDbDictionary
281
     1
  0
DICTIONARY
  5
3F96
102
{ACAD_REACTORS
330
3F95
102
}
330
3F95
100
AcDbDictionary
281
     1
  3
20011210
350
3FB7
  0
DICTIONARY
  5
B522
102
{ACAD_REACTORS
330
3F95
102
}
330
3F95
100
AcDbDictionary
281
     1
1001
ACAD
1000
<All
  0
DICTIONARY
  5
AAB4
102
{ACAD_REACTORS
330
3F95
102
}
330
3F95
100
AcDbDictionary
280
     1
281
     1
  0
SORTENTSTABLE
  5
B1BA
102
{ACAD_REACTORS
330
8A
102
}
330
8A
100
AcDbSortentsTable
330
1F
  0
SORTENTSTABLE
  5
B7C9
102
{ACAD_REACTORS
330
B7C8
102
}
330
B7C8
100
AcDbSortentsTable
330
B551
  0
XRECORD
  5
B973
102
{ACAD_REACTORS
330
B972
102
}
330
B972
100
AcDbXrecord
280
     1
 70
     1
  0
LAYOUT
  5
22
102
{ACAD_XDICTIONARY
360
B976
102
}
102
{ACAD_REACTORS
330
1A
102
}
330
1A
100
AcDbPlotSettings
  1

  2
Adobe PDF
  4
A4
  6
AM_VIEW1
 40
3.174999952316284
 41
3.174999952316284
 42
3.175003051757812
 43
3.17498779296875
 44
209.9733276367187
 45
297.0318298339844
 46
16.31166231632233
 47
8.84092104434967
 48
0.0000001690607405
 49
0.0000001194944161
140
273.0000001690608
141
171.0000001194944
142
1.0
143
1.0
 70
  3748
 72
     1
 73
     1
 74
     4
  7
monochrome.ctb
 75
     0
147
1.064768652339558
148
-0.0000001690607405
149
-0.0000001194944161
100
AcDbLayout
  1
Model
 70
     1
 71
     0
 10
0.0
 20
0.0
 11
12.0
 21
9.0
 12
0.0
 22
0.0
 32
0.0
 14
0.0
 24
0.0
 34
0.0
 15
0.0
 25
0.0
 35
0.0
146
0.0
 13
0.0
 23
0.0
 33
0.0
 16
1.0
 26
0.0
 36
0.0
 17
0.0
 27
1.0
 37
0.0
 76
     0
330
1F
331
B0EC
1001
ACAD_PSEXT
1000
Adobe PDF
1000
Adobe PDF Converter
1000
My Documents\*.pdf
1000

1070
     0
  0
LAYOUT
  5
1E
102
{ACAD_XDICTIONARY
360
B974
102
}
102
{ACAD_REACTORS
330
1A
102
}
330
1A
100
AcDbPlotSettings
  1

  2
\\ML370\XEROX
  4
A4
  6

 40
3.174999952316284
 41
3.174999952316284
 42
3.175003051757812
 43
3.17498779296875
 44
209.8674926757813
 45
296.6719970703125
 46
0.0
 47
0.0
 48
0.0
 49
0.0
140
0.0
141
0.0
142
1.0
143
1.0
 70
   688
 72
     1
 73
     1
 74
     5
  7
monochrome.ctb
 75
    16
147
1.0
148
0.0
149
0.0
100
AcDbLayout
  1
ﾚｲｱｳﾄ1
 70
     1
 71
     1
 10
-3.17498779296875
 20
-3.174999952316284
 11
293.4970092773438
 21
206.692492723465
 12
0.0
 22
0.0
 32
0.0
 14
1.000000000000000E+20
 24
1.000000000000000E+20
 34
1.000000000000000E+20
 15
-1.000000000000000E+20
 25
-1.000000000000000E+20
 35
-1.000000000000000E+20
146
0.0
 13
0.0
 23
0.0
 33
0.0
 16
1.0
 26
0.0
 36
0.0
 17
0.0
 27
1.0
 37
0.0
 76
     0
330
1B
  0
LAYOUT
  5
26
102
{ACAD_XDICTIONARY
360
B978
102
}
102
{ACAD_REACTORS
330
1A
102
}
330
1A
100
AcDbPlotSettings
  1

  2
\\ML370\XEROX
  4

  6

 40
0.0
 41
0.0
 42
0.0
 43
0.0
 44
0.0
 45
0.0
 46
0.0
 47
0.0
 48
0.0
 49
0.0
140
0.0
141
0.0
142
1.0
143
1.0
 70
   688
 72
     0
 73
     0
 74
     5
  7
monochrome.ctb
 75
    16
147
1.0
148
0.0
149
0.0
100
AcDbLayout
  1
ﾚｲｱｳﾄ2
 70
     1
 71
     2
 10
0.0
 20
0.0
 11
12.0
 21
9.0
 12
0.0
 22
0.0
 32
0.0
 14
0.0
 24
0.0
 34
0.0
 15
0.0
 25
0.0
 35
0.0
146
0.0
 13
0.0
 23
0.0
 33
0.0
 16
1.0
 26
0.0
 36
0.0
 17
0.0
 27
1.0
 37
0.0
 76
     0
330
23
  0
MATERIAL
  5
B0EF
102
{ACAD_XDICTIONARY
360
B97E
102
}
102
{ACAD_REACTORS
330
A91C
102
}
330
A91C
100
AcDbMaterial
  1
ByBlock
  0
MATERIAL
  5
B0EE
102
{ACAD_XDICTIONARY
360
B97C
102
}
102
{ACAD_REACTORS
330
A91C
102
}
330
A91C
100
AcDbMaterial
  1
ByLayer
  0
MATERIAL
  5
B0F0
102
{ACAD_XDICTIONARY
360
B980
102
}
102
{ACAD_REACTORS
330
A91C
102
}
330
A91C
100
AcDbMaterial
  1
Global
  0
MLINESTYLE
  5
18
102
{ACAD_REACTORS
330
17
102
}
330
17
100
AcDbMlineStyle
  2
STANDARD
 70
     0
  3

 62
   256
 51
90.0
 52
90.0
 71
     2
 49
0.5
 62
   256
  6
BYLAYER
 49
-0.5
 62
   256
  6
BYLAYER
  0
ACDBPLACEHOLDER
  5
F
102
{ACAD_REACTORS
330
E
102
}
330
E
  0
TABLESTYLE
  5
AABA
102
{ACAD_XDICTIONARY
360
B97A
102
}
102
{ACAD_REACTORS
330
AAB9
102
}
330
AAB9
100
AcDbTableStyle
  3
Standard
 70
     0
 71
     0
 40
1.5
 41
1.5
280
     0
281
     0
  7
STANDARD
140
4.5
170
     2
 62
     0
 63
     7
283
     0
274
    -2
284
     1
 64
     0
275
    -2
285
     1
 65
     0
276
    -2
286
     1
 66
     0
277
    -2
287
     1
 67
     0
278
    -2
288
     1
 68
     0
279
    -2
289
     1
 69
     0
  7
STANDARD
140
6.0
170
     5
 62
     0
 63
     7
283
     0
274
    -2
284
     1
 64
     0
275
    -2
285
     1
 65
     0
276
    -2
286
     1
 66
     0
277
    -2
287
     1
 67
     0
278
    -2
288
     1
 68
     0
279
    -2
289
     1
 69
     0
  7
STANDARD
140
4.5
170
     5
 62
     0
 63
     7
283
     0
274
    -2
284
     1
 64
     0
275
    -2
285
     1
 65
     0
276
    -2
286
     1
 66
     0
277
    -2
287
     1
 67
     0
278
    -2
288
     1
 68
     0
279
    -2
289
     1
 69
     0
  0
VISUALSTYLE
  5
B0F7
102
{ACAD_REACTORS
330
B0F1
102
}
330
B0F1
100
AcDbVisualStyle
  2
2dWireframe
 70
     4
 71
     0
 72
     2
 73
     0
 90
        0
 40
-0.6
 41
-30.0
 62
     5
 63
     7
 74
     1
 91
        4
 64
     7
 65
   257
 75
     1
175
     1
 42
1.0
 92
        0
 66
   257
 43
1.0
 76
     1
 77
     6
 78
     2
 67
     7
 79
     5
170
     0
171
     0
290
     0
174
     0
 93
        1
 44
0.0
173
     0
291
     0
 45
0.0
1001
ACAD
1000
AcDbSavedByObjectVersion
1070
     0
  0
VISUALSTYLE
  5
B0F9
102
{ACAD_REACTORS
330
B0F1
102
}
330
B0F1
100
AcDbVisualStyle
  2
3D Hidden
 70
     6
 71
     1
 72
     2
 73
     2
 90
        0
 40
-0.6
 41
-30.0
 62
     5
 63
     7
 74
     2
 91
        2
 64
     7
 65
   257
 75
     2
175
     1
 42
40.0
 92
        0
 66
   257
 43
1.0
 76
     1
 77
     6
 78
     2
 67
     7
 79
     3
170
     0
171
     0
290
     0
174
     0
 93
        1
 44
0.0
173
     0
291
     0
 45
0.0
1001
ACAD
1000
AcDbSavedByObjectVersion
1070
     0
  0
VISUALSTYLE
  5
B0F8
102
{ACAD_REACTORS
330
B0F1
102
}
330
B0F1
100
AcDbVisualStyle
  2
3dWireframe
 70
     5
 71
     0
 72
     2
 73
     0
 90
        0
 40
-0.6
 41
-30.0
 62
     5
 63
     7
 74
     1
 91
        4
 64
     7
 65
   257
 75
     1
175
     1
 42
1.0
 92
        0
 66
   257
 43
1.0
 76
     1
 77
     6
 78
     2
 67
     7
 79
     5
170
     0
171
     0
290
     0
174
     0
 93
        1
 44
0.0
173
     0
291
     0
 45
0.0
1001
ACAD
1000
AcDbSavedByObjectVersion
1070
     0
  0
VISUALSTYLE
  5
B0F6
102
{ACAD_REACTORS
330
B0F1
102
}
330
B0F1
100
AcDbVisualStyle
  2
Basic
 70
     7
 71
     1
 72
     0
 73
     1
 90
        0
 40
-0.6
 41
-30.0
 62
     5
 63
     7
 74
     0
 91
        4
 64
     7
 65
   257
 75
     1
175
     1
 42
1.0
 92
        8
 66
     7
 43
1.0
 76
     1
 77
     6
 78
     2
 67
     7
 79
     5
170
     0
171
     0
290
     0
174
     0
 93
        1
 44
0.0
173
     0
291
     1
 45
0.0
1001
ACAD
1000
AcDbSavedByObjectVersion
1070
     0
  0
VISUALSTYLE
  5
B0FD
102
{ACAD_REACTORS
330
B0F1
102
}
330
B0F1
100
AcDbVisualStyle
  2
Brighten
 70
    12
 71
     2
 72
     2
 73
     0
 90
        0
 40
-0.6
 41
-30.0
 62
     5
 63
     7
 74
     1
 91
        4
 64
     7
 65
   257
 75
     1
175
     1
 42
1.0
 92
        8
 66
     7
 43
1.0
 76
     1
 77
     6
 78
     2
 67
     7
 79
     5
170
     0
171
     0
290
     0
174
     0
 93
        1
 44
50.0
173
     0
291
     1
 45
0.0
1001
ACAD
1000
AcDbSavedByObjectVersion
1070
     0
  0
VISUALSTYLE
  5
B101
102
{ACAD_REACTORS
330
B0F1
102
}
330
B0F1
100
AcDbVisualStyle
  2
ColorChange
 70
    16
 71
     2
 72
     2
 73
     3
 90
        0
 40
-0.6
 41
-30.0
 62
     5
 63
     8
 74
     1
 91
        4
 64
     7
 65
   257
 75
     1
175
     1
 42
1.0
 92
        8
 66
     8
 43
1.0
 76
     1
 77
     6
 78
     2
 67
     7
 79
     5
170
     0
171
     0
290
     0
174
     0
 93
        1
 44
0.0
173
     0
291
     1
 45
0.0
1001
ACAD
1000
AcDbSavedByObjectVersion
1070
     0
  0
VISUALSTYLE
  5
B0FA
102
{ACAD_REACTORS
330
B0F1
102
}
330
B0F1
100
AcDbVisualStyle
  2
Conceptual
 70
     9
 71
     3
 72
     2
 73
     0
 90
        0
 40
-0.6
 41
-30.0
 62
     5
 63
     7
 74
     2
 91
        2
 64
     7
 65
   257
 75
     1
175
     1
 42
40.0
 92
        8
 66
     7
 43
1.0
 76
     1
 77
     6
 78
     2
 67
     7
 79
     3
170
     0
171
     0
290
     0
174
     0
 93
        1
 44
0.0
173
     0
291
     0
 45
0.0
1001
ACAD
1000
AcDbSavedByObjectVersion
1070
     0
  0
VISUALSTYLE
  5
B0FC
102
{ACAD_REACTORS
330
B0F1
102
}
330
B0F1
100
AcDbVisualStyle
  2
Dim
 70
    11
 71
     2
 72
     2
 73
     0
 90
        0
 40
-0.6
 41
-30.0
 62
     5
 63
     7
 74
     1
 91
        4
 64
     7
 65
   257
 75
     1
175
     1
 42
1.0
 92
        8
 66
     7
 43
1.0
 76
     1
 77
     6
 78
     2
 67
     7
 79
     5
170
     0
171
     0
290
     0
174
     0
 93
        1
 44
-50.0
173
     0
291
     1
 45
0.0
1001
ACAD
1000
AcDbSavedByObjectVersion
1070
     0
  0
VISUALSTYLE
  5
B100
102
{ACAD_REACTORS
330
B0F1
102
}
330
B0F1
100
AcDbVisualStyle
  2
Facepattern
 70
    15
 71
     2
 72
     2
 73
     0
 90
        0
 40
-0.6
 41
-30.0
 62
     5
 63
     7
 74
     1
 91
        4
 64
     7
 65
   257
 75
     1
175
     1
 42
1.0
 92
        8
 66
     7
 43
1.0
 76
     1
 77
     6
 78
     2
 67
     7
 79
     5
170
     0
171
     0
290
     0
174
     0
 93
        1
 44
0.0
173
     0
291
     1
 45
0.0
1001
ACAD
1000
AcDbSavedByObjectVersion
1070
     0
  0
VISUALSTYLE
  5
B0F2
102
{ACAD_REACTORS
330
B0F1
102
}
330
B0F1
100
AcDbVisualStyle
  2
Flat
 70
     0
 71
     2
 72
     1
 73
     1
 90
        2
 40
-0.6
 41
30.0
 62
     5
 63
     7
 74
     0
 91
        4
 64
     7
 65
   257
 75
     1
175
     1
 42
1.0
 92
        8
 66
     7
 43
1.0
 76
     1
 77
     6
 78
     2
 67
     7
 79
     5
170
     0
171
     0
290
     0
174
     0
 93
       13
 44
0.0
173
     0
291
     1
 45
0.0
1001
ACAD
1000
AcDbSavedByObjectVersion
1070
     0
  0
VISUALSTYLE
  5
B0F3
102
{ACAD_REACTORS
330
B0F1
102
}
330
B0F1
100
AcDbVisualStyle
  2
FlatWithEdges
 70
     1
 71
     2
 72
     1
 73
     1
 90
        2
 40
-0.6
 41
30.0
 62
     5
 63
     7
 74
     1
 91
        4
 64
     7
 65
   257
 75
     1
175
     1
 42
1.0
 92
        0
 66
   257
 43
1.0
 76
     1
 77
     6
 78
     2
 67
     7
 79
     5
170
     0
171
     0
290
     0
174
     0
 93
       13
 44
0.0
173
     0
291
     1
 45
0.0
1001
ACAD
1000
AcDbSavedByObjectVersion
1070
     0
  0
VISUALSTYLE
  5
B0F4
102
{ACAD_REACTORS
330
B0F1
102
}
330
B0F1
100
AcDbVisualStyle
  2
Gouraud
 70
     2
 71
     2
 72
     2
 73
     1
 90
        2
 40
-0.6
 41
30.0
 62
     5
 63
     7
 74
     0
 91
        4
 64
     7
 65
   257
 75
     1
175
     1
 42
1.0
 92
        0
 66
     7
 43
1.0
 76
     1
 77
     6
 78
     2
 67
     7
 79
     5
170
     0
171
     0
290
     0
174
     0
 93
       13
 44
0.0
173
     0
291
     1
 45
0.0
1001
ACAD
1000
AcDbSavedByObjectVersion
1070
     0
  0
VISUALSTYLE
  5
B0F5
102
{ACAD_REACTORS
330
B0F1
102
}
330
B0F1
100
AcDbVisualStyle
  2
GouraudWithEdges
 70
     3
 71
     2
 72
     2
 73
     1
 90
        2
 40
-0.6
 41
30.0
 62
     5
 63
     7
 74
     1
 91
        4
 64
     7
 65
   257
 75
     1
175
     1
 42
1.0
 92
        0
 66
   257
 43
1.0
 76
     1
 77
     6
 78
     2
 67
     7
 79
     5
170
     0
171
     0
290
     0
174
     0
 93
       13
 44
0.0
173
     0
291
     1
 45
0.0
1001
ACAD
1000
AcDbSavedByObjectVersion
1070
     0
  0
VISUALSTYLE
  5
B0FF
102
{ACAD_REACTORS
330
B0F1
102
}
330
B0F1
100
AcDbVisualStyle
  2
Linepattern
 70
    14
 71
     2
 72
     2
 73
     0
 90
        0
 40
-0.6
 41
-30.0
 62
     5
 63
     7
 74
     1
 91
        4
 64
     7
 65
   257
 75
     7
175
     7
 42
1.0
 92
        8
 66
     7
 43
1.0
 76
     1
 77
     6
 78
     2
 67
     7
 79
     5
170
     0
171
     0
290
     0
174
     0
 93
        1
 44
0.0
173
     0
291
     1
 45
0.0
1001
ACAD
1000
AcDbSavedByObjectVersion
1070
     0
  0
VISUALSTYLE
  5
B0FB
102
{ACAD_REACTORS
330
B0F1
102
}
330
B0F1
100
AcDbVisualStyle
  2
Realistic
 70
     8
 71
     2
 72
     2
 73
     0
 90
        0
 40
-0.6
 41
-30.0
 62
     5
 63
     7
 74
     1
 91
        0
 64
     7
 65
   257
 75
     1
175
     1
 42
1.0
 92
        8
 66
     8
 43
1.0
 76
     1
 77
     6
 78
     2
 67
     7
 79
     5
170
     0
171
     0
290
     0
174
     0
 93
       13
 44
0.0
173
     0
291
     0
 45
0.0
1001
ACAD
1000
AcDbSavedByObjectVersion
1070
     0
  0
VISUALSTYLE
  5
B0FE
102
{ACAD_REACTORS
330
B0F1
102
}
330
B0F1
100
AcDbVisualStyle
  2
Thicken
 70
    13
 71
     2
 72
     2
 73
     0
 90
        0
 40
-0.6
 41
-30.0
 62
     5
 63
     7
 74
     1
 91
        4
 64
     7
 65
   257
 75
     1
175
     1
 42
1.0
 92
       12
 66
     7
 43
1.0
 76
     1
 77
     6
 78
     2
 67
     7
 79
     5
170
     0
171
     0
290
     0
174
     0
 93
        1
 44
0.0
173
     0
291
     1
 45
0.0
1001
ACAD
1000
AcDbSavedByObjectVersion
1070
     0
  0
DICTIONARYVAR
  5
AAF3
102
{ACAD_REACTORS
330
34
102
}
330
34
100
DictionaryVariables
280
     0
  1
STANDARD
  0
DICTIONARYVAR
  5
A10C
102
{ACAD_REACTORS
330
34
102
}
330
34
100
DictionaryVariables
280
     0
  1
1
  0
DICTIONARYVAR
  5
AB07
102
{ACAD_REACTORS
330
34
102
}
330
34
100
DictionaryVariables
280
     0
  1
4
  0
DICTIONARYVAR
  5
35
102
{ACAD_REACTORS
330
34
102
}
330
34
100
DictionaryVariables
280
     0
  1
0
  0
DICTIONARYVAR
  5
194C
102
{ACAD_REACTORS
330
34
102
}
330
34
100
DictionaryVariables
280
     0
  1
96
  0
DICTIONARY
  5
7E8
102
{ACAD_REACTORS
330
47
102
}
330
47
100
AcDbDictionary
281
     1
  0
DICTIONARY
  5
4C
102
{ACAD_REACTORS
330
47
102
}
330
47
100
AcDbDictionary
281
     1
  0
XRECORD
  5
A929
102
{ACAD_REACTORS
330
47
102
}
330
47
100
AcDbXrecord
280
     1
 90
-1023410169
  0
XRECORD
  5
B332
102
{ACAD_REACTORS
330
B331
102
}
330
B331
100
AcDbXrecord
280
     1
  0
XRECORD
  5
3FB7
102
{ACAD_REACTORS
330
3F96
102
}
330
3F96
100
AcDbXrecord
280
     1
 91
        3
330
0
 90
        8
 62
     7
370
    40
331
16
  1
Color_7
330
0
 90
        0
 62
    14
370
    -3
331
16
  1
Color_14
330
0
 90
        8
 62
     7
370
    20
331
16
  1
Color_7
330
6D1
 90
        0
 62
     7
370
    -3
331
16
  1
Color_7
330
0
 90
        8
 62
     7
370
    50
331
16
  1
Color_7
330
0
 90
        8
 62
     2
370
    35
331
16
  1
Color_2
330
0
 90
        8
 62
     7
370
    -3
331
16
  1
Color_7
330
10
 90
        8
 62
     7
370
    -3
331
16
  1
Color_7
  0
DICTIONARY
  5
B976
330
22
100
AcDbDictionary
280
     1
281
     1
  3
ACAD_XREC_ROUNDTRIP
360
B977
  0
DICTIONARY
  5
B974
330
1E
100
AcDbDictionary
280
     1
281
     1
  3
ACAD_XREC_ROUNDTRIP
360
B975
  0
DICTIONARY
  5
B978
330
26
100
AcDbDictionary
280
     1
281
     1
  3
ACAD_XREC_ROUNDTRIP
360
B979
  0
DICTIONARY
  5
B97E
330
B0EF
100
AcDbDictionary
280
     1
281
     1
  3
ACAD_XREC_ROUNDTRIP
360
B97F
  0
DICTIONARY
  5
B97C
330
B0EE
100
AcDbDictionary
280
     1
281
     1
  3
ACAD_XREC_ROUNDTRIP
360
B97D
  0
DICTIONARY
  5
B980
330
B0F0
100
AcDbDictionary
280
     1
281
     1
  3
ACAD_XREC_ROUNDTRIP
360
B981
  0
DICTIONARY
  5
B97A
330
AABA
100
AcDbDictionary
280
     1
281
     1
  3
ACAD_XREC_ROUNDTRIP
360
B97B
  0
XRECORD
  5
B977
102
{ACAD_REACTORS
330
B976
102
}
330
B976
100
AcDbXrecord
280
     1
102
SHADEPLOT
 70
     0
102
SHADEPLOTRESLEVEL
 70
     2
102
SHADEPLOTCUSTOMDPI
 70
   200
  0
XRECORD
  5
B975
102
{ACAD_REACTORS
330
B974
102
}
330
B974
100
AcDbXrecord
280
     1
102
SHADEPLOT
 70
     0
102
SHADEPLOTRESLEVEL
 70
     2
102
SHADEPLOTCUSTOMDPI
 70
   300
  0
XRECORD
  5
B979
102
{ACAD_REACTORS
330
B978
102
}
330
B978
100
AcDbXrecord
280
     1
102
SHADEPLOT
 70
     0
102
SHADEPLOTRESLEVEL
 70
     2
102
SHADEPLOTCUSTOMDPI
 70
   300
  0
XRECORD
  5
B97F
102
{ACAD_REACTORS
330
B97E
102
}
330
B97E
100
AcDbXrecord
280
     1
102
MATERIAL
148
0.0
149
0.0
149
0.0
 93
        0
 94
       63
282
     0
 72
     1
 77
     1
171
     1
175
     1
179
     1
273
     0
  0
XRECORD
  5
B97D
102
{ACAD_REACTORS
330
B97C
102
}
330
B97C
100
AcDbXrecord
280
     1
102
MATERIAL
148
0.0
149
0.0
149
0.0
 93
        0
 94
       63
282
     0
 72
     1
 77
     1
171
     1
175
     1
179
     1
273
     0
  0
XRECORD
  5
B981
102
{ACAD_REACTORS
330
B980
102
}
330
B980
100
AcDbXrecord
280
     1
102
MATERIAL
148
0.0
149
0.0
149
0.0
 93
        0
 94
       63
282
     0
 72
     1
 77
     1
171
     1
175
     1
179
     1
273
     0
  0
XRECORD
  5
B97B
102
{ACAD_REACTORS
330
B97A
102
}
330
B97A
100
AcDbXrecord
280
     1
102
ACAD_ROUNDTRIP_PRE2007_TABLESTYLE
 90
        4
 91
        0
  1

 92
        4
 93
        0
  2

 94
        4
 95
        0
  3

  0
ENDSEC
  0
EOF
