  0
SECTION
  2
HEADER
  9
$ACADVER
  1
AC1015
  9
$ACADMAINTVER
 70
    20
  9
$DWGCODEPAGE
  3
ANSI_932
  9
$INSBASE
 10
0.0
 20
0.0
 30
0.0
  9
$EXTMIN
 10
-0.1219321234525523
 20
-0.1133952978543675
 30
-0.0000000349181948
  9
$EXTMAX
 10
273.0307597608667
 20
171.1294641063659
 30
0.0000000814935746
  9
$LIMMIN
 10
1700.85588156276
 20
1647.985052086429
  9
$LIMMAX
 10
1997.85588156276
 20
1857.985052086429
  9
$ORTHOMODE
 70
     0
  9
$REGENMODE
 70
     1
  9
$FILLMODE
 70
     1
  9
$QTEXTMODE
 70
     0
  9
$MIRRTEXT
 70
     0
  9
$LTSCALE
 40
1.0
  9
$ATTMODE
 70
     1
  9
$TEXTSIZE
 40
3.2
  9
$TRACEWID
 40
1.0
  9
$TEXTSTYLE
  7
STANDARD
  9
$CLAYER
  8
AM_0
  9
$CELTYPE
  6
ByLayer
  9
$CECOLOR
 62
   256
  9
$CELTSCALE
 40
1.0
  9
$DISPSILH
 70
     0
  9
$DIMSCALE
 40
1.0
  9
$DIMASZ
 40
1.0
  9
$DIMEXO
 40
1.0
  9
$DIMDLI
 40
10.0
  9
$DIMRND
 40
0.0
  9
$DIMDLE
 40
0.0
  9
$DIMEXE
 40
1.0
  9
$DIMTP
 40
0.1
  9
$DIMTM
 40
0.1
  9
$DIMTXT
 40
3.5
  9
$DIMCEN
 40
0.0
  9
$DIMTSZ
 40
0.0
  9
$DIMTOL
 70
     0
  9
$DIMLIM
 70
     0
  9
$DIMTIH
 70
     0
  9
$DIMTOH
 70
     0
  9
$DIMSE1
 70
     0
  9
$DIMSE2
 70
     0
  9
$DIMTAD
 70
     1
  9
$DIMZIN
 70
     8
  9
$DIMBLK
  1

  9
$DIMASO
 70
     1
  9
$DIMSHO
 70
     1
  9
$DIMPOST
  1

  9
$DIMAPOST
  1
"
  9
$DIMALT
 70
     0
  9
$DIMALTD
 70
     2
  9
$DIMALTF
 40
0.0393701
  9
$DIMLFAC
 40
1.0
  9
$DIMTOFL
 70
     1
  9
$DIMTVP
 40
0.0
  9
$DIMTIX
 70
     0
  9
$DIMSOXD
 70
     0
  9
$DIMSAH
 70
     0
  9
$DIMBLK1
  1

  9
$DIMBLK2
  1

  9
$DIMSTYLE
  2
SYS
  9
$DIMCLRD
 70
   256
  9
$DIMCLRE
 70
   256
  9
$DIMCLRT
 70
     7
  9
$DIMTFAC
 40
0.71
  9
$DIMGAP
 40
1.5
  9
$DIMJUST
 70
     0
  9
$DIMSD1
 70
     0
  9
$DIMSD2
 70
     0
  9
$DIMTOLJ
 70
     0
  9
$DIMTZIN
 70
     8
  9
$DIMALTZ
 70
     0
  9
$DIMALTTZ
 70
     0
  9
$DIMUPT
 70
     0
  9
$DIMDEC
 70
     2
  9
$DIMTDEC
 70
     2
  9
$DIMALTU
 70
     2
  9
$DIMALTTD
 70
     2
  9
$DIMTXSTY
  7
STANDARD
  9
$DIMAUNIT
 70
     0
  9
$DIMADEC
 70
     0
  9
$DIMALTRND
 40
0.0
  9
$DIMAZIN
 70
     2
  9
$DIMDSEP
 70
    46
  9
$DIMATFIT
 70
     3
  9
$DIMFRAC
 70
     0
  9
$DIMLDRBLK
  1

  9
$DIMLUNIT
 70
     2
  9
$DIMLWD
 70
    -1
  9
$DIMLWE
 70
    -1
  9
$DIMTMOVE
 70
     0
  9
$LUNITS
 70
     2
  9
$LUPREC
 70
     2
  9
$SKETCHINC
 40
1.0
  9
$FILLETRAD
 40
0.0
  9
$AUNITS
 70
     0
  9
$AUPREC
 70
     0
  9
$MENU
  1
.
  9
$ELEVATION
 40
0.0
  9
$PELEVATION
 40
0.0
  9
$THICKNESS
 40
0.0
  9
$LIMCHECK
 70
     0
  9
$CHAMFERA
 40
0.0
  9
$CHAMFERB
 40
0.0
  9
$CHAMFERC
 40
20.0
  9
$CHAMFERD
 40
0.0
  9
$SKPOLY
 70
     0
  9
$TDCREATE
 40
2456737.643185938
  9
$TDUCREATE
 40
2456737.268185937
  9
$TDUPDATE
 40
2456743.390084630
  9
$TDUUPDATE
 40
2456743.015084629
  9
$TDINDWG
 40
0.0236338889
  9
$TDUSRTIMER
 40
0.0236337153
  9
$USRTIMER
 70
     1
  9
$ANGBASE
 50
0.0
  9
$ANGDIR
 70
     0
  9
$PDMODE
 70
     0
  9
$PDSIZE
 40
-3.0
  9
$PLINEWID
 40
0.0
  9
$SPLFRAME
 70
     0
  9
$SPLINETYPE
 70
     6
  9
$SPLINESEGS
 70
     8
  9
$HANDSEED
  5
BA22
  9
$SURFTAB1
 70
     6
  9
$SURFTAB2
 70
     6
  9
$SURFTYPE
 70
     6
  9
$SURFU
 70
     6
  9
$SURFV
 70
     6
  9
$UCSBASE
  2

  9
$UCSNAME
  2

  9
$UCSORG
 10
0.0
 20
0.0
 30
0.0
  9
$UCSXDIR
 10
1.0
 20
0.0
 30
0.0
  9
$UCSYDIR
 10
0.0
 20
1.0
 30
0.0
  9
$UCSORTHOREF
  2

  9
$UCSORTHOVIEW
 70
     0
  9
$UCSORGTOP
 10
0.0
 20
0.0
 30
0.0
  9
$UCSORGBOTTOM
 10
0.0
 20
0.0
 30
0.0
  9
$UCSORGLEFT
 10
0.0
 20
0.0
 30
0.0
  9
$UCSORGRIGHT
 10
0.0
 20
0.0
 30
0.0
  9
$UCSORGFRONT
 10
0.0
 20
0.0
 30
0.0
  9
$UCSORGBACK
 10
0.0
 20
0.0
 30
0.0
  9
$PUCSBASE
  2

  9
$PUCSNAME
  2

  9
$PUCSORG
 10
0.0
 20
0.0
 30
0.0
  9
$PUCSXDIR
 10
1.0
 20
0.0
 30
0.0
  9
$PUCSYDIR
 10
0.0
 20
1.0
 30
0.0
  9
$PUCSORTHOREF
  2

  9
$PUCSORTHOVIEW
 70
     0
  9
$PUCSORGTOP
 10
0.0
 20
0.0
 30
0.0
  9
$PUCSORGBOTTOM
 10
0.0
 20
0.0
 30
0.0
  9
$PUCSORGLEFT
 10
0.0
 20
0.0
 30
0.0
  9
$PUCSORGRIGHT
 10
0.0
 20
0.0
 30
0.0
  9
$PUCSORGFRONT
 10
0.0
 20
0.0
 30
0.0
  9
$PUCSORGBACK
 10
0.0
 20
0.0
 30
0.0
  9
$USERI1
 70
     0
  9
$USERI2
 70
     0
  9
$USERI3
 70
     0
  9
$USERI4
 70
     0
  9
$USERI5
 70
     0
  9
$USERR1
 40
0.0
  9
$USERR2
 40
0.0
  9
$USERR3
 40
0.0
  9
$USERR4
 40
0.0
  9
$USERR5
 40
0.0
  9
$WORLDVIEW
 70
     1
  9
$SHADEDGE
 70
     3
  9
$SHADEDIF
 70
    70
  9
$TILEMODE
 70
     1
  9
$MAXACTVP
 70
    64
  9
$PINSBASE
 10
0.0
 20
0.0
 30
0.0
  9
$PLIMCHECK
 70
     0
  9
$PEXTMIN
 10
1.000000000000000E+20
 20
1.000000000000000E+20
 30
1.000000000000000E+20
  9
$PEXTMAX
 10
-1.000000000000000E+20
 20
-1.000000000000000E+20
 30
-1.000000000000000E+20
  9
$PLIMMIN
 10
-3.17498779296875
 20
-3.174999952316284
  9
$PLIMMAX
 10
293.4970092773438
 20
206.692492723465
  9
$UNITMODE
 70
     0
  9
$VISRETAIN
 70
     1
  9
$PLINEGEN
 70
     0
  9
$PSLTSCALE
 70
     1
  9
$TREEDEPTH
 70
  3020
  9
$CMLSTYLE
  2
Standard
  9
$CMLJUST
 70
     0
  9
$CMLSCALE
 40
20.0
  9
$PROXYGRAPHICS
 70
     1
  9
$MEASUREMENT
 70
     1
  9
$CELWEIGHT
370
    -1
  9
$ENDCAPS
280
     0
  9
$JOINSTYLE
280
     0
  9
$LWDISPLAY
290
     1
  9
$INSUNITS
 70
     4
  9
$HYPERLINKBASE
  1

  9
$STYLESHEET
  1
monochrome.ctb
  9
$XEDIT
290
     1
  9
$CEPSNTYPE
380
     0
  9
$PSTYLEMODE
290
     1
  9
$FINGERPRINTGUID
  2
{B098FAA3-9D44-4F50-AE1C-6BBEC182C417}
  9
$VERSIONGUID
  2
{6AC7F11B-2FA9-4FD6-87E4-8D3503462FF8}
  9
$EXTNAMES
290
     1
  9
$PSVPSCALE
 40
0.0
  9
$OLESTARTUP
290
     0
  0
ENDSEC
  0
SECTION
  2
CLASSES
  0
CLASS
  1
ACDBDICTIONARYWDFLT
  2
AcDbDictionaryWithDefault
  3
ObjectDBX Classes
 90
        0
280
     0
281
     0
  0
CLASS
  1
ACDBPLACEHOLDER
  2
AcDbPlaceHolder
  3
ObjectDBX Classes
 90
        0
280
     0
281
     0
  0
CLASS
  1
LAYOUT
  2
AcDbLayout
  3
ObjectDBX Classes
 90
        0
280
     0
281
     0
  0
CLASS
  1
AMGSETTINGSOBJ
  2
AmgSettingsObj
  3
"AcadM|Product Description: AutoCAD Mechanical|Company: Autodesk"
 90
        0
280
     0
281
     0
  0
CLASS
  1
ACME_DOCUMENT
  2
AcMeDbDoc
  3
AcMeServices
 90
        0
280
     0
281
     0
  0
CLASS
  1
ACMESCOPE
  2
AcMeScope
  3
AcMeServices
 90
        0
280
     0
281
     0
  0
CLASS
  1
ACMECOMMANDHISTORY
  2
AcMeCommandHistory
  3
AcMeServices
 90
        0
280
     0
281
     0
  0
CLASS
  1
DICTIONARYVAR
  2
AcDbDictionaryVar
  3
ObjectDBX Classes
 90
        0
280
     0
281
     0
  0
CLASS
  1
ACIMSYSVARMAN
  2
AcImSysVarManager
  3
AcMeServices
 90
        0
280
     0
281
     0
  0
CLASS
  1
ACIMREALSYSVAR
  2
AcImRealSysVar
  3
AcMeServices
 90
        0
280
     0
281
     0
  0
CLASS
  1
ACIMINTSYSVAR
  2
AcImIntSysVar
  3
AcMeServices
 90
        0
280
     0
281
     0
  0
CLASS
  1
ACMEDRAWINGMAN
  2
AcMeDrawingMan
  3
AcMeServices
 90
        0
280
     0
281
     0
  0
CLASS
  1
ACMEVIEW
  2
AcMeView
  3
AcMeServices
 90
        0
280
     0
281
     0
  0
CLASS
  1
ACDBENTITYCACHE
  2
AcMeEntityCache
  3
AcMeServices
 90
        0
280
     0
281
     0
  0
CLASS
  1
GSMANAGER
  2
AcMeGSManager
  3
AcMeServices
 90
        0
280
     0
281
     0
  0
CLASS
  1
AMDTINTERNALREACTOR
  2
AmdtInternalReactor
  3
AcMeServices
 90
        0
280
     0
281
     0
  0
CLASS
  1
ACMESTATEMGR
  2
AcMeStateMgr
  3
AcMeServices
 90
        0
280
     0
281
     0
  0
CLASS
  1
ACGREFMASTER
  2
AcGrefMaster
  3
AcAttribServices
 90
        0
280
     0
281
     0
  0
CLASS
  1
ACME_DATABASE
  2
AcMeDbDatabase
  3
AcMeServices
 90
        0
280
     0
281
     0
  0
CLASS
  1
ACRFINSADJUSTERMGR
  2
AcRfInsAdjusterMgr
  3
AcMeServices
 90
        0
280
     0
281
     0
  0
CLASS
  1
ACGREFACADMASTER
  2
AcGrefacadMaster
  3
AcGrefServices
 90
        0
280
     0
281
     0
  0
CLASS
  1
AMIMASTER
  2
AmiMaster
  3
AmiServices
 90
        0
280
     0
281
     0
  0
CLASS
  1
ACMDATADICTIONARY
  2
AcmDataDictionary
  3
"AcmSymBB|Product Description: AutoCAD Mechanical|Company: Autodesk"
 90
        0
280
     0
281
     0
  0
CLASS
  1
ACMDATAENTRYBLOCK
  2
AcmDataEntryBlock
  3
"AcmSymBB|Product Description: AutoCAD Mechanical|Company: Autodesk"
 90
        0
280
     0
281
     0
  0
CLASS
  1
ACIMSTRSYSVAR
  2
AcImStrSysVar
  3
AcMeServices
 90
        0
280
     0
281
     0
  0
CLASS
  1
ACMSTANDARDISO
  2
AcmStandardISO
  3
"Amdt_StdImp|Product Description: AutoCAD Mechanical|Company: Autodesk"
 90
        0
280
     0
281
     0
  0
CLASS
  1
AMGOBJPROPCFG
  2
AmgObjPropCfg
  3
"AmgLay|Product Description: AutoCAD Mechanical|Company: Autodesk"
 90
        1
280
     0
281
     0
  0
CLASS
  1
AMDTEDGESTANDARDISO
  2
AmdtEdgeStdISO
  3
"Amdt_StdImp|Product Description: AutoCAD Mechanical|Company: Autodesk"
 90
        0
280
     0
281
     0
  0
CLASS
  1
ACMSURFSTANDARDISO
  2
AcmSurfTextStdISO
  3
"Amdt_StdImp|Product Description: AutoCAD Mechanical|Company: Autodesk"
 90
        0
280
     0
281
     0
  0
CLASS
  1
ACMFCFSTANDARDISO
  2
AcmFCFStdISO
  3
"Amdt_StdImp|Product Description: AutoCAD Mechanical|Company: Autodesk"
 90
        0
280
     0
281
     0
  0
CLASS
  1
ACMWELDSTANDARDISO
  2
AcmWeldingStdISO
  3
"Amdt_StdImp|Product Description: AutoCAD Mechanical|Company: Autodesk"
 90
        0
280
     0
281
     0
  0
CLASS
  1
ACMIDSTANDARDISO
  2
AcmIdStdISO
  3
"Amdt_StdImp|Product Description: AutoCAD Mechanical|Company: Autodesk"
 90
        0
280
     0
281
     0
  0
CLASS
  1
ACMDATUMSTANDARDISO
  2
AcmDatumStdISO
  3
"Amdt_StdImp|Product Description: AutoCAD Mechanical|Company: Autodesk"
 90
        0
280
     0
281
     0
  0
CLASS
  1
ACMBOMSTANDARDISO
  2
AcmBOMStdISO
  3
"Amdt_StdImp|Product Description: AutoCAD Mechanical|Company: Autodesk"
 90
        0
280
     0
281
     0
  0
CLASS
  1
ACMDETAILSTANDARDISO
  2
AmdtDetailSymStdISO
  3
"Amdt_StdImp|Product Description: AutoCAD Mechanical|Company: Autodesk"
 90
        0
280
     0
281
     0
  0
CLASS
  1
ACMSECTIONSTANDARDISO
  2
AmdtSectionSymStdISO
  3
"Amdt_StdImp|Product Description: AutoCAD Mechanical|Company: Autodesk"
 90
        0
280
     0
281
     0
  0
CLASS
  1
ACMCENTERLINESTANDARDISO
  2
AmdtCenterLineStdISO
  3
"Amdt_StdImp|Product Description: AutoCAD Mechanical|Company: Autodesk"
 90
        0
280
     0
281
     0
  0
CLASS
  1
ACAMGLAYSTD
  2
AcAmgLayStd
  3
"AmgLay|Product Description: AutoCAD Mechanical|Company: Autodesk"
 90
        0
280
     0
281
     0
  0
CLASS
  1
ACAMGDIMSTD
  2
AcAmgDimStd
  3
"AmgDim|Product Description: AutoCAD Mechanical|Company: Autodesk"
 90
        0
280
     0
281
     0
  0
CLASS
  1
ACAMGTITLESTD
  2
AcAmgTitleStd
  3
"AmgTitle|Product Description: AutoCAD Mechanical|Company: Autodesk"
 90
        0
280
     0
281
     0
  0
CLASS
  1
ACAMGFILTERDAT
  2
AcAmgFilterDat
  3
"AcadM|Product Description: AutoCAD Mechanical|Company: Autodesk"
 90
        0
280
     0
281
     0
  0
CLASS
  1
LAYER_INDEX
  2
AcDbLayerIndex
  3
ObjectDBX Classes
 90
    32768
280
     0
281
     0
  0
CLASS
  1
IDBUFFER
  2
AcDbIdBuffer
  3
ObjectDBX Classes
 90
    32768
280
     0
281
     0
  0
CLASS
  1
PLOTSETTINGS
  2
AcDbPlotSettings
  3
ObjectDBX Classes
 90
    32768
280
     0
281
     0
  0
CLASS
  1
AMDTFORMULAUPDATEDISPATCHER
  2
AmdtFormulaUpdateDispatcher
  3
AcMeServices
 90
        0
280
     0
281
     0
  0
CLASS
  1
ACMSTANDARDANSI
  2
AcmStandardANSI
  3
"Amdt_StdImp|Product Description: AutoCAD Mechanical|Company: Autodesk"
 90
        0
280
     0
281
     0
  0
CLASS
  1
ACMSURFSTANDARDANSI
  2
AcmSurfTextStdANSI
  3
"Amdt_StdImp|Product Description: AutoCAD Mechanical|Company: Autodesk"
 90
        0
280
     0
281
     0
  0
CLASS
  1
ACMFCFSTANDARDANSI
  2
AcmFCFStdANSI
  3
"Amdt_StdImp|Product Description: AutoCAD Mechanical|Company: Autodesk"
 90
        0
280
     0
281
     0
  0
CLASS
  1
ACMWELDSTANDARDANSI
  2
AcmWeldingStdANSI
  3
"Amdt_StdImp|Product Description: AutoCAD Mechanical|Company: Autodesk"
 90
        0
280
     0
281
     0
  0
CLASS
  1
ACMIDSTANDARDANSI
  2
AcmIdStdANSI
  3
"Amdt_StdImp|Product Description: AutoCAD Mechanical|Company: Autodesk"
 90
        0
280
     0
281
     0
  0
CLASS
  1
ACMDATUMSTANDARDANSI
  2
AcmDatumStdANSI
  3
"Amdt_StdImp|Product Description: AutoCAD Mechanical|Company: Autodesk"
 90
        0
280
     0
281
     0
  0
CLASS
  1
ACMBOMSTANDARDANSI
  2
AcmBOMStdANSI
  3
"Amdt_StdImp|Product Description: AutoCAD Mechanical|Company: Autodesk"
 90
        0
280
     0
281
     0
  0
CLASS
  1
ACMDETAILSTANDARDANSI
  2
AmdtDetailSymStdANSI
  3
"Amdt_StdImp|Product Description: AutoCAD Mechanical|Company: Autodesk"
 90
        0
280
     0
281
     0
  0
CLASS
  1
ACMSECTIONSTANDARDANSI
  2
AmdtSectionSymStdANSI
  3
"Amdt_StdImp|Product Description: AutoCAD Mechanical|Company: Autodesk"
 90
        0
280
     0
281
     0
  0
CLASS
  1
ACMCENTERLINESTANDARDANSI
  2
AmdtCenterLineStdANSI
  3
"Amdt_StdImp|Product Description: AutoCAD Mechanical|Company: Autodesk"
 90
        0
280
     0
281
     0
  0
CLASS
  1
ACMBOM
  2
AcmBom
  3
"AcmSymBB|Product Description: AutoCAD Mechanical|Company: Autodesk"
 90
        0
280
     0
281
     0
  0
CLASS
  1
ACMDATAENTRYPART
  2
AcmDataEntryPart
  3
"AcmSymBB|Product Description: AutoCAD Mechanical|Company: Autodesk"
 90
    32768
280
     0
281
     0
  0
CLASS
  1
ACMPARTREF
  2
AcmPartRef
  3
"AcmSymBB|Product Description: AutoCAD Mechanical|Company: Autodesk"
 90
    35839
280
     0
281
     1
  0
CLASS
  1
ACDBCIRCARCRES
  2
AcDbCircArcRes
  3
AcGrefServices
 90
    32768
280
     0
281
     0
  0
CLASS
  1
ACMBOMROW
  2
AcmBomRow
  3
"AcmSymBB|Product Description: AutoCAD Mechanical|Company: Autodesk"
 90
    32768
280
     0
281
     0
  0
CLASS
  1
ACMBALLOON
  2
AcmBalloon
  3
"AcmSymBB|Product Description: AutoCAD Mechanical|Company: Autodesk"
 90
    35839
280
     0
281
     1
  0
CLASS
  1
AMDTNOTE
  2
AmdtNote
  3
"AcmSymBB|Product Description: AutoCAD Mechanical|Company: Autodesk"
 90
     3071
280
     0
281
     1
  0
CLASS
  1
STDPART2D
  2
AmgStdPart
  3
"g3vace|Class: AmgStdPart|Product Description: AutoCAD Mechanical|Company: Autodesk"
 90
    35839
280
     0
281
     1
  0
CLASS
  1
ACDBSTDPARTRES_LINE
  2
AcDbStdPartRes_Line
  3
"g3vace|Class: AcDbStdPartRes_Line|Product Description: AutoCAD Mechanical|Company: Autodesk"
 90
    32768
280
     0
281
     0
  0
CLASS
  1
ACMDATAENTRY
  2
AcmDataEntry
  3
"AcmSymBB|Product Description: AutoCAD Mechanical|Company: Autodesk"
 90
        0
280
     0
281
     0
  0
CLASS
  1
ACDBOPPOLYLINERES
  2
AcDbOpPolylineRes
  3
AcGrefServices
 90
    32768
280
     0
281
     0
  0
CLASS
  1
ACMPARTLIST
  2
AcmPartList
  3
"AcmSymBB|Product Description: AutoCAD Mechanical|Company: Autodesk"
 90
    35839
280
     0
281
     1
  0
CLASS
  1
ACDBLINERES
  2
AcDbLineRes
  3
AcGrefServices
 90
        0
280
     0
281
     0
  0
CLASS
  1
ACRFINSADJ
  2
AcRfInsAdjuster
  3
AcMeServices
 90
    32768
280
     0
281
     0
  0
CLASS
  1
AM_DRAWING_MGR
  2
AcDmDwgMgr
  3
AcMechDwgViewMgmt
 90
        0
280
     0
281
     0
  0
CLASS
  1
AM_DWG_DOCUMENT
  2
AcDmDwgDocument
  3
AcMechDwgViewMgmt
 90
        0
280
     0
281
     0
  0
CLASS
  1
AM_DWG_SHEET
  2
AcDmSheet
  3
AcMechDwgViewMgmt
 90
        0
280
     0
281
     0
  0
CLASS
  1
AM_VIEWDIMPARMAP
  2
AcDmViewDimParMap
  3
AcMechDwgViewMgmt
 90
        0
280
     0
281
     0
  0
CLASS
  1
AM_DWGMGR_NAME
  2
AcDmDwgMgrName
  3
AcMechDwgViewMgmt
 90
        0
280
     0
281
     0
  0
CLASS
  1
AMDTMENUSTATEMGR
  2
AmdtMenuStateMgr
  3
McadcomServices
 90
        0
280
     0
281
     0
  0
CLASS
  1
AMDTMCOMMENUSTATE
  2
AmdtMcomMenuState
  3
McadcomServices
 90
        0
280
     0
281
     0
  0
CLASS
  1
ASAPP
  2
AcAsAppObject
  3
AutoSurfServices
 90
        0
280
     0
281
     0
  0
CLASS
  1
IM_STATIC_MAN
  2
AcImStaticVarManager
  3
AcMeServices
 90
        0
280
     0
281
     0
  0
CLASS
  1
ACIMDBLSTATICVAR
  2
AcImDblStaticVar
  3
AcMeServices
 90
        0
280
     0
281
     0
  0
CLASS
  1
ACIMSTRSTATICVAR
  2
AcImStrStaticVar
  3
AcMeServices
 90
        0
280
     0
281
     0
  0
CLASS
  1
ACIMINTSTATICVAR
  2
AcImIntStaticVar
  3
AcMeServices
 90
        0
280
     0
281
     0
  0
CLASS
  1
ACASGREFMASTER
  2
AcAsGrefMaster
  3
AutoSurfResolverServices
 90
        0
280
     0
281
     0
  0
CLASS
  1
ACADGREFMODULE
  2
AcAdGrefModule
  3
AdGrefServices
 90
        0
280
     0
281
     0
  0
CLASS
  1
AMDTMAPISURFMOUDULE
  2
AmdtMApiSurfModule
  3
MApiSurfServices
 90
        0
280
     0
281
     0
  0
CLASS
  1
MAPIAMMOUDLE
  2
MApiAmModule
  3
MApiAmServices
 90
        0
280
     0
281
     0
  0
CLASS
  1
AMDTADMENUSTATE
  2
AmdtAdMenuState
  3
DesignerServices
 90
        0
280
     0
281
     0
  0
CLASS
  1
ADAPPL
  2
AcAdAppl
  3
DesignerServices
 90
        0
280
     0
281
     0
  0
CLASS
  1
DEPMGR
  2
AcAdDepMgr
  3
DesignerServices
 90
        0
280
     0
281
     0
  0
CLASS
  1
PARAMMGR
  2
AcAdParamMgr
  3
DesignerServices
 90
        0
280
     0
281
     0
  0
CLASS
  1
PARAMSCOPE
  2
AcAdParamScope
  3
DesignerServices
 90
        0
280
     0
281
     0
  0
CLASS
  1
NAMEDAPPL
  2
AcAdNamedAppl
  3
DesignerServices
 90
        0
280
     0
281
     0
  0
CLASS
  1
ADHNTMPLT
  2
AdHoleNoteTemplateMgr
  3
DesignerServices
 90
    32768
280
     0
281
     0
  0
CLASS
  1
AM_HNTEMPLATE_MGR_NAME
  2
AdHoleNoteTemplateMgrName
  3
DesignerServices
 90
    32768
280
     0
281
     0
  0
CLASS
  1
AMDTDMMENUSTATE
  2
AmdtDmMenuState
  3
AcMechDwgViewMgmt
 90
        0
280
     0
281
     0
  0
CLASS
  1
MAPIADMODULE
  2
MApiAdModule
  3
MApiAdServices
 90
        0
280
     0
281
     0
  0
CLASS
  1
AMDTAMMENUSTATE
  2
AmdtAmMenuState
  3
DesignerAssemblies
 90
        0
280
     0
281
     0
  0
CLASS
  1
ACAMPROJECT
  2
AcAmProject
  3
DesignerAssemblies
 90
        0
280
     0
281
     0
  0
CLASS
  1
ACAMGRCOMPDEF
  2
AcAmGrCompDef
  3
DesignerAssemblies
 90
        0
280
     0
281
     0
  0
CLASS
  1
ACCMCONTEXT
  2
AcCmContext
  3
DesignerAssemblies
 90
        0
280
     0
281
     0
  0
CLASS
  1
ACAMCOMPDEF
  2
AcAmCompDef
  3
DesignerAssemblies
 90
        0
280
     0
281
     0
  0
CLASS
  1
ACAMCOMPDEFMGR
  2
AcAmCompDefMgr
  3
DesignerAssemblies
 90
        0
280
     0
281
     0
  0
CLASS
  1
AMCONTEXTMGR
  2
AcAmContextMgr
  3
DesignerAssemblies
 90
        0
280
     0
281
     0
  0
CLASS
  1
ACAMCONTEXTMODELER
  2
AcAmContextModeler
  3
DesignerAssemblies
 90
        0
280
     0
281
     0
  0
CLASS
  1
CATALOGSTATE
  2
AcAmCatalogState
  3
DesignerAssemblies
 90
        0
280
     0
281
     0
  0
CLASS
  1
ACAMGRCOMPDEFSET
  2
AcAmGrCompDefSet
  3
DesignerAssemblies
 90
        0
280
     0
281
     0
  0
CLASS
  1
AMDTBROWSERDBTAB
  2
AmdtBrowserDbTab
  3
McadcomServices
 90
        0
280
     0
281
     0
  0
CLASS
  1
CBROWSERAPPOBJECT
  2
CBrowserAppObject
  3
McadcomServices
 90
        0
280
     0
281
     0
  0
CLASS
  1
DM_PLACEHOLDER
  2
AcDmSelsetPlaceholder
  3
AcMechDwgViewMgmt
 90
        0
280
     0
281
     0
  0
CLASS
  1
ACMPICKOBJ
  2
AcmPickEnt
  3
"AcmSymBB|Product Description: AutoCAD Mechanical|Company: Autodesk"
 90
    32768
280
     0
281
     1
  0
CLASS
  1
ACMNOTESTANDARDISO
  2
AmdtNoteStdISO
  3
"Amdt_StdImp|Product Description: AutoCAD Mechanical|Company: Autodesk"
 90
        0
280
     0
281
     0
  0
CLASS
  1
ACMNOTESTANDARDANSI
  2
AmdtNoteStdANSI
  3
"Amdt_StdImp|Product Description: AutoCAD Mechanical|Company: Autodesk"
 90
        0
280
     0
281
     0
  0
CLASS
  1
ACMTHREADLINESTANDARDISO
  2
AmdtThreadLineStdISO
  3
"Amdt_StdImp|Product Description: AutoCAD Mechanical|Company: Autodesk"
 90
        0
280
     0
281
     0
  0
CLASS
  1
ACMTHREADLINESTANDARDANSI
  2
AmdtThreadLineStdANSI
  3
"Amdt_StdImp|Product Description: AutoCAD Mechanical|Company: Autodesk"
 90
        0
280
     0
281
     0
  0
CLASS
  1
TABLESTYLE
  2
AcDbTableStyle
  3
ObjectDBX Classes
 90
     4095
280
     0
281
     0
  0
CLASS
  1
SORTENTSTABLE
  2
AcDbSortentsTable
  3
ObjectDBX Classes
 90
        0
280
     0
281
     0
  0
CLASS
  1
MATERIAL
  2
AcDbMaterial
  3
ObjectDBX Classes
 90
     1024
280
     0
281
     0
  0
CLASS
  1
VISUALSTYLE
  2
AcDbVisualStyle
  3
ObjectDBX Classes
 90
     4095
280
     0
281
     0
  0
CLASS
  1
ACRFATTGENMGR
  2
AcRfAttGeneralMgr
  3
AcAttribServices
 90
        0
280
     0
281
     0
  0
CLASS
  1
ACRFOBJATTMGR
  2
AcRfObjAttGroupMgr
  3
AcAttribServices
 90
        0
280
     0
281
     0
  0
CLASS
  1
ACRFMCADAPIATTHOLDER
  2
AcRfMCADAPIAttHolder
  3
AcAttribServices
 90
        0
280
     0
281
     0
  0
CLASS
  1
AMDTSYSATTR
  2
AmdtSystemAttribute
  3
AcAttribServices
 90
        0
280
     0
281
     0
  0
CLASS
  1
ACMTAPERSTANDARDISO
  2
AcmTaperStdISO
  3
"Amdt_StdImp|Product Description: AutoCAD Mechanical|Company: Autodesk"
 90
        0
280
     0
281
     0
  0
CLASS
  1
CAMSSTRUCTBTNSTATE
  2
StructBtnState
  3
L"DesignerAssemblies"
 90
        0
280
     0
281
     0
  0
CLASS
  1
DIMASSOC
  2
AcDbDimAssoc
  3
"AcDbDimAssoc|Product Desc:     AcDim ARX App For Dimension|Company:          Autodesk, Inc.|WEB Address:      www.autodesk.com"
 90
    32768
280
     0
281
     0
  0
CLASS
  1
AMDTNOTETEMPLATEDB
  2
AmdtNoteTemplateDB
  3
AMDT_STDIMP_MODULE_NAME
 90
        0
280
     0
281
     0
  0
CLASS
  1
ACMTAPERSTANDARDANSI
  2
AcmTaperStdANSI
  3
"Amdt_StdImp|Product Description: AutoCAD Mechanical|Company: Autodesk"
 90
        0
280
     0
281
     0
  0
CLASS
  1
ACAMGHOLECHARTSTDANSI
  2
AcAmgHoleChartStdANSI
  3
ACMSYMBB_MODULE_NAME
 90
        0
280
     0
281
     0
  0
ENDSEC
  0
SECTION
  2
TABLES
  0
TABLE
  2
VPORT
  5
8
330
0
100
AcDbSymbolTable
 70
     1
  0
VPORT
  5
B0EC
330
8
100
AcDbSymbolTableRecord
100
AcDbViewportTableRecord
  2
*Active
 70
     0
 10
0.0
 20
0.0
 11
1.0
 21
1.0
 12
136.454413818707
 22
85.5080344042558
 13
0.0
 23
0.0
 14
2.5
 24
2.5
 15
10.0
 25
10.0
 16
0.0
 26
0.0
 36
1.0
 17
0.0
 27
0.0
 37
0.0
 40
172.503543031736
 41
1.648648648648648
 42
50.0
 43
-1370.695619172058
 44
-1370.695619172058
 50
0.0
 51
0.0
 71
    16
 72
   100
 73
     1
 74
     3
 75
     0
 76
     0
 77
     0
 78
     0
281
     0
 65
     0
110
0.0
120
0.0
130
0.0
111
1.0
121
0.0
131
0.0
112
0.0
122
1.0
132
0.0
 79
     0
146
0.0
  0
ENDTAB
  0
TABLE
  2
LTYPE
  5
5
330
0
100
AcDbSymbolTable
 70
    32
  0
LTYPE
  5
14
330
5
100
AcDbSymbolTableRecord
100
AcDbLinetypeTableRecord
  2
ByBlock
 70
     0
  3

 72
    65
 73
     0
 40
0.0
  0
LTYPE
  5
15
330
5
100
AcDbSymbolTableRecord
100
AcDbLinetypeTableRecord
  2
ByLayer
 70
     0
  3

 72
    65
 73
     0
 40
0.0
  0
LTYPE
  5
16
330
5
100
AcDbSymbolTableRecord
100
AcDbLinetypeTableRecord
  2
Continuous
 70
     0
  3
Solid line
 72
    65
 73
     0
 40
0.0
  0
LTYPE
  5
4F
330
5
100
AcDbSymbolTableRecord
100
AcDbLinetypeTableRecord
  2
AM_ISO02W050
 70
     0
  3
__ __ __ __ __ __ __ __ __ __ __ __ __ __ __
 72
    65
 73
     2
 40
7.5
 49
6.0
 74
     0
 49
-1.5
 74
     0
  0
LTYPE
  5
52
330
5
100
AcDbSymbolTableRecord
100
AcDbLinetypeTableRecord
  2
Amconstr
 70
     0
  3
_______________________
 72
    65
 73
     2
 40
9999.0
 49
9999.0
 74
     0
 49
0.0
 74
     0
  0
LTYPE
  5
64
330
5
100
AcDbSymbolTableRecord
100
AcDbLinetypeTableRecord
  2
ACISOWELD
 70
     0
  3
_ _ _ _ _
 72
    65
 73
     2
 40
2.0
 49
2.0
 74
     0
 49
-1.0
 74
     0
  0
LTYPE
  5
65
330
5
100
AcDbSymbolTableRecord
100
AcDbLinetypeTableRecord
  2
ACISOTGB
 70
     0
  3
__ . . __ . .
 72
    65
 73
     6
 40
9.0
 49
4.0
 74
     0
 49
-1.0
 74
     0
 49
1.0
 74
     0
 49
-1.0
 74
     0
 49
1.0
 74
     0
 49
-1.0
 74
     0
  0
LTYPE
  5
66
330
5
100
AcDbSymbolTableRecord
100
AcDbLinetypeTableRecord
  2
ACISOTGL
 70
     0
  3
_ _ _ _ _
 72
    65
 73
     2
 40
3.0
 49
2.0
 74
     0
 49
-1.0
 74
     0
  0
LTYPE
  5
69
330
5
100
AcDbSymbolTableRecord
100
AcDbLinetypeTableRecord
  2
CENTER
 70
     0
  3
__ . __
 72
    65
 73
     4
 40
7.0
 49
4.0
 74
     0
 49
-1.0
 74
     0
 49
1.0
 74
     0
 49
-1.0
 74
     0
  0
LTYPE
  5
A6E
330
5
100
AcDbSymbolTableRecord
100
AcDbLinetypeTableRecord
  2
PHANTOM2
 70
     0
  3
Phantom (.5x) ___ _ _ ___ _ _ ___ _ _ ___ _ _
 72
    65
 73
     6
 40
31.75
 49
15.875
 74
     0
 49
-3.174999999999999
 74
     0
 49
3.174999999999999
 74
     0
 49
-3.174999999999999
 74
     0
 49
3.174999999999999
 74
     0
 49
-3.174999999999999
 74
     0
  0
LTYPE
  5
4DED
330
5
100
AcDbSymbolTableRecord
100
AcDbLinetypeTableRecord
  2
中線
 70
     0
  3
___________________
 72
    65
 73
     2
 40
2.0
 49
1.0
 74
     0
 49
1.0
 74
     0
  0
LTYPE
  5
4DF6
330
5
100
AcDbSymbolTableRecord
100
AcDbLinetypeTableRecord
  2
細線
 70
     0
  3
___________________
 72
    65
 73
     2
 40
2.0
 49
1.0
 74
     0
 49
1.0
 74
     0
  0
LTYPE
  5
4DF7
330
5
100
AcDbSymbolTableRecord
100
AcDbLinetypeTableRecord
  2
太線
 70
     0
  3
___________________
 72
    65
 73
     2
 40
2.0
 49
1.0
 74
     0
 49
1.0
 74
     0
  0
LTYPE
  5
4EA7
330
5
100
AcDbSymbolTableRecord
100
AcDbLinetypeTableRecord
  2
文字
 70
     0
  3
_________________
 72
    65
 73
     2
 40
2.0
 49
1.0
 74
     0
 49
1.0
 74
     0
  0
LTYPE
  5
4EA9
330
5
100
AcDbSymbolTableRecord
100
AcDbLinetypeTableRecord
  2
寸法線
 70
     0
  3
________________
 72
    65
 73
     2
 40
2.0
 49
1.0
 74
     0
 49
1.0
 74
     0
  0
LTYPE
  5
4F12
330
5
100
AcDbSymbolTableRecord
100
AcDbLinetypeTableRecord
  2
ハッチング
 70
     0
  3
_________________
 72
    65
 73
     2
 40
2.0
 49
1.0
 74
     0
 49
1.0
 74
     0
  0
LTYPE
  5
5180
330
5
100
AcDbSymbolTableRecord
100
AcDbLinetypeTableRecord
  2
陰線1
 70
     0
  3
__ __ __ __
 72
    65
 73
     2
 40
4.0
 49
2.2
 74
     0
 49
-1.8
 74
     0
  0
LTYPE
  5
5182
330
5
100
AcDbSymbolTableRecord
100
AcDbLinetypeTableRecord
  2
切断線
 70
     0
  3
/\/-/\/-/\/-/\/-/\/-/\/
 72
    65
 73
     2
 40
11.0001
 49
0.0001
 74
     4
 75
   135
340
56
 46
0.04
 50
0.0
 44
0.0
 45
0.0
 49
-11.0
 74
     0
  0
LTYPE
  5
5183
330
5
100
AcDbSymbolTableRecord
100
AcDbLinetypeTableRecord
  2
想像線1
 70
     0
  3
__ __ __ _____ __ __ ____
 72
    65
 73
     6
 40
14.5
 49
6.0
 74
     0
 49
-1.5
 74
     0
 49
2.0
 74
     0
 49
-1.5
 74
     0
 49
2.0
 74
     0
 49
-1.5
 74
     0
  0
LTYPE
  5
5185
330
5
100
AcDbSymbolTableRecord
100
AcDbLinetypeTableRecord
  2
中心線1
 70
     0
  3
___ _ ___ _ ___
 72
    65
 73
     4
 40
18.0
 49
12.0
 74
     0
 49
-2.0
 74
     0
 49
2.0
 74
     0
 49
-2.0
 74
     0
  0
LTYPE
  5
5188
330
5
100
AcDbSymbolTableRecord
100
AcDbLinetypeTableRecord
  2
補助線
 70
     0
  3
______________
 72
    65
 73
     2
 40
2.0
 49
1.0
 74
     0
 49
1.0
 74
     0
  0
LTYPE
  5
6427
330
5
100
AcDbSymbolTableRecord
100
AcDbLinetypeTableRecord
  2
HIDDEN
 70
     0
  3
Hidden __ __ __ __ __ __ __ __ __ __ __ __ __ _
 72
    65
 73
     2
 40
0.375
 49
0.25
 74
     0
 49
-0.125
 74
     0
  0
LTYPE
  5
AC81
330
5
100
AcDbSymbolTableRecord
100
AcDbLinetypeTableRecord
  2
破断線
 70
     0
  3
/\/-/\/-/\/-/\/-/\/-/\/
 72
    65
 73
     2
 40
0.4401
 49
0.0001
 74
     4
 75
   136
340
AC80
 46
0.0016
 50
0.0
 44
0.0
 45
0.0
 49
-0.4400000000000001
 74
     0
  0
LTYPE
  5
AC9E
330
5
100
AcDbSymbolTableRecord
100
AcDbLinetypeTableRecord
  2
Amzigzag
 70
     0
  3
/\/-/\/-/\/-/\/-/\/-/\/
 72
    65
 73
     2
 40
11.0001
 49
0.0001
 74
     4
 75
   135
340
56
 46
0.04
 50
0.0
 44
0.0
 45
0.0
 49
-11.0
 74
     0
  0
LTYPE
  5
AF0F
330
5
100
AcDbSymbolTableRecord
100
AcDbLinetypeTableRecord
  2
genzigzag
 70
     0
  3
/\/-/\/-/\/-/\/-/\/-/\/
 72
    65
 73
     2
 40
12.0001
 49
0.0001
 74
     4
 75
   135
340
AC80
 46
2.0
 50
0.0
 44
0.0
 45
0.0
 49
-12.0
 74
     0
  0
LTYPE
  5
AF95
330
5
100
AcDbSymbolTableRecord
100
AcDbLinetypeTableRecord
  2
AM_ISO08W050
 70
     0
  3
____ . ____ . ____ . ____ . ____ . ____ . ____
 72
    65
 73
     4
 40
18.0
 49
12.0
 74
     0
 49
-1.5
 74
     0
 49
3.0
 74
     0
 49
-1.5
 74
     0
  0
LTYPE
  5
AF96
330
5
100
AcDbSymbolTableRecord
100
AcDbLinetypeTableRecord
  2
AM_ISO09W050
 70
     0
  3
_____ . . _____ . . _____ . . ____ .. ____
 72
    65
 73
     6
 40
22.5
 49
12.0
 74
     0
 49
-1.5
 74
     0
 49
3.0
 74
     0
 49
-1.5
 74
     0
 49
3.0
 74
     0
 49
-1.5
 74
     0
  0
LTYPE
  5
AF97
330
5
100
AcDbSymbolTableRecord
100
AcDbLinetypeTableRecord
  2
AM_ISO08W050x2
 70
     0
  3
__ . __ . __ . __ . __ . __
 72
    65
 73
     4
 40
9.0
 49
6.0
 74
     0
 49
-0.75
 74
     0
 49
1.5
 74
     0
 49
-0.75
 74
     0
  0
LTYPE
  5
AF98
330
5
100
AcDbSymbolTableRecord
100
AcDbLinetypeTableRecord
  2
AM_ISO02W050x2
 70
     0
  3
 _ _ _ _ _ _ _ _ _ _ _ _
 72
    65
 73
     2
 40
3.75
 49
3.0
 74
     0
 49
-0.75
 74
     0
  0
LTYPE
  5
B5AE
330
5
100
AcDbSymbolTableRecord
100
AcDbLinetypeTableRecord
  2
ACANSTGB
 70
     0
  3
__ . . __ . .
 72
    65
 73
     6
 40
0.35433070866
 49
0.15748031496
 74
     0
 49
-0.03937007874
 74
     0
 49
0.03937007874
 74
     0
 49
-0.03937007874
 74
     0
 49
0.03937007874
 74
     0
 49
-0.03937007874
 74
     0
  0
LTYPE
  5
B5AF
330
5
100
AcDbSymbolTableRecord
100
AcDbLinetypeTableRecord
  2
ACANSTGL
 70
     0
  3
_ _ _ _ _
 72
    65
 73
     2
 40
0.11811023622
 49
0.07874015748
 74
     0
 49
-0.03937007874
 74
     0
  0
LTYPE
  5
B5B0
330
5
100
AcDbSymbolTableRecord
100
AcDbLinetypeTableRecord
  2
CENTER2
 70
     0
  3
Center (.5x) ___ _ ___ _ ___ _ ___ _ ___ _ ___
 72
    65
 73
     4
 40
1.125
 49
0.75
 74
     0
 49
-0.125
 74
     0
 49
0.125
 74
     0
 49
-0.125
 74
     0
  0
LTYPE
  5
B5B1
330
5
100
AcDbSymbolTableRecord
100
AcDbLinetypeTableRecord
  2
HIDDEN2
 70
     0
  3
Hidden (.5x) _ _ _ _ _ _ _ _ _ _ _ _ _ _ _ _ _
 72
    65
 73
     2
 40
0.1875
 49
0.125
 74
     0
 49
-0.0625
 74
     0
  0
LTYPE
  5
B5B2
330
5
100
AcDbSymbolTableRecord
100
AcDbLinetypeTableRecord
  2
AMZIGZAG2
 70
     0
  3
/\/-/\/-/\/-/\/-/\/-/\/
 72
    65
 73
     2
 40
0.4401
 49
0.0001
 74
     0
 49
-0.4400000000000003
 74
     0
  0
ENDTAB
  0
TABLE
  2
LAYER
  5
2
102
{ACAD_XDICTIONARY
360
3F95
102
}
330
0
100
AcDbSymbolTable
 70
    18
  0
LAYER
  5
10
330
2
100
AcDbSymbolTableRecord
100
AcDbLayerTableRecord
  2
0
 70
     0
 62
     7
  6
Continuous
370
    -3
390
F
  0
LAYER
  5
6D1
330
2
100
AcDbSymbolTableRecord
100
AcDbLayerTableRecord
  2
Defpoints
 70
     0
 62
     7
  6
Continuous
290
     0
370
    -3
390
F
  0
LAYER
  5
5F85
330
2
100
AcDbSymbolTableRecord
100
AcDbLayerTableRecord
  2
AM_0
 70
     0
 62
     7
  6
中線
370
    30
390
F
1001
AcAecLayerStandard
1000

1000

  0
LAYER
  5
AC9F
330
2
100
AcDbSymbolTableRecord
100
AcDbLayerTableRecord
  2
size
 70
     0
 62
     5
  6
Continuous
290
     0
370
    25
390
F
  0
LAYER
  5
ACA0
330
2
100
AcDbSymbolTableRecord
100
AcDbLayerTableRecord
  2
waku
 70
     0
 62
     7
  6
Continuous
370
    35
390
F
  0
LAYER
  5
ACA1
330
2
100
AcDbSymbolTableRecord
100
AcDbLayerTableRecord
  2
AM_6
 70
     0
 62
     2
  6
文字
370
    13
390
F
1001
AcAecLayerStandard
1000

1000

  0
LAYER
  5
ACC8
330
2
100
AcDbSymbolTableRecord
100
AcDbLayerTableRecord
  2
hyomoji
 70
     0
 62
     2
  6
Continuous
370
    13
390
F
  0
LAYER
  5
ACC9
330
2
100
AcDbSymbolTableRecord
100
AcDbLayerTableRecord
  2
hyosen1
 70
     0
 62
     1
  6
Continuous
370
    30
390
F
  0
LAYER
  5
ACCA
330
2
100
AcDbSymbolTableRecord
100
AcDbLayerTableRecord
  2
hyosen2
 70
     0
 62
     1
  6
Continuous
370
    13
390
F
  0
LAYER
  5
AD60
330
2
100
AcDbSymbolTableRecord
100
AcDbLayerTableRecord
  2
AM_1
 70
     0
 62
    30
  6
太線
370
    40
390
F
1001
AcAecLayerStandard
1000

1000

  0
LAYER
  5
AD64
330
2
100
AcDbSymbolTableRecord
100
AcDbLayerTableRecord
  2
AM_2
 70
     0
 62
     1
  6
細線
370
    13
390
F
1001
AcAecLayerStandard
1000

1000

  0
LAYER
  5
AD67
330
2
100
AcDbSymbolTableRecord
100
AcDbLayerTableRecord
  2
AM_3
 70
     0
 62
     6
  6
陰線1
370
    13
390
F
1001
AcAecLayerStandard
1000

1000

  0
LAYER
  5
AD68
330
2
100
AcDbSymbolTableRecord
100
AcDbLayerTableRecord
  2
AM_5
 70
     0
 62
     3
  6
寸法線
370
    13
390
F
1001
AcAecLayerStandard
1000

1000

  0
LAYER
  5
AD69
330
2
100
AcDbSymbolTableRecord
100
AcDbLayerTableRecord
  2
AM_7
 70
     0
 62
     4
  6
中心線1
370
    13
390
F
1001
AcAecLayerStandard
1000

1000

  0
LAYER
  5
AD6A
330
2
100
AcDbSymbolTableRecord
100
AcDbLayerTableRecord
  2
AM_8
 70
     0
 62
     1
  6
ハッチング
370
    13
390
F
1001
AcAecLayerStandard
1000

1000

  0
LAYER
  5
AD6E
330
2
100
AcDbSymbolTableRecord
100
AcDbLayerTableRecord
  2
AM_10
 70
     0
 62
     7
  6
切断線
370
    30
390
F
1001
AcAecLayerStandard
1000

1000

  0
LAYER
  5
AD6F
330
2
100
AcDbSymbolTableRecord
100
AcDbLayerTableRecord
  2
AM_11
 70
     0
 62
     2
  6
想像線1
370
    13
390
F
1001
AcAecLayerStandard
1000

1000

  0
LAYER
  5
B1B6
330
2
100
AcDbSymbolTableRecord
100
AcDbLayerTableRecord
  2
AM_CL
 70
     1
 62
    -1
  6
Amconstr
370
    13
390
F
1001
AcAecLayerStandard
1000

1000

  0
ENDTAB
  0
TABLE
  2
STYLE
  5
3
330
0
100
AcDbSymbolTable
 70
     9
  0
STYLE
  5
11
330
3
100
AcDbSymbolTableRecord
100
AcDbTextStyleTableRecord
  2
STANDARD
 70
     0
 40
0.0
 41
0.7
 50
0.0
 71
     0
 42
3.2
  3
romans.shx
  4
extfont.shx
  0
STYLE
  5
56
330
3
100
AcDbSymbolTableRecord
100
AcDbTextStyleTableRecord
  2

 70
     1
 40
0.0
 41
1.0
 50
0.0
 71
     0
 42
2.5
  3
ltypeshp.shx
  4

  0
STYLE
  5
58
330
3
100
AcDbSymbolTableRecord
100
AcDbTextStyleTableRecord
  2
ACISOTS
 70
     0
 40
1.0
 41
1.0
 50
0.0
 71
     0
 42
2.5
  3
isocp.shx
  4
extfont.shx
  0
STYLE
  5
63
330
3
100
AcDbSymbolTableRecord
100
AcDbTextStyleTableRecord
  2
ACISOGDT
 70
     0
 40
0.0
 41
1.0
 50
0.0
 71
     0
 42
2.5
  3
amgdt.shx
  4

  0
STYLE
  5
A74
330
3
100
AcDbSymbolTableRecord
100
AcDbTextStyleTableRecord
  2
DIM
 70
     0
 40
0.0
 41
1.0
 50
0.0
 71
     0
 42
2.5
  3
monotxt.shx
  4
extfont.shx
  0
STYLE
  5
AC80
330
3
100
AcDbSymbolTableRecord
100
AcDbTextStyleTableRecord
  2

 70
     1
 40
0.0
 41
1.0
 50
0.0
 71
     0
 42
3.2
  3
genltshp.shx
  4

  0
STYLE
  5
B5B3
330
3
100
AcDbSymbolTableRecord
100
AcDbTextStyleTableRecord
  2
ACANSTS
 70
     0
 40
1.0
 41
1.0
 50
0.0
 71
     0
 42
0.2
  3
romans.shx
  4
extfont.shx
  0
STYLE
  5
B5B4
330
3
100
AcDbSymbolTableRecord
100
AcDbTextStyleTableRecord
  2
ACANSGDT
 70
     0
 40
0.0
 41
1.0
 50
0.0
 71
     0
 42
0.2
  3
amgdt.shx
  4

  0
ENDTAB
  0
TABLE
  2
VIEW
  5
6
330
0
100
AcDbSymbolTable
 70
     6
  0
VIEW
  5
AE1
330
6
100
AcDbSymbolTableRecord
100
AcDbViewTableRecord
  2
AM_VIEW1
 70
     0
 40
129.7276464542651
 10
1775.10588156276
 20
1793.121228859297
 41
148.5
 11
0.0
 21
0.0
 31
1.0
 12
0.0
 22
0.0
 32
0.0
 42
50.0
 43
-1370.695619172058
 44
-1370.695619172058
 50
0.0
 71
    16
281
     0
 72
     0
  0
VIEW
  5
AE2
330
6
100
AcDbSymbolTableRecord
100
AcDbViewTableRecord
  2
AM_VIEW2
 70
     0
 40
129.7276464542651
 10
1923.60588156276
 20
1793.121228859297
 41
148.5
 11
0.0
 21
0.0
 31
1.0
 12
0.0
 22
0.0
 32
0.0
 42
50.0
 43
-1370.695619172058
 44
-1370.695619172058
 50
0.0
 71
    16
281
     0
 72
     0
  0
VIEW
  5
AE3
330
6
100
AcDbSymbolTableRecord
100
AcDbViewTableRecord
  2
AM_VIEW3
 70
     0
 40
129.7276464542651
 10
1775.10588156276
 20
1712.848875313562
 41
148.5
 11
0.0
 21
0.0
 31
1.0
 12
0.0
 22
0.0
 32
0.0
 42
50.0
 43
-1370.695619172058
 44
-1370.695619172058
 50
0.0
 71
    16
281
     0
 72
     0
  0
VIEW
  5
AE4
330
6
100
AcDbSymbolTableRecord
100
AcDbViewTableRecord
  2
AM_VIEW4
 70
     0
 40
129.7276464542651
 10
1923.60588156276
 20
1712.848875313562
 41
148.5
 11
0.0
 21
0.0
 31
1.0
 12
0.0
 22
0.0
 32
0.0
 42
50.0
 43
-1370.695619172058
 44
-1370.695619172058
 50
0.0
 71
    16
281
     0
 72
     0
  0
VIEW
  5
AE5
330
6
100
AcDbSymbolTableRecord
100
AcDbViewTableRecord
  2
AM_VIEW5
 70
     0
 40
129.7276464542651
 10
1849.35588156276
 20
1752.985052086429
 41
148.5
 11
0.0
 21
0.0
 31
1.0
 12
0.0
 22
0.0
 32
0.0
 42
50.0
 43
-1370.695619172058
 44
-1370.695619172058
 50
0.0
 71
    16
281
     0
 72
     0
  0
VIEW
  5
AE6
330
6
100
AcDbSymbolTableRecord
100
AcDbViewTableRecord
  2
AM_VIEW6
 70
     0
 40
259.4526983556011
 10
1849.35588156276
 20
1752.985052086429
 41
296.99703
 11
0.0
 21
0.0
 31
1.0
 12
0.0
 22
0.0
 32
0.0
 42
50.0
 43
-1370.695619172058
 44
-1370.695619172058
 50
0.0
 71
    16
281
     0
 72
     0
  0
ENDTAB
  0
TABLE
  2
UCS
  5
7
330
0
100
AcDbSymbolTable
 70
     0
  0
ENDTAB
  0
TABLE
  2
APPID
  5
9
330
0
100
AcDbSymbolTable
 70
    55
  0
APPID
  5
12
330
9
100
AcDbSymbolTableRecord
100
AcDbRegAppTableRecord
  2
ACAD
 70
     0
  0
APPID
  5
30
330
9
100
AcDbSymbolTableRecord
100
AcDbRegAppTableRecord
  2
MCAD_NO_VIS
 70
     0
  0
APPID
  5
31
330
9
100
AcDbSymbolTableRecord
100
AcDbRegAppTableRecord
  2
ACAD_TEMP_GRAPHIC
 70
     0
  0
APPID
  5
44
330
9
100
AcDbSymbolTableRecord
100
AcDbRegAppTableRecord
  2
ACATTRIBSERVICES
 70
     0
  0
APPID
  5
7A1
330
9
100
AcDbSymbolTableRecord
100
AcDbRegAppTableRecord
  2
GENIUS_GENDIMSH_14
 70
     0
  0
APPID
  5
A49
330
9
100
AcDbSymbolTableRecord
100
AcDbRegAppTableRecord
  2
GENIUS_GENREC_14
 70
     0
  0
APPID
  5
A4A
330
9
100
AcDbSymbolTableRecord
100
AcDbRegAppTableRecord
  2
GENIUS_GENOBJ-N-REC_13
 70
     0
  0
APPID
  5
A4B
330
9
100
AcDbSymbolTableRecord
100
AcDbRegAppTableRecord
  2
GENIUS_GENODEF_13
 70
     0
  0
APPID
  5
A4C
330
9
100
AcDbSymbolTableRecord
100
AcDbRegAppTableRecord
  2
DCO15
 70
     0
  0
APPID
  5
ADC
330
9
100
AcDbSymbolTableRecord
100
AcDbRegAppTableRecord
  2
GENIUS_GENOLIS_13
 70
     0
  0
APPID
  5
ADD
330
9
100
AcDbSymbolTableRecord
100
AcDbRegAppTableRecord
  2
GENIUS_GENOENT_13
 70
     0
  0
APPID
  5
ADE
330
9
100
AcDbSymbolTableRecord
100
AcDbRegAppTableRecord
  2
GENIUS_GENOBJ-N-TIT_13
 70
     0
  0
APPID
  5
ADF
330
9
100
AcDbSymbolTableRecord
100
AcDbRegAppTableRecord
  2
GENIUS_GENTITLE_13
 70
     0
  0
APPID
  5
AE0
330
9
100
AcDbSymbolTableRecord
100
AcDbRegAppTableRecord
  2
GENIUS_GENOREF_13
 70
     0
  0
APPID
  5
AE7
330
9
100
AcDbSymbolTableRecord
100
AcDbRegAppTableRecord
  2
GENIUS_GENSCREG_15
 70
     0
  0
APPID
  5
AE8
330
9
100
AcDbSymbolTableRecord
100
AcDbRegAppTableRecord
  2
GENIUS_GENOBJ-N-SDF_13
 70
     0
  0
APPID
  5
FAF
330
9
100
AcDbSymbolTableRecord
100
AcDbRegAppTableRecord
  2
GENIUS_GENBLLY_14
 70
     0
  0
APPID
  5
FB0
330
9
100
AcDbSymbolTableRecord
100
AcDbRegAppTableRecord
  2
GENIUS_GENTRA_14
 70
     0
  0
APPID
  5
1285
330
9
100
AcDbSymbolTableRecord
100
AcDbRegAppTableRecord
  2
GENIUS_GENDTOL_13
 70
     0
  0
APPID
  5
142D
330
9
100
AcDbSymbolTableRecord
100
AcDbRegAppTableRecord
  2
GENIUS_GENOBJ-N-CEN_13
 70
     0
  0
APPID
  5
1AB5
330
9
100
AcDbSymbolTableRecord
100
AcDbRegAppTableRecord
  2
GENIUS_GENOBJ-N-CRS_13
 70
     0
  0
APPID
  5
1B36
330
9
100
AcDbSymbolTableRecord
100
AcDbRegAppTableRecord
  2
GENIUS_GENOBJ-N-HTC_13
 70
     0
  0
APPID
  5
1B37
330
9
100
AcDbSymbolTableRecord
100
AcDbRegAppTableRecord
  2
GENIUS_GENHATCH_13
 70
     0
  0
APPID
  5
216D
330
9
100
AcDbSymbolTableRecord
100
AcDbRegAppTableRecord
  2
GENIUS_GENOBJ-N-FIL_13
 70
     0
  0
APPID
  5
2356
330
9
100
AcDbSymbolTableRecord
100
AcDbRegAppTableRecord
  2
GEVID990412420
 70
     0
  0
APPID
  5
2357
330
9
100
AcDbSymbolTableRecord
100
AcDbRegAppTableRecord
  2
GEVDC
 70
     0
  0
APPID
  5
2358
330
9
100
AcDbSymbolTableRecord
100
AcDbRegAppTableRecord
  2
GEVCON
 70
     0
  0
APPID
  5
235B
330
9
100
AcDbSymbolTableRecord
100
AcDbRegAppTableRecord
  2
GEVRADREF
 70
     0
  0
APPID
  5
2360
330
9
100
AcDbSymbolTableRecord
100
AcDbRegAppTableRecord
  2
GENIUS_GENBH_13
 70
     0
  0
APPID
  5
2362
330
9
100
AcDbSymbolTableRecord
100
AcDbRegAppTableRecord
  2
GENIUS_GENOBJ-NBEHI-BHF_13
 70
     0
  0
APPID
  5
2364
330
9
100
AcDbSymbolTableRecord
100
AcDbRegAppTableRecord
  2
GENIUS_GENOBJ-NBEHI-BHB_13
 70
     0
  0
APPID
  5
2379
330
9
100
AcDbSymbolTableRecord
100
AcDbRegAppTableRecord
  2
GENIUS_GENOBJ-F-SCPASSM_13
 70
     0
  0
APPID
  5
3D74
330
9
100
AcDbSymbolTableRecord
100
AcDbRegAppTableRecord
  2
GENIUS_GENDIM_13
 70
     0
  0
APPID
  5
3D76
330
9
100
AcDbSymbolTableRecord
100
AcDbRegAppTableRecord
  2
GENIUS_GE3DTOL_13
 70
     0
  0
APPID
  5
3D9C
330
9
100
AcDbSymbolTableRecord
100
AcDbRegAppTableRecord
  2
AD_DRAW
 70
     0
  0
APPID
  5
3DE8
330
9
100
AcDbSymbolTableRecord
100
AcDbRegAppTableRecord
  2
ASURF_PCURVE_APPNAME
 70
     0
  0
APPID
  5
3DED
330
9
100
AcDbSymbolTableRecord
100
AcDbRegAppTableRecord
  2
AMG_3D2D_5.0
 70
     0
  0
APPID
  5
3E1B
330
9
100
AcDbSymbolTableRecord
100
AcDbRegAppTableRecord
  2
DESIGNERASSEMBLIES
 70
     0
  0
APPID
  5
3E20
330
9
100
AcDbSymbolTableRecord
100
AcDbRegAppTableRecord
  2
ACADM_DIM_EDIT
 70
     0
  0
APPID
  5
3E21
330
9
100
AcDbSymbolTableRecord
100
AcDbRegAppTableRecord
  2
AMDT_DM_ADJ
 70
     0
  0
APPID
  5
4143
330
9
100
AcDbSymbolTableRecord
100
AcDbRegAppTableRecord
  2
GENIUS_GENFIL_13
 70
     0
  0
APPID
  5
4144
330
9
100
AcDbSymbolTableRecord
100
AcDbRegAppTableRecord
  2
GENIUS_GENOBJ-N-CHA_13
 70
     0
  0
APPID
  5
4E17
330
9
100
AcDbSymbolTableRecord
100
AcDbRegAppTableRecord
  2
GEVID1008153417
 70
     0
  0
APPID
  5
4E58
330
9
100
AcDbSymbolTableRecord
100
AcDbRegAppTableRecord
  2
GEVID1008153418
 70
     0
  0
APPID
  5
4E5E
330
9
100
AcDbSymbolTableRecord
100
AcDbRegAppTableRecord
  2
GEVID1008153419
 70
     0
  0
APPID
  5
4E64
330
9
100
AcDbSymbolTableRecord
100
AcDbRegAppTableRecord
  2
GEVID1008153420
 70
     0
  0
APPID
  5
4E75
330
9
100
AcDbSymbolTableRecord
100
AcDbRegAppTableRecord
  2
GEVID1008153421
 70
     0
  0
APPID
  5
4EB7
330
9
100
AcDbSymbolTableRecord
100
AcDbRegAppTableRecord
  2
GENIUS_AMGTXT_16
 70
     0
  0
APPID
  5
7645
330
9
100
AcDbSymbolTableRecord
100
AcDbRegAppTableRecord
  2
GENIUS_GENOBJ-N-DIM_13
 70
     0
  0
APPID
  5
AAD0
330
9
100
AcDbSymbolTableRecord
100
AcDbRegAppTableRecord
  2
ACAD_DSTYLE_DIMARC_LENGTH_SYMBOL
 70
     0
  0
APPID
  5
AAD1
330
9
100
AcDbSymbolTableRecord
100
AcDbRegAppTableRecord
  2
ACAD_DSTYLE_DIMJOGGED_JOGANGLE_SYMBOL
 70
     0
  0
APPID
  5
AAFD
330
9
100
AcDbSymbolTableRecord
100
AcDbRegAppTableRecord
  2
ACAD_PSEXT
 70
     0
  0
APPID
  5
AD61
330
9
100
AcDbSymbolTableRecord
100
AcDbRegAppTableRecord
  2
AcAecLayerStandard
 70
     0
  0
APPID
  5
AEE3
330
9
100
AcDbSymbolTableRecord
100
AcDbRegAppTableRecord
  2
ACAD_EXEMPT_FROM_CAD_STANDARDS
 70
     0
  0
APPID
  5
B1BE
330
9
100
AcDbSymbolTableRecord
100
AcDbRegAppTableRecord
  2
GENIUS_GENCEN_19
 70
     0
  0
ENDTAB
  0
TABLE
  2
DIMSTYLE
  5
A
330
0
100
AcDbSymbolTable
 70
    24
100
AcDbDimStyleTable
 71
     1
340
2515
  0
DIMSTYLE
105
A76
330
A
100
AcDbSymbolTableRecord
100
AcDbDimStyleTableRecord
  2
STANDARD
 70
     0
 41
3.0
 42
1.0
 43
7.0
 44
2.0
 73
     0
 74
     0
 77
     1
140
2.799999999999999
141
0.0
143
0.0394
147
0.7
171
     4
172
     1
173
     1
176
     3
177
     3
178
     2
271
     3
272
     3
273
     8
274
     4
289
     0
340
A74
341
A66
343
A66
344
A66
  0
DIMSTYLE
105
2515
330
A
100
AcDbSymbolTableRecord
100
AcDbDimStyleTableRecord
  2
SYS
 70
     0
  4
"
 41
1.0
 42
1.0
 43
10.0
 44
1.0
 47
0.1
 48
0.1
 73
     0
 74
     0
 77
     1
 78
     8
 79
     2
140
3.5
141
0.0
143
0.0393701
146
0.71
147
1.5
172
     1
176
   256
177
   256
178
     7
271
     2
272
     2
283
     0
284
     8
340
11
371
    -1
372
    -1
1001
ACAD_DSTYLE_DIMJOGGED_JOGANGLE_SYMBOL
1070
   384
1040
0.7853981633974483
1001
ACAD_DSTYLE_DIMARC_LENGTH_SYMBOL
1070
   379
1070
     1
  0
DIMSTYLE
105
2516
330
A
100
AcDbSymbolTableRecord
100
AcDbDimStyleTableRecord
  2
SYS$3
 70
     0
  4
"
 41
2.0
 42
1.0
 43
10.0
 44
1.0
 47
0.1
 48
0.1
 73
     0
 77
     1
 78
     8
 79
     2
140
3.5
141
0.0
143
0.0393701
146
0.71
147
1.5
176
   256
177
   256
178
     2
271
     2
272
     2
283
     0
284
     8
288
     1
340
11
342
A66
371
    -1
372
    -1
1001
ACAD_DSTYLE_DIMJOGGED_JOGANGLE_SYMBOL
1070
   384
1040
0.7853981633974483
1001
ACAD_DSTYLE_DIMARC_LENGTH_SYMBOL
1070
   379
1070
     1
  0
DIMSTYLE
105
2517
330
A
100
AcDbSymbolTableRecord
100
AcDbDimStyleTableRecord
  2
SYS$4
 70
     0
  4
"
 41
2.0
 42
1.0
 43
10.0
 44
1.0
 47
0.1
 48
0.1
 73
     0
 77
     1
 78
     8
 79
     2
140
3.5
141
0.0
143
0.0393701
146
0.71
147
1.5
173
     1
176
   256
177
   256
178
     2
271
     2
272
     2
283
     0
284
     8
288
     1
340
11
344
A66
371
    -1
372
    -1
1001
ACAD_DSTYLE_DIMJOGGED_JOGANGLE_SYMBOL
1070
   384
1040
0.7853981633974483
1001
ACAD_DSTYLE_DIMARC_LENGTH_SYMBOL
1070
   379
1070
     1
  0
DIMSTYLE
105
2518
330
A
100
AcDbSymbolTableRecord
100
AcDbDimStyleTableRecord
  2
SYS$6
 70
     0
  4
"
 41
2.0
 42
1.0
 43
10.0
 44
1.0
 47
0.1
 48
0.1
 73
     0
 74
     0
 78
     8
 79
     2
140
3.5
141
0.0
143
0.0393701
146
0.71
147
1.5
172
     1
176
   256
177
   256
178
     2
271
     2
272
     2
283
     0
284
     8
340
11
341
A66
371
    -1
372
    -1
1001
ACAD_DSTYLE_DIMJOGGED_JOGANGLE_SYMBOL
1070
   384
1040
0.7853981633974483
1001
ACAD_DSTYLE_DIMARC_LENGTH_SYMBOL
1070
   379
1070
     1
  0
DIMSTYLE
105
2519
330
A
100
AcDbSymbolTableRecord
100
AcDbDimStyleTableRecord
  2
SYS$7
 70
     0
  4
"
 41
2.0
 42
1.0
 43
10.0
 44
1.0
 47
0.1
 48
0.1
 73
     0
 74
     0
 77
     1
 78
     8
 79
     2
140
5.0
141
0.0
143
0.0393701
146
0.71
147
1.5
172
     1
176
   256
177
   256
178
     2
271
     2
272
     2
283
     0
284
     8
340
11
341
A66
342
A66
371
    -1
372
    -1
1001
ACAD_DSTYLE_DIMJOGGED_JOGANGLE_SYMBOL
1070
   384
1040
0.7853981633974483
1001
ACAD_DSTYLE_DIMARC_LENGTH_SYMBOL
1070
   379
1070
     1
  0
DIMSTYLE
105
251A
330
A
100
AcDbSymbolTableRecord
100
AcDbDimStyleTableRecord
  2
SYS$SF
 70
     0
  4
"
 41
2.5
 42
1.0
 43
10.0
 44
1.0
 47
0.1
 48
0.1
 73
     0
 74
     0
 75
     1
 76
     1
 77
     1
 78
     8
 79
     2
140
3.5
141
0.0
143
0.0393701
146
0.71
147
1.5
172
     1
176
   256
177
   256
178
     2
271
     2
272
     3
283
     0
284
     8
340
11
341
6C4
342
6C4
371
    -1
372
    -1
1001
ACAD_DSTYLE_DIMJOGGED_JOGANGLE_SYMBOL
1070
   384
1040
0.7853981633974483
1001
ACAD_DSTYLE_DIMARC_LENGTH_SYMBOL
1070
   379
1070
     1
  0
DIMSTYLE
105
251B
330
A
100
AcDbSymbolTableRecord
100
AcDbDimStyleTableRecord
  2
SYS$SH
 70
     0
  4
"
 41
2.5
 42
1.0
 43
10.0
 44
1.0
 47
0.1
 48
0.1
 73
     0
 74
     0
 75
     1
 76
     1
 77
     1
 78
     8
 79
     2
140
3.5
141
0.0
143
0.0393701
144
2.0
146
0.71
147
1.5
172
     1
173
     1
176
   256
177
   256
178
     2
271
     2
272
     3
283
     0
284
     8
340
11
341
6C4
343
72
344
6C4
371
    -1
372
    -1
1001
ACAD_DSTYLE_DIMJOGGED_JOGANGLE_SYMBOL
1070
   384
1040
0.7853981633974483
1001
ACAD_DSTYLE_DIMARC_LENGTH_SYMBOL
1070
   379
1070
     1
  0
DIMSTYLE
105
2A59
330
A
100
AcDbSymbolTableRecord
100
AcDbDimStyleTableRecord
  2
SYS$2
 70
     0
  4
"
 41
1.0
 42
1.0
 43
10.0
 44
1.0
 47
0.1
 48
0.1
 73
     0
 74
     0
 77
     1
 78
     8
 79
     2
140
3.5
141
0.0
143
0.0393701
146
0.71
147
1.5
172
     1
176
   256
177
   256
178
     2
271
     2
272
     2
283
     0
284
     8
340
11
342
6C4
371
    -1
372
    -1
1001
ACAD_DSTYLE_DIMJOGGED_JOGANGLE_SYMBOL
1070
   384
1040
0.7853981633974483
1001
ACAD_DSTYLE_DIMARC_LENGTH_SYMBOL
1070
   379
1070
     1
  0
DIMSTYLE
105
2AAB
102
{ACAD_REACTORS
330
B8E1
330
B8F7
330
B916
330
B92C
330
B942
330
B958
102
}
330
A
100
AcDbSymbolTableRecord
100
AcDbDimStyleTableRecord
  2
SYS$0
 70
     0
  4
"
 41
1.0
 42
1.0
 43
10.0
 44
1.0
 47
0.1
 48
0.1
 73
     0
 74
     0
 77
     1
 78
     8
 79
     2
140
3.200000000000001
141
0.0
143
0.0393701
146
0.71
147
1.5
172
     1
176
   256
177
   256
178
     2
271
     2
272
     2
283
     0
284
     8
340
11
341
A66
342
6C4
371
    -1
372
    -1
1001
ACAD_DSTYLE_DIMJOGGED_JOGANGLE_SYMBOL
1070
   384
1040
0.7853981633974483
1001
ACAD_DSTYLE_DIMARC_LENGTH_SYMBOL
1070
   379
1070
     1
  0
DIMSTYLE
105
AF99
330
A
100
AcDbSymbolTableRecord
100
AcDbDimStyleTableRecord
  2
AM_ISO
 70
     0
  4
"
 41
2.5
 42
1.0
 43
10.0
 44
1.0
 47
0.1
 48
0.1
 73
     0
 74
     0
 77
     1
 78
     8
 79
     2
140
3.5
141
0.0
143
0.0393701
146
0.71
147
1.5
172
     1
176
   256
177
   256
178
     2
271
     2
272
     3
274
     4
283
     0
284
     8
340
11
371
    -1
372
    -1
  0
DIMSTYLE
105
AF9A
330
A
100
AcDbSymbolTableRecord
100
AcDbDimStyleTableRecord
  2
AM_ISO$3
 70
     0
  4
"
 41
2.5
 42
1.0
 43
10.0
 44
1.0
 47
0.1
 48
0.1
 73
     0
 77
     1
 78
     8
 79
     2
140
3.5
141
0.0
143
0.0393701
146
0.71
147
1.5
176
   256
177
   256
178
     2
271
     2
272
     3
274
     4
283
     0
284
     8
288
     1
289
     0
340
11
371
    -1
372
    -1
  0
DIMSTYLE
105
AF9B
330
A
100
AcDbSymbolTableRecord
100
AcDbDimStyleTableRecord
  2
AM_ISO$4
 70
     0
  4
"
 41
2.5
 42
1.0
 43
10.0
 44
1.0
 47
0.1
 48
0.1
 73
     0
 77
     1
 78
     8
 79
     2
140
3.5
141
0.0
143
0.0393701
146
0.71
147
1.5
176
   256
177
   256
178
     2
271
     2
272
     3
274
     4
283
     0
284
     8
288
     1
289
     0
340
11
371
    -1
372
    -1
  0
DIMSTYLE
105
AF9C
330
A
100
AcDbSymbolTableRecord
100
AcDbDimStyleTableRecord
  2
AM_ISO$6
 70
     0
  4
"
 41
2.5
 42
1.0
 43
10.0
 44
1.0
 47
0.1
 48
0.1
 73
     0
 74
     0
 78
     8
 79
     2
140
3.5
141
0.0
143
0.0393701
146
0.71
147
1.5
172
     1
176
   256
177
   256
178
     2
271
     2
272
     3
274
     4
283
     0
284
     8
340
11
371
    -1
372
    -1
  0
DIMSTYLE
105
AF9D
330
A
100
AcDbSymbolTableRecord
100
AcDbDimStyleTableRecord
  2
AM_ISO$7
 70
     0
  4
"
 41
2.5
 42
1.0
 43
10.0
 44
1.0
 47
0.1
 48
0.1
 73
     0
 74
     0
 77
     1
 78
     8
 79
     2
140
5.0
141
0.0
143
0.0393701
146
0.71
147
1.5
172
     1
176
   256
177
   256
178
     2
271
     2
272
     3
274
     4
283
     0
284
     8
340
11
371
    -1
372
    -1
  0
DIMSTYLE
105
AF9E
330
A
100
AcDbSymbolTableRecord
100
AcDbDimStyleTableRecord
  2
AM_ISO$SF
 70
     0
  4
"
 41
2.5
 42
1.0
 43
10.0
 44
1.0
 47
0.1
 48
0.1
 73
     0
 74
     0
 75
     1
 76
     1
 77
     1
 78
     8
 79
     2
140
3.5
141
0.0
143
0.0393701
146
0.71
147
1.5
172
     1
176
   256
177
   256
178
     2
271
     2
272
     3
274
     4
283
     0
284
     8
340
11
371
    -1
372
    -1
  0
DIMSTYLE
105
AF9F
330
A
100
AcDbSymbolTableRecord
100
AcDbDimStyleTableRecord
  2
AM_ISO$SH
 70
     0
  4
"
 41
2.5
 42
1.0
 43
10.0
 44
1.0
 47
0.1
 48
0.1
 73
     0
 74
     0
 75
     1
 76
     1
 77
     1
 78
     8
 79
     2
140
3.5
141
0.0
143
0.0393701
144
2.0
146
0.71
147
1.5
172
     1
173
     1
176
   256
177
   256
178
     2
271
     2
272
     3
274
     4
283
     0
284
     8
340
11
343
72
371
    -1
372
    -1
  0
DIMSTYLE
105
B5B5
330
A
100
AcDbSymbolTableRecord
100
AcDbDimStyleTableRecord
  2
AM_ANSI
 70
     0
  4
mm
 41
0.1
 42
0.05
 43
0.5
 44
0.1
 47
0.1
 48
0.1
 78
     7
140
0.12
141
0.0
146
0.71
147
0.06
176
   256
177
   256
178
     2
271
     2
272
     2
279
     2
284
     8
285
     8
286
     8
340
11
  0
DIMSTYLE
105
B5B6
330
A
100
AcDbSymbolTableRecord
100
AcDbDimStyleTableRecord
  2
AM_ANSI$3
 70
     0
  4
mm
 41
0.1
 42
0.05
 43
0.5
 44
0.1
 47
0.1
 48
0.1
 78
     7
140
0.12
141
0.0
146
0.71
147
0.06
176
   256
177
   256
178
     2
271
     2
272
     2
279
     2
284
     8
285
     8
286
     8
340
11
  0
DIMSTYLE
105
B5B7
330
A
100
AcDbSymbolTableRecord
100
AcDbDimStyleTableRecord
  2
AM_ANSI$4
 70
     0
  4
mm
 41
0.1
 42
0.05
 43
0.5
 44
0.1
 47
0.1
 48
0.1
 78
     7
140
0.12
141
0.0
146
0.71
147
0.06
176
   256
177
   256
178
     2
271
     2
272
     2
279
     2
284
     8
285
     8
286
     8
340
11
  0
DIMSTYLE
105
B5B8
330
A
100
AcDbSymbolTableRecord
100
AcDbDimStyleTableRecord
  2
AM_ANSI$7
 70
     0
  4
mm
 41
0.1
 42
0.05
 43
0.5
 44
0.1
 47
0.1
 48
0.1
 78
     7
140
0.24
141
0.0
146
0.71
147
0.06
176
   256
177
   256
178
     2
271
     2
272
     2
279
     2
284
     8
285
     8
286
     8
340
11
  0
DIMSTYLE
105
B5B9
330
A
100
AcDbSymbolTableRecord
100
AcDbDimStyleTableRecord
  2
AM_ANSI$SF
 70
     0
  4
mm
 41
0.1
 42
0.05
 43
0.5
 44
0.1
 47
0.1
 48
0.1
 75
     1
 76
     1
 78
     7
140
0.12
141
0.0
146
0.71
147
0.06
176
   256
177
   256
178
     2
271
     2
272
     2
279
     2
284
     8
285
     8
286
     8
340
11
  0
DIMSTYLE
105
B5BA
330
A
100
AcDbSymbolTableRecord
100
AcDbDimStyleTableRecord
  2
AM_ANSI$SH
 70
     0
  4
mm
 41
0.1
 42
0.05
 43
0.5
 44
0.1
 47
0.1
 48
0.1
 75
     1
 76
     1
 78
     7
140
0.12
141
0.0
146
0.71
147
0.06
173
     1
176
   256
177
   256
178
     2
271
     2
272
     2
279
     2
284
     8
285
     8
286
     8
340
11
  0
ENDTAB
  0
TABLE
  2
BLOCK_RECORD
  5
1
330
0
100
AcDbSymbolTable
 70
    28
  0
BLOCK_RECORD
  5
1F
102
{ACAD_XDICTIONARY
360
8A
102
}
330
1
100
AcDbSymbolTableRecord
100
AcDbBlockTableRecord
  2
*Model_Space
340
22
  0
BLOCK_RECORD
  5
1B
330
1
100
AcDbSymbolTableRecord
100
AcDbBlockTableRecord
  2
*Paper_Space
340
1E
  0
BLOCK_RECORD
  5
23
330
1
100
AcDbSymbolTableRecord
100
AcDbBlockTableRecord
  2
*Paper_Space0
340
26
  0
BLOCK_RECORD
  5
72
330
1
100
AcDbSymbolTableRecord
100
AcDbBlockTableRecord
  2
GENAXEH
340
0
  0
BLOCK_RECORD
  5
6C4
330
1
100
AcDbSymbolTableRecord
100
AcDbBlockTableRecord
  2
_Dot
340
0
102
{BLKREFS
331
B99C
331
B99D
331
B9A5
331
B9A6
331
B9AE
331
B9AF
331
B9B7
331
B9B8
331
B9C0
331
B9C1
331
B9C9
331
B9CA
102
}
  0
BLOCK_RECORD
  5
A66
330
1
100
AcDbSymbolTableRecord
100
AcDbBlockTableRecord
  2
_OPEN30
340
0
  0
BLOCK_RECORD
  5
B542
330
1
100
AcDbSymbolTableRecord
100
AcDbBlockTableRecord
  2
KOZU0001
340
0
  0
BLOCK_RECORD
  5
B54A
102
{ACAD_XDICTIONARY
360
B8DF
102
}
330
1
100
AcDbSymbolTableRecord
100
AcDbBlockTableRecord
  2
KOZU0002
340
0
102
{BLKREFS
331
B70A
102
}
  0
BLOCK_RECORD
  5
B59E
330
1
100
AcDbSymbolTableRecord
100
AcDbBlockTableRecord
  2
_DotSmall
340
0
102
{BLKREFS
331
B567
331
B568
331
B573
331
B574
331
B57F
331
B580
331
B58B
331
B58C
331
B597
331
B598
331
B5A7
331
B5A8
331
B87D
331
B87E
331
B886
331
B887
331
B88F
331
B890
331
B898
331
B899
331
B8A1
331
B8A2
331
B8AA
331
B8AB
102
}
  0
BLOCK_RECORD
  5
B8E2
330
1
100
AcDbSymbolTableRecord
100
AcDbBlockTableRecord
  2
*D20
340
0
  0
BLOCK_RECORD
  5
B8F8
330
1
100
AcDbSymbolTableRecord
100
AcDbBlockTableRecord
  2
*D21
340
0
  0
BLOCK_RECORD
  5
B917
330
1
100
AcDbSymbolTableRecord
100
AcDbBlockTableRecord
  2
*D22
340
0
  0
BLOCK_RECORD
  5
B92D
330
1
100
AcDbSymbolTableRecord
100
AcDbBlockTableRecord
  2
*D23
340
0
  0
BLOCK_RECORD
  5
B943
330
1
100
AcDbSymbolTableRecord
100
AcDbBlockTableRecord
  2
*D24
340
0
  0
BLOCK_RECORD
  5
B959
330
1
100
AcDbSymbolTableRecord
100
AcDbBlockTableRecord
  2
*D25
340
0
  0
BLOCK_RECORD
  5
BA07
330
1
100
AcDbSymbolTableRecord
100
AcDbBlockTableRecord
  2
*S27
340
0
  0
ENDTAB
  0
ENDSEC
  0
SECTION
  2
BLOCKS
  0
BLOCK
  5
20
330
1F
100
AcDbEntity
  8
0
100
AcDbBlockBegin
  2
*Model_Space
 70
     0
 10
0.0
 20
0.0
 30
0.0
  3
*Model_Space
  1

  0
ENDBLK
  5
21
330
1F
100
AcDbEntity
  8
0
100
AcDbBlockEnd
  0
BLOCK
  5
1C
330
1B
100
AcDbEntity
 67
     1
  8
0
100
AcDbBlockBegin
  2
*Paper_Space
 70
     0
 10
0.0
 20
0.0
 30
0.0
  3
*Paper_Space
  1

  0
ENDBLK
  5
1D
330
1B
100
AcDbEntity
 67
     1
  8
0
100
AcDbBlockEnd
  0
BLOCK
  5
24
330
23
100
AcDbEntity
 67
     1
  8
0
100
AcDbBlockBegin
  2
*Paper_Space0
 70
     0
 10
0.0
 20
0.0
 30
0.0
  3
*Paper_Space0
  1

  0
ENDBLK
  5
25
330
23
100
AcDbEntity
 67
     1
  8
0
100
AcDbBlockEnd
  0
BLOCK
  5
74
330
72
100
AcDbEntity
  8
0
100
AcDbBlockBegin
  2
GENAXEH
 70
     0
 10
0.0
 20
0.0
 30
0.0
  3
GENAXEH
  1

  0
LINE
  5
73
330
72
100
AcDbEntity
  8
0
100
AcDbLine
 10
-1.0
 20
0.0
 30
0.0
 11
1.0
 21
0.0
 31
0.0
  0
ENDBLK
  5
75
330
72
100
AcDbEntity
  8
0
100
AcDbBlockEnd
  0
BLOCK
  5
6C7
330
6C4
100
AcDbEntity
  8
0
100
AcDbBlockBegin
  2
_Dot
 70
     0
 10
0.0
 20
0.0
 30
0.0
  3
_Dot
  1

  0
LWPOLYLINE
  5
6C5
330
6C4
100
AcDbEntity
  8
0
  6
ByBlock
 62
     0
100
AcDbPolyline
 90
        2
 70
     1
 43
0.5
 10
-0.25
 20
0.0
 42
1.0
 10
0.25
 20
0.0
 42
1.0
  0
LINE
  5
6C6
330
6C4
100
AcDbEntity
  8
0
  6
ByBlock
 62
     0
370
    -2
100
AcDbLine
 10
-0.5
 20
0.0
 30
0.0
 11
-1.0
 21
0.0
 31
0.0
  0
ENDBLK
  5
6C8
330
6C4
100
AcDbEntity
  8
0
100
AcDbBlockEnd
  0
BLOCK
  5
A6A
330
A66
100
AcDbEntity
  8
0
100
AcDbBlockBegin
  2
_OPEN30
 70
     0
 10
0.0
 20
0.0
 30
0.0
  3
_OPEN30
  1

  0
LINE
  5
A67
330
A66
100
AcDbEntity
  8
0
  6
ByBlock
 62
     0
100
AcDbLine
 10
-1.0
 20
0.26794919
 30
0.0
 11
0.0
 21
0.0
 31
0.0
  0
LINE
  5
A68
330
A66
100
AcDbEntity
  8
0
  6
ByBlock
 62
     0
100
AcDbLine
 10
0.0
 20
0.0
 30
0.0
 11
-1.0
 21
-0.26794919
 31
0.0
  0
LINE
  5
A69
330
A66
100
AcDbEntity
  8
0
  6
ByBlock
 62
     0
100
AcDbLine
 10
0.0
 20
0.0
 30
0.0
 11
-1.0
 21
0.0
 31
0.0
  0
ENDBLK
  5
A6B
330
A66
100
AcDbEntity
  8
0
100
AcDbBlockEnd
  0
BLOCK
  5
B543
330
B542
100
AcDbEntity
  8
0
100
AcDbBlockBegin
  2
KOZU0001
 70
     0
 10
0.0
 20
0.0
 30
0.0
  3
KOZU0001
  1

  0
LINE
  5
B544
330
B542
100
AcDbEntity
  8
0
  6
Continuous
 62
     7
100
AcDbLine
 10
0.0
 20
0.0
 30
0.0
 11
9.0432663
 21
9.0432676
 31
0.0
  0
LINE
  5
B545
330
B542
100
AcDbEntity
  8
0
  6
Continuous
 62
     7
100
AcDbLine
 10
9.0432663
 20
9.0432676
 30
0.0
 11
33.542175
 21
9.0432676
 31
0.0
  0
LINE
  5
B546
330
B542
100
AcDbEntity
  8
0
  6
Continuous
 62
     7
100
AcDbLine
 10
0.0
 20
0.0
 30
0.0
 11
1.8144358
 21
2.6092241
 31
0.0
  0
LINE
  5
B547
330
B542
100
AcDbEntity
  8
0
  6
Continuous
 62
     7
100
AcDbLine
 10
0.0
 20
0.0
 30
0.0
 11
2.609223799999999
 21
1.8144362
 31
0.0
  0
TEXT
  5
B548
330
B542
100
AcDbEntity
  8
0
  6
Continuous
 62
     7
100
AcDbText
 10
14.342172
 20
9.8432705
 30
0.0
 40
3.2
  1
LRB-11
 41
1.1180125
100
AcDbText
  0
ENDBLK
  5
B549
330
B542
100
AcDbEntity
  8
0
100
AcDbBlockEnd
  0
BLOCK
  5
B54B
330
B54A
100
AcDbEntity
  8
0
100
AcDbBlockBegin
  2
KOZU0002
 70
     0
 10
0.0
 20
0.0
 30
0.0
  3
KOZU0002
  1

  0
LINE
  5
B54C
330
B54A
100
AcDbEntity
  8
AM_2
100
AcDbLine
 10
67.078901
 20
-2.515376600000003
 30
0.0
 11
68.002544
 21
-1.591732200000002
 31
0.0
  0
LINE
  5
B54D
330
B54A
100
AcDbEntity
  8
AM_2
100
AcDbLine
 10
64.83384
 20
-2.515376600000003
 30
0.0
 11
65.83383799999999
 21
-1.5153764
 31
0.0
  0
LINE
  5
B54E
330
B54A
100
AcDbEntity
  8
AM_2
100
AcDbLine
 10
62.58877800000002
 20
-2.515376600000003
 30
0.0
 11
63.919296
 21
-1.184855499999997
 31
0.0
  0
LINE
  5
B54F
330
B54A
100
AcDbEntity
  8
AM_2
100
AcDbLine
 10
60.89236300000002
 20
-1.966728799999998
 30
0.0
 11
62.64371400000001
 21
-0.2153738200000035
 31
0.0
  0
LINE
  5
B550
330
B54A
100
AcDbEntity
  8
AM_2
100
AcDbLine
 10
59.29051799999999
 20
-1.323511000000003
 30
0.0
 11
60.398651
 21
-0.2153749100000013
 31
0.0
  0
LINE
  5
B551
330
B54A
100
AcDbEntity
  8
AM_2
100
AcDbLine
 10
57.153593
 20
-1.215373399999997
 30
0.0
 11
58.15358900000001
 21
-0.2153760099999999
 31
0.0
  0
LINE
  5
B552
330
B54A
100
AcDbEntity
  8
AM_2
100
AcDbLine
 10
54.90853100000001
 20
-1.215373399999997
 30
0.0
 11
55.90852599999999
 21
-0.2153770999999978
 31
0.0
  0
LINE
  5
B553
330
B54A
100
AcDbEntity
  8
AM_2
100
AcDbLine
 10
52.66346999999999
 20
-1.215373399999997
 30
0.0
 11
53.663463
 21
-0.2153781999999964
 31
0.0
  0
LINE
  5
B554
330
B54A
100
AcDbEntity
  8
AM_2
100
AcDbLine
 10
50.418408
 20
-1.215373399999997
 30
0.0
 11
51.41839999999999
 21
-0.2153792900000013
 31
0.0
  0
LINE
  5
B555
330
B54A
100
AcDbEntity
  8
AM_2
100
AcDbLine
 10
48.17334600000001
 20
-1.215373399999997
 30
0.0
 11
49.173337
 21
-0.21538039
 31
0.0
  0
LINE
  5
B556
330
B54A
100
AcDbEntity
  8
AM_2
100
AcDbLine
 10
45.96787399999999
 20
-1.175784100000001
 30
0.0
 11
46.93693899999999
 21
-0.2067166699999987
 31
0.0
  0
LINE
  5
B557
330
B54A
100
AcDbEntity
  8
AM_2
100
AcDbLine
 10
43.86914199999998
 20
-1.0294539
 30
0.0
 11
44.79402300000001
 21
-0.1045712800000018
 31
0.0
  0
LINE
  5
B558
330
B54A
100
AcDbEntity
  8
AM_2
100
AcDbLine
 10
41.86544799999999
 20
-0.7880853200000005
 30
0.0
 11
42.75383500000001
 21
0.1003033300000027
 31
0.0
  0
LINE
  5
B559
330
B54A
100
AcDbEntity
  8
AM_2
100
AcDbLine
 10
39.946338
 20
-0.4621334699999978
 30
0.0
 11
40.804171
 21
0.3957017600000014
 31
0.0
  0
LINE
  5
B55A
330
B54A
100
AcDbEntity
  8
AM_2
100
AcDbLine
 10
38.103644
 20
-0.0597649519999948
 30
0.0
 11
38.93564000000001
 21
0.7722326800000019
 31
0.0
  0
LINE
  5
B55B
330
B54A
100
AcDbEntity
  8
AM_2
100
AcDbLine
 10
36.33086699999998
 20
0.4125208600000008
 30
0.0
 11
37.14085700000001
 21
1.2225125
 31
0.0
  0
LINE
  5
B55C
330
B54A
100
AcDbEntity
  8
AM_2
100
AcDbLine
 10
34.622759
 20
0.9494758300000043
 30
0.0
 11
35.41391999999999
 21
1.7406383
 31
0.0
  0
LINE
  5
B55D
330
B54A
100
AcDbEntity
  8
AM_2
100
AcDbLine
 10
32.712841
 20
1.284620200000006
 30
0.0
 11
33.75004899999999
 21
2.321830600000005
 31
0.0
  0
LINE
  5
B55E
330
B54A
100
AcDbEntity
  8
AM_2
100
AcDbLine
 10
30.467782
 20
1.284623200000005
 30
0.0
 11
31.38449
 21
2.201333100000006
 31
0.0
  0
LINE
  5
B55F
330
B54A
100
AcDbEntity
  8
AM_2
100
AcDbLine
 10
26.919298
 20
-0.0188014819999936
 30
0.0
 11
27.919298
 21
0.9812005200000015
 31
0.0
  0
LINE
  5
B560
330
B54A
100
AcDbEntity
  8
AM_2
100
AcDbLine
 10
28.222723
 20
1.284626200000005
 30
0.0
 11
29.84724700000001
 21
2.909153300000006
 31
0.0
  0
ENDBLK
  5
B561
330
B54A
100
AcDbEntity
  8
0
100
AcDbBlockEnd
  0
BLOCK
  5
B59F
330
B59E
100
AcDbEntity
  8
0
100
AcDbBlockBegin
  2
_DotSmall
 70
     0
 10
0.0
 20
0.0
 30
0.0
  3
_DotSmall
  1

  0
LWPOLYLINE
  5
B5A0
330
B59E
100
AcDbEntity
  8
0
  6
ByBlock
 62
     0
100
AcDbPolyline
 90
        2
 70
     1
 43
0.5
 10
-0.0625
 20
0.0
 42
1.0
 10
0.0625
 20
0.0
 42
1.0
  0
ENDBLK
  5
B5A1
330
B59E
100
AcDbEntity
  8
0
100
AcDbBlockEnd
  0
BLOCK
  5
B8EC
330
B8E2
100
AcDbEntity
  8
0
100
AcDbBlockBegin
  2
*D20
 70
     1
 10
0.0
 20
0.0
 30
0.0
  3
*D20
  1

  0
LINE
  5
B999
330
B8E2
100
AcDbEntity
  8
AM_5
100
AcDbLine
 10
147.7508899743825
 20
110.6173568649897
 30
0.0
 11
147.7508899743825
 21
119.6173488649897
 31
0.0
  0
LINE
  5
B99A
330
B8E2
100
AcDbEntity
  8
AM_5
100
AcDbLine
 10
188.4508769743825
 20
110.6173408649897
 30
0.0
 11
188.4508769743825
 21
119.6173488649897
 31
0.0
  0
LINE
  5
B99B
330
B8E2
100
AcDbEntity
  8
AM_5
100
AcDbLine
 10
148.7508899743825
 20
118.6173488649897
 30
0.0
 11
187.4508769743825
 21
118.6173488649897
 31
0.0
  0
INSERT
  5
B99C
330
B8E2
100
AcDbEntity
  8
AM_5
100
AcDbBlockReference
  2
_Dot
 10
147.7508899743825
 20
118.6173488649897
 30
0.0
 50
180.0
  0
INSERT
  5
B99D
330
B8E2
100
AcDbEntity
  8
AM_5
100
AcDbBlockReference
  2
_Dot
 10
188.4508769743825
 20
118.6173488649897
 30
0.0
  0
MTEXT
  5
B99E
330
B8E2
100
AcDbEntity
  8
AM_5
 62
     2
100
AcDbMText
 10
168.1008834743825
 20
121.7173488649897
 30
0.0
 40
3.200000000000001
 41
0.0
 71
     5
 72
     1
  1
40.7
 73
     1
 44
1.0
1001
ACAD
1000
MTEXTBEGIN
1070
    73
1070
     1
1070
    44
1040
1.0
1070
    74
1070
     0
1000
MTEXTEND
  0
POINT
  5
B99F
330
B8E2
100
AcDbEntity
  8
Defpoints
 62
     0
100
AcDbPoint
 10
147.7508899743825
 20
109.6173568649897
 30
0.0
  0
POINT
  5
B9A0
330
B8E2
100
AcDbEntity
  8
Defpoints
 62
     0
100
AcDbPoint
 10
188.4508769743825
 20
109.6173408649897
 30
0.0
  0
POINT
  5
B9A1
330
B8E2
100
AcDbEntity
  8
Defpoints
 62
     0
100
AcDbPoint
 10
188.4508769743825
 20
118.6173488649897
 30
0.0
  0
ENDBLK
  5
B8ED
330
B8E2
100
AcDbEntity
  8
0
100
AcDbBlockEnd
  0
BLOCK
  5
B902
330
B8F8
100
AcDbEntity
  8
0
100
AcDbBlockBegin
  2
*D21
 70
     1
 10
0.0
 20
0.0
 30
0.0
  3
*D21
  1

  0
LINE
  5
B9A2
330
B8F8
100
AcDbEntity
  8
AM_5
100
AcDbLine
 10
145.9008839743825
 20
110.6173488649897
 30
0.0
 11
145.9008839743825
 21
128.6173488649897
 31
0.0
  0
LINE
  5
B9A3
330
B8F8
100
AcDbEntity
  8
AM_5
100
AcDbLine
 10
190.3008759743825
 20
110.6173408649897
 30
0.0
 11
190.3008759743825
 21
128.6173488649897
 31
0.0
  0
LINE
  5
B9A4
330
B8F8
100
AcDbEntity
  8
AM_5
100
AcDbLine
 10
146.9008839743825
 20
127.6173488649897
 30
0.0
 11
189.3008759743825
 21
127.6173488649897
 31
0.0
  0
INSERT
  5
B9A5
330
B8F8
100
AcDbEntity
  8
AM_5
100
AcDbBlockReference
  2
_Dot
 10
145.9008839743825
 20
127.6173488649897
 30
0.0
 50
180.0
  0
INSERT
  5
B9A6
330
B8F8
100
AcDbEntity
  8
AM_5
100
AcDbBlockReference
  2
_Dot
 10
190.3008759743825
 20
127.6173488649897
 30
0.0
  0
MTEXT
  5
B9A7
330
B8F8
100
AcDbEntity
  8
AM_5
 62
     2
100
AcDbMText
 10
168.1008799743825
 20
130.7173488649897
 30
0.0
 40
3.200000000000001
 41
0.0
 71
     5
 72
     1
  1
44
 73
     1
 44
1.0
1001
ACAD
1000
MTEXTBEGIN
1070
    73
1070
     1
1070
    44
1040
1.0
1070
    74
1070
     0
1000
MTEXTEND
  0
POINT
  5
B9A8
330
B8F8
100
AcDbEntity
  8
Defpoints
 62
     0
100
AcDbPoint
 10
145.9008839743825
 20
109.6173488649897
 30
0.0
  0
POINT
  5
B9A9
330
B8F8
100
AcDbEntity
  8
Defpoints
 62
     0
100
AcDbPoint
 10
190.3008759743825
 20
109.6173408649897
 30
0.0
  0
POINT
  5
B9AA
330
B8F8
100
AcDbEntity
  8
Defpoints
 62
     0
100
AcDbPoint
 10
190.3008759743825
 20
127.6173488649897
 30
0.0
  0
ENDBLK
  5
B903
330
B8F8
100
AcDbEntity
  8
0
100
AcDbBlockEnd
  0
BLOCK
  5
B921
330
B917
100
AcDbEntity
  8
0
100
AcDbBlockBegin
  2
*D22
 70
     1
 10
0.0
 20
0.0
 30
0.0
  3
*D22
  1

  0
LINE
  5
B9AB
330
B917
100
AcDbEntity
  8
AM_5
100
AcDbLine
 10
191.3008799743825
 20
109.6173488649897
 30
0.0
 11
200.3008759743825
 21
109.6173488649897
 31
0.0
  0
LINE
  5
B9AC
330
B917
100
AcDbEntity
  8
AM_5
100
AcDbLine
 10
190.3008799743825
 20
89.1173638649897
 30
0.0
 11
200.3008759743825
 21
89.1173638649897
 31
0.0
  0
LINE
  5
B9AD
330
B917
100
AcDbEntity
  8
AM_5
100
AcDbLine
 10
199.3008759743825
 20
108.6173488649897
 30
0.0
 11
199.3008759743825
 21
90.1173638649897
 31
0.0
  0
INSERT
  5
B9AE
330
B917
100
AcDbEntity
  8
AM_5
100
AcDbBlockReference
  2
_Dot
 10
199.3008759743825
 20
109.6173488649897
 30
0.0
 50
90.0
  0
INSERT
  5
B9AF
330
B917
100
AcDbEntity
  8
AM_5
100
AcDbBlockReference
  2
_Dot
 10
199.3008759743825
 20
89.1173638649897
 30
0.0
 50
270.0
  0
MTEXT
  5
B9B0
330
B917
100
AcDbEntity
  8
AM_5
 62
     2
100
AcDbMText
 10
196.2008759743825
 20
99.36735636498973
 30
0.0
 40
3.200000000000001
 41
0.0
 71
     5
 72
     1
  1
20.5
 11
0.0000000000000001
 21
1.0
 31
0.0
 73
     1
 44
1.0
1001
ACAD
1000
MTEXTBEGIN
1070
    73
1070
     1
1070
    44
1040
1.0
1070
    74
1070
     0
1000
MTEXTEND
  0
POINT
  5
B9B1
330
B917
100
AcDbEntity
  8
Defpoints
 62
     0
100
AcDbPoint
 10
190.3008799743825
 20
109.6173488649897
 30
0.0
  0
POINT
  5
B9B2
330
B917
100
AcDbEntity
  8
Defpoints
 62
     0
100
AcDbPoint
 10
189.3008799743825
 20
89.1173638649897
 30
0.0
  0
POINT
  5
B9B3
330
B917
100
AcDbEntity
  8
Defpoints
 62
     0
100
AcDbPoint
 10
199.3008759743825
 20
89.1173638649897
 30
0.0
  0
ENDBLK
  5
B922
330
B917
100
AcDbEntity
  8
0
100
AcDbBlockEnd
  0
BLOCK
  5
B937
330
B92D
100
AcDbEntity
  8
0
100
AcDbBlockBegin
  2
*D23
 70
     1
 10
0.0
 20
0.0
 30
0.0
  3
*D23
  1

  0
LINE
  5
B9B4
330
B92D
100
AcDbEntity
  8
AM_5
100
AcDbLine
 10
144.9008839743825
 20
109.6173488649897
 30
0.0
 11
126.9008839743825
 21
109.6173488649897
 31
0.0
  0
LINE
  5
B9B5
330
B92D
100
AcDbEntity
  8
AM_5
100
AcDbLine
 10
144.9008839743825
 20
95.61734886498973
 30
0.0
 11
126.9008839743825
 21
95.61734886498973
 31
0.0
  0
LINE
  5
B9B6
330
B92D
100
AcDbEntity
  8
AM_5
100
AcDbLine
 10
127.9008839743825
 20
108.6173488649897
 30
0.0
 11
127.9008839743825
 21
96.61734886498974
 31
0.0
  0
INSERT
  5
B9B7
330
B92D
100
AcDbEntity
  8
AM_5
100
AcDbBlockReference
  2
_Dot
 10
127.9008839743825
 20
109.6173488649897
 30
0.0
 50
90.0
  0
INSERT
  5
B9B8
330
B92D
100
AcDbEntity
  8
AM_5
100
AcDbBlockReference
  2
_Dot
 10
127.9008839743825
 20
95.61734886498973
 30
0.0
 50
270.0
  0
MTEXT
  5
B9B9
330
B92D
100
AcDbEntity
  8
AM_5
 62
     2
100
AcDbMText
 10
124.8008839743824
 20
102.6173488649897
 30
0.0
 40
3.200000000000001
 41
0.0
 71
     5
 72
     1
  1
14
 11
0.0000000000000001
 21
1.0
 31
0.0
 73
     1
 44
1.0
1001
ACAD
1000
MTEXTBEGIN
1070
    73
1070
     1
1070
    44
1040
1.0
1070
    74
1070
     0
1000
MTEXTEND
  0
POINT
  5
B9BA
330
B92D
100
AcDbEntity
  8
Defpoints
 62
     0
100
AcDbPoint
 10
145.9008839743825
 20
109.6173488649897
 30
0.0
  0
POINT
  5
B9BB
330
B92D
100
AcDbEntity
  8
Defpoints
 62
     0
100
AcDbPoint
 10
145.9008839743825
 20
95.61734886498973
 30
0.0
  0
POINT
  5
B9BC
330
B92D
100
AcDbEntity
  8
Defpoints
 62
     0
100
AcDbPoint
 10
127.9008839743825
 20
95.61734886498973
 30
0.0
  0
ENDBLK
  5
B938
330
B92D
100
AcDbEntity
  8
0
100
AcDbBlockEnd
  0
BLOCK
  5
B94D
330
B943
100
AcDbEntity
  8
0
100
AcDbBlockBegin
  2
*D24
 70
     1
 10
0.0
 20
0.0
 30
0.0
  3
*D24
  1

  0
LINE
  5
B9BD
330
B943
100
AcDbEntity
  8
AM_5
100
AcDbLine
 10
146.1008809743825
 20
104.6173488649897
 30
0.0
 11
135.9008839743824
 21
104.6173488649897
 31
0.0
  0
LINE
  5
B9BE
330
B943
100
AcDbEntity
  8
AM_5
100
AcDbLine
 10
144.9008839743825
 20
95.61735686498971
 30
0.0
 11
135.9008839743824
 21
95.61735686498971
 31
0.0
  0
LINE
  5
B9BF
330
B943
100
AcDbEntity
  8
AM_5
100
AcDbLine
 10
136.9008839743824
 20
103.6173488649897
 30
0.0
 11
136.9008839743824
 21
96.61735686498971
 31
0.0
  0
INSERT
  5
B9C0
330
B943
100
AcDbEntity
  8
AM_5
100
AcDbBlockReference
  2
_Dot
 10
136.9008839743824
 20
104.6173488649897
 30
0.0
 50
90.0
  0
INSERT
  5
B9C1
330
B943
100
AcDbEntity
  8
AM_5
100
AcDbBlockReference
  2
_Dot
 10
136.9008839743824
 20
95.61735686498971
 30
0.0
 50
270.0
  0
MTEXT
  5
B9C2
330
B943
100
AcDbEntity
  8
AM_5
 62
     2
100
AcDbMText
 10
133.8008839743824
 20
100.1173528649897
 30
0.0
 40
3.200000000000001
 41
0.0
 71
     5
 72
     1
  1
9
 11
0.0000000000000001
 21
1.0
 31
0.0
 73
     1
 44
1.0
1001
ACAD
1000
MTEXTBEGIN
1070
    73
1070
     1
1070
    44
1040
1.0
1070
    74
1070
     0
1000
MTEXTEND
  0
POINT
  5
B9C3
330
B943
100
AcDbEntity
  8
Defpoints
 62
     0
100
AcDbPoint
 10
147.1008809743825
 20
104.6173488649897
 30
0.0
  0
POINT
  5
B9C4
330
B943
100
AcDbEntity
  8
Defpoints
 62
     0
100
AcDbPoint
 10
145.9008839743825
 20
95.61735686498971
 30
0.0
  0
POINT
  5
B9C5
330
B943
100
AcDbEntity
  8
Defpoints
 62
     0
100
AcDbPoint
 10
136.9008839743824
 20
95.61735686498971
 30
0.0
  0
ENDBLK
  5
B94E
330
B943
100
AcDbEntity
  8
0
100
AcDbBlockEnd
  0
BLOCK
  5
B963
330
B959
100
AcDbEntity
  8
0
100
AcDbBlockBegin
  2
*D25
 70
     1
 10
0.0
 20
0.0
 30
0.0
  3
*D25
  1

  0
LINE
  5
B9C6
330
B959
100
AcDbEntity
  8
AM_5
100
AcDbLine
 10
152.1008769743825
 20
55.19620548961203
 30
0.0
 11
152.1008769743825
 21
44.829271403587
 31
0.0
  0
LINE
  5
B9C7
330
B959
100
AcDbEntity
  8
AM_5
100
AcDbLine
 10
184.1967909643826
 20
51.65136764961201
 30
0.0
 11
184.1967909643826
 21
44.829271403587
 31
0.0
  0
LINE
  5
B9C8
330
B959
100
AcDbEntity
  8
AM_5
100
AcDbLine
 10
153.1008769743825
 20
45.82927140358701
 30
0.0
 11
183.1967909643826
 21
45.82927140358701
 31
0.0
  0
INSERT
  5
B9C9
330
B959
100
AcDbEntity
  8
AM_5
100
AcDbBlockReference
  2
_Dot
 10
152.1008769743825
 20
45.82927140358701
 30
0.0
 50
180.0
  0
INSERT
  5
B9CA
330
B959
100
AcDbEntity
  8
AM_5
100
AcDbBlockReference
  2
_Dot
 10
184.1967909643826
 20
45.82927140358701
 30
0.0
  0
MTEXT
  5
B9CB
330
B959
100
AcDbEntity
  8
AM_5
 62
     2
100
AcDbMText
 10
168.1488339693825
 20
48.929271403587
 30
0.0
 40
3.200000000000001
 41
0.0
 71
     5
 72
     1
  1
（32）
 73
     1
 44
1.0
1001
ACAD
1000
MTEXTBEGIN
1070
    73
1070
     1
1070
    44
1040
1.0
1070
    74
1070
     0
1000
MTEXTEND
  0
POINT
  5
B9CC
330
B959
100
AcDbEntity
  8
Defpoints
 62
     0
100
AcDbPoint
 10
152.1008769743825
 20
56.19620548961202
 30
0.0
  0
POINT
  5
B9CD
330
B959
100
AcDbEntity
  8
Defpoints
 62
     0
100
AcDbPoint
 10
184.1967909643826
 20
52.65136764961201
 30
0.0
  0
POINT
  5
B9CE
330
B959
100
AcDbEntity
  8
Defpoints
 62
     0
100
AcDbPoint
 10
184.1967909643826
 20
45.82927140358701
 30
0.0
  0
ENDBLK
  5
B964
330
B959
100
AcDbEntity
  8
0
100
AcDbBlockEnd
  0
BLOCK
  5
BA0E
330
BA07
100
AcDbEntity
  8
0
100
AcDbBlockBegin
  2
*S27
 70
     1
 10
0.0
 20
0.0
 30
0.0
  3
*S27
  1

  0
LINE
  5
BA08
330
BA07
100
AcDbEntity
  8
AM_5
 62
     3
100
AcDbLine
 10
133.8282757580382
 20
45.72639164422016
 30
0.0
 11
148.9749424247048
 21
45.72639164422016
 31
0.0
  0
LINE
  5
BA09
330
BA07
100
AcDbEntity
  8
AM_5
  6
寸法線
 62
     3
100
AcDbLine
 10
148.9749424247048
 20
45.72639164422016
 30
0.0
 11
158.0305427077236
 21
54.78199192723893
 31
0.0
  0
LINE
  5
BA0A
330
BA07
100
AcDbEntity
  8
AM_5
  6
Continuous
 62
     3
100
AcDbLine
 10
158.0305427077236
 20
54.78199192723893
 30
0.0
 11
159.4447562700967
 21
56.19620548961202
 31
0.0
  0
LINE
  5
BA0B
330
BA07
100
AcDbEntity
  8
AM_5
  6
Continuous
 62
     3
100
AcDbLine
 10
158.4094800862485
 20
54.40305454871404
 30
0.0
 11
159.4447562700967
 21
56.19620548961202
 31
0.0
  0
LINE
  5
BA0C
330
BA07
100
AcDbEntity
  8
AM_5
  6
Continuous
 62
     3
100
AcDbLine
 10
159.4447562700967
 20
56.19620548961202
 30
0.0
 11
157.6516053291987
 21
55.16092930576381
 31
0.0
  0
MTEXT
  5
BA0D
330
BA07
100
AcDbEntity
  8
AM_5
 62
     2
100
AcDbMText
 10
145.7749424247048
 20
47.32639164422016
 30
0.0
 40
3.2
 41
0.0
 71
     9
 72
     5
  1
LRB-11
 73
     1
 44
1.0
1001
ACAD
1000
MTEXTBEGIN
1070
    73
1070
     1
1070
    44
1040
1.0
1070
    74
1070
     0
1000
MTEXTEND
  0
ENDBLK
  5
BA0F
330
BA07
100
AcDbEntity
  8
0
100
AcDbBlockEnd
  0
ENDSEC
  0
SECTION
  2
ENTITIES
  0
LINE
  5
B675
330
1F
100
AcDbEntity
  8
AM_1
100
AcDbLine
 10
272.9999998797157
 20
171.0000001884317
 30
0.0
 11
272.9999998797157
 21
0.0000001884317271
 31
0.0
  0
LINE
  5
B676
330
1F
100
AcDbEntity
  8
AM_1
100
AcDbLine
 10
-0.0000001202843123
 20
0.0000001884317271
 30
0.0
 11
272.9999998797157
 21
0.0000001884317271
 31
0.0
  0
LINE
  5
B677
330
1F
100
AcDbEntity
  8
AM_1
100
AcDbLine
 10
-0.0000001202843123
 20
171.0000001884317
 30
0.0
 11
-0.0000001202843123
 21
0.0000001884317271
 31
0.0
  0
LINE
  5
B678
330
1F
100
AcDbEntity
  8
AM_1
100
AcDbLine
 10
-0.0000001202843123
 20
171.0000001884317
 30
0.0
 11
272.9999998797157
 21
171.0000001884317
 31
0.0
  0
LINE
  5
B679
330
1F
100
AcDbEntity
  8
AM_1
100
AcDbLine
 10
-0.0000001202843123
 20
171.0000001884317
 30
0.0
 11
-0.0000001202843123
 21
91.00000018843173
 31
0.0
  0
LINE
  5
B67A
330
1F
100
AcDbEntity
  8
AM_1
100
AcDbLine
 10
-0.0000001202843123
 20
171.0000001884317
 30
0.0
 11
109.9999998797157
 21
171.0000001884317
 31
0.0
  0
LINE
  5
B67B
330
1F
100
AcDbEntity
  8
AM_0
100
AcDbLine
 10
19.99999987971569
 20
171.0000001884317
 30
0.0
 11
19.99999987971569
 21
90.99999718843173
 31
0.0
  0
LINE
  5
B67C
330
1F
100
AcDbEntity
  8
AM_0
100
AcDbLine
 10
-0.0000001202843123
 20
163.0000001884317
 30
0.0
 11
109.9999998797156
 21
163.0000001884317
 31
0.0
  0
LINE
  5
B67D
330
1F
100
AcDbEntity
  8
AM_0
100
AcDbLine
 10
-0.0000001202843123
 20
155.0000001884317
 30
0.0
 11
109.9999998797156
 21
155.0000001884317
 31
0.0
  0
LINE
  5
B67E
330
1F
100
AcDbEntity
  8
AM_0
100
AcDbLine
 10
-0.0000001202843123
 20
147.0000001884317
 30
0.0
 11
109.9999998797156
 21
147.0000001884317
 31
0.0
  0
LINE
  5
B67F
330
1F
100
AcDbEntity
  8
AM_0
100
AcDbLine
 10
-0.0000001202843123
 20
138.9999971884317
 30
0.0
 11
109.9999998797156
 21
138.9999971884317
 31
0.0
  0
LINE
  5
B680
330
1F
100
AcDbEntity
  8
AM_2
100
AcDbLine
 10
19.99999987971569
 20
130.9999971884317
 30
0.0
 11
109.9999998797156
 21
130.9999971884317
 31
0.0
  0
LINE
  5
B681
330
1F
100
AcDbEntity
  8
AM_2
100
AcDbLine
 10
19.99999987971569
 20
122.9999971884317
 30
0.0
 11
109.9999998797156
 21
122.9999971884317
 31
0.0
  0
LINE
  5
B682
330
1F
100
AcDbEntity
  8
AM_0
100
AcDbLine
 10
-0.0000001202843123
 20
114.9999971884317
 30
0.0
 11
109.9999998797156
 21
114.9999971884317
 31
0.0
  0
LINE
  5
B683
330
1F
100
AcDbEntity
  8
AM_2
100
AcDbLine
 10
19.99999987971569
 20
106.9999971884317
 30
0.0
 11
109.9999998797156
 21
106.9999971884317
 31
0.0
  0
LINE
  5
B684
330
1F
100
AcDbEntity
  8
AM_2
100
AcDbLine
 10
19.99999987971569
 20
98.99999718843174
 30
0.0
 11
109.9999998797156
 21
98.99999718843174
 31
0.0
  0
LINE
  5
B685
330
1F
100
AcDbEntity
  8
AM_0
100
AcDbLine
 10
-0.0000001202843123
 20
90.99999718843173
 30
0.0
 11
109.9999998797156
 21
90.99999718843173
 31
0.0
  0
LINE
  5
B686
330
1F
100
AcDbEntity
  8
AM_0
100
AcDbLine
 10
109.9999998797156
 20
171.0000001884317
 30
0.0
 11
109.9999998797156
 21
90.99999718843173
 31
0.0
  0
LINE
  5
B687
330
1F
100
AcDbEntity
  8
AM_0
100
AcDbLine
 10
189.1008789743825
 20
104.6173488649897
 30
0.0
 11
147.1008809743825
 21
104.6173488649897
 31
0.0
  0
LINE
  5
B688
330
1F
100
AcDbEntity
  8
AM_0
100
AcDbLine
 10
147.1008809743825
 20
108.4173518649897
 30
0.0
 11
147.1008809743825
 21
104.6173568649897
 31
0.0
  0
LINE
  5
B689
330
1F
100
AcDbEntity
  8
AM_0
100
AcDbLine
 10
147.7508819743825
 20
109.6173488649897
 30
0.0
 11
145.9008839743825
 21
109.6173488649897
 31
0.0
  0
LINE
  5
B68A
330
1F
100
AcDbEntity
  8
AM_0
100
AcDbLine
 10
147.7508819743825
 20
108.4173518649897
 30
0.0
 11
147.1008809743825
 21
108.4173518649897
 31
0.0
  0
LINE
  5
B68B
330
1F
100
AcDbEntity
  8
AM_0
100
AcDbLine
 10
147.7508899743825
 20
109.6173568649897
 30
0.0
 11
147.7508899743825
 21
108.4173518649897
 31
0.0
  0
LINE
  5
B68C
330
1F
100
AcDbEntity
  8
AM_0
100
AcDbLine
 10
188.4508769743825
 20
109.6173488649897
 30
0.0
 11
190.3008799743825
 21
109.6173488649897
 31
0.0
  0
LINE
  5
B68D
330
1F
100
AcDbEntity
  8
AM_0
100
AcDbLine
 10
188.4508769743825
 20
109.6173408649897
 30
0.0
 11
188.4508769743825
 21
108.4173438649897
 31
0.0
  0
LINE
  5
B68E
330
1F
100
AcDbEntity
  8
AM_0
100
AcDbLine
 10
189.1008789743825
 20
108.4173438649897
 30
0.0
 11
189.1008789743825
 21
104.6173408649897
 31
0.0
  0
LINE
  5
B68F
330
1F
100
AcDbEntity
  8
AM_0
100
AcDbLine
 10
188.4508769743825
 20
108.4173518649897
 30
0.0
 11
189.1008789743825
 21
108.4173518649897
 31
0.0
  0
LINE
  5
B690
330
1F
100
AcDbEntity
  8
AM_0
100
AcDbLine
 10
184.1008789743825
 20
101.4173518649897
 30
0.0
 11
185.3008799743825
 21
101.4173518649897
 31
0.0
  0
LINE
  5
B691
330
1F
100
AcDbEntity
  8
AM_0
100
AcDbLine
 10
145.9008839743825
 20
109.6173568649897
 30
0.0
 11
145.9008839743825
 21
95.61735686498971
 31
0.0
  0
LINE
  5
B692
330
1F
100
AcDbEntity
  8
AM_0
100
AcDbLine
 10
147.1008809743825
 20
102.4173518649897
 30
0.0
 11
147.1008809743825
 21
99.81734586498973
 31
0.0
  0
LINE
  5
B693
330
1F
100
AcDbEntity
  8
AM_0
100
AcDbLine
 10
152.1008809743825
 20
96.11734886498974
 30
0.0
 11
152.1008809743825
 21
95.61735686498971
 31
0.0
  0
LINE
  5
B694
330
1F
100
AcDbEntity
  8
AM_0
100
AcDbLine
 10
152.1008809743825
 20
101.4173518649897
 30
0.0
 11
150.9008839743825
 21
101.4173518649897
 31
0.0
  0
LINE
  5
B695
330
1F
100
AcDbEntity
  8
AM_0
100
AcDbLine
 10
150.9008839743825
 20
103.4173518649897
 30
0.0
 11
148.1008809743825
 21
103.4173518649897
 31
0.0
  0
LINE
  5
B696
330
1F
100
AcDbEntity
  8
AM_0
100
AcDbLine
 10
184.1008789743825
 20
103.4173518649897
 30
0.0
 11
168.4008799743825
 21
103.4173518649897
 31
0.0
  0
LINE
  5
B697
330
1F
100
AcDbEntity
  8
AM_0
100
AcDbLine
 10
187.3008799743825
 20
95.61734886498973
 30
0.0
 11
189.3008799743825
 21
95.61734886498973
 31
0.0
  0
LINE
  5
B698
330
1F
100
AcDbEntity
  8
AM_0
100
AcDbLine
 10
187.3008799743825
 20
96.81734586498974
 30
0.0
 11
189.1008789743825
 21
96.81734586498974
 31
0.0
  0
LINE
  5
B699
330
1F
100
AcDbEntity
  8
AM_0
100
AcDbLine
 10
152.1008769743825
 20
95.61734886498973
 30
0.0
 11
145.9008839743825
 21
95.61734886498973
 31
0.0
  0
LINE
  5
B69A
330
1F
100
AcDbEntity
  8
AM_0
100
AcDbLine
 10
190.3008699743825
 20
90.61734886498973
 30
0.0
 11
189.3008799743825
 21
89.1173638649897
 31
0.0
  0
LINE
  5
B69B
330
1F
100
AcDbEntity
  8
AM_0
100
AcDbLine
 10
189.3008759743825
 20
95.61734086498971
 30
0.0
 11
189.3008759743825
 21
93.71593586498974
 31
0.0
  0
LINE
  5
B69C
330
1F
100
AcDbEntity
  8
AM_0
100
AcDbLine
 10
187.3008759743825
 20
96.81734586498974
 30
0.0
 11
187.3008759743825
 21
95.61734086498971
 31
0.0
  0
LINE
  5
B69D
330
1F
100
AcDbEntity
  8
AM_0
100
AcDbLine
 10
188.1008789743825
 20
103.4173518649897
 30
0.0
 11
185.3008799743825
 21
103.4173518649897
 31
0.0
  0
LINE
  5
B69E
330
1F
100
AcDbEntity
  8
AM_0
100
AcDbLine
 10
190.3008759743825
 20
109.6173408649897
 30
0.0
 11
190.3008759743825
 21
90.61734086498971
 31
0.0
  0
LINE
  5
B69F
330
1F
100
AcDbEntity
  8
AM_0
100
AcDbLine
 10
189.1008789743825
 20
102.4173518649897
 30
0.0
 11
189.1008789743825
 21
96.81734586498974
 31
0.0
  0
LINE
  5
B6A0
330
1F
100
AcDbEntity
  8
AM_7
 48
0.6
100
AcDbLine
 10
168.1008809743825
 20
109.6173488649897
 30
0.0
 11
168.1008809743825
 21
96.41051586498972
 31
0.0
  0
LINE
  5
B6A1
330
1F
100
AcDbEntity
  8
AM_0
100
AcDbLine
 10
146.9008839743825
 20
98.61734886498972
 30
0.0
 11
146.9008839743825
 21
96.61734886498974
 31
0.0
  0
LINE
  5
B6A2
330
1F
100
AcDbEntity
  8
AM_0
100
AcDbLine
 10
184.3038439743825
 20
92.37580186498972
 30
0.0
 11
184.2229609743825
 21
92.19504686498973
 31
0.0
  0
LINE
  5
B6A3
330
1F
100
AcDbEntity
  8
AM_0
100
AcDbLine
 10
168.1008809743825
 20
103.7173548649897
 30
0.0
 11
167.8008809743825
 21
103.4173518649897
 31
0.0
  0
LINE
  5
B6A4
330
1F
100
AcDbEntity
  8
AM_0
100
AcDbLine
 10
168.1008809743825
 20
103.7173548649897
 30
0.0
 11
168.4008799743825
 21
103.4173518649897
 31
0.0
  0
LINE
  5
B6A5
330
1F
100
AcDbEntity
  8
AM_0
100
AcDbLine
 10
167.8008809743825
 20
103.4173518649897
 30
0.0
 11
152.1008809743825
 21
103.4173518649897
 31
0.0
  0
LINE
  5
B6A6
330
1F
100
AcDbEntity
  8
AM_0
100
AcDbLine
 10
151.6008809743825
 20
96.61734886498974
 30
0.0
 11
146.9008839743825
 21
96.61734886498974
 31
0.0
  0
LINE
  5
B6A7
330
1F
100
AcDbEntity
  8
AM_0
100
AcDbLine
 10
148.9008839743825
 20
98.61734886498972
 30
0.0
 11
146.9008839743825
 21
98.61734886498972
 31
0.0
  0
LINE
  5
B6A8
330
1F
100
AcDbEntity
  8
AM_0
100
AcDbLine
 10
148.9008839743825
 20
99.81734586498973
 30
0.0
 11
147.1008809743825
 21
99.81734586498973
 31
0.0
  0
LINE
  5
B6A9
330
1F
100
AcDbEntity
  8
AM_0
100
AcDbLine
 10
148.9008839743825
 20
99.81734586498973
 30
0.0
 11
148.9008839743825
 21
98.61734886498972
 31
0.0
  0
LINE
  5
B6AA
330
1F
100
AcDbEntity
  8
AM_0
100
AcDbLine
 10
184.1008789743825
 20
103.4173518649897
 30
0.0
 11
184.1008789743825
 21
101.4173518649897
 31
0.0
  0
LINE
  5
B6AB
330
1F
100
AcDbEntity
  8
AM_0
100
AcDbLine
 10
152.1008809743825
 20
103.4173518649897
 30
0.0
 11
152.1008809743825
 21
101.4173518649897
 31
0.0
  0
LINE
  5
B6AC
330
1F
100
AcDbEntity
  8
AM_0
100
AcDbLine
 10
150.9008839743825
 20
103.4173518649897
 30
0.0
 11
150.9008839743825
 21
101.4173518649897
 31
0.0
  0
LINE
  5
B6AD
330
1F
100
AcDbEntity
  8
AM_0
100
AcDbLine
 10
185.3008799743825
 20
103.4173518649897
 30
0.0
 11
185.3008799743825
 21
101.4173518649897
 31
0.0
  0
LINE
  5
B6AE
330
1F
100
AcDbEntity
  8
AM_0
100
AcDbLine
 10
189.1008789743825
 20
65.19620504961202
 30
0.0
 11
147.1008809743825
 21
65.19620504961202
 31
0.0
  0
LINE
  5
B6AF
330
1F
100
AcDbEntity
  8
AM_0
100
AcDbLine
 10
147.1008809743825
 20
68.99620804961202
 30
0.0
 11
147.1008809743825
 21
65.19621274961202
 31
0.0
  0
LINE
  5
B6B0
330
1F
100
AcDbEntity
  8
AM_0
100
AcDbLine
 10
147.7508819743825
 20
70.19620504961202
 30
0.0
 11
145.9008839743825
 21
70.19620504961202
 31
0.0
  0
LINE
  5
B6B1
330
1F
100
AcDbEntity
  8
AM_0
100
AcDbLine
 10
147.7508819743825
 20
68.99620804961202
 30
0.0
 11
147.1008809743825
 21
68.99620804961202
 31
0.0
  0
LINE
  5
B6B2
330
1F
100
AcDbEntity
  8
AM_0
100
AcDbLine
 10
147.7508899743825
 20
70.19621304961202
 30
0.0
 11
147.7508899743825
 21
68.99620804961202
 31
0.0
  0
LINE
  5
B6B3
330
1F
100
AcDbEntity
  8
AM_0
100
AcDbLine
 10
188.4508769743825
 20
70.19620504961202
 30
0.0
 11
190.3008799743825
 21
70.19620504961202
 31
0.0
  0
LINE
  5
B6B4
330
1F
100
AcDbEntity
  8
AM_0
100
AcDbLine
 10
188.4508769743825
 20
70.19620504961202
 30
0.0
 11
188.4508769743825
 21
68.99620004961201
 31
0.0
  0
LINE
  5
B6B5
330
1F
100
AcDbEntity
  8
AM_0
100
AcDbLine
 10
189.1008789743825
 20
68.99620004961201
 30
0.0
 11
189.1008789743825
 21
65.19620504961202
 31
0.0
  0
LINE
  5
B6B6
330
1F
100
AcDbEntity
  8
AM_0
100
AcDbLine
 10
188.4508769743825
 20
68.99620804961202
 30
0.0
 11
189.1008789743825
 21
68.99620804961202
 31
0.0
  0
LINE
  5
B6B7
330
1F
100
AcDbEntity
  8
AM_0
100
AcDbLine
 10
184.1008789743825
 20
61.99620864961201
 30
0.0
 11
185.3008799743825
 21
61.99620864961201
 31
0.0
  0
LINE
  5
B6B8
330
1F
100
AcDbEntity
  8
AM_0
100
AcDbLine
 10
145.9008839743825
 20
70.19621304961202
 30
0.0
 11
145.9008839743825
 21
56.19621311961203
 31
0.0
  0
LINE
  5
B6B9
330
1F
100
AcDbEntity
  8
AM_0
100
AcDbLine
 10
147.1008809743825
 20
62.99620864961202
 30
0.0
 11
147.1008809743825
 21
60.39621014961202
 31
0.0
  0
LINE
  5
B6BA
330
1F
100
AcDbEntity
  8
AM_0
100
AcDbLine
 10
152.1008809743825
 20
56.69620550961202
 30
0.0
 11
152.1008809743825
 21
56.19621311961203
 31
0.0
  0
LINE
  5
B6BB
330
1F
100
AcDbEntity
  8
AM_0
100
AcDbLine
 10
152.1008809743825
 20
61.99620864961201
 30
0.0
 11
150.9008839743825
 21
61.99620864961201
 31
0.0
  0
LINE
  5
B6BC
330
1F
100
AcDbEntity
  8
AM_0
100
AcDbLine
 10
150.9008839743825
 20
63.99620814961202
 30
0.0
 11
148.1008809743825
 21
63.99620814961202
 31
0.0
  0
LINE
  5
B6BD
330
1F
100
AcDbEntity
  8
AM_0
100
AcDbLine
 10
184.1008789743825
 20
63.99620814961202
 30
0.0
 11
168.4008799743826
 21
63.99620814961202
 31
0.0
  0
LINE
  5
B6BE
330
1F
100
AcDbEntity
  8
AM_0
100
AcDbLine
 10
187.3008799743825
 20
56.19620548961202
 30
0.0
 11
189.3008799743825
 21
56.19620548961202
 31
0.0
  0
LINE
  5
B6BF
330
1F
100
AcDbEntity
  8
AM_0
100
AcDbLine
 10
187.3008799743825
 20
57.39620234961202
 30
0.0
 11
189.1008789743825
 21
57.39620234961202
 31
0.0
  0
LINE
  5
B6C0
330
1F
100
AcDbEntity
  8
AM_0
100
AcDbLine
 10
152.1008769743825
 20
56.19620548961202
 30
0.0
 11
145.9008839743825
 21
56.19620548961202
 31
0.0
  0
LINE
  5
B6C1
330
1F
100
AcDbEntity
  8
AM_0
100
AcDbLine
 10
190.3008719743825
 20
51.19620934961202
 30
0.0
 11
189.3008779743825
 21
49.69621844961201
 31
0.0
  0
LINE
  5
B6C2
330
1F
100
AcDbEntity
  8
AM_0
100
AcDbLine
 10
189.3008759743825
 20
56.19620548961202
 30
0.0
 11
189.3008759743825
 21
54.29479244961203
 31
0.0
  0
LINE
  5
B6C3
330
1F
100
AcDbEntity
  8
AM_0
100
AcDbLine
 10
187.3008759743825
 20
57.39620234961202
 30
0.0
 11
187.3008759743825
 21
56.19620548961202
 31
0.0
  0
LINE
  5
B6C4
330
1F
100
AcDbEntity
  8
AM_0
100
AcDbLine
 10
188.1008789743825
 20
63.99620814961202
 30
0.0
 11
185.3008799743825
 21
63.99620814961202
 31
0.0
  0
LINE
  5
B6C5
330
1F
100
AcDbEntity
  8
AM_0
100
AcDbLine
 10
190.3008759743825
 20
70.19620504961202
 30
0.0
 11
190.3008759743825
 21
51.19620554961201
 31
0.0
  0
LINE
  5
B6C6
330
1F
100
AcDbEntity
  8
AM_0
100
AcDbLine
 10
189.1008789743825
 20
62.99620864961202
 30
0.0
 11
189.1008789743825
 21
57.39620234961202
 31
0.0
  0
LINE
  5
B6C7
330
1F
100
AcDbEntity
  8
AM_7
100
AcDbLine
 10
168.1008809743825
 20
70.19620504961202
 30
0.0
 11
168.1008809743825
 21
52.188919449612
 31
0.0
  0
LINE
  5
B6C8
330
1F
100
AcDbEntity
  8
AM_0
100
AcDbLine
 10
146.9008839743825
 20
59.19620554961202
 30
0.0
 11
146.9008839743825
 21
57.19620544961202
 31
0.0
  0
LINE
  5
B6C9
330
1F
100
AcDbEntity
  8
AM_0
100
AcDbLine
 10
184.3038439743826
 20
52.95466154961201
 30
0.0
 11
184.2229609743825
 21
52.77390404961201
 31
0.0
  0
LINE
  5
B6CA
330
1F
100
AcDbEntity
  8
AM_0
100
AcDbLine
 10
168.1008809743825
 20
64.29620924961202
 30
0.0
 11
167.8008809743825
 21
63.99621004961201
 31
0.0
  0
LINE
  5
B6CB
330
1F
100
AcDbEntity
  8
AM_0
100
AcDbLine
 10
168.1008809743825
 20
64.29620924961202
 30
0.0
 11
168.4008799743826
 21
63.99620814961202
 31
0.0
  0
LINE
  5
B6CC
330
1F
100
AcDbEntity
  8
AM_0
100
AcDbLine
 10
167.8008809743825
 20
63.99620814961202
 30
0.0
 11
152.1008809743825
 21
63.99620814961202
 31
0.0
  0
LINE
  5
B6CD
330
1F
100
AcDbEntity
  8
AM_0
100
AcDbLine
 10
151.6008809743825
 20
57.19620544961202
 30
0.0
 11
146.9008839743825
 21
57.19620544961202
 31
0.0
  0
LINE
  5
B6CE
330
1F
100
AcDbEntity
  8
AM_0
100
AcDbLine
 10
148.9008839743825
 20
59.19620554961202
 30
0.0
 11
146.9008839743825
 21
59.19620554961202
 31
0.0
  0
LINE
  5
B6CF
330
1F
100
AcDbEntity
  8
AM_0
100
AcDbLine
 10
148.9008839743825
 20
60.39621014961202
 30
0.0
 11
147.1008809743825
 21
60.39621014961202
 31
0.0
  0
LINE
  5
B6D0
330
1F
100
AcDbEntity
  8
AM_0
100
AcDbLine
 10
148.9008839743825
 20
60.39621014961202
 30
0.0
 11
148.9008839743825
 21
59.19620554961202
 31
0.0
  0
LINE
  5
B6D1
330
1F
100
AcDbEntity
  8
AM_0
100
AcDbLine
 10
184.1008789743825
 20
63.99620814961202
 30
0.0
 11
184.1008789743825
 21
61.99620864961201
 31
0.0
  0
LINE
  5
B6D2
330
1F
100
AcDbEntity
  8
AM_0
100
AcDbLine
 10
152.1008809743825
 20
63.99620814961202
 30
0.0
 11
152.1008809743825
 21
61.99620864961201
 31
0.0
  0
LINE
  5
B6D3
330
1F
100
AcDbEntity
  8
AM_0
100
AcDbLine
 10
150.9008839743825
 20
63.99620814961202
 30
0.0
 11
150.9008839743825
 21
61.99620864961201
 31
0.0
  0
LINE
  5
B6D4
330
1F
100
AcDbEntity
  8
AM_0
100
AcDbLine
 10
185.3008799743825
 20
63.99620814961202
 30
0.0
 11
185.3008799743825
 21
61.99620864961201
 31
0.0
  0
LINE
  5
B6D5
330
1F
100
AcDbEntity
  8
AM_0
100
AcDbLine
 10
148.4008839743825
 20
59.19620554961202
 30
0.0
 11
148.4008839743825
 21
58.49620864961202
 31
0.0
  0
LINE
  5
B6D6
330
1F
100
AcDbEntity
  8
AM_0
100
AcDbLine
 10
154.4008839743825
 20
58.49620864961202
 30
0.0
 11
148.4008839743825
 21
58.49620864961202
 31
0.0
  0
LINE
  5
B6D7
330
1F
100
AcDbEntity
  8
AM_0
100
AcDbLine
 10
147.4008839743826
 20
58.49620864961202
 30
0.0
 11
147.4008839743826
 21
59.19620554961202
 31
0.0
  0
LINE
  5
B6D8
330
1F
100
AcDbEntity
  8
AM_0
100
AcDbLine
 10
152.1008809743825
 20
57.49620844961203
 30
0.0
 11
148.4008839743825
 21
57.49620844961203
 31
0.0
  0
LINE
  5
B6D9
330
1F
100
AcDbEntity
  8
AM_0
100
AcDbLine
 10
152.1008809743825
 20
57.49620844961203
 30
0.0
 11
152.1008809743825
 21
56.69620550961202
 31
0.0
  0
LINE
  5
B6DA
330
1F
100
AcDbEntity
  8
AM_0
100
AcDbLine
 10
168.2508819743825
 20
56.19620548961202
 30
0.0
 11
152.6008809743825
 21
56.19620548961202
 31
0.0
  0
LINE
  5
B6DB
330
1F
100
AcDbEntity
  8
AM_0
100
AcDbLine
 10
168.2508819743825
 20
57.19620544961202
 30
0.0
 11
157.7639129743825
 21
57.19620544961202
 31
0.0
  0
LINE
  5
B6DC
330
1F
100
AcDbEntity
  8
AM_0
100
AcDbLine
 10
187.9179719743826
 20
52.98058024961202
 30
0.0
 11
188.8175729743825
 21
53.90507094961202
 31
0.0
  0
LINE
  5
B6DD
330
1F
100
AcDbEntity
  8
AM_0
100
AcDbLine
 10
189.1008789743825
 20
56.19620548961202
 30
0.0
 11
189.1008789743825
 21
54.60245544961202
 31
0.0
  0
LINE
  5
B6DE
330
1F
100
AcDbEntity
  8
AM_0
100
AcDbLine
 10
188.1008789743825
 20
56.19620548961202
 30
0.0
 11
188.1008789743825
 21
54.69620544961202
 31
0.0
  0
LINE
  5
B6DF
330
1F
100
AcDbEntity
  8
AM_0
100
AcDbLine
 10
188.1008789743825
 20
54.69620544961202
 30
0.0
 11
182.3487449743825
 21
54.69620544961202
 31
0.0
  0
ARC
  5
B6E0
330
1F
100
AcDbEntity
  8
AM_0
100
AcDbCircle
 10
184.7602339743825
 20
92.17157886498972
 30
0.0
 40
0.5
100
AcDbArc
 50
65.18565999999921
 51
155.8927300000009
  0
ARC
  5
B6E1
330
1F
100
AcDbEntity
  8
AM_0
100
AcDbCircle
 10
184.4967909743825
 20
92.0725108649897
 30
0.0
 40
0.30000001
100
AcDbArc
 50
155.8925199999999
 51
245.4668389999989
  0
ARC
  5
B6E2
330
1F
100
AcDbEntity
  8
AM_0
100
AcDbCircle
 10
187.3008759743825
 20
93.71593586498974
 30
0.0
 40
2.0
100
AcDbArc
 50
242.975979
 51
0.0
  0
ARC
  5
B6E3
330
1F
100
AcDbEntity
  8
AM_0
100
AcDbCircle
 10
167.7632149743825
 20
55.41084786498974
 30
0.0
 40
40.0
100
AcDbArc
 50
57.42238999999955
 51
65.46650000000048
  0
ARC
  5
B6E4
330
1F
100
AcDbEntity
  8
AM_0
100
AcDbCircle
 10
151.6008809743825
 20
96.11734886498974
 30
0.0
 40
0.5
100
AcDbArc
 50
0.0
 51
90.0
  0
ARC
  5
B6E5
330
1F
100
AcDbEntity
  8
AM_0
100
AcDbCircle
 10
148.1008809743825
 20
102.4173518649897
 30
0.0
 40
1.0
100
AcDbArc
 50
90.0
 51
180.0
  0
ARC
  5
B6E6
330
1F
100
AcDbEntity
  8
AM_0
100
AcDbCircle
 10
167.7632149743825
 20
55.41084786498974
 30
0.0
 40
41.0
100
AcDbArc
 50
62.97595999999869
 51
65.18564999999755
  0
ARC
  5
B6E7
330
1F
100
AcDbEntity
  8
AM_0
100
AcDbCircle
 10
188.1008789743825
 20
102.4173518649897
 30
0.0
 40
1.0
100
AcDbArc
 50
0.0
 51
90.0
  0
ARC
  5
B6E8
330
1F
100
AcDbEntity
  8
AM_0
100
AcDbCircle
 10
184.7602339743825
 20
52.75043534961202
 30
0.0
 40
0.5
100
AcDbArc
 50
65.18574000000024
 51
155.8929999999995
  0
ARC
  5
B6E9
330
1F
100
AcDbEntity
  8
AM_0
100
AcDbCircle
 10
184.4967909743825
 20
52.65136764961201
 30
0.0
 40
0.30000001
100
AcDbArc
 50
155.8930599999994
 51
245.4665930000013
  0
ARC
  5
B6EA
330
1F
100
AcDbEntity
  8
AM_0
100
AcDbCircle
 10
187.3008759743825
 20
54.29479244961203
 30
0.0
 40
2.0
100
AcDbArc
 50
242.9759859999998
 51
0.0
  0
ARC
  5
B6EB
330
1F
100
AcDbEntity
  8
AM_0
100
AcDbCircle
 10
167.7632149743825
 20
15.98970504961201
 30
0.0
 40
40.0
100
AcDbArc
 50
57.42238999999955
 51
65.46650000000028
  0
ARC
  5
B6EC
330
1F
100
AcDbEntity
  8
AM_0
100
AcDbCircle
 10
151.6008809743825
 20
56.69620550961202
 30
0.0
 40
0.5
100
AcDbArc
 50
0.000009999999378
 51
90.0
  0
ARC
  5
B6ED
330
1F
100
AcDbEntity
  8
AM_0
100
AcDbCircle
 10
148.1008809743825
 20
62.99620864961202
 30
0.0
 40
1.0
100
AcDbArc
 50
90.0
 51
180.0
  0
ARC
  5
B6EE
330
1F
100
AcDbEntity
  8
AM_0
100
AcDbCircle
 10
167.7632149743825
 20
15.98970504961201
 30
0.0
 40
41.0
100
AcDbArc
 50
62.97597000000055
 51
65.18564999999755
  0
ARC
  5
B6EF
330
1F
100
AcDbEntity
  8
AM_0
100
AcDbCircle
 10
148.4008839743825
 20
58.49620864961202
 30
0.0
 40
1.0
100
AcDbArc
 50
180.0
 51
270.0
  0
ARC
  5
B6F0
330
1F
100
AcDbEntity
  8
AM_0
100
AcDbCircle
 10
152.6008809743825
 20
56.69620550961202
 30
0.0
 40
0.5
100
AcDbArc
 50
180.0
 51
270.0
  0
ARC
  5
B6F1
330
1F
100
AcDbEntity
  8
AM_0
100
AcDbCircle
 10
157.7639129743825
 20
62.19620554961202
 30
0.0
 40
5.0
100
AcDbArc
 50
227.7314250000006
 51
270.0
  0
ARC
  5
B6F2
330
1F
100
AcDbEntity
  8
AM_0
100
AcDbCircle
 10
168.2508819743825
 20
16.19621004961202
 30
0.0
 40
41.0
100
AcDbArc
 50
69.88835000000192
 51
90.00000999999768
  0
ARC
  5
B6F3
330
1F
100
AcDbEntity
  8
AM_0
100
AcDbCircle
 10
168.2508819743825
 20
16.19621004961202
 30
0.0
 40
40.0
100
AcDbArc
 50
67.83063000000089
 51
90.00000999999768
  0
ARC
  5
B6F4
330
1F
100
AcDbEntity
  8
AM_0
100
AcDbCircle
 10
183.5333759743825
 20
53.702141249612
 30
0.0
 40
0.5
100
AcDbArc
 50
247.8308210000022
 51
337.1232000000008
  0
ARC
  5
B6F5
330
1F
100
AcDbEntity
  8
AM_0
100
AcDbCircle
 10
184.4547299743825
 20
53.31339304961201
 30
0.0
 40
0.5
100
AcDbArc
 50
66.41578999999987
 51
157.1232900000003
  0
ARC
  5
B6F6
330
1F
100
AcDbEntity
  8
AM_0
100
AcDbCircle
 10
168.2508819743825
 20
16.19621004961202
 30
0.0
 40
41.0
100
AcDbArc
 50
63.1792899999998
 51
66.41587999999962
  0
ARC
  5
B6F7
330
1F
100
AcDbEntity
  8
AM_0
100
AcDbCircle
 10
188.1008789743825
 20
54.60245544961202
 30
0.0
 40
1.0
100
AcDbArc
 50
315.7817400000021
 51
0.000009999999378
  0
ARC
  5
B6F8
330
1F
100
AcDbEntity
  8
AM_0
100
AcDbCircle
 10
187.2012819743826
 20
53.67797134961202
 30
0.0
 40
1.0
100
AcDbArc
 50
243.1792699999981
 51
315.7817400000021
  0
ARC
  5
B6F9
330
1F
100
AcDbEntity
  8
AM_0
100
AcDbCircle
 10
188.1008789743825
 20
62.99620864961202
 30
0.0
 40
1.0
100
AcDbArc
 50
0.0
 51
90.0
  0
TEXT
  5
B6FA
330
1F
100
AcDbEntity
  8
AM_6
100
AcDbText
 10
22.85699987971567
 20
165.4000001884317
 30
0.0
 40
3.2
  1
アルミエッジ（４０ｍｍ）
 41
0.8437725099999999
100
AcDbText
  0
TEXT
  5
B6FB
330
1F
100
AcDbEntity
  8
AM_6
100
AcDbText
 10
22.85699987971567
 20
141.4000001884317
 30
0.0
 40
3.2
  1
アルマイト+クリアー
 41
0.84892707
100
AcDbText
  0
TEXT
  5
B6FC
330
1F
100
AcDbEntity
  8
AM_6
100
AcDbText
 10
22.85699987971567
 20
157.4000001884317
 30
0.0
 40
3.2
  1
ＬＲ－１１
 41
0.84892707
100
AcDbText
  0
TEXT
  5
B6FD
330
1F
100
AcDbEntity
  8
AM_6
100
AcDbText
 10
5.656999879715669
 20
165.4000001884317
 30
0.0
 40
3.2
  1
品　名
 41
0.85537027
100
AcDbText
  0
TEXT
  5
B6FE
330
1F
100
AcDbEntity
  8
AM_6
100
AcDbText
 10
5.656999879715669
 20
157.4000001884317
 30
0.0
 40
3.2
  1
品　番
 41
0.85537027
100
AcDbText
  0
TEXT
  5
B6FF
330
1F
100
AcDbEntity
  8
AM_6
100
AcDbText
 10
5.656999879715669
 20
149.4000001884317
 30
0.0
 40
3.2
  1
材　質
 41
0.85537027
100
AcDbText
  0
TEXT
  5
B700
330
1F
100
AcDbEntity
  8
AM_6
100
AcDbText
 10
5.656999879715669
 20
141.4000001884317
 30
0.0
 40
3.2
  1
仕上げ
 41
0.85537027
100
AcDbText
  0
TEXT
  5
B701
330
1F
100
AcDbEntity
  8
AM_6
100
AcDbText
 10
22.85699987971567
 20
117.3999971884317
 30
0.0
 40
3.2
  1
＊
 41
0.90047268
100
AcDbText
  0
TEXT
  5
B702
330
1F
100
AcDbEntity
  8
AM_6
100
AcDbText
 10
22.85699987971567
 20
125.3999971884317
 30
0.0
 40
3.2
  1
＊
 41
0.90047268
100
AcDbText
  0
TEXT
  5
B703
330
1F
100
AcDbEntity
  8
AM_6
100
AcDbText
 10
2.456999879715681
 20
133.3999971884317
 30
0.0
 40
3.2
  1
セットビス
 41
0.84892707
100
AcDbText
  0
TEXT
  5
B704
330
1F
100
AcDbEntity
  8
AM_6
100
AcDbText
 10
7.256999879715664
 20
109.3999971884317
 30
0.0
 40
3.2
  1
備考
 41
0.8643907499999999
100
AcDbText
  0
TEXT
  5
B705
330
1F
100
AcDbEntity
  8
AM_6
100
AcDbText
 10
22.85699987971567
 20
149.4000001884317
 30
0.0
 40
3.2
  1
アルミ押出し材
 41
0.84634979
100
AcDbText
  0
TEXT
  5
B706
330
1F
100
AcDbEntity
  8
AM_6
100
AcDbText
 10
22.85699987971567
 20
133.3999971884317
 30
0.0
 40
3.2
  1
＊
 41
0.90047268
100
AcDbText
  0
TEXT
  5
B707
330
1F
100
AcDbEntity
  8
AM_6
100
AcDbText
 10
23.09946987971567
 20
93.40000118843173
 30
0.0
 40
3.2
  1
ＬＲＢ－１１ネジカバーもあります。（定尺：２０００、４０００）
 41
0.6630126999999999
100
AcDbText
  0
TEXT
  5
B708
330
1F
100
AcDbEntity
  8
AM_6
100
AcDbText
 10
22.85699987971567
 20
101.3999971884317
 30
0.0
 40
3.2
  1
定尺：２０００、４０００
 41
0.8437725099999999
100
AcDbText
  0
TEXT
  5
B709
330
1F
100
AcDbEntity
  8
AM_6
100
AcDbText
 10
22.82439987971567
 20
109.4636261884317
 30
0.0
 40
3.2
  1
スクリーン用
 41
0.84741102
100
AcDbText
  0
INSERT
  5
B70A
330
1F
100
AcDbEntity
  8
0
100
AcDbBlockReference
  2
KOZU0002
 10
216.0201769743826
 20
55.98083204961202
 30
0.0
 50
180.0
  0
DIMENSION
  5
B8E1
330
1F
100
AcDbEntity
  8
AM_5
100
AcDbDimension
  2
*D20
 10
188.4508769743825
 20
118.6173488649897
 30
0.0
 11
168.1008834743825
 21
121.7173488649897
 31
0.0
 70
    32
 71
     5
 42
40.69998699999999
  3
SYS$0
100
AcDbAlignedDimension
 13
147.7508899743825
 23
109.6173568649897
 33
0.0
 14
188.4508769743825
 24
109.6173408649897
 34
0.0
100
AcDbRotatedDimension
  0
DIMENSION
  5
B8F7
330
1F
100
AcDbEntity
  8
AM_5
100
AcDbDimension
  2
*D21
 10
190.3008759743825
 20
127.6173488649897
 30
0.0
 11
168.1008799743825
 21
130.7173488649897
 31
0.0
 70
    32
 71
     5
 42
44.39999199999999
  3
SYS$0
100
AcDbAlignedDimension
 13
145.9008839743825
 23
109.6173488649897
 33
0.0
 14
190.3008759743825
 24
109.6173408649897
 34
0.0
100
AcDbRotatedDimension
1001
ACAD
1000
DSTYLE
1002
{
1070
   271
1070
     0
1002
}
  0
DIMENSION
  5
B916
330
1F
100
AcDbEntity
  8
AM_5
100
AcDbDimension
  2
*D22
 10
199.3008759743825
 20
89.1173638649897
 30
0.0
 11
196.2008759743825
 21
99.36735636498973
 31
0.0
 70
    32
 71
     5
 42
20.49998500000002
  3
SYS$0
100
AcDbAlignedDimension
 13
190.3008799743825
 23
109.6173488649897
 33
0.0
 14
189.3008799743825
 24
89.1173638649897
 34
0.0
 50
90.00000000000003
100
AcDbRotatedDimension
  0
DIMENSION
  5
B92C
330
1F
100
AcDbEntity
  8
AM_5
100
AcDbDimension
  2
*D23
 10
127.9008839743825
 20
95.61734886498973
 30
0.0
 11
124.8008839743824
 21
102.6173488649897
 31
0.0
 70
    32
 71
     5
 42
13.99999999999998
  3
SYS$0
100
AcDbAlignedDimension
 13
145.9008839743825
 23
109.6173488649897
 33
0.0
 14
145.9008839743825
 24
95.61734886498973
 34
0.0
 50
90.0
100
AcDbRotatedDimension
  0
DIMENSION
  5
B942
330
1F
100
AcDbEntity
  8
AM_5
100
AcDbDimension
  2
*D24
 10
136.9008839743824
 20
95.61735686498971
 30
0.0
 11
133.8008839743824
 21
100.1173528649897
 31
0.0
 70
    32
 71
     5
 42
8.999992000000005
  3
SYS$0
100
AcDbAlignedDimension
 13
147.1008809743825
 23
104.6173488649897
 33
0.0
 14
145.9008839743825
 24
95.61735686498971
 34
0.0
 50
90.00000000000003
100
AcDbRotatedDimension
  0
DIMENSION
  5
B958
330
1F
100
AcDbEntity
  8
AM_5
100
AcDbDimension
  2
*D25
 10
184.1967909643826
 20
45.82927140358701
 30
0.0
 11
168.1488339693825
 21
48.929271403587
 31
0.0
 70
    32
  1
（<>）
 71
     5
 42
32.09591399000002
  3
SYS$0
100
AcDbAlignedDimension
 13
152.1008769743825
 23
56.19620548961202
 33
0.0
 14
184.1967909643826
 24
52.65136764961201
 34
0.0
 50
0.0000000000001145
100
AcDbRotatedDimension
1001
ACAD
1000
DSTYLE
1002
{
1070
   271
1070
     0
1002
}
  0
INSERT
  5
B993
330
1F
100
AcDbEntity
  8
AM_5
100
AcDbBlockReference
  2
*S27
 10
0.0
 20
0.0
 30
0.0
  0
ENDSEC
  0
SECTION
  2
OBJECTS
  0
DICTIONARY
  5
C
330
0
100
AcDbDictionary
281
     1
  3
ACAD_2007HEADERVARS_RT
350
BA12
  3
ACAD_BGPLOT_KEY
350
AB06
  3
ACAD_COLOR
350
A91D
  3
ACAD_GROUP
350
D
  3
ACAD_LAYOUT
350
1A
  3
ACAD_MATERIAL
350
A91C
  3
ACAD_MLINESTYLE
350
17
  3
ACAD_PLOTSETTINGS
350
19
  3
ACAD_PLOTSTYLENAME
350
E
  3
ACAD_TABLESTYLE
350
AAB9
  3
ACAD_VISUALSTYLE
350
B0F1
  3
AcAsAppObject
350
3DA1
  3
ACASGREF_MASTER
350
3DE9
  3
AcDbVariableDictionary
350
34
  3
AcmDictionary
350
47
  3
AD_GREF_MODULE
350
3DEA
  3
AD_MAPI_MODULE
350
3E06
  3
AMG
350
2B
  3
AMGSNAPSETTINGS
350
7D
  3
ASE_INDEX_DICTIONARY
350
B331
  3
DWGPROPS
350
BA11
  3
MAPISURF_MODULE
350
3DEB
  0
DICTIONARY
  5
3F95
330
2
100
AcDbDictionary
280
     1
281
     1
  3
ACAD_LAYERFILTERS
360
B523
  3
ACAD_LAYERSTATES
360
3F96
  3
ACLYDICTIONARY
360
B522
  3
AMLAYER_GROUPCOLORS
360
AAB4
  0
DICTIONARY
  5
8A
330
1F
100
AcDbDictionary
280
     1
281
     1
  3
ACAD_SORTENTS
360
B1BA
  0
DICTIONARY
  5
B8DF
330
B54A
100
AcDbDictionary
280
     1
281
     1
  3
ACAD_SORTENTS
360
B8E0
  0
DICTIONARY
  5
BA12
102
{ACAD_REACTORS
330
C
102
}
330
C
100
AcDbDictionary
281
     1
  3
DIMARCSYM
350
BA13
  0
DICTIONARY
  5
AB06
102
{ACAD_REACTORS
330
C
102
}
330
C
100
AcDbDictionary
280
     1
281
     1
  0
DICTIONARY
  5
A91D
102
{ACAD_REACTORS
330
C
102
}
330
C
100
AcDbDictionary
281
     1
  0
DICTIONARY
  5
D
102
{ACAD_REACTORS
330
C
102
}
330
C
100
AcDbDictionary
281
     1
  0
DICTIONARY
  5
1A
102
{ACAD_REACTORS
330
C
102
}
330
C
100
AcDbDictionary
281
     1
  3
Model
350
22
  3
ﾚｲｱｳﾄ1
350
1E
  3
ﾚｲｱｳﾄ2
350
26
  0
DICTIONARY
  5
A91C
102
{ACAD_REACTORS
330
C
102
}
330
C
100
AcDbDictionary
281
     1
  3
ByBlock
350
B0EF
  3
ByLayer
350
B0EE
  3
Global
350
B0F0
  0
DICTIONARY
  5
17
102
{ACAD_REACTORS
330
C
102
}
330
C
100
AcDbDictionary
281
     1
  3
Standard
350
18
  0
DICTIONARY
  5
19
102
{ACAD_REACTORS
330
C
102
}
330
C
100
AcDbDictionary
281
     1
  0
ACDBDICTIONARYWDFLT
  5
E
102
{ACAD_REACTORS
330
C
102
}
330
C
100
AcDbDictionary
281
     1
  3
Normal
350
F
100
AcDbDictionaryWithDefault
340
F
  0
DICTIONARY
  5
AAB9
102
{ACAD_REACTORS
330
C
102
}
330
C
100
AcDbDictionary
281
     1
  3
Standard
350
AABA
  0
DICTIONARY
  5
B0F1
102
{ACAD_REACTORS
330
C
102
}
330
C
100
AcDbDictionary
281
     1
  3
2dWireframe
350
B0F7
  3
3D Hidden
350
B0F9
  3
3dWireframe
350
B0F8
  3
Basic
350
B0F6
  3
Brighten
350
B0FD
  3
ColorChange
350
B101
  3
Conceptual
350
B0FA
  3
Dim
350
B0FC
  3
Facepattern
350
B100
  3
Flat
350
B0F2
  3
FlatWithEdges
350
B0F3
  3
Gouraud
350
B0F4
  3
GouraudWithEdges
350
B0F5
  3
Linepattern
350
B0FF
  3
Realistic
350
B0FB
  3
Thicken
350
B0FE
  0
ACAD_PROXY_OBJECT
  5
3DA1
102
{ACAD_REACTORS
330
C
102
}
330
C
100
AcDbProxyObject
 90
      499
 91
      576
 95
   917527
 70
     0
 93
       10
310
407F
 94
        0
1001
ACAD
1000
AcRTDxfName
1000
ASAPP
  0
ACAD_PROXY_OBJECT
  5
3DE9
102
{ACAD_REACTORS
330
C
102
}
330
C
100
AcDbProxyObject
 90
      499
 91
      581
 95
   917527
 70
     0
 93
       34
310
010000407F
 94
        0
1001
ACAD
1000
AcRTDxfName
1000
ACASGREFMASTER
  0
DICTIONARY
  5
34
102
{ACAD_REACTORS
330
C
102
}
330
C
100
AcDbDictionary
281
     1
  3
CTABLESTYLE
350
AAF3
  3
DIMASSOC
350
A10C
  3
FIELDEVAL
350
AB07
  3
INDEXCTL
350
35
  3
SORTENTS
350
194C
  0
DICTIONARY
  5
47
102
{ACAD_REACTORS
330
C
102
}
330
C
100
AcDbDictionary
281
     1
  3
AcmBOM
350
7E8
  3
AcmStdDictionary
350
4C
  3
AMDTSECTSYM_ARROWCOLOR
350
A929
  0
ACAD_PROXY_OBJECT
  5
3DEA
102
{ACAD_REACTORS
330
C
102
}
330
C
100
AcDbProxyObject
 90
      499
 91
      582
 95
   917527
 70
     0
 93
      114
310
00000043800000000000000000003F
 94
        0
1001
ACAD
1000
AcRTDxfName
1000
ACADGREFMODULE
  0
ACAD_PROXY_OBJECT
  5
3E06
102
{ACAD_REACTORS
330
C
102
}
330
C
100
AcDbProxyObject
 90
      499
 91
      594
 95
   917527
 70
     0
 93
       34
310
05000044FF
 94
        0
1001
ACAD
1000
AcRTDxfName
1000
MAPIADMODULE
  0
DICTIONARY
  5
2B
102
{ACAD_REACTORS
330
C
102
}
330
C
100
AcDbDictionary
281
     1
  0
DICTIONARY
  5
7D
102
{ACAD_REACTORS
330
C
102
}
330
C
100
AcDbDictionary
281
     1
  0
DICTIONARY
  5
B331
102
{ACAD_REACTORS
330
C
102
}
330
C
100
AcDbDictionary
281
     1
  3
ASEBlockHierarchyIndexRecord
350
B332
1001
DCO15
1040
1594111214.218
  0
XRECORD
  5
BA11
102
{ACAD_REACTORS
330
C
102
}
330
C
100
AcDbXrecord
280
     1
  1
DWGPROPS COOKIE
  2

  3

  4

  6

  7

  8
Administrator
  9

300
AmdtFileType=84
301
=
302
=
303
=
304
=
305
=
306
=
307
=
308
=
309
=
 40
0.0236337037037037
 41
2456737.643185938
 42
2456743.39008463
  1

 90
        1
  0
ACAD_PROXY_OBJECT
  5
3DEB
102
{ACAD_REACTORS
330
C
102
}
330
C
100
AcDbProxyObject
 90
      499
 91
      583
 95
   917527
 70
     0
 93
        8
310
047E
 94
        0
1001
ACAD
1000
AcRTDxfName
1000
AMDTMAPISURFMOUDULE
  0
DICTIONARY
  5
B523
102
{ACAD_REACTORS
330
3F95
102
}
330
3F95
100
AcDbDictionary
281
     1
  0
DICTIONARY
  5
3F96
102
{ACAD_REACTORS
330
3F95
102
}
330
3F95
100
AcDbDictionary
281
     1
  3
20011210
350
3FB7
  0
DICTIONARY
  5
B522
102
{ACAD_REACTORS
330
3F95
102
}
330
3F95
100
AcDbDictionary
281
     1
1001
ACAD
1000
<All
  0
DICTIONARY
  5
AAB4
102
{ACAD_REACTORS
330
3F95
102
}
330
3F95
100
AcDbDictionary
280
     1
281
     1
  0
SORTENTSTABLE
  5
B1BA
102
{ACAD_REACTORS
330
8A
102
}
330
8A
100
AcDbSortentsTable
330
1F
  0
SORTENTSTABLE
  5
B8E0
102
{ACAD_REACTORS
330
B8DF
102
}
330
B8DF
100
AcDbSortentsTable
330
B54A
  0
XRECORD
  5
BA13
102
{ACAD_REACTORS
330
BA12
102
}
330
BA12
100
AcDbXrecord
280
     1
 70
     1
  0
LAYOUT
  5
22
102
{ACAD_XDICTIONARY
360
BA16
102
}
102
{ACAD_REACTORS
330
1A
102
}
330
1A
100
AcDbPlotSettings
  1

  2
Adobe PDF
  4
A4
  6
AM_VIEW1
 40
3.174999952316284
 41
3.174999952316284
 42
3.175003051757812
 43
3.17498779296875
 44
209.9733276367187
 45
297.0318298339844
 46
16.31166231632233
 47
8.84092104434967
 48
-0.0000001202843123
 49
0.0000001884317271
140
272.9999998797157
141
171.0000001884317
142
1.0
143
1.0
 70
  3748
 72
     1
 73
     1
 74
     4
  7
monochrome.ctb
 75
     0
147
1.064768652339558
148
0.0000001202843123
149
-0.0000001884317271
100
AcDbLayout
  1
Model
 70
     1
 71
     0
 10
0.0
 20
0.0
 11
12.0
 21
9.0
 12
0.0
 22
0.0
 32
0.0
 14
0.0
 24
0.0
 34
0.0
 15
0.0
 25
0.0
 35
0.0
146
0.0
 13
0.0
 23
0.0
 33
0.0
 16
1.0
 26
0.0
 36
0.0
 17
0.0
 27
1.0
 37
0.0
 76
     0
330
1F
331
B0EC
1001
ACAD_PSEXT
1000
Adobe PDF
1000
Adobe PDF Converter
1000
My Documents\*.pdf
1000

1070
     0
  0
LAYOUT
  5
1E
102
{ACAD_XDICTIONARY
360
BA14
102
}
102
{ACAD_REACTORS
330
1A
102
}
330
1A
100
AcDbPlotSettings
  1

  2
\\ML370\XEROX
  4
A4
  6

 40
3.174999952316284
 41
3.174999952316284
 42
3.175003051757812
 43
3.17498779296875
 44
209.8674926757813
 45
296.6719970703125
 46
0.0
 47
0.0
 48
0.0
 49
0.0
140
0.0
141
0.0
142
1.0
143
1.0
 70
   688
 72
     1
 73
     1
 74
     5
  7
monochrome.ctb
 75
    16
147
1.0
148
0.0
149
0.0
100
AcDbLayout
  1
ﾚｲｱｳﾄ1
 70
     1
 71
     1
 10
-3.17498779296875
 20
-3.174999952316284
 11
293.4970092773438
 21
206.692492723465
 12
0.0
 22
0.0
 32
0.0
 14
1.000000000000000E+20
 24
1.000000000000000E+20
 34
1.000000000000000E+20
 15
-1.000000000000000E+20
 25
-1.000000000000000E+20
 35
-1.000000000000000E+20
146
0.0
 13
0.0
 23
0.0
 33
0.0
 16
1.0
 26
0.0
 36
0.0
 17
0.0
 27
1.0
 37
0.0
 76
     0
330
1B
  0
LAYOUT
  5
26
102
{ACAD_XDICTIONARY
360
BA18
102
}
102
{ACAD_REACTORS
330
1A
102
}
330
1A
100
AcDbPlotSettings
  1

  2
\\ML370\XEROX
  4

  6

 40
0.0
 41
0.0
 42
0.0
 43
0.0
 44
0.0
 45
0.0
 46
0.0
 47
0.0
 48
0.0
 49
0.0
140
0.0
141
0.0
142
1.0
143
1.0
 70
   688
 72
     0
 73
     0
 74
     5
  7
monochrome.ctb
 75
    16
147
1.0
148
0.0
149
0.0
100
AcDbLayout
  1
ﾚｲｱｳﾄ2
 70
     1
 71
     2
 10
0.0
 20
0.0
 11
12.0
 21
9.0
 12
0.0
 22
0.0
 32
0.0
 14
0.0
 24
0.0
 34
0.0
 15
0.0
 25
0.0
 35
0.0
146
0.0
 13
0.0
 23
0.0
 33
0.0
 16
1.0
 26
0.0
 36
0.0
 17
0.0
 27
1.0
 37
0.0
 76
     0
330
23
  0
MATERIAL
  5
B0EF
102
{ACAD_XDICTIONARY
360
BA1E
102
}
102
{ACAD_REACTORS
330
A91C
102
}
330
A91C
100
AcDbMaterial
  1
ByBlock
  0
MATERIAL
  5
B0EE
102
{ACAD_XDICTIONARY
360
BA1C
102
}
102
{ACAD_REACTORS
330
A91C
102
}
330
A91C
100
AcDbMaterial
  1
ByLayer
  0
MATERIAL
  5
B0F0
102
{ACAD_XDICTIONARY
360
BA20
102
}
102
{ACAD_REACTORS
330
A91C
102
}
330
A91C
100
AcDbMaterial
  1
Global
  0
MLINESTYLE
  5
18
102
{ACAD_REACTORS
330
17
102
}
330
17
100
AcDbMlineStyle
  2
STANDARD
 70
     0
  3

 62
   256
 51
90.0
 52
90.0
 71
     2
 49
0.5
 62
   256
  6
BYLAYER
 49
-0.5
 62
   256
  6
BYLAYER
  0
ACDBPLACEHOLDER
  5
F
102
{ACAD_REACTORS
330
E
102
}
330
E
  0
TABLESTYLE
  5
AABA
102
{ACAD_XDICTIONARY
360
BA1A
102
}
102
{ACAD_REACTORS
330
AAB9
102
}
330
AAB9
100
AcDbTableStyle
  3
Standard
 70
     0
 71
     0
 40
1.5
 41
1.5
280
     0
281
     0
  7
STANDARD
140
4.5
170
     2
 62
     0
 63
     7
283
     0
274
    -2
284
     1
 64
     0
275
    -2
285
     1
 65
     0
276
    -2
286
     1
 66
     0
277
    -2
287
     1
 67
     0
278
    -2
288
     1
 68
     0
279
    -2
289
     1
 69
     0
  7
STANDARD
140
6.0
170
     5
 62
     0
 63
     7
283
     0
274
    -2
284
     1
 64
     0
275
    -2
285
     1
 65
     0
276
    -2
286
     1
 66
     0
277
    -2
287
     1
 67
     0
278
    -2
288
     1
 68
     0
279
    -2
289
     1
 69
     0
  7
STANDARD
140
4.5
170
     5
 62
     0
 63
     7
283
     0
274
    -2
284
     1
 64
     0
275
    -2
285
     1
 65
     0
276
    -2
286
     1
 66
     0
277
    -2
287
     1
 67
     0
278
    -2
288
     1
 68
     0
279
    -2
289
     1
 69
     0
  0
VISUALSTYLE
  5
B0F7
102
{ACAD_REACTORS
330
B0F1
102
}
330
B0F1
100
AcDbVisualStyle
  2
2dWireframe
 70
     4
 71
     0
 72
     2
 73
     0
 90
        0
 40
-0.6
 41
-30.0
 62
     5
 63
     7
 74
     1
 91
        4
 64
     7
 65
   257
 75
     1
175
     1
 42
1.0
 92
        0
 66
   257
 43
1.0
 76
     1
 77
     6
 78
     2
 67
     7
 79
     5
170
     0
171
     0
290
     0
174
     0
 93
        1
 44
0.0
173
     0
291
     0
 45
0.0
1001
ACAD
1000
AcDbSavedByObjectVersion
1070
     0
  0
VISUALSTYLE
  5
B0F9
102
{ACAD_REACTORS
330
B0F1
102
}
330
B0F1
100
AcDbVisualStyle
  2
3D Hidden
 70
     6
 71
     1
 72
     2
 73
     2
 90
        0
 40
-0.6
 41
-30.0
 62
     5
 63
     7
 74
     2
 91
        2
 64
     7
 65
   257
 75
     2
175
     1
 42
40.0
 92
        0
 66
   257
 43
1.0
 76
     1
 77
     6
 78
     2
 67
     7
 79
     3
170
     0
171
     0
290
     0
174
     0
 93
        1
 44
0.0
173
     0
291
     0
 45
0.0
1001
ACAD
1000
AcDbSavedByObjectVersion
1070
     0
  0
VISUALSTYLE
  5
B0F8
102
{ACAD_REACTORS
330
B0F1
102
}
330
B0F1
100
AcDbVisualStyle
  2
3dWireframe
 70
     5
 71
     0
 72
     2
 73
     0
 90
        0
 40
-0.6
 41
-30.0
 62
     5
 63
     7
 74
     1
 91
        4
 64
     7
 65
   257
 75
     1
175
     1
 42
1.0
 92
        0
 66
   257
 43
1.0
 76
     1
 77
     6
 78
     2
 67
     7
 79
     5
170
     0
171
     0
290
     0
174
     0
 93
        1
 44
0.0
173
     0
291
     0
 45
0.0
1001
ACAD
1000
AcDbSavedByObjectVersion
1070
     0
  0
VISUALSTYLE
  5
B0F6
102
{ACAD_REACTORS
330
B0F1
102
}
330
B0F1
100
AcDbVisualStyle
  2
Basic
 70
     7
 71
     1
 72
     0
 73
     1
 90
        0
 40
-0.6
 41
-30.0
 62
     5
 63
     7
 74
     0
 91
        4
 64
     7
 65
   257
 75
     1
175
     1
 42
1.0
 92
        8
 66
     7
 43
1.0
 76
     1
 77
     6
 78
     2
 67
     7
 79
     5
170
     0
171
     0
290
     0
174
     0
 93
        1
 44
0.0
173
     0
291
     1
 45
0.0
1001
ACAD
1000
AcDbSavedByObjectVersion
1070
     0
  0
VISUALSTYLE
  5
B0FD
102
{ACAD_REACTORS
330
B0F1
102
}
330
B0F1
100
AcDbVisualStyle
  2
Brighten
 70
    12
 71
     2
 72
     2
 73
     0
 90
        0
 40
-0.6
 41
-30.0
 62
     5
 63
     7
 74
     1
 91
        4
 64
     7
 65
   257
 75
     1
175
     1
 42
1.0
 92
        8
 66
     7
 43
1.0
 76
     1
 77
     6
 78
     2
 67
     7
 79
     5
170
     0
171
     0
290
     0
174
     0
 93
        1
 44
50.0
173
     0
291
     1
 45
0.0
1001
ACAD
1000
AcDbSavedByObjectVersion
1070
     0
  0
VISUALSTYLE
  5
B101
102
{ACAD_REACTORS
330
B0F1
102
}
330
B0F1
100
AcDbVisualStyle
  2
ColorChange
 70
    16
 71
     2
 72
     2
 73
     3
 90
        0
 40
-0.6
 41
-30.0
 62
     5
 63
     8
 74
     1
 91
        4
 64
     7
 65
   257
 75
     1
175
     1
 42
1.0
 92
        8
 66
     8
 43
1.0
 76
     1
 77
     6
 78
     2
 67
     7
 79
     5
170
     0
171
     0
290
     0
174
     0
 93
        1
 44
0.0
173
     0
291
     1
 45
0.0
1001
ACAD
1000
AcDbSavedByObjectVersion
1070
     0
  0
VISUALSTYLE
  5
B0FA
102
{ACAD_REACTORS
330
B0F1
102
}
330
B0F1
100
AcDbVisualStyle
  2
Conceptual
 70
     9
 71
     3
 72
     2
 73
     0
 90
        0
 40
-0.6
 41
-30.0
 62
     5
 63
     7
 74
     2
 91
        2
 64
     7
 65
   257
 75
     1
175
     1
 42
40.0
 92
        8
 66
     7
 43
1.0
 76
     1
 77
     6
 78
     2
 67
     7
 79
     3
170
     0
171
     0
290
     0
174
     0
 93
        1
 44
0.0
173
     0
291
     0
 45
0.0
1001
ACAD
1000
AcDbSavedByObjectVersion
1070
     0
  0
VISUALSTYLE
  5
B0FC
102
{ACAD_REACTORS
330
B0F1
102
}
330
B0F1
100
AcDbVisualStyle
  2
Dim
 70
    11
 71
     2
 72
     2
 73
     0
 90
        0
 40
-0.6
 41
-30.0
 62
     5
 63
     7
 74
     1
 91
        4
 64
     7
 65
   257
 75
     1
175
     1
 42
1.0
 92
        8
 66
     7
 43
1.0
 76
     1
 77
     6
 78
     2
 67
     7
 79
     5
170
     0
171
     0
290
     0
174
     0
 93
        1
 44
-50.0
173
     0
291
     1
 45
0.0
1001
ACAD
1000
AcDbSavedByObjectVersion
1070
     0
  0
VISUALSTYLE
  5
B100
102
{ACAD_REACTORS
330
B0F1
102
}
330
B0F1
100
AcDbVisualStyle
  2
Facepattern
 70
    15
 71
     2
 72
     2
 73
     0
 90
        0
 40
-0.6
 41
-30.0
 62
     5
 63
     7
 74
     1
 91
        4
 64
     7
 65
   257
 75
     1
175
     1
 42
1.0
 92
        8
 66
     7
 43
1.0
 76
     1
 77
     6
 78
     2
 67
     7
 79
     5
170
     0
171
     0
290
     0
174
     0
 93
        1
 44
0.0
173
     0
291
     1
 45
0.0
1001
ACAD
1000
AcDbSavedByObjectVersion
1070
     0
  0
VISUALSTYLE
  5
B0F2
102
{ACAD_REACTORS
330
B0F1
102
}
330
B0F1
100
AcDbVisualStyle
  2
Flat
 70
     0
 71
     2
 72
     1
 73
     1
 90
        2
 40
-0.6
 41
30.0
 62
     5
 63
     7
 74
     0
 91
        4
 64
     7
 65
   257
 75
     1
175
     1
 42
1.0
 92
        8
 66
     7
 43
1.0
 76
     1
 77
     6
 78
     2
 67
     7
 79
     5
170
     0
171
     0
290
     0
174
     0
 93
       13
 44
0.0
173
     0
291
     1
 45
0.0
1001
ACAD
1000
AcDbSavedByObjectVersion
1070
     0
  0
VISUALSTYLE
  5
B0F3
102
{ACAD_REACTORS
330
B0F1
102
}
330
B0F1
100
AcDbVisualStyle
  2
FlatWithEdges
 70
     1
 71
     2
 72
     1
 73
     1
 90
        2
 40
-0.6
 41
30.0
 62
     5
 63
     7
 74
     1
 91
        4
 64
     7
 65
   257
 75
     1
175
     1
 42
1.0
 92
        0
 66
   257
 43
1.0
 76
     1
 77
     6
 78
     2
 67
     7
 79
     5
170
     0
171
     0
290
     0
174
     0
 93
       13
 44
0.0
173
     0
291
     1
 45
0.0
1001
ACAD
1000
AcDbSavedByObjectVersion
1070
     0
  0
VISUALSTYLE
  5
B0F4
102
{ACAD_REACTORS
330
B0F1
102
}
330
B0F1
100
AcDbVisualStyle
  2
Gouraud
 70
     2
 71
     2
 72
     2
 73
     1
 90
        2
 40
-0.6
 41
30.0
 62
     5
 63
     7
 74
     0
 91
        4
 64
     7
 65
   257
 75
     1
175
     1
 42
1.0
 92
        0
 66
     7
 43
1.0
 76
     1
 77
     6
 78
     2
 67
     7
 79
     5
170
     0
171
     0
290
     0
174
     0
 93
       13
 44
0.0
173
     0
291
     1
 45
0.0
1001
ACAD
1000
AcDbSavedByObjectVersion
1070
     0
  0
VISUALSTYLE
  5
B0F5
102
{ACAD_REACTORS
330
B0F1
102
}
330
B0F1
100
AcDbVisualStyle
  2
GouraudWithEdges
 70
     3
 71
     2
 72
     2
 73
     1
 90
        2
 40
-0.6
 41
30.0
 62
     5
 63
     7
 74
     1
 91
        4
 64
     7
 65
   257
 75
     1
175
     1
 42
1.0
 92
        0
 66
   257
 43
1.0
 76
     1
 77
     6
 78
     2
 67
     7
 79
     5
170
     0
171
     0
290
     0
174
     0
 93
       13
 44
0.0
173
     0
291
     1
 45
0.0
1001
ACAD
1000
AcDbSavedByObjectVersion
1070
     0
  0
VISUALSTYLE
  5
B0FF
102
{ACAD_REACTORS
330
B0F1
102
}
330
B0F1
100
AcDbVisualStyle
  2
Linepattern
 70
    14
 71
     2
 72
     2
 73
     0
 90
        0
 40
-0.6
 41
-30.0
 62
     5
 63
     7
 74
     1
 91
        4
 64
     7
 65
   257
 75
     7
175
     7
 42
1.0
 92
        8
 66
     7
 43
1.0
 76
     1
 77
     6
 78
     2
 67
     7
 79
     5
170
     0
171
     0
290
     0
174
     0
 93
        1
 44
0.0
173
     0
291
     1
 45
0.0
1001
ACAD
1000
AcDbSavedByObjectVersion
1070
     0
  0
VISUALSTYLE
  5
B0FB
102
{ACAD_REACTORS
330
B0F1
102
}
330
B0F1
100
AcDbVisualStyle
  2
Realistic
 70
     8
 71
     2
 72
     2
 73
     0
 90
        0
 40
-0.6
 41
-30.0
 62
     5
 63
     7
 74
     1
 91
        0
 64
     7
 65
   257
 75
     1
175
     1
 42
1.0
 92
        8
 66
     8
 43
1.0
 76
     1
 77
     6
 78
     2
 67
     7
 79
     5
170
     0
171
     0
290
     0
174
     0
 93
       13
 44
0.0
173
     0
291
     0
 45
0.0
1001
ACAD
1000
AcDbSavedByObjectVersion
1070
     0
  0
VISUALSTYLE
  5
B0FE
102
{ACAD_REACTORS
330
B0F1
102
}
330
B0F1
100
AcDbVisualStyle
  2
Thicken
 70
    13
 71
     2
 72
     2
 73
     0
 90
        0
 40
-0.6
 41
-30.0
 62
     5
 63
     7
 74
     1
 91
        4
 64
     7
 65
   257
 75
     1
175
     1
 42
1.0
 92
       12
 66
     7
 43
1.0
 76
     1
 77
     6
 78
     2
 67
     7
 79
     5
170
     0
171
     0
290
     0
174
     0
 93
        1
 44
0.0
173
     0
291
     1
 45
0.0
1001
ACAD
1000
AcDbSavedByObjectVersion
1070
     0
  0
DICTIONARYVAR
  5
AAF3
102
{ACAD_REACTORS
330
34
102
}
330
34
100
DictionaryVariables
280
     0
  1
STANDARD
  0
DICTIONARYVAR
  5
A10C
102
{ACAD_REACTORS
330
34
102
}
330
34
100
DictionaryVariables
280
     0
  1
1
  0
DICTIONARYVAR
  5
AB07
102
{ACAD_REACTORS
330
34
102
}
330
34
100
DictionaryVariables
280
     0
  1
4
  0
DICTIONARYVAR
  5
35
102
{ACAD_REACTORS
330
34
102
}
330
34
100
DictionaryVariables
280
     0
  1
0
  0
DICTIONARYVAR
  5
194C
102
{ACAD_REACTORS
330
34
102
}
330
34
100
DictionaryVariables
280
     0
  1
96
  0
DICTIONARY
  5
7E8
102
{ACAD_REACTORS
330
47
102
}
330
47
100
AcDbDictionary
281
     1
  0
DICTIONARY
  5
4C
102
{ACAD_REACTORS
330
47
102
}
330
47
100
AcDbDictionary
281
     1
  0
XRECORD
  5
A929
102
{ACAD_REACTORS
330
47
102
}
330
47
100
AcDbXrecord
280
     1
 90
-1023410169
  0
XRECORD
  5
B332
102
{ACAD_REACTORS
330
B331
102
}
330
B331
100
AcDbXrecord
280
     1
  0
XRECORD
  5
3FB7
102
{ACAD_REACTORS
330
3F96
102
}
330
3F96
100
AcDbXrecord
280
     1
 91
        3
330
0
 90
        8
 62
     7
370
    40
331
16
  1
Color_7
330
0
 90
        0
 62
    14
370
    -3
331
16
  1
Color_14
330
0
 90
        8
 62
     7
370
    20
331
16
  1
Color_7
330
6D1
 90
        0
 62
     7
370
    -3
331
16
  1
Color_7
330
0
 90
        8
 62
     7
370
    50
331
16
  1
Color_7
330
0
 90
        8
 62
     2
370
    35
331
16
  1
Color_2
330
0
 90
        8
 62
     7
370
    -3
331
16
  1
Color_7
330
10
 90
        8
 62
     7
370
    -3
331
16
  1
Color_7
  0
DICTIONARY
  5
BA16
330
22
100
AcDbDictionary
280
     1
281
     1
  3
ACAD_XREC_ROUNDTRIP
360
BA17
  0
DICTIONARY
  5
BA14
330
1E
100
AcDbDictionary
280
     1
281
     1
  3
ACAD_XREC_ROUNDTRIP
360
BA15
  0
DICTIONARY
  5
BA18
330
26
100
AcDbDictionary
280
     1
281
     1
  3
ACAD_XREC_ROUNDTRIP
360
BA19
  0
DICTIONARY
  5
BA1E
330
B0EF
100
AcDbDictionary
280
     1
281
     1
  3
ACAD_XREC_ROUNDTRIP
360
BA1F
  0
DICTIONARY
  5
BA1C
330
B0EE
100
AcDbDictionary
280
     1
281
     1
  3
ACAD_XREC_ROUNDTRIP
360
BA1D
  0
DICTIONARY
  5
BA20
330
B0F0
100
AcDbDictionary
280
     1
281
     1
  3
ACAD_XREC_ROUNDTRIP
360
BA21
  0
DICTIONARY
  5
BA1A
330
AABA
100
AcDbDictionary
280
     1
281
     1
  3
ACAD_XREC_ROUNDTRIP
360
BA1B
  0
XRECORD
  5
BA17
102
{ACAD_REACTORS
330
BA16
102
}
330
BA16
100
AcDbXrecord
280
     1
102
SHADEPLOT
 70
     0
102
SHADEPLOTRESLEVEL
 70
     2
102
SHADEPLOTCUSTOMDPI
 70
   200
  0
XRECORD
  5
BA15
102
{ACAD_REACTORS
330
BA14
102
}
330
BA14
100
AcDbXrecord
280
     1
102
SHADEPLOT
 70
     0
102
SHADEPLOTRESLEVEL
 70
     2
102
SHADEPLOTCUSTOMDPI
 70
   300
  0
XRECORD
  5
BA19
102
{ACAD_REACTORS
330
BA18
102
}
330
BA18
100
AcDbXrecord
280
     1
102
SHADEPLOT
 70
     0
102
SHADEPLOTRESLEVEL
 70
     2
102
SHADEPLOTCUSTOMDPI
 70
   300
  0
XRECORD
  5
BA1F
102
{ACAD_REACTORS
330
BA1E
102
}
330
BA1E
100
AcDbXrecord
280
     1
102
MATERIAL
148
0.0
149
0.0
149
0.0
 93
        0
 94
       63
282
     0
 72
     1
 77
     1
171
     1
175
     1
179
     1
273
     0
  0
XRECORD
  5
BA1D
102
{ACAD_REACTORS
330
BA1C
102
}
330
BA1C
100
AcDbXrecord
280
     1
102
MATERIAL
148
0.0
149
0.0
149
0.0
 93
        0
 94
       63
282
     0
 72
     1
 77
     1
171
     1
175
     1
179
     1
273
     0
  0
XRECORD
  5
BA21
102
{ACAD_REACTORS
330
BA20
102
}
330
BA20
100
AcDbXrecord
280
     1
102
MATERIAL
148
0.0
149
0.0
149
0.0
 93
        0
 94
       63
282
     0
 72
     1
 77
     1
171
     1
175
     1
179
     1
273
     0
  0
XRECORD
  5
BA1B
102
{ACAD_REACTORS
330
BA1A
102
}
330
BA1A
100
AcDbXrecord
280
     1
102
ACAD_ROUNDTRIP_PRE2007_TABLESTYLE
 90
        4
 91
        0
  1

 92
        4
 93
        0
  2

 94
        4
 95
        0
  3

  0
ENDSEC
  0
EOF
