  0
SECTION
  2
HEADER
  9
$ACADVER
  1
AC1018
  9
$ACADMAINTVER
 70
   104
  9
$DWGCODEPAGE
  3
ANSI_932
  9
$LASTSAVEDBY
  1
Administrator
  9
$CUSTOMPROPERTYTAG
  1
AmdtFileType
  9
$CUSTOMPROPERTY
  1
84
  9
$INSBASE
 10
0.0
 20
0.0
 30
0.0
  9
$EXTMIN
 10
-0.0256335921286564
 20
-0.0181266115766903
 30
-0.0000000349181948
  9
$EXTMAX
 10
420.025637503803
 20
297.0181293776892
 30
0.0000000814935746
  9
$LIMMIN
 10
0.0
 20
0.0
  9
$LIMMAX
 10
420.0
 20
297.0
  9
$ORTHOMODE
 70
     0
  9
$REGENMODE
 70
     1
  9
$FILLMODE
 70
     1
  9
$QTEXTMODE
 70
     0
  9
$MIRRTEXT
 70
     0
  9
$LTSCALE
 40
1.0
  9
$ATTMODE
 70
     1
  9
$TEXTSIZE
 40
3.2
  9
$TRACEWID
 40
1.0
  9
$TEXTSTYLE
  7
STANDARD
  9
$CLAYER
  8
AM_0
  9
$CELTYPE
  6
ByLayer
  9
$CECOLOR
 62
   256
  9
$CELTSCALE
 40
1.0
  9
$DISPSILH
 70
     0
  9
$DIMSCALE
 40
1.0
  9
$DIMASZ
 40
1.0
  9
$DIMEXO
 40
1.0
  9
$DIMDLI
 40
10.0
  9
$DIMRND
 40
0.0
  9
$DIMDLE
 40
0.0
  9
$DIMEXE
 40
1.0
  9
$DIMTP
 40
0.1
  9
$DIMTM
 40
0.1
  9
$DIMTXT
 40
3.5
  9
$DIMCEN
 40
0.0
  9
$DIMTSZ
 40
0.0
  9
$DIMTOL
 70
     0
  9
$DIMLIM
 70
     0
  9
$DIMTIH
 70
     0
  9
$DIMTOH
 70
     0
  9
$DIMSE1
 70
     0
  9
$DIMSE2
 70
     0
  9
$DIMTAD
 70
     1
  9
$DIMZIN
 70
     8
  9
$DIMBLK
  1

  9
$DIMASO
 70
     1
  9
$DIMSHO
 70
     1
  9
$DIMPOST
  1

  9
$DIMAPOST
  1
"
  9
$DIMALT
 70
     0
  9
$DIMALTD
 70
     2
  9
$DIMALTF
 40
0.0393701
  9
$DIMLFAC
 40
1.0
  9
$DIMTOFL
 70
     1
  9
$DIMTVP
 40
0.0
  9
$DIMTIX
 70
     0
  9
$DIMSOXD
 70
     0
  9
$DIMSAH
 70
     0
  9
$DIMBLK1
  1

  9
$DIMBLK2
  1

  9
$DIMSTYLE
  2
SYS
  9
$DIMCLRD
 70
   256
  9
$DIMCLRE
 70
   256
  9
$DIMCLRT
 70
     7
  9
$DIMTFAC
 40
0.71
  9
$DIMGAP
 40
1.5
  9
$DIMJUST
 70
     0
  9
$DIMSD1
 70
     0
  9
$DIMSD2
 70
     0
  9
$DIMTOLJ
 70
     0
  9
$DIMTZIN
 70
     8
  9
$DIMALTZ
 70
     0
  9
$DIMALTTZ
 70
     0
  9
$DIMUPT
 70
     0
  9
$DIMDEC
 70
     2
  9
$DIMTDEC
 70
     2
  9
$DIMALTU
 70
     2
  9
$DIMALTTD
 70
     2
  9
$DIMTXSTY
  7
STANDARD
  9
$DIMAUNIT
 70
     0
  9
$DIMADEC
 70
     0
  9
$DIMALTRND
 40
0.0
  9
$DIMAZIN
 70
     2
  9
$DIMDSEP
 70
    46
  9
$DIMATFIT
 70
     3
  9
$DIMFRAC
 70
     0
  9
$DIMLDRBLK
  1

  9
$DIMLUNIT
 70
     2
  9
$DIMLWD
 70
    -1
  9
$DIMLWE
 70
    -1
  9
$DIMTMOVE
 70
     0
  9
$LUNITS
 70
     2
  9
$LUPREC
 70
     2
  9
$SKETCHINC
 40
1.0
  9
$FILLETRAD
 40
1.0
  9
$AUNITS
 70
     0
  9
$AUPREC
 70
     0
  9
$MENU
  1
.
  9
$ELEVATION
 40
0.0
  9
$PELEVATION
 40
0.0
  9
$THICKNESS
 40
0.0
  9
$LIMCHECK
 70
     0
  9
$CHAMFERA
 40
0.0
  9
$CHAMFERB
 40
0.0
  9
$CHAMFERC
 40
20.0
  9
$CHAMFERD
 40
0.0
  9
$SKPOLY
 70
     0
  9
$TDCREATE
 40
2455586.676808449
  9
$TDUCREATE
 40
2455586.301808449
  9
$TDUPDATE
 40
2455660.436822188
  9
$TDUUPDATE
 40
2455660.061822188
  9
$TDINDWG
 40
0.1670207523
  9
$TDUSRTIMER
 40
0.1670207523
  9
$USRTIMER
 70
     1
  9
$ANGBASE
 50
0.0
  9
$ANGDIR
 70
     0
  9
$PDMODE
 70
     0
  9
$PDSIZE
 40
-3.0
  9
$PLINEWID
 40
0.0
  9
$SPLFRAME
 70
     0
  9
$SPLINETYPE
 70
     6
  9
$SPLINESEGS
 70
     8
  9
$HANDSEED
  5
127C4
  9
$SURFTAB1
 70
     6
  9
$SURFTAB2
 70
     6
  9
$SURFTYPE
 70
     6
  9
$SURFU
 70
     6
  9
$SURFV
 70
     6
  9
$UCSBASE
  2

  9
$UCSNAME
  2

  9
$UCSORG
 10
0.0
 20
0.0
 30
0.0
  9
$UCSXDIR
 10
1.0
 20
0.0
 30
0.0
  9
$UCSYDIR
 10
0.0
 20
1.0
 30
0.0
  9
$UCSORTHOREF
  2

  9
$UCSORTHOVIEW
 70
     0
  9
$UCSORGTOP
 10
0.0
 20
0.0
 30
0.0
  9
$UCSORGBOTTOM
 10
0.0
 20
0.0
 30
0.0
  9
$UCSORGLEFT
 10
0.0
 20
0.0
 30
0.0
  9
$UCSORGRIGHT
 10
0.0
 20
0.0
 30
0.0
  9
$UCSORGFRONT
 10
0.0
 20
0.0
 30
0.0
  9
$UCSORGBACK
 10
0.0
 20
0.0
 30
0.0
  9
$PUCSBASE
  2

  9
$PUCSNAME
  2

  9
$PUCSORG
 10
0.0
 20
0.0
 30
0.0
  9
$PUCSXDIR
 10
1.0
 20
0.0
 30
0.0
  9
$PUCSYDIR
 10
0.0
 20
1.0
 30
0.0
  9
$PUCSORTHOREF
  2

  9
$PUCSORTHOVIEW
 70
     0
  9
$PUCSORGTOP
 10
0.0
 20
0.0
 30
0.0
  9
$PUCSORGBOTTOM
 10
0.0
 20
0.0
 30
0.0
  9
$PUCSORGLEFT
 10
0.0
 20
0.0
 30
0.0
  9
$PUCSORGRIGHT
 10
0.0
 20
0.0
 30
0.0
  9
$PUCSORGFRONT
 10
0.0
 20
0.0
 30
0.0
  9
$PUCSORGBACK
 10
0.0
 20
0.0
 30
0.0
  9
$USERI1
 70
     0
  9
$USERI2
 70
     0
  9
$USERI3
 70
     0
  9
$USERI4
 70
     0
  9
$USERI5
 70
     0
  9
$USERR1
 40
0.0
  9
$USERR2
 40
0.0
  9
$USERR3
 40
0.0
  9
$USERR4
 40
0.0
  9
$USERR5
 40
0.0
  9
$WORLDVIEW
 70
     1
  9
$SHADEDGE
 70
     3
  9
$SHADEDIF
 70
    70
  9
$TILEMODE
 70
     1
  9
$MAXACTVP
 70
    64
  9
$PINSBASE
 10
0.0
 20
0.0
 30
0.0
  9
$PLIMCHECK
 70
     0
  9
$PEXTMIN
 10
1.000000000000000E+20
 20
1.000000000000000E+20
 30
1.000000000000000E+20
  9
$PEXTMAX
 10
-1.000000000000000E+20
 20
-1.000000000000000E+20
 30
-1.000000000000000E+20
  9
$PLIMMIN
 10
-3.17498779296875
 20
-3.174999952316284
  9
$PLIMMAX
 10
293.4970092773438
 20
206.692492723465
  9
$UNITMODE
 70
     0
  9
$VISRETAIN
 70
     1
  9
$PLINEGEN
 70
     0
  9
$PSLTSCALE
 70
     1
  9
$TREEDEPTH
 70
  3020
  9
$CMLSTYLE
  2
Standard
  9
$CMLJUST
 70
     0
  9
$CMLSCALE
 40
20.0
  9
$PROXYGRAPHICS
 70
     1
  9
$MEASUREMENT
 70
     1
  9
$CELWEIGHT
370
    -1
  9
$ENDCAPS
280
     0
  9
$JOINSTYLE
280
     0
  9
$LWDISPLAY
290
     1
  9
$INSUNITS
 70
     4
  9
$HYPERLINKBASE
  1

  9
$STYLESHEET
  1
monochrome.ctb
  9
$XEDIT
290
     1
  9
$CEPSNTYPE
380
     0
  9
$PSTYLEMODE
290
     1
  9
$FINGERPRINTGUID
  2
{55437959-1424-4180-A3A3-0250141FF14A}
  9
$VERSIONGUID
  2
{1D4CD031-DB4D-403E-BF4C-A4FD9EAA3CEE}
  9
$EXTNAMES
290
     1
  9
$PSVPSCALE
 40
0.0
  9
$OLESTARTUP
290
     0
  9
$SORTENTS
280
    96
  9
$INDEXCTL
280
     0
  9
$HIDETEXT
280
     0
  9
$XCLIPFRAME
290
     0
  9
$HALOGAP
280
     0
  9
$OBSCOLOR
 70
   257
  9
$OBSLTYPE
280
     0
  9
$INTERSECTIONDISPLAY
280
     0
  9
$INTERSECTIONCOLOR
 70
   257
  9
$DIMASSOC
280
     1
  9
$PROJECTNAME
  1

  0
ENDSEC
  0
SECTION
  2
CLASSES
  0
CLASS
  1
ACDBDICTIONARYWDFLT
  2
AcDbDictionaryWithDefault
  3
ObjectDBX Classes
 90
        0
 91
        1
280
     0
281
     0
  0
CLASS
  1
ACDBPLACEHOLDER
  2
AcDbPlaceHolder
  3
ObjectDBX Classes
 90
        0
 91
        1
280
     0
281
     0
  0
CLASS
  1
LAYOUT
  2
AcDbLayout
  3
ObjectDBX Classes
 90
        0
 91
        3
280
     0
281
     0
  0
CLASS
  1
AMGSETTINGSOBJ
  2
AmgSettingsObj
  3
"AcadM|Product Description: AutoCAD Mechanical|Company: Autodesk, Inc."
 90
     1024
 91
        4
280
     0
281
     0
  0
CLASS
  1
ACME_DOCUMENT
  2
AcMeDbDoc
  3
AcMeServices
 90
     1024
 91
        2
280
     0
281
     0
  0
CLASS
  1
ACMESCOPE
  2
AcMeScope
  3
AcMeServices
 90
     1024
 91
        1
280
     0
281
     0
  0
CLASS
  1
ACMECOMMANDHISTORY
  2
AcMeCommandHistory
  3
AcMeServices
 90
     1024
 91
        1
280
     0
281
     0
  0
CLASS
  1
DICTIONARYVAR
  2
AcDbDictionaryVar
  3
ObjectDBX Classes
 90
        0
 91
        9
280
     0
281
     0
  0
CLASS
  1
ACIMSYSVARMAN
  2
AcImSysVarManager
  3
AcMeServices
 90
     1024
 91
        6
280
     0
281
     0
  0
CLASS
  1
ACIMREALSYSVAR
  2
AcImRealSysVar
  3
AcMeServices
 90
     1024
 91
       19
280
     0
281
     0
  0
CLASS
  1
ACIMINTSYSVAR
  2
AcImIntSysVar
  3
AcMeServices
 90
     1024
 91
      123
280
     0
281
     0
  0
CLASS
  1
ACMEDRAWINGMAN
  2
AcMeDrawingMan
  3
AcMeServices
 90
     1024
 91
        1
280
     0
281
     0
  0
CLASS
  1
ACMEVIEW
  2
AcMeView
  3
AcMeServices
 90
     1024
 91
        1
280
     0
281
     0
  0
CLASS
  1
ACDBENTITYCACHE
  2
AcMeEntityCache
  3
AcMeServices
 90
     1024
 91
        1
280
     0
281
     0
  0
CLASS
  1
GSMANAGER
  2
AcMeGSManager
  3
AcMeServices
 90
     1024
 91
        1
280
     0
281
     0
  0
CLASS
  1
AMDTINTERNALREACTOR
  2
AmdtInternalReactor
  3
AcMeServices
 90
     1024
 91
        2
280
     0
281
     0
  0
CLASS
  1
ACMESTATEMGR
  2
AcMeStateMgr
  3
AcMeServices
 90
     1024
 91
        1
280
     0
281
     0
  0
CLASS
  1
ACGREFMASTER
  2
AcGrefMaster
  3
AcAttribServices
 90
     1024
 91
        1
280
     0
281
     0
  0
CLASS
  1
ACME_DATABASE
  2
AcMeDbDatabase
  3
AcMeServices
 90
     1024
 91
        2
280
     0
281
     0
  0
CLASS
  1
ACRFINSADJUSTERMGR
  2
AcRfInsAdjusterMgr
  3
AcMeServices
 90
     1024
 91
        1
280
     0
281
     0
  0
CLASS
  1
ACGREFACADMASTER
  2
AcGrefacadMaster
  3
AcGrefServices
 90
     1024
 91
        1
280
     0
281
     0
  0
CLASS
  1
AMIMASTER
  2
AmiMaster
  3
AmiServices
 90
     1024
 91
        1
280
     0
281
     0
  0
CLASS
  1
ACMDATADICTIONARY
  2
AcmDataDictionary
  3
"AcmSymBB|Product Description: AutoCAD Mechanical|Company: Autodesk, Inc."
 90
     1024
 91
        1
280
     0
281
     0
  0
CLASS
  1
ACMDATAENTRYBLOCK
  2
AcmDataEntryBlock
  3
AcmSymBB|Product Description: AutoCAD Mechanical|Company: Autodesk, Inc.
 90
     1024
 91
        7
280
     0
281
     0
  0
CLASS
  1
ACIMSTRSYSVAR
  2
AcImStrSysVar
  3
AcMeServices
 90
     1024
 91
       11
280
     0
281
     0
  0
CLASS
  1
ACMSTANDARDISO
  2
AcmStandardISO
  3
"Amdt_StdImp|Product Description: AutoCAD Mechanical|Company: Autodesk, Inc."
 90
     1024
 91
        1
280
     0
281
     0
  0
CLASS
  1
AMGOBJPROPCFG
  2
AmgObjPropCfg
  3
"AmgLay|Product Description: AutoCAD Mechanical|Company: Autodesk, Inc."
 90
     1025
 91
        1
280
     0
281
     0
  0
CLASS
  1
AMDTEDGESTANDARDISO
  2
AmdtEdgeStdISO
  3
"Amdt_StdImp|Product Description: AutoCAD Mechanical|Company: Autodesk, Inc."
 90
     1024
 91
        1
280
     0
281
     0
  0
CLASS
  1
ACMSURFSTANDARDISO
  2
AcmSurfTextStdISO
  3
"Amdt_StdImp|Product Description: AutoCAD Mechanical|Company: Autodesk, Inc."
 90
     1024
 91
        1
280
     0
281
     0
  0
CLASS
  1
ACMFCFSTANDARDISO
  2
AcmFCFStdISO
  3
"Amdt_StdImp|Product Description: AutoCAD Mechanical|Company: Autodesk, Inc."
 90
     1024
 91
        1
280
     0
281
     0
  0
CLASS
  1
ACMWELDSTANDARDISO
  2
AcmWeldingStdISO
  3
"Amdt_StdImp|Product Description: AutoCAD Mechanical|Company: Autodesk, Inc."
 90
     1024
 91
        1
280
     0
281
     0
  0
CLASS
  1
ACMIDSTANDARDISO
  2
AcmIdStdISO
  3
"Amdt_StdImp|Product Description: AutoCAD Mechanical|Company: Autodesk, Inc."
 90
     1024
 91
        1
280
     0
281
     0
  0
CLASS
  1
ACMDATUMSTANDARDISO
  2
AcmDatumStdISO
  3
"Amdt_StdImp|Product Description: AutoCAD Mechanical|Company: Autodesk, Inc."
 90
     1024
 91
        1
280
     0
281
     0
  0
CLASS
  1
ACMBOMSTANDARDISO
  2
AcmBOMStdISO
  3
"Amdt_StdImp|Product Description: AutoCAD Mechanical|Company: Autodesk, Inc."
 90
     1024
 91
        1
280
     0
281
     0
  0
CLASS
  1
ACMDETAILSTANDARDISO
  2
AmdtDetailSymStdISO
  3
"Amdt_StdImp|Product Description: AutoCAD Mechanical|Company: Autodesk, Inc."
 90
     1024
 91
        1
280
     0
281
     0
  0
CLASS
  1
ACMSECTIONSTANDARDISO
  2
AmdtSectionSymStdISO
  3
"Amdt_StdImp|Product Description: AutoCAD Mechanical|Company: Autodesk, Inc."
 90
     1024
 91
        1
280
     0
281
     0
  0
CLASS
  1
ACMCENTERLINESTANDARDISO
  2
AmdtCenterLineStdISO
  3
"Amdt_StdImp|Product Description: AutoCAD Mechanical|Company: Autodesk, Inc."
 90
     1024
 91
        1
280
     0
281
     0
  0
CLASS
  1
ACAMGLAYSTD
  2
AcAmgLayStd
  3
"AmgLay|Product Description: AutoCAD Mechanical|Company: Autodesk, Inc."
 90
     1024
 91
        2
280
     0
281
     0
  0
CLASS
  1
ACAMGDIMSTD
  2
AcAmgDimStd
  3
"AmgDim|Product Description: AutoCAD Mechanical|Company: Autodesk, Inc."
 90
     1024
 91
        2
280
     0
281
     0
  0
CLASS
  1
ACAMGTITLESTD
  2
AcAmgTitleStd
  3
"AmgTitle|Product Description: AutoCAD Mechanical|Company: Autodesk, Inc."
 90
     4095
 91
        2
280
     0
281
     0
  0
CLASS
  1
ACAMGFILTERDAT
  2
AcAmgFilterDat
  3
"AcadM|Product Description: AutoCAD Mechanical|Company: Autodesk, Inc."
 90
     1024
 91
        6
280
     0
281
     0
  0
CLASS
  1
LAYER_INDEX
  2
AcDbLayerIndex
  3
ObjectDBX Classes
 90
        0
 91
        0
280
     0
281
     0
  0
CLASS
  1
IDBUFFER
  2
AcDbIdBuffer
  3
ObjectDBX Classes
 90
        0
 91
        0
280
     0
281
     0
  0
CLASS
  1
PLOTSETTINGS
  2
AcDbPlotSettings
  3
ObjectDBX Classes
 90
        0
 91
        0
280
     0
281
     0
  0
CLASS
  1
AMDTFORMULAUPDATEDISPATCHER
  2
AmdtFormulaUpdateDispatcher
  3
AcMeServices
 90
     1024
 91
        1
280
     0
281
     0
  0
CLASS
  1
ACMSTANDARDANSI
  2
AcmStandardANSI
  3
"Amdt_StdImp|Product Description: AutoCAD Mechanical|Company: Autodesk, Inc."
 90
     1024
 91
        1
280
     0
281
     0
  0
CLASS
  1
ACMSURFSTANDARDANSI
  2
AcmSurfTextStdANSI
  3
"Amdt_StdImp|Product Description: AutoCAD Mechanical|Company: Autodesk, Inc."
 90
     1024
 91
        1
280
     0
281
     0
  0
CLASS
  1
ACMFCFSTANDARDANSI
  2
AcmFCFStdANSI
  3
"Amdt_StdImp|Product Description: AutoCAD Mechanical|Company: Autodesk, Inc."
 90
     1024
 91
        1
280
     0
281
     0
  0
CLASS
  1
ACMWELDSTANDARDANSI
  2
AcmWeldingStdANSI
  3
"Amdt_StdImp|Product Description: AutoCAD Mechanical|Company: Autodesk, Inc."
 90
     1024
 91
        1
280
     0
281
     0
  0
CLASS
  1
ACMIDSTANDARDANSI
  2
AcmIdStdANSI
  3
"Amdt_StdImp|Product Description: AutoCAD Mechanical|Company: Autodesk, Inc."
 90
     1024
 91
        1
280
     0
281
     0
  0
CLASS
  1
ACMDATUMSTANDARDANSI
  2
AcmDatumStdANSI
  3
"Amdt_StdImp|Product Description: AutoCAD Mechanical|Company: Autodesk, Inc."
 90
     1024
 91
        1
280
     0
281
     0
  0
CLASS
  1
ACMBOMSTANDARDANSI
  2
AcmBOMStdANSI
  3
"Amdt_StdImp|Product Description: AutoCAD Mechanical|Company: Autodesk, Inc."
 90
     1024
 91
        1
280
     0
281
     0
  0
CLASS
  1
ACMDETAILSTANDARDANSI
  2
AmdtDetailSymStdANSI
  3
"Amdt_StdImp|Product Description: AutoCAD Mechanical|Company: Autodesk, Inc."
 90
     1024
 91
        1
280
     0
281
     0
  0
CLASS
  1
ACMSECTIONSTANDARDANSI
  2
AmdtSectionSymStdANSI
  3
"Amdt_StdImp|Product Description: AutoCAD Mechanical|Company: Autodesk, Inc."
 90
     1024
 91
        1
280
     0
281
     0
  0
CLASS
  1
ACMCENTERLINESTANDARDANSI
  2
AmdtCenterLineStdANSI
  3
"Amdt_StdImp|Product Description: AutoCAD Mechanical|Company: Autodesk, Inc."
 90
     1024
 91
        1
280
     0
281
     0
  0
CLASS
  1
ACMBOM
  2
AcmBom
  3
"AcmSymBB|Product Description: AutoCAD Mechanical|Company: Autodesk, Inc."
 90
     1024
 91
        1
280
     0
281
     0
  0
CLASS
  1
ACMDATAENTRYPART
  2
AcmDataEntryPart
  3
AcmSymBB|Product Description: AutoCAD Mechanical|Company: Autodesk, Inc.
 90
     1024
 91
        0
280
     0
281
     0
  0
CLASS
  1
ACMPARTREF
  2
AcmPartRef
  3
"AcmSymBB|Product Description: AutoCAD Mechanical|Company: Autodesk, Inc."
 90
     4095
 91
        0
280
     0
281
     1
  0
CLASS
  1
ACDBCIRCARCRES
  2
AcDbCircArcRes
  3
AcGrefServices
 90
     1024
 91
        0
280
     0
281
     0
  0
CLASS
  1
ACMBOMROW
  2
AcmBomRow
  3
"AcmSymBB|Product Description: AutoCAD Mechanical|Company: Autodesk, Inc."
 90
     1024
 91
        0
280
     0
281
     0
  0
CLASS
  1
ACMBALLOON
  2
AcmBalloon
  3
"AcmSymBB|Product Description: AutoCAD Mechanical|Company: Autodesk, Inc."
 90
     4095
 91
        0
280
     0
281
     1
  0
CLASS
  1
AMDTNOTE
  2
AmdtNote
  3
"AcmSymBB|Product Description: AutoCAD Mechanical|Company: Autodesk, Inc."
 90
     4095
 91
        0
280
     0
281
     1
  0
CLASS
  1
STDPART2D
  2
AmgStdPart
  3
AmgStdPart|Product Description: AutoCAD Mechanical|Company: Autodesk, Inc.
 90
     4095
 91
        0
280
     0
281
     1
  0
CLASS
  1
ACDBSTDPARTRES_LINE
  2
AcDbStdPartRes_Line
  3
AmgStdPart|Product Description: AutoCAD Mechanical|Company: Autodesk, Inc.
 90
     1024
 91
        0
280
     0
281
     0
  0
CLASS
  1
ACMDATAENTRY
  2
AcmDataEntry
  3
AcmSymBB|Product Description: AutoCAD Mechanical|Company: Autodesk, Inc.
 90
     1024
 91
        9
280
     0
281
     0
  0
CLASS
  1
ACDBOPPOLYLINERES
  2
AcDbOpPolylineRes
  3
AcGrefServices
 90
     1024
 91
        0
280
     0
281
     0
  0
CLASS
  1
ACMPARTLIST
  2
AcmPartList
  3
"AcmSymBB|Product Description: AutoCAD Mechanical|Company: Autodesk, Inc."
 90
     4095
 91
        0
280
     0
281
     1
  0
CLASS
  1
ACDBLINERES
  2
AcDbLineRes
  3
AcGrefServices
 90
     1024
 91
        0
280
     0
281
     0
  0
CLASS
  1
ACRFINSADJ
  2
AcRfInsAdjuster
  3
AcMeServices
 90
     1024
 91
        0
280
     0
281
     0
  0
CLASS
  1
AM_DRAWING_MGR
  2
AcDmDwgMgr
  3
AcMechDwgViewMgmt
 90
     1024
 91
        1
280
     0
281
     0
  0
CLASS
  1
AM_DWG_DOCUMENT
  2
AcDmDwgDocument
  3
AcMechDwgViewMgmt
 90
     1024
 91
        1
280
     0
281
     0
  0
CLASS
  1
AM_DWG_SHEET
  2
AcDmSheet
  3
AcMechDwgViewMgmt
 90
     1024
 91
        2
280
     0
281
     0
  0
CLASS
  1
AM_VIEWDIMPARMAP
  2
AcDmViewDimParMap
  3
AcMechDwgViewMgmt
 90
     1024
 91
        2
280
     0
281
     0
  0
CLASS
  1
AM_DWGMGR_NAME
  2
AcDmDwgMgrName
  3
AcMechDwgViewMgmt
 90
     1024
 91
        1
280
     0
281
     0
  0
CLASS
  1
AMDTMENUSTATEMGR
  2
AmdtMenuStateMgr
  3
McadcomServices
 90
     1024
 91
        1
280
     0
281
     0
  0
CLASS
  1
AMDTMCOMMENUSTATE
  2
AmdtMcomMenuState
  3
McadcomServices
 90
     1024
 91
        1
280
     0
281
     0
  0
CLASS
  1
ASAPP
  2
AcAsAppObject
  3
AutoSurfServices
 90
        0
 91
        2
280
     0
281
     0
  0
CLASS
  1
IM_STATIC_MAN
  2
AcImStaticVarManager
  3
AcMeServices
 90
     1024
 91
        1
280
     0
281
     0
  0
CLASS
  1
ACIMDBLSTATICVAR
  2
AcImDblStaticVar
  3
AcMeServices
 90
     1024
 91
       20
280
     0
281
     0
  0
CLASS
  1
ACIMSTRSTATICVAR
  2
AcImStrStaticVar
  3
AcMeServices
 90
     1024
 91
       12
280
     0
281
     0
  0
CLASS
  1
ACIMINTSTATICVAR
  2
AcImIntStaticVar
  3
AcMeServices
 90
     1024
 91
       17
280
     0
281
     0
  0
CLASS
  1
ACASGREFMASTER
  2
AcAsGrefMaster
  3
AutoSurfResolverServices
 90
        0
 91
        2
280
     0
281
     0
  0
CLASS
  1
ACADGREFMODULE
  2
AcAdGrefModule
  3
AdGrefServices
 90
        0
 91
        2
280
     0
281
     0
  0
CLASS
  1
AMDTMAPISURFMOUDULE
  2
AmdtMApiSurfModule
  3
MApiSurfServices
 90
        0
 91
        2
280
     0
281
     0
  0
CLASS
  1
MAPIAMMOUDLE
  2
MApiAmModule
  3
MApiAmServices
 90
     1024
 91
        1
280
     0
281
     0
  0
CLASS
  1
AMDTADMENUSTATE
  2
AmdtAdMenuState
  3
DesignerServices
 90
     1024
 91
        1
280
     0
281
     0
  0
CLASS
  1
ADAPPL
  2
AcAdAppl
  3
DesignerServices
 90
     1024
 91
        1
280
     0
281
     0
  0
CLASS
  1
DEPMGR
  2
AcAdDepMgr
  3
DesignerServices
 90
     1024
 91
        1
280
     0
281
     0
  0
CLASS
  1
PARAMMGR
  2
AcAdParamMgr
  3
DesignerServices
 90
     1024
 91
        1
280
     0
281
     0
  0
CLASS
  1
PARAMSCOPE
  2
AcAdParamScope
  3
DesignerServices
 90
     1024
 91
        1
280
     0
281
     0
  0
CLASS
  1
NAMEDAPPL
  2
AcAdNamedAppl
  3
DesignerServices
 90
     1024
 91
        1
280
     0
281
     0
  0
CLASS
  1
ADHNTMPLT
  2
AdHoleNoteTemplateMgr
  3
DesignerServices
 90
     1024
 91
        0
280
     0
281
     0
  0
CLASS
  1
AM_HNTEMPLATE_MGR_NAME
  2
AdHoleNoteTemplateMgrName
  3
DesignerServices
 90
     1024
 91
        0
280
     0
281
     0
  0
CLASS
  1
AMDTDMMENUSTATE
  2
AmdtDmMenuState
  3
AcMechDwgViewMgmt
 90
     1024
 91
        1
280
     0
281
     0
  0
CLASS
  1
MAPIADMODULE
  2
MApiAdModule
  3
MApiAdServices
 90
        0
 91
        2
280
     0
281
     0
  0
CLASS
  1
AMDTAMMENUSTATE
  2
AmdtAmMenuState
  3
DesignerAssemblies
 90
     1024
 91
        1
280
     0
281
     0
  0
CLASS
  1
ACAMPROJECT
  2
AcAmProject
  3
DesignerAssemblies
 90
     1024
 91
        1
280
     0
281
     0
  0
CLASS
  1
ACAMGRCOMPDEF
  2
AcAmGrCompDef
  3
DesignerAssemblies
 90
     1024
 91
        1
280
     0
281
     0
  0
CLASS
  1
ACCMCONTEXT
  2
AcCmContext
  3
DesignerAssemblies
 90
     1024
 91
        1
280
     0
281
     0
  0
CLASS
  1
ACAMCOMPDEF
  2
AcAmCompDef
  3
DesignerAssemblies
 90
     1024
 91
        1
280
     0
281
     0
  0
CLASS
  1
ACAMCOMPDEFMGR
  2
AcAmCompDefMgr
  3
DesignerAssemblies
 90
     1024
 91
        1
280
     0
281
     0
  0
CLASS
  1
AMCONTEXTMGR
  2
AcAmContextMgr
  3
DesignerAssemblies
 90
     1024
 91
        1
280
     0
281
     0
  0
CLASS
  1
ACAMCONTEXTMODELER
  2
AcAmContextModeler
  3
DesignerAssemblies
 90
     1024
 91
        1
280
     0
281
     0
  0
CLASS
  1
CATALOGSTATE
  2
AcAmCatalogState
  3
DesignerAssemblies
 90
     1024
 91
        1
280
     0
281
     0
  0
CLASS
  1
ACAMGRCOMPDEFSET
  2
AcAmGrCompDefSet
  3
DesignerAssemblies
 90
     1024
 91
        1
280
     0
281
     0
  0
CLASS
  1
AMDTBROWSERDBTAB
  2
AmdtBrowserDbTab
  3
McadcomServices
 90
     1024
 91
        1
280
     0
281
     0
  0
CLASS
  1
CBROWSERAPPOBJECT
  2
CBrowserAppObject
  3
McadcomServices
 90
     1024
 91
        3
280
     0
281
     0
  0
CLASS
  1
DM_PLACEHOLDER
  2
AcDmSelsetPlaceholder
  3
AcMechDwgViewMgmt
 90
     1024
 91
        1
280
     0
281
     0
  0
CLASS
  1
ACMPICKOBJ
  2
AcmPickEnt
  3
"AcmSymBB|Product Description: AutoCAD Mechanical|Company: Autodesk, Inc."
 90
     1024
 91
        0
280
     0
281
     1
  0
CLASS
  1
ACMNOTESTANDARDISO
  2
AmdtNoteStdISO
  3
"Amdt_StdImp|Product Description: AutoCAD Mechanical|Company: Autodesk, Inc."
 90
     1024
 91
        1
280
     0
281
     0
  0
CLASS
  1
ACMNOTESTANDARDANSI
  2
AmdtNoteStdANSI
  3
"Amdt_StdImp|Product Description: AutoCAD Mechanical|Company: Autodesk, Inc."
 90
     1024
 91
        1
280
     0
281
     0
  0
CLASS
  1
ACMTHREADLINESTANDARDISO
  2
AmdtThreadLineStdISO
  3
"Amdt_StdImp|Product Description: AutoCAD Mechanical|Company: Autodesk, Inc."
 90
     1024
 91
        1
280
     0
281
     0
  0
CLASS
  1
ACMTHREADLINESTANDARDANSI
  2
AmdtThreadLineStdANSI
  3
"Amdt_StdImp|Product Description: AutoCAD Mechanical|Company: Autodesk, Inc."
 90
     1024
 91
        1
280
     0
281
     0
  0
CLASS
  1
TABLESTYLE
  2
AcDbTableStyle
  3
ObjectDBX Classes
 90
     4095
 91
        1
280
     0
281
     0
  0
CLASS
  1
SORTENTSTABLE
  2
AcDbSortentsTable
  3
ObjectDBX Classes
 90
        0
 91
        2
280
     0
281
     0
  0
CLASS
  1
MATERIAL
  2
AcDbMaterial
  3
ObjectDBX Classes
 90
     1153
 91
        3
280
     0
281
     0
  0
CLASS
  1
VISUALSTYLE
  2
AcDbVisualStyle
  3
ObjectDBX Classes
 90
     4095
 91
       16
280
     0
281
     0
  0
CLASS
  1
ACRFATTGENMGR
  2
AcRfAttGeneralMgr
  3
AcAttribServices
 90
     1024
 91
        1
280
     0
281
     0
  0
CLASS
  1
ACRFOBJATTMGR
  2
AcRfObjAttGroupMgr
  3
AcAttribServices
 90
     1024
 91
        1
280
     0
281
     0
  0
CLASS
  1
ACRFMCADAPIATTHOLDER
  2
AcRfMCADAPIAttHolder
  3
AcAttribServices
 90
     1024
 91
        1
280
     0
281
     0
  0
CLASS
  1
AMDTSYSATTR
  2
AmdtSystemAttribute
  3
AcAttribServices
 90
     1024
 91
        3
280
     0
281
     0
  0
CLASS
  1
ACMTAPERSTANDARDISO
  2
AcmTaperStdISO
  3
"Amdt_StdImp|Product Description: AutoCAD Mechanical|Company: Autodesk, Inc."
 90
     1024
 91
        1
280
     0
281
     0
  0
CLASS
  1
CAMSSTRUCTBTNSTATE
  2
StructBtnState
  3
DesignerAssemblies
 90
     1024
 91
        1
280
     0
281
     0
  0
CLASS
  1
DIMASSOC
  2
AcDbDimAssoc
  3
"AcDbDimAssoc|Product Desc:     AcDim ARX App For Dimension|Company:          Autodesk, Inc.|WEB Address:      www.autodesk.com"
 90
        0
 91
        0
280
     0
281
     0
  0
CLASS
  1
AMDTNOTETEMPLATEDB
  2
AmdtNoteTemplateDB
  3
AcmSymBB|Product Description: AutoCAD Mechanical|Company: Autodesk, Inc.
 90
     1024
 91
       10
280
     0
281
     0
  0
CLASS
  1
SCALE
  2
AcDbScale
  3
ObjectDBX Classes
 90
     1153
 91
       33
280
     0
281
     0
  0
CLASS
  1
MLEADERSTYLE
  2
AcDbMLeaderStyle
  3
ACDB_MLEADERSTYLE_CLASS
 90
     4095
 91
        1
280
     0
281
     0
  0
CLASS
  1
ACMANOOTATIONVIEWSTANDARDISO
  2
AmdtAnViewStdISO
  3
"Amdt_StdImp|Product Description: AutoCAD Mechanical|Company: Autodesk, Inc."
 90
     1024
 91
        1
280
     0
281
     0
  0
CLASS
  1
CELLSTYLEMAP
  2
AcDbCellStyleMap
  3
ObjectDBX Classes
 90
     1152
 91
        3
280
     0
281
     0
  0
CLASS
  1
ACMTAPERSTANDARDANSI
  2
AcmTaperStdANSI
  3
"Amdt_StdImp|Product Description: AutoCAD Mechanical|Company: Autodesk, Inc."
 90
     1024
 91
        1
280
     0
281
     0
  0
CLASS
  1
ACAMGHOLECHARTSTDANSI
  2
AcAmgHoleChartStdANSI
  3
AmgDim|Product Description: AutoCAD Mechanical|Company: Autodesk, Inc.
 90
     1024
 91
        1
280
     0
281
     0
  0
CLASS
  1
ACMANOOTATIONVIEWSTANDARDANSI
  2
AmdtAnViewStdANSI
  3
"Amdt_StdImp|Product Description: AutoCAD Mechanical|Company: Autodesk, Inc."
 90
     1024
 91
        1
280
     0
281
     0
  0
ENDSEC
  0
SECTION
  2
TABLES
  0
TABLE
  2
VPORT
  5
8
330
0
100
AcDbSymbolTable
 70
     1
  0
VPORT
  5
B0EC
330
8
100
AcDbSymbolTableRecord
100
AcDbViewportTableRecord
  2
*Active
 70
     0
 10
0.0
 20
0.0
 11
1.0
 21
1.0
 12
210.0000019558372
 22
148.5000013830562
 13
0.0
 23
0.0
 14
2.5
 24
2.5
 15
10.0
 25
10.0
 16
0.0
 26
0.0
 36
1.0
 17
0.0
 27
0.0
 37
0.0
 40
298.894668435497
 41
1.621085594989561
 42
50.0
 43
-1370.695619172058
 44
-1370.695619172058
 50
0.0
 51
0.0
 71
     0
 72
   100
 73
     1
 74
     3
 75
     0
 76
     0
 77
     0
 78
     0
281
     0
 65
     0
110
0.0
120
0.0
130
0.0
111
1.0
121
0.0
131
0.0
112
0.0
122
1.0
132
0.0
 79
     0
146
0.0
  0
ENDTAB
  0
TABLE
  2
LTYPE
  5
5
330
0
100
AcDbSymbolTable
 70
    34
  0
LTYPE
  5
14
330
5
100
AcDbSymbolTableRecord
100
AcDbLinetypeTableRecord
  2
ByBlock
 70
     0
  3

 72
    65
 73
     0
 40
0.0
  0
LTYPE
  5
15
330
5
100
AcDbSymbolTableRecord
100
AcDbLinetypeTableRecord
  2
ByLayer
 70
     0
  3

 72
    65
 73
     0
 40
0.0
  0
LTYPE
  5
16
330
5
100
AcDbSymbolTableRecord
100
AcDbLinetypeTableRecord
  2
Continuous
 70
     0
  3
Solid line
 72
    65
 73
     0
 40
0.0
  0
LTYPE
  5
4F
330
5
100
AcDbSymbolTableRecord
100
AcDbLinetypeTableRecord
  2
AM_ISO02W050
 70
     0
  3
__ __ __ __ __ __ __ __ __ __ __ __ __ __ __
 72
    65
 73
     2
 40
7.5
 49
6.0
 74
     0
 49
-1.5
 74
     0
  0
LTYPE
  5
52
330
5
100
AcDbSymbolTableRecord
100
AcDbLinetypeTableRecord
  2
Amconstr
 70
     0
  3
_______________________
 72
    65
 73
     2
 40
9999.0
 49
9999.0
 74
     0
 49
0.0
 74
     0
  0
LTYPE
  5
64
330
5
100
AcDbSymbolTableRecord
100
AcDbLinetypeTableRecord
  2
ACISOWELD
 70
     0
  3
_ _ _ _ _
 72
    65
 73
     2
 40
2.0
 49
2.0
 74
     0
 49
-1.0
 74
     0
  0
LTYPE
  5
65
330
5
100
AcDbSymbolTableRecord
100
AcDbLinetypeTableRecord
  2
ACISOTGB
 70
     0
  3
__ . . __ . .
 72
    65
 73
     6
 40
9.0
 49
4.0
 74
     0
 49
-1.0
 74
     0
 49
1.0
 74
     0
 49
-1.0
 74
     0
 49
1.0
 74
     0
 49
-1.0
 74
     0
  0
LTYPE
  5
66
330
5
100
AcDbSymbolTableRecord
100
AcDbLinetypeTableRecord
  2
ACISOTGL
 70
     0
  3
_ _ _ _ _
 72
    65
 73
     2
 40
3.0
 49
2.0
 74
     0
 49
-1.0
 74
     0
  0
LTYPE
  5
69
330
5
100
AcDbSymbolTableRecord
100
AcDbLinetypeTableRecord
  2
CENTER
 70
     0
  3
__ . __
 72
    65
 73
     4
 40
7.0
 49
4.0
 74
     0
 49
-1.0
 74
     0
 49
1.0
 74
     0
 49
-1.0
 74
     0
  0
LTYPE
  5
A6E
330
5
100
AcDbSymbolTableRecord
100
AcDbLinetypeTableRecord
  2
PHANTOM2
 70
     0
  3
Phantom (.5x) ___ _ _ ___ _ _ ___ _ _ ___ _ _
 72
    65
 73
     6
 40
31.75
 49
15.875
 74
     0
 49
-3.174999999999999
 74
     0
 49
3.174999999999999
 74
     0
 49
-3.174999999999999
 74
     0
 49
3.174999999999999
 74
     0
 49
-3.174999999999999
 74
     0
  0
LTYPE
  5
4DED
330
5
100
AcDbSymbolTableRecord
100
AcDbLinetypeTableRecord
  2
中線
 70
     0
  3
___________________
 72
    65
 73
     2
 40
2.0
 49
1.0
 74
     0
 49
1.0
 74
     0
  0
LTYPE
  5
4DF6
330
5
100
AcDbSymbolTableRecord
100
AcDbLinetypeTableRecord
  2
細線
 70
     0
  3
___________________
 72
    65
 73
     2
 40
2.0
 49
1.0
 74
     0
 49
1.0
 74
     0
  0
LTYPE
  5
4DF7
330
5
100
AcDbSymbolTableRecord
100
AcDbLinetypeTableRecord
  2
太線
 70
     0
  3
___________________
 72
    65
 73
     2
 40
2.0
 49
1.0
 74
     0
 49
1.0
 74
     0
  0
LTYPE
  5
4EA7
330
5
100
AcDbSymbolTableRecord
100
AcDbLinetypeTableRecord
  2
文字
 70
     0
  3
_________________
 72
    65
 73
     2
 40
2.0
 49
1.0
 74
     0
 49
1.0
 74
     0
  0
LTYPE
  5
4EA9
330
5
100
AcDbSymbolTableRecord
100
AcDbLinetypeTableRecord
  2
寸法線
 70
     0
  3
________________
 72
    65
 73
     2
 40
2.0
 49
1.0
 74
     0
 49
1.0
 74
     0
  0
LTYPE
  5
4F12
330
5
100
AcDbSymbolTableRecord
100
AcDbLinetypeTableRecord
  2
ハッチング
 70
     0
  3
_________________
 72
    65
 73
     2
 40
2.0
 49
1.0
 74
     0
 49
1.0
 74
     0
  0
LTYPE
  5
5180
330
5
100
AcDbSymbolTableRecord
100
AcDbLinetypeTableRecord
  2
陰線1
 70
     0
  3
__ __ __ __
 72
    65
 73
     2
 40
4.0
 49
2.2
 74
     0
 49
-1.8
 74
     0
  0
LTYPE
  5
5182
330
5
100
AcDbSymbolTableRecord
100
AcDbLinetypeTableRecord
  2
切断線
 70
     0
  3
/\/-/\/-/\/-/\/-/\/-/\/
 72
    65
 73
     2
 40
11.0001
 49
0.0001
 74
     4
 75
   135
340
56
 46
0.04
 50
0.0
 44
0.0
 45
0.0
 49
-11.0
 74
     0
  0
LTYPE
  5
5183
330
5
100
AcDbSymbolTableRecord
100
AcDbLinetypeTableRecord
  2
想像線1
 70
     0
  3
__ __ __ _____ __ __ ____
 72
    65
 73
     6
 40
14.5
 49
6.0
 74
     0
 49
-1.5
 74
     0
 49
2.0
 74
     0
 49
-1.5
 74
     0
 49
2.0
 74
     0
 49
-1.5
 74
     0
  0
LTYPE
  5
5185
330
5
100
AcDbSymbolTableRecord
100
AcDbLinetypeTableRecord
  2
中心線1
 70
     0
  3
___ _ ___ _ ___
 72
    65
 73
     4
 40
18.0
 49
12.0
 74
     0
 49
-2.0
 74
     0
 49
2.0
 74
     0
 49
-2.0
 74
     0
  0
LTYPE
  5
5188
330
5
100
AcDbSymbolTableRecord
100
AcDbLinetypeTableRecord
  2
補助線
 70
     0
  3
______________
 72
    65
 73
     2
 40
2.0
 49
1.0
 74
     0
 49
1.0
 74
     0
  0
LTYPE
  5
6427
330
5
100
AcDbSymbolTableRecord
100
AcDbLinetypeTableRecord
  2
HIDDEN
 70
     0
  3
Hidden __ __ __ __ __ __ __ __ __ __ __ __ __ _
 72
    65
 73
     2
 40
0.375
 49
0.25
 74
     0
 49
-0.125
 74
     0
  0
LTYPE
  5
AC81
330
5
100
AcDbSymbolTableRecord
100
AcDbLinetypeTableRecord
  2
破断線
 70
     0
  3
/\/-/\/-/\/-/\/-/\/-/\/
 72
    65
 73
     2
 40
0.4401
 49
0.0001
 74
     4
 75
   136
340
AC80
 46
0.0016
 50
0.0
 44
0.0
 45
0.0
 49
-0.4400000000000001
 74
     0
  0
LTYPE
  5
AC9E
330
5
100
AcDbSymbolTableRecord
100
AcDbLinetypeTableRecord
  2
Amzigzag
 70
     0
  3
/\/-/\/-/\/-/\/-/\/-/\/
 72
    65
 73
     2
 40
11.0001
 49
0.0001
 74
     4
 75
   135
340
56
 46
0.04
 50
0.0
 44
0.0
 45
0.0
 49
-11.0
 74
     0
  0
LTYPE
  5
AF0F
330
5
100
AcDbSymbolTableRecord
100
AcDbLinetypeTableRecord
  2
genzigzag
 70
     0
  3
/\/-/\/-/\/-/\/-/\/-/\/
 72
    65
 73
     2
 40
12.0001
 49
0.0001
 74
     4
 75
   135
340
AC80
 46
2.0
 50
0.0
 44
0.0
 45
0.0
 49
-12.0
 74
     0
  0
LTYPE
  5
AF95
330
5
100
AcDbSymbolTableRecord
100
AcDbLinetypeTableRecord
  2
AM_ISO08W050
 70
     0
  3
____ . ____ . ____ . ____ . ____ . ____ . ____
 72
    65
 73
     4
 40
18.0
 49
12.0
 74
     0
 49
-1.5
 74
     0
 49
3.0
 74
     0
 49
-1.5
 74
     0
  0
LTYPE
  5
AF96
330
5
100
AcDbSymbolTableRecord
100
AcDbLinetypeTableRecord
  2
AM_ISO09W050
 70
     0
  3
_____ . . _____ . . _____ . . ____ .. ____
 72
    65
 73
     6
 40
22.5
 49
12.0
 74
     0
 49
-1.5
 74
     0
 49
3.0
 74
     0
 49
-1.5
 74
     0
 49
3.0
 74
     0
 49
-1.5
 74
     0
  0
LTYPE
  5
AF97
330
5
100
AcDbSymbolTableRecord
100
AcDbLinetypeTableRecord
  2
AM_ISO08W050x2
 70
     0
  3
__ . __ . __ . __ . __ . __
 72
    65
 73
     4
 40
9.0
 49
6.0
 74
     0
 49
-0.75
 74
     0
 49
1.5
 74
     0
 49
-0.75
 74
     0
  0
LTYPE
  5
AF98
330
5
100
AcDbSymbolTableRecord
100
AcDbLinetypeTableRecord
  2
AM_ISO02W050x2
 70
     0
  3
 _ _ _ _ _ _ _ _ _ _ _ _
 72
    65
 73
     2
 40
3.75
 49
3.0
 74
     0
 49
-0.75
 74
     0
  0
LTYPE
  5
B7EC
330
5
100
AcDbSymbolTableRecord
100
AcDbLinetypeTableRecord
  2
ACANSTGB
 70
     0
  3
__ . . __ . .
 72
    65
 73
     6
 40
0.35433070866
 49
0.15748031496
 74
     0
 49
-0.03937007874
 74
     0
 49
0.03937007874
 74
     0
 49
-0.03937007874
 74
     0
 49
0.03937007874
 74
     0
 49
-0.03937007874
 74
     0
  0
LTYPE
  5
B7ED
330
5
100
AcDbSymbolTableRecord
100
AcDbLinetypeTableRecord
  2
ACANSTGL
 70
     0
  3
_ _ _ _ _
 72
    65
 73
     2
 40
0.11811023622
 49
0.07874015748
 74
     0
 49
-0.03937007874
 74
     0
  0
LTYPE
  5
B7EE
330
5
100
AcDbSymbolTableRecord
100
AcDbLinetypeTableRecord
  2
CENTER2
 70
     0
  3
Center (.5x) ___ _ ___ _ ___ _ ___ _ ___ _ ___
 72
    65
 73
     4
 40
1.125
 49
0.75
 74
     0
 49
-0.125
 74
     0
 49
0.125
 74
     0
 49
-0.125
 74
     0
  0
LTYPE
  5
B7EF
330
5
100
AcDbSymbolTableRecord
100
AcDbLinetypeTableRecord
  2
HIDDEN2
 70
     0
  3
Hidden (.5x) _ _ _ _ _ _ _ _ _ _ _ _ _ _ _ _ _
 72
    65
 73
     2
 40
0.1875
 49
0.125
 74
     0
 49
-0.0625
 74
     0
  0
LTYPE
  5
B7F0
330
5
100
AcDbSymbolTableRecord
100
AcDbLinetypeTableRecord
  2
AMZIGZAG2
 70
     0
  3
/\/-/\/-/\/-/\/-/\/-/\/
 72
    65
 73
     2
 40
0.4401
 49
0.0001
 74
     0
 49
-0.4400000000000003
 74
     0
  0
LTYPE
  5
C649
330
5
100
AcDbSymbolTableRecord
100
AcDbLinetypeTableRecord
  2
PHANTOM
 70
     0
  3
_____ _ _ _____ _ _ _____ _ _ _____ _ _ ____  
 72
    65
 73
     6
 40
15.5
 49
8.0
 74
     0
 49
-1.5
 74
     0
 49
1.5
 74
     0
 49
-1.5
 74
     0
 49
1.5
 74
     0
 49
-1.5
 74
     0
  0
LTYPE
  5
11776
330
5
100
AcDbSymbolTableRecord
100
AcDbLinetypeTableRecord
  2
DASHED
 70
     0
  3
__ __ __ __ __ __ __ __ __ __ __ __ __ __ __
 72
    65
 73
     2
 40
3.5
 49
2.0
 74
     0
 49
-1.5
 74
     0
  0
ENDTAB
  0
TABLE
  2
LAYER
  5
2
102
{ACAD_XDICTIONARY
360
3F95
102
}
330
0
100
AcDbSymbolTable
 70
    20
  0
LAYER
  5
10
102
{ACAD_XDICTIONARY
360
C26F
102
}
330
2
100
AcDbSymbolTableRecord
100
AcDbLayerTableRecord
  2
0
 70
     0
 62
     7
  6
Continuous
370
    -3
390
F
  0
LAYER
  5
6D1
330
2
100
AcDbSymbolTableRecord
100
AcDbLayerTableRecord
  2
Defpoints
 70
     0
 62
     7
  6
Continuous
290
     0
370
    -3
390
F
  0
LAYER
  5
5F85
102
{ACAD_XDICTIONARY
360
C271
102
}
330
2
100
AcDbSymbolTableRecord
100
AcDbLayerTableRecord
  2
AM_0
 70
     0
 62
     7
  6
中線
370
    30
390
F
1001
AcAecLayerStandard
1000

1000

  0
LAYER
  5
AC9F
102
{ACAD_XDICTIONARY
360
C273
102
}
330
2
100
AcDbSymbolTableRecord
100
AcDbLayerTableRecord
  2
size
 70
     0
 62
     5
  6
Continuous
290
     0
370
    25
390
F
  0
LAYER
  5
ACA0
102
{ACAD_XDICTIONARY
360
C275
102
}
330
2
100
AcDbSymbolTableRecord
100
AcDbLayerTableRecord
  2
waku
 70
     0
 62
     7
  6
Continuous
370
    35
390
F
  0
LAYER
  5
ACA1
102
{ACAD_XDICTIONARY
360
C277
102
}
330
2
100
AcDbSymbolTableRecord
100
AcDbLayerTableRecord
  2
AM_6
 70
     0
 62
     2
  6
文字
370
    13
390
F
1001
AcAecLayerStandard
1000

1000

  0
LAYER
  5
ACC8
102
{ACAD_XDICTIONARY
360
C279
102
}
330
2
100
AcDbSymbolTableRecord
100
AcDbLayerTableRecord
  2
hyomoji
 70
     0
 62
     2
  6
Continuous
370
    13
390
F
  0
LAYER
  5
ACC9
102
{ACAD_XDICTIONARY
360
C27B
102
}
330
2
100
AcDbSymbolTableRecord
100
AcDbLayerTableRecord
  2
hyosen1
 70
     0
 62
    12
  6
Continuous
370
    25
390
F
  0
LAYER
  5
ACCA
102
{ACAD_XDICTIONARY
360
C27D
102
}
330
2
100
AcDbSymbolTableRecord
100
AcDbLayerTableRecord
  2
hyosen2
 70
     0
 62
    12
  6
Continuous
370
    13
390
F
  0
LAYER
  5
AD60
102
{ACAD_XDICTIONARY
360
C27F
102
}
330
2
100
AcDbSymbolTableRecord
100
AcDbLayerTableRecord
  2
AM_1
 70
     0
 62
    30
  6
太線
370
    40
390
F
1001
AcAecLayerStandard
1000

1000

  0
LAYER
  5
AD64
102
{ACAD_XDICTIONARY
360
C281
102
}
330
2
100
AcDbSymbolTableRecord
100
AcDbLayerTableRecord
  2
AM_2
 70
     0
 62
     1
  6
細線
370
    13
390
F
1001
AcAecLayerStandard
1000

1000

  0
LAYER
  5
AD67
102
{ACAD_XDICTIONARY
360
C283
102
}
330
2
100
AcDbSymbolTableRecord
100
AcDbLayerTableRecord
  2
AM_3
 70
     0
 62
     6
  6
陰線1
370
    13
390
F
1001
AcAecLayerStandard
1000

1000

  0
LAYER
  5
AD68
102
{ACAD_XDICTIONARY
360
C285
102
}
330
2
100
AcDbSymbolTableRecord
100
AcDbLayerTableRecord
  2
AM_5
 70
     0
 62
     3
  6
寸法線
370
    13
390
F
1001
AcAecLayerStandard
1000

1000

  0
LAYER
  5
AD69
102
{ACAD_XDICTIONARY
360
C287
102
}
330
2
100
AcDbSymbolTableRecord
100
AcDbLayerTableRecord
  2
AM_7
 70
     0
 62
     4
  6
中心線1
370
    13
390
F
1001
AcAecLayerStandard
1000

1000

  0
LAYER
  5
AD6A
102
{ACAD_XDICTIONARY
360
C289
102
}
330
2
100
AcDbSymbolTableRecord
100
AcDbLayerTableRecord
  2
AM_8
 70
     0
 62
     1
  6
ハッチング
370
    13
390
F
1001
AcAecLayerStandard
1000

1000

  0
LAYER
  5
AD6E
102
{ACAD_XDICTIONARY
360
C28B
102
}
330
2
100
AcDbSymbolTableRecord
100
AcDbLayerTableRecord
  2
AM_10
 70
     0
 62
     7
  6
切断線
370
    13
390
F
1001
AcAecLayerStandard
1000

1000

  0
LAYER
  5
AD6F
102
{ACAD_XDICTIONARY
360
C28D
102
}
330
2
100
AcDbSymbolTableRecord
100
AcDbLayerTableRecord
  2
AM_11
 70
     0
 62
     2
  6
想像線1
370
    13
390
F
1001
AcAecLayerStandard
1000

1000

  0
LAYER
  5
B1B6
102
{ACAD_XDICTIONARY
360
C28F
102
}
330
2
100
AcDbSymbolTableRecord
100
AcDbLayerTableRecord
  2
AM_CL
 70
     0
 62
     1
  6
Amconstr
370
    15
390
F
1001
AcAecLayerStandard
1000

1000

  0
LAYER
  5
B2EB
102
{ACAD_XDICTIONARY
360
C291
102
}
330
2
100
AcDbSymbolTableRecord
100
AcDbLayerTableRecord
  2
AM_14
 70
     0
 62
     5
  6
細線
370
     9
390
F
1001
AcAecLayerStandard
1000

1000

  0
LAYER
  5
B2EC
102
{ACAD_XDICTIONARY
360
C293
102
}
330
2
100
AcDbSymbolTableRecord
100
AcDbLayerTableRecord
  2
AM_15
 70
     0
 62
     6
  6
陰線1
370
     9
390
F
1001
AcAecLayerStandard
1000

1000

  0
ENDTAB
  0
TABLE
  2
STYLE
  5
3
330
0
100
AcDbSymbolTable
 70
     8
  0
STYLE
  5
11
330
3
100
AcDbSymbolTableRecord
100
AcDbTextStyleTableRecord
  2
STANDARD
 70
     0
 40
0.0
 41
0.7
 50
0.0
 71
     0
 42
3.2
  3
romans.shx
  4
extfont.shx
  0
STYLE
  5
56
330
3
100
AcDbSymbolTableRecord
100
AcDbTextStyleTableRecord
  2

 70
     1
 40
0.0
 41
1.0
 50
0.0
 71
     0
 42
2.5
  3
ltypeshp.shx
  4

  0
STYLE
  5
58
330
3
100
AcDbSymbolTableRecord
100
AcDbTextStyleTableRecord
  2
ACISOTS
 70
     0
 40
1.0
 41
1.0
 50
0.0
 71
     0
 42
2.5
  3
isocp.shx
  4
extfont.shx
  0
STYLE
  5
63
330
3
100
AcDbSymbolTableRecord
100
AcDbTextStyleTableRecord
  2
ACISOGDT
 70
     0
 40
0.0
 41
1.0
 50
0.0
 71
     0
 42
2.5
  3
amgdt.shx
  4

  0
STYLE
  5
A74
330
3
100
AcDbSymbolTableRecord
100
AcDbTextStyleTableRecord
  2
DIM
 70
     0
 40
0.0
 41
1.0
 50
0.0
 71
     0
 42
2.5
  3
monotxt.shx
  4
extfont.shx
  0
STYLE
  5
AC80
330
3
100
AcDbSymbolTableRecord
100
AcDbTextStyleTableRecord
  2

 70
     1
 40
0.0
 41
1.0
 50
0.0
 71
     0
 42
3.2
  3
genltshp.shx
  4

  0
STYLE
  5
B7F1
330
3
100
AcDbSymbolTableRecord
100
AcDbTextStyleTableRecord
  2
ACANSTS
 70
     0
 40
1.0
 41
1.0
 50
0.0
 71
     0
 42
0.2
  3
romans.shx
  4
extfont.shx
  0
STYLE
  5
B7F2
330
3
100
AcDbSymbolTableRecord
100
AcDbTextStyleTableRecord
  2
ACANSGDT
 70
     0
 40
0.0
 41
1.0
 50
0.0
 71
     0
 42
0.2
  3
amgdt.shx
  4

  0
ENDTAB
  0
TABLE
  2
VIEW
  5
6
330
0
100
AcDbSymbolTable
 70
     6
  0
VIEW
  5
AE1
330
6
100
AcDbSymbolTableRecord
100
AcDbViewTableRecord
  2
AM_VIEW1
 70
     0
 40
148.5
 10
120.5689655172414
 20
222.75
 41
241.1379310344828
 11
0.0
 21
0.0
 31
1.0
 12
0.0
 22
0.0
 32
0.0
 42
50.0
 43
-1370.695619172058
 44
-1370.695619172058
 50
0.0
 71
     0
281
     0
 72
     0
  0
VIEW
  5
AE2
330
6
100
AcDbSymbolTableRecord
100
AcDbViewTableRecord
  2
AM_VIEW2
 70
     0
 40
148.5
 10
299.4310344827586
 20
222.75
 41
241.1379310344828
 11
0.0
 21
0.0
 31
1.0
 12
0.0
 22
0.0
 32
0.0
 42
50.0
 43
-1370.695619172058
 44
-1370.695619172058
 50
0.0
 71
     0
281
     0
 72
     0
  0
VIEW
  5
AE3
330
6
100
AcDbSymbolTableRecord
100
AcDbViewTableRecord
  2
AM_VIEW3
 70
     0
 40
148.5
 10
120.5689655172414
 20
74.25
 41
241.1379310344828
 11
0.0
 21
0.0
 31
1.0
 12
0.0
 22
0.0
 32
0.0
 42
50.0
 43
-1370.695619172058
 44
-1370.695619172058
 50
0.0
 71
     0
281
     0
 72
     0
  0
VIEW
  5
AE4
330
6
100
AcDbSymbolTableRecord
100
AcDbViewTableRecord
  2
AM_VIEW4
 70
     0
 40
148.5
 10
299.4310344827586
 20
74.25
 41
241.1379310344828
 11
0.0
 21
0.0
 31
1.0
 12
0.0
 22
0.0
 32
0.0
 42
50.0
 43
-1370.695619172058
 44
-1370.695619172058
 50
0.0
 71
     0
281
     0
 72
     0
  0
VIEW
  5
AE5
330
6
100
AcDbSymbolTableRecord
100
AcDbViewTableRecord
  2
AM_VIEW5
 70
     0
 40
148.5
 10
210.0
 20
148.5
 41
241.1379310344828
 11
0.0
 21
0.0
 31
1.0
 12
0.0
 22
0.0
 32
0.0
 42
50.0
 43
-1370.695619172058
 44
-1370.695619172058
 50
0.0
 71
     0
281
     0
 72
     0
  0
VIEW
  5
AE6
330
6
100
AcDbSymbolTableRecord
100
AcDbViewTableRecord
  2
AM_VIEW6
 70
     0
 40
296.99703
 10
210.0
 20
148.5
 41
482.2710393103448
 11
0.0
 21
0.0
 31
1.0
 12
0.0
 22
0.0
 32
0.0
 42
50.0
 43
-1370.695619172058
 44
-1370.695619172058
 50
0.0
 71
     0
281
     0
 72
     0
  0
ENDTAB
  0
TABLE
  2
UCS
  5
7
330
0
100
AcDbSymbolTable
 70
     0
  0
ENDTAB
  0
TABLE
  2
APPID
  5
9
330
0
100
AcDbSymbolTable
 70
    58
  0
APPID
  5
12
330
9
100
AcDbSymbolTableRecord
100
AcDbRegAppTableRecord
  2
ACAD
 70
     0
  0
APPID
  5
30
330
9
100
AcDbSymbolTableRecord
100
AcDbRegAppTableRecord
  2
MCAD_NO_VIS
 70
     0
  0
APPID
  5
31
330
9
100
AcDbSymbolTableRecord
100
AcDbRegAppTableRecord
  2
ACAD_TEMP_GRAPHIC
 70
     0
  0
APPID
  5
44
330
9
100
AcDbSymbolTableRecord
100
AcDbRegAppTableRecord
  2
ACATTRIBSERVICES
 70
     0
  0
APPID
  5
7A1
330
9
100
AcDbSymbolTableRecord
100
AcDbRegAppTableRecord
  2
GENIUS_GENDIMSH_14
 70
     0
  0
APPID
  5
A49
330
9
100
AcDbSymbolTableRecord
100
AcDbRegAppTableRecord
  2
GENIUS_GENREC_14
 70
     0
  0
APPID
  5
A4A
330
9
100
AcDbSymbolTableRecord
100
AcDbRegAppTableRecord
  2
GENIUS_GENOBJ-N-REC_13
 70
     0
  0
APPID
  5
A4B
330
9
100
AcDbSymbolTableRecord
100
AcDbRegAppTableRecord
  2
GENIUS_GENODEF_13
 70
     0
  0
APPID
  5
A4C
330
9
100
AcDbSymbolTableRecord
100
AcDbRegAppTableRecord
  2
DCO15
 70
     0
  0
APPID
  5
ADC
330
9
100
AcDbSymbolTableRecord
100
AcDbRegAppTableRecord
  2
GENIUS_GENOLIS_13
 70
     0
  0
APPID
  5
ADD
330
9
100
AcDbSymbolTableRecord
100
AcDbRegAppTableRecord
  2
GENIUS_GENOENT_13
 70
     0
  0
APPID
  5
ADE
330
9
100
AcDbSymbolTableRecord
100
AcDbRegAppTableRecord
  2
GENIUS_GENOBJ-N-TIT_13
 70
     0
  0
APPID
  5
ADF
330
9
100
AcDbSymbolTableRecord
100
AcDbRegAppTableRecord
  2
GENIUS_GENTITLE_13
 70
     0
  0
APPID
  5
AE0
330
9
100
AcDbSymbolTableRecord
100
AcDbRegAppTableRecord
  2
GENIUS_GENOREF_13
 70
     0
  0
APPID
  5
AE7
330
9
100
AcDbSymbolTableRecord
100
AcDbRegAppTableRecord
  2
GENIUS_GENSCREG_15
 70
     0
  0
APPID
  5
AE8
330
9
100
AcDbSymbolTableRecord
100
AcDbRegAppTableRecord
  2
GENIUS_GENOBJ-N-SDF_13
 70
     0
  0
APPID
  5
FAF
330
9
100
AcDbSymbolTableRecord
100
AcDbRegAppTableRecord
  2
GENIUS_GENBLLY_14
 70
     0
  0
APPID
  5
FB0
330
9
100
AcDbSymbolTableRecord
100
AcDbRegAppTableRecord
  2
GENIUS_GENTRA_14
 70
     0
  0
APPID
  5
1285
330
9
100
AcDbSymbolTableRecord
100
AcDbRegAppTableRecord
  2
GENIUS_GENDTOL_13
 70
     0
  0
APPID
  5
142D
330
9
100
AcDbSymbolTableRecord
100
AcDbRegAppTableRecord
  2
GENIUS_GENOBJ-N-CEN_13
 70
     0
  0
APPID
  5
1AB5
330
9
100
AcDbSymbolTableRecord
100
AcDbRegAppTableRecord
  2
GENIUS_GENOBJ-N-CRS_13
 70
     0
  0
APPID
  5
1B36
330
9
100
AcDbSymbolTableRecord
100
AcDbRegAppTableRecord
  2
GENIUS_GENOBJ-N-HTC_13
 70
     0
  0
APPID
  5
1B37
330
9
100
AcDbSymbolTableRecord
100
AcDbRegAppTableRecord
  2
GENIUS_GENHATCH_13
 70
     0
  0
APPID
  5
216D
330
9
100
AcDbSymbolTableRecord
100
AcDbRegAppTableRecord
  2
GENIUS_GENOBJ-N-FIL_13
 70
     0
  0
APPID
  5
2356
330
9
100
AcDbSymbolTableRecord
100
AcDbRegAppTableRecord
  2
GEVID990412420
 70
     0
  0
APPID
  5
2357
330
9
100
AcDbSymbolTableRecord
100
AcDbRegAppTableRecord
  2
GEVDC
 70
     0
  0
APPID
  5
2358
330
9
100
AcDbSymbolTableRecord
100
AcDbRegAppTableRecord
  2
GEVCON
 70
     0
  0
APPID
  5
235B
330
9
100
AcDbSymbolTableRecord
100
AcDbRegAppTableRecord
  2
GEVRADREF
 70
     0
  0
APPID
  5
2360
330
9
100
AcDbSymbolTableRecord
100
AcDbRegAppTableRecord
  2
GENIUS_GENBH_13
 70
     0
  0
APPID
  5
2362
330
9
100
AcDbSymbolTableRecord
100
AcDbRegAppTableRecord
  2
GENIUS_GENOBJ-NBEHI-BHF_13
 70
     0
  0
APPID
  5
2364
330
9
100
AcDbSymbolTableRecord
100
AcDbRegAppTableRecord
  2
GENIUS_GENOBJ-NBEHI-BHB_13
 70
     0
  0
APPID
  5
2379
330
9
100
AcDbSymbolTableRecord
100
AcDbRegAppTableRecord
  2
GENIUS_GENOBJ-F-SCPASSM_13
 70
     0
  0
APPID
  5
3D74
330
9
100
AcDbSymbolTableRecord
100
AcDbRegAppTableRecord
  2
GENIUS_GENDIM_13
 70
     0
  0
APPID
  5
3D76
330
9
100
AcDbSymbolTableRecord
100
AcDbRegAppTableRecord
  2
GENIUS_GE3DTOL_13
 70
     0
  0
APPID
  5
3D9C
330
9
100
AcDbSymbolTableRecord
100
AcDbRegAppTableRecord
  2
AD_DRAW
 70
     0
  0
APPID
  5
3DE8
330
9
100
AcDbSymbolTableRecord
100
AcDbRegAppTableRecord
  2
ASURF_PCURVE_APPNAME
 70
     0
  0
APPID
  5
3DED
330
9
100
AcDbSymbolTableRecord
100
AcDbRegAppTableRecord
  2
AMG_3D2D_5.0
 70
     0
  0
APPID
  5
3E1B
330
9
100
AcDbSymbolTableRecord
100
AcDbRegAppTableRecord
  2
DESIGNERASSEMBLIES
 70
     0
  0
APPID
  5
3E20
330
9
100
AcDbSymbolTableRecord
100
AcDbRegAppTableRecord
  2
ACADM_DIM_EDIT
 70
     0
  0
APPID
  5
3E21
330
9
100
AcDbSymbolTableRecord
100
AcDbRegAppTableRecord
  2
AMDT_DM_ADJ
 70
     0
  0
APPID
  5
4143
330
9
100
AcDbSymbolTableRecord
100
AcDbRegAppTableRecord
  2
GENIUS_GENFIL_13
 70
     0
  0
APPID
  5
4144
330
9
100
AcDbSymbolTableRecord
100
AcDbRegAppTableRecord
  2
GENIUS_GENOBJ-N-CHA_13
 70
     0
  0
APPID
  5
4E17
330
9
100
AcDbSymbolTableRecord
100
AcDbRegAppTableRecord
  2
GEVID1008153417
 70
     0
  0
APPID
  5
4E58
330
9
100
AcDbSymbolTableRecord
100
AcDbRegAppTableRecord
  2
GEVID1008153418
 70
     0
  0
APPID
  5
4E5E
330
9
100
AcDbSymbolTableRecord
100
AcDbRegAppTableRecord
  2
GEVID1008153419
 70
     0
  0
APPID
  5
4E64
330
9
100
AcDbSymbolTableRecord
100
AcDbRegAppTableRecord
  2
GEVID1008153420
 70
     0
  0
APPID
  5
4E75
330
9
100
AcDbSymbolTableRecord
100
AcDbRegAppTableRecord
  2
GEVID1008153421
 70
     0
  0
APPID
  5
4EB7
330
9
100
AcDbSymbolTableRecord
100
AcDbRegAppTableRecord
  2
GENIUS_AMGTXT_16
 70
     0
  0
APPID
  5
7645
330
9
100
AcDbSymbolTableRecord
100
AcDbRegAppTableRecord
  2
GENIUS_GENOBJ-N-DIM_13
 70
     0
  0
APPID
  5
AAD0
330
9
100
AcDbSymbolTableRecord
100
AcDbRegAppTableRecord
  2
ACAD_DSTYLE_DIMARC_LENGTH_SYMBOL
 70
     0
  0
APPID
  5
AAD1
330
9
100
AcDbSymbolTableRecord
100
AcDbRegAppTableRecord
  2
ACAD_DSTYLE_DIMJOGGED_JOGANGLE_SYMBOL
 70
     0
  0
APPID
  5
AAFD
330
9
100
AcDbSymbolTableRecord
100
AcDbRegAppTableRecord
  2
ACAD_PSEXT
 70
     0
  0
APPID
  5
AD61
330
9
100
AcDbSymbolTableRecord
100
AcDbRegAppTableRecord
  2
AcAecLayerStandard
 70
     0
  0
APPID
  5
AEE3
330
9
100
AcDbSymbolTableRecord
100
AcDbRegAppTableRecord
  2
ACAD_EXEMPT_FROM_CAD_STANDARDS
 70
     0
  0
APPID
  5
B1BE
330
9
100
AcDbSymbolTableRecord
100
AcDbRegAppTableRecord
  2
GENIUS_GENCEN_19
 70
     0
  0
APPID
  5
B597
330
9
100
AcDbSymbolTableRecord
100
AcDbRegAppTableRecord
  2
ACAD_MLEADERVER
 70
     0
  0
APPID
  5
BBD6
330
9
100
AcDbSymbolTableRecord
100
AcDbRegAppTableRecord
  2
ACAD_DSTYLE_DIMINSPECT
 70
     0
  0
APPID
  5
BE09
330
9
100
AcDbSymbolTableRecord
100
AcDbRegAppTableRecord
  2
ACAD_DSTYLE_DIMRADIAL_EXTENSION
 70
     0
  0
ENDTAB
  0
TABLE
  2
DIMSTYLE
  5
A
330
0
100
AcDbSymbolTable
 70
    24
100
AcDbDimStyleTable
 71
     1
340
2515
  0
DIMSTYLE
105
A76
330
A
100
AcDbSymbolTableRecord
100
AcDbDimStyleTableRecord
  2
STANDARD
 70
     0
 41
3.0
 42
1.0
 43
7.0
 44
2.0
 73
     0
 74
     0
 77
     1
140
2.799999999999999
141
0.0
143
0.0394
147
0.7
171
     4
172
     1
173
     1
176
     3
177
     3
178
     2
271
     3
272
     3
273
     8
274
     4
289
     0
340
A74
341
A66
343
A66
344
A66
  0
DIMSTYLE
105
2515
330
A
100
AcDbSymbolTableRecord
100
AcDbDimStyleTableRecord
  2
SYS
 70
     0
  4
"
 41
1.0
 42
1.0
 43
10.0
 44
1.0
 47
0.1
 48
0.1
 73
     0
 74
     0
 77
     1
 78
     8
 79
     2
140
3.5
141
0.0
143
0.0393701
146
0.71
147
1.5
172
     1
176
   256
177
   256
178
     7
271
     2
272
     2
283
     0
284
     8
340
11
371
    -1
372
    -1
1001
ACAD_DSTYLE_DIMJOGGED_JOGANGLE_SYMBOL
1070
   384
1040
0.7853981633974483
1001
ACAD_DSTYLE_DIMARC_LENGTH_SYMBOL
1070
   379
1070
     1
  0
DIMSTYLE
105
2516
330
A
100
AcDbSymbolTableRecord
100
AcDbDimStyleTableRecord
  2
SYS$3
 70
     0
  4
"
 41
2.0
 42
1.0
 43
10.0
 44
1.0
 47
0.1
 48
0.1
 73
     0
 77
     1
 78
     8
 79
     2
140
3.5
141
0.0
143
0.0393701
146
0.71
147
1.5
176
   256
177
   256
178
     2
271
     2
272
     2
283
     0
284
     8
288
     1
340
11
342
A66
371
    -1
372
    -1
1001
ACAD_DSTYLE_DIMJOGGED_JOGANGLE_SYMBOL
1070
   384
1040
0.7853981633974483
1001
ACAD_DSTYLE_DIMARC_LENGTH_SYMBOL
1070
   379
1070
     1
  0
DIMSTYLE
105
2517
330
A
100
AcDbSymbolTableRecord
100
AcDbDimStyleTableRecord
  2
SYS$4
 70
     0
  4
"
 41
2.0
 42
1.0
 43
10.0
 44
1.0
 47
0.1
 48
0.1
 73
     0
 77
     1
 78
     8
 79
     2
140
3.5
141
0.0
143
0.0393701
146
0.71
147
1.5
173
     1
176
   256
177
   256
178
     2
271
     2
272
     2
283
     0
284
     8
288
     1
340
11
344
A66
371
    -1
372
    -1
1001
ACAD_DSTYLE_DIMJOGGED_JOGANGLE_SYMBOL
1070
   384
1040
0.7853981633974483
1001
ACAD_DSTYLE_DIMARC_LENGTH_SYMBOL
1070
   379
1070
     1
  0
DIMSTYLE
105
2518
330
A
100
AcDbSymbolTableRecord
100
AcDbDimStyleTableRecord
  2
SYS$6
 70
     0
  4
"
 41
2.0
 42
1.0
 43
10.0
 44
1.0
 47
0.1
 48
0.1
 73
     0
 74
     0
 78
     8
 79
     2
140
3.5
141
0.0
143
0.0393701
146
0.71
147
1.5
172
     1
176
   256
177
   256
178
     2
271
     2
272
     2
283
     0
284
     8
340
11
341
A66
371
    -1
372
    -1
1001
ACAD_DSTYLE_DIMJOGGED_JOGANGLE_SYMBOL
1070
   384
1040
0.7853981633974483
1001
ACAD_DSTYLE_DIMARC_LENGTH_SYMBOL
1070
   379
1070
     1
  0
DIMSTYLE
105
2519
330
A
100
AcDbSymbolTableRecord
100
AcDbDimStyleTableRecord
  2
SYS$7
 70
     0
  4
"
 41
2.0
 42
1.0
 43
10.0
 44
1.0
 47
0.1
 48
0.1
 73
     0
 74
     0
 77
     1
 78
     8
 79
     2
140
5.0
141
0.0
143
0.0393701
146
0.71
147
1.5
172
     1
176
   256
177
   256
178
     2
271
     2
272
     2
283
     0
284
     8
340
11
341
A66
342
A66
371
    -1
372
    -1
1001
ACAD_DSTYLE_DIMJOGGED_JOGANGLE_SYMBOL
1070
   384
1040
0.7853981633974483
1001
ACAD_DSTYLE_DIMARC_LENGTH_SYMBOL
1070
   379
1070
     1
  0
DIMSTYLE
105
251A
330
A
100
AcDbSymbolTableRecord
100
AcDbDimStyleTableRecord
  2
SYS$SF
 70
     0
  4
"
 41
2.5
 42
1.0
 43
10.0
 44
1.0
 47
0.1
 48
0.1
 73
     0
 74
     0
 75
     1
 76
     1
 77
     1
 78
     8
 79
     2
140
3.5
141
0.0
143
0.0393701
146
0.71
147
1.5
172
     1
176
   256
177
   256
178
     2
271
     2
272
     3
283
     0
284
     8
340
11
341
6C4
342
6C4
371
    -1
372
    -1
1001
ACAD_DSTYLE_DIMJOGGED_JOGANGLE_SYMBOL
1070
   384
1040
0.7853981633974483
1001
ACAD_DSTYLE_DIMARC_LENGTH_SYMBOL
1070
   379
1070
     1
  0
DIMSTYLE
105
251B
330
A
100
AcDbSymbolTableRecord
100
AcDbDimStyleTableRecord
  2
SYS$SH
 70
     0
  4
"
 41
2.5
 42
1.0
 43
10.0
 44
1.0
 47
0.1
 48
0.1
 73
     0
 74
     0
 75
     1
 76
     1
 77
     1
 78
     8
 79
     2
140
3.5
141
0.0
143
0.0393701
144
2.0
146
0.71
147
1.5
172
     1
173
     1
176
   256
177
   256
178
     2
271
     2
272
     3
283
     0
284
     8
340
11
341
6C4
343
72
344
6C4
371
    -1
372
    -1
1001
ACAD_DSTYLE_DIMJOGGED_JOGANGLE_SYMBOL
1070
   384
1040
0.7853981633974483
1001
ACAD_DSTYLE_DIMARC_LENGTH_SYMBOL
1070
   379
1070
     1
  0
DIMSTYLE
105
2A59
102
{ACAD_REACTORS
330
125F1
330
125F2
102
}
330
A
100
AcDbSymbolTableRecord
100
AcDbDimStyleTableRecord
  2
SYS$2
 70
     0
  4
"
 41
1.0
 42
1.0
 43
10.0
 44
1.0
 47
0.1
 48
0.1
 73
     0
 74
     0
 77
     1
 78
     8
 79
     2
140
3.5
141
0.0
143
0.0393701
146
0.71
147
1.5
172
     1
176
   256
177
   256
178
     2
271
     2
272
     2
283
     0
284
     8
340
11
342
6C4
371
    -1
372
    -1
1001
ACAD_DSTYLE_DIMJOGGED_JOGANGLE_SYMBOL
1070
   384
1040
0.7853981633974483
1001
ACAD_DSTYLE_DIMARC_LENGTH_SYMBOL
1070
   379
1070
     1
  0
DIMSTYLE
105
2AAB
102
{ACAD_REACTORS
330
11D9F
330
11DE6
330
11F5E
330
11FBB
330
123F8
330
12420
330
1243F
330
12467
330
1248F
330
124AE
330
124F7
330
12527
330
1255A
102
}
330
A
100
AcDbSymbolTableRecord
100
AcDbDimStyleTableRecord
  2
SYS$0
 70
     0
  4
"
 41
1.0
 42
1.0
 43
10.0
 44
1.0
 47
0.1
 48
0.1
 73
     0
 74
     0
 77
     1
 78
     8
 79
     2
140
3.200000000000001
141
0.0
143
0.0393701
146
0.71
147
1.5
172
     1
176
   256
177
   256
178
     2
271
     2
272
     2
283
     0
284
     8
340
11
341
A66
342
6C4
371
    -1
372
    -1
1001
ACAD_DSTYLE_DIMJOGGED_JOGANGLE_SYMBOL
1070
   384
1040
0.7853981633974483
1001
ACAD_DSTYLE_DIMARC_LENGTH_SYMBOL
1070
   379
1070
     1
  0
DIMSTYLE
105
AF99
330
A
100
AcDbSymbolTableRecord
100
AcDbDimStyleTableRecord
  2
AM_ISO
 70
     0
  4
"
 41
2.5
 42
1.0
 43
10.0
 44
1.0
 47
0.1
 48
0.1
 73
     0
 74
     0
 77
     1
 78
     8
 79
     2
140
3.5
141
0.0
143
0.0393701
146
0.71
147
1.5
172
     1
176
   256
177
   256
178
     2
271
     2
272
     3
274
     4
283
     0
284
     8
340
11
371
    -1
372
    -1
  0
DIMSTYLE
105
AF9A
330
A
100
AcDbSymbolTableRecord
100
AcDbDimStyleTableRecord
  2
AM_ISO$3
 70
     0
  4
"
 41
2.5
 42
1.0
 43
10.0
 44
1.0
 47
0.1
 48
0.1
 73
     0
 77
     1
 78
     8
 79
     2
140
3.5
141
0.0
143
0.0393701
146
0.71
147
1.5
176
   256
177
   256
178
     2
271
     2
272
     3
274
     4
283
     0
284
     8
288
     1
289
     0
340
11
371
    -1
372
    -1
  0
DIMSTYLE
105
AF9B
330
A
100
AcDbSymbolTableRecord
100
AcDbDimStyleTableRecord
  2
AM_ISO$4
 70
     0
  4
"
 41
2.5
 42
1.0
 43
10.0
 44
1.0
 47
0.1
 48
0.1
 73
     0
 77
     1
 78
     8
 79
     2
140
3.5
141
0.0
143
0.0393701
146
0.71
147
1.5
176
   256
177
   256
178
     2
271
     2
272
     3
274
     4
283
     0
284
     8
288
     1
289
     0
340
11
371
    -1
372
    -1
  0
DIMSTYLE
105
AF9C
330
A
100
AcDbSymbolTableRecord
100
AcDbDimStyleTableRecord
  2
AM_ISO$6
 70
     0
  4
"
 41
2.5
 42
1.0
 43
10.0
 44
1.0
 47
0.1
 48
0.1
 73
     0
 74
     0
 78
     8
 79
     2
140
3.5
141
0.0
143
0.0393701
146
0.71
147
1.5
172
     1
176
   256
177
   256
178
     2
271
     2
272
     3
274
     4
283
     0
284
     8
340
11
371
    -1
372
    -1
  0
DIMSTYLE
105
AF9D
330
A
100
AcDbSymbolTableRecord
100
AcDbDimStyleTableRecord
  2
AM_ISO$7
 70
     0
  4
"
 41
2.5
 42
1.0
 43
10.0
 44
1.0
 47
0.1
 48
0.1
 73
     0
 74
     0
 77
     1
 78
     8
 79
     2
140
5.0
141
0.0
143
0.0393701
146
0.71
147
1.5
172
     1
176
   256
177
   256
178
     2
271
     2
272
     3
274
     4
283
     0
284
     8
340
11
371
    -1
372
    -1
  0
DIMSTYLE
105
AF9E
330
A
100
AcDbSymbolTableRecord
100
AcDbDimStyleTableRecord
  2
AM_ISO$SF
 70
     0
  4
"
 41
2.5
 42
1.0
 43
10.0
 44
1.0
 47
0.1
 48
0.1
 73
     0
 74
     0
 75
     1
 76
     1
 77
     1
 78
     8
 79
     2
140
3.5
141
0.0
143
0.0393701
146
0.71
147
1.5
172
     1
176
   256
177
   256
178
     2
271
     2
272
     3
274
     4
283
     0
284
     8
340
11
371
    -1
372
    -1
  0
DIMSTYLE
105
AF9F
330
A
100
AcDbSymbolTableRecord
100
AcDbDimStyleTableRecord
  2
AM_ISO$SH
 70
     0
  4
"
 41
2.5
 42
1.0
 43
10.0
 44
1.0
 47
0.1
 48
0.1
 73
     0
 74
     0
 75
     1
 76
     1
 77
     1
 78
     8
 79
     2
140
3.5
141
0.0
143
0.0393701
144
2.0
146
0.71
147
1.5
172
     1
173
     1
176
   256
177
   256
178
     2
271
     2
272
     3
274
     4
283
     0
284
     8
340
11
343
72
371
    -1
372
    -1
  0
DIMSTYLE
105
B7F3
330
A
100
AcDbSymbolTableRecord
100
AcDbDimStyleTableRecord
  2
AM_ANSI
 70
     0
  4
mm
 41
0.1
 42
0.05
 43
0.5
 44
0.1
 47
0.1
 48
0.1
 78
     7
140
0.12
141
0.0
146
0.71
147
0.06
176
   256
177
   256
178
     2
271
     2
272
     2
279
     2
284
     8
285
     8
286
     8
340
11
  0
DIMSTYLE
105
B7F4
330
A
100
AcDbSymbolTableRecord
100
AcDbDimStyleTableRecord
  2
AM_ANSI$3
 70
     0
  4
mm
 41
0.1
 42
0.05
 43
0.5
 44
0.1
 47
0.1
 48
0.1
 78
     7
140
0.12
141
0.0
146
0.71
147
0.06
176
   256
177
   256
178
     2
271
     2
272
     2
279
     2
284
     8
285
     8
286
     8
340
11
  0
DIMSTYLE
105
B7F5
330
A
100
AcDbSymbolTableRecord
100
AcDbDimStyleTableRecord
  2
AM_ANSI$4
 70
     0
  4
mm
 41
0.1
 42
0.05
 43
0.5
 44
0.1
 47
0.1
 48
0.1
 78
     7
140
0.12
141
0.0
146
0.71
147
0.06
176
   256
177
   256
178
     2
271
     2
272
     2
279
     2
284
     8
285
     8
286
     8
340
11
  0
DIMSTYLE
105
B7F6
330
A
100
AcDbSymbolTableRecord
100
AcDbDimStyleTableRecord
  2
AM_ANSI$7
 70
     0
  4
mm
 41
0.1
 42
0.05
 43
0.5
 44
0.1
 47
0.1
 48
0.1
 78
     7
140
0.24
141
0.0
146
0.71
147
0.06
176
   256
177
   256
178
     2
271
     2
272
     2
279
     2
284
     8
285
     8
286
     8
340
11
  0
DIMSTYLE
105
B7F7
330
A
100
AcDbSymbolTableRecord
100
AcDbDimStyleTableRecord
  2
AM_ANSI$SF
 70
     0
  4
mm
 41
0.1
 42
0.05
 43
0.5
 44
0.1
 47
0.1
 48
0.1
 75
     1
 76
     1
 78
     7
140
0.12
141
0.0
146
0.71
147
0.06
176
   256
177
   256
178
     2
271
     2
272
     2
279
     2
284
     8
285
     8
286
     8
340
11
  0
DIMSTYLE
105
B7F8
330
A
100
AcDbSymbolTableRecord
100
AcDbDimStyleTableRecord
  2
AM_ANSI$SH
 70
     0
  4
mm
 41
0.1
 42
0.05
 43
0.5
 44
0.1
 47
0.1
 48
0.1
 75
     1
 76
     1
 78
     7
140
0.12
141
0.0
146
0.71
147
0.06
173
     1
176
   256
177
   256
178
     2
271
     2
272
     2
279
     2
284
     8
285
     8
286
     8
340
11
  0
DIMSTYLE
105
C64A
330
A
100
AcDbSymbolTableRecord
100
AcDbDimStyleTableRecord
  2
DIMSTYLE
 70
     0
 41
1.0
 42
2.54
 44
2.54
 73
     0
 74
     0
140
3.2
147
1.6
173
     1
279
     2
340
11
  0
ENDTAB
  0
TABLE
  2
BLOCK_RECORD
  5
1
330
0
100
AcDbSymbolTable
 70
    27
  0
BLOCK_RECORD
  5
1F
102
{ACAD_XDICTIONARY
360
8A
102
}
330
1
100
AcDbSymbolTableRecord
100
AcDbBlockTableRecord
  2
*Model_Space
340
22
  0
BLOCK_RECORD
  5
1B
330
1
100
AcDbSymbolTableRecord
100
AcDbBlockTableRecord
  2
*Paper_Space
340
1E
  0
BLOCK_RECORD
  5
23
330
1
100
AcDbSymbolTableRecord
100
AcDbBlockTableRecord
  2
*Paper_Space0
340
26
  0
BLOCK_RECORD
  5
72
330
1
100
AcDbSymbolTableRecord
100
AcDbBlockTableRecord
  2
GENAXEH
340
0
  0
BLOCK_RECORD
  5
6C4
330
1
100
AcDbSymbolTableRecord
100
AcDbBlockTableRecord
  2
_Dot
340
0
102
{BLKREFS
331
12215
331
12216
331
1221E
331
1221F
331
12278
331
12279
331
12439
331
1243A
331
12489
331
1248A
331
124A8
331
124A9
331
124C7
331
124C8
331
12549
331
1254A
331
12553
331
12554
331
125AF
331
125B0
331
1263A
331
1263B
331
12738
331
12739
331
12743
331
12744
102
}
  0
BLOCK_RECORD
  5
A66
330
1
100
AcDbSymbolTableRecord
100
AcDbBlockTableRecord
  2
_OPEN30
340
0
102
{BLKREFS
331
125F7
331
12601
102
}
  0
BLOCK_RECORD
  5
B7D8
330
1
100
AcDbSymbolTableRecord
100
AcDbBlockTableRecord
  2
*U5
340
0
102
{BLKREFS
331
12164
102
}
  0
BLOCK_RECORD
  5
B7DC
330
1
100
AcDbSymbolTableRecord
100
AcDbBlockTableRecord
  2
*U6
340
0
102
{BLKREFS
331
12165
102
}
  0
BLOCK_RECORD
  5
B7E0
330
1
100
AcDbSymbolTableRecord
100
AcDbBlockTableRecord
  2
*U7
340
0
102
{BLKREFS
331
12166
102
}
  0
BLOCK_RECORD
  5
B7E4
330
1
100
AcDbSymbolTableRecord
100
AcDbBlockTableRecord
  2
*U8
340
0
102
{BLKREFS
331
12167
102
}
  0
BLOCK_RECORD
  5
B7E8
330
1
100
AcDbSymbolTableRecord
100
AcDbBlockTableRecord
  2
*U9
340
0
102
{BLKREFS
331
12168
102
}
  0
BLOCK_RECORD
  5
11DA0
330
1
100
AcDbSymbolTableRecord
100
AcDbBlockTableRecord
  2
*D10
340
0
  0
BLOCK_RECORD
  5
11DE7
330
1
100
AcDbSymbolTableRecord
100
AcDbBlockTableRecord
  2
*D11
340
0
  0
BLOCK_RECORD
  5
11F5F
330
1
100
AcDbSymbolTableRecord
100
AcDbBlockTableRecord
  2
*D12
340
0
  0
BLOCK_RECORD
  5
11FBC
330
1
100
AcDbSymbolTableRecord
100
AcDbBlockTableRecord
  2
*D13
340
0
  0
BLOCK_RECORD
  5
122CA
330
1
100
AcDbSymbolTableRecord
100
AcDbBlockTableRecord
  2
_None
340
0
  0
BLOCK_RECORD
  5
123F9
330
1
100
AcDbSymbolTableRecord
100
AcDbBlockTableRecord
  2
*D15
340
0
  0
BLOCK_RECORD
  5
12421
330
1
100
AcDbSymbolTableRecord
100
AcDbBlockTableRecord
  2
*D16
340
0
  0
BLOCK_RECORD
  5
12440
330
1
100
AcDbSymbolTableRecord
100
AcDbBlockTableRecord
  2
*D17
340
0
  0
BLOCK_RECORD
  5
12468
330
1
100
AcDbSymbolTableRecord
100
AcDbBlockTableRecord
  2
*D18
340
0
  0
BLOCK_RECORD
  5
12490
330
1
100
AcDbSymbolTableRecord
100
AcDbBlockTableRecord
  2
*D19
340
0
  0
BLOCK_RECORD
  5
124AF
330
1
100
AcDbSymbolTableRecord
100
AcDbBlockTableRecord
  2
*D20
340
0
  0
BLOCK_RECORD
  5
124F8
330
1
100
AcDbSymbolTableRecord
100
AcDbBlockTableRecord
  2
*D21
340
0
  0
BLOCK_RECORD
  5
12528
330
1
100
AcDbSymbolTableRecord
100
AcDbBlockTableRecord
  2
*D22
340
0
  0
BLOCK_RECORD
  5
1255B
330
1
100
AcDbSymbolTableRecord
100
AcDbBlockTableRecord
  2
*D23
340
0
  0
BLOCK_RECORD
  5
125F3
330
1
100
AcDbSymbolTableRecord
100
AcDbBlockTableRecord
  2
*D24
340
0
  0
BLOCK_RECORD
  5
125FD
330
1
100
AcDbSymbolTableRecord
100
AcDbBlockTableRecord
  2
*D25
340
0
  0
ENDTAB
  0
ENDSEC
  0
SECTION
  2
BLOCKS
  0
BLOCK
  5
20
330
1F
100
AcDbEntity
  8
0
100
AcDbBlockBegin
  2
*Model_Space
 70
     0
 10
0.0
 20
0.0
 30
0.0
  3
*Model_Space
  1

  0
ENDBLK
  5
21
330
1F
100
AcDbEntity
  8
0
100
AcDbBlockEnd
  0
BLOCK
  5
1C
330
1B
100
AcDbEntity
 67
     1
  8
0
100
AcDbBlockBegin
  2
*Paper_Space
 70
     0
 10
0.0
 20
0.0
 30
0.0
  3
*Paper_Space
  1

  0
ENDBLK
  5
1D
330
1B
100
AcDbEntity
 67
     1
  8
0
100
AcDbBlockEnd
  0
BLOCK
  5
24
330
23
100
AcDbEntity
 67
     1
  8
0
100
AcDbBlockBegin
  2
*Paper_Space0
 70
     0
 10
0.0
 20
0.0
 30
0.0
  3
*Paper_Space0
  1

  0
ENDBLK
  5
25
330
23
100
AcDbEntity
 67
     1
  8
0
100
AcDbBlockEnd
  0
BLOCK
  5
74
330
72
100
AcDbEntity
  8
0
100
AcDbBlockBegin
  2
GENAXEH
 70
     0
 10
0.0
 20
0.0
 30
0.0
  3
GENAXEH
  1

  0
LINE
  5
73
330
72
100
AcDbEntity
  8
0
100
AcDbLine
 10
-1.0
 20
0.0
 30
0.0
 11
1.0
 21
0.0
 31
0.0
  0
ENDBLK
  5
75
330
72
100
AcDbEntity
  8
0
100
AcDbBlockEnd
  0
BLOCK
  5
6C7
330
6C4
100
AcDbEntity
  8
0
100
AcDbBlockBegin
  2
_Dot
 70
     0
 10
0.0
 20
0.0
 30
0.0
  3
_Dot
  1

  0
LWPOLYLINE
  5
6C5
330
6C4
100
AcDbEntity
  8
0
  6
ByBlock
 62
     0
100
AcDbPolyline
 90
        2
 70
     1
 43
0.5
 10
-0.25
 20
0.0
 42
1.0
 10
0.25
 20
0.0
 42
1.0
  0
LINE
  5
6C6
330
6C4
100
AcDbEntity
  8
0
  6
ByBlock
 62
     0
370
    -2
100
AcDbLine
 10
-0.5
 20
0.0
 30
0.0
 11
-1.0
 21
0.0
 31
0.0
  0
ENDBLK
  5
6C8
330
6C4
100
AcDbEntity
  8
0
100
AcDbBlockEnd
  0
BLOCK
  5
A6A
330
A66
100
AcDbEntity
  8
0
100
AcDbBlockBegin
  2
_OPEN30
 70
     0
 10
0.0
 20
0.0
 30
0.0
  3
_OPEN30
  1

  0
LINE
  5
A67
330
A66
100
AcDbEntity
  8
0
  6
ByBlock
 62
     0
100
AcDbLine
 10
-1.0
 20
0.26794919
 30
0.0
 11
0.0
 21
0.0
 31
0.0
  0
LINE
  5
A68
330
A66
100
AcDbEntity
  8
0
  6
ByBlock
 62
     0
100
AcDbLine
 10
0.0
 20
0.0
 30
0.0
 11
-1.0
 21
-0.26794919
 31
0.0
  0
LINE
  5
A69
330
A66
100
AcDbEntity
  8
0
  6
ByBlock
 62
     0
100
AcDbLine
 10
0.0
 20
0.0
 30
0.0
 11
-1.0
 21
0.0
 31
0.0
  0
ENDBLK
  5
A6B
330
A66
100
AcDbEntity
  8
0
100
AcDbBlockEnd
  0
BLOCK
  5
B7D9
330
B7D8
100
AcDbEntity
  8
0
100
AcDbBlockBegin
  2
*U5
 70
     1
 10
0.0
 20
0.0
 30
0.0
  3
*U5
  1

  0
TEXT
  5
B7DA
330
B7D8
100
AcDbEntity
  8
AM_6
100
AcDbText
 10
-146.9595761299034
 20
12.814413070678
 30
0.0
 40
4.0
  1
丁番吊グレビティヒンジ　左右勝手決定方法
 41
0.7
100
AcDbText
  0
ENDBLK
  5
B7DB
330
B7D8
100
AcDbEntity
  8
0
100
AcDbBlockEnd
  0
BLOCK
  5
B7DD
330
B7DC
100
AcDbEntity
  8
0
100
AcDbBlockBegin
  2
*U6
 70
     1
 10
0.0
 20
0.0
 30
0.0
  3
*U6
  1

  0
TEXT
  5
B7DE
330
B7DC
100
AcDbEntity
  8
AM_6
100
AcDbText
 10
-188.7465061545315
 20
5.224999809265102
 30
0.0
 40
3.2
  1
左勝手
 41
0.7
100
AcDbText
  0
ENDBLK
  5
B7DF
330
B7DC
100
AcDbEntity
  8
0
100
AcDbBlockEnd
  0
BLOCK
  5
B7E1
330
B7E0
100
AcDbEntity
  8
0
100
AcDbBlockBegin
  2
*U7
 70
     1
 10
0.0
 20
0.0
 30
0.0
  3
*U7
  1

  0
TEXT
  5
B7E2
330
B7E0
100
AcDbEntity
  8
AM_6
100
AcDbText
 10
-35.28690189123155
 20
5.224999809265102
 30
0.0
 40
3.2
  1
右勝手
 41
0.7
100
AcDbText
  0
ENDBLK
  5
B7E3
330
B7E0
100
AcDbEntity
  8
0
100
AcDbBlockEnd
  0
BLOCK
  5
B7E5
330
B7E4
100
AcDbEntity
  8
0
100
AcDbBlockBegin
  2
*U8
 70
     1
 10
0.0
 20
0.0
 30
0.0
  3
*U8
  1

  0
TEXT
  5
B7E6
330
B7E4
100
AcDbEntity
  8
AM_6
100
AcDbText
 10
-169.6167096495581
 20
-41.49290380477855
 30
0.0
 40
3.2
  1
ドアを押す側から見た時に吊元が左側（右側）の場合は左勝手（右勝手）となります。
 41
0.7
100
AcDbText
  0
ENDBLK
  5
B7E7
330
B7E4
100
AcDbEntity
  8
0
100
AcDbBlockEnd
  0
BLOCK
  5
B7E9
330
B7E8
100
AcDbEntity
  8
0
100
AcDbBlockBegin
  2
*U9
 70
     1
 10
0.0
 20
0.0
 30
0.0
  3
*U9
  1

  0
TEXT
  5
B7EA
330
B7E8
100
AcDbEntity
  8
AM_6
100
AcDbText
 10
-137.6167091727211
 20
-46.29290399551344
 30
0.0
 40
3.2
  1
（通常の丁番の勝手とは逆になります。）
 41
0.7
100
AcDbText
  0
ENDBLK
  5
B7EB
330
B7E8
100
AcDbEntity
  8
0
100
AcDbBlockEnd
  0
BLOCK
  5
11DA1
330
11DA0
100
AcDbEntity
  8
0
100
AcDbBlockBegin
  2
*D10
 70
     1
 10
0.0
 20
0.0
 30
0.0
  3
*D10
  1

  0
LINE
  5
12212
330
11DA0
100
AcDbEntity
  8
AM_5
100
AcDbLine
 10
292.6101281598601
 20
171.8590715969409
 30
0.0
 11
292.6101281598601
 21
180.8590726069409
 31
0.0
  0
LINE
  5
12213
330
11DA0
100
AcDbEntity
  8
AM_5
100
AcDbLine
 10
263.6101281598601
 20
138.8590715969409
 30
0.0
 11
263.6101281598601
 21
180.8590726069409
 31
0.0
  0
LINE
  5
12214
330
11DA0
100
AcDbEntity
  8
AM_5
100
AcDbLine
 10
291.6101281598601
 20
179.8590726069409
 30
0.0
 11
264.6101281598601
 21
179.8590726069409
 31
0.0
  0
INSERT
  5
12215
330
11DA0
100
AcDbEntity
  8
AM_5
100
AcDbBlockReference
  2
_Dot
 10
292.6101281598601
 20
179.8590726069409
 30
0.0
  0
INSERT
  5
12216
330
11DA0
100
AcDbEntity
  8
AM_5
100
AcDbBlockReference
  2
_Dot
 10
263.6101281598601
 20
179.8590726069409
 30
0.0
 50
180.0
  0
MTEXT
  5
12217
330
11DA0
100
AcDbEntity
  8
AM_5
 62
     2
100
AcDbMText
 10
278.1101281598601
 20
182.9590726069409
 30
0.0
 40
3.200000000000001
 41
0.0
 71
     5
 72
     1
  1
29
 73
     1
 44
1.0
  0
POINT
  5
12218
330
11DA0
100
AcDbEntity
  8
Defpoints
 62
     0
100
AcDbPoint
 10
292.6101281598601
 20
170.8590715969409
 30
0.0
  0
POINT
  5
12219
330
11DA0
100
AcDbEntity
  8
Defpoints
 62
     0
100
AcDbPoint
 10
263.6101281598601
 20
137.8590715969409
 30
0.0
  0
POINT
  5
1221A
330
11DA0
100
AcDbEntity
  8
Defpoints
 62
     0
100
AcDbPoint
 10
263.6101281598601
 20
179.8590726069409
 30
0.0
  0
ENDBLK
  5
11DA2
330
11DA0
100
AcDbEntity
  8
0
100
AcDbBlockEnd
  0
BLOCK
  5
11DE8
330
11DE7
100
AcDbEntity
  8
0
100
AcDbBlockBegin
  2
*D11
 70
     1
 10
0.0
 20
0.0
 30
0.0
  3
*D11
  1

  0
LINE
  5
1221B
330
11DE7
100
AcDbEntity
  8
AM_5
100
AcDbLine
 10
254.6101281598601
 20
162.8590715969409
 30
0.0
 11
254.6101281598601
 21
180.8590726069404
 31
0.0
  0
LINE
  5
1221C
330
11DE7
100
AcDbEntity
  8
AM_5
100
AcDbLine
 10
263.6101281598601
 20
138.8590715969409
 30
0.0
 11
263.6101281598601
 21
180.8590726069404
 31
0.0
  0
LINE
  5
1221D
330
11DE7
100
AcDbEntity
  8
AM_5
100
AcDbLine
 10
255.6101281598601
 20
179.8590726069404
 30
0.0
 11
262.6101281598601
 21
179.8590726069404
 31
0.0
  0
INSERT
  5
1221E
330
11DE7
100
AcDbEntity
  8
AM_5
100
AcDbBlockReference
  2
_Dot
 10
254.6101281598601
 20
179.8590726069404
 30
0.0
 50
180.0
  0
INSERT
  5
1221F
330
11DE7
100
AcDbEntity
  8
AM_5
100
AcDbBlockReference
  2
_Dot
 10
263.6101281598601
 20
179.8590726069404
 30
0.0
  0
MTEXT
  5
12220
330
11DE7
100
AcDbEntity
  8
AM_5
 62
     2
100
AcDbMText
 10
259.1101281598601
 20
182.9590726069404
 30
0.0
 40
3.200000000000001
 41
0.0
 71
     5
 72
     1
  1
9
 73
     1
 44
1.0
  0
POINT
  5
12221
330
11DE7
100
AcDbEntity
  8
Defpoints
 62
     0
100
AcDbPoint
 10
254.6101281598601
 20
161.8590715969409
 30
0.0
  0
POINT
  5
12222
330
11DE7
100
AcDbEntity
  8
Defpoints
 62
     0
100
AcDbPoint
 10
263.6101281598601
 20
137.8590715969409
 30
0.0
  0
POINT
  5
12223
330
11DE7
100
AcDbEntity
  8
Defpoints
 62
     0
100
AcDbPoint
 10
263.6101281598601
 20
179.8590726069404
 30
0.0
  0
ENDBLK
  5
11DE9
330
11DE7
100
AcDbEntity
  8
0
100
AcDbBlockEnd
  0
BLOCK
  5
11F60
330
11F5F
100
AcDbEntity
  8
0
100
AcDbBlockBegin
  2
*D12
 70
     1
 10
0.0
 20
0.0
 30
0.0
  3
*D12
  1

  0
LINE
  5
12275
330
11F5F
100
AcDbEntity
  8
AM_5
100
AcDbLine
 10
282.6101281598601
 20
68.85907159694091
 30
0.0
 11
282.6101281598601
 21
56.85907159694089
 31
0.0
  0
LINE
  5
12276
330
11F5F
100
AcDbEntity
  8
AM_5
100
AcDbLine
 10
302.6101281598601
 20
68.85907159694091
 30
0.0
 11
302.6101281598601
 21
56.85907159694089
 31
0.0
  0
LINE
  5
12277
330
11F5F
100
AcDbEntity
  8
AM_5
100
AcDbLine
 10
283.6101281598601
 20
57.85907159694089
 30
0.0
 11
301.6101281598601
 21
57.85907159694089
 31
0.0
  0
INSERT
  5
12278
330
11F5F
100
AcDbEntity
  8
AM_5
100
AcDbBlockReference
  2
_Dot
 10
282.6101281598601
 20
57.85907159694089
 30
0.0
 50
180.0
  0
INSERT
  5
12279
330
11F5F
100
AcDbEntity
  8
AM_5
100
AcDbBlockReference
  2
_Dot
 10
302.6101281598601
 20
57.85907159694089
 30
0.0
  0
MTEXT
  5
1227A
330
11F5F
100
AcDbEntity
  8
AM_5
 62
     2
100
AcDbMText
 10
292.6101281598601
 20
60.95907159694089
 30
0.0
 40
3.200000000000001
 41
0.0
 71
     5
 72
     1
  1
%%c20
 73
     1
 44
1.0
  0
POINT
  5
1227B
330
11F5F
100
AcDbEntity
  8
Defpoints
 62
     0
100
AcDbPoint
 10
282.6101281598601
 20
69.8590715969409
 30
0.0
  0
POINT
  5
1227C
330
11F5F
100
AcDbEntity
  8
Defpoints
 62
     0
100
AcDbPoint
 10
302.6101281598601
 20
69.8590715969409
 30
0.0
  0
POINT
  5
1227D
330
11F5F
100
AcDbEntity
  8
Defpoints
 62
     0
100
AcDbPoint
 10
302.6101281598601
 20
57.85907159694089
 30
0.0
  0
ENDBLK
  5
11F61
330
11F5F
100
AcDbEntity
  8
0
100
AcDbBlockEnd
  0
BLOCK
  5
11FBD
330
11FBC
100
AcDbEntity
  8
0
100
AcDbBlockBegin
  2
*D13
 70
     1
 10
0.0
 20
0.0
 30
0.0
  3
*D13
  1

  0
LINE
  5
12735
330
11FBC
100
AcDbEntity
  8
AM_5
100
AcDbLine
 10
245.6101311598602
 20
231.5600125969409
 30
0.0
 11
233.6101311598602
 21
231.5600125969409
 31
0.0
  0
LINE
  5
12736
330
11FBC
100
AcDbEntity
  8
AM_5
100
AcDbLine
 10
245.6101311598602
 20
225.6581225969409
 30
0.0
 11
233.6101311598602
 21
225.6581225969409
 31
0.0
  0
LINE
  5
12737
330
11FBC
100
AcDbEntity
  8
AM_5
100
AcDbLine
 10
234.6101311598602
 20
230.5600125969409
 30
0.0
 11
234.6101311598602
 21
226.6581225969409
 31
0.0
  0
INSERT
  5
12738
330
11FBC
100
AcDbEntity
  8
AM_5
100
AcDbBlockReference
  2
_Dot
 10
234.6101311598602
 20
231.5600125969409
 30
0.0
 50
90.0
  0
INSERT
  5
12739
330
11FBC
100
AcDbEntity
  8
AM_5
100
AcDbBlockReference
  2
_Dot
 10
234.6101311598602
 20
225.6581225969409
 30
0.0
 50
270.0
  0
MTEXT
  5
1273A
330
11FBC
100
AcDbEntity
  8
AM_5
 62
     2
100
AcDbMText
 10
231.5101311598601
 20
228.609067596941
 30
0.0
 40
3.200000000000001
 41
0.0
 71
     5
 72
     1
  1
6
 11
0.0000000000000001
 21
1.0
 31
0.0
 73
     1
 44
1.0
  0
POINT
  5
1273B
330
11FBC
100
AcDbEntity
  8
Defpoints
 62
     0
100
AcDbPoint
 10
246.6101311598602
 20
231.5600125969409
 30
0.0
  0
POINT
  5
1273C
330
11FBC
100
AcDbEntity
  8
Defpoints
 62
     0
100
AcDbPoint
 10
246.6101311598602
 20
225.6581225969409
 30
0.0
  0
POINT
  5
1273D
330
11FBC
100
AcDbEntity
  8
Defpoints
 62
     0
100
AcDbPoint
 10
234.6101311598602
 20
225.6581225969409
 30
0.0
  0
ENDBLK
  5
11FBE
330
11FBC
100
AcDbEntity
  8
0
100
AcDbBlockEnd
  0
BLOCK
  5
122CB
330
122CA
100
AcDbEntity
  8
0
100
AcDbBlockBegin
  2
_None
 70
     0
 10
0.0
 20
0.0
 30
0.0
  3
_None
  1

  0
ENDBLK
  5
122CC
330
122CA
100
AcDbEntity
  8
0
100
AcDbBlockEnd
  0
BLOCK
  5
123FA
330
123F9
100
AcDbEntity
  8
0
100
AcDbBlockBegin
  2
*D15
 70
     1
 10
0.0
 20
0.0
 30
0.0
  3
*D15
  1

  0
LINE
  5
125AC
330
123F9
100
AcDbEntity
  8
AM_5
100
AcDbLine
 10
254.6101281598601
 20
162.8590715969409
 30
0.0
 11
254.6101281598601
 21
180.8590726069403
 31
0.0
  0
LINE
  5
125AD
330
123F9
100
AcDbEntity
  8
AM_5
100
AcDbLine
 10
246.6101281598601
 20
163.8590715969409
 30
0.0
 11
246.6101281598601
 21
180.8590726069403
 31
0.0
  0
LINE
  5
125AE
330
123F9
100
AcDbEntity
  8
AM_5
100
AcDbLine
 10
253.6101281598601
 20
179.8590726069403
 30
0.0
 11
247.6101281598601
 21
179.8590726069403
 31
0.0
  0
INSERT
  5
125AF
330
123F9
100
AcDbEntity
  8
AM_5
100
AcDbBlockReference
  2
_Dot
 10
254.6101281598601
 20
179.8590726069403
 30
0.0
  0
INSERT
  5
125B0
330
123F9
100
AcDbEntity
  8
AM_5
100
AcDbBlockReference
  2
_Dot
 10
246.6101281598601
 20
179.8590726069403
 30
0.0
 50
180.0
  0
MTEXT
  5
125B1
330
123F9
100
AcDbEntity
  8
AM_5
 62
     2
100
AcDbMText
 10
250.6101281598601
 20
182.9590726069403
 30
0.0
 40
3.200000000000001
 41
0.0
 71
     5
 72
     1
  1
8
 73
     1
 44
1.0
  0
POINT
  5
125B2
330
123F9
100
AcDbEntity
  8
Defpoints
 62
     0
100
AcDbPoint
 10
254.6101281598601
 20
161.8590715969409
 30
0.0
  0
POINT
  5
125B3
330
123F9
100
AcDbEntity
  8
Defpoints
 62
     0
100
AcDbPoint
 10
246.6101281598601
 20
162.8590715969409
 30
0.0
  0
POINT
  5
125B4
330
123F9
100
AcDbEntity
  8
Defpoints
 62
     0
100
AcDbPoint
 10
246.6101281598601
 20
179.8590726069403
 30
0.0
  0
ENDBLK
  5
123FB
330
123F9
100
AcDbEntity
  8
0
100
AcDbBlockEnd
  0
BLOCK
  5
12422
330
12421
100
AcDbEntity
  8
0
100
AcDbBlockBegin
  2
*D16
 70
     1
 10
0.0
 20
0.0
 30
0.0
  3
*D16
  1

  0
LINE
  5
12436
330
12421
100
AcDbEntity
  8
AM_5
100
AcDbLine
 10
246.6101281598601
 20
163.8590715969409
 30
0.0
 11
246.6101281598601
 21
190.8590726069407
 31
0.0
  0
LINE
  5
12437
330
12421
100
AcDbEntity
  8
AM_5
100
AcDbLine
 10
338.61012515986
 20
163.8590715969409
 30
0.0
 11
338.61012515986
 21
190.8590726069407
 31
0.0
  0
LINE
  5
12438
330
12421
100
AcDbEntity
  8
AM_5
100
AcDbLine
 10
247.6101281598601
 20
189.8590726069407
 30
0.0
 11
337.61012515986
 21
189.8590726069407
 31
0.0
  0
INSERT
  5
12439
330
12421
100
AcDbEntity
  8
AM_5
100
AcDbBlockReference
  2
_Dot
 10
246.6101281598601
 20
189.8590726069407
 30
0.0
 50
180.0
  0
INSERT
  5
1243A
330
12421
100
AcDbEntity
  8
AM_5
100
AcDbBlockReference
  2
_Dot
 10
338.61012515986
 20
189.8590726069407
 30
0.0
  0
MTEXT
  5
1243B
330
12421
100
AcDbEntity
  8
AM_5
 62
     2
100
AcDbMText
 10
292.6101266598601
 20
192.9590726069407
 30
0.0
 40
3.200000000000001
 41
0.0
 71
     5
 72
     1
  1
92
 73
     1
 44
1.0
  0
POINT
  5
1243C
330
12421
100
AcDbEntity
  8
Defpoints
 62
     0
100
AcDbPoint
 10
246.6101281598601
 20
162.8590715969409
 30
0.0
  0
POINT
  5
1243D
330
12421
100
AcDbEntity
  8
Defpoints
 62
     0
100
AcDbPoint
 10
338.61012515986
 20
162.8590715969409
 30
0.0
  0
POINT
  5
1243E
330
12421
100
AcDbEntity
  8
Defpoints
 62
     0
100
AcDbPoint
 10
338.61012515986
 20
189.8590726069407
 30
0.0
  0
ENDBLK
  5
12423
330
12421
100
AcDbEntity
  8
0
100
AcDbBlockEnd
  0
BLOCK
  5
12441
330
12440
100
AcDbEntity
  8
0
100
AcDbBlockBegin
  2
*D17
 70
     1
 10
0.0
 20
0.0
 30
0.0
  3
*D17
  1

  0
LINE
  5
12550
330
12440
100
AcDbEntity
  8
AM_5
100
AcDbLine
 10
337.61012515986
 20
164.8590715969409
 30
0.0
 11
351.6101251598601
 21
164.8590715969409
 31
0.0
  0
LINE
  5
12551
330
12440
100
AcDbEntity
  8
AM_5
100
AcDbLine
 10
337.61012515986
 20
71.85907159694091
 30
0.0
 11
351.61012515986
 21
71.85907159694091
 31
0.0
  0
LINE
  5
12552
330
12440
100
AcDbEntity
  8
AM_5
100
AcDbLine
 10
350.6101251598601
 20
163.8590715969409
 30
0.0
 11
350.6101251598601
 21
72.8590715969409
 31
0.0
  0
INSERT
  5
12553
330
12440
100
AcDbEntity
  8
AM_5
100
AcDbBlockReference
  2
_Dot
 10
350.6101251598601
 20
164.8590715969409
 30
0.0
 50
90.0
  0
INSERT
  5
12554
330
12440
100
AcDbEntity
  8
AM_5
100
AcDbBlockReference
  2
_Dot
 10
350.6101251598601
 20
71.85907159694091
 30
0.0
 50
270.0
  0
MTEXT
  5
12555
330
12440
100
AcDbEntity
  8
AM_5
 62
     2
100
AcDbMText
 10
347.51012515986
 20
118.359071596941
 30
0.0
 40
3.200000000000001
 41
0.0
 71
     5
 72
     1
  1
93
 11
0.0000000000000001
 21
1.0
 31
0.0
 73
     1
 44
1.0
  0
POINT
  5
12556
330
12440
100
AcDbEntity
  8
Defpoints
 62
     0
100
AcDbPoint
 10
336.61012515986
 20
164.8590715969409
 30
0.0
  0
POINT
  5
12557
330
12440
100
AcDbEntity
  8
Defpoints
 62
     0
100
AcDbPoint
 10
336.61012515986
 20
71.85907159694091
 30
0.0
  0
POINT
  5
12558
330
12440
100
AcDbEntity
  8
Defpoints
 62
     0
100
AcDbPoint
 10
350.6101251598601
 20
71.85907159694091
 30
0.0
  0
ENDBLK
  5
12442
330
12440
100
AcDbEntity
  8
0
100
AcDbBlockEnd
  0
BLOCK
  5
12469
330
12468
100
AcDbEntity
  8
0
100
AcDbBlockBegin
  2
*D18
 70
     1
 10
0.0
 20
0.0
 30
0.0
  3
*D18
  1

  0
LINE
  5
12486
330
12468
100
AcDbEntity
  8
AM_5
100
AcDbLine
 10
246.6101281598601
 20
154.8590715969409
 30
0.0
 11
234.6101281598601
 21
154.8590715969409
 31
0.0
  0
LINE
  5
12487
330
12468
100
AcDbEntity
  8
AM_5
100
AcDbLine
 10
255.6101281598601
 20
130.8590715969409
 30
0.0
 11
234.6101281598601
 21
130.8590715969409
 31
0.0
  0
LINE
  5
12488
330
12468
100
AcDbEntity
  8
AM_5
100
AcDbLine
 10
235.6101281598601
 20
153.8590715969409
 30
0.0
 11
235.6101281598601
 21
131.8590715969409
 31
0.0
  0
INSERT
  5
12489
330
12468
100
AcDbEntity
  8
AM_5
100
AcDbBlockReference
  2
_Dot
 10
235.6101281598601
 20
154.8590715969409
 30
0.0
 50
90.0
  0
INSERT
  5
1248A
330
12468
100
AcDbEntity
  8
AM_5
100
AcDbBlockReference
  2
_Dot
 10
235.6101281598601
 20
130.8590715969409
 30
0.0
 50
270.0
  0
MTEXT
  5
1248B
330
12468
100
AcDbEntity
  8
AM_5
 62
     2
100
AcDbMText
 10
232.5101281598601
 20
142.8590715969409
 30
0.0
 40
3.200000000000001
 41
0.0
 71
     5
 72
     1
  1
24
 11
0.0000000000000001
 21
1.0
 31
0.0
 73
     1
 44
1.0
  0
POINT
  5
1248C
330
12468
100
AcDbEntity
  8
Defpoints
 62
     0
100
AcDbPoint
 10
247.6101281598601
 20
154.8590715969409
 30
0.0
  0
POINT
  5
1248D
330
12468
100
AcDbEntity
  8
Defpoints
 62
     0
100
AcDbPoint
 10
256.6101281598601
 20
130.8590715969409
 30
0.0
  0
POINT
  5
1248E
330
12468
100
AcDbEntity
  8
Defpoints
 62
     0
100
AcDbPoint
 10
235.6101281598601
 20
130.8590715969409
 30
0.0
  0
ENDBLK
  5
1246A
330
12468
100
AcDbEntity
  8
0
100
AcDbBlockEnd
  0
BLOCK
  5
12491
330
12490
100
AcDbEntity
  8
0
100
AcDbBlockBegin
  2
*D19
 70
     1
 10
0.0
 20
0.0
 30
0.0
  3
*D19
  1

  0
LINE
  5
124A5
330
12490
100
AcDbEntity
  8
AM_5
100
AcDbLine
 10
255.6101281598601
 20
130.8590715969409
 30
0.0
 11
234.6101281598601
 21
130.8590715969409
 31
0.0
  0
LINE
  5
124A6
330
12490
100
AcDbEntity
  8
AM_5
100
AcDbLine
 10
246.6101281598601
 20
105.8590715969409
 30
0.0
 11
234.6101281598601
 21
105.8590715969409
 31
0.0
  0
LINE
  5
124A7
330
12490
100
AcDbEntity
  8
AM_5
100
AcDbLine
 10
235.6101281598601
 20
129.8590715969409
 30
0.0
 11
235.6101281598601
 21
106.8590715969409
 31
0.0
  0
INSERT
  5
124A8
330
12490
100
AcDbEntity
  8
AM_5
100
AcDbBlockReference
  2
_Dot
 10
235.6101281598601
 20
130.8590715969409
 30
0.0
 50
90.0
  0
INSERT
  5
124A9
330
12490
100
AcDbEntity
  8
AM_5
100
AcDbBlockReference
  2
_Dot
 10
235.6101281598601
 20
105.8590715969409
 30
0.0
 50
270.0
  0
MTEXT
  5
124AA
330
12490
100
AcDbEntity
  8
AM_5
 62
     2
100
AcDbMText
 10
232.5101281598601
 20
118.3590715969409
 30
0.0
 40
3.200000000000001
 41
0.0
 71
     5
 72
     1
  1
25
 11
0.0000000000000001
 21
1.0
 31
0.0
 73
     1
 44
1.0
  0
POINT
  5
124AB
330
12490
100
AcDbEntity
  8
Defpoints
 62
     0
100
AcDbPoint
 10
256.6101281598601
 20
130.8590715969409
 30
0.0
  0
POINT
  5
124AC
330
12490
100
AcDbEntity
  8
Defpoints
 62
     0
100
AcDbPoint
 10
247.6101281598601
 20
105.8590715969409
 30
0.0
  0
POINT
  5
124AD
330
12490
100
AcDbEntity
  8
Defpoints
 62
     0
100
AcDbPoint
 10
235.6101281598601
 20
105.8590715969409
 30
0.0
  0
ENDBLK
  5
12492
330
12490
100
AcDbEntity
  8
0
100
AcDbBlockEnd
  0
BLOCK
  5
124B0
330
124AF
100
AcDbEntity
  8
0
100
AcDbBlockBegin
  2
*D20
 70
     1
 10
0.0
 20
0.0
 30
0.0
  3
*D20
  1

  0
LINE
  5
124C4
330
124AF
100
AcDbEntity
  8
AM_5
100
AcDbLine
 10
246.6101281598601
 20
105.8590715969409
 30
0.0
 11
234.6101281598601
 21
105.8590715969409
 31
0.0
  0
LINE
  5
124C5
330
124AF
100
AcDbEntity
  8
AM_5
100
AcDbLine
 10
255.6101281598601
 20
81.85907159694091
 30
0.0
 11
234.6101281598601
 21
81.85907159694091
 31
0.0
  0
LINE
  5
124C6
330
124AF
100
AcDbEntity
  8
AM_5
100
AcDbLine
 10
235.6101281598601
 20
104.8590715969409
 30
0.0
 11
235.6101281598601
 21
82.8590715969409
 31
0.0
  0
INSERT
  5
124C7
330
124AF
100
AcDbEntity
  8
AM_5
100
AcDbBlockReference
  2
_Dot
 10
235.6101281598601
 20
105.8590715969409
 30
0.0
 50
90.0
  0
INSERT
  5
124C8
330
124AF
100
AcDbEntity
  8
AM_5
100
AcDbBlockReference
  2
_Dot
 10
235.6101281598601
 20
81.85907159694091
 30
0.0
 50
270.0
  0
MTEXT
  5
124C9
330
124AF
100
AcDbEntity
  8
AM_5
 62
     2
100
AcDbMText
 10
232.5101281598601
 20
93.85907159694095
 30
0.0
 40
3.200000000000001
 41
0.0
 71
     5
 72
     1
  1
24
 11
0.0000000000000001
 21
1.0
 31
0.0
 73
     1
 44
1.0
  0
POINT
  5
124CA
330
124AF
100
AcDbEntity
  8
Defpoints
 62
     0
100
AcDbPoint
 10
247.6101281598601
 20
105.8590715969409
 30
0.0
  0
POINT
  5
124CB
330
124AF
100
AcDbEntity
  8
Defpoints
 62
     0
100
AcDbPoint
 10
256.6101281598601
 20
81.85907159694091
 30
0.0
  0
POINT
  5
124CC
330
124AF
100
AcDbEntity
  8
Defpoints
 62
     0
100
AcDbPoint
 10
235.6101281598601
 20
81.85907159694091
 30
0.0
  0
ENDBLK
  5
124B1
330
124AF
100
AcDbEntity
  8
0
100
AcDbBlockEnd
  0
BLOCK
  5
124F9
330
124F8
100
AcDbEntity
  8
0
100
AcDbBlockBegin
  2
*D21
 70
     1
 10
0.0
 20
0.0
 30
0.0
  3
*D21
  1

  0
LINE
  5
1273E
330
124F8
100
AcDbEntity
  8
AM_5
100
AcDbLine
 10
339.6101431598602
 20
231.5600125969409
 30
0.0
 11
351.6101431598602
 21
231.5600125969409
 31
0.0
  0
LINE
  5
1273F
330
124F8
100
AcDbEntity
  8
AM_5
100
AcDbLine
 10
339.6101431598602
 20
229.0600125969409
 30
0.0
 11
351.6101431598602
 21
229.0600125969409
 31
0.0
  0
LINE
  5
12740
330
124F8
100
AcDbEntity
  8
AM_5
100
AcDbLine
 10
350.6101431598602
 20
232.5600125969409
 30
0.0
 11
350.6101431598602
 21
233.5600125969409
 31
0.0
  0
LINE
  5
12741
330
124F8
100
AcDbEntity
  8
AM_5
100
AcDbLine
 10
350.6101431598602
 20
228.0600125969409
 30
0.0
 11
350.6101431598602
 21
219.3666792636076
 31
0.0
  0
LINE
  5
12742
330
124F8
100
AcDbEntity
  8
AM_5
100
AcDbLine
 10
350.6101431598602
 20
231.5600125969409
 30
0.0
 11
350.6101431598602
 21
229.0600125969409
 31
0.0
  0
INSERT
  5
12743
330
124F8
100
AcDbEntity
  8
AM_5
100
AcDbBlockReference
  2
_Dot
 10
350.6101431598602
 20
231.5600125969409
 30
0.0
 50
270.0
  0
INSERT
  5
12744
330
124F8
100
AcDbEntity
  8
AM_5
100
AcDbBlockReference
  2
_Dot
 10
350.6101431598602
 20
229.0600125969409
 30
0.0
 50
90.0
  0
MTEXT
  5
12745
330
124F8
100
AcDbEntity
  8
AM_5
 62
     2
100
AcDbMText
 10
347.5101431598601
 20
223.2133459302743
 30
0.0
 40
3.200000000000001
 41
0.0
 71
     5
 72
     1
  1
2.5
 11
0.0000000000000001
 21
1.0
 31
0.0
 73
     1
 44
1.0
  0
POINT
  5
12746
330
124F8
100
AcDbEntity
  8
Defpoints
 62
     0
100
AcDbPoint
 10
338.6101431598602
 20
231.5600125969409
 30
0.0
  0
POINT
  5
12747
330
124F8
100
AcDbEntity
  8
Defpoints
 62
     0
100
AcDbPoint
 10
338.6101431598602
 20
229.0600125969409
 30
0.0
  0
POINT
  5
12748
330
124F8
100
AcDbEntity
  8
Defpoints
 62
     0
100
AcDbPoint
 10
350.6101431598602
 20
229.0600125969409
 30
0.0
  0
ENDBLK
  5
124FA
330
124F8
100
AcDbEntity
  8
0
100
AcDbBlockEnd
  0
BLOCK
  5
12529
330
12528
100
AcDbEntity
  8
0
100
AcDbBlockBegin
  2
*D22
 70
     1
 10
0.0
 20
0.0
 30
0.0
  3
*D22
  1

  0
LINE
  5
12546
330
12528
100
AcDbEntity
  8
AM_5
100
AcDbLine
 10
313.61012515986
 20
72.8590715969409
 30
0.0
 11
313.61012515986
 21
56.85907159694085
 31
0.0
  0
LINE
  5
12547
330
12528
100
AcDbEntity
  8
AM_5
100
AcDbLine
 10
338.61012515986
 20
72.8590715969409
 30
0.0
 11
338.61012515986
 21
56.85907159694085
 31
0.0
  0
LINE
  5
12548
330
12528
100
AcDbEntity
  8
AM_5
100
AcDbLine
 10
314.61012515986
 20
57.85907159694086
 30
0.0
 11
337.61012515986
 21
57.85907159694086
 31
0.0
  0
INSERT
  5
12549
330
12528
100
AcDbEntity
  8
AM_5
100
AcDbBlockReference
  2
_Dot
 10
313.61012515986
 20
57.85907159694086
 30
0.0
 50
180.0
  0
INSERT
  5
1254A
330
12528
100
AcDbEntity
  8
AM_5
100
AcDbBlockReference
  2
_Dot
 10
338.61012515986
 20
57.85907159694086
 30
0.0
  0
MTEXT
  5
1254B
330
12528
100
AcDbEntity
  8
AM_5
 62
     2
100
AcDbMText
 10
326.11012515986
 20
60.95907159694085
 30
0.0
 40
3.200000000000001
 41
0.0
 71
     5
 72
     1
  1
25
 73
     1
 44
1.0
  0
POINT
  5
1254C
330
12528
100
AcDbEntity
  8
Defpoints
 62
     0
100
AcDbPoint
 10
313.61012515986
 20
73.85907159694091
 30
0.0
  0
POINT
  5
1254D
330
12528
100
AcDbEntity
  8
Defpoints
 62
     0
100
AcDbPoint
 10
338.61012515986
 20
73.85907159694091
 30
0.0
  0
POINT
  5
1254E
330
12528
100
AcDbEntity
  8
Defpoints
 62
     0
100
AcDbPoint
 10
338.61012515986
 20
57.85907159694086
 30
0.0
  0
ENDBLK
  5
1252A
330
12528
100
AcDbEntity
  8
0
100
AcDbBlockEnd
  0
BLOCK
  5
1255C
330
1255B
100
AcDbEntity
  8
0
100
AcDbBlockBegin
  2
*D23
 70
     1
 10
0.0
 20
0.0
 30
0.0
  3
*D23
  1

  0
LINE
  5
12637
330
1255B
100
AcDbEntity
  8
AM_5
100
AcDbLine
 10
277.6101201598601
 20
230.0600225969409
 30
0.0
 11
277.6101201598601
 21
249.609073606941
 31
0.0
  0
LINE
  5
12638
330
1255B
100
AcDbEntity
  8
AM_5
100
AcDbLine
 10
307.6100821598601
 20
230.0600225969409
 30
0.0
 11
307.6100821598601
 21
249.609073606941
 31
0.0
  0
LINE
  5
12639
330
1255B
100
AcDbEntity
  8
AM_5
100
AcDbLine
 10
278.6101201598601
 20
248.609073606941
 30
0.0
 11
306.6100821598601
 21
248.609073606941
 31
0.0
  0
INSERT
  5
1263A
330
1255B
100
AcDbEntity
  8
AM_5
100
AcDbBlockReference
  2
_Dot
 10
277.6101201598601
 20
248.609073606941
 30
0.0
 50
180.0
  0
INSERT
  5
1263B
330
1255B
100
AcDbEntity
  8
AM_5
100
AcDbBlockReference
  2
_Dot
 10
307.6100821598601
 20
248.609073606941
 30
0.0
  0
MTEXT
  5
1263C
330
1255B
100
AcDbEntity
  8
AM_5
 62
     2
100
AcDbMText
 10
292.6101011598601
 20
251.7090736069409
 30
0.0
 40
3.200000000000001
 41
0.0
 71
     5
 72
     1
  1
（30）
 73
     1
 44
1.0
  0
POINT
  5
1263D
330
1255B
100
AcDbEntity
  8
Defpoints
 62
     0
100
AcDbPoint
 10
277.6101201598601
 20
229.0600225969409
 30
0.0
  0
POINT
  5
1263E
330
1255B
100
AcDbEntity
  8
Defpoints
 62
     0
100
AcDbPoint
 10
307.6100821598601
 20
229.0600225969409
 30
0.0
  0
POINT
  5
1263F
330
1255B
100
AcDbEntity
  8
Defpoints
 62
     0
100
AcDbPoint
 10
307.6100821598601
 20
248.609073606941
 30
0.0
  0
ENDBLK
  5
1255D
330
1255B
100
AcDbEntity
  8
0
100
AcDbBlockEnd
  0
BLOCK
  5
125F4
330
125F3
100
AcDbEntity
  8
0
100
AcDbBlockBegin
  2
*D24
 70
     1
 10
0.0
 20
0.0
 30
0.0
  3
*D24
  1

  0
ARC
  5
125F6
330
125F3
100
AcDbEntity
  8
AM_5
100
AcDbCircle
 10
166.9027937561816
 20
86.96463566692489
 30
0.0
 40
23.74944716417582
100
AcDbArc
 50
139.8264506987391
 51
179.9999999999999
  0
INSERT
  5
125F7
330
125F3
100
AcDbEntity
  8
AM_5
100
AcDbBlockReference
  2
_OPEN30
 10
150.1093975159567
 20
103.7580297051405
 30
0.0
 41
2.0
 42
2.0
 43
2.0
 50
47.41322722757579
  0
POINT
  5
125F8
330
125F3
100
AcDbEntity
  8
Defpoints
 62
     0
100
AcDbPoint
 10
146.3351686671505
 20
98.83935835004628
 30
0.0
  0
POINT
  5
125F9
330
125F3
100
AcDbEntity
  8
Defpoints
 62
     0
100
AcDbPoint
 10
169.0797502183898
 20
84.7876794901669
 30
0.0
  0
POINT
  5
125FA
330
125F3
100
AcDbEntity
  8
Defpoints
 62
     0
100
AcDbPoint
 10
172.8809701585749
 20
86.96463566692491
 30
0.0
  0
POINT
  5
125FB
330
125F3
100
AcDbEntity
  8
Defpoints
 62
     0
100
AcDbPoint
 10
136.8809739732728
 20
86.96463566692489
 30
0.0
  0
POINT
  5
125FC
330
125F3
100
AcDbEntity
  8
Defpoints
 62
     0
100
AcDbPoint
 10
143.6239015245418
 20
110.2435248461542
 30
0.0
  0
ENDBLK
  5
125F5
330
125F3
100
AcDbEntity
  8
0
100
AcDbBlockEnd
  0
BLOCK
  5
125FE
330
125FD
100
AcDbEntity
  8
0
100
AcDbBlockBegin
  2
*D25
 70
     1
 10
0.0
 20
0.0
 30
0.0
  3
*D25
  1

  0
ARC
  5
12600
330
125FD
100
AcDbEntity
  8
AM_5
100
AcDbCircle
 10
52.85914656097304
 20
86.96463566692489
 30
0.0
 40
23.74944716417585
100
AcDbArc
 50
0.0
 51
40.17354930126094
  0
INSERT
  5
12601
330
125FD
100
AcDbEntity
  8
AM_5
100
AcDbBlockReference
  2
_OPEN30
 10
69.65254280119802
 20
103.7580297051405
 30
0.0
 41
2.0
 42
2.0
 43
2.0
 50
132.5867727724242
  0
POINT
  5
12602
330
125FD
100
AcDbEntity
  8
Defpoints
 62
     0
100
AcDbPoint
 10
75.79935107127004
 20
93.11144440233622
 30
0.0
  0
POINT
  5
12603
330
125FD
100
AcDbEntity
  8
Defpoints
 62
     0
100
AcDbPoint
 10
50.68219009876483
 20
84.7876794901669
 30
0.0
  0
POINT
  5
12604
330
125FD
100
AcDbEntity
  8
Defpoints
 62
     0
100
AcDbPoint
 10
46.88097015857984
 20
86.96463566692489
 30
0.0
  0
POINT
  5
12605
330
125FD
100
AcDbEntity
  8
Defpoints
 62
     0
100
AcDbPoint
 10
82.88096634388187
 20
86.96463566692489
 30
0.0
  0
POINT
  5
12606
330
125FD
100
AcDbEntity
  8
Defpoints
 62
     0
100
AcDbPoint
 10
76.13803879261283
 20
110.2435248461542
 30
0.0
  0
ENDBLK
  5
125FF
330
125FD
100
AcDbEntity
  8
0
100
AcDbBlockEnd
  0
ENDSEC
  0
SECTION
  2
ENTITIES
  0
TEXT
  5
BF47
330
1F
100
AcDbEntity
  8
AM_6
 60
     1
100
AcDbText
 10
408.4999999999999
 20
8.5
 30
0.0
 40
2.5
  1
!GENTITLE-INSERT
100
AcDbText
  0
TEXT
  5
BF48
330
1F
100
AcDbEntity
  8
AM_6
 60
     1
100
AcDbText
 10
0.0
 20
0.0
 30
0.0
 40
2.5
  1
!GENTITLE-LL
100
AcDbText
  0
TEXT
  5
BF49
330
1F
100
AcDbEntity
  8
AM_6
 60
     1
100
AcDbText
 10
420.0
 20
297.0
 30
0.0
 40
2.5
  1
!GENTITLE-RU
100
AcDbText
  0
TEXT
  5
BF4A
330
1F
100
AcDbEntity
  8
AM_6
 60
     1
100
AcDbText
 10
420.0
 20
297.0
 30
0.0
 40
2.5
  1
!GENTITLE-MAX
100
AcDbText
  0
TEXT
  5
BF52
330
1F
100
AcDbEntity
  8
AM_6
 60
     1
100
AcDbText
 10
0.0
 20
0.0
 30
0.0
 40
2.5
  1
!GENTITLE-LL
100
AcDbText
  0
TEXT
  5
BF53
330
1F
100
AcDbEntity
  8
AM_6
 60
     1
100
AcDbText
 10
408.4999999999999
 20
288.5
 30
0.0
 40
2.5
  1
!GENTITLE-RU
100
AcDbText
  0
TEXT
  5
BF54
330
1F
100
AcDbEntity
  8
AM_6
 60
     1
100
AcDbText
 10
420.0
 20
297.0
 30
0.0
 40
2.5
  1
!GENTITLE-MAX
100
AcDbText
  0
TEXT
  5
BF55
330
1F
100
AcDbEntity
  8
AM_6
 60
     1
100
AcDbText
 10
408.4999999999999
 20
8.5
 30
0.0
 40
2.5
  1
!GENTITLE-INSERT
100
AcDbText
  0
LINE
  5
11A61
330
1F
100
AcDbEntity
  8
AM_7
100
AcDbLine
 10
292.6101281598601
 20
215.609072596941
 30
0.0
 11
292.6101281598601
 21
241.6090725969409
 31
0.0
  0
LINE
  5
11A62
330
1F
100
AcDbEntity
  8
AM_7
100
AcDbLine
 10
279.6101281598601
 20
228.609072596941
 30
0.0
 11
305.6101281598601
 21
228.609072596941
 31
0.0
  0
LINE
  5
11A64
330
1F
100
AcDbEntity
  8
AM_11
100
AcDbLine
 10
277.7520961598601
 20
225.6581325969409
 30
0.0
 11
282.8938501598601
 21
226.2439625969409
 31
0.0
  0
LINE
  5
11A65
330
1F
100
AcDbEntity
  8
AM_11
100
AcDbLine
 10
277.6101361598601
 20
228.1581325969409
 30
0.0
 11
282.6108371598601
 21
228.7278825969409
 31
0.0
  0
LINE
  5
11A66
330
1F
100
AcDbEntity
  8
AM_11
100
AcDbLine
 10
246.6101311598602
 20
228.1581225969409
 30
0.0
 11
277.6101281598601
 21
228.1581225969409
 31
0.0
  0
LINE
  5
11A67
330
1F
100
AcDbEntity
  8
AM_11
100
AcDbLine
 10
246.6101311598602
 20
225.6581225969409
 30
0.0
 11
277.75208815986
 21
225.6581225969409
 31
0.0
  0
LINE
  5
11A68
330
1F
100
AcDbEntity
  8
AM_11
100
AcDbLine
 10
246.6101311598602
 20
225.6581225969409
 30
0.0
 11
246.6101311598602
 21
228.1581225969409
 31
0.0
  0
LINE
  5
11A6A
330
1F
100
AcDbEntity
  8
AM_0
100
AcDbLine
 10
338.61012515986
 20
229.0600125969409
 30
0.0
 11
307.6101281598601
 21
229.0600125969409
 31
0.0
  0
LINE
  5
11A6B
330
1F
100
AcDbEntity
  8
AM_0
100
AcDbLine
 10
338.61012515986
 20
231.5600125969409
 30
0.0
 11
307.4681681598602
 21
231.5600125969409
 31
0.0
  0
LINE
  5
11A6C
330
1F
100
AcDbEntity
  8
AM_0
100
AcDbLine
 10
338.61012515986
 20
231.5600125969409
 30
0.0
 11
338.61012515986
 21
229.0600125969409
 31
0.0
  0
LINE
  5
11A6F
330
1F
100
AcDbEntity
  8
AM_0
100
AcDbLine
 10
307.6100821598601
 20
229.0600225969409
 30
0.0
 11
302.6094111598601
 21
228.4902625969409
 31
0.0
  0
LINE
  5
11A70
330
1F
100
AcDbEntity
  8
AM_0
100
AcDbLine
 10
307.4681221598601
 20
231.5600225969409
 30
0.0
 11
302.3263991598601
 21
230.9741925969409
 31
0.0
  0
LINE
  5
11A71
330
1F
100
AcDbEntity
  8
AM_0
100
AcDbLine
 10
246.61011315986
 20
231.5600125969409
 30
0.0
 11
246.61011315986
 21
229.0600125969409
 31
0.0
  0
LINE
  5
11A72
330
1F
100
AcDbEntity
  8
AM_0
100
AcDbLine
 10
246.61011315986
 20
229.0600125969409
 30
0.0
 11
277.6101201598601
 21
229.0600125969409
 31
0.0
  0
LINE
  5
11A73
330
1F
100
AcDbEntity
  8
AM_0
100
AcDbLine
 10
246.61011315986
 20
231.5600125969409
 30
0.0
 11
277.7520811598602
 21
231.5600125969409
 31
0.0
  0
LINE
  5
11A77
330
1F
100
AcDbEntity
  8
AM_0
100
AcDbLine
 10
277.7520811598602
 20
231.5600225969409
 30
0.0
 11
282.8938351598601
 21
230.9741925969409
 31
0.0
  0
LINE
  5
11A78
330
1F
100
AcDbEntity
  8
AM_0
100
AcDbLine
 10
277.6101201598601
 20
229.0600225969409
 30
0.0
 11
282.6108221598602
 21
228.4902625969409
 31
0.0
  0
LINE
  5
11A7C
330
1F
100
AcDbEntity
  8
AM_0
100
AcDbLine
 10
338.61012515986
 20
162.8590715969409
 30
0.0
 11
338.61012515986
 21
73.85907159694091
 31
0.0
  0
LINE
  5
11A7D
330
1F
100
AcDbEntity
  8
AM_7
100
AcDbLine
 10
292.6101281598601
 20
170.8590715969409
 30
0.0
 11
292.6101281598601
 21
65.85906859694091
 31
0.0
  0
LINE
  5
11A7E
330
1F
100
AcDbEntity
  8
AM_0
100
AcDbLine
 10
246.6101281598601
 20
162.8590715969409
 30
0.0
 11
246.6101281598601
 21
73.85907159694091
 31
0.0
  0
LINE
  5
11A7F
330
1F
100
AcDbEntity
  8
AM_0
100
AcDbLine
 10
301.6101281598601
 20
68.85907159694091
 30
0.0
 11
283.6101281598601
 21
68.85907159694091
 31
0.0
  0
LINE
  5
11A80
330
1F
100
AcDbEntity
  8
AM_0
100
AcDbLine
 10
282.6101281598601
 20
166.8590715969409
 30
0.0
 11
282.6101281598601
 21
69.8590715969409
 31
0.0
  0
LINE
  5
11A81
330
1F
100
AcDbEntity
  8
AM_0
100
AcDbLine
 10
302.6101281598601
 20
166.8590715969409
 30
0.0
 11
302.6101281598601
 21
69.8590715969409
 31
0.0
  0
LINE
  5
11A82
330
1F
100
AcDbEntity
  8
AM_0
100
AcDbLine
 10
336.61012515986
 20
71.85907159694091
 30
0.0
 11
315.61012515986
 21
71.85907159694091
 31
0.0
  0
LINE
  5
11A83
330
1F
100
AcDbEntity
  8
AM_0
100
AcDbLine
 10
336.61012515986
 20
164.8590715969409
 30
0.0
 11
302.6101281598601
 21
164.8590715969409
 31
0.0
  0
LINE
  5
11A84
330
1F
100
AcDbEntity
  8
AM_2
100
AcDbLine
 10
307.6101281598601
 20
162.8590715969409
 30
0.0
 11
307.6101281598601
 21
122.8090680969409
 31
0.0
  0
LINE
  5
11A85
330
1F
100
AcDbEntity
  8
AM_2
100
AcDbLine
 10
277.6101281598601
 20
113.9090739579409
 30
0.0
 11
277.6101281598601
 21
73.85907159694089
 31
0.0
  0
LINE
  5
11A86
330
1F
100
AcDbEntity
  8
AM_0
100
AcDbLine
 10
313.61012515986
 20
118.8090678969409
 30
0.0
 11
313.61012515986
 21
73.85907159694091
 31
0.0
  0
LINE
  5
11A87
330
1F
100
AcDbEntity
  8
AM_0
100
AcDbLine
 10
271.6101281598601
 20
162.8590715969409
 30
0.0
 11
271.6101281598601
 21
117.9090739969409
 31
0.0
  0
LINE
  5
11A88
330
1F
100
AcDbEntity
  8
AM_0
100
AcDbLine
 10
269.6101281598601
 20
164.8590715969409
 30
0.0
 11
248.6101281598601
 21
164.8590715969409
 31
0.0
  0
LINE
  5
11A89
330
1F
100
AcDbEntity
  8
AM_0
100
AcDbLine
 10
282.6101281598601
 20
71.85907159694091
 30
0.0
 11
248.6101281598601
 21
71.85907159694091
 31
0.0
  0
LINE
  5
11A92
330
1F
100
AcDbEntity
  8
AM_7
 48
0.6
100
AcDbLine
 10
254.6101281598601
 20
161.8590715969409
 30
0.0
 11
254.6101281598601
 21
147.8590715969409
 31
0.0
  0
LINE
  5
11A93
330
1F
100
AcDbEntity
  8
AM_7
 48
0.6
100
AcDbLine
 10
261.6101281598601
 20
154.8590715969409
 30
0.0
 11
247.6101281598601
 21
154.8590715969409
 31
0.0
  0
LINE
  5
11A9A
330
1F
100
AcDbEntity
  8
AM_0
100
AcDbLine
 10
302.6101281598601
 20
118.4090739969409
 30
0.0
 11
302.6101281598601
 21
116.9090739969409
 31
0.0
  0
LINE
  5
11A9B
330
1F
100
AcDbEntity
  8
AM_0
100
AcDbLine
 10
282.6101201598601
 20
118.4090739969409
 30
0.0
 11
282.6101201598601
 21
116.9090739969409
 31
0.0
  0
LINE
  5
11A9C
330
1F
100
AcDbEntity
  8
AM_0
100
AcDbLine
 10
282.6101281598601
 20
118.3090678969409
 30
0.0
 11
282.6101281598601
 21
119.8090678969409
 31
0.0
  0
LINE
  5
11A9D
330
1F
100
AcDbEntity
  8
AM_0
100
AcDbLine
 10
302.6101361598601
 20
118.3090678969409
 30
0.0
 11
302.6101361598601
 21
119.8090678969409
 31
0.0
  0
LINE
  5
11A9E
330
1F
100
AcDbEntity
  8
AM_0
100
AcDbLine
 10
302.6101281598601
 20
118.3590708969409
 30
0.0
 11
282.6101281598601
 21
118.3590708969409
 31
0.0
  0
LINE
  5
11A9F
330
1F
100
AcDbEntity
  8
AM_0
100
AcDbLine
 10
282.6101281598601
 20
120.8090680969409
 30
0.0
 11
311.61012515986
 21
120.8090680969409
 31
0.0
  0
LINE
  5
11AA0
330
1F
100
AcDbEntity
  8
AM_0
100
AcDbLine
 10
302.6101281598601
 20
115.9090739579409
 30
0.0
 11
273.6101281598601
 21
115.9090739579409
 31
0.0
  0
LINE
  5
11AA1
330
1F
100
AcDbEntity
  8
AM_0
100
AcDbLine
 10
301.6101281598601
 20
167.8590715969409
 30
0.0
 11
283.6101281598601
 21
167.8590715969409
 31
0.0
  0
LINE
  5
11AA2
330
1F
100
AcDbEntity
  8
AM_0
100
AcDbLine
 10
302.6101281598601
 20
71.85907159694091
 30
0.0
 11
282.6101281598601
 21
71.85907159694091
 31
0.0
  0
LINE
  5
11AA3
330
1F
100
AcDbEntity
  8
AM_0
100
AcDbLine
 10
302.6101281598601
 20
164.8590715969409
 30
0.0
 11
282.6101281598601
 21
164.8590715969409
 31
0.0
  0
LINE
  5
11AA4
330
1F
100
AcDbEntity
  8
AM_0
100
AcDbLine
 10
271.6101201598601
 20
231.5600125969409
 30
0.0
 11
271.6101201598601
 21
229.0600125969409
 31
0.0
  0
CIRCLE
  5
11AA5
330
1F
100
AcDbEntity
  8
AM_0
100
AcDbCircle
 10
292.6101281598601
 20
228.609072596941
 30
0.0
 40
10.0
  0
CIRCLE
  5
11AA6
330
1F
100
AcDbEntity
  8
AM_0
100
AcDbCircle
 10
292.6101281598601
 20
228.609072596941
 30
0.0
 40
9.0
  0
ARC
  5
11AA7
330
1F
100
AcDbEntity
  8
AM_0
100
AcDbCircle
 10
301.6101281598601
 20
69.8590715969409
 30
0.0
 40
1.0
100
AcDbArc
 50
270.0
 51
0.0
  0
ARC
  5
11AA8
330
1F
100
AcDbEntity
  8
AM_0
100
AcDbCircle
 10
283.6101281598601
 20
69.8590715969409
 30
0.0
 40
1.0
100
AcDbArc
 50
180.0
 51
270.0
  0
CIRCLE
  5
11AA9
330
1F
100
AcDbEntity
  8
AM_0
100
AcDbCircle
 10
321.61012515986
 20
154.8590715969409
 30
0.0
 40
2.099999899999999
  0
CIRCLE
  5
11AAA
330
1F
100
AcDbEntity
  8
AM_0
100
AcDbCircle
 10
330.61012515986
 20
130.8590715969409
 30
0.0
 40
2.099999899999999
  0
CIRCLE
  5
11AAB
330
1F
100
AcDbEntity
  8
AM_0
100
AcDbCircle
 10
321.61012515986
 20
105.8590715969409
 30
0.0
 40
2.099999899999999
  0
CIRCLE
  5
11AAC
330
1F
100
AcDbEntity
  8
AM_0
100
AcDbCircle
 10
330.61012515986
 20
81.85907159694091
 30
0.0
 40
2.099999899999999
  0
CIRCLE
  5
11AAD
330
1F
100
AcDbEntity
  8
AM_0
100
AcDbCircle
 10
254.6101281598601
 20
154.8590715969409
 30
0.0
 40
2.099999899999999
  0
CIRCLE
  5
11AAE
330
1F
100
AcDbEntity
  8
AM_0
100
AcDbCircle
 10
263.6101281598601
 20
130.8590715969409
 30
0.0
 40
2.099999899999999
  0
CIRCLE
  5
11AAF
330
1F
100
AcDbEntity
  8
AM_0
100
AcDbCircle
 10
254.6101281598601
 20
105.8590715969409
 30
0.0
 40
2.099999899999999
  0
CIRCLE
  5
11AB0
330
1F
100
AcDbEntity
  8
AM_0
100
AcDbCircle
 10
263.6101281598601
 20
81.85907159694091
 30
0.0
 40
2.099999899999999
  0
CIRCLE
  5
11AB1
330
1F
100
AcDbEntity
  8
AM_0
100
AcDbCircle
 10
321.61012515986
 20
154.8590715969409
 30
0.0
 40
4.0
  0
CIRCLE
  5
11AB2
330
1F
100
AcDbEntity
  8
AM_0
100
AcDbCircle
 10
330.61012515986
 20
130.8590715969409
 30
0.0
 40
4.0
  0
CIRCLE
  5
11AB3
330
1F
100
AcDbEntity
  8
AM_0
100
AcDbCircle
 10
321.61012515986
 20
105.8590715969409
 30
0.0
 40
4.0
  0
CIRCLE
  5
11AB4
330
1F
100
AcDbEntity
  8
AM_0
100
AcDbCircle
 10
330.61012515986
 20
81.85907159694091
 30
0.0
 40
4.0
  0
CIRCLE
  5
11AB5
330
1F
100
AcDbEntity
  8
AM_0
100
AcDbCircle
 10
254.6101281598601
 20
154.8590715969409
 30
0.0
 40
4.0
  0
CIRCLE
  5
11AB6
330
1F
100
AcDbEntity
  8
AM_0
100
AcDbCircle
 10
263.6101281598601
 20
130.8590715969409
 30
0.0
 40
4.0
  0
CIRCLE
  5
11AB7
330
1F
100
AcDbEntity
  8
AM_0
100
AcDbCircle
 10
254.6101281598601
 20
105.8590715969409
 30
0.0
 40
4.0
  0
CIRCLE
  5
11AB8
330
1F
100
AcDbEntity
  8
AM_0
100
AcDbCircle
 10
263.6101281598601
 20
81.85907159694091
 30
0.0
 40
4.0
  0
ARC
  5
11AB9
330
1F
100
AcDbEntity
  8
AM_0
100
AcDbCircle
 10
283.6101281598601
 20
166.8590715969409
 30
0.0
 40
1.0
100
AcDbArc
 50
90.0
 51
180.0
  0
ARC
  5
11ABA
330
1F
100
AcDbEntity
  8
AM_0
100
AcDbCircle
 10
301.6101281598601
 20
166.8590715969409
 30
0.0
 40
1.0
100
AcDbArc
 50
0.0
 51
90.0
  0
ARC
  5
11ABB
330
1F
100
AcDbEntity
  8
AM_0
100
AcDbCircle
 10
248.6101281598601
 20
73.85907159694091
 30
0.0
 40
2.0
100
AcDbArc
 50
180.0
 51
270.0
  0
ARC
  5
11ABC
330
1F
100
AcDbEntity
  8
AM_0
100
AcDbCircle
 10
248.6101281598601
 20
162.8590715969409
 30
0.0
 40
2.0
100
AcDbArc
 50
90.0
 51
180.0
  0
ARC
  5
11ABD
330
1F
100
AcDbEntity
  8
AM_0
100
AcDbCircle
 10
269.6101281598601
 20
162.8590715969409
 30
0.0
 40
2.0
100
AcDbArc
 50
0.0
 51
90.0
  0
ARC
  5
11ABE
330
1F
100
AcDbEntity
  8
AM_0
100
AcDbCircle
 10
273.6101281598601
 20
117.9090739969409
 30
0.0
 40
2.0
100
AcDbArc
 50
179.999989999999
 51
270.0
  0
ARC
  5
11ABF
330
1F
100
AcDbEntity
  8
AM_0
100
AcDbCircle
 10
315.61012515986
 20
73.85907159694091
 30
0.0
 40
2.0
100
AcDbArc
 50
180.0
 51
270.0
  0
ARC
  5
11AC0
330
1F
100
AcDbEntity
  8
AM_0
100
AcDbCircle
 10
336.61012515986
 20
73.85907159694091
 30
0.0
 40
2.0
100
AcDbArc
 50
270.0
 51
0.0
  0
ARC
  5
11AC1
330
1F
100
AcDbEntity
  8
AM_0
100
AcDbCircle
 10
311.61012515986
 20
118.8090678969409
 30
0.0
 40
2.0
100
AcDbArc
 50
359.999989999999
 51
90.0
  0
ARC
  5
11AC2
330
1F
100
AcDbEntity
  8
AM_0
100
AcDbCircle
 10
336.61012515986
 20
162.8590715969409
 30
0.0
 40
2.0
100
AcDbArc
 50
0.0
 51
90.0
  0
LINE
  5
11C4A
330
1F
100
AcDbEntity
  8
size
100
AcDbLine
 10
0.0
 20
0.0
 30
0.0
 11
420.0
 21
0.0
 31
0.0
1001
GENIUS_GENREC_14
1002
{
1000
PYDIR
1011
0.0
1021
297.0
1031
0.0
1002
}
1002
{
1000
PXDIR
1011
420.0
1021
0.0
1031
0.0
1002
}
1002
{
1000
PORI
1011
0.0
1021
0.0
1031
0.0
1002
}
1002
{
1000
PINS
1011
210.0
1021
148.4999999999999
1031
0.0
1002
}
1002
{
1000
HVAL
1000
297
1002
}
1002
{
1000
H
1070
     2
1002
}
1002
{
1000
WVAL
1000
420
1002
}
1002
{
1000
W
1070
     2
1002
}
1002
{
1000
C
1070
     4
1002
}
1001
GENIUS_GENOBJ-N-REC_13
1002
{
1000
OWNER
1000
GEN
1002
}
1001
GENIUS_GENODEF_13
1002
{
1000
HIER
1070
     0
1002
}
1002
{
1000
MANEDIT
1070
     0
1002
}
1002
{
1000
NOSEL
1070
     0
1002
}
1002
{
1000
BEHIND
1070
     0
1002
}
1002
{
1000
OTHER
1070
     0
1002
}
1002
{
1000
REACTOR
1002
}
  0
LINE
  5
11C4B
330
1F
100
AcDbEntity
  8
size
100
AcDbLine
 10
420.0
 20
0.0
 30
0.0
 11
420.0
 21
297.0
 31
0.0
1001
GENIUS_GENREC_14
1002
{
1000
PYDIR
1011
0.0
1021
297.0
1031
0.0
1002
}
1002
{
1000
PXDIR
1011
420.0
1021
0.0
1031
0.0
1002
}
1002
{
1000
PORI
1011
0.0
1021
0.0
1031
0.0
1002
}
1002
{
1000
PINS
1011
210.0
1021
148.4999999999999
1031
0.0
1002
}
1002
{
1000
HVAL
1000
297
1002
}
1002
{
1000
H
1070
     2
1002
}
1002
{
1000
WVAL
1000
420
1002
}
1002
{
1000
W
1070
     2
1002
}
1002
{
1000
C
1070
     4
1002
}
1001
GENIUS_GENOBJ-N-REC_13
1002
{
1000
OWNER
1000
GEN
1002
}
1001
GENIUS_GENODEF_13
1002
{
1000
HIER
1070
     0
1002
}
1002
{
1000
MANEDIT
1070
     0
1002
}
1002
{
1000
NOSEL
1070
     0
1002
}
1002
{
1000
BEHIND
1070
     0
1002
}
1002
{
1000
OTHER
1070
     0
1002
}
1002
{
1000
REACTOR
1002
}
  0
LINE
  5
11C4C
330
1F
100
AcDbEntity
  8
size
100
AcDbLine
 10
420.0
 20
297.0
 30
0.0
 11
0.0
 21
297.0
 31
0.0
1001
GENIUS_GENREC_14
1002
{
1000
PYDIR
1011
0.0
1021
297.0
1031
0.0
1002
}
1002
{
1000
PXDIR
1011
420.0
1021
0.0
1031
0.0
1002
}
1002
{
1000
PORI
1011
0.0
1021
0.0
1031
0.0
1002
}
1002
{
1000
PINS
1011
210.0
1021
148.4999999999999
1031
0.0
1002
}
1002
{
1000
HVAL
1000
297
1002
}
1002
{
1000
H
1070
     2
1002
}
1002
{
1000
WVAL
1000
420
1002
}
1002
{
1000
W
1070
     2
1002
}
1002
{
1000
C
1070
     4
1002
}
1001
GENIUS_GENOBJ-N-REC_13
1002
{
1000
OWNER
1000
GEN
1002
}
1001
GENIUS_GENODEF_13
1002
{
1000
HIER
1070
     0
1002
}
1002
{
1000
MANEDIT
1070
     0
1002
}
1002
{
1000
NOSEL
1070
     0
1002
}
1002
{
1000
BEHIND
1070
     0
1002
}
1002
{
1000
OTHER
1070
     0
1002
}
1002
{
1000
REACTOR
1002
}
  0
LINE
  5
11C4D
330
1F
100
AcDbEntity
  8
size
100
AcDbLine
 10
0.0
 20
297.0
 30
0.0
 11
0.0
 21
0.0
 31
0.0
1001
GENIUS_GENREC_14
1002
{
1000
PYDIR
1011
0.0
1021
297.0
1031
0.0
1002
}
1002
{
1000
PXDIR
1011
420.0
1021
0.0
1031
0.0
1002
}
1002
{
1000
PORI
1011
0.0
1021
0.0
1031
0.0
1002
}
1002
{
1000
PINS
1011
210.0
1021
148.4999999999999
1031
0.0
1002
}
1002
{
1000
HVAL
1000
297
1002
}
1002
{
1000
H
1070
     2
1002
}
1002
{
1000
WVAL
1000
420
1002
}
1002
{
1000
W
1070
     2
1002
}
1002
{
1000
C
1070
     4
1002
}
1001
GENIUS_GENOBJ-N-REC_13
1002
{
1000
OWNER
1000
GEN
1002
}
1001
GENIUS_GENODEF_13
1002
{
1000
HIER
1070
     0
1002
}
1002
{
1000
MANEDIT
1070
     0
1002
}
1002
{
1000
NOSEL
1070
     0
1002
}
1002
{
1000
BEHIND
1070
     0
1002
}
1002
{
1000
OTHER
1070
     0
1002
}
1002
{
1000
REACTOR
1002
}
  0
LINE
  5
11C4E
330
1F
100
AcDbEntity
  8
waku
100
AcDbLine
 10
408.4999999999999
 20
8.5
 30
0.0
 11
408.4999999999999
 21
288.5
 31
0.0
1001
GENIUS_GENREC_14
1002
{
1000
PYDIR
1011
0.0
1021
297.0
1031
0.0
1002
}
1002
{
1000
PXDIR
1011
420.0
1021
0.0
1031
0.0
1002
}
1002
{
1000
PORI
1011
0.0
1021
0.0
1031
0.0
1002
}
1002
{
1000
PINS
1011
210.0
1021
148.4999999999999
1031
0.0
1002
}
1002
{
1000
HVAL
1000
297
1002
}
1002
{
1000
H
1070
     2
1002
}
1002
{
1000
WVAL
1000
420
1002
}
1002
{
1000
W
1070
     2
1002
}
1002
{
1000
C
1070
     4
1002
}
1001
GENIUS_GENOBJ-N-REC_13
1002
{
1000
OWNER
1000
GEN
1002
}
1001
GENIUS_GENODEF_13
1002
{
1000
HIER
1070
     0
1002
}
1002
{
1000
MANEDIT
1070
     0
1002
}
1002
{
1000
NOSEL
1070
     0
1002
}
1002
{
1000
BEHIND
1070
     0
1002
}
1002
{
1000
OTHER
1070
     0
1002
}
1002
{
1000
REACTOR
1002
}
  0
LINE
  5
11C4F
330
1F
100
AcDbEntity
  8
waku
100
AcDbLine
 10
11.5
 20
288.5
 30
0.0
 11
11.5
 21
8.5
 31
0.0
1001
GENIUS_GENREC_14
1002
{
1000
PYDIR
1011
0.0
1021
297.0
1031
0.0
1002
}
1002
{
1000
PXDIR
1011
420.0
1021
0.0
1031
0.0
1002
}
1002
{
1000
PORI
1011
0.0
1021
0.0
1031
0.0
1002
}
1002
{
1000
PINS
1011
210.0
1021
148.4999999999999
1031
0.0
1002
}
1002
{
1000
HVAL
1000
297
1002
}
1002
{
1000
H
1070
     2
1002
}
1002
{
1000
WVAL
1000
420
1002
}
1002
{
1000
W
1070
     2
1002
}
1002
{
1000
C
1070
     4
1002
}
1001
GENIUS_GENOBJ-N-REC_13
1002
{
1000
OWNER
1000
GEN
1002
}
1001
GENIUS_GENODEF_13
1002
{
1000
HIER
1070
     0
1002
}
1002
{
1000
MANEDIT
1070
     0
1002
}
1002
{
1000
NOSEL
1070
     0
1002
}
1002
{
1000
BEHIND
1070
     0
1002
}
1002
{
1000
OTHER
1070
     0
1002
}
1002
{
1000
REACTOR
1002
}
  0
LINE
  5
11C50
330
1F
100
AcDbEntity
  8
waku
100
AcDbLine
 10
408.4999999999999
 20
288.5
 30
0.0
 11
11.5
 21
288.5
 31
0.0
1001
GENIUS_GENREC_14
1002
{
1000
PYDIR
1011
0.0
1021
297.0
1031
0.0
1002
}
1002
{
1000
PXDIR
1011
420.0
1021
0.0
1031
0.0
1002
}
1002
{
1000
PORI
1011
0.0
1021
0.0
1031
0.0
1002
}
1002
{
1000
PINS
1011
210.0
1021
148.4999999999999
1031
0.0
1002
}
1002
{
1000
HVAL
1000
297
1002
}
1002
{
1000
H
1070
     2
1002
}
1002
{
1000
WVAL
1000
420
1002
}
1002
{
1000
W
1070
     2
1002
}
1002
{
1000
C
1070
     4
1002
}
1001
GENIUS_GENOBJ-N-REC_13
1002
{
1000
OWNER
1000
GEN
1002
}
1001
GENIUS_GENODEF_13
1002
{
1000
HIER
1070
     0
1002
}
1002
{
1000
MANEDIT
1070
     0
1002
}
1002
{
1000
NOSEL
1070
     0
1002
}
1002
{
1000
BEHIND
1070
     0
1002
}
1002
{
1000
OTHER
1070
     0
1002
}
1002
{
1000
REACTOR
1002
}
  0
LINE
  5
11C51
330
1F
100
AcDbEntity
  8
waku
100
AcDbLine
 10
11.5
 20
8.5
 30
0.0
 11
408.4999999999999
 21
8.5
 31
0.0
  0
LINE
  5
11C52
330
1F
100
AcDbEntity
  8
AM_2
100
AcDbLine
 10
31.5
 20
288.5
 30
0.0
 11
31.5
 21
208.5
 31
0.0
  0
LINE
  5
11C53
330
1F
100
AcDbEntity
  8
AM_2
100
AcDbLine
 10
11.5
 20
280.5
 30
0.0
 11
121.5
 21
280.5
 31
0.0
  0
LINE
  5
11C54
330
1F
100
AcDbEntity
  8
AM_2
100
AcDbLine
 10
11.5
 20
272.5
 30
0.0
 11
121.5
 21
272.5
 31
0.0
  0
LINE
  5
11C55
330
1F
100
AcDbEntity
  8
AM_2
100
AcDbLine
 10
11.5
 20
264.5
 30
0.0
 11
121.5
 21
264.5
 31
0.0
  0
LINE
  5
11C56
330
1F
100
AcDbEntity
  8
AM_2
100
AcDbLine
 10
11.5
 20
256.5
 30
0.0
 11
121.5
 21
256.5
 31
0.0
  0
LINE
  5
11C57
330
1F
100
AcDbEntity
  8
AM_2
100
AcDbLine
 10
11.5
 20
248.5
 30
0.0
 11
121.5
 21
248.5
 31
0.0
  0
LINE
  5
11C58
330
1F
100
AcDbEntity
  8
AM_2
100
AcDbLine
 10
31.5
 20
240.5
 30
0.0
 11
121.5
 21
240.5
 31
0.0
  0
LINE
  5
11C59
330
1F
100
AcDbEntity
  8
AM_2
100
AcDbLine
 10
31.5
 20
224.5
 30
0.0
 11
121.5
 21
224.5
 31
0.0
  0
LINE
  5
11C5A
330
1F
100
AcDbEntity
  8
AM_2
100
AcDbLine
 10
31.5
 20
216.5
 30
0.0
 11
121.5
 21
216.5
 31
0.0
  0
LINE
  5
11C5B
330
1F
100
AcDbEntity
  8
AM_0
100
AcDbLine
 10
11.5
 20
288.5
 30
0.0
 11
11.5
 21
208.5
 31
0.0
  0
LINE
  5
11C5C
330
1F
100
AcDbEntity
  8
AM_0
100
AcDbLine
 10
11.5
 20
288.5
 30
0.0
 11
121.5
 21
288.5
 31
0.0
  0
LINE
  5
11C5D
330
1F
100
AcDbEntity
  8
AM_0
100
AcDbLine
 10
121.5
 20
288.5
 30
0.0
 11
121.5
 21
208.5
 31
0.0
  0
LINE
  5
11C5E
330
1F
100
AcDbEntity
  8
AM_0
100
AcDbLine
 10
11.5
 20
208.5
 30
0.0
 11
121.5
 21
208.5
 31
0.0
  0
CIRCLE
  5
11C5F
330
1F
100
AcDbEntity
  8
AM_2
100
AcDbCircle
 10
70.10487280243649
 20
252.283887923598
 30
0.0
 40
2.0
  0
TEXT
  5
11C60
330
1F
100
AcDbEntity
  8
AM_6
100
AcDbText
 10
17.72849994897853
 20
282.9
 30
0.0
 40
3.2
  1
品　名
 41
0.7
100
AcDbText
  0
TEXT
  5
11C61
330
1F
100
AcDbEntity
  8
AM_6
100
AcDbText
 10
17.72849994897853
 20
274.9
 30
0.0
 40
3.2
  1
品　番
 41
0.7
100
AcDbText
  0
TEXT
  5
11C62
330
1F
100
AcDbEntity
  8
AM_6
100
AcDbText
 10
34.7293046933687
 20
282.9
 30
0.0
 40
3.2
  1
丁番吊グレビティヒンジ
 41
0.7
100
AcDbText
  0
TEXT
  5
11C63
330
1F
100
AcDbEntity
  8
AM_6
100
AcDbText
 10
17.72849994897853
 20
266.9
 30
0.0
 40
3.2
  1
材　質
 41
0.7
100
AcDbText
  0
TEXT
  5
11C64
330
1F
100
AcDbEntity
  8
AM_6
100
AcDbText
 10
17.72849994897853
 20
258.9
 30
0.0
 40
3.2
  1
仕上げ
 41
0.7
100
AcDbText
  0
TEXT
  5
11C65
330
1F
100
AcDbEntity
  8
AM_6
100
AcDbText
 10
14.52849990129482
 20
250.9
 30
0.0
 40
3.2
  1
セットビス
 41
0.7
100
AcDbText
  0
TEXT
  5
11C66
330
1F
100
AcDbEntity
  8
AM_6
100
AcDbText
 10
34.92849999666214
 20
250.9
 30
0.0
 40
3.2
  1
呼び3.8×32サラ木ネジ　+　SUS：16本
 41
0.7
100
AcDbText
  0
TEXT
  5
11C67
330
1F
100
AcDbEntity
  8
AM_6
100
AcDbText
 10
34.92849999666214
 20
258.9
 30
0.0
 40
3.2
  1
ヘアーライン
 41
0.7
100
AcDbText
  0
TEXT
  5
11C68
330
1F
100
AcDbEntity
  8
AM_6
100
AcDbText
 10
19.32849997282039
 20
242.9
 30
0.0
 40
3.2
  1
備考
 41
0.7
100
AcDbText
  0
TEXT
  5
11C69
330
1F
100
AcDbEntity
  8
AM_6
100
AcDbText
 10
34.92849999666214
 20
266.9
 30
0.0
 40
3.2
  1
ステンレス
 41
0.7
100
AcDbText
  0
TEXT
  5
11C6A
330
1F
100
AcDbEntity
  8
AM_6
100
AcDbText
 10
34.92849999666214
 20
274.9
 30
0.0
 40
3.2
  1
LH-90/LH-90S
 41
0.7
100
AcDbText
  0
TEXT
  5
11C6B
330
1F
100
AcDbEntity
  8
AM_6
100
AcDbText
 10
34.18339725200065
 20
242.9
 30
0.0
 40
3.2
  1
ドア閉止位置は閉止、開放45°、90°の組替ができます。
 41
0.7
100
AcDbText
  0
TEXT
  5
11C6C
330
1F
100
AcDbEntity
  8
AM_6
100
AcDbText
 10
34.20292176667579
 20
234.9
 30
0.0
 40
3.2
  1
ドアは静止位置より90°回転で約4.5mmせり上がります。
 41
0.7
100
AcDbText
  0
TEXT
  5
11C6D
330
1F
100
AcDbEntity
  8
AM_6
100
AcDbText
 10
34.92849999666214
 20
218.9
 30
0.0
 40
3.2
  1
適用扉重量：20kg
 41
0.7
100
AcDbText
  0
TEXT
  5
11C6E
330
1F
100
AcDbEntity
  8
AM_6
100
AcDbText
 10
34.92849999666214
 20
210.9
 30
0.0
 40
3.2
  1
図は左勝手です。
 41
0.7
100
AcDbText
  0
LINE
  5
11D32
330
1F
100
AcDbEntity
  8
AM_7
 48
0.6
100
AcDbLine
 10
254.6101281598601
 20
112.8590715969409
 30
0.0
 11
254.6101281598601
 21
98.85907159694092
 31
0.0
  0
LINE
  5
11D33
330
1F
100
AcDbEntity
  8
AM_7
 48
0.6
100
AcDbLine
 10
261.6101281598601
 20
105.8590715969409
 30
0.0
 11
247.6101281598601
 21
105.8590715969409
 31
0.0
  0
LINE
  5
11D34
330
1F
100
AcDbEntity
  8
AM_7
 48
0.6
100
AcDbLine
 10
263.6101281598601
 20
137.8590715969409
 30
0.0
 11
263.6101281598601
 21
123.8590715969409
 31
0.0
  0
LINE
  5
11D35
330
1F
100
AcDbEntity
  8
AM_7
 48
0.6
100
AcDbLine
 10
270.6101281598601
 20
130.8590715969409
 30
0.0
 11
256.6101281598601
 21
130.8590715969409
 31
0.0
  0
LINE
  5
11D36
330
1F
100
AcDbEntity
  8
AM_7
 48
0.6
100
AcDbLine
 10
263.6101281598601
 20
88.8590715969409
 30
0.0
 11
263.6101281598601
 21
74.8590715969409
 31
0.0
  0
LINE
  5
11D37
330
1F
100
AcDbEntity
  8
AM_7
 48
0.6
100
AcDbLine
 10
270.6101281598601
 20
81.85907159694091
 30
0.0
 11
256.6101281598601
 21
81.85907159694091
 31
0.0
  0
LINE
  5
11D38
330
1F
100
AcDbEntity
  8
AM_7
 48
0.6
100
AcDbLine
 10
321.61012515986
 20
161.8590715969409
 30
0.0
 11
321.61012515986
 21
147.8590715969409
 31
0.0
  0
LINE
  5
11D39
330
1F
100
AcDbEntity
  8
AM_7
 48
0.6
100
AcDbLine
 10
328.61012515986
 20
154.8590715969409
 30
0.0
 11
314.61012515986
 21
154.8590715969409
 31
0.0
  0
LINE
  5
11D3A
330
1F
100
AcDbEntity
  8
AM_7
 48
0.6
100
AcDbLine
 10
321.61012515986
 20
112.8590715969409
 30
0.0
 11
321.61012515986
 21
98.85907159694092
 31
0.0
  0
LINE
  5
11D3B
330
1F
100
AcDbEntity
  8
AM_7
 48
0.6
100
AcDbLine
 10
328.61012515986
 20
105.8590715969409
 30
0.0
 11
314.61012515986
 21
105.8590715969409
 31
0.0
  0
LINE
  5
11D3C
330
1F
100
AcDbEntity
  8
AM_7
 48
0.6
100
AcDbLine
 10
330.61012515986
 20
137.8590715969409
 30
0.0
 11
330.61012515986
 21
123.8590715969409
 31
0.0
  0
LINE
  5
11D3D
330
1F
100
AcDbEntity
  8
AM_7
 48
0.6
100
AcDbLine
 10
337.61012515986
 20
130.8590715969409
 30
0.0
 11
323.61012515986
 21
130.8590715969409
 31
0.0
  0
LINE
  5
11D3E
330
1F
100
AcDbEntity
  8
AM_7
 48
0.6
100
AcDbLine
 10
330.61012515986
 20
88.8590715969409
 30
0.0
 11
330.61012515986
 21
74.8590715969409
 31
0.0
  0
LINE
  5
11D3F
330
1F
100
AcDbEntity
  8
AM_7
 48
0.6
100
AcDbLine
 10
337.61012515986
 20
81.85907159694091
 30
0.0
 11
323.61012515986
 21
81.85907159694091
 31
0.0
  0
DIMENSION
  5
11D9F
330
1F
100
AcDbEntity
  8
AM_5
100
AcDbDimension
  2
*D10
 10
263.6101281598601
 20
179.8590726069409
 30
0.0
 11
278.1101281598601
 21
182.9590726069409
 31
0.0
 70
    32
 71
     5
 42
29.0
  3
SYS$0
100
AcDbAlignedDimension
 13
292.6101281598601
 23
170.8590715969409
 33
0.0
 14
263.6101281598601
 24
137.8590715969409
 34
0.0
100
AcDbRotatedDimension
1001
ACAD_DSTYLE_DIMINSPECT
1070
   396
1000
100%
1070
   395
1000

1070
   394
1070
    33
1070
   393
1070
     0
  0
DIMENSION
  5
11DE6
330
1F
100
AcDbEntity
  8
AM_5
100
AcDbDimension
  2
*D11
 10
263.6101281598601
 20
179.8590726069404
 30
0.0
 11
259.1101281598601
 21
182.9590726069404
 31
0.0
 70
    32
 71
     5
 42
9.0
  3
SYS$0
100
AcDbAlignedDimension
 13
254.6101281598601
 23
161.8590715969409
 33
0.0
 14
263.6101281598601
 24
137.8590715969409
 34
0.0
100
AcDbRotatedDimension
1001
ACAD_DSTYLE_DIMINSPECT
1070
   396
1000
100%
1070
   395
1000

1070
   394
1070
    33
1070
   393
1070
     0
  0
DIMENSION
  5
11F5E
330
1F
100
AcDbEntity
  8
AM_5
100
AcDbDimension
  2
*D12
 10
302.6101281598601
 20
57.85907159694089
 30
0.0
 11
292.6101281598601
 21
60.95907159694089
 31
0.0
 70
    32
  1
%%c<>
 71
     5
 42
20.0
  3
SYS$0
100
AcDbAlignedDimension
 13
282.6101281598601
 23
69.8590715969409
 33
0.0
 14
302.6101281598601
 24
69.8590715969409
 34
0.0
 50
0.0000000000001018
100
AcDbRotatedDimension
1001
ACAD_DSTYLE_DIMINSPECT
1070
   396
1000
100%
1070
   395
1000

1070
   394
1070
    33
1070
   393
1070
     0
  0
DIMENSION
  5
11FBB
330
1F
100
AcDbEntity
  8
AM_5
100
AcDbDimension
  2
*D13
 10
234.6101311598602
 20
225.6581225969409
 30
0.0
 11
231.5101311598601
 21
228.609067596941
 31
0.0
 70
    32
 71
     5
 42
5.90188999999998
  3
SYS$0
100
AcDbAlignedDimension
 13
246.6101311598602
 23
231.5600125969409
 33
0.0
 14
246.6101311598602
 24
225.6581225969409
 34
0.0
 50
90.0
100
AcDbRotatedDimension
1001
ACAD_DSTYLE_DIMINSPECT
1070
   396
1000
100%
1070
   395
1000

1070
   394
1070
    33
1070
   393
1070
     0
1001
ACAD
1000
DSTYLE
1002
{
1070
   271
1070
     0
1002
}
  0
LINE
  5
1208E
330
1F
100
AcDbEntity
  8
AM_2
100
AcDbLine
 10
31.5
 20
232.5
 30
0.0
 11
121.5
 21
232.5
 31
0.0
  0
TEXT
  5
1208F
330
1F
100
AcDbEntity
  8
AM_6
100
AcDbText
 10
34.20292176667579
 20
226.9
 30
0.0
 40
3.2
  1
※LH-90Sは抜け止めタイプです。（標準在庫品）
 41
0.7
100
AcDbText
  0
LINE
  5
12110
330
1F
100
AcDbEntity
  8
AM_2
100
AcDbLine
 10
185.4809686326957
 20
82.96463566692489
 30
0.0
 11
173.4809686326957
 21
82.96463566692489
 31
0.0
  0
LINE
  5
12111
330
1F
100
AcDbEntity
  8
AM_2
100
AcDbLine
 10
173.4809686326957
 20
82.96463566692489
 30
0.0
 11
173.4809686326957
 21
86.96463566692489
 31
0.0
  0
LINE
  5
12112
330
1F
100
AcDbEntity
  8
AM_2
100
AcDbLine
 10
172.8809701585747
 20
82.96463566692489
 30
0.0
 11
172.8809701585747
 21
86.96463566692489
 31
0.0
  0
LINE
  5
12113
330
1F
100
AcDbEntity
  8
AM_2
100
AcDbLine
 10
136.8809739732728
 20
82.96463566692489
 30
0.0
 11
136.8809739732728
 21
86.96463566692489
 31
0.0
  0
LINE
  5
12114
330
1F
100
AcDbEntity
  8
AM_2
100
AcDbLine
 10
135.8809739732728
 20
82.96463566692489
 30
0.0
 11
135.8809739732728
 21
86.96463566692489
 31
0.0
  0
LINE
  5
12115
330
1F
100
AcDbEntity
  8
AM_2
100
AcDbLine
 10
185.4809686326957
 20
86.96463566692489
 30
0.0
 11
173.4809686326957
 21
86.96463566692489
 31
0.0
  0
LINE
  5
12116
330
1F
100
AcDbEntity
  8
AM_2
100
AcDbLine
 10
172.8809701585747
 20
82.96463566692489
 30
0.0
 11
136.8809739732728
 21
82.96463566692489
 31
0.0
  0
LINE
  5
12117
330
1F
100
AcDbEntity
  8
AM_2
100
AcDbLine
 10
135.8809739732728
 20
82.96463566692489
 30
0.0
 11
123.8809739732728
 21
82.96463566692489
 31
0.0
  0
LINE
  5
12118
330
1F
100
AcDbEntity
  8
AM_2
100
AcDbLine
 10
135.8809739732728
 20
86.96463566692489
 30
0.0
 11
123.8809739732728
 21
86.96463566692489
 31
0.0
  0
LINE
  5
12119
330
1F
100
AcDbEntity
  8
AM_2
100
AcDbLine
 10
172.8809701585747
 20
86.96463566692489
 30
0.0
 11
136.8809739732728
 21
86.96463566692489
 31
0.0
  0
LINE
  5
1211A
330
1F
100
AcDbEntity
  8
AM_0
100
AcDbLine
 10
172.8809701585747
 20
83.86463528545494
 30
0.0
 11
173.1559716844538
 21
83.86463528545494
 31
0.0
  0
LINE
  5
1211B
330
1F
100
AcDbEntity
  8
AM_0
100
AcDbLine
 10
173.4809686326957
 20
83.86463528545494
 30
0.0
 11
173.4809686326957
 21
86.96463566692489
 31
0.0
  0
LINE
  5
1211C
330
1F
100
AcDbEntity
  8
AM_0
100
AcDbLine
 10
172.8809701585747
 20
86.96463566692489
 30
0.0
 11
172.8809701585747
 21
83.86463528545494
 31
0.0
  0
LINE
  5
1211D
330
1F
100
AcDbEntity
  8
AM_0
100
AcDbLine
 10
173.2309686326957
 20
83.86463528545494
 30
0.0
 11
173.4809686326957
 21
83.86463528545494
 31
0.0
  0
LINE
  5
1211E
330
1F
100
AcDbEntity
  8
AM_0
100
AcDbLine
 10
172.9309732103328
 20
87.42901974590393
 30
0.0
 11
172.8809701585747
 21
86.96463566692489
 31
0.0
  0
LINE
  5
1211F
330
1F
100
AcDbEntity
  8
AM_0
100
AcDbLine
 10
173.1809732103328
 20
87.4290216532529
 30
0.0
 11
173.1309701585747
 21
86.50025540264289
 31
0.0
  0
LINE
  5
12120
330
1F
100
AcDbEntity
  8
AM_0
100
AcDbLine
 10
173.4465676927548
 20
87.28414517315092
 30
0.0
 11
173.4809686326957
 21
86.96463566692489
 31
0.0
  0
LINE
  5
12121
330
1F
100
AcDbEntity
  8
AM_0
100
AcDbLine
 10
173.1903535509088
 20
87.25467282207592
 30
0.0
 11
173.2309686326957
 21
86.50024968059694
 31
0.0
  0
LINE
  5
12122
330
1F
100
AcDbEntity
  8
AM_0
100
AcDbLine
 10
173.2309686326957
 20
83.86463528545494
 30
0.0
 11
173.2309686326957
 21
86.50025158794495
 31
0.0
  0
LINE
  5
12123
330
1F
100
AcDbEntity
  8
AM_0
100
AcDbLine
 10
173.1309701585747
 20
86.50025349529391
 30
0.0
 11
173.1309701585747
 21
83.86463528545494
 31
0.0
  0
LINE
  5
12124
330
1F
100
AcDbEntity
  8
AM_11
100
AcDbLine
 10
143.6239015245418
 20
110.2435248461542
 30
0.0
 11
146.4523317003228
 21
113.0719516840753
 31
0.0
  0
LINE
  5
12125
330
1F
100
AcDbEntity
  8
AM_11
100
AcDbLine
 10
169.0797502183898
 20
84.7876794901669
 30
0.0
 11
171.9081765794737
 21
87.61610585125096
 31
0.0
  0
LINE
  5
12126
330
1F
100
AcDbEntity
  8
AM_11
100
AcDbLine
 10
169.0797502183898
 20
84.7876794901669
 30
0.0
 11
143.6239015245418
 21
110.2435248461542
 31
0.0
  0
LINE
  5
12127
330
1F
100
AcDbEntity
  8
AM_11
100
AcDbLine
 10
171.9081765794737
 20
87.61610585125096
 30
0.0
 11
146.4523317003228
 21
113.0719516840753
 31
0.0
  0
LINE
  5
12128
330
1F
100
AcDbEntity
  8
AM_11
100
AcDbLine
 10
169.7161485338188
 20
85.4240758982479
 30
0.0
 11
169.9106027269348
 21
85.2296217051329
 31
0.0
  0
LINE
  5
12129
330
1F
100
AcDbEntity
  8
AM_11
100
AcDbLine
 10
171.9081765794737
 20
87.61610585125096
 30
0.0
 11
169.7161485338188
 21
85.4240758982479
 31
0.0
  0
LINE
  5
1212A
330
1F
100
AcDbEntity
  8
AM_11
100
AcDbLine
 10
172.2719041490538
 20
87.9091203776179
 30
0.0
 11
171.9081803941708
 21
87.61610775859992
 31
0.0
  0
LINE
  5
1212B
330
1F
100
AcDbEntity
  8
AM_11
100
AcDbLine
 10
172.4486810350398
 20
87.73234539898089
 30
0.0
 11
171.7565881395318
 21
87.11096363933689
 31
0.0
  0
LINE
  5
1212C
330
1F
100
AcDbEntity
  8
AM_11
100
AcDbLine
 10
171.7565843248347
 20
87.11096173198791
 30
0.0
 11
169.8929254198058
 21
85.24730091961094
 31
0.0
  0
LINE
  5
1212D
330
1F
100
AcDbEntity
  8
AM_2
100
AcDbLine
 10
34.28097549915197
 20
82.96463566692489
 30
0.0
 11
46.28097549915174
 21
82.96463566692489
 31
0.0
  0
LINE
  5
1212E
330
1F
100
AcDbEntity
  8
AM_2
100
AcDbLine
 10
46.28097549915174
 20
82.96463566692489
 30
0.0
 11
46.28097549915174
 21
86.96463566692489
 31
0.0
  0
LINE
  5
1212F
330
1F
100
AcDbEntity
  8
AM_2
100
AcDbLine
 10
82.88096634388182
 20
82.96463566692489
 30
0.0
 11
82.88096634388182
 21
86.96463566692489
 31
0.0
  0
LINE
  5
12130
330
1F
100
AcDbEntity
  8
AM_2
100
AcDbLine
 10
46.88096634388194
 20
82.96463566692489
 30
0.0
 11
46.88096634388194
 21
86.96463566692489
 31
0.0
  0
LINE
  5
12131
330
1F
100
AcDbEntity
  8
AM_2
100
AcDbLine
 10
83.88096634388181
 20
82.96463566692489
 30
0.0
 11
83.88096634388181
 21
86.96463566692489
 31
0.0
  0
LINE
  5
12132
330
1F
100
AcDbEntity
  8
AM_2
100
AcDbLine
 10
34.28097549915197
 20
86.96463566692489
 30
0.0
 11
46.28097549915174
 21
86.96463566692489
 31
0.0
  0
LINE
  5
12133
330
1F
100
AcDbEntity
  8
AM_2
100
AcDbLine
 10
46.88096634388194
 20
82.96463566692489
 30
0.0
 11
82.88096634388182
 21
82.96463566692489
 31
0.0
  0
LINE
  5
12134
330
1F
100
AcDbEntity
  8
AM_2
100
AcDbLine
 10
83.88096634388181
 20
82.96463566692489
 30
0.0
 11
95.88097397328192
 21
82.96463566692489
 31
0.0
  0
LINE
  5
12135
330
1F
100
AcDbEntity
  8
AM_2
100
AcDbLine
 10
83.88096634388181
 20
86.96463566692489
 30
0.0
 11
95.88097397328192
 21
86.96463566692489
 31
0.0
  0
LINE
  5
12136
330
1F
100
AcDbEntity
  8
AM_2
100
AcDbLine
 10
46.88096634388194
 20
86.96463566692489
 30
0.0
 11
82.88096634388182
 21
86.96463566692489
 31
0.0
  0
LINE
  5
12137
330
1F
100
AcDbEntity
  8
AM_11
100
AcDbLine
 10
50.04579178333177
 20
85.42407780559694
 30
0.0
 11
49.85133377552177
 21
85.22961789043591
 31
0.0
  0
LINE
  5
12138
330
1F
100
AcDbEntity
  8
AM_0
100
AcDbLine
 10
46.88096634388194
 20
83.86463528545494
 30
0.0
 11
46.60597244740188
 21
83.86463528545494
 31
0.0
  0
LINE
  5
12139
330
1F
100
AcDbEntity
  8
AM_0
100
AcDbLine
 10
46.28097549915174
 20
83.86463528545494
 30
0.0
 11
46.28097549915174
 21
86.96463566692489
 31
0.0
  0
LINE
  5
1213A
330
1F
100
AcDbEntity
  8
AM_0
100
AcDbLine
 10
46.88096634388194
 20
86.96463566692489
 30
0.0
 11
46.88096634388194
 21
83.86463528545494
 31
0.0
  0
LINE
  5
1213B
330
1F
100
AcDbEntity
  8
AM_0
100
AcDbLine
 10
46.53097549915173
 20
83.86463528545494
 30
0.0
 11
46.28097549915174
 21
83.86463528545494
 31
0.0
  0
LINE
  5
1213C
330
1F
100
AcDbEntity
  8
AM_11
100
AcDbLine
 10
48.00535599232194
 20
87.11096554668591
 30
0.0
 11
49.86901871204191
 21
85.24730091961094
 31
0.0
  0
LINE
  5
1213D
330
1F
100
AcDbEntity
  8
AM_11
100
AcDbLine
 10
47.85375992298179
 20
87.61610775859992
 30
0.0
 11
73.30961624622194
 21
113.0719516840753
 31
0.0
  0
LINE
  5
1213E
330
1F
100
AcDbEntity
  8
AM_11
100
AcDbLine
 10
76.13803116322173
 20
110.2435248461542
 30
0.0
 11
73.30961624622194
 21
113.0719516840753
 31
0.0
  0
LINE
  5
1213F
330
1F
100
AcDbEntity
  8
AM_11
100
AcDbLine
 10
47.49003616810182
 20
87.90912419231592
 30
0.0
 11
47.85375992298179
 21
87.61611157329696
 31
0.0
  0
LINE
  5
12140
330
1F
100
AcDbEntity
  8
AM_11
100
AcDbLine
 10
47.31326309681185
 20
87.73235302837491
 30
0.0
 11
48.00535599232194
 21
87.11096745403393
 31
0.0
  0
LINE
  5
12141
330
1F
100
AcDbEntity
  8
AM_0
100
AcDbLine
 10
46.83097855091182
 20
87.4290216532529
 30
0.0
 11
46.8809816026718
 21
86.96463757427393
 31
0.0
  0
LINE
  5
12142
330
1F
100
AcDbEntity
  8
AM_0
100
AcDbLine
 10
46.58096329212185
 20
87.42901974590393
 30
0.0
 11
46.63096634388182
 21
86.50025349529391
 31
0.0
  0
LINE
  5
12143
330
1F
100
AcDbEntity
  8
AM_0
100
AcDbLine
 10
46.31538406849176
 20
87.28414517315092
 30
0.0
 11
46.28097549915174
 21
86.96463566692489
 31
0.0
  0
LINE
  5
12144
330
1F
100
AcDbEntity
  8
AM_0
100
AcDbLine
 10
46.57157913685182
 20
87.25467091472792
 30
0.0
 11
46.53096024036176
 21
86.50025158794495
 31
0.0
  0
LINE
  5
12145
330
1F
100
AcDbEntity
  8
AM_11
100
AcDbLine
 10
47.85375992298179
 20
87.61610775859992
 30
0.0
 11
50.04579178333177
 21
85.42407780559694
 31
0.0
  0
LINE
  5
12146
330
1F
100
AcDbEntity
  8
AM_11
100
AcDbLine
 10
50.68219009876179
 20
84.78768139751593
 30
0.0
 11
47.85375992298179
 21
87.61610775859992
 31
0.0
  0
LINE
  5
12147
330
1F
100
AcDbEntity
  8
AM_11
100
AcDbLine
 10
50.68219009876179
 20
84.78768139751593
 30
0.0
 11
76.13803116322173
 21
110.2435248461542
 31
0.0
  0
LINE
  5
12148
330
1F
100
AcDbEntity
  8
AM_0
100
AcDbLine
 10
46.53097549915173
 20
83.86463528545494
 30
0.0
 11
46.53097549915173
 21
86.50025158794495
 31
0.0
  0
LINE
  5
12149
330
1F
100
AcDbEntity
  8
AM_0
100
AcDbLine
 10
46.63096634388182
 20
86.50025349529391
 30
0.0
 11
46.63096634388182
 21
83.86463528545494
 31
0.0
  0
LINE
  5
1214A
330
1F
100
AcDbEntity
  8
AM_2
100
AcDbLine
 10
68.08097855091182
 20
67.96463566692489
 30
0.0
 11
68.08097855091182
 21
75.96463566692489
 31
0.0
  0
LINE
  5
1214B
330
1F
100
AcDbEntity
  8
AM_2
100
AcDbLine
 10
62.08097855091182
 20
67.96463566692489
 30
0.0
 11
62.08097855091182
 21
75.96463566692489
 31
0.0
  0
LINE
  5
1214C
330
1F
100
AcDbEntity
  8
AM_2
100
AcDbLine
 10
60.08097855091182
 20
75.96463566692489
 30
0.0
 11
62.08097855091182
 21
75.96463566692489
 31
0.0
  0
LINE
  5
1214D
330
1F
100
AcDbEntity
  8
AM_2
100
AcDbLine
 10
62.08097855091182
 20
67.96463566692489
 30
0.0
 11
68.08097855091182
 21
67.96463566692489
 31
0.0
  0
LINE
  5
1214E
330
1F
100
AcDbEntity
  8
AM_2
100
AcDbLine
 10
65.08097855091182
 20
80.96463185222791
 30
0.0
 11
60.08097855091182
 21
75.96463185222791
 31
0.0
  0
LINE
  5
1214F
330
1F
100
AcDbEntity
  8
AM_2
100
AcDbLine
 10
70.08097855091182
 20
75.96463185222791
 30
0.0
 11
65.08097855091182
 21
80.96463185222791
 31
0.0
  0
LINE
  5
12150
330
1F
100
AcDbEntity
  8
AM_2
100
AcDbLine
 10
68.08097855091182
 20
75.96463566692489
 30
0.0
 11
70.08097855091182
 21
75.96463566692489
 31
0.0
  0
LINE
  5
12151
330
1F
100
AcDbEntity
  8
AM_2
100
AcDbLine
 10
151.6809693956358
 20
67.96463566692489
 30
0.0
 11
151.6809693956358
 21
75.96463566692489
 31
0.0
  0
LINE
  5
12152
330
1F
100
AcDbEntity
  8
AM_2
100
AcDbLine
 10
157.6809655809388
 20
67.96463566692489
 30
0.0
 11
157.6809655809388
 21
75.96463566692489
 31
0.0
  0
LINE
  5
12153
330
1F
100
AcDbEntity
  8
AM_2
100
AcDbLine
 10
151.6809693956358
 20
75.96463566692489
 30
0.0
 11
149.6809693956357
 21
75.96463566692489
 31
0.0
  0
LINE
  5
12154
330
1F
100
AcDbEntity
  8
AM_2
100
AcDbLine
 10
159.6809655809388
 20
75.96463566692489
 30
0.0
 11
157.6809655809388
 21
75.96463566692489
 31
0.0
  0
LINE
  5
12155
330
1F
100
AcDbEntity
  8
AM_2
100
AcDbLine
 10
157.6809655809388
 20
67.96463566692489
 30
0.0
 11
151.6809693956358
 21
67.96463566692489
 31
0.0
  0
LINE
  5
12156
330
1F
100
AcDbEntity
  8
AM_2
100
AcDbLine
 10
154.6809655809388
 20
80.96463757427391
 30
0.0
 11
159.6809655809388
 21
75.96463757427392
 31
0.0
  0
LINE
  5
12157
330
1F
100
AcDbEntity
  8
AM_2
100
AcDbLine
 10
149.6809693956357
 20
75.96463757427392
 30
0.0
 11
154.6809655809388
 21
80.96463757427391
 31
0.0
  0
ARC
  5
12158
330
1F
100
AcDbEntity
  8
AM_0
100
AcDbCircle
 10
173.1809693956357
 20
88.46463662059893
 30
0.0
 40
0.8500000238419001
100
AcDbArc
 50
90.0000025044752
 51
88.31457455223373
  0
ARC
  5
12159
330
1F
100
AcDbEntity
  8
AM_0
100
AcDbCircle
 10
173.1809693956357
 20
88.46463662059893
 30
0.0
 40
1.210000038146999
100
AcDbArc
 50
269.5557025242441
 51
257.3203009271546
  0
ARC
  5
1215A
330
1F
100
AcDbEntity
  8
AM_0
100
AcDbCircle
 10
172.6809693956357
 20
87.42901974590393
 30
0.0
 40
0.25
100
AcDbArc
 50
359.9999820139077
 51
64.22856495461445
  0
ARC
  5
1215B
330
1F
100
AcDbEntity
  8
AM_0
100
AcDbCircle
 10
172.6809693956357
 20
87.42901974590393
 30
0.0
 40
0.5
100
AcDbArc
 50
359.9999820139077
 51
21.88590173293711
  0
ARC
  5
1215C
330
1F
100
AcDbEntity
  8
AM_11
100
AcDbCircle
 10
172.0951272630677
 20
88.08589917095293
 30
0.0
 40
0.25
100
AcDbArc
 50
314.9999816722868
 51
19.22856711747263
  0
ARC
  5
1215D
330
1F
100
AcDbEntity
  8
AM_11
100
AcDbCircle
 10
172.0951272630677
 20
88.08589917095293
 30
0.0
 40
0.5
100
AcDbArc
 50
314.9999816722868
 51
336.8859021882496
  0
ARC
  5
1215E
330
1F
100
AcDbEntity
  8
AM_11
100
AcDbCircle
 10
47.6668092393919
 20
88.08589917095293
 30
0.0
 40
0.25
100
AcDbArc
 50
160.7714378914796
 51
225.0000233366657
  0
ARC
  5
1215F
330
1F
100
AcDbEntity
  8
AM_0
100
AcDbCircle
 10
46.58096329212185
 20
88.46463662059893
 30
0.0
 40
0.8500000238419001
100
AcDbArc
 50
91.68543364445055
 51
89.99999203182159
  0
ARC
  5
12160
330
1F
100
AcDbEntity
  8
AM_0
100
AcDbCircle
 10
46.58096329212185
 20
88.46463662059893
 30
0.0
 40
1.210000038146999
100
AcDbArc
 50
282.6806126517739
 51
270.4444731782995
  0
ARC
  5
12161
330
1F
100
AcDbEntity
  8
AM_11
100
AcDbCircle
 10
47.6668092393919
 20
88.08589917095293
 30
0.0
 40
0.5
100
AcDbArc
 50
203.1140928027918
 51
225.0000133187515
  0
ARC
  5
12162
330
1F
100
AcDbEntity
  8
AM_0
100
AcDbCircle
 10
47.08096329212196
 20
87.42901974590393
 30
0.0
 40
0.25
100
AcDbArc
 50
115.7714332241537
 51
180.0000186693385
  0
ARC
  5
12163
330
1F
100
AcDbEntity
  8
AM_0
100
AcDbCircle
 10
47.08096329212196
 20
87.42901974590393
 30
0.0
 40
0.5
100
AcDbArc
 50
158.1140981533776
 51
180.0000186693385
  0
INSERT
  5
12164
330
1F
100
AcDbEntity
  8
AM_0
100
AcDbBlockReference
  2
*U5
 10
218.1261750841118
 20
104.2575395670709
 30
0.0
  0
INSERT
  5
12165
330
1F
100
AcDbEntity
  8
AM_0
100
AcDbBlockReference
  2
*U6
 10
218.1261750841118
 20
104.2575395670709
 30
0.0
  0
INSERT
  5
12166
330
1F
100
AcDbEntity
  8
AM_0
100
AcDbBlockReference
  2
*U7
 10
218.1261750841118
 20
104.2575395670709
 30
0.0
  0
INSERT
  5
12167
330
1F
100
AcDbEntity
  8
AM_0
100
AcDbBlockReference
  2
*U8
 10
218.1261750841118
 20
104.2575395670709
 30
0.0
  0
INSERT
  5
12168
330
1F
100
AcDbEntity
  8
AM_0
100
AcDbBlockReference
  2
*U9
 10
218.1261750841118
 20
104.2575395670709
 30
0.0
  0
DIMENSION
  5
123F8
330
1F
100
AcDbEntity
  8
AM_5
100
AcDbDimension
  2
*D15
 10
246.6101281598601
 20
179.8590726069403
 30
0.0
 11
250.6101281598601
 21
182.9590726069403
 31
0.0
 70
    32
 71
     5
 42
8.0
  3
SYS$0
100
AcDbAlignedDimension
 13
254.6101281598601
 23
161.8590715969409
 33
0.0
 14
246.6101281598601
 24
162.8590715969409
 34
0.0
100
AcDbRotatedDimension
1001
ACAD_DSTYLE_DIMINSPECT
1070
   396
1000
100%
1070
   395
1000

1070
   394
1070
    33
1070
   393
1070
     0
  0
DIMENSION
  5
12420
330
1F
100
AcDbEntity
  8
AM_5
100
AcDbDimension
  2
*D16
 10
338.61012515986
 20
189.8590726069407
 30
0.0
 11
292.6101266598601
 21
192.9590726069407
 31
0.0
 70
    32
 71
     5
 42
91.9999969999999
  3
SYS$0
100
AcDbAlignedDimension
 13
246.6101281598601
 23
162.8590715969409
 33
0.0
 14
338.61012515986
 24
162.8590715969409
 34
0.0
100
AcDbRotatedDimension
1001
ACAD_DSTYLE_DIMINSPECT
1070
   396
1000
100%
1070
   395
1000

1070
   394
1070
    33
1070
   393
1070
     0
  0
DIMENSION
  5
1243F
330
1F
100
AcDbEntity
  8
AM_5
100
AcDbDimension
  2
*D17
 10
350.6101251598601
 20
71.85907159694091
 30
0.0
 11
347.51012515986
 21
118.359071596941
 31
0.0
 70
    32
 71
     5
 42
93.00000000000002
  3
SYS$0
100
AcDbAlignedDimension
 13
336.61012515986
 23
164.8590715969409
 33
0.0
 14
336.61012515986
 24
71.85907159694091
 34
0.0
 50
90.00000000000003
100
AcDbRotatedDimension
1001
ACAD_DSTYLE_DIMINSPECT
1070
   396
1000
100%
1070
   395
1000

1070
   394
1070
    33
1070
   393
1070
     0
  0
DIMENSION
  5
12467
330
1F
100
AcDbEntity
  8
AM_5
100
AcDbDimension
  2
*D18
 10
235.6101281598601
 20
130.8590715969409
 30
0.0
 11
232.5101281598601
 21
142.8590715969409
 31
0.0
 70
    32
 71
     5
 42
24.0
  3
SYS$0
100
AcDbAlignedDimension
 13
247.6101281598601
 23
154.8590715969409
 33
0.0
 14
256.6101281598601
 24
130.8590715969409
 34
0.0
 50
90.00000000000003
100
AcDbRotatedDimension
1001
ACAD_DSTYLE_DIMINSPECT
1070
   396
1000
100%
1070
   395
1000

1070
   394
1070
    33
1070
   393
1070
     0
  0
DIMENSION
  5
1248F
330
1F
100
AcDbEntity
  8
AM_5
100
AcDbDimension
  2
*D19
 10
235.6101281598601
 20
105.8590715969409
 30
0.0
 11
232.5101281598601
 21
118.3590715969409
 31
0.0
 70
    32
 71
     5
 42
25.0
  3
SYS$0
100
AcDbAlignedDimension
 13
256.6101281598601
 23
130.8590715969409
 33
0.0
 14
247.6101281598601
 24
105.8590715969409
 34
0.0
 50
90.00000000000003
100
AcDbRotatedDimension
1001
ACAD_DSTYLE_DIMINSPECT
1070
   396
1000
100%
1070
   395
1000

1070
   394
1070
    33
1070
   393
1070
     0
  0
DIMENSION
  5
124AE
330
1F
100
AcDbEntity
  8
AM_5
100
AcDbDimension
  2
*D20
 10
235.6101281598601
 20
81.85907159694091
 30
0.0
 11
232.5101281598601
 21
93.85907159694095
 31
0.0
 70
    32
 71
     5
 42
24.0
  3
SYS$0
100
AcDbAlignedDimension
 13
247.6101281598601
 23
105.8590715969409
 33
0.0
 14
256.6101281598601
 24
81.85907159694091
 34
0.0
 50
90.00000000000003
100
AcDbRotatedDimension
1001
ACAD_DSTYLE_DIMINSPECT
1070
   396
1000
100%
1070
   395
1000

1070
   394
1070
    33
1070
   393
1070
     0
  0
DIMENSION
  5
124F7
330
1F
100
AcDbEntity
  8
AM_5
100
AcDbDimension
  2
*D21
 10
350.6101431598602
 20
229.0600125969409
 30
0.0
 11
347.5101431598601
 21
223.2133459302743
 31
0.0
 70
    32
 71
     5
 42
2.5
  3
SYS$0
100
AcDbAlignedDimension
 13
338.6101431598602
 23
231.5600125969409
 33
0.0
 14
338.6101431598602
 24
229.0600125969409
 34
0.0
 50
90.0
100
AcDbRotatedDimension
1001
ACAD_DSTYLE_DIMINSPECT
1070
   396
1000
100%
1070
   395
1000

1070
   394
1070
    33
1070
   393
1070
     0
  0
DIMENSION
  5
12527
330
1F
100
AcDbEntity
  8
AM_5
100
AcDbDimension
  2
*D22
 10
338.61012515986
 20
57.85907159694086
 30
0.0
 11
326.11012515986
 21
60.95907159694085
 31
0.0
 70
    32
 71
     5
 42
25.0
  3
SYS$0
100
AcDbAlignedDimension
 13
313.61012515986
 23
73.85907159694091
 33
0.0
 14
338.61012515986
 24
73.85907159694091
 34
0.0
 50
0.0000000000001132
100
AcDbRotatedDimension
1001
ACAD_DSTYLE_DIMINSPECT
1070
   396
1000
100%
1070
   395
1000

1070
   394
1070
    33
1070
   393
1070
     0
  0
DIMENSION
  5
1255A
330
1F
100
AcDbEntity
  8
AM_5
100
AcDbDimension
  2
*D23
 10
307.6100821598601
 20
248.609073606941
 30
0.0
 11
292.6101011598601
 21
251.7090736069409
 31
0.0
 70
    32
  1
（<>）
 71
     5
 42
29.99996199999998
  3
SYS$0
100
AcDbAlignedDimension
 13
277.6101201598601
 23
229.0600225969409
 33
0.0
 14
307.6100821598601
 24
229.0600225969409
 34
0.0
 50
0.0000000000000114
100
AcDbRotatedDimension
1001
ACAD_DSTYLE_DIMINSPECT
1070
   396
1000
100%
1070
   395
1000

1070
   394
1070
    33
1070
   393
1070
     0
  0
DIMENSION
  5
125F1
330
1F
100
AcDbEntity
  8
AM_5
100
AcDbDimension
  2
*D24
 10
143.6239015245418
 20
110.2435248461542
 30
0.0
 11
147.3157016154893
 21
-97.37188714114756
 31
0.0
 70
    34
  1
 
 71
     5
 42
0.78539809783568
  3
SYS$2
100
AcDb2LineAngularDimension
 13
172.8809701585748
 23
86.96463566692489
 33
0.0
 14
136.8809739732728
 24
86.96463566692489
 34
0.0
 15
169.0797502183898
 25
84.7876794901669
 35
0.0
 16
146.3351686671505
 26
98.83935835004628
 36
0.0
1001
ACAD_DSTYLE_DIMINSPECT
1070
   396
1000
100%
1070
   395
1000

1070
   394
1070
    33
1070
   393
1070
     0
1001
ACAD
1000
DSTYLE
1002
{
1070
    41
1040
2.0
1070
   173
1070
     1
1070
   342
1005
0
1070
   343
1005
A66
1070
   344
1005
122CA
1002
}
  0
DIMENSION
  5
125F2
330
1F
100
AcDbEntity
  8
AM_5
100
AcDbDimension
  2
*D25
 10
76.13803879261283
 20
110.2435248461542
 30
0.0
 11
-57.01660535056409
 21
105.6616742996864
 31
0.0
 70
    34
  1
 
 71
     5
 42
0.7853980978356815
  3
SYS$2
100
AcDb2LineAngularDimension
 13
46.88097015857983
 23
86.96463566692489
 33
0.0
 14
82.88096634388185
 24
86.96463566692489
 34
0.0
 15
50.68219009876483
 25
84.7876794901669
 35
0.0
 16
75.79935107127004
 26
93.11144440233622
 36
0.0
1001
ACAD_DSTYLE_DIMINSPECT
1070
   396
1000
100%
1070
   395
1000

1070
   394
1070
    33
1070
   393
1070
     0
1001
ACAD
1000
DSTYLE
1002
{
1070
    41
1040
2.0
1070
   173
1070
     1
1070
   342
1005
0
1070
   343
1005
122CA
1070
   344
1005
A66
1002
}
  0
LINE
  5
126E1
330
1F
100
AcDbEntity
  8
AM_2
100
AcDbLine
 10
286.2821791598601
 20
225.658305596941
 30
0.0
 11
287.6254401598601
 21
226.284678596941
 31
0.0
  0
LINE
  5
126E2
330
1F
100
AcDbEntity
  8
AM_2
100
AcDbLine
 10
286.28216315986
 20
231.559855596941
 30
0.0
 11
287.6254331598601
 21
230.933482596941
 31
0.0
  0
LINE
  5
126E3
330
1F
100
AcDbEntity
  8
AM_2
100
AcDbLine
 10
297.5948081598602
 20
230.933467596941
 30
0.0
 11
298.9380621598601
 21
231.559840596941
 31
0.0
  0
LINE
  5
126E4
330
1F
100
AcDbEntity
  8
AM_2
100
AcDbLine
 10
297.5948241598602
 20
226.284670596941
 30
0.0
 11
298.9380781598601
 21
225.658305596941
 31
0.0
  0
CIRCLE
  5
126E5
330
1F
100
AcDbEntity
  8
AM_2
100
AcDbCircle
 10
292.6101281598601
 20
228.609057596941
 30
0.0
 40
5.0
  0
CIRCLE
  5
126E6
330
1F
100
AcDbEntity
  8
AM_2
100
AcDbCircle
 10
292.6101281598601
 20
228.609057596941
 30
0.0
 40
4.5
  0
ARC
  5
126E7
330
1F
100
AcDbEntity
  8
AM_2
100
AcDbCircle
 10
292.6101281598601
 20
228.609072596941
 30
0.0
 40
7.5
100
AcDbArc
 50
159.0959900000005
 51
200.9038799999977
  0
ARC
  5
126E8
330
1F
100
AcDbEntity
  8
AM_2
100
AcDbCircle
 10
286.0708671598601
 20
226.111468596941
 30
0.0
 40
0.5
100
AcDbArc
 50
200.9045699999989
 51
294.9993599999975
  0
ARC
  5
126E9
330
1F
100
AcDbEntity
  8
AM_2
100
AcDbCircle
 10
292.6101281598601
 20
228.609072596941
 30
0.0
 40
5.5
100
AcDbArc
 50
204.9998200000014
 51
335.0000000000006
  0
ARC
  5
126EA
330
1F
100
AcDbEntity
  8
AM_2
100
AcDbCircle
 10
286.0708671598601
 20
231.106692596941
 30
0.0
 40
0.5
100
AcDbArc
 50
65.00064199999821
 51
159.0954300000011
  0
ARC
  5
126EB
330
1F
100
AcDbEntity
  8
AM_2
100
AcDbCircle
 10
292.6101281598601
 20
228.609072596941
 30
0.0
 40
5.5
100
AcDbArc
 50
25.00003500000243
 51
155.0000000000006
  0
ARC
  5
126EC
330
1F
100
AcDbEntity
  8
AM_2
100
AcDbCircle
 10
299.1493811598601
 20
231.106692596941
 30
0.0
 40
0.5
100
AcDbArc
 50
20.90456699999867
 51
115.0001499999988
  0
ARC
  5
126ED
330
1F
100
AcDbEntity
  8
AM_2
100
AcDbCircle
 10
292.6101281598601
 20
228.609072596941
 30
0.0
 40
7.5
100
AcDbArc
 50
339.0959900000005
 51
20.90400599999864
  0
ARC
  5
126EE
330
1F
100
AcDbEntity
  8
AM_2
100
AcDbCircle
 10
299.1493891598601
 20
226.111453596941
 30
0.0
 40
0.5
100
AcDbArc
 50
244.9998500000012
 51
339.0954300000011
  0
ARC
  5
126EF
330
1F
100
AcDbEntity
  8
AM_2
100
AcDbCircle
 10
292.6101281598601
 20
228.609072596941
 30
0.0
 40
5.5
100
AcDbArc
 50
338.9594599999988
 51
20.16390599999868
  0
ARC
  5
126F0
330
1F
100
AcDbEntity
  8
AM_2
100
AcDbCircle
 10
292.6101281598601
 20
228.609072596941
 30
0.0
 40
5.5
100
AcDbArc
 50
161.1627099999999
 51
199.1572699999984
  0
CIRCLE
  5
12798
330
1F
100
AcDbEntity
  8
AM_0
100
AcDbCircle
 10
292.6101281598601
 20
78.85907159694091
 30
0.0
 40
1.0
  0
CIRCLE
  5
12799
330
1F
100
AcDbEntity
  8
AM_0
100
AcDbCircle
 10
292.6101281598601
 20
78.85907159694091
 30
0.0
 40
0.7
  0
ENDSEC
  0
SECTION
  2
OBJECTS
  0
DICTIONARY
  5
C
330
0
100
AcDbDictionary
281
     1
  3
ACAD_2007HEADERVARS_RT
350
127BB
  3
ACAD_BGPLOT_KEY
350
AB06
  3
ACAD_COLOR
350
A91D
  3
ACAD_GROUP
350
D
  3
ACAD_LAYOUT
350
1A
  3
ACAD_MATERIAL
350
A91C
  3
ACAD_MLEADERSTYLE
350
B595
  3
ACAD_MLINESTYLE
350
17
  3
ACAD_PLOTSETTINGS
350
19
  3
ACAD_PLOTSTYLENAME
350
E
  3
ACAD_SCALELIST
350
B573
  3
ACAD_TABLESTYLE
350
AAB9
  3
ACAD_VISUALSTYLE
350
B0F1
  3
AcAsAppObject
350
3DA1
  3
ACASGREF_MASTER
350
3DE9
  3
ACDB_RECOMPOSE_DATA
350
B5B7
  3
AcDbVariableDictionary
350
34
  3
AcmDictionary
350
47
  3
AD_GREF_MODULE
350
3DEA
  3
AD_MAPI_MODULE
350
3E06
  3
AMG
350
2B
  3
AMGSNAPSETTINGS
350
7D
  3
ASE_INDEX_DICTIONARY
350
B570
  3
MAPISURF_MODULE
350
3DEB
  0
DICTIONARY
  5
3F95
330
2
100
AcDbDictionary
280
     1
281
     1
  3
ACAD_LAYERFILTERS
360
B4F7
  3
ACAD_LAYERSTATES
360
3F96
  3
ACLYDICTIONARY
360
B4F6
  3
AMLAYER_GROUPCOLORS
360
AAB4
  0
DICTIONARY
  5
C26F
330
10
100
AcDbDictionary
280
     1
281
     1
  3
ADSK_XREC_LAYER_RECONCILED
360
C270
  0
DICTIONARY
  5
C271
330
5F85
100
AcDbDictionary
280
     1
281
     1
  3
ADSK_XREC_LAYER_RECONCILED
360
C272
  0
DICTIONARY
  5
C273
330
AC9F
100
AcDbDictionary
280
     1
281
     1
  3
ADSK_XREC_LAYER_RECONCILED
360
C274
  0
DICTIONARY
  5
C275
330
ACA0
100
AcDbDictionary
280
     1
281
     1
  3
ADSK_XREC_LAYER_RECONCILED
360
C276
  0
DICTIONARY
  5
C277
330
ACA1
100
AcDbDictionary
280
     1
281
     1
  3
ADSK_XREC_LAYER_RECONCILED
360
C278
  0
DICTIONARY
  5
C279
330
ACC8
100
AcDbDictionary
280
     1
281
     1
  3
ADSK_XREC_LAYER_RECONCILED
360
C27A
  0
DICTIONARY
  5
C27B
330
ACC9
100
AcDbDictionary
280
     1
281
     1
  3
ADSK_XREC_LAYER_RECONCILED
360
C27C
  0
DICTIONARY
  5
C27D
330
ACCA
100
AcDbDictionary
280
     1
281
     1
  3
ADSK_XREC_LAYER_RECONCILED
360
C27E
  0
DICTIONARY
  5
C27F
330
AD60
100
AcDbDictionary
280
     1
281
     1
  3
ADSK_XREC_LAYER_RECONCILED
360
C280
  0
DICTIONARY
  5
C281
330
AD64
100
AcDbDictionary
280
     1
281
     1
  3
ADSK_XREC_LAYER_RECONCILED
360
C282
  0
DICTIONARY
  5
C283
330
AD67
100
AcDbDictionary
280
     1
281
     1
  3
ADSK_XREC_LAYER_RECONCILED
360
C284
  0
DICTIONARY
  5
C285
330
AD68
100
AcDbDictionary
280
     1
281
     1
  3
ADSK_XREC_LAYER_RECONCILED
360
C286
  0
DICTIONARY
  5
C287
330
AD69
100
AcDbDictionary
280
     1
281
     1
  3
ADSK_XREC_LAYER_RECONCILED
360
C288
  0
DICTIONARY
  5
C289
330
AD6A
100
AcDbDictionary
280
     1
281
     1
  3
ADSK_XREC_LAYER_RECONCILED
360
C28A
  0
DICTIONARY
  5
C28B
330
AD6E
100
AcDbDictionary
280
     1
281
     1
  3
ADSK_XREC_LAYER_RECONCILED
360
C28C
  0
DICTIONARY
  5
C28D
330
AD6F
100
AcDbDictionary
280
     1
281
     1
  3
ADSK_XREC_LAYER_RECONCILED
360
C28E
  0
DICTIONARY
  5
C28F
330
B1B6
100
AcDbDictionary
280
     1
281
     1
  3
ADSK_XREC_LAYER_RECONCILED
360
C290
  0
DICTIONARY
  5
C291
330
B2EB
100
AcDbDictionary
280
     1
281
     1
  3
ADSK_XREC_LAYER_RECONCILED
360
C292
  0
DICTIONARY
  5
C293
330
B2EC
100
AcDbDictionary
280
     1
281
     1
  3
ADSK_XREC_LAYER_RECONCILED
360
C294
  0
DICTIONARY
  5
8A
330
1F
100
AcDbDictionary
280
     1
281
     1
  3
ACAD_SORTENTS
360
B1BA
  0
DICTIONARY
  5
127BB
102
{ACAD_REACTORS
330
C
102
}
330
C
100
AcDbDictionary
281
     1
  3
DIMARCSYM
350
127BC
  0
DICTIONARY
  5
AB06
102
{ACAD_REACTORS
330
C
102
}
330
C
100
AcDbDictionary
280
     1
281
     1
  0
DICTIONARY
  5
A91D
102
{ACAD_REACTORS
330
C
102
}
330
C
100
AcDbDictionary
281
     1
  0
DICTIONARY
  5
D
102
{ACAD_REACTORS
330
C
102
}
330
C
100
AcDbDictionary
281
     1
  0
DICTIONARY
  5
1A
102
{ACAD_REACTORS
330
C
102
}
330
C
100
AcDbDictionary
281
     1
  3
Model
350
22
  3
ﾚｲｱｳﾄ1
350
1E
  3
ﾚｲｱｳﾄ2
350
26
  0
DICTIONARY
  5
A91C
102
{ACAD_REACTORS
330
C
102
}
330
C
100
AcDbDictionary
281
     1
  3
ByBlock
350
B0EF
  3
ByLayer
350
B0EE
  3
Global
350
B0F0
  0
DICTIONARY
  5
B595
102
{ACAD_REACTORS
330
C
102
}
330
C
100
AcDbDictionary
281
     1
  3
Standard
350
B596
  0
DICTIONARY
  5
17
102
{ACAD_REACTORS
330
C
102
}
330
C
100
AcDbDictionary
281
     1
  3
Standard
350
18
  0
DICTIONARY
  5
19
102
{ACAD_REACTORS
330
C
102
}
330
C
100
AcDbDictionary
281
     1
  0
ACDBDICTIONARYWDFLT
  5
E
102
{ACAD_REACTORS
330
C
102
}
330
C
100
AcDbDictionary
281
     1
  3
Normal
350
F
100
AcDbDictionaryWithDefault
340
F
  0
DICTIONARY
  5
B573
102
{ACAD_REACTORS
330
C
102
}
330
C
100
AcDbDictionary
281
     1
  3
A0
350
B574
  3
A1
350
B575
  3
A2
350
B576
  3
A3
350
B577
  3
A4
350
B578
  3
A5
350
B579
  3
A6
350
B57A
  3
A7
350
B57B
  3
A8
350
B57C
  3
A9
350
B57D
  3
B0
350
B57E
  3
B1
350
B57F
  3
B2
350
B580
  3
B3
350
B581
  3
B4
350
B582
  3
B5
350
B583
  3
B6
350
B584
  3
B7
350
B585
  3
B8
350
B586
  3
B9
350
B587
  3
C0
350
B588
  3
C1
350
B589
  3
C2
350
B58A
  3
C3
350
B58B
  3
C4
350
B58C
  3
C5
350
B58D
  3
C6
350
B58E
  3
C7
350
B58F
  3
C8
350
B590
  3
C9
350
B591
  3
D0
350
B592
  3
D1
350
B593
  3
D2
350
B594
  0
DICTIONARY
  5
AAB9
102
{ACAD_REACTORS
330
C
102
}
330
C
100
AcDbDictionary
281
     1
  3
Standard
350
AABA
  0
DICTIONARY
  5
B0F1
102
{ACAD_REACTORS
330
C
102
}
330
C
100
AcDbDictionary
281
     1
  3
2dWireframe
350
B0F7
  3
3D Hidden
350
B0F9
  3
3dWireframe
350
B0F8
  3
Basic
350
B0F6
  3
Brighten
350
B0FD
  3
ColorChange
350
B101
  3
Conceptual
350
B0FA
  3
Dim
350
B0FC
  3
Facepattern
350
B100
  3
Flat
350
B0F2
  3
FlatWithEdges
350
B0F3
  3
Gouraud
350
B0F4
  3
GouraudWithEdges
350
B0F5
  3
Linepattern
350
B0FF
  3
Realistic
350
B0FB
  3
Thicken
350
B0FE
  0
ACAD_PROXY_OBJECT
  5
3DA1
102
{ACAD_REACTORS
330
C
102
}
330
C
100
AcDbProxyObject
 90
      499
 91
      576
 95
   917527
 70
     0
 93
       10
310
404C
 94
        0
  0
ACAD_PROXY_OBJECT
  5
3DE9
102
{ACAD_REACTORS
330
C
102
}
330
C
100
AcDbProxyObject
 90
      499
 91
      581
 95
   917527
 70
     0
 93
       34
310
010000404C
 94
        0
  0
XRECORD
  5
B5B7
102
{ACAD_REACTORS
330
C
102
}
330
C
100
AcDbXrecord
280
     1
 90
        1
330
AABA
  0
DICTIONARY
  5
34
102
{ACAD_REACTORS
330
C
102
}
330
C
100
AcDbDictionary
281
     1
  3
CANNOSCALE
350
B5BA
  3
CMLEADERSTYLE
350
B5B8
  3
CTABLESTYLE
350
AAF3
  3
DIMASSOC
350
A10C
  3
FIELDEVAL
350
AB07
  3
INDEXCTL
350
35
  3
LIGHTINGUNITS
350
B5BB
  3
MSLTSCALE
350
B5B9
  3
SORTENTS
350
194C
  0
DICTIONARY
  5
47
102
{ACAD_REACTORS
330
C
102
}
330
C
100
AcDbDictionary
281
     1
  3
AcmBOM
350
7E8
  3
AcmStdDictionary
350
4C
  3
AMDTSECTSYM_ARROWCOLOR
350
A929
  0
ACAD_PROXY_OBJECT
  5
3DEA
102
{ACAD_REACTORS
330
C
102
}
330
C
100
AcDbProxyObject
 90
      499
 91
      582
 95
   917527
 70
     0
 93
      114
310
00000043800000000000000000000C
 94
        0
  0
ACAD_PROXY_OBJECT
  5
3E06
102
{ACAD_REACTORS
330
C
102
}
330
C
100
AcDbProxyObject
 90
      499
 91
      594
 95
   917527
 70
     0
 93
       34
310
05000044CC
 94
        0
  0
DICTIONARY
  5
2B
102
{ACAD_REACTORS
330
C
102
}
330
C
100
AcDbDictionary
281
     1
  0
DICTIONARY
  5
7D
102
{ACAD_REACTORS
330
C
102
}
330
C
100
AcDbDictionary
281
     1
  0
DICTIONARY
  5
B570
102
{ACAD_REACTORS
330
C
102
}
330
C
100
AcDbDictionary
281
     1
  3
ASEBlockHierarchyIndexRecord
350
B571
1001
DCO15
1040
1706332604.97
  0
ACAD_PROXY_OBJECT
  5
3DEB
102
{ACAD_REACTORS
330
C
102
}
330
C
100
AcDbProxyObject
 90
      499
 91
      583
 95
   917527
 70
     0
 93
        8
310
047E
 94
        0
  0
DICTIONARY
  5
B4F7
102
{ACAD_REACTORS
330
3F95
102
}
330
3F95
100
AcDbDictionary
281
     1
  0
DICTIONARY
  5
3F96
102
{ACAD_REACTORS
330
3F95
102
}
330
3F95
100
AcDbDictionary
281
     1
  3
20011210
350
3FB7
  0
DICTIONARY
  5
B4F6
102
{ACAD_REACTORS
330
3F95
102
}
330
3F95
100
AcDbDictionary
281
     1
1001
ACAD
1000
<All
  0
DICTIONARY
  5
AAB4
102
{ACAD_REACTORS
330
3F95
102
}
330
3F95
100
AcDbDictionary
280
     1
281
     1
  0
XRECORD
  5
C270
102
{ACAD_REACTORS
330
C26F
102
}
330
C26F
100
AcDbXrecord
280
     1
290
     1
  0
XRECORD
  5
C272
102
{ACAD_REACTORS
330
C271
102
}
330
C271
100
AcDbXrecord
280
     1
290
     1
  0
XRECORD
  5
C274
102
{ACAD_REACTORS
330
C273
102
}
330
C273
100
AcDbXrecord
280
     1
290
     1
  0
XRECORD
  5
C276
102
{ACAD_REACTORS
330
C275
102
}
330
C275
100
AcDbXrecord
280
     1
290
     1
  0
XRECORD
  5
C278
102
{ACAD_REACTORS
330
C277
102
}
330
C277
100
AcDbXrecord
280
     1
290
     1
  0
XRECORD
  5
C27A
102
{ACAD_REACTORS
330
C279
102
}
330
C279
100
AcDbXrecord
280
     1
290
     1
  0
XRECORD
  5
C27C
102
{ACAD_REACTORS
330
C27B
102
}
330
C27B
100
AcDbXrecord
280
     1
290
     1
  0
XRECORD
  5
C27E
102
{ACAD_REACTORS
330
C27D
102
}
330
C27D
100
AcDbXrecord
280
     1
290
     1
  0
XRECORD
  5
C280
102
{ACAD_REACTORS
330
C27F
102
}
330
C27F
100
AcDbXrecord
280
     1
290
     1
  0
XRECORD
  5
C282
102
{ACAD_REACTORS
330
C281
102
}
330
C281
100
AcDbXrecord
280
     1
290
     1
  0
XRECORD
  5
C284
102
{ACAD_REACTORS
330
C283
102
}
330
C283
100
AcDbXrecord
280
     1
290
     1
  0
XRECORD
  5
C286
102
{ACAD_REACTORS
330
C285
102
}
330
C285
100
AcDbXrecord
280
     1
290
     1
  0
XRECORD
  5
C288
102
{ACAD_REACTORS
330
C287
102
}
330
C287
100
AcDbXrecord
280
     1
290
     1
  0
XRECORD
  5
C28A
102
{ACAD_REACTORS
330
C289
102
}
330
C289
100
AcDbXrecord
280
     1
290
     1
  0
XRECORD
  5
C28C
102
{ACAD_REACTORS
330
C28B
102
}
330
C28B
100
AcDbXrecord
280
     1
290
     1
  0
XRECORD
  5
C28E
102
{ACAD_REACTORS
330
C28D
102
}
330
C28D
100
AcDbXrecord
280
     1
290
     1
  0
XRECORD
  5
C290
102
{ACAD_REACTORS
330
C28F
102
}
330
C28F
100
AcDbXrecord
280
     1
290
     1
  0
XRECORD
  5
C292
102
{ACAD_REACTORS
330
C291
102
}
330
C291
100
AcDbXrecord
280
     1
290
     1
  0
XRECORD
  5
C294
102
{ACAD_REACTORS
330
C293
102
}
330
C293
100
AcDbXrecord
280
     1
290
     1
  0
SORTENTSTABLE
  5
B1BA
102
{ACAD_REACTORS
330
8A
102
}
330
8A
100
AcDbSortentsTable
330
1F
331
BF52
  5
B929
331
11AA0
  5
11AA7
331
11A61
  5
11A61
331
11AA8
  5
11AB1
331
12154
  5
12156
331
11C4F
  5
11C59
331
12115
  5
12117
331
1215C
  5
1215E
331
11C57
  5
11C61
331
11DE6
  5
12062
331
1211D
  5
1211F
331
12164
  5
12166
331
11C5F
  5
11C69
331
12125
  5
12127
331
11C67
  5
11D33
331
11F5E
  5
1208E
331
1212D
  5
1212F
331
11AB0
  5
11ABA
331
11A71
  5
11A71
331
11AB8
  5
11AC2
331
11AC0
  5
11C51
331
11A81
  5
11A83
331
11A89
  5
11A9B
331
12135
  5
12137
331
11D37
  5
11D40
331
1213D
  5
1213F
331
1208E
  5
1210E
331
11D3F
  5
11E4C
331
12145
  5
12147
331
11D9F
  5
12061
331
1214D
  5
1214F
331
BF53
  5
B92A
331
11AA1
  5
11AA9
331
11A62
  5
11A62
331
11A6A
  5
11A6A
331
11AA9
  5
11AB2
331
12155
  5
12157
331
11C50
  5
11C5A
331
12116
  5
12118
331
1215D
  5
1215F
331
11C58
  5
11C62
331
1211E
  5
12120
331
12165
  5
12167
331
11C60
  5
11C6A
331
12126
  5
12128
331
1212E
  5
12130
331
11A72
  5
11A72
331
11AB1
  5
11ABB
331
11AB9
  5
11AC9
331
11AC1
  5
11C52
331
11A82
  5
11A84
331
11C68
  5
11D34
331
12136
  5
12138
331
11D38
  5
11D41
331
1213E
  5
12140
331
1208F
  5
1210F
331
12146
  5
12148
331
1214E
  5
12150
331
11A92
  5
11A9C
331
BF54
  5
B92B
331
11A9A
  5
11A9E
331
11AA2
  5
11AAA
331
11A6B
  5
11A6B
331
11AAA
  5
11AB3
331
12156
  5
12158
331
11C51
  5
11C5B
331
12117
  5
12119
331
1215E
  5
12160
331
11C59
  5
11C63
331
1211F
  5
12121
331
12166
  5
12168
331
11C61
  5
11C6B
331
12127
  5
12129
331
1212F
  5
12131
331
11A73
  5
11A73
331
11AB2
  5
11ABC
331
11ABA
  5
11C4B
331
11AC2
  5
11C53
331
11A83
  5
11A86
331
11C69
  5
11D35
331
12137
  5
12139
331
11D39
  5
11D6A
331
1213F
  5
12141
331
12147
  5
12149
331
1214F
  5
12151
331
11A93
  5
11A9D
331
BF55
  5
B92C
331
11A9B
  5
11A9F
331
11AA3
  5
11AAB
331
11A64
  5
11A64
331
11C4A
  5
11C54
331
12110
  5
12112
331
11A6C
  5
11A6C
331
11AAB
  5
11AB4
331
12157
  5
12159
331
11C52
  5
11C5C
331
12118
  5
1211A
331
11C5A
  5
11C64
331
12120
  5
12122
331
1215F
  5
12161
331
12167
  5
123F8
331
11C62
  5
11C6C
331
12128
  5
1212A
331
11AB3
  5
11ABD
331
11A7C
  5
11A7C
331
11ABB
  5
11C4C
331
11A84
  5
11A87
331
11C6A
  5
11D36
331
12130
  5
12132
331
11D32
  5
11D3B
331
12138
  5
1213A
331
11D3A
  5
11D92
331
12140
  5
12142
331
12148
  5
1214A
331
11A9C
  5
11AA0
331
11AA4
  5
11AAC
331
11A65
  5
11A65
331
12150
  5
12152
331
11AAC
  5
11AB5
331
11C4B
  5
11C55
331
12111
  5
12113
331
12158
  5
1215A
331
11C53
  5
11C5D
331
12119
  5
1211B
331
12160
  5
12162
331
11C5B
  5
11C65
331
12121
  5
12123
331
12168
  5
12420
331
11C63
  5
11C6D
331
12129
  5
1212B
331
11AB4
  5
11ABE
331
11A7D
  5
11A7E
331
11ABC
  5
11C4D
331
11A85
  5
11A88
331
BF47
  5
B91E
331
11C6B
  5
11D37
331
12131
  5
12133
331
11D33
  5
11D3C
331
12139
  5
1213B
331
11D3B
  5
11D9F
331
12141
  5
12143
331
124AE
  5
124F7
331
1243F
  5
1248F
331
12149
  5
1214B
331
11A9D
  5
11AA1
331
11AA5
  5
11AAE
331
11A66
  5
11A66
331
12151
  5
12153
331
11AAD
  5
11AB7
331
11C4C
  5
11C56
331
12112
  5
12114
331
12467
  5
124AE
331
12159
  5
1215B
331
11C54
  5
11C5E
331
1211A
  5
1211C
331
12161
  5
12163
331
11C5C
  5
11C66
331
12122
  5
12124
331
123F8
  5
1243F
331
11C64
  5
11C6E
331
1212A
  5
1212C
331
1248F
  5
124F6
331
11AB5
  5
11ABF
331
11A7E
  5
11A7F
331
11ABD
  5
11C4E
331
11A86
  5
11A89
331
BF48
  5
B91F
331
12420
  5
12467
331
11C6C
  5
11D38
331
12132
  5
12134
331
11FBB
  5
1208F
331
11D34
  5
11D3D
331
1213A
  5
1213C
331
11D3C
  5
11DE6
331
12142
  5
12144
331
1214A
  5
1214C
331
11A9E
  5
11AA2
331
11AA6
  5
11AAF
331
11A67
  5
11A67
331
12152
  5
12154
331
11C4D
  5
11C57
331
12113
  5
12115
331
11A6F
  5
11A6F
331
11AAE
  5
11AB8
331
1215A
  5
1215C
331
11C55
  5
11C5F
331
1211B
  5
1211D
331
12162
  5
12164
331
11C5D
  5
11C67
331
12123
  5
12125
331
11C65
  5
11D07
331
1212B
  5
1212D
331
124F7
  5
12527
331
11A77
  5
11A77
331
11AB6
  5
11AC0
331
11ABE
  5
11C4F
331
11A7F
  5
11A81
331
11A87
  5
11A92
331
BF49
  5
B920
331
11C6D
  5
11D39
331
12133
  5
12135
331
11D35
  5
11D3E
331
1213B
  5
1213D
331
12527
  5
1254F
331
11D3D
  5
11E0E
331
12143
  5
12145
331
1214B
  5
1214D
331
11A9F
  5
11AA5
331
11AA7
  5
11AB0
331
11A68
  5
11A68
331
12153
  5
12155
331
11C4E
  5
11C58
331
12114
  5
12116
331
11AAF
  5
11AB9
331
1215B
  5
1215D
331
1211C
  5
1211E
331
11C56
  5
11C60
331
12163
  5
12165
331
11C5E
  5
11C68
331
12124
  5
12126
331
11C66
  5
11D32
331
1212C
  5
1212E
331
11A70
  5
11A70
331
11AB7
  5
11AC1
331
11A78
  5
11A78
331
11ABF
  5
11C50
331
11A80
  5
11A82
331
11A88
  5
11A93
331
BF4A
  5
B921
331
11C6E
  5
11D3A
331
12134
  5
12136
331
11D36
  5
11D3F
331
1213C
  5
1213E
331
11D3E
  5
11E2D
331
12144
  5
12146
331
1214C
  5
1214E
  0
XRECORD
  5
127BC
102
{ACAD_REACTORS
330
127BB
102
}
330
127BB
100
AcDbXrecord
280
     1
 70
     1
  0
LAYOUT
  5
22
102
{ACAD_REACTORS
330
1A
102
}
330
1A
100
AcDbPlotSettings
  1

  2
DocuCentre-II C5400
  4
A3
  6
AM_VIEW1
 40
4.857749938964843
 41
4.942420959472656
 42
4.9423828125
 43
4.857757568359375
 44
297.0106506347656
 45
420.0313415527343
 46
-4.894741058349609
 47
-4.884418487548828
 48
214.3704939521119
 49
367.5855324241176
140
275.6727856380065
141
407.629191407817
142
1.0
143
1.0
 70
  3748
 72
     1
 73
     1
 74
     2
  7
monochrome.ctb
 75
     0
147
0.9670387807518544
 76
     0
 77
     2
 78
   200
148
0.0
149
0.0
100
AcDbLayout
  1
Model
 70
     1
 71
     0
 10
0.0
 20
0.0
 11
12.0
 21
9.0
 12
0.0
 22
0.0
 32
0.0
 14
0.0
 24
0.0
 34
0.0
 15
0.0
 25
0.0
 35
0.0
146
0.0
 13
0.0
 23
0.0
 33
0.0
 16
1.0
 26
0.0
 36
0.0
 17
0.0
 27
1.0
 37
0.0
 76
     0
330
1F
331
B0EC
1001
ACAD_PSEXT
1000
DocuCentre-II C5400
1000
FX DocuCentre-II C5400
1000
192.168.2.200
1000

1070
     0
  0
LAYOUT
  5
1E
102
{ACAD_REACTORS
330
1A
102
}
330
1A
100
AcDbPlotSettings
  1

  2
\\ML370\XEROX
  4
A4
  6

 40
3.174999952316284
 41
3.174999952316284
 42
3.175003051757812
 43
3.17498779296875
 44
209.8674926757813
 45
296.6719970703125
 46
0.0
 47
0.0
 48
0.0
 49
0.0
140
0.0
141
0.0
142
1.0
143
1.0
 70
   688
 72
     1
 73
     1
 74
     5
  7
monochrome.ctb
 75
    16
147
1.0
 76
     0
 77
     2
 78
   300
148
0.0
149
0.0
100
AcDbLayout
  1
ﾚｲｱｳﾄ1
 70
     1
 71
     1
 10
-3.17498779296875
 20
-3.174999952316284
 11
293.4970092773438
 21
206.692492723465
 12
0.0
 22
0.0
 32
0.0
 14
1.000000000000000E+20
 24
1.000000000000000E+20
 34
1.000000000000000E+20
 15
-1.000000000000000E+20
 25
-1.000000000000000E+20
 35
-1.000000000000000E+20
146
0.0
 13
0.0
 23
0.0
 33
0.0
 16
1.0
 26
0.0
 36
0.0
 17
0.0
 27
1.0
 37
0.0
 76
     0
330
1B
  0
LAYOUT
  5
26
102
{ACAD_REACTORS
330
1A
102
}
330
1A
100
AcDbPlotSettings
  1

  2
\\ML370\XEROX
  4

  6

 40
0.0
 41
0.0
 42
0.0
 43
0.0
 44
0.0
 45
0.0
 46
0.0
 47
0.0
 48
0.0
 49
0.0
140
0.0
141
0.0
142
1.0
143
1.0
 70
   688
 72
     0
 73
     0
 74
     5
  7
monochrome.ctb
 75
    16
147
1.0
 76
     0
 77
     2
 78
   300
148
0.0
149
0.0
100
AcDbLayout
  1
ﾚｲｱｳﾄ2
 70
     1
 71
     2
 10
0.0
 20
0.0
 11
12.0
 21
9.0
 12
0.0
 22
0.0
 32
0.0
 14
0.0
 24
0.0
 34
0.0
 15
0.0
 25
0.0
 35
0.0
146
0.0
 13
0.0
 23
0.0
 33
0.0
 16
1.0
 26
0.0
 36
0.0
 17
0.0
 27
1.0
 37
0.0
 76
     0
330
23
  0
MATERIAL
  5
B0EF
102
{ACAD_XDICTIONARY
360
127C0
102
}
102
{ACAD_REACTORS
330
A91C
102
}
330
A91C
100
AcDbMaterial
  1
ByBlock
 73
     1
 78
     1
172
     1
176
     1
270
     1
274
     1
  0
MATERIAL
  5
B0EE
102
{ACAD_XDICTIONARY
360
127BE
102
}
102
{ACAD_REACTORS
330
A91C
102
}
330
A91C
100
AcDbMaterial
  1
ByLayer
 73
     1
 78
     1
172
     1
176
     1
270
     1
274
     1
  0
MATERIAL
  5
B0F0
102
{ACAD_XDICTIONARY
360
127C2
102
}
102
{ACAD_REACTORS
330
A91C
102
}
330
A91C
100
AcDbMaterial
  1
Global
 73
     1
 78
     1
172
     1
176
     1
270
     1
274
     1
  0
MLEADERSTYLE
  5
B596
102
{ACAD_REACTORS
330
B595
102
}
330
B595
100
AcDbMLeaderStyle
170
     2
171
     1
172
     0
 90
        2
 40
0.0
 41
0.0
173
     1
 91
-1056964608
340
14
 92
       -2
290
     1
 42
2.0
291
     1
 43
0.36
  3
Standard
 44
4.0
300

342
11
174
     1
178
     6
175
     1
176
     0
 93
-1056964608
 45
4.0
292
     0
297
     0
 46
4.0
 94
-1056964608
 47
1.0
 49
1.0
140
1.0
293
     1
141
0.0
294
     1
177
     0
142
1.0
295
     0
296
     0
143
0.125
1001
ACAD_MLEADERVER
1070
     2
  0
MLINESTYLE
  5
18
102
{ACAD_REACTORS
330
17
102
}
330
17
100
AcDbMlineStyle
  2
STANDARD
 70
     0
  3

 62
   256
 51
90.0
 52
90.0
 71
     2
 49
0.5
 62
   256
  6
BYLAYER
 49
-0.5
 62
   256
  6
BYLAYER
  0
ACDBPLACEHOLDER
  5
F
102
{ACAD_REACTORS
330
E
102
}
330
E
  0
SCALE
  5
B574
102
{ACAD_REACTORS
330
B573
102
}
330
B573
100
AcDbScale
 70
     0
300
1:1
140
1.0
141
1.0
290
     1
  0
SCALE
  5
B575
102
{ACAD_REACTORS
330
B573
102
}
330
B573
100
AcDbScale
 70
     0
300
1:2
140
1.0
141
2.0
290
     0
  0
SCALE
  5
B576
102
{ACAD_REACTORS
330
B573
102
}
330
B573
100
AcDbScale
 70
     0
300
1:4
140
1.0
141
4.0
290
     0
  0
SCALE
  5
B577
102
{ACAD_REACTORS
330
B573
102
}
330
B573
100
AcDbScale
 70
     0
300
1:5
140
1.0
141
5.0
290
     0
  0
SCALE
  5
B578
102
{ACAD_REACTORS
330
B573
102
}
330
B573
100
AcDbScale
 70
     0
300
1:8
140
1.0
141
8.0
290
     0
  0
SCALE
  5
B579
102
{ACAD_REACTORS
330
B573
102
}
330
B573
100
AcDbScale
 70
     0
300
1:10
140
1.0
141
10.0
290
     0
  0
SCALE
  5
B57A
102
{ACAD_REACTORS
330
B573
102
}
330
B573
100
AcDbScale
 70
     0
300
1:16
140
1.0
141
16.0
290
     0
  0
SCALE
  5
B57B
102
{ACAD_REACTORS
330
B573
102
}
330
B573
100
AcDbScale
 70
     0
300
1:20
140
1.0
141
20.0
290
     0
  0
SCALE
  5
B57C
102
{ACAD_REACTORS
330
B573
102
}
330
B573
100
AcDbScale
 70
     0
300
1:30
140
1.0
141
30.0
290
     0
  0
SCALE
  5
B57D
102
{ACAD_REACTORS
330
B573
102
}
330
B573
100
AcDbScale
 70
     0
300
1:40
140
1.0
141
40.0
290
     0
  0
SCALE
  5
B57E
102
{ACAD_REACTORS
330
B573
102
}
330
B573
100
AcDbScale
 70
     0
300
1:50
140
1.0
141
50.0
290
     0
  0
SCALE
  5
B57F
102
{ACAD_REACTORS
330
B573
102
}
330
B573
100
AcDbScale
 70
     0
300
1:100
140
1.0
141
100.0
290
     0
  0
SCALE
  5
B580
102
{ACAD_REACTORS
330
B573
102
}
330
B573
100
AcDbScale
 70
     0
300
2:1
140
2.0
141
1.0
290
     0
  0
SCALE
  5
B581
102
{ACAD_REACTORS
330
B573
102
}
330
B573
100
AcDbScale
 70
     0
300
4:1
140
4.0
141
1.0
290
     0
  0
SCALE
  5
B582
102
{ACAD_REACTORS
330
B573
102
}
330
B573
100
AcDbScale
 70
     0
300
8:1
140
8.0
141
1.0
290
     0
  0
SCALE
  5
B583
102
{ACAD_REACTORS
330
B573
102
}
330
B573
100
AcDbScale
 70
     0
300
10:1
140
10.0
141
1.0
290
     0
  0
SCALE
  5
B584
102
{ACAD_REACTORS
330
B573
102
}
330
B573
100
AcDbScale
 70
     0
300
100:1
140
100.0
141
1.0
290
     0
  0
SCALE
  5
B585
102
{ACAD_REACTORS
330
B573
102
}
330
B573
100
AcDbScale
 70
     0
300
1/128" = 1'-0"
140
0.0078125
141
12.0
290
     0
  0
SCALE
  5
B586
102
{ACAD_REACTORS
330
B573
102
}
330
B573
100
AcDbScale
 70
     0
300
1/64" = 1'-0"
140
0.015625
141
12.0
290
     0
  0
SCALE
  5
B587
102
{ACAD_REACTORS
330
B573
102
}
330
B573
100
AcDbScale
 70
     0
300
1/32" = 1'-0"
140
0.03125
141
12.0
290
     0
  0
SCALE
  5
B588
102
{ACAD_REACTORS
330
B573
102
}
330
B573
100
AcDbScale
 70
     0
300
1/16" = 1'-0"
140
0.0625
141
12.0
290
     0
  0
SCALE
  5
B589
102
{ACAD_REACTORS
330
B573
102
}
330
B573
100
AcDbScale
 70
     0
300
3/32" = 1'-0"
140
0.09375
141
12.0
290
     0
  0
SCALE
  5
B58A
102
{ACAD_REACTORS
330
B573
102
}
330
B573
100
AcDbScale
 70
     0
300
1/8" = 1'-0"
140
0.125
141
12.0
290
     0
  0
SCALE
  5
B58B
102
{ACAD_REACTORS
330
B573
102
}
330
B573
100
AcDbScale
 70
     0
300
3/16" = 1'-0"
140
0.1875
141
12.0
290
     0
  0
SCALE
  5
B58C
102
{ACAD_REACTORS
330
B573
102
}
330
B573
100
AcDbScale
 70
     0
300
1/4" = 1'-0"
140
0.25
141
12.0
290
     0
  0
SCALE
  5
B58D
102
{ACAD_REACTORS
330
B573
102
}
330
B573
100
AcDbScale
 70
     0
300
3/8" = 1'-0"
140
0.375
141
12.0
290
     0
  0
SCALE
  5
B58E
102
{ACAD_REACTORS
330
B573
102
}
330
B573
100
AcDbScale
 70
     0
300
1/2" = 1'-0"
140
0.5
141
12.0
290
     0
  0
SCALE
  5
B58F
102
{ACAD_REACTORS
330
B573
102
}
330
B573
100
AcDbScale
 70
     0
300
3/4" = 1'-0"
140
0.75
141
12.0
290
     0
  0
SCALE
  5
B590
102
{ACAD_REACTORS
330
B573
102
}
330
B573
100
AcDbScale
 70
     0
300
1" = 1'-0"
140
1.0
141
12.0
290
     0
  0
SCALE
  5
B591
102
{ACAD_REACTORS
330
B573
102
}
330
B573
100
AcDbScale
 70
     0
300
1-1/2" = 1'-0"
140
1.5
141
12.0
290
     0
  0
SCALE
  5
B592
102
{ACAD_REACTORS
330
B573
102
}
330
B573
100
AcDbScale
 70
     0
300
3" = 1'-0"
140
3.0
141
12.0
290
     0
  0
SCALE
  5
B593
102
{ACAD_REACTORS
330
B573
102
}
330
B573
100
AcDbScale
 70
     0
300
6" = 1'-0"
140
6.0
141
12.0
290
     0
  0
SCALE
  5
B594
102
{ACAD_REACTORS
330
B573
102
}
330
B573
100
AcDbScale
 70
     0
300
1'-0" = 1'-0"
140
12.0
141
12.0
290
     0
  0
TABLESTYLE
  5
AABA
102
{ACAD_XDICTIONARY
360
B5B5
102
}
102
{ACAD_REACTORS
330
AAB9
102
}
330
AAB9
100
AcDbTableStyle
  3
Standard
 70
     0
 71
     0
 40
1.5
 41
1.5
280
     0
281
     0
  7
STANDARD
140
4.5
170
     2
 62
     0
 63
     7
283
     0
274
    -2
284
     1
 64
     0
275
    -2
285
     1
 65
     0
276
    -2
286
     1
 66
     0
277
    -2
287
     1
 67
     0
278
    -2
288
     1
 68
     0
279
    -2
289
     1
 69
     0
  7
STANDARD
140
6.0
170
     5
 62
     0
 63
     7
283
     0
274
    -2
284
     1
 64
     0
275
    -2
285
     1
 65
     0
276
    -2
286
     1
 66
     0
277
    -2
287
     1
 67
     0
278
    -2
288
     1
 68
     0
279
    -2
289
     1
 69
     0
  7
STANDARD
140
4.5
170
     5
 62
     0
 63
     7
283
     0
274
    -2
284
     1
 64
     0
275
    -2
285
     1
 65
     0
276
    -2
286
     1
 66
     0
277
    -2
287
     1
 67
     0
278
    -2
288
     1
 68
     0
279
    -2
289
     1
 69
     0
  0
VISUALSTYLE
  5
B0F7
102
{ACAD_REACTORS
330
B0F1
102
}
330
B0F1
100
AcDbVisualStyle
  2
2dWireframe
 70
     4
 71
     0
 72
     2
 73
     0
 90
        0
 40
-0.6
 41
-30.0
 62
     5
 63
     7
421
 16777215
 74
     1
 91
        4
 64
     7
 65
   257
 75
     1
175
     1
 42
1.0
 92
        0
 66
   257
 43
1.0
 76
     1
 77
     6
 78
     2
 67
     7
 79
     5
170
     0
171
     0
290
     0
174
     0
 93
        1
 44
0.0
173
     0
291
     0
 45
0.0
1001
ACAD
1000
AcDbSavedByObjectVersion
1070
     0
  0
VISUALSTYLE
  5
B0F9
102
{ACAD_REACTORS
330
B0F1
102
}
330
B0F1
100
AcDbVisualStyle
  2
3D Hidden
 70
     6
 71
     1
 72
     2
 73
     2
 90
        0
 40
-0.6
 41
-30.0
 62
     5
 63
     7
421
 16777215
 74
     2
 91
        2
 64
     7
 65
   257
 75
     2
175
     1
 42
40.0
 92
        0
 66
   257
 43
1.0
 76
     1
 77
     6
 78
     2
 67
     7
 79
     3
170
     0
171
     0
290
     0
174
     0
 93
        1
 44
0.0
173
     0
291
     0
 45
0.0
1001
ACAD
1000
AcDbSavedByObjectVersion
1070
     0
  0
VISUALSTYLE
  5
B0F8
102
{ACAD_REACTORS
330
B0F1
102
}
330
B0F1
100
AcDbVisualStyle
  2
3dWireframe
 70
     5
 71
     0
 72
     2
 73
     0
 90
        0
 40
-0.6
 41
-30.0
 62
     5
 63
     7
421
 16777215
 74
     1
 91
        4
 64
     7
 65
   257
 75
     1
175
     1
 42
1.0
 92
        0
 66
   257
 43
1.0
 76
     1
 77
     6
 78
     2
 67
     7
 79
     5
170
     0
171
     0
290
     0
174
     0
 93
        1
 44
0.0
173
     0
291
     0
 45
0.0
1001
ACAD
1000
AcDbSavedByObjectVersion
1070
     0
  0
VISUALSTYLE
  5
B0F6
102
{ACAD_REACTORS
330
B0F1
102
}
330
B0F1
100
AcDbVisualStyle
  2
Basic
 70
     7
 71
     1
 72
     0
 73
     1
 90
        0
 40
-0.6
 41
-30.0
 62
     5
 63
     7
421
 16777215
 74
     0
 91
        4
 64
     7
 65
   257
 75
     1
175
     1
 42
1.0
 92
        8
 66
     7
 43
1.0
 76
     1
 77
     6
 78
     2
 67
     7
 79
     5
170
     0
171
     0
290
     0
174
     0
 93
        1
 44
0.0
173
     0
291
     1
 45
0.0
1001
ACAD
1000
AcDbSavedByObjectVersion
1070
     0
  0
VISUALSTYLE
  5
B0FD
102
{ACAD_REACTORS
330
B0F1
102
}
330
B0F1
100
AcDbVisualStyle
  2
Brighten
 70
    12
 71
     2
 72
     2
 73
     0
 90
        0
 40
-0.6
 41
-30.0
 62
     5
 63
     7
421
 16777215
 74
     1
 91
        4
 64
     7
 65
   257
 75
     1
175
     1
 42
1.0
 92
        8
 66
     7
 43
1.0
 76
     1
 77
     6
 78
     2
 67
     7
 79
     5
170
     0
171
     0
290
     0
174
     0
 93
        1
 44
50.0
173
     0
291
     1
 45
0.0
1001
ACAD
1000
AcDbSavedByObjectVersion
1070
     0
  0
VISUALSTYLE
  5
B101
102
{ACAD_REACTORS
330
B0F1
102
}
330
B0F1
100
AcDbVisualStyle
  2
ColorChange
 70
    16
 71
     2
 72
     2
 73
     3
 90
        0
 40
-0.6
 41
-30.0
 62
     5
 63
     8
421
  8421504
 74
     1
 91
        4
 64
     7
 65
   257
 75
     1
175
     1
 42
1.0
 92
        8
 66
     8
424
  8421504
 43
1.0
 76
     1
 77
     6
 78
     2
 67
     7
 79
     5
170
     0
171
     0
290
     0
174
     0
 93
        1
 44
0.0
173
     0
291
     1
 45
0.0
1001
ACAD
1000
AcDbSavedByObjectVersion
1070
     0
  0
VISUALSTYLE
  5
B0FA
102
{ACAD_REACTORS
330
B0F1
102
}
330
B0F1
100
AcDbVisualStyle
  2
Conceptual
 70
     9
 71
     3
 72
     2
 73
     0
 90
        0
 40
-0.6
 41
-30.0
 62
     5
 63
     7
421
 16777215
 74
     2
 91
        2
 64
     7
 65
   257
 75
     1
175
     1
 42
40.0
 92
        8
 66
     7
 43
1.0
 76
     1
 77
     6
 78
     2
 67
     7
 79
     3
170
     0
171
     0
290
     0
174
     0
 93
        1
 44
0.0
173
     0
291
     0
 45
0.0
1001
ACAD
1000
AcDbSavedByObjectVersion
1070
     0
  0
VISUALSTYLE
  5
B0FC
102
{ACAD_REACTORS
330
B0F1
102
}
330
B0F1
100
AcDbVisualStyle
  2
Dim
 70
    11
 71
     2
 72
     2
 73
     0
 90
        0
 40
-0.6
 41
-30.0
 62
     5
 63
     7
421
 16777215
 74
     1
 91
        4
 64
     7
 65
   257
 75
     1
175
     1
 42
1.0
 92
        8
 66
     7
 43
1.0
 76
     1
 77
     6
 78
     2
 67
     7
 79
     5
170
     0
171
     0
290
     0
174
     0
 93
        1
 44
-50.0
173
     0
291
     1
 45
0.0
1001
ACAD
1000
AcDbSavedByObjectVersion
1070
     0
  0
VISUALSTYLE
  5
B100
102
{ACAD_REACTORS
330
B0F1
102
}
330
B0F1
100
AcDbVisualStyle
  2
Facepattern
 70
    15
 71
     2
 72
     2
 73
     0
 90
        0
 40
-0.6
 41
-30.0
 62
     5
 63
     7
421
 16777215
 74
     1
 91
        4
 64
     7
 65
   257
 75
     1
175
     1
 42
1.0
 92
        8
 66
     7
 43
1.0
 76
     1
 77
     6
 78
     2
 67
     7
 79
     5
170
     0
171
     0
290
     0
174
     0
 93
        1
 44
0.0
173
     0
291
     1
 45
0.0
1001
ACAD
1000
AcDbSavedByObjectVersion
1070
     0
  0
VISUALSTYLE
  5
B0F2
102
{ACAD_REACTORS
330
B0F1
102
}
330
B0F1
100
AcDbVisualStyle
  2
Flat
 70
     0
 71
     2
 72
     1
 73
     1
 90
        2
 40
-0.6
 41
30.0
 62
     5
 63
     7
421
 16777215
 74
     0
 91
        4
 64
     7
 65
   257
 75
     1
175
     1
 42
1.0
 92
        8
 66
     7
 43
1.0
 76
     1
 77
     6
 78
     2
 67
     7
 79
     5
170
     0
171
     0
290
     0
174
     0
 93
       13
 44
0.0
173
     0
291
     1
 45
0.0
1001
ACAD
1000
AcDbSavedByObjectVersion
1070
     0
  0
VISUALSTYLE
  5
B0F3
102
{ACAD_REACTORS
330
B0F1
102
}
330
B0F1
100
AcDbVisualStyle
  2
FlatWithEdges
 70
     1
 71
     2
 72
     1
 73
     1
 90
        2
 40
-0.6
 41
30.0
 62
     5
 63
     7
421
 16777215
 74
     1
 91
        4
 64
     7
 65
   257
 75
     1
175
     1
 42
1.0
 92
        0
 66
   257
 43
1.0
 76
     1
 77
     6
 78
     2
 67
     7
 79
     5
170
     0
171
     0
290
     0
174
     0
 93
       13
 44
0.0
173
     0
291
     1
 45
0.0
1001
ACAD
1000
AcDbSavedByObjectVersion
1070
     0
  0
VISUALSTYLE
  5
B0F4
102
{ACAD_REACTORS
330
B0F1
102
}
330
B0F1
100
AcDbVisualStyle
  2
Gouraud
 70
     2
 71
     2
 72
     2
 73
     1
 90
        2
 40
-0.6
 41
30.0
 62
     5
 63
     7
421
 16777215
 74
     0
 91
        4
 64
     7
 65
   257
 75
     1
175
     1
 42
1.0
 92
        0
 66
     7
 43
1.0
 76
     1
 77
     6
 78
     2
 67
     7
 79
     5
170
     0
171
     0
290
     0
174
     0
 93
       13
 44
0.0
173
     0
291
     1
 45
0.0
1001
ACAD
1000
AcDbSavedByObjectVersion
1070
     0
  0
VISUALSTYLE
  5
B0F5
102
{ACAD_REACTORS
330
B0F1
102
}
330
B0F1
100
AcDbVisualStyle
  2
GouraudWithEdges
 70
     3
 71
     2
 72
     2
 73
     1
 90
        2
 40
-0.6
 41
30.0
 62
     5
 63
     7
421
 16777215
 74
     1
 91
        4
 64
     7
 65
   257
 75
     1
175
     1
 42
1.0
 92
        0
 66
   257
 43
1.0
 76
     1
 77
     6
 78
     2
 67
     7
 79
     5
170
     0
171
     0
290
     0
174
     0
 93
       13
 44
0.0
173
     0
291
     1
 45
0.0
1001
ACAD
1000
AcDbSavedByObjectVersion
1070
     0
  0
VISUALSTYLE
  5
B0FF
102
{ACAD_REACTORS
330
B0F1
102
}
330
B0F1
100
AcDbVisualStyle
  2
Linepattern
 70
    14
 71
     2
 72
     2
 73
     0
 90
        0
 40
-0.6
 41
-30.0
 62
     5
 63
     7
421
 16777215
 74
     1
 91
        4
 64
     7
 65
   257
 75
     7
175
     7
 42
1.0
 92
        8
 66
     7
 43
1.0
 76
     1
 77
     6
 78
     2
 67
     7
 79
     5
170
     0
171
     0
290
     0
174
     0
 93
        1
 44
0.0
173
     0
291
     1
 45
0.0
1001
ACAD
1000
AcDbSavedByObjectVersion
1070
     0
  0
VISUALSTYLE
  5
B0FB
102
{ACAD_REACTORS
330
B0F1
102
}
330
B0F1
100
AcDbVisualStyle
  2
Realistic
 70
     8
 71
     2
 72
     2
 73
     0
 90
        0
 40
-0.6
 41
-30.0
 62
     5
 63
     7
421
 16777215
 74
     1
 91
        0
 64
     7
 65
   257
 75
     1
175
     1
 42
1.0
 92
        8
 66
     8
424
  7895160
 43
1.0
 76
     1
 77
     6
 78
     2
 67
     7
 79
     5
170
     0
171
     0
290
     0
174
     0
 93
       13
 44
0.0
173
     0
291
     0
 45
0.0
1001
ACAD
1000
AcDbSavedByObjectVersion
1070
     0
  0
VISUALSTYLE
  5
B0FE
102
{ACAD_REACTORS
330
B0F1
102
}
330
B0F1
100
AcDbVisualStyle
  2
Thicken
 70
    13
 71
     2
 72
     2
 73
     0
 90
        0
 40
-0.6
 41
-30.0
 62
     5
 63
     7
421
 16777215
 74
     1
 91
        4
 64
     7
 65
   257
 75
     1
175
     1
 42
1.0
 92
       12
 66
     7
 43
1.0
 76
     1
 77
     6
 78
     2
 67
     7
 79
     5
170
     0
171
     0
290
     0
174
     0
 93
        1
 44
0.0
173
     0
291
     1
 45
0.0
1001
ACAD
1000
AcDbSavedByObjectVersion
1070
     0
  0
DICTIONARYVAR
  5
B5BA
102
{ACAD_REACTORS
330
34
102
}
330
34
100
DictionaryVariables
280
     0
  1
1:1
  0
DICTIONARYVAR
  5
B5B8
102
{ACAD_REACTORS
330
34
102
}
330
34
100
DictionaryVariables
280
     0
  1
STANDARD
  0
DICTIONARYVAR
  5
AAF3
102
{ACAD_REACTORS
330
34
102
}
330
34
100
DictionaryVariables
280
     0
  1
STANDARD
  0
DICTIONARYVAR
  5
A10C
102
{ACAD_REACTORS
330
34
102
}
330
34
100
DictionaryVariables
280
     0
  1
1
  0
DICTIONARYVAR
  5
AB07
102
{ACAD_REACTORS
330
34
102
}
330
34
100
DictionaryVariables
280
     0
  1
4
  0
DICTIONARYVAR
  5
35
102
{ACAD_REACTORS
330
34
102
}
330
34
100
DictionaryVariables
280
     0
  1
1
  0
DICTIONARYVAR
  5
B5BB
102
{ACAD_REACTORS
330
34
102
}
330
34
100
DictionaryVariables
280
     0
  1
0
  0
DICTIONARYVAR
  5
B5B9
102
{ACAD_REACTORS
330
34
102
}
330
34
100
DictionaryVariables
280
     0
  1
0
  0
DICTIONARYVAR
  5
194C
102
{ACAD_REACTORS
330
34
102
}
330
34
100
DictionaryVariables
280
     0
  1
96
  0
DICTIONARY
  5
7E8
102
{ACAD_REACTORS
330
47
102
}
330
47
100
AcDbDictionary
281
     1
  0
DICTIONARY
  5
4C
102
{ACAD_REACTORS
330
47
102
}
330
47
100
AcDbDictionary
281
     1
  0
XRECORD
  5
A929
102
{ACAD_REACTORS
330
47
102
}
330
47
100
AcDbXrecord
280
     1
 90
-1023410169
  0
XRECORD
  5
B571
102
{ACAD_REACTORS
330
B570
102
}
330
B570
100
AcDbXrecord
280
     1
  0
XRECORD
  5
3FB7
102
{ACAD_REACTORS
330
3F96
102
}
330
3F96
100
AcDbXrecord
280
     1
 91
        3
330
0
 90
        8
 62
     7
370
    40
331
16
  1
Color_7
330
0
 90
        0
 62
    14
370
    -3
331
16
  1
Color_14
330
0
 90
        8
 62
     7
370
    20
331
16
  1
Color_7
330
6D1
 90
        0
 62
     7
370
    -3
331
16
  1
Color_7
330
0
 90
        8
 62
     7
370
    50
331
16
  1
Color_7
330
0
 90
        8
 62
     2
370
    35
331
16
  1
Color_2
330
0
 90
        8
 62
     7
370
    -3
331
16
  1
Color_7
330
10
 90
        8
 62
     7
370
    -3
331
16
  1
Color_7
  0
DICTIONARY
  5
127C0
330
B0EF
100
AcDbDictionary
280
     1
281
     1
  3
ACAD_XREC_ROUNDTRIP
360
127C1
  0
DICTIONARY
  5
127BE
330
B0EE
100
AcDbDictionary
280
     1
281
     1
  3
ACAD_XREC_ROUNDTRIP
360
127BF
  0
DICTIONARY
  5
127C2
330
B0F0
100
AcDbDictionary
280
     1
281
     1
  3
ACAD_XREC_ROUNDTRIP
360
127C3
  0
DICTIONARY
  5
B5B5
330
AABA
100
AcDbDictionary
280
     1
281
     1
  3
ACAD_ROUNDTRIP_2008_TABLESTYLE_CELLSTYLEMAP
360
127BA
  3
ACAD_XREC_ROUNDTRIP
360
127BD
  0
XRECORD
  5
127C1
102
{ACAD_REACTORS
330
127C0
102
}
330
127C0
100
AcDbXrecord
280
     1
102
MATERIAL
148
0.0
149
0.0
149
0.0
 93
        0
 94
       63
282
     0
 72
     1
 77
     1
171
     1
175
     1
179
     1
273
     0
  0
XRECORD
  5
127BF
102
{ACAD_REACTORS
330
127BE
102
}
330
127BE
100
AcDbXrecord
280
     1
102
MATERIAL
148
0.0
149
0.0
149
0.0
 93
        0
 94
       63
282
     0
 72
     1
 77
     1
171
     1
175
     1
179
     1
273
     0
  0
XRECORD
  5
127C3
102
{ACAD_REACTORS
330
127C2
102
}
330
127C2
100
AcDbXrecord
280
     1
102
MATERIAL
148
0.0
149
0.0
149
0.0
 93
        0
 94
       63
282
     0
 72
     1
 77
     1
171
     1
175
     1
179
     1
273
     0
  0
CELLSTYLEMAP
  5
127BA
102
{ACAD_REACTORS
330
B5B5
102
}
330
B5B5
100
AcDbCellStyleMap
 90
        3
300
CELLSTYLE
  1
TABLEFORMAT_BEGIN
 90
        5
170
     1
 91
        0
 92
    32768
 62
   257
 93
        1
300
CONTENTFORMAT
  1
CONTENTFORMAT_BEGIN
 90
        0
 91
        0
 92
        4
 93
        0
300

 40
0.0
140
1.0
 94
        5
 62
     0
340
11
144
6.0
309
CONTENTFORMAT_END
171
     1
301
MARGIN
  1
CELLMARGIN_BEGIN
 40
1.5
 40
1.5
 40
1.5
 40
1.5
 40
0.18
 40
0.18
309
CELLMARGIN_END
 94
        6
 95
        1
302
GRIDFORMAT
  1
GRIDFORMAT_BEGIN
 90
        0
 91
        1
 62
     0
 92
       -2
340
0
 93
        0
 40
0.045
309
GRIDFORMAT_END
 95
        2
302
GRIDFORMAT
  1
GRIDFORMAT_BEGIN
 90
        0
 91
        1
 62
     0
 92
       -2
340
0
 93
        0
 40
0.045
309
GRIDFORMAT_END
 95
        4
302
GRIDFORMAT
  1
GRIDFORMAT_BEGIN
 90
        0
 91
        1
 62
     0
 92
       -2
340
0
 93
        0
 40
0.045
309
GRIDFORMAT_END
 95
        8
302
GRIDFORMAT
  1
GRIDFORMAT_BEGIN
 90
        0
 91
        1
 62
     0
 92
       -2
340
0
 93
        0
 40
0.045
309
GRIDFORMAT_END
 95
       16
302
GRIDFORMAT
  1
GRIDFORMAT_BEGIN
 90
        0
 91
        1
 62
     0
 92
       -2
340
0
 93
        0
 40
0.045
309
GRIDFORMAT_END
 95
       32
302
GRIDFORMAT
  1
GRIDFORMAT_BEGIN
 90
        0
 91
        1
 62
     0
 92
       -2
340
0
 93
        0
 40
0.045
309
GRIDFORMAT_END
309
TABLEFORMAT_END
  1
CELLSTYLE_BEGIN
 90
        1
 91
        1
300
_TITLE
309
CELLSTYLE_END
300
CELLSTYLE
  1
TABLEFORMAT_BEGIN
 90
        5
170
     1
 91
        0
 92
        0
 62
   257
 93
        1
300
CONTENTFORMAT
  1
CONTENTFORMAT_BEGIN
 90
        0
 91
        0
 92
        4
 93
        0
300

 40
0.0
140
1.0
 94
        5
 62
     0
340
11
144
4.5
309
CONTENTFORMAT_END
171
     1
301
MARGIN
  1
CELLMARGIN_BEGIN
 40
1.5
 40
1.5
 40
1.5
 40
1.5
 40
0.18
 40
0.18
309
CELLMARGIN_END
 94
        6
 95
        1
302
GRIDFORMAT
  1
GRIDFORMAT_BEGIN
 90
        0
 91
        1
 62
     0
 92
       -2
340
0
 93
        0
 40
0.045
309
GRIDFORMAT_END
 95
        2
302
GRIDFORMAT
  1
GRIDFORMAT_BEGIN
 90
        0
 91
        1
 62
     0
 92
       -2
340
0
 93
        0
 40
0.045
309
GRIDFORMAT_END
 95
        4
302
GRIDFORMAT
  1
GRIDFORMAT_BEGIN
 90
        0
 91
        1
 62
     0
 92
       -2
340
0
 93
        0
 40
0.045
309
GRIDFORMAT_END
 95
        8
302
GRIDFORMAT
  1
GRIDFORMAT_BEGIN
 90
        0
 91
        1
 62
     0
 92
       -2
340
0
 93
        0
 40
0.045
309
GRIDFORMAT_END
 95
       16
302
GRIDFORMAT
  1
GRIDFORMAT_BEGIN
 90
        0
 91
        1
 62
     0
 92
       -2
340
0
 93
        0
 40
0.045
309
GRIDFORMAT_END
 95
       32
302
GRIDFORMAT
  1
GRIDFORMAT_BEGIN
 90
        0
 91
        1
 62
     0
 92
       -2
340
0
 93
        0
 40
0.045
309
GRIDFORMAT_END
309
TABLEFORMAT_END
  1
CELLSTYLE_BEGIN
 90
        2
 91
        1
300
_HEADER
309
CELLSTYLE_END
300
CELLSTYLE
  1
TABLEFORMAT_BEGIN
 90
        5
170
     1
 91
        0
 92
        0
 62
   257
 93
        1
300
CONTENTFORMAT
  1
CONTENTFORMAT_BEGIN
 90
        0
 91
        0
 92
        4
 93
        0
300

 40
0.0
140
1.0
 94
        2
 62
     0
340
11
144
4.5
309
CONTENTFORMAT_END
171
     1
301
MARGIN
  1
CELLMARGIN_BEGIN
 40
1.5
 40
1.5
 40
1.5
 40
1.5
 40
0.18
 40
0.18
309
CELLMARGIN_END
 94
        6
 95
        1
302
GRIDFORMAT
  1
GRIDFORMAT_BEGIN
 90
        0
 91
        1
 62
     0
 92
       -2
340
0
 93
        0
 40
0.045
309
GRIDFORMAT_END
 95
        2
302
GRIDFORMAT
  1
GRIDFORMAT_BEGIN
 90
        0
 91
        1
 62
     0
 92
       -2
340
0
 93
        0
 40
0.045
309
GRIDFORMAT_END
 95
        4
302
GRIDFORMAT
  1
GRIDFORMAT_BEGIN
 90
        0
 91
        1
 62
     0
 92
       -2
340
0
 93
        0
 40
0.045
309
GRIDFORMAT_END
 95
        8
302
GRIDFORMAT
  1
GRIDFORMAT_BEGIN
 90
        0
 91
        1
 62
     0
 92
       -2
340
0
 93
        0
 40
0.045
309
GRIDFORMAT_END
 95
       16
302
GRIDFORMAT
  1
GRIDFORMAT_BEGIN
 90
        0
 91
        1
 62
     0
 92
       -2
340
0
 93
        0
 40
0.045
309
GRIDFORMAT_END
 95
       32
302
GRIDFORMAT
  1
GRIDFORMAT_BEGIN
 90
        0
 91
        1
 62
     0
 92
       -2
340
0
 93
        0
 40
0.045
309
GRIDFORMAT_END
309
TABLEFORMAT_END
  1
CELLSTYLE_BEGIN
 90
        3
 91
        2
300
_DATA
309
CELLSTYLE_END
  0
XRECORD
  5
127BD
102
{ACAD_REACTORS
330
B5B5
102
}
330
B5B5
100
AcDbXrecord
280
     1
102
ACAD_ROUNDTRIP_PRE2007_TABLESTYLE
 90
        4
 91
        0
  1

 92
        4
 93
        0
  2

 94
        4
 95
        0
  3

  0
ENDSEC
  0
EOF
