  0
SECTION
  2
HEADER
  9
$ACADVER
  1
AC1018
  9
$ACADMAINTVER
 70
   104
  9
$DWGCODEPAGE
  3
ANSI_932
  9
$LASTSAVEDBY
  1
Administrator
  9
$CUSTOMPROPERTYTAG
  1
AmdtFileType
  9
$CUSTOMPROPERTY
  1
84
  9
$INSBASE
 10
0.0
 20
0.0
 30
0.0
  9
$EXTMIN
 10
0.0
 20
0.0
 30
0.0
  9
$EXTMAX
 10
420.0
 20
297.0
 30
0.0
  9
$LIMMIN
 10
0.0
 20
0.0
  9
$LIMMAX
 10
420.0
 20
297.0
  9
$ORTHOMODE
 70
     0
  9
$REGENMODE
 70
     1
  9
$FILLMODE
 70
     1
  9
$QTEXTMODE
 70
     0
  9
$MIRRTEXT
 70
     0
  9
$LTSCALE
 40
1.0
  9
$ATTMODE
 70
     1
  9
$TEXTSIZE
 40
3.2
  9
$TRACEWID
 40
1.0
  9
$TEXTSTYLE
  7
STANDARD
  9
$CLAYER
  8
AM_0
  9
$CELTYPE
  6
ByLayer
  9
$CECOLOR
 62
   256
  9
$CELTSCALE
 40
1.0
  9
$DISPSILH
 70
     0
  9
$DIMSCALE
 40
1.0
  9
$DIMASZ
 40
1.0
  9
$DIMEXO
 40
1.0
  9
$DIMDLI
 40
10.0
  9
$DIMRND
 40
0.0
  9
$DIMDLE
 40
0.0
  9
$DIMEXE
 40
1.0
  9
$DIMTP
 40
0.1
  9
$DIMTM
 40
0.1
  9
$DIMTXT
 40
3.5
  9
$DIMCEN
 40
0.0
  9
$DIMTSZ
 40
0.0
  9
$DIMTOL
 70
     0
  9
$DIMLIM
 70
     0
  9
$DIMTIH
 70
     0
  9
$DIMTOH
 70
     0
  9
$DIMSE1
 70
     0
  9
$DIMSE2
 70
     0
  9
$DIMTAD
 70
     1
  9
$DIMZIN
 70
     8
  9
$DIMBLK
  1

  9
$DIMASO
 70
     1
  9
$DIMSHO
 70
     1
  9
$DIMPOST
  1

  9
$DIMAPOST
  1
"
  9
$DIMALT
 70
     0
  9
$DIMALTD
 70
     2
  9
$DIMALTF
 40
0.0393701
  9
$DIMLFAC
 40
1.0
  9
$DIMTOFL
 70
     1
  9
$DIMTVP
 40
0.0
  9
$DIMTIX
 70
     0
  9
$DIMSOXD
 70
     0
  9
$DIMSAH
 70
     0
  9
$DIMBLK1
  1

  9
$DIMBLK2
  1

  9
$DIMSTYLE
  2
SYS
  9
$DIMCLRD
 70
   256
  9
$DIMCLRE
 70
   256
  9
$DIMCLRT
 70
     7
  9
$DIMTFAC
 40
0.71
  9
$DIMGAP
 40
1.5
  9
$DIMJUST
 70
     0
  9
$DIMSD1
 70
     0
  9
$DIMSD2
 70
     0
  9
$DIMTOLJ
 70
     0
  9
$DIMTZIN
 70
     8
  9
$DIMALTZ
 70
     0
  9
$DIMALTTZ
 70
     0
  9
$DIMUPT
 70
     0
  9
$DIMDEC
 70
     2
  9
$DIMTDEC
 70
     2
  9
$DIMALTU
 70
     2
  9
$DIMALTTD
 70
     2
  9
$DIMTXSTY
  7
STANDARD
  9
$DIMAUNIT
 70
     0
  9
$DIMADEC
 70
     0
  9
$DIMALTRND
 40
0.0
  9
$DIMAZIN
 70
     2
  9
$DIMDSEP
 70
    46
  9
$DIMATFIT
 70
     3
  9
$DIMFRAC
 70
     0
  9
$DIMLDRBLK
  1

  9
$DIMLUNIT
 70
     2
  9
$DIMLWD
 70
    -1
  9
$DIMLWE
 70
    -1
  9
$DIMTMOVE
 70
     0
  9
$LUNITS
 70
     2
  9
$LUPREC
 70
     2
  9
$SKETCHINC
 40
1.0
  9
$FILLETRAD
 40
1.0
  9
$AUNITS
 70
     0
  9
$AUPREC
 70
     0
  9
$MENU
  1
.
  9
$ELEVATION
 40
0.0
  9
$PELEVATION
 40
0.0
  9
$THICKNESS
 40
0.0
  9
$LIMCHECK
 70
     0
  9
$CHAMFERA
 40
0.0
  9
$CHAMFERB
 40
0.0
  9
$CHAMFERC
 40
20.0
  9
$CHAMFERD
 40
0.0
  9
$SKPOLY
 70
     0
  9
$TDCREATE
 40
2455586.676808449
  9
$TDUCREATE
 40
2455586.301808449
  9
$TDUPDATE
 40
2455593.712348993
  9
$TDUUPDATE
 40
2455593.337348993
  9
$TDINDWG
 40
0.1846804282
  9
$TDUSRTIMER
 40
0.1846804282
  9
$USRTIMER
 70
     1
  9
$ANGBASE
 50
0.0
  9
$ANGDIR
 70
     0
  9
$PDMODE
 70
     0
  9
$PDSIZE
 40
-3.0
  9
$PLINEWID
 40
0.0
  9
$SPLFRAME
 70
     0
  9
$SPLINETYPE
 70
     6
  9
$SPLINESEGS
 70
     8
  9
$HANDSEED
  5
12095
  9
$SURFTAB1
 70
     6
  9
$SURFTAB2
 70
     6
  9
$SURFTYPE
 70
     6
  9
$SURFU
 70
     6
  9
$SURFV
 70
     6
  9
$UCSBASE
  2

  9
$UCSNAME
  2

  9
$UCSORG
 10
0.0
 20
0.0
 30
0.0
  9
$UCSXDIR
 10
1.0
 20
0.0
 30
0.0
  9
$UCSYDIR
 10
0.0
 20
1.0
 30
0.0
  9
$UCSORTHOREF
  2

  9
$UCSORTHOVIEW
 70
     0
  9
$UCSORGTOP
 10
0.0
 20
0.0
 30
0.0
  9
$UCSORGBOTTOM
 10
0.0
 20
0.0
 30
0.0
  9
$UCSORGLEFT
 10
0.0
 20
0.0
 30
0.0
  9
$UCSORGRIGHT
 10
0.0
 20
0.0
 30
0.0
  9
$UCSORGFRONT
 10
0.0
 20
0.0
 30
0.0
  9
$UCSORGBACK
 10
0.0
 20
0.0
 30
0.0
  9
$PUCSBASE
  2

  9
$PUCSNAME
  2

  9
$PUCSORG
 10
0.0
 20
0.0
 30
0.0
  9
$PUCSXDIR
 10
1.0
 20
0.0
 30
0.0
  9
$PUCSYDIR
 10
0.0
 20
1.0
 30
0.0
  9
$PUCSORTHOREF
  2

  9
$PUCSORTHOVIEW
 70
     0
  9
$PUCSORGTOP
 10
0.0
 20
0.0
 30
0.0
  9
$PUCSORGBOTTOM
 10
0.0
 20
0.0
 30
0.0
  9
$PUCSORGLEFT
 10
0.0
 20
0.0
 30
0.0
  9
$PUCSORGRIGHT
 10
0.0
 20
0.0
 30
0.0
  9
$PUCSORGFRONT
 10
0.0
 20
0.0
 30
0.0
  9
$PUCSORGBACK
 10
0.0
 20
0.0
 30
0.0
  9
$USERI1
 70
     0
  9
$USERI2
 70
     0
  9
$USERI3
 70
     0
  9
$USERI4
 70
     0
  9
$USERI5
 70
     0
  9
$USERR1
 40
0.0
  9
$USERR2
 40
0.0
  9
$USERR3
 40
0.0
  9
$USERR4
 40
0.0
  9
$USERR5
 40
0.0
  9
$WORLDVIEW
 70
     1
  9
$SHADEDGE
 70
     3
  9
$SHADEDIF
 70
    70
  9
$TILEMODE
 70
     1
  9
$MAXACTVP
 70
    64
  9
$PINSBASE
 10
0.0
 20
0.0
 30
0.0
  9
$PLIMCHECK
 70
     0
  9
$PEXTMIN
 10
1.000000000000000E+20
 20
1.000000000000000E+20
 30
1.000000000000000E+20
  9
$PEXTMAX
 10
-1.000000000000000E+20
 20
-1.000000000000000E+20
 30
-1.000000000000000E+20
  9
$PLIMMIN
 10
-3.17498779296875
 20
-3.174999952316284
  9
$PLIMMAX
 10
293.4970092773438
 20
206.692492723465
  9
$UNITMODE
 70
     0
  9
$VISRETAIN
 70
     1
  9
$PLINEGEN
 70
     0
  9
$PSLTSCALE
 70
     1
  9
$TREEDEPTH
 70
  3020
  9
$CMLSTYLE
  2
Standard
  9
$CMLJUST
 70
     0
  9
$CMLSCALE
 40
20.0
  9
$PROXYGRAPHICS
 70
     1
  9
$MEASUREMENT
 70
     1
  9
$CELWEIGHT
370
    -1
  9
$ENDCAPS
280
     0
  9
$JOINSTYLE
280
     0
  9
$LWDISPLAY
290
     1
  9
$INSUNITS
 70
     4
  9
$HYPERLINKBASE
  1

  9
$STYLESHEET
  1
monochrome.ctb
  9
$XEDIT
290
     1
  9
$CEPSNTYPE
380
     0
  9
$PSTYLEMODE
290
     1
  9
$FINGERPRINTGUID
  2
{55437959-1424-4180-A3A3-0250141FF14A}
  9
$VERSIONGUID
  2
{FEBFBEC8-6CBA-436B-B735-38B016B9C287}
  9
$EXTNAMES
290
     1
  9
$PSVPSCALE
 40
0.0
  9
$OLESTARTUP
290
     0
  9
$SORTENTS
280
    96
  9
$INDEXCTL
280
     0
  9
$HIDETEXT
280
     0
  9
$XCLIPFRAME
290
     0
  9
$HALOGAP
280
     0
  9
$OBSCOLOR
 70
   257
  9
$OBSLTYPE
280
     0
  9
$INTERSECTIONDISPLAY
280
     0
  9
$INTERSECTIONCOLOR
 70
   257
  9
$DIMASSOC
280
     1
  9
$PROJECTNAME
  1

  0
ENDSEC
  0
SECTION
  2
CLASSES
  0
CLASS
  1
ACDBDICTIONARYWDFLT
  2
AcDbDictionaryWithDefault
  3
ObjectDBX Classes
 90
        0
 91
        1
280
     0
281
     0
  0
CLASS
  1
ACDBPLACEHOLDER
  2
AcDbPlaceHolder
  3
ObjectDBX Classes
 90
        0
 91
        1
280
     0
281
     0
  0
CLASS
  1
LAYOUT
  2
AcDbLayout
  3
ObjectDBX Classes
 90
        0
 91
        3
280
     0
281
     0
  0
CLASS
  1
AMGSETTINGSOBJ
  2
AmgSettingsObj
  3
"AcadM|Product Description: AutoCAD Mechanical|Company: Autodesk, Inc."
 90
     1024
 91
        4
280
     0
281
     0
  0
CLASS
  1
ACME_DOCUMENT
  2
AcMeDbDoc
  3
AcMeServices
 90
     1024
 91
        2
280
     0
281
     0
  0
CLASS
  1
ACMESCOPE
  2
AcMeScope
  3
AcMeServices
 90
     1024
 91
        1
280
     0
281
     0
  0
CLASS
  1
ACMECOMMANDHISTORY
  2
AcMeCommandHistory
  3
AcMeServices
 90
     1024
 91
        1
280
     0
281
     0
  0
CLASS
  1
DICTIONARYVAR
  2
AcDbDictionaryVar
  3
ObjectDBX Classes
 90
        0
 91
        9
280
     0
281
     0
  0
CLASS
  1
ACIMSYSVARMAN
  2
AcImSysVarManager
  3
AcMeServices
 90
     1024
 91
        6
280
     0
281
     0
  0
CLASS
  1
ACIMREALSYSVAR
  2
AcImRealSysVar
  3
AcMeServices
 90
     1024
 91
       18
280
     0
281
     0
  0
CLASS
  1
ACIMINTSYSVAR
  2
AcImIntSysVar
  3
AcMeServices
 90
     1024
 91
       98
280
     0
281
     0
  0
CLASS
  1
ACMEDRAWINGMAN
  2
AcMeDrawingMan
  3
AcMeServices
 90
     1024
 91
        1
280
     0
281
     0
  0
CLASS
  1
ACMEVIEW
  2
AcMeView
  3
AcMeServices
 90
     1024
 91
        1
280
     0
281
     0
  0
CLASS
  1
ACDBENTITYCACHE
  2
AcMeEntityCache
  3
AcMeServices
 90
     1024
 91
        1
280
     0
281
     0
  0
CLASS
  1
GSMANAGER
  2
AcMeGSManager
  3
AcMeServices
 90
     1024
 91
        1
280
     0
281
     0
  0
CLASS
  1
AMDTINTERNALREACTOR
  2
AmdtInternalReactor
  3
AcMeServices
 90
     1024
 91
        2
280
     0
281
     0
  0
CLASS
  1
ACMESTATEMGR
  2
AcMeStateMgr
  3
AcMeServices
 90
     1024
 91
        1
280
     0
281
     0
  0
CLASS
  1
ACGREFMASTER
  2
AcGrefMaster
  3
AcAttribServices
 90
     1024
 91
        1
280
     0
281
     0
  0
CLASS
  1
ACME_DATABASE
  2
AcMeDbDatabase
  3
AcMeServices
 90
     1024
 91
        1
280
     0
281
     0
  0
CLASS
  1
ACRFINSADJUSTERMGR
  2
AcRfInsAdjusterMgr
  3
AcMeServices
 90
     1024
 91
        1
280
     0
281
     0
  0
CLASS
  1
ACGREFACADMASTER
  2
AcGrefacadMaster
  3
AcGrefServices
 90
     1024
 91
        1
280
     0
281
     0
  0
CLASS
  1
AMIMASTER
  2
AmiMaster
  3
AmiServices
 90
     1024
 91
        1
280
     0
281
     0
  0
CLASS
  1
ACMDATADICTIONARY
  2
AcmDataDictionary
  3
"AcmSymBB|Product Description: AutoCAD Mechanical|Company: Autodesk, Inc."
 90
     1024
 91
        1
280
     0
281
     0
  0
CLASS
  1
ACMDATAENTRYBLOCK
  2
AcmDataEntryBlock
  3
AcmSymBB|Product Description: AutoCAD Mechanical|Company: Autodesk, Inc.
 90
     1024
 91
        6
280
     0
281
     0
  0
CLASS
  1
ACIMSTRSYSVAR
  2
AcImStrSysVar
  3
AcMeServices
 90
     1024
 91
       11
280
     0
281
     0
  0
CLASS
  1
ACMSTANDARDISO
  2
AcmStandardISO
  3
"Amdt_StdImp|Product Description: AutoCAD Mechanical|Company: Autodesk, Inc."
 90
     1024
 91
        1
280
     0
281
     0
  0
CLASS
  1
AMGOBJPROPCFG
  2
AmgObjPropCfg
  3
"AmgLay|Product Description: AutoCAD Mechanical|Company: Autodesk, Inc."
 90
     1025
 91
        1
280
     0
281
     0
  0
CLASS
  1
AMDTEDGESTANDARDISO
  2
AmdtEdgeStdISO
  3
"Amdt_StdImp|Product Description: AutoCAD Mechanical|Company: Autodesk, Inc."
 90
     1024
 91
        1
280
     0
281
     0
  0
CLASS
  1
ACMSURFSTANDARDISO
  2
AcmSurfTextStdISO
  3
"Amdt_StdImp|Product Description: AutoCAD Mechanical|Company: Autodesk, Inc."
 90
     1024
 91
        1
280
     0
281
     0
  0
CLASS
  1
ACMFCFSTANDARDISO
  2
AcmFCFStdISO
  3
"Amdt_StdImp|Product Description: AutoCAD Mechanical|Company: Autodesk, Inc."
 90
     1024
 91
        1
280
     0
281
     0
  0
CLASS
  1
ACMWELDSTANDARDISO
  2
AcmWeldingStdISO
  3
"Amdt_StdImp|Product Description: AutoCAD Mechanical|Company: Autodesk, Inc."
 90
     1024
 91
        1
280
     0
281
     0
  0
CLASS
  1
ACMIDSTANDARDISO
  2
AcmIdStdISO
  3
"Amdt_StdImp|Product Description: AutoCAD Mechanical|Company: Autodesk, Inc."
 90
     1024
 91
        1
280
     0
281
     0
  0
CLASS
  1
ACMDATUMSTANDARDISO
  2
AcmDatumStdISO
  3
"Amdt_StdImp|Product Description: AutoCAD Mechanical|Company: Autodesk, Inc."
 90
     1024
 91
        1
280
     0
281
     0
  0
CLASS
  1
ACMBOMSTANDARDISO
  2
AcmBOMStdISO
  3
"Amdt_StdImp|Product Description: AutoCAD Mechanical|Company: Autodesk, Inc."
 90
     1024
 91
        1
280
     0
281
     0
  0
CLASS
  1
ACMDETAILSTANDARDISO
  2
AmdtDetailSymStdISO
  3
"Amdt_StdImp|Product Description: AutoCAD Mechanical|Company: Autodesk, Inc."
 90
     1024
 91
        1
280
     0
281
     0
  0
CLASS
  1
ACMSECTIONSTANDARDISO
  2
AmdtSectionSymStdISO
  3
"Amdt_StdImp|Product Description: AutoCAD Mechanical|Company: Autodesk, Inc."
 90
     1024
 91
        1
280
     0
281
     0
  0
CLASS
  1
ACMCENTERLINESTANDARDISO
  2
AmdtCenterLineStdISO
  3
"Amdt_StdImp|Product Description: AutoCAD Mechanical|Company: Autodesk, Inc."
 90
     1024
 91
        1
280
     0
281
     0
  0
CLASS
  1
ACAMGLAYSTD
  2
AcAmgLayStd
  3
"AmgLay|Product Description: AutoCAD Mechanical|Company: Autodesk, Inc."
 90
     1024
 91
        2
280
     0
281
     0
  0
CLASS
  1
ACAMGDIMSTD
  2
AcAmgDimStd
  3
"AmgDim|Product Description: AutoCAD Mechanical|Company: Autodesk, Inc."
 90
     1024
 91
        2
280
     0
281
     0
  0
CLASS
  1
ACAMGTITLESTD
  2
AcAmgTitleStd
  3
"AmgTitle|Product Description: AutoCAD Mechanical|Company: Autodesk, Inc."
 90
     4095
 91
        2
280
     0
281
     0
  0
CLASS
  1
ACAMGFILTERDAT
  2
AcAmgFilterDat
  3
"AcadM|Product Description: AutoCAD Mechanical|Company: Autodesk, Inc."
 90
     1024
 91
        6
280
     0
281
     0
  0
CLASS
  1
LAYER_INDEX
  2
AcDbLayerIndex
  3
ObjectDBX Classes
 90
        0
 91
        0
280
     0
281
     0
  0
CLASS
  1
IDBUFFER
  2
AcDbIdBuffer
  3
ObjectDBX Classes
 90
        0
 91
        0
280
     0
281
     0
  0
CLASS
  1
PLOTSETTINGS
  2
AcDbPlotSettings
  3
ObjectDBX Classes
 90
        0
 91
        0
280
     0
281
     0
  0
CLASS
  1
AMDTFORMULAUPDATEDISPATCHER
  2
AmdtFormulaUpdateDispatcher
  3
AcMeServices
 90
     1024
 91
        1
280
     0
281
     0
  0
CLASS
  1
ACMSTANDARDANSI
  2
AcmStandardANSI
  3
"Amdt_StdImp|Product Description: AutoCAD Mechanical|Company: Autodesk, Inc."
 90
     1024
 91
        1
280
     0
281
     0
  0
CLASS
  1
ACMSURFSTANDARDANSI
  2
AcmSurfTextStdANSI
  3
"Amdt_StdImp|Product Description: AutoCAD Mechanical|Company: Autodesk, Inc."
 90
     1024
 91
        1
280
     0
281
     0
  0
CLASS
  1
ACMFCFSTANDARDANSI
  2
AcmFCFStdANSI
  3
"Amdt_StdImp|Product Description: AutoCAD Mechanical|Company: Autodesk, Inc."
 90
     1024
 91
        1
280
     0
281
     0
  0
CLASS
  1
ACMWELDSTANDARDANSI
  2
AcmWeldingStdANSI
  3
"Amdt_StdImp|Product Description: AutoCAD Mechanical|Company: Autodesk, Inc."
 90
     1024
 91
        1
280
     0
281
     0
  0
CLASS
  1
ACMIDSTANDARDANSI
  2
AcmIdStdANSI
  3
"Amdt_StdImp|Product Description: AutoCAD Mechanical|Company: Autodesk, Inc."
 90
     1024
 91
        1
280
     0
281
     0
  0
CLASS
  1
ACMDATUMSTANDARDANSI
  2
AcmDatumStdANSI
  3
"Amdt_StdImp|Product Description: AutoCAD Mechanical|Company: Autodesk, Inc."
 90
     1024
 91
        1
280
     0
281
     0
  0
CLASS
  1
ACMBOMSTANDARDANSI
  2
AcmBOMStdANSI
  3
"Amdt_StdImp|Product Description: AutoCAD Mechanical|Company: Autodesk, Inc."
 90
     1024
 91
        1
280
     0
281
     0
  0
CLASS
  1
ACMDETAILSTANDARDANSI
  2
AmdtDetailSymStdANSI
  3
"Amdt_StdImp|Product Description: AutoCAD Mechanical|Company: Autodesk, Inc."
 90
     1024
 91
        1
280
     0
281
     0
  0
CLASS
  1
ACMSECTIONSTANDARDANSI
  2
AmdtSectionSymStdANSI
  3
"Amdt_StdImp|Product Description: AutoCAD Mechanical|Company: Autodesk, Inc."
 90
     1024
 91
        1
280
     0
281
     0
  0
CLASS
  1
ACMCENTERLINESTANDARDANSI
  2
AmdtCenterLineStdANSI
  3
"Amdt_StdImp|Product Description: AutoCAD Mechanical|Company: Autodesk, Inc."
 90
     1024
 91
        1
280
     0
281
     0
  0
CLASS
  1
ACMBOM
  2
AcmBom
  3
"AcmSymBB|Product Description: AutoCAD Mechanical|Company: Autodesk, Inc."
 90
     1024
 91
        1
280
     0
281
     0
  0
CLASS
  1
ACMDATAENTRYPART
  2
AcmDataEntryPart
  3
AcmSymBB|Product Description: AutoCAD Mechanical|Company: Autodesk, Inc.
 90
     1024
 91
        0
280
     0
281
     0
  0
CLASS
  1
ACMPARTREF
  2
AcmPartRef
  3
"AcmSymBB|Product Description: AutoCAD Mechanical|Company: Autodesk, Inc."
 90
     4095
 91
        0
280
     0
281
     1
  0
CLASS
  1
ACDBCIRCARCRES
  2
AcDbCircArcRes
  3
AcGrefServices
 90
     1024
 91
        0
280
     0
281
     0
  0
CLASS
  1
ACMBOMROW
  2
AcmBomRow
  3
"AcmSymBB|Product Description: AutoCAD Mechanical|Company: Autodesk, Inc."
 90
     1024
 91
        0
280
     0
281
     0
  0
CLASS
  1
ACMBALLOON
  2
AcmBalloon
  3
"AcmSymBB|Product Description: AutoCAD Mechanical|Company: Autodesk, Inc."
 90
     4095
 91
        0
280
     0
281
     1
  0
CLASS
  1
AMDTNOTE
  2
AmdtNote
  3
"AcmSymBB|Product Description: AutoCAD Mechanical|Company: Autodesk, Inc."
 90
     4095
 91
        0
280
     0
281
     1
  0
CLASS
  1
STDPART2D
  2
AmgStdPart
  3
AmgStdPart|Product Description: AutoCAD Mechanical|Company: Autodesk, Inc.
 90
     4095
 91
        0
280
     0
281
     1
  0
CLASS
  1
ACDBSTDPARTRES_LINE
  2
AcDbStdPartRes_Line
  3
AmgStdPart|Product Description: AutoCAD Mechanical|Company: Autodesk, Inc.
 90
     1024
 91
        0
280
     0
281
     0
  0
CLASS
  1
ACMDATAENTRY
  2
AcmDataEntry
  3
AcmSymBB|Product Description: AutoCAD Mechanical|Company: Autodesk, Inc.
 90
     1024
 91
        9
280
     0
281
     0
  0
CLASS
  1
ACDBOPPOLYLINERES
  2
AcDbOpPolylineRes
  3
AcGrefServices
 90
     1024
 91
        0
280
     0
281
     0
  0
CLASS
  1
ACMPARTLIST
  2
AcmPartList
  3
"AcmSymBB|Product Description: AutoCAD Mechanical|Company: Autodesk, Inc."
 90
     4095
 91
        0
280
     0
281
     1
  0
CLASS
  1
ACDBLINERES
  2
AcDbLineRes
  3
AcGrefServices
 90
     1024
 91
        0
280
     0
281
     0
  0
CLASS
  1
ACRFINSADJ
  2
AcRfInsAdjuster
  3
AcMeServices
 90
     1024
 91
        0
280
     0
281
     0
  0
CLASS
  1
AM_DRAWING_MGR
  2
AcDmDwgMgr
  3
AcMechDwgViewMgmt
 90
     1024
 91
        1
280
     0
281
     0
  0
CLASS
  1
AM_DWG_DOCUMENT
  2
AcDmDwgDocument
  3
AcMechDwgViewMgmt
 90
     1024
 91
        1
280
     0
281
     0
  0
CLASS
  1
AM_DWG_SHEET
  2
AcDmSheet
  3
AcMechDwgViewMgmt
 90
     1024
 91
        2
280
     0
281
     0
  0
CLASS
  1
AM_VIEWDIMPARMAP
  2
AcDmViewDimParMap
  3
AcMechDwgViewMgmt
 90
     1024
 91
        2
280
     0
281
     0
  0
CLASS
  1
AM_DWGMGR_NAME
  2
AcDmDwgMgrName
  3
AcMechDwgViewMgmt
 90
     1024
 91
        1
280
     0
281
     0
  0
CLASS
  1
AMDTMENUSTATEMGR
  2
AmdtMenuStateMgr
  3
McadcomServices
 90
     1024
 91
        1
280
     0
281
     0
  0
CLASS
  1
AMDTMCOMMENUSTATE
  2
AmdtMcomMenuState
  3
McadcomServices
 90
     1024
 91
        1
280
     0
281
     0
  0
CLASS
  1
ASAPP
  2
AcAsAppObject
  3
AutoSurfServices
 90
        0
 91
        2
280
     0
281
     0
  0
CLASS
  1
IM_STATIC_MAN
  2
AcImStaticVarManager
  3
AcMeServices
 90
     1024
 91
        1
280
     0
281
     0
  0
CLASS
  1
ACIMDBLSTATICVAR
  2
AcImDblStaticVar
  3
AcMeServices
 90
     1024
 91
       20
280
     0
281
     0
  0
CLASS
  1
ACIMSTRSTATICVAR
  2
AcImStrStaticVar
  3
AcMeServices
 90
     1024
 91
       12
280
     0
281
     0
  0
CLASS
  1
ACIMINTSTATICVAR
  2
AcImIntStaticVar
  3
AcMeServices
 90
     1024
 91
       17
280
     0
281
     0
  0
CLASS
  1
ACASGREFMASTER
  2
AcAsGrefMaster
  3
AutoSurfResolverServices
 90
        0
 91
        2
280
     0
281
     0
  0
CLASS
  1
ACADGREFMODULE
  2
AcAdGrefModule
  3
AdGrefServices
 90
        0
 91
        2
280
     0
281
     0
  0
CLASS
  1
AMDTMAPISURFMOUDULE
  2
AmdtMApiSurfModule
  3
MApiSurfServices
 90
        0
 91
        2
280
     0
281
     0
  0
CLASS
  1
MAPIAMMOUDLE
  2
MApiAmModule
  3
MApiAmServices
 90
     1024
 91
        1
280
     0
281
     0
  0
CLASS
  1
AMDTADMENUSTATE
  2
AmdtAdMenuState
  3
DesignerServices
 90
     1024
 91
        1
280
     0
281
     0
  0
CLASS
  1
ADAPPL
  2
AcAdAppl
  3
DesignerServices
 90
     1024
 91
        1
280
     0
281
     0
  0
CLASS
  1
DEPMGR
  2
AcAdDepMgr
  3
DesignerServices
 90
     1024
 91
        1
280
     0
281
     0
  0
CLASS
  1
PARAMMGR
  2
AcAdParamMgr
  3
DesignerServices
 90
     1024
 91
        1
280
     0
281
     0
  0
CLASS
  1
PARAMSCOPE
  2
AcAdParamScope
  3
DesignerServices
 90
     1024
 91
        1
280
     0
281
     0
  0
CLASS
  1
NAMEDAPPL
  2
AcAdNamedAppl
  3
DesignerServices
 90
     1024
 91
        1
280
     0
281
     0
  0
CLASS
  1
ADHNTMPLT
  2
AdHoleNoteTemplateMgr
  3
DesignerServices
 90
     1024
 91
        0
280
     0
281
     0
  0
CLASS
  1
AM_HNTEMPLATE_MGR_NAME
  2
AdHoleNoteTemplateMgrName
  3
DesignerServices
 90
     1024
 91
        0
280
     0
281
     0
  0
CLASS
  1
AMDTDMMENUSTATE
  2
AmdtDmMenuState
  3
AcMechDwgViewMgmt
 90
     1024
 91
        1
280
     0
281
     0
  0
CLASS
  1
MAPIADMODULE
  2
MApiAdModule
  3
MApiAdServices
 90
        0
 91
        2
280
     0
281
     0
  0
CLASS
  1
AMDTAMMENUSTATE
  2
AmdtAmMenuState
  3
DesignerAssemblies
 90
     1024
 91
        1
280
     0
281
     0
  0
CLASS
  1
ACAMPROJECT
  2
AcAmProject
  3
DesignerAssemblies
 90
     1024
 91
        1
280
     0
281
     0
  0
CLASS
  1
ACAMGRCOMPDEF
  2
AcAmGrCompDef
  3
DesignerAssemblies
 90
     1024
 91
        1
280
     0
281
     0
  0
CLASS
  1
ACCMCONTEXT
  2
AcCmContext
  3
DesignerAssemblies
 90
     1024
 91
        1
280
     0
281
     0
  0
CLASS
  1
ACAMCOMPDEF
  2
AcAmCompDef
  3
DesignerAssemblies
 90
     1024
 91
        1
280
     0
281
     0
  0
CLASS
  1
ACAMCOMPDEFMGR
  2
AcAmCompDefMgr
  3
DesignerAssemblies
 90
     1024
 91
        1
280
     0
281
     0
  0
CLASS
  1
AMCONTEXTMGR
  2
AcAmContextMgr
  3
DesignerAssemblies
 90
     1024
 91
        1
280
     0
281
     0
  0
CLASS
  1
ACAMCONTEXTMODELER
  2
AcAmContextModeler
  3
DesignerAssemblies
 90
     1024
 91
        1
280
     0
281
     0
  0
CLASS
  1
CATALOGSTATE
  2
AcAmCatalogState
  3
DesignerAssemblies
 90
     1024
 91
        1
280
     0
281
     0
  0
CLASS
  1
ACAMGRCOMPDEFSET
  2
AcAmGrCompDefSet
  3
DesignerAssemblies
 90
     1024
 91
        1
280
     0
281
     0
  0
CLASS
  1
AMDTBROWSERDBTAB
  2
AmdtBrowserDbTab
  3
McadcomServices
 90
     1024
 91
        1
280
     0
281
     0
  0
CLASS
  1
CBROWSERAPPOBJECT
  2
CBrowserAppObject
  3
McadcomServices
 90
     1024
 91
        3
280
     0
281
     0
  0
CLASS
  1
DM_PLACEHOLDER
  2
AcDmSelsetPlaceholder
  3
AcMechDwgViewMgmt
 90
     1024
 91
        1
280
     0
281
     0
  0
CLASS
  1
ACMPICKOBJ
  2
AcmPickEnt
  3
"AcmSymBB|Product Description: AutoCAD Mechanical|Company: Autodesk, Inc."
 90
     1024
 91
        0
280
     0
281
     1
  0
CLASS
  1
ACMNOTESTANDARDISO
  2
AmdtNoteStdISO
  3
"Amdt_StdImp|Product Description: AutoCAD Mechanical|Company: Autodesk, Inc."
 90
     1024
 91
        1
280
     0
281
     0
  0
CLASS
  1
ACMNOTESTANDARDANSI
  2
AmdtNoteStdANSI
  3
"Amdt_StdImp|Product Description: AutoCAD Mechanical|Company: Autodesk, Inc."
 90
     1024
 91
        1
280
     0
281
     0
  0
CLASS
  1
ACMTHREADLINESTANDARDISO
  2
AmdtThreadLineStdISO
  3
"Amdt_StdImp|Product Description: AutoCAD Mechanical|Company: Autodesk, Inc."
 90
     1024
 91
        1
280
     0
281
     0
  0
CLASS
  1
ACMTHREADLINESTANDARDANSI
  2
AmdtThreadLineStdANSI
  3
"Amdt_StdImp|Product Description: AutoCAD Mechanical|Company: Autodesk, Inc."
 90
     1024
 91
        1
280
     0
281
     0
  0
CLASS
  1
TABLESTYLE
  2
AcDbTableStyle
  3
ObjectDBX Classes
 90
     4095
 91
        1
280
     0
281
     0
  0
CLASS
  1
SORTENTSTABLE
  2
AcDbSortentsTable
  3
ObjectDBX Classes
 90
        0
 91
        1
280
     0
281
     0
  0
CLASS
  1
MATERIAL
  2
AcDbMaterial
  3
ObjectDBX Classes
 90
     1153
 91
        3
280
     0
281
     0
  0
CLASS
  1
VISUALSTYLE
  2
AcDbVisualStyle
  3
ObjectDBX Classes
 90
     4095
 91
       16
280
     0
281
     0
  0
CLASS
  1
ACRFATTGENMGR
  2
AcRfAttGeneralMgr
  3
AcAttribServices
 90
     1024
 91
        1
280
     0
281
     0
  0
CLASS
  1
ACRFOBJATTMGR
  2
AcRfObjAttGroupMgr
  3
AcAttribServices
 90
     1024
 91
        1
280
     0
281
     0
  0
CLASS
  1
ACRFMCADAPIATTHOLDER
  2
AcRfMCADAPIAttHolder
  3
AcAttribServices
 90
     1024
 91
        1
280
     0
281
     0
  0
CLASS
  1
AMDTSYSATTR
  2
AmdtSystemAttribute
  3
AcAttribServices
 90
     1024
 91
        3
280
     0
281
     0
  0
CLASS
  1
ACMTAPERSTANDARDISO
  2
AcmTaperStdISO
  3
"Amdt_StdImp|Product Description: AutoCAD Mechanical|Company: Autodesk, Inc."
 90
     1024
 91
        1
280
     0
281
     0
  0
CLASS
  1
CAMSSTRUCTBTNSTATE
  2
StructBtnState
  3
DesignerAssemblies
 90
     1024
 91
        1
280
     0
281
     0
  0
CLASS
  1
DIMASSOC
  2
AcDbDimAssoc
  3
"AcDbDimAssoc|Product Desc:     AcDim ARX App For Dimension|Company:          Autodesk, Inc.|WEB Address:      www.autodesk.com"
 90
        0
 91
        0
280
     0
281
     0
  0
CLASS
  1
AMDTNOTETEMPLATEDB
  2
AmdtNoteTemplateDB
  3
AcmSymBB|Product Description: AutoCAD Mechanical|Company: Autodesk, Inc.
 90
     1024
 91
       10
280
     0
281
     0
  0
CLASS
  1
SCALE
  2
AcDbScale
  3
ObjectDBX Classes
 90
     1153
 91
       33
280
     0
281
     0
  0
CLASS
  1
MLEADERSTYLE
  2
AcDbMLeaderStyle
  3
ACDB_MLEADERSTYLE_CLASS
 90
     4095
 91
        1
280
     0
281
     0
  0
CLASS
  1
ACMANOOTATIONVIEWSTANDARDISO
  2
AmdtAnViewStdISO
  3
"Amdt_StdImp|Product Description: AutoCAD Mechanical|Company: Autodesk, Inc."
 90
     1024
 91
        1
280
     0
281
     0
  0
CLASS
  1
CELLSTYLEMAP
  2
AcDbCellStyleMap
  3
ObjectDBX Classes
 90
     1152
 91
        2
280
     0
281
     0
  0
CLASS
  1
ACMTAPERSTANDARDANSI
  2
AcmTaperStdANSI
  3
"Amdt_StdImp|Product Description: AutoCAD Mechanical|Company: Autodesk, Inc."
 90
     1024
 91
        1
280
     0
281
     0
  0
CLASS
  1
ACAMGHOLECHARTSTDANSI
  2
AcAmgHoleChartStdANSI
  3
AmgDim|Product Description: AutoCAD Mechanical|Company: Autodesk, Inc.
 90
     1024
 91
        1
280
     0
281
     0
  0
CLASS
  1
ACMANOOTATIONVIEWSTANDARDANSI
  2
AmdtAnViewStdANSI
  3
"Amdt_StdImp|Product Description: AutoCAD Mechanical|Company: Autodesk, Inc."
 90
     1024
 91
        1
280
     0
281
     0
  0
ENDSEC
  0
SECTION
  2
TABLES
  0
TABLE
  2
VPORT
  5
8
330
0
100
AcDbSymbolTable
 70
     1
  0
VPORT
  5
B0EC
330
8
100
AcDbSymbolTableRecord
100
AcDbViewportTableRecord
  2
*Active
 70
     0
 10
0.0
 20
0.0
 11
1.0
 21
1.0
 12
210.0000009778888
 22
148.500000691507
 13
0.0
 23
0.0
 14
2.5
 24
2.5
 15
10.0
 25
10.0
 16
0.0
 26
0.0
 36
1.0
 17
0.0
 27
0.0
 37
0.0
 40
298.880310058615
 41
1.624476987447698
 42
50.0
 43
-1370.695619172058
 44
-1370.695619172058
 50
0.0
 51
0.0
 71
     0
 72
   100
 73
     1
 74
     3
 75
     0
 76
     0
 77
     0
 78
     0
281
     0
 65
     0
110
0.0
120
0.0
130
0.0
111
1.0
121
0.0
131
0.0
112
0.0
122
1.0
132
0.0
 79
     0
146
0.0
  0
ENDTAB
  0
TABLE
  2
LTYPE
  5
5
330
0
100
AcDbSymbolTable
 70
    33
  0
LTYPE
  5
14
330
5
100
AcDbSymbolTableRecord
100
AcDbLinetypeTableRecord
  2
ByBlock
 70
     0
  3

 72
    65
 73
     0
 40
0.0
  0
LTYPE
  5
15
330
5
100
AcDbSymbolTableRecord
100
AcDbLinetypeTableRecord
  2
ByLayer
 70
     0
  3

 72
    65
 73
     0
 40
0.0
  0
LTYPE
  5
16
330
5
100
AcDbSymbolTableRecord
100
AcDbLinetypeTableRecord
  2
Continuous
 70
     0
  3
Solid line
 72
    65
 73
     0
 40
0.0
  0
LTYPE
  5
4F
330
5
100
AcDbSymbolTableRecord
100
AcDbLinetypeTableRecord
  2
AM_ISO02W050
 70
     0
  3
__ __ __ __ __ __ __ __ __ __ __ __ __ __ __
 72
    65
 73
     2
 40
7.5
 49
6.0
 74
     0
 49
-1.5
 74
     0
  0
LTYPE
  5
52
330
5
100
AcDbSymbolTableRecord
100
AcDbLinetypeTableRecord
  2
Amconstr
 70
     0
  3
_______________________
 72
    65
 73
     2
 40
9999.0
 49
9999.0
 74
     0
 49
0.0
 74
     0
  0
LTYPE
  5
64
330
5
100
AcDbSymbolTableRecord
100
AcDbLinetypeTableRecord
  2
ACISOWELD
 70
     0
  3
_ _ _ _ _
 72
    65
 73
     2
 40
2.0
 49
2.0
 74
     0
 49
-1.0
 74
     0
  0
LTYPE
  5
65
330
5
100
AcDbSymbolTableRecord
100
AcDbLinetypeTableRecord
  2
ACISOTGB
 70
     0
  3
__ . . __ . .
 72
    65
 73
     6
 40
9.0
 49
4.0
 74
     0
 49
-1.0
 74
     0
 49
1.0
 74
     0
 49
-1.0
 74
     0
 49
1.0
 74
     0
 49
-1.0
 74
     0
  0
LTYPE
  5
66
330
5
100
AcDbSymbolTableRecord
100
AcDbLinetypeTableRecord
  2
ACISOTGL
 70
     0
  3
_ _ _ _ _
 72
    65
 73
     2
 40
3.0
 49
2.0
 74
     0
 49
-1.0
 74
     0
  0
LTYPE
  5
69
330
5
100
AcDbSymbolTableRecord
100
AcDbLinetypeTableRecord
  2
CENTER
 70
     0
  3
__ . __
 72
    65
 73
     4
 40
7.0
 49
4.0
 74
     0
 49
-1.0
 74
     0
 49
1.0
 74
     0
 49
-1.0
 74
     0
  0
LTYPE
  5
A6E
330
5
100
AcDbSymbolTableRecord
100
AcDbLinetypeTableRecord
  2
PHANTOM2
 70
     0
  3
Phantom (.5x) ___ _ _ ___ _ _ ___ _ _ ___ _ _
 72
    65
 73
     6
 40
31.75
 49
15.875
 74
     0
 49
-3.174999999999999
 74
     0
 49
3.174999999999999
 74
     0
 49
-3.174999999999999
 74
     0
 49
3.174999999999999
 74
     0
 49
-3.174999999999999
 74
     0
  0
LTYPE
  5
4DED
330
5
100
AcDbSymbolTableRecord
100
AcDbLinetypeTableRecord
  2
中線
 70
     0
  3
___________________
 72
    65
 73
     2
 40
2.0
 49
1.0
 74
     0
 49
1.0
 74
     0
  0
LTYPE
  5
4DF6
330
5
100
AcDbSymbolTableRecord
100
AcDbLinetypeTableRecord
  2
細線
 70
     0
  3
___________________
 72
    65
 73
     2
 40
2.0
 49
1.0
 74
     0
 49
1.0
 74
     0
  0
LTYPE
  5
4DF7
330
5
100
AcDbSymbolTableRecord
100
AcDbLinetypeTableRecord
  2
太線
 70
     0
  3
___________________
 72
    65
 73
     2
 40
2.0
 49
1.0
 74
     0
 49
1.0
 74
     0
  0
LTYPE
  5
4EA7
330
5
100
AcDbSymbolTableRecord
100
AcDbLinetypeTableRecord
  2
文字
 70
     0
  3
_________________
 72
    65
 73
     2
 40
2.0
 49
1.0
 74
     0
 49
1.0
 74
     0
  0
LTYPE
  5
4EA9
330
5
100
AcDbSymbolTableRecord
100
AcDbLinetypeTableRecord
  2
寸法線
 70
     0
  3
________________
 72
    65
 73
     2
 40
2.0
 49
1.0
 74
     0
 49
1.0
 74
     0
  0
LTYPE
  5
4F12
330
5
100
AcDbSymbolTableRecord
100
AcDbLinetypeTableRecord
  2
ハッチング
 70
     0
  3
_________________
 72
    65
 73
     2
 40
2.0
 49
1.0
 74
     0
 49
1.0
 74
     0
  0
LTYPE
  5
5180
330
5
100
AcDbSymbolTableRecord
100
AcDbLinetypeTableRecord
  2
陰線1
 70
     0
  3
__ __ __ __
 72
    65
 73
     2
 40
4.0
 49
2.2
 74
     0
 49
-1.8
 74
     0
  0
LTYPE
  5
5182
330
5
100
AcDbSymbolTableRecord
100
AcDbLinetypeTableRecord
  2
切断線
 70
     0
  3
/\/-/\/-/\/-/\/-/\/-/\/
 72
    65
 73
     2
 40
11.0001
 49
0.0001
 74
     4
 75
   135
340
56
 46
0.04
 50
0.0
 44
0.0
 45
0.0
 49
-11.0
 74
     0
  0
LTYPE
  5
5183
330
5
100
AcDbSymbolTableRecord
100
AcDbLinetypeTableRecord
  2
想像線1
 70
     0
  3
__ __ __ _____ __ __ ____
 72
    65
 73
     6
 40
14.5
 49
6.0
 74
     0
 49
-1.5
 74
     0
 49
2.0
 74
     0
 49
-1.5
 74
     0
 49
2.0
 74
     0
 49
-1.5
 74
     0
  0
LTYPE
  5
5185
330
5
100
AcDbSymbolTableRecord
100
AcDbLinetypeTableRecord
  2
中心線1
 70
     0
  3
___ _ ___ _ ___
 72
    65
 73
     4
 40
18.0
 49
12.0
 74
     0
 49
-2.0
 74
     0
 49
2.0
 74
     0
 49
-2.0
 74
     0
  0
LTYPE
  5
5188
330
5
100
AcDbSymbolTableRecord
100
AcDbLinetypeTableRecord
  2
補助線
 70
     0
  3
______________
 72
    65
 73
     2
 40
2.0
 49
1.0
 74
     0
 49
1.0
 74
     0
  0
LTYPE
  5
6427
330
5
100
AcDbSymbolTableRecord
100
AcDbLinetypeTableRecord
  2
HIDDEN
 70
     0
  3
Hidden __ __ __ __ __ __ __ __ __ __ __ __ __ _
 72
    65
 73
     2
 40
0.375
 49
0.25
 74
     0
 49
-0.125
 74
     0
  0
LTYPE
  5
AC81
330
5
100
AcDbSymbolTableRecord
100
AcDbLinetypeTableRecord
  2
破断線
 70
     0
  3
/\/-/\/-/\/-/\/-/\/-/\/
 72
    65
 73
     2
 40
0.4401
 49
0.0001
 74
     4
 75
   136
340
AC80
 46
0.0016
 50
0.0
 44
0.0
 45
0.0
 49
-0.4400000000000001
 74
     0
  0
LTYPE
  5
AC9E
330
5
100
AcDbSymbolTableRecord
100
AcDbLinetypeTableRecord
  2
Amzigzag
 70
     0
  3
/\/-/\/-/\/-/\/-/\/-/\/
 72
    65
 73
     2
 40
11.0001
 49
0.0001
 74
     4
 75
   135
340
56
 46
0.04
 50
0.0
 44
0.0
 45
0.0
 49
-11.0
 74
     0
  0
LTYPE
  5
AF0F
330
5
100
AcDbSymbolTableRecord
100
AcDbLinetypeTableRecord
  2
genzigzag
 70
     0
  3
/\/-/\/-/\/-/\/-/\/-/\/
 72
    65
 73
     2
 40
12.0001
 49
0.0001
 74
     4
 75
   135
340
AC80
 46
2.0
 50
0.0
 44
0.0
 45
0.0
 49
-12.0
 74
     0
  0
LTYPE
  5
AF95
330
5
100
AcDbSymbolTableRecord
100
AcDbLinetypeTableRecord
  2
AM_ISO08W050
 70
     0
  3
____ . ____ . ____ . ____ . ____ . ____ . ____
 72
    65
 73
     4
 40
18.0
 49
12.0
 74
     0
 49
-1.5
 74
     0
 49
3.0
 74
     0
 49
-1.5
 74
     0
  0
LTYPE
  5
AF96
330
5
100
AcDbSymbolTableRecord
100
AcDbLinetypeTableRecord
  2
AM_ISO09W050
 70
     0
  3
_____ . . _____ . . _____ . . ____ .. ____
 72
    65
 73
     6
 40
22.5
 49
12.0
 74
     0
 49
-1.5
 74
     0
 49
3.0
 74
     0
 49
-1.5
 74
     0
 49
3.0
 74
     0
 49
-1.5
 74
     0
  0
LTYPE
  5
AF97
330
5
100
AcDbSymbolTableRecord
100
AcDbLinetypeTableRecord
  2
AM_ISO08W050x2
 70
     0
  3
__ . __ . __ . __ . __ . __
 72
    65
 73
     4
 40
9.0
 49
6.0
 74
     0
 49
-0.75
 74
     0
 49
1.5
 74
     0
 49
-0.75
 74
     0
  0
LTYPE
  5
AF98
330
5
100
AcDbSymbolTableRecord
100
AcDbLinetypeTableRecord
  2
AM_ISO02W050x2
 70
     0
  3
 _ _ _ _ _ _ _ _ _ _ _ _
 72
    65
 73
     2
 40
3.75
 49
3.0
 74
     0
 49
-0.75
 74
     0
  0
LTYPE
  5
B7EC
330
5
100
AcDbSymbolTableRecord
100
AcDbLinetypeTableRecord
  2
ACANSTGB
 70
     0
  3
__ . . __ . .
 72
    65
 73
     6
 40
0.35433070866
 49
0.15748031496
 74
     0
 49
-0.03937007874
 74
     0
 49
0.03937007874
 74
     0
 49
-0.03937007874
 74
     0
 49
0.03937007874
 74
     0
 49
-0.03937007874
 74
     0
  0
LTYPE
  5
B7ED
330
5
100
AcDbSymbolTableRecord
100
AcDbLinetypeTableRecord
  2
ACANSTGL
 70
     0
  3
_ _ _ _ _
 72
    65
 73
     2
 40
0.11811023622
 49
0.07874015748
 74
     0
 49
-0.03937007874
 74
     0
  0
LTYPE
  5
B7EE
330
5
100
AcDbSymbolTableRecord
100
AcDbLinetypeTableRecord
  2
CENTER2
 70
     0
  3
Center (.5x) ___ _ ___ _ ___ _ ___ _ ___ _ ___
 72
    65
 73
     4
 40
1.125
 49
0.75
 74
     0
 49
-0.125
 74
     0
 49
0.125
 74
     0
 49
-0.125
 74
     0
  0
LTYPE
  5
B7EF
330
5
100
AcDbSymbolTableRecord
100
AcDbLinetypeTableRecord
  2
HIDDEN2
 70
     0
  3
Hidden (.5x) _ _ _ _ _ _ _ _ _ _ _ _ _ _ _ _ _
 72
    65
 73
     2
 40
0.1875
 49
0.125
 74
     0
 49
-0.0625
 74
     0
  0
LTYPE
  5
B7F0
330
5
100
AcDbSymbolTableRecord
100
AcDbLinetypeTableRecord
  2
AMZIGZAG2
 70
     0
  3
/\/-/\/-/\/-/\/-/\/-/\/
 72
    65
 73
     2
 40
0.4401
 49
0.0001
 74
     0
 49
-0.4400000000000003
 74
     0
  0
LTYPE
  5
C649
330
5
100
AcDbSymbolTableRecord
100
AcDbLinetypeTableRecord
  2
PHANTOM
 70
     0
  3
_____ _ _ _____ _ _ _____ _ _ _____ _ _ ____  
 72
    65
 73
     6
 40
15.5
 49
8.0
 74
     0
 49
-1.5
 74
     0
 49
1.5
 74
     0
 49
-1.5
 74
     0
 49
1.5
 74
     0
 49
-1.5
 74
     0
  0
ENDTAB
  0
TABLE
  2
LAYER
  5
2
102
{ACAD_XDICTIONARY
360
3F95
102
}
330
0
100
AcDbSymbolTable
 70
    20
  0
LAYER
  5
10
102
{ACAD_XDICTIONARY
360
C26F
102
}
330
2
100
AcDbSymbolTableRecord
100
AcDbLayerTableRecord
  2
0
 70
     0
 62
     7
  6
Continuous
370
    -3
390
F
  0
LAYER
  5
6D1
330
2
100
AcDbSymbolTableRecord
100
AcDbLayerTableRecord
  2
Defpoints
 70
     0
 62
     7
  6
Continuous
290
     0
370
    -3
390
F
  0
LAYER
  5
5F85
102
{ACAD_XDICTIONARY
360
C271
102
}
330
2
100
AcDbSymbolTableRecord
100
AcDbLayerTableRecord
  2
AM_0
 70
     0
 62
     7
  6
中線
370
    30
390
F
1001
AcAecLayerStandard
1000

1000

  0
LAYER
  5
AC9F
102
{ACAD_XDICTIONARY
360
C273
102
}
330
2
100
AcDbSymbolTableRecord
100
AcDbLayerTableRecord
  2
size
 70
     0
 62
     5
  6
Continuous
290
     0
370
    25
390
F
  0
LAYER
  5
ACA0
102
{ACAD_XDICTIONARY
360
C275
102
}
330
2
100
AcDbSymbolTableRecord
100
AcDbLayerTableRecord
  2
waku
 70
     0
 62
     7
  6
Continuous
370
    35
390
F
  0
LAYER
  5
ACA1
102
{ACAD_XDICTIONARY
360
C277
102
}
330
2
100
AcDbSymbolTableRecord
100
AcDbLayerTableRecord
  2
AM_6
 70
     0
 62
     2
  6
文字
370
    13
390
F
1001
AcAecLayerStandard
1000

1000

  0
LAYER
  5
ACC8
102
{ACAD_XDICTIONARY
360
C279
102
}
330
2
100
AcDbSymbolTableRecord
100
AcDbLayerTableRecord
  2
hyomoji
 70
     0
 62
     2
  6
Continuous
370
    13
390
F
  0
LAYER
  5
ACC9
102
{ACAD_XDICTIONARY
360
C27B
102
}
330
2
100
AcDbSymbolTableRecord
100
AcDbLayerTableRecord
  2
hyosen1
 70
     0
 62
    12
  6
Continuous
370
    25
390
F
  0
LAYER
  5
ACCA
102
{ACAD_XDICTIONARY
360
C27D
102
}
330
2
100
AcDbSymbolTableRecord
100
AcDbLayerTableRecord
  2
hyosen2
 70
     0
 62
    12
  6
Continuous
370
    13
390
F
  0
LAYER
  5
AD60
102
{ACAD_XDICTIONARY
360
C27F
102
}
330
2
100
AcDbSymbolTableRecord
100
AcDbLayerTableRecord
  2
AM_1
 70
     0
 62
    30
  6
太線
370
    40
390
F
1001
AcAecLayerStandard
1000

1000

  0
LAYER
  5
AD64
102
{ACAD_XDICTIONARY
360
C281
102
}
330
2
100
AcDbSymbolTableRecord
100
AcDbLayerTableRecord
  2
AM_2
 70
     0
 62
     1
  6
細線
370
    13
390
F
1001
AcAecLayerStandard
1000

1000

  0
LAYER
  5
AD67
102
{ACAD_XDICTIONARY
360
C283
102
}
330
2
100
AcDbSymbolTableRecord
100
AcDbLayerTableRecord
  2
AM_3
 70
     0
 62
     6
  6
陰線1
370
    13
390
F
1001
AcAecLayerStandard
1000

1000

  0
LAYER
  5
AD68
102
{ACAD_XDICTIONARY
360
C285
102
}
330
2
100
AcDbSymbolTableRecord
100
AcDbLayerTableRecord
  2
AM_5
 70
     0
 62
     3
  6
寸法線
370
    13
390
F
1001
AcAecLayerStandard
1000

1000

  0
LAYER
  5
AD69
102
{ACAD_XDICTIONARY
360
C287
102
}
330
2
100
AcDbSymbolTableRecord
100
AcDbLayerTableRecord
  2
AM_7
 70
     0
 62
     4
  6
中心線1
370
    13
390
F
1001
AcAecLayerStandard
1000

1000

  0
LAYER
  5
AD6A
102
{ACAD_XDICTIONARY
360
C289
102
}
330
2
100
AcDbSymbolTableRecord
100
AcDbLayerTableRecord
  2
AM_8
 70
     0
 62
     1
  6
ハッチング
370
    13
390
F
1001
AcAecLayerStandard
1000

1000

  0
LAYER
  5
AD6E
102
{ACAD_XDICTIONARY
360
C28B
102
}
330
2
100
AcDbSymbolTableRecord
100
AcDbLayerTableRecord
  2
AM_10
 70
     0
 62
     7
  6
切断線
370
    13
390
F
1001
AcAecLayerStandard
1000

1000

  0
LAYER
  5
AD6F
102
{ACAD_XDICTIONARY
360
C28D
102
}
330
2
100
AcDbSymbolTableRecord
100
AcDbLayerTableRecord
  2
AM_11
 70
     0
 62
     2
  6
想像線1
370
    13
390
F
1001
AcAecLayerStandard
1000

1000

  0
LAYER
  5
B1B6
102
{ACAD_XDICTIONARY
360
C28F
102
}
330
2
100
AcDbSymbolTableRecord
100
AcDbLayerTableRecord
  2
AM_CL
 70
     0
 62
     1
  6
Amconstr
370
    15
390
F
1001
AcAecLayerStandard
1000

1000

  0
LAYER
  5
B2EB
102
{ACAD_XDICTIONARY
360
C291
102
}
330
2
100
AcDbSymbolTableRecord
100
AcDbLayerTableRecord
  2
AM_14
 70
     0
 62
     5
  6
細線
370
     9
390
F
1001
AcAecLayerStandard
1000

1000

  0
LAYER
  5
B2EC
102
{ACAD_XDICTIONARY
360
C293
102
}
330
2
100
AcDbSymbolTableRecord
100
AcDbLayerTableRecord
  2
AM_15
 70
     0
 62
     6
  6
陰線1
370
     9
390
F
1001
AcAecLayerStandard
1000

1000

  0
ENDTAB
  0
TABLE
  2
STYLE
  5
3
330
0
100
AcDbSymbolTable
 70
     8
  0
STYLE
  5
11
330
3
100
AcDbSymbolTableRecord
100
AcDbTextStyleTableRecord
  2
STANDARD
 70
     0
 40
0.0
 41
0.7
 50
0.0
 71
     0
 42
3.2
  3
romans.shx
  4
extfont.shx
  0
STYLE
  5
56
330
3
100
AcDbSymbolTableRecord
100
AcDbTextStyleTableRecord
  2

 70
     1
 40
0.0
 41
1.0
 50
0.0
 71
     0
 42
2.5
  3
ltypeshp.shx
  4

  0
STYLE
  5
58
330
3
100
AcDbSymbolTableRecord
100
AcDbTextStyleTableRecord
  2
ACISOTS
 70
     0
 40
1.0
 41
1.0
 50
0.0
 71
     0
 42
2.5
  3
isocp.shx
  4
extfont.shx
  0
STYLE
  5
63
330
3
100
AcDbSymbolTableRecord
100
AcDbTextStyleTableRecord
  2
ACISOGDT
 70
     0
 40
0.0
 41
1.0
 50
0.0
 71
     0
 42
2.5
  3
amgdt.shx
  4

  0
STYLE
  5
A74
330
3
100
AcDbSymbolTableRecord
100
AcDbTextStyleTableRecord
  2
DIM
 70
     0
 40
0.0
 41
1.0
 50
0.0
 71
     0
 42
2.5
  3
monotxt.shx
  4
extfont.shx
  0
STYLE
  5
AC80
330
3
100
AcDbSymbolTableRecord
100
AcDbTextStyleTableRecord
  2

 70
     1
 40
0.0
 41
1.0
 50
0.0
 71
     0
 42
3.2
  3
genltshp.shx
  4

  0
STYLE
  5
B7F1
330
3
100
AcDbSymbolTableRecord
100
AcDbTextStyleTableRecord
  2
ACANSTS
 70
     0
 40
1.0
 41
1.0
 50
0.0
 71
     0
 42
0.2
  3
romans.shx
  4
extfont.shx
  0
STYLE
  5
B7F2
330
3
100
AcDbSymbolTableRecord
100
AcDbTextStyleTableRecord
  2
ACANSGDT
 70
     0
 40
0.0
 41
1.0
 50
0.0
 71
     0
 42
0.2
  3
amgdt.shx
  4

  0
ENDTAB
  0
TABLE
  2
VIEW
  5
6
330
0
100
AcDbSymbolTable
 70
     6
  0
VIEW
  5
AE1
330
6
100
AcDbSymbolTableRecord
100
AcDbViewTableRecord
  2
AM_VIEW1
 70
     0
 40
148.5
 10
120.5689655172414
 20
222.75
 41
241.1379310344828
 11
0.0
 21
0.0
 31
1.0
 12
0.0
 22
0.0
 32
0.0
 42
50.0
 43
-1370.695619172058
 44
-1370.695619172058
 50
0.0
 71
     0
281
     0
 72
     0
  0
VIEW
  5
AE2
330
6
100
AcDbSymbolTableRecord
100
AcDbViewTableRecord
  2
AM_VIEW2
 70
     0
 40
148.5
 10
299.4310344827586
 20
222.75
 41
241.1379310344828
 11
0.0
 21
0.0
 31
1.0
 12
0.0
 22
0.0
 32
0.0
 42
50.0
 43
-1370.695619172058
 44
-1370.695619172058
 50
0.0
 71
     0
281
     0
 72
     0
  0
VIEW
  5
AE3
330
6
100
AcDbSymbolTableRecord
100
AcDbViewTableRecord
  2
AM_VIEW3
 70
     0
 40
148.5
 10
120.5689655172414
 20
74.25
 41
241.1379310344828
 11
0.0
 21
0.0
 31
1.0
 12
0.0
 22
0.0
 32
0.0
 42
50.0
 43
-1370.695619172058
 44
-1370.695619172058
 50
0.0
 71
     0
281
     0
 72
     0
  0
VIEW
  5
AE4
330
6
100
AcDbSymbolTableRecord
100
AcDbViewTableRecord
  2
AM_VIEW4
 70
     0
 40
148.5
 10
299.4310344827586
 20
74.25
 41
241.1379310344828
 11
0.0
 21
0.0
 31
1.0
 12
0.0
 22
0.0
 32
0.0
 42
50.0
 43
-1370.695619172058
 44
-1370.695619172058
 50
0.0
 71
     0
281
     0
 72
     0
  0
VIEW
  5
AE5
330
6
100
AcDbSymbolTableRecord
100
AcDbViewTableRecord
  2
AM_VIEW5
 70
     0
 40
148.5
 10
210.0
 20
148.5
 41
241.1379310344828
 11
0.0
 21
0.0
 31
1.0
 12
0.0
 22
0.0
 32
0.0
 42
50.0
 43
-1370.695619172058
 44
-1370.695619172058
 50
0.0
 71
     0
281
     0
 72
     0
  0
VIEW
  5
AE6
330
6
100
AcDbSymbolTableRecord
100
AcDbViewTableRecord
  2
AM_VIEW6
 70
     0
 40
296.99703
 10
210.0
 20
148.5
 41
482.2710393103448
 11
0.0
 21
0.0
 31
1.0
 12
0.0
 22
0.0
 32
0.0
 42
50.0
 43
-1370.695619172058
 44
-1370.695619172058
 50
0.0
 71
     0
281
     0
 72
     0
  0
ENDTAB
  0
TABLE
  2
UCS
  5
7
330
0
100
AcDbSymbolTable
 70
     0
  0
ENDTAB
  0
TABLE
  2
APPID
  5
9
330
0
100
AcDbSymbolTable
 70
    58
  0
APPID
  5
12
330
9
100
AcDbSymbolTableRecord
100
AcDbRegAppTableRecord
  2
ACAD
 70
     0
  0
APPID
  5
30
330
9
100
AcDbSymbolTableRecord
100
AcDbRegAppTableRecord
  2
MCAD_NO_VIS
 70
     0
  0
APPID
  5
31
330
9
100
AcDbSymbolTableRecord
100
AcDbRegAppTableRecord
  2
ACAD_TEMP_GRAPHIC
 70
     0
  0
APPID
  5
44
330
9
100
AcDbSymbolTableRecord
100
AcDbRegAppTableRecord
  2
ACATTRIBSERVICES
 70
     0
  0
APPID
  5
7A1
330
9
100
AcDbSymbolTableRecord
100
AcDbRegAppTableRecord
  2
GENIUS_GENDIMSH_14
 70
     0
  0
APPID
  5
A49
330
9
100
AcDbSymbolTableRecord
100
AcDbRegAppTableRecord
  2
GENIUS_GENREC_14
 70
     0
  0
APPID
  5
A4A
330
9
100
AcDbSymbolTableRecord
100
AcDbRegAppTableRecord
  2
GENIUS_GENOBJ-N-REC_13
 70
     0
  0
APPID
  5
A4B
330
9
100
AcDbSymbolTableRecord
100
AcDbRegAppTableRecord
  2
GENIUS_GENODEF_13
 70
     0
  0
APPID
  5
A4C
330
9
100
AcDbSymbolTableRecord
100
AcDbRegAppTableRecord
  2
DCO15
 70
     0
  0
APPID
  5
ADC
330
9
100
AcDbSymbolTableRecord
100
AcDbRegAppTableRecord
  2
GENIUS_GENOLIS_13
 70
     0
  0
APPID
  5
ADD
330
9
100
AcDbSymbolTableRecord
100
AcDbRegAppTableRecord
  2
GENIUS_GENOENT_13
 70
     0
  0
APPID
  5
ADE
330
9
100
AcDbSymbolTableRecord
100
AcDbRegAppTableRecord
  2
GENIUS_GENOBJ-N-TIT_13
 70
     0
  0
APPID
  5
ADF
330
9
100
AcDbSymbolTableRecord
100
AcDbRegAppTableRecord
  2
GENIUS_GENTITLE_13
 70
     0
  0
APPID
  5
AE0
330
9
100
AcDbSymbolTableRecord
100
AcDbRegAppTableRecord
  2
GENIUS_GENOREF_13
 70
     0
  0
APPID
  5
AE7
330
9
100
AcDbSymbolTableRecord
100
AcDbRegAppTableRecord
  2
GENIUS_GENSCREG_15
 70
     0
  0
APPID
  5
AE8
330
9
100
AcDbSymbolTableRecord
100
AcDbRegAppTableRecord
  2
GENIUS_GENOBJ-N-SDF_13
 70
     0
  0
APPID
  5
FAF
330
9
100
AcDbSymbolTableRecord
100
AcDbRegAppTableRecord
  2
GENIUS_GENBLLY_14
 70
     0
  0
APPID
  5
FB0
330
9
100
AcDbSymbolTableRecord
100
AcDbRegAppTableRecord
  2
GENIUS_GENTRA_14
 70
     0
  0
APPID
  5
1285
330
9
100
AcDbSymbolTableRecord
100
AcDbRegAppTableRecord
  2
GENIUS_GENDTOL_13
 70
     0
  0
APPID
  5
142D
330
9
100
AcDbSymbolTableRecord
100
AcDbRegAppTableRecord
  2
GENIUS_GENOBJ-N-CEN_13
 70
     0
  0
APPID
  5
1AB5
330
9
100
AcDbSymbolTableRecord
100
AcDbRegAppTableRecord
  2
GENIUS_GENOBJ-N-CRS_13
 70
     0
  0
APPID
  5
1B36
330
9
100
AcDbSymbolTableRecord
100
AcDbRegAppTableRecord
  2
GENIUS_GENOBJ-N-HTC_13
 70
     0
  0
APPID
  5
1B37
330
9
100
AcDbSymbolTableRecord
100
AcDbRegAppTableRecord
  2
GENIUS_GENHATCH_13
 70
     0
  0
APPID
  5
216D
330
9
100
AcDbSymbolTableRecord
100
AcDbRegAppTableRecord
  2
GENIUS_GENOBJ-N-FIL_13
 70
     0
  0
APPID
  5
2356
330
9
100
AcDbSymbolTableRecord
100
AcDbRegAppTableRecord
  2
GEVID990412420
 70
     0
  0
APPID
  5
2357
330
9
100
AcDbSymbolTableRecord
100
AcDbRegAppTableRecord
  2
GEVDC
 70
     0
  0
APPID
  5
2358
330
9
100
AcDbSymbolTableRecord
100
AcDbRegAppTableRecord
  2
GEVCON
 70
     0
  0
APPID
  5
235B
330
9
100
AcDbSymbolTableRecord
100
AcDbRegAppTableRecord
  2
GEVRADREF
 70
     0
  0
APPID
  5
2360
330
9
100
AcDbSymbolTableRecord
100
AcDbRegAppTableRecord
  2
GENIUS_GENBH_13
 70
     0
  0
APPID
  5
2362
330
9
100
AcDbSymbolTableRecord
100
AcDbRegAppTableRecord
  2
GENIUS_GENOBJ-NBEHI-BHF_13
 70
     0
  0
APPID
  5
2364
330
9
100
AcDbSymbolTableRecord
100
AcDbRegAppTableRecord
  2
GENIUS_GENOBJ-NBEHI-BHB_13
 70
     0
  0
APPID
  5
2379
330
9
100
AcDbSymbolTableRecord
100
AcDbRegAppTableRecord
  2
GENIUS_GENOBJ-F-SCPASSM_13
 70
     0
  0
APPID
  5
3D74
330
9
100
AcDbSymbolTableRecord
100
AcDbRegAppTableRecord
  2
GENIUS_GENDIM_13
 70
     0
  0
APPID
  5
3D76
330
9
100
AcDbSymbolTableRecord
100
AcDbRegAppTableRecord
  2
GENIUS_GE3DTOL_13
 70
     0
  0
APPID
  5
3D9C
330
9
100
AcDbSymbolTableRecord
100
AcDbRegAppTableRecord
  2
AD_DRAW
 70
     0
  0
APPID
  5
3DE8
330
9
100
AcDbSymbolTableRecord
100
AcDbRegAppTableRecord
  2
ASURF_PCURVE_APPNAME
 70
     0
  0
APPID
  5
3DED
330
9
100
AcDbSymbolTableRecord
100
AcDbRegAppTableRecord
  2
AMG_3D2D_5.0
 70
     0
  0
APPID
  5
3E1B
330
9
100
AcDbSymbolTableRecord
100
AcDbRegAppTableRecord
  2
DESIGNERASSEMBLIES
 70
     0
  0
APPID
  5
3E20
330
9
100
AcDbSymbolTableRecord
100
AcDbRegAppTableRecord
  2
ACADM_DIM_EDIT
 70
     0
  0
APPID
  5
3E21
330
9
100
AcDbSymbolTableRecord
100
AcDbRegAppTableRecord
  2
AMDT_DM_ADJ
 70
     0
  0
APPID
  5
4143
330
9
100
AcDbSymbolTableRecord
100
AcDbRegAppTableRecord
  2
GENIUS_GENFIL_13
 70
     0
  0
APPID
  5
4144
330
9
100
AcDbSymbolTableRecord
100
AcDbRegAppTableRecord
  2
GENIUS_GENOBJ-N-CHA_13
 70
     0
  0
APPID
  5
4E17
330
9
100
AcDbSymbolTableRecord
100
AcDbRegAppTableRecord
  2
GEVID1008153417
 70
     0
  0
APPID
  5
4E58
330
9
100
AcDbSymbolTableRecord
100
AcDbRegAppTableRecord
  2
GEVID1008153418
 70
     0
  0
APPID
  5
4E5E
330
9
100
AcDbSymbolTableRecord
100
AcDbRegAppTableRecord
  2
GEVID1008153419
 70
     0
  0
APPID
  5
4E64
330
9
100
AcDbSymbolTableRecord
100
AcDbRegAppTableRecord
  2
GEVID1008153420
 70
     0
  0
APPID
  5
4E75
330
9
100
AcDbSymbolTableRecord
100
AcDbRegAppTableRecord
  2
GEVID1008153421
 70
     0
  0
APPID
  5
4EB7
330
9
100
AcDbSymbolTableRecord
100
AcDbRegAppTableRecord
  2
GENIUS_AMGTXT_16
 70
     0
  0
APPID
  5
7645
330
9
100
AcDbSymbolTableRecord
100
AcDbRegAppTableRecord
  2
GENIUS_GENOBJ-N-DIM_13
 70
     0
  0
APPID
  5
AAD0
330
9
100
AcDbSymbolTableRecord
100
AcDbRegAppTableRecord
  2
ACAD_DSTYLE_DIMARC_LENGTH_SYMBOL
 70
     0
  0
APPID
  5
AAD1
330
9
100
AcDbSymbolTableRecord
100
AcDbRegAppTableRecord
  2
ACAD_DSTYLE_DIMJOGGED_JOGANGLE_SYMBOL
 70
     0
  0
APPID
  5
AAFD
330
9
100
AcDbSymbolTableRecord
100
AcDbRegAppTableRecord
  2
ACAD_PSEXT
 70
     0
  0
APPID
  5
AD61
330
9
100
AcDbSymbolTableRecord
100
AcDbRegAppTableRecord
  2
AcAecLayerStandard
 70
     0
  0
APPID
  5
AEE3
330
9
100
AcDbSymbolTableRecord
100
AcDbRegAppTableRecord
  2
ACAD_EXEMPT_FROM_CAD_STANDARDS
 70
     0
  0
APPID
  5
B1BE
330
9
100
AcDbSymbolTableRecord
100
AcDbRegAppTableRecord
  2
GENIUS_GENCEN_19
 70
     0
  0
APPID
  5
B597
330
9
100
AcDbSymbolTableRecord
100
AcDbRegAppTableRecord
  2
ACAD_MLEADERVER
 70
     0
  0
APPID
  5
BBD6
330
9
100
AcDbSymbolTableRecord
100
AcDbRegAppTableRecord
  2
ACAD_DSTYLE_DIMINSPECT
 70
     0
  0
APPID
  5
BE09
330
9
100
AcDbSymbolTableRecord
100
AcDbRegAppTableRecord
  2
ACAD_DSTYLE_DIMRADIAL_EXTENSION
 70
     0
  0
ENDTAB
  0
TABLE
  2
DIMSTYLE
  5
A
330
0
100
AcDbSymbolTable
 70
    24
100
AcDbDimStyleTable
 71
     1
340
2515
  0
DIMSTYLE
105
A76
330
A
100
AcDbSymbolTableRecord
100
AcDbDimStyleTableRecord
  2
STANDARD
 70
     0
 41
3.0
 42
1.0
 43
7.0
 44
2.0
 73
     0
 74
     0
 77
     1
140
2.799999999999999
141
0.0
143
0.0394
147
0.7
171
     4
172
     1
173
     1
176
     3
177
     3
178
     2
271
     3
272
     3
273
     8
274
     4
289
     0
340
A74
341
A66
343
A66
344
A66
  0
DIMSTYLE
105
2515
330
A
100
AcDbSymbolTableRecord
100
AcDbDimStyleTableRecord
  2
SYS
 70
     0
  4
"
 41
1.0
 42
1.0
 43
10.0
 44
1.0
 47
0.1
 48
0.1
 73
     0
 74
     0
 77
     1
 78
     8
 79
     2
140
3.5
141
0.0
143
0.0393701
146
0.71
147
1.5
172
     1
176
   256
177
   256
178
     7
271
     2
272
     2
283
     0
284
     8
340
11
371
    -1
372
    -1
1001
ACAD_DSTYLE_DIMJOGGED_JOGANGLE_SYMBOL
1070
   384
1040
0.7853981633974483
1001
ACAD_DSTYLE_DIMARC_LENGTH_SYMBOL
1070
   379
1070
     1
  0
DIMSTYLE
105
2516
330
A
100
AcDbSymbolTableRecord
100
AcDbDimStyleTableRecord
  2
SYS$3
 70
     0
  4
"
 41
2.0
 42
1.0
 43
10.0
 44
1.0
 47
0.1
 48
0.1
 73
     0
 77
     1
 78
     8
 79
     2
140
3.5
141
0.0
143
0.0393701
146
0.71
147
1.5
176
   256
177
   256
178
     2
271
     2
272
     2
283
     0
284
     8
288
     1
340
11
342
A66
371
    -1
372
    -1
1001
ACAD_DSTYLE_DIMJOGGED_JOGANGLE_SYMBOL
1070
   384
1040
0.7853981633974483
1001
ACAD_DSTYLE_DIMARC_LENGTH_SYMBOL
1070
   379
1070
     1
  0
DIMSTYLE
105
2517
330
A
100
AcDbSymbolTableRecord
100
AcDbDimStyleTableRecord
  2
SYS$4
 70
     0
  4
"
 41
2.0
 42
1.0
 43
10.0
 44
1.0
 47
0.1
 48
0.1
 73
     0
 77
     1
 78
     8
 79
     2
140
3.5
141
0.0
143
0.0393701
146
0.71
147
1.5
173
     1
176
   256
177
   256
178
     2
271
     2
272
     2
283
     0
284
     8
288
     1
340
11
344
A66
371
    -1
372
    -1
1001
ACAD_DSTYLE_DIMJOGGED_JOGANGLE_SYMBOL
1070
   384
1040
0.7853981633974483
1001
ACAD_DSTYLE_DIMARC_LENGTH_SYMBOL
1070
   379
1070
     1
  0
DIMSTYLE
105
2518
330
A
100
AcDbSymbolTableRecord
100
AcDbDimStyleTableRecord
  2
SYS$6
 70
     0
  4
"
 41
2.0
 42
1.0
 43
10.0
 44
1.0
 47
0.1
 48
0.1
 73
     0
 74
     0
 78
     8
 79
     2
140
3.5
141
0.0
143
0.0393701
146
0.71
147
1.5
172
     1
176
   256
177
   256
178
     2
271
     2
272
     2
283
     0
284
     8
340
11
341
A66
371
    -1
372
    -1
1001
ACAD_DSTYLE_DIMJOGGED_JOGANGLE_SYMBOL
1070
   384
1040
0.7853981633974483
1001
ACAD_DSTYLE_DIMARC_LENGTH_SYMBOL
1070
   379
1070
     1
  0
DIMSTYLE
105
2519
330
A
100
AcDbSymbolTableRecord
100
AcDbDimStyleTableRecord
  2
SYS$7
 70
     0
  4
"
 41
2.0
 42
1.0
 43
10.0
 44
1.0
 47
0.1
 48
0.1
 73
     0
 74
     0
 77
     1
 78
     8
 79
     2
140
5.0
141
0.0
143
0.0393701
146
0.71
147
1.5
172
     1
176
   256
177
   256
178
     2
271
     2
272
     2
283
     0
284
     8
340
11
341
A66
342
A66
371
    -1
372
    -1
1001
ACAD_DSTYLE_DIMJOGGED_JOGANGLE_SYMBOL
1070
   384
1040
0.7853981633974483
1001
ACAD_DSTYLE_DIMARC_LENGTH_SYMBOL
1070
   379
1070
     1
  0
DIMSTYLE
105
251A
330
A
100
AcDbSymbolTableRecord
100
AcDbDimStyleTableRecord
  2
SYS$SF
 70
     0
  4
"
 41
2.5
 42
1.0
 43
10.0
 44
1.0
 47
0.1
 48
0.1
 73
     0
 74
     0
 75
     1
 76
     1
 77
     1
 78
     8
 79
     2
140
3.5
141
0.0
143
0.0393701
146
0.71
147
1.5
172
     1
176
   256
177
   256
178
     2
271
     2
272
     3
283
     0
284
     8
340
11
341
6C4
342
6C4
371
    -1
372
    -1
1001
ACAD_DSTYLE_DIMJOGGED_JOGANGLE_SYMBOL
1070
   384
1040
0.7853981633974483
1001
ACAD_DSTYLE_DIMARC_LENGTH_SYMBOL
1070
   379
1070
     1
  0
DIMSTYLE
105
251B
330
A
100
AcDbSymbolTableRecord
100
AcDbDimStyleTableRecord
  2
SYS$SH
 70
     0
  4
"
 41
2.5
 42
1.0
 43
10.0
 44
1.0
 47
0.1
 48
0.1
 73
     0
 74
     0
 75
     1
 76
     1
 77
     1
 78
     8
 79
     2
140
3.5
141
0.0
143
0.0393701
144
2.0
146
0.71
147
1.5
172
     1
173
     1
176
   256
177
   256
178
     2
271
     2
272
     3
283
     0
284
     8
340
11
341
6C4
343
72
344
6C4
371
    -1
372
    -1
1001
ACAD_DSTYLE_DIMJOGGED_JOGANGLE_SYMBOL
1070
   384
1040
0.7853981633974483
1001
ACAD_DSTYLE_DIMARC_LENGTH_SYMBOL
1070
   379
1070
     1
  0
DIMSTYLE
105
2A59
102
{ACAD_REACTORS
330
11E1C
330
11E1D
102
}
330
A
100
AcDbSymbolTableRecord
100
AcDbDimStyleTableRecord
  2
SYS$2
 70
     0
  4
"
 41
1.0
 42
1.0
 43
10.0
 44
1.0
 47
0.1
 48
0.1
 73
     0
 74
     0
 77
     1
 78
     8
 79
     2
140
3.5
141
0.0
143
0.0393701
146
0.71
147
1.5
172
     1
176
   256
177
   256
178
     2
271
     2
272
     2
283
     0
284
     8
340
11
342
6C4
371
    -1
372
    -1
1001
ACAD_DSTYLE_DIMJOGGED_JOGANGLE_SYMBOL
1070
   384
1040
0.7853981633974483
1001
ACAD_DSTYLE_DIMARC_LENGTH_SYMBOL
1070
   379
1070
     1
  0
DIMSTYLE
105
2AAB
102
{ACAD_REACTORS
330
1189E
330
119FF
330
11A74
330
11AC4
330
11D67
330
11E50
330
11F13
330
11F3B
330
11F5A
330
11F95
330
11FBD
330
11FEE
330
12016
102
}
330
A
100
AcDbSymbolTableRecord
100
AcDbDimStyleTableRecord
  2
SYS$0
 70
     0
  4
"
 41
1.0
 42
1.0
 43
10.0
 44
1.0
 47
0.1
 48
0.1
 73
     0
 74
     0
 77
     1
 78
     8
 79
     2
140
3.200000000000001
141
0.0
143
0.0393701
146
0.71
147
1.5
172
     1
176
   256
177
   256
178
     2
271
     2
272
     2
283
     0
284
     8
340
11
341
A66
342
6C4
371
    -1
372
    -1
1001
ACAD_DSTYLE_DIMJOGGED_JOGANGLE_SYMBOL
1070
   384
1040
0.7853981633974483
1001
ACAD_DSTYLE_DIMARC_LENGTH_SYMBOL
1070
   379
1070
     1
  0
DIMSTYLE
105
AF99
330
A
100
AcDbSymbolTableRecord
100
AcDbDimStyleTableRecord
  2
AM_ISO
 70
     0
  4
"
 41
2.5
 42
1.0
 43
10.0
 44
1.0
 47
0.1
 48
0.1
 73
     0
 74
     0
 77
     1
 78
     8
 79
     2
140
3.5
141
0.0
143
0.0393701
146
0.71
147
1.5
172
     1
176
   256
177
   256
178
     2
271
     2
272
     3
274
     4
283
     0
284
     8
340
11
371
    -1
372
    -1
  0
DIMSTYLE
105
AF9A
330
A
100
AcDbSymbolTableRecord
100
AcDbDimStyleTableRecord
  2
AM_ISO$3
 70
     0
  4
"
 41
2.5
 42
1.0
 43
10.0
 44
1.0
 47
0.1
 48
0.1
 73
     0
 77
     1
 78
     8
 79
     2
140
3.5
141
0.0
143
0.0393701
146
0.71
147
1.5
176
   256
177
   256
178
     2
271
     2
272
     3
274
     4
283
     0
284
     8
288
     1
289
     0
340
11
371
    -1
372
    -1
  0
DIMSTYLE
105
AF9B
330
A
100
AcDbSymbolTableRecord
100
AcDbDimStyleTableRecord
  2
AM_ISO$4
 70
     0
  4
"
 41
2.5
 42
1.0
 43
10.0
 44
1.0
 47
0.1
 48
0.1
 73
     0
 77
     1
 78
     8
 79
     2
140
3.5
141
0.0
143
0.0393701
146
0.71
147
1.5
176
   256
177
   256
178
     2
271
     2
272
     3
274
     4
283
     0
284
     8
288
     1
289
     0
340
11
371
    -1
372
    -1
  0
DIMSTYLE
105
AF9C
330
A
100
AcDbSymbolTableRecord
100
AcDbDimStyleTableRecord
  2
AM_ISO$6
 70
     0
  4
"
 41
2.5
 42
1.0
 43
10.0
 44
1.0
 47
0.1
 48
0.1
 73
     0
 74
     0
 78
     8
 79
     2
140
3.5
141
0.0
143
0.0393701
146
0.71
147
1.5
172
     1
176
   256
177
   256
178
     2
271
     2
272
     3
274
     4
283
     0
284
     8
340
11
371
    -1
372
    -1
  0
DIMSTYLE
105
AF9D
330
A
100
AcDbSymbolTableRecord
100
AcDbDimStyleTableRecord
  2
AM_ISO$7
 70
     0
  4
"
 41
2.5
 42
1.0
 43
10.0
 44
1.0
 47
0.1
 48
0.1
 73
     0
 74
     0
 77
     1
 78
     8
 79
     2
140
5.0
141
0.0
143
0.0393701
146
0.71
147
1.5
172
     1
176
   256
177
   256
178
     2
271
     2
272
     3
274
     4
283
     0
284
     8
340
11
371
    -1
372
    -1
  0
DIMSTYLE
105
AF9E
330
A
100
AcDbSymbolTableRecord
100
AcDbDimStyleTableRecord
  2
AM_ISO$SF
 70
     0
  4
"
 41
2.5
 42
1.0
 43
10.0
 44
1.0
 47
0.1
 48
0.1
 73
     0
 74
     0
 75
     1
 76
     1
 77
     1
 78
     8
 79
     2
140
3.5
141
0.0
143
0.0393701
146
0.71
147
1.5
172
     1
176
   256
177
   256
178
     2
271
     2
272
     3
274
     4
283
     0
284
     8
340
11
371
    -1
372
    -1
  0
DIMSTYLE
105
AF9F
330
A
100
AcDbSymbolTableRecord
100
AcDbDimStyleTableRecord
  2
AM_ISO$SH
 70
     0
  4
"
 41
2.5
 42
1.0
 43
10.0
 44
1.0
 47
0.1
 48
0.1
 73
     0
 74
     0
 75
     1
 76
     1
 77
     1
 78
     8
 79
     2
140
3.5
141
0.0
143
0.0393701
144
2.0
146
0.71
147
1.5
172
     1
173
     1
176
   256
177
   256
178
     2
271
     2
272
     3
274
     4
283
     0
284
     8
340
11
343
72
371
    -1
372
    -1
  0
DIMSTYLE
105
B7F3
330
A
100
AcDbSymbolTableRecord
100
AcDbDimStyleTableRecord
  2
AM_ANSI
 70
     0
  4
mm
 41
0.1
 42
0.05
 43
0.5
 44
0.1
 47
0.1
 48
0.1
 78
     7
140
0.12
141
0.0
146
0.71
147
0.06
176
   256
177
   256
178
     2
271
     2
272
     2
279
     2
284
     8
285
     8
286
     8
340
11
  0
DIMSTYLE
105
B7F4
330
A
100
AcDbSymbolTableRecord
100
AcDbDimStyleTableRecord
  2
AM_ANSI$3
 70
     0
  4
mm
 41
0.1
 42
0.05
 43
0.5
 44
0.1
 47
0.1
 48
0.1
 78
     7
140
0.12
141
0.0
146
0.71
147
0.06
176
   256
177
   256
178
     2
271
     2
272
     2
279
     2
284
     8
285
     8
286
     8
340
11
  0
DIMSTYLE
105
B7F5
330
A
100
AcDbSymbolTableRecord
100
AcDbDimStyleTableRecord
  2
AM_ANSI$4
 70
     0
  4
mm
 41
0.1
 42
0.05
 43
0.5
 44
0.1
 47
0.1
 48
0.1
 78
     7
140
0.12
141
0.0
146
0.71
147
0.06
176
   256
177
   256
178
     2
271
     2
272
     2
279
     2
284
     8
285
     8
286
     8
340
11
  0
DIMSTYLE
105
B7F6
330
A
100
AcDbSymbolTableRecord
100
AcDbDimStyleTableRecord
  2
AM_ANSI$7
 70
     0
  4
mm
 41
0.1
 42
0.05
 43
0.5
 44
0.1
 47
0.1
 48
0.1
 78
     7
140
0.24
141
0.0
146
0.71
147
0.06
176
   256
177
   256
178
     2
271
     2
272
     2
279
     2
284
     8
285
     8
286
     8
340
11
  0
DIMSTYLE
105
B7F7
330
A
100
AcDbSymbolTableRecord
100
AcDbDimStyleTableRecord
  2
AM_ANSI$SF
 70
     0
  4
mm
 41
0.1
 42
0.05
 43
0.5
 44
0.1
 47
0.1
 48
0.1
 75
     1
 76
     1
 78
     7
140
0.12
141
0.0
146
0.71
147
0.06
176
   256
177
   256
178
     2
271
     2
272
     2
279
     2
284
     8
285
     8
286
     8
340
11
  0
DIMSTYLE
105
B7F8
330
A
100
AcDbSymbolTableRecord
100
AcDbDimStyleTableRecord
  2
AM_ANSI$SH
 70
     0
  4
mm
 41
0.1
 42
0.05
 43
0.5
 44
0.1
 47
0.1
 48
0.1
 75
     1
 76
     1
 78
     7
140
0.12
141
0.0
146
0.71
147
0.06
173
     1
176
   256
177
   256
178
     2
271
     2
272
     2
279
     2
284
     8
285
     8
286
     8
340
11
  0
DIMSTYLE
105
C64A
330
A
100
AcDbSymbolTableRecord
100
AcDbDimStyleTableRecord
  2
DIMSTYLE
 70
     0
 41
1.0
 42
2.54
 44
2.54
 73
     0
 74
     0
140
3.2
147
1.6
173
     1
279
     2
340
11
  0
ENDTAB
  0
TABLE
  2
BLOCK_RECORD
  5
1
330
0
100
AcDbSymbolTable
 70
    22
  0
BLOCK_RECORD
  5
1F
102
{ACAD_XDICTIONARY
360
8A
102
}
330
1
100
AcDbSymbolTableRecord
100
AcDbBlockTableRecord
  2
*Model_Space
340
22
  0
BLOCK_RECORD
  5
1B
330
1
100
AcDbSymbolTableRecord
100
AcDbBlockTableRecord
  2
*Paper_Space
340
1E
  0
BLOCK_RECORD
  5
23
330
1
100
AcDbSymbolTableRecord
100
AcDbBlockTableRecord
  2
*Paper_Space0
340
26
  0
BLOCK_RECORD
  5
72
330
1
100
AcDbSymbolTableRecord
100
AcDbBlockTableRecord
  2
GENAXEH
340
0
  0
BLOCK_RECORD
  5
6C4
330
1
100
AcDbSymbolTableRecord
100
AcDbBlockTableRecord
  2
_Dot
340
0
102
{BLKREFS
331
118D6
331
118D7
331
11A53
331
11A54
331
11A6E
331
11A6F
331
11A96
331
11A97
331
11AEE
331
11AEF
331
11D89
331
11D8A
331
11E7B
331
11E7C
331
11F35
331
11F36
331
11F54
331
11F55
331
11F8F
331
11F90
331
11FDF
331
11FE0
331
11FE8
331
11FE9
331
12010
331
12011
331
12041
331
12042
102
}
  0
BLOCK_RECORD
  5
A66
330
1
100
AcDbSymbolTableRecord
100
AcDbBlockTableRecord
  2
_OPEN30
340
0
102
{BLKREFS
331
11E22
331
11E2C
102
}
  0
BLOCK_RECORD
  5
118D0
330
1
100
AcDbSymbolTableRecord
100
AcDbBlockTableRecord
  2
*D5
340
0
  0
BLOCK_RECORD
  5
11907
330
1
100
AcDbSymbolTableRecord
100
AcDbBlockTableRecord
  2
_NONE
340
0
  0
BLOCK_RECORD
  5
11A00
330
1
100
AcDbSymbolTableRecord
100
AcDbBlockTableRecord
  2
*D7
340
0
  0
BLOCK_RECORD
  5
11A75
330
1
100
AcDbSymbolTableRecord
100
AcDbBlockTableRecord
  2
*D9
340
0
  0
BLOCK_RECORD
  5
11AC5
330
1
100
AcDbSymbolTableRecord
100
AcDbBlockTableRecord
  2
*D10
340
0
  0
BLOCK_RECORD
  5
11D68
330
1
100
AcDbSymbolTableRecord
100
AcDbBlockTableRecord
  2
*D11
340
0
  0
BLOCK_RECORD
  5
11E1E
330
1
100
AcDbSymbolTableRecord
100
AcDbBlockTableRecord
  2
*D12
340
0
  0
BLOCK_RECORD
  5
11E28
330
1
100
AcDbSymbolTableRecord
100
AcDbBlockTableRecord
  2
*D13
340
0
  0
BLOCK_RECORD
  5
11E51
330
1
100
AcDbSymbolTableRecord
100
AcDbBlockTableRecord
  2
*D14
340
0
  0
BLOCK_RECORD
  5
11F14
330
1
100
AcDbSymbolTableRecord
100
AcDbBlockTableRecord
  2
*D15
340
0
  0
BLOCK_RECORD
  5
11F3C
330
1
100
AcDbSymbolTableRecord
100
AcDbBlockTableRecord
  2
*D16
340
0
  0
BLOCK_RECORD
  5
11F5B
330
1
100
AcDbSymbolTableRecord
100
AcDbBlockTableRecord
  2
*D17
340
0
  0
BLOCK_RECORD
  5
11F96
330
1
100
AcDbSymbolTableRecord
100
AcDbBlockTableRecord
  2
*D18
340
0
  0
BLOCK_RECORD
  5
11FBE
330
1
100
AcDbSymbolTableRecord
100
AcDbBlockTableRecord
  2
*D19
340
0
  0
BLOCK_RECORD
  5
11FEF
330
1
100
AcDbSymbolTableRecord
100
AcDbBlockTableRecord
  2
*D20
340
0
  0
BLOCK_RECORD
  5
12017
330
1
100
AcDbSymbolTableRecord
100
AcDbBlockTableRecord
  2
*D21
340
0
  0
ENDTAB
  0
ENDSEC
  0
SECTION
  2
BLOCKS
  0
BLOCK
  5
20
330
1F
100
AcDbEntity
  8
0
100
AcDbBlockBegin
  2
*Model_Space
 70
     0
 10
0.0
 20
0.0
 30
0.0
  3
*Model_Space
  1

  0
ENDBLK
  5
21
330
1F
100
AcDbEntity
  8
0
100
AcDbBlockEnd
  0
BLOCK
  5
1C
330
1B
100
AcDbEntity
 67
     1
  8
0
100
AcDbBlockBegin
  2
*Paper_Space
 70
     0
 10
0.0
 20
0.0
 30
0.0
  3
*Paper_Space
  1

  0
ENDBLK
  5
1D
330
1B
100
AcDbEntity
 67
     1
  8
0
100
AcDbBlockEnd
  0
BLOCK
  5
24
330
23
100
AcDbEntity
 67
     1
  8
0
100
AcDbBlockBegin
  2
*Paper_Space0
 70
     0
 10
0.0
 20
0.0
 30
0.0
  3
*Paper_Space0
  1

  0
ENDBLK
  5
25
330
23
100
AcDbEntity
 67
     1
  8
0
100
AcDbBlockEnd
  0
BLOCK
  5
74
330
72
100
AcDbEntity
  8
0
100
AcDbBlockBegin
  2
GENAXEH
 70
     0
 10
0.0
 20
0.0
 30
0.0
  3
GENAXEH
  1

  0
LINE
  5
73
330
72
100
AcDbEntity
  8
0
100
AcDbLine
 10
-1.0
 20
0.0
 30
0.0
 11
1.0
 21
0.0
 31
0.0
  0
ENDBLK
  5
75
330
72
100
AcDbEntity
  8
0
100
AcDbBlockEnd
  0
BLOCK
  5
6C7
330
6C4
100
AcDbEntity
  8
0
100
AcDbBlockBegin
  2
_Dot
 70
     0
 10
0.0
 20
0.0
 30
0.0
  3
_Dot
  1

  0
LWPOLYLINE
  5
6C5
330
6C4
100
AcDbEntity
  8
0
  6
ByBlock
 62
     0
100
AcDbPolyline
 90
        2
 70
     1
 43
0.5
 10
-0.25
 20
0.0
 42
1.0
 10
0.25
 20
0.0
 42
1.0
  0
LINE
  5
6C6
330
6C4
100
AcDbEntity
  8
0
  6
ByBlock
 62
     0
370
    -2
100
AcDbLine
 10
-0.5
 20
0.0
 30
0.0
 11
-1.0
 21
0.0
 31
0.0
  0
ENDBLK
  5
6C8
330
6C4
100
AcDbEntity
  8
0
100
AcDbBlockEnd
  0
BLOCK
  5
A6A
330
A66
100
AcDbEntity
  8
0
100
AcDbBlockBegin
  2
_OPEN30
 70
     0
 10
0.0
 20
0.0
 30
0.0
  3
_OPEN30
  1

  0
LINE
  5
A67
330
A66
100
AcDbEntity
  8
0
  6
ByBlock
 62
     0
100
AcDbLine
 10
-1.0
 20
0.26794919
 30
0.0
 11
0.0
 21
0.0
 31
0.0
  0
LINE
  5
A68
330
A66
100
AcDbEntity
  8
0
  6
ByBlock
 62
     0
100
AcDbLine
 10
0.0
 20
0.0
 30
0.0
 11
-1.0
 21
-0.26794919
 31
0.0
  0
LINE
  5
A69
330
A66
100
AcDbEntity
  8
0
  6
ByBlock
 62
     0
100
AcDbLine
 10
0.0
 20
0.0
 30
0.0
 11
-1.0
 21
0.0
 31
0.0
  0
ENDBLK
  5
A6B
330
A66
100
AcDbEntity
  8
0
100
AcDbBlockEnd
  0
BLOCK
  5
118D1
330
118D0
100
AcDbEntity
  8
0
100
AcDbBlockBegin
  2
*D5
 70
     1
 10
0.0
 20
0.0
 30
0.0
  3
*D5
  1

  0
LINE
  5
118D3
330
118D0
100
AcDbEntity
  8
AM_5
100
AcDbLine
 10
343.5703678011187
 20
154.9622978224334
 30
0.0
 11
355.5703678011187
 21
154.9622978224334
 31
0.0
  0
LINE
  5
118D4
330
118D0
100
AcDbEntity
  8
AM_5
100
AcDbLine
 10
343.5703678011187
 20
65.96229782243347
 30
0.0
 11
355.5703678011187
 21
65.96229782243345
 31
0.0
  0
LINE
  5
118D5
330
118D0
100
AcDbEntity
  8
AM_5
100
AcDbLine
 10
354.5703678011187
 20
153.9622978224334
 30
0.0
 11
354.5703678011187
 21
66.96229782243346
 31
0.0
  0
INSERT
  5
118D6
330
118D0
100
AcDbEntity
  8
AM_5
100
AcDbBlockReference
  2
_Dot
 10
354.5703678011187
 20
154.9622978224334
 30
0.0
 50
90.0
  0
INSERT
  5
118D7
330
118D0
100
AcDbEntity
  8
AM_5
100
AcDbBlockReference
  2
_Dot
 10
354.5703678011187
 20
65.96229782243345
 30
0.0
 50
270.0
  0
MTEXT
  5
118D8
330
118D0
100
AcDbEntity
  8
AM_5
 62
     2
100
AcDbMText
 10
351.4703678011187
 20
110.4622978224335
 30
0.0
 40
3.200000000000001
 41
0.0
 71
     5
 72
     1
  1
89
 11
0.0000000000000001
 21
1.0
 31
0.0
 73
     1
 44
1.0
  0
POINT
  5
118D9
330
118D0
100
AcDbEntity
  8
Defpoints
 62
     0
100
AcDbPoint
 10
342.5703678011187
 20
154.9622978224334
 30
0.0
  0
POINT
  5
118DA
330
118D0
100
AcDbEntity
  8
Defpoints
 62
     0
100
AcDbPoint
 10
342.5703678011187
 20
65.96229782243347
 30
0.0
  0
POINT
  5
118DB
330
118D0
100
AcDbEntity
  8
Defpoints
 62
     0
100
AcDbPoint
 10
354.5703678011187
 20
65.96229782243345
 30
0.0
  0
ENDBLK
  5
118D2
330
118D0
100
AcDbEntity
  8
0
100
AcDbBlockEnd
  0
BLOCK
  5
11908
330
11907
100
AcDbEntity
  8
0
100
AcDbBlockBegin
  2
_NONE
 70
     0
 10
0.0
 20
0.0
 30
0.0
  3
_NONE
  1

  0
ENDBLK
  5
11909
330
11907
100
AcDbEntity
  8
0
100
AcDbBlockEnd
  0
BLOCK
  5
11A01
330
11A00
100
AcDbEntity
  8
0
100
AcDbBlockBegin
  2
*D7
 70
     1
 10
0.0
 20
0.0
 30
0.0
  3
*D7
  1

  0
LINE
  5
11A50
330
11A00
100
AcDbEntity
  8
AM_5
100
AcDbLine
 10
262.5703848011186
 20
155.9622978224334
 30
0.0
 11
262.5703848011186
 21
177.9622978224333
 31
0.0
  0
LINE
  5
11A51
330
11A00
100
AcDbEntity
  8
AM_5
100
AcDbLine
 10
342.5703678011187
 20
155.9622978224334
 30
0.0
 11
342.5703678011187
 21
177.9622978224333
 31
0.0
  0
LINE
  5
11A52
330
11A00
100
AcDbEntity
  8
AM_5
100
AcDbLine
 10
263.5703848011186
 20
176.9622978224333
 30
0.0
 11
341.5703678011187
 21
176.9622978224333
 31
0.0
  0
INSERT
  5
11A53
330
11A00
100
AcDbEntity
  8
AM_5
100
AcDbBlockReference
  2
_Dot
 10
262.5703848011186
 20
176.9622978224333
 30
0.0
 50
180.0
  0
INSERT
  5
11A54
330
11A00
100
AcDbEntity
  8
AM_5
100
AcDbBlockReference
  2
_Dot
 10
342.5703678011187
 20
176.9622978224333
 30
0.0
  0
MTEXT
  5
11A55
330
11A00
100
AcDbEntity
  8
AM_5
 62
     2
100
AcDbMText
 10
302.5703763011187
 20
180.0622978224333
 30
0.0
 40
3.200000000000001
 41
0.0
 71
     5
 72
     1
  1
80
 73
     1
 44
1.0
  0
POINT
  5
11A56
330
11A00
100
AcDbEntity
  8
Defpoints
 62
     0
100
AcDbPoint
 10
262.5703848011186
 20
154.9622978224334
 30
0.0
  0
POINT
  5
11A57
330
11A00
100
AcDbEntity
  8
Defpoints
 62
     0
100
AcDbPoint
 10
342.5703678011187
 20
154.9622978224334
 30
0.0
  0
POINT
  5
11A58
330
11A00
100
AcDbEntity
  8
Defpoints
 62
     0
100
AcDbPoint
 10
342.5703678011187
 20
176.9622978224333
 30
0.0
  0
ENDBLK
  5
11A02
330
11A00
100
AcDbEntity
  8
0
100
AcDbBlockEnd
  0
BLOCK
  5
11A76
330
11A75
100
AcDbEntity
  8
0
100
AcDbBlockBegin
  2
*D9
 70
     1
 10
0.0
 20
0.0
 30
0.0
  3
*D9
  1

  0
LINE
  5
11A93
330
11A75
100
AcDbEntity
  8
AM_5
100
AcDbLine
 10
287.5703698011187
 20
64.96229782243347
 30
0.0
 11
287.5703698011187
 21
52.96229782243345
 31
0.0
  0
LINE
  5
11A94
330
11A75
100
AcDbEntity
  8
AM_5
100
AcDbLine
 10
262.5703848011186
 20
64.96229782243347
 30
0.0
 11
262.5703848011186
 21
52.96229782243345
 31
0.0
  0
LINE
  5
11A95
330
11A75
100
AcDbEntity
  8
AM_5
100
AcDbLine
 10
286.5703698011186
 20
53.96229782243345
 30
0.0
 11
263.5703848011186
 21
53.96229782243345
 31
0.0
  0
INSERT
  5
11A96
330
11A75
100
AcDbEntity
  8
AM_5
100
AcDbBlockReference
  2
_Dot
 10
287.5703698011187
 20
53.96229782243345
 30
0.0
  0
INSERT
  5
11A97
330
11A75
100
AcDbEntity
  8
AM_5
100
AcDbBlockReference
  2
_Dot
 10
262.5703848011186
 20
53.96229782243345
 30
0.0
 50
180.0
  0
MTEXT
  5
11A98
330
11A75
100
AcDbEntity
  8
AM_5
 62
     2
100
AcDbMText
 10
275.0703773011186
 20
57.06229782243346
 30
0.0
 40
3.200000000000001
 41
0.0
 71
     5
 72
     1
  1
25
 73
     1
 44
1.0
  0
POINT
  5
11A99
330
11A75
100
AcDbEntity
  8
Defpoints
 62
     0
100
AcDbPoint
 10
287.5703698011187
 20
65.96229782243347
 30
0.0
  0
POINT
  5
11A9A
330
11A75
100
AcDbEntity
  8
Defpoints
 62
     0
100
AcDbPoint
 10
262.5703848011186
 20
65.96229782243347
 30
0.0
  0
POINT
  5
11A9B
330
11A75
100
AcDbEntity
  8
Defpoints
 62
     0
100
AcDbPoint
 10
262.5703848011186
 20
53.96229782243345
 30
0.0
  0
ENDBLK
  5
11A77
330
11A75
100
AcDbEntity
  8
0
100
AcDbBlockEnd
  0
BLOCK
  5
11AC6
330
11AC5
100
AcDbEntity
  8
0
100
AcDbBlockBegin
  2
*D10
 70
     1
 10
0.0
 20
0.0
 30
0.0
  3
*D10
  1

  0
LINE
  5
11AE9
330
11AC5
100
AcDbEntity
  8
AM_5
100
AcDbLine
 10
343.5703678011187
 20
229.7122928224335
 30
0.0
 11
355.5703678011187
 21
229.7122928224335
 31
0.0
  0
LINE
  5
11AEA
330
11AC5
100
AcDbEntity
  8
AM_5
100
AcDbLine
 10
343.5703678011187
 20
227.2122928224335
 30
0.0
 11
355.5703678011187
 21
227.2122928224335
 31
0.0
  0
LINE
  5
11AEB
330
11AC5
100
AcDbEntity
  8
AM_5
100
AcDbLine
 10
354.5703678011187
 20
230.7122928224335
 30
0.0
 11
354.5703678011187
 21
231.7122928224335
 31
0.0
  0
LINE
  5
11AEC
330
11AC5
100
AcDbEntity
  8
AM_5
100
AcDbLine
 10
354.5703678011187
 20
226.2122928224335
 30
0.0
 11
354.5703678011187
 21
217.5189594891001
 31
0.0
  0
LINE
  5
11AED
330
11AC5
100
AcDbEntity
  8
AM_5
100
AcDbLine
 10
354.5703678011187
 20
229.7122928224335
 30
0.0
 11
354.5703678011187
 21
227.2122928224335
 31
0.0
  0
INSERT
  5
11AEE
330
11AC5
100
AcDbEntity
  8
AM_5
100
AcDbBlockReference
  2
_Dot
 10
354.5703678011187
 20
229.7122928224335
 30
0.0
 50
270.0
  0
INSERT
  5
11AEF
330
11AC5
100
AcDbEntity
  8
AM_5
100
AcDbBlockReference
  2
_Dot
 10
354.5703678011187
 20
227.2122928224335
 30
0.0
 50
90.0
  0
MTEXT
  5
11AF0
330
11AC5
100
AcDbEntity
  8
AM_5
 62
     2
100
AcDbMText
 10
351.4703678011186
 20
221.3656261557669
 30
0.0
 40
3.200000000000001
 41
0.0
 71
     5
 72
     1
  1
2.5
 11
0.0000000000000001
 21
1.0
 31
0.0
 73
     1
 44
1.0
  0
POINT
  5
11AF1
330
11AC5
100
AcDbEntity
  8
Defpoints
 62
     0
100
AcDbPoint
 10
342.5703678011187
 20
229.7122928224335
 30
0.0
  0
POINT
  5
11AF2
330
11AC5
100
AcDbEntity
  8
Defpoints
 62
     0
100
AcDbPoint
 10
342.5703678011187
 20
227.2122928224335
 30
0.0
  0
POINT
  5
11AF3
330
11AC5
100
AcDbEntity
  8
Defpoints
 62
     0
100
AcDbPoint
 10
354.5703678011187
 20
227.2122928224335
 30
0.0
  0
ENDBLK
  5
11AC7
330
11AC5
100
AcDbEntity
  8
0
100
AcDbBlockEnd
  0
BLOCK
  5
11D69
330
11D68
100
AcDbEntity
  8
0
100
AcDbBlockBegin
  2
*D11
 70
     1
 10
0.0
 20
0.0
 30
0.0
  3
*D11
  1

  0
LINE
  5
11D86
330
11D68
100
AcDbEntity
  8
AM_5
100
AcDbLine
 10
261.5703698011186
 20
229.7122928224335
 30
0.0
 11
249.5703688011186
 21
229.7122928224335
 31
0.0
  0
LINE
  5
11D87
330
11D68
100
AcDbEntity
  8
AM_5
100
AcDbLine
 10
286.4703708011187
 20
214.7122928224335
 30
0.0
 11
249.5703688011186
 21
214.7122928224335
 31
0.0
  0
LINE
  5
11D88
330
11D68
100
AcDbEntity
  8
AM_5
100
AcDbLine
 10
250.5703688011187
 20
228.7122928224335
 30
0.0
 11
250.5703688011187
 21
215.7122928224335
 31
0.0
  0
INSERT
  5
11D89
330
11D68
100
AcDbEntity
  8
AM_5
100
AcDbBlockReference
  2
_Dot
 10
250.5703688011187
 20
229.7122928224335
 30
0.0
 50
90.0
  0
INSERT
  5
11D8A
330
11D68
100
AcDbEntity
  8
AM_5
100
AcDbBlockReference
  2
_Dot
 10
250.5703688011187
 20
214.7122928224335
 30
0.0
 50
270.0
  0
MTEXT
  5
11D8B
330
11D68
100
AcDbEntity
  8
AM_5
 62
     2
100
AcDbMText
 10
247.4703688011186
 20
222.2122928224335
 30
0.0
 40
3.200000000000001
 41
0.0
 71
     5
 72
     1
  1
15
 11
0.0000000000000001
 21
1.0
 31
0.0
 73
     1
 44
1.0
  0
POINT
  5
11D8C
330
11D68
100
AcDbEntity
  8
Defpoints
 62
     0
100
AcDbPoint
 10
262.5703698011187
 20
229.7122928224335
 30
0.0
  0
POINT
  5
11D8D
330
11D68
100
AcDbEntity
  8
Defpoints
 62
     0
100
AcDbPoint
 10
287.4703708011186
 20
214.7122928224335
 30
0.0
  0
POINT
  5
11D8E
330
11D68
100
AcDbEntity
  8
Defpoints
 62
     0
100
AcDbPoint
 10
250.5703688011187
 20
214.7122928224335
 30
0.0
  0
ENDBLK
  5
11D6A
330
11D68
100
AcDbEntity
  8
0
100
AcDbBlockEnd
  0
BLOCK
  5
11E1F
330
11E1E
100
AcDbEntity
  8
0
100
AcDbBlockBegin
  2
*D12
 70
     1
 10
0.0
 20
0.0
 30
0.0
  3
*D12
  1

  0
ARC
  5
11E21
330
11E1E
100
AcDbEntity
  8
AM_5
100
AcDbCircle
 10
170.5650397843434
 20
86.09615377848012
 30
0.0
 40
23.74944716417584
100
AcDbArc
 50
139.8264506987391
 51
180.0000000000001
  0
INSERT
  5
11E22
330
11E1E
100
AcDbEntity
  8
AM_5
100
AcDbBlockReference
  2
_OPEN30
 10
153.7716435441184
 20
102.8895478166957
 30
0.0
 41
2.0
 42
2.0
 43
2.0
 50
47.41322722757588
  0
POINT
  5
11E23
330
11E1E
100
AcDbEntity
  8
Defpoints
 62
     0
100
AcDbPoint
 10
149.9974146953122
 20
97.97087646160145
 30
0.0
  0
POINT
  5
11E24
330
11E1E
100
AcDbEntity
  8
Defpoints
 62
     0
100
AcDbPoint
 10
172.7419962465515
 20
83.91919760172212
 30
0.0
  0
POINT
  5
11E25
330
11E1E
100
AcDbEntity
  8
Defpoints
 62
     0
100
AcDbPoint
 10
176.5432161867366
 20
86.0961537784801
 30
0.0
  0
POINT
  5
11E26
330
11E1E
100
AcDbEntity
  8
Defpoints
 62
     0
100
AcDbPoint
 10
140.5432200014345
 20
86.0961537784801
 30
0.0
  0
POINT
  5
11E27
330
11E1E
100
AcDbEntity
  8
Defpoints
 62
     0
100
AcDbPoint
 10
147.2861475527035
 20
109.3750429577094
 30
0.0
  0
ENDBLK
  5
11E20
330
11E1E
100
AcDbEntity
  8
0
100
AcDbBlockEnd
  0
BLOCK
  5
11E29
330
11E28
100
AcDbEntity
  8
0
100
AcDbBlockBegin
  2
*D13
 70
     1
 10
0.0
 20
0.0
 30
0.0
  3
*D13
  1

  0
ARC
  5
11E2B
330
11E28
100
AcDbEntity
  8
AM_5
100
AcDbCircle
 10
56.52139258913472
 20
86.0961537784801
 30
0.0
 40
23.74944716417585
100
AcDbArc
 50
0.0
 51
40.17354930126094
  0
INSERT
  5
11E2C
330
11E28
100
AcDbEntity
  8
AM_5
100
AcDbBlockReference
  2
_OPEN30
 10
73.31478882935972
 20
102.8895478166958
 30
0.0
 41
2.0
 42
2.0
 43
2.0
 50
132.5867727724242
  0
POINT
  5
11E2D
330
11E28
100
AcDbEntity
  8
Defpoints
 62
     0
100
AcDbPoint
 10
79.46159709943174
 20
92.24296251389143
 30
0.0
  0
POINT
  5
11E2E
330
11E28
100
AcDbEntity
  8
Defpoints
 62
     0
100
AcDbPoint
 10
54.34443612692653
 20
83.91919760172212
 30
0.0
  0
POINT
  5
11E2F
330
11E28
100
AcDbEntity
  8
Defpoints
 62
     0
100
AcDbPoint
 10
50.54321618674151
 20
86.0961537784801
 30
0.0
  0
POINT
  5
11E30
330
11E28
100
AcDbEntity
  8
Defpoints
 62
     0
100
AcDbPoint
 10
86.54321237204355
 20
86.0961537784801
 30
0.0
  0
POINT
  5
11E31
330
11E28
100
AcDbEntity
  8
Defpoints
 62
     0
100
AcDbPoint
 10
79.80028482077454
 20
109.3750429577094
 30
0.0
  0
ENDBLK
  5
11E2A
330
11E28
100
AcDbEntity
  8
0
100
AcDbBlockEnd
  0
BLOCK
  5
11E52
330
11E51
100
AcDbEntity
  8
0
100
AcDbBlockBegin
  2
*D14
 70
     1
 10
0.0
 20
0.0
 30
0.0
  3
*D14
  1

  0
LINE
  5
11E78
330
11E51
100
AcDbEntity
  8
AM_5
100
AcDbLine
 10
315.9359663093107
 20
228.2122928224334
 30
0.0
 11
315.9359663093107
 21
240.2122928224336
 31
0.0
  0
LINE
  5
11E79
330
11E51
100
AcDbEntity
  8
AM_5
100
AcDbLine
 10
289.2047732929265
 20
228.2122928224335
 30
0.0
 11
289.2047732929265
 21
240.2122928224336
 31
0.0
  0
LINE
  5
11E7A
330
11E51
100
AcDbEntity
  8
AM_5
100
AcDbLine
 10
314.9359663093107
 20
239.2122928224336
 30
0.0
 11
290.2047732929265
 21
239.2122928224336
 31
0.0
  0
INSERT
  5
11E7B
330
11E51
100
AcDbEntity
  8
AM_5
100
AcDbBlockReference
  2
_Dot
 10
315.9359663093107
 20
239.2122928224336
 30
0.0
  0
INSERT
  5
11E7C
330
11E51
100
AcDbEntity
  8
AM_5
100
AcDbBlockReference
  2
_Dot
 10
289.2047732929265
 20
239.2122928224336
 30
0.0
 50
180.0
  0
MTEXT
  5
11E7D
330
11E51
100
AcDbEntity
  8
AM_5
 62
     2
100
AcDbMText
 10
302.5703698011185
 20
242.3122928224336
 30
0.0
 40
3.200000000000001
 41
0.0
 71
     5
 72
     1
  1
（30）
 73
     1
 44
1.0
  0
POINT
  5
11E7E
330
11E51
100
AcDbEntity
  8
Defpoints
 62
     0
100
AcDbPoint
 10
315.9359663093107
 20
227.2122928224335
 30
0.0
  0
POINT
  5
11E7F
330
11E51
100
AcDbEntity
  8
Defpoints
 62
     0
100
AcDbPoint
 10
289.2047732929265
 20
227.2122928224336
 30
0.0
  0
POINT
  5
11E80
330
11E51
100
AcDbEntity
  8
Defpoints
 62
     0
100
AcDbPoint
 10
289.2047732929265
 20
239.2122928224336
 30
0.0
  0
ENDBLK
  5
11E53
330
11E51
100
AcDbEntity
  8
0
100
AcDbBlockEnd
  0
BLOCK
  5
11F15
330
11F14
100
AcDbEntity
  8
0
100
AcDbBlockBegin
  2
*D15
 70
     1
 10
0.0
 20
0.0
 30
0.0
  3
*D15
  1

  0
LINE
  5
11F32
330
11F14
100
AcDbEntity
  8
AM_5
100
AcDbLine
 10
271.2703848011186
 20
146.9622978224334
 30
0.0
 11
249.5703838011186
 21
146.9622978224334
 31
0.0
  0
LINE
  5
11F33
330
11F14
100
AcDbEntity
  8
AM_5
100
AcDbLine
 10
262.2703848011186
 20
122.9622998224334
 30
0.0
 11
249.5703838011186
 21
122.9622998224334
 31
0.0
  0
LINE
  5
11F34
330
11F14
100
AcDbEntity
  8
AM_5
100
AcDbLine
 10
250.5703838011186
 20
145.9622978224334
 30
0.0
 11
250.5703838011186
 21
123.9622998224334
 31
0.0
  0
INSERT
  5
11F35
330
11F14
100
AcDbEntity
  8
AM_5
100
AcDbBlockReference
  2
_Dot
 10
250.5703838011186
 20
146.9622978224334
 30
0.0
 50
90.0
  0
INSERT
  5
11F36
330
11F14
100
AcDbEntity
  8
AM_5
100
AcDbBlockReference
  2
_Dot
 10
250.5703838011186
 20
122.9622998224334
 30
0.0
 50
270.0
  0
MTEXT
  5
11F37
330
11F14
100
AcDbEntity
  8
AM_5
 62
     2
100
AcDbMText
 10
247.4703838011186
 20
134.9622988224335
 30
0.0
 40
3.200000000000001
 41
0.0
 71
     5
 72
     1
  1
24
 11
0.0000000000000001
 21
1.0
 31
0.0
 73
     1
 44
1.0
  0
POINT
  5
11F38
330
11F14
100
AcDbEntity
  8
Defpoints
 62
     0
100
AcDbPoint
 10
272.2703848011185
 20
146.9622978224334
 30
0.0
  0
POINT
  5
11F39
330
11F14
100
AcDbEntity
  8
Defpoints
 62
     0
100
AcDbPoint
 10
263.2703848011185
 20
122.9622998224334
 30
0.0
  0
POINT
  5
11F3A
330
11F14
100
AcDbEntity
  8
Defpoints
 62
     0
100
AcDbPoint
 10
250.5703838011186
 20
122.9622998224334
 30
0.0
  0
ENDBLK
  5
11F16
330
11F14
100
AcDbEntity
  8
0
100
AcDbBlockEnd
  0
BLOCK
  5
11F3D
330
11F3C
100
AcDbEntity
  8
0
100
AcDbBlockBegin
  2
*D16
 70
     1
 10
0.0
 20
0.0
 30
0.0
  3
*D16
  1

  0
LINE
  5
11F51
330
11F3C
100
AcDbEntity
  8
AM_5
100
AcDbLine
 10
262.2703848011186
 20
122.9622998224334
 30
0.0
 11
249.5703838011186
 21
122.9622998224334
 31
0.0
  0
LINE
  5
11F52
330
11F3C
100
AcDbEntity
  8
AM_5
100
AcDbLine
 10
271.2703848011186
 20
97.96229582243348
 30
0.0
 11
249.5703838011186
 21
97.96229582243348
 31
0.0
  0
LINE
  5
11F53
330
11F3C
100
AcDbEntity
  8
AM_5
100
AcDbLine
 10
250.5703838011186
 20
121.9622998224334
 30
0.0
 11
250.5703838011186
 21
98.96229582243348
 31
0.0
  0
INSERT
  5
11F54
330
11F3C
100
AcDbEntity
  8
AM_5
100
AcDbBlockReference
  2
_Dot
 10
250.5703838011186
 20
122.9622998224334
 30
0.0
 50
90.0
  0
INSERT
  5
11F55
330
11F3C
100
AcDbEntity
  8
AM_5
100
AcDbBlockReference
  2
_Dot
 10
250.5703838011186
 20
97.96229582243348
 30
0.0
 50
270.0
  0
MTEXT
  5
11F56
330
11F3C
100
AcDbEntity
  8
AM_5
 62
     2
100
AcDbMText
 10
247.4703838011186
 20
110.4622978224335
 30
0.0
 40
3.200000000000001
 41
0.0
 71
     5
 72
     1
  1
25
 11
0.0000000000000001
 21
1.0
 31
0.0
 73
     1
 44
1.0
  0
POINT
  5
11F57
330
11F3C
100
AcDbEntity
  8
Defpoints
 62
     0
100
AcDbPoint
 10
263.2703848011185
 20
122.9622998224334
 30
0.0
  0
POINT
  5
11F58
330
11F3C
100
AcDbEntity
  8
Defpoints
 62
     0
100
AcDbPoint
 10
272.2703848011185
 20
97.96229582243348
 30
0.0
  0
POINT
  5
11F59
330
11F3C
100
AcDbEntity
  8
Defpoints
 62
     0
100
AcDbPoint
 10
250.5703838011186
 20
97.96229582243348
 30
0.0
  0
ENDBLK
  5
11F3E
330
11F3C
100
AcDbEntity
  8
0
100
AcDbBlockEnd
  0
BLOCK
  5
11F5C
330
11F5B
100
AcDbEntity
  8
0
100
AcDbBlockBegin
  2
*D17
 70
     1
 10
0.0
 20
0.0
 30
0.0
  3
*D17
  1

  0
LINE
  5
11F8C
330
11F5B
100
AcDbEntity
  8
AM_5
100
AcDbLine
 10
271.2703848011186
 20
97.96229582243348
 30
0.0
 11
249.5703848011186
 21
97.96229582243348
 31
0.0
  0
LINE
  5
11F8D
330
11F5B
100
AcDbEntity
  8
AM_5
100
AcDbLine
 10
262.2703848011186
 20
73.96229482243348
 30
0.0
 11
249.5703848011186
 21
73.96229482243348
 31
0.0
  0
LINE
  5
11F8E
330
11F5B
100
AcDbEntity
  8
AM_5
100
AcDbLine
 10
250.5703848011186
 20
96.96229582243347
 30
0.0
 11
250.5703848011186
 21
74.96229482243347
 31
0.0
  0
INSERT
  5
11F8F
330
11F5B
100
AcDbEntity
  8
AM_5
100
AcDbBlockReference
  2
_Dot
 10
250.5703848011186
 20
97.96229582243348
 30
0.0
 50
90.0
  0
INSERT
  5
11F90
330
11F5B
100
AcDbEntity
  8
AM_5
100
AcDbBlockReference
  2
_Dot
 10
250.5703848011186
 20
73.96229482243348
 30
0.0
 50
270.0
  0
MTEXT
  5
11F91
330
11F5B
100
AcDbEntity
  8
AM_5
 62
     2
100
AcDbMText
 10
247.4703848011186
 20
85.96229532243352
 30
0.0
 40
3.200000000000001
 41
0.0
 71
     5
 72
     1
  1
24
 11
0.0000000000000001
 21
1.0
 31
0.0
 73
     1
 44
1.0
  0
POINT
  5
11F92
330
11F5B
100
AcDbEntity
  8
Defpoints
 62
     0
100
AcDbPoint
 10
272.2703848011185
 20
97.96229582243348
 30
0.0
  0
POINT
  5
11F93
330
11F5B
100
AcDbEntity
  8
Defpoints
 62
     0
100
AcDbPoint
 10
263.2703848011185
 20
73.96229482243348
 30
0.0
  0
POINT
  5
11F94
330
11F5B
100
AcDbEntity
  8
Defpoints
 62
     0
100
AcDbPoint
 10
250.5703848011186
 20
73.96229482243348
 30
0.0
  0
ENDBLK
  5
11F5D
330
11F5B
100
AcDbEntity
  8
0
100
AcDbBlockEnd
  0
BLOCK
  5
11F97
330
11F96
100
AcDbEntity
  8
0
100
AcDbBlockBegin
  2
*D18
 70
     1
 10
0.0
 20
0.0
 30
0.0
  3
*D18
  1

  0
LINE
  5
11FE5
330
11F96
100
AcDbEntity
  8
AM_5
100
AcDbLine
 10
279.5703848011186
 20
155.2622978224334
 30
0.0
 11
279.5703848011186
 21
167.9622978224331
 31
0.0
  0
LINE
  5
11FE6
330
11F96
100
AcDbEntity
  8
AM_5
100
AcDbLine
 10
270.5703848011186
 20
131.2622998224334
 30
0.0
 11
270.5703848011186
 21
167.9622978224331
 31
0.0
  0
LINE
  5
11FE7
330
11F96
100
AcDbEntity
  8
AM_5
100
AcDbLine
 10
278.5703848011186
 20
166.9622978224331
 30
0.0
 11
271.5703848011186
 21
166.9622978224331
 31
0.0
  0
INSERT
  5
11FE8
330
11F96
100
AcDbEntity
  8
AM_5
100
AcDbBlockReference
  2
_Dot
 10
279.5703848011186
 20
166.9622978224331
 30
0.0
  0
INSERT
  5
11FE9
330
11F96
100
AcDbEntity
  8
AM_5
100
AcDbBlockReference
  2
_Dot
 10
270.5703848011186
 20
166.9622978224331
 30
0.0
 50
180.0
  0
MTEXT
  5
11FEA
330
11F96
100
AcDbEntity
  8
AM_5
 62
     2
100
AcDbMText
 10
275.0703848011186
 20
170.0622978224331
 30
0.0
 40
3.200000000000001
 41
0.0
 71
     5
 72
     1
  1
9
 73
     1
 44
1.0
  0
POINT
  5
11FEB
330
11F96
100
AcDbEntity
  8
Defpoints
 62
     0
100
AcDbPoint
 10
279.5703848011186
 20
154.2622978224335
 30
0.0
  0
POINT
  5
11FEC
330
11F96
100
AcDbEntity
  8
Defpoints
 62
     0
100
AcDbPoint
 10
270.5703848011186
 20
130.2622998224334
 30
0.0
  0
POINT
  5
11FED
330
11F96
100
AcDbEntity
  8
Defpoints
 62
     0
100
AcDbPoint
 10
270.5703848011186
 20
166.9622978224331
 30
0.0
  0
ENDBLK
  5
11F98
330
11F96
100
AcDbEntity
  8
0
100
AcDbBlockEnd
  0
BLOCK
  5
11FBF
330
11FBE
100
AcDbEntity
  8
0
100
AcDbBlockBegin
  2
*D19
 70
     1
 10
0.0
 20
0.0
 30
0.0
  3
*D19
  1

  0
LINE
  5
11FDC
330
11FBE
100
AcDbEntity
  8
AM_5
100
AcDbLine
 10
279.5703848011186
 20
155.2622978224334
 30
0.0
 11
279.5703848011186
 21
167.962297822433
 31
0.0
  0
LINE
  5
11FDD
330
11FBE
100
AcDbEntity
  8
AM_5
100
AcDbLine
 10
302.5703698011187
 20
160.9622978224335
 30
0.0
 11
302.5703698011187
 21
167.962297822433
 31
0.0
  0
LINE
  5
11FDE
330
11FBE
100
AcDbEntity
  8
AM_5
100
AcDbLine
 10
280.5703848011186
 20
166.962297822433
 30
0.0
 11
301.5703698011187
 21
166.962297822433
 31
0.0
  0
INSERT
  5
11FDF
330
11FBE
100
AcDbEntity
  8
AM_5
100
AcDbBlockReference
  2
_Dot
 10
279.5703848011186
 20
166.962297822433
 30
0.0
 50
180.0
  0
INSERT
  5
11FE0
330
11FBE
100
AcDbEntity
  8
AM_5
100
AcDbBlockReference
  2
_Dot
 10
302.5703698011187
 20
166.962297822433
 30
0.0
  0
MTEXT
  5
11FE1
330
11FBE
100
AcDbEntity
  8
AM_5
 62
     2
100
AcDbMText
 10
291.0703773011186
 20
170.062297822433
 30
0.0
 40
3.200000000000001
 41
0.0
 71
     5
 72
     1
  1
23
 73
     1
 44
1.0
  0
POINT
  5
11FE2
330
11FBE
100
AcDbEntity
  8
Defpoints
 62
     0
100
AcDbPoint
 10
279.5703848011186
 20
154.2622978224335
 30
0.0
  0
POINT
  5
11FE3
330
11FBE
100
AcDbEntity
  8
Defpoints
 62
     0
100
AcDbPoint
 10
302.5703698011187
 20
159.9622978224334
 30
0.0
  0
POINT
  5
11FE4
330
11FBE
100
AcDbEntity
  8
Defpoints
 62
     0
100
AcDbPoint
 10
302.5703698011187
 20
166.962297822433
 30
0.0
  0
ENDBLK
  5
11FC0
330
11FBE
100
AcDbEntity
  8
0
100
AcDbBlockEnd
  0
BLOCK
  5
11FF0
330
11FEF
100
AcDbEntity
  8
0
100
AcDbBlockBegin
  2
*D20
 70
     1
 10
0.0
 20
0.0
 30
0.0
  3
*D20
  1

  0
LINE
  5
1200D
330
11FEF
100
AcDbEntity
  8
AM_5
100
AcDbLine
 10
270.5703848011186
 20
131.2622998224334
 30
0.0
 11
270.5703848011186
 21
167.962297822433
 31
0.0
  0
LINE
  5
1200E
330
11FEF
100
AcDbEntity
  8
AM_5
100
AcDbLine
 10
262.5703848011186
 20
155.9622978224334
 30
0.0
 11
262.5703848011186
 21
167.962297822433
 31
0.0
  0
LINE
  5
1200F
330
11FEF
100
AcDbEntity
  8
AM_5
100
AcDbLine
 10
269.5703848011186
 20
166.962297822433
 30
0.0
 11
263.5703848011186
 21
166.962297822433
 31
0.0
  0
INSERT
  5
12010
330
11FEF
100
AcDbEntity
  8
AM_5
100
AcDbBlockReference
  2
_Dot
 10
270.5703848011186
 20
166.962297822433
 30
0.0
  0
INSERT
  5
12011
330
11FEF
100
AcDbEntity
  8
AM_5
100
AcDbBlockReference
  2
_Dot
 10
262.5703848011186
 20
166.962297822433
 30
0.0
 50
180.0
  0
MTEXT
  5
12012
330
11FEF
100
AcDbEntity
  8
AM_5
 62
     2
100
AcDbMText
 10
266.5703848011186
 20
170.062297822433
 30
0.0
 40
3.200000000000001
 41
0.0
 71
     5
 72
     1
  1
8
 73
     1
 44
1.0
  0
POINT
  5
12013
330
11FEF
100
AcDbEntity
  8
Defpoints
 62
     0
100
AcDbPoint
 10
270.5703848011186
 20
130.2622998224334
 30
0.0
  0
POINT
  5
12014
330
11FEF
100
AcDbEntity
  8
Defpoints
 62
     0
100
AcDbPoint
 10
262.5703848011186
 20
154.9622978224334
 30
0.0
  0
POINT
  5
12015
330
11FEF
100
AcDbEntity
  8
Defpoints
 62
     0
100
AcDbPoint
 10
262.5703848011186
 20
166.962297822433
 30
0.0
  0
ENDBLK
  5
11FF1
330
11FEF
100
AcDbEntity
  8
0
100
AcDbBlockEnd
  0
BLOCK
  5
12018
330
12017
100
AcDbEntity
  8
0
100
AcDbBlockBegin
  2
*D21
 70
     1
 10
0.0
 20
0.0
 30
0.0
  3
*D21
  1

  0
LINE
  5
1203E
330
12017
100
AcDbEntity
  8
AM_5
100
AcDbLine
 10
293.5703698011187
 20
64.96229782243347
 30
0.0
 11
293.5703698011187
 21
52.96229782243345
 31
0.0
  0
LINE
  5
1203F
330
12017
100
AcDbEntity
  8
AM_5
100
AcDbLine
 10
311.5703698011186
 20
64.96229782243347
 30
0.0
 11
311.5703698011186
 21
52.96229782243345
 31
0.0
  0
LINE
  5
12040
330
12017
100
AcDbEntity
  8
AM_5
100
AcDbLine
 10
294.5703698011186
 20
53.96229782243345
 30
0.0
 11
310.5703698011187
 21
53.96229782243345
 31
0.0
  0
INSERT
  5
12041
330
12017
100
AcDbEntity
  8
AM_5
100
AcDbBlockReference
  2
_Dot
 10
293.5703698011187
 20
53.96229782243345
 30
0.0
 50
180.0
  0
INSERT
  5
12042
330
12017
100
AcDbEntity
  8
AM_5
100
AcDbBlockReference
  2
_Dot
 10
311.5703698011186
 20
53.96229782243345
 30
0.0
  0
MTEXT
  5
12043
330
12017
100
AcDbEntity
  8
AM_5
 62
     2
100
AcDbMText
 10
302.5703698011187
 20
57.06229782243345
 30
0.0
 40
3.200000000000001
 41
0.0
 71
     5
 72
     1
  1
%%c18
 73
     1
 44
1.0
  0
POINT
  5
12044
330
12017
100
AcDbEntity
  8
Defpoints
 62
     0
100
AcDbPoint
 10
293.5703698011187
 20
65.96229782243347
 30
0.0
  0
POINT
  5
12045
330
12017
100
AcDbEntity
  8
Defpoints
 62
     0
100
AcDbPoint
 10
311.5703698011186
 20
65.96229782243347
 30
0.0
  0
POINT
  5
12046
330
12017
100
AcDbEntity
  8
Defpoints
 62
     0
100
AcDbPoint
 10
311.5703698011186
 20
53.96229782243345
 30
0.0
  0
ENDBLK
  5
12019
330
12017
100
AcDbEntity
  8
0
100
AcDbBlockEnd
  0
ENDSEC
  0
SECTION
  2
ENTITIES
  0
TEXT
  5
BF47
330
1F
100
AcDbEntity
  8
AM_6
 60
     1
100
AcDbText
 10
408.4999999999999
 20
8.5
 30
0.0
 40
2.5
  1
!GENTITLE-INSERT
100
AcDbText
  0
TEXT
  5
BF48
330
1F
100
AcDbEntity
  8
AM_6
 60
     1
100
AcDbText
 10
0.0
 20
0.0
 30
0.0
 40
2.5
  1
!GENTITLE-LL
100
AcDbText
  0
TEXT
  5
BF49
330
1F
100
AcDbEntity
  8
AM_6
 60
     1
100
AcDbText
 10
420.0
 20
297.0
 30
0.0
 40
2.5
  1
!GENTITLE-RU
100
AcDbText
  0
TEXT
  5
BF4A
330
1F
100
AcDbEntity
  8
AM_6
 60
     1
100
AcDbText
 10
420.0
 20
297.0
 30
0.0
 40
2.5
  1
!GENTITLE-MAX
100
AcDbText
  0
TEXT
  5
BF52
330
1F
100
AcDbEntity
  8
AM_6
 60
     1
100
AcDbText
 10
0.0
 20
0.0
 30
0.0
 40
2.5
  1
!GENTITLE-LL
100
AcDbText
  0
TEXT
  5
BF53
330
1F
100
AcDbEntity
  8
AM_6
 60
     1
100
AcDbText
 10
408.4999999999999
 20
288.5
 30
0.0
 40
2.5
  1
!GENTITLE-RU
100
AcDbText
  0
TEXT
  5
BF54
330
1F
100
AcDbEntity
  8
AM_6
 60
     1
100
AcDbText
 10
420.0
 20
297.0
 30
0.0
 40
2.5
  1
!GENTITLE-MAX
100
AcDbText
  0
TEXT
  5
BF55
330
1F
100
AcDbEntity
  8
AM_6
 60
     1
100
AcDbText
 10
408.4999999999999
 20
8.5
 30
0.0
 40
2.5
  1
!GENTITLE-INSERT
100
AcDbText
  0
LINE
  5
117AC
330
1F
100
AcDbEntity
  8
AM_7
100
AcDbLine
 10
302.5703698011187
 20
159.9622978224334
 30
0.0
 11
302.5703698011187
 21
60.96229782243347
 31
0.0
  0
LINE
  5
117AD
330
1F
100
AcDbEntity
  8
AM_7
100
AcDbLine
 10
287.4703708011186
 20
214.7122928224335
 30
0.0
 11
317.6703678011186
 21
214.7122928224335
 31
0.0
  0
LINE
  5
117AE
330
1F
100
AcDbEntity
  8
AM_0
100
AcDbLine
 10
262.5703848011186
 20
154.9622978224334
 30
0.0
 11
311.5703698011186
 21
154.9622978224334
 31
0.0
  0
LINE
  5
117AF
330
1F
100
AcDbEntity
  8
AM_0
100
AcDbLine
 10
262.5703698011187
 20
65.96229782243347
 30
0.0
 11
287.5703698011187
 21
65.96229782243347
 31
0.0
  0
LINE
  5
117B0
330
1F
100
AcDbEntity
  8
AM_0
100
AcDbLine
 10
262.5703848011186
 20
154.9622978224334
 30
0.0
 11
262.5703848011186
 21
65.96229782243347
 31
0.0
  0
LINE
  5
117B1
330
1F
100
AcDbEntity
  8
AM_0
100
AcDbLine
 10
342.5703678011187
 20
154.9622978224334
 30
0.0
 11
342.5703678011187
 21
65.96229782243347
 31
0.0
  0
LINE
  5
117B2
330
1F
100
AcDbEntity
  8
AM_2
100
AcDbLine
 10
289.2047732929266
 20
152.9622978224334
 30
0.0
 11
289.2047732929269
 21
111.2758855739393
 31
0.0
  0
LINE
  5
117B3
330
1F
100
AcDbEntity
  8
AM_0
100
AcDbLine
 10
317.5703878011186
 20
154.9622978224334
 30
0.0
 11
317.5703878011186
 21
117.4623378224335
 31
0.0
  0
LINE
  5
117B4
330
1F
100
AcDbEntity
  8
AM_0
100
AcDbLine
 10
290.7846638011185
 20
110.9622966024334
 30
0.0
 11
287.5703768011186
 21
103.4622939224334
 31
0.0
  0
LINE
  5
117B5
330
1F
100
AcDbEntity
  8
AM_0
100
AcDbLine
 10
293.5703698011187
 20
65.96229782243347
 30
0.0
 11
342.5703678011187
 21
65.96229782243347
 31
0.0
  0
LINE
  5
117B6
330
1F
100
AcDbEntity
  8
AM_0
100
AcDbLine
 10
317.5703678011187
 20
154.9622978224334
 30
0.0
 11
342.5703678011187
 21
154.9622978224334
 31
0.0
  0
LINE
  5
117B7
330
1F
100
AcDbEntity
  8
AM_0
100
AcDbLine
 10
311.5703698011186
 20
154.9622978224334
 30
0.0
 11
311.5703698011186
 21
120.4622998224334
 31
0.0
  0
LINE
  5
117B8
330
1F
100
AcDbEntity
  8
AM_0
100
AcDbLine
 10
293.5703698011187
 20
154.9622978224334
 30
0.0
 11
293.5703698011187
 21
120.4622998224334
 31
0.0
  0
LINE
  5
117B9
330
1F
100
AcDbEntity
  8
AM_0
100
AcDbLine
 10
295.0703698011187
 20
156.9622978224334
 30
0.0
 11
310.0703698011187
 21
156.9622978224334
 31
0.0
  0
LINE
  5
117BA
330
1F
100
AcDbEntity
  8
AM_0
100
AcDbLine
 10
311.0703698011187
 20
155.9622978224334
 30
0.0
 11
311.0703698011187
 21
154.9622978224334
 31
0.0
  0
LINE
  5
117BB
330
1F
100
AcDbEntity
  8
AM_0
100
AcDbLine
 10
294.0703698011187
 20
155.9622978224334
 30
0.0
 11
294.0703698011187
 21
154.9622978224334
 31
0.0
  0
LINE
  5
117BC
330
1F
100
AcDbEntity
  8
AM_0
100
AcDbLine
 10
294.0703698011187
 20
65.96229782243347
 30
0.0
 11
294.0703698011187
 21
64.96229782243347
 31
0.0
  0
LINE
  5
117BD
330
1F
100
AcDbEntity
  8
AM_0
100
AcDbLine
 10
311.0703698011187
 20
65.96229782243347
 30
0.0
 11
311.0703698011187
 21
64.96229782243347
 31
0.0
  0
LINE
  5
117BE
330
1F
100
AcDbEntity
  8
AM_0
100
AcDbLine
 10
295.0703698011187
 20
63.96229782243347
 30
0.0
 11
310.0703698011187
 21
63.96229782243347
 31
0.0
  0
LINE
  5
117BF
330
1F
100
AcDbEntity
  8
AM_0
100
AcDbLine
 10
317.5703778011186
 20
117.4623030224334
 30
0.0
 11
314.3560878011186
 21
109.9623003324335
 31
0.0
  0
LINE
  5
117C0
330
1F
100
AcDbEntity
  8
AM_0
100
AcDbLine
 10
290.5203668011186
 20
110.9622958924334
 30
0.0
 11
314.6203678011186
 21
110.9622958924334
 31
0.0
  0
LINE
  5
117C1
330
1F
100
AcDbEntity
  8
AM_0
100
AcDbLine
 10
290.5203668011186
 20
109.9622958724334
 30
0.0
 11
314.6203678011186
 21
109.9622958724334
 31
0.0
  0
LINE
  5
117C2
330
1F
100
AcDbEntity
  8
AM_0
100
AcDbLine
 10
290.5203668011186
 20
119.4622998224334
 30
0.0
 11
290.5203668011186
 21
110.9622958924334
 31
0.0
  0
LINE
  5
117C3
330
1F
100
AcDbEntity
  8
AM_0
100
AcDbLine
 10
314.6203678011187
 20
119.4622998224335
 30
0.0
 11
314.6203678011186
 21
110.9622958924334
 31
0.0
  0
ARC
  5
117C4
330
1F
100
AcDbEntity
  8
AM_0
100
AcDbCircle
 10
313.6203678011187
 20
119.4622998224335
 30
0.0
 40
1.0
100
AcDbArc
 50
0.0
 51
90.0
1001
GENIUS_GENOBJ-N-FIL_13
1002
{
1000
OWNER
1000
GEN
1002
}
1001
GENIUS_GENODEF_13
1002
{
1000
HIER
1070
     0
1002
}
1002
{
1000
MANEDIT
1070
     0
1002
}
1002
{
1000
NOSEL
1070
     0
1002
}
1002
{
1000
BEHIND
1070
     0
1002
}
1002
{
1000
OTHER
1070
     0
1002
}
1002
{
1000
REACTOR
1002
}
  0
LINE
  5
117C5
330
1F
100
AcDbEntity
  8
AM_0
100
AcDbLine
 10
291.5203668011186
 20
120.4622998224334
 30
0.0
 11
313.6203678011187
 21
120.4622998224335
 31
0.0
  0
ARC
  5
117C6
330
1F
100
AcDbEntity
  8
AM_0
100
AcDbCircle
 10
291.5203668011186
 20
119.4622998224334
 30
0.0
 40
1.0
100
AcDbArc
 50
90.0
 51
180.0
1001
GENIUS_GENOBJ-N-FIL_13
1002
{
1000
OWNER
1000
GEN
1002
}
1001
GENIUS_GENODEF_13
1002
{
1000
HIER
1070
     0
1002
}
1002
{
1000
MANEDIT
1070
     0
1002
}
1002
{
1000
NOSEL
1070
     0
1002
}
1002
{
1000
BEHIND
1070
     0
1002
}
1002
{
1000
OTHER
1070
     0
1002
}
1002
{
1000
REACTOR
1002
}
  0
LINE
  5
117C7
330
1F
100
AcDbEntity
  8
AM_0
100
AcDbLine
 10
291.5203668011186
 20
100.4622963224335
 30
0.0
 11
313.6203678011186
 21
100.4622963224335
 31
0.0
  0
ARC
  5
117C8
330
1F
100
AcDbEntity
  8
AM_0
100
AcDbCircle
 10
313.6203678011186
 20
101.4622963224335
 30
0.0
 40
1.0
100
AcDbArc
 50
270.0
 51
0.0
1001
GENIUS_GENOBJ-N-FIL_13
1002
{
1000
OWNER
1000
GEN
1002
}
1001
GENIUS_GENODEF_13
1002
{
1000
HIER
1070
     0
1002
}
1002
{
1000
MANEDIT
1070
     0
1002
}
1002
{
1000
NOSEL
1070
     0
1002
}
1002
{
1000
BEHIND
1070
     0
1002
}
1002
{
1000
OTHER
1070
     0
1002
}
1002
{
1000
REACTOR
1002
}
  0
LINE
  5
117C9
330
1F
100
AcDbEntity
  8
AM_0
100
AcDbLine
 10
290.5203668011186
 20
109.9622958724334
 30
0.0
 11
290.5203668011186
 21
101.4622963224334
 31
0.0
  0
ARC
  5
117CA
330
1F
100
AcDbEntity
  8
AM_0
100
AcDbCircle
 10
291.5203668011186
 20
101.4622963224334
 30
0.0
 40
1.0
100
AcDbArc
 50
180.0
 51
270.0
1001
GENIUS_GENOBJ-N-FIL_13
1002
{
1000
OWNER
1000
GEN
1002
}
1001
GENIUS_GENODEF_13
1002
{
1000
HIER
1070
     0
1002
}
1002
{
1000
MANEDIT
1070
     0
1002
}
1002
{
1000
NOSEL
1070
     0
1002
}
1002
{
1000
BEHIND
1070
     0
1002
}
1002
{
1000
OTHER
1070
     0
1002
}
1002
{
1000
REACTOR
1002
}
  0
LINE
  5
117CB
330
1F
100
AcDbEntity
  8
AM_0
100
AcDbLine
 10
314.6203678011186
 20
109.9622958724334
 30
0.0
 11
314.6203678011186
 21
101.4622963224335
 31
0.0
  0
LINE
  5
117CC
330
1F
100
AcDbEntity
  8
AM_0
100
AcDbLine
 10
293.5703698011187
 20
100.4622963224335
 30
0.0
 11
293.5703698011187
 21
65.96229782243347
 31
0.0
  0
LINE
  5
117CD
330
1F
100
AcDbEntity
  8
AM_0
100
AcDbLine
 10
311.5703698011186
 20
100.4622963224335
 30
0.0
 11
311.5703698011186
 21
65.96229782243347
 31
0.0
  0
LINE
  5
117CE
330
1F
100
AcDbEntity
  8
AM_0
100
AcDbLine
 10
291.8703728011186
 20
110.9622958924334
 30
0.0
 11
291.8703728011186
 21
109.9622958724334
 31
0.0
  0
LINE
  5
117CF
330
1F
100
AcDbEntity
  8
AM_0
100
AcDbLine
 10
313.2703668011186
 20
110.9622958924334
 30
0.0
 11
313.2703668011186
 21
109.9622958724334
 31
0.0
  0
LINE
  5
117D0
330
1F
100
AcDbEntity
  8
AM_0
100
AcDbLine
 10
295.100735825675
 20
117.4622996224335
 30
0.0
 11
297.6722287652289
 21
117.4622996224335
 31
0.0
  0
LINE
  5
117D1
330
1F
100
AcDbEntity
  8
AM_0
100
AcDbLine
 10
293.2848216954949
 20
103.4622958224334
 30
0.0
 11
295.4788728070356
 21
103.4622958224334
 31
0.0
  0
LINE
  5
117D2
330
1F
100
AcDbEntity
  8
AM_0
100
AcDbLine
 10
309.6618654942603
 20
117.4622996224335
 30
0.0
 11
311.8559249325767
 21
117.4622996224335
 31
0.0
  0
LINE
  5
117D3
330
1F
100
AcDbEntity
  8
AM_0
100
AcDbLine
 10
307.468509536067
 20
103.4622958224334
 30
0.0
 11
310.0400097000967
 21
103.4622958224334
 31
0.0
  0
LINE
  5
117D4
330
1F
100
AcDbEntity
  8
AM_0
100
AcDbLine
 10
297.6722287652289
 20
203.6480194722617
 30
0.0
 11
299.2856120174059
 21
206.3331352896696
 31
0.0
  0
LINE
  5
117D5
330
1F
100
AcDbEntity
  8
AM_0
100
AcDbLine
 10
295.100735825675
 20
205.1931395966967
 30
0.0
 11
296.7141118533764
 21
207.8782476162236
 31
0.0
  0
LINE
  5
117D6
330
1F
100
AcDbEntity
  8
AM_0
100
AcDbLine
 10
307.5254725619621
 20
207.1991795309009
 30
0.0
 11
309.6618654942603
 21
204.9081810717798
 31
0.0
  0
LINE
  5
117D7
330
1F
100
AcDbEntity
  8
AM_0
100
AcDbLine
 10
309.7195393230305
 20
209.2451731247248
 30
0.0
 11
311.8559252936753
 21
206.9541739339044
 31
0.0
  0
LINE
  5
117D8
330
1F
100
AcDbEntity
  8
AM_0
100
AcDbLine
 10
290.4726828870605
 20
214.9490371627452
 30
0.0
 11
293.5880674777869
 21
215.276477277712
 31
0.0
  0
LINE
  5
117D9
330
1F
100
AcDbEntity
  8
AM_0
100
AcDbLine
 10
290.7862682768635
 20
211.9654714766404
 30
0.0
 11
293.9016528675899
 21
212.2929115916071
 31
0.0
  0
LINE
  5
117DA
330
1F
100
AcDbEntity
  8
AM_0
100
AcDbLine
 10
311.5526641627971
 20
214.1481076354557
 30
0.0
 11
314.6680567096987
 21
214.4755485866502
 31
0.0
  0
LINE
  5
117DB
330
1F
100
AcDbEntity
  8
AM_0
100
AcDbLine
 10
311.2390787729941
 20
217.1316733215606
 30
0.0
 11
314.3544713198957
 21
217.4591142727551
 31
0.0
  0
LINE
  5
117DC
330
1F
100
AcDbEntity
  8
AM_0
100
AcDbLine
 10
262.5703698011187
 20
229.7122928224335
 30
0.0
 11
288.9903641907272
 21
229.7122928224335
 31
0.0
  0
LINE
  5
117DD
330
1F
100
AcDbEntity
  8
AM_0
100
AcDbLine
 10
262.5703698011187
 20
227.2122928224335
 30
0.0
 11
262.5703698011187
 21
229.7122928224335
 31
0.0
  0
LINE
  5
117DE
330
1F
100
AcDbEntity
  8
AM_0
100
AcDbLine
 10
342.5703678011187
 20
227.2122928224335
 30
0.0
 11
342.5703678011187
 21
229.7122928224335
 31
0.0
  0
LINE
  5
117DF
330
1F
100
AcDbEntity
  8
AM_0
100
AcDbLine
 10
262.5703698011187
 20
227.2122928224335
 30
0.0
 11
288.7716906959615
 21
227.2122928224336
 31
0.0
  0
LINE
  5
117E0
330
1F
100
AcDbEntity
  8
AM_0
100
AcDbLine
 10
316.3690489062121
 20
227.2122928224334
 30
0.0
 11
342.5703678011187
 21
227.2122928224335
 31
0.0
  0
LINE
  5
117E1
330
1F
100
AcDbEntity
  8
AM_0
100
AcDbLine
 10
316.15037541153
 20
229.7122928224335
 30
0.0
 11
342.5703678011187
 21
229.7122928224335
 31
0.0
  0
LINE
  5
117E6
330
1F
100
AcDbEntity
  8
AM_7
100
AcDbLine
 10
302.5703698011187
 20
199.6122958224334
 30
0.0
 11
302.5703698011187
 21
229.8122928224335
 31
0.0
  0
LINE
  5
117E7
330
1F
100
AcDbEntity
  8
AM_0
100
AcDbLine
 10
287.5703848011186
 20
103.4623263224334
 30
0.0
 11
287.5703848011186
 21
65.96229782243347
 31
0.0
  0
LINE
  5
117E9
330
1F
100
AcDbEntity
  8
AM_0
100
AcDbLine
 10
317.5703578011186
 20
227.2122928224335
 30
0.0
 11
317.5703578011186
 21
229.7122928224335
 31
0.0
  0
LINE
  5
117EA
330
1F
100
AcDbEntity
  8
AM_0
100
AcDbLine
 10
295.100735825675
 20
120.4622998224334
 30
0.0
 11
295.100735825675
 21
117.4622996224335
 31
0.0
  0
LINE
  5
117EB
330
1F
100
AcDbEntity
  8
AM_0
100
AcDbLine
 10
297.6722287652289
 20
120.4622998224334
 30
0.0
 11
297.6722287652289
 21
117.4622996224335
 31
0.0
  0
LINE
  5
117EC
330
1F
100
AcDbEntity
  8
AM_0
100
AcDbLine
 10
309.6618654942603
 20
120.4622998224334
 30
0.0
 11
309.6618654942603
 21
117.4622996224335
 31
0.0
  0
LINE
  5
117ED
330
1F
100
AcDbEntity
  8
AM_0
100
AcDbLine
 10
311.8559249325767
 20
120.4622998224334
 30
0.0
 11
311.8559249325767
 21
117.4622996224335
 31
0.0
  0
LINE
  5
117EE
330
1F
100
AcDbEntity
  8
AM_0
100
AcDbLine
 10
293.2848216954949
 20
103.4622958224334
 30
0.0
 11
293.2848216954949
 21
100.4622963224335
 31
0.0
  0
LINE
  5
117EF
330
1F
100
AcDbEntity
  8
AM_0
100
AcDbLine
 10
295.4788728070356
 20
103.4622958224334
 30
0.0
 11
295.4788728070356
 21
100.4622963224335
 31
0.0
  0
LINE
  5
117F0
330
1F
100
AcDbEntity
  8
AM_0
100
AcDbLine
 10
307.468509536067
 20
103.4622958224334
 30
0.0
 11
307.468509536067
 21
100.4622963224335
 31
0.0
  0
LINE
  5
117F1
330
1F
100
AcDbEntity
  8
AM_0
100
AcDbLine
 10
310.0400097000967
 20
103.4622958224334
 30
0.0
 11
310.0400097000967
 21
100.4622963224335
 31
0.0
  0
LINE
  5
117F2
330
1F
100
AcDbEntity
  8
AM_0
100
AcDbLine
 10
308.4266269579178
 20
221.5463360395995
 30
0.0
 11
310.0400104191519
 21
224.2314498679636
 31
0.0
  0
LINE
  5
117F3
330
1F
100
AcDbEntity
  8
AM_0
100
AcDbLine
 10
305.8551281019954
 20
223.0914454871163
 30
0.0
 11
307.468509523423
 21
225.7765691561711
 31
0.0
  0
ARC
  5
117F4
330
1F
100
AcDbEntity
  8
AM_0
100
AcDbCircle
 10
295.0703698011187
 20
155.9622978224334
 30
0.0
 40
1.0
100
AcDbArc
 50
90.0
 51
180.0
  0
ARC
  5
117F5
330
1F
100
AcDbEntity
  8
AM_0
100
AcDbCircle
 10
310.0703698011187
 20
155.9622978224334
 30
0.0
 40
1.0
100
AcDbArc
 50
0.0
 51
90.0
  0
ARC
  5
117F6
330
1F
100
AcDbEntity
  8
AM_0
100
AcDbCircle
 10
295.0703698011187
 20
64.96229782243347
 30
0.0
 40
1.0
100
AcDbArc
 50
180.0
 51
270.0
  0
ARC
  5
117F7
330
1F
100
AcDbEntity
  8
AM_0
100
AcDbCircle
 10
310.0703698011187
 20
64.96229782243347
 30
0.0
 40
1.0
100
AcDbArc
 50
270.0
 51
0.0
  0
CIRCLE
  5
117F8
330
1F
100
AcDbEntity
  8
AM_0
100
AcDbCircle
 10
270.5703848011186
 20
73.96229482243348
 30
0.0
 40
4.299999999999999
  0
CIRCLE
  5
117F9
330
1F
100
AcDbEntity
  8
AM_0
100
AcDbCircle
 10
270.5703848011186
 20
73.96229482243348
 30
0.0
 40
2.099999899999999
  0
CIRCLE
  5
117FA
330
1F
100
AcDbEntity
  8
AM_0
100
AcDbCircle
 10
279.5703848011186
 20
146.9622978224334
 30
0.0
 40
2.099999899999999
  0
CIRCLE
  5
117FB
330
1F
100
AcDbEntity
  8
AM_0
100
AcDbCircle
 10
334.5703678011187
 20
146.9622978224334
 30
0.0
 40
2.099999899999999
  0
CIRCLE
  5
117FC
330
1F
100
AcDbEntity
  8
AM_0
100
AcDbCircle
 10
325.5703878011186
 20
73.96229482243348
 30
0.0
 40
2.099999899999999
  0
CIRCLE
  5
117FD
330
1F
100
AcDbEntity
  8
AM_0
100
AcDbCircle
 10
325.5703878011186
 20
73.96229482243348
 30
0.0
 40
4.299999999999999
  0
CIRCLE
  5
117FE
330
1F
100
AcDbEntity
  8
AM_0
100
AcDbCircle
 10
334.5703678011187
 20
146.9622978224334
 30
0.0
 40
4.299999999999999
  0
CIRCLE
  5
117FF
330
1F
100
AcDbEntity
  8
AM_0
100
AcDbCircle
 10
279.5703848011186
 20
146.9622978224334
 30
0.0
 40
4.299999999999999
  0
CIRCLE
  5
11800
330
1F
100
AcDbEntity
  8
AM_0
100
AcDbCircle
 10
270.5703848011186
 20
122.9622998224334
 30
0.0
 40
4.299999999999999
  0
CIRCLE
  5
11801
330
1F
100
AcDbEntity
  8
AM_0
100
AcDbCircle
 10
270.5703848011186
 20
122.9622998224334
 30
0.0
 40
2.099999899999999
  0
CIRCLE
  5
11802
330
1F
100
AcDbEntity
  8
AM_0
100
AcDbCircle
 10
279.5703848011186
 20
97.96229582243348
 30
0.0
 40
2.099999899999999
  0
CIRCLE
  5
11803
330
1F
100
AcDbEntity
  8
AM_0
100
AcDbCircle
 10
279.5703848011186
 20
97.96229582243348
 30
0.0
 40
4.299999999999999
  0
CIRCLE
  5
11804
330
1F
100
AcDbEntity
  8
AM_0
100
AcDbCircle
 10
334.5703678011187
 20
97.96229582243348
 30
0.0
 40
4.299999999999999
  0
CIRCLE
  5
11805
330
1F
100
AcDbEntity
  8
AM_0
100
AcDbCircle
 10
334.5703678011187
 20
97.96229582243348
 30
0.0
 40
2.099999899999999
  0
CIRCLE
  5
11806
330
1F
100
AcDbEntity
  8
AM_0
100
AcDbCircle
 10
325.5703878011186
 20
122.9622998224334
 30
0.0
 40
2.099999899999999
  0
CIRCLE
  5
11807
330
1F
100
AcDbEntity
  8
AM_0
100
AcDbCircle
 10
325.5703878011186
 20
122.9622998224334
 30
0.0
 40
4.299999999999999
  0
ARC
  5
11808
330
1F
100
AcDbEntity
  8
AM_0
100
AcDbCircle
 10
302.5703697983796
 20
214.7122928746977
 30
0.0
 40
8.499999999999998
100
AcDbArc
 50
7.685413100000991
 51
5.999999999999918
  0
ARC
  5
11809
330
1F
100
AcDbEntity
  8
AM_0
100
AcDbCircle
 10
302.5703697983796
 20
214.7122928746977
 30
0.0
 40
8.999999999999998
100
AcDbArc
 50
140.9835498037834
 51
125.0164375126469
  0
LINE
  5
1180C
330
1F
100
AcDbEntity
  8
AM_7
 48
0.8
100
AcDbLine
 10
270.5703848011186
 20
81.26229482243349
 30
0.0
 11
270.5703848011186
 21
66.66229482243346
 31
0.0
  0
LINE
  5
1180D
330
1F
100
AcDbEntity
  8
AM_7
 48
0.8
100
AcDbLine
 10
277.8703848011187
 20
73.96229482243348
 30
0.0
 11
263.2703848011185
 21
73.96229482243348
 31
0.0
  0
LINE
  5
1180E
330
1F
100
AcDbEntity
  8
AM_7
 48
0.8
100
AcDbLine
 10
279.5703848011186
 20
105.2622958224335
 30
0.0
 11
279.5703848011186
 21
90.66229582243346
 31
0.0
  0
LINE
  5
1180F
330
1F
100
AcDbEntity
  8
AM_7
 48
0.8
100
AcDbLine
 10
286.8703848011187
 20
97.96229582243348
 30
0.0
 11
272.2703848011185
 21
97.96229582243348
 31
0.0
  0
LINE
  5
11810
330
1F
100
AcDbEntity
  8
AM_7
 48
0.8
100
AcDbLine
 10
270.5703848011186
 20
130.2622998224334
 30
0.0
 11
270.5703848011186
 21
115.6622998224334
 31
0.0
  0
LINE
  5
11811
330
1F
100
AcDbEntity
  8
AM_7
 48
0.8
100
AcDbLine
 10
277.8703848011187
 20
122.9622998224334
 30
0.0
 11
263.2703848011185
 21
122.9622998224334
 31
0.0
  0
LINE
  5
11812
330
1F
100
AcDbEntity
  8
AM_7
 48
0.8
100
AcDbLine
 10
279.5703848011186
 20
154.2622978224335
 30
0.0
 11
279.5703848011186
 21
139.6622978224334
 31
0.0
  0
LINE
  5
11813
330
1F
100
AcDbEntity
  8
AM_7
 48
0.8
100
AcDbLine
 10
286.8703848011187
 20
146.9622978224334
 30
0.0
 11
272.2703848011185
 21
146.9622978224334
 31
0.0
  0
LINE
  5
11814
330
1F
100
AcDbEntity
  8
AM_7
 48
0.8
100
AcDbLine
 10
334.5703678011187
 20
154.2622978224335
 30
0.0
 11
334.5703678011187
 21
139.6622978224334
 31
0.0
  0
LINE
  5
11815
330
1F
100
AcDbEntity
  8
AM_7
 48
0.8
100
AcDbLine
 10
341.8703678011186
 20
146.9622978224334
 30
0.0
 11
327.2703678011187
 21
146.9622978224334
 31
0.0
  0
LINE
  5
11816
330
1F
100
AcDbEntity
  8
AM_7
 48
0.8
100
AcDbLine
 10
325.5703878011186
 20
130.2622998224334
 30
0.0
 11
325.5703878011186
 21
115.6622998224334
 31
0.0
  0
LINE
  5
11817
330
1F
100
AcDbEntity
  8
AM_7
 48
0.8
100
AcDbLine
 10
332.8703878011186
 20
122.9622998224334
 30
0.0
 11
318.2703878011186
 21
122.9622998224334
 31
0.0
  0
LINE
  5
11818
330
1F
100
AcDbEntity
  8
AM_7
 48
0.8
100
AcDbLine
 10
334.5703678011187
 20
105.2622958224335
 30
0.0
 11
334.5703678011187
 21
90.66229582243346
 31
0.0
  0
LINE
  5
11819
330
1F
100
AcDbEntity
  8
AM_7
 48
0.8
100
AcDbLine
 10
341.8703678011186
 20
97.96229582243348
 30
0.0
 11
327.2703678011187
 21
97.96229582243348
 31
0.0
  0
LINE
  5
1181A
330
1F
100
AcDbEntity
  8
AM_7
 48
0.8
100
AcDbLine
 10
325.5703878011186
 20
81.26229482243349
 30
0.0
 11
325.5703878011186
 21
66.66229482243346
 31
0.0
  0
LINE
  5
1181B
330
1F
100
AcDbEntity
  8
AM_7
 48
0.8
100
AcDbLine
 10
332.8703878011186
 20
73.96229482243348
 30
0.0
 11
318.2703878011186
 21
73.96229482243348
 31
0.0
  0
LINE
  5
1181C
330
1F
100
AcDbEntity
  8
size
100
AcDbLine
 10
0.0
 20
0.0
 30
0.0
 11
420.0
 21
0.0
 31
0.0
1001
GENIUS_GENREC_14
1002
{
1000
PYDIR
1011
0.0
1021
297.0
1031
0.0
1002
}
1002
{
1000
PXDIR
1011
420.0
1021
0.0
1031
0.0
1002
}
1002
{
1000
PORI
1011
0.0
1021
0.0
1031
0.0
1002
}
1002
{
1000
PINS
1011
210.0
1021
148.4999999999999
1031
0.0
1002
}
1002
{
1000
HVAL
1000
297
1002
}
1002
{
1000
H
1070
     2
1002
}
1002
{
1000
WVAL
1000
420
1002
}
1002
{
1000
W
1070
     2
1002
}
1002
{
1000
C
1070
     4
1002
}
1001
GENIUS_GENOBJ-N-REC_13
1002
{
1000
OWNER
1000
GEN
1002
}
1001
GENIUS_GENODEF_13
1002
{
1000
HIER
1070
     0
1002
}
1002
{
1000
MANEDIT
1070
     0
1002
}
1002
{
1000
NOSEL
1070
     0
1002
}
1002
{
1000
BEHIND
1070
     0
1002
}
1002
{
1000
OTHER
1070
     0
1002
}
1002
{
1000
REACTOR
1002
}
  0
LINE
  5
1181D
330
1F
100
AcDbEntity
  8
size
100
AcDbLine
 10
420.0
 20
0.0
 30
0.0
 11
420.0
 21
297.0
 31
0.0
1001
GENIUS_GENREC_14
1002
{
1000
PYDIR
1011
0.0
1021
297.0
1031
0.0
1002
}
1002
{
1000
PXDIR
1011
420.0
1021
0.0
1031
0.0
1002
}
1002
{
1000
PORI
1011
0.0
1021
0.0
1031
0.0
1002
}
1002
{
1000
PINS
1011
210.0
1021
148.4999999999999
1031
0.0
1002
}
1002
{
1000
HVAL
1000
297
1002
}
1002
{
1000
H
1070
     2
1002
}
1002
{
1000
WVAL
1000
420
1002
}
1002
{
1000
W
1070
     2
1002
}
1002
{
1000
C
1070
     4
1002
}
1001
GENIUS_GENOBJ-N-REC_13
1002
{
1000
OWNER
1000
GEN
1002
}
1001
GENIUS_GENODEF_13
1002
{
1000
HIER
1070
     0
1002
}
1002
{
1000
MANEDIT
1070
     0
1002
}
1002
{
1000
NOSEL
1070
     0
1002
}
1002
{
1000
BEHIND
1070
     0
1002
}
1002
{
1000
OTHER
1070
     0
1002
}
1002
{
1000
REACTOR
1002
}
  0
LINE
  5
1181E
330
1F
100
AcDbEntity
  8
size
100
AcDbLine
 10
420.0
 20
297.0
 30
0.0
 11
0.0
 21
297.0
 31
0.0
1001
GENIUS_GENREC_14
1002
{
1000
PYDIR
1011
0.0
1021
297.0
1031
0.0
1002
}
1002
{
1000
PXDIR
1011
420.0
1021
0.0
1031
0.0
1002
}
1002
{
1000
PORI
1011
0.0
1021
0.0
1031
0.0
1002
}
1002
{
1000
PINS
1011
210.0
1021
148.4999999999999
1031
0.0
1002
}
1002
{
1000
HVAL
1000
297
1002
}
1002
{
1000
H
1070
     2
1002
}
1002
{
1000
WVAL
1000
420
1002
}
1002
{
1000
W
1070
     2
1002
}
1002
{
1000
C
1070
     4
1002
}
1001
GENIUS_GENOBJ-N-REC_13
1002
{
1000
OWNER
1000
GEN
1002
}
1001
GENIUS_GENODEF_13
1002
{
1000
HIER
1070
     0
1002
}
1002
{
1000
MANEDIT
1070
     0
1002
}
1002
{
1000
NOSEL
1070
     0
1002
}
1002
{
1000
BEHIND
1070
     0
1002
}
1002
{
1000
OTHER
1070
     0
1002
}
1002
{
1000
REACTOR
1002
}
  0
LINE
  5
1181F
330
1F
100
AcDbEntity
  8
size
100
AcDbLine
 10
0.0
 20
297.0
 30
0.0
 11
0.0
 21
0.0
 31
0.0
1001
GENIUS_GENREC_14
1002
{
1000
PYDIR
1011
0.0
1021
297.0
1031
0.0
1002
}
1002
{
1000
PXDIR
1011
420.0
1021
0.0
1031
0.0
1002
}
1002
{
1000
PORI
1011
0.0
1021
0.0
1031
0.0
1002
}
1002
{
1000
PINS
1011
210.0
1021
148.4999999999999
1031
0.0
1002
}
1002
{
1000
HVAL
1000
297
1002
}
1002
{
1000
H
1070
     2
1002
}
1002
{
1000
WVAL
1000
420
1002
}
1002
{
1000
W
1070
     2
1002
}
1002
{
1000
C
1070
     4
1002
}
1001
GENIUS_GENOBJ-N-REC_13
1002
{
1000
OWNER
1000
GEN
1002
}
1001
GENIUS_GENODEF_13
1002
{
1000
HIER
1070
     0
1002
}
1002
{
1000
MANEDIT
1070
     0
1002
}
1002
{
1000
NOSEL
1070
     0
1002
}
1002
{
1000
BEHIND
1070
     0
1002
}
1002
{
1000
OTHER
1070
     0
1002
}
1002
{
1000
REACTOR
1002
}
  0
LINE
  5
11820
330
1F
100
AcDbEntity
  8
waku
100
AcDbLine
 10
408.4999999999999
 20
8.5
 30
0.0
 11
408.4999999999999
 21
288.5
 31
0.0
1001
GENIUS_GENREC_14
1002
{
1000
PYDIR
1011
0.0
1021
297.0
1031
0.0
1002
}
1002
{
1000
PXDIR
1011
420.0
1021
0.0
1031
0.0
1002
}
1002
{
1000
PORI
1011
0.0
1021
0.0
1031
0.0
1002
}
1002
{
1000
PINS
1011
210.0
1021
148.4999999999999
1031
0.0
1002
}
1002
{
1000
HVAL
1000
297
1002
}
1002
{
1000
H
1070
     2
1002
}
1002
{
1000
WVAL
1000
420
1002
}
1002
{
1000
W
1070
     2
1002
}
1002
{
1000
C
1070
     4
1002
}
1001
GENIUS_GENOBJ-N-REC_13
1002
{
1000
OWNER
1000
GEN
1002
}
1001
GENIUS_GENODEF_13
1002
{
1000
HIER
1070
     0
1002
}
1002
{
1000
MANEDIT
1070
     0
1002
}
1002
{
1000
NOSEL
1070
     0
1002
}
1002
{
1000
BEHIND
1070
     0
1002
}
1002
{
1000
OTHER
1070
     0
1002
}
1002
{
1000
REACTOR
1002
}
  0
LINE
  5
11821
330
1F
100
AcDbEntity
  8
waku
100
AcDbLine
 10
11.5
 20
288.5
 30
0.0
 11
11.5
 21
8.5
 31
0.0
1001
GENIUS_GENREC_14
1002
{
1000
PYDIR
1011
0.0
1021
297.0
1031
0.0
1002
}
1002
{
1000
PXDIR
1011
420.0
1021
0.0
1031
0.0
1002
}
1002
{
1000
PORI
1011
0.0
1021
0.0
1031
0.0
1002
}
1002
{
1000
PINS
1011
210.0
1021
148.4999999999999
1031
0.0
1002
}
1002
{
1000
HVAL
1000
297
1002
}
1002
{
1000
H
1070
     2
1002
}
1002
{
1000
WVAL
1000
420
1002
}
1002
{
1000
W
1070
     2
1002
}
1002
{
1000
C
1070
     4
1002
}
1001
GENIUS_GENOBJ-N-REC_13
1002
{
1000
OWNER
1000
GEN
1002
}
1001
GENIUS_GENODEF_13
1002
{
1000
HIER
1070
     0
1002
}
1002
{
1000
MANEDIT
1070
     0
1002
}
1002
{
1000
NOSEL
1070
     0
1002
}
1002
{
1000
BEHIND
1070
     0
1002
}
1002
{
1000
OTHER
1070
     0
1002
}
1002
{
1000
REACTOR
1002
}
  0
LINE
  5
11822
330
1F
100
AcDbEntity
  8
waku
100
AcDbLine
 10
408.4999999999999
 20
288.5
 30
0.0
 11
11.5
 21
288.5
 31
0.0
1001
GENIUS_GENREC_14
1002
{
1000
PYDIR
1011
0.0
1021
297.0
1031
0.0
1002
}
1002
{
1000
PXDIR
1011
420.0
1021
0.0
1031
0.0
1002
}
1002
{
1000
PORI
1011
0.0
1021
0.0
1031
0.0
1002
}
1002
{
1000
PINS
1011
210.0
1021
148.4999999999999
1031
0.0
1002
}
1002
{
1000
HVAL
1000
297
1002
}
1002
{
1000
H
1070
     2
1002
}
1002
{
1000
WVAL
1000
420
1002
}
1002
{
1000
W
1070
     2
1002
}
1002
{
1000
C
1070
     4
1002
}
1001
GENIUS_GENOBJ-N-REC_13
1002
{
1000
OWNER
1000
GEN
1002
}
1001
GENIUS_GENODEF_13
1002
{
1000
HIER
1070
     0
1002
}
1002
{
1000
MANEDIT
1070
     0
1002
}
1002
{
1000
NOSEL
1070
     0
1002
}
1002
{
1000
BEHIND
1070
     0
1002
}
1002
{
1000
OTHER
1070
     0
1002
}
1002
{
1000
REACTOR
1002
}
  0
LINE
  5
11823
330
1F
100
AcDbEntity
  8
waku
100
AcDbLine
 10
11.5
 20
8.5
 30
0.0
 11
408.4999999999999
 21
8.5
 31
0.0
  0
LINE
  5
11824
330
1F
100
AcDbEntity
  8
AM_2
100
AcDbLine
 10
31.5
 20
288.5
 30
0.0
 11
31.5
 21
216.5
 31
0.0
  0
LINE
  5
11825
330
1F
100
AcDbEntity
  8
AM_2
100
AcDbLine
 10
11.5
 20
280.5
 30
0.0
 11
121.5
 21
280.5
 31
0.0
  0
LINE
  5
11826
330
1F
100
AcDbEntity
  8
AM_2
100
AcDbLine
 10
11.5
 20
272.5
 30
0.0
 11
121.5
 21
272.5
 31
0.0
  0
LINE
  5
11827
330
1F
100
AcDbEntity
  8
AM_2
100
AcDbLine
 10
11.5
 20
264.5
 30
0.0
 11
121.5
 21
264.5
 31
0.0
  0
LINE
  5
11828
330
1F
100
AcDbEntity
  8
AM_2
100
AcDbLine
 10
11.5
 20
256.5
 30
0.0
 11
121.5
 21
256.5
 31
0.0
  0
LINE
  5
11829
330
1F
100
AcDbEntity
  8
AM_2
100
AcDbLine
 10
11.5
 20
248.5
 30
0.0
 11
121.5
 21
248.5
 31
0.0
  0
LINE
  5
1182A
330
1F
100
AcDbEntity
  8
AM_2
100
AcDbLine
 10
31.5
 20
240.5
 30
0.0
 11
121.5
 21
240.5
 31
0.0
  0
LINE
  5
1182B
330
1F
100
AcDbEntity
  8
AM_2
100
AcDbLine
 10
31.5
 20
232.5
 30
0.0
 11
121.5
 21
232.5
 31
0.0
  0
LINE
  5
1182C
330
1F
100
AcDbEntity
  8
AM_2
100
AcDbLine
 10
31.5
 20
224.5
 30
0.0
 11
121.5
 21
224.5
 31
0.0
  0
LINE
  5
1182D
330
1F
100
AcDbEntity
  8
AM_0
100
AcDbLine
 10
11.5
 20
288.5
 30
0.0
 11
11.5
 21
216.5
 31
0.0
  0
LINE
  5
1182E
330
1F
100
AcDbEntity
  8
AM_0
100
AcDbLine
 10
11.5
 20
288.5
 30
0.0
 11
121.5
 21
288.5
 31
0.0
  0
LINE
  5
1182F
330
1F
100
AcDbEntity
  8
AM_0
100
AcDbLine
 10
121.5
 20
288.5
 30
0.0
 11
121.5
 21
216.5
 31
0.0
  0
LINE
  5
11830
330
1F
100
AcDbEntity
  8
AM_0
100
AcDbLine
 10
11.5
 20
216.5
 30
0.0
 11
121.5
 21
216.5
 31
0.0
  0
CIRCLE
  5
11831
330
1F
100
AcDbEntity
  8
AM_2
100
AcDbCircle
 10
70.10487280243649
 20
252.283887923598
 30
0.0
 40
2.0
  0
TEXT
  5
11832
330
1F
100
AcDbEntity
  8
AM_6
100
AcDbText
 10
17.72849994897853
 20
282.9
 30
0.0
 40
3.2
  1
品　名
 41
0.7
100
AcDbText
  0
TEXT
  5
11833
330
1F
100
AcDbEntity
  8
AM_6
100
AcDbText
 10
17.72849994897853
 20
274.9
 30
0.0
 40
3.2
  1
品　番
 41
0.7
100
AcDbText
  0
TEXT
  5
11834
330
1F
100
AcDbEntity
  8
AM_6
100
AcDbText
 10
34.7293046933687
 20
282.9
 30
0.0
 40
3.2
  1
丁番吊グレビティヒンジ
 41
0.7
100
AcDbText
  0
TEXT
  5
11835
330
1F
100
AcDbEntity
  8
AM_6
100
AcDbText
 10
17.72849994897853
 20
266.9
 30
0.0
 40
3.2
  1
材　質
 41
0.7
100
AcDbText
  0
TEXT
  5
11836
330
1F
100
AcDbEntity
  8
AM_6
100
AcDbText
 10
17.72849994897853
 20
258.9
 30
0.0
 40
3.2
  1
仕上げ
 41
0.7
100
AcDbText
  0
TEXT
  5
11837
330
1F
100
AcDbEntity
  8
AM_6
100
AcDbText
 10
14.52849990129482
 20
250.9
 30
0.0
 40
3.2
  1
セットビス
 41
0.7
100
AcDbText
  0
TEXT
  5
11838
330
1F
100
AcDbEntity
  8
AM_6
100
AcDbText
 10
34.92849999666214
 20
250.9
 30
0.0
 40
3.2
  1
呼び3.8×25サラ木ネジ　+　SUS：16本
 41
0.7
100
AcDbText
  0
TEXT
  5
11839
330
1F
100
AcDbEntity
  8
AM_6
100
AcDbText
 10
34.92849999666214
 20
258.9
 30
0.0
 40
3.2
  1
ヘアーライン
 41
0.7
100
AcDbText
  0
TEXT
  5
1183A
330
1F
100
AcDbEntity
  8
AM_6
100
AcDbText
 10
19.32849997282039
 20
242.9
 30
0.0
 40
3.2
  1
備考
 41
0.7
100
AcDbText
  0
TEXT
  5
1183B
330
1F
100
AcDbEntity
  8
AM_6
100
AcDbText
 10
34.92849999666214
 20
266.9
 30
0.0
 40
3.2
  1
ステンレス
 41
0.7
100
AcDbText
  0
TEXT
  5
1183C
330
1F
100
AcDbEntity
  8
AM_6
100
AcDbText
 10
34.92849999666214
 20
274.9
 30
0.0
 40
3.2
  1
LH-71
 41
0.7
100
AcDbText
  0
TEXT
  5
1183D
330
1F
100
AcDbEntity
  8
AM_6
100
AcDbText
 10
34.18339725200065
 20
242.9
 30
0.0
 40
3.2
  1
ドア閉止位置は閉止、開放45°、90°の組替ができます。
 41
0.7
100
AcDbText
  0
TEXT
  5
1183E
330
1F
100
AcDbEntity
  8
AM_6
100
AcDbText
 10
34.20292176667579
 20
234.9
 30
0.0
 40
3.2
  1
ドアは静止位置より90°回転で約4.5mmせり上がります。
 41
0.7
100
AcDbText
  0
TEXT
  5
1183F
330
1F
100
AcDbEntity
  8
AM_6
100
AcDbText
 10
34.92849999666214
 20
226.9
 30
0.0
 40
3.2
  1
適用扉重量：20kg
 41
0.7
100
AcDbText
  0
TEXT
  5
11840
330
1F
100
AcDbEntity
  8
AM_6
100
AcDbText
 10
34.92849999666214
 20
218.9
 30
0.0
 40
3.2
  1
図は左勝手です。
 41
0.7
100
AcDbText
  0
LINE
  5
11845
330
1F
100
AcDbEntity
  8
AM_11
100
AcDbLine
 10
172.7419713720437
 20
83.91920177848009
 30
0.0
 11
147.2861293720436
 21
109.3750427784801
 31
0.0
  0
LINE
  5
11846
330
1F
100
AcDbEntity
  8
AM_11
100
AcDbLine
 10
147.2861293720436
 20
109.3750427784801
 30
0.0
 11
150.1145523720437
 21
112.2034687784801
 31
0.0
  0
LINE
  5
11847
330
1F
100
AcDbEntity
  8
AM_11
100
AcDbLine
 10
175.5703973720436
 20
86.74762777848009
 30
0.0
 11
150.1145523720437
 21
112.2034687784801
 31
0.0
  0
LINE
  5
11848
330
1F
100
AcDbEntity
  8
AM_2
100
AcDbLine
 10
176.5432023720436
 20
86.0961537784801
 30
0.0
 11
176.5432023720436
 21
82.0961497784801
 31
0.0
  0
LINE
  5
11849
330
1F
100
AcDbEntity
  8
AM_11
100
AcDbLine
 10
172.7419713720437
 20
83.91920177848009
 30
0.0
 11
175.5703973720436
 21
86.74762777848009
 31
0.0
  0
LINE
  5
1184A
330
1F
100
AcDbEntity
  8
AM_2
100
AcDbLine
 10
177.1431933720437
 20
82.0961497784801
 30
0.0
 11
177.1431933720437
 21
86.0961537784801
 31
0.0
  0
LINE
  5
1184B
330
1F
100
AcDbEntity
  8
AM_2
100
AcDbLine
 10
139.5432023720436
 20
86.0961537784801
 30
0.0
 11
127.5431873720437
 21
86.0961537784801
 31
0.0
  0
LINE
  5
1184C
330
1F
100
AcDbEntity
  8
AM_2
100
AcDbLine
 10
176.5432023720436
 20
86.0961537784801
 30
0.0
 11
140.5432023720436
 21
86.0961537784801
 31
0.0
  0
LINE
  5
1184D
330
1F
100
AcDbEntity
  8
AM_2
100
AcDbLine
 10
139.5432023720436
 20
82.0961497784801
 30
0.0
 11
127.5431873720437
 21
82.0961497784801
 31
0.0
  0
LINE
  5
1184E
330
1F
100
AcDbEntity
  8
AM_2
100
AcDbLine
 10
176.5432023720436
 20
82.0961497784801
 30
0.0
 11
140.5432023720436
 21
82.0961497784801
 31
0.0
  0
LINE
  5
1184F
330
1F
100
AcDbEntity
  8
AM_2
100
AcDbLine
 10
189.1431853720437
 20
86.0961537784801
 30
0.0
 11
177.1431933720437
 21
86.0961537784801
 31
0.0
  0
LINE
  5
11850
330
1F
100
AcDbEntity
  8
AM_2
100
AcDbLine
 10
139.5432023720436
 20
82.0961497784801
 30
0.0
 11
139.5432023720436
 21
86.0961537784801
 31
0.0
  0
LINE
  5
11851
330
1F
100
AcDbEntity
  8
AM_2
100
AcDbLine
 10
140.5432023720436
 20
82.0961497784801
 30
0.0
 11
140.5432023720436
 21
86.0961537784801
 31
0.0
  0
LINE
  5
11852
330
1F
100
AcDbEntity
  8
AM_2
100
AcDbLine
 10
189.1431853720437
 20
82.0961497784801
 30
0.0
 11
177.1431933720437
 21
82.0961497784801
 31
0.0
  0
LINE
  5
11853
330
1F
100
AcDbEntity
  8
AM_0
100
AcDbLine
 10
180.8431903720436
 20
86.0961537784801
 30
0.0
 11
178.1765943720436
 21
86.0961537784801
 31
0.0
  0
LINE
  5
11854
330
1F
100
AcDbEntity
  8
AM_0
100
AcDbLine
 10
175.9396563720437
 20
86.79134477848009
 30
0.0
 11
175.3431903720436
 21
86.34614677848009
 31
0.0
  0
LINE
  5
11855
330
1F
100
AcDbEntity
  8
AM_0
100
AcDbLine
 10
177.4566883720437
 20
87.00782877848011
 30
0.0
 11
178.3431943720436
 21
86.34614977848007
 31
0.0
  0
LINE
  5
11856
330
1F
100
AcDbEntity
  8
AM_0
100
AcDbLine
 10
172.8431903720436
 20
86.3461537784801
 30
0.0
 11
172.8431903720436
 21
86.0961537784801
 31
0.0
  0
LINE
  5
11857
330
1F
100
AcDbEntity
  8
AM_0
100
AcDbLine
 10
180.8431903720436
 20
86.3461537784801
 30
0.0
 11
178.3431903720436
 21
86.3461537784801
 31
0.0
  0
LINE
  5
11858
330
1F
100
AcDbEntity
  8
AM_0
100
AcDbLine
 10
175.5098003720436
 20
86.0961537784801
 30
0.0
 11
172.8431903720436
 21
86.0961537784801
 31
0.0
  0
LINE
  5
11859
330
1F
100
AcDbEntity
  8
AM_0
100
AcDbLine
 10
180.8431903720436
 20
86.3461537784801
 30
0.0
 11
180.8431903720436
 21
86.0961537784801
 31
0.0
  0
LINE
  5
1185A
330
1F
100
AcDbEntity
  8
AM_0
100
AcDbLine
 10
175.3431903720436
 20
86.3461537784801
 30
0.0
 11
172.8431903720436
 21
86.3461537784801
 31
0.0
  0
LINE
  5
1185B
330
1F
100
AcDbEntity
  8
AM_0
100
AcDbLine
 10
177.2003333720437
 20
86.82481477848009
 30
0.0
 11
178.1765903720436
 21
86.09614977848009
 31
0.0
  0
LINE
  5
1185C
330
1F
100
AcDbEntity
  8
AM_0
100
AcDbLine
 10
176.1712613720436
 20
86.58986777848008
 30
0.0
 11
175.5097893720436
 21
86.09614977848009
 31
0.0
  0
LINE
  5
1185D
330
1F
100
AcDbEntity
  8
AM_0
100
AcDbLine
 10
175.6565213720437
 20
87.35972277848009
 30
0.0
 11
174.8396803720436
 21
87.47834477848007
 31
0.0
  0
LINE
  5
1185E
330
1F
100
AcDbEntity
  8
AM_0
100
AcDbLine
 10
174.8986483720436
 20
87.77293077848009
 30
0.0
 11
173.1308833720436
 21
89.54069577848008
 31
0.0
  0
LINE
  5
1185F
330
1F
100
AcDbEntity
  8
AM_0
100
AcDbLine
 10
174.8396803720436
 20
87.4783487784801
 30
0.0
 11
172.9541063720437
 21
89.36391877848008
 31
0.0
  0
LINE
  5
11860
330
1F
100
AcDbEntity
  8
AM_0
100
AcDbLine
 10
173.1308833720436
 20
89.54069577848008
 30
0.0
 11
172.9541063720437
 21
89.36391877848008
 31
0.0
  0
LINE
  5
11861
330
1F
100
AcDbEntity
  8
AM_0
100
AcDbLine
 10
175.6352053720436
 20
87.66596677848008
 30
0.0
 11
174.8986523720436
 21
87.77293077848009
 31
0.0
  0
LINE
  5
11862
330
1F
100
AcDbEntity
  8
AM_0
100
AcDbLine
 10
50.91514237204364
 20
86.58986377848009
 30
0.0
 11
51.57661237204365
 21
86.0961537784801
 31
0.0
  0
LINE
  5
11863
330
1F
100
AcDbEntity
  8
AM_0
100
AcDbLine
 10
49.88607237204371
 20
86.82481877848008
 30
0.0
 11
48.90980237204371
 21
86.09614677848009
 31
0.0
  0
LINE
  5
11864
330
1F
100
AcDbEntity
  8
AM_0
100
AcDbLine
 10
51.74320237204369
 20
86.3461537784801
 30
0.0
 11
54.24320237204369
 21
86.3461537784801
 31
0.0
  0
LINE
  5
11865
330
1F
100
AcDbEntity
  8
AM_0
100
AcDbLine
 10
46.24320237204369
 20
86.3461537784801
 30
0.0
 11
46.24320237204369
 21
86.0961537784801
 31
0.0
  0
LINE
  5
11866
330
1F
100
AcDbEntity
  8
AM_0
100
AcDbLine
 10
51.57661237204365
 20
86.0961537784801
 30
0.0
 11
54.24320237204369
 21
86.0961537784801
 31
0.0
  0
LINE
  5
11867
330
1F
100
AcDbEntity
  8
AM_0
100
AcDbLine
 10
46.24320237204369
 20
86.3461537784801
 30
0.0
 11
48.74320237204369
 21
86.3461537784801
 31
0.0
  0
LINE
  5
11868
330
1F
100
AcDbEntity
  8
AM_0
100
AcDbLine
 10
54.24320237204369
 20
86.3461537784801
 30
0.0
 11
54.24320237204369
 21
86.0961537784801
 31
0.0
  0
LINE
  5
11869
330
1F
100
AcDbEntity
  8
AM_11
100
AcDbLine
 10
54.34443237204368
 20
83.9191937784801
 30
0.0
 11
79.80027237204365
 21
109.3750427784801
 31
0.0
  0
LINE
  5
1186A
330
1F
100
AcDbEntity
  8
AM_0
100
AcDbLine
 10
51.42988237204372
 20
87.35972277848009
 30
0.0
 11
52.24673237204365
 21
87.47834477848007
 31
0.0
  0
LINE
  5
1186B
330
1F
100
AcDbEntity
  8
AM_0
100
AcDbLine
 10
51.45120237204366
 20
87.66596677848008
 30
0.0
 11
52.18775237204363
 21
87.77292677848009
 31
0.0
  0
LINE
  5
1186C
330
1F
100
AcDbEntity
  8
AM_0
100
AcDbLine
 10
52.18775237204363
 20
87.77292677848009
 30
0.0
 11
53.95552237204367
 21
89.54069577848008
 31
0.0
  0
LINE
  5
1186D
330
1F
100
AcDbEntity
  8
AM_0
100
AcDbLine
 10
46.24320237204369
 20
86.0961537784801
 30
0.0
 11
48.90982237204366
 21
86.0961537784801
 31
0.0
  0
LINE
  5
1186E
330
1F
100
AcDbEntity
  8
AM_11
100
AcDbLine
 10
79.80027237204365
 20
109.3750427784801
 30
0.0
 11
76.97184237204374
 21
112.2034687784801
 31
0.0
  0
LINE
  5
1186F
330
1F
100
AcDbEntity
  8
AM_11
100
AcDbLine
 10
51.51600237204366
 20
86.7476237784801
 30
0.0
 11
76.97184237204374
 21
112.2034687784801
 31
0.0
  0
LINE
  5
11870
330
1F
100
AcDbEntity
  8
AM_0
100
AcDbLine
 10
49.62971237204374
 20
87.00782077848009
 30
0.0
 11
48.74320237204369
 21
86.34614277848008
 31
0.0
  0
LINE
  5
11871
330
1F
100
AcDbEntity
  8
AM_2
100
AcDbLine
 10
50.54321237204362
 20
86.0961537784801
 30
0.0
 11
50.54321237204362
 21
82.0961497784801
 31
0.0
  0
LINE
  5
11872
330
1F
100
AcDbEntity
  8
AM_11
100
AcDbLine
 10
54.34443237204368
 20
83.9191937784801
 30
0.0
 11
51.51600237204366
 21
86.7476237784801
 31
0.0
  0
LINE
  5
11873
330
1F
100
AcDbEntity
  8
AM_2
100
AcDbLine
 10
49.94322237204369
 20
82.0961497784801
 30
0.0
 11
49.94322237204369
 21
86.0961537784801
 31
0.0
  0
LINE
  5
11874
330
1F
100
AcDbEntity
  8
AM_2
100
AcDbLine
 10
87.54321237204363
 20
86.0961537784801
 30
0.0
 11
99.54322237204372
 21
86.0961537784801
 31
0.0
  0
LINE
  5
11875
330
1F
100
AcDbEntity
  8
AM_2
100
AcDbLine
 10
50.54321237204362
 20
86.0961537784801
 30
0.0
 11
86.54321237204362
 21
86.0961537784801
 31
0.0
  0
LINE
  5
11876
330
1F
100
AcDbEntity
  8
AM_2
100
AcDbLine
 10
87.54321237204363
 20
82.0961497784801
 30
0.0
 11
99.54322237204372
 21
82.0961497784801
 31
0.0
  0
LINE
  5
11877
330
1F
100
AcDbEntity
  8
AM_2
100
AcDbLine
 10
50.54321237204362
 20
82.0961497784801
 30
0.0
 11
86.54321237204362
 21
82.0961497784801
 31
0.0
  0
LINE
  5
11878
330
1F
100
AcDbEntity
  8
AM_2
100
AcDbLine
 10
37.94322237204369
 20
86.0961537784801
 30
0.0
 11
49.94322237204369
 21
86.0961537784801
 31
0.0
  0
LINE
  5
11879
330
1F
100
AcDbEntity
  8
AM_2
100
AcDbLine
 10
87.54321237204363
 20
82.0961497784801
 30
0.0
 11
87.54321237204363
 21
86.0961537784801
 31
0.0
  0
LINE
  5
1187A
330
1F
100
AcDbEntity
  8
AM_2
100
AcDbLine
 10
86.54321237204362
 20
82.0961497784801
 30
0.0
 11
86.54321237204362
 21
86.0961537784801
 31
0.0
  0
LINE
  5
1187B
330
1F
100
AcDbEntity
  8
AM_2
100
AcDbLine
 10
37.94322237204369
 20
82.0961497784801
 30
0.0
 11
49.94322237204369
 21
82.0961497784801
 31
0.0
  0
LINE
  5
1187C
330
1F
100
AcDbEntity
  8
AM_0
100
AcDbLine
 10
53.95552237204367
 20
89.54069577848008
 30
0.0
 11
54.13230237204368
 21
89.36391877848008
 31
0.0
  0
LINE
  5
1187D
330
1F
100
AcDbEntity
  8
AM_0
100
AcDbLine
 10
52.2467123720437
 20
87.47834077848009
 30
0.0
 11
54.13230237204368
 21
89.36391877848008
 31
0.0
  0
LINE
  5
1187E
330
1F
100
AcDbEntity
  8
AM_0
100
AcDbLine
 10
51.1467523720437
 20
86.79134877848008
 30
0.0
 11
51.74320237204369
 21
86.3461537784801
 31
0.0
  0
LINE
  5
1187F
330
1F
100
AcDbEntity
  8
AM_2
100
AcDbLine
 10
73.74322237204364
 20
75.09614977848009
 30
0.0
 11
71.74322237204364
 21
75.09614977848009
 31
0.0
  0
LINE
  5
11880
330
1F
100
AcDbEntity
  8
AM_2
100
AcDbLine
 10
71.74322237204364
 20
67.09614977848009
 30
0.0
 11
65.74322237204365
 21
67.09614977848009
 31
0.0
  0
LINE
  5
11881
330
1F
100
AcDbEntity
  8
AM_2
100
AcDbLine
 10
71.74322237204364
 20
67.09614977848009
 30
0.0
 11
71.74322237204364
 21
75.09614977848009
 31
0.0
  0
LINE
  5
11882
330
1F
100
AcDbEntity
  8
AM_2
100
AcDbLine
 10
68.74322237204364
 20
80.09614977848009
 30
0.0
 11
73.74322237204364
 21
75.09614977848009
 31
0.0
  0
LINE
  5
11883
330
1F
100
AcDbEntity
  8
AM_2
100
AcDbLine
 10
63.74322237204364
 20
75.09614977848009
 30
0.0
 11
68.74322237204364
 21
80.09614977848009
 31
0.0
  0
LINE
  5
11884
330
1F
100
AcDbEntity
  8
AM_2
100
AcDbLine
 10
65.74322237204365
 20
67.09614977848009
 30
0.0
 11
65.74322237204365
 21
75.09614977848009
 31
0.0
  0
LINE
  5
11885
330
1F
100
AcDbEntity
  8
AM_2
100
AcDbLine
 10
65.74322237204365
 20
75.09614977848009
 30
0.0
 11
63.74322237204364
 21
75.09614977848009
 31
0.0
  0
LINE
  5
11886
330
1F
100
AcDbEntity
  8
AM_2
100
AcDbLine
 10
161.3432053720437
 20
67.09614977848009
 30
0.0
 11
161.3432053720437
 21
75.09614977848009
 31
0.0
  0
LINE
  5
11887
330
1F
100
AcDbEntity
  8
AM_2
100
AcDbLine
 10
155.3432053720437
 20
67.09614977848009
 30
0.0
 11
155.3432053720437
 21
75.09614977848009
 31
0.0
  0
LINE
  5
11888
330
1F
100
AcDbEntity
  8
AM_2
100
AcDbLine
 10
161.3432053720437
 20
75.09614977848009
 30
0.0
 11
163.3432053720437
 21
75.09614977848009
 31
0.0
  0
LINE
  5
11889
330
1F
100
AcDbEntity
  8
AM_2
100
AcDbLine
 10
153.3432053720437
 20
75.09614977848009
 30
0.0
 11
155.3432053720437
 21
75.09614977848009
 31
0.0
  0
LINE
  5
1188A
330
1F
100
AcDbEntity
  8
AM_2
100
AcDbLine
 10
155.3432053720437
 20
67.09614977848009
 30
0.0
 11
161.3432053720437
 21
67.09614977848009
 31
0.0
  0
LINE
  5
1188B
330
1F
100
AcDbEntity
  8
AM_2
100
AcDbLine
 10
158.3432053720437
 20
80.0961577784801
 30
0.0
 11
153.3431973720437
 21
75.09614977848009
 31
0.0
  0
LINE
  5
1188C
330
1F
100
AcDbEntity
  8
AM_2
100
AcDbLine
 10
163.3432013720437
 20
75.09615777848009
 30
0.0
 11
158.3432053720437
 21
80.0961577784801
 31
0.0
  0
ARC
  5
1188D
330
1F
100
AcDbEntity
  8
AM_0
100
AcDbCircle
 10
176.8431903720436
 20
87.5961537784801
 30
0.0
 40
0.8500000199999998
100
AcDbArc
 50
181.6855200000008
 51
180.0
  0
ARC
  5
1188E
330
1F
100
AcDbEntity
  8
AM_0
100
AcDbCircle
 10
176.8431903720436
 20
87.5961537784801
 30
0.0
 40
1.209999999999999
100
AcDbArc
 50
318.3075400000007
 51
180.0
  0
ARC
  5
1188F
330
1F
100
AcDbEntity
  8
AM_0
100
AcDbCircle
 10
176.8431903720436
 20
87.5961537784801
 30
0.0
 40
1.209999999999999
100
AcDbArc
 50
180.0
 51
303.7322499999965
  0
ARC
  5
11890
330
1F
100
AcDbEntity
  8
AM_0
100
AcDbCircle
 10
50.2432023720437
 20
87.5961537784801
 30
0.0
 40
1.209999999999999
100
AcDbArc
 50
236.2680500000021
 51
0.0
  0
ARC
  5
11891
330
1F
100
AcDbEntity
  8
AM_0
100
AcDbCircle
 10
50.2432023720437
 20
87.5961537784801
 30
0.0
 40
1.209999999999999
100
AcDbArc
 50
0.0
 51
221.6925800000003
  0
ARC
  5
11892
330
1F
100
AcDbEntity
  8
AM_0
100
AcDbCircle
 10
50.2432023720437
 20
87.5961537784801
 30
0.0
 40
0.8500000199999998
100
AcDbArc
 50
0.0
 51
358.314500000001
  0
TEXT
  5
11893
330
1F
100
AcDbEntity
  8
AM_6
100
AcDbText
 10
74.11445237204361
 20
126.1178917645628
 30
0.0
 40
4.0
  1
丁番吊グレビティヒンジ　左右勝手決定方法
 41
0.8423746600000001
100
AcDbText
  0
TEXT
  5
11894
330
1F
100
AcDbEntity
  8
AM_6
100
AcDbText
 10
32.47039237204365
 20
106.6140587784801
 30
0.0
 40
3.2
  1
左勝手
 41
0.85537027
100
AcDbText
  0
TEXT
  5
11895
330
1F
100
AcDbEntity
  8
AM_6
100
AcDbText
 10
185.9300113720437
 20
106.6140587784801
 30
0.0
 40
3.2
  1
右勝手
 41
0.85537027
100
AcDbText
  0
TEXT
  5
11896
330
1F
100
AcDbEntity
  8
AM_6
100
AcDbText
 10
51.60021237204365
 20
61.89615077848009
 30
0.0
 40
3.2
  1
ドアを押す側から見た時に吊元が左側（右側）の場合は左勝手（右勝手）となります。
 41
0.8413729699999999
100
AcDbText
  0
TEXT
  5
11897
330
1F
100
AcDbEntity
  8
AM_6
100
AcDbText
 10
51.60021237204365
 20
57.09614977848009
 30
0.0
 40
3.2
  1
（通常の丁番の勝手とは逆になります。）
 41
0.84248387
100
AcDbText
  0
DIMENSION
  5
1189E
330
1F
100
AcDbEntity
  8
AM_5
100
AcDbDimension
  2
*D5
 10
354.5703678011187
 20
65.96229782243345
 30
0.0
 11
351.4703678011187
 21
110.4622978224335
 31
0.0
 70
    32
 71
     5
 42
89.00000000000002
  3
SYS$0
100
AcDbAlignedDimension
 13
342.5703678011187
 23
154.9622978224334
 33
0.0
 14
342.5703678011187
 24
65.96229782243347
 34
0.0
 50
90.0
100
AcDbRotatedDimension
1001
ACAD_DSTYLE_DIMINSPECT
1070
   396
1000
100%
1070
   395
1000

1070
   394
1070
    33
1070
   393
1070
     0
  0
DIMENSION
  5
119FF
330
1F
100
AcDbEntity
  8
AM_5
100
AcDbDimension
  2
*D7
 10
342.5703678011187
 20
176.9622978224333
 30
0.0
 11
302.5703763011187
 21
180.0622978224333
 31
0.0
 70
    32
 71
     5
 42
79.99998300000005
  3
SYS$0
100
AcDbAlignedDimension
 13
262.5703848011186
 23
154.9622978224334
 33
0.0
 14
342.5703678011187
 24
154.9622978224334
 34
0.0
100
AcDbRotatedDimension
1001
ACAD_DSTYLE_DIMINSPECT
1070
   396
1000
100%
1070
   395
1000

1070
   394
1070
    33
1070
   393
1070
     0
  0
DIMENSION
  5
11A74
330
1F
100
AcDbEntity
  8
AM_5
100
AcDbDimension
  2
*D9
 10
262.5703848011186
 20
53.96229782243345
 30
0.0
 11
275.0703773011186
 21
57.06229782243346
 31
0.0
 70
    32
 71
     5
 42
24.99998500000004
  3
SYS$0
100
AcDbAlignedDimension
 13
287.5703698011187
 23
65.96229782243347
 33
0.0
 14
262.5703848011186
 24
65.96229782243347
 34
0.0
 50
0.0000000000001132
100
AcDbRotatedDimension
1001
ACAD_DSTYLE_DIMINSPECT
1070
   396
1000
100%
1070
   395
1000

1070
   394
1070
    33
1070
   393
1070
     0
  0
DIMENSION
  5
11AC4
330
1F
100
AcDbEntity
  8
AM_5
100
AcDbDimension
  2
*D10
 10
354.5703678011187
 20
227.2122928224335
 30
0.0
 11
351.4703678011186
 21
221.3656261557669
 31
0.0
 70
    32
 71
     5
 42
2.5
  3
SYS$0
100
AcDbAlignedDimension
 13
342.5703678011187
 23
229.7122928224335
 33
0.0
 14
342.5703678011187
 24
227.2122928224335
 34
0.0
 50
90.00000000000003
100
AcDbRotatedDimension
1001
ACAD_DSTYLE_DIMINSPECT
1070
   396
1000
100%
1070
   395
1000

1070
   394
1070
    33
1070
   393
1070
     0
  0
LINE
  5
11CF4
330
1F
100
AcDbEntity
  8
AM_0
100
AcDbLine
 10
291.1814268129397
 20
228.7582894011029
 30
0.0
 11
297.7506029780439
 21
221.7137104309923
 31
0.0
  0
LINE
  5
11CF5
330
1F
100
AcDbEntity
  8
AM_0
100
AcDbLine
 10
289.501313222224
 20
226.8942926809807
 30
0.0
 11
295.5776825916105
 21
220.378184298674
 31
0.0
  0
ARC
  5
11CF6
330
1F
100
AcDbEntity
  8
AM_0
 48
0.5
100
AcDbCircle
 10
288.9873657080802
 20
226.7122943209169
 30
0.0
 40
3.0
100
AcDbArc
 50
42.99999999994168
 51
90.0
1001
GENIUS_GENODEF_13
1002
{
1000
HIER
1070
     0
1002
}
1002
{
1000
MANEDIT
1070
     0
1002
}
1002
{
1000
NOSEL
1070
     0
1002
}
1002
{
1000
BEHIND
1070
     0
1002
}
1002
{
1000
OTHER
1070
     0
1002
}
1002
{
1000
REACTOR
1002
}
1001
GENIUS_GENOBJ-N-FIL_13
1002
{
1000
OWNER
1000
GEN
1002
}
  0
ARC
  5
11CF7
330
1F
100
AcDbEntity
  8
AM_0
100
AcDbCircle
 10
288.7699595206027
 20
226.2122943209187
 30
0.0
 40
1.0
100
AcDbArc
 50
42.99999999994168
 51
90.0
1001
GENIUS_GENODEF_13
1002
{
1000
HIER
1070
     0
1002
}
1002
{
1000
MANEDIT
1070
     0
1002
}
1002
{
1000
NOSEL
1070
     0
1002
}
1002
{
1000
BEHIND
1070
     0
1002
}
1002
{
1000
OTHER
1070
     0
1002
}
1002
{
1000
REACTOR
1002
}
1001
GENIUS_GENOBJ-N-FIL_13
1002
{
1000
OWNER
1000
GEN
1002
}
  0
LINE
  5
11CF8
330
1F
100
AcDbEntity
  8
AM_0
100
AcDbLine
 10
295.4212084389609
 20
220.1794114718544
 30
0.0
 11
293.2848147211978
 21
222.4704078374033
 31
0.0
  0
LINE
  5
11CF9
330
1F
100
AcDbEntity
  8
AM_0
100
AcDbLine
 10
297.6152675574393
 20
222.2254012458849
 30
0.0
 11
295.4788737889135
 21
224.5164076611814
 31
0.0
  0
LINE
  5
11D38
330
1F
100
AcDbEntity
  8
AM_0
100
AcDbLine
 10
313.9593127892977
 20
228.7582894011029
 30
0.0
 11
309.8299216216056
 21
224.3300595214095
 31
0.0
  0
LINE
  5
11D39
330
1F
100
AcDbEntity
  8
AM_0
100
AcDbLine
 10
315.6394263800132
 20
226.8942926809808
 30
0.0
 11
311.6583058762335
 21
222.6250636218737
 31
0.0
  0
ARC
  5
11D3A
330
1F
100
AcDbEntity
  8
AM_0
 48
0.5
100
AcDbCircle
 10
316.1533738941571
 20
226.7122943209169
 30
0.0
 40
3.0
100
AcDbArc
 50
90.0
 51
137.0000000000561
1001
GENIUS_GENODEF_13
1002
{
1000
HIER
1070
     0
1002
}
1002
{
1000
MANEDIT
1070
     0
1002
}
1002
{
1000
NOSEL
1070
     0
1002
}
1002
{
1000
BEHIND
1070
     0
1002
}
1002
{
1000
OTHER
1070
     0
1002
}
1002
{
1000
REACTOR
1002
}
1001
GENIUS_GENOBJ-N-FIL_13
1002
{
1000
OWNER
1000
GEN
1002
}
  0
ARC
  5
11D3B
330
1F
100
AcDbEntity
  8
AM_0
100
AcDbCircle
 10
316.3707800816346
 20
226.2122943209187
 30
0.0
 40
1.0
100
AcDbArc
 50
90.0
 51
137.0000000000561
1001
GENIUS_GENODEF_13
1002
{
1000
HIER
1070
     0
1002
}
1002
{
1000
MANEDIT
1070
     0
1002
}
1002
{
1000
NOSEL
1070
     0
1002
}
1002
{
1000
BEHIND
1070
     0
1002
}
1002
{
1000
OTHER
1070
     0
1002
}
1002
{
1000
REACTOR
1002
}
1001
GENIUS_GENOBJ-N-FIL_13
1002
{
1000
OWNER
1000
GEN
1002
}
  0
ARC
  5
11D3C
330
1F
100
AcDbEntity
  8
AM_0
100
AcDbCircle
 10
302.5703696415869
 20
214.7122943664806
 30
0.0
 40
12.09999849999999
100
AcDbArc
 50
138.9295646955012
 51
127.0704345066869
  0
DIMENSION
  5
11D67
330
1F
100
AcDbEntity
  8
AM_5
100
AcDbDimension
  2
*D11
 10
250.5703688011187
 20
214.7122928224335
 30
0.0
 11
247.4703688011186
 21
222.2122928224335
 31
0.0
 70
    32
 71
     5
 42
15.0
  3
SYS$0
100
AcDbAlignedDimension
 13
262.5703698011187
 23
229.7122928224335
 33
0.0
 14
287.4703708011186
 24
214.7122928224335
 34
0.0
 50
90.00000000000003
100
AcDbRotatedDimension
1001
ACAD_DSTYLE_DIMINSPECT
1070
   396
1000
100%
1070
   395
1000

1070
   394
1070
    33
1070
   393
1070
     0
  0
LINE
  5
11D97
330
1F
100
AcDbEntity
  8
AM_2
100
AcDbLine
 10
315.9359663093107
 20
67.96229782243347
 30
0.0
 11
315.9359663093105
 21
109.6487100709276
 31
0.0
  0
DIMENSION
  5
11E1C
330
1F
100
AcDbEntity
  8
AM_5
100
AcDbDimension
  2
*D12
 10
147.2861475527035
 20
109.3750429577094
 30
0.0
 11
147.9148097328126
 21
-101.0877149392432
 31
0.0
 70
    34
  1
 
 71
     5
 42
0.7853980978356815
  3
SYS$2
100
AcDb2LineAngularDimension
 13
176.5432161867365
 23
86.0961537784801
 33
0.0
 14
140.5432200014345
 24
86.0961537784801
 34
0.0
 15
172.7419962465515
 25
83.91919760172212
 35
0.0
 16
149.9974146953122
 26
97.97087646160145
 36
0.0
1001
ACAD_DSTYLE_DIMINSPECT
1070
   396
1000
100%
1070
   395
1000

1070
   394
1070
    33
1070
   393
1070
     0
1001
ACAD
1000
DSTYLE
1002
{
1070
    41
1040
2.0
1070
   173
1070
     1
1070
   342
1005
0
1070
   343
1005
A66
1070
   344
1005
11907
1002
}
  0
DIMENSION
  5
11E1D
330
1F
100
AcDbEntity
  8
AM_5
100
AcDbDimension
  2
*D13
 10
79.80028482077452
 20
109.3750429577094
 30
0.0
 11
-54.81275192926929
 21
108.7127948903531
 31
0.0
 70
    34
  1
 
 71
     5
 42
0.7853980978356815
  3
SYS$2
100
AcDb2LineAngularDimension
 13
50.54321618674151
 23
86.0961537784801
 33
0.0
 14
86.54321237204355
 24
86.0961537784801
 34
0.0
 15
54.34443612692652
 25
83.91919760172212
 35
0.0
 16
79.46159709943174
 26
92.24296251389143
 36
0.0
1001
ACAD_DSTYLE_DIMINSPECT
1070
   396
1000
100%
1070
   395
1000

1070
   394
1070
    33
1070
   393
1070
     0
1001
ACAD
1000
DSTYLE
1002
{
1070
    41
1040
2.0
1070
   173
1070
     1
1070
   342
1005
0
1070
   343
1005
11907
1070
   344
1005
A66
1002
}
  0
DIMENSION
  5
11E50
330
1F
100
AcDbEntity
  8
AM_5
100
AcDbDimension
  2
*D14
 10
289.2047732929265
 20
239.2122928224336
 30
0.0
 11
302.5703698011185
 21
242.3122928224336
 31
0.0
 70
    32
  1
（30）
 71
     5
 42
26.73119301638422
  3
SYS$0
100
AcDbAlignedDimension
 13
315.9359663093107
 23
227.2122928224335
 33
0.0
 14
289.2047732929265
 24
227.2122928224336
 34
0.0
 50
0.000000000000075
100
AcDbRotatedDimension
1001
ACAD_DSTYLE_DIMINSPECT
1070
   396
1000
100%
1070
   395
1000

1070
   394
1070
    33
1070
   393
1070
     0
  0
DIMENSION
  5
11F13
330
1F
100
AcDbEntity
  8
AM_5
100
AcDbDimension
  2
*D15
 10
250.5703838011186
 20
122.9622998224334
 30
0.0
 11
247.4703838011186
 21
134.9622988224335
 31
0.0
 70
    32
 71
     5
 42
23.99999800000001
  3
SYS$0
100
AcDbAlignedDimension
 13
272.2703848011185
 23
146.9622978224334
 33
0.0
 14
263.2703848011185
 24
122.9622998224334
 34
0.0
 50
90.00000000000003
100
AcDbRotatedDimension
1001
ACAD_DSTYLE_DIMINSPECT
1070
   396
1000
100%
1070
   395
1000

1070
   394
1070
    33
1070
   393
1070
     0
  0
DIMENSION
  5
11F3B
330
1F
100
AcDbEntity
  8
AM_5
100
AcDbDimension
  2
*D16
 10
250.5703838011186
 20
97.96229582243348
 30
0.0
 11
247.4703838011186
 21
110.4622978224335
 31
0.0
 70
    32
 71
     5
 42
25.00000399999999
  3
SYS$0
100
AcDbAlignedDimension
 13
263.2703848011185
 23
122.9622998224334
 33
0.0
 14
272.2703848011185
 24
97.96229582243348
 34
0.0
 50
90.00000000000003
100
AcDbRotatedDimension
1001
ACAD_DSTYLE_DIMINSPECT
1070
   396
1000
100%
1070
   395
1000

1070
   394
1070
    33
1070
   393
1070
     0
  0
DIMENSION
  5
11F5A
330
1F
100
AcDbEntity
  8
AM_5
100
AcDbDimension
  2
*D17
 10
250.5703848011186
 20
73.96229482243348
 30
0.0
 11
247.4703848011186
 21
85.96229532243352
 31
0.0
 70
    32
 71
     5
 42
24.000001
  3
SYS$0
100
AcDbAlignedDimension
 13
272.2703848011185
 23
97.96229582243348
 33
0.0
 14
263.2703848011185
 24
73.96229482243348
 34
0.0
 50
90.00000000000003
100
AcDbRotatedDimension
1001
ACAD_DSTYLE_DIMINSPECT
1070
   396
1000
100%
1070
   395
1000

1070
   394
1070
    33
1070
   393
1070
     0
  0
DIMENSION
  5
11F95
330
1F
100
AcDbEntity
  8
AM_5
100
AcDbDimension
  2
*D18
 10
270.5703848011186
 20
166.9622978224331
 30
0.0
 11
275.0703848011186
 21
170.0622978224331
 31
0.0
 70
    32
 71
     5
 42
9.0
  3
SYS$0
100
AcDbAlignedDimension
 13
279.5703848011186
 23
154.2622978224335
 33
0.0
 14
270.5703848011186
 24
130.2622998224334
 34
0.0
100
AcDbRotatedDimension
1001
ACAD_DSTYLE_DIMINSPECT
1070
   396
1000
100%
1070
   395
1000

1070
   394
1070
    33
1070
   393
1070
     0
  0
DIMENSION
  5
11FBD
330
1F
100
AcDbEntity
  8
AM_5
100
AcDbDimension
  2
*D19
 10
302.5703698011187
 20
166.962297822433
 30
0.0
 11
291.0703773011186
 21
170.062297822433
 31
0.0
 70
    32
 71
     5
 42
22.99998500000004
  3
SYS$0
100
AcDbAlignedDimension
 13
279.5703848011186
 23
154.2622978224335
 33
0.0
 14
302.5703698011187
 24
159.9622978224334
 34
0.0
100
AcDbRotatedDimension
1001
ACAD_DSTYLE_DIMINSPECT
1070
   396
1000
100%
1070
   395
1000

1070
   394
1070
    33
1070
   393
1070
     0
  0
DIMENSION
  5
11FEE
330
1F
100
AcDbEntity
  8
AM_5
100
AcDbDimension
  2
*D20
 10
262.5703848011186
 20
166.962297822433
 30
0.0
 11
266.5703848011186
 21
170.062297822433
 31
0.0
 70
    32
 71
     5
 42
8.0
  3
SYS$0
100
AcDbAlignedDimension
 13
270.5703848011186
 23
130.2622998224334
 33
0.0
 14
262.5703848011186
 24
154.9622978224334
 34
0.0
100
AcDbRotatedDimension
1001
ACAD_DSTYLE_DIMINSPECT
1070
   396
1000
100%
1070
   395
1000

1070
   394
1070
    33
1070
   393
1070
     0
  0
DIMENSION
  5
12016
330
1F
100
AcDbEntity
  8
AM_5
100
AcDbDimension
  2
*D21
 10
311.5703698011186
 20
53.96229782243345
 30
0.0
 11
302.5703698011187
 21
57.06229782243345
 31
0.0
 70
    32
  1
%%c<>
 71
     5
 42
18.0
  3
SYS$0
100
AcDbAlignedDimension
 13
293.5703698011187
 23
65.96229782243347
 33
0.0
 14
311.5703698011186
 24
65.96229782243347
 34
0.0
 50
0.0000000000001132
100
AcDbRotatedDimension
1001
ACAD_DSTYLE_DIMINSPECT
1070
   396
1000
100%
1070
   395
1000

1070
   394
1070
    33
1070
   393
1070
     0
  0
ENDSEC
  0
SECTION
  2
OBJECTS
  0
DICTIONARY
  5
C
330
0
100
AcDbDictionary
281
     1
  3
ACAD_2007HEADERVARS_RT
350
1208C
  3
ACAD_BGPLOT_KEY
350
AB06
  3
ACAD_COLOR
350
A91D
  3
ACAD_GROUP
350
D
  3
ACAD_LAYOUT
350
1A
  3
ACAD_MATERIAL
350
A91C
  3
ACAD_MLEADERSTYLE
350
B595
  3
ACAD_MLINESTYLE
350
17
  3
ACAD_PLOTSETTINGS
350
19
  3
ACAD_PLOTSTYLENAME
350
E
  3
ACAD_SCALELIST
350
B573
  3
ACAD_TABLESTYLE
350
AAB9
  3
ACAD_VISUALSTYLE
350
B0F1
  3
AcAsAppObject
350
3DA1
  3
ACASGREF_MASTER
350
3DE9
  3
ACDB_RECOMPOSE_DATA
350
B5B7
  3
AcDbVariableDictionary
350
34
  3
AcmDictionary
350
47
  3
AD_GREF_MODULE
350
3DEA
  3
AD_MAPI_MODULE
350
3E06
  3
AMG
350
2B
  3
AMGSNAPSETTINGS
350
7D
  3
ASE_INDEX_DICTIONARY
350
B570
  3
MAPISURF_MODULE
350
3DEB
  0
DICTIONARY
  5
3F95
330
2
100
AcDbDictionary
280
     1
281
     1
  3
ACAD_LAYERFILTERS
360
B4F7
  3
ACAD_LAYERSTATES
360
3F96
  3
ACLYDICTIONARY
360
B4F6
  3
AMLAYER_GROUPCOLORS
360
AAB4
  0
DICTIONARY
  5
C26F
330
10
100
AcDbDictionary
280
     1
281
     1
  3
ADSK_XREC_LAYER_RECONCILED
360
C270
  0
DICTIONARY
  5
C271
330
5F85
100
AcDbDictionary
280
     1
281
     1
  3
ADSK_XREC_LAYER_RECONCILED
360
C272
  0
DICTIONARY
  5
C273
330
AC9F
100
AcDbDictionary
280
     1
281
     1
  3
ADSK_XREC_LAYER_RECONCILED
360
C274
  0
DICTIONARY
  5
C275
330
ACA0
100
AcDbDictionary
280
     1
281
     1
  3
ADSK_XREC_LAYER_RECONCILED
360
C276
  0
DICTIONARY
  5
C277
330
ACA1
100
AcDbDictionary
280
     1
281
     1
  3
ADSK_XREC_LAYER_RECONCILED
360
C278
  0
DICTIONARY
  5
C279
330
ACC8
100
AcDbDictionary
280
     1
281
     1
  3
ADSK_XREC_LAYER_RECONCILED
360
C27A
  0
DICTIONARY
  5
C27B
330
ACC9
100
AcDbDictionary
280
     1
281
     1
  3
ADSK_XREC_LAYER_RECONCILED
360
C27C
  0
DICTIONARY
  5
C27D
330
ACCA
100
AcDbDictionary
280
     1
281
     1
  3
ADSK_XREC_LAYER_RECONCILED
360
C27E
  0
DICTIONARY
  5
C27F
330
AD60
100
AcDbDictionary
280
     1
281
     1
  3
ADSK_XREC_LAYER_RECONCILED
360
C280
  0
DICTIONARY
  5
C281
330
AD64
100
AcDbDictionary
280
     1
281
     1
  3
ADSK_XREC_LAYER_RECONCILED
360
C282
  0
DICTIONARY
  5
C283
330
AD67
100
AcDbDictionary
280
     1
281
     1
  3
ADSK_XREC_LAYER_RECONCILED
360
C284
  0
DICTIONARY
  5
C285
330
AD68
100
AcDbDictionary
280
     1
281
     1
  3
ADSK_XREC_LAYER_RECONCILED
360
C286
  0
DICTIONARY
  5
C287
330
AD69
100
AcDbDictionary
280
     1
281
     1
  3
ADSK_XREC_LAYER_RECONCILED
360
C288
  0
DICTIONARY
  5
C289
330
AD6A
100
AcDbDictionary
280
     1
281
     1
  3
ADSK_XREC_LAYER_RECONCILED
360
C28A
  0
DICTIONARY
  5
C28B
330
AD6E
100
AcDbDictionary
280
     1
281
     1
  3
ADSK_XREC_LAYER_RECONCILED
360
C28C
  0
DICTIONARY
  5
C28D
330
AD6F
100
AcDbDictionary
280
     1
281
     1
  3
ADSK_XREC_LAYER_RECONCILED
360
C28E
  0
DICTIONARY
  5
C28F
330
B1B6
100
AcDbDictionary
280
     1
281
     1
  3
ADSK_XREC_LAYER_RECONCILED
360
C290
  0
DICTIONARY
  5
C291
330
B2EB
100
AcDbDictionary
280
     1
281
     1
  3
ADSK_XREC_LAYER_RECONCILED
360
C292
  0
DICTIONARY
  5
C293
330
B2EC
100
AcDbDictionary
280
     1
281
     1
  3
ADSK_XREC_LAYER_RECONCILED
360
C294
  0
DICTIONARY
  5
8A
330
1F
100
AcDbDictionary
280
     1
281
     1
  3
ACAD_SORTENTS
360
B1BA
  0
DICTIONARY
  5
1208C
102
{ACAD_REACTORS
330
C
102
}
330
C
100
AcDbDictionary
281
     1
  3
DIMARCSYM
350
1208D
  0
DICTIONARY
  5
AB06
102
{ACAD_REACTORS
330
C
102
}
330
C
100
AcDbDictionary
280
     1
281
     1
  0
DICTIONARY
  5
A91D
102
{ACAD_REACTORS
330
C
102
}
330
C
100
AcDbDictionary
281
     1
  0
DICTIONARY
  5
D
102
{ACAD_REACTORS
330
C
102
}
330
C
100
AcDbDictionary
281
     1
  0
DICTIONARY
  5
1A
102
{ACAD_REACTORS
330
C
102
}
330
C
100
AcDbDictionary
281
     1
  3
Model
350
22
  3
ﾚｲｱｳﾄ1
350
1E
  3
ﾚｲｱｳﾄ2
350
26
  0
DICTIONARY
  5
A91C
102
{ACAD_REACTORS
330
C
102
}
330
C
100
AcDbDictionary
281
     1
  3
ByBlock
350
B0EF
  3
ByLayer
350
B0EE
  3
Global
350
B0F0
  0
DICTIONARY
  5
B595
102
{ACAD_REACTORS
330
C
102
}
330
C
100
AcDbDictionary
281
     1
  3
Standard
350
B596
  0
DICTIONARY
  5
17
102
{ACAD_REACTORS
330
C
102
}
330
C
100
AcDbDictionary
281
     1
  3
Standard
350
18
  0
DICTIONARY
  5
19
102
{ACAD_REACTORS
330
C
102
}
330
C
100
AcDbDictionary
281
     1
  0
ACDBDICTIONARYWDFLT
  5
E
102
{ACAD_REACTORS
330
C
102
}
330
C
100
AcDbDictionary
281
     1
  3
Normal
350
F
100
AcDbDictionaryWithDefault
340
F
  0
DICTIONARY
  5
B573
102
{ACAD_REACTORS
330
C
102
}
330
C
100
AcDbDictionary
281
     1
  3
A0
350
B574
  3
A1
350
B575
  3
A2
350
B576
  3
A3
350
B577
  3
A4
350
B578
  3
A5
350
B579
  3
A6
350
B57A
  3
A7
350
B57B
  3
A8
350
B57C
  3
A9
350
B57D
  3
B0
350
B57E
  3
B1
350
B57F
  3
B2
350
B580
  3
B3
350
B581
  3
B4
350
B582
  3
B5
350
B583
  3
B6
350
B584
  3
B7
350
B585
  3
B8
350
B586
  3
B9
350
B587
  3
C0
350
B588
  3
C1
350
B589
  3
C2
350
B58A
  3
C3
350
B58B
  3
C4
350
B58C
  3
C5
350
B58D
  3
C6
350
B58E
  3
C7
350
B58F
  3
C8
350
B590
  3
C9
350
B591
  3
D0
350
B592
  3
D1
350
B593
  3
D2
350
B594
  0
DICTIONARY
  5
AAB9
102
{ACAD_REACTORS
330
C
102
}
330
C
100
AcDbDictionary
281
     1
  3
Standard
350
AABA
  0
DICTIONARY
  5
B0F1
102
{ACAD_REACTORS
330
C
102
}
330
C
100
AcDbDictionary
281
     1
  3
2dWireframe
350
B0F7
  3
3D Hidden
350
B0F9
  3
3dWireframe
350
B0F8
  3
Basic
350
B0F6
  3
Brighten
350
B0FD
  3
ColorChange
350
B101
  3
Conceptual
350
B0FA
  3
Dim
350
B0FC
  3
Facepattern
350
B100
  3
Flat
350
B0F2
  3
FlatWithEdges
350
B0F3
  3
Gouraud
350
B0F4
  3
GouraudWithEdges
350
B0F5
  3
Linepattern
350
B0FF
  3
Realistic
350
B0FB
  3
Thicken
350
B0FE
  0
ACAD_PROXY_OBJECT
  5
3DA1
102
{ACAD_REACTORS
330
C
102
}
330
C
100
AcDbProxyObject
 90
      499
 91
      576
 95
   917527
 70
     0
 93
       10
310
404C
 94
        0
  0
ACAD_PROXY_OBJECT
  5
3DE9
102
{ACAD_REACTORS
330
C
102
}
330
C
100
AcDbProxyObject
 90
      499
 91
      581
 95
   917527
 70
     0
 93
       34
310
010000404C
 94
        0
  0
XRECORD
  5
B5B7
102
{ACAD_REACTORS
330
C
102
}
330
C
100
AcDbXrecord
280
     1
 90
        1
330
AABA
  0
DICTIONARY
  5
34
102
{ACAD_REACTORS
330
C
102
}
330
C
100
AcDbDictionary
281
     1
  3
CANNOSCALE
350
B5BA
  3
CMLEADERSTYLE
350
B5B8
  3
CTABLESTYLE
350
AAF3
  3
DIMASSOC
350
A10C
  3
FIELDEVAL
350
AB07
  3
INDEXCTL
350
35
  3
LIGHTINGUNITS
350
B5BB
  3
MSLTSCALE
350
B5B9
  3
SORTENTS
350
194C
  0
DICTIONARY
  5
47
102
{ACAD_REACTORS
330
C
102
}
330
C
100
AcDbDictionary
281
     1
  3
AcmBOM
350
7E8
  3
AcmStdDictionary
350
4C
  3
AMDTSECTSYM_ARROWCOLOR
350
A929
  0
ACAD_PROXY_OBJECT
  5
3DEA
102
{ACAD_REACTORS
330
C
102
}
330
C
100
AcDbProxyObject
 90
      499
 91
      582
 95
   917527
 70
     0
 93
      114
310
00000043800000000000000000000C
 94
        0
  0
ACAD_PROXY_OBJECT
  5
3E06
102
{ACAD_REACTORS
330
C
102
}
330
C
100
AcDbProxyObject
 90
      499
 91
      594
 95
   917527
 70
     0
 93
       34
310
05000044CC
 94
        0
  0
DICTIONARY
  5
2B
102
{ACAD_REACTORS
330
C
102
}
330
C
100
AcDbDictionary
281
     1
  0
DICTIONARY
  5
7D
102
{ACAD_REACTORS
330
C
102
}
330
C
100
AcDbDictionary
281
     1
  0
DICTIONARY
  5
B570
102
{ACAD_REACTORS
330
C
102
}
330
C
100
AcDbDictionary
281
     1
  3
ASEBlockHierarchyIndexRecord
350
B571
1001
DCO15
1040
1706332604.97
  0
ACAD_PROXY_OBJECT
  5
3DEB
102
{ACAD_REACTORS
330
C
102
}
330
C
100
AcDbProxyObject
 90
      499
 91
      583
 95
   917527
 70
     0
 93
        8
310
047E
 94
        0
  0
DICTIONARY
  5
B4F7
102
{ACAD_REACTORS
330
3F95
102
}
330
3F95
100
AcDbDictionary
281
     1
  0
DICTIONARY
  5
3F96
102
{ACAD_REACTORS
330
3F95
102
}
330
3F95
100
AcDbDictionary
281
     1
  3
20011210
350
3FB7
  0
DICTIONARY
  5
B4F6
102
{ACAD_REACTORS
330
3F95
102
}
330
3F95
100
AcDbDictionary
281
     1
1001
ACAD
1000
<All
  0
DICTIONARY
  5
AAB4
102
{ACAD_REACTORS
330
3F95
102
}
330
3F95
100
AcDbDictionary
280
     1
281
     1
  0
XRECORD
  5
C270
102
{ACAD_REACTORS
330
C26F
102
}
330
C26F
100
AcDbXrecord
280
     1
290
     1
  0
XRECORD
  5
C272
102
{ACAD_REACTORS
330
C271
102
}
330
C271
100
AcDbXrecord
280
     1
290
     1
  0
XRECORD
  5
C274
102
{ACAD_REACTORS
330
C273
102
}
330
C273
100
AcDbXrecord
280
     1
290
     1
  0
XRECORD
  5
C276
102
{ACAD_REACTORS
330
C275
102
}
330
C275
100
AcDbXrecord
280
     1
290
     1
  0
XRECORD
  5
C278
102
{ACAD_REACTORS
330
C277
102
}
330
C277
100
AcDbXrecord
280
     1
290
     1
  0
XRECORD
  5
C27A
102
{ACAD_REACTORS
330
C279
102
}
330
C279
100
AcDbXrecord
280
     1
290
     1
  0
XRECORD
  5
C27C
102
{ACAD_REACTORS
330
C27B
102
}
330
C27B
100
AcDbXrecord
280
     1
290
     1
  0
XRECORD
  5
C27E
102
{ACAD_REACTORS
330
C27D
102
}
330
C27D
100
AcDbXrecord
280
     1
290
     1
  0
XRECORD
  5
C280
102
{ACAD_REACTORS
330
C27F
102
}
330
C27F
100
AcDbXrecord
280
     1
290
     1
  0
XRECORD
  5
C282
102
{ACAD_REACTORS
330
C281
102
}
330
C281
100
AcDbXrecord
280
     1
290
     1
  0
XRECORD
  5
C284
102
{ACAD_REACTORS
330
C283
102
}
330
C283
100
AcDbXrecord
280
     1
290
     1
  0
XRECORD
  5
C286
102
{ACAD_REACTORS
330
C285
102
}
330
C285
100
AcDbXrecord
280
     1
290
     1
  0
XRECORD
  5
C288
102
{ACAD_REACTORS
330
C287
102
}
330
C287
100
AcDbXrecord
280
     1
290
     1
  0
XRECORD
  5
C28A
102
{ACAD_REACTORS
330
C289
102
}
330
C289
100
AcDbXrecord
280
     1
290
     1
  0
XRECORD
  5
C28C
102
{ACAD_REACTORS
330
C28B
102
}
330
C28B
100
AcDbXrecord
280
     1
290
     1
  0
XRECORD
  5
C28E
102
{ACAD_REACTORS
330
C28D
102
}
330
C28D
100
AcDbXrecord
280
     1
290
     1
  0
XRECORD
  5
C290
102
{ACAD_REACTORS
330
C28F
102
}
330
C28F
100
AcDbXrecord
280
     1
290
     1
  0
XRECORD
  5
C292
102
{ACAD_REACTORS
330
C291
102
}
330
C291
100
AcDbXrecord
280
     1
290
     1
  0
XRECORD
  5
C294
102
{ACAD_REACTORS
330
C293
102
}
330
C293
100
AcDbXrecord
280
     1
290
     1
  0
SORTENTSTABLE
  5
B1BA
102
{ACAD_REACTORS
330
8A
102
}
330
8A
100
AcDbSortentsTable
330
1F
331
1186E
  5
1186F
331
1182F
  5
11830
331
11837
  5
11838
331
11876
  5
11877
331
11A74
  5
11AC4
331
1183F
  5
11840
331
1187E
  5
1187F
331
11D3B
  5
11D3C
331
11847
  5
11848
331
11886
  5
11887
331
117F4
  5
117F5
331
117B5
  5
117B6
331
117BD
  5
117BE
331
117FC
  5
117FD
331
117C5
  5
117C6
331
11804
  5
11805
331
117CD
  5
117CE
331
1180C
  5
1180D
331
1188E
  5
1188F
331
1184F
  5
11850
331
11AC4
  5
11CF4
331
11857
  5
11858
331
11896
  5
11897
331
1185F
  5
11860
331
1189E
  5
119FF
331
11867
  5
11868
331
11814
  5
11815
331
BF49
  5
B920
331
117D5
  5
117D6
331
117DD
  5
117DE
331
1181C
  5
1181D
331
11824
  5
11825
331
117ED
  5
117EE
331
11828
  5
11829
331
11830
  5
11831
331
1186F
  5
11870
331
11877
  5
11878
331
11CF4
  5
11CF5
331
11838
  5
11839
331
1187F
  5
11880
331
11840
  5
11845
331
11887
  5
11888
331
11D3C
  5
11D67
331
117B6
  5
117B7
331
117F5
  5
117F6
331
117FD
  5
117FE
331
117BE
  5
117BF
331
11805
  5
11806
331
117C6
  5
117C7
331
117CE
  5
117CF
331
1180D
  5
1180E
331
11848
  5
11849
331
11850
  5
11851
331
1188F
  5
11890
331
11858
  5
11859
331
11897
  5
1189E
331
11860
  5
11861
331
117D6
  5
117D7
331
11815
  5
11816
331
BF4A
  5
B921
331
BF52
  5
B929
331
117DE
  5
117DF
331
1181D
  5
1181E
331
11825
  5
11826
331
117E6
  5
117E7
331
117EE
  5
117EF
331
11868
  5
11869
331
11829
  5
1182A
331
11870
  5
11871
331
11831
  5
11832
331
11839
  5
1183A
331
11878
  5
11879
331
11CF5
  5
11CF6
331
11E1C
  5
11E1D
331
11880
  5
11881
331
11F5A
  5
11F79
331
117F6
  5
117F7
331
117B7
  5
117B8
331
117BF
  5
117C0
331
117FE
  5
117FF
331
117C7
  5
117C8
331
11806
  5
11807
331
1180E
  5
1180F
331
117CF
  5
117D0
331
11888
  5
11889
331
11849
  5
1184A
331
11890
  5
11891
331
119FF
  5
11A31
331
11851
  5
11852
331
11859
  5
1185A
331
11861
  5
11862
331
11F13
  5
11F3B
331
11816
  5
11817
331
117D7
  5
117D8
331
117DF
  5
117E0
331
1181E
  5
1181F
331
BF53
  5
B92A
331
117E7
  5
117E9
331
11826
  5
11827
331
117EF
  5
117F0
331
1182A
  5
1182B
331
11869
  5
1186A
331
11F3B
  5
11F5A
331
11832
  5
11833
331
11871
  5
11872
331
11879
  5
1187A
331
11CF6
  5
11CF7
331
11E1D
  5
11E50
331
1183A
  5
1183B
331
11881
  5
11882
331
117B0
  5
117B0
331
117B8
  5
117B9
331
117F7
  5
117F8
331
117FF
  5
11800
331
117C0
  5
117C1
331
11807
  5
11808
331
117C8
  5
117C9
331
1180F
  5
11810
331
1184A
  5
1184B
331
11889
  5
1188A
331
11852
  5
11853
331
11891
  5
11892
331
1185A
  5
1185B
331
11862
  5
11863
331
117D0
  5
117D1
331
117D8
  5
117D9
331
11817
  5
11818
331
1181F
  5
11820
331
BF54
  5
B92B
331
117E0
  5
117E1
331
11827
  5
11828
331
1186A
  5
1186B
331
1182B
  5
1182C
331
11833
  5
11834
331
11872
  5
11873
331
1183B
  5
1183C
331
1187A
  5
1187B
331
11CF7
  5
11CF8
331
11882
  5
11883
331
117F0
  5
117F1
331
117B1
  5
117B2
331
117B9
  5
117BA
331
117F8
  5
117F9
331
117C1
  5
117C2
331
11800
  5
11801
331
117C9
  5
117CA
331
11808
  5
11809
331
1188A
  5
1188B
331
1184B
  5
1184C
331
11892
  5
11893
331
11D67
  5
11D97
331
11853
  5
11854
331
1185B
  5
1185C
331
11863
  5
11864
331
11810
  5
11811
331
117D1
  5
117D2
331
11818
  5
11819
331
117D9
  5
117DA
331
117AC
  5
117AC
331
117E1
  5
117E6
331
11820
  5
11821
331
BF55
  5
B92C
331
117E9
  5
117EA
331
1182C
  5
1182D
331
1186B
  5
1186C
331
11D97
  5
11E1C
331
11834
  5
11835
331
11873
  5
11874
331
1187B
  5
1187C
331
11CF8
  5
11CF9
331
1183C
  5
1183D
331
11883
  5
11884
331
11D38
  5
11D39
331
117B2
  5
117B3
331
117F1
  5
117F2
331
117BA
  5
117BB
331
117F9
  5
117FA
331
11801
  5
11802
331
117C2
  5
117C3
331
117CA
  5
117CB
331
11809
  5
1180C
331
1184C
  5
1184D
331
1188B
  5
1188C
331
11854
  5
11855
331
11893
  5
11894
331
1185C
  5
1185D
331
11864
  5
11865
331
117D2
  5
117D3
331
11811
  5
11812
331
117DA
  5
117DB
331
11819
  5
1181A
331
11821
  5
11822
331
117AD
  5
117AD
331
117EA
  5
117EB
331
1186C
  5
1186D
331
1182D
  5
1182E
331
11835
  5
11836
331
11874
  5
11875
331
1183D
  5
1183E
331
1187C
  5
1187D
331
11CF9
  5
11D38
331
11845
  5
11846
331
11884
  5
11885
331
11D39
  5
11D3A
331
117F2
  5
117F3
331
117B3
  5
117B4
331
117BB
  5
117BC
331
117FA
  5
117FB
331
117C3
  5
117C4
331
11802
  5
11803
331
117CB
  5
117CC
331
1188C
  5
1188D
331
1184D
  5
1184E
331
11855
  5
11856
331
11894
  5
11895
331
11E50
  5
11F13
331
1185D
  5
1185E
331
11865
  5
11866
331
11812
  5
11813
331
BF47
  5
B91E
331
117D3
  5
117D4
331
117DB
  5
117DC
331
1181A
  5
1181B
331
117AE
  5
117AE
331
11822
  5
11823
331
117EB
  5
117EC
331
1182E
  5
1182F
331
1186D
  5
1186E
331
11836
  5
11837
331
11875
  5
11876
331
1187D
  5
1187E
331
1183E
  5
1183F
331
11846
  5
11847
331
11885
  5
11886
331
11D3A
  5
11D3B
331
117B4
  5
117B5
331
117F3
  5
117F4
331
117BC
  5
117BD
331
117FB
  5
117FC
331
11803
  5
11804
331
117C4
  5
117C5
331
117CC
  5
117CD
331
1184E
  5
1184F
331
1188D
  5
1188E
331
11856
  5
11857
331
11895
  5
11896
331
1185E
  5
1185F
331
11866
  5
11867
331
117D4
  5
117D5
331
11813
  5
11814
331
BF48
  5
B91F
331
117DC
  5
117DD
331
1181B
  5
1181C
331
11823
  5
11824
331
117AF
  5
117AF
331
117EC
  5
117ED
  0
XRECORD
  5
1208D
102
{ACAD_REACTORS
330
1208C
102
}
330
1208C
100
AcDbXrecord
280
     1
 70
     1
  0
LAYOUT
  5
22
102
{ACAD_REACTORS
330
1A
102
}
330
1A
100
AcDbPlotSettings
  1

  2
Adobe PDF
  4
A3
  6
AM_VIEW1
 40
3.174999952316284
 41
3.174999952316284
 42
3.17498779296875
 43
3.17498779296875
 44
297.0318298339844
 45
420.1583251953125
 46
-3.159078955650329
 47
-3.095831274986267
 48
0.0
 49
0.0
140
420.0
141
297.0
142
1.0
143
1.0
 70
  3748
 72
     1
 73
     1
 74
     4
  7
monochrome.ctb
 75
     0
147
0.9787267410393917
 76
     0
 77
     2
 78
   200
148
0.0
149
0.0
100
AcDbLayout
  1
Model
 70
     1
 71
     0
 10
0.0
 20
0.0
 11
12.0
 21
9.0
 12
0.0
 22
0.0
 32
0.0
 14
0.0
 24
0.0
 34
0.0
 15
0.0
 25
0.0
 35
0.0
146
0.0
 13
0.0
 23
0.0
 33
0.0
 16
1.0
 26
0.0
 36
0.0
 17
0.0
 27
1.0
 37
0.0
 76
     0
330
1F
331
B0EC
1001
ACAD_PSEXT
1000
Adobe PDF
1000
Adobe PDF Converter
1000
My Documents\*.pdf
1000

1070
     0
  0
LAYOUT
  5
1E
102
{ACAD_REACTORS
330
1A
102
}
330
1A
100
AcDbPlotSettings
  1

  2
\\ML370\XEROX
  4
A4
  6

 40
3.174999952316284
 41
3.174999952316284
 42
3.175003051757812
 43
3.17498779296875
 44
209.8674926757813
 45
296.6719970703125
 46
0.0
 47
0.0
 48
0.0
 49
0.0
140
0.0
141
0.0
142
1.0
143
1.0
 70
   688
 72
     1
 73
     1
 74
     5
  7
monochrome.ctb
 75
    16
147
1.0
 76
     0
 77
     2
 78
   300
148
0.0
149
0.0
100
AcDbLayout
  1
ﾚｲｱｳﾄ1
 70
     1
 71
     1
 10
-3.17498779296875
 20
-3.174999952316284
 11
293.4970092773438
 21
206.692492723465
 12
0.0
 22
0.0
 32
0.0
 14
1.000000000000000E+20
 24
1.000000000000000E+20
 34
1.000000000000000E+20
 15
-1.000000000000000E+20
 25
-1.000000000000000E+20
 35
-1.000000000000000E+20
146
0.0
 13
0.0
 23
0.0
 33
0.0
 16
1.0
 26
0.0
 36
0.0
 17
0.0
 27
1.0
 37
0.0
 76
     0
330
1B
  0
LAYOUT
  5
26
102
{ACAD_REACTORS
330
1A
102
}
330
1A
100
AcDbPlotSettings
  1

  2
\\ML370\XEROX
  4

  6

 40
0.0
 41
0.0
 42
0.0
 43
0.0
 44
0.0
 45
0.0
 46
0.0
 47
0.0
 48
0.0
 49
0.0
140
0.0
141
0.0
142
1.0
143
1.0
 70
   688
 72
     0
 73
     0
 74
     5
  7
monochrome.ctb
 75
    16
147
1.0
 76
     0
 77
     2
 78
   300
148
0.0
149
0.0
100
AcDbLayout
  1
ﾚｲｱｳﾄ2
 70
     1
 71
     2
 10
0.0
 20
0.0
 11
12.0
 21
9.0
 12
0.0
 22
0.0
 32
0.0
 14
0.0
 24
0.0
 34
0.0
 15
0.0
 25
0.0
 35
0.0
146
0.0
 13
0.0
 23
0.0
 33
0.0
 16
1.0
 26
0.0
 36
0.0
 17
0.0
 27
1.0
 37
0.0
 76
     0
330
23
  0
MATERIAL
  5
B0EF
102
{ACAD_XDICTIONARY
360
12091
102
}
102
{ACAD_REACTORS
330
A91C
102
}
330
A91C
100
AcDbMaterial
  1
ByBlock
 73
     1
 78
     1
172
     1
176
     1
270
     1
274
     1
  0
MATERIAL
  5
B0EE
102
{ACAD_XDICTIONARY
360
1208F
102
}
102
{ACAD_REACTORS
330
A91C
102
}
330
A91C
100
AcDbMaterial
  1
ByLayer
 73
     1
 78
     1
172
     1
176
     1
270
     1
274
     1
  0
MATERIAL
  5
B0F0
102
{ACAD_XDICTIONARY
360
12093
102
}
102
{ACAD_REACTORS
330
A91C
102
}
330
A91C
100
AcDbMaterial
  1
Global
 73
     1
 78
     1
172
     1
176
     1
270
     1
274
     1
  0
MLEADERSTYLE
  5
B596
102
{ACAD_REACTORS
330
B595
102
}
330
B595
100
AcDbMLeaderStyle
170
     2
171
     1
172
     0
 90
        2
 40
0.0
 41
0.0
173
     1
 91
-1056964608
340
14
 92
       -2
290
     1
 42
2.0
291
     1
 43
0.36
  3
Standard
 44
4.0
300

342
11
174
     1
178
     6
175
     1
176
     0
 93
-1056964608
 45
4.0
292
     0
297
     0
 46
4.0
 94
-1056964608
 47
1.0
 49
1.0
140
1.0
293
     1
141
0.0
294
     1
177
     0
142
1.0
295
     0
296
     0
143
0.125
1001
ACAD_MLEADERVER
1070
     2
  0
MLINESTYLE
  5
18
102
{ACAD_REACTORS
330
17
102
}
330
17
100
AcDbMlineStyle
  2
STANDARD
 70
     0
  3

 62
   256
 51
90.0
 52
90.0
 71
     2
 49
0.5
 62
   256
  6
BYLAYER
 49
-0.5
 62
   256
  6
BYLAYER
  0
ACDBPLACEHOLDER
  5
F
102
{ACAD_REACTORS
330
E
102
}
330
E
  0
SCALE
  5
B574
102
{ACAD_REACTORS
330
B573
102
}
330
B573
100
AcDbScale
 70
     0
300
1:1
140
1.0
141
1.0
290
     1
  0
SCALE
  5
B575
102
{ACAD_REACTORS
330
B573
102
}
330
B573
100
AcDbScale
 70
     0
300
1:2
140
1.0
141
2.0
290
     0
  0
SCALE
  5
B576
102
{ACAD_REACTORS
330
B573
102
}
330
B573
100
AcDbScale
 70
     0
300
1:4
140
1.0
141
4.0
290
     0
  0
SCALE
  5
B577
102
{ACAD_REACTORS
330
B573
102
}
330
B573
100
AcDbScale
 70
     0
300
1:5
140
1.0
141
5.0
290
     0
  0
SCALE
  5
B578
102
{ACAD_REACTORS
330
B573
102
}
330
B573
100
AcDbScale
 70
     0
300
1:8
140
1.0
141
8.0
290
     0
  0
SCALE
  5
B579
102
{ACAD_REACTORS
330
B573
102
}
330
B573
100
AcDbScale
 70
     0
300
1:10
140
1.0
141
10.0
290
     0
  0
SCALE
  5
B57A
102
{ACAD_REACTORS
330
B573
102
}
330
B573
100
AcDbScale
 70
     0
300
1:16
140
1.0
141
16.0
290
     0
  0
SCALE
  5
B57B
102
{ACAD_REACTORS
330
B573
102
}
330
B573
100
AcDbScale
 70
     0
300
1:20
140
1.0
141
20.0
290
     0
  0
SCALE
  5
B57C
102
{ACAD_REACTORS
330
B573
102
}
330
B573
100
AcDbScale
 70
     0
300
1:30
140
1.0
141
30.0
290
     0
  0
SCALE
  5
B57D
102
{ACAD_REACTORS
330
B573
102
}
330
B573
100
AcDbScale
 70
     0
300
1:40
140
1.0
141
40.0
290
     0
  0
SCALE
  5
B57E
102
{ACAD_REACTORS
330
B573
102
}
330
B573
100
AcDbScale
 70
     0
300
1:50
140
1.0
141
50.0
290
     0
  0
SCALE
  5
B57F
102
{ACAD_REACTORS
330
B573
102
}
330
B573
100
AcDbScale
 70
     0
300
1:100
140
1.0
141
100.0
290
     0
  0
SCALE
  5
B580
102
{ACAD_REACTORS
330
B573
102
}
330
B573
100
AcDbScale
 70
     0
300
2:1
140
2.0
141
1.0
290
     0
  0
SCALE
  5
B581
102
{ACAD_REACTORS
330
B573
102
}
330
B573
100
AcDbScale
 70
     0
300
4:1
140
4.0
141
1.0
290
     0
  0
SCALE
  5
B582
102
{ACAD_REACTORS
330
B573
102
}
330
B573
100
AcDbScale
 70
     0
300
8:1
140
8.0
141
1.0
290
     0
  0
SCALE
  5
B583
102
{ACAD_REACTORS
330
B573
102
}
330
B573
100
AcDbScale
 70
     0
300
10:1
140
10.0
141
1.0
290
     0
  0
SCALE
  5
B584
102
{ACAD_REACTORS
330
B573
102
}
330
B573
100
AcDbScale
 70
     0
300
100:1
140
100.0
141
1.0
290
     0
  0
SCALE
  5
B585
102
{ACAD_REACTORS
330
B573
102
}
330
B573
100
AcDbScale
 70
     0
300
1/128" = 1'-0"
140
0.0078125
141
12.0
290
     0
  0
SCALE
  5
B586
102
{ACAD_REACTORS
330
B573
102
}
330
B573
100
AcDbScale
 70
     0
300
1/64" = 1'-0"
140
0.015625
141
12.0
290
     0
  0
SCALE
  5
B587
102
{ACAD_REACTORS
330
B573
102
}
330
B573
100
AcDbScale
 70
     0
300
1/32" = 1'-0"
140
0.03125
141
12.0
290
     0
  0
SCALE
  5
B588
102
{ACAD_REACTORS
330
B573
102
}
330
B573
100
AcDbScale
 70
     0
300
1/16" = 1'-0"
140
0.0625
141
12.0
290
     0
  0
SCALE
  5
B589
102
{ACAD_REACTORS
330
B573
102
}
330
B573
100
AcDbScale
 70
     0
300
3/32" = 1'-0"
140
0.09375
141
12.0
290
     0
  0
SCALE
  5
B58A
102
{ACAD_REACTORS
330
B573
102
}
330
B573
100
AcDbScale
 70
     0
300
1/8" = 1'-0"
140
0.125
141
12.0
290
     0
  0
SCALE
  5
B58B
102
{ACAD_REACTORS
330
B573
102
}
330
B573
100
AcDbScale
 70
     0
300
3/16" = 1'-0"
140
0.1875
141
12.0
290
     0
  0
SCALE
  5
B58C
102
{ACAD_REACTORS
330
B573
102
}
330
B573
100
AcDbScale
 70
     0
300
1/4" = 1'-0"
140
0.25
141
12.0
290
     0
  0
SCALE
  5
B58D
102
{ACAD_REACTORS
330
B573
102
}
330
B573
100
AcDbScale
 70
     0
300
3/8" = 1'-0"
140
0.375
141
12.0
290
     0
  0
SCALE
  5
B58E
102
{ACAD_REACTORS
330
B573
102
}
330
B573
100
AcDbScale
 70
     0
300
1/2" = 1'-0"
140
0.5
141
12.0
290
     0
  0
SCALE
  5
B58F
102
{ACAD_REACTORS
330
B573
102
}
330
B573
100
AcDbScale
 70
     0
300
3/4" = 1'-0"
140
0.75
141
12.0
290
     0
  0
SCALE
  5
B590
102
{ACAD_REACTORS
330
B573
102
}
330
B573
100
AcDbScale
 70
     0
300
1" = 1'-0"
140
1.0
141
12.0
290
     0
  0
SCALE
  5
B591
102
{ACAD_REACTORS
330
B573
102
}
330
B573
100
AcDbScale
 70
     0
300
1-1/2" = 1'-0"
140
1.5
141
12.0
290
     0
  0
SCALE
  5
B592
102
{ACAD_REACTORS
330
B573
102
}
330
B573
100
AcDbScale
 70
     0
300
3" = 1'-0"
140
3.0
141
12.0
290
     0
  0
SCALE
  5
B593
102
{ACAD_REACTORS
330
B573
102
}
330
B573
100
AcDbScale
 70
     0
300
6" = 1'-0"
140
6.0
141
12.0
290
     0
  0
SCALE
  5
B594
102
{ACAD_REACTORS
330
B573
102
}
330
B573
100
AcDbScale
 70
     0
300
1'-0" = 1'-0"
140
12.0
141
12.0
290
     0
  0
TABLESTYLE
  5
AABA
102
{ACAD_XDICTIONARY
360
B5B5
102
}
102
{ACAD_REACTORS
330
AAB9
102
}
330
AAB9
100
AcDbTableStyle
  3
Standard
 70
     0
 71
     0
 40
1.5
 41
1.5
280
     0
281
     0
  7
STANDARD
140
4.5
170
     2
 62
     0
 63
     7
283
     0
274
    -2
284
     1
 64
     0
275
    -2
285
     1
 65
     0
276
    -2
286
     1
 66
     0
277
    -2
287
     1
 67
     0
278
    -2
288
     1
 68
     0
279
    -2
289
     1
 69
     0
  7
STANDARD
140
6.0
170
     5
 62
     0
 63
     7
283
     0
274
    -2
284
     1
 64
     0
275
    -2
285
     1
 65
     0
276
    -2
286
     1
 66
     0
277
    -2
287
     1
 67
     0
278
    -2
288
     1
 68
     0
279
    -2
289
     1
 69
     0
  7
STANDARD
140
4.5
170
     5
 62
     0
 63
     7
283
     0
274
    -2
284
     1
 64
     0
275
    -2
285
     1
 65
     0
276
    -2
286
     1
 66
     0
277
    -2
287
     1
 67
     0
278
    -2
288
     1
 68
     0
279
    -2
289
     1
 69
     0
  0
VISUALSTYLE
  5
B0F7
102
{ACAD_REACTORS
330
B0F1
102
}
330
B0F1
100
AcDbVisualStyle
  2
2dWireframe
 70
     4
 71
     0
 72
     2
 73
     0
 90
        0
 40
-0.6
 41
-30.0
 62
     5
 63
     7
421
 16777215
 74
     1
 91
        4
 64
     7
 65
   257
 75
     1
175
     1
 42
1.0
 92
        0
 66
   257
 43
1.0
 76
     1
 77
     6
 78
     2
 67
     7
 79
     5
170
     0
171
     0
290
     0
174
     0
 93
        1
 44
0.0
173
     0
291
     0
 45
0.0
1001
ACAD
1000
AcDbSavedByObjectVersion
1070
     0
  0
VISUALSTYLE
  5
B0F9
102
{ACAD_REACTORS
330
B0F1
102
}
330
B0F1
100
AcDbVisualStyle
  2
3D Hidden
 70
     6
 71
     1
 72
     2
 73
     2
 90
        0
 40
-0.6
 41
-30.0
 62
     5
 63
     7
421
 16777215
 74
     2
 91
        2
 64
     7
 65
   257
 75
     2
175
     1
 42
40.0
 92
        0
 66
   257
 43
1.0
 76
     1
 77
     6
 78
     2
 67
     7
 79
     3
170
     0
171
     0
290
     0
174
     0
 93
        1
 44
0.0
173
     0
291
     0
 45
0.0
1001
ACAD
1000
AcDbSavedByObjectVersion
1070
     0
  0
VISUALSTYLE
  5
B0F8
102
{ACAD_REACTORS
330
B0F1
102
}
330
B0F1
100
AcDbVisualStyle
  2
3dWireframe
 70
     5
 71
     0
 72
     2
 73
     0
 90
        0
 40
-0.6
 41
-30.0
 62
     5
 63
     7
421
 16777215
 74
     1
 91
        4
 64
     7
 65
   257
 75
     1
175
     1
 42
1.0
 92
        0
 66
   257
 43
1.0
 76
     1
 77
     6
 78
     2
 67
     7
 79
     5
170
     0
171
     0
290
     0
174
     0
 93
        1
 44
0.0
173
     0
291
     0
 45
0.0
1001
ACAD
1000
AcDbSavedByObjectVersion
1070
     0
  0
VISUALSTYLE
  5
B0F6
102
{ACAD_REACTORS
330
B0F1
102
}
330
B0F1
100
AcDbVisualStyle
  2
Basic
 70
     7
 71
     1
 72
     0
 73
     1
 90
        0
 40
-0.6
 41
-30.0
 62
     5
 63
     7
421
 16777215
 74
     0
 91
        4
 64
     7
 65
   257
 75
     1
175
     1
 42
1.0
 92
        8
 66
     7
 43
1.0
 76
     1
 77
     6
 78
     2
 67
     7
 79
     5
170
     0
171
     0
290
     0
174
     0
 93
        1
 44
0.0
173
     0
291
     1
 45
0.0
1001
ACAD
1000
AcDbSavedByObjectVersion
1070
     0
  0
VISUALSTYLE
  5
B0FD
102
{ACAD_REACTORS
330
B0F1
102
}
330
B0F1
100
AcDbVisualStyle
  2
Brighten
 70
    12
 71
     2
 72
     2
 73
     0
 90
        0
 40
-0.6
 41
-30.0
 62
     5
 63
     7
421
 16777215
 74
     1
 91
        4
 64
     7
 65
   257
 75
     1
175
     1
 42
1.0
 92
        8
 66
     7
 43
1.0
 76
     1
 77
     6
 78
     2
 67
     7
 79
     5
170
     0
171
     0
290
     0
174
     0
 93
        1
 44
50.0
173
     0
291
     1
 45
0.0
1001
ACAD
1000
AcDbSavedByObjectVersion
1070
     0
  0
VISUALSTYLE
  5
B101
102
{ACAD_REACTORS
330
B0F1
102
}
330
B0F1
100
AcDbVisualStyle
  2
ColorChange
 70
    16
 71
     2
 72
     2
 73
     3
 90
        0
 40
-0.6
 41
-30.0
 62
     5
 63
     8
421
  8421504
 74
     1
 91
        4
 64
     7
 65
   257
 75
     1
175
     1
 42
1.0
 92
        8
 66
     8
424
  8421504
 43
1.0
 76
     1
 77
     6
 78
     2
 67
     7
 79
     5
170
     0
171
     0
290
     0
174
     0
 93
        1
 44
0.0
173
     0
291
     1
 45
0.0
1001
ACAD
1000
AcDbSavedByObjectVersion
1070
     0
  0
VISUALSTYLE
  5
B0FA
102
{ACAD_REACTORS
330
B0F1
102
}
330
B0F1
100
AcDbVisualStyle
  2
Conceptual
 70
     9
 71
     3
 72
     2
 73
     0
 90
        0
 40
-0.6
 41
-30.0
 62
     5
 63
     7
421
 16777215
 74
     2
 91
        2
 64
     7
 65
   257
 75
     1
175
     1
 42
40.0
 92
        8
 66
     7
 43
1.0
 76
     1
 77
     6
 78
     2
 67
     7
 79
     3
170
     0
171
     0
290
     0
174
     0
 93
        1
 44
0.0
173
     0
291
     0
 45
0.0
1001
ACAD
1000
AcDbSavedByObjectVersion
1070
     0
  0
VISUALSTYLE
  5
B0FC
102
{ACAD_REACTORS
330
B0F1
102
}
330
B0F1
100
AcDbVisualStyle
  2
Dim
 70
    11
 71
     2
 72
     2
 73
     0
 90
        0
 40
-0.6
 41
-30.0
 62
     5
 63
     7
421
 16777215
 74
     1
 91
        4
 64
     7
 65
   257
 75
     1
175
     1
 42
1.0
 92
        8
 66
     7
 43
1.0
 76
     1
 77
     6
 78
     2
 67
     7
 79
     5
170
     0
171
     0
290
     0
174
     0
 93
        1
 44
-50.0
173
     0
291
     1
 45
0.0
1001
ACAD
1000
AcDbSavedByObjectVersion
1070
     0
  0
VISUALSTYLE
  5
B100
102
{ACAD_REACTORS
330
B0F1
102
}
330
B0F1
100
AcDbVisualStyle
  2
Facepattern
 70
    15
 71
     2
 72
     2
 73
     0
 90
        0
 40
-0.6
 41
-30.0
 62
     5
 63
     7
421
 16777215
 74
     1
 91
        4
 64
     7
 65
   257
 75
     1
175
     1
 42
1.0
 92
        8
 66
     7
 43
1.0
 76
     1
 77
     6
 78
     2
 67
     7
 79
     5
170
     0
171
     0
290
     0
174
     0
 93
        1
 44
0.0
173
     0
291
     1
 45
0.0
1001
ACAD
1000
AcDbSavedByObjectVersion
1070
     0
  0
VISUALSTYLE
  5
B0F2
102
{ACAD_REACTORS
330
B0F1
102
}
330
B0F1
100
AcDbVisualStyle
  2
Flat
 70
     0
 71
     2
 72
     1
 73
     1
 90
        2
 40
-0.6
 41
30.0
 62
     5
 63
     7
421
 16777215
 74
     0
 91
        4
 64
     7
 65
   257
 75
     1
175
     1
 42
1.0
 92
        8
 66
     7
 43
1.0
 76
     1
 77
     6
 78
     2
 67
     7
 79
     5
170
     0
171
     0
290
     0
174
     0
 93
       13
 44
0.0
173
     0
291
     1
 45
0.0
1001
ACAD
1000
AcDbSavedByObjectVersion
1070
     0
  0
VISUALSTYLE
  5
B0F3
102
{ACAD_REACTORS
330
B0F1
102
}
330
B0F1
100
AcDbVisualStyle
  2
FlatWithEdges
 70
     1
 71
     2
 72
     1
 73
     1
 90
        2
 40
-0.6
 41
30.0
 62
     5
 63
     7
421
 16777215
 74
     1
 91
        4
 64
     7
 65
   257
 75
     1
175
     1
 42
1.0
 92
        0
 66
   257
 43
1.0
 76
     1
 77
     6
 78
     2
 67
     7
 79
     5
170
     0
171
     0
290
     0
174
     0
 93
       13
 44
0.0
173
     0
291
     1
 45
0.0
1001
ACAD
1000
AcDbSavedByObjectVersion
1070
     0
  0
VISUALSTYLE
  5
B0F4
102
{ACAD_REACTORS
330
B0F1
102
}
330
B0F1
100
AcDbVisualStyle
  2
Gouraud
 70
     2
 71
     2
 72
     2
 73
     1
 90
        2
 40
-0.6
 41
30.0
 62
     5
 63
     7
421
 16777215
 74
     0
 91
        4
 64
     7
 65
   257
 75
     1
175
     1
 42
1.0
 92
        0
 66
     7
 43
1.0
 76
     1
 77
     6
 78
     2
 67
     7
 79
     5
170
     0
171
     0
290
     0
174
     0
 93
       13
 44
0.0
173
     0
291
     1
 45
0.0
1001
ACAD
1000
AcDbSavedByObjectVersion
1070
     0
  0
VISUALSTYLE
  5
B0F5
102
{ACAD_REACTORS
330
B0F1
102
}
330
B0F1
100
AcDbVisualStyle
  2
GouraudWithEdges
 70
     3
 71
     2
 72
     2
 73
     1
 90
        2
 40
-0.6
 41
30.0
 62
     5
 63
     7
421
 16777215
 74
     1
 91
        4
 64
     7
 65
   257
 75
     1
175
     1
 42
1.0
 92
        0
 66
   257
 43
1.0
 76
     1
 77
     6
 78
     2
 67
     7
 79
     5
170
     0
171
     0
290
     0
174
     0
 93
       13
 44
0.0
173
     0
291
     1
 45
0.0
1001
ACAD
1000
AcDbSavedByObjectVersion
1070
     0
  0
VISUALSTYLE
  5
B0FF
102
{ACAD_REACTORS
330
B0F1
102
}
330
B0F1
100
AcDbVisualStyle
  2
Linepattern
 70
    14
 71
     2
 72
     2
 73
     0
 90
        0
 40
-0.6
 41
-30.0
 62
     5
 63
     7
421
 16777215
 74
     1
 91
        4
 64
     7
 65
   257
 75
     7
175
     7
 42
1.0
 92
        8
 66
     7
 43
1.0
 76
     1
 77
     6
 78
     2
 67
     7
 79
     5
170
     0
171
     0
290
     0
174
     0
 93
        1
 44
0.0
173
     0
291
     1
 45
0.0
1001
ACAD
1000
AcDbSavedByObjectVersion
1070
     0
  0
VISUALSTYLE
  5
B0FB
102
{ACAD_REACTORS
330
B0F1
102
}
330
B0F1
100
AcDbVisualStyle
  2
Realistic
 70
     8
 71
     2
 72
     2
 73
     0
 90
        0
 40
-0.6
 41
-30.0
 62
     5
 63
     7
421
 16777215
 74
     1
 91
        0
 64
     7
 65
   257
 75
     1
175
     1
 42
1.0
 92
        8
 66
     8
424
  7895160
 43
1.0
 76
     1
 77
     6
 78
     2
 67
     7
 79
     5
170
     0
171
     0
290
     0
174
     0
 93
       13
 44
0.0
173
     0
291
     0
 45
0.0
1001
ACAD
1000
AcDbSavedByObjectVersion
1070
     0
  0
VISUALSTYLE
  5
B0FE
102
{ACAD_REACTORS
330
B0F1
102
}
330
B0F1
100
AcDbVisualStyle
  2
Thicken
 70
    13
 71
     2
 72
     2
 73
     0
 90
        0
 40
-0.6
 41
-30.0
 62
     5
 63
     7
421
 16777215
 74
     1
 91
        4
 64
     7
 65
   257
 75
     1
175
     1
 42
1.0
 92
       12
 66
     7
 43
1.0
 76
     1
 77
     6
 78
     2
 67
     7
 79
     5
170
     0
171
     0
290
     0
174
     0
 93
        1
 44
0.0
173
     0
291
     1
 45
0.0
1001
ACAD
1000
AcDbSavedByObjectVersion
1070
     0
  0
DICTIONARYVAR
  5
B5BA
102
{ACAD_REACTORS
330
34
102
}
330
34
100
DictionaryVariables
280
     0
  1
1:1
  0
DICTIONARYVAR
  5
B5B8
102
{ACAD_REACTORS
330
34
102
}
330
34
100
DictionaryVariables
280
     0
  1
STANDARD
  0
DICTIONARYVAR
  5
AAF3
102
{ACAD_REACTORS
330
34
102
}
330
34
100
DictionaryVariables
280
     0
  1
STANDARD
  0
DICTIONARYVAR
  5
A10C
102
{ACAD_REACTORS
330
34
102
}
330
34
100
DictionaryVariables
280
     0
  1
1
  0
DICTIONARYVAR
  5
AB07
102
{ACAD_REACTORS
330
34
102
}
330
34
100
DictionaryVariables
280
     0
  1
4
  0
DICTIONARYVAR
  5
35
102
{ACAD_REACTORS
330
34
102
}
330
34
100
DictionaryVariables
280
     0
  1
1
  0
DICTIONARYVAR
  5
B5BB
102
{ACAD_REACTORS
330
34
102
}
330
34
100
DictionaryVariables
280
     0
  1
0
  0
DICTIONARYVAR
  5
B5B9
102
{ACAD_REACTORS
330
34
102
}
330
34
100
DictionaryVariables
280
     0
  1
0
  0
DICTIONARYVAR
  5
194C
102
{ACAD_REACTORS
330
34
102
}
330
34
100
DictionaryVariables
280
     0
  1
96
  0
DICTIONARY
  5
7E8
102
{ACAD_REACTORS
330
47
102
}
330
47
100
AcDbDictionary
281
     1
  0
DICTIONARY
  5
4C
102
{ACAD_REACTORS
330
47
102
}
330
47
100
AcDbDictionary
281
     1
  0
XRECORD
  5
A929
102
{ACAD_REACTORS
330
47
102
}
330
47
100
AcDbXrecord
280
     1
 90
-1023410169
  0
XRECORD
  5
B571
102
{ACAD_REACTORS
330
B570
102
}
330
B570
100
AcDbXrecord
280
     1
  0
XRECORD
  5
3FB7
102
{ACAD_REACTORS
330
3F96
102
}
330
3F96
100
AcDbXrecord
280
     1
 91
        3
330
0
 90
        8
 62
     7
370
    40
331
16
  1
Color_7
330
0
 90
        0
 62
    14
370
    -3
331
16
  1
Color_14
330
0
 90
        8
 62
     7
370
    20
331
16
  1
Color_7
330
6D1
 90
        0
 62
     7
370
    -3
331
16
  1
Color_7
330
0
 90
        8
 62
     7
370
    50
331
16
  1
Color_7
330
0
 90
        8
 62
     2
370
    35
331
16
  1
Color_2
330
0
 90
        8
 62
     7
370
    -3
331
16
  1
Color_7
330
10
 90
        8
 62
     7
370
    -3
331
16
  1
Color_7
  0
DICTIONARY
  5
12091
330
B0EF
100
AcDbDictionary
280
     1
281
     1
  3
ACAD_XREC_ROUNDTRIP
360
12092
  0
DICTIONARY
  5
1208F
330
B0EE
100
AcDbDictionary
280
     1
281
     1
  3
ACAD_XREC_ROUNDTRIP
360
12090
  0
DICTIONARY
  5
12093
330
B0F0
100
AcDbDictionary
280
     1
281
     1
  3
ACAD_XREC_ROUNDTRIP
360
12094
  0
DICTIONARY
  5
B5B5
330
AABA
100
AcDbDictionary
280
     1
281
     1
  3
ACAD_ROUNDTRIP_2008_TABLESTYLE_CELLSTYLEMAP
360
1208B
  3
ACAD_XREC_ROUNDTRIP
360
1208E
  0
XRECORD
  5
12092
102
{ACAD_REACTORS
330
12091
102
}
330
12091
100
AcDbXrecord
280
     1
102
MATERIAL
148
0.0
149
0.0
149
0.0
 93
        0
 94
       63
282
     0
 72
     1
 77
     1
171
     1
175
     1
179
     1
273
     0
  0
XRECORD
  5
12090
102
{ACAD_REACTORS
330
1208F
102
}
330
1208F
100
AcDbXrecord
280
     1
102
MATERIAL
148
0.0
149
0.0
149
0.0
 93
        0
 94
       63
282
     0
 72
     1
 77
     1
171
     1
175
     1
179
     1
273
     0
  0
XRECORD
  5
12094
102
{ACAD_REACTORS
330
12093
102
}
330
12093
100
AcDbXrecord
280
     1
102
MATERIAL
148
0.0
149
0.0
149
0.0
 93
        0
 94
       63
282
     0
 72
     1
 77
     1
171
     1
175
     1
179
     1
273
     0
  0
CELLSTYLEMAP
  5
1208B
102
{ACAD_REACTORS
330
B5B5
102
}
330
B5B5
100
AcDbCellStyleMap
 90
        3
300
CELLSTYLE
  1
TABLEFORMAT_BEGIN
 90
        5
170
     1
 91
        0
 92
    32768
 62
   257
 93
        1
300
CONTENTFORMAT
  1
CONTENTFORMAT_BEGIN
 90
        0
 91
        0
 92
        4
 93
        0
300

 40
0.0
140
1.0
 94
        5
 62
     0
340
11
144
6.0
309
CONTENTFORMAT_END
171
     1
301
MARGIN
  1
CELLMARGIN_BEGIN
 40
1.5
 40
1.5
 40
1.5
 40
1.5
 40
0.18
 40
0.18
309
CELLMARGIN_END
 94
        6
 95
        1
302
GRIDFORMAT
  1
GRIDFORMAT_BEGIN
 90
        0
 91
        1
 62
     0
 92
       -2
340
0
 93
        0
 40
0.045
309
GRIDFORMAT_END
 95
        2
302
GRIDFORMAT
  1
GRIDFORMAT_BEGIN
 90
        0
 91
        1
 62
     0
 92
       -2
340
0
 93
        0
 40
0.045
309
GRIDFORMAT_END
 95
        4
302
GRIDFORMAT
  1
GRIDFORMAT_BEGIN
 90
        0
 91
        1
 62
     0
 92
       -2
340
0
 93
        0
 40
0.045
309
GRIDFORMAT_END
 95
        8
302
GRIDFORMAT
  1
GRIDFORMAT_BEGIN
 90
        0
 91
        1
 62
     0
 92
       -2
340
0
 93
        0
 40
0.045
309
GRIDFORMAT_END
 95
       16
302
GRIDFORMAT
  1
GRIDFORMAT_BEGIN
 90
        0
 91
        1
 62
     0
 92
       -2
340
0
 93
        0
 40
0.045
309
GRIDFORMAT_END
 95
       32
302
GRIDFORMAT
  1
GRIDFORMAT_BEGIN
 90
        0
 91
        1
 62
     0
 92
       -2
340
0
 93
        0
 40
0.045
309
GRIDFORMAT_END
309
TABLEFORMAT_END
  1
CELLSTYLE_BEGIN
 90
        1
 91
        1
300
_TITLE
309
CELLSTYLE_END
300
CELLSTYLE
  1
TABLEFORMAT_BEGIN
 90
        5
170
     1
 91
        0
 92
        0
 62
   257
 93
        1
300
CONTENTFORMAT
  1
CONTENTFORMAT_BEGIN
 90
        0
 91
        0
 92
        4
 93
        0
300

 40
0.0
140
1.0
 94
        5
 62
     0
340
11
144
4.5
309
CONTENTFORMAT_END
171
     1
301
MARGIN
  1
CELLMARGIN_BEGIN
 40
1.5
 40
1.5
 40
1.5
 40
1.5
 40
0.18
 40
0.18
309
CELLMARGIN_END
 94
        6
 95
        1
302
GRIDFORMAT
  1
GRIDFORMAT_BEGIN
 90
        0
 91
        1
 62
     0
 92
       -2
340
0
 93
        0
 40
0.045
309
GRIDFORMAT_END
 95
        2
302
GRIDFORMAT
  1
GRIDFORMAT_BEGIN
 90
        0
 91
        1
 62
     0
 92
       -2
340
0
 93
        0
 40
0.045
309
GRIDFORMAT_END
 95
        4
302
GRIDFORMAT
  1
GRIDFORMAT_BEGIN
 90
        0
 91
        1
 62
     0
 92
       -2
340
0
 93
        0
 40
0.045
309
GRIDFORMAT_END
 95
        8
302
GRIDFORMAT
  1
GRIDFORMAT_BEGIN
 90
        0
 91
        1
 62
     0
 92
       -2
340
0
 93
        0
 40
0.045
309
GRIDFORMAT_END
 95
       16
302
GRIDFORMAT
  1
GRIDFORMAT_BEGIN
 90
        0
 91
        1
 62
     0
 92
       -2
340
0
 93
        0
 40
0.045
309
GRIDFORMAT_END
 95
       32
302
GRIDFORMAT
  1
GRIDFORMAT_BEGIN
 90
        0
 91
        1
 62
     0
 92
       -2
340
0
 93
        0
 40
0.045
309
GRIDFORMAT_END
309
TABLEFORMAT_END
  1
CELLSTYLE_BEGIN
 90
        2
 91
        1
300
_HEADER
309
CELLSTYLE_END
300
CELLSTYLE
  1
TABLEFORMAT_BEGIN
 90
        5
170
     1
 91
        0
 92
        0
 62
   257
 93
        1
300
CONTENTFORMAT
  1
CONTENTFORMAT_BEGIN
 90
        0
 91
        0
 92
        4
 93
        0
300

 40
0.0
140
1.0
 94
        2
 62
     0
340
11
144
4.5
309
CONTENTFORMAT_END
171
     1
301
MARGIN
  1
CELLMARGIN_BEGIN
 40
1.5
 40
1.5
 40
1.5
 40
1.5
 40
0.18
 40
0.18
309
CELLMARGIN_END
 94
        6
 95
        1
302
GRIDFORMAT
  1
GRIDFORMAT_BEGIN
 90
        0
 91
        1
 62
     0
 92
       -2
340
0
 93
        0
 40
0.045
309
GRIDFORMAT_END
 95
        2
302
GRIDFORMAT
  1
GRIDFORMAT_BEGIN
 90
        0
 91
        1
 62
     0
 92
       -2
340
0
 93
        0
 40
0.045
309
GRIDFORMAT_END
 95
        4
302
GRIDFORMAT
  1
GRIDFORMAT_BEGIN
 90
        0
 91
        1
 62
     0
 92
       -2
340
0
 93
        0
 40
0.045
309
GRIDFORMAT_END
 95
        8
302
GRIDFORMAT
  1
GRIDFORMAT_BEGIN
 90
        0
 91
        1
 62
     0
 92
       -2
340
0
 93
        0
 40
0.045
309
GRIDFORMAT_END
 95
       16
302
GRIDFORMAT
  1
GRIDFORMAT_BEGIN
 90
        0
 91
        1
 62
     0
 92
       -2
340
0
 93
        0
 40
0.045
309
GRIDFORMAT_END
 95
       32
302
GRIDFORMAT
  1
GRIDFORMAT_BEGIN
 90
        0
 91
        1
 62
     0
 92
       -2
340
0
 93
        0
 40
0.045
309
GRIDFORMAT_END
309
TABLEFORMAT_END
  1
CELLSTYLE_BEGIN
 90
        3
 91
        2
300
_DATA
309
CELLSTYLE_END
  0
XRECORD
  5
1208E
102
{ACAD_REACTORS
330
B5B5
102
}
330
B5B5
100
AcDbXrecord
280
     1
102
ACAD_ROUNDTRIP_PRE2007_TABLESTYLE
 90
        4
 91
        0
  1

 92
        4
 93
        0
  2

 94
        4
 95
        0
  3

  0
ENDSEC
  0
EOF
