  0
SECTION
  2
HEADER
  9
$ACADVER
  1
AC1015
  9
$ACADMAINTVER
 70
    20
  9
$DWGCODEPAGE
  3
ANSI_932
  9
$INSBASE
 10
0.0
 20
0.0
 30
0.0
  9
$EXTMIN
 10
530.1551803488746
 20
545.9610951868699
 30
-0.0000000000112498
  9
$EXTMAX
 10
950.1989237366355
 20
843.0699638224091
 30
0.0000000000002956
  9
$LIMMIN
 10
1700.85588156276
 20
1647.985052086429
  9
$LIMMAX
 10
1997.85588156276
 20
1857.985052086429
  9
$ORTHOMODE
 70
     0
  9
$REGENMODE
 70
     1
  9
$FILLMODE
 70
     1
  9
$QTEXTMODE
 70
     0
  9
$MIRRTEXT
 70
     0
  9
$LTSCALE
 40
1.0
  9
$ATTMODE
 70
     1
  9
$TEXTSIZE
 40
3.2
  9
$TRACEWID
 40
1.0
  9
$TEXTSTYLE
  7
STANDARD
  9
$CLAYER
  8
AM_6
  9
$CELTYPE
  6
ByLayer
  9
$CECOLOR
 62
   256
  9
$CELTSCALE
 40
1.0
  9
$DISPSILH
 70
     0
  9
$DIMSCALE
 40
1.0
  9
$DIMASZ
 40
1.0
  9
$DIMEXO
 40
1.0
  9
$DIMDLI
 40
10.0
  9
$DIMRND
 40
0.0
  9
$DIMDLE
 40
0.0
  9
$DIMEXE
 40
1.0
  9
$DIMTP
 40
0.1
  9
$DIMTM
 40
0.1
  9
$DIMTXT
 40
3.5
  9
$DIMCEN
 40
0.0
  9
$DIMTSZ
 40
0.0
  9
$DIMTOL
 70
     0
  9
$DIMLIM
 70
     0
  9
$DIMTIH
 70
     0
  9
$DIMTOH
 70
     0
  9
$DIMSE1
 70
     0
  9
$DIMSE2
 70
     0
  9
$DIMTAD
 70
     1
  9
$DIMZIN
 70
     8
  9
$DIMBLK
  1

  9
$DIMASO
 70
     1
  9
$DIMSHO
 70
     1
  9
$DIMPOST
  1

  9
$DIMAPOST
  1
"
  9
$DIMALT
 70
     0
  9
$DIMALTD
 70
     2
  9
$DIMALTF
 40
0.0393701
  9
$DIMLFAC
 40
1.0
  9
$DIMTOFL
 70
     1
  9
$DIMTVP
 40
0.0
  9
$DIMTIX
 70
     0
  9
$DIMSOXD
 70
     0
  9
$DIMSAH
 70
     0
  9
$DIMBLK1
  1

  9
$DIMBLK2
  1

  9
$DIMSTYLE
  2
SYS
  9
$DIMCLRD
 70
   256
  9
$DIMCLRE
 70
   256
  9
$DIMCLRT
 70
     7
  9
$DIMTFAC
 40
0.71
  9
$DIMGAP
 40
1.5
  9
$DIMJUST
 70
     0
  9
$DIMSD1
 70
     0
  9
$DIMSD2
 70
     0
  9
$DIMTOLJ
 70
     0
  9
$DIMTZIN
 70
     8
  9
$DIMALTZ
 70
     0
  9
$DIMALTTZ
 70
     0
  9
$DIMUPT
 70
     0
  9
$DIMDEC
 70
     2
  9
$DIMTDEC
 70
     2
  9
$DIMALTU
 70
     2
  9
$DIMALTTD
 70
     2
  9
$DIMTXSTY
  7
STANDARD
  9
$DIMAUNIT
 70
     0
  9
$DIMADEC
 70
     0
  9
$DIMALTRND
 40
0.0
  9
$DIMAZIN
 70
     2
  9
$DIMDSEP
 70
    46
  9
$DIMATFIT
 70
     3
  9
$DIMFRAC
 70
     0
  9
$DIMLDRBLK
  1

  9
$DIMLUNIT
 70
     2
  9
$DIMLWD
 70
    -1
  9
$DIMLWE
 70
    -1
  9
$DIMTMOVE
 70
     0
  9
$LUNITS
 70
     2
  9
$LUPREC
 70
     2
  9
$SKETCHINC
 40
1.0
  9
$FILLETRAD
 40
0.5
  9
$AUNITS
 70
     0
  9
$AUPREC
 70
     0
  9
$MENU
  1
.
  9
$ELEVATION
 40
0.0
  9
$PELEVATION
 40
0.0
  9
$THICKNESS
 40
0.0
  9
$LIMCHECK
 70
     0
  9
$CHAMFERA
 40
1.0
  9
$CHAMFERB
 40
1.0
  9
$CHAMFERC
 40
20.0
  9
$CHAMFERD
 40
0.0
  9
$SKPOLY
 70
     0
  9
$TDCREATE
 40
2453690.706505706
  9
$TDUCREATE
 40
2453690.331505706
  9
$TDUPDATE
 40
2455629.440295857
  9
$TDUUPDATE
 40
2455629.065295857
  9
$TDINDWG
 40
13.2519754051
  9
$TDUSRTIMER
 40
13.2519716088
  9
$USRTIMER
 70
     1
  9
$ANGBASE
 50
0.0
  9
$ANGDIR
 70
     0
  9
$PDMODE
 70
     0
  9
$PDSIZE
 40
-3.0
  9
$PLINEWID
 40
0.0
  9
$SPLFRAME
 70
     0
  9
$SPLINETYPE
 70
     6
  9
$SPLINESEGS
 70
     8
  9
$HANDSEED
  5
2EC3D
  9
$SURFTAB1
 70
     6
  9
$SURFTAB2
 70
     6
  9
$SURFTYPE
 70
     6
  9
$SURFU
 70
     6
  9
$SURFV
 70
     6
  9
$UCSBASE
  2

  9
$UCSNAME
  2

  9
$UCSORG
 10
0.0
 20
0.0
 30
0.0
  9
$UCSXDIR
 10
1.0
 20
0.0
 30
0.0
  9
$UCSYDIR
 10
0.0
 20
1.0
 30
0.0
  9
$UCSORTHOREF
  2

  9
$UCSORTHOVIEW
 70
     0
  9
$UCSORGTOP
 10
0.0
 20
0.0
 30
0.0
  9
$UCSORGBOTTOM
 10
0.0
 20
0.0
 30
0.0
  9
$UCSORGLEFT
 10
0.0
 20
0.0
 30
0.0
  9
$UCSORGRIGHT
 10
0.0
 20
0.0
 30
0.0
  9
$UCSORGFRONT
 10
0.0
 20
0.0
 30
0.0
  9
$UCSORGBACK
 10
0.0
 20
0.0
 30
0.0
  9
$PUCSBASE
  2

  9
$PUCSNAME
  2

  9
$PUCSORG
 10
0.0
 20
0.0
 30
0.0
  9
$PUCSXDIR
 10
1.0
 20
0.0
 30
0.0
  9
$PUCSYDIR
 10
0.0
 20
1.0
 30
0.0
  9
$PUCSORTHOREF
  2

  9
$PUCSORTHOVIEW
 70
     0
  9
$PUCSORGTOP
 10
0.0
 20
0.0
 30
0.0
  9
$PUCSORGBOTTOM
 10
0.0
 20
0.0
 30
0.0
  9
$PUCSORGLEFT
 10
0.0
 20
0.0
 30
0.0
  9
$PUCSORGRIGHT
 10
0.0
 20
0.0
 30
0.0
  9
$PUCSORGFRONT
 10
0.0
 20
0.0
 30
0.0
  9
$PUCSORGBACK
 10
0.0
 20
0.0
 30
0.0
  9
$USERI1
 70
     0
  9
$USERI2
 70
     0
  9
$USERI3
 70
     0
  9
$USERI4
 70
     0
  9
$USERI5
 70
     0
  9
$USERR1
 40
0.0
  9
$USERR2
 40
0.0
  9
$USERR3
 40
0.0
  9
$USERR4
 40
0.0
  9
$USERR5
 40
0.0
  9
$WORLDVIEW
 70
     1
  9
$SHADEDGE
 70
     3
  9
$SHADEDIF
 70
    70
  9
$TILEMODE
 70
     1
  9
$MAXACTVP
 70
    64
  9
$PINSBASE
 10
0.0
 20
0.0
 30
0.0
  9
$PLIMCHECK
 70
     0
  9
$PEXTMIN
 10
1.000000000000000E+20
 20
1.000000000000000E+20
 30
1.000000000000000E+20
  9
$PEXTMAX
 10
-1.000000000000000E+20
 20
-1.000000000000000E+20
 30
-1.000000000000000E+20
  9
$PLIMMIN
 10
-3.17498779296875
 20
-3.174999952316281
  9
$PLIMMAX
 10
293.4970092773438
 20
206.692492723465
  9
$UNITMODE
 70
     0
  9
$VISRETAIN
 70
     1
  9
$PLINEGEN
 70
     0
  9
$PSLTSCALE
 70
     1
  9
$TREEDEPTH
 70
  3020
  9
$CMLSTYLE
  2
Standard
  9
$CMLJUST
 70
     0
  9
$CMLSCALE
 40
20.0
  9
$PROXYGRAPHICS
 70
     1
  9
$MEASUREMENT
 70
     1
  9
$CELWEIGHT
370
    -1
  9
$ENDCAPS
280
     0
  9
$JOINSTYLE
280
     0
  9
$LWDISPLAY
290
     0
  9
$INSUNITS
 70
     4
  9
$HYPERLINKBASE
  1

  9
$STYLESHEET
  1
monochrome.ctb
  9
$XEDIT
290
     1
  9
$CEPSNTYPE
380
     0
  9
$PSTYLEMODE
290
     1
  9
$FINGERPRINTGUID
  2
{F4957AF8-857E-42C6-BAB8-18E6896E5882}
  9
$VERSIONGUID
  2
{EB1BD965-4BAC-4674-A41B-5F2F9DBE449C}
  9
$EXTNAMES
290
     1
  9
$PSVPSCALE
 40
0.0
  9
$OLESTARTUP
290
     0
  0
ENDSEC
  0
SECTION
  2
CLASSES
  0
CLASS
  1
ACDBDICTIONARYWDFLT
  2
AcDbDictionaryWithDefault
  3
ObjectDBX Classes
 90
        0
280
     0
281
     0
  0
CLASS
  1
ACDBPLACEHOLDER
  2
AcDbPlaceHolder
  3
ObjectDBX Classes
 90
        0
280
     0
281
     0
  0
CLASS
  1
LAYOUT
  2
AcDbLayout
  3
ObjectDBX Classes
 90
        0
280
     0
281
     0
  0
CLASS
  1
AMGSETTINGSOBJ
  2
AmgSettingsObj
  3
"AcadM|Product Description: AutoCAD Mechanical|Company: Autodesk"
 90
        0
280
     0
281
     0
  0
CLASS
  1
ACME_DOCUMENT
  2
AcMeDbDoc
  3
AcMeServices
 90
        0
280
     0
281
     0
  0
CLASS
  1
ACMESCOPE
  2
AcMeScope
  3
AcMeServices
 90
        0
280
     0
281
     0
  0
CLASS
  1
ACMECOMMANDHISTORY
  2
AcMeCommandHistory
  3
AcMeServices
 90
        0
280
     0
281
     0
  0
CLASS
  1
DICTIONARYVAR
  2
AcDbDictionaryVar
  3
ObjectDBX Classes
 90
        0
280
     0
281
     0
  0
CLASS
  1
ACIMSYSVARMAN
  2
AcImSysVarManager
  3
AcMeServices
 90
        0
280
     0
281
     0
  0
CLASS
  1
ACIMREALSYSVAR
  2
AcImRealSysVar
  3
AcMeServices
 90
        0
280
     0
281
     0
  0
CLASS
  1
ACIMINTSYSVAR
  2
AcImIntSysVar
  3
AcMeServices
 90
        0
280
     0
281
     0
  0
CLASS
  1
ACMEDRAWINGMAN
  2
AcMeDrawingMan
  3
AcMeServices
 90
        0
280
     0
281
     0
  0
CLASS
  1
ACMEVIEW
  2
AcMeView
  3
AcMeServices
 90
        0
280
     0
281
     0
  0
CLASS
  1
ACDBENTITYCACHE
  2
AcMeEntityCache
  3
AcMeServices
 90
        0
280
     0
281
     0
  0
CLASS
  1
GSMANAGER
  2
AcMeGSManager
  3
AcMeServices
 90
        0
280
     0
281
     0
  0
CLASS
  1
AMDTINTERNALREACTOR
  2
AmdtInternalReactor
  3
AcMeServices
 90
        0
280
     0
281
     0
  0
CLASS
  1
ACMESTATEMGR
  2
AcMeStateMgr
  3
AcMeServices
 90
        0
280
     0
281
     0
  0
CLASS
  1
ACGREFMASTER
  2
AcGrefMaster
  3
AcAttribServices
 90
        0
280
     0
281
     0
  0
CLASS
  1
ACME_DATABASE
  2
AcMeDbDatabase
  3
AcMeServices
 90
        0
280
     0
281
     0
  0
CLASS
  1
ACRFINSADJUSTERMGR
  2
AcRfInsAdjusterMgr
  3
AcMeServices
 90
        0
280
     0
281
     0
  0
CLASS
  1
ACGREFACADMASTER
  2
AcGrefacadMaster
  3
AcGrefServices
 90
        0
280
     0
281
     0
  0
CLASS
  1
AMIMASTER
  2
AmiMaster
  3
AmiServices
 90
        0
280
     0
281
     0
  0
CLASS
  1
ACMDATADICTIONARY
  2
AcmDataDictionary
  3
"AcmSymBB|Product Description: AutoCAD Mechanical|Company: Autodesk"
 90
        0
280
     0
281
     0
  0
CLASS
  1
ACMDATAENTRYBLOCK
  2
AcmDataEntryBlock
  3
"AcmSymBB|Product Description: AutoCAD Mechanical|Company: Autodesk"
 90
    32768
280
     0
281
     0
  0
CLASS
  1
ACIMSTRSYSVAR
  2
AcImStrSysVar
  3
AcMeServices
 90
        0
280
     0
281
     0
  0
CLASS
  1
ACMSTANDARDISO
  2
AcmStandardISO
  3
"Amdt_StdImp|Product Description: AutoCAD Mechanical|Company: Autodesk"
 90
        0
280
     0
281
     0
  0
CLASS
  1
AMGOBJPROPCFG
  2
AmgObjPropCfg
  3
"AmgLay|Product Description: AutoCAD Mechanical|Company: Autodesk"
 90
        1
280
     0
281
     0
  0
CLASS
  1
AMDTEDGESTANDARDISO
  2
AmdtEdgeStdISO
  3
"Amdt_StdImp|Product Description: AutoCAD Mechanical|Company: Autodesk"
 90
        0
280
     0
281
     0
  0
CLASS
  1
ACMSURFSTANDARDISO
  2
AcmSurfTextStdISO
  3
"Amdt_StdImp|Product Description: AutoCAD Mechanical|Company: Autodesk"
 90
        0
280
     0
281
     0
  0
CLASS
  1
ACMFCFSTANDARDISO
  2
AcmFCFStdISO
  3
"Amdt_StdImp|Product Description: AutoCAD Mechanical|Company: Autodesk"
 90
        0
280
     0
281
     0
  0
CLASS
  1
ACMWELDSTANDARDISO
  2
AcmWeldingStdISO
  3
"Amdt_StdImp|Product Description: AutoCAD Mechanical|Company: Autodesk"
 90
        0
280
     0
281
     0
  0
CLASS
  1
ACMIDSTANDARDISO
  2
AcmIdStdISO
  3
"Amdt_StdImp|Product Description: AutoCAD Mechanical|Company: Autodesk"
 90
        0
280
     0
281
     0
  0
CLASS
  1
ACMDATUMSTANDARDISO
  2
AcmDatumStdISO
  3
"Amdt_StdImp|Product Description: AutoCAD Mechanical|Company: Autodesk"
 90
        0
280
     0
281
     0
  0
CLASS
  1
ACMBOMSTANDARDISO
  2
AcmBOMStdISO
  3
"Amdt_StdImp|Product Description: AutoCAD Mechanical|Company: Autodesk"
 90
        0
280
     0
281
     0
  0
CLASS
  1
ACMDETAILSTANDARDISO
  2
AmdtDetailSymStdISO
  3
"Amdt_StdImp|Product Description: AutoCAD Mechanical|Company: Autodesk"
 90
        0
280
     0
281
     0
  0
CLASS
  1
ACMSECTIONSTANDARDISO
  2
AmdtSectionSymStdISO
  3
"Amdt_StdImp|Product Description: AutoCAD Mechanical|Company: Autodesk"
 90
        0
280
     0
281
     0
  0
CLASS
  1
ACMCENTERLINESTANDARDISO
  2
AmdtCenterLineStdISO
  3
"Amdt_StdImp|Product Description: AutoCAD Mechanical|Company: Autodesk"
 90
        0
280
     0
281
     0
  0
CLASS
  1
ACAMGLAYSTD
  2
AcAmgLayStd
  3
"AmgLay|Product Description: AutoCAD Mechanical|Company: Autodesk"
 90
        0
280
     0
281
     0
  0
CLASS
  1
ACAMGDIMSTD
  2
AcAmgDimStd
  3
"AmgDim|Product Description: AutoCAD Mechanical|Company: Autodesk"
 90
        0
280
     0
281
     0
  0
CLASS
  1
ACAMGTITLESTD
  2
AcAmgTitleStd
  3
"AmgTitle|Product Description: AutoCAD Mechanical|Company: Autodesk"
 90
        0
280
     0
281
     0
  0
CLASS
  1
ACAMGFILTERDAT
  2
AcAmgFilterDat
  3
"AcadM|Product Description: AutoCAD Mechanical|Company: Autodesk"
 90
    32768
280
     0
281
     0
  0
CLASS
  1
LAYER_INDEX
  2
AcDbLayerIndex
  3
ObjectDBX Classes
 90
    32768
280
     0
281
     0
  0
CLASS
  1
IDBUFFER
  2
AcDbIdBuffer
  3
ObjectDBX Classes
 90
    32768
280
     0
281
     0
  0
CLASS
  1
PLOTSETTINGS
  2
AcDbPlotSettings
  3
ObjectDBX Classes
 90
        0
280
     0
281
     0
  0
CLASS
  1
AMDTFORMULAUPDATEDISPATCHER
  2
AmdtFormulaUpdateDispatcher
  3
AcMeServices
 90
    32768
280
     0
281
     0
  0
CLASS
  1
ACMSTANDARDANSI
  2
AcmStandardANSI
  3
"Amdt_StdImp|Product Description: AutoCAD Mechanical|Company: Autodesk"
 90
        0
280
     0
281
     0
  0
CLASS
  1
ACMSURFSTANDARDANSI
  2
AcmSurfTextStdANSI
  3
"Amdt_StdImp|Product Description: AutoCAD Mechanical|Company: Autodesk"
 90
        0
280
     0
281
     0
  0
CLASS
  1
ACMFCFSTANDARDANSI
  2
AcmFCFStdANSI
  3
"Amdt_StdImp|Product Description: AutoCAD Mechanical|Company: Autodesk"
 90
        0
280
     0
281
     0
  0
CLASS
  1
ACMWELDSTANDARDANSI
  2
AcmWeldingStdANSI
  3
"Amdt_StdImp|Product Description: AutoCAD Mechanical|Company: Autodesk"
 90
        0
280
     0
281
     0
  0
CLASS
  1
ACMIDSTANDARDANSI
  2
AcmIdStdANSI
  3
"Amdt_StdImp|Product Description: AutoCAD Mechanical|Company: Autodesk"
 90
        0
280
     0
281
     0
  0
CLASS
  1
ACMDATUMSTANDARDANSI
  2
AcmDatumStdANSI
  3
"Amdt_StdImp|Product Description: AutoCAD Mechanical|Company: Autodesk"
 90
        0
280
     0
281
     0
  0
CLASS
  1
ACMBOMSTANDARDANSI
  2
AcmBOMStdANSI
  3
"Amdt_StdImp|Product Description: AutoCAD Mechanical|Company: Autodesk"
 90
        0
280
     0
281
     0
  0
CLASS
  1
ACMDETAILSTANDARDANSI
  2
AmdtDetailSymStdANSI
  3
"Amdt_StdImp|Product Description: AutoCAD Mechanical|Company: Autodesk"
 90
        0
280
     0
281
     0
  0
CLASS
  1
ACMSECTIONSTANDARDANSI
  2
AmdtSectionSymStdANSI
  3
"Amdt_StdImp|Product Description: AutoCAD Mechanical|Company: Autodesk"
 90
        0
280
     0
281
     0
  0
CLASS
  1
ACMCENTERLINESTANDARDANSI
  2
AmdtCenterLineStdANSI
  3
"Amdt_StdImp|Product Description: AutoCAD Mechanical|Company: Autodesk"
 90
        0
280
     0
281
     0
  0
CLASS
  1
ACMBOM
  2
AcmBom
  3
"AcmSymBB|Product Description: AutoCAD Mechanical|Company: Autodesk"
 90
    32768
280
     0
281
     0
  0
CLASS
  1
ACMDATAENTRYPART
  2
AcmDataEntryPart
  3
"AcmSymBB|Product Description: AutoCAD Mechanical|Company: Autodesk"
 90
    32768
280
     0
281
     0
  0
CLASS
  1
ACMPARTREF
  2
AcmPartRef
  3
"AcmSymBB|Product Description: AutoCAD Mechanical|Company: Autodesk"
 90
    35839
280
     0
281
     1
  0
CLASS
  1
ACDBCIRCARCRES
  2
AcDbCircArcRes
  3
AcGrefServices
 90
    32768
280
     0
281
     0
  0
CLASS
  1
ACMBOMROW
  2
AcmBomRow
  3
"AcmSymBB|Product Description: AutoCAD Mechanical|Company: Autodesk"
 90
    32768
280
     0
281
     0
  0
CLASS
  1
ACMBALLOON
  2
AcmBalloon
  3
"AcmSymBB|Product Description: AutoCAD Mechanical|Company: Autodesk"
 90
    35839
280
     0
281
     1
  0
CLASS
  1
AMDTNOTE
  2
AmdtNote
  3
"AcmSymBB|Product Description: AutoCAD Mechanical|Company: Autodesk"
 90
    35839
280
     0
281
     1
  0
CLASS
  1
STDPART2D
  2
AmgStdPart
  3
"AmgStdPart|Product Description: AutoCAD Mechanical|Company: Autodesk"
 90
    35839
280
     0
281
     1
  0
CLASS
  1
ACDBSTDPARTRES_LINE
  2
AcDbStdPartRes_Line
  3
"AmgStdPart|Product Description: AutoCAD Mechanical|Company: Autodesk"
 90
    32768
280
     0
281
     0
  0
CLASS
  1
ACMDATAENTRY
  2
AcmDataEntry
  3
"AcmSymBB|Product Description: AutoCAD Mechanical|Company: Autodesk"
 90
    32768
280
     0
281
     0
  0
CLASS
  1
ACDBOPPOLYLINERES
  2
AcDbOpPolylineRes
  3
AcGrefServices
 90
    32768
280
     0
281
     0
  0
CLASS
  1
ACMPARTLIST
  2
AcmPartList
  3
"AcmSymBB|Product Description: AutoCAD Mechanical|Company: Autodesk"
 90
    35839
280
     0
281
     1
  0
CLASS
  1
ACDBLINERES
  2
AcDbLineRes
  3
AcGrefServices
 90
    32768
280
     0
281
     0
  0
CLASS
  1
ACRFINSADJ
  2
AcRfInsAdjuster
  3
AcMeServices
 90
    32768
280
     0
281
     0
  0
CLASS
  1
AM_DRAWING_MGR
  2
AcDmDwgMgr
  3
AcMechDwgViewMgmt
 90
        0
280
     0
281
     0
  0
CLASS
  1
AM_DWG_DOCUMENT
  2
AcDmDwgDocument
  3
AcMechDwgViewMgmt
 90
        0
280
     0
281
     0
  0
CLASS
  1
AM_DWG_SHEET
  2
AcDmSheet
  3
AcMechDwgViewMgmt
 90
        0
280
     0
281
     0
  0
CLASS
  1
AM_VIEWDIMPARMAP
  2
AcDmViewDimParMap
  3
AcMechDwgViewMgmt
 90
        0
280
     0
281
     0
  0
CLASS
  1
AM_DWGMGR_NAME
  2
AcDmDwgMgrName
  3
AcMechDwgViewMgmt
 90
        0
280
     0
281
     0
  0
CLASS
  1
AMDTMENUSTATEMGR
  2
AmdtMenuStateMgr
  3
McadcomServices
 90
        0
280
     0
281
     0
  0
CLASS
  1
AMDTMCOMMENUSTATE
  2
AmdtMcomMenuState
  3
McadcomServices
 90
        0
280
     0
281
     0
  0
CLASS
  1
ASAPP
  2
AcAsAppObject
  3
AutoSurfServices
 90
        0
280
     0
281
     0
  0
CLASS
  1
IM_STATIC_MAN
  2
AcImStaticVarManager
  3
AcMeServices
 90
    32768
280
     0
281
     0
  0
CLASS
  1
ACIMDBLSTATICVAR
  2
AcImDblStaticVar
  3
AcMeServices
 90
    32768
280
     0
281
     0
  0
CLASS
  1
ACIMSTRSTATICVAR
  2
AcImStrStaticVar
  3
AcMeServices
 90
    32768
280
     0
281
     0
  0
CLASS
  1
ACIMINTSTATICVAR
  2
AcImIntStaticVar
  3
AcMeServices
 90
    32768
280
     0
281
     0
  0
CLASS
  1
ACASGREFMASTER
  2
AcAsGrefMaster
  3
AutoSurfResolverServices
 90
        0
280
     0
281
     0
  0
CLASS
  1
ACADGREFMODULE
  2
AcAdGrefModule
  3
AdGrefServices
 90
        0
280
     0
281
     0
  0
CLASS
  1
AMDTMAPISURFMOUDULE
  2
AmdtMApiSurfModule
  3
MApiSurfServices
 90
        0
280
     0
281
     0
  0
CLASS
  1
MAPIAMMOUDLE
  2
MApiAmModule
  3
MApiAmServices
 90
        0
280
     0
281
     0
  0
CLASS
  1
AMDTADMENUSTATE
  2
AmdtAdMenuState
  3
DesignerServices
 90
        0
280
     0
281
     0
  0
CLASS
  1
ADAPPL
  2
AcAdAppl
  3
DesignerServices
 90
        0
280
     0
281
     0
  0
CLASS
  1
DEPMGR
  2
AcAdDepMgr
  3
DesignerServices
 90
        0
280
     0
281
     0
  0
CLASS
  1
PARAMMGR
  2
AcAdParamMgr
  3
DesignerServices
 90
        0
280
     0
281
     0
  0
CLASS
  1
PARAMSCOPE
  2
AcAdParamScope
  3
DesignerServices
 90
        0
280
     0
281
     0
  0
CLASS
  1
NAMEDAPPL
  2
AcAdNamedAppl
  3
DesignerServices
 90
        0
280
     0
281
     0
  0
CLASS
  1
ADHNTMPLT
  2
AdHoleNoteTemplateMgr
  3
DesignerServices
 90
    32768
280
     0
281
     0
  0
CLASS
  1
AM_HNTEMPLATE_MGR_NAME
  2
AdHoleNoteTemplateMgrName
  3
DesignerServices
 90
    32768
280
     0
281
     0
  0
CLASS
  1
AMDTDMMENUSTATE
  2
AmdtDmMenuState
  3
AcMechDwgViewMgmt
 90
        0
280
     0
281
     0
  0
CLASS
  1
MAPIADMODULE
  2
MApiAdModule
  3
MApiAdServices
 90
        0
280
     0
281
     0
  0
CLASS
  1
AMDTAMMENUSTATE
  2
AmdtAmMenuState
  3
DesignerAssemblies
 90
        0
280
     0
281
     0
  0
CLASS
  1
ACAMPROJECT
  2
AcAmProject
  3
DesignerAssemblies
 90
        0
280
     0
281
     0
  0
CLASS
  1
ACAMGRCOMPDEF
  2
AcAmGrCompDef
  3
DesignerAssemblies
 90
        0
280
     0
281
     0
  0
CLASS
  1
ACCMCONTEXT
  2
AcCmContext
  3
DesignerAssemblies
 90
        0
280
     0
281
     0
  0
CLASS
  1
ACAMCOMPDEF
  2
AcAmCompDef
  3
DesignerAssemblies
 90
        0
280
     0
281
     0
  0
CLASS
  1
ACAMCOMPDEFMGR
  2
AcAmCompDefMgr
  3
DesignerAssemblies
 90
        0
280
     0
281
     0
  0
CLASS
  1
AMCONTEXTMGR
  2
AcAmContextMgr
  3
DesignerAssemblies
 90
        0
280
     0
281
     0
  0
CLASS
  1
ACAMCONTEXTMODELER
  2
AcAmContextModeler
  3
DesignerAssemblies
 90
        0
280
     0
281
     0
  0
CLASS
  1
CATALOGSTATE
  2
AcAmCatalogState
  3
DesignerAssemblies
 90
        0
280
     0
281
     0
  0
CLASS
  1
ACAMGRCOMPDEFSET
  2
AcAmGrCompDefSet
  3
DesignerAssemblies
 90
        0
280
     0
281
     0
  0
CLASS
  1
AMDTBROWSERDBTAB
  2
AmdtBrowserDbTab
  3
McadcomServices
 90
        0
280
     0
281
     0
  0
CLASS
  1
CBROWSERAPPOBJECT
  2
CBrowserAppObject
  3
McadcomServices
 90
        0
280
     0
281
     0
  0
CLASS
  1
DM_PLACEHOLDER
  2
AcDmSelsetPlaceholder
  3
AcMechDwgViewMgmt
 90
        0
280
     0
281
     0
  0
CLASS
  1
ACMPICKOBJ
  2
AcmPickEnt
  3
"AcmSymBB|Product Description: AutoCAD Mechanical|Company: Autodesk"
 90
    32768
280
     0
281
     1
  0
CLASS
  1
ACMNOTESTANDARDISO
  2
AmdtNoteStdISO
  3
"Amdt_StdImp|Product Description: AutoCAD Mechanical|Company: Autodesk"
 90
        0
280
     0
281
     0
  0
CLASS
  1
ACMNOTESTANDARDANSI
  2
AmdtNoteStdANSI
  3
"Amdt_StdImp|Product Description: AutoCAD Mechanical|Company: Autodesk"
 90
        0
280
     0
281
     0
  0
CLASS
  1
ACMTHREADLINESTANDARDISO
  2
AmdtThreadLineStdISO
  3
"Amdt_StdImp|Product Description: AutoCAD Mechanical|Company: Autodesk"
 90
        0
280
     0
281
     0
  0
CLASS
  1
ACMTHREADLINESTANDARDANSI
  2
AmdtThreadLineStdANSI
  3
"Amdt_StdImp|Product Description: AutoCAD Mechanical|Company: Autodesk"
 90
        0
280
     0
281
     0
  0
CLASS
  1
TABLESTYLE
  2
AcDbTableStyle
  3
ObjectDBX Classes
 90
     4095
280
     0
281
     0
  0
CLASS
  1
SORTENTSTABLE
  2
AcDbSortentsTable
  3
ObjectDBX Classes
 90
        0
280
     0
281
     0
  0
CLASS
  1
EXACXREFPANELOBJECT
  2
ExAcXREFPanelObject
  3
EXAC_ESW
 90
    32768
280
     0
281
     0
  0
CLASS
  1
DIMASSOC
  2
AcDbDimAssoc
  3
"AcDbDimAssoc|Product Desc:     AcDim ARX App For Dimension|Company:          Autodesk, Inc.|WEB Address:      www.autodesk.com"
 90
        0
280
     0
281
     0
  0
CLASS
  1
AMDTNOTETEMPLATEDB
  2
AmdtNoteTemplateDB
  3
AMDT_STDIMP_MODULE_NAME
 90
        0
280
     0
281
     0
  0
CLASS
  1
AMDTDETAILSYM
  2
AmdtDetailSym
  3
"AcmSymBB|Product Description: AutoCAD Mechanical|Company: Autodesk"
 90
    35839
280
     0
281
     1
  0
CLASS
  1
AMDTDETAILSYMLABEL
  2
AmdtDetailSymLabel
  3
"AcmSymBB|Product Description: AutoCAD Mechanical|Company: Autodesk"
 90
    35839
280
     0
281
     1
  0
CLASS
  1
AMDTEDGESTANDARDISO13715
  2
AmdtEdgeStdISO13715
  3
"Amdt_StdImp|Product Description: AutoCAD Mechanical|Company: Autodesk"
 90
        0
280
     0
281
     0
  0
CLASS
  1
ACAMGHOLECHARTSTDISO
  2
AcAmgHoleChartStdISO
  3
ACMSYMBB_MODULE_NAME
 90
        0
280
     0
281
     0
  0
CLASS
  1
MATERIAL
  2
AcDbMaterial
  3
ObjectDBX Classes
 90
     1153
280
     0
281
     0
  0
CLASS
  1
VISUALSTYLE
  2
AcDbVisualStyle
  3
ObjectDBX Classes
 90
     4095
280
     0
281
     0
  0
CLASS
  1
ACMTAPERSTANDARDISO
  2
AcmTaperStdISO
  3
"Amdt_StdImp|Product Description: AutoCAD Mechanical|Company: Autodesk"
 90
        0
280
     0
281
     0
  0
CLASS
  1
CAMSSTRUCTBTNSTATE
  2
StructBtnState
  3
L"DesignerAssemblies"
 90
        0
280
     0
281
     0
  0
CLASS
  1
ACMTAPERSTANDARDANSI
  2
AcmTaperStdANSI
  3
"Amdt_StdImp|Product Description: AutoCAD Mechanical|Company: Autodesk"
 90
        0
280
     0
281
     0
  0
CLASS
  1
ACAMGHOLECHARTSTDANSI
  2
AcAmgHoleChartStdANSI
  3
ACMSYMBB_MODULE_NAME
 90
        0
280
     0
281
     0
  0
ENDSEC
  0
SECTION
  2
TABLES
  0
TABLE
  2
VPORT
  5
8
330
0
100
AcDbSymbolTable
 70
     1
  0
VPORT
  5
2CFC1
330
8
100
AcDbSymbolTableRecord
100
AcDbViewportTableRecord
  2
*Active
 70
     0
 10
0.0
 20
0.0
 11
1.0
 21
1.0
 12
740.1594400621354
 22
694.4509309722921
 13
0.0
 23
0.0
 14
2.5
 24
2.5
 15
10.0
 25
10.0
 16
0.0
 26
0.0
 36
1.0
 17
0.0
 27
0.0
 37
0.0
 40
299.1896018754455
 41
2.198356807511737
 42
50.0
 43
-1370.695619172058
 44
-1370.695619172058
 50
0.0
 51
0.0
 71
    16
 72
   100
 73
     1
 74
     3
 75
     0
 76
     0
 77
     0
 78
     0
281
     0
 65
     0
110
0.0
120
0.0
130
0.0
111
1.0
121
0.0
131
0.0
112
0.0
122
1.0
132
0.0
 79
     0
146
0.0
  0
ENDTAB
  0
TABLE
  2
LTYPE
  5
5
330
0
100
AcDbSymbolTable
 70
    38
  0
LTYPE
  5
14
330
5
100
AcDbSymbolTableRecord
100
AcDbLinetypeTableRecord
  2
ByBlock
 70
     0
  3

 72
    65
 73
     0
 40
0.0
  0
LTYPE
  5
15
330
5
100
AcDbSymbolTableRecord
100
AcDbLinetypeTableRecord
  2
ByLayer
 70
     0
  3

 72
    65
 73
     0
 40
0.0
  0
LTYPE
  5
16
330
5
100
AcDbSymbolTableRecord
100
AcDbLinetypeTableRecord
  2
Continuous
 70
     0
  3
Solid line
 72
    65
 73
     0
 40
0.0
  0
LTYPE
  5
4F
330
5
100
AcDbSymbolTableRecord
100
AcDbLinetypeTableRecord
  2
AM_ISO02W050
 70
     0
  3
__ __ __ __ __ __ __ __ __ __ __ __ __ __ __
 72
    65
 73
     2
 40
7.5
 49
6.0
 74
     0
 49
-1.5
 74
     0
  0
LTYPE
  5
52
330
5
100
AcDbSymbolTableRecord
100
AcDbLinetypeTableRecord
  2
Amconstr
 70
     0
  3
_______________________
 72
    65
 73
     2
 40
9999.0
 49
9999.0
 74
     0
 49
0.0
 74
     0
  0
LTYPE
  5
64
330
5
100
AcDbSymbolTableRecord
100
AcDbLinetypeTableRecord
  2
ACISOWELD
 70
     0
  3
_ _ _ _ _
 72
    65
 73
     2
 40
2.0
 49
2.0
 74
     0
 49
-1.0
 74
     0
  0
LTYPE
  5
65
330
5
100
AcDbSymbolTableRecord
100
AcDbLinetypeTableRecord
  2
ACISOTGB
 70
     0
  3
__ . . __ . .
 72
    65
 73
     6
 40
9.0
 49
4.0
 74
     0
 49
-1.0
 74
     0
 49
1.0
 74
     0
 49
-1.0
 74
     0
 49
1.0
 74
     0
 49
-1.0
 74
     0
  0
LTYPE
  5
66
330
5
100
AcDbSymbolTableRecord
100
AcDbLinetypeTableRecord
  2
ACISOTGL
 70
     0
  3
_ _ _ _ _
 72
    65
 73
     2
 40
3.0
 49
2.0
 74
     0
 49
-1.0
 74
     0
  0
LTYPE
  5
69
330
5
100
AcDbSymbolTableRecord
100
AcDbLinetypeTableRecord
  2
CENTER
 70
     0
  3
__ . __
 72
    65
 73
     4
 40
7.0
 49
4.0
 74
     0
 49
-1.0
 74
     0
 49
1.0
 74
     0
 49
-1.0
 74
     0
  0
LTYPE
  5
A6E
330
5
100
AcDbSymbolTableRecord
100
AcDbLinetypeTableRecord
  2
PHANTOM2
 70
     0
  3
Phantom (.5x) ___ _ _ ___ _ _ ___ _ _ ___ _ _
 72
    65
 73
     6
 40
31.75
 49
15.875
 74
     0
 49
-3.174999999999998
 74
     0
 49
3.174999999999998
 74
     0
 49
-3.174999999999998
 74
     0
 49
3.174999999999998
 74
     0
 49
-3.174999999999998
 74
     0
  0
LTYPE
  5
4DED
330
5
100
AcDbSymbolTableRecord
100
AcDbLinetypeTableRecord
  2
中線
 70
     0
  3
___________________
 72
    65
 73
     2
 40
2.0
 49
1.0
 74
     0
 49
1.0
 74
     0
  0
LTYPE
  5
4DF6
330
5
100
AcDbSymbolTableRecord
100
AcDbLinetypeTableRecord
  2
細線
 70
     0
  3
___________________
 72
    65
 73
     2
 40
2.0
 49
1.0
 74
     0
 49
1.0
 74
     0
  0
LTYPE
  5
4DF7
330
5
100
AcDbSymbolTableRecord
100
AcDbLinetypeTableRecord
  2
太線
 70
     0
  3
___________________
 72
    65
 73
     2
 40
2.0
 49
1.0
 74
     0
 49
1.0
 74
     0
  0
LTYPE
  5
4EA7
330
5
100
AcDbSymbolTableRecord
100
AcDbLinetypeTableRecord
  2
文字
 70
     0
  3
_________________
 72
    65
 73
     2
 40
2.0
 49
1.0
 74
     0
 49
1.0
 74
     0
  0
LTYPE
  5
4EA9
330
5
100
AcDbSymbolTableRecord
100
AcDbLinetypeTableRecord
  2
寸法線
 70
     0
  3
________________
 72
    65
 73
     2
 40
2.0
 49
1.0
 74
     0
 49
1.0
 74
     0
  0
LTYPE
  5
4F12
330
5
100
AcDbSymbolTableRecord
100
AcDbLinetypeTableRecord
  2
ハッチング
 70
     0
  3
_________________
 72
    65
 73
     2
 40
2.0
 49
1.0
 74
     0
 49
1.0
 74
     0
  0
LTYPE
  5
5180
330
5
100
AcDbSymbolTableRecord
100
AcDbLinetypeTableRecord
  2
陰線1
 70
     0
  3
__ __ __ __
 72
    65
 73
     2
 40
4.0
 49
2.2
 74
     0
 49
-1.8
 74
     0
  0
LTYPE
  5
5182
330
5
100
AcDbSymbolTableRecord
100
AcDbLinetypeTableRecord
  2
切断線
 70
     0
  3
/\/-/\/-/\/-/\/-/\/-/\/
 72
    65
 73
     2
 40
11.0001
 49
0.0001
 74
     4
 75
   135
340
56
 46
0.04
 50
0.0
 44
0.0
 45
0.0
 49
-11.0
 74
     0
  0
LTYPE
  5
5183
330
5
100
AcDbSymbolTableRecord
100
AcDbLinetypeTableRecord
  2
想像線1
 70
     0
  3
__ __ __ _____ __ __ ____
 72
    65
 73
     6
 40
14.5
 49
6.0
 74
     0
 49
-1.5
 74
     0
 49
2.0
 74
     0
 49
-1.5
 74
     0
 49
2.0
 74
     0
 49
-1.5
 74
     0
  0
LTYPE
  5
5185
330
5
100
AcDbSymbolTableRecord
100
AcDbLinetypeTableRecord
  2
中心線1
 70
     0
  3
___ _ ___ _ ___
 72
    65
 73
     4
 40
18.0
 49
12.0
 74
     0
 49
-2.0
 74
     0
 49
2.0
 74
     0
 49
-2.0
 74
     0
  0
LTYPE
  5
5188
330
5
100
AcDbSymbolTableRecord
100
AcDbLinetypeTableRecord
  2
補助線
 70
     0
  3
______________
 72
    65
 73
     2
 40
2.0
 49
1.0
 74
     0
 49
1.0
 74
     0
  0
LTYPE
  5
6427
330
5
100
AcDbSymbolTableRecord
100
AcDbLinetypeTableRecord
  2
HIDDEN
 70
     0
  3
Hidden __ __ __ __ __ __ __ __ __ __ __ __ __ _
 72
    65
 73
     2
 40
0.375
 49
0.25
 74
     0
 49
-0.125
 74
     0
  0
LTYPE
  5
AC81
330
5
100
AcDbSymbolTableRecord
100
AcDbLinetypeTableRecord
  2
破断線
 70
     0
  3
/\/-/\/-/\/-/\/-/\/-/\/
 72
    65
 73
     2
 40
0.4401
 49
0.0001
 74
     4
 75
   136
340
AC80
 46
0.0016
 50
0.0
 44
0.0
 45
0.0
 49
-0.4400000000000003
 74
     0
  0
LTYPE
  5
AC9E
330
5
100
AcDbSymbolTableRecord
100
AcDbLinetypeTableRecord
  2
Amzigzag
 70
     0
  3
/\/-/\/-/\/-/\/-/\/-/\/
 72
    65
 73
     2
 40
11.0001
 49
0.0001
 74
     4
 75
   135
340
56
 46
0.04
 50
0.0
 44
0.0
 45
0.0
 49
-11.0
 74
     0
  0
LTYPE
  5
AF0F
330
5
100
AcDbSymbolTableRecord
100
AcDbLinetypeTableRecord
  2
genzigzag
 70
     0
  3
/\/-/\/-/\/-/\/-/\/-/\/
 72
    65
 73
     2
 40
12.0001
 49
0.0001
 74
     4
 75
   135
340
AC80
 46
2.0
 50
0.0
 44
0.0
 45
0.0
 49
-12.0
 74
     0
  0
LTYPE
  5
AF95
330
5
100
AcDbSymbolTableRecord
100
AcDbLinetypeTableRecord
  2
AM_ISO08W050
 70
     0
  3
____ . ____ . ____ . ____ . ____ . ____ . ____
 72
    65
 73
     4
 40
18.0
 49
12.0
 74
     0
 49
-1.5
 74
     0
 49
3.0
 74
     0
 49
-1.5
 74
     0
  0
LTYPE
  5
AF96
330
5
100
AcDbSymbolTableRecord
100
AcDbLinetypeTableRecord
  2
AM_ISO09W050
 70
     0
  3
_____ . . _____ . . _____ . . ____ .. ____
 72
    65
 73
     6
 40
22.5
 49
12.0
 74
     0
 49
-1.5
 74
     0
 49
3.0
 74
     0
 49
-1.5
 74
     0
 49
3.0
 74
     0
 49
-1.5
 74
     0
  0
LTYPE
  5
AF97
330
5
100
AcDbSymbolTableRecord
100
AcDbLinetypeTableRecord
  2
AM_ISO08W050x2
 70
     0
  3
__ . __ . __ . __ . __ . __
 72
    65
 73
     4
 40
9.0
 49
6.0
 74
     0
 49
-0.75
 74
     0
 49
1.5
 74
     0
 49
-0.75
 74
     0
  0
LTYPE
  5
AF98
330
5
100
AcDbSymbolTableRecord
100
AcDbLinetypeTableRecord
  2
AM_ISO02W050x2
 70
     0
  3
 _ _ _ _ _ _ _ _ _ _ _ _
 72
    65
 73
     2
 40
3.75
 49
3.0
 74
     0
 49
-0.75
 74
     0
  0
LTYPE
  5
B168
330
5
100
AcDbSymbolTableRecord
100
AcDbLinetypeTableRecord
  2
CHAIN
 70
     0
  3
Chain ____ _ ____ _ ____ _ ____ _ ____ _ ____
 72
    65
 73
     4
 40
0.3543
 49
0.2362
 74
     0
 49
-0.0295
 74
     0
 49
0.0591
 74
     0
 49
-0.0295
 74
     0
  0
LTYPE
  5
B169
330
5
100
AcDbSymbolTableRecord
100
AcDbLinetypeTableRecord
  2
DOUBLE_DASH_CHAIN
 70
     0
  3
Double Dash Chain ___ _ _ ___ _ _ ___ _ _ ___ _
 72
    65
 73
     6
 40
1.240299999999997
 49
0.6614
 74
     0
 49
-0.0827
 74
     0
 49
0.1654
 74
     0
 49
-0.0827
 74
     0
 49
0.1654
 74
     0
 49
-0.0827
 74
     0
  0
LTYPE
  5
C97B
330
5
100
AcDbSymbolTableRecord
100
AcDbLinetypeTableRecord
  2
ACANSTGB
 70
     0
  3
__ . . __ . .
 72
    65
 73
     6
 40
0.35433070866
 49
0.15748031496
 74
     0
 49
-0.03937007874
 74
     0
 49
0.03937007874
 74
     0
 49
-0.03937007874
 74
     0
 49
0.03937007874
 74
     0
 49
-0.03937007874
 74
     0
  0
LTYPE
  5
C97C
330
5
100
AcDbSymbolTableRecord
100
AcDbLinetypeTableRecord
  2
ACANSTGL
 70
     0
  3
_ _ _ _ _
 72
    65
 73
     2
 40
0.11811023622
 49
0.07874015748
 74
     0
 49
-0.03937007874
 74
     0
  0
LTYPE
  5
C97D
330
5
100
AcDbSymbolTableRecord
100
AcDbLinetypeTableRecord
  2
陰線2
 70
     0
  3
_ _ _ _
 72
    65
 73
     2
 40
1.199999999999999
 49
0.7
 74
     0
 49
-0.5
 74
     0
  0
LTYPE
  5
C97E
330
5
100
AcDbSymbolTableRecord
100
AcDbLinetypeTableRecord
  2
想像線2
 70
     0
  3
__ _ _ __ _ _ __
 72
    65
 73
     6
 40
6.9
 49
2.5
 74
     0
 49
-0.8
 74
     0
 49
1.0
 74
     0
 49
-0.8
 74
     0
 49
1.0
 74
     0
 49
-0.8
 74
     0
  0
LTYPE
  5
C97F
330
5
100
AcDbSymbolTableRecord
100
AcDbLinetypeTableRecord
  2
中心線2
 70
     0
  3
 -+-
 72
    65
 73
     4
 40
9.5
 49
6.0
 74
     0
 49
-1.0
 74
     0
 49
1.5
 74
     0
 49
-1.0
 74
     0
  0
LTYPE
  5
C980
330
5
100
AcDbSymbolTableRecord
100
AcDbLinetypeTableRecord
  2
中心線3
 70
     0
  3
 +
 72
    65
 73
     4
 40
3.799999999999998
 49
2.0
 74
     0
 49
-0.6
 74
     0
 49
0.6
 74
     0
 49
-0.6
 74
     0
  0
LTYPE
  5
C981
330
5
100
AcDbSymbolTableRecord
100
AcDbLinetypeTableRecord
  2
CENTER2
 70
     0
  3
Center (.5x) ___ _ ___ _ ___ _ ___ _ ___ _ ___
 72
    65
 73
     4
 40
1.125
 49
0.75
 74
     0
 49
-0.125
 74
     0
 49
0.125
 74
     0
 49
-0.125
 74
     0
  0
LTYPE
  5
C982
330
5
100
AcDbSymbolTableRecord
100
AcDbLinetypeTableRecord
  2
HIDDEN2
 70
     0
  3
Hidden (.5x) _ _ _ _ _ _ _ _ _ _ _ _ _ _ _ _ _
 72
    65
 73
     2
 40
0.1875
 49
0.125
 74
     0
 49
-0.0625
 74
     0
  0
LTYPE
  5
C983
330
5
100
AcDbSymbolTableRecord
100
AcDbLinetypeTableRecord
  2
Amzigzag2
 70
     0
  3
/\/-/\/-/\/-/\/-/\/-/\/
 72
    65
 73
     2
 40
0.4401
 49
0.0001
 74
     4
 75
   135
340
56
 46
0.0016
 50
0.0
 44
0.0
 45
0.0
 49
-0.4400000000000003
 74
     0
  0
ENDTAB
  0
TABLE
  2
LAYER
  5
2
102
{ACAD_XDICTIONARY
360
3F95
102
}
330
0
100
AcDbSymbolTable
 70
   154
  0
LAYER
  5
10
330
2
100
AcDbSymbolTableRecord
100
AcDbLayerTableRecord
  2
0
 70
     0
 62
     7
  6
Continuous
370
    -3
390
F
  0
LAYER
  5
6D1
330
2
100
AcDbSymbolTableRecord
100
AcDbLayerTableRecord
  2
Defpoints
 70
     0
 62
     7
  6
Continuous
290
     0
370
    -3
390
F
  0
LAYER
  5
5F85
330
2
100
AcDbSymbolTableRecord
100
AcDbLayerTableRecord
  2
AM_0
 70
     0
 62
     7
  6
中線
370
    25
390
F
1001
AcAecLayerStandard
1000

1000

  0
LAYER
  5
AC9F
330
2
100
AcDbSymbolTableRecord
100
AcDbLayerTableRecord
  2
size
 70
     0
 62
     5
  6
Continuous
290
     0
370
    25
390
F
  0
LAYER
  5
ACA0
330
2
100
AcDbSymbolTableRecord
100
AcDbLayerTableRecord
  2
waku
 70
     0
 62
     7
  6
Continuous
370
    35
390
F
  0
LAYER
  5
ACA1
330
2
100
AcDbSymbolTableRecord
100
AcDbLayerTableRecord
  2
AM_6
 70
     0
 62
     2
  6
文字
370
    15
390
F
1001
AcAecLayerStandard
1000

1000

  0
LAYER
  5
ACC8
330
2
100
AcDbSymbolTableRecord
100
AcDbLayerTableRecord
  2
hyomoji
 70
     0
 62
     2
  6
Continuous
370
    15
390
F
  0
LAYER
  5
ACC9
330
2
100
AcDbSymbolTableRecord
100
AcDbLayerTableRecord
  2
hyosen1
 70
     0
 62
     1
  6
Continuous
370
    25
390
F
  0
LAYER
  5
ACCA
330
2
100
AcDbSymbolTableRecord
100
AcDbLayerTableRecord
  2
hyosen2
 70
     0
 62
     1
  6
Continuous
370
    15
390
F
  0
LAYER
  5
AD60
330
2
100
AcDbSymbolTableRecord
100
AcDbLayerTableRecord
  2
AM_1
 70
     0
 62
    30
  6
太線
370
    25
390
F
1001
AcAecLayerStandard
1000

1000

  0
LAYER
  5
AD64
330
2
100
AcDbSymbolTableRecord
100
AcDbLayerTableRecord
  2
AM_2
 70
     0
 62
     1
  6
細線
370
    15
390
F
1001
AcAecLayerStandard
1000

1000

  0
LAYER
  5
AD67
330
2
100
AcDbSymbolTableRecord
100
AcDbLayerTableRecord
  2
AM_3
 70
     0
 62
     6
  6
陰線1
370
    15
390
F
1001
AcAecLayerStandard
1000

1000

  0
LAYER
  5
AD68
330
2
100
AcDbSymbolTableRecord
100
AcDbLayerTableRecord
  2
AM_5
 70
     0
 62
     3
  6
寸法線
370
    15
390
F
1001
AcAecLayerStandard
1000

1000

  0
LAYER
  5
AD69
330
2
100
AcDbSymbolTableRecord
100
AcDbLayerTableRecord
  2
AM_7
 70
     0
 62
     4
  6
中心線1
370
    15
390
F
1001
AcAecLayerStandard
1000

1000

  0
LAYER
  5
AD6A
330
2
100
AcDbSymbolTableRecord
100
AcDbLayerTableRecord
  2
AM_8
 70
     0
 62
     1
  6
ハッチング
370
    15
390
F
1001
AcAecLayerStandard
1000

1000

  0
LAYER
  5
AD6E
330
2
100
AcDbSymbolTableRecord
100
AcDbLayerTableRecord
  2
AM_10
 70
     0
 62
     7
  6
切断線
370
    25
390
F
1001
AcAecLayerStandard
1000

1000

  0
LAYER
  5
AD6F
330
2
100
AcDbSymbolTableRecord
100
AcDbLayerTableRecord
  2
AM_11
 70
     0
 62
     2
  6
想像線1
370
    15
390
F
1001
AcAecLayerStandard
1000

1000

  0
LAYER
  5
B16A
330
2
100
AcDbSymbolTableRecord
100
AcDbLayerTableRecord
  2
Section Line (ISO)
 70
     0
 62
     7
  6
CHAIN
370
    70
390
F
  0
LAYER
  5
B16B
330
2
100
AcDbSymbolTableRecord
100
AcDbLayerTableRecord
  2
ビス-AM_0
 70
     0
 62
     7
  6
中線
370
    25
390
F
1001
AcAecLayerStandard
1000

1000

  0
LAYER
  5
B16C
330
2
100
AcDbSymbolTableRecord
100
AcDbLayerTableRecord
  2
ビス-AM_2
 70
     0
 62
     1
  6
細線
370
    15
390
F
1001
AcAecLayerStandard
1000

1000

  0
LAYER
  5
BFC7
330
2
100
AcDbSymbolTableRecord
100
AcDbLayerTableRecord
  2
AM_12
 70
     0
 62
     7
  6
Continuous
290
     0
370
    15
390
F
1001
AcAecLayerStandard
1000

1000

  0
LAYER
  5
BFC8
330
2
100
AcDbSymbolTableRecord
100
AcDbLayerTableRecord
  2
AM_PAREF
 70
     0
 62
     4
  6
Continuous
290
     0
370
    15
390
F
1001
AcAecLayerStandard
1000

1000

  0
LAYER
  5
C984
330
2
100
AcDbSymbolTableRecord
100
AcDbLayerTableRecord
  2
1
 70
     0
 62
     7
  6
Continuous
370
    -3
390
F
  0
LAYER
  5
C985
330
2
100
AcDbSymbolTableRecord
100
AcDbLayerTableRecord
  2
AM_BOR
 70
     0
 62
     7
  6
Continuous
370
    25
390
F
  0
LAYER
  5
C986
330
2
100
AcDbSymbolTableRecord
100
AcDbLayerTableRecord
  2
AM_4
 70
     0
 62
     3
  6
補助線
370
    15
390
F
  0
LAYER
  5
C987
330
2
100
AcDbSymbolTableRecord
100
AcDbLayerTableRecord
  2
AM_FEA-AM_1
 70
     0
 62
    30
  6
太線
370
    25
390
F
  0
LAYER
  5
C988
330
2
100
AcDbSymbolTableRecord
100
AcDbLayerTableRecord
  2
AM_FEA-AM_6
 70
     0
 62
     2
  6
文字
370
    15
390
F
  0
LAYER
  5
C989
330
2
100
AcDbSymbolTableRecord
100
AcDbLayerTableRecord
  2
AM_CL
 70
     0
 62
     1
  6
Amconstr
370
    15
390
F
  0
LAYER
  5
C98A
330
2
100
AcDbSymbolTableRecord
100
AcDbLayerTableRecord
  2
busen1
 70
     0
 62
    30
  6
Continuous
370
    40
390
F
  0
LAYER
  5
C98B
330
2
100
AcDbSymbolTableRecord
100
AcDbLayerTableRecord
  2
busen2
 70
     0
 62
     2
  6
Continuous
370
    20
390
F
  0
LAYER
  5
C98C
330
2
100
AcDbSymbolTableRecord
100
AcDbLayerTableRecord
  2
PV0001_1
 70
     0
 62
     7
  6
Continuous
370
    -3
390
F
  0
LAYER
  5
D2C4
330
2
100
AcDbSymbolTableRecord
100
AcDbLayerTableRecord
  2
表示板-AM_0
 70
     0
 62
     7
  6
中線
370
    25
390
F
1001
AcAecLayerStandard
1000

1000

  0
LAYER
  5
D4A1
330
2
100
AcDbSymbolTableRecord
100
AcDbLayerTableRecord
  2
ラッチ座-AM_0
 70
     0
 62
     7
  6
中線
370
    25
390
F
1001
AcAecLayerStandard
1000

1000

  0
LAYER
  5
D4A2
330
2
100
AcDbSymbolTableRecord
100
AcDbLayerTableRecord
  2
ラッチ座-AM_3
 70
     0
 62
     6
  6
陰線1
370
    15
390
F
1001
AcAecLayerStandard
1000

1000

  0
LAYER
  5
D5C2
330
2
100
AcDbSymbolTableRecord
100
AcDbLayerTableRecord
  2
表示カバー-AM_0
 70
     0
 62
     7
  6
中線
370
    25
390
F
1001
AcAecLayerStandard
1000

1000

  0
LAYER
  5
D5C3
330
2
100
AcDbSymbolTableRecord
100
AcDbLayerTableRecord
  2
表示カバー-AM_3
 70
     0
 62
     6
  6
陰線1
370
    15
390
F
1001
AcAecLayerStandard
1000

1000

  0
LAYER
  5
D5C4
330
2
100
AcDbSymbolTableRecord
100
AcDbLayerTableRecord
  2
表示カバー-AM_5
 70
     0
 62
     3
  6
寸法線
370
    15
390
F
1001
AcAecLayerStandard
1000

1000

  0
LAYER
  5
D5C5
330
2
100
AcDbSymbolTableRecord
100
AcDbLayerTableRecord
  2
表示カバー-AM_7
 70
     0
 62
     4
  6
中心線1
370
    15
390
F
1001
AcAecLayerStandard
1000

1000

  0
LAYER
  5
D849
330
2
100
AcDbSymbolTableRecord
100
AcDbLayerTableRecord
  2
Hatch (ISO)
 70
     0
 62
     7
  6
Continuous
370
    18
390
F
  0
LAYER
  5
D84A
330
2
100
AcDbSymbolTableRecord
100
AcDbLayerTableRecord
  2
Symbol (ISO)
 70
     0
 62
     7
  6
Continuous
370
    25
390
F
  0
LAYER
  5
D84B
330
2
100
AcDbSymbolTableRecord
100
AcDbLayerTableRecord
  2
Visible (ISO)
 70
     0
 62
     7
  6
Continuous
370
    50
390
F
  0
LAYER
  5
E2E6
330
2
100
AcDbSymbolTableRecord
100
AcDbLayerTableRecord
  2
ストッパー-AM_0
 70
     0
 62
     7
  6
中線
370
    25
390
F
1001
AcAecLayerStandard
1000

1000

  0
LAYER
  5
E2E7
330
2
100
AcDbSymbolTableRecord
100
AcDbLayerTableRecord
  2
ストッパー-AM_6
 70
     0
 62
     2
  6
文字
370
    15
390
F
1001
AcAecLayerStandard
1000

1000

  0
LAYER
  5
E2F2
330
2
100
AcDbSymbolTableRecord
100
AcDbLayerTableRecord
  2
ストッパー-AM_5
 70
     0
 62
     3
  6
寸法線
370
    15
390
F
1001
AcAecLayerStandard
1000

1000

  0
LAYER
  5
E527
330
2
100
AcDbSymbolTableRecord
100
AcDbLayerTableRecord
  2
ストッパー-AM_3
 70
     0
 62
     6
  6
陰線1
370
    15
390
F
1001
AcAecLayerStandard
1000

1000

  0
LAYER
  5
E5B3
330
2
100
AcDbSymbolTableRecord
100
AcDbLayerTableRecord
  2
ストッパー-AM_7
 70
     0
 62
     4
  6
中心線1
370
    15
390
F
1001
AcAecLayerStandard
1000

1000

  0
LAYER
  5
E61B
330
2
100
AcDbSymbolTableRecord
100
AcDbLayerTableRecord
  2
表示カバー-AM_11
 70
     0
 62
     2
  6
想像線1
370
    15
390
F
1001
AcAecLayerStandard
1000

1000

  0
LAYER
  5
E782
330
2
100
AcDbSymbolTableRecord
100
AcDbLayerTableRecord
  2
ラッチ座-AM_7
 70
     0
 62
     4
  6
中心線1
370
    15
390
F
1001
AcAecLayerStandard
1000

1000

  0
LAYER
  5
E783
330
2
100
AcDbSymbolTableRecord
100
AcDbLayerTableRecord
  2
ラッチ座-AM_5
 70
     0
 62
     3
  6
寸法線
370
    15
390
F
1001
AcAecLayerStandard
1000

1000

  0
LAYER
  5
E784
330
2
100
AcDbSymbolTableRecord
100
AcDbLayerTableRecord
  2
ラッチ座-AM_4
 70
     0
 62
     3
  6
補助線
370
    15
390
F
1001
AcAecLayerStandard
1000

1000

  0
LAYER
  5
EC35
330
2
100
AcDbSymbolTableRecord
100
AcDbLayerTableRecord
  2
表示カバー-AM_2
 70
     0
 62
     1
  6
細線
370
    15
390
F
1001
AcAecLayerStandard
1000

1000

  0
LAYER
  5
EFB5
330
2
100
AcDbSymbolTableRecord
100
AcDbLayerTableRecord
  2
表示座-AM_0
 70
     0
 62
     7
  6
中線
370
    25
390
F
1001
AcAecLayerStandard
1000

1000

  0
LAYER
  5
EFB6
330
2
100
AcDbSymbolTableRecord
100
AcDbLayerTableRecord
  2
表示座-AM_8
 70
     0
 62
     1
  6
ハッチング
370
    15
390
F
1001
AcAecLayerStandard
1000

1000

  0
LAYER
  5
EFB7
330
2
100
AcDbSymbolTableRecord
100
AcDbLayerTableRecord
  2
表示座-AM_7
 70
     0
 62
     4
  6
中心線1
370
    15
390
F
1001
AcAecLayerStandard
1000

1000

  0
LAYER
  5
F048
330
2
100
AcDbSymbolTableRecord
100
AcDbLayerTableRecord
  2
台座-AM_0
 70
     0
 62
     7
  6
中線
370
    25
390
F
1001
AcAecLayerStandard
1000

1000

  0
LAYER
  5
F049
330
2
100
AcDbSymbolTableRecord
100
AcDbLayerTableRecord
  2
台座-AM_8
 70
     0
 62
     1
  6
ハッチング
370
    15
390
F
1001
AcAecLayerStandard
1000

1000

  0
LAYER
  5
F04A
330
2
100
AcDbSymbolTableRecord
100
AcDbLayerTableRecord
  2
台座-AM_2
 70
     0
 62
     1
  6
細線
370
    15
390
F
1001
AcAecLayerStandard
1000

1000

  0
LAYER
  5
F04B
330
2
100
AcDbSymbolTableRecord
100
AcDbLayerTableRecord
  2
台座-AM_7
 70
     0
 62
     4
  6
中心線1
370
    15
390
F
1001
AcAecLayerStandard
1000

1000

  0
LAYER
  5
F04C
330
2
100
AcDbSymbolTableRecord
100
AcDbLayerTableRecord
  2
台座-AM_5
 70
     0
 62
     3
  6
寸法線
370
    15
390
F
1001
AcAecLayerStandard
1000

1000

  0
LAYER
  5
F24C
330
2
100
AcDbSymbolTableRecord
100
AcDbLayerTableRecord
  2
ラッチ座-AM_8
 70
     0
 62
     1
  6
ハッチング
370
    15
390
F
1001
AcAecLayerStandard
1000

1000

  0
LAYER
  5
F508
330
2
100
AcDbSymbolTableRecord
100
AcDbLayerTableRecord
  2
台座-AM_4
 70
     0
 62
     3
  6
補助線
370
    15
390
F
1001
AcAecLayerStandard
1000

1000

  0
LAYER
  5
F522
330
2
100
AcDbSymbolTableRecord
100
AcDbLayerTableRecord
  2
表示カバー-AM_4
 70
     0
 62
     3
  6
補助線
370
    15
390
F
1001
AcAecLayerStandard
1000

1000

  0
LAYER
  5
F524
330
2
100
AcDbSymbolTableRecord
100
AcDbLayerTableRecord
  2
表示カバー-AM_8
 70
     0
 62
     1
  6
ハッチング
370
    15
390
F
1001
AcAecLayerStandard
1000

1000

  0
LAYER
  5
F589
330
2
100
AcDbSymbolTableRecord
100
AcDbLayerTableRecord
  2
ギア-AM_0
 70
     0
 62
     7
  6
中線
370
    25
390
F
1001
AcAecLayerStandard
1000

1000

  0
LAYER
  5
F58A
330
2
100
AcDbSymbolTableRecord
100
AcDbLayerTableRecord
  2
ギア-AM_7
 70
     0
 62
     4
  6
中心線1
370
    15
390
F
1001
AcAecLayerStandard
1000

1000

  0
LAYER
  5
F58B
330
2
100
AcDbSymbolTableRecord
100
AcDbLayerTableRecord
  2
ギア-AM_8
 70
     0
 62
     1
  6
ハッチング
370
    15
390
F
1001
AcAecLayerStandard
1000

1000

  0
LAYER
  5
F609
330
2
100
AcDbSymbolTableRecord
100
AcDbLayerTableRecord
  2
補強板-AM_0
 70
     0
 62
     7
  6
中線
370
    25
390
F
1001
AcAecLayerStandard
1000

1000

  0
LAYER
  5
F60A
330
2
100
AcDbSymbolTableRecord
100
AcDbLayerTableRecord
  2
補強板-AM_7
 70
     0
 62
     4
  6
中心線1
370
    15
390
F
1001
AcAecLayerStandard
1000

1000

  0
LAYER
  5
F60B
330
2
100
AcDbSymbolTableRecord
100
AcDbLayerTableRecord
  2
補強板-AM_5
 70
     0
 62
     3
  6
寸法線
370
    15
390
F
1001
AcAecLayerStandard
1000

1000

  0
LAYER
  5
F60C
330
2
100
AcDbSymbolTableRecord
100
AcDbLayerTableRecord
  2
補強板-AM_8
 70
     0
 62
     1
  6
ハッチング
370
    15
390
F
1001
AcAecLayerStandard
1000

1000

  0
LAYER
  5
F7D1
330
2
100
AcDbSymbolTableRecord
100
AcDbLayerTableRecord
  2
ギア-AM_4
 70
     0
 62
     3
  6
補助線
370
    15
390
F
1001
AcAecLayerStandard
1000

1000

  0
LAYER
  5
F7FF
330
2
100
AcDbSymbolTableRecord
100
AcDbLayerTableRecord
  2
表示板-AM_8
 70
     0
 62
     1
  6
ハッチング
370
    15
390
F
1001
AcAecLayerStandard
1000

1000

  0
LAYER
  5
F800
330
2
100
AcDbSymbolTableRecord
100
AcDbLayerTableRecord
  2
表示板-AM_7
 70
     0
 62
     4
  6
中心線1
370
    15
390
F
1001
AcAecLayerStandard
1000

1000

  0
LAYER
  5
F869
330
2
100
AcDbSymbolTableRecord
100
AcDbLayerTableRecord
  2
表示板-AM_5
 70
     0
 62
     3
  6
寸法線
370
    15
390
F
1001
AcAecLayerStandard
1000

1000

  0
LAYER
  5
101DA
330
2
100
AcDbSymbolTableRecord
100
AcDbLayerTableRecord
  2
表示板-AM_4
 70
     0
 62
     3
  6
補助線
370
    15
390
F
1001
AcAecLayerStandard
1000

1000

  0
LAYER
  5
1030F
330
2
100
AcDbSymbolTableRecord
100
AcDbLayerTableRecord
  2
ビス-AM_5
 70
     0
 62
     3
  6
寸法線
370
    15
390
F
1001
AcAecLayerStandard
1000

1000

  0
LAYER
  5
10AD2
330
2
100
AcDbSymbolTableRecord
100
AcDbLayerTableRecord
  2
ビス-AM_7
 70
     0
 62
     4
  6
中心線1
370
    15
390
F
1001
AcAecLayerStandard
1000

1000

  0
LAYER
  5
10AD3
330
2
100
AcDbSymbolTableRecord
100
AcDbLayerTableRecord
  2
ビス-AM_6
 70
     0
 62
     2
  6
文字
370
    15
390
F
1001
AcAecLayerStandard
1000

1000

  0
LAYER
  5
10C52
330
2
100
AcDbSymbolTableRecord
100
AcDbLayerTableRecord
  2
表示座-AM_3
 70
     0
 62
     6
  6
陰線1
370
    15
390
F
1001
AcAecLayerStandard
1000

1000

  0
LAYER
  5
10C53
330
2
100
AcDbSymbolTableRecord
100
AcDbLayerTableRecord
  2
表示座-AM_5
 70
     0
 62
     3
  6
寸法線
370
    15
390
F
1001
AcAecLayerStandard
1000

1000

  0
LAYER
  5
10D06
330
2
100
AcDbSymbolTableRecord
100
AcDbLayerTableRecord
  2
台座-AM_3
 70
     0
 62
     6
  6
陰線1
370
    15
390
F
1001
AcAecLayerStandard
1000

1000

  0
LAYER
  5
1100A
330
2
100
AcDbSymbolTableRecord
100
AcDbLayerTableRecord
  2
補強板-AM_3
 70
     0
 62
     6
  6
陰線1
370
    15
390
F
1001
AcAecLayerStandard
1000

1000

  0
LAYER
  5
1118C
330
2
100
AcDbSymbolTableRecord
100
AcDbLayerTableRecord
  2
ギア-AM_5
 70
     0
 62
     3
  6
寸法線
370
    15
390
F
1001
AcAecLayerStandard
1000

1000

  0
LAYER
  5
1118D
330
2
100
AcDbSymbolTableRecord
100
AcDbLayerTableRecord
  2
ギア-AM_3
 70
     0
 62
     6
  6
陰線1
370
    15
390
F
1001
AcAecLayerStandard
1000

1000

  0
LAYER
  5
13979
330
2
100
AcDbSymbolTableRecord
100
AcDbLayerTableRecord
  2
AM_0N
 70
     0
 62
     7
  6
中線
370
    25
390
F
1001
AcAecLayerStandard
1000

1000

  0
LAYER
  5
1397A
330
2
100
AcDbSymbolTableRecord
100
AcDbLayerTableRecord
  2
AM_8N
 70
     0
 62
     1
  6
ハッチング
370
    15
390
F
1001
AcAecLayerStandard
1000

1000

  0
LAYER
  5
1641A
330
2
100
AcDbSymbolTableRecord
100
AcDbLayerTableRecord
  2
ストップピン-AM_0
 70
     0
 62
     7
  6
中線
370
    25
390
F
1001
AcAecLayerStandard
1000

1000

  0
LAYER
  5
1641B
330
2
100
AcDbSymbolTableRecord
100
AcDbLayerTableRecord
  2
ストップピン２-AM_0
 70
     0
 62
     7
  6
中線
370
    25
390
F
1001
AcAecLayerStandard
1000

1000

  0
LAYER
  5
1641C
330
2
100
AcDbSymbolTableRecord
100
AcDbLayerTableRecord
  2
ストップピン２-AM_3
 70
     0
 62
     6
  6
陰線1
370
    15
390
F
1001
AcAecLayerStandard
1000

1000

  0
LAYER
  5
1754B
330
2
100
AcDbSymbolTableRecord
100
AcDbLayerTableRecord
  2
表示座-AM_12
 70
     0
 62
     7
  6
Continuous
290
     0
370
    15
390
F
1001
AcAecLayerStandard
1000

1000

  0
LAYER
  5
18EEF
330
2
100
AcDbSymbolTableRecord
100
AcDbLayerTableRecord
  2
表示座-AM_6
 70
     0
 62
     2
  6
文字
370
    15
390
F
1001
AcAecLayerStandard
1000

1000

  0
LAYER
  5
18EF0
330
2
100
AcDbSymbolTableRecord
100
AcDbLayerTableRecord
  2
表示座-AM_2
 70
     0
 62
     1
  6
細線
370
    15
390
F
1001
AcAecLayerStandard
1000

1000

  0
LAYER
  5
19823
330
2
100
AcDbSymbolTableRecord
100
AcDbLayerTableRecord
  2
表示座-AM_4
 70
     0
 62
     3
  6
補助線
370
    15
390
F
1001
AcAecLayerStandard
1000

1000

  0
LAYER
  5
1AA47
330
2
100
AcDbSymbolTableRecord
100
AcDbLayerTableRecord
  2
表示軸-AM_0
 70
     0
 62
     7
  6
中線
370
    25
390
F
1001
AcAecLayerStandard
1000

1000

  0
LAYER
  5
1AA48
330
2
100
AcDbSymbolTableRecord
100
AcDbLayerTableRecord
  2
表示軸-AM_8
 70
     0
 62
     1
  6
ハッチング
370
    15
390
F
1001
AcAecLayerStandard
1000

1000

  0
LAYER
  5
1AA49
330
2
100
AcDbSymbolTableRecord
100
AcDbLayerTableRecord
  2
表示軸-AM_7
 70
     0
 62
     4
  6
中心線1
370
    15
390
F
1001
AcAecLayerStandard
1000

1000

  0
LAYER
  5
1AF70
330
2
100
AcDbSymbolTableRecord
100
AcDbLayerTableRecord
  2
表示軸-AM_5
 70
     0
 62
     3
  6
寸法線
370
    15
390
F
1001
AcAecLayerStandard
1000

1000

  0
LAYER
  5
1B424
330
2
100
AcDbSymbolTableRecord
100
AcDbLayerTableRecord
  2
ワッシャ-AM_0
 70
     0
 62
     7
  6
中線
370
    25
390
F
1001
AcAecLayerStandard
1000

1000

  0
LAYER
  5
1B42C
330
2
100
AcDbSymbolTableRecord
100
AcDbLayerTableRecord
  2
ワッシャ-AM_5
 70
     0
 62
     3
  6
寸法線
370
    15
390
F
1001
AcAecLayerStandard
1000

1000

  0
LAYER
  5
1B4AB
330
2
100
AcDbSymbolTableRecord
100
AcDbLayerTableRecord
  2
バネ-AM_0
 70
     0
 62
     7
  6
中線
370
    25
390
F
1001
AcAecLayerStandard
1000

1000

  0
LAYER
  5
1B4AF
330
2
100
AcDbSymbolTableRecord
100
AcDbLayerTableRecord
  2
バネ-AM_5
 70
     0
 62
     3
  6
寸法線
370
    15
390
F
1001
AcAecLayerStandard
1000

1000

  0
LAYER
  5
1B4D7
330
2
100
AcDbSymbolTableRecord
100
AcDbLayerTableRecord
  2
バネ-AM_7
 70
     0
 62
     4
  6
中心線1
370
    15
390
F
1001
AcAecLayerStandard
1000

1000

  0
LAYER
  5
1B80A
330
2
100
AcDbSymbolTableRecord
100
AcDbLayerTableRecord
  2
表示板-AM_3
 70
     0
 62
     6
  6
陰線1
370
    15
390
F
1001
AcAecLayerStandard
1000

1000

  0
LAYER
  5
1D0A2
330
2
100
AcDbSymbolTableRecord
100
AcDbLayerTableRecord
  2
表示軸-AM_3
 70
     0
 62
     6
  6
陰線1
370
    15
390
F
1001
AcAecLayerStandard
1000

1000

  0
LAYER
  5
1D5A7
330
2
100
AcDbSymbolTableRecord
100
AcDbLayerTableRecord
  2
表示軸-AM_4
 70
     0
 62
     3
  6
補助線
370
    15
390
F
1001
AcAecLayerStandard
1000

1000

  0
LAYER
  5
1DD58
330
2
100
AcDbSymbolTableRecord
100
AcDbLayerTableRecord
  2
引き手-AM_0
 70
     0
 62
     7
  6
中線
370
    25
390
F
1001
AcAecLayerStandard
1000

1000

  0
LAYER
  5
1DD59
330
2
100
AcDbSymbolTableRecord
100
AcDbLayerTableRecord
  2
引き手-AM_5
 70
     0
 62
     3
  6
寸法線
370
    15
390
F
1001
AcAecLayerStandard
1000

1000

  0
LAYER
  5
1DD5A
330
2
100
AcDbSymbolTableRecord
100
AcDbLayerTableRecord
  2
引き手-AM_2
 70
     0
 62
     1
  6
細線
370
    15
390
F
1001
AcAecLayerStandard
1000

1000

  0
LAYER
  5
1DD5B
330
2
100
AcDbSymbolTableRecord
100
AcDbLayerTableRecord
  2
引き手-AM_3
 70
     0
 62
     6
  6
陰線1
370
    15
390
F
1001
AcAecLayerStandard
1000

1000

  0
LAYER
  5
1DD5C
330
2
100
AcDbSymbolTableRecord
100
AcDbLayerTableRecord
  2
引き手-AM_7
 70
     0
 62
     4
  6
中心線1
370
    15
390
F
1001
AcAecLayerStandard
1000

1000

  0
LAYER
  5
1E7A7
330
2
100
AcDbSymbolTableRecord
100
AcDbLayerTableRecord
  2
ストップピン２-AM_7
 70
     0
 62
     4
  6
中心線1
370
    15
390
F
1001
AcAecLayerStandard
1000

1000

  0
LAYER
  5
1E7A8
330
2
100
AcDbSymbolTableRecord
100
AcDbLayerTableRecord
  2
ストップピン２-AM_8
 70
     0
 62
     1
  6
ハッチング
370
    15
390
F
1001
AcAecLayerStandard
1000

1000

  0
LAYER
  5
1E7E0
330
2
100
AcDbSymbolTableRecord
100
AcDbLayerTableRecord
  2
ストップピン２-AM_5
 70
     0
 62
     3
  6
寸法線
370
    15
390
F
1001
AcAecLayerStandard
1000

1000

  0
LAYER
  5
1E8A3
330
2
100
AcDbSymbolTableRecord
100
AcDbLayerTableRecord
  2
ストップピン２-AM_4
 70
     0
 62
     3
  6
補助線
370
    15
390
F
1001
AcAecLayerStandard
1000

1000

  0
LAYER
  5
1EC48
330
2
100
AcDbSymbolTableRecord
100
AcDbLayerTableRecord
  2
補強板-AM_4
 70
     0
 62
     3
  6
補助線
370
    15
390
F
1001
AcAecLayerStandard
1000

1000

  0
LAYER
  5
1F474
330
2
100
AcDbSymbolTableRecord
100
AcDbLayerTableRecord
  2
引き手-AM_8
 70
     0
 62
     1
  6
ハッチング
370
    15
390
F
1001
AcAecLayerStandard
1000

1000

  0
LAYER
  5
1F5E4
330
2
100
AcDbSymbolTableRecord
100
AcDbLayerTableRecord
  2
引き手-AM_4
 70
     0
 62
     3
  6
補助線
370
    15
390
F
1001
AcAecLayerStandard
1000

1000

  0
LAYER
  5
1F7CF
330
2
100
AcDbSymbolTableRecord
100
AcDbLayerTableRecord
  2
取付軸-AM_7
 70
     0
 62
     4
  6
中心線1
370
    15
390
F
1001
AcAecLayerStandard
1000

1000

  0
LAYER
  5
1F7D0
330
2
100
AcDbSymbolTableRecord
100
AcDbLayerTableRecord
  2
ストップピン-AM_3
 70
     0
 62
     6
  6
陰線1
370
    15
390
F
1001
AcAecLayerStandard
1000

1000

  0
LAYER
  5
1F7D1
330
2
100
AcDbSymbolTableRecord
100
AcDbLayerTableRecord
  2
ストップピン-AM_5
 70
     0
 62
     3
  6
寸法線
370
    15
390
F
1001
AcAecLayerStandard
1000

1000

  0
LAYER
  5
1F7D2
330
2
100
AcDbSymbolTableRecord
100
AcDbLayerTableRecord
  2
ストップピン-AM_2
 70
     0
 62
     1
  6
細線
370
    15
390
F
1001
AcAecLayerStandard
1000

1000

  0
LAYER
  5
1FEBC
330
2
100
AcDbSymbolTableRecord
100
AcDbLayerTableRecord
  2
ゴムシート-AM_0
 70
     0
 62
     7
  6
中線
370
    25
390
F
1001
AcAecLayerStandard
1000

1000

  0
LAYER
  5
1FEBD
330
2
100
AcDbSymbolTableRecord
100
AcDbLayerTableRecord
  2
ゴムシート-AM_5
 70
     0
 62
     3
  6
寸法線
370
    15
390
F
1001
AcAecLayerStandard
1000

1000

  0
LAYER
  5
1FF48
330
2
100
AcDbSymbolTableRecord
100
AcDbLayerTableRecord
  2
ゴムシート-AM_4
 70
     0
 62
     3
  6
補助線
370
    15
390
F
1001
AcAecLayerStandard
1000

1000

  0
LAYER
  5
1FF4A
330
2
100
AcDbSymbolTableRecord
100
AcDbLayerTableRecord
  2
ゴムシート-AM_8
 70
     0
 62
     1
  6
ハッチング
370
    15
390
F
1001
AcAecLayerStandard
1000

1000

  0
LAYER
  5
20B2C
330
2
100
AcDbSymbolTableRecord
100
AcDbLayerTableRecord
  2
取付軸-AM_5
 70
     0
 62
     3
  6
寸法線
370
    15
390
F
1001
AcAecLayerStandard
1000

1000

  0
LAYER
  5
20ECD
330
2
100
AcDbSymbolTableRecord
100
AcDbLayerTableRecord
  2
ゴムシート-AM_7
 70
     0
 62
     4
  6
中心線1
370
    15
390
F
1001
AcAecLayerStandard
1000

1000

  0
LAYER
  5
2112D
330
2
100
AcDbSymbolTableRecord
100
AcDbLayerTableRecord
  2
非常解錠キー-AM_0
 70
     0
 62
     7
  6
中線
370
    25
390
F
1001
AcAecLayerStandard
1000

1000

  0
LAYER
  5
2112E
330
2
100
AcDbSymbolTableRecord
100
AcDbLayerTableRecord
  2
非常解錠キー-AM_5
 70
     0
 62
     3
  6
寸法線
370
    15
390
F
1001
AcAecLayerStandard
1000

1000

  0
LAYER
  5
21849
330
2
100
AcDbSymbolTableRecord
100
AcDbLayerTableRecord
  2
LAYER002
 70
     0
 62
     7
  6
Continuous
370
    -3
390
F
  0
LAYER
  5
2184A
330
2
100
AcDbSymbolTableRecord
100
AcDbLayerTableRecord
  2
LAYER006
 70
     0
 62
     7
  6
Continuous
370
    -3
390
F
  0
LAYER
  5
2184B
330
2
100
AcDbSymbolTableRecord
100
AcDbLayerTableRecord
  2
LAYER008
 70
     0
 62
     7
  6
Continuous
370
    -3
390
F
  0
LAYER
  5
2184C
330
2
100
AcDbSymbolTableRecord
100
AcDbLayerTableRecord
  2
LAYER010
 70
     0
 62
     7
  6
Continuous
370
    -3
390
F
  0
LAYER
  5
2184D
330
2
100
AcDbSymbolTableRecord
100
AcDbLayerTableRecord
  2
LAYER011
 70
     0
 62
     7
  6
Continuous
370
    -3
390
F
  0
LAYER
  5
22B99
330
2
100
AcDbSymbolTableRecord
100
AcDbLayerTableRecord
  2
表示軸-AM_2
 70
     0
 62
     1
  6
細線
370
    15
390
F
1001
AcAecLayerStandard
1000

1000

  0
LAYER
  5
23667
330
2
100
AcDbSymbolTableRecord
100
AcDbLayerTableRecord
  2
ラッチ座-AM_6
 70
     0
 62
     2
  6
文字
370
    15
390
F
1001
AcAecLayerStandard
1000

1000

  0
LAYER
  5
24FD7
330
2
100
AcDbSymbolTableRecord
100
AcDbLayerTableRecord
  2
台座-AM_11
 70
     0
 62
     2
  6
想像線1
370
    15
390
F
1001
AcAecLayerStandard
1000

1000

  0
LAYER
  5
25982
330
2
100
AcDbSymbolTableRecord
100
AcDbLayerTableRecord
  2
ラッチ座-AM_2
 70
     0
 62
     1
  6
細線
370
    15
390
F
1001
AcAecLayerStandard
1000

1000

  0
LAYER
  5
25983
330
2
100
AcDbSymbolTableRecord
100
AcDbLayerTableRecord
  2
ラッチ座-AM_11
 70
     0
 62
     2
  6
想像線1
370
    15
390
F
1001
AcAecLayerStandard
1000

1000

  0
LAYER
  5
25984
330
2
100
AcDbSymbolTableRecord
100
AcDbLayerTableRecord
  2
ラッチ座-AM_1
 70
     0
 62
    30
  6
太線
370
    25
390
F
1001
AcAecLayerStandard
1000

1000

  0
LAYER
  5
261F9
330
2
100
AcDbSymbolTableRecord
100
AcDbLayerTableRecord
  2
ストップピン２-AM_2
 70
     0
 62
     1
  6
細線
370
    15
390
F
1001
AcAecLayerStandard
1000

1000

  0
LAYER
  5
26D04
330
2
100
AcDbSymbolTableRecord
100
AcDbLayerTableRecord
  2
ストップピン-AM_7
 70
     0
 62
     4
  6
中心線1
370
    15
390
F
1001
AcAecLayerStandard
1000

1000

  0
LAYER
  5
26D4B
330
2
100
AcDbSymbolTableRecord
100
AcDbLayerTableRecord
  2
ストップピン-AM_4
 70
     0
 62
     3
  6
補助線
370
    15
390
F
1001
AcAecLayerStandard
1000

1000

  0
LAYER
  5
26D4D
330
2
100
AcDbSymbolTableRecord
100
AcDbLayerTableRecord
  2
ストップピン-AM_8
 70
     0
 62
     1
  6
ハッチング
370
    15
390
F
1001
AcAecLayerStandard
1000

1000

  0
LAYER
  5
2851C
330
2
100
AcDbSymbolTableRecord
100
AcDbLayerTableRecord
  2
ゴムシート-AM_12
 70
     0
 62
     7
  6
Continuous
290
     0
370
    15
390
F
1001
AcAecLayerStandard
1000

1000

  0
LAYER
  5
28768
330
2
100
AcDbSymbolTableRecord
100
AcDbLayerTableRecord
  2
ブース-AM_0
 70
     0
 62
     7
  6
中線
370
    25
390
F
1001
AcAecLayerStandard
1000

1000

  0
LAYER
  5
2876A
330
2
100
AcDbSymbolTableRecord
100
AcDbLayerTableRecord
  2
ブース-AM_11
 70
     0
 62
     2
  6
想像線1
370
    15
390
F
1001
AcAecLayerStandard
1000

1000

  0
LAYER
  5
28D5F
330
2
100
AcDbSymbolTableRecord
100
AcDbLayerTableRecord
  2
ベスト-AM_0
 70
     0
 62
     7
  6
中線
370
    25
390
F
1001
AcAecLayerStandard
1000

1000

  0
LAYER
  5
28D7A
330
2
100
AcDbSymbolTableRecord
100
AcDbLayerTableRecord
  2
ベスト-AM_7
 70
     0
 62
     4
  6
中心線1
370
    15
390
F
1001
AcAecLayerStandard
1000

1000

  0
LAYER
  5
28D83
330
2
100
AcDbSymbolTableRecord
100
AcDbLayerTableRecord
  2
ベスト-AM_11
 70
     0
 62
     2
  6
想像線1
370
    15
390
F
1001
AcAecLayerStandard
1000

1000

  0
LAYER
  5
2D2C4
330
2
100
AcDbSymbolTableRecord
100
AcDbLayerTableRecord
  2
ゴム-AM_0
 70
     0
 62
     7
  6
Continuous
370
    50
390
F
1001
AcAecLayerStandard
1000

1000

  0
LAYER
  5
2D2C5
330
2
100
AcDbSymbolTableRecord
100
AcDbLayerTableRecord
  2
ゴム-AM_5
 70
     0
 62
     3
  6
Continuous
370
    25
390
F
1001
AcAecLayerStandard
1000

1000

  0
LAYER
  5
2D699
330
2
100
AcDbSymbolTableRecord
100
AcDbLayerTableRecord
  2
戸当り座
 70
     0
 62
    44
  6
Continuous
370
    30
390
F
1001
AcAecLayerStandard
1000

1000

  0
LAYER
  5
2D69A
330
2
100
AcDbSymbolTableRecord
100
AcDbLayerTableRecord
  2
戸当りゴム
 70
     0
 62
   160
  6
Continuous
370
    30
390
F
1001
AcAecLayerStandard
1000

1000

  0
ENDTAB
  0
TABLE
  2
STYLE
  5
3
330
0
100
AcDbSymbolTable
 70
    13
  0
STYLE
  5
11
330
3
100
AcDbSymbolTableRecord
100
AcDbTextStyleTableRecord
  2
STANDARD
 70
     0
 40
0.0
 41
0.7
 50
0.0
 71
     0
 42
3.2
  3
romans.shx
  4
extfont.shx
  0
STYLE
  5
56
330
3
100
AcDbSymbolTableRecord
100
AcDbTextStyleTableRecord
  2

 70
     1
 40
0.0
 41
1.0
 50
0.0
 71
     0
 42
2.5
  3
ltypeshp.shx
  4

  0
STYLE
  5
58
330
3
100
AcDbSymbolTableRecord
100
AcDbTextStyleTableRecord
  2
ACISOTS
 70
     0
 40
1.0
 41
1.0
 50
0.0
 71
     0
 42
2.5
  3
isocp.shx
  4
extfont.shx
  0
STYLE
  5
63
330
3
100
AcDbSymbolTableRecord
100
AcDbTextStyleTableRecord
  2
ACISOGDT
 70
     0
 40
0.0
 41
1.0
 50
0.0
 71
     0
 42
2.5
  3
amgdt.shx
  4

  0
STYLE
  5
A74
330
3
100
AcDbSymbolTableRecord
100
AcDbTextStyleTableRecord
  2
DIM
 70
     0
 40
0.0
 41
1.0
 50
0.0
 71
     0
 42
2.5
  3
monotxt.shx
  4
extfont.shx
  0
STYLE
  5
AC80
330
3
100
AcDbSymbolTableRecord
100
AcDbTextStyleTableRecord
  2

 70
     1
 40
0.0
 41
1.0
 50
0.0
 71
     0
 42
3.2
  3
genltshp.shx
  4

  0
STYLE
  5
B16D
330
3
100
AcDbSymbolTableRecord
100
AcDbTextStyleTableRecord
  2
文字スタイル7
 70
     0
 40
0.0
 41
1.0
 50
0.0
 71
     0
 42
0.2
  3
TAHOMA.TTF
  4

1001
ACAD
1000
Tahoma
1071
      256
  0
STYLE
  5
C98D
330
3
100
AcDbSymbolTableRecord
100
AcDbTextStyleTableRecord
  2
ACANSTS
 70
     0
 40
1.0
 41
1.0
 50
0.0
 71
     0
 42
0.2
  3
romans.shx
  4
extfont.shx
  0
STYLE
  5
C98E
330
3
100
AcDbSymbolTableRecord
100
AcDbTextStyleTableRecord
  2
ACANSGDT
 70
     0
 40
0.0
 41
1.0
 50
0.0
 71
     0
 42
0.2
  3
amgdtans.shx
  4

  0
STYLE
  5
C98F
330
3
100
AcDbSymbolTableRecord
100
AcDbTextStyleTableRecord
  2
USER1
 70
     0
 40
0.0
 41
1.0
 50
0.0
 71
     0
 42
2.5
  3
TXT.SHX
  4

  0
STYLE
  5
C990
330
3
100
AcDbSymbolTableRecord
100
AcDbTextStyleTableRecord
  2
USER2
 70
     0
 40
0.0
 41
1.0
 50
0.0
 71
     0
 42
2.5
  3
SIMPLEX.SHX
  4

  0
STYLE
  5
C991
330
3
100
AcDbSymbolTableRecord
100
AcDbTextStyleTableRecord
  2
USER3
 70
     0
 40
0.0
 41
1.0
 50
0.0
 71
     0
 42
2.5
  3
ITALIC.SHX
  4

  0
ENDTAB
  0
TABLE
  2
VIEW
  5
6
330
0
100
AcDbSymbolTable
 70
     6
  0
VIEW
  5
AE1
330
6
100
AcDbSymbolTableRecord
100
AcDbViewTableRecord
  2
AM_VIEW1
 70
     0
 40
129.7276464542651
 10
1775.10588156276
 20
1793.121228859297
 41
148.5
 11
0.0
 21
0.0
 31
1.0
 12
0.0
 22
0.0
 32
0.0
 42
50.0
 43
-1370.695619172058
 44
-1370.695619172058
 50
0.0
 71
    16
281
     0
 72
     0
  0
VIEW
  5
AE2
330
6
100
AcDbSymbolTableRecord
100
AcDbViewTableRecord
  2
AM_VIEW2
 70
     0
 40
129.7276464542651
 10
1923.60588156276
 20
1793.121228859297
 41
148.5
 11
0.0
 21
0.0
 31
1.0
 12
0.0
 22
0.0
 32
0.0
 42
50.0
 43
-1370.695619172058
 44
-1370.695619172058
 50
0.0
 71
    16
281
     0
 72
     0
  0
VIEW
  5
AE3
330
6
100
AcDbSymbolTableRecord
100
AcDbViewTableRecord
  2
AM_VIEW3
 70
     0
 40
129.7276464542651
 10
1775.10588156276
 20
1712.848875313562
 41
148.5
 11
0.0
 21
0.0
 31
1.0
 12
0.0
 22
0.0
 32
0.0
 42
50.0
 43
-1370.695619172058
 44
-1370.695619172058
 50
0.0
 71
    16
281
     0
 72
     0
  0
VIEW
  5
AE4
330
6
100
AcDbSymbolTableRecord
100
AcDbViewTableRecord
  2
AM_VIEW4
 70
     0
 40
129.7276464542651
 10
1923.60588156276
 20
1712.848875313562
 41
148.5
 11
0.0
 21
0.0
 31
1.0
 12
0.0
 22
0.0
 32
0.0
 42
50.0
 43
-1370.695619172058
 44
-1370.695619172058
 50
0.0
 71
    16
281
     0
 72
     0
  0
VIEW
  5
AE5
330
6
100
AcDbSymbolTableRecord
100
AcDbViewTableRecord
  2
AM_VIEW5
 70
     0
 40
129.7276464542651
 10
1849.35588156276
 20
1752.985052086429
 41
148.5
 11
0.0
 21
0.0
 31
1.0
 12
0.0
 22
0.0
 32
0.0
 42
50.0
 43
-1370.695619172058
 44
-1370.695619172058
 50
0.0
 71
    16
281
     0
 72
     0
  0
VIEW
  5
AE6
330
6
100
AcDbSymbolTableRecord
100
AcDbViewTableRecord
  2
AM_VIEW6
 70
     0
 40
259.452698355601
 10
1849.35588156276
 20
1752.985052086429
 41
296.99703
 11
0.0
 21
0.0
 31
1.0
 12
0.0
 22
0.0
 32
0.0
 42
50.0
 43
-1370.695619172058
 44
-1370.695619172058
 50
0.0
 71
    16
281
     0
 72
     0
  0
ENDTAB
  0
TABLE
  2
UCS
  5
7
330
0
100
AcDbSymbolTable
 70
     0
  0
ENDTAB
  0
TABLE
  2
APPID
  5
9
330
0
100
AcDbSymbolTable
 70
    58
  0
APPID
  5
12
330
9
100
AcDbSymbolTableRecord
100
AcDbRegAppTableRecord
  2
ACAD
 70
     0
  0
APPID
  5
30
330
9
100
AcDbSymbolTableRecord
100
AcDbRegAppTableRecord
  2
MCAD_NO_VIS
 70
     0
  0
APPID
  5
31
330
9
100
AcDbSymbolTableRecord
100
AcDbRegAppTableRecord
  2
ACAD_TEMP_GRAPHIC
 70
     0
  0
APPID
  5
44
330
9
100
AcDbSymbolTableRecord
100
AcDbRegAppTableRecord
  2
ACATTRIBSERVICES
 70
     0
  0
APPID
  5
7A1
330
9
100
AcDbSymbolTableRecord
100
AcDbRegAppTableRecord
  2
GENIUS_GENDIMSH_14
 70
     0
  0
APPID
  5
A49
330
9
100
AcDbSymbolTableRecord
100
AcDbRegAppTableRecord
  2
GENIUS_GENREC_14
 70
     0
  0
APPID
  5
A4A
330
9
100
AcDbSymbolTableRecord
100
AcDbRegAppTableRecord
  2
GENIUS_GENOBJ-N-REC_13
 70
     0
  0
APPID
  5
A4B
330
9
100
AcDbSymbolTableRecord
100
AcDbRegAppTableRecord
  2
GENIUS_GENODEF_13
 70
     0
  0
APPID
  5
A4C
330
9
100
AcDbSymbolTableRecord
100
AcDbRegAppTableRecord
  2
DCO15
 70
     0
  0
APPID
  5
ADC
330
9
100
AcDbSymbolTableRecord
100
AcDbRegAppTableRecord
  2
GENIUS_GENOLIS_13
 70
     0
  0
APPID
  5
ADD
330
9
100
AcDbSymbolTableRecord
100
AcDbRegAppTableRecord
  2
GENIUS_GENOENT_13
 70
     0
  0
APPID
  5
ADE
330
9
100
AcDbSymbolTableRecord
100
AcDbRegAppTableRecord
  2
GENIUS_GENOBJ-N-TIT_13
 70
     0
  0
APPID
  5
ADF
330
9
100
AcDbSymbolTableRecord
100
AcDbRegAppTableRecord
  2
GENIUS_GENTITLE_13
 70
     0
  0
APPID
  5
AE0
330
9
100
AcDbSymbolTableRecord
100
AcDbRegAppTableRecord
  2
GENIUS_GENOREF_13
 70
     0
  0
APPID
  5
AE7
330
9
100
AcDbSymbolTableRecord
100
AcDbRegAppTableRecord
  2
GENIUS_GENSCREG_15
 70
     0
  0
APPID
  5
AE8
330
9
100
AcDbSymbolTableRecord
100
AcDbRegAppTableRecord
  2
GENIUS_GENOBJ-N-SDF_13
 70
     0
  0
APPID
  5
FAF
330
9
100
AcDbSymbolTableRecord
100
AcDbRegAppTableRecord
  2
GENIUS_GENBLLY_14
 70
     0
  0
APPID
  5
FB0
330
9
100
AcDbSymbolTableRecord
100
AcDbRegAppTableRecord
  2
GENIUS_GENTRA_14
 70
     0
  0
APPID
  5
1285
330
9
100
AcDbSymbolTableRecord
100
AcDbRegAppTableRecord
  2
GENIUS_GENDTOL_13
 70
     0
  0
APPID
  5
142D
330
9
100
AcDbSymbolTableRecord
100
AcDbRegAppTableRecord
  2
GENIUS_GENOBJ-N-CEN_13
 70
     0
  0
APPID
  5
1AB5
330
9
100
AcDbSymbolTableRecord
100
AcDbRegAppTableRecord
  2
GENIUS_GENOBJ-N-CRS_13
 70
     0
  0
APPID
  5
1B36
330
9
100
AcDbSymbolTableRecord
100
AcDbRegAppTableRecord
  2
GENIUS_GENOBJ-N-HTC_13
 70
     0
  0
APPID
  5
1B37
330
9
100
AcDbSymbolTableRecord
100
AcDbRegAppTableRecord
  2
GENIUS_GENHATCH_13
 70
     0
  0
APPID
  5
216D
330
9
100
AcDbSymbolTableRecord
100
AcDbRegAppTableRecord
  2
GENIUS_GENOBJ-N-FIL_13
 70
     0
  0
APPID
  5
2356
330
9
100
AcDbSymbolTableRecord
100
AcDbRegAppTableRecord
  2
GEVID990412420
 70
     0
  0
APPID
  5
2357
330
9
100
AcDbSymbolTableRecord
100
AcDbRegAppTableRecord
  2
GEVDC
 70
     0
  0
APPID
  5
2358
330
9
100
AcDbSymbolTableRecord
100
AcDbRegAppTableRecord
  2
GEVCON
 70
     0
  0
APPID
  5
235B
330
9
100
AcDbSymbolTableRecord
100
AcDbRegAppTableRecord
  2
GEVRADREF
 70
     0
  0
APPID
  5
2360
330
9
100
AcDbSymbolTableRecord
100
AcDbRegAppTableRecord
  2
GENIUS_GENBH_13
 70
     0
  0
APPID
  5
2362
330
9
100
AcDbSymbolTableRecord
100
AcDbRegAppTableRecord
  2
GENIUS_GENOBJ-NBEHI-BHF_13
 70
     0
  0
APPID
  5
2364
330
9
100
AcDbSymbolTableRecord
100
AcDbRegAppTableRecord
  2
GENIUS_GENOBJ-NBEHI-BHB_13
 70
     0
  0
APPID
  5
2379
330
9
100
AcDbSymbolTableRecord
100
AcDbRegAppTableRecord
  2
GENIUS_GENOBJ-F-SCPASSM_13
 70
     0
  0
APPID
  5
3D74
330
9
100
AcDbSymbolTableRecord
100
AcDbRegAppTableRecord
  2
GENIUS_GENDIM_13
 70
     0
  0
APPID
  5
3D76
330
9
100
AcDbSymbolTableRecord
100
AcDbRegAppTableRecord
  2
GENIUS_GE3DTOL_13
 70
     0
  0
APPID
  5
3D9C
330
9
100
AcDbSymbolTableRecord
100
AcDbRegAppTableRecord
  2
AD_DRAW
 70
     0
  0
APPID
  5
3DE8
330
9
100
AcDbSymbolTableRecord
100
AcDbRegAppTableRecord
  2
ASURF_PCURVE_APPNAME
 70
     0
  0
APPID
  5
3DED
330
9
100
AcDbSymbolTableRecord
100
AcDbRegAppTableRecord
  2
AMG_3D2D_5.0
 70
     0
  0
APPID
  5
3E1B
330
9
100
AcDbSymbolTableRecord
100
AcDbRegAppTableRecord
  2
DESIGNERASSEMBLIES
 70
     0
  0
APPID
  5
3E20
330
9
100
AcDbSymbolTableRecord
100
AcDbRegAppTableRecord
  2
ACADM_DIM_EDIT
 70
     0
  0
APPID
  5
3E21
330
9
100
AcDbSymbolTableRecord
100
AcDbRegAppTableRecord
  2
AMDT_DM_ADJ
 70
     0
  0
APPID
  5
4143
330
9
100
AcDbSymbolTableRecord
100
AcDbRegAppTableRecord
  2
GENIUS_GENFIL_13
 70
     0
  0
APPID
  5
4144
330
9
100
AcDbSymbolTableRecord
100
AcDbRegAppTableRecord
  2
GENIUS_GENOBJ-N-CHA_13
 70
     0
  0
APPID
  5
4E17
330
9
100
AcDbSymbolTableRecord
100
AcDbRegAppTableRecord
  2
GEVID1008153417
 70
     0
  0
APPID
  5
4E58
330
9
100
AcDbSymbolTableRecord
100
AcDbRegAppTableRecord
  2
GEVID1008153418
 70
     0
  0
APPID
  5
4E5E
330
9
100
AcDbSymbolTableRecord
100
AcDbRegAppTableRecord
  2
GEVID1008153419
 70
     0
  0
APPID
  5
4E64
330
9
100
AcDbSymbolTableRecord
100
AcDbRegAppTableRecord
  2
GEVID1008153420
 70
     0
  0
APPID
  5
4E75
330
9
100
AcDbSymbolTableRecord
100
AcDbRegAppTableRecord
  2
GEVID1008153421
 70
     0
  0
APPID
  5
4EB7
330
9
100
AcDbSymbolTableRecord
100
AcDbRegAppTableRecord
  2
GENIUS_AMGTXT_16
 70
     0
  0
APPID
  5
7645
330
9
100
AcDbSymbolTableRecord
100
AcDbRegAppTableRecord
  2
GENIUS_GENOBJ-N-DIM_13
 70
     0
  0
APPID
  5
AAD0
330
9
100
AcDbSymbolTableRecord
100
AcDbRegAppTableRecord
  2
ACAD_DSTYLE_DIMARC_LENGTH_SYMBOL
 70
     0
  0
APPID
  5
AAD1
330
9
100
AcDbSymbolTableRecord
100
AcDbRegAppTableRecord
  2
ACAD_DSTYLE_DIMJOGGED_JOGANGLE_SYMBOL
 70
     0
  0
APPID
  5
AAFD
330
9
100
AcDbSymbolTableRecord
100
AcDbRegAppTableRecord
  2
ACAD_PSEXT
 70
     0
  0
APPID
  5
AD61
330
9
100
AcDbSymbolTableRecord
100
AcDbRegAppTableRecord
  2
AcAecLayerStandard
 70
     0
  0
APPID
  5
AEE3
330
9
100
AcDbSymbolTableRecord
100
AcDbRegAppTableRecord
  2
ACAD_EXEMPT_FROM_CAD_STANDARDS
 70
     0
  0
APPID
  5
B16E
330
9
100
AcDbSymbolTableRecord
100
AcDbRegAppTableRecord
  2
GENIUS_GENCEN_19
 70
     0
  0
APPID
  5
E2EA
330
9
100
AcDbSymbolTableRecord
100
AcDbRegAppTableRecord
  2
GENLAYCOLOR
 70
     0
  0
APPID
  5
E785
330
9
100
AcDbSymbolTableRecord
100
AcDbRegAppTableRecord
  2
GENIUS_GENOBJ-N-ZOO_13
 70
     0
  0
APPID
  5
E786
330
9
100
AcDbSymbolTableRecord
100
AcDbRegAppTableRecord
  2
GENIUS_GENZOO_17
 70
     0
  0
ENDTAB
  0
TABLE
  2
DIMSTYLE
  5
A
330
0
100
AcDbSymbolTable
 70
    29
100
AcDbDimStyleTable
 71
     1
340
2515
  0
DIMSTYLE
105
A76
330
A
100
AcDbSymbolTableRecord
100
AcDbDimStyleTableRecord
  2
STANDARD
 70
     0
 41
3.0
 42
1.0
 43
7.0
 44
2.0
 73
     0
 74
     0
 77
     1
140
2.799999999999998
141
0.0
143
0.0394
147
0.7
171
     4
172
     1
173
     1
176
     3
177
     3
178
     2
271
     3
272
     3
273
     8
274
     4
289
     0
340
A74
341
A66
343
A66
344
A66
  0
DIMSTYLE
105
2515
330
A
100
AcDbSymbolTableRecord
100
AcDbDimStyleTableRecord
  2
SYS
 70
     0
  4
"
 41
1.0
 42
1.0
 43
10.0
 44
1.0
 47
0.1
 48
0.1
 73
     0
 74
     0
 77
     1
 78
     8
 79
     2
140
3.5
141
0.0
143
0.0393701
146
0.71
147
1.5
172
     1
176
   256
177
   256
178
     7
271
     2
272
     2
283
     0
284
     8
340
11
371
    -1
372
    -1
1001
ACAD_DSTYLE_DIMJOGGED_JOGANGLE_SYMBOL
1070
   384
1040
0.7853981633974483
1001
ACAD_DSTYLE_DIMARC_LENGTH_SYMBOL
1070
   379
1070
     1
  0
DIMSTYLE
105
2516
102
{ACAD_REACTORS
330
2EA12
102
}
330
A
100
AcDbSymbolTableRecord
100
AcDbDimStyleTableRecord
  2
SYS$3
 70
     0
  4
"
 41
2.0
 42
1.0
 43
10.0
 44
1.0
 47
0.1
 48
0.1
 73
     0
 77
     1
 78
     8
 79
     2
140
3.5
141
0.0
143
0.0393701
146
0.71
147
1.5
176
   256
177
   256
178
     2
271
     2
272
     2
283
     0
284
     8
288
     1
340
11
342
A66
371
    -1
372
    -1
1001
ACAD_DSTYLE_DIMJOGGED_JOGANGLE_SYMBOL
1070
   384
1040
0.7853981633974483
1001
ACAD_DSTYLE_DIMARC_LENGTH_SYMBOL
1070
   379
1070
     1
  0
DIMSTYLE
105
2517
330
A
100
AcDbSymbolTableRecord
100
AcDbDimStyleTableRecord
  2
SYS$4
 70
     0
  4
"
 41
2.0
 42
1.0
 43
10.0
 44
1.0
 47
0.1
 48
0.1
 73
     0
 77
     1
 78
     8
 79
     2
140
3.5
141
0.0
143
0.0393701
146
0.71
147
1.5
173
     1
176
   256
177
   256
178
     2
271
     2
272
     2
283
     0
284
     8
288
     1
340
11
344
A66
371
    -1
372
    -1
1001
ACAD_DSTYLE_DIMJOGGED_JOGANGLE_SYMBOL
1070
   384
1040
0.7853981633974483
1001
ACAD_DSTYLE_DIMARC_LENGTH_SYMBOL
1070
   379
1070
     1
  0
DIMSTYLE
105
2518
330
A
100
AcDbSymbolTableRecord
100
AcDbDimStyleTableRecord
  2
SYS$6
 70
     0
  4
"
 41
2.0
 42
1.0
 43
10.0
 44
1.0
 47
0.1
 48
0.1
 73
     0
 74
     0
 78
     8
 79
     2
140
3.5
141
0.0
143
0.0393701
146
0.71
147
1.5
172
     1
176
   256
177
   256
178
     2
271
     2
272
     2
283
     0
284
     8
340
11
341
A66
371
    -1
372
    -1
1001
ACAD_DSTYLE_DIMJOGGED_JOGANGLE_SYMBOL
1070
   384
1040
0.7853981633974483
1001
ACAD_DSTYLE_DIMARC_LENGTH_SYMBOL
1070
   379
1070
     1
  0
DIMSTYLE
105
2519
330
A
100
AcDbSymbolTableRecord
100
AcDbDimStyleTableRecord
  2
SYS$7
 70
     0
  4
"
 41
2.0
 42
1.0
 43
10.0
 44
1.0
 47
0.1
 48
0.1
 73
     0
 74
     0
 77
     1
 78
     8
 79
     2
140
5.0
141
0.0
143
0.0393701
146
0.71
147
1.5
172
     1
176
   256
177
   256
178
     2
271
     2
272
     2
283
     0
284
     8
340
11
341
A66
342
A66
371
    -1
372
    -1
1001
ACAD_DSTYLE_DIMJOGGED_JOGANGLE_SYMBOL
1070
   384
1040
0.7853981633974483
1001
ACAD_DSTYLE_DIMARC_LENGTH_SYMBOL
1070
   379
1070
     1
  0
DIMSTYLE
105
251A
330
A
100
AcDbSymbolTableRecord
100
AcDbDimStyleTableRecord
  2
SYS$SF
 70
     0
  4
"
 41
2.5
 42
1.0
 43
10.0
 44
1.0
 47
0.1
 48
0.1
 73
     0
 74
     0
 75
     1
 76
     1
 77
     1
 78
     8
 79
     2
140
3.5
141
0.0
143
0.0393701
146
0.71
147
1.5
172
     1
176
   256
177
   256
178
     2
271
     2
272
     3
283
     0
284
     8
340
11
341
6C4
342
6C4
371
    -1
372
    -1
1001
ACAD_DSTYLE_DIMJOGGED_JOGANGLE_SYMBOL
1070
   384
1040
0.7853981633974483
1001
ACAD_DSTYLE_DIMARC_LENGTH_SYMBOL
1070
   379
1070
     1
  0
DIMSTYLE
105
251B
330
A
100
AcDbSymbolTableRecord
100
AcDbDimStyleTableRecord
  2
SYS$SH
 70
     0
  4
"
 41
2.5
 42
1.0
 43
10.0
 44
1.0
 47
0.1
 48
0.1
 73
     0
 74
     0
 75
     1
 76
     1
 77
     1
 78
     8
 79
     2
140
3.5
141
0.0
143
0.0393701
144
2.0
146
0.71
147
1.5
172
     1
173
     1
176
   256
177
   256
178
     2
271
     2
272
     3
283
     0
284
     8
340
11
341
6C4
343
72
344
6C4
371
    -1
372
    -1
1001
ACAD_DSTYLE_DIMJOGGED_JOGANGLE_SYMBOL
1070
   384
1040
0.7853981633974483
1001
ACAD_DSTYLE_DIMARC_LENGTH_SYMBOL
1070
   379
1070
     1
  0
DIMSTYLE
105
2A59
330
A
100
AcDbSymbolTableRecord
100
AcDbDimStyleTableRecord
  2
SYS$2
 70
     0
  4
"
 41
1.0
 42
1.0
 43
10.0
 44
1.0
 47
0.1
 48
0.1
 73
     0
 74
     0
 77
     1
 78
     8
 79
     2
140
3.5
141
0.0
143
0.0393701
146
0.71
147
1.5
172
     1
176
   256
177
   256
178
     2
271
     2
272
     2
283
     0
284
     8
340
11
342
6C4
371
    -1
372
    -1
1001
ACAD_DSTYLE_DIMJOGGED_JOGANGLE_SYMBOL
1070
   384
1040
0.7853981633974483
1001
ACAD_DSTYLE_DIMARC_LENGTH_SYMBOL
1070
   379
1070
     1
  0
DIMSTYLE
105
2AAB
102
{ACAD_REACTORS
330
2EA45
330
2EA71
330
2EA89
330
2EAA1
330
2EACA
330
2EAE3
330
2EAFB
102
}
330
A
100
AcDbSymbolTableRecord
100
AcDbDimStyleTableRecord
  2
SYS$0
 70
     0
  4
"
 41
1.0
 42
1.0
 43
10.0
 44
1.0
 47
0.1
 48
0.1
 73
     0
 74
     0
 77
     1
 78
     8
 79
     2
140
3.200000000000001
141
0.0
143
0.0393701
146
0.71
147
1.5
172
     1
176
   256
177
   256
178
     2
271
     2
272
     2
283
     0
284
     8
340
11
341
A66
342
6C4
371
    -1
372
    -1
1001
ACAD_DSTYLE_DIMJOGGED_JOGANGLE_SYMBOL
1070
   384
1040
0.7853981633974483
1001
ACAD_DSTYLE_DIMARC_LENGTH_SYMBOL
1070
   379
1070
     1
  0
DIMSTYLE
105
AF99
330
A
100
AcDbSymbolTableRecord
100
AcDbDimStyleTableRecord
  2
AM_ISO
 70
     0
  4
"
 41
2.5
 42
1.0
 43
10.0
 44
1.0
 47
0.1
 48
0.1
 73
     0
 74
     0
 77
     1
 78
     8
 79
     2
140
3.5
141
0.0
143
0.0393701
146
0.71
147
1.5
172
     1
176
   256
177
   256
178
     2
271
     2
272
     3
274
     4
283
     0
284
     8
340
11
371
    -1
372
    -1
  0
DIMSTYLE
105
AF9A
330
A
100
AcDbSymbolTableRecord
100
AcDbDimStyleTableRecord
  2
AM_ISO$3
 70
     0
  4
"
 41
2.5
 42
1.0
 43
10.0
 44
1.0
 47
0.1
 48
0.1
 73
     0
 77
     1
 78
     8
 79
     2
140
3.5
141
0.0
143
0.0393701
146
0.71
147
1.5
176
   256
177
   256
178
     2
271
     2
272
     3
274
     4
283
     0
284
     8
288
     1
289
     0
340
11
371
    -1
372
    -1
  0
DIMSTYLE
105
AF9B
330
A
100
AcDbSymbolTableRecord
100
AcDbDimStyleTableRecord
  2
AM_ISO$4
 70
     0
  4
"
 41
2.5
 42
1.0
 43
10.0
 44
1.0
 47
0.1
 48
0.1
 73
     0
 77
     1
 78
     8
 79
     2
140
3.5
141
0.0
143
0.0393701
146
0.71
147
1.5
176
   256
177
   256
178
     2
271
     2
272
     3
274
     4
283
     0
284
     8
288
     1
289
     0
340
11
371
    -1
372
    -1
  0
DIMSTYLE
105
AF9C
330
A
100
AcDbSymbolTableRecord
100
AcDbDimStyleTableRecord
  2
AM_ISO$6
 70
     0
  4
"
 41
2.5
 42
1.0
 43
10.0
 44
1.0
 47
0.1
 48
0.1
 73
     0
 74
     0
 78
     8
 79
     2
140
3.5
141
0.0
143
0.0393701
146
0.71
147
1.5
172
     1
176
   256
177
   256
178
     2
271
     2
272
     3
274
     4
283
     0
284
     8
340
11
371
    -1
372
    -1
  0
DIMSTYLE
105
AF9D
330
A
100
AcDbSymbolTableRecord
100
AcDbDimStyleTableRecord
  2
AM_ISO$7
 70
     0
  4
"
 41
2.5
 42
1.0
 43
10.0
 44
1.0
 47
0.1
 48
0.1
 73
     0
 74
     0
 77
     1
 78
     8
 79
     2
140
5.0
141
0.0
143
0.0393701
146
0.71
147
1.5
172
     1
176
   256
177
   256
178
     2
271
     2
272
     3
274
     4
283
     0
284
     8
340
11
371
    -1
372
    -1
  0
DIMSTYLE
105
AF9E
330
A
100
AcDbSymbolTableRecord
100
AcDbDimStyleTableRecord
  2
AM_ISO$SF
 70
     0
  4
"
 41
2.5
 42
1.0
 43
10.0
 44
1.0
 47
0.1
 48
0.1
 73
     0
 74
     0
 75
     1
 76
     1
 77
     1
 78
     8
 79
     2
140
3.5
141
0.0
143
0.0393701
146
0.71
147
1.5
172
     1
176
   256
177
   256
178
     2
271
     2
272
     3
274
     4
283
     0
284
     8
340
11
371
    -1
372
    -1
  0
DIMSTYLE
105
AF9F
330
A
100
AcDbSymbolTableRecord
100
AcDbDimStyleTableRecord
  2
AM_ISO$SH
 70
     0
  4
"
 41
2.5
 42
1.0
 43
10.0
 44
1.0
 47
0.1
 48
0.1
 73
     0
 74
     0
 75
     1
 76
     1
 77
     1
 78
     8
 79
     2
140
3.5
141
0.0
143
0.0393701
144
2.0
146
0.71
147
1.5
172
     1
173
     1
176
   256
177
   256
178
     2
271
     2
272
     3
274
     4
283
     0
284
     8
340
11
343
72
371
    -1
372
    -1
  0
DIMSTYLE
105
C992
330
A
100
AcDbSymbolTableRecord
100
AcDbDimStyleTableRecord
  2
AM_ISO$0
 70
     0
  4
"
 41
0.8
 42
1.0
 43
10.0
 44
1.0
 47
0.1
 48
0.1
 73
     0
 74
     0
 77
     1
 78
     8
 79
     2
140
3.2
141
0.0
143
0.0393701
146
0.71
147
0.9999999999999996
172
     1
176
   256
177
   256
178
     2
271
     2
272
     2
283
     0
284
     8
340
11
341
6C4
342
6C4
371
    -1
372
    -1
1001
ACAD_DSTYLE_DIMJOGGED_JOGANGLE_SYMBOL
1070
   384
1040
0.7853981633974483
1001
ACAD_DSTYLE_DIMARC_LENGTH_SYMBOL
1070
   379
1070
     1
  0
DIMSTYLE
105
C993
330
A
100
AcDbSymbolTableRecord
100
AcDbDimStyleTableRecord
  2
AM_ISO$2
 70
     0
  4
"
 41
0.8
 42
1.0
 43
10.0
 44
1.0
 47
0.1
 48
0.1
 73
     0
 74
     0
 77
     3
 78
     8
 79
     2
140
3.200000000000001
141
0.0
143
0.0393701
146
0.71
147
0.9999999999999996
172
     1
176
   256
177
   256
178
     2
271
     2
272
     2
283
     0
284
     8
340
11
342
6C4
371
    -1
372
    -1
1001
ACAD_DSTYLE_DIMJOGGED_JOGANGLE_SYMBOL
1070
   384
1040
0.7853981633974483
1001
ACAD_DSTYLE_DIMARC_LENGTH_SYMBOL
1070
   379
1070
     1
  0
DIMSTYLE
105
C994
330
A
100
AcDbSymbolTableRecord
100
AcDbDimStyleTableRecord
  2
AM_ANSI
 70
     0
  4
mm
 41
0.1
 42
0.05
 43
0.5
 44
0.1
 47
0.1
 48
0.1
 78
     7
 79
     2
140
0.12
141
0.0
146
0.71
147
0.06
176
   256
177
   256
178
     2
274
     4
284
     7
340
11
371
    -1
372
    -1
1001
ACAD_DSTYLE_DIMJOGGED_JOGANGLE_SYMBOL
1070
   384
1040
0.7853981633974483
1001
ACAD_DSTYLE_DIMARC_LENGTH_SYMBOL
1070
   379
1070
     1
  0
DIMSTYLE
105
C995
330
A
100
AcDbSymbolTableRecord
100
AcDbDimStyleTableRecord
  2
AM_ANSI$3
 70
     0
  4
mm
 41
0.1
 42
0.05
 43
0.5
 44
0.1
 47
0.1
 48
0.1
 78
     7
 79
     2
140
0.12
141
0.0
146
0.71
147
0.06
176
   256
177
   256
178
     2
274
     4
284
     7
288
     1
289
     0
340
11
371
    -1
372
    -1
1001
ACAD_DSTYLE_DIMJOGGED_JOGANGLE_SYMBOL
1070
   384
1040
0.7853981633974483
1001
ACAD_DSTYLE_DIMARC_LENGTH_SYMBOL
1070
   379
1070
     1
  0
DIMSTYLE
105
C996
330
A
100
AcDbSymbolTableRecord
100
AcDbDimStyleTableRecord
  2
AM_ANSI$4
 70
     0
  4
mm
 41
0.1
 42
0.05
 43
0.5
 44
0.1
 47
0.1
 48
0.1
 78
     7
 79
     2
140
0.12
141
0.0
146
0.71
147
0.06
176
   256
177
   256
178
     2
274
     4
284
     7
288
     1
289
     0
340
11
371
    -1
372
    -1
1001
ACAD_DSTYLE_DIMJOGGED_JOGANGLE_SYMBOL
1070
   384
1040
0.7853981633974483
1001
ACAD_DSTYLE_DIMARC_LENGTH_SYMBOL
1070
   379
1070
     1
  0
DIMSTYLE
105
C997
330
A
100
AcDbSymbolTableRecord
100
AcDbDimStyleTableRecord
  2
AM_ANSI$7
 70
     0
  4
mm
 41
0.1
 42
0.05
 43
0.5
 44
0.1
 47
0.1
 48
0.1
 78
     7
 79
     2
140
0.24
141
0.0
146
0.71
147
0.06
176
   256
177
   256
178
     2
274
     4
284
     7
340
11
371
    -1
372
    -1
1001
ACAD_DSTYLE_DIMJOGGED_JOGANGLE_SYMBOL
1070
   384
1040
0.7853981633974483
1001
ACAD_DSTYLE_DIMARC_LENGTH_SYMBOL
1070
   379
1070
     1
  0
DIMSTYLE
105
C998
330
A
100
AcDbSymbolTableRecord
100
AcDbDimStyleTableRecord
  2
AM_ANSI$SF
 70
     0
  4
mm
 41
0.1
 42
0.05
 43
0.5
 44
0.1
 47
0.1
 48
0.1
 75
     1
 76
     1
 78
     7
 79
     2
140
0.12
141
0.0
146
0.71
147
0.06
176
   256
177
   256
178
     2
274
     4
284
     7
340
11
371
    -1
372
    -1
1001
ACAD_DSTYLE_DIMJOGGED_JOGANGLE_SYMBOL
1070
   384
1040
0.7853981633974483
1001
ACAD_DSTYLE_DIMARC_LENGTH_SYMBOL
1070
   379
1070
     1
  0
DIMSTYLE
105
C999
330
A
100
AcDbSymbolTableRecord
100
AcDbDimStyleTableRecord
  2
AM_ANSI$SH
 70
     0
  4
mm
 41
0.1
 42
0.05
 43
0.5
 44
0.1
 47
0.1
 48
0.1
 75
     1
 76
     1
 78
     7
 79
     2
140
0.12
141
0.0
146
0.71
147
0.06
173
     1
176
   256
177
   256
178
     2
274
     4
284
     7
340
11
343
72
371
    -1
372
    -1
1001
ACAD_DSTYLE_DIMJOGGED_JOGANGLE_SYMBOL
1070
   384
1040
0.7853981633974483
1001
ACAD_DSTYLE_DIMARC_LENGTH_SYMBOL
1070
   379
1070
     1
  0
DIMSTYLE
105
C99A
330
A
100
AcDbSymbolTableRecord
100
AcDbDimStyleTableRecord
  2
SYMBOL
 70
     0
  4
"
 41
2.5
 42
1.0
 43
10.0
 44
1.0
 47
0.1
 48
0.1
 73
     0
 74
     0
 77
     1
 78
     8
 79
     2
140
3.5
141
0.0
143
0.0393701
146
0.71
147
1.5
172
     1
176
   256
177
   256
178
     7
271
     2
272
     3
274
     4
283
     0
284
     8
340
11
371
    -1
372
    -1
  0
DIMSTYLE
105
2184E
330
A
100
AcDbSymbolTableRecord
100
AcDbDimStyleTableRecord
  2
DIMSTYLE
 70
     0
 41
1.0
 42
2.54
 44
2.54
 73
     0
 74
     0
140
3.2
147
1.6
173
     1
279
     2
340
11
  0
DIMSTYLE
105
2184F
330
A
100
AcDbSymbolTableRecord
100
AcDbDimStyleTableRecord
  2
DIMSTYLE$0
 70
     0
 41
1.0
 42
2.54
 44
2.54
 73
     0
 74
     0
140
3.2
147
1.6
173
     1
279
     2
340
11
  0
ENDTAB
  0
TABLE
  2
BLOCK_RECORD
  5
1
330
0
100
AcDbSymbolTable
 70
    15
  0
BLOCK_RECORD
  5
1F
102
{ACAD_XDICTIONARY
360
8A
102
}
330
1
100
AcDbSymbolTableRecord
100
AcDbBlockTableRecord
  2
*Model_Space
340
22
  0
BLOCK_RECORD
  5
1B
330
1
100
AcDbSymbolTableRecord
100
AcDbBlockTableRecord
  2
*Paper_Space
340
1E
  0
BLOCK_RECORD
  5
23
330
1
100
AcDbSymbolTableRecord
100
AcDbBlockTableRecord
  2
*Paper_Space0
340
26
  0
BLOCK_RECORD
  5
72
330
1
100
AcDbSymbolTableRecord
100
AcDbBlockTableRecord
  2
GENAXEH
340
0
  0
BLOCK_RECORD
  5
6C4
330
1
100
AcDbSymbolTableRecord
100
AcDbBlockTableRecord
  2
_Dot
340
0
102
{BLKREFS
331
2EB16
331
2EB17
331
2EB1F
331
2EB20
331
2EB28
331
2EB29
331
2EB31
331
2EB32
331
2EB3A
331
2EB3B
331
2EB43
331
2EB44
331
2EBE6
331
2EBE7
102
}
  0
BLOCK_RECORD
  5
A66
330
1
100
AcDbSymbolTableRecord
100
AcDbBlockTableRecord
  2
_OPEN30
340
0
  0
BLOCK_RECORD
  5
2EA13
330
1
100
AcDbSymbolTableRecord
100
AcDbBlockTableRecord
  2
*D5
340
0
  0
BLOCK_RECORD
  5
2EA30
330
1
100
AcDbSymbolTableRecord
100
AcDbBlockTableRecord
  2
GENDOT
340
0
102
{BLKREFS
331
2EBDE
331
2EBDF
102
}
  0
BLOCK_RECORD
  5
2EA46
330
1
100
AcDbSymbolTableRecord
100
AcDbBlockTableRecord
  2
*D7
340
0
  0
BLOCK_RECORD
  5
2EA72
330
1
100
AcDbSymbolTableRecord
100
AcDbBlockTableRecord
  2
*D8
340
0
  0
BLOCK_RECORD
  5
2EA8A
330
1
100
AcDbSymbolTableRecord
100
AcDbBlockTableRecord
  2
*D9
340
0
  0
BLOCK_RECORD
  5
2EAA2
330
1
100
AcDbSymbolTableRecord
100
AcDbBlockTableRecord
  2
*D10
340
0
  0
BLOCK_RECORD
  5
2EACB
330
1
100
AcDbSymbolTableRecord
100
AcDbBlockTableRecord
  2
*D11
340
0
  0
BLOCK_RECORD
  5
2EAE4
330
1
100
AcDbSymbolTableRecord
100
AcDbBlockTableRecord
  2
*D12
340
0
  0
BLOCK_RECORD
  5
2EAFC
330
1
100
AcDbSymbolTableRecord
100
AcDbBlockTableRecord
  2
*D13
340
0
  0
ENDTAB
  0
ENDSEC
  0
SECTION
  2
BLOCKS
  0
BLOCK
  5
20
330
1F
100
AcDbEntity
  8
0
100
AcDbBlockBegin
  2
*Model_Space
 70
     0
 10
0.0
 20
0.0
 30
0.0
  3
*Model_Space
  1

  0
ENDBLK
  5
21
330
1F
100
AcDbEntity
  8
0
100
AcDbBlockEnd
  0
BLOCK
  5
1C
330
1B
100
AcDbEntity
 67
     1
  8
0
100
AcDbBlockBegin
  2
*Paper_Space
 70
     0
 10
0.0
 20
0.0
 30
0.0
  3
*Paper_Space
  1

  0
ENDBLK
  5
1D
330
1B
100
AcDbEntity
 67
     1
  8
0
100
AcDbBlockEnd
  0
BLOCK
  5
24
330
23
100
AcDbEntity
 67
     1
  8
0
100
AcDbBlockBegin
  2
*Paper_Space0
 70
     0
 10
0.0
 20
0.0
 30
0.0
  3
*Paper_Space0
  1

  0
ENDBLK
  5
25
330
23
100
AcDbEntity
 67
     1
  8
0
100
AcDbBlockEnd
  0
BLOCK
  5
74
330
72
100
AcDbEntity
  8
0
100
AcDbBlockBegin
  2
GENAXEH
 70
     0
 10
0.0
 20
0.0
 30
0.0
  3
GENAXEH
  1

  0
LINE
  5
73
330
72
100
AcDbEntity
  8
0
100
AcDbLine
 10
-1.0
 20
0.0
 30
0.0
 11
1.0
 21
0.0
 31
0.0
  0
ENDBLK
  5
75
330
72
100
AcDbEntity
  8
0
100
AcDbBlockEnd
  0
BLOCK
  5
6C7
330
6C4
100
AcDbEntity
  8
0
100
AcDbBlockBegin
  2
_Dot
 70
     0
 10
0.0
 20
0.0
 30
0.0
  3
_Dot
  1

  0
LWPOLYLINE
  5
6C5
330
6C4
100
AcDbEntity
  8
0
  6
ByBlock
 62
     0
100
AcDbPolyline
 90
        2
 70
     1
 43
0.5
 10
-0.25
 20
0.0
 42
1.0
 10
0.25
 20
0.0
 42
1.0
  0
LINE
  5
6C6
330
6C4
100
AcDbEntity
  8
0
  6
ByBlock
 62
     0
370
    -2
100
AcDbLine
 10
-0.5
 20
0.0
 30
0.0
 11
-1.0
 21
0.0
 31
0.0
  0
ENDBLK
  5
6C8
330
6C4
100
AcDbEntity
  8
0
100
AcDbBlockEnd
  0
BLOCK
  5
A6A
330
A66
100
AcDbEntity
  8
0
100
AcDbBlockBegin
  2
_OPEN30
 70
     0
 10
0.0
 20
0.0
 30
0.0
  3
_OPEN30
  1

  0
LINE
  5
A67
330
A66
100
AcDbEntity
  8
0
  6
ByBlock
 62
     0
100
AcDbLine
 10
-1.0
 20
0.26794919
 30
0.0
 11
0.0
 21
0.0
 31
0.0
  0
LINE
  5
A68
330
A66
100
AcDbEntity
  8
0
  6
ByBlock
 62
     0
100
AcDbLine
 10
0.0
 20
0.0
 30
0.0
 11
-1.0
 21
-0.26794919
 31
0.0
  0
LINE
  5
A69
330
A66
100
AcDbEntity
  8
0
  6
ByBlock
 62
     0
100
AcDbLine
 10
0.0
 20
0.0
 30
0.0
 11
-1.0
 21
0.0
 31
0.0
  0
ENDBLK
  5
A6B
330
A66
100
AcDbEntity
  8
0
100
AcDbBlockEnd
  0
BLOCK
  5
2EA19
330
2EA13
100
AcDbEntity
  8
0
100
AcDbBlockBegin
  2
*D5
 70
     1
 10
0.0
 20
0.0
 30
0.0
  3
*D5
  1

  0
LINE
  5
2EBDB
330
2EA13
100
AcDbEntity
  8
AM_5
100
AcDbLine
 10
617.2538161013736
 20
618.7791776417409
 30
0.0
 11
619.7695886131056
 21
621.8889828879285
 31
0.0
  0
LINE
  5
2EBDC
330
2EA13
100
AcDbEntity
  8
AM_5
100
AcDbLine
 10
621.0274748689714
 20
623.4438855110223
 30
0.0
 11
628.2314611432597
 21
632.3489014473891
 31
0.0
  0
LINE
  5
2EBDD
330
2EA13
100
AcDbEntity
  8
AM_5
100
AcDbLine
 10
628.2314611432597
 20
632.3489014473891
 30
0.0
 11
633.5814611432597
 21
632.3489014473892
 31
0.0
  0
INSERT
  5
2EBDE
330
2EA13
100
AcDbEntity
  8
AM_5
100
AcDbBlockReference
  2
GENDOT
 10
615.9959298455078
 20
617.2242750186471
 30
0.0
 41
2.0
 42
2.0
 43
2.0
 50
231.0278085962405
  0
INSERT
  5
2EBDF
330
2EA13
100
AcDbEntity
  8
AM_5
100
AcDbBlockReference
  2
GENDOT
 10
621.0274748689714
 20
623.4438855110223
 30
0.0
 41
2.0
 42
2.0
 43
2.0
 50
51.02780859624051
  0
MTEXT
  5
2EBE0
330
2EA13
100
AcDbEntity
  8
AM_5
 62
     2
100
AcDbMText
 10
631.6564611432596
 20
635.5989014473891
 30
0.0
 40
3.5
 41
0.0
 71
     5
 72
     1
  1
\U+22058
 73
     1
 44
1.0
1001
ACAD
1000
MTEXTBEGIN
1070
    73
1070
     1
1070
    44
1040
1.0
1070
    74
1070
     0
1000
MTEXTEND
  0
POINT
  5
2EBE1
330
2EA13
100
AcDbEntity
  8
Defpoints
 62
     0
100
AcDbPoint
 10
621.0274748689714
 20
623.4438855110223
 30
0.0
  0
POINT
  5
2EBE2
330
2EA13
100
AcDbEntity
  8
Defpoints
 62
     0
100
AcDbPoint
 10
615.9959298455078
 20
617.2242750186471
 30
0.0
  0
ENDBLK
  5
2EA1A
330
2EA13
100
AcDbEntity
  8
0
100
AcDbBlockEnd
  0
BLOCK
  5
2EA33
330
2EA30
100
AcDbEntity
  8
0
100
AcDbBlockBegin
  2
GENDOT
 70
     0
 10
0.0
 20
0.0
 30
0.0
  3
GENDOT
  1

  0
LINE
  5
2EA31
330
2EA30
100
AcDbEntity
  8
0
100
AcDbLine
 10
0.0
 20
0.0
 30
0.0
 11
-1.0
 21
0.0
 31
0.0
  0
LWPOLYLINE
  5
2EA32
330
2EA30
100
AcDbEntity
  8
0
100
AcDbPolyline
 90
        2
 70
     1
 43
0.25
 10
-0.125
 20
0.0
 42
1.0
 10
0.125
 20
0.0
 42
1.0
  0
ENDBLK
  5
2EA34
330
2EA30
100
AcDbEntity
  8
0
100
AcDbBlockEnd
  0
BLOCK
  5
2EA50
330
2EA46
100
AcDbEntity
  8
0
100
AcDbBlockBegin
  2
*D7
 70
     1
 10
0.0
 20
0.0
 30
0.0
  3
*D7
  1

  0
LINE
  5
2EBE3
330
2EA46
100
AcDbEntity
  8
AM_5
100
AcDbLine
 10
610.511702357239
 20
590.3340762648346
 30
0.0
 11
598.511702357239
 21
590.3340762648346
 31
0.0
  0
LINE
  5
2EBE4
330
2EA46
100
AcDbEntity
  8
AM_5
100
AcDbLine
 10
610.511702357239
 20
620.3340802648345
 30
0.0
 11
598.511702357239
 21
620.3340802648345
 31
0.0
  0
LINE
  5
2EBE5
330
2EA46
100
AcDbEntity
  8
AM_5
100
AcDbLine
 10
599.5117023572389
 20
591.3340762648346
 30
0.0
 11
599.5117023572389
 21
619.3340802648346
 31
0.0
  0
INSERT
  5
2EBE6
330
2EA46
100
AcDbEntity
  8
AM_5
100
AcDbBlockReference
  2
_Dot
 10
599.5117023572389
 20
590.3340762648346
 30
0.0
 50
270.0
  0
INSERT
  5
2EBE7
330
2EA46
100
AcDbEntity
  8
AM_5
100
AcDbBlockReference
  2
_Dot
 10
599.5117023572389
 20
620.3340802648345
 30
0.0
 50
90.0
  0
MTEXT
  5
2EBE8
330
2EA46
100
AcDbEntity
  8
AM_5
 62
     2
100
AcDbMText
 10
596.4117023572388
 20
605.3340782648347
 30
0.0
 40
3.200000000000001
 41
0.0
 71
     5
 72
     1
  1
30
 11
0.0000000000000001
 21
1.0
 31
0.0
 73
     1
 44
1.0
1001
ACAD
1000
MTEXTBEGIN
1070
    73
1070
     1
1070
    44
1040
1.0
1070
    74
1070
     0
1000
MTEXTEND
  0
POINT
  5
2EBE9
330
2EA46
100
AcDbEntity
  8
Defpoints
 62
     0
100
AcDbPoint
 10
611.5117023572389
 20
590.3340762648346
 30
0.0
  0
POINT
  5
2EBEA
330
2EA46
100
AcDbEntity
  8
Defpoints
 62
     0
100
AcDbPoint
 10
611.5117023572389
 20
620.3340802648345
 30
0.0
  0
POINT
  5
2EBEB
330
2EA46
100
AcDbEntity
  8
Defpoints
 62
     0
100
AcDbPoint
 10
599.5117023572389
 20
620.3340802648345
 30
0.0
  0
ENDBLK
  5
2EA51
330
2EA46
100
AcDbEntity
  8
0
100
AcDbBlockEnd
  0
BLOCK
  5
2EA7C
330
2EA72
100
AcDbEntity
  8
0
100
AcDbBlockBegin
  2
*D8
 70
     1
 10
0.0
 20
0.0
 30
0.0
  3
*D8
  1

  0
LINE
  5
2EB13
330
2EA72
100
AcDbEntity
  8
AM_5
100
AcDbLine
 10
603.5117023572393
 20
688.3419827555457
 30
0.0
 11
603.5117023572393
 21
671.3419830102163
 31
0.0
  0
LINE
  5
2EB14
330
2EA72
100
AcDbEntity
  8
AM_5
100
AcDbLine
 10
633.511682357239
 20
688.3419827555457
 30
0.0
 11
633.511682357239
 21
671.3419830102163
 31
0.0
  0
LINE
  5
2EB15
330
2EA72
100
AcDbEntity
  8
AM_5
100
AcDbLine
 10
604.5117023572393
 20
672.3419830102163
 30
0.0
 11
632.511682357239
 21
672.3419830102163
 31
0.0
  0
INSERT
  5
2EB16
330
2EA72
100
AcDbEntity
  8
AM_5
100
AcDbBlockReference
  2
_Dot
 10
603.5117023572393
 20
672.3419830102163
 30
0.0
 50
180.0
  0
INSERT
  5
2EB17
330
2EA72
100
AcDbEntity
  8
AM_5
100
AcDbBlockReference
  2
_Dot
 10
633.511682357239
 20
672.3419830102163
 30
0.0
  0
MTEXT
  5
2EB18
330
2EA72
100
AcDbEntity
  8
AM_5
 62
     2
100
AcDbMText
 10
618.511692357239
 20
675.4419830102164
 30
0.0
 40
3.200000000000001
 41
0.0
 71
     5
 72
     1
  1
30
 73
     1
 44
1.0
1001
ACAD
1000
MTEXTBEGIN
1070
    73
1070
     1
1070
    44
1040
1.0
1070
    74
1070
     0
1000
MTEXTEND
  0
POINT
  5
2EB19
330
2EA72
100
AcDbEntity
  8
Defpoints
 62
     0
100
AcDbPoint
 10
603.5117023572393
 20
689.3419827555458
 30
0.0
  0
POINT
  5
2EB1A
330
2EA72
100
AcDbEntity
  8
Defpoints
 62
     0
100
AcDbPoint
 10
633.511682357239
 20
689.3419827555458
 30
0.0
  0
POINT
  5
2EB1B
330
2EA72
100
AcDbEntity
  8
Defpoints
 62
     0
100
AcDbPoint
 10
633.511682357239
 20
672.3419830102163
 30
0.0
  0
ENDBLK
  5
2EA7D
330
2EA72
100
AcDbEntity
  8
0
100
AcDbBlockEnd
  0
BLOCK
  5
2EA94
330
2EA8A
100
AcDbEntity
  8
0
100
AcDbBlockBegin
  2
*D9
 70
     1
 10
0.0
 20
0.0
 30
0.0
  3
*D9
  1

  0
LINE
  5
2EB1C
330
2EA8A
100
AcDbEntity
  8
AM_5
100
AcDbLine
 10
607.5117023572389
 20
684.3419810102163
 30
0.0
 11
590.511701357239
 21
684.3419810102163
 31
0.0
  0
LINE
  5
2EB1D
330
2EA8A
100
AcDbEntity
  8
AM_5
100
AcDbLine
 10
617.5117062842302
 20
734.3419830102158
 30
0.0
 11
590.511701357239
 21
734.3419830102158
 31
0.0
  0
LINE
  5
2EB1E
330
2EA8A
100
AcDbEntity
  8
AM_5
100
AcDbLine
 10
591.5117013572389
 20
685.3419810102163
 30
0.0
 11
591.5117013572389
 21
733.3419830102158
 31
0.0
  0
INSERT
  5
2EB1F
330
2EA8A
100
AcDbEntity
  8
AM_5
100
AcDbBlockReference
  2
_Dot
 10
591.5117013572389
 20
684.3419810102163
 30
0.0
 50
270.0
  0
INSERT
  5
2EB20
330
2EA8A
100
AcDbEntity
  8
AM_5
100
AcDbBlockReference
  2
_Dot
 10
591.5117013572389
 20
734.3419830102158
 30
0.0
 50
90.0
  0
MTEXT
  5
2EB21
330
2EA8A
100
AcDbEntity
  8
AM_5
 62
     2
100
AcDbMText
 10
588.4117013572388
 20
709.3419820102162
 30
0.0
 40
3.200000000000001
 41
0.0
 71
     5
 72
     1
  1
50
 11
0.0000000000000001
 21
1.0
 31
0.0
 73
     1
 44
1.0
1001
ACAD
1000
MTEXTBEGIN
1070
    73
1070
     1
1070
    44
1040
1.0
1070
    74
1070
     0
1000
MTEXTEND
  0
POINT
  5
2EB22
330
2EA8A
100
AcDbEntity
  8
Defpoints
 62
     0
100
AcDbPoint
 10
608.5117023572389
 20
684.3419810102163
 30
0.0
  0
POINT
  5
2EB23
330
2EA8A
100
AcDbEntity
  8
Defpoints
 62
     0
100
AcDbPoint
 10
618.5117062842302
 20
734.3419830102158
 30
0.0
  0
POINT
  5
2EB24
330
2EA8A
100
AcDbEntity
  8
Defpoints
 62
     0
100
AcDbPoint
 10
591.5117013572389
 20
734.3419830102158
 30
0.0
  0
ENDBLK
  5
2EA95
330
2EA8A
100
AcDbEntity
  8
0
100
AcDbBlockEnd
  0
BLOCK
  5
2EAAC
330
2EAA2
100
AcDbEntity
  8
0
100
AcDbBlockBegin
  2
*D10
 70
     1
 10
0.0
 20
0.0
 30
0.0
  3
*D10
  1

  0
LINE
  5
2EB25
330
2EAA2
100
AcDbEntity
  8
AM_5
100
AcDbLine
 10
697.3196103572389
 20
735.3419790102163
 30
0.0
 11
697.3196103572389
 21
747.3419790102163
 31
0.0
  0
LINE
  5
2EB26
330
2EAA2
100
AcDbEntity
  8
AM_5
100
AcDbLine
 10
687.7196153572389
 20
730.0919790102163
 30
0.0
 11
687.7196153572389
 21
747.3419790102163
 31
0.0
  0
LINE
  5
2EB27
330
2EAA2
100
AcDbEntity
  8
AM_5
100
AcDbLine
 10
696.3196103572389
 20
746.3419790102164
 30
0.0
 11
688.7196153572389
 21
746.3419790102164
 31
0.0
  0
INSERT
  5
2EB28
330
2EAA2
100
AcDbEntity
  8
AM_5
100
AcDbBlockReference
  2
_Dot
 10
697.3196103572389
 20
746.3419790102164
 30
0.0
  0
INSERT
  5
2EB29
330
2EAA2
100
AcDbEntity
  8
AM_5
100
AcDbBlockReference
  2
_Dot
 10
687.7196153572389
 20
746.3419790102164
 30
0.0
 50
180.0
  0
MTEXT
  5
2EB2A
330
2EAA2
100
AcDbEntity
  8
AM_5
 62
     2
100
AcDbMText
 10
692.5196128572389
 20
749.4419790102163
 30
0.0
 40
3.200000000000001
 41
0.0
 71
     5
 72
     1
  1
9.6
 73
     1
 44
1.0
1001
ACAD
1000
MTEXTBEGIN
1070
    73
1070
     1
1070
    44
1040
1.0
1070
    74
1070
     0
1000
MTEXTEND
  0
POINT
  5
2EB2B
330
2EAA2
100
AcDbEntity
  8
Defpoints
 62
     0
100
AcDbPoint
 10
697.3196103572389
 20
734.3419790102164
 30
0.0
  0
POINT
  5
2EB2C
330
2EAA2
100
AcDbEntity
  8
Defpoints
 62
     0
100
AcDbPoint
 10
687.7196153572389
 20
729.0919790102163
 30
0.0
  0
POINT
  5
2EB2D
330
2EAA2
100
AcDbEntity
  8
Defpoints
 62
     0
100
AcDbPoint
 10
687.7196153572389
 20
746.3419790102164
 30
0.0
  0
ENDBLK
  5
2EAAD
330
2EAA2
100
AcDbEntity
  8
0
100
AcDbBlockEnd
  0
BLOCK
  5
2EAD5
330
2EACB
100
AcDbEntity
  8
0
100
AcDbBlockBegin
  2
*D11
 70
     1
 10
0.0
 20
0.0
 30
0.0
  3
*D11
  1

  0
LINE
  5
2EB2E
330
2EACB
100
AcDbEntity
  8
AM_5
100
AcDbLine
 10
807.3196103572389
 20
704.1576620102164
 30
0.0
 11
807.3196103572389
 21
747.3419790102163
 31
0.0
  0
LINE
  5
2EB2F
330
2EACB
100
AcDbEntity
  8
AM_5
100
AcDbLine
 10
737.3196083572389
 20
735.3419790102163
 30
0.0
 11
737.3196083572389
 21
747.3419790102163
 31
0.0
  0
LINE
  5
2EB30
330
2EACB
100
AcDbEntity
  8
AM_5
100
AcDbLine
 10
806.3196103572389
 20
746.3419790102164
 30
0.0
 11
738.3196083572389
 21
746.3419790102164
 31
0.0
  0
INSERT
  5
2EB31
330
2EACB
100
AcDbEntity
  8
AM_5
100
AcDbBlockReference
  2
_Dot
 10
807.3196103572389
 20
746.3419790102164
 30
0.0
  0
INSERT
  5
2EB32
330
2EACB
100
AcDbEntity
  8
AM_5
100
AcDbBlockReference
  2
_Dot
 10
737.3196083572389
 20
746.3419790102164
 30
0.0
 50
180.0
  0
MTEXT
  5
2EB33
330
2EACB
100
AcDbEntity
  8
AM_5
 62
     2
100
AcDbMText
 10
772.3196093572389
 20
749.4419790102163
 30
0.0
 40
3.200000000000001
 41
0.0
 71
     5
 72
     1
  1
70
 73
     1
 44
1.0
1001
ACAD
1000
MTEXTBEGIN
1070
    73
1070
     1
1070
    44
1040
1.0
1070
    74
1070
     0
1000
MTEXTEND
  0
POINT
  5
2EB34
330
2EACB
100
AcDbEntity
  8
Defpoints
 62
     0
100
AcDbPoint
 10
807.3196103572389
 20
703.1576620102164
 30
0.0
  0
POINT
  5
2EB35
330
2EACB
100
AcDbEntity
  8
Defpoints
 62
     0
100
AcDbPoint
 10
737.3196083572389
 20
734.3419790102164
 30
0.0
  0
POINT
  5
2EB36
330
2EACB
100
AcDbEntity
  8
Defpoints
 62
     0
100
AcDbPoint
 10
737.3196083572389
 20
746.3419790102164
 30
0.0
  0
ENDBLK
  5
2EAD6
330
2EACB
100
AcDbEntity
  8
0
100
AcDbBlockEnd
  0
BLOCK
  5
2EAEE
330
2EAE4
100
AcDbEntity
  8
0
100
AcDbBlockBegin
  2
*D12
 70
     1
 10
0.0
 20
0.0
 30
0.0
  3
*D12
  1

  0
LINE
  5
2EB37
330
2EAE4
100
AcDbEntity
  8
AM_5
100
AcDbLine
 10
888.319602357239
 20
664.3419767102163
 30
0.0
 11
915.319603357239
 21
664.3419767102163
 31
0.0
  0
LINE
  5
2EB38
330
2EAE4
100
AcDbEntity
  8
AM_5
100
AcDbLine
 10
888.3196062842301
 20
734.3419790102158
 30
0.0
 11
915.319603357239
 21
734.3419790102158
 31
0.0
  0
LINE
  5
2EB39
330
2EAE4
100
AcDbEntity
  8
AM_5
100
AcDbLine
 10
914.319603357239
 20
665.3419767102164
 30
0.0
 11
914.319603357239
 21
733.3419790102158
 31
0.0
  0
INSERT
  5
2EB3A
330
2EAE4
100
AcDbEntity
  8
AM_5
100
AcDbBlockReference
  2
_Dot
 10
914.319603357239
 20
664.3419767102163
 30
0.0
 50
270.0
  0
INSERT
  5
2EB3B
330
2EAE4
100
AcDbEntity
  8
AM_5
100
AcDbBlockReference
  2
_Dot
 10
914.319603357239
 20
734.3419790102158
 30
0.0
 50
90.0
  0
MTEXT
  5
2EB3C
330
2EAE4
100
AcDbEntity
  8
AM_5
 62
     2
100
AcDbMText
 10
911.2196033572388
 20
699.3419778602162
 30
0.0
 40
3.200000000000001
 41
0.0
 71
     5
 72
     1
  1
70
 11
0.0000000000000001
 21
1.0
 31
0.0
 73
     1
 44
1.0
1001
ACAD
1000
MTEXTBEGIN
1070
    73
1070
     1
1070
    44
1040
1.0
1070
    74
1070
     0
1000
MTEXTEND
  0
POINT
  5
2EB3D
330
2EAE4
100
AcDbEntity
  8
Defpoints
 62
     0
100
AcDbPoint
 10
887.319602357239
 20
664.3419767102163
 30
0.0
  0
POINT
  5
2EB3E
330
2EAE4
100
AcDbEntity
  8
Defpoints
 62
     0
100
AcDbPoint
 10
887.3196062842302
 20
734.3419790102158
 30
0.0
  0
POINT
  5
2EB3F
330
2EAE4
100
AcDbEntity
  8
Defpoints
 62
     0
100
AcDbPoint
 10
914.319603357239
 20
734.3419790102158
 30
0.0
  0
ENDBLK
  5
2EAEF
330
2EAE4
100
AcDbEntity
  8
0
100
AcDbBlockEnd
  0
BLOCK
  5
2EB06
330
2EAFC
100
AcDbEntity
  8
0
100
AcDbBlockBegin
  2
*D13
 70
     1
 10
0.0
 20
0.0
 30
0.0
  3
*D13
  1

  0
LINE
  5
2EB40
330
2EAFC
100
AcDbEntity
  8
AM_5
100
AcDbLine
 10
872.3196023572411
 20
720.3419868641987
 30
0.0
 11
872.3196023572411
 21
747.341979010216
 31
0.0
  0
LINE
  5
2EB41
330
2EAFC
100
AcDbEntity
  8
AM_5
100
AcDbLine
 10
902.319602357239
 20
720.3419790102164
 30
0.0
 11
902.319602357239
 21
747.341979010216
 31
0.0
  0
LINE
  5
2EB42
330
2EAFC
100
AcDbEntity
  8
AM_5
100
AcDbLine
 10
873.3196023572411
 20
746.341979010216
 30
0.0
 11
901.3196023572389
 21
746.341979010216
 31
0.0
  0
INSERT
  5
2EB43
330
2EAFC
100
AcDbEntity
  8
AM_5
100
AcDbBlockReference
  2
_Dot
 10
872.3196023572411
 20
746.341979010216
 30
0.0
 50
180.0
  0
INSERT
  5
2EB44
330
2EAFC
100
AcDbEntity
  8
AM_5
100
AcDbBlockReference
  2
_Dot
 10
902.319602357239
 20
746.341979010216
 30
0.0
  0
MTEXT
  5
2EB45
330
2EAFC
100
AcDbEntity
  8
AM_5
 62
     2
100
AcDbMText
 10
887.3196023572401
 20
749.4419790102161
 30
0.0
 40
3.200000000000001
 41
0.0
 71
     5
 72
     1
  1
30
 73
     1
 44
1.0
1001
ACAD
1000
MTEXTBEGIN
1070
    73
1070
     1
1070
    44
1040
1.0
1070
    74
1070
     0
1000
MTEXTEND
  0
POINT
  5
2EB46
330
2EAFC
100
AcDbEntity
  8
Defpoints
 62
     0
100
AcDbPoint
 10
872.3196023572411
 20
719.3419868641988
 30
0.0
  0
POINT
  5
2EB47
330
2EAFC
100
AcDbEntity
  8
Defpoints
 62
     0
100
AcDbPoint
 10
902.319602357239
 20
719.3419790102163
 30
0.0
  0
POINT
  5
2EB48
330
2EAFC
100
AcDbEntity
  8
Defpoints
 62
     0
100
AcDbPoint
 10
902.319602357239
 20
746.341979010216
 30
0.0
  0
ENDBLK
  5
2EB07
330
2EAFC
100
AcDbEntity
  8
0
100
AcDbBlockEnd
  0
ENDSEC
  0
SECTION
  2
ENTITIES
  0
LINE
  5
2A70B
330
1F
100
AcDbEntity
  8
AM_0
100
AcDbLine
 10
541.677562357239
 20
834.4811031702104
 30
0.0
 11
636.2470738526577
 21
834.4811031702104
 31
0.0
  0
LINE
  5
2A70D
330
1F
100
AcDbEntity
  8
AM_2
100
AcDbLine
 10
564.6775623572392
 20
778.4811031702103
 30
0.0
 11
636.2470738526577
 21
778.4811031702103
 31
0.0
  0
LINE
  5
2A70E
330
1F
100
AcDbEntity
  8
AM_2
100
AcDbLine
 10
564.6775623572391
 20
786.4811031702104
 30
0.0
 11
636.2470738526577
 21
786.4811031702103
 31
0.0
  0
LINE
  5
2A710
330
1F
100
AcDbEntity
  8
AM_2
100
AcDbLine
 10
541.677562357239
 20
802.48110317021
 30
0.0
 11
636.2470738526577
 21
802.48110317021
 31
0.0
  0
LINE
  5
2A711
330
1F
100
AcDbEntity
  8
AM_2
100
AcDbLine
 10
541.677562357239
 20
810.4811031702103
 30
0.0
 11
636.2470738526577
 21
810.4811031702103
 31
0.0
  0
LINE
  5
2A712
330
1F
100
AcDbEntity
  8
AM_2
100
AcDbLine
 10
541.677562357239
 20
818.4811031702103
 30
0.0
 11
636.2470738526577
 21
818.4811031702103
 31
0.0
  0
LINE
  5
2A713
330
1F
100
AcDbEntity
  8
AM_2
100
AcDbLine
 10
541.677562357239
 20
826.4811031702103
 30
0.0
 11
636.2470738526577
 21
826.4811031702103
 31
0.0
  0
LINE
  5
2A714
330
1F
100
AcDbEntity
  8
AM_0
100
AcDbLine
 10
541.677562357239
 20
834.4811031702104
 30
0.0
 11
541.6775623572391
 21
778.4811031702106
 31
0.0
  0
LINE
  5
2A716
330
1F
100
AcDbEntity
  8
AM_2
100
AcDbLine
 10
564.677562357239
 20
834.4811031702104
 30
0.0
 11
564.6775623572392
 21
770.4811031702107
 31
0.0
  0
MTEXT
  5
2A71A
330
1F
100
AcDbEntity
  8
AM_6
100
AcDbMText
 10
553.177562357239
 20
806.4811031702102
 30
0.0
 40
3.2
 41
23.0
 71
     5
 72
     5
  1
仕上げ
 73
     1
 44
1.0
1001
ACAD
1000
MTEXTBEGIN
1070
    73
1070
     1
1070
    44
1040
1.0
1070
    74
1070
     0
1000
MTEXTEND
  0
MTEXT
  5
2A71C
330
1F
100
AcDbEntity
  8
AM_6
100
AcDbMText
 10
553.177562357239
 20
814.4811031702101
 30
0.0
 40
3.2
 41
23.0
 71
     5
 72
     5
  1
材質
 73
     1
 44
1.0
1001
ACAD
1000
MTEXTBEGIN
1070
    73
1070
     1
1070
    44
1040
1.0
1070
    74
1070
     0
1000
MTEXTEND
  0
MTEXT
  5
2A71D
330
1F
100
AcDbEntity
  8
AM_6
100
AcDbMText
 10
553.177562357239
 20
830.4811031702101
 30
0.0
 40
3.2
 41
23.0
 71
     5
 72
     5
  1
品名
 73
     1
 44
1.0
1001
ACAD
1000
MTEXTBEGIN
1070
    73
1070
     1
1070
    44
1040
1.0
1070
    74
1070
     0
1000
MTEXTEND
  0
MTEXT
  5
2A71E
330
1F
100
AcDbEntity
  8
AM_6
100
AcDbMText
 10
553.177562357239
 20
822.4811031702101
 30
0.0
 40
3.2
 41
23.0
 71
     5
 72
     5
  1
品番
 73
     1
 44
1.0
1001
ACAD
1000
MTEXTBEGIN
1070
    73
1070
     1
1070
    44
1040
1.0
1070
    74
1070
     0
1000
MTEXTEND
  0
MTEXT
  5
2A71F
330
1F
100
AcDbEntity
  8
AM_6
100
AcDbMText
 10
564.677562357239
 20
806.4811031702102
 30
0.0
 40
3.2
 41
90.0
 71
     4
 72
     5
  1
　サーチライトニッケルクロム
 73
     1
 44
1.0
1001
ACAD
1000
MTEXTBEGIN
1070
    73
1070
     1
1070
    44
1040
1.0
1070
    74
1070
     0
1000
MTEXTEND
  0
MTEXT
  5
2A721
330
1F
100
AcDbEntity
  8
AM_6
100
AcDbMText
 10
564.677562357239
 20
814.4811031702101
 30
0.0
 40
3.2
 41
90.0
 71
     4
 72
     5
  1
　亜鉛ダイキャスト
 73
     1
 44
1.0
1001
ACAD
1000
MTEXTBEGIN
1070
    73
1070
     1
1070
    44
1040
1.0
1070
    74
1070
     0
1000
MTEXTEND
  0
MTEXT
  5
2A722
330
1F
100
AcDbEntity
  8
AM_6
100
AcDbMText
 10
564.677562357239
 20
822.4811031702101
 30
0.0
 40
3.2
 41
90.0
 71
     4
 72
     5
  1
　LC-61
 73
     1
 44
1.0
1001
ACAD
1000
MTEXTBEGIN
1070
    73
1070
     1
1070
    44
1040
1.0
1070
    74
1070
     0
1000
MTEXTEND
  0
MTEXT
  5
2A723
330
1F
100
AcDbEntity
  8
AM_6
100
AcDbMText
 10
564.677562357239
 20
830.4811031702101
 30
0.0
 40
3.2
 41
90.0
 71
     4
 72
     5
  1
　戸当り
 73
     1
 44
1.0
1001
ACAD
1000
MTEXTBEGIN
1070
    73
1070
     1
1070
    44
1040
1.0
1070
    74
1070
     0
1000
MTEXTEND
  0
MTEXT
  5
2A768
330
1F
100
AcDbEntity
  8
AM_6
100
AcDbMText
 10
553.1775623572391
 20
794.4811031702101
 30
0.0
 40
3.2
 41
23.00000000000011
 71
     5
 72
     5
  1
セットビス
 73
     1
 44
1.0
1001
ACAD
1000
MTEXTBEGIN
1070
    73
1070
     1
1070
    44
1040
1.0
1070
    74
1070
     0
1000
MTEXTEND
1000
ACAD_MTEXT_DEFINED_HEIGHT_BEGIN
1070
    46
1040
15.9999999999995
1000
ACAD_MTEXT_DEFINED_HEIGHT_END
  0
MTEXT
  5
2A769
330
1F
100
AcDbEntity
  8
AM_6
100
AcDbMText
 10
564.677562357239
 20
798.4811031702101
 30
0.0
 40
3.2
 41
90.0
 71
     4
 72
     5
  1
　M6×50六角穴付フランジボルト Fe：2本付
 73
     1
 44
1.0
1001
ACAD
1000
MTEXTBEGIN
1070
    73
1070
     1
1070
    44
1040
1.0
1070
    74
1070
     0
1000
MTEXTEND
  0
MTEXT
  5
2A76B
330
1F
100
AcDbEntity
  8
AM_6
100
AcDbMText
 10
553.177562357239
 20
778.4811031702104
 30
0.0
 40
3.2
 41
23.00000000000023
 71
     5
 72
     5
  1
備考
 73
     1
 44
1.0
1001
ACAD
1000
MTEXTBEGIN
1070
    73
1070
     1
1070
    44
1040
1.0
1070
    74
1070
     0
1000
MTEXTEND
1000
ACAD_MTEXT_DEFINED_HEIGHT_BEGIN
1070
    46
1040
15.99999999999962
1000
ACAD_MTEXT_DEFINED_HEIGHT_END
  0
LINE
  5
2A798
330
1F
100
AcDbEntity
  8
AM_0
100
AcDbLine
 10
541.6775623572391
 20
770.4811031702101
 30
0.0
 11
636.2470738526577
 21
770.4811031702101
 31
0.0
  0
TEXT
  5
2CB67
330
1F
100
AcDbEntity
  8
AM_6
 60
     1
100
AcDbText
 10
938.6775623572388
 20
554.4811031702102
 30
0.0
 40
2.5
  1
!GENTITLE-INSERT
100
AcDbText
  0
TEXT
  5
2CB68
330
1F
100
AcDbEntity
  8
AM_6
 60
     1
100
AcDbText
 10
530.177562357239
 20
545.9811031702098
 30
0.0
 40
2.5
  1
!GENTITLE-LL
100
AcDbText
  0
TEXT
  5
2CB69
330
1F
100
AcDbEntity
  8
AM_6
 60
     1
100
AcDbText
 10
950.177562357239
 20
842.9811031702101
 30
0.0
 40
2.5
  1
!GENTITLE-RU
100
AcDbText
  0
TEXT
  5
2CB6A
330
1F
100
AcDbEntity
  8
AM_6
 60
     1
100
AcDbText
 10
950.177562357239
 20
842.9811031702101
 30
0.0
 40
2.5
  1
!GENTITLE-MAX
100
AcDbText
  0
LINE
  5
2CB6C
330
1F
100
AcDbEntity
  8
size
100
AcDbLine
 10
530.177562357239
 20
545.9811031702098
 30
0.0
 11
950.177562357239
 21
545.9811031702098
 31
0.0
1001
GENIUS_GENREC_14
1002
{
1000
PYDIR
1011
530.177562357239
1021
842.9811031702101
1031
0.0
1002
}
1002
{
1000
PXDIR
1011
950.177562357239
1021
545.9811031702098
1031
0.0
1002
}
1002
{
1000
PORI
1011
530.177562357239
1021
545.9811031702098
1031
0.0
1002
}
1002
{
1000
PINS
1011
740.177562357239
1021
694.4811031702101
1031
0.0
1002
}
1002
{
1000
HVAL
1000
297
1002
}
1002
{
1000
H
1070
     2
1002
}
1002
{
1000
WVAL
1000
420
1002
}
1002
{
1000
W
1070
     2
1002
}
1002
{
1000
C
1070
     4
1002
}
1001
GENIUS_GENOBJ-N-REC_13
1002
{
1000
OWNER
1000
GEN
1002
}
1001
GENIUS_GENODEF_13
1002
{
1000
HIER
1070
     0
1002
}
1002
{
1000
MANEDIT
1070
     0
1002
}
1002
{
1000
NOSEL
1070
     0
1002
}
1002
{
1000
BEHIND
1070
     0
1002
}
1002
{
1000
OTHER
1070
     0
1002
}
1002
{
1000
REACTOR
1002
}
  0
LINE
  5
2CB6D
330
1F
100
AcDbEntity
  8
size
100
AcDbLine
 10
950.177562357239
 20
545.9811031702098
 30
0.0
 11
950.177562357239
 21
842.9811031702101
 31
0.0
1001
GENIUS_GENREC_14
1002
{
1000
PYDIR
1011
530.177562357239
1021
842.9811031702101
1031
0.0
1002
}
1002
{
1000
PXDIR
1011
950.177562357239
1021
545.9811031702098
1031
0.0
1002
}
1002
{
1000
PORI
1011
530.177562357239
1021
545.9811031702098
1031
0.0
1002
}
1002
{
1000
PINS
1011
740.177562357239
1021
694.4811031702101
1031
0.0
1002
}
1002
{
1000
HVAL
1000
297
1002
}
1002
{
1000
H
1070
     2
1002
}
1002
{
1000
WVAL
1000
420
1002
}
1002
{
1000
W
1070
     2
1002
}
1002
{
1000
C
1070
     4
1002
}
1001
GENIUS_GENOBJ-N-REC_13
1002
{
1000
OWNER
1000
GEN
1002
}
1001
GENIUS_GENODEF_13
1002
{
1000
HIER
1070
     0
1002
}
1002
{
1000
MANEDIT
1070
     0
1002
}
1002
{
1000
NOSEL
1070
     0
1002
}
1002
{
1000
BEHIND
1070
     0
1002
}
1002
{
1000
OTHER
1070
     0
1002
}
1002
{
1000
REACTOR
1002
}
  0
LINE
  5
2CB6E
330
1F
100
AcDbEntity
  8
size
100
AcDbLine
 10
950.177562357239
 20
842.9811031702101
 30
0.0
 11
530.177562357239
 21
842.9811031702101
 31
0.0
1001
GENIUS_GENREC_14
1002
{
1000
PYDIR
1011
530.177562357239
1021
842.9811031702101
1031
0.0
1002
}
1002
{
1000
PXDIR
1011
950.177562357239
1021
545.9811031702098
1031
0.0
1002
}
1002
{
1000
PORI
1011
530.177562357239
1021
545.9811031702098
1031
0.0
1002
}
1002
{
1000
PINS
1011
740.177562357239
1021
694.4811031702101
1031
0.0
1002
}
1002
{
1000
HVAL
1000
297
1002
}
1002
{
1000
H
1070
     2
1002
}
1002
{
1000
WVAL
1000
420
1002
}
1002
{
1000
W
1070
     2
1002
}
1002
{
1000
C
1070
     4
1002
}
1001
GENIUS_GENOBJ-N-REC_13
1002
{
1000
OWNER
1000
GEN
1002
}
1001
GENIUS_GENODEF_13
1002
{
1000
HIER
1070
     0
1002
}
1002
{
1000
MANEDIT
1070
     0
1002
}
1002
{
1000
NOSEL
1070
     0
1002
}
1002
{
1000
BEHIND
1070
     0
1002
}
1002
{
1000
OTHER
1070
     0
1002
}
1002
{
1000
REACTOR
1002
}
  0
LINE
  5
2CB6F
330
1F
100
AcDbEntity
  8
size
100
AcDbLine
 10
530.177562357239
 20
842.9811031702101
 30
0.0
 11
530.177562357239
 21
545.9811031702098
 31
0.0
1001
GENIUS_GENREC_14
1002
{
1000
PYDIR
1011
530.177562357239
1021
842.9811031702101
1031
0.0
1002
}
1002
{
1000
PXDIR
1011
950.177562357239
1021
545.9811031702098
1031
0.0
1002
}
1002
{
1000
PORI
1011
530.177562357239
1021
545.9811031702098
1031
0.0
1002
}
1002
{
1000
PINS
1011
740.177562357239
1021
694.4811031702101
1031
0.0
1002
}
1002
{
1000
HVAL
1000
297
1002
}
1002
{
1000
H
1070
     2
1002
}
1002
{
1000
WVAL
1000
420
1002
}
1002
{
1000
W
1070
     2
1002
}
1002
{
1000
C
1070
     4
1002
}
1001
GENIUS_GENOBJ-N-REC_13
1002
{
1000
OWNER
1000
GEN
1002
}
1001
GENIUS_GENODEF_13
1002
{
1000
HIER
1070
     0
1002
}
1002
{
1000
MANEDIT
1070
     0
1002
}
1002
{
1000
NOSEL
1070
     0
1002
}
1002
{
1000
BEHIND
1070
     0
1002
}
1002
{
1000
OTHER
1070
     0
1002
}
1002
{
1000
REACTOR
1002
}
  0
LINE
  5
2CB70
330
1F
100
AcDbEntity
  8
waku
100
AcDbLine
 10
938.6775623572388
 20
554.4811031702102
 30
0.0
 11
938.677562357239
 21
834.4811031702104
 31
0.0
1001
GENIUS_GENREC_14
1002
{
1000
PYDIR
1011
530.177562357239
1021
842.9811031702101
1031
0.0
1002
}
1002
{
1000
PXDIR
1011
950.177562357239
1021
545.9811031702098
1031
0.0
1002
}
1002
{
1000
PORI
1011
530.177562357239
1021
545.9811031702098
1031
0.0
1002
}
1002
{
1000
PINS
1011
740.177562357239
1021
694.4811031702101
1031
0.0
1002
}
1002
{
1000
HVAL
1000
297
1002
}
1002
{
1000
H
1070
     2
1002
}
1002
{
1000
WVAL
1000
420
1002
}
1002
{
1000
W
1070
     2
1002
}
1002
{
1000
C
1070
     4
1002
}
1001
GENIUS_GENOBJ-N-REC_13
1002
{
1000
OWNER
1000
GEN
1002
}
1001
GENIUS_GENODEF_13
1002
{
1000
HIER
1070
     0
1002
}
1002
{
1000
MANEDIT
1070
     0
1002
}
1002
{
1000
NOSEL
1070
     0
1002
}
1002
{
1000
BEHIND
1070
     0
1002
}
1002
{
1000
OTHER
1070
     0
1002
}
1002
{
1000
REACTOR
1002
}
  0
LINE
  5
2CB71
330
1F
100
AcDbEntity
  8
waku
100
AcDbLine
 10
541.677562357239
 20
834.4811031702104
 30
0.0
 11
541.677562357239
 21
554.4811031702102
 31
0.0
1001
GENIUS_GENREC_14
1002
{
1000
PYDIR
1011
530.177562357239
1021
842.9811031702101
1031
0.0
1002
}
1002
{
1000
PXDIR
1011
950.177562357239
1021
545.9811031702098
1031
0.0
1002
}
1002
{
1000
PORI
1011
530.177562357239
1021
545.9811031702098
1031
0.0
1002
}
1002
{
1000
PINS
1011
740.177562357239
1021
694.4811031702101
1031
0.0
1002
}
1002
{
1000
HVAL
1000
297
1002
}
1002
{
1000
H
1070
     2
1002
}
1002
{
1000
WVAL
1000
420
1002
}
1002
{
1000
W
1070
     2
1002
}
1002
{
1000
C
1070
     4
1002
}
1001
GENIUS_GENOBJ-N-REC_13
1002
{
1000
OWNER
1000
GEN
1002
}
1001
GENIUS_GENODEF_13
1002
{
1000
HIER
1070
     0
1002
}
1002
{
1000
MANEDIT
1070
     0
1002
}
1002
{
1000
NOSEL
1070
     0
1002
}
1002
{
1000
BEHIND
1070
     0
1002
}
1002
{
1000
OTHER
1070
     0
1002
}
1002
{
1000
REACTOR
1002
}
  0
LINE
  5
2CB72
330
1F
100
AcDbEntity
  8
waku
100
AcDbLine
 10
938.677562357239
 20
834.4811031702104
 30
0.0
 11
541.677562357239
 21
834.4811031702104
 31
0.0
1001
GENIUS_GENREC_14
1002
{
1000
PYDIR
1011
530.177562357239
1021
842.9811031702101
1031
0.0
1002
}
1002
{
1000
PXDIR
1011
950.177562357239
1021
545.9811031702098
1031
0.0
1002
}
1002
{
1000
PORI
1011
530.177562357239
1021
545.9811031702098
1031
0.0
1002
}
1002
{
1000
PINS
1011
740.177562357239
1021
694.4811031702101
1031
0.0
1002
}
1002
{
1000
HVAL
1000
297
1002
}
1002
{
1000
H
1070
     2
1002
}
1002
{
1000
WVAL
1000
420
1002
}
1002
{
1000
W
1070
     2
1002
}
1002
{
1000
C
1070
     4
1002
}
1001
GENIUS_GENOBJ-N-REC_13
1002
{
1000
OWNER
1000
GEN
1002
}
1001
GENIUS_GENODEF_13
1002
{
1000
HIER
1070
     0
1002
}
1002
{
1000
MANEDIT
1070
     0
1002
}
1002
{
1000
NOSEL
1070
     0
1002
}
1002
{
1000
BEHIND
1070
     0
1002
}
1002
{
1000
OTHER
1070
     0
1002
}
1002
{
1000
REACTOR
1002
}
  0
TEXT
  5
2CB73
330
1F
100
AcDbEntity
  8
AM_6
 60
     1
100
AcDbText
 10
530.177562357239
 20
545.9811031702098
 30
0.0
 40
2.5
  1
!GENTITLE-LL
100
AcDbText
  0
TEXT
  5
2CB74
330
1F
100
AcDbEntity
  8
AM_6
 60
     1
100
AcDbText
 10
938.677562357239
 20
834.4811031702104
 30
0.0
 40
2.5
  1
!GENTITLE-RU
100
AcDbText
  0
TEXT
  5
2CB75
330
1F
100
AcDbEntity
  8
AM_6
 60
     1
100
AcDbText
 10
950.177562357239
 20
842.9811031702101
 30
0.0
 40
2.5
  1
!GENTITLE-MAX
100
AcDbText
  0
TEXT
  5
2CB76
330
1F
100
AcDbEntity
  8
AM_6
 60
     1
100
AcDbText
 10
938.6775623572388
 20
554.4811031702102
 30
0.0
 40
2.5
  1
!GENTITLE-INSERT
100
AcDbText
  0
LINE
  5
2CB77
330
1F
100
AcDbEntity
  8
waku
100
AcDbLine
 10
541.677562357239
 20
554.4811031702102
 30
0.0
 11
938.6775623572388
 21
554.4811031702102
 31
0.0
  0
LINE
  5
2CC40
330
1F
100
AcDbEntity
  8
AM_0
100
AcDbLine
 10
636.2470738526577
 20
834.4811031702104
 30
0.0
 11
636.247073852658
 21
770.4811031702107
 31
0.0
  0
LINE
  5
2D16A
330
1F
100
AcDbEntity
  8
AM_2
100
AcDbLine
 10
541.6775623572391
 20
786.4811031702104
 30
0.0
 11
636.2470738526577
 21
786.4811031702104
 31
0.0
  0
MTEXT
  5
2E7FE
330
1F
100
AcDbEntity
  8
AM_6
100
AcDbMText
 10
564.6775623572391
 20
790.4811031702095
 30
0.0
 40
3.2
 41
90.0
 71
     4
 72
     5
  1
　（パネル厚40mm用）
 73
     1
 44
1.0
1001
ACAD
1000
MTEXTBEGIN
1070
    73
1070
     1
1070
    44
1040
1.0
1070
    74
1070
     0
1000
MTEXTEND
  0
LINE
  5
2E7FF
330
1F
100
AcDbEntity
  8
0
  6
Continuous
 62
     7
100
AcDbLine
 10
691.3196103572389
 20
732.3419790102164
 30
0.0
 11
691.3196103572389
 21
686.3419800102164
 31
0.0
  0
LINE
  5
2E800
330
1F
100
AcDbEntity
  8
0
  6
Continuous
 62
     7
100
AcDbLine
 10
697.3196103572389
 20
734.3419790102164
 30
0.0
 11
697.3196103572389
 21
684.3419800102163
 31
0.0
  0
LINE
  5
2E801
330
1F
100
AcDbEntity
  8
0
  6
Continuous
 62
     7
100
AcDbLine
 10
737.3196083572389
 20
734.3419790102164
 30
0.0
 11
737.3196083572389
 21
684.3419800102163
 31
0.0
  0
LINE
  5
2E802
330
1F
100
AcDbEntity
  8
0
  6
Continuous
 62
     7
100
AcDbLine
 10
807.3196103572389
 20
703.1576620102164
 30
0.0
 11
807.3196103572389
 21
691.3419810102164
 31
0.0
  0
LINE
  5
2E803
330
1F
100
AcDbEntity
  8
0
  6
Continuous
 62
     7
100
AcDbLine
 10
902.319602357239
 20
719.3419790102163
 30
0.0
 11
902.319602357239
 21
715.7664790102163
 31
0.0
  0
LINE
  5
2E804
330
1F
100
AcDbEntity
  8
0
  6
Continuous
 62
     7
100
AcDbLine
 10
872.3196023572389
 20
719.3419790102163
 30
0.0
 11
872.3196023572389
 21
715.7664790102163
 31
0.0
  0
LINE
  5
2E805
102
{ACAD_REACTORS
330
2EAAF
102
}
330
1F
100
AcDbEntity
  8
0
  6
Continuous
 62
     7
100
AcDbLine
 10
693.3196103572389
 20
734.3419790102164
 30
0.0
 11
697.3196103572389
 21
734.3419790102164
 31
0.0
  0
LINE
  5
2E806
330
1F
100
AcDbEntity
  8
0
  6
Continuous
 62
     7
100
AcDbLine
 10
785.3196063572389
 20
689.3419810102163
 30
0.0
 11
805.3196103572389
 21
689.3419810102163
 31
0.0
  0
LINE
  5
2E807
330
1F
100
AcDbEntity
  8
0
  6
Continuous
 62
     7
100
AcDbLine
 10
785.3196063572389
 20
664.3419767102163
 30
0.0
 11
805.3196103572389
 21
664.3419767102163
 31
0.0
  0
LINE
  5
2E808
330
1F
100
AcDbEntity
  8
0
  6
Continuous
 62
     7
100
AcDbLine
 10
693.3196103572389
 20
617.428611838525
 30
0.0
 11
697.3196103572389
 21
617.428611838525
 31
0.0
  0
LINE
  5
2E809
330
1F
100
AcDbEntity
  8
0
  6
Continuous
 62
     7
100
AcDbLine
 10
693.3196103572389
 20
587.428611838525
 30
0.0
 11
697.3196103572389
 21
587.428611838525
 31
0.0
  0
LINE
  5
2E80A
330
1F
100
AcDbEntity
  8
0
  6
Continuous
 62
     7
100
AcDbLine
 10
874.3196023572389
 20
689.3419810102163
 30
0.0
 11
900.3196023572389
 21
689.3419810102163
 31
0.0
  0
LINE
  5
2E80B
102
{ACAD_REACTORS
330
2EAD8
102
}
330
1F
100
AcDbEntity
  8
0
  6
Continuous
 62
     7
100
AcDbLine
 10
737.3196083572389
 20
734.3419790102164
 30
0.0
 11
747.3196088572389
 21
734.3419790102164
 31
0.0
  0
LINE
  5
2E80C
330
1F
100
AcDbEntity
  8
0
  6
Continuous
 62
     7
100
AcDbLine
 10
697.3196103572389
 20
727.3419790102163
 30
0.0
 11
737.3196083572389
 21
727.3419790102163
 31
0.0
  0
LINE
  5
2E80D
330
1F
100
AcDbEntity
  8
0
  6
Continuous
 62
     7
100
AcDbLine
 10
697.3196103572389
 20
721.3419790102164
 30
0.0
 11
737.3196083572389
 21
721.3419790102164
 31
0.0
  0
LINE
  5
2E80E
330
1F
100
AcDbEntity
  8
0
  6
Continuous
 62
     7
100
AcDbLine
 10
697.3196103572389
 20
697.3419810102163
 30
0.0
 11
737.3196083572389
 21
697.3419810102163
 31
0.0
  0
LINE
  5
2E80F
330
1F
100
AcDbEntity
  8
0
  6
Continuous
 62
     7
100
AcDbLine
 10
697.3196103572389
 20
691.3419810102164
 30
0.0
 11
737.3196083572389
 21
691.3419810102164
 31
0.0
  0
LINE
  5
2E810
330
1F
100
AcDbEntity
  8
0
  6
Continuous
 62
     7
100
AcDbLine
 10
747.319612157239
 20
734.3419750102164
 30
0.0
 11
804.4340393572392
 21
707.6885750102164
 31
0.0
  0
LINE
  5
2E811
330
1F
100
AcDbEntity
  8
0
  6
Continuous
 62
     7
100
AcDbLine
 10
783.3196083572389
 20
697.8047190102164
 30
0.0
 11
783.3196083572389
 21
691.3419810102164
 31
0.0
  0
LINE
  5
2E812
330
1F
100
AcDbEntity
  8
0
  6
Continuous
 62
     7
100
AcDbLine
 10
759.4340330572389
 20
712.1356340102164
 30
0.0
 11
780.434036357239
 21
702.3356330102163
 31
0.0
  0
LINE
  5
2E813
330
1F
100
AcDbEntity
  8
0
  6
Continuous
 62
     7
100
AcDbLine
 10
737.3196083572389
 20
684.3419800102163
 30
0.0
 11
747.3196088572389
 21
684.3419800102163
 31
0.0
  0
LINE
  5
2E814
330
1F
100
AcDbEntity
  8
0
  6
Continuous
 62
     7
100
AcDbLine
 10
693.3196103572389
 20
684.3419800102163
 30
0.0
 11
697.3196103572389
 21
684.3419800102163
 31
0.0
  0
LINE
  5
2E815
330
1F
100
AcDbEntity
  8
0
  6
Continuous
 62
     7
100
AcDbLine
 10
691.3196103572389
 20
615.428611838525
 30
0.0
 11
691.3196103572389
 21
589.4286118385251
 31
0.0
  0
LINE
  5
2E816
330
1F
100
AcDbEntity
  8
0
  6
Continuous
 62
     7
100
AcDbLine
 10
697.3196103572389
 20
617.428611838525
 30
0.0
 11
697.3196103572389
 21
587.428611838525
 31
0.0
  0
LINE
  5
2E817
330
1F
100
AcDbEntity
  8
0
  6
Continuous
 62
     7
100
AcDbLine
 10
785.3196063572389
 20
689.3419810102163
 30
0.0
 11
785.3196063572389
 21
664.3419767102163
 31
0.0
  0
LINE
  5
2E818
330
1F
100
AcDbEntity
  8
0
  6
Continuous
 62
     7
100
AcDbLine
 10
805.3196103572389
 20
689.3419810102163
 30
0.0
 11
805.3196103572389
 21
664.3419767102163
 31
0.0
  0
LINE
  5
2E819
330
1F
100
AcDbEntity
  8
0
  6
Continuous
 62
     7
100
AcDbLine
 10
737.3196083572389
 20
617.428611838525
 30
0.0
 11
737.3196083572389
 21
587.428611838525
 31
0.0
  0
LINE
  5
2E81A
330
1F
100
AcDbEntity
  8
0
  6
Continuous
 62
     7
100
AcDbLine
 10
752.319608867239
 20
612.428611838525
 30
0.0
 11
752.319608867239
 21
592.428611838525
 31
0.0
  0
LINE
  5
2E81B
330
1F
100
AcDbEntity
  8
0
  6
Continuous
 62
     7
100
AcDbLine
 10
783.3196083572389
 20
612.428611838525
 30
0.0
 11
783.3196083572389
 21
592.428611838525
 31
0.0
  0
LINE
  5
2E81C
330
1F
100
AcDbEntity
  8
0
  6
Continuous
 62
     7
100
AcDbLine
 10
807.3196103572389
 20
612.428611838525
 30
0.0
 11
807.3196103572389
 21
592.428611838525
 31
0.0
  0
LINE
  5
2E81E
330
1F
100
AcDbEntity
  8
0
  6
Continuous
 62
     7
100
AcDbLine
 10
752.160841167239
 20
616.1786118385251
 30
0.0
 11
783.478376357239
 21
616.1786118385251
 31
0.0
  0
LINE
  5
2E81F
330
1F
100
AcDbEntity
  8
0
  6
Continuous
 62
     7
100
AcDbLine
 10
752.160841167239
 20
588.678611838525
 30
0.0
 11
783.478376357239
 21
588.678611838525
 31
0.0
  0
LINE
  5
2E820
330
1F
100
AcDbEntity
  8
0
  6
Continuous
 62
     7
100
AcDbLine
 10
788.3196103572389
 20
617.428611838525
 30
0.0
 11
802.319610357239
 21
617.428611838525
 31
0.0
  0
LINE
  5
2E821
330
1F
100
AcDbEntity
  8
0
  6
Continuous
 62
     7
100
AcDbLine
 10
788.3196103572389
 20
587.428611838525
 30
0.0
 11
802.319610357239
 21
587.428611838525
 31
0.0
  0
LINE
  5
2E822
330
1F
100
AcDbEntity
  8
0
  6
Continuous
 62
     7
100
AcDbLine
 10
737.3196083572389
 20
617.428611838525
 30
0.0
 11
747.3196088572389
 21
617.428611838525
 31
0.0
  0
LINE
  5
2E823
330
1F
100
AcDbEntity
  8
0
  6
Continuous
 62
     7
100
AcDbLine
 10
737.3196083572389
 20
587.428611838525
 30
0.0
 11
747.3196088572389
 21
587.428611838525
 31
0.0
  0
LINE
  5
2E824
330
1F
100
AcDbEntity
  8
0
  6
Continuous
 62
     7
100
AcDbLine
 10
697.3196103572389
 20
605.428611838525
 30
0.0
 11
737.3196083572389
 21
605.428611838525
 31
0.0
  0
LINE
  5
2E825
330
1F
100
AcDbEntity
  8
0
  6
Continuous
 62
     7
100
AcDbLine
 10
697.3196103572389
 20
599.428611838525
 30
0.0
 11
737.3196083572389
 21
599.428611838525
 31
0.0
  0
LINE
  5
2E826
330
1F
100
AcDbEntity
  8
0
  6
Continuous
 62
     7
100
AcDbLine
 10
785.3196063572389
 20
614.928611838525
 30
0.0
 11
805.3196103572389
 21
614.928611838525
 31
0.0
  0
LINE
  5
2E827
330
1F
100
AcDbEntity
  8
0
  6
Continuous
 62
     7
100
AcDbLine
 10
785.3196063572389
 20
589.928611838525
 30
0.0
 11
805.3196103572389
 21
589.928611838525
 31
0.0
  0
LINE
  5
2E828
330
1F
100
AcDbEntity
  8
0
  6
Continuous
 62
     7
100
AcDbLine
 10
805.3196103572389
 20
614.928611838525
 30
0.0
 11
805.3196103572389
 21
589.928611838525
 31
0.0
  0
LINE
  5
2E829
330
1F
100
AcDbEntity
  8
0
  6
Continuous
 62
     7
100
AcDbLine
 10
785.3196063572389
 20
614.928611838525
 30
0.0
 11
785.3196063572389
 21
589.928611838525
 31
0.0
  0
LINE
  5
2E82B
330
1F
100
AcDbEntity
  8
0
  6
Continuous
 62
     7
100
AcDbLine
 10
900.3196023572389
 20
689.3419810102163
 30
0.0
 11
900.3196023572389
 21
677.3419767102163
 31
0.0
  0
LINE
  5
2E82C
330
1F
100
AcDbEntity
  8
0
  6
Continuous
 62
     7
100
AcDbLine
 10
874.3196023572389
 20
689.3419810102163
 30
0.0
 11
874.3196023572389
 21
677.3419767102163
 31
0.0
  0
LINE
  5
2E82D
330
1F
100
AcDbEntity
  8
0
  6
Continuous
 62
     7
100
AcDbLine
 10
874.3196023572389
 20
712.9380480102164
 30
0.0
 11
874.3196023572389
 21
702.9890380102163
 31
0.0
  0
LINE
  5
2E82E
330
1F
100
AcDbEntity
  8
0
  6
Continuous
 62
     7
100
AcDbLine
 10
900.3196023572389
 20
712.9380480102164
 30
0.0
 11
900.3196023572389
 21
702.9890380102163
 31
0.0
  0
LINE
  5
2E82F
330
1F
100
AcDbEntity
  8
0
  6
Continuous
 62
     7
100
AcDbLine
 10
687.719600357239
 20
607.178619838525
 30
0.0
 11
687.719600357239
 21
597.678611838525
 31
0.0
  0
LINE
  5
2E830
330
1F
100
AcDbEntity
  8
0
  6
Continuous
 62
     7
100
AcDbLine
 10
688.719604357239
 20
608.1786118385251
 30
0.0
 11
691.3196103572389
 21
608.1786118385251
 31
0.0
  0
LINE
  5
2E831
330
1F
100
AcDbEntity
  8
0
  6
Continuous
 62
     7
100
AcDbLine
 10
688.719604357239
 20
596.678611838525
 30
0.0
 11
691.3196103572389
 21
596.678611838525
 31
0.0
  0
LINE
  5
2E832
330
1F
100
AcDbEntity
  8
0
  6
Continuous
 62
     7
100
AcDbLine
 10
688.719604357239
 20
608.1786118385251
 30
0.0
 11
688.719604357239
 21
596.678611838525
 31
0.0
  0
LINE
  5
2E833
330
1F
100
AcDbEntity
  8
0
  6
Continuous
 62
     7
100
AcDbLine
 10
688.7196193572389
 20
608.1785968385251
 30
0.0
 11
687.7196153572389
 21
607.1786008385251
 31
0.0
  0
LINE
  5
2E834
330
1F
100
AcDbEntity
  8
0
  6
Continuous
 62
     7
100
AcDbLine
 10
687.719600357239
 20
597.678615838525
 30
0.0
 11
688.719604357239
 21
596.678615838525
 31
0.0
  0
LINE
  5
2E835
330
1F
100
AcDbEntity
  8
0
  6
Continuous
 62
     7
100
AcDbLine
 10
687.719600357239
 20
729.0919870102164
 30
0.0
 11
687.719600357239
 21
719.5919790102164
 31
0.0
  0
LINE
  5
2E836
330
1F
100
AcDbEntity
  8
0
  6
Continuous
 62
     7
100
AcDbLine
 10
688.719604357239
 20
730.0919790102163
 30
0.0
 11
688.719604357239
 21
718.5919790102164
 31
0.0
  0
LINE
  5
2E837
330
1F
100
AcDbEntity
  8
0
  6
Continuous
 62
     7
100
AcDbLine
 10
687.719600357239
 20
719.5919830102163
 30
0.0
 11
688.719600357239
 21
718.5919830102164
 31
0.0
  0
LINE
  5
2E838
330
1F
100
AcDbEntity
  8
0
  6
Continuous
 62
     7
100
AcDbLine
 10
688.719604357239
 20
718.5919790102164
 30
0.0
 11
691.3196103572389
 21
718.5919790102164
 31
0.0
  0
LINE
  5
2E839
330
1F
100
AcDbEntity
  8
0
  6
Continuous
 62
     7
100
AcDbLine
 10
688.719604357239
 20
730.0919790102163
 30
0.0
 11
691.3196103572389
 21
730.0919790102163
 31
0.0
  0
LINE
  5
2E83A
102
{ACAD_REACTORS
330
2EAAF
102
}
330
1F
100
AcDbEntity
  8
0
  6
Continuous
 62
     7
100
AcDbLine
 10
688.7196113572389
 20
730.0919680102164
 30
0.0
 11
687.7196153572389
 21
729.0919790102163
 31
0.0
  0
LINE
  5
2E83B
330
1F
100
AcDbEntity
  8
0
  6
Continuous
 62
     7
100
AcDbLine
 10
687.719600357239
 20
699.0919890102163
 30
0.0
 11
687.719600357239
 21
689.5919810102164
 31
0.0
  0
LINE
  5
2E83C
330
1F
100
AcDbEntity
  8
0
  6
Continuous
 62
     7
100
AcDbLine
 10
688.7196193572389
 20
700.0919640102164
 30
0.0
 11
687.7196233572389
 21
699.0919710102164
 31
0.0
  0
LINE
  5
2E83D
330
1F
100
AcDbEntity
  8
0
  6
Continuous
 62
     7
100
AcDbLine
 10
688.719604357239
 20
700.0919810102163
 30
0.0
 11
691.3196103572389
 21
700.0919810102163
 31
0.0
  0
LINE
  5
2E83E
330
1F
100
AcDbEntity
  8
0
  6
Continuous
 62
     7
100
AcDbLine
 10
688.719604357239
 20
700.0919810102163
 30
0.0
 11
688.719604357239
 21
688.5919810102164
 31
0.0
  0
LINE
  5
2E83F
330
1F
100
AcDbEntity
  8
0
  6
Continuous
 62
     7
100
AcDbLine
 10
688.719604357239
 20
688.5919810102164
 30
0.0
 11
691.3196103572389
 21
688.5919810102164
 31
0.0
  0
LINE
  5
2E840
330
1F
100
AcDbEntity
  8
0
  6
Continuous
 62
     7
100
AcDbLine
 10
687.719600357239
 20
689.5919870102163
 30
0.0
 11
688.719600357239
 21
688.5919850102164
 31
0.0
  0
LINE
  5
2E841
330
1F
100
AcDbEntity
  8
0
  6
Continuous
 62
     7
100
AcDbLine
 10
902.319602357239
 20
700.1606070102163
 30
0.0
 11
902.319602357239
 21
691.3419810102164
 31
0.0
  0
LINE
  5
2E842
330
1F
100
AcDbEntity
  8
0
  6
Continuous
 62
     7
100
AcDbLine
 10
872.3196023572389
 20
700.1606070102163
 30
0.0
 11
872.3196023572389
 21
691.3419810102164
 31
0.0
  0
LINE
  5
2E844
330
1F
100
AcDbEntity
  8
0
  6
Continuous
 62
     7
100
AcDbLine
 10
603.5117023572389
 20
719.3419830102164
 30
0.0
 11
603.5117023572389
 21
689.3419810102163
 31
0.0
  0
LINE
  5
2E845
330
1F
100
AcDbEntity
  8
0
  6
Continuous
 62
     7
100
AcDbLine
 10
633.511682357239
 20
719.3419830102164
 30
0.0
 11
633.511682357239
 21
689.3419810102163
 31
0.0
  0
LINE
  5
2E846
330
1F
100
AcDbEntity
  8
0
  6
Continuous
 62
     7
100
AcDbLine
 10
608.5117023572389
 20
684.3419840102163
 30
0.0
 11
628.511682357239
 21
684.3419840102163
 31
0.0
  0
LINE
  5
2E849
330
1F
100
AcDbEntity
  8
0
  6
Continuous
 62
     7
100
AcDbLine
 10
618.5117023572389
 20
696.8419920102164
 30
0.0
 11
620.5117023572389
 21
695.6872950102164
 31
0.0
  0
LINE
  5
2E84A
330
1F
100
AcDbEntity
  8
0
  6
Continuous
 62
     7
100
AcDbLine
 10
616.5117023572389
 20
692.9966970102164
 30
0.0
 11
618.511682357239
 21
691.8420080102164
 31
0.0
  0
LINE
  5
2E84B
330
1F
100
AcDbEntity
  8
0
  6
Continuous
 62
     7
100
AcDbLine
 10
616.5117023572389
 20
695.6872590102164
 30
0.0
 11
618.5117023572389
 21
696.8419600102164
 31
0.0
  0
LINE
  5
2E84C
330
1F
100
AcDbEntity
  8
0
  6
Continuous
 62
     7
100
AcDbLine
 10
618.5117023572389
 20
691.8419620102164
 30
0.0
 11
620.5117023572389
 21
692.9966630102163
 31
0.0
  0
LINE
  5
2E84D
330
1F
100
AcDbEntity
  8
0
  6
Continuous
 62
     7
100
AcDbLine
 10
616.5117023572389
 20
695.6872800102163
 30
0.0
 11
616.5117023572389
 21
692.9966820102164
 31
0.0
  0
LINE
  5
2E84E
330
1F
100
AcDbEntity
  8
0
  6
Continuous
 62
     7
100
AcDbLine
 10
620.5117023572389
 20
695.6872800102163
 30
0.0
 11
620.5117023572389
 21
692.9966820102164
 31
0.0
  0
LINE
  5
2E84F
330
1F
100
AcDbEntity
  8
0
  6
Continuous
 62
     7
100
AcDbLine
 10
616.5117023572389
 20
725.6872630102163
 30
0.0
 11
618.5117023572389
 21
726.8419640102164
 31
0.0
  0
LINE
  5
2E850
330
1F
100
AcDbEntity
  8
0
  6
Continuous
 62
     7
100
AcDbLine
 10
618.5117023572389
 20
726.8419790102163
 30
0.0
 11
620.5117023572389
 21
725.6872780102163
 31
0.0
  0
LINE
  5
2E851
330
1F
100
AcDbEntity
  8
0
  6
Continuous
 62
     7
100
AcDbLine
 10
616.5117023572389
 20
725.6872820102163
 30
0.0
 11
616.5117023572389
 21
722.9966800102164
 31
0.0
  0
LINE
  5
2E852
330
1F
100
AcDbEntity
  8
0
  6
Continuous
 62
     7
100
AcDbLine
 10
616.5117023572389
 20
722.9966800102164
 30
0.0
 11
618.5117023572389
 21
721.8419790102164
 31
0.0
  0
LINE
  5
2E853
330
1F
100
AcDbEntity
  8
0
  6
Continuous
 62
     7
100
AcDbLine
 10
618.5117023572389
 20
721.8419600102164
 30
0.0
 11
620.5117023572389
 21
722.9966570102163
 31
0.0
  0
LINE
  5
2E854
330
1F
100
AcDbEntity
  8
0
  6
Continuous
 62
     7
100
AcDbLine
 10
620.5117023572389
 20
725.6872820102163
 30
0.0
 11
620.5117023572389
 21
722.9966800102164
 31
0.0
  0
LINE
  5
2E857
330
1F
100
AcDbEntity
  8
0
  6
Continuous
 62
     7
100
AcDbLine
 10
752.319608867239
 20
707.6047200102164
 30
0.0
 11
752.319608867239
 21
689.3419810102163
 31
0.0
  0
LINE
  5
2E858
330
1F
100
AcDbEntity
  8
0
  6
Continuous
 62
     7
100
AcDbLine
 10
723.2566373572389
 20
604.8876118385249
 30
0.0
 11
737.3196083572389
 21
604.8876118385249
 31
0.0
  0
LINE
  5
2E859
330
1F
100
AcDbEntity
  8
0
  6
Continuous
 62
     7
100
AcDbLine
 10
723.2566673572391
 20
599.9696118385251
 30
0.0
 11
737.3196083572389
 21
599.9696118385251
 31
0.0
  0
LINE
  5
2E85A
330
1F
100
AcDbEntity
  8
0
  6
Continuous
 62
     7
100
AcDbLine
 10
722.319625357239
 20
599.428611838525
 30
0.0
 11
722.319625357239
 21
605.428600838525
 31
0.0
  0
LINE
  5
2E85B
330
1F
100
AcDbEntity
  8
0
  6
Continuous
 62
     7
100
AcDbLine
 10
722.319619357239
 20
599.428615838525
 30
0.0
 11
723.2566603572389
 21
599.969615838525
 31
0.0
  0
LINE
  5
2E85C
330
1F
100
AcDbEntity
  8
0
  6
Continuous
 62
     7
100
AcDbLine
 10
722.3196183572389
 20
605.428600838525
 30
0.0
 11
723.2566443572389
 21
604.887607838525
 31
0.0
  0
LINE
  5
2E85D
330
1F
100
AcDbEntity
  8
0
  6
Continuous
 62
     7
100
AcDbLine
 10
723.2566433572391
 20
604.8876118385249
 30
0.0
 11
723.2566603572389
 21
599.9696118385251
 31
0.0
  0
LINE
  5
2E85E
330
1F
100
AcDbEntity
  8
0
  6
Continuous
 62
     7
100
AcDbLine
 10
723.2566673572391
 20
691.8829810102164
 30
0.0
 11
737.3196083572389
 21
691.8829810102164
 31
0.0
  0
LINE
  5
2E85F
330
1F
100
AcDbEntity
  8
0
  6
Continuous
 62
     7
100
AcDbLine
 10
723.2566373572389
 20
696.8009810102163
 30
0.0
 11
737.3196083572389
 21
696.8009810102163
 31
0.0
  0
LINE
  5
2E860
330
1F
100
AcDbEntity
  8
0
  6
Continuous
 62
     7
100
AcDbLine
 10
722.319619357239
 20
697.3419700102164
 30
0.0
 11
723.2566463572389
 21
696.8009770102163
 31
0.0
  0
LINE
  5
2E861
330
1F
100
AcDbEntity
  8
0
  6
Continuous
 62
     7
100
AcDbLine
 10
722.319619357239
 20
691.3419810102164
 30
0.0
 11
723.2566583572389
 21
691.8829810102164
 31
0.0
  0
LINE
  5
2E862
330
1F
100
AcDbEntity
  8
0
  6
Continuous
 62
     7
100
AcDbLine
 10
723.256648357239
 20
696.8009730102163
 30
0.0
 11
723.2566653572391
 21
691.8829740102163
 31
0.0
  0
LINE
  5
2E863
330
1F
100
AcDbEntity
  8
0
  6
Continuous
 62
     7
100
AcDbLine
 10
723.2566673572391
 20
721.8829790102164
 30
0.0
 11
737.3196083572389
 21
721.8829790102164
 31
0.0
  0
LINE
  5
2E864
330
1F
100
AcDbEntity
  8
0
  6
Continuous
 62
     7
100
AcDbLine
 10
723.2566373572389
 20
726.8009790102163
 30
0.0
 11
737.3196083572389
 21
726.8009790102163
 31
0.0
  0
LINE
  5
2E865
330
1F
100
AcDbEntity
  8
0
  6
Continuous
 62
     7
100
AcDbLine
 10
722.319621357239
 20
727.3419750102164
 30
0.0
 11
723.256648357239
 21
726.8009830102163
 31
0.0
  0
LINE
  5
2E866
330
1F
100
AcDbEntity
  8
0
  6
Continuous
 62
     7
100
AcDbLine
 10
722.319619357239
 20
721.3419790102164
 30
0.0
 11
723.2566603572389
 21
721.8829790102164
 31
0.0
  0
LINE
  5
2E867
330
1F
100
AcDbEntity
  8
0
  6
Continuous
 62
     7
100
AcDbLine
 10
723.256639357239
 20
726.8009750102163
 30
0.0
 11
723.256654357239
 21
721.8829760102163
 31
0.0
  0
ARC
  5
2E88B
102
{ACAD_REACTORS
330
2EAD8
102
}
330
1F
100
AcDbEntity
  8
0
  6
Continuous
 62
     7
100
AcDbCircle
 10
802.319610357239
 20
703.1576620102164
 30
0.0
 40
5.0
100
AcDbArc
 50
0.0
 51
64.98312599999858
  0
ARC
  5
2E88C
330
1F
100
AcDbEntity
  8
0
  6
Continuous
 62
     7
100
AcDbCircle
 10
778.319608357239
 20
697.8047190102164
 30
0.0
 40
5.0
100
AcDbArc
 50
0.0
 51
64.98312599999858
  0
ARC
  5
2E88D
330
1F
100
AcDbEntity
  8
0
  6
Continuous
 62
     7
100
AcDbCircle
 10
693.3196103572389
 20
732.3419790102164
 30
0.0
 40
2.0
100
AcDbArc
 50
90.0
 51
180.0
  0
ARC
  5
2E88E
330
1F
100
AcDbEntity
  8
0
  6
Continuous
 62
     7
100
AcDbCircle
 10
693.3196103572389
 20
686.3419800102164
 30
0.0
 40
2.0
100
AcDbArc
 50
179.999969999997
 51
270.0
  0
ARC
  5
2E88F
330
1F
100
AcDbEntity
  8
0
  6
Continuous
 62
     7
100
AcDbCircle
 10
693.3196103572389
 20
615.428611838525
 30
0.0
 40
2.0
100
AcDbArc
 50
90.0
 51
179.9999500000015
  0
ARC
  5
2E890
330
1F
100
AcDbEntity
  8
0
  6
Continuous
 62
     7
100
AcDbCircle
 10
693.3196103572389
 20
589.4286118385251
 30
0.0
 40
2.0
100
AcDbArc
 50
180.0
 51
270.0
  0
ARC
  5
2E891
330
1F
100
AcDbEntity
  8
0
  6
Continuous
 62
     7
100
AcDbCircle
 10
802.319610357239
 20
612.428611838525
 30
0.0
 40
5.0
100
AcDbArc
 50
0.0
 51
90.0
  0
ARC
  5
2E892
330
1F
100
AcDbEntity
  8
0
  6
Continuous
 62
     7
100
AcDbCircle
 10
802.319610357239
 20
592.428611838525
 30
0.0
 40
5.0
100
AcDbArc
 50
270.0
 51
0.0
  0
ARC
  5
2E893
330
1F
100
AcDbEntity
  8
0
  6
Continuous
 62
     7
100
AcDbCircle
 10
788.3196103572389
 20
592.428611838525
 30
0.0
 40
5.0
100
AcDbArc
 50
179.9999600000025
 51
270.0000399999975
  0
ARC
  5
2E894
330
1F
100
AcDbEntity
  8
0
  6
Continuous
 62
     7
100
AcDbCircle
 10
788.3196103572389
 20
612.428611838525
 30
0.0
 40
5.0
100
AcDbArc
 50
90.0
 51
179.9999600000025
  0
ARC
  5
2E895
330
1F
100
AcDbEntity
  8
0
  6
Continuous
 62
     7
100
AcDbCircle
 10
747.3196088572389
 20
612.428611838525
 30
0.0
 40
5.0
100
AcDbArc
 50
0.0
 51
89.99998399999709
  0
ARC
  5
2E896
330
1F
100
AcDbEntity
  8
0
  6
Continuous
 62
     7
100
AcDbCircle
 10
747.3196088572389
 20
592.428611838525
 30
0.0
 40
5.0
100
AcDbArc
 50
270.000020000002
 51
0.0
  0
ARC
  5
2E897
330
1F
100
AcDbEntity
  8
0
  6
Continuous
 62
     7
100
AcDbCircle
 10
752.160841167239
 20
621.1786098385251
 30
0.0
 40
5.0
100
AcDbArc
 50
241.0449399999971
 51
270.000020000002
  0
ARC
  5
2E898
330
1F
100
AcDbEntity
  8
0
  6
Continuous
 62
     7
100
AcDbCircle
 10
752.160841167239
 20
583.678611838525
 30
0.0
 40
5.0
100
AcDbArc
 50
89.9999820000008
 51
118.9550499999992
  0
ARC
  5
2E899
330
1F
100
AcDbEntity
  8
0
  6
Continuous
 62
     7
100
AcDbCircle
 10
783.478376357239
 20
583.678611838525
 30
0.0
 40
5.0
100
AcDbArc
 50
61.0449790000004
 51
89.99997800000169
  0
ARC
  5
2E89A
330
1F
100
AcDbEntity
  8
0
  6
Continuous
 62
     7
100
AcDbCircle
 10
783.478376357239
 20
621.1786098385251
 30
0.0
 40
5.0
100
AcDbArc
 50
270.000020000002
 51
298.9550200000009
  0
ARC
  5
2E89B
102
{ACAD_REACTORS
330
2EAF1
102
}
330
1F
100
AcDbEntity
  8
0
  6
Continuous
 62
     7
100
AcDbCircle
 10
887.319602357239
 20
677.3419767102163
 30
0.0
 40
13.0
100
AcDbArc
 50
179.9999799999979
 51
0.0
  0
ARC
  5
2E89C
102
{ACAD_REACTORS
330
2EB09
102
}
330
1F
100
AcDbEntity
  8
0
  6
Continuous
 62
     7
100
AcDbCircle
 10
887.319602357239
 20
719.3419790102163
 30
0.0
 40
15.0
100
AcDbArc
 50
0.0
 51
179.999969999997
  0
ARC
  5
2E89D
330
1F
100
AcDbEntity
  8
0
  6
Continuous
 62
     7
100
AcDbCircle
 10
874.3196023572389
 20
691.3419810102164
 30
0.0
 40
2.0
100
AcDbArc
 50
180.0
 51
270.0
  0
ARC
  5
2E89E
330
1F
100
AcDbEntity
  8
0
  6
Continuous
 62
     7
100
AcDbCircle
 10
900.3196023572389
 20
691.3419810102164
 30
0.0
 40
2.0
100
AcDbArc
 50
270.0
 51
0.0
  0
ARC
  5
2E89F
330
1F
100
AcDbEntity
  8
0
  6
Continuous
 62
     7
100
AcDbCircle
 10
872.3196023572389
 20
712.9380480102164
 30
0.0
 40
2.0
100
AcDbArc
 50
0.0
 51
70.52886700000255
  0
ARC
  5
2E8A0
330
1F
100
AcDbEntity
  8
0
  6
Continuous
 62
     7
100
AcDbCircle
 10
872.3196023572389
 20
702.9890380102163
 30
0.0
 40
2.0
100
AcDbArc
 50
289.4711500000008
 51
0.0
  0
ARC
  5
2E8A1
330
1F
100
AcDbEntity
  8
0
  6
Continuous
 62
     7
100
AcDbCircle
 10
902.319602357239
 20
702.9890380102163
 30
0.0
 40
2.0
100
AcDbArc
 50
180.0
 51
250.5286400000002
  0
ARC
  5
2E8A2
330
1F
100
AcDbEntity
  8
0
  6
Continuous
 62
     7
100
AcDbCircle
 10
902.319602357239
 20
712.9380480102164
 30
0.0
 40
2.0
100
AcDbArc
 50
109.4713799999995
 51
180.0
  0
ARC
  5
2E8A3
330
1F
100
AcDbEntity
  8
0
  6
Continuous
 62
     7
100
AcDbCircle
 10
873.3196023572389
 20
700.1606070102163
 30
0.0
 40
1.0
100
AcDbArc
 50
109.4713799999995
 51
180.0
  0
ARC
  5
2E8A4
330
1F
100
AcDbEntity
  8
0
  6
Continuous
 62
     7
100
AcDbCircle
 10
873.3196023572389
 20
715.7664790102163
 30
0.0
 40
1.0
100
AcDbArc
 50
180.0
 51
250.5286599999977
  0
ARC
  5
2E8A5
330
1F
100
AcDbEntity
  8
0
  6
Continuous
 62
     7
100
AcDbCircle
 10
901.3196023572389
 20
715.7664790102163
 30
0.0
 40
1.0
100
AcDbArc
 50
289.47093
 51
0.0
  0
ARC
  5
2E8A6
330
1F
100
AcDbEntity
  8
0
  6
Continuous
 62
     7
100
AcDbCircle
 10
901.3196023572389
 20
700.1606070102163
 30
0.0
 40
1.0
100
AcDbArc
 50
0.0
 51
70.52903699999953
  0
ARC
  5
2E8A7
102
{ACAD_REACTORS
330
2EA7F
330
2EA97
102
}
330
1F
100
AcDbEntity
  8
0
  6
Continuous
 62
     7
100
AcDbCircle
 10
608.5117023572389
 20
689.3419810102163
 30
0.0
 40
5.0
100
AcDbArc
 50
179.9999799999979
 51
270.0
  0
ARC
  5
2E8A8
330
1F
100
AcDbEntity
  8
0
  6
Continuous
 62
     7
100
AcDbCircle
 10
628.511682357239
 20
689.3419810102163
 30
0.0
 40
5.0
100
AcDbArc
 50
270.0
 51
0.0
  0
ARC
  5
2E8A9
330
1F
100
AcDbEntity
  8
0
  6
Continuous
 62
     7
100
AcDbCircle
 10
618.5117023572389
 20
719.3419830102164
 30
0.0
 40
15.0
100
AcDbArc
 50
0.0
 51
179.999969999997
  0
CIRCLE
  5
2E8AA
330
1F
100
AcDbEntity
  8
0
  6
Continuous
 62
     7
100
AcDbCircle
 10
618.5117023572389
 20
724.3419830102164
 30
0.0
 40
7.0
  0
CIRCLE
  5
2E8AB
330
1F
100
AcDbEntity
  8
0
  6
Continuous
 62
     7
100
AcDbCircle
 10
618.5117023572389
 20
694.3419810102163
 30
0.0
 40
7.0
  0
CIRCLE
  5
2E8AC
330
1F
100
AcDbEntity
  8
0
  6
Continuous
 62
     7
100
AcDbCircle
 10
618.5117023572389
 20
694.3419810102163
 30
0.0
 40
6.0
  0
CIRCLE
  5
2E8AD
330
1F
100
AcDbEntity
  8
0
  6
Continuous
 62
     7
100
AcDbCircle
 10
618.5117023572389
 20
724.3419830102164
 30
0.0
 40
6.0
  0
CIRCLE
  5
2E8AE
330
1F
100
AcDbEntity
  8
0
  6
Continuous
 62
     7
100
AcDbCircle
 10
618.5117023572389
 20
724.3419830102164
 30
0.0
 40
4.0
  0
CIRCLE
  5
2E8AF
330
1F
100
AcDbEntity
  8
0
  6
Continuous
 62
     7
100
AcDbCircle
 10
618.5117023572389
 20
694.3419810102163
 30
0.0
 40
4.0
  0
CIRCLE
  5
2E8B0
330
1F
100
AcDbEntity
  8
0
  6
Continuous
 62
     7
100
AcDbCircle
 10
618.5117023572389
 20
694.3419810102163
 30
0.0
 40
3.0
  0
CIRCLE
  5
2E8B1
330
1F
100
AcDbEntity
  8
0
  6
Continuous
 62
     7
100
AcDbCircle
 10
618.5117023572389
 20
724.3419830102164
 30
0.0
 40
3.0
  0
ARC
  5
2E8B2
330
1F
100
AcDbEntity
  8
0
  6
Continuous
 62
     7
100
AcDbCircle
 10
785.3196063572389
 20
691.3419810102164
 30
0.0
 40
2.0
100
AcDbArc
 50
180.0
 51
270.0
  0
ARC
  5
2E8B3
330
1F
100
AcDbEntity
  8
0
  6
Continuous
 62
     7
100
AcDbCircle
 10
805.3196103572389
 20
691.3419810102164
 30
0.0
 40
2.0
100
AcDbArc
 50
270.0
 51
0.0
  0
ARC
  5
2E8B4
330
1F
100
AcDbEntity
  8
0
  6
Continuous
 62
     7
100
AcDbCircle
 10
747.3196088572389
 20
689.3419810102163
 30
0.0
 40
5.0
100
AcDbArc
 50
270.0
 51
0.0
  0
ARC
  5
2E8B5
330
1F
100
AcDbEntity
  8
0
  6
Continuous
 62
     7
100
AcDbCircle
 10
757.3196088572388
 20
707.6047200102164
 30
0.0
 40
5.0
100
AcDbArc
 50
64.98310199999778
 51
180.0
  0
CIRCLE
  5
2E8B6
330
1F
100
AcDbEntity
  8
0
  6
Continuous
 62
     7
100
AcDbCircle
 10
618.5117023572389
 20
620.3340802648345
 30
0.0
 40
4.0
  0
CIRCLE
  5
2E8B7
330
1F
100
AcDbEntity
  8
0
  6
Continuous
 62
     7
100
AcDbCircle
 10
618.5117023572389
 20
590.3340762648346
 30
0.0
 40
4.0
  0
TEXT
  5
2E8B8
330
1F
100
AcDbEntity
  8
AM_6
100
AcDbText
 10
607.0829523572389
 20
572.1768102201873
 30
0.0
 40
4.0
  1
切欠推奨寸法
 41
0.8474110299999999
100
AcDbText
  0
DIMENSION
  5
2EA12
330
1F
100
AcDbEntity
  8
AM_5
100
AcDbDimension
  2
*D5
 10
615.9959298455078
 20
617.2242750186471
 30
0.0
 11
631.6564611432596
 21
632.3489014473891
 31
0.0
 70
   163
 71
     5
 42
8.000000000000341
  3
SYS$3
100
AcDbDiametricDimension
 15
621.0274748689714
 25
623.4438855110223
 35
0.0
 40
0.0
1001
ACAD
1000
DSTYLE
1002
{
1070
   172
1070
     1
1070
   289
1070
     2
1070
   342
1005
2EA30
1002
}
  0
DIMENSION
  5
2EA45
330
1F
100
AcDbEntity
  8
AM_5
100
AcDbDimension
  2
*D7
 10
599.5117023572389
 20
620.3340802648345
 30
0.0
 11
596.4117023572388
 21
605.3340782648347
 31
0.0
 70
    32
 71
     5
 42
30.00000399999999
  3
SYS$0
100
AcDbAlignedDimension
 13
611.5117023572389
 23
590.3340762648346
 33
0.0
 14
611.5117023572389
 24
620.3340802648345
 34
0.0
 50
90.00000000000003
100
AcDbRotatedDimension
  0
LINE
  5
2EA5D
330
1F
100
AcDbEntity
  8
AM_7
  6
AM_ISO08W050x2
100
AcDbLine
 10
611.5117023572389
 20
620.3340802648345
 30
0.0
 11
625.5117023572389
 21
620.3340802648345
 31
0.0
1001
GENIUS_GENOBJ-N-CEN_13
1002
{
1000
OWNER
1000
GEN
1002
}
1001
GENIUS_GENODEF_13
1002
{
1000
HIER
1070
     0
1002
}
1002
{
1000
MANEDIT
1070
     0
1002
}
1002
{
1000
NOSEL
1070
     0
1002
}
1002
{
1000
BEHIND
1070
     0
1002
}
1002
{
1000
OTHER
1070
     0
1002
}
1002
{
1000
REACTOR
1002
}
1001
GENIUS_GENCEN_19
1002
{
1040
3.0
1002
}
  0
LINE
  5
2EA67
330
1F
100
AcDbEntity
  8
AM_7
  6
AM_ISO08W050x2
100
AcDbLine
 10
611.5117023572389
 20
590.3340762648346
 30
0.0
 11
625.5117023572389
 21
590.3340762648346
 31
0.0
1001
GENIUS_GENODEF_13
1002
{
1000
HIER
1070
     0
1002
}
1002
{
1000
MANEDIT
1070
     0
1002
}
1002
{
1000
NOSEL
1070
     0
1002
}
1002
{
1000
BEHIND
1070
     0
1002
}
1002
{
1000
OTHER
1070
     0
1002
}
1002
{
1000
REACTOR
1002
}
1001
GENIUS_GENOBJ-N-CEN_13
1002
{
1000
OWNER
1000
GEN
1002
}
1001
GENIUS_GENCEN_19
1002
{
1040
3.0
1002
}
  0
LINE
  5
2EA68
330
1F
100
AcDbEntity
  8
AM_7
100
AcDbLine
 10
618.5117023572389
 20
583.3340762648346
 30
0.0
 11
618.5117023572389
 21
627.3340802648346
 31
0.0
1001
GENIUS_GENODEF_13
1002
{
1000
HIER
1070
     0
1002
}
1002
{
1000
MANEDIT
1070
     0
1002
}
1002
{
1000
NOSEL
1070
     0
1002
}
1002
{
1000
BEHIND
1070
     0
1002
}
1002
{
1000
OTHER
1070
     0
1002
}
1002
{
1000
REACTOR
1002
}
1001
GENIUS_GENOBJ-N-CEN_13
1002
{
1000
OWNER
1000
GEN
1002
}
1001
GENIUS_GENCEN_19
1002
{
1040
3.0
1002
}
  0
HATCH
  5
2EA6B
330
1F
100
AcDbEntity
  8
AM_8
100
AcDbHatch
 10
0.0
 20
0.0
 30
0.0
210
0.0
220
0.0
230
1.0
  2
_U
 70
     0
 71
     0
 91
        1
 92
        1
 93
        2
 72
     2
 10
618.5117023572391
 20
620.3340802648345
 40
4.000000000000064
 50
191.4591559026168
 51
401.2781698760226
 73
     1
 72
     2
 10
618.5117023572391
 20
620.3340802648345
 40
3.999999999999916
 50
41.27816987602272
 51
191.4591559026168
 73
     1
 97
        0
 75
     0
 76
     0
 52
45.0
 41
1.5
 77
     0
 78
     1
 53
45.0
 43
0.0
 44
12.89385909462442
 45
-1.060660171779821
 46
1.060660171779821
 79
     0
 98
        1
 10
0.0
 20
12.89385909462442
1001
GENIUS_GENODEF_13
1002
{
1000
HIER
1070
     0
1002
}
1002
{
1000
MANEDIT
1070
     0
1002
}
1002
{
1000
NOSEL
1070
     0
1002
}
1002
{
1000
BEHIND
1070
     0
1002
}
1002
{
1000
OTHER
1070
     0
1002
}
1002
{
1000
REACTOR
1002
}
1001
GENIUS_GENOBJ-N-HTC_13
1002
{
1000
OWNER
1000
GEN
1002
}
1001
GENIUS_GENHATCH_13
1002
{
1000
DATA
1040
45.0
1042
2.5
1000
_U
1070
     0
1011
620.1891447187025
1021
621.8066173767259
1031
0.0
1002
}
1002
{
1000
UCS
1010
0.0
1020
0.0
1030
0.0
1010
1.0
1020
0.0
1030
0.0
1010
0.0
1020
1.0
1030
0.0
1002
}
  0
HATCH
  5
2EA6D
330
1F
100
AcDbEntity
  8
AM_8
100
AcDbHatch
 10
0.0
 20
0.0
 30
0.0
210
0.0
220
0.0
230
1.0
  2
_U
 70
     0
 71
     0
 91
        1
 92
        1
 93
        2
 72
     2
 10
618.5117023572389
 20
590.3340762648346
 40
3.999999999999953
 50
191.4591559026171
 51
401.8024284607478
 73
     1
 72
     2
 10
618.5117023572389
 20
590.3340762648346
 40
3.999999999999997
 50
41.80242846074792
 51
191.4591559026171
 73
     1
 97
        0
 75
     0
 76
     0
 52
45.0
 41
1.5
 77
     0
 78
     1
 53
45.0
 43
0.0
 44
12.89385909462442
 45
-1.060660171779821
 46
1.060660171779821
 79
     0
 98
        1
 10
0.0
 20
12.89385909462442
1001
GENIUS_GENODEF_13
1002
{
1000
HIER
1070
     0
1002
}
1002
{
1000
MANEDIT
1070
     0
1002
}
1002
{
1000
NOSEL
1070
     0
1002
}
1002
{
1000
BEHIND
1070
     0
1002
}
1002
{
1000
OTHER
1070
     0
1002
}
1002
{
1000
REACTOR
1002
}
1001
GENIUS_GENOBJ-N-HTC_13
1002
{
1000
OWNER
1000
GEN
1002
}
1001
GENIUS_GENHATCH_13
1002
{
1000
DATA
1040
45.0
1042
2.5
1000
_U
1070
     0
1011
620.0362076837453
1021
591.6972576172522
1031
0.0
1002
}
1002
{
1000
UCS
1010
0.0
1020
0.0
1030
0.0
1010
1.0
1020
0.0
1030
0.0
1010
0.0
1020
1.0
1030
0.0
1002
}
  0
LINE
  5
2EA6E
330
1F
100
AcDbEntity
  8
AM_7
100
AcDbLine
 10
618.5116917572389
 20
681.3419840102165
 30
0.0
 11
618.5117029572389
 21
737.3419830102163
 31
0.0
1001
GENIUS_GENOBJ-N-CEN_13
1002
{
1000
OWNER
1000
GEN
1002
}
1001
GENIUS_GENODEF_13
1002
{
1000
HIER
1070
     0
1002
}
1002
{
1000
MANEDIT
1070
     0
1002
}
1002
{
1000
NOSEL
1070
     0
1002
}
1002
{
1000
BEHIND
1070
     0
1002
}
1002
{
1000
OTHER
1070
     0
1002
}
1002
{
1000
REACTOR
1002
}
1001
GENIUS_GENCEN_19
1002
{
1040
3.0
1002
}
  0
LINE
  5
2EA6F
330
1F
100
AcDbEntity
  8
AM_7
  6
AM_ISO08W050x2
100
AcDbLine
 10
608.5117023572389
 20
724.3419830102164
 30
0.0
 11
628.5117023572389
 21
724.3419830102164
 31
0.0
1001
GENIUS_GENODEF_13
1002
{
1000
HIER
1070
     0
1002
}
1002
{
1000
MANEDIT
1070
     0
1002
}
1002
{
1000
NOSEL
1070
     0
1002
}
1002
{
1000
BEHIND
1070
     0
1002
}
1002
{
1000
OTHER
1070
     0
1002
}
1002
{
1000
REACTOR
1002
}
1001
GENIUS_GENOBJ-N-CEN_13
1002
{
1000
OWNER
1000
GEN
1002
}
1001
GENIUS_GENCEN_19
1002
{
1040
3.0
1002
}
  0
LINE
  5
2EA70
330
1F
100
AcDbEntity
  8
AM_7
  6
AM_ISO08W050x2
100
AcDbLine
 10
608.5117023572389
 20
694.3419810102163
 30
0.0
 11
628.5117023572389
 21
694.3419810102163
 31
0.0
1001
GENIUS_GENODEF_13
1002
{
1000
HIER
1070
     0
1002
}
1002
{
1000
MANEDIT
1070
     0
1002
}
1002
{
1000
NOSEL
1070
     0
1002
}
1002
{
1000
BEHIND
1070
     0
1002
}
1002
{
1000
OTHER
1070
     0
1002
}
1002
{
1000
REACTOR
1002
}
1001
GENIUS_GENOBJ-N-CEN_13
1002
{
1000
OWNER
1000
GEN
1002
}
1001
GENIUS_GENCEN_19
1002
{
1040
3.0
1002
}
  0
DIMENSION
  5
2EA71
102
{ACAD_XDICTIONARY
360
2EA7E
102
}
102
{ACAD_REACTORS
330
2EA7F
102
}
330
1F
100
AcDbEntity
  8
AM_5
100
AcDbDimension
  2
*D8
 10
633.511682357239
 20
672.3419830102163
 30
0.0
 11
618.511692357239
 21
675.4419830102164
 31
0.0
 70
    32
 71
     5
 42
29.99997999999971
  3
SYS$0
100
AcDbAlignedDimension
 13
603.5117023572393
 23
689.3419827555458
 33
0.0
 14
633.511682357239
 24
689.3419827555458
 34
0.0
 50
0.0000000000002036
100
AcDbRotatedDimension
  0
DIMENSION
  5
2EA89
102
{ACAD_XDICTIONARY
360
2EA96
102
}
102
{ACAD_REACTORS
330
2EA97
102
}
330
1F
100
AcDbEntity
  8
AM_5
100
AcDbDimension
  2
*D9
 10
591.5117013572389
 20
734.3419830102158
 30
0.0
 11
588.4117013572388
 21
709.3419820102162
 31
0.0
 70
    32
 71
     5
 42
50.00000199999942
  3
SYS$0
100
AcDbAlignedDimension
 13
608.5117023572389
 23
684.3419810102163
 33
0.0
 14
618.5117062842302
 24
734.3419830102158
 34
0.0
 50
90.00000000000003
100
AcDbRotatedDimension
  0
DIMENSION
  5
2EAA1
102
{ACAD_XDICTIONARY
360
2EAAE
102
}
102
{ACAD_REACTORS
330
2EAAF
102
}
330
1F
100
AcDbEntity
  8
AM_5
100
AcDbDimension
  2
*D10
 10
687.7196153572389
 20
746.3419790102164
 30
0.0
 11
692.5196128572389
 21
749.4419790102163
 31
0.0
 70
    32
 71
     5
 42
9.599995000000035
  3
SYS$0
100
AcDbAlignedDimension
 13
697.3196103572389
 23
734.3419790102164
 33
0.0
 14
687.7196153572389
 24
729.0919790102163
 34
0.0
100
AcDbRotatedDimension
  0
DIMENSION
  5
2EACA
102
{ACAD_XDICTIONARY
360
2EAD7
102
}
102
{ACAD_REACTORS
330
2EAD8
102
}
330
1F
100
AcDbEntity
  8
AM_5
100
AcDbDimension
  2
*D11
 10
737.3196083572389
 20
746.3419790102164
 30
0.0
 11
772.3196093572389
 21
749.4419790102163
 31
0.0
 70
    32
 71
     5
 42
70.00000199999999
  3
SYS$0
100
AcDbAlignedDimension
 13
807.3196103572389
 23
703.1576620102164
 33
0.0
 14
737.3196083572389
 24
734.3419790102164
 34
0.0
100
AcDbRotatedDimension
  0
LINE
  5
2EAE2
330
1F
100
AcDbEntity
  8
AM_7
100
AcDbLine
 10
887.3195998227712
 20
661.3419767102166
 30
0.0
 11
887.3196065497696
 21
737.3419790102158
 31
0.0
1001
GENIUS_GENOBJ-N-CEN_13
1002
{
1000
OWNER
1000
GEN
1002
}
1001
GENIUS_GENODEF_13
1002
{
1000
HIER
1070
     0
1002
}
1002
{
1000
MANEDIT
1070
     0
1002
}
1002
{
1000
NOSEL
1070
     0
1002
}
1002
{
1000
BEHIND
1070
     0
1002
}
1002
{
1000
OTHER
1070
     0
1002
}
1002
{
1000
REACTOR
1002
}
1001
GENIUS_GENCEN_19
1002
{
1040
3.0
1002
}
  0
DIMENSION
  5
2EAE3
102
{ACAD_XDICTIONARY
360
2EAF0
102
}
102
{ACAD_REACTORS
330
2EAF1
102
}
330
1F
100
AcDbEntity
  8
AM_5
100
AcDbDimension
  2
*D12
 10
914.319603357239
 20
734.3419790102158
 30
0.0
 11
911.2196033572388
 21
699.3419778602162
 31
0.0
 70
    32
 71
     5
 42
70.00000229999944
  3
SYS$0
100
AcDbAlignedDimension
 13
887.319602357239
 23
664.3419767102163
 33
0.0
 14
887.3196062842302
 24
734.3419790102158
 34
0.0
 50
90.00000000000003
100
AcDbRotatedDimension
  0
DIMENSION
  5
2EAFB
102
{ACAD_XDICTIONARY
360
2EB08
102
}
102
{ACAD_REACTORS
330
2EB09
102
}
330
1F
100
AcDbEntity
  8
AM_5
100
AcDbDimension
  2
*D13
 10
902.319602357239
 20
746.341979010216
 30
0.0
 11
887.3196023572401
 21
749.4419790102161
 31
0.0
 70
    32
 71
     5
 42
29.99999999999796
  3
SYS$0
100
AcDbAlignedDimension
 13
872.3196023572411
 23
719.3419868641988
 33
0.0
 14
902.319602357239
 24
719.3419790102163
 34
0.0
100
AcDbRotatedDimension
  0
LINE
  5
2EB4F
330
1F
100
AcDbEntity
  8
AM_7
100
AcDbLine
 10
684.719600357239
 20
602.4286159388594
 30
0.0
 11
810.319610357239
 21
602.4286117381906
 31
0.0
1001
GENIUS_GENODEF_13
1002
{
1000
HIER
1070
     0
1002
}
1002
{
1000
MANEDIT
1070
     0
1002
}
1002
{
1000
NOSEL
1070
     0
1002
}
1002
{
1000
BEHIND
1070
     0
1002
}
1002
{
1000
OTHER
1070
     0
1002
}
1002
{
1000
REACTOR
1002
}
1001
GENIUS_GENOBJ-N-CEN_13
1002
{
1000
OWNER
1000
GEN
1002
}
1001
GENIUS_GENCEN_19
1002
{
1040
3.0
1002
}
  0
LINE
  5
2EB50
330
1F
100
AcDbEntity
  8
AM_7
100
AcDbLine
 10
684.719600357239
 20
694.3419850102164
 30
0.0
 11
740.3196083572389
 21
694.3419850102164
 31
0.0
1001
GENIUS_GENOBJ-N-CEN_13
1002
{
1000
OWNER
1000
GEN
1002
}
1001
GENIUS_GENODEF_13
1002
{
1000
HIER
1070
     0
1002
}
1002
{
1000
MANEDIT
1070
     0
1002
}
1002
{
1000
NOSEL
1070
     0
1002
}
1002
{
1000
BEHIND
1070
     0
1002
}
1002
{
1000
OTHER
1070
     0
1002
}
1002
{
1000
REACTOR
1002
}
1001
GENIUS_GENCEN_19
1002
{
1040
3.0
1002
}
  0
LINE
  5
2EB51
330
1F
100
AcDbEntity
  8
AM_7
100
AcDbLine
 10
684.719600357239
 20
724.3419830102164
 30
0.0
 11
740.3196083572389
 21
724.3419830102164
 31
0.0
1001
GENIUS_GENOBJ-N-CEN_13
1002
{
1000
OWNER
1000
GEN
1002
}
1001
GENIUS_GENODEF_13
1002
{
1000
HIER
1070
     0
1002
}
1002
{
1000
MANEDIT
1070
     0
1002
}
1002
{
1000
NOSEL
1070
     0
1002
}
1002
{
1000
BEHIND
1070
     0
1002
}
1002
{
1000
OTHER
1070
     0
1002
}
1002
{
1000
REACTOR
1002
}
1001
GENIUS_GENCEN_19
1002
{
1040
3.0
1002
}
  0
VIEWPORT
  5
1B6C8
102
{ACAD_XDICTIONARY
360
2EC35
102
}
330
1B
100
AcDbEntity
 67
     1
  8
0
100
AcDbViewport
 10
153.4634011109285
 20
101.7587463855743
 30
0.0
 40
313.2767778077945
 41
209.8674926757813
 68
     1
 69
     1
 12
153.4634011109285
 22
101.7587463855743
 13
0.0
 23
0.0
 14
2.5
 24
2.5
 15
10.0
 25
10.0
 16
0.0
 26
0.0
 36
1.0
 17
0.0
 27
0.0
 37
0.0
 42
50.0
 43
0.0
 44
0.0
 45
209.8674926757813
 50
0.0
 51
0.0
 72
   100
 90
    32800
  1

281
     0
 71
     1
 74
     0
110
0.0
120
0.0
130
0.0
111
1.0
121
0.0
131
0.0
112
0.0
122
1.0
132
0.0
 79
     0
146
0.0
1001
GENIUS_GENOBJ-N-SDF_13
1002
{
1000
OWNER
1000
GEN
1002
}
1001
GENIUS_GENODEF_13
1002
{
1000
HIER
1070
     0
1002
}
1002
{
1000
MANEDIT
1070
     0
1002
}
1002
{
1000
NOSEL
1070
     0
1002
}
1002
{
1000
BEHIND
1070
     0
1002
}
1002
{
1000
OTHER
1070
     0
1002
}
1002
{
1000
REACTOR
1002
}
1001
GENIUS_GENSCREG_15
1000
PF
1040
1.0
1000
DF
1040
1.0
1000
MIN
1011
-3.17498779296875
1021
-3.174999952316369
1031
0.0
1000
MAX
1011
310.1017900148257
1021
206.692492723465
1031
0.0
1000
FLAGS
1070
     2
  0
ENDSEC
  0
SECTION
  2
OBJECTS
  0
DICTIONARY
  5
C
330
0
100
AcDbDictionary
281
     1
  3
ACAD_2007HEADERVARS_RT
350
2EC18
  3
ACAD_BGPLOT_KEY
350
AB06
  3
ACAD_COLOR
350
A91D
  3
ACAD_GROUP
350
D
  3
ACAD_LAYOUT
350
1A
  3
ACAD_MATERIAL
350
A91C
  3
ACAD_MLINESTYLE
350
17
  3
ACAD_PLOTSETTINGS
350
19
  3
ACAD_PLOTSTYLENAME
350
E
  3
ACAD_TABLESTYLE
350
AAB9
  3
ACAD_VISUALSTYLE
350
2CFE8
  3
AcAsAppObject
350
3DA1
  3
ACASGREF_MASTER
350
3DE9
  3
AcDbVariableDictionary
350
34
  3
AcmDictionary
350
47
  3
AD_GREF_MODULE
350
3DEA
  3
AD_MAPI_MODULE
350
3E06
  3
AMG
350
2B
  3
AMGSNAPSETTINGS
350
7D
  3
ASE_INDEX_DICTIONARY
350
2C9F5
  3
DWGPROPS
350
2EC17
  3
MAPISURF_MODULE
350
3DEB
  0
DICTIONARY
  5
3F95
330
2
100
AcDbDictionary
280
     1
281
     1
  3
ACAD_LAYERFILTERS
360
AF79
  3
ACAD_LAYERSTATES
360
3F96
  3
ACLYDICTIONARY
360
AF78
  3
AMLAYER_GROUPCOLORS
360
AAB4
  0
DICTIONARY
  5
8A
330
1F
100
AcDbDictionary
280
     1
281
     1
  3
ACAD_SORTENTS
360
C9FA
  0
DICTIONARY
  5
2EA7E
330
2EA71
100
AcDbDictionary
280
     1
281
     1
  3
ACAD_DIMASSOC
360
2EA7F
  0
DICTIONARY
  5
2EA96
330
2EA89
100
AcDbDictionary
280
     1
281
     1
  3
ACAD_DIMASSOC
360
2EA97
  0
DICTIONARY
  5
2EAAE
330
2EAA1
100
AcDbDictionary
280
     1
281
     1
  3
ACAD_DIMASSOC
360
2EAAF
  0
DICTIONARY
  5
2EAD7
330
2EACA
100
AcDbDictionary
280
     1
281
     1
  3
ACAD_DIMASSOC
360
2EAD8
  0
DICTIONARY
  5
2EAF0
330
2EAE3
100
AcDbDictionary
280
     1
281
     1
  3
ACAD_DIMASSOC
360
2EAF1
  0
DICTIONARY
  5
2EB08
330
2EAFB
100
AcDbDictionary
280
     1
281
     1
  3
ACAD_DIMASSOC
360
2EB09
  0
DICTIONARY
  5
2EC35
330
1B6C8
100
AcDbDictionary
280
     1
281
     1
  3
ACAD_XREC_ROUNDTRIP
360
2EC36
  0
DICTIONARY
  5
2EC18
102
{ACAD_REACTORS
330
C
102
}
330
C
100
AcDbDictionary
281
     1
  3
DIMARCSYM
350
2EC19
  0
DICTIONARY
  5
AB06
102
{ACAD_REACTORS
330
C
102
}
330
C
100
AcDbDictionary
280
     1
281
     1
  0
DICTIONARY
  5
A91D
102
{ACAD_REACTORS
330
C
102
}
330
C
100
AcDbDictionary
281
     1
  0
DICTIONARY
  5
D
102
{ACAD_REACTORS
330
C
102
}
330
C
100
AcDbDictionary
281
     1
  0
DICTIONARY
  5
1A
102
{ACAD_REACTORS
330
C
102
}
330
C
100
AcDbDictionary
281
     1
  3
Model
350
22
  3
ﾚｲｱｳﾄ1
350
1E
  3
ﾚｲｱｳﾄ2
350
26
  0
DICTIONARY
  5
A91C
102
{ACAD_REACTORS
330
C
102
}
330
C
100
AcDbDictionary
281
     1
  3
ByBlock
350
2CFE6
  3
ByLayer
350
2CFE5
  3
Global
350
2CFE7
  0
DICTIONARY
  5
17
102
{ACAD_REACTORS
330
C
102
}
330
C
100
AcDbDictionary
281
     1
  3
Standard
350
18
  0
DICTIONARY
  5
19
102
{ACAD_REACTORS
330
C
102
}
330
C
100
AcDbDictionary
281
     1
  3
01   A1　１：１
350
C99B
  3
02   A2　１：１
350
C99C
  3
03   A3　１：１
350
C99D
  3
04   A4  １：１
350
C99E
  3
05   A1 自動調整
350
C99F
  3
06   A2 自動調整
350
C9A0
  3
07   A3 自動調整
350
C9A1
  3
08   A4 自動調整
350
C9A2
  3
09   A1をA3に
350
C9A3
  3
10   A2をA3に
350
C9A4
  0
ACDBDICTIONARYWDFLT
  5
E
102
{ACAD_REACTORS
330
C
102
}
330
C
100
AcDbDictionary
281
     1
  3
Normal
350
F
100
AcDbDictionaryWithDefault
340
F
  0
DICTIONARY
  5
AAB9
102
{ACAD_REACTORS
330
C
102
}
330
C
100
AcDbDictionary
281
     1
  3
Standard
350
AABA
  0
DICTIONARY
  5
2CFE8
102
{ACAD_REACTORS
330
C
102
}
330
C
100
AcDbDictionary
281
     1
  3
2dWireframe
350
2CFEE
  3
3D Hidden
350
2CFF0
  3
3dWireframe
350
2CFEF
  3
Basic
350
2CFED
  3
Brighten
350
2CFF4
  3
ColorChange
350
2CFF8
  3
Conceptual
350
2CFF1
  3
Dim
350
2CFF3
  3
Facepattern
350
2CFF7
  3
Flat
350
2CFE9
  3
FlatWithEdges
350
2CFEA
  3
Gouraud
350
2CFEB
  3
GouraudWithEdges
350
2CFEC
  3
Linepattern
350
2CFF6
  3
Realistic
350
2CFF2
  3
Thicken
350
2CFF5
  0
ACAD_PROXY_OBJECT
  5
3DA1
102
{ACAD_REACTORS
330
C
102
}
330
C
100
AcDbProxyObject
 90
      499
 91
      576
 95
   917527
 70
     0
 93
       10
310
407F
 94
        0
1001
ACAD
1000
AcRTDxfName
1000
ASAPP
1000
AcRTDxfName
1000
ASAPP
1000
AcRTDxfName
1000
ASAPP
1000
AcRTDxfName
1000
ASAPP
1000
AcRTDxfName
1000
ASAPP
  0
ACAD_PROXY_OBJECT
  5
3DE9
102
{ACAD_REACTORS
330
C
102
}
330
C
100
AcDbProxyObject
 90
      499
 91
      581
 95
   917527
 70
     0
 93
       34
310
010000407F
 94
        0
1001
ACAD
1000
AcRTDxfName
1000
ACASGREFMASTER
1000
AcRTDxfName
1000
ACASGREFMASTER
1000
AcRTDxfName
1000
ACASGREFMASTER
1000
AcRTDxfName
1000
ACASGREFMASTER
1000
AcRTDxfName
1000
ACASGREFMASTER
  0
DICTIONARY
  5
34
102
{ACAD_REACTORS
330
C
102
}
330
C
100
AcDbDictionary
281
     1
  3
CTABLESTYLE
350
AAF3
  3
DIMASSOC
350
A10C
  3
FIELDEVAL
350
AB07
  3
INDEXCTL
350
35
  3
PROJECTNAME
350
2CDAD
  3
SORTENTS
350
194C
  0
DICTIONARY
  5
47
102
{ACAD_REACTORS
330
C
102
}
330
C
100
AcDbDictionary
281
     1
  3
AcmBOM
350
7E8
  3
AcmStdDictionary
350
4C
  3
AMDTSECTSYM_ARROWCOLOR
350
A929
  0
ACAD_PROXY_OBJECT
  5
3DEA
102
{ACAD_REACTORS
330
C
102
}
330
C
100
AcDbProxyObject
 90
      499
 91
      582
 95
   917527
 70
     0
 93
      114
310
00000043800000000000000000003F
 94
        0
1001
ACAD
1000
AcRTDxfName
1000
ACADGREFMODULE
1000
AcRTDxfName
1000
ACADGREFMODULE
1000
AcRTDxfName
1000
ACADGREFMODULE
1000
AcRTDxfName
1000
ACADGREFMODULE
1000
AcRTDxfName
1000
ACADGREFMODULE
  0
ACAD_PROXY_OBJECT
  5
3E06
102
{ACAD_REACTORS
330
C
102
}
330
C
100
AcDbProxyObject
 90
      499
 91
      594
 95
   917527
 70
     0
 93
       34
310
05000044FF
 94
        0
1001
ACAD
1000
AcRTDxfName
1000
MAPIADMODULE
1000
AcRTDxfName
1000
MAPIADMODULE
1000
AcRTDxfName
1000
MAPIADMODULE
1000
AcRTDxfName
1000
MAPIADMODULE
1000
AcRTDxfName
1000
MAPIADMODULE
  0
DICTIONARY
  5
2B
102
{ACAD_REACTORS
330
C
102
}
330
C
100
AcDbDictionary
281
     1
  0
DICTIONARY
  5
7D
102
{ACAD_REACTORS
330
C
102
}
330
C
100
AcDbDictionary
281
     1
  0
DICTIONARY
  5
2C9F5
102
{ACAD_REACTORS
330
C
102
}
330
C
100
AcDbDictionary
281
     1
  3
ASEBlockHierarchyIndexRecord
350
2C9F6
1001
DCO15
1040
1558967278.687
  0
XRECORD
  5
2EC17
102
{ACAD_REACTORS
330
C
102
}
330
C
100
AcDbXrecord
280
     1
  1
DWGPROPS COOKIE
  2

  3

  4

  6

  7

  8
Administrator
  9

300
AmdtFileType=84
301
=
302
=
303
=
304
=
305
=
306
=
307
=
308
=
309
=
 40
13.25197521990741
 41
2453690.706505706
 42
2455629.440295857
  1

 90
        1
  0
ACAD_PROXY_OBJECT
  5
3DEB
102
{ACAD_REACTORS
330
C
102
}
330
C
100
AcDbProxyObject
 90
      499
 91
      583
 95
   917527
 70
     0
 93
        8
310
047E
 94
        0
1001
ACAD
1000
AcRTDxfName
1000
AMDTMAPISURFMOUDULE
1000
AcRTDxfName
1000
AMDTMAPISURFMOUDULE
1000
AcRTDxfName
1000
AMDTMAPISURFMOUDULE
1000
AcRTDxfName
1000
AMDTMAPISURFMOUDULE
1000
AcRTDxfName
1000
AMDTMAPISURFMOUDULE
  0
DICTIONARY
  5
AF79
102
{ACAD_REACTORS
330
3F95
102
}
330
3F95
100
AcDbDictionary
281
     1
  0
DICTIONARY
  5
3F96
102
{ACAD_REACTORS
330
3F95
102
}
330
3F95
100
AcDbDictionary
281
     1
  3
20011210
350
3FB7
  0
DICTIONARY
  5
AF78
102
{ACAD_REACTORS
330
3F95
102
}
330
3F95
100
AcDbDictionary
281
     1
1001
ACAD
1000
<All
  0
DICTIONARY
  5
AAB4
102
{ACAD_REACTORS
330
3F95
102
}
330
3F95
100
AcDbDictionary
280
     1
281
     1
  3
ゴムシート
360
1FEBE
  3
ストッパー
360
E2E8
  3
バネ
360
1B4AC
  3
ブース
360
28769
  3
ベスト
360
28D60
  3
ワッシャ
360
1B425
  3
非常解錠キー
360
2112F
  0
SORTENTSTABLE
  5
C9FA
102
{ACAD_REACTORS
330
8A
102
}
330
8A
100
AcDbSortentsTable
330
1F
331
2CB70
  5
13DA3
331
2E850
  5
2E850
331
2E81B
  5
2E81B
331
2E8B7
  5
2E8B7
331
2CC40
  5
2CC40
331
2A721
  5
2B266
331
2E858
  5
2E858
331
2E823
  5
2E823
331
2A769
  5
2B26B
331
2E860
  5
2E860
331
2E82B
  5
2E82B
331
2E831
  5
2E831
331
2E890
  5
2E890
331
2E898
  5
2E898
331
2E839
  5
2E839
331
2E804
  5
2E804
331
2E841
  5
2E841
331
2E8A0
  5
2E8A0
331
2E80C
  5
2E80C
331
2E8A8
  5
2E8A8
331
2CB69
  5
13D9A
331
2A712
  5
2A768
331
2E849
  5
2E849
331
2E814
  5
2E814
331
2CB71
  5
13DA4
331
2A71A
  5
2A798
331
2E851
  5
2E851
331
2E8B0
  5
2E8B0
331
2E81C
  5
2E81C
331
2E8B8
  5
2E8B8
331
2A722
  5
2B267
331
2E859
  5
2E859
331
2E824
  5
2E824
331
2EA67
  5
2EA67
331
2E861
  5
2E861
331
2E82C
  5
2E82C
331
2E832
  5
2E832
331
2E891
  5
2E891
331
2E83A
  5
2E83A
331
2E899
  5
2E899
331
2E805
  5
2E805
331
2E8A1
  5
2E8A1
331
2A70B
  5
2A71F
331
2E842
  5
2E842
331
2E80D
  5
2E80D
331
2E8A9
  5
2E8A9
331
2CB6A
  5
13D9B
331
2A713
  5
2A769
331
2E84A
  5
2E84A
331
2E815
  5
2E815
331
2CB72
  5
13DA5
331
2E852
  5
2E852
331
2E8B1
  5
2E8B1
331
2A723
  5
2B268
331
2E85A
  5
2E85A
331
2E825
  5
2E825
331
2EA68
  5
2EA68
331
2A76B
  5
2B26D
331
2E862
  5
2E862
331
2E82D
  5
2E82D
331
2E833
  5
2E833
331
2E892
  5
2E892
331
2E7FE
  5
2E7FE
331
2E89A
  5
2E89A
331
2E83B
  5
2E83B
331
2E806
  5
2E806
331
2E8A2
  5
2E8A2
331
2E80E
  5
2E80E
331
2A714
  5
2A76A
331
2E84B
  5
2E84B
331
2E8AA
  5
2E8AA
331
2E816
  5
2E816
331
2CB73
  5
13DA6
331
2A71C
  5
2A79A
331
2E853
  5
2E853
331
2E8B2
  5
2E8B2
331
2E81E
  5
2E81E
331
2E85B
  5
2E85B
331
2E826
  5
2E826
331
2E863
  5
2E863
331
2EA12
  5
2EA12
331
2E82E
  5
2E82E
331
2E88B
  5
2E88B
331
2E834
  5
2E834
331
2E893
  5
2E893
331
2E7FF
  5
2E7FF
331
2E89B
  5
2E89B
331
2E83C
  5
2E83C
331
2E807
  5
2E807
331
2E8A3
  5
2E8A3
331
2A70D
  5
2A721
331
2E844
  5
2E844
331
2E80F
  5
2E80F
331
2CB6C
  5
13D9E
331
2E84C
  5
2E84C
331
2E8AB
  5
2E8AB
331
2E817
  5
2E817
331
2CB74
  5
13DA7
331
2A71D
  5
2B262
331
2E854
  5
2E854
331
2E8B3
  5
2E8B3
331
2E81F
  5
2E81F
331
2E85C
  5
2E85C
331
2E827
  5
2E827
331
2E864
  5
2E864
331
2E88C
  5
2E88C
331
2E82F
  5
2E82F
331
2E835
  5
2E835
331
2E894
  5
2E894
331
2E89C
  5
2E89C
331
2E83D
  5
2E83D
331
2E800
  5
2E800
331
2E845
  5
2E845
331
2E8A4
  5
2E8A4
331
2A70E
  5
2A722
331
2E808
  5
2E808
331
2E84D
  5
2E84D
331
2E8AC
  5
2E8AC
331
2A716
  5
2A76C
331
2CB6D
  5
13D9F
331
2E810
  5
2E810
331
2E8B4
  5
2E8B4
331
2A71E
  5
2B263
331
2CB75
  5
13DA8
331
2E818
  5
2E818
331
2E85D
  5
2E85D
331
2E820
  5
2E820
331
2EA6B
  5
2EA6A
331
2E865
  5
2E865
331
2E828
  5
2E828
331
2E88D
  5
2E88D
331
2E836
  5
2E836
331
2E895
  5
2E895
331
2E801
  5
2E801
331
2E89D
  5
2E89D
331
2E83E
  5
2E83E
331
2D16A
  5
2D16A
331
2E8A5
  5
2E8A5
331
2E846
  5
2E846
331
2E809
  5
2E809
331
2E84E
  5
2E84E
331
2E8AD
  5
2E8AD
331
2CB6E
  5
13DA1
331
2E811
  5
2E811
331
2E8B5
  5
2E8B5
331
2CB76
  5
13DA9
331
2A71F
  5
2B264
331
2E819
  5
2E819
331
2E85E
  5
2E85E
331
2E821
  5
2E821
331
2E866
  5
2E866
331
2E829
  5
2E829
331
2E88E
  5
2E88E
331
2E837
  5
2E837
331
2E896
  5
2E896
331
2E802
  5
2E802
331
2E89E
  5
2E89E
331
2E83F
  5
2E83F
331
2E80A
  5
2E80A
331
2EA45
  5
2EA45
331
2A710
  5
2A723
331
2CB67
  5
CA6C
331
2E8A6
  5
2E8A6
331
2E812
  5
2E812
331
2E8AE
  5
2E8AE
331
2CB6F
  5
13DA2
331
2E84F
  5
2E84F
331
2E81A
  5
2E81A
331
2EA5D
  5
2EA5D
331
2E8B6
  5
2E8B6
331
2CB77
  5
13DAA
331
2E857
  5
2E857
331
2E822
  5
2E822
331
2A768
  5
2B26A
331
2E85F
  5
2E85F
331
2EA6D
  5
2EA6C
331
2E867
  5
2E867
331
2E88F
  5
2E88F
331
2A798
  5
2B28D
331
2E830
  5
2E830
331
2E838
  5
2E838
331
2E897
  5
2E897
331
2E803
  5
2E803
331
2E89F
  5
2E89F
331
2E840
  5
2E840
331
2E80B
  5
2E80B
331
2CB68
  5
13D99
331
2A711
  5
2A725
331
2E8A7
  5
2E8A7
331
2E813
  5
2E813
331
2E8AF
  5
2E8AF
  0
DIMASSOC
  5
2EA7F
102
{ACAD_REACTORS
330
2EA7E
102
}
330
2EA7E
100
AcDbDimAssoc
330
2EA71
 90
        1
 70
     0
 71
     0
  1
AcDbOsnapPointRef
 72
    13
331
2E8A7
 73
     0
 91
        0
 40
0.0
 10
0.0
 20
0.0
 30
2.000000000000000E+50
 75
     0
  0
DIMASSOC
  5
2EA97
102
{ACAD_REACTORS
330
2EA96
102
}
330
2EA96
100
AcDbDimAssoc
330
2EA89
 90
        1
 70
     0
 71
     0
  1
AcDbOsnapPointRef
 72
     1
331
2E8A7
 73
     0
 91
        0
 40
0.0
 10
0.0
 20
0.0
 30
2.000000000000000E+50
 75
     0
  0
DIMASSOC
  5
2EAAF
102
{ACAD_REACTORS
330
2EAAE
102
}
330
2EAAE
100
AcDbDimAssoc
330
2EAA1
 90
        3
 70
     0
 71
     0
  1
AcDbOsnapPointRef
 72
     1
331
2E805
 73
     0
 91
        0
 40
0.0
 10
0.0
 20
0.0
 30
2.000000000000000E+50
 75
     0
  1
AcDbOsnapPointRef
 72
     1
331
2E83A
 73
     0
 91
        0
 40
0.0
 10
0.0
 20
0.0
 30
2.000000000000000E+50
 75
     0
  0
DIMASSOC
  5
2EAD8
102
{ACAD_REACTORS
330
2EAD7
102
}
330
2EAD7
100
AcDbDimAssoc
330
2EACA
 90
        3
 70
     0
 71
     0
  1
AcDbOsnapPointRef
 72
    13
331
2E88B
 73
     0
 91
        0
 40
0.0
 10
0.0
 20
0.0
 30
2.000000000000000E+50
 75
     0
  1
AcDbOsnapPointRef
 72
    13
331
2E80B
 73
     0
 91
        0
 40
0.0
 10
0.0
 20
0.0
 30
2.000000000000000E+50
 75
     0
  0
DIMASSOC
  5
2EAF1
102
{ACAD_REACTORS
330
2EAF0
102
}
330
2EAF0
100
AcDbDimAssoc
330
2EAE3
 90
        1
 70
     0
 71
     0
  1
AcDbOsnapPointRef
 72
     5
331
2E89B
 73
     0
 91
        0
 40
4.712388980384689
 10
0.0
 20
0.0
 30
0.0
 75
     0
  0
DIMASSOC
  5
2EB09
102
{ACAD_REACTORS
330
2EB08
102
}
330
2EB08
100
AcDbDimAssoc
330
2EAFB
 90
        3
 70
     0
 71
     0
  1
AcDbOsnapPointRef
 72
     1
331
2E89C
 73
     0
 91
        0
 40
0.0
 10
0.0
 20
0.0
 30
2.000000000000000E+50
 75
     0
  1
AcDbOsnapPointRef
 72
    13
331
2E89C
 73
     0
 91
        0
 40
0.0
 10
0.0
 20
0.0
 30
2.000000000000000E+50
 75
     0
  0
XRECORD
  5
2EC36
102
{ACAD_REACTORS
330
2EC35
102
}
330
2EC35
100
AcDbXrecord
280
     1
102
SHADEPLOT
 70
     0
  0
XRECORD
  5
2EC19
102
{ACAD_REACTORS
330
2EC18
102
}
330
2EC18
100
AcDbXrecord
280
     1
 70
     1
  0
LAYOUT
  5
22
102
{ACAD_XDICTIONARY
360
2EC1B
102
}
102
{ACAD_REACTORS
330
1A
102
}
330
1A
100
AcDbPlotSettings
  1

  2
Adobe PDF
  4
A4
  6
AM_VIEW1
 40
3.174999952316284
 41
3.174999952316284
 42
3.175003051757812
 43
3.17498779296875
 44
209.9733276367187
 45
297.0318298339844
 46
0.0
 47
1.364832920257583
 48
530.177562357239
 49
545.9811031702098
140
950.177562357239
141
842.9811031702101
142
1.0
143
1.458575536647462
 70
  3764
 72
     1
 73
     1
 74
     4
  7
monochrome.ctb
 75
     0
147
0.6856004196385337
148
-530.177562357239
149
-545.9811031702098
100
AcDbLayout
  1
Model
 70
     1
 71
     0
 10
0.0
 20
0.0
 11
12.0
 21
9.0
 12
0.0
 22
0.0
 32
0.0
 14
0.0
 24
0.0
 34
0.0
 15
0.0
 25
0.0
 35
0.0
146
0.0
 13
0.0
 23
0.0
 33
0.0
 16
1.0
 26
0.0
 36
0.0
 17
0.0
 27
1.0
 37
0.0
 76
     0
330
1F
331
2CFC1
1001
ACAD_PSEXT
1000
Adobe PDF
1000
Adobe PDF Converter
1000
My Documents\*.pdf
1000

1070
     0
  0
LAYOUT
  5
1E
102
{ACAD_XDICTIONARY
360
1B6CD
102
}
102
{ACAD_REACTORS
330
1A
102
}
330
1A
100
AcDbPlotSettings
  1

  2
\\ML370\XEROX
  4
A4
  6

 40
3.174999952316281
 41
3.174999952316281
 42
3.175003051757812
 43
3.17498779296875
 44
209.8674926757813
 45
296.6719970703125
 46
0.0
 47
0.0
 48
0.0
 49
0.0
140
0.0
141
0.0
142
1.0
143
1.0
 70
   688
 72
     1
 73
     1
 74
     5
  7
monochrome.ctb
 75
    16
147
1.0
148
0.0
149
0.0
100
AcDbLayout
  1
ﾚｲｱｳﾄ1
 70
     1
 71
     1
 10
-3.17498779296875
 20
-3.174999952316281
 11
293.4970092773438
 21
206.692492723465
 12
0.0
 22
0.0
 32
0.0
 14
1.000000000000000E+20
 24
1.000000000000000E+20
 34
1.000000000000000E+20
 15
-1.000000000000000E+20
 25
-1.000000000000000E+20
 35
-1.000000000000000E+20
146
0.0
 13
0.0
 23
0.0
 33
0.0
 16
1.0
 26
0.0
 36
0.0
 17
0.0
 27
1.0
 37
0.0
 76
     0
330
1B
331
1B6C8
  0
LAYOUT
  5
26
102
{ACAD_XDICTIONARY
360
2EC1D
102
}
102
{ACAD_REACTORS
330
1A
102
}
330
1A
100
AcDbPlotSettings
  1

  2
\\ML370\XEROX
  4

  6

 40
0.0
 41
0.0
 42
0.0
 43
0.0
 44
0.0
 45
0.0
 46
0.0
 47
0.0
 48
0.0
 49
0.0
140
0.0
141
0.0
142
1.0
143
1.0
 70
   688
 72
     0
 73
     0
 74
     5
  7
monochrome.ctb
 75
    16
147
1.0
148
0.0
149
0.0
100
AcDbLayout
  1
ﾚｲｱｳﾄ2
 70
     1
 71
     2
 10
0.0
 20
0.0
 11
12.0
 21
9.0
 12
0.0
 22
0.0
 32
0.0
 14
0.0
 24
0.0
 34
0.0
 15
0.0
 25
0.0
 35
0.0
146
0.0
 13
0.0
 23
0.0
 33
0.0
 16
1.0
 26
0.0
 36
0.0
 17
0.0
 27
1.0
 37
0.0
 76
     0
330
23
  0
MATERIAL
  5
2CFE6
102
{ACAD_XDICTIONARY
360
2EC39
102
}
102
{ACAD_REACTORS
330
A91C
102
}
330
A91C
100
AcDbMaterial
  1
ByBlock
  0
MATERIAL
  5
2CFE5
102
{ACAD_XDICTIONARY
360
2EC37
102
}
102
{ACAD_REACTORS
330
A91C
102
}
330
A91C
100
AcDbMaterial
  1
ByLayer
  0
MATERIAL
  5
2CFE7
102
{ACAD_XDICTIONARY
360
2EC3B
102
}
102
{ACAD_REACTORS
330
A91C
102
}
330
A91C
100
AcDbMaterial
  1
Global
  0
MLINESTYLE
  5
18
102
{ACAD_REACTORS
330
17
102
}
330
17
100
AcDbMlineStyle
  2
STANDARD
 70
     0
  3

 62
   256
 51
90.0
 52
90.0
 71
     2
 49
0.5
 62
   256
  6
BYLAYER
 49
-0.5
 62
   256
  6
BYLAYER
  0
PLOTSETTINGS
  5
C99B
102
{ACAD_XDICTIONARY
360
2EC21
102
}
102
{ACAD_REACTORS
330
19
102
}
330
19
100
AcDbPlotSettings
  1
01   A1　１：１
  2
\\ML370\Fuji Xerox BT8050(AutoCAD)
  4
User122
  6

 40
3.174999952316281
 41
3.174999952316281
 42
3.17498779296875
 43
3.17498779296875
 44
593.7249755859375
 45
840.6129760742187
 46
145.19
 47
207.13
 48
214.3704939521119
 49
367.5855324241177
140
275.6727856380065
141
407.6291914078168
142
1.0
143
1.0
 70
  1716
 72
     1
 73
     1
 74
     2
  7
monochrome.ctb
 75
    16
147
1.0
148
-538.139750291099
149
411.0980235086544
  0
PLOTSETTINGS
  5
C99C
102
{ACAD_XDICTIONARY
360
2EC23
102
}
102
{ACAD_REACTORS
330
19
102
}
330
19
100
AcDbPlotSettings
  1
02   A2　１：１
  2
\\ML370\Fuji Xerox BT8050(AutoCAD)
  4
User123
  6

 40
3.174999952316281
 41
3.174999952316281
 42
3.17498779296875
 43
3.17498779296875
 44
420.0
 45
594.0
 46
58.33
 47
83.83
 48
214.3704939521119
 49
367.5855324241177
140
275.6727856380065
141
407.6291914078168
142
1.0
143
1.0
 70
  1716
 72
     1
 73
     1
 74
     2
  7
monochrome.ctb
 75
    16
147
1.0
148
-538.139750291099
149
411.0980235086544
  0
PLOTSETTINGS
  5
C99D
102
{ACAD_XDICTIONARY
360
2EC25
102
}
102
{ACAD_REACTORS
330
19
102
}
330
19
100
AcDbPlotSettings
  1
03   A3　１：１
  2
\\ML370\Fuji Xerox BT8050(AutoCAD)
  4
User124
  6

 40
3.174999952316281
 41
3.174999952316281
 42
3.17498779296875
 43
3.17498779296875
 44
297.0
 45
420.0
 46
-3.169999999999998
 47
-3.169999999999998
 48
214.3704939521119
 49
367.5855324241177
140
275.6727856380065
141
407.6291914078168
142
1.0
143
1.0
 70
  1716
 72
     1
 73
     1
 74
     2
  7
monochrome.ctb
 75
    16
147
1.0
148
-538.139750291099
149
411.0980235086544
  0
PLOTSETTINGS
  5
C99E
102
{ACAD_XDICTIONARY
360
2EC27
102
}
102
{ACAD_REACTORS
330
19
102
}
330
19
100
AcDbPlotSettings
  1
04   A4  １：１
  2
\\ML370\Fuji Xerox BT8050(AutoCAD)
  4
User125
  6

 40
3.174999952316281
 41
3.174999952316281
 42
3.175003051757812
 43
3.17498779296875
 44
210.0
 45
297.0
 46
-46.68
 47
-64.67
 48
214.3704939521119
 49
367.5855324241177
140
275.6727856380065
141
407.6291914078168
142
1.0
143
1.0
 70
  1716
 72
     1
 73
     1
 74
     2
  7
monochrome.ctb
 75
    16
147
1.0
148
-538.139750291099
149
411.0980235086544
  0
PLOTSETTINGS
  5
C99F
102
{ACAD_XDICTIONARY
360
2EC29
102
}
102
{ACAD_REACTORS
330
19
102
}
330
19
100
AcDbPlotSettings
  1
05   A1 自動調整
  2
\\ML370\Fuji Xerox BT8050(AutoCAD)
  4
User122
  6

 40
3.174999952316281
 41
3.174999952316281
 42
3.17498779296875
 43
3.17498779296875
 44
593.7249755859375
 45
840.6129760742187
 46
0.0
 47
1.77
 48
214.3704939521119
 49
367.5855324241177
140
275.6727856380065
141
407.6291914078168
142
1.0
143
0.7150457692181145
 70
  1716
 72
     1
 73
     1
 74
     2
  7
monochrome.ctb
 75
     0
147
1.398511875811077
148
-408.2719444961221
149
-428.6675171947153
  0
PLOTSETTINGS
  5
C9A0
102
{ACAD_XDICTIONARY
360
2EC2B
102
}
102
{ACAD_REACTORS
330
19
102
}
330
19
100
AcDbPlotSettings
  1
06   A2 自動調整
  2
\\ML370\Fuji Xerox BT8050(AutoCAD)
  4
User123
  6

 40
3.174999952316281
 41
3.174999952316281
 42
3.17498779296875
 43
3.17498779296875
 44
420.0
 45
594.0
 46
0.0
 47
1.32
 48
214.3704939521119
 49
367.5855324241177
140
275.6727856380065
141
407.6291914078168
142
1.0
143
1.015351112189439
 70
  1716
 72
     1
 73
     1
 74
     2
  7
monochrome.ctb
 75
     0
147
0.9848809815588451
148
-408.2719444961221
149
-428.6675171947153
  0
PLOTSETTINGS
  5
C9A1
102
{ACAD_XDICTIONARY
360
2EC2D
102
}
102
{ACAD_REACTORS
330
19
102
}
330
19
100
AcDbPlotSettings
  1
07   A3 自動調整
  2
\\ML370\Fuji Xerox BT8050(AutoCAD)
  4
User124
  6

 40
3.174999952316281
 41
3.174999952316281
 42
3.17498779296875
 43
3.17498779296875
 44
297.0
 45
420.0
 46
0.0
 47
1.29
 48
214.3704939521119
 49
367.5855324241177
140
275.6727856380065
141
407.6291914078168
142
1.0
143
1.445036925138428
 70
  1716
 72
     1
 73
     1
 74
     2
  7
monochrome.ctb
 75
     0
147
0.6920238387017023
148
-408.2719444961221
149
-428.6675171947153
  0
PLOTSETTINGS
  5
C9A2
102
{ACAD_XDICTIONARY
360
2EC2F
102
}
102
{ACAD_REACTORS
330
19
102
}
330
19
100
AcDbPlotSettings
  1
08   A4 自動調整
  2
\\ML370\Fuji Xerox BT8050(AutoCAD)
  4
User125
  6

 40
3.174999952316281
 41
3.174999952316281
 42
3.175003051757812
 43
3.17498779296875
 44
210.0
 45
297.0
 46
0.0
 47
1.32
 48
214.3704939521119
 49
367.5855324241177
140
275.6727856380065
141
407.6291914078168
142
1.0
143
2.062361925831023
 70
  1716
 72
     1
 73
     1
 74
     2
  7
monochrome.ctb
 75
     0
147
0.484880945228395
148
-408.2719444961221
149
-428.6675171947153
  0
PLOTSETTINGS
  5
C9A3
102
{ACAD_XDICTIONARY
360
2EC31
102
}
102
{ACAD_REACTORS
330
19
102
}
330
19
100
AcDbPlotSettings
  1
09   A1をA3に
  2
\\ML370\Fuji Xerox BT8050(AutoCAD)
  4
User124
  6

 40
3.174999952316281
 41
3.174999952316281
 42
3.17498779296875
 43
3.17498779296875
 44
297.0
 45
420.0
 46
-3.169999999999998
 47
-3.419999999999998
 48
214.3704939521119
 49
367.5855324241177
140
275.6727856380065
141
407.6291914078168
142
1.0
143
20.0
 70
  1716
 72
     1
 73
     1
 74
     2
  7
monochrome.ctb
 75
    22
147
0.05
148
-66.24202774817149
149
-81.38953477958603
  0
PLOTSETTINGS
  5
C9A4
102
{ACAD_XDICTIONARY
360
2EC33
102
}
102
{ACAD_REACTORS
330
19
102
}
330
19
100
AcDbPlotSettings
  1
10   A2をA3に
  2
\\ML370\Fuji Xerox BT8050(AutoCAD)
  4
User124
  6

 40
3.174999952316281
 41
3.174999952316281
 42
3.17498779296875
 43
3.17498779296875
 44
297.0
 45
420.0
 46
-3.189999999999998
 47
-3.22
 48
214.3704939521119
 49
367.5855324241177
140
275.6727856380065
141
407.6291914078168
142
1.0
143
1.414
 70
  1700
 72
     1
 73
     1
 74
     2
  7
monochrome.ctb
 75
     0
147
0.7072135785007072
148
-408.2719444961221
149
-428.6675171947153
  0
ACDBPLACEHOLDER
  5
F
102
{ACAD_REACTORS
330
E
102
}
330
E
  0
TABLESTYLE
  5
AABA
102
{ACAD_XDICTIONARY
360
2EC1F
102
}
102
{ACAD_REACTORS
330
AAB9
102
}
330
AAB9
100
AcDbTableStyle
  3
Standard
 70
     0
 71
     0
 40
1.5
 41
1.5
280
     0
281
     0
  7
STANDARD
140
4.5
170
     2
 62
     0
 63
     7
283
     0
274
    -2
284
     1
 64
     0
275
    -2
285
     1
 65
     0
276
    -2
286
     1
 66
     0
277
    -2
287
     1
 67
     0
278
    -2
288
     1
 68
     0
279
    -2
289
     1
 69
     0
  7
STANDARD
140
6.0
170
     5
 62
     0
 63
     7
283
     0
274
    -2
284
     1
 64
     0
275
    -2
285
     1
 65
     0
276
    -2
286
     1
 66
     0
277
    -2
287
     1
 67
     0
278
    -2
288
     1
 68
     0
279
    -2
289
     1
 69
     0
  7
STANDARD
140
4.5
170
     5
 62
     0
 63
     7
283
     0
274
    -2
284
     1
 64
     0
275
    -2
285
     1
 65
     0
276
    -2
286
     1
 66
     0
277
    -2
287
     1
 67
     0
278
    -2
288
     1
 68
     0
279
    -2
289
     1
 69
     0
  0
VISUALSTYLE
  5
2CFEE
102
{ACAD_REACTORS
330
2CFE8
102
}
330
2CFE8
100
AcDbVisualStyle
  2
2dWireframe
 70
     4
 71
     0
 72
     2
 73
     0
 90
        0
 40
-0.6
 41
-30.0
 62
     5
 63
     7
 74
     1
 91
        4
 64
     7
 65
   257
 75
     1
175
     1
 42
1.0
 92
        0
 66
   257
 43
1.0
 76
     1
 77
     6
 78
     2
 67
     7
 79
     5
170
     0
171
     0
290
     0
174
     0
 93
        1
 44
0.0
173
     0
291
     0
 45
0.0
1001
ACAD
1000
AcDbSavedByObjectVersion
1070
     0
  0
VISUALSTYLE
  5
2CFF0
102
{ACAD_REACTORS
330
2CFE8
102
}
330
2CFE8
100
AcDbVisualStyle
  2
3D Hidden
 70
     6
 71
     1
 72
     2
 73
     2
 90
        0
 40
-0.6
 41
-30.0
 62
     5
 63
     7
 74
     2
 91
        2
 64
     7
 65
   257
 75
     2
175
     1
 42
40.0
 92
        0
 66
   257
 43
1.0
 76
     1
 77
     6
 78
     2
 67
     7
 79
     3
170
     0
171
     0
290
     0
174
     0
 93
        1
 44
0.0
173
     0
291
     0
 45
0.0
1001
ACAD
1000
AcDbSavedByObjectVersion
1070
     0
  0
VISUALSTYLE
  5
2CFEF
102
{ACAD_REACTORS
330
2CFE8
102
}
330
2CFE8
100
AcDbVisualStyle
  2
3dWireframe
 70
     5
 71
     0
 72
     2
 73
     0
 90
        0
 40
-0.6
 41
-30.0
 62
     5
 63
     7
 74
     1
 91
        4
 64
     7
 65
   257
 75
     1
175
     1
 42
1.0
 92
        0
 66
   257
 43
1.0
 76
     1
 77
     6
 78
     2
 67
     7
 79
     5
170
     0
171
     0
290
     0
174
     0
 93
        1
 44
0.0
173
     0
291
     0
 45
0.0
1001
ACAD
1000
AcDbSavedByObjectVersion
1070
     0
  0
VISUALSTYLE
  5
2CFED
102
{ACAD_REACTORS
330
2CFE8
102
}
330
2CFE8
100
AcDbVisualStyle
  2
Basic
 70
     7
 71
     1
 72
     0
 73
     1
 90
        0
 40
-0.6
 41
-30.0
 62
     5
 63
     7
 74
     0
 91
        4
 64
     7
 65
   257
 75
     1
175
     1
 42
1.0
 92
        8
 66
     7
 43
1.0
 76
     1
 77
     6
 78
     2
 67
     7
 79
     5
170
     0
171
     0
290
     0
174
     0
 93
        1
 44
0.0
173
     0
291
     1
 45
0.0
1001
ACAD
1000
AcDbSavedByObjectVersion
1070
     0
  0
VISUALSTYLE
  5
2CFF4
102
{ACAD_REACTORS
330
2CFE8
102
}
330
2CFE8
100
AcDbVisualStyle
  2
Brighten
 70
    12
 71
     2
 72
     2
 73
     0
 90
        0
 40
-0.6
 41
-30.0
 62
     5
 63
     7
 74
     1
 91
        4
 64
     7
 65
   257
 75
     1
175
     1
 42
1.0
 92
        8
 66
     7
 43
1.0
 76
     1
 77
     6
 78
     2
 67
     7
 79
     5
170
     0
171
     0
290
     0
174
     0
 93
        1
 44
50.0
173
     0
291
     1
 45
0.0
1001
ACAD
1000
AcDbSavedByObjectVersion
1070
     0
  0
VISUALSTYLE
  5
2CFF8
102
{ACAD_REACTORS
330
2CFE8
102
}
330
2CFE8
100
AcDbVisualStyle
  2
ColorChange
 70
    16
 71
     2
 72
     2
 73
     3
 90
        0
 40
-0.6
 41
-30.0
 62
     5
 63
     8
 74
     1
 91
        4
 64
     7
 65
   257
 75
     1
175
     1
 42
1.0
 92
        8
 66
     8
 43
1.0
 76
     1
 77
     6
 78
     2
 67
     7
 79
     5
170
     0
171
     0
290
     0
174
     0
 93
        1
 44
0.0
173
     0
291
     1
 45
0.0
1001
ACAD
1000
AcDbSavedByObjectVersion
1070
     0
  0
VISUALSTYLE
  5
2CFF1
102
{ACAD_REACTORS
330
2CFE8
102
}
330
2CFE8
100
AcDbVisualStyle
  2
Conceptual
 70
     9
 71
     3
 72
     2
 73
     0
 90
        0
 40
-0.6
 41
-30.0
 62
     5
 63
     7
 74
     2
 91
        2
 64
     7
 65
   257
 75
     1
175
     1
 42
40.0
 92
        8
 66
     7
 43
1.0
 76
     1
 77
     6
 78
     2
 67
     7
 79
     3
170
     0
171
     0
290
     0
174
     0
 93
        1
 44
0.0
173
     0
291
     0
 45
0.0
1001
ACAD
1000
AcDbSavedByObjectVersion
1070
     0
  0
VISUALSTYLE
  5
2CFF3
102
{ACAD_REACTORS
330
2CFE8
102
}
330
2CFE8
100
AcDbVisualStyle
  2
Dim
 70
    11
 71
     2
 72
     2
 73
     0
 90
        0
 40
-0.6
 41
-30.0
 62
     5
 63
     7
 74
     1
 91
        4
 64
     7
 65
   257
 75
     1
175
     1
 42
1.0
 92
        8
 66
     7
 43
1.0
 76
     1
 77
     6
 78
     2
 67
     7
 79
     5
170
     0
171
     0
290
     0
174
     0
 93
        1
 44
-50.0
173
     0
291
     1
 45
0.0
1001
ACAD
1000
AcDbSavedByObjectVersion
1070
     0
  0
VISUALSTYLE
  5
2CFF7
102
{ACAD_REACTORS
330
2CFE8
102
}
330
2CFE8
100
AcDbVisualStyle
  2
Facepattern
 70
    15
 71
     2
 72
     2
 73
     0
 90
        0
 40
-0.6
 41
-30.0
 62
     5
 63
     7
 74
     1
 91
        4
 64
     7
 65
   257
 75
     1
175
     1
 42
1.0
 92
        8
 66
     7
 43
1.0
 76
     1
 77
     6
 78
     2
 67
     7
 79
     5
170
     0
171
     0
290
     0
174
     0
 93
        1
 44
0.0
173
     0
291
     1
 45
0.0
1001
ACAD
1000
AcDbSavedByObjectVersion
1070
     0
  0
VISUALSTYLE
  5
2CFE9
102
{ACAD_REACTORS
330
2CFE8
102
}
330
2CFE8
100
AcDbVisualStyle
  2
Flat
 70
     0
 71
     2
 72
     1
 73
     1
 90
        2
 40
-0.6
 41
30.0
 62
     5
 63
     7
 74
     0
 91
        4
 64
     7
 65
   257
 75
     1
175
     1
 42
1.0
 92
        8
 66
     7
 43
1.0
 76
     1
 77
     6
 78
     2
 67
     7
 79
     5
170
     0
171
     0
290
     0
174
     0
 93
       13
 44
0.0
173
     0
291
     1
 45
0.0
1001
ACAD
1000
AcDbSavedByObjectVersion
1070
     0
  0
VISUALSTYLE
  5
2CFEA
102
{ACAD_REACTORS
330
2CFE8
102
}
330
2CFE8
100
AcDbVisualStyle
  2
FlatWithEdges
 70
     1
 71
     2
 72
     1
 73
     1
 90
        2
 40
-0.6
 41
30.0
 62
     5
 63
     7
 74
     1
 91
        4
 64
     7
 65
   257
 75
     1
175
     1
 42
1.0
 92
        0
 66
   257
 43
1.0
 76
     1
 77
     6
 78
     2
 67
     7
 79
     5
170
     0
171
     0
290
     0
174
     0
 93
       13
 44
0.0
173
     0
291
     1
 45
0.0
1001
ACAD
1000
AcDbSavedByObjectVersion
1070
     0
  0
VISUALSTYLE
  5
2CFEB
102
{ACAD_REACTORS
330
2CFE8
102
}
330
2CFE8
100
AcDbVisualStyle
  2
Gouraud
 70
     2
 71
     2
 72
     2
 73
     1
 90
        2
 40
-0.6
 41
30.0
 62
     5
 63
     7
 74
     0
 91
        4
 64
     7
 65
   257
 75
     1
175
     1
 42
1.0
 92
        0
 66
     7
 43
1.0
 76
     1
 77
     6
 78
     2
 67
     7
 79
     5
170
     0
171
     0
290
     0
174
     0
 93
       13
 44
0.0
173
     0
291
     1
 45
0.0
1001
ACAD
1000
AcDbSavedByObjectVersion
1070
     0
  0
VISUALSTYLE
  5
2CFEC
102
{ACAD_REACTORS
330
2CFE8
102
}
330
2CFE8
100
AcDbVisualStyle
  2
GouraudWithEdges
 70
     3
 71
     2
 72
     2
 73
     1
 90
        2
 40
-0.6
 41
30.0
 62
     5
 63
     7
 74
     1
 91
        4
 64
     7
 65
   257
 75
     1
175
     1
 42
1.0
 92
        0
 66
   257
 43
1.0
 76
     1
 77
     6
 78
     2
 67
     7
 79
     5
170
     0
171
     0
290
     0
174
     0
 93
       13
 44
0.0
173
     0
291
     1
 45
0.0
1001
ACAD
1000
AcDbSavedByObjectVersion
1070
     0
  0
VISUALSTYLE
  5
2CFF6
102
{ACAD_REACTORS
330
2CFE8
102
}
330
2CFE8
100
AcDbVisualStyle
  2
Linepattern
 70
    14
 71
     2
 72
     2
 73
     0
 90
        0
 40
-0.6
 41
-30.0
 62
     5
 63
     7
 74
     1
 91
        4
 64
     7
 65
   257
 75
     7
175
     7
 42
1.0
 92
        8
 66
     7
 43
1.0
 76
     1
 77
     6
 78
     2
 67
     7
 79
     5
170
     0
171
     0
290
     0
174
     0
 93
        1
 44
0.0
173
     0
291
     1
 45
0.0
1001
ACAD
1000
AcDbSavedByObjectVersion
1070
     0
  0
VISUALSTYLE
  5
2CFF2
102
{ACAD_REACTORS
330
2CFE8
102
}
330
2CFE8
100
AcDbVisualStyle
  2
Realistic
 70
     8
 71
     2
 72
     2
 73
     0
 90
        0
 40
-0.6
 41
-30.0
 62
     5
 63
     7
 74
     1
 91
        0
 64
     7
 65
   257
 75
     1
175
     1
 42
1.0
 92
        8
 66
     8
 43
1.0
 76
     1
 77
     6
 78
     2
 67
     7
 79
     5
170
     0
171
     0
290
     0
174
     0
 93
       13
 44
0.0
173
     0
291
     0
 45
0.0
1001
ACAD
1000
AcDbSavedByObjectVersion
1070
     0
  0
VISUALSTYLE
  5
2CFF5
102
{ACAD_REACTORS
330
2CFE8
102
}
330
2CFE8
100
AcDbVisualStyle
  2
Thicken
 70
    13
 71
     2
 72
     2
 73
     0
 90
        0
 40
-0.6
 41
-30.0
 62
     5
 63
     7
 74
     1
 91
        4
 64
     7
 65
   257
 75
     1
175
     1
 42
1.0
 92
       12
 66
     7
 43
1.0
 76
     1
 77
     6
 78
     2
 67
     7
 79
     5
170
     0
171
     0
290
     0
174
     0
 93
        1
 44
0.0
173
     0
291
     1
 45
0.0
1001
ACAD
1000
AcDbSavedByObjectVersion
1070
     0
  0
DICTIONARYVAR
  5
AAF3
102
{ACAD_REACTORS
330
34
102
}
330
34
100
DictionaryVariables
280
     0
  1
STANDARD
  0
DICTIONARYVAR
  5
A10C
102
{ACAD_REACTORS
330
34
102
}
330
34
100
DictionaryVariables
280
     0
  1
2
  0
DICTIONARYVAR
  5
AB07
102
{ACAD_REACTORS
330
34
102
}
330
34
100
DictionaryVariables
280
     0
  1
4
  0
DICTIONARYVAR
  5
35
102
{ACAD_REACTORS
330
34
102
}
330
34
100
DictionaryVariables
280
     0
  1
0
  0
DICTIONARYVAR
  5
2CDAD
102
{ACAD_REACTORS
330
34
102
}
330
34
100
DictionaryVariables
280
     0
  1

  0
DICTIONARYVAR
  5
194C
102
{ACAD_REACTORS
330
34
102
}
330
34
100
DictionaryVariables
280
     0
  1
127
  0
DICTIONARY
  5
7E8
102
{ACAD_REACTORS
330
47
102
}
330
47
100
AcDbDictionary
281
     1
  0
DICTIONARY
  5
4C
102
{ACAD_REACTORS
330
47
102
}
330
47
100
AcDbDictionary
281
     1
  0
XRECORD
  5
A929
102
{ACAD_REACTORS
330
47
102
}
330
47
100
AcDbXrecord
280
     1
 90
-1023410169
  0
XRECORD
  5
2C9F6
102
{ACAD_REACTORS
330
2C9F5
102
}
330
2C9F5
100
AcDbXrecord
280
     1
330
0
330
0
330
0
330
0
330
0
330
0
330
0
330
0
330
0
330
0
330
0
330
0
330
0
330
0
330
0
330
0
330
0
330
0
330
0
330
0
330
0
330
0
330
0
330
0
330
0
330
0
330
0
330
0
330
0
330
0
330
0
330
0
330
0
330
0
330
0
330
0
330
0
330
0
330
0
330
0
330
0
330
0
330
0
330
0
330
0
330
0
330
0
330
0
330
0
330
0
330
0
330
0
330
0
330
0
330
0
330
0
330
0
330
0
330
0
330
0
330
0
330
0
330
0
330
0
330
0
330
0
330
0
330
0
330
0
330
0
330
0
330
0
330
0
330
0
330
0
330
0
330
0
330
0
330
0
330
0
330
0
330
0
330
0
330
0
330
0
330
0
330
0
330
0
330
0
330
0
330
0
330
0
330
0
330
0
330
0
330
0
330
0
330
0
330
0
330
0
330
0
330
0
330
0
330
0
330
0
330
0
330
0
330
0
330
0
330
0
330
0
330
0
330
0
330
0
330
0
330
0
330
0
330
0
330
0
330
0
330
0
330
0
330
0
330
0
330
0
330
0
330
0
330
0
330
0
330
0
330
0
330
0
330
0
330
0
330
0
330
0
330
0
330
0
330
0
330
0
330
0
330
0
330
0
330
0
330
0
330
0
330
0
330
0
330
0
330
0
330
0
330
0
330
0
330
0
330
0
330
0
330
0
330
0
330
0
330
0
330
0
330
0
330
0
330
0
330
0
330
0
330
0
330
0
330
0
330
0
330
0
330
0
330
0
330
0
330
0
330
0
330
0
330
0
330
0
330
0
330
0
330
0
330
0
330
0
330
0
330
0
330
0
330
0
330
0
330
0
330
0
330
0
330
0
330
0
330
0
330
0
330
0
330
0
330
0
330
0
330
0
330
0
330
0
330
0
330
0
330
0
330
0
330
0
330
0
330
0
330
0
330
0
330
0
330
0
330
0
330
0
330
0
330
0
330
0
330
0
330
0
330
0
330
0
330
0
330
0
330
0
330
0
330
0
330
0
330
0
330
0
330
0
330
0
330
0
330
0
330
0
330
0
330
0
330
0
330
0
330
0
330
0
330
0
330
0
330
0
330
0
330
0
330
0
330
0
330
0
330
0
330
0
330
0
330
0
330
0
330
0
330
0
330
0
330
0
330
0
330
0
330
0
330
0
330
0
330
0
330
0
330
0
330
0
330
0
330
0
330
0
330
0
330
0
330
0
330
0
330
0
  0
XRECORD
  5
3FB7
102
{ACAD_REACTORS
330
3F96
102
}
330
3F96
100
AcDbXrecord
280
     1
 91
        3
330
0
 90
        8
 62
     7
370
    40
331
16
  1
Color_7
330
0
 90
        0
 62
    14
370
    -3
331
16
  1
Color_14
330
0
 90
        8
 62
     7
370
    20
331
16
  1
Color_7
330
6D1
 90
        0
 62
     7
370
    -3
331
16
  1
Color_7
330
0
 90
        8
 62
     7
370
    50
331
16
  1
Color_7
330
0
 90
        8
 62
     2
370
    35
331
16
  1
Color_2
330
0
 90
        8
 62
     7
370
    -3
331
16
  1
Color_7
330
10
 90
        8
 62
     7
370
    -3
331
16
  1
Color_7
  0
XRECORD
  5
1FEBE
102
{ACAD_REACTORS
330
AAB4
102
}
330
AAB4
100
AcDbXrecord
280
     1
 90
-1073741824
  0
XRECORD
  5
E2E8
102
{ACAD_REACTORS
330
AAB4
102
}
330
AAB4
100
AcDbXrecord
280
     1
 90
-1073741824
  0
XRECORD
  5
1B4AC
102
{ACAD_REACTORS
330
AAB4
102
}
330
AAB4
100
AcDbXrecord
280
     1
 90
-1073741824
  0
XRECORD
  5
28769
102
{ACAD_REACTORS
330
AAB4
102
}
330
AAB4
100
AcDbXrecord
280
     1
 90
-1073741824
  0
XRECORD
  5
28D60
102
{ACAD_REACTORS
330
AAB4
102
}
330
AAB4
100
AcDbXrecord
280
     1
 90
-1073741824
  0
XRECORD
  5
1B425
102
{ACAD_REACTORS
330
AAB4
102
}
330
AAB4
100
AcDbXrecord
280
     1
 90
-1073741824
  0
XRECORD
  5
2112F
102
{ACAD_REACTORS
330
AAB4
102
}
330
AAB4
100
AcDbXrecord
280
     1
 90
-1073741824
  0
DICTIONARY
  5
2EC1B
330
22
100
AcDbDictionary
280
     1
281
     1
  3
ACAD_XREC_ROUNDTRIP
360
2EC1C
  0
DICTIONARY
  5
1B6CD
330
1E
100
AcDbDictionary
280
     1
281
     1
  3
ACAD_XREC_ROUNDTRIP
360
2EC1A
  3
ADSK_XREC_LAYOUTTHUMBNAIL
360
1B6CE
  0
DICTIONARY
  5
2EC1D
330
26
100
AcDbDictionary
280
     1
281
     1
  3
ACAD_XREC_ROUNDTRIP
360
2EC1E
  0
DICTIONARY
  5
2EC39
330
2CFE6
100
AcDbDictionary
280
     1
281
     1
  3
ACAD_XREC_ROUNDTRIP
360
2EC3A
  0
DICTIONARY
  5
2EC37
330
2CFE5
100
AcDbDictionary
280
     1
281
     1
  3
ACAD_XREC_ROUNDTRIP
360
2EC38
  0
DICTIONARY
  5
2EC3B
330
2CFE7
100
AcDbDictionary
280
     1
281
     1
  3
ACAD_XREC_ROUNDTRIP
360
2EC3C
  0
DICTIONARY
  5
2EC21
330
C99B
100
AcDbDictionary
280
     1
281
     1
  3
ACAD_XREC_ROUNDTRIP
360
2EC22
  0
DICTIONARY
  5
2EC23
330
C99C
100
AcDbDictionary
280
     1
281
     1
  3
ACAD_XREC_ROUNDTRIP
360
2EC24
  0
DICTIONARY
  5
2EC25
330
C99D
100
AcDbDictionary
280
     1
281
     1
  3
ACAD_XREC_ROUNDTRIP
360
2EC26
  0
DICTIONARY
  5
2EC27
330
C99E
100
AcDbDictionary
280
     1
281
     1
  3
ACAD_XREC_ROUNDTRIP
360
2EC28
  0
DICTIONARY
  5
2EC29
330
C99F
100
AcDbDictionary
280
     1
281
     1
  3
ACAD_XREC_ROUNDTRIP
360
2EC2A
  0
DICTIONARY
  5
2EC2B
330
C9A0
100
AcDbDictionary
280
     1
281
     1
  3
ACAD_XREC_ROUNDTRIP
360
2EC2C
  0
DICTIONARY
  5
2EC2D
330
C9A1
100
AcDbDictionary
280
     1
281
     1
  3
ACAD_XREC_ROUNDTRIP
360
2EC2E
  0
DICTIONARY
  5
2EC2F
330
C9A2
100
AcDbDictionary
280
     1
281
     1
  3
ACAD_XREC_ROUNDTRIP
360
2EC30
  0
DICTIONARY
  5
2EC31
330
C9A3
100
AcDbDictionary
280
     1
281
     1
  3
ACAD_XREC_ROUNDTRIP
360
2EC32
  0
DICTIONARY
  5
2EC33
330
C9A4
100
AcDbDictionary
280
     1
281
     1
  3
ACAD_XREC_ROUNDTRIP
360
2EC34
  0
DICTIONARY
  5
2EC1F
330
AABA
100
AcDbDictionary
280
     1
281
     1
  3
ACAD_XREC_ROUNDTRIP
360
2EC20
  0
XRECORD
  5
2EC1C
102
{ACAD_REACTORS
330
2EC1B
102
}
330
2EC1B
100
AcDbXrecord
280
     1
102
SHADEPLOT
 70
     0
102
SHADEPLOTRESLEVEL
 70
     2
102
SHADEPLOTCUSTOMDPI
 70
   200
  0
XRECORD
  5
2EC1A
102
{ACAD_REACTORS
330
1B6CD
102
}
330
1B6CD
100
AcDbXrecord
280
     1
102
SHADEPLOT
 70
     0
102
SHADEPLOTRESLEVEL
 70
     2
102
SHADEPLOTCUSTOMDPI
 70
   300
  0
XRECORD
  5
1B6CE
102
{ACAD_REACTORS
330
1B6CD
102
}
330
1B6CD
100
AcDbXrecord
280
     1
310
28000000B40000007F00000001000800000000004C59000000000000000000000001000000000000FFFFFF0000000000FFFFFF000000000000000000000000000000000000000000000000000000000000000000330000006600000099000000CC000000FF00000000330000333300006633000099330000CC330000FF3300
310
0000660000336600006666000099660000CC660000FF66000000990000339900006699000099990000CC990000FF99000000CC000033CC000066CC000099CC0000CCCC0000FFCC000000FF000033FF000066FF000099FF0000CCFF0000FFFF000000003300330033006600330099003300CC003300FF003300003333003333
310
33006633330099333300CC333300FF33330000663300336633006666330099663300CC663300FF66330000993300339933006699330099993300CC993300FF99330000CC330033CC330066CC330099CC3300CCCC3300FFCC330000FF330033FF330066FF330099FF3300CCFF3300FFFF330000006600330066006600660099
310
006600CC006600FF00660000336600333366006633660099336600CC336600FF33660000666600336666006666660099666600CC666600FF66660000996600339966006699660099996600CC996600FF99660000CC660033CC660066CC660099CC6600CCCC6600FFCC660000FF660033FF660066FF660099FF6600CCFF6600
310
FFFF660000009900330099006600990099009900CC009900FF00990000339900333399006633990099339900CC339900FF33990000669900336699006666990099669900CC669900FF66990000999900339999006699990099999900CC999900FF99990000CC990033CC990066CC990099CC9900CCCC9900FFCC990000FF99
310
0033FF990066FF990099FF9900CCFF9900FFFF99000000CC003300CC006600CC009900CC00CC00CC00FF00CC000033CC003333CC006633CC009933CC00CC33CC00FF33CC000066CC003366CC006666CC009966CC00CC66CC00FF66CC000099CC003399CC006699CC009999CC00CC99CC00FF99CC0000CCCC0033CCCC0066CC
310
CC0099CCCC00CCCCCC00FFCCCC0000FFCC0033FFCC0066FFCC0099FFCC00CCFFCC00FFFFCC000000FF003300FF006600FF009900FF00CC00FF00FF00FF000033FF003333FF006633FF009933FF00CC33FF00FF33FF000066FF003366FF006666FF009966FF00CC66FF00FF66FF000099FF003399FF006699FF009999FF00CC
310
99FF00FF99FF0000CCFF0033CCFF0066CCFF0099CCFF00CCCCFF00FFCCFF0000FFFF0033FFFF0066FFFF0099FFFF00CCFFFF00FFFFFF00000000000D0D0D001A1A1A00282828003535350043434300505050005D5D5D006B6B6B00787878008686860093939300A1A1A100AEAEAE00BBBBBB00C9C9C900D6D6D600E4E4E400
310
F1F1F100FFFFFF0000000000000000000000000000000000000000000000000000000000000000000000000000000000EFE2E2E2E2E2E2E2E2E2E2E2E2E2E2E2E2E2E2E2E2E2E2E2E2E2E2E2E2E2E2E2E2E2E2E2E2E2E2E2E2E2E2E2E2E2E2E2E2E2E2E2E2E2E2E2E2E2E2E2E2E2E2E2E2E2E2E2E2E2E2E2E2E2E2E2E2E2E2
310
E2E2E2E2E2E2E2E2E2E2E2E2E2E2E2E2E2E2E2E2E2E2E2E2E2E2E2E2E2E2E2E2E2E2E2E2E2E2E2E2E2E2E2E2E2E2E2E2E2E2E2E2E2E2E2E2E2E2E2E2E2E2E2E2E2E2E2E2E2E2E2E2E2E2E2E2E2E2E2E2E2E2E2E2E2E2E2E2E2E2E2E2E2E2E2E2E2E2E2E2E2EFE2F5F5F5F5F5F5F5F5F5F5F5F5F5F5F5F5F5F5F5F5F5F5F5F5
310
F5F5F5F5F5F5F5F5F5F5F5F5F5F5F5F5F5F5F5F5F5F5F5F5F5F5F5F5F5F5F5F5F5F5F5F5F5F5F5F5F5F5F5F5F5F5F5F5F5F5F5F5F5F5F5F5F5F5F5F5F5F5F5F5F5F5F5F5F5F5F5F5F5F5F5F5F5F5F5F5F5F5F5F5F5F5F5F5F5F5F5F5F5F5F5F5F5F5F5F5F5F5F5F5F5F5F5F5F5F5F5F5F5F5F5F5F5F5F5F5F5F5F5F5F5F5F5
310
F5F5F5F5F5F5F5F5F5F5F5F5F5F5F5F5F5F5F5F5F5F5F5F5F5E2E2EFE2F5E2E2E2E2E2E2E2E2F5F5F5F5F5F5F5F5F5E2E2E2E2E2E2E2E2E2E2E2E2E2E2E2E2F5F5F5F5F5F5F5F5F5E2E2E2E2E2E2E2E2E2E2E2E2E2E2E2E2F5F5F5F5F5F5F5F5F5E2E2E2E2E2E2E2E2E2E2E2E2E2E2E2E2F5F5F5F5F5F5F5F5E2E2E2E2E2E2
310
E2E2E2E2E2E2E2E2E2E2F5F5F5F5F5F5F5F5F5E2E2E2E2E2E2E2E2E2E2E2E2E2E2E2E2F5F5F5F5F5F5F5F5F5E2E2E2E2E2E2E2E2E2E2E2E2E2E2E2E2F5F5F5F5F5F5F5F5F5E2E2E2E2E2E2E2E2F5E2E2EFE2F5E2F5F5F5F5F5F5F5F5F5F5F5F5F5F5F5F5F5F5F5F5F5F5F5F5F5F5F5F5F5F5F5F5F5F5F5F5F5F5F5F5F5F5F5
310
F5F5F5F5F5F5F5F5F5F5F5F5F5F5F5F5F5F5F5F5F5F5F5F5F5F5F5F5F5F5F5F5F5F5F5F5F5F5F5F5F5F5F5F5F5F5F5F5F5F5F5F5F5F5F5F5F5F5F5F5F5F5F5F5F5F5F5F5F5F5F5F5F5F5F5F5F5F5F5F5F5F5F5F5F5F5F5F5F5F5F5F5F5F5F5F5F5F5F5F5F5F5F5F5F5F5F5F5F5F5F5F5F5F5F5F5F5F5F5F5F5F5F5F5F5F5F5
310
F5F5E2F5E2E2EFE2F5E2F5F5F5F5F5F5F5F5F5F5F5F5F5F5F5F5F5F5F5F5F5F5F5F5F5F5F5F5F5F5F5F5F5F5F5F5F5F5F5F5F5F5F5F5F5F5F5F5F5F5F5F5F5F5F5F5F5F5F5F5F5F5F5F5F5F5F5F5F5F5F5F5F5F5F5F5F5F5F5F5F5F5F5F5F5F5F5F5F5F5F5F5F5F5F5F5F5F5F5F5F5F5F5F5F5F5F5F5F5F5F5F5F5F5F5F5F5
310
F5F5F5F5F5F5F5F5F5F5F5F5F5F5F5F5F5F5F5F5F5F5F5F5F5F5F5F5F5F5F5F5F5F5F5F5F5F5F5F5F5F5F5F5F5F5F5F5F5F5F5F5F5F5F5E2F5E2E2EFE2F5E2F5F5F5F5F5F5F5F5F5F5F5F5F5F5F5F5F5F5F5F5F5F5F5F5F5F5F5F5F5F5F5F5F5F5F5F5F5F5F5F5F5F5F5F5F5F5F5F5F5F5F5F5F5F5F5F5F5F5F5F5F5F5F5F5
310
F5F5F5F5F5F5F5F5F5F5F5F5F5F5F5F5F5F5F5F5F5F5F5F5F5F5F5F5F5F5F5F5F5F5F5F5F5F5F5F5F5F5F5F5F5F5F5F5F5F5F5F5F5F5F5F5F5F5F5F5F5F5F5F5F5F5F5F5F5F5F5F5F5F5F5F5F5F5F5F5F5F5F5F5F5F5F5F5F5F5F5F5F5F5F5F5F5F5F5F5F5F5F5F5F5F5F5F5E2F5E2E2EFE2F5E2F5F5F5F5F5F5F5F5F5F5F5
310
F5F5F5F5F5F5F5F5F5F5F5F5F5F5F5F5F5F5F5F5F5F5F5F5F5F5F5F5F5F5F5F5F5F5F5F5F5F5F5F5F5F5F5F5F5F5F5F5F5F5F5F5F5F5F5F5F5F5F5F5F5F5F5F5F5F5F5F5F5F5F5F5F5F5F5F5F5F5F5F5F5F5F5F5F5F5F5F5F5F5F5F5F5F5F5F5F5F5F5F5F5F5F5F5F5F5F5F5F5F5F5F5F5F5F5F5F5F5F5F5F5F5F5F5F5F5F5
310
F5F5F5F5F5F5F5F5F5F5F5F5F5F5F5F5F5F5F5F5F5F5F5F5F5F5F5F5F5F5F5F5F5F5E2F5E2E2EFE2F5E2F5F5F5F5F5F5F5F5F5F5F5F5F5F5F5F5F5F5F5F5F5F5F5F5F5F5F5F5F5F5F5F5F5F5F5F5F5F5F5F5F5F5F5F5F5F5F5F5F5F5F5F5F5F5F5F5F5F5F5F5F5F5F5F5F5F5F5F5F5F5F5F5F5F5F5F5F5F5F5F5F5F5F5F5F5
310
F5F5F5F5F5F5F5F5F5F5F5F5F5F5F5F5F5F5F5F5F5F5F5F5F5F5F5F5F5F5F5F5F5F5F5F5F5F5F5F5F5F5F5F5F5F5F5F5F5F5F5F5F5F5F5F5F5F5F5F5F5F5F5F5F5F5F5F5F5F5F5F5F5F5F5F5F5F5F5F5F5F5F5F5F5F5F5E2F5E2E2EFE2F5E2F5F5F5F5F5F5F5F5F5F5F5F5F5F5F5F5F5F5F5F5F5F5F5F5F5F5F5F5F5F5F5F5
310
F5F5F5F5F5F5F5F5F5F5F5F5F5F5F5F5F5F5F5F5F5F5F5F5F5F5F5F5F5F5F5F5F5F5F5F5F5F5F5F5F5F5F5F5F5F5F5F5F5F5F5F5F5F5F5F5F5F5F5F5F5F5F5F5F5F5F5F5F5F5F5F5F5F5F5F5F5F5F5F5F5F5F5F5F5F5F5F5F5F5F5F5F5F5F5F5F5F5F5F5F5F5F5F5F5F5F5F5F5F5F5F5F5F5F5F5F5F5F5F5F5F5F5F5F5F5F5
310
F5F5F5F5F5F5F5F5F5F5F5F5F5E2F5E2E2EFE2F5E2F5F5F5F5F5F5F5F5F5F5F5F5F5F5F5F5F5F5F5F5F5F5F5F5F5F5F5F5F5F5F5F5F5F5F5F5F5F5F5F5F5F5F5F5F5F5F5F5F5F5F5F5F5F5F5F5F5F5F5F5F5F5F5F5F5F5F5F5F5F5F5F5F5F5F5F5F5F5F5F5F5F5F5F5F5F5F5F5F5F5F5F5F5F5F5F5F5F5F5F5F5F5F5F5F5F5
310
F5F5F5F5F5F5F5F5F5F5F5F5F5F5F5F5F5F5F5F5F5F5F5F5F5F5F5F5F5F5F5F5F5F5F5F5F5F5F5F5F5F5F5F5F5F5F5F5F5F5F5F5F5F5F5F5F5F5F5F5F5F5F5F5F5F5E2F5E2E2EFE2F5F5F5F5F5F5F5F5F5F5F5F5F5F5F5F5F5F5F5F5F5F5F5F5F5F5F5F5F5F5F5F5F5F5F5F5F5F5F5F5F5F5F5F5F5F5F5F5F5F5F5F5F5F5F5
310
F5F5F5F5F5F5F5F5F5F5F5F5F5F5F5F5F5F5F5F5F5F5F5F5F5F5F5F5F5F5F5F5F5F5F5F5F5F5F5F5F5F5F5F5F5F5F5F5F5F5F5F5F5F5F5F5F5F5F5F5F5F5F5F5F5F5F5F5F5F5F5F5F5F5F5F5F5F5F5F5F5F5F5F5F5F5F5F5F5F5F5F5F5F5F5F5F5F5F5F5F5F5F5F5F5F5F5F5F5F5F5F5F5F5F5F5F5F5F5F5F5E2E2EFE2F5F5
310
F5F5F5F5F5F5F5F5F5F5F5F5F5F5F5F5F5F5F5F5F5F5F5F5F5F5F5F5F5F5F5F5F5F5F5F5F5F5F5F5F5F5F5F5F5F5F5F5F5F5F5F5F5F5F5F5F5F5F5F5F5F5F5F5F5F5F5F5F5F5F5F5F5F5F5F5F5F5F5F5F5F5F5F5F5F5F5F5F5F5F5F5F5F5F5F5F5F5F5F5F5F5F5F5F5F5F5F5F5F5F5F5F5F5F5F5F5F5F5F5F5F5F5F5F5F5F5
310
F5F5F5F5F5F5F5F5F5F5F5F5F5F5F5F5F5F5F5F5F5F5F5F5F5F5F5F5F5F5F5F5F5F5F5F5F5F5F5F5F5F5F5F5F5F5F5E2E2EFE2F5F5F5F5F5F5F5F5F5F5F5F5F5F5F5F5F5F5F5F5F5F5F5F5F5F5F5F5F5F5F5F5F5F5F5F5F5F5F5F5F5F5F5F5F5F5F5F5F5F5F5F5F5F5F5F5F5F5F5F5F5F5F5F5F5F5F5F5F5F5F5F5F5F5F5F5
310
F5F5F5F5F5F5F5F5F5F5F5F5F5F5F5F5F5F5F5F5F5F5F5F5F5F5F5F5F5F5F5F5F5F5F5F5F5F5F5F5F5F5F5F5F5F5F5F5F5F5F5F5F5F5F5F5F5F5F5F5F5F5F5F5F5F5F5F5F5F5F5F5F5F5F5F5F5F5F5F5F5F5F5F5F5F5F5F5F5F5F5F5F5F5F5F5F5F5F5F5E2E2EFE2F5F5F5F5F5F5F5F5F5F5F5F5F5F5F5F5F5F5F5F5F5F5F5
310
F5F5F5F5F5F5F5F5F5F5F5F5F5F5F5F5F5F5F5F5F5F5F5F5F5F5F5F5F5F5F5F5F5F5F5F5F5F5F5F5F5F5F5F5F5F5F5F5F5F5F5F5F5F5F5F5F5F5F5F5F5F5F5F5F5F5F5F5F5F5F5F5F5F5F5F5F5F5F5F5F5F5F5F5F5F5F5F5F5F5F5F5F5F5F5F5F5F5F5F5F5F5F5F5F5F5F5F5F5F5F5F5F5F5F5F5F5F5F5F5F5F5F5F5F5F5F5
310
F5F5F5F5F5F5F5F5F5F5F5F5F5F5F5F5F5F5F5F5F5F5F5F5F5F5E2E2EFE2F5F5F5F5F5F5F5F5F5F5F5F5F5F5F5F5F5F5F5F5F5F5F5F5F5F5F5F5F5F5F5F5F5F5F5F5F5F5F5F5F5F5F5F5F5F5F5F5F5F5F5F5F5F5F5F5F5F5F5F5F5F5F5F5F5F5F5F5F5F5F5F5F5F5F5F5F5F5F5F5F5F5F5F5F5F5F5F5F5F5F5F5F5F5F5F5F5
310
F5F5F5F5F5F5F5F5F5F5F5F5F5F5F5F5F5F5F5F5F5F5F5F5F5F5F5F5F5F5F5F5F5F5F5F5F5F5F5F5F5F5F5F5F5F5F5F5F5F5F5F5F5F5F5F5F5F5F5F5F5F5F5F5F5F5F5F5F5F5F5F5F5F5F5F5F5F5F5E2E2EFE2F5F5F5F5F5F5F5F5F5F5F5F5F5F5F5F5F5F5F5F5F5F5F5F5F5F5F5F5F5F5F5F5F5F5F5F5F5F5F5F5F5F5F5F5
310
F5F5F5F5F5F5F5F5F5F5F5F5F5F5F5F5F5F5F5F5F5F5F5F5F5F5F5F5F5F5F5F5F5F5F5F5F5F5F5F5F5F5F5F5F5F5F5F5F5F5F5F5F5F5F5F5F5F5F5F5F5F5F5F5F5F5F5F5F5F5F5F5F5F5F5F5F5F5F5F5F5F5F5F5F5F5F5F5F5F5F5F5F5F5F5F5F5F5F5F5F5F5F5F5F5F5F5F5F5F5F5F5F5F5F5F5F5F5F5F5F5F5F5F5F5F5F5
310
F5F5F5F5F5E2E2EFE2F5F5F5F5F5F5F5F5F5F5F5F5F5F5F5F5F5F5F5F5F5F5F5F5F5F5F5F5F5F5F5F5F5F5F5F5F5F5F5F5F5F5F5F5F5F5F5F5F5F5F5F5F5F5F5F5F5F5F5F5F5F5F5F5F5F5F5F5F5F5F5F5F5F5F5F5F5F5F5F5F5F5F5F5F5F5F5F5F5F5F5F5F5F5F5F5F5F5F5F5F5F5F5F5F5F5F5F5F5F5F5F5F5F5F5F5F5F5
310
F5F5F5F5F5F5F5F5F5F5F5F5F5F5F5F5F5F5F5F5F5F5F5F5F5F5F5F5F5F5F5F5F5F5F5F5F5F5F5F5F5F5F5F5F5F5F5F5F5F5F5F5F5F5F5F5F5F5E2E2EFE2F5F5F5F5F5F5F5F5F5F5F5F5F5F5F5F5F5F5F5F5F5F5F5F5F5F5F5F5F5F5F5F5F5F5F5F5F5F5F5F5F5F5F5F5F5F5F5F5F5F5F5F5F5F5F5F5F5F5F5F5F5F5F5F5F5
310
F5F5F5F5F5F5F5F5F5F5F5F5F5F5F5F5F5F5F5F5F5F5F5F5F5F5F5F5F5F5F5F5F5F5F5F5F5F5F5F5F5F5F5F5F5F5F5F5F5F5F5F5F5F5F5F5F5F5F5F5F5F5F5F5F5F5F5F5F5F5F5F5F5F5F5F5F5F5F5F5F5F5F5F5F5F5F5F5F5F5F5F5F5F5F5F5F5F5F5F5F5F5F5F5F5F5F5F5F5F5F5E2E2EFE2F5F5F5F5F5F5F5F5F5F5F5F5
310
F5F5F5F5F5F5F5F5F5F5F5F5F5F5F5F5F5F5F5F5F5F5F5F5F5F5F5F5F5F5F5F5F5F5F5F5F5F5F5F5F5F5F5F5F5F5F5F5F5F5F5F5F5F5F5F5F5F5F5F5F5F5F5F5F5F5F5F5F5F5F5F5F5F5F5F5F5F5F5F5F5F5F5F5F5F5F5F5F5F5F5F5F5F5F5F5F5F5F5F5F5F5F5F5F5F5F5F5F5F5F5F5F5F5F5F5F5F5F5F5F5F5F5F5F5F5F5
310
F5F5F5F5F5F5F5F5F5F5F5F5F5F5F5F5F5F5F5F5F5F5F5F5F5F5F5F5F5F5F5F5F5F5F5F5F5E2E2EFE2F5E2F5F5F5F5F5F5F5F5F5F5F5F5F5F5F5F5F5F5F5F5F5F5F5F5F5F5F5F5F5F5F5F5F5F5F5F5F5F5F5F5F5F5F5F5F5F5F5F5F5F5F5F5F5F5F5F5F5F5F5F5F5F5F5F5F5F5F5F5F5F5F5F5F5F5F5F5F5F5F5F5F5F5F5F5
310
F5F5F5F5F5F5F5F5F5F5F5F5F5F5F5F5F5F5F5F5F5F5F5F5F5F5F5F5F5F5F5F5F5F5F5F5F5F5F5F5F5F5F5F5F5F5F5F5F5F5F5F5F5F5F5F5F5F5F5F5F5F5F5F5F5F5F5F5F5F5F5F5F5F5F5F5F5F5F5F5F5F5F5F5F5F5F5F5E2F5E2E2EFE2F5E2F5F5F5F5F5F5F5F5F5F5F5F5F5F5F5F5F5F5F5F5F5F5F5F5F5F5F5F5F5F5F5
310
F5F5F5F5F5F5F5F5F5F5F5F5F5F5F5F5F5F5F5F5F5F5F5F5F5F5F5F5F5F5F5F5F5F5F5F5F5F5F5F5F5F5F5F5F5F5F5F5F5F5F5F5F5F5F5F5F5F5F5F5F5F5F5F5F5F5F5F5F5F5F5F5F5F5F5F5F5F5F5F5F5F5F5F5F5F5F5F5F5F5F5F5F5F5F5F5F5F5F5F5F5F5F5F5F5F5F5F5F5F5F5F5F5F5F5F5F5F5F5F5F5F5F5F5F5F5F5
310
F5F5F5F5F5F5F5F5F5F5F5F5F5F5E2F5E2E2EFE2F5E2F5F5F5F5F5F5F5F5F5F5F5F5F5F5F5F5F5F5F5F5F5F5F5F5F5F5F5F5F5F5F5F5F5F5F5F5F5F5F5F5F5F5F5F5F5F5F5F5F5F5F5F5F5F5F5F5F5F5F5F5F5F5F5F5F5F5F5F5F5F5F5F5F5F5F5F5F5F5F5F5F5F5F5F5F5F5F5F5F5F5F5F5F5F5F5F5F5F5F5F5F5F5F5F5F5
310
F5F5F5F5F5F5F5F5F5F5F5F5F5F5F5F5F5F5F5F5F5F5F5F5F5F5F5F5F5F5F5F5F5F5F5F5F5F5F5F5F5F5F5F5F5F5F5F5F5F5F5F5F5F5F5F5F5F5F5F5F5F5F5F5F5F5F5E2F5E2E2EFE2F5E2F5F5F5F5F5F5F5F5F5F5F5F5F5F5F5F5F5F5F5F5F5F5F5F5F5F5F5F5F5F5F5F5F5F5F5F5F5F5F5F5F5F5F5F5F5F5F5F5F5F5F5F5
310
F5F5F5F5F5F5F5F5F5F5F5F5F5F5F5F5F5F5F5F5F5F5F5F5F5F5F5F5F5F5F5F5F5F5F5F5F5F5F5F5F5F5F5F5F5F5F5F5F5F5F5F5F5F5F5F5F5F5F5F5F5F5F5F5F5F5F5F5F5F5F5F5F5F5F5F5F5F5F5F5F5F5F5F5F5F5F5F5F5F5F5F5F5F5F5F5F5F5F5F5F5F5F5F5F5F5F5F5F5F5F5F5F5F5F5F5F5F5F5F5E2F5E2E2EFE2F5
310
E2F5F5F5F5F5F5F5F5F5F5F5F5F5F5F5F5F5F5F5F5F5F5F5F5F5F5F5F5F5F5F5F5F5F5F5F5F5F5F5F5F5F5F5F5F5F5F5F5F5F5F5F5F5F5F5F5F5F5F5F5F5F5F5F5F5F5F5F5F5F5F5F5F5F5F5F5F5F5F5F5F5F5F5F5F5F5F5F5F5F5F5F5F5F5F5F5F5F5F5F5F5F5F5F5F5F5F5F5F5F5F5F5F5F5F5F5F5F5F5F5F5F5F5F5F5F5
310
F5F5F5F5F5F5F5F5F5F5F5F5F5F5F5F5F5F5F5F5F5F5F5F5F5F5F5F5F5F5F5F5F5F5F5F5F5F5F5F5F5F5F5F5F5F5E2F5E2E2EFE2F5E2F5F5F5F5F5F5F5F5F5F5F5F5F5F5F5F5F5F5F5F5F5F5F5F5F5F5F5F5F5F5F5F5F5F5F5F5F5F5F5F5F5F5F5F5F5F5F5F5F5F5F5F5F5F5F5F5F5F5F5F5F5F5F5F5F5F5F5F5F5F5F5F5F5
310
F5F5F5F5F5F5F5F5F5F5F5F5F5F5F5F5F5F5F5F5F5F5F5F5F5F5F5F5F5F5F5F5F5F5F5F5F5F5F5F5F5F5F5F5F5F5F5F5F5F5F5F5F5F5F5F5F5F5F5F5F5F5F5F5F5F5F5F5F5F5F5F5F5F5F5F5F5F5F5F5F5F5F5F5F5F5F5F5F5F5F5F5F5F5F5F5F5F5F5E2F5E2E2EFE2F5E2F5F5F5F5F5F5F5F5F5F5F5F5F5F5F5F5F5F5F5F5
310
F5F5F5F5F5F5F5F5F5F5F5F5F5F5F5F5F5F5F5F5F5F5F5F5F5F5F5F5F5F5F5F5F5F5F5F5F5F5F5F5F5F5F5F5F5F5F5F5F5F5F5F5F5F5F5F5F5F5F5F5F5F5F5F5F5F5F5F5F5F5F5F5F5F5F5F5F5F5F5F5F5F5F5F5F5F5F5F5F5F5F5F5F5F5F5F5F5F5F5F5F5F5F5F5F5F5F5F5F5F5F5F5F5F5F5F5F5F5F5F5F5F5F5F5F5F5F5
310
F5F5F5F5F5F5F5F5F5F5F5F5F5F5F5F5F5F5F5F5F5F5F5F5F5E2F5E2E2EFE2F5E2F5F5F5F5F5F5F5F5F5F5F5F5F5F5F5F5F5F5F5F5F5F5F5F5F5F5F5F5F5F5F5F5F5F5F5F5F5F5F5F5F5F5F5F5F5F5F5F5F5F5F5F5F5F5F5F5F5F5F5F5F5F5F5F5F5F5F5F5F5F5F5F5F5F5F5F5F5F5F5F5F5F5F5F5F5F5F5F5F5F5F5F5F5F5
310
F5F5F5F5F5F5F5F5F5F5F5F5F5F5F5F5F5F5F5F5F5F5F5F5F5F5F5F5F5F5F5F5F5F5F5F5F5F5F5F5F5F5F5F5F5F5F5F5F5F5F5F5F5F5F5F5F5F5F5F5F5F5F5F5F5F5F5F5F5F5F5F5F5F5F5F5F5F5E2F5E2E2EFE2F5E2F5F5F5F5F5F5F5F5F5F5F5F5F5F5F5F5F5F5F5F5F5F5F5F5F5F5F5F5F5F5F5F5F5F5F5F5F5F5F5F5F5
310
F5F5F5F5F5F5F5F5F5F5F5F5F5F5F5F5F5F5F5F5F5F5F5F5F5F5F5F5F5F5F5F5F5F5F5F5F5F5F5F5F5F5F5F5F5F5F5F5F5F5F5F5F5F5F5F5F5F5F5F5F5F5F5F5F5F5F5F5F5F5F5F5F5F5F5F5F5F5F5F5F5F5F5F5F5F5F5F5F5F5F5F5F5F5F5F5F5F5F5F5F5F5F5F5F5F5F5F5F5F5F5F5F5F5F5F5F5F5F5F5F5F5F5F5F5F5F5
310
F5F5F5F5E2F5E2E2EFE2F5E2F5F5F5F5F5F5F5F5F5F5F5F5F5F5F5F5F5F5F5F5F5F5F5F5F5F5F5F5F5F5F5F5F5F5F5F5F5F5F5F5F5F5F5F5F5F5F5F5F5F5F5F5F5F5F5F5F5F5F5F5F5F5F5F5F5F5F5F5F5F5F5F5F5F5F5F5F5F5F5F5F5F5F5F5F5F5F5F5F5F5F5F5F5F5F5F5F5F5F5F5F5F5F5F5F5F5F5F5F5F5F5F5F5F5F5
310
F5F5F5F5F5F5F5F5F5F5F5F5F5F5F5F5F5F5F5F5F5F5F5F5F5F5F5F5F5F5F5F5F5F5F5F5F5F5F5F5F5F5F5F5F5F5F5F5F5F5F5F5F5F5F5F5F5E2F5E2E2EFE2F5E2F5F5F5F5F5F5F5F5F5F5F5F5F5F5F5F5F5F5F5F5F5F5F5F5F5F5F5F5F5F5F5F5F5F5F5F5F5F5F5F5F5F5F5F5F5F5F5F5F5F5F5F5F5F5F5F5F5F5F5F5F5F5
310
F5F5F5F5F5F5F5F5F5F5F5F5F5F5F5F5F5F5F5F5F5F5F5F5F5F5F5F5F5F5F5F5F5F5F5F5F5F5F5F5F5F5F5F5F5F5F5F5F5F5F5F5F5F5F5F5F5F5F5F5F5F5F5F5F5F5F5F5F5F5F5F5F5F5F5F5F5F5F5F5F5F5F5F5F5F5F5F5F5F5F5F5F5F5F5F5F5F5F5F5F5F5F5F5F5F5F5F5F5F5E2F5E2E2EFE2F5E2F5F5F5F5F5F5F5F5F5
310
F5F5F5F5F5F5F5F5F5F5F5F5F5F5F5F5F5F5F5F5F5F5F5F5F5F5F5F5F5F5F5F5F5F5F5F5F5F5F5F5F5F5F5F5F5F5F5F5F5F5F5F5F5F5F5F5F5F5F5F5F5F5F5F5F5F5F5F5F5F5F5F5F5F5F5F5F5F5F5F5F5F5F5F5F5F5F5F5F5F5F5F5F5F5F5F5F5F5F5F5F5F5F5F5F5F5F5F5F5F5F5F5F5F5F5F5F5F5F5F5F5F5F5F5F5F5F5
310
F5F5F5F5F5F5F5F5F5F5F5F5F5F5F5F5F5F5F5F5F5F5F5F5F5F5F5F5F5F5F5F5F5F5F5F5E2F5E2E2EFE2F5E2F5F5F5F5F5F5F5F5F5F5F5F5F5F5F5F5F5F5F5F5F5F5F5F5F5F5F5F5F5F5F5F5F5F5F5F5F5F5F5F5F5F5F5F5F5F5F5F5F5F5F5F5F5F5F5F5F5F5F5F5F5F5F5F5F5F5F5F5F5F5F5F5F5F5F5F5F5F5F5F5F5F5F5
310
F5F5F5F5F5F5F5F5F5F5F5F5F5F5F5F5F5F5F5F5F5F5F5F5F5F5F5F5F5F5F5F5F5F5F5F5F5F5F5F5F5F5F5F5F5F5F5F5F5F5F5F5F5F5F5F5F5F5F5F5F5F5F5F5F5F5F5F5F5F5F5F5F5F5F5F5F5F5F5F5F5F5F5F5F5F5F5F5F5E2F5E2E2EFE2F5E2F5F5F5F5F5F5F5F5F5F5F5F5F5F5F5F5F5F5F5F5F5F5F5F5F5F5F5F5F5F5
310
F5F5F5F5F5F5F5F5F5F5F5F5F5F5F5F5F5F5F5F5F5F5F5F5F5F5F5F5F5F5F5F5F5F5F5F5F5F5F5F5F5F5F5F5F5F5F5F5F5F5F5F5F5F5F5F5F5F5F5F5F5F5F5F5F5F5F5F5F5F5F5F5F5F5F5F5F5F5F5F5F5F5F5F5F5F5F5F5F5F5F5F5F5F5F5F5F5F5F5F5F5F5F5F5F5F5F5F5F5F5F5F5F5F5F5F5F5F5F5F5F5F5F5F5F5F5F5
310
F5F5F5F5F5F5F5F5F5F5F5F5F5F5F5E2F5E2E2EFE2F5E2F5F5F5F5F5F5F5F5F5F5F5F5F5F5F5F5F5F5F5F5F5F5F5F5F5F5F5F5F5F5F5F5F5F5F5F5F5F5F5F5F5F5F5F5F5F5F5F5F5F5F5F5F5F5F5F5F5F5F5F5F5F5F5F5F5F5F5F5F5F5F5F5F5F5F5F5F5F5F5F5F5F5F5F5F5F5F5F5F5F5F5F5F5F5F5F5F5F5F5F5F5F5F5F5
310
F5F5F5F5F5F5F5F5F5F5F5F5F5F5F5F5F5F5F5F5F5F5F5F5F5F5F5F5F5F5F5F5F5F5F5F5F5F5F5F5F5F5F5F5F5F5F5F5F5F5F5F5F5F5F5F5F5F5F5F5F5F5F5F5F5F5F5F5E2F5E2E2EFE2F5E2F5F5F5F5F5F5F5F5F5F5F5F5F5F5F5F5F5F5F5F5F5F5F5F5F5F5F5F5F5F5F5F5F5F5F5F5F5F5F5F5F5F5F5F5F5F5F5F5F5F5F5
310
F5F5F5F5F5F5F5F5F5F5F5F5F5F5F5F5F5F5F5F5F5F5F5F5F5F5F5F5F5F5F5F5F5F5F5F5F5F5F5F5F5F5F5F5F5F5F5F5F5F5F5F5F5F5F5F5F5F5F5F5F5F5F5F5F5F5F5F5F5F5F5F5F5F5F5F5F5F5F5F5F5F5F5F5F5F5F5F5F5F5F5F5F5F5F5F5F5F5F5F5F5F5F5F5F5F5F5F5F5F5F5F5F5F5F5F5F5F5F5F5F5E2F5E2E2EFE2
310
F5F5F5F5F5F5F5F5F5F5F5F5F5F5F5F5F5F5F5F5F5F5F5F5F5F5F5F5F5F5F5F5F5F5F5F5F5F5F5F5F5F5F5F5F5F5F5F5F5F5F5F5F5F5F5F5F5F5F5F5F5F5F5F5F5F5F5F5F5F5F5F5F5F5F5F5F5F5F5F5F5F5F5F5F5F5F5F5F5F5F5F5F5F5F5F5F5F5F5F5F5F5F5F5F5F5F5F5F5F5F5F5F5F5F5F5F5F5F5F5F5F5F5F5F5F5F5
310
F5F5F5F5F5F5F5F5F5F5F5F5F5F5F5F5F5F5F5F5F5F5F5F5F5F5F5F5F5F5F5F5F5F5F5F5F5F5F5F5F5F5F5F5F5F5F5F5F5E2E2EFE2F5F5F5F5F5F5F5F5F5F5F5F5F5F5F5F5F5F5F5F5F5F5F5F5F5F5F5F5F5F5F5F5F5F5F5F5F5F5F5F5F5F5F5F5F5F5F5F5F5F5F5F5F5F5F5F5F5F5F5F5F5F5F5F5F5F5F5F5F5F5F5F5F5F5
310
F5F5F5F5F5F5F5F5F5F5F5F5F5F5F5F5F5F5F5F5F5F5F5F5F5F5F5F5F5F5F5F5F5F5F5F5F5F5F5F5F5F5F5F5F5F5F5F5F5F5F5F5F5F5F5F5F5F5F5F5F5F5F5F5F5F5F5F5F5F5F5F5F5F5F5F5F5F5F5F5F5F5F5F5F5F5F5F5F5F5F5F5F5F5F5F5F5F5F5F5F5F5E2E2EFE2F5F5F5F5F5F5F5F5F5F5F5F5F5F5F5F5F5F5F5F5F5
310
F5F5F5F5F5F5F5F5F5F5F5F5F5F5F5F5F5F5F5F5F5F5F5F5F5F5F5F5F5F5F5F5F5F5F5F5F5F5F5F5F5F5F5F5F5F5F5F5F5F5F5F5F5F5F5F5F5F5F5F5F5F5F5F5F5F5F5F5F5F5F5F5F5F5F5F5F5F5F5F5F5F5F5F5F5F5F5F5F5F5F5F5F5F5F5F5F5F5F5F5F5F5F5F5F5F5F5F5F5F5F5F5F5F5F5F5F5F5F5F5F5F5F5F5F5F5F5
310
F5F5F5F5F5F5F5F5F5F5F5F5F5F5F5F5F5F5F5F5F5F5F5F5F5F5F5F5E2E2EFE2F5F5F5F5F5F5F5F5F5F5F5F5F5F5F5F5F5F5F5F5F5F5F5F5F5F5F5F5F5F5F5F5F5F5F5F5F5F5F5F5F5F5F5F5F5F5F5F5F5F5F5F5F5F5F5F5F5F5F5F5F5F5F5F5F5F5F5F5F5F5F5F5F5F5F5F5F5F5F5F5F5F5F5F5F5F5F5F5F5F5F5F5F5F5F5
310
F5F5F5F5F5F5F5F5F5F5F5F5F5F5F5F5F5F5F5F5F5F5F5F5F5F5F5F5F5F5F5F5F5F5F5F5F5F5F5F5F5F5F5F5F5F5F5F5F5F5F5F5F5F5F5F5F5F5F5F5F5F5F5F5F5F5F5F5F5F5F5F5F5F5F5F5F5F5F5F5F5E2E2EFE2F5F5F5F5F5F5F5F5F5F5F5F5F5F5F5F5F5F5F5F5F5F5F5F5F5F5F5F5F5F5F5F5F5F5F5F5F5F5F5F5F5F5
310
F5F5F5F5F5F5F5F5F5F5F5F5F5F5F5F5F5F5F5F5F5F5F5F5F5F5F5F5F5F5F5F5F5F5F5F5F5F5F5F5F5F5F5F5F5F5F5F5F5F5F5F5F5F5F5F5F5F5F5F5F5F5F5F5F5F5F5F5F5F5F5F5F5F5F5F5F5F5F5F5F5F5F5F5F5F5F5F5F5F5F5F5F5F5F5F5F5F5F5F5F5F5F5F5F5F5F5F5F5F5F5F5F5F5F5F5F5F5F5F5F5F5F5F5F5F5F5
310
F5F5F5F5F5F5F5E2E2EFE2F5F5F5F5F5F5F5F5F5F5F5F5F5F5F5F5F5F5F5F5F5F5F5F5F5F5F5F5F5F5F5F5F5F5F5F5F5F5F5F5F5F5F5F5F5F5F5F5F5F5F5F5F5F5F5F5F5F5F5F5F5F5F5F5F5F5F5F5F5F5F5F5F5F5F5F5F5F5F5F5F5F5F5F5F5F5F5F5F5F5F5F5F5F5F5F5F5F5F5F5F5F5F5F5F5F5F5F5F5F5F5F5F5F5F5F5
310
F5F5F5F5F5F5F5F5F5F5F5F5F5F5F5F5F5F5F5F5F5F5F5F5F5F5F5F5F5F5F5F5F5F5F5F5F5F5F5F5F5F5F5F5F5F5F5F5F5F5F5F5F5F5F5F5F5F5F5F5E2E2EFE2F5F5F5F5F5F5F5F5F5F5F5F5F5F5F5F5F5F5F5F5F5F5F5F5F5F5F5F5F5F5F5F5F5F5F5F5F5F5F5F5F5F5F5F5F5F5F5F5F5F5F5F5F5F5F5F5F5F5F5F5F5F5F5
310
F5F5F5F5F5F5F5F5F5F5F5F5F5F5F5F5F5F5F5F5F5F5F5F5F5F5F5F5F5F5F5F5F5F5F5F5F5F5F5F5F5F5F5F5F5F5F5F5F5F5F5F5F5F5F5F5F5F5F5F5F5F5F5F5F5F5F5F5F5F5F5F5F5F5F5F5F5F5F5F5F5F5F5F5F5F5F5F5F5F5F5F5F5F5F5F5F5F5F5F5F5F5F5F5F5F5F5F5F5F5F5F5F5E2E2EFE2F5F5F5F5F5F5F5F5F5F5
310
F5F5F5F5F5F5F5F5F5F5F5F5F5F5F5F5F5F5F5F5F5F5F5F5F5F5F5F5F5F5F5F5F5F5F5F5F5F5F5F5F5F5F5F5F5F5F5F5F5F5F5F5F5F5F5F5F5F5F5F5F5F5F5F5F5F5F5F5F5F5F5F5F5F5F5F5F5F5F5F5F5F5F5F5F5F5F5F5F5F5F5F5F5F5F5F5F5F5F5F5F5F5F5F5F5F5F5F5F5F5F5F5F5F5F5F5F5F5F5F5F5F5F5F5F5F5F5
310
F5F5F5F5F5F5F5F5F5F5F5F5F5F5F5F5F5F5F5F5F5F5F5F5F5F5F5F5F5F5F5F5F5F5F5F5F5F5F5E2E2EFE2F5E2F5F5F5F5F5F5F5F5F5F5F5F5F5F5F5F5F5F5F5F5F5F5F5F5F5F5F5F5F5F5F5F5F5F5F5F5F5F5F5F5F5F5F5F5F5F5F5F5F5F5F5F5F5F5F5F5F5F5F5F5F5F5F5F5F5F5F5F5F5F5F5F5F5F5F5F5F5F5F5F5F5F5
310
F5F5F5F5F5F5F5F5F5F5F5F5F5F5F5F5F5F5F5F5F5F5F5F5F5F5F5F5F5F5F5F5F5F5F5F5F5F5F5F5F5F5F5F5F5F5F5F5F5F5F5F5F5F5F5F5F5F5F5F5F5F5F5F5F5F5F5F5F5F5F5F5F5F5F5F5F5F5F5F5F5F5F5F5F5F5F5F5F5F5E2F5E2E2EFE2F5E2F5F5F5F5F5F5F5F5F5F5F5F5F5F5F5F5F5F5F5F5F5F5F5F5F5F5F5F5F5
310
F5F5F5F5F5F5F5F5F5F5F5F5F5F5F5F5F5F5F5F5F5F5F5F5F5F5F5F5F5F5F5F5F5F5F5F5F5F5F5F5F5F5F5F5F5F5F5F5F5F5F5F5F5F5F5F5F5F5F5F5F5F5F5F5F5F5F5F5F5F5F5F5F5F5F5F5F5F5F5F5F5F5F5F5F5F5F5F5F5F5F5F5F5F5F5F5F5F5F5F5F5F5F5F5F5F5F5F5F5F5F5F5F5F5F5F5F5F5F5F5F5F5F5F5F5F5F5
310
F5F5F5F5F5F5F5F5F5F5F5F5F5F5F5F5E2F5E2E2EFE2F5E2F5F5F5F5F5F5F5F5F5F5F5F5F5F5F5F5F5F5F5F5F5F5F5F5F5F5F5F5F5F5F5F5F5F5F5F5F5F5F5F5F5F5F5F5F5F5F5F5F5F5F5F5F5F5F5F5F5F5F5F5F5F5F5F5F5F5F5F5F5F5F5F5F5F5F5F5F5F5F5F5F5F5F5F5F5F5F5F5F5F5F5F5F5F5F5F5F5F5F5F5F5F5F5
310
F5F5F5F5F5F5F5F5F5F5F5F5F5F5F5F5F5F5F5F5F5F5F5F5F5F5F5F5F5F5F5F5F5F5F5F5F5F5F5F5F5F5F5F5F5F5F5F5F5F5F5F5F5F5F5F5F5F5F5F5F5F5F5F5F5F5F5F5F5E2F5E2E2EFE2F5E2F5F5F5F5F5F5F5F5F5F5F5F5F5F5F5F5F5F5F5F5F5F5F5F5F5F5F5F5F5F5F5F5F5F5F5F5F5F5F5F5F5F5F5F5F5F5F5F5F5F5
310
F5F5F5F5F5F5F5F5F5F5F5F5F5F5F5F5F5F5F5F5F5F5F5F5F5F5F5F5F5F5F5F5F5F5F5F5F5F5F5F5F5F5F5F5F5F5F5F5F5F5F5F5F5F5F5F5F5F5F5F5F5F5F5F5F5F5F5F5F5F5F5F5F5F5F5F5F5F5F5F5F5F5F5F5F5F5F5F5F5F5F5F5F5F5F5F5F5F5F5F5F5F5F5F5F5F5F5F5F5F5F5F5F5F5F5F5F5F5F5F5F5F5E2F5E2E2EF
310
E2F5E2F5F5F5F5F5F5F5F5F5F5F5F5F5F5F5F5F5F5F5F5F5F5F5F5F5F5F5F5F5F5F5F5F5F5F5F5F5F5F5F5F5F5F5F5F5F5F5F5F5F5F5F5F5F5F5F5F5F5F5F5F5F5F5F5F5F5F5F5F5F5F5F5F5F5F5F5F5F5F5F5F5F5F5F5F5F5F5F5F5F5F5F5F5F5F5F5F5F5F5F5F5F5F5F5F5F5F5F5F5F5F5F5F5F5F5F5F5F5F5F5F5F5F5F5
310
F5F5F5F5F5F5F5F5F5F5F5F5F5F5F5F5F5F5F5F5F5F5F5F5F5F5F5F5F5F5F5F5F5F5F5F5F5F5F5F5F5F5F5F5F5F5F5F5E2F5E2E2EFE2F5E2F5F5F5F5F5F5F5F5F5F5F5F5F5F5F5F5F5F5F5F5F5F5F5F5F5F5F5F5F5F5F5F5F5F5F5F5F5F5F5F5F5F5F5F5F5F5F5F5F5F5F5F5F5F5F5F5F5F5F5F5F5F5F5F5F5F5F5F5F5F5F5
310
F5F5F5F5F5F5F5F5F5F5F5F5F5F5F5F5F5F5F5F5F5F5F5F5F5F5F5F5F5F5F5F5F5F5F5F5F5F5F5F5F5F5F5F5F5F5F5F5F5F5F5F5F5F5F5F5F5F5F5F5F5F5F5F5F5F5F5F5F5F5F5F5F5F5F5F5F5F5F5F5F5F5F5F5F5F5F5F5F5F5F5F5F5F5F5F5F5F5F5F5F5E2F5E2E2EFE2F5E2F5F5F5F5F5F5F5F5F5F5F5F5F5F5F5F5F5F5
310
F5F5F5F5F5F5F5F5F5F5F5F5F5F5F5F5F5F5F5F5F5F5F5F5F5F5F5F5F5F5F5F5F5F5F5F5F5F5F5F5F5F5F5F5F5F5F5F5F5F5F5F5F5F5F5F5F5F5F5F5F5F5F5F5F5F5F5F5F5F5F5F5F5F5F5F5F5F5F5F5F5F5F5F5F5F5F5F5F5F5F5F5F5F5F5F5F5F5F5F5F5F5F5F5F5F5F5F5F5F5F5F5F5F5F5F5F5F5F5F5F5F5F5F5F5F5F5
310
F5F5F5F5F5F5F5F5F5F5F5F5F5F5F5F5F5F5F5F5F5F5F5F5F5F5F5E2F5E2E2EFE2F5E2F5F5F5F5F5F5F5F5F5F5F5F5F5F5F5F5F5F5F5F5F5F5F5F5F5F5F5F5F5F5F5F5F5F5F5F5F5F5F5F5F5F5F5F5F5F5F5F5F5F5F5F5F5F5F5F5F5F5F5F5F5F5F5F5F5F5F5F5F5F5F5F5F5F5F5F5F5F5F5F5F5F5F5F5F5F5F5F5F5F5F5F5
310
F5F5F5F5F5F5F5F5F5F5F5F5F5F5F5F5F5F5F5F5F5F5F5F5F5F5F5F5F5F5F5F5F5F5F5F5F5F5F5F5F5F5F5F5F5F5F5F5F5F5F5F5F5F5F5F5F5F5F5F5F5F5F5F5F5F5F5F5F5F5F5F5F5F5F5F5F5F5F5F5E2F5E2E2EFE2F5E2F5F5F5F5F5F5F5F5F5F5F5F5F5F5F5F5F5F5F5F5F5F5F5F5F5F5F5F5F5F5F5F5F5F5F5F5F5F5F5
310
F5F5F5F5F5F5F5F5F5F5F5F5F5F5F5F5F5F5F5F5F5F5F5F5F5F5F5F5F5F5F5F5F5F5F5F5F5F5F5F5F5F5F5F5F5F5F5F5F5F5F5F5F5F5F5F5F5F5F5F5F5F5F5F5F5F5F5F5F5F5F5F5F5F5F5F5F5F5F5F5F5F5F5F5F5F5F5F5F5F5F5F5F5F5F5F5F5F5F5F5F5F5F5F5F5F5F5F5F5F5F5F5F5F5F5F5F5F5F5F5F5F5F5F5F5F5F5
310
F5F5F5F5F5F5E2F5E2E2EFE2F5E2F5F5F5F5F5F5F5F5F5F5F5F5F5F5F5F5F5F5F5F5F5F5F5F5F5F5F5F5F5F5F5F5F5F5F5F5F5F5F5F5F5F5F5F5F5F5F5F5F5F5F5F5F5F5F5F5F5F5F5F5F5F5F5F5F5F5F5F5F5F5F5F5F5F5F5F5F5F5F5F5F5F5F5F5F5F5F5F5F5F5F5F5F5F5F5F5F5F5F5F5F5F5F5F5F5F5F5F5F5F5F5F5F5
310
F5F5F5F5F5F5F5F5F5F5F5F5F5F5F5F5F5F5F5F5F5F5F5F5F5F5F5F5F5F5F5F5F5F5F5F5F5F5F5F5F5F5F5F5F5F5F5F5F5F5F5F5F5F5F5F5F5F5F5E2F5E2E2EFE2F5E2F5F5F5F5F5F5F5F5F5F5F5F5F5F5F5F5F5F5F5F5F5F5F5F5F5F5F5F5F5F5F5F5F5F5F5F5F5F5F5F5F5F5F5F5F5F5F5F5F5F5F5F5F5F5F5F5F5F5F5F5
310
F5F5F5F5F5F5F5F5F5F5F5F5F5F5F5F5F5F5F5F5F5F5F5F5F5F5F5F5F5F5F5F5F5F5F5F5F5F5F5F5F5F5F5F5F5F5F5F5F5F5F5F5F5F5F5F5F5F5F5F5F5F5F5F5F5F5F5F5F5F5F5F5F5F5F5F5F5F5F5F5F5F5F5F5F5F5F5F5F5F5F5F5F5F5F5F5F5F5F5F5F5F5F5F5F5F5F5F5F5F5F5F5E2F5E2E2EFE2F5E2F5F5F5F5F5F5F5
310
F5F5F5F5F5F5F5F5F5F5F5F5F5F5F5F5F5F5F5F5F5F5F5F5F5F5F5F5F5F5F5F5F5F5F5F5F5F5F5F5F5F5F5F5F5F5F5F5F5F5F5F5F5F5F5F5F5F5F5F5F5F5F5F5F5F5F5F5F5F5F5F5F5F5F5F5F5F5F5F5F5F5F5F5F5F5F5F5F5F5F5F5F5F5F5F5F5F5F5F5F5F5F5F5F5F5F5F5F5F5F5F5F5F5F5F5F5F5F5F5F5F5F5F5F5F5F5
310
F5F5F5F5F5F5F5F5F5F5F5F5F5F5F5F5F5F5F5F5F5F5F5F5F5F5F5F5F5F5F5F5F5F5F5F5F5F5E2F5E2E2EFE2F5E2F5F5F5F5F5F5F5F5F5F5F5F5F5F5F5F5F5F5F5F5F5F5F5F5F5F5F5F5F5F5F5F5F5F5F5F5F5F5F5F5F5F5F5F5F5F5F5F5F5F5F5F5F5F5F5F5F5F5F5F5F5F5F5F5F5F5F5F5F5F5F5F5F5F5F5F5F5F5F5F5F5
310
F5F5F5F5F5F5F5F5F5F5F5F5F5F5F5F5F5F5F5F5F5F5F5F5F5F5F5F5F5F5F5F5F5F5F5F5F5F5F5F5F5F5F5F5F5F5F5F5F5F5F5F5F5F5F5F5F5F5F5F5F5F5F5F5F5F5F5F5F5F5F5F5F5F5F5F5F5F5F5F5F5F5F5F5F5F5F5F5F5F5F5E2F5E2E2EFE2F5E2F5F5F5F5F5F5F5F5F5F5F5F5F5F5F5F5F5F5F5F5F5F5F5F5F5F5F5F5
310
F5F5F5F5F5F5F5F5F5F5F5F5F5F5F5F5F5F5F5F5F5F5F5F5F5F5F5F5F5F5F5F5F5F5F5F5F5F5F5F5F5F5F5F5F5F5F5F5F5F5F5F5F5F5F5F5F5F5F5F5F5F5F5F5F5F5F5F5F5F5F5F5F5F5F5F5F5F5F5F5F5F5F5F5F5F5F5F5F5F5F5F5F5F5F5F5F5F5F5F5F5F5F5F5F5F5F5F5F5F5F5F5F5F5F5F5F5F5F5F5F5F5F5F5F5F5F5
310
F5F5F5F5F5F5F5F5F5F5F5F5F5F5F5F5F5E2F5E2E2EFE2F5E2F5F5F5F5F5F5F5F5F5F5F5F5F5F5F5F5F5F5F5F5F5F5F5F5F5F5F5F5F5F5F5F5F5F5F5F5F5F5F5F5F5F5F5F5F5F5F5F5F5F5F5F5F5F5F5F5F5F5F5F5F5F5F5F5F5F5F5F5F5F5F5F5F5F5F5F5F5F5F5F5F5F5F5F5F5F5F5F5F5F5F5F5F5F5F5F5F5F5F5F5F5F5
310
F5F5F5F5F5F5F5F5F5F5F5F5F5F5F5F5F5F5F5F5F5F5F5F5F5F5F5F5F5F5F5F5F5F5F5F5F5F5F5F5F5F5F5F5F5F5F5F5F5F5F5F5F5F5F5F5F5F5F5F5F5F5F5F5F5F5F5F5F5F5E2F5E2E2EFE2F5E2F5F5F5F5F5F5F5F5F5F5F5F5F5F5F5F5F5F5F5F5F5F5F5F5F5F5F5F5F5F5F5F5F5F5F5F5F5F5F5F5F5F5F5F5F5F5F5F5F5
310
F5F5F5F5F5F5F5F5F5F5F5F5F5F5F5F5F5F5F5F5F5F5F5F5F5F5F5F5F5F5F5F5F5F5F5F5F5F5F5F5F5F5F5F5F5F5F5F5F5F5F5F5F5F5F5F5F5F5F5F5F5F5F5F5F5F5F5F5F5F5F5F5F5F5F5F5F5F5F5F5F5F5F5F5F5F5F5F5F5F5F5F5F5F5F5F5F5F5F5F5F5F5F5F5F5F5F5F5F5F5F5F5F5F5F5F5F5F5F5F5F5F5F5E2F5E2E2
310
EFE2F5F5F5F5F5F5F5F5F5F5F5F5F5F5F5F5F5F5F5F5F5F5F5F5F5F5F5F5F5F5F5F5F5F5F5F5F5F5F5F5F5F5F5F5F5F5F5F5F5F5F5F5F5F5F5F5F5F5F5F5F5F5F5F5F5F5F5F5F5F5F5F5F5F5F5F5F5F5F5F5F5F5F5F5F5F5F5F5F5F5F5F5F5F5F5F5F5F5F5F5F5F5F5F5F5F5F5F5F5F5F5F5F5F5F5F5F5F5F5F5F5F5F5F5F5
310
F5F5F5F5F5F5F5F5F5F5F5F5F5F5F5F5F5F5F5F5F5F5F5F5F5F5F5F5F5F5F5F5F5F5F5F5F5F5F5F5F5F5F5F5F5F5F5F5F5F5F5E2E2EFE2F5F5F5F5F5F5F5F5F5F5F5F5F5F5F5F5F5F5F5F5F5F5F5F5F5F5F5F5F5F5F5F5F5F5F5F5F5F5F5F5F5F5F5F5F5F5F5F5F5F5F5F5F5F5F5F5F5F5F5F5F5F5F5F5F5F5F5F5F5F5F5F5
310
F5F5F5F5F5F5F5F5F5F5F5F5F5F5F5F5F5F5F5F5F5F5F5F5F5F5F5F5F5F5F5F5F5F5F5F5F5F5F5F5F5F5F5F5F5F5F5F5F5F5F5F5F5F5F5F5F5F5F5F5F5F5F5F5F5F5F5F5F5F5F5F5F5F5F5F5F5F5F5F5F5F5F5F5F5F5F5F5F5F5F5F5F5F5F5F5F5F5F5F5F5F5F5F5E2E2EFE2F5F5F5F5F5F5F5F5F5F5F5F5F5F5F5F5F5F5F5
310
F5F5F5F5F5F5F5F5F5F5F5F5F5F5F5F5F5F5F5F5F5F5F5F5F5F5F5F5F5F5F5F5F5F5F5F5F5F5F5F5F5F5F5F5F5F5F5F5F5F5F5F5F5F5F5F5F5F5F5F5F5F5F5F5F5F5F5F5F5F5F5F5F5F5F5F5F5F5F5F5F5F5F5F5F5F5F5F5F5F5F5F5F5F5F5F5F5F5F5F5F5F5F5F5F5F5F5F5F5F5F5F5F5F5F5F5F5F5F5F5F5F5F5F5F5F5F5
310
F5F5F5F5F5F5F5F5F5F5F5F5F5F5F5F5F5F5F5F5F5F5F5F5F5F5F5F5F5F5E2E2EFE2F5F5F5F5F5F5F5F5F5F5F5F5F5F5F5F5F5F5F5F5F5F5F5F5F5F5F5F5F5F5F5F5F5F5F5F5F5F5F5F5F5F5F5F5F5F5F5F5F5F5F5F5F5F5F5F5F5F5F5F5F5F5F5F5F5F5F5F5F5F5F5F5F5F5F5F5F5F5F5F5F5F5F5F5F5F5F5F5F5F5F5F5F5
310
F5F5F5F5F5F5F5F5F5F5F5F5F5F5F5F5F5F5F5F5F5F5F5F5F5F5F5F5F5F5F5F5F5F5F5F5F5F5F5F5F5F5F5F5F5F5F5F5F5F5F5F5F5F5F5F5F5F5F5F5F5F5F5F5F5F5F5F5F5F5F5F5F5F5F5F5F5F5F5F5F5F5F5E2E2EFE2F5F5F5F5F5F5F5F5F5F5F5F5F5F5F5F5F5F5F5F5F5F5F5F5F5F5F5F5F5F5F5F5F5F5F5F5F5F5F5F5
310
F5F5F5F5F5F5F5F5F5F5F5F5F5F5F5F5F5F5F5F5F5F5F5F5F5F5F5F5F5F5F5F5F5F5F5F5F5F5F5F5F5F5F5F5F5F5F5F5F5F5F5F5F5F5F5F5F5F5F5F5F5F5F5F5F5F5F5F5F5F5F5F5F5F5F5F5F5F5F5F5F5F5F5F5F5F5F5F5F5F5F5F5F5F5F5F5F5F5F5F5F5F5F5F5F5F5F5F5F5F5F5F5F5F5F5F5F5F5F5F5F5F5F5F5F5F5F5
310
F5F5F5F5F5F5F5F5F5E2E2EFE2F5F5F5F5F5F5F5F5F5F5F5F5F5F5F5F5F5F5F5F5F5F5F5F5F5F5F5F5F5F5F5F5F5F5F5F5F5F5F5F5F5F5F5F5F5F5F5F5F5F5F5F5F5F5F5F5F5F5F5F5F5F5F5F5F5F5F5F5F5F5F5F5F5F5F5F5F5F5F5F5F5F5F5F5F5F5F5F5F5F5F5F5F5F5F5F5F5F5F5F5F5F5F5F5F5F5F5F5F5F5F5F5F5F5
310
F5F5F5F5F5F5F5F5F5F5F5F5F5F5F5F5F5F5F5F5F5F5F5F5F5F5F5F5F5F5F5F5F5F5F5F5F5F5F5F5F5F5F5F5F5F5F5F5F5F5F5F5F5F5F5F5F5F5F5F5F5F5E2E2EFE2F5F5F5F5F5F5F5F5F5F5F5F5F5F5F5F5F5F5F5F5F5F5F5F5F5F5F5F5F5F5F5F5F5F5F5F5F5F5F5F5F5F5F5F5F5F5F5F5F5F5F5F5F5F5F5F5F5F5F5F5F5
310
F5F5F5F5F5F5F5F5F5F5F5F5F5F5F5F5F5F5F5F5F5F5F5F5F5F5F5F5F5F5F5F5F5F5F5F5F5F5F5F5F5F5F5F5F5F5F5F5F5F5F5F5F5F5F5F5F5F5F5F5F5F5F5F5F5F5F5F5F5F5F5F5F5F5F5F5F5F5F5F5F5F5F5F5F5F5F5F5F5F5F5F5F5F5F5F5F5F5F5F5F5F5F5F5F5F5F5F5F5F5F5F5F5F5F5E2E2EFE2F5F5F5F5F5F5F5F5
310
F5F5F5F5F5F5F5F5F5F5F5F5F5F5F5F5F5F5F5F5F5F5F5F5F5F5F5F5F5F5F5F5F5F5F5F5F5F5F5F5F5F5F5F5F5F5F5F5F5F5F5F5F5F5F5F5F5F5F5F5F5F5F5F5F5F5F5F5F5F5F5F5F5F5F5F5F5F5F5F5F5F5F5F5F5F5F5F5F5F5F5F5F5F5F5F5F5F5F5F5F5F5F5F5F5F5F5F5F5F5F5F5F5F5F5F5F5F5F5F5F5F5F5F5F5F5F5
310
F5F5F5F5F5F5F5F5F5F5F5F5F5F5F5F5F5F5F5F5F5F5F5F5F5F5F5F5F5F5F5F5F5F5F5F5F5F5F5F5F5E2E2EFE2F5F5F5F5F5F5F5F5F5F5F5F5F5F5F5F5F5F5F5F5F5F5F5F5F5F5F5F5F5F5F5F5F5F5F5F5F5F5F5F5F5F5F5F5F5F5F5F5F5F5F5F5F5F5F5F5F5F5F5F5F5F5F5F5F5F5F5F5F5F5F5F5F5F5F5F5F5F5F5F5F5F5
310
F5F5F5F5F5F5F5F5F5F5F5F5F5F5F5F5F5F5F5F5F5F5F5F5F5F5F5F5F5F5F5F5F5F5F5F5F5F5F5F5F5F5F5F5F5F5F5F5F5F5F5F5F5F5F5F5F5F5F5F5F5F5F5F5F5F5F5F5F5F5F5F5F5F5F5F5F5F5F5F5F5F5F5F5F5F5F5F5F5F5F5F5F5F5E2E2EFE2F5E2F5F5F5F5F5F5F5F5F5F5F5F5F5F5F5F5F5F5F5F5F5F5F5F5F5F5F5
310
F5F5F5F5F5F5F5F5F5F5F5F5F5F5F5F5F5F5F5F5F5F5F5F5F5F5F5F5F5F5F5F5F5F5F5F5F5F5F5F5F5F5F5F5F5F5F5F5F5F5F5F5F5F5F5F5F5F5F5F5F5F5F5F5F5F5F5F5F5F5F5F5F5F5F5F5F5F5F5F5F5F5F5F5F5F5F5F5F5F5F5F5F5F5F5F5F5F5F5F5F5F5F5F5F5F5F5F5F5F5F5F5F5F5F5F5F5F5F5F5F5F5F5F5F5F5F5
310
F5F5F5F5F5F5F5F5F5F5F5F5F5F5F5F5F5F5E2F5E2E2EFE2F5E2F5F5F5F5F5F5F5F5F5F5F5F5F5F5F5F5F5F5F5F5F5F5F5F5F5F5F5F5F5F5F5F5F5F5F5F5F5F5F5F5F5F5F5F5F5F5F5F5F5F5F5F5F5F5F5F5F5F5F5F5F5F5F5F5F5F5F5F5F5F5F5F5F5F5F5F5F5F5F5F5F5F5F5F5F5F5F5F5F5F5F5F5F5F5F5F5F5F5F5F5F5
310
F5F5F5F5F5F5F5F5F5F5F5F5F5F5F5F5F5F5F5F5F5F5F5F5F5F5F5F5F5F5F5F5F5F5F5F5F5F5F5F5F5F5F5F5F5F5F5F5F5F5F5F5F5F5F5F5F5F5F5F5F5F5F5F5F5F5F5F5F5F5F5E2F5E2E2EFE2F5E2F5F5F5F5F5F5F5F5F5F5F5F5F5F5F5F5F5F5F5F5F5F5F5F5F5F5F5F5F5F5F5F5F5F5F5F5F5F5F5F5F5F5F5F5F5F5F5F5
310
F5F5F5F5F5F5F5F5F5F5F5F5F5F5F5F5F5F5F5F5F5F5F5F5F5F5F5F5F5F5F5F5F5F5F5F5F5F5F5F5F5F5F5F5F5F5F5F5F5F5F5F5F5F5F5F5F5F5F5F5F5F5F5F5F5F5F5F5F5F5F5F5F5F5F5F5F5F5F5F5F5F5F5F5F5F5F5F5F5F5F5F5F5F5F5F5F5F5F5F5F5F5F5F5F5F5F5F5F5F5F5F5F5F5F5F5F5F5F5F5F5F5F5F5E2F5E2
310
E2EFE2F5E2F5F5F5F5F5F5F5F5F5F5F5F5F5F5F5F5F5F5F5F5F5F5F5F5F5F5F5F5F5F5F5F5F5F5F5F5F5F5F5F5F5F5F5F5F5F5F5F5F5F5F5F5F5F5F5F5F5F5F5F5F5F5F5F5F5F5F5F5F5F5F5F5F5F5F5F5F5F5F5F5F5F5F5F5F5F5F5F5F5F5F5F5F5F5F5F5F5F5F5F5F5F5F5F5F5F5F5F5F5F5F5F5F5F5F5F5F5F5F5F5F5F5
310
F5F5F5F5F5F5F5F5F5F5F5F5F5F5F5F5F5F5F5F5F5F5F5F5F5F5F5F5F5F5F5F5F5F5F5F5F5F5F5F5F5F5F5F5F5F5F5F5F5F5E2F5E2E2EFE2F5E2F5F5F5F5F5F5F5F5F5F5F5F5F5F5F5F5F5F5F5F5F5F5F5F5F5F5F5F5F5F5F5F5F5F5F5F5F5F5F5F5F5F5F5F5F5F5F5F5F5F5F5F5F5F5F5F5F5F5F5F5F5F5F5F5F5F5F5F5F5
310
F5F5F5F5F5F5F5F5F5F5F5F5F5F5F5F5F5F5F5F5F5F5F5F5F5F5F5F5F5F5F5F5F5F5F5F5F5F5F5F5F5F5F5F5F5F5F5F5F5F5F5F5F5F5F5F5F5F5F5F5F5F5F5F5F5F5F5F5F5F5F5F5F5F5F5F5F5F5F5F5F5F5F5F5F5F5F5F5F5F5F5F5F5F5F5F5F5F5F5F5F5F5F5E2F5E2E2EFE2F5E2F5F5F5F5F5F5F5F5F5F5F5F5F5F5F5F5
310
F5F5F5F5F5F5F5F5F5F5F5F5F5F5F5F5F5F5F5F5F5F5F5F5F5F5F5F5F5F5F5F5F5F5F5F5F5F5F5F5F5F5F5F5F5F5F5F5F5F5F5F5F5F5F5F5F5F5F5F5F5F5F5F5F5F5F5F5F5F5F5F5F5F5F5F5F5F5F5F5F5F5F5F5F5F5F5F5F5F5F5F5F5F5F5F5F5F5F5F5F5F5F5F5F5F5F5F5F5F5F5F5F5F5F5F5F5F5F5F5F5F5F5F5F5F5F5
310
F5F5F5F5F5F5F5F5F5F5F5F5F5F5F5F5F5F5F5F5F5F5F5F5F5F5F5F5F5E2F5E2E2EFE2F5E2F5F5F5F5F5F5F5F5F5F5F5F5F5F5F5F5F5F5F5F5F5F5F5F5F5F5F5F5F5F5F5F5F5F5F5F5F5F5F5F5F5F5F5F5F5F5F5F5F5F5F5F5F5F5F5F5F5F5F5F5F5F5F5F5F5F5F5F5F5F5F5F5F5F5F5F5F5F5F5F5F5F5F5F5F5F5F5F5F5F5
310
F5F5F5F5F5F5F5F5F5F5F5F5F5F5F5F5F5F5F5F5F5F5F5F5F5F5F5F5F5F5F5F5F5F5F5F5F5F5F5F5F5F5F5F5F5F5F5F5F5F5F5F5F5F5F5F5F5F5F5F5F5F5F5F5F5F5F5F5F5F5F5F5F5F5F5F5F5F5F5F5F5F5E2F5E2E2EFE2F5E2F5F5F5F5F5F5F5F5F5F5F5F5F5F5F5F5F5F5F5F5F5F5F5F5F5F5F5F5F5F5F5F5F5F5F5F5F5
310
F5F5F5F5F5F5F5F5F5F5F5F5F5F5F5F5F5F5F5F5F5F5F5F5F5F5F5F5F5F5F5F5F5F5F5F5F5F5F5F5F5F5F5F5F5F5F5F5F5F5F5F5F5F5F5F5F5F5F5F5F5F5F5F5F5F5F5F5F5F5F5F5F5F5F5F5F5F5F5F5F5F5F5F5F5F5F5F5F5F5F5F5F5F5F5F5F5F5F5F5F5F5F5F5F5F5F5F5F5F5F5F5F5F5F5F5F5F5F5F5F5F5F5F5F5F5F5
310
F5F5F5F5F5F5F5F5E2F5E2E2EFE2F5E2F5F5F5F5F5F5F5F5F5F5F5F5F5F5F5F5F5F5F5F5F5F5F5F5F5F5F5F5F5F5F5F5F5F5F5F5F5F5F5F5F5F5F5F5F5F5F5F5F5F5F5F5F5F5F5F5F5F5F5F5F5F5F5F5F5F5F5F5F5F5F5F5F5F5F5F5F5F5F5F5F5F5F5F5F5F5F5F5F5F5F5F5F5F5F5F5F5F5F5F5F5F5F5F5F5F5F5F5F5F5F5
310
F5F5F5F5F5F5F5F5F5F5F5F5F5F5F5F5F5F5F5F5F5F5F5F5F5F5F5F5F5F5F5F5F5F5F5F5F5F5F5F5F5F5F5F5F5F5F5F5F5F5F5F5F5F5F5F5F5F5F5F5F5E2F5E2E2EFE2F5E2F5F5F5F5F5F5F5F5F5F5F5F5F5F5F5F5F5F5F5F5F5F5F5F5F5F5F5F5F5F5F5F5F5F5F5F5F5F5F5F5F5F5F5F5F5F5F5F5F5F5F5F5F5F5F5F5F5F5
310
F5F5F5F5F5F5F5F5F5F5F5F5F5F5F5F5F5F5F5F5F5F5F5F5F5F5F5F5F5F5F5F5F5F5F5F5F5F5F5F5F5F5F5F5F5F5F5F5F5F5F5F5F5F5F5F5F5F5F5F5F5F5F5F5F5F5F5F5F5F5F5F5F5F5F5F5F5F5F5F5F5F5F5F5F5F5F5F5F5F5F5F5F5F5F5F5F5F5F5F5F5F5F5F5F5F5F5F5F5F5F5F5F5F5E2F5E2E2EFE2F5E2F5F5F5F5F5
310
F5F5F5F5F5F5F5F5F5F5F5F5F5F5F5F5F5F5F5F5F5F5F5F5F5F5F5F5F5F5F5F5F5F5F5F5F5F5F5F5F5F5F5F5F5F5F5F5F5F5F5F5F5F5F5F5F5F5F5F5F5F5F5F5F5F5F5F5F5F5F5F5F5F5F5F5F5F5F5F5F5F5F5F5F5F5F5F5F5F5F5F5F5F5F5F5F5F5F5F5F5F5F5F5F5F5F5F5F5F5F5F5F5F5F5F5F5F5F5F5F5F5F5F5F5F5F5
310
F5F5F5F5F5F5F5F5F5F5F5F5F5F5F5F5F5F5F5F5F5F5F5F5F5F5F5F5F5F5F5F5F5F5F5F5F5F5F5F5E2F5E2E2EFE2F5E2F5F5F5F5F5F5F5F5F5F5F5F5F5F5F5F5F5F5F5F5F5F5F5F5F5F5F5F5F5F5F5F5F5F5F5F5F5F5F5F5F5F5F5F5F5F5F5F5F5F5F5F5F5F5F5F5F5F5F5F5F5F5F5F5F5F5F5F5F5F5F5F5F5F5F5F5F5F5F5
310
F5F5F5F5F5F5F5F5F5F5F5F5F5F5F5F5F5F5F5F5F5F5F5F5F5F5F5F5F5F5F5F5F5F5F5F5F5F5F5F5F5F5F5F5F5F5F5F5F5F5F5F5F5F5F5F5F5F5F5F5F5F5F5F5F5F5F5F5F5F5F5F5F5F5F5F5F5F5F5F5F5F5F5F5F5F5F5F5F5F5F5F5F5E2F5E2E2EFE2F5E2F5F5F5F5F5F5F5F5F5F5F5F5F5F5F5F5F5F5F5F5F5F5F5F5F5F5
310
F5F5F5F5F5F5F5F5F5F5F5F5F5F5F5F5F5F5F5F5F5F5F5F5F5F5F5F5F5F5F5F5F5F5F5F5F5F5F5F5F5F5F5F5F5F5F5F5F5F5F5F5F5F5F5F5F5F5F5F5F5F5F5F5F5F5F5F5F5F5F5F5F5F5F5F5F5F5F5F5F5F5F5F5F5F5F5F5F5F5F5F5F5F5F5F5F5F5F5F5F5F5F5F5F5F5F5F5F5F5F5F5F5F5F5F5F5F5F5F5F5F5F5F5F5F5F5
310
F5F5F5F5F5F5F5F5F5F5F5F5F5F5F5F5F5F5F5E2F5E2E2EFE2F5E2F5F5F5F5F5F5F5F5F5F5F5F5F5F5F5F5F5F5F5F5F5F5F5F5F5F5F5F5F5F5F5F5F5F5F5F5F5F5F5F5F5F5F5F5F5F5F5F5F5F5F5F5F5F5F5F5F5F5F5F5F5F5F5F5F5F5F5F5F5F5F5F5F5F5F5F5F5F5F5F5F5F5F5F5F5F5F5F5F5F5F5F5F5F5F5F5F5F5F5F5
310
F5F5F5F5F5F5F5F5F5F5F5F5F5F5F5F5F5F5F5F5F5F5F5F5F5F5F5F5F5F5F5F5F5F5F5F5F5F5F5F5F5F5F5F5F5F5F5F5F5F5F5F5F5F5F5F5F5F5F5F5F5F5F5F5F5F5F5F5F5F5F5F5E2F5E2E2EFE2F5E2F5F5F5F5F5F5F5F5F5F5F5F5F5F5F5F5F5F5F5F5F5F5F5F5F5F5F5F5F5F5F5F5F5F5F5F5F5F5F5F5F5F5F5F5F5F5F5
310
F5F5F5F5F5F5F5F5F5F5F5F5F5F5F5F5F5F5F5F5F5F5F5F5F5F5F5F5F5F5F5F5F5F5F5F5F5F5F5F5F5F5F5F5F5F5F5F5F5F5F5F5F5F5F5F5F5F5F5F5F5F5F5F5F5F5F5F5F5F5F5F5F5F5F5F5F5F5F5F5F5F5F5F5F5F5F5F5F5F5F5F5F5F5F5F5F5F5F5F5F5F5F5F5F5F5F5F5F5F5F5F5F5F5F5F5F5F5F5F5F5F5F5F5F5E2F5
310
E2E2EFE2F5E2F5F5F5F5F5F5F5F5F5F5F5F5F5F5F5F5F5F5F5F5F5F5F5F5F5F5F5F5F5F5F5F5F5F5F5F5F5F5F5F5F5F5F5F5F5F5F5F5F5F5F5F5F5F5F5F5F5F5F5F5F5F5F5F5F5F5F5F5F5F5F5F5F5F5F5F5F5F5F5F5F5F5F5F5F5F5F5F5F5F5F5F5F5F5F5F5F5F5F5F5F5F5F5F5F5F5F5F5F5F5F5F5F5F5F5F5F5F5F5F5F5
310
F5F5F5F5F5F5F5F5F5F5F5F5F5F5F5F5F5F5F5F5F5F5F5F5F5F5F5F5F5F5F5F5F5F5F5F5F5F5F5F5F5F5F5F5F5F5F5F5F5F5F5E2F5E2E2EFE2F5F5F5F5F5F5F5F5F5F5F5F5F5F5F5F5F5F5F5F5F5F5F5F5F5F5F5F5F5F5F5F5F5F5F5F5F5F5F5F5F5F5F5F5F5F5F5F5F5F5F5F5F5F5F5F5F5F5F5F5F5F5F5F5F5F5F5F5F5F5
310
F5F5F5F5F5F5F5F5F5F5F5F5F5F5F5F5F5F5F5F5F5F5F5F5F5F5F5F5F5F5F5F5F5F5F5F5F5F5F5F5F5F5F5F5F5F5F5F5F5F5F5F5F5F5F5F5F5F5F5F5F5F5F5F5F5F5F5F5F5F5F5F5F5F5F5F5F5F5F5F5F5F5F5F5F5F5F5F5F5F5F5F5F5F5F5F5F5F5F5F5F5F5F5F5F5F5E2E2EFE2F5F5F5F5F5F5F5F5F5F5F5F5F5F5F5F5F5
310
F5F5F5F5F5F5F5F5F5F5F5F5F5F5F5F5F5F5F5F5F5F5F5F5F5F5F5F5F5F5F5F5F5F5F5F5F5F5F5F5F5F5F5F5F5F5F5F5F5F5F5F5F5F5F5F5F5F5F5F5F5F5F5F5F5F5F5F5F5F5F5F5F5F5F5F5F5F5F5F5F5F5F5F5F5F5F5F5F5F5F5F5F5F5F5F5F5F5F5F5F5F5F5F5F5F5F5F5F5F5F5F5F5F5F5F5F5F5F5F5F5F5F5F5F5F5F5
310
F5F5F5F5F5F5F5F5F5F5F5F5F5F5F5F5F5F5F5F5F5F5F5F5F5F5F5F5F5F5F5F5E2E2EFE2F5F5F5F5F5F5F5F5F5F5F5F5F5F5F5F5F5F5F5F5F5F5F5F5F5F5F5F5F5F5F5F5F5F5F5F5F5F5F5F5F5F5F5F5F5F5F5F5F5F5F5F5F5F5F5F5F5F5F5F5F5F5F5F5F5F5F5F5F5F5F5F5F5F5F5F5F5F5F5F5F5F5F5F5F5F5F5F5F5F5F5
310
F5F5F5F5F5F5F5F5F5F5F5F5F5F5F5F5F5F5F5F5F5F5F5F5F5F5F5F5F5F5F5F5F5F5F5F5F5F5F5F5F5F5F5F5F5F5F5F5F5F5F5F5F5F5F5F5F5F5F5F5F5F5F5F5F5F5F5F5F5F5F5F5F5F5F5F5F5F5F5F5F5F5F5F5F5E2E2EFE2F5F5F5F5F5F5F5F5F5F5F5F5F5F5F5F5F5F5F5F5F5F5F5F5F5F5F5F5F5F5F5F5F5F5F5F5F5F5
310
F5F5F5F5F5F5F5F5F5F5F5F5F5F5F5F5F5F5F5F5F5F5F5F5F5F5F5F5F5F5F5F5F5F5F5F5F5F5F5F5F5F5F5F5F5F5F5F5F5F5F5F5F5F5F5F5F5F5F5F5F5F5F5F5F5F5F5F5F5F5F5F5F5F5F5F5F5F5F5F5F5F5F5F5F5F5F5F5F5F5F5F5F5F5F5F5F5F5F5F5F5F5F5F5F5F5F5F5F5F5F5F5F5F5F5F5F5F5F5F5F5F5F5F5F5F5F5
310
F5F5F5F5F5F5F5F5F5F5F5E2E2EFE2F5F5F5F5F5F5F5F5F5F5F5F5F5F5F5F5F5F5F5F5F5F5F5F5F5F5F5F5F5F5F5F5F5F5F5F5F5F5F5F5F5F5F5F5F5F5F5F5F5F5F5F5F5F5F5F5F5F5F5F5F5F5F5F5F5F5F5F5F5F5F5F5F5F5F5F5F5F5F5F5F5F5F5F5F5F5F5F5F5F5F5F5F5F5F5F5F5F5F5F5F5F5F5F5F5F5F5F5F5F5F5F5
310
F5F5F5F5F5F5F5F5F5F5F5F5F5F5F5F5F5F5F5F5F5F5F5F5F5F5F5F5F5F5F5F5F5F5F5F5F5F5F5F5F5F5F5F5F5F5F5F5F5F5F5F5F5F5F5F5F5F5F5F5F5F5F5F5E2E2EFE2F5F5F5F5F5F5F5F5F5F5F5F5F5F5F5F5F5F5F5F5F5F5F5F5F5F5F5F5F5F5F5F5F5F5F5F5F5F5F5F5F5F5F5F5F5F5F5F5F5F5F5F5F5F5F5F5F5F5F5
310
F5F5F5F5F5F5F5F5F5F5F5F5F5F5F5F5F5F5F5F5F5F5F5F5F5F5F5F5F5F5F5F5F5F5F5F5F5F5F5F5F5F5F5F5F5F5F5F5F5F5F5F5F5F5F5F5F5F5F5F5F5F5F5F5F5F5F5F5F5F5F5F5F5F5F5F5F5F5F5F5F5F5F5F5F5F5F5F5F5F5F5F5F5F5F5F5F5F5F5F5F5F5F5F5F5F5F5F5F5F5F5F5F5F5F5F5F5E2E2EFE2F5F5F5F5F5F5
310
F5F5F5F5F5F5F5F5F5F5F5F5F5F5F5F5F5F5F5F5F5F5F5F5F5F5F5F5F5F5F5F5F5F5F5F5F5F5F5F5F5F5F5F5F5F5F5F5F5F5F5F5F5F5F5F5F5F5F5F5F5F5F5F5F5F5F5F5F5F5F5F5F5F5F5F5F5F5F5F5F5F5F5F5F5F5F5F5F5F5F5F5F5F5F5F5F5F5F5F5F5F5F5F5F5F5F5F5F5F5F5F5F5F5F5F5F5F5F5F5F5F5F5F5F5F5F5
310
F5F5F5F5F5F5F5F5F5F5F5F5F5F5F5F5F5F5F5F5F5F5F5F5F5F5F5F5F5F5F5F5F5F5F5F5F5F5F5F5F5F5F5E2E2EFE2F5F5F5F5F5F5F5F5F5F5F5F5F5F5F5F5F5F5F5F5F5F5F5F5F5F5F5F5F5F5F5F5F5F5F5F5F5F5F5F5F5F5F5F5F5F5F5F5F5F5F5F5F5F5F5F5F5F5F5F5F5F5F5F5F5F5F5F5F5F5F5F5F5F5F5F5F5F5F5F5
310
F5F5F5F5F5F5F5F5F5F5F5F5F5F5F5F5F5F5F5F5F5F5F5F5F5F5F5F5F5F5F5F5F5F5F5F5F5F5F5F5F5F5F5F5F5F5F5F5F5F5F5F5F5F5F5F5F5F5F5F5F5F5F5F5F5F5F5F5F5F5F5F5F5F5F5F5F5F5F5F5F5F5F5F5F5F5F5F5F5F5F5F5F5F5F5F5E2E2EFE2F5E2F5F5F5F5F5F5F5F5F5F5F5F5F5F5F5F5F5F5F5F5F5F5F5F5F5
310
F5F5F5F5F5F5F5F5F5F5F5F5F5F5F5F5F5F5F5F5F5F5F5F5F5F5F5F5F5F5F5F5F5F5F5F5F5F5F5F5F5F5F5F5F5F5F5F5F5F5F5F5F5F5F5F5F5F5F5F5F5F5F5F5F5F5F5F5F5F5F5F5F5F5F5F5F5F5F5F5F5F5F5F5F5F5F5F5F5F5F5F5F5F5F5F5F5F5F5F5F5F5F5F5F5F5F5F5F5F5F5F5F5F5F5F5F5F5F5F5F5F5F5F5F5F5F5
310
F5F5F5F5F5F5F5F5F5F5F5F5F5F5F5F5F5F5F5F5E2F5E2E2EFE2F5E2F5F5F5F5F5F5F5F5F5F5F5F5F5F5F5F5F5F5F5F5F5F5F5F5F5F5F5F5F5F5F5F5F5F5F5F5F5F5F5F5F5F5F5F5F5F5F5F5F5F5F5F5F5F5F5F5F5F5F5F5F5F5F5F5F5F5F5F5F5F5F5F5F5F5F5F5F5F5F5F5F5F5F5F5F5F5F5F5F5F5F5F5F5F5F5F5F5F5F5
310
F5F5F5F5F5F5F5F5F5F5F5F5F5F5F5F5F5F5F5F5F5F5F5F5F5F5F5F5F5F5F5F5F5F5F5F5F5F5F5F5F5F5F5F5F5F5F5F5F5F5F5F5F5F5F5F5F5F5F5F5F5F5F5F5F5F5F5F5F5F5F5F5F5E2F5E2E2EFE2F5E2F5F5F5F5F5F5F5F5F5F5F5F5F5F5F5F5F5F5F5F5F5F5F5F5F5F5F5F5F5F5F5F5F5F5F5F5F5F5F5F5F5F5F5F5F5F5
310
F5F5F5F5F5F5F5F5F5F5F5F5F5F5F5F5F5F5F5F5F5F5F5F5F5F5F5F5F5F5F5F5F5F5F5F5F5F5F5F5F5F5F5F5F5F5F5F5F5F5F5F5F5F5F5F5F5F5F5F5F5F5F5F5F5F5F5F5F5F5F5F5F5F5F5F5F5F5F5F5F5F5F5F5F5F5F5F5F5F5F5F5F5F5F5F5F5F5F5F5F5F5F5F5F5F5F5F5F5F5F5F5F5F5F5F5F5F5F5F5F5F5F5F5F5F5E2
310
F5E2E2EFE2F5E2F5F5F5F5F5F5F5F5F5F5F5F5F5F5F5F5F5F5F5F5F5F5F5F5F5F5F5F5F5F5F5F5F5F5F5F5F5F5F5F5F5F5F5F5F5F5F5F5F5F5F5F5F5F5F5F5F5F5F5F5F5F5F5F5F5F5F5F5F5F5F5F5F5F5F5F5F5F5F5F5F5F5F5F5F5F5F5F5F5F5F5F5F5F5F5F5F5F5F5F5F5F5F5F5F5F5F5F5F5F5F5F5F5F5F5F5F5F5F5F5
310
F5F5F5F5F5F5F5F5F5F5F5F5F5F5F5F5F5F5F5F5F5F5F5F5F5F5F5F5F5F5F5F5F5F5F5F5F5F5F5F5F5F5F5F5F5F5F5F5F5F5F5F5E2F5E2E2EFE2F5E2F5F5F5F5F5F5F5F5F5F5F5F5F5F5F5F5F5F5F5F5F5F5F5F5F5F5F5F5F5F5F5F5F5F5F5F5F5F5F5F5F5F5F5F5F5F5F5F5F5F5F5F5F5F5F5F5F5F5F5F5F5F5F5F5F5F5F5
310
F5F5F5F5F5F5F5F5F5F5F5F5F5F5F5F5F5F5F5F5F5F5F5F5F5F5F5F5F5F5F5F5F5F5F5F5F5F5F5F5F5F5F5F5F5F5F5F5F5F5F5F5F5F5F5F5F5F5F5F5F5F5F5F5F5F5F5F5F5F5F5F5F5F5F5F5F5F5F5F5F5F5F5F5F5F5F5F5F5F5F5F5F5F5F5F5F5F5F5F5F5F5F5F5F5E2F5E2E2EFE2F5E2F5F5F5F5F5F5F5F5F5F5F5F5F5F5
310
F5F5F5F5F5F5F5F5F5F5F5F5F5F5F5F5F5F5F5F5F5F5F5F5F5F5F5F5F5F5F5F5F5F5F5F5F5F5F5F5F5F5F5F5F5F5F5F5F5F5F5F5F5F5F5F5F5F5F5F5F5F5F5F5F5F5F5F5F5F5F5F5F5F5F5F5F5F5F5F5F5F5F5F5F5F5F5F5F5F5F5F5F5F5F5F5F5F5F5F5F5F5F5F5F5F5F5F5F5F5F5F5F5F5F5F5F5F5F5F5F5F5F5F5F5F5F5
310
F5F5F5F5F5F5F5F5F5F5F5F5F5F5F5F5F5F5F5F5F5F5F5F5F5F5F5F5F5F5F5E2F5E2E2EFE2F5E2F5F5F5F5F5F5F5F5F5F5F5F5F5F5F5F5F5F5F5F5F5F5F5F5F5F5F5F5F5F5F5F5F5F5F5F5F5F5F5F5F5F5F5F5F5F5F5F5F5F5F5F5F5F5F5F5F5F5F5F5F5F5F5F5F5F5F5F5F5F5F5F5F5F5F5F5F5F5F5F5F5F5F5F5F5F5F5F5
310
F5F5F5F5F5F5F5F5F5F5F5F5F5F5F5F5F5F5F5F5F5F5F5F5F5F5F5F5F5F5F5F5F5F5F5F5F5F5F5F5F5F5F5F5F5F5F5F5F5F5F5F5F5F5F5F5F5F5F5F5F5F5F5F5F5F5F5F5F5F5F5F5F5F5F5F5F5F5F5F5F5F5F5F5E2F5E2E2EFE2F5E2F5F5F5F5F5F5F5F5F5F5F5F5F5F5F5F5F5F5F5F5F5F5F5F5F5F5F5F5F5F5F5F5F5F5F5
310
F5F5F5F5F5F5F5F5F5F5F5F5F5F5F5F5F5F5F5F5F5F5F5F5F5F5F5F5F5F5F5F5F5F5F5F5F5F5F5F5F5F5F5F5F5F5F5F5F5F5F5F5F5F5F5F5F5F5F5F5F5F5F5F5F5F5F5F5F5F5F5F5F5F5F5F5F5F5F5F5F5F5F5F5F5F5F5F5F5F5F5F5F5F5F5F5F5F5F5F5F5F5F5F5F5F5F5F5F5F5F5F5F5F5F5F5F5F5F5F5F5F5F5F5F5F5F5
310
F5F5F5F5F5F5F5F5F5F5E2F5E2E2EFE2F5E2F5F5F5F5F5F5F5F5F5F5F5F5F5F5F5F5F5F5F5F5F5F5F5F5F5F5F5F5F5F5F5F5F5F5F5F5F5F5F5F5F5F5F5F5F5F5F5F5F5F5F5F5F5F5F5F5F5F5F5F5F5F5F5F5F5F5F5F5F5F5F5F5F5F5F5F5F5F5F5F5F5F5F5F5F5F5F5F5F5F5F5F5F5F5F5F5F5F5F5F5F5F5F5F5F5F5F5F5F5
310
F5F5F5F5F5F5F5F5F5F5F5F5F5F5F5F5F5F5F5F5F5F5F5F5F5F5F5F5F5F5F5F5F5F5F5F5F5F5F5F5F5F5F5F5F5F5F5F5F5F5F5F5F5F5F5F5F5F5F5F5F5F5F5E2F5E2E2EFE2F5E2F5F5F5F5F5F5F5F5F5F5F5F5F5F5F5F5F5F5F5F5F5F5F5F5F5F5F5F5F5F5F5F5F5F5F5F5F5F5F5F5F5F5F5F5F5F5F5F5F5F5F5F5F5F5F5F5
310
F5F5F5F5F5F5F5F5F5F5F5F5F5F5F5F5F5F5F5F5F5F5F5F5F5F5F5F5F5F5F5F5F5F5F5F5F5F5F5F5F5F5F5F5F5F5F5F5F5F5F5F5F5F5F5F5F5F5F5F5F5F5F5F5F5F5F5F5F5F5F5F5F5F5F5F5F5F5F5F5F5F5F5F5F5F5F5F5F5F5F5F5F5F5F5F5F5F5F5F5F5F5F5F5F5F5F5F5F5F5F5F5F5F5F5F5E2F5E2E2EFE2F5E2F5F5F5
310
F5F5F5F5F5F5F5F5F5F5F5F5F5F5F5F5F5F5F5F5F5F5F5F5F5F5F5F5F5F5F5F5F5F5F5F5F5F5F5F5F5F5F5F5F5F5F5F5F5F5F5F5F5F5F5F5F5F5F5F5F5F5F5F5F5F5F5F5F5F5F5F5F5F5F5F5F5F5F5F5F5F5F5F5F5F5F5F5F5F5F5F5F5F5F5F5F5F5F5F5F5F5F5F5F5F5F5F5F5F5F5F5F5F5F5F5F5F5F5F5F5F5F5F5F5F5F5
310
F5F5F5F5F5F5F5F5F5F5F5F5F5F5F5F5F5F5F5F5F5F5F5F5F5F5F5F5F5F5F5F5F5F5F5F5F5F5F5F5F5F5E2F5E2E2EFE2F5E2F5F5F5F5F5F5F5F5F5F5F5F5F5F5F5F5F5F5F5F5F5F5F5F5F5F5F5F5F5F5F5F5F5F5F5F5F5F5F5F5F5F5F5F5F5F5F5F5F5F5F5F5F5F5F5F5F5F5F5F5F5F5F5F5F5F5F5F5F5F5F5F5F5F5F5F5F5
310
F5F5F5F5F5F5F5F5F5F5F5F5F5F5F5F5F5F5F5F5F5F5F5F5F5F5F5F5F5F5F5F5F5F5F5F5F5F5F5F5F5F5F5F5F5F5F5F5F5F5F5F5F5F5F5F5F5F5F5F5F5F5F5F5F5F5F5F5F5F5F5F5F5F5F5F5F5F5F5F5F5F5F5F5F5F5F5F5F5F5F5F5F5F5F5E2F5E2E2EFE2F5E2F5F5F5F5F5F5F5F5F5F5F5F5F5F5F5F5F5F5F5F5F5F5F5F5
310
F5F5F5F5F5F5F5F5F5F5F5F5F5F5F5F5F5F5F5F5F5F5F5F5F5F5F5F5F5F5F5F5F5F5F5F5F5F5F5F5F5F5F5F5F5F5F5F5F5F5F5F5F5F5F5F5F5F5F5F5F5F5F5F5F5F5F5F5F5F5F5F5F5F5F5F5F5F5F5F5F5F5F5F5F5F5F5F5F5F5F5F5F5F5F5F5F5F5F5F5F5F5F5F5F5F5F5F5F5F5F5F5F5F5F5F5F5F5F5F5F5F5F5F5F5F5F5
310
F5F5F5F5F5F5F5F5F5F5F5F5F5F5F5F5F5F5F5F5F5E2F5E2E2EFE2F5E2F5F5F5F5F5F5F5F5F5F5F5F5F5F5F5F5F5F5F5F5F5F5F5F5F5F5F5F5F5F5F5F5F5F5F5F5F5F5F5F5F5F5F5F5F5F5F5F5F5F5F5F5F5F5F5F5F5F5F5F5F5F5F5F5F5F5F5F5F5F5F5F5F5F5F5F5F5F5F5F5F5F5F5F5F5F5F5F5F5F5F5F5F5F5F5F5F5F5
310
F5F5F5F5F5F5F5F5F5F5F5F5F5F5F5F5F5F5F5F5F5F5F5F5F5F5F5F5F5F5F5F5F5F5F5F5F5F5F5F5F5F5F5F5F5F5F5F5F5F5F5F5F5F5F5F5F5F5F5F5F5F5F5F5F5F5F5F5F5F5F5F5F5F5E2F5E2E2EFE2F5E2F5F5F5F5F5F5F5F5F5F5F5F5F5F5F5F5F5F5F5F5F5F5F5F5F5F5F5F5F5F5F5F5F5F5F5F5F5F5F5F5F5F5F5F5F5
310
F5F5F5F5F5F5F5F5F5F5F5F5F5F5F5F5F5F5F5F5F5F5F5F5F5F5F5F5F5F5F5F5F5F5F5F5F5F5F5F5F5F5F5F5F5F5F5F5F5F5F5F5F5F5F5F5F5F5F5F5F5F5F5F5F5F5F5F5F5F5F5F5F5F5F5F5F5F5F5F5F5F5F5F5F5F5F5F5F5F5F5F5F5F5F5F5F5F5F5F5F5F5F5F5F5F5F5F5F5F5F5F5F5F5F5F5F5F5F5F5F5F5F5F5F5F5F5
310
E2F5E2E2EFE2F5E2F5F5F5F5F5F5F5F5F5F5F5F5F5F5F5F5F5F5F5F5F5F5F5F5F5F5F5F5F5F5F5F5F5F5F5F5F5F5F5F5F5F5F5F5F5F5F5F5F5F5F5F5F5F5F5F5F5F5F5F5F5F5F5F5F5F5F5F5F5F5F5F5F5F5F5F5F5F5F5F5F5F5F5F5F5F5F5F5F5F5F5F5F5F5F5F5F5F5F5F5F5F5F5F5F5F5F5F5F5F5F5F5F5F5F5F5F5F5F5
310
F5F5F5F5F5F5F5F5F5F5F5F5F5F5F5F5F5F5F5F5F5F5F5F5F5F5F5F5F5F5F5F5F5F5F5F5F5F5F5F5F5F5F5F5F5F5F5F5F5F5F5F5F5E2F5E2E2EFE2F5F5F5F5F5F5F5F5F5F5F5F5F5F5F5F5F5F5F5F5F5F5F5F5F5F5F5F5F5F5F5F5F5F5F5F5F5F5F5F5F5F5F5F5F5F5F5F5F5F5F5F5F5F5F5F5F5F5F5F5F5F5F5F5F5F5F5F5
310
F5F5F5F5F5F5F5F5F5F5F5F5F5F5F5F5F5F5F5F5F5F5F5F5F5F5F5F5F5F5F5F5F5F5F5F5F5F5F5F5F5F5F5F5F5F5F5F5F5F5F5F5F5F5F5F5F5F5F5F5F5F5F5F5F5F5F5F5F5F5F5F5F5F5F5F5F5F5F5F5F5F5F5F5F5F5F5F5F5F5F5F5F5F5F5F5F5F5F5F5F5F5F5F5F5F5F5F5E2E2EFE2F5F5F5F5F5F5F5F5F5F5F5F5F5F5F5
310
F5F5F5F5F5F5F5F5F5F5F5F5F5F5F5F5F5F5F5F5F5F5F5F5F5F5F5F5F5F5F5F5F5F5F5F5F5F5F5F5F5F5F5F5F5F5F5F5F5F5F5F5F5F5F5F5F5F5F5F5F5F5F5F5F5F5F5F5F5F5F5F5F5F5F5F5F5F5F5F5F5F5F5F5F5F5F5F5F5F5F5F5F5F5F5F5F5F5F5F5F5F5F5F5F5F5F5F5F5F5F5F5F5F5F5F5F5F5F5F5F5F5F5F5F5F5F5
310
F5F5F5F5F5F5F5F5F5F5F5F5F5F5F5F5F5F5F5F5F5F5F5F5F5F5F5F5F5F5F5F5F5F5E2E2EFE2F5F5F5F5F5F5F5F5F5F5F5F5F5F5F5F5F5F5F5F5F5F5F5F5F5F5F5F5F5F5F5F5F5F5F5F5F5F5F5F5F5F5F5F5F5F5F5F5F5F5F5F5F5F5F5F5F5F5F5F5F5F5F5F5F5F5F5F5F5F5F5F5F5F5F5F5F5F5F5F5F5F5F5F5F5F5F5F5F5
310
F5F5F5F5F5F5F5F5F5F5F5F5F5F5F5F5F5F5F5F5F5F5F5F5F5F5F5F5F5F5F5F5F5F5F5F5F5F5F5F5F5F5F5F5F5F5F5F5F5F5F5F5F5F5F5F5F5F5F5F5F5F5F5F5F5F5F5F5F5F5F5F5F5F5F5F5F5F5F5F5F5F5F5F5F5F5F5E2E2EFE2F5F5F5F5F5F5F5F5F5F5F5F5F5F5F5F5F5F5F5F5F5F5F5F5F5F5F5F5F5F5F5F5F5F5F5F5
310
F5F5F5F5F5F5F5F5F5F5F5F5F5F5F5F5F5F5F5F5F5F5F5F5F5F5F5F5F5F5F5F5F5F5F5F5F5F5F5F5F5F5F5F5F5F5F5F5F5F5F5F5F5F5F5F5F5F5F5F5F5F5F5F5F5F5F5F5F5F5F5F5F5F5F5F5F5F5F5F5F5F5F5F5F5F5F5F5F5F5F5F5F5F5F5F5F5F5F5F5F5F5F5F5F5F5F5F5F5F5F5F5F5F5F5F5F5F5F5F5F5F5F5F5F5F5F5
310
F5F5F5F5F5F5F5F5F5F5F5F5F5E2E2EFE2F5F5F5F5F5F5F5F5F5F5F5F5F5F5F5F5F5F5F5F5F5F5F5F5F5F5F5F5F5F5F5F5F5F5F5F5F5F5F5F5F5F5F5F5F5F5F5F5F5F5F5F5F5F5F5F5F5F5F5F5F5F5F5F5F5F5F5F5F5F5F5F5F5F5F5F5F5F5F5F5F5F5F5F5F5F5F5F5F5F5F5F5F5F5F5F5F5F5F5F5F5F5F5F5F5F5F5F5F5F5
310
F5F5F5F5F5F5F5F5F5F5F5F5F5F5F5F5F5F5F5F5F5F5F5F5F5F5F5F5F5F5F5F5F5F5F5F5F5F5F5F5F5F5F5F5F5F5F5F5F5F5F5F5F5F5F5F5F5F5F5F5F5F5F5F5F5F5E2E2EFE2F5F5F5F5F5F5F5F5F5F5F5F5F5F5F5F5F5F5F5F5F5F5F5F5F5F5F5F5F5F5F5F5F5F5F5F5F5F5F5F5F5F5F5F5F5F5F5F5F5F5F5F5F5F5F5F5F5
310
F5F5F5F5F5F5F5F5F5F5F5F5F5F5F5F5F5F5F5F5F5F5F5F5F5F5F5F5F5F5F5F5F5F5F5F5F5F5F5F5F5F5F5F5F5F5F5F5F5F5F5F5F5F5F5F5F5F5F5F5F5F5F5F5F5F5F5F5F5F5F5F5F5F5F5F5F5F5F5F5F5F5F5F5F5F5F5F5F5F5F5F5F5F5F5F5F5F5F5F5F5F5F5F5F5F5F5F5F5F5F5F5F5F5F5F5F5F5F5E2E2EFE2F5F5F5F5
310
F5F5F5F5F5F5F5F5F5F5F5F5F5F5F5F5F5F5F5F5F5F5F5F5F5F5F5F5F5F5F5F5F5F5F5F5F5F5F5F5F5F5F5F5F5F5F5F5F5F5F5F5F5F5F5F5F5F5F5F5F5F5F5F5F5F5F5F5F5F5F5F5F5F5F5F5F5F5F5F5F5F5F5F5F5F5F5F5F5F5F5F5F5F5F5F5F5F5F5F5F5F5F5F5F5F5F5F5F5F5F5F5F5F5F5F5F5F5F5F5F5F5F5F5F5F5F5
310
F5F5F5F5F5F5F5F5F5F5F5F5F5F5F5F5F5F5F5F5F5F5F5F5F5F5F5F5F5F5F5F5F5F5F5F5F5F5F5F5F5F5F5F5F5E2E2EFE2F5F5F5F5F5F5F5F5F5F5F5F5F5F5F5F5F5F5F5F5F5F5F5F5F5F5F5F5F5F5F5F5F5F5F5F5F5F5F5F5F5F5F5F5F5F5F5F5F5F5F5F5F5F5F5F5F5F5F5F5F5F5F5F5F5F5F5F5F5F5F5F5F5F5F5F5F5F5
310
F5F5F5F5F5F5F5F5F5F5F5F5F5F5F5F5F5F5F5F5F5F5F5F5F5F5F5F5F5F5F5F5F5F5F5F5F5F5F5F5F5F5F5F5F5F5F5F5F5F5F5F5F5F5F5F5F5F5F5F5F5F5F5F5F5F5F5F5F5F5F5F5F5F5F5F5F5F5F5F5F5F5F5F5F5F5F5F5F5F5F5F5F5F5F5F5F5F5E2E2EFE2F5F5F5F5F5F5F5F5F5F5F5F5F5F5F5F5F5F5F5F5F5F5F5F5F5
310
F5F5F5F5F5F5F5F5F5F5F5F5F5F5F5F5F5F5F5F5F5F5F5F5F5F5F5F5F5F5F5F5F5F5F5F5F5F5F5F5F5F5F5F5F5F5F5F5F5F5F5F5F5F5F5F5F5F5F5F5F5F5F5F5F5F5F5F5F5F5F5F5F5F5F5F5F5F5F5F5F5F5F5F5F5F5F5F5F5F5F5F5F5F5F5F5F5F5F5F5F5F5F5F5F5F5F5F5F5F5F5F5F5F5F5F5F5F5F5F5F5F5F5F5F5F5F5
310
F5F5F5F5F5F5F5F5F5F5F5F5F5F5F5F5F5F5F5F5F5F5F5F5E2E2EFE2F5E2F5F5F5F5F5F5F5F5F5F5F5F5F5F5F5F5F5F5F5F5F5F5F5F5F5F5F5F5F5F5F5F5F5F5F5F5F5F5F5F5F5F5F5F5F5F5F5F5F5F5F5F5F5F5F5F5F5F5F5F5F5F5F5F5F5F5F5F5F5F5F5F5F5F5F5F5F5F5F5F5F5F5F5F5F5F5F5F5F5F5F5F5F5F5F5F5F5
310
F5F5F5F5F5F5F5F5F5F5F5F5F5F5F5F5F5F5F5F5F5F5F5F5F5F5F5F5F5F5F5F5F5F5F5F5F5F5F5F5F5F5F5F5F5F5F5F5F5F5F5F5F5F5F5F5F5F5F5F5F5F5F5F5F5F5F5F5F5F5F5F5F5F5F5E2F5E2E2EFE2F5E2F5F5F5F5F5F5F5F5F5F5F5F5F5F5F5F5F5F5F5F5F5F5F5F5F5F5F5F5F5F5F5F5F5F5F5F5F5F5F5F5F5F5F5F5
310
F5F5F5F5F5F5F5F5F5F5F5F5F5F5F5F5F5F5F5F5F5F5F5F5F5F5F5F5F5F5F5F5F5F5F5F5F5F5F5F5F5F5F5F5F5F5F5F5F5F5F5F5F5F5F5F5F5F5F5F5F5F5F5F5F5F5F5F5F5F5F5F5F5F5F5F5F5F5F5F5F5F5F5F5F5F5F5F5F5F5F5F5F5F5F5F5F5F5F5F5F5F5F5F5F5F5F5F5F5F5F5F5F5F5F5F5F5F5F5F5F5F5F5F5F5F5F5
310
F5E2F5E2E2EFE2F5E2F5F5F5F5F5F5F5F5F5F5F5F5F5F5F5F5F5F5F5F5F5F5F5F5F5F5F5F5F5F5F5F5F5F5F5F5F5F5F5F5F5F5F5F5F5F5F5F5F5F5F5F5F5F5F5F5F5F5F5F5F5F5F5F5F5F5F5F5F5F5F5F5F5F5F5F5F5F5F5F5F5F5F5F5F5F5F5F5F5F5F5F5F5F5F5F5F5F5F5F5F5F5F5F5F5F5F5F5F5F5F5F5F5F5F5F5F5F5
310
F5F5F5F5F5F5F5F5F5F5F5F5F5F5F5F5F5F5F5F5F5F5F5F5F5F5F5F5F5F5F5F5F5F5F5F5F5F5F5F5F5F5F5F5F5F5F5F5F5F5F5F5F5F5E2F5E2E2EFE2F5E2F5F5F5F5F5F5F5F5F5F5F5F5F5F5F5F5F5F5F5F5F5F5F5F5F5F5F5F5F5F5F5F5F5F5F5F5F5F5F5F5F5F5F5F5F5F5F5F5F5F5F5F5F5F5F5F5F5F5F5F5F5F5F5F5F5
310
F5F5F5F5F5F5F5F5F5F5F5F5F5F5F5F5F5F5F5F5F5F5F5F5F5F5F5F5F5F5F5F5F5F5F5F5F5F5F5F5F5F5F5F5F5F5F5F5F5F5F5F5F5F5F5F5F5F5F5F5F5F5F5F5F5F5F5F5F5F5F5F5F5F5F5F5F5F5F5F5F5F5F5F5F5F5F5F5F5F5F5F5F5F5F5F5F5F5F5F5F5F5F5F5F5F5F5E2F5E2E2EFE2F5E2F5F5F5F5F5F5F5F5F5F5F5F5
310
F5F5F5F5F5F5F5F5F5F5F5F5F5F5F5F5F5F5F5F5F5F5F5F5F5F5F5F5F5F5F5F5F5F5F5F5F5F5F5F5F5F5F5F5F5F5F5F5F5F5F5F5F5F5F5F5F5F5F5F5F5F5F5F5F5F5F5F5F5F5F5F5F5F5F5F5F5F5F5F5F5F5F5F5F5F5F5F5F5F5F5F5F5F5F5F5F5F5F5F5F5F5F5F5F5F5F5F5F5F5F5F5F5F5F5F5F5F5F5F5F5F5F5F5F5F5F5
310
F5F5F5F5F5F5F5F5F5F5F5F5F5F5F5F5F5F5F5F5F5F5F5F5F5F5F5F5F5F5F5F5F5E2F5E2E2EFE2F5E2F5F5F5F5F5F5F5F5F5F5F5F5F5F5F5F5F5F5F5F5F5F5F5F5F5F5F5F5F5F5F5F5F5F5F5F5F5F5F5F5F5F5F5F5F5F5F5F5F5F5F5F5F5F5F5F5F5F5F5F5F5F5F5F5F5F5F5F5F5F5F5F5F5F5F5F5F5F5F5F5F5F5F5F5F5F5
310
F5F5F5F5F5F5F5F5F5F5F5F5F5F5F5F5F5F5F5F5F5F5F5F5F5F5F5F5F5F5F5F5F5F5F5F5F5F5F5F5F5F5F5F5F5F5F5F5F5F5F5F5F5F5F5F5F5F5F5F5F5F5F5F5F5F5F5F5F5F5F5F5F5F5F5F5F5F5F5F5F5F5F5F5F5F5E2F5E2E2EFE2F5E2F5F5F5F5F5F5F5F5F5F5F5F5F5F5F5F5F5F5F5F5F5F5F5F5F5F5F5F5F5F5F5F5F5
310
F5F5F5F5F5F5F5F5F5F5F5F5F5F5F5F5F5F5F5F5F5F5F5F5F5F5F5F5F5F5F5F5F5F5F5F5F5F5F5F5F5F5F5F5F5F5F5F5F5F5F5F5F5F5F5F5F5F5F5F5F5F5F5F5F5F5F5F5F5F5F5F5F5F5F5F5F5F5F5F5F5F5F5F5F5F5F5F5F5F5F5F5F5F5F5F5F5F5F5F5F5F5F5F5F5F5F5F5F5F5F5F5F5F5F5F5F5F5F5F5F5F5F5F5F5F5F5
310
F5F5F5F5F5F5F5F5F5F5F5F5E2F5E2E2EFE2F5E2E2E2E2E2E2E2E2F5F5F5F5F5F5F5F5F5E2E2E2E2E2E2E2E2E2E2E2E2E2E2E2E2F5F5F5F5F5F5F5F5F5E2E2E2E2E2E2E2E2E2E2E2E2E2E2E2E2F5F5F5F5F5F5F5F5F5E2E2E2E2E2E2E2E2E2E2E2E2E2E2E2E2F5F5F5F5F5F5F5F5E2E2E2E2E2E2E2E2E2E2E2E2E2E2E2E2F5
310
F5F5F5F5F5F5F5F5E2E2E2E2E2E2E2E2E2E2E2E2E2E2E2E2F5F5F5F5F5F5F5F5F5E2E2E2E2E2E2E2E2E2E2E2E2E2E2E2E2F5F5F5F5F5F5F5F5F5E2E2E2E2E2E2E2E2F5E2E2EFE2F5F5F5F5F5F5F5F5F5F5F5F5F5F5F5F5F5F5F5F5F5F5F5F5F5F5F5F5F5F5F5F5F5F5F5F5F5F5F5F5F5F5F5F5F5F5F5F5F5F5F5F5F5F5F5F5
310
F5F5F5F5F5F5F5F5F5F5F5F5F5F5F5F5F5F5F5F5F5F5F5F5F5F5F5F5F5F5F5F5F5F5F5F5F5F5F5F5F5F5F5F5F5F5F5F5F5F5F5F5F5F5F5F5F5F5F5F5F5F5F5F5F5F5F5F5F5F5F5F5F5F5F5F5F5F5F5F5F5F5F5F5F5F5F5F5F5F5F5F5F5F5F5F5F5F5F5F5F5F5F5F5F5F5F5F5F5F5F5F5F5F5F5F5F5F5F5F5E2EFEFE2E2E2E2
310
E2E2E2E2E2E2E2E2E2E2E2E2E2E2E2E2E2E2E2E2E2E2E2E2E2E2E2E2E2E2E2E2E2E2E2E2E2E2E2E2E2E2E2E2E2E2E2E2E2E2E2E2E2E2E2E2E2E2E2E2E2E2E2E2E2E2E2E2E2E2E2E2E2E2E2E2E2E2E2E2E2E2E2E2E2E2E2E2E2E2E2E2E2E2E2E2E2E2E2E2E2E2E2E2E2E2E2E2E2E2E2E2E2E2E2E2E2E2E2E2E2E2E2E2E2E2E2
310
E2E2E2E2E2E2E2E2E2E2E2E2E2E2E2E2E2E2E2E2E2E2E2E2E2E2E2E2E2E2E2E2E2E2E2E2E2E2E2E2E2E2E2E2E2E2E2EF
  0
XRECORD
  5
2EC1E
102
{ACAD_REACTORS
330
2EC1D
102
}
330
2EC1D
100
AcDbXrecord
280
     1
102
SHADEPLOT
 70
     0
102
SHADEPLOTRESLEVEL
 70
     2
102
SHADEPLOTCUSTOMDPI
 70
   300
  0
XRECORD
  5
2EC3A
102
{ACAD_REACTORS
330
2EC39
102
}
330
2EC39
100
AcDbXrecord
280
     1
102
MATERIAL
148
0.0
149
0.0
149
0.0
 93
        0
 94
       63
282
     0
 72
     1
 77
     1
171
     1
175
     1
179
     1
273
     0
  0
XRECORD
  5
2EC38
102
{ACAD_REACTORS
330
2EC37
102
}
330
2EC37
100
AcDbXrecord
280
     1
102
MATERIAL
148
0.0
149
0.0
149
0.0
 93
        0
 94
       63
282
     0
 72
     1
 77
     1
171
     1
175
     1
179
     1
273
     0
  0
XRECORD
  5
2EC3C
102
{ACAD_REACTORS
330
2EC3B
102
}
330
2EC3B
100
AcDbXrecord
280
     1
102
MATERIAL
148
0.0
149
0.0
149
0.0
 93
        0
 94
       63
282
     0
 72
     1
 77
     1
171
     1
175
     1
179
     1
273
     0
  0
XRECORD
  5
2EC22
102
{ACAD_REACTORS
330
2EC21
102
}
330
2EC21
100
AcDbXrecord
280
     1
102
SHADEPLOT
 70
     0
102
SHADEPLOTRESLEVEL
 70
     2
102
SHADEPLOTCUSTOMDPI
 70
   300
  0
XRECORD
  5
2EC24
102
{ACAD_REACTORS
330
2EC23
102
}
330
2EC23
100
AcDbXrecord
280
     1
102
SHADEPLOT
 70
     0
102
SHADEPLOTRESLEVEL
 70
     2
102
SHADEPLOTCUSTOMDPI
 70
   300
  0
XRECORD
  5
2EC26
102
{ACAD_REACTORS
330
2EC25
102
}
330
2EC25
100
AcDbXrecord
280
     1
102
SHADEPLOT
 70
     0
102
SHADEPLOTRESLEVEL
 70
     2
102
SHADEPLOTCUSTOMDPI
 70
   300
  0
XRECORD
  5
2EC28
102
{ACAD_REACTORS
330
2EC27
102
}
330
2EC27
100
AcDbXrecord
280
     1
102
SHADEPLOT
 70
     0
102
SHADEPLOTRESLEVEL
 70
     2
102
SHADEPLOTCUSTOMDPI
 70
   300
  0
XRECORD
  5
2EC2A
102
{ACAD_REACTORS
330
2EC29
102
}
330
2EC29
100
AcDbXrecord
280
     1
102
SHADEPLOT
 70
     0
102
SHADEPLOTRESLEVEL
 70
     2
102
SHADEPLOTCUSTOMDPI
 70
   300
  0
XRECORD
  5
2EC2C
102
{ACAD_REACTORS
330
2EC2B
102
}
330
2EC2B
100
AcDbXrecord
280
     1
102
SHADEPLOT
 70
     0
102
SHADEPLOTRESLEVEL
 70
     2
102
SHADEPLOTCUSTOMDPI
 70
   300
  0
XRECORD
  5
2EC2E
102
{ACAD_REACTORS
330
2EC2D
102
}
330
2EC2D
100
AcDbXrecord
280
     1
102
SHADEPLOT
 70
     0
102
SHADEPLOTRESLEVEL
 70
     2
102
SHADEPLOTCUSTOMDPI
 70
   300
  0
XRECORD
  5
2EC30
102
{ACAD_REACTORS
330
2EC2F
102
}
330
2EC2F
100
AcDbXrecord
280
     1
102
SHADEPLOT
 70
     0
102
SHADEPLOTRESLEVEL
 70
     2
102
SHADEPLOTCUSTOMDPI
 70
   300
  0
XRECORD
  5
2EC32
102
{ACAD_REACTORS
330
2EC31
102
}
330
2EC31
100
AcDbXrecord
280
     1
102
SHADEPLOT
 70
     0
102
SHADEPLOTRESLEVEL
 70
     2
102
SHADEPLOTCUSTOMDPI
 70
   300
  0
XRECORD
  5
2EC34
102
{ACAD_REACTORS
330
2EC33
102
}
330
2EC33
100
AcDbXrecord
280
     1
102
SHADEPLOT
 70
     0
102
SHADEPLOTRESLEVEL
 70
     2
102
SHADEPLOTCUSTOMDPI
 70
   300
  0
XRECORD
  5
2EC20
102
{ACAD_REACTORS
330
2EC1F
102
}
330
2EC1F
100
AcDbXrecord
280
     1
102
ACAD_ROUNDTRIP_PRE2007_TABLESTYLE
 90
        4
 91
        0
  1

 92
        4
 93
        0
  2

 94
        4
 95
        0
  3

  0
ENDSEC
  0
EOF
