  0
SECTION
  2
HEADER
  9
$ACADVER
  1
AC1015
  9
$ACADMAINTVER
 70
    20
  9
$DWGCODEPAGE
  3
ANSI_932
  9
$INSBASE
 10
0.0
 20
0.0
 30
0.0
  9
$EXTMIN
 10
64.43309838498271
 20
44.69794579326936
 30
-0.0015258207003583
  9
$EXTMAX
 10
484.5243489738682
 20
341.8492694720244
 30
0.0000000349246037
  9
$LIMMIN
 10
1700.85588156276
 20
1647.985052086429
  9
$LIMMAX
 10
1997.85588156276
 20
1857.985052086429
  9
$ORTHOMODE
 70
     0
  9
$REGENMODE
 70
     1
  9
$FILLMODE
 70
     1
  9
$QTEXTMODE
 70
     0
  9
$MIRRTEXT
 70
     0
  9
$LTSCALE
 40
1.0
  9
$ATTMODE
 70
     1
  9
$TEXTSIZE
 40
3.2
  9
$TRACEWID
 40
1.0
  9
$TEXTSTYLE
  7
STANDARD
  9
$CLAYER
  8
AM_0
  9
$CELTYPE
  6
ByLayer
  9
$CECOLOR
 62
   256
  9
$CELTSCALE
 40
1.0
  9
$DISPSILH
 70
     0
  9
$DIMSCALE
 40
1.0
  9
$DIMASZ
 40
1.0
  9
$DIMEXO
 40
1.0
  9
$DIMDLI
 40
10.0
  9
$DIMRND
 40
0.0
  9
$DIMDLE
 40
0.0
  9
$DIMEXE
 40
1.0
  9
$DIMTP
 40
0.1
  9
$DIMTM
 40
0.1
  9
$DIMTXT
 40
3.5
  9
$DIMCEN
 40
0.0
  9
$DIMTSZ
 40
0.0
  9
$DIMTOL
 70
     0
  9
$DIMLIM
 70
     0
  9
$DIMTIH
 70
     0
  9
$DIMTOH
 70
     0
  9
$DIMSE1
 70
     0
  9
$DIMSE2
 70
     0
  9
$DIMTAD
 70
     1
  9
$DIMZIN
 70
     8
  9
$DIMBLK
  1

  9
$DIMASO
 70
     1
  9
$DIMSHO
 70
     1
  9
$DIMPOST
  1

  9
$DIMAPOST
  1
"
  9
$DIMALT
 70
     0
  9
$DIMALTD
 70
     2
  9
$DIMALTF
 40
0.0393701
  9
$DIMLFAC
 40
1.0
  9
$DIMTOFL
 70
     1
  9
$DIMTVP
 40
0.0
  9
$DIMTIX
 70
     0
  9
$DIMSOXD
 70
     0
  9
$DIMSAH
 70
     0
  9
$DIMBLK1
  1

  9
$DIMBLK2
  1

  9
$DIMSTYLE
  2
SYS
  9
$DIMCLRD
 70
   256
  9
$DIMCLRE
 70
   256
  9
$DIMCLRT
 70
     7
  9
$DIMTFAC
 40
0.71
  9
$DIMGAP
 40
1.5
  9
$DIMJUST
 70
     0
  9
$DIMSD1
 70
     0
  9
$DIMSD2
 70
     0
  9
$DIMTOLJ
 70
     0
  9
$DIMTZIN
 70
     8
  9
$DIMALTZ
 70
     0
  9
$DIMALTTZ
 70
     0
  9
$DIMUPT
 70
     0
  9
$DIMDEC
 70
     2
  9
$DIMTDEC
 70
     2
  9
$DIMALTU
 70
     2
  9
$DIMALTTD
 70
     2
  9
$DIMTXSTY
  7
STANDARD
  9
$DIMAUNIT
 70
     0
  9
$DIMADEC
 70
     0
  9
$DIMALTRND
 40
0.0
  9
$DIMAZIN
 70
     2
  9
$DIMDSEP
 70
    46
  9
$DIMATFIT
 70
     3
  9
$DIMFRAC
 70
     0
  9
$DIMLDRBLK
  1

  9
$DIMLUNIT
 70
     2
  9
$DIMLWD
 70
    -1
  9
$DIMLWE
 70
    -1
  9
$DIMTMOVE
 70
     0
  9
$LUNITS
 70
     2
  9
$LUPREC
 70
     2
  9
$SKETCHINC
 40
1.0
  9
$FILLETRAD
 40
1.0
  9
$AUNITS
 70
     0
  9
$AUPREC
 70
     0
  9
$MENU
  1
.
  9
$ELEVATION
 40
0.0
  9
$PELEVATION
 40
0.0
  9
$THICKNESS
 40
0.0
  9
$LIMCHECK
 70
     0
  9
$CHAMFERA
 40
0.0
  9
$CHAMFERB
 40
0.0
  9
$CHAMFERC
 40
20.0
  9
$CHAMFERD
 40
0.0
  9
$SKPOLY
 70
     0
  9
$TDCREATE
 40
2454123.716263195
  9
$TDUCREATE
 40
2454123.341263195
  9
$TDUPDATE
 40
2455653.375560428
  9
$TDUUPDATE
 40
2455653.000560428
  9
$TDINDWG
 40
0.0668422685
  9
$TDUSRTIMER
 40
0.0668420833
  9
$USRTIMER
 70
     1
  9
$ANGBASE
 50
0.0
  9
$ANGDIR
 70
     0
  9
$PDMODE
 70
     0
  9
$PDSIZE
 40
-3.0
  9
$PLINEWID
 40
0.0
  9
$SPLFRAME
 70
     0
  9
$SPLINETYPE
 70
     6
  9
$SPLINESEGS
 70
     8
  9
$HANDSEED
  5
D33C
  9
$SURFTAB1
 70
     6
  9
$SURFTAB2
 70
     6
  9
$SURFTYPE
 70
     6
  9
$SURFU
 70
     6
  9
$SURFV
 70
     6
  9
$UCSBASE
  2

  9
$UCSNAME
  2

  9
$UCSORG
 10
0.0
 20
0.0
 30
0.0
  9
$UCSXDIR
 10
1.0
 20
0.0
 30
0.0
  9
$UCSYDIR
 10
0.0
 20
1.0
 30
0.0
  9
$UCSORTHOREF
  2

  9
$UCSORTHOVIEW
 70
     0
  9
$UCSORGTOP
 10
0.0
 20
0.0
 30
0.0
  9
$UCSORGBOTTOM
 10
0.0
 20
0.0
 30
0.0
  9
$UCSORGLEFT
 10
0.0
 20
0.0
 30
0.0
  9
$UCSORGRIGHT
 10
0.0
 20
0.0
 30
0.0
  9
$UCSORGFRONT
 10
0.0
 20
0.0
 30
0.0
  9
$UCSORGBACK
 10
0.0
 20
0.0
 30
0.0
  9
$PUCSBASE
  2

  9
$PUCSNAME
  2

  9
$PUCSORG
 10
0.0
 20
0.0
 30
0.0
  9
$PUCSXDIR
 10
1.0
 20
0.0
 30
0.0
  9
$PUCSYDIR
 10
0.0
 20
1.0
 30
0.0
  9
$PUCSORTHOREF
  2

  9
$PUCSORTHOVIEW
 70
     0
  9
$PUCSORGTOP
 10
0.0
 20
0.0
 30
0.0
  9
$PUCSORGBOTTOM
 10
0.0
 20
0.0
 30
0.0
  9
$PUCSORGLEFT
 10
0.0
 20
0.0
 30
0.0
  9
$PUCSORGRIGHT
 10
0.0
 20
0.0
 30
0.0
  9
$PUCSORGFRONT
 10
0.0
 20
0.0
 30
0.0
  9
$PUCSORGBACK
 10
0.0
 20
0.0
 30
0.0
  9
$USERI1
 70
     0
  9
$USERI2
 70
     0
  9
$USERI3
 70
     0
  9
$USERI4
 70
     0
  9
$USERI5
 70
     0
  9
$USERR1
 40
0.0
  9
$USERR2
 40
0.0
  9
$USERR3
 40
0.0
  9
$USERR4
 40
0.0
  9
$USERR5
 40
0.0
  9
$WORLDVIEW
 70
     1
  9
$SHADEDGE
 70
     3
  9
$SHADEDIF
 70
    70
  9
$TILEMODE
 70
     1
  9
$MAXACTVP
 70
    64
  9
$PINSBASE
 10
0.0
 20
0.0
 30
0.0
  9
$PLIMCHECK
 70
     0
  9
$PEXTMIN
 10
1.000000000000000E+20
 20
1.000000000000000E+20
 30
1.000000000000000E+20
  9
$PEXTMAX
 10
-1.000000000000000E+20
 20
-1.000000000000000E+20
 30
-1.000000000000000E+20
  9
$PLIMMIN
 10
-3.17498779296875
 20
-3.174999952316283
  9
$PLIMMAX
 10
293.4970092773438
 20
206.692492723465
  9
$UNITMODE
 70
     0
  9
$VISRETAIN
 70
     1
  9
$PLINEGEN
 70
     0
  9
$PSLTSCALE
 70
     1
  9
$TREEDEPTH
 70
  3020
  9
$CMLSTYLE
  2
Standard
  9
$CMLJUST
 70
     0
  9
$CMLSCALE
 40
20.0
  9
$PROXYGRAPHICS
 70
     1
  9
$MEASUREMENT
 70
     1
  9
$CELWEIGHT
370
    -1
  9
$ENDCAPS
280
     0
  9
$JOINSTYLE
280
     0
  9
$LWDISPLAY
290
     0
  9
$INSUNITS
 70
     4
  9
$HYPERLINKBASE
  1

  9
$STYLESHEET
  1
MONOCHROME.CTB
  9
$XEDIT
290
     1
  9
$CEPSNTYPE
380
     0
  9
$PSTYLEMODE
290
     1
  9
$FINGERPRINTGUID
  2
{057DD9EC-CA1C-4DBE-9A70-34F8E327D93C}
  9
$VERSIONGUID
  2
{B8E466D8-B73F-4547-B05F-6C98ADEB600A}
  9
$EXTNAMES
290
     1
  9
$PSVPSCALE
 40
0.0
  9
$OLESTARTUP
290
     0
  0
ENDSEC
  0
SECTION
  2
CLASSES
  0
CLASS
  1
ACDBDICTIONARYWDFLT
  2
AcDbDictionaryWithDefault
  3
ObjectDBX Classes
 90
        0
280
     0
281
     0
  0
CLASS
  1
ACDBPLACEHOLDER
  2
AcDbPlaceHolder
  3
ObjectDBX Classes
 90
        0
280
     0
281
     0
  0
CLASS
  1
LAYOUT
  2
AcDbLayout
  3
ObjectDBX Classes
 90
        0
280
     0
281
     0
  0
CLASS
  1
AMGSETTINGSOBJ
  2
AmgSettingsObj
  3
"AcadM|Product Description: AutoCAD Mechanical|Company: Autodesk"
 90
        0
280
     0
281
     0
  0
CLASS
  1
ACME_DOCUMENT
  2
AcMeDbDoc
  3
AcMeServices
 90
        0
280
     0
281
     0
  0
CLASS
  1
ACMESCOPE
  2
AcMeScope
  3
AcMeServices
 90
        0
280
     0
281
     0
  0
CLASS
  1
ACMECOMMANDHISTORY
  2
AcMeCommandHistory
  3
AcMeServices
 90
        0
280
     0
281
     0
  0
CLASS
  1
DICTIONARYVAR
  2
AcDbDictionaryVar
  3
ObjectDBX Classes
 90
        0
280
     0
281
     0
  0
CLASS
  1
ACIMSYSVARMAN
  2
AcImSysVarManager
  3
AcMeServices
 90
        0
280
     0
281
     0
  0
CLASS
  1
ACIMREALSYSVAR
  2
AcImRealSysVar
  3
AcMeServices
 90
        0
280
     0
281
     0
  0
CLASS
  1
ACIMINTSYSVAR
  2
AcImIntSysVar
  3
AcMeServices
 90
        0
280
     0
281
     0
  0
CLASS
  1
ACMEDRAWINGMAN
  2
AcMeDrawingMan
  3
AcMeServices
 90
        0
280
     0
281
     0
  0
CLASS
  1
ACMEVIEW
  2
AcMeView
  3
AcMeServices
 90
        0
280
     0
281
     0
  0
CLASS
  1
ACDBENTITYCACHE
  2
AcMeEntityCache
  3
AcMeServices
 90
        0
280
     0
281
     0
  0
CLASS
  1
GSMANAGER
  2
AcMeGSManager
  3
AcMeServices
 90
        0
280
     0
281
     0
  0
CLASS
  1
AMDTINTERNALREACTOR
  2
AmdtInternalReactor
  3
AcMeServices
 90
        0
280
     0
281
     0
  0
CLASS
  1
ACMESTATEMGR
  2
AcMeStateMgr
  3
AcMeServices
 90
        0
280
     0
281
     0
  0
CLASS
  1
ACGREFMASTER
  2
AcGrefMaster
  3
AcAttribServices
 90
        0
280
     0
281
     0
  0
CLASS
  1
ACME_DATABASE
  2
AcMeDbDatabase
  3
AcMeServices
 90
        0
280
     0
281
     0
  0
CLASS
  1
ACRFINSADJUSTERMGR
  2
AcRfInsAdjusterMgr
  3
AcMeServices
 90
        0
280
     0
281
     0
  0
CLASS
  1
ACGREFACADMASTER
  2
AcGrefacadMaster
  3
AcGrefServices
 90
        0
280
     0
281
     0
  0
CLASS
  1
AMIMASTER
  2
AmiMaster
  3
AmiServices
 90
        0
280
     0
281
     0
  0
CLASS
  1
ACMDATADICTIONARY
  2
AcmDataDictionary
  3
"AcmSymBB|Product Description: AutoCAD Mechanical|Company: Autodesk"
 90
        0
280
     0
281
     0
  0
CLASS
  1
ACMDATAENTRYBLOCK
  2
AcmDataEntryBlock
  3
"AcmSymBB|Product Description: AutoCAD Mechanical|Company: Autodesk"
 90
    32768
280
     0
281
     0
  0
CLASS
  1
ACIMSTRSYSVAR
  2
AcImStrSysVar
  3
AcMeServices
 90
        0
280
     0
281
     0
  0
CLASS
  1
ACMSTANDARDISO
  2
AcmStandardISO
  3
"Amdt_StdImp|Product Description: AutoCAD Mechanical|Company: Autodesk"
 90
        0
280
     0
281
     0
  0
CLASS
  1
AMGOBJPROPCFG
  2
AmgObjPropCfg
  3
"AmgLay|Product Description: AutoCAD Mechanical|Company: Autodesk"
 90
        1
280
     0
281
     0
  0
CLASS
  1
AMDTEDGESTANDARDISO
  2
AmdtEdgeStdISO
  3
"Amdt_StdImp|Product Description: AutoCAD Mechanical|Company: Autodesk"
 90
        0
280
     0
281
     0
  0
CLASS
  1
ACMSURFSTANDARDISO
  2
AcmSurfTextStdISO
  3
"Amdt_StdImp|Product Description: AutoCAD Mechanical|Company: Autodesk"
 90
        0
280
     0
281
     0
  0
CLASS
  1
ACMFCFSTANDARDISO
  2
AcmFCFStdISO
  3
"Amdt_StdImp|Product Description: AutoCAD Mechanical|Company: Autodesk"
 90
        0
280
     0
281
     0
  0
CLASS
  1
ACMWELDSTANDARDISO
  2
AcmWeldingStdISO
  3
"Amdt_StdImp|Product Description: AutoCAD Mechanical|Company: Autodesk"
 90
        0
280
     0
281
     0
  0
CLASS
  1
ACMIDSTANDARDISO
  2
AcmIdStdISO
  3
"Amdt_StdImp|Product Description: AutoCAD Mechanical|Company: Autodesk"
 90
        0
280
     0
281
     0
  0
CLASS
  1
ACMDATUMSTANDARDISO
  2
AcmDatumStdISO
  3
"Amdt_StdImp|Product Description: AutoCAD Mechanical|Company: Autodesk"
 90
        0
280
     0
281
     0
  0
CLASS
  1
ACMBOMSTANDARDISO
  2
AcmBOMStdISO
  3
"Amdt_StdImp|Product Description: AutoCAD Mechanical|Company: Autodesk"
 90
        0
280
     0
281
     0
  0
CLASS
  1
ACMDETAILSTANDARDISO
  2
AmdtDetailSymStdISO
  3
"Amdt_StdImp|Product Description: AutoCAD Mechanical|Company: Autodesk"
 90
        0
280
     0
281
     0
  0
CLASS
  1
ACMSECTIONSTANDARDISO
  2
AmdtSectionSymStdISO
  3
"Amdt_StdImp|Product Description: AutoCAD Mechanical|Company: Autodesk"
 90
        0
280
     0
281
     0
  0
CLASS
  1
ACMCENTERLINESTANDARDISO
  2
AmdtCenterLineStdISO
  3
"Amdt_StdImp|Product Description: AutoCAD Mechanical|Company: Autodesk"
 90
        0
280
     0
281
     0
  0
CLASS
  1
ACAMGLAYSTD
  2
AcAmgLayStd
  3
"AmgLay|Product Description: AutoCAD Mechanical|Company: Autodesk"
 90
        0
280
     0
281
     0
  0
CLASS
  1
ACAMGDIMSTD
  2
AcAmgDimStd
  3
"AmgDim|Product Description: AutoCAD Mechanical|Company: Autodesk"
 90
        0
280
     0
281
     0
  0
CLASS
  1
ACAMGTITLESTD
  2
AcAmgTitleStd
  3
"AmgTitle|Product Description: AutoCAD Mechanical|Company: Autodesk"
 90
        0
280
     0
281
     0
  0
CLASS
  1
ACAMGFILTERDAT
  2
AcAmgFilterDat
  3
"AcadM|Product Description: AutoCAD Mechanical|Company: Autodesk"
 90
    32768
280
     0
281
     0
  0
CLASS
  1
LAYER_INDEX
  2
AcDbLayerIndex
  3
ObjectDBX Classes
 90
    32768
280
     0
281
     0
  0
CLASS
  1
IDBUFFER
  2
AcDbIdBuffer
  3
ObjectDBX Classes
 90
    32768
280
     0
281
     0
  0
CLASS
  1
PLOTSETTINGS
  2
AcDbPlotSettings
  3
ObjectDBX Classes
 90
    32768
280
     0
281
     0
  0
CLASS
  1
AMDTFORMULAUPDATEDISPATCHER
  2
AmdtFormulaUpdateDispatcher
  3
AcMeServices
 90
    32768
280
     0
281
     0
  0
CLASS
  1
ACMSTANDARDANSI
  2
AcmStandardANSI
  3
"Amdt_StdImp|Product Description: AutoCAD Mechanical|Company: Autodesk"
 90
        0
280
     0
281
     0
  0
CLASS
  1
ACMSURFSTANDARDANSI
  2
AcmSurfTextStdANSI
  3
"Amdt_StdImp|Product Description: AutoCAD Mechanical|Company: Autodesk"
 90
        0
280
     0
281
     0
  0
CLASS
  1
ACMFCFSTANDARDANSI
  2
AcmFCFStdANSI
  3
"Amdt_StdImp|Product Description: AutoCAD Mechanical|Company: Autodesk"
 90
        0
280
     0
281
     0
  0
CLASS
  1
ACMWELDSTANDARDANSI
  2
AcmWeldingStdANSI
  3
"Amdt_StdImp|Product Description: AutoCAD Mechanical|Company: Autodesk"
 90
        0
280
     0
281
     0
  0
CLASS
  1
ACMIDSTANDARDANSI
  2
AcmIdStdANSI
  3
"Amdt_StdImp|Product Description: AutoCAD Mechanical|Company: Autodesk"
 90
        0
280
     0
281
     0
  0
CLASS
  1
ACMDATUMSTANDARDANSI
  2
AcmDatumStdANSI
  3
"Amdt_StdImp|Product Description: AutoCAD Mechanical|Company: Autodesk"
 90
        0
280
     0
281
     0
  0
CLASS
  1
ACMBOMSTANDARDANSI
  2
AcmBOMStdANSI
  3
"Amdt_StdImp|Product Description: AutoCAD Mechanical|Company: Autodesk"
 90
        0
280
     0
281
     0
  0
CLASS
  1
ACMDETAILSTANDARDANSI
  2
AmdtDetailSymStdANSI
  3
"Amdt_StdImp|Product Description: AutoCAD Mechanical|Company: Autodesk"
 90
        0
280
     0
281
     0
  0
CLASS
  1
ACMSECTIONSTANDARDANSI
  2
AmdtSectionSymStdANSI
  3
"Amdt_StdImp|Product Description: AutoCAD Mechanical|Company: Autodesk"
 90
        0
280
     0
281
     0
  0
CLASS
  1
ACMCENTERLINESTANDARDANSI
  2
AmdtCenterLineStdANSI
  3
"Amdt_StdImp|Product Description: AutoCAD Mechanical|Company: Autodesk"
 90
        0
280
     0
281
     0
  0
CLASS
  1
ACMBOM
  2
AcmBom
  3
"AcmSymBB|Product Description: AutoCAD Mechanical|Company: Autodesk"
 90
    32768
280
     0
281
     0
  0
CLASS
  1
ACMDATAENTRYPART
  2
AcmDataEntryPart
  3
"AcmSymBB|Product Description: AutoCAD Mechanical|Company: Autodesk"
 90
    32768
280
     0
281
     0
  0
CLASS
  1
ACMPARTREF
  2
AcmPartRef
  3
"AcmSymBB|Product Description: AutoCAD Mechanical|Company: Autodesk"
 90
    35839
280
     0
281
     1
  0
CLASS
  1
ACDBCIRCARCRES
  2
AcDbCircArcRes
  3
AcGrefServices
 90
    32768
280
     0
281
     0
  0
CLASS
  1
ACMBOMROW
  2
AcmBomRow
  3
"AcmSymBB|Product Description: AutoCAD Mechanical|Company: Autodesk"
 90
    32768
280
     0
281
     0
  0
CLASS
  1
ACMBALLOON
  2
AcmBalloon
  3
"AcmSymBB|Product Description: AutoCAD Mechanical|Company: Autodesk"
 90
    35839
280
     0
281
     1
  0
CLASS
  1
AMDTNOTE
  2
AmdtNote
  3
"AcmSymBB|Product Description: AutoCAD Mechanical|Company: Autodesk"
 90
    35839
280
     0
281
     1
  0
CLASS
  1
STDPART2D
  2
AmgStdPart
  3
"g3vace|Class: AmgStdPart|Product Description: AutoCAD Mechanical|Company: Autodesk"
 90
    35839
280
     0
281
     1
  0
CLASS
  1
ACDBSTDPARTRES_LINE
  2
AcDbStdPartRes_Line
  3
"g3vace|Class: AcDbStdPartRes_Line|Product Description: AutoCAD Mechanical|Company: Autodesk"
 90
    32768
280
     0
281
     0
  0
CLASS
  1
ACMDATAENTRY
  2
AcmDataEntry
  3
"AcmSymBB|Product Description: AutoCAD Mechanical|Company: Autodesk"
 90
    32768
280
     0
281
     0
  0
CLASS
  1
ACDBOPPOLYLINERES
  2
AcDbOpPolylineRes
  3
AcGrefServices
 90
    32768
280
     0
281
     0
  0
CLASS
  1
ACMPARTLIST
  2
AcmPartList
  3
"AcmSymBB|Product Description: AutoCAD Mechanical|Company: Autodesk"
 90
    35839
280
     0
281
     1
  0
CLASS
  1
ACDBLINERES
  2
AcDbLineRes
  3
AcGrefServices
 90
    32768
280
     0
281
     0
  0
CLASS
  1
ACRFINSADJ
  2
AcRfInsAdjuster
  3
AcMeServices
 90
    32768
280
     0
281
     0
  0
CLASS
  1
AM_DRAWING_MGR
  2
AcDmDwgMgr
  3
AcMechDwgViewMgmt
 90
        0
280
     0
281
     0
  0
CLASS
  1
AM_DWG_DOCUMENT
  2
AcDmDwgDocument
  3
AcMechDwgViewMgmt
 90
        0
280
     0
281
     0
  0
CLASS
  1
AM_DWG_SHEET
  2
AcDmSheet
  3
AcMechDwgViewMgmt
 90
        0
280
     0
281
     0
  0
CLASS
  1
AM_VIEWDIMPARMAP
  2
AcDmViewDimParMap
  3
AcMechDwgViewMgmt
 90
        0
280
     0
281
     0
  0
CLASS
  1
AM_DWGMGR_NAME
  2
AcDmDwgMgrName
  3
AcMechDwgViewMgmt
 90
        0
280
     0
281
     0
  0
CLASS
  1
AMDTMENUSTATEMGR
  2
AmdtMenuStateMgr
  3
McadcomServices
 90
        0
280
     0
281
     0
  0
CLASS
  1
AMDTMCOMMENUSTATE
  2
AmdtMcomMenuState
  3
McadcomServices
 90
        0
280
     0
281
     0
  0
CLASS
  1
ASAPP
  2
AcAsAppObject
  3
AutoSurfServices
 90
        0
280
     0
281
     0
  0
CLASS
  1
IM_STATIC_MAN
  2
AcImStaticVarManager
  3
AcMeServices
 90
    32768
280
     0
281
     0
  0
CLASS
  1
ACIMDBLSTATICVAR
  2
AcImDblStaticVar
  3
AcMeServices
 90
    32768
280
     0
281
     0
  0
CLASS
  1
ACIMSTRSTATICVAR
  2
AcImStrStaticVar
  3
AcMeServices
 90
    32768
280
     0
281
     0
  0
CLASS
  1
ACIMINTSTATICVAR
  2
AcImIntStaticVar
  3
AcMeServices
 90
    32768
280
     0
281
     0
  0
CLASS
  1
ACASGREFMASTER
  2
AcAsGrefMaster
  3
AutoSurfResolverServices
 90
        0
280
     0
281
     0
  0
CLASS
  1
ACADGREFMODULE
  2
AcAdGrefModule
  3
AdGrefServices
 90
        0
280
     0
281
     0
  0
CLASS
  1
AMDTMAPISURFMOUDULE
  2
AmdtMApiSurfModule
  3
MApiSurfServices
 90
        0
280
     0
281
     0
  0
CLASS
  1
MAPIAMMOUDLE
  2
MApiAmModule
  3
MApiAmServices
 90
        0
280
     0
281
     0
  0
CLASS
  1
AMDTADMENUSTATE
  2
AmdtAdMenuState
  3
DesignerServices
 90
        0
280
     0
281
     0
  0
CLASS
  1
ADAPPL
  2
AcAdAppl
  3
DesignerServices
 90
        0
280
     0
281
     0
  0
CLASS
  1
DEPMGR
  2
AcAdDepMgr
  3
DesignerServices
 90
        0
280
     0
281
     0
  0
CLASS
  1
PARAMMGR
  2
AcAdParamMgr
  3
DesignerServices
 90
        0
280
     0
281
     0
  0
CLASS
  1
PARAMSCOPE
  2
AcAdParamScope
  3
DesignerServices
 90
        0
280
     0
281
     0
  0
CLASS
  1
NAMEDAPPL
  2
AcAdNamedAppl
  3
DesignerServices
 90
        0
280
     0
281
     0
  0
CLASS
  1
ADHNTMPLT
  2
AdHoleNoteTemplateMgr
  3
DesignerServices
 90
    32768
280
     0
281
     0
  0
CLASS
  1
AM_HNTEMPLATE_MGR_NAME
  2
AdHoleNoteTemplateMgrName
  3
DesignerServices
 90
    32768
280
     0
281
     0
  0
CLASS
  1
AMDTDMMENUSTATE
  2
AmdtDmMenuState
  3
AcMechDwgViewMgmt
 90
        0
280
     0
281
     0
  0
CLASS
  1
MAPIADMODULE
  2
MApiAdModule
  3
MApiAdServices
 90
        0
280
     0
281
     0
  0
CLASS
  1
AMDTAMMENUSTATE
  2
AmdtAmMenuState
  3
DesignerAssemblies
 90
        0
280
     0
281
     0
  0
CLASS
  1
ACAMPROJECT
  2
AcAmProject
  3
DesignerAssemblies
 90
        0
280
     0
281
     0
  0
CLASS
  1
ACAMGRCOMPDEF
  2
AcAmGrCompDef
  3
DesignerAssemblies
 90
        0
280
     0
281
     0
  0
CLASS
  1
ACCMCONTEXT
  2
AcCmContext
  3
DesignerAssemblies
 90
        0
280
     0
281
     0
  0
CLASS
  1
ACAMCOMPDEF
  2
AcAmCompDef
  3
DesignerAssemblies
 90
        0
280
     0
281
     0
  0
CLASS
  1
ACAMCOMPDEFMGR
  2
AcAmCompDefMgr
  3
DesignerAssemblies
 90
        0
280
     0
281
     0
  0
CLASS
  1
AMCONTEXTMGR
  2
AcAmContextMgr
  3
DesignerAssemblies
 90
        0
280
     0
281
     0
  0
CLASS
  1
ACAMCONTEXTMODELER
  2
AcAmContextModeler
  3
DesignerAssemblies
 90
        0
280
     0
281
     0
  0
CLASS
  1
CATALOGSTATE
  2
AcAmCatalogState
  3
DesignerAssemblies
 90
        0
280
     0
281
     0
  0
CLASS
  1
ACAMGRCOMPDEFSET
  2
AcAmGrCompDefSet
  3
DesignerAssemblies
 90
        0
280
     0
281
     0
  0
CLASS
  1
AMDTBROWSERDBTAB
  2
AmdtBrowserDbTab
  3
McadcomServices
 90
        0
280
     0
281
     0
  0
CLASS
  1
CBROWSERAPPOBJECT
  2
CBrowserAppObject
  3
McadcomServices
 90
        0
280
     0
281
     0
  0
CLASS
  1
DM_PLACEHOLDER
  2
AcDmSelsetPlaceholder
  3
AcMechDwgViewMgmt
 90
        0
280
     0
281
     0
  0
CLASS
  1
ACMPICKOBJ
  2
AcmPickEnt
  3
"AcmSymBB|Product Description: AutoCAD Mechanical|Company: Autodesk"
 90
    32768
280
     0
281
     1
  0
CLASS
  1
ACMNOTESTANDARDISO
  2
AmdtNoteStdISO
  3
"Amdt_StdImp|Product Description: AutoCAD Mechanical|Company: Autodesk"
 90
        0
280
     0
281
     0
  0
CLASS
  1
ACMNOTESTANDARDANSI
  2
AmdtNoteStdANSI
  3
"Amdt_StdImp|Product Description: AutoCAD Mechanical|Company: Autodesk"
 90
        0
280
     0
281
     0
  0
CLASS
  1
ACMTHREADLINESTANDARDISO
  2
AmdtThreadLineStdISO
  3
"Amdt_StdImp|Product Description: AutoCAD Mechanical|Company: Autodesk"
 90
        0
280
     0
281
     0
  0
CLASS
  1
ACMTHREADLINESTANDARDANSI
  2
AmdtThreadLineStdANSI
  3
"Amdt_StdImp|Product Description: AutoCAD Mechanical|Company: Autodesk"
 90
        0
280
     0
281
     0
  0
CLASS
  1
TABLESTYLE
  2
AcDbTableStyle
  3
ObjectDBX Classes
 90
     4095
280
     0
281
     0
  0
CLASS
  1
SORTENTSTABLE
  2
AcDbSortentsTable
  3
ObjectDBX Classes
 90
        0
280
     0
281
     0
  0
CLASS
  1
AMDTNOTETEMPLATEDB
  2
AmdtNoteTemplateDB
  3
AMDT_STDIMP_MODULE_NAME
 90
        0
280
     0
281
     0
  0
CLASS
  1
ACAMGHOLECHARTSTDANSI
  2
AcAmgHoleChartStdANSI
  3
ACMSYMBB_MODULE_NAME
 90
        0
280
     0
281
     0
  0
CLASS
  1
DIMASSOC
  2
AcDbDimAssoc
  3
"AcDbDimAssoc|Product Desc:     AcDim ARX App For Dimension|Company:          Autodesk, Inc.|WEB Address:      www.autodesk.com"
 90
        0
280
     0
281
     0
  0
CLASS
  1
ACRFATTGENMGR
  2
AcRfAttGeneralMgr
  3
AcAttribServices
 90
    32768
280
     0
281
     0
  0
CLASS
  1
MATERIAL
  2
AcDbMaterial
  3
ObjectDBX Classes
 90
     1024
280
     0
281
     0
  0
CLASS
  1
VISUALSTYLE
  2
AcDbVisualStyle
  3
ObjectDBX Classes
 90
     4095
280
     0
281
     0
  0
CLASS
  1
AMDTEDGESTANDARDISO13715
  2
AmdtEdgeStdISO13715
  3
"Amdt_StdImp|Product Description: AutoCAD Mechanical|Company: Autodesk"
 90
        0
280
     0
281
     0
  0
CLASS
  1
ACMTAPERSTANDARDISO
  2
AcmTaperStdISO
  3
"Amdt_StdImp|Product Description: AutoCAD Mechanical|Company: Autodesk"
 90
        0
280
     0
281
     0
  0
CLASS
  1
ACAMGHOLECHARTSTDISO
  2
AcAmgHoleChartStdISO
  3
ACMSYMBB_MODULE_NAME
 90
        0
280
     0
281
     0
  0
CLASS
  1
CAMSSTRUCTBTNSTATE
  2
StructBtnState
  3
L"DesignerAssemblies"
 90
        0
280
     0
281
     0
  0
CLASS
  1
ACMTAPERSTANDARDANSI
  2
AcmTaperStdANSI
  3
"Amdt_StdImp|Product Description: AutoCAD Mechanical|Company: Autodesk"
 90
        0
280
     0
281
     0
  0
ENDSEC
  0
SECTION
  2
TABLES
  0
TABLE
  2
VPORT
  5
8
330
0
100
AcDbSymbolTable
 70
     1
  0
VPORT
  5
CC70
330
8
100
AcDbSymbolTableRecord
100
AcDbViewportTableRecord
  2
*Active
 70
     0
 10
0.0
 20
0.0
 11
1.0
 21
1.0
 12
270.3425989367066
 22
192.8671694080875
 13
0.0
 23
0.0
 14
2.5
 24
2.5
 15
10.0
 25
10.0
 16
0.0
 26
0.0
 36
1.0
 17
0.0
 27
0.0
 37
0.0
 40
421.8507453453328
 41
1.262295081967213
 42
50.0
 43
-1370.695619172058
 44
-1370.695619172058
 50
0.0
 51
0.0
 71
    16
 72
   100
 73
     1
 74
     3
 75
     0
 76
     0
 77
     0
 78
     0
281
     0
 65
     0
110
0.0
120
0.0
130
0.0
111
1.0
121
0.0
131
0.0
112
0.0
122
1.0
132
0.0
 79
     0
146
0.0
  0
ENDTAB
  0
TABLE
  2
LTYPE
  5
5
330
0
100
AcDbSymbolTable
 70
    35
  0
LTYPE
  5
14
330
5
100
AcDbSymbolTableRecord
100
AcDbLinetypeTableRecord
  2
ByBlock
 70
     0
  3

 72
    65
 73
     0
 40
0.0
  0
LTYPE
  5
15
330
5
100
AcDbSymbolTableRecord
100
AcDbLinetypeTableRecord
  2
ByLayer
 70
     0
  3

 72
    65
 73
     0
 40
0.0
  0
LTYPE
  5
16
330
5
100
AcDbSymbolTableRecord
100
AcDbLinetypeTableRecord
  2
Continuous
 70
     0
  3
Solid line
 72
    65
 73
     0
 40
0.0
  0
LTYPE
  5
4F
330
5
100
AcDbSymbolTableRecord
100
AcDbLinetypeTableRecord
  2
AM_ISO02W050
 70
     0
  3
__ __ __ __ __ __ __ __ __ __ __ __ __ __ __
 72
    65
 73
     2
 40
7.5
 49
6.0
 74
     0
 49
-1.5
 74
     0
  0
LTYPE
  5
52
330
5
100
AcDbSymbolTableRecord
100
AcDbLinetypeTableRecord
  2
Amconstr
 70
     0
  3
_______________________
 72
    65
 73
     2
 40
9999.0
 49
9999.0
 74
     0
 49
0.0
 74
     0
  0
LTYPE
  5
64
330
5
100
AcDbSymbolTableRecord
100
AcDbLinetypeTableRecord
  2
ACISOWELD
 70
     0
  3
_ _ _ _ _
 72
    65
 73
     2
 40
2.0
 49
2.0
 74
     0
 49
-1.0
 74
     0
  0
LTYPE
  5
65
330
5
100
AcDbSymbolTableRecord
100
AcDbLinetypeTableRecord
  2
ACISOTGB
 70
     0
  3
__ . . __ . .
 72
    65
 73
     6
 40
9.0
 49
4.0
 74
     0
 49
-1.0
 74
     0
 49
1.0
 74
     0
 49
-1.0
 74
     0
 49
1.0
 74
     0
 49
-1.0
 74
     0
  0
LTYPE
  5
66
330
5
100
AcDbSymbolTableRecord
100
AcDbLinetypeTableRecord
  2
ACISOTGL
 70
     0
  3
_ _ _ _ _
 72
    65
 73
     2
 40
3.0
 49
2.0
 74
     0
 49
-1.0
 74
     0
  0
LTYPE
  5
69
330
5
100
AcDbSymbolTableRecord
100
AcDbLinetypeTableRecord
  2
CENTER
 70
     0
  3
__ . __
 72
    65
 73
     4
 40
7.0
 49
4.0
 74
     0
 49
-1.0
 74
     0
 49
1.0
 74
     0
 49
-1.0
 74
     0
  0
LTYPE
  5
A6E
330
5
100
AcDbSymbolTableRecord
100
AcDbLinetypeTableRecord
  2
PHANTOM2
 70
     0
  3
Phantom (.5x) ___ _ _ ___ _ _ ___ _ _ ___ _ _
 72
    65
 73
     6
 40
31.75
 49
15.875
 74
     0
 49
-3.174999999999998
 74
     0
 49
3.174999999999998
 74
     0
 49
-3.174999999999998
 74
     0
 49
3.174999999999998
 74
     0
 49
-3.174999999999998
 74
     0
  0
LTYPE
  5
4DED
330
5
100
AcDbSymbolTableRecord
100
AcDbLinetypeTableRecord
  2
中線
 70
     0
  3
___________________
 72
    65
 73
     2
 40
2.0
 49
1.0
 74
     0
 49
1.0
 74
     0
  0
LTYPE
  5
4DF6
330
5
100
AcDbSymbolTableRecord
100
AcDbLinetypeTableRecord
  2
細線
 70
     0
  3
___________________
 72
    65
 73
     2
 40
2.0
 49
1.0
 74
     0
 49
1.0
 74
     0
  0
LTYPE
  5
4DF7
330
5
100
AcDbSymbolTableRecord
100
AcDbLinetypeTableRecord
  2
太線
 70
     0
  3
___________________
 72
    65
 73
     2
 40
2.0
 49
1.0
 74
     0
 49
1.0
 74
     0
  0
LTYPE
  5
4EA7
330
5
100
AcDbSymbolTableRecord
100
AcDbLinetypeTableRecord
  2
文字
 70
     0
  3
_________________
 72
    65
 73
     2
 40
2.0
 49
1.0
 74
     0
 49
1.0
 74
     0
  0
LTYPE
  5
4EA9
330
5
100
AcDbSymbolTableRecord
100
AcDbLinetypeTableRecord
  2
寸法線
 70
     0
  3
________________
 72
    65
 73
     2
 40
2.0
 49
1.0
 74
     0
 49
1.0
 74
     0
  0
LTYPE
  5
4F12
330
5
100
AcDbSymbolTableRecord
100
AcDbLinetypeTableRecord
  2
ハッチング
 70
     0
  3
_________________
 72
    65
 73
     2
 40
2.0
 49
1.0
 74
     0
 49
1.0
 74
     0
  0
LTYPE
  5
5180
330
5
100
AcDbSymbolTableRecord
100
AcDbLinetypeTableRecord
  2
陰線1
 70
     0
  3
__ __ __ __
 72
    65
 73
     2
 40
4.0
 49
2.2
 74
     0
 49
-1.8
 74
     0
  0
LTYPE
  5
5182
330
5
100
AcDbSymbolTableRecord
100
AcDbLinetypeTableRecord
  2
切断線
 70
     0
  3
/\/-/\/-/\/-/\/-/\/-/\/
 72
    65
 73
     2
 40
11.0001
 49
0.0001
 74
     4
 75
   135
340
56
 46
0.04
 50
0.0
 44
0.0
 45
0.0
 49
-11.0
 74
     0
  0
LTYPE
  5
5183
330
5
100
AcDbSymbolTableRecord
100
AcDbLinetypeTableRecord
  2
想像線1
 70
     0
  3
__ __ __ _____ __ __ ____
 72
    65
 73
     6
 40
14.5
 49
6.0
 74
     0
 49
-1.5
 74
     0
 49
2.0
 74
     0
 49
-1.5
 74
     0
 49
2.0
 74
     0
 49
-1.5
 74
     0
  0
LTYPE
  5
5185
330
5
100
AcDbSymbolTableRecord
100
AcDbLinetypeTableRecord
  2
中心線1
 70
     0
  3
___ _ ___ _ ___
 72
    65
 73
     4
 40
18.0
 49
12.0
 74
     0
 49
-2.0
 74
     0
 49
2.0
 74
     0
 49
-2.0
 74
     0
  0
LTYPE
  5
5188
330
5
100
AcDbSymbolTableRecord
100
AcDbLinetypeTableRecord
  2
補助線
 70
     0
  3
______________
 72
    65
 73
     2
 40
2.0
 49
1.0
 74
     0
 49
1.0
 74
     0
  0
LTYPE
  5
6427
330
5
100
AcDbSymbolTableRecord
100
AcDbLinetypeTableRecord
  2
HIDDEN
 70
     0
  3
Hidden __ __ __ __ __ __ __ __ __ __ __ __ __ _
 72
    65
 73
     2
 40
0.375
 49
0.25
 74
     0
 49
-0.125
 74
     0
  0
LTYPE
  5
AC81
330
5
100
AcDbSymbolTableRecord
100
AcDbLinetypeTableRecord
  2
破断線
 70
     0
  3
/\/-/\/-/\/-/\/-/\/-/\/
 72
    65
 73
     2
 40
0.4401
 49
0.0001
 74
     4
 75
   136
340
AC80
 46
0.0016
 50
0.0
 44
0.0
 45
0.0
 49
-0.4400000000000002
 74
     0
  0
LTYPE
  5
AC9E
330
5
100
AcDbSymbolTableRecord
100
AcDbLinetypeTableRecord
  2
Amzigzag
 70
     0
  3
/\/-/\/-/\/-/\/-/\/-/\/
 72
    65
 73
     2
 40
11.0001
 49
0.0001
 74
     4
 75
   135
340
56
 46
0.04
 50
0.0
 44
0.0
 45
0.0
 49
-11.0
 74
     0
  0
LTYPE
  5
AF0F
330
5
100
AcDbSymbolTableRecord
100
AcDbLinetypeTableRecord
  2
genzigzag
 70
     0
  3
/\/-/\/-/\/-/\/-/\/-/\/
 72
    65
 73
     2
 40
12.0001
 49
0.0001
 74
     4
 75
   135
340
AC80
 46
2.0
 50
0.0
 44
0.0
 45
0.0
 49
-12.0
 74
     0
  0
LTYPE
  5
AF95
330
5
100
AcDbSymbolTableRecord
100
AcDbLinetypeTableRecord
  2
AM_ISO08W050
 70
     0
  3
____ . ____ . ____ . ____ . ____ . ____ . ____
 72
    65
 73
     4
 40
18.0
 49
12.0
 74
     0
 49
-1.5
 74
     0
 49
3.0
 74
     0
 49
-1.5
 74
     0
  0
LTYPE
  5
AF96
330
5
100
AcDbSymbolTableRecord
100
AcDbLinetypeTableRecord
  2
AM_ISO09W050
 70
     0
  3
_____ . . _____ . . _____ . . ____ .. ____
 72
    65
 73
     6
 40
22.5
 49
12.0
 74
     0
 49
-1.5
 74
     0
 49
3.0
 74
     0
 49
-1.5
 74
     0
 49
3.0
 74
     0
 49
-1.5
 74
     0
  0
LTYPE
  5
AF97
330
5
100
AcDbSymbolTableRecord
100
AcDbLinetypeTableRecord
  2
AM_ISO08W050x2
 70
     0
  3
__ . __ . __ . __ . __ . __
 72
    65
 73
     4
 40
9.0
 49
6.0
 74
     0
 49
-0.75
 74
     0
 49
1.5
 74
     0
 49
-0.75
 74
     0
  0
LTYPE
  5
AF98
330
5
100
AcDbSymbolTableRecord
100
AcDbLinetypeTableRecord
  2
AM_ISO02W050x2
 70
     0
  3
 _ _ _ _ _ _ _ _ _ _ _ _
 72
    65
 73
     2
 40
3.75
 49
3.0
 74
     0
 49
-0.75
 74
     0
  0
LTYPE
  5
C3AD
330
5
100
AcDbSymbolTableRecord
100
AcDbLinetypeTableRecord
  2
DASHED1
 70
     0
  3
--  --  --  --  --  --  --  --  
 72
    65
 73
     2
 40
2.5
 49
1.25
 74
     0
 49
-1.25
 74
     0
  0
LTYPE
  5
C3AE
330
5
100
AcDbSymbolTableRecord
100
AcDbLinetypeTableRecord
  2
CENTER2
 70
     0
  3
----------  --  ----------  --  
 72
    65
 73
     4
 40
20.0
 49
12.5
 74
     0
 49
-2.5
 74
     0
 49
2.5
 74
     0
 49
-2.5
 74
     0
  0
LTYPE
  5
C3AF
330
5
100
AcDbSymbolTableRecord
100
AcDbLinetypeTableRecord
  2
PHANTOM1
 70
     0
  3
--- - - --- - - --- - - --- - - 
 72
    65
 73
     6
 40
10.0
 49
3.25
 74
     0
 49
-1.25
 74
     0
 49
1.25
 74
     0
 49
-1.25
 74
     0
 49
1.25
 74
     0
 49
-1.25
 74
     0
  0
LTYPE
  5
C3B0
330
5
100
AcDbSymbolTableRecord
100
AcDbLinetypeTableRecord
  2
HIDDEN2
 70
     0
  3
Hidden (.5x) _ _ _ _ _ _ _ _ _ _ _ _ _ _ _ _ _
 72
    65
 73
     2
 40
0.1875
 49
0.125
 74
     0
 49
-0.0625
 74
     0
  0
LTYPE
  5
C3B1
330
5
100
AcDbSymbolTableRecord
100
AcDbLinetypeTableRecord
  2
AMZIGZAG2
 70
     0
  3
/\/-/\/-/\/-/\/-/\/-/\/
 72
    65
 73
     2
 40
0.4401
 49
0.0001
 74
     0
 49
-0.4400000000000003
 74
     0
  0
LTYPE
  5
C3B2
330
5
100
AcDbSymbolTableRecord
100
AcDbLinetypeTableRecord
  2
ACANSTGB
 70
     0
  3
__ . . __ . .
 72
    65
 73
     6
 40
0.35433070866
 49
0.15748031496
 74
     0
 49
-0.03937007874
 74
     0
 49
0.03937007874
 74
     0
 49
-0.03937007874
 74
     0
 49
0.03937007874
 74
     0
 49
-0.03937007874
 74
     0
  0
LTYPE
  5
C3B3
330
5
100
AcDbSymbolTableRecord
100
AcDbLinetypeTableRecord
  2
ACANSTGL
 70
     0
  3
_ _ _ _ _
 72
    65
 73
     2
 40
0.11811023622
 49
0.07874015748
 74
     0
 49
-0.03937007874
 74
     0
  0
LTYPE
  5
CEE3
330
5
100
AcDbSymbolTableRecord
100
AcDbLinetypeTableRecord
  2
DASHED
 70
     0
  3
__ __ __ __ __ __ __ __ __ __ __ __ __ __ __
 72
    65
 73
     2
 40
3.5
 49
2.0
 74
     0
 49
-1.5
 74
     0
  0
ENDTAB
  0
TABLE
  2
LAYER
  5
2
102
{ACAD_XDICTIONARY
360
3F95
102
}
330
0
100
AcDbSymbolTable
 70
    32
  0
LAYER
  5
10
330
2
100
AcDbSymbolTableRecord
100
AcDbLayerTableRecord
  2
0
 70
     0
 62
     7
  6
Continuous
370
    -3
390
F
  0
LAYER
  5
6D1
330
2
100
AcDbSymbolTableRecord
100
AcDbLayerTableRecord
  2
Defpoints
 70
     0
 62
     7
  6
Continuous
290
     0
370
    -3
390
F
  0
LAYER
  5
5F85
330
2
100
AcDbSymbolTableRecord
100
AcDbLayerTableRecord
  2
AM_0
 70
     0
 62
     7
  6
中線
370
    25
390
F
1001
AcAecLayerStandard
1000

1000

  0
LAYER
  5
AC9F
330
2
100
AcDbSymbolTableRecord
100
AcDbLayerTableRecord
  2
size
 70
     0
 62
     5
  6
Continuous
290
     0
370
    25
390
F
  0
LAYER
  5
ACA0
330
2
100
AcDbSymbolTableRecord
100
AcDbLayerTableRecord
  2
waku
 70
     0
 62
     7
  6
Continuous
370
    35
390
F
  0
LAYER
  5
ACA1
330
2
100
AcDbSymbolTableRecord
100
AcDbLayerTableRecord
  2
AM_6
 70
     0
 62
     2
  6
文字
370
    15
390
F
1001
AcAecLayerStandard
1000

1000

  0
LAYER
  5
ACC8
330
2
100
AcDbSymbolTableRecord
100
AcDbLayerTableRecord
  2
hyomoji
 70
     0
 62
     2
  6
Continuous
370
    15
390
F
  0
LAYER
  5
ACC9
330
2
100
AcDbSymbolTableRecord
100
AcDbLayerTableRecord
  2
hyosen1
 70
     0
 62
     1
  6
Continuous
370
    25
390
F
  0
LAYER
  5
ACCA
330
2
100
AcDbSymbolTableRecord
100
AcDbLayerTableRecord
  2
hyosen2
 70
     0
 62
     1
  6
Continuous
370
    15
390
F
  0
LAYER
  5
AD60
330
2
100
AcDbSymbolTableRecord
100
AcDbLayerTableRecord
  2
AM_1
 70
     0
 62
    30
  6
太線
370
    25
390
F
1001
AcAecLayerStandard
1000

1000

  0
LAYER
  5
AD64
330
2
100
AcDbSymbolTableRecord
100
AcDbLayerTableRecord
  2
AM_2
 70
     0
 62
     1
  6
細線
370
    15
390
F
1001
AcAecLayerStandard
1000

1000

  0
LAYER
  5
AD67
330
2
100
AcDbSymbolTableRecord
100
AcDbLayerTableRecord
  2
AM_3
 70
     0
 62
     6
  6
陰線1
370
    15
390
F
1001
AcAecLayerStandard
1000

1000

  0
LAYER
  5
AD68
330
2
100
AcDbSymbolTableRecord
100
AcDbLayerTableRecord
  2
AM_5
 70
     0
 62
     3
  6
寸法線
370
    15
390
F
1001
AcAecLayerStandard
1000

1000

  0
LAYER
  5
AD69
330
2
100
AcDbSymbolTableRecord
100
AcDbLayerTableRecord
  2
AM_7
 70
     0
 62
     4
  6
中心線1
370
    15
390
F
1001
AcAecLayerStandard
1000

1000

  0
LAYER
  5
AD6A
330
2
100
AcDbSymbolTableRecord
100
AcDbLayerTableRecord
  2
AM_8
 70
     0
 62
     1
  6
ハッチング
370
    15
390
F
1001
AcAecLayerStandard
1000

1000

  0
LAYER
  5
AD6E
330
2
100
AcDbSymbolTableRecord
100
AcDbLayerTableRecord
  2
AM_10
 70
     0
 62
     7
  6
genzigzag
370
    25
390
F
1001
AcAecLayerStandard
1000

1000

  0
LAYER
  5
AD6F
330
2
100
AcDbSymbolTableRecord
100
AcDbLayerTableRecord
  2
AM_11
 70
     0
 62
     2
  6
想像線1
370
    15
390
F
1001
AcAecLayerStandard
1000

1000

  0
LAYER
  5
C26E
330
2
100
AcDbSymbolTableRecord
100
AcDbLayerTableRecord
  2
AM_14
 70
     0
 62
     5
  6
細線
370
     9
390
F
1001
AcAecLayerStandard
1000

1000

  0
LAYER
  5
C3B4
330
2
100
AcDbSymbolTableRecord
100
AcDbLayerTableRecord
  2
_0-0_0
 70
     0
 62
     7
  6
Continuous
370
    -3
390
F
  0
LAYER
  5
C3B5
330
2
100
AcDbSymbolTableRecord
100
AcDbLayerTableRecord
  2
_0-4_AM_6
 70
     0
 62
     7
  6
Continuous
370
    -3
390
F
  0
LAYER
  5
C3B6
330
2
100
AcDbSymbolTableRecord
100
AcDbLayerTableRecord
  2
_0-A_AM_0
 70
     0
 62
     7
  6
Continuous
370
    -3
390
F
  0
LAYER
  5
C3B7
330
2
100
AcDbSymbolTableRecord
100
AcDbLayerTableRecord
  2
_0-F_AM_5
 70
     0
 62
     7
  6
Continuous
370
    -3
390
F
  0
LAYER
  5
C3B8
330
2
100
AcDbSymbolTableRecord
100
AcDbLayerTableRecord
  2
_1-0_AM_7
 70
     0
 62
     7
  6
Continuous
370
    -3
390
F
  0
LAYER
  5
C3B9
330
2
100
AcDbSymbolTableRecord
100
AcDbLayerTableRecord
  2
_1-6_AM_11
 70
     0
 62
     7
  6
Continuous
370
    -3
390
F
  0
LAYER
  5
C3BA
330
2
100
AcDbSymbolTableRecord
100
AcDbLayerTableRecord
  2
_0-2_SIZE
 70
     0
 62
     7
  6
Continuous
370
    -3
390
F
  0
LAYER
  5
C3BB
330
2
100
AcDbSymbolTableRecord
100
AcDbLayerTableRecord
  2
_0-3_WAKU
 70
     0
 62
     7
  6
Continuous
370
    -3
390
F
  0
LAYER
  5
C3BC
330
2
100
AcDbSymbolTableRecord
100
AcDbLayerTableRecord
  2
_0-9_HYOSEN2
 70
     0
 62
     7
  6
Continuous
370
    -3
390
F
  0
LAYER
  5
C3BD
330
2
100
AcDbSymbolTableRecord
100
AcDbLayerTableRecord
  2
_0-8_HYOMOJI
 70
     0
 62
     7
  6
Continuous
370
    -3
390
F
  0
LAYER
  5
C3BE
330
2
100
AcDbSymbolTableRecord
100
AcDbLayerTableRecord
  2
_1-E_HYOSEN
 70
     0
 62
     7
  6
Continuous
370
    -3
390
F
  0
LAYER
  5
C3BF
330
2
100
AcDbSymbolTableRecord
100
AcDbLayerTableRecord
  2
_0-1_DEFPOINTS
 70
     0
 62
     7
  6
Continuous
370
    -3
390
F
  0
LAYER
  5
C57D
330
2
100
AcDbSymbolTableRecord
100
AcDbLayerTableRecord
  2
AM_4
 70
     0
 62
     3
  6
補助線
370
    15
390
F
1001
AcAecLayerStandard
1000

1000

  0
LAYER
  5
C8C5
330
2
100
AcDbSymbolTableRecord
100
AcDbLayerTableRecord
  2
AM_CL
 70
     0
 62
     1
  6
Amconstr
370
    15
390
F
1001
AcAecLayerStandard
1000

1000

  0
ENDTAB
  0
TABLE
  2
STYLE
  5
3
330
0
100
AcDbSymbolTable
 70
     9
  0
STYLE
  5
11
330
3
100
AcDbSymbolTableRecord
100
AcDbTextStyleTableRecord
  2
STANDARD
 70
     0
 40
0.0
 41
0.7
 50
0.0
 71
     0
 42
3.2
  3
romans.shx
  4
extfont.shx
  0
STYLE
  5
56
330
3
100
AcDbSymbolTableRecord
100
AcDbTextStyleTableRecord
  2

 70
     1
 40
0.0
 41
1.0
 50
0.0
 71
     0
 42
2.5
  3
ltypeshp.shx
  4

  0
STYLE
  5
58
330
3
100
AcDbSymbolTableRecord
100
AcDbTextStyleTableRecord
  2
ACISOTS
 70
     0
 40
1.0
 41
1.0
 50
0.0
 71
     0
 42
2.5
  3
isocp.shx
  4
extfont.shx
  0
STYLE
  5
63
330
3
100
AcDbSymbolTableRecord
100
AcDbTextStyleTableRecord
  2
ACISOGDT
 70
     0
 40
0.0
 41
1.0
 50
0.0
 71
     0
 42
2.5
  3
amgdt.shx
  4

  0
STYLE
  5
A74
330
3
100
AcDbSymbolTableRecord
100
AcDbTextStyleTableRecord
  2
DIM
 70
     0
 40
0.0
 41
1.0
 50
0.0
 71
     0
 42
2.5
  3
monotxt.shx
  4
extfont.shx
  0
STYLE
  5
AC80
330
3
100
AcDbSymbolTableRecord
100
AcDbTextStyleTableRecord
  2

 70
     1
 40
0.0
 41
1.0
 50
0.0
 71
     0
 42
3.2
  3
genltshp.shx
  4

  0
STYLE
  5
C3C0
330
3
100
AcDbSymbolTableRecord
100
AcDbTextStyleTableRecord
  2
ACANSTS
 70
     0
 40
1.0
 41
1.0
 50
0.0
 71
     0
 42
0.2
  3
romans.shx
  4
extfont.shx
  0
STYLE
  5
C3C1
330
3
100
AcDbSymbolTableRecord
100
AcDbTextStyleTableRecord
  2
ACANSGDT
 70
     0
 40
0.0
 41
1.0
 50
0.0
 71
     0
 42
0.2
  3
AMGDT
  4

  0
ENDTAB
  0
TABLE
  2
VIEW
  5
6
330
0
100
AcDbSymbolTable
 70
     6
  0
VIEW
  5
AE1
330
6
100
AcDbSymbolTableRecord
100
AcDbViewTableRecord
  2
AM_VIEW1
 70
     0
 40
129.7276464542651
 10
1775.10588156276
 20
1793.121228859297
 41
148.5
 11
0.0
 21
0.0
 31
1.0
 12
0.0
 22
0.0
 32
0.0
 42
50.0
 43
-1370.695619172058
 44
-1370.695619172058
 50
0.0
 71
    16
281
     0
 72
     0
  0
VIEW
  5
AE2
330
6
100
AcDbSymbolTableRecord
100
AcDbViewTableRecord
  2
AM_VIEW2
 70
     0
 40
129.7276464542651
 10
1923.60588156276
 20
1793.121228859297
 41
148.5
 11
0.0
 21
0.0
 31
1.0
 12
0.0
 22
0.0
 32
0.0
 42
50.0
 43
-1370.695619172058
 44
-1370.695619172058
 50
0.0
 71
    16
281
     0
 72
     0
  0
VIEW
  5
AE3
330
6
100
AcDbSymbolTableRecord
100
AcDbViewTableRecord
  2
AM_VIEW3
 70
     0
 40
129.7276464542651
 10
1775.10588156276
 20
1712.848875313562
 41
148.5
 11
0.0
 21
0.0
 31
1.0
 12
0.0
 22
0.0
 32
0.0
 42
50.0
 43
-1370.695619172058
 44
-1370.695619172058
 50
0.0
 71
    16
281
     0
 72
     0
  0
VIEW
  5
AE4
330
6
100
AcDbSymbolTableRecord
100
AcDbViewTableRecord
  2
AM_VIEW4
 70
     0
 40
129.7276464542651
 10
1923.60588156276
 20
1712.848875313562
 41
148.5
 11
0.0
 21
0.0
 31
1.0
 12
0.0
 22
0.0
 32
0.0
 42
50.0
 43
-1370.695619172058
 44
-1370.695619172058
 50
0.0
 71
    16
281
     0
 72
     0
  0
VIEW
  5
AE5
330
6
100
AcDbSymbolTableRecord
100
AcDbViewTableRecord
  2
AM_VIEW5
 70
     0
 40
129.7276464542651
 10
1849.35588156276
 20
1752.985052086429
 41
148.5
 11
0.0
 21
0.0
 31
1.0
 12
0.0
 22
0.0
 32
0.0
 42
50.0
 43
-1370.695619172058
 44
-1370.695619172058
 50
0.0
 71
    16
281
     0
 72
     0
  0
VIEW
  5
AE6
330
6
100
AcDbSymbolTableRecord
100
AcDbViewTableRecord
  2
AM_VIEW6
 70
     0
 40
259.452698355601
 10
1849.35588156276
 20
1752.985052086429
 41
296.99703
 11
0.0
 21
0.0
 31
1.0
 12
0.0
 22
0.0
 32
0.0
 42
50.0
 43
-1370.695619172058
 44
-1370.695619172058
 50
0.0
 71
    16
281
     0
 72
     0
  0
ENDTAB
  0
TABLE
  2
UCS
  5
7
330
0
100
AcDbSymbolTable
 70
     0
  0
ENDTAB
  0
TABLE
  2
APPID
  5
9
330
0
100
AcDbSymbolTable
 70
    60
  0
APPID
  5
12
330
9
100
AcDbSymbolTableRecord
100
AcDbRegAppTableRecord
  2
ACAD
 70
     0
  0
APPID
  5
30
330
9
100
AcDbSymbolTableRecord
100
AcDbRegAppTableRecord
  2
MCAD_NO_VIS
 70
     0
  0
APPID
  5
31
330
9
100
AcDbSymbolTableRecord
100
AcDbRegAppTableRecord
  2
ACAD_TEMP_GRAPHIC
 70
     0
  0
APPID
  5
44
330
9
100
AcDbSymbolTableRecord
100
AcDbRegAppTableRecord
  2
ACATTRIBSERVICES
 70
     0
  0
APPID
  5
7A1
330
9
100
AcDbSymbolTableRecord
100
AcDbRegAppTableRecord
  2
GENIUS_GENDIMSH_14
 70
     0
  0
APPID
  5
A49
330
9
100
AcDbSymbolTableRecord
100
AcDbRegAppTableRecord
  2
GENIUS_GENREC_14
 70
     0
  0
APPID
  5
A4A
330
9
100
AcDbSymbolTableRecord
100
AcDbRegAppTableRecord
  2
GENIUS_GENOBJ-N-REC_13
 70
     0
  0
APPID
  5
A4B
330
9
100
AcDbSymbolTableRecord
100
AcDbRegAppTableRecord
  2
GENIUS_GENODEF_13
 70
     0
  0
APPID
  5
A4C
330
9
100
AcDbSymbolTableRecord
100
AcDbRegAppTableRecord
  2
DCO15
 70
     0
  0
APPID
  5
ADC
330
9
100
AcDbSymbolTableRecord
100
AcDbRegAppTableRecord
  2
GENIUS_GENOLIS_13
 70
     0
  0
APPID
  5
ADD
330
9
100
AcDbSymbolTableRecord
100
AcDbRegAppTableRecord
  2
GENIUS_GENOENT_13
 70
     0
  0
APPID
  5
ADE
330
9
100
AcDbSymbolTableRecord
100
AcDbRegAppTableRecord
  2
GENIUS_GENOBJ-N-TIT_13
 70
     0
  0
APPID
  5
ADF
330
9
100
AcDbSymbolTableRecord
100
AcDbRegAppTableRecord
  2
GENIUS_GENTITLE_13
 70
     0
  0
APPID
  5
AE0
330
9
100
AcDbSymbolTableRecord
100
AcDbRegAppTableRecord
  2
GENIUS_GENOREF_13
 70
     0
  0
APPID
  5
AE7
330
9
100
AcDbSymbolTableRecord
100
AcDbRegAppTableRecord
  2
GENIUS_GENSCREG_15
 70
     0
  0
APPID
  5
AE8
330
9
100
AcDbSymbolTableRecord
100
AcDbRegAppTableRecord
  2
GENIUS_GENOBJ-N-SDF_13
 70
     0
  0
APPID
  5
FAF
330
9
100
AcDbSymbolTableRecord
100
AcDbRegAppTableRecord
  2
GENIUS_GENBLLY_14
 70
     0
  0
APPID
  5
FB0
330
9
100
AcDbSymbolTableRecord
100
AcDbRegAppTableRecord
  2
GENIUS_GENTRA_14
 70
     0
  0
APPID
  5
1285
330
9
100
AcDbSymbolTableRecord
100
AcDbRegAppTableRecord
  2
GENIUS_GENDTOL_13
 70
     0
  0
APPID
  5
142D
330
9
100
AcDbSymbolTableRecord
100
AcDbRegAppTableRecord
  2
GENIUS_GENOBJ-N-CEN_13
 70
     0
  0
APPID
  5
1AB5
330
9
100
AcDbSymbolTableRecord
100
AcDbRegAppTableRecord
  2
GENIUS_GENOBJ-N-CRS_13
 70
     0
  0
APPID
  5
1B36
330
9
100
AcDbSymbolTableRecord
100
AcDbRegAppTableRecord
  2
GENIUS_GENOBJ-N-HTC_13
 70
     0
  0
APPID
  5
1B37
330
9
100
AcDbSymbolTableRecord
100
AcDbRegAppTableRecord
  2
GENIUS_GENHATCH_13
 70
     0
  0
APPID
  5
216D
330
9
100
AcDbSymbolTableRecord
100
AcDbRegAppTableRecord
  2
GENIUS_GENOBJ-N-FIL_13
 70
     0
  0
APPID
  5
2356
330
9
100
AcDbSymbolTableRecord
100
AcDbRegAppTableRecord
  2
GEVID990412420
 70
     0
  0
APPID
  5
2357
330
9
100
AcDbSymbolTableRecord
100
AcDbRegAppTableRecord
  2
GEVDC
 70
     0
  0
APPID
  5
2358
330
9
100
AcDbSymbolTableRecord
100
AcDbRegAppTableRecord
  2
GEVCON
 70
     0
  0
APPID
  5
235B
330
9
100
AcDbSymbolTableRecord
100
AcDbRegAppTableRecord
  2
GEVRADREF
 70
     0
  0
APPID
  5
2360
330
9
100
AcDbSymbolTableRecord
100
AcDbRegAppTableRecord
  2
GENIUS_GENBH_13
 70
     0
  0
APPID
  5
2362
330
9
100
AcDbSymbolTableRecord
100
AcDbRegAppTableRecord
  2
GENIUS_GENOBJ-NBEHI-BHF_13
 70
     0
  0
APPID
  5
2364
330
9
100
AcDbSymbolTableRecord
100
AcDbRegAppTableRecord
  2
GENIUS_GENOBJ-NBEHI-BHB_13
 70
     0
  0
APPID
  5
2379
330
9
100
AcDbSymbolTableRecord
100
AcDbRegAppTableRecord
  2
GENIUS_GENOBJ-F-SCPASSM_13
 70
     0
  0
APPID
  5
3D74
330
9
100
AcDbSymbolTableRecord
100
AcDbRegAppTableRecord
  2
GENIUS_GENDIM_13
 70
     0
  0
APPID
  5
3D76
330
9
100
AcDbSymbolTableRecord
100
AcDbRegAppTableRecord
  2
GENIUS_GE3DTOL_13
 70
     0
  0
APPID
  5
3D9C
330
9
100
AcDbSymbolTableRecord
100
AcDbRegAppTableRecord
  2
AD_DRAW
 70
     0
  0
APPID
  5
3DE8
330
9
100
AcDbSymbolTableRecord
100
AcDbRegAppTableRecord
  2
ASURF_PCURVE_APPNAME
 70
     0
  0
APPID
  5
3DED
330
9
100
AcDbSymbolTableRecord
100
AcDbRegAppTableRecord
  2
AMG_3D2D_5.0
 70
     0
  0
APPID
  5
3E1B
330
9
100
AcDbSymbolTableRecord
100
AcDbRegAppTableRecord
  2
DESIGNERASSEMBLIES
 70
     0
  0
APPID
  5
3E20
330
9
100
AcDbSymbolTableRecord
100
AcDbRegAppTableRecord
  2
ACADM_DIM_EDIT
 70
     0
  0
APPID
  5
3E21
330
9
100
AcDbSymbolTableRecord
100
AcDbRegAppTableRecord
  2
AMDT_DM_ADJ
 70
     0
  0
APPID
  5
4143
330
9
100
AcDbSymbolTableRecord
100
AcDbRegAppTableRecord
  2
GENIUS_GENFIL_13
 70
     0
  0
APPID
  5
4144
330
9
100
AcDbSymbolTableRecord
100
AcDbRegAppTableRecord
  2
GENIUS_GENOBJ-N-CHA_13
 70
     0
  0
APPID
  5
4E17
330
9
100
AcDbSymbolTableRecord
100
AcDbRegAppTableRecord
  2
GEVID1008153417
 70
     0
  0
APPID
  5
4E58
330
9
100
AcDbSymbolTableRecord
100
AcDbRegAppTableRecord
  2
GEVID1008153418
 70
     0
  0
APPID
  5
4E5E
330
9
100
AcDbSymbolTableRecord
100
AcDbRegAppTableRecord
  2
GEVID1008153419
 70
     0
  0
APPID
  5
4E64
330
9
100
AcDbSymbolTableRecord
100
AcDbRegAppTableRecord
  2
GEVID1008153420
 70
     0
  0
APPID
  5
4E75
330
9
100
AcDbSymbolTableRecord
100
AcDbRegAppTableRecord
  2
GEVID1008153421
 70
     0
  0
APPID
  5
4EB7
330
9
100
AcDbSymbolTableRecord
100
AcDbRegAppTableRecord
  2
GENIUS_AMGTXT_16
 70
     0
  0
APPID
  5
7645
330
9
100
AcDbSymbolTableRecord
100
AcDbRegAppTableRecord
  2
GENIUS_GENOBJ-N-DIM_13
 70
     0
  0
APPID
  5
AAD0
330
9
100
AcDbSymbolTableRecord
100
AcDbRegAppTableRecord
  2
ACAD_DSTYLE_DIMARC_LENGTH_SYMBOL
 70
     0
  0
APPID
  5
AAD1
330
9
100
AcDbSymbolTableRecord
100
AcDbRegAppTableRecord
  2
ACAD_DSTYLE_DIMJOGGED_JOGANGLE_SYMBOL
 70
     0
  0
APPID
  5
AAFD
330
9
100
AcDbSymbolTableRecord
100
AcDbRegAppTableRecord
  2
ACAD_PSEXT
 70
     0
  0
APPID
  5
AD61
330
9
100
AcDbSymbolTableRecord
100
AcDbRegAppTableRecord
  2
AcAecLayerStandard
 70
     0
  0
APPID
  5
AEE3
330
9
100
AcDbSymbolTableRecord
100
AcDbRegAppTableRecord
  2
ACAD_EXEMPT_FROM_CAD_STANDARDS
 70
     0
  0
APPID
  5
B0F5
330
9
100
AcDbSymbolTableRecord
100
AcDbRegAppTableRecord
  2
ACAD_DSTYLE_DIMTEXT_FILL
 70
     0
  0
APPID
  5
B0F6
330
9
100
AcDbSymbolTableRecord
100
AcDbRegAppTableRecord
  2
ACAD_DSTYLE_DIMEXT_LENGTH
 70
     0
  0
APPID
  5
B0F7
330
9
100
AcDbSymbolTableRecord
100
AcDbRegAppTableRecord
  2
ACAD_DSTYLE_DIMEXT_ENABLED
 70
     0
  0
APPID
  5
B0F8
330
9
100
AcDbSymbolTableRecord
100
AcDbRegAppTableRecord
  2
ACAD_DSTYLE_DIM_LINETYPE
 70
     0
  0
APPID
  5
B0F9
330
9
100
AcDbSymbolTableRecord
100
AcDbRegAppTableRecord
  2
ACAD_DSTYLE_DIM_EXT1_LINETYPE
 70
     0
  0
APPID
  5
B0FA
330
9
100
AcDbSymbolTableRecord
100
AcDbRegAppTableRecord
  2
ACAD_DSTYLE_DIM_EXT2_LINETYPE
 70
     0
  0
ENDTAB
  0
TABLE
  2
DIMSTYLE
  5
A
330
0
100
AcDbSymbolTable
 70
    25
100
AcDbDimStyleTable
 71
     3
340
2515
340
251A
340
251B
  0
DIMSTYLE
105
A76
330
A
100
AcDbSymbolTableRecord
100
AcDbDimStyleTableRecord
  2
STANDARD
 70
     0
 41
3.0
 42
1.0
 43
7.0
 44
2.0
 73
     0
 74
     0
 77
     1
140
2.799999999999998
141
0.0
143
0.0394
147
0.7
171
     4
172
     1
173
     1
176
     3
177
     3
178
     2
271
     3
272
     3
273
     8
274
     4
289
     0
340
A74
341
A66
343
A66
344
A66
  0
DIMSTYLE
105
2515
330
A
100
AcDbSymbolTableRecord
100
AcDbDimStyleTableRecord
  2
SYS
 70
     0
  4
"
 41
1.0
 42
1.0
 43
10.0
 44
1.0
 47
0.1
 48
0.1
 73
     0
 74
     0
 77
     1
 78
     8
 79
     2
140
3.5
141
0.0
143
0.0393701
146
0.71
147
1.5
172
     1
176
   256
177
   256
178
     7
271
     2
272
     2
283
     0
284
     8
340
11
371
    -1
372
    -1
1001
ACAD_DSTYLE_DIMJOGGED_JOGANGLE_SYMBOL
1070
   384
1040
0.7853981633974483
1001
ACAD_DSTYLE_DIMARC_LENGTH_SYMBOL
1070
   379
1070
     1
  0
DIMSTYLE
105
2516
102
{ACAD_REACTORS
330
CAA8
102
}
330
A
100
AcDbSymbolTableRecord
100
AcDbDimStyleTableRecord
  2
SYS$3
 70
     0
  4
"
 41
2.0
 42
1.0
 43
10.0
 44
1.0
 47
0.1
 48
0.1
 73
     0
 77
     1
 78
     8
 79
     2
140
3.200000000000001
141
0.0
143
0.0393701
146
0.71
147
1.5
176
   256
177
   256
178
     2
271
     2
272
     2
283
     0
284
     8
288
     1
340
11
342
A66
371
    -1
372
    -1
1001
ACAD_DSTYLE_DIMJOGGED_JOGANGLE_SYMBOL
1070
   384
1040
0.7853981633974483
1001
ACAD_DSTYLE_DIMARC_LENGTH_SYMBOL
1070
   379
1070
     1
1001
ACAD_DSTYLE_DIMEXT_LENGTH
1070
   378
1040
0.0
  0
DIMSTYLE
105
2517
330
A
100
AcDbSymbolTableRecord
100
AcDbDimStyleTableRecord
  2
SYS$4
 70
     0
  4
"
 41
2.0
 42
1.0
 43
10.0
 44
1.0
 47
0.1
 48
0.1
 73
     0
 77
     1
 78
     8
 79
     2
140
3.200000000000001
141
0.0
143
0.0393701
146
0.71
147
1.5
173
     1
176
   256
177
   256
178
     2
271
     2
272
     2
283
     0
284
     8
288
     1
340
11
344
A66
371
    -1
372
    -1
1001
ACAD_DSTYLE_DIMJOGGED_JOGANGLE_SYMBOL
1070
   384
1040
0.7853981633974483
1001
ACAD_DSTYLE_DIMARC_LENGTH_SYMBOL
1070
   379
1070
     1
1001
ACAD_DSTYLE_DIMEXT_LENGTH
1070
   378
1040
0.0
  0
DIMSTYLE
105
2518
330
A
100
AcDbSymbolTableRecord
100
AcDbDimStyleTableRecord
  2
SYS$6
 70
     0
  4
"
 41
2.0
 42
1.0
 43
10.0
 44
1.0
 47
0.1
 48
0.1
 73
     0
 74
     0
 78
     8
 79
     2
140
3.200000000000001
141
0.0
143
0.0393701
146
0.71
147
1.5
172
     1
176
   256
177
   256
178
     2
271
     2
272
     2
283
     0
284
     8
340
11
341
A66
371
    -1
372
    -1
1001
ACAD_DSTYLE_DIMJOGGED_JOGANGLE_SYMBOL
1070
   384
1040
0.7853981633974483
1001
ACAD_DSTYLE_DIMARC_LENGTH_SYMBOL
1070
   379
1070
     1
1001
ACAD_DSTYLE_DIMEXT_LENGTH
1070
   378
1040
0.0
  0
DIMSTYLE
105
2519
330
A
100
AcDbSymbolTableRecord
100
AcDbDimStyleTableRecord
  2
SYS$7
 70
     0
  4
"
 41
2.0
 42
1.0
 43
10.0
 44
1.0
 47
0.1
 48
0.1
 73
     0
 74
     0
 77
     1
 78
     8
 79
     2
140
3.200000000000006
141
0.0
143
0.0393701
146
0.71
147
1.5
172
     1
176
   256
177
   256
178
     2
271
     2
272
     2
283
     0
284
     8
340
11
341
A66
342
A66
371
    -1
372
    -1
1001
ACAD_DSTYLE_DIMJOGGED_JOGANGLE_SYMBOL
1070
   384
1040
0.7853981633974483
1001
ACAD_DSTYLE_DIMARC_LENGTH_SYMBOL
1070
   379
1070
     1
1001
ACAD_DSTYLE_DIMEXT_LENGTH
1070
   378
1040
0.0
  0
DIMSTYLE
105
251A
330
A
100
AcDbSymbolTableRecord
100
AcDbDimStyleTableRecord
  2
SYS$SF
 70
     0
  4
"
 41
2.5
 42
1.0
 43
10.0
 44
1.0
 47
0.1
 48
0.1
 73
     0
 74
     0
 75
     1
 76
     1
 77
     1
 78
     8
 79
     2
140
3.200000000000001
141
0.0
143
0.0393701
146
0.71
147
1.5
172
     1
176
   256
177
   256
178
     2
271
     2
272
     2
283
     0
284
     8
340
11
341
6C4
342
6C4
371
    -1
372
    -1
1001
ACAD_DSTYLE_DIMJOGGED_JOGANGLE_SYMBOL
1070
   384
1040
0.7853981633974483
1001
ACAD_DSTYLE_DIMARC_LENGTH_SYMBOL
1070
   379
1070
     1
1001
ACAD_DSTYLE_DIMEXT_LENGTH
1070
   378
1040
0.0
  0
DIMSTYLE
105
251B
330
A
100
AcDbSymbolTableRecord
100
AcDbDimStyleTableRecord
  2
SYS$SH
 70
     0
  4
"
 41
2.5
 42
1.0
 43
10.0
 44
1.0
 47
0.1
 48
0.1
 73
     0
 74
     0
 75
     1
 76
     1
 77
     1
 78
     8
 79
     2
140
3.200000000000001
141
0.0
143
0.0393701
144
2.0
146
0.71
147
1.5
172
     1
173
     1
176
   256
177
   256
178
     2
271
     2
272
     2
283
     0
284
     8
340
11
341
6C4
343
72
344
6C4
371
    -1
372
    -1
1001
ACAD_DSTYLE_DIMJOGGED_JOGANGLE_SYMBOL
1070
   384
1040
0.7853981633974483
1001
ACAD_DSTYLE_DIMARC_LENGTH_SYMBOL
1070
   379
1070
     1
1001
ACAD_DSTYLE_DIMEXT_LENGTH
1070
   378
1040
0.0
  0
DIMSTYLE
105
2A59
330
A
100
AcDbSymbolTableRecord
100
AcDbDimStyleTableRecord
  2
SYS$2
 70
     0
  4
"
 41
1.0
 42
1.0
 43
10.0
 44
1.0
 47
0.1
 48
0.1
 73
     0
 74
     0
 77
     1
 78
     8
 79
     2
140
3.200000000000001
141
0.0
143
0.0393701
146
0.71
147
1.5
172
     1
176
   256
177
   256
178
     2
271
     2
272
     2
283
     0
284
     8
340
11
342
6C4
371
    -1
372
    -1
1001
ACAD_DSTYLE_DIMJOGGED_JOGANGLE_SYMBOL
1070
   384
1040
0.7853981633974483
1001
ACAD_DSTYLE_DIMARC_LENGTH_SYMBOL
1070
   379
1070
     1
1001
ACAD_DSTYLE_DIMEXT_LENGTH
1070
   378
1040
0.0
  0
DIMSTYLE
105
2AAB
102
{ACAD_REACTORS
330
C598
330
C607
330
C62D
330
C67C
330
C6F2
330
C850
330
C876
330
C932
330
C95C
330
CD52
102
}
330
A
100
AcDbSymbolTableRecord
100
AcDbDimStyleTableRecord
  2
SYS$0
 70
     0
  4
"
 41
1.0
 42
1.0
 43
10.0
 44
1.0
 47
0.1
 48
0.1
 73
     0
 74
     0
 77
     1
 78
     8
 79
     2
140
3.200000000000001
141
0.0
143
0.0393701
146
0.71
147
1.5
172
     1
176
   256
177
   256
178
     2
271
     2
272
     2
283
     0
284
     8
340
11
341
A66
342
6C4
371
    -1
372
    -1
1001
ACAD_DSTYLE_DIMJOGGED_JOGANGLE_SYMBOL
1070
   384
1040
0.7853981633974483
1001
ACAD_DSTYLE_DIMARC_LENGTH_SYMBOL
1070
   379
1070
     1
1001
ACAD_DSTYLE_DIMEXT_LENGTH
1070
   378
1040
0.0
  0
DIMSTYLE
105
AF99
330
A
100
AcDbSymbolTableRecord
100
AcDbDimStyleTableRecord
  2
AM_ISO
 70
     0
  4
"
 41
2.5
 42
1.0
 43
10.0
 44
1.0
 47
0.1
 48
0.1
 73
     0
 74
     0
 77
     1
 78
     8
 79
     2
140
3.5
141
0.0
143
0.0393701
146
0.71
147
1.5
172
     1
176
   256
177
   256
178
     2
271
     2
272
     3
274
     4
283
     0
284
     8
340
11
371
    -1
372
    -1
  0
DIMSTYLE
105
AF9A
330
A
100
AcDbSymbolTableRecord
100
AcDbDimStyleTableRecord
  2
AM_ISO$3
 70
     0
  4
"
 41
2.5
 42
1.0
 43
10.0
 44
1.0
 47
0.1
 48
0.1
 73
     0
 77
     1
 78
     8
 79
     2
140
3.5
141
0.0
143
0.0393701
146
0.71
147
1.5
176
   256
177
   256
178
     2
271
     2
272
     3
274
     4
283
     0
284
     8
288
     1
289
     0
340
11
371
    -1
372
    -1
  0
DIMSTYLE
105
AF9B
330
A
100
AcDbSymbolTableRecord
100
AcDbDimStyleTableRecord
  2
AM_ISO$4
 70
     0
  4
"
 41
2.5
 42
1.0
 43
10.0
 44
1.0
 47
0.1
 48
0.1
 73
     0
 77
     1
 78
     8
 79
     2
140
3.5
141
0.0
143
0.0393701
146
0.71
147
1.5
176
   256
177
   256
178
     2
271
     2
272
     3
274
     4
283
     0
284
     8
288
     1
289
     0
340
11
371
    -1
372
    -1
  0
DIMSTYLE
105
AF9C
330
A
100
AcDbSymbolTableRecord
100
AcDbDimStyleTableRecord
  2
AM_ISO$6
 70
     0
  4
"
 41
2.5
 42
1.0
 43
10.0
 44
1.0
 47
0.1
 48
0.1
 73
     0
 74
     0
 78
     8
 79
     2
140
3.5
141
0.0
143
0.0393701
146
0.71
147
1.5
172
     1
176
   256
177
   256
178
     2
271
     2
272
     3
274
     4
283
     0
284
     8
340
11
371
    -1
372
    -1
  0
DIMSTYLE
105
AF9D
330
A
100
AcDbSymbolTableRecord
100
AcDbDimStyleTableRecord
  2
AM_ISO$7
 70
     0
  4
"
 41
2.5
 42
1.0
 43
10.0
 44
1.0
 47
0.1
 48
0.1
 73
     0
 74
     0
 77
     1
 78
     8
 79
     2
140
5.0
141
0.0
143
0.0393701
146
0.71
147
1.5
172
     1
176
   256
177
   256
178
     2
271
     2
272
     3
274
     4
283
     0
284
     8
340
11
371
    -1
372
    -1
  0
DIMSTYLE
105
AF9E
330
A
100
AcDbSymbolTableRecord
100
AcDbDimStyleTableRecord
  2
AM_ISO$SF
 70
     0
  4
"
 41
2.5
 42
1.0
 43
10.0
 44
1.0
 47
0.1
 48
0.1
 73
     0
 74
     0
 75
     1
 76
     1
 77
     1
 78
     8
 79
     2
140
3.5
141
0.0
143
0.0393701
146
0.71
147
1.5
172
     1
176
   256
177
   256
178
     2
271
     2
272
     3
274
     4
283
     0
284
     8
340
11
371
    -1
372
    -1
  0
DIMSTYLE
105
AF9F
330
A
100
AcDbSymbolTableRecord
100
AcDbDimStyleTableRecord
  2
AM_ISO$SH
 70
     0
  4
"
 41
2.5
 42
1.0
 43
10.0
 44
1.0
 47
0.1
 48
0.1
 73
     0
 74
     0
 75
     1
 76
     1
 77
     1
 78
     8
 79
     2
140
3.5
141
0.0
143
0.0393701
144
2.0
146
0.71
147
1.5
172
     1
173
     1
176
   256
177
   256
178
     2
271
     2
272
     3
274
     4
283
     0
284
     8
340
11
343
72
371
    -1
372
    -1
  0
DIMSTYLE
105
C3C2
330
A
100
AcDbSymbolTableRecord
100
AcDbDimStyleTableRecord
  2
AM_ANSI
 70
     0
  4
mm
 41
0.1
 42
0.05
 43
0.5
 44
0.1
 47
0.1
 48
0.1
 78
     7
140
0.12
141
0.0
146
0.71
147
0.06
176
   256
177
   256
178
     2
279
     2
340
11
  0
DIMSTYLE
105
C3C3
330
A
100
AcDbSymbolTableRecord
100
AcDbDimStyleTableRecord
  2
AM_ANSI$3
 70
     0
  4
mm
 41
0.1
 42
0.05
 43
0.5
 44
0.1
 47
0.1
 48
0.1
 78
     7
140
0.12
141
0.0
146
0.71
147
0.06
176
   256
177
   256
178
     2
279
     2
340
11
  0
DIMSTYLE
105
C3C4
330
A
100
AcDbSymbolTableRecord
100
AcDbDimStyleTableRecord
  2
AM_ANSI$4
 70
     0
  4
mm
 41
0.1
 42
0.05
 43
0.5
 44
0.1
 47
0.1
 48
0.1
 78
     7
140
0.12
141
0.0
146
0.71
147
0.06
176
   256
177
   256
178
     2
279
     2
340
11
  0
DIMSTYLE
105
C3C5
330
A
100
AcDbSymbolTableRecord
100
AcDbDimStyleTableRecord
  2
AM_ANSI$7
 70
     0
  4
mm
 41
0.1
 42
0.05
 43
0.5
 44
0.1
 47
0.1
 48
0.1
 78
     7
140
0.24
141
0.0
146
0.71
147
0.06
176
   256
177
   256
178
     2
279
     2
340
11
  0
DIMSTYLE
105
C3C6
330
A
100
AcDbSymbolTableRecord
100
AcDbDimStyleTableRecord
  2
AM_ANSI$SF
 70
     0
  4
mm
 41
0.1
 42
0.05
 43
0.5
 44
0.1
 47
0.1
 48
0.1
 75
     1
 76
     1
 78
     7
140
0.12
141
0.0
146
0.71
147
0.06
176
   256
177
   256
178
     2
279
     2
340
11
  0
DIMSTYLE
105
C3C7
330
A
100
AcDbSymbolTableRecord
100
AcDbDimStyleTableRecord
  2
AM_ANSI$SH
 70
     0
  4
mm
 41
0.1
 42
0.05
 43
0.5
 44
0.1
 47
0.1
 48
0.1
 75
     1
 76
     1
 78
     7
140
0.12
141
0.0
146
0.71
147
0.06
173
     1
176
   256
177
   256
178
     2
279
     2
340
11
  0
DIMSTYLE
105
CEE4
330
A
100
AcDbSymbolTableRecord
100
AcDbDimStyleTableRecord
  2
DIMSTYLE
 70
     0
 41
1.0
 42
2.54
 44
2.54
 73
     0
 74
     0
140
3.2
147
1.6
173
     1
279
     2
340
11
  0
ENDTAB
  0
TABLE
  2
BLOCK_RECORD
  5
1
330
0
100
AcDbSymbolTable
 70
    19
  0
BLOCK_RECORD
  5
1F
102
{ACAD_XDICTIONARY
360
8A
102
}
330
1
100
AcDbSymbolTableRecord
100
AcDbBlockTableRecord
  2
*Model_Space
340
22
  0
BLOCK_RECORD
  5
1B
330
1
100
AcDbSymbolTableRecord
100
AcDbBlockTableRecord
  2
*Paper_Space
340
1E
  0
BLOCK_RECORD
  5
23
330
1
100
AcDbSymbolTableRecord
100
AcDbBlockTableRecord
  2
*Paper_Space0
340
26
  0
BLOCK_RECORD
  5
72
330
1
100
AcDbSymbolTableRecord
100
AcDbBlockTableRecord
  2
GENAXEH
340
0
  0
BLOCK_RECORD
  5
6C4
330
1
100
AcDbSymbolTableRecord
100
AcDbBlockTableRecord
  2
_Dot
340
0
102
{BLKREFS
331
D245
331
D246
331
D24E
331
D24F
331
D260
331
D261
331
D269
331
D26A
331
D27A
331
D283
331
D284
331
D28D
331
D28E
331
D29C
331
D29D
331
D2A5
331
D2A6
331
D31B
331
D31C
102
}
  0
BLOCK_RECORD
  5
A66
330
1
100
AcDbSymbolTableRecord
100
AcDbBlockTableRecord
  2
_OPEN30
340
0
102
{BLKREFS
331
D27B
331
D2AE
102
}
  0
BLOCK_RECORD
  5
C2BE
330
1
100
AcDbSymbolTableRecord
100
AcDbBlockTableRecord
  2
-074-カタログA3
340
0
  0
BLOCK_RECORD
  5
C599
330
1
100
AcDbSymbolTableRecord
100
AcDbBlockTableRecord
  2
*D5
340
0
  0
BLOCK_RECORD
  5
C608
330
1
100
AcDbSymbolTableRecord
100
AcDbBlockTableRecord
  2
*D6
340
0
  0
BLOCK_RECORD
  5
C62E
330
1
100
AcDbSymbolTableRecord
100
AcDbBlockTableRecord
  2
*D7
340
0
  0
BLOCK_RECORD
  5
C67D
330
1
100
AcDbSymbolTableRecord
100
AcDbBlockTableRecord
  2
*D8
340
0
  0
BLOCK_RECORD
  5
C6F3
330
1
100
AcDbSymbolTableRecord
100
AcDbBlockTableRecord
  2
*D9
340
0
  0
BLOCK_RECORD
  5
C851
330
1
100
AcDbSymbolTableRecord
100
AcDbBlockTableRecord
  2
*D10
340
0
  0
BLOCK_RECORD
  5
C877
330
1
100
AcDbSymbolTableRecord
100
AcDbBlockTableRecord
  2
*D11
340
0
  0
BLOCK_RECORD
  5
C933
330
1
100
AcDbSymbolTableRecord
100
AcDbBlockTableRecord
  2
*D12
340
0
  0
BLOCK_RECORD
  5
C95D
330
1
100
AcDbSymbolTableRecord
100
AcDbBlockTableRecord
  2
*D13
340
0
  0
BLOCK_RECORD
  5
CAA9
330
1
100
AcDbSymbolTableRecord
100
AcDbBlockTableRecord
  2
*D14
340
0
  0
BLOCK_RECORD
  5
CC64
330
1
100
AcDbSymbolTableRecord
100
AcDbBlockTableRecord
  2
*S5315
340
0
102
{BLKREFS
331
C56E
102
}
  0
BLOCK_RECORD
  5
CD53
330
1
100
AcDbSymbolTableRecord
100
AcDbBlockTableRecord
  2
*D17
340
0
  0
ENDTAB
  0
ENDSEC
  0
SECTION
  2
BLOCKS
  0
BLOCK
  5
20
330
1F
100
AcDbEntity
  8
0
100
AcDbBlockBegin
  2
*Model_Space
 70
     0
 10
0.0
 20
0.0
 30
0.0
  3
*Model_Space
  1

  0
ENDBLK
  5
21
330
1F
100
AcDbEntity
  8
0
100
AcDbBlockEnd
  0
BLOCK
  5
1C
330
1B
100
AcDbEntity
 67
     1
  8
0
100
AcDbBlockBegin
  2
*Paper_Space
 70
     0
 10
0.0
 20
0.0
 30
0.0
  3
*Paper_Space
  1

  0
ENDBLK
  5
1D
330
1B
100
AcDbEntity
 67
     1
  8
0
100
AcDbBlockEnd
  0
BLOCK
  5
24
330
23
100
AcDbEntity
 67
     1
  8
0
100
AcDbBlockBegin
  2
*Paper_Space0
 70
     0
 10
0.0
 20
0.0
 30
0.0
  3
*Paper_Space0
  1

  0
ENDBLK
  5
25
330
23
100
AcDbEntity
 67
     1
  8
0
100
AcDbBlockEnd
  0
BLOCK
  5
74
330
72
100
AcDbEntity
  8
0
100
AcDbBlockBegin
  2
GENAXEH
 70
     0
 10
0.0
 20
0.0
 30
0.0
  3
GENAXEH
  1

  0
LINE
  5
73
330
72
100
AcDbEntity
  8
0
100
AcDbLine
 10
-1.0
 20
0.0
 30
0.0
 11
1.0
 21
0.0
 31
0.0
  0
ENDBLK
  5
75
330
72
100
AcDbEntity
  8
0
100
AcDbBlockEnd
  0
BLOCK
  5
6C7
330
6C4
100
AcDbEntity
  8
0
100
AcDbBlockBegin
  2
_Dot
 70
     0
 10
0.0
 20
0.0
 30
0.0
  3
_Dot
  1

  0
LWPOLYLINE
  5
6C5
330
6C4
100
AcDbEntity
  8
0
  6
ByBlock
 62
     0
100
AcDbPolyline
 90
        2
 70
     1
 43
0.5
 10
-0.25
 20
0.0
 42
1.0
 10
0.25
 20
0.0
 42
1.0
  0
LINE
  5
6C6
330
6C4
100
AcDbEntity
  8
0
  6
ByBlock
 62
     0
370
    -2
100
AcDbLine
 10
-0.5
 20
0.0
 30
0.0
 11
-1.0
 21
0.0
 31
0.0
  0
ENDBLK
  5
6C8
330
6C4
100
AcDbEntity
  8
0
100
AcDbBlockEnd
  0
BLOCK
  5
A6A
330
A66
100
AcDbEntity
  8
0
100
AcDbBlockBegin
  2
_OPEN30
 70
     0
 10
0.0
 20
0.0
 30
0.0
  3
_OPEN30
  1

  0
LINE
  5
A67
330
A66
100
AcDbEntity
  8
0
  6
ByBlock
 62
     0
100
AcDbLine
 10
-1.0
 20
0.26794919
 30
0.0
 11
0.0
 21
0.0
 31
0.0
  0
LINE
  5
A68
330
A66
100
AcDbEntity
  8
0
  6
ByBlock
 62
     0
100
AcDbLine
 10
0.0
 20
0.0
 30
0.0
 11
-1.0
 21
-0.26794919
 31
0.0
  0
LINE
  5
A69
330
A66
100
AcDbEntity
  8
0
  6
ByBlock
 62
     0
100
AcDbLine
 10
0.0
 20
0.0
 30
0.0
 11
-1.0
 21
0.0
 31
0.0
  0
ENDBLK
  5
A6B
330
A66
100
AcDbEntity
  8
0
100
AcDbBlockEnd
  0
BLOCK
  5
C2BF
330
C2BE
100
AcDbEntity
  8
0
100
AcDbBlockBegin
  2
-074-カタログA3
 70
     0
 10
0.0
 20
0.0
 30
0.0
  3
-074-カタログA3
  1

  0
LINE
  5
C2C0
330
C2BE
100
AcDbEntity
  8
_0-2_SIZE
  6
Continuous
 62
     5
100
AcDbLine
 10
0.0
 20
0.0
 30
0.0
 11
420.0
 21
0.0
 31
0.0
  0
LINE
  5
C2C1
330
C2BE
100
AcDbEntity
  8
_0-2_SIZE
  6
Continuous
 62
     5
100
AcDbLine
 10
0.0
 20
297.0
 30
0.0
 11
0.0
 21
0.0
 31
0.0
  0
LINE
  5
C2C2
330
C2BE
100
AcDbEntity
  8
_0-3_WAKU
  6
Continuous
 62
     7
100
AcDbLine
 10
400.4999999999998
 20
12.0
 30
0.0
 11
400.4999999999998
 21
285.0
 31
0.0
  0
LINE
  5
C2C3
330
C2BE
100
AcDbEntity
  8
_0-3_WAKU
  6
Continuous
 62
     7
100
AcDbLine
 10
19.5
 20
285.0
 30
0.0
 11
19.5
 21
12.0
 31
0.0
  0
LINE
  5
C2C4
330
C2BE
100
AcDbEntity
  8
_0-3_WAKU
  6
Continuous
 62
     7
100
AcDbLine
 10
400.4999999999998
 20
285.0
 30
0.0
 11
19.5
 21
285.0
 31
0.0
  0
LINE
  5
C2C5
330
C2BE
100
AcDbEntity
  8
_0-3_WAKU
  6
Continuous
 62
     7
100
AcDbLine
 10
19.5
 20
12.0
 30
0.0
 11
400.4999999999998
 21
12.0
 31
0.0
  0
TEXT
  5
C2C6
330
C2BE
100
AcDbEntity
  8
_0-4_AM_6
 62
     7
100
AcDbText
 10
0.0
 20
0.0
 30
0.0
 40
2.5
  1
!GENTITLE-LL
100
AcDbText
  0
TEXT
  5
C2C7
330
C2BE
100
AcDbEntity
  8
_0-4_AM_6
 62
     7
100
AcDbText
 10
400.4999999999998
 20
285.0
 30
0.0
 40
2.5
  1
!GENTITLE-RU
100
AcDbText
  0
TEXT
  5
C2C8
330
C2BE
100
AcDbEntity
  8
_0-4_AM_6
 62
     7
100
AcDbText
 10
19.5
 20
285.0
 30
0.0
 40
2.5
  1
!GENTITLE-INSERT
100
AcDbText
  0
LINE
  5
C2C9
330
C2BE
100
AcDbEntity
  8
_0-2_SIZE
  6
Continuous
 62
     5
100
AcDbLine
 10
420.0
 20
297.0
 30
0.0
 11
420.0
 21
0.0
 31
0.0
  0
LINE
  5
C2CA
330
C2BE
100
AcDbEntity
  8
_0-2_SIZE
  6
Continuous
 62
     5
100
AcDbLine
 10
0.0
 20
297.0
 30
0.0
 11
420.0
 21
297.0
 31
0.0
  0
TEXT
  5
C2CB
330
C2BE
100
AcDbEntity
  8
_0-4_AM_6
 62
     7
100
AcDbText
 10
420.0
 20
297.0
 30
0.0
 40
2.5
  1
!GENTITLE-MAX
100
AcDbText
  0
ENDBLK
  5
C2CC
330
C2BE
100
AcDbEntity
  8
0
100
AcDbBlockEnd
  0
BLOCK
  5
C5A3
330
C599
100
AcDbEntity
  8
0
100
AcDbBlockBegin
  2
*D5
 70
     1
 10
0.0
 20
0.0
 30
0.0
  3
*D5
  1

  0
LINE
  5
D242
330
C599
100
AcDbEntity
  8
AM_5
100
AcDbLine
 10
348.1036854639748
 20
278.9522475922836
 30
0.0
 11
328.3536844639749
 21
278.9522475922836
 31
0.0
  0
LINE
  5
D243
330
C599
100
AcDbEntity
  8
AM_5
100
AcDbLine
 10
340.3536854639749
 20
253.9522475922836
 30
0.0
 11
328.3536844639749
 21
253.9522475922836
 31
0.0
  0
LINE
  5
D244
330
C599
100
AcDbEntity
  8
AM_5
100
AcDbLine
 10
329.3536844639748
 20
277.9522475922836
 30
0.0
 11
329.3536844639748
 21
254.9522475922837
 31
0.0
  0
INSERT
  5
D245
330
C599
100
AcDbEntity
  8
AM_5
100
AcDbBlockReference
  2
_Dot
 10
329.3536844639748
 20
278.9522475922836
 30
0.0
 50
90.0
  0
INSERT
  5
D246
330
C599
100
AcDbEntity
  8
AM_5
100
AcDbBlockReference
  2
_Dot
 10
329.3536844639748
 20
253.9522475922836
 30
0.0
 50
270.0
  0
MTEXT
  5
D247
330
C599
100
AcDbEntity
  8
AM_5
 62
     2
100
AcDbMText
 10
326.2536844639748
 20
266.4522475922837
 30
0.0
 40
3.200000000000001
 41
0.0
 71
     5
 72
     1
  1
25
 11
0.0000000000000001
 21
1.0
 31
0.0
 73
     1
 44
1.0
1001
ACAD
1000
MTEXTBEGIN
1070
    73
1070
     1
1070
    44
1040
1.0
1070
    74
1070
     0
1000
MTEXTEND
  0
POINT
  5
D248
330
C599
100
AcDbEntity
  8
Defpoints
 62
     0
100
AcDbPoint
 10
349.1036854639748
 20
278.9522475922836
 30
0.0
  0
POINT
  5
D249
330
C599
100
AcDbEntity
  8
Defpoints
 62
     0
100
AcDbPoint
 10
341.3536854639748
 20
253.9522475922836
 30
0.0
  0
POINT
  5
D24A
330
C599
100
AcDbEntity
  8
Defpoints
 62
     0
100
AcDbPoint
 10
329.3536844639748
 20
253.9522475922836
 30
0.0
  0
ENDBLK
  5
C5A4
330
C599
100
AcDbEntity
  8
0
100
AcDbBlockEnd
  0
BLOCK
  5
C612
330
C608
100
AcDbEntity
  8
0
100
AcDbBlockBegin
  2
*D6
 70
     1
 10
0.0
 20
0.0
 30
0.0
  3
*D6
  1

  0
LINE
  5
D24B
330
C608
100
AcDbEntity
  8
AM_5
100
AcDbLine
 10
220.3545154639747
 20
267.1805970139295
 30
0.0
 11
220.3545154639747
 21
233.8205870139298
 31
0.0
  0
LINE
  5
D24C
330
C608
100
AcDbEntity
  8
AM_5
100
AcDbLine
 10
266.3528654639747
 20
267.1805970139295
 30
0.0
 11
266.3528654639747
 21
233.8205870139298
 31
0.0
  0
LINE
  5
D24D
330
C608
100
AcDbEntity
  8
AM_5
100
AcDbLine
 10
221.3545154639747
 20
234.8205870139298
 30
0.0
 11
265.3528654639747
 21
234.8205870139298
 31
0.0
  0
INSERT
  5
D24E
330
C608
100
AcDbEntity
  8
AM_5
100
AcDbBlockReference
  2
_Dot
 10
220.3545154639747
 20
234.8205870139298
 30
0.0
 50
180.0
  0
INSERT
  5
D24F
330
C608
100
AcDbEntity
  8
AM_5
100
AcDbBlockReference
  2
_Dot
 10
266.3528654639747
 20
234.8205870139298
 30
0.0
  0
MTEXT
  5
D250
330
C608
100
AcDbEntity
  8
AM_5
 62
     2
100
AcDbMText
 10
243.3536904639747
 20
237.9205870139298
 30
0.0
 40
3.200000000000001
 41
0.0
 71
     5
 72
     1
  1
46
 73
     1
 44
1.0
1001
ACAD
1000
MTEXTBEGIN
1070
    73
1070
     1
1070
    44
1040
1.0
1070
    74
1070
     0
1000
MTEXTEND
  0
POINT
  5
D251
330
C608
100
AcDbEntity
  8
Defpoints
 62
     0
100
AcDbPoint
 10
220.3545154639747
 20
268.1805970139296
 30
0.0
  0
POINT
  5
D252
330
C608
100
AcDbEntity
  8
Defpoints
 62
     0
100
AcDbPoint
 10
266.3528654639747
 20
268.1805970139296
 30
0.0
  0
POINT
  5
D253
330
C608
100
AcDbEntity
  8
Defpoints
 62
     0
100
AcDbPoint
 10
266.3528654639747
 20
234.8205870139298
 30
0.0
  0
ENDBLK
  5
C613
330
C608
100
AcDbEntity
  8
0
100
AcDbBlockEnd
  0
BLOCK
  5
C638
330
C62E
100
AcDbEntity
  8
0
100
AcDbBlockBegin
  2
*D7
 70
     1
 10
0.0
 20
0.0
 30
0.0
  3
*D7
  1

  0
LINE
  5
D2A2
330
C62E
100
AcDbEntity
  8
AM_5
100
AcDbLine
 10
213.3536854639746
 20
273.8205870139297
 30
0.0
 11
213.3536854639746
 21
225.8205870139298
 31
0.0
  0
LINE
  5
D2A3
330
C62E
100
AcDbEntity
  8
AM_5
100
AcDbLine
 10
273.3536854639746
 20
273.8205870139297
 30
0.0
 11
273.3536854639746
 21
225.8205870139298
 31
0.0
  0
LINE
  5
D2A4
330
C62E
100
AcDbEntity
  8
AM_5
100
AcDbLine
 10
214.3536854639746
 20
226.8205870139298
 30
0.0
 11
272.3536854639746
 21
226.8205870139298
 31
0.0
  0
INSERT
  5
D2A5
330
C62E
100
AcDbEntity
  8
AM_5
100
AcDbBlockReference
  2
_Dot
 10
213.3536854639746
 20
226.8205870139298
 30
0.0
 50
180.0
  0
INSERT
  5
D2A6
330
C62E
100
AcDbEntity
  8
AM_5
100
AcDbBlockReference
  2
_Dot
 10
273.3536854639746
 20
226.8205870139298
 30
0.0
  0
MTEXT
  5
D2A7
330
C62E
100
AcDbEntity
  8
AM_5
 62
     2
100
AcDbMText
 10
243.3536854639746
 20
229.9205870139298
 30
0.0
 40
3.200000000000001
 41
0.0
 71
     5
 72
     1
  1
%%c60
 73
     1
 44
1.0
1001
ACAD
1000
MTEXTBEGIN
1070
    73
1070
     1
1070
    44
1040
1.0
1070
    74
1070
     0
1000
MTEXTEND
  0
POINT
  5
D2A8
330
C62E
100
AcDbEntity
  8
Defpoints
 62
     0
100
AcDbPoint
 10
213.3536854639746
 20
274.8205870139297
 30
0.0
  0
POINT
  5
D2A9
330
C62E
100
AcDbEntity
  8
Defpoints
 62
     0
100
AcDbPoint
 10
273.3536854639746
 20
274.8205870139297
 30
0.0
  0
POINT
  5
D2AA
330
C62E
100
AcDbEntity
  8
Defpoints
 62
     0
100
AcDbPoint
 10
273.3536854639746
 20
226.8205870139298
 30
0.0
  0
ENDBLK
  5
C639
330
C62E
100
AcDbEntity
  8
0
100
AcDbBlockEnd
  0
BLOCK
  5
C687
330
C67D
100
AcDbEntity
  8
0
100
AcDbBlockBegin
  2
*D8
 70
     1
 10
0.0
 20
0.0
 30
0.0
  3
*D8
  1

  0
LINE
  5
D25D
330
C67D
100
AcDbEntity
  8
AM_5
100
AcDbLine
 10
232.9536654639748
 20
183.7768839618076
 30
0.0
 11
232.9536654639748
 21
191.7768839618076
 31
0.0
  0
LINE
  5
D25E
330
C67D
100
AcDbEntity
  8
AM_5
100
AcDbLine
 10
253.7536954639748
 20
183.7768839618076
 30
0.0
 11
253.7536954639748
 21
191.7768839618076
 31
0.0
  0
LINE
  5
D25F
330
C67D
100
AcDbEntity
  8
AM_5
100
AcDbLine
 10
233.9536654639748
 20
190.7768839618077
 30
0.0
 11
252.7536954639748
 21
190.7768839618077
 31
0.0
  0
INSERT
  5
D260
330
C67D
100
AcDbEntity
  8
AM_5
100
AcDbBlockReference
  2
_Dot
 10
232.9536654639748
 20
190.7768839618077
 30
0.0
 50
180.0
  0
INSERT
  5
D261
330
C67D
100
AcDbEntity
  8
AM_5
100
AcDbBlockReference
  2
_Dot
 10
253.7536954639748
 20
190.7768839618077
 30
0.0
  0
MTEXT
  5
D262
330
C67D
100
AcDbEntity
  8
AM_5
 62
     2
100
AcDbMText
 10
243.3536804639748
 20
193.8768839618076
 30
0.0
 40
3.200000000000001
 41
0.0
 71
     5
 72
     1
  1
20.8
 73
     1
 44
1.0
1001
ACAD
1000
MTEXTBEGIN
1070
    73
1070
     1
1070
    44
1040
1.0
1070
    74
1070
     0
1000
MTEXTEND
  0
POINT
  5
D263
330
C67D
100
AcDbEntity
  8
Defpoints
 62
     0
100
AcDbPoint
 10
232.9536654639748
 20
182.7768839618076
 30
0.0
  0
POINT
  5
D264
330
C67D
100
AcDbEntity
  8
Defpoints
 62
     0
100
AcDbPoint
 10
253.7536954639748
 20
182.7768839618076
 30
0.0
  0
POINT
  5
D265
330
C67D
100
AcDbEntity
  8
Defpoints
 62
     0
100
AcDbPoint
 10
253.7536954639748
 20
190.7768839618077
 30
0.0
  0
ENDBLK
  5
C688
330
C67D
100
AcDbEntity
  8
0
100
AcDbBlockEnd
  0
BLOCK
  5
C6FD
330
C6F3
100
AcDbEntity
  8
0
100
AcDbBlockBegin
  2
*D9
 70
     1
 10
0.0
 20
0.0
 30
0.0
  3
*D9
  1

  0
LINE
  5
D266
330
C6F3
100
AcDbEntity
  8
AM_5
100
AcDbLine
 10
226.9536654639752
 20
181.7768831774939
 30
0.0
 11
226.9536654639752
 21
199.7768839618077
 31
0.0
  0
LINE
  5
D267
330
C6F3
100
AcDbEntity
  8
AM_5
100
AcDbLine
 10
259.7536954639748
 20
181.7768839618076
 30
0.0
 11
259.7536954639748
 21
199.7768839618077
 31
0.0
  0
LINE
  5
D268
330
C6F3
100
AcDbEntity
  8
AM_5
100
AcDbLine
 10
227.9536654639752
 20
198.7768839618077
 30
0.0
 11
258.7536954639748
 21
198.7768839618077
 31
0.0
  0
INSERT
  5
D269
330
C6F3
100
AcDbEntity
  8
AM_5
100
AcDbBlockReference
  2
_Dot
 10
226.9536654639752
 20
198.7768839618077
 30
0.0
 50
180.0
  0
INSERT
  5
D26A
330
C6F3
100
AcDbEntity
  8
AM_5
100
AcDbBlockReference
  2
_Dot
 10
259.7536954639748
 20
198.7768839618077
 30
0.0
  0
MTEXT
  5
D26B
330
C6F3
100
AcDbEntity
  8
AM_5
 62
     2
100
AcDbMText
 10
243.353680463975
 20
201.8768839618076
 30
0.0
 40
3.200000000000001
 41
0.0
 71
     5
 72
     1
  1
32.8
 73
     1
 44
1.0
1001
ACAD
1000
MTEXTBEGIN
1070
    73
1070
     1
1070
    44
1040
1.0
1070
    74
1070
     0
1000
MTEXTEND
  0
POINT
  5
D26C
330
C6F3
100
AcDbEntity
  8
Defpoints
 62
     0
100
AcDbPoint
 10
226.9536654639752
 20
180.7768831774939
 30
0.0
  0
POINT
  5
D26D
330
C6F3
100
AcDbEntity
  8
Defpoints
 62
     0
100
AcDbPoint
 10
259.7536954639748
 20
180.7768839618076
 30
0.0
  0
POINT
  5
D26E
330
C6F3
100
AcDbEntity
  8
Defpoints
 62
     0
100
AcDbPoint
 10
259.7536954639748
 20
198.7768839618077
 30
0.0
  0
ENDBLK
  5
C6FE
330
C6F3
100
AcDbEntity
  8
0
100
AcDbBlockEnd
  0
BLOCK
  5
C85B
330
C851
100
AcDbEntity
  8
0
100
AcDbBlockBegin
  2
*D10
 70
     1
 10
0.0
 20
0.0
 30
0.0
  3
*D10
  1

  0
LINE
  5
D318
330
C851
100
AcDbEntity
  8
AM_5
100
AcDbLine
 10
254.7536954639748
 20
131.7768959618076
 30
0.0
 11
284.3536854639749
 21
131.7768959618076
 31
0.0
  0
LINE
  5
D319
330
C851
100
AcDbEntity
  8
AM_5
100
AcDbLine
 10
274.3536854639748
 20
81.77689396180765
 30
0.0
 11
284.3536854639748
 21
81.77689396180765
 31
0.0
  0
LINE
  5
D31A
330
C851
100
AcDbEntity
  8
AM_5
100
AcDbLine
 10
283.3536854639748
 20
130.7768959618076
 30
0.0
 11
283.3536854639748
 21
82.77689396180765
 31
0.0
  0
INSERT
  5
D31B
330
C851
100
AcDbEntity
  8
AM_5
100
AcDbBlockReference
  2
_Dot
 10
283.3536854639748
 20
131.7768959618076
 30
0.0
 50
90.0
  0
INSERT
  5
D31C
330
C851
100
AcDbEntity
  8
AM_5
100
AcDbBlockReference
  2
_Dot
 10
283.3536854639748
 20
81.77689396180765
 30
0.0
 50
270.0
  0
MTEXT
  5
D31D
330
C851
100
AcDbEntity
  8
AM_5
 62
     2
100
AcDbMText
 10
277.5870187973081
 20
106.7768949618076
 30
0.0
 40
3.200000000000001
 41
0.0
 71
     5
 72
     1
  1
調整寸法\P50～70
 11
0.0000000000000001
 21
1.0
 31
0.0
 73
     1
 44
1.0
1001
ACAD
1000
MTEXTBEGIN
1070
    73
1070
     1
1070
    44
1040
1.0
1070
    74
1070
     0
1000
MTEXTEND
  0
POINT
  5
D31E
330
C851
100
AcDbEntity
  8
Defpoints
 62
     0
100
AcDbPoint
 10
253.7536954639748
 20
131.7768959618076
 30
0.0
  0
POINT
  5
D31F
330
C851
100
AcDbEntity
  8
Defpoints
 62
     0
100
AcDbPoint
 10
273.3536854639748
 20
81.77689396180765
 30
0.0
  0
POINT
  5
D320
330
C851
100
AcDbEntity
  8
Defpoints
 62
     0
100
AcDbPoint
 10
283.3536854639748
 20
81.77689396180765
 30
0.0
  0
ENDBLK
  5
C85C
330
C851
100
AcDbEntity
  8
0
100
AcDbBlockEnd
  0
BLOCK
  5
C881
330
C877
100
AcDbEntity
  8
0
100
AcDbBlockBegin
  2
*D11
 70
     1
 10
0.0
 20
0.0
 30
0.0
  3
*D11
  1

  0
LINE
  5
D278
330
C877
100
AcDbEntity
  8
AM_5
100
AcDbLine
 10
254.7536954639748
 20
131.7768959618076
 30
0.0
 11
284.3536712948642
 21
131.7768959618076
 31
0.0
  0
LINE
  5
D279
330
C877
100
AcDbEntity
  8
AM_5
100
AcDbLine
 10
283.3536712948642
 20
132.7768959618076
 30
0.0
 11
283.3536712948642
 21
168.7501411714066
 31
0.0
  0
INSERT
  5
D27A
330
C877
100
AcDbEntity
  8
AM_5
100
AcDbBlockReference
  2
_Dot
 10
283.3536712948642
 20
131.7768959618076
 30
0.0
 50
270.0
  0
INSERT
  5
D27B
330
C877
100
AcDbEntity
  8
AM_5
100
AcDbBlockReference
  2
_OPEN30
 10
283.3536712948642
 20
169.7501411714066
 30
0.0
 50
90.0
  0
MTEXT
  5
D27C
330
C877
100
AcDbEntity
  8
AM_5
 62
     2
100
AcDbMText
 10
280.2536712948641
 20
150.7635185666071
 30
0.0
 40
3.200000000000001
 41
0.0
 71
     5
 72
     1
  1
調整可能範囲：20
 11
0.0000000000000001
 21
1.0
 31
0.0
 73
     1
 44
1.0
1001
ACAD
1000
MTEXTBEGIN
1070
    73
1070
     1
1070
    44
1040
1.0
1070
    74
1070
     0
1000
MTEXTEND
  0
POINT
  5
D27D
330
C877
100
AcDbEntity
  8
Defpoints
 62
     0
100
AcDbPoint
 10
253.7536954639748
 20
131.7768959618076
 30
0.0
  0
POINT
  5
D27E
330
C877
100
AcDbEntity
  8
Defpoints
 62
     0
100
AcDbPoint
 10
256.0536954639748
 20
169.7501411714066
 30
0.0
  0
POINT
  5
D27F
330
C877
100
AcDbEntity
  8
Defpoints
 62
     0
100
AcDbPoint
 10
283.3536712948642
 20
169.7501411714066
 30
0.0
  0
ENDBLK
  5
C882
330
C877
100
AcDbEntity
  8
0
100
AcDbBlockEnd
  0
BLOCK
  5
C93D
330
C933
100
AcDbEntity
  8
0
100
AcDbBlockBegin
  2
*D12
 70
     1
 10
0.0
 20
0.0
 30
0.0
  3
*D12
  1

  0
LINE
  5
D280
330
C933
100
AcDbEntity
  8
AM_5
100
AcDbLine
 10
336.3536854639749
 20
163.7768939618076
 30
0.0
 11
336.3536854639749
 21
191.7768839618076
 31
0.0
  0
LINE
  5
D281
330
C933
100
AcDbEntity
  8
AM_5
100
AcDbLine
 10
376.3536854639748
 20
163.7768939618076
 30
0.0
 11
376.3536854639748
 21
191.7768839618076
 31
0.0
  0
LINE
  5
D282
330
C933
100
AcDbEntity
  8
AM_5
100
AcDbLine
 10
337.3536854639748
 20
190.7768839618077
 30
0.0
 11
375.3536854639748
 21
190.7768839618077
 31
0.0
  0
INSERT
  5
D283
330
C933
100
AcDbEntity
  8
AM_5
100
AcDbBlockReference
  2
_Dot
 10
336.3536854639749
 20
190.7768839618077
 30
0.0
 50
180.0
  0
INSERT
  5
D284
330
C933
100
AcDbEntity
  8
AM_5
100
AcDbBlockReference
  2
_Dot
 10
376.3536854639748
 20
190.7768839618077
 30
0.0
  0
MTEXT
  5
D285
330
C933
100
AcDbEntity
  8
AM_5
 62
     2
100
AcDbMText
 10
356.3536854639748
 20
193.8768839618076
 30
0.0
 40
3.200000000000001
 41
0.0
 71
     5
 72
     1
  1
40
 73
     1
 44
1.0
1001
ACAD
1000
MTEXTBEGIN
1070
    73
1070
     1
1070
    44
1040
1.0
1070
    74
1070
     0
1000
MTEXTEND
  0
POINT
  5
D286
330
C933
100
AcDbEntity
  8
Defpoints
 62
     0
100
AcDbPoint
 10
336.3536854639749
 20
162.7768939618076
 30
0.0
  0
POINT
  5
D287
330
C933
100
AcDbEntity
  8
Defpoints
 62
     0
100
AcDbPoint
 10
376.3536854639748
 20
162.7768939618076
 30
0.0
  0
POINT
  5
D288
330
C933
100
AcDbEntity
  8
Defpoints
 62
     0
100
AcDbPoint
 10
376.3536854639748
 20
190.7768839618077
 30
0.0
  0
ENDBLK
  5
C93E
330
C933
100
AcDbEntity
  8
0
100
AcDbBlockEnd
  0
BLOCK
  5
C967
330
C95D
100
AcDbEntity
  8
0
100
AcDbBlockBegin
  2
*D13
 70
     1
 10
0.0
 20
0.0
 30
0.0
  3
*D13
  1

  0
LINE
  5
D289
330
C95D
100
AcDbEntity
  8
AM_5
100
AcDbLine
 10
346.8536754639749
 20
90.27689796180764
 30
0.0
 11
346.8536754639749
 21
108.8678909618897
 31
0.0
  0
LINE
  5
D28A
330
C95D
100
AcDbEntity
  8
AM_5
100
AcDbLine
 10
365.8536854639748
 20
90.27689396180763
 30
0.0
 11
365.8536854639748
 21
108.8678909618897
 31
0.0
  0
LINE
  5
D28B
330
C95D
100
AcDbEntity
  8
AM_5
100
AcDbLine
 10
347.8536754639748
 20
107.8678909618897
 30
0.0
 11
364.8536854639748
 21
107.8678909618897
 31
0.0
  0
LINE
  5
D28C
330
C95D
100
AcDbEntity
  8
AM_5
100
AcDbLine
 10
365.8536854639748
 20
107.8678909618897
 30
0.0
 11
378.0921801546274
 21
107.8678909618897
 31
0.0
  0
INSERT
  5
D28D
330
C95D
100
AcDbEntity
  8
AM_5
100
AcDbBlockReference
  2
_Dot
 10
346.8536754639749
 20
107.8678909618897
 30
0.0
 50
180.0
  0
INSERT
  5
D28E
330
C95D
100
AcDbEntity
  8
AM_5
100
AcDbBlockReference
  2
_Dot
 10
365.8536854639748
 20
107.8678909618897
 30
0.0
  0
MTEXT
  5
D28F
330
C95D
100
AcDbEntity
  8
AM_5
 62
     2
100
AcDbMText
 10
373.8188468212941
 20
110.9678909618897
 30
0.0
 40
3.200000000000001
 41
0.0
 71
     5
 72
     1
  1
%%c19
 73
     1
 44
1.0
1001
ACAD
1000
MTEXTBEGIN
1070
    73
1070
     1
1070
    44
1040
1.0
1070
    74
1070
     0
1000
MTEXTEND
  0
POINT
  5
D290
330
C95D
100
AcDbEntity
  8
Defpoints
 62
     0
100
AcDbPoint
 10
346.8536754639749
 20
89.27689796180763
 30
0.0
  0
POINT
  5
D291
330
C95D
100
AcDbEntity
  8
Defpoints
 62
     0
100
AcDbPoint
 10
365.8536854639748
 20
89.27689396180763
 30
0.0
  0
POINT
  5
D292
330
C95D
100
AcDbEntity
  8
Defpoints
 62
     0
100
AcDbPoint
 10
365.8536854639748
 20
107.8678909618897
 30
0.0
  0
ENDBLK
  5
C968
330
C95D
100
AcDbEntity
  8
0
100
AcDbBlockEnd
  0
BLOCK
  5
CAB2
330
CAA9
100
AcDbEntity
  8
0
100
AcDbBlockBegin
  2
*D14
 70
     1
 10
0.0
 20
0.0
 30
0.0
  3
*D14
  1

  0
LINE
  5
D2AB
330
CAA9
100
AcDbEntity
  8
AM_5
100
AcDbLine
 10
328.1265309220294
 20
291.7442412177592
 30
0.0
 11
344.3251975886953
 21
291.7442412177592
 31
0.0
  0
LINE
  5
D2AC
330
CAA9
100
AcDbEntity
  8
AM_5
100
AcDbLine
 10
344.3251975886953
 20
291.7442412177592
 30
0.0
 11
352.0722394717273
 21
283.505457472738
 31
0.0
  0
MTEXT
  5
D2AD
330
CAA9
100
AcDbEntity
  8
AM_5
 62
     2
100
AcDbMText
 10
335.3798642553627
 20
294.8442412177592
 30
0.0
 40
3.200000000000001
 41
0.0
 71
     5
 72
     1
  1
\U+22058.5貫通孔
 73
     1
 44
1.0
1001
ACAD
1000
MTEXTBEGIN
1070
    73
1070
     1
1070
    44
1040
1.0
1070
    74
1070
     0
1000
MTEXTEND
  0
INSERT
  5
D2AE
330
CAA9
100
AcDbEntity
  8
AM_5
100
AcDbBlockReference
  2
_OPEN30
 10
353.4423021892465
 20
282.0484303109926
 30
0.0
 41
2.0
 42
2.0
 43
2.0
 50
313.2380733874485
  0
POINT
  5
D2AF
330
CAA9
100
AcDbEntity
  8
Defpoints
 62
     0
100
AcDbPoint
 10
353.4423021892465
 20
282.0484303109926
 30
0.0
  0
POINT
  5
D2B0
330
CAA9
100
AcDbEntity
  8
Defpoints
 62
     0
100
AcDbPoint
 10
359.2650687387031
 20
275.8560648735747
 30
0.0
  0
ENDBLK
  5
CAB3
330
CAA9
100
AcDbEntity
  8
0
100
AcDbBlockEnd
  0
BLOCK
  5
CC6B
330
CC64
100
AcDbEntity
  8
0
100
AcDbBlockBegin
  2
*S5315
 70
     1
 10
0.0
 20
0.0
 30
0.0
  3
*S5315
  1

  0
LINE
  5
CC65
330
CC64
100
AcDbEntity
  8
AM_5
 62
     3
100
AcDbLine
 10
401.0000113380105
 20
264.4776794676279
 30
0.0
 11
384.9786780046772
 21
264.4776794676279
 31
0.0
  0
LINE
  5
CC66
330
CC64
100
AcDbEntity
  8
AM_5
 62
     3
100
AcDbLine
 10
384.9786780046772
 20
264.4776794676279
 30
0.0
 11
378.4294954293518
 21
255.5639815973364
 31
0.0
  0
LINE
  5
CC67
330
CC64
100
AcDbEntity
  8
AM_5
 62
     3
100
AcDbLine
 10
378.4294954293518
 20
255.5639815973364
 30
0.0
 11
377.2453022453837
 21
253.9522475922836
 31
0.0
  0
LINE
  5
CC68
330
CC64
100
AcDbEntity
  8
AM_5
 62
     3
100
AcDbLine
 10
377.9976326082025
 20
255.8812852017843
 30
0.0
 11
377.2453022453837
 21
253.9522475922836
 31
0.0
  0
LINE
  5
CC69
330
CC64
100
AcDbEntity
  8
AM_5
 62
     3
100
AcDbLine
 10
377.2453022453837
 20
253.9522475922836
 30
0.0
 11
378.8613582505012
 21
255.2466779928886
 31
0.0
  0
MTEXT
  5
CC6A
330
CC64
100
AcDbEntity
  8
AM_5
 62
     2
100
AcDbMText
 10
388.1786780046772
 20
266.077679467628
 30
0.0
 40
3.2
 41
0.0
 71
     7
 72
     5
  1
パネル下端
 73
     1
 44
1.0
1001
ACAD
1000
MTEXTBEGIN
1070
    73
1070
     1
1070
    44
1040
1.0
1070
    74
1070
     0
1000
MTEXTEND
  0
ENDBLK
  5
CC6C
330
CC64
100
AcDbEntity
  8
0
100
AcDbBlockEnd
  0
BLOCK
  5
CD5D
330
CD53
100
AcDbEntity
  8
0
100
AcDbBlockBegin
  2
*D17
 70
     1
 10
0.0
 20
0.0
 30
0.0
  3
*D17
  1

  0
LINE
  5
D299
330
CD53
100
AcDbEntity
  8
AM_5
100
AcDbLine
 10
357.3536854639749
 20
182.7768939618076
 30
0.0
 11
387.3536854639749
 21
182.7768939618076
 31
0.0
  0
LINE
  5
D29A
330
CD53
100
AcDbEntity
  8
AM_5
100
AcDbLine
 10
375.3536854639748
 20
127.7768939618076
 30
0.0
 11
387.3536854639748
 21
127.7768939618076
 31
0.0
  0
LINE
  5
D29B
330
CD53
100
AcDbEntity
  8
AM_5
100
AcDbLine
 10
386.3536854639749
 20
181.7768939618076
 30
0.0
 11
386.3536854639749
 21
128.7768939618076
 31
0.0
  0
INSERT
  5
D29C
330
CD53
100
AcDbEntity
  8
AM_5
100
AcDbBlockReference
  2
_Dot
 10
386.3536854639749
 20
182.7768939618076
 30
0.0
 50
90.0
  0
INSERT
  5
D29D
330
CD53
100
AcDbEntity
  8
AM_5
100
AcDbBlockReference
  2
_Dot
 10
386.3536854639749
 20
127.7768939618076
 30
0.0
 50
270.0
  0
MTEXT
  5
D29E
330
CD53
100
AcDbEntity
  8
AM_5
 62
     2
100
AcDbMText
 10
383.2536854639748
 20
155.2768939618077
 30
0.0
 40
3.200000000000001
 41
0.0
 71
     5
 72
     1
  1
55
 11
0.0000000000000001
 21
1.0
 31
0.0
 73
     1
 44
1.0
1001
ACAD
1000
MTEXTBEGIN
1070
    73
1070
     1
1070
    44
1040
1.0
1070
    74
1070
     0
1000
MTEXTEND
  0
POINT
  5
D29F
330
CD53
100
AcDbEntity
  8
Defpoints
 62
     0
100
AcDbPoint
 10
356.3536854639748
 20
182.7768939618076
 30
0.0
  0
POINT
  5
D2A0
330
CD53
100
AcDbEntity
  8
Defpoints
 62
     0
100
AcDbPoint
 10
374.3536854639748
 20
127.7768939618076
 30
0.0
  0
POINT
  5
D2A1
330
CD53
100
AcDbEntity
  8
Defpoints
 62
     0
100
AcDbPoint
 10
386.3536854639749
 20
127.7768939618076
 30
0.0
  0
ENDBLK
  5
CD5E
330
CD53
100
AcDbEntity
  8
0
100
AcDbBlockEnd
  0
ENDSEC
  0
SECTION
  2
ENTITIES
  0
POINT
  5
C4A8
330
1F
100
AcDbEntity
  8
_0-0_0
 62
     7
100
AcDbPoint
 10
64.49209546397469
 20
44.75327701392961
 30
0.0
  0
POINT
  5
C4AA
330
1F
100
AcDbEntity
  8
_0-0_0
 62
     7
100
AcDbPoint
 10
64.49209546397469
 20
44.75327701392961
 30
0.0
  0
LINE
  5
C4AB
102
{ACAD_REACTORS
330
C68A
102
}
330
1F
100
AcDbEntity
  8
AM_0
100
AcDbLine
 10
232.9536654639748
 20
182.7768839618076
 30
0.0
 11
232.9536754639748
 21
152.7768839618077
 31
0.0
  0
LINE
  5
C4AC
102
{ACAD_REACTORS
330
C68A
102
}
330
1F
100
AcDbEntity
  8
AM_0
100
AcDbLine
 10
253.7536954639748
 20
182.7768839618076
 30
0.0
 11
253.7536954639748
 21
152.7768839618077
 31
0.0
  0
LINE
  5
C4AD
102
{ACAD_REACTORS
330
C85E
330
C884
102
}
330
1F
100
AcDbEntity
  8
AM_0
100
AcDbLine
 10
253.7536954639748
 20
131.7768959618076
 30
0.0
 11
232.9536854639747
 21
131.7768909618076
 31
0.0
  0
LINE
  5
C4AE
330
1F
100
AcDbEntity
  8
_1-0_AM_7
  6
CENTER2
 62
     4
 48
0.5
100
AcDbLine
 10
261.7536954639748
 20
156.7768839618077
 30
0.0
 11
224.9536748757404
 21
156.7768839618077
 31
0.0
  0
ARC
  5
C4B0
330
1F
100
AcDbEntity
  8
AM_0
100
AcDbCircle
 10
243.3536854639746
 20
274.8205870139297
 30
0.0
 40
5.0
100
AcDbArc
 50
0.0
 51
126.8698899999999
  0
LINE
  5
C4B1
330
1F
100
AcDbEntity
  8
AM_0
100
AcDbLine
 10
253.7536954639747
 20
294.8205870139296
 30
0.0
 11
253.7536954639747
 21
254.8205870139296
 31
0.0
  0
LINE
  5
C4B2
330
1F
100
AcDbEntity
  8
AM_0
100
AcDbLine
 10
232.9536854639746
 20
294.8205870139296
 30
0.0
 11
232.9536854639746
 21
254.8205870139296
 31
0.0
  0
ARC
  5
C4B3
330
1F
100
AcDbEntity
  8
AM_0
100
AcDbCircle
 10
243.3536854639746
 20
274.8205870139297
 30
0.0
 40
17.5
100
AcDbArc
 50
339.5772365056799
 51
20.42276349432006
  0
LINE
  5
C4B4
330
1F
100
AcDbEntity
  8
AM_0
100
AcDbLine
 10
259.7536954639747
 20
292.8205870139296
 30
0.0
 11
259.7536954639747
 21
256.8205870139296
 31
0.0
  0
LINE
  5
C4B5
330
1F
100
AcDbEntity
  8
AM_0
100
AcDbLine
 10
251.7536954639747
 20
294.8205870139296
 30
0.0
 11
257.7536954639747
 21
294.8205870139296
 31
0.0
  0
LINE
  5
C4B6
330
1F
100
AcDbEntity
  8
AM_0
100
AcDbLine
 10
251.7536954639747
 20
254.8205870139296
 30
0.0
 11
257.7536954639747
 21
254.8205870139296
 31
0.0
  0
LINE
  5
C4B7
330
1F
100
AcDbEntity
  8
AM_0
100
AcDbLine
 10
251.7536954639747
 20
294.8205870139296
 30
0.0
 11
251.7536954639747
 21
292.8205870139296
 31
0.0
  0
LINE
  5
C4B8
330
1F
100
AcDbEntity
  8
AM_0
100
AcDbLine
 10
251.7536954639747
 20
256.8205870139296
 30
0.0
 11
251.7536954639747
 21
254.8205870139296
 31
0.0
  0
ARC
  5
C4B9
330
1F
100
AcDbEntity
  8
AM_0
100
AcDbCircle
 10
257.7536954639747
 20
292.8205870139296
 30
0.0
 40
2.0
100
AcDbArc
 50
0.0
 51
90.0
  0
ARC
  5
C4BA
330
1F
100
AcDbEntity
  8
AM_0
100
AcDbCircle
 10
257.7536954639747
 20
256.8205870139296
 30
0.0
 40
2.0
100
AcDbArc
 50
270.0
 51
0.0
  0
LINE
  5
C4BB
330
1F
100
AcDbEntity
  8
AM_0
100
AcDbLine
 10
234.9536854639747
 20
294.8205870139296
 30
0.0
 11
234.9536854639747
 21
292.8205870139296
 31
0.0
  0
LINE
  5
C4BC
330
1F
100
AcDbEntity
  8
AM_0
100
AcDbLine
 10
234.9536854639747
 20
294.8205870139296
 30
0.0
 11
228.9536854639747
 21
294.8205870139296
 31
0.0
  0
ARC
  5
C4BD
330
1F
100
AcDbEntity
  8
AM_0
100
AcDbCircle
 10
228.9536854639747
 20
292.8205870139296
 30
0.0
 40
2.0
100
AcDbArc
 50
90.0
 51
180.0
  0
LINE
  5
C4BE
330
1F
100
AcDbEntity
  8
AM_0
100
AcDbLine
 10
226.9536854639747
 20
292.8205870139296
 30
0.0
 11
226.9536854639747
 21
256.8205870139296
 31
0.0
  0
ARC
  5
C4BF
330
1F
100
AcDbEntity
  8
AM_0
100
AcDbCircle
 10
228.9536854639747
 20
256.8205870139296
 30
0.0
 40
2.0
100
AcDbArc
 50
180.0
 51
270.0
  0
LINE
  5
C4C0
330
1F
100
AcDbEntity
  8
AM_0
100
AcDbLine
 10
234.9536854639747
 20
254.8205870139296
 30
0.0
 11
228.9536854639747
 21
254.8205870139296
 31
0.0
  0
LINE
  5
C4C1
330
1F
100
AcDbEntity
  8
AM_0
100
AcDbLine
 10
234.9536854639747
 20
256.8205870139296
 30
0.0
 11
234.9536854639747
 21
254.8205870139296
 31
0.0
  0
LINE
  5
C4C2
330
1F
100
AcDbEntity
  8
AM_0
100
AcDbLine
 10
232.9536854639746
 20
292.8205870139296
 30
0.0
 11
253.7536954639747
 21
292.8205870139296
 31
0.0
  0
LINE
  5
C4C3
330
1F
100
AcDbEntity
  8
AM_0
100
AcDbLine
 10
232.9536854639746
 20
256.8205870139296
 30
0.0
 11
253.7536954639747
 21
256.8205870139296
 31
0.0
  0
LINE
  5
C4C4
330
1F
100
AcDbEntity
  8
AM_0
100
AcDbLine
 10
244.4536854639747
 20
278.8205870139297
 30
0.0
 11
244.4536854639747
 21
270.8205870139297
 31
0.0
  0
LINE
  5
C4C5
330
1F
100
AcDbEntity
  8
AM_0
100
AcDbLine
 10
232.9536854639746
 20
278.8205870139297
 30
0.0
 11
244.4536854639747
 21
278.8205870139297
 31
0.0
  0
LINE
  5
C4C6
330
1F
100
AcDbEntity
  8
AM_0
100
AcDbLine
 10
232.9536854639746
 20
270.8205870139297
 30
0.0
 11
244.4536854639747
 21
270.8205870139297
 31
0.0
  0
LINE
  5
C4C7
102
{ACAD_REACTORS
330
C700
102
}
330
1F
100
AcDbEntity
  8
AM_0
100
AcDbLine
 10
259.7536954639748
 20
180.7768839618076
 30
0.0
 11
259.7536954639748
 21
129.7768959618077
 31
0.0
  0
LINE
  5
C4C8
330
1F
100
AcDbEntity
  8
AM_0
100
AcDbLine
 10
257.7536954639748
 20
127.7768959618076
 30
0.0
 11
251.7536954639748
 21
127.7768939618076
 31
0.0
  0
LINE
  5
C4C9
330
1F
100
AcDbEntity
  8
AM_0
100
AcDbLine
 10
257.7536954639748
 20
182.7768839618076
 30
0.0
 11
253.7536954639748
 21
182.7768839618076
 31
0.0
  0
ARC
  5
C4CA
330
1F
100
AcDbEntity
  8
AM_0
100
AcDbCircle
 10
257.7536954639748
 20
180.7768839618076
 30
0.0
 40
2.0
100
AcDbArc
 50
0.0
 51
90.0
  0
ARC
  5
C4CB
330
1F
100
AcDbEntity
  8
AM_0
100
AcDbCircle
 10
257.7536954639748
 20
129.7768959618077
 30
0.0
 40
2.0
100
AcDbArc
 50
270.0000200000004
 51
0.0
  0
LINE
  5
C4CC
330
1F
100
AcDbEntity
  8
AM_0
100
AcDbLine
 10
251.7536954639748
 20
131.7768949618076
 30
0.0
 11
251.7536954639748
 21
127.7768949618077
 31
0.0
  0
LINE
  5
C4CD
330
1F
100
AcDbEntity
  8
AM_0
100
AcDbLine
 10
251.7536954639748
 20
129.2768949618077
 30
0.0
 11
239.6536854639747
 21
129.2768929618077
 31
0.0
  0
LINE
  5
C4CE
330
1F
100
AcDbEntity
  8
AM_0
100
AcDbLine
 10
251.7536954639748
 20
129.7768949618077
 30
0.0
 11
239.6536854639747
 21
129.7768929618077
 31
0.0
  0
LINE
  5
C4CF
330
1F
100
AcDbEntity
  8
AM_0
100
AcDbLine
 10
228.9536654639749
 20
182.7768839618076
 30
0.0
 11
232.9536654639748
 21
182.7768839618076
 31
0.0
  0
ARC
  5
C4D0
330
1F
100
AcDbEntity
  8
AM_0
100
AcDbCircle
 10
228.9536654639749
 20
180.7768839618076
 30
0.0
 40
2.0
100
AcDbArc
 50
90.00002800000013
 51
180.0000199999999
  0
LINE
  5
C4D1
330
1F
100
AcDbEntity
  8
AM_0
100
AcDbLine
 10
226.9536654639748
 20
180.7768839618076
 30
0.0
 11
226.9536854639748
 21
129.7768899618077
 31
0.0
  0
LINE
  5
C4D2
330
1F
100
AcDbEntity
  8
AM_0
100
AcDbLine
 10
244.4536754639748
 20
160.7768839618077
 30
0.0
 11
244.4536754639748
 21
159.2768839618077
 31
0.0
  0
LINE
  5
C4D3
330
1F
100
AcDbEntity
  8
AM_0
100
AcDbLine
 10
244.4536754639748
 20
160.7768839618077
 30
0.0
 11
232.9536754639748
 21
160.7768839618077
 31
0.0
  0
LINE
  5
C4D4
330
1F
100
AcDbEntity
  8
AM_0
100
AcDbLine
 10
244.4536754639748
 20
152.7768839618077
 30
0.0
 11
232.9536754639748
 21
152.7768839618077
 31
0.0
  0
LINE
  5
C4D5
330
1F
100
AcDbEntity
  8
AM_0
100
AcDbLine
 10
232.9536754639748
 20
152.7768839618077
 30
0.0
 11
232.9536854639747
 21
131.7768909618076
 31
0.0
  0
ARC
  5
C4DA
330
1F
100
AcDbEntity
  8
AM_0
100
AcDbCircle
 10
243.3536854639746
 20
274.8205870139297
 30
0.0
 40
5.0
100
AcDbArc
 50
233.1300999999998
 51
0.0
  0
LINE
  5
C4DB
330
1F
100
AcDbEntity
  8
AM_0
100
AcDbLine
 10
253.7536954639748
 20
160.7768839618077
 30
0.0
 11
253.2536954639748
 21
160.7768839618077
 31
0.0
  0
LINE
  5
C4DC
330
1F
100
AcDbEntity
  8
AM_0
100
AcDbLine
 10
253.7536954639748
 20
152.7768839618077
 30
0.0
 11
253.2536954639748
 21
152.7768839618077
 31
0.0
  0
LINE
  5
C4DD
330
1F
100
AcDbEntity
  8
AM_0
100
AcDbLine
 10
253.2536954639748
 20
160.7768839618077
 30
0.0
 11
253.2536954639748
 21
152.7768839618077
 31
0.0
  0
LINE
  5
C4DE
330
1F
100
AcDbEntity
  8
AM_0
100
AcDbLine
 10
253.7536954639748
 20
152.7768839618077
 30
0.0
 11
253.7536954639748
 21
131.7768959618076
 31
0.0
  0
LINE
  5
C4DF
330
1F
100
AcDbEntity
  8
AM_0
100
AcDbLine
 10
244.4536754639748
 20
159.2768839618077
 30
0.0
 11
244.4536754639748
 21
152.7768839618077
 31
0.0
  0
LINE
  5
C4E0
330
1F
100
AcDbEntity
  8
AM_0
100
AcDbLine
 10
253.2536954639747
 20
278.8205870139297
 30
0.0
 11
253.2536954639747
 21
270.8205870139297
 31
0.0
  0
LINE
  5
C4E1
330
1F
100
AcDbEntity
  8
AM_0
100
AcDbLine
 10
253.2536954639747
 20
278.8205870139297
 30
0.0
 11
253.7536954639747
 21
278.8205870139297
 31
0.0
  0
LINE
  5
C4E2
330
1F
100
AcDbEntity
  8
AM_0
100
AcDbLine
 10
253.2536954639747
 20
270.8205870139297
 30
0.0
 11
253.7536954639747
 21
270.8205870139297
 31
0.0
  0
LINE
  5
C4E3
330
1F
100
AcDbEntity
  8
AM_0
100
AcDbLine
 10
228.9536854639748
 20
127.7768909618076
 30
0.0
 11
234.9536954639748
 21
127.7768919618076
 31
0.0
  0
LINE
  5
C4E4
330
1F
100
AcDbEntity
  8
AM_0
100
AcDbLine
 10
234.9536854639748
 20
131.7768929618077
 30
0.0
 11
234.9536954639748
 21
127.7768929618076
 31
0.0
  0
LINE
  5
C4E5
330
1F
100
AcDbEntity
  8
AM_0
100
AcDbLine
 10
234.9536854639748
 20
129.2768919618076
 30
0.0
 11
239.6536954639748
 21
129.2768929618077
 31
0.0
  0
LINE
  5
C4E6
330
1F
100
AcDbEntity
  8
AM_0
100
AcDbLine
 10
234.9536854639748
 20
129.7768929618077
 30
0.0
 11
239.6536954639748
 21
129.7768929618077
 31
0.0
  0
ARC
  5
C4E7
330
1F
100
AcDbEntity
  8
AM_0
100
AcDbCircle
 10
228.9536854639748
 20
129.7768909618077
 30
0.0
 40
2.0
100
AcDbArc
 50
180.0000199999999
 51
270.0
  0
LINE
  5
C4E9
330
1F
100
AcDbEntity
  8
AM_0
100
AcDbLine
 10
251.7536954639747
 20
293.3205870139296
 30
0.0
 11
253.7536954639747
 21
293.3205870139296
 31
0.0
  0
LINE
  5
C4EA
330
1F
100
AcDbEntity
  8
AM_0
100
AcDbLine
 10
234.9536854639747
 20
293.3205870139296
 30
0.0
 11
232.9536854639746
 21
293.3205870139296
 31
0.0
  0
LINE
  5
C4EB
330
1F
100
AcDbEntity
  8
AM_0
100
AcDbLine
 10
234.9536854639747
 20
256.3205870139297
 30
0.0
 11
232.9536854639746
 21
256.3205870139297
 31
0.0
  0
LINE
  5
C4EC
330
1F
100
AcDbEntity
  8
AM_0
100
AcDbLine
 10
251.7536954639747
 20
256.3205870139297
 30
0.0
 11
253.7536954639747
 21
256.3205870139297
 31
0.0
  0
LINE
  5
C4F5
102
{ACAD_REACTORS
330
C63B
102
}
330
1F
100
AcDbEntity
  8
_1-0_AM_7
  6
CENTER2
 62
     4
100
AcDbLine
 10
210.3536854639746
 20
274.8205870139297
 30
0.0
 11
276.3536854639746
 21
274.8205870139297
 31
0.0
  0
CIRCLE
  5
C4F6
330
1F
100
AcDbEntity
  8
AM_0
100
AcDbCircle
 10
243.3536854639746
 20
274.8205870139297
 30
0.0
 40
28.0
  0
CIRCLE
  5
C4F7
102
{ACAD_REACTORS
330
C63B
102
}
330
1F
100
AcDbEntity
  8
AM_0
100
AcDbCircle
 10
243.3536854639746
 20
274.8205870139297
 30
0.0
 40
30.0
  0
LINE
  5
C4F8
330
1F
100
AcDbEntity
  8
AM_0
100
AcDbLine
 10
260.8536854639748
 20
88.77689396180764
 30
0.0
 11
243.3536854639747
 21
88.77689396180764
 31
0.0
  0
LINE
  5
C4F9
330
1F
100
AcDbEntity
  8
AM_0
100
AcDbLine
 10
270.8708754639748
 20
86.74600296180768
 30
0.0
 11
243.3536854639747
 21
86.74600296180768
 31
0.0
  0
LINE
  5
C4FA
330
1F
100
AcDbEntity
  8
AM_0
100
AcDbLine
 10
214.9692354639748
 20
81.77689396180765
 30
0.0
 11
271.7381354639748
 21
81.77689396180765
 31
0.0
  0
LINE
  5
C4FE
330
1F
100
AcDbEntity
  8
AM_0
100
AcDbLine
 10
233.8536954639748
 20
127.7768929618076
 30
0.0
 11
233.8537154639748
 21
89.27688996180766
 31
0.0
  0
LINE
  5
C4FF
330
1F
100
AcDbEntity
  8
AM_0
100
AcDbLine
 10
252.8536854639748
 20
127.7768969618076
 30
0.0
 11
252.8536854639748
 21
89.27689396180765
 31
0.0
  0
LINE
  5
C500
330
1F
100
AcDbEntity
  8
_1-0_AM_7
  6
CENTER2
 62
     4
100
AcDbLine
 10
243.3536854639747
 20
139.5617059618077
 30
0.0
 11
243.3536854639747
 21
79.77689396180764
 31
0.0
  0
LINE
  5
C501
330
1F
100
AcDbEntity
  8
AM_0
100
AcDbLine
 10
225.8536854639747
 20
88.77689396180764
 30
0.0
 11
243.3536854639747
 21
88.77689396180764
 31
0.0
  0
LINE
  5
C502
330
1F
100
AcDbEntity
  8
AM_0
100
AcDbLine
 10
215.8365054639748
 20
86.74600296180768
 30
0.0
 11
243.3536854639747
 21
86.74600296180768
 31
0.0
  0
LINE
  5
C503
330
1F
100
AcDbEntity
  8
AM_0
100
AcDbLine
 10
213.3536854639746
 20
81.77690196180765
 30
0.0
 11
214.9358054639748
 21
85.73221296180767
 31
0.0
  0
LINE
  5
C504
330
1F
100
AcDbEntity
  8
AM_0
100
AcDbLine
 10
213.3536854639746
 20
81.77690196180765
 30
0.0
 11
214.9469054639748
 21
85.75994596180764
 31
0.0
  0
LINE
  5
C505
330
1F
100
AcDbEntity
  8
AM_0
100
AcDbLine
 10
214.9692354639748
 20
81.77689396180765
 30
0.0
 11
213.3536854639746
 21
81.77689396180765
 31
0.0
  0
LINE
  5
C506
330
1F
100
AcDbEntity
  8
AM_0
100
AcDbLine
 10
213.3536854639746
 20
81.77689396180765
 30
0.0
 11
214.9692354639748
 21
81.77689396180765
 31
0.0
  0
LINE
  5
C507
330
1F
100
AcDbEntity
  8
AM_0
100
AcDbLine
 10
225.8536854639747
 20
88.77688996180765
 30
0.0
 11
216.4133954639748
 21
86.95311396180764
 31
0.0
  0
LINE
  5
C508
330
1F
100
AcDbEntity
  8
AM_0
100
AcDbLine
 10
216.8883954639748
 20
87.06922596180765
 30
0.0
 11
216.4296454639748
 21
86.98184296180766
 31
0.0
  0
ARC
  5
C509
330
1F
100
AcDbEntity
  8
AM_0
100
AcDbCircle
 10
216.7927654639748
 20
84.98942596180766
 30
0.0
 40
2.0
100
AcDbArc
 50
100.9343099999999
 51
158.1985899999998
  0
LINE
  5
C50A
330
1F
100
AcDbEntity
  8
AM_0
100
AcDbLine
 10
233.8536854639748
 20
89.27689396180765
 30
0.0
 11
243.3536854639747
 21
89.27689396180765
 31
0.0
  0
LINE
  5
C50B
330
1F
100
AcDbEntity
  8
AM_0
100
AcDbLine
 10
230.8536854639747
 20
88.77688996180765
 30
0.0
 11
243.3536854639747
 21
88.77688996180765
 31
0.0
  0
LINE
  5
C511
330
1F
100
AcDbEntity
  8
AM_0
100
AcDbLine
 10
233.8536854639748
 20
89.27689396180765
 30
0.0
 11
234.3536854639748
 21
88.77689396180764
 31
0.0
  0
LINE
  5
C513
330
1F
100
AcDbEntity
  8
AM_0
100
AcDbLine
 10
252.8536854639748
 20
89.27689396180765
 30
0.0
 11
243.3536854639747
 21
89.27689396180765
 31
0.0
  0
LINE
  5
C514
330
1F
100
AcDbEntity
  8
AM_0
100
AcDbLine
 10
255.8536854639748
 20
88.77688996180765
 30
0.0
 11
243.3536854639747
 21
88.77688996180765
 31
0.0
  0
LINE
  5
C515
330
1F
100
AcDbEntity
  8
AM_0
100
AcDbLine
 10
252.3536854639748
 20
88.77689396180764
 30
0.0
 11
252.8536854639748
 21
89.27689396180765
 31
0.0
  0
LINE
  5
C51B
330
1F
100
AcDbEntity
  8
_1-0_AM_7
  6
CENTER2
 62
     4
100
AcDbLine
 10
243.3536854639746
 20
241.8205870139296
 30
0.0
 11
243.3536854639746
 21
307.8205870139296
 31
0.0
  0
LINE
  5
C51C
102
{ACAD_REACTORS
330
C615
102
}
330
1F
100
AcDbEntity
  8
_1-0_AM_7
  6
CENTER2
 62
     4
 48
0.3
100
AcDbLine
 10
220.3545154639747
 20
268.1805970139296
 30
0.0
 11
220.3545154639747
 21
281.4605870139295
 31
0.0
  0
CIRCLE
  5
C51D
330
1F
100
AcDbEntity
  8
AM_0
100
AcDbCircle
 10
220.3545254639746
 20
274.8205870139297
 30
0.0
 40
4.099999899999999
  0
CIRCLE
  5
C51E
330
1F
100
AcDbEntity
  8
AM_0
100
AcDbCircle
 10
220.3545254639746
 20
274.8205870139297
 30
0.0
 40
3.099999899999998
  0
ARC
  5
C521
102
{ACAD_REACTORS
330
C940
102
}
330
1F
100
AcDbEntity
  8
AM_0
100
AcDbCircle
 10
356.3536854639748
 20
162.7768939618076
 30
0.0
 40
20.0
100
AcDbArc
 50
0.0
 51
90.0
  0
LINE
  5
C522
102
{ACAD_REACTORS
330
CD60
102
}
330
1F
100
AcDbEntity
  8
AM_0
100
AcDbLine
 10
374.3536854639748
 20
127.7768939618076
 30
0.0
 11
356.3536854639748
 21
127.7768939618076
 31
0.0
  0
LINE
  5
C523
330
1F
100
AcDbEntity
  8
AM_0
100
AcDbLine
 10
338.8536854639748
 20
88.77689396180763
 30
0.0
 11
373.8536854639749
 21
88.77689396180763
 31
0.0
  0
LINE
  5
C524
330
1F
100
AcDbEntity
  8
AM_0
100
AcDbLine
 10
383.8708754639748
 20
86.74600296180765
 30
0.0
 11
328.8365054639748
 21
86.74600296180765
 31
0.0
  0
LINE
  5
C525
330
1F
100
AcDbEntity
  8
AM_0
100
AcDbLine
 10
327.9692454639748
 20
81.77689396180765
 30
0.0
 11
384.7381354639749
 21
81.77689396180765
 31
0.0
  0
LINE
  5
C526
330
1F
100
AcDbEntity
  8
AM_0
100
AcDbLine
 10
346.8536854639749
 20
127.7768939618076
 30
0.0
 11
346.8536854639749
 21
89.27689396180763
 31
0.0
  0
LINE
  5
C527
102
{ACAD_REACTORS
330
C96A
102
}
330
1F
100
AcDbEntity
  8
AM_0
100
AcDbLine
 10
365.8536854639748
 20
127.7768939618076
 30
0.0
 11
365.8536854639748
 21
89.27689396180763
 31
0.0
  0
LINE
  5
C528
330
1F
100
AcDbEntity
  8
_1-0_AM_7
  6
CENTER2
 62
     4
100
AcDbLine
 10
356.3536854639748
 20
184.7768939618076
 30
0.0
 11
356.3536854639748
 21
79.77689396180766
 31
0.0
  0
LINE
  5
C52A
102
{ACAD_REACTORS
330
C85E
102
}
330
1F
100
AcDbEntity
  8
AM_0
100
AcDbLine
 10
273.3536854639748
 20
81.77689396180765
 30
0.0
 11
271.7715654639749
 21
85.73221296180767
 31
0.0
  0
LINE
  5
C52B
330
1F
100
AcDbEntity
  8
AM_0
100
AcDbLine
 10
271.7381354639748
 20
81.77689396180765
 30
0.0
 11
273.3536854639748
 21
81.77689396180765
 31
0.0
  0
LINE
  5
C52C
330
1F
100
AcDbEntity
  8
AM_0
100
AcDbLine
 10
260.8536854639748
 20
88.77689396180764
 30
0.0
 11
270.2939854639748
 21
86.95311796180765
 31
0.0
  0
ARC
  5
C52D
330
1F
100
AcDbEntity
  8
AM_0
100
AcDbCircle
 10
269.9146154639748
 20
84.98942596180766
 30
0.0
 40
2.0
100
AcDbArc
 50
21.8014120000001
 51
79.06569099999981
  0
LINE
  5
C52E
330
1F
100
AcDbEntity
  8
AM_0
100
AcDbLine
 10
338.8536854639748
 20
88.77689396180763
 30
0.0
 11
329.4133954639749
 21
86.95311796180764
 31
0.0
  0
LINE
  5
C52F
330
1F
100
AcDbEntity
  8
AM_0
100
AcDbLine
 10
326.3536754639748
 20
81.77690196180762
 30
0.0
 11
327.9357954639748
 21
85.73221296180765
 31
0.0
  0
LINE
  5
C530
330
1F
100
AcDbEntity
  8
AM_0
100
AcDbLine
 10
327.9692354639748
 20
81.77689396180765
 30
0.0
 11
326.3536854639748
 21
81.77689396180765
 31
0.0
  0
ARC
  5
C531
330
1F
100
AcDbEntity
  8
AM_0
100
AcDbCircle
 10
329.7927654639748
 20
84.98942596180764
 30
0.0
 40
2.0
100
AcDbArc
 50
100.9343099999999
 51
158.1985899999998
  0
LINE
  5
C533
330
1F
100
AcDbEntity
  8
AM_0
100
AcDbLine
 10
365.8536854639748
 20
89.27689396180763
 30
0.0
 11
346.8536854639749
 21
89.27689396180763
 31
0.0
  0
LINE
  5
C534
330
1F
100
AcDbEntity
  8
AM_0
100
AcDbLine
 10
365.3536854639749
 20
88.77689396180763
 30
0.0
 11
347.3536854639748
 21
88.77689396180763
 31
0.0
  0
LINE
  5
C535
102
{ACAD_REACTORS
330
C96A
102
}
330
1F
100
AcDbEntity
  8
AM_0
100
AcDbLine
 10
346.8536754639749
 20
89.27689796180763
 30
0.0
 11
347.3536754639749
 21
88.77689796180764
 31
0.0
  0
LINE
  5
C536
330
1F
100
AcDbEntity
  8
AM_0
100
AcDbLine
 10
365.3536854639749
 20
88.77690196180763
 30
0.0
 11
365.8536854639748
 21
89.27690596180763
 31
0.0
  0
CIRCLE
  5
C537
330
1F
100
AcDbEntity
  8
AM_0
100
AcDbCircle
 10
356.3536854639748
 20
156.7768939618076
 30
0.0
 40
5.25
  0
LINE
  5
C538
102
{ACAD_REACTORS
330
C940
102
}
330
1F
100
AcDbEntity
  8
AM_0
100
AcDbLine
 10
336.3536854639749
 20
162.7768939618076
 30
0.0
 11
336.3536854639749
 21
129.7768939618076
 31
0.0
  0
ARC
  5
C539
330
1F
100
AcDbEntity
  8
AM_0
100
AcDbCircle
 10
338.3536854639749
 20
129.7768939618076
 30
0.0
 40
2.0
100
AcDbArc
 50
180.0
 51
270.0
  0
LINE
  5
C53A
330
1F
100
AcDbEntity
  8
AM_0
100
AcDbLine
 10
356.3536854639748
 20
127.7768939618076
 30
0.0
 11
338.3536854639749
 21
127.7768939618076
 31
0.0
  0
ARC
  5
C53B
102
{ACAD_REACTORS
330
CD60
102
}
330
1F
100
AcDbEntity
  8
AM_0
100
AcDbCircle
 10
356.3536854639748
 20
162.7768939618076
 30
0.0
 40
20.0
100
AcDbArc
 50
90.0
 51
180.0
  0
CIRCLE
  5
C53C
330
1F
100
AcDbEntity
  8
AM_0
100
AcDbCircle
 10
356.3536854639748
 20
156.7768939618076
 30
0.0
 40
2.75
  0
LINE
  5
C53D
330
1F
100
AcDbEntity
  8
_1-0_AM_7
  6
CENTER2
 62
     4
100
AcDbLine
 10
363.1436854639749
 20
156.7768939618076
 30
0.0
 11
349.5636954639749
 21
156.7768939618076
 31
0.0
  0
LINE
  5
C53E
330
1F
100
AcDbEntity
  8
AM_0
100
AcDbLine
 10
386.3536854639747
 20
81.77688696180764
 30
0.0
 11
384.7715654639749
 21
85.73219696180762
 31
0.0
  0
LINE
  5
C53F
330
1F
100
AcDbEntity
  8
AM_0
100
AcDbLine
 10
384.7381354639749
 20
81.77689396180765
 30
0.0
 11
386.3536854639747
 21
81.77689396180765
 31
0.0
  0
LINE
  5
C540
330
1F
100
AcDbEntity
  8
AM_0
100
AcDbLine
 10
373.8536854639749
 20
88.77689396180763
 30
0.0
 11
383.2939954639749
 21
86.95311396180763
 31
0.0
  0
ARC
  5
C541
330
1F
100
AcDbEntity
  8
AM_0
100
AcDbCircle
 10
382.9146154639748
 20
84.98942596180764
 30
0.0
 40
2.0
100
AcDbArc
 50
21.80141200000013
 51
79.06569099999981
  0
LINE
  5
C542
330
1F
100
AcDbEntity
  8
AM_0
100
AcDbLine
 10
376.3536854639748
 20
162.7768939618076
 30
0.0
 11
376.3536854639748
 21
129.7768939618076
 31
0.0
  0
ARC
  5
C543
330
1F
100
AcDbEntity
  8
AM_0
100
AcDbCircle
 10
374.3536854639748
 20
129.7768939618076
 30
0.0
 40
2.0
100
AcDbArc
 50
270.0
 51
0.0
  0
LINE
  5
C544
330
1F
100
AcDbEntity
  8
_1-6_AM_11
  6
PHANTOM1
 62
     2
100
AcDbLine
 10
371.3536854639749
 20
253.9522475922836
 30
0.0
 11
341.3536854639748
 21
253.9522475922836
 31
0.0
  0
LINE
  5
C546
330
1F
100
AcDbEntity
  8
_1-0_AM_7
  6
CENTER2
 62
     4
 48
0.3
100
AcDbLine
 10
266.3528654639747
 20
268.1805970139296
 30
0.0
 11
266.3528654639747
 21
281.4606070139296
 31
0.0
  0
CIRCLE
  5
C547
330
1F
100
AcDbEntity
  8
AM_0
100
AcDbCircle
 10
266.3528654639747
 20
274.8205870139297
 30
0.0
 40
4.099999899999999
  0
CIRCLE
  5
C548
330
1F
100
AcDbEntity
  8
AM_0
100
AcDbCircle
 10
266.3528654639747
 20
274.8205870139297
 30
0.0
 40
3.099999899999998
  0
TEXT
  5
C54A
330
1F
100
AcDbEntity
  8
AM_6
100
AcDbText
 10
346.8434517022737
 20
245.2101175922837
 30
0.0
 40
3.2
  1
切欠推奨寸法
100
AcDbText
  0
LINE
  5
C54B
102
{ACAD_REACTORS
330
C5A6
102
}
330
1F
100
AcDbEntity
  8
_1-0_AM_7
  6
CENTER2
 62
     4
 48
0.5
100
AcDbLine
 10
363.6036854639749
 20
278.9522475922836
 30
0.0
 11
349.1036854639748
 21
278.9522475922836
 31
0.0
  0
CIRCLE
  5
C54C
102
{ACAD_REACTORS
330
CAB5
102
}
330
1F
100
AcDbEntity
  8
AM_0
100
AcDbCircle
 10
356.3536854639748
 20
278.9522475922836
 30
0.0
 40
4.25
  0
LINE
  5
C54D
330
1F
100
AcDbEntity
  8
_1-0_AM_7
  6
CENTER2
 62
     4
 48
0.5
100
AcDbLine
 10
356.3536854639748
 20
286.2022475922836
 30
0.0
 11
356.3536854639748
 21
271.7022475922836
 31
0.0
  0
INSERT
  5
C56E
330
1F
100
AcDbEntity
  8
AM_5
100
AcDbBlockReference
  2
*S5315
 10
-15.0
 20
0.0
 30
0.0
  0
HATCH
  5
C588
330
1F
100
AcDbEntity
  8
AM_8
100
AcDbHatch
 10
0.0
 20
0.0
 30
0.0
210
0.0
220
0.0
230
1.0
  2
_U
 70
     0
 71
     0
 91
        1
 92
        1
 93
        2
 72
     2
 10
356.3536854639748
 20
278.9522475922836
 40
4.249999999999984
 50
11.45915590261654
 51
266.7072024045517
 73
     1
 72
     2
 10
356.3536854639748
 20
278.9522475922836
 40
4.250000000000002
 50
266.7072024045517
 51
371.4591559026165
 73
     1
 97
        0
 75
     0
 76
     0
 52
135.0
 41
1.62
 77
     0
 78
     1
 53
135.0
 43
-38.15963999999991
 44
0.4135805783540718
 45
-1.145512985522207
 46
-1.145512985522207
 79
     0
 98
        1
 10
-38.15963999999991
 20
0.4135805783540718
1001
GENIUS_GENODEF_13
1002
{
1000
HIER
1070
     0
1002
}
1002
{
1000
MANEDIT
1070
     0
1002
}
1002
{
1000
NOSEL
1070
     0
1002
}
1002
{
1000
BEHIND
1070
     0
1002
}
1002
{
1000
OTHER
1070
     0
1002
}
1002
{
1000
REACTOR
1002
}
1001
GENIUS_GENOBJ-N-HTC_13
1002
{
1000
OWNER
1000
GEN
1002
}
1001
GENIUS_GENHATCH_13
1002
{
1000
DATA
1040
135.0
1042
2.7
1000
_U
1070
     0
1011
356.2623373790667
1021
277.3645106765141
1031
0.0
1002
}
1002
{
1000
UCS
1010
0.0
1020
0.0
1030
0.0
1010
1.0
1020
0.0
1030
0.0
1010
0.0
1020
1.0
1030
0.0
1002
}
  0
DIMENSION
  5
C598
102
{ACAD_XDICTIONARY
360
C5A5
102
}
102
{ACAD_REACTORS
330
C5A6
102
}
330
1F
100
AcDbEntity
  8
AM_5
100
AcDbDimension
  2
*D5
 10
329.3536844639748
 20
253.9522475922836
 30
0.0
 11
326.2536844639748
 21
266.4522475922837
 31
0.0
 70
    32
 71
     5
 42
24.99999999999995
  3
SYS$0
100
AcDbAlignedDimension
 13
349.1036854639748
 23
278.9522475922836
 33
0.0
 14
341.3536854639748
 24
253.9522475922836
 34
0.0
 50
90.0
100
AcDbRotatedDimension
  0
DIMENSION
  5
C607
102
{ACAD_XDICTIONARY
360
C614
102
}
102
{ACAD_REACTORS
330
C615
102
}
330
1F
100
AcDbEntity
  8
AM_5
100
AcDbDimension
  2
*D6
 10
266.3528654639747
 20
234.8205870139298
 30
0.0
 11
243.3536904639747
 21
237.9205870139298
 31
0.0
 70
    32
 71
     5
 42
45.99835000000001
  3
SYS$0
100
AcDbAlignedDimension
 13
220.3545154639747
 23
268.1805970139296
 33
0.0
 14
266.3528654639747
 24
268.1805970139296
 34
0.0
 50
0.0000000000001018
100
AcDbRotatedDimension
  0
DIMENSION
  5
C62D
102
{ACAD_XDICTIONARY
360
C63A
102
}
102
{ACAD_REACTORS
330
C63B
102
}
330
1F
100
AcDbEntity
  8
AM_5
100
AcDbDimension
  2
*D7
 10
273.3536854639746
 20
226.8205870139298
 30
0.0
 11
243.3536854639746
 21
229.9205870139298
 31
0.0
 70
    32
  1
%%c<>
 71
     5
 42
60.0
  3
SYS$0
100
AcDbAlignedDimension
 13
213.3536854639746
 23
274.8205870139297
 33
0.0
 14
273.3536854639746
 24
274.8205870139297
 34
0.0
 50
0.0000000000001018
100
AcDbRotatedDimension
  0
DIMENSION
  5
C67C
102
{ACAD_XDICTIONARY
360
C689
102
}
102
{ACAD_REACTORS
330
C68A
102
}
330
1F
100
AcDbEntity
  8
AM_5
100
AcDbDimension
  2
*D8
 10
253.7536954639748
 20
190.7768839618077
 30
0.0
 11
243.3536804639748
 21
193.8768839618076
 31
0.0
 70
    32
 71
     5
 42
20.80002999999999
  3
SYS$0
100
AcDbAlignedDimension
 13
232.9536654639748
 23
182.7768839618076
 33
0.0
 14
253.7536954639748
 24
182.7768839618076
 34
0.0
 50
0.0000190985931228
100
AcDbRotatedDimension
  0
DIMENSION
  5
C6F2
102
{ACAD_XDICTIONARY
360
C6FF
102
}
102
{ACAD_REACTORS
330
C700
102
}
330
1F
100
AcDbEntity
  8
AM_5
100
AcDbDimension
  2
*D9
 10
259.7536954639748
 20
198.7768839618077
 30
0.0
 11
243.353680463975
 21
201.8768839618076
 31
0.0
 70
    32
 71
     5
 42
32.80002999999962
  3
SYS$0
100
AcDbAlignedDimension
 13
226.9536654639752
 23
180.7768831774939
 33
0.0
 14
259.7536954639748
 24
180.7768839618076
 34
0.0
 50
0.0000224689357768
100
AcDbRotatedDimension
  0
DIMENSION
  5
C850
102
{ACAD_XDICTIONARY
360
C85D
102
}
102
{ACAD_REACTORS
330
C85E
102
}
330
1F
100
AcDbEntity
  8
AM_5
100
AcDbDimension
  2
*D10
 10
283.3536854639748
 20
81.77689396180765
 30
0.0
 11
277.5870187973081
 21
106.7768949618076
 31
0.0
 70
    32
  1
調整寸法\P<>～70
 71
     5
 42
50.00000199999994
  3
SYS$0
100
AcDbAlignedDimension
 13
253.7536954639748
 23
131.7768959618076
 33
0.0
 14
273.3536854639748
 24
81.77689396180765
 34
0.0
 50
90.00002137900644
100
AcDbRotatedDimension
  0
DIMENSION
  5
C876
102
{ACAD_XDICTIONARY
360
C883
102
}
102
{ACAD_REACTORS
330
C884
102
}
330
1F
100
AcDbEntity
  8
AM_5
100
AcDbDimension
  2
*D11
 10
283.3536712948642
 20
169.7501411714066
 30
0.0
 11
280.2536712948641
 21
150.7635185666071
 31
0.0
 70
    32
  1
調整可能範囲：20
 71
     5
 42
37.97324520959902
  3
SYS$0
100
AcDbAlignedDimension
 13
253.7536954639748
 23
131.7768959618076
 33
0.0
 14
256.0536954639748
 24
169.7501411714066
 34
0.0
 50
90.00002137900644
100
AcDbRotatedDimension
1001
ACAD
1000
DSTYLE
1002
{
1070
    76
1070
     1
1070
   173
1070
     1
1070
   342
1005
0
1070
   343
1005
6C4
1070
   344
1005
A66
1002
}
  0
DIMENSION
  5
C932
102
{ACAD_XDICTIONARY
360
C93F
102
}
102
{ACAD_REACTORS
330
C940
102
}
330
1F
100
AcDbEntity
  8
AM_5
100
AcDbDimension
  2
*D12
 10
376.3536854639748
 20
190.7768839618077
 30
0.0
 11
356.3536854639748
 21
193.8768839618076
 31
0.0
 70
    32
 71
     5
 42
40.0
  3
SYS$0
100
AcDbAlignedDimension
 13
336.3536854639749
 23
162.7768939618076
 33
0.0
 14
376.3536854639748
 24
162.7768939618076
 34
0.0
100
AcDbRotatedDimension
  0
DIMENSION
  5
C95C
102
{ACAD_XDICTIONARY
360
C969
102
}
102
{ACAD_REACTORS
330
C96A
102
}
330
1F
100
AcDbEntity
  8
AM_5
100
AcDbDimension
  2
*D13
 10
365.8536854639748
 20
107.8678909618897
 30
0.0
 11
373.8188468212941
 21
107.8678909618897
 31
0.0
 70
   160
  1
%%c<>
 71
     5
 42
19.00000999999997
  3
SYS$0
100
AcDbAlignedDimension
 13
346.8536754639749
 23
89.27689796180763
 33
0.0
 14
365.8536854639748
 24
89.27689396180763
 34
0.0
 50
0.0000000000001145
100
AcDbRotatedDimension
  0
DIMENSION
  5
CAA8
102
{ACAD_XDICTIONARY
360
CAB4
102
}
102
{ACAD_REACTORS
330
CAB5
102
}
330
1F
100
AcDbEntity
  8
AM_5
100
AcDbDimension
  2
*D14
 10
359.2650687387031
 20
275.8560648735747
 30
0.0
 11
335.3798642553627
 21
291.7442412177592
 31
0.0
 70
   163
  1
<>貫通孔
 71
     5
 42
8.499999999999971
  3
SYS$3
100
AcDbDiametricDimension
 15
353.4423021892465
 25
282.0484303109926
 35
0.0
 40
0.0
  0
ARC
  5
CC0F
330
1F
100
AcDbEntity
  8
AM_0
100
AcDbCircle
 10
243.3536854639746
 20
274.8205870139297
 30
0.0
 40
17.5
100
AcDbArc
 50
159.577142678772
 51
200.4228573212279
  0
LINE
  5
CD0C
330
1F
100
AcDbEntity
  8
_0-2_SIZE
  6
Continuous
 62
     5
100
AcDbLine
 10
64.49209546397469
 20
44.75327701392961
 30
0.0
 11
484.4920954639746
 21
44.75327701392961
 31
0.0
  0
LINE
  5
CD0D
330
1F
100
AcDbEntity
  8
_0-2_SIZE
  6
Continuous
 62
     5
100
AcDbLine
 10
64.49209546397469
 20
341.7532770139296
 30
0.0
 11
64.49209546397469
 21
44.75327701392961
 31
0.0
  0
LINE
  5
CD0E
330
1F
100
AcDbEntity
  8
_0-3_WAKU
  6
Continuous
 62
     7
100
AcDbLine
 10
464.9920954639745
 20
56.75327701392961
 30
0.0
 11
464.9920954639745
 21
329.7532770139296
 31
0.0
  0
LINE
  5
CD0F
330
1F
100
AcDbEntity
  8
_0-3_WAKU
  6
Continuous
 62
     7
100
AcDbLine
 10
83.9920954639747
 20
329.7532770139296
 30
0.0
 11
83.9920954639747
 21
56.75327701392961
 31
0.0
  0
LINE
  5
CD10
330
1F
100
AcDbEntity
  8
_0-3_WAKU
  6
Continuous
 62
     7
100
AcDbLine
 10
464.9920954639745
 20
329.7532770139296
 30
0.0
 11
83.9920954639747
 21
329.7532770139296
 31
0.0
  0
LINE
  5
CD11
330
1F
100
AcDbEntity
  8
_0-3_WAKU
  6
Continuous
 62
     7
100
AcDbLine
 10
83.9920954639747
 20
56.75327701392961
 30
0.0
 11
464.9920954639745
 21
56.75327701392961
 31
0.0
  0
LINE
  5
CD15
330
1F
100
AcDbEntity
  8
_0-2_SIZE
  6
Continuous
 62
     5
100
AcDbLine
 10
484.4920954639746
 20
341.7532770139296
 30
0.0
 11
484.4920954639746
 21
44.75327701392961
 31
0.0
  0
LINE
  5
CD16
330
1F
100
AcDbEntity
  8
_0-2_SIZE
  6
Continuous
 62
     5
100
AcDbLine
 10
64.49209546397469
 20
341.7532770139296
 30
0.0
 11
484.4920954639746
 21
341.7532770139296
 31
0.0
  0
DIMENSION
  5
CD52
102
{ACAD_XDICTIONARY
360
CD5F
102
}
102
{ACAD_REACTORS
330
CD60
102
}
330
1F
100
AcDbEntity
  8
AM_5
100
AcDbDimension
  2
*D17
 10
386.3536854639749
 20
127.7768939618076
 30
0.0
 11
383.2536854639748
 21
155.2768939618077
 31
0.0
 70
    32
 71
     5
 42
55.0
  3
SYS$0
100
AcDbAlignedDimension
 13
356.3536854639748
 23
182.7768939618076
 33
0.0
 14
374.3536854639748
 24
127.7768939618076
 34
0.0
 50
90.0
100
AcDbRotatedDimension
1001
ACAD
1000
DSTYLE
1002
{
1070
    49
1040
0.0
1002
}
  0
LINE
  5
D225
330
1F
100
AcDbEntity
  8
AM_0
100
AcDbLine
 10
103.9920954639747
 20
329.7532770139296
 30
0.0
 11
103.9920954639744
 21
273.7532770139296
 31
0.0
  0
LINE
  5
D226
330
1F
100
AcDbEntity
  8
AM_0
100
AcDbLine
 10
83.9920954639747
 20
321.7532770139296
 30
0.0
 11
193.9920954639747
 21
321.7532770139296
 31
0.0
  0
LINE
  5
D227
330
1F
100
AcDbEntity
  8
AM_0
100
AcDbLine
 10
83.9920954639747
 20
313.7532770139296
 30
0.0
 11
193.9920954639747
 21
313.7532770139296
 31
0.0
  0
LINE
  5
D228
330
1F
100
AcDbEntity
  8
AM_0
100
AcDbLine
 10
83.9920954639747
 20
305.7532770139296
 30
0.0
 11
193.9920954639747
 21
305.7532770139296
 31
0.0
  0
LINE
  5
D229
330
1F
100
AcDbEntity
  8
AM_0
100
AcDbLine
 10
83.9920954639747
 20
297.7532770139296
 30
0.0
 11
193.9920954639747
 21
297.7532770139296
 31
0.0
  0
LINE
  5
D22A
330
1F
100
AcDbEntity
  8
AM_0
100
AcDbLine
 10
83.9920954639747
 20
329.7532770139296
 30
0.0
 11
193.9920954639747
 21
329.7532770139296
 31
0.0
  0
LINE
  5
D22B
330
1F
100
AcDbEntity
  8
AM_0
100
AcDbLine
 10
193.9920954639747
 20
329.7532770139296
 30
0.0
 11
193.9920954639747
 21
273.7532770139296
 31
0.0
  0
MTEXT
  5
D22C
330
1F
100
AcDbEntity
  8
AM_6
 48
10.0
100
AcDbMText
 10
93.9920954639747
 20
325.7532770139296
 30
0.0
 40
3.2
 41
20.00000000000003
 71
     5
 72
     5
  1
品　名
 73
     1
 44
1.0
1001
ACAD
1000
MTEXTBEGIN
1070
    73
1070
     1
1070
    44
1040
1.0
1070
    74
1070
     0
1000
MTEXTEND
  0
MTEXT
  5
D22D
330
1F
100
AcDbEntity
  8
AM_6
 48
10.0
100
AcDbMText
 10
93.9920954639747
 20
317.7532770139296
 30
0.0
 40
3.2
 41
20.00000000000003
 71
     5
 72
     5
  1
品　番
 73
     1
 44
1.0
1001
ACAD
1000
MTEXTBEGIN
1070
    73
1070
     1
1070
    44
1040
1.0
1070
    74
1070
     0
1000
MTEXTEND
  0
MTEXT
  5
D22E
330
1F
100
AcDbEntity
  8
AM_6
 48
10.0
100
AcDbMText
 10
93.9920954639747
 20
309.7532770139296
 30
0.0
 40
3.2
 41
20.00000000000003
 71
     5
 72
     5
  1
材　質
 73
     1
 44
1.0
1001
ACAD
1000
MTEXTBEGIN
1070
    73
1070
     1
1070
    44
1040
1.0
1070
    74
1070
     0
1000
MTEXTEND
  0
MTEXT
  5
D22F
330
1F
100
AcDbEntity
  8
AM_6
 48
10.0
100
AcDbMText
 10
93.9920954639747
 20
301.7532770139296
 30
0.0
 40
3.2
 41
20.00000000000003
 71
     5
 72
     5
  1
仕上げ
 73
     1
 44
1.0
1001
ACAD
1000
MTEXTBEGIN
1070
    73
1070
     1
1070
    44
1040
1.0
1070
    74
1070
     0
1000
MTEXTEND
  0
MTEXT
  5
D230
330
1F
100
AcDbEntity
  8
AM_6
 48
10.0
100
AcDbMText
 10
103.9920954639747
 20
325.7532770139296
 30
0.0
 40
3.2
 41
90.0
 71
     4
 72
     5
  1
　サポート
 73
     1
 44
1.0
1001
ACAD
1000
MTEXTBEGIN
1070
    73
1070
     1
1070
    44
1040
1.0
1070
    74
1070
     0
1000
MTEXTEND
  0
MTEXT
  5
D231
330
1F
100
AcDbEntity
  8
AM_6
 48
10.0
100
AcDbMText
 10
103.9920954639747
 20
317.7532770139296
 30
0.0
 40
3.2
 41
90.0
 71
     4
 72
     5
  1
　LB-950-20
 73
     1
 44
1.0
1001
ACAD
1000
MTEXTBEGIN
1070
    73
1070
     1
1070
    44
1040
1.0
1070
    74
1070
     0
1000
MTEXTEND
  0
MTEXT
  5
D232
330
1F
100
AcDbEntity
  8
AM_6
 48
10.0
100
AcDbMText
 10
103.9920954639747
 20
309.7532770139296
 30
0.0
 40
3.2
 41
90.0
 71
     4
 72
     5
  1
　ステンレス、亜鉛ダイキャスト
 73
     1
 44
1.0
1001
ACAD
1000
MTEXTBEGIN
1070
    73
1070
     1
1070
    44
1040
1.0
1070
    74
1070
     0
1000
MTEXTEND
  0
MTEXT
  5
D233
330
1F
100
AcDbEntity
  8
AM_6
 48
10.0
100
AcDbMText
 10
103.9920954639747
 20
301.7532770139296
 30
0.0
 40
3.2
 41
90.0
 71
     4
 72
     5
  1
　ヘアーライン・焼付塗装
 73
     1
 44
1.0
1001
ACAD
1000
MTEXTBEGIN
1070
    73
1070
     1
1070
    44
1040
1.0
1070
    74
1070
     0
1000
MTEXTEND
  0
LINE
  5
D234
330
1F
100
AcDbEntity
  8
AM_0
100
AcDbLine
 10
103.9920954639745
 20
289.7532770139296
 30
0.0
 11
193.9920954639747
 21
289.7532770139296
 31
0.0
  0
MTEXT
  5
D235
330
1F
100
AcDbEntity
  8
AM_6
 48
10.0
100
AcDbMText
 10
93.9920954639747
 20
293.7532770139296
 30
0.0
 40
3.2
 41
20.00000000000003
 71
     5
 72
     5
  1
セットビス
 73
     1
 44
1.0
1001
ACAD
1000
MTEXTBEGIN
1070
    73
1070
     1
1070
    44
1040
1.0
1070
    74
1070
     0
1000
MTEXTEND
  0
MTEXT
  5
D236
330
1F
100
AcDbEntity
  8
AM_6
 48
10.0
100
AcDbMText
 10
103.9920954639747
 20
293.7532770139296
 30
0.0
 40
3.2
 41
90.0
 71
     4
 72
     5
  1
　M5×25 丸サラ小ネジ　+　SUS　1本
 73
     1
 44
1.0
1001
ACAD
1000
MTEXTBEGIN
1070
    73
1070
     1
1070
    44
1040
1.0
1070
    74
1070
     0
1000
MTEXTEND
  0
CIRCLE
  5
D237
330
1F
100
AcDbEntity
  8
AM_2
 48
10.0
100
AcDbCircle
 10
139.9068951116299
 20
293.5125907377141
 30
0.0
 40
1.8
  0
LINE
  5
D238
330
1F
100
AcDbEntity
  8
AM_0
100
AcDbLine
 10
83.9920954639747
 20
273.7532770139296
 30
0.0
 11
193.9920954639747
 21
273.7532770139296
 31
0.0
  0
LINE
  5
D23C
330
1F
100
AcDbEntity
  8
AM_0
100
AcDbLine
 10
103.9920954639745
 20
281.7532770139296
 30
0.0
 11
193.9920954639747
 21
281.7532770139296
 31
0.0
  0
MTEXT
  5
D23D
330
1F
100
AcDbEntity
  8
AM_6
 48
10.0
100
AcDbMText
 10
103.9920954639747
 20
285.7532770139296
 30
0.0
 40
3.2
 41
90.0
 71
     4
 72
     5
  1
　呼び3.8×32 サラ木ネジ　+　SUS　2本付
 73
     1
 44
1.0
1001
ACAD
1000
MTEXTBEGIN
1070
    73
1070
     1
1070
    44
1040
1.0
1070
    74
1070
     0
1000
MTEXTEND
  0
CIRCLE
  5
D23E
330
1F
100
AcDbEntity
  8
AM_2
 48
10.0
100
AcDbCircle
 10
143.2068951116299
 20
285.5125907377141
 30
0.0
 40
1.8
  0
MTEXT
  5
D240
330
1F
100
AcDbEntity
  8
AM_6
 48
10.0
100
AcDbMText
 10
103.9920954639747
 20
277.7532770139296
 30
0.0
 40
3.2
 41
90.0
 71
     4
 72
     5
  1
　オールプラグ　MIL8　2本
 73
     1
 44
1.0
1001
ACAD
1000
MTEXTBEGIN
1070
    73
1070
     1
1070
    44
1040
1.0
1070
    74
1070
     0
1000
MTEXTEND
  0
ENDSEC
  0
SECTION
  2
OBJECTS
  0
DICTIONARY
  5
C
330
0
100
AcDbDictionary
281
     1
  3
ACAD_2007HEADERVARS_RT
350
D32B
  3
ACAD_BGPLOT_KEY
350
AB06
  3
ACAD_COLOR
350
A91D
  3
ACAD_GROUP
350
D
  3
ACAD_LAYOUT
350
1A
  3
ACAD_MATERIAL
350
A91C
  3
ACAD_MLINESTYLE
350
17
  3
ACAD_PLOTSETTINGS
350
19
  3
ACAD_PLOTSTYLENAME
350
E
  3
ACAD_TABLESTYLE
350
AAB9
  3
ACAD_VISUALSTYLE
350
CC80
  3
AcAsAppObject
350
3DA1
  3
ACASGREF_MASTER
350
3DE9
  3
AcDbVariableDictionary
350
34
  3
AcmDictionary
350
47
  3
AD_GREF_MODULE
350
3DEA
  3
AD_MAPI_MODULE
350
3E06
  3
AMG
350
2B
  3
AMGSNAPSETTINGS
350
7D
  3
ASE_INDEX_DICTIONARY
350
9F48
  3
DWGPROPS
350
D32A
  3
MAPISURF_MODULE
350
3DEB
  0
DICTIONARY
  5
3F95
330
2
100
AcDbDictionary
280
     1
281
     1
  3
ACAD_LAYERFILTERS
360
C291
  3
ACAD_LAYERSTATES
360
3F96
  3
ACLYDICTIONARY
360
C290
  3
AMLAYER_GROUPCOLORS
360
AAB4
  0
DICTIONARY
  5
8A
330
1F
100
AcDbDictionary
280
     1
281
     1
  3
ACAD_SORTENTS
360
C57F
  0
DICTIONARY
  5
C5A5
330
C598
100
AcDbDictionary
280
     1
281
     1
  3
ACAD_DIMASSOC
360
C5A6
  0
DICTIONARY
  5
C614
330
C607
100
AcDbDictionary
280
     1
281
     1
  3
ACAD_DIMASSOC
360
C615
  0
DICTIONARY
  5
C63A
330
C62D
100
AcDbDictionary
280
     1
281
     1
  3
ACAD_DIMASSOC
360
C63B
  0
DICTIONARY
  5
C689
330
C67C
100
AcDbDictionary
280
     1
281
     1
  3
ACAD_DIMASSOC
360
C68A
  0
DICTIONARY
  5
C6FF
330
C6F2
100
AcDbDictionary
280
     1
281
     1
  3
ACAD_DIMASSOC
360
C700
  0
DICTIONARY
  5
C85D
330
C850
100
AcDbDictionary
280
     1
281
     1
  3
ACAD_DIMASSOC
360
C85E
  0
DICTIONARY
  5
C883
330
C876
100
AcDbDictionary
280
     1
281
     1
  3
ACAD_DIMASSOC
360
C884
  0
DICTIONARY
  5
C93F
330
C932
100
AcDbDictionary
280
     1
281
     1
  3
ACAD_DIMASSOC
360
C940
  0
DICTIONARY
  5
C969
330
C95C
100
AcDbDictionary
280
     1
281
     1
  3
ACAD_DIMASSOC
360
C96A
  0
DICTIONARY
  5
CAB4
330
CAA8
100
AcDbDictionary
280
     1
281
     1
  3
ACAD_DIMASSOC
360
CAB5
  0
DICTIONARY
  5
CD5F
330
CD52
100
AcDbDictionary
280
     1
281
     1
  3
ACAD_DIMASSOC
360
CD60
  0
DICTIONARY
  5
D32B
102
{ACAD_REACTORS
330
C
102
}
330
C
100
AcDbDictionary
281
     1
  3
DIMARCSYM
350
D32D
  3
DIMFXL
350
D32C
  0
DICTIONARY
  5
AB06
102
{ACAD_REACTORS
330
C
102
}
330
C
100
AcDbDictionary
280
     1
281
     1
  0
DICTIONARY
  5
A91D
102
{ACAD_REACTORS
330
C
102
}
330
C
100
AcDbDictionary
281
     1
  0
DICTIONARY
  5
D
102
{ACAD_REACTORS
330
C
102
}
330
C
100
AcDbDictionary
281
     1
  0
DICTIONARY
  5
1A
102
{ACAD_REACTORS
330
C
102
}
330
C
100
AcDbDictionary
281
     1
  3
Model
350
22
  3
ﾚｲｱｳﾄ1
350
1E
  3
ﾚｲｱｳﾄ2
350
26
  0
DICTIONARY
  5
A91C
102
{ACAD_REACTORS
330
C
102
}
330
C
100
AcDbDictionary
281
     1
  3
ByBlock
350
CC7E
  3
ByLayer
350
CC7D
  3
Global
350
CC7F
  0
DICTIONARY
  5
17
102
{ACAD_REACTORS
330
C
102
}
330
C
100
AcDbDictionary
281
     1
  3
Standard
350
18
  0
DICTIONARY
  5
19
102
{ACAD_REACTORS
330
C
102
}
330
C
100
AcDbDictionary
281
     1
  0
ACDBDICTIONARYWDFLT
  5
E
102
{ACAD_REACTORS
330
C
102
}
330
C
100
AcDbDictionary
281
     1
  3
Normal
350
F
100
AcDbDictionaryWithDefault
340
F
  0
DICTIONARY
  5
AAB9
102
{ACAD_REACTORS
330
C
102
}
330
C
100
AcDbDictionary
281
     1
  3
Standard
350
AABA
  0
DICTIONARY
  5
CC80
102
{ACAD_REACTORS
330
C
102
}
330
C
100
AcDbDictionary
281
     1
  3
2dWireframe
350
CC86
  3
3D Hidden
350
CC88
  3
3dWireframe
350
CC87
  3
Basic
350
CC85
  3
Brighten
350
CC8C
  3
ColorChange
350
CC90
  3
Conceptual
350
CC89
  3
Dim
350
CC8B
  3
Facepattern
350
CC8F
  3
Flat
350
CC81
  3
FlatWithEdges
350
CC82
  3
Gouraud
350
CC83
  3
GouraudWithEdges
350
CC84
  3
Linepattern
350
CC8E
  3
Realistic
350
CC8A
  3
Thicken
350
CC8D
  0
ACAD_PROXY_OBJECT
  5
3DA1
102
{ACAD_REACTORS
330
C
102
}
330
C
100
AcDbProxyObject
 90
      499
 91
      576
 95
   917527
 70
     0
 93
       10
310
407F
 94
        0
1001
ACAD
1000
AcRTDxfName
1000
ASAPP
1000
AcRTDxfName
1000
ASAPP
  0
ACAD_PROXY_OBJECT
  5
3DE9
102
{ACAD_REACTORS
330
C
102
}
330
C
100
AcDbProxyObject
 90
      499
 91
      581
 95
   917527
 70
     0
 93
       34
310
010000407F
 94
        0
1001
ACAD
1000
AcRTDxfName
1000
ACASGREFMASTER
1000
AcRTDxfName
1000
ACASGREFMASTER
  0
DICTIONARY
  5
34
102
{ACAD_REACTORS
330
C
102
}
330
C
100
AcDbDictionary
281
     1
  3
CTABLESTYLE
350
AAF3
  3
DIMASSOC
350
A10C
  3
FIELDEVAL
350
AB07
  3
INDEXCTL
350
35
  3
PROJECTNAME
350
CC6F
  3
SORTENTS
350
194C
  0
DICTIONARY
  5
47
102
{ACAD_REACTORS
330
C
102
}
330
C
100
AcDbDictionary
281
     1
  3
AcmBOM
350
7E8
  3
AcmStdDictionary
350
4C
  3
AMDTSECTSYM_ARROWCOLOR
350
A929
  0
ACAD_PROXY_OBJECT
  5
3DEA
102
{ACAD_REACTORS
330
C
102
}
330
C
100
AcDbProxyObject
 90
      499
 91
      582
 95
   917527
 70
     0
 93
      114
310
00000043800000000000000000003F
 94
        0
1001
ACAD
1000
AcRTDxfName
1000
ACADGREFMODULE
1000
AcRTDxfName
1000
ACADGREFMODULE
  0
ACAD_PROXY_OBJECT
  5
3E06
102
{ACAD_REACTORS
330
C
102
}
330
C
100
AcDbProxyObject
 90
      499
 91
      594
 95
   917527
 70
     0
 93
       34
310
05000044FF
 94
        0
1001
ACAD
1000
AcRTDxfName
1000
MAPIADMODULE
1000
AcRTDxfName
1000
MAPIADMODULE
  0
DICTIONARY
  5
2B
102
{ACAD_REACTORS
330
C
102
}
330
C
100
AcDbDictionary
281
     1
  0
DICTIONARY
  5
7D
102
{ACAD_REACTORS
330
C
102
}
330
C
100
AcDbDictionary
281
     1
  0
DICTIONARY
  5
9F48
102
{ACAD_REACTORS
330
C
102
}
330
C
100
AcDbDictionary
281
     1
  3
ASEBlockHierarchyIndexRecord
350
9F49
1001
DCO15
1040
1425739953.442
  0
XRECORD
  5
D32A
102
{ACAD_REACTORS
330
C
102
}
330
C
100
AcDbXrecord
280
     1
  1
DWGPROPS COOKIE
  2

  3

  4

  6

  7

  8
Administrator
  9

300
AmdtFileType=84
301
=
302
=
303
=
304
=
305
=
306
=
307
=
308
=
309
=
 40
0.0668415509259259
 41
2454123.716263195
 42
2455653.375560428
  1

 90
        1
  0
ACAD_PROXY_OBJECT
  5
3DEB
102
{ACAD_REACTORS
330
C
102
}
330
C
100
AcDbProxyObject
 90
      499
 91
      583
 95
   917527
 70
     0
 93
        8
310
047E
 94
        0
1001
ACAD
1000
AcRTDxfName
1000
AMDTMAPISURFMOUDULE
1000
AcRTDxfName
1000
AMDTMAPISURFMOUDULE
  0
DICTIONARY
  5
C291
102
{ACAD_REACTORS
330
3F95
102
}
330
3F95
100
AcDbDictionary
281
     1
  0
DICTIONARY
  5
3F96
102
{ACAD_REACTORS
330
3F95
102
}
330
3F95
100
AcDbDictionary
281
     1
  3
20011210
350
3FB7
  0
DICTIONARY
  5
C290
102
{ACAD_REACTORS
330
3F95
102
}
330
3F95
100
AcDbDictionary
281
     1
1001
ACAD
1000
<All
  0
DICTIONARY
  5
AAB4
102
{ACAD_REACTORS
330
3F95
102
}
330
3F95
100
AcDbDictionary
280
     1
281
     1
  0
SORTENTSTABLE
  5
C57F
102
{ACAD_REACTORS
330
8A
102
}
330
8A
100
AcDbSortentsTable
330
1F
331
C531
  5
C546
331
C4BB
  5
C4C8
331
C598
  5
CC0F
331
C539
  5
C54E
331
C4FA
  5
C515
331
C4C3
  5
C4D0
331
C541
  5
C557
331
C502
  5
C521
331
C4CB
  5
C4DD
331
C50A
  5
C52A
331
D22A
  5
D22B
331
CD0C
  5
C4AA
331
D232
  5
D233
331
C4D3
  5
C4E7
331
C4DB
  5
C4EC
331
C522
  5
C536
331
C4E3
  5
C500
331
C4AC
  5
C4B9
331
C52A
  5
C53E
331
C4EB
  5
C507
331
C4B4
  5
C4C1
331
CC0F
  5
C4C0
331
C4BC
  5
C4C9
331
C53A
  5
C54F
331
C4C4
  5
C4D1
331
C542
  5
C559
331
C503
  5
C522
331
C4CC
  5
C4DE
331
C50B
  5
C52B
331
CAA8
  5
CD6A
331
D22B
  5
D22C
331
CD0D
  5
C4AB
331
D233
  5
D234
331
C54A
  5
C55F
331
C513
  5
C52D
331
C4D4
  5
C4E9
331
C51B
  5
C530
331
C4DC
  5
C4F5
331
C523
  5
C538
331
C4E4
  5
C501
331
C4AD
  5
C4BA
331
C52B
  5
C53F
331
C4EC
  5
C508
331
C4B5
  5
C4C2
331
CD15
  5
C4B4
331
C533
  5
C547
331
C4BD
  5
C4CA
331
C53B
  5
C550
331
C4C5
  5
C4D2
331
C543
  5
C55A
331
C504
  5
C523
331
C4CD
  5
C4DF
331
D22C
  5
D22D
331
C932
  5
CD38
331
D234
  5
D235
331
CD0E
  5
C4AC
331
C54B
  5
C560
331
C514
  5
C52E
331
C4D5
  5
C4EA
331
C51C
  5
C531
331
C4DD
  5
C4F6
331
C524
  5
C539
331
C4E5
  5
C502
331
C4AE
  5
C4BB
331
C52C
  5
C540
331
C4B6
  5
C4C3
331
CD16
  5
C4B5
331
C534
  5
C548
331
C4F5
  5
C509
331
C4BE
  5
C4CB
331
C53C
  5
C552
331
C4C6
  5
C4D3
331
C544
  5
C55B
331
C505
  5
C524
331
C4CE
  5
C4E0
331
C6F2
  5
CD16
331
D225
  5
D225
331
D22D
  5
D22E
331
D235
  5
D236
331
CD0F
  5
C4AD
331
C54C
  5
C561
331
C515
  5
C52F
331
C51D
  5
C533
331
C4DE
  5
C4F7
331
C525
  5
C53A
331
C4E6
  5
C503
331
C52D
  5
C541
331
C4B7
  5
C4C4
331
C535
  5
C54A
331
C4F6
  5
C50A
331
C4BF
  5
C4CC
331
C53D
  5
C553
331
C4FE
  5
C51B
331
C4C7
  5
C4D4
331
C506
  5
C525
331
C4CF
  5
C4E1
331
D226
  5
D227
331
D22E
  5
D22F
331
D236
  5
D237
331
C54D
  5
C562
331
C51E
  5
C534
331
C4DF
  5
C4F9
331
C4A8
  5
C4A8
331
C526
  5
C53B
331
C4E7
  5
C504
331
C4B0
  5
C4BC
331
C52E
  5
C542
331
C67C
  5
CD14
331
CD10
  5
C4AE
331
C95C
  5
CD52
331
C4B8
  5
C4C5
331
C536
  5
C54B
331
C4F7
  5
C50B
331
C4C0
  5
C4CD
331
C53E
  5
C554
331
C4FF
  5
C51C
331
C4C8
  5
C4DA
331
C546
  5
C55C
331
C507
  5
C526
331
D227
  5
D228
331
D22F
  5
D230
331
D237
  5
D238
331
C4D0
  5
C4E2
331
C4E0
  5
C4FA
331
C56E
  5
CA2D
331
C62D
  5
CD13
331
C527
  5
C53C
331
C4B1
  5
C4BD
331
C52F
  5
C543
331
CD11
  5
C4B0
331
C4B9
  5
C4C6
331
C537
  5
C54C
331
C4F8
  5
C513
331
C4C1
  5
C4CE
331
C53F
  5
C555
331
C500
  5
C51D
331
C4C9
  5
C4DB
331
C547
  5
C55D
331
C508
  5
C527
331
C876
  5
CD36
331
D228
  5
D229
331
D230
  5
D231
331
C4D1
  5
C4E3
331
C4E1
  5
C4FE
331
C4AA
  5
C4B7
331
C528
  5
C53D
331
C4E9
  5
C505
331
C4B2
  5
C4BE
331
D238
  5
D239
331
CD52
  5
CD75
331
C530
  5
C544
331
C4BA
  5
C4C7
331
C538
  5
C54D
331
C4F9
  5
C514
331
C4C2
  5
C4CF
331
C540
  5
C556
331
C501
  5
C51E
331
C4CA
  5
C4DC
331
C509
  5
C528
331
C607
  5
CD0E
331
D229
  5
D22A
331
D231
  5
D232
331
C548
  5
C55E
331
C511
  5
C52C
331
C4D2
  5
C4E6
331
C4DA
  5
C4EB
331
C521
  5
C535
331
C4E2
  5
C4FF
331
C4AB
  5
C4B8
331
C4EA
  5
C506
331
C4B3
  5
C4BF
331
C588
  5
CAA8
331
C850
  5
CD17
  0
DIMASSOC
  5
C5A6
102
{ACAD_REACTORS
330
C5A5
102
}
330
C5A5
100
AcDbDimAssoc
330
C598
 90
        1
 70
     0
 71
     0
  1
AcDbOsnapPointRef
 72
     1
331
C54B
 73
     0
 91
        0
 40
0.0
 10
0.0
 20
0.0
 30
2.000000000000000E+50
 75
     0
  0
DIMASSOC
  5
C615
102
{ACAD_REACTORS
330
C614
102
}
330
C614
100
AcDbDimAssoc
330
C607
 90
        1
 70
     0
 71
     0
  1
AcDbOsnapPointRef
 72
    13
331
C51C
 73
     0
 91
        0
 40
0.0
 10
0.0
 20
0.0
 30
2.000000000000000E+50
 75
     0
  0
DIMASSOC
  5
C63B
102
{ACAD_REACTORS
330
C63A
102
}
330
C63A
100
AcDbDimAssoc
330
C62D
 90
        3
 70
     0
 71
     0
  1
AcDbOsnapPointRef
 72
     6
331
C4F5
 73
     0
 91
        0
 40
0.0454545454545455
 10
0.0
 20
0.0
 30
0.0
332
C4F7
 74
     0
 92
        0
 75
     0
  1
AcDbOsnapPointRef
 72
     6
331
C4F5
 73
     0
 91
        0
 40
0.9545454545454546
 10
0.0
 20
0.0
 30
0.0
332
C4F7
 74
     0
 92
        0
 75
     0
  0
DIMASSOC
  5
C68A
102
{ACAD_REACTORS
330
C689
102
}
330
C689
100
AcDbDimAssoc
330
C67C
 90
        3
 70
     0
 71
     0
  1
AcDbOsnapPointRef
 72
    13
331
C4AB
 73
     0
 91
        0
 40
0.0
 10
0.0
 20
0.0
 30
2.000000000000000E+50
 75
     0
  1
AcDbOsnapPointRef
 72
    13
331
C4AC
 73
     0
 91
        0
 40
0.0
 10
0.0
 20
0.0
 30
2.000000000000000E+50
 75
     0
  0
DIMASSOC
  5
C700
102
{ACAD_REACTORS
330
C6FF
102
}
330
C6FF
100
AcDbDimAssoc
330
C6F2
 90
        2
 70
     0
 71
     0
  1
AcDbOsnapPointRef
 72
    13
331
C4C7
 73
     0
 91
        0
 40
0.0
 10
0.0
 20
0.0
 30
2.000000000000000E+50
 75
     0
  0
DIMASSOC
  5
C85E
102
{ACAD_REACTORS
330
C85D
102
}
330
C85D
100
AcDbDimAssoc
330
C850
 90
        3
 70
     0
 71
     0
  1
AcDbOsnapPointRef
 72
    13
331
C4AD
 73
     0
 91
        0
 40
0.0
 10
0.0
 20
0.0
 30
2.000000000000000E+50
 75
     0
  1
AcDbOsnapPointRef
 72
    13
331
C52A
 73
     0
 91
        0
 40
0.0
 10
0.0
 20
0.0
 30
2.000000000000000E+50
 75
     0
  0
DIMASSOC
  5
C884
102
{ACAD_REACTORS
330
C883
102
}
330
C883
100
AcDbDimAssoc
330
C876
 90
        1
 70
     0
 71
     0
  1
AcDbOsnapPointRef
 72
    13
331
C4AD
 73
     0
 91
        0
 40
0.0
 10
0.0
 20
0.0
 30
2.000000000000000E+50
 75
     0
  0
DIMASSOC
  5
C940
102
{ACAD_REACTORS
330
C93F
102
}
330
C93F
100
AcDbDimAssoc
330
C932
 90
        3
 70
     0
 71
     0
  1
AcDbOsnapPointRef
 72
    13
331
C538
 73
     0
 91
        0
 40
0.0
 10
0.0
 20
0.0
 30
2.000000000000000E+50
 75
     0
  1
AcDbOsnapPointRef
 72
    13
331
C521
 73
     0
 91
        0
 40
0.0
 10
0.0
 20
0.0
 30
2.000000000000000E+50
 75
     0
  0
DIMASSOC
  5
C96A
102
{ACAD_REACTORS
330
C969
102
}
330
C969
100
AcDbDimAssoc
330
C95C
 90
        3
 70
     0
 71
     0
  1
AcDbOsnapPointRef
 72
    13
331
C535
 73
     0
 91
        0
 40
0.0
 10
0.0
 20
0.0
 30
2.000000000000000E+50
 75
     0
  1
AcDbOsnapPointRef
 72
     1
331
C527
 73
     0
 91
        0
 40
0.0
 10
0.0
 20
0.0
 30
2.000000000000000E+50
 75
     0
  0
DIMASSOC
  5
CAB5
102
{ACAD_REACTORS
330
CAB4
102
}
330
CAB4
100
AcDbDimAssoc
330
CAA8
 90
        2
 70
     0
 71
     0
  1
AcDbOsnapPointRef
 72
     3
331
C54C
 73
     2
 91
        0
 40
0.0
 10
0.0
 20
0.0
 30
0.0
 75
     0
  0
DIMASSOC
  5
CD60
102
{ACAD_REACTORS
330
CD5F
102
}
330
CD5F
100
AcDbDimAssoc
330
CD52
 90
        3
 70
     0
 71
     0
  1
AcDbOsnapPointRef
 72
    13
331
C53B
 73
     0
 91
        0
 40
0.0
 10
0.0
 20
0.0
 30
2.000000000000000E+50
 75
     0
  1
AcDbOsnapPointRef
 72
    13
331
C522
 73
     0
 91
        0
 40
0.0
 10
0.0
 20
0.0
 30
2.000000000000000E+50
 75
     0
  0
XRECORD
  5
D32D
102
{ACAD_REACTORS
330
D32B
102
}
330
D32B
100
AcDbXrecord
280
     1
 70
     1
  0
XRECORD
  5
D32C
102
{ACAD_REACTORS
330
D32B
102
}
330
D32B
100
AcDbXrecord
280
     1
 40
0.0
  0
LAYOUT
  5
22
102
{ACAD_XDICTIONARY
360
D330
102
}
102
{ACAD_REACTORS
330
1A
102
}
330
1A
100
AcDbPlotSettings
  1

  2
FX DocuWide 2050/2051
  4
A4
  6
AM_VIEW1
 40
3.174999952316283
 41
3.174999952316283
 42
3.175003051757812
 43
3.17498779296875
 44
209.9944915771484
 45
296.989501953125
 46
0.0
 47
1.328704577503771
 48
64.49209546397469
 49
44.75327701392961
140
484.4920954639746
141
341.7532770139296
142
1.0
143
1.458423952845778
 70
  3764
 72
     1
 73
     1
 74
     4
  7
monochrome.ctb
 75
     0
147
0.6856716786972199
148
-64.49209546397469
149
-44.75327701392961
100
AcDbLayout
  1
Model
 70
     1
 71
     0
 10
0.0
 20
0.0
 11
12.0
 21
9.0
 12
0.0
 22
0.0
 32
0.0
 14
0.0
 24
0.0
 34
0.0
 15
0.0
 25
0.0
 35
0.0
146
0.0
 13
0.0
 23
0.0
 33
0.0
 16
1.0
 26
0.0
 36
0.0
 17
0.0
 27
1.0
 37
0.0
 76
     0
330
1F
331
CC70
1001
ACAD_PSEXT
1000
FX DocuWide 2050/2051
1000
FX DocuWide 2050/2051
1000
IP_192.168.2.203
1000

1070
     0
  0
LAYOUT
  5
1E
102
{ACAD_XDICTIONARY
360
D32E
102
}
102
{ACAD_REACTORS
330
1A
102
}
330
1A
100
AcDbPlotSettings
  1

  2
\\ML370\XEROX
  4
A4
  6

 40
3.174999952316283
 41
3.174999952316283
 42
3.175003051757812
 43
3.17498779296875
 44
209.8674926757813
 45
296.6719970703125
 46
0.0
 47
0.0
 48
0.0
 49
0.0
140
0.0
141
0.0
142
1.0
143
1.0
 70
   688
 72
     1
 73
     1
 74
     5
  7
monochrome.ctb
 75
    16
147
1.0
148
0.0
149
0.0
100
AcDbLayout
  1
ﾚｲｱｳﾄ1
 70
     1
 71
     1
 10
-3.17498779296875
 20
-3.174999952316283
 11
293.4970092773438
 21
206.692492723465
 12
0.0
 22
0.0
 32
0.0
 14
1.000000000000000E+20
 24
1.000000000000000E+20
 34
1.000000000000000E+20
 15
-1.000000000000000E+20
 25
-1.000000000000000E+20
 35
-1.000000000000000E+20
146
0.0
 13
0.0
 23
0.0
 33
0.0
 16
1.0
 26
0.0
 36
0.0
 17
0.0
 27
1.0
 37
0.0
 76
     0
330
1B
  0
LAYOUT
  5
26
102
{ACAD_XDICTIONARY
360
D332
102
}
102
{ACAD_REACTORS
330
1A
102
}
330
1A
100
AcDbPlotSettings
  1

  2
\\ML370\XEROX
  4

  6

 40
0.0
 41
0.0
 42
0.0
 43
0.0
 44
0.0
 45
0.0
 46
0.0
 47
0.0
 48
0.0
 49
0.0
140
0.0
141
0.0
142
1.0
143
1.0
 70
   688
 72
     0
 73
     0
 74
     5
  7
monochrome.ctb
 75
    16
147
1.0
148
0.0
149
0.0
100
AcDbLayout
  1
ﾚｲｱｳﾄ2
 70
     1
 71
     2
 10
0.0
 20
0.0
 11
12.0
 21
9.0
 12
0.0
 22
0.0
 32
0.0
 14
0.0
 24
0.0
 34
0.0
 15
0.0
 25
0.0
 35
0.0
146
0.0
 13
0.0
 23
0.0
 33
0.0
 16
1.0
 26
0.0
 36
0.0
 17
0.0
 27
1.0
 37
0.0
 76
     0
330
23
  0
MATERIAL
  5
CC7E
102
{ACAD_XDICTIONARY
360
D338
102
}
102
{ACAD_REACTORS
330
A91C
102
}
330
A91C
100
AcDbMaterial
  1
ByBlock
  0
MATERIAL
  5
CC7D
102
{ACAD_XDICTIONARY
360
D336
102
}
102
{ACAD_REACTORS
330
A91C
102
}
330
A91C
100
AcDbMaterial
  1
ByLayer
  0
MATERIAL
  5
CC7F
102
{ACAD_XDICTIONARY
360
D33A
102
}
102
{ACAD_REACTORS
330
A91C
102
}
330
A91C
100
AcDbMaterial
  1
Global
  0
MLINESTYLE
  5
18
102
{ACAD_REACTORS
330
17
102
}
330
17
100
AcDbMlineStyle
  2
STANDARD
 70
     0
  3

 62
   256
 51
90.0
 52
90.0
 71
     2
 49
0.5
 62
   256
  6
BYLAYER
 49
-0.5
 62
   256
  6
BYLAYER
  0
ACDBPLACEHOLDER
  5
F
102
{ACAD_REACTORS
330
E
102
}
330
E
  0
TABLESTYLE
  5
AABA
102
{ACAD_XDICTIONARY
360
D334
102
}
102
{ACAD_REACTORS
330
AAB9
102
}
330
AAB9
100
AcDbTableStyle
  3
Standard
 70
     0
 71
     0
 40
1.5
 41
1.5
280
     0
281
     0
  7
STANDARD
140
4.5
170
     2
 62
     0
 63
     7
283
     0
274
    -2
284
     1
 64
     0
275
    -2
285
     1
 65
     0
276
    -2
286
     1
 66
     0
277
    -2
287
     1
 67
     0
278
    -2
288
     1
 68
     0
279
    -2
289
     1
 69
     0
  7
STANDARD
140
6.0
170
     5
 62
     0
 63
     7
283
     0
274
    -2
284
     1
 64
     0
275
    -2
285
     1
 65
     0
276
    -2
286
     1
 66
     0
277
    -2
287
     1
 67
     0
278
    -2
288
     1
 68
     0
279
    -2
289
     1
 69
     0
  7
STANDARD
140
4.5
170
     5
 62
     0
 63
     7
283
     0
274
    -2
284
     1
 64
     0
275
    -2
285
     1
 65
     0
276
    -2
286
     1
 66
     0
277
    -2
287
     1
 67
     0
278
    -2
288
     1
 68
     0
279
    -2
289
     1
 69
     0
  0
VISUALSTYLE
  5
CC86
102
{ACAD_REACTORS
330
CC80
102
}
330
CC80
100
AcDbVisualStyle
  2
2dWireframe
 70
     4
 71
     0
 72
     2
 73
     0
 90
        0
 40
-0.6
 41
-30.0
 62
     5
 63
     7
 74
     1
 91
        4
 64
     7
 65
   257
 75
     1
175
     1
 42
1.0
 92
        0
 66
   257
 43
1.0
 76
     1
 77
     6
 78
     2
 67
     7
 79
     5
170
     0
171
     0
290
     0
174
     0
 93
        1
 44
0.0
173
     0
291
     0
 45
0.0
1001
ACAD
1000
AcDbSavedByObjectVersion
1070
     0
  0
VISUALSTYLE
  5
CC88
102
{ACAD_REACTORS
330
CC80
102
}
330
CC80
100
AcDbVisualStyle
  2
3D Hidden
 70
     6
 71
     1
 72
     2
 73
     2
 90
        0
 40
-0.6
 41
-30.0
 62
     5
 63
     7
 74
     2
 91
        2
 64
     7
 65
   257
 75
     2
175
     1
 42
40.0
 92
        0
 66
   257
 43
1.0
 76
     1
 77
     6
 78
     2
 67
     7
 79
     3
170
     0
171
     0
290
     0
174
     0
 93
        1
 44
0.0
173
     0
291
     0
 45
0.0
1001
ACAD
1000
AcDbSavedByObjectVersion
1070
     0
  0
VISUALSTYLE
  5
CC87
102
{ACAD_REACTORS
330
CC80
102
}
330
CC80
100
AcDbVisualStyle
  2
3dWireframe
 70
     5
 71
     0
 72
     2
 73
     0
 90
        0
 40
-0.6
 41
-30.0
 62
     5
 63
     7
 74
     1
 91
        4
 64
     7
 65
   257
 75
     1
175
     1
 42
1.0
 92
        0
 66
   257
 43
1.0
 76
     1
 77
     6
 78
     2
 67
     7
 79
     5
170
     0
171
     0
290
     0
174
     0
 93
        1
 44
0.0
173
     0
291
     0
 45
0.0
1001
ACAD
1000
AcDbSavedByObjectVersion
1070
     0
  0
VISUALSTYLE
  5
CC85
102
{ACAD_REACTORS
330
CC80
102
}
330
CC80
100
AcDbVisualStyle
  2
Basic
 70
     7
 71
     1
 72
     0
 73
     1
 90
        0
 40
-0.6
 41
-30.0
 62
     5
 63
     7
 74
     0
 91
        4
 64
     7
 65
   257
 75
     1
175
     1
 42
1.0
 92
        8
 66
     7
 43
1.0
 76
     1
 77
     6
 78
     2
 67
     7
 79
     5
170
     0
171
     0
290
     0
174
     0
 93
        1
 44
0.0
173
     0
291
     1
 45
0.0
1001
ACAD
1000
AcDbSavedByObjectVersion
1070
     0
  0
VISUALSTYLE
  5
CC8C
102
{ACAD_REACTORS
330
CC80
102
}
330
CC80
100
AcDbVisualStyle
  2
Brighten
 70
    12
 71
     2
 72
     2
 73
     0
 90
        0
 40
-0.6
 41
-30.0
 62
     5
 63
     7
 74
     1
 91
        4
 64
     7
 65
   257
 75
     1
175
     1
 42
1.0
 92
        8
 66
     7
 43
1.0
 76
     1
 77
     6
 78
     2
 67
     7
 79
     5
170
     0
171
     0
290
     0
174
     0
 93
        1
 44
50.0
173
     0
291
     1
 45
0.0
1001
ACAD
1000
AcDbSavedByObjectVersion
1070
     0
  0
VISUALSTYLE
  5
CC90
102
{ACAD_REACTORS
330
CC80
102
}
330
CC80
100
AcDbVisualStyle
  2
ColorChange
 70
    16
 71
     2
 72
     2
 73
     3
 90
        0
 40
-0.6
 41
-30.0
 62
     5
 63
     8
 74
     1
 91
        4
 64
     7
 65
   257
 75
     1
175
     1
 42
1.0
 92
        8
 66
     8
 43
1.0
 76
     1
 77
     6
 78
     2
 67
     7
 79
     5
170
     0
171
     0
290
     0
174
     0
 93
        1
 44
0.0
173
     0
291
     1
 45
0.0
1001
ACAD
1000
AcDbSavedByObjectVersion
1070
     0
  0
VISUALSTYLE
  5
CC89
102
{ACAD_REACTORS
330
CC80
102
}
330
CC80
100
AcDbVisualStyle
  2
Conceptual
 70
     9
 71
     3
 72
     2
 73
     0
 90
        0
 40
-0.6
 41
-30.0
 62
     5
 63
     7
 74
     2
 91
        2
 64
     7
 65
   257
 75
     1
175
     1
 42
40.0
 92
        8
 66
     7
 43
1.0
 76
     1
 77
     6
 78
     2
 67
     7
 79
     3
170
     0
171
     0
290
     0
174
     0
 93
        1
 44
0.0
173
     0
291
     0
 45
0.0
1001
ACAD
1000
AcDbSavedByObjectVersion
1070
     0
  0
VISUALSTYLE
  5
CC8B
102
{ACAD_REACTORS
330
CC80
102
}
330
CC80
100
AcDbVisualStyle
  2
Dim
 70
    11
 71
     2
 72
     2
 73
     0
 90
        0
 40
-0.6
 41
-30.0
 62
     5
 63
     7
 74
     1
 91
        4
 64
     7
 65
   257
 75
     1
175
     1
 42
1.0
 92
        8
 66
     7
 43
1.0
 76
     1
 77
     6
 78
     2
 67
     7
 79
     5
170
     0
171
     0
290
     0
174
     0
 93
        1
 44
-50.0
173
     0
291
     1
 45
0.0
1001
ACAD
1000
AcDbSavedByObjectVersion
1070
     0
  0
VISUALSTYLE
  5
CC8F
102
{ACAD_REACTORS
330
CC80
102
}
330
CC80
100
AcDbVisualStyle
  2
Facepattern
 70
    15
 71
     2
 72
     2
 73
     0
 90
        0
 40
-0.6
 41
-30.0
 62
     5
 63
     7
 74
     1
 91
        4
 64
     7
 65
   257
 75
     1
175
     1
 42
1.0
 92
        8
 66
     7
 43
1.0
 76
     1
 77
     6
 78
     2
 67
     7
 79
     5
170
     0
171
     0
290
     0
174
     0
 93
        1
 44
0.0
173
     0
291
     1
 45
0.0
1001
ACAD
1000
AcDbSavedByObjectVersion
1070
     0
  0
VISUALSTYLE
  5
CC81
102
{ACAD_REACTORS
330
CC80
102
}
330
CC80
100
AcDbVisualStyle
  2
Flat
 70
     0
 71
     2
 72
     1
 73
     1
 90
        2
 40
-0.6
 41
30.0
 62
     5
 63
     7
 74
     0
 91
        4
 64
     7
 65
   257
 75
     1
175
     1
 42
1.0
 92
        8
 66
     7
 43
1.0
 76
     1
 77
     6
 78
     2
 67
     7
 79
     5
170
     0
171
     0
290
     0
174
     0
 93
       13
 44
0.0
173
     0
291
     1
 45
0.0
1001
ACAD
1000
AcDbSavedByObjectVersion
1070
     0
  0
VISUALSTYLE
  5
CC82
102
{ACAD_REACTORS
330
CC80
102
}
330
CC80
100
AcDbVisualStyle
  2
FlatWithEdges
 70
     1
 71
     2
 72
     1
 73
     1
 90
        2
 40
-0.6
 41
30.0
 62
     5
 63
     7
 74
     1
 91
        4
 64
     7
 65
   257
 75
     1
175
     1
 42
1.0
 92
        0
 66
   257
 43
1.0
 76
     1
 77
     6
 78
     2
 67
     7
 79
     5
170
     0
171
     0
290
     0
174
     0
 93
       13
 44
0.0
173
     0
291
     1
 45
0.0
1001
ACAD
1000
AcDbSavedByObjectVersion
1070
     0
  0
VISUALSTYLE
  5
CC83
102
{ACAD_REACTORS
330
CC80
102
}
330
CC80
100
AcDbVisualStyle
  2
Gouraud
 70
     2
 71
     2
 72
     2
 73
     1
 90
        2
 40
-0.6
 41
30.0
 62
     5
 63
     7
 74
     0
 91
        4
 64
     7
 65
   257
 75
     1
175
     1
 42
1.0
 92
        0
 66
     7
 43
1.0
 76
     1
 77
     6
 78
     2
 67
     7
 79
     5
170
     0
171
     0
290
     0
174
     0
 93
       13
 44
0.0
173
     0
291
     1
 45
0.0
1001
ACAD
1000
AcDbSavedByObjectVersion
1070
     0
  0
VISUALSTYLE
  5
CC84
102
{ACAD_REACTORS
330
CC80
102
}
330
CC80
100
AcDbVisualStyle
  2
GouraudWithEdges
 70
     3
 71
     2
 72
     2
 73
     1
 90
        2
 40
-0.6
 41
30.0
 62
     5
 63
     7
 74
     1
 91
        4
 64
     7
 65
   257
 75
     1
175
     1
 42
1.0
 92
        0
 66
   257
 43
1.0
 76
     1
 77
     6
 78
     2
 67
     7
 79
     5
170
     0
171
     0
290
     0
174
     0
 93
       13
 44
0.0
173
     0
291
     1
 45
0.0
1001
ACAD
1000
AcDbSavedByObjectVersion
1070
     0
  0
VISUALSTYLE
  5
CC8E
102
{ACAD_REACTORS
330
CC80
102
}
330
CC80
100
AcDbVisualStyle
  2
Linepattern
 70
    14
 71
     2
 72
     2
 73
     0
 90
        0
 40
-0.6
 41
-30.0
 62
     5
 63
     7
 74
     1
 91
        4
 64
     7
 65
   257
 75
     7
175
     7
 42
1.0
 92
        8
 66
     7
 43
1.0
 76
     1
 77
     6
 78
     2
 67
     7
 79
     5
170
     0
171
     0
290
     0
174
     0
 93
        1
 44
0.0
173
     0
291
     1
 45
0.0
1001
ACAD
1000
AcDbSavedByObjectVersion
1070
     0
  0
VISUALSTYLE
  5
CC8A
102
{ACAD_REACTORS
330
CC80
102
}
330
CC80
100
AcDbVisualStyle
  2
Realistic
 70
     8
 71
     2
 72
     2
 73
     0
 90
        0
 40
-0.6
 41
-30.0
 62
     5
 63
     7
 74
     1
 91
        0
 64
     7
 65
   257
 75
     1
175
     1
 42
1.0
 92
        8
 66
     8
 43
1.0
 76
     1
 77
     6
 78
     2
 67
     7
 79
     5
170
     0
171
     0
290
     0
174
     0
 93
       13
 44
0.0
173
     0
291
     0
 45
0.0
1001
ACAD
1000
AcDbSavedByObjectVersion
1070
     0
  0
VISUALSTYLE
  5
CC8D
102
{ACAD_REACTORS
330
CC80
102
}
330
CC80
100
AcDbVisualStyle
  2
Thicken
 70
    13
 71
     2
 72
     2
 73
     0
 90
        0
 40
-0.6
 41
-30.0
 62
     5
 63
     7
 74
     1
 91
        4
 64
     7
 65
   257
 75
     1
175
     1
 42
1.0
 92
       12
 66
     7
 43
1.0
 76
     1
 77
     6
 78
     2
 67
     7
 79
     5
170
     0
171
     0
290
     0
174
     0
 93
        1
 44
0.0
173
     0
291
     1
 45
0.0
1001
ACAD
1000
AcDbSavedByObjectVersion
1070
     0
  0
DICTIONARYVAR
  5
AAF3
102
{ACAD_REACTORS
330
34
102
}
330
34
100
DictionaryVariables
280
     0
  1
STANDARD
  0
DICTIONARYVAR
  5
A10C
102
{ACAD_REACTORS
330
34
102
}
330
34
100
DictionaryVariables
280
     0
  1
2
  0
DICTIONARYVAR
  5
AB07
102
{ACAD_REACTORS
330
34
102
}
330
34
100
DictionaryVariables
280
     0
  1
4
  0
DICTIONARYVAR
  5
35
102
{ACAD_REACTORS
330
34
102
}
330
34
100
DictionaryVariables
280
     0
  1
0
  0
DICTIONARYVAR
  5
CC6F
102
{ACAD_REACTORS
330
34
102
}
330
34
100
DictionaryVariables
280
     0
  1

  0
DICTIONARYVAR
  5
194C
102
{ACAD_REACTORS
330
34
102
}
330
34
100
DictionaryVariables
280
     0
  1
96
  0
DICTIONARY
  5
7E8
102
{ACAD_REACTORS
330
47
102
}
330
47
100
AcDbDictionary
281
     1
  0
DICTIONARY
  5
4C
102
{ACAD_REACTORS
330
47
102
}
330
47
100
AcDbDictionary
281
     1
  0
XRECORD
  5
A929
102
{ACAD_REACTORS
330
47
102
}
330
47
100
AcDbXrecord
280
     1
 90
-1023410169
  0
XRECORD
  5
9F49
102
{ACAD_REACTORS
330
9F48
102
}
330
9F48
100
AcDbXrecord
280
     1
330
0
330
0
330
0
330
0
330
0
330
0
330
0
330
0
  0
XRECORD
  5
3FB7
102
{ACAD_REACTORS
330
3F96
102
}
330
3F96
100
AcDbXrecord
280
     1
 91
        3
330
0
 90
        8
 62
     7
370
    40
331
16
  1
Color_7
330
0
 90
        0
 62
    14
370
    -3
331
16
  1
Color_14
330
0
 90
        8
 62
     7
370
    20
331
16
  1
Color_7
330
6D1
 90
        0
 62
     7
370
    -3
331
16
  1
Color_7
330
0
 90
        8
 62
     7
370
    50
331
16
  1
Color_7
330
0
 90
        8
 62
     2
370
    35
331
16
  1
Color_2
330
0
 90
        8
 62
     7
370
    -3
331
16
  1
Color_7
330
10
 90
        8
 62
     7
370
    -3
331
16
  1
Color_7
  0
DICTIONARY
  5
D330
330
22
100
AcDbDictionary
280
     1
281
     1
  3
ACAD_XREC_ROUNDTRIP
360
D331
  0
DICTIONARY
  5
D32E
330
1E
100
AcDbDictionary
280
     1
281
     1
  3
ACAD_XREC_ROUNDTRIP
360
D32F
  0
DICTIONARY
  5
D332
330
26
100
AcDbDictionary
280
     1
281
     1
  3
ACAD_XREC_ROUNDTRIP
360
D333
  0
DICTIONARY
  5
D338
330
CC7E
100
AcDbDictionary
280
     1
281
     1
  3
ACAD_XREC_ROUNDTRIP
360
D339
  0
DICTIONARY
  5
D336
330
CC7D
100
AcDbDictionary
280
     1
281
     1
  3
ACAD_XREC_ROUNDTRIP
360
D337
  0
DICTIONARY
  5
D33A
330
CC7F
100
AcDbDictionary
280
     1
281
     1
  3
ACAD_XREC_ROUNDTRIP
360
D33B
  0
DICTIONARY
  5
D334
330
AABA
100
AcDbDictionary
280
     1
281
     1
  3
ACAD_XREC_ROUNDTRIP
360
D335
  0
XRECORD
  5
D331
102
{ACAD_REACTORS
330
D330
102
}
330
D330
100
AcDbXrecord
280
     1
102
SHADEPLOT
 70
     0
102
SHADEPLOTRESLEVEL
 70
     2
102
SHADEPLOTCUSTOMDPI
 70
   200
  0
XRECORD
  5
D32F
102
{ACAD_REACTORS
330
D32E
102
}
330
D32E
100
AcDbXrecord
280
     1
102
SHADEPLOT
 70
     0
102
SHADEPLOTRESLEVEL
 70
     2
102
SHADEPLOTCUSTOMDPI
 70
   300
  0
XRECORD
  5
D333
102
{ACAD_REACTORS
330
D332
102
}
330
D332
100
AcDbXrecord
280
     1
102
SHADEPLOT
 70
     0
102
SHADEPLOTRESLEVEL
 70
     2
102
SHADEPLOTCUSTOMDPI
 70
   300
  0
XRECORD
  5
D339
102
{ACAD_REACTORS
330
D338
102
}
330
D338
100
AcDbXrecord
280
     1
102
MATERIAL
148
0.0
149
0.0
149
0.0
 93
        0
 94
       63
282
     0
 72
     1
 77
     1
171
     1
175
     1
179
     1
273
     0
  0
XRECORD
  5
D337
102
{ACAD_REACTORS
330
D336
102
}
330
D336
100
AcDbXrecord
280
     1
102
MATERIAL
148
0.0
149
0.0
149
0.0
 93
        0
 94
       63
282
     0
 72
     1
 77
     1
171
     1
175
     1
179
     1
273
     0
  0
XRECORD
  5
D33B
102
{ACAD_REACTORS
330
D33A
102
}
330
D33A
100
AcDbXrecord
280
     1
102
MATERIAL
148
0.0
149
0.0
149
0.0
 93
        0
 94
       63
282
     0
 72
     1
 77
     1
171
     1
175
     1
179
     1
273
     0
  0
XRECORD
  5
D335
102
{ACAD_REACTORS
330
D334
102
}
330
D334
100
AcDbXrecord
280
     1
102
ACAD_ROUNDTRIP_PRE2007_TABLESTYLE
 90
        4
 91
        0
  1

 92
        4
 93
        0
  2

 94
        4
 95
        0
  3

  0
ENDSEC
  0
EOF
