  0
SECTION
  2
HEADER
  9
$ACADVER
  1
AC1015
  9
$ACADMAINTVER
 70
    20
  9
$DWGCODEPAGE
  3
ANSI_932
  9
$INSBASE
 10
0.0
 20
0.0
 30
0.0
  9
$EXTMIN
 10
530.1327757866233
 20
545.9410670418987
 30
-0.0015258207003583
  9
$EXTMAX
 10
950.26285983774
 20
843.0318038046697
 30
0.0000000349246037
  9
$LIMMIN
 10
1700.85588156276
 20
1647.985052086429
  9
$LIMMAX
 10
1997.85588156276
 20
1857.985052086429
  9
$ORTHOMODE
 70
     0
  9
$REGENMODE
 70
     1
  9
$FILLMODE
 70
     1
  9
$QTEXTMODE
 70
     0
  9
$MIRRTEXT
 70
     0
  9
$LTSCALE
 40
1.0
  9
$ATTMODE
 70
     1
  9
$TEXTSIZE
 40
3.2
  9
$TRACEWID
 40
1.0
  9
$TEXTSTYLE
  7
STANDARD
  9
$CLAYER
  8
AM_6
  9
$CELTYPE
  6
ByLayer
  9
$CECOLOR
 62
   256
  9
$CELTSCALE
 40
1.0
  9
$DISPSILH
 70
     0
  9
$DIMSCALE
 40
1.0
  9
$DIMASZ
 40
1.0
  9
$DIMEXO
 40
1.0
  9
$DIMDLI
 40
10.0
  9
$DIMRND
 40
0.0
  9
$DIMDLE
 40
0.0
  9
$DIMEXE
 40
1.0
  9
$DIMTP
 40
0.1
  9
$DIMTM
 40
0.1
  9
$DIMTXT
 40
3.5
  9
$DIMCEN
 40
0.0
  9
$DIMTSZ
 40
0.0
  9
$DIMTOL
 70
     0
  9
$DIMLIM
 70
     0
  9
$DIMTIH
 70
     0
  9
$DIMTOH
 70
     0
  9
$DIMSE1
 70
     0
  9
$DIMSE2
 70
     0
  9
$DIMTAD
 70
     1
  9
$DIMZIN
 70
     8
  9
$DIMBLK
  1

  9
$DIMASO
 70
     1
  9
$DIMSHO
 70
     1
  9
$DIMPOST
  1

  9
$DIMAPOST
  1
"
  9
$DIMALT
 70
     0
  9
$DIMALTD
 70
     2
  9
$DIMALTF
 40
0.0393701
  9
$DIMLFAC
 40
1.0
  9
$DIMTOFL
 70
     1
  9
$DIMTVP
 40
0.0
  9
$DIMTIX
 70
     0
  9
$DIMSOXD
 70
     0
  9
$DIMSAH
 70
     0
  9
$DIMBLK1
  1

  9
$DIMBLK2
  1

  9
$DIMSTYLE
  2
SYS
  9
$DIMCLRD
 70
   256
  9
$DIMCLRE
 70
   256
  9
$DIMCLRT
 70
     7
  9
$DIMTFAC
 40
0.71
  9
$DIMGAP
 40
1.5
  9
$DIMJUST
 70
     0
  9
$DIMSD1
 70
     0
  9
$DIMSD2
 70
     0
  9
$DIMTOLJ
 70
     0
  9
$DIMTZIN
 70
     8
  9
$DIMALTZ
 70
     0
  9
$DIMALTTZ
 70
     0
  9
$DIMUPT
 70
     0
  9
$DIMDEC
 70
     1
  9
$DIMTDEC
 70
     2
  9
$DIMALTU
 70
     2
  9
$DIMALTTD
 70
     2
  9
$DIMTXSTY
  7
STANDARD
  9
$DIMAUNIT
 70
     0
  9
$DIMADEC
 70
     0
  9
$DIMALTRND
 40
0.0
  9
$DIMAZIN
 70
     2
  9
$DIMDSEP
 70
    46
  9
$DIMATFIT
 70
     3
  9
$DIMFRAC
 70
     0
  9
$DIMLDRBLK
  1

  9
$DIMLUNIT
 70
     2
  9
$DIMLWD
 70
    -1
  9
$DIMLWE
 70
    -1
  9
$DIMTMOVE
 70
     0
  9
$LUNITS
 70
     2
  9
$LUPREC
 70
     2
  9
$SKETCHINC
 40
1.0
  9
$FILLETRAD
 40
0.5
  9
$AUNITS
 70
     0
  9
$AUPREC
 70
     0
  9
$MENU
  1
.
  9
$ELEVATION
 40
0.0
  9
$PELEVATION
 40
0.0
  9
$THICKNESS
 40
0.0
  9
$LIMCHECK
 70
     0
  9
$CHAMFERA
 40
1.0
  9
$CHAMFERB
 40
1.0
  9
$CHAMFERC
 40
20.0
  9
$CHAMFERD
 40
0.0
  9
$SKPOLY
 70
     0
  9
$TDCREATE
 40
2453690.706505706
  9
$TDUCREATE
 40
2453690.331505706
  9
$TDUPDATE
 40
2455629.476992002
  9
$TDUUPDATE
 40
2455629.101992002
  9
$TDINDWG
 40
13.3048569792
  9
$TDUSRTIMER
 40
13.3048531829
  9
$USRTIMER
 70
     1
  9
$ANGBASE
 50
0.0
  9
$ANGDIR
 70
     0
  9
$PDMODE
 70
     0
  9
$PDSIZE
 40
-3.0
  9
$PLINEWID
 40
0.0
  9
$SPLFRAME
 70
     0
  9
$SPLINETYPE
 70
     6
  9
$SPLINESEGS
 70
     8
  9
$HANDSEED
  5
2E317
  9
$SURFTAB1
 70
     6
  9
$SURFTAB2
 70
     6
  9
$SURFTYPE
 70
     6
  9
$SURFU
 70
     6
  9
$SURFV
 70
     6
  9
$UCSBASE
  2

  9
$UCSNAME
  2

  9
$UCSORG
 10
0.0
 20
0.0
 30
0.0
  9
$UCSXDIR
 10
1.0
 20
0.0
 30
0.0
  9
$UCSYDIR
 10
0.0
 20
1.0
 30
0.0
  9
$UCSORTHOREF
  2

  9
$UCSORTHOVIEW
 70
     0
  9
$UCSORGTOP
 10
0.0
 20
0.0
 30
0.0
  9
$UCSORGBOTTOM
 10
0.0
 20
0.0
 30
0.0
  9
$UCSORGLEFT
 10
0.0
 20
0.0
 30
0.0
  9
$UCSORGRIGHT
 10
0.0
 20
0.0
 30
0.0
  9
$UCSORGFRONT
 10
0.0
 20
0.0
 30
0.0
  9
$UCSORGBACK
 10
0.0
 20
0.0
 30
0.0
  9
$PUCSBASE
  2

  9
$PUCSNAME
  2

  9
$PUCSORG
 10
0.0
 20
0.0
 30
0.0
  9
$PUCSXDIR
 10
1.0
 20
0.0
 30
0.0
  9
$PUCSYDIR
 10
0.0
 20
1.0
 30
0.0
  9
$PUCSORTHOREF
  2

  9
$PUCSORTHOVIEW
 70
     0
  9
$PUCSORGTOP
 10
0.0
 20
0.0
 30
0.0
  9
$PUCSORGBOTTOM
 10
0.0
 20
0.0
 30
0.0
  9
$PUCSORGLEFT
 10
0.0
 20
0.0
 30
0.0
  9
$PUCSORGRIGHT
 10
0.0
 20
0.0
 30
0.0
  9
$PUCSORGFRONT
 10
0.0
 20
0.0
 30
0.0
  9
$PUCSORGBACK
 10
0.0
 20
0.0
 30
0.0
  9
$USERI1
 70
     0
  9
$USERI2
 70
     0
  9
$USERI3
 70
     0
  9
$USERI4
 70
     0
  9
$USERI5
 70
     0
  9
$USERR1
 40
0.0
  9
$USERR2
 40
0.0
  9
$USERR3
 40
0.0
  9
$USERR4
 40
0.0
  9
$USERR5
 40
0.0
  9
$WORLDVIEW
 70
     1
  9
$SHADEDGE
 70
     3
  9
$SHADEDIF
 70
    70
  9
$TILEMODE
 70
     1
  9
$MAXACTVP
 70
    64
  9
$PINSBASE
 10
0.0
 20
0.0
 30
0.0
  9
$PLIMCHECK
 70
     0
  9
$PEXTMIN
 10
1.000000000000000E+20
 20
1.000000000000000E+20
 30
1.000000000000000E+20
  9
$PEXTMAX
 10
-1.000000000000000E+20
 20
-1.000000000000000E+20
 30
-1.000000000000000E+20
  9
$PLIMMIN
 10
-3.17498779296875
 20
-3.174999952316281
  9
$PLIMMAX
 10
293.4970092773438
 20
206.692492723465
  9
$UNITMODE
 70
     0
  9
$VISRETAIN
 70
     1
  9
$PLINEGEN
 70
     0
  9
$PSLTSCALE
 70
     1
  9
$TREEDEPTH
 70
  3020
  9
$CMLSTYLE
  2
Standard
  9
$CMLJUST
 70
     0
  9
$CMLSCALE
 40
20.0
  9
$PROXYGRAPHICS
 70
     1
  9
$MEASUREMENT
 70
     1
  9
$CELWEIGHT
370
    -1
  9
$ENDCAPS
280
     0
  9
$JOINSTYLE
280
     0
  9
$LWDISPLAY
290
     1
  9
$INSUNITS
 70
     4
  9
$HYPERLINKBASE
  1

  9
$STYLESHEET
  1
monochrome.ctb
  9
$XEDIT
290
     1
  9
$CEPSNTYPE
380
     0
  9
$PSTYLEMODE
290
     1
  9
$FINGERPRINTGUID
  2
{F4957AF8-857E-42C6-BAB8-18E6896E5882}
  9
$VERSIONGUID
  2
{F5E6EF39-DF88-4278-9A64-2D68E73698F3}
  9
$EXTNAMES
290
     1
  9
$PSVPSCALE
 40
0.0
  9
$OLESTARTUP
290
     0
  0
ENDSEC
  0
SECTION
  2
CLASSES
  0
CLASS
  1
ACDBDICTIONARYWDFLT
  2
AcDbDictionaryWithDefault
  3
ObjectDBX Classes
 90
        0
280
     0
281
     0
  0
CLASS
  1
ACDBPLACEHOLDER
  2
AcDbPlaceHolder
  3
ObjectDBX Classes
 90
        0
280
     0
281
     0
  0
CLASS
  1
LAYOUT
  2
AcDbLayout
  3
ObjectDBX Classes
 90
        0
280
     0
281
     0
  0
CLASS
  1
AMGSETTINGSOBJ
  2
AmgSettingsObj
  3
"AcadM|Product Description: AutoCAD Mechanical|Company: Autodesk"
 90
        0
280
     0
281
     0
  0
CLASS
  1
ACME_DOCUMENT
  2
AcMeDbDoc
  3
AcMeServices
 90
        0
280
     0
281
     0
  0
CLASS
  1
ACMESCOPE
  2
AcMeScope
  3
AcMeServices
 90
        0
280
     0
281
     0
  0
CLASS
  1
ACMECOMMANDHISTORY
  2
AcMeCommandHistory
  3
AcMeServices
 90
        0
280
     0
281
     0
  0
CLASS
  1
DICTIONARYVAR
  2
AcDbDictionaryVar
  3
ObjectDBX Classes
 90
        0
280
     0
281
     0
  0
CLASS
  1
ACIMSYSVARMAN
  2
AcImSysVarManager
  3
AcMeServices
 90
        0
280
     0
281
     0
  0
CLASS
  1
ACIMREALSYSVAR
  2
AcImRealSysVar
  3
AcMeServices
 90
        0
280
     0
281
     0
  0
CLASS
  1
ACIMINTSYSVAR
  2
AcImIntSysVar
  3
AcMeServices
 90
        0
280
     0
281
     0
  0
CLASS
  1
ACMEDRAWINGMAN
  2
AcMeDrawingMan
  3
AcMeServices
 90
        0
280
     0
281
     0
  0
CLASS
  1
ACMEVIEW
  2
AcMeView
  3
AcMeServices
 90
        0
280
     0
281
     0
  0
CLASS
  1
ACDBENTITYCACHE
  2
AcMeEntityCache
  3
AcMeServices
 90
        0
280
     0
281
     0
  0
CLASS
  1
GSMANAGER
  2
AcMeGSManager
  3
AcMeServices
 90
        0
280
     0
281
     0
  0
CLASS
  1
AMDTINTERNALREACTOR
  2
AmdtInternalReactor
  3
AcMeServices
 90
        0
280
     0
281
     0
  0
CLASS
  1
ACMESTATEMGR
  2
AcMeStateMgr
  3
AcMeServices
 90
        0
280
     0
281
     0
  0
CLASS
  1
ACGREFMASTER
  2
AcGrefMaster
  3
AcAttribServices
 90
        0
280
     0
281
     0
  0
CLASS
  1
ACME_DATABASE
  2
AcMeDbDatabase
  3
AcMeServices
 90
        0
280
     0
281
     0
  0
CLASS
  1
ACRFINSADJUSTERMGR
  2
AcRfInsAdjusterMgr
  3
AcMeServices
 90
        0
280
     0
281
     0
  0
CLASS
  1
ACGREFACADMASTER
  2
AcGrefacadMaster
  3
AcGrefServices
 90
        0
280
     0
281
     0
  0
CLASS
  1
AMIMASTER
  2
AmiMaster
  3
AmiServices
 90
        0
280
     0
281
     0
  0
CLASS
  1
ACMDATADICTIONARY
  2
AcmDataDictionary
  3
"AcmSymBB|Product Description: AutoCAD Mechanical|Company: Autodesk"
 90
        0
280
     0
281
     0
  0
CLASS
  1
ACMDATAENTRYBLOCK
  2
AcmDataEntryBlock
  3
"AcmSymBB|Product Description: AutoCAD Mechanical|Company: Autodesk"
 90
    32768
280
     0
281
     0
  0
CLASS
  1
ACIMSTRSYSVAR
  2
AcImStrSysVar
  3
AcMeServices
 90
        0
280
     0
281
     0
  0
CLASS
  1
ACMSTANDARDISO
  2
AcmStandardISO
  3
"Amdt_StdImp|Product Description: AutoCAD Mechanical|Company: Autodesk"
 90
        0
280
     0
281
     0
  0
CLASS
  1
AMGOBJPROPCFG
  2
AmgObjPropCfg
  3
"AmgLay|Product Description: AutoCAD Mechanical|Company: Autodesk"
 90
        1
280
     0
281
     0
  0
CLASS
  1
AMDTEDGESTANDARDISO
  2
AmdtEdgeStdISO
  3
"Amdt_StdImp|Product Description: AutoCAD Mechanical|Company: Autodesk"
 90
        0
280
     0
281
     0
  0
CLASS
  1
ACMSURFSTANDARDISO
  2
AcmSurfTextStdISO
  3
"Amdt_StdImp|Product Description: AutoCAD Mechanical|Company: Autodesk"
 90
        0
280
     0
281
     0
  0
CLASS
  1
ACMFCFSTANDARDISO
  2
AcmFCFStdISO
  3
"Amdt_StdImp|Product Description: AutoCAD Mechanical|Company: Autodesk"
 90
        0
280
     0
281
     0
  0
CLASS
  1
ACMWELDSTANDARDISO
  2
AcmWeldingStdISO
  3
"Amdt_StdImp|Product Description: AutoCAD Mechanical|Company: Autodesk"
 90
        0
280
     0
281
     0
  0
CLASS
  1
ACMIDSTANDARDISO
  2
AcmIdStdISO
  3
"Amdt_StdImp|Product Description: AutoCAD Mechanical|Company: Autodesk"
 90
        0
280
     0
281
     0
  0
CLASS
  1
ACMDATUMSTANDARDISO
  2
AcmDatumStdISO
  3
"Amdt_StdImp|Product Description: AutoCAD Mechanical|Company: Autodesk"
 90
        0
280
     0
281
     0
  0
CLASS
  1
ACMBOMSTANDARDISO
  2
AcmBOMStdISO
  3
"Amdt_StdImp|Product Description: AutoCAD Mechanical|Company: Autodesk"
 90
        0
280
     0
281
     0
  0
CLASS
  1
ACMDETAILSTANDARDISO
  2
AmdtDetailSymStdISO
  3
"Amdt_StdImp|Product Description: AutoCAD Mechanical|Company: Autodesk"
 90
        0
280
     0
281
     0
  0
CLASS
  1
ACMSECTIONSTANDARDISO
  2
AmdtSectionSymStdISO
  3
"Amdt_StdImp|Product Description: AutoCAD Mechanical|Company: Autodesk"
 90
        0
280
     0
281
     0
  0
CLASS
  1
ACMCENTERLINESTANDARDISO
  2
AmdtCenterLineStdISO
  3
"Amdt_StdImp|Product Description: AutoCAD Mechanical|Company: Autodesk"
 90
        0
280
     0
281
     0
  0
CLASS
  1
ACAMGLAYSTD
  2
AcAmgLayStd
  3
"AmgLay|Product Description: AutoCAD Mechanical|Company: Autodesk"
 90
        0
280
     0
281
     0
  0
CLASS
  1
ACAMGDIMSTD
  2
AcAmgDimStd
  3
"AmgDim|Product Description: AutoCAD Mechanical|Company: Autodesk"
 90
        0
280
     0
281
     0
  0
CLASS
  1
ACAMGTITLESTD
  2
AcAmgTitleStd
  3
"AmgTitle|Product Description: AutoCAD Mechanical|Company: Autodesk"
 90
        0
280
     0
281
     0
  0
CLASS
  1
ACAMGFILTERDAT
  2
AcAmgFilterDat
  3
"AcadM|Product Description: AutoCAD Mechanical|Company: Autodesk"
 90
    32768
280
     0
281
     0
  0
CLASS
  1
LAYER_INDEX
  2
AcDbLayerIndex
  3
ObjectDBX Classes
 90
    32768
280
     0
281
     0
  0
CLASS
  1
IDBUFFER
  2
AcDbIdBuffer
  3
ObjectDBX Classes
 90
    32768
280
     0
281
     0
  0
CLASS
  1
PLOTSETTINGS
  2
AcDbPlotSettings
  3
ObjectDBX Classes
 90
        0
280
     0
281
     0
  0
CLASS
  1
AMDTFORMULAUPDATEDISPATCHER
  2
AmdtFormulaUpdateDispatcher
  3
AcMeServices
 90
    32768
280
     0
281
     0
  0
CLASS
  1
ACMSTANDARDANSI
  2
AcmStandardANSI
  3
"Amdt_StdImp|Product Description: AutoCAD Mechanical|Company: Autodesk"
 90
        0
280
     0
281
     0
  0
CLASS
  1
ACMSURFSTANDARDANSI
  2
AcmSurfTextStdANSI
  3
"Amdt_StdImp|Product Description: AutoCAD Mechanical|Company: Autodesk"
 90
        0
280
     0
281
     0
  0
CLASS
  1
ACMFCFSTANDARDANSI
  2
AcmFCFStdANSI
  3
"Amdt_StdImp|Product Description: AutoCAD Mechanical|Company: Autodesk"
 90
        0
280
     0
281
     0
  0
CLASS
  1
ACMWELDSTANDARDANSI
  2
AcmWeldingStdANSI
  3
"Amdt_StdImp|Product Description: AutoCAD Mechanical|Company: Autodesk"
 90
        0
280
     0
281
     0
  0
CLASS
  1
ACMIDSTANDARDANSI
  2
AcmIdStdANSI
  3
"Amdt_StdImp|Product Description: AutoCAD Mechanical|Company: Autodesk"
 90
        0
280
     0
281
     0
  0
CLASS
  1
ACMDATUMSTANDARDANSI
  2
AcmDatumStdANSI
  3
"Amdt_StdImp|Product Description: AutoCAD Mechanical|Company: Autodesk"
 90
        0
280
     0
281
     0
  0
CLASS
  1
ACMBOMSTANDARDANSI
  2
AcmBOMStdANSI
  3
"Amdt_StdImp|Product Description: AutoCAD Mechanical|Company: Autodesk"
 90
        0
280
     0
281
     0
  0
CLASS
  1
ACMDETAILSTANDARDANSI
  2
AmdtDetailSymStdANSI
  3
"Amdt_StdImp|Product Description: AutoCAD Mechanical|Company: Autodesk"
 90
        0
280
     0
281
     0
  0
CLASS
  1
ACMSECTIONSTANDARDANSI
  2
AmdtSectionSymStdANSI
  3
"Amdt_StdImp|Product Description: AutoCAD Mechanical|Company: Autodesk"
 90
        0
280
     0
281
     0
  0
CLASS
  1
ACMCENTERLINESTANDARDANSI
  2
AmdtCenterLineStdANSI
  3
"Amdt_StdImp|Product Description: AutoCAD Mechanical|Company: Autodesk"
 90
        0
280
     0
281
     0
  0
CLASS
  1
ACMBOM
  2
AcmBom
  3
"AcmSymBB|Product Description: AutoCAD Mechanical|Company: Autodesk"
 90
    32768
280
     0
281
     0
  0
CLASS
  1
ACMDATAENTRYPART
  2
AcmDataEntryPart
  3
"AcmSymBB|Product Description: AutoCAD Mechanical|Company: Autodesk"
 90
    32768
280
     0
281
     0
  0
CLASS
  1
ACMPARTREF
  2
AcmPartRef
  3
"AcmSymBB|Product Description: AutoCAD Mechanical|Company: Autodesk"
 90
    35839
280
     0
281
     1
  0
CLASS
  1
ACDBCIRCARCRES
  2
AcDbCircArcRes
  3
AcGrefServices
 90
    32768
280
     0
281
     0
  0
CLASS
  1
ACMBOMROW
  2
AcmBomRow
  3
"AcmSymBB|Product Description: AutoCAD Mechanical|Company: Autodesk"
 90
    32768
280
     0
281
     0
  0
CLASS
  1
ACMBALLOON
  2
AcmBalloon
  3
"AcmSymBB|Product Description: AutoCAD Mechanical|Company: Autodesk"
 90
    35839
280
     0
281
     1
  0
CLASS
  1
AMDTNOTE
  2
AmdtNote
  3
"AcmSymBB|Product Description: AutoCAD Mechanical|Company: Autodesk"
 90
    35839
280
     0
281
     1
  0
CLASS
  1
STDPART2D
  2
AmgStdPart
  3
"AmgStdPart|Product Description: AutoCAD Mechanical|Company: Autodesk"
 90
    35839
280
     0
281
     1
  0
CLASS
  1
ACDBSTDPARTRES_LINE
  2
AcDbStdPartRes_Line
  3
"AmgStdPart|Product Description: AutoCAD Mechanical|Company: Autodesk"
 90
    32768
280
     0
281
     0
  0
CLASS
  1
ACMDATAENTRY
  2
AcmDataEntry
  3
"AcmSymBB|Product Description: AutoCAD Mechanical|Company: Autodesk"
 90
    32768
280
     0
281
     0
  0
CLASS
  1
ACDBOPPOLYLINERES
  2
AcDbOpPolylineRes
  3
AcGrefServices
 90
    32768
280
     0
281
     0
  0
CLASS
  1
ACMPARTLIST
  2
AcmPartList
  3
"AcmSymBB|Product Description: AutoCAD Mechanical|Company: Autodesk"
 90
    35839
280
     0
281
     1
  0
CLASS
  1
ACDBLINERES
  2
AcDbLineRes
  3
AcGrefServices
 90
    32768
280
     0
281
     0
  0
CLASS
  1
ACRFINSADJ
  2
AcRfInsAdjuster
  3
AcMeServices
 90
    32768
280
     0
281
     0
  0
CLASS
  1
AM_DRAWING_MGR
  2
AcDmDwgMgr
  3
AcMechDwgViewMgmt
 90
        0
280
     0
281
     0
  0
CLASS
  1
AM_DWG_DOCUMENT
  2
AcDmDwgDocument
  3
AcMechDwgViewMgmt
 90
        0
280
     0
281
     0
  0
CLASS
  1
AM_DWG_SHEET
  2
AcDmSheet
  3
AcMechDwgViewMgmt
 90
        0
280
     0
281
     0
  0
CLASS
  1
AM_VIEWDIMPARMAP
  2
AcDmViewDimParMap
  3
AcMechDwgViewMgmt
 90
        0
280
     0
281
     0
  0
CLASS
  1
AM_DWGMGR_NAME
  2
AcDmDwgMgrName
  3
AcMechDwgViewMgmt
 90
        0
280
     0
281
     0
  0
CLASS
  1
AMDTMENUSTATEMGR
  2
AmdtMenuStateMgr
  3
McadcomServices
 90
        0
280
     0
281
     0
  0
CLASS
  1
AMDTMCOMMENUSTATE
  2
AmdtMcomMenuState
  3
McadcomServices
 90
        0
280
     0
281
     0
  0
CLASS
  1
ASAPP
  2
AcAsAppObject
  3
AutoSurfServices
 90
        0
280
     0
281
     0
  0
CLASS
  1
IM_STATIC_MAN
  2
AcImStaticVarManager
  3
AcMeServices
 90
    32768
280
     0
281
     0
  0
CLASS
  1
ACIMDBLSTATICVAR
  2
AcImDblStaticVar
  3
AcMeServices
 90
    32768
280
     0
281
     0
  0
CLASS
  1
ACIMSTRSTATICVAR
  2
AcImStrStaticVar
  3
AcMeServices
 90
    32768
280
     0
281
     0
  0
CLASS
  1
ACIMINTSTATICVAR
  2
AcImIntStaticVar
  3
AcMeServices
 90
    32768
280
     0
281
     0
  0
CLASS
  1
ACASGREFMASTER
  2
AcAsGrefMaster
  3
AutoSurfResolverServices
 90
        0
280
     0
281
     0
  0
CLASS
  1
ACADGREFMODULE
  2
AcAdGrefModule
  3
AdGrefServices
 90
        0
280
     0
281
     0
  0
CLASS
  1
AMDTMAPISURFMOUDULE
  2
AmdtMApiSurfModule
  3
MApiSurfServices
 90
        0
280
     0
281
     0
  0
CLASS
  1
MAPIAMMOUDLE
  2
MApiAmModule
  3
MApiAmServices
 90
        0
280
     0
281
     0
  0
CLASS
  1
AMDTADMENUSTATE
  2
AmdtAdMenuState
  3
DesignerServices
 90
        0
280
     0
281
     0
  0
CLASS
  1
ADAPPL
  2
AcAdAppl
  3
DesignerServices
 90
        0
280
     0
281
     0
  0
CLASS
  1
DEPMGR
  2
AcAdDepMgr
  3
DesignerServices
 90
        0
280
     0
281
     0
  0
CLASS
  1
PARAMMGR
  2
AcAdParamMgr
  3
DesignerServices
 90
        0
280
     0
281
     0
  0
CLASS
  1
PARAMSCOPE
  2
AcAdParamScope
  3
DesignerServices
 90
        0
280
     0
281
     0
  0
CLASS
  1
NAMEDAPPL
  2
AcAdNamedAppl
  3
DesignerServices
 90
        0
280
     0
281
     0
  0
CLASS
  1
ADHNTMPLT
  2
AdHoleNoteTemplateMgr
  3
DesignerServices
 90
    32768
280
     0
281
     0
  0
CLASS
  1
AM_HNTEMPLATE_MGR_NAME
  2
AdHoleNoteTemplateMgrName
  3
DesignerServices
 90
    32768
280
     0
281
     0
  0
CLASS
  1
AMDTDMMENUSTATE
  2
AmdtDmMenuState
  3
AcMechDwgViewMgmt
 90
        0
280
     0
281
     0
  0
CLASS
  1
MAPIADMODULE
  2
MApiAdModule
  3
MApiAdServices
 90
        0
280
     0
281
     0
  0
CLASS
  1
AMDTAMMENUSTATE
  2
AmdtAmMenuState
  3
DesignerAssemblies
 90
        0
280
     0
281
     0
  0
CLASS
  1
ACAMPROJECT
  2
AcAmProject
  3
DesignerAssemblies
 90
        0
280
     0
281
     0
  0
CLASS
  1
ACAMGRCOMPDEF
  2
AcAmGrCompDef
  3
DesignerAssemblies
 90
        0
280
     0
281
     0
  0
CLASS
  1
ACCMCONTEXT
  2
AcCmContext
  3
DesignerAssemblies
 90
        0
280
     0
281
     0
  0
CLASS
  1
ACAMCOMPDEF
  2
AcAmCompDef
  3
DesignerAssemblies
 90
        0
280
     0
281
     0
  0
CLASS
  1
ACAMCOMPDEFMGR
  2
AcAmCompDefMgr
  3
DesignerAssemblies
 90
        0
280
     0
281
     0
  0
CLASS
  1
AMCONTEXTMGR
  2
AcAmContextMgr
  3
DesignerAssemblies
 90
        0
280
     0
281
     0
  0
CLASS
  1
ACAMCONTEXTMODELER
  2
AcAmContextModeler
  3
DesignerAssemblies
 90
        0
280
     0
281
     0
  0
CLASS
  1
CATALOGSTATE
  2
AcAmCatalogState
  3
DesignerAssemblies
 90
        0
280
     0
281
     0
  0
CLASS
  1
ACAMGRCOMPDEFSET
  2
AcAmGrCompDefSet
  3
DesignerAssemblies
 90
        0
280
     0
281
     0
  0
CLASS
  1
AMDTBROWSERDBTAB
  2
AmdtBrowserDbTab
  3
McadcomServices
 90
        0
280
     0
281
     0
  0
CLASS
  1
CBROWSERAPPOBJECT
  2
CBrowserAppObject
  3
McadcomServices
 90
        0
280
     0
281
     0
  0
CLASS
  1
DM_PLACEHOLDER
  2
AcDmSelsetPlaceholder
  3
AcMechDwgViewMgmt
 90
        0
280
     0
281
     0
  0
CLASS
  1
ACMPICKOBJ
  2
AcmPickEnt
  3
"AcmSymBB|Product Description: AutoCAD Mechanical|Company: Autodesk"
 90
    32768
280
     0
281
     1
  0
CLASS
  1
ACMNOTESTANDARDISO
  2
AmdtNoteStdISO
  3
"Amdt_StdImp|Product Description: AutoCAD Mechanical|Company: Autodesk"
 90
        0
280
     0
281
     0
  0
CLASS
  1
ACMNOTESTANDARDANSI
  2
AmdtNoteStdANSI
  3
"Amdt_StdImp|Product Description: AutoCAD Mechanical|Company: Autodesk"
 90
        0
280
     0
281
     0
  0
CLASS
  1
ACMTHREADLINESTANDARDISO
  2
AmdtThreadLineStdISO
  3
"Amdt_StdImp|Product Description: AutoCAD Mechanical|Company: Autodesk"
 90
        0
280
     0
281
     0
  0
CLASS
  1
ACMTHREADLINESTANDARDANSI
  2
AmdtThreadLineStdANSI
  3
"Amdt_StdImp|Product Description: AutoCAD Mechanical|Company: Autodesk"
 90
        0
280
     0
281
     0
  0
CLASS
  1
TABLESTYLE
  2
AcDbTableStyle
  3
ObjectDBX Classes
 90
     4095
280
     0
281
     0
  0
CLASS
  1
SORTENTSTABLE
  2
AcDbSortentsTable
  3
ObjectDBX Classes
 90
        0
280
     0
281
     0
  0
CLASS
  1
EXACXREFPANELOBJECT
  2
ExAcXREFPanelObject
  3
EXAC_ESW
 90
    32768
280
     0
281
     0
  0
CLASS
  1
DIMASSOC
  2
AcDbDimAssoc
  3
"AcDbDimAssoc|Product Desc:     AcDim ARX App For Dimension|Company:          Autodesk, Inc.|WEB Address:      www.autodesk.com"
 90
        0
280
     0
281
     0
  0
CLASS
  1
AMDTNOTETEMPLATEDB
  2
AmdtNoteTemplateDB
  3
AMDT_STDIMP_MODULE_NAME
 90
        0
280
     0
281
     0
  0
CLASS
  1
AMDTDETAILSYM
  2
AmdtDetailSym
  3
"AcmSymBB|Product Description: AutoCAD Mechanical|Company: Autodesk"
 90
    35839
280
     0
281
     1
  0
CLASS
  1
AMDTDETAILSYMLABEL
  2
AmdtDetailSymLabel
  3
"AcmSymBB|Product Description: AutoCAD Mechanical|Company: Autodesk"
 90
    35839
280
     0
281
     1
  0
CLASS
  1
AMDTEDGESTANDARDISO13715
  2
AmdtEdgeStdISO13715
  3
"Amdt_StdImp|Product Description: AutoCAD Mechanical|Company: Autodesk"
 90
        0
280
     0
281
     0
  0
CLASS
  1
ACAMGHOLECHARTSTDISO
  2
AcAmgHoleChartStdISO
  3
ACMSYMBB_MODULE_NAME
 90
        0
280
     0
281
     0
  0
CLASS
  1
MATERIAL
  2
AcDbMaterial
  3
ObjectDBX Classes
 90
     1153
280
     0
281
     0
  0
CLASS
  1
VISUALSTYLE
  2
AcDbVisualStyle
  3
ObjectDBX Classes
 90
     4095
280
     0
281
     0
  0
CLASS
  1
ACMTAPERSTANDARDISO
  2
AcmTaperStdISO
  3
"Amdt_StdImp|Product Description: AutoCAD Mechanical|Company: Autodesk"
 90
        0
280
     0
281
     0
  0
CLASS
  1
CAMSSTRUCTBTNSTATE
  2
StructBtnState
  3
L"DesignerAssemblies"
 90
        0
280
     0
281
     0
  0
CLASS
  1
ACMTAPERSTANDARDANSI
  2
AcmTaperStdANSI
  3
"Amdt_StdImp|Product Description: AutoCAD Mechanical|Company: Autodesk"
 90
        0
280
     0
281
     0
  0
CLASS
  1
ACAMGHOLECHARTSTDANSI
  2
AcAmgHoleChartStdANSI
  3
ACMSYMBB_MODULE_NAME
 90
        0
280
     0
281
     0
  0
ENDSEC
  0
SECTION
  2
TABLES
  0
TABLE
  2
VPORT
  5
8
330
0
100
AcDbSymbolTable
 70
     1
  0
VPORT
  5
2CFC1
330
8
100
AcDbSymbolTableRecord
100
AcDbViewportTableRecord
  2
*Active
 70
     0
 10
0.0
 20
0.0
 11
1.0
 21
1.0
 12
781.0932034209676
 22
575.6261143162223
 13
0.0
 23
0.0
 14
2.5
 24
2.5
 15
10.0
 25
10.0
 16
0.0
 26
0.0
 36
1.0
 17
0.0
 27
0.0
 37
0.0
 40
655.6139860830833
 41
2.198356807511737
 42
50.0
 43
-1370.695619172058
 44
-1370.695619172058
 50
0.0
 51
0.0
 71
    16
 72
   100
 73
     1
 74
     3
 75
     0
 76
     0
 77
     0
 78
     0
281
     0
 65
     0
110
0.0
120
0.0
130
0.0
111
1.0
121
0.0
131
0.0
112
0.0
122
1.0
132
0.0
 79
     0
146
0.0
  0
ENDTAB
  0
TABLE
  2
LTYPE
  5
5
330
0
100
AcDbSymbolTable
 70
    40
  0
LTYPE
  5
14
330
5
100
AcDbSymbolTableRecord
100
AcDbLinetypeTableRecord
  2
ByBlock
 70
     0
  3

 72
    65
 73
     0
 40
0.0
  0
LTYPE
  5
15
330
5
100
AcDbSymbolTableRecord
100
AcDbLinetypeTableRecord
  2
ByLayer
 70
     0
  3

 72
    65
 73
     0
 40
0.0
  0
LTYPE
  5
16
330
5
100
AcDbSymbolTableRecord
100
AcDbLinetypeTableRecord
  2
Continuous
 70
     0
  3
Solid line
 72
    65
 73
     0
 40
0.0
  0
LTYPE
  5
4F
330
5
100
AcDbSymbolTableRecord
100
AcDbLinetypeTableRecord
  2
AM_ISO02W050
 70
     0
  3
__ __ __ __ __ __ __ __ __ __ __ __ __ __ __
 72
    65
 73
     2
 40
7.5
 49
6.0
 74
     0
 49
-1.5
 74
     0
  0
LTYPE
  5
52
330
5
100
AcDbSymbolTableRecord
100
AcDbLinetypeTableRecord
  2
Amconstr
 70
     0
  3
_______________________
 72
    65
 73
     2
 40
9999.0
 49
9999.0
 74
     0
 49
0.0
 74
     0
  0
LTYPE
  5
64
330
5
100
AcDbSymbolTableRecord
100
AcDbLinetypeTableRecord
  2
ACISOWELD
 70
     0
  3
_ _ _ _ _
 72
    65
 73
     2
 40
2.0
 49
2.0
 74
     0
 49
-1.0
 74
     0
  0
LTYPE
  5
65
330
5
100
AcDbSymbolTableRecord
100
AcDbLinetypeTableRecord
  2
ACISOTGB
 70
     0
  3
__ . . __ . .
 72
    65
 73
     6
 40
9.0
 49
4.0
 74
     0
 49
-1.0
 74
     0
 49
1.0
 74
     0
 49
-1.0
 74
     0
 49
1.0
 74
     0
 49
-1.0
 74
     0
  0
LTYPE
  5
66
330
5
100
AcDbSymbolTableRecord
100
AcDbLinetypeTableRecord
  2
ACISOTGL
 70
     0
  3
_ _ _ _ _
 72
    65
 73
     2
 40
3.0
 49
2.0
 74
     0
 49
-1.0
 74
     0
  0
LTYPE
  5
69
330
5
100
AcDbSymbolTableRecord
100
AcDbLinetypeTableRecord
  2
CENTER
 70
     0
  3
__ . __
 72
    65
 73
     4
 40
7.0
 49
4.0
 74
     0
 49
-1.0
 74
     0
 49
1.0
 74
     0
 49
-1.0
 74
     0
  0
LTYPE
  5
A6E
330
5
100
AcDbSymbolTableRecord
100
AcDbLinetypeTableRecord
  2
PHANTOM2
 70
     0
  3
Phantom (.5x) ___ _ _ ___ _ _ ___ _ _ ___ _ _
 72
    65
 73
     6
 40
31.75
 49
15.875
 74
     0
 49
-3.174999999999998
 74
     0
 49
3.174999999999998
 74
     0
 49
-3.174999999999998
 74
     0
 49
3.174999999999998
 74
     0
 49
-3.174999999999998
 74
     0
  0
LTYPE
  5
4DED
330
5
100
AcDbSymbolTableRecord
100
AcDbLinetypeTableRecord
  2
中線
 70
     0
  3
___________________
 72
    65
 73
     2
 40
2.0
 49
1.0
 74
     0
 49
1.0
 74
     0
  0
LTYPE
  5
4DF6
330
5
100
AcDbSymbolTableRecord
100
AcDbLinetypeTableRecord
  2
細線
 70
     0
  3
___________________
 72
    65
 73
     2
 40
2.0
 49
1.0
 74
     0
 49
1.0
 74
     0
  0
LTYPE
  5
4DF7
330
5
100
AcDbSymbolTableRecord
100
AcDbLinetypeTableRecord
  2
太線
 70
     0
  3
___________________
 72
    65
 73
     2
 40
2.0
 49
1.0
 74
     0
 49
1.0
 74
     0
  0
LTYPE
  5
4EA7
330
5
100
AcDbSymbolTableRecord
100
AcDbLinetypeTableRecord
  2
文字
 70
     0
  3
_________________
 72
    65
 73
     2
 40
2.0
 49
1.0
 74
     0
 49
1.0
 74
     0
  0
LTYPE
  5
4EA9
330
5
100
AcDbSymbolTableRecord
100
AcDbLinetypeTableRecord
  2
寸法線
 70
     0
  3
________________
 72
    65
 73
     2
 40
2.0
 49
1.0
 74
     0
 49
1.0
 74
     0
  0
LTYPE
  5
4F12
330
5
100
AcDbSymbolTableRecord
100
AcDbLinetypeTableRecord
  2
ハッチング
 70
     0
  3
_________________
 72
    65
 73
     2
 40
2.0
 49
1.0
 74
     0
 49
1.0
 74
     0
  0
LTYPE
  5
5180
330
5
100
AcDbSymbolTableRecord
100
AcDbLinetypeTableRecord
  2
陰線1
 70
     0
  3
__ __ __ __
 72
    65
 73
     2
 40
4.0
 49
2.2
 74
     0
 49
-1.8
 74
     0
  0
LTYPE
  5
5182
330
5
100
AcDbSymbolTableRecord
100
AcDbLinetypeTableRecord
  2
切断線
 70
     0
  3
/\/-/\/-/\/-/\/-/\/-/\/
 72
    65
 73
     2
 40
11.0001
 49
0.0001
 74
     4
 75
   135
340
56
 46
0.04
 50
0.0
 44
0.0
 45
0.0
 49
-11.0
 74
     0
  0
LTYPE
  5
5183
330
5
100
AcDbSymbolTableRecord
100
AcDbLinetypeTableRecord
  2
想像線1
 70
     0
  3
__ __ __ _____ __ __ ____
 72
    65
 73
     6
 40
14.5
 49
6.0
 74
     0
 49
-1.5
 74
     0
 49
2.0
 74
     0
 49
-1.5
 74
     0
 49
2.0
 74
     0
 49
-1.5
 74
     0
  0
LTYPE
  5
5185
330
5
100
AcDbSymbolTableRecord
100
AcDbLinetypeTableRecord
  2
中心線1
 70
     0
  3
___ _ ___ _ ___
 72
    65
 73
     4
 40
18.0
 49
12.0
 74
     0
 49
-2.0
 74
     0
 49
2.0
 74
     0
 49
-2.0
 74
     0
  0
LTYPE
  5
5188
330
5
100
AcDbSymbolTableRecord
100
AcDbLinetypeTableRecord
  2
補助線
 70
     0
  3
______________
 72
    65
 73
     2
 40
2.0
 49
1.0
 74
     0
 49
1.0
 74
     0
  0
LTYPE
  5
6427
330
5
100
AcDbSymbolTableRecord
100
AcDbLinetypeTableRecord
  2
HIDDEN
 70
     0
  3
Hidden __ __ __ __ __ __ __ __ __ __ __ __ __ _
 72
    65
 73
     2
 40
0.375
 49
0.25
 74
     0
 49
-0.125
 74
     0
  0
LTYPE
  5
AC81
330
5
100
AcDbSymbolTableRecord
100
AcDbLinetypeTableRecord
  2
破断線
 70
     0
  3
/\/-/\/-/\/-/\/-/\/-/\/
 72
    65
 73
     2
 40
0.4401
 49
0.0001
 74
     4
 75
   136
340
AC80
 46
0.0016
 50
0.0
 44
0.0
 45
0.0
 49
-0.4400000000000003
 74
     0
  0
LTYPE
  5
AC9E
330
5
100
AcDbSymbolTableRecord
100
AcDbLinetypeTableRecord
  2
Amzigzag
 70
     0
  3
/\/-/\/-/\/-/\/-/\/-/\/
 72
    65
 73
     2
 40
11.0001
 49
0.0001
 74
     4
 75
   135
340
56
 46
0.04
 50
0.0
 44
0.0
 45
0.0
 49
-11.0
 74
     0
  0
LTYPE
  5
AF0F
330
5
100
AcDbSymbolTableRecord
100
AcDbLinetypeTableRecord
  2
genzigzag
 70
     0
  3
/\/-/\/-/\/-/\/-/\/-/\/
 72
    65
 73
     2
 40
12.0001
 49
0.0001
 74
     4
 75
   135
340
AC80
 46
2.0
 50
0.0
 44
0.0
 45
0.0
 49
-12.0
 74
     0
  0
LTYPE
  5
AF95
330
5
100
AcDbSymbolTableRecord
100
AcDbLinetypeTableRecord
  2
AM_ISO08W050
 70
     0
  3
____ . ____ . ____ . ____ . ____ . ____ . ____
 72
    65
 73
     4
 40
18.0
 49
12.0
 74
     0
 49
-1.5
 74
     0
 49
3.0
 74
     0
 49
-1.5
 74
     0
  0
LTYPE
  5
AF96
330
5
100
AcDbSymbolTableRecord
100
AcDbLinetypeTableRecord
  2
AM_ISO09W050
 70
     0
  3
_____ . . _____ . . _____ . . ____ .. ____
 72
    65
 73
     6
 40
22.5
 49
12.0
 74
     0
 49
-1.5
 74
     0
 49
3.0
 74
     0
 49
-1.5
 74
     0
 49
3.0
 74
     0
 49
-1.5
 74
     0
  0
LTYPE
  5
AF97
330
5
100
AcDbSymbolTableRecord
100
AcDbLinetypeTableRecord
  2
AM_ISO08W050x2
 70
     0
  3
__ . __ . __ . __ . __ . __
 72
    65
 73
     4
 40
9.0
 49
6.0
 74
     0
 49
-0.75
 74
     0
 49
1.5
 74
     0
 49
-0.75
 74
     0
  0
LTYPE
  5
AF98
330
5
100
AcDbSymbolTableRecord
100
AcDbLinetypeTableRecord
  2
AM_ISO02W050x2
 70
     0
  3
 _ _ _ _ _ _ _ _ _ _ _ _
 72
    65
 73
     2
 40
3.75
 49
3.0
 74
     0
 49
-0.75
 74
     0
  0
LTYPE
  5
B168
330
5
100
AcDbSymbolTableRecord
100
AcDbLinetypeTableRecord
  2
CHAIN
 70
     0
  3
Chain ____ _ ____ _ ____ _ ____ _ ____ _ ____
 72
    65
 73
     4
 40
0.3543
 49
0.2362
 74
     0
 49
-0.0295
 74
     0
 49
0.0591
 74
     0
 49
-0.0295
 74
     0
  0
LTYPE
  5
B169
330
5
100
AcDbSymbolTableRecord
100
AcDbLinetypeTableRecord
  2
DOUBLE_DASH_CHAIN
 70
     0
  3
Double Dash Chain ___ _ _ ___ _ _ ___ _ _ ___ _
 72
    65
 73
     6
 40
1.240299999999997
 49
0.6614
 74
     0
 49
-0.0827
 74
     0
 49
0.1654
 74
     0
 49
-0.0827
 74
     0
 49
0.1654
 74
     0
 49
-0.0827
 74
     0
  0
LTYPE
  5
C97B
330
5
100
AcDbSymbolTableRecord
100
AcDbLinetypeTableRecord
  2
ACANSTGB
 70
     0
  3
__ . . __ . .
 72
    65
 73
     6
 40
0.35433070866
 49
0.15748031496
 74
     0
 49
-0.03937007874
 74
     0
 49
0.03937007874
 74
     0
 49
-0.03937007874
 74
     0
 49
0.03937007874
 74
     0
 49
-0.03937007874
 74
     0
  0
LTYPE
  5
C97C
330
5
100
AcDbSymbolTableRecord
100
AcDbLinetypeTableRecord
  2
ACANSTGL
 70
     0
  3
_ _ _ _ _
 72
    65
 73
     2
 40
0.11811023622
 49
0.07874015748
 74
     0
 49
-0.03937007874
 74
     0
  0
LTYPE
  5
C97D
330
5
100
AcDbSymbolTableRecord
100
AcDbLinetypeTableRecord
  2
陰線2
 70
     0
  3
_ _ _ _
 72
    65
 73
     2
 40
1.199999999999999
 49
0.7
 74
     0
 49
-0.5
 74
     0
  0
LTYPE
  5
C97E
330
5
100
AcDbSymbolTableRecord
100
AcDbLinetypeTableRecord
  2
想像線2
 70
     0
  3
__ _ _ __ _ _ __
 72
    65
 73
     6
 40
6.9
 49
2.5
 74
     0
 49
-0.8
 74
     0
 49
1.0
 74
     0
 49
-0.8
 74
     0
 49
1.0
 74
     0
 49
-0.8
 74
     0
  0
LTYPE
  5
C97F
330
5
100
AcDbSymbolTableRecord
100
AcDbLinetypeTableRecord
  2
中心線2
 70
     0
  3
 -+-
 72
    65
 73
     4
 40
9.5
 49
6.0
 74
     0
 49
-1.0
 74
     0
 49
1.5
 74
     0
 49
-1.0
 74
     0
  0
LTYPE
  5
C980
330
5
100
AcDbSymbolTableRecord
100
AcDbLinetypeTableRecord
  2
中心線3
 70
     0
  3
 +
 72
    65
 73
     4
 40
3.799999999999998
 49
2.0
 74
     0
 49
-0.6
 74
     0
 49
0.6
 74
     0
 49
-0.6
 74
     0
  0
LTYPE
  5
C981
330
5
100
AcDbSymbolTableRecord
100
AcDbLinetypeTableRecord
  2
CENTER2
 70
     0
  3
Center (.5x) ___ _ ___ _ ___ _ ___ _ ___ _ ___
 72
    65
 73
     4
 40
1.125
 49
0.75
 74
     0
 49
-0.125
 74
     0
 49
0.125
 74
     0
 49
-0.125
 74
     0
  0
LTYPE
  5
C982
330
5
100
AcDbSymbolTableRecord
100
AcDbLinetypeTableRecord
  2
HIDDEN2
 70
     0
  3
Hidden (.5x) _ _ _ _ _ _ _ _ _ _ _ _ _ _ _ _ _
 72
    65
 73
     2
 40
0.1875
 49
0.125
 74
     0
 49
-0.0625
 74
     0
  0
LTYPE
  5
C983
330
5
100
AcDbSymbolTableRecord
100
AcDbLinetypeTableRecord
  2
Amzigzag2
 70
     0
  3
/\/-/\/-/\/-/\/-/\/-/\/
 72
    65
 73
     2
 40
0.4401
 49
0.0001
 74
     4
 75
   135
340
56
 46
0.0016
 50
0.0
 44
0.0
 45
0.0
 49
-0.4400000000000003
 74
     0
  0
LTYPE
  5
2D2C5
330
5
100
AcDbSymbolTableRecord
100
AcDbLinetypeTableRecord
  2
DASHED
 70
     0
  3
__ __ __ __ __ __ __ __ __ __ __ __ __ __ __
 72
    65
 73
     2
 40
3.5
 49
2.0
 74
     0
 49
-1.5
 74
     0
  0
LTYPE
  5
2D2C6
330
5
100
AcDbSymbolTableRecord
100
AcDbLinetypeTableRecord
  2
PHANTOM
 70
     0
  3
_____ _ _ _____ _ _ _____ _ _ _____ _ _ ____  
 72
    65
 73
     6
 40
15.5
 49
8.0
 74
     0
 49
-1.5
 74
     0
 49
1.5
 74
     0
 49
-1.5
 74
     0
 49
1.5
 74
     0
 49
-1.5
 74
     0
  0
ENDTAB
  0
TABLE
  2
LAYER
  5
2
102
{ACAD_XDICTIONARY
360
3F95
102
}
330
0
100
AcDbSymbolTable
 70
   150
  0
LAYER
  5
10
330
2
100
AcDbSymbolTableRecord
100
AcDbLayerTableRecord
  2
0
 70
     0
 62
     7
  6
Continuous
370
    -3
390
F
  0
LAYER
  5
6D1
330
2
100
AcDbSymbolTableRecord
100
AcDbLayerTableRecord
  2
Defpoints
 70
     0
 62
     7
  6
Continuous
290
     0
370
    -3
390
F
  0
LAYER
  5
5F85
330
2
100
AcDbSymbolTableRecord
100
AcDbLayerTableRecord
  2
AM_0
 70
     0
 62
     7
  6
中線
370
    30
390
F
1001
AcAecLayerStandard
1000

1000

  0
LAYER
  5
AC9F
330
2
100
AcDbSymbolTableRecord
100
AcDbLayerTableRecord
  2
size
 70
     0
 62
     5
  6
Continuous
290
     0
370
    25
390
F
  0
LAYER
  5
ACA0
330
2
100
AcDbSymbolTableRecord
100
AcDbLayerTableRecord
  2
waku
 70
     0
 62
     7
  6
Continuous
370
    35
390
F
  0
LAYER
  5
ACA1
330
2
100
AcDbSymbolTableRecord
100
AcDbLayerTableRecord
  2
AM_6
 70
     0
 62
     2
  6
文字
370
    15
390
F
1001
AcAecLayerStandard
1000

1000

  0
LAYER
  5
ACC8
330
2
100
AcDbSymbolTableRecord
100
AcDbLayerTableRecord
  2
hyomoji
 70
     0
 62
     2
  6
Continuous
370
    15
390
F
  0
LAYER
  5
ACC9
330
2
100
AcDbSymbolTableRecord
100
AcDbLayerTableRecord
  2
hyosen1
 70
     0
 62
     1
  6
Continuous
370
    25
390
F
  0
LAYER
  5
ACCA
330
2
100
AcDbSymbolTableRecord
100
AcDbLayerTableRecord
  2
hyosen2
 70
     0
 62
     1
  6
Continuous
370
    15
390
F
  0
LAYER
  5
AD60
330
2
100
AcDbSymbolTableRecord
100
AcDbLayerTableRecord
  2
AM_1
 70
     0
 62
    30
  6
太線
370
    25
390
F
1001
AcAecLayerStandard
1000

1000

  0
LAYER
  5
AD64
330
2
100
AcDbSymbolTableRecord
100
AcDbLayerTableRecord
  2
AM_2
 70
     0
 62
     1
  6
細線
370
    15
390
F
1001
AcAecLayerStandard
1000

1000

  0
LAYER
  5
AD67
330
2
100
AcDbSymbolTableRecord
100
AcDbLayerTableRecord
  2
AM_3
 70
     0
 62
     6
  6
陰線1
370
    15
390
F
1001
AcAecLayerStandard
1000

1000

  0
LAYER
  5
AD68
330
2
100
AcDbSymbolTableRecord
100
AcDbLayerTableRecord
  2
AM_5
 70
     0
 62
     3
  6
寸法線
370
    15
390
F
1001
AcAecLayerStandard
1000

1000

  0
LAYER
  5
AD69
330
2
100
AcDbSymbolTableRecord
100
AcDbLayerTableRecord
  2
AM_7
 70
     0
 62
     4
  6
中心線1
370
    15
390
F
1001
AcAecLayerStandard
1000

1000

  0
LAYER
  5
AD6A
330
2
100
AcDbSymbolTableRecord
100
AcDbLayerTableRecord
  2
AM_8
 70
     0
 62
     1
  6
ハッチング
370
    15
390
F
1001
AcAecLayerStandard
1000

1000

  0
LAYER
  5
AD6E
330
2
100
AcDbSymbolTableRecord
100
AcDbLayerTableRecord
  2
AM_10
 70
     0
 62
     7
  6
切断線
370
    25
390
F
1001
AcAecLayerStandard
1000

1000

  0
LAYER
  5
AD6F
330
2
100
AcDbSymbolTableRecord
100
AcDbLayerTableRecord
  2
AM_11
 70
     0
 62
     2
  6
想像線1
370
    15
390
F
1001
AcAecLayerStandard
1000

1000

  0
LAYER
  5
B16A
330
2
100
AcDbSymbolTableRecord
100
AcDbLayerTableRecord
  2
Section Line (ISO)
 70
     0
 62
     7
  6
CHAIN
370
    70
390
F
  0
LAYER
  5
B16B
330
2
100
AcDbSymbolTableRecord
100
AcDbLayerTableRecord
  2
ビス-AM_0
 70
     0
 62
     7
  6
中線
370
    25
390
F
1001
AcAecLayerStandard
1000

1000

  0
LAYER
  5
B16C
330
2
100
AcDbSymbolTableRecord
100
AcDbLayerTableRecord
  2
ビス-AM_2
 70
     0
 62
     1
  6
細線
370
    15
390
F
1001
AcAecLayerStandard
1000

1000

  0
LAYER
  5
BFC7
330
2
100
AcDbSymbolTableRecord
100
AcDbLayerTableRecord
  2
AM_12
 70
     0
 62
     7
  6
Continuous
290
     0
370
    15
390
F
1001
AcAecLayerStandard
1000

1000

  0
LAYER
  5
BFC8
330
2
100
AcDbSymbolTableRecord
100
AcDbLayerTableRecord
  2
AM_PAREF
 70
     0
 62
     4
  6
Continuous
290
     0
370
    15
390
F
1001
AcAecLayerStandard
1000

1000

  0
LAYER
  5
C984
330
2
100
AcDbSymbolTableRecord
100
AcDbLayerTableRecord
  2
1
 70
     0
 62
     7
  6
Continuous
370
    -3
390
F
  0
LAYER
  5
C985
330
2
100
AcDbSymbolTableRecord
100
AcDbLayerTableRecord
  2
AM_BOR
 70
     0
 62
     7
  6
Continuous
370
    25
390
F
  0
LAYER
  5
C986
330
2
100
AcDbSymbolTableRecord
100
AcDbLayerTableRecord
  2
AM_4
 70
     0
 62
     3
  6
補助線
370
    15
390
F
  0
LAYER
  5
C987
330
2
100
AcDbSymbolTableRecord
100
AcDbLayerTableRecord
  2
AM_FEA-AM_1
 70
     0
 62
    30
  6
太線
370
    25
390
F
  0
LAYER
  5
C988
330
2
100
AcDbSymbolTableRecord
100
AcDbLayerTableRecord
  2
AM_FEA-AM_6
 70
     0
 62
     2
  6
文字
370
    15
390
F
  0
LAYER
  5
C989
330
2
100
AcDbSymbolTableRecord
100
AcDbLayerTableRecord
  2
AM_CL
 70
     0
 62
     1
  6
Amconstr
370
    15
390
F
  0
LAYER
  5
C98A
330
2
100
AcDbSymbolTableRecord
100
AcDbLayerTableRecord
  2
busen1
 70
     0
 62
    30
  6
Continuous
370
    40
390
F
  0
LAYER
  5
C98B
330
2
100
AcDbSymbolTableRecord
100
AcDbLayerTableRecord
  2
busen2
 70
     0
 62
     2
  6
Continuous
370
    20
390
F
  0
LAYER
  5
C98C
330
2
100
AcDbSymbolTableRecord
100
AcDbLayerTableRecord
  2
PV0001_1
 70
     0
 62
     7
  6
Continuous
370
    -3
390
F
  0
LAYER
  5
D2C4
330
2
100
AcDbSymbolTableRecord
100
AcDbLayerTableRecord
  2
表示板-AM_0
 70
     0
 62
     7
  6
中線
370
    25
390
F
1001
AcAecLayerStandard
1000

1000

  0
LAYER
  5
D4A1
330
2
100
AcDbSymbolTableRecord
100
AcDbLayerTableRecord
  2
ラッチ座-AM_0
 70
     0
 62
     7
  6
中線
370
    25
390
F
1001
AcAecLayerStandard
1000

1000

  0
LAYER
  5
D4A2
330
2
100
AcDbSymbolTableRecord
100
AcDbLayerTableRecord
  2
ラッチ座-AM_3
 70
     0
 62
     6
  6
陰線1
370
    15
390
F
1001
AcAecLayerStandard
1000

1000

  0
LAYER
  5
D5C2
330
2
100
AcDbSymbolTableRecord
100
AcDbLayerTableRecord
  2
表示カバー-AM_0
 70
     0
 62
     7
  6
中線
370
    25
390
F
1001
AcAecLayerStandard
1000

1000

  0
LAYER
  5
D5C3
330
2
100
AcDbSymbolTableRecord
100
AcDbLayerTableRecord
  2
表示カバー-AM_3
 70
     0
 62
     6
  6
陰線1
370
    15
390
F
1001
AcAecLayerStandard
1000

1000

  0
LAYER
  5
D5C4
330
2
100
AcDbSymbolTableRecord
100
AcDbLayerTableRecord
  2
表示カバー-AM_5
 70
     0
 62
     3
  6
寸法線
370
    15
390
F
1001
AcAecLayerStandard
1000

1000

  0
LAYER
  5
D5C5
330
2
100
AcDbSymbolTableRecord
100
AcDbLayerTableRecord
  2
表示カバー-AM_7
 70
     0
 62
     4
  6
中心線1
370
    15
390
F
1001
AcAecLayerStandard
1000

1000

  0
LAYER
  5
D849
330
2
100
AcDbSymbolTableRecord
100
AcDbLayerTableRecord
  2
Hatch (ISO)
 70
     0
 62
     7
  6
Continuous
370
    18
390
F
  0
LAYER
  5
D84A
330
2
100
AcDbSymbolTableRecord
100
AcDbLayerTableRecord
  2
Symbol (ISO)
 70
     0
 62
     7
  6
Continuous
370
    25
390
F
  0
LAYER
  5
D84B
330
2
100
AcDbSymbolTableRecord
100
AcDbLayerTableRecord
  2
Visible (ISO)
 70
     0
 62
     7
  6
Continuous
370
    50
390
F
  0
LAYER
  5
E2E6
330
2
100
AcDbSymbolTableRecord
100
AcDbLayerTableRecord
  2
ストッパー-AM_0
 70
     0
 62
     7
  6
中線
370
    25
390
F
1001
AcAecLayerStandard
1000

1000

  0
LAYER
  5
E2E7
330
2
100
AcDbSymbolTableRecord
100
AcDbLayerTableRecord
  2
ストッパー-AM_6
 70
     0
 62
     2
  6
文字
370
    15
390
F
1001
AcAecLayerStandard
1000

1000

  0
LAYER
  5
E2F2
330
2
100
AcDbSymbolTableRecord
100
AcDbLayerTableRecord
  2
ストッパー-AM_5
 70
     0
 62
     3
  6
寸法線
370
    15
390
F
1001
AcAecLayerStandard
1000

1000

  0
LAYER
  5
E527
330
2
100
AcDbSymbolTableRecord
100
AcDbLayerTableRecord
  2
ストッパー-AM_3
 70
     0
 62
     6
  6
陰線1
370
    15
390
F
1001
AcAecLayerStandard
1000

1000

  0
LAYER
  5
E5B3
330
2
100
AcDbSymbolTableRecord
100
AcDbLayerTableRecord
  2
ストッパー-AM_7
 70
     0
 62
     4
  6
中心線1
370
    15
390
F
1001
AcAecLayerStandard
1000

1000

  0
LAYER
  5
E61B
330
2
100
AcDbSymbolTableRecord
100
AcDbLayerTableRecord
  2
表示カバー-AM_11
 70
     0
 62
     2
  6
想像線1
370
    15
390
F
1001
AcAecLayerStandard
1000

1000

  0
LAYER
  5
E782
330
2
100
AcDbSymbolTableRecord
100
AcDbLayerTableRecord
  2
ラッチ座-AM_7
 70
     0
 62
     4
  6
中心線1
370
    15
390
F
1001
AcAecLayerStandard
1000

1000

  0
LAYER
  5
E783
330
2
100
AcDbSymbolTableRecord
100
AcDbLayerTableRecord
  2
ラッチ座-AM_5
 70
     0
 62
     3
  6
寸法線
370
    15
390
F
1001
AcAecLayerStandard
1000

1000

  0
LAYER
  5
E784
330
2
100
AcDbSymbolTableRecord
100
AcDbLayerTableRecord
  2
ラッチ座-AM_4
 70
     0
 62
     3
  6
補助線
370
    15
390
F
1001
AcAecLayerStandard
1000

1000

  0
LAYER
  5
EC35
330
2
100
AcDbSymbolTableRecord
100
AcDbLayerTableRecord
  2
表示カバー-AM_2
 70
     0
 62
     1
  6
細線
370
    15
390
F
1001
AcAecLayerStandard
1000

1000

  0
LAYER
  5
EFB5
330
2
100
AcDbSymbolTableRecord
100
AcDbLayerTableRecord
  2
表示座-AM_0
 70
     0
 62
     7
  6
中線
370
    25
390
F
1001
AcAecLayerStandard
1000

1000

  0
LAYER
  5
EFB6
330
2
100
AcDbSymbolTableRecord
100
AcDbLayerTableRecord
  2
表示座-AM_8
 70
     0
 62
     1
  6
ハッチング
370
    15
390
F
1001
AcAecLayerStandard
1000

1000

  0
LAYER
  5
EFB7
330
2
100
AcDbSymbolTableRecord
100
AcDbLayerTableRecord
  2
表示座-AM_7
 70
     0
 62
     4
  6
中心線1
370
    15
390
F
1001
AcAecLayerStandard
1000

1000

  0
LAYER
  5
F048
330
2
100
AcDbSymbolTableRecord
100
AcDbLayerTableRecord
  2
台座-AM_0
 70
     0
 62
     7
  6
中線
370
    25
390
F
1001
AcAecLayerStandard
1000

1000

  0
LAYER
  5
F049
330
2
100
AcDbSymbolTableRecord
100
AcDbLayerTableRecord
  2
台座-AM_8
 70
     0
 62
     1
  6
ハッチング
370
    15
390
F
1001
AcAecLayerStandard
1000

1000

  0
LAYER
  5
F04A
330
2
100
AcDbSymbolTableRecord
100
AcDbLayerTableRecord
  2
台座-AM_2
 70
     0
 62
     1
  6
細線
370
    15
390
F
1001
AcAecLayerStandard
1000

1000

  0
LAYER
  5
F04B
330
2
100
AcDbSymbolTableRecord
100
AcDbLayerTableRecord
  2
台座-AM_7
 70
     0
 62
     4
  6
中心線1
370
    15
390
F
1001
AcAecLayerStandard
1000

1000

  0
LAYER
  5
F04C
330
2
100
AcDbSymbolTableRecord
100
AcDbLayerTableRecord
  2
台座-AM_5
 70
     0
 62
     3
  6
寸法線
370
    15
390
F
1001
AcAecLayerStandard
1000

1000

  0
LAYER
  5
F24C
330
2
100
AcDbSymbolTableRecord
100
AcDbLayerTableRecord
  2
ラッチ座-AM_8
 70
     0
 62
     1
  6
ハッチング
370
    15
390
F
1001
AcAecLayerStandard
1000

1000

  0
LAYER
  5
F508
330
2
100
AcDbSymbolTableRecord
100
AcDbLayerTableRecord
  2
台座-AM_4
 70
     0
 62
     3
  6
補助線
370
    15
390
F
1001
AcAecLayerStandard
1000

1000

  0
LAYER
  5
F522
330
2
100
AcDbSymbolTableRecord
100
AcDbLayerTableRecord
  2
表示カバー-AM_4
 70
     0
 62
     3
  6
補助線
370
    15
390
F
1001
AcAecLayerStandard
1000

1000

  0
LAYER
  5
F524
330
2
100
AcDbSymbolTableRecord
100
AcDbLayerTableRecord
  2
表示カバー-AM_8
 70
     0
 62
     1
  6
ハッチング
370
    15
390
F
1001
AcAecLayerStandard
1000

1000

  0
LAYER
  5
F589
330
2
100
AcDbSymbolTableRecord
100
AcDbLayerTableRecord
  2
ギア-AM_0
 70
     0
 62
     7
  6
中線
370
    25
390
F
1001
AcAecLayerStandard
1000

1000

  0
LAYER
  5
F58A
330
2
100
AcDbSymbolTableRecord
100
AcDbLayerTableRecord
  2
ギア-AM_7
 70
     0
 62
     4
  6
中心線1
370
    15
390
F
1001
AcAecLayerStandard
1000

1000

  0
LAYER
  5
F58B
330
2
100
AcDbSymbolTableRecord
100
AcDbLayerTableRecord
  2
ギア-AM_8
 70
     0
 62
     1
  6
ハッチング
370
    15
390
F
1001
AcAecLayerStandard
1000

1000

  0
LAYER
  5
F609
330
2
100
AcDbSymbolTableRecord
100
AcDbLayerTableRecord
  2
補強板-AM_0
 70
     0
 62
     7
  6
中線
370
    25
390
F
1001
AcAecLayerStandard
1000

1000

  0
LAYER
  5
F60A
330
2
100
AcDbSymbolTableRecord
100
AcDbLayerTableRecord
  2
補強板-AM_7
 70
     0
 62
     4
  6
中心線1
370
    15
390
F
1001
AcAecLayerStandard
1000

1000

  0
LAYER
  5
F60B
330
2
100
AcDbSymbolTableRecord
100
AcDbLayerTableRecord
  2
補強板-AM_5
 70
     0
 62
     3
  6
寸法線
370
    15
390
F
1001
AcAecLayerStandard
1000

1000

  0
LAYER
  5
F60C
330
2
100
AcDbSymbolTableRecord
100
AcDbLayerTableRecord
  2
補強板-AM_8
 70
     0
 62
     1
  6
ハッチング
370
    15
390
F
1001
AcAecLayerStandard
1000

1000

  0
LAYER
  5
F7D1
330
2
100
AcDbSymbolTableRecord
100
AcDbLayerTableRecord
  2
ギア-AM_4
 70
     0
 62
     3
  6
補助線
370
    15
390
F
1001
AcAecLayerStandard
1000

1000

  0
LAYER
  5
F7FF
330
2
100
AcDbSymbolTableRecord
100
AcDbLayerTableRecord
  2
表示板-AM_8
 70
     0
 62
     1
  6
ハッチング
370
    15
390
F
1001
AcAecLayerStandard
1000

1000

  0
LAYER
  5
F800
330
2
100
AcDbSymbolTableRecord
100
AcDbLayerTableRecord
  2
表示板-AM_7
 70
     0
 62
     4
  6
中心線1
370
    15
390
F
1001
AcAecLayerStandard
1000

1000

  0
LAYER
  5
F869
330
2
100
AcDbSymbolTableRecord
100
AcDbLayerTableRecord
  2
表示板-AM_5
 70
     0
 62
     3
  6
寸法線
370
    15
390
F
1001
AcAecLayerStandard
1000

1000

  0
LAYER
  5
101DA
330
2
100
AcDbSymbolTableRecord
100
AcDbLayerTableRecord
  2
表示板-AM_4
 70
     0
 62
     3
  6
補助線
370
    15
390
F
1001
AcAecLayerStandard
1000

1000

  0
LAYER
  5
1030F
330
2
100
AcDbSymbolTableRecord
100
AcDbLayerTableRecord
  2
ビス-AM_5
 70
     0
 62
     3
  6
寸法線
370
    15
390
F
1001
AcAecLayerStandard
1000

1000

  0
LAYER
  5
10AD2
330
2
100
AcDbSymbolTableRecord
100
AcDbLayerTableRecord
  2
ビス-AM_7
 70
     0
 62
     4
  6
中心線1
370
    15
390
F
1001
AcAecLayerStandard
1000

1000

  0
LAYER
  5
10AD3
330
2
100
AcDbSymbolTableRecord
100
AcDbLayerTableRecord
  2
ビス-AM_6
 70
     0
 62
     2
  6
文字
370
    15
390
F
1001
AcAecLayerStandard
1000

1000

  0
LAYER
  5
10C52
330
2
100
AcDbSymbolTableRecord
100
AcDbLayerTableRecord
  2
表示座-AM_3
 70
     0
 62
     6
  6
陰線1
370
    15
390
F
1001
AcAecLayerStandard
1000

1000

  0
LAYER
  5
10C53
330
2
100
AcDbSymbolTableRecord
100
AcDbLayerTableRecord
  2
表示座-AM_5
 70
     0
 62
     3
  6
寸法線
370
    15
390
F
1001
AcAecLayerStandard
1000

1000

  0
LAYER
  5
10D06
330
2
100
AcDbSymbolTableRecord
100
AcDbLayerTableRecord
  2
台座-AM_3
 70
     0
 62
     6
  6
陰線1
370
    15
390
F
1001
AcAecLayerStandard
1000

1000

  0
LAYER
  5
1100A
330
2
100
AcDbSymbolTableRecord
100
AcDbLayerTableRecord
  2
補強板-AM_3
 70
     0
 62
     6
  6
陰線1
370
    15
390
F
1001
AcAecLayerStandard
1000

1000

  0
LAYER
  5
1118C
330
2
100
AcDbSymbolTableRecord
100
AcDbLayerTableRecord
  2
ギア-AM_5
 70
     0
 62
     3
  6
寸法線
370
    15
390
F
1001
AcAecLayerStandard
1000

1000

  0
LAYER
  5
1118D
330
2
100
AcDbSymbolTableRecord
100
AcDbLayerTableRecord
  2
ギア-AM_3
 70
     0
 62
     6
  6
陰線1
370
    15
390
F
1001
AcAecLayerStandard
1000

1000

  0
LAYER
  5
13979
330
2
100
AcDbSymbolTableRecord
100
AcDbLayerTableRecord
  2
AM_0N
 70
     0
 62
     7
  6
中線
370
    25
390
F
1001
AcAecLayerStandard
1000

1000

  0
LAYER
  5
1397A
330
2
100
AcDbSymbolTableRecord
100
AcDbLayerTableRecord
  2
AM_8N
 70
     0
 62
     1
  6
ハッチング
370
    15
390
F
1001
AcAecLayerStandard
1000

1000

  0
LAYER
  5
1641A
330
2
100
AcDbSymbolTableRecord
100
AcDbLayerTableRecord
  2
ストップピン-AM_0
 70
     0
 62
     7
  6
中線
370
    25
390
F
1001
AcAecLayerStandard
1000

1000

  0
LAYER
  5
1641B
330
2
100
AcDbSymbolTableRecord
100
AcDbLayerTableRecord
  2
ストップピン２-AM_0
 70
     0
 62
     7
  6
中線
370
    25
390
F
1001
AcAecLayerStandard
1000

1000

  0
LAYER
  5
1641C
330
2
100
AcDbSymbolTableRecord
100
AcDbLayerTableRecord
  2
ストップピン２-AM_3
 70
     0
 62
     6
  6
陰線1
370
    15
390
F
1001
AcAecLayerStandard
1000

1000

  0
LAYER
  5
1754B
330
2
100
AcDbSymbolTableRecord
100
AcDbLayerTableRecord
  2
表示座-AM_12
 70
     0
 62
     7
  6
Continuous
290
     0
370
    15
390
F
1001
AcAecLayerStandard
1000

1000

  0
LAYER
  5
18EEF
330
2
100
AcDbSymbolTableRecord
100
AcDbLayerTableRecord
  2
表示座-AM_6
 70
     0
 62
     2
  6
文字
370
    15
390
F
1001
AcAecLayerStandard
1000

1000

  0
LAYER
  5
18EF0
330
2
100
AcDbSymbolTableRecord
100
AcDbLayerTableRecord
  2
表示座-AM_2
 70
     0
 62
     1
  6
細線
370
    15
390
F
1001
AcAecLayerStandard
1000

1000

  0
LAYER
  5
19823
330
2
100
AcDbSymbolTableRecord
100
AcDbLayerTableRecord
  2
表示座-AM_4
 70
     0
 62
     3
  6
補助線
370
    15
390
F
1001
AcAecLayerStandard
1000

1000

  0
LAYER
  5
1AA47
330
2
100
AcDbSymbolTableRecord
100
AcDbLayerTableRecord
  2
表示軸-AM_0
 70
     0
 62
     7
  6
中線
370
    25
390
F
1001
AcAecLayerStandard
1000

1000

  0
LAYER
  5
1AA48
330
2
100
AcDbSymbolTableRecord
100
AcDbLayerTableRecord
  2
表示軸-AM_8
 70
     0
 62
     1
  6
ハッチング
370
    15
390
F
1001
AcAecLayerStandard
1000

1000

  0
LAYER
  5
1AA49
330
2
100
AcDbSymbolTableRecord
100
AcDbLayerTableRecord
  2
表示軸-AM_7
 70
     0
 62
     4
  6
中心線1
370
    15
390
F
1001
AcAecLayerStandard
1000

1000

  0
LAYER
  5
1AF70
330
2
100
AcDbSymbolTableRecord
100
AcDbLayerTableRecord
  2
表示軸-AM_5
 70
     0
 62
     3
  6
寸法線
370
    15
390
F
1001
AcAecLayerStandard
1000

1000

  0
LAYER
  5
1B424
330
2
100
AcDbSymbolTableRecord
100
AcDbLayerTableRecord
  2
ワッシャ-AM_0
 70
     0
 62
     7
  6
中線
370
    25
390
F
1001
AcAecLayerStandard
1000

1000

  0
LAYER
  5
1B42C
330
2
100
AcDbSymbolTableRecord
100
AcDbLayerTableRecord
  2
ワッシャ-AM_5
 70
     0
 62
     3
  6
寸法線
370
    15
390
F
1001
AcAecLayerStandard
1000

1000

  0
LAYER
  5
1B4AB
330
2
100
AcDbSymbolTableRecord
100
AcDbLayerTableRecord
  2
バネ-AM_0
 70
     0
 62
     7
  6
中線
370
    25
390
F
1001
AcAecLayerStandard
1000

1000

  0
LAYER
  5
1B4AF
330
2
100
AcDbSymbolTableRecord
100
AcDbLayerTableRecord
  2
バネ-AM_5
 70
     0
 62
     3
  6
寸法線
370
    15
390
F
1001
AcAecLayerStandard
1000

1000

  0
LAYER
  5
1B4D7
330
2
100
AcDbSymbolTableRecord
100
AcDbLayerTableRecord
  2
バネ-AM_7
 70
     0
 62
     4
  6
中心線1
370
    15
390
F
1001
AcAecLayerStandard
1000

1000

  0
LAYER
  5
1B80A
330
2
100
AcDbSymbolTableRecord
100
AcDbLayerTableRecord
  2
表示板-AM_3
 70
     0
 62
     6
  6
陰線1
370
    15
390
F
1001
AcAecLayerStandard
1000

1000

  0
LAYER
  5
1D0A2
330
2
100
AcDbSymbolTableRecord
100
AcDbLayerTableRecord
  2
表示軸-AM_3
 70
     0
 62
     6
  6
陰線1
370
    15
390
F
1001
AcAecLayerStandard
1000

1000

  0
LAYER
  5
1D5A7
330
2
100
AcDbSymbolTableRecord
100
AcDbLayerTableRecord
  2
表示軸-AM_4
 70
     0
 62
     3
  6
補助線
370
    15
390
F
1001
AcAecLayerStandard
1000

1000

  0
LAYER
  5
1DD58
330
2
100
AcDbSymbolTableRecord
100
AcDbLayerTableRecord
  2
引き手-AM_0
 70
     0
 62
     7
  6
中線
370
    25
390
F
1001
AcAecLayerStandard
1000

1000

  0
LAYER
  5
1DD59
330
2
100
AcDbSymbolTableRecord
100
AcDbLayerTableRecord
  2
引き手-AM_5
 70
     0
 62
     3
  6
寸法線
370
    15
390
F
1001
AcAecLayerStandard
1000

1000

  0
LAYER
  5
1DD5A
330
2
100
AcDbSymbolTableRecord
100
AcDbLayerTableRecord
  2
引き手-AM_2
 70
     0
 62
     1
  6
細線
370
    15
390
F
1001
AcAecLayerStandard
1000

1000

  0
LAYER
  5
1DD5B
330
2
100
AcDbSymbolTableRecord
100
AcDbLayerTableRecord
  2
引き手-AM_3
 70
     0
 62
     6
  6
陰線1
370
    15
390
F
1001
AcAecLayerStandard
1000

1000

  0
LAYER
  5
1DD5C
330
2
100
AcDbSymbolTableRecord
100
AcDbLayerTableRecord
  2
引き手-AM_7
 70
     0
 62
     4
  6
中心線1
370
    15
390
F
1001
AcAecLayerStandard
1000

1000

  0
LAYER
  5
1E7A7
330
2
100
AcDbSymbolTableRecord
100
AcDbLayerTableRecord
  2
ストップピン２-AM_7
 70
     0
 62
     4
  6
中心線1
370
    15
390
F
1001
AcAecLayerStandard
1000

1000

  0
LAYER
  5
1E7A8
330
2
100
AcDbSymbolTableRecord
100
AcDbLayerTableRecord
  2
ストップピン２-AM_8
 70
     0
 62
     1
  6
ハッチング
370
    15
390
F
1001
AcAecLayerStandard
1000

1000

  0
LAYER
  5
1E7E0
330
2
100
AcDbSymbolTableRecord
100
AcDbLayerTableRecord
  2
ストップピン２-AM_5
 70
     0
 62
     3
  6
寸法線
370
    15
390
F
1001
AcAecLayerStandard
1000

1000

  0
LAYER
  5
1E8A3
330
2
100
AcDbSymbolTableRecord
100
AcDbLayerTableRecord
  2
ストップピン２-AM_4
 70
     0
 62
     3
  6
補助線
370
    15
390
F
1001
AcAecLayerStandard
1000

1000

  0
LAYER
  5
1EC48
330
2
100
AcDbSymbolTableRecord
100
AcDbLayerTableRecord
  2
補強板-AM_4
 70
     0
 62
     3
  6
補助線
370
    15
390
F
1001
AcAecLayerStandard
1000

1000

  0
LAYER
  5
1F474
330
2
100
AcDbSymbolTableRecord
100
AcDbLayerTableRecord
  2
引き手-AM_8
 70
     0
 62
     1
  6
ハッチング
370
    15
390
F
1001
AcAecLayerStandard
1000

1000

  0
LAYER
  5
1F5E4
330
2
100
AcDbSymbolTableRecord
100
AcDbLayerTableRecord
  2
引き手-AM_4
 70
     0
 62
     3
  6
補助線
370
    15
390
F
1001
AcAecLayerStandard
1000

1000

  0
LAYER
  5
1F7CF
330
2
100
AcDbSymbolTableRecord
100
AcDbLayerTableRecord
  2
取付軸-AM_7
 70
     0
 62
     4
  6
中心線1
370
    15
390
F
1001
AcAecLayerStandard
1000

1000

  0
LAYER
  5
1F7D0
330
2
100
AcDbSymbolTableRecord
100
AcDbLayerTableRecord
  2
ストップピン-AM_3
 70
     0
 62
     6
  6
陰線1
370
    15
390
F
1001
AcAecLayerStandard
1000

1000

  0
LAYER
  5
1F7D1
330
2
100
AcDbSymbolTableRecord
100
AcDbLayerTableRecord
  2
ストップピン-AM_5
 70
     0
 62
     3
  6
寸法線
370
    15
390
F
1001
AcAecLayerStandard
1000

1000

  0
LAYER
  5
1F7D2
330
2
100
AcDbSymbolTableRecord
100
AcDbLayerTableRecord
  2
ストップピン-AM_2
 70
     0
 62
     1
  6
細線
370
    15
390
F
1001
AcAecLayerStandard
1000

1000

  0
LAYER
  5
1FEBC
330
2
100
AcDbSymbolTableRecord
100
AcDbLayerTableRecord
  2
ゴムシート-AM_0
 70
     0
 62
     7
  6
中線
370
    25
390
F
1001
AcAecLayerStandard
1000

1000

  0
LAYER
  5
1FEBD
330
2
100
AcDbSymbolTableRecord
100
AcDbLayerTableRecord
  2
ゴムシート-AM_5
 70
     0
 62
     3
  6
寸法線
370
    15
390
F
1001
AcAecLayerStandard
1000

1000

  0
LAYER
  5
1FF48
330
2
100
AcDbSymbolTableRecord
100
AcDbLayerTableRecord
  2
ゴムシート-AM_4
 70
     0
 62
     3
  6
補助線
370
    15
390
F
1001
AcAecLayerStandard
1000

1000

  0
LAYER
  5
1FF4A
330
2
100
AcDbSymbolTableRecord
100
AcDbLayerTableRecord
  2
ゴムシート-AM_8
 70
     0
 62
     1
  6
ハッチング
370
    15
390
F
1001
AcAecLayerStandard
1000

1000

  0
LAYER
  5
20B2C
330
2
100
AcDbSymbolTableRecord
100
AcDbLayerTableRecord
  2
取付軸-AM_5
 70
     0
 62
     3
  6
寸法線
370
    15
390
F
1001
AcAecLayerStandard
1000

1000

  0
LAYER
  5
20ECD
330
2
100
AcDbSymbolTableRecord
100
AcDbLayerTableRecord
  2
ゴムシート-AM_7
 70
     0
 62
     4
  6
中心線1
370
    15
390
F
1001
AcAecLayerStandard
1000

1000

  0
LAYER
  5
2112D
330
2
100
AcDbSymbolTableRecord
100
AcDbLayerTableRecord
  2
非常解錠キー-AM_0
 70
     0
 62
     7
  6
中線
370
    25
390
F
1001
AcAecLayerStandard
1000

1000

  0
LAYER
  5
2112E
330
2
100
AcDbSymbolTableRecord
100
AcDbLayerTableRecord
  2
非常解錠キー-AM_5
 70
     0
 62
     3
  6
寸法線
370
    15
390
F
1001
AcAecLayerStandard
1000

1000

  0
LAYER
  5
21849
330
2
100
AcDbSymbolTableRecord
100
AcDbLayerTableRecord
  2
LAYER002
 70
     0
 62
     7
  6
Continuous
370
    -3
390
F
  0
LAYER
  5
2184A
330
2
100
AcDbSymbolTableRecord
100
AcDbLayerTableRecord
  2
LAYER006
 70
     0
 62
     7
  6
Continuous
370
    -3
390
F
  0
LAYER
  5
2184B
330
2
100
AcDbSymbolTableRecord
100
AcDbLayerTableRecord
  2
LAYER008
 70
     0
 62
     7
  6
Continuous
370
    -3
390
F
  0
LAYER
  5
2184C
330
2
100
AcDbSymbolTableRecord
100
AcDbLayerTableRecord
  2
LAYER010
 70
     0
 62
     7
  6
Continuous
370
    -3
390
F
  0
LAYER
  5
2184D
330
2
100
AcDbSymbolTableRecord
100
AcDbLayerTableRecord
  2
LAYER011
 70
     0
 62
     7
  6
Continuous
370
    -3
390
F
  0
LAYER
  5
22B99
330
2
100
AcDbSymbolTableRecord
100
AcDbLayerTableRecord
  2
表示軸-AM_2
 70
     0
 62
     1
  6
細線
370
    15
390
F
1001
AcAecLayerStandard
1000

1000

  0
LAYER
  5
23667
330
2
100
AcDbSymbolTableRecord
100
AcDbLayerTableRecord
  2
ラッチ座-AM_6
 70
     0
 62
     2
  6
文字
370
    15
390
F
1001
AcAecLayerStandard
1000

1000

  0
LAYER
  5
24FD7
330
2
100
AcDbSymbolTableRecord
100
AcDbLayerTableRecord
  2
台座-AM_11
 70
     0
 62
     2
  6
想像線1
370
    15
390
F
1001
AcAecLayerStandard
1000

1000

  0
LAYER
  5
25982
330
2
100
AcDbSymbolTableRecord
100
AcDbLayerTableRecord
  2
ラッチ座-AM_2
 70
     0
 62
     1
  6
細線
370
    15
390
F
1001
AcAecLayerStandard
1000

1000

  0
LAYER
  5
25983
330
2
100
AcDbSymbolTableRecord
100
AcDbLayerTableRecord
  2
ラッチ座-AM_11
 70
     0
 62
     2
  6
想像線1
370
    15
390
F
1001
AcAecLayerStandard
1000

1000

  0
LAYER
  5
25984
330
2
100
AcDbSymbolTableRecord
100
AcDbLayerTableRecord
  2
ラッチ座-AM_1
 70
     0
 62
    30
  6
太線
370
    25
390
F
1001
AcAecLayerStandard
1000

1000

  0
LAYER
  5
261F9
330
2
100
AcDbSymbolTableRecord
100
AcDbLayerTableRecord
  2
ストップピン２-AM_2
 70
     0
 62
     1
  6
細線
370
    15
390
F
1001
AcAecLayerStandard
1000

1000

  0
LAYER
  5
26D04
330
2
100
AcDbSymbolTableRecord
100
AcDbLayerTableRecord
  2
ストップピン-AM_7
 70
     0
 62
     4
  6
中心線1
370
    15
390
F
1001
AcAecLayerStandard
1000

1000

  0
LAYER
  5
26D4B
330
2
100
AcDbSymbolTableRecord
100
AcDbLayerTableRecord
  2
ストップピン-AM_4
 70
     0
 62
     3
  6
補助線
370
    15
390
F
1001
AcAecLayerStandard
1000

1000

  0
LAYER
  5
26D4D
330
2
100
AcDbSymbolTableRecord
100
AcDbLayerTableRecord
  2
ストップピン-AM_8
 70
     0
 62
     1
  6
ハッチング
370
    15
390
F
1001
AcAecLayerStandard
1000

1000

  0
LAYER
  5
2851C
330
2
100
AcDbSymbolTableRecord
100
AcDbLayerTableRecord
  2
ゴムシート-AM_12
 70
     0
 62
     7
  6
Continuous
290
     0
370
    15
390
F
1001
AcAecLayerStandard
1000

1000

  0
LAYER
  5
28768
330
2
100
AcDbSymbolTableRecord
100
AcDbLayerTableRecord
  2
ブース-AM_0
 70
     0
 62
     7
  6
中線
370
    25
390
F
1001
AcAecLayerStandard
1000

1000

  0
LAYER
  5
2876A
330
2
100
AcDbSymbolTableRecord
100
AcDbLayerTableRecord
  2
ブース-AM_11
 70
     0
 62
     2
  6
想像線1
370
    15
390
F
1001
AcAecLayerStandard
1000

1000

  0
LAYER
  5
28D5F
330
2
100
AcDbSymbolTableRecord
100
AcDbLayerTableRecord
  2
ベスト-AM_0
 70
     0
 62
     7
  6
中線
370
    25
390
F
1001
AcAecLayerStandard
1000

1000

  0
LAYER
  5
28D7A
330
2
100
AcDbSymbolTableRecord
100
AcDbLayerTableRecord
  2
ベスト-AM_7
 70
     0
 62
     4
  6
中心線1
370
    15
390
F
1001
AcAecLayerStandard
1000

1000

  0
LAYER
  5
28D83
330
2
100
AcDbSymbolTableRecord
100
AcDbLayerTableRecord
  2
ベスト-AM_11
 70
     0
 62
     2
  6
想像線1
370
    15
390
F
1001
AcAecLayerStandard
1000

1000

  0
ENDTAB
  0
TABLE
  2
STYLE
  5
3
330
0
100
AcDbSymbolTable
 70
    13
  0
STYLE
  5
11
330
3
100
AcDbSymbolTableRecord
100
AcDbTextStyleTableRecord
  2
STANDARD
 70
     0
 40
0.0
 41
0.7
 50
0.0
 71
     0
 42
3.2
  3
romans.shx
  4
extfont.shx
  0
STYLE
  5
56
330
3
100
AcDbSymbolTableRecord
100
AcDbTextStyleTableRecord
  2

 70
     1
 40
0.0
 41
1.0
 50
0.0
 71
     0
 42
2.5
  3
ltypeshp.shx
  4

  0
STYLE
  5
58
330
3
100
AcDbSymbolTableRecord
100
AcDbTextStyleTableRecord
  2
ACISOTS
 70
     0
 40
1.0
 41
1.0
 50
0.0
 71
     0
 42
2.5
  3
isocp.shx
  4
extfont.shx
  0
STYLE
  5
63
330
3
100
AcDbSymbolTableRecord
100
AcDbTextStyleTableRecord
  2
ACISOGDT
 70
     0
 40
0.0
 41
1.0
 50
0.0
 71
     0
 42
2.5
  3
amgdt.shx
  4

  0
STYLE
  5
A74
330
3
100
AcDbSymbolTableRecord
100
AcDbTextStyleTableRecord
  2
DIM
 70
     0
 40
0.0
 41
1.0
 50
0.0
 71
     0
 42
2.5
  3
monotxt.shx
  4
extfont.shx
  0
STYLE
  5
AC80
330
3
100
AcDbSymbolTableRecord
100
AcDbTextStyleTableRecord
  2

 70
     1
 40
0.0
 41
1.0
 50
0.0
 71
     0
 42
3.2
  3
genltshp.shx
  4

  0
STYLE
  5
B16D
330
3
100
AcDbSymbolTableRecord
100
AcDbTextStyleTableRecord
  2
文字スタイル7
 70
     0
 40
0.0
 41
1.0
 50
0.0
 71
     0
 42
0.2
  3
TAHOMA.TTF
  4

1001
ACAD
1000
Tahoma
1071
      256
  0
STYLE
  5
C98D
330
3
100
AcDbSymbolTableRecord
100
AcDbTextStyleTableRecord
  2
ACANSTS
 70
     0
 40
1.0
 41
1.0
 50
0.0
 71
     0
 42
0.2
  3
romans.shx
  4
extfont.shx
  0
STYLE
  5
C98E
330
3
100
AcDbSymbolTableRecord
100
AcDbTextStyleTableRecord
  2
ACANSGDT
 70
     0
 40
0.0
 41
1.0
 50
0.0
 71
     0
 42
0.2
  3
amgdtans.shx
  4

  0
STYLE
  5
C98F
330
3
100
AcDbSymbolTableRecord
100
AcDbTextStyleTableRecord
  2
USER1
 70
     0
 40
0.0
 41
1.0
 50
0.0
 71
     0
 42
2.5
  3
TXT.SHX
  4

  0
STYLE
  5
C990
330
3
100
AcDbSymbolTableRecord
100
AcDbTextStyleTableRecord
  2
USER2
 70
     0
 40
0.0
 41
1.0
 50
0.0
 71
     0
 42
2.5
  3
SIMPLEX.SHX
  4

  0
STYLE
  5
C991
330
3
100
AcDbSymbolTableRecord
100
AcDbTextStyleTableRecord
  2
USER3
 70
     0
 40
0.0
 41
1.0
 50
0.0
 71
     0
 42
2.5
  3
ITALIC.SHX
  4

  0
ENDTAB
  0
TABLE
  2
VIEW
  5
6
330
0
100
AcDbSymbolTable
 70
     6
  0
VIEW
  5
AE1
330
6
100
AcDbSymbolTableRecord
100
AcDbViewTableRecord
  2
AM_VIEW1
 70
     0
 40
129.7276464542651
 10
1775.10588156276
 20
1793.121228859297
 41
148.5
 11
0.0
 21
0.0
 31
1.0
 12
0.0
 22
0.0
 32
0.0
 42
50.0
 43
-1370.695619172058
 44
-1370.695619172058
 50
0.0
 71
    16
281
     0
 72
     0
  0
VIEW
  5
AE2
330
6
100
AcDbSymbolTableRecord
100
AcDbViewTableRecord
  2
AM_VIEW2
 70
     0
 40
129.7276464542651
 10
1923.60588156276
 20
1793.121228859297
 41
148.5
 11
0.0
 21
0.0
 31
1.0
 12
0.0
 22
0.0
 32
0.0
 42
50.0
 43
-1370.695619172058
 44
-1370.695619172058
 50
0.0
 71
    16
281
     0
 72
     0
  0
VIEW
  5
AE3
330
6
100
AcDbSymbolTableRecord
100
AcDbViewTableRecord
  2
AM_VIEW3
 70
     0
 40
129.7276464542651
 10
1775.10588156276
 20
1712.848875313562
 41
148.5
 11
0.0
 21
0.0
 31
1.0
 12
0.0
 22
0.0
 32
0.0
 42
50.0
 43
-1370.695619172058
 44
-1370.695619172058
 50
0.0
 71
    16
281
     0
 72
     0
  0
VIEW
  5
AE4
330
6
100
AcDbSymbolTableRecord
100
AcDbViewTableRecord
  2
AM_VIEW4
 70
     0
 40
129.7276464542651
 10
1923.60588156276
 20
1712.848875313562
 41
148.5
 11
0.0
 21
0.0
 31
1.0
 12
0.0
 22
0.0
 32
0.0
 42
50.0
 43
-1370.695619172058
 44
-1370.695619172058
 50
0.0
 71
    16
281
     0
 72
     0
  0
VIEW
  5
AE5
330
6
100
AcDbSymbolTableRecord
100
AcDbViewTableRecord
  2
AM_VIEW5
 70
     0
 40
129.7276464542651
 10
1849.35588156276
 20
1752.985052086429
 41
148.5
 11
0.0
 21
0.0
 31
1.0
 12
0.0
 22
0.0
 32
0.0
 42
50.0
 43
-1370.695619172058
 44
-1370.695619172058
 50
0.0
 71
    16
281
     0
 72
     0
  0
VIEW
  5
AE6
330
6
100
AcDbSymbolTableRecord
100
AcDbViewTableRecord
  2
AM_VIEW6
 70
     0
 40
259.452698355601
 10
1849.35588156276
 20
1752.985052086429
 41
296.99703
 11
0.0
 21
0.0
 31
1.0
 12
0.0
 22
0.0
 32
0.0
 42
50.0
 43
-1370.695619172058
 44
-1370.695619172058
 50
0.0
 71
    16
281
     0
 72
     0
  0
ENDTAB
  0
TABLE
  2
UCS
  5
7
330
0
100
AcDbSymbolTable
 70
     0
  0
ENDTAB
  0
TABLE
  2
APPID
  5
9
330
0
100
AcDbSymbolTable
 70
    58
  0
APPID
  5
12
330
9
100
AcDbSymbolTableRecord
100
AcDbRegAppTableRecord
  2
ACAD
 70
     0
  0
APPID
  5
30
330
9
100
AcDbSymbolTableRecord
100
AcDbRegAppTableRecord
  2
MCAD_NO_VIS
 70
     0
  0
APPID
  5
31
330
9
100
AcDbSymbolTableRecord
100
AcDbRegAppTableRecord
  2
ACAD_TEMP_GRAPHIC
 70
     0
  0
APPID
  5
44
330
9
100
AcDbSymbolTableRecord
100
AcDbRegAppTableRecord
  2
ACATTRIBSERVICES
 70
     0
  0
APPID
  5
7A1
330
9
100
AcDbSymbolTableRecord
100
AcDbRegAppTableRecord
  2
GENIUS_GENDIMSH_14
 70
     0
  0
APPID
  5
A49
330
9
100
AcDbSymbolTableRecord
100
AcDbRegAppTableRecord
  2
GENIUS_GENREC_14
 70
     0
  0
APPID
  5
A4A
330
9
100
AcDbSymbolTableRecord
100
AcDbRegAppTableRecord
  2
GENIUS_GENOBJ-N-REC_13
 70
     0
  0
APPID
  5
A4B
330
9
100
AcDbSymbolTableRecord
100
AcDbRegAppTableRecord
  2
GENIUS_GENODEF_13
 70
     0
  0
APPID
  5
A4C
330
9
100
AcDbSymbolTableRecord
100
AcDbRegAppTableRecord
  2
DCO15
 70
     0
  0
APPID
  5
ADC
330
9
100
AcDbSymbolTableRecord
100
AcDbRegAppTableRecord
  2
GENIUS_GENOLIS_13
 70
     0
  0
APPID
  5
ADD
330
9
100
AcDbSymbolTableRecord
100
AcDbRegAppTableRecord
  2
GENIUS_GENOENT_13
 70
     0
  0
APPID
  5
ADE
330
9
100
AcDbSymbolTableRecord
100
AcDbRegAppTableRecord
  2
GENIUS_GENOBJ-N-TIT_13
 70
     0
  0
APPID
  5
ADF
330
9
100
AcDbSymbolTableRecord
100
AcDbRegAppTableRecord
  2
GENIUS_GENTITLE_13
 70
     0
  0
APPID
  5
AE0
330
9
100
AcDbSymbolTableRecord
100
AcDbRegAppTableRecord
  2
GENIUS_GENOREF_13
 70
     0
  0
APPID
  5
AE7
330
9
100
AcDbSymbolTableRecord
100
AcDbRegAppTableRecord
  2
GENIUS_GENSCREG_15
 70
     0
  0
APPID
  5
AE8
330
9
100
AcDbSymbolTableRecord
100
AcDbRegAppTableRecord
  2
GENIUS_GENOBJ-N-SDF_13
 70
     0
  0
APPID
  5
FAF
330
9
100
AcDbSymbolTableRecord
100
AcDbRegAppTableRecord
  2
GENIUS_GENBLLY_14
 70
     0
  0
APPID
  5
FB0
330
9
100
AcDbSymbolTableRecord
100
AcDbRegAppTableRecord
  2
GENIUS_GENTRA_14
 70
     0
  0
APPID
  5
1285
330
9
100
AcDbSymbolTableRecord
100
AcDbRegAppTableRecord
  2
GENIUS_GENDTOL_13
 70
     0
  0
APPID
  5
142D
330
9
100
AcDbSymbolTableRecord
100
AcDbRegAppTableRecord
  2
GENIUS_GENOBJ-N-CEN_13
 70
     0
  0
APPID
  5
1AB5
330
9
100
AcDbSymbolTableRecord
100
AcDbRegAppTableRecord
  2
GENIUS_GENOBJ-N-CRS_13
 70
     0
  0
APPID
  5
1B36
330
9
100
AcDbSymbolTableRecord
100
AcDbRegAppTableRecord
  2
GENIUS_GENOBJ-N-HTC_13
 70
     0
  0
APPID
  5
1B37
330
9
100
AcDbSymbolTableRecord
100
AcDbRegAppTableRecord
  2
GENIUS_GENHATCH_13
 70
     0
  0
APPID
  5
216D
330
9
100
AcDbSymbolTableRecord
100
AcDbRegAppTableRecord
  2
GENIUS_GENOBJ-N-FIL_13
 70
     0
  0
APPID
  5
2356
330
9
100
AcDbSymbolTableRecord
100
AcDbRegAppTableRecord
  2
GEVID990412420
 70
     0
  0
APPID
  5
2357
330
9
100
AcDbSymbolTableRecord
100
AcDbRegAppTableRecord
  2
GEVDC
 70
     0
  0
APPID
  5
2358
330
9
100
AcDbSymbolTableRecord
100
AcDbRegAppTableRecord
  2
GEVCON
 70
     0
  0
APPID
  5
235B
330
9
100
AcDbSymbolTableRecord
100
AcDbRegAppTableRecord
  2
GEVRADREF
 70
     0
  0
APPID
  5
2360
330
9
100
AcDbSymbolTableRecord
100
AcDbRegAppTableRecord
  2
GENIUS_GENBH_13
 70
     0
  0
APPID
  5
2362
330
9
100
AcDbSymbolTableRecord
100
AcDbRegAppTableRecord
  2
GENIUS_GENOBJ-NBEHI-BHF_13
 70
     0
  0
APPID
  5
2364
330
9
100
AcDbSymbolTableRecord
100
AcDbRegAppTableRecord
  2
GENIUS_GENOBJ-NBEHI-BHB_13
 70
     0
  0
APPID
  5
2379
330
9
100
AcDbSymbolTableRecord
100
AcDbRegAppTableRecord
  2
GENIUS_GENOBJ-F-SCPASSM_13
 70
     0
  0
APPID
  5
3D74
330
9
100
AcDbSymbolTableRecord
100
AcDbRegAppTableRecord
  2
GENIUS_GENDIM_13
 70
     0
  0
APPID
  5
3D76
330
9
100
AcDbSymbolTableRecord
100
AcDbRegAppTableRecord
  2
GENIUS_GE3DTOL_13
 70
     0
  0
APPID
  5
3D9C
330
9
100
AcDbSymbolTableRecord
100
AcDbRegAppTableRecord
  2
AD_DRAW
 70
     0
  0
APPID
  5
3DE8
330
9
100
AcDbSymbolTableRecord
100
AcDbRegAppTableRecord
  2
ASURF_PCURVE_APPNAME
 70
     0
  0
APPID
  5
3DED
330
9
100
AcDbSymbolTableRecord
100
AcDbRegAppTableRecord
  2
AMG_3D2D_5.0
 70
     0
  0
APPID
  5
3E1B
330
9
100
AcDbSymbolTableRecord
100
AcDbRegAppTableRecord
  2
DESIGNERASSEMBLIES
 70
     0
  0
APPID
  5
3E20
330
9
100
AcDbSymbolTableRecord
100
AcDbRegAppTableRecord
  2
ACADM_DIM_EDIT
 70
     0
  0
APPID
  5
3E21
330
9
100
AcDbSymbolTableRecord
100
AcDbRegAppTableRecord
  2
AMDT_DM_ADJ
 70
     0
  0
APPID
  5
4143
330
9
100
AcDbSymbolTableRecord
100
AcDbRegAppTableRecord
  2
GENIUS_GENFIL_13
 70
     0
  0
APPID
  5
4144
330
9
100
AcDbSymbolTableRecord
100
AcDbRegAppTableRecord
  2
GENIUS_GENOBJ-N-CHA_13
 70
     0
  0
APPID
  5
4E17
330
9
100
AcDbSymbolTableRecord
100
AcDbRegAppTableRecord
  2
GEVID1008153417
 70
     0
  0
APPID
  5
4E58
330
9
100
AcDbSymbolTableRecord
100
AcDbRegAppTableRecord
  2
GEVID1008153418
 70
     0
  0
APPID
  5
4E5E
330
9
100
AcDbSymbolTableRecord
100
AcDbRegAppTableRecord
  2
GEVID1008153419
 70
     0
  0
APPID
  5
4E64
330
9
100
AcDbSymbolTableRecord
100
AcDbRegAppTableRecord
  2
GEVID1008153420
 70
     0
  0
APPID
  5
4E75
330
9
100
AcDbSymbolTableRecord
100
AcDbRegAppTableRecord
  2
GEVID1008153421
 70
     0
  0
APPID
  5
4EB7
330
9
100
AcDbSymbolTableRecord
100
AcDbRegAppTableRecord
  2
GENIUS_AMGTXT_16
 70
     0
  0
APPID
  5
7645
330
9
100
AcDbSymbolTableRecord
100
AcDbRegAppTableRecord
  2
GENIUS_GENOBJ-N-DIM_13
 70
     0
  0
APPID
  5
AAD0
330
9
100
AcDbSymbolTableRecord
100
AcDbRegAppTableRecord
  2
ACAD_DSTYLE_DIMARC_LENGTH_SYMBOL
 70
     0
  0
APPID
  5
AAD1
330
9
100
AcDbSymbolTableRecord
100
AcDbRegAppTableRecord
  2
ACAD_DSTYLE_DIMJOGGED_JOGANGLE_SYMBOL
 70
     0
  0
APPID
  5
AAFD
330
9
100
AcDbSymbolTableRecord
100
AcDbRegAppTableRecord
  2
ACAD_PSEXT
 70
     0
  0
APPID
  5
AD61
330
9
100
AcDbSymbolTableRecord
100
AcDbRegAppTableRecord
  2
AcAecLayerStandard
 70
     0
  0
APPID
  5
AEE3
330
9
100
AcDbSymbolTableRecord
100
AcDbRegAppTableRecord
  2
ACAD_EXEMPT_FROM_CAD_STANDARDS
 70
     0
  0
APPID
  5
B16E
330
9
100
AcDbSymbolTableRecord
100
AcDbRegAppTableRecord
  2
GENIUS_GENCEN_19
 70
     0
  0
APPID
  5
E2EA
330
9
100
AcDbSymbolTableRecord
100
AcDbRegAppTableRecord
  2
GENLAYCOLOR
 70
     0
  0
APPID
  5
E785
330
9
100
AcDbSymbolTableRecord
100
AcDbRegAppTableRecord
  2
GENIUS_GENOBJ-N-ZOO_13
 70
     0
  0
APPID
  5
E786
330
9
100
AcDbSymbolTableRecord
100
AcDbRegAppTableRecord
  2
GENIUS_GENZOO_17
 70
     0
  0
ENDTAB
  0
TABLE
  2
DIMSTYLE
  5
A
330
0
100
AcDbSymbolTable
 70
    29
100
AcDbDimStyleTable
 71
     1
340
2515
  0
DIMSTYLE
105
A76
330
A
100
AcDbSymbolTableRecord
100
AcDbDimStyleTableRecord
  2
STANDARD
 70
     0
 41
3.0
 42
1.0
 43
7.0
 44
2.0
 73
     0
 74
     0
 77
     1
140
2.799999999999998
141
0.0
143
0.0394
147
0.7
171
     4
172
     1
173
     1
176
     3
177
     3
178
     2
271
     3
272
     3
273
     8
274
     4
289
     0
340
A74
341
A66
343
A66
344
A66
  0
DIMSTYLE
105
2515
330
A
100
AcDbSymbolTableRecord
100
AcDbDimStyleTableRecord
  2
SYS
 70
     0
  4
"
 41
1.0
 42
1.0
 43
10.0
 44
1.0
 47
0.1
 48
0.1
 73
     0
 74
     0
 77
     1
 78
     8
 79
     2
140
3.5
141
0.0
143
0.0393701
146
0.71
147
1.5
172
     1
176
   256
177
   256
178
     7
271
     2
272
     2
283
     0
284
     8
340
11
371
    -1
372
    -1
1001
ACAD_DSTYLE_DIMJOGGED_JOGANGLE_SYMBOL
1070
   384
1040
0.7853981633974483
1001
ACAD_DSTYLE_DIMARC_LENGTH_SYMBOL
1070
   379
1070
     1
  0
DIMSTYLE
105
2516
102
{ACAD_REACTORS
330
2E10E
102
}
330
A
100
AcDbSymbolTableRecord
100
AcDbDimStyleTableRecord
  2
SYS$3
 70
     0
  4
"
 41
2.0
 42
1.0
 43
10.0
 44
1.0
 47
0.1
 48
0.1
 73
     0
 77
     1
 78
     8
 79
     2
140
3.5
141
0.0
143
0.0393701
146
0.71
147
1.5
176
   256
177
   256
178
     2
271
     2
272
     2
283
     0
284
     8
288
     1
340
11
342
A66
371
    -1
372
    -1
1001
ACAD_DSTYLE_DIMJOGGED_JOGANGLE_SYMBOL
1070
   384
1040
0.7853981633974483
1001
ACAD_DSTYLE_DIMARC_LENGTH_SYMBOL
1070
   379
1070
     1
  0
DIMSTYLE
105
2517
330
A
100
AcDbSymbolTableRecord
100
AcDbDimStyleTableRecord
  2
SYS$4
 70
     0
  4
"
 41
2.0
 42
1.0
 43
10.0
 44
1.0
 47
0.1
 48
0.1
 73
     0
 77
     1
 78
     8
 79
     2
140
3.5
141
0.0
143
0.0393701
146
0.71
147
1.5
173
     1
176
   256
177
   256
178
     2
271
     2
272
     2
283
     0
284
     8
288
     1
340
11
344
A66
371
    -1
372
    -1
1001
ACAD_DSTYLE_DIMJOGGED_JOGANGLE_SYMBOL
1070
   384
1040
0.7853981633974483
1001
ACAD_DSTYLE_DIMARC_LENGTH_SYMBOL
1070
   379
1070
     1
  0
DIMSTYLE
105
2518
330
A
100
AcDbSymbolTableRecord
100
AcDbDimStyleTableRecord
  2
SYS$6
 70
     0
  4
"
 41
2.0
 42
1.0
 43
10.0
 44
1.0
 47
0.1
 48
0.1
 73
     0
 74
     0
 78
     8
 79
     2
140
3.5
141
0.0
143
0.0393701
146
0.71
147
1.5
172
     1
176
   256
177
   256
178
     2
271
     2
272
     2
283
     0
284
     8
340
11
341
A66
371
    -1
372
    -1
1001
ACAD_DSTYLE_DIMJOGGED_JOGANGLE_SYMBOL
1070
   384
1040
0.7853981633974483
1001
ACAD_DSTYLE_DIMARC_LENGTH_SYMBOL
1070
   379
1070
     1
  0
DIMSTYLE
105
2519
330
A
100
AcDbSymbolTableRecord
100
AcDbDimStyleTableRecord
  2
SYS$7
 70
     0
  4
"
 41
2.0
 42
1.0
 43
10.0
 44
1.0
 47
0.1
 48
0.1
 73
     0
 74
     0
 77
     1
 78
     8
 79
     2
140
5.0
141
0.0
143
0.0393701
146
0.71
147
1.5
172
     1
176
   256
177
   256
178
     2
271
     2
272
     2
283
     0
284
     8
340
11
341
A66
342
A66
371
    -1
372
    -1
1001
ACAD_DSTYLE_DIMJOGGED_JOGANGLE_SYMBOL
1070
   384
1040
0.7853981633974483
1001
ACAD_DSTYLE_DIMARC_LENGTH_SYMBOL
1070
   379
1070
     1
  0
DIMSTYLE
105
251A
330
A
100
AcDbSymbolTableRecord
100
AcDbDimStyleTableRecord
  2
SYS$SF
 70
     0
  4
"
 41
2.5
 42
1.0
 43
10.0
 44
1.0
 47
0.1
 48
0.1
 73
     0
 74
     0
 75
     1
 76
     1
 77
     1
 78
     8
 79
     2
140
3.5
141
0.0
143
0.0393701
146
0.71
147
1.5
172
     1
176
   256
177
   256
178
     2
271
     2
272
     3
283
     0
284
     8
340
11
341
6C4
342
6C4
371
    -1
372
    -1
1001
ACAD_DSTYLE_DIMJOGGED_JOGANGLE_SYMBOL
1070
   384
1040
0.7853981633974483
1001
ACAD_DSTYLE_DIMARC_LENGTH_SYMBOL
1070
   379
1070
     1
  0
DIMSTYLE
105
251B
330
A
100
AcDbSymbolTableRecord
100
AcDbDimStyleTableRecord
  2
SYS$SH
 70
     0
  4
"
 41
2.5
 42
1.0
 43
10.0
 44
1.0
 47
0.1
 48
0.1
 73
     0
 74
     0
 75
     1
 76
     1
 77
     1
 78
     8
 79
     2
140
3.5
141
0.0
143
0.0393701
144
2.0
146
0.71
147
1.5
172
     1
173
     1
176
   256
177
   256
178
     2
271
     2
272
     3
283
     0
284
     8
340
11
341
6C4
343
72
344
6C4
371
    -1
372
    -1
1001
ACAD_DSTYLE_DIMJOGGED_JOGANGLE_SYMBOL
1070
   384
1040
0.7853981633974483
1001
ACAD_DSTYLE_DIMARC_LENGTH_SYMBOL
1070
   379
1070
     1
  0
DIMSTYLE
105
2A59
330
A
100
AcDbSymbolTableRecord
100
AcDbDimStyleTableRecord
  2
SYS$2
 70
     0
  4
"
 41
1.0
 42
1.0
 43
10.0
 44
1.0
 47
0.1
 48
0.1
 73
     0
 74
     0
 77
     1
 78
     8
 79
     2
140
3.5
141
0.0
143
0.0393701
146
0.71
147
1.5
172
     1
176
   256
177
   256
178
     2
271
     2
272
     2
283
     0
284
     8
340
11
342
6C4
371
    -1
372
    -1
1001
ACAD_DSTYLE_DIMJOGGED_JOGANGLE_SYMBOL
1070
   384
1040
0.7853981633974483
1001
ACAD_DSTYLE_DIMARC_LENGTH_SYMBOL
1070
   379
1070
     1
  0
DIMSTYLE
105
2AAB
102
{ACAD_REACTORS
330
2D58A
330
2D5AB
330
2D5CC
330
2DE4D
330
2DE77
330
2DEA1
330
2DF1F
330
2DF58
330
2DFD9
330
2E003
330
2E051
330
2E069
330
2E081
330
2E107
102
}
330
A
100
AcDbSymbolTableRecord
100
AcDbDimStyleTableRecord
  2
SYS$0
 70
     0
  4
"
 41
1.0
 42
1.0
 43
10.0
 44
1.0
 47
0.1
 48
0.1
 73
     0
 74
     0
 77
     1
 78
     8
 79
     2
140
3.200000000000001
141
0.0
143
0.0393701
146
0.71
147
1.5
172
     1
176
   256
177
   256
178
     2
271
     2
272
     2
283
     0
284
     8
340
11
341
A66
342
6C4
371
    -1
372
    -1
1001
ACAD_DSTYLE_DIMJOGGED_JOGANGLE_SYMBOL
1070
   384
1040
0.7853981633974483
1001
ACAD_DSTYLE_DIMARC_LENGTH_SYMBOL
1070
   379
1070
     1
  0
DIMSTYLE
105
AF99
330
A
100
AcDbSymbolTableRecord
100
AcDbDimStyleTableRecord
  2
AM_ISO
 70
     0
  4
"
 41
2.5
 42
1.0
 43
10.0
 44
1.0
 47
0.1
 48
0.1
 73
     0
 74
     0
 77
     1
 78
     8
 79
     2
140
3.5
141
0.0
143
0.0393701
146
0.71
147
1.5
172
     1
176
   256
177
   256
178
     2
271
     2
272
     3
274
     4
283
     0
284
     8
340
11
371
    -1
372
    -1
  0
DIMSTYLE
105
AF9A
330
A
100
AcDbSymbolTableRecord
100
AcDbDimStyleTableRecord
  2
AM_ISO$3
 70
     0
  4
"
 41
2.5
 42
1.0
 43
10.0
 44
1.0
 47
0.1
 48
0.1
 73
     0
 77
     1
 78
     8
 79
     2
140
3.5
141
0.0
143
0.0393701
146
0.71
147
1.5
176
   256
177
   256
178
     2
271
     2
272
     3
274
     4
283
     0
284
     8
288
     1
289
     0
340
11
371
    -1
372
    -1
  0
DIMSTYLE
105
AF9B
330
A
100
AcDbSymbolTableRecord
100
AcDbDimStyleTableRecord
  2
AM_ISO$4
 70
     0
  4
"
 41
2.5
 42
1.0
 43
10.0
 44
1.0
 47
0.1
 48
0.1
 73
     0
 77
     1
 78
     8
 79
     2
140
3.5
141
0.0
143
0.0393701
146
0.71
147
1.5
176
   256
177
   256
178
     2
271
     2
272
     3
274
     4
283
     0
284
     8
288
     1
289
     0
340
11
371
    -1
372
    -1
  0
DIMSTYLE
105
AF9C
330
A
100
AcDbSymbolTableRecord
100
AcDbDimStyleTableRecord
  2
AM_ISO$6
 70
     0
  4
"
 41
2.5
 42
1.0
 43
10.0
 44
1.0
 47
0.1
 48
0.1
 73
     0
 74
     0
 78
     8
 79
     2
140
3.5
141
0.0
143
0.0393701
146
0.71
147
1.5
172
     1
176
   256
177
   256
178
     2
271
     2
272
     3
274
     4
283
     0
284
     8
340
11
371
    -1
372
    -1
  0
DIMSTYLE
105
AF9D
330
A
100
AcDbSymbolTableRecord
100
AcDbDimStyleTableRecord
  2
AM_ISO$7
 70
     0
  4
"
 41
2.5
 42
1.0
 43
10.0
 44
1.0
 47
0.1
 48
0.1
 73
     0
 74
     0
 77
     1
 78
     8
 79
     2
140
5.0
141
0.0
143
0.0393701
146
0.71
147
1.5
172
     1
176
   256
177
   256
178
     2
271
     2
272
     3
274
     4
283
     0
284
     8
340
11
371
    -1
372
    -1
  0
DIMSTYLE
105
AF9E
330
A
100
AcDbSymbolTableRecord
100
AcDbDimStyleTableRecord
  2
AM_ISO$SF
 70
     0
  4
"
 41
2.5
 42
1.0
 43
10.0
 44
1.0
 47
0.1
 48
0.1
 73
     0
 74
     0
 75
     1
 76
     1
 77
     1
 78
     8
 79
     2
140
3.5
141
0.0
143
0.0393701
146
0.71
147
1.5
172
     1
176
   256
177
   256
178
     2
271
     2
272
     3
274
     4
283
     0
284
     8
340
11
371
    -1
372
    -1
  0
DIMSTYLE
105
AF9F
330
A
100
AcDbSymbolTableRecord
100
AcDbDimStyleTableRecord
  2
AM_ISO$SH
 70
     0
  4
"
 41
2.5
 42
1.0
 43
10.0
 44
1.0
 47
0.1
 48
0.1
 73
     0
 74
     0
 75
     1
 76
     1
 77
     1
 78
     8
 79
     2
140
3.5
141
0.0
143
0.0393701
144
2.0
146
0.71
147
1.5
172
     1
173
     1
176
   256
177
   256
178
     2
271
     2
272
     3
274
     4
283
     0
284
     8
340
11
343
72
371
    -1
372
    -1
  0
DIMSTYLE
105
C992
330
A
100
AcDbSymbolTableRecord
100
AcDbDimStyleTableRecord
  2
AM_ISO$0
 70
     0
  4
"
 41
0.8
 42
1.0
 43
10.0
 44
1.0
 47
0.1
 48
0.1
 73
     0
 74
     0
 77
     1
 78
     8
 79
     2
140
3.2
141
0.0
143
0.0393701
146
0.71
147
0.9999999999999996
172
     1
176
   256
177
   256
178
     2
271
     2
272
     2
283
     0
284
     8
340
11
341
6C4
342
6C4
371
    -1
372
    -1
1001
ACAD_DSTYLE_DIMJOGGED_JOGANGLE_SYMBOL
1070
   384
1040
0.7853981633974483
1001
ACAD_DSTYLE_DIMARC_LENGTH_SYMBOL
1070
   379
1070
     1
  0
DIMSTYLE
105
C993
330
A
100
AcDbSymbolTableRecord
100
AcDbDimStyleTableRecord
  2
AM_ISO$2
 70
     0
  4
"
 41
0.8
 42
1.0
 43
10.0
 44
1.0
 47
0.1
 48
0.1
 73
     0
 74
     0
 77
     3
 78
     8
 79
     2
140
3.200000000000001
141
0.0
143
0.0393701
146
0.71
147
0.9999999999999996
172
     1
176
   256
177
   256
178
     2
271
     2
272
     2
283
     0
284
     8
340
11
342
6C4
371
    -1
372
    -1
1001
ACAD_DSTYLE_DIMJOGGED_JOGANGLE_SYMBOL
1070
   384
1040
0.7853981633974483
1001
ACAD_DSTYLE_DIMARC_LENGTH_SYMBOL
1070
   379
1070
     1
  0
DIMSTYLE
105
C994
330
A
100
AcDbSymbolTableRecord
100
AcDbDimStyleTableRecord
  2
AM_ANSI
 70
     0
  4
mm
 41
0.1
 42
0.05
 43
0.5
 44
0.1
 47
0.1
 48
0.1
 78
     7
 79
     2
140
0.12
141
0.0
146
0.71
147
0.06
176
   256
177
   256
178
     2
274
     4
284
     7
340
11
371
    -1
372
    -1
1001
ACAD_DSTYLE_DIMJOGGED_JOGANGLE_SYMBOL
1070
   384
1040
0.7853981633974483
1001
ACAD_DSTYLE_DIMARC_LENGTH_SYMBOL
1070
   379
1070
     1
  0
DIMSTYLE
105
C995
330
A
100
AcDbSymbolTableRecord
100
AcDbDimStyleTableRecord
  2
AM_ANSI$3
 70
     0
  4
mm
 41
0.1
 42
0.05
 43
0.5
 44
0.1
 47
0.1
 48
0.1
 78
     7
 79
     2
140
0.12
141
0.0
146
0.71
147
0.06
176
   256
177
   256
178
     2
274
     4
284
     7
288
     1
289
     0
340
11
371
    -1
372
    -1
1001
ACAD_DSTYLE_DIMJOGGED_JOGANGLE_SYMBOL
1070
   384
1040
0.7853981633974483
1001
ACAD_DSTYLE_DIMARC_LENGTH_SYMBOL
1070
   379
1070
     1
  0
DIMSTYLE
105
C996
330
A
100
AcDbSymbolTableRecord
100
AcDbDimStyleTableRecord
  2
AM_ANSI$4
 70
     0
  4
mm
 41
0.1
 42
0.05
 43
0.5
 44
0.1
 47
0.1
 48
0.1
 78
     7
 79
     2
140
0.12
141
0.0
146
0.71
147
0.06
176
   256
177
   256
178
     2
274
     4
284
     7
288
     1
289
     0
340
11
371
    -1
372
    -1
1001
ACAD_DSTYLE_DIMJOGGED_JOGANGLE_SYMBOL
1070
   384
1040
0.7853981633974483
1001
ACAD_DSTYLE_DIMARC_LENGTH_SYMBOL
1070
   379
1070
     1
  0
DIMSTYLE
105
C997
330
A
100
AcDbSymbolTableRecord
100
AcDbDimStyleTableRecord
  2
AM_ANSI$7
 70
     0
  4
mm
 41
0.1
 42
0.05
 43
0.5
 44
0.1
 47
0.1
 48
0.1
 78
     7
 79
     2
140
0.24
141
0.0
146
0.71
147
0.06
176
   256
177
   256
178
     2
274
     4
284
     7
340
11
371
    -1
372
    -1
1001
ACAD_DSTYLE_DIMJOGGED_JOGANGLE_SYMBOL
1070
   384
1040
0.7853981633974483
1001
ACAD_DSTYLE_DIMARC_LENGTH_SYMBOL
1070
   379
1070
     1
  0
DIMSTYLE
105
C998
330
A
100
AcDbSymbolTableRecord
100
AcDbDimStyleTableRecord
  2
AM_ANSI$SF
 70
     0
  4
mm
 41
0.1
 42
0.05
 43
0.5
 44
0.1
 47
0.1
 48
0.1
 75
     1
 76
     1
 78
     7
 79
     2
140
0.12
141
0.0
146
0.71
147
0.06
176
   256
177
   256
178
     2
274
     4
284
     7
340
11
371
    -1
372
    -1
1001
ACAD_DSTYLE_DIMJOGGED_JOGANGLE_SYMBOL
1070
   384
1040
0.7853981633974483
1001
ACAD_DSTYLE_DIMARC_LENGTH_SYMBOL
1070
   379
1070
     1
  0
DIMSTYLE
105
C999
330
A
100
AcDbSymbolTableRecord
100
AcDbDimStyleTableRecord
  2
AM_ANSI$SH
 70
     0
  4
mm
 41
0.1
 42
0.05
 43
0.5
 44
0.1
 47
0.1
 48
0.1
 75
     1
 76
     1
 78
     7
 79
     2
140
0.12
141
0.0
146
0.71
147
0.06
173
     1
176
   256
177
   256
178
     2
274
     4
284
     7
340
11
343
72
371
    -1
372
    -1
1001
ACAD_DSTYLE_DIMJOGGED_JOGANGLE_SYMBOL
1070
   384
1040
0.7853981633974483
1001
ACAD_DSTYLE_DIMARC_LENGTH_SYMBOL
1070
   379
1070
     1
  0
DIMSTYLE
105
C99A
330
A
100
AcDbSymbolTableRecord
100
AcDbDimStyleTableRecord
  2
SYMBOL
 70
     0
  4
"
 41
2.5
 42
1.0
 43
10.0
 44
1.0
 47
0.1
 48
0.1
 73
     0
 74
     0
 77
     1
 78
     8
 79
     2
140
3.5
141
0.0
143
0.0393701
146
0.71
147
1.5
172
     1
176
   256
177
   256
178
     7
271
     2
272
     3
274
     4
283
     0
284
     8
340
11
371
    -1
372
    -1
  0
DIMSTYLE
105
2184E
330
A
100
AcDbSymbolTableRecord
100
AcDbDimStyleTableRecord
  2
DIMSTYLE
 70
     0
 41
1.0
 42
2.54
 44
2.54
 73
     0
 74
     0
140
3.2
147
1.6
173
     1
279
     2
340
11
  0
DIMSTYLE
105
2184F
330
A
100
AcDbSymbolTableRecord
100
AcDbDimStyleTableRecord
  2
DIMSTYLE$0
 70
     0
 41
1.0
 42
2.54
 44
2.54
 73
     0
 74
     0
140
3.2
147
1.6
173
     1
279
     2
340
11
  0
ENDTAB
  0
TABLE
  2
BLOCK_RECORD
  5
1
330
0
100
AcDbSymbolTable
 70
    24
  0
BLOCK_RECORD
  5
1F
102
{ACAD_XDICTIONARY
360
8A
102
}
330
1
100
AcDbSymbolTableRecord
100
AcDbBlockTableRecord
  2
*Model_Space
340
22
  0
BLOCK_RECORD
  5
1B
330
1
100
AcDbSymbolTableRecord
100
AcDbBlockTableRecord
  2
*Paper_Space
340
1E
  0
BLOCK_RECORD
  5
23
330
1
100
AcDbSymbolTableRecord
100
AcDbBlockTableRecord
  2
*Paper_Space0
340
26
  0
BLOCK_RECORD
  5
72
330
1
100
AcDbSymbolTableRecord
100
AcDbBlockTableRecord
  2
GENAXEH
340
0
  0
BLOCK_RECORD
  5
6C4
330
1
100
AcDbSymbolTableRecord
100
AcDbBlockTableRecord
  2
_Dot
340
0
102
{BLKREFS
331
2DEEC
331
2DEED
331
2DEF5
331
2DEF6
331
2DF07
331
2DF08
331
2DF10
331
2DF11
331
2DF19
331
2DF1A
331
2E027
331
2E028
331
2E030
331
2E031
331
2E13D
331
2E13E
331
2E146
331
2E147
331
2E14F
331
2E150
331
2E158
331
2E159
331
2E16A
331
2E16B
331
2E1DD
331
2E1DE
331
2E200
331
2E201
331
2E2B7
331
2E2B8
331
2E2C0
331
2E2C1
102
}
  0
BLOCK_RECORD
  5
A66
330
1
100
AcDbSymbolTableRecord
100
AcDbBlockTableRecord
  2
_OPEN30
340
0
  0
BLOCK_RECORD
  5
2D58B
330
1
100
AcDbSymbolTableRecord
100
AcDbBlockTableRecord
  2
*D5
340
0
  0
BLOCK_RECORD
  5
2D5AC
330
1
100
AcDbSymbolTableRecord
100
AcDbBlockTableRecord
  2
*D6
340
0
  0
BLOCK_RECORD
  5
2D5CD
330
1
100
AcDbSymbolTableRecord
100
AcDbBlockTableRecord
  2
*D7
340
0
  0
BLOCK_RECORD
  5
2DE4E
330
1
100
AcDbSymbolTableRecord
100
AcDbBlockTableRecord
  2
*D8
340
0
  0
BLOCK_RECORD
  5
2DE78
330
1
100
AcDbSymbolTableRecord
100
AcDbBlockTableRecord
  2
*D9
340
0
  0
BLOCK_RECORD
  5
2DEA2
330
1
100
AcDbSymbolTableRecord
100
AcDbBlockTableRecord
  2
*D10
340
0
  0
BLOCK_RECORD
  5
2DF20
330
1
100
AcDbSymbolTableRecord
100
AcDbBlockTableRecord
  2
*D11
340
0
  0
BLOCK_RECORD
  5
2DF59
330
1
100
AcDbSymbolTableRecord
100
AcDbBlockTableRecord
  2
*D13
340
0
  0
BLOCK_RECORD
  5
2DFDA
330
1
100
AcDbSymbolTableRecord
100
AcDbBlockTableRecord
  2
*D14
340
0
  0
BLOCK_RECORD
  5
2E004
330
1
100
AcDbSymbolTableRecord
100
AcDbBlockTableRecord
  2
*D15
340
0
  0
BLOCK_RECORD
  5
2E052
330
1
100
AcDbSymbolTableRecord
100
AcDbBlockTableRecord
  2
*D16
340
0
  0
BLOCK_RECORD
  5
2E06A
330
1
100
AcDbSymbolTableRecord
100
AcDbBlockTableRecord
  2
*D17
340
0
  0
BLOCK_RECORD
  5
2E082
330
1
100
AcDbSymbolTableRecord
100
AcDbBlockTableRecord
  2
*D18
340
0
  0
BLOCK_RECORD
  5
2E0D5
330
1
100
AcDbSymbolTableRecord
100
AcDbBlockTableRecord
  2
GENDOT
340
0
102
{BLKREFS
331
2E1E6
331
2E1E7
102
}
  0
BLOCK_RECORD
  5
2E10F
330
1
100
AcDbSymbolTableRecord
100
AcDbBlockTableRecord
  2
*D20
340
0
  0
BLOCK_RECORD
  5
2E126
330
1
100
AcDbSymbolTableRecord
100
AcDbBlockTableRecord
  2
*D22
340
0
  0
ENDTAB
  0
ENDSEC
  0
SECTION
  2
BLOCKS
  0
BLOCK
  5
20
330
1F
100
AcDbEntity
  8
0
100
AcDbBlockBegin
  2
*Model_Space
 70
     0
 10
0.0
 20
0.0
 30
0.0
  3
*Model_Space
  1

  0
ENDBLK
  5
21
330
1F
100
AcDbEntity
  8
0
100
AcDbBlockEnd
  0
BLOCK
  5
1C
330
1B
100
AcDbEntity
 67
     1
  8
0
100
AcDbBlockBegin
  2
*Paper_Space
 70
     0
 10
0.0
 20
0.0
 30
0.0
  3
*Paper_Space
  1

  0
ENDBLK
  5
1D
330
1B
100
AcDbEntity
 67
     1
  8
0
100
AcDbBlockEnd
  0
BLOCK
  5
24
330
23
100
AcDbEntity
 67
     1
  8
0
100
AcDbBlockBegin
  2
*Paper_Space0
 70
     0
 10
0.0
 20
0.0
 30
0.0
  3
*Paper_Space0
  1

  0
ENDBLK
  5
25
330
23
100
AcDbEntity
 67
     1
  8
0
100
AcDbBlockEnd
  0
BLOCK
  5
74
330
72
100
AcDbEntity
  8
0
100
AcDbBlockBegin
  2
GENAXEH
 70
     0
 10
0.0
 20
0.0
 30
0.0
  3
GENAXEH
  1

  0
LINE
  5
73
330
72
100
AcDbEntity
  8
0
100
AcDbLine
 10
-1.0
 20
0.0
 30
0.0
 11
1.0
 21
0.0
 31
0.0
  0
ENDBLK
  5
75
330
72
100
AcDbEntity
  8
0
100
AcDbBlockEnd
  0
BLOCK
  5
6C7
330
6C4
100
AcDbEntity
  8
0
100
AcDbBlockBegin
  2
_Dot
 70
     0
 10
0.0
 20
0.0
 30
0.0
  3
_Dot
  1

  0
LWPOLYLINE
  5
6C5
330
6C4
100
AcDbEntity
  8
0
  6
ByBlock
 62
     0
100
AcDbPolyline
 90
        2
 70
     1
 43
0.5
 10
-0.25
 20
0.0
 42
1.0
 10
0.25
 20
0.0
 42
1.0
  0
LINE
  5
6C6
330
6C4
100
AcDbEntity
  8
0
  6
ByBlock
 62
     0
370
    -2
100
AcDbLine
 10
-0.5
 20
0.0
 30
0.0
 11
-1.0
 21
0.0
 31
0.0
  0
ENDBLK
  5
6C8
330
6C4
100
AcDbEntity
  8
0
100
AcDbBlockEnd
  0
BLOCK
  5
A6A
330
A66
100
AcDbEntity
  8
0
100
AcDbBlockBegin
  2
_OPEN30
 70
     0
 10
0.0
 20
0.0
 30
0.0
  3
_OPEN30
  1

  0
LINE
  5
A67
330
A66
100
AcDbEntity
  8
0
  6
ByBlock
 62
     0
100
AcDbLine
 10
-1.0
 20
0.26794919
 30
0.0
 11
0.0
 21
0.0
 31
0.0
  0
LINE
  5
A68
330
A66
100
AcDbEntity
  8
0
  6
ByBlock
 62
     0
100
AcDbLine
 10
0.0
 20
0.0
 30
0.0
 11
-1.0
 21
-0.26794919
 31
0.0
  0
LINE
  5
A69
330
A66
100
AcDbEntity
  8
0
  6
ByBlock
 62
     0
100
AcDbLine
 10
0.0
 20
0.0
 30
0.0
 11
-1.0
 21
0.0
 31
0.0
  0
ENDBLK
  5
A6B
330
A66
100
AcDbEntity
  8
0
100
AcDbBlockEnd
  0
BLOCK
  5
2D595
330
2D58B
100
AcDbEntity
  8
0
100
AcDbBlockBegin
  2
*D5
 70
     1
 10
0.0
 20
0.0
 30
0.0
  3
*D5
  1

  0
LINE
  5
2DF04
330
2D58B
100
AcDbEntity
  8
AM_5
100
AcDbLine
 10
741.0030828229122
 20
792.6173215069082
 30
0.0
 11
741.0030828229122
 21
779.517321506908
 31
0.0
  0
LINE
  5
2DF05
330
2D58B
100
AcDbEntity
  8
AM_5
100
AcDbLine
 10
607.0030928229122
 20
792.6173215069082
 30
0.0
 11
607.0030928229122
 21
779.517321506908
 31
0.0
  0
LINE
  5
2DF06
330
2D58B
100
AcDbEntity
  8
AM_5
100
AcDbLine
 10
740.0030828229122
 20
780.517321506908
 30
0.0
 11
608.0030928229121
 21
780.517321506908
 31
0.0
  0
INSERT
  5
2DF07
330
2D58B
100
AcDbEntity
  8
AM_5
100
AcDbBlockReference
  2
_Dot
 10
741.0030828229122
 20
780.517321506908
 30
0.0
  0
INSERT
  5
2DF08
330
2D58B
100
AcDbEntity
  8
AM_5
100
AcDbBlockReference
  2
_Dot
 10
607.0030928229122
 20
780.517321506908
 30
0.0
 50
180.0
  0
MTEXT
  5
2DF09
330
2D58B
100
AcDbEntity
  8
AM_5
 62
     2
100
AcDbMText
 10
674.0030878229122
 20
783.6173215069081
 30
0.0
 40
3.200000000000001
 41
0.0
 71
     5
 72
     1
  1
134
 73
     1
 44
1.0
1001
ACAD
1000
MTEXTBEGIN
1070
    73
1070
     1
1070
    44
1040
1.0
1070
    74
1070
     0
1000
MTEXTEND
  0
POINT
  5
2DF0A
330
2D58B
100
AcDbEntity
  8
Defpoints
 62
     0
100
AcDbPoint
 10
741.0030828229122
 20
793.6173215069081
 30
0.0
  0
POINT
  5
2DF0B
330
2D58B
100
AcDbEntity
  8
Defpoints
 62
     0
100
AcDbPoint
 10
607.0030928229122
 20
793.6173215069081
 30
0.0
  0
POINT
  5
2DF0C
330
2D58B
100
AcDbEntity
  8
Defpoints
 62
     0
100
AcDbPoint
 10
607.0030928229122
 20
780.517321506908
 30
0.0
  0
ENDBLK
  5
2D596
330
2D58B
100
AcDbEntity
  8
0
100
AcDbBlockEnd
  0
BLOCK
  5
2D5B6
330
2D5AC
100
AcDbEntity
  8
0
100
AcDbBlockBegin
  2
*D6
 70
     1
 10
0.0
 20
0.0
 30
0.0
  3
*D6
  1

  0
LINE
  5
2DF0D
330
2D5AC
100
AcDbEntity
  8
AM_5
100
AcDbLine
 10
607.5030928229121
 20
817.5173215069079
 30
0.0
 11
594.0030928229122
 21
817.5173215069079
 31
0.0
  0
LINE
  5
2DF0E
330
2D5AC
100
AcDbEntity
  8
AM_5
100
AcDbLine
 10
607.5030928229121
 20
792.517321506908
 30
0.0
 11
594.0030928229122
 21
792.517321506908
 31
0.0
  0
LINE
  5
2DF0F
330
2D5AC
100
AcDbEntity
  8
AM_5
100
AcDbLine
 10
595.0030928229121
 20
816.517321506908
 30
0.0
 11
595.0030928229121
 21
793.517321506908
 31
0.0
  0
INSERT
  5
2DF10
330
2D5AC
100
AcDbEntity
  8
AM_5
100
AcDbBlockReference
  2
_Dot
 10
595.0030928229121
 20
817.5173215069079
 30
0.0
 50
90.0
  0
INSERT
  5
2DF11
330
2D5AC
100
AcDbEntity
  8
AM_5
100
AcDbBlockReference
  2
_Dot
 10
595.0030928229121
 20
792.517321506908
 30
0.0
 50
270.0
  0
MTEXT
  5
2DF12
330
2D5AC
100
AcDbEntity
  8
AM_5
 62
     2
100
AcDbMText
 10
591.9030928229119
 20
805.0173215069081
 30
0.0
 40
3.200000000000001
 41
0.0
 71
     5
 72
     1
  1
25
 11
0.0000000000000001
 21
1.0
 31
0.0
 73
     1
 44
1.0
1001
ACAD
1000
MTEXTBEGIN
1070
    73
1070
     1
1070
    44
1040
1.0
1070
    74
1070
     0
1000
MTEXTEND
  0
POINT
  5
2DF13
330
2D5AC
100
AcDbEntity
  8
Defpoints
 62
     0
100
AcDbPoint
 10
608.5030928229122
 20
817.5173215069079
 30
0.0
  0
POINT
  5
2DF14
330
2D5AC
100
AcDbEntity
  8
Defpoints
 62
     0
100
AcDbPoint
 10
608.5030928229122
 20
792.517321506908
 30
0.0
  0
POINT
  5
2DF15
330
2D5AC
100
AcDbEntity
  8
Defpoints
 62
     0
100
AcDbPoint
 10
595.0030928229121
 20
792.517321506908
 30
0.0
  0
ENDBLK
  5
2D5B7
330
2D5AC
100
AcDbEntity
  8
0
100
AcDbBlockEnd
  0
BLOCK
  5
2D5D7
330
2D5CD
100
AcDbEntity
  8
0
100
AcDbBlockBegin
  2
*D7
 70
     1
 10
0.0
 20
0.0
 30
0.0
  3
*D7
  1

  0
LINE
  5
2DF16
330
2D5CD
100
AcDbEntity
  8
AM_5
100
AcDbLine
 10
741.0030828229122
 20
792.6173215069082
 30
0.0
 11
741.0030828229122
 21
779.5173215069079
 31
0.0
  0
LINE
  5
2DF17
330
2D5CD
100
AcDbEntity
  8
AM_5
100
AcDbLine
 10
791.0030828229122
 20
792.6173215069082
 30
0.0
 11
791.0030828229122
 21
779.5173215069079
 31
0.0
  0
LINE
  5
2DF18
330
2D5CD
100
AcDbEntity
  8
AM_5
100
AcDbLine
 10
742.0030828229122
 20
780.5173215069079
 30
0.0
 11
790.0030828229122
 21
780.5173215069079
 31
0.0
  0
INSERT
  5
2DF19
330
2D5CD
100
AcDbEntity
  8
AM_5
100
AcDbBlockReference
  2
_Dot
 10
741.0030828229122
 20
780.5173215069079
 30
0.0
 50
180.0
  0
INSERT
  5
2DF1A
330
2D5CD
100
AcDbEntity
  8
AM_5
100
AcDbBlockReference
  2
_Dot
 10
791.0030828229122
 20
780.5173215069079
 30
0.0
  0
MTEXT
  5
2DF1B
330
2D5CD
100
AcDbEntity
  8
AM_5
 62
     2
100
AcDbMText
 10
766.0030828229122
 20
783.6173215069079
 30
0.0
 40
3.200000000000001
 41
0.0
 71
     5
 72
     1
  1
ストローク:50
 73
     1
 44
1.0
1001
ACAD
1000
MTEXTBEGIN
1070
    73
1070
     1
1070
    44
1040
1.0
1070
    74
1070
     0
1000
MTEXTEND
  0
POINT
  5
2DF1C
330
2D5CD
100
AcDbEntity
  8
Defpoints
 62
     0
100
AcDbPoint
 10
741.0030828229122
 20
793.6173215069081
 30
0.0
  0
POINT
  5
2DF1D
330
2D5CD
100
AcDbEntity
  8
Defpoints
 62
     0
100
AcDbPoint
 10
791.0030828229122
 20
793.6173215069081
 30
0.0
  0
POINT
  5
2DF1E
330
2D5CD
100
AcDbEntity
  8
Defpoints
 62
     0
100
AcDbPoint
 10
791.0030828229122
 20
780.5173215069079
 30
0.0
  0
ENDBLK
  5
2D5D8
330
2D5CD
100
AcDbEntity
  8
0
100
AcDbBlockEnd
  0
BLOCK
  5
2DE58
330
2DE4E
100
AcDbEntity
  8
0
100
AcDbBlockBegin
  2
*D8
 70
     1
 10
0.0
 20
0.0
 30
0.0
  3
*D8
  1

  0
LINE
  5
2DEE9
330
2DE4E
100
AcDbEntity
  8
AM_5
100
AcDbLine
 10
669.0030528229121
 20
730.5891570514424
 30
0.0
 11
669.0030528229121
 21
754.5891570514424
 31
0.0
  0
LINE
  5
2DEEA
330
2DE4E
100
AcDbEntity
  8
AM_5
100
AcDbLine
 10
729.0030828229122
 20
730.5891570514424
 30
0.0
 11
729.0030828229122
 21
754.5891570514424
 31
0.0
  0
LINE
  5
2DEEB
330
2DE4E
100
AcDbEntity
  8
AM_5
100
AcDbLine
 10
670.003052822912
 20
753.5891570514423
 30
0.0
 11
728.0030828229122
 21
753.5891570514423
 31
0.0
  0
INSERT
  5
2DEEC
330
2DE4E
100
AcDbEntity
  8
AM_5
100
AcDbBlockReference
  2
_Dot
 10
669.0030528229121
 20
753.5891570514423
 30
0.0
 50
180.0
  0
INSERT
  5
2DEED
330
2DE4E
100
AcDbEntity
  8
AM_5
100
AcDbBlockReference
  2
_Dot
 10
729.0030828229122
 20
753.5891570514423
 30
0.0
  0
MTEXT
  5
2DEEE
330
2DE4E
100
AcDbEntity
  8
AM_5
 62
     2
100
AcDbMText
 10
699.0030678229121
 20
756.6891570514424
 30
0.0
 40
3.200000000000001
 41
0.0
 71
     5
 72
     1
  1
60
 73
     1
 44
1.0
1001
ACAD
1000
MTEXTBEGIN
1070
    73
1070
     1
1070
    44
1040
1.0
1070
    74
1070
     0
1000
MTEXTEND
  0
POINT
  5
2DEEF
330
2DE4E
100
AcDbEntity
  8
Defpoints
 62
     0
100
AcDbPoint
 10
669.0030528229121
 20
729.5891570514424
 30
0.0
  0
POINT
  5
2DEF0
330
2DE4E
100
AcDbEntity
  8
Defpoints
 62
     0
100
AcDbPoint
 10
729.0030828229122
 20
729.5891570514424
 30
0.0
  0
POINT
  5
2DEF1
330
2DE4E
100
AcDbEntity
  8
Defpoints
 62
     0
100
AcDbPoint
 10
729.0030828229122
 20
753.5891570514423
 30
0.0
  0
ENDBLK
  5
2DE59
330
2DE4E
100
AcDbEntity
  8
0
100
AcDbBlockEnd
  0
BLOCK
  5
2DE82
330
2DE78
100
AcDbEntity
  8
0
100
AcDbBlockBegin
  2
*D9
 70
     1
 10
0.0
 20
0.0
 30
0.0
  3
*D9
  1

  0
LINE
  5
2DEF2
330
2DE78
100
AcDbEntity
  8
AM_5
100
AcDbLine
 10
729.0030828229122
 20
730.5891570514424
 30
0.0
 11
729.0030828229122
 21
754.5891570514422
 31
0.0
  0
LINE
  5
2DEF3
330
2DE78
100
AcDbEntity
  8
AM_5
100
AcDbLine
 10
741.0030828229122
 20
741.4891570514424
 30
0.0
 11
741.0030828229122
 21
754.5891570514422
 31
0.0
  0
LINE
  5
2DEF4
330
2DE78
100
AcDbEntity
  8
AM_5
100
AcDbLine
 10
730.0030828229122
 20
753.5891570514422
 30
0.0
 11
740.0030828229122
 21
753.5891570514422
 31
0.0
  0
INSERT
  5
2DEF5
330
2DE78
100
AcDbEntity
  8
AM_5
100
AcDbBlockReference
  2
_Dot
 10
729.0030828229122
 20
753.5891570514422
 30
0.0
 50
180.0
  0
INSERT
  5
2DEF6
330
2DE78
100
AcDbEntity
  8
AM_5
100
AcDbBlockReference
  2
_Dot
 10
741.0030828229122
 20
753.5891570514422
 30
0.0
  0
MTEXT
  5
2DEF7
330
2DE78
100
AcDbEntity
  8
AM_5
 62
     2
100
AcDbMText
 10
735.0030828229122
 20
756.6891570514423
 30
0.0
 40
3.200000000000001
 41
0.0
 71
     5
 72
     1
  1
（12）
 73
     1
 44
1.0
1001
ACAD
1000
MTEXTBEGIN
1070
    73
1070
     1
1070
    44
1040
1.0
1070
    74
1070
     0
1000
MTEXTEND
  0
POINT
  5
2DEF8
330
2DE78
100
AcDbEntity
  8
Defpoints
 62
     0
100
AcDbPoint
 10
729.0030828229122
 20
729.5891570514424
 30
0.0
  0
POINT
  5
2DEF9
330
2DE78
100
AcDbEntity
  8
Defpoints
 62
     0
100
AcDbPoint
 10
741.0030828229122
 20
740.4891570514423
 30
0.0
  0
POINT
  5
2DEFA
330
2DE78
100
AcDbEntity
  8
Defpoints
 62
     0
100
AcDbPoint
 10
741.0030828229122
 20
753.5891570514422
 30
0.0
  0
ENDBLK
  5
2DE83
330
2DE78
100
AcDbEntity
  8
0
100
AcDbBlockEnd
  0
BLOCK
  5
2DEAC
330
2DEA2
100
AcDbEntity
  8
0
100
AcDbBlockBegin
  2
*D10
 70
     1
 10
0.0
 20
0.0
 30
0.0
  3
*D10
  1

  0
LINE
  5
2E1FD
330
2DEA2
100
AcDbEntity
  8
AM_5
100
AcDbLine
 10
677.0030828229122
 20
670.1891334514423
 30
0.0
 11
677.0030828229122
 21
644.1891334514423
 31
0.0
  0
LINE
  5
2E1FE
330
2DEA2
100
AcDbEntity
  8
AM_5
100
AcDbLine
 10
721.0030828229122
 20
670.1891334514423
 30
0.0
 11
721.0030828229122
 21
644.1891334514423
 31
0.0
  0
LINE
  5
2E1FF
330
2DEA2
100
AcDbEntity
  8
AM_5
100
AcDbLine
 10
678.0030828229122
 20
645.1891334514423
 30
0.0
 11
720.0030828229122
 21
645.1891334514423
 31
0.0
  0
INSERT
  5
2E200
330
2DEA2
100
AcDbEntity
  8
AM_5
100
AcDbBlockReference
  2
_Dot
 10
677.0030828229122
 20
645.1891334514423
 30
0.0
 50
180.0
  0
INSERT
  5
2E201
330
2DEA2
100
AcDbEntity
  8
AM_5
100
AcDbBlockReference
  2
_Dot
 10
721.0030828229122
 20
645.1891334514423
 30
0.0
  0
MTEXT
  5
2E202
330
2DEA2
100
AcDbEntity
  8
AM_5
 62
     2
100
AcDbMText
 10
699.0030828229122
 20
648.2891334514423
 30
0.0
 40
3.200000000000001
 41
0.0
 71
     5
 72
     1
  1
44
 73
     1
 44
1.0
1001
ACAD
1000
MTEXTBEGIN
1070
    73
1070
     1
1070
    44
1040
1.0
1070
    74
1070
     0
1000
MTEXTEND
  0
POINT
  5
2E203
330
2DEA2
100
AcDbEntity
  8
Defpoints
 62
     0
100
AcDbPoint
 10
677.0030828229122
 20
671.1891334514423
 30
0.0
  0
POINT
  5
2E204
330
2DEA2
100
AcDbEntity
  8
Defpoints
 62
     0
100
AcDbPoint
 10
721.0030828229122
 20
671.1891334514423
 30
0.0
  0
POINT
  5
2E205
330
2DEA2
100
AcDbEntity
  8
Defpoints
 62
     0
100
AcDbPoint
 10
721.0030828229122
 20
645.1891334514423
 30
0.0
  0
ENDBLK
  5
2DEAD
330
2DEA2
100
AcDbEntity
  8
0
100
AcDbBlockEnd
  0
BLOCK
  5
2DF2A
330
2DF20
100
AcDbEntity
  8
0
100
AcDbBlockBegin
  2
*D11
 70
     1
 10
0.0
 20
0.0
 30
0.0
  3
*D11
  1

  0
LINE
  5
2E024
330
2DF20
100
AcDbEntity
  8
AM_5
100
AcDbLine
 10
666.2530828229122
 20
606.8871495805516
 30
0.0
 11
666.2530828229122
 21
574.8871425805516
 31
0.0
  0
LINE
  5
2E025
330
2DF20
100
AcDbEntity
  8
AM_5
100
AcDbLine
 10
731.7530828229122
 20
606.8871495805516
 30
0.0
 11
731.7530828229122
 21
574.8871425805516
 31
0.0
  0
LINE
  5
2E026
330
2DF20
100
AcDbEntity
  8
AM_5
100
AcDbLine
 10
667.2530828229122
 20
575.8871425805516
 30
0.0
 11
730.7530828229122
 21
575.8871425805516
 31
0.0
  0
INSERT
  5
2E027
330
2DF20
100
AcDbEntity
  8
AM_5
100
AcDbBlockReference
  2
_Dot
 10
666.2530828229122
 20
575.8871425805516
 30
0.0
 50
180.0
  0
INSERT
  5
2E028
330
2DF20
100
AcDbEntity
  8
AM_5
100
AcDbBlockReference
  2
_Dot
 10
731.7530828229122
 20
575.8871425805516
 30
0.0
  0
MTEXT
  5
2E029
330
2DF20
100
AcDbEntity
  8
AM_5
 62
     2
100
AcDbMText
 10
699.0030828229122
 20
578.9871425805516
 30
0.0
 40
3.200000000000001
 41
0.0
 71
     5
 72
     1
  1
65.5
 73
     1
 44
1.0
1001
ACAD
1000
MTEXTBEGIN
1070
    73
1070
     1
1070
    44
1040
1.0
1070
    74
1070
     0
1000
MTEXTEND
  0
POINT
  5
2E02A
330
2DF20
100
AcDbEntity
  8
Defpoints
 62
     0
100
AcDbPoint
 10
666.2530828229122
 20
607.8871495805516
 30
0.0
  0
POINT
  5
2E02B
330
2DF20
100
AcDbEntity
  8
Defpoints
 62
     0
100
AcDbPoint
 10
731.7530828229122
 20
607.8871495805516
 30
0.0
  0
POINT
  5
2E02C
330
2DF20
100
AcDbEntity
  8
Defpoints
 62
     0
100
AcDbPoint
 10
731.7530828229122
 20
575.8871425805516
 30
0.0
  0
ENDBLK
  5
2DF2B
330
2DF20
100
AcDbEntity
  8
0
100
AcDbBlockEnd
  0
BLOCK
  5
2DF63
330
2DF59
100
AcDbEntity
  8
0
100
AcDbBlockBegin
  2
*D13
 70
     1
 10
0.0
 20
0.0
 30
0.0
  3
*D13
  1

  0
LINE
  5
2E2B4
330
2DF59
100
AcDbEntity
  8
AM_5
100
AcDbLine
 10
665.2530828229122
 20
632.8871345805517
 30
0.0
 11
653.2530828229122
 21
632.8871345805517
 31
0.0
  0
LINE
  5
2E2B5
330
2DF59
100
AcDbEntity
  8
AM_5
100
AcDbLine
 10
675.503052822912
 20
587.8871495805516
 30
0.0
 11
653.2530828229122
 21
587.8871495805516
 31
0.0
  0
LINE
  5
2E2B6
330
2DF59
100
AcDbEntity
  8
AM_5
100
AcDbLine
 10
654.2530828229122
 20
631.8871345805517
 30
0.0
 11
654.2530828229122
 21
588.8871495805516
 31
0.0
  0
INSERT
  5
2E2B7
330
2DF59
100
AcDbEntity
  8
AM_5
100
AcDbBlockReference
  2
_Dot
 10
654.2530828229122
 20
632.8871345805517
 30
0.0
 50
90.0
  0
INSERT
  5
2E2B8
330
2DF59
100
AcDbEntity
  8
AM_5
100
AcDbBlockReference
  2
_Dot
 10
654.2530828229122
 20
587.8871495805516
 30
0.0
 50
270.0
  0
MTEXT
  5
2E2B9
330
2DF59
100
AcDbEntity
  8
AM_5
 62
     2
100
AcDbMText
 10
651.1530828229121
 20
610.3871420805517
 30
0.0
 40
3.200000000000001
 41
0.0
 71
     5
 72
     1
  1
45
 11
0.0000000000000001
 21
1.0
 31
0.0
 73
     1
 44
1.0
1001
ACAD
1000
MTEXTBEGIN
1070
    73
1070
     1
1070
    44
1040
1.0
1070
    74
1070
     0
1000
MTEXTEND
  0
POINT
  5
2E2BA
330
2DF59
100
AcDbEntity
  8
Defpoints
 62
     0
100
AcDbPoint
 10
666.2530828229122
 20
632.8871345805517
 30
0.0
  0
POINT
  5
2E2BB
330
2DF59
100
AcDbEntity
  8
Defpoints
 62
     0
100
AcDbPoint
 10
676.5030528229121
 20
587.8871495805516
 30
0.0
  0
POINT
  5
2E2BC
330
2DF59
100
AcDbEntity
  8
Defpoints
 62
     0
100
AcDbPoint
 10
654.2530828229122
 20
587.8871495805516
 30
0.0
  0
ENDBLK
  5
2DF64
330
2DF59
100
AcDbEntity
  8
0
100
AcDbBlockEnd
  0
BLOCK
  5
2DFE4
330
2DFDA
100
AcDbEntity
  8
0
100
AcDbBlockBegin
  2
*D14
 70
     1
 10
0.0
 20
0.0
 30
0.0
  3
*D14
  1

  0
LINE
  5
2E13A
330
2DFDA
100
AcDbEntity
  8
AM_5
100
AcDbLine
 10
834.621419951061
 20
606.8871345805517
 30
0.0
 11
834.621419951061
 21
574.8871425805512
 31
0.0
  0
LINE
  5
2E13B
330
2DFDA
100
AcDbEntity
  8
AM_5
100
AcDbLine
 10
814.0914209510611
 20
609.3871345805516
 30
0.0
 11
814.0914209510611
 21
574.8871425805512
 31
0.0
  0
LINE
  5
2E13C
330
2DFDA
100
AcDbEntity
  8
AM_5
100
AcDbLine
 10
833.621419951061
 20
575.8871425805511
 30
0.0
 11
815.0914209510611
 21
575.8871425805511
 31
0.0
  0
INSERT
  5
2E13D
330
2DFDA
100
AcDbEntity
  8
AM_5
100
AcDbBlockReference
  2
_Dot
 10
834.621419951061
 20
575.8871425805511
 30
0.0
  0
INSERT
  5
2E13E
330
2DFDA
100
AcDbEntity
  8
AM_5
100
AcDbBlockReference
  2
_Dot
 10
814.0914209510611
 20
575.8871425805511
 30
0.0
 50
180.0
  0
MTEXT
  5
2E13F
330
2DFDA
100
AcDbEntity
  8
AM_5
 62
     2
100
AcDbMText
 10
824.3564204510612
 20
578.9871425805512
 30
0.0
 40
3.200000000000001
 41
0.0
 71
     5
 72
     1
  1
20.5
 73
     1
 44
1.0
1001
ACAD
1000
MTEXTBEGIN
1070
    73
1070
     1
1070
    44
1040
1.0
1070
    74
1070
     0
1000
MTEXTEND
  0
POINT
  5
2E140
330
2DFDA
100
AcDbEntity
  8
Defpoints
 62
     0
100
AcDbPoint
 10
834.621419951061
 20
607.8871345805517
 30
0.0
  0
POINT
  5
2E141
330
2DFDA
100
AcDbEntity
  8
Defpoints
 62
     0
100
AcDbPoint
 10
814.0914209510611
 20
610.3871345805516
 30
0.0
  0
POINT
  5
2E142
330
2DFDA
100
AcDbEntity
  8
Defpoints
 62
     0
100
AcDbPoint
 10
814.0914209510611
 20
575.8871425805511
 30
0.0
  0
ENDBLK
  5
2DFE5
330
2DFDA
100
AcDbEntity
  8
0
100
AcDbBlockEnd
  0
BLOCK
  5
2E00E
330
2E004
100
AcDbEntity
  8
0
100
AcDbBlockBegin
  2
*D15
 70
     1
 10
0.0
 20
0.0
 30
0.0
  3
*D15
  1

  0
LINE
  5
2E143
330
2E004
100
AcDbEntity
  8
AM_5
100
AcDbLine
 10
834.621419951061
 20
606.8871345805517
 30
0.0
 11
834.621419951061
 21
564.8871425805506
 31
0.0
  0
LINE
  5
2E144
330
2E004
100
AcDbEntity
  8
AM_5
100
AcDbLine
 10
809.0913909510611
 20
586.8871345805517
 30
0.0
 11
809.0913909510611
 21
564.8871425805506
 31
0.0
  0
LINE
  5
2E145
330
2E004
100
AcDbEntity
  8
AM_5
100
AcDbLine
 10
833.621419951061
 20
565.8871425805506
 30
0.0
 11
810.0913909510611
 21
565.8871425805506
 31
0.0
  0
INSERT
  5
2E146
330
2E004
100
AcDbEntity
  8
AM_5
100
AcDbBlockReference
  2
_Dot
 10
834.621419951061
 20
565.8871425805506
 30
0.0
  0
INSERT
  5
2E147
330
2E004
100
AcDbEntity
  8
AM_5
100
AcDbBlockReference
  2
_Dot
 10
809.0913909510611
 20
565.8871425805506
 30
0.0
 50
180.0
  0
MTEXT
  5
2E148
330
2E004
100
AcDbEntity
  8
AM_5
 62
     2
100
AcDbMText
 10
821.856405451061
 20
568.9871425805506
 30
0.0
 40
3.200000000000001
 41
0.0
 71
     5
 72
     1
  1
25.5
 73
     1
 44
1.0
1001
ACAD
1000
MTEXTBEGIN
1070
    73
1070
     1
1070
    44
1040
1.0
1070
    74
1070
     0
1000
MTEXTEND
  0
POINT
  5
2E149
330
2E004
100
AcDbEntity
  8
Defpoints
 62
     0
100
AcDbPoint
 10
834.621419951061
 20
607.8871345805517
 30
0.0
  0
POINT
  5
2E14A
330
2E004
100
AcDbEntity
  8
Defpoints
 62
     0
100
AcDbPoint
 10
809.0913909510611
 20
587.8871345805516
 30
0.0
  0
POINT
  5
2E14B
330
2E004
100
AcDbEntity
  8
Defpoints
 62
     0
100
AcDbPoint
 10
809.0913909510611
 20
565.8871425805506
 30
0.0
  0
ENDBLK
  5
2E00F
330
2E004
100
AcDbEntity
  8
0
100
AcDbBlockEnd
  0
BLOCK
  5
2E05C
330
2E052
100
AcDbEntity
  8
0
100
AcDbBlockBegin
  2
*D16
 70
     1
 10
0.0
 20
0.0
 30
0.0
  3
*D16
  1

  0
LINE
  5
2E14C
330
2E052
100
AcDbEntity
  8
AM_5
100
AcDbLine
 10
851.621419951061
 20
615.3871345805517
 30
0.0
 11
851.621419951061
 21
564.8871425805505
 31
0.0
  0
LINE
  5
2E14D
330
2E052
100
AcDbEntity
  8
AM_5
100
AcDbLine
 10
874.621419951061
 20
609.3871345805516
 30
0.0
 11
874.621419951061
 21
564.8871425805505
 31
0.0
  0
LINE
  5
2E14E
330
2E052
100
AcDbEntity
  8
AM_5
100
AcDbLine
 10
852.621419951061
 20
565.8871425805505
 30
0.0
 11
873.6214199510611
 21
565.8871425805505
 31
0.0
  0
INSERT
  5
2E14F
330
2E052
100
AcDbEntity
  8
AM_5
100
AcDbBlockReference
  2
_Dot
 10
851.621419951061
 20
565.8871425805505
 30
0.0
 50
180.0
  0
INSERT
  5
2E150
330
2E052
100
AcDbEntity
  8
AM_5
100
AcDbBlockReference
  2
_Dot
 10
874.621419951061
 20
565.8871425805505
 30
0.0
  0
MTEXT
  5
2E151
330
2E052
100
AcDbEntity
  8
AM_5
 62
     2
100
AcDbMText
 10
863.121419951061
 20
568.9871425805505
 30
0.0
 40
3.200000000000001
 41
0.0
 71
     5
 72
     1
  1
23
 73
     1
 44
1.0
1001
ACAD
1000
MTEXTBEGIN
1070
    73
1070
     1
1070
    44
1040
1.0
1070
    74
1070
     0
1000
MTEXTEND
  0
POINT
  5
2E152
330
2E052
100
AcDbEntity
  8
Defpoints
 62
     0
100
AcDbPoint
 10
851.621419951061
 20
616.3871345805516
 30
0.0
  0
POINT
  5
2E153
330
2E052
100
AcDbEntity
  8
Defpoints
 62
     0
100
AcDbPoint
 10
874.621419951061
 20
610.3871345805516
 30
0.0
  0
POINT
  5
2E154
330
2E052
100
AcDbEntity
  8
Defpoints
 62
     0
100
AcDbPoint
 10
874.621419951061
 20
565.8871425805505
 30
0.0
  0
ENDBLK
  5
2E05D
330
2E052
100
AcDbEntity
  8
0
100
AcDbBlockEnd
  0
BLOCK
  5
2E074
330
2E06A
100
AcDbEntity
  8
0
100
AcDbBlockBegin
  2
*D17
 70
     1
 10
0.0
 20
0.0
 30
0.0
  3
*D17
  1

  0
LINE
  5
2E155
330
2E06A
100
AcDbEntity
  8
AM_5
100
AcDbLine
 10
881.616292951061
 20
608.3871495805516
 30
0.0
 11
881.616292951061
 21
574.8871425805504
 31
0.0
  0
LINE
  5
2E156
330
2E06A
100
AcDbEntity
  8
AM_5
100
AcDbLine
 10
893.616277951061
 20
608.3871495805516
 30
0.0
 11
893.616277951061
 21
574.8871425805504
 31
0.0
  0
LINE
  5
2E157
330
2E06A
100
AcDbEntity
  8
AM_5
100
AcDbLine
 10
882.6162929510612
 20
575.8871425805505
 30
0.0
 11
892.616277951061
 21
575.8871425805505
 31
0.0
  0
INSERT
  5
2E158
330
2E06A
100
AcDbEntity
  8
AM_5
100
AcDbBlockReference
  2
_Dot
 10
881.616292951061
 20
575.8871425805505
 30
0.0
 50
180.0
  0
INSERT
  5
2E159
330
2E06A
100
AcDbEntity
  8
AM_5
100
AcDbBlockReference
  2
_Dot
 10
893.616277951061
 20
575.8871425805505
 30
0.0
  0
MTEXT
  5
2E15A
330
2E06A
100
AcDbEntity
  8
AM_5
 62
     2
100
AcDbMText
 10
887.616285451061
 20
578.9871425805505
 30
0.0
 40
3.200000000000001
 41
0.0
 71
     5
 72
     1
  1
12
 73
     1
 44
1.0
1001
ACAD
1000
MTEXTBEGIN
1070
    73
1070
     1
1070
    44
1040
1.0
1070
    74
1070
     0
1000
MTEXTEND
  0
POINT
  5
2E15B
330
2E06A
100
AcDbEntity
  8
Defpoints
 62
     0
100
AcDbPoint
 10
881.616292951061
 20
609.3871495805516
 30
0.0
  0
POINT
  5
2E15C
330
2E06A
100
AcDbEntity
  8
Defpoints
 62
     0
100
AcDbPoint
 10
893.616277951061
 20
609.3871495805516
 30
0.0
  0
POINT
  5
2E15D
330
2E06A
100
AcDbEntity
  8
Defpoints
 62
     0
100
AcDbPoint
 10
893.616277951061
 20
575.8871425805505
 30
0.0
  0
ENDBLK
  5
2E075
330
2E06A
100
AcDbEntity
  8
0
100
AcDbBlockEnd
  0
BLOCK
  5
2E08C
330
2E082
100
AcDbEntity
  8
0
100
AcDbBlockBegin
  2
*D18
 70
     1
 10
0.0
 20
0.0
 30
0.0
  3
*D18
  1

  0
LINE
  5
2E167
330
2E082
100
AcDbEntity
  8
AM_5
100
AcDbLine
 10
874.621419951061
 20
608.3871345805516
 30
0.0
 11
874.621419951061
 21
564.8871425805505
 31
0.0
  0
LINE
  5
2E168
330
2E082
100
AcDbEntity
  8
AM_5
100
AcDbLine
 10
893.616277951061
 20
607.3871495805516
 30
0.0
 11
893.616277951061
 21
564.8871425805505
 31
0.0
  0
LINE
  5
2E169
330
2E082
100
AcDbEntity
  8
AM_5
100
AcDbLine
 10
875.621419951061
 20
565.8871425805505
 30
0.0
 11
892.616277951061
 21
565.8871425805505
 31
0.0
  0
INSERT
  5
2E16A
330
2E082
100
AcDbEntity
  8
AM_5
100
AcDbBlockReference
  2
_Dot
 10
874.621419951061
 20
565.8871425805505
 30
0.0
 50
180.0
  0
INSERT
  5
2E16B
330
2E082
100
AcDbEntity
  8
AM_5
100
AcDbBlockReference
  2
_Dot
 10
893.616277951061
 20
565.8871425805505
 30
0.0
  0
MTEXT
  5
2E16C
330
2E082
100
AcDbEntity
  8
AM_5
 62
     2
100
AcDbMText
 10
884.118848951061
 20
568.9871425805505
 30
0.0
 40
3.200000000000001
 41
0.0
 71
     5
 72
     1
  1
（19）
 73
     1
 44
1.0
1001
ACAD
1000
MTEXTBEGIN
1070
    73
1070
     1
1070
    44
1040
1.0
1070
    74
1070
     0
1000
MTEXTEND
  0
POINT
  5
2E16D
330
2E082
100
AcDbEntity
  8
Defpoints
 62
     0
100
AcDbPoint
 10
874.621419951061
 20
609.3871345805516
 30
0.0
  0
POINT
  5
2E16E
330
2E082
100
AcDbEntity
  8
Defpoints
 62
     0
100
AcDbPoint
 10
893.616277951061
 20
608.3871495805516
 30
0.0
  0
POINT
  5
2E16F
330
2E082
100
AcDbEntity
  8
Defpoints
 62
     0
100
AcDbPoint
 10
893.616277951061
 20
565.8871425805505
 30
0.0
  0
ENDBLK
  5
2E08D
330
2E082
100
AcDbEntity
  8
0
100
AcDbBlockEnd
  0
BLOCK
  5
2E0D6
330
2E0D5
100
AcDbEntity
  8
0
100
AcDbBlockBegin
  2
GENDOT
 70
     0
 10
0.0
 20
0.0
 30
0.0
  3
GENDOT
  1

  0
LINE
  5
2E0D7
330
2E0D5
100
AcDbEntity
  8
0
100
AcDbLine
 10
0.0
 20
0.0
 30
0.0
 11
-1.0
 21
0.0
 31
0.0
  0
LWPOLYLINE
  5
2E0D8
330
2E0D5
100
AcDbEntity
  8
0
100
AcDbPolyline
 90
        2
 70
     1
 43
0.25
 10
-0.125
 20
0.0
 42
1.0
 10
0.125
 20
0.0
 42
1.0
  0
ENDBLK
  5
2E0D9
330
2E0D5
100
AcDbEntity
  8
0
100
AcDbBlockEnd
  0
BLOCK
  5
2E118
330
2E10F
100
AcDbEntity
  8
0
100
AcDbBlockBegin
  2
*D20
 70
     1
 10
0.0
 20
0.0
 30
0.0
  3
*D20
  1

  0
LINE
  5
2E1E3
330
2E10F
100
AcDbEntity
  8
AM_5
100
AcDbLine
 10
844.004729230925
 20
683.831680637557
 30
0.0
 11
840.8998830648156
 21
688.9658729094526
 31
0.0
  0
LINE
  5
2E1E4
330
2E10F
100
AcDbEntity
  8
AM_5
100
AcDbLine
 10
839.864934342779
 20
690.6772703334179
 30
0.0
 11
835.9900387489076
 21
697.0848209649477
 31
0.0
  0
LINE
  5
2E1E5
330
2E10F
100
AcDbEntity
  8
AM_5
100
AcDbLine
 10
835.9900387489076
 20
697.0848209649477
 30
0.0
 11
822.9400387489077
 21
697.0848209649479
 31
0.0
  0
INSERT
  5
2E1E6
330
2E10F
100
AcDbEntity
  8
AM_5
100
AcDbBlockReference
  2
GENDOT
 10
845.0396779529615
 20
682.1202832135918
 30
0.0
 41
2.0
 42
2.0
 43
2.0
 50
301.1629886009997
  0
INSERT
  5
2E1E7
330
2E10F
100
AcDbEntity
  8
AM_5
100
AcDbBlockReference
  2
GENDOT
 10
839.864934342779
 20
690.6772703334179
 30
0.0
 41
2.0
 42
2.0
 43
2.0
 50
121.1629886009996
  0
MTEXT
  5
2E1E8
330
2E10F
100
AcDbEntity
  8
AM_5
 62
     2
100
AcDbMText
 10
828.7150387489075
 20
700.3348209649478
 30
0.0
 40
3.5
 41
0.0
 71
     5
 72
     1
  1
3-\U+220510
 73
     1
 44
1.0
1001
ACAD
1000
MTEXTBEGIN
1070
    73
1070
     1
1070
    44
1040
1.0
1070
    74
1070
     0
1000
MTEXTEND
  0
POINT
  5
2E1E9
330
2E10F
100
AcDbEntity
  8
Defpoints
 62
     0
100
AcDbPoint
 10
839.864934342779
 20
690.6772703334179
 30
0.0
  0
POINT
  5
2E1EA
330
2E10F
100
AcDbEntity
  8
Defpoints
 62
     0
100
AcDbPoint
 10
845.0396779529615
 20
682.1202832135918
 30
0.0
  0
ENDBLK
  5
2E119
330
2E10F
100
AcDbEntity
  8
0
100
AcDbBlockEnd
  0
BLOCK
  5
2E130
330
2E126
100
AcDbEntity
  8
0
100
AcDbBlockBegin
  2
*D22
 70
     1
 10
0.0
 20
0.0
 30
0.0
  3
*D22
  1

  0
LINE
  5
2E2BD
330
2E126
100
AcDbEntity
  8
AM_5
100
AcDbLine
 10
886.4523061478708
 20
676.3987767735049
 30
0.0
 11
886.4523061478708
 21
664.3987767735043
 31
0.0
  0
LINE
  5
2E2BE
330
2E126
100
AcDbEntity
  8
AM_5
100
AcDbLine
 10
842.4523061478708
 20
676.3987767735049
 30
0.0
 11
842.4523061478708
 21
664.3987767735043
 31
0.0
  0
LINE
  5
2E2BF
330
2E126
100
AcDbEntity
  8
AM_5
100
AcDbLine
 10
885.4523061478708
 20
665.3987767735043
 30
0.0
 11
843.4523061478708
 21
665.3987767735043
 31
0.0
  0
INSERT
  5
2E2C0
330
2E126
100
AcDbEntity
  8
AM_5
100
AcDbBlockReference
  2
_Dot
 10
886.4523061478708
 20
665.3987767735043
 30
0.0
  0
INSERT
  5
2E2C1
330
2E126
100
AcDbEntity
  8
AM_5
100
AcDbBlockReference
  2
_Dot
 10
842.4523061478708
 20
665.3987767735043
 30
0.0
 50
180.0
  0
MTEXT
  5
2E2C2
330
2E126
100
AcDbEntity
  8
AM_5
 62
     2
100
AcDbMText
 10
864.4523061478707
 20
668.4987767735043
 30
0.0
 40
3.200000000000001
 41
0.0
 71
     5
 72
     1
  1
44
 73
     1
 44
1.0
1001
ACAD
1000
MTEXTBEGIN
1070
    73
1070
     1
1070
    44
1040
1.0
1070
    74
1070
     0
1000
MTEXTEND
  0
POINT
  5
2E2C3
330
2E126
100
AcDbEntity
  8
Defpoints
 62
     0
100
AcDbPoint
 10
886.4523061478708
 20
677.398776773505
 30
0.0
  0
POINT
  5
2E2C4
330
2E126
100
AcDbEntity
  8
Defpoints
 62
     0
100
AcDbPoint
 10
842.4523061478708
 20
677.398776773505
 30
0.0
  0
POINT
  5
2E2C5
330
2E126
100
AcDbEntity
  8
Defpoints
 62
     0
100
AcDbPoint
 10
842.4523061478708
 20
665.3987767735043
 30
0.0
  0
ENDBLK
  5
2E131
330
2E126
100
AcDbEntity
  8
0
100
AcDbBlockEnd
  0
ENDSEC
  0
SECTION
  2
ENTITIES
  0
LINE
  5
2A70B
330
1F
100
AcDbEntity
  8
AM_0
100
AcDbLine
 10
844.1080508618203
 20
834.4811031702104
 30
0.0
 11
938.677562357239
 21
834.4811031702104
 31
0.0
  0
LINE
  5
2A70D
330
1F
100
AcDbEntity
  8
AM_2
100
AcDbLine
 10
867.1080508618205
 20
778.4811031702103
 30
0.0
 11
938.677562357239
 21
778.4811031702103
 31
0.0
  0
LINE
  5
2A70E
330
1F
100
AcDbEntity
  8
AM_2
100
AcDbLine
 10
867.1080508618203
 20
794.4811031702101
 30
0.0
 11
938.677562357239
 21
794.4811031702101
 31
0.0
  0
LINE
  5
2A710
330
1F
100
AcDbEntity
  8
AM_2
100
AcDbLine
 10
844.1080508618203
 20
802.48110317021
 30
0.0
 11
938.677562357239
 21
802.48110317021
 31
0.0
  0
LINE
  5
2A711
330
1F
100
AcDbEntity
  8
AM_2
100
AcDbLine
 10
844.1080508618203
 20
810.4811031702103
 30
0.0
 11
938.677562357239
 21
810.4811031702103
 31
0.0
  0
LINE
  5
2A712
330
1F
100
AcDbEntity
  8
AM_2
100
AcDbLine
 10
844.1080508618203
 20
818.4811031702103
 30
0.0
 11
938.677562357239
 21
818.4811031702103
 31
0.0
  0
LINE
  5
2A713
330
1F
100
AcDbEntity
  8
AM_2
100
AcDbLine
 10
844.1080508618203
 20
826.4811031702103
 30
0.0
 11
938.677562357239
 21
826.4811031702103
 31
0.0
  0
LINE
  5
2A714
330
1F
100
AcDbEntity
  8
AM_0
100
AcDbLine
 10
844.1080508618203
 20
834.4811031702104
 30
0.0
 11
844.1080508618204
 21
770.4811031702101
 31
0.0
  0
LINE
  5
2A716
330
1F
100
AcDbEntity
  8
AM_2
100
AcDbLine
 10
867.1080508618203
 20
834.4811031702104
 30
0.0
 11
867.1080508618205
 21
770.4811031702107
 31
0.0
  0
MTEXT
  5
2A71A
330
1F
100
AcDbEntity
  8
AM_6
100
AcDbMText
 10
855.6080508618203
 20
806.4811031702102
 30
0.0
 40
3.2
 41
23.0
 71
     5
 72
     5
  1
仕上げ
 73
     1
 44
1.0
1001
ACAD
1000
MTEXTBEGIN
1070
    73
1070
     1
1070
    44
1040
1.0
1070
    74
1070
     0
1000
MTEXTEND
  0
MTEXT
  5
2A71C
330
1F
100
AcDbEntity
  8
AM_6
100
AcDbMText
 10
855.6080508618203
 20
814.4811031702101
 30
0.0
 40
3.2
 41
23.0
 71
     5
 72
     5
  1
材質
 73
     1
 44
1.0
1001
ACAD
1000
MTEXTBEGIN
1070
    73
1070
     1
1070
    44
1040
1.0
1070
    74
1070
     0
1000
MTEXTEND
  0
MTEXT
  5
2A71D
330
1F
100
AcDbEntity
  8
AM_6
100
AcDbMText
 10
855.6080508618203
 20
830.4811031702101
 30
0.0
 40
3.2
 41
23.0
 71
     5
 72
     5
  1
品名
 73
     1
 44
1.0
1001
ACAD
1000
MTEXTBEGIN
1070
    73
1070
     1
1070
    44
1040
1.0
1070
    74
1070
     0
1000
MTEXTEND
  0
MTEXT
  5
2A71E
330
1F
100
AcDbEntity
  8
AM_6
100
AcDbMText
 10
855.6080508618203
 20
822.4811031702101
 30
0.0
 40
3.2
 41
23.0
 71
     5
 72
     5
  1
品番
 73
     1
 44
1.0
1001
ACAD
1000
MTEXTBEGIN
1070
    73
1070
     1
1070
    44
1040
1.0
1070
    74
1070
     0
1000
MTEXTEND
  0
MTEXT
  5
2A71F
330
1F
100
AcDbEntity
  8
AM_6
100
AcDbMText
 10
867.1080508618203
 20
806.4811031702102
 30
0.0
 40
3.2
 41
90.0
 71
     4
 72
     5
  1
　ヘアーライン
 73
     1
 44
1.0
1001
ACAD
1000
MTEXTBEGIN
1070
    73
1070
     1
1070
    44
1040
1.0
1070
    74
1070
     0
1000
MTEXTEND
  0
MTEXT
  5
2A721
330
1F
100
AcDbEntity
  8
AM_6
100
AcDbMText
 10
867.1080508618203
 20
814.4811031702101
 30
0.0
 40
3.2
 41
90.0
 71
     4
 72
     5
  1
　ステンレス
 73
     1
 44
1.0
1001
ACAD
1000
MTEXTBEGIN
1070
    73
1070
     1
1070
    44
1040
1.0
1070
    74
1070
     0
1000
MTEXTEND
  0
MTEXT
  5
2A722
330
1F
100
AcDbEntity
  8
AM_6
100
AcDbMText
 10
867.1080508618203
 20
822.4811031702101
 30
0.0
 40
3.2
 41
90.0
 71
     4
 72
     5
  1
　LB-522
 73
     1
 44
1.0
1001
ACAD
1000
MTEXTBEGIN
1070
    73
1070
     1
1070
    44
1040
1.0
1070
    74
1070
     0
1000
MTEXTEND
  0
MTEXT
  5
2A723
330
1F
100
AcDbEntity
  8
AM_6
100
AcDbMText
 10
867.1080508618203
 20
830.4811031702101
 30
0.0
 40
3.2
 41
90.0
 71
     4
 72
     5
  1
　スライドラッチ
 73
     1
 44
1.0
1001
ACAD
1000
MTEXTBEGIN
1070
    73
1070
     1
1070
    44
1040
1.0
1070
    74
1070
     0
1000
MTEXTEND
  0
MTEXT
  5
2A768
330
1F
100
AcDbEntity
  8
AM_6
100
AcDbMText
 10
855.6080508618205
 20
794.4811031702101
 30
0.0
 40
3.2
 41
23.00000000000023
 71
     5
 72
     5
  1
セットビス
 73
     1
 44
1.0
1001
ACAD
1000
MTEXTBEGIN
1070
    73
1070
     1
1070
    44
1040
1.0
1070
    74
1070
     0
1000
MTEXTEND
1000
ACAD_MTEXT_DEFINED_HEIGHT_BEGIN
1070
    46
1040
15.99999999999973
1000
ACAD_MTEXT_DEFINED_HEIGHT_END
  0
MTEXT
  5
2A76B
330
1F
100
AcDbEntity
  8
AM_6
100
AcDbMText
 10
855.6080508618203
 20
778.4811031702104
 30
0.0
 40
3.2
 41
23.00000000000023
 71
     5
 72
     5
  1
備考
 73
     1
 44
1.0
1001
ACAD
1000
MTEXTBEGIN
1070
    73
1070
     1
1070
    44
1040
1.0
1070
    74
1070
     0
1000
MTEXTEND
1000
ACAD_MTEXT_DEFINED_HEIGHT_BEGIN
1070
    46
1040
15.99999999999962
1000
ACAD_MTEXT_DEFINED_HEIGHT_END
  0
MTEXT
  5
2A76C
330
1F
100
AcDbEntity
  8
AM_6
100
AcDbMText
 10
867.1080508618203
 20
782.4811031702103
 30
0.0
 40
3.2
 41
90.0
 71
     4
 72
     5
  1
　ゴムシート　t=1.0 　１枚
 73
     1
 44
1.0
1001
ACAD
1000
MTEXTBEGIN
1070
    73
1070
     1
1070
    44
1040
1.0
1070
    74
1070
     0
1000
MTEXTEND
  0
LINE
  5
2A798
330
1F
100
AcDbEntity
  8
AM_0
100
AcDbLine
 10
844.1080508618204
 20
770.4811031702101
 30
0.0
 11
938.677562357239
 21
770.4811031702101
 31
0.0
  0
TEXT
  5
2CB67
330
1F
100
AcDbEntity
  8
AM_6
 60
     1
100
AcDbText
 10
938.6775623572388
 20
554.4811031702102
 30
0.0
 40
2.5
  1
!GENTITLE-INSERT
100
AcDbText
  0
TEXT
  5
2CB68
330
1F
100
AcDbEntity
  8
AM_6
 60
     1
100
AcDbText
 10
530.177562357239
 20
545.9811031702098
 30
0.0
 40
2.5
  1
!GENTITLE-LL
100
AcDbText
  0
TEXT
  5
2CB69
330
1F
100
AcDbEntity
  8
AM_6
 60
     1
100
AcDbText
 10
950.177562357239
 20
842.9811031702101
 30
0.0
 40
2.5
  1
!GENTITLE-RU
100
AcDbText
  0
TEXT
  5
2CB6A
330
1F
100
AcDbEntity
  8
AM_6
 60
     1
100
AcDbText
 10
950.177562357239
 20
842.9811031702101
 30
0.0
 40
2.5
  1
!GENTITLE-MAX
100
AcDbText
  0
LINE
  5
2CB6C
330
1F
100
AcDbEntity
  8
size
100
AcDbLine
 10
530.177562357239
 20
545.9811031702098
 30
0.0
 11
950.177562357239
 21
545.9811031702098
 31
0.0
1001
GENIUS_GENREC_14
1002
{
1000
PYDIR
1011
530.177562357239
1021
842.9811031702101
1031
0.0
1002
}
1002
{
1000
PXDIR
1011
950.177562357239
1021
545.9811031702098
1031
0.0
1002
}
1002
{
1000
PORI
1011
530.177562357239
1021
545.9811031702098
1031
0.0
1002
}
1002
{
1000
PINS
1011
740.177562357239
1021
694.4811031702101
1031
0.0
1002
}
1002
{
1000
HVAL
1000
297
1002
}
1002
{
1000
H
1070
     2
1002
}
1002
{
1000
WVAL
1000
420
1002
}
1002
{
1000
W
1070
     2
1002
}
1002
{
1000
C
1070
     4
1002
}
1001
GENIUS_GENOBJ-N-REC_13
1002
{
1000
OWNER
1000
GEN
1002
}
1001
GENIUS_GENODEF_13
1002
{
1000
HIER
1070
     0
1002
}
1002
{
1000
MANEDIT
1070
     0
1002
}
1002
{
1000
NOSEL
1070
     0
1002
}
1002
{
1000
BEHIND
1070
     0
1002
}
1002
{
1000
OTHER
1070
     0
1002
}
1002
{
1000
REACTOR
1002
}
  0
LINE
  5
2CB6D
330
1F
100
AcDbEntity
  8
size
100
AcDbLine
 10
950.177562357239
 20
545.9811031702098
 30
0.0
 11
950.177562357239
 21
842.9811031702101
 31
0.0
1001
GENIUS_GENREC_14
1002
{
1000
PYDIR
1011
530.177562357239
1021
842.9811031702101
1031
0.0
1002
}
1002
{
1000
PXDIR
1011
950.177562357239
1021
545.9811031702098
1031
0.0
1002
}
1002
{
1000
PORI
1011
530.177562357239
1021
545.9811031702098
1031
0.0
1002
}
1002
{
1000
PINS
1011
740.177562357239
1021
694.4811031702101
1031
0.0
1002
}
1002
{
1000
HVAL
1000
297
1002
}
1002
{
1000
H
1070
     2
1002
}
1002
{
1000
WVAL
1000
420
1002
}
1002
{
1000
W
1070
     2
1002
}
1002
{
1000
C
1070
     4
1002
}
1001
GENIUS_GENOBJ-N-REC_13
1002
{
1000
OWNER
1000
GEN
1002
}
1001
GENIUS_GENODEF_13
1002
{
1000
HIER
1070
     0
1002
}
1002
{
1000
MANEDIT
1070
     0
1002
}
1002
{
1000
NOSEL
1070
     0
1002
}
1002
{
1000
BEHIND
1070
     0
1002
}
1002
{
1000
OTHER
1070
     0
1002
}
1002
{
1000
REACTOR
1002
}
  0
LINE
  5
2CB6E
330
1F
100
AcDbEntity
  8
size
100
AcDbLine
 10
950.177562357239
 20
842.9811031702101
 30
0.0
 11
530.177562357239
 21
842.9811031702101
 31
0.0
1001
GENIUS_GENREC_14
1002
{
1000
PYDIR
1011
530.177562357239
1021
842.9811031702101
1031
0.0
1002
}
1002
{
1000
PXDIR
1011
950.177562357239
1021
545.9811031702098
1031
0.0
1002
}
1002
{
1000
PORI
1011
530.177562357239
1021
545.9811031702098
1031
0.0
1002
}
1002
{
1000
PINS
1011
740.177562357239
1021
694.4811031702101
1031
0.0
1002
}
1002
{
1000
HVAL
1000
297
1002
}
1002
{
1000
H
1070
     2
1002
}
1002
{
1000
WVAL
1000
420
1002
}
1002
{
1000
W
1070
     2
1002
}
1002
{
1000
C
1070
     4
1002
}
1001
GENIUS_GENOBJ-N-REC_13
1002
{
1000
OWNER
1000
GEN
1002
}
1001
GENIUS_GENODEF_13
1002
{
1000
HIER
1070
     0
1002
}
1002
{
1000
MANEDIT
1070
     0
1002
}
1002
{
1000
NOSEL
1070
     0
1002
}
1002
{
1000
BEHIND
1070
     0
1002
}
1002
{
1000
OTHER
1070
     0
1002
}
1002
{
1000
REACTOR
1002
}
  0
LINE
  5
2CB6F
330
1F
100
AcDbEntity
  8
size
100
AcDbLine
 10
530.177562357239
 20
842.9811031702101
 30
0.0
 11
530.177562357239
 21
545.9811031702098
 31
0.0
1001
GENIUS_GENREC_14
1002
{
1000
PYDIR
1011
530.177562357239
1021
842.9811031702101
1031
0.0
1002
}
1002
{
1000
PXDIR
1011
950.177562357239
1021
545.9811031702098
1031
0.0
1002
}
1002
{
1000
PORI
1011
530.177562357239
1021
545.9811031702098
1031
0.0
1002
}
1002
{
1000
PINS
1011
740.177562357239
1021
694.4811031702101
1031
0.0
1002
}
1002
{
1000
HVAL
1000
297
1002
}
1002
{
1000
H
1070
     2
1002
}
1002
{
1000
WVAL
1000
420
1002
}
1002
{
1000
W
1070
     2
1002
}
1002
{
1000
C
1070
     4
1002
}
1001
GENIUS_GENOBJ-N-REC_13
1002
{
1000
OWNER
1000
GEN
1002
}
1001
GENIUS_GENODEF_13
1002
{
1000
HIER
1070
     0
1002
}
1002
{
1000
MANEDIT
1070
     0
1002
}
1002
{
1000
NOSEL
1070
     0
1002
}
1002
{
1000
BEHIND
1070
     0
1002
}
1002
{
1000
OTHER
1070
     0
1002
}
1002
{
1000
REACTOR
1002
}
  0
LINE
  5
2CB70
330
1F
100
AcDbEntity
  8
waku
100
AcDbLine
 10
938.6775623572388
 20
554.4811031702102
 30
0.0
 11
938.677562357239
 21
834.4811031702104
 31
0.0
1001
GENIUS_GENREC_14
1002
{
1000
PYDIR
1011
530.177562357239
1021
842.9811031702101
1031
0.0
1002
}
1002
{
1000
PXDIR
1011
950.177562357239
1021
545.9811031702098
1031
0.0
1002
}
1002
{
1000
PORI
1011
530.177562357239
1021
545.9811031702098
1031
0.0
1002
}
1002
{
1000
PINS
1011
740.177562357239
1021
694.4811031702101
1031
0.0
1002
}
1002
{
1000
HVAL
1000
297
1002
}
1002
{
1000
H
1070
     2
1002
}
1002
{
1000
WVAL
1000
420
1002
}
1002
{
1000
W
1070
     2
1002
}
1002
{
1000
C
1070
     4
1002
}
1001
GENIUS_GENOBJ-N-REC_13
1002
{
1000
OWNER
1000
GEN
1002
}
1001
GENIUS_GENODEF_13
1002
{
1000
HIER
1070
     0
1002
}
1002
{
1000
MANEDIT
1070
     0
1002
}
1002
{
1000
NOSEL
1070
     0
1002
}
1002
{
1000
BEHIND
1070
     0
1002
}
1002
{
1000
OTHER
1070
     0
1002
}
1002
{
1000
REACTOR
1002
}
  0
LINE
  5
2CB71
330
1F
100
AcDbEntity
  8
waku
100
AcDbLine
 10
541.677562357239
 20
834.4811031702104
 30
0.0
 11
541.677562357239
 21
554.4811031702102
 31
0.0
1001
GENIUS_GENREC_14
1002
{
1000
PYDIR
1011
530.177562357239
1021
842.9811031702101
1031
0.0
1002
}
1002
{
1000
PXDIR
1011
950.177562357239
1021
545.9811031702098
1031
0.0
1002
}
1002
{
1000
PORI
1011
530.177562357239
1021
545.9811031702098
1031
0.0
1002
}
1002
{
1000
PINS
1011
740.177562357239
1021
694.4811031702101
1031
0.0
1002
}
1002
{
1000
HVAL
1000
297
1002
}
1002
{
1000
H
1070
     2
1002
}
1002
{
1000
WVAL
1000
420
1002
}
1002
{
1000
W
1070
     2
1002
}
1002
{
1000
C
1070
     4
1002
}
1001
GENIUS_GENOBJ-N-REC_13
1002
{
1000
OWNER
1000
GEN
1002
}
1001
GENIUS_GENODEF_13
1002
{
1000
HIER
1070
     0
1002
}
1002
{
1000
MANEDIT
1070
     0
1002
}
1002
{
1000
NOSEL
1070
     0
1002
}
1002
{
1000
BEHIND
1070
     0
1002
}
1002
{
1000
OTHER
1070
     0
1002
}
1002
{
1000
REACTOR
1002
}
  0
LINE
  5
2CB72
330
1F
100
AcDbEntity
  8
waku
100
AcDbLine
 10
938.677562357239
 20
834.4811031702104
 30
0.0
 11
541.677562357239
 21
834.4811031702104
 31
0.0
1001
GENIUS_GENREC_14
1002
{
1000
PYDIR
1011
530.177562357239
1021
842.9811031702101
1031
0.0
1002
}
1002
{
1000
PXDIR
1011
950.177562357239
1021
545.9811031702098
1031
0.0
1002
}
1002
{
1000
PORI
1011
530.177562357239
1021
545.9811031702098
1031
0.0
1002
}
1002
{
1000
PINS
1011
740.177562357239
1021
694.4811031702101
1031
0.0
1002
}
1002
{
1000
HVAL
1000
297
1002
}
1002
{
1000
H
1070
     2
1002
}
1002
{
1000
WVAL
1000
420
1002
}
1002
{
1000
W
1070
     2
1002
}
1002
{
1000
C
1070
     4
1002
}
1001
GENIUS_GENOBJ-N-REC_13
1002
{
1000
OWNER
1000
GEN
1002
}
1001
GENIUS_GENODEF_13
1002
{
1000
HIER
1070
     0
1002
}
1002
{
1000
MANEDIT
1070
     0
1002
}
1002
{
1000
NOSEL
1070
     0
1002
}
1002
{
1000
BEHIND
1070
     0
1002
}
1002
{
1000
OTHER
1070
     0
1002
}
1002
{
1000
REACTOR
1002
}
  0
TEXT
  5
2CB73
330
1F
100
AcDbEntity
  8
AM_6
 60
     1
100
AcDbText
 10
530.177562357239
 20
545.9811031702098
 30
0.0
 40
2.5
  1
!GENTITLE-LL
100
AcDbText
  0
TEXT
  5
2CB74
330
1F
100
AcDbEntity
  8
AM_6
 60
     1
100
AcDbText
 10
938.677562357239
 20
834.4811031702104
 30
0.0
 40
2.5
  1
!GENTITLE-RU
100
AcDbText
  0
TEXT
  5
2CB75
330
1F
100
AcDbEntity
  8
AM_6
 60
     1
100
AcDbText
 10
950.177562357239
 20
842.9811031702101
 30
0.0
 40
2.5
  1
!GENTITLE-MAX
100
AcDbText
  0
TEXT
  5
2CB76
330
1F
100
AcDbEntity
  8
AM_6
 60
     1
100
AcDbText
 10
938.6775623572388
 20
554.4811031702102
 30
0.0
 40
2.5
  1
!GENTITLE-INSERT
100
AcDbText
  0
LINE
  5
2CB77
330
1F
100
AcDbEntity
  8
waku
100
AcDbLine
 10
541.677562357239
 20
554.4811031702102
 30
0.0
 11
938.6775623572388
 21
554.4811031702102
 31
0.0
  0
LINE
  5
2CC40
330
1F
100
AcDbEntity
  8
AM_0
100
AcDbLine
 10
938.677562357239
 20
834.4811031702104
 30
0.0
 11
938.6775623572392
 21
770.4811031702107
 31
0.0
  0
LINE
  5
2D16A
330
1F
100
AcDbEntity
  8
AM_2
100
AcDbLine
 10
844.1080508618204
 20
786.4811031702101
 30
0.0
 11
938.677562357239
 21
786.4811031702101
 31
0.0
  0
MTEXT
  5
2D1A6
330
1F
100
AcDbEntity
  8
AM_6
100
AcDbMText
 10
852.9099859307082
 20
763.8926915596251
 30
0.0
 40
3.2
 41
80.36412711772412
 71
     1
 72
     5
  1
適応受　：　LB-530　LB-36　LB-36TN
 73
     1
 44
1.0
1001
ACAD
1000
MTEXTBEGIN
1070
    73
1070
     1
1070
    44
1040
1.0
1070
    74
1070
     0
1000
MTEXTEND
  0
MTEXT
  5
2D56D
330
1F
100
AcDbEntity
  8
AM_6
100
AcDbMText
 10
867.1080508618203
 20
774.4811031702107
 30
0.0
 40
3.2
 41
90.0
 71
     4
 72
     5
  1
　ゴムシート　t=2.0 　１枚
 73
     1
 44
1.0
1001
ACAD
1000
MTEXTBEGIN
1070
    73
1070
     1
1070
    44
1040
1.0
1070
    74
1070
     0
1000
MTEXTEND
  0
POINT
  5
2D570
330
1F
100
AcDbEntity
  8
AM_0
100
AcDbPoint
 10
608.5030928229122
 20
805.0173215069079
 30
0.0
  0
LINE
  5
2D571
330
1F
100
AcDbEntity
  8
AM_11
100
AcDbLine
 10
789.5030828229122
 20
792.517321506908
 30
0.0
 11
740.503097822912
 21
792.517321506908
 31
0.0
  0
LINE
  5
2D572
330
1F
100
AcDbEntity
  8
AM_11
100
AcDbLine
 10
789.5030828229122
 20
817.5173215069079
 30
0.0
 11
740.503097822912
 21
817.5173215069079
 31
0.0
  0
LINE
  5
2D573
330
1F
100
AcDbEntity
  8
AM_0
100
AcDbLine
 10
739.5030828229122
 20
792.517321506908
 30
0.0
 11
739.5030828229122
 21
817.5173215069079
 31
0.0
  0
LINE
  5
2D574
330
1F
100
AcDbEntity
  8
AM_0
100
AcDbLine
 10
739.5030828229122
 20
817.5173215069079
 30
0.0
 11
608.5030928229122
 21
817.5173215069079
 31
0.0
  0
LINE
  5
2D575
330
1F
100
AcDbEntity
  8
AM_0
100
AcDbLine
 10
608.5030928229122
 20
817.4173215069082
 30
0.0
 11
608.0030928229121
 21
817.4173215069082
 31
0.0
  0
ARC
  5
2D576
330
1F
100
AcDbEntity
  8
AM_0
100
AcDbCircle
 10
608.0030928229121
 20
816.417321506908
 30
0.0
 40
1.0
100
AcDbArc
 50
90.0
 51
180.0
1001
GENIUS_GENODEF_13
1002
{
1000
HIER
1070
     0
1002
}
1002
{
1000
MANEDIT
1070
     0
1002
}
1002
{
1000
NOSEL
1070
     0
1002
}
1002
{
1000
BEHIND
1070
     0
1002
}
1002
{
1000
OTHER
1070
     0
1002
}
1002
{
1000
REACTOR
1002
}
1001
GENIUS_GENOBJ-N-FIL_13
1002
{
1000
OWNER
1000
GEN
1002
}
  0
LINE
  5
2D577
330
1F
100
AcDbEntity
  8
AM_0
100
AcDbLine
 10
739.5030828229122
 20
792.517321506908
 30
0.0
 11
608.5030928229122
 21
792.517321506908
 31
0.0
  0
LINE
  5
2D578
330
1F
100
AcDbEntity
  8
AM_0
100
AcDbLine
 10
608.5030928229122
 20
792.6173215069082
 30
0.0
 11
608.0030928229121
 21
792.6173215069082
 31
0.0
  0
ARC
  5
2D579
330
1F
100
AcDbEntity
  8
AM_0
100
AcDbCircle
 10
608.0030928229121
 20
793.6173215069081
 30
0.0
 40
1.0
100
AcDbArc
 50
180.0
 51
270.0
1001
GENIUS_GENODEF_13
1002
{
1000
HIER
1070
     0
1002
}
1002
{
1000
MANEDIT
1070
     0
1002
}
1002
{
1000
NOSEL
1070
     0
1002
}
1002
{
1000
BEHIND
1070
     0
1002
}
1002
{
1000
OTHER
1070
     0
1002
}
1002
{
1000
REACTOR
1002
}
1001
GENIUS_GENOBJ-N-FIL_13
1002
{
1000
OWNER
1000
GEN
1002
}
  0
LINE
  5
2D57A
102
{ACAD_REACTORS
330
2D5B9
102
}
330
1F
100
AcDbEntity
  8
AM_0
100
AcDbLine
 10
608.5030928229122
 20
792.517321506908
 30
0.0
 11
608.5030928229122
 21
817.5173215069079
 31
0.0
  0
LINE
  5
2D57B
102
{ACAD_REACTORS
330
2D598
102
}
330
1F
100
AcDbEntity
  8
AM_0
100
AcDbLine
 10
607.0030928229122
 20
793.6173215069081
 30
0.0
 11
607.0030928229122
 21
816.417321506908
 31
0.0
  0
POINT
  5
2D57C
330
1F
100
AcDbEntity
  8
AM_0
100
AcDbPoint
 10
739.5030828229122
 20
805.0173215069079
 30
0.0
 50
180.0
  0
LINE
  5
2D57D
330
1F
100
AcDbEntity
  8
AM_0
100
AcDbLine
 10
739.5030828229122
 20
817.4173215069082
 30
0.0
 11
740.0030828229122
 21
817.4173215069082
 31
0.0
  0
ARC
  5
2D57E
330
1F
100
AcDbEntity
  8
AM_0
100
AcDbCircle
 10
740.0030828229122
 20
816.417321506908
 30
0.0
 40
0.9999999999999998
100
AcDbArc
 50
0.0
 51
90.0
1001
GENIUS_GENODEF_13
1002
{
1000
HIER
1070
     0
1002
}
1002
{
1000
MANEDIT
1070
     0
1002
}
1002
{
1000
NOSEL
1070
     0
1002
}
1002
{
1000
BEHIND
1070
     0
1002
}
1002
{
1000
OTHER
1070
     0
1002
}
1002
{
1000
REACTOR
1002
}
1001
GENIUS_GENOBJ-N-FIL_13
1002
{
1000
OWNER
1000
GEN
1002
}
  0
LINE
  5
2D57F
330
1F
100
AcDbEntity
  8
AM_0
100
AcDbLine
 10
739.5030828229122
 20
792.6173215069082
 30
0.0
 11
740.0030828229122
 21
792.6173215069082
 31
0.0
  0
ARC
  5
2D580
330
1F
100
AcDbEntity
  8
AM_0
100
AcDbCircle
 10
740.0030828229122
 20
793.6173215069081
 30
0.0
 40
0.9999999999999998
100
AcDbArc
 50
270.0
 51
0.0
1001
GENIUS_GENODEF_13
1002
{
1000
HIER
1070
     0
1002
}
1002
{
1000
MANEDIT
1070
     0
1002
}
1002
{
1000
NOSEL
1070
     0
1002
}
1002
{
1000
BEHIND
1070
     0
1002
}
1002
{
1000
OTHER
1070
     0
1002
}
1002
{
1000
REACTOR
1002
}
1001
GENIUS_GENOBJ-N-FIL_13
1002
{
1000
OWNER
1000
GEN
1002
}
  0
LINE
  5
2D581
102
{ACAD_REACTORS
330
2D598
330
2D5DA
102
}
330
1F
100
AcDbEntity
  8
AM_0
100
AcDbLine
 10
741.0030828229122
 20
793.6173215069081
 30
0.0
 11
741.0030828229122
 21
816.417321506908
 31
0.0
  0
LINE
  5
2D582
330
1F
100
AcDbEntity
  8
AM_11
100
AcDbLine
 10
789.5030828229122
 20
792.517321506908
 30
0.0
 11
789.5030828229122
 21
817.5173215069079
 31
0.0
  0
POINT
  5
2D583
330
1F
100
AcDbEntity
  8
0
  6
Continuous
 62
     7
100
AcDbPoint
 10
789.5030828229122
 20
805.0173215069079
 30
0.0
 50
180.0
  0
LINE
  5
2D584
330
1F
100
AcDbEntity
  8
AM_11
100
AcDbLine
 10
789.5030828229122
 20
817.4173215069082
 30
0.0
 11
790.0030828229122
 21
817.4173215069082
 31
0.0
  0
ARC
  5
2D585
330
1F
100
AcDbEntity
  8
AM_11
100
AcDbCircle
 10
790.0030828229122
 20
816.417321506908
 30
0.0
 40
0.9999999999999998
100
AcDbArc
 50
0.0
 51
90.0
1001
GENIUS_GENODEF_13
1002
{
1000
HIER
1070
     0
1002
}
1002
{
1000
MANEDIT
1070
     0
1002
}
1002
{
1000
NOSEL
1070
     0
1002
}
1002
{
1000
BEHIND
1070
     0
1002
}
1002
{
1000
OTHER
1070
     0
1002
}
1002
{
1000
REACTOR
1002
}
1001
GENIUS_GENOBJ-N-FIL_13
1002
{
1000
OWNER
1000
GEN
1002
}
  0
LINE
  5
2D586
330
1F
100
AcDbEntity
  8
AM_11
100
AcDbLine
 10
789.5030828229122
 20
792.6173215069082
 30
0.0
 11
790.0030828229122
 21
792.6173215069082
 31
0.0
  0
ARC
  5
2D587
330
1F
100
AcDbEntity
  8
AM_11
100
AcDbCircle
 10
790.0030828229122
 20
793.6173215069081
 30
0.0
 40
0.9999999999999998
100
AcDbArc
 50
270.0
 51
0.0
1001
GENIUS_GENODEF_13
1002
{
1000
HIER
1070
     0
1002
}
1002
{
1000
MANEDIT
1070
     0
1002
}
1002
{
1000
NOSEL
1070
     0
1002
}
1002
{
1000
BEHIND
1070
     0
1002
}
1002
{
1000
OTHER
1070
     0
1002
}
1002
{
1000
REACTOR
1002
}
1001
GENIUS_GENOBJ-N-FIL_13
1002
{
1000
OWNER
1000
GEN
1002
}
  0
LINE
  5
2D588
102
{ACAD_REACTORS
330
2D5DA
102
}
330
1F
100
AcDbEntity
  8
AM_11
100
AcDbLine
 10
791.0030828229122
 20
793.6173215069081
 30
0.0
 11
791.0030828229122
 21
816.417321506908
 31
0.0
  0
LINE
  5
2D589
330
1F
100
AcDbEntity
  8
AM_7
100
AcDbLine
 10
604.0030928229121
 20
805.0173215069081
 30
0.0
 11
794.0030828229122
 21
805.0173215069081
 31
0.0
1001
GENIUS_GENOBJ-N-CEN_13
1002
{
1000
OWNER
1000
GEN
1002
}
1001
GENIUS_GENODEF_13
1002
{
1000
HIER
1070
     0
1002
}
1002
{
1000
MANEDIT
1070
     0
1002
}
1002
{
1000
NOSEL
1070
     0
1002
}
1002
{
1000
BEHIND
1070
     0
1002
}
1002
{
1000
OTHER
1070
     0
1002
}
1002
{
1000
REACTOR
1002
}
1001
GENIUS_GENCEN_19
1002
{
1040
3.0
1002
}
  0
DIMENSION
  5
2D58A
102
{ACAD_XDICTIONARY
360
2D597
102
}
102
{ACAD_REACTORS
330
2D598
102
}
330
1F
100
AcDbEntity
  8
AM_5
100
AcDbDimension
  2
*D5
 10
607.0030928229122
 20
780.517321506908
 30
0.0
 11
674.0030878229122
 21
783.6173215069081
 31
0.0
 70
    32
 71
     5
 42
133.99999
  3
SYS$0
100
AcDbAlignedDimension
 13
741.0030828229122
 23
793.6173215069081
 33
0.0
 14
607.0030928229122
 24
793.6173215069081
 34
0.0
100
AcDbRotatedDimension
  0
DIMENSION
  5
2D5AB
102
{ACAD_XDICTIONARY
360
2D5B8
102
}
102
{ACAD_REACTORS
330
2D5B9
102
}
330
1F
100
AcDbEntity
  8
AM_5
100
AcDbDimension
  2
*D6
 10
595.0030928229121
 20
792.517321506908
 30
0.0
 11
591.9030928229119
 21
805.0173215069081
 31
0.0
 70
    32
 71
     5
 42
25.0
  3
SYS$0
100
AcDbAlignedDimension
 13
608.5030928229122
 23
817.5173215069079
 33
0.0
 14
608.5030928229122
 24
792.517321506908
 34
0.0
 50
90.0
100
AcDbRotatedDimension
  0
DIMENSION
  5
2D5CC
102
{ACAD_XDICTIONARY
360
2D5D9
102
}
102
{ACAD_REACTORS
330
2D5DA
102
}
330
1F
100
AcDbEntity
  8
AM_5
100
AcDbDimension
  2
*D7
 10
791.0030828229122
 20
780.5173215069079
 30
0.0
 11
766.0030828229122
 21
783.6173215069079
 31
0.0
 70
    32
  1
ストローク:<>
 71
     5
 42
50.0
  3
SYS$0
100
AcDbAlignedDimension
 13
741.0030828229122
 23
793.6173215069081
 33
0.0
 14
791.0030828229122
 24
793.6173215069081
 34
0.0
100
AcDbRotatedDimension
  0
LINE
  5
2DD83
330
1F
100
AcDbEntity
  8
AM_7
  6
AM_ISO08W050x2
100
AcDbLine
 10
794.0030828229122
 20
735.5891570514423
 30
0.0
 11
604.0030928229121
 21
735.5891570514423
 31
0.0
  0
LINE
  5
2DD84
330
1F
100
AcDbEntity
  8
AM_0
100
AcDbLine
 10
696.0030828229122
 20
718.9891810514422
 30
0.0
 11
702.0030828229122
 21
718.9891810514422
 31
0.0
  0
LINE
  5
2DD85
330
1F
100
AcDbEntity
  8
AM_7
  6
AM_ISO08W050x2
100
AcDbLine
 10
699.0030828229122
 20
653.8069007514422
 30
0.0
 11
699.0030828229122
 21
746.2748260514423
 31
0.0
  0
LINE
  5
2DD86
330
1F
100
AcDbEntity
  8
AM_0
100
AcDbLine
 10
731.5030828229122
 20
681.1891320514424
 30
0.0
 11
666.503052822912
 21
681.1891320514424
 31
0.0
  0
LINE
  5
2DD87
330
1F
100
AcDbEntity
  8
AM_0
100
AcDbLine
 10
731.7530828229122
 20
674.1891330514423
 30
0.0
 11
666.2530528229121
 21
674.1891330514423
 31
0.0
  0
LINE
  5
2DD88
330
1F
100
AcDbEntity
  8
AM_0
100
AcDbLine
 10
731.7530828229122
 20
662.1891334514423
 30
0.0
 11
666.2530528229121
 21
662.1891334514423
 31
0.0
  0
LINE
  5
2DD89
330
1F
100
AcDbEntity
  8
AM_0
100
AcDbLine
 10
731.5030828229122
 20
657.1891334514423
 30
0.0
 11
731.5030828229122
 21
662.1891334514423
 31
0.0
  0
LINE
  5
2DD8A
330
1F
100
AcDbEntity
  8
AM_0
100
AcDbLine
 10
666.503052822912
 20
657.1891334514423
 30
0.0
 11
666.503052822912
 21
662.1891334514423
 31
0.0
  0
LINE
  5
2DD8B
330
1F
100
AcDbEntity
  8
AM_0
100
AcDbLine
 10
731.5030828229122
 20
674.6891330514423
 30
0.0
 11
666.503052822912
 21
674.6891330514423
 31
0.0
  0
LINE
  5
2DD8C
330
1F
100
AcDbEntity
  8
AM_0
100
AcDbLine
 10
702.0030828229122
 20
703.6891320514423
 30
0.0
 11
696.0030828229122
 21
703.6891320514423
 31
0.0
  0
LINE
  5
2DD8D
330
1F
100
AcDbEntity
  8
AM_0
100
AcDbLine
 10
702.0030828229122
 20
682.6891320514423
 30
0.0
 11
702.0030828229122
 21
703.6891320514423
 31
0.0
  0
LINE
  5
2DD8E
330
1F
100
AcDbEntity
  8
AM_0
100
AcDbLine
 10
696.0030828229122
 20
682.6891320514423
 30
0.0
 11
696.0030828229122
 21
703.6891320514423
 31
0.0
  0
LINE
  5
2DD8F
330
1F
100
AcDbEntity
  8
AM_0
100
AcDbLine
 10
731.5030828229122
 20
682.6891320514423
 30
0.0
 11
666.503052822912
 21
682.6891320514423
 31
0.0
  0
LINE
  5
2DD90
330
1F
100
AcDbEntity
  8
AM_0
100
AcDbLine
 10
731.5030828229122
 20
657.1891334514423
 30
0.0
 11
666.503052822912
 21
657.1891334514423
 31
0.0
  0
LINE
  5
2DD96
330
1F
100
AcDbEntity
  8
AM_0
100
AcDbLine
 10
666.503052822912
 20
674.1891330514423
 30
0.0
 11
666.503052822912
 21
682.6891320514423
 31
0.0
  0
LINE
  5
2DD97
330
1F
100
AcDbEntity
  8
AM_0
100
AcDbLine
 10
731.5030828229122
 20
674.1891330514423
 30
0.0
 11
731.5030828229122
 21
682.6891320514423
 31
0.0
  0
LINE
  5
2DD98
330
1F
100
AcDbEntity
  8
AM_0
100
AcDbLine
 10
666.2530528229121
 20
662.1891334514423
 30
0.0
 11
666.2530528229121
 21
674.1891330514423
 31
0.0
  0
LINE
  5
2DD99
330
1F
100
AcDbEntity
  8
AM_0
100
AcDbLine
 10
731.7530828229122
 20
662.1891334514423
 30
0.0
 11
731.7530828229122
 21
674.1891330514423
 31
0.0
  0
LINE
  5
2DD9A
330
1F
100
AcDbEntity
  8
AM_0
100
AcDbLine
 10
700.5030828229122
 20
703.6891320514423
 30
0.0
 11
700.5030828229122
 21
717.4891810514423
 31
0.0
  0
LINE
  5
2DD9B
330
1F
100
AcDbEntity
  8
AM_0
100
AcDbLine
 10
697.5030828229122
 20
703.6891320514423
 30
0.0
 11
697.5030828229122
 21
717.4891810514423
 31
0.0
  0
LINE
  5
2DD9C
330
1F
100
AcDbEntity
  8
AM_0
100
AcDbLine
 10
669.0030528229121
 20
723.6891930514423
 30
0.0
 11
669.0030528229121
 21
722.6891930514423
 31
0.0
  0
LINE
  5
2DD9D
330
1F
100
AcDbEntity
  8
AM_0
100
AcDbLine
 10
729.0030828229122
 20
723.6891930514423
 30
0.0
 11
729.0030828229122
 21
722.6891930514423
 31
0.0
  0
LINE
  5
2DD9E
330
1F
100
AcDbEntity
  8
AM_0
100
AcDbLine
 10
669.0030528229121
 20
729.1891930514423
 30
0.0
 11
729.0030828229122
 21
729.1891930514423
 31
0.0
  0
LINE
  5
2DD9F
330
1F
100
AcDbEntity
  8
AM_0
100
AcDbLine
 10
673.0030528229121
 20
700.6891930514423
 30
0.0
 11
673.0030528229121
 21
722.6891930514423
 31
0.0
  0
LINE
  5
2DDA0
102
{ACAD_REACTORS
330
2DEAF
102
}
330
1F
100
AcDbEntity
  8
AM_7
  6
AM_ISO08W050x2
100
AcDbLine
 10
721.0030828229122
 20
671.1891334514423
 30
0.0
 11
721.0030828229122
 21
744.5891570514423
 31
0.0
  0
LINE
  5
2DDA1
330
1F
100
AcDbEntity
  8
AM_0
100
AcDbLine
 10
725.0030828229122
 20
700.6891930514423
 30
0.0
 11
725.0030828229122
 21
722.6891930514423
 31
0.0
  0
LINE
  5
2DDA2
330
1F
100
AcDbEntity
  8
AM_0
100
AcDbLine
 10
729.0030828229122
 20
723.6891930514423
 30
0.0
 11
669.0030528229121
 21
723.6891930514423
 31
0.0
  0
LINE
  5
2DDA3
330
1F
100
AcDbEntity
  8
AM_0
100
AcDbLine
 10
681.0030518229122
 20
700.6891930514423
 30
0.0
 11
681.0030518229122
 21
722.6891930514423
 31
0.0
  0
LINE
  5
2DDA4
330
1F
100
AcDbEntity
  8
AM_0
100
AcDbLine
 10
673.0030528229121
 20
700.6891930514423
 30
0.0
 11
681.0030518229122
 21
700.6891930514423
 31
0.0
  0
LINE
  5
2DDA5
330
1F
100
AcDbEntity
  8
AM_0
100
AcDbLine
 10
725.0030828229122
 20
700.6891930514423
 30
0.0
 11
717.0030828229122
 21
700.6891930514423
 31
0.0
  0
LINE
  5
2DDA6
102
{ACAD_REACTORS
330
2DE85
102
}
330
1F
100
AcDbEntity
  8
AM_0
100
AcDbLine
 10
729.0030828229122
 20
723.6891930514423
 30
0.0
 11
729.0030828229122
 21
729.5891570514424
 31
0.0
  0
LINE
  5
2DDA7
102
{ACAD_REACTORS
330
2DE5B
102
}
330
1F
100
AcDbEntity
  8
AM_0
100
AcDbLine
 10
669.0030528229121
 20
723.6891930514423
 30
0.0
 11
669.0030528229121
 21
729.5891570514424
 31
0.0
  0
LINE
  5
2DDA8
330
1F
100
AcDbEntity
  8
AM_0
100
AcDbLine
 10
717.0030828229122
 20
700.6891930514423
 30
0.0
 11
717.0030828229122
 21
722.6891930514423
 31
0.0
  0
LINE
  5
2DDA9
330
1F
100
AcDbEntity
  8
AM_0
100
AcDbLine
 10
702.0030828229122
 20
718.9891810514422
 30
0.0
 11
702.0030828229122
 21
722.6891930514423
 31
0.0
  0
LINE
  5
2DDAA
330
1F
100
AcDbEntity
  8
AM_0
100
AcDbLine
 10
696.0030828229122
 20
718.9891810514422
 30
0.0
 11
696.0030828229122
 21
722.6891930514423
 31
0.0
  0
LINE
  5
2DDAE
102
{ACAD_REACTORS
330
2DEAF
102
}
330
1F
100
AcDbEntity
  8
AM_7
  6
AM_ISO08W050x2
100
AcDbLine
 10
677.0030828229122
 20
671.1891334514423
 30
0.0
 11
677.0030828229122
 21
744.5891570514423
 31
0.0
  0
LINE
  5
2DDAF
330
1F
100
AcDbEntity
  8
AM_0
100
AcDbLine
 10
669.0030528229121
 20
722.6891930514423
 30
0.0
 11
729.0030828229122
 21
722.6891930514423
 31
0.0
  0
LINE
  5
2DDB0
330
1F
100
AcDbEntity
  8
AM_0
100
AcDbLine
 10
608.5030928229122
 20
729.5891570514424
 30
0.0
 11
608.5030928229122
 21
741.5891570514424
 31
0.0
  0
LINE
  5
2DDB1
330
1F
100
AcDbEntity
  8
AM_0
100
AcDbLine
 10
607.0030928229122
 20
730.6891570514424
 30
0.0
 11
607.0030928229122
 21
740.4891570514423
 31
0.0
  0
LINE
  5
2DDB2
330
1F
100
AcDbEntity
  8
AM_0
100
AcDbLine
 10
739.5030828229122
 20
741.5891570514424
 30
0.0
 11
608.5030928229122
 21
741.5891570514424
 31
0.0
  0
LINE
  5
2DDB3
330
1F
100
AcDbEntity
  8
AM_0
100
AcDbLine
 10
608.5030928229122
 20
741.4891570514424
 30
0.0
 11
608.0030928229121
 21
741.4891570514424
 31
0.0
  0
ARC
  5
2DDB4
330
1F
100
AcDbEntity
  8
AM_0
100
AcDbCircle
 10
608.0030928229121
 20
740.4891570514423
 30
0.0
 40
1.0
100
AcDbArc
 50
90.0
 51
180.0
1001
GENIUS_GENODEF_13
1002
{
1000
HIER
1070
     0
1002
}
1002
{
1000
MANEDIT
1070
     0
1002
}
1002
{
1000
NOSEL
1070
     0
1002
}
1002
{
1000
BEHIND
1070
     0
1002
}
1002
{
1000
OTHER
1070
     0
1002
}
1002
{
1000
REACTOR
1002
}
1001
GENIUS_GENOBJ-N-FIL_13
1002
{
1000
OWNER
1000
GEN
1002
}
  0
LINE
  5
2DDB5
330
1F
100
AcDbEntity
  8
AM_0
100
AcDbLine
 10
739.5030828229122
 20
729.5891570514424
 30
0.0
 11
608.5030928229122
 21
729.5891570514424
 31
0.0
  0
LINE
  5
2DDB6
330
1F
100
AcDbEntity
  8
AM_0
100
AcDbLine
 10
608.5030928229122
 20
729.6891570514424
 30
0.0
 11
608.0030928229121
 21
729.6891570514424
 31
0.0
  0
ARC
  5
2DDB7
330
1F
100
AcDbEntity
  8
AM_0
100
AcDbCircle
 10
608.0030928229121
 20
730.6891570514424
 30
0.0
 40
1.0
100
AcDbArc
 50
180.0
 51
270.0
1001
GENIUS_GENODEF_13
1002
{
1000
HIER
1070
     0
1002
}
1002
{
1000
MANEDIT
1070
     0
1002
}
1002
{
1000
NOSEL
1070
     0
1002
}
1002
{
1000
BEHIND
1070
     0
1002
}
1002
{
1000
OTHER
1070
     0
1002
}
1002
{
1000
REACTOR
1002
}
1001
GENIUS_GENOBJ-N-FIL_13
1002
{
1000
OWNER
1000
GEN
1002
}
  0
LINE
  5
2DDB8
330
1F
100
AcDbEntity
  8
AM_0
100
AcDbLine
 10
739.5030828229122
 20
729.5891570514424
 30
0.0
 11
739.5030828229122
 21
741.5891570514424
 31
0.0
  0
LINE
  5
2DDB9
330
1F
100
AcDbEntity
  8
AM_11
100
AcDbLine
 10
789.5030828229122
 20
729.5891570514424
 30
0.0
 11
739.5030828229122
 21
729.5891570514424
 31
0.0
  0
LINE
  5
2DDBA
330
1F
100
AcDbEntity
  8
AM_11
100
AcDbLine
 10
789.5030828229122
 20
741.5891570514424
 30
0.0
 11
739.5030828229122
 21
741.5891570514424
 31
0.0
  0
ARC
  5
2DDBB
330
1F
100
AcDbEntity
  8
AM_0
100
AcDbCircle
 10
702.0030828229122
 20
717.4891810514423
 30
0.0
 40
1.5
100
AcDbArc
 50
90.0
 51
180.0
  0
ARC
  5
2DDBC
330
1F
100
AcDbEntity
  8
AM_0
100
AcDbCircle
 10
696.0030828229122
 20
717.4891810514423
 30
0.0
 40
1.5
100
AcDbArc
 50
0.0
 51
90.0
  0
LINE
  5
2DDC5
330
1F
100
AcDbEntity
  8
AM_0
100
AcDbLine
 10
741.0030828229122
 20
730.6891570514424
 30
0.0
 11
741.0030828229122
 21
740.4891570514423
 31
0.0
  0
LINE
  5
2DDC6
330
1F
100
AcDbEntity
  8
AM_0
100
AcDbLine
 10
739.5030828229122
 20
741.4891570514424
 30
0.0
 11
740.0030828229122
 21
741.4891570514424
 31
0.0
  0
ARC
  5
2DDC7
102
{ACAD_REACTORS
330
2DE85
102
}
330
1F
100
AcDbEntity
  8
AM_0
100
AcDbCircle
 10
740.0030828229122
 20
740.4891570514423
 30
0.0
 40
1.0
100
AcDbArc
 50
0.0
 51
90.0
1001
GENIUS_GENODEF_13
1002
{
1000
HIER
1070
     0
1002
}
1002
{
1000
MANEDIT
1070
     0
1002
}
1002
{
1000
NOSEL
1070
     0
1002
}
1002
{
1000
BEHIND
1070
     0
1002
}
1002
{
1000
OTHER
1070
     0
1002
}
1002
{
1000
REACTOR
1002
}
1001
GENIUS_GENOBJ-N-FIL_13
1002
{
1000
OWNER
1000
GEN
1002
}
  0
LINE
  5
2DDC8
330
1F
100
AcDbEntity
  8
AM_0
100
AcDbLine
 10
739.5030828229122
 20
729.6891570514424
 30
0.0
 11
740.0030828229122
 21
729.6891570514424
 31
0.0
  0
ARC
  5
2DDC9
330
1F
100
AcDbEntity
  8
AM_0
100
AcDbCircle
 10
740.0030828229122
 20
730.6891570514424
 30
0.0
 40
1.0
100
AcDbArc
 50
270.0
 51
0.0
1001
GENIUS_GENODEF_13
1002
{
1000
HIER
1070
     0
1002
}
1002
{
1000
MANEDIT
1070
     0
1002
}
1002
{
1000
NOSEL
1070
     0
1002
}
1002
{
1000
BEHIND
1070
     0
1002
}
1002
{
1000
OTHER
1070
     0
1002
}
1002
{
1000
REACTOR
1002
}
1001
GENIUS_GENOBJ-N-FIL_13
1002
{
1000
OWNER
1000
GEN
1002
}
  0
LINE
  5
2DDCA
330
1F
100
AcDbEntity
  8
AM_11
100
AcDbLine
 10
789.5030828229122
 20
729.5891570514424
 30
0.0
 11
789.5030828229122
 21
741.5891570514424
 31
0.0
  0
LINE
  5
2DDCB
330
1F
100
AcDbEntity
  8
AM_11
100
AcDbLine
 10
791.0030828229122
 20
730.6891570514424
 30
0.0
 11
791.0030828229122
 21
740.4891570514423
 31
0.0
  0
LINE
  5
2DDCC
330
1F
100
AcDbEntity
  8
AM_11
100
AcDbLine
 10
789.5030828229122
 20
741.4891570514424
 30
0.0
 11
790.0030828229122
 21
741.4891570514424
 31
0.0
  0
ARC
  5
2DDCD
330
1F
100
AcDbEntity
  8
AM_11
100
AcDbCircle
 10
790.0030828229122
 20
740.4891570514423
 30
0.0
 40
1.0
100
AcDbArc
 50
0.0
 51
90.0
1001
GENIUS_GENODEF_13
1002
{
1000
HIER
1070
     0
1002
}
1002
{
1000
MANEDIT
1070
     0
1002
}
1002
{
1000
NOSEL
1070
     0
1002
}
1002
{
1000
BEHIND
1070
     0
1002
}
1002
{
1000
OTHER
1070
     0
1002
}
1002
{
1000
REACTOR
1002
}
1001
GENIUS_GENOBJ-N-FIL_13
1002
{
1000
OWNER
1000
GEN
1002
}
  0
LINE
  5
2DDCE
330
1F
100
AcDbEntity
  8
AM_11
100
AcDbLine
 10
789.5030828229122
 20
729.6891570514424
 30
0.0
 11
790.0030828229122
 21
729.6891570514424
 31
0.0
  0
ARC
  5
2DDCF
330
1F
100
AcDbEntity
  8
AM_11
100
AcDbCircle
 10
790.0030828229122
 20
730.6891570514424
 30
0.0
 40
1.0
100
AcDbArc
 50
270.0
 51
0.0
1001
GENIUS_GENODEF_13
1002
{
1000
HIER
1070
     0
1002
}
1002
{
1000
MANEDIT
1070
     0
1002
}
1002
{
1000
NOSEL
1070
     0
1002
}
1002
{
1000
BEHIND
1070
     0
1002
}
1002
{
1000
OTHER
1070
     0
1002
}
1002
{
1000
REACTOR
1002
}
1001
GENIUS_GENOBJ-N-FIL_13
1002
{
1000
OWNER
1000
GEN
1002
}
  0
DIMENSION
  5
2DE4D
102
{ACAD_XDICTIONARY
360
2DE5A
102
}
102
{ACAD_REACTORS
330
2DE5B
102
}
330
1F
100
AcDbEntity
  8
AM_5
100
AcDbDimension
  2
*D8
 10
729.0030828229122
 20
753.5891570514423
 30
0.0
 11
699.0030678229121
 21
756.6891570514424
 31
0.0
 70
    32
 71
     5
 42
60.00003000000015
  3
SYS$0
100
AcDbAlignedDimension
 13
669.0030528229121
 23
729.5891570514424
 33
0.0
 14
729.0030828229122
 24
729.5891570514424
 34
0.0
100
AcDbRotatedDimension
  0
DIMENSION
  5
2DE77
102
{ACAD_XDICTIONARY
360
2DE84
102
}
102
{ACAD_REACTORS
330
2DE85
102
}
330
1F
100
AcDbEntity
  8
AM_5
100
AcDbDimension
  2
*D9
 10
741.0030828229122
 20
753.5891570514422
 30
0.0
 11
735.0030828229122
 21
756.6891570514423
 31
0.0
 70
    32
  1
（<>）
 71
     5
 42
12.0
  3
SYS$0
100
AcDbAlignedDimension
 13
729.0030828229122
 23
729.5891570514424
 33
0.0
 14
741.0030828229122
 24
740.4891570514423
 34
0.0
100
AcDbRotatedDimension
  0
DIMENSION
  5
2DEA1
102
{ACAD_XDICTIONARY
360
2DEAE
102
}
102
{ACAD_REACTORS
330
2DEAF
102
}
330
1F
100
AcDbEntity
  8
AM_5
100
AcDbDimension
  2
*D10
 10
721.0030828229122
 20
645.1891334514423
 30
0.0
 11
699.0030828229122
 21
648.2891334514423
 31
0.0
 70
    32
 71
     5
 42
44.0
  3
SYS$0
100
AcDbAlignedDimension
 13
677.0030828229122
 23
671.1891334514423
 33
0.0
 14
721.0030828229122
 24
671.1891334514423
 34
0.0
 50
0.0000000000002036
100
AcDbRotatedDimension
  0
POINT
  5
2DECB
330
1F
100
AcDbEntity
  8
AM_0
100
AcDbPoint
 10
699.0030828229122
 20
607.8871495805516
 30
0.0
  0
LINE
  5
2DECC
330
1F
100
AcDbEntity
  8
AM_0
100
AcDbLine
 10
704.5133978229122
 20
623.8871345805517
 30
0.0
 11
693.4927678229122
 21
623.8871345805517
 31
0.0
  0
LINE
  5
2DECD
330
1F
100
AcDbEntity
  8
AM_0
100
AcDbLine
 10
700.6030578229121
 20
620.9871405805515
 30
0.0
 11
700.6030578229121
 21
619.7871285805517
 31
0.0
  0
LINE
  5
2DECE
330
1F
100
AcDbEntity
  8
AM_0
100
AcDbLine
 10
666.2530828229122
 20
632.8871345805517
 30
0.0
 11
666.2530828229122
 21
607.8871495805516
 31
0.0
  0
LINE
  5
2DECF
330
1F
100
AcDbEntity
  8
AM_0
100
AcDbLine
 10
731.7530828229122
 20
632.8871345805517
 30
0.0
 11
731.7530828229122
 21
607.8871495805516
 31
0.0
  0
LINE
  5
2DED0
102
{ACAD_REACTORS
330
2DF2D
102
}
330
1F
100
AcDbEntity
  8
AM_0
100
AcDbLine
 10
666.2530828229122
 20
607.8871495805516
 30
0.0
 11
731.7530828229122
 21
607.8871495805516
 31
0.0
  0
LINE
  5
2DED1
330
1F
100
AcDbEntity
  8
AM_0
100
AcDbLine
 10
666.2530828229122
 20
632.8871345805517
 30
0.0
 11
731.7530828229122
 21
632.8871345805517
 31
0.0
  0
LINE
  5
2DED2
330
1F
100
AcDbEntity
  8
AM_0
100
AcDbLine
 10
697.6031188229121
 20
619.5871315805516
 30
0.0
 11
700.403045822912
 21
619.5871315805516
 31
0.0
  0
LINE
  5
2DED3
330
1F
100
AcDbEntity
  8
AM_0
100
AcDbLine
 10
697.4031068229122
 20
620.9871405805515
 30
0.0
 11
697.4031068229122
 21
619.7871285805517
 31
0.0
  0
LINE
  5
2DED4
330
1F
100
AcDbEntity
  8
AM_0
100
AcDbLine
 10
676.5030528229121
 20
587.8871425805516
 30
0.0
 11
721.5030828229122
 21
587.8871425805516
 31
0.0
  0
LINE
  5
2DED5
330
1F
100
AcDbEntity
  8
AM_2
100
AcDbLine
 10
666.503052822912
 20
599.8871495805516
 30
0.0
 11
731.5030828229122
 21
599.8871495805516
 31
0.0
  0
LINE
  5
2DED6
330
1F
100
AcDbEntity
  8
AM_0
100
AcDbLine
 10
731.5030828229122
 20
607.8871495805516
 30
0.0
 11
731.5030828229122
 21
597.8871345805516
 31
0.0
  0
LINE
  5
2DED7
330
1F
100
AcDbEntity
  8
AM_0
100
AcDbLine
 10
666.503052822912
 20
607.8871495805516
 30
0.0
 11
666.503052822912
 21
597.8871345805516
 31
0.0
  0
LINE
  5
2DED8
330
1F
100
AcDbEntity
  8
AM_0
100
AcDbLine
 10
697.6031188229121
 20
621.1871375805515
 30
0.0
 11
700.403045822912
 21
621.1871375805515
 31
0.0
  0
LINE
  5
2DED9
330
1F
100
AcDbEntity
  8
AM_0
100
AcDbLine
 10
704.9665528229121
 20
624.1758215805516
 30
0.0
 11
706.3958898229121
 21
627.2410415805516
 31
0.0
  0
LINE
  5
2DEDA
330
1F
100
AcDbEntity
  8
AM_0
100
AcDbLine
 10
691.6102908229121
 20
627.2410565805516
 30
0.0
 11
693.0396278229121
 21
624.1758235805516
 31
0.0
  0
ARC
  5
2DEDB
330
1F
100
AcDbEntity
  8
AM_0
100
AcDbCircle
 10
699.0030828229122
 20
611.3871345805517
 30
0.0
 40
18.0
100
AcDbArc
 50
66.63723899999773
 51
113.3627600000023
  0
CIRCLE
  5
2DEDC
330
1F
100
AcDbEntity
  8
AM_0
100
AcDbCircle
 10
699.0030828229122
 20
620.3871345805517
 30
0.0
 40
2.0
  0
ARC
  5
2DEDD
330
1F
100
AcDbEntity
  8
AM_0
100
AcDbCircle
 10
721.5030828229122
 20
597.8871495805516
 30
0.0
 40
10.0
100
AcDbArc
 50
270.000020000002
 51
0.0
  0
ARC
  5
2DEDE
102
{ACAD_REACTORS
330
2DF66
102
}
330
1F
100
AcDbEntity
  8
AM_0
100
AcDbCircle
 10
676.5030528229121
 20
597.8871495805516
 30
0.0
 40
10.0
100
AcDbArc
 50
179.9999799999979
 51
270.0000399999975
  0
ARC
  5
2DEDF
330
1F
100
AcDbEntity
  8
AM_0
100
AcDbCircle
 10
692.0634468229121
 20
627.4523505805516
 30
0.0
 40
0.5
100
AcDbArc
 50
113.3624900000031
 51
204.9999499999971
  0
ARC
  5
2DEE0
330
1F
100
AcDbEntity
  8
AM_0
100
AcDbCircle
 10
697.6031188229121
 20
619.7871285805517
 30
0.0
 40
0.2
100
AcDbArc
 50
180.0
 51
270.0
  0
ARC
  5
2DEE1
330
1F
100
AcDbEntity
  8
AM_0
100
AcDbCircle
 10
697.6031188229121
 20
620.9871405805515
 30
0.0
 40
0.2
100
AcDbArc
 50
90.0
 51
180.0
  0
ARC
  5
2DEE2
330
1F
100
AcDbEntity
  8
AM_0
100
AcDbCircle
 10
700.403045822912
 20
620.9871405805515
 30
0.0
 40
0.2
100
AcDbArc
 50
0.0
 51
90.0
  0
ARC
  5
2DEE3
330
1F
100
AcDbEntity
  8
AM_0
100
AcDbCircle
 10
704.5133978229122
 20
624.3871345805517
 30
0.0
 40
0.5
100
AcDbArc
 50
270.0
 51
335.0000500000029
  0
ARC
  5
2DEE4
330
1F
100
AcDbEntity
  8
AM_0
100
AcDbCircle
 10
693.4927678229122
 20
624.3871345805517
 30
0.0
 40
0.5
100
AcDbArc
 50
204.9999499999971
 51
270.0
  0
ARC
  5
2DEE5
330
1F
100
AcDbEntity
  8
AM_0
100
AcDbCircle
 10
705.9427188229123
 20
627.4523505805516
 30
0.0
 40
0.5
100
AcDbArc
 50
335.0000500000029
 51
66.63750800000109
  0
ARC
  5
2DEE6
330
1F
100
AcDbEntity
  8
AM_0
100
AcDbCircle
 10
700.403045822912
 20
619.7871285805517
 30
0.0
 40
0.2
100
AcDbArc
 50
270.0
 51
0.0
  0
LINE
  5
2DEE7
330
1F
100
AcDbEntity
  8
AM_7
100
AcDbLine
 10
699.0030838229124
 20
635.8871345805515
 30
0.0
 11
699.0030668229119
 21
584.8871425805517
 31
0.0
1001
GENIUS_GENODEF_13
1002
{
1000
HIER
1070
     0
1002
}
1002
{
1000
MANEDIT
1070
     0
1002
}
1002
{
1000
NOSEL
1070
     0
1002
}
1002
{
1000
BEHIND
1070
     0
1002
}
1002
{
1000
OTHER
1070
     0
1002
}
1002
{
1000
REACTOR
1002
}
1001
GENIUS_GENOBJ-N-CEN_13
1002
{
1000
OWNER
1000
GEN
1002
}
1001
GENIUS_GENCEN_19
1002
{
1040
3.0
1002
}
  0
LINE
  5
2DEE8
330
1F
100
AcDbEntity
  8
AM_7
100
AcDbLine
 10
663.2530828229122
 20
620.3871420805517
 30
0.0
 11
734.7530828229122
 21
620.3871420805517
 31
0.0
1001
GENIUS_GENOBJ-N-CEN_13
1002
{
1000
OWNER
1000
GEN
1002
}
1001
GENIUS_GENODEF_13
1002
{
1000
HIER
1070
     0
1002
}
1002
{
1000
MANEDIT
1070
     0
1002
}
1002
{
1000
NOSEL
1070
     0
1002
}
1002
{
1000
BEHIND
1070
     0
1002
}
1002
{
1000
OTHER
1070
     0
1002
}
1002
{
1000
REACTOR
1002
}
1001
GENIUS_GENCEN_19
1002
{
1040
3.0
1002
}
  0
DIMENSION
  5
2DF1F
102
{ACAD_XDICTIONARY
360
2DF2C
102
}
102
{ACAD_REACTORS
330
2DF2D
102
}
330
1F
100
AcDbEntity
  8
AM_5
100
AcDbDimension
  2
*D11
 10
731.7530828229122
 20
575.8871425805516
 30
0.0
 11
699.0030828229122
 21
578.9871425805516
 31
0.0
 70
    32
 71
     5
 42
65.5
  3
SYS$0
100
AcDbAlignedDimension
 13
666.2530828229122
 23
607.8871495805516
 33
0.0
 14
731.7530828229122
 24
607.8871495805516
 34
0.0
 50
0.0000000000001018
100
AcDbRotatedDimension
  0
DIMENSION
  5
2DF58
102
{ACAD_XDICTIONARY
360
2DF65
102
}
102
{ACAD_REACTORS
330
2DF66
102
}
330
1F
100
AcDbEntity
  8
AM_5
100
AcDbDimension
  2
*D13
 10
654.2530828229122
 20
587.8871495805516
 30
0.0
 11
651.1530828229121
 21
610.3871420805517
 31
0.0
 70
    32
 71
     5
 42
44.99998500000003
  3
SYS$0
100
AcDbAlignedDimension
 13
666.2530828229122
 23
632.8871345805517
 33
0.0
 14
676.5030528229121
 24
587.8871495805516
 34
0.0
 50
90.00000000000003
100
AcDbRotatedDimension
  0
LINE
  5
2DF70
330
1F
100
AcDbEntity
  8
AM_0
100
AcDbLine
 10
810.591390951061
 20
587.8871345805516
 30
0.0
 11
809.0913909510611
 21
587.8871345805516
 31
0.0
  0
LINE
  5
2DF71
330
1F
100
AcDbEntity
  8
AM_0
100
AcDbLine
 10
851.621419951061
 20
623.3871345805517
 30
0.0
 11
834.621419951061
 21
623.3871345805517
 31
0.0
  0
LINE
  5
2DF72
330
1F
100
AcDbEntity
  8
AM_0
100
AcDbLine
 10
832.621419951061
 20
610.3871345805516
 30
0.0
 11
828.121419951061
 21
610.3871345805516
 31
0.0
  0
LINE
  5
2DF73
330
1F
100
AcDbEntity
  8
AM_0
100
AcDbLine
 10
832.621419951061
 20
630.3871345805516
 30
0.0
 11
828.121419951061
 21
630.3871345805516
 31
0.0
  0
LINE
  5
2DF74
330
1F
100
AcDbEntity
  8
AM_0
100
AcDbLine
 10
810.591390951061
 20
599.8871345805516
 30
0.0
 11
810.591390951061
 21
587.8871345805516
 31
0.0
  0
LINE
  5
2DF75
102
{ACAD_REACTORS
330
2E011
102
}
330
1F
100
AcDbEntity
  8
AM_0
100
AcDbLine
 10
809.0913909510611
 20
599.8871345805516
 30
0.0
 11
809.0913909510611
 21
587.8871345805516
 31
0.0
  0
LINE
  5
2DF76
330
1F
100
AcDbEntity
  8
AM_0
100
AcDbLine
 10
834.621419951061
 20
630.3871345805516
 30
0.0
 11
834.621419951061
 21
607.8871345805517
 31
0.0
  0
LINE
  5
2DF77
330
1F
100
AcDbEntity
  8
AM_0
100
AcDbLine
 10
833.1214199510609
 20
606.3871345805516
 30
0.0
 11
817.0914209510611
 21
606.3871345805516
 31
0.0
  0
LINE
  5
2DF78
330
1F
100
AcDbEntity
  8
AM_0
100
AcDbLine
 10
834.621419951061
 20
630.3871345805516
 30
0.0
 11
833.1214199510609
 21
630.3871345805516
 31
0.0
  0
LINE
  5
2DF79
330
1F
100
AcDbEntity
  8
AM_0
100
AcDbLine
 10
833.1214199510609
 20
607.8871345805517
 30
0.0
 11
817.0914209510611
 21
607.8871345805517
 31
0.0
  0
LINE
  5
2DF7A
330
1F
100
AcDbEntity
  8
AM_0
100
AcDbLine
 10
826.0914209510612
 20
613.8871345805516
 30
0.0
 11
826.0914209510612
 21
610.3871345805516
 31
0.0
  0
LINE
  5
2DF7B
330
1F
100
AcDbEntity
  8
AM_0
100
AcDbLine
 10
824.5914209510612
 20
613.8871345805516
 30
0.0
 11
824.5914209510612
 21
610.3871345805516
 31
0.0
  0
LINE
  5
2DF7C
330
1F
100
AcDbEntity
  8
AM_0
100
AcDbLine
 10
816.5914209510612
 20
609.3871345805516
 30
0.0
 11
823.5914209510612
 21
609.3871345805516
 31
0.0
  0
LINE
  5
2DF7D
330
1F
100
AcDbEntity
  8
AM_0
100
AcDbLine
 10
815.5914209510612
 20
630.3871345805516
 30
0.0
 11
815.5914209510612
 21
610.3871345805516
 31
0.0
  0
LINE
  5
2DF7E
330
1F
100
AcDbEntity
  8
AM_0
100
AcDbLine
 10
824.5914209510612
 20
630.3871345805516
 30
0.0
 11
824.5914209510612
 21
626.8871345805516
 31
0.0
  0
LINE
  5
2DF7F
330
1F
100
AcDbEntity
  8
AM_0
100
AcDbLine
 10
816.5914209510612
 20
631.3871345805516
 30
0.0
 11
823.5914209510612
 21
631.3871345805516
 31
0.0
  0
LINE
  5
2DF80
330
1F
100
AcDbEntity
  8
AM_0
100
AcDbLine
 10
826.0914209510612
 20
630.3871345805516
 30
0.0
 11
826.0914209510612
 21
626.8871345805516
 31
0.0
  0
LINE
  5
2DF81
330
1F
100
AcDbEntity
  8
AM_0
100
AcDbLine
 10
816.5914209510612
 20
632.8871345805517
 30
0.0
 11
823.5914209510612
 21
632.8871345805517
 31
0.0
  0
LINE
  5
2DF82
330
1F
100
AcDbEntity
  8
AM_0
100
AcDbLine
 10
814.0914209510611
 20
630.3871345805516
 30
0.0
 11
814.0914209510611
 21
610.3871345805516
 31
0.0
  0
LINE
  5
2DF83
330
1F
100
AcDbEntity
  8
AM_0
100
AcDbLine
 10
816.5914209510612
 20
607.8871345805517
 30
0.0
 11
823.5914209510612
 21
607.8871345805517
 31
0.0
  0
LINE
  5
2DF84
330
1F
100
AcDbEntity
  8
AM_0
100
AcDbLine
 10
824.5914209510612
 20
613.8871345805516
 30
0.0
 11
826.621419951061
 21
613.8871345805516
 31
0.0
  0
LINE
  5
2DF85
330
1F
100
AcDbEntity
  8
AM_0
100
AcDbLine
 10
824.5914209510612
 20
626.8871345805516
 30
0.0
 11
826.621419951061
 21
626.8871345805516
 31
0.0
  0
LINE
  5
2DF86
330
1F
100
AcDbEntity
  8
AM_0
100
AcDbLine
 10
826.621419951061
 20
613.8871345805516
 30
0.0
 11
826.621419951061
 21
611.8871345805517
 31
0.0
  0
LINE
  5
2DF87
330
1F
100
AcDbEntity
  8
AM_0
100
AcDbLine
 10
826.621419951061
 20
628.8871345805516
 30
0.0
 11
826.621419951061
 21
626.8871345805516
 31
0.0
  0
LINE
  5
2DF88
330
1F
100
AcDbEntity
  8
AM_0
100
AcDbLine
 10
833.1214199510609
 20
630.3871345805516
 30
0.0
 11
833.1214199510609
 21
607.8871345805517
 31
0.0
  0
LINE
  5
2DF89
330
1F
100
AcDbEntity
  8
AM_0
100
AcDbLine
 10
851.621419951061
 20
617.3871345805516
 30
0.0
 11
834.621419951061
 21
617.3871345805516
 31
0.0
  0
LINE
  5
2DF8A
330
1F
100
AcDbEntity
  8
AM_0
100
AcDbLine
 10
875.621419951061
 20
630.3871345805516
 30
0.0
 11
875.621419951061
 21
610.3871345805516
 31
0.0
  0
LINE
  5
2DF8B
102
{ACAD_REACTORS
330
2E077
102
}
330
1F
100
AcDbEntity
  8
AM_0
100
AcDbLine
 10
893.616277951061
 20
631.3871495805516
 30
0.0
 11
893.616277951061
 21
609.3871495805516
 31
0.0
  0
LINE
  5
2DF8C
330
1F
100
AcDbEntity
  8
AM_0
100
AcDbLine
 10
893.5162779510612
 20
630.2871495805516
 30
0.0
 11
893.5162779510612
 21
610.4871495805516
 31
0.0
  0
ARC
  5
2DF8D
330
1F
100
AcDbEntity
  8
AM_0
100
AcDbCircle
 10
891.0162779510612
 20
610.4871495805516
 30
0.0
 40
2.5
100
AcDbArc
 50
270.0
 51
0.0
1001
GENIUS_GENOBJ-N-FIL_13
1002
{
1000
OWNER
1000
GEN
1002
}
1001
GENIUS_GENODEF_13
1002
{
1000
HIER
1070
     0
1002
}
1002
{
1000
MANEDIT
1070
     0
1002
}
1002
{
1000
NOSEL
1070
     0
1002
}
1002
{
1000
BEHIND
1070
     0
1002
}
1002
{
1000
OTHER
1070
     0
1002
}
1002
{
1000
REACTOR
1002
}
  0
ARC
  5
2DF8E
330
1F
100
AcDbEntity
  8
AM_0
100
AcDbCircle
 10
891.0162779510612
 20
630.2871495805516
 30
0.0
 40
2.5
100
AcDbArc
 50
0.0
 51
90.0
1001
GENIUS_GENODEF_13
1002
{
1000
HIER
1070
     0
1002
}
1002
{
1000
MANEDIT
1070
     0
1002
}
1002
{
1000
NOSEL
1070
     0
1002
}
1002
{
1000
BEHIND
1070
     0
1002
}
1002
{
1000
OTHER
1070
     0
1002
}
1002
{
1000
REACTOR
1002
}
1001
GENIUS_GENOBJ-N-FIL_13
1002
{
1000
OWNER
1000
GEN
1002
}
  0
LINE
  5
2DF8F
330
1F
100
AcDbEntity
  8
AM_0
100
AcDbLine
 10
879.6214199510611
 20
610.3871345805516
 30
0.0
 11
874.621419951061
 21
610.3871345805516
 31
0.0
  0
LINE
  5
2DF90
102
{ACAD_REACTORS
330
2E05F
102
}
330
1F
100
AcDbEntity
  8
AM_0
100
AcDbLine
 10
874.621419951061
 20
610.3871345805516
 30
0.0
 11
874.621419951061
 21
630.3871345805516
 31
0.0
  0
LINE
  5
2DF91
330
1F
100
AcDbEntity
  8
AM_0
100
AcDbLine
 10
881.716292951061
 20
613.9371375805516
 30
0.0
 11
881.6214199510611
 21
613.9371375805516
 31
0.0
  0
LINE
  5
2DF92
330
1F
100
AcDbEntity
  8
AM_0
100
AcDbLine
 10
881.716292951061
 20
626.8371315805516
 30
0.0
 11
881.6214199510611
 21
626.8371315805516
 31
0.0
  0
LINE
  5
2DF93
330
1F
100
AcDbEntity
  8
AM_0
100
AcDbLine
 10
879.6214199510611
 20
630.3871345805516
 30
0.0
 11
874.621419951061
 21
630.3871345805516
 31
0.0
  0
LINE
  5
2DF94
330
1F
100
AcDbEntity
  8
AM_0
100
AcDbLine
 10
874.621419951061
 20
616.3871345805516
 30
0.0
 11
851.621419951061
 21
616.3871345805516
 31
0.0
  0
LINE
  5
2DF95
330
1F
100
AcDbEntity
  8
AM_0
100
AcDbLine
 10
874.621419951061
 20
624.3871345805517
 30
0.0
 11
851.621419951061
 21
624.3871345805517
 31
0.0
  0
LINE
  5
2DF96
330
1F
100
AcDbEntity
  8
AM_0
100
AcDbLine
 10
881.121419951061
 20
627.3371315805515
 30
0.0
 11
881.121419951061
 21
628.8871345805516
 31
0.0
  0
LINE
  5
2DF97
330
1F
100
AcDbEntity
  8
AM_0
100
AcDbLine
 10
881.616292951061
 20
613.3871495805516
 30
0.0
 11
881.616292951061
 21
609.3871495805516
 31
0.0
  0
LINE
  5
2DF98
330
1F
100
AcDbEntity
  8
AM_0
100
AcDbLine
 10
881.716292951061
 20
630.2871495805516
 30
0.0
 11
881.716292951061
 21
610.4871495805516
 31
0.0
  0
ARC
  5
2DF99
330
1F
100
AcDbEntity
  8
AM_0
100
AcDbCircle
 10
884.216292951061
 20
610.4871495805516
 30
0.0
 40
2.5
100
AcDbArc
 50
180.0
 51
270.0
1001
GENIUS_GENODEF_13
1002
{
1000
HIER
1070
     0
1002
}
1002
{
1000
MANEDIT
1070
     0
1002
}
1002
{
1000
NOSEL
1070
     0
1002
}
1002
{
1000
BEHIND
1070
     0
1002
}
1002
{
1000
OTHER
1070
     0
1002
}
1002
{
1000
REACTOR
1002
}
1001
GENIUS_GENOBJ-N-FIL_13
1002
{
1000
OWNER
1000
GEN
1002
}
  0
LINE
  5
2DF9A
330
1F
100
AcDbEntity
  8
AM_0
100
AcDbLine
 10
881.121419951061
 20
611.8871345805517
 30
0.0
 11
881.121419951061
 21
613.4371375805516
 31
0.0
  0
LINE
  5
2DF9B
102
{ACAD_REACTORS
330
2E05F
102
}
330
1F
100
AcDbEntity
  8
AM_0
100
AcDbLine
 10
851.621419951061
 20
616.3871345805516
 30
0.0
 11
851.621419951061
 21
624.3871345805517
 31
0.0
  0
LINE
  5
2DF9C
330
1F
100
AcDbEntity
  8
AM_0
100
AcDbLine
 10
881.616292951061
 20
631.3871495805516
 30
0.0
 11
881.616292951061
 21
627.3871495805516
 31
0.0
  0
LINE
  5
2DF9D
330
1F
100
AcDbEntity
  8
AM_0
100
AcDbLine
 10
892.116261951061
 20
607.8871495805516
 30
0.0
 11
883.1162929510611
 21
607.8871495805516
 31
0.0
  0
LINE
  5
2DF9E
330
1F
100
AcDbEntity
  8
AM_0
100
AcDbLine
 10
891.0162779510612
 20
607.9871495805516
 30
0.0
 11
884.216292951061
 21
607.9871495805516
 31
0.0
  0
LINE
  5
2DF9F
330
1F
100
AcDbEntity
  8
AM_0
100
AcDbLine
 10
883.1162929510611
 20
632.8871495805516
 30
0.0
 11
883.1162929510611
 21
632.8871495805516
 31
0.0
  0
LINE
  5
2DFA0
330
1F
100
AcDbEntity
  8
AM_0
100
AcDbLine
 10
892.116261951061
 20
632.8871495805516
 30
0.0
 11
883.1162929510611
 21
632.8871495805516
 31
0.0
  0
LINE
  5
2DFA1
330
1F
100
AcDbEntity
  8
AM_0
100
AcDbLine
 10
891.0162779510612
 20
632.7871495805516
 30
0.0
 11
884.216292951061
 21
632.7871495805516
 31
0.0
  0
ARC
  5
2DFA2
330
1F
100
AcDbEntity
  8
AM_0
100
AcDbCircle
 10
884.216292951061
 20
630.2871495805516
 30
0.0
 40
2.5
100
AcDbArc
 50
90.0
 51
180.0
1001
GENIUS_GENODEF_13
1002
{
1000
HIER
1070
     0
1002
}
1002
{
1000
MANEDIT
1070
     0
1002
}
1002
{
1000
NOSEL
1070
     0
1002
}
1002
{
1000
BEHIND
1070
     0
1002
}
1002
{
1000
OTHER
1070
     0
1002
}
1002
{
1000
REACTOR
1002
}
1001
GENIUS_GENOBJ-N-FIL_13
1002
{
1000
OWNER
1000
GEN
1002
}
  0
LINE
  5
2DFA3
330
1F
100
AcDbEntity
  8
AM_0
100
AcDbLine
 10
821.121419951061
 20
605.8871345805516
 30
0.0
 11
819.1214199510611
 21
605.8871345805516
 31
0.0
  0
LINE
  5
2DFA4
330
1F
100
AcDbEntity
  8
AM_0
100
AcDbLine
 10
819.1214199510611
 20
606.3871345805516
 30
0.0
 11
819.1214199510611
 21
605.8871345805516
 31
0.0
  0
LINE
  5
2DFA5
330
1F
100
AcDbEntity
  8
AM_0
100
AcDbLine
 10
821.121419951061
 20
606.3871345805516
 30
0.0
 11
821.121419951061
 21
605.8871345805516
 31
0.0
  0
ARC
  5
2DFA6
330
1F
100
AcDbEntity
  8
AM_0
100
AcDbCircle
 10
832.621419951061
 20
610.8871345805517
 30
0.0
 40
0.5
100
AcDbArc
 50
270.0
 51
0.0
  0
ARC
  5
2DFA7
330
1F
100
AcDbEntity
  8
AM_0
100
AcDbCircle
 10
832.621419951061
 20
629.8871345805516
 30
0.0
 40
0.5
100
AcDbArc
 50
0.0
 51
90.0
  0
ARC
  5
2DFA8
330
1F
100
AcDbEntity
  8
AM_0
100
AcDbCircle
 10
817.0914209510611
 20
599.8871345805516
 30
0.0
 40
8.0
100
AcDbArc
 50
90.00001400000009
 51
180.0
  0
ARC
  5
2DFA9
102
{ACAD_REACTORS
330
2DFE7
330
2E011
102
}
330
1F
100
AcDbEntity
  8
AM_0
100
AcDbCircle
 10
833.1214199510609
 20
607.8871345805517
 30
0.0
 40
1.5
100
AcDbArc
 50
270.0
 51
0.0
  0
ARC
  5
2DFAA
330
1F
100
AcDbEntity
  8
AM_0
100
AcDbCircle
 10
817.0914209510611
 20
599.8871345805516
 30
0.0
 40
6.5
100
AcDbArc
 50
90.00001699999781
 51
180.0
  0
ARC
  5
2DFAB
330
1F
100
AcDbEntity
  8
AM_0
100
AcDbCircle
 10
828.121419951061
 20
628.8871345805516
 30
0.0
 40
1.5
100
AcDbArc
 50
90.0
 51
180.0
  0
ARC
  5
2DFAC
330
1F
100
AcDbEntity
  8
AM_0
100
AcDbCircle
 10
828.121419951061
 20
611.8871345805517
 30
0.0
 40
1.5
100
AcDbArc
 50
180.0
 51
270.0
  0
ARC
  5
2DFAD
330
1F
100
AcDbEntity
  8
AM_0
100
AcDbCircle
 10
823.5914209510612
 20
610.3871345805516
 30
0.0
 40
1.0
100
AcDbArc
 50
270.0
 51
0.0
  0
ARC
  5
2DFAE
330
1F
100
AcDbEntity
  8
AM_0
100
AcDbCircle
 10
816.5914209510612
 20
610.3871345805516
 30
0.0
 40
1.0
100
AcDbArc
 50
180.0
 51
270.0
  0
ARC
  5
2DFAF
330
1F
100
AcDbEntity
  8
AM_0
100
AcDbCircle
 10
816.5914209510612
 20
630.3871345805516
 30
0.0
 40
1.0
100
AcDbArc
 50
90.0
 51
180.0
  0
ARC
  5
2DFB0
330
1F
100
AcDbEntity
  8
AM_0
100
AcDbCircle
 10
823.5914209510612
 20
630.3871345805516
 30
0.0
 40
1.0
100
AcDbArc
 50
0.0
 51
90.0
  0
ARC
  5
2DFB1
330
1F
100
AcDbEntity
  8
AM_0
100
AcDbCircle
 10
823.5914209510612
 20
630.3871345805516
 30
0.0
 40
2.5
100
AcDbArc
 50
0.0000437132080826
 51
90.0
  0
ARC
  5
2DFB2
330
1F
100
AcDbEntity
  8
AM_0
100
AcDbCircle
 10
816.5914209510612
 20
630.3871345805516
 30
0.0
 40
2.5
100
AcDbArc
 50
90.0
 51
180.0
  0
ARC
  5
2DFB3
102
{ACAD_REACTORS
330
2DFE7
102
}
330
1F
100
AcDbEntity
  8
AM_0
100
AcDbCircle
 10
816.5914209510612
 20
610.3871345805516
 30
0.0
 40
2.5
100
AcDbArc
 50
180.0
 51
270.0000399999975
  0
ARC
  5
2DFB4
330
1F
100
AcDbEntity
  8
AM_0
100
AcDbCircle
 10
823.5914209510612
 20
610.3871345805516
 30
0.0
 40
2.5
100
AcDbArc
 50
270.0000399999975
 51
0.0
  0
ARC
  5
2DFB5
102
{ACAD_REACTORS
330
2E077
102
}
330
1F
100
AcDbEntity
  8
AM_0
100
AcDbCircle
 10
883.1162929510611
 20
609.3871495805516
 30
0.0
 40
1.5
100
AcDbArc
 50
180.0
 51
270.0
  0
ARC
  5
2DFB6
330
1F
100
AcDbEntity
  8
AM_0
100
AcDbCircle
 10
892.116261951061
 20
609.3871495805516
 30
0.0
 40
1.5
100
AcDbArc
 50
270.0
 51
0.0
  0
ARC
  5
2DFB7
330
1F
100
AcDbEntity
  8
AM_0
100
AcDbCircle
 10
882.1162929510611
 20
613.3871495805516
 30
0.0
 40
0.5
100
AcDbArc
 50
143.1301023541527
 51
180.0
  0
ARC
  5
2DFB8
330
1F
100
AcDbEntity
  8
AM_0
100
AcDbCircle
 10
882.1162929510611
 20
627.3871495805516
 30
0.0
 40
0.5
100
AcDbArc
 50
180.0
 51
216.8698976458375
  0
ARC
  5
2DFB9
330
1F
100
AcDbEntity
  8
AM_0
100
AcDbCircle
 10
881.6214199510611
 20
613.4371375805516
 30
0.0
 40
0.5
100
AcDbArc
 50
90.0
 51
180.0
  0
ARC
  5
2DFBA
330
1F
100
AcDbEntity
  8
AM_0
100
AcDbCircle
 10
881.6214199510611
 20
627.3371315805515
 30
0.0
 40
0.5
100
AcDbArc
 50
180.0
 51
270.0
  0
ARC
  5
2DFBB
330
1F
100
AcDbEntity
  8
AM_0
100
AcDbCircle
 10
879.6214199510611
 20
628.8871345805516
 30
0.0
 40
1.5
100
AcDbArc
 50
0.0
 51
90.0
  0
ARC
  5
2DFBC
330
1F
100
AcDbEntity
  8
AM_0
100
AcDbCircle
 10
879.6214199510611
 20
611.8871345805517
 30
0.0
 40
1.5
100
AcDbArc
 50
270.0
 51
0.0
  0
ARC
  5
2DFBD
330
1F
100
AcDbEntity
  8
AM_0
100
AcDbCircle
 10
892.116261951061
 20
631.3871495805516
 30
0.0
 40
1.5
100
AcDbArc
 50
0.0
 51
90.0
  0
ARC
  5
2DFBE
330
1F
100
AcDbEntity
  8
AM_0
100
AcDbCircle
 10
883.1162929510611
 20
631.3871495805516
 30
0.0
 40
1.5
100
AcDbArc
 50
90.0
 51
180.0
  0
LINE
  5
2DFD8
330
1F
100
AcDbEntity
  8
AM_7
100
AcDbLine
 10
811.0914209510612
 20
620.3871345805517
 30
0.0
 11
896.6162779510611
 21
620.3871345805514
 31
0.0
1001
GENIUS_GENODEF_13
1002
{
1000
HIER
1070
     0
1002
}
1002
{
1000
MANEDIT
1070
     0
1002
}
1002
{
1000
NOSEL
1070
     0
1002
}
1002
{
1000
BEHIND
1070
     0
1002
}
1002
{
1000
OTHER
1070
     0
1002
}
1002
{
1000
REACTOR
1002
}
1001
GENIUS_GENOBJ-N-CEN_13
1002
{
1000
OWNER
1000
GEN
1002
}
1001
GENIUS_GENCEN_19
1002
{
1040
3.0
1002
}
  0
DIMENSION
  5
2DFD9
102
{ACAD_XDICTIONARY
360
2DFE6
102
}
102
{ACAD_REACTORS
330
2DFE7
102
}
330
1F
100
AcDbEntity
  8
AM_5
100
AcDbDimension
  2
*D14
 10
814.0914209510611
 20
575.8871425805511
 30
0.0
 11
824.3564204510612
 21
578.9871425805512
 31
0.0
 70
    32
 71
     5
 42
20.52999899999986
  3
SYS$0
100
AcDbAlignedDimension
 13
834.621419951061
 23
607.8871345805517
 33
0.0
 14
814.0914209510611
 24
610.3871345805516
 34
0.0
 50
0.0000000000001018
100
AcDbRotatedDimension
1001
ACAD
1000
DSTYLE
1002
{
1070
   271
1070
     1
1002
}
  0
DIMENSION
  5
2E003
102
{ACAD_XDICTIONARY
360
2E010
102
}
102
{ACAD_REACTORS
330
2E011
102
}
330
1F
100
AcDbEntity
  8
AM_5
100
AcDbDimension
  2
*D15
 10
809.0913909510611
 20
565.8871425805506
 30
0.0
 11
821.856405451061
 21
568.9871425805506
 31
0.0
 70
    32
 71
     5
 42
25.53002900000001
  3
SYS$0
100
AcDbAlignedDimension
 13
834.621419951061
 23
607.8871345805517
 33
0.0
 14
809.0913909510611
 24
587.8871345805516
 34
0.0
 50
0.0000000000001018
100
AcDbRotatedDimension
1001
ACAD
1000
DSTYLE
1002
{
1070
   271
1070
     1
1002
}
  0
DIMENSION
  5
2E051
102
{ACAD_XDICTIONARY
360
2E05E
102
}
102
{ACAD_REACTORS
330
2E05F
102
}
330
1F
100
AcDbEntity
  8
AM_5
100
AcDbDimension
  2
*D16
 10
874.621419951061
 20
565.8871425805505
 30
0.0
 11
863.121419951061
 21
568.9871425805505
 31
0.0
 70
    32
 71
     5
 42
23.0
  3
SYS$0
100
AcDbAlignedDimension
 13
851.621419951061
 23
616.3871345805516
 33
0.0
 14
874.621419951061
 24
610.3871345805516
 34
0.0
 50
0.0000000000001132
100
AcDbRotatedDimension
1001
ACAD
1000
DSTYLE
1002
{
1070
   271
1070
     1
1002
}
  0
DIMENSION
  5
2E069
102
{ACAD_XDICTIONARY
360
2E076
102
}
102
{ACAD_REACTORS
330
2E077
102
}
330
1F
100
AcDbEntity
  8
AM_5
100
AcDbDimension
  2
*D17
 10
893.616277951061
 20
575.8871425805505
 30
0.0
 11
887.616285451061
 21
578.9871425805505
 31
0.0
 70
    32
 71
     5
 42
11.99998499999992
  3
SYS$0
100
AcDbAlignedDimension
 13
881.616292951061
 23
609.3871495805516
 33
0.0
 14
893.616277951061
 24
609.3871495805516
 34
0.0
 50
0.0000000000001132
100
AcDbRotatedDimension
1001
ACAD
1000
DSTYLE
1002
{
1070
   271
1070
     1
1002
}
  0
DIMENSION
  5
2E081
330
1F
100
AcDbEntity
  8
AM_5
100
AcDbDimension
  2
*D18
 10
893.616277951061
 20
565.8871425805505
 30
0.0
 11
884.118848951061
 21
568.9871425805505
 31
0.0
 70
    32
  1
（<>）
 71
     5
 42
18.99485800000002
  3
SYS$0
100
AcDbAlignedDimension
 13
874.621419951061
 23
609.3871345805516
 33
0.0
 14
893.616277951061
 24
608.3871495805516
 34
0.0
 50
0.0000000000001132
100
AcDbRotatedDimension
1001
ACAD
1000
DSTYLE
1002
{
1070
   271
1070
     1
1002
}
  0
CIRCLE
  5
2E0FD
330
1F
100
AcDbEntity
  8
AM_0
100
AcDbCircle
 10
842.4523061478708
 20
686.398776773505
 30
0.0
 40
5.0
  0
CIRCLE
  5
2E0FE
330
1F
100
AcDbEntity
  8
AM_0
100
AcDbCircle
 10
864.452306147861
 20
686.398776773505
 30
0.0
 40
5.0
  0
CIRCLE
  5
2E0FF
330
1F
100
AcDbEntity
  8
AM_0
100
AcDbCircle
 10
886.4523061478708
 20
686.398776773505
 30
0.0
 40
5.0
  0
LINE
  5
2E100
330
1F
100
AcDbEntity
  8
AM_7
100
AcDbLine
 10
833.4523061478709
 20
686.398776773505
 30
0.0
 11
895.4523061478708
 21
686.398776773505
 31
0.0
1001
GENIUS_GENOBJ-N-CEN_13
1002
{
1000
OWNER
1000
GEN
1002
}
1001
GENIUS_GENODEF_13
1002
{
1000
HIER
1070
     0
1002
}
1002
{
1000
MANEDIT
1070
     0
1002
}
1002
{
1000
NOSEL
1070
     0
1002
}
1002
{
1000
BEHIND
1070
     0
1002
}
1002
{
1000
OTHER
1070
     0
1002
}
1002
{
1000
REACTOR
1002
}
1001
GENIUS_GENCEN_19
1002
{
1040
4.0
1002
}
  0
LINE
  5
2E101
102
{ACAD_REACTORS
330
2E109
102
}
330
1F
100
AcDbEntity
  8
AM_7
100
AcDbLine
 10
842.4523061478708
 20
677.398776773505
 30
0.0
 11
842.4523061478708
 21
695.398776773505
 31
0.0
1001
GENIUS_GENODEF_13
1002
{
1000
HIER
1070
     0
1002
}
1002
{
1000
MANEDIT
1070
     0
1002
}
1002
{
1000
NOSEL
1070
     0
1002
}
1002
{
1000
BEHIND
1070
     0
1002
}
1002
{
1000
OTHER
1070
     0
1002
}
1002
{
1000
REACTOR
1002
}
1001
GENIUS_GENOBJ-N-CEN_13
1002
{
1000
OWNER
1000
GEN
1002
}
1001
GENIUS_GENCEN_19
1002
{
1040
4.0
1002
}
  0
LINE
  5
2E102
330
1F
100
AcDbEntity
  8
AM_7
100
AcDbLine
 10
864.452306147861
 20
677.398776773505
 30
0.0
 11
864.452306147861
 21
695.398776773505
 31
0.0
1001
GENIUS_GENODEF_13
1002
{
1000
HIER
1070
     0
1002
}
1002
{
1000
MANEDIT
1070
     0
1002
}
1002
{
1000
NOSEL
1070
     0
1002
}
1002
{
1000
BEHIND
1070
     0
1002
}
1002
{
1000
OTHER
1070
     0
1002
}
1002
{
1000
REACTOR
1002
}
1001
GENIUS_GENOBJ-N-CEN_13
1002
{
1000
OWNER
1000
GEN
1002
}
1001
GENIUS_GENCEN_19
1002
{
1040
4.0
1002
}
  0
LINE
  5
2E103
330
1F
100
AcDbEntity
  8
AM_7
100
AcDbLine
 10
886.4523061478708
 20
677.398776773505
 30
0.0
 11
886.4523061478708
 21
695.398776773505
 31
0.0
1001
GENIUS_GENODEF_13
1002
{
1000
HIER
1070
     0
1002
}
1002
{
1000
MANEDIT
1070
     0
1002
}
1002
{
1000
NOSEL
1070
     0
1002
}
1002
{
1000
BEHIND
1070
     0
1002
}
1002
{
1000
OTHER
1070
     0
1002
}
1002
{
1000
REACTOR
1002
}
1001
GENIUS_GENOBJ-N-CEN_13
1002
{
1000
OWNER
1000
GEN
1002
}
1001
GENIUS_GENCEN_19
1002
{
1040
4.0
1002
}
  0
DIMENSION
  5
2E107
102
{ACAD_XDICTIONARY
360
2E108
102
}
102
{ACAD_REACTORS
330
2E109
102
}
330
1F
100
AcDbEntity
  8
AM_5
100
AcDbDimension
  2
*D22
 10
842.4523061478708
 20
665.3987767735043
 30
0.0
 11
864.4523061478707
 21
668.4987767735043
 31
0.0
 70
    32
 71
     5
 42
43.99999999999988
  3
SYS$0
100
AcDbAlignedDimension
 13
886.4523061478708
 23
677.398776773505
 33
0.0
 14
842.4523061478708
 24
677.398776773505
 34
0.0
100
AcDbRotatedDimension
  0
MTEXT
  5
2E10A
330
1F
100
AcDbEntity
  8
AM_6
100
AcDbMText
 10
857.7930794029388
 20
660.2966037256258
 30
0.0
 40
3.2
 41
80.36412711772412
 71
     1
 72
     5
  1
切欠推奨寸法
 73
     1
 44
1.0
1001
ACAD
1000
MTEXTBEGIN
1070
    73
1070
     1
1070
    44
1040
1.0
1070
    74
1070
     0
1000
MTEXTEND
  0
HATCH
  5
2E10B
330
1F
100
AcDbEntity
  8
AM_8
100
AcDbHatch
 10
0.0
 20
0.0
 30
0.0
210
0.0
220
0.0
230
1.0
  2
_U
 70
     0
 71
     0
 91
        1
 92
        1
 93
        2
 72
     2
 10
842.4523061478708
 20
686.3987767735051
 40
5.000000000000015
 50
191.4591559026179
 51
500.93803049914
 73
     1
 72
     2
 10
842.4523061478708
 20
686.3987767735051
 40
4.999999999999939
 50
140.93803049914
 51
191.4591559026179
 73
     1
 97
        0
 75
     0
 76
     0
 52
45.0
 41
2.0
 77
     0
 78
     1
 53
45.0
 43
-14.85965961420686
 44
15.47962841953028
 45
-1.414213562373094
 46
1.414213562373095
 79
     0
 98
        1
 10
-14.85965961420686
 20
15.47962841953028
1001
GENIUS_GENODEF_13
1002
{
1000
HIER
1070
     0
1002
}
1002
{
1000
MANEDIT
1070
     0
1002
}
1002
{
1000
NOSEL
1070
     0
1002
}
1002
{
1000
BEHIND
1070
     0
1002
}
1002
{
1000
OTHER
1070
     0
1002
}
1002
{
1000
REACTOR
1002
}
1001
GENIUS_GENOBJ-N-HTC_13
1002
{
1000
OWNER
1000
GEN
1002
}
1001
GENIUS_GENHATCH_13
1002
{
1000
DATA
1040
45.0
1042
2.5
1000
_U
1070
     0
1011
840.5383571210366
1021
688.3578808742683
1031
0.0
1002
}
1002
{
1000
UCS
1010
0.0
1020
0.0
1030
0.0
1010
1.0
1020
0.0
1030
0.0
1010
0.0
1020
1.0
1030
0.0
1002
}
  0
HATCH
  5
2E10C
330
1F
100
AcDbEntity
  8
AM_8
100
AcDbHatch
 10
0.0
 20
0.0
 30
0.0
210
0.0
220
0.0
230
1.0
  2
_U
 70
     0
 71
     0
 91
        1
 92
        1
 93
        2
 72
     2
 10
864.4523061478608
 20
686.398776773505
 40
4.99999999999988
 50
191.4591559026169
 51
470.6691786884134
 73
     1
 72
     2
 10
864.4523061478608
 20
686.398776773505
 40
4.999999999999936
 50
110.6691786884133
 51
191.4591559026169
 73
     1
 97
        0
 75
     0
 76
     0
 52
45.0
 41
2.0
 77
     0
 78
     1
 53
45.0
 43
-15.35965961420686
 44
15.47962841953028
 45
-1.414213562373094
 46
1.414213562373095
 79
     0
 98
        1
 10
-15.35965961420686
 20
15.47962841953028
1001
GENIUS_GENOBJ-N-HTC_13
1002
{
1000
OWNER
1000
GEN
1002
}
1001
GENIUS_GENODEF_13
1002
{
1000
HIER
1070
     0
1002
}
1002
{
1000
MANEDIT
1070
     0
1002
}
1002
{
1000
NOSEL
1070
     0
1002
}
1002
{
1000
BEHIND
1070
     0
1002
}
1002
{
1000
OTHER
1070
     0
1002
}
1002
{
1000
REACTOR
1002
}
1001
GENIUS_GENHATCH_13
1002
{
1000
DATA
1040
45.0
1042
2.5
1000
_U
1070
     0
1011
863.9465050824336
1021
687.7395212232445
1031
0.0
1002
}
1002
{
1000
UCS
1010
0.0
1020
0.0
1030
0.0
1010
1.0
1020
0.0
1030
0.0
1010
0.0
1020
1.0
1030
0.0
1002
}
  0
HATCH
  5
2E10D
330
1F
100
AcDbEntity
  8
AM_8
100
AcDbHatch
 10
0.0
 20
0.0
 30
0.0
210
0.0
220
0.0
230
1.0
  2
_U
 70
     0
 71
     0
 91
        1
 92
        1
 93
        2
 72
     2
 10
886.4523061478708
 20
686.398776773505
 40
5.000000000000103
 50
191.4591559026164
 51
492.0740944797266
 73
     1
 72
     2
 10
886.4523061478708
 20
686.398776773505
 40
5.000000000000092
 50
132.0740944797267
 51
191.4591559026164
 73
     1
 97
        0
 75
     0
 76
     0
 52
45.0
 41
2.0
 77
     0
 78
     1
 53
45.0
 43
-15.85965961420686
 44
15.47962841953028
 45
-1.414213562373094
 46
1.414213562373095
 79
     0
 98
        1
 10
-15.85965961420686
 20
15.47962841953028
1001
GENIUS_GENODEF_13
1002
{
1000
HIER
1070
     0
1002
}
1002
{
1000
MANEDIT
1070
     0
1002
}
1002
{
1000
NOSEL
1070
     0
1002
}
1002
{
1000
BEHIND
1070
     0
1002
}
1002
{
1000
OTHER
1070
     0
1002
}
1002
{
1000
REACTOR
1002
}
1001
GENIUS_GENOBJ-N-HTC_13
1002
{
1000
OWNER
1000
GEN
1002
}
1001
GENIUS_GENHATCH_13
1002
{
1000
DATA
1040
45.0
1042
2.5
1000
_U
1070
     0
1011
884.7419512481137
1021
687.7395212232445
1031
0.0
1002
}
1002
{
1000
UCS
1010
0.0
1020
0.0
1030
0.0
1010
1.0
1020
0.0
1030
0.0
1010
0.0
1020
1.0
1030
0.0
1002
}
  0
DIMENSION
  5
2E10E
330
1F
100
AcDbEntity
  8
AM_5
100
AcDbDimension
  2
*D20
 10
845.0396779529615
 20
682.1202832135918
 30
0.0
 11
828.7150387489075
 21
697.0848209649477
 31
0.0
 70
   163
  1
3-<>
 71
     5
 42
9.999999999999715
  3
SYS$3
100
AcDbDiametricDimension
 15
839.864934342779
 25
690.6772703334179
 35
0.0
 40
0.0
1001
ACAD
1000
DSTYLE
1002
{
1070
   172
1070
     1
1070
   289
1070
     2
1070
   342
1005
2E0D5
1002
}
  0
CIRCLE
  5
2E1A5
330
1F
100
AcDbEntity
  8
AM_6
100
AcDbCircle
 10
904.5426028165875
 20
798.3561031702105
 30
0.0
 40
2.0
  0
TEXT
  5
2E1A6
330
1F
100
AcDbEntity
  8
AM_6
100
AcDbText
 10
869.9650508618203
 20
788.8811031702105
 30
0.0
 40
3.2
  1
（パネル厚36，40ｍｍ用）
 41
0.84326962
100
AcDbText
  0
TEXT
  5
2E1A7
330
1F
100
AcDbEntity
  8
AM_6
100
AcDbText
 10
869.9650508618203
 20
796.8811031702105
 30
0.0
 40
3.2
  1
M4×40ナベ小ネジ　＋　SUS：２本付
 41
0.8423746600000001
100
AcDbText
  0
VIEWPORT
  5
1B6C8
102
{ACAD_XDICTIONARY
360
2E30F
102
}
330
1B
100
AcDbEntity
 67
     1
  8
0
100
AcDbViewport
 10
153.4634011109285
 20
101.7587463855743
 30
0.0
 40
313.2767778077945
 41
209.8674926757813
 68
     1
 69
     1
 12
153.4634011109285
 22
101.7587463855743
 13
0.0
 23
0.0
 14
2.5
 24
2.5
 15
10.0
 25
10.0
 16
0.0
 26
0.0
 36
1.0
 17
0.0
 27
0.0
 37
0.0
 42
50.0
 43
0.0
 44
0.0
 45
209.8674926757813
 50
0.0
 51
0.0
 72
   100
 90
    32800
  1

281
     0
 71
     1
 74
     0
110
0.0
120
0.0
130
0.0
111
1.0
121
0.0
131
0.0
112
0.0
122
1.0
132
0.0
 79
     0
146
0.0
1001
GENIUS_GENOBJ-N-SDF_13
1002
{
1000
OWNER
1000
GEN
1002
}
1001
GENIUS_GENODEF_13
1002
{
1000
HIER
1070
     0
1002
}
1002
{
1000
MANEDIT
1070
     0
1002
}
1002
{
1000
NOSEL
1070
     0
1002
}
1002
{
1000
BEHIND
1070
     0
1002
}
1002
{
1000
OTHER
1070
     0
1002
}
1002
{
1000
REACTOR
1002
}
1001
GENIUS_GENSCREG_15
1000
PF
1040
1.0
1000
DF
1040
1.0
1000
MIN
1011
-3.17498779296875
1021
-3.174999952316369
1031
0.0
1000
MAX
1011
310.1017900148257
1021
206.692492723465
1031
0.0
1000
FLAGS
1070
     2
  0
ENDSEC
  0
SECTION
  2
OBJECTS
  0
DICTIONARY
  5
C
330
0
100
AcDbDictionary
281
     1
  3
ACAD_2007HEADERVARS_RT
350
2E2F2
  3
ACAD_BGPLOT_KEY
350
AB06
  3
ACAD_COLOR
350
A91D
  3
ACAD_GROUP
350
D
  3
ACAD_LAYOUT
350
1A
  3
ACAD_MATERIAL
350
A91C
  3
ACAD_MLINESTYLE
350
17
  3
ACAD_PLOTSETTINGS
350
19
  3
ACAD_PLOTSTYLENAME
350
E
  3
ACAD_TABLESTYLE
350
AAB9
  3
ACAD_VISUALSTYLE
350
2CFE8
  3
AcAsAppObject
350
3DA1
  3
ACASGREF_MASTER
350
3DE9
  3
AcDbVariableDictionary
350
34
  3
AcmDictionary
350
47
  3
AD_GREF_MODULE
350
3DEA
  3
AD_MAPI_MODULE
350
3E06
  3
AMG
350
2B
  3
AMGSNAPSETTINGS
350
7D
  3
ASE_INDEX_DICTIONARY
350
2C9F5
  3
DWGPROPS
350
2E2F1
  3
MAPISURF_MODULE
350
3DEB
  0
DICTIONARY
  5
3F95
330
2
100
AcDbDictionary
280
     1
281
     1
  3
ACAD_LAYERFILTERS
360
2E1AD
  3
ACAD_LAYERSTATES
360
3F96
  3
ACLYDICTIONARY
360
2E1AC
  3
AMLAYER_GROUPCOLORS
360
AAB4
  0
DICTIONARY
  5
8A
330
1F
100
AcDbDictionary
280
     1
281
     1
  3
ACAD_SORTENTS
360
C9FA
  0
DICTIONARY
  5
2D597
330
2D58A
100
AcDbDictionary
280
     1
281
     1
  3
ACAD_DIMASSOC
360
2D598
  0
DICTIONARY
  5
2D5B8
330
2D5AB
100
AcDbDictionary
280
     1
281
     1
  3
ACAD_DIMASSOC
360
2D5B9
  0
DICTIONARY
  5
2D5D9
330
2D5CC
100
AcDbDictionary
280
     1
281
     1
  3
ACAD_DIMASSOC
360
2D5DA
  0
DICTIONARY
  5
2DE5A
330
2DE4D
100
AcDbDictionary
280
     1
281
     1
  3
ACAD_DIMASSOC
360
2DE5B
  0
DICTIONARY
  5
2DE84
330
2DE77
100
AcDbDictionary
280
     1
281
     1
  3
ACAD_DIMASSOC
360
2DE85
  0
DICTIONARY
  5
2DEAE
330
2DEA1
100
AcDbDictionary
280
     1
281
     1
  3
ACAD_DIMASSOC
360
2DEAF
  0
DICTIONARY
  5
2DF2C
330
2DF1F
100
AcDbDictionary
280
     1
281
     1
  3
ACAD_DIMASSOC
360
2DF2D
  0
DICTIONARY
  5
2DF65
330
2DF58
100
AcDbDictionary
280
     1
281
     1
  3
ACAD_DIMASSOC
360
2DF66
  0
DICTIONARY
  5
2DFE6
330
2DFD9
100
AcDbDictionary
280
     1
281
     1
  3
ACAD_DIMASSOC
360
2DFE7
  0
DICTIONARY
  5
2E010
330
2E003
100
AcDbDictionary
280
     1
281
     1
  3
ACAD_DIMASSOC
360
2E011
  0
DICTIONARY
  5
2E05E
330
2E051
100
AcDbDictionary
280
     1
281
     1
  3
ACAD_DIMASSOC
360
2E05F
  0
DICTIONARY
  5
2E076
330
2E069
100
AcDbDictionary
280
     1
281
     1
  3
ACAD_DIMASSOC
360
2E077
  0
DICTIONARY
  5
2E108
330
2E107
100
AcDbDictionary
280
     1
281
     1
  3
ACAD_DIMASSOC
360
2E109
  0
DICTIONARY
  5
2E30F
330
1B6C8
100
AcDbDictionary
280
     1
281
     1
  3
ACAD_XREC_ROUNDTRIP
360
2E310
  0
DICTIONARY
  5
2E2F2
102
{ACAD_REACTORS
330
C
102
}
330
C
100
AcDbDictionary
281
     1
  3
DIMARCSYM
350
2E2F3
  0
DICTIONARY
  5
AB06
102
{ACAD_REACTORS
330
C
102
}
330
C
100
AcDbDictionary
280
     1
281
     1
  0
DICTIONARY
  5
A91D
102
{ACAD_REACTORS
330
C
102
}
330
C
100
AcDbDictionary
281
     1
  0
DICTIONARY
  5
D
102
{ACAD_REACTORS
330
C
102
}
330
C
100
AcDbDictionary
281
     1
  0
DICTIONARY
  5
1A
102
{ACAD_REACTORS
330
C
102
}
330
C
100
AcDbDictionary
281
     1
  3
Model
350
22
  3
ﾚｲｱｳﾄ1
350
1E
  3
ﾚｲｱｳﾄ2
350
26
  0
DICTIONARY
  5
A91C
102
{ACAD_REACTORS
330
C
102
}
330
C
100
AcDbDictionary
281
     1
  3
ByBlock
350
2CFE6
  3
ByLayer
350
2CFE5
  3
Global
350
2CFE7
  0
DICTIONARY
  5
17
102
{ACAD_REACTORS
330
C
102
}
330
C
100
AcDbDictionary
281
     1
  3
Standard
350
18
  0
DICTIONARY
  5
19
102
{ACAD_REACTORS
330
C
102
}
330
C
100
AcDbDictionary
281
     1
  3
01   A1　１：１
350
C99B
  3
02   A2　１：１
350
C99C
  3
03   A3　１：１
350
C99D
  3
04   A4  １：１
350
C99E
  3
05   A1 自動調整
350
C99F
  3
06   A2 自動調整
350
C9A0
  3
07   A3 自動調整
350
C9A1
  3
08   A4 自動調整
350
C9A2
  3
09   A1をA3に
350
C9A3
  3
10   A2をA3に
350
C9A4
  0
ACDBDICTIONARYWDFLT
  5
E
102
{ACAD_REACTORS
330
C
102
}
330
C
100
AcDbDictionary
281
     1
  3
Normal
350
F
100
AcDbDictionaryWithDefault
340
F
  0
DICTIONARY
  5
AAB9
102
{ACAD_REACTORS
330
C
102
}
330
C
100
AcDbDictionary
281
     1
  3
Standard
350
AABA
  0
DICTIONARY
  5
2CFE8
102
{ACAD_REACTORS
330
C
102
}
330
C
100
AcDbDictionary
281
     1
  3
2dWireframe
350
2CFEE
  3
3D Hidden
350
2CFF0
  3
3dWireframe
350
2CFEF
  3
Basic
350
2CFED
  3
Brighten
350
2CFF4
  3
ColorChange
350
2CFF8
  3
Conceptual
350
2CFF1
  3
Dim
350
2CFF3
  3
Facepattern
350
2CFF7
  3
Flat
350
2CFE9
  3
FlatWithEdges
350
2CFEA
  3
Gouraud
350
2CFEB
  3
GouraudWithEdges
350
2CFEC
  3
Linepattern
350
2CFF6
  3
Realistic
350
2CFF2
  3
Thicken
350
2CFF5
  0
ACAD_PROXY_OBJECT
  5
3DA1
102
{ACAD_REACTORS
330
C
102
}
330
C
100
AcDbProxyObject
 90
      499
 91
      576
 95
   917527
 70
     0
 93
       10
310
407F
 94
        0
1001
ACAD
1000
AcRTDxfName
1000
ASAPP
1000
AcRTDxfName
1000
ASAPP
1000
AcRTDxfName
1000
ASAPP
1000
AcRTDxfName
1000
ASAPP
1000
AcRTDxfName
1000
ASAPP
  0
ACAD_PROXY_OBJECT
  5
3DE9
102
{ACAD_REACTORS
330
C
102
}
330
C
100
AcDbProxyObject
 90
      499
 91
      581
 95
   917527
 70
     0
 93
       34
310
010000407F
 94
        0
1001
ACAD
1000
AcRTDxfName
1000
ACASGREFMASTER
1000
AcRTDxfName
1000
ACASGREFMASTER
1000
AcRTDxfName
1000
ACASGREFMASTER
1000
AcRTDxfName
1000
ACASGREFMASTER
1000
AcRTDxfName
1000
ACASGREFMASTER
  0
DICTIONARY
  5
34
102
{ACAD_REACTORS
330
C
102
}
330
C
100
AcDbDictionary
281
     1
  3
CTABLESTYLE
350
AAF3
  3
DIMASSOC
350
A10C
  3
FIELDEVAL
350
AB07
  3
INDEXCTL
350
35
  3
PROJECTNAME
350
2CDAD
  3
SORTENTS
350
194C
  0
DICTIONARY
  5
47
102
{ACAD_REACTORS
330
C
102
}
330
C
100
AcDbDictionary
281
     1
  3
AcmBOM
350
7E8
  3
AcmStdDictionary
350
4C
  3
AMDTSECTSYM_ARROWCOLOR
350
A929
  0
ACAD_PROXY_OBJECT
  5
3DEA
102
{ACAD_REACTORS
330
C
102
}
330
C
100
AcDbProxyObject
 90
      499
 91
      582
 95
   917527
 70
     0
 93
      114
310
00000043800000000000000000003F
 94
        0
1001
ACAD
1000
AcRTDxfName
1000
ACADGREFMODULE
1000
AcRTDxfName
1000
ACADGREFMODULE
1000
AcRTDxfName
1000
ACADGREFMODULE
1000
AcRTDxfName
1000
ACADGREFMODULE
1000
AcRTDxfName
1000
ACADGREFMODULE
  0
ACAD_PROXY_OBJECT
  5
3E06
102
{ACAD_REACTORS
330
C
102
}
330
C
100
AcDbProxyObject
 90
      499
 91
      594
 95
   917527
 70
     0
 93
       34
310
05000044FF
 94
        0
1001
ACAD
1000
AcRTDxfName
1000
MAPIADMODULE
1000
AcRTDxfName
1000
MAPIADMODULE
1000
AcRTDxfName
1000
MAPIADMODULE
1000
AcRTDxfName
1000
MAPIADMODULE
1000
AcRTDxfName
1000
MAPIADMODULE
  0
DICTIONARY
  5
2B
102
{ACAD_REACTORS
330
C
102
}
330
C
100
AcDbDictionary
281
     1
  0
DICTIONARY
  5
7D
102
{ACAD_REACTORS
330
C
102
}
330
C
100
AcDbDictionary
281
     1
  0
DICTIONARY
  5
2C9F5
102
{ACAD_REACTORS
330
C
102
}
330
C
100
AcDbDictionary
281
     1
  3
ASEBlockHierarchyIndexRecord
350
2C9F6
1001
DCO15
1040
1558967278.687
  0
XRECORD
  5
2E2F1
102
{ACAD_REACTORS
330
C
102
}
330
C
100
AcDbXrecord
280
     1
  1
DWGPROPS COOKIE
  2

  3

  4

  6

  7

  8
Administrator
  9

300
AmdtFileType=84
301
=
302
=
303
=
304
=
305
=
306
=
307
=
308
=
309
=
 40
13.30485662037037
 41
2453690.706505706
 42
2455629.476992002
  1

 90
        1
  0
ACAD_PROXY_OBJECT
  5
3DEB
102
{ACAD_REACTORS
330
C
102
}
330
C
100
AcDbProxyObject
 90
      499
 91
      583
 95
   917527
 70
     0
 93
        8
310
047E
 94
        0
1001
ACAD
1000
AcRTDxfName
1000
AMDTMAPISURFMOUDULE
1000
AcRTDxfName
1000
AMDTMAPISURFMOUDULE
1000
AcRTDxfName
1000
AMDTMAPISURFMOUDULE
1000
AcRTDxfName
1000
AMDTMAPISURFMOUDULE
1000
AcRTDxfName
1000
AMDTMAPISURFMOUDULE
  0
DICTIONARY
  5
2E1AD
102
{ACAD_REACTORS
330
3F95
102
}
330
3F95
100
AcDbDictionary
281
     1
  0
DICTIONARY
  5
3F96
102
{ACAD_REACTORS
330
3F95
102
}
330
3F95
100
AcDbDictionary
281
     1
  3
20011210
350
3FB7
  0
DICTIONARY
  5
2E1AC
102
{ACAD_REACTORS
330
3F95
102
}
330
3F95
100
AcDbDictionary
281
     1
1001
ACAD
1000
<All
  0
DICTIONARY
  5
AAB4
102
{ACAD_REACTORS
330
3F95
102
}
330
3F95
100
AcDbDictionary
280
     1
281
     1
  3
ゴムシート
360
1FEBE
  3
ストッパー
360
E2E8
  3
バネ
360
1B4AC
  3
ブース
360
28769
  3
ベスト
360
28D60
  3
ワッシャ
360
1B425
  3
非常解錠キー
360
2112F
  0
SORTENTSTABLE
  5
C9FA
102
{ACAD_REACTORS
330
8A
102
}
330
8A
100
AcDbSortentsTable
330
1F
331
2CB72
  5
13DA5
331
2A71D
  5
2B262
331
2A723
  5
2B268
331
2CB6C
  5
13D9E
331
2A711
  5
2A725
331
2A70B
  5
2A71F
331
2A798
  5
2B28D
331
2CB73
  5
13DA6
331
2A71E
  5
2B263
331
2CB6D
  5
13D9F
331
2CB67
  5
CA6C
331
2A712
  5
2A768
331
2CB74
  5
13DA7
331
2A71F
  5
2B264
331
2A76B
  5
2B26D
331
2CB6E
  5
13DA1
331
2CB68
  5
13D99
331
2A713
  5
2A769
331
2A70D
  5
2A721
331
2A76C
  5
2B26E
331
2CB75
  5
13DA8
331
2CB6F
  5
13DA2
331
2A71A
  5
2A798
331
2CB69
  5
13D9A
331
2A714
  5
2A76A
331
2A70E
  5
2A722
331
2CB76
  5
13DA9
331
2CB70
  5
13DA3
331
2A721
  5
2B266
331
2CB6A
  5
13D9B
331
2CB77
  5
13DAA
331
2CB71
  5
13DA4
331
2A71C
  5
2A79A
331
2A768
  5
2B26A
331
2A716
  5
2A76C
331
2A722
  5
2B267
331
2A710
  5
2A723
  0
DIMASSOC
  5
2D598
102
{ACAD_REACTORS
330
2D597
102
}
330
2D597
100
AcDbDimAssoc
330
2D58A
 90
        3
 70
     0
 71
     0
  1
AcDbOsnapPointRef
 72
    13
331
2D581
 73
     0
 91
        0
 40
0.0
 10
0.0
 20
0.0
 30
2.000000000000000E+50
 75
     0
  1
AcDbOsnapPointRef
 72
    13
331
2D57B
 73
     0
 91
        0
 40
0.0
 10
0.0
 20
0.0
 30
2.000000000000000E+50
 75
     0
  0
DIMASSOC
  5
2D5B9
102
{ACAD_REACTORS
330
2D5B8
102
}
330
2D5B8
100
AcDbDimAssoc
330
2D5AB
 90
        3
 70
     0
 71
     0
  1
AcDbOsnapPointRef
 72
     1
331
2D57A
 73
     0
 91
        0
 40
0.0
 10
0.0
 20
0.0
 30
2.000000000000000E+50
 75
     0
  1
AcDbOsnapPointRef
 72
    13
331
2D57A
 73
     0
 91
        0
 40
0.0
 10
0.0
 20
0.0
 30
2.000000000000000E+50
 75
     0
  0
DIMASSOC
  5
2D5DA
102
{ACAD_REACTORS
330
2D5D9
102
}
330
2D5D9
100
AcDbDimAssoc
330
2D5CC
 90
        3
 70
     0
 71
     0
  1
AcDbOsnapPointRef
 72
    13
331
2D581
 73
     0
 91
        0
 40
0.0
 10
0.0
 20
0.0
 30
2.000000000000000E+50
 75
     0
  1
AcDbOsnapPointRef
 72
    13
331
2D588
 73
     0
 91
        0
 40
0.0
 10
0.0
 20
0.0
 30
2.000000000000000E+50
 75
     0
  0
DIMASSOC
  5
2DE5B
102
{ACAD_REACTORS
330
2DE5A
102
}
330
2DE5A
100
AcDbDimAssoc
330
2DE4D
 90
        1
 70
     0
 71
     0
  1
AcDbOsnapPointRef
 72
     1
331
2DDA7
 73
     0
 91
        0
 40
0.0
 10
0.0
 20
0.0
 30
2.000000000000000E+50
 75
     0
  0
DIMASSOC
  5
2DE85
102
{ACAD_REACTORS
330
2DE84
102
}
330
2DE84
100
AcDbDimAssoc
330
2DE77
 90
        3
 70
     0
 71
     0
  1
AcDbOsnapPointRef
 72
     1
331
2DDA6
 73
     0
 91
        0
 40
0.0
 10
0.0
 20
0.0
 30
2.000000000000000E+50
 75
     0
  1
AcDbOsnapPointRef
 72
    13
331
2DDC7
 73
     0
 91
        0
 40
0.0
 10
0.0
 20
0.0
 30
2.000000000000000E+50
 75
     0
  0
DIMASSOC
  5
2DEAF
102
{ACAD_REACTORS
330
2DEAE
102
}
330
2DEAE
100
AcDbDimAssoc
330
2DEA1
 90
        3
 70
     0
 71
     0
  1
AcDbOsnapPointRef
 72
    13
331
2DDAE
 73
     0
 91
        0
 40
0.0
 10
0.0
 20
0.0
 30
2.000000000000000E+50
 75
     0
  1
AcDbOsnapPointRef
 72
    13
331
2DDA0
 73
     0
 91
        0
 40
0.0
 10
0.0
 20
0.0
 30
2.000000000000000E+50
 75
     0
  0
DIMASSOC
  5
2DF2D
102
{ACAD_REACTORS
330
2DF2C
102
}
330
2DF2C
100
AcDbDimAssoc
330
2DF1F
 90
        3
 70
     0
 71
     0
  1
AcDbOsnapPointRef
 72
    13
331
2DED0
 73
     0
 91
        0
 40
0.0
 10
0.0
 20
0.0
 30
2.000000000000000E+50
 75
     0
  1
AcDbOsnapPointRef
 72
     1
331
2DED0
 73
     0
 91
        0
 40
0.0
 10
0.0
 20
0.0
 30
2.000000000000000E+50
 75
     0
  0
DIMASSOC
  5
2DF66
102
{ACAD_REACTORS
330
2DF65
102
}
330
2DF65
100
AcDbDimAssoc
330
2DF58
 90
        2
 70
     0
 71
     0
  1
AcDbOsnapPointRef
 72
     5
331
2DEDE
 73
     0
 91
        0
 40
4.712388980384689
 10
0.0
 20
0.0
 30
0.0
 75
     0
  0
DIMASSOC
  5
2DFE7
102
{ACAD_REACTORS
330
2DFE6
102
}
330
2DFE6
100
AcDbDimAssoc
330
2DFD9
 90
        3
 70
     0
 71
     0
  1
AcDbOsnapPointRef
 72
     1
331
2DFA9
 73
     0
 91
        0
 40
0.0
 10
0.0
 20
0.0
 30
2.000000000000000E+50
 75
     0
  1
AcDbOsnapPointRef
 72
    13
331
2DFB3
 73
     0
 91
        0
 40
0.0
 10
0.0
 20
0.0
 30
2.000000000000000E+50
 75
     0
  0
DIMASSOC
  5
2E011
102
{ACAD_REACTORS
330
2E010
102
}
330
2E010
100
AcDbDimAssoc
330
2E003
 90
        3
 70
     0
 71
     0
  1
AcDbOsnapPointRef
 72
     1
331
2DFA9
 73
     0
 91
        0
 40
0.0
 10
0.0
 20
0.0
 30
2.000000000000000E+50
 75
     0
  1
AcDbOsnapPointRef
 72
     1
331
2DF75
 73
     0
 91
        0
 40
0.0
 10
0.0
 20
0.0
 30
2.000000000000000E+50
 75
     0
  0
DIMASSOC
  5
2E05F
102
{ACAD_REACTORS
330
2E05E
102
}
330
2E05E
100
AcDbDimAssoc
330
2E051
 90
        3
 70
     0
 71
     0
  1
AcDbOsnapPointRef
 72
    13
331
2DF9B
 73
     0
 91
        0
 40
0.0
 10
0.0
 20
0.0
 30
2.000000000000000E+50
 75
     0
  1
AcDbOsnapPointRef
 72
    13
331
2DF90
 73
     0
 91
        0
 40
0.0
 10
0.0
 20
0.0
 30
2.000000000000000E+50
 75
     0
  0
DIMASSOC
  5
2E077
102
{ACAD_REACTORS
330
2E076
102
}
330
2E076
100
AcDbDimAssoc
330
2E069
 90
        3
 70
     0
 71
     0
  1
AcDbOsnapPointRef
 72
    13
331
2DFB5
 73
     0
 91
        0
 40
0.0
 10
0.0
 20
0.0
 30
2.000000000000000E+50
 75
     0
  1
AcDbOsnapPointRef
 72
     1
331
2DF8B
 73
     0
 91
        0
 40
0.0
 10
0.0
 20
0.0
 30
2.000000000000000E+50
 75
     0
  0
DIMASSOC
  5
2E109
102
{ACAD_REACTORS
330
2E108
102
}
330
2E108
100
AcDbDimAssoc
330
2E107
 90
        2
 70
     0
 71
     0
  1
AcDbOsnapPointRef
 72
    13
331
2E101
 73
     0
 91
        0
 40
0.0
 10
0.0
 20
0.0
 30
2.000000000000000E+50
 75
     0
  0
XRECORD
  5
2E310
102
{ACAD_REACTORS
330
2E30F
102
}
330
2E30F
100
AcDbXrecord
280
     1
102
SHADEPLOT
 70
     0
  0
XRECORD
  5
2E2F3
102
{ACAD_REACTORS
330
2E2F2
102
}
330
2E2F2
100
AcDbXrecord
280
     1
 70
     1
  0
LAYOUT
  5
22
102
{ACAD_XDICTIONARY
360
2E2F5
102
}
102
{ACAD_REACTORS
330
1A
102
}
330
1A
100
AcDbPlotSettings
  1

  2
Adobe PDF
  4
A4
  6
AM_VIEW1
 40
3.174999952316284
 41
3.174999952316284
 42
3.175003051757812
 43
3.17498779296875
 44
209.9733276367187
 45
297.0318298339844
 46
0.0
 47
1.364832920257583
 48
530.177562357239
 49
545.9811031702098
140
950.177562357239
141
842.9811031702101
142
1.0
143
1.458575536647462
 70
  3764
 72
     1
 73
     1
 74
     4
  7
monochrome.ctb
 75
     0
147
0.6856004196385337
148
-530.177562357239
149
-545.9811031702098
100
AcDbLayout
  1
Model
 70
     1
 71
     0
 10
0.0
 20
0.0
 11
12.0
 21
9.0
 12
0.0
 22
0.0
 32
0.0
 14
0.0
 24
0.0
 34
0.0
 15
0.0
 25
0.0
 35
0.0
146
0.0
 13
0.0
 23
0.0
 33
0.0
 16
1.0
 26
0.0
 36
0.0
 17
0.0
 27
1.0
 37
0.0
 76
     0
330
1F
331
2CFC1
1001
ACAD_PSEXT
1000
Adobe PDF
1000
Adobe PDF Converter
1000
My Documents\*.pdf
1000

1070
     0
  0
LAYOUT
  5
1E
102
{ACAD_XDICTIONARY
360
1B6CD
102
}
102
{ACAD_REACTORS
330
1A
102
}
330
1A
100
AcDbPlotSettings
  1

  2
\\ML370\XEROX
  4
A4
  6

 40
3.174999952316281
 41
3.174999952316281
 42
3.175003051757812
 43
3.17498779296875
 44
209.8674926757813
 45
296.6719970703125
 46
0.0
 47
0.0
 48
0.0
 49
0.0
140
0.0
141
0.0
142
1.0
143
1.0
 70
   688
 72
     1
 73
     1
 74
     5
  7
monochrome.ctb
 75
    16
147
1.0
148
0.0
149
0.0
100
AcDbLayout
  1
ﾚｲｱｳﾄ1
 70
     1
 71
     1
 10
-3.17498779296875
 20
-3.174999952316281
 11
293.4970092773438
 21
206.692492723465
 12
0.0
 22
0.0
 32
0.0
 14
1.000000000000000E+20
 24
1.000000000000000E+20
 34
1.000000000000000E+20
 15
-1.000000000000000E+20
 25
-1.000000000000000E+20
 35
-1.000000000000000E+20
146
0.0
 13
0.0
 23
0.0
 33
0.0
 16
1.0
 26
0.0
 36
0.0
 17
0.0
 27
1.0
 37
0.0
 76
     0
330
1B
331
1B6C8
  0
LAYOUT
  5
26
102
{ACAD_XDICTIONARY
360
2E2F7
102
}
102
{ACAD_REACTORS
330
1A
102
}
330
1A
100
AcDbPlotSettings
  1

  2
\\ML370\XEROX
  4

  6

 40
0.0
 41
0.0
 42
0.0
 43
0.0
 44
0.0
 45
0.0
 46
0.0
 47
0.0
 48
0.0
 49
0.0
140
0.0
141
0.0
142
1.0
143
1.0
 70
   688
 72
     0
 73
     0
 74
     5
  7
monochrome.ctb
 75
    16
147
1.0
148
0.0
149
0.0
100
AcDbLayout
  1
ﾚｲｱｳﾄ2
 70
     1
 71
     2
 10
0.0
 20
0.0
 11
12.0
 21
9.0
 12
0.0
 22
0.0
 32
0.0
 14
0.0
 24
0.0
 34
0.0
 15
0.0
 25
0.0
 35
0.0
146
0.0
 13
0.0
 23
0.0
 33
0.0
 16
1.0
 26
0.0
 36
0.0
 17
0.0
 27
1.0
 37
0.0
 76
     0
330
23
  0
MATERIAL
  5
2CFE6
102
{ACAD_XDICTIONARY
360
2E313
102
}
102
{ACAD_REACTORS
330
A91C
102
}
330
A91C
100
AcDbMaterial
  1
ByBlock
  0
MATERIAL
  5
2CFE5
102
{ACAD_XDICTIONARY
360
2E311
102
}
102
{ACAD_REACTORS
330
A91C
102
}
330
A91C
100
AcDbMaterial
  1
ByLayer
  0
MATERIAL
  5
2CFE7
102
{ACAD_XDICTIONARY
360
2E315
102
}
102
{ACAD_REACTORS
330
A91C
102
}
330
A91C
100
AcDbMaterial
  1
Global
  0
MLINESTYLE
  5
18
102
{ACAD_REACTORS
330
17
102
}
330
17
100
AcDbMlineStyle
  2
STANDARD
 70
     0
  3

 62
   256
 51
90.0
 52
90.0
 71
     2
 49
0.5
 62
   256
  6
BYLAYER
 49
-0.5
 62
   256
  6
BYLAYER
  0
PLOTSETTINGS
  5
C99B
102
{ACAD_XDICTIONARY
360
2E2FB
102
}
102
{ACAD_REACTORS
330
19
102
}
330
19
100
AcDbPlotSettings
  1
01   A1　１：１
  2
\\ML370\Fuji Xerox BT8050(AutoCAD)
  4
User122
  6

 40
3.174999952316281
 41
3.174999952316281
 42
3.17498779296875
 43
3.17498779296875
 44
593.7249755859375
 45
840.6129760742187
 46
145.19
 47
207.13
 48
214.3704939521119
 49
367.5855324241177
140
275.6727856380065
141
407.6291914078168
142
1.0
143
1.0
 70
  1716
 72
     1
 73
     1
 74
     2
  7
monochrome.ctb
 75
    16
147
1.0
148
-538.139750291099
149
411.0980235086544
  0
PLOTSETTINGS
  5
C99C
102
{ACAD_XDICTIONARY
360
2E2FD
102
}
102
{ACAD_REACTORS
330
19
102
}
330
19
100
AcDbPlotSettings
  1
02   A2　１：１
  2
\\ML370\Fuji Xerox BT8050(AutoCAD)
  4
User123
  6

 40
3.174999952316281
 41
3.174999952316281
 42
3.17498779296875
 43
3.17498779296875
 44
420.0
 45
594.0
 46
58.33
 47
83.83
 48
214.3704939521119
 49
367.5855324241177
140
275.6727856380065
141
407.6291914078168
142
1.0
143
1.0
 70
  1716
 72
     1
 73
     1
 74
     2
  7
monochrome.ctb
 75
    16
147
1.0
148
-538.139750291099
149
411.0980235086544
  0
PLOTSETTINGS
  5
C99D
102
{ACAD_XDICTIONARY
360
2E2FF
102
}
102
{ACAD_REACTORS
330
19
102
}
330
19
100
AcDbPlotSettings
  1
03   A3　１：１
  2
\\ML370\Fuji Xerox BT8050(AutoCAD)
  4
User124
  6

 40
3.174999952316281
 41
3.174999952316281
 42
3.17498779296875
 43
3.17498779296875
 44
297.0
 45
420.0
 46
-3.169999999999998
 47
-3.169999999999998
 48
214.3704939521119
 49
367.5855324241177
140
275.6727856380065
141
407.6291914078168
142
1.0
143
1.0
 70
  1716
 72
     1
 73
     1
 74
     2
  7
monochrome.ctb
 75
    16
147
1.0
148
-538.139750291099
149
411.0980235086544
  0
PLOTSETTINGS
  5
C99E
102
{ACAD_XDICTIONARY
360
2E301
102
}
102
{ACAD_REACTORS
330
19
102
}
330
19
100
AcDbPlotSettings
  1
04   A4  １：１
  2
\\ML370\Fuji Xerox BT8050(AutoCAD)
  4
User125
  6

 40
3.174999952316281
 41
3.174999952316281
 42
3.175003051757812
 43
3.17498779296875
 44
210.0
 45
297.0
 46
-46.68
 47
-64.67
 48
214.3704939521119
 49
367.5855324241177
140
275.6727856380065
141
407.6291914078168
142
1.0
143
1.0
 70
  1716
 72
     1
 73
     1
 74
     2
  7
monochrome.ctb
 75
    16
147
1.0
148
-538.139750291099
149
411.0980235086544
  0
PLOTSETTINGS
  5
C99F
102
{ACAD_XDICTIONARY
360
2E303
102
}
102
{ACAD_REACTORS
330
19
102
}
330
19
100
AcDbPlotSettings
  1
05   A1 自動調整
  2
\\ML370\Fuji Xerox BT8050(AutoCAD)
  4
User122
  6

 40
3.174999952316281
 41
3.174999952316281
 42
3.17498779296875
 43
3.17498779296875
 44
593.7249755859375
 45
840.6129760742187
 46
0.0
 47
1.77
 48
214.3704939521119
 49
367.5855324241177
140
275.6727856380065
141
407.6291914078168
142
1.0
143
0.7150457692181145
 70
  1716
 72
     1
 73
     1
 74
     2
  7
monochrome.ctb
 75
     0
147
1.398511875811077
148
-408.2719444961221
149
-428.6675171947153
  0
PLOTSETTINGS
  5
C9A0
102
{ACAD_XDICTIONARY
360
2E305
102
}
102
{ACAD_REACTORS
330
19
102
}
330
19
100
AcDbPlotSettings
  1
06   A2 自動調整
  2
\\ML370\Fuji Xerox BT8050(AutoCAD)
  4
User123
  6

 40
3.174999952316281
 41
3.174999952316281
 42
3.17498779296875
 43
3.17498779296875
 44
420.0
 45
594.0
 46
0.0
 47
1.32
 48
214.3704939521119
 49
367.5855324241177
140
275.6727856380065
141
407.6291914078168
142
1.0
143
1.015351112189439
 70
  1716
 72
     1
 73
     1
 74
     2
  7
monochrome.ctb
 75
     0
147
0.9848809815588451
148
-408.2719444961221
149
-428.6675171947153
  0
PLOTSETTINGS
  5
C9A1
102
{ACAD_XDICTIONARY
360
2E307
102
}
102
{ACAD_REACTORS
330
19
102
}
330
19
100
AcDbPlotSettings
  1
07   A3 自動調整
  2
\\ML370\Fuji Xerox BT8050(AutoCAD)
  4
User124
  6

 40
3.174999952316281
 41
3.174999952316281
 42
3.17498779296875
 43
3.17498779296875
 44
297.0
 45
420.0
 46
0.0
 47
1.29
 48
214.3704939521119
 49
367.5855324241177
140
275.6727856380065
141
407.6291914078168
142
1.0
143
1.445036925138428
 70
  1716
 72
     1
 73
     1
 74
     2
  7
monochrome.ctb
 75
     0
147
0.6920238387017023
148
-408.2719444961221
149
-428.6675171947153
  0
PLOTSETTINGS
  5
C9A2
102
{ACAD_XDICTIONARY
360
2E309
102
}
102
{ACAD_REACTORS
330
19
102
}
330
19
100
AcDbPlotSettings
  1
08   A4 自動調整
  2
\\ML370\Fuji Xerox BT8050(AutoCAD)
  4
User125
  6

 40
3.174999952316281
 41
3.174999952316281
 42
3.175003051757812
 43
3.17498779296875
 44
210.0
 45
297.0
 46
0.0
 47
1.32
 48
214.3704939521119
 49
367.5855324241177
140
275.6727856380065
141
407.6291914078168
142
1.0
143
2.062361925831023
 70
  1716
 72
     1
 73
     1
 74
     2
  7
monochrome.ctb
 75
     0
147
0.484880945228395
148
-408.2719444961221
149
-428.6675171947153
  0
PLOTSETTINGS
  5
C9A3
102
{ACAD_XDICTIONARY
360
2E30B
102
}
102
{ACAD_REACTORS
330
19
102
}
330
19
100
AcDbPlotSettings
  1
09   A1をA3に
  2
\\ML370\Fuji Xerox BT8050(AutoCAD)
  4
User124
  6

 40
3.174999952316281
 41
3.174999952316281
 42
3.17498779296875
 43
3.17498779296875
 44
297.0
 45
420.0
 46
-3.169999999999998
 47
-3.419999999999998
 48
214.3704939521119
 49
367.5855324241177
140
275.6727856380065
141
407.6291914078168
142
1.0
143
20.0
 70
  1716
 72
     1
 73
     1
 74
     2
  7
monochrome.ctb
 75
    22
147
0.05
148
-66.24202774817149
149
-81.38953477958603
  0
PLOTSETTINGS
  5
C9A4
102
{ACAD_XDICTIONARY
360
2E30D
102
}
102
{ACAD_REACTORS
330
19
102
}
330
19
100
AcDbPlotSettings
  1
10   A2をA3に
  2
\\ML370\Fuji Xerox BT8050(AutoCAD)
  4
User124
  6

 40
3.174999952316281
 41
3.174999952316281
 42
3.17498779296875
 43
3.17498779296875
 44
297.0
 45
420.0
 46
-3.189999999999998
 47
-3.22
 48
214.3704939521119
 49
367.5855324241177
140
275.6727856380065
141
407.6291914078168
142
1.0
143
1.414
 70
  1700
 72
     1
 73
     1
 74
     2
  7
monochrome.ctb
 75
     0
147
0.7072135785007072
148
-408.2719444961221
149
-428.6675171947153
  0
ACDBPLACEHOLDER
  5
F
102
{ACAD_REACTORS
330
E
102
}
330
E
  0
TABLESTYLE
  5
AABA
102
{ACAD_XDICTIONARY
360
2E2F9
102
}
102
{ACAD_REACTORS
330
AAB9
102
}
330
AAB9
100
AcDbTableStyle
  3
Standard
 70
     0
 71
     0
 40
1.5
 41
1.5
280
     0
281
     0
  7
STANDARD
140
4.5
170
     2
 62
     0
 63
     7
283
     0
274
    -2
284
     1
 64
     0
275
    -2
285
     1
 65
     0
276
    -2
286
     1
 66
     0
277
    -2
287
     1
 67
     0
278
    -2
288
     1
 68
     0
279
    -2
289
     1
 69
     0
  7
STANDARD
140
6.0
170
     5
 62
     0
 63
     7
283
     0
274
    -2
284
     1
 64
     0
275
    -2
285
     1
 65
     0
276
    -2
286
     1
 66
     0
277
    -2
287
     1
 67
     0
278
    -2
288
     1
 68
     0
279
    -2
289
     1
 69
     0
  7
STANDARD
140
4.5
170
     5
 62
     0
 63
     7
283
     0
274
    -2
284
     1
 64
     0
275
    -2
285
     1
 65
     0
276
    -2
286
     1
 66
     0
277
    -2
287
     1
 67
     0
278
    -2
288
     1
 68
     0
279
    -2
289
     1
 69
     0
  0
VISUALSTYLE
  5
2CFEE
102
{ACAD_REACTORS
330
2CFE8
102
}
330
2CFE8
100
AcDbVisualStyle
  2
2dWireframe
 70
     4
 71
     0
 72
     2
 73
     0
 90
        0
 40
-0.6
 41
-30.0
 62
     5
 63
     7
 74
     1
 91
        4
 64
     7
 65
   257
 75
     1
175
     1
 42
1.0
 92
        0
 66
   257
 43
1.0
 76
     1
 77
     6
 78
     2
 67
     7
 79
     5
170
     0
171
     0
290
     0
174
     0
 93
        1
 44
0.0
173
     0
291
     0
 45
0.0
1001
ACAD
1000
AcDbSavedByObjectVersion
1070
     0
  0
VISUALSTYLE
  5
2CFF0
102
{ACAD_REACTORS
330
2CFE8
102
}
330
2CFE8
100
AcDbVisualStyle
  2
3D Hidden
 70
     6
 71
     1
 72
     2
 73
     2
 90
        0
 40
-0.6
 41
-30.0
 62
     5
 63
     7
 74
     2
 91
        2
 64
     7
 65
   257
 75
     2
175
     1
 42
40.0
 92
        0
 66
   257
 43
1.0
 76
     1
 77
     6
 78
     2
 67
     7
 79
     3
170
     0
171
     0
290
     0
174
     0
 93
        1
 44
0.0
173
     0
291
     0
 45
0.0
1001
ACAD
1000
AcDbSavedByObjectVersion
1070
     0
  0
VISUALSTYLE
  5
2CFEF
102
{ACAD_REACTORS
330
2CFE8
102
}
330
2CFE8
100
AcDbVisualStyle
  2
3dWireframe
 70
     5
 71
     0
 72
     2
 73
     0
 90
        0
 40
-0.6
 41
-30.0
 62
     5
 63
     7
 74
     1
 91
        4
 64
     7
 65
   257
 75
     1
175
     1
 42
1.0
 92
        0
 66
   257
 43
1.0
 76
     1
 77
     6
 78
     2
 67
     7
 79
     5
170
     0
171
     0
290
     0
174
     0
 93
        1
 44
0.0
173
     0
291
     0
 45
0.0
1001
ACAD
1000
AcDbSavedByObjectVersion
1070
     0
  0
VISUALSTYLE
  5
2CFED
102
{ACAD_REACTORS
330
2CFE8
102
}
330
2CFE8
100
AcDbVisualStyle
  2
Basic
 70
     7
 71
     1
 72
     0
 73
     1
 90
        0
 40
-0.6
 41
-30.0
 62
     5
 63
     7
 74
     0
 91
        4
 64
     7
 65
   257
 75
     1
175
     1
 42
1.0
 92
        8
 66
     7
 43
1.0
 76
     1
 77
     6
 78
     2
 67
     7
 79
     5
170
     0
171
     0
290
     0
174
     0
 93
        1
 44
0.0
173
     0
291
     1
 45
0.0
1001
ACAD
1000
AcDbSavedByObjectVersion
1070
     0
  0
VISUALSTYLE
  5
2CFF4
102
{ACAD_REACTORS
330
2CFE8
102
}
330
2CFE8
100
AcDbVisualStyle
  2
Brighten
 70
    12
 71
     2
 72
     2
 73
     0
 90
        0
 40
-0.6
 41
-30.0
 62
     5
 63
     7
 74
     1
 91
        4
 64
     7
 65
   257
 75
     1
175
     1
 42
1.0
 92
        8
 66
     7
 43
1.0
 76
     1
 77
     6
 78
     2
 67
     7
 79
     5
170
     0
171
     0
290
     0
174
     0
 93
        1
 44
50.0
173
     0
291
     1
 45
0.0
1001
ACAD
1000
AcDbSavedByObjectVersion
1070
     0
  0
VISUALSTYLE
  5
2CFF8
102
{ACAD_REACTORS
330
2CFE8
102
}
330
2CFE8
100
AcDbVisualStyle
  2
ColorChange
 70
    16
 71
     2
 72
     2
 73
     3
 90
        0
 40
-0.6
 41
-30.0
 62
     5
 63
     8
 74
     1
 91
        4
 64
     7
 65
   257
 75
     1
175
     1
 42
1.0
 92
        8
 66
     8
 43
1.0
 76
     1
 77
     6
 78
     2
 67
     7
 79
     5
170
     0
171
     0
290
     0
174
     0
 93
        1
 44
0.0
173
     0
291
     1
 45
0.0
1001
ACAD
1000
AcDbSavedByObjectVersion
1070
     0
  0
VISUALSTYLE
  5
2CFF1
102
{ACAD_REACTORS
330
2CFE8
102
}
330
2CFE8
100
AcDbVisualStyle
  2
Conceptual
 70
     9
 71
     3
 72
     2
 73
     0
 90
        0
 40
-0.6
 41
-30.0
 62
     5
 63
     7
 74
     2
 91
        2
 64
     7
 65
   257
 75
     1
175
     1
 42
40.0
 92
        8
 66
     7
 43
1.0
 76
     1
 77
     6
 78
     2
 67
     7
 79
     3
170
     0
171
     0
290
     0
174
     0
 93
        1
 44
0.0
173
     0
291
     0
 45
0.0
1001
ACAD
1000
AcDbSavedByObjectVersion
1070
     0
  0
VISUALSTYLE
  5
2CFF3
102
{ACAD_REACTORS
330
2CFE8
102
}
330
2CFE8
100
AcDbVisualStyle
  2
Dim
 70
    11
 71
     2
 72
     2
 73
     0
 90
        0
 40
-0.6
 41
-30.0
 62
     5
 63
     7
 74
     1
 91
        4
 64
     7
 65
   257
 75
     1
175
     1
 42
1.0
 92
        8
 66
     7
 43
1.0
 76
     1
 77
     6
 78
     2
 67
     7
 79
     5
170
     0
171
     0
290
     0
174
     0
 93
        1
 44
-50.0
173
     0
291
     1
 45
0.0
1001
ACAD
1000
AcDbSavedByObjectVersion
1070
     0
  0
VISUALSTYLE
  5
2CFF7
102
{ACAD_REACTORS
330
2CFE8
102
}
330
2CFE8
100
AcDbVisualStyle
  2
Facepattern
 70
    15
 71
     2
 72
     2
 73
     0
 90
        0
 40
-0.6
 41
-30.0
 62
     5
 63
     7
 74
     1
 91
        4
 64
     7
 65
   257
 75
     1
175
     1
 42
1.0
 92
        8
 66
     7
 43
1.0
 76
     1
 77
     6
 78
     2
 67
     7
 79
     5
170
     0
171
     0
290
     0
174
     0
 93
        1
 44
0.0
173
     0
291
     1
 45
0.0
1001
ACAD
1000
AcDbSavedByObjectVersion
1070
     0
  0
VISUALSTYLE
  5
2CFE9
102
{ACAD_REACTORS
330
2CFE8
102
}
330
2CFE8
100
AcDbVisualStyle
  2
Flat
 70
     0
 71
     2
 72
     1
 73
     1
 90
        2
 40
-0.6
 41
30.0
 62
     5
 63
     7
 74
     0
 91
        4
 64
     7
 65
   257
 75
     1
175
     1
 42
1.0
 92
        8
 66
     7
 43
1.0
 76
     1
 77
     6
 78
     2
 67
     7
 79
     5
170
     0
171
     0
290
     0
174
     0
 93
       13
 44
0.0
173
     0
291
     1
 45
0.0
1001
ACAD
1000
AcDbSavedByObjectVersion
1070
     0
  0
VISUALSTYLE
  5
2CFEA
102
{ACAD_REACTORS
330
2CFE8
102
}
330
2CFE8
100
AcDbVisualStyle
  2
FlatWithEdges
 70
     1
 71
     2
 72
     1
 73
     1
 90
        2
 40
-0.6
 41
30.0
 62
     5
 63
     7
 74
     1
 91
        4
 64
     7
 65
   257
 75
     1
175
     1
 42
1.0
 92
        0
 66
   257
 43
1.0
 76
     1
 77
     6
 78
     2
 67
     7
 79
     5
170
     0
171
     0
290
     0
174
     0
 93
       13
 44
0.0
173
     0
291
     1
 45
0.0
1001
ACAD
1000
AcDbSavedByObjectVersion
1070
     0
  0
VISUALSTYLE
  5
2CFEB
102
{ACAD_REACTORS
330
2CFE8
102
}
330
2CFE8
100
AcDbVisualStyle
  2
Gouraud
 70
     2
 71
     2
 72
     2
 73
     1
 90
        2
 40
-0.6
 41
30.0
 62
     5
 63
     7
 74
     0
 91
        4
 64
     7
 65
   257
 75
     1
175
     1
 42
1.0
 92
        0
 66
     7
 43
1.0
 76
     1
 77
     6
 78
     2
 67
     7
 79
     5
170
     0
171
     0
290
     0
174
     0
 93
       13
 44
0.0
173
     0
291
     1
 45
0.0
1001
ACAD
1000
AcDbSavedByObjectVersion
1070
     0
  0
VISUALSTYLE
  5
2CFEC
102
{ACAD_REACTORS
330
2CFE8
102
}
330
2CFE8
100
AcDbVisualStyle
  2
GouraudWithEdges
 70
     3
 71
     2
 72
     2
 73
     1
 90
        2
 40
-0.6
 41
30.0
 62
     5
 63
     7
 74
     1
 91
        4
 64
     7
 65
   257
 75
     1
175
     1
 42
1.0
 92
        0
 66
   257
 43
1.0
 76
     1
 77
     6
 78
     2
 67
     7
 79
     5
170
     0
171
     0
290
     0
174
     0
 93
       13
 44
0.0
173
     0
291
     1
 45
0.0
1001
ACAD
1000
AcDbSavedByObjectVersion
1070
     0
  0
VISUALSTYLE
  5
2CFF6
102
{ACAD_REACTORS
330
2CFE8
102
}
330
2CFE8
100
AcDbVisualStyle
  2
Linepattern
 70
    14
 71
     2
 72
     2
 73
     0
 90
        0
 40
-0.6
 41
-30.0
 62
     5
 63
     7
 74
     1
 91
        4
 64
     7
 65
   257
 75
     7
175
     7
 42
1.0
 92
        8
 66
     7
 43
1.0
 76
     1
 77
     6
 78
     2
 67
     7
 79
     5
170
     0
171
     0
290
     0
174
     0
 93
        1
 44
0.0
173
     0
291
     1
 45
0.0
1001
ACAD
1000
AcDbSavedByObjectVersion
1070
     0
  0
VISUALSTYLE
  5
2CFF2
102
{ACAD_REACTORS
330
2CFE8
102
}
330
2CFE8
100
AcDbVisualStyle
  2
Realistic
 70
     8
 71
     2
 72
     2
 73
     0
 90
        0
 40
-0.6
 41
-30.0
 62
     5
 63
     7
 74
     1
 91
        0
 64
     7
 65
   257
 75
     1
175
     1
 42
1.0
 92
        8
 66
     8
 43
1.0
 76
     1
 77
     6
 78
     2
 67
     7
 79
     5
170
     0
171
     0
290
     0
174
     0
 93
       13
 44
0.0
173
     0
291
     0
 45
0.0
1001
ACAD
1000
AcDbSavedByObjectVersion
1070
     0
  0
VISUALSTYLE
  5
2CFF5
102
{ACAD_REACTORS
330
2CFE8
102
}
330
2CFE8
100
AcDbVisualStyle
  2
Thicken
 70
    13
 71
     2
 72
     2
 73
     0
 90
        0
 40
-0.6
 41
-30.0
 62
     5
 63
     7
 74
     1
 91
        4
 64
     7
 65
   257
 75
     1
175
     1
 42
1.0
 92
       12
 66
     7
 43
1.0
 76
     1
 77
     6
 78
     2
 67
     7
 79
     5
170
     0
171
     0
290
     0
174
     0
 93
        1
 44
0.0
173
     0
291
     1
 45
0.0
1001
ACAD
1000
AcDbSavedByObjectVersion
1070
     0
  0
DICTIONARYVAR
  5
AAF3
102
{ACAD_REACTORS
330
34
102
}
330
34
100
DictionaryVariables
280
     0
  1
STANDARD
  0
DICTIONARYVAR
  5
A10C
102
{ACAD_REACTORS
330
34
102
}
330
34
100
DictionaryVariables
280
     0
  1
2
  0
DICTIONARYVAR
  5
AB07
102
{ACAD_REACTORS
330
34
102
}
330
34
100
DictionaryVariables
280
     0
  1
4
  0
DICTIONARYVAR
  5
35
102
{ACAD_REACTORS
330
34
102
}
330
34
100
DictionaryVariables
280
     0
  1
0
  0
DICTIONARYVAR
  5
2CDAD
102
{ACAD_REACTORS
330
34
102
}
330
34
100
DictionaryVariables
280
     0
  1

  0
DICTIONARYVAR
  5
194C
102
{ACAD_REACTORS
330
34
102
}
330
34
100
DictionaryVariables
280
     0
  1
127
  0
DICTIONARY
  5
7E8
102
{ACAD_REACTORS
330
47
102
}
330
47
100
AcDbDictionary
281
     1
  0
DICTIONARY
  5
4C
102
{ACAD_REACTORS
330
47
102
}
330
47
100
AcDbDictionary
281
     1
  0
XRECORD
  5
A929
102
{ACAD_REACTORS
330
47
102
}
330
47
100
AcDbXrecord
280
     1
 90
-1023410169
  0
XRECORD
  5
2C9F6
102
{ACAD_REACTORS
330
2C9F5
102
}
330
2C9F5
100
AcDbXrecord
280
     1
330
0
330
0
330
0
330
0
330
0
330
0
330
0
330
0
330
0
330
0
330
0
330
0
330
0
330
0
330
0
330
0
330
0
330
0
330
0
330
0
330
0
330
0
330
0
330
0
330
0
330
0
330
0
330
0
330
0
330
0
330
0
330
0
330
0
330
0
330
0
330
0
330
0
330
0
330
0
330
0
330
0
330
0
330
0
330
0
330
0
330
0
330
0
330
0
330
0
330
0
330
0
330
0
330
0
330
0
330
0
330
0
330
0
330
0
330
0
330
0
330
0
330
0
330
0
330
0
330
0
330
0
330
0
330
0
330
0
330
0
330
0
330
0
330
0
330
0
330
0
330
0
330
0
330
0
330
0
330
0
330
0
330
0
330
0
330
0
330
0
330
0
330
0
330
0
330
0
330
0
330
0
330
0
330
0
330
0
330
0
330
0
330
0
330
0
330
0
330
0
330
0
330
0
330
0
330
0
330
0
330
0
330
0
330
0
330
0
330
0
330
0
330
0
330
0
330
0
330
0
330
0
330
0
330
0
330
0
330
0
330
0
330
0
330
0
330
0
330
0
330
0
330
0
330
0
330
0
330
0
330
0
330
0
330
0
330
0
330
0
330
0
330
0
330
0
330
0
330
0
330
0
330
0
330
0
330
0
330
0
330
0
330
0
330
0
330
0
330
0
330
0
330
0
330
0
330
0
330
0
330
0
330
0
330
0
330
0
330
0
330
0
330
0
330
0
330
0
330
0
330
0
330
0
330
0
330
0
330
0
330
0
330
0
330
0
330
0
330
0
330
0
330
0
330
0
330
0
330
0
330
0
330
0
330
0
330
0
330
0
330
0
330
0
330
0
330
0
330
0
330
0
330
0
330
0
330
0
330
0
330
0
330
0
330
0
330
0
330
0
330
0
330
0
330
0
330
0
330
0
330
0
330
0
330
0
330
0
330
0
330
0
330
0
330
0
330
0
330
0
330
0
330
0
330
0
330
0
330
0
330
0
330
0
330
0
330
0
330
0
330
0
330
0
330
0
330
0
330
0
330
0
330
0
330
0
330
0
330
0
330
0
330
0
330
0
330
0
330
0
330
0
330
0
330
0
330
0
330
0
330
0
330
0
330
0
330
0
330
0
330
0
330
0
330
0
330
0
330
0
330
0
330
0
330
0
330
0
330
0
330
0
330
0
330
0
330
0
330
0
330
0
330
0
330
0
330
0
330
0
330
0
330
0
330
0
330
0
330
0
330
0
  0
XRECORD
  5
3FB7
102
{ACAD_REACTORS
330
3F96
102
}
330
3F96
100
AcDbXrecord
280
     1
 91
        3
330
0
 90
        8
 62
     7
370
    40
331
16
  1
Color_7
330
0
 90
        0
 62
    14
370
    -3
331
16
  1
Color_14
330
0
 90
        8
 62
     7
370
    20
331
16
  1
Color_7
330
6D1
 90
        0
 62
     7
370
    -3
331
16
  1
Color_7
330
0
 90
        8
 62
     7
370
    50
331
16
  1
Color_7
330
0
 90
        8
 62
     2
370
    35
331
16
  1
Color_2
330
0
 90
        8
 62
     7
370
    -3
331
16
  1
Color_7
330
10
 90
        8
 62
     7
370
    -3
331
16
  1
Color_7
  0
XRECORD
  5
1FEBE
102
{ACAD_REACTORS
330
AAB4
102
}
330
AAB4
100
AcDbXrecord
280
     1
 90
-1073741824
  0
XRECORD
  5
E2E8
102
{ACAD_REACTORS
330
AAB4
102
}
330
AAB4
100
AcDbXrecord
280
     1
 90
-1073741824
  0
XRECORD
  5
1B4AC
102
{ACAD_REACTORS
330
AAB4
102
}
330
AAB4
100
AcDbXrecord
280
     1
 90
-1073741824
  0
XRECORD
  5
28769
102
{ACAD_REACTORS
330
AAB4
102
}
330
AAB4
100
AcDbXrecord
280
     1
 90
-1073741824
  0
XRECORD
  5
28D60
102
{ACAD_REACTORS
330
AAB4
102
}
330
AAB4
100
AcDbXrecord
280
     1
 90
-1073741824
  0
XRECORD
  5
1B425
102
{ACAD_REACTORS
330
AAB4
102
}
330
AAB4
100
AcDbXrecord
280
     1
 90
-1073741824
  0
XRECORD
  5
2112F
102
{ACAD_REACTORS
330
AAB4
102
}
330
AAB4
100
AcDbXrecord
280
     1
 90
-1073741824
  0
DICTIONARY
  5
2E2F5
330
22
100
AcDbDictionary
280
     1
281
     1
  3
ACAD_XREC_ROUNDTRIP
360
2E2F6
  0
DICTIONARY
  5
1B6CD
330
1E
100
AcDbDictionary
280
     1
281
     1
  3
ACAD_XREC_ROUNDTRIP
360
2E2F4
  3
ADSK_XREC_LAYOUTTHUMBNAIL
360
1B6CE
  0
DICTIONARY
  5
2E2F7
330
26
100
AcDbDictionary
280
     1
281
     1
  3
ACAD_XREC_ROUNDTRIP
360
2E2F8
  0
DICTIONARY
  5
2E313
330
2CFE6
100
AcDbDictionary
280
     1
281
     1
  3
ACAD_XREC_ROUNDTRIP
360
2E314
  0
DICTIONARY
  5
2E311
330
2CFE5
100
AcDbDictionary
280
     1
281
     1
  3
ACAD_XREC_ROUNDTRIP
360
2E312
  0
DICTIONARY
  5
2E315
330
2CFE7
100
AcDbDictionary
280
     1
281
     1
  3
ACAD_XREC_ROUNDTRIP
360
2E316
  0
DICTIONARY
  5
2E2FB
330
C99B
100
AcDbDictionary
280
     1
281
     1
  3
ACAD_XREC_ROUNDTRIP
360
2E2FC
  0
DICTIONARY
  5
2E2FD
330
C99C
100
AcDbDictionary
280
     1
281
     1
  3
ACAD_XREC_ROUNDTRIP
360
2E2FE
  0
DICTIONARY
  5
2E2FF
330
C99D
100
AcDbDictionary
280
     1
281
     1
  3
ACAD_XREC_ROUNDTRIP
360
2E300
  0
DICTIONARY
  5
2E301
330
C99E
100
AcDbDictionary
280
     1
281
     1
  3
ACAD_XREC_ROUNDTRIP
360
2E302
  0
DICTIONARY
  5
2E303
330
C99F
100
AcDbDictionary
280
     1
281
     1
  3
ACAD_XREC_ROUNDTRIP
360
2E304
  0
DICTIONARY
  5
2E305
330
C9A0
100
AcDbDictionary
280
     1
281
     1
  3
ACAD_XREC_ROUNDTRIP
360
2E306
  0
DICTIONARY
  5
2E307
330
C9A1
100
AcDbDictionary
280
     1
281
     1
  3
ACAD_XREC_ROUNDTRIP
360
2E308
  0
DICTIONARY
  5
2E309
330
C9A2
100
AcDbDictionary
280
     1
281
     1
  3
ACAD_XREC_ROUNDTRIP
360
2E30A
  0
DICTIONARY
  5
2E30B
330
C9A3
100
AcDbDictionary
280
     1
281
     1
  3
ACAD_XREC_ROUNDTRIP
360
2E30C
  0
DICTIONARY
  5
2E30D
330
C9A4
100
AcDbDictionary
280
     1
281
     1
  3
ACAD_XREC_ROUNDTRIP
360
2E30E
  0
DICTIONARY
  5
2E2F9
330
AABA
100
AcDbDictionary
280
     1
281
     1
  3
ACAD_XREC_ROUNDTRIP
360
2E2FA
  0
XRECORD
  5
2E2F6
102
{ACAD_REACTORS
330
2E2F5
102
}
330
2E2F5
100
AcDbXrecord
280
     1
102
SHADEPLOT
 70
     0
102
SHADEPLOTRESLEVEL
 70
     2
102
SHADEPLOTCUSTOMDPI
 70
   200
  0
XRECORD
  5
2E2F4
102
{ACAD_REACTORS
330
1B6CD
102
}
330
1B6CD
100
AcDbXrecord
280
     1
102
SHADEPLOT
 70
     0
102
SHADEPLOTRESLEVEL
 70
     2
102
SHADEPLOTCUSTOMDPI
 70
   300
  0
XRECORD
  5
1B6CE
102
{ACAD_REACTORS
330
1B6CD
102
}
330
1B6CD
100
AcDbXrecord
280
     1
310
28000000B40000007F00000001000800000000004C59000000000000000000000001000000000000FFFFFF0000000000FFFFFF000000000000000000000000000000000000000000000000000000000000000000330000006600000099000000CC000000FF00000000330000333300006633000099330000CC330000FF3300
310
0000660000336600006666000099660000CC660000FF66000000990000339900006699000099990000CC990000FF99000000CC000033CC000066CC000099CC0000CCCC0000FFCC000000FF000033FF000066FF000099FF0000CCFF0000FFFF000000003300330033006600330099003300CC003300FF003300003333003333
310
33006633330099333300CC333300FF33330000663300336633006666330099663300CC663300FF66330000993300339933006699330099993300CC993300FF99330000CC330033CC330066CC330099CC3300CCCC3300FFCC330000FF330033FF330066FF330099FF3300CCFF3300FFFF330000006600330066006600660099
310
006600CC006600FF00660000336600333366006633660099336600CC336600FF33660000666600336666006666660099666600CC666600FF66660000996600339966006699660099996600CC996600FF99660000CC660033CC660066CC660099CC6600CCCC6600FFCC660000FF660033FF660066FF660099FF6600CCFF6600
310
FFFF660000009900330099006600990099009900CC009900FF00990000339900333399006633990099339900CC339900FF33990000669900336699006666990099669900CC669900FF66990000999900339999006699990099999900CC999900FF99990000CC990033CC990066CC990099CC9900CCCC9900FFCC990000FF99
310
0033FF990066FF990099FF9900CCFF9900FFFF99000000CC003300CC006600CC009900CC00CC00CC00FF00CC000033CC003333CC006633CC009933CC00CC33CC00FF33CC000066CC003366CC006666CC009966CC00CC66CC00FF66CC000099CC003399CC006699CC009999CC00CC99CC00FF99CC0000CCCC0033CCCC0066CC
310
CC0099CCCC00CCCCCC00FFCCCC0000FFCC0033FFCC0066FFCC0099FFCC00CCFFCC00FFFFCC000000FF003300FF006600FF009900FF00CC00FF00FF00FF000033FF003333FF006633FF009933FF00CC33FF00FF33FF000066FF003366FF006666FF009966FF00CC66FF00FF66FF000099FF003399FF006699FF009999FF00CC
310
99FF00FF99FF0000CCFF0033CCFF0066CCFF0099CCFF00CCCCFF00FFCCFF0000FFFF0033FFFF0066FFFF0099FFFF00CCFFFF00FFFFFF00000000000D0D0D001A1A1A00282828003535350043434300505050005D5D5D006B6B6B00787878008686860093939300A1A1A100AEAEAE00BBBBBB00C9C9C900D6D6D600E4E4E400
310
F1F1F100FFFFFF0000000000000000000000000000000000000000000000000000000000000000000000000000000000EFE2E2E2E2E2E2E2E2E2E2E2E2E2E2E2E2E2E2E2E2E2E2E2E2E2E2E2E2E2E2E2E2E2E2E2E2E2E2E2E2E2E2E2E2E2E2E2E2E2E2E2E2E2E2E2E2E2E2E2E2E2E2E2E2E2E2E2E2E2E2E2E2E2E2E2E2E2E2
310
E2E2E2E2E2E2E2E2E2E2E2E2E2E2E2E2E2E2E2E2E2E2E2E2E2E2E2E2E2E2E2E2E2E2E2E2E2E2E2E2E2E2E2E2E2E2E2E2E2E2E2E2E2E2E2E2E2E2E2E2E2E2E2E2E2E2E2E2E2E2E2E2E2E2E2E2E2E2E2E2E2E2E2E2E2E2E2E2E2E2E2E2E2E2E2E2E2E2E2E2E2EFE2F5F5F5F5F5F5F5F5F5F5F5F5F5F5F5F5F5F5F5F5F5F5F5F5
310
F5F5F5F5F5F5F5F5F5F5F5F5F5F5F5F5F5F5F5F5F5F5F5F5F5F5F5F5F5F5F5F5F5F5F5F5F5F5F5F5F5F5F5F5F5F5F5F5F5F5F5F5F5F5F5F5F5F5F5F5F5F5F5F5F5F5F5F5F5F5F5F5F5F5F5F5F5F5F5F5F5F5F5F5F5F5F5F5F5F5F5F5F5F5F5F5F5F5F5F5F5F5F5F5F5F5F5F5F5F5F5F5F5F5F5F5F5F5F5F5F5F5F5F5F5F5F5
310
F5F5F5F5F5F5F5F5F5F5F5F5F5F5F5F5F5F5F5F5F5F5F5F5F5E2E2EFE2F5E2E2E2E2E2E2E2E2F5F5F5F5F5F5F5F5F5E2E2E2E2E2E2E2E2E2E2E2E2E2E2E2E2F5F5F5F5F5F5F5F5F5E2E2E2E2E2E2E2E2E2E2E2E2E2E2E2E2F5F5F5F5F5F5F5F5F5E2E2E2E2E2E2E2E2E2E2E2E2E2E2E2E2F5F5F5F5F5F5F5F5E2E2E2E2E2E2
310
E2E2E2E2E2E2E2E2E2E2F5F5F5F5F5F5F5F5F5E2E2E2E2E2E2E2E2E2E2E2E2E2E2E2E2F5F5F5F5F5F5F5F5F5E2E2E2E2E2E2E2E2E2E2E2E2E2E2E2E2F5F5F5F5F5F5F5F5F5E2E2E2E2E2E2E2E2F5E2E2EFE2F5E2F5F5F5F5F5F5F5F5F5F5F5F5F5F5F5F5F5F5F5F5F5F5F5F5F5F5F5F5F5F5F5F5F5F5F5F5F5F5F5F5F5F5F5
310
F5F5F5F5F5F5F5F5F5F5F5F5F5F5F5F5F5F5F5F5F5F5F5F5F5F5F5F5F5F5F5F5F5F5F5F5F5F5F5F5F5F5F5F5F5F5F5F5F5F5F5F5F5F5F5F5F5F5F5F5F5F5F5F5F5F5F5F5F5F5F5F5F5F5F5F5F5F5F5F5F5F5F5F5F5F5F5F5F5F5F5F5F5F5F5F5F5F5F5F5F5F5F5F5F5F5F5F5F5F5F5F5F5F5F5F5F5F5F5F5F5F5F5F5F5F5F5
310
F5F5E2F5E2E2EFE2F5E2F5F5F5F5F5F5F5F5F5F5F5F5F5F5F5F5F5F5F5F5F5F5F5F5F5F5F5F5F5F5F5F5F5F5F5F5F5F5F5F5F5F5F5F5F5F5F5F5F5F5F5F5F5F5F5F5F5F5F5F5F5F5F5F5F5F5F5F5F5F5F5F5F5F5F5F5F5F5F5F5F5F5F5F5F5F5F5F5F5F5F5F5F5F5F5F5F5F5F5F5F5F5F5F5F5F5F5F5F5F5F5F5F5F5F5F5F5
310
F5F5F5F5F5F5F5F5F5F5F5F5F5F5F5F5F5F5F5F5F5F5F5F5F5F5F5F5F5F5F5F5F5F5F5F5F5F5F5F5F5F5F5F5F5F5F5F5F5F5F5F5F5F5F5E2F5E2E2EFE2F5E2F5F5F5F5F5F5F5F5F5F5F5F5F5F5F5F5F5F5F5F5F5F5F5F5F5F5F5F5F5F5F5F5F5F5F5F5F5F5F5F5F5F5F5F5F5F5F5F5F5F5F5F5F5F5F5F5F5F5F5F5F5F5F5F5
310
F5F5F5F5F5F5F5F5F5F5F5F5F5F5F5F5F5F5F5F5F5F5F5F5F5F5F5F5F5F5F5F5F5F5F5F5F5F5F5F5F5F5F5F5F5F5F5F5F5F5F5F5F5F5F5F5F5F5F5F5F5F5F5F5F5F5F5F5F5F5F5F5F5F5F5F5F5F5F5F5F5F5F5F5F5F5F5F5F5F5F5F5F5F5F5F5F5F5F5F5F5F5F5F5F5F5F5F5E2F5E2E2EFE2F5E2F5F5F5F5F5F5F5F5F5F5F5
310
F5F5F5F5F5F5F5F5F5F5F5F5F5F5F5F5F5F5F5F5F5F5F5F5F5F5F5F5F5F5F5F5F5F5F5F5F5F5F5F5F5F5F5F5F5F5F5F5F5F5F5F5F5F5F5F5F5F5F5F5F5F5F5F5F5F5F5F5F5F5F5F5F5F5F5F5F5F5F5F5F5F5F5F5F5F5F5F5F5F5F5F5F5F5F5F5F5F5F5F5F5F5F5F5F5F5F5F5F5F5F5F5F5F5F5F5F5F5F5F5F5F5F5F5F5F5F5
310
F5F5F5F5F5F5F5F5F5F5F5F5F5F5F5F5F5F5F5F5F5F5F5F5F5F5F5F5F5F5F5F5F5F5E2F5E2E2EFE2F5E2F5F5F5F5F5F5F5F5F5F5F5F5F5F5F5F5F5F5F5F5F5F5F5F5F5F5F5F5F5F5F5F5F5F5F5F5F5F5F5F5F5F5F5F5F5F5F5F5F5F5F5F5F5F5F5F5F5F5F5F5F5F5F5F5F5F5F5F5F5F5F5F5F5F5F5F5F5F5F5F5F5F5F5F5F5
310
F5F5F5F5F5F5F5F5F5F5F5F5F5F5F5F5F5F5F5F5F5F5F5F5F5F5F5F5F5F5F5F5F5F5F5F5F5F5F5F5F5F5F5F5F5F5F5F5F5F5F5F5F5F5F5F5F5F5F5F5F5F5F5F5F5F5F5F5F5F5F5F5F5F5F5F5F5F5F5F5F5F5F5F5F5F5F5E2F5E2E2EFE2F5E2F5F5F5F5F5F5F5F5F5F5F5F5F5F5F5F5F5F5F5F5F5F5F5F5F5F5F5F5F5F5F5F5
310
F5F5F5F5F5F5F5F5F5F5F5F5F5F5F5F5F5F5F5F5F5F5F5F5F5F5F5F5F5F5F5F5F5F5F5F5F5F5F5F5F5F5F5F5F5F5F5F5F5F5F5F5F5F5F5F5F5F5F5F5F5F5F5F5F5F5F5F5F5F5F5F5F5F5F5F5F5F5F5F5F5F5F5F5F5F5F5F5F5F5F5F5F5F5F5F5F5F5F5F5F5F5F5F5F5F5F5F5F5F5F5F5F5F5F5F5F5F5F5F5F5F5F5F5F5F5F5
310
F5F5F5F5F5F5F5F5F5F5F5F5F5E2F5E2E2EFE2F5E2F5F5F5F5F5F5F5F5F5F5F5F5F5F5F5F5F5F5F5F5F5F5F5F5F5F5F5F5F5F5F5F5F5F5F5F5F5F5F5F5F5F5F5F5F5F5F5F5F5F5F5F5F5F5F5F5F5F5F5F5F5F5F5F5F5F5F5F5F5F5F5F5F5F5F5F5F5F5F5F5F5F5F5F5F5F5F5F5F5F5F5F5F5F5F5F5F5F5F5F5F5F5F5F5F5F5
310
F5F5F5F5F5F5F5F5F5F5F5F5F5F5F5F5F5F5F5F5F5F5F5F5F5F5F5F5F5F5F5F5F5F5F5F5F5F5F5F5F5F5F5F5F5F5F5F5F5F5F5F5F5F5F5F5F5F5F5F5F5F5F5F5F5F5E2F5E2E2EFE2F5F5F5F5F5F5F5F5F5F5F5F5F5F5F5F5F5F5F5F5F5F5F5F5F5F5F5F5F5F5F5F5F5F5F5F5F5F5F5F5F5F5F5F5F5F5F5F5F5F5F5F5F5F5F5
310
F5F5F5F5F5F5F5F5F5F5F5F5F5F5F5F5F5F5F5F5F5F5F5F5F5F5F5F5F5F5F5F5F5F5F5F5F5F5F5F5F5F5F5F5F5F5F5F5F5F5F5F5F5F5F5F5F5F5F5F5F5F5F5F5F5F5F5F5F5F5F5F5F5F5F5F5F5F5F5F5F5F5F5F5F5F5F5F5F5F5F5F5F5F5F5F5F5F5F5F5F5F5F5F5F5F5F5F5F5F5F5F5F5F5F5F5F5F5F5F5F5E2E2EFE2F5F5
310
F5F5F5F5F5F5F5F5F5F5F5F5F5F5F5F5F5F5F5F5F5F5F5F5F5F5F5F5F5F5F5F5F5F5F5F5F5F5F5F5F5F5F5F5F5F5F5F5F5F5F5F5F5F5F5F5F5F5F5F5F5F5F5F5F5F5F5F5F5F5F5F5F5F5F5F5F5F5F5F5F5F5F5F5F5F5F5F5F5F5F5F5F5F5F5F5F5F5F5F5F5F5F5F5F5F5F5F5F5F5F5F5F5F5F5F5F5F5F5F5F5F5F5F5F5F5F5
310
F5F5F5F5F5F5F5F5F5F5F5F5F5F5F5F5F5F5F5F5F5F5F5F5F5F5F5F5F5F5F5F5F5F5F5F5F5F5F5F5F5F5F5F5F5F5F5E2E2EFE2F5F5F5F5F5F5F5F5F5F5F5F5F5F5F5F5F5F5F5F5F5F5F5F5F5F5F5F5F5F5F5F5F5F5F5F5F5F5F5F5F5F5F5F5F5F5F5F5F5F5F5F5F5F5F5F5F5F5F5F5F5F5F5F5F5F5F5F5F5F5F5F5F5F5F5F5
310
F5F5F5F5F5F5F5F5F5F5F5F5F5F5F5F5F5F5F5F5F5F5F5F5F5F5F5F5F5F5F5F5F5F5F5F5F5F5F5F5F5F5F5F5F5F5F5F5F5F5F5F5F5F5F5F5F5F5F5F5F5F5F5F5F5F5F5F5F5F5F5F5F5F5F5F5F5F5F5F5F5F5F5F5F5F5F5F5F5F5F5F5F5F5F5F5F5F5F5F5E2E2EFE2F5F5F5F5F5F5F5F5F5F5F5F5F5F5F5F5F5F5F5F5F5F5F5
310
F5F5F5F5F5F5F5F5F5F5F5F5F5F5F5F5F5F5F5F5F5F5F5F5F5F5F5F5F5F5F5F5F5F5F5F5F5F5F5F5F5F5F5F5F5F5F5F5F5F5F5F5F5F5F5F5F5F5F5F5F5F5F5F5F5F5F5F5F5F5F5F5F5F5F5F5F5F5F5F5F5F5F5F5F5F5F5F5F5F5F5F5F5F5F5F5F5F5F5F5F5F5F5F5F5F5F5F5F5F5F5F5F5F5F5F5F5F5F5F5F5F5F5F5F5F5F5
310
F5F5F5F5F5F5F5F5F5F5F5F5F5F5F5F5F5F5F5F5F5F5F5F5F5F5E2E2EFE2F5F5F5F5F5F5F5F5F5F5F5F5F5F5F5F5F5F5F5F5F5F5F5F5F5F5F5F5F5F5F5F5F5F5F5F5F5F5F5F5F5F5F5F5F5F5F5F5F5F5F5F5F5F5F5F5F5F5F5F5F5F5F5F5F5F5F5F5F5F5F5F5F5F5F5F5F5F5F5F5F5F5F5F5F5F5F5F5F5F5F5F5F5F5F5F5F5
310
F5F5F5F5F5F5F5F5F5F5F5F5F5F5F5F5F5F5F5F5F5F5F5F5F5F5F5F5F5F5F5F5F5F5F5F5F5F5F5F5F5F5F5F5F5F5F5F5F5F5F5F5F5F5F5F5F5F5F5F5F5F5F5F5F5F5F5F5F5F5F5F5F5F5F5F5F5F5F5E2E2EFE2F5F5F5F5F5F5F5F5F5F5F5F5F5F5F5F5F5F5F5F5F5F5F5F5F5F5F5F5F5F5F5F5F5F5F5F5F5F5F5F5F5F5F5F5
310
F5F5F5F5F5F5F5F5F5F5F5F5F5F5F5F5F5F5F5F5F5F5F5F5F5F5F5F5F5F5F5F5F5F5F5F5F5F5F5F5F5F5F5F5F5F5F5F5F5F5F5F5F5F5F5F5F5F5F5F5F5F5F5F5F5F5F5F5F5F5F5F5F5F5F5F5F5F5F5F5F5F5F5F5F5F5F5F5F5F5F5F5F5F5F5F5F5F5F5F5F5F5F5F5F5F5F5F5F5F5F5F5F5F5F5F5F5F5F5F5F5F5F5F5F5F5F5
310
F5F5F5F5F5E2E2EFE2F5F5F5F5F5F5F5F5F5F5F5F5F5F5F5F5F5F5F5F5F5F5F5F5F5F5F5F5F5F5F5F5F5F5F5F5F5F5F5F5F5F5F5F5F5F5F5F5F5F5F5F5F5F5F5F5F5F5F5F5F5F5F5F5F5F5F5F5F5F5F5F5F5F5F5F5F5F5F5F5F5F5F5F5F5F5F5F5F5F5F5F5F5F5F5F5F5F5F5F5F5F5F5F5F5F5F5F5F5F5F5F5F5F5F5F5F5F5
310
F5F5F5F5F5F5F5F5F5F5F5F5F5F5F5F5F5F5F5F5F5F5F5F5F5F5F5F5F5F5F5F5F5F5F5F5F5F5F5F5F5F5F5F5F5F5F5F5F5F5F5F5F5F5F5F5F5F5E2E2EFE2F5F5F5F5F5F5F5F5F5F5F5F5F5F5F5F5F5F5F5F5F5F5F5F5F5F5F5F5F5F5F5F5F5F5F5F5F5F5F5F5F5F5F5F5F5F5F5F5F5F5F5F5F5F5F5F5F5F5F5F5F5F5F5F5F5
310
F5F5F5F5F5F5F5F5F5F5F5F5F5F5F5F5F5F5F5F5F5F5F5F5F5F5F5F5F5F5F5F5F5F5F5F5F5F5F5F5F5F5F5F5F5F5F5F5F5F5F5F5F5F5F5F5F5F5F5F5F5F5F5F5F5F5F5F5F5F5F5F5F5F5F5F5F5F5F5F5F5F5F5F5F5F5F5F5F5F5F5F5F5F5F5F5F5F5F5F5F5F5F5F5F5F5F5F5F5F5F5E2E2EFE2F5F5F5F5F5F5F5F5F5F5F5F5
310
F5F5F5F5F5F5F5F5F5F5F5F5F5F5F5F5F5F5F5F5F5F5F5F5F5F5F5F5F5F5F5F5F5F5F5F5F5F5F5F5F5F5F5F5F5F5F5F5F5F5F5F5F5F5F5F5F5F5F5F5F5F5F5F5F5F5F5F5F5F5F5F5F5F5F5F5F5F5F5F5F5F5F5F5F5F5F5F5F5F5F5F5F5F5F5F5F5F5F5F5F5F5F5F5F5F5F5F5F5F5F5F5F5F5F5F5F5F5F5F5F5F5F5F5F5F5F5
310
F5F5F5F5F5F5F5F5F5F5F5F5F5F5F5F5F5F5F5F5F5F5F5F5F5F5F5F5F5F5F5F5F5F5F5F5F5E2E2EFE2F5E2F5F5F5F5F5F5F5F5F5F5F5F5F5F5F5F5F5F5F5F5F5F5F5F5F5F5F5F5F5F5F5F5F5F5F5F5F5F5F5F5F5F5F5F5F5F5F5F5F5F5F5F5F5F5F5F5F5F5F5F5F5F5F5F5F5F5F5F5F5F5F5F5F5F5F5F5F5F5F5F5F5F5F5F5
310
F5F5F5F5F5F5F5F5F5F5F5F5F5F5F5F5F5F5F5F5F5F5F5F5F5F5F5F5F5F5F5F5F5F5F5F5F5F5F5F5F5F5F5F5F5F5F5F5F5F5F5F5F5F5F5F5F5F5F5F5F5F5F5F5F5F5F5F5F5F5F5F5F5F5F5F5F5F5F5F5F5F5F5F5F5F5F5F5E2F5E2E2EFE2F5E2F5F5F5F5F5F5F5F5F5F5F5F5F5F5F5F5F5F5F5F5F5F5F5F5F5F5F5F5F5F5F5
310
F5F5F5F5F5F5F5F5F5F5F5F5F5F5F5F5F5F5F5F5F5F5F5F5F5F5F5F5F5F5F5F5F5F5F5F5F5F5F5F5F5F5F5F5F5F5F5F5F5F5F5F5F5F5F5F5F5F5F5F5F5F5F5F5F5F5F5F5F5F5F5F5F5F5F5F5F5F5F5F5F5F5F5F5F5F5F5F5F5F5F5F5F5F5F5F5F5F5F5F5F5F5F5F5F5F5F5F5F5F5F5F5F5F5F5F5F5F5F5F5F5F5F5F5F5F5F5
310
F5F5F5F5F5F5F5F5F5F5F5F5F5F5E2F5E2E2EFE2F5E2F5F5F5F5F5F5F5F5F5F5F5F5F5F5F5F5F5F5F5F5F5F5F5F5F5F5F5F5F5F5F5F5F5F5F5F5F5F5F5F5F5F5F5F5F5F5F5F5F5F5F5F5F5F5F5F5F5F5F5F5F5F5F5F5F5F5F5F5F5F5F5F5F5F5F5F5F5F5F5F5F5F5F5F5F5F5F5F5F5F5F5F5F5F5F5F5F5F5F5F5F5F5F5F5F5
310
F5F5F5F5F5F5F5F5F5F5F5F5F5F5F5F5F5F5F5F5F5F5F5F5F5F5F5F5F5F5F5F5F5F5F5F5F5F5F5F5F5F5F5F5F5F5F5F5F5F5F5F5F5F5F5F5F5F5F5F5F5F5F5F5F5F5F5E2F5E2E2EFE2F5E2F5F5F5F5F5F5F5F5F5F5F5F5F5F5F5F5F5F5F5F5F5F5F5F5F5F5F5F5F5F5F5F5F5F5F5F5F5F5F5F5F5F5F5F5F5F5F5F5F5F5F5F5
310
F5F5F5F5F5F5F5F5F5F5F5F5F5F5F5F5F5F5F5F5F5F5F5F5F5F5F5F5F5F5F5F5F5F5F5F5F5F5F5F5F5F5F5F5F5F5F5F5F5F5F5F5F5F5F5F5F5F5F5F5F5F5F5F5F5F5F5F5F5F5F5F5F5F5F5F5F5F5F5F5F5F5F5F5F5F5F5F5F5F5F5F5F5F5F5F5F5F5F5F5F5F5F5F5F5F5F5F5F5F5F5F5F5F5F5F5F5F5F5F5E2F5E2E2EFE2F5
310
E2F5F5F5F5F5F5F5F5F5F5F5F5F5F5F5F5F5F5F5F5F5F5F5F5F5F5F5F5F5F5F5F5F5F5F5F5F5F5F5F5F5F5F5F5F5F5F5F5F5F5F5F5F5F5F5F5F5F5F5F5F5F5F5F5F5F5F5F5F5F5F5F5F5F5F5F5F5F5F5F5F5F5F5F5F5F5F5F5F5F5F5F5F5F5F5F5F5F5F5F5F5F5F5F5F5F5F5F5F5F5F5F5F5F5F5F5F5F5F5F5F5F5F5F5F5F5
310
F5F5F5F5F5F5F5F5F5F5F5F5F5F5F5F5F5F5F5F5F5F5F5F5F5F5F5F5F5F5F5F5F5F5F5F5F5F5F5F5F5F5F5F5F5F5E2F5E2E2EFE2F5E2F5F5F5F5F5F5F5F5F5F5F5F5F5F5F5F5F5F5F5F5F5F5F5F5F5F5F5F5F5F5F5F5F5F5F5F5F5F5F5F5F5F5F5F5F5F5F5F5F5F5F5F5F5F5F5F5F5F5F5F5F5F5F5F5F5F5F5F5F5F5F5F5F5
310
F5F5F5F5F5F5F5F5F5F5F5F5F5F5F5F5F5F5F5F5F5F5F5F5F5F5F5F5F5F5F5F5F5F5F5F5F5F5F5F5F5F5F5F5F5F5F5F5F5F5F5F5F5F5F5F5F5F5F5F5F5F5F5F5F5F5F5F5F5F5F5F5F5F5F5F5F5F5F5F5F5F5F5F5F5F5F5F5F5F5F5F5F5F5F5F5F5F5F5E2F5E2E2EFE2F5E2F5F5F5F5F5F5F5F5F5F5F5F5F5F5F5F5F5F5F5F5
310
F5F5F5F5F5F5F5F5F5F5F5F5F5F5F5F5F5F5F5F5F5F5F5F5F5F5F5F5F5F5F5F5F5F5F5F5F5F5F5F5F5F5F5F5F5F5F5F5F5F5F5F5F5F5F5F5F5F5F5F5F5F5F5F5F5F5F5F5F5F5F5F5F5F5F5F5F5F5F5F5F5F5F5F5F5F5F5F5F5F5F5F5F5F5F5F5F5F5F5F5F5F5F5F5F5F5F5F5F5F5F5F5F5F5F5F5F5F5F5F5F5F5F5F5F5F5F5
310
F5F5F5F5F5F5F5F5F5F5F5F5F5F5F5F5F5F5F5F5F5F5F5F5F5E2F5E2E2EFE2F5E2F5F5F5F5F5F5F5F5F5F5F5F5F5F5F5F5F5F5F5F5F5F5F5F5F5F5F5F5F5F5F5F5F5F5F5F5F5F5F5F5F5F5F5F5F5F5F5F5F5F5F5F5F5F5F5F5F5F5F5F5F5F5F5F5F5F5F5F5F5F5F5F5F5F5F5F5F5F5F5F5F5F5F5F5F5F5F5F5F5F5F5F5F5F5
310
F5F5F5F5F5F5F5F5F5F5F5F5F5F5F5F5F5F5F5F5F5F5F5F5F5F5F5F5F5F5F5F5F5F5F5F5F5F5F5F5F5F5F5F5F5F5F5F5F5F5F5F5F5F5F5F5F5F5F5F5F5F5F5F5F5F5F5F5F5F5F5F5F5F5F5F5F5F5E2F5E2E2EFE2F5E2F5F5F5F5F5F5F5F5F5F5F5F5F5F5F5F5F5F5F5F5F5F5F5F5F5F5F5F5F5F5F5F5F5F5F5F5F5F5F5F5F5
310
F5F5F5F5F5F5F5F5F5F5F5F5F5F5F5F5F5F5F5F5F5F5F5F5F5F5F5F5F5F5F5F5F5F5F5F5F5F5F5F5F5F5F5F5F5F5F5F5F5F5F5F5F5F5F5F5F5F5F5F5F5F5F5F5F5F5F5F5F5F5F5F5F5F5F5F5F5F5F5F5F5F5F5F5F5F5F5F5F5F5F5F5F5F5F5F5F5F5F5F5F5F5F5F5F5F5F5F5F5F5F5F5F5F5F5F5F5F5F5F5F5F5F5F5F5F5F5
310
F5F5F5F5E2F5E2E2EFE2F5E2F5F5F5F5F5F5F5F5F5F5F5F5F5F5F5F5F5F5F5F5F5F5F5F5F5F5F5F5F5F5F5F5F5F5F5F5F5F5F5F5F5F5F5F5F5F5F5F5F5F5F5F5F5F5F5F5F5F5F5F5F5F5F5F5F5F5F5F5F5F5F5F5F5F5F5F5F5F5F5F5F5F5F5F5F5F5F5F5F5F5F5F5F5F5F5F5F5F5F5F5F5F5F5F5F5F5F5F5F5F5F5F5F5F5F5
310
F5F5F5F5F5F5F5F5F5F5F5F5F5F5F5F5F5F5F5F5F5F5F5F5F5F5F5F5F5F5F5F5F5F5F5F5F5F5F5F5F5F5F5F5F5F5F5F5F5F5F5F5F5F5F5F5F5E2F5E2E2EFE2F5E2F5F5F5F5F5F5F5F5F5F5F5F5F5F5F5F5F5F5F5F5F5F5F5F5F5F5F5F5F5F5F5F5F5F5F5F5F5F5F5F5F5F5F5F5F5F5F5F5F5F5F5F5F5F5F5F5F5F5F5F5F5F5
310
F5F5F5F5F5F5F5F5F5F5F5F5F5F5F5F5F5F5F5F5F5F5F5F5F5F5F5F5F5F5F5F5F5F5F5F5F5F5F5F5F5F5F5F5F5F5F5F5F5F5F5F5F5F5F5F5F5F5F5F5F5F5F5F5F5F5F5F5F5F5F5F5F5F5F5F5F5F5F5F5F5F5F5F5F5F5F5F5F5F5F5F5F5F5F5F5F5F5F5F5F5F5F5F5F5F5F5F5F5F5E2F5E2E2EFE2F5E2F5F5F5F5F5F5F5F5F5
310
F5F5F5F5F5F5F5F5F5F5F5F5F5F5F5F5F5F5F5F5F5F5F5F5F5F5F5F5F5F5F5F5F5F5F5F5F5F5F5F5F5F5F5F5F5F5F5F5F5F5F5F5F5F5F5F5F5F5F5F5F5F5F5F5F5F5F5F5F5F5F5F5F5F5F5F5F5F5F5F5F5F5F5F5F5F5F5F5F5F5F5F5F5F5F5F5F5F5F5F5F5F5F5F5F5F5F5F5F5F5F5F5F5F5F5F5F5F5F5F5F5F5F5F5F5F5F5
310
F5F5F5F5F5F5F5F5F5F5F5F5F5F5F5F5F5F5F5F5F5F5F5F5F5F5F5F5F5F5F5F5F5F5F5F5E2F5E2E2EFE2F5E2F5F5F5F5F5F5F5F5F5F5F5F5F5F5F5F5F5F5F5F5F5F5F5F5F5F5F5F5F5F5F5F5F5F5F5F5F5F5F5F5F5F5F5F5F5F5F5F5F5F5F5F5F5F5F5F5F5F5F5F5F5F5F5F5F5F5F5F5F5F5F5F5F5F5F5F5F5F5F5F5F5F5F5
310
F5F5F5F5F5F5F5F5F5F5F5F5F5F5F5F5F5F5F5F5F5F5F5F5F5F5F5F5F5F5F5F5F5F5F5F5F5F5F5F5F5F5F5F5F5F5F5F5F5F5F5F5F5F5F5F5F5F5F5F5F5F5F5F5F5F5F5F5F5F5F5F5F5F5F5F5F5F5F5F5F5F5F5F5F5F5F5F5F5E2F5E2E2EFE2F5E2F5F5F5F5F5F5F5F5F5F5F5F5F5F5F5F5F5F5F5F5F5F5F5F5F5F5F5F5F5F5
310
F5F5F5F5F5F5F5F5F5F5F5F5F5F5F5F5F5F5F5F5F5F5F5F5F5F5F5F5F5F5F5F5F5F5F5F5F5F5F5F5F5F5F5F5F5F5F5F5F5F5F5F5F5F5F5F5F5F5F5F5F5F5F5F5F5F5F5F5F5F5F5F5F5F5F5F5F5F5F5F5F5F5F5F5F5F5F5F5F5F5F5F5F5F5F5F5F5F5F5F5F5F5F5F5F5F5F5F5F5F5F5F5F5F5F5F5F5F5F5F5F5F5F5F5F5F5F5
310
F5F5F5F5F5F5F5F5F5F5F5F5F5F5F5E2F5E2E2EFE2F5E2F5F5F5F5F5F5F5F5F5F5F5F5F5F5F5F5F5F5F5F5F5F5F5F5F5F5F5F5F5F5F5F5F5F5F5F5F5F5F5F5F5F5F5F5F5F5F5F5F5F5F5F5F5F5F5F5F5F5F5F5F5F5F5F5F5F5F5F5F5F5F5F5F5F5F5F5F5F5F5F5F5F5F5F5F5F5F5F5F5F5F5F5F5F5F5F5F5F5F5F5F5F5F5F5
310
F5F5F5F5F5F5F5F5F5F5F5F5F5F5F5F5F5F5F5F5F5F5F5F5F5F5F5F5F5F5F5F5F5F5F5F5F5F5F5F5F5F5F5F5F5F5F5F5F5F5F5F5F5F5F5F5F5F5F5F5F5F5F5F5F5F5F5F5E2F5E2E2EFE2F5E2F5F5F5F5F5F5F5F5F5F5F5F5F5F5F5F5F5F5F5F5F5F5F5F5F5F5F5F5F5F5F5F5F5F5F5F5F5F5F5F5F5F5F5F5F5F5F5F5F5F5F5
310
F5F5F5F5F5F5F5F5F5F5F5F5F5F5F5F5F5F5F5F5F5F5F5F5F5F5F5F5F5F5F5F5F5F5F5F5F5F5F5F5F5F5F5F5F5F5F5F5F5F5F5F5F5F5F5F5F5F5F5F5F5F5F5F5F5F5F5F5F5F5F5F5F5F5F5F5F5F5F5F5F5F5F5F5F5F5F5F5F5F5F5F5F5F5F5F5F5F5F5F5F5F5F5F5F5F5F5F5F5F5F5F5F5F5F5F5F5F5F5F5F5E2F5E2E2EFE2
310
F5F5F5F5F5F5F5F5F5F5F5F5F5F5F5F5F5F5F5F5F5F5F5F5F5F5F5F5F5F5F5F5F5F5F5F5F5F5F5F5F5F5F5F5F5F5F5F5F5F5F5F5F5F5F5F5F5F5F5F5F5F5F5F5F5F5F5F5F5F5F5F5F5F5F5F5F5F5F5F5F5F5F5F5F5F5F5F5F5F5F5F5F5F5F5F5F5F5F5F5F5F5F5F5F5F5F5F5F5F5F5F5F5F5F5F5F5F5F5F5F5F5F5F5F5F5F5
310
F5F5F5F5F5F5F5F5F5F5F5F5F5F5F5F5F5F5F5F5F5F5F5F5F5F5F5F5F5F5F5F5F5F5F5F5F5F5F5F5F5F5F5F5F5F5F5F5F5E2E2EFE2F5F5F5F5F5F5F5F5F5F5F5F5F5F5F5F5F5F5F5F5F5F5F5F5F5F5F5F5F5F5F5F5F5F5F5F5F5F5F5F5F5F5F5F5F5F5F5F5F5F5F5F5F5F5F5F5F5F5F5F5F5F5F5F5F5F5F5F5F5F5F5F5F5F5
310
F5F5F5F5F5F5F5F5F5F5F5F5F5F5F5F5F5F5F5F5F5F5F5F5F5F5F5F5F5F5F5F5F5F5F5F5F5F5F5F5F5F5F5F5F5F5F5F5F5F5F5F5F5F5F5F5F5F5F5F5F5F5F5F5F5F5F5F5F5F5F5F5F5F5F5F5F5F5F5F5F5F5F5F5F5F5F5F5F5F5F5F5F5F5F5F5F5F5F5F5F5F5E2E2EFE2F5F5F5F5F5F5F5F5F5F5F5F5F5F5F5F5F5F5F5F5F5
310
F5F5F5F5F5F5F5F5F5F5F5F5F5F5F5F5F5F5F5F5F5F5F5F5F5F5F5F5F5F5F5F5F5F5F5F5F5F5F5F5F5F5F5F5F5F5F5F5F5F5F5F5F5F5F5F5F5F5F5F5F5F5F5F5F5F5F5F5F5F5F5F5F5F5F5F5F5F5F5F5F5F5F5F5F5F5F5F5F5F5F5F5F5F5F5F5F5F5F5F5F5F5F5F5F5F5F5F5F5F5F5F5F5F5F5F5F5F5F5F5F5F5F5F5F5F5F5
310
F5F5F5F5F5F5F5F5F5F5F5F5F5F5F5F5F5F5F5F5F5F5F5F5F5F5F5F5E2E2EFE2F5F5F5F5F5F5F5F5F5F5F5F5F5F5F5F5F5F5F5F5F5F5F5F5F5F5F5F5F5F5F5F5F5F5F5F5F5F5F5F5F5F5F5F5F5F5F5F5F5F5F5F5F5F5F5F5F5F5F5F5F5F5F5F5F5F5F5F5F5F5F5F5F5F5F5F5F5F5F5F5F5F5F5F5F5F5F5F5F5F5F5F5F5F5F5
310
F5F5F5F5F5F5F5F5F5F5F5F5F5F5F5F5F5F5F5F5F5F5F5F5F5F5F5F5F5F5F5F5F5F5F5F5F5F5F5F5F5F5F5F5F5F5F5F5F5F5F5F5F5F5F5F5F5F5F5F5F5F5F5F5F5F5F5F5F5F5F5F5F5F5F5F5F5F5F5F5F5E2E2EFE2F5F5F5F5F5F5F5F5F5F5F5F5F5F5F5F5F5F5F5F5F5F5F5F5F5F5F5F5F5F5F5F5F5F5F5F5F5F5F5F5F5F5
310
F5F5F5F5F5F5F5F5F5F5F5F5F5F5F5F5F5F5F5F5F5F5F5F5F5F5F5F5F5F5F5F5F5F5F5F5F5F5F5F5F5F5F5F5F5F5F5F5F5F5F5F5F5F5F5F5F5F5F5F5F5F5F5F5F5F5F5F5F5F5F5F5F5F5F5F5F5F5F5F5F5F5F5F5F5F5F5F5F5F5F5F5F5F5F5F5F5F5F5F5F5F5F5F5F5F5F5F5F5F5F5F5F5F5F5F5F5F5F5F5F5F5F5F5F5F5F5
310
F5F5F5F5F5F5F5E2E2EFE2F5F5F5F5F5F5F5F5F5F5F5F5F5F5F5F5F5F5F5F5F5F5F5F5F5F5F5F5F5F5F5F5F5F5F5F5F5F5F5F5F5F5F5F5F5F5F5F5F5F5F5F5F5F5F5F5F5F5F5F5F5F5F5F5F5F5F5F5F5F5F5F5F5F5F5F5F5F5F5F5F5F5F5F5F5F5F5F5F5F5F5F5F5F5F5F5F5F5F5F5F5F5F5F5F5F5F5F5F5F5F5F5F5F5F5F5
310
F5F5F5F5F5F5F5F5F5F5F5F5F5F5F5F5F5F5F5F5F5F5F5F5F5F5F5F5F5F5F5F5F5F5F5F5F5F5F5F5F5F5F5F5F5F5F5F5F5F5F5F5F5F5F5F5F5F5F5F5E2E2EFE2F5F5F5F5F5F5F5F5F5F5F5F5F5F5F5F5F5F5F5F5F5F5F5F5F5F5F5F5F5F5F5F5F5F5F5F5F5F5F5F5F5F5F5F5F5F5F5F5F5F5F5F5F5F5F5F5F5F5F5F5F5F5F5
310
F5F5F5F5F5F5F5F5F5F5F5F5F5F5F5F5F5F5F5F5F5F5F5F5F5F5F5F5F5F5F5F5F5F5F5F5F5F5F5F5F5F5F5F5F5F5F5F5F5F5F5F5F5F5F5F5F5F5F5F5F5F5F5F5F5F5F5F5F5F5F5F5F5F5F5F5F5F5F5F5F5F5F5F5F5F5F5F5F5F5F5F5F5F5F5F5F5F5F5F5F5F5F5F5F5F5F5F5F5F5F5F5F5E2E2EFE2F5F5F5F5F5F5F5F5F5F5
310
F5F5F5F5F5F5F5F5F5F5F5F5F5F5F5F5F5F5F5F5F5F5F5F5F5F5F5F5F5F5F5F5F5F5F5F5F5F5F5F5F5F5F5F5F5F5F5F5F5F5F5F5F5F5F5F5F5F5F5F5F5F5F5F5F5F5F5F5F5F5F5F5F5F5F5F5F5F5F5F5F5F5F5F5F5F5F5F5F5F5F5F5F5F5F5F5F5F5F5F5F5F5F5F5F5F5F5F5F5F5F5F5F5F5F5F5F5F5F5F5F5F5F5F5F5F5F5
310
F5F5F5F5F5F5F5F5F5F5F5F5F5F5F5F5F5F5F5F5F5F5F5F5F5F5F5F5F5F5F5F5F5F5F5F5F5F5F5E2E2EFE2F5E2F5F5F5F5F5F5F5F5F5F5F5F5F5F5F5F5F5F5F5F5F5F5F5F5F5F5F5F5F5F5F5F5F5F5F5F5F5F5F5F5F5F5F5F5F5F5F5F5F5F5F5F5F5F5F5F5F5F5F5F5F5F5F5F5F5F5F5F5F5F5F5F5F5F5F5F5F5F5F5F5F5F5
310
F5F5F5F5F5F5F5F5F5F5F5F5F5F5F5F5F5F5F5F5F5F5F5F5F5F5F5F5F5F5F5F5F5F5F5F5F5F5F5F5F5F5F5F5F5F5F5F5F5F5F5F5F5F5F5F5F5F5F5F5F5F5F5F5F5F5F5F5F5F5F5F5F5F5F5F5F5F5F5F5F5F5F5F5F5F5F5F5F5F5E2F5E2E2EFE2F5E2F5F5F5F5F5F5F5F5F5F5F5F5F5F5F5F5F5F5F5F5F5F5F5F5F5F5F5F5F5
310
F5F5F5F5F5F5F5F5F5F5F5F5F5F5F5F5F5F5F5F5F5F5F5F5F5F5F5F5F5F5F5F5F5F5F5F5F5F5F5F5F5F5F5F5F5F5F5F5F5F5F5F5F5F5F5F5F5F5F5F5F5F5F5F5F5F5F5F5F5F5F5F5F5F5F5F5F5F5F5F5F5F5F5F5F5F5F5F5F5F5F5F5F5F5F5F5F5F5F5F5F5F5F5F5F5F5F5F5F5F5F5F5F5F5F5F5F5F5F5F5F5F5F5F5F5F5F5
310
F5F5F5F5F5F5F5F5F5F5F5F5F5F5F5F5E2F5E2E2EFE2F5E2F5F5F5F5F5F5F5F5F5F5F5F5F5F5F5F5F5F5F5F5F5F5F5F5F5F5F5F5F5F5F5F5F5F5F5F5F5F5F5F5F5F5F5F5F5F5F5F5F5F5F5F5F5F5F5F5F5F5F5F5F5F5F5F5F5F5F5F5F5F5F5F5F5F5F5F5F5F5F5F5F5F5F5F5F5F5F5F5F5F5F5F5F5F5F5F5F5F5F5F5F5F5F5
310
F5F5F5F5F5F5F5F5F5F5F5F5F5F5F5F5F5F5F5F5F5F5F5F5F5F5F5F5F5F5F5F5F5F5F5F5F5F5F5F5F5F5F5F5F5F5F5F5F5F5F5F5F5F5F5F5F5F5F5F5F5F5F5F5F5F5F5F5F5E2F5E2E2EFE2F5E2F5F5F5F5F5F5F5F5F5F5F5F5F5F5F5F5F5F5F5F5F5F5F5F5F5F5F5F5F5F5F5F5F5F5F5F5F5F5F5F5F5F5F5F5F5F5F5F5F5F5
310
F5F5F5F5F5F5F5F5F5F5F5F5F5F5F5F5F5F5F5F5F5F5F5F5F5F5F5F5F5F5F5F5F5F5F5F5F5F5F5F5F5F5F5F5F5F5F5F5F5F5F5F5F5F5F5F5F5F5F5F5F5F5F5F5F5F5F5F5F5F5F5F5F5F5F5F5F5F5F5F5F5F5F5F5F5F5F5F5F5F5F5F5F5F5F5F5F5F5F5F5F5F5F5F5F5F5F5F5F5F5F5F5F5F5F5F5F5F5F5F5F5F5E2F5E2E2EF
310
E2F5E2F5F5F5F5F5F5F5F5F5F5F5F5F5F5F5F5F5F5F5F5F5F5F5F5F5F5F5F5F5F5F5F5F5F5F5F5F5F5F5F5F5F5F5F5F5F5F5F5F5F5F5F5F5F5F5F5F5F5F5F5F5F5F5F5F5F5F5F5F5F5F5F5F5F5F5F5F5F5F5F5F5F5F5F5F5F5F5F5F5F5F5F5F5F5F5F5F5F5F5F5F5F5F5F5F5F5F5F5F5F5F5F5F5F5F5F5F5F5F5F5F5F5F5F5
310
F5F5F5F5F5F5F5F5F5F5F5F5F5F5F5F5F5F5F5F5F5F5F5F5F5F5F5F5F5F5F5F5F5F5F5F5F5F5F5F5F5F5F5F5F5F5F5F5E2F5E2E2EFE2F5E2F5F5F5F5F5F5F5F5F5F5F5F5F5F5F5F5F5F5F5F5F5F5F5F5F5F5F5F5F5F5F5F5F5F5F5F5F5F5F5F5F5F5F5F5F5F5F5F5F5F5F5F5F5F5F5F5F5F5F5F5F5F5F5F5F5F5F5F5F5F5F5
310
F5F5F5F5F5F5F5F5F5F5F5F5F5F5F5F5F5F5F5F5F5F5F5F5F5F5F5F5F5F5F5F5F5F5F5F5F5F5F5F5F5F5F5F5F5F5F5F5F5F5F5F5F5F5F5F5F5F5F5F5F5F5F5F5F5F5F5F5F5F5F5F5F5F5F5F5F5F5F5F5F5F5F5F5F5F5F5F5F5F5F5F5F5F5F5F5F5F5F5F5F5E2F5E2E2EFE2F5E2F5F5F5F5F5F5F5F5F5F5F5F5F5F5F5F5F5F5
310
F5F5F5F5F5F5F5F5F5F5F5F5F5F5F5F5F5F5F5F5F5F5F5F5F5F5F5F5F5F5F5F5F5F5F5F5F5F5F5F5F5F5F5F5F5F5F5F5F5F5F5F5F5F5F5F5F5F5F5F5F5F5F5F5F5F5F5F5F5F5F5F5F5F5F5F5F5F5F5F5F5F5F5F5F5F5F5F5F5F5F5F5F5F5F5F5F5F5F5F5F5F5F5F5F5F5F5F5F5F5F5F5F5F5F5F5F5F5F5F5F5F5F5F5F5F5F5
310
F5F5F5F5F5F5F5F5F5F5F5F5F5F5F5F5F5F5F5F5F5F5F5F5F5F5F5E2F5E2E2EFE2F5E2F5F5F5F5F5F5F5F5F5F5F5F5F5F5F5F5F5F5F5F5F5F5F5F5F5F5F5F5F5F5F5F5F5F5F5F5F5F5F5F5F5F5F5F5F5F5F5F5F5F5F5F5F5F5F5F5F5F5F5F5F5F5F5F5F5F5F5F5F5F5F5F5F5F5F5F5F5F5F5F5F5F5F5F5F5F5F5F5F5F5F5F5
310
F5F5F5F5F5F5F5F5F5F5F5F5F5F5F5F5F5F5F5F5F5F5F5F5F5F5F5F5F5F5F5F5F5F5F5F5F5F5F5F5F5F5F5F5F5F5F5F5F5F5F5F5F5F5F5F5F5F5F5F5F5F5F5F5F5F5F5F5F5F5F5F5F5F5F5F5F5F5F5F5E2F5E2E2EFE2F5E2F5F5F5F5F5F5F5F5F5F5F5F5F5F5F5F5F5F5F5F5F5F5F5F5F5F5F5F5F5F5F5F5F5F5F5F5F5F5F5
310
F5F5F5F5F5F5F5F5F5F5F5F5F5F5F5F5F5F5F5F5F5F5F5F5F5F5F5F5F5F5F5F5F5F5F5F5F5F5F5F5F5F5F5F5F5F5F5F5F5F5F5F5F5F5F5F5F5F5F5F5F5F5F5F5F5F5F5F5F5F5F5F5F5F5F5F5F5F5F5F5F5F5F5F5F5F5F5F5F5F5F5F5F5F5F5F5F5F5F5F5F5F5F5F5F5F5F5F5F5F5F5F5F5F5F5F5F5F5F5F5F5F5F5F5F5F5F5
310
F5F5F5F5F5F5E2F5E2E2EFE2F5E2F5F5F5F5F5F5F5F5F5F5F5F5F5F5F5F5F5F5F5F5F5F5F5F5F5F5F5F5F5F5F5F5F5F5F5F5F5F5F5F5F5F5F5F5F5F5F5F5F5F5F5F5F5F5F5F5F5F5F5F5F5F5F5F5F5F5F5F5F5F5F5F5F5F5F5F5F5F5F5F5F5F5F5F5F5F5F5F5F5F5F5F5F5F5F5F5F5F5F5F5F5F5F5F5F5F5F5F5F5F5F5F5F5
310
F5F5F5F5F5F5F5F5F5F5F5F5F5F5F5F5F5F5F5F5F5F5F5F5F5F5F5F5F5F5F5F5F5F5F5F5F5F5F5F5F5F5F5F5F5F5F5F5F5F5F5F5F5F5F5F5F5F5F5E2F5E2E2EFE2F5E2F5F5F5F5F5F5F5F5F5F5F5F5F5F5F5F5F5F5F5F5F5F5F5F5F5F5F5F5F5F5F5F5F5F5F5F5F5F5F5F5F5F5F5F5F5F5F5F5F5F5F5F5F5F5F5F5F5F5F5F5
310
F5F5F5F5F5F5F5F5F5F5F5F5F5F5F5F5F5F5F5F5F5F5F5F5F5F5F5F5F5F5F5F5F5F5F5F5F5F5F5F5F5F5F5F5F5F5F5F5F5F5F5F5F5F5F5F5F5F5F5F5F5F5F5F5F5F5F5F5F5F5F5F5F5F5F5F5F5F5F5F5F5F5F5F5F5F5F5F5F5F5F5F5F5F5F5F5F5F5F5F5F5F5F5F5F5F5F5F5F5F5F5F5E2F5E2E2EFE2F5E2F5F5F5F5F5F5F5
310
F5F5F5F5F5F5F5F5F5F5F5F5F5F5F5F5F5F5F5F5F5F5F5F5F5F5F5F5F5F5F5F5F5F5F5F5F5F5F5F5F5F5F5F5F5F5F5F5F5F5F5F5F5F5F5F5F5F5F5F5F5F5F5F5F5F5F5F5F5F5F5F5F5F5F5F5F5F5F5F5F5F5F5F5F5F5F5F5F5F5F5F5F5F5F5F5F5F5F5F5F5F5F5F5F5F5F5F5F5F5F5F5F5F5F5F5F5F5F5F5F5F5F5F5F5F5F5
310
F5F5F5F5F5F5F5F5F5F5F5F5F5F5F5F5F5F5F5F5F5F5F5F5F5F5F5F5F5F5F5F5F5F5F5F5F5F5E2F5E2E2EFE2F5E2F5F5F5F5F5F5F5F5F5F5F5F5F5F5F5F5F5F5F5F5F5F5F5F5F5F5F5F5F5F5F5F5F5F5F5F5F5F5F5F5F5F5F5F5F5F5F5F5F5F5F5F5F5F5F5F5F5F5F5F5F5F5F5F5F5F5F5F5F5F5F5F5F5F5F5F5F5F5F5F5F5
310
F5F5F5F5F5F5F5F5F5F5F5F5F5F5F5F5F5F5F5F5F5F5F5F5F5F5F5F5F5F5F5F5F5F5F5F5F5F5F5F5F5F5F5F5F5F5F5F5F5F5F5F5F5F5F5F5F5F5F5F5F5F5F5F5F5F5F5F5F5F5F5F5F5F5F5F5F5F5F5F5F5F5F5F5F5F5F5F5F5F5F5E2F5E2E2EFE2F5E2F5F5F5F5F5F5F5F5F5F5F5F5F5F5F5F5F5F5F5F5F5F5F5F5F5F5F5F5
310
F5F5F5F5F5F5F5F5F5F5F5F5F5F5F5F5F5F5F5F5F5F5F5F5F5F5F5F5F5F5F5F5F5F5F5F5F5F5F5F5F5F5F5F5F5F5F5F5F5F5F5F5F5F5F5F5F5F5F5F5F5F5F5F5F5F5F5F5F5F5F5F5F5F5F5F5F5F5F5F5F5F5F5F5F5F5F5F5F5F5F5F5F5F5F5F5F5F5F5F5F5F5F5F5F5F5F5F5F5F5F5F5F5F5F5F5F5F5F5F5F5F5F5F5F5F5F5
310
F5F5F5F5F5F5F5F5F5F5F5F5F5F5F5F5F5E2F5E2E2EFE2F5E2F5F5F5F5F5F5F5F5F5F5F5F5F5F5F5F5F5F5F5F5F5F5F5F5F5F5F5F5F5F5F5F5F5F5F5F5F5F5F5F5F5F5F5F5F5F5F5F5F5F5F5F5F5F5F5F5F5F5F5F5F5F5F5F5F5F5F5F5F5F5F5F5F5F5F5F5F5F5F5F5F5F5F5F5F5F5F5F5F5F5F5F5F5F5F5F5F5F5F5F5F5F5
310
F5F5F5F5F5F5F5F5F5F5F5F5F5F5F5F5F5F5F5F5F5F5F5F5F5F5F5F5F5F5F5F5F5F5F5F5F5F5F5F5F5F5F5F5F5F5F5F5F5F5F5F5F5F5F5F5F5F5F5F5F5F5F5F5F5F5F5F5F5F5E2F5E2E2EFE2F5E2F5F5F5F5F5F5F5F5F5F5F5F5F5F5F5F5F5F5F5F5F5F5F5F5F5F5F5F5F5F5F5F5F5F5F5F5F5F5F5F5F5F5F5F5F5F5F5F5F5
310
F5F5F5F5F5F5F5F5F5F5F5F5F5F5F5F5F5F5F5F5F5F5F5F5F5F5F5F5F5F5F5F5F5F5F5F5F5F5F5F5F5F5F5F5F5F5F5F5F5F5F5F5F5F5F5F5F5F5F5F5F5F5F5F5F5F5F5F5F5F5F5F5F5F5F5F5F5F5F5F5F5F5F5F5F5F5F5F5F5F5F5F5F5F5F5F5F5F5F5F5F5F5F5F5F5F5F5F5F5F5F5F5F5F5F5F5F5F5F5F5F5F5F5E2F5E2E2
310
EFE2F5F5F5F5F5F5F5F5F5F5F5F5F5F5F5F5F5F5F5F5F5F5F5F5F5F5F5F5F5F5F5F5F5F5F5F5F5F5F5F5F5F5F5F5F5F5F5F5F5F5F5F5F5F5F5F5F5F5F5F5F5F5F5F5F5F5F5F5F5F5F5F5F5F5F5F5F5F5F5F5F5F5F5F5F5F5F5F5F5F5F5F5F5F5F5F5F5F5F5F5F5F5F5F5F5F5F5F5F5F5F5F5F5F5F5F5F5F5F5F5F5F5F5F5F5
310
F5F5F5F5F5F5F5F5F5F5F5F5F5F5F5F5F5F5F5F5F5F5F5F5F5F5F5F5F5F5F5F5F5F5F5F5F5F5F5F5F5F5F5F5F5F5F5F5F5F5F5E2E2EFE2F5F5F5F5F5F5F5F5F5F5F5F5F5F5F5F5F5F5F5F5F5F5F5F5F5F5F5F5F5F5F5F5F5F5F5F5F5F5F5F5F5F5F5F5F5F5F5F5F5F5F5F5F5F5F5F5F5F5F5F5F5F5F5F5F5F5F5F5F5F5F5F5
310
F5F5F5F5F5F5F5F5F5F5F5F5F5F5F5F5F5F5F5F5F5F5F5F5F5F5F5F5F5F5F5F5F5F5F5F5F5F5F5F5F5F5F5F5F5F5F5F5F5F5F5F5F5F5F5F5F5F5F5F5F5F5F5F5F5F5F5F5F5F5F5F5F5F5F5F5F5F5F5F5F5F5F5F5F5F5F5F5F5F5F5F5F5F5F5F5F5F5F5F5F5F5F5F5E2E2EFE2F5F5F5F5F5F5F5F5F5F5F5F5F5F5F5F5F5F5F5
310
F5F5F5F5F5F5F5F5F5F5F5F5F5F5F5F5F5F5F5F5F5F5F5F5F5F5F5F5F5F5F5F5F5F5F5F5F5F5F5F5F5F5F5F5F5F5F5F5F5F5F5F5F5F5F5F5F5F5F5F5F5F5F5F5F5F5F5F5F5F5F5F5F5F5F5F5F5F5F5F5F5F5F5F5F5F5F5F5F5F5F5F5F5F5F5F5F5F5F5F5F5F5F5F5F5F5F5F5F5F5F5F5F5F5F5F5F5F5F5F5F5F5F5F5F5F5F5
310
F5F5F5F5F5F5F5F5F5F5F5F5F5F5F5F5F5F5F5F5F5F5F5F5F5F5F5F5F5F5E2E2EFE2F5F5F5F5F5F5F5F5F5F5F5F5F5F5F5F5F5F5F5F5F5F5F5F5F5F5F5F5F5F5F5F5F5F5F5F5F5F5F5F5F5F5F5F5F5F5F5F5F5F5F5F5F5F5F5F5F5F5F5F5F5F5F5F5F5F5F5F5F5F5F5F5F5F5F5F5F5F5F5F5F5F5F5F5F5F5F5F5F5F5F5F5F5
310
F5F5F5F5F5F5F5F5F5F5F5F5F5F5F5F5F5F5F5F5F5F5F5F5F5F5F5F5F5F5F5F5F5F5F5F5F5F5F5F5F5F5F5F5F5F5F5F5F5F5F5F5F5F5F5F5F5F5F5F5F5F5F5F5F5F5F5F5F5F5F5F5F5F5F5F5F5F5F5F5F5F5F5E2E2EFE2F5F5F5F5F5F5F5F5F5F5F5F5F5F5F5F5F5F5F5F5F5F5F5F5F5F5F5F5F5F5F5F5F5F5F5F5F5F5F5F5
310
F5F5F5F5F5F5F5F5F5F5F5F5F5F5F5F5F5F5F5F5F5F5F5F5F5F5F5F5F5F5F5F5F5F5F5F5F5F5F5F5F5F5F5F5F5F5F5F5F5F5F5F5F5F5F5F5F5F5F5F5F5F5F5F5F5F5F5F5F5F5F5F5F5F5F5F5F5F5F5F5F5F5F5F5F5F5F5F5F5F5F5F5F5F5F5F5F5F5F5F5F5F5F5F5F5F5F5F5F5F5F5F5F5F5F5F5F5F5F5F5F5F5F5F5F5F5F5
310
F5F5F5F5F5F5F5F5F5E2E2EFE2F5F5F5F5F5F5F5F5F5F5F5F5F5F5F5F5F5F5F5F5F5F5F5F5F5F5F5F5F5F5F5F5F5F5F5F5F5F5F5F5F5F5F5F5F5F5F5F5F5F5F5F5F5F5F5F5F5F5F5F5F5F5F5F5F5F5F5F5F5F5F5F5F5F5F5F5F5F5F5F5F5F5F5F5F5F5F5F5F5F5F5F5F5F5F5F5F5F5F5F5F5F5F5F5F5F5F5F5F5F5F5F5F5F5
310
F5F5F5F5F5F5F5F5F5F5F5F5F5F5F5F5F5F5F5F5F5F5F5F5F5F5F5F5F5F5F5F5F5F5F5F5F5F5F5F5F5F5F5F5F5F5F5F5F5F5F5F5F5F5F5F5F5F5F5F5F5F5E2E2EFE2F5F5F5F5F5F5F5F5F5F5F5F5F5F5F5F5F5F5F5F5F5F5F5F5F5F5F5F5F5F5F5F5F5F5F5F5F5F5F5F5F5F5F5F5F5F5F5F5F5F5F5F5F5F5F5F5F5F5F5F5F5
310
F5F5F5F5F5F5F5F5F5F5F5F5F5F5F5F5F5F5F5F5F5F5F5F5F5F5F5F5F5F5F5F5F5F5F5F5F5F5F5F5F5F5F5F5F5F5F5F5F5F5F5F5F5F5F5F5F5F5F5F5F5F5F5F5F5F5F5F5F5F5F5F5F5F5F5F5F5F5F5F5F5F5F5F5F5F5F5F5F5F5F5F5F5F5F5F5F5F5F5F5F5F5F5F5F5F5F5F5F5F5F5F5F5F5F5E2E2EFE2F5F5F5F5F5F5F5F5
310
F5F5F5F5F5F5F5F5F5F5F5F5F5F5F5F5F5F5F5F5F5F5F5F5F5F5F5F5F5F5F5F5F5F5F5F5F5F5F5F5F5F5F5F5F5F5F5F5F5F5F5F5F5F5F5F5F5F5F5F5F5F5F5F5F5F5F5F5F5F5F5F5F5F5F5F5F5F5F5F5F5F5F5F5F5F5F5F5F5F5F5F5F5F5F5F5F5F5F5F5F5F5F5F5F5F5F5F5F5F5F5F5F5F5F5F5F5F5F5F5F5F5F5F5F5F5F5
310
F5F5F5F5F5F5F5F5F5F5F5F5F5F5F5F5F5F5F5F5F5F5F5F5F5F5F5F5F5F5F5F5F5F5F5F5F5F5F5F5F5E2E2EFE2F5F5F5F5F5F5F5F5F5F5F5F5F5F5F5F5F5F5F5F5F5F5F5F5F5F5F5F5F5F5F5F5F5F5F5F5F5F5F5F5F5F5F5F5F5F5F5F5F5F5F5F5F5F5F5F5F5F5F5F5F5F5F5F5F5F5F5F5F5F5F5F5F5F5F5F5F5F5F5F5F5F5
310
F5F5F5F5F5F5F5F5F5F5F5F5F5F5F5F5F5F5F5F5F5F5F5F5F5F5F5F5F5F5F5F5F5F5F5F5F5F5F5F5F5F5F5F5F5F5F5F5F5F5F5F5F5F5F5F5F5F5F5F5F5F5F5F5F5F5F5F5F5F5F5F5F5F5F5F5F5F5F5F5F5F5F5F5F5F5F5F5F5F5F5F5F5F5E2E2EFE2F5E2F5F5F5F5F5F5F5F5F5F5F5F5F5F5F5F5F5F5F5F5F5F5F5F5F5F5F5
310
F5F5F5F5F5F5F5F5F5F5F5F5F5F5F5F5F5F5F5F5F5F5F5F5F5F5F5F5F5F5F5F5F5F5F5F5F5F5F5F5F5F5F5F5F5F5F5F5F5F5F5F5F5F5F5F5F5F5F5F5F5F5F5F5F5F5F5F5F5F5F5F5F5F5F5F5F5F5F5F5F5F5F5F5F5F5F5F5F5F5F5F5F5F5F5F5F5F5F5F5F5F5F5F5F5F5F5F5F5F5F5F5F5F5F5F5F5F5F5F5F5F5F5F5F5F5F5
310
F5F5F5F5F5F5F5F5F5F5F5F5F5F5F5F5F5F5E2F5E2E2EFE2F5E2F5F5F5F5F5F5F5F5F5F5F5F5F5F5F5F5F5F5F5F5F5F5F5F5F5F5F5F5F5F5F5F5F5F5F5F5F5F5F5F5F5F5F5F5F5F5F5F5F5F5F5F5F5F5F5F5F5F5F5F5F5F5F5F5F5F5F5F5F5F5F5F5F5F5F5F5F5F5F5F5F5F5F5F5F5F5F5F5F5F5F5F5F5F5F5F5F5F5F5F5F5
310
F5F5F5F5F5F5F5F5F5F5F5F5F5F5F5F5F5F5F5F5F5F5F5F5F5F5F5F5F5F5F5F5F5F5F5F5F5F5F5F5F5F5F5F5F5F5F5F5F5F5F5F5F5F5F5F5F5F5F5F5F5F5F5F5F5F5F5F5F5F5F5E2F5E2E2EFE2F5E2F5F5F5F5F5F5F5F5F5F5F5F5F5F5F5F5F5F5F5F5F5F5F5F5F5F5F5F5F5F5F5F5F5F5F5F5F5F5F5F5F5F5F5F5F5F5F5F5
310
F5F5F5F5F5F5F5F5F5F5F5F5F5F5F5F5F5F5F5F5F5F5F5F5F5F5F5F5F5F5F5F5F5F5F5F5F5F5F5F5F5F5F5F5F5F5F5F5F5F5F5F5F5F5F5F5F5F5F5F5F5F5F5F5F5F5F5F5F5F5F5F5F5F5F5F5F5F5F5F5F5F5F5F5F5F5F5F5F5F5F5F5F5F5F5F5F5F5F5F5F5F5F5F5F5F5F5F5F5F5F5F5F5F5F5F5F5F5F5F5F5F5F5F5E2F5E2
310
E2EFE2F5E2F5F5F5F5F5F5F5F5F5F5F5F5F5F5F5F5F5F5F5F5F5F5F5F5F5F5F5F5F5F5F5F5F5F5F5F5F5F5F5F5F5F5F5F5F5F5F5F5F5F5F5F5F5F5F5F5F5F5F5F5F5F5F5F5F5F5F5F5F5F5F5F5F5F5F5F5F5F5F5F5F5F5F5F5F5F5F5F5F5F5F5F5F5F5F5F5F5F5F5F5F5F5F5F5F5F5F5F5F5F5F5F5F5F5F5F5F5F5F5F5F5F5
310
F5F5F5F5F5F5F5F5F5F5F5F5F5F5F5F5F5F5F5F5F5F5F5F5F5F5F5F5F5F5F5F5F5F5F5F5F5F5F5F5F5F5F5F5F5F5F5F5F5F5E2F5E2E2EFE2F5E2F5F5F5F5F5F5F5F5F5F5F5F5F5F5F5F5F5F5F5F5F5F5F5F5F5F5F5F5F5F5F5F5F5F5F5F5F5F5F5F5F5F5F5F5F5F5F5F5F5F5F5F5F5F5F5F5F5F5F5F5F5F5F5F5F5F5F5F5F5
310
F5F5F5F5F5F5F5F5F5F5F5F5F5F5F5F5F5F5F5F5F5F5F5F5F5F5F5F5F5F5F5F5F5F5F5F5F5F5F5F5F5F5F5F5F5F5F5F5F5F5F5F5F5F5F5F5F5F5F5F5F5F5F5F5F5F5F5F5F5F5F5F5F5F5F5F5F5F5F5F5F5F5F5F5F5F5F5F5F5F5F5F5F5F5F5F5F5F5F5F5F5F5F5E2F5E2E2EFE2F5E2F5F5F5F5F5F5F5F5F5F5F5F5F5F5F5F5
310
F5F5F5F5F5F5F5F5F5F5F5F5F5F5F5F5F5F5F5F5F5F5F5F5F5F5F5F5F5F5F5F5F5F5F5F5F5F5F5F5F5F5F5F5F5F5F5F5F5F5F5F5F5F5F5F5F5F5F5F5F5F5F5F5F5F5F5F5F5F5F5F5F5F5F5F5F5F5F5F5F5F5F5F5F5F5F5F5F5F5F5F5F5F5F5F5F5F5F5F5F5F5F5F5F5F5F5F5F5F5F5F5F5F5F5F5F5F5F5F5F5F5F5F5F5F5F5
310
F5F5F5F5F5F5F5F5F5F5F5F5F5F5F5F5F5F5F5F5F5F5F5F5F5F5F5F5F5E2F5E2E2EFE2F5E2F5F5F5F5F5F5F5F5F5F5F5F5F5F5F5F5F5F5F5F5F5F5F5F5F5F5F5F5F5F5F5F5F5F5F5F5F5F5F5F5F5F5F5F5F5F5F5F5F5F5F5F5F5F5F5F5F5F5F5F5F5F5F5F5F5F5F5F5F5F5F5F5F5F5F5F5F5F5F5F5F5F5F5F5F5F5F5F5F5F5
310
F5F5F5F5F5F5F5F5F5F5F5F5F5F5F5F5F5F5F5F5F5F5F5F5F5F5F5F5F5F5F5F5F5F5F5F5F5F5F5F5F5F5F5F5F5F5F5F5F5F5F5F5F5F5F5F5F5F5F5F5F5F5F5F5F5F5F5F5F5F5F5F5F5F5F5F5F5F5F5F5F5F5E2F5E2E2EFE2F5E2F5F5F5F5F5F5F5F5F5F5F5F5F5F5F5F5F5F5F5F5F5F5F5F5F5F5F5F5F5F5F5F5F5F5F5F5F5
310
F5F5F5F5F5F5F5F5F5F5F5F5F5F5F5F5F5F5F5F5F5F5F5F5F5F5F5F5F5F5F5F5F5F5F5F5F5F5F5F5F5F5F5F5F5F5F5F5F5F5F5F5F5F5F5F5F5F5F5F5F5F5F5F5F5F5F5F5F5F5F5F5F5F5F5F5F5F5F5F5F5F5F5F5F5F5F5F5F5F5F5F5F5F5F5F5F5F5F5F5F5F5F5F5F5F5F5F5F5F5F5F5F5F5F5F5F5F5F5F5F5F5F5F5F5F5F5
310
F5F5F5F5F5F5F5F5E2F5E2E2EFE2F5E2F5F5F5F5F5F5F5F5F5F5F5F5F5F5F5F5F5F5F5F5F5F5F5F5F5F5F5F5F5F5F5F5F5F5F5F5F5F5F5F5F5F5F5F5F5F5F5F5F5F5F5F5F5F5F5F5F5F5F5F5F5F5F5F5F5F5F5F5F5F5F5F5F5F5F5F5F5F5F5F5F5F5F5F5F5F5F5F5F5F5F5F5F5F5F5F5F5F5F5F5F5F5F5F5F5F5F5F5F5F5F5
310
F5F5F5F5F5F5F5F5F5F5F5F5F5F5F5F5F5F5F5F5F5F5F5F5F5F5F5F5F5F5F5F5F5F5F5F5F5F5F5F5F5F5F5F5F5F5F5F5F5F5F5F5F5F5F5F5F5F5F5F5F5E2F5E2E2EFE2F5E2F5F5F5F5F5F5F5F5F5F5F5F5F5F5F5F5F5F5F5F5F5F5F5F5F5F5F5F5F5F5F5F5F5F5F5F5F5F5F5F5F5F5F5F5F5F5F5F5F5F5F5F5F5F5F5F5F5F5
310
F5F5F5F5F5F5F5F5F5F5F5F5F5F5F5F5F5F5F5F5F5F5F5F5F5F5F5F5F5F5F5F5F5F5F5F5F5F5F5F5F5F5F5F5F5F5F5F5F5F5F5F5F5F5F5F5F5F5F5F5F5F5F5F5F5F5F5F5F5F5F5F5F5F5F5F5F5F5F5F5F5F5F5F5F5F5F5F5F5F5F5F5F5F5F5F5F5F5F5F5F5F5F5F5F5F5F5F5F5F5F5F5F5F5E2F5E2E2EFE2F5E2F5F5F5F5F5
310
F5F5F5F5F5F5F5F5F5F5F5F5F5F5F5F5F5F5F5F5F5F5F5F5F5F5F5F5F5F5F5F5F5F5F5F5F5F5F5F5F5F5F5F5F5F5F5F5F5F5F5F5F5F5F5F5F5F5F5F5F5F5F5F5F5F5F5F5F5F5F5F5F5F5F5F5F5F5F5F5F5F5F5F5F5F5F5F5F5F5F5F5F5F5F5F5F5F5F5F5F5F5F5F5F5F5F5F5F5F5F5F5F5F5F5F5F5F5F5F5F5F5F5F5F5F5F5
310
F5F5F5F5F5F5F5F5F5F5F5F5F5F5F5F5F5F5F5F5F5F5F5F5F5F5F5F5F5F5F5F5F5F5F5F5F5F5F5F5E2F5E2E2EFE2F5E2F5F5F5F5F5F5F5F5F5F5F5F5F5F5F5F5F5F5F5F5F5F5F5F5F5F5F5F5F5F5F5F5F5F5F5F5F5F5F5F5F5F5F5F5F5F5F5F5F5F5F5F5F5F5F5F5F5F5F5F5F5F5F5F5F5F5F5F5F5F5F5F5F5F5F5F5F5F5F5
310
F5F5F5F5F5F5F5F5F5F5F5F5F5F5F5F5F5F5F5F5F5F5F5F5F5F5F5F5F5F5F5F5F5F5F5F5F5F5F5F5F5F5F5F5F5F5F5F5F5F5F5F5F5F5F5F5F5F5F5F5F5F5F5F5F5F5F5F5F5F5F5F5F5F5F5F5F5F5F5F5F5F5F5F5F5F5F5F5F5F5F5F5F5E2F5E2E2EFE2F5E2F5F5F5F5F5F5F5F5F5F5F5F5F5F5F5F5F5F5F5F5F5F5F5F5F5F5
310
F5F5F5F5F5F5F5F5F5F5F5F5F5F5F5F5F5F5F5F5F5F5F5F5F5F5F5F5F5F5F5F5F5F5F5F5F5F5F5F5F5F5F5F5F5F5F5F5F5F5F5F5F5F5F5F5F5F5F5F5F5F5F5F5F5F5F5F5F5F5F5F5F5F5F5F5F5F5F5F5F5F5F5F5F5F5F5F5F5F5F5F5F5F5F5F5F5F5F5F5F5F5F5F5F5F5F5F5F5F5F5F5F5F5F5F5F5F5F5F5F5F5F5F5F5F5F5
310
F5F5F5F5F5F5F5F5F5F5F5F5F5F5F5F5F5F5F5E2F5E2E2EFE2F5E2F5F5F5F5F5F5F5F5F5F5F5F5F5F5F5F5F5F5F5F5F5F5F5F5F5F5F5F5F5F5F5F5F5F5F5F5F5F5F5F5F5F5F5F5F5F5F5F5F5F5F5F5F5F5F5F5F5F5F5F5F5F5F5F5F5F5F5F5F5F5F5F5F5F5F5F5F5F5F5F5F5F5F5F5F5F5F5F5F5F5F5F5F5F5F5F5F5F5F5F5
310
F5F5F5F5F5F5F5F5F5F5F5F5F5F5F5F5F5F5F5F5F5F5F5F5F5F5F5F5F5F5F5F5F5F5F5F5F5F5F5F5F5F5F5F5F5F5F5F5F5F5F5F5F5F5F5F5F5F5F5F5F5F5F5F5F5F5F5F5F5F5F5F5E2F5E2E2EFE2F5E2F5F5F5F5F5F5F5F5F5F5F5F5F5F5F5F5F5F5F5F5F5F5F5F5F5F5F5F5F5F5F5F5F5F5F5F5F5F5F5F5F5F5F5F5F5F5F5
310
F5F5F5F5F5F5F5F5F5F5F5F5F5F5F5F5F5F5F5F5F5F5F5F5F5F5F5F5F5F5F5F5F5F5F5F5F5F5F5F5F5F5F5F5F5F5F5F5F5F5F5F5F5F5F5F5F5F5F5F5F5F5F5F5F5F5F5F5F5F5F5F5F5F5F5F5F5F5F5F5F5F5F5F5F5F5F5F5F5F5F5F5F5F5F5F5F5F5F5F5F5F5F5F5F5F5F5F5F5F5F5F5F5F5F5F5F5F5F5F5F5F5F5F5F5E2F5
310
E2E2EFE2F5E2F5F5F5F5F5F5F5F5F5F5F5F5F5F5F5F5F5F5F5F5F5F5F5F5F5F5F5F5F5F5F5F5F5F5F5F5F5F5F5F5F5F5F5F5F5F5F5F5F5F5F5F5F5F5F5F5F5F5F5F5F5F5F5F5F5F5F5F5F5F5F5F5F5F5F5F5F5F5F5F5F5F5F5F5F5F5F5F5F5F5F5F5F5F5F5F5F5F5F5F5F5F5F5F5F5F5F5F5F5F5F5F5F5F5F5F5F5F5F5F5F5
310
F5F5F5F5F5F5F5F5F5F5F5F5F5F5F5F5F5F5F5F5F5F5F5F5F5F5F5F5F5F5F5F5F5F5F5F5F5F5F5F5F5F5F5F5F5F5F5F5F5F5F5E2F5E2E2EFE2F5F5F5F5F5F5F5F5F5F5F5F5F5F5F5F5F5F5F5F5F5F5F5F5F5F5F5F5F5F5F5F5F5F5F5F5F5F5F5F5F5F5F5F5F5F5F5F5F5F5F5F5F5F5F5F5F5F5F5F5F5F5F5F5F5F5F5F5F5F5
310
F5F5F5F5F5F5F5F5F5F5F5F5F5F5F5F5F5F5F5F5F5F5F5F5F5F5F5F5F5F5F5F5F5F5F5F5F5F5F5F5F5F5F5F5F5F5F5F5F5F5F5F5F5F5F5F5F5F5F5F5F5F5F5F5F5F5F5F5F5F5F5F5F5F5F5F5F5F5F5F5F5F5F5F5F5F5F5F5F5F5F5F5F5F5F5F5F5F5F5F5F5F5F5F5F5F5E2E2EFE2F5F5F5F5F5F5F5F5F5F5F5F5F5F5F5F5F5
310
F5F5F5F5F5F5F5F5F5F5F5F5F5F5F5F5F5F5F5F5F5F5F5F5F5F5F5F5F5F5F5F5F5F5F5F5F5F5F5F5F5F5F5F5F5F5F5F5F5F5F5F5F5F5F5F5F5F5F5F5F5F5F5F5F5F5F5F5F5F5F5F5F5F5F5F5F5F5F5F5F5F5F5F5F5F5F5F5F5F5F5F5F5F5F5F5F5F5F5F5F5F5F5F5F5F5F5F5F5F5F5F5F5F5F5F5F5F5F5F5F5F5F5F5F5F5F5
310
F5F5F5F5F5F5F5F5F5F5F5F5F5F5F5F5F5F5F5F5F5F5F5F5F5F5F5F5F5F5F5F5E2E2EFE2F5F5F5F5F5F5F5F5F5F5F5F5F5F5F5F5F5F5F5F5F5F5F5F5F5F5F5F5F5F5F5F5F5F5F5F5F5F5F5F5F5F5F5F5F5F5F5F5F5F5F5F5F5F5F5F5F5F5F5F5F5F5F5F5F5F5F5F5F5F5F5F5F5F5F5F5F5F5F5F5F5F5F5F5F5F5F5F5F5F5F5
310
F5F5F5F5F5F5F5F5F5F5F5F5F5F5F5F5F5F5F5F5F5F5F5F5F5F5F5F5F5F5F5F5F5F5F5F5F5F5F5F5F5F5F5F5F5F5F5F5F5F5F5F5F5F5F5F5F5F5F5F5F5F5F5F5F5F5F5F5F5F5F5F5F5F5F5F5F5F5F5F5F5F5F5F5F5E2E2EFE2F5F5F5F5F5F5F5F5F5F5F5F5F5F5F5F5F5F5F5F5F5F5F5F5F5F5F5F5F5F5F5F5F5F5F5F5F5F5
310
F5F5F5F5F5F5F5F5F5F5F5F5F5F5F5F5F5F5F5F5F5F5F5F5F5F5F5F5F5F5F5F5F5F5F5F5F5F5F5F5F5F5F5F5F5F5F5F5F5F5F5F5F5F5F5F5F5F5F5F5F5F5F5F5F5F5F5F5F5F5F5F5F5F5F5F5F5F5F5F5F5F5F5F5F5F5F5F5F5F5F5F5F5F5F5F5F5F5F5F5F5F5F5F5F5F5F5F5F5F5F5F5F5F5F5F5F5F5F5F5F5F5F5F5F5F5F5
310
F5F5F5F5F5F5F5F5F5F5F5E2E2EFE2F5F5F5F5F5F5F5F5F5F5F5F5F5F5F5F5F5F5F5F5F5F5F5F5F5F5F5F5F5F5F5F5F5F5F5F5F5F5F5F5F5F5F5F5F5F5F5F5F5F5F5F5F5F5F5F5F5F5F5F5F5F5F5F5F5F5F5F5F5F5F5F5F5F5F5F5F5F5F5F5F5F5F5F5F5F5F5F5F5F5F5F5F5F5F5F5F5F5F5F5F5F5F5F5F5F5F5F5F5F5F5F5
310
F5F5F5F5F5F5F5F5F5F5F5F5F5F5F5F5F5F5F5F5F5F5F5F5F5F5F5F5F5F5F5F5F5F5F5F5F5F5F5F5F5F5F5F5F5F5F5F5F5F5F5F5F5F5F5F5F5F5F5F5F5F5F5F5E2E2EFE2F5F5F5F5F5F5F5F5F5F5F5F5F5F5F5F5F5F5F5F5F5F5F5F5F5F5F5F5F5F5F5F5F5F5F5F5F5F5F5F5F5F5F5F5F5F5F5F5F5F5F5F5F5F5F5F5F5F5F5
310
F5F5F5F5F5F5F5F5F5F5F5F5F5F5F5F5F5F5F5F5F5F5F5F5F5F5F5F5F5F5F5F5F5F5F5F5F5F5F5F5F5F5F5F5F5F5F5F5F5F5F5F5F5F5F5F5F5F5F5F5F5F5F5F5F5F5F5F5F5F5F5F5F5F5F5F5F5F5F5F5F5F5F5F5F5F5F5F5F5F5F5F5F5F5F5F5F5F5F5F5F5F5F5F5F5F5F5F5F5F5F5F5F5F5F5F5F5E2E2EFE2F5F5F5F5F5F5
310
F5F5F5F5F5F5F5F5F5F5F5F5F5F5F5F5F5F5F5F5F5F5F5F5F5F5F5F5F5F5F5F5F5F5F5F5F5F5F5F5F5F5F5F5F5F5F5F5F5F5F5F5F5F5F5F5F5F5F5F5F5F5F5F5F5F5F5F5F5F5F5F5F5F5F5F5F5F5F5F5F5F5F5F5F5F5F5F5F5F5F5F5F5F5F5F5F5F5F5F5F5F5F5F5F5F5F5F5F5F5F5F5F5F5F5F5F5F5F5F5F5F5F5F5F5F5F5
310
F5F5F5F5F5F5F5F5F5F5F5F5F5F5F5F5F5F5F5F5F5F5F5F5F5F5F5F5F5F5F5F5F5F5F5F5F5F5F5F5F5F5F5E2E2EFE2F5F5F5F5F5F5F5F5F5F5F5F5F5F5F5F5F5F5F5F5F5F5F5F5F5F5F5F5F5F5F5F5F5F5F5F5F5F5F5F5F5F5F5F5F5F5F5F5F5F5F5F5F5F5F5F5F5F5F5F5F5F5F5F5F5F5F5F5F5F5F5F5F5F5F5F5F5F5F5F5
310
F5F5F5F5F5F5F5F5F5F5F5F5F5F5F5F5F5F5F5F5F5F5F5F5F5F5F5F5F5F5F5F5F5F5F5F5F5F5F5F5F5F5F5F5F5F5F5F5F5F5F5F5F5F5F5F5F5F5F5F5F5F5F5F5F5F5F5F5F5F5F5F5F5F5F5F5F5F5F5F5F5F5F5F5F5F5F5F5F5F5F5F5F5F5F5F5E2E2EFE2F5E2F5F5F5F5F5F5F5F5F5F5F5F5F5F5F5F5F5F5F5F5F5F5F5F5F5
310
F5F5F5F5F5F5F5F5F5F5F5F5F5F5F5F5F5F5F5F5F5F5F5F5F5F5F5F5F5F5F5F5F5F5F5F5F5F5F5F5F5F5F5F5F5F5F5F5F5F5F5F5F5F5F5F5F5F5F5F5F5F5F5F5F5F5F5F5F5F5F5F5F5F5F5F5F5F5F5F5F5F5F5F5F5F5F5F5F5F5F5F5F5F5F5F5F5F5F5F5F5F5F5F5F5F5F5F5F5F5F5F5F5F5F5F5F5F5F5F5F5F5F5F5F5F5F5
310
F5F5F5F5F5F5F5F5F5F5F5F5F5F5F5F5F5F5F5F5E2F5E2E2EFE2F5E2F5F5F5F5F5F5F5F5F5F5F5F5F5F5F5F5F5F5F5F5F5F5F5F5F5F5F5F5F5F5F5F5F5F5F5F5F5F5F5F5F5F5F5F5F5F5F5F5F5F5F5F5F5F5F5F5F5F5F5F5F5F5F5F5F5F5F5F5F5F5F5F5F5F5F5F5F5F5F5F5F5F5F5F5F5F5F5F5F5F5F5F5F5F5F5F5F5F5F5
310
F5F5F5F5F5F5F5F5F5F5F5F5F5F5F5F5F5F5F5F5F5F5F5F5F5F5F5F5F5F5F5F5F5F5F5F5F5F5F5F5F5F5F5F5F5F5F5F5F5F5F5F5F5F5F5F5F5F5F5F5F5F5F5F5F5F5F5F5F5F5F5F5F5E2F5E2E2EFE2F5E2F5F5F5F5F5F5F5F5F5F5F5F5F5F5F5F5F5F5F5F5F5F5F5F5F5F5F5F5F5F5F5F5F5F5F5F5F5F5F5F5F5F5F5F5F5F5
310
F5F5F5F5F5F5F5F5F5F5F5F5F5F5F5F5F5F5F5F5F5F5F5F5F5F5F5F5F5F5F5F5F5F5F5F5F5F5F5F5F5F5F5F5F5F5F5F5F5F5F5F5F5F5F5F5F5F5F5F5F5F5F5F5F5F5F5F5F5F5F5F5F5F5F5F5F5F5F5F5F5F5F5F5F5F5F5F5F5F5F5F5F5F5F5F5F5F5F5F5F5F5F5F5F5F5F5F5F5F5F5F5F5F5F5F5F5F5F5F5F5F5F5F5F5F5E2
310
F5E2E2EFE2F5E2F5F5F5F5F5F5F5F5F5F5F5F5F5F5F5F5F5F5F5F5F5F5F5F5F5F5F5F5F5F5F5F5F5F5F5F5F5F5F5F5F5F5F5F5F5F5F5F5F5F5F5F5F5F5F5F5F5F5F5F5F5F5F5F5F5F5F5F5F5F5F5F5F5F5F5F5F5F5F5F5F5F5F5F5F5F5F5F5F5F5F5F5F5F5F5F5F5F5F5F5F5F5F5F5F5F5F5F5F5F5F5F5F5F5F5F5F5F5F5F5
310
F5F5F5F5F5F5F5F5F5F5F5F5F5F5F5F5F5F5F5F5F5F5F5F5F5F5F5F5F5F5F5F5F5F5F5F5F5F5F5F5F5F5F5F5F5F5F5F5F5F5F5F5E2F5E2E2EFE2F5E2F5F5F5F5F5F5F5F5F5F5F5F5F5F5F5F5F5F5F5F5F5F5F5F5F5F5F5F5F5F5F5F5F5F5F5F5F5F5F5F5F5F5F5F5F5F5F5F5F5F5F5F5F5F5F5F5F5F5F5F5F5F5F5F5F5F5F5
310
F5F5F5F5F5F5F5F5F5F5F5F5F5F5F5F5F5F5F5F5F5F5F5F5F5F5F5F5F5F5F5F5F5F5F5F5F5F5F5F5F5F5F5F5F5F5F5F5F5F5F5F5F5F5F5F5F5F5F5F5F5F5F5F5F5F5F5F5F5F5F5F5F5F5F5F5F5F5F5F5F5F5F5F5F5F5F5F5F5F5F5F5F5F5F5F5F5F5F5F5F5F5F5F5F5E2F5E2E2EFE2F5E2F5F5F5F5F5F5F5F5F5F5F5F5F5F5
310
F5F5F5F5F5F5F5F5F5F5F5F5F5F5F5F5F5F5F5F5F5F5F5F5F5F5F5F5F5F5F5F5F5F5F5F5F5F5F5F5F5F5F5F5F5F5F5F5F5F5F5F5F5F5F5F5F5F5F5F5F5F5F5F5F5F5F5F5F5F5F5F5F5F5F5F5F5F5F5F5F5F5F5F5F5F5F5F5F5F5F5F5F5F5F5F5F5F5F5F5F5F5F5F5F5F5F5F5F5F5F5F5F5F5F5F5F5F5F5F5F5F5F5F5F5F5F5
310
F5F5F5F5F5F5F5F5F5F5F5F5F5F5F5F5F5F5F5F5F5F5F5F5F5F5F5F5F5F5F5E2F5E2E2EFE2F5E2F5F5F5F5F5F5F5F5F5F5F5F5F5F5F5F5F5F5F5F5F5F5F5F5F5F5F5F5F5F5F5F5F5F5F5F5F5F5F5F5F5F5F5F5F5F5F5F5F5F5F5F5F5F5F5F5F5F5F5F5F5F5F5F5F5F5F5F5F5F5F5F5F5F5F5F5F5F5F5F5F5F5F5F5F5F5F5F5
310
F5F5F5F5F5F5F5F5F5F5F5F5F5F5F5F5F5F5F5F5F5F5F5F5F5F5F5F5F5F5F5F5F5F5F5F5F5F5F5F5F5F5F5F5F5F5F5F5F5F5F5F5F5F5F5F5F5F5F5F5F5F5F5F5F5F5F5F5F5F5F5F5F5F5F5F5F5F5F5F5F5F5F5F5E2F5E2E2EFE2F5E2F5F5F5F5F5F5F5F5F5F5F5F5F5F5F5F5F5F5F5F5F5F5F5F5F5F5F5F5F5F5F5F5F5F5F5
310
F5F5F5F5F5F5F5F5F5F5F5F5F5F5F5F5F5F5F5F5F5F5F5F5F5F5F5F5F5F5F5F5F5F5F5F5F5F5F5F5F5F5F5F5F5F5F5F5F5F5F5F5F5F5F5F5F5F5F5F5F5F5F5F5F5F5F5F5F5F5F5F5F5F5F5F5F5F5F5F5F5F5F5F5F5F5F5F5F5F5F5F5F5F5F5F5F5F5F5F5F5F5F5F5F5F5F5F5F5F5F5F5F5F5F5F5F5F5F5F5F5F5F5F5F5F5F5
310
F5F5F5F5F5F5F5F5F5F5E2F5E2E2EFE2F5E2F5F5F5F5F5F5F5F5F5F5F5F5F5F5F5F5F5F5F5F5F5F5F5F5F5F5F5F5F5F5F5F5F5F5F5F5F5F5F5F5F5F5F5F5F5F5F5F5F5F5F5F5F5F5F5F5F5F5F5F5F5F5F5F5F5F5F5F5F5F5F5F5F5F5F5F5F5F5F5F5F5F5F5F5F5F5F5F5F5F5F5F5F5F5F5F5F5F5F5F5F5F5F5F5F5F5F5F5F5
310
F5F5F5F5F5F5F5F5F5F5F5F5F5F5F5F5F5F5F5F5F5F5F5F5F5F5F5F5F5F5F5F5F5F5F5F5F5F5F5F5F5F5F5F5F5F5F5F5F5F5F5F5F5F5F5F5F5F5F5F5F5F5F5E2F5E2E2EFE2F5E2F5F5F5F5F5F5F5F5F5F5F5F5F5F5F5F5F5F5F5F5F5F5F5F5F5F5F5F5F5F5F5F5F5F5F5F5F5F5F5F5F5F5F5F5F5F5F5F5F5F5F5F5F5F5F5F5
310
F5F5F5F5F5F5F5F5F5F5F5F5F5F5F5F5F5F5F5F5F5F5F5F5F5F5F5F5F5F5F5F5F5F5F5F5F5F5F5F5F5F5F5F5F5F5F5F5F5F5F5F5F5F5F5F5F5F5F5F5F5F5F5F5F5F5F5F5F5F5F5F5F5F5F5F5F5F5F5F5F5F5F5F5F5F5F5F5F5F5F5F5F5F5F5F5F5F5F5F5F5F5F5F5F5F5F5F5F5F5F5F5F5F5F5F5E2F5E2E2EFE2F5E2F5F5F5
310
F5F5F5F5F5F5F5F5F5F5F5F5F5F5F5F5F5F5F5F5F5F5F5F5F5F5F5F5F5F5F5F5F5F5F5F5F5F5F5F5F5F5F5F5F5F5F5F5F5F5F5F5F5F5F5F5F5F5F5F5F5F5F5F5F5F5F5F5F5F5F5F5F5F5F5F5F5F5F5F5F5F5F5F5F5F5F5F5F5F5F5F5F5F5F5F5F5F5F5F5F5F5F5F5F5F5F5F5F5F5F5F5F5F5F5F5F5F5F5F5F5F5F5F5F5F5F5
310
F5F5F5F5F5F5F5F5F5F5F5F5F5F5F5F5F5F5F5F5F5F5F5F5F5F5F5F5F5F5F5F5F5F5F5F5F5F5F5F5F5F5E2F5E2E2EFE2F5E2F5F5F5F5F5F5F5F5F5F5F5F5F5F5F5F5F5F5F5F5F5F5F5F5F5F5F5F5F5F5F5F5F5F5F5F5F5F5F5F5F5F5F5F5F5F5F5F5F5F5F5F5F5F5F5F5F5F5F5F5F5F5F5F5F5F5F5F5F5F5F5F5F5F5F5F5F5
310
F5F5F5F5F5F5F5F5F5F5F5F5F5F5F5F5F5F5F5F5F5F5F5F5F5F5F5F5F5F5F5F5F5F5F5F5F5F5F5F5F5F5F5F5F5F5F5F5F5F5F5F5F5F5F5F5F5F5F5F5F5F5F5F5F5F5F5F5F5F5F5F5F5F5F5F5F5F5F5F5F5F5F5F5F5F5F5F5F5F5F5F5F5F5F5E2F5E2E2EFE2F5E2F5F5F5F5F5F5F5F5F5F5F5F5F5F5F5F5F5F5F5F5F5F5F5F5
310
F5F5F5F5F5F5F5F5F5F5F5F5F5F5F5F5F5F5F5F5F5F5F5F5F5F5F5F5F5F5F5F5F5F5F5F5F5F5F5F5F5F5F5F5F5F5F5F5F5F5F5F5F5F5F5F5F5F5F5F5F5F5F5F5F5F5F5F5F5F5F5F5F5F5F5F5F5F5F5F5F5F5F5F5F5F5F5F5F5F5F5F5F5F5F5F5F5F5F5F5F5F5F5F5F5F5F5F5F5F5F5F5F5F5F5F5F5F5F5F5F5F5F5F5F5F5F5
310
F5F5F5F5F5F5F5F5F5F5F5F5F5F5F5F5F5F5F5F5F5E2F5E2E2EFE2F5E2F5F5F5F5F5F5F5F5F5F5F5F5F5F5F5F5F5F5F5F5F5F5F5F5F5F5F5F5F5F5F5F5F5F5F5F5F5F5F5F5F5F5F5F5F5F5F5F5F5F5F5F5F5F5F5F5F5F5F5F5F5F5F5F5F5F5F5F5F5F5F5F5F5F5F5F5F5F5F5F5F5F5F5F5F5F5F5F5F5F5F5F5F5F5F5F5F5F5
310
F5F5F5F5F5F5F5F5F5F5F5F5F5F5F5F5F5F5F5F5F5F5F5F5F5F5F5F5F5F5F5F5F5F5F5F5F5F5F5F5F5F5F5F5F5F5F5F5F5F5F5F5F5F5F5F5F5F5F5F5F5F5F5F5F5F5F5F5F5F5F5F5F5F5E2F5E2E2EFE2F5E2F5F5F5F5F5F5F5F5F5F5F5F5F5F5F5F5F5F5F5F5F5F5F5F5F5F5F5F5F5F5F5F5F5F5F5F5F5F5F5F5F5F5F5F5F5
310
F5F5F5F5F5F5F5F5F5F5F5F5F5F5F5F5F5F5F5F5F5F5F5F5F5F5F5F5F5F5F5F5F5F5F5F5F5F5F5F5F5F5F5F5F5F5F5F5F5F5F5F5F5F5F5F5F5F5F5F5F5F5F5F5F5F5F5F5F5F5F5F5F5F5F5F5F5F5F5F5F5F5F5F5F5F5F5F5F5F5F5F5F5F5F5F5F5F5F5F5F5F5F5F5F5F5F5F5F5F5F5F5F5F5F5F5F5F5F5F5F5F5F5F5F5F5F5
310
E2F5E2E2EFE2F5E2F5F5F5F5F5F5F5F5F5F5F5F5F5F5F5F5F5F5F5F5F5F5F5F5F5F5F5F5F5F5F5F5F5F5F5F5F5F5F5F5F5F5F5F5F5F5F5F5F5F5F5F5F5F5F5F5F5F5F5F5F5F5F5F5F5F5F5F5F5F5F5F5F5F5F5F5F5F5F5F5F5F5F5F5F5F5F5F5F5F5F5F5F5F5F5F5F5F5F5F5F5F5F5F5F5F5F5F5F5F5F5F5F5F5F5F5F5F5F5
310
F5F5F5F5F5F5F5F5F5F5F5F5F5F5F5F5F5F5F5F5F5F5F5F5F5F5F5F5F5F5F5F5F5F5F5F5F5F5F5F5F5F5F5F5F5F5F5F5F5F5F5F5F5E2F5E2E2EFE2F5F5F5F5F5F5F5F5F5F5F5F5F5F5F5F5F5F5F5F5F5F5F5F5F5F5F5F5F5F5F5F5F5F5F5F5F5F5F5F5F5F5F5F5F5F5F5F5F5F5F5F5F5F5F5F5F5F5F5F5F5F5F5F5F5F5F5F5
310
F5F5F5F5F5F5F5F5F5F5F5F5F5F5F5F5F5F5F5F5F5F5F5F5F5F5F5F5F5F5F5F5F5F5F5F5F5F5F5F5F5F5F5F5F5F5F5F5F5F5F5F5F5F5F5F5F5F5F5F5F5F5F5F5F5F5F5F5F5F5F5F5F5F5F5F5F5F5F5F5F5F5F5F5F5F5F5F5F5F5F5F5F5F5F5F5F5F5F5F5F5F5F5F5F5F5F5F5E2E2EFE2F5F5F5F5F5F5F5F5F5F5F5F5F5F5F5
310
F5F5F5F5F5F5F5F5F5F5F5F5F5F5F5F5F5F5F5F5F5F5F5F5F5F5F5F5F5F5F5F5F5F5F5F5F5F5F5F5F5F5F5F5F5F5F5F5F5F5F5F5F5F5F5F5F5F5F5F5F5F5F5F5F5F5F5F5F5F5F5F5F5F5F5F5F5F5F5F5F5F5F5F5F5F5F5F5F5F5F5F5F5F5F5F5F5F5F5F5F5F5F5F5F5F5F5F5F5F5F5F5F5F5F5F5F5F5F5F5F5F5F5F5F5F5F5
310
F5F5F5F5F5F5F5F5F5F5F5F5F5F5F5F5F5F5F5F5F5F5F5F5F5F5F5F5F5F5F5F5F5F5E2E2EFE2F5F5F5F5F5F5F5F5F5F5F5F5F5F5F5F5F5F5F5F5F5F5F5F5F5F5F5F5F5F5F5F5F5F5F5F5F5F5F5F5F5F5F5F5F5F5F5F5F5F5F5F5F5F5F5F5F5F5F5F5F5F5F5F5F5F5F5F5F5F5F5F5F5F5F5F5F5F5F5F5F5F5F5F5F5F5F5F5F5
310
F5F5F5F5F5F5F5F5F5F5F5F5F5F5F5F5F5F5F5F5F5F5F5F5F5F5F5F5F5F5F5F5F5F5F5F5F5F5F5F5F5F5F5F5F5F5F5F5F5F5F5F5F5F5F5F5F5F5F5F5F5F5F5F5F5F5F5F5F5F5F5F5F5F5F5F5F5F5F5F5F5F5F5F5F5F5F5E2E2EFE2F5F5F5F5F5F5F5F5F5F5F5F5F5F5F5F5F5F5F5F5F5F5F5F5F5F5F5F5F5F5F5F5F5F5F5F5
310
F5F5F5F5F5F5F5F5F5F5F5F5F5F5F5F5F5F5F5F5F5F5F5F5F5F5F5F5F5F5F5F5F5F5F5F5F5F5F5F5F5F5F5F5F5F5F5F5F5F5F5F5F5F5F5F5F5F5F5F5F5F5F5F5F5F5F5F5F5F5F5F5F5F5F5F5F5F5F5F5F5F5F5F5F5F5F5F5F5F5F5F5F5F5F5F5F5F5F5F5F5F5F5F5F5F5F5F5F5F5F5F5F5F5F5F5F5F5F5F5F5F5F5F5F5F5F5
310
F5F5F5F5F5F5F5F5F5F5F5F5F5E2E2EFE2F5F5F5F5F5F5F5F5F5F5F5F5F5F5F5F5F5F5F5F5F5F5F5F5F5F5F5F5F5F5F5F5F5F5F5F5F5F5F5F5F5F5F5F5F5F5F5F5F5F5F5F5F5F5F5F5F5F5F5F5F5F5F5F5F5F5F5F5F5F5F5F5F5F5F5F5F5F5F5F5F5F5F5F5F5F5F5F5F5F5F5F5F5F5F5F5F5F5F5F5F5F5F5F5F5F5F5F5F5F5
310
F5F5F5F5F5F5F5F5F5F5F5F5F5F5F5F5F5F5F5F5F5F5F5F5F5F5F5F5F5F5F5F5F5F5F5F5F5F5F5F5F5F5F5F5F5F5F5F5F5F5F5F5F5F5F5F5F5F5F5F5F5F5F5F5F5F5E2E2EFE2F5F5F5F5F5F5F5F5F5F5F5F5F5F5F5F5F5F5F5F5F5F5F5F5F5F5F5F5F5F5F5F5F5F5F5F5F5F5F5F5F5F5F5F5F5F5F5F5F5F5F5F5F5F5F5F5F5
310
F5F5F5F5F5F5F5F5F5F5F5F5F5F5F5F5F5F5F5F5F5F5F5F5F5F5F5F5F5F5F5F5F5F5F5F5F5F5F5F5F5F5F5F5F5F5F5F5F5F5F5F5F5F5F5F5F5F5F5F5F5F5F5F5F5F5F5F5F5F5F5F5F5F5F5F5F5F5F5F5F5F5F5F5F5F5F5F5F5F5F5F5F5F5F5F5F5F5F5F5F5F5F5F5F5F5F5F5F5F5F5F5F5F5F5F5F5F5F5E2E2EFE2F5F5F5F5
310
F5F5F5F5F5F5F5F5F5F5F5F5F5F5F5F5F5F5F5F5F5F5F5F5F5F5F5F5F5F5F5F5F5F5F5F5F5F5F5F5F5F5F5F5F5F5F5F5F5F5F5F5F5F5F5F5F5F5F5F5F5F5F5F5F5F5F5F5F5F5F5F5F5F5F5F5F5F5F5F5F5F5F5F5F5F5F5F5F5F5F5F5F5F5F5F5F5F5F5F5F5F5F5F5F5F5F5F5F5F5F5F5F5F5F5F5F5F5F5F5F5F5F5F5F5F5F5
310
F5F5F5F5F5F5F5F5F5F5F5F5F5F5F5F5F5F5F5F5F5F5F5F5F5F5F5F5F5F5F5F5F5F5F5F5F5F5F5F5F5F5F5F5F5E2E2EFE2F5F5F5F5F5F5F5F5F5F5F5F5F5F5F5F5F5F5F5F5F5F5F5F5F5F5F5F5F5F5F5F5F5F5F5F5F5F5F5F5F5F5F5F5F5F5F5F5F5F5F5F5F5F5F5F5F5F5F5F5F5F5F5F5F5F5F5F5F5F5F5F5F5F5F5F5F5F5
310
F5F5F5F5F5F5F5F5F5F5F5F5F5F5F5F5F5F5F5F5F5F5F5F5F5F5F5F5F5F5F5F5F5F5F5F5F5F5F5F5F5F5F5F5F5F5F5F5F5F5F5F5F5F5F5F5F5F5F5F5F5F5F5F5F5F5F5F5F5F5F5F5F5F5F5F5F5F5F5F5F5F5F5F5F5F5F5F5F5F5F5F5F5F5F5F5F5F5E2E2EFE2F5F5F5F5F5F5F5F5F5F5F5F5F5F5F5F5F5F5F5F5F5F5F5F5F5
310
F5F5F5F5F5F5F5F5F5F5F5F5F5F5F5F5F5F5F5F5F5F5F5F5F5F5F5F5F5F5F5F5F5F5F5F5F5F5F5F5F5F5F5F5F5F5F5F5F5F5F5F5F5F5F5F5F5F5F5F5F5F5F5F5F5F5F5F5F5F5F5F5F5F5F5F5F5F5F5F5F5F5F5F5F5F5F5F5F5F5F5F5F5F5F5F5F5F5F5F5F5F5F5F5F5F5F5F5F5F5F5F5F5F5F5F5F5F5F5F5F5F5F5F5F5F5F5
310
F5F5F5F5F5F5F5F5F5F5F5F5F5F5F5F5F5F5F5F5F5F5F5F5E2E2EFE2F5E2F5F5F5F5F5F5F5F5F5F5F5F5F5F5F5F5F5F5F5F5F5F5F5F5F5F5F5F5F5F5F5F5F5F5F5F5F5F5F5F5F5F5F5F5F5F5F5F5F5F5F5F5F5F5F5F5F5F5F5F5F5F5F5F5F5F5F5F5F5F5F5F5F5F5F5F5F5F5F5F5F5F5F5F5F5F5F5F5F5F5F5F5F5F5F5F5F5
310
F5F5F5F5F5F5F5F5F5F5F5F5F5F5F5F5F5F5F5F5F5F5F5F5F5F5F5F5F5F5F5F5F5F5F5F5F5F5F5F5F5F5F5F5F5F5F5F5F5F5F5F5F5F5F5F5F5F5F5F5F5F5F5F5F5F5F5F5F5F5F5F5F5F5F5E2F5E2E2EFE2F5E2F5F5F5F5F5F5F5F5F5F5F5F5F5F5F5F5F5F5F5F5F5F5F5F5F5F5F5F5F5F5F5F5F5F5F5F5F5F5F5F5F5F5F5F5
310
F5F5F5F5F5F5F5F5F5F5F5F5F5F5F5F5F5F5F5F5F5F5F5F5F5F5F5F5F5F5F5F5F5F5F5F5F5F5F5F5F5F5F5F5F5F5F5F5F5F5F5F5F5F5F5F5F5F5F5F5F5F5F5F5F5F5F5F5F5F5F5F5F5F5F5F5F5F5F5F5F5F5F5F5F5F5F5F5F5F5F5F5F5F5F5F5F5F5F5F5F5F5F5F5F5F5F5F5F5F5F5F5F5F5F5F5F5F5F5F5F5F5F5F5F5F5F5
310
F5E2F5E2E2EFE2F5E2F5F5F5F5F5F5F5F5F5F5F5F5F5F5F5F5F5F5F5F5F5F5F5F5F5F5F5F5F5F5F5F5F5F5F5F5F5F5F5F5F5F5F5F5F5F5F5F5F5F5F5F5F5F5F5F5F5F5F5F5F5F5F5F5F5F5F5F5F5F5F5F5F5F5F5F5F5F5F5F5F5F5F5F5F5F5F5F5F5F5F5F5F5F5F5F5F5F5F5F5F5F5F5F5F5F5F5F5F5F5F5F5F5F5F5F5F5F5
310
F5F5F5F5F5F5F5F5F5F5F5F5F5F5F5F5F5F5F5F5F5F5F5F5F5F5F5F5F5F5F5F5F5F5F5F5F5F5F5F5F5F5F5F5F5F5F5F5F5F5F5F5F5F5E2F5E2E2EFE2F5E2F5F5F5F5F5F5F5F5F5F5F5F5F5F5F5F5F5F5F5F5F5F5F5F5F5F5F5F5F5F5F5F5F5F5F5F5F5F5F5F5F5F5F5F5F5F5F5F5F5F5F5F5F5F5F5F5F5F5F5F5F5F5F5F5F5
310
F5F5F5F5F5F5F5F5F5F5F5F5F5F5F5F5F5F5F5F5F5F5F5F5F5F5F5F5F5F5F5F5F5F5F5F5F5F5F5F5F5F5F5F5F5F5F5F5F5F5F5F5F5F5F5F5F5F5F5F5F5F5F5F5F5F5F5F5F5F5F5F5F5F5F5F5F5F5F5F5F5F5F5F5F5F5F5F5F5F5F5F5F5F5F5F5F5F5F5F5F5F5F5F5F5F5F5E2F5E2E2EFE2F5E2F5F5F5F5F5F5F5F5F5F5F5F5
310
F5F5F5F5F5F5F5F5F5F5F5F5F5F5F5F5F5F5F5F5F5F5F5F5F5F5F5F5F5F5F5F5F5F5F5F5F5F5F5F5F5F5F5F5F5F5F5F5F5F5F5F5F5F5F5F5F5F5F5F5F5F5F5F5F5F5F5F5F5F5F5F5F5F5F5F5F5F5F5F5F5F5F5F5F5F5F5F5F5F5F5F5F5F5F5F5F5F5F5F5F5F5F5F5F5F5F5F5F5F5F5F5F5F5F5F5F5F5F5F5F5F5F5F5F5F5F5
310
F5F5F5F5F5F5F5F5F5F5F5F5F5F5F5F5F5F5F5F5F5F5F5F5F5F5F5F5F5F5F5F5F5E2F5E2E2EFE2F5E2F5F5F5F5F5F5F5F5F5F5F5F5F5F5F5F5F5F5F5F5F5F5F5F5F5F5F5F5F5F5F5F5F5F5F5F5F5F5F5F5F5F5F5F5F5F5F5F5F5F5F5F5F5F5F5F5F5F5F5F5F5F5F5F5F5F5F5F5F5F5F5F5F5F5F5F5F5F5F5F5F5F5F5F5F5F5
310
F5F5F5F5F5F5F5F5F5F5F5F5F5F5F5F5F5F5F5F5F5F5F5F5F5F5F5F5F5F5F5F5F5F5F5F5F5F5F5F5F5F5F5F5F5F5F5F5F5F5F5F5F5F5F5F5F5F5F5F5F5F5F5F5F5F5F5F5F5F5F5F5F5F5F5F5F5F5F5F5F5F5F5F5F5F5E2F5E2E2EFE2F5E2F5F5F5F5F5F5F5F5F5F5F5F5F5F5F5F5F5F5F5F5F5F5F5F5F5F5F5F5F5F5F5F5F5
310
F5F5F5F5F5F5F5F5F5F5F5F5F5F5F5F5F5F5F5F5F5F5F5F5F5F5F5F5F5F5F5F5F5F5F5F5F5F5F5F5F5F5F5F5F5F5F5F5F5F5F5F5F5F5F5F5F5F5F5F5F5F5F5F5F5F5F5F5F5F5F5F5F5F5F5F5F5F5F5F5F5F5F5F5F5F5F5F5F5F5F5F5F5F5F5F5F5F5F5F5F5F5F5F5F5F5F5F5F5F5F5F5F5F5F5F5F5F5F5F5F5F5F5F5F5F5F5
310
F5F5F5F5F5F5F5F5F5F5F5F5E2F5E2E2EFE2F5E2E2E2E2E2E2E2E2F5F5F5F5F5F5F5F5F5E2E2E2E2E2E2E2E2E2E2E2E2E2E2E2E2F5F5F5F5F5F5F5F5F5E2E2E2E2E2E2E2E2E2E2E2E2E2E2E2E2F5F5F5F5F5F5F5F5F5E2E2E2E2E2E2E2E2E2E2E2E2E2E2E2E2F5F5F5F5F5F5F5F5E2E2E2E2E2E2E2E2E2E2E2E2E2E2E2E2F5
310
F5F5F5F5F5F5F5F5E2E2E2E2E2E2E2E2E2E2E2E2E2E2E2E2F5F5F5F5F5F5F5F5F5E2E2E2E2E2E2E2E2E2E2E2E2E2E2E2E2F5F5F5F5F5F5F5F5F5E2E2E2E2E2E2E2E2F5E2E2EFE2F5F5F5F5F5F5F5F5F5F5F5F5F5F5F5F5F5F5F5F5F5F5F5F5F5F5F5F5F5F5F5F5F5F5F5F5F5F5F5F5F5F5F5F5F5F5F5F5F5F5F5F5F5F5F5F5
310
F5F5F5F5F5F5F5F5F5F5F5F5F5F5F5F5F5F5F5F5F5F5F5F5F5F5F5F5F5F5F5F5F5F5F5F5F5F5F5F5F5F5F5F5F5F5F5F5F5F5F5F5F5F5F5F5F5F5F5F5F5F5F5F5F5F5F5F5F5F5F5F5F5F5F5F5F5F5F5F5F5F5F5F5F5F5F5F5F5F5F5F5F5F5F5F5F5F5F5F5F5F5F5F5F5F5F5F5F5F5F5F5F5F5F5F5F5F5F5F5E2EFEFE2E2E2E2
310
E2E2E2E2E2E2E2E2E2E2E2E2E2E2E2E2E2E2E2E2E2E2E2E2E2E2E2E2E2E2E2E2E2E2E2E2E2E2E2E2E2E2E2E2E2E2E2E2E2E2E2E2E2E2E2E2E2E2E2E2E2E2E2E2E2E2E2E2E2E2E2E2E2E2E2E2E2E2E2E2E2E2E2E2E2E2E2E2E2E2E2E2E2E2E2E2E2E2E2E2E2E2E2E2E2E2E2E2E2E2E2E2E2E2E2E2E2E2E2E2E2E2E2E2E2E2E2
310
E2E2E2E2E2E2E2E2E2E2E2E2E2E2E2E2E2E2E2E2E2E2E2E2E2E2E2E2E2E2E2E2E2E2E2E2E2E2E2E2E2E2E2E2E2E2E2EF
  0
XRECORD
  5
2E2F8
102
{ACAD_REACTORS
330
2E2F7
102
}
330
2E2F7
100
AcDbXrecord
280
     1
102
SHADEPLOT
 70
     0
102
SHADEPLOTRESLEVEL
 70
     2
102
SHADEPLOTCUSTOMDPI
 70
   300
  0
XRECORD
  5
2E314
102
{ACAD_REACTORS
330
2E313
102
}
330
2E313
100
AcDbXrecord
280
     1
102
MATERIAL
148
0.0
149
0.0
149
0.0
 93
        0
 94
       63
282
     0
 72
     1
 77
     1
171
     1
175
     1
179
     1
273
     0
  0
XRECORD
  5
2E312
102
{ACAD_REACTORS
330
2E311
102
}
330
2E311
100
AcDbXrecord
280
     1
102
MATERIAL
148
0.0
149
0.0
149
0.0
 93
        0
 94
       63
282
     0
 72
     1
 77
     1
171
     1
175
     1
179
     1
273
     0
  0
XRECORD
  5
2E316
102
{ACAD_REACTORS
330
2E315
102
}
330
2E315
100
AcDbXrecord
280
     1
102
MATERIAL
148
0.0
149
0.0
149
0.0
 93
        0
 94
       63
282
     0
 72
     1
 77
     1
171
     1
175
     1
179
     1
273
     0
  0
XRECORD
  5
2E2FC
102
{ACAD_REACTORS
330
2E2FB
102
}
330
2E2FB
100
AcDbXrecord
280
     1
102
SHADEPLOT
 70
     0
102
SHADEPLOTRESLEVEL
 70
     2
102
SHADEPLOTCUSTOMDPI
 70
   300
  0
XRECORD
  5
2E2FE
102
{ACAD_REACTORS
330
2E2FD
102
}
330
2E2FD
100
AcDbXrecord
280
     1
102
SHADEPLOT
 70
     0
102
SHADEPLOTRESLEVEL
 70
     2
102
SHADEPLOTCUSTOMDPI
 70
   300
  0
XRECORD
  5
2E300
102
{ACAD_REACTORS
330
2E2FF
102
}
330
2E2FF
100
AcDbXrecord
280
     1
102
SHADEPLOT
 70
     0
102
SHADEPLOTRESLEVEL
 70
     2
102
SHADEPLOTCUSTOMDPI
 70
   300
  0
XRECORD
  5
2E302
102
{ACAD_REACTORS
330
2E301
102
}
330
2E301
100
AcDbXrecord
280
     1
102
SHADEPLOT
 70
     0
102
SHADEPLOTRESLEVEL
 70
     2
102
SHADEPLOTCUSTOMDPI
 70
   300
  0
XRECORD
  5
2E304
102
{ACAD_REACTORS
330
2E303
102
}
330
2E303
100
AcDbXrecord
280
     1
102
SHADEPLOT
 70
     0
102
SHADEPLOTRESLEVEL
 70
     2
102
SHADEPLOTCUSTOMDPI
 70
   300
  0
XRECORD
  5
2E306
102
{ACAD_REACTORS
330
2E305
102
}
330
2E305
100
AcDbXrecord
280
     1
102
SHADEPLOT
 70
     0
102
SHADEPLOTRESLEVEL
 70
     2
102
SHADEPLOTCUSTOMDPI
 70
   300
  0
XRECORD
  5
2E308
102
{ACAD_REACTORS
330
2E307
102
}
330
2E307
100
AcDbXrecord
280
     1
102
SHADEPLOT
 70
     0
102
SHADEPLOTRESLEVEL
 70
     2
102
SHADEPLOTCUSTOMDPI
 70
   300
  0
XRECORD
  5
2E30A
102
{ACAD_REACTORS
330
2E309
102
}
330
2E309
100
AcDbXrecord
280
     1
102
SHADEPLOT
 70
     0
102
SHADEPLOTRESLEVEL
 70
     2
102
SHADEPLOTCUSTOMDPI
 70
   300
  0
XRECORD
  5
2E30C
102
{ACAD_REACTORS
330
2E30B
102
}
330
2E30B
100
AcDbXrecord
280
     1
102
SHADEPLOT
 70
     0
102
SHADEPLOTRESLEVEL
 70
     2
102
SHADEPLOTCUSTOMDPI
 70
   300
  0
XRECORD
  5
2E30E
102
{ACAD_REACTORS
330
2E30D
102
}
330
2E30D
100
AcDbXrecord
280
     1
102
SHADEPLOT
 70
     0
102
SHADEPLOTRESLEVEL
 70
     2
102
SHADEPLOTCUSTOMDPI
 70
   300
  0
XRECORD
  5
2E2FA
102
{ACAD_REACTORS
330
2E2F9
102
}
330
2E2F9
100
AcDbXrecord
280
     1
102
ACAD_ROUNDTRIP_PRE2007_TABLESTYLE
 90
        4
 91
        0
  1

 92
        4
 93
        0
  2

 94
        4
 95
        0
  3

  0
ENDSEC
  0
EOF
