  0
SECTION
  2
HEADER
  9
$ACADVER
  1
AC1015
  9
$ACADMAINTVER
 70
    20
  9
$DWGCODEPAGE
  3
ANSI_932
  9
$INSBASE
 10
0.0
 20
0.0
 30
0.0
  9
$EXTMIN
 10
3651.30382610664
 20
-1598.394710085883
 30
0.0
  9
$EXTMAX
 10
5541.666824822213
 20
-214.4641071057931
 30
0.0
  9
$LIMMIN
 10
2843.481982921993
 20
1394.557920112307
  9
$LIMMAX
 10
3683.481982921993
 20
1988.557920112307
  9
$ORTHOMODE
 70
     0
  9
$REGENMODE
 70
     1
  9
$FILLMODE
 70
     1
  9
$QTEXTMODE
 70
     0
  9
$MIRRTEXT
 70
     0
  9
$LTSCALE
 40
1.0
  9
$ATTMODE
 70
     1
  9
$TEXTSIZE
 40
3.2
  9
$TRACEWID
 40
1.0
  9
$TEXTSTYLE
  7
STANDARD
  9
$CLAYER
  8
AM_0
  9
$CELTYPE
  6
ByLayer
  9
$CECOLOR
 62
   256
  9
$CELTSCALE
 40
0.5
  9
$DISPSILH
 70
     0
  9
$DIMSCALE
 40
1.0
  9
$DIMASZ
 40
1.0
  9
$DIMEXO
 40
1.0
  9
$DIMDLI
 40
10.0
  9
$DIMRND
 40
0.0
  9
$DIMDLE
 40
0.0
  9
$DIMEXE
 40
1.0
  9
$DIMTP
 40
0.1
  9
$DIMTM
 40
0.1
  9
$DIMTXT
 40
3.5
  9
$DIMCEN
 40
0.0
  9
$DIMTSZ
 40
0.0
  9
$DIMTOL
 70
     0
  9
$DIMLIM
 70
     0
  9
$DIMTIH
 70
     0
  9
$DIMTOH
 70
     0
  9
$DIMSE1
 70
     0
  9
$DIMSE2
 70
     0
  9
$DIMTAD
 70
     1
  9
$DIMZIN
 70
     8
  9
$DIMBLK
  1

  9
$DIMASO
 70
     1
  9
$DIMSHO
 70
     1
  9
$DIMPOST
  1

  9
$DIMAPOST
  1
"
  9
$DIMALT
 70
     0
  9
$DIMALTD
 70
     2
  9
$DIMALTF
 40
0.0393701
  9
$DIMLFAC
 40
1.0
  9
$DIMTOFL
 70
     1
  9
$DIMTVP
 40
0.0
  9
$DIMTIX
 70
     0
  9
$DIMSOXD
 70
     0
  9
$DIMSAH
 70
     0
  9
$DIMBLK1
  1

  9
$DIMBLK2
  1

  9
$DIMSTYLE
  2
SYS
  9
$DIMCLRD
 70
   256
  9
$DIMCLRE
 70
   256
  9
$DIMCLRT
 70
     7
  9
$DIMTFAC
 40
0.71
  9
$DIMGAP
 40
1.5
  9
$DIMJUST
 70
     0
  9
$DIMSD1
 70
     0
  9
$DIMSD2
 70
     0
  9
$DIMTOLJ
 70
     0
  9
$DIMTZIN
 70
     8
  9
$DIMALTZ
 70
     0
  9
$DIMALTTZ
 70
     0
  9
$DIMUPT
 70
     0
  9
$DIMDEC
 70
     1
  9
$DIMTDEC
 70
     2
  9
$DIMALTU
 70
     2
  9
$DIMALTTD
 70
     2
  9
$DIMTXSTY
  7
STANDARD
  9
$DIMAUNIT
 70
     0
  9
$DIMADEC
 70
     0
  9
$DIMALTRND
 40
0.0
  9
$DIMAZIN
 70
     2
  9
$DIMDSEP
 70
    46
  9
$DIMATFIT
 70
     3
  9
$DIMFRAC
 70
     0
  9
$DIMLDRBLK
  1

  9
$DIMLUNIT
 70
     2
  9
$DIMLWD
 70
    -1
  9
$DIMLWE
 70
    -1
  9
$DIMTMOVE
 70
     0
  9
$LUNITS
 70
     2
  9
$LUPREC
 70
     2
  9
$SKETCHINC
 40
1.0
  9
$FILLETRAD
 40
40.0
  9
$AUNITS
 70
     0
  9
$AUPREC
 70
     0
  9
$MENU
  1
.
  9
$ELEVATION
 40
0.0
  9
$PELEVATION
 40
0.0
  9
$THICKNESS
 40
0.0
  9
$LIMCHECK
 70
     0
  9
$CHAMFERA
 40
0.0
  9
$CHAMFERB
 40
0.0
  9
$CHAMFERC
 40
20.0
  9
$CHAMFERD
 40
0.0
  9
$SKPOLY
 70
     0
  9
$TDCREATE
 40
2455567.561054317
  9
$TDUCREATE
 40
2455567.186054318
  9
$TDUPDATE
 40
2455631.752951389
  9
$TDUUPDATE
 40
2455631.377951389
  9
$TDINDWG
 40
1.5616764005
  9
$TDUSRTIMER
 40
1.5616744097
  9
$USRTIMER
 70
     1
  9
$ANGBASE
 50
0.0
  9
$ANGDIR
 70
     0
  9
$PDMODE
 70
     0
  9
$PDSIZE
 40
-3.0
  9
$PLINEWID
 40
0.0
  9
$SPLFRAME
 70
     0
  9
$SPLINETYPE
 70
     6
  9
$SPLINESEGS
 70
     8
  9
$HANDSEED
  5
2536B
  9
$SURFTAB1
 70
     6
  9
$SURFTAB2
 70
     6
  9
$SURFTYPE
 70
     6
  9
$SURFU
 70
     6
  9
$SURFV
 70
     6
  9
$UCSBASE
  2

  9
$UCSNAME
  2

  9
$UCSORG
 10
0.0
 20
0.0
 30
0.0
  9
$UCSXDIR
 10
1.0
 20
0.0
 30
0.0
  9
$UCSYDIR
 10
0.0
 20
1.0
 30
0.0
  9
$UCSORTHOREF
  2

  9
$UCSORTHOVIEW
 70
     0
  9
$UCSORGTOP
 10
0.0
 20
0.0
 30
0.0
  9
$UCSORGBOTTOM
 10
0.0
 20
0.0
 30
0.0
  9
$UCSORGLEFT
 10
0.0
 20
0.0
 30
0.0
  9
$UCSORGRIGHT
 10
0.0
 20
0.0
 30
0.0
  9
$UCSORGFRONT
 10
0.0
 20
0.0
 30
0.0
  9
$UCSORGBACK
 10
0.0
 20
0.0
 30
0.0
  9
$PUCSBASE
  2

  9
$PUCSNAME
  2

  9
$PUCSORG
 10
0.0
 20
0.0
 30
0.0
  9
$PUCSXDIR
 10
1.0
 20
0.0
 30
0.0
  9
$PUCSYDIR
 10
0.0
 20
1.0
 30
0.0
  9
$PUCSORTHOREF
  2

  9
$PUCSORTHOVIEW
 70
     0
  9
$PUCSORGTOP
 10
0.0
 20
0.0
 30
0.0
  9
$PUCSORGBOTTOM
 10
0.0
 20
0.0
 30
0.0
  9
$PUCSORGLEFT
 10
0.0
 20
0.0
 30
0.0
  9
$PUCSORGRIGHT
 10
0.0
 20
0.0
 30
0.0
  9
$PUCSORGFRONT
 10
0.0
 20
0.0
 30
0.0
  9
$PUCSORGBACK
 10
0.0
 20
0.0
 30
0.0
  9
$USERI1
 70
     0
  9
$USERI2
 70
     0
  9
$USERI3
 70
     0
  9
$USERI4
 70
     0
  9
$USERI5
 70
     0
  9
$USERR1
 40
0.0
  9
$USERR2
 40
0.0
  9
$USERR3
 40
0.0
  9
$USERR4
 40
0.0
  9
$USERR5
 40
0.0
  9
$WORLDVIEW
 70
     1
  9
$SHADEDGE
 70
     3
  9
$SHADEDIF
 70
    70
  9
$TILEMODE
 70
     1
  9
$MAXACTVP
 70
    64
  9
$PINSBASE
 10
0.0
 20
0.0
 30
0.0
  9
$PLIMCHECK
 70
     0
  9
$PEXTMIN
 10
1.000000000000000E+20
 20
1.000000000000000E+20
 30
1.000000000000000E+20
  9
$PEXTMAX
 10
-1.000000000000000E+20
 20
-1.000000000000000E+20
 30
-1.000000000000000E+20
  9
$PLIMMIN
 10
-3.17498779296875
 20
-3.174999952316284
  9
$PLIMMAX
 10
293.4970092773438
 20
206.692492723465
  9
$UNITMODE
 70
     0
  9
$VISRETAIN
 70
     1
  9
$PLINEGEN
 70
     0
  9
$PSLTSCALE
 70
     1
  9
$TREEDEPTH
 70
  3020
  9
$CMLSTYLE
  2
Standard
  9
$CMLJUST
 70
     0
  9
$CMLSCALE
 40
20.0
  9
$PROXYGRAPHICS
 70
     1
  9
$MEASUREMENT
 70
     1
  9
$CELWEIGHT
370
    -1
  9
$ENDCAPS
280
     0
  9
$JOINSTYLE
280
     0
  9
$LWDISPLAY
290
     1
  9
$INSUNITS
 70
     4
  9
$HYPERLINKBASE
  1

  9
$STYLESHEET
  1
monochrome.ctb
  9
$XEDIT
290
     1
  9
$CEPSNTYPE
380
     0
  9
$PSTYLEMODE
290
     1
  9
$FINGERPRINTGUID
  2
{E0FB5660-30B4-4D8A-8C1D-9D7E99D72F0A}
  9
$VERSIONGUID
  2
{8677F25F-E76C-4B3C-9C7D-EE99442E41C7}
  9
$EXTNAMES
290
     1
  9
$PSVPSCALE
 40
0.0
  9
$OLESTARTUP
290
     0
  0
ENDSEC
  0
SECTION
  2
CLASSES
  0
CLASS
  1
ACDBDICTIONARYWDFLT
  2
AcDbDictionaryWithDefault
  3
ObjectDBX Classes
 90
        0
280
     0
281
     0
  0
CLASS
  1
ACDBPLACEHOLDER
  2
AcDbPlaceHolder
  3
ObjectDBX Classes
 90
        0
280
     0
281
     0
  0
CLASS
  1
LAYOUT
  2
AcDbLayout
  3
ObjectDBX Classes
 90
        0
280
     0
281
     0
  0
CLASS
  1
AMGSETTINGSOBJ
  2
AmgSettingsObj
  3
"AcadM|Product Description: AutoCAD Mechanical|Company: Autodesk"
 90
        0
280
     0
281
     0
  0
CLASS
  1
ACME_DOCUMENT
  2
AcMeDbDoc
  3
AcMeServices
 90
        0
280
     0
281
     0
  0
CLASS
  1
ACMESCOPE
  2
AcMeScope
  3
AcMeServices
 90
        0
280
     0
281
     0
  0
CLASS
  1
ACMECOMMANDHISTORY
  2
AcMeCommandHistory
  3
AcMeServices
 90
        0
280
     0
281
     0
  0
CLASS
  1
DICTIONARYVAR
  2
AcDbDictionaryVar
  3
ObjectDBX Classes
 90
        0
280
     0
281
     0
  0
CLASS
  1
ACIMSYSVARMAN
  2
AcImSysVarManager
  3
AcMeServices
 90
        0
280
     0
281
     0
  0
CLASS
  1
ACIMREALSYSVAR
  2
AcImRealSysVar
  3
AcMeServices
 90
        0
280
     0
281
     0
  0
CLASS
  1
ACIMINTSYSVAR
  2
AcImIntSysVar
  3
AcMeServices
 90
        0
280
     0
281
     0
  0
CLASS
  1
ACMEDRAWINGMAN
  2
AcMeDrawingMan
  3
AcMeServices
 90
        0
280
     0
281
     0
  0
CLASS
  1
ACMEVIEW
  2
AcMeView
  3
AcMeServices
 90
        0
280
     0
281
     0
  0
CLASS
  1
ACDBENTITYCACHE
  2
AcMeEntityCache
  3
AcMeServices
 90
        0
280
     0
281
     0
  0
CLASS
  1
GSMANAGER
  2
AcMeGSManager
  3
AcMeServices
 90
        0
280
     0
281
     0
  0
CLASS
  1
AMDTINTERNALREACTOR
  2
AmdtInternalReactor
  3
AcMeServices
 90
        0
280
     0
281
     0
  0
CLASS
  1
ACMESTATEMGR
  2
AcMeStateMgr
  3
AcMeServices
 90
        0
280
     0
281
     0
  0
CLASS
  1
ACGREFMASTER
  2
AcGrefMaster
  3
AcAttribServices
 90
        0
280
     0
281
     0
  0
CLASS
  1
ACME_DATABASE
  2
AcMeDbDatabase
  3
AcMeServices
 90
        0
280
     0
281
     0
  0
CLASS
  1
ACRFINSADJUSTERMGR
  2
AcRfInsAdjusterMgr
  3
AcMeServices
 90
        0
280
     0
281
     0
  0
CLASS
  1
ACGREFACADMASTER
  2
AcGrefacadMaster
  3
AcGrefServices
 90
        0
280
     0
281
     0
  0
CLASS
  1
AMIMASTER
  2
AmiMaster
  3
AmiServices
 90
        0
280
     0
281
     0
  0
CLASS
  1
ACMDATADICTIONARY
  2
AcmDataDictionary
  3
"AcmSymBB|Product Description: AutoCAD Mechanical|Company: Autodesk"
 90
        0
280
     0
281
     0
  0
CLASS
  1
ACMDATAENTRYBLOCK
  2
AcmDataEntryBlock
  3
"AcmSymBB|Product Description: AutoCAD Mechanical|Company: Autodesk"
 90
        0
280
     0
281
     0
  0
CLASS
  1
ACIMSTRSYSVAR
  2
AcImStrSysVar
  3
AcMeServices
 90
        0
280
     0
281
     0
  0
CLASS
  1
ACMSTANDARDISO
  2
AcmStandardISO
  3
"Amdt_StdImp|Product Description: AutoCAD Mechanical|Company: Autodesk"
 90
        0
280
     0
281
     0
  0
CLASS
  1
AMGOBJPROPCFG
  2
AmgObjPropCfg
  3
"AmgLay|Product Description: AutoCAD Mechanical|Company: Autodesk"
 90
        1
280
     0
281
     0
  0
CLASS
  1
AMDTEDGESTANDARDISO
  2
AmdtEdgeStdISO
  3
"Amdt_StdImp|Product Description: AutoCAD Mechanical|Company: Autodesk"
 90
        0
280
     0
281
     0
  0
CLASS
  1
ACMSURFSTANDARDISO
  2
AcmSurfTextStdISO
  3
"Amdt_StdImp|Product Description: AutoCAD Mechanical|Company: Autodesk"
 90
        0
280
     0
281
     0
  0
CLASS
  1
ACMFCFSTANDARDISO
  2
AcmFCFStdISO
  3
"Amdt_StdImp|Product Description: AutoCAD Mechanical|Company: Autodesk"
 90
        0
280
     0
281
     0
  0
CLASS
  1
ACMWELDSTANDARDISO
  2
AcmWeldingStdISO
  3
"Amdt_StdImp|Product Description: AutoCAD Mechanical|Company: Autodesk"
 90
        0
280
     0
281
     0
  0
CLASS
  1
ACMIDSTANDARDISO
  2
AcmIdStdISO
  3
"Amdt_StdImp|Product Description: AutoCAD Mechanical|Company: Autodesk"
 90
        0
280
     0
281
     0
  0
CLASS
  1
ACMDATUMSTANDARDISO
  2
AcmDatumStdISO
  3
"Amdt_StdImp|Product Description: AutoCAD Mechanical|Company: Autodesk"
 90
        0
280
     0
281
     0
  0
CLASS
  1
ACMBOMSTANDARDISO
  2
AcmBOMStdISO
  3
"Amdt_StdImp|Product Description: AutoCAD Mechanical|Company: Autodesk"
 90
        0
280
     0
281
     0
  0
CLASS
  1
ACMDETAILSTANDARDISO
  2
AmdtDetailSymStdISO
  3
"Amdt_StdImp|Product Description: AutoCAD Mechanical|Company: Autodesk"
 90
        0
280
     0
281
     0
  0
CLASS
  1
ACMSECTIONSTANDARDISO
  2
AmdtSectionSymStdISO
  3
"Amdt_StdImp|Product Description: AutoCAD Mechanical|Company: Autodesk"
 90
        0
280
     0
281
     0
  0
CLASS
  1
ACMCENTERLINESTANDARDISO
  2
AmdtCenterLineStdISO
  3
"Amdt_StdImp|Product Description: AutoCAD Mechanical|Company: Autodesk"
 90
        0
280
     0
281
     0
  0
CLASS
  1
ACAMGLAYSTD
  2
AcAmgLayStd
  3
"AmgLay|Product Description: AutoCAD Mechanical|Company: Autodesk"
 90
        0
280
     0
281
     0
  0
CLASS
  1
ACAMGDIMSTD
  2
AcAmgDimStd
  3
"AmgDim|Product Description: AutoCAD Mechanical|Company: Autodesk"
 90
        0
280
     0
281
     0
  0
CLASS
  1
ACAMGTITLESTD
  2
AcAmgTitleStd
  3
"AmgTitle|Product Description: AutoCAD Mechanical|Company: Autodesk"
 90
        0
280
     0
281
     0
  0
CLASS
  1
ACAMGFILTERDAT
  2
AcAmgFilterDat
  3
"AcadM|Product Description: AutoCAD Mechanical|Company: Autodesk"
 90
        0
280
     0
281
     0
  0
CLASS
  1
LAYER_INDEX
  2
AcDbLayerIndex
  3
ObjectDBX Classes
 90
    32768
280
     0
281
     0
  0
CLASS
  1
IDBUFFER
  2
AcDbIdBuffer
  3
ObjectDBX Classes
 90
    32768
280
     0
281
     0
  0
CLASS
  1
PLOTSETTINGS
  2
AcDbPlotSettings
  3
ObjectDBX Classes
 90
    32768
280
     0
281
     0
  0
CLASS
  1
AMDTFORMULAUPDATEDISPATCHER
  2
AmdtFormulaUpdateDispatcher
  3
AcMeServices
 90
        0
280
     0
281
     0
  0
CLASS
  1
ACMSTANDARDANSI
  2
AcmStandardANSI
  3
"Amdt_StdImp|Product Description: AutoCAD Mechanical|Company: Autodesk"
 90
        0
280
     0
281
     0
  0
CLASS
  1
ACMSURFSTANDARDANSI
  2
AcmSurfTextStdANSI
  3
"Amdt_StdImp|Product Description: AutoCAD Mechanical|Company: Autodesk"
 90
        0
280
     0
281
     0
  0
CLASS
  1
ACMFCFSTANDARDANSI
  2
AcmFCFStdANSI
  3
"Amdt_StdImp|Product Description: AutoCAD Mechanical|Company: Autodesk"
 90
        0
280
     0
281
     0
  0
CLASS
  1
ACMWELDSTANDARDANSI
  2
AcmWeldingStdANSI
  3
"Amdt_StdImp|Product Description: AutoCAD Mechanical|Company: Autodesk"
 90
        0
280
     0
281
     0
  0
CLASS
  1
ACMIDSTANDARDANSI
  2
AcmIdStdANSI
  3
"Amdt_StdImp|Product Description: AutoCAD Mechanical|Company: Autodesk"
 90
        0
280
     0
281
     0
  0
CLASS
  1
ACMDATUMSTANDARDANSI
  2
AcmDatumStdANSI
  3
"Amdt_StdImp|Product Description: AutoCAD Mechanical|Company: Autodesk"
 90
        0
280
     0
281
     0
  0
CLASS
  1
ACMBOMSTANDARDANSI
  2
AcmBOMStdANSI
  3
"Amdt_StdImp|Product Description: AutoCAD Mechanical|Company: Autodesk"
 90
        0
280
     0
281
     0
  0
CLASS
  1
ACMDETAILSTANDARDANSI
  2
AmdtDetailSymStdANSI
  3
"Amdt_StdImp|Product Description: AutoCAD Mechanical|Company: Autodesk"
 90
        0
280
     0
281
     0
  0
CLASS
  1
ACMSECTIONSTANDARDANSI
  2
AmdtSectionSymStdANSI
  3
"Amdt_StdImp|Product Description: AutoCAD Mechanical|Company: Autodesk"
 90
        0
280
     0
281
     0
  0
CLASS
  1
ACMCENTERLINESTANDARDANSI
  2
AmdtCenterLineStdANSI
  3
"Amdt_StdImp|Product Description: AutoCAD Mechanical|Company: Autodesk"
 90
        0
280
     0
281
     0
  0
CLASS
  1
ACMBOM
  2
AcmBom
  3
"AcmSymBB|Product Description: AutoCAD Mechanical|Company: Autodesk"
 90
        0
280
     0
281
     0
  0
CLASS
  1
ACMDATAENTRYPART
  2
AcmDataEntryPart
  3
"AcmSymBB|Product Description: AutoCAD Mechanical|Company: Autodesk"
 90
    32768
280
     0
281
     0
  0
CLASS
  1
ACMPARTREF
  2
AcmPartRef
  3
"AcmSymBB|Product Description: AutoCAD Mechanical|Company: Autodesk"
 90
    35839
280
     0
281
     1
  0
CLASS
  1
ACDBCIRCARCRES
  2
AcDbCircArcRes
  3
AcGrefServices
 90
        0
280
     0
281
     0
  0
CLASS
  1
ACMBOMROW
  2
AcmBomRow
  3
"AcmSymBB|Product Description: AutoCAD Mechanical|Company: Autodesk"
 90
    32768
280
     0
281
     0
  0
CLASS
  1
ACMBALLOON
  2
AcmBalloon
  3
"AcmSymBB|Product Description: AutoCAD Mechanical|Company: Autodesk"
 90
    35839
280
     0
281
     1
  0
CLASS
  1
AMDTNOTE
  2
AmdtNote
  3
"AcmSymBB|Product Description: AutoCAD Mechanical|Company: Autodesk"
 90
     3071
280
     0
281
     1
  0
CLASS
  1
STDPART2D
  2
AmgStdPart
  3
"AmgStdPart|Product Description: AutoCAD Mechanical|Company: Autodesk"
 90
    35839
280
     0
281
     1
  0
CLASS
  1
ACDBSTDPARTRES_LINE
  2
AcDbStdPartRes_Line
  3
"AmgStdPart|Product Description: AutoCAD Mechanical|Company: Autodesk"
 90
    32768
280
     0
281
     0
  0
CLASS
  1
ACMDATAENTRY
  2
AcmDataEntry
  3
"AcmSymBB|Product Description: AutoCAD Mechanical|Company: Autodesk"
 90
        0
280
     0
281
     0
  0
CLASS
  1
ACDBOPPOLYLINERES
  2
AcDbOpPolylineRes
  3
AcGrefServices
 90
    32768
280
     0
281
     0
  0
CLASS
  1
ACMPARTLIST
  2
AcmPartList
  3
"AcmSymBB|Product Description: AutoCAD Mechanical|Company: Autodesk"
 90
    35839
280
     0
281
     1
  0
CLASS
  1
ACDBLINERES
  2
AcDbLineRes
  3
AcGrefServices
 90
        0
280
     0
281
     0
  0
CLASS
  1
ACRFINSADJ
  2
AcRfInsAdjuster
  3
AcMeServices
 90
    32768
280
     0
281
     0
  0
CLASS
  1
AM_DRAWING_MGR
  2
AcDmDwgMgr
  3
AcMechDwgViewMgmt
 90
        0
280
     0
281
     0
  0
CLASS
  1
AM_DWG_DOCUMENT
  2
AcDmDwgDocument
  3
AcMechDwgViewMgmt
 90
        0
280
     0
281
     0
  0
CLASS
  1
AM_DWG_SHEET
  2
AcDmSheet
  3
AcMechDwgViewMgmt
 90
        0
280
     0
281
     0
  0
CLASS
  1
AM_VIEWDIMPARMAP
  2
AcDmViewDimParMap
  3
AcMechDwgViewMgmt
 90
        0
280
     0
281
     0
  0
CLASS
  1
AM_DWGMGR_NAME
  2
AcDmDwgMgrName
  3
AcMechDwgViewMgmt
 90
        0
280
     0
281
     0
  0
CLASS
  1
AMDTMENUSTATEMGR
  2
AmdtMenuStateMgr
  3
McadcomServices
 90
        0
280
     0
281
     0
  0
CLASS
  1
AMDTMCOMMENUSTATE
  2
AmdtMcomMenuState
  3
McadcomServices
 90
        0
280
     0
281
     0
  0
CLASS
  1
ASAPP
  2
AcAsAppObject
  3
AutoSurfServices
 90
        0
280
     0
281
     0
  0
CLASS
  1
IM_STATIC_MAN
  2
AcImStaticVarManager
  3
AcMeServices
 90
        0
280
     0
281
     0
  0
CLASS
  1
ACIMDBLSTATICVAR
  2
AcImDblStaticVar
  3
AcMeServices
 90
        0
280
     0
281
     0
  0
CLASS
  1
ACIMSTRSTATICVAR
  2
AcImStrStaticVar
  3
AcMeServices
 90
        0
280
     0
281
     0
  0
CLASS
  1
ACIMINTSTATICVAR
  2
AcImIntStaticVar
  3
AcMeServices
 90
        0
280
     0
281
     0
  0
CLASS
  1
ACASGREFMASTER
  2
AcAsGrefMaster
  3
AutoSurfResolverServices
 90
        0
280
     0
281
     0
  0
CLASS
  1
ACADGREFMODULE
  2
AcAdGrefModule
  3
AdGrefServices
 90
        0
280
     0
281
     0
  0
CLASS
  1
AMDTMAPISURFMOUDULE
  2
AmdtMApiSurfModule
  3
MApiSurfServices
 90
        0
280
     0
281
     0
  0
CLASS
  1
MAPIAMMOUDLE
  2
MApiAmModule
  3
MApiAmServices
 90
        0
280
     0
281
     0
  0
CLASS
  1
AMDTADMENUSTATE
  2
AmdtAdMenuState
  3
DesignerServices
 90
        0
280
     0
281
     0
  0
CLASS
  1
ADAPPL
  2
AcAdAppl
  3
DesignerServices
 90
        0
280
     0
281
     0
  0
CLASS
  1
DEPMGR
  2
AcAdDepMgr
  3
DesignerServices
 90
        0
280
     0
281
     0
  0
CLASS
  1
PARAMMGR
  2
AcAdParamMgr
  3
DesignerServices
 90
        0
280
     0
281
     0
  0
CLASS
  1
PARAMSCOPE
  2
AcAdParamScope
  3
DesignerServices
 90
        0
280
     0
281
     0
  0
CLASS
  1
NAMEDAPPL
  2
AcAdNamedAppl
  3
DesignerServices
 90
        0
280
     0
281
     0
  0
CLASS
  1
ADHNTMPLT
  2
AdHoleNoteTemplateMgr
  3
DesignerServices
 90
    32768
280
     0
281
     0
  0
CLASS
  1
AM_HNTEMPLATE_MGR_NAME
  2
AdHoleNoteTemplateMgrName
  3
DesignerServices
 90
    32768
280
     0
281
     0
  0
CLASS
  1
AMDTDMMENUSTATE
  2
AmdtDmMenuState
  3
AcMechDwgViewMgmt
 90
        0
280
     0
281
     0
  0
CLASS
  1
MAPIADMODULE
  2
MApiAdModule
  3
MApiAdServices
 90
        0
280
     0
281
     0
  0
CLASS
  1
AMDTAMMENUSTATE
  2
AmdtAmMenuState
  3
DesignerAssemblies
 90
        0
280
     0
281
     0
  0
CLASS
  1
ACAMPROJECT
  2
AcAmProject
  3
DesignerAssemblies
 90
        0
280
     0
281
     0
  0
CLASS
  1
ACAMGRCOMPDEF
  2
AcAmGrCompDef
  3
DesignerAssemblies
 90
        0
280
     0
281
     0
  0
CLASS
  1
ACCMCONTEXT
  2
AcCmContext
  3
DesignerAssemblies
 90
        0
280
     0
281
     0
  0
CLASS
  1
ACAMCOMPDEF
  2
AcAmCompDef
  3
DesignerAssemblies
 90
        0
280
     0
281
     0
  0
CLASS
  1
ACAMCOMPDEFMGR
  2
AcAmCompDefMgr
  3
DesignerAssemblies
 90
        0
280
     0
281
     0
  0
CLASS
  1
AMCONTEXTMGR
  2
AcAmContextMgr
  3
DesignerAssemblies
 90
        0
280
     0
281
     0
  0
CLASS
  1
ACAMCONTEXTMODELER
  2
AcAmContextModeler
  3
DesignerAssemblies
 90
        0
280
     0
281
     0
  0
CLASS
  1
CATALOGSTATE
  2
AcAmCatalogState
  3
DesignerAssemblies
 90
        0
280
     0
281
     0
  0
CLASS
  1
ACAMGRCOMPDEFSET
  2
AcAmGrCompDefSet
  3
DesignerAssemblies
 90
        0
280
     0
281
     0
  0
CLASS
  1
AMDTBROWSERDBTAB
  2
AmdtBrowserDbTab
  3
McadcomServices
 90
        0
280
     0
281
     0
  0
CLASS
  1
CBROWSERAPPOBJECT
  2
CBrowserAppObject
  3
McadcomServices
 90
        0
280
     0
281
     0
  0
CLASS
  1
DM_PLACEHOLDER
  2
AcDmSelsetPlaceholder
  3
AcMechDwgViewMgmt
 90
        0
280
     0
281
     0
  0
CLASS
  1
ACMPICKOBJ
  2
AcmPickEnt
  3
"AcmSymBB|Product Description: AutoCAD Mechanical|Company: Autodesk"
 90
    32768
280
     0
281
     1
  0
CLASS
  1
ACMNOTESTANDARDISO
  2
AmdtNoteStdISO
  3
"Amdt_StdImp|Product Description: AutoCAD Mechanical|Company: Autodesk"
 90
        0
280
     0
281
     0
  0
CLASS
  1
ACMNOTESTANDARDANSI
  2
AmdtNoteStdANSI
  3
"Amdt_StdImp|Product Description: AutoCAD Mechanical|Company: Autodesk"
 90
        0
280
     0
281
     0
  0
CLASS
  1
ACMTHREADLINESTANDARDISO
  2
AmdtThreadLineStdISO
  3
"Amdt_StdImp|Product Description: AutoCAD Mechanical|Company: Autodesk"
 90
        0
280
     0
281
     0
  0
CLASS
  1
ACMTHREADLINESTANDARDANSI
  2
AmdtThreadLineStdANSI
  3
"Amdt_StdImp|Product Description: AutoCAD Mechanical|Company: Autodesk"
 90
        0
280
     0
281
     0
  0
CLASS
  1
TABLESTYLE
  2
AcDbTableStyle
  3
ObjectDBX Classes
 90
     4095
280
     0
281
     0
  0
CLASS
  1
SORTENTSTABLE
  2
AcDbSortentsTable
  3
ObjectDBX Classes
 90
        0
280
     0
281
     0
  0
CLASS
  1
MATERIAL
  2
AcDbMaterial
  3
ObjectDBX Classes
 90
     1153
280
     0
281
     0
  0
CLASS
  1
VISUALSTYLE
  2
AcDbVisualStyle
  3
ObjectDBX Classes
 90
     4095
280
     0
281
     0
  0
CLASS
  1
ACRFATTGENMGR
  2
AcRfAttGeneralMgr
  3
AcAttribServices
 90
        0
280
     0
281
     0
  0
CLASS
  1
ACRFOBJATTMGR
  2
AcRfObjAttGroupMgr
  3
AcAttribServices
 90
        0
280
     0
281
     0
  0
CLASS
  1
ACRFMCADAPIATTHOLDER
  2
AcRfMCADAPIAttHolder
  3
AcAttribServices
 90
        0
280
     0
281
     0
  0
CLASS
  1
AMDTSYSATTR
  2
AmdtSystemAttribute
  3
AcAttribServices
 90
        0
280
     0
281
     0
  0
CLASS
  1
ACMTAPERSTANDARDISO
  2
AcmTaperStdISO
  3
"Amdt_StdImp|Product Description: AutoCAD Mechanical|Company: Autodesk"
 90
        0
280
     0
281
     0
  0
CLASS
  1
CAMSSTRUCTBTNSTATE
  2
StructBtnState
  3
L"DesignerAssemblies"
 90
        0
280
     0
281
     0
  0
CLASS
  1
DIMASSOC
  2
AcDbDimAssoc
  3
"AcDbDimAssoc|Product Desc:     AcDim ARX App For Dimension|Company:          Autodesk, Inc.|WEB Address:      www.autodesk.com"
 90
    32768
280
     0
281
     0
  0
CLASS
  1
AMDTNOTETEMPLATEDB
  2
AmdtNoteTemplateDB
  3
AMDT_STDIMP_MODULE_NAME
 90
        0
280
     0
281
     0
  0
CLASS
  1
ACMTAPERSTANDARDANSI
  2
AcmTaperStdANSI
  3
"Amdt_StdImp|Product Description: AutoCAD Mechanical|Company: Autodesk"
 90
        0
280
     0
281
     0
  0
CLASS
  1
ACAMGHOLECHARTSTDANSI
  2
AcAmgHoleChartStdANSI
  3
ACMSYMBB_MODULE_NAME
 90
        0
280
     0
281
     0
  0
CLASS
  1
AMDTEDGESTANDARDISO13715
  2
AmdtEdgeStdISO13715
  3
"Amdt_StdImp|Product Description: AutoCAD Mechanical|Company: Autodesk"
 90
        0
280
     0
281
     0
  0
CLASS
  1
ACAMGHOLECHARTSTDISO
  2
AcAmgHoleChartStdISO
  3
ACMSYMBB_MODULE_NAME
 90
        0
280
     0
281
     0
  0
CLASS
  1
AMDTACMWBLOCKBOMENTITY
  2
AmdtAcmWblockBomEntity
  3
"AcmSymBB|Product Description: AutoCAD Mechanical|Company: Autodesk"
 90
     3071
280
     0
281
     1
  0
ENDSEC
  0
SECTION
  2
TABLES
  0
TABLE
  2
VPORT
  5
8
102
{ACAD_XDICTIONARY
360
233D0
102
}
330
0
100
AcDbSymbolTable
 70
     1
  0
VPORT
  5
B0EC
330
8
100
AcDbSymbolTableRecord
100
AcDbViewportTableRecord
  2
*Active
 70
     0
 10
0.0
 20
0.0
 11
1.0
 21
1.0
 12
4592.292017635496
 22
-1424.239138185543
 13
0.0
 23
0.0
 14
2.5
 24
2.5
 15
10.0
 25
10.0
 16
0.0
 26
0.0
 36
1.0
 17
0.0
 27
0.0
 37
0.0
 40
604.7742338579614
 41
1.348039215686274
 42
50.0
 43
-1370.695619172058
 44
-1370.695619172058
 50
0.0
 51
0.0
 71
     0
 72
   100
 73
     1
 74
     3
 75
     0
 76
     0
 77
     0
 78
     0
281
     0
 65
     0
110
0.0
120
0.0
130
0.0
111
1.0
121
0.0
131
0.0
112
0.0
122
1.0
132
0.0
 79
     0
146
0.0
  0
ENDTAB
  0
TABLE
  2
LTYPE
  5
5
330
0
100
AcDbSymbolTable
 70
    32
  0
LTYPE
  5
14
330
5
100
AcDbSymbolTableRecord
100
AcDbLinetypeTableRecord
  2
ByBlock
 70
     0
  3

 72
    65
 73
     0
 40
0.0
  0
LTYPE
  5
15
330
5
100
AcDbSymbolTableRecord
100
AcDbLinetypeTableRecord
  2
ByLayer
 70
     0
  3

 72
    65
 73
     0
 40
0.0
  0
LTYPE
  5
16
330
5
100
AcDbSymbolTableRecord
100
AcDbLinetypeTableRecord
  2
Continuous
 70
     0
  3
Solid line
 72
    65
 73
     0
 40
0.0
  0
LTYPE
  5
4F
330
5
100
AcDbSymbolTableRecord
100
AcDbLinetypeTableRecord
  2
AM_ISO02W050
 70
     0
  3
__ __ __ __ __ __ __ __ __ __ __ __ __ __ __
 72
    65
 73
     2
 40
7.5
 49
6.0
 74
     0
 49
-1.5
 74
     0
  0
LTYPE
  5
52
330
5
100
AcDbSymbolTableRecord
100
AcDbLinetypeTableRecord
  2
Amconstr
 70
     0
  3
_______________________
 72
    65
 73
     2
 40
9999.0
 49
9999.0
 74
     0
 49
0.0
 74
     0
  0
LTYPE
  5
64
330
5
100
AcDbSymbolTableRecord
100
AcDbLinetypeTableRecord
  2
ACISOWELD
 70
     0
  3
_ _ _ _ _
 72
    65
 73
     2
 40
2.0
 49
2.0
 74
     0
 49
-1.0
 74
     0
  0
LTYPE
  5
65
330
5
100
AcDbSymbolTableRecord
100
AcDbLinetypeTableRecord
  2
ACISOTGB
 70
     0
  3
__ . . __ . .
 72
    65
 73
     6
 40
9.0
 49
4.0
 74
     0
 49
-1.0
 74
     0
 49
1.0
 74
     0
 49
-1.0
 74
     0
 49
1.0
 74
     0
 49
-1.0
 74
     0
  0
LTYPE
  5
66
330
5
100
AcDbSymbolTableRecord
100
AcDbLinetypeTableRecord
  2
ACISOTGL
 70
     0
  3
_ _ _ _ _
 72
    65
 73
     2
 40
3.0
 49
2.0
 74
     0
 49
-1.0
 74
     0
  0
LTYPE
  5
69
330
5
100
AcDbSymbolTableRecord
100
AcDbLinetypeTableRecord
  2
CENTER
 70
     0
  3
__ . __
 72
    65
 73
     4
 40
7.0
 49
4.0
 74
     0
 49
-1.0
 74
     0
 49
1.0
 74
     0
 49
-1.0
 74
     0
  0
LTYPE
  5
A6E
330
5
100
AcDbSymbolTableRecord
100
AcDbLinetypeTableRecord
  2
PHANTOM2
 70
     0
  3
Phantom (.5x) ___ _ _ ___ _ _ ___ _ _ ___ _ _
 72
    65
 73
     6
 40
31.75
 49
15.875
 74
     0
 49
-3.174999999999999
 74
     0
 49
3.174999999999999
 74
     0
 49
-3.174999999999999
 74
     0
 49
3.174999999999999
 74
     0
 49
-3.174999999999999
 74
     0
  0
LTYPE
  5
4DED
330
5
100
AcDbSymbolTableRecord
100
AcDbLinetypeTableRecord
  2
中線
 70
     0
  3
___________________
 72
    65
 73
     2
 40
2.0
 49
1.0
 74
     0
 49
1.0
 74
     0
  0
LTYPE
  5
4DF6
330
5
100
AcDbSymbolTableRecord
100
AcDbLinetypeTableRecord
  2
細線
 70
     0
  3
___________________
 72
    65
 73
     2
 40
2.0
 49
1.0
 74
     0
 49
1.0
 74
     0
  0
LTYPE
  5
4DF7
330
5
100
AcDbSymbolTableRecord
100
AcDbLinetypeTableRecord
  2
太線
 70
     0
  3
___________________
 72
    65
 73
     2
 40
2.0
 49
1.0
 74
     0
 49
1.0
 74
     0
  0
LTYPE
  5
4EA7
330
5
100
AcDbSymbolTableRecord
100
AcDbLinetypeTableRecord
  2
文字
 70
     0
  3
_________________
 72
    65
 73
     2
 40
2.0
 49
1.0
 74
     0
 49
1.0
 74
     0
  0
LTYPE
  5
4EA9
330
5
100
AcDbSymbolTableRecord
100
AcDbLinetypeTableRecord
  2
寸法線
 70
     0
  3
________________
 72
    65
 73
     2
 40
2.0
 49
1.0
 74
     0
 49
1.0
 74
     0
  0
LTYPE
  5
4F12
330
5
100
AcDbSymbolTableRecord
100
AcDbLinetypeTableRecord
  2
ハッチング
 70
     0
  3
_________________
 72
    65
 73
     2
 40
2.0
 49
1.0
 74
     0
 49
1.0
 74
     0
  0
LTYPE
  5
5180
330
5
100
AcDbSymbolTableRecord
100
AcDbLinetypeTableRecord
  2
陰線1
 70
     0
  3
__ __ __ __
 72
    65
 73
     2
 40
4.0
 49
2.2
 74
     0
 49
-1.8
 74
     0
  0
LTYPE
  5
5182
330
5
100
AcDbSymbolTableRecord
100
AcDbLinetypeTableRecord
  2
切断線
 70
     0
  3
/\/-/\/-/\/-/\/-/\/-/\/
 72
    65
 73
     2
 40
11.0001
 49
0.0001
 74
     4
 75
   135
340
56
 46
0.04
 50
0.0
 44
0.0
 45
0.0
 49
-11.0
 74
     0
  0
LTYPE
  5
5183
330
5
100
AcDbSymbolTableRecord
100
AcDbLinetypeTableRecord
  2
想像線1
 70
     0
  3
__ __ __ _____ __ __ ____
 72
    65
 73
     6
 40
14.5
 49
6.0
 74
     0
 49
-1.5
 74
     0
 49
2.0
 74
     0
 49
-1.5
 74
     0
 49
2.0
 74
     0
 49
-1.5
 74
     0
  0
LTYPE
  5
5185
330
5
100
AcDbSymbolTableRecord
100
AcDbLinetypeTableRecord
  2
中心線1
 70
     0
  3
___ _ ___ _ ___
 72
    65
 73
     4
 40
18.0
 49
12.0
 74
     0
 49
-2.0
 74
     0
 49
2.0
 74
     0
 49
-2.0
 74
     0
  0
LTYPE
  5
5188
330
5
100
AcDbSymbolTableRecord
100
AcDbLinetypeTableRecord
  2
補助線
 70
     0
  3
______________
 72
    65
 73
     2
 40
2.0
 49
1.0
 74
     0
 49
1.0
 74
     0
  0
LTYPE
  5
6427
330
5
100
AcDbSymbolTableRecord
100
AcDbLinetypeTableRecord
  2
HIDDEN
 70
     0
  3
Hidden __ __ __ __ __ __ __ __ __ __ __ __ __ _
 72
    65
 73
     2
 40
0.375
 49
0.25
 74
     0
 49
-0.125
 74
     0
  0
LTYPE
  5
AF95
330
5
100
AcDbSymbolTableRecord
100
AcDbLinetypeTableRecord
  2
AM_ISO08W050
 70
     0
  3
____ . ____ . ____ . ____ . ____ . ____ . ____
 72
    65
 73
     4
 40
18.0
 49
12.0
 74
     0
 49
-1.5
 74
     0
 49
3.0
 74
     0
 49
-1.5
 74
     0
  0
LTYPE
  5
D0F2
330
5
100
AcDbSymbolTableRecord
100
AcDbLinetypeTableRecord
  2
ACANSTGB
 70
     0
  3
__ . . __ . .
 72
    65
 73
     6
 40
0.35433070866
 49
0.15748031496
 74
     0
 49
-0.03937007874
 74
     0
 49
0.03937007874
 74
     0
 49
-0.03937007874
 74
     0
 49
0.03937007874
 74
     0
 49
-0.03937007874
 74
     0
  0
LTYPE
  5
D0F3
330
5
100
AcDbSymbolTableRecord
100
AcDbLinetypeTableRecord
  2
ACANSTGL
 70
     0
  3
_ _ _ _ _
 72
    65
 73
     2
 40
0.11811023622
 49
0.07874015748
 74
     0
 49
-0.03937007874
 74
     0
  0
ENDTAB
  0
TABLE
  2
LAYER
  5
2
102
{ACAD_XDICTIONARY
360
3F95
102
}
330
0
100
AcDbSymbolTable
 70
    11
  0
LAYER
  5
10
330
2
100
AcDbSymbolTableRecord
100
AcDbLayerTableRecord
  2
0
 70
     0
 62
     7
  6
Continuous
370
    -3
390
F
  0
LAYER
  5
6D1
330
2
100
AcDbSymbolTableRecord
100
AcDbLayerTableRecord
  2
Defpoints
 70
     0
 62
     7
  6
Continuous
290
     0
370
    -3
390
F
  0
LAYER
  5
5F85
330
2
100
AcDbSymbolTableRecord
100
AcDbLayerTableRecord
  2
AM_0
 70
     0
 62
     7
  6
中線
370
    30
390
F
1001
AcAecLayerStandard
1000

1000

  0
LAYER
  5
ACA1
330
2
100
AcDbSymbolTableRecord
100
AcDbLayerTableRecord
  2
AM_6
 70
     0
 62
     2
  6
文字
370
    13
390
F
1001
AcAecLayerStandard
1000

1000

  0
LAYER
  5
AD60
330
2
100
AcDbSymbolTableRecord
100
AcDbLayerTableRecord
  2
AM_1
 70
     0
 62
    30
  6
太線
370
    40
390
F
1001
AcAecLayerStandard
1000

1000

  0
LAYER
  5
AD64
330
2
100
AcDbSymbolTableRecord
100
AcDbLayerTableRecord
  2
AM_2
 70
     0
 62
     1
  6
細線
370
    13
390
F
1001
AcAecLayerStandard
1000

1000

  0
LAYER
  5
AD68
330
2
100
AcDbSymbolTableRecord
100
AcDbLayerTableRecord
  2
AM_5
 70
     0
 62
     3
  6
寸法線
370
    13
390
F
1001
AcAecLayerStandard
1000

1000

  0
LAYER
  5
AD69
330
2
100
AcDbSymbolTableRecord
100
AcDbLayerTableRecord
  2
AM_7
 70
     0
 62
     4
  6
中心線1
370
    13
390
F
1001
AcAecLayerStandard
1000

1000

  0
LAYER
  5
AD6A
330
2
100
AcDbSymbolTableRecord
100
AcDbLayerTableRecord
  2
AM_8
 70
     0
 62
     1
  6
ハッチング
370
    13
390
F
1001
AcAecLayerStandard
1000

1000

  0
LAYER
  5
AD6F
330
2
100
AcDbSymbolTableRecord
100
AcDbLayerTableRecord
  2
AM_11
 70
     0
 62
     2
  6
想像線1
370
    13
390
F
1001
AcAecLayerStandard
1000

1000

  0
ENDTAB
  0
TABLE
  2
STYLE
  5
3
330
0
100
AcDbSymbolTable
 70
     9
  0
STYLE
  5
11
330
3
100
AcDbSymbolTableRecord
100
AcDbTextStyleTableRecord
  2
STANDARD
 70
     0
 40
0.0
 41
0.7
 50
0.0
 71
     0
 42
3.2
  3
romans.shx
  4
extfont.shx
  0
STYLE
  5
56
330
3
100
AcDbSymbolTableRecord
100
AcDbTextStyleTableRecord
  2

 70
     1
 40
0.0
 41
1.0
 50
0.0
 71
     0
 42
2.5
  3
ltypeshp.shx
  4

  0
STYLE
  5
58
330
3
100
AcDbSymbolTableRecord
100
AcDbTextStyleTableRecord
  2
ACISOTS
 70
     0
 40
1.0
 41
1.0
 50
0.0
 71
     0
 42
2.5
  3
isocp.shx
  4
extfont.shx
  0
STYLE
  5
63
330
3
100
AcDbSymbolTableRecord
100
AcDbTextStyleTableRecord
  2
ACISOGDT
 70
     0
 40
0.0
 41
1.0
 50
0.0
 71
     0
 42
2.5
  3
amgdt.shx
  4

  0
STYLE
  5
A74
330
3
100
AcDbSymbolTableRecord
100
AcDbTextStyleTableRecord
  2
DIM
 70
     0
 40
0.0
 41
1.0
 50
0.0
 71
     0
 42
2.5
  3
monotxt.shx
  4
extfont.shx
  0
STYLE
  5
D104
330
3
100
AcDbSymbolTableRecord
100
AcDbTextStyleTableRecord
  2
ACANSTS
 70
     0
 40
1.0
 41
1.0
 50
0.0
 71
     0
 42
0.2
  3
romans.shx
  4
extfont.shx
  0
STYLE
  5
D105
330
3
100
AcDbSymbolTableRecord
100
AcDbTextStyleTableRecord
  2
ACANSGDT
 70
     0
 40
0.0
 41
1.0
 50
0.0
 71
     0
 42
0.2
  3
amgdt.shx
  4

  0
ENDTAB
  0
TABLE
  2
VIEW
  5
6
330
0
100
AcDbSymbolTable
 70
     6
  0
VIEW
  5
AE1
330
6
100
AcDbSymbolTableRecord
100
AcDbViewTableRecord
  2
AM_VIEW1
 70
     0
 40
297.0
 10
3130.464823158679
 20
1840.057920112307
 41
573.9656804733726
 11
0.0
 21
0.0
 31
1.0
 12
0.0
 22
0.0
 32
0.0
 42
50.0
 43
-1370.695619172058
 44
-1370.695619172058
 50
0.0
 71
     0
281
     0
 72
     0
  0
VIEW
  5
AE2
330
6
100
AcDbSymbolTableRecord
100
AcDbViewTableRecord
  2
AM_VIEW2
 70
     0
 40
297.0
 10
3396.499142685307
 20
1840.057920112307
 41
573.9656804733726
 11
0.0
 21
0.0
 31
1.0
 12
0.0
 22
0.0
 32
0.0
 42
50.0
 43
-1370.695619172058
 44
-1370.695619172058
 50
0.0
 71
     0
281
     0
 72
     0
  0
VIEW
  5
AE3
330
6
100
AcDbSymbolTableRecord
100
AcDbViewTableRecord
  2
AM_VIEW3
 70
     0
 40
297.0
 10
3130.464823158679
 20
1543.057920112307
 41
573.9656804733726
 11
0.0
 21
0.0
 31
1.0
 12
0.0
 22
0.0
 32
0.0
 42
50.0
 43
-1370.695619172058
 44
-1370.695619172058
 50
0.0
 71
     0
281
     0
 72
     0
  0
VIEW
  5
AE4
330
6
100
AcDbSymbolTableRecord
100
AcDbViewTableRecord
  2
AM_VIEW4
 70
     0
 40
297.0
 10
3396.499142685307
 20
1543.057920112307
 41
573.9656804733726
 11
0.0
 21
0.0
 31
1.0
 12
0.0
 22
0.0
 32
0.0
 42
50.0
 43
-1370.695619172058
 44
-1370.695619172058
 50
0.0
 71
     0
281
     0
 72
     0
  0
VIEW
  5
AE5
330
6
100
AcDbSymbolTableRecord
100
AcDbViewTableRecord
  2
AM_VIEW5
 70
     0
 40
297.0
 10
3263.481982921993
 20
1691.557920112307
 41
573.9656804733731
 11
0.0
 21
0.0
 31
1.0
 12
0.0
 22
0.0
 32
0.0
 42
50.0
 43
-1370.695619172058
 44
-1370.695619172058
 50
0.0
 71
     0
281
     0
 72
     0
  0
VIEW
  5
AE6
330
6
100
AcDbSymbolTableRecord
100
AcDbViewTableRecord
  2
AM_VIEW6
 70
     0
 40
593.9940599999999
 10
3263.481982921993
 20
1691.557920112307
 41
1147.919881633136
 11
0.0
 21
0.0
 31
1.0
 12
0.0
 22
0.0
 32
0.0
 42
50.0
 43
-1370.695619172058
 44
-1370.695619172058
 50
0.0
 71
     0
281
     0
 72
     0
  0
ENDTAB
  0
TABLE
  2
UCS
  5
7
330
0
100
AcDbSymbolTable
 70
     0
  0
ENDTAB
  0
TABLE
  2
APPID
  5
9
330
0
100
AcDbSymbolTable
 70
    56
  0
APPID
  5
12
330
9
100
AcDbSymbolTableRecord
100
AcDbRegAppTableRecord
  2
ACAD
 70
     0
  0
APPID
  5
30
330
9
100
AcDbSymbolTableRecord
100
AcDbRegAppTableRecord
  2
MCAD_NO_VIS
 70
     0
  0
APPID
  5
31
330
9
100
AcDbSymbolTableRecord
100
AcDbRegAppTableRecord
  2
ACAD_TEMP_GRAPHIC
 70
     0
  0
APPID
  5
44
330
9
100
AcDbSymbolTableRecord
100
AcDbRegAppTableRecord
  2
ACATTRIBSERVICES
 70
     0
  0
APPID
  5
7A1
330
9
100
AcDbSymbolTableRecord
100
AcDbRegAppTableRecord
  2
GENIUS_GENDIMSH_14
 70
     0
  0
APPID
  5
A49
330
9
100
AcDbSymbolTableRecord
100
AcDbRegAppTableRecord
  2
GENIUS_GENREC_14
 70
     0
  0
APPID
  5
A4A
330
9
100
AcDbSymbolTableRecord
100
AcDbRegAppTableRecord
  2
GENIUS_GENOBJ-N-REC_13
 70
     0
  0
APPID
  5
A4B
330
9
100
AcDbSymbolTableRecord
100
AcDbRegAppTableRecord
  2
GENIUS_GENODEF_13
 70
     0
  0
APPID
  5
A4C
330
9
100
AcDbSymbolTableRecord
100
AcDbRegAppTableRecord
  2
DCO15
 70
     0
  0
APPID
  5
ADC
330
9
100
AcDbSymbolTableRecord
100
AcDbRegAppTableRecord
  2
GENIUS_GENOLIS_13
 70
     0
  0
APPID
  5
ADD
330
9
100
AcDbSymbolTableRecord
100
AcDbRegAppTableRecord
  2
GENIUS_GENOENT_13
 70
     0
  0
APPID
  5
ADE
330
9
100
AcDbSymbolTableRecord
100
AcDbRegAppTableRecord
  2
GENIUS_GENOBJ-N-TIT_13
 70
     0
  0
APPID
  5
ADF
330
9
100
AcDbSymbolTableRecord
100
AcDbRegAppTableRecord
  2
GENIUS_GENTITLE_13
 70
     0
  0
APPID
  5
AE0
330
9
100
AcDbSymbolTableRecord
100
AcDbRegAppTableRecord
  2
GENIUS_GENOREF_13
 70
     0
  0
APPID
  5
AE7
330
9
100
AcDbSymbolTableRecord
100
AcDbRegAppTableRecord
  2
GENIUS_GENSCREG_15
 70
     0
  0
APPID
  5
AE8
330
9
100
AcDbSymbolTableRecord
100
AcDbRegAppTableRecord
  2
GENIUS_GENOBJ-N-SDF_13
 70
     0
  0
APPID
  5
FAF
330
9
100
AcDbSymbolTableRecord
100
AcDbRegAppTableRecord
  2
GENIUS_GENBLLY_14
 70
     0
  0
APPID
  5
FB0
330
9
100
AcDbSymbolTableRecord
100
AcDbRegAppTableRecord
  2
GENIUS_GENTRA_14
 70
     0
  0
APPID
  5
1285
330
9
100
AcDbSymbolTableRecord
100
AcDbRegAppTableRecord
  2
GENIUS_GENDTOL_13
 70
     0
  0
APPID
  5
142D
330
9
100
AcDbSymbolTableRecord
100
AcDbRegAppTableRecord
  2
GENIUS_GENOBJ-N-CEN_13
 70
     0
  0
APPID
  5
1AB5
330
9
100
AcDbSymbolTableRecord
100
AcDbRegAppTableRecord
  2
GENIUS_GENOBJ-N-CRS_13
 70
     0
  0
APPID
  5
1B36
330
9
100
AcDbSymbolTableRecord
100
AcDbRegAppTableRecord
  2
GENIUS_GENOBJ-N-HTC_13
 70
     0
  0
APPID
  5
1B37
330
9
100
AcDbSymbolTableRecord
100
AcDbRegAppTableRecord
  2
GENIUS_GENHATCH_13
 70
     0
  0
APPID
  5
216D
330
9
100
AcDbSymbolTableRecord
100
AcDbRegAppTableRecord
  2
GENIUS_GENOBJ-N-FIL_13
 70
     0
  0
APPID
  5
2356
330
9
100
AcDbSymbolTableRecord
100
AcDbRegAppTableRecord
  2
GEVID990412420
 70
     0
  0
APPID
  5
2357
330
9
100
AcDbSymbolTableRecord
100
AcDbRegAppTableRecord
  2
GEVDC
 70
     0
  0
APPID
  5
2358
330
9
100
AcDbSymbolTableRecord
100
AcDbRegAppTableRecord
  2
GEVCON
 70
     0
  0
APPID
  5
235B
330
9
100
AcDbSymbolTableRecord
100
AcDbRegAppTableRecord
  2
GEVRADREF
 70
     0
  0
APPID
  5
2360
330
9
100
AcDbSymbolTableRecord
100
AcDbRegAppTableRecord
  2
GENIUS_GENBH_13
 70
     0
  0
APPID
  5
2362
330
9
100
AcDbSymbolTableRecord
100
AcDbRegAppTableRecord
  2
GENIUS_GENOBJ-NBEHI-BHF_13
 70
     0
  0
APPID
  5
2364
330
9
100
AcDbSymbolTableRecord
100
AcDbRegAppTableRecord
  2
GENIUS_GENOBJ-NBEHI-BHB_13
 70
     0
  0
APPID
  5
2379
330
9
100
AcDbSymbolTableRecord
100
AcDbRegAppTableRecord
  2
GENIUS_GENOBJ-F-SCPASSM_13
 70
     0
  0
APPID
  5
3D74
330
9
100
AcDbSymbolTableRecord
100
AcDbRegAppTableRecord
  2
GENIUS_GENDIM_13
 70
     0
  0
APPID
  5
3D76
330
9
100
AcDbSymbolTableRecord
100
AcDbRegAppTableRecord
  2
GENIUS_GE3DTOL_13
 70
     0
  0
APPID
  5
3D9C
330
9
100
AcDbSymbolTableRecord
100
AcDbRegAppTableRecord
  2
AD_DRAW
 70
     0
  0
APPID
  5
3DE8
330
9
100
AcDbSymbolTableRecord
100
AcDbRegAppTableRecord
  2
ASURF_PCURVE_APPNAME
 70
     0
  0
APPID
  5
3DED
330
9
100
AcDbSymbolTableRecord
100
AcDbRegAppTableRecord
  2
AMG_3D2D_5.0
 70
     0
  0
APPID
  5
3E1B
330
9
100
AcDbSymbolTableRecord
100
AcDbRegAppTableRecord
  2
DESIGNERASSEMBLIES
 70
     0
  0
APPID
  5
3E20
330
9
100
AcDbSymbolTableRecord
100
AcDbRegAppTableRecord
  2
ACADM_DIM_EDIT
 70
     0
  0
APPID
  5
3E21
330
9
100
AcDbSymbolTableRecord
100
AcDbRegAppTableRecord
  2
AMDT_DM_ADJ
 70
     0
  0
APPID
  5
4143
330
9
100
AcDbSymbolTableRecord
100
AcDbRegAppTableRecord
  2
GENIUS_GENFIL_13
 70
     0
  0
APPID
  5
4144
330
9
100
AcDbSymbolTableRecord
100
AcDbRegAppTableRecord
  2
GENIUS_GENOBJ-N-CHA_13
 70
     0
  0
APPID
  5
4E17
330
9
100
AcDbSymbolTableRecord
100
AcDbRegAppTableRecord
  2
GEVID1008153417
 70
     0
  0
APPID
  5
4E58
330
9
100
AcDbSymbolTableRecord
100
AcDbRegAppTableRecord
  2
GEVID1008153418
 70
     0
  0
APPID
  5
4E5E
330
9
100
AcDbSymbolTableRecord
100
AcDbRegAppTableRecord
  2
GEVID1008153419
 70
     0
  0
APPID
  5
4E64
330
9
100
AcDbSymbolTableRecord
100
AcDbRegAppTableRecord
  2
GEVID1008153420
 70
     0
  0
APPID
  5
4E75
330
9
100
AcDbSymbolTableRecord
100
AcDbRegAppTableRecord
  2
GEVID1008153421
 70
     0
  0
APPID
  5
4EB7
330
9
100
AcDbSymbolTableRecord
100
AcDbRegAppTableRecord
  2
GENIUS_AMGTXT_16
 70
     0
  0
APPID
  5
7645
330
9
100
AcDbSymbolTableRecord
100
AcDbRegAppTableRecord
  2
GENIUS_GENOBJ-N-DIM_13
 70
     0
  0
APPID
  5
AAD0
330
9
100
AcDbSymbolTableRecord
100
AcDbRegAppTableRecord
  2
ACAD_DSTYLE_DIMARC_LENGTH_SYMBOL
 70
     0
  0
APPID
  5
AAD1
330
9
100
AcDbSymbolTableRecord
100
AcDbRegAppTableRecord
  2
ACAD_DSTYLE_DIMJOGGED_JOGANGLE_SYMBOL
 70
     0
  0
APPID
  5
AAFD
330
9
100
AcDbSymbolTableRecord
100
AcDbRegAppTableRecord
  2
ACAD_PSEXT
 70
     0
  0
APPID
  5
AD61
330
9
100
AcDbSymbolTableRecord
100
AcDbRegAppTableRecord
  2
AcAecLayerStandard
 70
     0
  0
APPID
  5
AEE3
330
9
100
AcDbSymbolTableRecord
100
AcDbRegAppTableRecord
  2
ACAD_EXEMPT_FROM_CAD_STANDARDS
 70
     0
  0
APPID
  5
B1BE
330
9
100
AcDbSymbolTableRecord
100
AcDbRegAppTableRecord
  2
GENIUS_GENCEN_19
 70
     0
  0
APPID
  5
B4DF
330
9
100
AcDbSymbolTableRecord
100
AcDbRegAppTableRecord
  2
ACAD_MLEADERVER
 70
     0
  0
ENDTAB
  0
TABLE
  2
DIMSTYLE
  5
A
330
0
100
AcDbSymbolTable
 70
    26
100
AcDbDimStyleTable
 71
     1
340
2515
  0
DIMSTYLE
105
A76
330
A
100
AcDbSymbolTableRecord
100
AcDbDimStyleTableRecord
  2
STANDARD
 70
     0
 41
3.0
 42
1.0
 43
7.0
 44
2.0
 73
     0
 74
     0
 77
     1
140
2.799999999999999
141
0.0
143
0.0394
147
0.7
171
     4
172
     1
173
     1
176
     3
177
     3
178
     2
271
     3
272
     3
273
     8
274
     4
289
     0
340
A74
341
A66
343
A66
344
A66
  0
DIMSTYLE
105
2515
330
A
100
AcDbSymbolTableRecord
100
AcDbDimStyleTableRecord
  2
SYS
 70
     0
  4
"
 41
1.0
 42
1.0
 43
10.0
 44
1.0
 47
0.1
 48
0.1
 73
     0
 74
     0
 77
     1
 78
     8
 79
     2
140
3.5
141
0.0
143
0.0393701
146
0.71
147
1.5
172
     1
176
   256
177
   256
178
     7
271
     2
272
     2
283
     0
284
     8
340
11
371
    -1
372
    -1
1001
ACAD_DSTYLE_DIMJOGGED_JOGANGLE_SYMBOL
1070
   384
1040
0.7853981633974483
1001
ACAD_DSTYLE_DIMARC_LENGTH_SYMBOL
1070
   379
1070
     1
  0
DIMSTYLE
105
2516
102
{ACAD_REACTORS
330
2482E
330
2482F
330
25344
102
}
330
A
100
AcDbSymbolTableRecord
100
AcDbDimStyleTableRecord
  2
SYS$3
 70
     0
  4
"
 41
2.0
 42
1.0
 43
10.0
 44
1.0
 47
0.1
 48
0.1
 73
     0
 77
     1
 78
     8
 79
     2
140
3.5
141
0.0
143
0.0393701
146
0.71
147
1.5
176
   256
177
   256
178
     2
271
     2
272
     2
283
     0
284
     8
288
     1
340
11
342
A66
371
    -1
372
    -1
1001
ACAD_DSTYLE_DIMJOGGED_JOGANGLE_SYMBOL
1070
   384
1040
0.7853981633974483
1001
ACAD_DSTYLE_DIMARC_LENGTH_SYMBOL
1070
   379
1070
     1
  0
DIMSTYLE
105
2517
330
A
100
AcDbSymbolTableRecord
100
AcDbDimStyleTableRecord
  2
SYS$4
 70
     0
  4
"
 41
2.0
 42
1.0
 43
10.0
 44
1.0
 47
0.1
 48
0.1
 73
     0
 77
     1
 78
     8
 79
     2
140
3.5
141
0.0
143
0.0393701
146
0.71
147
1.5
173
     1
176
   256
177
   256
178
     2
271
     2
272
     2
283
     0
284
     8
288
     1
340
11
344
A66
371
    -1
372
    -1
1001
ACAD_DSTYLE_DIMJOGGED_JOGANGLE_SYMBOL
1070
   384
1040
0.7853981633974483
1001
ACAD_DSTYLE_DIMARC_LENGTH_SYMBOL
1070
   379
1070
     1
  0
DIMSTYLE
105
2518
330
A
100
AcDbSymbolTableRecord
100
AcDbDimStyleTableRecord
  2
SYS$6
 70
     0
  4
"
 41
2.0
 42
1.0
 43
10.0
 44
1.0
 47
0.1
 48
0.1
 73
     0
 74
     0
 78
     8
 79
     2
140
3.5
141
0.0
143
0.0393701
146
0.71
147
1.5
172
     1
176
   256
177
   256
178
     2
271
     2
272
     2
283
     0
284
     8
340
11
341
A66
371
    -1
372
    -1
1001
ACAD_DSTYLE_DIMJOGGED_JOGANGLE_SYMBOL
1070
   384
1040
0.7853981633974483
1001
ACAD_DSTYLE_DIMARC_LENGTH_SYMBOL
1070
   379
1070
     1
  0
DIMSTYLE
105
2519
330
A
100
AcDbSymbolTableRecord
100
AcDbDimStyleTableRecord
  2
SYS$7
 70
     0
  4
"
 41
2.0
 42
1.0
 43
10.0
 44
1.0
 47
0.1
 48
0.1
 73
     0
 74
     0
 77
     1
 78
     8
 79
     2
140
5.0
141
0.0
143
0.0393701
146
0.71
147
1.5
172
     1
176
   256
177
   256
178
     2
271
     2
272
     2
283
     0
284
     8
340
11
341
A66
342
A66
371
    -1
372
    -1
1001
ACAD_DSTYLE_DIMJOGGED_JOGANGLE_SYMBOL
1070
   384
1040
0.7853981633974483
1001
ACAD_DSTYLE_DIMARC_LENGTH_SYMBOL
1070
   379
1070
     1
  0
DIMSTYLE
105
251A
330
A
100
AcDbSymbolTableRecord
100
AcDbDimStyleTableRecord
  2
SYS$SF
 70
     0
  4
"
 41
2.5
 42
1.0
 43
10.0
 44
1.0
 47
0.1
 48
0.1
 73
     0
 74
     0
 75
     1
 76
     1
 77
     1
 78
     8
 79
     2
140
3.5
141
0.0
143
0.0393701
146
0.71
147
1.5
172
     1
176
   256
177
   256
178
     2
271
     2
272
     3
283
     0
284
     8
340
11
341
6C4
342
6C4
371
    -1
372
    -1
1001
ACAD_DSTYLE_DIMJOGGED_JOGANGLE_SYMBOL
1070
   384
1040
0.7853981633974483
1001
ACAD_DSTYLE_DIMARC_LENGTH_SYMBOL
1070
   379
1070
     1
  0
DIMSTYLE
105
251B
330
A
100
AcDbSymbolTableRecord
100
AcDbDimStyleTableRecord
  2
SYS$SH
 70
     0
  4
"
 41
2.5
 42
1.0
 43
10.0
 44
1.0
 47
0.1
 48
0.1
 73
     0
 74
     0
 75
     1
 76
     1
 77
     1
 78
     8
 79
     2
140
3.5
141
0.0
143
0.0393701
144
2.0
146
0.71
147
1.5
172
     1
173
     1
176
   256
177
   256
178
     2
271
     2
272
     3
283
     0
284
     8
340
11
341
6C4
343
72
344
6C4
371
    -1
372
    -1
1001
ACAD_DSTYLE_DIMJOGGED_JOGANGLE_SYMBOL
1070
   384
1040
0.7853981633974483
1001
ACAD_DSTYLE_DIMARC_LENGTH_SYMBOL
1070
   379
1070
     1
  0
DIMSTYLE
105
2A59
330
A
100
AcDbSymbolTableRecord
100
AcDbDimStyleTableRecord
  2
SYS$2
 70
     0
  4
"
 41
1.0
 42
1.0
 43
10.0
 44
1.0
 47
0.1
 48
0.1
 73
     0
 74
     0
 77
     1
 78
     8
 79
     2
140
3.5
141
0.0
143
0.0393701
146
0.71
147
1.5
172
     1
176
   256
177
   256
178
     2
271
     2
272
     2
283
     0
284
     8
340
11
342
6C4
371
    -1
372
    -1
1001
ACAD_DSTYLE_DIMJOGGED_JOGANGLE_SYMBOL
1070
   384
1040
0.7853981633974483
1001
ACAD_DSTYLE_DIMARC_LENGTH_SYMBOL
1070
   379
1070
     1
  0
DIMSTYLE
105
2AAB
102
{ACAD_REACTORS
330
2482B
330
2482D
330
2487B
330
2487C
330
24880
330
24881
330
24882
330
24883
330
24B57
330
24C0C
330
24C47
330
24C76
330
24CA6
102
}
330
A
100
AcDbSymbolTableRecord
100
AcDbDimStyleTableRecord
  2
SYS$0
 70
     0
  4
"
 41
1.0
 42
1.0
 43
10.0
 44
1.0
 47
0.1
 48
0.1
 73
     0
 74
     0
 77
     1
 78
     8
 79
     2
140
3.200000000000001
141
0.0
143
0.0393701
146
0.71
147
1.5
172
     1
176
   256
177
   256
178
     2
271
     2
272
     2
283
     0
284
     8
340
11
341
A66
342
6C4
371
    -1
372
    -1
1001
ACAD_DSTYLE_DIMJOGGED_JOGANGLE_SYMBOL
1070
   384
1040
0.7853981633974483
1001
ACAD_DSTYLE_DIMARC_LENGTH_SYMBOL
1070
   379
1070
     1
  0
DIMSTYLE
105
AF99
330
A
100
AcDbSymbolTableRecord
100
AcDbDimStyleTableRecord
  2
AM_ISO
 70
     0
  4
"
 41
2.5
 42
1.0
 43
10.0
 44
1.0
 47
0.1
 48
0.1
 73
     0
 74
     0
 77
     1
 78
     8
 79
     2
140
3.5
141
0.0
143
0.0393701
146
0.71
147
1.5
172
     1
176
   256
177
   256
178
     2
271
     2
272
     3
274
     4
283
     0
284
     8
340
11
371
    -1
372
    -1
  0
DIMSTYLE
105
AF9A
330
A
100
AcDbSymbolTableRecord
100
AcDbDimStyleTableRecord
  2
AM_ISO$3
 70
     0
  4
"
 41
2.5
 42
1.0
 43
10.0
 44
1.0
 47
0.1
 48
0.1
 73
     0
 77
     1
 78
     8
 79
     2
140
3.5
141
0.0
143
0.0393701
146
0.71
147
1.5
176
   256
177
   256
178
     2
271
     2
272
     3
274
     4
283
     0
284
     8
288
     1
289
     0
340
11
371
    -1
372
    -1
  0
DIMSTYLE
105
AF9B
330
A
100
AcDbSymbolTableRecord
100
AcDbDimStyleTableRecord
  2
AM_ISO$4
 70
     0
  4
"
 41
2.5
 42
1.0
 43
10.0
 44
1.0
 47
0.1
 48
0.1
 73
     0
 77
     1
 78
     8
 79
     2
140
3.5
141
0.0
143
0.0393701
146
0.71
147
1.5
176
   256
177
   256
178
     2
271
     2
272
     3
274
     4
283
     0
284
     8
288
     1
289
     0
340
11
371
    -1
372
    -1
  0
DIMSTYLE
105
AF9C
330
A
100
AcDbSymbolTableRecord
100
AcDbDimStyleTableRecord
  2
AM_ISO$6
 70
     0
  4
"
 41
2.5
 42
1.0
 43
10.0
 44
1.0
 47
0.1
 48
0.1
 73
     0
 74
     0
 78
     8
 79
     2
140
3.5
141
0.0
143
0.0393701
146
0.71
147
1.5
172
     1
176
   256
177
   256
178
     2
271
     2
272
     3
274
     4
283
     0
284
     8
340
11
371
    -1
372
    -1
  0
DIMSTYLE
105
AF9D
330
A
100
AcDbSymbolTableRecord
100
AcDbDimStyleTableRecord
  2
AM_ISO$7
 70
     0
  4
"
 41
2.5
 42
1.0
 43
10.0
 44
1.0
 47
0.1
 48
0.1
 73
     0
 74
     0
 77
     1
 78
     8
 79
     2
140
5.0
141
0.0
143
0.0393701
146
0.71
147
1.5
172
     1
176
   256
177
   256
178
     2
271
     2
272
     3
274
     4
283
     0
284
     8
340
11
371
    -1
372
    -1
  0
DIMSTYLE
105
AF9E
330
A
100
AcDbSymbolTableRecord
100
AcDbDimStyleTableRecord
  2
AM_ISO$SF
 70
     0
  4
"
 41
2.5
 42
1.0
 43
10.0
 44
1.0
 47
0.1
 48
0.1
 73
     0
 74
     0
 75
     1
 76
     1
 77
     1
 78
     8
 79
     2
140
3.5
141
0.0
143
0.0393701
146
0.71
147
1.5
172
     1
176
   256
177
   256
178
     2
271
     2
272
     3
274
     4
283
     0
284
     8
340
11
371
    -1
372
    -1
  0
DIMSTYLE
105
AF9F
330
A
100
AcDbSymbolTableRecord
100
AcDbDimStyleTableRecord
  2
AM_ISO$SH
 70
     0
  4
"
 41
2.5
 42
1.0
 43
10.0
 44
1.0
 47
0.1
 48
0.1
 73
     0
 74
     0
 75
     1
 76
     1
 77
     1
 78
     8
 79
     2
140
3.5
141
0.0
143
0.0393701
144
2.0
146
0.71
147
1.5
172
     1
173
     1
176
   256
177
   256
178
     2
271
     2
272
     3
274
     4
283
     0
284
     8
340
11
343
72
371
    -1
372
    -1
  0
DIMSTYLE
105
B658
330
A
100
AcDbSymbolTableRecord
100
AcDbDimStyleTableRecord
  2
AM_ANSI
 70
     0
  4
mm
 41
0.1
 42
0.05
 43
0.5
 44
0.1
 47
0.1
 48
0.1
 78
     7
 79
     2
140
0.12
141
0.0
146
0.71
147
0.06
176
   256
177
   256
178
     2
274
     4
284
     7
340
11
371
    -1
372
    -1
  0
DIMSTYLE
105
D107
330
A
100
AcDbSymbolTableRecord
100
AcDbDimStyleTableRecord
  2
AM_ANSI$3
 70
     0
  4
mm
 41
0.1
 42
0.05
 43
0.5
 44
0.1
 47
0.1
 48
0.1
 78
     7
140
0.12
141
0.0
146
0.71
147
0.06
176
   256
177
   256
178
     2
271
     2
272
     2
279
     2
284
     8
285
     8
286
     8
340
11
  0
DIMSTYLE
105
D108
330
A
100
AcDbSymbolTableRecord
100
AcDbDimStyleTableRecord
  2
AM_ANSI$4
 70
     0
  4
mm
 41
0.1
 42
0.05
 43
0.5
 44
0.1
 47
0.1
 48
0.1
 78
     7
140
0.12
141
0.0
146
0.71
147
0.06
176
   256
177
   256
178
     2
271
     2
272
     2
279
     2
284
     8
285
     8
286
     8
340
11
  0
DIMSTYLE
105
D109
330
A
100
AcDbSymbolTableRecord
100
AcDbDimStyleTableRecord
  2
AM_ANSI$7
 70
     0
  4
mm
 41
0.1
 42
0.05
 43
0.5
 44
0.1
 47
0.1
 48
0.1
 78
     7
140
0.24
141
0.0
146
0.71
147
0.06
176
   256
177
   256
178
     2
271
     2
272
     2
279
     2
284
     8
285
     8
286
     8
340
11
  0
DIMSTYLE
105
D10A
330
A
100
AcDbSymbolTableRecord
100
AcDbDimStyleTableRecord
  2
AM_ANSI$SF
 70
     0
  4
mm
 41
0.1
 42
0.05
 43
0.5
 44
0.1
 47
0.1
 48
0.1
 75
     1
 76
     1
 78
     7
140
0.12
141
0.0
146
0.71
147
0.06
176
   256
177
   256
178
     2
271
     2
272
     2
279
     2
284
     8
285
     8
286
     8
340
11
  0
DIMSTYLE
105
D10B
330
A
100
AcDbSymbolTableRecord
100
AcDbDimStyleTableRecord
  2
AM_ANSI$SH
 70
     0
  4
mm
 41
0.1
 42
0.05
 43
0.5
 44
0.1
 47
0.1
 48
0.1
 75
     1
 76
     1
 78
     7
140
0.12
141
0.0
146
0.71
147
0.06
173
     1
176
   256
177
   256
178
     2
271
     2
272
     2
279
     2
284
     8
285
     8
286
     8
340
11
  0
DIMSTYLE
105
D10C
102
{ACAD_REACTORS
330
24824
330
24825
330
24826
330
24827
330
24828
330
24829
330
2482A
330
24872
330
24873
330
24874
330
24879
330
2487F
330
24B54
330
24B55
330
24B56
102
}
330
A
100
AcDbSymbolTableRecord
100
AcDbDimStyleTableRecord
  2
DIMSTYLE
 70
     0
 41
1.0
 42
2.54
 44
2.54
 73
     0
 74
     0
140
3.2
147
1.6
173
     1
279
     2
340
11
  0
DIMSTYLE
105
12EF1
330
A
100
AcDbSymbolTableRecord
100
AcDbDimStyleTableRecord
  2
AM_ISO$0
 70
     0
  4
"
 41
0.8
 42
1.0
 43
10.0
 44
1.0
 47
0.1
 48
0.1
 73
     0
 74
     0
 77
     1
 78
     8
 79
     2
140
3.2
141
0.0
143
0.0393701
146
0.71
147
0.9999999999999996
172
     1
176
   256
177
   256
178
     2
271
     2
272
     2
283
     0
284
     8
340
11
341
6C4
342
6C4
371
    -1
372
    -1
1001
ACAD_DSTYLE_DIMJOGGED_JOGANGLE_SYMBOL
1070
   384
1040
0.7853981633974483
1001
ACAD_DSTYLE_DIMARC_LENGTH_SYMBOL
1070
   379
1070
     1
  0
DIMSTYLE
105
12EF2
330
A
100
AcDbSymbolTableRecord
100
AcDbDimStyleTableRecord
  2
AM_ISO$2
 70
     0
  4
"
 41
0.8
 42
1.0
 43
10.0
 44
1.0
 47
0.1
 48
0.1
 73
     0
 74
     0
 77
     3
 78
     8
 79
     2
140
3.200000000000001
141
0.0
143
0.0393701
146
0.71
147
0.9999999999999996
172
     1
176
   256
177
   256
178
     2
271
     2
272
     2
283
     0
284
     8
340
11
342
6C4
371
    -1
372
    -1
1001
ACAD_DSTYLE_DIMJOGGED_JOGANGLE_SYMBOL
1070
   384
1040
0.7853981633974483
1001
ACAD_DSTYLE_DIMARC_LENGTH_SYMBOL
1070
   379
1070
     1
  0
ENDTAB
  0
TABLE
  2
BLOCK_RECORD
  5
1
330
0
100
AcDbSymbolTable
 70
   178
  0
BLOCK_RECORD
  5
1F
102
{ACAD_XDICTIONARY
360
8A
102
}
330
1
100
AcDbSymbolTableRecord
100
AcDbBlockTableRecord
  2
*Model_Space
340
22
  0
BLOCK_RECORD
  5
1B
330
1
100
AcDbSymbolTableRecord
100
AcDbBlockTableRecord
  2
*Paper_Space
340
1E
  0
BLOCK_RECORD
  5
23
330
1
100
AcDbSymbolTableRecord
100
AcDbBlockTableRecord
  2
*Paper_Space0
340
26
  0
BLOCK_RECORD
  5
72
330
1
100
AcDbSymbolTableRecord
100
AcDbBlockTableRecord
  2
GENAXEH
340
0
  0
BLOCK_RECORD
  5
6C4
330
1
100
AcDbSymbolTableRecord
100
AcDbBlockTableRecord
  2
_Dot
340
0
102
{BLKREFS
331
2086D
331
2086E
331
20876
331
20877
331
2087E
331
2087F
331
20887
331
20888
331
20890
331
20891
331
20899
331
2089A
331
208A2
331
208A3
331
208AB
331
208AC
331
208B4
331
208B5
331
208BF
331
208C0
331
208C8
331
208C9
331
208CF
331
208D0
331
208D8
331
208D9
331
208E1
331
208E2
331
208EA
331
208EB
331
208F3
331
208F4
331
208FC
331
208FD
331
20905
331
20906
331
2090E
331
2090F
331
20919
331
2091A
331
20922
331
20923
331
2092D
331
2092E
331
20934
331
20935
331
20946
331
20947
331
20D24
331
20D25
331
20D2D
331
20D2E
331
20D37
331
20D38
331
20D41
331
20D42
331
238A2
331
238A3
331
238B8
331
238B9
331
2396F
331
23970
331
23D12
331
23D13
331
23D1B
331
23D1C
331
23D50
331
23D51
331
23D59
331
23D5A
331
23D6B
331
23D6C
331
23D74
331
23D75
331
23D7F
331
23D80
331
23D88
331
23D89
331
23DAA
331
23DAB
331
23DB3
331
23DB4
331
23DBC
331
23DBD
331
23DC5
331
23DC6
331
23DD9
331
23DDA
331
23DE4
331
23DE5
331
23DF4
331
23DF5
331
23E06
331
23E07
331
23E10
331
23E11
331
23E1A
331
23E1B
331
23ED8
331
23ED9
331
23EE1
331
23EE2
331
23EE9
331
23EEA
331
23EF2
331
23EF3
331
23EFB
331
23EFC
331
23F04
331
23F05
331
23F0D
331
23F0E
331
23F16
331
23F17
331
23F21
331
23F22
331
23F2A
331
23F2B
331
23F33
331
23F34
331
23F3C
331
23F3D
331
23F5A
331
23F5B
331
2425C
331
2425D
331
24265
331
24266
331
2426D
331
2426E
331
24276
331
24277
331
2427F
331
24280
331
24288
331
24289
331
24291
331
24292
331
2429A
331
2429B
331
242A3
331
242A4
331
242AE
331
242AF
331
242B7
331
242B8
331
242BE
331
242BF
331
242C7
331
242C8
331
242D0
331
242D1
331
242D9
331
242DA
331
242E2
331
242E3
331
242EB
331
242EC
331
242F4
331
242F5
331
242FF
331
24300
331
24308
331
24309
331
24313
331
24314
331
2431A
331
2431B
331
24323
331
24324
331
2432C
331
2432D
331
24335
331
24336
331
2433F
331
24340
331
24349
331
2434A
331
24352
331
24353
331
2435B
331
2435C
331
24364
331
24365
331
245CD
331
245CE
331
245D6
331
245D7
331
24614
331
24615
331
2463A
331
2463B
331
24643
331
24644
331
2464A
331
2464B
331
24653
331
24654
331
2465C
331
2465D
331
24665
331
24666
331
2466E
331
2466F
331
24677
331
24678
331
24680
331
24681
331
2468B
331
2468C
331
24694
331
24695
331
2469F
331
246A0
331
246CB
331
246CC
331
246D5
331
246D6
331
246E0
331
246E1
331
246E9
331
246EA
331
246F1
331
246F2
331
246FA
331
246FB
331
24703
331
24704
331
2470C
331
2470D
331
24715
331
24716
331
2471E
331
2471F
331
24727
331
24728
331
24730
331
24731
331
24739
331
2473A
331
24742
331
24743
331
2474B
331
2474C
331
24773
331
24774
331
249F9
331
249FA
331
24A64
331
24A65
331
24A6D
331
24A6E
331
24A76
331
24A77
331
24AA5
331
24AA6
331
24B01
331
24B02
331
24BE9
331
24BEA
331
24C42
331
24C43
331
24D83
331
24D84
331
24FB1
331
24FB2
331
251B4
331
251B5
331
251BD
331
251BE
331
251C5
331
251C6
331
251CE
331
251CF
331
251D7
331
251D8
331
251E0
331
251E1
331
251E9
331
251EA
331
251F2
331
251F3
331
251FB
331
251FC
331
25204
331
25205
331
2520D
331
2520E
331
25216
331
25217
331
2521F
331
25220
331
25228
331
25229
331
25231
331
25232
331
2523B
331
2523C
331
25245
331
25246
331
2524E
331
2524F
331
25257
331
25258
331
25260
331
25261
331
25269
331
2526A
331
25274
331
25275
331
252DE
331
252DF
331
252E7
331
252E8
331
252FB
331
252FC
331
25302
331
25303
331
2530D
331
2530E
331
25314
331
25315
331
2531D
331
2531E
331
25326
331
25327
331
2533E
331
2533F
331
25356
331
25357
102
}
  0
BLOCK_RECORD
  5
A66
330
1
100
AcDbSymbolTableRecord
100
AcDbBlockTableRecord
  2
_OPEN30
340
0
  0
BLOCK_RECORD
  5
CAAC
330
1
100
AcDbSymbolTableRecord
100
AcDbBlockTableRecord
  2
*U6
340
0
102
{BLKREFS
331
247AF
102
}
  0
BLOCK_RECORD
  5
CAB0
330
1
100
AcDbSymbolTableRecord
100
AcDbBlockTableRecord
  2
*U7
340
0
102
{BLKREFS
331
247B0
102
}
  0
BLOCK_RECORD
  5
CAC4
330
1
100
AcDbSymbolTableRecord
100
AcDbBlockTableRecord
  2
*U8
340
0
102
{BLKREFS
331
247B1
102
}
  0
BLOCK_RECORD
  5
CAC8
330
1
100
AcDbSymbolTableRecord
100
AcDbBlockTableRecord
  2
*U9
340
0
102
{BLKREFS
331
247B2
102
}
  0
BLOCK_RECORD
  5
CAD4
330
1
100
AcDbSymbolTableRecord
100
AcDbBlockTableRecord
  2
*U10
340
0
102
{BLKREFS
331
247B4
102
}
  0
BLOCK_RECORD
  5
2345B
330
1
100
AcDbSymbolTableRecord
100
AcDbBlockTableRecord
  2
*S39
340
0
102
{BLKREFS
331
2482C
102
}
  0
BLOCK_RECORD
  5
24897
330
1
100
AcDbSymbolTableRecord
100
AcDbBlockTableRecord
  2
*D136
340
0
  0
BLOCK_RECORD
  5
248A3
330
1
100
AcDbSymbolTableRecord
100
AcDbBlockTableRecord
  2
*D137
340
0
  0
BLOCK_RECORD
  5
248AF
330
1
100
AcDbSymbolTableRecord
100
AcDbBlockTableRecord
  2
*D138
340
0
  0
BLOCK_RECORD
  5
248BA
330
1
100
AcDbSymbolTableRecord
100
AcDbBlockTableRecord
  2
*D139
340
0
  0
BLOCK_RECORD
  5
248C6
330
1
100
AcDbSymbolTableRecord
100
AcDbBlockTableRecord
  2
*D140
340
0
  0
BLOCK_RECORD
  5
248D2
330
1
100
AcDbSymbolTableRecord
100
AcDbBlockTableRecord
  2
*D141
340
0
  0
BLOCK_RECORD
  5
248DE
330
1
100
AcDbSymbolTableRecord
100
AcDbBlockTableRecord
  2
*D142
340
0
  0
BLOCK_RECORD
  5
248EA
330
1
100
AcDbSymbolTableRecord
100
AcDbBlockTableRecord
  2
*D143
340
0
  0
BLOCK_RECORD
  5
248F6
330
1
100
AcDbSymbolTableRecord
100
AcDbBlockTableRecord
  2
*D144
340
0
  0
BLOCK_RECORD
  5
24902
330
1
100
AcDbSymbolTableRecord
100
AcDbBlockTableRecord
  2
*D145
340
0
  0
BLOCK_RECORD
  5
2490E
330
1
100
AcDbSymbolTableRecord
100
AcDbBlockTableRecord
  2
*D146
340
0
  0
BLOCK_RECORD
  5
2493E
330
1
100
AcDbSymbolTableRecord
100
AcDbBlockTableRecord
  2
*D150
340
0
  0
BLOCK_RECORD
  5
2494A
330
1
100
AcDbSymbolTableRecord
100
AcDbBlockTableRecord
  2
*D151
340
0
  0
BLOCK_RECORD
  5
24956
330
1
100
AcDbSymbolTableRecord
100
AcDbBlockTableRecord
  2
*D152
340
0
  0
BLOCK_RECORD
  5
2497C
330
1
100
AcDbSymbolTableRecord
100
AcDbBlockTableRecord
  2
*D155
340
0
  0
BLOCK_RECORD
  5
24994
330
1
100
AcDbSymbolTableRecord
100
AcDbBlockTableRecord
  2
*D157
340
0
  0
BLOCK_RECORD
  5
249A0
330
1
100
AcDbSymbolTableRecord
100
AcDbBlockTableRecord
  2
*D158
340
0
  0
BLOCK_RECORD
  5
249AC
330
1
100
AcDbSymbolTableRecord
100
AcDbBlockTableRecord
  2
*D159
340
0
  0
BLOCK_RECORD
  5
249B8
330
1
100
AcDbSymbolTableRecord
100
AcDbBlockTableRecord
  2
*D160
340
0
  0
BLOCK_RECORD
  5
249C4
330
1
100
AcDbSymbolTableRecord
100
AcDbBlockTableRecord
  2
*D161
340
0
  0
BLOCK_RECORD
  5
249D1
330
1
100
AcDbSymbolTableRecord
100
AcDbBlockTableRecord
  2
*D162
340
0
  0
BLOCK_RECORD
  5
249DE
330
1
100
AcDbSymbolTableRecord
100
AcDbBlockTableRecord
  2
*D163
340
0
  0
BLOCK_RECORD
  5
24B58
330
1
100
AcDbSymbolTableRecord
100
AcDbBlockTableRecord
  2
*D165
340
0
  0
BLOCK_RECORD
  5
24B66
330
1
100
AcDbSymbolTableRecord
100
AcDbBlockTableRecord
  2
*D166
340
0
  0
BLOCK_RECORD
  5
24B72
330
1
100
AcDbSymbolTableRecord
100
AcDbBlockTableRecord
  2
*D167
340
0
  0
BLOCK_RECORD
  5
24B7E
330
1
100
AcDbSymbolTableRecord
100
AcDbBlockTableRecord
  2
*D168
340
0
  0
BLOCK_RECORD
  5
24C0D
330
1
100
AcDbSymbolTableRecord
100
AcDbBlockTableRecord
  2
*D171
340
0
  0
BLOCK_RECORD
  5
24C48
330
1
100
AcDbSymbolTableRecord
100
AcDbBlockTableRecord
  2
*D172
340
0
  0
BLOCK_RECORD
  5
24C77
330
1
100
AcDbSymbolTableRecord
100
AcDbBlockTableRecord
  2
*D173
340
0
  0
BLOCK_RECORD
  5
24CA7
330
1
100
AcDbSymbolTableRecord
100
AcDbBlockTableRecord
  2
*D174
340
0
  0
BLOCK_RECORD
  5
25345
330
1
100
AcDbSymbolTableRecord
100
AcDbBlockTableRecord
  2
*D177
340
0
  0
ENDTAB
  0
ENDSEC
  0
SECTION
  2
BLOCKS
  0
BLOCK
  5
20
330
1F
100
AcDbEntity
  8
0
100
AcDbBlockBegin
  2
*Model_Space
 70
     0
 10
0.0
 20
0.0
 30
0.0
  3
*Model_Space
  1

  0
ENDBLK
  5
21
330
1F
100
AcDbEntity
  8
0
100
AcDbBlockEnd
  0
BLOCK
  5
1C
330
1B
100
AcDbEntity
 67
     1
  8
0
100
AcDbBlockBegin
  2
*Paper_Space
 70
     0
 10
0.0
 20
0.0
 30
0.0
  3
*Paper_Space
  1

  0
ENDBLK
  5
1D
330
1B
100
AcDbEntity
 67
     1
  8
0
100
AcDbBlockEnd
  0
BLOCK
  5
24
330
23
100
AcDbEntity
 67
     1
  8
0
100
AcDbBlockBegin
  2
*Paper_Space0
 70
     0
 10
0.0
 20
0.0
 30
0.0
  3
*Paper_Space0
  1

  0
ENDBLK
  5
25
330
23
100
AcDbEntity
 67
     1
  8
0
100
AcDbBlockEnd
  0
BLOCK
  5
74
330
72
100
AcDbEntity
  8
0
100
AcDbBlockBegin
  2
GENAXEH
 70
     0
 10
0.0
 20
0.0
 30
0.0
  3
GENAXEH
  1

  0
LINE
  5
73
330
72
100
AcDbEntity
  8
0
100
AcDbLine
 10
-1.0
 20
0.0
 30
0.0
 11
1.0
 21
0.0
 31
0.0
  0
ENDBLK
  5
75
330
72
100
AcDbEntity
  8
0
100
AcDbBlockEnd
  0
BLOCK
  5
6C7
330
6C4
100
AcDbEntity
  8
0
100
AcDbBlockBegin
  2
_Dot
 70
     0
 10
0.0
 20
0.0
 30
0.0
  3
_Dot
  1

  0
LWPOLYLINE
  5
6C5
330
6C4
100
AcDbEntity
  8
0
  6
ByBlock
 62
     0
100
AcDbPolyline
 90
        2
 70
     1
 43
0.5
 10
-0.25
 20
0.0
 42
1.0
 10
0.25
 20
0.0
 42
1.0
  0
LINE
  5
6C6
330
6C4
100
AcDbEntity
  8
0
  6
ByBlock
 62
     0
370
    -2
100
AcDbLine
 10
-0.5
 20
0.0
 30
0.0
 11
-1.0
 21
0.0
 31
0.0
  0
ENDBLK
  5
6C8
330
6C4
100
AcDbEntity
  8
0
100
AcDbBlockEnd
  0
BLOCK
  5
A6A
330
A66
100
AcDbEntity
  8
0
100
AcDbBlockBegin
  2
_OPEN30
 70
     0
 10
0.0
 20
0.0
 30
0.0
  3
_OPEN30
  1

  0
LINE
  5
A67
330
A66
100
AcDbEntity
  8
0
  6
ByBlock
 62
     0
100
AcDbLine
 10
-1.0
 20
0.26794919
 30
0.0
 11
0.0
 21
0.0
 31
0.0
  0
LINE
  5
A68
330
A66
100
AcDbEntity
  8
0
  6
ByBlock
 62
     0
100
AcDbLine
 10
0.0
 20
0.0
 30
0.0
 11
-1.0
 21
-0.26794919
 31
0.0
  0
LINE
  5
A69
330
A66
100
AcDbEntity
  8
0
  6
ByBlock
 62
     0
100
AcDbLine
 10
0.0
 20
0.0
 30
0.0
 11
-1.0
 21
0.0
 31
0.0
  0
ENDBLK
  5
A6B
330
A66
100
AcDbEntity
  8
0
100
AcDbBlockEnd
  0
BLOCK
  5
CAAD
330
CAAC
100
AcDbEntity
  8
0
100
AcDbBlockBegin
  2
*U6
 70
     1
 10
0.0
 20
0.0
 30
0.0
  3
*U6
  1

  0
TEXT
  5
CAAE
330
CAAC
100
AcDbEntity
  8
AM_6
100
AcDbText
 10
-378.7715000510215
 20
288.9
 30
0.0
 40
3.2
  1
品　名
 41
0.7
100
AcDbText
  0
ENDBLK
  5
CAAF
330
CAAC
100
AcDbEntity
  8
0
100
AcDbBlockEnd
  0
BLOCK
  5
CAB1
330
CAB0
100
AcDbEntity
  8
0
100
AcDbBlockBegin
  2
*U7
 70
     1
 10
0.0
 20
0.0
 30
0.0
  3
*U7
  1

  0
TEXT
  5
CAB2
330
CAB0
100
AcDbEntity
  8
AM_6
100
AcDbText
 10
-378.7715000510215
 20
280.9
 30
0.0
 40
3.2
  1
品　番
 41
0.7
100
AcDbText
  0
ENDBLK
  5
CAB3
330
CAB0
100
AcDbEntity
  8
0
100
AcDbBlockEnd
  0
BLOCK
  5
CAC5
330
CAC4
100
AcDbEntity
  8
0
100
AcDbBlockBegin
  2
*U8
 70
     1
 10
0.0
 20
0.0
 30
0.0
  3
*U8
  1

  0
TEXT
  5
CAC6
330
CAC4
100
AcDbEntity
  8
AM_6
100
AcDbText
 10
-378.7715000510215
 20
272.9
 30
0.0
 40
3.2
  1
材　質
 41
0.7
100
AcDbText
  0
ENDBLK
  5
CAC7
330
CAC4
100
AcDbEntity
  8
0
100
AcDbBlockEnd
  0
BLOCK
  5
CAC9
330
CAC8
100
AcDbEntity
  8
0
100
AcDbBlockBegin
  2
*U9
 70
     1
 10
0.0
 20
0.0
 30
0.0
  3
*U9
  1

  0
TEXT
  5
CACA
330
CAC8
100
AcDbEntity
  8
AM_6
100
AcDbText
 10
-378.7715000510215
 20
264.9
 30
0.0
 40
3.2
  1
仕上げ
 41
0.7
100
AcDbText
  0
ENDBLK
  5
CACB
330
CAC8
100
AcDbEntity
  8
0
100
AcDbBlockEnd
  0
BLOCK
  5
CAD5
330
CAD4
100
AcDbEntity
  8
0
100
AcDbBlockBegin
  2
*U10
 70
     1
 10
0.0
 20
0.0
 30
0.0
  3
*U10
  1

  0
TEXT
  5
CAD6
330
CAD4
100
AcDbEntity
  8
AM_6
100
AcDbText
 10
-377.1715000271797
 20
224.9
 30
0.0
 40
3.2
  1
備考
 41
0.7
100
AcDbText
  0
ENDBLK
  5
CAD7
330
CAD4
100
AcDbEntity
  8
0
100
AcDbBlockEnd
  0
BLOCK
  5
23462
330
2345B
100
AcDbEntity
  8
0
 48
0.5
100
AcDbBlockBegin
  2
*S39
 70
     1
 10
0.0
 20
0.0
 30
0.0
  3
*S39
  1

  0
LINE
  5
2345C
330
2345B
100
AcDbEntity
  8
AM_5
 62
     3
100
AcDbLine
 10
3967.942899518778
 20
-473.953785783814
 30
0.0
 11
3949.212232852113
 21
-473.953785783814
 31
0.0
  0
LINE
  5
2345D
330
2345B
100
AcDbEntity
  8
AM_5
 62
     3
100
AcDbLine
 10
3949.212232852113
 20
-473.953785783814
 30
0.0
 11
3940.511840876272
 21
-485.6950359700905
 31
0.0
  0
LINE
  5
2345E
330
2345B
100
AcDbEntity
  8
AM_5
  6
Continuous
 62
     3
100
AcDbLine
 10
3940.511840876272
 20
-485.6950359700905
 30
0.0
 11
3939.321105690879
 21
-487.301942849243
 31
0.0
  0
LINE
  5
2345F
330
2345B
100
AcDbEntity
  8
AM_5
  6
Continuous
 62
     3
100
AcDbLine
 10
3940.081271479598
 20
-485.3759794416601
 30
0.0
 11
3939.321105690879
 21
-487.301942849243
 31
0.0
  0
LINE
  5
23460
330
2345B
100
AcDbEntity
  8
AM_5
  6
Continuous
 62
     3
100
AcDbLine
 10
3939.321105690879
 20
-487.301942849243
 30
0.0
 11
3940.942410272947
 21
-486.0140924985211
 31
0.0
  0
MTEXT
  5
23461
330
2345B
100
AcDbEntity
  8
AM_5
 62
     2
100
AcDbMText
 10
3952.412232852113
 20
-472.3537857838141
 30
0.0
 40
3.2
 41
0.0
 71
     7
 72
     5
  1
開錠時：青色\P施錠時：赤色
 73
     1
 44
1.0
1001
ACAD
1000
MTEXTBEGIN
1070
    73
1070
     1
1070
    44
1040
1.0
1070
    74
1070
     0
1000
MTEXTEND
  0
ENDBLK
  5
23463
330
2345B
100
AcDbEntity
  8
0
 48
0.5
100
AcDbBlockEnd
  0
BLOCK
  5
248A1
330
24897
100
AcDbEntity
  8
0
 48
0.5
100
AcDbBlockBegin
  2
*D136
 70
     1
 10
0.0
 20
0.0
 30
0.0
  3
*D136
  1

  0
LINE
  5
251B1
330
24897
100
AcDbEntity
  8
AM_5
370
    -2
100
AcDbLine
 10
4390.941121546712
 20
-1378.035352316995
 30
0.0
 11
4390.941121546712
 21
-1352.035352316995
 31
0.0
  0
LINE
  5
251B2
330
24897
100
AcDbEntity
  8
AM_5
370
    -2
100
AcDbLine
 10
4420.941131546711
 20
-1378.035352316995
 30
0.0
 11
4420.941131546711
 21
-1352.035352316995
 31
0.0
  0
LINE
  5
251B3
330
24897
100
AcDbEntity
  8
AM_5
 62
     0
370
    -2
100
AcDbLine
 10
4391.941121546711
 20
-1353.035352316995
 30
0.0
 11
4419.941131546711
 21
-1353.035352316995
 31
0.0
  0
INSERT
  5
251B4
330
24897
100
AcDbEntity
  8
AM_5
 62
     0
370
    -2
100
AcDbBlockReference
  2
_Dot
 10
4390.941121546712
 20
-1353.035352316995
 30
0.0
 50
180.0
  0
INSERT
  5
251B5
330
24897
100
AcDbEntity
  8
AM_5
 62
     0
370
    -2
100
AcDbBlockReference
  2
_Dot
 10
4420.941131546711
 20
-1353.035352316995
 30
0.0
  0
MTEXT
  5
251B6
330
24897
100
AcDbEntity
  8
AM_5
 62
     2
100
AcDbMText
 10
4405.941126546712
 20
-1350.435352316995
 30
0.0
 40
3.2
 41
0.0
 71
     5
 72
     1
  1
\A1;30
 73
     1
 44
1.0
1001
ACAD
1000
MTEXTBEGIN
1070
    73
1070
     1
1070
    44
1040
1.0
1070
    74
1070
     0
1000
MTEXTEND
  0
POINT
  5
251B7
330
24897
100
AcDbEntity
  8
Defpoints
 62
     0
100
AcDbPoint
 10
4390.941121546712
 20
-1379.035352316995
 30
0.0
  0
POINT
  5
251B8
330
24897
100
AcDbEntity
  8
Defpoints
 62
     0
100
AcDbPoint
 10
4420.941131546711
 20
-1379.035352316995
 30
0.0
  0
POINT
  5
251B9
330
24897
100
AcDbEntity
  8
Defpoints
 62
     0
100
AcDbPoint
 10
4420.941131546711
 20
-1353.035352316995
 30
0.0
  0
ENDBLK
  5
248A2
330
24897
100
AcDbEntity
  8
0
 48
0.5
100
AcDbBlockEnd
  0
BLOCK
  5
248AD
330
248A3
100
AcDbEntity
  8
0
 48
0.5
100
AcDbBlockBegin
  2
*D137
 70
     1
 10
0.0
 20
0.0
 30
0.0
  3
*D137
  1

  0
LINE
  5
251BA
330
248A3
100
AcDbEntity
  8
AM_5
370
    -2
100
AcDbLine
 10
4354.941121546711
 20
-1443.535372316995
 30
0.0
 11
4344.941121546711
 21
-1443.535372316995
 31
0.0
  0
LINE
  5
251BB
330
248A3
100
AcDbEntity
  8
AM_5
370
    -2
100
AcDbLine
 10
4379.941121546711
 20
-1417.035372316995
 30
0.0
 11
4344.941121546711
 21
-1417.035372316995
 31
0.0
  0
LINE
  5
251BC
330
248A3
100
AcDbEntity
  8
AM_5
 62
     0
370
    -2
100
AcDbLine
 10
4345.941121546712
 20
-1442.535372316995
 30
0.0
 11
4345.941121546712
 21
-1418.035372316995
 31
0.0
  0
INSERT
  5
251BD
330
248A3
100
AcDbEntity
  8
AM_5
 62
     0
370
    -2
100
AcDbBlockReference
  2
_Dot
 10
4345.941121546712
 20
-1443.535372316995
 30
0.0
 50
270.0
  0
INSERT
  5
251BE
330
248A3
100
AcDbEntity
  8
AM_5
 62
     0
370
    -2
100
AcDbBlockReference
  2
_Dot
 10
4345.941121546712
 20
-1417.035372316995
 30
0.0
 50
90.0
  0
MTEXT
  5
251BF
330
248A3
100
AcDbEntity
  8
AM_5
 62
     2
100
AcDbMText
 10
4343.341121546711
 20
-1430.285372316994
 30
0.0
 40
3.2
 41
0.0
 71
     5
 72
     1
  1
\A1;26.5
 11
0.0000000000000001
 21
1.0
 31
0.0
 73
     1
 44
1.0
1001
ACAD
1000
MTEXTBEGIN
1070
    73
1070
     1
1070
    44
1040
1.0
1070
    74
1070
     0
1000
MTEXTEND
  0
POINT
  5
251C0
330
248A3
100
AcDbEntity
  8
Defpoints
 62
     0
100
AcDbPoint
 10
4355.941121546711
 20
-1443.535372316995
 30
0.0
  0
POINT
  5
251C1
330
248A3
100
AcDbEntity
  8
Defpoints
 62
     0
100
AcDbPoint
 10
4380.941121546711
 20
-1417.035372316995
 30
0.0
  0
POINT
  5
251C2
330
248A3
100
AcDbEntity
  8
Defpoints
 62
     0
100
AcDbPoint
 10
4345.941121546712
 20
-1417.035372316995
 30
0.0
  0
ENDBLK
  5
248AE
330
248A3
100
AcDbEntity
  8
0
 48
0.5
100
AcDbBlockEnd
  0
BLOCK
  5
248B8
330
248AF
100
AcDbEntity
  8
0
 48
0.5
100
AcDbBlockBegin
  2
*D138
 70
     1
 10
0.0
 20
0.0
 30
0.0
  3
*D138
  1

  0
LINE
  5
251C3
330
248AF
100
AcDbEntity
  8
AM_5
370
    -2
100
AcDbLine
 10
4386.941121546711
 20
-1382.035352316995
 30
0.0
 11
4344.941121546711
 21
-1382.035352316995
 31
0.0
  0
LINE
  5
251C4
330
248AF
100
AcDbEntity
  8
AM_5
 62
     0
370
    -2
100
AcDbLine
 10
4345.941121546712
 20
-1416.035372316995
 30
0.0
 11
4345.941121546712
 21
-1383.035352316995
 31
0.0
  0
INSERT
  5
251C5
330
248AF
100
AcDbEntity
  8
AM_5
 62
     0
370
    -2
100
AcDbBlockReference
  2
_Dot
 10
4345.941121546712
 20
-1417.035372316995
 30
0.0
 50
270.0
  0
INSERT
  5
251C6
330
248AF
100
AcDbEntity
  8
AM_5
 62
     0
370
    -2
100
AcDbBlockReference
  2
_Dot
 10
4345.941121546712
 20
-1382.035352316995
 30
0.0
 50
90.0
  0
MTEXT
  5
251C7
330
248AF
100
AcDbEntity
  8
AM_5
 62
     2
100
AcDbMText
 10
4343.341121546711
 20
-1399.535362316995
 30
0.0
 40
3.2
 41
0.0
 71
     5
 72
     1
  1
\A1;35
 11
0.0000000000000001
 21
1.0
 31
0.0
 73
     1
 44
1.0
1001
ACAD
1000
MTEXTBEGIN
1070
    73
1070
     1
1070
    44
1040
1.0
1070
    74
1070
     0
1000
MTEXTEND
  0
POINT
  5
251C8
330
248AF
100
AcDbEntity
  8
Defpoints
 62
     0
100
AcDbPoint
 10
4380.941121546711
 20
-1417.035372316995
 30
0.0
  0
POINT
  5
251C9
330
248AF
100
AcDbEntity
  8
Defpoints
 62
     0
100
AcDbPoint
 10
4387.941121546711
 20
-1382.035352316995
 30
0.0
  0
POINT
  5
251CA
330
248AF
100
AcDbEntity
  8
Defpoints
 62
     0
100
AcDbPoint
 10
4345.941121546712
 20
-1382.035352316995
 30
0.0
  0
ENDBLK
  5
248B9
330
248AF
100
AcDbEntity
  8
0
 48
0.5
100
AcDbBlockEnd
  0
BLOCK
  5
248C4
330
248BA
100
AcDbEntity
  8
0
 48
0.5
100
AcDbBlockBegin
  2
*D139
 70
     1
 10
0.0
 20
0.0
 30
0.0
  3
*D139
  1

  0
LINE
  5
251CB
330
248BA
100
AcDbEntity
  8
AM_5
370
    -2
100
AcDbLine
 10
4373.941121546711
 20
-1363.035352316995
 30
0.0
 11
4344.941121546711
 21
-1363.035352316995
 31
0.0
  0
LINE
  5
251CC
330
248BA
100
AcDbEntity
  8
AM_5
370
    -2
100
AcDbLine
 10
4373.941121546711
 20
-1377.035352316995
 30
0.0
 11
4344.941121546711
 21
-1377.035352316995
 31
0.0
  0
LINE
  5
251CD
330
248BA
100
AcDbEntity
  8
AM_5
 62
     0
370
    -2
100
AcDbLine
 10
4345.941121546712
 20
-1364.035352316995
 30
0.0
 11
4345.941121546712
 21
-1376.035352316995
 31
0.0
  0
INSERT
  5
251CE
330
248BA
100
AcDbEntity
  8
AM_5
 62
     0
370
    -2
100
AcDbBlockReference
  2
_Dot
 10
4345.941121546712
 20
-1363.035352316995
 30
0.0
 50
90.0
  0
INSERT
  5
251CF
330
248BA
100
AcDbEntity
  8
AM_5
 62
     0
370
    -2
100
AcDbBlockReference
  2
_Dot
 10
4345.941121546712
 20
-1377.035352316995
 30
0.0
 50
270.0
  0
MTEXT
  5
251D0
330
248BA
100
AcDbEntity
  8
AM_5
 62
     2
100
AcDbMText
 10
4343.341121546711
 20
-1370.035352316995
 30
0.0
 40
3.2
 41
0.0
 71
     5
 72
     1
  1
\A1;14
 11
0.0000000000000001
 21
1.0
 31
0.0
 73
     1
 44
1.0
1001
ACAD
1000
MTEXTBEGIN
1070
    73
1070
     1
1070
    44
1040
1.0
1070
    74
1070
     0
1000
MTEXTEND
  0
POINT
  5
251D1
330
248BA
100
AcDbEntity
  8
Defpoints
 62
     0
100
AcDbPoint
 10
4374.941121546711
 20
-1363.035352316995
 30
0.0
  0
POINT
  5
251D2
330
248BA
100
AcDbEntity
  8
Defpoints
 62
     0
100
AcDbPoint
 10
4374.941121546711
 20
-1377.035352316995
 30
0.0
  0
POINT
  5
251D3
330
248BA
100
AcDbEntity
  8
Defpoints
 62
     0
100
AcDbPoint
 10
4345.941121546712
 20
-1377.035352316995
 30
0.0
  0
ENDBLK
  5
248C5
330
248BA
100
AcDbEntity
  8
0
 48
0.5
100
AcDbBlockEnd
  0
BLOCK
  5
248D0
330
248C6
100
AcDbEntity
  8
0
 48
0.5
100
AcDbBlockBegin
  2
*D140
 70
     1
 10
0.0
 20
0.0
 30
0.0
  3
*D140
  1

  0
LINE
  5
251D4
330
248C6
100
AcDbEntity
  8
AM_5
370
    -2
100
AcDbLine
 10
4474.941132546711
 20
-1505.920825452905
 30
0.0
 11
4486.941132546712
 21
-1505.920825452905
 31
0.0
  0
LINE
  5
251D5
330
248C6
100
AcDbEntity
  8
AM_5
370
    -2
100
AcDbLine
 10
4474.941132546711
 20
-1515.920825452905
 30
0.0
 11
4486.941132546712
 21
-1515.920825452905
 31
0.0
  0
LINE
  5
251D6
330
248C6
100
AcDbEntity
  8
AM_5
 62
     0
370
    -2
100
AcDbLine
 10
4485.941132546712
 20
-1506.920825452905
 30
0.0
 11
4485.941132546712
 21
-1514.920825452905
 31
0.0
  0
INSERT
  5
251D7
330
248C6
100
AcDbEntity
  8
AM_5
 62
     0
370
    -2
100
AcDbBlockReference
  2
_Dot
 10
4485.941132546712
 20
-1505.920825452905
 30
0.0
 50
90.0
  0
INSERT
  5
251D8
330
248C6
100
AcDbEntity
  8
AM_5
 62
     0
370
    -2
100
AcDbBlockReference
  2
_Dot
 10
4485.941132546712
 20
-1515.920825452905
 30
0.0
 50
270.0
  0
MTEXT
  5
251D9
330
248C6
100
AcDbEntity
  8
AM_5
 62
     2
100
AcDbMText
 10
4483.341132546711
 20
-1510.920825452905
 30
0.0
 40
3.2
 41
0.0
 71
     5
 72
     1
  1
\A1;10
 11
0.0000000000000001
 21
1.0
 31
0.0
 73
     1
 44
1.0
1001
ACAD
1000
MTEXTBEGIN
1070
    73
1070
     1
1070
    44
1040
1.0
1070
    74
1070
     0
1000
MTEXTEND
  0
POINT
  5
251DA
330
248C6
100
AcDbEntity
  8
Defpoints
 62
     0
100
AcDbPoint
 10
4473.941132546712
 20
-1505.920825452905
 30
0.0
  0
POINT
  5
251DB
330
248C6
100
AcDbEntity
  8
Defpoints
 62
     0
100
AcDbPoint
 10
4473.941132546712
 20
-1515.920825452905
 30
0.0
  0
POINT
  5
251DC
330
248C6
100
AcDbEntity
  8
Defpoints
 62
     0
100
AcDbPoint
 10
4485.941132546712
 20
-1515.920825452905
 30
0.0
  0
ENDBLK
  5
248D1
330
248C6
100
AcDbEntity
  8
0
 48
0.5
100
AcDbBlockEnd
  0
BLOCK
  5
248DC
330
248D2
100
AcDbEntity
  8
0
 48
0.5
100
AcDbBlockBegin
  2
*D141
 70
     1
 10
0.0
 20
0.0
 30
0.0
  3
*D141
  1

  0
LINE
  5
252FF
330
248D2
100
AcDbEntity
  8
AM_5
370
    -2
100
AcDbLine
 10
4664.10979618575
 20
-1307.501355528886
 30
0.0
 11
4664.10979618575
 21
-1321.001355528886
 31
0.0
  0
LINE
  5
25300
330
248D2
100
AcDbEntity
  8
AM_5
370
    -2
100
AcDbLine
 10
4694.109796185749
 20
-1307.501355528886
 30
0.0
 11
4694.109796185749
 21
-1321.001355528886
 31
0.0
  0
LINE
  5
25301
330
248D2
100
AcDbEntity
  8
AM_5
 62
     0
370
    -2
100
AcDbLine
 10
4665.109796185749
 20
-1320.001355528886
 30
0.0
 11
4693.109796185749
 21
-1320.001355528886
 31
0.0
  0
INSERT
  5
25302
330
248D2
100
AcDbEntity
  8
AM_5
 62
     0
370
    -2
100
AcDbBlockReference
  2
_Dot
 10
4664.10979618575
 20
-1320.001355528886
 30
0.0
 50
180.0
  0
INSERT
  5
25303
330
248D2
100
AcDbEntity
  8
AM_5
 62
     0
370
    -2
100
AcDbBlockReference
  2
_Dot
 10
4694.109796185749
 20
-1320.001355528886
 30
0.0
  0
MTEXT
  5
25304
330
248D2
100
AcDbEntity
  8
AM_5
 62
     2
100
AcDbMText
 10
4679.109796185749
 20
-1317.401355528886
 30
0.0
 40
3.2
 41
0.0
 71
     5
 72
     1
  1
\A1;30
 73
     1
 44
1.0
1001
ACAD
1000
MTEXTBEGIN
1070
    73
1070
     1
1070
    44
1040
1.0
1070
    74
1070
     0
1000
MTEXTEND
  0
POINT
  5
25305
330
248D2
100
AcDbEntity
  8
Defpoints
 62
     0
100
AcDbPoint
 10
4664.10979618575
 20
-1306.501355528886
 30
0.0
  0
POINT
  5
25306
330
248D2
100
AcDbEntity
  8
Defpoints
 62
     0
100
AcDbPoint
 10
4694.109796185749
 20
-1306.501355528886
 30
0.0
  0
POINT
  5
25307
330
248D2
100
AcDbEntity
  8
Defpoints
 62
     0
100
AcDbPoint
 10
4694.109796185749
 20
-1320.001355528886
 30
0.0
  0
ENDBLK
  5
248DD
330
248D2
100
AcDbEntity
  8
0
 48
0.5
100
AcDbBlockEnd
  0
BLOCK
  5
248E8
330
248DE
100
AcDbEntity
  8
0
 48
0.5
100
AcDbBlockBegin
  2
*D142
 70
     1
 10
0.0
 20
0.0
 30
0.0
  3
*D142
  1

  0
LINE
  5
251DD
330
248DE
100
AcDbEntity
  8
AM_5
370
    -2
100
AcDbLine
 10
4457.941132546712
 20
-1434.535372316995
 30
0.0
 11
4457.941132546712
 21
-1406.035372316995
 31
0.0
  0
LINE
  5
251DE
330
248DE
100
AcDbEntity
  8
AM_5
370
    -2
100
AcDbLine
 10
4467.941132546711
 20
-1428.535372316995
 30
0.0
 11
4467.941132546711
 21
-1406.035372316995
 31
0.0
  0
LINE
  5
251DF
330
248DE
100
AcDbEntity
  8
AM_5
 62
     0
370
    -2
100
AcDbLine
 10
4458.941132546711
 20
-1407.035372316995
 30
0.0
 11
4466.941132546711
 21
-1407.035372316995
 31
0.0
  0
INSERT
  5
251E0
330
248DE
100
AcDbEntity
  8
AM_5
 62
     0
370
    -2
100
AcDbBlockReference
  2
_Dot
 10
4457.941132546712
 20
-1407.035372316995
 30
0.0
 50
180.0
  0
INSERT
  5
251E1
330
248DE
100
AcDbEntity
  8
AM_5
 62
     0
370
    -2
100
AcDbBlockReference
  2
_Dot
 10
4467.941132546711
 20
-1407.035372316995
 30
0.0
  0
MTEXT
  5
251E2
330
248DE
100
AcDbEntity
  8
AM_5
 62
     2
100
AcDbMText
 10
4462.941132546712
 20
-1404.435372316995
 30
0.0
 40
3.2
 41
0.0
 71
     5
 72
     1
  1
\A1;10
 73
     1
 44
1.0
1001
ACAD
1000
MTEXTBEGIN
1070
    73
1070
     1
1070
    44
1040
1.0
1070
    74
1070
     0
1000
MTEXTEND
  0
POINT
  5
251E3
330
248DE
100
AcDbEntity
  8
Defpoints
 62
     0
100
AcDbPoint
 10
4457.941132546712
 20
-1435.535372316995
 30
0.0
  0
POINT
  5
251E4
330
248DE
100
AcDbEntity
  8
Defpoints
 62
     0
100
AcDbPoint
 10
4467.941132546711
 20
-1429.535372316995
 30
0.0
  0
POINT
  5
251E5
330
248DE
100
AcDbEntity
  8
Defpoints
 62
     0
100
AcDbPoint
 10
4467.941132546711
 20
-1407.035372316995
 30
0.0
  0
ENDBLK
  5
248E9
330
248DE
100
AcDbEntity
  8
0
 48
0.5
100
AcDbBlockEnd
  0
BLOCK
  5
248F4
330
248EA
100
AcDbEntity
  8
0
 48
0.5
100
AcDbBlockBegin
  2
*D143
 70
     1
 10
0.0
 20
0.0
 30
0.0
  3
*D143
  1

  0
LINE
  5
251E6
330
248EA
100
AcDbEntity
  8
AM_5
100
AcDbLine
 10
4399.941121546713
 20
-1485.920825452905
 30
0.0
 11
4344.941121546711
 21
-1485.920825452905
 31
0.0
  0
LINE
  5
251E7
330
248EA
100
AcDbEntity
  8
AM_5
100
AcDbLine
 10
4399.941121546713
 20
-1535.920825452905
 30
0.0
 11
4344.941121546711
 21
-1535.920825452905
 31
0.0
  0
LINE
  5
251E8
330
248EA
100
AcDbEntity
  8
AM_5
100
AcDbLine
 10
4345.941121546712
 20
-1486.920825452905
 30
0.0
 11
4345.941121546712
 21
-1534.920825452905
 31
0.0
  0
INSERT
  5
251E9
330
248EA
100
AcDbEntity
  8
AM_5
100
AcDbBlockReference
  2
_Dot
 10
4345.941121546712
 20
-1485.920825452905
 30
0.0
 50
90.0
  0
INSERT
  5
251EA
330
248EA
100
AcDbEntity
  8
AM_5
100
AcDbBlockReference
  2
_Dot
 10
4345.941121546712
 20
-1535.920825452905
 30
0.0
 50
270.0
  0
MTEXT
  5
251EB
330
248EA
100
AcDbEntity
  8
AM_5
 62
     2
100
AcDbMText
 10
4342.841121546711
 20
-1510.920825452905
 30
0.0
 40
3.200000000000001
 41
0.0
 71
     5
 72
     1
  1
%%c50
 11
0.0000000000000001
 21
1.0
 31
0.0
 73
     1
 44
1.0
1001
ACAD
1000
MTEXTBEGIN
1070
    73
1070
     1
1070
    44
1040
1.0
1070
    74
1070
     0
1000
MTEXTEND
  0
POINT
  5
251EC
330
248EA
100
AcDbEntity
  8
Defpoints
 62
     0
100
AcDbPoint
 10
4400.941121546713
 20
-1485.920825452905
 30
0.0
  0
POINT
  5
251ED
330
248EA
100
AcDbEntity
  8
Defpoints
 62
     0
100
AcDbPoint
 10
4400.941121546713
 20
-1535.920825452905
 30
0.0
  0
POINT
  5
251EE
330
248EA
100
AcDbEntity
  8
Defpoints
 62
     0
100
AcDbPoint
 10
4345.941121546712
 20
-1535.920825452905
 30
0.0
  0
ENDBLK
  5
248F5
330
248EA
100
AcDbEntity
  8
0
 48
0.5
100
AcDbBlockEnd
  0
BLOCK
  5
24900
330
248F6
100
AcDbEntity
  8
0
 48
0.5
100
AcDbBlockBegin
  2
*D144
 70
     1
 10
0.0
 20
0.0
 30
0.0
  3
*D144
  1

  0
LINE
  5
251EF
330
248F6
100
AcDbEntity
  8
AM_5
100
AcDbLine
 10
4557.396191700233
 20
-1479.920825452905
 30
0.0
 11
4526.396191700232
 21
-1479.920825452905
 31
0.0
  0
LINE
  5
251F0
330
248F6
100
AcDbEntity
  8
AM_5
100
AcDbLine
 10
4557.396191700233
 20
-1541.920825452905
 30
0.0
 11
4526.396191700232
 21
-1541.920825452905
 31
0.0
  0
LINE
  5
251F1
330
248F6
100
AcDbEntity
  8
AM_5
100
AcDbLine
 10
4527.396191700232
 20
-1480.920825452905
 30
0.0
 11
4527.396191700232
 21
-1540.920825452905
 31
0.0
  0
INSERT
  5
251F2
330
248F6
100
AcDbEntity
  8
AM_5
100
AcDbBlockReference
  2
_Dot
 10
4527.396191700232
 20
-1479.920825452905
 30
0.0
 50
90.0
  0
INSERT
  5
251F3
330
248F6
100
AcDbEntity
  8
AM_5
100
AcDbBlockReference
  2
_Dot
 10
4527.396191700232
 20
-1541.920825452905
 30
0.0
 50
270.0
  0
MTEXT
  5
251F4
330
248F6
100
AcDbEntity
  8
AM_5
 62
     2
100
AcDbMText
 10
4524.296191700233
 20
-1510.920825452905
 30
0.0
 40
3.200000000000001
 41
0.0
 71
     5
 72
     1
  1
%%c62
 11
0.0000000000000001
 21
1.0
 31
0.0
 73
     1
 44
1.0
1001
ACAD
1000
MTEXTBEGIN
1070
    73
1070
     1
1070
    44
1040
1.0
1070
    74
1070
     0
1000
MTEXTEND
  0
POINT
  5
251F5
330
248F6
100
AcDbEntity
  8
Defpoints
 62
     0
100
AcDbPoint
 10
4558.396191700232
 20
-1479.920825452905
 30
0.0
  0
POINT
  5
251F6
330
248F6
100
AcDbEntity
  8
Defpoints
 62
     0
100
AcDbPoint
 10
4558.396191700232
 20
-1541.920825452905
 30
0.0
  0
POINT
  5
251F7
330
248F6
100
AcDbEntity
  8
Defpoints
 62
     0
100
AcDbPoint
 10
4527.396191700232
 20
-1541.920825452905
 30
0.0
  0
ENDBLK
  5
24901
330
248F6
100
AcDbEntity
  8
0
 48
0.5
100
AcDbBlockEnd
  0
BLOCK
  5
2490C
330
24902
100
AcDbEntity
  8
0
 48
0.5
100
AcDbBlockBegin
  2
*D145
 70
     1
 10
0.0
 20
0.0
 30
0.0
  3
*D145
  1

  0
LINE
  5
252F6
330
24902
100
AcDbEntity
  8
AM_5
100
AcDbLine
 10
4649.130503876835
 20
-1290.843113549276
 30
0.0
 11
4658.450503876834
 21
-1290.843113549277
 31
0.0
  0
LINE
  5
252F7
330
24902
100
AcDbEntity
  8
AM_5
100
AcDbLine
 10
4658.450503876834
 20
-1290.843113549277
 30
0.0
 11
4660.974919275107
 21
-1294.48222433416
 31
0.0
  0
LINE
  5
252F8
330
24902
100
AcDbEntity
  8
AM_5
100
AcDbLine
 10
4667.244673096384
 20
-1303.520486723613
 30
0.0
 11
4667.8146507165
 21
-1304.342146940836
 31
0.0
  0
MTEXT
  5
252F9
330
24902
100
AcDbEntity
  8
AM_5
 62
     2
100
AcDbMText
 10
4653.290503876834
 20
-1288.243113549277
 30
0.0
 40
3.2
 41
0.0
 71
     5
 72
     1
  1
2-\U+22059
 73
     1
 44
1.0
1001
ACAD
1000
MTEXTBEGIN
1070
    73
1070
     1
1070
    44
1040
1.0
1070
    74
1070
     0
1000
MTEXTEND
  0
LINE
  5
252FA
330
24902
100
AcDbEntity
  8
AM_5
100
AcDbLine
 10
4666.674695476268
 20
-1302.69882650639
 30
0.0
 11
4661.544896895224
 21
-1295.303884551383
 31
0.0
  0
INSERT
  5
252FB
330
24902
100
AcDbEntity
  8
AM_5
100
AcDbBlockReference
  2
_Dot
 10
4666.674695476268
 20
-1302.69882650639
 30
0.0
 50
124.7486651511479
  0
INSERT
  5
252FC
330
24902
100
AcDbEntity
  8
AM_5
100
AcDbBlockReference
  2
_Dot
 10
4661.544896895224
 20
-1295.303884551383
 30
0.0
 50
304.7486651511479
  0
POINT
  5
252FD
330
24902
100
AcDbEntity
  8
Defpoints
 62
     0
100
AcDbPoint
 10
4661.544896895224
 20
-1295.303884551383
 30
0.0
  0
POINT
  5
252FE
330
24902
100
AcDbEntity
  8
Defpoints
 62
     0
100
AcDbPoint
 10
4666.674695476268
 20
-1302.69882650639
 30
0.0
  0
ENDBLK
  5
2490D
330
24902
100
AcDbEntity
  8
0
 48
0.5
100
AcDbBlockEnd
  0
BLOCK
  5
24918
330
2490E
100
AcDbEntity
  8
0
 48
0.5
100
AcDbBlockBegin
  2
*D146
 70
     1
 10
0.0
 20
0.0
 30
0.0
  3
*D146
  1

  0
LINE
  5
25308
330
2490E
100
AcDbEntity
  8
AM_5
100
AcDbLine
 10
4663.115561380815
 20
-1284.943264823968
 30
0.0
 11
4669.768894714152
 21
-1284.943264823968
 31
0.0
  0
LINE
  5
25309
330
2490E
100
AcDbEntity
  8
AM_5
100
AcDbLine
 10
4669.768894714152
 20
-1284.943264823968
 30
0.0
 11
4672.468738355123
 21
-1289.006539327962
 31
0.0
  0
LINE
  5
2530A
330
2490E
100
AcDbEntity
  8
AM_5
100
AcDbLine
 10
4685.750854016376
 20
-1308.996171729812
 30
0.0
 11
4686.304275502261
 21
-1309.829073079889
 31
0.0
  0
MTEXT
  5
2530B
330
2490E
100
AcDbEntity
  8
AM_5
 62
     2
100
AcDbMText
 10
4665.942228047483
 20
-1282.343264823968
 30
0.0
 40
3.2
 41
0.0
 71
     5
 72
     1
  1
\U+220522
 73
     1
 44
1.0
1001
ACAD
1000
MTEXTBEGIN
1070
    73
1070
     1
1070
    44
1040
1.0
1070
    74
1070
     0
1000
MTEXTEND
  0
LINE
  5
2530C
330
2490E
100
AcDbEntity
  8
AM_5
100
AcDbLine
 10
4685.197432530491
 20
-1308.163270379735
 30
0.0
 11
4673.022159841008
 21
-1289.83944067804
 31
0.0
  0
INSERT
  5
2530D
330
2490E
100
AcDbEntity
  8
AM_5
100
AcDbBlockReference
  2
_Dot
 10
4685.197432530491
 20
-1308.163270379735
 30
0.0
 50
123.6020593348449
  0
INSERT
  5
2530E
330
2490E
100
AcDbEntity
  8
AM_5
100
AcDbBlockReference
  2
_Dot
 10
4673.022159841008
 20
-1289.83944067804
 30
0.0
 50
303.6020593348449
  0
POINT
  5
2530F
330
2490E
100
AcDbEntity
  8
Defpoints
 62
     0
100
AcDbPoint
 10
4673.022159841008
 20
-1289.83944067804
 30
0.0
  0
POINT
  5
25310
330
2490E
100
AcDbEntity
  8
Defpoints
 62
     0
100
AcDbPoint
 10
4685.197432530491
 20
-1308.163270379735
 30
0.0
  0
ENDBLK
  5
24919
330
2490E
100
AcDbEntity
  8
0
 48
0.5
100
AcDbBlockEnd
  0
BLOCK
  5
24948
330
2493E
100
AcDbEntity
  8
0
 48
0.5
100
AcDbBlockBegin
  2
*D150
 70
     1
 10
0.0
 20
0.0
 30
0.0
  3
*D150
  1

  0
LINE
  5
251F8
330
2493E
100
AcDbEntity
  8
AM_5
370
    -2
100
AcDbLine
 10
4776.864786353885
 20
-1456.611924531486
 30
0.0
 11
4786.864786353885
 21
-1456.611924531486
 31
0.0
  0
LINE
  5
251F9
330
2493E
100
AcDbEntity
  8
AM_5
370
    -2
100
AcDbLine
 10
4776.864786353885
 20
-1526.611927531486
 30
0.0
 11
4786.864786353885
 21
-1526.611927531486
 31
0.0
  0
LINE
  5
251FA
330
2493E
100
AcDbEntity
  8
AM_5
 62
     0
370
    -2
100
AcDbLine
 10
4785.864786353886
 20
-1457.611924531486
 30
0.0
 11
4785.864786353886
 21
-1525.611927531486
 31
0.0
  0
INSERT
  5
251FB
330
2493E
100
AcDbEntity
  8
AM_5
 62
     0
370
    -2
100
AcDbBlockReference
  2
_Dot
 10
4785.864786353886
 20
-1456.611924531486
 30
0.0
 50
90.0
  0
INSERT
  5
251FC
330
2493E
100
AcDbEntity
  8
AM_5
 62
     0
370
    -2
100
AcDbBlockReference
  2
_Dot
 10
4785.864786353886
 20
-1526.611927531486
 30
0.0
 50
270.0
  0
MTEXT
  5
251FD
330
2493E
100
AcDbEntity
  8
AM_5
 62
     2
100
AcDbMText
 10
4783.264786353885
 20
-1491.611926031485
 30
0.0
 40
3.2
 41
0.0
 71
     5
 72
     1
  1
\A1;70
 11
0.0000000000000001
 21
1.0
 31
0.0
 73
     1
 44
1.0
1001
ACAD
1000
MTEXTBEGIN
1070
    73
1070
     1
1070
    44
1040
1.0
1070
    74
1070
     0
1000
MTEXTEND
  0
POINT
  5
251FE
330
2493E
100
AcDbEntity
  8
Defpoints
 62
     0
100
AcDbPoint
 10
4775.864786353885
 20
-1456.611924531486
 30
0.0
  0
POINT
  5
251FF
330
2493E
100
AcDbEntity
  8
Defpoints
 62
     0
100
AcDbPoint
 10
4775.864786353885
 20
-1526.611927531486
 30
0.0
  0
POINT
  5
25200
330
2493E
100
AcDbEntity
  8
Defpoints
 62
     0
100
AcDbPoint
 10
4785.864786353886
 20
-1526.611927531486
 30
0.0
  0
ENDBLK
  5
24949
330
2493E
100
AcDbEntity
  8
0
 48
0.5
100
AcDbBlockEnd
  0
BLOCK
  5
24954
330
2494A
100
AcDbEntity
  8
0
 48
0.5
100
AcDbBlockBegin
  2
*D151
 70
     1
 10
0.0
 20
0.0
 30
0.0
  3
*D151
  1

  0
LINE
  5
25201
330
2494A
100
AcDbEntity
  8
AM_5
370
    -2
100
AcDbLine
 10
4753.364786353885
 20
-1443.111926531487
 30
0.0
 11
4743.364786353885
 21
-1443.111926531487
 31
0.0
  0
LINE
  5
25202
330
2494A
100
AcDbEntity
  8
AM_5
370
    -2
100
AcDbLine
 10
4753.364786353885
 20
-1540.111927531486
 30
0.0
 11
4743.364786353885
 21
-1540.111927531486
 31
0.0
  0
LINE
  5
25203
330
2494A
100
AcDbEntity
  8
AM_5
 62
     0
370
    -2
100
AcDbLine
 10
4744.364786353886
 20
-1444.111926531487
 30
0.0
 11
4744.364786353886
 21
-1539.111927531486
 31
0.0
  0
INSERT
  5
25204
330
2494A
100
AcDbEntity
  8
AM_5
 62
     0
370
    -2
100
AcDbBlockReference
  2
_Dot
 10
4744.364786353886
 20
-1443.111926531487
 30
0.0
 50
90.0
  0
INSERT
  5
25205
330
2494A
100
AcDbEntity
  8
AM_5
 62
     0
370
    -2
100
AcDbBlockReference
  2
_Dot
 10
4744.364786353886
 20
-1540.111927531486
 30
0.0
 50
270.0
  0
MTEXT
  5
25206
330
2494A
100
AcDbEntity
  8
AM_5
 62
     2
100
AcDbMText
 10
4741.764786353885
 20
-1491.611927031486
 30
0.0
 40
3.2
 41
0.0
 71
     5
 72
     1
  1
\A1;97
 11
0.0000000000000001
 21
1.0
 31
0.0
 73
     1
 44
1.0
1001
ACAD
1000
MTEXTBEGIN
1070
    73
1070
     1
1070
    44
1040
1.0
1070
    74
1070
     0
1000
MTEXTEND
  0
POINT
  5
25207
330
2494A
100
AcDbEntity
  8
Defpoints
 62
     0
100
AcDbPoint
 10
4754.364786353885
 20
-1443.111926531487
 30
0.0
  0
POINT
  5
25208
330
2494A
100
AcDbEntity
  8
Defpoints
 62
     0
100
AcDbPoint
 10
4754.364786353885
 20
-1540.111927531486
 30
0.0
  0
POINT
  5
25209
330
2494A
100
AcDbEntity
  8
Defpoints
 62
     0
100
AcDbPoint
 10
4744.364786353886
 20
-1540.111927531486
 30
0.0
  0
ENDBLK
  5
24955
330
2494A
100
AcDbEntity
  8
0
 48
0.5
100
AcDbBlockEnd
  0
BLOCK
  5
24960
330
24956
100
AcDbEntity
  8
0
 48
0.5
100
AcDbBlockBegin
  2
*D152
 70
     1
 10
0.0
 20
0.0
 30
0.0
  3
*D152
  1

  0
LINE
  5
2531A
330
24956
100
AcDbEntity
  8
AM_5
370
    -2
100
AcDbLine
 10
4791.01070940081
 20
-1308.001355528886
 30
0.0
 11
4791.01070940081
 21
-1318.001353528886
 31
0.0
  0
LINE
  5
2531B
330
24956
100
AcDbEntity
  8
AM_5
370
    -2
100
AcDbLine
 10
4813.01070940081
 20
-1308.001355528886
 30
0.0
 11
4813.01070940081
 21
-1318.001353528886
 31
0.0
  0
LINE
  5
2531C
330
24956
100
AcDbEntity
  8
AM_5
 62
     0
370
    -2
100
AcDbLine
 10
4792.01070940081
 20
-1317.001353528886
 30
0.0
 11
4812.010709400809
 21
-1317.001353528886
 31
0.0
  0
INSERT
  5
2531D
330
24956
100
AcDbEntity
  8
AM_5
 62
     0
370
    -2
100
AcDbBlockReference
  2
_Dot
 10
4791.01070940081
 20
-1317.001353528886
 30
0.0
 50
180.0
  0
INSERT
  5
2531E
330
24956
100
AcDbEntity
  8
AM_5
 62
     0
370
    -2
100
AcDbBlockReference
  2
_Dot
 10
4813.01070940081
 20
-1317.001353528886
 30
0.0
  0
MTEXT
  5
2531F
330
24956
100
AcDbEntity
  8
AM_5
 62
     2
100
AcDbMText
 10
4802.01070940081
 20
-1314.401353528886
 30
0.0
 40
3.2
 41
0.0
 71
     5
 72
     1
  1
\A1;22
 73
     1
 44
1.0
1001
ACAD
1000
MTEXTBEGIN
1070
    73
1070
     1
1070
    44
1040
1.0
1070
    74
1070
     0
1000
MTEXTEND
  0
POINT
  5
25320
330
24956
100
AcDbEntity
  8
Defpoints
 62
     0
100
AcDbPoint
 10
4791.01070940081
 20
-1307.001355528886
 30
0.0
  0
POINT
  5
25321
330
24956
100
AcDbEntity
  8
Defpoints
 62
     0
100
AcDbPoint
 10
4813.01070940081
 20
-1307.001355528886
 30
0.0
  0
POINT
  5
25322
330
24956
100
AcDbEntity
  8
Defpoints
 62
     0
100
AcDbPoint
 10
4813.01070940081
 20
-1317.001353528886
 30
0.0
  0
ENDBLK
  5
24961
330
24956
100
AcDbEntity
  8
0
 48
0.5
100
AcDbBlockEnd
  0
BLOCK
  5
24986
330
2497C
100
AcDbEntity
  8
0
 48
0.5
100
AcDbBlockBegin
  2
*D155
 70
     1
 10
0.0
 20
0.0
 30
0.0
  3
*D155
  1

  0
LINE
  5
2520A
330
2497C
100
AcDbEntity
  8
AM_5
370
    -2
100
AcDbLine
 10
4675.47168435202
 20
-1531.611927031486
 30
0.0
 11
4660.50287435202
 21
-1531.611927031486
 31
0.0
  0
LINE
  5
2520B
330
2497C
100
AcDbEntity
  8
AM_5
370
    -2
100
AcDbLine
 10
4675.471684352019
 20
-1451.611926031487
 30
0.0
 11
4660.50287435202
 21
-1451.611926031487
 31
0.0
  0
LINE
  5
2520C
330
2497C
100
AcDbEntity
  8
AM_5
 62
     0
370
    -2
100
AcDbLine
 10
4661.502874352019
 20
-1530.611927031486
 30
0.0
 11
4661.502874352019
 21
-1452.611926031487
 31
0.0
  0
INSERT
  5
2520D
330
2497C
100
AcDbEntity
  8
AM_5
 62
     0
370
    -2
100
AcDbBlockReference
  2
_Dot
 10
4661.502874352019
 20
-1531.611927031486
 30
0.0
 50
270.0
  0
INSERT
  5
2520E
330
2497C
100
AcDbEntity
  8
AM_5
 62
     0
370
    -2
100
AcDbBlockReference
  2
_Dot
 10
4661.502874352019
 20
-1451.611926031487
 30
0.0
 50
90.0
  0
MTEXT
  5
2520F
330
2497C
100
AcDbEntity
  8
AM_5
 62
     2
100
AcDbMText
 10
4658.902874352019
 20
-1491.611926531486
 30
0.0
 40
3.2
 41
0.0
 71
     5
 72
     1
  1
\A1;80
 11
0.0000000000000001
 21
1.0
 31
0.0
 73
     1
 44
1.0
1001
ACAD
1000
MTEXTBEGIN
1070
    73
1070
     1
1070
    44
1040
1.0
1070
    74
1070
     0
1000
MTEXTEND
  0
POINT
  5
25210
330
2497C
100
AcDbEntity
  8
Defpoints
 62
     0
100
AcDbPoint
 10
4676.471684352019
 20
-1531.611927031486
 30
0.0
  0
POINT
  5
25211
330
2497C
100
AcDbEntity
  8
Defpoints
 62
     0
100
AcDbPoint
 10
4676.471684352018
 20
-1451.611926031487
 30
0.0
  0
POINT
  5
25212
330
2497C
100
AcDbEntity
  8
Defpoints
 62
     0
100
AcDbPoint
 10
4661.502874352019
 20
-1451.611926031487
 30
0.0
  0
ENDBLK
  5
24987
330
2497C
100
AcDbEntity
  8
0
 48
0.5
100
AcDbBlockEnd
  0
BLOCK
  5
2499E
330
24994
100
AcDbEntity
  8
0
 48
0.5
100
AcDbBlockBegin
  2
*D157
 70
     1
 10
0.0
 20
0.0
 30
0.0
  3
*D157
  1

  0
LINE
  5
25213
330
24994
100
AcDbEntity
  8
AM_5
100
AcDbLine
 10
4468.941132546712
 20
-1435.535372316995
 30
0.0
 11
4486.941133546712
 21
-1435.535372316995
 31
0.0
  0
LINE
  5
25214
330
24994
100
AcDbEntity
  8
AM_5
100
AcDbLine
 10
4431.941131546711
 20
-1417.035372316995
 30
0.0
 11
4486.941133546712
 21
-1417.035372316995
 31
0.0
  0
LINE
  5
25215
330
24994
100
AcDbEntity
  8
AM_5
100
AcDbLine
 10
4485.941133546712
 20
-1434.535372316995
 30
0.0
 11
4485.941133546712
 21
-1418.035372316995
 31
0.0
  0
INSERT
  5
25216
330
24994
100
AcDbEntity
  8
AM_5
100
AcDbBlockReference
  2
_Dot
 10
4485.941133546712
 20
-1435.535372316995
 30
0.0
 50
270.0
  0
INSERT
  5
25217
330
24994
100
AcDbEntity
  8
AM_5
100
AcDbBlockReference
  2
_Dot
 10
4485.941133546712
 20
-1417.035372316995
 30
0.0
 50
90.0
  0
MTEXT
  5
25218
330
24994
100
AcDbEntity
  8
AM_5
 62
     2
100
AcDbMText
 10
4482.841133546711
 20
-1426.285372316995
 30
0.0
 40
3.200000000000001
 41
0.0
 71
     5
 72
     1
  1
18.5
 11
0.0000000000000001
 21
1.0
 31
0.0
 73
     1
 44
1.0
1001
ACAD
1000
MTEXTBEGIN
1070
    73
1070
     1
1070
    44
1040
1.0
1070
    74
1070
     0
1000
MTEXTEND
  0
POINT
  5
25219
330
24994
100
AcDbEntity
  8
Defpoints
 62
     0
100
AcDbPoint
 10
4467.941132546711
 20
-1435.535372316995
 30
0.0
  0
POINT
  5
2521A
330
24994
100
AcDbEntity
  8
Defpoints
 62
     0
100
AcDbPoint
 10
4430.941131546711
 20
-1417.035372316995
 30
0.0
  0
POINT
  5
2521B
330
24994
100
AcDbEntity
  8
Defpoints
 62
     0
100
AcDbPoint
 10
4485.941133546712
 20
-1417.035372316995
 30
0.0
  0
ENDBLK
  5
2499F
330
24994
100
AcDbEntity
  8
0
 48
0.5
100
AcDbBlockEnd
  0
BLOCK
  5
249AA
330
249A0
100
AcDbEntity
  8
0
 48
0.5
100
AcDbBlockBegin
  2
*D158
 70
     1
 10
0.0
 20
0.0
 30
0.0
  3
*D158
  1

  0
LINE
  5
2521C
330
249A0
100
AcDbEntity
  8
AM_5
100
AcDbLine
 10
4405.941121546711
 20
-1481.920825452905
 30
0.0
 11
4405.941121546711
 21
-1474.920824442906
 31
0.0
  0
LINE
  5
2521D
330
249A0
100
AcDbEntity
  8
AM_5
100
AcDbLine
 10
4475.941132546711
 20
-1506.920825452905
 30
0.0
 11
4475.941132546711
 21
-1474.920824442906
 31
0.0
  0
LINE
  5
2521E
330
249A0
100
AcDbEntity
  8
AM_5
100
AcDbLine
 10
4406.941121546712
 20
-1475.920824442906
 30
0.0
 11
4474.941132546711
 21
-1475.920824442906
 31
0.0
  0
INSERT
  5
2521F
330
249A0
100
AcDbEntity
  8
AM_5
100
AcDbBlockReference
  2
_Dot
 10
4405.941121546711
 20
-1475.920824442906
 30
0.0
 50
180.0
  0
INSERT
  5
25220
330
249A0
100
AcDbEntity
  8
AM_5
100
AcDbBlockReference
  2
_Dot
 10
4475.941132546711
 20
-1475.920824442906
 30
0.0
  0
MTEXT
  5
25221
330
249A0
100
AcDbEntity
  8
AM_5
 62
     2
100
AcDbMText
 10
4440.941127046712
 20
-1472.820824442906
 30
0.0
 40
3.200000000000001
 41
0.0
 71
     5
 72
     1
  1
70
 73
     1
 44
1.0
1001
ACAD
1000
MTEXTBEGIN
1070
    73
1070
     1
1070
    44
1040
1.0
1070
    74
1070
     0
1000
MTEXTEND
  0
POINT
  5
25222
330
249A0
100
AcDbEntity
  8
Defpoints
 62
     0
100
AcDbPoint
 10
4405.941121546711
 20
-1482.920825452905
 30
0.0
  0
POINT
  5
25223
330
249A0
100
AcDbEntity
  8
Defpoints
 62
     0
100
AcDbPoint
 10
4475.941132546711
 20
-1507.920825452905
 30
0.0
  0
POINT
  5
25224
330
249A0
100
AcDbEntity
  8
Defpoints
 62
     0
100
AcDbPoint
 10
4475.941132546711
 20
-1475.920824442906
 30
0.0
  0
ENDBLK
  5
249AB
330
249A0
100
AcDbEntity
  8
0
 48
0.5
100
AcDbBlockEnd
  0
BLOCK
  5
249B6
330
249AC
100
AcDbEntity
  8
0
 48
0.5
100
AcDbBlockBegin
  2
*D159
 70
     1
 10
0.0
 20
0.0
 30
0.0
  3
*D159
  1

  0
LINE
  5
25225
330
249AC
100
AcDbEntity
  8
AM_5
370
    -2
100
AcDbLine
 10
4475.941132546711
 20
-1428.535372316995
 30
0.0
 11
4475.941132546711
 21
-1406.035372316995
 31
0.0
  0
LINE
  5
25226
330
249AC
100
AcDbEntity
  8
AM_5
370
    -2
100
AcDbLine
 10
4467.941132546711
 20
-1428.535372316995
 30
0.0
 11
4467.941132546711
 21
-1406.035372316995
 31
0.0
  0
LINE
  5
25227
330
249AC
100
AcDbEntity
  8
AM_5
 62
     0
370
    -2
100
AcDbLine
 10
4474.941132546711
 20
-1407.035372316995
 30
0.0
 11
4468.941132546712
 21
-1407.035372316995
 31
0.0
  0
INSERT
  5
25228
330
249AC
100
AcDbEntity
  8
AM_5
 62
     0
370
    -2
100
AcDbBlockReference
  2
_Dot
 10
4475.941132546711
 20
-1407.035372316995
 30
0.0
  0
INSERT
  5
25229
330
249AC
100
AcDbEntity
  8
AM_5
 62
     0
370
    -2
100
AcDbBlockReference
  2
_Dot
 10
4467.941132546711
 20
-1407.035372316995
 30
0.0
 50
180.0
  0
MTEXT
  5
2522A
330
249AC
100
AcDbEntity
  8
AM_5
 62
     2
100
AcDbMText
 10
4471.941132546712
 20
-1404.435372316995
 30
0.0
 40
3.2
 41
0.0
 71
     5
 72
     1
  1
\A1;8
 73
     1
 44
1.0
1001
ACAD
1000
MTEXTBEGIN
1070
    73
1070
     1
1070
    44
1040
1.0
1070
    74
1070
     0
1000
MTEXTEND
  0
POINT
  5
2522B
330
249AC
100
AcDbEntity
  8
Defpoints
 62
     0
100
AcDbPoint
 10
4475.941132546711
 20
-1429.535372316995
 30
0.0
  0
POINT
  5
2522C
330
249AC
100
AcDbEntity
  8
Defpoints
 62
     0
100
AcDbPoint
 10
4467.941132546711
 20
-1429.535372316995
 30
0.0
  0
POINT
  5
2522D
330
249AC
100
AcDbEntity
  8
Defpoints
 62
     0
100
AcDbPoint
 10
4467.941132546711
 20
-1407.035372316995
 30
0.0
  0
ENDBLK
  5
249B7
330
249AC
100
AcDbEntity
  8
0
 48
0.5
100
AcDbBlockEnd
  0
BLOCK
  5
249C2
330
249B8
100
AcDbEntity
  8
0
 48
0.5
100
AcDbBlockBegin
  2
*D160
 70
     1
 10
0.0
 20
0.0
 30
0.0
  3
*D160
  1

  0
LINE
  5
2522E
330
249B8
100
AcDbEntity
  8
AM_5
100
AcDbLine
 10
4405.941121546711
 20
-1481.920825452905
 30
0.0
 11
4405.941121546711
 21
-1474.920824442906
 31
0.0
  0
LINE
  5
2522F
330
249B8
100
AcDbEntity
  8
AM_5
100
AcDbLine
 10
4355.941121546711
 20
-1504.920825452905
 30
0.0
 11
4355.941121546711
 21
-1474.920824442906
 31
0.0
  0
LINE
  5
25230
330
249B8
100
AcDbEntity
  8
AM_5
100
AcDbLine
 10
4404.941121546712
 20
-1475.920824442906
 30
0.0
 11
4356.941121546712
 21
-1475.920824442906
 31
0.0
  0
INSERT
  5
25231
330
249B8
100
AcDbEntity
  8
AM_5
100
AcDbBlockReference
  2
_Dot
 10
4405.941121546711
 20
-1475.920824442906
 30
0.0
  0
INSERT
  5
25232
330
249B8
100
AcDbEntity
  8
AM_5
100
AcDbBlockReference
  2
_Dot
 10
4355.941121546711
 20
-1475.920824442906
 30
0.0
 50
180.0
  0
MTEXT
  5
25233
330
249B8
100
AcDbEntity
  8
AM_5
 62
     2
100
AcDbMText
 10
4380.941121546711
 20
-1472.820824442906
 30
0.0
 40
3.200000000000001
 41
0.0
 71
     5
 72
     1
  1
50
 73
     1
 44
1.0
1001
ACAD
1000
MTEXTBEGIN
1070
    73
1070
     1
1070
    44
1040
1.0
1070
    74
1070
     0
1000
MTEXTEND
  0
POINT
  5
25234
330
249B8
100
AcDbEntity
  8
Defpoints
 62
     0
100
AcDbPoint
 10
4405.941121546711
 20
-1482.920825452905
 30
0.0
  0
POINT
  5
25235
330
249B8
100
AcDbEntity
  8
Defpoints
 62
     0
100
AcDbPoint
 10
4355.941121546711
 20
-1505.920825452905
 30
0.0
  0
POINT
  5
25236
330
249B8
100
AcDbEntity
  8
Defpoints
 62
     0
100
AcDbPoint
 10
4355.941121546711
 20
-1475.920824442906
 30
0.0
  0
ENDBLK
  5
249C3
330
249B8
100
AcDbEntity
  8
0
 48
0.5
100
AcDbBlockEnd
  0
BLOCK
  5
249CF
330
249C4
100
AcDbEntity
  8
0
 48
0.5
100
AcDbBlockBegin
  2
*D161
 70
     1
 10
0.0
 20
0.0
 30
0.0
  3
*D161
  1

  0
LINE
  5
25237
330
249C4
100
AcDbEntity
  8
AM_5
100
AcDbLine
 10
4682.002874352019
 20
-1467.611933253689
 30
0.0
 11
4682.002874352019
 21
-1472.611926531486
 31
0.0
  0
LINE
  5
25238
330
249C4
100
AcDbEntity
  8
AM_5
100
AcDbLine
 10
4691.00287435202
 20
-1467.611933253689
 30
0.0
 11
4691.00287435202
 21
-1472.611926531486
 31
0.0
  0
LINE
  5
25239
330
249C4
100
AcDbEntity
  8
AM_5
100
AcDbLine
 10
4683.002874352019
 20
-1471.611926531487
 30
0.0
 11
4690.002874352019
 21
-1471.611926531487
 31
0.0
  0
LINE
  5
2523A
330
249C4
100
AcDbEntity
  8
AM_5
100
AcDbLine
 10
4691.00287435202
 20
-1471.611926531487
 30
0.0
 11
4701.770899224611
 21
-1471.611926531487
 31
0.0
  0
INSERT
  5
2523B
330
249C4
100
AcDbEntity
  8
AM_5
100
AcDbBlockReference
  2
_Dot
 10
4682.002874352019
 20
-1471.611926531487
 30
0.0
 50
180.0
  0
INSERT
  5
2523C
330
249C4
100
AcDbEntity
  8
AM_5
100
AcDbBlockReference
  2
_Dot
 10
4691.00287435202
 20
-1471.611926531487
 30
0.0
  0
MTEXT
  5
2523D
330
249C4
100
AcDbEntity
  8
AM_5
 62
     2
100
AcDbMText
 10
4699.577565891279
 20
-1468.511926531486
 30
0.0
 40
3.200000000000001
 41
0.0
 71
     5
 72
     1
  1
9
 73
     1
 44
1.0
1001
ACAD
1000
MTEXTBEGIN
1070
    73
1070
     1
1070
    44
1040
1.0
1070
    74
1070
     0
1000
MTEXTEND
  0
POINT
  5
2523E
330
249C4
100
AcDbEntity
  8
Defpoints
 62
     0
100
AcDbPoint
 10
4682.002874352019
 20
-1466.611933253689
 30
0.0
  0
POINT
  5
2523F
330
249C4
100
AcDbEntity
  8
Defpoints
 62
     0
100
AcDbPoint
 10
4691.00287435202
 20
-1466.611933253689
 30
0.0
  0
POINT
  5
25240
330
249C4
100
AcDbEntity
  8
Defpoints
 62
     0
100
AcDbPoint
 10
4691.00287435202
 20
-1471.611926531487
 30
0.0
  0
ENDBLK
  5
249D0
330
249C4
100
AcDbEntity
  8
0
 48
0.5
100
AcDbBlockEnd
  0
BLOCK
  5
249DC
330
249D1
100
AcDbEntity
  8
0
 48
0.5
100
AcDbBlockBegin
  2
*D162
 70
     1
 10
0.0
 20
0.0
 30
0.0
  3
*D162
  1

  0
LINE
  5
25241
330
249D1
100
AcDbEntity
  8
AM_5
100
AcDbLine
 10
4676.002874352019
 20
-1472.611926031487
 30
0.0
 11
4676.002874352019
 21
-1482.611926531486
 31
0.0
  0
LINE
  5
25242
330
249D1
100
AcDbEntity
  8
AM_5
100
AcDbLine
 10
4691.00287435202
 20
-1472.611926031487
 30
0.0
 11
4691.00287435202
 21
-1482.611926531486
 31
0.0
  0
LINE
  5
25243
330
249D1
100
AcDbEntity
  8
AM_5
100
AcDbLine
 10
4677.00287435202
 20
-1481.611926531487
 30
0.0
 11
4690.002874352019
 21
-1481.611926531487
 31
0.0
  0
LINE
  5
25244
330
249D1
100
AcDbEntity
  8
AM_5
100
AcDbLine
 10
4691.00287435202
 20
-1481.611926531487
 30
0.0
 11
4702.519439314398
 21
-1481.611926531487
 31
0.0
  0
INSERT
  5
25245
330
249D1
100
AcDbEntity
  8
AM_5
100
AcDbBlockReference
  2
_Dot
 10
4676.002874352019
 20
-1481.611926531487
 30
0.0
 50
180.0
  0
INSERT
  5
25246
330
249D1
100
AcDbEntity
  8
AM_5
100
AcDbBlockReference
  2
_Dot
 10
4691.00287435202
 20
-1481.611926531487
 30
0.0
  0
MTEXT
  5
25247
330
249D1
100
AcDbEntity
  8
AM_5
 62
     2
100
AcDbMText
 10
4699.366105981066
 20
-1478.511926531487
 30
0.0
 40
3.200000000000001
 41
0.0
 71
     5
 72
     1
  1
15
 73
     1
 44
1.0
1001
ACAD
1000
MTEXTBEGIN
1070
    73
1070
     1
1070
    44
1040
1.0
1070
    74
1070
     0
1000
MTEXTEND
  0
POINT
  5
25248
330
249D1
100
AcDbEntity
  8
Defpoints
 62
     0
100
AcDbPoint
 10
4676.002874352019
 20
-1471.611926031487
 30
0.0
  0
POINT
  5
25249
330
249D1
100
AcDbEntity
  8
Defpoints
 62
     0
100
AcDbPoint
 10
4691.00287435202
 20
-1471.611926031487
 30
0.0
  0
POINT
  5
2524A
330
249D1
100
AcDbEntity
  8
Defpoints
 62
     0
100
AcDbPoint
 10
4691.00287435202
 20
-1481.611926531487
 30
0.0
  0
ENDBLK
  5
249DD
330
249D1
100
AcDbEntity
  8
0
 48
0.5
100
AcDbBlockEnd
  0
BLOCK
  5
249E8
330
249DE
100
AcDbEntity
  8
0
 48
0.5
100
AcDbBlockBegin
  2
*D163
 70
     1
 10
0.0
 20
0.0
 30
0.0
  3
*D163
  1

  0
LINE
  5
2524B
330
249DE
100
AcDbEntity
  8
AM_5
100
AcDbLine
 10
4692.002874352019
 20
-1524.611927031486
 30
0.0
 11
4716.502874352019
 21
-1524.611927031486
 31
0.0
  0
LINE
  5
2524C
330
249DE
100
AcDbEntity
  8
AM_5
100
AcDbLine
 10
4692.002874352019
 20
-1458.611924031487
 30
0.0
 11
4716.502874352019
 21
-1458.611924031487
 31
0.0
  0
LINE
  5
2524D
330
249DE
100
AcDbEntity
  8
AM_5
100
AcDbLine
 10
4715.502874352019
 20
-1523.611927031486
 30
0.0
 11
4715.502874352019
 21
-1459.611924031487
 31
0.0
  0
INSERT
  5
2524E
330
249DE
100
AcDbEntity
  8
AM_5
100
AcDbBlockReference
  2
_Dot
 10
4715.502874352019
 20
-1524.611927031486
 30
0.0
 50
270.0
  0
INSERT
  5
2524F
330
249DE
100
AcDbEntity
  8
AM_5
100
AcDbBlockReference
  2
_Dot
 10
4715.502874352019
 20
-1458.611924031487
 30
0.0
 50
90.0
  0
MTEXT
  5
25250
330
249DE
100
AcDbEntity
  8
AM_5
 62
     2
100
AcDbMText
 10
4712.402874352019
 20
-1491.611925531486
 30
0.0
 40
3.200000000000001
 41
0.0
 71
     5
 72
     1
  1
66
 11
0.0000000000000001
 21
1.0
 31
0.0
 73
     1
 44
1.0
1001
ACAD
1000
MTEXTBEGIN
1070
    73
1070
     1
1070
    44
1040
1.0
1070
    74
1070
     0
1000
MTEXTEND
  0
POINT
  5
25251
330
249DE
100
AcDbEntity
  8
Defpoints
 62
     0
100
AcDbPoint
 10
4691.00287435202
 20
-1524.611927031486
 30
0.0
  0
POINT
  5
25252
330
249DE
100
AcDbEntity
  8
Defpoints
 62
     0
100
AcDbPoint
 10
4691.00287435202
 20
-1458.611924031487
 30
0.0
  0
POINT
  5
25253
330
249DE
100
AcDbEntity
  8
Defpoints
 62
     0
100
AcDbPoint
 10
4715.502874352019
 20
-1458.611924031487
 30
0.0
  0
ENDBLK
  5
249E9
330
249DE
100
AcDbEntity
  8
0
 48
0.5
100
AcDbBlockEnd
  0
BLOCK
  5
24B64
330
24B58
100
AcDbEntity
  8
0
 48
0.5
100
AcDbBlockBegin
  2
*D165
 70
     1
 10
0.0
 20
0.0
 30
0.0
  3
*D165
  1

  0
LINE
  5
2526F
330
24B58
100
AcDbEntity
  8
AM_5
100
AcDbLine
 10
4670.50287435202
 20
-1407.155424700132
 30
0.0
 11
4660.50287435202
 21
-1407.155424700132
 31
0.0
  0
LINE
  5
25270
330
24B58
100
AcDbEntity
  8
AM_5
100
AcDbLine
 10
4670.50287435202
 20
-1412.155424700132
 30
0.0
 11
4660.50287435202
 21
-1412.155424700132
 31
0.0
  0
LINE
  5
25271
330
24B58
100
AcDbEntity
  8
AM_5
100
AcDbLine
 10
4661.502874352019
 20
-1406.155424700132
 30
0.0
 11
4661.502874352019
 21
-1405.155424700132
 31
0.0
  0
LINE
  5
25272
330
24B58
100
AcDbEntity
  8
AM_5
100
AcDbLine
 10
4661.502874352019
 20
-1413.155424700132
 30
0.0
 11
4661.502874352019
 21
-1414.155424700132
 31
0.0
  0
LINE
  5
25273
330
24B58
100
AcDbEntity
  8
AM_5
100
AcDbLine
 10
4661.502874352019
 20
-1407.155424700132
 30
0.0
 11
4661.502874352019
 21
-1412.155424700132
 31
0.0
  0
INSERT
  5
25274
330
24B58
100
AcDbEntity
  8
AM_5
100
AcDbBlockReference
  2
_Dot
 10
4661.502874352019
 20
-1407.155424700132
 30
0.0
 50
270.0
  0
INSERT
  5
25275
330
24B58
100
AcDbEntity
  8
AM_5
100
AcDbBlockReference
  2
_Dot
 10
4661.502874352019
 20
-1412.155424700132
 30
0.0
 50
90.0
  0
MTEXT
  5
25276
330
24B58
100
AcDbEntity
  8
AM_5
 62
     2
100
AcDbMText
 10
4658.402874352019
 20
-1409.655424700132
 30
0.0
 40
3.200000000000001
 41
0.0
 71
     5
 72
     1
  1
5
 11
0.0000000000000001
 21
1.0
 31
0.0
 73
     1
 44
1.0
1001
ACAD
1000
MTEXTBEGIN
1070
    73
1070
     1
1070
    44
1040
1.0
1070
    74
1070
     0
1000
MTEXTEND
  0
POINT
  5
25277
330
24B58
100
AcDbEntity
  8
Defpoints
 62
     0
100
AcDbPoint
 10
4671.50287435202
 20
-1407.155424700132
 30
0.0
  0
POINT
  5
25278
330
24B58
100
AcDbEntity
  8
Defpoints
 62
     0
100
AcDbPoint
 10
4671.50287435202
 20
-1412.155424700132
 30
0.0
  0
POINT
  5
25279
330
24B58
100
AcDbEntity
  8
Defpoints
 62
     0
100
AcDbPoint
 10
4661.502874352019
 20
-1412.155424700132
 30
0.0
  0
ENDBLK
  5
24B65
330
24B58
100
AcDbEntity
  8
0
 48
0.5
100
AcDbBlockEnd
  0
BLOCK
  5
24B70
330
24B66
100
AcDbEntity
  8
0
 48
0.5
100
AcDbBlockBegin
  2
*D166
 70
     1
 10
0.0
 20
0.0
 30
0.0
  3
*D166
  1

  0
LINE
  5
25254
330
24B66
100
AcDbEntity
  8
AM_5
370
    -2
100
AcDbLine
 10
4670.50287435202
 20
-1407.155424700132
 30
0.0
 11
4660.50287435202
 21
-1407.155424700132
 31
0.0
  0
LINE
  5
25255
330
24B66
100
AcDbEntity
  8
AM_5
370
    -2
100
AcDbLine
 10
4672.00287435202
 20
-1390.655424700132
 30
0.0
 11
4660.50287435202
 21
-1390.655424700132
 31
0.0
  0
LINE
  5
25256
330
24B66
100
AcDbEntity
  8
AM_5
 62
     0
370
    -2
100
AcDbLine
 10
4661.502874352019
 20
-1406.155424700132
 30
0.0
 11
4661.502874352019
 21
-1391.655424700132
 31
0.0
  0
INSERT
  5
25257
330
24B66
100
AcDbEntity
  8
AM_5
 62
     0
370
    -2
100
AcDbBlockReference
  2
_Dot
 10
4661.502874352019
 20
-1407.155424700132
 30
0.0
 50
270.0
  0
INSERT
  5
25258
330
24B66
100
AcDbEntity
  8
AM_5
 62
     0
370
    -2
100
AcDbBlockReference
  2
_Dot
 10
4661.502874352019
 20
-1390.655424700132
 30
0.0
 50
90.0
  0
MTEXT
  5
25259
330
24B66
100
AcDbEntity
  8
AM_5
 62
     2
100
AcDbMText
 10
4658.902874352019
 20
-1398.905424700132
 30
0.0
 40
3.2
 41
0.0
 71
     5
 72
     1
  1
\A1;16.5
 11
0.0000000000000001
 21
1.0
 31
0.0
 73
     1
 44
1.0
1001
ACAD
1000
MTEXTBEGIN
1070
    73
1070
     1
1070
    44
1040
1.0
1070
    74
1070
     0
1000
MTEXTEND
  0
POINT
  5
2525A
330
24B66
100
AcDbEntity
  8
Defpoints
 62
     0
100
AcDbPoint
 10
4671.50287435202
 20
-1407.155424700132
 30
0.0
  0
POINT
  5
2525B
330
24B66
100
AcDbEntity
  8
Defpoints
 62
     0
100
AcDbPoint
 10
4673.00287435202
 20
-1390.655424700132
 30
0.0
  0
POINT
  5
2525C
330
24B66
100
AcDbEntity
  8
Defpoints
 62
     0
100
AcDbPoint
 10
4661.502874352019
 20
-1390.655424700132
 30
0.0
  0
ENDBLK
  5
24B71
330
24B66
100
AcDbEntity
  8
0
 48
0.5
100
AcDbBlockEnd
  0
BLOCK
  5
24B7C
330
24B72
100
AcDbEntity
  8
0
 48
0.5
100
AcDbBlockBegin
  2
*D167
 70
     1
 10
0.0
 20
0.0
 30
0.0
  3
*D167
  1

  0
LINE
  5
2525D
330
24B72
100
AcDbEntity
  8
AM_5
370
    -2
100
AcDbLine
 10
4694.002874352019
 20
-1389.655424700132
 30
0.0
 11
4694.002874352019
 21
-1379.655424700132
 31
0.0
  0
LINE
  5
2525E
330
24B72
100
AcDbEntity
  8
AM_5
370
    -2
100
AcDbLine
 10
4673.00287435202
 20
-1389.655424700132
 30
0.0
 11
4673.00287435202
 21
-1379.655424700132
 31
0.0
  0
LINE
  5
2525F
330
24B72
100
AcDbEntity
  8
AM_5
 62
     0
370
    -2
100
AcDbLine
 10
4693.00287435202
 20
-1380.655424700132
 30
0.0
 11
4674.002874352019
 21
-1380.655424700132
 31
0.0
  0
INSERT
  5
25260
330
24B72
100
AcDbEntity
  8
AM_5
 62
     0
370
    -2
100
AcDbBlockReference
  2
_Dot
 10
4694.002874352019
 20
-1380.655424700132
 30
0.0
  0
INSERT
  5
25261
330
24B72
100
AcDbEntity
  8
AM_5
 62
     0
370
    -2
100
AcDbBlockReference
  2
_Dot
 10
4673.00287435202
 20
-1380.655424700132
 30
0.0
 50
180.0
  0
MTEXT
  5
25262
330
24B72
100
AcDbEntity
  8
AM_5
 62
     2
100
AcDbMText
 10
4683.502874352019
 20
-1378.055424700132
 30
0.0
 40
3.2
 41
0.0
 71
     5
 72
     1
  1
\A1;21
 73
     1
 44
1.0
1001
ACAD
1000
MTEXTBEGIN
1070
    73
1070
     1
1070
    44
1040
1.0
1070
    74
1070
     0
1000
MTEXTEND
  0
POINT
  5
25263
330
24B72
100
AcDbEntity
  8
Defpoints
 62
     0
100
AcDbPoint
 10
4694.002874352019
 20
-1390.655424700132
 30
0.0
  0
POINT
  5
25264
330
24B72
100
AcDbEntity
  8
Defpoints
 62
     0
100
AcDbPoint
 10
4673.00287435202
 20
-1390.655424700132
 30
0.0
  0
POINT
  5
25265
330
24B72
100
AcDbEntity
  8
Defpoints
 62
     0
100
AcDbPoint
 10
4673.00287435202
 20
-1380.655424700132
 30
0.0
  0
ENDBLK
  5
24B7D
330
24B72
100
AcDbEntity
  8
0
 48
0.5
100
AcDbBlockEnd
  0
BLOCK
  5
24B88
330
24B7E
100
AcDbEntity
  8
0
 48
0.5
100
AcDbBlockBegin
  2
*D168
 70
     1
 10
0.0
 20
0.0
 30
0.0
  3
*D168
  1

  0
LINE
  5
25266
330
24B7E
100
AcDbEntity
  8
AM_5
370
    -2
100
AcDbLine
 10
4695.502874352019
 20
-1413.155424700132
 30
0.0
 11
4695.502874352019
 21
-1423.155424700132
 31
0.0
  0
LINE
  5
25267
330
24B7E
100
AcDbEntity
  8
AM_5
370
    -2
100
AcDbLine
 10
4671.50287435202
 20
-1413.155424700132
 30
0.0
 11
4671.50287435202
 21
-1423.155424700132
 31
0.0
  0
LINE
  5
25268
330
24B7E
100
AcDbEntity
  8
AM_5
 62
     0
370
    -2
100
AcDbLine
 10
4694.50287435202
 20
-1422.155424700132
 30
0.0
 11
4672.502874352019
 21
-1422.155424700132
 31
0.0
  0
INSERT
  5
25269
330
24B7E
100
AcDbEntity
  8
AM_5
 62
     0
370
    -2
100
AcDbBlockReference
  2
_Dot
 10
4695.502874352019
 20
-1422.155424700132
 30
0.0
  0
INSERT
  5
2526A
330
24B7E
100
AcDbEntity
  8
AM_5
 62
     0
370
    -2
100
AcDbBlockReference
  2
_Dot
 10
4671.50287435202
 20
-1422.155424700132
 30
0.0
 50
180.0
  0
MTEXT
  5
2526B
330
24B7E
100
AcDbEntity
  8
AM_5
 62
     2
100
AcDbMText
 10
4683.502874352019
 20
-1419.555424700132
 30
0.0
 40
3.2
 41
0.0
 71
     5
 72
     1
  1
\A1;24
 73
     1
 44
1.0
1001
ACAD
1000
MTEXTBEGIN
1070
    73
1070
     1
1070
    44
1040
1.0
1070
    74
1070
     0
1000
MTEXTEND
  0
POINT
  5
2526C
330
24B7E
100
AcDbEntity
  8
Defpoints
 62
     0
100
AcDbPoint
 10
4695.502874352019
 20
-1412.155424700132
 30
0.0
  0
POINT
  5
2526D
330
24B7E
100
AcDbEntity
  8
Defpoints
 62
     0
100
AcDbPoint
 10
4671.50287435202
 20
-1412.155424700132
 30
0.0
  0
POINT
  5
2526E
330
24B7E
100
AcDbEntity
  8
Defpoints
 62
     0
100
AcDbPoint
 10
4671.50287435202
 20
-1422.155424700132
 30
0.0
  0
ENDBLK
  5
24B89
330
24B7E
100
AcDbEntity
  8
0
 48
0.5
100
AcDbBlockEnd
  0
BLOCK
  5
24C17
330
24C0D
100
AcDbEntity
  8
0
 48
0.5
100
AcDbBlockBegin
  2
*D171
 70
     1
 10
0.0
 20
0.0
 30
0.0
  3
*D171
  1

  0
LINE
  5
252E4
330
24C0D
100
AcDbEntity
  8
AM_5
100
AcDbLine
 10
4702.60979618575
 20
-1299.001355528886
 30
0.0
 11
4725.088097300822
 21
-1299.001355528886
 31
0.0
  0
LINE
  5
252E5
330
24C0D
100
AcDbEntity
  8
AM_5
100
AcDbLine
 10
4729.109796185749
 20
-1271.001355528886
 30
0.0
 11
4723.088097300822
 21
-1271.001355528886
 31
0.0
  0
LINE
  5
252E6
330
24C0D
100
AcDbEntity
  8
AM_5
100
AcDbLine
 10
4724.088097300821
 20
-1298.001355528886
 30
0.0
 11
4724.088097300821
 21
-1272.001355528886
 31
0.0
  0
INSERT
  5
252E7
330
24C0D
100
AcDbEntity
  8
AM_5
100
AcDbBlockReference
  2
_Dot
 10
4724.088097300821
 20
-1299.001355528886
 30
0.0
 50
270.0
  0
INSERT
  5
252E8
330
24C0D
100
AcDbEntity
  8
AM_5
100
AcDbBlockReference
  2
_Dot
 10
4724.088097300821
 20
-1271.001355528886
 30
0.0
 50
90.0
  0
MTEXT
  5
252E9
330
24C0D
100
AcDbEntity
  8
AM_5
 62
     2
100
AcDbMText
 10
4720.98809730082
 20
-1285.001355528885
 30
0.0
 40
3.200000000000001
 41
0.0
 71
     5
 72
     1
  1
28
 11
0.0000000000000001
 21
1.0
 31
0.0
 73
     1
 44
1.0
1001
ACAD
1000
MTEXTBEGIN
1070
    73
1070
     1
1070
    44
1040
1.0
1070
    74
1070
     0
1000
MTEXTEND
  0
POINT
  5
252EA
330
24C0D
100
AcDbEntity
  8
Defpoints
 62
     0
100
AcDbPoint
 10
4701.609796185749
 20
-1299.001355528886
 30
0.0
  0
POINT
  5
252EB
330
24C0D
100
AcDbEntity
  8
Defpoints
 62
     0
100
AcDbPoint
 10
4730.109796185749
 20
-1271.001355528886
 30
0.0
  0
POINT
  5
252EC
330
24C0D
100
AcDbEntity
  8
Defpoints
 62
     0
100
AcDbPoint
 10
4724.088097300821
 20
-1271.001355528886
 30
0.0
  0
ENDBLK
  5
24C18
330
24C0D
100
AcDbEntity
  8
0
 48
0.5
100
AcDbBlockEnd
  0
BLOCK
  5
24C52
330
24C48
100
AcDbEntity
  8
0
 48
0.5
100
AcDbBlockBegin
  2
*D172
 70
     1
 10
0.0
 20
0.0
 30
0.0
  3
*D172
  1

  0
LINE
  5
25323
330
24C48
100
AcDbEntity
  8
AM_5
100
AcDbLine
 10
4814.01070940081
 20
-1307.001358528886
 30
0.0
 11
4824.01070940081
 21
-1307.001358528886
 31
0.0
  0
LINE
  5
25324
330
24C48
100
AcDbEntity
  8
AM_5
100
AcDbLine
 10
4814.01070940081
 20
-1235.001355528886
 30
0.0
 11
4824.01070940081
 21
-1235.001355528886
 31
0.0
  0
LINE
  5
25325
330
24C48
100
AcDbEntity
  8
AM_5
100
AcDbLine
 10
4823.01070940081
 20
-1306.001358528886
 30
0.0
 11
4823.01070940081
 21
-1236.001355528886
 31
0.0
  0
INSERT
  5
25326
330
24C48
100
AcDbEntity
  8
AM_5
100
AcDbBlockReference
  2
_Dot
 10
4823.01070940081
 20
-1307.001358528886
 30
0.0
 50
270.0
  0
INSERT
  5
25327
330
24C48
100
AcDbEntity
  8
AM_5
100
AcDbBlockReference
  2
_Dot
 10
4823.01070940081
 20
-1235.001355528886
 30
0.0
 50
90.0
  0
MTEXT
  5
25328
330
24C48
100
AcDbEntity
  8
AM_5
 62
     2
100
AcDbMText
 10
4819.91070940081
 20
-1271.001357028886
 30
0.0
 40
3.200000000000001
 41
0.0
 71
     5
 72
     1
  1
72
 11
0.0000000000000001
 21
1.0
 31
0.0
 73
     1
 44
1.0
1001
ACAD
1000
MTEXTBEGIN
1070
    73
1070
     1
1070
    44
1040
1.0
1070
    74
1070
     0
1000
MTEXTEND
  0
POINT
  5
25329
330
24C48
100
AcDbEntity
  8
Defpoints
 62
     0
100
AcDbPoint
 10
4813.01070940081
 20
-1307.001358528886
 30
0.0
  0
POINT
  5
2532A
330
24C48
100
AcDbEntity
  8
Defpoints
 62
     0
100
AcDbPoint
 10
4813.01070940081
 20
-1235.001355528886
 30
0.0
  0
POINT
  5
2532B
330
24C48
100
AcDbEntity
  8
Defpoints
 62
     0
100
AcDbPoint
 10
4823.01070940081
 20
-1235.001355528886
 30
0.0
  0
ENDBLK
  5
24C53
330
24C48
100
AcDbEntity
  8
0
 48
0.5
100
AcDbBlockEnd
  0
BLOCK
  5
24C81
330
24C77
100
AcDbEntity
  8
0
 48
0.5
100
AcDbBlockBegin
  2
*D173
 70
     1
 10
0.0
 20
0.0
 30
0.0
  3
*D173
  1

  0
LINE
  5
2533C
330
24C77
100
AcDbEntity
  8
AM_5
100
AcDbLine
 10
4802.01070940081
 20
-1231.001357528886
 30
0.0
 11
4802.01070940081
 21
-1224.001355528886
 31
0.0
  0
LINE
  5
2533D
330
24C77
100
AcDbEntity
  8
AM_5
100
AcDbLine
 10
4801.010709400809
 20
-1225.001355528886
 30
0.0
 11
4783.51070940081
 21
-1225.001355528886
 31
0.0
  0
INSERT
  5
2533E
330
24C77
100
AcDbEntity
  8
AM_5
100
AcDbBlockReference
  2
_Dot
 10
4802.01070940081
 20
-1225.001355528886
 30
0.0
  0
INSERT
  5
2533F
330
24C77
100
AcDbEntity
  8
AM_5
100
AcDbBlockReference
  2
_Dot
 10
4782.51070940081
 20
-1225.001355528886
 30
0.0
 50
180.0
  0
MTEXT
  5
25340
330
24C77
100
AcDbEntity
  8
AM_5
 62
     2
100
AcDbMText
 10
4792.203616599626
 20
-1221.901355528886
 30
0.0
 40
3.200000000000001
 41
0.0
 71
     5
 72
     1
  1
19.5
 73
     1
 44
1.0
1001
ACAD
1000
MTEXTBEGIN
1070
    73
1070
     1
1070
    44
1040
1.0
1070
    74
1070
     0
1000
MTEXTEND
  0
POINT
  5
25341
330
24C77
100
AcDbEntity
  8
Defpoints
 62
     0
100
AcDbPoint
 10
4802.01070940081
 20
-1232.001357528886
 30
0.0
  0
POINT
  5
25342
330
24C77
100
AcDbEntity
  8
Defpoints
 62
     0
100
AcDbPoint
 10
4782.51070940081
 20
-1225.001355528886
 30
0.0
  0
POINT
  5
25343
330
24C77
100
AcDbEntity
  8
Defpoints
 62
     0
100
AcDbPoint
 10
4782.51070940081
 20
-1225.001355528886
 30
0.0
  0
ENDBLK
  5
24C82
330
24C77
100
AcDbEntity
  8
0
 48
0.5
100
AcDbBlockEnd
  0
BLOCK
  5
24CB1
330
24CA7
100
AcDbEntity
  8
0
 48
0.5
100
AcDbBlockBegin
  2
*D174
 70
     1
 10
0.0
 20
0.0
 30
0.0
  3
*D174
  1

  0
LINE
  5
25311
330
24CA7
100
AcDbEntity
  8
AM_5
100
AcDbLine
 10
4679.109796185749
 20
-1284.001355528886
 30
0.0
 11
4679.109796185749
 21
-1264.713332951891
 31
0.0
  0
LINE
  5
25312
330
24CA7
100
AcDbEntity
  8
AM_5
100
AcDbLine
 10
4738.609796185749
 20
-1265.803929075071
 30
0.0
 11
4738.609796185749
 21
-1264.713332951891
 31
0.0
  0
LINE
  5
25313
330
24CA7
100
AcDbEntity
  8
AM_5
100
AcDbLine
 10
4680.109796185749
 20
-1265.713332951891
 30
0.0
 11
4737.60979618575
 21
-1265.713332951891
 31
0.0
  0
INSERT
  5
25314
330
24CA7
100
AcDbEntity
  8
AM_5
100
AcDbBlockReference
  2
_Dot
 10
4679.109796185749
 20
-1265.713332951891
 30
0.0
 50
180.0
  0
INSERT
  5
25315
330
24CA7
100
AcDbEntity
  8
AM_5
100
AcDbBlockReference
  2
_Dot
 10
4738.609796185749
 20
-1265.713332951891
 30
0.0
  0
MTEXT
  5
25316
330
24CA7
100
AcDbEntity
  8
AM_5
 62
     2
100
AcDbMText
 10
4708.213965065321
 20
-1262.613332951891
 30
0.0
 40
3.200000000000001
 41
0.0
 71
     5
 72
     1
  1
59.5
 73
     1
 44
1.0
1001
ACAD
1000
MTEXTBEGIN
1070
    73
1070
     1
1070
    44
1040
1.0
1070
    74
1070
     0
1000
MTEXTEND
  0
POINT
  5
25317
330
24CA7
100
AcDbEntity
  8
Defpoints
 62
     0
100
AcDbPoint
 10
4679.109796185749
 20
-1285.001355528886
 30
0.0
  0
POINT
  5
25318
330
24CA7
100
AcDbEntity
  8
Defpoints
 62
     0
100
AcDbPoint
 10
4738.609796185749
 20
-1266.803929075071
 30
0.0
  0
POINT
  5
25319
330
24CA7
100
AcDbEntity
  8
Defpoints
 62
     0
100
AcDbPoint
 10
4738.609796185749
 20
-1265.713332951891
 30
0.0
  0
ENDBLK
  5
24CB2
330
24CA7
100
AcDbEntity
  8
0
 48
0.5
100
AcDbBlockEnd
  0
BLOCK
  5
2534F
330
25345
100
AcDbEntity
  8
0
 48
0.5
100
AcDbBlockBegin
  2
*D177
 70
     1
 10
0.0
 20
0.0
 30
0.0
  3
*D177
  1

  0
LINE
  5
25351
330
25345
100
AcDbEntity
  8
AM_5
100
AcDbLine
 10
4643.24451811069
 20
-1437.870002575688
 30
0.0
 11
4673.701184777357
 21
-1437.870002575688
 31
0.0
  0
LINE
  5
25352
330
25345
100
AcDbEntity
  8
AM_5
100
AcDbLine
 10
4673.701184777357
 20
-1437.870002575688
 30
0.0
 11
4680.45425169114
 21
-1447.337771159281
 31
0.0
  0
LINE
  5
25353
330
25345
100
AcDbEntity
  8
AM_5
100
AcDbLine
 10
4686.551497012892
 20
-1455.886080903693
 30
0.0
 11
4687.132187043535
 21
-1456.700205641255
 31
0.0
  0
MTEXT
  5
25354
330
25345
100
AcDbEntity
  8
AM_5
 62
     2
100
AcDbMText
 10
4657.722851444025
 20
-1434.620002575688
 30
0.0
 40
3.5
 41
0.0
 71
     5
 72
     1
  1
2-%%c4.5×\U+22058.5サラ
 73
     1
 44
1.0
1001
ACAD
1000
MTEXTBEGIN
1070
    73
1070
     1
1070
    44
1040
1.0
1070
    74
1070
     0
1000
MTEXTEND
  0
LINE
  5
25355
330
25345
100
AcDbEntity
  8
AM_5
100
AcDbLine
 10
4685.97080698225
 20
-1455.07195616613
 30
0.0
 11
4681.034941721782
 21
-1448.151895896844
 31
0.0
  0
INSERT
  5
25356
330
25345
100
AcDbEntity
  8
AM_5
100
AcDbBlockReference
  2
_Dot
 10
4685.97080698225
 20
-1455.07195616613
 30
0.0
 50
125.499090365393
  0
INSERT
  5
25357
330
25345
100
AcDbEntity
  8
AM_5
100
AcDbBlockReference
  2
_Dot
 10
4681.034941721782
 20
-1448.151895896844
 30
0.0
 50
305.499090365393
  0
POINT
  5
25358
330
25345
100
AcDbEntity
  8
Defpoints
 62
     0
100
AcDbPoint
 10
4681.034941721782
 20
-1448.151895896844
 30
0.0
  0
POINT
  5
25359
330
25345
100
AcDbEntity
  8
Defpoints
 62
     0
100
AcDbPoint
 10
4685.97080698225
 20
-1455.07195616613
 30
0.0
  0
ENDBLK
  5
25350
330
25345
100
AcDbEntity
  8
0
 48
0.5
100
AcDbBlockEnd
  0
ENDSEC
  0
SECTION
  2
ENTITIES
  0
AMDTACMWBLOCKBOMENTITY
  5
13FB3
330
1F
100
AcDbEntity
  8
AM_6
 92
        8
310
0800000000000000
  0
AMDTACMWBLOCKBOMENTITY
  5
140E0
330
1F
100
AcDbEntity
  8
AM_6
 92
        8
310
0800000000000000
  0
LINE
  5
2479F
330
1F
100
AcDbEntity
  8
AM_1
100
AcDbLine
 10
4854.430286806473
 20
-1192.394710085883
 30
0.0
 11
4854.430286806473
 21
-1586.894710085883
 31
0.0
  0
LINE
  5
247A0
330
1F
100
AcDbEntity
  8
Defpoints
100
AcDbLine
 10
4865.930286806474
 20
-1180.894710085883
 30
0.0
 11
4865.930286806474
 21
-1192.394710085883
 31
0.0
  0
LINE
  5
247A1
330
1F
100
AcDbEntity
  8
AM_1
100
AcDbLine
 10
4299.430286806473
 20
-1586.894710085883
 30
0.0
 11
4854.430286806473
 21
-1586.894710085883
 31
0.0
  0
LINE
  5
247A2
330
1F
100
AcDbEntity
  8
AM_1
100
AcDbLine
 10
4299.430286806473
 20
-1192.394710085883
 30
0.0
 11
4854.430286806473
 21
-1192.394710085883
 31
0.0
  0
LINE
  5
247A3
330
1F
100
AcDbEntity
  8
AM_1
100
AcDbLine
 10
4299.430286806473
 20
-1192.394710085883
 30
0.0
 11
4299.430286806473
 21
-1586.894710085883
 31
0.0
  0
LINE
  5
247A4
330
1F
100
AcDbEntity
  8
AM_0
100
AcDbLine
 10
4319.430286806473
 20
-1192.394710085883
 30
0.0
 11
4319.430286806473
 21
-1256.394710085883
 31
0.0
  0
LINE
  5
247A5
330
1F
100
AcDbEntity
  8
AM_0
100
AcDbLine
 10
4299.430286806473
 20
-1200.394710085883
 30
0.0
 11
4440.944257367024
 21
-1200.394710085883
 31
0.0
  0
LINE
  5
247A6
330
1F
100
AcDbEntity
  8
AM_0
100
AcDbLine
 10
4299.430286806473
 20
-1208.394710085883
 30
0.0
 11
4440.944257367024
 21
-1208.394710085883
 31
0.0
  0
LINE
  5
247A7
330
1F
100
AcDbEntity
  8
AM_0
100
AcDbLine
 10
4299.430286806473
 20
-1216.394710085883
 30
0.0
 11
4440.944257367024
 21
-1216.394710085883
 31
0.0
  0
LINE
  5
247A8
330
1F
100
AcDbEntity
  8
AM_0
100
AcDbLine
 10
4299.430286806473
 20
-1224.394710085883
 30
0.0
 11
4440.944257367024
 21
-1224.394710085883
 31
0.0
  0
LINE
  5
247A9
330
1F
100
AcDbEntity
  8
AM_2
100
AcDbLine
 10
4319.430286806473
 20
-1248.394710085883
 30
0.0
 11
4440.944257367024
 21
-1248.394710085883
 31
0.0
  0
LINE
  5
247AA
330
1F
100
AcDbEntity
  8
AM_1
100
AcDbLine
 10
4299.430286806475
 20
-1256.394710085883
 30
0.0
 11
4440.944257367026
 21
-1256.394710085883
 31
0.0
  0
LINE
  5
247AB
330
1F
100
AcDbEntity
  8
AM_1
100
AcDbLine
 10
4299.430286806473
 20
-1192.394710085883
 30
0.0
 11
4299.430286806473
 21
-1288.394710085883
 31
0.0
  0
LINE
  5
247AC
330
1F
100
AcDbEntity
  8
AM_1
100
AcDbLine
 10
4299.430286806473
 20
-1192.394710085883
 30
0.0
 11
4440.944257367024
 21
-1192.394710085883
 31
0.0
  0
LINE
  5
247AD
330
1F
100
AcDbEntity
  8
AM_1
100
AcDbLine
 10
4440.944257367024
 20
-1192.394710085883
 30
0.0
 11
4440.944257367026
 21
-1256.394710085883
 31
0.0
  0
LINE
  5
247AE
330
1F
100
AcDbEntity
  8
AM_1
100
AcDbLine
 10
4299.430286806473
 20
-1506.894710085883
 30
0.0
 11
4299.430286806473
 21
-1586.894710085883
 31
0.0
  0
INSERT
  5
247AF
330
1F
100
AcDbEntity
  8
AM_0
100
AcDbBlockReference
  2
*U6
 10
4684.430286806473
 20
-1486.894710085883
 30
0.0
  0
INSERT
  5
247B0
330
1F
100
AcDbEntity
  8
AM_0
100
AcDbBlockReference
  2
*U7
 10
4684.430286806473
 20
-1486.894710085883
 30
0.0
  0
INSERT
  5
247B1
330
1F
100
AcDbEntity
  8
AM_0
100
AcDbBlockReference
  2
*U8
 10
4684.430286806473
 20
-1486.894710085883
 30
0.0
  0
INSERT
  5
247B2
330
1F
100
AcDbEntity
  8
AM_0
100
AcDbBlockReference
  2
*U9
 10
4684.430286806473
 20
-1486.894710085883
 30
0.0
  0
TEXT
  5
247B3
330
1F
100
AcDbEntity
  8
AM_6
100
AcDbText
 10
4322.858786803135
 20
-1221.994710085883
 30
0.0
 40
3.2
  1
ダルクロームメッキ
 41
0.7
100
AcDbText
  0
INSERT
  5
247B4
330
1F
100
AcDbEntity
  8
AM_0
100
AcDbBlockReference
  2
*U10
 10
4684.430286806473
 20
-1462.894710085883
 30
0.0
  0
TEXT
  5
247B5
330
1F
100
AcDbEntity
  8
AM_6
100
AcDbText
 10
4322.858786803135
 20
-1213.994710085883
 30
0.0
 40
3.2
  1
真鍮
 41
0.7
100
AcDbText
  0
TEXT
  5
247B6
330
1F
100
AcDbEntity
  8
AM_6
100
AcDbText
 10
4322.858786803135
 20
-1205.994710085883
 30
0.0
 40
3.2
  1
LB-3
 41
0.7
100
AcDbText
  0
LINE
  5
247B7
330
1F
100
AcDbEntity
  8
AM_1
100
AcDbLine
 10
4299.430286806473
 20
-1506.894710085882
 30
0.0
 11
4299.430286806473
 21
-1586.894710085882
 31
0.0
  0
LINE
  5
247B8
330
1F
100
AcDbEntity
  8
Defpoints
100
AcDbLine
 10
4865.930286806474
 20
-1180.894710085883
 30
0.0
 11
4854.430286806473
 21
-1180.894710085883
 31
0.0
  0
LINE
  5
247B9
330
1F
100
AcDbEntity
  8
Defpoints
100
AcDbLine
 10
4287.930286806473
 20
-1180.894710085883
 30
0.0
 11
4287.930286806473
 21
-1192.394710085883
 31
0.0
  0
LINE
  5
247BA
330
1F
100
AcDbEntity
  8
Defpoints
100
AcDbLine
 10
4287.930286806473
 20
-1180.894710085883
 30
0.0
 11
4299.430286806473
 21
-1180.894710085883
 31
0.0
  0
LINE
  5
247BB
330
1F
100
AcDbEntity
  8
Defpoints
100
AcDbLine
 10
4865.930286806474
 20
-1598.394710085883
 30
0.0
 11
4865.930286806474
 21
-1586.894710085883
 31
0.0
  0
LINE
  5
247BC
330
1F
100
AcDbEntity
  8
Defpoints
100
AcDbLine
 10
4865.930286806474
 20
-1598.394710085883
 30
0.0
 11
4854.430286806473
 21
-1598.394710085883
 31
0.0
  0
LINE
  5
247BD
330
1F
100
AcDbEntity
  8
Defpoints
100
AcDbLine
 10
4287.930286806473
 20
-1598.394710085883
 30
0.0
 11
4287.930286806473
 21
-1586.894710085883
 31
0.0
  0
LINE
  5
247BE
330
1F
100
AcDbEntity
  8
Defpoints
100
AcDbLine
 10
4287.930286806473
 20
-1598.394710085883
 30
0.0
 11
4299.430286806473
 21
-1598.394710085883
 31
0.0
  0
LINE
  5
247BF
330
1F
100
AcDbEntity
  8
AM_2
100
AcDbLine
 10
4319.430286806473
 20
-1240.394710085883
 30
0.0
 11
4440.944257367024
 21
-1240.394710085883
 31
0.0
  0
TEXT
  5
247C0
330
1F
100
AcDbEntity
  8
AM_6
100
AcDbText
 10
4322.858786803135
 20
-1197.994710085883
 30
0.0
 40
3.2
  1
打掛錠（引戸用）
 41
0.7
100
AcDbText
  0
LINE
  5
247C1
330
1F
100
AcDbEntity
  8
AM_0
100
AcDbLine
 10
4299.430286806474
 20
-1232.394710085883
 30
0.0
 11
4440.944257367026
 21
-1232.394710085883
 31
0.0
  0
CIRCLE
  5
247C2
330
1F
100
AcDbEntity
  8
AM_2
100
AcDbCircle
 10
4354.589899543319
 20
-1228.396062579336
 30
0.0
 40
2.0
  0
TEXT
  5
247C3
330
1F
100
AcDbEntity
  8
AM_6
100
AcDbText
 10
4303.008953473139
 20
-1229.888043419216
 30
0.0
 40
3.2
  1
セットビス
 41
0.7
 72
     4
 11
4309.430286806473
 21
-1228.394710085883
 31
0.0
100
AcDbText
  0
TEXT
  5
247C4
330
1F
100
AcDbEntity
  8
AM_6
100
AcDbText
 10
4323.06209088529
 20
-1229.994710085883
 30
0.0
 40
3.2
  1
M4×12  サラ小ネジ　＋　SUS：2本（本体用）
 41
0.7
100
AcDbText
  0
TEXT
  5
247C5
330
1F
100
AcDbEntity
  8
AM_6
100
AcDbText
 10
4321.858786803136
 20
-1237.994710085884
 30
0.0
 40
3.2
  1
適用扉厚 36～40mm
 41
0.7
100
AcDbText
  0
TEXT
  5
247C6
330
1F
100
AcDbEntity
  8
AM_6
100
AcDbText
 10
4321.858786803136
 20
-1253.994710085884
 30
0.0
 40
3.2
  1
非常解錠付
 41
0.7
100
AcDbText
  0
TEXT
  5
247C7
330
1F
100
AcDbEntity
  8
AM_6
100
AcDbText
 10
4321.858786803136
 20
-1245.994710085884
 30
0.0
 40
3.2
  1
受付
 41
0.7
100
AcDbText
  0
MTEXT
  5
247C8
330
1F
100
AcDbEntity
  8
AM_6
100
AcDbMText
 10
4720.25724566891
 20
-1555.376645951453
 30
0.0
 40
3.2
 41
58.43156059152625
 71
     5
 72
     5
  1
{\L受}
 73
     1
 44
1.0
1001
ACAD
1000
MTEXTBEGIN
1070
    73
1070
     1
1070
    44
1040
1.0
1070
    74
1070
     0
1000
MTEXTEND
  0
LINE
  5
247C9
330
1F
100
AcDbEntity
  8
0
  6
Continuous
 62
     7
100
AcDbLine
 10
4360.941121546711
 20
-1443.535372316995
 30
0.0
 11
4470.941132546712
 21
-1443.535372316995
 31
0.0
  0
LINE
  5
247CA
330
1F
100
AcDbEntity
  8
0
  6
Continuous
 62
     7
100
AcDbLine
 10
4395.941121546711
 20
-1423.535372316995
 30
0.0
 11
4415.941141546711
 21
-1423.535372316995
 31
0.0
  0
LINE
  5
247CB
330
1F
100
AcDbEntity
  8
0
  6
Continuous
 62
     7
100
AcDbLine
 10
4355.941121546711
 20
-1424.535372316995
 30
0.0
 11
4355.941121546711
 21
-1438.535372316995
 31
0.0
  0
LINE
  5
247CC
330
1F
100
AcDbEntity
  8
0
  6
Continuous
 62
     7
100
AcDbLine
 10
4475.941132546711
 20
-1429.535372316995
 30
0.0
 11
4475.941132546711
 21
-1438.535372316995
 31
0.0
  0
LINE
  5
247CD
330
1F
100
AcDbEntity
  8
0
  6
Continuous
 62
     7
100
AcDbLine
 10
4355.941121546711
 20
-1424.535372316995
 30
0.0
 11
4395.941121546711
 21
-1423.535372316995
 31
0.0
  0
LINE
  5
247CE
330
1F
100
AcDbEntity
  8
0
  6
Continuous
 62
     7
100
AcDbLine
 10
4415.941121546711
 20
-1423.535372316995
 30
0.0
 11
4452.941124546711
 21
-1424.152042316995
 31
0.0
  0
LINE
  5
247CF
330
1F
100
AcDbEntity
  8
0
  6
Continuous
 62
     7
100
AcDbLine
 10
4400.941121546711
 20
-1379.535352316995
 30
0.0
 11
4410.941141546711
 21
-1379.535352316995
 31
0.0
  0
LINE
  5
247D0
330
1F
100
AcDbEntity
  8
0
  6
Continuous
 62
     7
100
AcDbLine
 10
4410.941141546711
 20
-1377.035352316995
 30
0.0
 11
4410.941141546711
 21
-1405.385362316995
 31
0.0
  0
LINE
  5
247D1
330
1F
100
AcDbEntity
  8
0
  6
Continuous
 62
     7
100
AcDbLine
 10
4400.941121546711
 20
-1377.035352316995
 30
0.0
 11
4400.941121546711
 21
-1405.385362316995
 31
0.0
  0
LINE
  5
247D2
330
1F
100
AcDbEntity
  8
0
  6
Continuous
 62
     7
100
AcDbLine
 10
4374.941121546711
 20
-1365.035352316995
 30
0.0
 11
4374.941121546711
 21
-1377.035352316995
 31
0.0
  0
LINE
  5
247D3
330
1F
100
AcDbEntity
  8
AM_7
 48
0.5
100
AcDbLine
 10
4405.941121546711
 20
-1360.035352316995
 30
0.0
 11
4405.941121546711
 21
-1446.535372316995
 31
0.0
  0
LINE
  5
247D4
330
1F
100
AcDbEntity
  8
AM_0
100
AcDbLine
 10
4355.941121546711
 20
-1507.920825452905
 30
0.0
 11
4355.941121546711
 21
-1513.920825452905
 31
0.0
  0
LINE
  5
247D5
330
1F
100
AcDbEntity
  8
AM_0
100
AcDbLine
 10
4475.941132546711
 20
-1507.920825452905
 30
0.0
 11
4475.941132546711
 21
-1513.920825452905
 31
0.0
  0
LINE
  5
247D6
330
1F
100
AcDbEntity
  8
AM_0
100
AcDbLine
 10
4357.941121546711
 20
-1505.920825452905
 30
0.0
 11
4473.941132546712
 21
-1505.920825452905
 31
0.0
  0
LINE
  5
247D7
330
1F
100
AcDbEntity
  8
0
  6
Continuous
 62
     7
100
AcDbLine
 10
4457.941132546712
 20
-1435.535372316995
 30
0.0
 11
4467.941132546711
 21
-1435.535372316995
 31
0.0
  0
LINE
  5
247D8
330
1F
100
AcDbEntity
  8
0
  6
Continuous
 62
     7
100
AcDbLine
 10
4467.941132546711
 20
-1429.535372316995
 30
0.0
 11
4475.941132546711
 21
-1429.535372316995
 31
0.0
  0
LINE
  5
247D9
330
1F
100
AcDbEntity
  8
0
  6
Continuous
 62
     7
100
AcDbLine
 10
4467.941132546711
 20
-1429.535372316995
 30
0.0
 11
4467.941132546711
 21
-1435.535372316995
 31
0.0
  0
LINE
  5
247DA
330
1F
100
AcDbEntity
  8
0
  6
Continuous
 62
     7
100
AcDbLine
 10
4452.941139546712
 20
-1424.152042316995
 30
0.0
 11
4457.941139546712
 21
-1435.535372316995
 31
0.0
  0
LINE
  5
247DB
330
1F
100
AcDbEntity
  8
AM_7
 48
0.5
100
AcDbLine
 10
4405.941121546711
 20
-1482.920825452905
 30
0.0
 11
4405.941121546711
 21
-1538.920825952906
 31
0.0
  0
LINE
  5
247DC
330
1F
100
AcDbEntity
  8
0
  6
Continuous
 62
     7
100
AcDbLine
 10
4402.941121546711
 20
-1362.535352316995
 30
0.0
 11
4404.941121546712
 21
-1362.535352316995
 31
0.0
  0
LINE
  5
247DD
330
1F
100
AcDbEntity
  8
0
  6
Continuous
 62
     7
100
AcDbLine
 10
4430.941131546711
 20
-1417.035372316995
 30
0.0
 11
4430.941131546711
 21
-1420.035372316995
 31
0.0
  0
LINE
  5
247DE
330
1F
100
AcDbEntity
  8
0
  6
Continuous
 62
     7
100
AcDbLine
 10
4380.941121546711
 20
-1417.035372316995
 30
0.0
 11
4380.941121546711
 21
-1420.035372316995
 31
0.0
  0
LINE
  5
247DF
330
1F
100
AcDbEntity
  8
0
  6
Continuous
 62
     7
100
AcDbLine
 10
4382.941121546712
 20
-1422.035372316995
 30
0.0
 11
4428.941131546711
 21
-1422.035372316995
 31
0.0
  0
LINE
  5
247E0
330
1F
100
AcDbEntity
  8
0
  6
Continuous
 62
     7
100
AcDbLine
 10
4415.941141546711
 20
-1422.035372316995
 30
0.0
 11
4415.941141546711
 21
-1423.535372316995
 31
0.0
  0
LINE
  5
247E1
330
1F
100
AcDbEntity
  8
0
  6
Continuous
 62
     7
100
AcDbLine
 10
4395.941121546711
 20
-1422.035372316995
 30
0.0
 11
4395.941121546711
 21
-1423.535372316995
 31
0.0
  0
LINE
  5
247E2
330
1F
100
AcDbEntity
  8
0
  6
Continuous
 62
     7
100
AcDbLine
 10
4414.441141546711
 20
-1405.385362316995
 30
0.0
 11
4414.441141546711
 21
-1406.535372316995
 31
0.0
  0
LINE
  5
247E3
330
1F
100
AcDbEntity
  8
0
  6
Continuous
 62
     7
100
AcDbLine
 10
4414.416131546711
 20
-1406.535382316995
 30
0.0
 11
4414.941121546712
 21
-1417.035382316995
 31
0.0
  0
LINE
  5
247E4
330
1F
100
AcDbEntity
  8
0
  6
Continuous
 62
     7
100
AcDbLine
 10
4397.46613154671
 20
-1406.535352316995
 30
0.0
 11
4396.941121546712
 21
-1417.035352316995
 31
0.0
  0
LINE
  5
247E5
330
1F
100
AcDbEntity
  8
AM_7
 48
0.5
100
AcDbLine
 10
4390.941121546712
 20
-1379.035352316995
 30
0.0
 11
4390.941121546712
 21
-1425.035372316995
 31
0.0
  0
LINE
  5
247E6
330
1F
100
AcDbEntity
  8
0
  6
Continuous
 62
     7
100
AcDbLine
 10
4397.441121546711
 20
-1405.385362316995
 30
0.0
 11
4397.441121546711
 21
-1406.535372316995
 31
0.0
  0
LINE
  5
247E7
330
1F
100
AcDbEntity
  8
0
  6
Continuous
 62
     7
100
AcDbLine
 10
4397.441121546711
 20
-1405.385362316995
 30
0.0
 11
4414.441141546711
 21
-1405.385362316995
 31
0.0
  0
LINE
  5
247E8
330
1F
100
AcDbEntity
  8
0
  6
Continuous
 62
     7
100
AcDbLine
 10
4397.46613154671
 20
-1406.535372316995
 30
0.0
 11
4414.441141546711
 21
-1406.535372316995
 31
0.0
  0
LINE
  5
247E9
330
1F
100
AcDbEntity
  8
0
  6
Continuous
 62
     7
100
AcDbLine
 10
4380.941121546711
 20
-1417.035372316995
 30
0.0
 11
4430.941131546711
 21
-1417.035372316995
 31
0.0
  0
LINE
  5
247EA
330
1F
100
AcDbEntity
  8
AM_0
100
AcDbLine
 10
4357.941121546711
 20
-1515.920825452905
 30
0.0
 11
4473.941132546712
 21
-1515.920825452905
 31
0.0
  0
LINE
  5
247EB
330
1F
100
AcDbEntity
  8
0
  6
Continuous
 62
     7
100
AcDbLine
 10
4404.941121546712
 20
-1362.535352316995
 30
0.0
 11
4404.941121546712
 21
-1363.035352316995
 31
0.0
  0
LINE
  5
247EC
330
1F
100
AcDbEntity
  8
0
  6
Continuous
 62
     7
100
AcDbLine
 10
4402.941121546711
 20
-1362.535352316995
 30
0.0
 11
4402.441121546711
 21
-1363.035352316995
 31
0.0
  0
LINE
  5
247ED
330
1F
100
AcDbEntity
  8
0
  6
Continuous
 62
     7
100
AcDbLine
 10
4404.941121546712
 20
-1363.035352316995
 30
0.0
 11
4405.941121546711
 21
-1363.035352316995
 31
0.0
  0
LINE
  5
247EE
330
1F
100
AcDbEntity
  8
0
  6
Continuous
 62
     7
100
AcDbLine
 10
4436.941131546711
 20
-1365.035352316995
 30
0.0
 11
4436.941131546711
 21
-1377.035352316995
 31
0.0
  0
LINE
  5
247EF
330
1F
100
AcDbEntity
  8
0
  6
Continuous
 62
     7
100
AcDbLine
 10
4374.941121546711
 20
-1377.035352316995
 30
0.0
 11
4436.941131546711
 21
-1377.035352316995
 31
0.0
  0
LINE
  5
247F0
330
1F
100
AcDbEntity
  8
0
  6
Continuous
 62
     7
100
AcDbLine
 10
4434.941131546711
 20
-1363.035352316995
 30
0.0
 11
4376.941121546711
 21
-1363.035352316995
 31
0.0
  0
LINE
  5
247F1
330
1F
100
AcDbEntity
  8
0
  6
Continuous
 62
     7
100
AcDbLine
 10
4387.941121546711
 20
-1382.035352316995
 30
0.0
 11
4393.941121546712
 21
-1382.035352316995
 31
0.0
  0
LINE
  5
247F2
330
1F
100
AcDbEntity
  8
0
  6
Continuous
 62
     7
100
AcDbLine
 10
4393.941121546712
 20
-1382.035352316995
 30
0.0
 11
4393.941121546712
 21
-1417.035372316995
 31
0.0
  0
LINE
  5
247F3
330
1F
100
AcDbEntity
  8
0
  6
Continuous
 62
     7
100
AcDbLine
 10
4387.941121546711
 20
-1382.035352316995
 30
0.0
 11
4387.941121546711
 21
-1417.035372316995
 31
0.0
  0
LINE
  5
247F4
330
1F
100
AcDbEntity
  8
AM_7
 48
0.5
100
AcDbLine
 10
4656.609796185749
 20
-1299.001355528886
 30
0.0
 11
4701.609796185749
 21
-1299.001355528886
 31
0.0
  0
LINE
  5
247F5
330
1F
100
AcDbEntity
  8
AM_0
100
AcDbLine
 10
4581.215741700233
 20
-1495.643081452906
 30
0.0
 11
4575.725111700232
 21
-1502.186569452905
 31
0.0
  0
LINE
  5
247F6
330
1F
100
AcDbEntity
  8
AM_7
 48
0.5
100
AcDbLine
 10
4568.396191700233
 20
-1476.920822452906
 30
0.0
 11
4568.396191700233
 21
-1544.920825932905
 31
0.0
  0
LINE
  5
247F7
330
1F
100
AcDbEntity
  8
AM_0
100
AcDbLine
 10
4555.576651700233
 20
-1495.643085452905
 30
0.0
 11
4561.067281700233
 21
-1502.186584452906
 31
0.0
  0
LINE
  5
247F8
330
1F
100
AcDbEntity
  8
AM_0
100
AcDbLine
 10
4569.396191700232
 20
-1507.514575452905
 30
0.0
 11
4569.396191700232
 21
-1514.327075452905
 31
0.0
  0
LINE
  5
247F9
330
1F
100
AcDbEntity
  8
AM_0
100
AcDbLine
 10
4567.396191700232
 20
-1507.514575452905
 30
0.0
 11
4567.396191700232
 21
-1514.327075452905
 31
0.0
  0
LINE
  5
247FA
330
1F
100
AcDbEntity
  8
AM_7
 48
0.5
100
AcDbLine
 10
4679.109796185749
 20
-1285.001355528886
 30
0.0
 11
4679.109796185749
 21
-1313.001355528886
 31
0.0
  0
LINE
  5
247FB
330
1F
100
AcDbEntity
  8
AM_7
 48
0.5
100
AcDbLine
 10
4694.109796185749
 20
-1291.501355528886
 30
0.0
 11
4694.109796185749
 21
-1306.501355528886
 31
0.0
  0
LINE
  5
247FC
330
1F
100
AcDbEntity
  8
AM_7
 48
0.5
100
AcDbLine
 10
4664.10979618575
 20
-1291.501355528886
 30
0.0
 11
4664.10979618575
 21
-1306.501355528886
 31
0.0
  0
LINE
  5
247FD
330
1F
100
AcDbEntity
  8
0
  6
Continuous
 62
     7
100
AcDbLine
 10
4423.941131546711
 20
-1382.035352316995
 30
0.0
 11
4417.941131546711
 21
-1382.035352316995
 31
0.0
  0
LINE
  5
247FE
330
1F
100
AcDbEntity
  8
0
  6
Continuous
 62
     7
100
AcDbLine
 10
4417.941131546711
 20
-1382.035352316995
 30
0.0
 11
4417.941131546711
 21
-1417.035372316995
 31
0.0
  0
LINE
  5
247FF
330
1F
100
AcDbEntity
  8
0
  6
Continuous
 62
     7
100
AcDbLine
 10
4423.941131546711
 20
-1382.035352316995
 30
0.0
 11
4423.941131546711
 21
-1417.035372316995
 31
0.0
  0
LINE
  5
24800
330
1F
100
AcDbEntity
  8
AM_7
 48
0.5
100
AcDbLine
 10
4352.941121546711
 20
-1510.920825452905
 30
0.0
 11
4478.941132546712
 21
-1510.920825452905
 31
0.0
  0
LINE
  5
24801
330
1F
100
AcDbEntity
  8
0
  6
Continuous
 62
     7
100
AcDbLine
 10
4408.941121546711
 20
-1362.535352316995
 30
0.0
 11
4406.941121546712
 21
-1362.535352316995
 31
0.0
  0
LINE
  5
24802
330
1F
100
AcDbEntity
  8
0
  6
Continuous
 62
     7
100
AcDbLine
 10
4406.941121546712
 20
-1362.535352316995
 30
0.0
 11
4406.941121546712
 21
-1363.035352316995
 31
0.0
  0
LINE
  5
24803
330
1F
100
AcDbEntity
  8
0
  6
Continuous
 62
     7
100
AcDbLine
 10
4408.941121546711
 20
-1362.535382316995
 30
0.0
 11
4409.441121546712
 21
-1363.035352316995
 31
0.0
  0
LINE
  5
24804
330
1F
100
AcDbEntity
  8
AM_7
 48
0.5
100
AcDbLine
 10
4420.941131546711
 20
-1379.035352316995
 30
0.0
 11
4420.941131546711
 21
-1425.035372316995
 31
0.0
  0
LINE
  5
24805
330
1F
100
AcDbEntity
  8
AM_7
 48
0.5
100
AcDbLine
 10
4534.396191700232
 20
-1510.920825452905
 30
0.0
 11
4602.396191700232
 21
-1510.920825452905
 31
0.0
  0
LINE
  5
24806
330
1F
100
AcDbEntity
  8
0
  6
Continuous
 62
     7
100
AcDbLine
 10
4405.941121546711
 20
-1377.035352316995
 30
0.0
 11
4405.941141546711
 21
-1379.535352316995
 31
0.0
  0
ARC
  5
24807
330
1F
100
AcDbEntity
  8
AM_0
100
AcDbCircle
 10
4473.941132546712
 20
-1507.920825452905
 30
0.0
 40
2.0
100
AcDbArc
 50
0.0
 51
90.0
  0
ARC
  5
24808
330
1F
100
AcDbEntity
  8
AM_0
100
AcDbCircle
 10
4473.941132546712
 20
-1513.920825452905
 30
0.0
 40
2.0
100
AcDbArc
 50
270.0
 51
0.0
  0
ARC
  5
24809
330
1F
100
AcDbEntity
  8
AM_0
100
AcDbCircle
 10
4357.941121546711
 20
-1507.920825452905
 30
0.0
 40
2.0
100
AcDbArc
 50
90.0
 51
180.0
  0
ARC
  5
2480A
330
1F
100
AcDbEntity
  8
AM_0
100
AcDbCircle
 10
4357.941121546711
 20
-1513.920825452905
 30
0.0
 40
2.0
100
AcDbArc
 50
180.0
 51
270.0
  0
ARC
  5
2480B
330
1F
100
AcDbEntity
  8
AM_0
100
AcDbCircle
 10
4405.941121546711
 20
-1510.920825452905
 30
0.0
 40
25.0
100
AcDbArc
 50
11.53695999999627
 51
168.4630400000037
  0
ARC
  5
2480C
330
1F
100
AcDbEntity
  8
AM_0
100
AcDbCircle
 10
4405.941121546711
 20
-1510.920825452905
 30
0.0
 40
8.5
100
AcDbArc
 50
36.03184999999953
 51
143.9681500000004
  0
ARC
  5
2480D
330
1F
100
AcDbEntity
  8
AM_0
100
AcDbCircle
 10
4405.941121546711
 20
-1510.920825452905
 30
0.0
 40
8.5
100
AcDbArc
 50
216.0318499999995
 51
323.9681500000005
  0
ARC
  5
2480E
330
1F
100
AcDbEntity
  8
AM_0
100
AcDbCircle
 10
4405.941121546711
 20
-1510.920825452905
 30
0.0
 40
25.0
100
AcDbArc
 50
191.5369599999962
 51
348.4630400000037
  0
ARC
  5
2480F
330
1F
100
AcDbEntity
  8
0
  6
Continuous
 62
     7
100
AcDbCircle
 10
4360.941121546711
 20
-1438.535372316995
 30
0.0
 40
5.0
100
AcDbArc
 50
180.0
 51
270.0
  0
ARC
  5
24810
330
1F
100
AcDbEntity
  8
0
  6
Continuous
 62
     7
100
AcDbCircle
 10
4470.941132546712
 20
-1438.535372316995
 30
0.0
 40
5.0
100
AcDbArc
 50
270.0
 51
0.0
  0
ARC
  5
24811
330
1F
100
AcDbEntity
  8
0
  6
Continuous
 62
     7
100
AcDbCircle
 10
4428.941131546711
 20
-1420.035372316995
 30
0.0
 40
2.0
100
AcDbArc
 50
270.0
 51
0.0
  0
ARC
  5
24812
330
1F
100
AcDbEntity
  8
0
  6
Continuous
 62
     7
100
AcDbCircle
 10
4382.941121546712
 20
-1420.035372316995
 30
0.0
 40
2.0
100
AcDbArc
 50
180.0
 51
270.0
  0
ARC
  5
24813
330
1F
100
AcDbEntity
  8
0
  6
Continuous
 62
     7
100
AcDbCircle
 10
4376.941121546711
 20
-1365.035352316995
 30
0.0
 40
2.0
100
AcDbArc
 50
90.0
 51
180.0
  0
ARC
  5
24814
330
1F
100
AcDbEntity
  8
0
  6
Continuous
 62
     7
100
AcDbCircle
 10
4434.941131546711
 20
-1365.035352316995
 30
0.0
 40
2.0
100
AcDbArc
 50
0.0
 51
90.0
  0
CIRCLE
  5
24815
330
1F
100
AcDbEntity
  8
AM_0
100
AcDbCircle
 10
4568.396191700233
 20
-1510.920825452905
 30
0.0
 40
31.0
  0
ARC
  5
24816
330
1F
100
AcDbEntity
  8
AM_0
100
AcDbCircle
 10
4568.396191700233
 20
-1510.920825452905
 30
0.0
 40
10.0
100
AcDbArc
 50
57.49468800000458
 51
122.505310000004
  0
ARC
  5
24817
330
1F
100
AcDbEntity
  8
AM_0
100
AcDbCircle
 10
4568.396191700233
 20
-1510.920825452905
 30
0.0
 40
21.5
100
AcDbArc
 50
54.30119500001791
 51
125.6987999999815
  0
ARC
  5
24818
330
1F
100
AcDbEntity
  8
AM_0
100
AcDbCircle
 10
4580.066671700233
 20
-1494.678913452905
 30
0.0
 40
1.5
100
AcDbArc
 50
320.0003300000062
 51
54.30155799998348
  0
ARC
  5
24819
330
1F
100
AcDbEntity
  8
AM_0
100
AcDbCircle
 10
4574.576031700233
 20
-1501.222400452905
 30
0.0
 40
1.5
100
AcDbArc
 50
237.4949200000091
 51
320.0003300000062
  0
ARC
  5
2481A
330
1F
100
AcDbEntity
  8
AM_0
100
AcDbCircle
 10
4556.725691700232
 20
-1494.678913452905
 30
0.0
 40
1.5
100
AcDbArc
 50
125.6984399999883
 51
219.9996699999938
  0
ARC
  5
2481B
330
1F
100
AcDbEntity
  8
AM_0
100
AcDbCircle
 10
4562.216351700232
 20
-1501.222400452905
 30
0.0
 40
1.5
100
AcDbArc
 50
219.9996699999938
 51
302.5050799999907
  0
CIRCLE
  5
2481C
330
1F
100
AcDbEntity
  8
AM_0
100
AcDbCircle
 10
4568.396191700233
 20
-1510.920825452905
 30
0.0
 40
3.549999999999998
  0
CIRCLE
  5
2481D
330
1F
100
AcDbEntity
  8
AM_0
100
AcDbCircle
 10
4568.396191700233
 20
-1510.920825452905
 30
0.0
 40
6.0
  0
ARC
  5
2481E
330
1F
100
AcDbEntity
  8
AM_11
 48
0.2
100
AcDbCircle
 10
4679.109796185749
 20
-1299.001355528886
 30
0.0
 40
11.0
100
AcDbArc
 50
170.7946071199182
 51
189.2053928800818
  0
ARC
  5
2481F
330
1F
100
AcDbEntity
  8
AM_0
100
AcDbCircle
 10
4679.109796185749
 20
-1299.001355528886
 30
0.0
 40
11.0
100
AcDbArc
 50
189.2053928800818
 51
350.7946071199182
  0
ARC
  5
24820
330
1F
100
AcDbEntity
  8
AM_0
100
AcDbCircle
 10
4679.109796185749
 20
-1299.001355528886
 30
0.0
 40
11.0
100
AcDbArc
 50
9.205392880081793
 51
170.7946071199182
  0
ARC
  5
24821
330
1F
100
AcDbEntity
  8
AM_0
100
AcDbCircle
 10
4694.109796185749
 20
-1299.001355528886
 30
0.0
 40
4.5
100
AcDbArc
 50
203.0197122554062
 51
156.9802877445938
  0
ARC
  5
24822
330
1F
100
AcDbEntity
  8
AM_0
100
AcDbCircle
 10
4664.10979618575
 20
-1299.001355528886
 30
0.0
 40
4.5
100
AcDbArc
 50
23.01971225537149
 51
336.9802877446283
  0
ARC
  5
24823
330
1F
100
AcDbEntity
  8
AM_11
 48
0.2
100
AcDbCircle
 10
4664.10979618575
 20
-1299.001355528886
 30
0.0
 40
4.5
100
AcDbArc
 50
336.9802877446283
 51
23.01971225537149
  0
DIMENSION
  5
24824
330
1F
100
AcDbEntity
  8
AM_5
100
AcDbDimension
  2
*D136
 10
4420.941131546711
 20
-1353.035352316995
 30
0.0
 11
4405.941126546712
 21
-1350.435352316995
 31
0.0
 70
    32
 71
     5
 42
30.00000999999975
  3
DIMSTYLE
100
AcDbAlignedDimension
 13
4390.941121546712
 23
-1379.035352316995
 33
0.0
 14
4420.941131546711
 24
-1379.035352316995
 34
0.0
100
AcDbRotatedDimension
1001
ACAD
1000
DSTYLE
1002
{
1070
   271
1070
     0
1070
   147
1040
1.0
1070
   177
1070
   256
1070
    42
1040
1.0
1070
    44
1040
1.0
1070
    41
1040
1.0
1070
   343
1005
6C4
1070
   344
1005
6C4
1070
   178
1070
     2
1070
    77
1070
     1
1070
   172
1070
     1
1002
}
  0
DIMENSION
  5
24825
330
1F
100
AcDbEntity
  8
AM_5
100
AcDbDimension
  2
*D137
 10
4345.941121546712
 20
-1417.035372316995
 30
0.0
 11
4343.341121546711
 21
-1430.285372316994
 31
0.0
 70
    32
 71
     5
 42
26.5
  3
DIMSTYLE
100
AcDbAlignedDimension
 13
4355.941121546711
 23
-1443.535372316995
 33
0.0
 14
4380.941121546711
 24
-1417.035372316995
 34
0.0
 50
90.0
100
AcDbRotatedDimension
1001
ACAD
1000
DSTYLE
1002
{
1070
   271
1070
     1
1070
   147
1040
1.0
1070
   177
1070
   256
1070
    42
1040
1.0
1070
    44
1040
1.0
1070
    41
1040
1.0
1070
   343
1005
6C4
1070
   344
1005
6C4
1070
   178
1070
     2
1070
    77
1070
     1
1070
   172
1070
     1
1002
}
  0
DIMENSION
  5
24826
330
1F
100
AcDbEntity
  8
AM_5
100
AcDbDimension
  2
*D138
 10
4345.941121546712
 20
-1382.035352316995
 30
0.0
 11
4343.341121546711
 21
-1399.535362316995
 31
0.0
 70
    32
 71
     5
 42
35.00001999999995
  3
DIMSTYLE
100
AcDbAlignedDimension
 13
4380.941121546711
 23
-1417.035372316995
 33
0.0
 14
4387.941121546711
 24
-1382.035352316995
 34
0.0
 50
90.0
100
AcDbRotatedDimension
1001
ACAD
1000
DSTYLE
1002
{
1070
   271
1070
     0
1070
   147
1040
1.0
1070
   177
1070
   256
1070
    42
1040
1.0
1070
    44
1040
1.0
1070
    41
1040
1.0
1070
   343
1005
6C4
1070
   344
1005
6C4
1070
   178
1070
     2
1070
    77
1070
     1
1070
   172
1070
     1
1070
    75
1070
     1
1002
}
  0
DIMENSION
  5
24827
330
1F
100
AcDbEntity
  8
AM_5
100
AcDbDimension
  2
*D139
 10
4345.941121546712
 20
-1377.035352316995
 30
0.0
 11
4343.341121546711
 21
-1370.035352316995
 31
0.0
 70
    32
 71
     5
 42
14.0
  3
DIMSTYLE
100
AcDbAlignedDimension
 13
4374.941121546711
 23
-1363.035352316995
 33
0.0
 14
4374.941121546711
 24
-1377.035352316995
 34
0.0
 50
90.0
100
AcDbRotatedDimension
1001
ACAD
1000
DSTYLE
1002
{
1070
   271
1070
     0
1070
   147
1040
1.0
1070
   177
1070
   256
1070
    42
1040
1.0
1070
    44
1040
1.0
1070
    41
1040
1.0
1070
   343
1005
6C4
1070
   344
1005
6C4
1070
   178
1070
     2
1070
    77
1070
     1
1070
   172
1070
     1
1002
}
  0
DIMENSION
  5
24828
330
1F
100
AcDbEntity
  8
AM_5
100
AcDbDimension
  2
*D140
 10
4485.941132546712
 20
-1515.920825452905
 30
0.0
 11
4483.341132546711
 21
-1510.920825452905
 31
0.0
 70
    32
 71
     5
 42
10.0
  3
DIMSTYLE
100
AcDbAlignedDimension
 13
4473.941132546712
 23
-1505.920825452905
 33
0.0
 14
4473.941132546712
 24
-1515.920825452905
 34
0.0
 50
90.0
100
AcDbRotatedDimension
1001
ACAD
1000
DSTYLE
1002
{
1070
   271
1070
     0
1070
   147
1040
1.0
1070
   177
1070
   256
1070
    42
1040
1.0
1070
    44
1040
1.0
1070
    41
1040
1.0
1070
   343
1005
6C4
1070
   344
1005
6C4
1070
   178
1070
     2
1070
    77
1070
     1
1070
   172
1070
     1
1002
}
  0
DIMENSION
  5
24829
330
1F
100
AcDbEntity
  8
AM_5
100
AcDbDimension
  2
*D141
 10
4694.109796185749
 20
-1320.001355528886
 30
0.0
 11
4679.109796185749
 21
-1317.401355528886
 31
0.0
 70
    32
 71
     5
 42
30.0
  3
DIMSTYLE
100
AcDbAlignedDimension
 13
4664.10979618575
 23
-1306.501355528886
 33
0.0
 14
4694.109796185749
 24
-1306.501355528886
 34
0.0
100
AcDbRotatedDimension
1001
ACAD
1000
DSTYLE
1002
{
1070
   271
1070
     0
1070
   147
1040
1.0
1070
   177
1070
   256
1070
    42
1040
1.0
1070
    44
1040
1.0
1070
    41
1040
1.0
1070
   343
1005
6C4
1070
   344
1005
6C4
1070
   178
1070
     2
1070
    77
1070
     1
1070
   172
1070
     1
1002
}
  0
DIMENSION
  5
2482A
330
1F
100
AcDbEntity
  8
AM_5
100
AcDbDimension
  2
*D142
 10
4467.941132546711
 20
-1407.035372316995
 30
0.0
 11
4462.941132546712
 21
-1404.435372316995
 31
0.0
 70
    32
 71
     5
 42
10.0
  3
DIMSTYLE
100
AcDbAlignedDimension
 13
4457.941132546712
 23
-1435.535372316995
 33
0.0
 14
4467.941132546711
 24
-1429.535372316995
 34
0.0
100
AcDbRotatedDimension
1001
ACAD
1000
DSTYLE
1002
{
1070
   271
1070
     0
1070
   147
1040
1.0
1070
   177
1070
   256
1070
    42
1040
1.0
1070
    44
1040
1.0
1070
    41
1040
1.0
1070
   343
1005
6C4
1070
   344
1005
6C4
1070
   178
1070
     2
1070
    77
1070
     1
1070
   172
1070
     1
1002
}
  0
DIMENSION
  5
2482B
330
1F
100
AcDbEntity
  8
AM_5
100
AcDbDimension
  2
*D143
 10
4345.941121546712
 20
-1535.920825452905
 30
0.0
 11
4342.841121546711
 21
-1510.920825452905
 31
0.0
 70
    32
  1
%%c<>
 71
     5
 42
50.0
  3
SYS$0
100
AcDbAlignedDimension
 13
4400.941121546713
 23
-1485.920825452905
 33
0.0
 14
4400.941121546713
 24
-1535.920825452905
 34
0.0
 50
90.0
100
AcDbRotatedDimension
  0
INSERT
  5
2482C
330
1F
100
AcDbEntity
  8
AM_5
 48
0.5
100
AcDbBlockReference
  2
*S39
 10
636.6264606998334
 20
-1002.198002951754
 30
0.0
  0
DIMENSION
  5
2482D
330
1F
100
AcDbEntity
  8
AM_5
100
AcDbDimension
  2
*D144
 10
4527.396191700232
 20
-1541.920825452905
 30
0.0
 11
4527.396191700232
 21
-1510.920825452905
 31
0.0
 70
   160
  1
%%c<>
 71
     5
 42
62.0
  3
SYS$0
100
AcDbAlignedDimension
 13
4558.396191700232
 23
-1479.920825452905
 33
0.0
 14
4558.396191700232
 24
-1541.920825452905
 34
0.0
 50
90.0
100
AcDbRotatedDimension
  0
DIMENSION
  5
2482E
330
1F
100
AcDbEntity
  8
AM_5
100
AcDbDimension
  2
*D145
 10
4666.674695476268
 20
-1302.69882650639
 30
0.0
 11
4653.290503876834
 21
-1290.843113549277
 31
0.0
 70
   163
  1
2-<>
 71
     5
 42
8.999999999999545
  3
SYS$3
100
AcDbDiametricDimension
 15
4661.544896895224
 25
-1295.303884551383
 35
0.0
 40
0.0
1001
ACAD
1000
DSTYLE
1002
{
1070
   147
1040
1.0
1070
   140
1040
3.2
1070
    41
1040
1.0
1070
   172
1070
     1
1070
   342
1005
6C4
1002
}
  0
DIMENSION
  5
2482F
330
1F
100
AcDbEntity
  8
AM_5
100
AcDbDimension
  2
*D146
 10
4685.197432530491
 20
-1308.163270379735
 30
0.0
 11
4665.942228047483
 21
-1284.943264823968
 31
0.0
 70
   163
 71
     5
 42
22.0
  3
SYS$3
100
AcDbDiametricDimension
 15
4673.022159841008
 25
-1289.83944067804
 35
0.0
 40
0.0
1001
ACAD
1000
DSTYLE
1002
{
1070
    41
1040
1.0
1070
   343
1005
6C4
1070
   342
1005
0
1070
   173
1070
     1
1070
   344
1005
6C4
1070
   147
1040
1.0
1070
   140
1040
3.2
1070
   172
1070
     1
1002
}
  0
ARC
  5
24830
330
1F
100
AcDbEntity
  8
AM_11
 48
0.2
100
AcDbCircle
 10
4679.109796185749
 20
-1299.001355528886
 30
0.0
 40
11.0
100
AcDbArc
 50
350.7946071199182
 51
9.205392880081793
  0
ARC
  5
24831
330
1F
100
AcDbEntity
  8
AM_11
 48
0.2
100
AcDbCircle
 10
4694.10979618575
 20
-1299.001355528886
 30
0.0
 40
4.5
100
AcDbArc
 50
156.9802877446284
 51
203.0197122553715
  0
HATCH
  5
24832
330
1F
100
AcDbEntity
  8
AM_8
100
AcDbHatch
 10
0.0
 20
0.0
 30
0.0
210
0.0
220
0.0
230
1.0
  2
_U
 70
     0
 71
     0
 91
        1
 92
        1
 93
        4
 72
     2
 10
4679.109796185749
 20
-1299.001355528886
 40
10.99999999999965
 50
189.2053928800843
 51
350.7946071199078
 73
     1
 72
     2
 10
4694.109796185749
 20
-1299.001355528886
 40
4.500000000000074
 50
203.0197122554024
 51
516.9802877445976
 73
     1
 72
     2
 10
4679.109796185749
 20
-1299.001355528886
 40
11.00000000000036
 50
9.205392880092185
 51
170.7946071199156
 73
     1
 72
     2
 10
4664.10979618575
 20
-1299.001355528886
 40
4.49999999999987
 50
23.01971225538146
 51
336.9802877446185
 73
     1
 97
        0
 75
     0
 76
     0
 52
45.0
 41
2.5
 77
     0
 78
     1
 53
45.0
 43
1190.279908664456
 44
-2537.64191802241
 45
-1.767766952966368
 46
1.767766952966368
 79
     0
 98
        1
 10
1168.715006457405
 20
-2042.499268423092
1001
GENIUS_GENOBJ-N-HTC_13
1002
{
1000
OWNER
1000
GEN
1002
}
1001
GENIUS_GENODEF_13
1002
{
1000
HIER
1070
     0
1002
}
1002
{
1000
MANEDIT
1070
     0
1002
}
1002
{
1000
NOSEL
1070
     0
1002
}
1002
{
1000
BEHIND
1070
     0
1002
}
1002
{
1000
OTHER
1070
     0
1002
}
1002
{
1000
REACTOR
1002
}
1001
GENIUS_GENHATCH_13
1002
{
1000
DATA
1040
45.0
1042
2.5
1000
_U
1070
     0
1011
4677.306071417242
1021
-1296.199444118938
1031
0.0
1002
}
1002
{
1000
UCS
1010
0.0
1020
0.0
1030
0.0
1010
1.0
1020
0.0
1030
0.0
1010
0.0
1020
1.0
1030
0.0
1002
}
  0
TEXT
  5
24834
330
1F
100
AcDbEntity
  8
AM_6
100
AcDbText
 10
4660.240777251082
 20
-1345.40715917423
 30
0.0
 40
4.0
  1
切欠推奨寸法（本体）
 41
0.8474110299999999
 72
     4
 11
4679.109796185749
 21
-1343.40715917423
 31
0.0
100
AcDbText
  0
LINE
  5
24835
330
1F
100
AcDbEntity
  8
AM_0
100
AcDbLine
 10
4683.502874352019
 20
-1458.611924031487
 30
0.0
 11
4689.50287435202
 21
-1458.611924031487
 31
0.0
  0
LINE
  5
24836
330
1F
100
AcDbEntity
  8
AM_0
100
AcDbLine
 10
4673.50287435202
 20
-1540.111927031486
 30
0.0
 11
4693.502874352019
 21
-1540.111927031486
 31
0.0
  0
LINE
  5
24837
330
1F
100
AcDbEntity
  8
AM_0
100
AcDbLine
 10
4813.01070940081
 20
-1235.001355528886
 30
0.0
 11
4813.01070940081
 21
-1307.001358528886
 31
0.0
  0
LINE
  5
24838
330
1F
100
AcDbEntity
  8
AM_0
100
AcDbLine
 10
4791.01070940081
 20
-1235.001355528886
 30
0.0
 11
4791.01070940081
 21
-1307.001358528886
 31
0.0
  0
LINE
  5
24839
330
1F
100
AcDbEntity
  8
AM_0
100
AcDbLine
 10
4791.01070940081
 20
-1235.001355528886
 30
0.0
 11
4813.01070940081
 21
-1235.001355528886
 31
0.0
  0
LINE
  5
2483A
330
1F
100
AcDbEntity
  8
AM_0
100
AcDbLine
 10
4791.01070940081
 20
-1307.001358528886
 30
0.0
 11
4813.01070940081
 21
-1307.001358528886
 31
0.0
  0
LINE
  5
2483B
330
1F
100
AcDbEntity
  8
AM_7
 48
0.5
100
AcDbLine
 10
4683.502874352019
 20
-1440.111926031487
 30
0.0
 11
4683.502874352019
 21
-1543.111927531487
 31
0.0
  0
LINE
  5
2483C
330
1F
100
AcDbEntity
  8
AM_7
 48
0.5
100
AcDbLine
 10
4676.471684352018
 20
-1451.611926031487
 30
0.0
 11
4690.53406435202
 21
-1451.611926031487
 31
0.0
  0
LINE
  5
2483D
330
1F
100
AcDbEntity
  8
AM_7
 48
0.5
100
AcDbLine
 10
4676.471684352018
 20
-1531.611927031486
 30
0.0
 11
4690.53406435202
 21
-1531.611927031486
 31
0.0
  0
LINE
  5
24845
330
1F
100
AcDbEntity
  8
AM_7
 48
0.5
100
AcDbLine
 10
4750.873399353885
 20
-1451.611926531487
 30
0.0
 11
4763.587457353884
 21
-1451.611926531487
 31
0.0
  0
LINE
  5
24847
330
1F
100
AcDbEntity
  8
AM_0
100
AcDbLine
 10
4671.50287435202
 20
-1445.111926031487
 30
0.0
 11
4671.50287435202
 21
-1538.111927031486
 31
0.0
  0
LINE
  5
24848
330
1F
100
AcDbEntity
  8
AM_0
100
AcDbLine
 10
4759.364786353885
 20
-1443.111926531487
 30
0.0
 11
4759.364786353885
 21
-1540.111927531486
 31
0.0
  0
LINE
  5
24849
330
1F
100
AcDbEntity
  8
AM_0
100
AcDbLine
 10
4754.364786353885
 20
-1445.111926531487
 30
0.0
 11
4754.364786353885
 21
-1538.111927531486
 31
0.0
  0
LINE
  5
2484A
330
1F
100
AcDbEntity
  8
AM_0
100
AcDbLine
 10
4775.864786353885
 20
-1456.611924531486
 30
0.0
 11
4775.864786353885
 21
-1526.611927531486
 31
0.0
  0
LINE
  5
2484B
330
1F
100
AcDbEntity
  8
AM_0
100
AcDbLine
 10
4756.364786353885
 20
-1540.111927531486
 30
0.0
 11
4759.364786353885
 21
-1540.111927531486
 31
0.0
  0
LINE
  5
2484C
330
1F
100
AcDbEntity
  8
AM_0
100
AcDbLine
 10
4756.364786353885
 20
-1443.111926531487
 30
0.0
 11
4759.364786353885
 21
-1443.111926531487
 31
0.0
  0
LINE
  5
2484D
330
1F
100
AcDbEntity
  8
AM_7
 48
0.5
100
AcDbLine
 10
4750.873399353885
 20
-1531.611927531487
 30
0.0
 11
4763.587457353884
 21
-1531.611927531487
 31
0.0
  0
LINE
  5
2484E
330
1F
100
AcDbEntity
  8
AM_0
100
AcDbLine
 10
4759.364786353885
 20
-1539.611927531487
 30
0.0
 11
4759.864786353886
 21
-1539.611927531487
 31
0.0
  0
LINE
  5
2484F
330
1F
100
AcDbEntity
  8
AM_0
100
AcDbLine
 10
4759.364786353885
 20
-1443.611926531487
 30
0.0
 11
4759.864786353886
 21
-1443.611926531487
 31
0.0
  0
LINE
  5
24850
330
1F
100
AcDbEntity
  8
AM_0
100
AcDbLine
 10
4759.864786353886
 20
-1443.611926531487
 30
0.0
 11
4759.864786353886
 21
-1539.611927531487
 31
0.0
  0
LINE
  5
24851
330
1F
100
AcDbEntity
  8
AM_0
100
AcDbLine
 10
4759.864786353886
 20
-1526.611927531486
 30
0.0
 11
4775.864786353885
 21
-1526.611927531486
 31
0.0
  0
LINE
  5
24852
330
1F
100
AcDbEntity
  8
AM_0
100
AcDbLine
 10
4759.864786353886
 20
-1456.611924531486
 30
0.0
 11
4775.864786353885
 21
-1456.611924531486
 31
0.0
  0
LINE
  5
24854
330
1F
100
AcDbEntity
  8
AM_0
100
AcDbLine
 10
4695.502874352019
 20
-1445.111926031487
 30
0.0
 11
4695.502874352019
 21
-1538.111927031486
 31
0.0
  0
LINE
  5
24855
330
1F
100
AcDbEntity
  8
AM_0
100
AcDbLine
 10
4673.50287435202
 20
-1443.111926031487
 30
0.0
 11
4693.502874352019
 21
-1443.111926031487
 31
0.0
  0
LINE
  5
24856
330
1F
100
AcDbEntity
  8
AM_0
100
AcDbLine
 10
4682.002874352019
 20
-1460.111924031487
 30
0.0
 11
4682.002874352019
 21
-1466.611924031487
 31
0.0
  0
LINE
  5
24857
330
1F
100
AcDbEntity
  8
AM_0
100
AcDbLine
 10
4676.002874352019
 20
-1471.611924031487
 30
0.0
 11
4682.002874352019
 21
-1466.611931031487
 31
0.0
  0
LINE
  5
24858
330
1F
100
AcDbEntity
  8
AM_0
100
AcDbLine
 10
4676.002874352019
 20
-1511.611927031486
 30
0.0
 11
4682.002874352019
 21
-1516.611919809284
 31
0.0
  0
LINE
  5
24859
330
1F
100
AcDbEntity
  8
AM_0
100
AcDbLine
 10
4682.002874352019
 20
-1523.111927031486
 30
0.0
 11
4682.002874352019
 21
-1516.611919809285
 31
0.0
  0
LINE
  5
2485A
330
1F
100
AcDbEntity
  8
AM_0
100
AcDbLine
 10
4683.502874352019
 20
-1524.611927031486
 30
0.0
 11
4689.50287435202
 21
-1524.611927031486
 31
0.0
  0
LINE
  5
2485B
330
1F
100
AcDbEntity
  8
AM_0
100
AcDbLine
 10
4691.00287435202
 20
-1460.111924031487
 30
0.0
 11
4691.00287435202
 21
-1523.111927031486
 31
0.0
  0
LINE
  5
2485C
330
1F
100
AcDbEntity
  8
AM_0
100
AcDbLine
 10
4676.002874352019
 20
-1471.611924031487
 30
0.0
 11
4676.002874352019
 21
-1511.611927031486
 31
0.0
  0
LINE
  5
2485D
330
1F
100
AcDbEntity
  8
AM_7
 48
0.5
100
AcDbLine
 10
4802.01070940081
 20
-1232.001357528886
 30
0.0
 11
4802.01070940081
 21
-1310.001358528886
 31
0.0
  0
LINE
  5
2485E
330
1F
100
AcDbEntity
  8
AM_7
 48
0.5
100
AcDbLine
 10
4788.01070940081
 20
-1271.001355528886
 30
0.0
 11
4816.01070940081
 21
-1271.001355528886
 31
0.0
  0
ARC
  5
2485F
330
1F
100
AcDbEntity
  8
AM_0
100
AcDbCircle
 10
4756.364786353885
 20
-1538.111927531486
 30
0.0
 40
2.0
100
AcDbArc
 50
180.0
 51
270.0
  0
ARC
  5
24860
330
1F
100
AcDbEntity
  8
AM_0
100
AcDbCircle
 10
4756.364786353885
 20
-1445.111926531487
 30
0.0
 40
2.0
100
AcDbArc
 50
90.0
 51
180.0
  0
ARC
  5
24861
330
1F
100
AcDbEntity
  8
AM_0
100
AcDbCircle
 10
4693.502874352019
 20
-1445.111926031487
 30
0.0
 40
2.0
100
AcDbArc
 50
0.0
 51
90.0
  0
ARC
  5
24862
330
1F
100
AcDbEntity
  8
AM_0
100
AcDbCircle
 10
4673.50287435202
 20
-1445.111926031487
 30
0.0
 40
2.0
100
AcDbArc
 50
90.0
 51
180.0
  0
ARC
  5
24863
330
1F
100
AcDbEntity
  8
AM_0
100
AcDbCircle
 10
4673.50287435202
 20
-1538.111927031486
 30
0.0
 40
2.0
100
AcDbArc
 50
180.0
 51
270.0
  0
ARC
  5
24864
330
1F
100
AcDbEntity
  8
AM_0
100
AcDbCircle
 10
4693.502874352019
 20
-1538.111927031486
 30
0.0
 40
2.0
100
AcDbArc
 50
270.0
 51
0.0
  0
ARC
  5
24865
330
1F
100
AcDbEntity
  8
AM_0
100
AcDbCircle
 10
4683.502874352019
 20
-1460.111924031487
 30
0.0
 40
1.5
100
AcDbArc
 50
90.0
 51
180.0
  0
ARC
  5
24866
330
1F
100
AcDbEntity
  8
AM_0
100
AcDbCircle
 10
4689.50287435202
 20
-1460.111924031487
 30
0.0
 40
1.5
100
AcDbArc
 50
0.0
 51
90.0
  0
ARC
  5
24867
330
1F
100
AcDbEntity
  8
AM_0
100
AcDbCircle
 10
4683.502874352019
 20
-1523.111927031486
 30
0.0
 40
1.5
100
AcDbArc
 50
180.0
 51
270.0
  0
ARC
  5
24868
330
1F
100
AcDbEntity
  8
AM_0
100
AcDbCircle
 10
4689.50287435202
 20
-1523.111927031486
 30
0.0
 40
1.5
100
AcDbArc
 50
270.0
 51
0.0
  0
CIRCLE
  5
24869
330
1F
100
AcDbEntity
  8
AM_0
100
AcDbCircle
 10
4683.502874352019
 20
-1451.611926031487
 30
0.0
 40
4.25
  0
CIRCLE
  5
2486A
330
1F
100
AcDbEntity
  8
AM_0
100
AcDbCircle
 10
4683.502874352019
 20
-1451.611926031487
 30
0.0
 40
2.25
  0
CIRCLE
  5
2486B
330
1F
100
AcDbEntity
  8
AM_0
100
AcDbCircle
 10
4683.502874352019
 20
-1531.611927031486
 30
0.0
 40
4.25
  0
CIRCLE
  5
2486C
330
1F
100
AcDbEntity
  8
AM_0
100
AcDbCircle
 10
4683.502874352019
 20
-1531.611927031486
 30
0.0
 40
2.25
  0
DIMENSION
  5
24872
330
1F
100
AcDbEntity
  8
AM_5
100
AcDbDimension
  2
*D150
 10
4785.864786353886
 20
-1526.611927531486
 30
0.0
 11
4783.264786353885
 21
-1491.611926031485
 31
0.0
 70
    32
 71
     5
 42
70.0000030000001
  3
DIMSTYLE
100
AcDbAlignedDimension
 13
4775.864786353885
 23
-1456.611924531486
 33
0.0
 14
4775.864786353885
 24
-1526.611927531486
 34
0.0
 50
90.0
100
AcDbRotatedDimension
1001
ACAD
1000
DSTYLE
1002
{
1070
   271
1070
     0
1070
   147
1040
1.0
1070
   177
1070
   256
1070
    42
1040
1.0
1070
    44
1040
1.0
1070
    41
1040
1.0
1070
   343
1005
6C4
1070
   344
1005
6C4
1070
   178
1070
     2
1070
    77
1070
     1
1070
   172
1070
     1
1002
}
  0
DIMENSION
  5
24873
330
1F
100
AcDbEntity
  8
AM_5
100
AcDbDimension
  2
*D151
 10
4744.364786353886
 20
-1540.111927531486
 30
0.0
 11
4741.764786353885
 21
-1491.611927031486
 31
0.0
 70
    32
 71
     5
 42
97.00000099999989
  3
DIMSTYLE
100
AcDbAlignedDimension
 13
4754.364786353885
 23
-1443.111926531487
 33
0.0
 14
4754.364786353885
 24
-1540.111927531486
 34
0.0
 50
90.0
100
AcDbRotatedDimension
1001
ACAD
1000
DSTYLE
1002
{
1070
   271
1070
     0
1070
   147
1040
1.0
1070
   177
1070
   256
1070
    42
1040
1.0
1070
    44
1040
1.0
1070
    41
1040
1.0
1070
   343
1005
6C4
1070
   344
1005
6C4
1070
   178
1070
     2
1070
    77
1070
     1
1070
   172
1070
     1
1002
}
  0
DIMENSION
  5
24874
330
1F
100
AcDbEntity
  8
AM_5
100
AcDbDimension
  2
*D152
 10
4813.01070940081
 20
-1317.001353528886
 30
0.0
 11
4802.01070940081
 21
-1314.401353528886
 31
0.0
 70
    32
 71
     5
 42
22.0
  3
DIMSTYLE
100
AcDbAlignedDimension
 13
4791.01070940081
 23
-1307.001355528886
 33
0.0
 14
4813.01070940081
 24
-1307.001355528886
 34
0.0
100
AcDbRotatedDimension
1001
ACAD
1000
DSTYLE
1002
{
1070
   271
1070
     0
1070
   147
1040
1.0
1070
   177
1070
   256
1070
    42
1040
1.0
1070
    44
1040
1.0
1070
    41
1040
1.0
1070
   343
1005
6C4
1070
   344
1005
6C4
1070
   178
1070
     2
1070
    77
1070
     1
1070
   172
1070
     1
1002
}
  0
HATCH
  5
24876
330
1F
100
AcDbEntity
  8
AM_8
100
AcDbHatch
 10
0.0
 20
0.0
 30
0.0
210
0.0
220
0.0
230
1.0
  2
_U
 70
     0
 71
     0
 91
        1
 92
        1
 93
        4
 72
     1
 10
4813.01070940081
 20
-1307.001358528886
 11
4813.01070940081
 21
-1235.001355528887
 72
     1
 10
4813.01070940081
 20
-1235.001355528886
 11
4791.01070940081
 21
-1235.001355528886
 72
     1
 10
4791.01070940081
 20
-1235.001355528886
 11
4791.01070940081
 21
-1307.001358528886
 72
     1
 10
4791.01070940081
 20
-1307.001358528886
 11
4813.01070940081
 21
-1307.001358528886
 97
        0
 75
     0
 76
     0
 52
45.0
 41
2.5
 77
     0
 78
     1
 53
45.0
 43
398.6053202287267
 44
-1942.499270423092
 45
-1.767766952966368
 46
1.767766952966368
 79
     0
 98
        1
 10
398.6053202287267
 20
-1942.499270423092
1001
GENIUS_GENOBJ-N-HTC_13
1002
{
1000
OWNER
1000
GEN
1002
}
1001
GENIUS_GENODEF_13
1002
{
1000
HIER
1070
     0
1002
}
1002
{
1000
MANEDIT
1070
     0
1002
}
1002
{
1000
NOSEL
1070
     0
1002
}
1002
{
1000
BEHIND
1070
     0
1002
}
1002
{
1000
OTHER
1070
     0
1002
}
1002
{
1000
REACTOR
1002
}
1001
GENIUS_GENHATCH_13
1002
{
1000
DATA
1040
45.0
1042
2.5
1000
_U
1070
     0
1011
4795.78041159167
1021
-1243.450803245978
1031
0.0
1002
}
1002
{
1000
UCS
1010
0.0
1020
0.0
1030
0.0
1010
1.0
1020
0.0
1030
0.0
1010
0.0
1020
1.0
1030
0.0
1002
}
  0
TEXT
  5
24877
330
1F
100
AcDbEntity
  8
AM_6
100
AcDbText
 10
4777.699486454333
 20
-1345.40715917423
 30
0.0
 40
4.0
  1
切欠推奨寸法（パネル端部:受）
 41
0.8474110299999999
 72
     4
 11
4805.51070940081
 21
-1343.40715917423
 31
0.0
100
AcDbText
  0
DIMENSION
  5
24879
330
1F
100
AcDbEntity
  8
AM_5
100
AcDbDimension
  2
*D155
 10
4661.502874352019
 20
-1451.611926031487
 30
0.0
 11
4658.902874352019
 21
-1491.611926531486
 31
0.0
 70
    32
 71
     5
 42
80.00000099999942
  3
DIMSTYLE
100
AcDbAlignedDimension
 13
4676.471684352019
 23
-1531.611927031486
 33
0.0
 14
4676.471684352018
 24
-1451.611926031487
 34
0.0
 50
90.0
100
AcDbRotatedDimension
1001
ACAD
1000
DSTYLE
1002
{
1070
   271
1070
     0
1070
   147
1040
1.0
1070
   177
1070
   256
1070
    42
1040
1.0
1070
    44
1040
1.0
1070
    41
1040
1.0
1070
   343
1005
6C4
1070
   344
1005
6C4
1070
   178
1070
     2
1070
    77
1070
     1
1070
   172
1070
     1
1002
}
  0
DIMENSION
  5
2487B
330
1F
100
AcDbEntity
  8
AM_5
100
AcDbDimension
  2
*D157
 10
4485.941133546712
 20
-1417.035372316995
 30
0.0
 11
4482.841133546711
 21
-1426.285372316995
 31
0.0
 70
    32
 71
     5
 42
18.5
  3
SYS$0
100
AcDbAlignedDimension
 13
4467.941132546711
 23
-1435.535372316995
 33
0.0
 14
4430.941131546711
 24
-1417.035372316995
 34
0.0
 50
90.0
100
AcDbRotatedDimension
  0
DIMENSION
  5
2487C
330
1F
100
AcDbEntity
  8
AM_5
100
AcDbDimension
  2
*D158
 10
4475.941132546711
 20
-1475.920824442906
 30
0.0
 11
4440.941127046712
 21
-1472.820824442906
 31
0.0
 70
    32
 71
     5
 42
70.00001100000009
  3
SYS$0
100
AcDbAlignedDimension
 13
4405.941121546711
 23
-1482.920825452905
 33
0.0
 14
4475.941132546711
 24
-1507.920825452905
 34
0.0
100
AcDbRotatedDimension
  0
LINE
  5
2487D
330
1F
100
AcDbEntity
  8
AM_7
 48
0.5
100
AcDbLine
 10
4698.502874352019
 20
-1491.611926531487
 30
0.0
 11
4668.50287435202
 21
-1491.611926531487
 31
0.0
1001
GENIUS_GENOBJ-N-CEN_13
1002
{
1000
OWNER
1000
GEN
1002
}
1001
GENIUS_GENODEF_13
1002
{
1000
HIER
1070
     0
1002
}
1002
{
1000
MANEDIT
1070
     0
1002
}
1002
{
1000
NOSEL
1070
     0
1002
}
1002
{
1000
BEHIND
1070
     0
1002
}
1002
{
1000
OTHER
1070
     0
1002
}
1002
{
1000
REACTOR
1002
}
1001
GENIUS_GENCEN_19
1002
{
1040
3.0
1002
}
  0
LINE
  5
2487E
330
1F
100
AcDbEntity
  8
AM_7
 48
0.5
100
AcDbLine
 10
4751.364786353885
 20
-1491.611927031486
 30
0.0
 11
4778.864786353885
 21
-1491.611927031486
 31
0.0
1001
GENIUS_GENOBJ-N-CEN_13
1002
{
1000
OWNER
1000
GEN
1002
}
1001
GENIUS_GENODEF_13
1002
{
1000
HIER
1070
     0
1002
}
1002
{
1000
MANEDIT
1070
     0
1002
}
1002
{
1000
NOSEL
1070
     0
1002
}
1002
{
1000
BEHIND
1070
     0
1002
}
1002
{
1000
OTHER
1070
     0
1002
}
1002
{
1000
REACTOR
1002
}
1001
GENIUS_GENCEN_19
1002
{
1040
3.0
1002
}
  0
DIMENSION
  5
2487F
330
1F
100
AcDbEntity
  8
AM_5
100
AcDbDimension
  2
*D159
 10
4467.941132546711
 20
-1407.035372316995
 30
0.0
 11
4471.941132546712
 21
-1404.435372316995
 31
0.0
 70
    32
 71
     5
 42
8.0
  3
DIMSTYLE
100
AcDbAlignedDimension
 13
4475.941132546711
 23
-1429.535372316995
 33
0.0
 14
4467.941132546711
 24
-1429.535372316995
 34
0.0
 50
180.0
100
AcDbRotatedDimension
1001
ACAD
1000
DSTYLE
1002
{
1070
   271
1070
     0
1070
   147
1040
1.0
1070
   177
1070
   256
1070
    42
1040
1.0
1070
    44
1040
1.0
1070
    41
1040
1.0
1070
   343
1005
6C4
1070
   344
1005
6C4
1070
   178
1070
     2
1070
    77
1070
     1
1070
   172
1070
     1
1002
}
  0
DIMENSION
  5
24880
330
1F
100
AcDbEntity
  8
AM_5
100
AcDbDimension
  2
*D160
 10
4355.941121546711
 20
-1475.920824442906
 30
0.0
 11
4380.941121546711
 21
-1472.820824442906
 31
0.0
 70
    32
 71
     5
 42
50.0
  3
SYS$0
100
AcDbAlignedDimension
 13
4405.941121546711
 23
-1482.920825452905
 33
0.0
 14
4355.941121546711
 24
-1505.920825452905
 34
0.0
 50
180.0
100
AcDbRotatedDimension
  0
DIMENSION
  5
24881
330
1F
100
AcDbEntity
  8
AM_5
100
AcDbDimension
  2
*D161
 10
4691.00287435202
 20
-1471.611926531487
 30
0.0
 11
4699.577565891279
 21
-1471.611926531487
 31
0.0
 70
   160
 71
     5
 42
9.000000000000909
  3
SYS$0
100
AcDbAlignedDimension
 13
4682.002874352019
 23
-1466.611933253689
 33
0.0
 14
4691.00287435202
 24
-1466.611933253689
 34
0.0
100
AcDbRotatedDimension
1001
ACAD
1000
DSTYLE
1002
{
1070
   271
1070
     1
1002
}
  0
DIMENSION
  5
24882
330
1F
100
AcDbEntity
  8
AM_5
100
AcDbDimension
  2
*D162
 10
4691.00287435202
 20
-1481.611926531487
 30
0.0
 11
4699.366105981066
 21
-1481.611926531487
 31
0.0
 70
   160
 71
     5
 42
15.0
  3
SYS$0
100
AcDbAlignedDimension
 13
4676.002874352019
 23
-1471.611926031487
 33
0.0
 14
4691.00287435202
 24
-1471.611926031487
 34
0.0
100
AcDbRotatedDimension
1001
ACAD
1000
DSTYLE
1002
{
1070
   271
1070
     1
1002
}
  0
DIMENSION
  5
24883
330
1F
100
AcDbEntity
  8
AM_5
100
AcDbDimension
  2
*D163
 10
4715.502874352019
 20
-1458.611924031487
 30
0.0
 11
4715.502874352019
 21
-1491.611925531486
 31
0.0
 70
   160
 71
     5
 42
66.00000299999965
  3
SYS$0
100
AcDbAlignedDimension
 13
4691.00287435202
 23
-1524.611927031486
 33
0.0
 14
4691.00287435202
 24
-1458.611924031487
 34
0.0
 50
90.00000000000003
100
AcDbRotatedDimension
1001
ACAD
1000
DSTYLE
1002
{
1070
   271
1070
     1
1002
}
  0
MTEXT
  5
24887
330
1F
100
AcDbEntity
  8
AM_6
100
AcDbMText
 10
4482.034016198002
 20
-1555.376645951453
 30
0.0
 40
3.2
 41
58.43156059152625
 71
     5
 72
     5
  1
{\L本体}
 73
     1
 44
1.0
1001
ACAD
1000
MTEXTBEGIN
1070
    73
1070
     1
1070
    44
1040
1.0
1070
    74
1070
     0
1000
MTEXTEND
  0
LINE
  5
24B49
330
1F
100
AcDbEntity
  8
AM_0
100
AcDbLine
 10
4695.502874352019
 20
-1407.155424700132
 30
0.0
 11
4671.50287435202
 21
-1407.155424700132
 31
0.0
  0
LINE
  5
24B4A
330
1F
100
AcDbEntity
  8
AM_0
100
AcDbLine
 10
4693.502874352019
 20
-1412.155424700132
 30
0.0
 11
4673.50287435202
 21
-1412.155424700132
 31
0.0
  0
LINE
  5
24B4B
330
1F
100
AcDbEntity
  8
AM_0
100
AcDbLine
 10
4694.002874352019
 20
-1390.655424700132
 30
0.0
 11
4673.00287435202
 21
-1390.655424700132
 31
0.0
  0
LINE
  5
24B4C
330
1F
100
AcDbEntity
  8
AM_0
100
AcDbLine
 10
4695.502874352019
 20
-1410.155424700132
 30
0.0
 11
4695.502874352019
 21
-1407.155424700132
 31
0.0
  0
LINE
  5
24B4D
330
1F
100
AcDbEntity
  8
AM_0
100
AcDbLine
 10
4671.50287435202
 20
-1410.155424700132
 30
0.0
 11
4671.50287435202
 21
-1407.155424700132
 31
0.0
  0
LINE
  5
24B4E
330
1F
100
AcDbEntity
  8
AM_0
100
AcDbLine
 10
4694.002874352019
 20
-1407.155424700132
 30
0.0
 11
4694.002874352019
 21
-1390.655424700132
 31
0.0
  0
LINE
  5
24B4F
330
1F
100
AcDbEntity
  8
AM_0
100
AcDbLine
 10
4673.00287435202
 20
-1407.155424700132
 30
0.0
 11
4673.00287435202
 21
-1390.655424700132
 31
0.0
  0
LINE
  5
24B50
330
1F
100
AcDbEntity
  8
AM_0
100
AcDbLine
 10
4694.002874352019
 20
-1406.655424700132
 30
0.0
 11
4673.00287435202
 21
-1406.655424700132
 31
0.0
  0
LINE
  5
24B51
330
1F
100
AcDbEntity
  8
AM_7
 48
0.5
100
AcDbLine
 10
4683.502874352019
 20
-1415.646811700132
 30
0.0
 11
4683.502874352019
 21
-1386.489840700132
 31
0.0
  0
ARC
  5
24B52
330
1F
100
AcDbEntity
  8
AM_0
100
AcDbCircle
 10
4693.502874352019
 20
-1410.155424700132
 30
0.0
 40
2.0
100
AcDbArc
 50
270.0
 51
0.0
  0
ARC
  5
24B53
330
1F
100
AcDbEntity
  8
AM_0
100
AcDbCircle
 10
4673.50287435202
 20
-1410.155424700132
 30
0.0
 40
2.0
100
AcDbArc
 50
180.0
 51
270.0
  0
DIMENSION
  5
24B54
330
1F
100
AcDbEntity
  8
AM_5
100
AcDbDimension
  2
*D166
 10
4661.502874352019
 20
-1390.655424700132
 30
0.0
 11
4658.902874352019
 21
-1398.905424700132
 31
0.0
 70
    32
 71
     5
 42
16.5
  3
DIMSTYLE
100
AcDbAlignedDimension
 13
4671.50287435202
 23
-1407.155424700132
 33
0.0
 14
4673.00287435202
 24
-1390.655424700132
 34
0.0
 50
90.0
100
AcDbRotatedDimension
1001
ACAD
1000
DSTYLE
1002
{
1070
   271
1070
     1
1070
   147
1040
1.0
1070
   177
1070
   256
1070
    42
1040
1.0
1070
    44
1040
1.0
1070
    41
1040
1.0
1070
   343
1005
6C4
1070
   344
1005
6C4
1070
   178
1070
     2
1070
    77
1070
     1
1070
   172
1070
     1
1002
}
  0
DIMENSION
  5
24B55
330
1F
100
AcDbEntity
  8
AM_5
100
AcDbDimension
  2
*D167
 10
4673.00287435202
 20
-1380.655424700132
 30
0.0
 11
4683.502874352019
 21
-1378.055424700132
 31
0.0
 70
    32
 71
     5
 42
21.0
  3
DIMSTYLE
100
AcDbAlignedDimension
 13
4694.002874352019
 23
-1390.655424700132
 33
0.0
 14
4673.00287435202
 24
-1390.655424700132
 34
0.0
100
AcDbRotatedDimension
1001
ACAD
1000
DSTYLE
1002
{
1070
   271
1070
     0
1070
   147
1040
1.0
1070
   177
1070
   256
1070
    42
1040
1.0
1070
    44
1040
1.0
1070
    41
1040
1.0
1070
   343
1005
6C4
1070
   344
1005
6C4
1070
   178
1070
     2
1070
    77
1070
     1
1070
   172
1070
     1
1002
}
  0
DIMENSION
  5
24B56
330
1F
100
AcDbEntity
  8
AM_5
100
AcDbDimension
  2
*D168
 10
4671.50287435202
 20
-1422.155424700132
 30
0.0
 11
4683.502874352019
 21
-1419.555424700132
 31
0.0
 70
    32
 71
     5
 42
24.0
  3
DIMSTYLE
100
AcDbAlignedDimension
 13
4695.502874352019
 23
-1412.155424700132
 33
0.0
 14
4671.50287435202
 24
-1412.155424700132
 34
0.0
100
AcDbRotatedDimension
1001
ACAD
1000
DSTYLE
1002
{
1070
   271
1070
     0
1070
   147
1040
1.0
1070
   177
1070
   256
1070
    42
1040
1.0
1070
    44
1040
1.0
1070
    41
1040
1.0
1070
   343
1005
6C4
1070
   344
1005
6C4
1070
   178
1070
     2
1070
    77
1070
     1
1070
   172
1070
     1
1002
}
  0
DIMENSION
  5
24B57
330
1F
100
AcDbEntity
  8
AM_5
100
AcDbDimension
  2
*D165
 10
4661.502874352019
 20
-1412.155424700132
 30
0.0
 11
4658.402874352019
 21
-1409.655424700132
 31
0.0
 70
    32
 71
     5
 42
5.0
  3
SYS$0
100
AcDbAlignedDimension
 13
4671.50287435202
 23
-1407.155424700132
 33
0.0
 14
4671.50287435202
 24
-1412.155424700132
 34
0.0
 50
90.0
100
AcDbRotatedDimension
  0
LINE
  5
24BD2
330
1F
100
AcDbEntity
  8
AM_11
100
AcDbLine
 10
4782.51070940081
 20
-1213.518618019472
 30
0.0
 11
4782.51070940081
 21
-1331.755704762494
 31
0.0
  0
LINE
  5
24BD3
330
1F
100
AcDbEntity
  8
AM_11
100
AcDbLine
 10
4738.609796185749
 20
-1213.518618019472
 30
0.0
 11
4738.609796185749
 21
-1331.755704762494
 31
0.0
  0
MTEXT
  5
24BD4
330
1F
100
AcDbEntity
  8
AM_6
 48
0.5
100
AcDbMText
 10
4777.731804522065
 20
-1214.522845744097
 30
0.0
 40
3.2
 41
31.01684981681046
 71
     1
 72
     5
  1
レ\Pバ\P\P側\P取\P付\P面
 73
     1
 44
1.0
1001
ACAD
1000
MTEXTBEGIN
1070
    73
1070
     1
1070
    44
1040
1.0
1070
    74
1070
     0
1000
MTEXTEND
  0
MTEXT
  5
24BD5
330
1F
100
AcDbEntity
  8
AM_6
 48
0.5
100
AcDbMText
 10
4740.913439958044
 20
-1214.522845744097
 30
0.0
 40
3.2
 41
31.01684981681046
 71
     1
 72
     5
  1
扉\P端\P部
 73
     1
 44
1.0
1001
ACAD
1000
MTEXTBEGIN
1070
    73
1070
     1
1070
    44
1040
1.0
1070
    74
1070
     0
1000
MTEXTEND
  0
DIMENSION
  5
24C0C
330
1F
100
AcDbEntity
  8
AM_5
100
AcDbDimension
  2
*D171
 10
4724.088097300821
 20
-1271.001355528886
 30
0.0
 11
4724.088097300821
 21
-1285.001355528885
 31
0.0
 70
   160
 71
     5
 42
28.00000000000023
  3
SYS$0
100
AcDbAlignedDimension
 13
4701.609796185749
 23
-1299.001355528886
 33
0.0
 14
4730.109796185749
 24
-1271.001355528886
 34
0.0
 50
90.0
100
AcDbRotatedDimension
1001
ACAD
1000
DSTYLE
1002
{
1070
   271
1070
     1
1002
}
  0
DIMENSION
  5
24C47
330
1F
100
AcDbEntity
  8
AM_5
100
AcDbDimension
  2
*D172
 10
4823.01070940081
 20
-1235.001355528886
 30
0.0
 11
4823.01070940081
 21
-1271.001357028886
 31
0.0
 70
   160
 71
     5
 42
72.0000030000001
  3
SYS$0
100
AcDbAlignedDimension
 13
4813.01070940081
 23
-1307.001358528886
 33
0.0
 14
4813.01070940081
 24
-1235.001355528886
 34
0.0
 50
90.0
100
AcDbRotatedDimension
1001
ACAD
1000
DSTYLE
1002
{
1070
   271
1070
     1
1002
}
  0
DIMENSION
  5
24C76
330
1F
100
AcDbEntity
  8
AM_5
100
AcDbDimension
  2
*D173
 10
4782.51070940081
 20
-1225.001355528886
 30
0.0
 11
4792.203616599626
 21
-1225.001355528886
 31
0.0
 70
   160
 71
     5
 42
19.5
  3
SYS$0
100
AcDbAlignedDimension
 13
4802.01070940081
 23
-1232.001357528886
 33
0.0
 14
4782.51070940081
 24
-1225.001355528886
 34
0.0
100
AcDbRotatedDimension
1001
ACAD
1000
DSTYLE
1002
{
1070
   271
1070
     1
1002
}
  0
DIMENSION
  5
24CA6
330
1F
100
AcDbEntity
  8
AM_5
100
AcDbDimension
  2
*D174
 10
4738.609796185749
 20
-1265.713332951891
 30
0.0
 11
4708.213965065321
 21
-1265.713332951891
 31
0.0
 70
   160
 71
     5
 42
59.5
  3
SYS$0
100
AcDbAlignedDimension
 13
4679.109796185749
 23
-1285.001355528886
 33
0.0
 14
4738.609796185749
 24
-1266.803929075071
 34
0.0
100
AcDbRotatedDimension
1001
ACAD
1000
DSTYLE
1002
{
1070
   271
1070
     1
1002
}
  0
LINE
  5
24F93
330
1F
100
AcDbEntity
  8
AM_11
100
AcDbLine
 10
4738.109796185749
 20
-1222.501355028886
 30
0.0
 11
4738.109796185749
 21
-1319.501356028886
 31
0.0
  0
LINE
  5
24F94
330
1F
100
AcDbEntity
  8
AM_11
100
AcDbLine
 10
4733.10979618575
 20
-1224.501355028886
 30
0.0
 11
4733.10979618575
 21
-1317.501356028886
 31
0.0
  0
LINE
  5
24F95
330
1F
100
AcDbEntity
  8
AM_11
100
AcDbLine
 10
4754.609796185749
 20
-1236.001353028886
 30
0.0
 11
4754.609796185749
 21
-1306.001356028886
 31
0.0
  0
LINE
  5
24F96
330
1F
100
AcDbEntity
  8
AM_11
100
AcDbLine
 10
4735.109796185749
 20
-1319.501356028886
 30
0.0
 11
4738.109796185749
 21
-1319.501356028886
 31
0.0
  0
LINE
  5
24F97
330
1F
100
AcDbEntity
  8
AM_11
100
AcDbLine
 10
4735.109796185749
 20
-1222.501355028886
 30
0.0
 11
4738.109796185749
 21
-1222.501355028886
 31
0.0
  0
LINE
  5
24F99
330
1F
100
AcDbEntity
  8
AM_11
100
AcDbLine
 10
4738.109796185749
 20
-1319.001356028886
 30
0.0
 11
4738.609796185749
 21
-1319.001356028886
 31
0.0
  0
LINE
  5
24F9A
330
1F
100
AcDbEntity
  8
AM_11
100
AcDbLine
 10
4738.109796185749
 20
-1223.001355028886
 30
0.0
 11
4738.609796185749
 21
-1223.001355028886
 31
0.0
  0
LINE
  5
24F9B
330
1F
100
AcDbEntity
  8
AM_11
100
AcDbLine
 10
4738.609796185749
 20
-1223.001355028886
 30
0.0
 11
4738.609796185749
 21
-1319.001356028886
 31
0.0
  0
LINE
  5
24F9C
330
1F
100
AcDbEntity
  8
AM_11
100
AcDbLine
 10
4738.609796185749
 20
-1306.001356028886
 30
0.0
 11
4754.609796185749
 21
-1306.001356028886
 31
0.0
  0
LINE
  5
24F9D
330
1F
100
AcDbEntity
  8
AM_11
100
AcDbLine
 10
4738.609796185749
 20
-1236.001353028886
 30
0.0
 11
4754.609796185749
 21
-1236.001353028886
 31
0.0
  0
ARC
  5
24F9E
330
1F
100
AcDbEntity
  8
AM_11
100
AcDbCircle
 10
4735.109796185749
 20
-1317.501356028886
 30
0.0
 40
2.0
100
AcDbArc
 50
180.0
 51
270.0
  0
ARC
  5
24F9F
330
1F
100
AcDbEntity
  8
AM_11
100
AcDbCircle
 10
4735.109796185749
 20
-1224.501355028886
 30
0.0
 40
2.0
100
AcDbArc
 50
90.0
 51
180.0
  0
LINE
  5
24FA1
330
1F
100
AcDbEntity
  8
AM_7
 48
0.5
100
AcDbLine
 10
4730.109796185749
 20
-1271.001355528886
 30
0.0
 11
4757.609796185749
 21
-1271.001355528886
 31
0.0
1001
GENIUS_GENOBJ-N-CEN_13
1002
{
1000
OWNER
1000
GEN
1002
}
1001
GENIUS_GENODEF_13
1002
{
1000
HIER
1070
     0
1002
}
1002
{
1000
MANEDIT
1070
     0
1002
}
1002
{
1000
NOSEL
1070
     0
1002
}
1002
{
1000
BEHIND
1070
     0
1002
}
1002
{
1000
OTHER
1070
     0
1002
}
1002
{
1000
REACTOR
1002
}
1001
GENIUS_GENCEN_19
1002
{
1040
3.0
1002
}
  0
LINE
  5
2527A
330
1F
100
AcDbEntity
  8
AM_6
 48
0.5
100
AcDbLine
 10
4778.681231000193
 20
-1225.354543940072
 30
0.0
 11
4778.681231000193
 21
-1227.750585585913
 31
0.0
  0
DIMENSION
  5
25344
330
1F
100
AcDbEntity
  8
AM_5
100
AcDbDimension
  2
*D177
 10
4685.97080698225
 20
-1455.07195616613
 30
0.0
 11
4657.722851444025
 21
-1437.870002575688
 31
0.0
 70
   163
  1
2-%%c4.5×<>サラ
 71
     5
 42
8.500000000001364
  3
SYS$3
100
AcDbDiametricDimension
 15
4681.034941721782
 25
-1448.151895896844
 35
0.0
 40
0.0
1001
ACAD
1000
DSTYLE
1002
{
1070
    41
1040
1.0
1070
   172
1070
     1
1070
   342
1005
6C4
1002
}
  0
ENDSEC
  0
SECTION
  2
OBJECTS
  0
DICTIONARY
  5
C
330
0
100
AcDbDictionary
281
     1
  3
ACAD_2007HEADERVARS_RT
350
2535B
  3
ACAD_BGPLOT_KEY
350
AB06
  3
ACAD_COLOR
350
A91D
  3
ACAD_GROUP
350
D
  3
ACAD_LAYOUT
350
1A
  3
ACAD_MATERIAL
350
A91C
  3
ACAD_MLINESTYLE
350
17
  3
ACAD_PLOTSETTINGS
350
19
  3
ACAD_PLOTSTYLENAME
350
E
  3
ACAD_TABLESTYLE
350
AAB9
  3
ACAD_VISUALSTYLE
350
B0F1
  3
AcAsAppObject
350
3DA1
  3
ACASGREF_MASTER
350
3DE9
  3
AcDbVariableDictionary
350
34
  3
AcmDictionary
350
47
  3
AD_GREF_MODULE
350
3DEA
  3
AD_MAPI_MODULE
350
3E06
  3
AMG
350
2B
  3
AMGSNAPSETTINGS
350
7D
  3
ASE_INDEX_DICTIONARY
350
B331
  3
DWGPROPS
350
2535A
  3
MAPISURF_MODULE
350
3DEB
  0
DICTIONARY
  5
233D0
330
8
100
AcDbDictionary
280
     1
281
     1
  0
DICTIONARY
  5
3F95
330
2
100
AcDbDictionary
280
     1
281
     1
  3
ACAD_LAYERFILTERS
360
B466
  3
ACAD_LAYERSTATES
360
3F96
  3
ACLYDICTIONARY
360
B465
  3
AMLAYER_GROUPCOLORS
360
AAB4
  0
DICTIONARY
  5
8A
330
1F
100
AcDbDictionary
280
     1
281
     1
  3
ACAD_SORTENTS
360
B1BA
  0
DICTIONARY
  5
2535B
102
{ACAD_REACTORS
330
C
102
}
330
C
100
AcDbDictionary
281
     1
  3
DIMARCSYM
350
2535C
  0
DICTIONARY
  5
AB06
102
{ACAD_REACTORS
330
C
102
}
330
C
100
AcDbDictionary
280
     1
281
     1
  0
DICTIONARY
  5
A91D
102
{ACAD_REACTORS
330
C
102
}
330
C
100
AcDbDictionary
281
     1
  0
DICTIONARY
  5
D
102
{ACAD_REACTORS
330
C
102
}
330
C
100
AcDbDictionary
281
     1
  0
DICTIONARY
  5
1A
102
{ACAD_REACTORS
330
C
102
}
330
C
100
AcDbDictionary
281
     1
  3
Model
350
22
  3
ﾚｲｱｳﾄ1
350
1E
  3
ﾚｲｱｳﾄ2
350
26
  0
DICTIONARY
  5
A91C
102
{ACAD_REACTORS
330
C
102
}
330
C
100
AcDbDictionary
281
     1
  3
ByBlock
350
B0EF
  3
ByLayer
350
B0EE
  3
Global
350
B0F0
  0
DICTIONARY
  5
17
102
{ACAD_REACTORS
330
C
102
}
330
C
100
AcDbDictionary
281
     1
  3
Standard
350
18
  0
DICTIONARY
  5
19
102
{ACAD_REACTORS
330
C
102
}
330
C
100
AcDbDictionary
281
     1
  0
ACDBDICTIONARYWDFLT
  5
E
102
{ACAD_REACTORS
330
C
102
}
330
C
100
AcDbDictionary
281
     1
  3
Normal
350
F
100
AcDbDictionaryWithDefault
340
F
  0
DICTIONARY
  5
AAB9
102
{ACAD_REACTORS
330
C
102
}
330
C
100
AcDbDictionary
281
     1
  3
Standard
350
AABA
  0
DICTIONARY
  5
B0F1
102
{ACAD_REACTORS
330
C
102
}
330
C
100
AcDbDictionary
281
     1
  3
2dWireframe
350
B0F7
  3
3D Hidden
350
B0F9
  3
3dWireframe
350
B0F8
  3
Basic
350
B0F6
  3
Brighten
350
B0FD
  3
ColorChange
350
B101
  3
Conceptual
350
B0FA
  3
Dim
350
B0FC
  3
Facepattern
350
B100
  3
Flat
350
B0F2
  3
FlatWithEdges
350
B0F3
  3
Gouraud
350
B0F4
  3
GouraudWithEdges
350
B0F5
  3
Linepattern
350
B0FF
  3
Realistic
350
B0FB
  3
Thicken
350
B0FE
  0
ACAD_PROXY_OBJECT
  5
3DA1
102
{ACAD_REACTORS
330
C
102
}
330
C
100
AcDbProxyObject
 90
      499
 91
      576
 95
   917527
 70
     0
 93
       10
310
407F
 94
        0
1001
ACAD
1000
AcRTDxfName
1000
ASAPP
  0
ACAD_PROXY_OBJECT
  5
3DE9
102
{ACAD_REACTORS
330
C
102
}
330
C
100
AcDbProxyObject
 90
      499
 91
      581
 95
   917527
 70
     0
 93
       34
310
010000407F
 94
        0
1001
ACAD
1000
AcRTDxfName
1000
ACASGREFMASTER
  0
DICTIONARY
  5
34
102
{ACAD_REACTORS
330
C
102
}
330
C
100
AcDbDictionary
281
     1
  3
CTABLESTYLE
350
AAF3
  3
DIMASSOC
350
A10C
  3
FIELDEVAL
350
AB07
  3
HPORIGIN
350
164EF
  3
INDEXCTL
350
35
  3
SORTENTS
350
194C
  0
DICTIONARY
  5
47
102
{ACAD_REACTORS
330
C
102
}
330
C
100
AcDbDictionary
281
     1
  3
AcmBOM
350
7E8
  3
AcmStdDictionary
350
4C
  3
AMDTSECTSYM_ARROWCOLOR
350
A929
  0
ACAD_PROXY_OBJECT
  5
3DEA
102
{ACAD_REACTORS
330
C
102
}
330
C
100
AcDbProxyObject
 90
      499
 91
      582
 95
   917527
 70
     0
 93
      114
310
00000043800000000000000000003F
 94
        0
1001
ACAD
1000
AcRTDxfName
1000
ACADGREFMODULE
  0
ACAD_PROXY_OBJECT
  5
3E06
102
{ACAD_REACTORS
330
C
102
}
330
C
100
AcDbProxyObject
 90
      499
 91
      594
 95
   917527
 70
     0
 93
       34
310
05000044FF
 94
        0
1001
ACAD
1000
AcRTDxfName
1000
MAPIADMODULE
  0
DICTIONARY
  5
2B
102
{ACAD_REACTORS
330
C
102
}
330
C
100
AcDbDictionary
281
     1
  0
DICTIONARY
  5
7D
102
{ACAD_REACTORS
330
C
102
}
330
C
100
AcDbDictionary
281
     1
  0
DICTIONARY
  5
B331
102
{ACAD_REACTORS
330
C
102
}
330
C
100
AcDbDictionary
281
     1
  3
ASEBlockHierarchyIndexRecord
350
B332
1001
DCO15
1040
1594111214.218
  0
XRECORD
  5
2535A
102
{ACAD_REACTORS
330
C
102
}
330
C
100
AcDbXrecord
280
     1
  1
DWGPROPS COOKIE
  2

  3

  4

  6

  7

  8
Administrator
  9

300
AmdtFileType=84
301
=
302
=
303
=
304
=
305
=
306
=
307
=
308
=
309
=
 40
1.56167568287037
 41
2455567.561054317
 42
2455631.752951389
  1

 90
        1
  0
ACAD_PROXY_OBJECT
  5
3DEB
102
{ACAD_REACTORS
330
C
102
}
330
C
100
AcDbProxyObject
 90
      499
 91
      583
 95
   917527
 70
     0
 93
        8
310
047E
 94
        0
1001
ACAD
1000
AcRTDxfName
1000
AMDTMAPISURFMOUDULE
  0
DICTIONARY
  5
B466
102
{ACAD_REACTORS
330
3F95
102
}
330
3F95
100
AcDbDictionary
281
     1
  0
DICTIONARY
  5
3F96
102
{ACAD_REACTORS
330
3F95
102
}
330
3F95
100
AcDbDictionary
281
     1
  3
20011210
350
3FB7
  0
DICTIONARY
  5
B465
102
{ACAD_REACTORS
330
3F95
102
}
330
3F95
100
AcDbDictionary
281
     1
1001
ACAD
1000
<All
  0
DICTIONARY
  5
AAB4
102
{ACAD_REACTORS
330
3F95
102
}
330
3F95
100
AcDbDictionary
280
     1
281
     1
  0
SORTENTSTABLE
  5
B1BA
102
{ACAD_REACTORS
330
8A
102
}
330
8A
100
AcDbSortentsTable
330
1F
331
24881
  5
24881
331
2484A
  5
2484A
331
2480B
  5
2480B
331
247D4
  5
247D4
331
24852
  5
24852
331
24813
  5
24813
331
247DC
  5
247DC
331
2485A
  5
2485A
331
2481B
  5
2481B
331
247E4
  5
247E4
331
247A5
  5
247A5
331
24862
  5
24862
331
24823
  5
24823
331
247EC
  5
247EC
331
247AD
  5
247AD
331
140E0
  5
140E7
331
2486A
  5
2486A
331
2482B
  5
2482B
331
247F4
  5
247F4
331
247B5
  5
247B5
331
24872
  5
24872
331
247FC
  5
247FC
331
247BD
  5
247BD
331
2483B
  5
2483B
331
24804
  5
24804
331
247C5
  5
247C5
331
247CD
  5
247CD
331
24882
  5
24882
331
2484B
  5
2484B
331
2480C
  5
2480C
331
247D5
  5
247D5
331
24814
  5
24814
331
247DD
  5
247DD
331
2485B
  5
2485B
331
2481C
  5
2481C
331
247E5
  5
247E5
331
247A6
  5
247A6
331
24863
  5
24863
331
24824
  5
24824
331
247ED
  5
247ED
331
247AE
  5
247AE
331
2486B
  5
2486B
331
2482C
  5
2482C
331
247F5
  5
247F5
331
247B6
  5
247B6
331
24873
  5
24873
331
24834
  5
24834
331
247FD
  5
247FD
331
247BE
  5
247BE
331
2487B
  5
2487B
331
2483C
  5
2483C
331
24805
  5
24805
331
247C6
  5
247C6
331
247CE
  5
247CE
331
24883
  5
24883
331
2484C
  5
2484C
331
2480D
  5
2480D
331
247D6
  5
247D6
331
24854
  5
24854
331
24815
  5
24815
331
247DE
  5
247DE
331
2479F
  5
2479F
331
2485C
  5
2485C
331
2481D
  5
2481D
331
247E6
  5
247E6
331
247A7
  5
247A7
331
24864
  5
24864
331
24825
  5
24825
331
247EE
  5
247EE
331
247AF
  5
247AF
331
2486C
  5
2486C
331
2482D
  5
2482D
331
247F6
  5
247F6
331
247B7
  5
247B7
331
24874
  5
24874
331
24835
  5
24835
331
247FE
  5
247FE
331
247BF
  5
247BF
331
2487C
  5
2487C
331
2483D
  5
2483D
331
24806
  5
24806
331
247C7
  5
247C7
331
24845
  5
24845
331
247CF
  5
247CF
331
2484D
  5
2484D
331
2480E
  5
2480E
331
247D7
  5
247D7
331
24855
  5
24855
331
24816
  5
24816
331
247DF
  5
247DF
331
247A0
  5
247A0
331
2485D
  5
2485D
331
2481E
  5
2481E
331
247E7
  5
247E7
331
247A8
  5
247A8
331
13FB3
  5
13FBC
331
24865
  5
24865
331
24826
  5
24826
331
247EF
  5
247EF
331
247B0
  5
247B0
331
2482E
  5
2482E
331
247F7
  5
247F7
331
247B8
  5
247B8
331
24836
  5
24836
331
247FF
  5
247FF
331
247C0
  5
247C0
331
2487D
  5
2487D
331
24807
  5
24807
331
247C8
  5
247C8
331
247D0
  5
247D0
331
2484E
  5
2484E
331
2480F
  5
2480F
331
247D8
  5
247D8
331
24856
  5
24856
331
24817
  5
24817
331
247E0
  5
247E0
331
247A1
  5
247A1
331
2485E
  5
2485E
331
2481F
  5
2481F
331
247E8
  5
247E8
331
247A9
  5
247A9
331
24866
  5
24866
331
24827
  5
24827
331
247F0
  5
247F0
331
247B1
  5
247B1
331
2482F
  5
2482F
331
247F8
  5
247F8
331
247B9
  5
247B9
331
24876
  5
24876
331
24837
  5
24837
331
24800
  5
24800
331
247C1
  5
247C1
331
2487E
  5
2487E
331
247C9
  5
247C9
331
24847
  5
24847
331
24808
  5
24808
331
247D1
  5
247D1
331
2484F
  5
2484F
331
24810
  5
24810
331
247D9
  5
247D9
331
24857
  5
24857
331
24818
  5
24818
331
247E1
  5
247E1
331
247A2
  5
247A2
331
2485F
  5
2485F
331
24820
  5
24820
331
247E9
  5
247E9
331
247AA
  5
247AA
331
24867
  5
24867
331
24828
  5
24828
331
247F1
  5
247F1
331
247B2
  5
247B2
331
24830
  5
24830
331
247F9
  5
247F9
331
247BA
  5
247BA
331
24877
  5
24877
331
24838
  5
24838
331
24801
  5
24801
331
247C2
  5
247C2
331
2487F
  5
2487F
331
247CA
  5
247CA
331
24848
  5
24848
331
24809
  5
24809
331
247D2
  5
247D2
331
24887
  5
24887
331
24850
  5
24850
331
24811
  5
24811
331
247DA
  5
247DA
331
24858
  5
24858
331
24819
  5
24819
331
247E2
  5
247E2
331
247A3
  5
247A3
331
24860
  5
24860
331
24821
  5
24821
331
247EA
  5
247EA
331
247AB
  5
247AB
331
24868
  5
24868
331
24829
  5
24829
331
247F2
  5
247F2
331
247B3
  5
247B3
331
24831
  5
24831
331
247FA
  5
247FA
331
247BB
  5
247BB
331
24839
  5
24839
331
24802
  5
24802
331
247C3
  5
247C3
331
247CB
  5
247CB
331
24880
  5
24880
331
24849
  5
24849
331
2480A
  5
2480A
331
247D3
  5
247D3
331
24851
  5
24851
331
24812
  5
24812
331
247DB
  5
247DB
331
24859
  5
24859
331
2481A
  5
2481A
331
247E3
  5
247E3
331
247A4
  5
247A4
331
24861
  5
24861
331
24822
  5
24822
331
247EB
  5
247EB
331
247AC
  5
247AC
331
24869
  5
24869
331
2482A
  5
2482A
331
247F3
  5
247F3
331
247B4
  5
247B4
331
24832
  5
24832
331
247FB
  5
247FB
331
247BC
  5
247BC
331
24879
  5
24879
331
2483A
  5
2483A
331
24803
  5
24803
331
247C4
  5
247C4
331
247CC
  5
247CC
  0
XRECORD
  5
2535C
102
{ACAD_REACTORS
330
2535B
102
}
330
2535B
100
AcDbXrecord
280
     1
 70
     1
  0
LAYOUT
  5
22
102
{ACAD_XDICTIONARY
360
2535F
102
}
102
{ACAD_REACTORS
330
1A
102
}
330
1A
100
AcDbPlotSettings
  1

  2
Adobe PDF
  4
A3
  6

 40
3.174999952316284
 41
3.174999952316284
 42
3.17498779296875
 43
3.17498779296875
 44
297.0318298339844
 45
420.1583251953125
 46
0.0
 47
5.689672045650581
 48
5184.303826106638
 49
283.035892894206
140
5762.303826106638
141
700.5358928942059
142
1.0
143
1.43627822432955
 70
  3764
 72
     1
 73
     1
 74
     4
  7
monochrome.ctb
 75
     0
147
0.6962439331465853
148
-5184.303826106638
149
-283.035892894206
100
AcDbLayout
  1
Model
 70
     1
 71
     0
 10
0.0
 20
0.0
 11
12.0
 21
9.0
 12
0.0
 22
0.0
 32
0.0
 14
0.0
 24
0.0
 34
0.0
 15
0.0
 25
0.0
 35
0.0
146
0.0
 13
0.0
 23
0.0
 33
0.0
 16
1.0
 26
0.0
 36
0.0
 17
0.0
 27
1.0
 37
0.0
 76
     0
330
1F
331
B0EC
1001
ACAD_PSEXT
1000
Adobe PDF
1000
Adobe PDF Converter
1000
My Documents\*.pdf
1000

1070
     0
  0
LAYOUT
  5
1E
102
{ACAD_XDICTIONARY
360
2535D
102
}
102
{ACAD_REACTORS
330
1A
102
}
330
1A
100
AcDbPlotSettings
  1

  2
\\ML370\XEROX
  4
A4
  6

 40
3.174999952316284
 41
3.174999952316284
 42
3.175003051757812
 43
3.17498779296875
 44
209.8674926757813
 45
296.6719970703125
 46
0.0
 47
0.0
 48
0.0
 49
0.0
140
0.0
141
0.0
142
1.0
143
1.0
 70
   688
 72
     1
 73
     1
 74
     5
  7
monochrome.ctb
 75
    16
147
1.0
148
0.0
149
0.0
100
AcDbLayout
  1
ﾚｲｱｳﾄ1
 70
     1
 71
     1
 10
-3.17498779296875
 20
-3.174999952316284
 11
293.4970092773438
 21
206.692492723465
 12
0.0
 22
0.0
 32
0.0
 14
1.000000000000000E+20
 24
1.000000000000000E+20
 34
1.000000000000000E+20
 15
-1.000000000000000E+20
 25
-1.000000000000000E+20
 35
-1.000000000000000E+20
146
0.0
 13
0.0
 23
0.0
 33
0.0
 16
1.0
 26
0.0
 36
0.0
 17
0.0
 27
1.0
 37
0.0
 76
     0
330
1B
  0
LAYOUT
  5
26
102
{ACAD_XDICTIONARY
360
25361
102
}
102
{ACAD_REACTORS
330
1A
102
}
330
1A
100
AcDbPlotSettings
  1

  2
\\ML370\XEROX
  4

  6

 40
0.0
 41
0.0
 42
0.0
 43
0.0
 44
0.0
 45
0.0
 46
0.0
 47
0.0
 48
0.0
 49
0.0
140
0.0
141
0.0
142
1.0
143
1.0
 70
   688
 72
     0
 73
     0
 74
     5
  7
monochrome.ctb
 75
    16
147
1.0
148
0.0
149
0.0
100
AcDbLayout
  1
ﾚｲｱｳﾄ2
 70
     1
 71
     2
 10
0.0
 20
0.0
 11
12.0
 21
9.0
 12
0.0
 22
0.0
 32
0.0
 14
0.0
 24
0.0
 34
0.0
 15
0.0
 25
0.0
 35
0.0
146
0.0
 13
0.0
 23
0.0
 33
0.0
 16
1.0
 26
0.0
 36
0.0
 17
0.0
 27
1.0
 37
0.0
 76
     0
330
23
  0
MATERIAL
  5
B0EF
102
{ACAD_XDICTIONARY
360
25367
102
}
102
{ACAD_REACTORS
330
A91C
102
}
330
A91C
100
AcDbMaterial
  1
ByBlock
  0
MATERIAL
  5
B0EE
102
{ACAD_XDICTIONARY
360
25365
102
}
102
{ACAD_REACTORS
330
A91C
102
}
330
A91C
100
AcDbMaterial
  1
ByLayer
  0
MATERIAL
  5
B0F0
102
{ACAD_XDICTIONARY
360
25369
102
}
102
{ACAD_REACTORS
330
A91C
102
}
330
A91C
100
AcDbMaterial
  1
Global
  0
MLINESTYLE
  5
18
102
{ACAD_REACTORS
330
17
102
}
330
17
100
AcDbMlineStyle
  2
STANDARD
 70
     0
  3

 62
   256
 51
90.0
 52
90.0
 71
     2
 49
0.5
 62
   256
  6
BYLAYER
 49
-0.5
 62
   256
  6
BYLAYER
  0
ACDBPLACEHOLDER
  5
F
102
{ACAD_REACTORS
330
E
102
}
330
E
  0
TABLESTYLE
  5
AABA
102
{ACAD_XDICTIONARY
360
25363
102
}
102
{ACAD_REACTORS
330
AAB9
102
}
330
AAB9
100
AcDbTableStyle
  3
Standard
 70
     0
 71
     0
 40
1.5
 41
1.5
280
     0
281
     0
  7
STANDARD
140
4.5
170
     2
 62
     0
 63
     7
283
     0
274
    -2
284
     1
 64
     0
275
    -2
285
     1
 65
     0
276
    -2
286
     1
 66
     0
277
    -2
287
     1
 67
     0
278
    -2
288
     1
 68
     0
279
    -2
289
     1
 69
     0
  7
STANDARD
140
6.0
170
     5
 62
     0
 63
     7
283
     0
274
    -2
284
     1
 64
     0
275
    -2
285
     1
 65
     0
276
    -2
286
     1
 66
     0
277
    -2
287
     1
 67
     0
278
    -2
288
     1
 68
     0
279
    -2
289
     1
 69
     0
  7
STANDARD
140
4.5
170
     5
 62
     0
 63
     7
283
     0
274
    -2
284
     1
 64
     0
275
    -2
285
     1
 65
     0
276
    -2
286
     1
 66
     0
277
    -2
287
     1
 67
     0
278
    -2
288
     1
 68
     0
279
    -2
289
     1
 69
     0
  0
VISUALSTYLE
  5
B0F7
102
{ACAD_REACTORS
330
B0F1
102
}
330
B0F1
100
AcDbVisualStyle
  2
2dWireframe
 70
     4
 71
     0
 72
     2
 73
     0
 90
        0
 40
-0.6
 41
-30.0
 62
     5
 63
     7
 74
     1
 91
        4
 64
     7
 65
   257
 75
     1
175
     1
 42
1.0
 92
        0
 66
   257
 43
1.0
 76
     1
 77
     6
 78
     2
 67
     7
 79
     5
170
     0
171
     0
290
     0
174
     0
 93
        1
 44
0.0
173
     0
291
     0
 45
0.0
1001
ACAD
1000
AcDbSavedByObjectVersion
1070
     0
  0
VISUALSTYLE
  5
B0F9
102
{ACAD_REACTORS
330
B0F1
102
}
330
B0F1
100
AcDbVisualStyle
  2
3D Hidden
 70
     6
 71
     1
 72
     2
 73
     2
 90
        0
 40
-0.6
 41
-30.0
 62
     5
 63
     7
 74
     2
 91
        2
 64
     7
 65
   257
 75
     2
175
     1
 42
40.0
 92
        0
 66
   257
 43
1.0
 76
     1
 77
     6
 78
     2
 67
     7
 79
     3
170
     0
171
     0
290
     0
174
     0
 93
        1
 44
0.0
173
     0
291
     0
 45
0.0
1001
ACAD
1000
AcDbSavedByObjectVersion
1070
     0
  0
VISUALSTYLE
  5
B0F8
102
{ACAD_REACTORS
330
B0F1
102
}
330
B0F1
100
AcDbVisualStyle
  2
3dWireframe
 70
     5
 71
     0
 72
     2
 73
     0
 90
        0
 40
-0.6
 41
-30.0
 62
     5
 63
     7
 74
     1
 91
        4
 64
     7
 65
   257
 75
     1
175
     1
 42
1.0
 92
        0
 66
   257
 43
1.0
 76
     1
 77
     6
 78
     2
 67
     7
 79
     5
170
     0
171
     0
290
     0
174
     0
 93
        1
 44
0.0
173
     0
291
     0
 45
0.0
1001
ACAD
1000
AcDbSavedByObjectVersion
1070
     0
  0
VISUALSTYLE
  5
B0F6
102
{ACAD_REACTORS
330
B0F1
102
}
330
B0F1
100
AcDbVisualStyle
  2
Basic
 70
     7
 71
     1
 72
     0
 73
     1
 90
        0
 40
-0.6
 41
-30.0
 62
     5
 63
     7
 74
     0
 91
        4
 64
     7
 65
   257
 75
     1
175
     1
 42
1.0
 92
        8
 66
     7
 43
1.0
 76
     1
 77
     6
 78
     2
 67
     7
 79
     5
170
     0
171
     0
290
     0
174
     0
 93
        1
 44
0.0
173
     0
291
     1
 45
0.0
1001
ACAD
1000
AcDbSavedByObjectVersion
1070
     0
  0
VISUALSTYLE
  5
B0FD
102
{ACAD_REACTORS
330
B0F1
102
}
330
B0F1
100
AcDbVisualStyle
  2
Brighten
 70
    12
 71
     2
 72
     2
 73
     0
 90
        0
 40
-0.6
 41
-30.0
 62
     5
 63
     7
 74
     1
 91
        4
 64
     7
 65
   257
 75
     1
175
     1
 42
1.0
 92
        8
 66
     7
 43
1.0
 76
     1
 77
     6
 78
     2
 67
     7
 79
     5
170
     0
171
     0
290
     0
174
     0
 93
        1
 44
50.0
173
     0
291
     1
 45
0.0
1001
ACAD
1000
AcDbSavedByObjectVersion
1070
     0
  0
VISUALSTYLE
  5
B101
102
{ACAD_REACTORS
330
B0F1
102
}
330
B0F1
100
AcDbVisualStyle
  2
ColorChange
 70
    16
 71
     2
 72
     2
 73
     3
 90
        0
 40
-0.6
 41
-30.0
 62
     5
 63
     8
 74
     1
 91
        4
 64
     7
 65
   257
 75
     1
175
     1
 42
1.0
 92
        8
 66
     8
 43
1.0
 76
     1
 77
     6
 78
     2
 67
     7
 79
     5
170
     0
171
     0
290
     0
174
     0
 93
        1
 44
0.0
173
     0
291
     1
 45
0.0
1001
ACAD
1000
AcDbSavedByObjectVersion
1070
     0
  0
VISUALSTYLE
  5
B0FA
102
{ACAD_REACTORS
330
B0F1
102
}
330
B0F1
100
AcDbVisualStyle
  2
Conceptual
 70
     9
 71
     3
 72
     2
 73
     0
 90
        0
 40
-0.6
 41
-30.0
 62
     5
 63
     7
 74
     2
 91
        2
 64
     7
 65
   257
 75
     1
175
     1
 42
40.0
 92
        8
 66
     7
 43
1.0
 76
     1
 77
     6
 78
     2
 67
     7
 79
     3
170
     0
171
     0
290
     0
174
     0
 93
        1
 44
0.0
173
     0
291
     0
 45
0.0
1001
ACAD
1000
AcDbSavedByObjectVersion
1070
     0
  0
VISUALSTYLE
  5
B0FC
102
{ACAD_REACTORS
330
B0F1
102
}
330
B0F1
100
AcDbVisualStyle
  2
Dim
 70
    11
 71
     2
 72
     2
 73
     0
 90
        0
 40
-0.6
 41
-30.0
 62
     5
 63
     7
 74
     1
 91
        4
 64
     7
 65
   257
 75
     1
175
     1
 42
1.0
 92
        8
 66
     7
 43
1.0
 76
     1
 77
     6
 78
     2
 67
     7
 79
     5
170
     0
171
     0
290
     0
174
     0
 93
        1
 44
-50.0
173
     0
291
     1
 45
0.0
1001
ACAD
1000
AcDbSavedByObjectVersion
1070
     0
  0
VISUALSTYLE
  5
B100
102
{ACAD_REACTORS
330
B0F1
102
}
330
B0F1
100
AcDbVisualStyle
  2
Facepattern
 70
    15
 71
     2
 72
     2
 73
     0
 90
        0
 40
-0.6
 41
-30.0
 62
     5
 63
     7
 74
     1
 91
        4
 64
     7
 65
   257
 75
     1
175
     1
 42
1.0
 92
        8
 66
     7
 43
1.0
 76
     1
 77
     6
 78
     2
 67
     7
 79
     5
170
     0
171
     0
290
     0
174
     0
 93
        1
 44
0.0
173
     0
291
     1
 45
0.0
1001
ACAD
1000
AcDbSavedByObjectVersion
1070
     0
  0
VISUALSTYLE
  5
B0F2
102
{ACAD_REACTORS
330
B0F1
102
}
330
B0F1
100
AcDbVisualStyle
  2
Flat
 70
     0
 71
     2
 72
     1
 73
     1
 90
        2
 40
-0.6
 41
30.0
 62
     5
 63
     7
 74
     0
 91
        4
 64
     7
 65
   257
 75
     1
175
     1
 42
1.0
 92
        8
 66
     7
 43
1.0
 76
     1
 77
     6
 78
     2
 67
     7
 79
     5
170
     0
171
     0
290
     0
174
     0
 93
       13
 44
0.0
173
     0
291
     1
 45
0.0
1001
ACAD
1000
AcDbSavedByObjectVersion
1070
     0
  0
VISUALSTYLE
  5
B0F3
102
{ACAD_REACTORS
330
B0F1
102
}
330
B0F1
100
AcDbVisualStyle
  2
FlatWithEdges
 70
     1
 71
     2
 72
     1
 73
     1
 90
        2
 40
-0.6
 41
30.0
 62
     5
 63
     7
 74
     1
 91
        4
 64
     7
 65
   257
 75
     1
175
     1
 42
1.0
 92
        0
 66
   257
 43
1.0
 76
     1
 77
     6
 78
     2
 67
     7
 79
     5
170
     0
171
     0
290
     0
174
     0
 93
       13
 44
0.0
173
     0
291
     1
 45
0.0
1001
ACAD
1000
AcDbSavedByObjectVersion
1070
     0
  0
VISUALSTYLE
  5
B0F4
102
{ACAD_REACTORS
330
B0F1
102
}
330
B0F1
100
AcDbVisualStyle
  2
Gouraud
 70
     2
 71
     2
 72
     2
 73
     1
 90
        2
 40
-0.6
 41
30.0
 62
     5
 63
     7
 74
     0
 91
        4
 64
     7
 65
   257
 75
     1
175
     1
 42
1.0
 92
        0
 66
     7
 43
1.0
 76
     1
 77
     6
 78
     2
 67
     7
 79
     5
170
     0
171
     0
290
     0
174
     0
 93
       13
 44
0.0
173
     0
291
     1
 45
0.0
1001
ACAD
1000
AcDbSavedByObjectVersion
1070
     0
  0
VISUALSTYLE
  5
B0F5
102
{ACAD_REACTORS
330
B0F1
102
}
330
B0F1
100
AcDbVisualStyle
  2
GouraudWithEdges
 70
     3
 71
     2
 72
     2
 73
     1
 90
        2
 40
-0.6
 41
30.0
 62
     5
 63
     7
 74
     1
 91
        4
 64
     7
 65
   257
 75
     1
175
     1
 42
1.0
 92
        0
 66
   257
 43
1.0
 76
     1
 77
     6
 78
     2
 67
     7
 79
     5
170
     0
171
     0
290
     0
174
     0
 93
       13
 44
0.0
173
     0
291
     1
 45
0.0
1001
ACAD
1000
AcDbSavedByObjectVersion
1070
     0
  0
VISUALSTYLE
  5
B0FF
102
{ACAD_REACTORS
330
B0F1
102
}
330
B0F1
100
AcDbVisualStyle
  2
Linepattern
 70
    14
 71
     2
 72
     2
 73
     0
 90
        0
 40
-0.6
 41
-30.0
 62
     5
 63
     7
 74
     1
 91
        4
 64
     7
 65
   257
 75
     7
175
     7
 42
1.0
 92
        8
 66
     7
 43
1.0
 76
     1
 77
     6
 78
     2
 67
     7
 79
     5
170
     0
171
     0
290
     0
174
     0
 93
        1
 44
0.0
173
     0
291
     1
 45
0.0
1001
ACAD
1000
AcDbSavedByObjectVersion
1070
     0
  0
VISUALSTYLE
  5
B0FB
102
{ACAD_REACTORS
330
B0F1
102
}
330
B0F1
100
AcDbVisualStyle
  2
Realistic
 70
     8
 71
     2
 72
     2
 73
     0
 90
        0
 40
-0.6
 41
-30.0
 62
     5
 63
     7
 74
     1
 91
        0
 64
     7
 65
   257
 75
     1
175
     1
 42
1.0
 92
        8
 66
     8
 43
1.0
 76
     1
 77
     6
 78
     2
 67
     7
 79
     5
170
     0
171
     0
290
     0
174
     0
 93
       13
 44
0.0
173
     0
291
     0
 45
0.0
1001
ACAD
1000
AcDbSavedByObjectVersion
1070
     0
  0
VISUALSTYLE
  5
B0FE
102
{ACAD_REACTORS
330
B0F1
102
}
330
B0F1
100
AcDbVisualStyle
  2
Thicken
 70
    13
 71
     2
 72
     2
 73
     0
 90
        0
 40
-0.6
 41
-30.0
 62
     5
 63
     7
 74
     1
 91
        4
 64
     7
 65
   257
 75
     1
175
     1
 42
1.0
 92
       12
 66
     7
 43
1.0
 76
     1
 77
     6
 78
     2
 67
     7
 79
     5
170
     0
171
     0
290
     0
174
     0
 93
        1
 44
0.0
173
     0
291
     1
 45
0.0
1001
ACAD
1000
AcDbSavedByObjectVersion
1070
     0
  0
DICTIONARYVAR
  5
AAF3
102
{ACAD_REACTORS
330
34
102
}
330
34
100
DictionaryVariables
280
     0
  1
STANDARD
  0
DICTIONARYVAR
  5
A10C
102
{ACAD_REACTORS
330
34
102
}
330
34
100
DictionaryVariables
280
     0
  1
1
  0
DICTIONARYVAR
  5
AB07
102
{ACAD_REACTORS
330
34
102
}
330
34
100
DictionaryVariables
280
     0
  1
4
  0
DICTIONARYVAR
  5
164EF
102
{ACAD_REACTORS
330
34
102
}
330
34
100
DictionaryVariables
280
     0
  1
144.323471;36.400000
  0
DICTIONARYVAR
  5
35
102
{ACAD_REACTORS
330
34
102
}
330
34
100
DictionaryVariables
280
     0
  1
0
  0
DICTIONARYVAR
  5
194C
102
{ACAD_REACTORS
330
34
102
}
330
34
100
DictionaryVariables
280
     0
  1
96
  0
DICTIONARY
  5
7E8
102
{ACAD_REACTORS
330
47
102
}
330
47
100
AcDbDictionary
281
     1
  0
DICTIONARY
  5
4C
102
{ACAD_REACTORS
330
47
102
}
330
47
100
AcDbDictionary
281
     1
  0
XRECORD
  5
A929
102
{ACAD_REACTORS
330
47
102
}
330
47
100
AcDbXrecord
280
     1
 90
-1023410169
  0
XRECORD
  5
B332
102
{ACAD_REACTORS
330
B331
102
}
330
B331
100
AcDbXrecord
280
     1
  0
XRECORD
  5
3FB7
102
{ACAD_REACTORS
330
3F96
102
}
330
3F96
100
AcDbXrecord
280
     1
 91
        3
330
0
 90
        8
 62
     7
370
    40
331
16
  1
Color_7
330
0
 90
        0
 62
    14
370
    -3
331
16
  1
Color_14
330
0
 90
        8
 62
     7
370
    20
331
16
  1
Color_7
330
6D1
 90
        0
 62
     7
370
    -3
331
16
  1
Color_7
330
0
 90
        8
 62
     7
370
    50
331
16
  1
Color_7
330
0
 90
        8
 62
     2
370
    35
331
16
  1
Color_2
330
0
 90
        8
 62
     7
370
    -3
331
16
  1
Color_7
330
10
 90
        8
 62
     7
370
    -3
331
16
  1
Color_7
  0
DICTIONARY
  5
2535F
330
22
100
AcDbDictionary
280
     1
281
     1
  3
ACAD_XREC_ROUNDTRIP
360
25360
  0
DICTIONARY
  5
2535D
330
1E
100
AcDbDictionary
280
     1
281
     1
  3
ACAD_XREC_ROUNDTRIP
360
2535E
  0
DICTIONARY
  5
25361
330
26
100
AcDbDictionary
280
     1
281
     1
  3
ACAD_XREC_ROUNDTRIP
360
25362
  0
DICTIONARY
  5
25367
330
B0EF
100
AcDbDictionary
280
     1
281
     1
  3
ACAD_XREC_ROUNDTRIP
360
25368
  0
DICTIONARY
  5
25365
330
B0EE
100
AcDbDictionary
280
     1
281
     1
  3
ACAD_XREC_ROUNDTRIP
360
25366
  0
DICTIONARY
  5
25369
330
B0F0
100
AcDbDictionary
280
     1
281
     1
  3
ACAD_XREC_ROUNDTRIP
360
2536A
  0
DICTIONARY
  5
25363
330
AABA
100
AcDbDictionary
280
     1
281
     1
  3
ACAD_XREC_ROUNDTRIP
360
25364
  0
XRECORD
  5
25360
102
{ACAD_REACTORS
330
2535F
102
}
330
2535F
100
AcDbXrecord
280
     1
102
SHADEPLOT
 70
     1
102
SHADEPLOTRESLEVEL
 70
     2
102
SHADEPLOTCUSTOMDPI
 70
   300
  0
XRECORD
  5
2535E
102
{ACAD_REACTORS
330
2535D
102
}
330
2535D
100
AcDbXrecord
280
     1
102
SHADEPLOT
 70
     0
102
SHADEPLOTRESLEVEL
 70
     2
102
SHADEPLOTCUSTOMDPI
 70
   300
  0
XRECORD
  5
25362
102
{ACAD_REACTORS
330
25361
102
}
330
25361
100
AcDbXrecord
280
     1
102
SHADEPLOT
 70
     0
102
SHADEPLOTRESLEVEL
 70
     2
102
SHADEPLOTCUSTOMDPI
 70
   300
  0
XRECORD
  5
25368
102
{ACAD_REACTORS
330
25367
102
}
330
25367
100
AcDbXrecord
280
     1
102
MATERIAL
148
0.0
149
0.0
149
0.0
 93
        0
 94
       63
282
     0
 72
     1
 77
     1
171
     1
175
     1
179
     1
273
     0
  0
XRECORD
  5
25366
102
{ACAD_REACTORS
330
25365
102
}
330
25365
100
AcDbXrecord
280
     1
102
MATERIAL
148
0.0
149
0.0
149
0.0
 93
        0
 94
       63
282
     0
 72
     1
 77
     1
171
     1
175
     1
179
     1
273
     0
  0
XRECORD
  5
2536A
102
{ACAD_REACTORS
330
25369
102
}
330
25369
100
AcDbXrecord
280
     1
102
MATERIAL
148
0.0
149
0.0
149
0.0
 93
        0
 94
       63
282
     0
 72
     1
 77
     1
171
     1
175
     1
179
     1
273
     0
  0
XRECORD
  5
25364
102
{ACAD_REACTORS
330
25363
102
}
330
25363
100
AcDbXrecord
280
     1
102
ACAD_ROUNDTRIP_PRE2007_TABLESTYLE
 90
        4
 91
        0
  1

 92
        4
 93
        0
  2

 94
        4
 95
        0
  3

  0
ENDSEC
  0
EOF
