  0
SECTION
  2
HEADER
  9
$ACADVER
  1
AC1018
  9
$ACADMAINTVER
 70
   104
  9
$DWGCODEPAGE
  3
ANSI_932
  9
$LASTSAVEDBY
  1
Administrator
  9
$CUSTOMPROPERTYTAG
  1
AmdtFileType
  9
$CUSTOMPROPERTY
  1
84
  9
$INSBASE
 10
0.0
 20
0.0
 30
0.0
  9
$EXTMIN
 10
2021.900804538256
 20
1463.81721672135
 30
0.0
  9
$EXTMAX
 10
2441.900804538257
 20
1760.81721672135
 30
0.0
  9
$LIMMIN
 10
1700.85588156276
 20
1647.985052086429
  9
$LIMMAX
 10
1997.85588156276
 20
1857.985052086429
  9
$ORTHOMODE
 70
     0
  9
$REGENMODE
 70
     1
  9
$FILLMODE
 70
     1
  9
$QTEXTMODE
 70
     0
  9
$MIRRTEXT
 70
     0
  9
$LTSCALE
 40
1.0
  9
$ATTMODE
 70
     1
  9
$TEXTSIZE
 40
3.2
  9
$TRACEWID
 40
1.0
  9
$TEXTSTYLE
  7
STANDARD
  9
$CLAYER
  8
AM_0
  9
$CELTYPE
  6
ByLayer
  9
$CECOLOR
 62
   256
  9
$CELTSCALE
 40
1.0
  9
$DISPSILH
 70
     0
  9
$DIMSCALE
 40
1.0
  9
$DIMASZ
 40
1.0
  9
$DIMEXO
 40
1.0
  9
$DIMDLI
 40
10.0
  9
$DIMRND
 40
0.0
  9
$DIMDLE
 40
0.0
  9
$DIMEXE
 40
1.0
  9
$DIMTP
 40
0.1
  9
$DIMTM
 40
0.1
  9
$DIMTXT
 40
3.5
  9
$DIMCEN
 40
0.0
  9
$DIMTSZ
 40
0.0
  9
$DIMTOL
 70
     0
  9
$DIMLIM
 70
     0
  9
$DIMTIH
 70
     0
  9
$DIMTOH
 70
     0
  9
$DIMSE1
 70
     0
  9
$DIMSE2
 70
     0
  9
$DIMTAD
 70
     1
  9
$DIMZIN
 70
     8
  9
$DIMBLK
  1

  9
$DIMASO
 70
     1
  9
$DIMSHO
 70
     1
  9
$DIMPOST
  1

  9
$DIMAPOST
  1
"
  9
$DIMALT
 70
     0
  9
$DIMALTD
 70
     2
  9
$DIMALTF
 40
0.0393701
  9
$DIMLFAC
 40
1.0
  9
$DIMTOFL
 70
     1
  9
$DIMTVP
 40
0.0
  9
$DIMTIX
 70
     0
  9
$DIMSOXD
 70
     0
  9
$DIMSAH
 70
     0
  9
$DIMBLK1
  1

  9
$DIMBLK2
  1

  9
$DIMSTYLE
  2
SYS
  9
$DIMCLRD
 70
   256
  9
$DIMCLRE
 70
   256
  9
$DIMCLRT
 70
     7
  9
$DIMTFAC
 40
0.71
  9
$DIMGAP
 40
1.5
  9
$DIMJUST
 70
     0
  9
$DIMSD1
 70
     0
  9
$DIMSD2
 70
     0
  9
$DIMTOLJ
 70
     0
  9
$DIMTZIN
 70
     8
  9
$DIMALTZ
 70
     0
  9
$DIMALTTZ
 70
     0
  9
$DIMUPT
 70
     0
  9
$DIMDEC
 70
     2
  9
$DIMTDEC
 70
     2
  9
$DIMALTU
 70
     2
  9
$DIMALTTD
 70
     2
  9
$DIMTXSTY
  7
STANDARD
  9
$DIMAUNIT
 70
     0
  9
$DIMADEC
 70
     0
  9
$DIMALTRND
 40
0.0
  9
$DIMAZIN
 70
     2
  9
$DIMDSEP
 70
    46
  9
$DIMATFIT
 70
     3
  9
$DIMFRAC
 70
     0
  9
$DIMLDRBLK
  1

  9
$DIMLUNIT
 70
     2
  9
$DIMLWD
 70
    -1
  9
$DIMLWE
 70
    -1
  9
$DIMTMOVE
 70
     0
  9
$LUNITS
 70
     2
  9
$LUPREC
 70
     2
  9
$SKETCHINC
 40
1.0
  9
$FILLETRAD
 40
0.0
  9
$AUNITS
 70
     0
  9
$AUPREC
 70
     0
  9
$MENU
  1
.
  9
$ELEVATION
 40
0.0
  9
$PELEVATION
 40
0.0
  9
$THICKNESS
 40
0.0
  9
$LIMCHECK
 70
     0
  9
$CHAMFERA
 40
0.0
  9
$CHAMFERB
 40
0.0
  9
$CHAMFERC
 40
20.0
  9
$CHAMFERD
 40
0.0
  9
$SKPOLY
 70
     0
  9
$TDCREATE
 40
2455589.725420093
  9
$TDUCREATE
 40
2455589.350420093
  9
$TDUPDATE
 40
2455628.914512442
  9
$TDUUPDATE
 40
2455628.539512442
  9
$TDINDWG
 40
0.0331349537
  9
$TDUSRTIMER
 40
0.0331347801
  9
$USRTIMER
 70
     1
  9
$ANGBASE
 50
0.0
  9
$ANGDIR
 70
     0
  9
$PDMODE
 70
     0
  9
$PDSIZE
 40
-3.0
  9
$PLINEWID
 40
0.0
  9
$SPLFRAME
 70
     0
  9
$SPLINETYPE
 70
     6
  9
$SPLINESEGS
 70
     8
  9
$HANDSEED
  5
BDA5
  9
$SURFTAB1
 70
     6
  9
$SURFTAB2
 70
     6
  9
$SURFTYPE
 70
     6
  9
$SURFU
 70
     6
  9
$SURFV
 70
     6
  9
$UCSBASE
  2

  9
$UCSNAME
  2

  9
$UCSORG
 10
0.0
 20
0.0
 30
0.0
  9
$UCSXDIR
 10
1.0
 20
0.0
 30
0.0
  9
$UCSYDIR
 10
0.0
 20
1.0
 30
0.0
  9
$UCSORTHOREF
  2

  9
$UCSORTHOVIEW
 70
     0
  9
$UCSORGTOP
 10
0.0
 20
0.0
 30
0.0
  9
$UCSORGBOTTOM
 10
0.0
 20
0.0
 30
0.0
  9
$UCSORGLEFT
 10
0.0
 20
0.0
 30
0.0
  9
$UCSORGRIGHT
 10
0.0
 20
0.0
 30
0.0
  9
$UCSORGFRONT
 10
0.0
 20
0.0
 30
0.0
  9
$UCSORGBACK
 10
0.0
 20
0.0
 30
0.0
  9
$PUCSBASE
  2

  9
$PUCSNAME
  2

  9
$PUCSORG
 10
0.0
 20
0.0
 30
0.0
  9
$PUCSXDIR
 10
1.0
 20
0.0
 30
0.0
  9
$PUCSYDIR
 10
0.0
 20
1.0
 30
0.0
  9
$PUCSORTHOREF
  2

  9
$PUCSORTHOVIEW
 70
     0
  9
$PUCSORGTOP
 10
0.0
 20
0.0
 30
0.0
  9
$PUCSORGBOTTOM
 10
0.0
 20
0.0
 30
0.0
  9
$PUCSORGLEFT
 10
0.0
 20
0.0
 30
0.0
  9
$PUCSORGRIGHT
 10
0.0
 20
0.0
 30
0.0
  9
$PUCSORGFRONT
 10
0.0
 20
0.0
 30
0.0
  9
$PUCSORGBACK
 10
0.0
 20
0.0
 30
0.0
  9
$USERI1
 70
     0
  9
$USERI2
 70
     0
  9
$USERI3
 70
     0
  9
$USERI4
 70
     0
  9
$USERI5
 70
     0
  9
$USERR1
 40
0.0
  9
$USERR2
 40
0.0
  9
$USERR3
 40
0.0
  9
$USERR4
 40
0.0
  9
$USERR5
 40
0.0
  9
$WORLDVIEW
 70
     1
  9
$SHADEDGE
 70
     3
  9
$SHADEDIF
 70
    70
  9
$TILEMODE
 70
     1
  9
$MAXACTVP
 70
    64
  9
$PINSBASE
 10
0.0
 20
0.0
 30
0.0
  9
$PLIMCHECK
 70
     0
  9
$PEXTMIN
 10
1.000000000000000E+20
 20
1.000000000000000E+20
 30
1.000000000000000E+20
  9
$PEXTMAX
 10
-1.000000000000000E+20
 20
-1.000000000000000E+20
 30
-1.000000000000000E+20
  9
$PLIMMIN
 10
-3.17498779296875
 20
-3.174999952316284
  9
$PLIMMAX
 10
293.4970092773438
 20
206.692492723465
  9
$UNITMODE
 70
     0
  9
$VISRETAIN
 70
     1
  9
$PLINEGEN
 70
     0
  9
$PSLTSCALE
 70
     1
  9
$TREEDEPTH
 70
  3020
  9
$CMLSTYLE
  2
Standard
  9
$CMLJUST
 70
     0
  9
$CMLSCALE
 40
20.0
  9
$PROXYGRAPHICS
 70
     1
  9
$MEASUREMENT
 70
     1
  9
$CELWEIGHT
370
    -1
  9
$ENDCAPS
280
     0
  9
$JOINSTYLE
280
     0
  9
$LWDISPLAY
290
     1
  9
$INSUNITS
 70
     4
  9
$HYPERLINKBASE
  1

  9
$STYLESHEET
  1
monochrome.ctb
  9
$XEDIT
290
     1
  9
$CEPSNTYPE
380
     0
  9
$PSTYLEMODE
290
     1
  9
$FINGERPRINTGUID
  2
{DB89BD21-F946-4927-870C-8DBCA3A9071B}
  9
$VERSIONGUID
  2
{90B6C71D-C91D-489F-891E-B3F4188616A0}
  9
$EXTNAMES
290
     1
  9
$PSVPSCALE
 40
0.0
  9
$OLESTARTUP
290
     0
  9
$SORTENTS
280
    96
  9
$INDEXCTL
280
     0
  9
$HIDETEXT
280
     0
  9
$XCLIPFRAME
290
     0
  9
$HALOGAP
280
     0
  9
$OBSCOLOR
 70
   257
  9
$OBSLTYPE
280
     0
  9
$INTERSECTIONDISPLAY
280
     0
  9
$INTERSECTIONCOLOR
 70
   257
  9
$DIMASSOC
280
     1
  9
$PROJECTNAME
  1

  0
ENDSEC
  0
SECTION
  2
CLASSES
  0
CLASS
  1
ACDBDICTIONARYWDFLT
  2
AcDbDictionaryWithDefault
  3
ObjectDBX Classes
 90
        0
 91
        1
280
     0
281
     0
  0
CLASS
  1
ACDBPLACEHOLDER
  2
AcDbPlaceHolder
  3
ObjectDBX Classes
 90
        0
 91
        1
280
     0
281
     0
  0
CLASS
  1
LAYOUT
  2
AcDbLayout
  3
ObjectDBX Classes
 90
        0
 91
        3
280
     0
281
     0
  0
CLASS
  1
AMGSETTINGSOBJ
  2
AmgSettingsObj
  3
"AcadM|Product Description: AutoCAD Mechanical|Company: Autodesk"
 90
        0
 91
        4
280
     0
281
     0
  0
CLASS
  1
ACME_DOCUMENT
  2
AcMeDbDoc
  3
AcMeServices
 90
        0
 91
        2
280
     0
281
     0
  0
CLASS
  1
ACMESCOPE
  2
AcMeScope
  3
AcMeServices
 90
        0
 91
        1
280
     0
281
     0
  0
CLASS
  1
ACMECOMMANDHISTORY
  2
AcMeCommandHistory
  3
AcMeServices
 90
        0
 91
        1
280
     0
281
     0
  0
CLASS
  1
DICTIONARYVAR
  2
AcDbDictionaryVar
  3
ObjectDBX Classes
 90
        0
 91
        5
280
     0
281
     0
  0
CLASS
  1
ACIMSYSVARMAN
  2
AcImSysVarManager
  3
AcMeServices
 90
        0
 91
        6
280
     0
281
     0
  0
CLASS
  1
ACIMREALSYSVAR
  2
AcImRealSysVar
  3
AcMeServices
 90
        0
 91
       18
280
     0
281
     0
  0
CLASS
  1
ACIMINTSYSVAR
  2
AcImIntSysVar
  3
AcMeServices
 90
        0
 91
       98
280
     0
281
     0
  0
CLASS
  1
ACMEDRAWINGMAN
  2
AcMeDrawingMan
  3
AcMeServices
 90
        0
 91
        1
280
     0
281
     0
  0
CLASS
  1
ACMEVIEW
  2
AcMeView
  3
AcMeServices
 90
        0
 91
        1
280
     0
281
     0
  0
CLASS
  1
ACDBENTITYCACHE
  2
AcMeEntityCache
  3
AcMeServices
 90
        0
 91
        1
280
     0
281
     0
  0
CLASS
  1
GSMANAGER
  2
AcMeGSManager
  3
AcMeServices
 90
        0
 91
        1
280
     0
281
     0
  0
CLASS
  1
AMDTINTERNALREACTOR
  2
AmdtInternalReactor
  3
AcMeServices
 90
        0
 91
        2
280
     0
281
     0
  0
CLASS
  1
ACMESTATEMGR
  2
AcMeStateMgr
  3
AcMeServices
 90
        0
 91
        1
280
     0
281
     0
  0
CLASS
  1
ACGREFMASTER
  2
AcGrefMaster
  3
AcAttribServices
 90
        0
 91
        1
280
     0
281
     0
  0
CLASS
  1
ACME_DATABASE
  2
AcMeDbDatabase
  3
AcMeServices
 90
        0
 91
        1
280
     0
281
     0
  0
CLASS
  1
ACRFINSADJUSTERMGR
  2
AcRfInsAdjusterMgr
  3
AcMeServices
 90
        0
 91
        1
280
     0
281
     0
  0
CLASS
  1
ACGREFACADMASTER
  2
AcGrefacadMaster
  3
AcGrefServices
 90
        0
 91
        1
280
     0
281
     0
  0
CLASS
  1
AMIMASTER
  2
AmiMaster
  3
AmiServices
 90
        0
 91
        1
280
     0
281
     0
  0
CLASS
  1
ACMDATADICTIONARY
  2
AcmDataDictionary
  3
"AcmSymBB|Product Description: AutoCAD Mechanical|Company: Autodesk"
 90
        0
 91
        1
280
     0
281
     0
  0
CLASS
  1
ACMDATAENTRYBLOCK
  2
AcmDataEntryBlock
  3
"AcmSymBB|Product Description: AutoCAD Mechanical|Company: Autodesk"
 90
        0
 91
        6
280
     0
281
     0
  0
CLASS
  1
ACIMSTRSYSVAR
  2
AcImStrSysVar
  3
AcMeServices
 90
        0
 91
       11
280
     0
281
     0
  0
CLASS
  1
ACMSTANDARDISO
  2
AcmStandardISO
  3
"Amdt_StdImp|Product Description: AutoCAD Mechanical|Company: Autodesk"
 90
        0
 91
        2
280
     0
281
     0
  0
CLASS
  1
AMGOBJPROPCFG
  2
AmgObjPropCfg
  3
"AmgLay|Product Description: AutoCAD Mechanical|Company: Autodesk"
 90
        1
 91
        1
280
     0
281
     0
  0
CLASS
  1
AMDTEDGESTANDARDISO
  2
AmdtEdgeStdISO
  3
"Amdt_StdImp|Product Description: AutoCAD Mechanical|Company: Autodesk"
 90
        0
 91
        1
280
     0
281
     0
  0
CLASS
  1
ACMSURFSTANDARDISO
  2
AcmSurfTextStdISO
  3
"Amdt_StdImp|Product Description: AutoCAD Mechanical|Company: Autodesk"
 90
        0
 91
        2
280
     0
281
     0
  0
CLASS
  1
ACMFCFSTANDARDISO
  2
AcmFCFStdISO
  3
"Amdt_StdImp|Product Description: AutoCAD Mechanical|Company: Autodesk"
 90
        0
 91
        2
280
     0
281
     0
  0
CLASS
  1
ACMWELDSTANDARDISO
  2
AcmWeldingStdISO
  3
"Amdt_StdImp|Product Description: AutoCAD Mechanical|Company: Autodesk"
 90
        0
 91
        2
280
     0
281
     0
  0
CLASS
  1
ACMIDSTANDARDISO
  2
AcmIdStdISO
  3
"Amdt_StdImp|Product Description: AutoCAD Mechanical|Company: Autodesk"
 90
        0
 91
        2
280
     0
281
     0
  0
CLASS
  1
ACMDATUMSTANDARDISO
  2
AcmDatumStdISO
  3
"Amdt_StdImp|Product Description: AutoCAD Mechanical|Company: Autodesk"
 90
        0
 91
        2
280
     0
281
     0
  0
CLASS
  1
ACMBOMSTANDARDISO
  2
AcmBOMStdISO
  3
"Amdt_StdImp|Product Description: AutoCAD Mechanical|Company: Autodesk"
 90
        0
 91
        2
280
     0
281
     0
  0
CLASS
  1
ACMDETAILSTANDARDISO
  2
AmdtDetailSymStdISO
  3
"Amdt_StdImp|Product Description: AutoCAD Mechanical|Company: Autodesk"
 90
        0
 91
        2
280
     0
281
     0
  0
CLASS
  1
ACMSECTIONSTANDARDISO
  2
AmdtSectionSymStdISO
  3
"Amdt_StdImp|Product Description: AutoCAD Mechanical|Company: Autodesk"
 90
        0
 91
        2
280
     0
281
     0
  0
CLASS
  1
ACMCENTERLINESTANDARDISO
  2
AmdtCenterLineStdISO
  3
"Amdt_StdImp|Product Description: AutoCAD Mechanical|Company: Autodesk"
 90
        0
 91
        2
280
     0
281
     0
  0
CLASS
  1
ACAMGLAYSTD
  2
AcAmgLayStd
  3
"AmgLay|Product Description: AutoCAD Mechanical|Company: Autodesk"
 90
        0
 91
        2
280
     0
281
     0
  0
CLASS
  1
ACAMGDIMSTD
  2
AcAmgDimStd
  3
"AmgDim|Product Description: AutoCAD Mechanical|Company: Autodesk"
 90
        0
 91
        2
280
     0
281
     0
  0
CLASS
  1
ACAMGTITLESTD
  2
AcAmgTitleStd
  3
"AmgTitle|Product Description: AutoCAD Mechanical|Company: Autodesk"
 90
        0
 91
        2
280
     0
281
     0
  0
CLASS
  1
ACAMGFILTERDAT
  2
AcAmgFilterDat
  3
"AcadM|Product Description: AutoCAD Mechanical|Company: Autodesk"
 90
        0
 91
        6
280
     0
281
     0
  0
CLASS
  1
LAYER_INDEX
  2
AcDbLayerIndex
  3
ObjectDBX Classes
 90
        0
 91
        0
280
     0
281
     0
  0
CLASS
  1
IDBUFFER
  2
AcDbIdBuffer
  3
ObjectDBX Classes
 90
        0
 91
        0
280
     0
281
     0
  0
CLASS
  1
PLOTSETTINGS
  2
AcDbPlotSettings
  3
ObjectDBX Classes
 90
        0
 91
        0
280
     0
281
     0
  0
CLASS
  1
AMDTFORMULAUPDATEDISPATCHER
  2
AmdtFormulaUpdateDispatcher
  3
AcMeServices
 90
        0
 91
        1
280
     0
281
     0
  0
CLASS
  1
ACMSTANDARDANSI
  2
AcmStandardANSI
  3
"Amdt_StdImp|Product Description: AutoCAD Mechanical|Company: Autodesk"
 90
        0
 91
        0
280
     0
281
     0
  0
CLASS
  1
ACMSURFSTANDARDANSI
  2
AcmSurfTextStdANSI
  3
"Amdt_StdImp|Product Description: AutoCAD Mechanical|Company: Autodesk"
 90
        0
 91
        0
280
     0
281
     0
  0
CLASS
  1
ACMFCFSTANDARDANSI
  2
AcmFCFStdANSI
  3
"Amdt_StdImp|Product Description: AutoCAD Mechanical|Company: Autodesk"
 90
        0
 91
        0
280
     0
281
     0
  0
CLASS
  1
ACMWELDSTANDARDANSI
  2
AcmWeldingStdANSI
  3
"Amdt_StdImp|Product Description: AutoCAD Mechanical|Company: Autodesk"
 90
        0
 91
        0
280
     0
281
     0
  0
CLASS
  1
ACMIDSTANDARDANSI
  2
AcmIdStdANSI
  3
"Amdt_StdImp|Product Description: AutoCAD Mechanical|Company: Autodesk"
 90
        0
 91
        0
280
     0
281
     0
  0
CLASS
  1
ACMDATUMSTANDARDANSI
  2
AcmDatumStdANSI
  3
"Amdt_StdImp|Product Description: AutoCAD Mechanical|Company: Autodesk"
 90
        0
 91
        0
280
     0
281
     0
  0
CLASS
  1
ACMBOMSTANDARDANSI
  2
AcmBOMStdANSI
  3
"Amdt_StdImp|Product Description: AutoCAD Mechanical|Company: Autodesk"
 90
        0
 91
        0
280
     0
281
     0
  0
CLASS
  1
ACMDETAILSTANDARDANSI
  2
AmdtDetailSymStdANSI
  3
"Amdt_StdImp|Product Description: AutoCAD Mechanical|Company: Autodesk"
 90
        0
 91
        0
280
     0
281
     0
  0
CLASS
  1
ACMSECTIONSTANDARDANSI
  2
AmdtSectionSymStdANSI
  3
"Amdt_StdImp|Product Description: AutoCAD Mechanical|Company: Autodesk"
 90
        0
 91
        0
280
     0
281
     0
  0
CLASS
  1
ACMCENTERLINESTANDARDANSI
  2
AmdtCenterLineStdANSI
  3
"Amdt_StdImp|Product Description: AutoCAD Mechanical|Company: Autodesk"
 90
        0
 91
        0
280
     0
281
     0
  0
CLASS
  1
ACMBOM
  2
AcmBom
  3
"AcmSymBB|Product Description: AutoCAD Mechanical|Company: Autodesk"
 90
        0
 91
        1
280
     0
281
     0
  0
CLASS
  1
ACMDATAENTRYPART
  2
AcmDataEntryPart
  3
"AcmSymBB|Product Description: AutoCAD Mechanical|Company: Autodesk"
 90
        0
 91
        0
280
     0
281
     0
  0
CLASS
  1
ACMPARTREF
  2
AcmPartRef
  3
"AcmSymBB|Product Description: AutoCAD Mechanical|Company: Autodesk"
 90
     3071
 91
        0
280
     0
281
     1
  0
CLASS
  1
ACDBCIRCARCRES
  2
AcDbCircArcRes
  3
AcGrefServices
 90
        0
 91
        0
280
     0
281
     0
  0
CLASS
  1
ACMBOMROW
  2
AcmBomRow
  3
"AcmSymBB|Product Description: AutoCAD Mechanical|Company: Autodesk"
 90
        0
 91
        0
280
     0
281
     0
  0
CLASS
  1
ACMBALLOON
  2
AcmBalloon
  3
"AcmSymBB|Product Description: AutoCAD Mechanical|Company: Autodesk"
 90
     3071
 91
        0
280
     0
281
     1
  0
CLASS
  1
AMDTNOTE
  2
AmdtNote
  3
"AcmSymBB|Product Description: AutoCAD Mechanical|Company: Autodesk"
 90
     3071
 91
        0
280
     0
281
     1
  0
CLASS
  1
STDPART2D
  2
AmgStdPart
  3
"AmgStdPart|Product Description: AutoCAD Mechanical|Company: Autodesk"
 90
     3071
 91
        0
280
     0
281
     1
  0
CLASS
  1
ACDBSTDPARTRES_LINE
  2
AcDbStdPartRes_Line
  3
"AmgStdPart|Product Description: AutoCAD Mechanical|Company: Autodesk"
 90
        0
 91
        0
280
     0
281
     0
  0
CLASS
  1
ACMDATAENTRY
  2
AcmDataEntry
  3
"AcmSymBB|Product Description: AutoCAD Mechanical|Company: Autodesk"
 90
        0
 91
        9
280
     0
281
     0
  0
CLASS
  1
ACDBOPPOLYLINERES
  2
AcDbOpPolylineRes
  3
AcGrefServices
 90
        0
 91
        0
280
     0
281
     0
  0
CLASS
  1
ACMPARTLIST
  2
AcmPartList
  3
"AcmSymBB|Product Description: AutoCAD Mechanical|Company: Autodesk"
 90
     3071
 91
        0
280
     0
281
     1
  0
CLASS
  1
ACDBLINERES
  2
AcDbLineRes
  3
AcGrefServices
 90
        0
 91
        0
280
     0
281
     0
  0
CLASS
  1
ACRFINSADJ
  2
AcRfInsAdjuster
  3
AcMeServices
 90
        0
 91
        0
280
     0
281
     0
  0
CLASS
  1
AM_DRAWING_MGR
  2
AcDmDwgMgr
  3
AcMechDwgViewMgmt
 90
        0
 91
        1
280
     0
281
     0
  0
CLASS
  1
AM_DWG_DOCUMENT
  2
AcDmDwgDocument
  3
AcMechDwgViewMgmt
 90
        0
 91
        1
280
     0
281
     0
  0
CLASS
  1
AM_DWG_SHEET
  2
AcDmSheet
  3
AcMechDwgViewMgmt
 90
        0
 91
        2
280
     0
281
     0
  0
CLASS
  1
AM_VIEWDIMPARMAP
  2
AcDmViewDimParMap
  3
AcMechDwgViewMgmt
 90
        0
 91
        2
280
     0
281
     0
  0
CLASS
  1
AM_DWGMGR_NAME
  2
AcDmDwgMgrName
  3
AcMechDwgViewMgmt
 90
        0
 91
        1
280
     0
281
     0
  0
CLASS
  1
AMDTMENUSTATEMGR
  2
AmdtMenuStateMgr
  3
McadcomServices
 90
        0
 91
        1
280
     0
281
     0
  0
CLASS
  1
AMDTMCOMMENUSTATE
  2
AmdtMcomMenuState
  3
McadcomServices
 90
        0
 91
        1
280
     0
281
     0
  0
CLASS
  1
ASAPP
  2
AcAsAppObject
  3
AutoSurfServices
 90
        0
 91
        2
280
     0
281
     0
  0
CLASS
  1
IM_STATIC_MAN
  2
AcImStaticVarManager
  3
AcMeServices
 90
        0
 91
        1
280
     0
281
     0
  0
CLASS
  1
ACIMDBLSTATICVAR
  2
AcImDblStaticVar
  3
AcMeServices
 90
        0
 91
       20
280
     0
281
     0
  0
CLASS
  1
ACIMSTRSTATICVAR
  2
AcImStrStaticVar
  3
AcMeServices
 90
        0
 91
       12
280
     0
281
     0
  0
CLASS
  1
ACIMINTSTATICVAR
  2
AcImIntStaticVar
  3
AcMeServices
 90
        0
 91
       17
280
     0
281
     0
  0
CLASS
  1
ACASGREFMASTER
  2
AcAsGrefMaster
  3
AutoSurfResolverServices
 90
        0
 91
        2
280
     0
281
     0
  0
CLASS
  1
ACADGREFMODULE
  2
AcAdGrefModule
  3
AdGrefServices
 90
        0
 91
        2
280
     0
281
     0
  0
CLASS
  1
AMDTMAPISURFMOUDULE
  2
AmdtMApiSurfModule
  3
MApiSurfServices
 90
        0
 91
        2
280
     0
281
     0
  0
CLASS
  1
MAPIAMMOUDLE
  2
MApiAmModule
  3
MApiAmServices
 90
        0
 91
        1
280
     0
281
     0
  0
CLASS
  1
AMDTADMENUSTATE
  2
AmdtAdMenuState
  3
DesignerServices
 90
        0
 91
        1
280
     0
281
     0
  0
CLASS
  1
ADAPPL
  2
AcAdAppl
  3
DesignerServices
 90
        0
 91
        1
280
     0
281
     0
  0
CLASS
  1
DEPMGR
  2
AcAdDepMgr
  3
DesignerServices
 90
        0
 91
        1
280
     0
281
     0
  0
CLASS
  1
PARAMMGR
  2
AcAdParamMgr
  3
DesignerServices
 90
        0
 91
        1
280
     0
281
     0
  0
CLASS
  1
PARAMSCOPE
  2
AcAdParamScope
  3
DesignerServices
 90
        0
 91
        1
280
     0
281
     0
  0
CLASS
  1
NAMEDAPPL
  2
AcAdNamedAppl
  3
DesignerServices
 90
        0
 91
        1
280
     0
281
     0
  0
CLASS
  1
ADHNTMPLT
  2
AdHoleNoteTemplateMgr
  3
DesignerServices
 90
        0
 91
        0
280
     0
281
     0
  0
CLASS
  1
AM_HNTEMPLATE_MGR_NAME
  2
AdHoleNoteTemplateMgrName
  3
DesignerServices
 90
        0
 91
        0
280
     0
281
     0
  0
CLASS
  1
AMDTDMMENUSTATE
  2
AmdtDmMenuState
  3
AcMechDwgViewMgmt
 90
        0
 91
        1
280
     0
281
     0
  0
CLASS
  1
MAPIADMODULE
  2
MApiAdModule
  3
MApiAdServices
 90
        0
 91
        2
280
     0
281
     0
  0
CLASS
  1
AMDTAMMENUSTATE
  2
AmdtAmMenuState
  3
DesignerAssemblies
 90
        0
 91
        1
280
     0
281
     0
  0
CLASS
  1
ACAMPROJECT
  2
AcAmProject
  3
DesignerAssemblies
 90
        0
 91
        1
280
     0
281
     0
  0
CLASS
  1
ACAMGRCOMPDEF
  2
AcAmGrCompDef
  3
DesignerAssemblies
 90
        0
 91
        1
280
     0
281
     0
  0
CLASS
  1
ACCMCONTEXT
  2
AcCmContext
  3
DesignerAssemblies
 90
        0
 91
        1
280
     0
281
     0
  0
CLASS
  1
ACAMCOMPDEF
  2
AcAmCompDef
  3
DesignerAssemblies
 90
        0
 91
        1
280
     0
281
     0
  0
CLASS
  1
ACAMCOMPDEFMGR
  2
AcAmCompDefMgr
  3
DesignerAssemblies
 90
        0
 91
        1
280
     0
281
     0
  0
CLASS
  1
AMCONTEXTMGR
  2
AcAmContextMgr
  3
DesignerAssemblies
 90
        0
 91
        1
280
     0
281
     0
  0
CLASS
  1
ACAMCONTEXTMODELER
  2
AcAmContextModeler
  3
DesignerAssemblies
 90
        0
 91
        1
280
     0
281
     0
  0
CLASS
  1
CATALOGSTATE
  2
AcAmCatalogState
  3
DesignerAssemblies
 90
        0
 91
        1
280
     0
281
     0
  0
CLASS
  1
ACAMGRCOMPDEFSET
  2
AcAmGrCompDefSet
  3
DesignerAssemblies
 90
        0
 91
        1
280
     0
281
     0
  0
CLASS
  1
AMDTBROWSERDBTAB
  2
AmdtBrowserDbTab
  3
McadcomServices
 90
        0
 91
        1
280
     0
281
     0
  0
CLASS
  1
CBROWSERAPPOBJECT
  2
CBrowserAppObject
  3
McadcomServices
 90
        0
 91
        3
280
     0
281
     0
  0
CLASS
  1
DM_PLACEHOLDER
  2
AcDmSelsetPlaceholder
  3
AcMechDwgViewMgmt
 90
        0
 91
        1
280
     0
281
     0
  0
CLASS
  1
ACMPICKOBJ
  2
AcmPickEnt
  3
"AcmSymBB|Product Description: AutoCAD Mechanical|Company: Autodesk"
 90
        0
 91
        0
280
     0
281
     1
  0
CLASS
  1
ACMNOTESTANDARDISO
  2
AmdtNoteStdISO
  3
"Amdt_StdImp|Product Description: AutoCAD Mechanical|Company: Autodesk"
 90
        0
 91
        2
280
     0
281
     0
  0
CLASS
  1
ACMNOTESTANDARDANSI
  2
AmdtNoteStdANSI
  3
"Amdt_StdImp|Product Description: AutoCAD Mechanical|Company: Autodesk"
 90
        0
 91
        0
280
     0
281
     0
  0
CLASS
  1
ACMTHREADLINESTANDARDISO
  2
AmdtThreadLineStdISO
  3
"Amdt_StdImp|Product Description: AutoCAD Mechanical|Company: Autodesk"
 90
        0
 91
        2
280
     0
281
     0
  0
CLASS
  1
ACMTHREADLINESTANDARDANSI
  2
AmdtThreadLineStdANSI
  3
"Amdt_StdImp|Product Description: AutoCAD Mechanical|Company: Autodesk"
 90
        0
 91
        0
280
     0
281
     0
  0
CLASS
  1
TABLESTYLE
  2
AcDbTableStyle
  3
ObjectDBX Classes
 90
     4095
 91
        1
280
     0
281
     0
  0
CLASS
  1
SORTENTSTABLE
  2
AcDbSortentsTable
  3
ObjectDBX Classes
 90
        0
 91
        1
280
     0
281
     0
  0
CLASS
  1
MATERIAL
  2
AcDbMaterial
  3
ObjectDBX Classes
 90
     1153
 91
        3
280
     0
281
     0
  0
CLASS
  1
VISUALSTYLE
  2
AcDbVisualStyle
  3
ObjectDBX Classes
 90
     4095
 91
       16
280
     0
281
     0
  0
CLASS
  1
ACRFATTGENMGR
  2
AcRfAttGeneralMgr
  3
AcAttribServices
 90
        0
 91
        1
280
     0
281
     0
  0
CLASS
  1
ACRFOBJATTMGR
  2
AcRfObjAttGroupMgr
  3
AcAttribServices
 90
        0
 91
        1
280
     0
281
     0
  0
CLASS
  1
ACRFMCADAPIATTHOLDER
  2
AcRfMCADAPIAttHolder
  3
AcAttribServices
 90
        0
 91
        1
280
     0
281
     0
  0
CLASS
  1
AMDTSYSATTR
  2
AmdtSystemAttribute
  3
AcAttribServices
 90
        0
 91
        3
280
     0
281
     0
  0
CLASS
  1
ACMTAPERSTANDARDISO
  2
AcmTaperStdISO
  3
"Amdt_StdImp|Product Description: AutoCAD Mechanical|Company: Autodesk"
 90
        0
 91
        2
280
     0
281
     0
  0
CLASS
  1
CAMSSTRUCTBTNSTATE
  2
StructBtnState
  3
L"DesignerAssemblies"
 90
        0
 91
        0
280
     0
281
     0
  0
CLASS
  1
DIMASSOC
  2
AcDbDimAssoc
  3
"AcDbDimAssoc|Product Desc:     AcDim ARX App For Dimension|Company:          Autodesk, Inc.|WEB Address:      www.autodesk.com"
 90
        0
 91
        0
280
     0
281
     0
  0
CLASS
  1
AMDTEDGESTANDARDISO13715
  2
AmdtEdgeStdISO13715
  3
"Amdt_StdImp|Product Description: AutoCAD Mechanical|Company: Autodesk"
 90
        0
 91
        1
280
     0
281
     0
  0
CLASS
  1
AMDTNOTETEMPLATEDB
  2
AmdtNoteTemplateDB
  3
AMDT_STDIMP_MODULE_NAME
 90
        0
 91
        6
280
     0
281
     0
  0
CLASS
  1
ACAMGHOLECHARTSTDISO
  2
AcAmgHoleChartStdISO
  3
ACMSYMBB_MODULE_NAME
 90
        0
 91
        1
280
     0
281
     0
  0
ENDSEC
  0
SECTION
  2
TABLES
  0
TABLE
  2
VPORT
  5
8
102
{ACAD_XDICTIONARY
360
BC42
102
}
330
0
100
AcDbSymbolTable
 70
     1
  0
VPORT
  5
B0EC
330
8
100
AcDbSymbolTableRecord
100
AcDbViewportTableRecord
  2
*Active
 70
     0
 10
0.0
 20
0.0
 11
1.0
 21
1.0
 12
2335.090382884111
 22
1579.406680690516
 13
0.0
 23
0.0
 14
2.5
 24
2.5
 15
10.0
 25
10.0
 16
0.0
 26
0.0
 36
1.0
 17
0.0
 27
0.0
 37
0.0
 40
243.1362755806544
 41
2.412698412698412
 42
50.0
 43
-1370.695619172058
 44
-1370.695619172058
 50
0.0
 51
0.0
 71
    16
 72
   100
 73
     1
 74
     3
 75
     0
 76
     0
 77
     0
 78
     0
281
     0
 65
     0
110
0.0
120
0.0
130
0.0
111
1.0
121
0.0
131
0.0
112
0.0
122
1.0
132
0.0
 79
     0
146
0.0
  0
ENDTAB
  0
TABLE
  2
LTYPE
  5
5
330
0
100
AcDbSymbolTable
 70
    27
  0
LTYPE
  5
14
330
5
100
AcDbSymbolTableRecord
100
AcDbLinetypeTableRecord
  2
ByBlock
 70
     0
  3

 72
    65
 73
     0
 40
0.0
  0
LTYPE
  5
15
330
5
100
AcDbSymbolTableRecord
100
AcDbLinetypeTableRecord
  2
ByLayer
 70
     0
  3

 72
    65
 73
     0
 40
0.0
  0
LTYPE
  5
16
330
5
100
AcDbSymbolTableRecord
100
AcDbLinetypeTableRecord
  2
Continuous
 70
     0
  3
Solid line
 72
    65
 73
     0
 40
0.0
  0
LTYPE
  5
4F
330
5
100
AcDbSymbolTableRecord
100
AcDbLinetypeTableRecord
  2
AM_ISO02W050
 70
     0
  3
__ __ __ __ __ __ __ __ __ __ __ __ __ __ __
 72
    65
 73
     2
 40
7.5
 49
6.0
 74
     0
 49
-1.5
 74
     0
  0
LTYPE
  5
52
330
5
100
AcDbSymbolTableRecord
100
AcDbLinetypeTableRecord
  2
Amconstr
 70
     0
  3
_______________________
 72
    65
 73
     2
 40
9999.0
 49
9999.0
 74
     0
 49
0.0
 74
     0
  0
LTYPE
  5
64
330
5
100
AcDbSymbolTableRecord
100
AcDbLinetypeTableRecord
  2
ACISOWELD
 70
     0
  3
_ _ _ _ _
 72
    65
 73
     2
 40
2.0
 49
2.0
 74
     0
 49
-1.0
 74
     0
  0
LTYPE
  5
65
330
5
100
AcDbSymbolTableRecord
100
AcDbLinetypeTableRecord
  2
ACISOTGB
 70
     0
  3
__ . . __ . .
 72
    65
 73
     6
 40
9.0
 49
4.0
 74
     0
 49
-1.0
 74
     0
 49
1.0
 74
     0
 49
-1.0
 74
     0
 49
1.0
 74
     0
 49
-1.0
 74
     0
  0
LTYPE
  5
66
330
5
100
AcDbSymbolTableRecord
100
AcDbLinetypeTableRecord
  2
ACISOTGL
 70
     0
  3
_ _ _ _ _
 72
    65
 73
     2
 40
3.0
 49
2.0
 74
     0
 49
-1.0
 74
     0
  0
LTYPE
  5
69
330
5
100
AcDbSymbolTableRecord
100
AcDbLinetypeTableRecord
  2
CENTER
 70
     0
  3
__ . __
 72
    65
 73
     4
 40
7.0
 49
4.0
 74
     0
 49
-1.0
 74
     0
 49
1.0
 74
     0
 49
-1.0
 74
     0
  0
LTYPE
  5
A6E
330
5
100
AcDbSymbolTableRecord
100
AcDbLinetypeTableRecord
  2
PHANTOM2
 70
     0
  3
Phantom (.5x) ___ _ _ ___ _ _ ___ _ _ ___ _ _
 72
    65
 73
     6
 40
31.75
 49
15.875
 74
     0
 49
-3.174999999999999
 74
     0
 49
3.174999999999999
 74
     0
 49
-3.174999999999999
 74
     0
 49
3.174999999999999
 74
     0
 49
-3.174999999999999
 74
     0
  0
LTYPE
  5
4DED
330
5
100
AcDbSymbolTableRecord
100
AcDbLinetypeTableRecord
  2
中線
 70
     0
  3
___________________
 72
    65
 73
     2
 40
2.0
 49
1.0
 74
     0
 49
1.0
 74
     0
  0
LTYPE
  5
4DF6
330
5
100
AcDbSymbolTableRecord
100
AcDbLinetypeTableRecord
  2
細線
 70
     0
  3
___________________
 72
    65
 73
     2
 40
2.0
 49
1.0
 74
     0
 49
1.0
 74
     0
  0
LTYPE
  5
4DF7
330
5
100
AcDbSymbolTableRecord
100
AcDbLinetypeTableRecord
  2
太線
 70
     0
  3
___________________
 72
    65
 73
     2
 40
2.0
 49
1.0
 74
     0
 49
1.0
 74
     0
  0
LTYPE
  5
4EA7
330
5
100
AcDbSymbolTableRecord
100
AcDbLinetypeTableRecord
  2
文字
 70
     0
  3
_________________
 72
    65
 73
     2
 40
2.0
 49
1.0
 74
     0
 49
1.0
 74
     0
  0
LTYPE
  5
4EA9
330
5
100
AcDbSymbolTableRecord
100
AcDbLinetypeTableRecord
  2
寸法線
 70
     0
  3
________________
 72
    65
 73
     2
 40
2.0
 49
1.0
 74
     0
 49
1.0
 74
     0
  0
LTYPE
  5
4F12
330
5
100
AcDbSymbolTableRecord
100
AcDbLinetypeTableRecord
  2
ハッチング
 70
     0
  3
_________________
 72
    65
 73
     2
 40
2.0
 49
1.0
 74
     0
 49
1.0
 74
     0
  0
LTYPE
  5
5180
330
5
100
AcDbSymbolTableRecord
100
AcDbLinetypeTableRecord
  2
陰線1
 70
     0
  3
__ __ __ __
 72
    65
 73
     2
 40
4.0
 49
2.2
 74
     0
 49
-1.8
 74
     0
  0
LTYPE
  5
5182
330
5
100
AcDbSymbolTableRecord
100
AcDbLinetypeTableRecord
  2
切断線
 70
     0
  3
/\/-/\/-/\/-/\/-/\/-/\/
 72
    65
 73
     2
 40
11.0001
 49
0.0001
 74
     4
 75
   135
340
56
 46
0.04
 50
0.0
 44
0.0
 45
0.0
 49
-11.0
 74
     0
  0
LTYPE
  5
5183
330
5
100
AcDbSymbolTableRecord
100
AcDbLinetypeTableRecord
  2
想像線1
 70
     0
  3
__ __ __ _____ __ __ ____
 72
    65
 73
     6
 40
14.5
 49
6.0
 74
     0
 49
-1.5
 74
     0
 49
2.0
 74
     0
 49
-1.5
 74
     0
 49
2.0
 74
     0
 49
-1.5
 74
     0
  0
LTYPE
  5
5185
330
5
100
AcDbSymbolTableRecord
100
AcDbLinetypeTableRecord
  2
中心線1
 70
     0
  3
___ _ ___ _ ___
 72
    65
 73
     4
 40
18.0
 49
12.0
 74
     0
 49
-2.0
 74
     0
 49
2.0
 74
     0
 49
-2.0
 74
     0
  0
LTYPE
  5
5188
330
5
100
AcDbSymbolTableRecord
100
AcDbLinetypeTableRecord
  2
補助線
 70
     0
  3
______________
 72
    65
 73
     2
 40
2.0
 49
1.0
 74
     0
 49
1.0
 74
     0
  0
LTYPE
  5
6427
330
5
100
AcDbSymbolTableRecord
100
AcDbLinetypeTableRecord
  2
HIDDEN
 70
     0
  3
Hidden __ __ __ __ __ __ __ __ __ __ __ __ __ _
 72
    65
 73
     2
 40
0.375
 49
0.25
 74
     0
 49
-0.125
 74
     0
  0
LTYPE
  5
AC81
330
5
100
AcDbSymbolTableRecord
100
AcDbLinetypeTableRecord
  2
破断線
 70
     0
  3
/\/-/\/-/\/-/\/-/\/-/\/
 72
    65
 73
     2
 40
0.4401
 49
0.0001
 74
     4
 75
   136
340
AC80
 46
0.0016
 50
0.0
 44
0.0
 45
0.0
 49
-0.4400000000000001
 74
     0
  0
LTYPE
  5
AC9E
330
5
100
AcDbSymbolTableRecord
100
AcDbLinetypeTableRecord
  2
Amzigzag
 70
     0
  3
/\/-/\/-/\/-/\/-/\/-/\/
 72
    65
 73
     2
 40
11.0001
 49
0.0001
 74
     4
 75
   135
340
56
 46
0.04
 50
0.0
 44
0.0
 45
0.0
 49
-11.0
 74
     0
  0
LTYPE
  5
AF0F
330
5
100
AcDbSymbolTableRecord
100
AcDbLinetypeTableRecord
  2
genzigzag
 70
     0
  3
/\/-/\/-/\/-/\/-/\/-/\/
 72
    65
 73
     2
 40
12.0001
 49
0.0001
 74
     4
 75
   135
340
AC80
 46
2.0
 50
0.0
 44
0.0
 45
0.0
 49
-12.0
 74
     0
  0
LTYPE
  5
AF95
330
5
100
AcDbSymbolTableRecord
100
AcDbLinetypeTableRecord
  2
AM_ISO08W050
 70
     0
  3
____ . ____ . ____ . ____ . ____ . ____ . ____
 72
    65
 73
     4
 40
18.0
 49
12.0
 74
     0
 49
-1.5
 74
     0
 49
3.0
 74
     0
 49
-1.5
 74
     0
  0
LTYPE
  5
AF96
330
5
100
AcDbSymbolTableRecord
100
AcDbLinetypeTableRecord
  2
AM_ISO09W050
 70
     0
  3
_____ . . _____ . . _____ . . ____ .. ____
 72
    65
 73
     6
 40
22.5
 49
12.0
 74
     0
 49
-1.5
 74
     0
 49
3.0
 74
     0
 49
-1.5
 74
     0
 49
3.0
 74
     0
 49
-1.5
 74
     0
  0
LTYPE
  5
AF97
330
5
100
AcDbSymbolTableRecord
100
AcDbLinetypeTableRecord
  2
AM_ISO08W050x2
 70
     0
  3
__ . __ . __ . __ . __ . __
 72
    65
 73
     4
 40
9.0
 49
6.0
 74
     0
 49
-0.75
 74
     0
 49
1.5
 74
     0
 49
-0.75
 74
     0
  0
LTYPE
  5
AF98
330
5
100
AcDbSymbolTableRecord
100
AcDbLinetypeTableRecord
  2
AM_ISO02W050x2
 70
     0
  3
 _ _ _ _ _ _ _ _ _ _ _ _
 72
    65
 73
     2
 40
3.75
 49
3.0
 74
     0
 49
-0.75
 74
     0
  0
ENDTAB
  0
TABLE
  2
LAYER
  5
2
102
{ACAD_XDICTIONARY
360
3F95
102
}
330
0
100
AcDbSymbolTable
 70
    20
  0
LAYER
  5
10
330
2
100
AcDbSymbolTableRecord
100
AcDbLayerTableRecord
  2
0
 70
     0
 62
     7
  6
Continuous
370
    -3
390
F
  0
LAYER
  5
6D1
330
2
100
AcDbSymbolTableRecord
100
AcDbLayerTableRecord
  2
Defpoints
 70
     0
 62
     7
  6
Continuous
290
     0
370
    -3
390
F
  0
LAYER
  5
5F85
330
2
100
AcDbSymbolTableRecord
100
AcDbLayerTableRecord
  2
AM_0
 70
     0
 62
     7
  6
中線
370
    30
390
F
1001
AcAecLayerStandard
1000

1000

  0
LAYER
  5
AC9F
330
2
100
AcDbSymbolTableRecord
100
AcDbLayerTableRecord
  2
size
 70
     0
 62
     5
  6
Continuous
290
     0
370
    25
390
F
  0
LAYER
  5
ACA0
330
2
100
AcDbSymbolTableRecord
100
AcDbLayerTableRecord
  2
waku
 70
     0
 62
     7
  6
Continuous
370
    35
390
F
  0
LAYER
  5
ACA1
330
2
100
AcDbSymbolTableRecord
100
AcDbLayerTableRecord
  2
AM_6
 70
     0
 62
     2
  6
文字
370
    13
390
F
1001
AcAecLayerStandard
1000

1000

  0
LAYER
  5
ACC8
330
2
100
AcDbSymbolTableRecord
100
AcDbLayerTableRecord
  2
hyomoji
 70
     0
 62
     2
  6
Continuous
370
    13
390
F
  0
LAYER
  5
ACC9
330
2
100
AcDbSymbolTableRecord
100
AcDbLayerTableRecord
  2
hyosen1
 70
     0
 62
     1
  6
Continuous
370
    25
390
F
  0
LAYER
  5
ACCA
330
2
100
AcDbSymbolTableRecord
100
AcDbLayerTableRecord
  2
hyosen2
 70
     0
 62
     1
  6
Continuous
370
    13
390
F
  0
LAYER
  5
AD60
330
2
100
AcDbSymbolTableRecord
100
AcDbLayerTableRecord
  2
AM_1
 70
     0
 62
    30
  6
太線
370
    40
390
F
1001
AcAecLayerStandard
1000

1000

  0
LAYER
  5
AD64
330
2
100
AcDbSymbolTableRecord
100
AcDbLayerTableRecord
  2
AM_2
 70
     0
 62
     1
  6
細線
370
    13
390
F
1001
AcAecLayerStandard
1000

1000

  0
LAYER
  5
AD67
330
2
100
AcDbSymbolTableRecord
100
AcDbLayerTableRecord
  2
AM_3
 70
     0
 62
     6
  6
陰線1
370
    13
390
F
1001
AcAecLayerStandard
1000

1000

  0
LAYER
  5
AD68
330
2
100
AcDbSymbolTableRecord
100
AcDbLayerTableRecord
  2
AM_5
 70
     0
 62
     3
  6
寸法線
370
    13
390
F
1001
AcAecLayerStandard
1000

1000

  0
LAYER
  5
AD69
330
2
100
AcDbSymbolTableRecord
100
AcDbLayerTableRecord
  2
AM_7
 70
     0
 62
     4
  6
中心線1
370
    13
390
F
1001
AcAecLayerStandard
1000

1000

  0
LAYER
  5
AD6A
330
2
100
AcDbSymbolTableRecord
100
AcDbLayerTableRecord
  2
AM_8
 70
     0
 62
     1
  6
ハッチング
370
    13
390
F
1001
AcAecLayerStandard
1000

1000

  0
LAYER
  5
AD6E
330
2
100
AcDbSymbolTableRecord
100
AcDbLayerTableRecord
  2
AM_10
 70
     0
 62
     7
  6
切断線
370
    13
390
F
1001
AcAecLayerStandard
1000

1000

  0
LAYER
  5
AD6F
330
2
100
AcDbSymbolTableRecord
100
AcDbLayerTableRecord
  2
AM_11
 70
     0
 62
     2
  6
想像線1
370
    13
390
F
1001
AcAecLayerStandard
1000

1000

  0
LAYER
  5
B1B6
330
2
100
AcDbSymbolTableRecord
100
AcDbLayerTableRecord
  2
AM_CL
 70
     1
 62
    -1
  6
Amconstr
370
     9
390
F
1001
AcAecLayerStandard
1000

1000

  0
LAYER
  5
B2EB
330
2
100
AcDbSymbolTableRecord
100
AcDbLayerTableRecord
  2
AM_14
 70
     0
 62
     5
  6
細線
370
     9
390
F
1001
AcAecLayerStandard
1000

1000

  0
LAYER
  5
B2EC
330
2
100
AcDbSymbolTableRecord
100
AcDbLayerTableRecord
  2
AM_15
 70
     0
 62
     6
  6
陰線1
370
     9
390
F
1001
AcAecLayerStandard
1000

1000

  0
ENDTAB
  0
TABLE
  2
STYLE
  5
3
330
0
100
AcDbSymbolTable
 70
     6
  0
STYLE
  5
11
330
3
100
AcDbSymbolTableRecord
100
AcDbTextStyleTableRecord
  2
STANDARD
 70
     0
 40
0.0
 41
0.7
 50
0.0
 71
     0
 42
3.2
  3
romans.shx
  4
extfont.shx
  0
STYLE
  5
56
330
3
100
AcDbSymbolTableRecord
100
AcDbTextStyleTableRecord
  2

 70
     1
 40
0.0
 41
1.0
 50
0.0
 71
     0
 42
2.5
  3
ltypeshp.shx
  4

  0
STYLE
  5
58
330
3
100
AcDbSymbolTableRecord
100
AcDbTextStyleTableRecord
  2
ACISOTS
 70
     0
 40
1.0
 41
1.0
 50
0.0
 71
     0
 42
2.5
  3
isocp.shx
  4
extfont.shx
  0
STYLE
  5
63
330
3
100
AcDbSymbolTableRecord
100
AcDbTextStyleTableRecord
  2
ACISOGDT
 70
     0
 40
0.0
 41
1.0
 50
0.0
 71
     0
 42
2.5
  3
amgdt.shx
  4

  0
STYLE
  5
A74
330
3
100
AcDbSymbolTableRecord
100
AcDbTextStyleTableRecord
  2
DIM
 70
     0
 40
0.0
 41
1.0
 50
0.0
 71
     0
 42
2.5
  3
monotxt.shx
  4
extfont.shx
  0
STYLE
  5
AC80
330
3
100
AcDbSymbolTableRecord
100
AcDbTextStyleTableRecord
  2

 70
     1
 40
0.0
 41
1.0
 50
0.0
 71
     0
 42
3.2
  3
genltshp.shx
  4

  0
ENDTAB
  0
TABLE
  2
VIEW
  5
6
330
0
100
AcDbSymbolTable
 70
     6
  0
VIEW
  5
AE1
330
6
100
AcDbSymbolTableRecord
100
AcDbViewTableRecord
  2
AM_VIEW1
 70
     0
 40
129.7276464542651
 10
1775.10588156276
 20
1793.121228859297
 41
148.5
 11
0.0
 21
0.0
 31
1.0
 12
0.0
 22
0.0
 32
0.0
 42
50.0
 43
-1370.695619172058
 44
-1370.695619172058
 50
0.0
 71
    16
281
     0
 72
     0
  0
VIEW
  5
AE2
330
6
100
AcDbSymbolTableRecord
100
AcDbViewTableRecord
  2
AM_VIEW2
 70
     0
 40
129.7276464542651
 10
1923.60588156276
 20
1793.121228859297
 41
148.5
 11
0.0
 21
0.0
 31
1.0
 12
0.0
 22
0.0
 32
0.0
 42
50.0
 43
-1370.695619172058
 44
-1370.695619172058
 50
0.0
 71
    16
281
     0
 72
     0
  0
VIEW
  5
AE3
330
6
100
AcDbSymbolTableRecord
100
AcDbViewTableRecord
  2
AM_VIEW3
 70
     0
 40
129.7276464542651
 10
1775.10588156276
 20
1712.848875313562
 41
148.5
 11
0.0
 21
0.0
 31
1.0
 12
0.0
 22
0.0
 32
0.0
 42
50.0
 43
-1370.695619172058
 44
-1370.695619172058
 50
0.0
 71
    16
281
     0
 72
     0
  0
VIEW
  5
AE4
330
6
100
AcDbSymbolTableRecord
100
AcDbViewTableRecord
  2
AM_VIEW4
 70
     0
 40
129.7276464542651
 10
1923.60588156276
 20
1712.848875313562
 41
148.5
 11
0.0
 21
0.0
 31
1.0
 12
0.0
 22
0.0
 32
0.0
 42
50.0
 43
-1370.695619172058
 44
-1370.695619172058
 50
0.0
 71
    16
281
     0
 72
     0
  0
VIEW
  5
AE5
330
6
100
AcDbSymbolTableRecord
100
AcDbViewTableRecord
  2
AM_VIEW5
 70
     0
 40
129.7276464542651
 10
1849.35588156276
 20
1752.985052086429
 41
148.5
 11
0.0
 21
0.0
 31
1.0
 12
0.0
 22
0.0
 32
0.0
 42
50.0
 43
-1370.695619172058
 44
-1370.695619172058
 50
0.0
 71
    16
281
     0
 72
     0
  0
VIEW
  5
AE6
330
6
100
AcDbSymbolTableRecord
100
AcDbViewTableRecord
  2
AM_VIEW6
 70
     0
 40
259.4526983556011
 10
1849.35588156276
 20
1752.985052086429
 41
296.99703
 11
0.0
 21
0.0
 31
1.0
 12
0.0
 22
0.0
 32
0.0
 42
50.0
 43
-1370.695619172058
 44
-1370.695619172058
 50
0.0
 71
    16
281
     0
 72
     0
  0
ENDTAB
  0
TABLE
  2
UCS
  5
7
330
0
100
AcDbSymbolTable
 70
     0
  0
ENDTAB
  0
TABLE
  2
APPID
  5
9
330
0
100
AcDbSymbolTable
 70
    55
  0
APPID
  5
12
330
9
100
AcDbSymbolTableRecord
100
AcDbRegAppTableRecord
  2
ACAD
 70
     0
  0
APPID
  5
30
330
9
100
AcDbSymbolTableRecord
100
AcDbRegAppTableRecord
  2
MCAD_NO_VIS
 70
     0
  0
APPID
  5
31
330
9
100
AcDbSymbolTableRecord
100
AcDbRegAppTableRecord
  2
ACAD_TEMP_GRAPHIC
 70
     0
  0
APPID
  5
44
330
9
100
AcDbSymbolTableRecord
100
AcDbRegAppTableRecord
  2
ACATTRIBSERVICES
 70
     0
  0
APPID
  5
7A1
330
9
100
AcDbSymbolTableRecord
100
AcDbRegAppTableRecord
  2
GENIUS_GENDIMSH_14
 70
     0
  0
APPID
  5
A49
330
9
100
AcDbSymbolTableRecord
100
AcDbRegAppTableRecord
  2
GENIUS_GENREC_14
 70
     0
  0
APPID
  5
A4A
330
9
100
AcDbSymbolTableRecord
100
AcDbRegAppTableRecord
  2
GENIUS_GENOBJ-N-REC_13
 70
     0
  0
APPID
  5
A4B
330
9
100
AcDbSymbolTableRecord
100
AcDbRegAppTableRecord
  2
GENIUS_GENODEF_13
 70
     0
  0
APPID
  5
A4C
330
9
100
AcDbSymbolTableRecord
100
AcDbRegAppTableRecord
  2
DCO15
 70
     0
  0
APPID
  5
ADC
330
9
100
AcDbSymbolTableRecord
100
AcDbRegAppTableRecord
  2
GENIUS_GENOLIS_13
 70
     0
  0
APPID
  5
ADD
330
9
100
AcDbSymbolTableRecord
100
AcDbRegAppTableRecord
  2
GENIUS_GENOENT_13
 70
     0
  0
APPID
  5
ADE
330
9
100
AcDbSymbolTableRecord
100
AcDbRegAppTableRecord
  2
GENIUS_GENOBJ-N-TIT_13
 70
     0
  0
APPID
  5
ADF
330
9
100
AcDbSymbolTableRecord
100
AcDbRegAppTableRecord
  2
GENIUS_GENTITLE_13
 70
     0
  0
APPID
  5
AE0
330
9
100
AcDbSymbolTableRecord
100
AcDbRegAppTableRecord
  2
GENIUS_GENOREF_13
 70
     0
  0
APPID
  5
AE7
330
9
100
AcDbSymbolTableRecord
100
AcDbRegAppTableRecord
  2
GENIUS_GENSCREG_15
 70
     0
  0
APPID
  5
AE8
330
9
100
AcDbSymbolTableRecord
100
AcDbRegAppTableRecord
  2
GENIUS_GENOBJ-N-SDF_13
 70
     0
  0
APPID
  5
FAF
330
9
100
AcDbSymbolTableRecord
100
AcDbRegAppTableRecord
  2
GENIUS_GENBLLY_14
 70
     0
  0
APPID
  5
FB0
330
9
100
AcDbSymbolTableRecord
100
AcDbRegAppTableRecord
  2
GENIUS_GENTRA_14
 70
     0
  0
APPID
  5
1285
330
9
100
AcDbSymbolTableRecord
100
AcDbRegAppTableRecord
  2
GENIUS_GENDTOL_13
 70
     0
  0
APPID
  5
142D
330
9
100
AcDbSymbolTableRecord
100
AcDbRegAppTableRecord
  2
GENIUS_GENOBJ-N-CEN_13
 70
     0
  0
APPID
  5
1AB5
330
9
100
AcDbSymbolTableRecord
100
AcDbRegAppTableRecord
  2
GENIUS_GENOBJ-N-CRS_13
 70
     0
  0
APPID
  5
1B36
330
9
100
AcDbSymbolTableRecord
100
AcDbRegAppTableRecord
  2
GENIUS_GENOBJ-N-HTC_13
 70
     0
  0
APPID
  5
1B37
330
9
100
AcDbSymbolTableRecord
100
AcDbRegAppTableRecord
  2
GENIUS_GENHATCH_13
 70
     0
  0
APPID
  5
216D
330
9
100
AcDbSymbolTableRecord
100
AcDbRegAppTableRecord
  2
GENIUS_GENOBJ-N-FIL_13
 70
     0
  0
APPID
  5
2356
330
9
100
AcDbSymbolTableRecord
100
AcDbRegAppTableRecord
  2
GEVID990412420
 70
     0
  0
APPID
  5
2357
330
9
100
AcDbSymbolTableRecord
100
AcDbRegAppTableRecord
  2
GEVDC
 70
     0
  0
APPID
  5
2358
330
9
100
AcDbSymbolTableRecord
100
AcDbRegAppTableRecord
  2
GEVCON
 70
     0
  0
APPID
  5
235B
330
9
100
AcDbSymbolTableRecord
100
AcDbRegAppTableRecord
  2
GEVRADREF
 70
     0
  0
APPID
  5
2360
330
9
100
AcDbSymbolTableRecord
100
AcDbRegAppTableRecord
  2
GENIUS_GENBH_13
 70
     0
  0
APPID
  5
2362
330
9
100
AcDbSymbolTableRecord
100
AcDbRegAppTableRecord
  2
GENIUS_GENOBJ-NBEHI-BHF_13
 70
     0
  0
APPID
  5
2364
330
9
100
AcDbSymbolTableRecord
100
AcDbRegAppTableRecord
  2
GENIUS_GENOBJ-NBEHI-BHB_13
 70
     0
  0
APPID
  5
2379
330
9
100
AcDbSymbolTableRecord
100
AcDbRegAppTableRecord
  2
GENIUS_GENOBJ-F-SCPASSM_13
 70
     0
  0
APPID
  5
3D74
330
9
100
AcDbSymbolTableRecord
100
AcDbRegAppTableRecord
  2
GENIUS_GENDIM_13
 70
     0
  0
APPID
  5
3D76
330
9
100
AcDbSymbolTableRecord
100
AcDbRegAppTableRecord
  2
GENIUS_GE3DTOL_13
 70
     0
  0
APPID
  5
3D9C
330
9
100
AcDbSymbolTableRecord
100
AcDbRegAppTableRecord
  2
AD_DRAW
 70
     0
  0
APPID
  5
3DE8
330
9
100
AcDbSymbolTableRecord
100
AcDbRegAppTableRecord
  2
ASURF_PCURVE_APPNAME
 70
     0
  0
APPID
  5
3DED
330
9
100
AcDbSymbolTableRecord
100
AcDbRegAppTableRecord
  2
AMG_3D2D_5.0
 70
     0
  0
APPID
  5
3E1B
330
9
100
AcDbSymbolTableRecord
100
AcDbRegAppTableRecord
  2
DESIGNERASSEMBLIES
 70
     0
  0
APPID
  5
3E20
330
9
100
AcDbSymbolTableRecord
100
AcDbRegAppTableRecord
  2
ACADM_DIM_EDIT
 70
     0
  0
APPID
  5
3E21
330
9
100
AcDbSymbolTableRecord
100
AcDbRegAppTableRecord
  2
AMDT_DM_ADJ
 70
     0
  0
APPID
  5
4143
330
9
100
AcDbSymbolTableRecord
100
AcDbRegAppTableRecord
  2
GENIUS_GENFIL_13
 70
     0
  0
APPID
  5
4144
330
9
100
AcDbSymbolTableRecord
100
AcDbRegAppTableRecord
  2
GENIUS_GENOBJ-N-CHA_13
 70
     0
  0
APPID
  5
4E17
330
9
100
AcDbSymbolTableRecord
100
AcDbRegAppTableRecord
  2
GEVID1008153417
 70
     0
  0
APPID
  5
4E58
330
9
100
AcDbSymbolTableRecord
100
AcDbRegAppTableRecord
  2
GEVID1008153418
 70
     0
  0
APPID
  5
4E5E
330
9
100
AcDbSymbolTableRecord
100
AcDbRegAppTableRecord
  2
GEVID1008153419
 70
     0
  0
APPID
  5
4E64
330
9
100
AcDbSymbolTableRecord
100
AcDbRegAppTableRecord
  2
GEVID1008153420
 70
     0
  0
APPID
  5
4E75
330
9
100
AcDbSymbolTableRecord
100
AcDbRegAppTableRecord
  2
GEVID1008153421
 70
     0
  0
APPID
  5
4EB7
330
9
100
AcDbSymbolTableRecord
100
AcDbRegAppTableRecord
  2
GENIUS_AMGTXT_16
 70
     0
  0
APPID
  5
7645
330
9
100
AcDbSymbolTableRecord
100
AcDbRegAppTableRecord
  2
GENIUS_GENOBJ-N-DIM_13
 70
     0
  0
APPID
  5
AAD0
330
9
100
AcDbSymbolTableRecord
100
AcDbRegAppTableRecord
  2
ACAD_DSTYLE_DIMARC_LENGTH_SYMBOL
 70
     0
  0
APPID
  5
AAD1
330
9
100
AcDbSymbolTableRecord
100
AcDbRegAppTableRecord
  2
ACAD_DSTYLE_DIMJOGGED_JOGANGLE_SYMBOL
 70
     0
  0
APPID
  5
AAFD
330
9
100
AcDbSymbolTableRecord
100
AcDbRegAppTableRecord
  2
ACAD_PSEXT
 70
     0
  0
APPID
  5
AD61
330
9
100
AcDbSymbolTableRecord
100
AcDbRegAppTableRecord
  2
AcAecLayerStandard
 70
     0
  0
APPID
  5
AEE3
330
9
100
AcDbSymbolTableRecord
100
AcDbRegAppTableRecord
  2
ACAD_EXEMPT_FROM_CAD_STANDARDS
 70
     0
  0
APPID
  5
B1BE
330
9
100
AcDbSymbolTableRecord
100
AcDbRegAppTableRecord
  2
GENIUS_GENCEN_19
 70
     0
  0
ENDTAB
  0
TABLE
  2
DIMSTYLE
  5
A
330
0
100
AcDbSymbolTable
 70
    19
100
AcDbDimStyleTable
 71
     1
340
2515
  0
DIMSTYLE
105
A76
330
A
100
AcDbSymbolTableRecord
100
AcDbDimStyleTableRecord
  2
STANDARD
 70
     0
 41
3.0
 42
1.0
 43
7.0
 44
2.0
 73
     0
 74
     0
 77
     1
140
2.799999999999999
141
0.0
143
0.0394
147
0.7
171
     4
172
     1
173
     1
176
     3
177
     3
178
     2
271
     3
272
     3
273
     8
274
     4
289
     0
340
A74
341
A66
343
A66
344
A66
  0
DIMSTYLE
105
2515
330
A
100
AcDbSymbolTableRecord
100
AcDbDimStyleTableRecord
  2
SYS
 70
     0
  4
"
 41
1.0
 42
1.0
 43
10.0
 44
1.0
 47
0.1
 48
0.1
 73
     0
 74
     0
 77
     1
 78
     8
 79
     2
140
3.5
141
0.0
143
0.0393701
146
0.71
147
1.5
172
     1
176
   256
177
   256
178
     7
271
     2
272
     2
283
     0
284
     8
340
11
371
    -1
372
    -1
1001
ACAD_DSTYLE_DIMJOGGED_JOGANGLE_SYMBOL
1070
   384
1040
0.7853981633974483
1001
ACAD_DSTYLE_DIMARC_LENGTH_SYMBOL
1070
   379
1070
     1
  0
DIMSTYLE
105
2516
102
{ACAD_REACTORS
330
BAB2
102
}
330
A
100
AcDbSymbolTableRecord
100
AcDbDimStyleTableRecord
  2
SYS$3
 70
     0
  4
"
 41
2.0
 42
1.0
 43
10.0
 44
1.0
 47
0.1
 48
0.1
 73
     0
 77
     1
 78
     8
 79
     2
140
3.5
141
0.0
143
0.0393701
146
0.71
147
1.5
176
   256
177
   256
178
     2
271
     2
272
     2
283
     0
284
     8
288
     1
340
11
342
A66
371
    -1
372
    -1
1001
ACAD_DSTYLE_DIMJOGGED_JOGANGLE_SYMBOL
1070
   384
1040
0.7853981633974483
1001
ACAD_DSTYLE_DIMARC_LENGTH_SYMBOL
1070
   379
1070
     1
  0
DIMSTYLE
105
2517
330
A
100
AcDbSymbolTableRecord
100
AcDbDimStyleTableRecord
  2
SYS$4
 70
     0
  4
"
 41
2.0
 42
1.0
 43
10.0
 44
1.0
 47
0.1
 48
0.1
 73
     0
 77
     1
 78
     8
 79
     2
140
3.5
141
0.0
143
0.0393701
146
0.71
147
1.5
173
     1
176
   256
177
   256
178
     2
271
     2
272
     2
283
     0
284
     8
288
     1
340
11
344
A66
371
    -1
372
    -1
1001
ACAD_DSTYLE_DIMJOGGED_JOGANGLE_SYMBOL
1070
   384
1040
0.7853981633974483
1001
ACAD_DSTYLE_DIMARC_LENGTH_SYMBOL
1070
   379
1070
     1
  0
DIMSTYLE
105
2518
330
A
100
AcDbSymbolTableRecord
100
AcDbDimStyleTableRecord
  2
SYS$6
 70
     0
  4
"
 41
2.0
 42
1.0
 43
10.0
 44
1.0
 47
0.1
 48
0.1
 73
     0
 74
     0
 78
     8
 79
     2
140
3.5
141
0.0
143
0.0393701
146
0.71
147
1.5
172
     1
176
   256
177
   256
178
     2
271
     2
272
     2
283
     0
284
     8
340
11
341
A66
371
    -1
372
    -1
1001
ACAD_DSTYLE_DIMJOGGED_JOGANGLE_SYMBOL
1070
   384
1040
0.7853981633974483
1001
ACAD_DSTYLE_DIMARC_LENGTH_SYMBOL
1070
   379
1070
     1
  0
DIMSTYLE
105
2519
330
A
100
AcDbSymbolTableRecord
100
AcDbDimStyleTableRecord
  2
SYS$7
 70
     0
  4
"
 41
2.0
 42
1.0
 43
10.0
 44
1.0
 47
0.1
 48
0.1
 73
     0
 74
     0
 77
     1
 78
     8
 79
     2
140
5.0
141
0.0
143
0.0393701
146
0.71
147
1.5
172
     1
176
   256
177
   256
178
     2
271
     2
272
     2
283
     0
284
     8
340
11
341
A66
342
A66
371
    -1
372
    -1
1001
ACAD_DSTYLE_DIMJOGGED_JOGANGLE_SYMBOL
1070
   384
1040
0.7853981633974483
1001
ACAD_DSTYLE_DIMARC_LENGTH_SYMBOL
1070
   379
1070
     1
  0
DIMSTYLE
105
251A
330
A
100
AcDbSymbolTableRecord
100
AcDbDimStyleTableRecord
  2
SYS$SF
 70
     0
  4
"
 41
2.5
 42
1.0
 43
10.0
 44
1.0
 47
0.1
 48
0.1
 73
     0
 74
     0
 75
     1
 76
     1
 77
     1
 78
     8
 79
     2
140
3.5
141
0.0
143
0.0393701
146
0.71
147
1.5
172
     1
176
   256
177
   256
178
     2
271
     2
272
     3
283
     0
284
     8
340
11
341
6C4
342
6C4
371
    -1
372
    -1
1001
ACAD_DSTYLE_DIMJOGGED_JOGANGLE_SYMBOL
1070
   384
1040
0.7853981633974483
1001
ACAD_DSTYLE_DIMARC_LENGTH_SYMBOL
1070
   379
1070
     1
  0
DIMSTYLE
105
251B
330
A
100
AcDbSymbolTableRecord
100
AcDbDimStyleTableRecord
  2
SYS$SH
 70
     0
  4
"
 41
2.5
 42
1.0
 43
10.0
 44
1.0
 47
0.1
 48
0.1
 73
     0
 74
     0
 75
     1
 76
     1
 77
     1
 78
     8
 79
     2
140
3.5
141
0.0
143
0.0393701
144
2.0
146
0.71
147
1.5
172
     1
173
     1
176
   256
177
   256
178
     2
271
     2
272
     3
283
     0
284
     8
340
11
341
6C4
343
72
344
6C4
371
    -1
372
    -1
1001
ACAD_DSTYLE_DIMJOGGED_JOGANGLE_SYMBOL
1070
   384
1040
0.7853981633974483
1001
ACAD_DSTYLE_DIMARC_LENGTH_SYMBOL
1070
   379
1070
     1
  0
DIMSTYLE
105
2A59
330
A
100
AcDbSymbolTableRecord
100
AcDbDimStyleTableRecord
  2
SYS$2
 70
     0
  4
"
 41
1.0
 42
1.0
 43
10.0
 44
1.0
 47
0.1
 48
0.1
 73
     0
 74
     0
 77
     1
 78
     8
 79
     2
140
3.5
141
0.0
143
0.0393701
146
0.71
147
1.5
172
     1
176
   256
177
   256
178
     2
271
     2
272
     2
283
     0
284
     8
340
11
342
6C4
371
    -1
372
    -1
1001
ACAD_DSTYLE_DIMJOGGED_JOGANGLE_SYMBOL
1070
   384
1040
0.7853981633974483
1001
ACAD_DSTYLE_DIMARC_LENGTH_SYMBOL
1070
   379
1070
     1
  0
DIMSTYLE
105
2AAB
102
{ACAD_REACTORS
330
BA89
330
BA8A
330
BA8B
330
BA8C
330
BA8D
330
BA90
330
BA91
330
BA93
330
BA9F
330
BAA8
330
BAA9
330
BAAA
330
BAAB
330
BAB1
102
}
330
A
100
AcDbSymbolTableRecord
100
AcDbDimStyleTableRecord
  2
SYS$0
 70
     0
  4
"
 41
1.0
 42
1.0
 43
10.0
 44
1.0
 47
0.1
 48
0.1
 73
     0
 74
     0
 77
     1
 78
     8
 79
     2
140
3.200000000000001
141
0.0
143
0.0393701
146
0.71
147
1.5
172
     1
176
   256
177
   256
178
     2
271
     2
272
     2
283
     0
284
     8
340
11
341
A66
342
6C4
371
    -1
372
    -1
1001
ACAD_DSTYLE_DIMJOGGED_JOGANGLE_SYMBOL
1070
   384
1040
0.7853981633974483
1001
ACAD_DSTYLE_DIMARC_LENGTH_SYMBOL
1070
   379
1070
     1
  0
DIMSTYLE
105
AF99
330
A
100
AcDbSymbolTableRecord
100
AcDbDimStyleTableRecord
  2
AM_ISO
 70
     0
  4
"
 41
2.5
 42
1.0
 43
10.0
 44
1.0
 47
0.1
 48
0.1
 73
     0
 74
     0
 77
     1
 78
     8
 79
     2
140
3.5
141
0.0
143
0.0393701
146
0.71
147
1.5
172
     1
176
   256
177
   256
178
     2
271
     2
272
     3
274
     4
283
     0
284
     8
340
11
371
    -1
372
    -1
  0
DIMSTYLE
105
AF9A
330
A
100
AcDbSymbolTableRecord
100
AcDbDimStyleTableRecord
  2
AM_ISO$3
 70
     0
  4
"
 41
2.5
 42
1.0
 43
10.0
 44
1.0
 47
0.1
 48
0.1
 73
     0
 77
     1
 78
     8
 79
     2
140
3.5
141
0.0
143
0.0393701
146
0.71
147
1.5
176
   256
177
   256
178
     2
271
     2
272
     3
274
     4
283
     0
284
     8
288
     1
289
     0
340
11
371
    -1
372
    -1
  0
DIMSTYLE
105
AF9B
330
A
100
AcDbSymbolTableRecord
100
AcDbDimStyleTableRecord
  2
AM_ISO$4
 70
     0
  4
"
 41
2.5
 42
1.0
 43
10.0
 44
1.0
 47
0.1
 48
0.1
 73
     0
 77
     1
 78
     8
 79
     2
140
3.5
141
0.0
143
0.0393701
146
0.71
147
1.5
176
   256
177
   256
178
     2
271
     2
272
     3
274
     4
283
     0
284
     8
288
     1
289
     0
340
11
371
    -1
372
    -1
  0
DIMSTYLE
105
AF9C
330
A
100
AcDbSymbolTableRecord
100
AcDbDimStyleTableRecord
  2
AM_ISO$6
 70
     0
  4
"
 41
2.5
 42
1.0
 43
10.0
 44
1.0
 47
0.1
 48
0.1
 73
     0
 74
     0
 78
     8
 79
     2
140
3.5
141
0.0
143
0.0393701
146
0.71
147
1.5
172
     1
176
   256
177
   256
178
     2
271
     2
272
     3
274
     4
283
     0
284
     8
340
11
371
    -1
372
    -1
  0
DIMSTYLE
105
AF9D
330
A
100
AcDbSymbolTableRecord
100
AcDbDimStyleTableRecord
  2
AM_ISO$7
 70
     0
  4
"
 41
2.5
 42
1.0
 43
10.0
 44
1.0
 47
0.1
 48
0.1
 73
     0
 74
     0
 77
     1
 78
     8
 79
     2
140
5.0
141
0.0
143
0.0393701
146
0.71
147
1.5
172
     1
176
   256
177
   256
178
     2
271
     2
272
     3
274
     4
283
     0
284
     8
340
11
371
    -1
372
    -1
  0
DIMSTYLE
105
AF9E
330
A
100
AcDbSymbolTableRecord
100
AcDbDimStyleTableRecord
  2
AM_ISO$SF
 70
     0
  4
"
 41
2.5
 42
1.0
 43
10.0
 44
1.0
 47
0.1
 48
0.1
 73
     0
 74
     0
 75
     1
 76
     1
 77
     1
 78
     8
 79
     2
140
3.5
141
0.0
143
0.0393701
146
0.71
147
1.5
172
     1
176
   256
177
   256
178
     2
271
     2
272
     3
274
     4
283
     0
284
     8
340
11
371
    -1
372
    -1
  0
DIMSTYLE
105
AF9F
330
A
100
AcDbSymbolTableRecord
100
AcDbDimStyleTableRecord
  2
AM_ISO$SH
 70
     0
  4
"
 41
2.5
 42
1.0
 43
10.0
 44
1.0
 47
0.1
 48
0.1
 73
     0
 74
     0
 75
     1
 76
     1
 77
     1
 78
     8
 79
     2
140
3.5
141
0.0
143
0.0393701
144
2.0
146
0.71
147
1.5
172
     1
173
     1
176
   256
177
   256
178
     2
271
     2
272
     3
274
     4
283
     0
284
     8
340
11
343
72
371
    -1
372
    -1
  0
DIMSTYLE
105
B5E3
330
A
100
AcDbSymbolTableRecord
100
AcDbDimStyleTableRecord
  2
AM_ISO$0
 70
     0
  4
"
 41
0.8
 42
1.0
 43
10.0
 44
1.0
 47
0.1
 48
0.1
 73
     0
 74
     0
 77
     1
 78
     8
 79
     2
140
3.2
141
0.0
143
0.0393701
146
0.71
147
0.9999999999999996
172
     1
176
   256
177
   256
178
     2
271
     2
272
     2
283
     0
284
     8
340
11
341
6C4
342
6C4
371
    -1
372
    -1
1001
ACAD_DSTYLE_DIMJOGGED_JOGANGLE_SYMBOL
1070
   384
1040
0.7853981633974483
1001
ACAD_DSTYLE_DIMARC_LENGTH_SYMBOL
1070
   379
1070
     1
  0
DIMSTYLE
105
B5E4
330
A
100
AcDbSymbolTableRecord
100
AcDbDimStyleTableRecord
  2
AM_ISO$2
 70
     0
  4
"
 41
0.8
 42
1.0
 43
10.0
 44
1.0
 47
0.1
 48
0.1
 73
     0
 74
     0
 77
     3
 78
     8
 79
     2
140
3.200000000000001
141
0.0
143
0.0393701
146
0.71
147
0.9999999999999996
172
     1
176
   256
177
   256
178
     2
271
     2
272
     2
283
     0
284
     8
340
11
342
6C4
371
    -1
372
    -1
1001
ACAD_DSTYLE_DIMJOGGED_JOGANGLE_SYMBOL
1070
   384
1040
0.7853981633974483
1001
ACAD_DSTYLE_DIMARC_LENGTH_SYMBOL
1070
   379
1070
     1
  0
ENDTAB
  0
TABLE
  2
BLOCK_RECORD
  5
1
330
0
100
AcDbSymbolTable
 70
    23
  0
BLOCK_RECORD
  5
1F
102
{ACAD_XDICTIONARY
360
8A
102
}
330
1
100
AcDbSymbolTableRecord
100
AcDbBlockTableRecord
  2
*Model_Space
340
22
  0
BLOCK_RECORD
  5
1B
330
1
100
AcDbSymbolTableRecord
100
AcDbBlockTableRecord
  2
*Paper_Space
340
1E
  0
BLOCK_RECORD
  5
23
330
1
100
AcDbSymbolTableRecord
100
AcDbBlockTableRecord
  2
*Paper_Space0
340
26
  0
BLOCK_RECORD
  5
72
330
1
100
AcDbSymbolTableRecord
100
AcDbBlockTableRecord
  2
GENAXEH
340
0
  0
BLOCK_RECORD
  5
6C4
330
1
100
AcDbSymbolTableRecord
100
AcDbBlockTableRecord
  2
_Dot
340
0
102
{BLKREFS
331
BBB2
331
BBB3
331
BBBC
331
BBBD
331
BBC5
331
BBC6
331
BBCF
331
BBD0
331
BBD8
331
BBD9
331
BBE1
331
BBE2
331
BBEA
331
BBEB
331
BBF3
331
BBF4
331
BBFC
331
BBFD
331
BC05
331
BC06
331
BC0E
331
BC0F
331
BC17
331
BC18
331
BC20
331
BC21
331
BC29
331
BC2A
331
BC32
331
BC33
102
}
  0
BLOCK_RECORD
  5
A66
330
1
100
AcDbSymbolTableRecord
100
AcDbBlockTableRecord
  2
_OPEN30
340
0
  0
BLOCK_RECORD
  5
B519
330
1
100
AcDbSymbolTableRecord
100
AcDbBlockTableRecord
  2
GENDOT
340
0
102
{BLKREFS
331
BC3B
331
BC3C
102
}
  0
BLOCK_RECORD
  5
B8BC
330
1
100
AcDbSymbolTableRecord
100
AcDbBlockTableRecord
  2
*U6
340
0
102
{BLKREFS
331
BAB0
102
}
  0
BLOCK_RECORD
  5
BAED
330
1
100
AcDbSymbolTableRecord
100
AcDbBlockTableRecord
  2
*D7
340
0
  0
BLOCK_RECORD
  5
BAF9
330
1
100
AcDbSymbolTableRecord
100
AcDbBlockTableRecord
  2
*D8
340
0
  0
BLOCK_RECORD
  5
BB06
330
1
100
AcDbSymbolTableRecord
100
AcDbBlockTableRecord
  2
*D9
340
0
  0
BLOCK_RECORD
  5
BB12
330
1
100
AcDbSymbolTableRecord
100
AcDbBlockTableRecord
  2
*D10
340
0
  0
BLOCK_RECORD
  5
BB20
330
1
100
AcDbSymbolTableRecord
100
AcDbBlockTableRecord
  2
*D11
340
0
  0
BLOCK_RECORD
  5
BB2C
330
1
100
AcDbSymbolTableRecord
100
AcDbBlockTableRecord
  2
*D12
340
0
  0
BLOCK_RECORD
  5
BB38
330
1
100
AcDbSymbolTableRecord
100
AcDbBlockTableRecord
  2
*D13
340
0
  0
BLOCK_RECORD
  5
BB44
330
1
100
AcDbSymbolTableRecord
100
AcDbBlockTableRecord
  2
*D14
340
0
  0
BLOCK_RECORD
  5
BB50
330
1
100
AcDbSymbolTableRecord
100
AcDbBlockTableRecord
  2
*D15
340
0
  0
BLOCK_RECORD
  5
BB5C
330
1
100
AcDbSymbolTableRecord
100
AcDbBlockTableRecord
  2
*D16
340
0
  0
BLOCK_RECORD
  5
BB68
330
1
100
AcDbSymbolTableRecord
100
AcDbBlockTableRecord
  2
*D17
340
0
  0
BLOCK_RECORD
  5
BB74
330
1
100
AcDbSymbolTableRecord
100
AcDbBlockTableRecord
  2
*D18
340
0
  0
BLOCK_RECORD
  5
BB80
330
1
100
AcDbSymbolTableRecord
100
AcDbBlockTableRecord
  2
*D19
340
0
  0
BLOCK_RECORD
  5
BB8C
330
1
100
AcDbSymbolTableRecord
100
AcDbBlockTableRecord
  2
*D20
340
0
  0
BLOCK_RECORD
  5
BB98
330
1
100
AcDbSymbolTableRecord
100
AcDbBlockTableRecord
  2
*D21
340
0
  0
BLOCK_RECORD
  5
BBA4
330
1
100
AcDbSymbolTableRecord
100
AcDbBlockTableRecord
  2
*D22
340
0
  0
ENDTAB
  0
ENDSEC
  0
SECTION
  2
BLOCKS
  0
BLOCK
  5
20
330
1F
100
AcDbEntity
  8
0
100
AcDbBlockBegin
  2
*Model_Space
 70
     0
 10
0.0
 20
0.0
 30
0.0
  3
*Model_Space
  1

  0
ENDBLK
  5
21
330
1F
100
AcDbEntity
  8
0
100
AcDbBlockEnd
  0
BLOCK
  5
1C
330
1B
100
AcDbEntity
 67
     1
  8
0
100
AcDbBlockBegin
  2
*Paper_Space
 70
     0
 10
0.0
 20
0.0
 30
0.0
  3
*Paper_Space
  1

  0
ENDBLK
  5
1D
330
1B
100
AcDbEntity
 67
     1
  8
0
100
AcDbBlockEnd
  0
BLOCK
  5
24
330
23
100
AcDbEntity
 67
     1
  8
0
100
AcDbBlockBegin
  2
*Paper_Space0
 70
     0
 10
0.0
 20
0.0
 30
0.0
  3
*Paper_Space0
  1

  0
ENDBLK
  5
25
330
23
100
AcDbEntity
 67
     1
  8
0
100
AcDbBlockEnd
  0
BLOCK
  5
74
330
72
100
AcDbEntity
  8
0
100
AcDbBlockBegin
  2
GENAXEH
 70
     0
 10
0.0
 20
0.0
 30
0.0
  3
GENAXEH
  1

  0
LINE
  5
73
330
72
100
AcDbEntity
  8
0
100
AcDbLine
 10
-1.0
 20
0.0
 30
0.0
 11
1.0
 21
0.0
 31
0.0
  0
ENDBLK
  5
75
330
72
100
AcDbEntity
  8
0
100
AcDbBlockEnd
  0
BLOCK
  5
6C7
330
6C4
100
AcDbEntity
  8
0
100
AcDbBlockBegin
  2
_Dot
 70
     0
 10
0.0
 20
0.0
 30
0.0
  3
_Dot
  1

  0
LWPOLYLINE
  5
6C5
330
6C4
100
AcDbEntity
  8
0
  6
ByBlock
 62
     0
100
AcDbPolyline
 90
        2
 70
     1
 43
0.5
 10
-0.25
 20
0.0
 42
1.0
 10
0.25
 20
0.0
 42
1.0
  0
LINE
  5
6C6
330
6C4
100
AcDbEntity
  8
0
  6
ByBlock
 62
     0
370
    -2
100
AcDbLine
 10
-0.5
 20
0.0
 30
0.0
 11
-1.0
 21
0.0
 31
0.0
  0
ENDBLK
  5
6C8
330
6C4
100
AcDbEntity
  8
0
100
AcDbBlockEnd
  0
BLOCK
  5
A6A
330
A66
100
AcDbEntity
  8
0
100
AcDbBlockBegin
  2
_OPEN30
 70
     0
 10
0.0
 20
0.0
 30
0.0
  3
_OPEN30
  1

  0
LINE
  5
A67
330
A66
100
AcDbEntity
  8
0
  6
ByBlock
 62
     0
100
AcDbLine
 10
-1.0
 20
0.26794919
 30
0.0
 11
0.0
 21
0.0
 31
0.0
  0
LINE
  5
A68
330
A66
100
AcDbEntity
  8
0
  6
ByBlock
 62
     0
100
AcDbLine
 10
0.0
 20
0.0
 30
0.0
 11
-1.0
 21
-0.26794919
 31
0.0
  0
LINE
  5
A69
330
A66
100
AcDbEntity
  8
0
  6
ByBlock
 62
     0
100
AcDbLine
 10
0.0
 20
0.0
 30
0.0
 11
-1.0
 21
0.0
 31
0.0
  0
ENDBLK
  5
A6B
330
A66
100
AcDbEntity
  8
0
100
AcDbBlockEnd
  0
BLOCK
  5
B51A
330
B519
100
AcDbEntity
  8
0
100
AcDbBlockBegin
  2
GENDOT
 70
     0
 10
0.0
 20
0.0
 30
0.0
  3
GENDOT
  1

  0
LINE
  5
B51B
330
B519
100
AcDbEntity
  8
0
100
AcDbLine
 10
0.0
 20
0.0
 30
0.0
 11
-1.0
 21
0.0
 31
0.0
  0
LWPOLYLINE
  5
B51C
330
B519
100
AcDbEntity
  8
0
100
AcDbPolyline
 90
        2
 70
     1
 43
0.25
 10
-0.125
 20
0.0
 42
1.0
 10
0.125
 20
0.0
 42
1.0
  0
ENDBLK
  5
B51D
330
B519
100
AcDbEntity
  8
0
100
AcDbBlockEnd
  0
BLOCK
  5
B8BD
330
B8BC
100
AcDbEntity
  8
0
100
AcDbBlockBegin
  2
*U6
 70
     1
 10
0.0
 20
0.0
 30
0.0
  3
*U6
  1

  0
TEXT
  5
B8BE
330
B8BC
100
AcDbEntity
  8
AM_6
100
AcDbText
 10
120.2978333758285
 20
38.10434492985359
 30
0.0
 40
5.0
  1
切欠推奨寸法
 41
0.7
100
AcDbText
  0
ENDBLK
  5
B8BF
330
B8BC
100
AcDbEntity
  8
0
100
AcDbBlockEnd
  0
BLOCK
  5
BAF7
330
BAED
100
AcDbEntity
  8
0
100
AcDbBlockBegin
  2
*D7
 70
     1
 10
0.0
 20
0.0
 30
0.0
  3
*D7
  1

  0
LINE
  5
BBAF
330
BAED
100
AcDbEntity
  8
AM_5
100
AcDbLine
 10
2183.864539237618
 20
1701.131079554685
 30
0.0
 11
2183.864539237618
 21
1676.058446507759
 31
0.0
  0
LINE
  5
BBB0
330
BAED
100
AcDbEntity
  8
AM_5
100
AcDbLine
 10
2283.864532237619
 20
1701.131079554685
 30
0.0
 11
2283.864532237619
 21
1676.058446507759
 31
0.0
  0
LINE
  5
BBB1
330
BAED
100
AcDbEntity
  8
AM_5
100
AcDbLine
 10
2184.864539237619
 20
1677.05844650776
 30
0.0
 11
2282.864532237619
 21
1677.05844650776
 31
0.0
  0
INSERT
  5
BBB2
330
BAED
100
AcDbEntity
  8
AM_5
100
AcDbBlockReference
  2
_Dot
 10
2183.864539237618
 20
1677.05844650776
 30
0.0
 50
180.0
  0
INSERT
  5
BBB3
330
BAED
100
AcDbEntity
  8
AM_5
100
AcDbBlockReference
  2
_Dot
 10
2283.864532237619
 20
1677.05844650776
 30
0.0
  0
MTEXT
  5
BBB4
330
BAED
100
AcDbEntity
  8
AM_5
 62
     2
100
AcDbMText
 10
2233.864535737619
 20
1680.158446507759
 30
0.0
 40
3.200000000000001
 41
0.0
 71
     5
 72
     1
  1
100
 73
     1
 44
1.0
  0
POINT
  5
BBB5
330
BAED
100
AcDbEntity
  8
Defpoints
 62
     0
100
AcDbPoint
 10
2183.864539237618
 20
1702.131079554685
 30
0.0
  0
POINT
  5
BBB6
330
BAED
100
AcDbEntity
  8
Defpoints
 62
     0
100
AcDbPoint
 10
2283.864532237619
 20
1702.131079554685
 30
0.0
  0
POINT
  5
BBB7
330
BAED
100
AcDbEntity
  8
Defpoints
 62
     0
100
AcDbPoint
 10
2283.864532237619
 20
1677.05844650776
 30
0.0
  0
ENDBLK
  5
BAF8
330
BAED
100
AcDbEntity
  8
0
100
AcDbBlockEnd
  0
BLOCK
  5
BB04
330
BAF9
100
AcDbEntity
  8
0
100
AcDbBlockBegin
  2
*D8
 70
     1
 10
0.0
 20
0.0
 30
0.0
  3
*D8
  1

  0
LINE
  5
BBB8
330
BAF9
100
AcDbEntity
  8
AM_5
100
AcDbLine
 10
2303.864528237619
 20
1701.131079554685
 30
0.0
 11
2303.864528237619
 21
1676.058446507759
 31
0.0
  0
LINE
  5
BBB9
330
BAF9
100
AcDbEntity
  8
AM_5
100
AcDbLine
 10
2283.864532237619
 20
1701.131079554685
 30
0.0
 11
2283.864532237619
 21
1676.058446507759
 31
0.0
  0
LINE
  5
BBBA
330
BAF9
100
AcDbEntity
  8
AM_5
100
AcDbLine
 10
2284.864532237619
 20
1677.05844650776
 30
0.0
 11
2302.864528237619
 21
1677.05844650776
 31
0.0
  0
LINE
  5
BBBB
330
BAF9
100
AcDbEntity
  8
AM_5
100
AcDbLine
 10
2303.864528237619
 20
1677.05844650776
 30
0.0
 11
2324.952528237619
 21
1677.05844650776
 31
0.0
  0
INSERT
  5
BBBC
330
BAF9
100
AcDbEntity
  8
AM_5
100
AcDbBlockReference
  2
_Dot
 10
2283.864532237619
 20
1677.05844650776
 30
0.0
 50
180.0
  0
INSERT
  5
BBBD
330
BAF9
100
AcDbEntity
  8
AM_5
100
AcDbBlockReference
  2
_Dot
 10
2303.864528237619
 20
1677.05844650776
 30
0.0
  0
MTEXT
  5
BBBE
330
BAF9
100
AcDbEntity
  8
AM_5
 62
     2
100
AcDbMText
 10
2314.908528237619
 20
1680.158446507759
 30
0.0
 40
3.200000000000001
 41
0.0
 71
     5
 72
     1
  1
ストローク20
 73
     1
 44
1.0
  0
POINT
  5
BBBF
330
BAF9
100
AcDbEntity
  8
Defpoints
 62
     0
100
AcDbPoint
 10
2303.864528237619
 20
1702.131079554685
 30
0.0
  0
POINT
  5
BBC0
330
BAF9
100
AcDbEntity
  8
Defpoints
 62
     0
100
AcDbPoint
 10
2283.864532237619
 20
1702.131079554685
 30
0.0
  0
POINT
  5
BBC1
330
BAF9
100
AcDbEntity
  8
Defpoints
 62
     0
100
AcDbPoint
 10
2283.864532237619
 20
1677.05844650776
 30
0.0
  0
ENDBLK
  5
BB05
330
BAF9
100
AcDbEntity
  8
0
100
AcDbBlockEnd
  0
BLOCK
  5
BB10
330
BB06
100
AcDbEntity
  8
0
100
AcDbBlockBegin
  2
*D9
 70
     1
 10
0.0
 20
0.0
 30
0.0
  3
*D9
  1

  0
LINE
  5
BBC2
330
BB06
100
AcDbEntity
  8
AM_5
100
AcDbLine
 10
2182.864520237619
 20
1727.131077554685
 30
0.0
 11
2171.86424682974
 21
1727.131077554685
 31
0.0
  0
LINE
  5
BBC3
330
BB06
100
AcDbEntity
  8
AM_5
100
AcDbLine
 10
2182.864520237619
 20
1702.131079554685
 30
0.0
 11
2171.86424682974
 21
1702.131079554685
 31
0.0
  0
LINE
  5
BBC4
330
BB06
100
AcDbEntity
  8
AM_5
100
AcDbLine
 10
2172.864246829741
 20
1726.131077554685
 30
0.0
 11
2172.864246829741
 21
1703.131079554685
 31
0.0
  0
INSERT
  5
BBC5
330
BB06
100
AcDbEntity
  8
AM_5
100
AcDbBlockReference
  2
_Dot
 10
2172.864246829741
 20
1727.131077554685
 30
0.0
 50
90.0
  0
INSERT
  5
BBC6
330
BB06
100
AcDbEntity
  8
AM_5
100
AcDbBlockReference
  2
_Dot
 10
2172.864246829741
 20
1702.131079554685
 30
0.0
 50
270.0
  0
MTEXT
  5
BBC7
330
BB06
100
AcDbEntity
  8
AM_5
 62
     2
100
AcDbMText
 10
2169.76424682974
 20
1714.631078554685
 30
0.0
 40
3.200000000000001
 41
0.0
 71
     5
 72
     1
  1
25
 11
0.0000000000000001
 21
1.0
 31
0.0
 73
     1
 44
1.0
  0
POINT
  5
BBC8
330
BB06
100
AcDbEntity
  8
Defpoints
 62
     0
100
AcDbPoint
 10
2183.864520237619
 20
1727.131077554685
 30
0.0
  0
POINT
  5
BBC9
330
BB06
100
AcDbEntity
  8
Defpoints
 62
     0
100
AcDbPoint
 10
2183.864520237619
 20
1702.131079554685
 30
0.0
  0
POINT
  5
BBCA
330
BB06
100
AcDbEntity
  8
Defpoints
 62
     0
100
AcDbPoint
 10
2172.864246829741
 20
1702.131079554685
 30
0.0
  0
ENDBLK
  5
BB11
330
BB06
100
AcDbEntity
  8
0
100
AcDbBlockEnd
  0
BLOCK
  5
BB1E
330
BB12
100
AcDbEntity
  8
0
100
AcDbBlockBegin
  2
*D10
 70
     1
 10
0.0
 20
0.0
 30
0.0
  3
*D10
  1

  0
LINE
  5
BBCB
330
BB12
100
AcDbEntity
  8
AM_5
100
AcDbLine
 10
2278.864524237619
 20
1625.131077554685
 30
0.0
 11
2278.864524237619
 21
1657.131077754685
 31
0.0
  0
LINE
  5
BBCC
330
BB12
100
AcDbEntity
  8
AM_5
100
AcDbLine
 10
2283.864524237619
 20
1637.131077754684
 30
0.0
 11
2283.864524237619
 21
1657.131077754685
 31
0.0
  0
LINE
  5
BBCD
330
BB12
100
AcDbEntity
  8
AM_5
100
AcDbLine
 10
2279.864524237619
 20
1656.131077754684
 30
0.0
 11
2282.864524237619
 21
1656.131077754684
 31
0.0
  0
LINE
  5
BBCE
330
BB12
100
AcDbEntity
  8
AM_5
100
AcDbLine
 10
2283.864524237619
 20
1656.131077754684
 30
0.0
 11
2292.088524237619
 21
1656.131077754684
 31
0.0
  0
INSERT
  5
BBCF
330
BB12
100
AcDbEntity
  8
AM_5
100
AcDbBlockReference
  2
_Dot
 10
2278.864524237619
 20
1656.131077754684
 30
0.0
 50
180.0
  0
INSERT
  5
BBD0
330
BB12
100
AcDbEntity
  8
AM_5
100
AcDbBlockReference
  2
_Dot
 10
2283.864524237619
 20
1656.131077754684
 30
0.0
  0
MTEXT
  5
BBD1
330
BB12
100
AcDbEntity
  8
AM_5
 62
     2
100
AcDbMText
 10
2288.476524237619
 20
1659.231077754685
 30
0.0
 40
3.200000000000001
 41
0.0
 71
     5
 72
     1
  1
（5）
 73
     1
 44
1.0
  0
POINT
  5
BBD2
330
BB12
100
AcDbEntity
  8
Defpoints
 62
     0
100
AcDbPoint
 10
2278.864524237619
 20
1624.131077554685
 30
0.0
  0
POINT
  5
BBD3
330
BB12
100
AcDbEntity
  8
Defpoints
 62
     0
100
AcDbPoint
 10
2283.864524237619
 20
1636.131077754685
 30
0.0
  0
POINT
  5
BBD4
330
BB12
100
AcDbEntity
  8
Defpoints
 62
     0
100
AcDbPoint
 10
2283.864524237619
 20
1656.131077754684
 30
0.0
  0
ENDBLK
  5
BB1F
330
BB12
100
AcDbEntity
  8
0
100
AcDbBlockEnd
  0
BLOCK
  5
BB2A
330
BB20
100
AcDbEntity
  8
0
100
AcDbBlockBegin
  2
*D11
 70
     1
 10
0.0
 20
0.0
 30
0.0
  3
*D11
  1

  0
LINE
  5
BBD5
330
BB20
100
AcDbEntity
  8
AM_5
100
AcDbLine
 10
2278.864524237619
 20
1625.131077554685
 30
0.0
 11
2278.864524237619
 21
1657.131077754686
 31
0.0
  0
LINE
  5
BBD6
330
BB20
100
AcDbEntity
  8
AM_5
100
AcDbLine
 10
2208.864528237619
 20
1625.131077554685
 30
0.0
 11
2208.864528237619
 21
1657.131077754686
 31
0.0
  0
LINE
  5
BBD7
330
BB20
100
AcDbEntity
  8
AM_5
100
AcDbLine
 10
2277.864524237619
 20
1656.131077754686
 30
0.0
 11
2209.864528237619
 21
1656.131077754686
 31
0.0
  0
INSERT
  5
BBD8
330
BB20
100
AcDbEntity
  8
AM_5
100
AcDbBlockReference
  2
_Dot
 10
2278.864524237619
 20
1656.131077754686
 30
0.0
  0
INSERT
  5
BBD9
330
BB20
100
AcDbEntity
  8
AM_5
100
AcDbBlockReference
  2
_Dot
 10
2208.864528237619
 20
1656.131077754686
 30
0.0
 50
180.0
  0
MTEXT
  5
BBDA
330
BB20
100
AcDbEntity
  8
AM_5
 62
     2
100
AcDbMText
 10
2243.864526237619
 20
1659.231077754686
 30
0.0
 40
3.200000000000001
 41
0.0
 71
     5
 72
     1
  1
70
 73
     1
 44
1.0
  0
POINT
  5
BBDB
330
BB20
100
AcDbEntity
  8
Defpoints
 62
     0
100
AcDbPoint
 10
2278.864524237619
 20
1624.131077554685
 30
0.0
  0
POINT
  5
BBDC
330
BB20
100
AcDbEntity
  8
Defpoints
 62
     0
100
AcDbPoint
 10
2208.864528237619
 20
1624.131077554685
 30
0.0
  0
POINT
  5
BBDD
330
BB20
100
AcDbEntity
  8
Defpoints
 62
     0
100
AcDbPoint
 10
2208.864528237619
 20
1656.131077754686
 30
0.0
  0
ENDBLK
  5
BB2B
330
BB20
100
AcDbEntity
  8
0
100
AcDbBlockEnd
  0
BLOCK
  5
BB36
330
BB2C
100
AcDbEntity
  8
0
100
AcDbBlockBegin
  2
*D12
 70
     1
 10
0.0
 20
0.0
 30
0.0
  3
*D12
  1

  0
LINE
  5
BBDE
330
BB2C
100
AcDbEntity
  8
AM_5
100
AcDbLine
 10
2212.864524437619
 20
1553.464913554685
 30
0.0
 11
2200.864524937619
 21
1553.464913554685
 31
0.0
  0
LINE
  5
BBDF
330
BB2C
100
AcDbEntity
  8
AM_5
100
AcDbLine
 10
2212.864524437619
 20
1513.464909554685
 30
0.0
 11
2200.864524937619
 21
1513.464909554685
 31
0.0
  0
LINE
  5
BBE0
330
BB2C
100
AcDbEntity
  8
AM_5
100
AcDbLine
 10
2201.864524937619
 20
1552.464913554685
 30
0.0
 11
2201.864524937619
 21
1514.464909554685
 31
0.0
  0
INSERT
  5
BBE1
330
BB2C
100
AcDbEntity
  8
AM_5
100
AcDbBlockReference
  2
_Dot
 10
2201.864524937619
 20
1553.464913554685
 30
0.0
 50
90.0
  0
INSERT
  5
BBE2
330
BB2C
100
AcDbEntity
  8
AM_5
100
AcDbBlockReference
  2
_Dot
 10
2201.864524937619
 20
1513.464909554685
 30
0.0
 50
270.0
  0
MTEXT
  5
BBE3
330
BB2C
100
AcDbEntity
  8
AM_5
 62
     2
100
AcDbMText
 10
2198.764524937619
 20
1533.464911554685
 30
0.0
 40
3.200000000000001
 41
0.0
 71
     5
 72
     1
  1
40
 11
0.0000000000000001
 21
1.0
 31
0.0
 73
     1
 44
1.0
  0
POINT
  5
BBE4
330
BB2C
100
AcDbEntity
  8
Defpoints
 62
     0
100
AcDbPoint
 10
2213.864524437619
 20
1553.464913554685
 30
0.0
  0
POINT
  5
BBE5
330
BB2C
100
AcDbEntity
  8
Defpoints
 62
     0
100
AcDbPoint
 10
2213.864524437619
 20
1513.464909554685
 30
0.0
  0
POINT
  5
BBE6
330
BB2C
100
AcDbEntity
  8
Defpoints
 62
     0
100
AcDbPoint
 10
2201.864524937619
 20
1513.464909554685
 30
0.0
  0
ENDBLK
  5
BB37
330
BB2C
100
AcDbEntity
  8
0
100
AcDbBlockEnd
  0
BLOCK
  5
BB42
330
BB38
100
AcDbEntity
  8
0
100
AcDbBlockBegin
  2
*D13
 70
     1
 10
0.0
 20
0.0
 30
0.0
  3
*D13
  1

  0
LINE
  5
BBE7
330
BB38
100
AcDbEntity
  8
AM_5
100
AcDbLine
 10
2213.864524237619
 20
1512.464909554685
 30
0.0
 11
2213.864524237619
 21
1497.403912736708
 31
0.0
  0
LINE
  5
BBE8
330
BB38
100
AcDbEntity
  8
AM_5
100
AcDbLine
 10
2273.864524437619
 20
1512.464909554685
 30
0.0
 11
2273.864524437619
 21
1497.403912736708
 31
0.0
  0
LINE
  5
BBE9
330
BB38
100
AcDbEntity
  8
AM_5
100
AcDbLine
 10
2214.864524237619
 20
1498.403912736708
 30
0.0
 11
2272.864524437619
 21
1498.403912736708
 31
0.0
  0
INSERT
  5
BBEA
330
BB38
100
AcDbEntity
  8
AM_5
100
AcDbBlockReference
  2
_Dot
 10
2213.864524237619
 20
1498.403912736708
 30
0.0
 50
180.0
  0
INSERT
  5
BBEB
330
BB38
100
AcDbEntity
  8
AM_5
100
AcDbBlockReference
  2
_Dot
 10
2273.864524437619
 20
1498.403912736708
 30
0.0
  0
MTEXT
  5
BBEC
330
BB38
100
AcDbEntity
  8
AM_5
 62
     2
100
AcDbMText
 10
2243.864524337619
 20
1501.503912736708
 30
0.0
 40
3.200000000000001
 41
0.0
 71
     5
 72
     1
  1
60
 73
     1
 44
1.0
  0
POINT
  5
BBED
330
BB38
100
AcDbEntity
  8
Defpoints
 62
     0
100
AcDbPoint
 10
2213.864524237619
 20
1513.464909554685
 30
0.0
  0
POINT
  5
BBEE
330
BB38
100
AcDbEntity
  8
Defpoints
 62
     0
100
AcDbPoint
 10
2273.864524437619
 20
1513.464909554685
 30
0.0
  0
POINT
  5
BBEF
330
BB38
100
AcDbEntity
  8
Defpoints
 62
     0
100
AcDbPoint
 10
2273.864524437619
 20
1498.403912736708
 30
0.0
  0
ENDBLK
  5
BB43
330
BB38
100
AcDbEntity
  8
0
100
AcDbBlockEnd
  0
BLOCK
  5
BB4E
330
BB44
100
AcDbEntity
  8
0
100
AcDbBlockBegin
  2
*D14
 70
     1
 10
0.0
 20
0.0
 30
0.0
  3
*D14
  1

  0
LINE
  5
BBF0
330
BB44
100
AcDbEntity
  8
AM_5
100
AcDbLine
 10
2331.864524237619
 20
1528.464913554685
 30
0.0
 11
2318.364524237619
 21
1528.464913554685
 31
0.0
  0
LINE
  5
BBF1
330
BB44
100
AcDbEntity
  8
AM_5
100
AcDbLine
 10
2330.364524237619
 20
1513.464909554685
 30
0.0
 11
2318.364524237619
 21
1513.464909554685
 31
0.0
  0
LINE
  5
BBF2
330
BB44
100
AcDbEntity
  8
AM_5
100
AcDbLine
 10
2319.364524237619
 20
1527.464913554685
 30
0.0
 11
2319.364524237619
 21
1514.464909554685
 31
0.0
  0
INSERT
  5
BBF3
330
BB44
100
AcDbEntity
  8
AM_5
100
AcDbBlockReference
  2
_Dot
 10
2319.364524237619
 20
1528.464913554685
 30
0.0
 50
90.0
  0
INSERT
  5
BBF4
330
BB44
100
AcDbEntity
  8
AM_5
100
AcDbBlockReference
  2
_Dot
 10
2319.364524237619
 20
1513.464909554685
 30
0.0
 50
270.0
  0
MTEXT
  5
BBF5
330
BB44
100
AcDbEntity
  8
AM_5
 62
     2
100
AcDbMText
 10
2316.264524237618
 20
1520.964911554685
 30
0.0
 40
3.200000000000001
 41
0.0
 71
     5
 72
     1
  1
15
 11
0.0000000000000001
 21
1.0
 31
0.0
 73
     1
 44
1.0
  0
POINT
  5
BBF6
330
BB44
100
AcDbEntity
  8
Defpoints
 62
     0
100
AcDbPoint
 10
2332.864524237619
 20
1528.464913554685
 30
0.0
  0
POINT
  5
BBF7
330
BB44
100
AcDbEntity
  8
Defpoints
 62
     0
100
AcDbPoint
 10
2331.364524237619
 20
1513.464909554685
 30
0.0
  0
POINT
  5
BBF8
330
BB44
100
AcDbEntity
  8
Defpoints
 62
     0
100
AcDbPoint
 10
2319.364524237619
 20
1513.464909554685
 30
0.0
  0
ENDBLK
  5
BB4F
330
BB44
100
AcDbEntity
  8
0
100
AcDbBlockEnd
  0
BLOCK
  5
BB5A
330
BB50
100
AcDbEntity
  8
0
100
AcDbBlockBegin
  2
*D15
 70
     1
 10
0.0
 20
0.0
 30
0.0
  3
*D15
  1

  0
LINE
  5
BBF9
330
BB50
100
AcDbEntity
  8
AM_5
100
AcDbLine
 10
2351.864524237619
 20
1527.464913554685
 30
0.0
 11
2351.864524237619
 21
1497.403912736712
 31
0.0
  0
LINE
  5
BBFA
330
BB50
100
AcDbEntity
  8
AM_5
100
AcDbLine
 10
2332.864524237619
 20
1513.964909554685
 30
0.0
 11
2332.864524237619
 21
1497.403912736712
 31
0.0
  0
LINE
  5
BBFB
330
BB50
100
AcDbEntity
  8
AM_5
100
AcDbLine
 10
2350.864524237619
 20
1498.403912736712
 30
0.0
 11
2333.864524237619
 21
1498.403912736712
 31
0.0
  0
INSERT
  5
BBFC
330
BB50
100
AcDbEntity
  8
AM_5
100
AcDbBlockReference
  2
_Dot
 10
2351.864524237619
 20
1498.403912736712
 30
0.0
  0
INSERT
  5
BBFD
330
BB50
100
AcDbEntity
  8
AM_5
100
AcDbBlockReference
  2
_Dot
 10
2332.864524237619
 20
1498.403912736712
 30
0.0
 50
180.0
  0
MTEXT
  5
BBFE
330
BB50
100
AcDbEntity
  8
AM_5
 62
     2
100
AcDbMText
 10
2342.364524237619
 20
1501.503912736712
 30
0.0
 40
3.200000000000001
 41
0.0
 71
     5
 72
     1
  1
19
 73
     1
 44
1.0
  0
POINT
  5
BBFF
330
BB50
100
AcDbEntity
  8
Defpoints
 62
     0
100
AcDbPoint
 10
2351.864524237619
 20
1528.464913554685
 30
0.0
  0
POINT
  5
BC00
330
BB50
100
AcDbEntity
  8
Defpoints
 62
     0
100
AcDbPoint
 10
2332.864524237619
 20
1514.964909554685
 30
0.0
  0
POINT
  5
BC01
330
BB50
100
AcDbEntity
  8
Defpoints
 62
     0
100
AcDbPoint
 10
2332.864524237619
 20
1498.403912736712
 30
0.0
  0
ENDBLK
  5
BB5B
330
BB50
100
AcDbEntity
  8
0
100
AcDbBlockEnd
  0
BLOCK
  5
BB66
330
BB5C
100
AcDbEntity
  8
0
100
AcDbBlockBegin
  2
*D16
 70
     1
 10
0.0
 20
0.0
 30
0.0
  3
*D16
  1

  0
LINE
  5
BC02
330
BB5C
100
AcDbEntity
  8
AM_5
100
AcDbLine
 10
2221.864532737618
 20
1635.131075346113
 30
0.0
 11
2221.864532737618
 21
1647.131024119502
 31
0.0
  0
LINE
  5
BC03
330
BB5C
100
AcDbEntity
  8
AM_5
100
AcDbLine
 10
2265.864532737619
 20
1635.131074466114
 30
0.0
 11
2265.864532737619
 21
1647.131024119502
 31
0.0
  0
LINE
  5
BC04
330
BB5C
100
AcDbEntity
  8
AM_5
100
AcDbLine
 10
2222.864532737618
 20
1646.131024119501
 30
0.0
 11
2264.864532737618
 21
1646.131024119501
 31
0.0
  0
INSERT
  5
BC05
330
BB5C
100
AcDbEntity
  8
AM_5
100
AcDbBlockReference
  2
_Dot
 10
2221.864532737618
 20
1646.131024119501
 30
0.0
 50
180.0
  0
INSERT
  5
BC06
330
BB5C
100
AcDbEntity
  8
AM_5
100
AcDbBlockReference
  2
_Dot
 10
2265.864532737619
 20
1646.131024119501
 30
0.0
  0
MTEXT
  5
BC07
330
BB5C
100
AcDbEntity
  8
AM_5
 62
     2
100
AcDbMText
 10
2243.864532737619
 20
1649.231024119501
 30
0.0
 40
3.200000000000001
 41
0.0
 71
     5
 72
     1
  1
44
 73
     1
 44
1.0
  0
POINT
  5
BC08
330
BB5C
100
AcDbEntity
  8
Defpoints
 62
     0
100
AcDbPoint
 10
2221.864532737618
 20
1634.131075346113
 30
0.0
  0
POINT
  5
BC09
330
BB5C
100
AcDbEntity
  8
Defpoints
 62
     0
100
AcDbPoint
 10
2265.864532737619
 20
1634.131074466113
 30
0.0
  0
POINT
  5
BC0A
330
BB5C
100
AcDbEntity
  8
Defpoints
 62
     0
100
AcDbPoint
 10
2265.864532737619
 20
1646.131024119501
 30
0.0
  0
ENDBLK
  5
BB67
330
BB5C
100
AcDbEntity
  8
0
100
AcDbBlockEnd
  0
BLOCK
  5
BB72
330
BB68
100
AcDbEntity
  8
0
100
AcDbBlockBegin
  2
*D17
 70
     1
 10
0.0
 20
0.0
 30
0.0
  3
*D17
  1

  0
LINE
  5
BC0B
330
BB68
100
AcDbEntity
  8
AM_5
100
AcDbLine
 10
2351.864524237619
 20
1554.464909554685
 30
0.0
 11
2351.864524237619
 21
1575.459420341408
 31
0.0
  0
LINE
  5
BC0C
330
BB68
100
AcDbEntity
  8
AM_5
100
AcDbLine
 10
2329.864524237619
 20
1553.464909554685
 30
0.0
 11
2329.864524237619
 21
1575.459420341408
 31
0.0
  0
LINE
  5
BC0D
330
BB68
100
AcDbEntity
  8
AM_5
100
AcDbLine
 10
2350.864524237619
 20
1574.459420341408
 30
0.0
 11
2330.864524237619
 21
1574.459420341408
 31
0.0
  0
INSERT
  5
BC0E
330
BB68
100
AcDbEntity
  8
AM_5
100
AcDbBlockReference
  2
_Dot
 10
2351.864524237619
 20
1574.459420341408
 30
0.0
  0
INSERT
  5
BC0F
330
BB68
100
AcDbEntity
  8
AM_5
100
AcDbBlockReference
  2
_Dot
 10
2329.864524237619
 20
1574.459420341408
 30
0.0
 50
180.0
  0
MTEXT
  5
BC10
330
BB68
100
AcDbEntity
  8
AM_5
 62
     2
100
AcDbMText
 10
2340.864524237619
 20
1577.559420341408
 30
0.0
 40
3.200000000000001
 41
0.0
 71
     5
 72
     1
  1
22
 73
     1
 44
1.0
  0
POINT
  5
BC11
330
BB68
100
AcDbEntity
  8
Defpoints
 62
     0
100
AcDbPoint
 10
2351.864524237619
 20
1553.464909554685
 30
0.0
  0
POINT
  5
BC12
330
BB68
100
AcDbEntity
  8
Defpoints
 62
     0
100
AcDbPoint
 10
2329.864524237619
 20
1552.464909554685
 30
0.0
  0
POINT
  5
BC13
330
BB68
100
AcDbEntity
  8
Defpoints
 62
     0
100
AcDbPoint
 10
2329.864524237619
 20
1574.459420341408
 30
0.0
  0
ENDBLK
  5
BB73
330
BB68
100
AcDbEntity
  8
0
100
AcDbBlockEnd
  0
BLOCK
  5
BB7E
330
BB74
100
AcDbEntity
  8
0
100
AcDbBlockBegin
  2
*D18
 70
     1
 10
0.0
 20
0.0
 30
0.0
  3
*D18
  1

  0
LINE
  5
BC14
330
BB74
100
AcDbEntity
  8
AM_5
100
AcDbLine
 10
2383.864544237619
 20
1553.464909554685
 30
0.0
 11
2383.864544237619
 21
1565.464909554685
 31
0.0
  0
LINE
  5
BC15
330
BB74
100
AcDbEntity
  8
AM_5
100
AcDbLine
 10
2371.864524237619
 20
1553.464909554685
 30
0.0
 11
2371.864524237619
 21
1565.464909554685
 31
0.0
  0
LINE
  5
BC16
330
BB74
100
AcDbEntity
  8
AM_5
100
AcDbLine
 10
2382.864544237619
 20
1564.464909554685
 30
0.0
 11
2372.864524237619
 21
1564.464909554685
 31
0.0
  0
INSERT
  5
BC17
330
BB74
100
AcDbEntity
  8
AM_5
100
AcDbBlockReference
  2
_Dot
 10
2383.864544237619
 20
1564.464909554685
 30
0.0
  0
INSERT
  5
BC18
330
BB74
100
AcDbEntity
  8
AM_5
100
AcDbBlockReference
  2
_Dot
 10
2371.864524237619
 20
1564.464909554685
 30
0.0
 50
180.0
  0
MTEXT
  5
BC19
330
BB74
100
AcDbEntity
  8
AM_5
 62
     2
100
AcDbMText
 10
2377.864534237619
 20
1567.564909554685
 30
0.0
 40
3.200000000000001
 41
0.0
 71
     5
 72
     1
  1
12
 73
     1
 44
1.0
  0
POINT
  5
BC1A
330
BB74
100
AcDbEntity
  8
Defpoints
 62
     0
100
AcDbPoint
 10
2383.864544237619
 20
1552.464909554685
 30
0.0
  0
POINT
  5
BC1B
330
BB74
100
AcDbEntity
  8
Defpoints
 62
     0
100
AcDbPoint
 10
2371.864524237619
 20
1552.464909554685
 30
0.0
  0
POINT
  5
BC1C
330
BB74
100
AcDbEntity
  8
Defpoints
 62
     0
100
AcDbPoint
 10
2371.864524237619
 20
1564.464909554685
 30
0.0
  0
ENDBLK
  5
BB7F
330
BB74
100
AcDbEntity
  8
0
100
AcDbBlockEnd
  0
BLOCK
  5
BB8A
330
BB80
100
AcDbEntity
  8
0
100
AcDbBlockBegin
  2
*D19
 70
     1
 10
0.0
 20
0.0
 30
0.0
  3
*D19
  1

  0
LINE
  5
BC1D
330
BB80
100
AcDbEntity
  8
AM_5
100
AcDbLine
 10
2383.864544237619
 20
1553.464909554685
 30
0.0
 11
2383.864544237619
 21
1575.464909554683
 31
0.0
  0
LINE
  5
BC1E
330
BB80
100
AcDbEntity
  8
AM_5
100
AcDbLine
 10
2364.864524237619
 20
1548.964909554685
 30
0.0
 11
2364.864524237619
 21
1575.464909554683
 31
0.0
  0
LINE
  5
BC1F
330
BB80
100
AcDbEntity
  8
AM_5
100
AcDbLine
 10
2382.864544237619
 20
1574.464909554683
 30
0.0
 11
2365.864524237619
 21
1574.464909554683
 31
0.0
  0
INSERT
  5
BC20
330
BB80
100
AcDbEntity
  8
AM_5
100
AcDbBlockReference
  2
_Dot
 10
2383.864544237619
 20
1574.464909554683
 30
0.0
  0
INSERT
  5
BC21
330
BB80
100
AcDbEntity
  8
AM_5
100
AcDbBlockReference
  2
_Dot
 10
2364.864524237619
 20
1574.464909554683
 30
0.0
 50
180.0
  0
MTEXT
  5
BC22
330
BB80
100
AcDbEntity
  8
AM_5
 62
     2
100
AcDbMText
 10
2374.364534237619
 20
1577.564909554683
 30
0.0
 40
3.200000000000001
 41
0.0
 71
     5
 72
     1
  1
19
 73
     1
 44
1.0
  0
POINT
  5
BC23
330
BB80
100
AcDbEntity
  8
Defpoints
 62
     0
100
AcDbPoint
 10
2383.864544237619
 20
1552.464909554685
 30
0.0
  0
POINT
  5
BC24
330
BB80
100
AcDbEntity
  8
Defpoints
 62
     0
100
AcDbPoint
 10
2364.864524237619
 20
1547.964909554685
 30
0.0
  0
POINT
  5
BC25
330
BB80
100
AcDbEntity
  8
Defpoints
 62
     0
100
AcDbPoint
 10
2364.864524237619
 20
1574.464909554683
 30
0.0
  0
ENDBLK
  5
BB8B
330
BB80
100
AcDbEntity
  8
0
100
AcDbBlockEnd
  0
BLOCK
  5
BB96
330
BB8C
100
AcDbEntity
  8
0
100
AcDbBlockBegin
  2
*D20
 70
     1
 10
0.0
 20
0.0
 30
0.0
  3
*D20
  1

  0
LINE
  5
BC26
330
BB8C
100
AcDbEntity
  8
AM_5
100
AcDbLine
 10
2364.864524237619
 20
1548.964909554685
 30
0.0
 11
2364.864524237619
 21
1575.464909554681
 31
0.0
  0
LINE
  5
BC27
330
BB8C
100
AcDbEntity
  8
AM_5
100
AcDbLine
 10
2354.864524237619
 20
1544.964917514685
 30
0.0
 11
2354.864524237619
 21
1575.464909554681
 31
0.0
  0
LINE
  5
BC28
330
BB8C
100
AcDbEntity
  8
AM_5
100
AcDbLine
 10
2363.864524237619
 20
1574.464909554681
 30
0.0
 11
2355.864524237619
 21
1574.464909554681
 31
0.0
  0
INSERT
  5
BC29
330
BB8C
100
AcDbEntity
  8
AM_5
100
AcDbBlockReference
  2
_Dot
 10
2364.864524237619
 20
1574.464909554681
 30
0.0
  0
INSERT
  5
BC2A
330
BB8C
100
AcDbEntity
  8
AM_5
100
AcDbBlockReference
  2
_Dot
 10
2354.864524237619
 20
1574.464909554681
 30
0.0
 50
180.0
  0
MTEXT
  5
BC2B
330
BB8C
100
AcDbEntity
  8
AM_5
 62
     2
100
AcDbMText
 10
2359.864524237619
 20
1577.564909554681
 30
0.0
 40
3.200000000000001
 41
0.0
 71
     5
 72
     1
  1
10
 73
     1
 44
1.0
  0
POINT
  5
BC2C
330
BB8C
100
AcDbEntity
  8
Defpoints
 62
     0
100
AcDbPoint
 10
2364.864524237619
 20
1547.964909554685
 30
0.0
  0
POINT
  5
BC2D
330
BB8C
100
AcDbEntity
  8
Defpoints
 62
     0
100
AcDbPoint
 10
2354.864524237619
 20
1543.964917514685
 30
0.0
  0
POINT
  5
BC2E
330
BB8C
100
AcDbEntity
  8
Defpoints
 62
     0
100
AcDbPoint
 10
2354.864524237619
 20
1574.464909554681
 30
0.0
  0
ENDBLK
  5
BB97
330
BB8C
100
AcDbEntity
  8
0
100
AcDbBlockEnd
  0
BLOCK
  5
BBA2
330
BB98
100
AcDbEntity
  8
0
100
AcDbBlockBegin
  2
*D21
 70
     1
 10
0.0
 20
0.0
 30
0.0
  3
*D21
  1

  0
LINE
  5
BC2F
330
BB98
100
AcDbEntity
  8
AM_5
100
AcDbLine
 10
2129.76828893902
 20
1532.964909554685
 30
0.0
 11
2129.76828893902
 21
1523.964908544684
 31
0.0
  0
LINE
  5
BC30
330
BB98
100
AcDbEntity
  8
AM_5
100
AcDbLine
 10
2173.76828993902
 20
1532.964909554685
 30
0.0
 11
2173.76828993902
 21
1523.964908544684
 31
0.0
  0
LINE
  5
BC31
330
BB98
100
AcDbEntity
  8
AM_5
100
AcDbLine
 10
2130.76828893902
 20
1524.964908544684
 30
0.0
 11
2172.76828993902
 21
1524.964908544684
 31
0.0
  0
INSERT
  5
BC32
330
BB98
100
AcDbEntity
  8
AM_5
100
AcDbBlockReference
  2
_Dot
 10
2129.76828893902
 20
1524.964908544684
 30
0.0
 50
180.0
  0
INSERT
  5
BC33
330
BB98
100
AcDbEntity
  8
AM_5
100
AcDbBlockReference
  2
_Dot
 10
2173.76828993902
 20
1524.964908544684
 30
0.0
  0
MTEXT
  5
BC34
330
BB98
100
AcDbEntity
  8
AM_5
 62
     2
100
AcDbMText
 10
2151.76828943902
 20
1528.064908544684
 30
0.0
 40
3.200000000000001
 41
0.0
 71
     5
 72
     1
  1
44
 73
     1
 44
1.0
  0
POINT
  5
BC35
330
BB98
100
AcDbEntity
  8
Defpoints
 62
     0
100
AcDbPoint
 10
2129.76828893902
 20
1533.964909554685
 30
0.0
  0
POINT
  5
BC36
330
BB98
100
AcDbEntity
  8
Defpoints
 62
     0
100
AcDbPoint
 10
2173.76828993902
 20
1533.964909554685
 30
0.0
  0
POINT
  5
BC37
330
BB98
100
AcDbEntity
  8
Defpoints
 62
     0
100
AcDbPoint
 10
2173.76828993902
 20
1524.964908544684
 30
0.0
  0
ENDBLK
  5
BBA3
330
BB98
100
AcDbEntity
  8
0
100
AcDbBlockEnd
  0
BLOCK
  5
BBAD
330
BBA4
100
AcDbEntity
  8
0
100
AcDbBlockBegin
  2
*D22
 70
     1
 10
0.0
 20
0.0
 30
0.0
  3
*D22
  1

  0
LINE
  5
BC38
330
BBA4
100
AcDbEntity
  8
AM_5
100
AcDbLine
 10
2130.889120777621
 20
1539.308483861499
 30
0.0
 11
2128.647466100423
 21
1542.621335247872
 31
0.0
  0
LINE
  5
BC39
330
BBA4
100
AcDbEntity
  8
AM_5
100
AcDbLine
 10
2127.526638761823
 20
1544.277760941058
 30
0.0
 11
2122.839338795639
 21
1551.204933243408
 31
0.0
  0
LINE
  5
BC3A
330
BBA4
100
AcDbEntity
  8
AM_5
100
AcDbLine
 10
2122.839338795639
 20
1551.204933243408
 30
0.0
 11
2112.122672128972
 21
1551.204933243408
 31
0.0
  0
INSERT
  5
BC3B
330
BBA4
100
AcDbEntity
  8
AM_5
100
AcDbBlockReference
  2
GENDOT
 10
2132.00994811622
 20
1537.652058168313
 30
0.0
 41
2.0
 42
2.0
 43
2.0
 50
304.0844105589709
  0
INSERT
  5
BC3C
330
BBA4
100
AcDbEntity
  8
AM_5
100
AcDbBlockReference
  2
GENDOT
 10
2127.526638761823
 20
1544.277760941058
 30
0.0
 41
2.0
 42
2.0
 43
2.0
 50
124.0844105589709
  0
MTEXT
  5
BC3D
330
BBA4
100
AcDbEntity
  8
AM_5
 62
     2
100
AcDbMText
 10
2116.731005462305
 20
1554.454933243408
 30
0.0
 40
3.5
 41
0.0
 71
     5
 72
     1
  1
3-\U+22058
 73
     1
 44
1.0
  0
POINT
  5
BC3E
330
BBA4
100
AcDbEntity
  8
Defpoints
 62
     0
100
AcDbPoint
 10
2127.526638761823
 20
1544.277760941058
 30
0.0
  0
POINT
  5
BC3F
330
BBA4
100
AcDbEntity
  8
Defpoints
 62
     0
100
AcDbPoint
 10
2132.00994811622
 20
1537.652058168313
 30
0.0
  0
ENDBLK
  5
BBAE
330
BBA4
100
AcDbEntity
  8
0
100
AcDbBlockEnd
  0
ENDSEC
  0
SECTION
  2
ENTITIES
  0
LINE
  5
BA3A
330
1F
100
AcDbEntity
  8
AM_0
100
AcDbLine
 10
2262.864524437619
 20
1617.131077554685
 30
0.0
 11
2262.864524437619
 21
1607.131077554685
 31
0.0
  0
LINE
  5
BA3B
330
1F
100
AcDbEntity
  8
AM_0
100
AcDbLine
 10
2213.864524237619
 20
1594.131077554685
 30
0.0
 11
2273.864524437619
 21
1594.131077554685
 31
0.0
  0
LINE
  5
BA3C
330
1F
100
AcDbEntity
  8
AM_0
100
AcDbLine
 10
2240.614524237619
 20
1614.131077554685
 30
0.0
 11
2240.614524237619
 21
1604.131077554685
 31
0.0
  0
LINE
  5
BA3D
330
1F
100
AcDbEntity
  8
AM_0
100
AcDbLine
 10
2247.114524237619
 20
1614.131077554685
 30
0.0
 11
2247.114524237619
 21
1604.131077554685
 31
0.0
  0
LINE
  5
BA3E
330
1F
100
AcDbEntity
  8
AM_0
100
AcDbLine
 10
2213.864524237619
 20
1604.131077554685
 30
0.0
 11
2273.864524437619
 21
1604.131077554685
 31
0.0
  0
LINE
  5
BA3F
330
1F
100
AcDbEntity
  8
AM_0
100
AcDbLine
 10
2213.864524237619
 20
1604.131077554685
 30
0.0
 11
2213.864524237619
 21
1582.131077954685
 31
0.0
  0
LINE
  5
BA40
330
1F
100
AcDbEntity
  8
AM_0
100
AcDbLine
 10
2273.864524437619
 20
1604.131077554685
 30
0.0
 11
2273.864524437619
 21
1582.131077954685
 31
0.0
  0
LINE
  5
BA41
330
1F
100
AcDbEntity
  8
AM_0
100
AcDbLine
 10
2213.864524237619
 20
1582.131077954685
 30
0.0
 11
2273.864524437619
 21
1582.131077954685
 31
0.0
  0
LINE
  5
BA42
330
1F
100
AcDbEntity
  8
AM_11
100
AcDbLine
 10
2285.864532237619
 20
1727.131078554685
 30
0.0
 11
2303.864532237619
 21
1727.131078554685
 31
0.0
  0
LINE
  5
BA43
330
1F
100
AcDbEntity
  8
AM_11
100
AcDbLine
 10
2285.864532237619
 20
1702.131078554685
 30
0.0
 11
2303.864532237619
 21
1702.131078554685
 31
0.0
  0
LINE
  5
BA44
330
1F
100
AcDbEntity
  8
AM_11
100
AcDbLine
 10
2303.864524237619
 20
1727.131078554685
 30
0.0
 11
2303.864524237619
 21
1702.131078554685
 31
0.0
  0
LINE
  5
BA45
330
1F
100
AcDbEntity
  8
AM_0
100
AcDbLine
 10
2224.864524237619
 20
1617.131077554685
 30
0.0
 11
2224.864524237619
 21
1607.131077554685
 31
0.0
  0
LINE
  5
BA46
330
1F
100
AcDbEntity
  8
AM_0
100
AcDbLine
 10
2218.864524237619
 20
1617.131077554685
 30
0.0
 11
2218.864524237619
 21
1607.131077554685
 31
0.0
  0
LINE
  5
BA47
330
1F
100
AcDbEntity
  8
AM_0
100
AcDbLine
 10
2245.764518237619
 20
1617.131077554685
 30
0.0
 11
2245.764518237619
 21
1614.131077554685
 31
0.0
  0
LINE
  5
BA48
330
1F
100
AcDbEntity
  8
AM_0
100
AcDbLine
 10
2241.964530237619
 20
1617.131077554685
 30
0.0
 11
2241.964530237619
 21
1614.131077554685
 31
0.0
  0
LINE
  5
BA49
330
1F
100
AcDbEntity
  8
AM_0
100
AcDbLine
 10
2268.864524465119
 20
1617.131077554685
 30
0.0
 11
2268.864524465119
 21
1607.131077554685
 31
0.0
  0
LINE
  5
BA4A
330
1F
100
AcDbEntity
  8
AM_0
100
AcDbLine
 10
2208.864524237619
 20
1619.131077554685
 30
0.0
 11
2278.864532237619
 21
1619.131077554685
 31
0.0
  0
LINE
  5
BA4B
330
1F
100
AcDbEntity
  8
AM_0
100
AcDbLine
 10
2374.864531237619
 20
1531.464909554685
 30
0.0
 11
2374.864531237619
 21
1533.964909554685
 31
0.0
  0
LINE
  5
BA4C
330
1F
100
AcDbEntity
  8
AM_0
100
AcDbLine
 10
2380.864521237619
 20
1531.464909554685
 30
0.0
 11
2374.864521237619
 21
1531.464909554685
 31
0.0
  0
LINE
  5
BA4D
330
1F
100
AcDbEntity
  8
AM_0
100
AcDbLine
 10
2380.864541237619
 20
1531.464909554685
 30
0.0
 11
2380.864541237619
 21
1550.464909554685
 31
0.0
  0
LINE
  5
BA4E
330
1F
100
AcDbEntity
  8
AM_0
100
AcDbLine
 10
2380.864521237619
 20
1550.464909554685
 30
0.0
 11
2374.864521237619
 21
1550.464909554685
 31
0.0
  0
LINE
  5
BA4F
330
1F
100
AcDbEntity
  8
AM_0
100
AcDbLine
 10
2374.864531237619
 20
1547.964909554685
 30
0.0
 11
2374.864531237619
 21
1550.464909554685
 31
0.0
  0
LINE
  5
BA50
330
1F
100
AcDbEntity
  8
AM_0
100
AcDbLine
 10
2371.864521237619
 20
1547.964909554685
 30
0.0
 11
2371.864521237619
 21
1552.464909554685
 31
0.0
  0
LINE
  5
BA51
330
1F
100
AcDbEntity
  8
AM_0
100
AcDbLine
 10
2371.864521237619
 20
1535.964909554685
 30
0.0
 11
2371.864521237619
 21
1545.964909554685
 31
0.0
  0
LINE
  5
BA52
330
1F
100
AcDbEntity
  8
AM_0
100
AcDbLine
 10
2366.864524237619
 20
1545.964909554685
 30
0.0
 11
2366.864524237619
 21
1547.964909554685
 31
0.0
  0
LINE
  5
BA53
330
1F
100
AcDbEntity
  8
AM_0
100
AcDbLine
 10
2366.864524237619
 20
1533.964909554685
 30
0.0
 11
2366.864524237619
 21
1535.964909554685
 31
0.0
  0
LINE
  5
BA54
330
1F
100
AcDbEntity
  8
AM_0
100
AcDbLine
 10
2371.864521237619
 20
1545.964909554685
 30
0.0
 11
2366.864524237619
 21
1545.964909554685
 31
0.0
  0
LINE
  5
BA55
330
1F
100
AcDbEntity
  8
AM_0
100
AcDbLine
 10
2371.864521237619
 20
1535.964909554685
 30
0.0
 11
2366.864524237619
 21
1535.964909554685
 31
0.0
  0
LINE
  5
BA56
330
1F
100
AcDbEntity
  8
AM_0
100
AcDbLine
 10
2208.864524237619
 20
1624.131077554685
 30
0.0
 11
2208.864524237619
 21
1617.131077554685
 31
0.0
  0
LINE
  5
BA57
330
1F
100
AcDbEntity
  8
AM_0
100
AcDbLine
 10
2278.864524237619
 20
1624.131077554685
 30
0.0
 11
2278.864524237619
 21
1617.131077554685
 31
0.0
  0
LINE
  5
BA58
330
1F
100
AcDbEntity
  8
AM_0
100
AcDbLine
 10
2283.864524237619
 20
1636.131077554685
 30
0.0
 11
2283.864524237619
 21
1624.131077554685
 31
0.0
  0
LINE
  5
BA59
330
1F
100
AcDbEntity
  8
AM_0
100
AcDbLine
 10
2183.864524237619
 20
1636.131077554685
 30
0.0
 11
2183.864524237619
 21
1624.131077554685
 31
0.0
  0
LINE
  5
BA5A
330
1F
100
AcDbEntity
  8
AM_0
100
AcDbLine
 10
2382.864521237619
 20
1553.464909554685
 30
0.0
 11
2372.864521237619
 21
1553.464909554685
 31
0.0
  0
LINE
  5
BA5B
330
1F
100
AcDbEntity
  8
AM_0
100
AcDbLine
 10
2382.864521237619
 20
1528.464909554685
 30
0.0
 11
2372.864521237619
 21
1528.464909554685
 31
0.0
  0
LINE
  5
BA5C
330
1F
100
AcDbEntity
  8
AM_0
100
AcDbLine
 10
2374.864521237619
 20
1547.964909554685
 30
0.0
 11
2364.864524237619
 21
1547.964909554685
 31
0.0
  0
LINE
  5
BA5D
330
1F
100
AcDbEntity
  8
AM_0
100
AcDbLine
 10
2374.864521237619
 20
1533.964909554685
 30
0.0
 11
2364.864524237619
 21
1533.964909554685
 31
0.0
  0
LINE
  5
BA5E
330
1F
100
AcDbEntity
  8
AM_0
100
AcDbLine
 10
2371.864521237619
 20
1529.464909554685
 30
0.0
 11
2371.864521237619
 21
1533.964909554685
 31
0.0
  0
LINE
  5
BA5F
330
1F
100
AcDbEntity
  8
AM_0
100
AcDbLine
 10
2364.864524237619
 20
1533.964909554685
 30
0.0
 11
2364.864524237619
 21
1547.964909554685
 31
0.0
  0
LINE
  5
BA60
330
1F
100
AcDbEntity
  8
AM_0
100
AcDbLine
 10
2383.864541237619
 20
1529.464909554685
 30
0.0
 11
2383.864541237619
 21
1552.464909554685
 31
0.0
  0
LINE
  5
BA61
330
1F
100
AcDbEntity
  8
AM_0
100
AcDbLine
 10
2283.864524237619
 20
1727.131078554685
 30
0.0
 11
2283.864524237619
 21
1702.131078554685
 31
0.0
  0
LINE
  5
BA62
330
1F
100
AcDbEntity
  8
AM_0
100
AcDbLine
 10
2183.864524237619
 20
1727.131078554685
 30
0.0
 11
2183.864524237619
 21
1702.131078554685
 31
0.0
  0
LINE
  5
BA63
330
1F
100
AcDbEntity
  8
AM_0
100
AcDbLine
 10
2183.864524237619
 20
1727.131078554685
 30
0.0
 11
2283.864532237619
 21
1727.131078554685
 31
0.0
  0
LINE
  5
BA64
330
1F
100
AcDbEntity
  8
AM_0
100
AcDbLine
 10
2183.864524237619
 20
1702.131078554685
 30
0.0
 11
2283.864532237619
 21
1702.131078554685
 31
0.0
  0
LINE
  5
BA65
330
1F
100
AcDbEntity
  8
AM_0
100
AcDbLine
 10
2183.864524237619
 20
1636.131077554685
 30
0.0
 11
2283.864532237619
 21
1636.131077554685
 31
0.0
  0
LINE
  5
BA66
330
1F
100
AcDbEntity
  8
AM_0
100
AcDbLine
 10
2183.864524237619
 20
1624.131077554685
 30
0.0
 11
2283.864532237619
 21
1624.131077554685
 31
0.0
  0
LINE
  5
BA67
330
1F
100
AcDbEntity
  8
AM_0
100
AcDbLine
 10
2208.864524237619
 20
1617.131077554685
 30
0.0
 11
2278.864532237619
 21
1617.131077554685
 31
0.0
  0
LINE
  5
BA68
330
1F
100
AcDbEntity
  8
AM_0
100
AcDbLine
 10
2213.864524237619
 20
1513.464909554685
 30
0.0
 11
2273.864524437619
 21
1513.464909554685
 31
0.0
  0
LINE
  5
BA69
330
1F
100
AcDbEntity
  8
AM_0
100
AcDbLine
 10
2213.864524237619
 20
1553.464909554685
 30
0.0
 11
2273.864524437619
 21
1553.464909554685
 31
0.0
  0
LINE
  5
BA6A
330
1F
100
AcDbEntity
  8
AM_0
100
AcDbLine
 10
2273.864524437619
 20
1553.464909554685
 30
0.0
 11
2273.864524437619
 21
1513.464909554685
 31
0.0
  0
LINE
  5
BA6B
330
1F
100
AcDbEntity
  8
AM_0
100
AcDbLine
 10
2213.864524237619
 20
1553.464909554685
 30
0.0
 11
2213.864524237619
 21
1513.464909554685
 31
0.0
  0
LINE
  5
BA6C
330
1F
100
AcDbEntity
  8
AM_0
100
AcDbLine
 10
2329.864524237619
 20
1552.464909554685
 30
0.0
 11
2329.864524237619
 21
1514.964909554685
 31
0.0
  0
LINE
  5
BA6D
330
1F
100
AcDbEntity
  8
AM_0
100
AcDbLine
 10
2332.864524237619
 20
1550.464909554685
 30
0.0
 11
2332.864524237619
 21
1531.464909554685
 31
0.0
  0
LINE
  5
BA6E
330
1F
100
AcDbEntity
  8
AM_0
100
AcDbLine
 10
2351.864524237619
 20
1553.464909554685
 30
0.0
 11
2351.864524237619
 21
1528.464909554685
 31
0.0
  0
LINE
  5
BA6F
330
1F
100
AcDbEntity
  8
AM_0
100
AcDbLine
 10
2341.864524237619
 20
1553.464909554685
 30
0.0
 11
2341.864524237619
 21
1528.464909554685
 31
0.0
  0
LINE
  5
BA70
330
1F
100
AcDbEntity
  8
AM_0
100
AcDbLine
 10
2332.864524237619
 20
1528.464909554685
 30
0.0
 11
2351.864524237619
 21
1528.464909554685
 31
0.0
  0
LINE
  5
BA71
330
1F
100
AcDbEntity
  8
AM_0
100
AcDbLine
 10
2330.864524237619
 20
1553.464909554685
 30
0.0
 11
2351.864524237619
 21
1553.464909554685
 31
0.0
  0
LINE
  5
BA72
330
1F
100
AcDbEntity
  8
AM_0
100
AcDbLine
 10
2338.864524237619
 20
1550.464909554685
 30
0.0
 11
2338.864524237619
 21
1547.964909554685
 31
0.0
  0
LINE
  5
BA73
330
1F
100
AcDbEntity
  8
AM_0
100
AcDbLine
 10
2332.864524237619
 20
1550.464909554685
 30
0.0
 11
2338.864524237619
 21
1550.464909554685
 31
0.0
  0
LINE
  5
BA74
330
1F
100
AcDbEntity
  8
AM_0
100
AcDbLine
 10
2332.864524237619
 20
1531.464909554685
 30
0.0
 11
2338.864524237619
 21
1531.464909554685
 31
0.0
  0
LINE
  5
BA75
330
1F
100
AcDbEntity
  8
AM_0
100
AcDbLine
 10
2338.864524237619
 20
1533.964909554685
 30
0.0
 11
2338.864524237619
 21
1531.464909554685
 31
0.0
  0
LINE
  5
BA76
330
1F
100
AcDbEntity
  8
AM_0
100
AcDbLine
 10
2338.864524237619
 20
1533.964909554685
 30
0.0
 11
2341.864524237619
 21
1533.964909554685
 31
0.0
  0
LINE
  5
BA77
330
1F
100
AcDbEntity
  8
AM_0
100
AcDbLine
 10
2338.864524237619
 20
1547.964909554685
 30
0.0
 11
2341.864524237619
 21
1547.964909554685
 31
0.0
  0
LINE
  5
BA78
330
1F
100
AcDbEntity
  8
AM_0
100
AcDbLine
 10
2332.864524237619
 20
1528.464909554685
 30
0.0
 11
2332.864524237619
 21
1514.964909554685
 31
0.0
  0
LINE
  5
BA79
330
1F
100
AcDbEntity
  8
AM_0
100
AcDbLine
 10
2218.864524237619
 20
1607.131077554685
 30
0.0
 11
2224.864524237619
 21
1607.131077554685
 31
0.0
  0
LINE
  5
BA7A
330
1F
100
AcDbEntity
  8
AM_0
100
AcDbLine
 10
2262.864524437619
 20
1607.131077554685
 30
0.0
 11
2268.864524465119
 21
1607.131077554685
 31
0.0
  0
LINE
  5
BA7B
330
1F
100
AcDbEntity
  8
AM_0
100
AcDbLine
 10
2240.614524237619
 20
1614.131077554685
 30
0.0
 11
2247.114524237619
 21
1614.131077554685
 31
0.0
  0
ARC
  5
BA7C
330
1F
100
AcDbEntity
  8
AM_0
100
AcDbCircle
 10
2382.864541237619
 20
1529.464909554685
 30
0.0
 40
1.0
100
AcDbArc
 50
270.0
 51
0.0
  0
ARC
  5
BA7D
330
1F
100
AcDbEntity
  8
AM_0
100
AcDbCircle
 10
2372.864521237619
 20
1529.464909554685
 30
0.0
 40
1.0
100
AcDbArc
 50
180.0
 51
270.0
  0
ARC
  5
BA7E
330
1F
100
AcDbEntity
  8
AM_0
100
AcDbCircle
 10
2372.864521237619
 20
1552.464909554685
 30
0.0
 40
1.0
100
AcDbArc
 50
90.0
 51
180.0
  0
ARC
  5
BA7F
330
1F
100
AcDbEntity
  8
AM_0
100
AcDbCircle
 10
2382.864541237619
 20
1552.464909554685
 30
0.0
 40
1.0
100
AcDbArc
 50
0.0
 51
90.0
  0
CIRCLE
  5
BA80
330
1F
100
AcDbEntity
  8
AM_0
100
AcDbCircle
 10
2243.864524237619
 20
1546.964909554685
 30
0.0
 40
2.75
  0
CIRCLE
  5
BA81
330
1F
100
AcDbEntity
  8
AM_0
100
AcDbCircle
 10
2243.864524237619
 20
1540.964909554685
 30
0.0
 40
2.0
  0
ARC
  5
BA82
330
1F
100
AcDbEntity
  8
AM_2
100
AcDbCircle
 10
2243.864524237619
 20
1546.964909554685
 30
0.0
 40
5.0
100
AcDbArc
 50
288.1948723387737
 51
251.8050899999928
  0
ARC
  5
BA83
330
1F
100
AcDbEntity
  8
AM_0
100
AcDbCircle
 10
2330.864524237619
 20
1552.464909554685
 30
0.0
 40
1.0
100
AcDbArc
 50
90.0
 51
180.0
  0
ARC
  5
BA84
330
1F
100
AcDbEntity
  8
AM_0
100
AcDbCircle
 10
2331.364524237619
 20
1514.964909554685
 30
0.0
 40
1.5
100
AcDbArc
 50
180.0
 51
0.0
  0
CIRCLE
  5
BA85
330
1F
100
AcDbEntity
  8
AM_0
100
AcDbCircle
 10
2129.76829343902
 20
1540.964909554685
 30
0.0
 40
4.0
  0
CIRCLE
  5
BA86
330
1F
100
AcDbEntity
  8
AM_0
100
AcDbCircle
 10
2151.76829043902
 20
1540.964909554685
 30
0.0
 40
4.0
  0
CIRCLE
  5
BA87
330
1F
100
AcDbEntity
  8
AM_0
100
AcDbCircle
 10
2173.76829043902
 20
1540.964909554685
 30
0.0
 40
4.0
  0
LINE
  5
BA88
330
1F
100
AcDbEntity
  8
AM_7
100
AcDbLine
 10
2180.864524237619
 20
1715.418797390688
 30
0.0
 11
2306.864524237619
 21
1715.418797390688
 31
0.0
1001
GENIUS_GENOBJ-N-CEN_13
1002
{
1000
OWNER
1000
GEN
1002
}
1001
GENIUS_GENODEF_13
1002
{
1000
HIER
1070
     0
1002
}
1002
{
1000
MANEDIT
1070
     0
1002
}
1002
{
1000
NOSEL
1070
     0
1002
}
1002
{
1000
BEHIND
1070
     0
1002
}
1002
{
1000
OTHER
1070
     0
1002
}
1002
{
1000
REACTOR
1002
}
1001
GENIUS_GENCEN_19
1002
{
1040
3.0
1002
}
  0
DIMENSION
  5
BA89
330
1F
100
AcDbEntity
  8
AM_5
100
AcDbDimension
  2
*D7
 10
2283.864532237619
 20
1677.05844650776
 30
0.0
 11
2233.864535737619
 21
1680.158446507759
 31
0.0
 70
    32
 71
     5
 42
99.99999300000036
  3
SYS$0
100
AcDbAlignedDimension
 13
2183.864539237618
 23
1702.131079554685
 33
0.0
 14
2283.864532237619
 24
1702.131079554685
 34
0.0
100
AcDbRotatedDimension
  0
DIMENSION
  5
BA8A
330
1F
100
AcDbEntity
  8
AM_5
100
AcDbDimension
  2
*D8
 10
2283.864532237619
 20
1677.05844650776
 30
0.0
 11
2314.908528237619
 21
1677.05844650776
 31
0.0
 70
   160
  1
ストローク<>
 71
     5
 42
19.99999600000001
  3
SYS$0
100
AcDbAlignedDimension
 13
2303.864528237619
 23
1702.131079554685
 33
0.0
 14
2283.864532237619
 24
1702.131079554685
 34
0.0
100
AcDbRotatedDimension
  0
DIMENSION
  5
BA8B
330
1F
100
AcDbEntity
  8
AM_5
100
AcDbDimension
  2
*D9
 10
2172.864246829741
 20
1702.131079554685
 30
0.0
 11
2169.76424682974
 21
1714.631078554685
 31
0.0
 70
    32
 71
     5
 42
24.99999800000001
  3
SYS$0
100
AcDbAlignedDimension
 13
2183.864520237619
 23
1727.131077554685
 33
0.0
 14
2183.864520237619
 24
1702.131079554685
 34
0.0
 50
90.0
100
AcDbRotatedDimension
  0
DIMENSION
  5
BA8C
330
1F
100
AcDbEntity
  8
AM_5
100
AcDbDimension
  2
*D10
 10
2283.864524237619
 20
1656.131077754684
 30
0.0
 11
2288.476524237619
 21
1659.231077754685
 31
0.0
 70
    32
  1
（<>）
 71
     5
 42
5.0
  3
SYS$0
100
AcDbAlignedDimension
 13
2278.864524237619
 23
1624.131077554685
 33
0.0
 14
2283.864524237619
 24
1636.131077754685
 34
0.0
100
AcDbRotatedDimension
  0
DIMENSION
  5
BA8D
330
1F
100
AcDbEntity
  8
AM_5
100
AcDbDimension
  2
*D11
 10
2208.864528237619
 20
1656.131077754686
 30
0.0
 11
2243.864526237619
 21
1659.231077754686
 31
0.0
 70
    32
 71
     5
 42
69.99999600000001
  3
SYS$0
100
AcDbAlignedDimension
 13
2278.864524237619
 23
1624.131077554685
 33
0.0
 14
2208.864528237619
 24
1624.131077554685
 34
0.0
100
AcDbRotatedDimension
  0
LINE
  5
BA8E
330
1F
100
AcDbEntity
  8
AM_7
100
AcDbLine
 10
2243.864524337619
 20
1556.464909554685
 30
0.0
 11
2243.864524337619
 21
1510.464909554685
 31
0.0
1001
GENIUS_GENOBJ-N-CEN_13
1002
{
1000
OWNER
1000
GEN
1002
}
1001
GENIUS_GENODEF_13
1002
{
1000
HIER
1070
     0
1002
}
1002
{
1000
MANEDIT
1070
     0
1002
}
1002
{
1000
NOSEL
1070
     0
1002
}
1002
{
1000
BEHIND
1070
     0
1002
}
1002
{
1000
OTHER
1070
     0
1002
}
1002
{
1000
REACTOR
1002
}
1001
GENIUS_GENCEN_19
1002
{
1040
3.0
1002
}
  0
LINE
  5
BA8F
330
1F
100
AcDbEntity
  8
AM_7
100
AcDbLine
 10
2210.864524237619
 20
1540.964909554685
 30
0.0
 11
2276.864524437619
 21
1540.964909554685
 31
0.0
1001
GENIUS_GENODEF_13
1002
{
1000
HIER
1070
     0
1002
}
1002
{
1000
MANEDIT
1070
     0
1002
}
1002
{
1000
NOSEL
1070
     0
1002
}
1002
{
1000
BEHIND
1070
     0
1002
}
1002
{
1000
OTHER
1070
     0
1002
}
1002
{
1000
REACTOR
1002
}
1001
GENIUS_GENOBJ-N-CEN_13
1002
{
1000
OWNER
1000
GEN
1002
}
1001
GENIUS_GENCEN_19
1002
{
1040
3.0
1002
}
  0
DIMENSION
  5
BA90
330
1F
100
AcDbEntity
  8
AM_5
100
AcDbDimension
  2
*D12
 10
2201.864524937619
 20
1513.464909554685
 30
0.0
 11
2198.764524937619
 21
1533.464911554685
 31
0.0
 70
    32
 71
     5
 42
40.00000399999999
  3
SYS$0
100
AcDbAlignedDimension
 13
2213.864524437619
 23
1553.464913554685
 33
0.0
 14
2213.864524437619
 24
1513.464909554685
 34
0.0
 50
90.0
100
AcDbRotatedDimension
  0
DIMENSION
  5
BA91
330
1F
100
AcDbEntity
  8
AM_5
100
AcDbDimension
  2
*D13
 10
2273.864524437619
 20
1498.403912736708
 30
0.0
 11
2243.864524337619
 21
1501.503912736708
 31
0.0
 70
    32
 71
     5
 42
60.0000001999997
  3
SYS$0
100
AcDbAlignedDimension
 13
2213.864524237619
 23
1513.464909554685
 33
0.0
 14
2273.864524437619
 24
1513.464909554685
 34
0.0
100
AcDbRotatedDimension
  0
DIMENSION
  5
BA93
330
1F
100
AcDbEntity
  8
AM_5
100
AcDbDimension
  2
*D15
 10
2332.864524237619
 20
1498.403912736712
 30
0.0
 11
2342.364524237619
 21
1501.503912736712
 31
0.0
 70
    32
 71
     5
 42
19.0
  3
SYS$0
100
AcDbAlignedDimension
 13
2351.864524237619
 23
1528.464913554685
 33
0.0
 14
2332.864524237619
 24
1514.964909554685
 34
0.0
100
AcDbRotatedDimension
  0
LINE
  5
BA9C
330
1F
100
AcDbEntity
  8
AM_7
100
AcDbLine
 10
2243.864524337619
 20
1579.131077954685
 30
0.0
 11
2243.864524337619
 21
1639.131077554685
 31
0.0
1001
GENIUS_GENODEF_13
1002
{
1000
HIER
1070
     0
1002
}
1002
{
1000
MANEDIT
1070
     0
1002
}
1002
{
1000
NOSEL
1070
     0
1002
}
1002
{
1000
BEHIND
1070
     0
1002
}
1002
{
1000
OTHER
1070
     0
1002
}
1002
{
1000
REACTOR
1002
}
1001
GENIUS_GENOBJ-N-CEN_13
1002
{
1000
OWNER
1000
GEN
1002
}
1001
GENIUS_GENCEN_19
1002
{
1040
3.0
1002
}
  0
LINE
  5
BA9D
330
1F
100
AcDbEntity
  8
AM_7
  6
AM_ISO08W050x2
100
AcDbLine
 10
2221.864532737618
 20
1634.131076854685
 30
0.0
 11
2221.864533237619
 21
1599.131077554685
 31
0.0
1001
GENIUS_GENODEF_13
1002
{
1000
HIER
1070
     0
1002
}
1002
{
1000
MANEDIT
1070
     0
1002
}
1002
{
1000
NOSEL
1070
     0
1002
}
1002
{
1000
BEHIND
1070
     0
1002
}
1002
{
1000
OTHER
1070
     0
1002
}
1002
{
1000
REACTOR
1002
}
1001
GENIUS_GENOBJ-N-CEN_13
1002
{
1000
OWNER
1000
GEN
1002
}
1001
GENIUS_GENCEN_19
1002
{
1040
3.0
1002
}
  0
LINE
  5
BA9E
330
1F
100
AcDbEntity
  8
AM_7
  6
AM_ISO08W050x2
100
AcDbLine
 10
2265.864532737619
 20
1634.131076854685
 30
0.0
 11
2265.864532037619
 21
1599.131077554685
 31
0.0
1001
GENIUS_GENODEF_13
1002
{
1000
HIER
1070
     0
1002
}
1002
{
1000
MANEDIT
1070
     0
1002
}
1002
{
1000
NOSEL
1070
     0
1002
}
1002
{
1000
BEHIND
1070
     0
1002
}
1002
{
1000
OTHER
1070
     0
1002
}
1002
{
1000
REACTOR
1002
}
1001
GENIUS_GENOBJ-N-CEN_13
1002
{
1000
OWNER
1000
GEN
1002
}
1001
GENIUS_GENCEN_19
1002
{
1040
3.0
1002
}
  0
DIMENSION
  5
BA9F
330
1F
100
AcDbEntity
  8
AM_5
100
AcDbDimension
  2
*D16
 10
2265.864532737619
 20
1646.131024119501
 30
0.0
 11
2243.864532737619
 21
1649.231024119501
 31
0.0
 70
    32
 71
     5
 42
44.0
  3
SYS$0
100
AcDbAlignedDimension
 13
2221.864532737618
 23
1634.131075346113
 33
0.0
 14
2265.864532737619
 24
1634.131074466113
 34
0.0
 50
359.9999988540835
100
AcDbRotatedDimension
  0
LINE
  5
BAA0
330
1F
100
AcDbEntity
  8
AM_7
100
AcDbLine
 10
2386.864541237619
 20
1540.964909554685
 30
0.0
 11
2326.864524237619
 21
1540.964909554685
 31
0.0
1001
GENIUS_GENODEF_13
1002
{
1000
HIER
1070
     0
1002
}
1002
{
1000
MANEDIT
1070
     0
1002
}
1002
{
1000
NOSEL
1070
     0
1002
}
1002
{
1000
BEHIND
1070
     0
1002
}
1002
{
1000
OTHER
1070
     0
1002
}
1002
{
1000
REACTOR
1002
}
1001
GENIUS_GENOBJ-N-CEN_13
1002
{
1000
OWNER
1000
GEN
1002
}
1001
GENIUS_GENCEN_19
1002
{
1040
3.0
1002
}
  0
LINE
  5
BAA1
330
1F
100
AcDbEntity
  8
AM_0
100
AcDbLine
 10
2364.864524237619
 20
1543.964917514685
 30
0.0
 11
2354.864524237619
 21
1543.964917514685
 31
0.0
  0
LINE
  5
BAA2
330
1F
100
AcDbEntity
  8
AM_0
100
AcDbLine
 10
2364.864524237619
 20
1537.964917487185
 30
0.0
 11
2354.864524237619
 21
1537.964917487185
 31
0.0
  0
LINE
  5
BAA3
330
1F
100
AcDbEntity
  8
AM_0
100
AcDbLine
 10
2354.864524237619
 20
1543.964917514685
 30
0.0
 11
2354.864524237619
 21
1537.964917487185
 31
0.0
  0
DIMENSION
  5
BAA8
330
1F
100
AcDbEntity
  8
AM_5
100
AcDbDimension
  2
*D17
 10
2329.864524237619
 20
1574.459420341408
 30
0.0
 11
2340.864524237619
 21
1577.559420341408
 31
0.0
 70
    32
 71
     5
 42
22.0
  3
SYS$0
100
AcDbAlignedDimension
 13
2351.864524237619
 23
1553.464909554685
 33
0.0
 14
2329.864524237619
 24
1552.464909554685
 34
0.0
100
AcDbRotatedDimension
  0
DIMENSION
  5
BAA9
330
1F
100
AcDbEntity
  8
AM_5
100
AcDbDimension
  2
*D18
 10
2371.864524237619
 20
1564.464909554685
 30
0.0
 11
2377.864534237619
 21
1567.564909554685
 31
0.0
 70
    32
 71
     5
 42
12.00001999999995
  3
SYS$0
100
AcDbAlignedDimension
 13
2383.864544237619
 23
1552.464909554685
 33
0.0
 14
2371.864524237619
 24
1552.464909554685
 34
0.0
100
AcDbRotatedDimension
  0
DIMENSION
  5
BAAA
330
1F
100
AcDbEntity
  8
AM_5
100
AcDbDimension
  2
*D19
 10
2364.864524237619
 20
1574.464909554683
 30
0.0
 11
2374.364534237619
 21
1577.564909554683
 31
0.0
 70
    32
 71
     5
 42
19.00001999999995
  3
SYS$0
100
AcDbAlignedDimension
 13
2383.864544237619
 23
1552.464909554685
 33
0.0
 14
2364.864524237619
 24
1547.964909554685
 34
0.0
100
AcDbRotatedDimension
  0
DIMENSION
  5
BAAB
330
1F
100
AcDbEntity
  8
AM_5
100
AcDbDimension
  2
*D20
 10
2354.864524237619
 20
1574.464909554681
 30
0.0
 11
2359.864524237619
 21
1577.564909554681
 31
0.0
 70
    32
 71
     5
 42
10.0
  3
SYS$0
100
AcDbAlignedDimension
 13
2364.864524237619
 23
1547.964909554685
 33
0.0
 14
2354.864524237619
 24
1543.964917514685
 34
0.0
100
AcDbRotatedDimension
  0
LINE
  5
BAAC
330
1F
100
AcDbEntity
  8
AM_7
100
AcDbLine
 10
2122.768293439019
 20
1540.964909554685
 30
0.0
 11
2180.76829043902
 21
1540.964909554685
 31
0.0
1001
GENIUS_GENOBJ-N-CEN_13
1002
{
1000
OWNER
1000
GEN
1002
}
1001
GENIUS_GENODEF_13
1002
{
1000
HIER
1070
     0
1002
}
1002
{
1000
MANEDIT
1070
     0
1002
}
1002
{
1000
NOSEL
1070
     0
1002
}
1002
{
1000
BEHIND
1070
     0
1002
}
1002
{
1000
OTHER
1070
     0
1002
}
1002
{
1000
REACTOR
1002
}
1001
GENIUS_GENCEN_19
1002
{
1040
3.0
1002
}
  0
LINE
  5
BAAD
330
1F
100
AcDbEntity
  8
AM_7
  6
AM_ISO08W050x2
100
AcDbLine
 10
2129.76829343902
 20
1547.964909554685
 30
0.0
 11
2129.76829343902
 21
1533.964909554685
 31
0.0
1001
GENIUS_GENOBJ-N-CEN_13
1002
{
1000
OWNER
1000
GEN
1002
}
1001
GENIUS_GENODEF_13
1002
{
1000
HIER
1070
     0
1002
}
1002
{
1000
MANEDIT
1070
     0
1002
}
1002
{
1000
NOSEL
1070
     0
1002
}
1002
{
1000
BEHIND
1070
     0
1002
}
1002
{
1000
OTHER
1070
     0
1002
}
1002
{
1000
REACTOR
1002
}
1001
GENIUS_GENCEN_19
1002
{
1040
3.0
1002
}
  0
LINE
  5
BAAE
330
1F
100
AcDbEntity
  8
AM_7
  6
AM_ISO08W050x2
100
AcDbLine
 10
2151.76829043902
 20
1547.964909554685
 30
0.0
 11
2151.76829043902
 21
1533.964909554685
 31
0.0
1001
GENIUS_GENOBJ-N-CEN_13
1002
{
1000
OWNER
1000
GEN
1002
}
1001
GENIUS_GENODEF_13
1002
{
1000
HIER
1070
     0
1002
}
1002
{
1000
MANEDIT
1070
     0
1002
}
1002
{
1000
NOSEL
1070
     0
1002
}
1002
{
1000
BEHIND
1070
     0
1002
}
1002
{
1000
OTHER
1070
     0
1002
}
1002
{
1000
REACTOR
1002
}
1001
GENIUS_GENCEN_19
1002
{
1040
3.0
1002
}
  0
LINE
  5
BAAF
330
1F
100
AcDbEntity
  8
AM_7
  6
AM_ISO08W050x2
100
AcDbLine
 10
2173.76829043902
 20
1547.964909554685
 30
0.0
 11
2173.76829043902
 21
1533.964909554685
 31
0.0
1001
GENIUS_GENOBJ-N-CEN_13
1002
{
1000
OWNER
1000
GEN
1002
}
1001
GENIUS_GENODEF_13
1002
{
1000
HIER
1070
     0
1002
}
1002
{
1000
MANEDIT
1070
     0
1002
}
1002
{
1000
NOSEL
1070
     0
1002
}
1002
{
1000
BEHIND
1070
     0
1002
}
1002
{
1000
OTHER
1070
     0
1002
}
1002
{
1000
REACTOR
1002
}
1001
GENIUS_GENCEN_19
1002
{
1040
3.0
1002
}
  0
INSERT
  5
BAB0
330
1F
100
AcDbEntity
  8
AM_6
100
AcDbBlockReference
  2
*U6
 10
2019.120942820245
 20
1474.869682441196
 30
0.0
  0
DIMENSION
  5
BAB1
330
1F
100
AcDbEntity
  8
AM_5
100
AcDbDimension
  2
*D21
 10
2173.76828993902
 20
1524.964908544684
 30
0.0
 11
2151.76828943902
 21
1528.064908544684
 31
0.0
 70
    32
 71
     5
 42
44.00000099999988
  3
SYS$0
100
AcDbAlignedDimension
 13
2129.76828893902
 23
1533.964909554685
 33
0.0
 14
2173.76828993902
 24
1533.964909554685
 34
0.0
100
AcDbRotatedDimension
  0
DIMENSION
  5
BAB2
330
1F
100
AcDbEntity
  8
AM_5
100
AcDbDimension
  2
*D22
 10
2132.00994811622
 20
1537.652058168313
 30
0.0
 11
2116.731005462305
 21
1551.204933243408
 31
0.0
 70
   163
  1
3-<>
 71
     5
 42
7.999999999999772
  3
SYS$3
100
AcDbDiametricDimension
 15
2127.526638761823
 25
1544.277760941058
 35
0.0
 40
0.0
1001
ACAD
1000
DSTYLE
1002
{
1070
   172
1070
     1
1070
   289
1070
     2
1070
   342
1005
B519
1002
}
  0
HATCH
  5
BAB3
330
1F
100
AcDbEntity
  8
AM_8
100
AcDbHatch
 10
0.0
 20
0.0
 30
0.0
210
0.0
220
0.0
230
1.0
  2
_U
 70
     0
 71
     0
 91
        1
 92
        1
 93
        2
 72
     2
 10
2129.76829343902
 20
1540.964909554684
 40
4.000000000000109
 50
191.4591559026117
 51
407.8917624723476
 73
     1
 72
     2
 10
2129.76829343902
 20
1540.964909554684
 40
4.000000000000149
 50
47.89176247234753
 51
191.4591559026117
 73
     1
 97
        0
 75
     0
 76
     0
 52
45.0
 41
1.5
 77
     0
 78
     1
 53
45.0
 43
-1365.584404932401
 44
255.1965213266408
 45
-1.060660171779821
 46
1.060660171779821
 79
     0
 98
        1
 10
-1365.584404932401
 20
255.1965213266408
1001
GENIUS_GENODEF_13
1002
{
1000
HIER
1070
     0
1002
}
1002
{
1000
MANEDIT
1070
     0
1002
}
1002
{
1000
NOSEL
1070
     0
1002
}
1002
{
1000
BEHIND
1070
     0
1002
}
1002
{
1000
OTHER
1070
     0
1002
}
1002
{
1000
REACTOR
1002
}
1001
GENIUS_GENOBJ-N-HTC_13
1002
{
1000
OWNER
1000
GEN
1002
}
1001
GENIUS_GENHATCH_13
1002
{
1000
DATA
1040
45.0
1042
2.5
1000
_U
1070
     0
1011
2131.108223014555
1021
1542.447410465865
1031
0.0
1002
}
1002
{
1000
UCS
1010
0.0
1020
0.0
1030
0.0
1010
1.0
1020
0.0
1030
0.0
1010
0.0
1020
1.0
1030
0.0
1002
}
  0
HATCH
  5
BAB4
330
1F
100
AcDbEntity
  8
AM_8
100
AcDbHatch
 10
0.0
 20
0.0
 30
0.0
210
0.0
220
0.0
230
1.0
  2
_U
 70
     0
 71
     0
 91
        1
 92
        1
 93
        2
 72
     2
 10
2151.76829043902
 20
1540.964909554684
 40
4.000000000000109
 50
191.4591559026117
 51
433.3321476311978
 73
     1
 72
     2
 10
2151.76829043902
 20
1540.964909554684
 40
4.000000000000356
 50
73.33214763119797
 51
191.4591559026117
 73
     1
 97
        0
 75
     0
 76
     0
 52
45.0
 41
1.5
 77
     0
 78
     1
 53
45.0
 43
-1365.584404932401
 44
255.1965213266408
 45
-1.060660171779821
 46
1.060660171779821
 79
     0
 98
        1
 10
-1365.584404932401
 20
255.1965213266408
1001
GENIUS_GENODEF_13
1002
{
1000
HIER
1070
     0
1002
}
1002
{
1000
MANEDIT
1070
     0
1002
}
1002
{
1000
NOSEL
1070
     0
1002
}
1002
{
1000
BEHIND
1070
     0
1002
}
1002
{
1000
OTHER
1070
     0
1002
}
1002
{
1000
REACTOR
1002
}
1001
GENIUS_GENOBJ-N-HTC_13
1002
{
1000
OWNER
1000
GEN
1002
}
1001
GENIUS_GENHATCH_13
1002
{
1000
DATA
1040
45.0
1042
2.5
1000
_U
1070
     0
1011
2152.350332339446
1021
1542.908918471512
1031
0.0
1002
}
1002
{
1000
UCS
1010
0.0
1020
0.0
1030
0.0
1010
1.0
1020
0.0
1030
0.0
1010
0.0
1020
1.0
1030
0.0
1002
}
  0
HATCH
  5
BAB5
330
1F
100
AcDbEntity
  8
AM_8
100
AcDbHatch
 10
0.0
 20
0.0
 30
0.0
210
0.0
220
0.0
230
1.0
  2
_U
 70
     0
 71
     0
 91
        1
 92
        1
 93
        2
 72
     2
 10
2173.76829043902
 20
1540.964909554685
 40
4.000000000000153
 50
191.4591559026148
 51
502.737823044786
 73
     1
 72
     2
 10
2173.76829043902
 20
1540.964909554685
 40
4.00000000000018
 50
142.737823044786
 51
191.4591559026148
 73
     1
 97
        0
 75
     0
 76
     0
 52
45.0
 41
1.6
 77
     0
 78
     1
 53
45.0
 43
-1365.584404932401
 44
255.1965213266408
 45
-1.131370849898476
 46
1.131370849898476
 79
     0
 98
        1
 10
-1365.584404932401
 20
255.1965213266408
1001
GENIUS_GENOBJ-N-HTC_13
1002
{
1000
OWNER
1000
GEN
1002
}
1001
GENIUS_GENODEF_13
1002
{
1000
HIER
1070
     0
1002
}
1002
{
1000
MANEDIT
1070
     0
1002
}
1002
{
1000
NOSEL
1070
     0
1002
}
1002
{
1000
BEHIND
1070
     0
1002
}
1002
{
1000
OTHER
1070
     0
1002
}
1002
{
1000
REACTOR
1002
}
1001
GENIUS_GENHATCH_13
1002
{
1000
DATA
1040
45.0
1042
2.5
1000
_U
1070
     0
1011
2172.668872649803
1021
1541.801295093571
1031
0.0
1002
}
1002
{
1000
UCS
1010
0.0
1020
0.0
1030
0.0
1010
1.0
1020
0.0
1030
0.0
1010
0.0
1020
1.0
1030
0.0
1002
}
  0
LINE
  5
BAB6
330
1F
100
AcDbEntity
  8
size
100
AcDbLine
 10
2021.900804538256
 20
1463.81721672135
 30
0.0
 11
2441.900804538257
 21
1463.81721672135
 31
0.0
1001
GENIUS_GENREC_14
1002
{
1000
PYDIR
1011
2021.900804538256
1021
1760.81721672135
1031
0.0
1002
}
1002
{
1000
PXDIR
1011
2441.900804538257
1021
1463.81721672135
1031
0.0
1002
}
1002
{
1000
PORI
1011
2021.900804538256
1021
1463.81721672135
1031
0.0
1002
}
1002
{
1000
PINS
1011
2231.900804538257
1021
1612.31721672135
1031
0.0
1002
}
1002
{
1000
HVAL
1000
297
1002
}
1002
{
1000
H
1070
     2
1002
}
1002
{
1000
WVAL
1000
420
1002
}
1002
{
1000
W
1070
     2
1002
}
1002
{
1000
C
1070
     4
1002
}
1001
GENIUS_GENOBJ-N-REC_13
1002
{
1000
OWNER
1000
GEN
1002
}
1001
GENIUS_GENODEF_13
1002
{
1000
HIER
1070
     0
1002
}
1002
{
1000
MANEDIT
1070
     0
1002
}
1002
{
1000
NOSEL
1070
     0
1002
}
1002
{
1000
BEHIND
1070
     0
1002
}
1002
{
1000
OTHER
1070
     0
1002
}
1002
{
1000
REACTOR
1002
}
  0
LINE
  5
BAB7
330
1F
100
AcDbEntity
  8
size
100
AcDbLine
 10
2441.900804538257
 20
1463.81721672135
 30
0.0
 11
2441.900804538257
 21
1760.81721672135
 31
0.0
1001
GENIUS_GENREC_14
1002
{
1000
PYDIR
1011
2021.900804538256
1021
1760.81721672135
1031
0.0
1002
}
1002
{
1000
PXDIR
1011
2441.900804538257
1021
1463.81721672135
1031
0.0
1002
}
1002
{
1000
PORI
1011
2021.900804538256
1021
1463.81721672135
1031
0.0
1002
}
1002
{
1000
PINS
1011
2231.900804538257
1021
1612.31721672135
1031
0.0
1002
}
1002
{
1000
HVAL
1000
297
1002
}
1002
{
1000
H
1070
     2
1002
}
1002
{
1000
WVAL
1000
420
1002
}
1002
{
1000
W
1070
     2
1002
}
1002
{
1000
C
1070
     4
1002
}
1001
GENIUS_GENOBJ-N-REC_13
1002
{
1000
OWNER
1000
GEN
1002
}
1001
GENIUS_GENODEF_13
1002
{
1000
HIER
1070
     0
1002
}
1002
{
1000
MANEDIT
1070
     0
1002
}
1002
{
1000
NOSEL
1070
     0
1002
}
1002
{
1000
BEHIND
1070
     0
1002
}
1002
{
1000
OTHER
1070
     0
1002
}
1002
{
1000
REACTOR
1002
}
  0
LINE
  5
BAB8
330
1F
100
AcDbEntity
  8
size
100
AcDbLine
 10
2441.900804538257
 20
1760.81721672135
 30
0.0
 11
2021.900804538256
 21
1760.81721672135
 31
0.0
1001
GENIUS_GENREC_14
1002
{
1000
PYDIR
1011
2021.900804538256
1021
1760.81721672135
1031
0.0
1002
}
1002
{
1000
PXDIR
1011
2441.900804538257
1021
1463.81721672135
1031
0.0
1002
}
1002
{
1000
PORI
1011
2021.900804538256
1021
1463.81721672135
1031
0.0
1002
}
1002
{
1000
PINS
1011
2231.900804538257
1021
1612.31721672135
1031
0.0
1002
}
1002
{
1000
HVAL
1000
297
1002
}
1002
{
1000
H
1070
     2
1002
}
1002
{
1000
WVAL
1000
420
1002
}
1002
{
1000
W
1070
     2
1002
}
1002
{
1000
C
1070
     4
1002
}
1001
GENIUS_GENOBJ-N-REC_13
1002
{
1000
OWNER
1000
GEN
1002
}
1001
GENIUS_GENODEF_13
1002
{
1000
HIER
1070
     0
1002
}
1002
{
1000
MANEDIT
1070
     0
1002
}
1002
{
1000
NOSEL
1070
     0
1002
}
1002
{
1000
BEHIND
1070
     0
1002
}
1002
{
1000
OTHER
1070
     0
1002
}
1002
{
1000
REACTOR
1002
}
  0
LINE
  5
BAB9
330
1F
100
AcDbEntity
  8
size
100
AcDbLine
 10
2021.900804538256
 20
1760.81721672135
 30
0.0
 11
2021.900804538256
 21
1463.81721672135
 31
0.0
1001
GENIUS_GENREC_14
1002
{
1000
PYDIR
1011
2021.900804538256
1021
1760.81721672135
1031
0.0
1002
}
1002
{
1000
PXDIR
1011
2441.900804538257
1021
1463.81721672135
1031
0.0
1002
}
1002
{
1000
PORI
1011
2021.900804538256
1021
1463.81721672135
1031
0.0
1002
}
1002
{
1000
PINS
1011
2231.900804538257
1021
1612.31721672135
1031
0.0
1002
}
1002
{
1000
HVAL
1000
297
1002
}
1002
{
1000
H
1070
     2
1002
}
1002
{
1000
WVAL
1000
420
1002
}
1002
{
1000
W
1070
     2
1002
}
1002
{
1000
C
1070
     4
1002
}
1001
GENIUS_GENOBJ-N-REC_13
1002
{
1000
OWNER
1000
GEN
1002
}
1001
GENIUS_GENODEF_13
1002
{
1000
HIER
1070
     0
1002
}
1002
{
1000
MANEDIT
1070
     0
1002
}
1002
{
1000
NOSEL
1070
     0
1002
}
1002
{
1000
BEHIND
1070
     0
1002
}
1002
{
1000
OTHER
1070
     0
1002
}
1002
{
1000
REACTOR
1002
}
  0
LINE
  5
BABA
330
1F
100
AcDbEntity
  8
waku
100
AcDbLine
 10
2430.400804538257
 20
1472.31721672135
 30
0.0
 11
2430.400804538257
 21
1752.31721672135
 31
0.0
1001
GENIUS_GENREC_14
1002
{
1000
PYDIR
1011
2021.900804538256
1021
1760.81721672135
1031
0.0
1002
}
1002
{
1000
PXDIR
1011
2441.900804538257
1021
1463.81721672135
1031
0.0
1002
}
1002
{
1000
PORI
1011
2021.900804538256
1021
1463.81721672135
1031
0.0
1002
}
1002
{
1000
PINS
1011
2231.900804538257
1021
1612.31721672135
1031
0.0
1002
}
1002
{
1000
HVAL
1000
297
1002
}
1002
{
1000
H
1070
     2
1002
}
1002
{
1000
WVAL
1000
420
1002
}
1002
{
1000
W
1070
     2
1002
}
1002
{
1000
C
1070
     4
1002
}
1001
GENIUS_GENOBJ-N-REC_13
1002
{
1000
OWNER
1000
GEN
1002
}
1001
GENIUS_GENODEF_13
1002
{
1000
HIER
1070
     0
1002
}
1002
{
1000
MANEDIT
1070
     0
1002
}
1002
{
1000
NOSEL
1070
     0
1002
}
1002
{
1000
BEHIND
1070
     0
1002
}
1002
{
1000
OTHER
1070
     0
1002
}
1002
{
1000
REACTOR
1002
}
  0
LINE
  5
BABB
330
1F
100
AcDbEntity
  8
waku
100
AcDbLine
 10
2033.400804538257
 20
1752.31721672135
 30
0.0
 11
2033.400804538257
 21
1472.31721672135
 31
0.0
1001
GENIUS_GENREC_14
1002
{
1000
PYDIR
1011
2021.900804538256
1021
1760.81721672135
1031
0.0
1002
}
1002
{
1000
PXDIR
1011
2441.900804538257
1021
1463.81721672135
1031
0.0
1002
}
1002
{
1000
PORI
1011
2021.900804538256
1021
1463.81721672135
1031
0.0
1002
}
1002
{
1000
PINS
1011
2231.900804538257
1021
1612.31721672135
1031
0.0
1002
}
1002
{
1000
HVAL
1000
297
1002
}
1002
{
1000
H
1070
     2
1002
}
1002
{
1000
WVAL
1000
420
1002
}
1002
{
1000
W
1070
     2
1002
}
1002
{
1000
C
1070
     4
1002
}
1001
GENIUS_GENOBJ-N-REC_13
1002
{
1000
OWNER
1000
GEN
1002
}
1001
GENIUS_GENODEF_13
1002
{
1000
HIER
1070
     0
1002
}
1002
{
1000
MANEDIT
1070
     0
1002
}
1002
{
1000
NOSEL
1070
     0
1002
}
1002
{
1000
BEHIND
1070
     0
1002
}
1002
{
1000
OTHER
1070
     0
1002
}
1002
{
1000
REACTOR
1002
}
  0
LINE
  5
BABC
330
1F
100
AcDbEntity
  8
waku
100
AcDbLine
 10
2430.400804538257
 20
1752.31721672135
 30
0.0
 11
2033.400804538257
 21
1752.31721672135
 31
0.0
1001
GENIUS_GENREC_14
1002
{
1000
PYDIR
1011
2021.900804538256
1021
1760.81721672135
1031
0.0
1002
}
1002
{
1000
PXDIR
1011
2441.900804538257
1021
1463.81721672135
1031
0.0
1002
}
1002
{
1000
PORI
1011
2021.900804538256
1021
1463.81721672135
1031
0.0
1002
}
1002
{
1000
PINS
1011
2231.900804538257
1021
1612.31721672135
1031
0.0
1002
}
1002
{
1000
HVAL
1000
297
1002
}
1002
{
1000
H
1070
     2
1002
}
1002
{
1000
WVAL
1000
420
1002
}
1002
{
1000
W
1070
     2
1002
}
1002
{
1000
C
1070
     4
1002
}
1001
GENIUS_GENOBJ-N-REC_13
1002
{
1000
OWNER
1000
GEN
1002
}
1001
GENIUS_GENODEF_13
1002
{
1000
HIER
1070
     0
1002
}
1002
{
1000
MANEDIT
1070
     0
1002
}
1002
{
1000
NOSEL
1070
     0
1002
}
1002
{
1000
BEHIND
1070
     0
1002
}
1002
{
1000
OTHER
1070
     0
1002
}
1002
{
1000
REACTOR
1002
}
  0
LINE
  5
BABD
330
1F
100
AcDbEntity
  8
waku
100
AcDbLine
 10
2033.400804538257
 20
1472.31721672135
 30
0.0
 11
2430.400804538257
 21
1472.31721672135
 31
0.0
  0
LINE
  5
BABE
330
1F
100
AcDbEntity
  8
AM_1
100
AcDbLine
 10
2033.400804538257
 20
1752.31721672135
 30
0.0
 11
2127.970316033676
 21
1752.31721672135
 31
0.0
  0
LINE
  5
BABF
330
1F
100
AcDbEntity
  8
AM_0
100
AcDbLine
 10
2033.400804538257
 20
1712.31721672135
 30
0.0
 11
2127.970316033676
 21
1712.31721672135
 31
0.0
  0
LINE
  5
BAC0
330
1F
100
AcDbEntity
  8
AM_0
100
AcDbLine
 10
2033.400804538257
 20
1720.31721672135
 30
0.0
 11
2127.970316033676
 21
1720.31721672135
 31
0.0
  0
LINE
  5
BAC1
330
1F
100
AcDbEntity
  8
AM_0
100
AcDbLine
 10
2033.400804538257
 20
1728.31721672135
 30
0.0
 11
2127.970316033676
 21
1728.31721672135
 31
0.0
  0
LINE
  5
BAC2
330
1F
100
AcDbEntity
  8
AM_0
100
AcDbLine
 10
2033.400804538257
 20
1736.31721672135
 30
0.0
 11
2127.970316033676
 21
1736.31721672135
 31
0.0
  0
LINE
  5
BAC3
330
1F
100
AcDbEntity
  8
AM_0
100
AcDbLine
 10
2033.400804538257
 20
1744.31721672135
 30
0.0
 11
2127.970316033676
 21
1744.31721672135
 31
0.0
  0
LINE
  5
BAC4
330
1F
100
AcDbEntity
  8
AM_1
100
AcDbLine
 10
2033.400804538257
 20
1752.31721672135
 30
0.0
 11
2033.400804538257
 21
1688.317216721347
 31
0.0
  0
LINE
  5
BAC5
330
1F
100
AcDbEntity
  8
AM_2
100
AcDbLine
 10
2056.400804538256
 20
1752.31721672135
 30
0.0
 11
2056.400804538256
 21
1688.317216721347
 31
0.0
  0
MTEXT
  5
BAC6
330
1F
100
AcDbEntity
  8
AM_6
100
AcDbMText
 10
2044.900804538257
 20
1724.31721672135
 30
0.0
 40
3.2
 41
23.0
 71
     5
 72
     5
  1
仕上げ
 73
     1
 44
1.0
  0
MTEXT
  5
BAC7
330
1F
100
AcDbEntity
  8
AM_6
100
AcDbMText
 10
2044.900804538257
 20
1732.31721672135
 30
0.0
 40
3.2
 41
23.0
 71
     5
 72
     5
  1
材質
 73
     1
 44
1.0
  0
MTEXT
  5
BAC8
330
1F
100
AcDbEntity
  8
AM_6
100
AcDbMText
 10
2044.900804538257
 20
1748.31721672135
 30
0.0
 40
3.2
 41
23.0
 71
     5
 72
     5
  1
品名
 73
     1
 44
1.0
  0
MTEXT
  5
BAC9
330
1F
100
AcDbEntity
  8
AM_6
100
AcDbMText
 10
2044.900804538257
 20
1740.31721672135
 30
0.0
 40
3.2
 41
23.0
 71
     5
 72
     5
  1
品番
 73
     1
 44
1.0
  0
MTEXT
  5
BACA
330
1F
100
AcDbEntity
  8
AM_6
100
AcDbMText
 10
2056.400804538256
 20
1724.31721672135
 30
0.0
 40
3.2
 41
90.0
 71
     4
 72
     5
  1
　ダルクロームメッキ
 73
     1
 44
1.0
  0
MTEXT
  5
BACB
330
1F
100
AcDbEntity
  8
AM_6
100
AcDbMText
 10
2056.400804538256
 20
1732.31721672135
 30
0.0
 40
3.2
 41
90.0
 71
     4
 72
     5
  1
　真鍮
 73
     1
 44
1.0
  0
MTEXT
  5
BACC
330
1F
100
AcDbEntity
  8
AM_6
100
AcDbMText
 10
2056.400804538256
 20
1740.31721672135
 30
0.0
 40
3.2
 41
90.0
 71
     4
 72
     5
  1
　LB-170TN
 73
     1
 44
1.0
  0
MTEXT
  5
BACD
330
1F
100
AcDbEntity
  8
AM_6
100
AcDbMText
 10
2056.400804538256
 20
1748.31721672135
 30
0.0
 40
3.2
 41
90.0
 71
     4
 72
     5
  1
　表示付スライドラッチ（非常解錠機能付）
 73
     1
 44
1.0
  0
MTEXT
  5
BACE
330
1F
100
AcDbEntity
  8
AM_6
100
AcDbMText
 10
2044.900804538257
 20
1716.31721672135
 30
0.0
 40
3.2
 41
23.0
 71
     5
 72
     5
  1
セットビス
 73
     1
 44
1.0
  0
MTEXT
  5
BACF
330
1F
100
AcDbEntity
  8
AM_6
100
AcDbMText
 10
2056.400804538256
 20
1716.31721672135
 30
0.0
 40
3.2
 41
90.0
 71
     4
 72
     5
  1
　M4×30　サラ小ネジ + SUS：2本　
 73
     1
 44
1.0
  0
MTEXT
  5
BAD0
330
1F
100
AcDbEntity
  8
AM_6
100
AcDbMText
 10
2044.900804538257
 20
1708.31721672135
 30
0.0
 40
3.2
 41
23.00000000000046
 71
     5
 72
     5
  1
セット部品
 73
     1
 44
1.0
1001
ACAD
1000
ACAD_MTEXT_DEFINED_HEIGHT_BEGIN
1070
    46
1040
24.00000000000007
1000
ACAD_MTEXT_DEFINED_HEIGHT_END
  0
LINE
  5
BAD1
330
1F
100
AcDbEntity
  8
AM_0
100
AcDbLine
 10
2033.400804538257
 20
1704.317216721349
 30
0.0
 11
2127.970316033676
 21
1704.317216721349
 31
0.0
  0
LINE
  5
BAD2
330
1F
100
AcDbEntity
  8
AM_1
100
AcDbLine
 10
2127.970316033676
 20
1752.31721672135
 30
0.0
 11
2127.970316033676
 21
1688.317216721347
 31
0.0
  0
CIRCLE
  5
BAD3
330
1F
100
AcDbEntity
  8
AM_6
100
AcDbCircle
 10
2089.643730601192
 20
1716.070353736635
 30
0.0
 40
2.0
  0
MTEXT
  5
BAD4
330
1F
100
AcDbEntity
  8
AM_6
100
AcDbMText
 10
2056.400804538256
 20
1708.317216721351
 30
0.0
 40
3.2
 41
90.0
 71
     4
 72
     5
  1
　非常解錠キー
 73
     1
 44
1.0
  0
LINE
  5
BAD5
330
1F
100
AcDbEntity
  8
AM_1
100
AcDbLine
 10
2033.400804538257
 20
1688.317216721347
 30
0.0
 11
2127.970316033676
 21
1688.317216721347
 31
0.0
  0
MTEXT
  5
BAD6
330
1F
100
AcDbEntity
  8
AM_6
100
AcDbMText
 10
2044.900804538257
 20
1700.317216721348
 30
0.0
 40
3.2
 41
23.00000000000046
 71
     5
 72
     5
  1
備考
 73
     1
 44
1.0
1001
ACAD
1000
ACAD_MTEXT_DEFINED_HEIGHT_BEGIN
1070
    46
1040
24.00000000000007
1000
ACAD_MTEXT_DEFINED_HEIGHT_END
  0
MTEXT
  5
BAD7
330
1F
100
AcDbEntity
  8
AM_6
100
AcDbMText
 10
2056.400804538256
 20
1700.317216721348
 30
0.0
 40
3.2
 41
90.0
 71
     4
 72
     5
  1
　適応パネル厚：13mm
 73
     1
 44
1.0
  0
LINE
  5
BAD8
330
1F
100
AcDbEntity
  8
AM_2
100
AcDbLine
 10
2056.400804538256
 20
1696.317216721349
 30
0.0
 11
2127.970316033675
 21
1696.317216721349
 31
0.0
  0
MTEXT
  5
BAD9
330
1F
100
AcDbEntity
  8
AM_6
100
AcDbMText
 10
2056.400804538256
 20
1692.317216721349
 30
0.0
 40
3.2
 41
90.0
 71
     4
 72
     5
  1
　　{\W0.6;上記以外のパネル厚も取付可能です。（ビス選定一覧表参照）}
 73
     1
 44
1.0
  0
LINE
  5
BADA
330
1F
100
AcDbEntity
  8
AM_1
100
AcDbLine
 10
2044.321006256751
 20
1672.616507224352
 30
0.0
 11
2083.383506256751
 21
1672.616507224352
 31
0.0
  0
LINE
  5
BADB
330
1F
100
AcDbEntity
  8
AM_1
100
AcDbLine
 10
2083.383506256751
 20
1672.616507224352
 30
0.0
 11
2083.383506256751
 21
1641.366507224353
 31
0.0
  0
LINE
  5
BADC
330
1F
100
AcDbEntity
  8
AM_1
100
AcDbLine
 10
2044.321006256751
 20
1672.616507224352
 30
0.0
 11
2044.321006256751
 21
1641.366507224353
 31
0.0
  0
LINE
  5
BADD
330
1F
100
AcDbEntity
  8
AM_2
100
AcDbLine
 10
2059.946006256751
 20
1666.366507224352
 30
0.0
 11
2059.946006256751
 21
1641.366507224353
 31
0.0
  0
MTEXT
  5
BADE
330
1F
100
AcDbEntity
  8
AM_6
100
AcDbMText
 10
2063.852256256751
 20
1669.491507224352
 30
0.0
 40
2.5
 41
39.06250000000018
 71
     5
 72
     5
  1
ビス選定一覧表
 73
     1
 44
1.0
1001
ACAD
1000
ACAD_MTEXT_DEFINED_HEIGHT_BEGIN
1070
    46
1040
7.999999999999955
1000
ACAD_MTEXT_DEFINED_HEIGHT_END
  0
MTEXT
  5
BADF
330
1F
100
AcDbEntity
  8
AM_6
100
AcDbMText
 10
2052.133506256751
 20
1663.554007224353
 30
0.0
 40
2.5
 41
31.25000000000018
 71
     5
 72
     5
  1
パネル厚
 73
     1
 44
1.0
  0
MTEXT
  5
BAE0
330
1F
100
AcDbEntity
  8
AM_6
100
AcDbMText
 10
2071.664756256751
 20
1663.554007224353
 30
0.0
 40
2.5
 41
46.87499999999982
 71
     5
 72
     5
  1
取付ビスL寸法
 73
     1
 44
1.0
  0
LINE
  5
BAE1
330
1F
100
AcDbEntity
  8
AM_2
100
AcDbLine
 10
2044.321006256751
 20
1666.366507224352
 30
0.0
 11
2083.383506256751
 21
1666.366507224352
 31
0.0
  0
LINE
  5
BAE2
330
1F
100
AcDbEntity
  8
AM_0
100
AcDbLine
 10
2044.321006256751
 20
1660.116507224352
 30
0.0
 11
2083.383506256751
 21
1660.116507224352
 31
0.0
  0
LINE
  5
BAE3
330
1F
100
AcDbEntity
  8
AM_2
100
AcDbLine
 10
2044.321006256751
 20
1653.866507224352
 30
0.0
 11
2083.383506256751
 21
1653.866507224352
 31
0.0
  0
LINE
  5
BAE4
330
1F
100
AcDbEntity
  8
AM_2
100
AcDbLine
 10
2044.321006256751
 20
1647.616507224352
 30
0.0
 11
2083.383506256751
 21
1647.616507224352
 31
0.0
  0
LINE
  5
BAE5
330
1F
100
AcDbEntity
  8
AM_1
100
AcDbLine
 10
2044.321006256751
 20
1641.366507224352
 30
0.0
 11
2083.383506256751
 21
1641.366507224352
 31
0.0
  0
MTEXT
  5
BAE6
330
1F
100
AcDbEntity
  8
AM_6
100
AcDbMText
 10
2052.133506256751
 20
1656.991507224352
 30
0.0
 40
2.5
 41
31.25000000000018
 71
     5
 72
     5
  1
13
 73
     1
 44
1.0
  0
MTEXT
  5
BAE7
330
1F
100
AcDbEntity
  8
AM_6
100
AcDbMText
 10
2052.133506256751
 20
1650.741507224352
 30
0.0
 40
2.5
 41
31.25000000000018
 71
     5
 72
     5
  1
16
 73
     1
 44
1.0
  0
MTEXT
  5
BAE8
330
1F
100
AcDbEntity
  8
AM_6
100
AcDbMText
 10
2052.133506256751
 20
1644.491507224352
 30
0.0
 40
2.5
 41
31.25000000000018
 71
     5
 72
     5
  1
20
 73
     1
 44
1.0
  0
MTEXT
  5
BAE9
330
1F
100
AcDbEntity
  8
AM_6
100
AcDbMText
 10
2071.664756256751
 20
1656.991507224352
 30
0.0
 40
2.5
 41
46.87500000000017
 71
     5
 72
     5
  1
30
 73
     1
 44
1.0
1001
ACAD
1000
ACAD_MTEXT_DEFINED_HEIGHT_BEGIN
1070
    46
1040
7.999999999999727
1000
ACAD_MTEXT_DEFINED_HEIGHT_END
  0
MTEXT
  5
BAEA
330
1F
100
AcDbEntity
  8
AM_6
100
AcDbMText
 10
2071.664756256751
 20
1650.741507224352
 30
0.0
 40
2.5
 41
46.87500000000017
 71
     5
 72
     5
  1
30
 73
     1
 44
1.0
1001
ACAD
1000
ACAD_MTEXT_DEFINED_HEIGHT_BEGIN
1070
    46
1040
7.999999999999728
1000
ACAD_MTEXT_DEFINED_HEIGHT_END
  0
MTEXT
  5
BAEB
330
1F
100
AcDbEntity
  8
AM_6
100
AcDbMText
 10
2071.664756256751
 20
1644.491507224352
 30
0.0
 40
2.5
 41
46.87500000000017
 71
     5
 72
     5
  1
35
 73
     1
 44
1.0
1001
ACAD
1000
ACAD_MTEXT_DEFINED_HEIGHT_BEGIN
1070
    46
1040
7.999999999999955
1000
ACAD_MTEXT_DEFINED_HEIGHT_END
  0
MTEXT
  5
BAEC
330
1F
100
AcDbEntity
  8
AM_6
100
AcDbMText
 10
2042.202739607145
 20
1681.728805110762
 30
0.0
 40
3.2
 41
80.36412711772412
 71
     1
 72
     5
  1
適応受：LB-37、LB-37TN
 73
     1
 44
1.0
  0
LINE
  5
BCC6
330
1F
100
AcDbEntity
  8
AM_0
100
AcDbLine
 10
2361.864524237619
 20
1544.214909654685
 30
0.0
 11
2351.864524237619
 21
1544.214909654685
 31
0.0
  0
LINE
  5
BCC7
330
1F
100
AcDbEntity
  8
AM_0
100
AcDbLine
 10
2361.864524237619
 20
1537.714909654685
 30
0.0
 11
2351.864524237619
 21
1537.714909654685
 31
0.0
  0
LINE
  5
BCC8
330
1F
100
AcDbEntity
  8
AM_0
100
AcDbLine
 10
2361.864524237619
 20
1544.214909654685
 30
0.0
 11
2361.864524237619
 21
1543.964917514684
 31
0.0
  0
LINE
  5
BCC9
330
1F
100
AcDbEntity
  8
AM_0
100
AcDbLine
 10
2361.864524237619
 20
1537.964917487185
 30
0.0
 11
2361.864524237619
 21
1537.714909654685
 31
0.0
  0
ENDSEC
  0
SECTION
  2
OBJECTS
  0
DICTIONARY
  5
C
330
0
100
AcDbDictionary
281
     1
  3
ACAD_2007HEADERVARS_RT
350
BD9B
  3
ACAD_BGPLOT_KEY
350
AB06
  3
ACAD_COLOR
350
A91D
  3
ACAD_GROUP
350
D
  3
ACAD_LAYOUT
350
1A
  3
ACAD_MATERIAL
350
A91C
  3
ACAD_MLINESTYLE
350
17
  3
ACAD_PLOTSETTINGS
350
19
  3
ACAD_PLOTSTYLENAME
350
E
  3
ACAD_TABLESTYLE
350
AAB9
  3
ACAD_VISUALSTYLE
350
B0F1
  3
AcAsAppObject
350
3DA1
  3
ACASGREF_MASTER
350
3DE9
  3
AcDbVariableDictionary
350
34
  3
AcmDictionary
350
47
  3
AD_GREF_MODULE
350
3DEA
  3
AD_MAPI_MODULE
350
3E06
  3
AMG
350
2B
  3
AMGSNAPSETTINGS
350
7D
  3
ASE_INDEX_DICTIONARY
350
BCCB
  3
MAPISURF_MODULE
350
3DEB
  0
DICTIONARY
  5
BC42
330
8
100
AcDbDictionary
280
     1
281
     1
  0
DICTIONARY
  5
3F95
330
2
100
AcDbDictionary
280
     1
281
     1
  3
ACAD_LAYERFILTERS
360
B4DC
  3
ACAD_LAYERSTATES
360
3F96
  3
ACLYDICTIONARY
360
B4DB
  3
AMLAYER_GROUPCOLORS
360
AAB4
  0
DICTIONARY
  5
8A
330
1F
100
AcDbDictionary
280
     1
281
     1
  3
ACAD_SORTENTS
360
B1BA
  0
DICTIONARY
  5
BD9B
102
{ACAD_REACTORS
330
C
102
}
330
C
100
AcDbDictionary
281
     1
  3
DIMARCSYM
350
BD9C
  0
DICTIONARY
  5
AB06
102
{ACAD_REACTORS
330
C
102
}
330
C
100
AcDbDictionary
280
     1
281
     1
  0
DICTIONARY
  5
A91D
102
{ACAD_REACTORS
330
C
102
}
330
C
100
AcDbDictionary
281
     1
  0
DICTIONARY
  5
D
102
{ACAD_REACTORS
330
C
102
}
330
C
100
AcDbDictionary
281
     1
  0
DICTIONARY
  5
1A
102
{ACAD_REACTORS
330
C
102
}
330
C
100
AcDbDictionary
281
     1
  3
Model
350
22
  3
ﾚｲｱｳﾄ1
350
1E
  3
ﾚｲｱｳﾄ2
350
26
  0
DICTIONARY
  5
A91C
102
{ACAD_REACTORS
330
C
102
}
330
C
100
AcDbDictionary
281
     1
  3
ByBlock
350
B0EF
  3
ByLayer
350
B0EE
  3
Global
350
B0F0
  0
DICTIONARY
  5
17
102
{ACAD_REACTORS
330
C
102
}
330
C
100
AcDbDictionary
281
     1
  3
Standard
350
18
  0
DICTIONARY
  5
19
102
{ACAD_REACTORS
330
C
102
}
330
C
100
AcDbDictionary
281
     1
  0
ACDBDICTIONARYWDFLT
  5
E
102
{ACAD_REACTORS
330
C
102
}
330
C
100
AcDbDictionary
281
     1
  3
Normal
350
F
100
AcDbDictionaryWithDefault
340
F
  0
DICTIONARY
  5
AAB9
102
{ACAD_REACTORS
330
C
102
}
330
C
100
AcDbDictionary
281
     1
  3
Standard
350
AABA
  0
DICTIONARY
  5
B0F1
102
{ACAD_REACTORS
330
C
102
}
330
C
100
AcDbDictionary
281
     1
  3
2dWireframe
350
B0F7
  3
3D Hidden
350
B0F9
  3
3dWireframe
350
B0F8
  3
Basic
350
B0F6
  3
Brighten
350
B0FD
  3
ColorChange
350
B101
  3
Conceptual
350
B0FA
  3
Dim
350
B0FC
  3
Facepattern
350
B100
  3
Flat
350
B0F2
  3
FlatWithEdges
350
B0F3
  3
Gouraud
350
B0F4
  3
GouraudWithEdges
350
B0F5
  3
Linepattern
350
B0FF
  3
Realistic
350
B0FB
  3
Thicken
350
B0FE
  0
ACAD_PROXY_OBJECT
  5
3DA1
102
{ACAD_REACTORS
330
C
102
}
330
C
100
AcDbProxyObject
 90
      499
 91
      576
 95
   917527
 70
     0
 93
       10
310
404C
 94
        0
  0
ACAD_PROXY_OBJECT
  5
3DE9
102
{ACAD_REACTORS
330
C
102
}
330
C
100
AcDbProxyObject
 90
      499
 91
      581
 95
   917527
 70
     0
 93
       34
310
010000404C
 94
        0
  0
DICTIONARY
  5
34
102
{ACAD_REACTORS
330
C
102
}
330
C
100
AcDbDictionary
281
     1
  3
CTABLESTYLE
350
AAF3
  3
DIMASSOC
350
A10C
  3
FIELDEVAL
350
AB07
  3
INDEXCTL
350
35
  3
SORTENTS
350
194C
  0
DICTIONARY
  5
47
102
{ACAD_REACTORS
330
C
102
}
330
C
100
AcDbDictionary
281
     1
  3
AcmBOM
350
7E8
  3
AcmStdDictionary
350
4C
  3
AMDTSECTSYM_ARROWCOLOR
350
A929
  0
ACAD_PROXY_OBJECT
  5
3DEA
102
{ACAD_REACTORS
330
C
102
}
330
C
100
AcDbProxyObject
 90
      499
 91
      582
 95
   917527
 70
     0
 93
      114
310
00000043800000000000000000000C
 94
        0
  0
ACAD_PROXY_OBJECT
  5
3E06
102
{ACAD_REACTORS
330
C
102
}
330
C
100
AcDbProxyObject
 90
      499
 91
      594
 95
   917527
 70
     0
 93
       34
310
05000044CC
 94
        0
  0
DICTIONARY
  5
2B
102
{ACAD_REACTORS
330
C
102
}
330
C
100
AcDbDictionary
281
     1
  0
DICTIONARY
  5
7D
102
{ACAD_REACTORS
330
C
102
}
330
C
100
AcDbDictionary
281
     1
  0
DICTIONARY
  5
BCCB
102
{ACAD_REACTORS
330
C
102
}
330
C
100
AcDbDictionary
281
     1
  3
ASEBlockHierarchyIndexRecord
350
BCCC
1001
DCO15
1040
1709972409.765
  0
ACAD_PROXY_OBJECT
  5
3DEB
102
{ACAD_REACTORS
330
C
102
}
330
C
100
AcDbProxyObject
 90
      499
 91
      583
 95
   917527
 70
     0
 93
        8
310
047E
 94
        0
  0
DICTIONARY
  5
B4DC
102
{ACAD_REACTORS
330
3F95
102
}
330
3F95
100
AcDbDictionary
281
     1
  0
DICTIONARY
  5
3F96
102
{ACAD_REACTORS
330
3F95
102
}
330
3F95
100
AcDbDictionary
281
     1
  3
20011210
350
3FB7
  0
DICTIONARY
  5
B4DB
102
{ACAD_REACTORS
330
3F95
102
}
330
3F95
100
AcDbDictionary
281
     1
1001
ACAD
1000
<All
  0
DICTIONARY
  5
AAB4
102
{ACAD_REACTORS
330
3F95
102
}
330
3F95
100
AcDbDictionary
280
     1
281
     1
  0
SORTENTSTABLE
  5
B1BA
102
{ACAD_REACTORS
330
8A
102
}
330
8A
100
AcDbSortentsTable
330
1F
331
BAC2
  5
BAC2
331
BA4C
  5
BA4C
331
BA83
  5
BA83
331
BACA
  5
BACA
331
BA54
  5
BA54
331
BA8B
  5
BA8B
331
BAD2
  5
BAD2
331
BA5C
  5
BA5C
331
BA93
  5
BA93
331
BA64
  5
BA64
331
BADA
  5
BADA
331
BA6C
  5
BA6C
331
BAA3
  5
BAA3
331
BAE2
  5
BAE2
331
BAEA
  5
BAEA
331
BA74
  5
BA74
331
BAAB
  5
BAAB
331
BAB3
  5
BAB3
331
BA3D
  5
BA3D
331
BA7C
  5
BA7C
331
BABB
  5
BABB
331
BA45
  5
BA45
331
BCC6
  5
BCC6
331
BAC3
  5
BAC3
331
BA4D
  5
BA4D
331
BA84
  5
BA84
331
BA55
  5
BA55
331
BA8C
  5
BA8C
331
BACB
  5
BACB
331
BAD3
  5
BAD3
331
BA5D
  5
BA5D
331
BADB
  5
BADB
331
BA65
  5
BA65
331
BA9C
  5
BA9C
331
BAE3
  5
BAE3
331
BA6D
  5
BA6D
331
BA75
  5
BA75
331
BAAC
  5
BAAC
331
BAEB
  5
BAEB
331
BA7D
  5
BA7D
331
BAB4
  5
BAB4
331
BA3E
  5
BA3E
331
BA46
  5
BA46
331
BABC
  5
BABC
331
BCC7
  5
BCC7
331
BAC4
  5
BAC4
331
BA4E
  5
BA4E
331
BA85
  5
BA85
331
BACC
  5
BACC
331
BA56
  5
BA56
331
BA8D
  5
BA8D
331
BAD4
  5
BAD4
331
BA5E
  5
BA5E
331
BA66
  5
BA66
331
BA9D
  5
BA9D
331
BADC
  5
BADC
331
BAE4
  5
BAE4
331
BA6E
  5
BA6E
331
BAEC
  5
BAEC
331
BA76
  5
BA76
331
BAAD
  5
BAAD
331
BAB5
  5
BAB5
331
BA3F
  5
BA3F
331
BA7E
  5
BA7E
331
BABD
  5
BABD
331
BA47
  5
BA47
331
BCC8
  5
BCC8
331
BA86
  5
BA86
331
BAC5
  5
BAC5
331
BA4F
  5
BA4F
331
BA57
  5
BA57
331
BA8E
  5
BA8E
331
BACD
  5
BACD
331
BAD5
  5
BAD5
331
BA5F
  5
BA5F
331
BADD
  5
BADD
331
BA67
  5
BA67
331
BA9E
  5
BA9E
331
BAE5
  5
BAE5
331
BA6F
  5
BA6F
331
BA77
  5
BA77
331
BAAE
  5
BAAE
331
BA7F
  5
BA7F
331
BAB6
  5
BAB6
331
BA40
  5
BA40
331
BABE
  5
BABE
331
BCC9
  5
BCC9
331
BA48
  5
BA48
331
BAC6
  5
BAC6
331
BA50
  5
BA50
331
BA87
  5
BA87
331
BACE
  5
BACE
331
BA58
  5
BA58
331
BA8F
  5
BA8F
331
BAD6
  5
BAD6
331
BA60
  5
BA60
331
BA9F
  5
BA9F
331
BADE
  5
BADE
331
BA68
  5
BA68
331
BAE6
  5
BAE6
331
BA70
  5
BA70
331
BA78
  5
BA78
331
BAAF
  5
BAAF
331
BAB7
  5
BAB7
331
BA41
  5
BA41
331
BABF
  5
BABF
331
BA49
  5
BA49
331
BA80
  5
BA80
331
BA88
  5
BA88
331
BAC7
  5
BAC7
331
BA51
  5
BA51
331
BA59
  5
BA59
331
BA90
  5
BA90
331
BACF
  5
BACF
331
BAD7
  5
BAD7
331
BA61
  5
BA61
331
BADF
  5
BADF
331
BA69
  5
BA69
331
BAA0
  5
BAA0
331
BAA8
  5
BAA8
331
BAE7
  5
BAE7
331
BA71
  5
BA71
331
BA79
  5
BA79
331
BAB0
  5
BAB0
331
BA3A
  5
BA3A
331
BA42
  5
BA42
331
BAB8
  5
BAB8
331
BA4A
  5
BA4A
331
BA81
  5
BA81
331
BAC0
  5
BAC0
331
BAC8
  5
BAC8
331
BA52
  5
BA52
331
BA89
  5
BA89
331
BAD0
  5
BAD0
331
BA5A
  5
BA5A
331
BA91
  5
BA91
331
BAD8
  5
BAD8
331
BA62
  5
BA62
331
BA6A
  5
BA6A
331
BAA1
  5
BAA1
331
BAE0
  5
BAE0
331
BAE8
  5
BAE8
331
BA72
  5
BA72
331
BAA9
  5
BAA9
331
BAB1
  5
BAB1
331
BA3B
  5
BA3B
331
BA7A
  5
BA7A
331
BAB9
  5
BAB9
331
BA43
  5
BA43
331
BAC1
  5
BAC1
331
BA4B
  5
BA4B
331
BA82
  5
BA82
331
BA53
  5
BA53
331
BA8A
  5
BA8A
331
BAC9
  5
BAC9
331
BA5B
  5
BA5B
331
BAD1
  5
BAD1
331
BAD9
  5
BAD9
331
BA63
  5
BA63
331
BAE1
  5
BAE1
331
BA6B
  5
BA6B
331
BAA2
  5
BAA2
331
BAAA
  5
BAAA
331
BAE9
  5
BAE9
331
BA73
  5
BA73
331
BA7B
  5
BA7B
331
BAB2
  5
BAB2
331
BA3C
  5
BA3C
331
BA44
  5
BA44
331
BABA
  5
BABA
  0
XRECORD
  5
BD9C
102
{ACAD_REACTORS
330
BD9B
102
}
330
BD9B
100
AcDbXrecord
280
     1
 70
     1
  0
LAYOUT
  5
22
102
{ACAD_REACTORS
330
1A
102
}
330
1A
100
AcDbPlotSettings
  1

  2
FX DocuWide 2050/2051
  4
A3
  6
AM_VIEW1
 40
3.174999952316284
 41
3.174999952316284
 42
3.17498779296875
 43
3.17498779296875
 44
296.989501953125
 45
419.9889831542968
 46
0.0
 47
1.295841228961961
 48
214.3704939521119
 49
367.5855324241176
140
275.6727856380065
141
407.629191407817
142
1.0
143
0.7225445603030646
 70
  3764
 72
     1
 73
     1
 74
     2
  7
monochrome.ctb
 75
     0
147
1.383997686703999
 76
     0
 77
     2
 78
   200
148
-1700.85588156276
149
-1647.985052086429
100
AcDbLayout
  1
Model
 70
     1
 71
     0
 10
0.0
 20
0.0
 11
12.0
 21
9.0
 12
0.0
 22
0.0
 32
0.0
 14
0.0
 24
0.0
 34
0.0
 15
0.0
 25
0.0
 35
0.0
146
0.0
 13
0.0
 23
0.0
 33
0.0
 16
1.0
 26
0.0
 36
0.0
 17
0.0
 27
1.0
 37
0.0
 76
     0
330
1F
331
B0EC
1001
ACAD_PSEXT
1000
FX DocuWide 2050/2051
1000
FX DocuWide 2050/2051
1000
IP_192.200.15.252
1000

1070
     0
  0
LAYOUT
  5
1E
102
{ACAD_REACTORS
330
1A
102
}
330
1A
100
AcDbPlotSettings
  1

  2
\\ML370\XEROX
  4
A4
  6

 40
3.174999952316284
 41
3.174999952316284
 42
3.175003051757812
 43
3.17498779296875
 44
209.8674926757813
 45
296.6719970703125
 46
0.0
 47
0.0
 48
0.0
 49
0.0
140
0.0
141
0.0
142
1.0
143
1.0
 70
   688
 72
     1
 73
     1
 74
     5
  7
monochrome.ctb
 75
    16
147
1.0
 76
     0
 77
     2
 78
   300
148
0.0
149
0.0
100
AcDbLayout
  1
ﾚｲｱｳﾄ1
 70
     1
 71
     1
 10
-3.17498779296875
 20
-3.174999952316284
 11
293.4970092773438
 21
206.692492723465
 12
0.0
 22
0.0
 32
0.0
 14
1.000000000000000E+20
 24
1.000000000000000E+20
 34
1.000000000000000E+20
 15
-1.000000000000000E+20
 25
-1.000000000000000E+20
 35
-1.000000000000000E+20
146
0.0
 13
0.0
 23
0.0
 33
0.0
 16
1.0
 26
0.0
 36
0.0
 17
0.0
 27
1.0
 37
0.0
 76
     0
330
1B
  0
LAYOUT
  5
26
102
{ACAD_REACTORS
330
1A
102
}
330
1A
100
AcDbPlotSettings
  1

  2
\\ML370\XEROX
  4

  6

 40
0.0
 41
0.0
 42
0.0
 43
0.0
 44
0.0
 45
0.0
 46
0.0
 47
0.0
 48
0.0
 49
0.0
140
0.0
141
0.0
142
1.0
143
1.0
 70
   688
 72
     0
 73
     0
 74
     5
  7
monochrome.ctb
 75
    16
147
1.0
 76
     0
 77
     2
 78
   300
148
0.0
149
0.0
100
AcDbLayout
  1
ﾚｲｱｳﾄ2
 70
     1
 71
     2
 10
0.0
 20
0.0
 11
12.0
 21
9.0
 12
0.0
 22
0.0
 32
0.0
 14
0.0
 24
0.0
 34
0.0
 15
0.0
 25
0.0
 35
0.0
146
0.0
 13
0.0
 23
0.0
 33
0.0
 16
1.0
 26
0.0
 36
0.0
 17
0.0
 27
1.0
 37
0.0
 76
     0
330
23
  0
MATERIAL
  5
B0EF
102
{ACAD_XDICTIONARY
360
BDA1
102
}
102
{ACAD_REACTORS
330
A91C
102
}
330
A91C
100
AcDbMaterial
  1
ByBlock
  0
MATERIAL
  5
B0EE
102
{ACAD_XDICTIONARY
360
BD9F
102
}
102
{ACAD_REACTORS
330
A91C
102
}
330
A91C
100
AcDbMaterial
  1
ByLayer
  0
MATERIAL
  5
B0F0
102
{ACAD_XDICTIONARY
360
BDA3
102
}
102
{ACAD_REACTORS
330
A91C
102
}
330
A91C
100
AcDbMaterial
  1
Global
  0
MLINESTYLE
  5
18
102
{ACAD_REACTORS
330
17
102
}
330
17
100
AcDbMlineStyle
  2
STANDARD
 70
     0
  3

 62
   256
 51
90.0
 52
90.0
 71
     2
 49
0.5
 62
   256
  6
BYLAYER
 49
-0.5
 62
   256
  6
BYLAYER
  0
ACDBPLACEHOLDER
  5
F
102
{ACAD_REACTORS
330
E
102
}
330
E
  0
TABLESTYLE
  5
AABA
102
{ACAD_XDICTIONARY
360
BD9D
102
}
102
{ACAD_REACTORS
330
AAB9
102
}
330
AAB9
100
AcDbTableStyle
  3
Standard
 70
     0
 71
     0
 40
1.5
 41
1.5
280
     0
281
     0
  7
STANDARD
140
4.5
170
     2
 62
     0
 63
     7
283
     0
274
    -2
284
     1
 64
     0
275
    -2
285
     1
 65
     0
276
    -2
286
     1
 66
     0
277
    -2
287
     1
 67
     0
278
    -2
288
     1
 68
     0
279
    -2
289
     1
 69
     0
  7
STANDARD
140
6.0
170
     5
 62
     0
 63
     7
283
     0
274
    -2
284
     1
 64
     0
275
    -2
285
     1
 65
     0
276
    -2
286
     1
 66
     0
277
    -2
287
     1
 67
     0
278
    -2
288
     1
 68
     0
279
    -2
289
     1
 69
     0
  7
STANDARD
140
4.5
170
     5
 62
     0
 63
     7
283
     0
274
    -2
284
     1
 64
     0
275
    -2
285
     1
 65
     0
276
    -2
286
     1
 66
     0
277
    -2
287
     1
 67
     0
278
    -2
288
     1
 68
     0
279
    -2
289
     1
 69
     0
  0
VISUALSTYLE
  5
B0F7
102
{ACAD_REACTORS
330
B0F1
102
}
330
B0F1
100
AcDbVisualStyle
  2
2dWireframe
 70
     4
 71
     0
 72
     2
 73
     0
 90
        0
 40
-0.6
 41
-30.0
 62
     5
 63
     7
421
 16777215
 74
     1
 91
        4
 64
     7
 65
   257
 75
     1
175
     1
 42
1.0
 92
        0
 66
   257
 43
1.0
 76
     1
 77
     6
 78
     2
 67
     7
 79
     5
170
     0
171
     0
290
     0
174
     0
 93
        1
 44
0.0
173
     0
291
     0
 45
0.0
1001
ACAD
1000
AcDbSavedByObjectVersion
1070
     0
  0
VISUALSTYLE
  5
B0F9
102
{ACAD_REACTORS
330
B0F1
102
}
330
B0F1
100
AcDbVisualStyle
  2
3D Hidden
 70
     6
 71
     1
 72
     2
 73
     2
 90
        0
 40
-0.6
 41
-30.0
 62
     5
 63
     7
421
 16777215
 74
     2
 91
        2
 64
     7
 65
   257
 75
     2
175
     1
 42
40.0
 92
        0
 66
   257
 43
1.0
 76
     1
 77
     6
 78
     2
 67
     7
 79
     3
170
     0
171
     0
290
     0
174
     0
 93
        1
 44
0.0
173
     0
291
     0
 45
0.0
1001
ACAD
1000
AcDbSavedByObjectVersion
1070
     0
  0
VISUALSTYLE
  5
B0F8
102
{ACAD_REACTORS
330
B0F1
102
}
330
B0F1
100
AcDbVisualStyle
  2
3dWireframe
 70
     5
 71
     0
 72
     2
 73
     0
 90
        0
 40
-0.6
 41
-30.0
 62
     5
 63
     7
421
 16777215
 74
     1
 91
        4
 64
     7
 65
   257
 75
     1
175
     1
 42
1.0
 92
        0
 66
   257
 43
1.0
 76
     1
 77
     6
 78
     2
 67
     7
 79
     5
170
     0
171
     0
290
     0
174
     0
 93
        1
 44
0.0
173
     0
291
     0
 45
0.0
1001
ACAD
1000
AcDbSavedByObjectVersion
1070
     0
  0
VISUALSTYLE
  5
B0F6
102
{ACAD_REACTORS
330
B0F1
102
}
330
B0F1
100
AcDbVisualStyle
  2
Basic
 70
     7
 71
     1
 72
     0
 73
     1
 90
        0
 40
-0.6
 41
-30.0
 62
     5
 63
     7
421
 16777215
 74
     0
 91
        4
 64
     7
 65
   257
 75
     1
175
     1
 42
1.0
 92
        8
 66
     7
 43
1.0
 76
     1
 77
     6
 78
     2
 67
     7
 79
     5
170
     0
171
     0
290
     0
174
     0
 93
        1
 44
0.0
173
     0
291
     1
 45
0.0
1001
ACAD
1000
AcDbSavedByObjectVersion
1070
     0
  0
VISUALSTYLE
  5
B0FD
102
{ACAD_REACTORS
330
B0F1
102
}
330
B0F1
100
AcDbVisualStyle
  2
Brighten
 70
    12
 71
     2
 72
     2
 73
     0
 90
        0
 40
-0.6
 41
-30.0
 62
     5
 63
     7
421
 16777215
 74
     1
 91
        4
 64
     7
 65
   257
 75
     1
175
     1
 42
1.0
 92
        8
 66
     7
 43
1.0
 76
     1
 77
     6
 78
     2
 67
     7
 79
     5
170
     0
171
     0
290
     0
174
     0
 93
        1
 44
50.0
173
     0
291
     1
 45
0.0
1001
ACAD
1000
AcDbSavedByObjectVersion
1070
     0
  0
VISUALSTYLE
  5
B101
102
{ACAD_REACTORS
330
B0F1
102
}
330
B0F1
100
AcDbVisualStyle
  2
ColorChange
 70
    16
 71
     2
 72
     2
 73
     3
 90
        0
 40
-0.6
 41
-30.0
 62
     5
 63
     8
421
  8421504
 74
     1
 91
        4
 64
     7
 65
   257
 75
     1
175
     1
 42
1.0
 92
        8
 66
     8
424
  8421504
 43
1.0
 76
     1
 77
     6
 78
     2
 67
     7
 79
     5
170
     0
171
     0
290
     0
174
     0
 93
        1
 44
0.0
173
     0
291
     1
 45
0.0
1001
ACAD
1000
AcDbSavedByObjectVersion
1070
     0
  0
VISUALSTYLE
  5
B0FA
102
{ACAD_REACTORS
330
B0F1
102
}
330
B0F1
100
AcDbVisualStyle
  2
Conceptual
 70
     9
 71
     3
 72
     2
 73
     0
 90
        0
 40
-0.6
 41
-30.0
 62
     5
 63
     7
421
 16777215
 74
     2
 91
        2
 64
     7
 65
   257
 75
     1
175
     1
 42
40.0
 92
        8
 66
     7
 43
1.0
 76
     1
 77
     6
 78
     2
 67
     7
 79
     3
170
     0
171
     0
290
     0
174
     0
 93
        1
 44
0.0
173
     0
291
     0
 45
0.0
1001
ACAD
1000
AcDbSavedByObjectVersion
1070
     0
  0
VISUALSTYLE
  5
B0FC
102
{ACAD_REACTORS
330
B0F1
102
}
330
B0F1
100
AcDbVisualStyle
  2
Dim
 70
    11
 71
     2
 72
     2
 73
     0
 90
        0
 40
-0.6
 41
-30.0
 62
     5
 63
     7
421
 16777215
 74
     1
 91
        4
 64
     7
 65
   257
 75
     1
175
     1
 42
1.0
 92
        8
 66
     7
 43
1.0
 76
     1
 77
     6
 78
     2
 67
     7
 79
     5
170
     0
171
     0
290
     0
174
     0
 93
        1
 44
-50.0
173
     0
291
     1
 45
0.0
1001
ACAD
1000
AcDbSavedByObjectVersion
1070
     0
  0
VISUALSTYLE
  5
B100
102
{ACAD_REACTORS
330
B0F1
102
}
330
B0F1
100
AcDbVisualStyle
  2
Facepattern
 70
    15
 71
     2
 72
     2
 73
     0
 90
        0
 40
-0.6
 41
-30.0
 62
     5
 63
     7
421
 16777215
 74
     1
 91
        4
 64
     7
 65
   257
 75
     1
175
     1
 42
1.0
 92
        8
 66
     7
 43
1.0
 76
     1
 77
     6
 78
     2
 67
     7
 79
     5
170
     0
171
     0
290
     0
174
     0
 93
        1
 44
0.0
173
     0
291
     1
 45
0.0
1001
ACAD
1000
AcDbSavedByObjectVersion
1070
     0
  0
VISUALSTYLE
  5
B0F2
102
{ACAD_REACTORS
330
B0F1
102
}
330
B0F1
100
AcDbVisualStyle
  2
Flat
 70
     0
 71
     2
 72
     1
 73
     1
 90
        2
 40
-0.6
 41
30.0
 62
     5
 63
     7
421
 16777215
 74
     0
 91
        4
 64
     7
 65
   257
 75
     1
175
     1
 42
1.0
 92
        8
 66
     7
 43
1.0
 76
     1
 77
     6
 78
     2
 67
     7
 79
     5
170
     0
171
     0
290
     0
174
     0
 93
       13
 44
0.0
173
     0
291
     1
 45
0.0
1001
ACAD
1000
AcDbSavedByObjectVersion
1070
     0
  0
VISUALSTYLE
  5
B0F3
102
{ACAD_REACTORS
330
B0F1
102
}
330
B0F1
100
AcDbVisualStyle
  2
FlatWithEdges
 70
     1
 71
     2
 72
     1
 73
     1
 90
        2
 40
-0.6
 41
30.0
 62
     5
 63
     7
421
 16777215
 74
     1
 91
        4
 64
     7
 65
   257
 75
     1
175
     1
 42
1.0
 92
        0
 66
   257
 43
1.0
 76
     1
 77
     6
 78
     2
 67
     7
 79
     5
170
     0
171
     0
290
     0
174
     0
 93
       13
 44
0.0
173
     0
291
     1
 45
0.0
1001
ACAD
1000
AcDbSavedByObjectVersion
1070
     0
  0
VISUALSTYLE
  5
B0F4
102
{ACAD_REACTORS
330
B0F1
102
}
330
B0F1
100
AcDbVisualStyle
  2
Gouraud
 70
     2
 71
     2
 72
     2
 73
     1
 90
        2
 40
-0.6
 41
30.0
 62
     5
 63
     7
421
 16777215
 74
     0
 91
        4
 64
     7
 65
   257
 75
     1
175
     1
 42
1.0
 92
        0
 66
     7
 43
1.0
 76
     1
 77
     6
 78
     2
 67
     7
 79
     5
170
     0
171
     0
290
     0
174
     0
 93
       13
 44
0.0
173
     0
291
     1
 45
0.0
1001
ACAD
1000
AcDbSavedByObjectVersion
1070
     0
  0
VISUALSTYLE
  5
B0F5
102
{ACAD_REACTORS
330
B0F1
102
}
330
B0F1
100
AcDbVisualStyle
  2
GouraudWithEdges
 70
     3
 71
     2
 72
     2
 73
     1
 90
        2
 40
-0.6
 41
30.0
 62
     5
 63
     7
421
 16777215
 74
     1
 91
        4
 64
     7
 65
   257
 75
     1
175
     1
 42
1.0
 92
        0
 66
   257
 43
1.0
 76
     1
 77
     6
 78
     2
 67
     7
 79
     5
170
     0
171
     0
290
     0
174
     0
 93
       13
 44
0.0
173
     0
291
     1
 45
0.0
1001
ACAD
1000
AcDbSavedByObjectVersion
1070
     0
  0
VISUALSTYLE
  5
B0FF
102
{ACAD_REACTORS
330
B0F1
102
}
330
B0F1
100
AcDbVisualStyle
  2
Linepattern
 70
    14
 71
     2
 72
     2
 73
     0
 90
        0
 40
-0.6
 41
-30.0
 62
     5
 63
     7
421
 16777215
 74
     1
 91
        4
 64
     7
 65
   257
 75
     7
175
     7
 42
1.0
 92
        8
 66
     7
 43
1.0
 76
     1
 77
     6
 78
     2
 67
     7
 79
     5
170
     0
171
     0
290
     0
174
     0
 93
        1
 44
0.0
173
     0
291
     1
 45
0.0
1001
ACAD
1000
AcDbSavedByObjectVersion
1070
     0
  0
VISUALSTYLE
  5
B0FB
102
{ACAD_REACTORS
330
B0F1
102
}
330
B0F1
100
AcDbVisualStyle
  2
Realistic
 70
     8
 71
     2
 72
     2
 73
     0
 90
        0
 40
-0.6
 41
-30.0
 62
     5
 63
     7
421
 16777215
 74
     1
 91
        0
 64
     7
 65
   257
 75
     1
175
     1
 42
1.0
 92
        8
 66
     8
424
  7895160
 43
1.0
 76
     1
 77
     6
 78
     2
 67
     7
 79
     5
170
     0
171
     0
290
     0
174
     0
 93
       13
 44
0.0
173
     0
291
     0
 45
0.0
1001
ACAD
1000
AcDbSavedByObjectVersion
1070
     0
  0
VISUALSTYLE
  5
B0FE
102
{ACAD_REACTORS
330
B0F1
102
}
330
B0F1
100
AcDbVisualStyle
  2
Thicken
 70
    13
 71
     2
 72
     2
 73
     0
 90
        0
 40
-0.6
 41
-30.0
 62
     5
 63
     7
421
 16777215
 74
     1
 91
        4
 64
     7
 65
   257
 75
     1
175
     1
 42
1.0
 92
       12
 66
     7
 43
1.0
 76
     1
 77
     6
 78
     2
 67
     7
 79
     5
170
     0
171
     0
290
     0
174
     0
 93
        1
 44
0.0
173
     0
291
     1
 45
0.0
1001
ACAD
1000
AcDbSavedByObjectVersion
1070
     0
  0
DICTIONARYVAR
  5
AAF3
102
{ACAD_REACTORS
330
34
102
}
330
34
100
DictionaryVariables
280
     0
  1
STANDARD
  0
DICTIONARYVAR
  5
A10C
102
{ACAD_REACTORS
330
34
102
}
330
34
100
DictionaryVariables
280
     0
  1
1
  0
DICTIONARYVAR
  5
AB07
102
{ACAD_REACTORS
330
34
102
}
330
34
100
DictionaryVariables
280
     0
  1
4
  0
DICTIONARYVAR
  5
35
102
{ACAD_REACTORS
330
34
102
}
330
34
100
DictionaryVariables
280
     0
  1
1
  0
DICTIONARYVAR
  5
194C
102
{ACAD_REACTORS
330
34
102
}
330
34
100
DictionaryVariables
280
     0
  1
96
  0
DICTIONARY
  5
7E8
102
{ACAD_REACTORS
330
47
102
}
330
47
100
AcDbDictionary
281
     1
  0
DICTIONARY
  5
4C
102
{ACAD_REACTORS
330
47
102
}
330
47
100
AcDbDictionary
281
     1
  0
XRECORD
  5
A929
102
{ACAD_REACTORS
330
47
102
}
330
47
100
AcDbXrecord
280
     1
 90
-1023410169
  0
XRECORD
  5
BCCC
102
{ACAD_REACTORS
330
BCCB
102
}
330
BCCB
100
AcDbXrecord
280
     1
330
BAB0
330
BBB2
330
BBB3
330
BBBC
330
BBBD
330
BBC5
330
BBC6
330
BBCF
330
BBD0
330
BBD8
330
BBD9
330
BBE1
330
BBE2
330
BBEA
330
BBEB
330
BBF3
330
BBF4
330
BBFC
330
BBFD
330
BC05
330
BC06
330
BC0E
330
BC0F
330
BC17
330
BC18
330
BC20
330
BC21
330
BC29
330
BC2A
330
BC32
330
BC33
330
BC3B
330
BC3C
  0
XRECORD
  5
3FB7
102
{ACAD_REACTORS
330
3F96
102
}
330
3F96
100
AcDbXrecord
280
     1
 91
        3
330
0
 90
        8
 62
     7
370
    40
331
16
  1
Color_7
330
0
 90
        0
 62
    14
370
    -3
331
16
  1
Color_14
330
0
 90
        8
 62
     7
370
    20
331
16
  1
Color_7
330
6D1
 90
        0
 62
     7
370
    -3
331
16
  1
Color_7
330
0
 90
        8
 62
     7
370
    50
331
16
  1
Color_7
330
0
 90
        8
 62
     2
370
    35
331
16
  1
Color_2
330
0
 90
        8
 62
     7
370
    -3
331
16
  1
Color_7
330
10
 90
        8
 62
     7
370
    -3
331
16
  1
Color_7
  0
DICTIONARY
  5
BDA1
330
B0EF
100
AcDbDictionary
280
     1
281
     1
  3
ACAD_XREC_ROUNDTRIP
360
BDA2
  0
DICTIONARY
  5
BD9F
330
B0EE
100
AcDbDictionary
280
     1
281
     1
  3
ACAD_XREC_ROUNDTRIP
360
BDA0
  0
DICTIONARY
  5
BDA3
330
B0F0
100
AcDbDictionary
280
     1
281
     1
  3
ACAD_XREC_ROUNDTRIP
360
BDA4
  0
DICTIONARY
  5
BD9D
330
AABA
100
AcDbDictionary
280
     1
281
     1
  3
ACAD_XREC_ROUNDTRIP
360
BD9E
  0
XRECORD
  5
BDA2
102
{ACAD_REACTORS
330
BDA1
102
}
330
BDA1
100
AcDbXrecord
280
     1
102
MATERIAL
148
0.0
149
0.0
149
0.0
 93
        0
 94
       63
282
     0
 72
     1
 77
     1
171
     1
175
     1
179
     1
273
     0
  0
XRECORD
  5
BDA0
102
{ACAD_REACTORS
330
BD9F
102
}
330
BD9F
100
AcDbXrecord
280
     1
102
MATERIAL
148
0.0
149
0.0
149
0.0
 93
        0
 94
       63
282
     0
 72
     1
 77
     1
171
     1
175
     1
179
     1
273
     0
  0
XRECORD
  5
BDA4
102
{ACAD_REACTORS
330
BDA3
102
}
330
BDA3
100
AcDbXrecord
280
     1
102
MATERIAL
148
0.0
149
0.0
149
0.0
 93
        0
 94
       63
282
     0
 72
     1
 77
     1
171
     1
175
     1
179
     1
273
     0
  0
XRECORD
  5
BD9E
102
{ACAD_REACTORS
330
BD9D
102
}
330
BD9D
100
AcDbXrecord
280
     1
102
ACAD_ROUNDTRIP_PRE2007_TABLESTYLE
 90
        4
 91
        0
  1

 92
        4
 93
        0
  2

 94
        4
 95
        0
  3

  0
ENDSEC
  0
EOF
